  0
SECTION
  2
HEADER
  9
$ACADVER
  1
AC1015
  9
$ACADMAINTVER
 70
     6
  9
$DWGCODEPAGE
  3
ANSI_1252
  9
$INSBASE
 10
0.0
 20
0.0
 30
0.0
  9
$EXTMIN
 10
0.0
 20
0.0
 30
0.0
  9
$EXTMAX
 10
297.0
 20
210.0
 30
0.0
  9
$LIMMIN
 10
0.0
 20
0.0
  9
$LIMMAX
 10
297.0
 20
210.0
  9
$ORTHOMODE
 70
     0
  9
$REGENMODE
 70
     1
  9
$FILLMODE
 70
     1
  9
$QTEXTMODE
 70
     0
  9
$MIRRTEXT
 70
     1
  9
$LTSCALE
 40
1.0
  9
$ATTMODE
 70
     1
  9
$TEXTSIZE
 40
2.0
  9
$TRACEWID
 40
1.0
  9
$TEXTSTYLE
  7
Standard
  9
$CLAYER
  8
0
  9
$CELTYPE
  6
ByLayer
  9
$CECOLOR
 62
   256
  9
$CELTSCALE
 40
1.0
  9
$DISPSILH
 70
     0
  9
$DIMSCALE
 40
1.0
  9
$DIMASZ
 40
3.0
  9
$DIMEXO
 40
0.0
  9
$DIMDLI
 40
3.75
  9
$DIMRND
 40
0.0
  9
$DIMDLE
 40
0.0
  9
$DIMEXE
 40
1.0
  9
$DIMTP
 40
0.0
  9
$DIMTM
 40
0.0
  9
$DIMTXT
 40
2.0
  9
$DIMCEN
 40
2.5
  9
$DIMTSZ
 40
0.0
  9
$DIMTOL
 70
     0
  9
$DIMLIM
 70
     0
  9
$DIMTIH
 70
     1
  9
$DIMTOH
 70
     1
  9
$DIMSE1
 70
     0
  9
$DIMSE2
 70
     0
  9
$DIMTAD
 70
     1
  9
$DIMZIN
 70
     0
  9
$DIMBLK
  1

  9
$DIMASO
 70
     1
  9
$DIMSHO
 70
     1
  9
$DIMPOST
  1

  9
$DIMAPOST
  1

  9
$DIMALT
 70
     0
  9
$DIMALTD
 70
     3
  9
$DIMALTF
 40
0.0393700787
  9
$DIMLFAC
 40
1.0
  9
$DIMTOFL
 70
     1
  9
$DIMTVP
 40
0.0
  9
$DIMTIX
 70
     0
  9
$DIMSOXD
 70
     0
  9
$DIMSAH
 70
     0
  9
$DIMBLK1
  1

  9
$DIMBLK2
  1

  9
$DIMSTYLE
  2
ISO-25
  9
$DIMCLRD
 70
     0
  9
$DIMCLRE
 70
     0
  9
$DIMCLRT
 70
     0
  9
$DIMTFAC
 40
1.0
  9
$DIMGAP
 40
1.524
  9
$DIMJUST
 70
     0
  9
$DIMSD1
 70
     0
  9
$DIMSD2
 70
     0
  9
$DIMTOLJ
 70
     0
  9
$DIMTZIN
 70
     0
  9
$DIMALTZ
 70
     0
  9
$DIMALTTZ
 70
     0
  9
$DIMUPT
 70
     0
  9
$DIMDEC
 70
     2
  9
$DIMTDEC
 70
     3
  9
$DIMALTU
 70
     2
  9
$DIMALTTD
 70
     3
  9
$DIMTXSTY
  7
Standard
  9
$DIMAUNIT
 70
     0
  9
$DIMADEC
 70
     2
  9
$DIMALTRND
 40
0.0
  9
$DIMAZIN
 70
     0
  9
$DIMDSEP
 70
    44
  9
$DIMATFIT
 70
     3
  9
$DIMFRAC
 70
     0
  9
$DIMLDRBLK
  1

  9
$DIMLUNIT
 70
     2
  9
$DIMLWD
 70
    -2
  9
$DIMLWE
 70
    -2
  9
$DIMTMOVE
 70
     0
  9
$LUNITS
 70
     2
  9
$LUPREC
 70
     2
  9
$SKETCHINC
 40
1.0
  9
$FILLETRAD
 40
10.0
  9
$AUNITS
 70
     0
  9
$AUPREC
 70
     2
  9
$MENU
  1
.
  9
$ELEVATION
 40
0.0
  9
$PELEVATION
 40
0.0
  9
$THICKNESS
 40
0.0
  9
$LIMCHECK
 70
     0
  9
$CHAMFERA
 40
10.0
  9
$CHAMFERB
 40
10.0
  9
$CHAMFERC
 40
20.0
  9
$CHAMFERD
 40
0.0
  9
$SKPOLY
 70
     0
  9
$TDCREATE
 40
2455672.380403055
  9
$TDUCREATE
 40
2455672.297069722
  9
$TDUPDATE
 40
2455672.380403067
  9
$TDUUPDATE
 40
2455672.297069734
  9
$TDINDWG
 40
0.0000000116
  9
$TDUSRTIMER
 40
0.0000000116
  9
$USRTIMER
 70
     1
  9
$ANGBASE
 50
0.0
  9
$ANGDIR
 70
     0
  9
$PDMODE
 70
     0
  9
$PDSIZE
 40
-1.0
  9
$PLINEWID
 40
0.0
  9
$SPLFRAME
 70
     0
  9
$SPLINETYPE
 70
     6
  9
$SPLINESEGS
 70
     8
  9
$HANDSEED
  5
189
  9
$SURFTAB1
 70
     6
  9
$SURFTAB2
 70
     6
  9
$SURFTYPE
 70
     6
  9
$SURFU
 70
     6
  9
$SURFV
 70
     6
  9
$UCSBASE
  2

  9
$UCSNAME
  2

  9
$UCSORG
 10
0.0
 20
0.0
 30
0.0
  9
$UCSXDIR
 10
1.0
 20
0.0
 30
0.0
  9
$UCSYDIR
 10
0.0
 20
1.0
 30
0.0
  9
$UCSORTHOREF
  2

  9
$UCSORTHOVIEW
 70
     0
  9
$UCSORGTOP
 10
0.0
 20
0.0
 30
0.0
  9
$UCSORGBOTTOM
 10
0.0
 20
0.0
 30
0.0
  9
$UCSORGLEFT
 10
0.0
 20
0.0
 30
0.0
  9
$UCSORGRIGHT
 10
0.0
 20
0.0
 30
0.0
  9
$UCSORGFRONT
 10
0.0
 20
0.0
 30
0.0
  9
$UCSORGBACK
 10
0.0
 20
0.0
 30
0.0
  9
$PUCSBASE
  2

  9
$PUCSNAME
  2

  9
$PUCSORG
 10
0.0
 20
0.0
 30
0.0
  9
$PUCSXDIR
 10
1.0
 20
0.0
 30
0.0
  9
$PUCSYDIR
 10
0.0
 20
1.0
 30
0.0
  9
$PUCSORTHOREF
  2

  9
$PUCSORTHOVIEW
 70
     0
  9
$PUCSORGTOP
 10
0.0
 20
0.0
 30
0.0
  9
$PUCSORGBOTTOM
 10
0.0
 20
0.0
 30
0.0
  9
$PUCSORGLEFT
 10
0.0
 20
0.0
 30
0.0
  9
$PUCSORGRIGHT
 10
0.0
 20
0.0
 30
0.0
  9
$PUCSORGFRONT
 10
0.0
 20
0.0
 30
0.0
  9
$PUCSORGBACK
 10
0.0
 20
0.0
 30
0.0
  9
$USERI1
 70
     0
  9
$USERI2
 70
     0
  9
$USERI3
 70
     0
  9
$USERI4
 70
     0
  9
$USERI5
 70
     0
  9
$USERR1
 40
0.0
  9
$USERR2
 40
0.0
  9
$USERR3
 40
0.0
  9
$USERR4
 40
0.0
  9
$USERR5
 40
0.0
  9
$WORLDVIEW
 70
     1
  9
$SHADEDGE
 70
     3
  9
$SHADEDIF
 70
    70
  9
$TILEMODE
 70
     1
  9
$MAXACTVP
 70
    64
  9
$PINSBASE
 10
0.0
 20
0.0
 30
0.0
  9
$PLIMCHECK
 70
     0
  9
$PEXTMIN
 10
1.0000000000E+20
 20
1.0000000000E+20
 30
1.0000000000E+20
  9
$PEXTMAX
 10
-1.0000000000E+20
 20
-1.0000000000E+20
 30
-1.0000000000E+20
  9
$PLIMMIN
 10
0.0
 20
0.0
  9
$PLIMMAX
 10
420.0
 20
297.0
  9
$UNITMODE
 70
     0
  9
$VISRETAIN
 70
     1
  9
$PLINEGEN
 70
     0
  9
$PSLTSCALE
 70
     1
  9
$TREEDEPTH
 70
  3020
  9
$CMLSTYLE
  2
Standard
  9
$CMLJUST
 70
     0
  9
$CMLSCALE
 40
20.0
  9
$PROXYGRAPHICS
 70
     1
  9
$MEASUREMENT
 70
     1
  9
$CELWEIGHT
370
    -1
  9
$ENDCAPS
280
     0
  9
$JOINSTYLE
280
     0
  9
$LWDISPLAY
290
     1
  9
$INSUNITS
 70
     4
  9
$HYPERLINKBASE
  1

  9
$STYLESHEET
  1

  9
$XEDIT
290
     1
  9
$CEPSNTYPE
380
     0
  9
$PSTYLEMODE
290
     1
  9
$FINGERPRINTGUID
  2
{1536C7DB-AA51-4C4A-B63C-50A5AA615381}
  9
$VERSIONGUID
  2
{FAEB1C32-E019-11D5-929B-00C0DF256EC4}
  9
$EXTNAMES
290
     1
  9
$PSVPSCALE
 40
0.0
  9
$OLESTARTUP
290
     0
  0
ENDSEC
  0
SECTION
  2
CLASSES
  0
CLASS
  1
ACDBDICTIONARYWDFLT
  2
AcDbDictionaryWithDefault
  3
ObjectDBX Classes
 90
        0
280
     0
281
     0
  0
CLASS
  1
VISUALSTYLE
  2
AcDbVisualStyle
  3
ObjectDBX Classes
 90
     4095
280
     0
281
     0
  0
CLASS
  1
DICTIONARYVAR
  2
AcDbDictionaryVar
  3
ObjectDBX Classes
 90
        0
280
     0
281
     0
  0
CLASS
  1
ACDBPLACEHOLDER
  2
AcDbPlaceHolder
  3
ObjectDBX Classes
 90
        0
280
     0
281
     0
  0
CLASS
  1
LAYOUT
  2
AcDbLayout
  3
ObjectDBX Classes
 90
        0
280
     0
281
     0
  0
ENDSEC
  0
SECTION
  2
TABLES
  0
TABLE
  2
VPORT
  5
8
330
0
100
AcDbSymbolTable
 70
     1
  0
VPORT
  5
29
330
8
100
AcDbSymbolTableRecord
100
AcDbViewportTableRecord
  2
*Active
 70
     0
 10
0.0
 20
0.0
 11
1.0
 21
1.0
 12
148.5
 22
105.0
 13
0.0
 23
0.0
 14
10.0
 24
10.0
 15
10.0
 25
10.0
 16
0.0
 26
0.0
 36
1.0
 17
0.0
 27
0.0
 37
0.0
 40
210.0
 41
1.4142857143
 42
50.0
 43
0.0
 44
0.0
 50
0.0
 51
0.0
 71
     0
 72
  2000
 73
     1
 74
     3
 75
     0
 76
     0
 77
     0
 78
     0
281
     0
 65
     1
110
0.0
120
0.0
130
0.0
111
1.0
121
0.0
131
0.0
112
0.0
122
1.0
132
0.0
 79
     0
146
0.0
  0
ENDTAB
  0
TABLE
  2
LTYPE
  5
5
330
0
100
AcDbSymbolTable
 70
     6
  0
LTYPE
  5
14
330
5
100
AcDbSymbolTableRecord
100
AcDbLinetypeTableRecord
  2
ByBlock
 70
     0
  3

 72
    65
 73
     0
 40
0.0
  0
LTYPE
  5
15
330
5
100
AcDbSymbolTableRecord
100
AcDbLinetypeTableRecord
  2
ByLayer
 70
     0
  3

 72
    65
 73
     0
 40
0.0
  0
LTYPE
  5
16
330
5
100
AcDbSymbolTableRecord
100
AcDbLinetypeTableRecord
  2
Continuous
 70
     0
  3
Solid line
 72
    65
 73
     0
 40
0.0
  0
LTYPE
  5
3B
330
5
100
AcDbSymbolTableRecord
100
AcDbLinetypeTableRecord
  2
HIDDEN
 70
     0
  3
Hidden __ __ __ __ __ __ __ __ __ __ __ __ __ __
 72
    65
 73
     2
 40
1.905
 49
1.27
 74
     0
 49
-0.635
 74
     0
  0
LTYPE
  5
3C
330
5
100
AcDbSymbolTableRecord
100
AcDbLinetypeTableRecord
  2
PHANTOM
 70
     0
  3
Phantom ______  __  __  ______  __  __  ______
 72
    65
 73
     6
 40
12.7
 49
6.35
 74
     0
 49
-1.27
 74
     0
 49
1.27
 74
     0
 49
-1.27
 74
     0
 49
1.27
 74
     0
 49
-1.27
 74
     0
  0
LTYPE
  5
3D
330
5
100
AcDbSymbolTableRecord
100
AcDbLinetypeTableRecord
  2
CENTER
 70
     0
  3
Center ____ _ ____ _ ____ _ ____ _ ____ _ ____
 72
    65
 73
     4
 40
10.16
 49
6.35
 74
     0
 49
-1.27
 74
     0
 49
1.27
 74
     0
 49
-1.27
 74
     0
  0
LTYPE
  5
3E
330
5
100
AcDbSymbolTableRecord
100
AcDbLinetypeTableRecord
  2
CENTERX2
 70
     0
  3
Center (2x) ________  __  ________  __  _____
 72
    65
 73
     4
 40
20.32
 49
12.7
 74
     0
 49
-2.54
 74
     0
 49
2.54
 74
     0
 49
-2.54
 74
     0
  0
LTYPE
  5
3F
330
5
100
AcDbSymbolTableRecord
100
AcDbLinetypeTableRecord
  2
DOT2
 70
     0
  3
Dot (.5x) ........................................
 72
    65
 73
     2
 40
0.635
 49
0.0
 74
     0
 49
-0.635
 74
     0
  0
ENDTAB
  0
TABLE
  2
LAYER
  5
2
330
0
100
AcDbSymbolTable
 70
     5
  0
LAYER
  5
10
330
2
100
AcDbSymbolTableRecord
100
AcDbLayerTableRecord
  2
0
 70
     0
 62
     7
  6
Continuous
370
    -3
390
F
  0
LAYER
  5
40
330
2
100
AcDbSymbolTableRecord
100
AcDbLayerTableRecord
  2
FORMAT
 70
     0
 62
     7
  6
Continuous
370
    -3
390
F
  0
LAYER
  5
41
330
2
100
AcDbSymbolTableRecord
100
AcDbLayerTableRecord
  2
VERMASSUNG
 70
     0
 62
     7
  6
Continuous
370
    -3
390
F
  0
LAYER
  5
42
330
2
100
AcDbSymbolTableRecord
100
AcDbLayerTableRecord
  2
KOPF_DÜNN
 70
     0
 62
     7
  6
Continuous
370
    -3
390
F
  0
LAYER
  5
43
330
2
100
AcDbSymbolTableRecord
100
AcDbLayerTableRecord
  2
KOPF_DICK
 70
     0
 62
     7
  6
Continuous
370
    15
390
F
  0
ENDTAB
  0
TABLE
  2
STYLE
  5
3
330
0
100
AcDbSymbolTable
 70
     3
  0
STYLE
  5
11
330
3
100
AcDbSymbolTableRecord
100
AcDbTextStyleTableRecord
  2
Standard
 70
     0
 40
0.0
 41
1.0
 50
0.0
 71
     0
 42
2.5
  3
txt
  4

  0
STYLE
  5
44
330
3
100
AcDbSymbolTableRecord
100
AcDbTextStyleTableRecord
  2
SLDTEXTSTYLE0
 70
     0
 40
0.0
 41
0.7
 50
0.0
 71
     0
 42
0.2
  3
TXT
  4

  0
STYLE
  5
48
330
3
100
AcDbSymbolTableRecord
100
AcDbTextStyleTableRecord
  2
SLDTEXTSTYLE1
 70
     0
 40
0.0
 41
0.6473684211
 50
0.0
 71
     0
 42
0.2
  3
TXT
  4

  0
ENDTAB
  0
TABLE
  2
VIEW
  5
6
330
0
100
AcDbSymbolTable
 70
     0
  0
ENDTAB
  0
TABLE
  2
UCS
  5
7
330
0
100
AcDbSymbolTable
 70
     0
  0
ENDTAB
  0
TABLE
  2
APPID
  5
9
330
0
100
AcDbSymbolTable
 70
     1
  0
APPID
  5
12
330
9
100
AcDbSymbolTableRecord
100
AcDbRegAppTableRecord
  2
ACAD
 70
     0
  0
ENDTAB
  0
TABLE
  2
DIMSTYLE
  5
A
330
0
100
AcDbSymbolTable
 70
     2
100
AcDbDimStyleTable
  0
DIMSTYLE
105
27
330
A
100
AcDbSymbolTableRecord
100
AcDbDimStyleTableRecord
  2
ISO-25
 70
     0
 41
2.5
 42
0.625
 43
3.75
 44
1.25
 73
     0
 74
     0
 77
     1
 78
     8
140
2.5
141
2.5
143
0.0393700787
147
0.625
171
     3
172
     1
271
     2
272
     2
274
     3
278
    44
283
     0
284
     8
340
11
  0
DIMSTYLE
105
142
102
{ACAD_REACTORS
330
141
330
14D
330
158
330
162
330
16C
330
176
102
}
330
A
100
AcDbSymbolTableRecord
100
AcDbDimStyleTableRecord
  2
SLDDIMSTYLE0
 70
     0
 41
3.0
 44
0.0
 45
0.000000001
 73
     0
 74
     0
 77
     1
 78
    12
140
2.0
147
0.5
173
     1
271
     2
272
     3
284
    12
340
44
  0
ENDTAB
  0
TABLE
  2
BLOCK_RECORD
  5
1
330
0
100
AcDbSymbolTable
 70
     7
  0
BLOCK_RECORD
  5
1F
330
1
100
AcDbSymbolTableRecord
100
AcDbBlockTableRecord
  2
*Model_Space
340
22
  0
BLOCK_RECORD
  5
1B
330
1
100
AcDbSymbolTableRecord
100
AcDbBlockTableRecord
  2
*Paper_Space
340
1E
  0
BLOCK_RECORD
  5
23
330
1
100
AcDbSymbolTableRecord
100
AcDbBlockTableRecord
  2
*Paper_Space0
340
26
  0
BLOCK_RECORD
  5
143
330
1
100
AcDbSymbolTableRecord
100
AcDbBlockTableRecord
  2
*D1
340
0
  0
BLOCK_RECORD
  5
14E
330
1
100
AcDbSymbolTableRecord
100
AcDbBlockTableRecord
  2
*D2
340
0
  0
BLOCK_RECORD
  5
159
330
1
100
AcDbSymbolTableRecord
100
AcDbBlockTableRecord
  2
*D3
340
0
  0
BLOCK_RECORD
  5
163
330
1
100
AcDbSymbolTableRecord
100
AcDbBlockTableRecord
  2
*D4
340
0
  0
BLOCK_RECORD
  5
16D
330
1
100
AcDbSymbolTableRecord
100
AcDbBlockTableRecord
  2
*D5
340
0
  0
BLOCK_RECORD
  5
177
330
1
100
AcDbSymbolTableRecord
100
AcDbBlockTableRecord
  2
*D6
340
0
  0
ENDTAB
  0
ENDSEC
  0
SECTION
  2
BLOCKS
  0
BLOCK
  5
20
330
1F
100
AcDbEntity
  8
0
100
AcDbBlockBegin
  2
*Model_Space
 70
     0
 10
0.0
 20
0.0
 30
0.0
  3
*Model_Space
  1

  0
ENDBLK
  5
21
330
1F
100
AcDbEntity
  8
0
100
AcDbBlockEnd
  0
BLOCK
  5
1C
330
1B
100
AcDbEntity
 67
     1
  8
0
100
AcDbBlockBegin
  2
*Paper_Space
 70
     0
 10
0.0
 20
0.0
 30
0.0
  3
*Paper_Space
  1

  0
ENDBLK
  5
1D
330
1B
100
AcDbEntity
 67
     1
  8
0
100
AcDbBlockEnd
  0
BLOCK
  5
24
330
23
100
AcDbEntity
  8
0
100
AcDbBlockBegin
  2
*Paper_Space0
 70
     0
 10
0.0
 20
0.0
 30
0.0
  3
*Paper_Space0
  1

  0
ENDBLK
  5
25
330
23
100
AcDbEntity
  8
0
100
AcDbBlockEnd
  0
BLOCK
  5
144
330
143
100
AcDbEntity
  8
0
100
AcDbBlockBegin
  2
*D1
 70
     1
 10
0.0
 20
0.0
 30
0.0
  3
*D1
  1

  0
SOLID
  5
146
330
143
100
AcDbEntity
  8
VERMASSUNG
100
AcDbTrace
 10
243.0036920078
 20
117.6139761647
 30
0.0
 11
242.5536920078
 21
114.6139761647
 31
0.0
 12
243.4536920078
 22
114.6139761647
 32
0.0
 13
243.4536920078
 23
114.6139761647
 33
0.0
  0
SOLID
  5
147
330
143
100
AcDbEntity
  8
VERMASSUNG
100
AcDbTrace
 10
243.0036920078
 20
105.6139761647
 30
0.0
 11
243.4536920078
 21
108.6139761647
 31
0.0
 12
242.5536920078
 22
108.6139761647
 32
0.0
 13
242.5536920078
 23
108.6139761647
 33
0.0
  0
LINE
  5
148
330
143
100
AcDbEntity
  8
VERMASSUNG
100
AcDbLine
 10
232.7036920078
 20
117.6139761647
 30
0.0
 11
244.0036920078
 21
117.6139761647
 31
0.0
  0
LINE
  5
149
330
143
100
AcDbEntity
  8
VERMASSUNG
100
AcDbLine
 10
232.7036920078
 20
105.6139761647
 30
0.0
 11
244.0036920078
 21
105.6139761647
 31
0.0
  0
LINE
  5
14A
330
143
100
AcDbEntity
  8
VERMASSUNG
100
AcDbLine
 10
243.0036920078
 20
117.6139761647
 30
0.0
 11
243.0036920078
 21
105.6139761647
 31
0.0
  0
MTEXT
  5
14B
330
143
100
AcDbEntity
  8
VERMASSUNG
100
AcDbMText
 10
240.4255565283
 20
108.6098385699
 30
0.0
 40
2.0
 41
0.0
 71
     1
 72
     1
  1
%%c
  7
SLDTEXTSTYLE0
 11
-7.044195017643634E-15
 21
1.0
 31
0.0
 73
     1
 44
1.0
  0
MTEXT
  5
14C
330
143
100
AcDbEntity
  8
VERMASSUNG
100
AcDbMText
 10
240.4255566447
 20
112.2185167931
 30
0.0
 40
2.0
 41
0.0
 71
     1
 72
     1
  1
12
  7
SLDTEXTSTYLE0
 11
-7.044195017643634E-15
 21
1.0
 31
0.0
 73
     1
 44
1.0
  0
ENDBLK
  5
145
330
143
100
AcDbEntity
  8
0
100
AcDbBlockEnd
  0
BLOCK
  5
14F
330
14E
100
AcDbEntity
  8
0
100
AcDbBlockBegin
  2
*D2
 70
     1
 10
0.0
 20
0.0
 30
0.0
  3
*D2
  1

  0
SOLID
  5
151
330
14E
100
AcDbEntity
  8
VERMASSUNG
100
AcDbTrace
 10
249.0036920078
 20
132.6139761647
 30
0.0
 11
248.5536920078
 21
129.6139761647
 31
0.0
 12
249.4536920078
 22
129.6139761647
 32
0.0
 13
249.4536920078
 23
129.6139761647
 33
0.0
  0
SOLID
  5
152
330
14E
100
AcDbEntity
  8
VERMASSUNG
100
AcDbTrace
 10
249.0036920078
 20
90.6139761647
 30
0.0
 11
249.4536920078
 21
93.6139761647
 31
0.0
 12
248.5536920078
 22
93.6139761647
 32
0.0
 13
248.5536920078
 23
93.6139761647
 33
0.0
  0
LINE
  5
153
330
14E
100
AcDbEntity
  8
VERMASSUNG
100
AcDbLine
 10
220.1366504848
 20
132.6139761647
 30
0.0
 11
250.0036920078
 21
132.6139761647
 31
0.0
  0
LINE
  5
154
330
14E
100
AcDbEntity
  8
VERMASSUNG
100
AcDbLine
 10
220.1366504848
 20
90.6139761647
 30
0.0
 11
250.0036920078
 21
90.6139761647
 31
0.0
  0
LINE
  5
155
330
14E
100
AcDbEntity
  8
VERMASSUNG
100
AcDbLine
 10
249.0036920078
 20
132.6139761647
 30
0.0
 11
249.0036920078
 21
90.6139761647
 31
0.0
  0
MTEXT
  5
156
330
14E
100
AcDbEntity
  8
VERMASSUNG
100
AcDbMText
 10
246.4255565283
 20
108.3104691224
 30
0.0
 40
2.0
 41
0.0
 71
     1
 72
     1
  1
%%c
  7
SLDTEXTSTYLE0
 11
-7.044195017643634E-15
 21
1.0
 31
0.0
 73
     1
 44
1.0
  0
MTEXT
  5
157
330
14E
100
AcDbEntity
  8
VERMASSUNG
100
AcDbMText
 10
246.4255566447
 20
111.9191473456
 30
0.0
 40
2.0
 41
0.0
 71
     1
 72
     1
  1
42
  7
SLDTEXTSTYLE0
 11
-7.044195017643634E-15
 21
1.0
 31
0.0
 73
     1
 44
1.0
  0
ENDBLK
  5
150
330
14E
100
AcDbEntity
  8
0
100
AcDbBlockEnd
  0
BLOCK
  5
15A
330
159
100
AcDbEntity
  8
0
100
AcDbBlockBegin
  2
*D3
 70
     1
 10
0.0
 20
0.0
 30
0.0
  3
*D3
  1

  0
SOLID
  5
15C
330
159
100
AcDbEntity
  8
VERMASSUNG
100
AcDbTrace
 10
128.9536920078
 20
145.496099675
 30
0.0
 11
131.9536920078
 21
145.046099675
 31
0.0
 12
131.9536920078
 22
145.946099675
 32
0.0
 13
131.9536920078
 23
145.946099675
 33
0.0
  0
SOLID
  5
15D
330
159
100
AcDbEntity
  8
VERMASSUNG
100
AcDbTrace
 10
233.0036920078
 20
145.496099675
 30
0.0
 11
230.0036920078
 21
145.946099675
 31
0.0
 12
230.0036920078
 22
145.046099675
 32
0.0
 13
230.0036920078
 23
145.046099675
 33
0.0
  0
LINE
  5
15E
330
159
100
AcDbEntity
  8
VERMASSUNG
100
AcDbLine
 10
128.9536920078
 20
141.4604164884
 30
0.0
 11
128.9536920078
 21
146.496099675
 31
0.0
  0
LINE
  5
15F
330
159
100
AcDbEntity
  8
VERMASSUNG
100
AcDbLine
 10
233.0036920078
 20
125.3398356431
 30
0.0
 11
233.0036920078
 21
146.496099675
 31
0.0
  0
LINE
  5
160
330
159
100
AcDbEntity
  8
VERMASSUNG
100
AcDbLine
 10
128.9536920078
 20
145.496099675
 30
0.0
 11
233.0036920078
 21
145.496099675
 31
0.0
  0
MTEXT
  5
161
330
159
100
AcDbEntity
  8
VERMASSUNG
100
AcDbMText
 10
177.2795067424
 20
148.0742350381
 30
0.0
 40
2.0
 41
0.0
 71
     1
 72
     1
  1
104.05
  7
SLDTEXTSTYLE0
 73
     1
 44
1.0
  0
ENDBLK
  5
15B
330
159
100
AcDbEntity
  8
0
100
AcDbBlockEnd
  0
BLOCK
  5
164
330
163
100
AcDbEntity
  8
0
100
AcDbBlockBegin
  2
*D4
 70
     1
 10
0.0
 20
0.0
 30
0.0
  3
*D4
  1

  0
SOLID
  5
166
330
163
100
AcDbEntity
  8
VERMASSUNG
100
AcDbTrace
 10
103.0036920078
 20
151.496099675
 30
0.0
 11
106.0036920078
 21
151.046099675
 31
0.0
 12
106.0036920078
 22
151.946099675
 32
0.0
 13
106.0036920078
 23
151.946099675
 33
0.0
  0
SOLID
  5
167
330
163
100
AcDbEntity
  8
VERMASSUNG
100
AcDbTrace
 10
233.0036920078
 20
151.496099675
 30
0.0
 11
230.0036920078
 21
151.946099675
 31
0.0
 12
230.0036920078
 22
151.046099675
 32
0.0
 13
230.0036920078
 23
151.046099675
 33
0.0
  0
LINE
  5
168
330
163
100
AcDbEntity
  8
VERMASSUNG
100
AcDbLine
 10
103.0036920078
 20
142.8139761647
 30
0.0
 11
103.0036920078
 21
152.496099675
 31
0.0
  0
LINE
  5
169
330
163
100
AcDbEntity
  8
VERMASSUNG
100
AcDbLine
 10
233.0036920078
 20
125.3398356431
 30
0.0
 11
233.0036920078
 21
152.496099675
 31
0.0
  0
LINE
  5
16A
330
163
100
AcDbEntity
  8
VERMASSUNG
100
AcDbLine
 10
103.0036920078
 20
151.496099675
 30
0.0
 11
233.0036920078
 21
151.496099675
 31
0.0
  0
MTEXT
  5
16B
330
163
100
AcDbEntity
  8
VERMASSUNG
100
AcDbMText
 10
166.1042044672
 20
154.0742350381
 30
0.0
 40
2.0
 41
0.0
 71
     1
 72
     1
  1
130
  7
SLDTEXTSTYLE0
 73
     1
 44
1.0
  0
ENDBLK
  5
165
330
163
100
AcDbEntity
  8
0
100
AcDbBlockEnd
  0
BLOCK
  5
16E
330
16D
100
AcDbEntity
  8
0
100
AcDbBlockBegin
  2
*D5
 70
     1
 10
0.0
 20
0.0
 30
0.0
  3
*D5
  1

  0
SOLID
  5
170
330
16D
100
AcDbEntity
  8
VERMASSUNG
100
AcDbTrace
 10
71.1036920078
 20
157.496099675
 30
0.0
 11
74.1036920078
 21
157.046099675
 31
0.0
 12
74.1036920078
 22
157.946099675
 32
0.0
 13
74.1036920078
 23
157.946099675
 33
0.0
  0
SOLID
  5
171
330
16D
100
AcDbEntity
  8
VERMASSUNG
100
AcDbTrace
 10
233.0036920078
 20
157.496099675
 30
0.0
 11
230.0036920078
 21
157.946099675
 31
0.0
 12
230.0036920078
 22
157.046099675
 32
0.0
 13
230.0036920078
 23
157.046099675
 33
0.0
  0
LINE
  5
172
330
16D
100
AcDbEntity
  8
VERMASSUNG
100
AcDbLine
 10
71.1036920078
 20
131.3046539112
 30
0.0
 11
71.1036920078
 21
158.496099675
 31
0.0
  0
LINE
  5
173
330
16D
100
AcDbEntity
  8
VERMASSUNG
100
AcDbLine
 10
233.0036920078
 20
125.3398356431
 30
0.0
 11
233.0036920078
 21
158.496099675
 31
0.0
  0
LINE
  5
174
330
16D
100
AcDbEntity
  8
VERMASSUNG
100
AcDbLine
 10
71.1036920078
 20
157.496099675
 30
0.0
 11
233.0036920078
 21
157.496099675
 31
0.0
  0
MTEXT
  5
175
330
16D
100
AcDbEntity
  8
VERMASSUNG
100
AcDbMText
 10
149.354725594
 20
160.0742350381
 30
0.0
 40
2.0
 41
0.0
 71
     1
 72
     1
  1
161.9
  7
SLDTEXTSTYLE0
 73
     1
 44
1.0
  0
ENDBLK
  5
16F
330
16D
100
AcDbEntity
  8
0
100
AcDbBlockEnd
  0
BLOCK
  5
178
330
177
100
AcDbEntity
  8
0
100
AcDbBlockBegin
  2
*D6
 70
     1
 10
0.0
 20
0.0
 30
0.0
  3
*D6
  1

  0
SOLID
  5
17A
330
177
100
AcDbEntity
  8
VERMASSUNG
100
AcDbTrace
 10
64.9550379198
 20
143.1139761647
 30
0.0
 11
64.5050379198
 21
140.1139761647
 31
0.0
 12
65.4050379198
 22
140.1139761647
 32
0.0
 13
65.4050379198
 23
140.1139761647
 33
0.0
  0
SOLID
  5
17B
330
177
100
AcDbEntity
  8
VERMASSUNG
100
AcDbTrace
 10
64.9550379198
 20
80.1139761647
 30
0.0
 11
65.4050379198
 21
83.1139761647
 31
0.0
 12
64.5050379198
 22
83.1139761647
 32
0.0
 13
64.5050379198
 23
83.1139761647
 33
0.0
  0
LINE
  5
17C
330
177
100
AcDbEntity
  8
VERMASSUNG
100
AcDbLine
 10
103.3036920078
 20
143.1139761647
 30
0.0
 11
63.9550379198
 21
143.1139761647
 31
0.0
  0
LINE
  5
17D
330
177
100
AcDbEntity
  8
VERMASSUNG
100
AcDbLine
 10
103.3036920078
 20
80.1139761647
 30
0.0
 11
63.9550379198
 21
80.1139761647
 31
0.0
  0
LINE
  5
17E
330
177
100
AcDbEntity
  8
VERMASSUNG
100
AcDbLine
 10
64.9550379198
 20
143.1139761647
 30
0.0
 11
64.9550379198
 21
80.1139761647
 31
0.0
  0
MTEXT
  5
17F
330
177
100
AcDbEntity
  8
VERMASSUNG
100
AcDbMText
 10
62.1769024308
 20
103.9104344529
 30
0.0
 40
2.0
 41
0.0
 71
     1
 72
     1
  1
HSK A 
  7
SLDTEXTSTYLE0
 11
-7.044195017643634E-15
 21
1.0
 31
0.0
 73
     1
 44
1.0
  0
MTEXT
  5
180
330
177
100
AcDbEntity
  8
VERMASSUNG
100
AcDbMText
 10
62.3769024403
 20
112.9104349968
 30
0.0
 40
2.0
 41
0.0
 71
     1
 72
     1
  1
%%c
  7
SLDTEXTSTYLE0
 11
-7.044195017643634E-15
 21
1.0
 31
0.0
 73
     1
 44
1.0
  0
MTEXT
  5
181
330
177
100
AcDbEntity
  8
VERMASSUNG
100
AcDbMText
 10
62.3769025567
 20
116.5187616468
 30
0.0
 40
2.0
 41
0.0
 71
     1
 72
     1
  1
63
  7
SLDTEXTSTYLE0
 11
-7.044195017643634E-15
 21
1.0
 31
0.0
 73
     1
 44
1.0
  0
ENDBLK
  5
179
330
177
100
AcDbEntity
  8
0
100
AcDbBlockEnd
  0
ENDSEC
  0
SECTION
  2
ENTITIES
  0
MTEXT
  5
45
330
1F
100
AcDbEntity
  8
KOPF_DÜNN
100
AcDbMText
 10
13.8892156294
 20
23.8442973028
 30
0.0
 40
3.0
 41
0.0
 71
     1
 72
     1
  1
HA6.W12.K01.130
  7
SLDTEXTSTYLE0
 73
     1
 44
1.0
  0
MTEXT
  5
46
330
1F
100
AcDbEntity
  8
VERMASSUNG
100
AcDbMText
 10
13.9329988022
 20
28.8834360957
 30
0.0
 40
3.0
 41
0.0
 71
     1
 72
     1
  1
Flächenspannfutter_End mill adapter Weldon ø12
  7
SLDTEXTSTYLE0
 73
     1
 44
1.0
  0
MTEXT
  5
47
330
1F
100
AcDbEntity
  8
VERMASSUNG
100
AcDbMText
 10
98.8601118557
 20
13.8365368179
 30
0.0
 40
2.0
 41
0.0
 71
     1
 72
     1
  1
Datum: 20.04.2011
  7
SLDTEXTSTYLE0
 73
     1
 44
1.0
  0
MTEXT
  5
49
330
1F
100
AcDbEntity
  8
VERMASSUNG
100
AcDbMText
 10
13.933048693
 20
18.0482802738
 30
0.0
 40
2.0
 41
0.0
 71
     1
 72
     1
  1
DIN 69 893 HSK A 63
  7
SLDTEXTSTYLE1
 73
     1
 44
1.0
  0
MTEXT
  5
4A
330
1F
100
AcDbEntity
  8
VERMASSUNG
100
AcDbMText
 10
13.9808475933
 20
13.9090973692
 30
0.0
 40
2.0
 41
0.0
 71
     1
 72
     1
  1
Gewicht: 1700g
  7
SLDTEXTSTYLE0
 73
     1
 44
1.0
  0
LINE
  5
4B
330
1F
100
AcDbEntity
  8
0
  6
Continuous
 62
     7
370
    15
100
AcDbLine
 10
103.3036920078
 20
80.1139761647
 30
0.0
 11
107.9536920078
 21
80.1139761647
 31
0.0
  0
LINE
  5
4C
330
1F
100
AcDbEntity
  8
0
  6
Continuous
 62
     7
370
    15
100
AcDbLine
 10
107.9630000947
 20
143.1139761647
 30
0.0
 11
103.3036920078
 21
143.1139761647
 31
0.0
  0
ARC
  5
4D
330
1F
100
AcDbEntity
  8
0
  6
Continuous
 62
     7
370
    15
100
AcDbCircle
 10
103.3036920078
 20
80.4139761647
 30
0.0
 40
0.3000000000000114
100
AcDbArc
 50
180.0
 51
270.0
  0
ARC
  5
4E
330
1F
100
AcDbEntity
  8
0
  6
Continuous
 62
     7
370
    15
100
AcDbCircle
 10
103.3036920078
 20
142.8139761647
 30
0.0
 40
0.3000000000000398
100
AcDbArc
 50
90.0
 51
180.0
  0
ARC
  5
4F
330
1F
100
AcDbEntity
  8
0
  6
Continuous
 62
     7
370
    15
100
AcDbCircle
 10
131.9536920078
 20
84.5980173632
 30
0.0
 40
3.000000000000003
100
AcDbArc
 50
104.3250519401
 51
168.149286167
  0
ARC
  5
50
330
1F
100
AcDbEntity
  8
0
  6
Continuous
 62
     7
370
    15
100
AcDbCircle
 10
131.9536920078
 20
138.6299349662
 30
0.0
 40
3.000000000000016
100
AcDbArc
 50
191.8581036668
 51
255.6749480599
  0
ARC
  5
51
330
1F
100
AcDbEntity
  8
0
  6
Continuous
 62
     7
370
    15
100
AcDbCircle
 10
102.5036852552
 20
87.0435385503
 30
0.0
 40
0.6000067526677164
100
AcDbArc
 50
33.5571153394
 51
90.0
  0
ARC
  5
52
330
1F
100
AcDbEntity
  8
0
  6
Continuous
 62
     7
370
    15
100
AcDbCircle
 10
102.5036852552
 20
136.1844137791
 30
0.0
 40
0.6000067526677164
100
AcDbArc
 50
270.0
 51
326.4428846606
  0
LINE
  5
53
330
1F
100
AcDbEntity
  8
0
  6
Continuous
 62
     7
370
    15
100
AcDbLine
 10
89.7732698254
 20
135.2717606245
 30
0.0
 11
77.2036920078
 21
134.6420222569
 31
0.0
  0
LINE
  5
54
330
1F
100
AcDbEntity
  8
0
  6
Continuous
 62
     7
370
    15
100
AcDbLine
 10
101.0036920078
 20
135.8344070264
 30
0.0
 11
98.1850826503
 21
135.6931941327
 31
0.0
  0
LINE
  5
55
330
1F
100
AcDbEntity
  8
0
  6
Continuous
 62
     7
370
    15
100
AcDbLine
 10
98.1853041255
 20
87.5347471007
 30
0.0
 11
101.0036920078
 21
87.393545303
 31
0.0
  0
LINE
  5
56
330
1F
100
AcDbEntity
  8
0
  6
Continuous
 62
     7
370
    15
100
AcDbLine
 10
81.2036920078
 20
88.3855292709
 30
0.0
 11
89.7739687771
 21
87.9561566873
 31
0.0
  0
LINE
  5
57
330
1F
100
AcDbEntity
  8
0
  6
Continuous
 62
     7
370
    15
100
AcDbLine
 10
101.0036920078
 20
87.393545303
 30
0.0
 11
101.8604047812
 21
87.6231007987
 31
0.0
  0
LINE
  5
58
330
1F
100
AcDbEntity
  8
0
  6
Continuous
 62
     7
370
    15
100
AcDbLine
 10
101.8604047812
 20
135.6048515306
 30
0.0
 11
101.0036920078
 21
135.8344070264
 31
0.0
  0
ARC
  5
59
330
1F
100
AcDbEntity
  8
0
  6
Continuous
 62
     7
370
    15
100
AcDbCircle
 10
155.9536920078
 20
-9.3860238353
 30
0.0
 40
100.0
100
AcDbArc
 50
90.0
 51
104.3250519401
  0
ARC
  5
5A
330
1F
100
AcDbEntity
  8
0
  6
Continuous
 62
     7
370
    15
100
AcDbCircle
 10
155.9536920078
 20
232.6139761647
 30
0.0
 40
100.0
100
AcDbArc
 50
255.6749480599
 51
270.0
  0
ARC
  5
5B
330
1F
100
AcDbEntity
  8
0
  6
Continuous
 62
     7
370
    15
100
AcDbCircle
 10
102.0156962083
 20
87.043545303
 30
0.0
 40
0.5999999999999943
100
AcDbArc
 50
90.0
 51
105.0
  0
ARC
  5
5C
330
1F
100
AcDbEntity
  8
0
  6
Continuous
 62
     7
370
    15
100
AcDbCircle
 10
102.0156962083
 20
136.1844070264
 30
0.0
 40
0.5999999999999659
100
AcDbArc
 50
255.0
 51
270.0
  0
LINE
  5
5D
330
1F
100
AcDbEntity
  8
0
  6
Continuous
 62
     7
370
    15
100
AcDbLine
 10
102.0156962083
 20
87.643545303
 30
0.0
 11
102.5036852552
 21
87.643545303
 31
0.0
  0
LINE
  5
5E
330
1F
100
AcDbEntity
  8
0
  6
Continuous
 62
     7
370
    15
100
AcDbLine
 10
102.5036852552
 20
135.5844070264
 30
0.0
 11
102.0156962083
 21
135.5844070264
 31
0.0
  0
LINE
  5
5F
330
1F
100
AcDbEntity
  8
0
  6
Continuous
 62
     7
370
    15
100
AcDbLine
 10
155.9536920078
 20
90.6139761647
 30
0.0
 11
220.1366504848
 21
90.6139761647
 31
0.0
  0
LINE
  5
60
330
1F
100
AcDbEntity
  8
0
  6
Continuous
 62
     7
370
    15
100
AcDbLine
 10
220.1366504848
 20
132.6139761647
 30
0.0
 11
155.9536920078
 21
132.6139761647
 31
0.0
  0
LINE
  5
61
330
1F
100
AcDbEntity
  8
0
  6
Continuous
 62
     7
370
    15
100
AcDbLine
 10
220.1366504848
 20
90.6139761647
 30
0.0
 11
231.8489285313
 21
96.0755011122
 31
0.0
  0
LINE
  5
62
330
1F
100
AcDbEntity
  8
0
  6
Continuous
 62
     7
370
    15
100
AcDbLine
 10
231.8489285313
 20
127.1524512171
 30
0.0
 11
220.1366504848
 21
132.6139761647
 31
0.0
  0
ARC
  5
63
330
1F
100
AcDbEntity
  8
0
  6
Continuous
 62
     7
370
    15
100
AcDbCircle
 10
231.0036920078
 20
97.8881166863
 30
0.0
 40
2.000000000000001
100
AcDbArc
 50
295.0
 51
0.0
  0
ARC
  5
64
330
1F
100
AcDbEntity
  8
0
  6
Continuous
 62
     7
370
    15
100
AcDbCircle
 10
231.0036920078
 20
125.3398356431
 30
0.0
 40
2.000000000000001
100
AcDbArc
 50
0.0
 51
65.0
  0
LINE
  5
65
330
1F
100
AcDbEntity
  8
0
  6
Continuous
 62
     7
370
    15
100
AcDbLine
 10
72.3981111343
 20
90.7439761647
 30
0.0
 11
79.8036920078
 21
90.7439761647
 31
0.0
  0
ARC
  5
66
330
1F
100
AcDbEntity
  8
0
  6
Continuous
 62
     7
370
    15
100
AcDbCircle
 10
79.8036920078
 20
89.3439761647
 30
0.0
 40
1.400000000000006
100
AcDbArc
 50
42.2210104152
 51
90.0
  0
LINE
  5
67
330
1F
100
AcDbEntity
  8
0
  6
Continuous
 62
     7
370
    15
100
AcDbLine
 10
71.115248234
 20
91.8824199386
 30
0.0
 11
72.244855466
 21
90.7528127065
 31
0.0
  0
LINE
  5
68
330
1F
100
AcDbEntity
  8
0
  6
Continuous
 62
     7
370
    15
100
AcDbLine
 10
72.244855466
 20
132.4751396229
 30
0.0
 11
71.1135927812
 21
131.3438769381
 31
0.0
  0
ARC
  5
69
330
1F
100
AcDbEntity
  8
0
  6
Continuous
 62
     7
370
    15
100
AcDbCircle
 10
75.8036920078
 20
133.8839761647
 30
0.0
 40
1.400000000000034
100
AcDbArc
 50
270.0
 51
302.5610026528
  0
LINE
  5
6A
330
1F
100
AcDbEntity
  8
0
  6
Continuous
 62
     7
370
    15
100
AcDbLine
 10
75.8036920078
 20
132.4839761647
 30
0.0
 11
72.3945804093
 21
132.4839761647
 31
0.0
  0
CIRCLE
  5
6B
330
1F
100
AcDbEntity
  8
0
  6
Continuous
 62
     7
370
    15
100
AcDbCircle
 10
211.0036920078
 20
111.6139761647
 30
0.0
 40
5.099999999999977
  0
LINE
  5
6C
330
1F
100
AcDbEntity
  8
0
  6
Continuous
 62
     7
370
    15
100
AcDbLine
 10
209.6967487364
 20
114.8220751789
 30
0.0
 11
207.5719251279
 21
112.0861795975
 31
0.0
  0
LINE
  5
6D
330
1F
100
AcDbEntity
  8
0
  6
Continuous
 62
     7
370
    15
100
AcDbLine
 10
213.1285156164
 20
114.3498717462
 30
0.0
 11
209.6967487364
 21
114.8220751789
 31
0.0
  0
LINE
  5
6E
330
1F
100
AcDbEntity
  8
0
  6
Continuous
 62
     7
370
    15
100
AcDbLine
 10
213.1285156164
 20
114.3498717462
 30
0.0
 11
214.4354588878
 21
111.1417727319
 31
0.0
  0
LINE
  5
6F
330
1F
100
AcDbEntity
  8
0
  6
Continuous
 62
     7
370
    15
100
AcDbLine
 10
208.8788683993
 20
108.8780805832
 30
0.0
 11
207.5719251279
 21
112.0861795975
 31
0.0
  0
LINE
  5
70
330
1F
100
AcDbEntity
  8
0
  6
Continuous
 62
     7
370
    15
100
AcDbLine
 10
212.3106352793
 20
108.4058771504
 30
0.0
 11
214.4354588878
 21
111.1417727319
 31
0.0
  0
LINE
  5
71
330
1F
100
AcDbEntity
  8
0
  6
Continuous
 62
     7
370
    15
100
AcDbLine
 10
212.3106352793
 20
108.4058771504
 30
0.0
 11
208.8788683993
 21
108.8780805832
 31
0.0
  0
LINE
  5
72
330
1F
100
AcDbEntity
  8
0
  6
Continuous
 62
     7
370
    15
100
AcDbLine
 10
107.9536920078
 20
131.4639761647
 30
0.0
 11
117.6117591764
 21
131.4639761647
 31
0.0
  0
LINE
  5
73
330
1F
100
AcDbEntity
  8
0
  6
Continuous
 62
     7
370
    15
100
AcDbLine
 10
117.6117591764
 20
81.4270584684
 30
0.0
 11
117.6117591764
 21
131.4639761647
 31
0.0
  0
LINE
  5
74
330
1F
100
AcDbEntity
  8
0
  6
Continuous
 62
     7
370
    15
100
AcDbLine
 10
117.6117591764
 20
81.4270584684
 30
0.0
 11
115.9536920078
 21
81.4270584684
 31
0.0
  0
SPLINE
  5
75
330
1F
100
AcDbEntity
  8
0
  6
Continuous
 62
     7
370
    15
100
AcDbSpline
210
0.0
220
0.0
230
1.0
 70
     8
 71
     3
 72
    28
 73
    24
 74
     0
 42
0.00000001
 43
0.00000001
 40
0.0
 40
0.0
 40
0.0
 40
0.0
 40
0.1250000000000001
 40
0.1250000000000001
 40
0.1875000000000001
 40
0.1875000000000001
 40
0.2500000000000001
 40
0.2500000000000001
 40
0.3749999999999999
 40
0.3749999999999999
 40
0.4375
 40
0.4375
 40
0.4999999999999999
 40
0.4999999999999999
 40
0.6249999999999999
 40
0.6249999999999999
 40
0.7499999999999997
 40
0.7499999999999997
 40
0.8124999999999998
 40
0.8124999999999998
 40
0.8749999999999998
 40
0.8749999999999998
 40
1.0
 40
1.0
 40
1.0
 40
1.0
 10
115.9536920078446
 20
81.42705846843323
 30
0.0
 10
115.4219842503516
 20
81.42705846843323
 30
0.0
 10
114.8997456850413
 20
81.41127375448302
 30
0.0
 10
114.1298751987663
 20
81.36627834040682
 30
0.0
 10
113.875515626575
 20
81.34772334533108
 30
0.0
 10
113.3713940458765
 20
81.30387062288457
 30
0.0
 10
113.1216712284485
 20
81.27852601593239
 30
0.0
 10
112.3960812770021
 20
81.19512393818229
 30
0.0
 10
111.9377210154206
 20
81.1292583790312
 30
0.0
 10
111.2872230720267
 20
81.0202880385394
 30
0.0
 10
111.0755410212342
 20
80.98204840277276
 30
0.0
 10
110.6714695320963
 20
80.9042896653534
 30
0.0
 10
110.4789630182754
 20
80.86478870317804
 30
0.0
 10
109.9291280472541
 20
80.74588096081204
 30
0.0
 10
109.5991992689453
 20
80.66606327938744
 30
0.0
 10
109.0147280003766
 20
80.51272011759137
 30
0.0
 10
108.7684508623632
 20
80.44138636432213
 30
0.0
 10
108.4686080696651
 20
80.3474428572475
 30
0.0
 10
108.3801512125929
 20
80.31824906388756
 30
0.0
 10
108.2267898592878
 20
80.26478248962415
 30
0.0
 10
108.1617016450616
 20
80.24042315534898
 30
0.0
 10
108.0061076291208
 20
80.17683300990424
 30
0.0
 10
107.9536920078446
 20
80.14673007481498
 30
0.0
 10
107.9536920078446
 20
80.12985318181806
 30
0.0
  0
LINE
  5
76
330
1F
100
AcDbEntity
  8
0
  6
Continuous
 62
     7
370
    15
100
AcDbLine
 10
107.9536920078
 20
80.1298531818
 30
0.0
 11
107.9536920078
 21
80.1139761647
 31
0.0
  0
SPLINE
  5
77
330
1F
100
AcDbEntity
  8
0
  6
Continuous
 62
     7
370
    15
100
AcDbSpline
210
0.0
220
0.0
230
1.0
 70
     8
 71
     3
 72
    22
 73
    18
 74
     0
 42
0.00000001
 43
0.00000001
 40
0.0
 40
0.0
 40
0.0
 40
0.0
 40
0.0515773377536172
 40
0.1565264849943629
 40
0.2100197540385886
 40
0.2615951369298746
 40
0.3664424119934943
 40
0.4198226601719804
 40
0.4724528789006786
 40
0.5794488992297344
 40
0.6339397336480286
 40
0.6872670452602943
 40
0.7409741315029978
 40
0.7958968813361827
 40
0.8512481408256359
 40
0.9034470736265863
 40
1.0
 40
1.0
 40
1.0
 40
1.0
 10
115.9536920078446
 20
142.0811716378446
 30
0.0
 10
115.7368818118421
 20
142.0825682589132
 30
0.0
 10
115.0789079929274
 20
142.0868067131694
 30
0.0
 10
114.2038130155964
 20
142.1263390375237
 30
0.0
 10
113.3589875207396
 20
142.1893122843656
 30
0.0
 10
112.5392622371353
 20
142.2673263176207
 30
0.0
 10
111.7634722591069
 20
142.3642094454959
 30
0.0
 10
111.0459837978005
 20
142.4724688574118
 30
0.0
 10
110.3667190506284
 20
142.5861872297163
 30
0.0
 10
109.7584040727195
 20
142.7026874146571
 30
0.0
 10
109.2383121319963
 20
142.8117876660742
 30
0.0
 10
108.8944219542802
 20
142.8877915638042
 30
0.0
 10
108.5994682265526
 20
142.9558250197258
 30
0.0
 10
108.3536939392114
 20
143.0145380704844
 30
0.0
 10
108.167791630238
 20
143.0601534504181
 30
0.0
 10
107.9961950245143
 20
143.1031129019786
 30
0.0
 10
107.976065749338
 20
143.1082739237807
 30
0.0
 10
107.9630000946644
 20
143.111623876923
 30
0.0
  0
LINE
  5
78
330
1F
100
AcDbEntity
  8
0
  6
Continuous
 62
     7
370
    15
100
AcDbLine
 10
117.6117591764
 20
142.0811716378
 30
0.0
 11
115.9536920078
 21
142.0811716378
 31
0.0
  0
LINE
  5
79
330
1F
100
AcDbEntity
  8
0
  6
Continuous
 62
     7
370
    15
100
AcDbLine
 10
117.6117591764
 20
136.072665827
 30
0.0
 11
117.6117591764
 21
142.0811716378
 31
0.0
  0
LINE
  5
7A
330
1F
100
AcDbEntity
  8
0
  6
Continuous
 62
     7
370
    15
100
AcDbLine
 10
115.1993123535
 20
136.072665827
 30
0.0
 11
117.6117591764
 21
136.072665827
 31
0.0
  0
SPLINE
  5
7B
330
1F
100
AcDbEntity
  8
0
  6
Continuous
 62
     7
370
    15
100
AcDbSpline
210
0.0
220
0.0
230
1.0
 70
     8
 71
     3
 72
    20
 73
    16
 74
     0
 42
0.00000001
 43
0.00000001
 40
0.0
 40
0.0
 40
0.0
 40
0.0
 40
0.2499999999999997
 40
0.2499999999999997
 40
0.3749999999999997
 40
0.3749999999999997
 40
0.4999999999999998
 40
0.4999999999999998
 40
0.6249999999999998
 40
0.6249999999999998
 40
0.7499999999999999
 40
0.7499999999999999
 40
0.8749999999999999
 40
0.8749999999999999
 40
1.0
 40
1.0
 40
1.0
 40
1.0
 10
107.9536920078446
 20
131.4639761646804
 30
0.0
 10
108.2020657421326
 20
132.1178385929778
 30
0.0
 10
108.5216358344779
 20
132.7216243749749
 30
0.0
 10
109.1439420676826
 20
133.5484631111435
 30
0.0
 10
109.3753663281133
 20
133.8108917490965
 30
0.0
 10
109.8965806677631
 20
134.3075544032014
 30
0.0
 10
110.1832011503981
 20
134.538141282223
 30
0.0
 10
110.8026858917057
 20
134.9546955068056
 30
0.0
 10
111.1369862711927
 20
135.1421933087731
 30
0.0
 10
111.8622467438175
 20
135.4735902864095
 30
0.0
 10
112.244161801208
 20
135.6130942739048
 30
0.0
 10
113.0389499773796
 20
135.8385477813758
 30
0.0
 10
113.453108171586
 20
135.9251738929194
 30
0.0
 10
114.3186545121674
 20
136.0431546817735
 30
0.0
 10
114.7565421271792
 20
136.0726658270478
 30
0.0
 10
115.1993123535339
 20
136.0726658270478
 30
0.0
  0
SPLINE
  5
7C
330
1F
100
AcDbEntity
  8
0
  6
Continuous
 62
     7
370
    15
100
AcDbSpline
210
0.0
220
0.0
230
1.0
 70
     8
 71
     3
 72
    70
 73
    66
 74
     0
 42
0.00000001
 43
0.00000001
 40
-0.0312500000000001
 40
-0.0312500000000001
 40
0.0
 40
0.0
 40
0.0312499999999999
 40
0.0312499999999999
 40
0.0624999999999998
 40
0.0624999999999998
 40
0.0937499999999997
 40
0.0937499999999997
 40
0.1249999999999996
 40
0.1249999999999996
 40
0.1562499999999994
 40
0.1562499999999994
 40
0.1874999999999993
 40
0.1874999999999993
 40
0.2187499999999992
 40
0.2187499999999992
 40
0.2499999999999991
 40
0.2499999999999991
 40
0.281249999999999
 40
0.281249999999999
 40
0.3124999999999989
 40
0.3124999999999989
 40
0.3437499999999988
 40
0.3437499999999988
 40
0.3749999999999987
 40
0.3749999999999987
 40
0.4062499999999986
 40
0.4062499999999986
 40
0.4374999999999984
 40
0.4374999999999984
 40
0.4687499999999983
 40
0.4687499999999983
 40
0.4999999999999982
 40
0.4999999999999982
 40
0.5312499999999983
 40
0.5312499999999983
 40
0.5624999999999984
 40
0.5624999999999984
 40
0.5937499999999986
 40
0.5937499999999986
 40
0.6249999999999987
 40
0.6249999999999987
 40
0.6562499999999988
 40
0.6562499999999988
 40
0.6874999999999989
 40
0.6874999999999989
 40
0.718749999999999
 40
0.718749999999999
 40
0.7499999999999991
 40
0.7499999999999991
 40
0.7812499999999992
 40
0.7812499999999992
 40
0.8124999999999993
 40
0.8124999999999993
 40
0.8437499999999994
 40
0.8437499999999994
 40
0.8749999999999996
 40
0.8749999999999996
 40
0.9062499999999997
 40
0.9062499999999997
 40
0.9374999999999998
 40
0.9374999999999998
 40
0.9687499999999999
 40
0.9687499999999999
 40
1.0
 40
1.0
 40
1.03125
 40
1.03125
 10
111.2682373465047
 20
122.2348830506637
 30
0.0
 10
110.7391466691844
 20
122.2348830506637
 30
0.0
 10
110.4790760018073
 20
122.2595603454489
 30
0.0
 10
109.9675013219719
 20
122.3560320184909
 30
0.0
 10
109.7133260382317
 20
122.4290129344709
 30
0.0
 10
109.22905540817
 20
122.6187535374095
 30
0.0
 10
108.9994143162889
 20
122.7346141958033
 30
0.0
 10
108.5648099680554
 20
123.007232041761
 30
0.0
 10
108.3592441914088
 20
123.1652711238147
 30
0.0
 10
107.9906870508135
 20
123.5088139747854
 30
0.0
 10
107.825206068078
 20
123.6955764188871
 30
0.0
 10
107.5327815586429
 20
124.0991195932839
 30
0.0
 10
107.4086805820164
 20
124.312616589713
 30
0.0
 10
107.2091013852667
 20
124.7519999036355
 30
0.0
 10
107.1321677994084
 20
124.9811398907812
 30
0.0
 10
107.0293107408881
 20
125.4471140135412
 30
0.0
 10
107.0038378314289
 20
125.6799964592173
 30
0.0
 10
107.0035474208612
 20
126.1453939942971
 30
0.0
 10
107.0295720546369
 20
126.3802697516915
 30
0.0
 10
107.1317203391289
 20
126.8317628989377
 30
0.0
 10
107.2072967867121
 20
127.0498093743491
 30
0.0
 10
107.407794317857
 20
127.4709038993869
 30
0.0
 10
107.5329231593654
 20
127.6728252839053
 30
0.0
 10
107.822281960387
 20
128.0448547664242
 30
0.0
 10
107.9876929474424
 20
128.2174830700045
 30
0.0
 10
108.3606835055903
 20
128.5348010745505
 30
0.0
 10
108.5624165386794
 20
128.6745880080522
 30
0.0
 10
108.9952757895072
 20
128.918764261604
 30
0.0
 10
109.2291943223966
 20
129.0239937726454
 30
0.0
 10
109.7133780575392
 20
129.1921509190206
 30
0.0
 10
109.9626936834947
 20
129.2554018096145
 30
0.0
 10
110.4757262079225
 20
129.3409810187171
 30
0.0
 10
110.7410200308271
 20
129.3628531836394
 30
0.0
 10
111.2633546506968
 20
129.3630168332834
 30
0.0
 10
111.5231083131786
 20
129.3420151411874
 30
0.0
 10
112.0397201288238
 20
129.2566127861097
 30
0.0
 10
112.2920861693241
 20
129.1926066028228
 30
0.0
 10
112.7736112908569
 20
129.0257920827816
 30
0.0
 10
113.0064620229705
 20
128.9216589193825
 30
0.0
 10
113.4435518714093
 20
128.6756722668875
 30
0.0
 10
113.6448728600664
 20
128.5359224359386
 30
0.0
 10
114.0139588853663
 20
128.222784366214
 30
0.0
 10
114.182943636418
 20
128.0473282069439
 30
0.0
 10
114.4733996930772
 20
127.6744879428437
 30
0.0
 10
114.5964715044394
 20
127.4763661327328
 30
0.0
 10
114.7978077458614
 20
127.0556547899991
 30
0.0
 10
114.8750202918036
 20
126.8336647693316
 30
0.0
 10
114.9772238347037
 20
126.3837998296232
 30
0.0
 10
115.003452186156
 20
126.1535444165064
 30
0.0
 10
115.0039285854731
 20
125.6822284739574
 30
0.0
 10
114.9781861729751
 20
125.4489910582433
 30
0.0
 10
114.8768753966113
 20
124.9873145187452
 30
0.0
 10
114.8000427572203
 20
124.756417131633
 30
0.0
 10
114.5996389180052
 20
124.3141411178414
 30
0.0
 10
114.4769674197131
 20
124.1030786865555
 30
0.0
 10
114.1870201305489
 20
123.7015801758228
 30
0.0
 10
114.0184491511837
 20
123.5106736537469
 30
0.0
 10
113.6501795570705
 20
123.1669483217498
 30
0.0
 10
113.4491176998002
 20
123.0118111355357
 30
0.0
 10
113.0120867812152
 20
122.736733775456
 30
0.0
 10
112.7799385680856
 20
122.619617546034
 30
0.0
 10
112.2989282865868
 20
122.4306910609695
 30
0.0
 10
112.0468282037564
 20
122.3576160905752
 30
0.0
 10
111.5297587174973
 20
122.2595640314406
 30
0.0
 10
111.2682373465047
 20
122.2348830506637
 30
0.0
 10
110.7391466691844
 20
122.2348830506637
 30
0.0
  0
SPLINE
  5
7D
330
1F
100
AcDbEntity
  8
0
  6
Continuous
 62
     7
370
    15
100
AcDbSpline
210
0.0
220
0.0
230
1.0
 70
     8
 71
     3
 72
    70
 73
    66
 74
     0
 42
0.00000001
 43
0.00000001
 40
-0.0312499999999999
 40
-0.0312499999999999
 40
0.0
 40
0.0
 40
0.0312499999999999
 40
0.0312499999999999
 40
0.0624999999999998
 40
0.0624999999999998
 40
0.0937499999999997
 40
0.0937499999999997
 40
0.1249999999999996
 40
0.1249999999999996
 40
0.1562499999999995
 40
0.1562499999999995
 40
0.1874999999999994
 40
0.1874999999999994
 40
0.2187499999999993
 40
0.2187499999999993
 40
0.2499999999999992
 40
0.2499999999999992
 40
0.2812499999999993
 40
0.2812499999999993
 40
0.3124999999999993
 40
0.3124999999999993
 40
0.3437499999999994
 40
0.3437499999999994
 40
0.3749999999999995
 40
0.3749999999999995
 40
0.4062499999999996
 40
0.4062499999999996
 40
0.4374999999999996
 40
0.4374999999999996
 40
0.4687499999999997
 40
0.4687499999999997
 40
0.4999999999999998
 40
0.4999999999999998
 40
0.5312499999999999
 40
0.5312499999999999
 40
0.5625
 40
0.5625
 40
0.5937500000000001
 40
0.5937500000000001
 40
0.6250000000000002
 40
0.6250000000000002
 40
0.6562500000000004
 40
0.6562500000000004
 40
0.6875000000000006
 40
0.6875000000000006
 40
0.7187500000000007
 40
0.7187500000000007
 40
0.7500000000000008
 40
0.7500000000000008
 40
0.7812500000000007
 40
0.7812500000000007
 40
0.8125000000000006
 40
0.8125000000000006
 40
0.8437500000000004
 40
0.8437500000000004
 40
0.8750000000000003
 40
0.8750000000000003
 40
0.9062500000000003
 40
0.9062500000000003
 40
0.9375000000000002
 40
0.9375000000000002
 40
0.9687500000000001
 40
0.9687500000000001
 40
1.0
 40
1.0
 40
1.03125
 40
1.03125
 10
111.2682373465047
 20
136.6729395594596
 30
0.0
 10
110.7391466691844
 20
136.6729395594596
 30
0.0
 10
110.4790760018073
 20
136.6888399998743
 30
0.0
 10
109.9675013219719
 20
136.7507843500486
 30
0.0
 10
109.7133260382317
 20
136.7975865841399
 30
0.0
 10
109.22905540817
 20
136.918563567595
 30
0.0
 10
108.9994143162889
 20
136.9921658954018
 30
0.0
 10
108.5648099680554
 20
137.16399016638
 30
0.0
 10
108.3592441914088
 20
137.2629935893073
 30
0.0
 10
107.9906870508135
 20
137.4760900032202
 30
0.0
 10
107.825206068078
 20
137.5909897193499
 30
0.0
 10
107.5327815586429
 20
137.8363566180402
 30
0.0
 10
107.4086805820164
 20
137.9647965185105
 30
0.0
 10
107.2091013852667
 20
138.2256886665964
 30
0.0
 10
107.1321677994084
 20
138.3600698379359
 30
0.0
 10
107.0293107408881
 20
138.6293897890422
 30
0.0
 10
107.0038378314289
 20
138.7620710532603
 30
0.0
 10
107.0035474208612
 20
139.0232575273913
 30
0.0
 10
107.0295720546369
 20
139.1530225655561
 30
0.0
 10
107.1317203391289
 20
139.3986051998287
 30
0.0
 10
107.2072967867121
 20
139.5152667371376
 30
0.0
 10
107.407794317857
 20
139.7371719272922
 30
0.0
 10
107.5329231593654
 20
139.8417831812152
 30
0.0
 10
107.822281960387
 20
140.0318295928232
 30
0.0
 10
107.9876929474424
 20
140.1185892642729
 30
0.0
 10
108.3606835055903
 20
140.2760936400244
 30
0.0
 10
108.5624165386794
 20
140.3444189048117
 30
0.0
 10
108.9952757895072
 20
140.4626486284309
 30
0.0
 10
109.2291943223966
 20
140.5129435445347
 30
0.0
 10
109.7133780575392
 20
140.5928090814243
 30
0.0
 10
109.9626936834947
 20
140.622550209224
 30
0.0
 10
110.4757262079224
 20
140.6627029507322
 30
0.0
 10
110.7410200308271
 20
140.672901220142
 30
0.0
 10
111.2633546506968
 20
140.6729776785267
 30
0.0
 10
111.5231083131786
 20
140.6631866669177
 30
0.0
 10
112.0397201288238
 20
140.6231198281789
 30
0.0
 10
112.2920861693241
 20
140.5930226613221
 30
0.0
 10
112.7736112908569
 20
140.5138004514919
 30
0.0
 10
113.0064620229705
 20
140.4640429720286
 30
0.0
 10
113.4435518714093
 20
140.3449510295781
 30
0.0
 10
113.6448728600664
 20
140.2766357680309
 30
0.0
 10
114.0139588853663
 20
140.1212348010973
 30
0.0
 10
114.182943636418
 20
140.0330824590304
 30
0.0
 10
114.4733996930772
 20
139.8426430699141
 30
0.0
 10
114.5964715044394
 20
139.740018492215
 30
0.0
 10
114.7978077458614
 20
139.5183781456069
 30
0.0
 10
114.8750202918036
 20
139.3996240700594
 30
0.0
 10
114.9772238347037
 20
139.1549581311417
 30
0.0
 10
115.003452186156
 20
139.0278014056932
 30
0.0
 10
115.0039285854731
 20
138.7633532598376
 30
0.0
 10
114.9781861729751
 20
138.6304525795805
 30
0.0
 10
114.8768753966113
 20
138.3636603060984
 30
0.0
 10
114.8000427572203
 20
138.2282964046298
 30
0.0
 10
114.5996389180052
 20
137.9657166093273
 30
0.0
 10
114.4769674197131
 20
137.8387414495735
 30
0.0
 10
114.1870201305489
 20
137.5946620634911
 30
0.0
 10
114.0184491511836
 20
137.4772369387373
 30
0.0
 10
113.6501795570705
 20
137.2640404777888
 30
0.0
 10
113.4491176998002
 20
137.1668663593639
 30
0.0
 10
113.0120867812152
 20
136.9935114721498
 30
0.0
 10
112.7799385680856
 20
136.9191119204931
 30
0.0
 10
112.2989282865868
 20
136.7986590409884
 30
0.0
 10
112.0468282037564
 20
136.7518006657224
 30
0.0
 10
111.5297587174973
 20
136.6888431687387
 30
0.0
 10
111.2682373465047
 20
136.6729395594596
 30
0.0
 10
110.7391466691844
 20
136.6729395594596
 30
0.0
  0
LINE
  5
7E
330
1F
100
AcDbEntity
  8
0
  6
Continuous
 62
     7
370
    15
100
AcDbLine
 10
128.3536920078
 20
81.4270584684
 30
0.0
 11
124.3956248393
 21
81.4270584684
 31
0.0
  0
LINE
  5
7F
330
1F
100
AcDbEntity
  8
0
  6
Continuous
 62
     7
370
    15
100
AcDbLine
 10
124.3956248393
 20
81.4270584684
 30
0.0
 11
124.3956248393
 21
131.4639761647
 31
0.0
  0
LINE
  5
80
330
1F
100
AcDbEntity
  8
0
  6
Continuous
 62
     7
370
    15
100
AcDbLine
 10
124.3956248393
 20
131.4639761647
 30
0.0
 11
128.3536920078
 21
131.4639761647
 31
0.0
  0
SPLINE
  5
81
330
1F
100
AcDbEntity
  8
0
  6
Continuous
 62
     7
370
    15
100
AcDbSpline
210
0.0
220
0.0
230
1.0
 70
     8
 71
     3
 72
     8
 73
     4
 74
     0
 42
0.00000001
 43
0.00000001
 40
0.0
 40
0.0
 40
0.0
 40
0.0
 40
1.0
 40
1.0
 40
1.0
 40
1.0
 10
124.3956248393336
 20
81.42705846843323
 30
0.0
 10
123.9001451786679
 20
82.32258455636659
 30
0.0
 10
123.4060311306258
 20
83.21886897141884
 30
0.0
 10
122.9136920078446
 20
84.11613900562554
 30
0.0
  0
LINE
  5
82
330
1F
100
AcDbEntity
  8
0
  6
Continuous
 62
     7
370
    15
100
AcDbLine
 10
122.9136920078
 20
84.1161390056
 30
0.0
 11
122.9136920078
 21
131.4639761647
 31
0.0
  0
SPLINE
  5
83
330
1F
100
AcDbEntity
  8
0
  6
Continuous
 62
     7
370
    15
100
AcDbSpline
210
0.0
220
0.0
230
1.0
 70
    24
 71
     3
 72
     8
 73
     4
 74
     0
 42
0.00000001
 43
0.00000001
 40
0.0
 40
0.0
 40
0.0
 40
0.0
 40
1.0
 40
1.0
 40
1.0
 40
1.0
 10
122.9136920078446
 20
131.4639761646804
 30
0.0
 10
123.3936440022095
 20
131.4639761646804
 30
0.0
 10
123.8889447311831
 20
131.4639761646804
 30
0.0
 10
124.3956248393336
 20
131.4639761646804
 30
0.0
  0
LINE
  5
84
330
1F
100
AcDbEntity
  8
0
  6
Continuous
 62
     7
370
    15
100
AcDbLine
 10
103.0036920078
 20
80.4139761647
 30
0.0
 11
103.0036920078
 21
142.8139761612
 31
0.0
  0
LINE
  5
85
330
1F
100
AcDbEntity
  8
0
  6
Continuous
 62
     7
370
    15
100
AcDbLine
 10
119.0936920078
 20
84.1161390056
 30
0.0
 11
119.0936920078
 21
131.4639761647
 31
0.0
  0
SPLINE
  5
86
330
1F
100
AcDbEntity
  8
0
  6
Continuous
 62
     7
370
    15
100
AcDbSpline
210
0.0
220
0.0
230
1.0
 70
     8
 71
     3
 72
     8
 73
     4
 74
     0
 42
0.00000001
 43
0.00000001
 40
0.0
 40
0.0
 40
0.0
 40
0.0
 40
1.0
 40
1.0
 40
1.0
 40
1.0
 10
119.0936920078446
 20
84.11613900562554
 30
0.0
 10
118.6013528850634
 20
83.21886897141883
 30
0.0
 10
118.1072388370213
 20
82.32258455636659
 30
0.0
 10
117.6117591763555
 20
81.42705846843323
 30
0.0
  0
SPLINE
  5
87
330
1F
100
AcDbEntity
  8
0
  6
Continuous
 62
     7
370
    15
100
AcDbSpline
210
0.0
220
0.0
230
1.0
 70
    24
 71
     3
 72
     8
 73
     4
 74
     0
 42
0.00000001
 43
0.00000001
 40
0.0
 40
0.0
 40
0.0
 40
0.0
 40
1.0
 40
1.0
 40
1.0
 40
1.0
 10
117.6117591763555
 20
131.4639761646804
 30
0.0
 10
118.1184392845061
 20
131.4639761646804
 30
0.0
 10
118.6137400134797
 20
131.4639761646804
 30
0.0
 10
119.0936920078446
 20
131.4639761646804
 30
0.0
  0
LINE
  5
88
330
1F
100
AcDbEntity
  8
0
  6
Continuous
 62
     7
370
    15
100
AcDbLine
 10
128.9536920078
 20
82.0536987641
 30
0.0
 11
128.9536920078
 21
131.4639761647
 31
0.0
  0
SPLINE
  5
89
330
1F
100
AcDbEntity
  8
0
  6
Continuous
 62
     7
370
    15
100
AcDbSpline
210
0.0
220
0.0
230
1.0
 70
     8
 71
     3
 72
    10
 73
     6
 74
     0
 42
0.00000001
 43
0.00000001
 40
0.0
 40
0.0
 40
0.0
 40
0.0
 40
0.5
 40
0.5
 40
1.0
 40
1.0
 40
1.0
 40
1.0
 10
128.9536920078446
 20
82.05369876408756
 30
0.0
 10
128.9536920078446
 20
81.89381149589389
 30
0.0
 10
128.8923823566087
 20
81.73268424037929
 30
0.0
 10
128.6732827190736
 20
81.49858524202446
 30
0.0
 10
128.5152345127602
 20
81.42705846843323
 30
0.0
 10
128.3536920078446
 20
81.42705846843323
 30
0.0
  0
SPLINE
  5
8A
330
1F
100
AcDbEntity
  8
0
  6
Continuous
 62
     7
370
    15
100
AcDbSpline
210
0.0
220
0.0
230
1.0
 70
    24
 71
     3
 72
    12
 73
     8
 74
     0
 42
0.00000001
 43
0.00000001
 40
0.0
 40
0.0
 40
0.0
 40
0.0
 40
0.2500000000000033
 40
0.2500000000000033
 40
0.5000000000000067
 40
0.5000000000000067
 40
1.0
 40
1.0
 40
1.0
 40
1.0
 10
128.3536920078446
 20
131.4639761646804
 30
0.0
 10
128.4439310755316
 20
131.4639761646804
 30
0.0
 10
128.5348291896381
 20
131.4639761646804
 30
0.0
 10
128.6894262261266
 20
131.4639761646804
 30
0.0
 10
128.7544046422348
 20
131.4639761646804
 30
0.0
 10
128.906239670171
 20
131.4639761646804
 30
0.0
 10
128.9536920078446
 20
131.4639761646804
 30
0.0
 10
128.9536920078446
 20
131.4639761646804
 30
0.0
  0
ARC
  5
8B
330
1F
100
AcDbEntity
  8
0
  6
Continuous
 62
     7
370
    15
100
AcDbCircle
 10
111.0006868636
 20
123.512207242
 30
0.0
 40
4.115011572779899
100
AcDbArc
 50
19.3349591234
 51
159.3357509812
  0
SPLINE
  5
8C
330
1F
100
AcDbEntity
  8
0
  6
Continuous
 62
     7
370
    15
100
AcDbSpline
210
0.0
220
0.0
230
1.0
 70
    24
 71
     3
 72
    14
 73
    10
 74
     0
 42
0.00000001
 43
0.00000001
 40
0.0
 40
0.0
 40
0.0
 40
0.0
 40
0.4999999999999984
 40
0.4999999999999984
 40
0.7499999999999992
 40
0.7499999999999992
 40
0.8749999999999996
 40
0.8749999999999996
 40
1.0
 40
1.0
 40
1.0
 40
1.0
 10
122.8160172055123
 20
85.2139761646804
 30
0.0
 10
122.7692325004641
 20
85.2139761646804
 30
0.0
 10
122.7071813036845
 20
85.2139761646804
 30
0.0
 10
122.5637896651339
 20
85.21397616468039
 30
0.0
 10
122.5076460115827
 20
85.2139761646804
 30
0.0
 10
122.3946949894465
 20
85.2139761646804
 30
0.0
 10
122.3516942274084
 20
85.2139761646804
 30
0.0
 10
122.2476315171019
 20
85.2139761646804
 30
0.0
 10
122.182299278745
 20
85.2139761646804
 30
0.0
 10
122.1136920078446
 20
85.2139761646804
 30
0.0
  0
SPLINE
  5
8D
330
1F
100
AcDbEntity
  8
0
  6
Continuous
 62
     7
370
    15
100
AcDbSpline
210
0.0
220
0.0
230
1.0
 70
    24
 71
     3
 72
    12
 73
     8
 74
     0
 42
0.00000001
 43
0.00000001
 40
0.0
 40
0.0
 40
0.0
 40
0.0
 40
0.5000000000000017
 40
0.5000000000000017
 40
0.7500000000000008
 40
0.7500000000000008
 40
1.0
 40
1.0
 40
1.0
 40
1.0
 10
122.5193944761536
 20
138.0139761646804
 30
0.0
 10
122.4763089265427
 20
138.0139761646804
 30
0.0
 10
122.4271567247933
 20
138.0139761646804
 30
0.0
 10
122.3306841305054
 20
138.0139761646804
 30
0.0
 10
122.2945825453708
 20
138.0139761646804
 30
0.0
 10
122.2114767875096
 20
138.0139761646804
 30
0.0
 10
122.1634801905433
 20
138.0139761646804
 30
0.0
 10
122.1136920078446
 20
138.0139761646804
 30
0.0
  0
SPLINE
  5
8E
330
1F
100
AcDbEntity
  8
0
  6
Continuous
 62
     7
370
    15
100
AcDbSpline
210
0.0
220
0.0
230
1.0
 70
     8
 71
     3
 72
    10
 73
     6
 74
     0
 42
0.00000001
 43
0.00000001
 40
0.0
 40
0.0
 40
0.0
 40
0.0
 40
0.5
 40
0.5
 40
1.0
 40
1.0
 40
1.0
 40
1.0
 10
122.9136920078446
 20
138.7336300157162
 30
0.0
 10
122.9136920078446
 20
138.5898599578982
 30
0.0
 10
122.8776429491257
 20
138.447440595403
 30
0.0
 10
122.7421340883517
 20
138.1975463020458
 30
0.0
 10
122.6422580952555
 20
138.0895159657976
 30
0.0
 10
122.5193944761536
 20
138.0139761646804
 30
0.0
  0
SPLINE
  5
8F
330
1F
100
AcDbEntity
  8
0
  6
Continuous
 62
     7
370
    15
100
AcDbSpline
210
0.0
220
0.0
230
1.0
 70
     8
 71
     3
 72
    10
 73
     6
 74
     0
 42
0.00000001
 43
0.00000001
 40
0.0
 40
0.0
 40
0.0
 40
0.0
 40
0.5
 40
0.5
 40
1.0
 40
1.0
 40
1.0
 40
1.0
 10
122.8875443846844
 20
131.4639761646804
 30
0.0
 10
122.8962340275961
 20
131.5108550139986
 30
0.0
 10
122.9027730923466
 20
131.5582774793999
 30
0.0
 10
122.9115317267396
 20
131.6542142779867
 30
0.0
 10
122.9136920078446
 20
131.7021295659972
 30
0.0
 10
122.9136920078446
 20
131.7498427961418
 30
0.0
  0
SPLINE
  5
90
330
1F
100
AcDbEntity
  8
0
  6
Continuous
 62
     7
370
    15
100
AcDbSpline
210
0.0
220
0.0
230
1.0
 70
     8
 71
     3
 72
    10
 73
     6
 74
     0
 42
0.00000001
 43
0.00000001
 40
0.0
 40
0.0
 40
0.0
 40
0.0
 40
0.5
 40
0.5
 40
1.0
 40
1.0
 40
1.0
 40
1.0
 10
119.4879895395355
 20
138.0139761646804
 30
0.0
 10
119.366449275867
 20
138.0887023318922
 30
0.0
 10
119.2651149155181
 20
138.1976473478089
 30
0.0
 10
119.1294759726296
 20
138.4480778285705
 30
0.0
 10
119.0936920078446
 20
138.5904971906695
 30
0.0
 10
119.0936920078446
 20
138.7336300157162
 30
0.0
  0
SPLINE
  5
91
330
1F
100
AcDbEntity
  8
0
  6
Continuous
 62
     7
370
    15
100
AcDbSpline
210
0.0
220
0.0
230
1.0
 70
    24
 71
     3
 72
    12
 73
     8
 74
     0
 42
0.00000001
 43
0.00000001
 40
0.0
 40
0.0
 40
0.0
 40
0.0
 40
0.2500000000000037
 40
0.2500000000000037
 40
0.5000000000000074
 40
0.5000000000000074
 40
1.0
 40
1.0
 40
1.0
 40
1.0
 10
119.8936920078446
 20
138.0139761646804
 30
0.0
 10
119.8438153255271
 20
138.0139761646804
 30
0.0
 10
119.7958121321235
 20
138.0139761646804
 30
0.0
 10
119.7127640294116
 20
138.0139761646804
 30
0.0
 10
119.6766344499437
 20
138.0139761646804
 30
0.0
 10
119.5807224189995
 20
138.0139761646804
 30
0.0
 10
119.5309637510307
 20
138.0139761646804
 30
0.0
 10
119.4879895395355
 20
138.0139761646804
 30
0.0
  0
SPLINE
  5
92
330
1F
100
AcDbEntity
  8
0
  6
Continuous
 62
     7
370
    15
100
AcDbSpline
210
0.0
220
0.0
230
1.0
 70
    24
 71
     3
 72
    14
 73
    10
 74
     0
 42
0.00000001
 43
0.00000001
 40
0.0
 40
0.0
 40
0.0
 40
0.0
 40
0.1249999999999991
 40
0.1249999999999991
 40
0.2499999999999982
 40
0.2499999999999982
 40
0.4999999999999998
 40
0.4999999999999998
 40
1.0
 40
1.0
 40
1.0
 40
1.0
 10
119.8936920078446
 20
85.2139761646804
 30
0.0
 10
119.8252541599581
 20
85.2139761646804
 30
0.0
 10
119.7597041211931
 20
85.2139761646804
 30
0.0
 10
119.6552774817851
 20
85.2139761646804
 30
0.0
 10
119.6127328720237
 20
85.2139761646804
 30
0.0
 10
119.5001234114834
 20
85.21397616468039
 30
0.0
 10
119.4445843644639
 20
85.2139761646804
 30
0.0
 10
119.3019726690002
 20
85.21397616468039
 30
0.0
 10
119.2385673140044
 20
85.21397616468039
 30
0.0
 10
119.1913668101769
 20
85.2139761646804
 30
0.0
  0
SPLINE
  5
93
330
1F
100
AcDbEntity
  8
0
  6
Continuous
 62
     7
370
    15
100
AcDbSpline
210
0.0
220
0.0
230
1.0
 70
     8
 71
     3
 72
    10
 73
     6
 74
     0
 42
0.00000001
 43
0.00000001
 40
0.0
 40
0.0
 40
0.0
 40
0.0
 40
0.5
 40
0.5
 40
1.0
 40
1.0
 40
1.0
 40
1.0
 10
119.0936920078446
 20
131.7498427961418
 30
0.0
 10
119.0936920078446
 20
131.7020712881485
 30
0.0
 10
119.0958532514417
 20
131.6543615660868
 30
0.0
 10
119.1045246253019
 20
131.5590664485385
 30
0.0
 10
119.1110538082579
 20
131.5113738845719
 30
0.0
 10
119.1198396310047
 20
131.4639761646804
 30
0.0
  0
LINE
  5
94
330
1F
100
AcDbEntity
  8
0
  6
Continuous
 62
     7
370
    15
100
AcDbLine
 10
122.1136920078
 20
138.0139761647
 30
0.0
 11
119.8936920078
 21
138.0139761647
 31
0.0
  0
LINE
  5
95
330
1F
100
AcDbEntity
  8
0
  6
Continuous
 62
     7
370
    15
100
AcDbLine
 10
122.1136920078
 20
85.2139761647
 30
0.0
 11
119.8936920078
 21
85.2139761647
 31
0.0
  0
LINE
  5
96
330
1F
100
AcDbEntity
  8
0
  6
Continuous
 62
     7
370
    15
100
AcDbLine
 10
81.2036920078
 20
88.3855292709
 30
0.0
 11
81.2036920078
 21
89.6502386335
 31
0.0
  0
SPLINE
  5
97
330
1F
100
AcDbEntity
  8
0
  6
Continuous
 62
     7
370
    15
100
AcDbSpline
210
0.0
220
0.0
230
1.0
 70
     8
 71
     3
 72
    14
 73
    10
 74
     0
 42
0.00000001
 43
0.00000001
 40
0.0
 40
0.0
 40
0.0
 40
0.0
 40
0.25
 40
0.25
 40
0.5
 40
0.5
 40
0.75
 40
0.75
 40
1.0
 40
1.0
 40
1.0
 40
1.0
 10
80.42540488992886
 20
90.78082484112045
 30
0.0
 10
80.48203156513094
 20
90.67312738728359
 30
0.0
 10
80.57655422542067
 20
90.57033780556426
 30
0.0
 10
80.7595992009829
 20
90.37198049334413
 30
0.0
 10
80.85122577793763
 20
90.27592098466587
 30
0.0
 10
81.01007909563081
 20
90.08839194195663
 30
0.0
 10
81.0779697032525
 20
89.99698296917308
 30
0.0
 10
81.1748867289601
 20
89.81860674826292
 30
0.0
 10
81.20369200784516
 20
89.73138484201675
 30
0.0
 10
81.20369200784515
 20
89.65023863348249
 30
0.0
  0
SPLINE
  5
98
330
1F
100
AcDbEntity
  8
0
  6
Continuous
 62
     7
370
    15
100
AcDbSpline
210
0.0
220
0.0
230
1.0
 70
     8
 71
     3
 72
    14
 73
    10
 74
     0
 42
0.00000001
 43
0.00000001
 40
0.0
 40
0.0
 40
0.0
 40
0.0
 40
0.1249999999999975
 40
0.1249999999999975
 40
0.249999999999995
 40
0.249999999999995
 40
0.4999999999999953
 40
0.4999999999999953
 40
1.0
 40
1.0
 40
1.0
 40
1.0
 10
79.80369200784457
 20
91.22750670339977
 30
0.0
 10
79.85223641650174
 20
91.23325501668006
 30
0.0
 10
79.90515177128665
 20
91.23015412802383
 30
0.0
 10
80.0004471162697
 20
91.2079592838615
 30
0.0
 10
80.04069811355464
 20
91.19072705676564
 30
0.0
 10
80.14496812706761
 20
91.13439914031358
 30
0.0
 10
80.19529010222094
 20
91.09021279436777
 30
0.0
 10
80.32297304974632
 20
90.95920489551715
 30
0.0
 10
80.37905849680858
 20
90.86897037528685
 30
0.0
 10
80.42540488993033
 20
90.78082484112097
 30
0.0
  0
SPLINE
  5
99
330
1F
100
AcDbEntity
  8
0
  6
Continuous
 62
     7
370
    15
100
AcDbSpline
210
0.0
220
0.0
230
1.0
 70
     8
 71
     3
 72
     8
 73
     4
 74
     0
 42
0.00000001
 43
0.00000001
 40
0.0
 40
0.0
 40
0.0
 40
0.0
 40
1.0
 40
1.0
 40
1.0
 40
1.0
 10
77.53516691489835
 20
90.91766141681698
 30
0.0
 10
78.26974394138131
 20
91.03628642788594
 30
0.0
 10
79.03321901077697
 20
91.13627230002221
 30
0.0
 10
79.80369200784459
 20
91.22750670339977
 30
0.0
  0
SPLINE
  5
9A
330
1F
100
AcDbEntity
  8
0
  6
Continuous
 62
     7
370
    15
100
AcDbSpline
210
0.0
220
0.0
230
1.0
 70
     8
 71
     3
 72
    14
 73
    10
 74
     0
 42
0.00000001
 43
0.00000001
 40
0.0
 40
0.0
 40
0.0
 40
0.0
 40
0.500000000000001
 40
0.500000000000001
 40
0.7500000000000004
 40
0.7500000000000004
 40
0.8750000000000003
 40
0.8750000000000003
 40
1.0
 40
1.0
 40
1.0
 40
1.0
 10
72.25369200784458
 20
90.74403839928533
 30
0.0
 10
73.14583813839816
 20
90.74331617308468
 30
0.0
 10
74.03581457419176
 20
90.74790237954214
 30
0.0
 10
75.36240974126737
 20
90.77562738393367
 30
0.0
 10
75.80325666976609
 20
90.78823392155785
 30
0.0
 10
76.45969690718852
 20
90.8192500695653
 30
0.0
 10
76.6777105637804
 20
90.83159324219207
 30
0.0
 10
77.11041941746318
 20
90.86461729735535
 30
0.0
 10
77.32569588262797
 20
90.8838344624938
 30
0.0
 10
77.53516691489837
 20
90.91766141681698
 30
0.0
  0
SPLINE
  5
9B
330
1F
100
AcDbEntity
  8
0
  6
Continuous
 62
     7
370
    15
100
AcDbSpline
210
0.0
220
0.0
230
1.0
 70
     8
 71
     3
 72
     8
 73
     4
 74
     0
 42
0.00000001
 43
0.00000001
 40
0.0000005163856712
 40
0.0000005163856712
 40
0.0000005163856712
 40
0.0000005163856712
 40
0.000026289209185
 40
0.000026289209185
 40
0.000026289209185
 40
0.000026289209185
 10
72.24364707742589
 20
90.7540222723932
 30
0.0
 10
72.24697481563737
 20
90.75068802552038
 30
0.0
 10
72.25032326861667
 20
90.74736006824136
 30
0.0
 10
72.25369200784455
 20
90.74403839928532
 30
0.0
  0
SPLINE
  5
9C
330
1F
100
AcDbEntity
  8
0
  6
Continuous
 62
     7
370
    15
100
AcDbSpline
210
0.0
220
0.0
230
1.0
 70
     8
 71
     3
 72
     8
 73
     4
 74
     0
 42
0.00000001
 43
0.00000001
 40
0.0000005099763573
 40
0.0000005099763573
 40
0.0000005099763573
 40
0.0000005099763573
 40
0.0000262827998699
 40
0.0000262827998699
 40
0.0000262827998699
 40
0.0000262827998699
 10
72.25369200784456
 20
132.4839139300755
 30
0.0
 10
72.25032326861682
 20
132.4805922611196
 30
0.0
 10
72.24697481563769
 20
132.4772643038407
 30
0.0
 10
72.24364707742636
 20
132.4739300569681
 30
0.0
  0
SPLINE
  5
9D
330
1F
100
AcDbEntity
  8
0
  6
Continuous
 62
     7
370
    15
100
AcDbSpline
210
0.0
220
0.0
230
1.0
 70
     8
 71
     3
 72
    10
 73
     6
 74
     0
 42
0.00000001
 43
0.00000001
 40
0.0
 40
0.0
 40
0.0
 40
0.0
 40
0.5
 40
0.5
 40
1.0
 40
1.0
 40
1.0
 40
1.0
 10
75.80369200784459
 20
132.4370635565081
 30
0.0
 10
75.21610646075399
 20
132.4581290767446
 30
0.0
 10
74.6253600672936
 20
132.4688875626168
 30
0.0
 10
73.44134090199475
 20
132.4822523431525
 30
0.0
 10
72.8479269137893
 20
132.484394985817
 30
0.0
 10
72.25369200784458
 20
132.4839139300755
 30
0.0
  0
SPLINE
  5
9E
330
1F
100
AcDbEntity
  8
0
  6
Continuous
 62
     7
370
    15
100
AcDbSpline
210
0.0
220
0.0
230
1.0
 70
     8
 71
     3
 72
    18
 73
    14
 74
     0
 42
0.00000001
 43
0.00000001
 40
0.0
 40
0.0
 40
0.0
 40
0.0
 40
0.2500000000000009
 40
0.2500000000000009
 40
0.500000000000001
 40
0.500000000000001
 40
0.7500000000000011
 40
0.7500000000000011
 40
0.875000000000001
 40
0.875000000000001
 40
0.9375000000000006
 40
0.9375000000000006
 40
1.0
 40
1.0
 40
1.0
 40
1.0
 10
77.2036920078446
 20
133.4580838370434
 30
0.0
 10
77.20369200784461
 20
133.3748769281862
 30
0.0
 10
77.16784290790632
 20
133.2861402728726
 30
0.0
 10
77.0429711718724
 20
133.1040150823124
 30
0.0
 10
76.95257075422452
 20
133.0088850336858
 30
0.0
 10
76.73032809948235
 20
132.8197035245614
 30
0.0
 10
76.60056331303657
 20
132.7247583564667
 30
0.0
 10
76.35992585572507
 20
132.5864796488868
 30
0.0
 10
76.27215855758762
 20
132.5407692155844
 30
0.0
 10
76.11763447038082
 20
132.4829459103629
 30
0.0
 10
76.06102358432607
 20
132.4652311463251
 30
0.0
 10
75.93697955341946
 20
132.4406918430921
 30
0.0
 10
75.86926487840118
 20
132.4347127045539
 30
0.0
 10
75.80369200784457
 20
132.4370635565081
 30
0.0
  0
LINE
  5
9F
330
1F
100
AcDbEntity
  8
0
  6
Continuous
 62
     7
370
    15
100
AcDbLine
 10
77.2036920078
 20
133.458083837
 30
0.0
 11
77.2036920078
 21
134.6420222569
 31
0.0
  0
LINE
  5
A0
330
1F
100
AcDbEntity
  8
0
  6
Continuous
 62
     7
370
    15
100
AcDbLine
 10
101.0036920078
 20
87.393545303
 30
0.0
 11
101.0036920078
 21
135.8344070264
 31
0.0
  0
SPLINE
  5
A1
330
1F
100
AcDbEntity
  8
0
  6
Continuous
 62
     7
370
    15
100
AcDbSpline
210
0.0
220
0.0
230
1.0
 70
     8
 71
     3
 72
    18
 73
    14
 74
     0
 42
0.00000001
 43
0.00000001
 40
0.0
 40
0.0
 40
0.0
 40
0.0
 40
0.0010671296451833
 40
0.1270947795731636
 40
0.252405345751277
 40
0.3766468878987096
 40
0.4391415999051428
 40
0.5008278021400407
 40
0.562425570880851
 40
0.6253162439161144
 40
0.7499985144706706
 40
0.8752758950341252
 40
0.9999999999999999
 40
0.9999999999999999
 40
0.9999999999999999
 40
0.9999999999999999
 10
89.77399284791726
 20
87.95663714176405
 30
0.0
 10
89.77308101527875
 20
87.95652236322742
 30
0.0
 10
89.66448205664179
 20
87.94285227836153
 30
0.0
 10
90.05212312429165
 20
87.99377177897709
 30
0.0
 10
90.91808780612679
 20
88.09335495202359
 30
0.0
 10
92.11849173089662
 20
88.16247883516726
 30
0.0
 10
93.17606764538534
 20
88.16643106430608
 30
0.0
 10
94.00320173229152
 20
88.13894212585105
 30
0.0
 10
94.82847359992577
 20
88.08040194944326
 30
0.0
 10
95.88283881992574
 20
87.96688078970772
 30
0.0
 10
97.04467510140105
 20
87.78372996545906
 30
0.0
 10
97.99690988278464
 20
87.57912675582415
 30
0.0
 10
98.12261494359251
 20
87.54984140504807
 30
0.0
 10
98.18532837573771
 20
87.53523113520738
 30
0.0
  0
SPLINE
  5
A2
330
1F
100
AcDbEntity
  8
0
  6
Continuous
 62
     7
370
    15
100
AcDbSpline
210
0.0
220
0.0
230
1.0
 70
     8
 71
     3
 72
    18
 73
    14
 74
     0
 42
0.00000001
 43
0.00000001
 40
0.0
 40
0.0
 40
0.0
 40
0.0
 40
0.1248907792210109
 40
0.2505384020341698
 40
0.3748721840485282
 40
0.437490765334968
 40
0.4990776265894272
 40
0.5607931536353509
 40
0.6233901338664932
 40
0.7478191038417344
 40
0.8731940995934958
 40
0.9991614644710078
 40
0.9999999999999999
 40
0.9999999999999999
 40
0.9999999999999999
 40
0.9999999999999999
 10
98.18510961021379
 20
135.692656013599
 30
0.0
 10
98.12136885750213
 20
135.677994721001
 30
0.0
 10
97.99350108032566
 20
135.6485832877295
 30
0.0
 10
97.04150185926525
 20
135.4436301836671
 30
0.0
 10
95.880958154062
 20
135.2603664078561
 30
0.0
 10
94.82869370197388
 20
135.1473388156072
 30
0.0
 10
94.00446658690628
 20
135.0890751680658
 30
0.0
 10
93.17686281738585
 20
135.0616287800616
 30
0.0
 10
92.11804562490079
 20
135.0656135859908
 30
0.0
 10
90.9158269268658
 20
135.1347030623722
 30
0.0
 10
90.05064298717849
 20
135.2343292789288
 30
0.0
 10
89.66450256564828
 20
135.2851453525294
 30
0.0
 10
89.77257410642864
 20
135.2714731724663
 30
0.0
 10
89.77328875634893
 20
135.2713827617779
 30
0.0
  0
SPLINE
  5
A3
330
1F
100
AcDbEntity
  8
0
  6
Continuous
 62
     7
370
    15
100
AcDbSpline
210
0.0
220
0.0
230
1.0
 70
     8
 71
     3
 72
     8
 73
     4
 74
     0
 42
0.00000001
 43
0.00000001
 40
0.0
 40
0.0
 40
0.0
 40
0.0
 40
1.0
 40
1.0
 40
1.0
 40
1.0
 10
71.10369200784392
 20
91.9232984182029
 30
0.0
 10
71.1036920078439
 20
91.91190158978858
 30
0.0
 10
71.10526102415355
 20
91.90231617817066
 30
0.0
 10
71.10799848562196
 20
91.89483909941094
 30
0.0
  0
SPLINE
  5
A4
330
1F
100
AcDbEntity
  8
0
  6
Continuous
 62
     7
370
    15
100
AcDbSpline
210
0.0
220
0.0
230
1.0
 70
     8
 71
     3
 72
    12
 73
     8
 74
     0
 42
0.00000001
 43
0.00000001
 40
0.0
 40
0.0
 40
0.0
 40
0.0
 40
0.0839988866763276
 40
0.3910885625176496
 40
0.7012505400504081
 40
0.8502953555951864
 40
1.0
 40
1.0
 40
1.0
 40
1.0
 10
71.11624846889201
 20
91.8834201734869
 30
0.0
 10
71.11726944022938
 20
91.88181382031888
 30
0.0
 10
71.12202295814485
 20
91.87433483605813
 30
0.0
 10
71.13581482440848
 20
91.87616200466258
 30
0.0
 10
71.15030655767501
 20
91.89103308556415
 30
0.0
 10
71.1606179764448
 20
91.9145253883497
 30
0.0
 10
71.16444009996684
 20
91.93111199812098
 30
0.0
 10
71.16635538256796
 20
91.93942361989969
 30
0.0
  0
LINE
  5
A5
330
1F
100
AcDbEntity
  8
0
  6
Continuous
 62
     7
370
    15
100
AcDbLine
 10
71.1036920078
 20
91.9232984182
 30
0.0
 11
71.1036920078
 21
131.3046539112
 31
0.0
  0
SPLINE
  5
A6
330
1F
100
AcDbEntity
  8
0
  6
Continuous
 62
     7
370
    15
100
AcDbSpline
210
0.0
220
0.0
230
1.0
 70
     8
 71
     3
 72
    10
 73
     6
 74
     0
 42
0.00000001
 43
0.00000001
 40
0.0
 40
0.0
 40
0.0
 40
0.0
 40
0.5
 40
0.5
 40
1.0
 40
1.0
 40
1.0
 40
1.0
 10
71.16635538256799
 20
131.2885287094611
 30
0.0
 10
71.15745109345923
 20
131.3342702286743
 30
0.0
 10
71.14093571326624
 20
131.3514610681433
 30
0.0
 10
71.11382776720463
 20
131.3511377912076
 30
0.0
 10
71.10369200784459
 20
131.3332602489112
 30
0.0
 10
71.10369200784459
 20
131.3046539111585
 30
0.0
  0
SPLINE
  5
A7
330
1F
100
AcDbEntity
  8
0
  6
Continuous
 62
     7
370
    15
100
AcDbSpline
210
0.0
220
0.0
230
1.0
 70
     8
 71
     3
 72
    26
 73
    22
 74
     0
 42
0.00000001
 43
0.00000001
 40
0.0
 40
0.0
 40
0.0
 40
0.0
 40
0.2500000000000165
 40
0.2500000000000165
 40
0.3750000000000256
 40
0.3750000000000256
 40
0.4375000000000291
 40
0.4375000000000291
 40
0.4687500000000291
 40
0.4687500000000291
 40
0.5000000000000292
 40
0.5000000000000292
 40
0.5312500000000293
 40
0.5312500000000293
 40
0.5625000000000293
 40
0.5625000000000293
 40
0.625000000000026
 40
0.625000000000026
 40
0.7500000000000173
 40
0.7500000000000173
 40
1.0
 40
1.0
 40
1.0
 40
1.0
 10
71.92784565394909
 20
132.0040954982782
 30
0.0
 10
71.88924513108063
 20
131.8863208019228
 30
0.0
 10
71.84294812852636
 20
131.7619311157609
 30
0.0
 10
71.74900878009244
 20
131.5567117834074
 30
0.0
 10
71.71369731317897
 20
131.4851389169609
 30
0.0
 10
71.6475173374333
 20
131.3691856843605
 30
0.0
 10
71.62297897076509
 20
131.3286011495503
 30
0.0
 10
71.57960622521128
 20
131.2644594676785
 30
0.0
 10
71.56409782378608
 20
131.2425930423935
 30
0.0
 10
71.52905517919905
 20
131.1969987740503
 30
0.0
 10
71.50950488847928
 20
131.1733284830828
 30
0.0
 10
71.46757760810868
 20
131.1287119237429
 30
0.0
 10
71.44492549787704
 20
131.107831911225
 30
0.0
 10
71.40395178379042
 20
131.0769584974742
 30
0.0
 10
71.386352483895
 20
131.0671196276417
 30
0.0
 10
71.34172549803884
 20
131.0481300119456
 30
0.0
 10
71.32116627538551
 20
131.0478056872921
 30
0.0
 10
71.27004083588884
 20
131.0570291281684
 30
0.0
 10
71.2491294229003
 20
131.0782760243853
 30
0.0
 10
71.19767951533937
 20
131.1522449032161
 30
0.0
 10
71.18001421603482
 20
131.2183629965308
 30
0.0
 10
71.16635538256799
 20
131.2885287094611
 30
0.0
  0
SPLINE
  5
A8
330
1F
100
AcDbEntity
  8
0
  6
Continuous
 62
     7
370
    15
100
AcDbSpline
210
0.0
220
0.0
230
1.0
 70
     8
 71
     3
 72
    10
 73
     6
 74
     0
 42
0.00000001
 43
0.00000001
 40
0.0
 40
0.0
 40
0.0
 40
0.0
 40
0.5
 40
0.5
 40
1.0
 40
1.0
 40
1.0
 40
1.0
 10
72.24364707742639
 20
132.4739300569681
 30
0.0
 10
72.17608782250815
 20
132.4062386641583
 30
0.0
 10
72.11245116717164
 20
132.3315314994047
 30
0.0
 10
72.00223041259977
 20
132.172565366978
 30
0.0
 10
71.95541411937715
 20
132.08821010097
 30
0.0
 10
71.92784565394908
 20
132.0040954982782
 30
0.0
  0
SPLINE
  5
A9
330
1F
100
AcDbEntity
  8
0
  6
Continuous
 62
     7
370
    15
100
AcDbSpline
210
0.0
220
0.0
230
1.0
 70
     8
 71
     3
 72
    10
 73
     6
 74
     0
 42
0.00000001
 43
0.00000001
 40
0.0
 40
0.0
 40
0.0
 40
0.0
 40
0.5
 40
0.5
 40
1.0
 40
1.0
 40
1.0
 40
1.0
 10
71.92784565394913
 20
91.22385683108243
 30
0.0
 10
71.95532306870234
 20
91.14002003461684
 30
0.0
 10
72.00203169899
 20
91.05570954703
 30
0.0
 10
72.11231016173194
 20
90.89658831654715
 30
0.0
 10
72.1761977003436
 20
90.82160357245907
 30
0.0
 10
72.24364707742592
 20
90.7540222723932
 30
0.0
  0
SPLINE
  5
AA
330
1F
100
AcDbEntity
  8
0
  6
Continuous
 62
     7
370
    15
100
AcDbSpline
210
0.0
220
0.0
230
1.0
 70
     8
 71
     3
 72
    24
 73
    20
 74
     0
 42
0.00000001
 43
0.00000001
 40
0.0
 40
0.0
 40
0.0
 40
0.0
 40
0.25
 40
0.25
 40
0.374999999999999
 40
0.374999999999999
 40
0.4374999999999993
 40
0.4374999999999993
 40
0.4687499999999994
 40
0.4687499999999994
 40
0.4999999999999995
 40
0.4999999999999995
 40
0.5624999999999971
 40
0.5624999999999971
 40
0.6249999999999947
 40
0.6249999999999947
 40
0.7499999999999947
 40
0.7499999999999947
 40
1.0
 40
1.0
 40
1.0
 40
1.0
 10
71.16635538256799
 20
91.93942361989966
 30
0.0
 10
71.18010850123821
 20
92.01007367788993
 30
0.0
 10
71.19788106864408
 20
92.07667179065487
 30
0.0
 10
71.25013216019943
 20
92.15076981088808
 30
0.0
 10
71.27116723578101
 20
92.17202761804963
 30
0.0
 10
71.32406764340942
 20
92.18017354419587
 30
0.0
 10
71.34517331628734
 20
92.1792337408001
 30
0.0
 10
71.39122548496532
 20
92.15821774922276
 30
0.0
 10
71.4095959569487
 20
92.14730894311514
 30
0.0
 10
71.45114759201441
 20
92.11467403216777
 30
0.0
 10
71.47371426477132
 20
92.09318205179639
 30
0.0
 10
71.53649528123134
 20
92.02471610821009
 30
0.0
 10
71.56962504219925
 20
91.97864165000499
 30
0.0
 10
71.62654272868424
 20
91.89363376167033
 30
0.0
 10
71.65072875418801
 20
91.85335346048895
 30
0.0
 10
71.71593670456777
 20
91.738417234023
 30
0.0
 10
71.75065276475902
 20
91.66783424887599
 30
0.0
 10
71.84386803508991
 20
91.46362848979739
 30
0.0
 10
71.88954057045058
 20
91.34073010747002
 30
0.0
 10
71.92784565394912
 20
91.22385683108244
 30
0.0
  0
SPLINE
  5
AB
330
1F
100
AcDbEntity
  8
0
  6
Continuous
 62
     7
370
    15
100
AcDbSpline
210
0.0
220
0.0
230
1.0
 70
     8
 71
     3
 72
    39
 73
    35
 74
     0
 42
0.00000001
 43
0.00000001
 40
-0.0927617886640532
 40
-0.0616743377207757
 40
-0.0305000762237637
 40
0.0
 40
0.03052464903854
 40
0.0617091123274772
 40
0.0928114042030457
 40
0.1239166645987931
 40
0.1551097448533227
 40
0.1867024395609325
 40
0.2185028643362818
 40
0.2499297864556366
 40
0.2813812011890622
 40
0.3132533287758027
 40
0.3449219026486028
 40
0.3761678706300248
 40
0.4072644120179678
 40
0.4383207438064938
 40
0.4694504179505499
 40
0.5000106032944088
 40
0.5305632149026338
 40
0.561734187952294
 40
0.592805454697474
 40
0.6239201523278689
 40
0.655142027173447
 40
0.686788168993979
 40
0.7186080515223804
 40
0.7500598449507874
 40
0.7814816996044306
 40
0.8133257226904561
 40
0.8449400523421439
 40
0.8761556140443497
 40
0.9072382113359468
 40
0.9383256622792243
 40
0.9694999237762363
 40
1.0
 40
1.03052464903854
 40
1.061709112327477
 40
1.092811404203046
 10
212.1651217556724
 20
105.6263359667724
 30
0.0
 10
211.0033782307515
 20
105.5074538831718
 30
0.0
 10
209.8415312619992
 20
105.6265382649365
 30
0.0
 10
208.7268437590913
 20
105.9836564474913
 30
0.0
 10
207.697263650748
 20
106.5442257062218
 30
0.0
 10
206.8046747311274
 20
107.299353120686
 30
0.0
 10
206.0713789636007
 20
108.2179179331885
 30
0.0
 10
205.5280646696939
 20
109.2738145736112
 30
0.0
 10
205.1828143111749
 20
110.4187783997061
 30
0.0
 10
205.0684593777191
 20
111.6115458656294
 30
0.0
 10
205.1835253234663
 20
112.8051361109269
 30
0.0
 10
205.5292528879135
 20
113.9521775820767
 30
0.0
 10
206.0728844896972
 20
115.0107323816885
 30
0.0
 10
206.8067418416134
 20
115.9307854621275
 30
0.0
 10
207.6990331947471
 20
116.6861739212393
 30
0.0
 10
208.7273454153472
 20
117.2462888801837
 30
0.0
 10
209.8416472850906
 20
117.6021703548845
 30
0.0
 10
211.0039516903142
 20
117.7203073281812
 30
0.0
 10
212.166746653338
 20
117.6018228488461
 30
0.0
 10
213.2814792399857
 20
117.2453084776935
 30
0.0
 10
214.3105490234549
 20
116.6846460916108
 30
0.0
 10
215.2026043049985
 20
115.9287576078408
 30
0.0
 10
215.9358164238516
 20
115.0086770007775
 30
0.0
 10
216.4787531494064
 20
113.9511377600141
 30
0.0
 10
216.8237964438114
 20
112.8048868286124
 30
0.0
 10
216.9389107111932
 20
111.6120498157838
 30
0.0
 10
216.8246937462891
 20
110.4187570132805
 30
0.0
 10
216.4789524686684
 20
109.2731332453808
 30
0.0
 10
215.9351060340953
 20
108.2162825577389
 30
0.0
 10
215.2012209917187
 20
107.2978068765869
 30
0.0
 10
214.3084150583117
 20
106.543241524342
 30
0.0
 10
213.2792161118733
 20
105.9832569307361
 30
0.0
 10
212.1651217556724
 20
105.6263359667724
 30
0.0
 10
211.0033782307515
 20
105.5074538831718
 30
0.0
 10
209.8415312619992
 20
105.6265382649365
 30
0.0
  0
LINE
  5
AC
330
1F
100
AcDbEntity
  8
0
  6
Continuous
 62
     7
370
    15
100
AcDbLine
 10
220.1366504848
 20
90.6139761647
 30
0.0
 11
220.1366504848
 21
132.6139761647
 31
0.0
  0
SPLINE
  5
AD
330
1F
100
AcDbEntity
  8
0
  6
Continuous
 62
     7
370
    15
100
AcDbSpline
210
0.0
220
0.0
230
1.0
 70
     8
 71
     3
 72
    10
 73
     6
 74
     0
 42
0.00000001
 43
0.00000001
 40
0.0
 40
0.0
 40
0.0
 40
0.0
 40
0.5
 40
0.5
 40
1.0
 40
1.0
 40
1.0
 40
1.0
 10
128.9536920078446
 20
141.4604164884443
 30
0.0
 10
128.9536920078446
 20
141.6208217547951
 30
0.0
 10
128.8914541767377
 20
141.7798835677837
 30
0.0
 10
128.6723192529952
 20
142.010796033414
 30
0.0
 10
128.5147305580033
 20
142.0811716378446
 30
0.0
 10
128.3536920078446
 20
142.0811716378446
 30
0.0
  0
SPLINE
  5
AE
330
1F
100
AcDbEntity
  8
0
  6
Continuous
 62
     7
370
    15
100
AcDbSpline
210
0.0
220
0.0
230
1.0
 70
     8
 71
     3
 72
    12
 73
     8
 74
     0
 42
0.00000001
 43
0.00000001
 40
0.0
 40
0.0
 40
0.0
 40
0.0
 40
0.25
 40
0.25
 40
0.5
 40
0.5
 40
1.0
 40
1.0
 40
1.0
 40
1.0
 10
128.3536920078446
 20
136.0726658270478
 30
0.0
 10
128.4448917296702
 20
136.0726658270478
 30
0.0
 10
128.5354867388063
 20
136.04444612846
 30
0.0
 10
128.6888994652529
 20
135.9500031212119
 30
0.0
 10
128.7541083325766
 20
135.8837161445065
 30
0.0
 10
128.9068928619165
 20
135.6580913212182
 30
0.0
 10
128.9536920078446
 20
135.4756650581857
 30
0.0
 10
128.9536920078446
 20
135.2949284259388
 30
0.0
  0
LINE
  5
AF
330
1F
100
AcDbEntity
  8
0
  6
Continuous
 62
     7
370
    15
100
AcDbLine
 10
128.9536920078
 20
135.2949284259
 30
0.0
 11
128.9536920078
 21
141.4604164884
 31
0.0
  0
SPLINE
  5
B0
330
1F
100
AcDbEntity
  8
0
  6
Continuous
 62
     7
370
    15
100
AcDbSpline
210
0.0
220
0.0
230
1.0
 70
     8
 71
     3
 72
     8
 73
     4
 74
     0
 42
0.00000001
 43
0.00000001
 40
0.0
 40
0.0
 40
0.0
 40
0.0
 40
1.0
 40
1.0
 40
1.0
 40
1.0
 10
124.3956248393336
 20
142.0811716378446
 30
0.0
 10
123.9004848099693
 20
141.1944919896644
 30
0.0
 10
123.4064021046903
 20
140.3072293539784
 30
0.0
 10
122.9136920078446
 20
139.419210355852
 30
0.0
  0
LINE
  5
B1
330
1F
100
AcDbEntity
  8
0
  6
Continuous
 62
     7
370
    15
100
AcDbLine
 10
124.3956248393
 20
136.072665827
 30
0.0
 11
124.3956248393
 21
142.0811716378
 31
0.0
  0
SPLINE
  5
B2
330
1F
100
AcDbEntity
  8
0
  6
Continuous
 62
     7
370
    15
100
AcDbSpline
210
0.0
220
0.0
230
1.0
 70
     8
 71
     3
 72
     8
 73
     4
 74
     0
 42
0.00000001
 43
0.00000001
 40
0.0
 40
0.0
 40
0.0
 40
0.0
 40
1.0
 40
1.0
 40
1.0
 40
1.0
 10
122.9136920078446
 20
132.6641198322637
 30
0.0
 10
123.3929701584344
 20
133.8051310621163
 30
0.0
 10
123.8885379975743
 20
134.9415154728842
 30
0.0
 10
124.3956248393336
 20
136.0726658270478
 30
0.0
  0
LINE
  5
B3
330
1F
100
AcDbEntity
  8
0
  6
Continuous
 62
     7
370
    15
100
AcDbLine
 10
122.9136920078
 20
132.6641198323
 30
0.0
 11
122.9136920078
 21
139.4192103559
 31
0.0
  0
SPLINE
  5
B4
330
1F
100
AcDbEntity
  8
0
  6
Continuous
 62
     7
370
    15
100
AcDbSpline
210
0.0
220
0.0
230
1.0
 70
     8
 71
     3
 72
     8
 73
     4
 74
     0
 42
0.00000001
 43
0.00000001
 40
0.0
 40
0.0
 40
0.0
 40
0.0
 40
1.0
 40
1.0
 40
1.0
 40
1.0
 10
119.0936920078446
 20
139.419210355852
 30
0.0
 10
118.6009819109988
 20
140.3072293539784
 30
0.0
 10
118.1068992057198
 20
141.1944919896644
 30
0.0
 10
117.6117591763555
 20
142.0811716378446
 30
0.0
  0
LINE
  5
B5
330
1F
100
AcDbEntity
  8
0
  6
Continuous
 62
     7
370
    15
100
AcDbLine
 10
119.0936920078
 20
132.6641198323
 30
0.0
 11
119.0936920078
 21
139.4192103559
 31
0.0
  0
SPLINE
  5
B6
330
1F
100
AcDbEntity
  8
0
  6
Continuous
 62
     7
370
    15
100
AcDbSpline
210
0.0
220
0.0
230
1.0
 70
     8
 71
     3
 72
     8
 73
     4
 74
     0
 42
0.00000001
 43
0.00000001
 40
0.0
 40
0.0
 40
0.0
 40
0.0
 40
1.0
 40
1.0
 40
1.0
 40
1.0
 10
117.6117591763555
 20
136.0726658270478
 30
0.0
 10
118.1188460181148
 20
134.9415154728842
 30
0.0
 10
118.6144138572547
 20
133.8051310621163
 30
0.0
 10
119.0936920078446
 20
132.6641198322637
 30
0.0
  0
LINE
  5
B7
330
1F
100
AcDbEntity
  8
0
  6
Continuous
 62
     7
370
    15
100
AcDbLine
 10
124.3956248393
 20
136.072665827
 30
0.0
 11
128.3536920078
 21
136.072665827
 31
0.0
  0
LINE
  5
B8
330
1F
100
AcDbEntity
  8
0
  6
Continuous
 62
     7
370
    15
100
AcDbLine
 10
122.9136920078
 20
131.7498427961
 30
0.0
 11
122.9136920078
 21
132.6641198323
 31
0.0
  0
LINE
  5
B9
330
1F
100
AcDbEntity
  8
0
  6
Continuous
 62
     7
370
    15
100
AcDbLine
 10
128.9536920078
 20
135.2949284259
 30
0.0
 11
128.9536920078
 21
131.4639761647
 31
0.0
  0
LINE
  5
BA
330
1F
100
AcDbEntity
  8
0
  6
Continuous
 62
     7
370
    15
100
AcDbLine
 10
128.3536920078
 20
142.0811716378
 30
0.0
 11
124.3956248393
 21
142.0811716378
 31
0.0
  0
LINE
  5
BB
330
1F
100
AcDbEntity
  8
0
  6
Continuous
 62
     7
370
    15
100
AcDbLine
 10
119.0936920078
 20
132.6641198323
 30
0.0
 11
119.0936920078
 21
131.7498427961
 31
0.0
  0
ARC
  5
BC
330
1F
100
AcDbEntity
  8
0
  6
Continuous
 62
     7
370
    15
100
AcDbCircle
 10
111.0037803461
 20
130.3524675008
 30
0.0
 40
7.218125163552302
100
AcDbArc
 50
70.7219178914
 51
109.3040441334
  0
LINE
  5
BD
330
1F
100
AcDbEntity
  8
0
  6
Continuous
 62
     7
370
    15
100
AcDbLine
 10
233.0036920078
 20
97.8881166863
 30
0.0
 11
233.0036920078
 21
125.3398356431
 31
0.0
  0
CIRCLE
  5
BE
330
1F
100
AcDbEntity
  8
0
  6
HIDDEN
 62
     7
370
     0
100
AcDbCircle
 10
211.0036920078
 20
111.6139761647
 30
0.0
 40
5.999999999999978
  0
CIRCLE
  5
BF
330
1F
100
AcDbEntity
  8
0
  6
HIDDEN
 62
     7
370
     0
100
AcDbCircle
 10
211.0036920078
 20
111.6139761647
 30
0.0
 40
2.749999999999992
  0
CIRCLE
  5
C0
330
1F
100
AcDbEntity
  8
0
  6
HIDDEN
 62
     7
370
     0
100
AcDbCircle
 10
211.0036920078
 20
111.6139761647
 30
0.0
 40
3.999999999999985
  0
LINE
  5
C1
330
1F
100
AcDbEntity
  8
0
  6
HIDDEN
 62
     7
370
     0
100
AcDbLine
 10
117.6117591764
 20
136.072665827
 30
0.0
 11
117.6117591764
 21
131.4639761647
 31
0.0
  0
ARC
  5
C2
330
1F
100
AcDbEntity
  8
0
  6
HIDDEN
 62
     7
370
     0
100
AcDbCircle
 10
111.3049170229
 20
124.0942714865
 30
0.0
 40
3.662788052458472
100
AcDbArc
 50
265.2827092948
 51
12.3014501683
  0
ARC
  5
C3
330
1F
100
AcDbEntity
  8
0
  6
HIDDEN
 62
     7
370
     0
100
AcDbCircle
 10
110.7216240863
 20
124.1059659313
 30
0.0
 40
3.672922165405679
100
AcDbArc
 50
166.4845093491
 51
274.4044574913
  0
LINE
  5
C4
330
1F
100
AcDbEntity
  8
0
  6
HIDDEN
 62
     7
370
     0
100
AcDbLine
 10
90.9988422124
 20
88.0893765419
 30
0.0
 11
90.4646967833
 21
88.0347619424
 31
0.0
  0
LINE
  5
C5
330
1F
100
AcDbEntity
  8
0
  6
HIDDEN
 62
     7
370
     0
100
AcDbLine
 10
90.2270431112
 20
135.2173093452
 30
0.0
 11
90.9987494921
 21
135.1385591947
 31
0.0
  0
SPLINE
  5
C6
330
1F
100
AcDbEntity
  8
0
  6
HIDDEN
 62
     7
370
     0
100
AcDbSpline
210
0.0
220
0.0
230
1.0
 70
     8
 71
     3
 72
    90
 73
    86
 74
     0
 42
0.00000001
 43
0.00000001
 40
-0.0312499999999993
 40
-0.0312499999999993
 40
0.0
 40
0.0
 40
0.0312500000000008
 40
0.0312500000000008
 40
0.0468750000000018
 40
0.0468750000000018
 40
0.0625000000000028
 40
0.0625000000000028
 40
0.0937500000000036
 40
0.0937500000000036
 40
0.1250000000000045
 40
0.1250000000000045
 40
0.1562500000000054
 40
0.1562500000000054
 40
0.1718750000000055
 40
0.1718750000000055
 40
0.1875000000000056
 40
0.1875000000000056
 40
0.2187500000000057
 40
0.2187500000000057
 40
0.2500000000000058
 40
0.2500000000000058
 40
0.2656250000000059
 40
0.2656250000000059
 40
0.2812500000000059
 40
0.2812500000000059
 40
0.3125000000000061
 40
0.3125000000000061
 40
0.3281250000000059
 40
0.3281250000000059
 40
0.3437500000000058
 40
0.3437500000000058
 40
0.3593750000000057
 40
0.3593750000000057
 40
0.3750000000000055
 40
0.3750000000000055
 40
0.4062500000000059
 40
0.4062500000000059
 40
0.4375000000000064
 40
0.4375000000000064
 40
0.4687500000000069
 40
0.4687500000000069
 40
0.4843750000000072
 40
0.4843750000000072
 40
0.5000000000000073
 40
0.5000000000000073
 40
0.5312500000000079
 40
0.5312500000000079
 40
0.5625000000000083
 40
0.5625000000000083
 40
0.5781250000000081
 40
0.5781250000000081
 40
0.5937500000000079
 40
0.5937500000000079
 40
0.6250000000000073
 40
0.6250000000000073
 40
0.6562500000000068
 40
0.6562500000000068
 40
0.6875000000000062
 40
0.6875000000000062
 40
0.703125000000006
 40
0.703125000000006
 40
0.7187500000000058
 40
0.7187500000000058
 40
0.750000000000005
 40
0.750000000000005
 40
0.7812500000000042
 40
0.7812500000000042
 40
0.8125000000000034
 40
0.8125000000000034
 40
0.8437500000000028
 40
0.8437500000000028
 40
0.8593750000000024
 40
0.8593750000000024
 40
0.8750000000000022
 40
0.8750000000000022
 40
0.890625000000002
 40
0.890625000000002
 40
0.9062500000000017
 40
0.9062500000000017
 40
0.9375000000000011
 40
0.9375000000000011
 40
0.9687500000000007
 40
0.9687500000000007
 40
1.0
 40
1.0
 40
1.031250000000001
 40
1.031250000000001
 10
211.3785947644774
 20
106.0966365123064
 30
0.0
 10
210.6287892512117
 20
106.0966365123064
 30
0.0
 10
210.2598415850384
 20
106.130524690766
 30
0.0
 10
209.7150048154261
 20
106.2304029085986
 30
0.0
 10
209.5348334447035
 20
106.2719313059373
 30
0.0
 10
209.1774348623494
 20
106.37189627955
 30
0.0
 10
208.9993421684369
 20
106.4307161016143
 30
0.0
 10
208.4794645149864
 20
106.6299304732519
 30
0.0
 10
208.1500165429706
 20
106.7930208169151
 30
0.0
 10
207.52509207878
 20
107.1802281263774
 30
0.0
 10
207.2269203950744
 20
107.4073817779069
 30
0.0
 10
206.6889678195909
 20
107.9090226397852
 30
0.0
 10
206.4470013024076
 20
108.1839168798461
 30
0.0
 10
206.1254494076014
 20
108.6338581816555
 30
0.0
 10
206.0246751485307
 20
108.791157173202
 30
0.0
 10
205.8409396660064
 20
109.1135144324307
 30
0.0
 10
205.7579540956669
 20
109.2783197366114
 30
0.0
 10
205.535100276971
 20
109.7834710201496
 30
0.0
 10
205.421048075004
 20
110.1344378874103
 30
0.0
 10
205.2656918445631
 20
110.8666110547715
 30
0.0
 10
205.227050691278
 20
111.2365260088889
 30
0.0
 10
205.2262775731735
 20
111.7914937047084
 30
0.0
 10
205.235563644554
 20
111.9768030847704
 30
0.0
 10
205.2737291117597
 20
112.3480785296786
 30
0.0
 10
205.3027578627694
 20
112.5339637418203
 30
0.0
 10
205.4171618687069
 20
113.0791348513733
 30
0.0
 10
205.5299054446405
 20
113.4306628607176
 30
0.0
 10
205.7534322604915
 20
113.94035641605
 30
0.0
 10
205.8375104993346
 20
114.1078713009239
 30
0.0
 10
206.0203862841611
 20
114.4297980318027
 30
0.0
 10
206.11948130986
 20
114.5850640634825
 30
0.0
 10
206.3325940255819
 20
114.8845859062384
 30
0.0
 10
206.4466128502432
 20
115.028840719067
 30
0.0
 10
206.6896379376865
 20
115.3063927864749
 30
0.0
 10
206.8193996199998
 20
115.440350995027
 30
0.0
 10
207.2251792965475
 20
115.8193522909962
 30
0.0
 10
207.5172164327755
 20
116.0421724659022
 30
0.0
 10
208.1429107954805
 20
116.4311847894963
 30
0.0
 10
208.4795728602816
 20
116.5979471943616
 30
0.0
 10
209.1692713667665
 20
116.8624678313665
 30
0.0
 10
209.5246393870741
 20
116.9622698567515
 30
0.0
 10
210.0735871831369
 20
117.0634703480061
 30
0.0
 10
210.2599235789235
 20
117.0890516283987
 30
0.0
 10
210.6306053710077
 20
117.122825698475
 30
0.0
 10
210.8157328146816
 20
117.1312237721653
 30
0.0
 10
211.3704879018252
 20
117.1314976513699
 30
0.0
 10
211.7394941731431
 20
117.0987036427307
 30
0.0
 10
212.4757761946954
 20
116.9641272022324
 30
0.0
 10
212.8324536167704
 20
116.8641640358015
 30
0.0
 10
213.3482898259377
 20
116.6670294819069
 30
0.0
 10
213.5171655728186
 20
116.5933679455354
 30
0.0
 10
213.8486403028074
 20
116.4296628559314
 30
0.0
 10
214.0121066273649
 20
116.339042150586
 30
0.0
 10
214.4844707554878
 20
116.046398089285
 30
0.0
 10
214.7761221767276
 20
115.8240350867891
 30
0.0
 10
215.3133404265724
 20
115.3242365556365
 30
0.0
 10
215.5611901907643
 20
115.0430235448749
 30
0.0
 10
215.9894932031739
 20
114.4434711921908
 30
0.0
 10
216.1717133871744
 20
114.1248009589834
 30
0.0
 10
216.3961973258118
 20
113.6174350182904
 30
0.0
 10
216.4631561734369
 20
113.4422463667301
 30
0.0
 10
216.5777311838969
 20
113.0879430264912
 30
0.0
 10
216.6254524169363
 20
112.9090104903428
 30
0.0
 10
216.7405631334039
 20
112.3669675800406
 30
0.0
 10
216.7802114702693
 20
111.9984176515825
 30
0.0
 10
216.7814810725234
 20
111.2476750946613
 30
0.0
 10
216.7431283639743
 20
110.8790393836989
 30
0.0
 10
216.5917663191987
 20
110.1546200418682
 30
0.0
 10
216.476644563754
 20
109.7952241088971
 30
0.0
 10
216.1795065235038
 20
109.1180073806281
 30
0.0
 10
215.9978286037963
 20
108.7977272828138
 30
0.0
 10
215.6756318119818
 20
108.3443804092679
 30
0.0
 10
215.5598819557651
 20
108.1980258084009
 30
0.0
 10
215.3168077913372
 20
107.920558743286
 30
0.0
 10
215.1889090660557
 20
107.7885928099997
 30
0.0
 10
214.9206535633592
 20
107.5377864273395
 30
0.0
 10
214.7802961913231
 20
107.4189468202798
 30
0.0
 10
214.4870229043606
 20
107.1943715453842
 30
0.0
 10
214.3333071375357
 20
107.0881985493084
 30
0.0
 10
213.8615237480676
 20
106.7950477147759
 30
0.0
 10
213.5316146476307
 20
106.6317330906076
 30
0.0
 10
212.8418223840822
 20
106.3666410124881
 30
0.0
 10
212.4790909073727
 20
106.2648305389861
 30
0.0
 10
211.7487767817004
 20
106.1305526251082
 30
0.0
 10
211.3785947644774
 20
106.0966365123064
 30
0.0
 10
210.6287892512117
 20
106.0966365123064
 30
0.0
  0
SPLINE
  5
C7
330
1F
100
AcDbEntity
  8
0
  6
HIDDEN
 62
     7
370
     0
100
AcDbSpline
210
0.0
220
0.0
230
1.0
 70
     8
 71
     3
 72
    45
 73
    41
 74
     0
 42
0.00000001
 43
0.00000001
 40
-0.0754525583478112
 40
-0.062458287644461
 40
-0.0297178004938544
 40
0.0
 40
0.029708796299474
 40
0.0624230266872745
 40
0.090152800781339
 40
0.1249931446062151
 40
0.1466449327579792
 40
0.1670227894590322
 40
0.1861328429909951
 40
0.2039826041944514
 40
0.2205813722442278
 40
0.2359407968743476
 40
0.2500756715097919
 40
0.2849470597660745
 40
0.3265208474022177
 40
0.374903710079618
 40
0.3933016039424194
 40
0.4098753360570832
 40
0.4246263163913224
 40
0.4375568183423295
 40
0.4702688115254924
 40
0.5000240066429489
 40
0.52975753393901
 40
0.5624554899008427
 40
0.5900900246873481
 40
0.6249974600184631
 40
0.6485780340257766
 40
0.669477822549785
 40
0.6877019222769895
 40
0.7203344941540034
 40
0.7501727464244095
 40
0.7849806724429828
 40
0.8265068160216761
 40
0.8748580847785402
 40
0.8932075216385703
 40
0.909770151696494
 40
0.9245474416521888
 40
0.937541712355539
 40
0.9702821995061456
 40
1.0
 40
1.029708796299474
 40
1.062423026687275
 40
1.090152800781339
 10
210.0076950103197
 20
106.5526060311979
 30
0.0
 10
211.0035699711861
 20
106.4587021248039
 30
0.0
 10
211.9993146492701
 20
106.5525843329457
 30
0.0
 10
212.9341169112124
 20
106.8331056016078
 30
0.0
 10
213.8408109809071
 20
107.3064422147968
 30
0.0
 10
214.5455893201012
 20
107.8725484125791
 30
0.0
 10
215.0851745332574
 20
108.490184403026
 30
0.0
 10
215.4477289392741
 20
109.0351314954248
 30
0.0
 10
215.7226337017282
 20
109.5853585130533
 30
0.0
 10
215.918683691499
 20
110.1268486081399
 30
0.0
 10
216.0457297748221
 20
110.6482592972055
 30
0.0
 10
216.1142644335262
 20
111.1410758874219
 30
0.0
 10
216.1456727769372
 20
111.8356670819129
 30
0.0
 10
216.0374055438463
 20
112.815734847582
 30
0.0
 10
215.571136119815
 20
114.0869147685366
 30
0.0
 10
214.8744356625676
 20
115.0330309287159
 30
0.0
 10
214.2116982575999
 20
115.6237483089222
 30
0.0
 10
213.7793664115636
 20
115.9320151060932
 30
0.0
 10
213.3690781815035
 20
116.1676871603706
 30
0.0
 10
212.7826300751229
 20
116.4401681129753
 30
0.0
 10
212.000493148492
 20
116.6751969663912
 30
0.0
 10
211.0042579566822
 20
116.7693138869085
 30
0.0
 10
210.0080040895752
 20
116.6753649718944
 30
0.0
 10
209.0741110784094
 20
116.3950645546965
 30
0.0
 10
208.1677562675922
 20
115.9222591165399
 30
0.0
 10
207.4468174295625
 20
115.3436479400319
 30
0.0
 10
206.8930503505617
 20
114.7022733480637
 30
0.0
 10
206.5288829352543
 20
114.1385249198264
 30
0.0
 10
206.1935066968994
 20
113.4463615899819
 30
0.0
 10
205.9421691808993
 20
112.6091374458235
 30
0.0
 10
205.8430339052723
 20
111.5580628455187
 30
0.0
 10
205.9706904208006
 20
110.4100650105475
 30
0.0
 10
206.4367611189656
 20
109.140289247811
 30
0.0
 10
207.1326326692306
 20
108.1954194457146
 30
0.0
 10
207.7944875297945
 20
107.605207050417
 30
0.0
 10
208.2264019167535
 20
107.2969671618775
 30
0.0
 10
208.6373441370178
 20
107.0607178859088
 30
0.0
 10
209.2249363777773
 20
106.7876446220851
 30
0.0
 10
210.0076950103197
 20
106.5526060311979
 30
0.0
 10
211.0035699711861
 20
106.4587021248039
 30
0.0
 10
211.9993146492701
 20
106.5525843329457
 30
0.0
  0
SPLINE
  5
C8
330
1F
100
AcDbEntity
  8
0
  6
HIDDEN
 62
     7
370
     0
100
AcDbSpline
210
0.0
220
0.0
230
1.0
 70
     8
 71
     3
 72
    32
 73
    28
 74
     0
 42
0.00000001
 43
0.00000001
 40
0.0
 40
0.0
 40
0.0
 40
0.0
 40
0.0346246159901393
 40
0.0694870388940023
 40
0.105100760954932
 40
0.1409753874086758
 40
0.1756005721189328
 40
0.210469240812561
 40
0.2461122854708169
 40
0.2820258067991321
 40
0.3162663828049037
 40
0.3859338563640312
 40
0.4214461814158482
 40
0.4553763558770598
 40
0.5243713305904967
 40
0.5595124638219118
 40
0.593798734303577
 40
0.6635059787021123
 40
0.6990055363805018
 40
0.7337623601246063
 40
0.7687606633024604
 40
0.8045245907686109
 40
0.8405553812432468
 40
0.875170121130555
 40
0.9456085132854553
 40
0.9815233266320907
 40
1.0
 40
1.0
 40
1.0
 40
1.0
 10
96.75869400944617
 20
91.77644768886394
 30
0.0
 10
96.68669570759975
 20
91.78623563177227
 30
0.0
 10
96.5422046090666
 20
91.80587874260868
 30
0.0
 10
96.30088467480813
 20
91.8353279612304
 30
0.0
 10
96.0415864238225
 20
91.86387834332082
 30
0.0
 10
95.76759900468987
 20
91.89030956227566
 30
0.0
 10
95.48297122366833
 20
91.91376203962696
 30
0.0
 10
95.18838626470018
 20
91.93375949608557
 30
0.0
 10
94.88145535573186
 20
91.94991517458931
 30
0.0
 10
94.5697238899794
 20
91.96135716228481
 30
0.0
 10
94.152458341294
 20
91.97004828998264
 30
0.0
 10
93.73181534793643
 20
91.96876023352246
 30
0.0
 10
93.31841179477097
 20
91.95753242215498
 30
0.0
 10
92.91356783170367
 20
91.94023415007413
 30
0.0
 10
92.52292974714149
 20
91.91451850630588
 30
0.0
 10
92.15414866910022
 20
91.88242519540898
 30
0.0
 10
91.80073088685181
 20
91.84686698690655
 30
0.0
 10
91.47528979653092
 20
91.80761853057095
 30
0.0
 10
91.18591259081357
 20
91.7679870131986
 30
0.0
 10
90.98799871383827
 20
91.73885127005634
 30
0.0
 10
90.81067174980076
 20
91.7111170377436
 30
0.0
 10
90.65406242128824
 20
91.68533649348923
 30
0.0
 10
90.52241490158555
 20
91.66272985675504
 30
0.0
 10
90.38055370601383
 20
91.6375438114484
 30
0.0
 10
90.2917351181982
 20
91.62109826232478
 30
0.0
 10
90.2549121796478
 20
91.6142054315086
 30
0.0
 10
90.25632832682098
 20
91.61447041741779
 30
0.0
 10
90.25680938903017
 20
91.6145604325725
 30
0.0
  0
SPLINE
  5
C9
330
1F
100
AcDbEntity
  8
0
  6
HIDDEN
 62
     7
370
     0
100
AcDbSpline
210
0.0
220
0.0
230
1.0
 70
     8
 71
     3
 72
    30
 73
    26
 74
     0
 42
0.00000001
 43
0.00000001
 40
0.0
 40
0.0
 40
0.0
 40
0.0
 40
0.0156161600804337
 40
0.0849748372628082
 40
0.1203204532886746
 40
0.15431851909124
 40
0.2234436946574013
 40
0.2586467089786606
 40
0.2931107206687011
 40
0.3631864361325603
 40
0.3988795186727328
 40
0.4336750628309723
 40
0.4687145712104809
 40
0.5045294144990544
 40
0.5406151111978532
 40
0.5750767863722916
 40
0.6452033649630275
 40
0.6809575734718859
 40
0.7149323277721685
 40
0.784033058295527
 40
0.8192378401372485
 40
0.8533347063218409
 40
0.9226550151093995
 40
0.9579547149334489
 40
1.0
 40
1.0
 40
1.0
 40
1.0
 10
90.25680938903017
 20
131.6133918967883
 30
0.0
 10
90.25621164994507
 20
131.61350414967
 30
0.0
 10
90.25295907176842
 20
131.6141149701473
 30
0.0
 10
90.30327997421675
 20
131.6046558356902
 30
0.0
 10
90.40358500325804
 20
131.586350999594
 30
0.0
 10
90.53820199132772
 20
131.5623676942203
 30
0.0
 10
90.72026063635779
 20
131.5312689000737
 30
0.0
 10
90.94718321002307
 20
131.4953497560314
 30
0.0
 10
91.20376961540045
 20
131.4570307348924
 30
0.0
 10
91.50180627387314
 20
131.4167855995841
 30
0.0
 10
91.83435552787287
 20
131.3781245761818
 30
0.0
 10
92.09955323327715
 20
131.3507219174506
 30
0.0
 10
92.3786110585361
 20
131.3256770808384
 30
0.0
 10
92.67306207443026
 20
131.3035093835428
 30
0.0
 10
92.9759270077465
 20
131.2853472962728
 30
0.0
 10
93.38631299461527
 20
131.2670891912784
 30
0.0
 10
93.80715383357007
 20
131.258241957274
 30
0.0
 10
94.22705775079902
 20
131.2597073517152
 30
0.0
 10
94.64167227165274
 20
131.2677507448825
 30
0.0
 10
95.04789339112857
 20
131.2852575304818
 30
0.0
 10
95.43742389085054
 20
131.3108228435096
 30
0.0
 10
95.8142445920889
 20
131.3410070792238
 30
0.0
 10
96.16738175179285
 20
131.3769046540713
 30
0.0
 10
96.50913323961447
 20
131.4177229319299
 30
0.0
 10
96.67080700062402
 20
131.4396078454963
 30
0.0
 10
96.75869400944617
 20
131.4515046404969
 30
0.0
  0
SPLINE
  5
CA
330
1F
100
AcDbEntity
  8
0
  6
HIDDEN
 62
     7
370
     0
100
AcDbSpline
210
0.0
220
0.0
230
1.0
 70
     8
 71
     3
 72
    15
 73
    11
 74
     0
 42
0.00000001
 43
0.00000001
 40
0.0
 40
0.0
 40
0.0
 40
0.0
 40
0.1100734324506181
 40
0.2209210668662623
 40
0.3341967266678382
 40
0.4483069558518652
 40
0.558403351982193
 40
0.7823031656518125
 40
0.8963672358181024
 40
1.0
 40
1.0
 40
1.0
 40
1.0
 10
96.75869400944617
 20
131.4515046404969
 30
0.0
 10
96.82628799593199
 20
131.4605728945899
 30
0.0
 10
96.96195139150103
 20
131.4787731843804
 30
0.0
 10
97.14239681574429
 20
131.4994942396811
 30
0.0
 10
97.30454559184629
 20
131.5162339251281
 30
0.0
 10
97.4425967326082
 20
131.5288160366325
 30
0.0
 10
97.59423747322467
 20
131.541194838016
 30
0.0
 10
97.69568298270464
 20
131.5481521140432
 30
0.0
 10
97.74709613837781
 20
131.5514487195551
 30
0.0
 10
97.75105093293878
 20
131.5516940238766
 30
0.0
 10
97.75293357993891
 20
131.551810798955
 30
0.0
  0
SPLINE
  5
CB
330
1F
100
AcDbEntity
  8
0
  6
HIDDEN
 62
     7
370
     0
100
AcDbSpline
210
0.0
220
0.0
230
1.0
 70
     8
 71
     3
 72
    17
 73
    13
 74
     0
 42
0.00000001
 43
0.00000001
 40
0.0
 40
0.0
 40
0.0
 40
0.0
 40
0.006972107579339
 40
0.1183145884534651
 40
0.2320710863710107
 40
0.3466623046532964
 40
0.4573807497998338
 40
0.5688716502094823
 40
0.682806634083232
 40
0.7975912397069268
 40
0.8984979961534757
 40
1.0
 40
1.0
 40
1.0
 40
1.0
 10
97.75293754390097
 20
91.67614127999285
 30
0.0
 10
97.7531873651035
 20
91.67612550350785
 30
0.0
 10
97.75742675648219
 20
91.6758577812572
 30
0.0
 10
97.74150553879113
 20
91.67685473440888
 30
0.0
 10
97.7024917341678
 20
91.6793711559705
 30
0.0
 10
97.63403904679194
 20
91.68406880042043
 30
0.0
 10
97.54128721931843
 20
91.69101865809307
 30
0.0
 10
97.42399560986703
 20
91.70074814506025
 30
0.0
 10
97.2811589781257
 20
91.71399515132765
 30
0.0
 10
97.11960958493717
 20
91.73098224000844
 30
0.0
 10
96.94580624474986
 20
91.75127488042122
 30
0.0
 10
96.82118691548489
 20
91.76804031801409
 30
0.0
 10
96.75869400944617
 20
91.77644768886394
 30
0.0
  0
LINE
  5
CC
330
1F
100
AcDbEntity
  8
0
  6
HIDDEN
 62
     7
370
     0
100
AcDbLine
 10
84.0076666041
 20
94.6139761647
 30
0.0
 11
84.0076666041
 21
128.6139761647
 31
0.0
  0
LWPOLYLINE
  5
CD
330
1F
100
AcDbEntity
  8
0
  6
HIDDEN
 62
     7
370
     0
100
AcDbPolyline
 90
       13
 70
   128
 43
0.0
 10
111.0036920078
 20
133.5595785793
 10
111.8635737687
 20
133.6063374679
 10
112.6832484141
 20
133.74442774
 10
113.4243888686
 20
133.9673924479
 10
114.0523402284
 20
134.2648060098
 10
114.5377401856
 20
134.6227616979
 10
114.8578919779
 20
135.0245219023
 10
114.9978256632
 20
135.4513007621
 10
114.950998098
 20
135.8831425724
 10
114.7195988871
 20
136.29985489
 10
114.3144480005
 20
136.68195271
 10
113.7544898433
 20
137.0115695632
 10
113.3868683873
 20
137.1658530223
  0
LWPOLYLINE
  5
CE
330
1F
100
AcDbEntity
  8
0
  6
HIDDEN
 62
     7
370
     0
100
AcDbPolyline
 90
       13
 70
   128
 43
0.0
 10
108.6176052492
 20
137.1647724913
 10
108.2528941724
 20
137.0115695632
 10
107.6929360152
 20
136.68195271
 10
107.2877851286
 20
136.29985489
 10
107.0563859177
 20
135.8831425724
 10
107.0095583524
 20
135.4513007621
 10
107.1494920378
 20
135.0245219023
 10
107.4696438301
 20
134.6227616979
 10
107.9550437873
 20
134.2648060098
 10
108.5829951471
 20
133.9673924479
 10
109.3241356016
 20
133.74442774
 10
110.143810247
 20
133.6063374679
 10
111.0036920078
 20
133.5595785793
  0
SPLINE
  5
CF
330
1F
100
AcDbEntity
  8
0
  6
HIDDEN
 62
     7
370
     0
100
AcDbSpline
210
0.0
220
0.0
230
1.0
 70
     8
 71
     3
 72
     8
 73
     4
 74
     0
 42
0.00000001
 43
0.00000001
 40
0.0
 40
0.0
 40
0.0
 40
0.0
 40
0.0011559732291308
 40
0.0011559732291308
 40
0.0011559732291308
 40
0.0011559732291308
 10
71.10369200784459
 20
113.6138167833131
 30
0.0
 10
71.4370265829119
 20
113.6098495035138
 30
0.0
 10
71.77035777393864
 20
113.6056696209372
 30
0.0
 10
72.10369200784459
 20
113.6011044675294
 30
0.0
  0
SPLINE
  5
D0
330
1F
100
AcDbEntity
  8
0
  6
HIDDEN
 62
     7
370
     0
100
AcDbSpline
210
0.0
220
0.0
230
1.0
 70
     8
 71
     3
 72
    11
 73
     7
 74
     0
 42
0.00000001
 43
0.00000001
 40
0.0
 40
0.0
 40
0.0
 40
0.0
 40
0.0005782382535738
 40
0.0005782382535738
 40
0.0005782382535738
 40
0.0011564766069467
 40
0.0011564766069467
 40
0.0011564766069467
 40
0.0011564766069467
 10
72.10369200784457
 20
109.6172758624621
 30
0.0
 10
71.93703805387595
 20
109.6168382847005
 30
0.0
 10
71.770377381674
 20
109.6163582200281
 30
0.0
 10
71.60371049300859
 20
109.6158386806588
 30
0.0
 10
71.43704357461253
 20
109.6153191411968
 30
0.0
 10
71.2703704447793
 20
109.6147603121749
 30
0.0
 10
71.10369200784457
 20
109.6141747685917
 30
0.0
  0
LINE
  5
D1
330
1F
100
AcDbEntity
  8
0
  6
HIDDEN
 62
     7
370
     0
100
AcDbLine
 10
110.6635179764
 20
94.6139761647
 30
0.0
 11
110.6635179764
 21
128.6139761647
 31
0.0
  0
LINE
  5
D2
330
1F
100
AcDbEntity
  8
0
  6
HIDDEN
 62
     7
370
     0
100
AcDbLine
 10
112.9536920078
 20
95.8889761647
 30
0.0
 11
112.9536920078
 21
127.338976164
 31
0.0
  0
SPLINE
  5
D3
330
1F
100
AcDbEntity
  8
0
  6
HIDDEN
 62
     7
370
     0
100
AcDbSpline
210
0.0
220
0.0
230
1.0
 70
     8
 71
     3
 72
    16
 73
    12
 74
     0
 42
0.00000001
 43
0.00000001
 40
0.0
 40
0.0
 40
0.0
 40
0.0
 40
0.124999999999998
 40
0.124999999999998
 40
0.249999999999996
 40
0.249999999999996
 40
0.4999999999999973
 40
0.4999999999999973
 40
0.7499999999999987
 40
0.7499999999999987
 40
1.0
 40
1.0
 40
1.0
 40
1.0
 10
79.80369200784457
 20
95.81248572864874
 30
0.0
 10
79.8988137625104
 20
95.81248572864874
 30
0.0
 10
79.99214383123848
 20
95.80866989525593
 30
0.0
 10
80.17540559197649
 20
95.79389934252613
 30
0.0
 10
80.2662833075335
 20
95.78274129455056
 30
0.0
 10
80.52308500505323
 20
95.74027002440883
 30
0.0
 10
80.67815236992523
 20
95.69922382720603
 30
0.0
 10
80.93189883147984
 20
95.60407771062414
 30
0.0
 10
81.0327692831477
 20
95.54931497654256
 30
0.0
 10
81.16801569784255
 20
95.43805385263867
 30
0.0
 10
81.20369200784458
 20
95.38088411531
 30
0.0
 10
81.20369200784458
 20
95.32646254227627
 30
0.0
  0
SPLINE
  5
D4
330
1F
100
AcDbEntity
  8
0
  6
HIDDEN
 62
     7
370
     0
100
AcDbSpline
210
0.0
220
0.0
230
1.0
 70
     8
 71
     3
 72
     8
 73
     4
 74
     0
 42
0.00000001
 43
0.00000001
 40
0.0
 40
0.0
 40
0.0
 40
0.0
 40
1.0
 40
1.0
 40
1.0
 40
1.0
 10
72.40369200784563
 20
97.95728867473099
 30
0.0
 10
72.40369200784755
 20
97.07339153241404
 30
0.0
 10
72.39021138193803
 20
96.3588082873521
 30
0.0
 10
72.38886001374695
 20
95.81248572864875
 30
0.0
  0
LINE
  5
D5
330
1F
100
AcDbEntity
  8
0
  6
HIDDEN
 62
     7
370
     0
100
AcDbLine
 10
72.1036920078
 20
102.0131493799
 30
0.0
 11
72.1036920078
 21
98.982198934
 31
0.0
  0
SPLINE
  5
D6
330
1F
100
AcDbEntity
  8
0
  6
HIDDEN
 62
     7
370
     0
100
AcDbSpline
210
0.0
220
0.0
230
1.0
 70
     8
 71
     3
 72
    10
 73
     6
 74
     0
 42
0.00000001
 43
0.00000001
 40
0.0
 40
0.0
 40
0.0
 40
0.0
 40
0.5
 40
0.5
 40
1.0
 40
1.0
 40
1.0
 40
1.0
 10
72.40369200780802
 20
103.3809897890376
 30
0.0
 10
72.40369200780802
 20
103.1390058228656
 30
0.0
 10
72.37554197906185
 20
102.9046633952464
 30
0.0
 10
72.27195206609115
 20
102.4492883755115
 30
0.0
 10
72.19532335732946
 20
102.2276838136294
 30
0.0
 10
72.10369200784459
 20
102.0131493799201
 30
0.0
  0
LINE
  5
D7
330
1F
100
AcDbEntity
  8
0
  6
HIDDEN
 62
     7
370
     0
100
AcDbLine
 10
72.4036920078
 20
115.2186097862
 30
0.0
 11
72.4036920078
 21
103.380989789
 31
0.0
  0
SPLINE
  5
D8
330
1F
100
AcDbEntity
  8
0
  6
HIDDEN
 62
     7
370
     0
100
AcDbSpline
210
0.0
220
0.0
230
1.0
 70
     8
 71
     3
 72
     8
 73
     4
 74
     0
 42
0.00000001
 43
0.00000001
 40
0.0
 40
0.0
 40
0.0
 40
0.0
 40
1.0
 40
1.0
 40
1.0
 40
1.0
 10
72.10369200784459
 20
121.2209154779596
 30
0.0
 10
72.28472347251156
 20
120.7888079945482
 30
0.0
 10
72.40369200781377
 20
120.3346625909718
 30
0.0
 10
72.40369200780805
 20
119.8469625402923
 30
0.0
  0
LINE
  5
D9
330
1F
100
AcDbEntity
  8
0
  6
HIDDEN
 62
     7
370
     0
100
AcDbLine
 10
72.1036920078
 20
124.2541184782
 30
0.0
 11
72.1036920078
 21
121.220915478
 31
0.0
  0
SPLINE
  5
DA
330
1F
100
AcDbEntity
  8
0
  6
HIDDEN
 62
     7
370
     0
100
AcDbSpline
210
0.0
220
0.0
230
1.0
 70
     8
 71
     3
 72
    10
 73
     6
 74
     0
 42
0.00000001
 43
0.00000001
 40
0.0
 40
0.0
 40
0.0
 40
0.0
 40
0.5
 40
0.5
 40
1.0
 40
1.0
 40
1.0
 40
1.0
 10
72.40369200794972
 20
125.2706636546002
 30
0.0
 10
72.40369200794792
 20
125.1060273090076
 30
0.0
 10
72.37653333752328
 20
124.9388720862219
 30
0.0
 10
72.27076834346455
 20
124.600249080561
 30
0.0
 10
72.1943535559424
 20
124.4279773044011
 30
0.0
 10
72.10369200784459
 20
124.2541184781513
 30
0.0
  0
SPLINE
  5
DB
330
1F
100
AcDbEntity
  8
0
  6
HIDDEN
 62
     7
370
     0
100
AcDbSpline
210
0.0
220
0.0
230
1.0
 70
     8
 71
     3
 72
    18
 73
    14
 74
     0
 42
0.00000001
 43
0.00000001
 40
0.0
 40
0.0
 40
0.0
 40
0.0
 40
0.2500000000000033
 40
0.2500000000000033
 40
0.3750000000000029
 40
0.3750000000000029
 40
0.5000000000000026
 40
0.5000000000000026
 40
0.6250000000000022
 40
0.6250000000000022
 40
0.7500000000000018
 40
0.7500000000000018
 40
1.0
 40
1.0
 40
1.0
 40
1.0
 10
77.20369200784458
 20
127.9014897870845
 30
0.0
 10
77.20369200784458
 20
127.8470152665323
 30
0.0
 10
77.16878131645241
 20
127.7906342071798
 30
0.0
 10
77.06677201511935
 20
127.7065573663264
 30
0.0
 10
77.02513566044125
 20
127.6792236623354
 30
0.0
 10
76.92672986495249
 20
127.6262697467365
 30
0.0
 10
76.8691866532482
 20
127.6003823930193
 30
0.0
 10
76.74188847967527
 20
127.552604848186
 30
0.0
 10
76.6723011749178
 20
127.5306569300081
 30
0.0
 10
76.52086692976285
 20
127.4912243650954
 30
0.0
 10
76.4381830266689
 20
127.4736681158696
 30
0.0
 10
76.18207156463085
 20
127.431229350449
 30
0.0
 10
75.99415656074287
 20
127.4154666007121
 30
0.0
 10
75.80369200784457
 20
127.4154666007121
 30
0.0
  0
LINE
  5
DC
330
1F
100
AcDbEntity
  8
0
  6
HIDDEN
 62
     7
370
     0
100
AcDbLine
 10
75.8036920078
 20
127.4154666007
 30
0.0
 11
72.4036920079
 21
127.4154666007
 31
0.0
  0
LINE
  5
DD
330
1F
100
AcDbEntity
  8
0
  6
HIDDEN
 62
     7
370
     0
100
AcDbLine
 10
72.3347230212
 20
95.8124857286
 30
0.0
 11
79.8036920078
 21
95.8124857286
 31
0.0
  0
SPLINE
  5
DE
330
1F
100
AcDbEntity
  8
0
  6
HIDDEN
 62
     7
370
     0
100
AcDbSpline
210
0.0
220
0.0
230
1.0
 70
     8
 71
     3
 72
    22
 73
    18
 74
     0
 42
0.00000001
 43
0.00000001
 40
0.0
 40
0.0
 40
0.0
 40
0.0
 40
0.125
 40
0.125
 40
0.2499999999999999
 40
0.2499999999999999
 40
0.5000000000000003
 40
0.5000000000000003
 40
0.5625000000000004
 40
0.5625000000000004
 40
0.6250000000000006
 40
0.6250000000000006
 40
0.7500000000000004
 40
0.7500000000000004
 40
0.8750000000000002
 40
0.8750000000000002
 40
1.0
 40
1.0
 40
1.0
 40
1.0
 10
72.33472302120248
 20
95.81248572864874
 30
0.0
 10
72.32164062847407
 20
96.06759143879641
 30
0.0
 10
72.30842106503427
 20
96.36074969790032
 30
0.0
 10
72.28597388724016
 20
97.02305016352513
 30
0.0
 10
72.27649542021571
 20
97.39332408413651
 30
0.0
 10
72.2572974592792
 20
98.61588088725028
 30
0.0
 10
72.25841123227607
 20
99.55301981338216
 30
0.0
 10
72.27732202522911
 20
100.8728910428972
 30
0.0
 10
72.28195155308812
 20
101.1443929518735
 30
0.0
 10
72.29243277283406
 20
101.7027777866758
 30
0.0
 10
72.29822803411848
 20
101.9899006426154
 30
0.0
 10
72.3165372550234
 20
102.8624898969871
 30
0.0
 10
72.33057218930381
 20
103.4629455733429
 30
0.0
 10
72.36002936144064
 20
104.700420065839
 30
0.0
 10
72.37558505242218
 20
105.3374362224824
 30
0.0
 10
72.39937960241909
 20
106.648924820167
 30
0.0
 10
72.40739865456446
 20
107.3250474318275
 30
0.0
 10
72.40369200784458
 20
108.0093425431123
 30
0.0
  0
LINE
  5
DF
330
1F
100
AcDbEntity
  8
0
  6
HIDDEN
 62
     7
370
     0
100
AcDbLine
 10
72.4036920079
 20
115.2186097862
 30
0.0
 11
72.4036920079
 21
127.4154666007
 31
0.0
  0
SPLINE
  5
E0
330
1F
100
AcDbEntity
  8
0
  6
HIDDEN
 62
     7
370
     0
100
AcDbSpline
210
0.0
220
0.0
230
1.0
 70
     8
 71
     3
 72
    10
 73
     6
 74
     0
 42
0.00000001
 43
0.00000001
 40
0.0
 40
0.0
 40
0.0
 40
0.0
 40
0.5
 40
0.5
 40
1.0
 40
1.0
 40
1.0
 40
1.0
 10
72.40369200784457
 20
108.0093425430972
 30
0.0
 10
72.40369200784438
 20
108.2832576911713
 30
0.0
 10
72.37793277797557
 20
108.5541992699009
 30
0.0
 10
72.27472684524217
 20
109.0898903515031
 30
0.0
 10
72.19738868136776
 20
109.3556371550248
 30
0.0
 10
72.10369200784459
 20
109.6172758624622
 30
0.0
  0
SPLINE
  5
E1
330
1F
100
AcDbEntity
  8
0
  6
HIDDEN
 62
     7
370
     0
100
AcDbSpline
210
0.0
220
0.0
230
1.0
 70
     8
 71
     3
 72
    10
 73
     6
 74
     0
 42
0.00000001
 43
0.00000001
 40
0.0
 40
0.0
 40
0.0
 40
0.0
 40
0.5
 40
0.5
 40
1.0
 40
1.0
 40
1.0
 40
1.0
 10
72.10369200784459
 20
113.6011044675294
 30
0.0
 10
72.19692258819569
 20
113.8649982741277
 30
0.0
 10
72.27195219972441
 20
114.1311785832261
 30
0.0
 10
72.37701929770392
 20
114.6695011550447
 30
0.0
 10
72.40369200794852
 20
114.9422492696604
 30
0.0
 10
72.4036920079497
 20
115.2186097862475
 30
0.0
  0
LINE
  5
E2
330
1F
100
AcDbEntity
  8
0
  6
HIDDEN
 62
     7
370
     0
100
AcDbLine
 10
72.1036920078
 20
109.6172758625
 30
0.0
 11
72.1036920078
 21
113.6011044675
 31
0.0
  0
LINE
  5
E3
330
1F
100
AcDbEntity
  8
0
  6
HIDDEN
 62
     7
370
     0
100
AcDbLine
 10
72.2536920078
 20
93.6239761647
 30
0.0
 11
72.2536920078
 21
90.7440383993
 31
0.0
  0
LINE
  5
E4
330
1F
100
AcDbEntity
  8
0
  6
HIDDEN
 62
     7
370
     0
100
AcDbLine
 10
81.2036920078
 20
93.6239761647
 30
0.0
 11
81.2036920078
 21
89.6502386335
 31
0.0
  0
LINE
  5
E5
330
1F
100
AcDbEntity
  8
0
  6
HIDDEN
 62
     7
370
     0
100
AcDbLine
 10
72.2536920078
 20
129.6039761647
 30
0.0
 11
72.2536920078
 21
132.4839139301
 31
0.0
  0
LINE
  5
E6
330
1F
100
AcDbEntity
  8
0
  6
HIDDEN
 62
     7
370
     0
100
AcDbLine
 10
77.2036920078
 20
129.6039761647
 30
0.0
 11
77.2036920078
 21
133.458083837
 31
0.0
  0
LINE
  5
E7
330
1F
100
AcDbEntity
  8
0
  6
HIDDEN
 62
     7
370
     0
100
AcDbLine
 10
121.8036920078
 20
102.1139761647
 30
0.0
 11
121.8036920078
 21
121.1139761647
 31
0.0
  0
LINE
  5
E8
330
1F
100
AcDbEntity
  8
0
  6
HIDDEN
 62
     7
370
     0
100
AcDbLine
 10
124.8036920078
 20
102.1139761647
 30
0.0
 11
124.8036920078
 21
121.1139761647
 31
0.0
  0
LINE
  5
E9
330
1F
100
AcDbEntity
  8
0
  6
HIDDEN
 62
     7
370
     0
100
AcDbLine
 10
113.4536920078
 20
103.1139761647
 30
0.0
 11
113.4536920078
 21
120.1139761647
 31
0.0
  0
LINE
  5
EA
330
1F
100
AcDbEntity
  8
0
  6
HIDDEN
 62
     7
370
     0
100
AcDbLine
 10
107.9536920078
 20
80.1298531818
 30
0.0
 11
107.9536920078
 21
85.2139761647
 31
0.0
  0
LINE
  5
EB
330
1F
100
AcDbEntity
  8
0
  6
HIDDEN
 62
     7
370
     0
100
AcDbLine
 10
115.9536920078
 20
85.2139761647
 30
0.0
 11
107.9536920078
 21
85.2139761647
 31
0.0
  0
LINE
  5
EC
330
1F
100
AcDbEntity
  8
0
  6
HIDDEN
 62
     7
370
     0
100
AcDbLine
 10
119.1913668102
 20
85.2139761647
 30
0.0
 11
115.9536920078
 21
85.2139761647
 31
0.0
  0
LINE
  5
ED
330
1F
100
AcDbEntity
  8
0
  6
HIDDEN
 62
     7
370
     0
100
AcDbLine
 10
128.9536920078
 20
85.2139761647
 30
0.0
 11
122.8160172055
 21
85.2139761647
 31
0.0
  0
LINE
  5
EE
330
1F
100
AcDbEntity
  8
0
  6
HIDDEN
 62
     7
370
     0
100
AcDbLine
 10
128.9536920078
 20
138.0139761647
 30
0.0
 11
122.5193944762
 21
138.0139761647
 31
0.0
  0
LINE
  5
EF
330
1F
100
AcDbEntity
  8
0
  6
HIDDEN
 62
     7
370
     0
100
AcDbLine
 10
115.9536920078
 20
138.0139761647
 30
0.0
 11
107.9536920078
 21
138.0139761647
 31
0.0
  0
LINE
  5
F0
330
1F
100
AcDbEntity
  8
0
  6
HIDDEN
 62
     7
370
     0
100
AcDbLine
 10
119.4879895395
 20
138.0139761647
 30
0.0
 11
115.9536920078
 21
138.0139761647
 31
0.0
  0
SPLINE
  5
F1
330
1F
100
AcDbEntity
  8
0
  6
HIDDEN
 62
     7
370
     0
100
AcDbSpline
210
0.0
220
0.0
230
1.0
 70
     8
 71
     3
 72
    11
 73
     7
 74
     0
 42
0.00000001
 43
0.00000001
 40
0.0
 40
0.0
 40
0.0
 40
0.0
 40
0.0008203708524183
 40
0.0008203708524183
 40
0.0008203708524183
 40
0.0016409967870154
 40
0.0016409967870154
 40
0.0016409967870154
 40
0.0016409967870154
 10
72.25369200784458
 20
95.76194341403769
 30
0.0
 10
72.06253370754592
 20
95.72076438541855
 30
0.0
 10
71.87110663747372
 20
95.68201041318854
 30
0.0
 10
71.67946101395309
 20
95.64564265390999
 30
0.0
 10
71.48775560887263
 20
95.60926355014396
 30
0.0
 10
71.29581665681368
 20
95.57526929937642
 30
0.0
 10
71.10369200974287
 20
95.5436211739852
 30
0.0
  0
ELLIPSE
  5
F2
330
1F
100
AcDbEntity
  8
0
  6
HIDDEN
 62
     7
370
     0
100
AcDbEllipse
 10
66.8612601451
 20
111.6139761647
 30
0.0
 11
20.19992452772428
 21
-1.421085471520200E-14
 31
0.0
210
0.0
220
0.0
230
1.0
 40
0.816496581
 41
1.300566354937166
 42
1.359198697442763
  0
LINE
  5
F3
330
1F
100
AcDbEntity
  8
0
  6
HIDDEN
 62
     7
370
     0
100
AcDbLine
 10
187.0036920078
 20
105.7139761647
 30
0.0
 11
187.0036920078
 21
117.5139758591
 31
0.0
  0
LINE
  5
F4
330
1F
100
AcDbEntity
  8
0
  6
HIDDEN
 62
     7
370
     0
100
AcDbLine
 10
191.0036920078
 20
105.6139761647
 30
0.0
 11
191.0036920078
 21
117.6139761647
 31
0.0
  0
LINE
  5
F5
330
1F
100
AcDbEntity
  8
0
  6
HIDDEN
 62
     7
370
     0
100
AcDbLine
 10
72.2536920078
 20
93.6239761647
 30
0.0
 11
72.2536920078
 21
95.761943414
 31
0.0
  0
LINE
  5
F6
330
1F
100
AcDbEntity
  8
0
  6
HIDDEN
 62
     7
370
     0
100
AcDbLine
 10
72.3347230212
 20
95.8124857286
 30
0.0
 11
72.2536920078
 21
95.761943414
 31
0.0
  0
LINE
  5
F7
330
1F
100
AcDbEntity
  8
0
  6
HIDDEN
 62
     7
370
     0
100
AcDbLine
 10
81.2036920078
 20
93.6239761647
 30
0.0
 11
81.2036920078
 21
95.3264625423
 31
0.0
  0
LINE
  5
F8
330
1F
100
AcDbEntity
  8
0
  6
HIDDEN
 62
     7
370
     0
100
AcDbLine
 10
77.2036920078
 20
129.6039761647
 30
0.0
 11
77.2036920078
 21
127.9014897871
 31
0.0
  0
LINE
  5
F9
330
1F
100
AcDbEntity
  8
0
  6
HIDDEN
 62
     7
370
     0
100
AcDbLine
 10
72.2536920078
 20
129.6039761647
 30
0.0
 11
72.2536920078
 21
127.5086006137
 31
0.0
  0
SPLINE
  5
FA
330
1F
100
AcDbEntity
  8
0
  6
HIDDEN
 62
     7
370
     0
100
AcDbSpline
210
0.0
220
0.0
230
1.0
 70
     8
 71
     3
 72
     8
 73
     4
 74
     0
 42
0.00000001
 43
0.00000001
 40
0.0
 40
0.0
 40
0.0
 40
0.0
 40
1.0
 40
1.0
 40
1.0
 40
1.0
 10
72.25369200784458
 20
127.5086006136789
 30
0.0
 10
72.30369750569203
 20
127.4775648401461
 30
0.0
 10
72.3536975752604
 20
127.4465201958053
 30
0.0
 10
72.40369200794973
 20
127.415466600712
 30
0.0
  0
SPLINE
  5
FB
330
1F
100
AcDbEntity
  8
0
  6
HIDDEN
 62
     7
370
     0
100
AcDbSpline
210
0.0
220
0.0
230
1.0
 70
     8
 71
     3
 72
    20
 73
    16
 74
     0
 42
0.00000001
 43
0.00000001
 40
0.0
 40
0.0
 40
0.0
 40
0.0
 40
0.1119595197684142
 40
0.1774767634647507
 40
0.2490961890179794
 40
0.3298422315093885
 40
0.3986125823881415
 40
0.4998893016461092
 40
0.6138510293005034
 40
0.6790150176761197
 40
0.7495394203319945
 40
0.8296829944212418
 40
0.8981246285268906
 40
0.9995320175861913
 40
1.0
 40
1.0
 40
1.0
 40
1.0
 10
97.75253245770745
 20
88.0139824029126
 30
0.0
 10
97.70920871940889
 20
88.02741172094963
 30
0.0
 10
97.64053249723212
 20
88.04869969990561
 30
0.0
 10
97.19535337118184
 20
88.15201051155411
 30
0.0
 10
96.66879508751205
 20
88.26531374161597
 30
0.0
 10
95.9833700663829
 20
88.38824660940858
 30
0.0
 10
95.09005266908407
 20
88.51028106859303
 30
0.0
 10
93.97669328194644
 20
88.62801737637764
 30
0.0
 10
92.86591920131082
 20
88.63999287875329
 30
0.0
 10
91.98117089940541
 20
88.61293458862195
 30
0.0
 10
91.3139743047717
 20
88.56500252421414
 30
0.0
 10
90.77270180254449
 20
88.50870901184956
 30
0.0
 10
90.38512184347233
 20
88.46362610121078
 30
0.0
 10
90.19118532340323
 20
88.42475292651085
 30
0.0
 10
90.25428778363295
 20
88.4354589837516
 30
0.0
 10
90.25457765586829
 20
88.4355081639061
 30
0.0
  0
LINE
  5
FC
330
1F
100
AcDbEntity
  8
0
  6
HIDDEN
 62
     7
370
     0
100
AcDbLine
 10
91.1637039202
 20
88.5463143081
 30
0.0
 11
91.3475492333
 21
88.5645036507
 31
0.0
  0
LINE
  5
FD
330
1F
100
AcDbEntity
  8
0
  6
HIDDEN
 62
     7
370
     0
100
AcDbLine
 10
91.3475465349
 20
134.6633792475
 30
0.0
 11
91.173473253
 21
134.6805887736
 31
0.0
  0
SPLINE
  5
FE
330
1F
100
AcDbEntity
  8
0
  6
HIDDEN
 62
     7
370
     0
100
AcDbSpline
210
0.0
220
0.0
230
1.0
 70
     8
 71
     3
 72
    20
 73
    16
 74
     0
 42
0.00000001
 43
0.00000001
 40
0.0
 40
0.0
 40
0.0
 40
0.0
 40
0.0004889684280502
 40
0.1018319933926956
 40
0.1702475582150564
 40
0.2503692056770218
 40
0.3209568221796114
 40
0.3861816196721121
 40
0.5002554836817364
 40
0.6012243489302103
 40
0.669768055864141
 40
0.750240190758111
 40
0.8220490693822882
 40
0.8877204546071489
 40
1.0
 40
1.0
 40
1.0
 40
1.0
 10
90.25461104062971
 20
134.7923776188729
 30
0.0
 10
90.25430739963281
 20
134.7924292060231
 30
0.0
 10
90.19107148046723
 20
134.8031726856364
 30
0.0
 10
90.38427551426156
 20
134.7643166949778
 30
0.0
 10
90.77122256916945
 20
134.7192932045732
 30
0.0
 10
91.31222949249576
 20
134.6630302424803
 30
0.0
 10
91.9797297539608
 20
134.6150990498862
 30
0.0
 10
92.86555760531415
 20
134.5880255941567
 30
0.0
 10
93.97636417740192
 20
134.5998515977363
 30
0.0
 10
95.08843454342518
 20
134.7173006728916
 30
0.0
 10
95.9795348496231
 20
134.8390050611312
 30
0.0
 10
96.66501930043326
 20
134.9618261067058
 30
0.0
 10
97.1930071999708
 20
135.0752643583881
 30
0.0
 10
97.64039115146404
 20
135.1790049140267
 30
0.0
 10
97.70920161781851
 20
135.200427707304
 30
0.0
 10
97.75261812513169
 20
135.2139445879511
 30
0.0
  0
SPLINE
  5
FF
330
1F
100
AcDbEntity
  8
0
  6
HIDDEN
 62
     7
370
     0
100
AcDbSpline
210
0.0
220
0.0
230
1.0
 70
     8
 71
     3
 72
     8
 73
     4
 74
     0
 42
0.00000001
 43
0.00000001
 40
0.0
 40
0.0
 40
0.0
 40
0.0
 40
0.000159097691435
 40
0.000159097691435
 40
0.000159097691435
 40
0.000159097691435
 10
72.38886001374695
 20
95.81248572864874
 30
0.0
 10
72.3438085443476
 20
95.78450684501485
 30
0.0
 10
72.298752507038
 20
95.75653531532929
 30
0.0
 10
72.25369200784458
 20
95.72857097666594
 30
0.0
  0
SPLINE
  5
100
330
1F
100
AcDbEntity
  8
0
  6
HIDDEN
 62
     7
370
     0
100
AcDbSpline
210
0.0
220
0.0
230
1.0
 70
     8
 71
     3
 72
    11
 73
     7
 74
     0
 42
0.00000001
 43
0.00000001
 40
0.0
 40
0.0
 40
0.0
 40
0.0
 40
0.0008212909311356
 40
0.0008212909311356
 40
0.0008212909311356
 40
0.0016428257242859
 40
0.0016428257242859
 40
0.0016428257242859
 40
0.0016428257242859
 10
72.25369200784458
 20
95.72857097666594
 30
0.0
 10
72.06254698636222
 20
95.68528478783614
 30
0.0
 10
71.87112865068566
 20
95.64434827822211
 30
0.0
 10
71.67948257602454
 20
95.60574650685928
 30
0.0
 10
71.48777949448292
 20
95.56713325304594
 30
0.0
 10
71.29583437119751
 20
95.53085304378419
 30
0.0
 10
71.10369200784456
 20
95.49688613745748
 30
0.0
  0
LINE
  5
101
330
1F
100
AcDbEntity
  8
0
  6
HIDDEN
 62
     7
370
     0
100
AcDbLine
 10
119.0936920078
 20
131.7498427961
 30
0.0
 11
119.0936920078
 21
131.4639761647
 31
0.0
  0
LINE
  5
102
330
1F
100
AcDbEntity
  8
0
  6
HIDDEN
 62
     7
370
     0
100
AcDbLine
 10
122.9136920078
 20
131.7582193346
 30
0.0
 11
122.9136920078
 21
131.4639761647
 31
0.0
  0
LINE
  5
103
330
1F
100
AcDbEntity
  8
0
  6
HIDDEN
 62
     7
370
     0
100
AcDbLine
 10
124.3956248393
 20
136.072665827
 30
0.0
 11
124.3956248393
 21
131.4639761647
 31
0.0
  0
SPLINE
  5
104
330
1F
100
AcDbEntity
  8
0
  6
HIDDEN
 62
     7
370
     0
100
AcDbSpline
210
0.0
220
0.0
230
1.0
 70
     8
 71
     3
 72
    24
 73
    20
 74
     0
 42
0.00000001
 43
0.00000001
 40
0.0
 40
0.0
 40
0.0
 40
0.0
 40
0.25
 40
0.25
 40
0.374999999999999
 40
0.374999999999999
 40
0.4374999999999993
 40
0.4374999999999993
 40
0.4687499999999994
 40
0.4687499999999994
 40
0.4999999999999995
 40
0.4999999999999995
 40
0.5624999999999971
 40
0.5624999999999971
 40
0.6249999999999947
 40
0.6249999999999947
 40
0.7499999999999947
 40
0.7499999999999947
 40
1.0
 40
1.0
 40
1.0
 40
1.0
 10
71.16635538256799
 20
91.93942361989966
 30
0.0
 10
71.18010850123821
 20
92.01007367788993
 30
0.0
 10
71.19788106864408
 20
92.07667179065487
 30
0.0
 10
71.25013216019943
 20
92.15076981088808
 30
0.0
 10
71.27116723578101
 20
92.17202761804963
 30
0.0
 10
71.32406764340942
 20
92.18017354419587
 30
0.0
 10
71.34517331628734
 20
92.1792337408001
 30
0.0
 10
71.39122548496532
 20
92.15821774922276
 30
0.0
 10
71.4095959569487
 20
92.14730894311514
 30
0.0
 10
71.45114759201441
 20
92.11467403216777
 30
0.0
 10
71.47371426477132
 20
92.09318205179639
 30
0.0
 10
71.53649528123134
 20
92.02471610821009
 30
0.0
 10
71.56962504219925
 20
91.97864165000499
 30
0.0
 10
71.62654272868424
 20
91.89363376167033
 30
0.0
 10
71.65072875418801
 20
91.85335346048895
 30
0.0
 10
71.71593670456777
 20
91.738417234023
 30
0.0
 10
71.75065276475902
 20
91.66783424887599
 30
0.0
 10
71.84386803508991
 20
91.46362848979739
 30
0.0
 10
71.88954057045058
 20
91.34073010747002
 30
0.0
 10
71.92784565394912
 20
91.22385683108244
 30
0.0
  0
SPLINE
  5
105
330
1F
100
AcDbEntity
  8
0
  6
HIDDEN
 62
     7
370
     0
100
AcDbSpline
210
0.0
220
0.0
230
1.0
 70
     8
 71
     3
 72
     8
 73
     4
 74
     0
 42
0.00000001
 43
0.00000001
 40
0.0
 40
0.0
 40
0.0
 40
0.0
 40
0.001156372467817
 40
0.001156372467817
 40
0.001156372467817
 40
0.001156372467817
 10
72.10369200784487
 20
124.2541184781561
 30
0.0
 10
71.77037089264762
 20
124.3831775037829
 30
0.0
 10
71.43703821183955
 20
124.5121378399515
 30
0.0
 10
71.10369200784457
 20
124.6410493697244
 30
0.0
  0
SPLINE
  5
106
330
1F
100
AcDbEntity
  8
0
  6
HIDDEN
 62
     7
370
     0
100
AcDbSpline
210
0.0
220
0.0
230
1.0
 70
     8
 71
     3
 72
    11
 73
     7
 74
     0
 42
0.00000001
 43
0.00000001
 40
0.0
 40
0.0
 40
0.0
 40
0.0
 40
0.000577874610501
 40
0.000577874610501
 40
0.000577874610501
 40
0.001155749485703
 40
0.001155749485703
 40
0.001155749485703
 40
0.001155749485703
 10
71.10369200784459
 20
98.5867543022297
 30
0.0
 10
71.27035888425769
 20
98.65256642901271
 30
0.0
 10
71.43702560381898
 20
98.71842490924024
 30
0.0
 10
71.60369225186761
 20
98.78433248226258
 30
0.0
 10
71.77035897638623
 20
98.85024008552465
 30
0.0
 10
71.93702567080693
 20
98.91619719400664
 30
0.0
 10
72.10369200784459
 20
98.98219893402627
 30
0.0
  0
SPLINE
  5
107
330
1F
100
AcDbEntity
  8
0
  6
HIDDEN
 62
     7
370
     0
100
AcDbSpline
210
0.0
220
0.0
230
1.0
 70
     8
 71
     3
 72
    11
 73
     7
 74
     0
 42
0.00000001
 43
0.00000001
 40
0.0000000000000006
 40
0.0000000000000006
 40
0.0000000000000006
 40
0.0000000000000006
 40
0.000578048606266
 40
0.000578048606266
 40
0.000578048606266
 40
0.001156097351391
 40
0.001156097351391
 40
0.001156097351391
 40
0.001156097351391
 10
71.10369200784459
 20
121.5947906579677
 30
0.0
 10
71.27036186388979
 20
121.5324187965625
 30
0.0
 10
71.43702956797421
 20
121.4700649363711
 30
0.0
 10
71.60369587242786
 20
121.4077453762875
 30
0.0
 10
71.77036221312162
 20
121.3454258026531
 30
0.0
 10
71.93702716975022
 20
121.2831405984326
 30
0.0
 10
72.10369200784459
 20
121.2209154779596
 30
0.0
  0
SPLINE
  5
108
330
1F
100
AcDbEntity
  8
0
  6
HIDDEN
 62
     7
370
     0
100
AcDbSpline
210
0.0
220
0.0
230
1.0
 70
     8
 71
     3
 72
    11
 73
     7
 74
     0
 42
0.00000001
 43
0.00000001
 40
0.0
 40
0.0
 40
0.0
 40
0.0
 40
0.0005782401583357
 40
0.0005782401583357
 40
0.0005782401583357
 40
0.001156480596064
 40
0.001156480596064
 40
0.001156480596064
 40
0.001156480596064
 10
72.10369200784459
 20
102.0131493799201
 30
0.0
 10
71.93704105749585
 20
101.949723921981
 30
0.0
 10
71.77038146491327
 20
101.8863683984512
 30
0.0
 10
71.60371441248472
 20
101.8230708142298
 30
0.0
 10
71.4370472759209
 20
101.7597731980552
 30
0.0
 10
71.27037266847478
 20
101.6965334032463
 30
0.0
 10
71.10369200784457
 20
101.6333333967421
 30
0.0
  0
CIRCLE
  5
109
330
1F
100
AcDbEntity
  8
0
  6
HIDDEN
 62
     7
370
     0
100
AcDbCircle
 10
110.0036920078
 20
111.6139761647
 30
0.0
 40
5.0
  0
LINE
  5
10A
330
1F
100
AcDbEntity
  8
0
  6
HIDDEN
 62
     7
370
     0
100
AcDbLine
 10
107.0036920078
 20
125.9118113144
 30
0.0
 11
107.0036920078
 21
124.0079168076
 31
0.0
  0
LINE
  5
10B
330
1F
100
AcDbEntity
  8
0
  6
HIDDEN
 62
     7
370
     0
100
AcDbLine
 10
115.0036920078
 20
124.0079168076
 30
0.0
 11
115.0036920078
 21
125.9146066704
 31
0.0
  0
LINE
  5
10C
330
1F
100
AcDbEntity
  8
0
  6
HIDDEN
 62
     7
370
     0
100
AcDbLine
 10
103.0036920078
 20
86.2900450187
 30
0.0
 11
103.0978527834
 21
86.9600337499
 31
0.0
  0
LINE
  5
10D
330
1F
100
AcDbEntity
  8
0
  6
HIDDEN
 62
     7
370
     0
100
AcDbLine
 10
103.0978527834
 20
136.2679185794
 30
0.0
 11
103.0036920078
 21
136.9379073107
 31
0.0
  0
ARC
  5
10E
330
1F
100
AcDbEntity
  8
0
  6
HIDDEN
 62
     7
370
     0
100
AcDbCircle
 10
102.5036852552
 20
87.0435385503
 30
0.0
 40
0.6000067526677242
100
AcDbArc
 50
352.0
 51
0.0
  0
ARC
  5
10F
330
1F
100
AcDbEntity
  8
0
  6
HIDDEN
 62
     7
370
     0
100
AcDbCircle
 10
102.5036852552
 20
87.0435385503
 30
0.0
 40
0.6000067526677242
100
AcDbArc
 50
0.0
 51
33.5571153394
  0
ARC
  5
110
330
1F
100
AcDbEntity
  8
0
  6
HIDDEN
 62
     7
370
     0
100
AcDbCircle
 10
102.5036852552
 20
136.1844137791
 30
0.0
 40
0.6000067526677253
100
AcDbArc
 50
348.75
 51
8.0
  0
LWPOLYLINE
  5
111
330
1F
100
AcDbEntity
  8
0
  6
HIDDEN
 62
     7
370
     0
100
AcDbPolyline
 90
        3
 70
   128
 43
0.0
 10
103.0921630463
 20
136.0673582685
 10
103.0580192133
 20
135.9548011355
 10
103.0036920078
 20
135.852749264
  0
LINE
  5
112
330
1F
100
AcDbEntity
  8
0
  6
HIDDEN
 62
     7
370
     0
100
AcDbLine
 10
103.1036920078
 20
87.0435385503
 30
0.0
 11
103.1036920078
 21
136.1844137791
 31
0.0
  0
LINE
  5
113
330
1F
100
AcDbEntity
  8
0
  6
HIDDEN
 62
     7
370
     0
100
AcDbLine
 10
86.0861275731
 20
91.6139761647
 30
0.0
 11
90.256809389
 21
91.6139761647
 31
0.0
  0
LINE
  5
114
330
1F
100
AcDbEntity
  8
0
  6
HIDDEN
 62
     7
370
     0
100
AcDbLine
 10
90.256809389
 20
131.6139761647
 30
0.0
 11
86.0861275731
 21
131.6139761647
 31
0.0
  0
ARC
  5
115
330
1F
100
AcDbEntity
  8
0
  6
HIDDEN
 62
     7
370
     0
100
AcDbCircle
 10
96.7586940094
 20
99.6139761647
 30
0.0
 40
8.000000000000014
100
AcDbArc
 50
277.1439550296
 51
321.3178125465
  0
ARC
  5
116
330
1F
100
AcDbEntity
  8
0
  6
HIDDEN
 62
     7
370
     0
100
AcDbCircle
 10
96.7586940094
 20
123.6139761647
 30
0.0
 40
8.000000000000004
100
AcDbArc
 50
38.6821874535
 51
82.8732953368
  0
ARC
  5
117
330
1F
100
AcDbEntity
  8
0
  6
HIDDEN
 62
     7
370
     0
100
AcDbCircle
 10
86.0861275731
 20
92.2139761647
 30
0.0
 40
0.6000000000000085
100
AcDbArc
 50
210.0
 51
270.0
  0
ARC
  5
118
330
1F
100
AcDbEntity
  8
0
  6
HIDDEN
 62
     7
370
     0
100
AcDbCircle
 10
86.0861275731
 20
131.0139761647
 30
0.0
 40
0.6000000000000032
100
AcDbArc
 50
90.0
 51
150.0
  0
LINE
  5
119
330
1F
100
AcDbEntity
  8
0
  6
HIDDEN
 62
     7
370
     0
100
AcDbLine
 10
85.5665123309
 20
131.3139761647
 30
0.0
 11
84.0076666041
 21
128.6139761647
 31
0.0
  0
LINE
  5
11A
330
1F
100
AcDbEntity
  8
0
  6
HIDDEN
 62
     7
370
     0
100
AcDbLine
 10
84.0076666041
 20
94.6139761647
 30
0.0
 11
85.5665123309
 21
91.9139761647
 31
0.0
  0
LINE
  5
11B
330
1F
100
AcDbEntity
  8
0
  6
HIDDEN
 62
     7
370
     0
100
AcDbLine
 10
107.0036920078
 20
138.8923337125
 30
0.0
 11
107.0036920078
 21
135.5595785793
 31
0.0
  0
LINE
  5
11C
330
1F
100
AcDbEntity
  8
0
  6
HIDDEN
 62
     7
370
     0
100
AcDbLine
 10
115.0036920078
 20
135.5595785793
 30
0.0
 11
115.0036920078
 21
138.8937084018
 31
0.0
  0
ARC
  5
11D
330
1F
100
AcDbEntity
  8
0
  6
HIDDEN
 62
     7
370
     0
100
AcDbCircle
 10
111.4536920078
 20
95.8889761647
 30
0.0
 40
1.500000000000001
100
AcDbArc
 50
238.2116693829
 51
0.0
  0
ARC
  5
11E
330
1F
100
AcDbEntity
  8
0
  6
HIDDEN
 62
     7
370
     0
100
AcDbCircle
 10
111.4536920078
 20
127.3389761647
 30
0.0
 40
1.5
100
AcDbArc
 50
0.0
 51
121.7883306171
  0
LINE
  5
11F
330
1F
100
AcDbEntity
  8
0
  6
HIDDEN
 62
     7
370
     0
100
AcDbLine
 10
81.2036920078
 20
94.6139761647
 30
0.0
 11
84.0076666041
 21
94.6139761647
 31
0.0
  0
LINE
  5
120
330
1F
100
AcDbEntity
  8
0
  6
HIDDEN
 62
     7
370
     0
100
AcDbLine
 10
84.0076666041
 20
128.6139761647
 30
0.0
 11
77.2036920078
 21
128.6139761647
 31
0.0
  0
LINE
  5
121
330
1F
100
AcDbEntity
  8
0
  6
HIDDEN
 62
     7
370
     0
100
AcDbLine
 10
103.0036920078
 20
94.6139761647
 30
0.0
 11
110.6635179764
 21
94.6139761647
 31
0.0
  0
LINE
  5
122
330
1F
100
AcDbEntity
  8
0
  6
HIDDEN
 62
     7
370
     0
100
AcDbLine
 10
110.6635179764
 20
128.6139761647
 30
0.0
 11
103.0036920078
 21
128.6139761647
 31
0.0
  0
LINE
  5
123
330
1F
100
AcDbEntity
  8
0
  6
HIDDEN
 62
     7
370
     0
100
AcDbLine
 10
121.8036920078
 20
102.1139761647
 30
0.0
 11
124.8036920078
 21
102.1139761647
 31
0.0
  0
LINE
  5
124
330
1F
100
AcDbEntity
  8
0
  6
HIDDEN
 62
     7
370
     0
100
AcDbLine
 10
124.8036920078
 20
121.1139761647
 30
0.0
 11
121.8036920078
 21
121.1139761647
 31
0.0
  0
LINE
  5
125
330
1F
100
AcDbEntity
  8
0
  6
HIDDEN
 62
     7
370
     0
100
AcDbLine
 10
112.9536920078
 20
102.6139761647
 30
0.0
 11
113.4536920078
 21
103.1139761647
 31
0.0
  0
LINE
  5
126
330
1F
100
AcDbEntity
  8
0
  6
HIDDEN
 62
     7
370
     0
100
AcDbLine
 10
113.4536920078
 20
120.1139761647
 30
0.0
 11
112.9536920078
 21
120.6139761647
 31
0.0
  0
LINE
  5
127
330
1F
100
AcDbEntity
  8
0
  6
HIDDEN
 62
     7
370
     0
100
AcDbLine
 10
113.4536920078
 20
103.1139761647
 30
0.0
 11
121.8036920078
 21
103.1139761647
 31
0.0
  0
LINE
  5
128
330
1F
100
AcDbEntity
  8
0
  6
HIDDEN
 62
     7
370
     0
100
AcDbLine
 10
121.8036920078
 20
120.1139761647
 30
0.0
 11
113.4536920078
 21
120.1139761647
 31
0.0
  0
LINE
  5
129
330
1F
100
AcDbEntity
  8
0
  6
HIDDEN
 62
     7
370
     0
100
AcDbLine
 10
107.9536920078
 20
143.1139761647
 30
0.0
 11
107.9536920078
 21
138.0139761647
 31
0.0
  0
ARC
  5
12A
330
1F
100
AcDbEntity
  8
0
  6
HIDDEN
 62
     7
370
     0
100
AcDbCircle
 10
232.7036920078
 20
105.3139761647
 30
0.0
 40
0.3000000000000114
100
AcDbArc
 50
0.0
 51
90.0
  0
ARC
  5
12B
330
1F
100
AcDbEntity
  8
0
  6
HIDDEN
 62
     7
370
     0
100
AcDbCircle
 10
232.7036920078
 20
117.9139761647
 30
0.0
 40
0.3000000000000114
100
AcDbArc
 50
270.0
 51
0.0
  0
ARC
  5
12C
330
1F
100
AcDbEntity
  8
0
  6
HIDDEN
 62
     7
370
     0
100
AcDbCircle
 10
190.1089179897
 20
105.7139761647
 30
0.0
 40
0.3999999999999915
100
AcDbArc
 50
270.0
 51
290.0
  0
ARC
  5
12D
330
1F
100
AcDbEntity
  8
0
  6
HIDDEN
 62
     7
370
     0
100
AcDbCircle
 10
190.1089179897
 20
117.5139761647
 30
0.0
 40
0.3999999999999915
100
AcDbArc
 50
70.0
 51
90.0
  0
LINE
  5
12E
330
1F
100
AcDbEntity
  8
0
  6
HIDDEN
 62
     7
370
     0
100
AcDbLine
 10
187.4036920078
 20
105.3139761647
 30
0.0
 11
190.1089179897
 21
105.3139761647
 31
0.0
  0
LINE
  5
12F
330
1F
100
AcDbEntity
  8
0
  6
HIDDEN
 62
     7
370
     0
100
AcDbLine
 10
190.1089179897
 20
117.9139761647
 30
0.0
 11
187.4036920078
 21
117.9139761647
 31
0.0
  0
ARC
  5
130
330
1F
100
AcDbEntity
  8
0
  6
HIDDEN
 62
     7
370
     0
100
AcDbCircle
 10
187.4036920078
 20
105.7139761647
 30
0.0
 40
0.3999999999999915
100
AcDbArc
 50
180.0
 51
270.0
  0
ARC
  5
131
330
1F
100
AcDbEntity
  8
0
  6
HIDDEN
 62
     7
370
     0
100
AcDbCircle
 10
187.4036920078
 20
117.5139761647
 30
0.0
 40
0.3999999999999915
100
AcDbArc
 50
90.0
 51
180.0
  0
LINE
  5
132
330
1F
100
AcDbEntity
  8
0
  6
HIDDEN
 62
     7
370
     0
100
AcDbLine
 10
190.2457260471
 20
105.3380991164
 30
0.0
 11
191.0036920078
 21
105.6139761647
 31
0.0
  0
LINE
  5
133
330
1F
100
AcDbEntity
  8
0
  6
HIDDEN
 62
     7
370
     0
100
AcDbLine
 10
191.0036920078
 20
117.6139761647
 30
0.0
 11
190.2457260471
 21
117.889853213
 31
0.0
  0
LINE
  5
134
330
1F
100
AcDbEntity
  8
0
  6
HIDDEN
 62
     7
370
     0
100
AcDbLine
 10
191.0036920078
 20
105.6139761647
 30
0.0
 11
232.7036920078
 21
105.6139761647
 31
0.0
  0
LINE
  5
135
330
1F
100
AcDbEntity
  8
0
  6
HIDDEN
 62
     7
370
     0
100
AcDbLine
 10
232.7036920078
 20
117.6139761647
 30
0.0
 11
211.6606806388
 21
117.6139761647
 31
0.0
  0
LINE
  5
136
330
1F
100
AcDbEntity
  8
0
  6
HIDDEN
 62
     7
370
     0
100
AcDbLine
 10
210.3457219256
 20
117.6139761647
 30
0.0
 11
191.0036920078
 21
117.6139761647
 31
0.0
  0
LINE
  5
137
330
1F
100
AcDbEntity
  8
0
  6
HIDDEN
 62
     7
370
     0
100
AcDbLine
 10
98.1881298383
 20
87.5346048311
 30
0.0
 11
97.7536976888
 21
88.0136708502
 31
0.0
  0
LINE
  5
138
330
1F
100
AcDbEntity
  8
0
  6
HIDDEN
 62
     7
370
     0
100
AcDbLine
 10
90.2536943638
 20
88.4353588094
 30
0.0
 11
89.7712606204
 21
87.9562928339
 31
0.0
  0
LINE
  5
139
330
1F
100
AcDbEntity
  8
0
  6
HIDDEN
 62
     7
370
     0
100
AcDbLine
 10
89.7711386922
 20
135.271654205
 30
0.0
 11
90.2536894431
 21
134.7925339471
 31
0.0
  0
LINE
  5
13A
330
1F
100
AcDbEntity
  8
0
  6
HIDDEN
 62
     7
370
     0
100
AcDbLine
 10
97.7536918898
 20
135.2142317248
 30
0.0
 11
98.1882342802
 21
135.6933519753
 31
0.0
  0
LINE
  5
13B
330
1F
100
AcDbEntity
  8
0
  6
HIDDEN
 62
     7
370
     0
100
AcDbLine
 10
124.8036920078
 20
107.3639761647
 30
0.0
 11
187.0036920078
 21
107.3639761647
 31
0.0
  0
LINE
  5
13C
330
1F
100
AcDbEntity
  8
0
  6
HIDDEN
 62
     7
370
     0
100
AcDbLine
 10
187.0036920078
 20
115.8639761647
 30
0.0
 11
124.8036920078
 21
115.8639761647
 31
0.0
  0
LINE
  5
13D
330
1F
100
AcDbEntity
  8
0
  6
HIDDEN
 62
     7
370
     0
100
AcDbLine
 10
97.7536920078
 20
88.0141547519
 30
0.0
 11
97.7536920078
 21
91.676139974
 31
0.0
  0
LINE
  5
13E
330
1F
100
AcDbEntity
  8
0
  6
HIDDEN
 62
     7
370
     0
100
AcDbLine
 10
90.2536920078
 20
91.6145604259
 30
0.0
 11
90.2536920078
 21
88.4356820472
 31
0.0
  0
LINE
  5
13F
330
1F
100
AcDbEntity
  8
0
  6
HIDDEN
 62
     7
370
     0
100
AcDbLine
 10
97.7536920078
 20
131.5518123553
 30
0.0
 11
97.7536920078
 21
135.2136783032
 31
0.0
  0
LINE
  5
140
330
1F
100
AcDbEntity
  8
0
  6
HIDDEN
 62
     7
370
     0
100
AcDbLine
 10
90.2536920078
 20
134.7922787558
 30
0.0
 11
90.2536920078
 21
131.6133919034
 31
0.0
  0
DIMENSION
  5
141
330
1F
100
AcDbEntity
  8
VERMASSUNG
100
AcDbDimension
  2
*D1
 10
243.0036920078
 20
105.6139761647
 30
0.0
 11
243.0036920078
 21
111.6139761647
 31
0.0
 70
   160
  1
%%c<>
 71
     2
 42
-1.0
  3
SLDDIMSTYLE0
100
AcDbAlignedDimension
 13
232.7036920078
 23
117.6139761647
 33
0.0
 14
232.7036920078
 24
105.6139761647
 34
0.0
 50
90.0
100
AcDbRotatedDimension
  0
DIMENSION
  5
14D
330
1F
100
AcDbEntity
  8
VERMASSUNG
100
AcDbDimension
  2
*D2
 10
249.0036920078
 20
90.6139761647
 30
0.0
 11
249.0036920078
 21
111.6139761647
 31
0.0
 70
   160
  1
%%c<>
 71
     2
 42
-1.0
  3
SLDDIMSTYLE0
100
AcDbAlignedDimension
 13
220.1366504848
 23
132.6139761647
 33
0.0
 14
220.1366504848
 24
90.6139761647
 34
0.0
 50
90.0
100
AcDbRotatedDimension
  0
DIMENSION
  5
158
330
1F
100
AcDbEntity
  8
VERMASSUNG
100
AcDbDimension
  2
*D3
 10
233.0036920078
 20
145.496099675
 30
0.0
 11
180.9786920078
 21
145.496099675
 31
0.0
 70
   160
 71
     2
 42
-1.0
  3
SLDDIMSTYLE0
100
AcDbAlignedDimension
 13
128.9536920078
 23
141.4604164884
 33
0.0
 14
233.0036920078
 24
125.3398356431
 34
0.0
100
AcDbRotatedDimension
  0
DIMENSION
  5
162
330
1F
100
AcDbEntity
  8
VERMASSUNG
100
AcDbDimension
  2
*D4
 10
233.0036920078
 20
151.496099675
 30
0.0
 11
168.0036920078
 21
151.496099675
 31
0.0
 70
   160
 71
     2
 42
-1.0
  3
SLDDIMSTYLE0
100
AcDbAlignedDimension
 13
103.0036920078
 23
142.8139761647
 33
0.0
 14
233.0036920078
 24
125.3398356431
 34
0.0
100
AcDbRotatedDimension
  0
DIMENSION
  5
16C
330
1F
100
AcDbEntity
  8
VERMASSUNG
100
AcDbDimension
  2
*D5
 10
233.0036920078
 20
157.496099675
 30
0.0
 11
152.0536920078
 21
157.496099675
 31
0.0
 70
   160
 71
     2
 42
-1.0
  3
SLDDIMSTYLE0
100
AcDbAlignedDimension
 13
71.1036920078
 23
131.3046539112
 33
0.0
 14
233.0036920078
 24
125.3398356431
 34
0.0
100
AcDbRotatedDimension
  0
DIMENSION
  5
176
330
1F
100
AcDbEntity
  8
VERMASSUNG
100
AcDbDimension
  2
*D6
 10
64.9550379198
 20
80.1139761647
 30
0.0
 11
64.9550379198
 21
111.6139761647
 31
0.0
 70
   160
  1
HSK A %%c<>
 71
     2
 42
-1.0
  3
SLDDIMSTYLE0
100
AcDbAlignedDimension
 13
103.3036920078
 23
143.1139761647
 33
0.0
 14
103.3036920078
 24
80.1139761647
 34
0.0
 50
90.0
100
AcDbRotatedDimension
  0
LINE
  5
182
330
1F
100
AcDbEntity
  8
VERMASSUNG
  6
CENTERX2
370
     0
100
AcDbLine
 10
65.8833152763
 20
111.6139761647
 30
0.0
 11
234.8297941495
 21
111.6139761647
 31
0.0
  0
OLE2FRAME
  5
183
330
1F
100
AcDbEntity
  8
0
100
AcDbOle2Frame
 70
     2
  3
Bitmap Image
 10
13.8511154363
 20
38.264191557
 30
0.0
 11
51.6290888628
 21
31.9806341108
 31
0.0
 71
     2
 72
     0
 73
     1
 90
    12928
310
80552BED0767C5B32B40DDAF6807D121434000000000000000006FFBDDFB85D0
310
4940DDAF6807D121434000000000000000006FFBDDFB85D04940416F4BD60AFB
310
3F4000000000000000002BED0767C5B32B40416F4BD60AFB3F40000000000000
310
0000000000000100000000010000010000000100000000000100000000320000
310
D0CF11E0A1B11AE1000000000000000000000000000000003E000300FEFF0900
310
0600000000000000000000000100000001000000000000000010000002000000
310
01000000FEFFFFFF0000000000000000FFFFFFFFFFFFFFFFFFFFFFFFFFFFFFFF
310
FFFFFFFFFFFFFFFFFFFFFFFFFFFFFFFFFFFFFFFFFFFFFFFFFFFFFFFFFFFFFFFF
310
FFFFFFFFFFFFFFFFFFFFFFFFFFFFFFFFFFFFFFFFFFFFFFFFFFFFFFFFFFFFFFFF
310
FFFFFFFFFFFFFFFFFFFFFFFFFFFFFFFFFFFFFFFFFFFFFFFFFFFFFFFFFFFFFFFF
310
FFFFFFFFFFFFFFFFFFFFFFFFFFFFFFFFFFFFFFFFFFFFFFFFFFFFFFFFFFFFFFFF
310
FFFFFFFFFFFFFFFFFFFFFFFFFFFFFFFFFFFFFFFFFFFFFFFFFFFFFFFFFFFFFFFF
310
FFFFFFFFFFFFFFFFFFFFFFFFFFFFFFFFFFFFFFFFFFFFFFFFFFFFFFFFFFFFFFFF
310
FFFFFFFFFFFFFFFFFFFFFFFFFFFFFFFFFFFFFFFFFFFFFFFFFFFFFFFFFFFFFFFF
310
FFFFFFFFFFFFFFFFFFFFFFFFFFFFFFFFFFFFFFFFFFFFFFFFFFFFFFFFFFFFFFFF
310
FFFFFFFFFFFFFFFFFFFFFFFFFFFFFFFFFFFFFFFFFFFFFFFFFFFFFFFFFFFFFFFF
310
FFFFFFFFFFFFFFFFFFFFFFFFFFFFFFFFFFFFFFFFFFFFFFFFFFFFFFFFFFFFFFFF
310
FFFFFFFFFFFFFFFFFFFFFFFFFFFFFFFFFFFFFFFFFFFFFFFFFFFFFFFFFFFFFFFF
310
FFFFFFFFFFFFFFFFFFFFFFFFFFFFFFFFFFFFFFFFFFFFFFFFFFFFFFFFFFFFFFFF
310
FFFFFFFFFFFFFFFFFFFFFFFFFFFFFFFFFFFFFFFFFFFFFFFFFFFFFFFFFFFFFFFF
310
FDFFFFFFFEFFFFFFFEFFFFFFFEFFFFFF05000000060000000700000008000000
310
090000000A0000000B0000000C0000000D0000000E0000000F00000010000000
310
11000000120000001300000014000000150000001600000017000000FEFFFFFF
310
FFFFFFFFFFFFFFFFFFFFFFFFFFFFFFFFFFFFFFFFFFFFFFFFFFFFFFFFFFFFFFFF
310
FFFFFFFFFFFFFFFFFFFFFFFFFFFFFFFFFFFFFFFFFFFFFFFFFFFFFFFFFFFFFFFF
310
FFFFFFFFFFFFFFFFFFFFFFFFFFFFFFFFFFFFFFFFFFFFFFFFFFFFFFFFFFFFFFFF
310
FFFFFFFFFFFFFFFFFFFFFFFFFFFFFFFFFFFFFFFFFFFFFFFFFFFFFFFFFFFFFFFF
310
FFFFFFFFFFFFFFFFFFFFFFFFFFFFFFFFFFFFFFFFFFFFFFFFFFFFFFFFFFFFFFFF
310
FFFFFFFFFFFFFFFFFFFFFFFFFFFFFFFFFFFFFFFFFFFFFFFFFFFFFFFFFFFFFFFF
310
FFFFFFFFFFFFFFFFFFFFFFFFFFFFFFFFFFFFFFFFFFFFFFFFFFFFFFFFFFFFFFFF
310
FFFFFFFFFFFFFFFFFFFFFFFFFFFFFFFFFFFFFFFFFFFFFFFFFFFFFFFFFFFFFFFF
310
FFFFFFFFFFFFFFFFFFFFFFFFFFFFFFFFFFFFFFFFFFFFFFFFFFFFFFFFFFFFFFFF
310
FFFFFFFFFFFFFFFFFFFFFFFFFFFFFFFFFFFFFFFFFFFFFFFFFFFFFFFFFFFFFFFF
310
FFFFFFFFFFFFFFFFFFFFFFFFFFFFFFFFFFFFFFFFFFFFFFFFFFFFFFFFFFFFFFFF
310
FFFFFFFFFFFFFFFFFFFFFFFFFFFFFFFFFFFFFFFFFFFFFFFFFFFFFFFFFFFFFFFF
310
FFFFFFFFFFFFFFFFFFFFFFFFFFFFFFFFFFFFFFFFFFFFFFFFFFFFFFFFFFFFFFFF
310
52006F006F007400200045006E00740072007900000000000000000000000000
310
0000000000000000000000000000000000000000000000000000000000000000
310
16000500FFFFFFFFFFFFFFFF020000000A00030000000000C000000000000046
310
00000000000000000000000040D6F1A629FFCB0103000000C000000000000000
310
01004F006C006500000000000000000000000000000000000000000000000000
310
0000000000000000000000000000000000000000000000000000000000000000
310
0A000200FFFFFFFFFFFFFFFFFFFFFFFF00000000000000000000000000000000
310
0000000000000000000000000000000000000000000000001400000000000000
310
010043006F006D0070004F0062006A0000000000000000000000000000000000
310
0000000000000000000000000000000000000000000000000000000000000000
310
120002010100000003000000FFFFFFFF00000000000000000000000000000000
310
0000000000000000000000000000000000000000010000004D00000000000000
310
01004F006C006500310030004E00610074006900760065000000000000000000
310
0000000000000000000000000000000000000000000000000000000000000000
310
1A000200FFFFFFFFFFFFFFFFFFFFFFFF00000000000000000000000000000000
310
0000000000000000000000000000000000000000040000002426000000000000
310
FEFFFFFF02000000FEFFFFFFFFFFFFFFFFFFFFFFFFFFFFFFFFFFFFFFFFFFFFFF
310
FFFFFFFFFFFFFFFFFFFFFFFFFFFFFFFFFFFFFFFFFFFFFFFFFFFFFFFFFFFFFFFF
310
FFFFFFFFFFFFFFFFFFFFFFFFFFFFFFFFFFFFFFFFFFFFFFFFFFFFFFFFFFFFFFFF
310
FFFFFFFFFFFFFFFFFFFFFFFFFFFFFFFFFFFFFFFFFFFFFFFFFFFFFFFFFFFFFFFF
310
FFFFFFFFFFFFFFFFFFFFFFFFFFFFFFFFFFFFFFFFFFFFFFFFFFFFFFFFFFFFFFFF
310
FFFFFFFFFFFFFFFFFFFFFFFFFFFFFFFFFFFFFFFFFFFFFFFFFFFFFFFFFFFFFFFF
310
FFFFFFFFFFFFFFFFFFFFFFFFFFFFFFFFFFFFFFFFFFFFFFFFFFFFFFFFFFFFFFFF
310
FFFFFFFFFFFFFFFFFFFFFFFFFFFFFFFFFFFFFFFFFFFFFFFFFFFFFFFFFFFFFFFF
310
FFFFFFFFFFFFFFFFFFFFFFFFFFFFFFFFFFFFFFFFFFFFFFFFFFFFFFFFFFFFFFFF
310
FFFFFFFFFFFFFFFFFFFFFFFFFFFFFFFFFFFFFFFFFFFFFFFFFFFFFFFFFFFFFFFF
310
FFFFFFFFFFFFFFFFFFFFFFFFFFFFFFFFFFFFFFFFFFFFFFFFFFFFFFFFFFFFFFFF
310
FFFFFFFFFFFFFFFFFFFFFFFFFFFFFFFFFFFFFFFFFFFFFFFFFFFFFFFFFFFFFFFF
310
FFFFFFFFFFFFFFFFFFFFFFFFFFFFFFFFFFFFFFFFFFFFFFFFFFFFFFFFFFFFFFFF
310
FFFFFFFFFFFFFFFFFFFFFFFFFFFFFFFFFFFFFFFFFFFFFFFFFFFFFFFFFFFFFFFF
310
FFFFFFFFFFFFFFFFFFFFFFFFFFFFFFFFFFFFFFFFFFFFFFFFFFFFFFFFFFFFFFFF
310
FFFFFFFFFFFFFFFFFFFFFFFFFFFFFFFFFFFFFFFFFFFFFFFFFFFFFFFFFFFFFFFF
310
010000020000000000000000000000000000000061007200650064005C003100
310
30002E0030005C0044004C004C005300680061007200650064005C003B004300
310
0100FEFF030A0000FFFFFFFF0A00030000000000C00000000000004607000000
310
5042727573680007000000504272757368000700000050427275736800F439B2
310
71000000000000000000000000004100540049002E004100430045005C004300
310
6F00720065002D005300740061007400690063003B0043003A005C0050007200
310
6F006700720061006D002000460069006C006500730020002800780038003600
310
29005C0043006F006D006D006F006E002000460069006C00650073005C004100
310
750074006F006400650073006B0020005300680061007200650064005C003B00
310
43003A005C00500072006F006700720061006D002000460069006C0065007300
310
5C004E006F0072006D0061006E005C004E0070006D005C00420069006E000000
310
43003A005C00500072006F006700720061006D002000460069006C0065007300
310
5C0053006F006C006900640057006F0072006B007300200043006F0072007000
310
5C0053006F006C006900640057006F0072006B00730020002800320029005C00
310
730065007400750070005C0069003300380036005C0073007700610063007400
310
770069007A002E006500780065000000220043003A005C00500072006F006700
310
20260000424D0E260000000000003E00000028000000B40200006E0000000100
310
01000000000000000000130B0000130B00000200000002000000000000FFFFFF
310
FFFFFFFFFFFFFFFFFFFFFFFFFFFFFFFFFFFFFFFFFFFFFFFFFFFFFFFFFFFFFFFF
310
FFFFFFFFFFFFFFFFFFFFFFFFFFFFFFFFFFFFFFFFFFFFFFFFFFFFFFFFFFFFFFFF
310
FFFFFFFFFFFFFFFFFFFFFFFFFFFFFFFFFFFFFFFFFFFFFFFFF000FFFFFFFFFFFF
310
FFFFFFFFFFFFFFFFFFFFFFFFFFFFFFFFFFFFFFFFFFFFFFFFFFFFFFFFFFFFFFFF
310
FFFFFFFFFFFFFFFFFFFFFFFFFFFFFFFFFFFFFFFFFFFFFFFFFFFFFFFFFFFFFFFF
310
FFFFFFFFFFFFFFFFFFFFFFFFFFFFFFFFF000FFFFFFFFFFFFFFFFFFFFFFFFFFFF
310
FFFFFFFFFFFFFFFFFFFFFFFFFFFFFFFFFFFFFFFFFFFFFFFFFFFFFFFFFFFFFFFF
310
FFFFFFFFFFFFFFFFFFFFFFFFFFFFFFFFFFFFFFFFFFFFFFFFFFFFFFFFFFFFFFFF
310
FFFFFFFFFFFFFFFFF000FFFFFFFFFFFFFFFFFFFFFFFFFFFFFFFFFFFFFFFFFFFF
310
FFFFFFFFFFFFFFFFFFFFFFFFFFFFFFFFFFFFFFFFFFFFFFFFFFFFFFFFFFFFFFFF
310
FFFFFFFFFFFFFFFFFFFFFFFFFFFFFFFFFFFFFFFFFFFFFFFFFFFFFFFFFFFFFFFF
310
F000FFFFFFFFFFFFFFFFFFFFFFFFFFFFFFFFFFFFFFFFFFFFFFFFFFFFFFFFFFFF
310
FFFFFFFFFFFFFFFFFFFFFFFFFFFFFFFFFFFFFFFFFFFFFFFFFFFFFFFFFFFFFFFF
310
FFFFFFFFFFFFFFFFFFFFFFFFFFFFFFFFFFFFFFFFFFFFFFFFF000FFFFFFFFFFFF
310
FFFFFFFFFFFFFFFFFFFFFFFFFFFFFFFFFFFFFFFFFFFFFFFFFFFFFFFFFFFFFFFF
310
FFFFFFFFFFFFFFFFFFFFFFFFFFFFFFFFFFFFFFFFFFFFFFFFFFFFFFFFFFFFFFFF
310
FFFFFFFFFFFFFFFFFFFFFFFFFFFFFFFFF000FFFFFFFFFFFFFFFFFFFFFFFFFFFF
310
FFFFFFFFFFFFFFFFFFFFFFFFFFFFFFFFFFFFFFFFFFFFFFFFFFFFFFFFFFFFFFFF
310
FFFFFFFFFFFFFFFFFFFFFFFFFFFFFFFFFFFFFFFFFFFFFFFFFFFFFFFFFFFFFFFF
310
FFFFFFFFFFFFFFFFF000FFFFFFFFFFFFFFFFFFFFFFFFFFFFFFFFFFFFFFFFFFFF
310
FFFFFFFFFFFFFFFFFFFFFFFFFFFFFFFFFFFFFFFFFFFFFFFFFFFFFFFFFFFFFFFF
310
FFFFFFFFFFFFFFFFFFFFFFFFFFFFFFFFFFFFFFFFFFFFFFFFFFFFFFFFFFFFFFFF
310
F000FFFFFFFFFFFFFFFFFFFFFFFFFFFFFFFFFFFFFFFFFFFFFFFFFFFFFFFFFFFF
310
FFFFFFFFFFFFFFFFFFFFFFFFFFFFFFFFFFFFFFFFFFFFFFFFFFFFFFFFFFFFFFFF
310
FFFFFFFFFFFFFFFFFFFFFFFFFFFFFFFFFFFFFFFFFFFFFFFFF000FFFFFFFFFFFF
310
FFFFFFFFFFFFFFFFFFFFFFFFFFFFFFFFFFFFFFFFFFFFFFFFFFFFFFFFFFFFFFFF
310
FFFFFFFFFFFFFFFFFFFFFFFFFFFFFFFFFFFFFFFFFFFFFFFFFFFFFFFFFFFFFFFF
310
FFFFFFFFFFFFFFFFFFFFFFFFFFFFFFFFF000FFFFFFFFFFFFFFFFFFFFFFFFFFFF
310
FFFFFFFFFFFFFFFFFFFFFFFFFFFFFFFFFFFFFFFFFFFFFFFFFFFFFFFFFFFFFFFF
310
FFFFFFFFFFFFFFFFFFFFFFFFFFFFFFFFFFFFFFFFFFFFFFFFFFFFFFFFFFFFFFFF
310
FFFFFFFFFFFFFFFFF000FFFFFFFFFFFFFFFFFFFFFFFFFFFFFFFFFFFFFFFFFFFF
310
FFFFFFFFFFFFFFFFFFFFFFFFFFFFFFFFFFFFFFFFFFFFFFFFFFFFFFFFFFFFFFFF
310
FFFFFFFFFFFFFFFFFFFFFFFFFFFFFFFFFFFFFFFFFFFFFFFFFFFFFFFFFFFFFFFF
310
F000FFFFFFFFFFFFFFFFFFFFFFFFFFFFFFFFFFFFFFFFFFFFFFFFFFFFFFFFFFFF
310
FFFFFFFFFFFFFFFFFFFFFFFFFFFFFFFFFFFFFFFFFFFFFFFFFFFFFFFFFFFFFFFF
310
FFFFFFFFFFFFFFFFFFFFFFFFFFFFFFFFFFFFFFFFFFFFFFFFF000FFFFFFFFFFFF
310
FFFFFFFFFFFFFFFFFFFFFFFFFFFFFFFFFFFFFFFFFFFFFFFFFFFFFFFFFFFFFFFF
310
FFFFFFFFFFFFFFFFFFFFFFFFFFFFFFFFFFFFFFFFFFFFFFFFFFFFFFFFFFFFFFFF
310
FFFFFFFFFFFFFFFFFFFFFFFFFFFFFFFFF000FFFFFFFFFFFFFFFFFFFFFFFFFFFF
310
FFFFFFFFFFFFFFFFFFFFFFFFFFFFFFFFFFFFFFFFFFFFFFFFFFFFFFFFFFFFFFFF
310
FFFFFFFFFFFFFFFFFFFFFFFFFFFFFFFFFFFFFFFFFFFFFFFFFFFFFFFFFFFFFFFF
310
FFFFFFFFFFFFFFFFF000FFFFFFFFFFFFFFFFFFFFFFFFFFFFFFFFFFFFFFFFFFFF
310
FFFFFFFFFFFFFFFFFFFFFFFFFFFFFFFFFFFFFFFFFFFFFFFFFFFFFFFFFFFFFFFF
310
FFFFFFFFFFFFFFFFFFFFFFFFFFFFFFFFFFFFFFFFFFFFFFFFFFFFFFFFFFFFFFFF
310
F000FFFFFFFFFFFFFFFFFFFFFFFFFFFFFFFFFFFFFFFFFFFFFFFFFFFFFFFFFFFF
310
FFFFFFFFFFFFFFFFFFFFFFFFFFFFFFFFFFFFFFFFFFFFFFFFFFFFFFFFFFFFFFFF
310
FFFFFFFFFFFFFFFFFFFFFFFFFFFFFFFFFFFFFFFFFFFFFFFFF000FFFFFFFFFFFF
310
FFFFFFFFFFFFFFFFFFFFFFFFFFFFFFFFFFFFFFFFFFFFFFFFFFFFFFFFFFFFFFFF
310
FFFFFFFFFFFFFFFFFFFFFFFFFFFFFFFFFFFFFFFFFFFFFFFFFFFFFFFFFFFFFFFF
310
FFFFFFFFFFFFFFFFFFFFFFFFFFFFFFFFF000FFFFFFFFFFFFFFFFFFFFFFFFFFFF
310
FFFFFFFFFFFFFFFFFFFFFFFFFFFFFFFFFFFFFFFFFFFFFFFFFFFFFFFFFFFFFFFF
310
FFFFFFFFFFFFFFFFFFFFFFFFFFFFFFFFFFFFFFFFFFFFFFFFFFFFFFFFFFFFFFFF
310
FFFFFFFFFFFFFFFFF000FFFFF80003FFFFFFFFFFFFFFFFFFFFFFFFFFFFFFFFFF
310
FFFFF00007FFFFFFFFFF00007FFFFFF800000000000000007FFFFFFFFFFFFFFF
310
FFFFFFFC001FFFFFFFFFFFFFFC001FFFFFFFFFFFFFFFFFFFFFFFFFFE0007FFFF
310
F000FFFF8000007FFFFFFFF8000FFFFFC0007FFFFF80007FFFFF0000007FFFFF
310
FFF8000007FFFFF800000000000000007FFFFFF0001FFFFFFFFFFFC00001FFFF
310
FFFFFFFFC00001FFFFFFFF000000000003FFFFE000007FFFF000FFFE0000000F
310
FFFFFFF0000FFFFF80007FFFFF80007FFFFC0000001FFFFFFFC0000001FFFFF8
310
00000000000000007FFFFFF0001FFFFFFFFFFE0000003FFFFFFFFFFE0000003F
310
FFFFFF000000000003FFFF0000000FFFF000FFF800000003FFFFFFF00007FFFF
310
80007FFFFF80007FFFF000000007FFFFFF000000003FFFF80000000000000000
310
7FFFFFF0001FFFFFFFFFF80000000FFFFFFFFFF80000000FFFFFFF0000000000
310
03FFFC00000003FFF000FFE000000000FFFFFFF00007FFFF80003FFFFF80007F
310
FFC000000001FFFFFC000000001FFFF800000000000000007FFFFFF0001FFFFF
310
FFFFE000000003FFFFFFFFE000000003FFFFFF000000000003FFF000000000FF
310
F000FF80000000007FFFFFF00007FFFF80003FFFFF80007FFF8000000000FFFF
310
F80000000007FFF800000000000000007FFFFFF0001FFFFFFFFFC000000001FF
310
FFFFFFC000000001FFFFFF000000000003FFC0000000007FF000FF0000000000
310
3FFFFFE00007FFFF00003FFFFF80007FFE00000000003FFFF00000000003FFF8
310
00000000000000007FFFFFF0001FFFFFFFFF8000000000FFFFFFFF8000000000
310
FFFFFF000000000003FF80000000003FF000FE00000000001FFFFFE00003FFFF
310
00003FFFFF80007FFC00000000001FFFE00000000001FFF8000001FFFE000000
310
7FFFFFF0001FFFFFFFFE00000000003FFFFFFE00000000003FFFFF0000000000
310
03FF00000000001FF000FC00000000000FFFFFE00003FFFF00001FFFFF80007F
310
F800000000001FFFC00000000000FFF8000001FFFE0000007FFFFFF0001FFFFF
310
FFFC00000000001FFFFFFC00000000001FFFFF000000000003FE00000000000F
310
F000F8000000000007FFFFE00003FFFF00001FFFFF80007FF800000000000FFF
310
800000000000FFF8000001FFFE0000007FFFFFF0001FFFFFFFF800000000000F
310
FFFFF800000000000FFFFF000000000003FC000000000007F000F80000000000
310
03FFFFC00003FFFE00001FFFFF80007FF0000000000007FF0000000000007FF8
310
000001FFFE0000007FFFFFF0001FFFFFFFF0000000000007FFFFF00000000000
310
07FFFF000000000003F8000000000003F000F0000000000003FFFFC00001FFFE
310
00001FFFFF80007FE0000000000007FE0000000000003FF8000001FFFE000000
310
7FFFFFF0001FFFFFFFF0000000000007FFFFF0000000000007FFFF0000000000
310
03F800001F800003F000E00001FFF00001FFFFC00001FFFE00000FFFFF80007F
310
E00001FFE00003FE00001FFF00003FF8000001FFFE0000007FFFFFF0001FFFFF
310
FFE000003E000003FFFFE000003E000003FFFF000000000003F00001FFF80001
310
F000E00007FFFC0001FFFFC00001FFFE00000FFFFF80007FC0000FFFFC0003FC
310
0000FFFFC0001FF8000001FFFE0000007FFFFFF0001FFFFFFFC00003FFE00001
310
FFFFC00003FFE00001FFFF0001FFFFFFFFF00007FFFE0001F000E0000FFFFF00
310
00FFFF800001FFFC00000FFFFF80007FC0001FFFFE0001FC0001FFFFE0001FF8
310
000001FFFE0000007FFFFFF0001FFFFFFF80000FFFF80000FFFF80000FFFF800
310
00FFFF0003FFFFFFFFE0000FFFFF8000F000C0003FFFFF8000FFFF800000FFFC
310
000007FFFF80007F80003FFFFF0001FC0003FFFFF0001FF8000001FFFE000000
310
7FFFFFF0001FFFFFFF80003FFFFE0000FFFF80003FFFFE0000FFFF0003FFFFFF
310
FFE0003FFFFF8000F000C0003FFFFF8000FFFF800000FFFC000007FFFF80007F
310
80007FFFFF8001F80007FFFFF8000FF8000001FFFE0000007FFFFFF0001FFFFF
310
FF00007FFFFF00007FFF00007FFFFF00007FFF0003FFFFFFFFE0003FFFFFC000
310
F000C0007FFFFFC000FFFF000000FFFC000007FFFF80007F8000FFFFFF8000F8
310
000FFFFFF8000FF8000001FFFE0000007FFFFFF0001FFFFFFF0000FFFFFF8000
310
7FFF0000FFFFFF80007FFF0003FFFFFFFFC0007FFFFFC00070008000FFFFFFC0
310
00FFFF000000FFF8000007FFFF80007F8000FFFFFF8000F8000FFFFFF8000FF8
310
000001FFFE0000007FFFFFF0001FFFFFFE0001FFFFFFC0003FFE0001FFFFFFC0
310
003FFF0003FFFFFFFFC0007FFFFFE00070008000FFFFFFC0007FFF0000007FF8
310
000003FFFF80007F0001FFFFFF8000F8000FFFFFF8000FF8000001FFFE000000
310
7FFFFFF0001FFFFFFE0001FFFFFFC0003FFE0001FFFFFFC0003FFF0003FFFFFF
310
FFC000FFFFFFE00070008000FFFFFFC0007FFF0000007FF8000003FFFF80007F
310
0001FFFFFF8000F8001FFFFFF8000FF8000001FFFE0000007FFFFFF0001FFFFF
310
FE0003FFFFFFE0003FFE0003FFFFFFE0003FFF0003FFFFFFFFC000FFFFFFE000
310
70008000FFFFFFC0007FFE0000007FF8000003FFFF80007F0001FFFFFF8000F0
310
001FFFFFF8000FF8000001FFFE0000007FFFFFF0001FFFFFFC0003FFFFFFE000
310
1FFC0003FFFFFFE0001FFF0003FFFFFFFFC000FFFFFFC00070008000FFFFFF80
310
007FFE0000007FF0000003FFFF80007F0001FFFFFF0000F0001FFFFFF8000FF8
310
000001FFFE0000007FFFFFF0001FFFFFFC0007FFFFFFF0001FFC0007FFFFFFF0
310
001FFF0003FFFFFFFFC000FFFFFFC00070008001FFFFFF0000FFFE0000003FF0
310
000001FFFF80007F0001FFFFFF0000F8001FFFFFF0000FF8000001FFFE000000
310
7FFFFFF0001FFFFFFC0007FFFFFFF0001FFC0007FFFFFFF0001FFF0003FFFFFF
310
FFC001FFFFFF80007000FFFFFFFFFE0000FFFE0008003FF0008001FFFF80007F
310
FFFFFFFFFC0000FFFFFFFFFFE0000FF8000001FFFE0000007FFFFFF0001FFFFF
310
F8000FFFFFFFF8000FF8000FFFFFFFF8000FFF0003FFFFFFFFFFFFFFFFFF0000
310
7000FFFFFFFFFC0000FFFC0008003FF0008001FFFF80007FFFFFFFFFF80001FF
310
FFFFFFFF80000FF8000001FFFE0000007FFFFFF0001FFFFFF8000FFFFFFFF800
310
0FF8000FFFFFFFF8000FFF0003FFFFFFFFFFFFFFFFFE0000F000FFFFFFFFE000
310
00FFFC000C003FE000C001FFFF80007FFFFFFFFFC00001FFFFFFFFFE00001FF8
310
000001FFFE0000007FFFFFF0001FFFFFF8000FFFFFFFF8000FF8000FFFFFFFF8
310
000FFF0003FFFFFFFFFFFFFFFFF00000F000FFFFFFFE000001FFFC000C001FE0
310
00C000FFFF80007FFFFFFFFE000001FFFFFFFFE000001FF80FFFFFFFFFFFFFC0
310
7FFFFFF0001FFFFFF8000FFFFFFFF8000FF8000FFFFFFFF8000FFF0003FFFFFF
310
FFFFFFFFFF800000F000FFFFFFC0000001FFFC001C001FE001C000FFFF80007F
310
FFFFFF80000003FFFFFFF80000001FF80FFFFFFFFFFFFFC07FFFFFF0001FFFFF
310
F8001FFFFFFFFC000FF8001FFFFFFFFC000FFF0003FFFFFFFFFFFFFFF0000001
310
F000FFFFF800000001FFF8001C001FE001C000FFFF80007FFFFFF800000003FF
310
FFFF800000003FF80FFFFFFFFFFFFFC07FFFFFF0001FFFFFF8001FFFFFFFFC00
310
0FF8001FFFFFFFFC000FFF0003FFFFFFFFFFFFFE00000001F000FFFFC0000000
310
03FFF8001E001FC001E000FFFF80007FFFFF8000000007FFFFFC000000003FF8
310
0FFFFFFFFFFFFFC07FFFFFF0001FFFFFF8001FFFFFFFFC000FF8001FFFFFFFFC
310
000FFF0003FFFFFFFFFFFFE000000003F000FFFE0000000007FFF8001E000FC0
310
01E0007FFF80007FFFFE0000000007FFFFE0000000007FF80FFFFFFFFFFFFFC0
310
7FFFFFF0001FFFFFF0001FFFFFFFFC0007F0001FFFFFFFFC0007FF0003FFFFFF
310
FFFFFF0000000003F000FFF80000000007FFF8001E000FC003E0007FFF80007F
310
FFF0000000000FFFFF8000000000FFF80FFFFFFFFFFFFFC07FFFFFF0001FFFFF
310
F0001FFFFFFFFC0007F0001FFFFFFFFC0007FF0003FFFFFFFFFFFC0000000007
310
F000FFE0000000000FFFF0003E000FC003E0007FFF80007FFFC0000000001FFF
310
FE0000000001FFF80FFFFFFFFFFFFFC07FFFFFF0001FFFFFF0001FFFFFFFFC00
310
07F0001FFFFFFFFC0007FF0003FFFFFFFFFFF0000000000FF000FFC000000000
310
1FFFF0003F000F8003F0003FFF80007FFF80000000003FFFF80000000003FFF8
310
0FFFFFFFFFFFFFC07FFFFFF0001FFFFFF0001FFFFFFFFC0007F0001FFFFFFFFC
310
0007FF0003FFFFFFFFFFE0000000001FF000FF00000000007FFFF0003F000780
310
03F0003FFF80007FFF00000000007FFFF00000000007FFF80FFFFFFFFFFFFFC0
310
7FFFFFF0001FFFFFF0001FFFFFFFFC0007F0001FFFFFFFFC0007FF0003FFFFFF
310
FFFF80000000007FF000FE0000000000FFFFE0003F00078007F0003FFF80007F
310
FE0000000001FFFFE0000000001FFFF80FFFFFFFFFFFFFC07FFFFFF0001FFFFF
310
F0001FFFFFFFFC0007F0001FFFFFFFFC0007FF0003FFFFFFFFFF0000000000FF
310
F000FC0000000003FFFFE0007F00078007F0003FFF80007FFC0000000007FFFF
310
C0000000007FFFF80FFFFFFFFFFFFFC07FFFFFF0001FFFFFF8001FFFFFFFFC00
310
0FF8001FFFFFFFFC000FFF0003FFFFFFFFFE0000000003FFF000FC000000000F
310
FFFFE0007F80070007F8001FFF80007FF8000000001FFFFF8000000001FFFFF8
310
0FFFFFFFFFFFFFC07FFFFFF0001FFFFFF8001FFFFFFFFC000FF8001FFFFFFFFC
310
000FFF0003FFFFFFFFFC000000000FFFF000F8000000007FFFFFE0007F800700
310
07F8001FFF80007FF000000000FFFFFF800000000FFFFFF80FFFFFFFFFFFFFC0
310
7FFFFFF0001FFFFFF8000FFFFFFFF8000FF8000FFFFFFFF8000FFF0003FFFFFF
310
FFFC000000007FFFF000F800000007FFFFFFC0007F8003000FF8001FFF80007F
310
F000000007FFFFFF000000007FFFFFF80FFFFFFFFFFFFFC07FFFFFF0001FFFFF
310
F8000FFFFFFFF8000FF8000FFFFFFFF8000FFF0003FFFFFFFFF80000000FFFFF
310
F000F0000000FFFFFFFFC000FF8003000FF8001FFF80007FE0000000FFFFFFFF
310
0000000FFFFFFFF8000001FFFE0000007FFFFFF0001FFFFFF8000FFFFFFFF800
310
0FF8000FFFFFFFF8000FFF0003FFFFFFFFF8000000FFFFFFF000F000000FFFFF
310
FFFFC000FFC002000FF8000FFF80007FE000001FFFFFFFFE000001FFFFFFFFF8
310
000001FFFE0000007FFFFFF0001FFFFFF8000FFFFFFFF8000FF8000FFFFFFFF8
310
000FFF0003FFFFFFFFF000001FFFFFFFF000E00000FFFFFFFFFFC000FFC00200
310
0FFC000FFF80007FE00001FFFFFFFFFE00001FFFFFFFFFF8000001FFFE000000
310
7FFFFFF0001FFFFFFC000FFFFFFFF8001FFC000FFFFFFFF8001FFF0003FFFFFF
310
FFF00001FFFFFFFFF000E00007FFFFFFFFFF8000FFC000001FFC000FFF80007F
310
C0000FFFFFFFFFFE0000FFFFFFFFFFF8000001FFFE0000007FFFFFF0001FFFFF
310
FC0007FFFFFFF0001FFC0007FFFFFFF0001FFF0003FFFFFFFFF00007FFFFFFFF
310
F000E0001FFFFFFFFFFF8000FFC000001FFC000FFF80007FC0003FFFFFFFFFFE
310
0001FFFFFFFFFFF8000001FFFE0000007FFFFFF0001FFFFFFC0007FFFFFFF000
310
1FFC0007FFFFFFF0001FFF0003FFFFFFFFF0001FFFFFFFFFF000E0003FFFFF00
310
03FF8001FFE000001FFC0007FF80007FC0007FFFFF0007FC0003FFFFF0003FF8
310
000001FFFE0000007FFFFFF0001FFFFFFC0003FFFFFFE0001FFC0003FFFFFFE0
310
001FFF0003FFFFFFFFF0003FFFFFFFFFF000E0003FFFFF0001FF8001FFE00000
310
1FFE0007FF80007FC0007FFFFE0003FC0007FFFFE0003FF8000001FFFE000000
310
7FFFFFF0001FFFFFFE0003FFFFFFE0003FFE0003FFFFFFE0003FFF0003FFFFFF
310
FFF0003FFFFF8001F000E0003FFFFF0001FF0001FFE000001FFE0007FF80007F
310
C0007FFFFE0003FC0007FFFFE0003FF8000001FFFE0000007FFFFFF0001FFFFF
310
FE0001FFFFFFC0003FFE0001FFFFFFC0003FFF0003FFFFFFFFF0003FFFFF0001
310
F000E0003FFFFF0003FF0001FFE000003FFE0007FF80007FC0007FFFFE0003FC
310
0007FFFFE0003FF8000001FFFE0000007FFFFFF0001FFFFFFF0001FFFFFFC000
310
7FFF0001FFFFFFC0007FFF0003FFFFFFFFF0003FFFFF0001F000E0003FFFFE00
310
03FF0003FFF000003FFE0003FF80007FC0007FFFFC0003FE0007FFFFE0003FF8
310
000001FFFE0000007FFFFFF0001FFFFFFF0000FFFFFF80007FFF0000FFFFFF80
310
007FFF0003FFFFFFFFF0003FFFFF0001F000E0003FFFFE0003FF0003FFF00000
310
3FFF0003FF80007FC0007FFFFC0007FE0007FFFFC0003FF8000001FFFE000000
310
7FFFFFF0001FFFFFFF80007FFFFF0000FFFF80007FFFFF0000FFFF0003FFFFFF
310
FFF0003FFFFF0003F000E0003FFFFC0003FE0003FFF000003FFF0003FF80007F
310
E0003FFFF80007FE0003FFFFC0007FF8000001FFFE0000007FFFFFF0001FFFFF
310
FF80003FFFFE0000FFFF80003FFFFE0000FFFF0003FFFFFFFFF0001FFFFE0003
310
F000F0001FFFF80003FE0003FFF000007FFF0001FF80007FE0003FFFF00007FE
310
0001FFFF80007FF8000001FFFE0000007FFFFFF0001FFFFFFFC0000FFFF80001
310
FFFFC0000FFFF80001FFFF0003FFFFFFFFF0001FFFFC0003F000F0000FFFF000
310
07FE0007FFF800007FFF0001FF80007FE0001FFFE00007FF0000FFFE00007FF8
310
000001FFFE0000007FFFFFF0001FFFFFFFC00003FFE00001FFFFC00003FFE000
310
01FFFF0003FFFFFFFFF8000FFFF80003F000F00003FFC00007FC0007FFF80000
310
7FFF8001FF80007FF00007FF80000FFF00007FF80000FFF8000001FFFE000000
310
7F80000000000001FFE000003E000003FFFFE000003E000003FFFF0003FFFFFF
310
FFF80003FFE00007F000F800000000000FFC0007FFF800007FFF8001FF80007F
310
F000000000000FFF000000000000FFF8000001FFFE0000007F80000000000001
310
FFF0000000000007FFFFF0000000000007FFFF0003FFFFFFFFFC00007E000007
310
F000F800000000000FFC0007FFF80000FFFF8000FF80007FF800000000001FFF
310
800000000001FFF8000001FFFE0000007F80000000000001FFF800000000000F
310
FFFFF800000000000FFFFF0003FFFFFFFFFC00000000000FF000FC0000000000
310
1FFC0007FFFC0000FFFF8000FF80007FF800000000003FFFC00000000001FFF8
310
000001FFFE0000007F80000000000001FFF800000000000FFFFFF80000000000
310
0FFFFF0003FFFFFFFFFE00000000001FF000FE00000000003FF8000FFFFC0000
310
FFFF8000FF80007FFC00000000003FFFC00000000003FFF8000001FFFE000000
310
7F80000000000001FFFC00000000001FFFFFFC00000000001FFFFF0003FFFFFF
310
FFFF00000000001FF000FF00000000003FF8000FFFFC0000FFFFC000FF80007F
310
FE00000000007FFFE00000000007FFF8000001FFFE0000007F80000000000001
310
FFFE00000000003FFFFFFE00000000003FFFFF0003FFFFFFFFFF80000000003F
310
F000FF80000000007FF8000FFFFC0001FFFFC0007F80007FFF0000000000FFFF
310
F0000000000FFFF800000000000000007F80000000000001FFFF8000000000FF
310
FFFFFF8000000000FFFFFF0003FFFFFFFFFFC0000000007FF000FFC000000000
310
FFF8000FFFFE0001FFFFC0007F80007FFF8000000001FFFFF8000000001FFFF8
310
00000000000000007F80000000000001FFFFC000000001FFFFFFFFC000000001
310
FFFFFF0003FFFFFFFFFFE000000000FFF000FFE000000003FFF0001FFFFE0001
310
FFFFC0007F80007FFFC000000007FFFFFE000000003FFFF80000000000000000
310
7F80000000000001FFFFE000000003FFFFFFFFE000000003FFFFFF0003FFFFFF
310
FFFFF000000003FFF000FFF80000000FFFF0001FFFFE0001FFFFE0007F80007F
310
FFF00000000FFFFFFF00000000FFFFF800000000000000007F80000000000001
310
FFFFF80000000FFFFFFFFFF80000000FFFFFFF0003FFFFFFFFFFFC0000000FFF
310
F000FFFE0000003FFFF0001FFFFE0003FFFFE0003F80007FFFFC0000003FFFFF
310
FFC0000003FFFFF800000000000000007F80000000000001FFFFFE0000003FFF
310
FFFFFFFE0000003FFFFFFF0003FFFFFFFFFFFF0000003FFFF000FFFF800000FF
310
FFF0001FFFFF0003FFFFE0003F80007FFFFF000001FFFFFFFFF800001FFFFFF8
310
00000000000000007F80000000000001FFFFFFC00001FFFFFFFFFFFFC00001FF
310
FFFFFF0003FFFFFFFFFFFFC00000FFFFF000FFFFF8000FFFFFFFFFFFFFFFFFFF
310
FFFFFFFFFFFFFFFFFFFFF0001FFFFFFFFFFF0000FFFFFFF80000000000000000
310
7FFFFFFFFFFFFFFFFFFFFFFC001FFFFFFFFFFFFFFC001FFFFFFFFFFFFFFFFFFF
310
FFFFFFFC001FFFFFF000FFFFFFFFFFFFFFFFFFFFFFFFFFFFFFFFFFFFFFFFFFFF
310
FFFFFFFFFFFFFFFFFFFFFFFFFFFFFFFFFFFFFFFFFFFFFFFFFFFFFFFFFFFFFFFF
310
FFFFFFFFFFFFFFFFFFFFFFFFFFFFFFFFFFFFFFFFFFFFFFFFFFFFFFFFFFFFFFFF
310
F000FFFFFFFFFFFFFFFFFFFFFFFFFFFFFFFFFFFFFFFFFFFFFFFFFFFFFFFFFFFF
310
FFFFFFFFFFFFFFFFFFFFFFFFFFFFFFFFFFFFFFFFFFFFFFFFFFFFFFFFFFFFFFFF
310
FFFFFFFFFFFFFFFFFFFFFFFFFFFFFFFFFFFFFFFFFFFFFFFFF000FFFFFFFFFFFF
310
FFFFFFFFFFFFFFFFFFFFFFFFFFFFFFFFFFFFFFFFFFFFFFFFFFFFFFFFFFFFFFFF
310
FFFFFFFFFFFFFFFFFFFFFFFFFFFFFFFFFFFFFFFFFFFFFFFFFFFFFFFFFFFFFFFF
310
FFFFFFFFFFFFFFFFFFFFFFFFFFFFFFFFF000FFFFFFFFFFFFFFFFFFFFFFFFFFFF
310
FFFFFFFFFFFFFFFFFFFFFFFFFFFFFFFFFFFFFFFFFFFFFFFFFFFFFFFFFFFFFFFF
310
FFFFFFFFFFFFFFFFFFFFFFFFFFFFFFFFFFFFFFFFFFFFFFFFFFFFFFFFFFFFFFFF
310
FFFFFFFFFFFFFFFFF000FFFFFFFFFFFFFFFFFFFFFFFFFFFFFFFFFFFFFFFFFFFF
310
FFFFFFFFFFFFFFFFFFFFFFFFFFFFFFFFFFFFFFFFFFFFFFFFFFFFFFFFFFFFFFFF
310
FFFFFFFFFFFFFFFFFFFFFFFFFFFFFFFFFFFFFFFFFFFFFFFFFFFFFFFFFFFFFFFF
310
F000FFFFFFFFFFFFFFFFFFFFFFFFFFFFFFFFFFFFFFFFFFFFFFFFFFFFFFFFFFFF
310
FFFFFFFFFFFFFFFFFFFFFFFFFFFFFFFFFFFFFFFFFFFFFFFFFFFFFFFFFFFFFFFF
310
FFFFFFFFFFFFFFFFFFFFFFFFFFFFFFFFFFFFFFFFFFFFFFFFF000FFFFFFFFFFFF
310
FFFFFFFFFFFFFFFFFFFFFFFFFFFFFFFFFFFFFFFFFFFFFFFFFFFFFFFFFFFFFFFF
310
FFFFFFFFFFFFFFFFFFFFFFFFFFFFFFFFFFFFFFFFFFFFFFFFFFFFFFFFFFFFFFFF
310
FFFFFFFFFFFFFFFFFFFFFFFFFFFFFFFFF000FFFFFFFFFFFFFFFFFFFFFFFFFFFF
310
FFFFFFFFFFFFFFFFFFFFFFFFFFFFFFFFFFFFFFFFFFFFFFFFFFFFFFFFFFFFFFFF
310
FFFFFFFFFFFFFFFFFFFFFFFFFFFFFFFFFFFFFFFFFFFFFFFFFFFFFFFFFFFFFFFF
310
FFFFFFFFFFFFFFFFF000FFFFFFFFFFFFFFFFFFFFFFFFFFFFFFFFFFFFFFFFFFFF
310
FFFFFFFFFFFFFFFFFFFFFFFFFFFFFFFFFFFFFFFFFFFFFFFFFFFFFFFFFFFFFFFF
310
FFFFFFFFFFFFFFFFFFFFFFFFFFFFFFFFFFFFFFFFFFFFFFFFFFFFFFFFFFFFFFFF
310
F000FFFFFFFFFFFFFFFFFFFFFFFFFFFFFFFFFFFFFFFFFFFFFFFFFFFFFFFFFFFF
310
FFFFFFFFFFFFFFFFFFFFFFFFFFFFFFFFFFFFFFFFFFFFFFFFFFFFFFFFFFFFFFFF
310
FFFFFFFFFFFFFFFFFFFFFFFFFFFFFFFFFFFFFFFFFFFFFFFFF000FFFFFFFFFFFF
310
FFFFFFFFFFFFFFFFFFFFFFFFFFFFFFFFFFFFFFFFFFFFFFFFFFFFFFFFFFFFFFFF
310
FFFFFFFFFFFFFFFFFFFFFFFFFFFFFFFFFFFFFFFFFFFFFFFFFFFFFFFFFFFFFFFF
310
FFFFFFFFFFFFFFFFFFFFFFFFFFFFFFFFF000FFFFFFFFFFFFFFFFFFFFFFFFFFFF
310
FFFFFFFFFFFFFFFFFFFFFFFFFFFFFFFFFFFFFFFFFFFFFFFFFFFFFFFFFFFFFFFF
310
FFFFFFFFFFFFFFFFFFFFFFFFFFFFFFFFFFFFFFFFFFFFFFFFFFFFFFFFFFFFFFFF
310
FFFFFFFFFFFFFFFFF000FFFFFFFFFFFFFFFFFFFFFFFFFFFFFFFFFFFFFFFFFFFF
310
FFFFFFFFFFFFFFFFFFFFFFFFFFFFFFFFFFFFFFFFFFFFFFFFFFFFFFFFFFFFFFFF
310
FFFFFFFFFFFFFFFFFFFFFFFFFFFFFFFFFFFFFFFFFFFFFFFFFFFFFFFFFFFFFFFF
310
F000FFFFFFFFFFFFFFFFFFFFFFFFFFFFFFFFFFFFFFFFFFFFFFFFFFFFFFFFFFFF
310
FFFFFFFFFFFFFFFFFFFFFFFFFFFFFFFFFFFFFFFFFFFFFFFFFFFFFFFFFFFFFFFF
310
FFFFFFFFFFFFFFFFFFFFFFFFFFFFFFFFFFFFFFFFFFFFFFFFF000FFFFFFFFFFFF
310
FFFFFFFFFFFFFFFFFFFFFFFFFFFFFFFFFFFFFFFFFFFFFFFFFFFFFFFFFFFFFFFF
310
FFFFFFFFFFFFFFFFFFFFFFFFFFFFFFFFFFFFFFFFFFFFFFFFFFFFFFFFFFFFFFFF
310
FFFFFFFFFFFFFFFFFFFFFFFFFFFFFFFFF000FFFFFFFFFFFFFFFFFFFFFFFFFFFF
310
FFFFFFFFFFFFFFFFFFFFFFFFFFFFFFFFFFFFFFFFFFFFFFFFFFFFFFFFFFFFFFFF
310
FFFFFFFFFFFFFFFFFFFFFFFFFFFFFFFFFFFFFFFFFFFFFFFFFFFFFFFFFFFFFFFF
310
FFFFFFFFFFFFFFFFF000FFFFFFFFFFFFFFFFFFFFFFFFFFFFFFFFFFFFFFFFFFFF
310
FFFFFFFFFFFFFFFFFFFFFFFFFFFFFFFFFFFFFFFFFFFFFFFFFFFFFFFFFFFFFFFF
310
FFFFFFFFFFFFFFFFFFFFFFFFFFFFFFFFFFFFFFFFFFFFFFFFFFFFFFFFFFFFFFFF
310
F000FFFFFFFFFFFFFFFFFFFFFFFFFFFFFFFFFFFFFFFFFFFFFFFFFFFFFFFFFFFF
310
FFFFFFFFFFFFFFFFFFFFFFFFFFFFFFFFFFFFFFFFFFFFFFFFFFFFFFFFFFFFFFFF
310
FFFFFFFFFFFFFFFFFFFFFFFFFFFFFFFFFFFFFFFFFFFFFFFFF000FFFFFFFFFFFF
310
FFFFFFFFFFFFFFFFFFFFFFFFFFFFFFFFFFFFFFFFFFFFFFFFFFFFFFFFFFFFFFFF
310
FFFFFFFFFFFFFFFFFFFFFFFFFFFFFFFFFFFFFFFFFFFFFFFFFFFFFFFFFFFFFFFF
310
FFFFFFFFFFFFFFFFFFFFFFFFFFFFFFFFF000FFFFFFFFFFFFFFFFFFFFFFFFFFFF
310
FFFFFFFFFFFFFFFFFFFFFFFFFFFFFFFFFFFFFFFFFFFFFFFFFFFFFFFFFFFFFFFF
310
FFFFFFFFFFFFFFFFFFFFFFFFFFFFFFFFFFFFFFFFFFFFFFFFFFFFFFFFFFFFFFFF
310
FFFFFFFFFFFFFFFFF000FFFFFFFFFFFFFFFFFFFFFFFFFFFFFFFFFFFFFFFFFFFF
310
FFFFFFFFFFFFFFFFFFFFFFFFFFFFFFFFFFFFFFFFFFFFFFFFFFFFFFFFFFFFFFFF
310
FFFFFFFFFFFFFFFFFFFFFFFFFFFFFFFFFFFFFFFFFFFFFFFFFFFFFFFFFFFFFFFF
310
F000FFFFFFFFFFFFFFFFFFFFFFFFFFFFFFFFFFFFFFFFFFFFFFFFFFFFFFFFFFFF
310
FFFFFFFFFFFFFFFFFFFFFFFFFFFFFFFFFFFFFFFFFFFFFFFFFFFFFFFFFFFFFFFF
310
FFFFFFFFFFFFFFFFFFFFFFFFFFFFFFFFFFFFFFFFFFFFFFFFF000FFFFFFFFFFFF
310
FFFFFFFFFFFFFFFFFFFFFFFFFFFFFFFFFFFFFFFFFFFFFFFFFFFFFFFFFFFFFFFF
310
FFFFFFFFFFFFFFFFFFFFFFFFFFFFFFFFFFFFFFFFFFFFFFFFFFFFFFFFFFFFFFFF
310
FFFFFFFFFFFFFFFFFFFFFFFFFFFFFFFFF0000000000000000000000000000000
310
00000000000000000000000042006C00610063006B0000000000000000000000
310
0000000000000000000000000000000000000000000000000000000000000000
310
0000000000000000000000000000FFFFFFFFFFFFFFFFFFFFFFFFFFFFFFFFFFFF
310
FFFFFFFFFFFFFFFFFFFFFFFFFFFFFFFFFFFFFFFFFFFFFFFFFFFFFFFFFFFFFFFF
310
FFFFFFFFFFFFFFFFFFFFFFFF6476000800000000FFFFFFFF20FF202026000000
310
1E00000008000000060000000000000011000000200000008403000000000000
310
6000000060000000200002FB200020000000002B00FFFFFF40002200E8030000
310
A80400001C020000AF0000804A20004000000000000000000100000000000000
310
616C000800000000E40100007001000002000000270000001100000000000000
310
00000000BC0200000000000003020122420065006C006C00200047006F007400
310
680069006300200053007400640020004C006900670068007400000000000000
310
00000000000000000000000000000000420065006C006C0047006F0074006800
310
690063005300740064002D0042006F006C006400000000000000000000000000
310
0000000000000000000000000000000000000000000000000000000000000000
310
0000000000000000000000000000000000000000000000000000000000000000
  1
OLE
  0
ENDSEC
  0
SECTION
  2
OBJECTS
  0
DICTIONARY
  5
C
330
0
100
AcDbDictionary
281
     1
  3
ACAD_GROUP
350
D
  3
ACAD_LAYOUT
350
1A
  3
ACAD_MLEADERSTYLE
350
185
  3
ACAD_MLINESTYLE
350
17
  3
ACAD_PLOTSETTINGS
350
19
  3
ACAD_PLOTSTYLENAME
350
E
  3
ACAD_TABLESTYLE
350
184
  3
ACAD_VISUALSTYLE
350
2A
  3
AcDbVariableDictionary
350
186
  0
DICTIONARY
  5
D
102
{ACAD_REACTORS
330
C
102
}
330
C
100
AcDbDictionary
281
     1
  0
DICTIONARY
  5
1A
102
{ACAD_REACTORS
330
C
102
}
330
C
100
AcDbDictionary
281
     1
  3
Layout1
350
1E
  3
Layout2
350
26
  3
Model
350
22
  0
DICTIONARY
  5
185
102
{ACAD_REACTORS
330
C
102
}
330
C
100
AcDbDictionary
281
     1
  0
DICTIONARY
  5
17
102
{ACAD_REACTORS
330
C
102
}
330
C
100
AcDbDictionary
281
     1
  3
Standard
350
18
  0
DICTIONARY
  5
19
102
{ACAD_REACTORS
330
C
102
}
330
C
100
AcDbDictionary
281
     1
  0
ACDBDICTIONARYWDFLT
  5
E
102
{ACAD_REACTORS
330
C
102
}
330
C
100
AcDbDictionary
281
     1
  3
Normal
350
F
100
AcDbDictionaryWithDefault
340
F
  0
DICTIONARY
  5
184
102
{ACAD_REACTORS
330
C
102
}
330
C
100
AcDbDictionary
281
     1
  0
DICTIONARY
  5
2A
102
{ACAD_REACTORS
330
C
102
}
330
C
100
AcDbDictionary
281
     1
  3
2dWireframe
350
2F
  3
3D Hidden
350
31
  3
3dWireframe
350
30
  3
Basic
350
32
  3
Brighten
350
36
  3
ColorChange
350
3A
  3
Conceptual
350
34
  3
Dim
350
35
  3
Facepattern
350
39
  3
Flat
350
2B
  3
FlatWithEdges
350
2C
  3
Gouraud
350
2D
  3
GouraudWithEdges
350
2E
  3
Linepattern
350
38
  3
Realistic
350
33
  3
Thicken
350
37
  0
DICTIONARY
  5
186
102
{ACAD_REACTORS
330
C
102
}
330
C
100
AcDbDictionary
281
     1
  3
PSOLHEIGHT
350
188
  3
PSOLWIDTH
350
187
  0
LAYOUT
  5
1E
102
{ACAD_REACTORS
330
1A
102
}
330
1A
100
AcDbPlotSettings
  1

  2
none_device
  4

  6

 40
0.0
 41
0.0
 42
0.0
 43
0.0
 44
0.0
 45
0.0
 46
0.0
 47
0.0
 48
0.0
 49
0.0
140
0.0
141
0.0
142
1.0
143
1.0
 70
   688
 72
     0
 73
     0
 74
     5
  7

 75
    16
147
1.0
148
0.0
149
0.0
100
AcDbLayout
  1
Layout1
 70
     1
 71
     1
 10
0.0
 20
0.0
 11
420.0
 21
297.0
 12
0.0
 22
0.0
 32
0.0
 14
1.0000000000E+20
 24
1.0000000000E+20
 34
1.0000000000E+20
 15
-1.0000000000E+20
 25
-1.0000000000E+20
 35
-1.0000000000E+20
146
0.0
 13
0.0
 23
0.0
 33
0.0
 16
1.0
 26
0.0
 36
0.0
 17
0.0
 27
1.0
 37
0.0
 76
     0
330
1B
  0
LAYOUT
  5
26
102
{ACAD_REACTORS
330
1A
102
}
330
1A
100
AcDbPlotSettings
  1

  2
none_device
  4

  6

 40
0.0
 41
0.0
 42
0.0
 43
0.0
 44
0.0
 45
0.0
 46
0.0
 47
0.0
 48
0.0
 49
0.0
140
0.0
141
0.0
142
1.0
143
1.0
 70
   688
 72
     0
 73
     0
 74
     5
  7

 75
    16
147
1.0
148
0.0
149
0.0
100
AcDbLayout
  1
Layout2
 70
     1
 71
     2
 10
0.0
 20
0.0
 11
0.0
 21
0.0
 12
0.0
 22
0.0
 32
0.0
 14
0.0
 24
0.0
 34
0.0
 15
0.0
 25
0.0
 35
0.0
146
0.0
 13
0.0
 23
0.0
 33
0.0
 16
1.0
 26
0.0
 36
0.0
 17
0.0
 27
1.0
 37
0.0
 76
     0
330
23
  0
LAYOUT
  5
22
102
{ACAD_REACTORS
330
1A
102
}
330
1A
100
AcDbPlotSettings
  1

  2
none_device
  4

  6

 40
0.0
 41
0.0
 42
0.0
 43
0.0
 44
0.0
 45
0.0
 46
0.0
 47
0.0
 48
0.0
 49
0.0
140
0.0
141
0.0
142
1.0
143
1.0
 70
  1712
 72
     0
 73
     0
 74
     0
  7

 75
     0
147
1.0
148
0.0
149
0.0
100
AcDbLayout
  1
Model
 70
     1
 71
     0
 10
0.0
 20
0.0
 11
297.0
 21
210.0
 12
0.0
 22
0.0
 32
0.0
 14
0.0
 24
0.0
 34
0.0
 15
297.0
 25
210.0
 35
0.0
146
0.0
 13
0.0
 23
0.0
 33
0.0
 16
1.0
 26
0.0
 36
0.0
 17
0.0
 27
1.0
 37
0.0
 76
     0
330
1F
331
29
  0
MLINESTYLE
  5
18
102
{ACAD_REACTORS
330
17
102
}
330
17
100
AcDbMlineStyle
  2
Standard
 70
     0
  3

 62
   256
 51
90.0
 52
90.0
 71
     2
 49
0.5
 62
   256
  6
BYLAYER
 49
-0.5
 62
   256
  6
BYLAYER
  0
ACDBPLACEHOLDER
  5
F
102
{ACAD_REACTORS
330
E
102
}
330
E
  0
VISUALSTYLE
  5
2F
102
{ACAD_REACTORS
330
2A
102
}
330
2A
100
AcDbVisualStyle
  2
2dWireframe
 70
     4
 71
     0
 72
     2
 73
     0
 90
        0
 40
-0.6
 41
-30.0
 62
     5
 63
     7
 74
     1
 91
        4
 64
     7
 65
   257
 75
     1
175
     1
 42
1.0
 92
        0
 66
   257
 43
1.0
 76
     1
 77
     6
 78
     2
 67
     7
 79
     5
170
     0
171
     0
290
     0
174
     0
 93
        1
 44
0.0
173
     0
291
     0
 45
0.0
1001
ACAD
1000
AcDbSavedByObjectVersion
1070
     0
  0
VISUALSTYLE
  5
31
102
{ACAD_REACTORS
330
2A
102
}
330
2A
100
AcDbVisualStyle
  2
3D Hidden
 70
     6
 71
     1
 72
     2
 73
     2
 90
        0
 40
-0.6
 41
-30.0
 62
     5
 63
     7
 74
     2
 91
        2
 64
     7
 65
   257
 75
     2
175
     1
 42
40.0
 92
        0
 66
   257
 43
1.0
 76
     1
 77
     6
 78
     2
 67
     7
 79
     3
170
     0
171
     0
290
     0
174
     0
 93
        1
 44
0.0
173
     0
291
     0
 45
0.0
1001
ACAD
1000
AcDbSavedByObjectVersion
1070
     0
  0
VISUALSTYLE
  5
30
102
{ACAD_REACTORS
330
2A
102
}
330
2A
100
AcDbVisualStyle
  2
3dWireframe
 70
     5
 71
     0
 72
     2
 73
     0
 90
        0
 40
-0.6
 41
-30.0
 62
     5
 63
     7
 74
     1
 91
        4
 64
     7
 65
   257
 75
     1
175
     1
 42
1.0
 92
        0
 66
   257
 43
1.0
 76
     1
 77
     6
 78
     2
 67
     7
 79
     5
170
     0
171
     0
290
     0
174
     0
 93
        1
 44
0.0
173
     0
291
     0
 45
0.0
1001
ACAD
1000
AcDbSavedByObjectVersion
1070
     0
  0
VISUALSTYLE
  5
32
102
{ACAD_REACTORS
330
2A
102
}
330
2A
100
AcDbVisualStyle
  2
Basic
 70
     7
 71
     1
 72
     0
 73
     1
 90
        0
 40
-0.6
 41
-30.0
 62
     5
 63
     7
 74
     0
 91
        4
 64
     7
 65
   257
 75
     1
175
     1
 42
1.0
 92
        8
 66
     7
 43
1.0
 76
     1
 77
     6
 78
     2
 67
     7
 79
     5
170
     0
171
     0
290
     0
174
     0
 93
        1
 44
0.0
173
     0
291
     1
 45
0.0
1001
ACAD
1000
AcDbSavedByObjectVersion
1070
     0
  0
VISUALSTYLE
  5
36
102
{ACAD_REACTORS
330
2A
102
}
330
2A
100
AcDbVisualStyle
  2
Brighten
 70
    12
 71
     2
 72
     2
 73
     0
 90
        0
 40
-0.6
 41
-30.0
 62
     5
 63
     7
 74
     1
 91
        4
 64
     7
 65
   257
 75
     1
175
     1
 42
1.0
 92
        8
 66
     7
 43
1.0
 76
     1
 77
     6
 78
     2
 67
     7
 79
     5
170
     0
171
     0
290
     0
174
     0
 93
        1
 44
50.0
173
     0
291
     1
 45
0.0
1001
ACAD
1000
AcDbSavedByObjectVersion
1070
     0
  0
VISUALSTYLE
  5
3A
102
{ACAD_REACTORS
330
2A
102
}
330
2A
100
AcDbVisualStyle
  2
ColorChange
 70
    16
 71
     2
 72
     2
 73
     3
 90
        0
 40
-0.6
 41
-30.0
 62
     5
 63
     8
 74
     1
 91
        4
 64
     7
 65
   257
 75
     1
175
     1
 42
1.0
 92
        8
 66
     8
 43
1.0
 76
     1
 77
     6
 78
     2
 67
     7
 79
     5
170
     0
171
     0
290
     0
174
     0
 93
        1
 44
0.0
173
     0
291
     1
 45
0.0
1001
ACAD
1000
AcDbSavedByObjectVersion
1070
     0
  0
VISUALSTYLE
  5
34
102
{ACAD_REACTORS
330
2A
102
}
330
2A
100
AcDbVisualStyle
  2
Conceptual
 70
     9
 71
     3
 72
     2
 73
     0
 90
        0
 40
-0.6
 41
-30.0
 62
     5
 63
     7
 74
     2
 91
        2
 64
     7
 65
   257
 75
     1
175
     1
 42
40.0
 92
        8
 66
     7
 43
1.0
 76
     1
 77
     6
 78
     2
 67
     7
 79
     3
170
     0
171
     0
290
     0
174
     0
 93
        1
 44
0.0
173
     0
291
     0
 45
0.0
1001
ACAD
1000
AcDbSavedByObjectVersion
1070
     0
  0
VISUALSTYLE
  5
35
102
{ACAD_REACTORS
330
2A
102
}
330
2A
100
AcDbVisualStyle
  2
Dim
 70
    11
 71
     2
 72
     2
 73
     0
 90
        0
 40
-0.6
 41
-30.0
 62
     5
 63
     7
 74
     1
 91
        4
 64
     7
 65
   257
 75
     1
175
     1
 42
1.0
 92
        8
 66
     7
 43
1.0
 76
     1
 77
     6
 78
     2
 67
     7
 79
     5
170
     0
171
     0
290
     0
174
     0
 93
        1
 44
-50.0
173
     0
291
     1
 45
0.0
1001
ACAD
1000
AcDbSavedByObjectVersion
1070
     0
  0
VISUALSTYLE
  5
39
102
{ACAD_REACTORS
330
2A
102
}
330
2A
100
AcDbVisualStyle
  2
Facepattern
 70
    15
 71
     2
 72
     2
 73
     0
 90
        0
 40
-0.6
 41
-30.0
 62
     5
 63
     7
 74
     1
 91
        4
 64
     7
 65
   257
 75
     1
175
     1
 42
1.0
 92
        8
 66
     7
 43
1.0
 76
     1
 77
     6
 78
     2
 67
     7
 79
     5
170
     0
171
     0
290
     0
174
     0
 93
        1
 44
0.0
173
     0
291
     1
 45
0.0
1001
ACAD
1000
AcDbSavedByObjectVersion
1070
     0
  0
VISUALSTYLE
  5
2B
102
{ACAD_REACTORS
330
2A
102
}
330
2A
100
AcDbVisualStyle
  2
Flat
 70
     0
 71
     2
 72
     1
 73
     1
 90
        2
 40
-0.6
 41
30.0
 62
     5
 63
     7
 74
     0
 91
        4
 64
     7
 65
   257
 75
     1
175
     1
 42
1.0
 92
        8
 66
     7
 43
1.0
 76
     1
 77
     6
 78
     2
 67
     7
 79
     5
170
     0
171
     0
290
     0
174
     0
 93
       13
 44
0.0
173
     0
291
     1
 45
0.0
1001
ACAD
1000
AcDbSavedByObjectVersion
1070
     0
  0
VISUALSTYLE
  5
2C
102
{ACAD_REACTORS
330
2A
102
}
330
2A
100
AcDbVisualStyle
  2
FlatWithEdges
 70
     1
 71
     2
 72
     1
 73
     1
 90
        2
 40
-0.6
 41
30.0
 62
     5
 63
     7
 74
     1
 91
        4
 64
     7
 65
   257
 75
     1
175
     1
 42
1.0
 92
        0
 66
   257
 43
1.0
 76
     1
 77
     6
 78
     2
 67
     7
 79
     5
170
     0
171
     0
290
     0
174
     0
 93
       13
 44
0.0
173
     0
291
     1
 45
0.0
1001
ACAD
1000
AcDbSavedByObjectVersion
1070
     0
  0
VISUALSTYLE
  5
2D
102
{ACAD_REACTORS
330
2A
102
}
330
2A
100
AcDbVisualStyle
  2
Gouraud
 70
     2
 71
     2
 72
     2
 73
     1
 90
        2
 40
-0.6
 41
30.0
 62
     5
 63
     7
 74
     0
 91
        4
 64
     7
 65
   257
 75
     1
175
     1
 42
1.0
 92
        0
 66
     7
 43
1.0
 76
     1
 77
     6
 78
     2
 67
     7
 79
     5
170
     0
171
     0
290
     0
174
     0
 93
       13
 44
0.0
173
     0
291
     1
 45
0.0
1001
ACAD
1000
AcDbSavedByObjectVersion
1070
     0
  0
VISUALSTYLE
  5
2E
102
{ACAD_REACTORS
330
2A
102
}
330
2A
100
AcDbVisualStyle
  2
GouraudWithEdges
 70
     3
 71
     2
 72
     2
 73
     1
 90
        2
 40
-0.6
 41
30.0
 62
     5
 63
     7
 74
     1
 91
        4
 64
     7
 65
   257
 75
     1
175
     1
 42
1.0
 92
        0
 66
   257
 43
1.0
 76
     1
 77
     6
 78
     2
 67
     7
 79
     5
170
     0
171
     0
290
     0
174
     0
 93
       13
 44
0.0
173
     0
291
     1
 45
0.0
1001
ACAD
1000
AcDbSavedByObjectVersion
1070
     0
  0
VISUALSTYLE
  5
38
102
{ACAD_REACTORS
330
2A
102
}
330
2A
100
AcDbVisualStyle
  2
Linepattern
 70
    14
 71
     2
 72
     2
 73
     0
 90
        0
 40
-0.6
 41
-30.0
 62
     5
 63
     7
 74
     1
 91
        4
 64
     7
 65
   257
 75
     7
175
     7
 42
1.0
 92
        8
 66
     7
 43
1.0
 76
     1
 77
     6
 78
     2
 67
     7
 79
     5
170
     0
171
     0
290
     0
174
     0
 93
        1
 44
0.0
173
     0
291
     1
 45
0.0
1001
ACAD
1000
AcDbSavedByObjectVersion
1070
     0
  0
VISUALSTYLE
  5
33
102
{ACAD_REACTORS
330
2A
102
}
330
2A
100
AcDbVisualStyle
  2
Realistic
 70
     8
 71
     2
 72
     2
 73
     0
 90
        0
 40
-0.6
 41
-30.0
 62
     5
 63
     7
 74
     1
 91
        0
 64
     7
 65
   257
 75
     1
175
     1
 42
1.0
 92
        8
 66
     8
 43
1.0
 76
     1
 77
     6
 78
     2
 67
     7
 79
     5
170
     0
171
     0
290
     0
174
     0
 93
       13
 44
0.0
173
     0
291
     0
 45
0.0
1001
ACAD
1000
AcDbSavedByObjectVersion
1070
     0
  0
VISUALSTYLE
  5
37
102
{ACAD_REACTORS
330
2A
102
}
330
2A
100
AcDbVisualStyle
  2
Thicken
 70
    13
 71
     2
 72
     2
 73
     0
 90
        0
 40
-0.6
 41
-30.0
 62
     5
 63
     7
 74
     1
 91
        4
 64
     7
 65
   257
 75
     1
175
     1
 42
1.0
 92
       12
 66
     7
 43
1.0
 76
     1
 77
     6
 78
     2
 67
     7
 79
     5
170
     0
171
     0
290
     0
174
     0
 93
        1
 44
0.0
173
     0
291
     1
 45
0.0
1001
ACAD
1000
AcDbSavedByObjectVersion
1070
     0
  0
DICTIONARYVAR
  5
188
102
{ACAD_REACTORS
330
186
102
}
330
186
100
DictionaryVariables
280
     0
  1
80.000000
  0
DICTIONARYVAR
  5
187
102
{ACAD_REACTORS
330
186
102
}
330
186
100
DictionaryVariables
280
     0
  1
5.000000
  0
ENDSEC
  0
EOF
