  0
SECTION
  2
HEADER
  9
$ACADVER
  1
AC1015
  9
$ACADMAINTVER
 70
     6
  9
$DWGCODEPAGE
  3
ANSI_1252
  9
$INSBASE
 10
0.0
 20
0.0
 30
0.0
  9
$EXTMIN
 10
0.0
 20
0.0
 30
0.0
  9
$EXTMAX
 10
297.0
 20
210.0
 30
0.0
  9
$LIMMIN
 10
0.0
 20
0.0
  9
$LIMMAX
 10
297.0
 20
210.0
  9
$ORTHOMODE
 70
     0
  9
$REGENMODE
 70
     1
  9
$FILLMODE
 70
     1
  9
$QTEXTMODE
 70
     0
  9
$MIRRTEXT
 70
     1
  9
$LTSCALE
 40
1.0
  9
$ATTMODE
 70
     1
  9
$TEXTSIZE
 40
2.0
  9
$TRACEWID
 40
1.0
  9
$TEXTSTYLE
  7
Standard
  9
$CLAYER
  8
0
  9
$CELTYPE
  6
ByLayer
  9
$CECOLOR
 62
   256
  9
$CELTSCALE
 40
1.0
  9
$DISPSILH
 70
     0
  9
$DIMSCALE
 40
1.0
  9
$DIMASZ
 40
3.0
  9
$DIMEXO
 40
0.0
  9
$DIMDLI
 40
3.75
  9
$DIMRND
 40
0.0
  9
$DIMDLE
 40
0.0
  9
$DIMEXE
 40
1.0
  9
$DIMTP
 40
0.0
  9
$DIMTM
 40
0.0
  9
$DIMTXT
 40
2.0
  9
$DIMCEN
 40
2.5
  9
$DIMTSZ
 40
0.0
  9
$DIMTOL
 70
     0
  9
$DIMLIM
 70
     0
  9
$DIMTIH
 70
     1
  9
$DIMTOH
 70
     1
  9
$DIMSE1
 70
     0
  9
$DIMSE2
 70
     0
  9
$DIMTAD
 70
     1
  9
$DIMZIN
 70
     0
  9
$DIMBLK
  1

  9
$DIMASO
 70
     1
  9
$DIMSHO
 70
     1
  9
$DIMPOST
  1

  9
$DIMAPOST
  1

  9
$DIMALT
 70
     0
  9
$DIMALTD
 70
     3
  9
$DIMALTF
 40
0.0393700787
  9
$DIMLFAC
 40
2.0
  9
$DIMTOFL
 70
     1
  9
$DIMTVP
 40
0.0
  9
$DIMTIX
 70
     0
  9
$DIMSOXD
 70
     0
  9
$DIMSAH
 70
     0
  9
$DIMBLK1
  1

  9
$DIMBLK2
  1

  9
$DIMSTYLE
  2
ISO-25
  9
$DIMCLRD
 70
     0
  9
$DIMCLRE
 70
     0
  9
$DIMCLRT
 70
     0
  9
$DIMTFAC
 40
1.0
  9
$DIMGAP
 40
1.524
  9
$DIMJUST
 70
     0
  9
$DIMSD1
 70
     0
  9
$DIMSD2
 70
     0
  9
$DIMTOLJ
 70
     0
  9
$DIMTZIN
 70
     0
  9
$DIMALTZ
 70
     0
  9
$DIMALTTZ
 70
     0
  9
$DIMUPT
 70
     0
  9
$DIMDEC
 70
     2
  9
$DIMTDEC
 70
     3
  9
$DIMALTU
 70
     2
  9
$DIMALTTD
 70
     3
  9
$DIMTXSTY
  7
Standard
  9
$DIMAUNIT
 70
     0
  9
$DIMADEC
 70
     2
  9
$DIMALTRND
 40
0.0
  9
$DIMAZIN
 70
     0
  9
$DIMDSEP
 70
    44
  9
$DIMATFIT
 70
     3
  9
$DIMFRAC
 70
     0
  9
$DIMLDRBLK
  1

  9
$DIMLUNIT
 70
     2
  9
$DIMLWD
 70
    -2
  9
$DIMLWE
 70
    -2
  9
$DIMTMOVE
 70
     0
  9
$LUNITS
 70
     2
  9
$LUPREC
 70
     2
  9
$SKETCHINC
 40
1.0
  9
$FILLETRAD
 40
10.0
  9
$AUNITS
 70
     0
  9
$AUPREC
 70
     2
  9
$MENU
  1
.
  9
$ELEVATION
 40
0.0
  9
$PELEVATION
 40
0.0
  9
$THICKNESS
 40
0.0
  9
$LIMCHECK
 70
     0
  9
$CHAMFERA
 40
10.0
  9
$CHAMFERB
 40
10.0
  9
$CHAMFERC
 40
20.0
  9
$CHAMFERD
 40
0.0
  9
$SKPOLY
 70
     0
  9
$TDCREATE
 40
2455673.444894074
  9
$TDUCREATE
 40
2455673.361560741
  9
$TDUPDATE
 40
2455673.444894086
  9
$TDUUPDATE
 40
2455673.361560752
  9
$TDINDWG
 40
0.0000000116
  9
$TDUSRTIMER
 40
0.0000000116
  9
$USRTIMER
 70
     1
  9
$ANGBASE
 50
0.0
  9
$ANGDIR
 70
     0
  9
$PDMODE
 70
     0
  9
$PDSIZE
 40
-1.0
  9
$PLINEWID
 40
0.0
  9
$SPLFRAME
 70
     0
  9
$SPLINETYPE
 70
     6
  9
$SPLINESEGS
 70
     8
  9
$HANDSEED
  5
20D
  9
$SURFTAB1
 70
     6
  9
$SURFTAB2
 70
     6
  9
$SURFTYPE
 70
     6
  9
$SURFU
 70
     6
  9
$SURFV
 70
     6
  9
$UCSBASE
  2

  9
$UCSNAME
  2

  9
$UCSORG
 10
0.0
 20
0.0
 30
0.0
  9
$UCSXDIR
 10
1.0
 20
0.0
 30
0.0
  9
$UCSYDIR
 10
0.0
 20
1.0
 30
0.0
  9
$UCSORTHOREF
  2

  9
$UCSORTHOVIEW
 70
     0
  9
$UCSORGTOP
 10
0.0
 20
0.0
 30
0.0
  9
$UCSORGBOTTOM
 10
0.0
 20
0.0
 30
0.0
  9
$UCSORGLEFT
 10
0.0
 20
0.0
 30
0.0
  9
$UCSORGRIGHT
 10
0.0
 20
0.0
 30
0.0
  9
$UCSORGFRONT
 10
0.0
 20
0.0
 30
0.0
  9
$UCSORGBACK
 10
0.0
 20
0.0
 30
0.0
  9
$PUCSBASE
  2

  9
$PUCSNAME
  2

  9
$PUCSORG
 10
0.0
 20
0.0
 30
0.0
  9
$PUCSXDIR
 10
1.0
 20
0.0
 30
0.0
  9
$PUCSYDIR
 10
0.0
 20
1.0
 30
0.0
  9
$PUCSORTHOREF
  2

  9
$PUCSORTHOVIEW
 70
     0
  9
$PUCSORGTOP
 10
0.0
 20
0.0
 30
0.0
  9
$PUCSORGBOTTOM
 10
0.0
 20
0.0
 30
0.0
  9
$PUCSORGLEFT
 10
0.0
 20
0.0
 30
0.0
  9
$PUCSORGRIGHT
 10
0.0
 20
0.0
 30
0.0
  9
$PUCSORGFRONT
 10
0.0
 20
0.0
 30
0.0
  9
$PUCSORGBACK
 10
0.0
 20
0.0
 30
0.0
  9
$USERI1
 70
     0
  9
$USERI2
 70
     0
  9
$USERI3
 70
     0
  9
$USERI4
 70
     0
  9
$USERI5
 70
     0
  9
$USERR1
 40
0.0
  9
$USERR2
 40
0.0
  9
$USERR3
 40
0.0
  9
$USERR4
 40
0.0
  9
$USERR5
 40
0.0
  9
$WORLDVIEW
 70
     1
  9
$SHADEDGE
 70
     3
  9
$SHADEDIF
 70
    70
  9
$TILEMODE
 70
     1
  9
$MAXACTVP
 70
    64
  9
$PINSBASE
 10
0.0
 20
0.0
 30
0.0
  9
$PLIMCHECK
 70
     0
  9
$PEXTMIN
 10
1.0000000000E+20
 20
1.0000000000E+20
 30
1.0000000000E+20
  9
$PEXTMAX
 10
-1.0000000000E+20
 20
-1.0000000000E+20
 30
-1.0000000000E+20
  9
$PLIMMIN
 10
0.0
 20
0.0
  9
$PLIMMAX
 10
420.0
 20
297.0
  9
$UNITMODE
 70
     0
  9
$VISRETAIN
 70
     1
  9
$PLINEGEN
 70
     0
  9
$PSLTSCALE
 70
     1
  9
$TREEDEPTH
 70
  3020
  9
$CMLSTYLE
  2
Standard
  9
$CMLJUST
 70
     0
  9
$CMLSCALE
 40
20.0
  9
$PROXYGRAPHICS
 70
     1
  9
$MEASUREMENT
 70
     1
  9
$CELWEIGHT
370
    -1
  9
$ENDCAPS
280
     0
  9
$JOINSTYLE
280
     0
  9
$LWDISPLAY
290
     1
  9
$INSUNITS
 70
     4
  9
$HYPERLINKBASE
  1

  9
$STYLESHEET
  1

  9
$XEDIT
290
     1
  9
$CEPSNTYPE
380
     0
  9
$PSTYLEMODE
290
     1
  9
$FINGERPRINTGUID
  2
{E45D68C0-E310-48A5-9A0A-3A2B00105D34}
  9
$VERSIONGUID
  2
{FAEB1C32-E019-11D5-929B-00C0DF256EC4}
  9
$EXTNAMES
290
     1
  9
$PSVPSCALE
 40
0.0
  9
$OLESTARTUP
290
     0
  0
ENDSEC
  0
SECTION
  2
CLASSES
  0
CLASS
  1
ACDBDICTIONARYWDFLT
  2
AcDbDictionaryWithDefault
  3
ObjectDBX Classes
 90
        0
280
     0
281
     0
  0
CLASS
  1
VISUALSTYLE
  2
AcDbVisualStyle
  3
ObjectDBX Classes
 90
     4095
280
     0
281
     0
  0
CLASS
  1
DICTIONARYVAR
  2
AcDbDictionaryVar
  3
ObjectDBX Classes
 90
        0
280
     0
281
     0
  0
CLASS
  1
ACDBPLACEHOLDER
  2
AcDbPlaceHolder
  3
ObjectDBX Classes
 90
        0
280
     0
281
     0
  0
CLASS
  1
LAYOUT
  2
AcDbLayout
  3
ObjectDBX Classes
 90
        0
280
     0
281
     0
  0
ENDSEC
  0
SECTION
  2
TABLES
  0
TABLE
  2
VPORT
  5
8
330
0
100
AcDbSymbolTable
 70
     1
  0
VPORT
  5
29
330
8
100
AcDbSymbolTableRecord
100
AcDbViewportTableRecord
  2
*Active
 70
     0
 10
0.0
 20
0.0
 11
1.0
 21
1.0
 12
148.5
 22
105.0
 13
0.0
 23
0.0
 14
10.0
 24
10.0
 15
10.0
 25
10.0
 16
0.0
 26
0.0
 36
1.0
 17
0.0
 27
0.0
 37
0.0
 40
210.0
 41
1.4142857143
 42
50.0
 43
0.0
 44
0.0
 50
0.0
 51
0.0
 71
     0
 72
  2000
 73
     1
 74
     3
 75
     0
 76
     0
 77
     0
 78
     0
281
     0
 65
     1
110
0.0
120
0.0
130
0.0
111
1.0
121
0.0
131
0.0
112
0.0
122
1.0
132
0.0
 79
     0
146
0.0
  0
ENDTAB
  0
TABLE
  2
LTYPE
  5
5
330
0
100
AcDbSymbolTable
 70
     6
  0
LTYPE
  5
14
330
5
100
AcDbSymbolTableRecord
100
AcDbLinetypeTableRecord
  2
ByBlock
 70
     0
  3

 72
    65
 73
     0
 40
0.0
  0
LTYPE
  5
15
330
5
100
AcDbSymbolTableRecord
100
AcDbLinetypeTableRecord
  2
ByLayer
 70
     0
  3

 72
    65
 73
     0
 40
0.0
  0
LTYPE
  5
16
330
5
100
AcDbSymbolTableRecord
100
AcDbLinetypeTableRecord
  2
Continuous
 70
     0
  3
Solid line
 72
    65
 73
     0
 40
0.0
  0
LTYPE
  5
3B
330
5
100
AcDbSymbolTableRecord
100
AcDbLinetypeTableRecord
  2
HIDDEN
 70
     0
  3
Hidden __ __ __ __ __ __ __ __ __ __ __ __ __ __
 72
    65
 73
     2
 40
1.905
 49
1.27
 74
     0
 49
-0.635
 74
     0
  0
LTYPE
  5
3C
330
5
100
AcDbSymbolTableRecord
100
AcDbLinetypeTableRecord
  2
PHANTOM
 70
     0
  3
Phantom ______  __  __  ______  __  __  ______
 72
    65
 73
     6
 40
12.7
 49
6.35
 74
     0
 49
-1.27
 74
     0
 49
1.27
 74
     0
 49
-1.27
 74
     0
 49
1.27
 74
     0
 49
-1.27
 74
     0
  0
LTYPE
  5
3D
330
5
100
AcDbSymbolTableRecord
100
AcDbLinetypeTableRecord
  2
CENTER
 70
     0
  3
Center ____ _ ____ _ ____ _ ____ _ ____ _ ____
 72
    65
 73
     4
 40
10.16
 49
6.35
 74
     0
 49
-1.27
 74
     0
 49
1.27
 74
     0
 49
-1.27
 74
     0
  0
LTYPE
  5
3E
330
5
100
AcDbSymbolTableRecord
100
AcDbLinetypeTableRecord
  2
CENTERX2
 70
     0
  3
Center (2x) ________  __  ________  __  _____
 72
    65
 73
     4
 40
20.32
 49
12.7
 74
     0
 49
-2.54
 74
     0
 49
2.54
 74
     0
 49
-2.54
 74
     0
  0
LTYPE
  5
3F
330
5
100
AcDbSymbolTableRecord
100
AcDbLinetypeTableRecord
  2
DOT2
 70
     0
  3
Dot (.5x) ........................................
 72
    65
 73
     2
 40
0.635
 49
0.0
 74
     0
 49
-0.635
 74
     0
  0
ENDTAB
  0
TABLE
  2
LAYER
  5
2
330
0
100
AcDbSymbolTable
 70
     5
  0
LAYER
  5
10
330
2
100
AcDbSymbolTableRecord
100
AcDbLayerTableRecord
  2
0
 70
     0
 62
     7
  6
Continuous
370
    -3
390
F
  0
LAYER
  5
40
330
2
100
AcDbSymbolTableRecord
100
AcDbLayerTableRecord
  2
FORMAT
 70
     0
 62
     7
  6
Continuous
370
    -3
390
F
  0
LAYER
  5
41
330
2
100
AcDbSymbolTableRecord
100
AcDbLayerTableRecord
  2
VERMASSUNG
 70
     0
 62
     7
  6
Continuous
370
    -3
390
F
  0
LAYER
  5
42
330
2
100
AcDbSymbolTableRecord
100
AcDbLayerTableRecord
  2
KOPF_DÜNN
 70
     0
 62
     7
  6
Continuous
370
    -3
390
F
  0
LAYER
  5
43
330
2
100
AcDbSymbolTableRecord
100
AcDbLayerTableRecord
  2
KOPF_DICK
 70
     0
 62
     7
  6
Continuous
370
    15
390
F
  0
ENDTAB
  0
TABLE
  2
STYLE
  5
3
330
0
100
AcDbSymbolTable
 70
     3
  0
STYLE
  5
11
330
3
100
AcDbSymbolTableRecord
100
AcDbTextStyleTableRecord
  2
Standard
 70
     0
 40
0.0
 41
1.0
 50
0.0
 71
     0
 42
2.5
  3
txt
  4

  0
STYLE
  5
44
330
3
100
AcDbSymbolTableRecord
100
AcDbTextStyleTableRecord
  2
SLDTEXTSTYLE0
 70
     0
 40
0.0
 41
0.7
 50
0.0
 71
     0
 42
0.2
  3
TXT
  4

  0
STYLE
  5
48
330
3
100
AcDbSymbolTableRecord
100
AcDbTextStyleTableRecord
  2
SLDTEXTSTYLE1
 70
     0
 40
0.0
 41
0.6473684211
 50
0.0
 71
     0
 42
0.2
  3
TXT
  4

  0
ENDTAB
  0
TABLE
  2
VIEW
  5
6
330
0
100
AcDbSymbolTable
 70
     0
  0
ENDTAB
  0
TABLE
  2
UCS
  5
7
330
0
100
AcDbSymbolTable
 70
     0
  0
ENDTAB
  0
TABLE
  2
APPID
  5
9
330
0
100
AcDbSymbolTable
 70
     1
  0
APPID
  5
12
330
9
100
AcDbSymbolTableRecord
100
AcDbRegAppTableRecord
  2
ACAD
 70
     0
  0
ENDTAB
  0
TABLE
  2
DIMSTYLE
  5
A
330
0
100
AcDbSymbolTable
 70
     3
100
AcDbDimStyleTable
  0
DIMSTYLE
105
27
330
A
100
AcDbSymbolTableRecord
100
AcDbDimStyleTableRecord
  2
ISO-25
 70
     0
 41
2.5
 42
0.625
 43
3.75
 44
1.25
 73
     0
 74
     0
 77
     1
 78
     8
140
2.5
141
2.5
143
0.0393700787
147
0.625
171
     3
172
     1
271
     2
272
     2
274
     3
278
    44
283
     0
284
     8
340
11
  0
DIMSTYLE
105
1C5
102
{ACAD_REACTORS
330
1C4
102
}
330
A
100
AcDbSymbolTableRecord
100
AcDbDimStyleTableRecord
  2
SLDDIMSTYLE0
 70
     0
 41
3.0
 44
0.0
 45
0.000000001
 73
     0
 74
     0
 77
     1
 78
    12
140
2.0
147
0.5
173
     1
271
     2
272
     2
284
    12
340
44
  0
DIMSTYLE
105
1D1
102
{ACAD_REACTORS
330
1D0
330
1DB
330
1E6
330
1F0
330
1FC
102
}
330
A
100
AcDbSymbolTableRecord
100
AcDbDimStyleTableRecord
  2
SLDDIMSTYLE1
 70
     0
 41
3.0
 44
0.0
 45
0.000000001
 73
     0
 74
     0
 77
     1
 78
    12
140
2.0
147
0.5
173
     1
271
     2
272
     3
284
    12
340
44
  0
ENDTAB
  0
TABLE
  2
BLOCK_RECORD
  5
1
330
0
100
AcDbSymbolTable
 70
     7
  0
BLOCK_RECORD
  5
1F
330
1
100
AcDbSymbolTableRecord
100
AcDbBlockTableRecord
  2
*Model_Space
340
22
  0
BLOCK_RECORD
  5
1B
330
1
100
AcDbSymbolTableRecord
100
AcDbBlockTableRecord
  2
*Paper_Space
340
1E
  0
BLOCK_RECORD
  5
23
330
1
100
AcDbSymbolTableRecord
100
AcDbBlockTableRecord
  2
*Paper_Space0
340
26
  0
BLOCK_RECORD
  5
1C6
330
1
100
AcDbSymbolTableRecord
100
AcDbBlockTableRecord
  2
*D1
340
0
  0
BLOCK_RECORD
  5
1D2
330
1
100
AcDbSymbolTableRecord
100
AcDbBlockTableRecord
  2
*D2
340
0
  0
BLOCK_RECORD
  5
1DC
330
1
100
AcDbSymbolTableRecord
100
AcDbBlockTableRecord
  2
*D3
340
0
  0
BLOCK_RECORD
  5
1E7
330
1
100
AcDbSymbolTableRecord
100
AcDbBlockTableRecord
  2
*D4
340
0
  0
BLOCK_RECORD
  5
1F1
330
1
100
AcDbSymbolTableRecord
100
AcDbBlockTableRecord
  2
*D5
340
0
  0
BLOCK_RECORD
  5
1FD
330
1
100
AcDbSymbolTableRecord
100
AcDbBlockTableRecord
  2
*D6
340
0
  0
ENDTAB
  0
ENDSEC
  0
SECTION
  2
BLOCKS
  0
BLOCK
  5
20
330
1F
100
AcDbEntity
  8
0
100
AcDbBlockBegin
  2
*Model_Space
 70
     0
 10
0.0
 20
0.0
 30
0.0
  3
*Model_Space
  1

  0
ENDBLK
  5
21
330
1F
100
AcDbEntity
  8
0
100
AcDbBlockEnd
  0
BLOCK
  5
1C
330
1B
100
AcDbEntity
 67
     1
  8
0
100
AcDbBlockBegin
  2
*Paper_Space
 70
     0
 10
0.0
 20
0.0
 30
0.0
  3
*Paper_Space
  1

  0
ENDBLK
  5
1D
330
1B
100
AcDbEntity
 67
     1
  8
0
100
AcDbBlockEnd
  0
BLOCK
  5
24
330
23
100
AcDbEntity
  8
0
100
AcDbBlockBegin
  2
*Paper_Space0
 70
     0
 10
0.0
 20
0.0
 30
0.0
  3
*Paper_Space0
  1

  0
ENDBLK
  5
25
330
23
100
AcDbEntity
  8
0
100
AcDbBlockEnd
  0
BLOCK
  5
1C7
330
1C6
100
AcDbEntity
  8
0
100
AcDbBlockBegin
  2
*D1
 70
     1
 10
0.0
 20
0.0
 30
0.0
  3
*D1
  1

  0
SOLID
  5
1C9
330
1C6
100
AcDbEntity
  8
VERMASSUNG
100
AcDbTrace
 10
213.1706702298
 20
105.9125248905
 30
0.0
 11
213.6206702298
 21
108.9125248905
 31
0.0
 12
212.7206702298
 22
108.9125248905
 32
0.0
 13
212.7206702298
 23
108.9125248905
 33
0.0
  0
SOLID
  5
1CA
330
1C6
100
AcDbEntity
  8
VERMASSUNG
100
AcDbTrace
 10
213.1706702298
 20
117.9125248905
 30
0.0
 11
212.7206702298
 21
114.9125248905
 31
0.0
 12
213.6206702298
 22
114.9125248905
 32
0.0
 13
213.6206702298
 23
114.9125248905
 33
0.0
  0
LINE
  5
1CB
330
1C6
100
AcDbEntity
  8
VERMASSUNG
100
AcDbLine
 10
205.3630659345
 20
105.9125248905
 30
0.0
 11
214.1706702298
 21
105.9125248905
 31
0.0
  0
LINE
  5
1CC
330
1C6
100
AcDbEntity
  8
VERMASSUNG
100
AcDbLine
 10
205.3630659345
 20
117.9125248905
 30
0.0
 11
214.1706702298
 21
117.9125248905
 31
0.0
  0
LINE
  5
1CD
330
1C6
100
AcDbEntity
  8
VERMASSUNG
100
AcDbLine
 10
213.1706702298
 20
105.9125248905
 30
0.0
 11
213.1706702298
 21
117.9125248905
 31
0.0
  0
MTEXT
  5
1CE
330
1C6
100
AcDbEntity
  8
VERMASSUNG
100
AcDbMText
 10
210.5925347502
 20
108.9083872957
 30
0.0
 40
2.0
 41
0.0
 71
     1
 72
     1
  1
%%c
  7
SLDTEXTSTYLE0
 11
3.391901413832837E-15
 21
1.0
 31
0.0
 73
     1
 44
1.0
  0
MTEXT
  5
1CF
330
1C6
100
AcDbEntity
  8
VERMASSUNG
100
AcDbMText
 10
210.5925348667
 20
112.5170655189
 30
0.0
 40
2.0
 41
0.0
 71
     1
 72
     1
  1
12
  7
SLDTEXTSTYLE0
 11
3.391901413832837E-15
 21
1.0
 31
0.0
 73
     1
 44
1.0
  0
ENDBLK
  5
1C8
330
1C6
100
AcDbEntity
  8
0
100
AcDbBlockEnd
  0
BLOCK
  5
1D3
330
1D2
100
AcDbEntity
  8
0
100
AcDbBlockBegin
  2
*D2
 70
     1
 10
0.0
 20
0.0
 30
0.0
  3
*D2
  1

  0
SOLID
  5
1D5
330
1D2
100
AcDbEntity
  8
VERMASSUNG
100
AcDbTrace
 10
125.6630659345
 20
154.2809317443
 30
0.0
 11
128.6630659345
 21
153.8309317443
 31
0.0
 12
128.6630659345
 22
154.7309317443
 32
0.0
 13
128.6630659345
 23
154.7309317443
 33
0.0
  0
SOLID
  5
1D6
330
1D2
100
AcDbEntity
  8
VERMASSUNG
100
AcDbTrace
 10
205.6630659345
 20
154.2809317443
 30
0.0
 11
202.6630659345
 21
154.7309317443
 31
0.0
 12
202.6630659345
 22
153.8309317443
 32
0.0
 13
202.6630659345
 23
153.8309317443
 33
0.0
  0
LINE
  5
1D7
330
1D2
100
AcDbEntity
  8
VERMASSUNG
100
AcDbLine
 10
125.6630659345
 20
111.9125248905
 30
0.0
 11
125.6630659345
 21
155.2809317443
 31
0.0
  0
LINE
  5
1D8
330
1D2
100
AcDbEntity
  8
VERMASSUNG
100
AcDbLine
 10
205.6630659345
 20
111.9125248905
 30
0.0
 11
205.6630659345
 21
155.2809317443
 31
0.0
  0
LINE
  5
1D9
330
1D2
100
AcDbEntity
  8
VERMASSUNG
100
AcDbLine
 10
125.6630659345
 20
154.2809317443
 30
0.0
 11
205.6630659345
 21
154.2809317443
 31
0.0
  0
MTEXT
  5
1DA
330
1D2
100
AcDbEntity
  8
VERMASSUNG
100
AcDbMText
 10
164.2636878197
 20
156.8590671074
 30
0.0
 40
2.0
 41
0.0
 71
     1
 72
     1
  1
80
  7
SLDTEXTSTYLE0
 73
     1
 44
1.0
  0
ENDBLK
  5
1D4
330
1D2
100
AcDbEntity
  8
0
100
AcDbBlockEnd
  0
BLOCK
  5
1DD
330
1DC
100
AcDbEntity
  8
0
100
AcDbBlockBegin
  2
*D3
 70
     1
 10
0.0
 20
0.0
 30
0.0
  3
*D3
  1

  0
SOLID
  5
1DF
330
1DC
100
AcDbEntity
  8
VERMASSUNG
100
AcDbTrace
 10
219.1706702298
 20
132.9125248905
 30
0.0
 11
218.7206702298
 21
129.9125248905
 31
0.0
 12
219.6206702298
 22
129.9125248905
 32
0.0
 13
219.6206702298
 23
129.9125248905
 33
0.0
  0
SOLID
  5
1E0
330
1DC
100
AcDbEntity
  8
VERMASSUNG
100
AcDbTrace
 10
219.1706702298
 20
90.9125248905
 30
0.0
 11
219.6206702298
 21
93.9125248905
 31
0.0
 12
218.7206702298
 22
93.9125248905
 32
0.0
 13
218.7206702298
 23
93.9125248905
 33
0.0
  0
LINE
  5
1E1
330
1DC
100
AcDbEntity
  8
VERMASSUNG
100
AcDbLine
 10
192.7960244115
 20
132.9125248905
 30
0.0
 11
220.1706702298
 21
132.9125248905
 31
0.0
  0
LINE
  5
1E2
330
1DC
100
AcDbEntity
  8
VERMASSUNG
100
AcDbLine
 10
192.7960244115
 20
90.9125248905
 30
0.0
 11
220.1706702298
 21
90.9125248905
 31
0.0
  0
LINE
  5
1E3
330
1DC
100
AcDbEntity
  8
VERMASSUNG
100
AcDbLine
 10
219.1706702298
 20
132.9125248905
 30
0.0
 11
219.1706702298
 21
90.9125248905
 31
0.0
  0
MTEXT
  5
1E4
330
1DC
100
AcDbEntity
  8
VERMASSUNG
100
AcDbMText
 10
216.5925347502
 20
108.6090178482
 30
0.0
 40
2.0
 41
0.0
 71
     1
 72
     1
  1
%%c
  7
SLDTEXTSTYLE0
 11
-7.044195017643634E-15
 21
1.0
 31
0.0
 73
     1
 44
1.0
  0
MTEXT
  5
1E5
330
1DC
100
AcDbEntity
  8
VERMASSUNG
100
AcDbMText
 10
216.5925348667
 20
112.2176960714
 30
0.0
 40
2.0
 41
0.0
 71
     1
 72
     1
  1
42
  7
SLDTEXTSTYLE0
 11
-7.044195017643634E-15
 21
1.0
 31
0.0
 73
     1
 44
1.0
  0
ENDBLK
  5
1DE
330
1DC
100
AcDbEntity
  8
0
100
AcDbBlockEnd
  0
BLOCK
  5
1E8
330
1E7
100
AcDbEntity
  8
0
100
AcDbBlockBegin
  2
*D4
 70
     1
 10
0.0
 20
0.0
 30
0.0
  3
*D4
  1

  0
SOLID
  5
1EA
330
1E7
100
AcDbEntity
  8
VERMASSUNG
100
AcDbTrace
 10
93.7630659345
 20
160.2809317443
 30
0.0
 11
96.7630659345
 21
159.8309317443
 31
0.0
 12
96.7630659345
 22
160.7309317443
 32
0.0
 13
96.7630659345
 23
160.7309317443
 33
0.0
  0
SOLID
  5
1EB
330
1E7
100
AcDbEntity
  8
VERMASSUNG
100
AcDbTrace
 10
205.6630659345
 20
160.2809317443
 30
0.0
 11
202.6630659345
 21
160.7309317443
 31
0.0
 12
202.6630659345
 22
159.8309317443
 32
0.0
 13
202.6630659345
 23
159.8309317443
 33
0.0
  0
LINE
  5
1EC
330
1E7
100
AcDbEntity
  8
VERMASSUNG
100
AcDbLine
 10
93.7630659345
 20
131.6032026369
 30
0.0
 11
93.7630659345
 21
161.2809317443
 31
0.0
  0
LINE
  5
1ED
330
1E7
100
AcDbEntity
  8
VERMASSUNG
100
AcDbLine
 10
205.6630659345
 20
125.6383843689
 30
0.0
 11
205.6630659345
 21
161.2809317443
 31
0.0
  0
LINE
  5
1EE
330
1E7
100
AcDbEntity
  8
VERMASSUNG
100
AcDbLine
 10
93.7630659345
 20
160.2809317443
 30
0.0
 11
205.6630659345
 21
160.2809317443
 31
0.0
  0
MTEXT
  5
1EF
330
1E7
100
AcDbEntity
  8
VERMASSUNG
100
AcDbMText
 10
147.2136791523
 20
162.8590671074
 30
0.0
 40
2.0
 41
0.0
 71
     1
 72
     1
  1
111.9
  7
SLDTEXTSTYLE0
 73
     1
 44
1.0
  0
ENDBLK
  5
1E9
330
1E7
100
AcDbEntity
  8
0
100
AcDbBlockEnd
  0
BLOCK
  5
1F2
330
1F1
100
AcDbEntity
  8
0
100
AcDbBlockBegin
  2
*D5
 70
     1
 10
0.0
 20
0.0
 30
0.0
  3
*D5
  1

  0
SOLID
  5
1F4
330
1F1
100
AcDbEntity
  8
VERMASSUNG
100
AcDbTrace
 10
88.0154963392
 20
143.4125248905
 30
0.0
 11
87.5654963392
 21
140.4125248905
 31
0.0
 12
88.4654963392
 22
140.4125248905
 32
0.0
 13
88.4654963392
 23
140.4125248905
 33
0.0
  0
SOLID
  5
1F5
330
1F1
100
AcDbEntity
  8
VERMASSUNG
100
AcDbTrace
 10
88.0154963392
 20
80.4125248905
 30
0.0
 11
88.4654963392
 21
83.4125248905
 31
0.0
 12
87.5654963392
 22
83.4125248905
 32
0.0
 13
87.5654963392
 23
83.4125248905
 33
0.0
  0
LINE
  5
1F6
330
1F1
100
AcDbEntity
  8
VERMASSUNG
100
AcDbLine
 10
125.9630659345
 20
143.4125248905
 30
0.0
 11
87.0154963392
 21
143.4125248905
 31
0.0
  0
LINE
  5
1F7
330
1F1
100
AcDbEntity
  8
VERMASSUNG
100
AcDbLine
 10
125.9630659345
 20
80.4125248905
 30
0.0
 11
87.0154963392
 21
80.4125248905
 31
0.0
  0
LINE
  5
1F8
330
1F1
100
AcDbEntity
  8
VERMASSUNG
100
AcDbLine
 10
88.0154963392
 20
143.4125248905
 30
0.0
 11
88.0154963392
 21
80.4125248905
 31
0.0
  0
MTEXT
  5
1F9
330
1F1
100
AcDbEntity
  8
VERMASSUNG
100
AcDbMText
 10
85.2373608502
 20
104.2089831787
 30
0.0
 40
2.0
 41
0.0
 71
     1
 72
     1
  1
HSK A 
  7
SLDTEXTSTYLE0
 11
-7.044195017643634E-15
 21
1.0
 31
0.0
 73
     1
 44
1.0
  0
MTEXT
  5
1FA
330
1F1
100
AcDbEntity
  8
VERMASSUNG
100
AcDbMText
 10
85.4373608597
 20
113.2089837226
 30
0.0
 40
2.0
 41
0.0
 71
     1
 72
     1
  1
%%c
  7
SLDTEXTSTYLE0
 11
-7.044195017643634E-15
 21
1.0
 31
0.0
 73
     1
 44
1.0
  0
MTEXT
  5
1FB
330
1F1
100
AcDbEntity
  8
VERMASSUNG
100
AcDbMText
 10
85.4373609761
 20
116.8173103726
 30
0.0
 40
2.0
 41
0.0
 71
     1
 72
     1
  1
63
  7
SLDTEXTSTYLE0
 11
-7.044195017643634E-15
 21
1.0
 31
0.0
 73
     1
 44
1.0
  0
ENDBLK
  5
1F3
330
1F1
100
AcDbEntity
  8
0
100
AcDbBlockEnd
  0
BLOCK
  5
1FE
330
1FD
100
AcDbEntity
  8
0
100
AcDbBlockBegin
  2
*D6
 70
     1
 10
0.0
 20
0.0
 30
0.0
  3
*D6
  1

  0
SOLID
  5
200
330
1FD
100
AcDbEntity
  8
VERMASSUNG
100
AcDbTrace
 10
151.6130659345
 20
148.2809317443
 30
0.0
 11
154.6130659345
 21
147.8309317443
 31
0.0
 12
154.6130659345
 22
148.7309317443
 32
0.0
 13
154.6130659345
 23
148.7309317443
 33
0.0
  0
SOLID
  5
201
330
1FD
100
AcDbEntity
  8
VERMASSUNG
100
AcDbTrace
 10
205.6630659345
 20
148.2809317443
 30
0.0
 11
202.6630659345
 21
148.7309317443
 31
0.0
 12
202.6630659345
 22
147.8309317443
 32
0.0
 13
202.6630659345
 23
147.8309317443
 33
0.0
  0
LINE
  5
202
330
1FD
100
AcDbEntity
  8
VERMASSUNG
100
AcDbLine
 10
151.6130659345
 20
141.7589652142
 30
0.0
 11
151.6130659345
 21
149.2809317443
 31
0.0
  0
LINE
  5
203
330
1FD
100
AcDbEntity
  8
VERMASSUNG
100
AcDbLine
 10
205.6630659345
 20
125.6383843689
 30
0.0
 11
205.6630659345
 21
149.2809317443
 31
0.0
  0
LINE
  5
204
330
1FD
100
AcDbEntity
  8
VERMASSUNG
100
AcDbLine
 10
151.6130659345
 20
148.2809317443
 30
0.0
 11
205.6630659345
 21
148.2809317443
 31
0.0
  0
MTEXT
  5
205
330
1FD
100
AcDbEntity
  8
VERMASSUNG
100
AcDbMText
 10
175.4389900949
 20
150.8590671074
 30
0.0
 40
2.0
 41
0.0
 71
     1
 72
     1
  1
54.05
  7
SLDTEXTSTYLE0
 73
     1
 44
1.0
  0
ENDBLK
  5
1FF
330
1FD
100
AcDbEntity
  8
0
100
AcDbBlockEnd
  0
ENDSEC
  0
SECTION
  2
ENTITIES
  0
MTEXT
  5
45
330
1F
100
AcDbEntity
  8
KOPF_DÜNN
100
AcDbMText
 10
13.8892156294
 20
23.8442973028
 30
0.0
 40
3.0
 41
0.0
 71
     1
 72
     1
  1
HA6.W12.K21.080
  7
SLDTEXTSTYLE0
 73
     1
 44
1.0
  0
MTEXT
  5
46
330
1F
100
AcDbEntity
  8
VERMASSUNG
100
AcDbMText
 10
13.9329988022
 20
28.8834360957
 30
0.0
 40
3.0
 41
0.0
 71
     1
 72
     1
  1
Flächenspannfutter_End mill adapter Weldon ø12
  7
SLDTEXTSTYLE0
 73
     1
 44
1.0
  0
MTEXT
  5
47
330
1F
100
AcDbEntity
  8
VERMASSUNG
100
AcDbMText
 10
98.8601118557
 20
13.8365368179
 30
0.0
 40
2.0
 41
0.0
 71
     1
 72
     1
  1
Datum: 01.12.2010
  7
SLDTEXTSTYLE0
 73
     1
 44
1.0
  0
MTEXT
  5
49
330
1F
100
AcDbEntity
  8
VERMASSUNG
100
AcDbMText
 10
13.933048693
 20
18.0482802738
 30
0.0
 40
2.0
 41
0.0
 71
     1
 72
     1
  1
DIN 69 893 HSK A 63
  7
SLDTEXTSTYLE1
 73
     1
 44
1.0
  0
MTEXT
  5
4A
330
1F
100
AcDbEntity
  8
VERMASSUNG
100
AcDbMText
 10
13.9808475933
 20
13.9090973692
 30
0.0
 40
2.0
 41
0.0
 71
     1
 72
     1
  1
Gewicht: 1134g
  7
SLDTEXTSTYLE0
 73
     1
 44
1.0
  0
LINE
  5
4B
330
1F
100
AcDbEntity
  8
0
  6
Continuous
 62
     7
370
    15
100
AcDbLine
 10
125.9630659488
 20
80.4125243838
 30
0.0
 11
130.6130659077
 21
80.4125243838
 31
0.0
  0
LINE
  5
4C
330
1F
100
AcDbEntity
  8
0
  6
Continuous
 62
     7
370
    15
100
AcDbLine
 10
130.6410544794
 20
143.4125253971
 30
0.0
 11
125.9630659488
 21
143.4125253971
 31
0.0
  0
ARC
  5
4D
330
1F
100
AcDbEntity
  8
0
  6
Continuous
 62
     7
370
    15
100
AcDbCircle
 10
125.9630659345
 20
80.7125248905
 30
0.0
 40
0.3000000000000114
100
AcDbArc
 50
180.0
 51
270.0
  0
ARC
  5
4E
330
1F
100
AcDbEntity
  8
0
  6
Continuous
 62
     7
370
    15
100
AcDbCircle
 10
125.9630659345
 20
143.1125248905
 30
0.0
 40
0.3000000000000114
100
AcDbArc
 50
90.0
 51
180.0
  0
ARC
  5
4F
330
1F
100
AcDbEntity
  8
0
  6
Continuous
 62
     7
370
    15
100
AcDbCircle
 10
125.1630591819
 20
87.3420872761
 30
0.0
 40
0.6000067526677164
100
AcDbArc
 50
33.5571153394
 51
90.0
  0
ARC
  5
50
330
1F
100
AcDbEntity
  8
0
  6
Continuous
 62
     7
370
    15
100
AcDbCircle
 10
125.1630591819
 20
136.4829625049
 30
0.0
 40
0.6000067526677164
100
AcDbArc
 50
270.0
 51
326.4428846606
  0
LINE
  5
51
330
1F
100
AcDbEntity
  8
0
  6
Continuous
 62
     7
370
    15
100
AcDbLine
 10
123.6630658395
 20
87.692093667
 30
0.0
 11
124.5197787657
 21
87.9216497804
 31
0.0
  0
LINE
  5
52
330
1F
100
AcDbEntity
  8
0
  6
Continuous
 62
     7
370
    15
100
AcDbLine
 10
124.5197787657
 20
135.9034000005
 30
0.0
 11
123.6630658395
 21
136.132956114
 31
0.0
  0
LINE
  5
53
330
1F
100
AcDbEntity
  8
0
  6
Continuous
 62
     7
370
    15
100
AcDbLine
 10
112.4315575007
 20
135.5702547397
 30
0.0
 11
99.8630650583
 21
134.9405707832
 31
0.0
  0
LINE
  5
54
330
1F
100
AcDbEntity
  8
0
  6
Continuous
 62
     7
370
    15
100
AcDbLine
 10
123.6630658395
 20
136.132956114
 30
0.0
 11
120.8460644129
 21
135.991823491
 31
0.0
  0
LINE
  5
55
330
1F
100
AcDbEntity
  8
0
  6
Continuous
 62
     7
370
    15
100
AcDbLine
 10
120.8461202923
 20
87.8332244273
 30
0.0
 11
123.6630658395
 21
87.692093667
 31
0.0
  0
LINE
  5
56
330
1F
100
AcDbEntity
  8
0
  6
Continuous
 62
     7
370
    15
100
AcDbLine
 10
103.863065714
 20
88.6840788688
 30
0.0
 11
112.4319598321
 21
88.2547745522
 31
0.0
  0
ARC
  5
57
330
1F
100
AcDbEntity
  8
0
  6
Continuous
 62
     7
370
    15
100
AcDbCircle
 10
154.6130659345
 20
87.9125248905
 30
0.0
 40
3.000000000000014
100
AcDbArc
 50
90.0
 51
180.0
  0
ARC
  5
58
330
1F
100
AcDbEntity
  8
0
  6
Continuous
 62
     7
370
    15
100
AcDbCircle
 10
154.6130659345
 20
135.9125248905
 30
0.0
 40
3.0
100
AcDbArc
 50
180.0
 51
270.0
  0
ARC
  5
59
330
1F
100
AcDbEntity
  8
0
  6
Continuous
 62
     7
370
    15
100
AcDbCircle
 10
124.675070135
 20
87.3420940287
 30
0.0
 40
0.6000000000000085
100
AcDbArc
 50
90.0
 51
105.0
  0
ARC
  5
5A
330
1F
100
AcDbEntity
  8
0
  6
Continuous
 62
     7
370
    15
100
AcDbCircle
 10
124.675070135
 20
136.4829557522
 30
0.0
 40
0.5999999999999943
100
AcDbArc
 50
255.0
 51
270.0
  0
LINE
  5
5B
330
1F
100
AcDbEntity
  8
0
  6
Continuous
 62
     7
370
    15
100
AcDbLine
 10
124.6750701694
 20
87.9420941736
 30
0.0
 11
125.1630591587
 21
87.9420941736
 31
0.0
  0
LINE
  5
5C
330
1F
100
AcDbEntity
  8
0
  6
Continuous
 62
     7
370
    15
100
AcDbLine
 10
125.1630591587
 20
135.8829556073
 30
0.0
 11
124.6750701694
 21
135.8829556073
 31
0.0
  0
LINE
  5
5D
330
1F
100
AcDbEntity
  8
0
  6
Continuous
 62
     7
370
    15
100
AcDbLine
 10
166.0808526221
 20
90.9125251736
 30
0.0
 11
192.7960232142
 21
90.9125251736
 31
0.0
  0
LINE
  5
5E
330
1F
100
AcDbEntity
  8
0
  6
Continuous
 62
     7
370
    15
100
AcDbLine
 10
154.6130661163
 20
90.9125251736
 30
0.0
 11
159.1555230561
 21
90.9125251736
 31
0.0
  0
LINE
  5
5F
330
1F
100
AcDbEntity
  8
0
  6
Continuous
 62
     7
370
    15
100
AcDbLine
 10
159.1497935597
 20
132.9125246073
 30
0.0
 11
154.6130661163
 21
132.9125246073
 31
0.0
  0
LINE
  5
60
330
1F
100
AcDbEntity
  8
0
  6
Continuous
 62
     7
370
    15
100
AcDbLine
 10
192.7960232142
 20
132.9125246073
 30
0.0
 11
166.0722211245
 21
132.9125246073
 31
0.0
  0
LINE
  5
61
330
1F
100
AcDbEntity
  8
0
  6
Continuous
 62
     7
370
    15
100
AcDbLine
 10
192.7960232142
 20
90.9125251736
 30
0.0
 11
204.5083061102
 21
96.3740494143
 31
0.0
  0
LINE
  5
62
330
1F
100
AcDbEntity
  8
0
  6
Continuous
 62
     7
370
    15
100
AcDbLine
 10
204.5083061102
 20
127.4510003667
 30
0.0
 11
192.7960232142
 21
132.9125246073
 31
0.0
  0
ARC
  5
63
330
1F
100
AcDbEntity
  8
0
  6
Continuous
 62
     7
370
    15
100
AcDbCircle
 10
203.6630659345
 20
98.1866654121
 30
0.0
 40
2.000000000000001
100
AcDbArc
 50
295.0
 51
0.0
  0
ARC
  5
64
330
1F
100
AcDbEntity
  8
0
  6
Continuous
 62
     7
370
    15
100
AcDbCircle
 10
203.6630659345
 20
125.6383843689
 30
0.0
 40
2.000000000000001
100
AcDbArc
 50
0.0
 51
65.0
  0
LINE
  5
65
330
1F
100
AcDbEntity
  8
0
  6
Continuous
 62
     7
370
    15
100
AcDbLine
 10
95.0464025382
 20
91.0425247665
 30
0.0
 11
102.4630662296
 21
91.0425247665
 31
0.0
  0
ARC
  5
66
330
1F
100
AcDbEntity
  8
0
  6
Continuous
 62
     7
370
    15
100
AcDbCircle
 10
102.4630659345
 20
89.6425248905
 30
0.0
 40
1.399999999999991
100
AcDbArc
 50
42.2465410162
 51
90.0
  0
LINE
  5
67
330
1F
100
AcDbEntity
  8
0
  6
Continuous
 62
     7
370
    15
100
AcDbLine
 10
93.7640980128
 20
92.1914918389
 30
0.0
 11
94.9042286966
 21
91.0513611551
 31
0.0
  0
LINE
  5
68
330
1F
100
AcDbEntity
  8
0
  6
Continuous
 62
     7
370
    15
100
AcDbLine
 10
94.9042286966
 20
132.7736886259
 30
0.0
 11
93.772967929
 21
131.6424259956
 31
0.0
  0
ARC
  5
69
330
1F
100
AcDbEntity
  8
0
  6
Continuous
 62
     7
370
    15
100
AcDbCircle
 10
98.4630659345
 20
134.1825248905
 30
0.0
 40
1.400000000000034
100
AcDbArc
 50
270.0
 51
301.7485287426
  0
LINE
  5
6A
330
1F
100
AcDbEntity
  8
0
  6
Continuous
 62
     7
370
    15
100
AcDbLine
 10
98.4630655739
 20
132.7825250144
 30
0.0
 11
95.0373314563
 21
132.7825250144
 31
0.0
  0
LINE
  5
6B
330
1F
100
AcDbEntity
  8
0
  6
Continuous
 62
     7
370
    15
100
AcDbLine
 10
205.6630641464
 20
103.1509680714
 30
0.0
 11
205.727966154
 21
103.2711487304
 31
0.0
  0
LINE
  5
6C
330
1F
100
AcDbEntity
  8
0
  6
Continuous
 62
     7
370
    15
100
AcDbLine
 10
205.6690767649
 20
120.5555373843
 30
0.0
 11
205.6630641464
 21
120.5666685517
 31
0.0
  0
LINE
  5
6D
330
1F
100
AcDbEntity
  8
0
  6
Continuous
 62
     7
370
    15
100
AcDbLine
 10
180.3122401479
 20
112.7911390311
 30
0.0
 11
182.7485539261
 21
115.2537326369
 31
0.0
  0
LINE
  5
6E
330
1F
100
AcDbEntity
  8
0
  6
Continuous
 62
     7
370
    15
100
AcDbLine
 10
181.2267504874
 20
109.4499312847
 30
0.0
 11
184.5775783304
 21
108.5713171441
 31
0.0
  0
LINE
  5
6F
330
1F
100
AcDbEntity
  8
0
  6
Continuous
 62
     7
370
    15
100
AcDbLine
 10
187.0138921085
 20
111.0339107498
 30
0.0
 11
184.5775783304
 21
108.5713171441
 31
0.0
  0
LINE
  5
70
330
1F
100
AcDbEntity
  8
0
  6
Continuous
 62
     7
370
    15
100
AcDbLine
 10
187.0138921085
 20
111.0339107498
 30
0.0
 11
186.099381769
 21
114.3751184962
 31
0.0
  0
CIRCLE
  5
71
330
1F
100
AcDbEntity
  8
0
  6
Continuous
 62
     7
370
    15
100
AcDbCircle
 10
183.6630659345
 20
111.9125248905
 30
0.0
 40
5.099999999999999
  0
LINE
  5
72
330
1F
100
AcDbEntity
  8
0
  6
Continuous
 62
     7
370
    15
100
AcDbLine
 10
181.2267504874
 20
109.4499312847
 30
0.0
 11
180.3122401479
 21
112.7911390311
 31
0.0
  0
LINE
  5
73
330
1F
100
AcDbEntity
  8
0
  6
Continuous
 62
     7
370
    15
100
AcDbLine
 10
186.099381769
 20
114.3751184962
 30
0.0
 11
182.7485539261
 21
115.2537326369
 31
0.0
  0
LINE
  5
74
330
1F
100
AcDbEntity
  8
0
  6
Continuous
 62
     7
370
    15
100
AcDbLine
 10
151.0130666438
 20
81.7256072577
 30
0.0
 11
147.0549978558
 21
81.7256072577
 31
0.0
  0
LINE
  5
75
330
1F
100
AcDbEntity
  8
0
  6
Continuous
 62
     7
370
    15
100
AcDbLine
 10
147.0549978558
 20
81.7256072577
 30
0.0
 11
147.0549978558
 21
131.7625256296
 31
0.0
  0
LINE
  5
76
330
1F
100
AcDbEntity
  8
0
  6
Continuous
 62
     7
370
    15
100
AcDbLine
 10
147.0549978558
 20
131.7625256296
 30
0.0
 11
151.0130666438
 21
131.7625256296
 31
0.0
  0
LINE
  5
77
330
1F
100
AcDbEntity
  8
0
  6
Continuous
 62
     7
370
    15
100
AcDbLine
 10
130.6130659077
 20
131.7625256296
 30
0.0
 11
140.2711333949
 21
131.7625256296
 31
0.0
  0
LINE
  5
78
330
1F
100
AcDbEntity
  8
0
  6
Continuous
 62
     7
370
    15
100
AcDbLine
 10
140.2711333949
 20
81.7256072577
 30
0.0
 11
140.2711333949
 21
131.7625256296
 31
0.0
  0
LINE
  5
79
330
1F
100
AcDbEntity
  8
0
  6
Continuous
 62
     7
370
    15
100
AcDbLine
 10
140.2711333949
 20
81.7256072577
 30
0.0
 11
138.6130662877
 21
81.7256072577
 31
0.0
  0
SPLINE
  5
7A
330
1F
100
AcDbEntity
  8
0
  6
Continuous
 62
     7
370
    15
100
AcDbSpline
210
0.0
220
0.0
230
1.0
 70
     8
 71
     3
 72
    28
 73
    24
 74
     0
 42
0.00000001
 43
0.00000001
 40
0.0
 40
0.0
 40
0.0
 40
0.0
 40
0.1250000000000001
 40
0.1250000000000001
 40
0.1875000000000001
 40
0.1875000000000001
 40
0.2500000000000001
 40
0.2500000000000001
 40
0.3749999999999999
 40
0.3749999999999999
 40
0.4375
 40
0.4375
 40
0.4999999999999999
 40
0.4999999999999999
 40
0.6249999999999999
 40
0.6249999999999999
 40
0.7499999999999997
 40
0.7499999999999997
 40
0.8124999999999998
 40
0.8124999999999998
 40
0.8749999999999998
 40
0.8749999999999998
 40
1.0
 40
1.0
 40
1.0
 40
1.0
 10
138.6130659345227
 20
81.72560719422432
 30
0.0
 10
138.0813581770298
 20
81.72560719422434
 30
0.0
 10
137.5591196117194
 20
81.70982248027411
 30
0.0
 10
136.7892491254444
 20
81.6648270661979
 30
0.0
 10
136.5348895532531
 20
81.64627207112218
 30
0.0
 10
136.0307679725546
 20
81.60241934867567
 30
0.0
 10
135.7810451551267
 20
81.57707474172348
 30
0.0
 10
135.0554552036803
 20
81.49367266397337
 30
0.0
 10
134.5970949420987
 20
81.42780710482228
 30
0.0
 10
133.9465969987048
 20
81.3188367643305
 30
0.0
 10
133.7349149479124
 20
81.28059712856384
 30
0.0
 10
133.3308434587744
 20
81.20283839114448
 30
0.0
 10
133.1383369449535
 20
81.16333742896914
 30
0.0
 10
132.5885019739322
 20
81.04442968660314
 30
0.0
 10
132.2585731956234
 20
80.96461200517852
 30
0.0
 10
131.6741019270547
 20
80.81126884338246
 30
0.0
 10
131.4278247890413
 20
80.7399350901132
 30
0.0
 10
131.1279819963432
 20
80.6459915830386
 30
0.0
 10
131.0395251392711
 20
80.61679778967866
 30
0.0
 10
130.8861637859659
 20
80.56333121541526
 30
0.0
 10
130.8210755717397
 20
80.53897188114007
 30
0.0
 10
130.6654815557989
 20
80.47538173569532
 30
0.0
 10
130.6130659345227
 20
80.44527880060608
 30
0.0
 10
130.6130659345227
 20
80.42840190760917
 30
0.0
  0
LINE
  5
7B
330
1F
100
AcDbEntity
  8
0
  6
Continuous
 62
     7
370
    15
100
AcDbLine
 10
130.6130659077
 20
80.4284015711
 30
0.0
 11
130.6130659077
 21
80.4125243838
 31
0.0
  0
SPLINE
  5
7C
330
1F
100
AcDbEntity
  8
0
  6
Continuous
 62
     7
370
    15
100
AcDbSpline
210
0.0
220
0.0
230
1.0
 70
     8
 71
     3
 72
    17
 73
    13
 74
     0
 42
0.00000001
 43
0.00000001
 40
0.0
 40
0.0
 40
0.0
 40
0.0
 40
0.1034797280380778
 40
0.2100239090909901
 40
0.3134862262879433
 40
0.4198361712144981
 40
0.5254127947779869
 40
0.6339610881168427
 40
0.7409508662120068
 40
0.8511696072047016
 40
0.9558996557845765
 40
1.0
 40
1.0
 40
1.0
 40
1.0
 10
138.6130662876803
 20
142.3797203268299
 30
0.0
 10
138.1778177959543
 20
142.3851683184676
 30
0.0
 10
137.2944313453773
 20
142.3962256387962
 30
0.0
 10
136.0136034831546
 20
142.4825843991713
 30
0.0
 10
134.7961872877127
 20
142.6104555423043
 30
0.0
 10
133.6883806713868
 20
142.7693999496227
 30
0.0
 10
132.700142192058
 20
142.9438945226073
 30
0.0
 10
131.8754190922421
 20
143.1130609557942
 30
0.0
 10
131.2264654347435
 20
143.2609417642619
 30
0.0
 10
130.8094301312639
 20
143.3627325157845
 30
0.0
 10
130.6108333883859
 20
143.413089415419
 30
0.0
 10
130.6341465053738
 20
143.4071798104435
 30
0.0
 10
130.6410544793742
 20
143.4054287190924
 30
0.0
  0
LINE
  5
7D
330
1F
100
AcDbEntity
  8
0
  6
Continuous
 62
     7
370
    15
100
AcDbLine
 10
140.2711333949
 20
142.3797203268
 30
0.0
 11
138.6130662877
 21
142.3797203268
 31
0.0
  0
LINE
  5
7E
330
1F
100
AcDbEntity
  8
0
  6
Continuous
 62
     7
370
    15
100
AcDbLine
 10
140.2711333949
 20
136.3712145056
 30
0.0
 11
140.2711333949
 21
142.3797203268
 31
0.0
  0
LINE
  5
7F
330
1F
100
AcDbEntity
  8
0
  6
Continuous
 62
     7
370
    15
100
AcDbLine
 10
137.8586866203
 20
136.3712145056
 30
0.0
 11
140.2711333949
 21
136.3712145056
 31
0.0
  0
SPLINE
  5
80
330
1F
100
AcDbEntity
  8
0
  6
Continuous
 62
     7
370
    15
100
AcDbSpline
210
0.0
220
0.0
230
1.0
 70
     8
 71
     3
 72
    20
 73
    16
 74
     0
 42
0.00000001
 43
0.00000001
 40
0.0
 40
0.0
 40
0.0
 40
0.0
 40
0.2499999999999997
 40
0.2499999999999997
 40
0.3749999999999997
 40
0.3749999999999997
 40
0.4999999999999998
 40
0.4999999999999998
 40
0.6249999999999998
 40
0.6249999999999998
 40
0.7499999999999999
 40
0.7499999999999999
 40
0.8749999999999999
 40
0.8749999999999999
 40
1.0
 40
1.0
 40
1.0
 40
1.0
 10
130.6130659345227
 20
131.7625248904715
 30
0.0
 10
130.8614396688108
 20
132.4163873187689
 30
0.0
 10
131.181009761156
 20
133.020173100766
 30
0.0
 10
131.8033159943607
 20
133.8470118369347
 30
0.0
 10
132.0347402547915
 20
134.1094404748876
 30
0.0
 10
132.5559545944412
 20
134.6061031289925
 30
0.0
 10
132.8425750770762
 20
134.8366900080141
 30
0.0
 10
133.4620598183839
 20
135.2532442325967
 30
0.0
 10
133.7963601978708
 20
135.4407420345642
 30
0.0
 10
134.5216206704956
 20
135.7721390122006
 30
0.0
 10
134.9035357278861
 20
135.9116429996959
 30
0.0
 10
135.6983239040578
 20
136.1370965071668
 30
0.0
 10
136.1124820982642
 20
136.2237226187105
 30
0.0
 10
136.9780284388455
 20
136.3417034075646
 30
0.0
 10
137.4159160538574
 20
136.3712145528389
 30
0.0
 10
137.858686280212
 20
136.3712145528389
 30
0.0
  0
SPLINE
  5
81
330
1F
100
AcDbEntity
  8
0
  6
Continuous
 62
     7
370
    15
100
AcDbSpline
210
0.0
220
0.0
230
1.0
 70
     8
 71
     3
 72
    70
 73
    66
 74
     0
 42
0.00000001
 43
0.00000001
 40
-0.0312500000000001
 40
-0.0312500000000001
 40
0.0
 40
0.0
 40
0.0312499999999999
 40
0.0312499999999999
 40
0.0624999999999998
 40
0.0624999999999998
 40
0.0937499999999997
 40
0.0937499999999997
 40
0.1249999999999996
 40
0.1249999999999996
 40
0.1562499999999994
 40
0.1562499999999994
 40
0.1874999999999993
 40
0.1874999999999993
 40
0.2187499999999992
 40
0.2187499999999992
 40
0.2499999999999991
 40
0.2499999999999991
 40
0.281249999999999
 40
0.281249999999999
 40
0.3124999999999989
 40
0.3124999999999989
 40
0.3437499999999988
 40
0.3437499999999988
 40
0.3749999999999987
 40
0.3749999999999987
 40
0.4062499999999986
 40
0.4062499999999986
 40
0.4374999999999984
 40
0.4374999999999984
 40
0.4687499999999983
 40
0.4687499999999983
 40
0.4999999999999982
 40
0.4999999999999982
 40
0.5312499999999983
 40
0.5312499999999983
 40
0.5624999999999984
 40
0.5624999999999984
 40
0.5937499999999986
 40
0.5937499999999986
 40
0.6249999999999987
 40
0.6249999999999987
 40
0.6562499999999988
 40
0.6562499999999988
 40
0.6874999999999989
 40
0.6874999999999989
 40
0.718749999999999
 40
0.718749999999999
 40
0.7499999999999991
 40
0.7499999999999991
 40
0.7812499999999992
 40
0.7812499999999992
 40
0.8124999999999993
 40
0.8124999999999993
 40
0.8437499999999994
 40
0.8437499999999994
 40
0.8749999999999996
 40
0.8749999999999996
 40
0.9062499999999997
 40
0.9062499999999997
 40
0.9374999999999998
 40
0.9374999999999998
 40
0.9687499999999999
 40
0.9687499999999999
 40
1.0
 40
1.0
 40
1.03125
 40
1.03125
 10
133.9276112731829
 20
122.5334317764548
 30
0.0
 10
133.3985205958626
 20
122.5334317764548
 30
0.0
 10
133.1384499284855
 20
122.55810907124
 30
0.0
 10
132.62687524865
 20
122.6545807442819
 30
0.0
 10
132.3726999649099
 20
122.727561660262
 30
0.0
 10
131.8884293348482
 20
122.9173022632006
 30
0.0
 10
131.658788242967
 20
123.0331629215944
 30
0.0
 10
131.2241838947335
 20
123.3057807675521
 30
0.0
 10
131.0186181180869
 20
123.4638198496058
 30
0.0
 10
130.6500609774916
 20
123.8073627005765
 30
0.0
 10
130.4845799947562
 20
123.9941251446782
 30
0.0
 10
130.1921554853211
 20
124.397668319075
 30
0.0
 10
130.0680545086946
 20
124.6111653155041
 30
0.0
 10
129.8684753119448
 20
125.0505486294266
 30
0.0
 10
129.7915417260866
 20
125.2796886165722
 30
0.0
 10
129.6886846675662
 20
125.7456627393323
 30
0.0
 10
129.6632117581071
 20
125.9785451850085
 30
0.0
 10
129.6629213475393
 20
126.4439427200882
 30
0.0
 10
129.688945981315
 20
126.6788184774826
 30
0.0
 10
129.791094265807
 20
127.1303116247288
 30
0.0
 10
129.8666707133902
 20
127.3483581001402
 30
0.0
 10
130.0671682445351
 20
127.769452625178
 30
0.0
 10
130.1922970860435
 20
127.9713740096963
 30
0.0
 10
130.4816558870651
 20
128.3434034922153
 30
0.0
 10
130.6470668741206
 20
128.5160317957956
 30
0.0
 10
131.0200574322684
 20
128.8333498003416
 30
0.0
 10
131.2217904653575
 20
128.9731367338433
 30
0.0
 10
131.6546497161854
 20
129.217312987395
 30
0.0
 10
131.8885682490748
 20
129.3225424984365
 30
0.0
 10
132.3727519842174
 20
129.4906996448117
 30
0.0
 10
132.6220676101729
 20
129.5539505354055
 30
0.0
 10
133.1351001346006
 20
129.6395297445081
 30
0.0
 10
133.4003939575053
 20
129.6614019094305
 30
0.0
 10
133.922728577375
 20
129.6615655590745
 30
0.0
 10
134.1824822398567
 20
129.6405638669785
 30
0.0
 10
134.6990940555019
 20
129.5551615119008
 30
0.0
 10
134.9514600960022
 20
129.4911553286139
 30
0.0
 10
135.432985217535
 20
129.3243408085727
 30
0.0
 10
135.6658359496486
 20
129.2202076451736
 30
0.0
 10
136.1029257980874
 20
128.9742209926786
 30
0.0
 10
136.3042467867446
 20
128.8344711617297
 30
0.0
 10
136.6733328120445
 20
128.5213330920051
 30
0.0
 10
136.8423175630962
 20
128.345876932735
 30
0.0
 10
137.1327736197554
 20
127.9730366686348
 30
0.0
 10
137.2558454311175
 20
127.7749148585239
 30
0.0
 10
137.4571816725395
 20
127.3542035157902
 30
0.0
 10
137.5343942184818
 20
127.1322134951227
 30
0.0
 10
137.6365977613818
 20
126.6823485554143
 30
0.0
 10
137.6628261128342
 20
126.4520931422976
 30
0.0
 10
137.6633025121513
 20
125.9807771997485
 30
0.0
 10
137.6375600996533
 20
125.7475397840344
 30
0.0
 10
137.5362493232894
 20
125.2858632445363
 30
0.0
 10
137.4594166838985
 20
125.0549658574242
 30
0.0
 10
137.2590128446833
 20
124.6126898436325
 30
0.0
 10
137.1363413463912
 20
124.4016274123466
 30
0.0
 10
136.846394057227
 20
124.0001289016139
 30
0.0
 10
136.6778230778618
 20
123.809222379538
 30
0.0
 10
136.3095534837486
 20
123.4654970475409
 30
0.0
 10
136.1084916264783
 20
123.3103598613268
 30
0.0
 10
135.6714607078934
 20
123.0352825012471
 30
0.0
 10
135.4393124947638
 20
122.9181662718251
 30
0.0
 10
134.9583022132649
 20
122.7292397867605
 30
0.0
 10
134.7062021304345
 20
122.6561648163663
 30
0.0
 10
134.1891326441755
 20
122.5581127572317
 30
0.0
 10
133.9276112731829
 20
122.5334317764548
 30
0.0
 10
133.3985205958626
 20
122.5334317764548
 30
0.0
  0
SPLINE
  5
82
330
1F
100
AcDbEntity
  8
0
  6
Continuous
 62
     7
370
    15
100
AcDbSpline
210
0.0
220
0.0
230
1.0
 70
     8
 71
     3
 72
    70
 73
    66
 74
     0
 42
0.00000001
 43
0.00000001
 40
-0.0312499999999999
 40
-0.0312499999999999
 40
0.0
 40
0.0
 40
0.0312499999999999
 40
0.0312499999999999
 40
0.0624999999999998
 40
0.0624999999999998
 40
0.0937499999999997
 40
0.0937499999999997
 40
0.1249999999999996
 40
0.1249999999999996
 40
0.1562499999999995
 40
0.1562499999999995
 40
0.1874999999999994
 40
0.1874999999999994
 40
0.2187499999999993
 40
0.2187499999999993
 40
0.2499999999999992
 40
0.2499999999999992
 40
0.2812499999999993
 40
0.2812499999999993
 40
0.3124999999999993
 40
0.3124999999999993
 40
0.3437499999999994
 40
0.3437499999999994
 40
0.3749999999999995
 40
0.3749999999999995
 40
0.4062499999999996
 40
0.4062499999999996
 40
0.4374999999999996
 40
0.4374999999999996
 40
0.4687499999999997
 40
0.4687499999999997
 40
0.4999999999999998
 40
0.4999999999999998
 40
0.5312499999999999
 40
0.5312499999999999
 40
0.5625
 40
0.5625
 40
0.5937500000000001
 40
0.5937500000000001
 40
0.6250000000000002
 40
0.6250000000000002
 40
0.6562500000000004
 40
0.6562500000000004
 40
0.6875000000000006
 40
0.6875000000000006
 40
0.7187500000000007
 40
0.7187500000000007
 40
0.7500000000000008
 40
0.7500000000000008
 40
0.7812500000000007
 40
0.7812500000000007
 40
0.8125000000000006
 40
0.8125000000000006
 40
0.8437500000000004
 40
0.8437500000000004
 40
0.8750000000000003
 40
0.8750000000000003
 40
0.9062500000000003
 40
0.9062500000000003
 40
0.9375000000000002
 40
0.9375000000000002
 40
0.9687500000000001
 40
0.9687500000000001
 40
1.0
 40
1.0
 40
1.03125
 40
1.03125
 10
133.9276112731829
 20
136.9714882852507
 30
0.0
 10
133.3985205958626
 20
136.9714882852507
 30
0.0
 10
133.1384499284855
 20
136.9873887256654
 30
0.0
 10
132.62687524865
 20
137.0493330758397
 30
0.0
 10
132.3726999649099
 20
137.096135309931
 30
0.0
 10
131.8884293348482
 20
137.2171122933861
 30
0.0
 10
131.658788242967
 20
137.2907146211929
 30
0.0
 10
131.2241838947335
 20
137.4625388921711
 30
0.0
 10
131.0186181180869
 20
137.5615423150984
 30
0.0
 10
130.6500609774916
 20
137.7746387290113
 30
0.0
 10
130.4845799947562
 20
137.889538445141
 30
0.0
 10
130.1921554853211
 20
138.1349053438312
 30
0.0
 10
130.0680545086946
 20
138.2633452443015
 30
0.0
 10
129.8684753119448
 20
138.5242373923875
 30
0.0
 10
129.7915417260866
 20
138.658618563727
 30
0.0
 10
129.6886846675662
 20
138.9279385148333
 30
0.0
 10
129.6632117581071
 20
139.0606197790514
 30
0.0
 10
129.6629213475393
 20
139.3218062531824
 30
0.0
 10
129.688945981315
 20
139.4515712913472
 30
0.0
 10
129.791094265807
 20
139.6971539256198
 30
0.0
 10
129.8666707133902
 20
139.8138154629287
 30
0.0
 10
130.0671682445351
 20
140.0357206530832
 30
0.0
 10
130.1922970860435
 20
140.1403319070062
 30
0.0
 10
130.4816558870651
 20
140.3303783186143
 30
0.0
 10
130.6470668741206
 20
140.417137990064
 30
0.0
 10
131.0200574322684
 20
140.5746423658155
 30
0.0
 10
131.2217904653575
 20
140.6429676306028
 30
0.0
 10
131.6546497161854
 20
140.761197354222
 30
0.0
 10
131.8885682490748
 20
140.8114922703258
 30
0.0
 10
132.3727519842174
 20
140.8913578072154
 30
0.0
 10
132.6220676101729
 20
140.921098935015
 30
0.0
 10
133.1351001346006
 20
140.9612516765232
 30
0.0
 10
133.4003939575053
 20
140.9714499459331
 30
0.0
 10
133.922728577375
 20
140.9715264043178
 30
0.0
 10
134.1824822398567
 20
140.9617353927088
 30
0.0
 10
134.6990940555019
 20
140.92166855397
 30
0.0
 10
134.9514600960022
 20
140.8915713871132
 30
0.0
 10
135.432985217535
 20
140.812349177283
 30
0.0
 10
135.6658359496486
 20
140.7625916978196
 30
0.0
 10
136.1029257980874
 20
140.6434997553692
 30
0.0
 10
136.3042467867446
 20
140.575184493822
 30
0.0
 10
136.6733328120445
 20
140.4197835268884
 30
0.0
 10
136.8423175630962
 20
140.3316311848215
 30
0.0
 10
137.1327736197554
 20
140.1411917957052
 30
0.0
 10
137.2558454311175
 20
140.0385672180061
 30
0.0
 10
137.4571816725395
 20
139.816926871398
 30
0.0
 10
137.5343942184818
 20
139.6981727958505
 30
0.0
 10
137.6365977613818
 20
139.4535068569328
 30
0.0
 10
137.6628261128342
 20
139.3263501314842
 30
0.0
 10
137.6633025121513
 20
139.0619019856287
 30
0.0
 10
137.6375600996533
 20
138.9290013053716
 30
0.0
 10
137.5362493232894
 20
138.6622090318895
 30
0.0
 10
137.4594166838985
 20
138.5268451304209
 30
0.0
 10
137.2590128446833
 20
138.2642653351184
 30
0.0
 10
137.1363413463912
 20
138.1372901753646
 30
0.0
 10
136.846394057227
 20
137.8932107892822
 30
0.0
 10
136.6778230778618
 20
137.7757856645283
 30
0.0
 10
136.3095534837486
 20
137.5625892035799
 30
0.0
 10
136.1084916264783
 20
137.465415085155
 30
0.0
 10
135.6714607078934
 20
137.2920601979409
 30
0.0
 10
135.4393124947638
 20
137.2176606462841
 30
0.0
 10
134.9583022132649
 20
137.0972077667795
 30
0.0
 10
134.7062021304345
 20
137.0503493915135
 30
0.0
 10
134.1891326441755
 20
136.9873918945298
 30
0.0
 10
133.9276112731829
 20
136.9714882852507
 30
0.0
 10
133.3985205958626
 20
136.9714882852507
 30
0.0
  0
LINE
  5
83
330
1F
100
AcDbEntity
  8
0
  6
Continuous
 62
     7
370
    15
100
AcDbLine
 10
151.6130656246
 20
82.352247652
 30
0.0
 11
151.6130656246
 21
131.7625256296
 31
0.0
  0
SPLINE
  5
84
330
1F
100
AcDbEntity
  8
0
  6
Continuous
 62
     7
370
    15
100
AcDbSpline
210
0.0
220
0.0
230
1.0
 70
     8
 71
     3
 72
    10
 73
     6
 74
     0
 42
0.00000001
 43
0.00000001
 40
0.0
 40
0.0
 40
0.0
 40
0.0
 40
0.5
 40
0.5
 40
1.0
 40
1.0
 40
1.0
 40
1.0
 10
151.6130659345227
 20
82.35224748987864
 30
0.0
 10
151.6130659345227
 20
82.19236022168498
 30
0.0
 10
151.5517562832869
 20
82.03123296617038
 30
0.0
 10
151.3326566457518
 20
81.79713396781554
 30
0.0
 10
151.1746084394383
 20
81.72560719422432
 30
0.0
 10
151.0130659345227
 20
81.72560719422432
 30
0.0
  0
SPLINE
  5
85
330
1F
100
AcDbEntity
  8
0
  6
Continuous
 62
     7
370
    15
100
AcDbSpline
210
0.0
220
0.0
230
1.0
 70
    24
 71
     3
 72
    12
 73
     8
 74
     0
 42
0.00000001
 43
0.00000001
 40
0.0
 40
0.0
 40
0.0
 40
0.0
 40
0.2500000000000033
 40
0.2500000000000033
 40
0.5000000000000067
 40
0.5000000000000067
 40
1.0
 40
1.0
 40
1.0
 40
1.0
 10
151.0130659345227
 20
131.7625248904715
 30
0.0
 10
151.1033050022098
 20
131.7625248904715
 30
0.0
 10
151.1942031163162
 20
131.7625248904715
 30
0.0
 10
151.3488001528048
 20
131.7625248904715
 30
0.0
 10
151.4137785689129
 20
131.7625248904715
 30
0.0
 10
151.5656135968491
 20
131.7625248904715
 30
0.0
 10
151.6130659345227
 20
131.7625248904715
 30
0.0
 10
151.6130659345227
 20
131.7625248904715
 30
0.0
  0
SPLINE
  5
86
330
1F
100
AcDbEntity
  8
0
  6
Continuous
 62
     7
370
    15
100
AcDbSpline
210
0.0
220
0.0
230
1.0
 70
     8
 71
     3
 72
     8
 73
     4
 74
     0
 42
0.00000001
 43
0.00000001
 40
0.0
 40
0.0
 40
0.0
 40
0.0
 40
1.0
 40
1.0
 40
1.0
 40
1.0
 10
147.0549987660118
 20
81.72560719422432
 30
0.0
 10
146.559519105346
 20
82.62113328215769
 30
0.0
 10
146.0654050573039
 20
83.51741769720994
 30
0.0
 10
145.5730659345227
 20
84.41468773141663
 30
0.0
  0
LINE
  5
87
330
1F
100
AcDbEntity
  8
0
  6
Continuous
 62
     7
370
    15
100
AcDbLine
 10
145.5730661992
 20
84.4146875705
 30
0.0
 11
145.5730661992
 21
131.7625256296
 31
0.0
  0
SPLINE
  5
88
330
1F
100
AcDbEntity
  8
0
  6
Continuous
 62
     7
370
    15
100
AcDbSpline
210
0.0
220
0.0
230
1.0
 70
    24
 71
     3
 72
     8
 73
     4
 74
     0
 42
0.00000001
 43
0.00000001
 40
0.0
 40
0.0
 40
0.0
 40
0.0
 40
1.0
 40
1.0
 40
1.0
 40
1.0
 10
145.5730659345227
 20
131.7625248904715
 30
0.0
 10
146.0530179288876
 20
131.7625248904715
 30
0.0
 10
146.5483186578612
 20
131.7625248904715
 30
0.0
 10
147.0549987660118
 20
131.7625248904715
 30
0.0
  0
LINE
  5
89
330
1F
100
AcDbEntity
  8
0
  6
Continuous
 62
     7
370
    15
100
AcDbLine
 10
125.6630659345
 20
80.7125257369
 30
0.0
 11
125.6630659345
 21
143.1125240441
 31
0.0
  0
LINE
  5
8A
330
1F
100
AcDbEntity
  8
0
  6
Continuous
 62
     7
370
    15
100
AcDbLine
 10
141.7530659828
 20
84.4146875705
 30
0.0
 11
141.7530659828
 21
131.7625256296
 31
0.0
  0
SPLINE
  5
8B
330
1F
100
AcDbEntity
  8
0
  6
Continuous
 62
     7
370
    15
100
AcDbSpline
210
0.0
220
0.0
230
1.0
 70
     8
 71
     3
 72
     8
 73
     4
 74
     0
 42
0.00000001
 43
0.00000001
 40
0.0
 40
0.0
 40
0.0
 40
0.0
 40
1.0
 40
1.0
 40
1.0
 40
1.0
 10
141.7530659345227
 20
84.41468773141662
 30
0.0
 10
141.2607268117415
 20
83.51741769720992
 30
0.0
 10
140.7666127636994
 20
82.62113328215767
 30
0.0
 10
140.2711331030337
 20
81.72560719422432
 30
0.0
  0
SPLINE
  5
8C
330
1F
100
AcDbEntity
  8
0
  6
Continuous
 62
     7
370
    15
100
AcDbSpline
210
0.0
220
0.0
230
1.0
 70
    24
 71
     3
 72
     8
 73
     4
 74
     0
 42
0.00000001
 43
0.00000001
 40
0.0
 40
0.0
 40
0.0
 40
0.0
 40
1.0
 40
1.0
 40
1.0
 40
1.0
 10
140.2711331030337
 20
131.7625248904715
 30
0.0
 10
140.7778132111842
 20
131.7625248904715
 30
0.0
 10
141.2731139401578
 20
131.7625248904715
 30
0.0
 10
141.7530659345227
 20
131.7625248904715
 30
0.0
  0
ARC
  5
8D
330
1F
100
AcDbEntity
  8
0
  6
Continuous
 62
     7
370
    15
100
AcDbCircle
 10
133.663902533
 20
123.8089723492
 30
0.0
 40
4.117392325620586
100
AcDbArc
 50
20.6101782804
 51
159.7676302207
  0
SPLINE
  5
8E
330
1F
100
AcDbEntity
  8
0
  6
Continuous
 62
     7
370
    15
100
AcDbSpline
210
0.0
220
0.0
230
1.0
 70
     8
 71
     3
 72
    10
 73
     6
 74
     0
 42
0.00000001
 43
0.00000001
 40
0.0
 40
0.0
 40
0.0
 40
0.0
 40
0.5
 40
0.5
 40
1.0
 40
1.0
 40
1.0
 40
1.0
 10
142.1473634662136
 20
138.3125248904715
 30
0.0
 10
142.0258232025452
 20
138.3872510576832
 30
0.0
 10
141.9244888421962
 20
138.4961960736
 30
0.0
 10
141.7888498993078
 20
138.7466265543616
 30
0.0
 10
141.7530659345227
 20
138.8890459164606
 30
0.0
 10
141.7530659345227
 20
139.0321787415073
 30
0.0
  0
SPLINE
  5
8F
330
1F
100
AcDbEntity
  8
0
  6
Continuous
 62
     7
370
    15
100
AcDbSpline
210
0.0
220
0.0
230
1.0
 70
    24
 71
     3
 72
    12
 73
     8
 74
     0
 42
0.00000001
 43
0.00000001
 40
0.0
 40
0.0
 40
0.0
 40
0.0
 40
0.2500000000000037
 40
0.2500000000000037
 40
0.5000000000000074
 40
0.5000000000000074
 40
1.0
 40
1.0
 40
1.0
 40
1.0
 10
142.5530659345227
 20
138.3125248904715
 30
0.0
 10
142.5031892522053
 20
138.3125248904715
 30
0.0
 10
142.4551860588017
 20
138.3125248904715
 30
0.0
 10
142.3721379560897
 20
138.3125248904715
 30
0.0
 10
142.3360083766219
 20
138.3125248904715
 30
0.0
 10
142.2400963456776
 20
138.3125248904715
 30
0.0
 10
142.1903376777088
 20
138.3125248904715
 30
0.0
 10
142.1473634662136
 20
138.3125248904715
 30
0.0
  0
SPLINE
  5
90
330
1F
100
AcDbEntity
  8
0
  6
Continuous
 62
     7
370
    15
100
AcDbSpline
210
0.0
220
0.0
230
1.0
 70
    24
 71
     3
 72
    14
 73
    10
 74
     0
 42
0.00000001
 43
0.00000001
 40
0.0
 40
0.0
 40
0.0
 40
0.0
 40
0.1249999999999991
 40
0.1249999999999991
 40
0.2499999999999982
 40
0.2499999999999982
 40
0.4999999999999998
 40
0.4999999999999998
 40
1.0
 40
1.0
 40
1.0
 40
1.0
 10
142.5530659345227
 20
85.51252489047148
 30
0.0
 10
142.4846280866363
 20
85.51252489047148
 30
0.0
 10
142.4190780478712
 20
85.5125248904715
 30
0.0
 10
142.3146514084632
 20
85.5125248904715
 30
0.0
 10
142.2721067987018
 20
85.5125248904715
 30
0.0
 10
142.1594973381616
 20
85.51252489047148
 30
0.0
 10
142.1039582911421
 20
85.51252489047148
 30
0.0
 10
141.9613465956783
 20
85.51252489047148
 30
0.0
 10
141.8979412406825
 20
85.51252489047148
 30
0.0
 10
141.850740736855
 20
85.51252489047148
 30
0.0
  0
SPLINE
  5
91
330
1F
100
AcDbEntity
  8
0
  6
Continuous
 62
     7
370
    15
100
AcDbSpline
210
0.0
220
0.0
230
1.0
 70
     8
 71
     3
 72
    10
 73
     6
 74
     0
 42
0.00000001
 43
0.00000001
 40
0.0
 40
0.0
 40
0.0
 40
0.0
 40
0.5
 40
0.5
 40
1.0
 40
1.0
 40
1.0
 40
1.0
 10
141.7530659345227
 20
132.0483915219329
 30
0.0
 10
141.7530659345227
 20
132.0006200139396
 30
0.0
 10
141.7552271781199
 20
131.9529102918779
 30
0.0
 10
141.76389855198
 20
131.8576151743296
 30
0.0
 10
141.770427734936
 20
131.809922610363
 30
0.0
 10
141.7792135576828
 20
131.7625248904715
 30
0.0
  0
SPLINE
  5
92
330
1F
100
AcDbEntity
  8
0
  6
Continuous
 62
     7
370
    15
100
AcDbSpline
210
0.0
220
0.0
230
1.0
 70
    24
 71
     3
 72
    14
 73
    10
 74
     0
 42
0.00000001
 43
0.00000001
 40
0.0
 40
0.0
 40
0.0
 40
0.0
 40
0.5000000000000013
 40
0.5000000000000013
 40
0.750000000000002
 40
0.750000000000002
 40
0.875000000000001
 40
0.875000000000001
 40
1.0
 40
1.0
 40
1.0
 40
1.0
 10
145.4753911321904
 20
85.51252489047148
 30
0.0
 10
145.4286064271422
 20
85.51252489047148
 30
0.0
 10
145.3665552303626
 20
85.5125248904715
 30
0.0
 10
145.223163591812
 20
85.51252489047148
 30
0.0
 10
145.1670199382608
 20
85.51252489047148
 30
0.0
 10
145.0540689161247
 20
85.51252489047148
 30
0.0
 10
145.0110681540865
 20
85.51252489047148
 30
0.0
 10
144.90700544378
 20
85.51252489047148
 30
0.0
 10
144.8416732054231
 20
85.5125248904715
 30
0.0
 10
144.7730659345227
 20
85.51252489047148
 30
0.0
  0
SPLINE
  5
93
330
1F
100
AcDbEntity
  8
0
  6
Continuous
 62
     7
370
    15
100
AcDbSpline
210
0.0
220
0.0
230
1.0
 70
    24
 71
     3
 72
    12
 73
     8
 74
     0
 42
0.00000001
 43
0.00000001
 40
0.0
 40
0.0
 40
0.0
 40
0.0
 40
0.5000000000000017
 40
0.5000000000000017
 40
0.7500000000000008
 40
0.7500000000000008
 40
1.0
 40
1.0
 40
1.0
 40
1.0
 10
145.1787684028317
 20
138.3125248904715
 30
0.0
 10
145.1356828532208
 20
138.3125248904715
 30
0.0
 10
145.0865306514715
 20
138.3125248904715
 30
0.0
 10
144.9900580571836
 20
138.3125248904715
 30
0.0
 10
144.953956472049
 20
138.3125248904715
 30
0.0
 10
144.8708507141877
 20
138.3125248904715
 30
0.0
 10
144.8228541172214
 20
138.3125248904715
 30
0.0
 10
144.7730659345227
 20
138.3125248904715
 30
0.0
  0
SPLINE
  5
94
330
1F
100
AcDbEntity
  8
0
  6
Continuous
 62
     7
370
    15
100
AcDbSpline
210
0.0
220
0.0
230
1.0
 70
     8
 71
     3
 72
    10
 73
     6
 74
     0
 42
0.00000001
 43
0.00000001
 40
0.0
 40
0.0
 40
0.0
 40
0.0
 40
0.5
 40
0.5
 40
1.0
 40
1.0
 40
1.0
 40
1.0
 10
145.5730659345227
 20
139.0321787415073
 30
0.0
 10
145.5730659345227
 20
138.8884086836892
 30
0.0
 10
145.5370168758038
 20
138.7459893211941
 30
0.0
 10
145.4015080150298
 20
138.4960950278368
 30
0.0
 10
145.3016320219336
 20
138.3880646915887
 30
0.0
 10
145.1787684028317
 20
138.3125248904715
 30
0.0
  0
SPLINE
  5
95
330
1F
100
AcDbEntity
  8
0
  6
Continuous
 62
     7
370
    15
100
AcDbSpline
210
0.0
220
0.0
230
1.0
 70
     8
 71
     3
 72
    10
 73
     6
 74
     0
 42
0.00000001
 43
0.00000001
 40
0.0
 40
0.0
 40
0.0
 40
0.0
 40
0.5
 40
0.5
 40
1.0
 40
1.0
 40
1.0
 40
1.0
 10
145.5469183113626
 20
131.7625248904715
 30
0.0
 10
145.5556079542743
 20
131.8094037397896
 30
0.0
 10
145.5621470190247
 20
131.8568262051909
 30
0.0
 10
145.5709056534178
 20
131.9527630037776
 30
0.0
 10
145.5730659345227
 20
132.0006782917881
 30
0.0
 10
145.5730659345227
 20
132.0483915219327
 30
0.0
  0
LINE
  5
96
330
1F
100
AcDbEntity
  8
0
  6
Continuous
 62
     7
370
    15
100
AcDbLine
 10
144.7730656955
 20
138.3125247474
 30
0.0
 11
142.5530664865
 21
138.3125247474
 31
0.0
  0
LINE
  5
97
330
1F
100
AcDbEntity
  8
0
  6
Continuous
 62
     7
370
    15
100
AcDbLine
 10
144.7730656955
 20
85.5125250335
 30
0.0
 11
142.5530664865
 21
85.5125250335
 31
0.0
  0
LINE
  5
98
330
1F
100
AcDbEntity
  8
0
  6
Continuous
 62
     7
370
    15
100
AcDbLine
 10
123.6630658395
 20
87.692093667
 30
0.0
 11
123.6630658395
 21
136.132956114
 31
0.0
  0
LINE
  5
99
330
1F
100
AcDbEntity
  8
0
  6
Continuous
 62
     7
370
    15
100
AcDbLine
 10
103.863065714
 20
88.6840788688
 30
0.0
 11
103.863065714
 21
89.9487869854
 31
0.0
  0
SPLINE
  5
9A
330
1F
100
AcDbEntity
  8
0
  6
Continuous
 62
     7
370
    15
100
AcDbSpline
210
0.0
220
0.0
230
1.0
 70
     8
 71
     3
 72
    14
 73
    10
 74
     0
 42
0.00000001
 43
0.00000001
 40
0.0
 40
0.0
 40
0.0
 40
0.0
 40
0.25
 40
0.25
 40
0.5
 40
0.5
 40
0.75
 40
0.75
 40
1.0
 40
1.0
 40
1.0
 40
1.0
 10
103.084778816607
 20
91.07937356691154
 30
0.0
 10
103.1414054918091
 20
90.97167611307468
 30
0.0
 10
103.2359281520988
 20
90.86888653135536
 30
0.0
 10
103.418973127661
 20
90.6705292191352
 30
0.0
 10
103.5105997046158
 20
90.57446971045697
 30
0.0
 10
103.669453022309
 20
90.38694066774772
 30
0.0
 10
103.7373436299306
 20
90.29553169496415
 30
0.0
 10
103.8342606556382
 20
90.117155474054
 30
0.0
 10
103.8630659345233
 20
90.02993356780783
 30
0.0
 10
103.8630659345233
 20
89.94878735927358
 30
0.0
  0
SPLINE
  5
9B
330
1F
100
AcDbEntity
  8
0
  6
Continuous
 62
     7
370
    15
100
AcDbSpline
210
0.0
220
0.0
230
1.0
 70
     8
 71
     3
 72
    14
 73
    10
 74
     0
 42
0.00000001
 43
0.00000001
 40
0.0
 40
0.0
 40
0.0
 40
0.0
 40
0.1249999999999975
 40
0.1249999999999975
 40
0.249999999999995
 40
0.249999999999995
 40
0.4999999999999953
 40
0.4999999999999953
 40
1.0
 40
1.0
 40
1.0
 40
1.0
 10
102.4630659345227
 20
91.52605542919086
 30
0.0
 10
102.5116103431799
 20
91.53180374247115
 30
0.0
 10
102.5645256979648
 20
91.5287028538149
 30
0.0
 10
102.6598210429478
 20
91.50650800965258
 30
0.0
 10
102.7000720402328
 20
91.48927578255672
 30
0.0
 10
102.8043420537458
 20
91.43294786610466
 30
0.0
 10
102.8546640288991
 20
91.38876152015887
 30
0.0
 10
102.9823469764245
 20
91.25775362130824
 30
0.0
 10
103.0384324234867
 20
91.16751910107794
 30
0.0
 10
103.0847788166085
 20
91.07937356691207
 30
0.0
  0
SPLINE
  5
9C
330
1F
100
AcDbEntity
  8
0
  6
Continuous
 62
     7
370
    15
100
AcDbSpline
210
0.0
220
0.0
230
1.0
 70
     8
 71
     3
 72
     8
 73
     4
 74
     0
 42
0.00000001
 43
0.00000001
 40
0.0
 40
0.0
 40
0.0
 40
0.0
 40
1.0
 40
1.0
 40
1.0
 40
1.0
 10
100.1945408415765
 20
91.21621014260808
 30
0.0
 10
100.9291178680594
 20
91.33483515367702
 30
0.0
 10
101.6925929374551
 20
91.43482102581329
 30
0.0
 10
102.4630659345227
 20
91.52605542919085
 30
0.0
  0
SPLINE
  5
9D
330
1F
100
AcDbEntity
  8
0
  6
Continuous
 62
     7
370
    15
100
AcDbSpline
210
0.0
220
0.0
230
1.0
 70
     8
 71
     3
 72
    14
 73
    10
 74
     0
 42
0.00000001
 43
0.00000001
 40
0.0
 40
0.0
 40
0.0
 40
0.0
 40
0.500000000000001
 40
0.500000000000001
 40
0.7500000000000004
 40
0.7500000000000004
 40
0.8750000000000003
 40
0.8750000000000003
 40
1.0
 40
1.0
 40
1.0
 40
1.0
 10
94.91306593452272
 20
91.04258712507641
 30
0.0
 10
95.80521206507629
 20
91.04186489887577
 30
0.0
 10
96.69518850086989
 20
91.04645110533323
 30
0.0
 10
98.0217836679455
 20
91.07417610972476
 30
0.0
 10
98.46263059644423
 20
91.08678264734893
 30
0.0
 10
99.11907083386664
 20
91.11779879535639
 30
0.0
 10
99.33708449045852
 20
91.13014196798316
 30
0.0
 10
99.7697933441413
 20
91.16316602314645
 30
0.0
 10
99.98506980930611
 20
91.18238318828487
 30
0.0
 10
100.1945408415765
 20
91.21621014260808
 30
0.0
  0
SPLINE
  5
9E
330
1F
100
AcDbEntity
  8
0
  6
Continuous
 62
     7
370
    15
100
AcDbSpline
210
0.0
220
0.0
230
1.0
 70
     8
 71
     3
 72
     8
 73
     4
 74
     0
 42
0.00000001
 43
0.00000001
 40
0.0000005163856998
 40
0.0000005163856998
 40
0.0000005163856998
 40
0.0000005163856998
 40
0.000026289209185
 40
0.000026289209185
 40
0.000026289209185
 40
0.000026289209185
 10
94.9030210041151
 20
91.0525709981732
 30
0.0
 10
94.90634874232293
 20
91.04923675130408
 30
0.0
 10
94.90969719529853
 20
91.04590879402876
 30
0.0
 10
94.91306593452269
 20
91.04258712507641
 30
0.0
  0
SPLINE
  5
9F
330
1F
100
AcDbEntity
  8
0
  6
Continuous
 62
     7
370
    15
100
AcDbSpline
210
0.0
220
0.0
230
1.0
 70
     8
 71
     3
 72
     8
 73
     4
 74
     0
 42
0.00000001
 43
0.00000001
 40
0.0000005099763573
 40
0.0000005099763573
 40
0.0000005099763573
 40
0.0000005099763573
 40
0.0000262827998699
 40
0.0000262827998699
 40
0.0000262827998699
 40
0.0000262827998699
 10
94.9130659345227
 20
132.7824626558666
 30
0.0
 10
94.90969719529495
 20
132.7791409869107
 30
0.0
 10
94.90634874231581
 20
132.7758130296318
 30
0.0
 10
94.90302100410447
 20
132.7724787827591
 30
0.0
  0
SPLINE
  5
A0
330
1F
100
AcDbEntity
  8
0
  6
Continuous
 62
     7
370
    15
100
AcDbSpline
210
0.0
220
0.0
230
1.0
 70
     8
 71
     3
 72
    10
 73
     6
 74
     0
 42
0.00000001
 43
0.00000001
 40
0.0
 40
0.0
 40
0.0
 40
0.0
 40
0.5
 40
0.5
 40
1.0
 40
1.0
 40
1.0
 40
1.0
 10
98.46306593452273
 20
132.7356122822992
 30
0.0
 10
97.87548038743213
 20
132.7566778025356
 30
0.0
 10
97.28473399397174
 20
132.7674362884079
 30
0.0
 10
96.10071482867288
 20
132.7808010689435
 30
0.0
 10
95.50730084046742
 20
132.7829437116081
 30
0.0
 10
94.91306593452272
 20
132.7824626558666
 30
0.0
  0
SPLINE
  5
A1
330
1F
100
AcDbEntity
  8
0
  6
Continuous
 62
     7
370
    15
100
AcDbSpline
210
0.0
220
0.0
230
1.0
 70
     8
 71
     3
 72
    18
 73
    14
 74
     0
 42
0.00000001
 43
0.00000001
 40
0.0
 40
0.0
 40
0.0
 40
0.0
 40
0.2500000000000009
 40
0.2500000000000009
 40
0.500000000000001
 40
0.500000000000001
 40
0.7500000000000011
 40
0.7500000000000011
 40
0.875000000000001
 40
0.875000000000001
 40
0.9375000000000006
 40
0.9375000000000006
 40
1.0
 40
1.0
 40
1.0
 40
1.0
 10
99.86306593452272
 20
133.7566325628345
 30
0.0
 10
99.86306593452274
 20
133.6734256539773
 30
0.0
 10
99.82721683458445
 20
133.5846889986637
 30
0.0
 10
99.70234509855052
 20
133.4025638081035
 30
0.0
 10
99.61194468090267
 20
133.3074337594769
 30
0.0
 10
99.38970202616049
 20
133.1182522503525
 30
0.0
 10
99.25993723971472
 20
133.0233070822578
 30
0.0
 10
99.01929978240321
 20
132.8850283746779
 30
0.0
 10
98.93153248426576
 20
132.8393179413755
 30
0.0
 10
98.77700839705895
 20
132.781494636154
 30
0.0
 10
98.7203975110042
 20
132.7637798721162
 30
0.0
 10
98.5963534800976
 20
132.7392405688832
 30
0.0
 10
98.52863880507931
 20
132.733261430345
 30
0.0
 10
98.46306593452272
 20
132.7356122822992
 30
0.0
  0
LINE
  5
A2
330
1F
100
AcDbEntity
  8
0
  6
Continuous
 62
     7
370
    15
100
AcDbLine
 10
99.8630650583
 20
133.7566325481
 30
0.0
 11
99.8630650583
 21
134.9405707832
 31
0.0
  0
SPLINE
  5
A3
330
1F
100
AcDbEntity
  8
0
  6
Continuous
 62
     7
370
    15
100
AcDbSpline
210
0.0
220
0.0
230
1.0
 70
     8
 71
     3
 72
    24
 73
    20
 74
     0
 42
0.00000001
 43
0.00000001
 40
0.0
 40
0.0
 40
0.0
 40
0.0
 40
0.0010489815523775
 40
0.0637843212772741
 40
0.1272220630088516
 40
0.1903789073370505
 40
0.2526748662763491
 40
0.3146354150030102
 40
0.3770891884518245
 40
0.4393540587943444
 40
0.5008133488401828
 40
0.5621845177353679
 40
0.6248438462901906
 40
0.6874304788646655
 40
0.7496743245911356
 40
0.811984857412469
 40
0.8750960476811308
 40
0.9384412548145236
 40
1.0
 40
1.0
 40
1.0
 40
1.0
 10
112.4319719392496
 20
88.25501669602492
 30
0.0
 10
112.4315252734989
 20
88.25495805105844
 30
0.0
 10
112.4043653375753
 20
88.25139208807775
 30
0.0
 10
112.4999952607071
 20
88.26425669755297
 30
0.0
 10
112.7335484367276
 20
88.29349117989302
 30
0.0
 10
113.129104388962
 20
88.34011039063444
 30
0.0
 10
113.656144389332
 20
88.3902911900596
 30
0.0
 10
114.2996748311683
 20
88.43466986350265
 30
0.0
 10
115.038348665438
 20
88.46161306001345
 30
0.0
 10
115.8358633355569
 20
88.46508480831558
 30
0.0
 10
116.6624423853214
 20
88.43745936202215
 30
0.0
 10
117.4879652067401
 20
88.37897821904352
 30
0.0
 10
118.2800916776557
 20
88.29353515564493
 30
0.0
 10
119.0126640564931
 20
88.19179998715242
 30
0.0
 10
119.6483042383138
 20
88.08395633610449
 30
0.0
 10
120.1702151688601
 20
87.98232494082967
 30
0.0
 10
120.551844006499
 20
87.89984297653716
 30
0.0
 10
120.8026586824323
 20
87.84369086903025
 30
0.0
 10
120.8317799981396
 20
87.83684201811738
 30
0.0
 10
120.8461323994833
 20
87.83346657114127
 30
0.0
  0
SPLINE
  5
A4
330
1F
100
AcDbEntity
  8
0
  6
Continuous
 62
     7
370
    15
100
AcDbSpline
210
0.0
220
0.0
230
1.0
 70
     8
 71
     3
 72
    24
 73
    20
 74
     0
 42
0.00000001
 43
0.00000001
 40
0.0
 40
0.0
 40
0.0
 40
0.0
 40
0.061438429114026
 40
0.1250736777967296
 40
0.1884253375120635
 40
0.2508623992448768
 40
0.3129665476325514
 40
0.3753451442328022
 40
0.4377328732174486
 40
0.499092717251918
 40
0.560580729454827
 40
0.622946985474185
 40
0.6854686070210457
 40
0.7475477863222202
 40
0.8098225081553685
 40
0.873068419947611
 40
0.936404185690527
 40
0.9991757203144552
 40
1.0
 40
1.0
 40
1.0
 40
1.0
 10
120.8460779171127
 20
135.9915534074793
 30
0.0
 10
120.8314771086605
 20
135.9881852496063
 30
0.0
 10
120.8017534188095
 20
135.981328500522
 30
0.0
 10
120.5490154188235
 20
135.9249906806259
 30
0.0
 10
120.1660201198024
 20
135.8421328677406
 30
0.0
 10
119.6436641629194
 20
135.7402261195196
 30
0.0
 10
119.0088798182178
 20
135.6323875496305
 30
0.0
 10
118.2786560816036
 20
135.5309212964015
 30
0.0
 10
117.4881879866925
 20
135.4458592178343
 30
0.0
 10
116.6637042592348
 20
135.3876578608777
 30
0.0
 10
115.8366678787547
 20
135.3600734131932
 30
0.0
 10
115.0383434197643
 20
135.3635673417273
 30
0.0
 10
114.2985196687647
 20
135.390521000401
 30
0.0
 10
113.6542647973051
 20
135.4348765010144
 30
0.0
 10
113.1268579402075
 20
135.4850816847372
 30
0.0
 10
112.7321926998944
 20
135.5316891447824
 30
0.0
 10
112.4996640143062
 20
135.5608923216207
 30
0.0
 10
112.40428478564
 20
135.5736504603379
 30
0.0
 10
112.4312177299668
 20
135.5701106304191
 30
0.0
 10
112.4315668139296
 20
135.5700647498856
 30
0.0
  0
SPLINE
  5
A5
330
1F
100
AcDbEntity
  8
0
  6
Continuous
 62
     7
370
    15
100
AcDbSpline
210
0.0
220
0.0
230
1.0
 70
     8
 71
     3
 72
     9
 73
     5
 74
     0
 42
0.00000001
 43
0.00000001
 40
0.0
 40
0.0
 40
0.0
 40
0.0
 40
0.7009339503679092
 40
0.9999999999999999
 40
0.9999999999999999
 40
0.9999999999999999
 40
0.9999999999999999
 10
93.78384950195131
 20
92.21124519066909
 30
0.0
 10
93.79299017290113
 20
92.19341590690819
 30
0.0
 10
93.80603087515995
 20
92.1679794392474
 30
0.0
 10
93.82119433842823
 20
92.22185879872094
 30
0.0
 10
93.82572921548662
 20
92.2379722859154
 30
0.0
  0
LINE
  5
A6
330
1F
100
AcDbEntity
  8
0
  6
Continuous
 62
     7
370
    15
100
AcDbLine
 10
93.7630661074
 20
92.2218473669
 30
0.0
 11
93.7630661074
 21
131.6032024141
 31
0.0
  0
SPLINE
  5
A7
330
1F
100
AcDbEntity
  8
0
  6
Continuous
 62
     7
370
    15
100
AcDbSpline
210
0.0
220
0.0
230
1.0
 70
     8
 71
     3
 72
    10
 73
     6
 74
     0
 42
0.00000001
 43
0.00000001
 40
0.0
 40
0.0
 40
0.0
 40
0.0
 40
0.5
 40
0.5
 40
1.0
 40
1.0
 40
1.0
 40
1.0
 10
93.82572930924613
 20
131.5870774352522
 30
0.0
 10
93.81682502013737
 20
131.6328189544654
 30
0.0
 10
93.80030963994439
 20
131.6500097939344
 30
0.0
 10
93.77320169388278
 20
131.6496865169987
 30
0.0
 10
93.76306593452271
 20
131.6318089747022
 30
0.0
 10
93.76306593452271
 20
131.6032026369496
 30
0.0
  0
SPLINE
  5
A8
330
1F
100
AcDbEntity
  8
0
  6
Continuous
 62
     7
370
    15
100
AcDbSpline
210
0.0
220
0.0
230
1.0
 70
     8
 71
     3
 72
    26
 73
    22
 74
     0
 42
0.00000001
 43
0.00000001
 40
0.0
 40
0.0
 40
0.0
 40
0.0
 40
0.2500000000000165
 40
0.2500000000000165
 40
0.3750000000000256
 40
0.3750000000000256
 40
0.4375000000000291
 40
0.4375000000000291
 40
0.4687500000000291
 40
0.4687500000000291
 40
0.5000000000000292
 40
0.5000000000000292
 40
0.5312500000000293
 40
0.5312500000000293
 40
0.5625000000000293
 40
0.5625000000000293
 40
0.625000000000026
 40
0.625000000000026
 40
0.7500000000000173
 40
0.7500000000000173
 40
1.0
 40
1.0
 40
1.0
 40
1.0
 10
94.58721958062722
 20
132.3026442240693
 30
0.0
 10
94.54861905775876
 20
132.1848695277139
 30
0.0
 10
94.50232205520449
 20
132.0604798415519
 30
0.0
 10
94.40838270677057
 20
131.8552605091985
 30
0.0
 10
94.37307123985711
 20
131.783687642752
 30
0.0
 10
94.30689126411143
 20
131.6677344101516
 30
0.0
 10
94.28235289744322
 20
131.6271498753413
 30
0.0
 10
94.23898015188942
 20
131.5630081934696
 30
0.0
 10
94.22347175046423
 20
131.5411417681845
 30
0.0
 10
94.18842910587719
 20
131.4955474998414
 30
0.0
 10
94.16887881515743
 20
131.4718772088739
 30
0.0
 10
94.12695153478681
 20
131.427260649534
 30
0.0
 10
94.10429942455517
 20
131.4063806370161
 30
0.0
 10
94.06332571046855
 20
131.3755072232652
 30
0.0
 10
94.04572641057312
 20
131.3656683534328
 30
0.0
 10
94.00109942471697
 20
131.3466787377367
 30
0.0
 10
93.98054020206365
 20
131.3463544130832
 30
0.0
 10
93.92941476256696
 20
131.3555778539595
 30
0.0
 10
93.90850334957842
 20
131.3768247501764
 30
0.0
 10
93.8570534420175
 20
131.4507936290072
 30
0.0
 10
93.83938814271295
 20
131.5169117223219
 30
0.0
 10
93.82572930924613
 20
131.5870774352522
 30
0.0
  0
SPLINE
  5
A9
330
1F
100
AcDbEntity
  8
0
  6
Continuous
 62
     7
370
    15
100
AcDbSpline
210
0.0
220
0.0
230
1.0
 70
     8
 71
     3
 72
    10
 73
     6
 74
     0
 42
0.00000001
 43
0.00000001
 40
0.0
 40
0.0
 40
0.0
 40
0.0
 40
0.5
 40
0.5
 40
1.0
 40
1.0
 40
1.0
 40
1.0
 10
94.9030210041045
 20
132.7724787827591
 30
0.0
 10
94.83546174918625
 20
132.7047873899494
 30
0.0
 10
94.77182509384977
 20
132.6300802251957
 30
0.0
 10
94.66160433927791
 20
132.4711140927691
 30
0.0
 10
94.6147880460553
 20
132.3867588267611
 30
0.0
 10
94.58721958062722
 20
132.3026442240693
 30
0.0
  0
SPLINE
  5
AA
330
1F
100
AcDbEntity
  8
0
  6
Continuous
 62
     7
370
    15
100
AcDbSpline
210
0.0
220
0.0
230
1.0
 70
     8
 71
     3
 72
    10
 73
     6
 74
     0
 42
0.00000001
 43
0.00000001
 40
0.0
 40
0.0
 40
0.0
 40
0.0
 40
0.5
 40
0.5
 40
1.0
 40
1.0
 40
1.0
 40
1.0
 10
94.58721958062726
 20
91.52240555687352
 30
0.0
 10
94.61469699538124
 20
91.43856876040563
 30
0.0
 10
94.66140562567065
 20
91.35425827281648
 30
0.0
 10
94.7716840884166
 20
91.19513704232979
 30
0.0
 10
94.8355716270305
 20
91.12015229824014
 30
0.0
 10
94.90302100411512
 20
91.0525709981732
 30
0.0
  0
SPLINE
  5
AB
330
1F
100
AcDbEntity
  8
0
  6
Continuous
 62
     7
370
    15
100
AcDbSpline
210
0.0
220
0.0
230
1.0
 70
     8
 71
     3
 72
    24
 73
    20
 74
     0
 42
0.00000001
 43
0.00000001
 40
0.0
 40
0.0
 40
0.0
 40
0.0
 40
0.25
 40
0.25
 40
0.374999999999999
 40
0.374999999999999
 40
0.4374999999999993
 40
0.4374999999999993
 40
0.4687499999999994
 40
0.4687499999999994
 40
0.4999999999999995
 40
0.4999999999999995
 40
0.5624999999999971
 40
0.5624999999999971
 40
0.6249999999999947
 40
0.6249999999999947
 40
0.7499999999999947
 40
0.7499999999999947
 40
1.0
 40
1.0
 40
1.0
 40
1.0
 10
93.82572930924613
 20
92.23797234569075
 30
0.0
 10
93.83948242791634
 20
92.30862240368104
 30
0.0
 10
93.85725499532221
 20
92.37522051644595
 30
0.0
 10
93.90950608687757
 20
92.44931853667916
 30
0.0
 10
93.93054116245914
 20
92.47057634384072
 30
0.0
 10
93.98344157008756
 20
92.47872226998696
 30
0.0
 10
94.00454724296547
 20
92.4777824665912
 30
0.0
 10
94.05059941164346
 20
92.45676647501385
 30
0.0
 10
94.06896988362683
 20
92.44585766890623
 30
0.0
 10
94.11052151869254
 20
92.41322275795885
 30
0.0
 10
94.13308819144946
 20
92.3917307775875
 30
0.0
 10
94.19586920790947
 20
92.32326483400118
 30
0.0
 10
94.22899896887738
 20
92.27719037579608
 30
0.0
 10
94.28591665536237
 20
92.19218248746142
 30
0.0
 10
94.31010268086615
 20
92.15190218628003
 30
0.0
 10
94.37531063124591
 20
92.03696595981408
 30
0.0
 10
94.41002669143715
 20
91.96638297466708
 30
0.0
 10
94.50324196176804
 20
91.76217721558848
 30
0.0
 10
94.5489144971287
 20
91.63927883326112
 30
0.0
 10
94.58721958062725
 20
91.52240555687355
 30
0.0
  0
SPLINE
  5
AC
330
1F
100
AcDbEntity
  8
0
  6
Continuous
 62
     7
370
    15
100
AcDbSpline
210
0.0
220
0.0
230
1.0
 70
     8
 71
     3
 72
    39
 73
    35
 74
     0
 42
0.00000001
 43
0.00000001
 40
-0.0927617886637356
 40
-0.0616743377207623
 40
-0.030500076223462
 40
0.0
 40
0.0305246490384816
 40
0.0617091123274743
 40
0.0928114042029832
 40
0.1239166645987923
 40
0.1551097448539246
 40
0.1867024395609537
 40
0.218502864336882
 40
0.2499297864556356
 40
0.2813812011895825
 40
0.3132533287758213
 40
0.3449219026492724
 40
0.3761678706300294
 40
0.4072644120176026
 40
0.4383207438064732
 40
0.4694504179500658
 40
0.5000106032944098
 40
0.5305632149021491
 40
0.5617341879522735
 40
0.5928054546981678
 40
0.6239201523279144
 40
0.655142027173563
 40
0.686788168993939
 40
0.7186080515199958
 40
0.7500598449507432
 40
0.781481699603017
 40
0.8133257226904516
 40
0.8449400523419824
 40
0.8761556140443509
 40
0.9072382113362644
 40
0.9383256622792377
 40
0.969499923776538
 40
1.0
 40
1.030524649038482
 40
1.061709112327474
 40
1.092811404202983
 10
184.8244956823461
 20
105.9248846925664
 30
0.0
 10
183.6627521574267
 20
105.8060026089622
 30
0.0
 10
182.5009051886781
 20
105.9250869907284
 30
0.0
 10
181.386217685771
 20
106.2822051732818
 30
0.0
 10
180.356637577426
 20
106.8427744320116
 30
0.0
 10
179.4640486578019
 20
107.5979018464826
 30
0.0
 10
178.7307528902689
 20
108.5164666589822
 30
0.0
 10
178.1874385963667
 20
109.5723632994162
 30
0.0
 10
177.842188237858
 20
110.7173271255059
 30
0.0
 10
177.7278333043971
 20
111.9100945914342
 30
0.0
 10
177.8428992501403
 20
113.1036848367256
 30
0.0
 10
178.1886268145973
 20
114.2507263078815
 30
0.0
 10
178.7322584163839
 20
115.3092811074839
 30
0.0
 10
179.4661157682928
 20
116.2293341879226
 30
0.0
 10
180.3584071214264
 20
116.9847226470215
 30
0.0
 10
181.3867193420155
 20
117.544837605971
 30
0.0
 10
182.5010212117616
 20
117.9007190806797
 30
0.0
 10
183.6633256169804
 20
118.0188560539722
 30
0.0
 10
184.8261205800093
 20
117.9003715746338
 30
0.0
 10
185.9408531666652
 20
117.5438572034817
 30
0.0
 10
186.9699229501511
 20
116.9831948174127
 30
0.0
 10
187.861978231685
 20
116.2273063336251
 30
0.0
 10
188.595190350507
 20
115.307225726553
 30
0.0
 10
189.1381270760783
 20
114.249686485833
 30
0.0
 10
189.4831703704814
 20
113.1034355544321
 30
0.0
 10
189.5982846378699
 20
111.9105985416222
 30
0.0
 10
189.4840676729838
 20
110.7173057390867
 30
0.0
 10
189.1383263953513
 20
109.5716819711906
 30
0.0
 10
188.5944799607773
 20
108.5148312835302
 30
0.0
 10
187.8605949183946
 20
107.5963556023773
 30
0.0
 10
186.9677889849889
 20
106.8417902501279
 30
0.0
 10
185.9385900385444
 20
106.2818056565242
 30
0.0
 10
184.8244956823461
 20
105.9248846925664
 30
0.0
 10
183.6627521574267
 20
105.8060026089622
 30
0.0
 10
182.5009051886781
 20
105.9250869907284
 30
0.0
  0
LINE
  5
AD
330
1F
100
AcDbEntity
  8
0
  6
Continuous
 62
     7
370
    15
100
AcDbLine
 10
192.7960232142
 20
90.9125251736
 30
0.0
 11
192.7960232142
 21
132.9125246073
 31
0.0
  0
LINE
  5
AE
330
1F
100
AcDbEntity
  8
0
  6
Continuous
 62
     7
370
    15
100
AcDbLine
 10
160.259922618
 20
132.7873436775
 30
0.0
 11
160.4312338177
 21
132.7754711773
 31
0.0
  0
SPLINE
  5
AF
330
1F
100
AcDbEntity
  8
0
  6
Continuous
 62
     7
370
    15
100
AcDbSpline
210
0.0
220
0.0
230
1.0
 70
     8
 71
     3
 72
    17
 73
    13
 74
     0
 42
0.00000001
 43
0.00000001
 40
0.0
 40
0.0
 40
0.0
 40
0.0
 40
0.0542202882145227
 40
0.1420892257150827
 40
0.2345665584311072
 40
0.3374089121701849
 40
0.451962975161346
 40
0.5747574253459208
 40
0.7000390623796502
 40
0.8214997994519743
 40
0.931511804781253
 40
1.0
 40
1.0
 40
1.0
 40
1.0
 10
166.0722211245137
 20
132.9072756733189
 30
0.0
 10
166.0769118597491
 20
132.9078609880687
 30
0.0
 10
166.0892043605744
 20
132.9093948589192
 30
0.0
 10
165.7536543989889
 20
132.8669114440862
 30
0.0
 10
165.141065684594
 20
132.8001010178559
 30
0.0
 10
164.2365407900458
 20
132.7258102265371
 30
0.0
 10
163.0945922583676
 20
132.6769435747323
 30
0.0
 10
161.8246140239999
 20
132.6835570570017
 30
0.0
 10
160.6103335390003
 20
132.7510674320793
 30
0.0
 10
159.6821590282915
 20
132.8412294880501
 30
0.0
 10
159.1644742067482
 20
132.9057723079245
 30
0.0
 10
159.1538644028248
 20
132.9072518751034
 30
0.0
 10
159.1497935596543
 20
132.9078195657025
 30
0.0
  0
SPLINE
  5
B0
330
1F
100
AcDbEntity
  8
0
  6
Continuous
 62
     7
370
    15
100
AcDbSpline
210
0.0
220
0.0
230
1.0
 70
     8
 71
     3
 72
     9
 73
     5
 74
     0
 42
0.00000001
 43
0.00000001
 40
0.0
 40
0.0
 40
0.0
 40
0.0
 40
0.2980240505822162
 40
1.0
 40
1.0
 40
1.0
 40
1.0
 10
159.7615793589192
 20
132.8368378843556
 30
0.0
 10
159.8002068676282
 20
132.8324088708598
 30
0.0
 10
159.9298189195197
 20
132.8175476088675
 30
0.0
 10
160.1237721293807
 20
132.799801217429
 30
0.0
 10
160.2599226180154
 20
132.7873436774502
 30
0.0
  0
SPLINE
  5
B1
330
1F
100
AcDbEntity
  8
0
  6
Continuous
 62
     7
370
    15
100
AcDbSpline
210
0.0
220
0.0
230
1.0
 70
     8
 71
     3
 72
    70
 73
    66
 74
     0
 42
0.00000001
 43
0.00000001
 40
-0.03125
 40
-0.03125
 40
0.0
 40
0.0
 40
0.03125
 40
0.03125
 40
0.0625
 40
0.0625
 40
0.09375
 40
0.09375
 40
0.125
 40
0.125
 40
0.15625
 40
0.15625
 40
0.1875
 40
0.1875
 40
0.21875
 40
0.21875
 40
0.25
 40
0.25
 40
0.28125
 40
0.28125
 40
0.3125
 40
0.3125
 40
0.34375
 40
0.34375
 40
0.375
 40
0.375
 40
0.40625
 40
0.40625
 40
0.4375
 40
0.4375
 40
0.46875
 40
0.46875
 40
0.5
 40
0.5
 40
0.53125
 40
0.53125
 40
0.5625
 40
0.5625
 40
0.59375
 40
0.59375
 40
0.625
 40
0.625
 40
0.65625
 40
0.65625
 40
0.6875
 40
0.6875
 40
0.71875
 40
0.71875
 40
0.75
 40
0.75
 40
0.78125
 40
0.78125
 40
0.8125
 40
0.8125
 40
0.84375
 40
0.84375
 40
0.875
 40
0.875
 40
0.90625
 40
0.90625
 40
0.9375
 40
0.9375
 40
0.96875
 40
0.96875
 40
1.0
 40
1.0
 40
1.03125
 40
1.03125
 10
160.0906377662227
 20
114.0653229979943
 30
0.0
 10
160.429208536263
 20
114.3388001574328
 30
0.0
 10
160.6086949392399
 20
114.4573837049213
 30
0.0
 10
160.9861928214735
 20
114.661766292513
 30
0.0
 10
161.1855311178184
 20
114.7479479280763
 30
0.0
 10
161.5971711085366
 20
114.8851311438062
 30
0.0
 10
161.8065231308942
 20
114.9354134287092
 30
0.0
 10
162.2319843801982
 20
115.0010575960076
 30
0.0
 10
162.4500363640245
 20
115.0163199674005
 30
0.0
 10
162.8829447983865
 20
115.0103939485672
 30
0.0
 10
163.096923712818
 20
114.9896019926642
 30
0.0
 10
163.5199917097999
 20
114.9127519257783
 30
0.0
 10
163.7310586523882
 20
114.8559102149122
 30
0.0
 10
164.1371565969845
 20
114.707878210151
 30
0.0
 10
164.331561926856
 20
114.6173835187507
 30
0.0
 10
164.7027934940582
 20
114.402717432097
 30
0.0
 10
164.8814724773973
 20
114.2768930210858
 30
0.0
 10
165.2088936051912
 20
113.9956650818492
 30
0.0
 10
165.3571860877076
 20
113.8413694279533
 30
0.0
 10
165.621364652828
 20
113.5038665699068
 30
0.0
 10
165.7384713609814
 20
113.3177376230566
 30
0.0
 10
165.9260534542784
 20
112.9294511141189
 30
0.0
 10
165.997512099174
 20
112.7272982813079
 30
0.0
 10
166.0930010663483
 20
112.3059349741154
 30
0.0
 10
166.1160302947344
 20
112.0865565081658
 30
0.0
 10
166.1094721074089
 20
111.655800144341
 30
0.0
 10
166.080162733346
 20
111.4388437128168
 30
0.0
 10
165.9716015292885
 20
111.0180836030829
 30
0.0
 10
165.8937133130095
 20
110.816932579993
 30
0.0
 10
165.6935736947061
 20
110.431920939432
 30
0.0
 10
165.5719377620582
 20
110.2503309654962
 30
0.0
 10
165.2969100555812
 20
109.9183118358297
 30
0.0
 10
165.1407966050497
 20
109.7647235695096
 30
0.0
 10
164.8050003916037
 20
109.4920878921441
 30
0.0
 10
164.6257252426506
 20
109.3727022413199
 30
0.0
 10
164.2456203987412
 20
109.165830483434
 30
0.0
 10
164.0447277839733
 20
109.0788365814865
 30
0.0
 10
163.6360368773246
 20
108.9419271866292
 30
0.0
 10
163.4264989011734
 20
108.8909820723083
 30
0.0
 10
162.9969927972419
 20
108.8241548790455
 30
0.0
 10
162.7797210947342
 20
108.8089490113191
 30
0.0
 10
162.3491996661685
 20
108.8143106506729
 30
0.0
 10
162.1345628886898
 20
108.8346447517407
 30
0.0
 10
161.7065860644517
 20
108.9120494931396
 30
0.0
 10
161.4968581967315
 20
108.9686833160076
 30
0.0
 10
161.0931629858921
 20
109.1154534928417
 30
0.0
 10
160.8979886066838
 20
109.2057731829848
 30
0.0
 10
160.521996551643
 20
109.4230249481708
 30
0.0
 10
160.344721133391
 20
109.5482354401696
 30
0.0
 10
160.0195632267882
 20
109.8272569983526
 30
0.0
 10
159.8703891559173
 20
109.9817348229446
 30
0.0
 10
159.6022065878113
 20
110.324556518995
 30
0.0
 10
159.4873155566111
 20
110.508079855976
 30
0.0
 10
159.3007000303671
 20
110.8942583658838
 30
0.0
 10
159.2277308322958
 20
111.1002156317611
 30
0.0
 10
159.1321957594018
 20
111.524727357476
 30
0.0
 10
159.1099861233544
 20
111.7390447412533
 30
0.0
 10
159.1168235997748
 20
112.1718175021401
 30
0.0
 10
159.1468765436463
 20
112.3907661864879
 30
0.0
 10
159.255317907607
 20
112.8089589512027
 30
0.0
 10
159.3346945789477
 20
113.0134381373102
 30
0.0
 10
159.5358177739191
 20
113.3984305085168
 30
0.0
 10
159.6561873445226
 20
113.5776620769738
 30
0.0
 10
159.9337101039697
 20
113.9116066151175
 30
0.0
 10
160.0906377662227
 20
114.0653229979943
 30
0.0
 10
160.429208536263
 20
114.3388001574328
 30
0.0
  0
LINE
  5
B2
330
1F
100
AcDbEntity
  8
0
  6
Continuous
 62
     7
370
    15
100
AcDbLine
 10
160.259922618
 20
91.0377061035
 30
0.0
 11
160.1435519997
 21
91.0258745815
 31
0.0
  0
SPLINE
  5
B3
330
1F
100
AcDbEntity
  8
0
  6
Continuous
 62
     7
370
    15
100
AcDbSpline
210
0.0
220
0.0
230
1.0
 70
     8
 71
     3
 72
    17
 73
    13
 74
     0
 42
0.00000001
 43
0.00000001
 40
0.0
 40
0.0
 40
0.0
 40
0.0
 40
0.0491562634264158
 40
0.1370090954715588
 40
0.2290239891015541
 40
0.3311800843873915
 40
0.445108010321794
 40
0.5675743843021063
 40
0.6928688589206092
 40
0.8147506720427837
 40
0.9255923532589589
 40
1.0
 40
1.0
 40
1.0
 40
1.0
 10
159.1555230561333
 20
90.91798458652595
 30
0.0
 10
159.1482758233564
 20
90.91706347133916
 30
0.0
 10
159.1280762243992
 20
90.91449612488584
 30
0.0
 10
159.4457762943604
 20
90.95491781172275
 30
0.0
 10
160.0411368482166
 20
91.02058407073197
 30
0.0
 10
160.9304046762908
 20
91.09532259706216
 30
0.0
 10
162.0604768776594
 20
91.1465610481994
 30
0.0
 10
163.3278114113842
 20
91.14366623359608
 30
0.0
 10
164.5509716930659
 20
91.07906024473516
 30
0.0
 10
165.5010374978244
 20
90.98872882047864
 30
0.0
 10
166.0489479015578
 20
90.92096021922374
 30
0.0
 10
166.0717099631296
 20
90.91788049195213
 30
0.0
 10
166.0808526221352
 20
90.9166434820185
 30
0.0
  0
LINE
  5
B4
330
1F
100
AcDbEntity
  8
0
  6
Continuous
 62
     7
370
    15
100
AcDbLine
 10
160.6497183684
 20
91.0665063228
 30
0.0
 11
160.259922618
 21
91.0377061035
 31
0.0
  0
CIRCLE
  5
B5
330
1F
100
AcDbEntity
  8
0
  6
Continuous
 62
     7
370
    15
100
AcDbCircle
 10
162.6130659345
 20
111.9125248905
 30
0.0
 40
2.5
  0
SPLINE
  5
B6
330
1F
100
AcDbEntity
  8
0
  6
Continuous
 62
     7
370
    15
100
AcDbSpline
210
0.0
220
0.0
230
1.0
 70
     8
 71
     3
 72
    10
 73
     6
 74
     0
 42
0.00000001
 43
0.00000001
 40
0.0
 40
0.0
 40
0.0
 40
0.0
 40
0.5
 40
0.5
 40
1.0
 40
1.0
 40
1.0
 40
1.0
 10
151.6130659345227
 20
141.7589652142354
 30
0.0
 10
151.6130659345227
 20
141.9193704805862
 30
0.0
 10
151.5508281034159
 20
142.0784322935748
 30
0.0
 10
151.3316931796733
 20
142.3093447592051
 30
0.0
 10
151.1741044846814
 20
142.3797203636358
 30
0.0
 10
151.0130659345227
 20
142.3797203636357
 30
0.0
  0
SPLINE
  5
B7
330
1F
100
AcDbEntity
  8
0
  6
Continuous
 62
     7
370
    15
100
AcDbSpline
210
0.0
220
0.0
230
1.0
 70
     8
 71
     3
 72
    12
 73
     8
 74
     0
 42
0.00000001
 43
0.00000001
 40
0.0
 40
0.0
 40
0.0
 40
0.0
 40
0.250000000000002
 40
0.250000000000002
 40
0.500000000000004
 40
0.500000000000004
 40
1.0
 40
1.0
 40
1.0
 40
1.0
 10
151.0130659345227
 20
136.3712145528389
 30
0.0
 10
151.1042656563484
 20
136.3712145528389
 30
0.0
 10
151.1948606654844
 20
136.3429948542511
 30
0.0
 10
151.3482733919311
 20
136.248551847003
 30
0.0
 10
151.4134822592547
 20
136.1822648702976
 30
0.0
 10
151.5662667885947
 20
135.9566400470093
 30
0.0
 10
151.6130659345227
 20
135.7742137839768
 30
0.0
 10
151.6130659345227
 20
135.5934771517299
 30
0.0
  0
LINE
  5
B8
330
1F
100
AcDbEntity
  8
0
  6
Continuous
 62
     7
370
    15
100
AcDbLine
 10
151.6130656246
 20
135.5934763368
 30
0.0
 11
151.6130656246
 21
141.7589658912
 31
0.0
  0
SPLINE
  5
B9
330
1F
100
AcDbEntity
  8
0
  6
Continuous
 62
     7
370
    15
100
AcDbSpline
210
0.0
220
0.0
230
1.0
 70
     8
 71
     3
 72
     8
 73
     4
 74
     0
 42
0.00000001
 43
0.00000001
 40
0.0
 40
0.0
 40
0.0
 40
0.0
 40
1.0
 40
1.0
 40
1.0
 40
1.0
 10
147.0549987660118
 20
142.3797203636358
 30
0.0
 10
146.5598587366474
 20
141.4930407154555
 30
0.0
 10
146.0657760313685
 20
140.6057780797695
 30
0.0
 10
145.5730659345227
 20
139.7177590816431
 30
0.0
  0
LINE
  5
BA
330
1F
100
AcDbEntity
  8
0
  6
Continuous
 62
     7
370
    15
100
AcDbLine
 10
147.0549978558
 20
136.3712145056
 30
0.0
 11
147.0549978558
 21
142.3797203268
 31
0.0
  0
SPLINE
  5
BB
330
1F
100
AcDbEntity
  8
0
  6
Continuous
 62
     7
370
    15
100
AcDbSpline
210
0.0
220
0.0
230
1.0
 70
     8
 71
     3
 72
     8
 73
     4
 74
     0
 42
0.00000001
 43
0.00000001
 40
0.0
 40
0.0
 40
0.0
 40
0.0
 40
1.0
 40
1.0
 40
1.0
 40
1.0
 10
145.5730659345227
 20
132.9626685580548
 30
0.0
 10
146.0523440851126
 20
134.1036797879074
 30
0.0
 10
146.5479119242525
 20
135.2400641986752
 30
0.0
 10
147.0549987660118
 20
136.3712145528389
 30
0.0
  0
LINE
  5
BC
330
1F
100
AcDbEntity
  8
0
  6
Continuous
 62
     7
370
    15
100
AcDbLine
 10
145.5730661992
 20
132.9626688774
 30
0.0
 11
145.5730661992
 21
139.7177582647
 31
0.0
  0
LINE
  5
BD
330
1F
100
AcDbEntity
  8
0
  6
Continuous
 62
     7
370
    15
100
AcDbLine
 10
147.0549978558
 20
136.3712145056
 30
0.0
 11
151.0130666438
 21
136.3712145056
 31
0.0
  0
LINE
  5
BE
330
1F
100
AcDbEntity
  8
0
  6
Continuous
 62
     7
370
    15
100
AcDbLine
 10
145.5730661992
 20
132.0483913686
 30
0.0
 11
145.5730661992
 21
132.9626688774
 31
0.0
  0
LINE
  5
BF
330
1F
100
AcDbEntity
  8
0
  6
Continuous
 62
     7
370
    15
100
AcDbLine
 10
151.6130656246
 20
135.5934763368
 30
0.0
 11
151.6130656246
 21
131.7625256296
 31
0.0
  0
LINE
  5
C0
330
1F
100
AcDbEntity
  8
0
  6
Continuous
 62
     7
370
    15
100
AcDbLine
 10
151.0130666438
 20
142.3797203268
 30
0.0
 11
147.0549978558
 21
142.3797203268
 31
0.0
  0
SPLINE
  5
C1
330
1F
100
AcDbEntity
  8
0
  6
Continuous
 62
     7
370
    15
100
AcDbSpline
210
0.0
220
0.0
230
1.0
 70
     8
 71
     3
 72
     8
 73
     4
 74
     0
 42
0.00000001
 43
0.00000001
 40
0.0
 40
0.0
 40
0.0
 40
0.0
 40
1.0
 40
1.0
 40
1.0
 40
1.0
 10
140.2711331030337
 20
136.3712145528389
 30
0.0
 10
140.7782199447929
 20
135.2400641986753
 30
0.0
 10
141.2737877839328
 20
134.1036797879074
 30
0.0
 10
141.7530659345227
 20
132.9626685580548
 30
0.0
  0
LINE
  5
C2
330
1F
100
AcDbEntity
  8
0
  6
Continuous
 62
     7
370
    15
100
AcDbLine
 10
141.7530659828
 20
132.9626688774
 30
0.0
 11
141.7530659828
 21
132.0483913686
 31
0.0
  0
SPLINE
  5
C3
330
1F
100
AcDbEntity
  8
0
  6
Continuous
 62
     7
370
    15
100
AcDbSpline
210
0.0
220
0.0
230
1.0
 70
     8
 71
     3
 72
     8
 73
     4
 74
     0
 42
0.00000001
 43
0.00000001
 40
0.0
 40
0.0
 40
0.0
 40
0.0
 40
1.0
 40
1.0
 40
1.0
 40
1.0
 10
141.7530659345227
 20
139.7177590816431
 30
0.0
 10
141.260355837677
 20
140.6057780797695
 30
0.0
 10
140.766273132398
 20
141.4930407154555
 30
0.0
 10
140.2711331030337
 20
142.3797203636358
 30
0.0
  0
LINE
  5
C4
330
1F
100
AcDbEntity
  8
0
  6
Continuous
 62
     7
370
    15
100
AcDbLine
 10
141.7530659828
 20
132.9626688774
 30
0.0
 11
141.7530659828
 21
139.7177582647
 31
0.0
  0
ARC
  5
C5
330
1F
100
AcDbEntity
  8
0
  6
Continuous
 62
     7
370
    15
100
AcDbCircle
 10
133.6638297973
 20
130.6045733754
 30
0.0
 40
7.262059509519815
100
AcDbArc
 50
70.9641436502
 51
109.2384315444
  0
LINE
  5
C6
330
1F
100
AcDbEntity
  8
0
  6
Continuous
 62
     7
370
    15
100
AcDbLine
 10
205.6630641464
 20
98.1866657774
 30
0.0
 11
205.6630641464
 21
125.6383840035
 31
0.0
  0
ARC
  5
C7
330
1F
100
AcDbEntity
  8
0
  6
Continuous
 62
     7
370
    15
100
AcDbCircle
 10
187.5119427398
 20
103.9987052382
 30
0.0
 40
18.23054709815715
100
AcDbArc
 50
357.7127954253
 51
5.350274733
  0
LWPOLYLINE
  5
C8
330
1F
100
AcDbEntity
  8
0
  6
Continuous
 62
     7
370
    15
100
AcDbPolyline
 90
        8
 70
   128
 43
0.0
 10
205.6630641464
 20
119.187929299
 10
205.6643978003
 20
119.2312502343
 10
205.6750819329
 20
119.6530182886
 10
205.6807741765
 20
120.0367860536
 10
205.6807741765
 20
120.3362649347
 10
205.6750819329
 20
120.5153349827
 10
205.6643978003
 20
120.5523960333
 10
205.6630641464
 20
120.5478409346
  0
CIRCLE
  5
C9
330
1F
100
AcDbEntity
  8
0
  6
HIDDEN
 62
     7
370
     0
100
AcDbCircle
 10
183.6630659345
 20
111.9125248905
 30
0.0
 40
6.0
  0
CIRCLE
  5
CA
330
1F
100
AcDbEntity
  8
0
  6
HIDDEN
 62
     7
370
     0
100
AcDbCircle
 10
183.6630659345
 20
111.9125248905
 30
0.0
 40
2.749999999999992
  0
CIRCLE
  5
CB
330
1F
100
AcDbEntity
  8
0
  6
HIDDEN
 62
     7
370
     0
100
AcDbCircle
 10
183.6630659345
 20
111.9125248905
 30
0.0
 40
3.999999999999991
  0
LINE
  5
CC
330
1F
100
AcDbEntity
  8
0
  6
HIDDEN
 62
     7
370
     0
100
AcDbLine
 10
140.2711333949
 20
136.3712145056
 30
0.0
 11
140.2711333949
 21
131.7625256296
 31
0.0
  0
ARC
  5
CD
330
1F
100
AcDbEntity
  8
0
  6
HIDDEN
 62
     7
370
     0
100
AcDbCircle
 10
133.9488850191
 20
124.4015747844
 30
0.0
 40
3.670280746998505
100
AcDbArc
 50
265.5336379634
 51
13.4990734185
  0
ARC
  5
CE
330
1F
100
AcDbEntity
  8
0
  6
HIDDEN
 62
     7
370
     0
100
AcDbCircle
 10
133.3781247945
 20
124.4037534719
 30
0.0
 40
3.672384657093862
100
AcDbArc
 50
166.9515890341
 51
274.4500709044
  0
LINE
  5
CF
330
1F
100
AcDbEntity
  8
0
  6
HIDDEN
 62
     7
370
     0
100
AcDbLine
 10
113.6582164336
 20
88.3879257406
 30
0.0
 11
113.4093512091
 21
88.3646631654
 31
0.0
  0
LINE
  5
D0
330
1F
100
AcDbEntity
  8
0
  6
HIDDEN
 62
     7
370
     0
100
AcDbLine
 10
113.2767904792
 20
135.4726111557
 30
0.0
 11
113.6581233013
 21
135.4371072765
 31
0.0
  0
SPLINE
  5
D1
330
1F
100
AcDbEntity
  8
0
  6
HIDDEN
 62
     7
370
     0
100
AcDbSpline
210
0.0
220
0.0
230
1.0
 70
     8
 71
     3
 72
    90
 73
    86
 74
     0
 42
0.00000001
 43
0.00000001
 40
-0.0312500000000004
 40
-0.0312500000000004
 40
0.0
 40
0.0
 40
0.031250000000001
 40
0.031250000000001
 40
0.0468750000000016
 40
0.0468750000000016
 40
0.0625000000000021
 40
0.0625000000000021
 40
0.0937500000000026
 40
0.0937500000000026
 40
0.1250000000000031
 40
0.1250000000000031
 40
0.1562500000000036
 40
0.1562500000000036
 40
0.1718750000000038
 40
0.1718750000000038
 40
0.1875000000000041
 40
0.1875000000000041
 40
0.2187500000000044
 40
0.2187500000000044
 40
0.2500000000000047
 40
0.2500000000000047
 40
0.2656250000000048
 40
0.2656250000000048
 40
0.2812500000000049
 40
0.2812500000000049
 40
0.3125000000000051
 40
0.3125000000000051
 40
0.328125000000005
 40
0.328125000000005
 40
0.3437500000000049
 40
0.3437500000000049
 40
0.3593750000000049
 40
0.3593750000000049
 40
0.3750000000000049
 40
0.3750000000000049
 40
0.4062500000000043
 40
0.4062500000000043
 40
0.4375000000000038
 40
0.4375000000000038
 40
0.4687500000000033
 40
0.4687500000000033
 40
0.4843750000000031
 40
0.4843750000000031
 40
0.5000000000000028
 40
0.5000000000000028
 40
0.5312500000000022
 40
0.5312500000000022
 40
0.5625000000000017
 40
0.5625000000000017
 40
0.5781250000000014
 40
0.5781250000000014
 40
0.5937500000000012
 40
0.5937500000000012
 40
0.6250000000000007
 40
0.6250000000000007
 40
0.6562500000000001
 40
0.6562500000000001
 40
0.6874999999999996
 40
0.6874999999999996
 40
0.7031249999999993
 40
0.7031249999999993
 40
0.7187499999999991
 40
0.7187499999999991
 40
0.7499999999999988
 40
0.7499999999999988
 40
0.7812499999999984
 40
0.7812499999999984
 40
0.8124999999999981
 40
0.8124999999999981
 40
0.8437499999999979
 40
0.8437499999999979
 40
0.8593749999999977
 40
0.8593749999999977
 40
0.874999999999998
 40
0.874999999999998
 40
0.8906249999999983
 40
0.8906249999999983
 40
0.9062499999999986
 40
0.9062499999999986
 40
0.937499999999999
 40
0.937499999999999
 40
0.9687499999999996
 40
0.9687499999999996
 40
1.0
 40
1.0
 40
1.031250000000001
 40
1.031250000000001
 10
184.0379686911556
 20
106.3951852380975
 30
0.0
 10
183.2881631778899
 20
106.3951852380975
 30
0.0
 10
182.9192155117166
 20
106.4290734165571
 30
0.0
 10
182.3743787421042
 20
106.5289516343897
 30
0.0
 10
182.1942073713818
 20
106.5704800317284
 30
0.0
 10
181.8368087890275
 20
106.6704450053411
 30
0.0
 10
181.658716095115
 20
106.7292648274054
 30
0.0
 10
181.1388384416646
 20
106.928479199043
 30
0.0
 10
180.8093904696487
 20
107.0915695427062
 30
0.0
 10
180.1844660054581
 20
107.4787768521685
 30
0.0
 10
179.8862943217526
 20
107.705930503698
 30
0.0
 10
179.3483417462691
 20
108.2075713655763
 30
0.0
 10
179.1063752290858
 20
108.4824656056372
 30
0.0
 10
178.7848233342794
 20
108.9324069074466
 30
0.0
 10
178.6840490752087
 20
109.089705898993
 30
0.0
 10
178.5003135926845
 20
109.4120631582218
 30
0.0
 10
178.417328022345
 20
109.5768684624025
 30
0.0
 10
178.1944742036491
 20
110.0820197459407
 30
0.0
 10
178.0804220016821
 20
110.4329866132014
 30
0.0
 10
177.9250657712412
 20
111.1651597805626
 30
0.0
 10
177.8864246179562
 20
111.53507473468
 30
0.0
 10
177.8856514998516
 20
112.0900424304995
 30
0.0
 10
177.8949375712322
 20
112.2753518105615
 30
0.0
 10
177.9331030384379
 20
112.6466272554696
 30
0.0
 10
177.9621317894474
 20
112.8325124676114
 30
0.0
 10
178.076535795385
 20
113.3776835771644
 30
0.0
 10
178.1892793713186
 20
113.7292115865087
 30
0.0
 10
178.4128061871696
 20
114.238905141841
 30
0.0
 10
178.4968844260127
 20
114.406420026715
 30
0.0
 10
178.6797602108392
 20
114.7283467575938
 30
0.0
 10
178.7788552365382
 20
114.8836127892736
 30
0.0
 10
178.99196795226
 20
115.1831346320295
 30
0.0
 10
179.1059867769214
 20
115.3273894448581
 30
0.0
 10
179.3490118643646
 20
115.604941512266
 30
0.0
 10
179.478773546678
 20
115.738899720818
 30
0.0
 10
179.8845532232256
 20
116.1179010167873
 30
0.0
 10
180.1765903594536
 20
116.3407211916932
 30
0.0
 10
180.8022847221586
 20
116.7297335152874
 30
0.0
 10
181.1389467869597
 20
116.8964959201527
 30
0.0
 10
181.8286452934445
 20
117.1610165571576
 30
0.0
 10
182.1840133137521
 20
117.2608185825425
 30
0.0
 10
182.7329611098151
 20
117.3620190737972
 30
0.0
 10
182.9192975056016
 20
117.3876003541898
 30
0.0
 10
183.2899792976858
 20
117.4213744242661
 30
0.0
 10
183.4751067413598
 20
117.4297724979564
 30
0.0
 10
184.0298618285032
 20
117.430046377161
 30
0.0
 10
184.3988680998212
 20
117.3972523685217
 30
0.0
 10
185.1351501213735
 20
117.2626759280235
 30
0.0
 10
185.4918275434485
 20
117.1627127615926
 30
0.0
 10
186.0076637526158
 20
116.965578207698
 30
0.0
 10
186.1765394994967
 20
116.8919166713265
 30
0.0
 10
186.5080142294856
 20
116.7282115817225
 30
0.0
 10
186.671480554043
 20
116.637590876377
 30
0.0
 10
187.1438446821659
 20
116.3449468150761
 30
0.0
 10
187.4354961034057
 20
116.1225838125801
 30
0.0
 10
187.9727143532505
 20
115.6227852814276
 30
0.0
 10
188.2205641174424
 20
115.341572270666
 30
0.0
 10
188.648867129852
 20
114.7420199179819
 30
0.0
 10
188.8310873138526
 20
114.4233496847745
 30
0.0
 10
189.0555712524899
 20
113.9159837440815
 30
0.0
 10
189.122530100115
 20
113.7407950925212
 30
0.0
 10
189.237105110575
 20
113.3864917522823
 30
0.0
 10
189.2848263436144
 20
113.2075592161338
 30
0.0
 10
189.399937060082
 20
112.6655163058317
 30
0.0
 10
189.4395853969474
 20
112.2969663773736
 30
0.0
 10
189.4408549992015
 20
111.5462238204524
 30
0.0
 10
189.4025022906524
 20
111.17758810949
 30
0.0
 10
189.2511402458768
 20
110.4531687676592
 30
0.0
 10
189.1360184904322
 20
110.0937728346882
 30
0.0
 10
188.8388804501819
 20
109.4165561064192
 30
0.0
 10
188.6572025304744
 20
109.0962760086049
 30
0.0
 10
188.3350057386599
 20
108.642929135059
 30
0.0
 10
188.2192558824432
 20
108.496574534192
 30
0.0
 10
187.9761817180153
 20
108.2191074690771
 30
0.0
 10
187.8482829927339
 20
108.0871415357907
 30
0.0
 10
187.5800274900373
 20
107.8363351531305
 30
0.0
 10
187.4396701180012
 20
107.7174955460709
 30
0.0
 10
187.1463968310388
 20
107.4929202711753
 30
0.0
 10
186.9926810642138
 20
107.3867472750995
 30
0.0
 10
186.5208976747458
 20
107.0935964405671
 30
0.0
 10
186.1909885743088
 20
106.9302818163987
 30
0.0
 10
185.5011963107603
 20
106.6651897382792
 30
0.0
 10
185.1384648340508
 20
106.5633792647772
 30
0.0
 10
184.4081507083786
 20
106.4291013508993
 30
0.0
 10
184.0379686911556
 20
106.3951852380975
 30
0.0
 10
183.2881631778899
 20
106.3951852380975
 30
0.0
  0
SPLINE
  5
D2
330
1F
100
AcDbEntity
  8
0
  6
HIDDEN
 62
     7
370
     0
100
AcDbSpline
210
0.0
220
0.0
230
1.0
 70
     8
 71
     3
 72
    45
 73
    41
 74
     0
 42
0.00000001
 43
0.00000001
 40
-0.0754525583482856
 40
-0.0624582876444617
 40
-0.0297178004938551
 40
0.0
 40
0.0297087962998819
 40
0.0624230266872769
 40
0.0901528007819822
 40
0.1249931446062192
 40
0.1466449327579951
 40
0.167022789459056
 40
0.1861328429910228
 40
0.2039826041944793
 40
0.2205813722442518
 40
0.235940796874364
 40
0.2500756715097965
 40
0.2849470597654895
 40
0.3265208474016331
 40
0.3749037100796143
 40
0.3933016039447074
 40
0.4098753360601353
 40
0.42462631639361
 40
0.437556818342324
 40
0.470268811526646
 40
0.5000240066429384
 40
0.5297575339390004
 40
0.5624554899008324
 40
0.5900900246872074
 40
0.6249974600184527
 40
0.6485780340257533
 40
0.669477822549762
 40
0.6877019222769798
 40
0.7203344941539112
 40
0.7501727464244011
 40
0.784980672443312
 40
0.8265068160220057
 40
0.8748580847785388
 40
0.8932075216380957
 40
0.909770151695862
 40
0.9245474416517144
 40
0.9375417123555383
 40
0.9702821995061449
 40
1.0
 40
1.029708796299882
 40
1.062423026687277
 40
1.090152800781982
 10
182.6670689369979
 20
106.851154756989
 30
0.0
 10
183.6629438978686
 20
106.7572508505946
 30
0.0
 10
184.6586885759528
 20
106.8511330587377
 30
0.0
 10
185.5934908379009
 20
107.1316543274029
 30
0.0
 10
186.5001849075911
 20
107.6049909405918
 30
0.0
 10
187.2049632467839
 20
108.1710971383754
 30
0.0
 10
187.7445484599358
 20
108.7887331288173
 30
0.0
 10
188.1071028659526
 20
109.3336802212164
 30
0.0
 10
188.3820076284067
 20
109.883907238845
 30
0.0
 10
188.5780576181773
 20
110.4253973339317
 30
0.0
 10
188.7051037015003
 20
110.9468080229972
 30
0.0
 10
188.7736383602044
 20
111.4396246132134
 30
0.0
 10
188.805046703615
 20
112.1342158076978
 30
0.0
 10
188.6967794705268
 20
113.1142835733602
 30
0.0
 10
188.2305100465004
 20
114.3854634943164
 30
0.0
 10
187.5338095892359
 20
115.3315796545228
 30
0.0
 10
186.8710721842344
 20
115.9222970347505
 30
0.0
 10
186.4387403381729
 20
116.2305638319285
 30
0.0
 10
186.0284521081302
 20
116.4662358861868
 30
0.0
 10
185.4420040017661
 20
116.7387168387789
 30
0.0
 10
184.6598670751572
 20
116.9737456921849
 30
0.0
 10
183.6636318833478
 20
117.0678626126984
 30
0.0
 10
182.6673780162534
 20
116.9739136976855
 30
0.0
 10
181.7334850050889
 20
116.693613280488
 30
0.0
 10
180.8271301942717
 20
116.2208078423319
 30
0.0
 10
180.1061913562416
 20
115.6421966658242
 30
0.0
 10
179.5524242772401
 20
115.0008220738549
 30
0.0
 10
179.1882568619326
 20
114.4370736456177
 30
0.0
 10
178.8528806235781
 20
113.7449103157739
 30
0.0
 10
178.6015431075777
 20
112.9076861716155
 30
0.0
 10
178.50240783195
 20
111.8566115713071
 30
0.0
 10
178.63006434748
 20
110.7086137363312
 30
0.0
 10
179.0961350456479
 20
109.4388379735956
 30
0.0
 10
179.7920065959085
 20
108.4939681715074
 30
0.0
 10
180.4538614564636
 20
107.9037557762158
 30
0.0
 10
180.8857758434174
 20
107.5955158876778
 30
0.0
 10
181.2967180636853
 20
107.3592666117051
 30
0.0
 10
181.8843103044506
 20
107.0861933478776
 30
0.0
 10
182.6670689369979
 20
106.851154756989
 30
0.0
 10
183.6629438978686
 20
106.7572508505946
 30
0.0
 10
184.6586885759528
 20
106.8511330587377
 30
0.0
  0
SPLINE
  5
D3
330
1F
100
AcDbEntity
  8
0
  6
HIDDEN
 62
     7
370
     0
100
AcDbSpline
210
0.0
220
0.0
230
1.0
 70
     8
 71
     3
 72
    15
 73
    11
 74
     0
 42
0.00000001
 43
0.00000001
 40
0.0
 40
0.0
 40
0.0
 40
0.0
 40
0.1409172263352446
 40
0.281889861653346
 40
0.4212989542022905
 40
0.5593768841673977
 40
0.6988856533029646
 40
0.840367202775075
 40
0.9813164473602943
 40
1.0
 40
1.0
 40
1.0
 40
1.0
 10
119.4180679749387
 20
92.07499642329314
 30
0.0
 10
119.102026255326
 20
92.11534974506783
 30
0.0
 10
118.4698185477577
 20
92.19607225563766
 30
0.0
 10
117.2356553754434
 20
92.27263020202042
 30
0.0
 10
115.9649332516278
 20
92.26795213400548
 30
0.0
 10
114.7763737850913
 20
92.18715566878224
 30
0.0
 10
113.7832511058009
 20
92.06276112192803
 30
0.0
 10
113.1438425744871
 20
91.95635417516681
 30
0.0
 10
112.8628225861337
 20
91.90327711585725
 30
0.0
 10
112.9293831546225
 20
91.91553160781915
 30
0.0
 10
112.9371734577852
 20
91.91696588354209
 30
0.0
  0
SPLINE
  5
D4
330
1F
100
AcDbEntity
  8
0
  6
HIDDEN
 62
     7
370
     0
100
AcDbSpline
210
0.0
220
0.0
230
1.0
 70
     8
 71
     3
 72
    15
 73
    11
 74
     0
 42
0.00000001
 43
0.00000001
 40
0.0
 40
0.0
 40
0.0
 40
0.0
 40
0.1201202497733958
 40
0.2584739452442804
 40
0.3987302041697883
 40
0.5404022600041716
 40
0.680739511736143
 40
0.8190355942651634
 40
0.9577823154231621
 40
1.0
 40
1.0
 40
1.0
 40
1.0
 10
112.9371734577852
 20
131.9080838974009
 30
0.0
 10
112.9578827065887
 20
131.9040593933266
 30
0.0
 10
113.0024447288237
 20
131.895399492538
 30
0.0
 10
113.5648841985521
 20
131.7961065738268
 30
0.0
 10
114.4583464539994
 20
131.6721905621155
 30
0.0
 10
115.6173252778516
 20
131.5724791865819
 30
0.0
 10
116.8903621466713
 20
131.5453421288838
 30
0.0
 10
118.1246474933984
 20
131.6006794910139
 30
0.0
 10
118.9526105710943
 20
131.6871592268053
 30
0.0
 10
119.3300208837406
 20
131.7381561459425
 30
0.0
 10
119.4180679749387
 20
131.7500533576498
 30
0.0
  0
SPLINE
  5
D5
330
1F
100
AcDbEntity
  8
0
  6
HIDDEN
 62
     7
370
     0
100
AcDbSpline
210
0.0
220
0.0
230
1.0
 70
     8
 71
     3
 72
    10
 73
     6
 74
     0
 42
0.00000001
 43
0.00000001
 40
0.0
 40
0.0
 40
0.0
 40
0.0
 40
0.4475770529605919
 40
0.8951374478168815
 40
1.0
 40
1.0
 40
1.0
 40
1.0
 10
119.4180679749387
 20
131.7500533576498
 30
0.0
 10
119.6647735121611
 20
131.7795650316179
 30
0.0
 10
120.1581754046193
 20
131.8385872811766
 30
0.0
 10
120.447189597953
 20
131.8525305187782
 30
0.0
 10
120.3868215777367
 20
131.8486371567883
 30
0.0
 10
120.3753623421925
 20
131.8478981073389
 30
0.0
  0
SPLINE
  5
D6
330
1F
100
AcDbEntity
  8
0
  6
HIDDEN
 62
     7
370
     0
100
AcDbSpline
210
0.0
220
0.0
230
1.0
 70
     8
 71
     3
 72
    10
 73
     6
 74
     0
 42
0.00000001
 43
0.00000001
 40
0.0
 40
0.0
 40
0.0
 40
0.0
 40
0.3454691164194381
 40
0.7966953010443469
 40
1.0
 40
1.0
 40
1.0
 40
1.0
 10
120.3753413874346
 20
91.97715353624919
 30
0.0
 10
120.3657812857212
 20
91.97770839125988
 30
0.0
 10
120.3437344868886
 20
91.97898795680936
 30
0.0
 10
119.9267950612108
 20
92.00894738571135
 30
0.0
 10
119.5386349101775
 20
92.05934298110067
 30
0.0
 10
119.4180679749387
 20
92.07499642329314
 30
0.0
  0
LINE
  5
D7
330
1F
100
AcDbEntity
  8
0
  6
HIDDEN
 62
     7
370
     0
100
AcDbLine
 10
106.6670414302
 20
94.9125239666
 30
0.0
 11
106.6670414302
 21
128.9125258143
 31
0.0
  0
LWPOLYLINE
  5
D8
330
1F
100
AcDbEntity
  8
0
  6
HIDDEN
 62
     7
370
     0
100
AcDbPolyline
 90
       15
 70
   128
 43
0.0
 10
133.6630663145
 20
133.8581280823
 10
134.4200704489
 20
133.8942689862
 10
135.1497160513
 20
134.0013915713
 10
135.8256289977
 20
134.1756196733
 10
136.4233816284
 20
134.4106594141
 10
136.9213700536
 20
134.6980134066
 10
137.3015936706
 20
135.027297404
 10
137.550311746
 20
135.3866091038
 10
137.6585351545
 20
135.7629640068
 10
137.6223514098
 20
136.1427573528
 10
137.4430690203
 20
136.5122633095
 10
137.1271671969
 20
136.8581267114
 10
136.6860639546
 20
137.1678492095
 10
136.1357016731
 20
137.4302325811
 10
136.0324217248
 20
137.4695045914
  0
LWPOLYLINE
  5
D9
330
1F
100
AcDbEntity
  8
0
  6
HIDDEN
 62
     7
370
     0
100
AcDbPolyline
 90
       15
 70
   128
 43
0.0
 10
131.2709810454
 20
137.461087298
 10
131.1904300246
 20
137.4302325811
 10
130.6400677431
 20
137.1678492095
 10
130.1989645008
 20
136.8581267114
 10
129.8830626774
 20
136.5122633095
 10
129.7037802878
 20
136.1427573528
 10
129.6675965432
 20
135.7629640068
 10
129.775819486
 20
135.3866091038
 10
130.0245380271
 20
135.027297404
 10
130.4047621097
 20
134.6980134066
 10
130.9027500692
 20
134.4106594141
 10
131.5005027
 20
134.1756196733
 10
132.1764161121
 20
134.0013915713
 10
132.9060607832
 20
133.8942689862
 10
133.6630663145
 20
133.8581280823
  0
SPLINE
  5
DA
330
1F
100
AcDbEntity
  8
0
  6
HIDDEN
 62
     7
370
     0
100
AcDbSpline
210
0.0
220
0.0
230
1.0
 70
     8
 71
     3
 72
    11
 73
     7
 74
     0
 42
0.00000001
 43
0.00000001
 40
0.0
 40
0.0
 40
0.0
 40
0.0
 40
0.0005779865010845
 40
0.0005779865010845
 40
0.0005779865010845
 40
0.0011559733324421
 40
0.0011559733324421
 40
0.0011559733324421
 40
0.0011559733324421
 10
93.76306593452273
 20
113.9123654986253
 30
0.0
 10
93.92973318932869
 20
113.9103818592843
 30
0.0
 10
94.09639961900636
 20
113.9083442522817
 30
0.0
 10
94.26306595745818
 20
113.9062327888753
 30
0.0
 10
94.42973238628457
 20
113.904121324324
 30
0.0
 10
94.59639875992228
 20
113.9019357611676
 30
0.0
 10
94.76306593452271
 20
113.899653183836
 30
0.0
  0
SPLINE
  5
DB
330
1F
100
AcDbEntity
  8
0
  6
HIDDEN
 62
     7
370
     0
100
AcDbSpline
210
0.0
220
0.0
230
1.0
 70
     8
 71
     3
 72
     8
 73
     4
 74
     0
 42
0.00000001
 43
0.00000001
 40
0.0
 40
0.0
 40
0.0
 40
0.0
 40
0.0011564765856722
 40
0.0011564765856722
 40
0.0011564765856722
 40
0.0011564765856722
 10
94.76306593452271
 20
109.9158245882552
 30
0.0
 10
94.42975800395386
 20
109.9149494326719
 30
0.0
 10
94.09642277156166
 20
109.9138945814204
 30
0.0
 10
93.76306593452271
 20
109.9127234943829
 30
0.0
  0
LINE
  5
DC
330
1F
100
AcDbEntity
  8
0
  6
HIDDEN
 62
     7
370
     0
100
AcDbLine
 10
133.3228918966
 20
94.9125239666
 30
0.0
 11
133.3228918966
 21
128.9125258143
 31
0.0
  0
LINE
  5
DD
330
1F
100
AcDbEntity
  8
0
  6
HIDDEN
 62
     7
370
     0
100
AcDbLine
 10
135.6130657959
 20
96.1875250603
 30
0.0
 11
135.6130657959
 21
127.6375247206
 31
0.0
  0
SPLINE
  5
DE
330
1F
100
AcDbEntity
  8
0
  6
HIDDEN
 62
     7
370
     0
100
AcDbSpline
210
0.0
220
0.0
230
1.0
 70
     8
 71
     3
 72
    16
 73
    12
 74
     0
 42
0.00000001
 43
0.00000001
 40
0.0
 40
0.0
 40
0.0
 40
0.0
 40
0.124999999999998
 40
0.124999999999998
 40
0.249999999999996
 40
0.249999999999996
 40
0.4999999999999973
 40
0.4999999999999973
 40
0.7499999999999987
 40
0.7499999999999987
 40
1.0
 40
1.0
 40
1.0
 40
1.0
 10
102.4630659345227
 20
96.11103445443983
 30
0.0
 10
102.5581876891885
 20
96.11103445443983
 30
0.0
 10
102.6515177579166
 20
96.10721862104702
 30
0.0
 10
102.8347795186546
 20
96.09244806831721
 30
0.0
 10
102.9256572342116
 20
96.08129002034163
 30
0.0
 10
103.1824589317314
 20
96.03881875019991
 30
0.0
 10
103.3375262966034
 20
95.99777255299712
 30
0.0
 10
103.591272758158
 20
95.90262643641523
 30
0.0
 10
103.6921432098258
 20
95.84786370233364
 30
0.0
 10
103.8273896245207
 20
95.73660257842978
 30
0.0
 10
103.8630659345227
 20
95.67943284110109
 30
0.0
 10
103.8630659345227
 20
95.62501126806735
 30
0.0
  0
SPLINE
  5
DF
330
1F
100
AcDbEntity
  8
0
  6
HIDDEN
 62
     7
370
     0
100
AcDbSpline
210
0.0
220
0.0
230
1.0
 70
     8
 71
     3
 72
     8
 73
     4
 74
     0
 42
0.00000001
 43
0.00000001
 40
0.0
 40
0.0
 40
0.0
 40
0.0
 40
1.0
 40
1.0
 40
1.0
 40
1.0
 10
95.0630659378379
 20
98.25583740052207
 30
0.0
 10
95.06306593783984
 20
97.37194025820514
 30
0.0
 10
95.04958531193004
 20
96.6573570131432
 30
0.0
 10
95.04823394374074
 20
96.11103445443983
 30
0.0
  0
SPLINE
  5
E0
330
1F
100
AcDbEntity
  8
0
  6
HIDDEN
 62
     7
370
     0
100
AcDbSpline
210
0.0
220
0.0
230
1.0
 70
     8
 71
     3
 72
    10
 73
     6
 74
     0
 42
0.00000001
 43
0.00000001
 40
0.0
 40
0.0
 40
0.0
 40
0.0
 40
0.5
 40
0.5
 40
1.0
 40
1.0
 40
1.0
 40
1.0
 10
94.76306593452271
 20
99.28074766622527
 30
0.0
 10
94.85445705021561
 20
99.10610887860786
 30
0.0
 10
94.92710888394868
 20
98.93250705135227
 30
0.0
 10
95.03460777695682
 20
98.58889363234556
 30
0.0
 10
95.06306593783229
 20
98.42056780581412
 30
0.0
 10
95.06306593783792
 20
98.25583740058156
 30
0.0
  0
LINE
  5
E1
330
1F
100
AcDbEntity
  8
0
  6
HIDDEN
 62
     7
370
     0
100
AcDbLine
 10
94.7630662713
 20
102.3116983514
 30
0.0
 11
94.7630662713
 21
99.2807472165
 31
0.0
  0
SPLINE
  5
E2
330
1F
100
AcDbEntity
  8
0
  6
HIDDEN
 62
     7
370
     0
100
AcDbSpline
210
0.0
220
0.0
230
1.0
 70
     8
 71
     3
 72
    10
 73
     6
 74
     0
 42
0.00000001
 43
0.00000001
 40
0.0
 40
0.0
 40
0.0
 40
0.0
 40
0.5
 40
0.5
 40
1.0
 40
1.0
 40
1.0
 40
1.0
 10
95.06306593771042
 20
103.6795385148286
 30
0.0
 10
95.06306593771039
 20
103.4375545472218
 30
0.0
 10
95.03491590863983
 20
103.2032121182568
 30
0.0
 10
94.93132599449743
 20
102.7478370959792
 30
0.0
 10
94.85469728490592
 20
102.5262325328718
 30
0.0
 10
94.76306593452271
 20
102.3116980980738
 30
0.0
  0
LINE
  5
E3
330
1F
100
AcDbEntity
  8
0
  6
HIDDEN
 62
     7
370
     0
100
AcDbLine
 10
95.0630657617
 20
115.5171586241
 30
0.0
 11
95.0630657617
 21
103.679538336
 31
0.0
  0
SPLINE
  5
E4
330
1F
100
AcDbEntity
  8
0
  6
HIDDEN
 62
     7
370
     0
100
AcDbSpline
210
0.0
220
0.0
230
1.0
 70
     8
 71
     3
 72
     8
 73
     4
 74
     0
 42
0.00000001
 43
0.00000001
 40
0.0
 40
0.0
 40
0.0
 40
0.0
 40
1.0
 40
1.0
 40
1.0
 40
1.0
 10
94.7630659345227
 20
121.5194642115398
 30
0.0
 10
94.94409740108162
 20
121.0873567258771
 30
0.0
 10
95.06306593771615
 20
120.6332113197775
 30
0.0
 10
95.06306593771043
 20
120.1455112660834
 30
0.0
  0
LINE
  5
E5
330
1F
100
AcDbEntity
  8
0
  6
HIDDEN
 62
     7
370
     0
100
AcDbLine
 10
94.7630662713
 20
124.5526667725
 30
0.0
 11
94.7630662713
 21
121.519464631
 31
0.0
  0
SPLINE
  5
E6
330
1F
100
AcDbEntity
  8
0
  6
HIDDEN
 62
     7
370
     0
100
AcDbSpline
210
0.0
220
0.0
230
1.0
 70
     8
 71
     3
 72
    10
 73
     6
 74
     0
 42
0.00000001
 43
0.00000001
 40
0.0
 40
0.0
 40
0.0
 40
0.0
 40
0.5
 40
0.5
 40
1.0
 40
1.0
 40
1.0
 40
1.0
 10
95.06306593791592
 20
125.5692123803913
 30
0.0
 10
95.06306593791413
 20
125.4045760337853
 30
0.0
 10
95.03590726715863
 20
125.2374208099548
 30
0.0
 10
94.93014227184021
 20
124.8987978021532
 30
0.0
 10
94.85372748354308
 20
124.7265260248622
 30
0.0
 10
94.76306593452274
 20
124.5526671975182
 30
0.0
  0
SPLINE
  5
E7
330
1F
100
AcDbEntity
  8
0
  6
HIDDEN
 62
     7
370
     0
100
AcDbSpline
210
0.0
220
0.0
230
1.0
 70
     8
 71
     3
 72
    18
 73
    14
 74
     0
 42
0.00000001
 43
0.00000001
 40
0.0
 40
0.0
 40
0.0
 40
0.0
 40
0.2500000000000033
 40
0.2500000000000033
 40
0.3750000000000029
 40
0.3750000000000029
 40
0.5000000000000026
 40
0.5000000000000026
 40
0.6250000000000022
 40
0.6250000000000022
 40
0.7500000000000018
 40
0.7500000000000018
 40
1.0
 40
1.0
 40
1.0
 40
1.0
 10
99.86306593452271
 20
128.2000385128756
 30
0.0
 10
99.86306593452271
 20
128.1455639923234
 30
0.0
 10
99.82815524313054
 20
128.0891829329709
 30
0.0
 10
99.72614594179748
 20
128.0051060921175
 30
0.0
 10
99.68450958711938
 20
127.9777723881266
 30
0.0
 10
99.58610379163063
 20
127.9248184725276
 30
0.0
 10
99.52856057992635
 20
127.8989311188104
 30
0.0
 10
99.4012624063534
 20
127.8511535739771
 30
0.0
 10
99.33167510159593
 20
127.8292056557992
 30
0.0
 10
99.18024085644097
 20
127.7897730908865
 30
0.0
 10
99.09755695334702
 20
127.7722168416607
 30
0.0
 10
98.84144549130897
 20
127.7297780762401
 30
0.0
 10
98.653530487421
 20
127.7140153265031
 30
0.0
 10
98.46306593452272
 20
127.7140153265031
 30
0.0
  0
LINE
  5
E8
330
1F
100
AcDbEntity
  8
0
  6
HIDDEN
 62
     7
370
     0
100
AcDbLine
 10
98.4630655739
 20
127.7140161063
 30
0.0
 11
95.0630657617
 21
127.7140161063
 31
0.0
  0
LINE
  5
E9
330
1F
100
AcDbEntity
  8
0
  6
HIDDEN
 62
     7
370
     0
100
AcDbLine
 10
94.9940975997
 20
96.1110336746
 30
0.0
 11
102.4630662296
 21
96.1110336746
 31
0.0
  0
SPLINE
  5
EA
330
1F
100
AcDbEntity
  8
0
  6
HIDDEN
 62
     7
370
     0
100
AcDbSpline
210
0.0
220
0.0
230
1.0
 70
     8
 71
     3
 72
    22
 73
    18
 74
     0
 42
0.00000001
 43
0.00000001
 40
0.0
 40
0.0
 40
0.0
 40
0.0
 40
0.1249999999999998
 40
0.1249999999999998
 40
0.2499999999999995
 40
0.2499999999999995
 40
0.4999999999999992
 40
0.4999999999999992
 40
0.5624999999999993
 40
0.5624999999999993
 40
0.6249999999999994
 40
0.6249999999999994
 40
0.7499999999999996
 40
0.7499999999999996
 40
0.8749999999999998
 40
0.8749999999999998
 40
1.0
 40
1.0
 40
1.0
 40
1.0
 10
94.99409694788064
 20
96.11103445443983
 30
0.0
 10
94.98101455515226
 20
96.3661401645875
 30
0.0
 10
94.96779499171242
 20
96.65929842369141
 30
0.0
 10
94.9453478139183
 20
97.3215988893162
 30
0.0
 10
94.93586934689385
 20
97.6918728099276
 30
0.0
 10
94.9166713859573
 20
98.91442961304139
 30
0.0
 10
94.91778515895419
 20
99.85156853917324
 30
0.0
 10
94.93669595190727
 20
101.1714397686882
 30
0.0
 10
94.94132547976628
 20
101.4429416776646
 30
0.0
 10
94.95180669951223
 20
102.0013265124669
 30
0.0
 10
94.95760196079664
 20
102.2884493684065
 30
0.0
 10
94.97591118170158
 20
103.1610386227782
 30
0.0
 10
94.98994611598194
 20
103.761494299134
 30
0.0
 10
95.01940328811875
 20
104.9989687916301
 30
0.0
 10
95.03495897910034
 20
105.6359849482735
 30
0.0
 10
95.05875352909722
 20
106.9474735459581
 30
0.0
 10
95.06677258124257
 20
107.6235961576186
 30
0.0
 10
95.06306593452271
 20
108.3078912689034
 30
0.0
  0
LINE
  5
EB
330
1F
100
AcDbEntity
  8
0
  6
HIDDEN
 62
     7
370
     0
100
AcDbLine
 10
95.0630657617
 20
115.5171586241
 30
0.0
 11
95.0630657617
 21
127.7140161063
 31
0.0
  0
SPLINE
  5
EC
330
1F
100
AcDbEntity
  8
0
  6
HIDDEN
 62
     7
370
     0
100
AcDbSpline
210
0.0
220
0.0
230
1.0
 70
     8
 71
     3
 72
    10
 73
     6
 74
     0
 42
0.00000001
 43
0.00000001
 40
0.0
 40
0.0
 40
0.0
 40
0.0
 40
0.5
 40
0.5
 40
1.0
 40
1.0
 40
1.0
 40
1.0
 10
95.06306593452271
 20
108.3078912688883
 30
0.0
 10
95.06306593452253
 20
108.5818064169627
 30
0.0
 10
95.03730670465482
 20
108.8527479956928
 30
0.0
 10
94.9341007719217
 20
109.3884390772956
 30
0.0
 10
94.85676260804647
 20
109.6541858808176
 30
0.0
 10
94.7630659345227
 20
109.9158245882552
 30
0.0
  0
SPLINE
  5
ED
330
1F
100
AcDbEntity
  8
0
  6
HIDDEN
 62
     7
370
     0
100
AcDbSpline
210
0.0
220
0.0
230
1.0
 70
     8
 71
     3
 72
    10
 73
     6
 74
     0
 42
0.00000001
 43
0.00000001
 40
0.0
 40
0.0
 40
0.0
 40
0.0
 40
0.5
 40
0.5
 40
1.0
 40
1.0
 40
1.0
 40
1.0
 10
94.7630659345227
 20
113.899653183836
 30
0.0
 10
94.85629651591373
 20
114.1635469919061
 30
0.0
 10
94.93132612815047
 20
114.4297273025444
 30
0.0
 10
95.03639322732862
 20
114.9680498775026
 30
0.0
 10
95.0630659379148
 20
115.2407979937481
 30
0.0
 10
95.063065937916
 20
115.5171585120386
 30
0.0
  0
LINE
  5
EE
330
1F
100
AcDbEntity
  8
0
  6
HIDDEN
 62
     7
370
     0
100
AcDbLine
 10
94.7630662713
 20
109.9158247042
 30
0.0
 11
94.7630662713
 21
113.8996531762
 31
0.0
  0
LINE
  5
EF
330
1F
100
AcDbEntity
  8
0
  6
HIDDEN
 62
     7
370
     0
100
AcDbLine
 10
94.9130650852
 20
93.9225243445
 30
0.0
 11
94.9130650852
 21
91.0425862338
 31
0.0
  0
LWPOLYLINE
  5
F0
330
1F
100
AcDbEntity
  8
0
  6
HIDDEN
 62
     7
370
     0
100
AcDbPolyline
 90
       21
 70
   128
 43
0.0
 10
161.6630643848
 20
100.9523697238
 10
161.1995414141
 20
101.0042825754
 10
160.781388754
 20
101.1549379717
 10
160.4495398942
 20
101.389589351
 10
160.2364793662
 20
101.6852675046
 10
160.1630650703
 20
102.013029721
 10
160.2364793662
 20
102.3407919373
 10
160.4495398942
 20
102.6364700909
 10
160.781388754
 20
102.8711224015
 10
161.1995414141
 20
103.0217777978
 10
161.6630643848
 20
103.0736897181
 10
162.1265910808
 20
103.0217777978
 10
162.5447437409
 20
102.8711224015
 10
162.8765926007
 20
102.6364700909
 10
163.0896494034
 20
102.3407919373
 10
163.1630674246
 20
102.013029721
 10
163.0896494034
 20
101.6852675046
 10
162.8765926007
 20
101.389589351
 10
162.5447437409
 20
101.1549379717
 10
162.1265910808
 20
101.0042825754
 10
161.6630643848
 20
100.9523697238
  0
SPLINE
  5
F1
330
1F
100
AcDbEntity
  8
0
  6
HIDDEN
 62
     7
370
     0
100
AcDbSpline
210
0.0
220
0.0
230
1.0
 70
     8
 71
     3
 72
    14
 73
    10
 74
     0
 42
0.00000001
 43
0.00000001
 40
0.0
 40
0.0
 40
0.0
 40
0.0
 40
0.25
 40
0.25
 40
0.5
 40
0.5
 40
0.75
 40
0.75
 40
1.0
 40
1.0
 40
1.0
 40
1.0
 10
160.6767915810269
 20
102.8168773610107
 30
0.0
 10
160.6444386876614
 20
102.7804863242127
 30
0.0
 10
160.6134645034236
 20
102.7449156930356
 30
0.0
 10
160.56361826273
 20
102.6636449452605
 30
0.0
 10
160.5449184200544
 20
102.6156043525372
 30
0.0
 10
160.5549595763443
 20
102.4803674961897
 30
0.0
 10
160.5815501808917
 20
102.4001704771434
 30
0.0
 10
160.6429672791645
 20
102.2450576699574
 30
0.0
 10
160.6786075321338
 20
102.1681645807467
 30
0.0
 10
160.7157467145112
 20
102.0925728756181
 30
0.0
  0
SPLINE
  5
F2
330
1F
100
AcDbEntity
  8
0
  6
HIDDEN
 62
     7
370
     0
100
AcDbSpline
210
0.0
220
0.0
230
1.0
 70
     8
 71
     3
 72
    14
 73
    10
 74
     0
 42
0.00000001
 43
0.00000001
 40
0.0
 40
0.0
 40
0.0
 40
0.0
 40
0.25
 40
0.25
 40
0.5
 40
0.5
 40
0.75
 40
0.75
 40
1.0
 40
1.0
 40
1.0
 40
1.0
 10
160.7157467145118
 20
102.0925728756176
 30
0.0
 10
160.7518664594184
 20
102.1256219873903
 30
0.0
 10
160.7833181775108
 20
102.1658348774609
 30
0.0
 10
160.8267231460825
 20
102.2650128334008
 30
0.0
 10
160.8371970719424
 20
102.3222908319787
 30
0.0
 10
160.8287357184272
 20
102.4516625569634
 30
0.0
 10
160.8097700088905
 20
102.5220923468816
 30
0.0
 10
160.7532595553377
 20
102.6672985870849
 30
0.0
 10
160.7166391862691
 20
102.7413216776411
 30
0.0
 10
160.6767915810271
 20
102.8168773610116
 30
0.0
  0
SPLINE
  5
F3
330
1F
100
AcDbEntity
  8
0
  6
HIDDEN
 62
     7
370
     0
100
AcDbSpline
210
0.0
220
0.0
230
1.0
 70
     8
 71
     3
 72
    10
 73
     6
 74
     0
 42
0.00000001
 43
0.00000001
 40
0.0
 40
0.0
 40
0.0
 40
0.0
 40
0.5
 40
0.5
 40
1.0
 40
1.0
 40
1.0
 40
1.0
 10
160.1630659345223
 20
103.4959592790361
 30
0.0
 10
160.1630659345223
 20
103.5196001429658
 30
0.0
 10
160.1641818113487
 20
103.5410513059932
 30
0.0
 10
160.1684749946855
 20
103.5797893536512
 30
0.0
 10
160.1716532679154
 20
103.5970786531509
 30
0.0
 10
160.1757922777907
 20
103.6122231929724
 30
0.0
  0
SPLINE
  5
F4
330
1F
100
AcDbEntity
  8
0
  6
HIDDEN
 62
     7
370
     0
100
AcDbSpline
210
0.0
220
0.0
230
1.0
 70
     8
 71
     3
 72
    18
 73
    14
 74
     0
 42
0.00000001
 43
0.00000001
 40
0.0
 40
0.0
 40
0.0
 40
0.0
 40
0.0737499092284262
 40
0.1624115672216397
 40
0.2240279194585117
 40
0.2729193680834208
 40
0.321873733806245
 40
0.3894562433988896
 40
0.5009268249161638
 40
0.6197455686062643
 40
0.7649250753786855
 40
0.8997845763011746
 40
1.0
 40
1.0
 40
1.0
 40
1.0
 10
160.1923719290334
 20
103.6420283879528
 30
0.0
 10
160.1977347313436
 20
103.6541345222031
 30
0.0
 10
160.2095446594782
 20
103.6807945717835
 30
0.0
 10
160.2322471513421
 20
103.6796426280371
 30
0.0
 10
160.2478117570031
 20
103.6573965099155
 30
0.0
 10
160.2532367308597
 20
103.6163365654103
 30
0.0
 10
160.249261275627
 20
103.5547830723133
 30
0.0
 10
160.2326594763611
 20
103.4551121558915
 30
0.0
 10
160.2045142535723
 20
103.3197985825433
 30
0.0
 10
160.1745118229594
 20
103.1545327989818
 30
0.0
 10
160.1593073560724
 20
102.9988791833813
 30
0.0
 10
160.1666877882116
 20
102.8854998131503
 30
0.0
 10
160.1842563706199
 20
102.8546112150806
 30
0.0
 10
160.1917460802632
 20
102.8414430137167
 30
0.0
  0
LWPOLYLINE
  5
F5
330
1F
100
AcDbEntity
  8
0
  6
HIDDEN
 62
     7
370
     0
100
AcDbPolyline
 90
       10
 70
   128
 43
0.0
 10
160.1980380956
 20
102.826843601
 10
160.2355741206
 20
102.8237935196
 10
160.2476217094
 20
102.8490724082
 10
160.2517493311
 20
102.8979919891
 10
160.2463849131
 20
102.9568264301
 10
160.2306716386
 20
103.046088111
 10
160.200135434
 20
103.1954191666
 10
160.1702362541
 20
103.3803043927
 10
160.1630650703
 20
103.495958824
 10
160.1630650703
 20
103.495958824
  0
SPLINE
  5
F6
330
1F
100
AcDbEntity
  8
0
  6
HIDDEN
 62
     7
370
     0
100
AcDbSpline
210
0.0
220
0.0
230
1.0
 70
     8
 71
     3
 72
     8
 73
     4
 74
     0
 42
0.00000001
 43
0.00000001
 40
0.0
 40
0.0
 40
0.0
 40
0.0
 40
1.0
 40
1.0
 40
1.0
 40
1.0
 10
162.9050999737332
 20
108.109545479921
 30
0.0
 10
162.8637253543347
 20
108.147847925058
 30
0.0
 10
162.8181128907371
 20
108.1882974778591
 30
0.0
 10
162.768291916403
 20
108.2329523524917
 30
0.0
  0
SPLINE
  5
F7
330
1F
100
AcDbEntity
  8
0
  6
HIDDEN
 62
     7
370
     0
100
AcDbSpline
210
0.0
220
0.0
230
1.0
 70
     8
 71
     3
 72
    36
 73
    32
 74
     0
 42
0.00000001
 43
0.00000001
 40
0.0
 40
0.0
 40
0.0
 40
0.0
 40
0.0624999999999995
 40
0.0624999999999995
 40
0.124999999999999
 40
0.124999999999999
 40
0.1874999999999985
 40
0.1874999999999985
 40
0.249999999999998
 40
0.249999999999998
 40
0.3124999999999975
 40
0.3124999999999975
 40
0.374999999999997
 40
0.374999999999997
 40
0.4999999999999978
 40
0.4999999999999978
 40
0.562499999999998
 40
0.562499999999998
 40
0.6249999999999983
 40
0.6249999999999983
 40
0.6874999999999986
 40
0.6874999999999986
 40
0.7499999999999989
 40
0.7499999999999989
 40
0.8124999999999991
 40
0.8124999999999991
 40
0.8749999999999994
 40
0.8749999999999994
 40
0.9374999999999997
 40
0.9374999999999997
 40
1.0
 40
1.0
 40
1.0
 40
1.0
 10
162.768291916403
 20
108.2329523524917
 30
0.0
 10
162.6663412687903
 20
108.3243314041601
 30
0.0
 10
162.55058794831
 20
108.4031758008732
 30
0.0
 10
162.2913883170642
 20
108.5330223212364
 30
0.0
 10
162.1511846324813
 20
108.5818773980704
 30
0.0
 10
161.8588589190087
 20
108.6418084796105
 30
0.0
 10
161.7064533543161
 20
108.6525520129231
 30
0.0
 10
161.4073107200067
 20
108.6338704077726
 30
0.0
 10
161.2577168816588
 20
108.6041352124162
 30
0.0
 10
160.979329968903
 20
108.5099915648112
 30
0.0
 10
160.8468684327219
 20
108.4443930455824
 30
0.0
 10
160.613799737377
 20
108.2887045009032
 30
0.0
 10
160.5098195831812
 20
108.1964373047594
 30
0.0
 10
160.2573398334556
 20
107.9004870350533
 30
0.0
 10
160.1631938021438
 20
107.6714317609353
 30
0.0
 10
160.163002202604
 20
107.3515863927158
 30
0.0
 10
160.1854784841469
 20
107.2500047321825
 30
0.0
 10
160.2748030393524
 20
107.0603506909956
 30
0.0
 10
160.3397056548155
 20
106.9756025222517
 30
0.0
 10
160.5099540304172
 20
106.8234117137585
 30
0.0
 10
160.6114856914079
 20
106.7594362539035
 30
0.0
 10
160.8461209297129
 20
106.6523928203116
 30
0.0
 10
160.9767158804545
 20
106.6107967317714
 30
0.0
 10
161.2556437842923
 20
106.5511304458274
 30
0.0
 10
161.4046401943209
 20
106.5331356204364
 30
0.0
 10
161.7035512667416
 20
106.5215037172129
 30
0.0
 10
161.8567772572964
 20
106.5278332181434
 30
0.0
 10
162.1482349266664
 20
106.5642971105205
 30
0.0
 10
162.2905765955078
 20
106.59497429736
 30
0.0
 10
162.5479941517577
 20
106.6789053638679
 30
0.0
 10
162.6663329966238
 20
106.7329886093569
 30
0.0
 10
162.768291916403
 20
106.7987448856468
 30
0.0
  0
SPLINE
  5
F8
330
1F
100
AcDbEntity
  8
0
  6
HIDDEN
 62
     7
370
     0
100
AcDbSpline
210
0.0
220
0.0
230
1.0
 70
     8
 71
     3
 72
     8
 73
     4
 74
     0
 42
0.00000001
 43
0.00000001
 40
0.0
 40
0.0
 40
0.0
 40
0.0
 40
1.0
 40
1.0
 40
1.0
 40
1.0
 10
162.768291916403
 20
106.7987448856468
 30
0.0
 10
162.8181128907371
 20
106.8308758827233
 30
0.0
 10
162.8637253543347
 20
106.8720249154458
 30
0.0
 10
162.9050999737332
 20
106.9201326454162
 30
0.0
  0
SPLINE
  5
F9
330
1F
100
AcDbEntity
  8
0
  6
HIDDEN
 62
     7
370
     0
100
AcDbSpline
210
0.0
220
0.0
230
1.0
 70
     8
 71
     3
 72
    12
 73
     8
 74
     0
 42
0.00000001
 43
0.00000001
 40
0.0
 40
0.0
 40
0.0
 40
0.0
 40
0.25
 40
0.25
 40
0.5
 40
0.5
 40
1.0
 40
1.0
 40
1.0
 40
1.0
 10
162.9050999737332
 20
106.9201326454162
 30
0.0
 10
162.9889836421899
 20
107.0176671467534
 30
0.0
 10
163.0528473478216
 20
107.1182958729351
 30
0.0
 10
163.1406590229799
 20
107.3284027396642
 30
0.0
 10
163.1629298757401
 20
107.4349975858495
 30
0.0
 10
163.1633361883775
 20
107.7507125681145
 30
0.0
 10
163.0728662646183
 20
107.9542362771807
 30
0.0
 10
162.9050999737332
 20
108.109545479921
 30
0.0
  0
SPLINE
  5
FA
330
1F
100
AcDbEntity
  8
0
  6
HIDDEN
 62
     7
370
     0
100
AcDbSpline
210
0.0
220
0.0
230
1.0
 70
     8
 71
     3
 72
    14
 73
    10
 74
     0
 42
0.00000001
 43
0.00000001
 40
0.0
 40
0.0
 40
0.0
 40
0.0
 40
0.25
 40
0.25
 40
0.5
 40
0.5
 40
0.75
 40
0.75
 40
1.0
 40
1.0
 40
1.0
 40
1.0
 10
160.7157467145117
 20
103.7373137642677
 30
0.0
 10
160.6785346275417
 20
103.7701878642977
 30
0.0
 10
160.6427960714863
 20
103.8016419593132
 30
0.0
 10
160.5813003423036
 20
103.8716772546376
 30
0.0
 10
160.5547934763676
 20
103.9107786633964
 30
0.0
 10
160.5450101359324
 20
104.0299572042577
 30
0.0
 10
160.5637933317417
 20
104.108242287667
 30
0.0
 10
160.613711940327
 20
104.2618859069486
 30
0.0
 10
160.6445206747423
 20
104.3390393766735
 30
0.0
 10
160.6767915810271
 20
104.4151657577888
 30
0.0
  0
SPLINE
  5
FB
330
1F
100
AcDbEntity
  8
0
  6
HIDDEN
 62
     7
370
     0
100
AcDbSpline
210
0.0
220
0.0
230
1.0
 70
     8
 71
     3
 72
    10
 73
     6
 74
     0
 42
0.00000001
 43
0.00000001
 40
0.0
 40
0.0
 40
0.0
 40
0.0
 40
0.5
 40
0.5
 40
1.0
 40
1.0
 40
1.0
 40
1.0
 10
160.6767915810271
 20
104.4151657577888
 30
0.0
 10
160.756361644196
 20
104.3624941279022
 30
0.0
 10
160.8240570273543
 20
104.2769425655029
 30
0.0
 10
160.8417312505238
 20
104.0328076597934
 30
0.0
 10
160.7880095311164
 20
103.8866755680876
 30
0.0
 10
160.7157467145118
 20
103.7373137642674
 30
0.0
  0
SPLINE
  5
FC
330
1F
100
AcDbEntity
  8
0
  6
HIDDEN
 62
     7
370
     0
100
AcDbSpline
210
0.0
220
0.0
230
1.0
 70
     8
 71
     3
 72
    48
 73
    44
 74
     0
 42
0.00000001
 43
0.00000001
 40
-0.0624999999999994
 40
-0.0624999999999994
 40
0.0
 40
0.0
 40
0.03125
 40
0.03125
 40
0.0625000000000001
 40
0.0625000000000001
 40
0.1249999999999997
 40
0.1249999999999997
 40
0.1874999999999993
 40
0.1874999999999993
 40
0.249999999999999
 40
0.249999999999999
 40
0.3124999999999986
 40
0.3124999999999986
 40
0.343749999999999
 40
0.343749999999999
 40
0.3749999999999993
 40
0.3749999999999993
 40
0.4062499999999997
 40
0.4062499999999997
 40
0.4375000000000001
 40
0.4375000000000001
 40
0.5000000000000001
 40
0.5000000000000001
 40
0.5625000000000002
 40
0.5625000000000002
 40
0.6250000000000002
 40
0.6250000000000002
 40
0.6875000000000003
 40
0.6875000000000003
 40
0.7500000000000003
 40
0.7500000000000003
 40
0.8125000000000004
 40
0.8125000000000004
 40
0.8437500000000004
 40
0.8437500000000004
 40
0.8750000000000006
 40
0.8750000000000006
 40
0.9062500000000006
 40
0.9062500000000006
 40
0.9375000000000006
 40
0.9375000000000006
 40
1.0
 40
1.0
 40
1.03125
 40
1.03125
 10
162.7938559118742
 20
102.0464160701944
 30
0.0
 10
162.9159237423913
 20
102.0498073954162
 30
0.0
 10
162.9543860723089
 20
102.0582542113625
 30
0.0
 10
163.0245355480754
 20
102.0905290754167
 30
0.0
 10
163.0565526808505
 20
102.1148018328826
 30
0.0
 10
163.1352882677682
 20
102.2116244944038
 30
0.0
 10
163.1650166685891
 20
102.3107741321388
 30
0.0
 10
163.1609049145589
 20
102.5596959339086
 30
0.0
 10
163.1268588218935
 20
102.7102973810031
 30
0.0
 10
163.0154926633687
 20
103.0192125515316
 30
0.0
 10
162.9390937397781
 20
103.1779724311574
 30
0.0
 10
162.7759205595138
 20
103.4857436779957
 30
0.0
 10
162.6872810934983
 20
103.6364812109059
 30
0.0
 10
162.5780669927694
 20
103.8544064244284
 30
0.0
 10
162.5451454450574
 20
103.9275620841208
 30
0.0
 10
162.5006947320576
 20
104.0670987277666
 30
0.0
 10
162.4894619136335
 20
104.1350993631352
 30
0.0
 10
162.4962497120575
 20
104.2550328746463
 30
0.0
 10
162.5139966753431
 20
104.3084516093012
 30
0.0
 10
162.5661472018158
 20
104.3965986876307
 30
0.0
 10
162.600520366283
 20
104.4327208737151
 30
0.0
 10
162.712467026981
 20
104.5188202240658
 30
0.0
 10
162.7979510041345
 20
104.5479172414601
 30
0.0
 10
162.956102482035
 20
104.5514558368948
 30
0.0
 10
163.0283473574698
 20
104.5254909834147
 30
0.0
 10
163.1340374138548
 20
104.4037939194674
 30
0.0
 10
163.1645364596131
 20
104.3069451602396
 30
0.0
 10
163.1614800836951
 20
104.0577960897724
 30
0.0
 10
163.1275574333007
 20
103.9048607669057
 30
0.0
 10
163.0175920057025
 20
103.5919798707394
 30
0.0
 10
162.9424367403097
 20
103.4310239486801
 30
0.0
 10
162.7836768105633
 20
103.1215214864761
 30
0.0
 10
162.6970320899216
 20
102.9686430199453
 30
0.0
 10
162.5885619554759
 20
102.7500194044534
 30
0.0
 10
162.5556123888251
 20
102.6778724186682
 30
0.0
 10
162.5068228490648
 20
102.5355244088064
 30
0.0
 10
162.4922312549411
 20
102.4672357568854
 30
0.0
 10
162.4922130181096
 20
102.3421549948961
 30
0.0
 10
162.5068952450688
 20
102.2872934394155
 30
0.0
 10
162.5569076210934
 20
102.1953474159681
 30
0.0
 10
162.5908939271241
 20
102.1590288508957
 30
0.0
 10
162.7051914957167
 20
102.0725557619567
 30
0.0
 10
162.7938559118742
 20
102.0464160701944
 30
0.0
 10
162.9159237423913
 20
102.0498073954162
 30
0.0
  0
LINE
  5
FD
330
1F
100
AcDbEntity
  8
0
  6
HIDDEN
 62
     7
370
     0
100
AcDbLine
 10
103.863065714
 20
93.9225243445
 30
0.0
 11
103.863065714
 21
89.9487869854
 31
0.0
  0
LINE
  5
FE
330
1F
100
AcDbEntity
  8
0
  6
HIDDEN
 62
     7
370
     0
100
AcDbLine
 10
94.9130650852
 20
129.9025254365
 30
0.0
 11
94.9130650852
 21
132.7824635472
 31
0.0
  0
LINE
  5
FF
330
1F
100
AcDbEntity
  8
0
  6
HIDDEN
 62
     7
370
     0
100
AcDbLine
 10
99.8630650583
 20
129.9025254365
 30
0.0
 11
99.8630650583
 21
133.7566325481
 31
0.0
  0
ARC
  5
100
330
1F
100
AcDbEntity
  8
0
  6
HIDDEN
 62
     7
370
     0
100
AcDbCircle
 10
147.572735939
 20
103.3220457947
 30
0.0
 40
13.14956826738204
100
AcDbArc
 50
1.8097221042
 51
4.7684854815
  0
LINE
  5
101
330
1F
100
AcDbEntity
  8
0
  6
HIDDEN
 62
     7
370
     0
100
AcDbLine
 10
144.4630656633
 20
102.4125251959
 30
0.0
 11
144.4630656633
 21
121.412524585
 31
0.0
  0
LINE
  5
102
330
1F
100
AcDbEntity
  8
0
  6
HIDDEN
 62
     7
370
     0
100
AcDbLine
 10
147.4630661551
 20
102.4125251959
 30
0.0
 11
147.4630661551
 21
121.412524585
 31
0.0
  0
LINE
  5
103
330
1F
100
AcDbEntity
  8
0
  6
HIDDEN
 62
     7
370
     0
100
AcDbLine
 10
136.1130658779
 20
103.4125244285
 30
0.0
 11
136.1130658779
 21
120.4125253524
 31
0.0
  0
LINE
  5
104
330
1F
100
AcDbEntity
  8
0
  6
HIDDEN
 62
     7
370
     0
100
AcDbLine
 10
151.6130656246
 20
85.5125250335
 30
0.0
 11
145.4753909502
 21
85.5125250335
 31
0.0
  0
LINE
  5
105
330
1F
100
AcDbEntity
  8
0
  6
HIDDEN
 62
     7
370
     0
100
AcDbLine
 10
130.6130659077
 20
80.4284015711
 30
0.0
 11
130.6130659077
 21
85.5125250335
 31
0.0
  0
LINE
  5
106
330
1F
100
AcDbEntity
  8
0
  6
HIDDEN
 62
     7
370
     0
100
AcDbLine
 10
138.6130662877
 20
85.5125250335
 30
0.0
 11
130.6130659077
 21
85.5125250335
 31
0.0
  0
LINE
  5
107
330
1F
100
AcDbEntity
  8
0
  6
HIDDEN
 62
     7
370
     0
100
AcDbLine
 10
141.8507412318
 20
85.5125250335
 30
0.0
 11
138.6130662877
 21
85.5125250335
 31
0.0
  0
ARC
  5
108
330
1F
100
AcDbEntity
  8
0
  6
HIDDEN
 62
     7
370
     0
100
AcDbCircle
 10
176.8701383458
 20
103.324606655
 30
0.0
 40
16.20130605259354
100
AcDbArc
 50
181.7958737677
 51
184.3612866278
  0
LINE
  5
109
330
1F
100
AcDbEntity
  8
0
  6
HIDDEN
 62
     7
370
     0
100
AcDbLine
 10
138.6130662877
 20
138.3125247474
 30
0.0
 11
130.6130659077
 21
138.3125247474
 31
0.0
  0
LINE
  5
10A
330
1F
100
AcDbEntity
  8
0
  6
HIDDEN
 62
     7
370
     0
100
AcDbLine
 10
151.6130656246
 20
138.3125247474
 30
0.0
 11
145.1787684355
 21
138.3125247474
 31
0.0
  0
LINE
  5
10B
330
1F
100
AcDbEntity
  8
0
  6
HIDDEN
 62
     7
370
     0
100
AcDbLine
 10
142.1473637465
 20
138.3125247474
 30
0.0
 11
138.6130662877
 21
138.3125247474
 31
0.0
  0
SPLINE
  5
10C
330
1F
100
AcDbEntity
  8
0
  6
HIDDEN
 62
     7
370
     0
100
AcDbSpline
210
0.0
220
0.0
230
1.0
 70
     8
 71
     3
 72
    11
 73
     7
 74
     0
 42
0.00000001
 43
0.00000001
 40
0.0
 40
0.0
 40
0.0
 40
0.0
 40
0.0008203708524183
 40
0.0008203708524183
 40
0.0008203708524183
 40
0.0016409967870154
 40
0.0016409967870154
 40
0.0016409967870154
 40
0.0016409967870154
 10
94.91306593452272
 20
96.06049213982875
 30
0.0
 10
94.72190763422405
 20
96.01931311120963
 30
0.0
 10
94.53048056415187
 20
95.98055913897963
 30
0.0
 10
94.33883494063124
 20
95.94419137970108
 30
0.0
 10
94.14712953555079
 20
95.90781227593504
 30
0.0
 10
93.95519058349183
 20
95.8738180251675
 30
0.0
 10
93.76306593642103
 20
95.84216989977628
 30
0.0
  0
ELLIPSE
  5
10D
330
1F
100
AcDbEntity
  8
0
  6
HIDDEN
 62
     7
370
     0
100
AcDbEllipse
 10
89.5206340659
 20
111.9125248905
 30
0.0
 11
20.19992453366628
 21
-1.421085471520200E-14
 31
0.0
210
0.0
220
0.0
230
1.0
 40
0.8164965809
 41
1.300566354718001
 42
1.359198697209606
  0
SPLINE
  5
10E
330
1F
100
AcDbEntity
  8
0
  6
HIDDEN
 62
     7
370
     0
100
AcDbSpline
210
0.0
220
0.0
230
1.0
 70
     8
 71
     3
 72
    36
 73
    32
 74
     0
 42
0.00000001
 43
0.00000001
 40
0.0
 40
0.0
 40
0.0
 40
0.0
 40
0.0624999999999997
 40
0.0624999999999997
 40
0.1249999999999994
 40
0.1249999999999994
 40
0.1874999999999991
 40
0.1874999999999991
 40
0.2499999999999987
 40
0.2499999999999987
 40
0.3124999999999984
 40
0.3124999999999984
 40
0.3749999999999981
 40
0.3749999999999981
 40
0.499999999999999
 40
0.499999999999999
 40
0.5624999999999991
 40
0.5624999999999991
 40
0.6249999999999992
 40
0.6249999999999992
 40
0.6874999999999993
 40
0.6874999999999993
 40
0.7499999999999994
 40
0.7499999999999994
 40
0.8124999999999997
 40
0.8124999999999997
 40
0.8749999999999998
 40
0.8749999999999998
 40
0.9374999999999999
 40
0.9374999999999999
 40
1.0
 40
1.0
 40
1.0
 40
1.0
 10
162.768291916403
 20
115.5920974284513
 30
0.0
 10
162.6663412687903
 20
115.5007183767828
 30
0.0
 10
162.55058794831
 20
115.4218739800697
 30
0.0
 10
162.2913883170642
 20
115.2920274597066
 30
0.0
 10
162.1511846324813
 20
115.2431723828725
 30
0.0
 10
161.8588589190087
 20
115.1832413013324
 30
0.0
 10
161.7064533543161
 20
115.1724977680199
 30
0.0
 10
161.4073107200066
 20
115.1911793731703
 30
0.0
 10
161.2577168816589
 20
115.2209145685267
 30
0.0
 10
160.979329968903
 20
115.3150582161318
 30
0.0
 10
160.8468684327219
 20
115.3806567353606
 30
0.0
 10
160.613799737377
 20
115.5363452800397
 30
0.0
 10
160.5098195831812
 20
115.6286124761836
 30
0.0
 10
160.2573398334556
 20
115.9245627458897
 30
0.0
 10
160.1631938021439
 20
116.1536180200076
 30
0.0
 10
160.163002202604
 20
116.4734633882272
 30
0.0
 10
160.1854784841469
 20
116.5750450487605
 30
0.0
 10
160.2748030393524
 20
116.7646990899474
 30
0.0
 10
160.3397056548155
 20
116.8494472586913
 30
0.0
 10
160.5099540304172
 20
117.0016380671845
 30
0.0
 10
160.6114856914079
 20
117.0656135270394
 30
0.0
 10
160.8461209297129
 20
117.1726569606313
 30
0.0
 10
160.9767158804545
 20
117.2142530491715
 30
0.0
 10
161.2556437842923
 20
117.2739193351155
 30
0.0
 10
161.4046401943209
 20
117.2919141605065
 30
0.0
 10
161.7035512667417
 20
117.3035460637301
 30
0.0
 10
161.8567772572964
 20
117.2972165627996
 30
0.0
 10
162.1482349266665
 20
117.2607526704225
 30
0.0
 10
162.2905765955078
 20
117.230075483583
 30
0.0
 10
162.5479941517577
 20
117.1461444170751
 30
0.0
 10
162.6663329966238
 20
117.0920611715861
 30
0.0
 10
162.768291916403
 20
117.0263048952962
 30
0.0
  0
SPLINE
  5
10F
330
1F
100
AcDbEntity
  8
0
  6
HIDDEN
 62
     7
370
     0
100
AcDbSpline
210
0.0
220
0.0
230
1.0
 70
     8
 71
     3
 72
     8
 73
     4
 74
     0
 42
0.00000001
 43
0.00000001
 40
0.0
 40
0.0
 40
0.0
 40
0.0
 40
1.0
 40
1.0
 40
1.0
 40
1.0
 10
162.768291916403
 20
117.0263048952962
 30
0.0
 10
162.8181128907372
 20
116.9941738982196
 30
0.0
 10
162.8637253543347
 20
116.9530248654972
 30
0.0
 10
162.9050999737332
 20
116.9049171355268
 30
0.0
  0
LINE
  5
110
330
1F
100
AcDbEntity
  8
0
  6
HIDDEN
 62
     7
370
     0
100
AcDbLine
 10
159.6630677823
 20
106.0125246684
 30
0.0
 11
159.6630677823
 21
117.8125246468
 31
0.0
  0
SPLINE
  5
111
330
1F
100
AcDbEntity
  8
0
  6
HIDDEN
 62
     7
370
     0
100
AcDbSpline
210
0.0
220
0.0
230
1.0
 70
     8
 71
     3
 72
    12
 73
     8
 74
     0
 42
0.00000001
 43
0.00000001
 40
0.0
 40
0.0
 40
0.0
 40
0.0
 40
0.25
 40
0.25
 40
0.5
 40
0.5
 40
1.0
 40
1.0
 40
1.0
 40
1.0
 10
162.9050999737332
 20
116.9049171355268
 30
0.0
 10
162.9889836421899
 20
116.8073826341896
 30
0.0
 10
163.0528473478216
 20
116.7067539080078
 30
0.0
 10
163.1406590229799
 20
116.4966470412788
 30
0.0
 10
163.1629298757401
 20
116.3900521950934
 30
0.0
 10
163.1633361883775
 20
116.0743372128285
 30
0.0
 10
163.0728662646183
 20
115.8708135037622
 30
0.0
 10
162.9050999737332
 20
115.715504301022
 30
0.0
  0
LINE
  5
112
330
1F
100
AcDbEntity
  8
0
  6
HIDDEN
 62
     7
370
     0
100
AcDbLine
 10
163.6630647126
 20
105.9125248383
 30
0.0
 11
163.6630647126
 21
117.9125249426
 31
0.0
  0
LINE
  5
113
330
1F
100
AcDbEntity
  8
0
  6
HIDDEN
 62
     7
370
     0
100
AcDbLine
 10
94.9130650852
 20
93.9225243445
 30
0.0
 11
94.9130650852
 21
96.0604926612
 31
0.0
  0
LINE
  5
114
330
1F
100
AcDbEntity
  8
0
  6
HIDDEN
 62
     7
370
     0
100
AcDbLine
 10
94.9940975997
 20
96.1110336746
 30
0.0
 11
94.9130650852
 21
96.0604926612
 31
0.0
  0
LINE
  5
115
330
1F
100
AcDbEntity
  8
0
  6
HIDDEN
 62
     7
370
     0
100
AcDbLine
 10
103.863065714
 20
93.9225243445
 30
0.0
 11
103.863065714
 21
95.6250118132
 31
0.0
  0
LINE
  5
116
330
1F
100
AcDbEntity
  8
0
  6
HIDDEN
 62
     7
370
     0
100
AcDbLine
 10
99.8630650583
 20
129.9025254365
 30
0.0
 11
99.8630650583
 21
128.2000379677
 31
0.0
  0
LINE
  5
117
330
1F
100
AcDbEntity
  8
0
  6
HIDDEN
 62
     7
370
     0
100
AcDbLine
 10
94.9130650852
 20
129.9025254365
 30
0.0
 11
94.9130650852
 21
127.8071502264
 31
0.0
  0
SPLINE
  5
118
330
1F
100
AcDbEntity
  8
0
  6
HIDDEN
 62
     7
370
     0
100
AcDbSpline
210
0.0
220
0.0
230
1.0
 70
     8
 71
     3
 72
     8
 73
     4
 74
     0
 42
0.00000001
 43
0.00000001
 40
0.0
 40
0.0
 40
0.0
 40
0.0
 40
1.0
 40
1.0
 40
1.0
 40
1.0
 10
94.91306593452272
 20
127.8071493415301
 30
0.0
 10
94.96307143346644
 20
127.776113567311
 30
0.0
 10
95.01307150413085
 20
127.7450689222835
 30
0.0
 10
95.06306593791597
 20
127.7140153265031
 30
0.0
  0
SPLINE
  5
119
330
1F
100
AcDbEntity
  8
0
  6
HIDDEN
 62
     7
370
     0
100
AcDbSpline
210
0.0
220
0.0
230
1.0
 70
     8
 71
     3
 72
    20
 73
    16
 74
     0
 42
0.00000001
 43
0.00000001
 40
0.0
 40
0.0
 40
0.0
 40
0.0
 40
0.1118535467422944
 40
0.1773730685442663
 40
0.2489949764010111
 40
0.3297438330820504
 40
0.3985165577185236
 40
0.4997968002569875
 40
0.6137625036261098
 40
0.6789287320484673
 40
0.7494555882173735
 40
0.8296019573419475
 40
0.8980459719712445
 40
0.9994568737771694
 40
1.0
 40
1.0
 40
1.0
 40
1.0
 10
120.4116815942961
 20
88.31259105758765
 30
0.0
 10
120.3683894146001
 20
88.32600870803049
 30
0.0
 10
120.2997383348598
 20
88.34728590398014
 30
0.0
 10
119.8547210746416
 20
88.45056256341958
 30
0.0
 10
119.3281709431851
 20
88.56386101848503
 30
0.0
 10
118.642743395856
 20
88.68679620737404
 30
0.0
 10
117.7494268699533
 20
88.80883074291413
 30
0.0
 10
116.6360670466247
 20
88.92656650438353
 30
0.0
 10
115.5252926962989
 20
88.9385400868482
 30
0.0
 10
114.6405451144255
 20
88.91148520119093
 30
0.0
 10
113.9733462747081
 20
88.86354976980338
 30
0.0
 10
113.4320823211776
 20
88.807262345917
 30
0.0
 10
113.0444698526332
 20
88.76215383840082
 30
0.0
 10
112.8505569651592
 20
88.7233566784308
 30
0.0
 10
112.9137539667368
 20
88.73402289445801
 30
0.0
 10
112.9140906277734
 20
88.73407971518138
 30
0.0
  0
LINE
  5
11A
330
1F
100
AcDbEntity
  8
0
  6
HIDDEN
 62
     7
370
     0
100
AcDbLine
 10
113.8230782244
 20
88.8448623981
 30
0.0
 11
114.0069231633
 21
88.8630529906
 31
0.0
  0
SPLINE
  5
11B
330
1F
100
AcDbEntity
  8
0
  6
HIDDEN
 62
     7
370
     0
100
AcDbSpline
210
0.0
220
0.0
230
1.0
 70
     8
 71
     3
 72
    27
 73
    23
 74
     0
 42
0.00000001
 43
0.00000001
 40
0.0
 40
0.0
 40
0.0
 40
0.0
 40
0.0008085591006349
 40
0.0456910698863066
 40
0.1022727339052982
 40
0.1705508216279965
 40
0.2091424780851575
 40
0.250669716491954
 40
0.3211154737113109
 40
0.3862092241347784
 40
0.4266883951181778
 40
0.4648196562279712
 40
0.5006239193214489
 40
0.5452157483450667
 40
0.601709998720382
 40
0.6701159320702823
 40
0.7088532990839164
 40
0.7505820338442188
 40
0.8222466258419032
 40
0.8877860351962378
 40
0.9472597935351534
 40
1.0
 40
1.0
 40
1.0
 40
1.0
 10
112.9137339312273
 20
135.090938400794
 30
0.0
 10
112.9135117825378
 20
135.0909864233094
 30
0.0
 10
112.9009583262865
 20
135.0937001397264
 30
0.0
 10
112.9500187494723
 20
135.0818585238373
 30
0.0
 10
113.0951317681714
 20
135.0584225635314
 30
0.0
 10
113.3681811448389
 20
135.024513477323
 30
0.0
 10
113.6967074556935
 20
134.9909458761229
 30
0.0
 10
114.0894352902672
 20
134.9527628442246
 30
0.0
 10
114.6391631624314
 20
134.9137947592591
 30
0.0
 10
115.2651857740065
 20
134.8943331306224
 30
0.0
 10
115.8083776176611
 20
134.8921479745191
 30
0.0
 10
116.2534463662885
 20
134.9006626957845
 30
0.0
 10
116.7198942210383
 20
134.9204462459751
 30
0.0
 10
117.2571351461956
 20
134.9646061276462
 30
0.0
 10
117.905348117801
 20
135.0370259631574
 30
0.0
 10
118.4908872548293
 20
135.1179236212268
 30
0.0
 10
118.9718564177589
 20
135.1960929828827
 30
0.0
 10
119.41727141974
 20
135.2808635397334
 30
0.0
 10
119.8557714761363
 20
135.3746483140185
 30
0.0
 10
120.1947963630262
 20
135.4525505397293
 30
0.0
 10
120.3821372737149
 20
135.5027415704634
 30
0.0
 10
120.4026273477148
 20
135.509408912732
 30
0.0
 10
120.4122576173085
 20
135.512542542387
 30
0.0
  0
SPLINE
  5
11C
330
1F
100
AcDbEntity
  8
0
  6
HIDDEN
 62
     7
370
     0
100
AcDbSpline
210
0.0
220
0.0
230
1.0
 70
     8
 71
     3
 72
     8
 73
     4
 74
     0
 42
0.00000001
 43
0.00000001
 40
0.0
 40
0.0
 40
0.0
 40
0.0
 40
1.0
 40
1.0
 40
1.0
 40
1.0
 10
162.9050999737332
 20
115.715504301022
 30
0.0
 10
162.8637253543347
 20
115.677201855885
 30
0.0
 10
162.8181128907372
 20
115.6367523030839
 30
0.0
 10
162.768291916403
 20
115.5920974284513
 30
0.0
  0
LINE
  5
11D
330
1F
100
AcDbEntity
  8
0
  6
HIDDEN
 62
     7
370
     0
100
AcDbLine
 10
162.613065565
 20
132.3351753916
 30
0.0
 11
165.1130669061
 21
132.3351753916
 31
0.0
  0
LINE
  5
11E
330
1F
100
AcDbEntity
  8
0
  6
HIDDEN
 62
     7
370
     0
100
AcDbLine
 10
160.1130642239
 20
132.3351753916
 30
0.0
 11
162.613065565
 21
132.3351753916
 31
0.0
  0
LINE
  5
11F
330
1F
100
AcDbEntity
  8
0
  6
HIDDEN
 62
     7
370
     0
100
AcDbLine
 10
165.1130669061
 20
91.4898743893
 30
0.0
 11
160.1130642239
 21
91.4898743893
 31
0.0
  0
LINE
  5
120
330
1F
100
AcDbEntity
  8
0
  6
HIDDEN
 62
     7
370
     0
100
AcDbLine
 10
162.613065565
 20
123.9125249948
 30
0.0
 11
165.1130669061
 21
123.9125249948
 31
0.0
  0
LINE
  5
121
330
1F
100
AcDbEntity
  8
0
  6
HIDDEN
 62
     7
370
     0
100
AcDbLine
 10
160.1130642239
 20
123.9125249948
 30
0.0
 11
162.613065565
 21
123.9125249948
 31
0.0
  0
LINE
  5
122
330
1F
100
AcDbEntity
  8
0
  6
HIDDEN
 62
     7
370
     0
100
AcDbLine
 10
165.1130669061
 20
99.9125247862
 30
0.0
 11
160.1130642239
 21
99.9125247862
 31
0.0
  0
SPLINE
  5
123
330
1F
100
AcDbEntity
  8
0
  6
HIDDEN
 62
     7
370
     0
100
AcDbSpline
210
0.0
220
0.0
230
1.0
 70
     8
 71
     3
 72
    48
 73
    44
 74
     0
 42
0.00000001
 43
0.00000001
 40
-0.0624999999999994
 40
-0.0624999999999994
 40
0.0
 40
0.0
 40
0.0625000000000006
 40
0.0625000000000006
 40
0.1250000000000011
 40
0.1250000000000011
 40
0.1875000000000012
 40
0.1875000000000012
 40
0.2500000000000013
 40
0.2500000000000013
 40
0.3125000000000014
 40
0.3125000000000014
 40
0.3437500000000015
 40
0.3437500000000015
 40
0.3750000000000016
 40
0.3750000000000016
 40
0.4062500000000016
 40
0.4062500000000016
 40
0.4375000000000017
 40
0.4375000000000017
 40
0.5000000000000018
 40
0.5000000000000018
 40
0.5625000000000019
 40
0.5625000000000019
 40
0.625000000000002
 40
0.625000000000002
 40
0.656250000000002
 40
0.656250000000002
 40
0.6875000000000021
 40
0.6875000000000021
 40
0.7500000000000014
 40
0.7500000000000014
 40
0.8125000000000008
 40
0.8125000000000008
 40
0.8437500000000007
 40
0.8437500000000007
 40
0.8750000000000007
 40
0.8750000000000007
 40
0.9062500000000006
 40
0.9062500000000006
 40
0.9375000000000006
 40
0.9375000000000006
 40
1.0
 40
1.0
 40
1.0625
 40
1.0625
 10
162.9568121435476
 20
120.6828670220684
 30
0.0
 10
162.7936567875571
 20
120.3708428946162
 30
0.0
 10
162.7059528783059
 20
120.2215116413165
 30
0.0
 10
162.553961048855
 20
119.9260276047318
 30
0.0
 10
162.4930734311633
 20
119.7810642777696
 30
0.0
 10
162.4913895947182
 20
119.5298221909097
 30
0.0
 10
162.5498362952218
 20
119.4375265993249
 30
0.0
 10
162.6948593645809
 20
119.3147307075044
 30
0.0
 10
162.7803784728415
 20
119.2819707798824
 30
0.0
 10
162.9396708151193
 20
119.2703788925117
 30
0.0
 10
163.0143848569044
 20
119.2921260637377
 30
0.0
 10
163.0980392639549
 20
119.3766826257307
 30
0.0
 10
163.120602621786
 20
119.4130748539473
 30
0.0
 10
163.1524395951174
 20
119.503004308827
 30
0.0
 10
163.1615905937343
 20
119.5572527871169
 30
0.0
 10
163.1642023679238
 20
119.6778161400202
 30
0.0
 10
163.1577473805306
 20
119.7459119277247
 30
0.0
 10
163.1305600300542
 20
119.8898010631242
 30
0.0
 10
163.1100402455842
 20
119.9655002984673
 30
0.0
 10
163.0316246760637
 20
120.1998496063121
 30
0.0
 10
162.9584386816869
 20
120.3605565910598
 30
0.0
 10
162.8014594259641
 20
120.6707027889337
 30
0.0
 10
162.7150841249145
 20
120.8236637754082
 30
0.0
 10
162.5659826706595
 20
121.117624270321
 30
0.0
 10
162.5012303213915
 20
121.2648694051842
 30
0.0
 10
162.4890577841264
 20
121.4566589209192
 30
0.0
 10
162.4994390119915
 20
121.5137813794857
 30
0.0
 10
162.5430799433441
 20
121.6107766751991
 30
0.0
 10
162.5748788176222
 20
121.6495810162667
 30
0.0
 10
162.6849323766842
 20
121.7433815231552
 30
0.0
 10
162.7725988836137
 20
121.7737038331966
 30
0.0
 10
162.9373355512324
 20
121.7789505744363
 30
0.0
 10
163.0126487428866
 20
121.7530951029029
 30
0.0
 10
163.0973626888207
 20
121.6637702308139
 30
0.0
 10
163.1200597567446
 20
121.6262468160584
 30
0.0
 10
163.1523130247559
 20
121.5341196082128
 30
0.0
 10
163.1614717664037
 20
121.4796793669506
 30
0.0
 10
163.1642710652368
 20
121.3590816526225
 30
0.0
 10
163.1578771235342
 20
121.2911388474531
 30
0.0
 10
163.1307840594519
 20
121.1486818332164
 30
0.0
 10
163.1101622876615
 20
121.0735533902579
 30
0.0
 10
163.0310674713212
 20
120.8416843863995
 30
0.0
 10
162.9568121435476
 20
120.6828670220684
 30
0.0
 10
162.7936567875571
 20
120.3708428946162
 30
0.0
  0
SPLINE
  5
124
330
1F
100
AcDbEntity
  8
0
  6
HIDDEN
 62
     7
370
     0
100
AcDbSpline
210
0.0
220
0.0
230
1.0
 70
     8
 71
     3
 72
    14
 73
    10
 74
     0
 42
0.00000001
 43
0.00000001
 40
0.0
 40
0.0
 40
0.0
 40
0.0
 40
0.25
 40
0.25
 40
0.5
 40
0.5
 40
0.75
 40
0.75
 40
1.0
 40
1.0
 40
1.0
 40
1.0
 10
160.7157467145117
 20
120.0877360166754
 30
0.0
 10
160.6785346275417
 20
120.0548619166454
 30
0.0
 10
160.6427960714863
 20
120.0234078216299
 30
0.0
 10
160.5813003423035
 20
119.9533725263055
 30
0.0
 10
160.5547934763674
 20
119.9142711175467
 30
0.0
 10
160.5450101359322
 20
119.7950925766854
 30
0.0
 10
160.5637933317416
 20
119.7168074932761
 30
0.0
 10
160.6137119403269
 20
119.5631638739943
 30
0.0
 10
160.6445206747423
 20
119.4860104042694
 30
0.0
 10
160.6767915810271
 20
119.409884023154
 30
0.0
  0
SPLINE
  5
125
330
1F
100
AcDbEntity
  8
0
  6
HIDDEN
 62
     7
370
     0
100
AcDbSpline
210
0.0
220
0.0
230
1.0
 70
     8
 71
     3
 72
    10
 73
     6
 74
     0
 42
0.00000001
 43
0.00000001
 40
0.0
 40
0.0
 40
0.0
 40
0.0
 40
0.4999999999999991
 40
0.4999999999999991
 40
1.0
 40
1.0
 40
1.0
 40
1.0
 10
160.6767915810271
 20
119.4098840231539
 30
0.0
 10
160.756361644196
 20
119.4625556530405
 30
0.0
 10
160.8240570273545
 20
119.54810721544
 30
0.0
 10
160.841731250524
 20
119.7922421211496
 30
0.0
 10
160.7880095311164
 20
119.9383742128555
 30
0.0
 10
160.7157467145117
 20
120.0877360166759
 30
0.0
  0
LWPOLYLINE
  5
126
330
1F
100
AcDbEntity
  8
0
  6
HIDDEN
 62
     7
370
     0
100
AcDbPolyline
 90
       21
 70
   128
 43
0.0
 10
161.6630643848
 20
120.7513600628
 10
162.1265910808
 20
120.8032719831
 10
162.5447437409
 20
120.9539273794
 10
162.8765926007
 20
121.18857969
 10
163.0896494034
 20
121.4842578437
 10
163.1630674246
 20
121.81202006
 10
163.0896494034
 20
122.1397822763
 10
162.8765926007
 20
122.43546043
 10
162.5447437409
 20
122.6701118092
 10
162.1265910808
 20
122.8207672055
 10
161.6630643848
 20
122.8726800572
 10
161.1995414141
 20
122.8207672055
 10
160.781388754
 20
122.6701118092
 10
160.4495398942
 20
122.43546043
 10
160.2364793662
 20
122.1397822763
 10
160.1630650703
 20
121.81202006
 10
160.2364793662
 20
121.4842578437
 10
160.4495398942
 20
121.18857969
 10
160.781388754
 20
120.9539273794
 10
161.1995414141
 20
120.8032719831
 10
161.6630643848
 20
120.7513600628
  0
SPLINE
  5
127
330
1F
100
AcDbEntity
  8
0
  6
HIDDEN
 62
     7
370
     0
100
AcDbSpline
210
0.0
220
0.0
230
1.0
 70
     8
 71
     3
 72
    10
 73
     6
 74
     0
 42
0.00000001
 43
0.00000001
 40
0.0
 40
0.0
 40
0.0
 40
0.0
 40
0.5
 40
0.5
 40
1.0
 40
1.0
 40
1.0
 40
1.0
 10
160.1824993793424
 20
120.6323215609036
 30
0.0
 10
160.1731133039686
 20
120.6918433904789
 30
0.0
 10
160.1666964160837
 20
120.7466799764277
 30
0.0
 10
160.1617161760917
 20
120.8463042421485
 30
0.0
 10
160.1633278194954
 20
120.8880295568165
 30
0.0
 10
160.1687824164727
 20
120.9216971569608
 30
0.0
  0
SPLINE
  5
128
330
1F
100
AcDbEntity
  8
0
  6
HIDDEN
 62
     7
370
     0
100
AcDbSpline
210
0.0
220
0.0
230
1.0
 70
     8
 71
     3
 72
    18
 73
    14
 74
     0
 42
0.00000001
 43
0.00000001
 40
0.0
 40
0.0
 40
0.0
 40
0.0
 40
0.0076722820335993
 40
0.1498530692143727
 40
0.2161911244113616
 40
0.2711451456176849
 40
0.3265077345026529
 40
0.3858183208248468
 40
0.4791599537158799
 40
0.6205994031192748
 40
0.764280615808987
 40
0.9113577133242763
 40
1.0
 40
1.0
 40
1.0
 40
1.0
 10
160.191094154461
 20
120.9871718700419
 30
0.0
 10
160.191549722037
 20
120.9885485928057
 30
0.0
 10
160.2004477525312
 20
121.0154383930913
 30
0.0
 10
160.223799783111
 20
121.0149000775676
 30
0.0
 10
160.244722262421
 20
120.9918995746711
 30
0.0
 10
160.2531575138734
 20
120.9527613424895
 30
0.0
 10
160.2507365537573
 20
120.8923843308221
 30
0.0
 10
160.2361342421919
 20
120.8023867830476
 30
0.0
 10
160.2077576958904
 20
120.6698140132262
 30
0.0
 10
160.1752345569916
 20
120.5043812655732
 30
0.0
 10
160.1591492429072
 20
120.3408238445232
 30
0.0
 10
160.1664325529
 20
120.2254190799121
 30
0.0
 10
160.1853102303501
 20
120.1941808619382
 30
0.0
 10
160.1924091819363
 20
120.1824337284456
 30
0.0
  0
LWPOLYLINE
  5
129
330
1F
100
AcDbEntity
  8
0
  6
HIDDEN
 62
     7
370
     0
100
AcDbPolyline
 90
        8
 70
   128
 43
0.0
 10
160.2048181239
 20
120.1560605358
 10
160.2316737417
 20
120.1497918035
 10
160.2461464945
 20
120.1703535433
 10
160.2516711
 20
120.2060557942
 10
160.2493427936
 20
120.2587388496
 10
160.2371201161
 20
120.3411301638
 10
160.2092959229
 20
120.4842949327
 10
160.1824999097
 20
120.6323212053
  0
SPLINE
  5
12A
330
1F
100
AcDbEntity
  8
0
  6
HIDDEN
 62
     7
370
     0
100
AcDbSpline
210
0.0
220
0.0
230
1.0
 70
     8
 71
     3
 72
    14
 73
    10
 74
     0
 42
0.00000001
 43
0.00000001
 40
0.0
 40
0.0
 40
0.0
 40
0.0
 40
0.25
 40
0.25
 40
0.5
 40
0.5
 40
0.75
 40
0.75
 40
1.0
 40
1.0
 40
1.0
 40
1.0
 10
160.6767915810269
 20
121.0081724199324
 30
0.0
 10
160.6444386876615
 20
121.0445634567304
 30
0.0
 10
160.6134645034236
 20
121.0801340879076
 30
0.0
 10
160.5636182627301
 20
121.1614048356826
 30
0.0
 10
160.5449184200546
 20
121.2094454284059
 30
0.0
 10
160.5549595763445
 20
121.3446822847534
 30
0.0
 10
160.5815501808918
 20
121.4248793037996
 30
0.0
 10
160.6429672791645
 20
121.5799921109855
 30
0.0
 10
160.6786075321338
 20
121.6568852001962
 30
0.0
 10
160.7157467145112
 20
121.7324769053247
 30
0.0
  0
SPLINE
  5
12B
330
1F
100
AcDbEntity
  8
0
  6
HIDDEN
 62
     7
370
     0
100
AcDbSpline
210
0.0
220
0.0
230
1.0
 70
     8
 71
     3
 72
    14
 73
    10
 74
     0
 42
0.00000001
 43
0.00000001
 40
0.0
 40
0.0
 40
0.0
 40
0.0
 40
0.2499999999999992
 40
0.2499999999999992
 40
0.4999999999999983
 40
0.4999999999999983
 40
0.7499999999999991
 40
0.7499999999999991
 40
1.0
 40
1.0
 40
1.0
 40
1.0
 10
160.7157467145118
 20
121.7324769053253
 30
0.0
 10
160.7518664594184
 20
121.6994277935526
 30
0.0
 10
160.7833181775107
 20
121.6592149034819
 30
0.0
 10
160.8267231460824
 20
121.5600369475421
 30
0.0
 10
160.8371970719423
 20
121.5027589489642
 30
0.0
 10
160.8287357184271
 20
121.3733872239796
 30
0.0
 10
160.8097700088904
 20
121.3029574340613
 30
0.0
 10
160.7532595553376
 20
121.1577511938581
 30
0.0
 10
160.716639186269
 20
121.0837281033018
 30
0.0
 10
160.676791581027
 20
121.0081724199314
 30
0.0
  0
SPLINE
  5
12C
330
1F
100
AcDbEntity
  8
0
  6
HIDDEN
 62
     7
370
     0
100
AcDbSpline
210
0.0
220
0.0
230
1.0
 70
     8
 71
     3
 72
     8
 73
     4
 74
     0
 42
0.00000001
 43
0.00000001
 40
0.0
 40
0.0
 40
0.0
 40
0.0
 40
0.000159097695343
 40
0.000159097695343
 40
0.000159097695343
 40
0.000159097695343
 10
95.04823394374074
 20
96.11103445443983
 30
0.0
 10
95.0031824732364
 20
96.08305557011606
 30
0.0
 10
94.95812643482158
 20
96.05508403974098
 30
0.0
 10
94.91306593452272
 20
96.02711970038847
 30
0.0
  0
SPLINE
  5
12D
330
1F
100
AcDbEntity
  8
0
  6
HIDDEN
 62
     7
370
     0
100
AcDbSpline
210
0.0
220
0.0
230
1.0
 70
     8
 71
     3
 72
    11
 73
     7
 74
     0
 42
0.00000001
 43
0.00000001
 40
0.0
 40
0.0
 40
0.0
 40
0.0
 40
0.0008212909311456
 40
0.0008212909311456
 40
0.0008212909311456
 40
0.001642825724306
 40
0.001642825724306
 40
0.001642825724306
 40
0.001642825724306
 10
94.91306593452273
 20
96.02711970038847
 30
0.0
 10
94.72192091304053
 20
95.98383351153592
 30
0.0
 10
94.53050257736406
 20
95.94289700189863
 30
0.0
 10
94.33885650270292
 20
95.90429523051205
 30
0.0
 10
94.1471534211613
 20
95.86568197667496
 30
0.0
 10
93.9552082978758
 20
95.82940176738896
 30
0.0
 10
93.76306593452263
 20
95.79543486103745
 30
0.0
  0
LINE
  5
12E
330
1F
100
AcDbEntity
  8
0
  6
HIDDEN
 62
     7
370
     0
100
AcDbLine
 10
141.7530659828
 20
132.0983083959
 30
0.0
 11
141.7530659828
 21
131.7625256296
 31
0.0
  0
ARC
  5
12F
330
1F
100
AcDbEntity
  8
0
  6
HIDDEN
 62
     7
370
     0
100
AcDbCircle
 10
176.8701383458
 20
120.5004431259
 30
0.0
 40
16.20130605259354
100
AcDbArc
 50
175.6387133722
 51
178.2041262323
  0
LINE
  5
130
330
1F
100
AcDbEntity
  8
0
  6
HIDDEN
 62
     7
370
     0
100
AcDbLine
 10
145.5730661992
 20
132.0983083959
 30
0.0
 11
145.5730661992
 21
131.7625256296
 31
0.0
  0
LINE
  5
131
330
1F
100
AcDbEntity
  8
0
  6
HIDDEN
 62
     7
370
     0
100
AcDbLine
 10
147.0549978558
 20
136.3712145056
 30
0.0
 11
147.0549978558
 21
131.7625256296
 31
0.0
  0
SPLINE
  5
132
330
1F
100
AcDbEntity
  8
0
  6
HIDDEN
 62
     7
370
     0
100
AcDbSpline
210
0.0
220
0.0
230
1.0
 70
     8
 71
     3
 72
    24
 73
    20
 74
     0
 42
0.00000001
 43
0.00000001
 40
0.0
 40
0.0
 40
0.0
 40
0.0
 40
0.25
 40
0.25
 40
0.374999999999999
 40
0.374999999999999
 40
0.4374999999999993
 40
0.4374999999999993
 40
0.4687499999999994
 40
0.4687499999999994
 40
0.4999999999999995
 40
0.4999999999999995
 40
0.5624999999999971
 40
0.5624999999999971
 40
0.6249999999999947
 40
0.6249999999999947
 40
0.7499999999999947
 40
0.7499999999999947
 40
1.0
 40
1.0
 40
1.0
 40
1.0
 10
93.82572930924613
 20
92.23797234569075
 30
0.0
 10
93.83948242791634
 20
92.30862240368104
 30
0.0
 10
93.85725499532221
 20
92.37522051644595
 30
0.0
 10
93.90950608687757
 20
92.44931853667916
 30
0.0
 10
93.93054116245914
 20
92.47057634384072
 30
0.0
 10
93.98344157008756
 20
92.47872226998696
 30
0.0
 10
94.00454724296547
 20
92.4777824665912
 30
0.0
 10
94.05059941164346
 20
92.45676647501385
 30
0.0
 10
94.06896988362683
 20
92.44585766890623
 30
0.0
 10
94.11052151869254
 20
92.41322275795885
 30
0.0
 10
94.13308819144946
 20
92.3917307775875
 30
0.0
 10
94.19586920790947
 20
92.32326483400118
 30
0.0
 10
94.22899896887738
 20
92.27719037579608
 30
0.0
 10
94.28591665536237
 20
92.19218248746142
 30
0.0
 10
94.31010268086615
 20
92.15190218628003
 30
0.0
 10
94.37531063124591
 20
92.03696595981408
 30
0.0
 10
94.41002669143715
 20
91.96638297466708
 30
0.0
 10
94.50324196176804
 20
91.76217721558848
 30
0.0
 10
94.5489144971287
 20
91.63927883326112
 30
0.0
 10
94.58721958062725
 20
91.52240555687355
 30
0.0
  0
ARC
  5
133
330
1F
100
AcDbEntity
  8
0
  6
HIDDEN
 62
     7
370
     0
100
AcDbCircle
 10
147.572735939
 20
120.5030039862
 30
0.0
 40
13.14956826738204
100
AcDbArc
 50
355.2315145185
 51
358.1902778958
  0
SPLINE
  5
134
330
1F
100
AcDbEntity
  8
0
  6
HIDDEN
 62
     7
370
     0
100
AcDbSpline
210
0.0
220
0.0
230
1.0
 70
     8
 71
     3
 72
    11
 73
     7
 74
     0
 42
0.00000001
 43
0.00000001
 40
0.0
 40
0.0
 40
0.0
 40
0.0
 40
0.0005781862223978
 40
0.0005781862223978
 40
0.0005781862223978
 40
0.0011563724723928
 40
0.0011563724723928
 40
0.0011563724723928
 40
0.0011563724723928
 10
94.76306593452271
 20
124.5526671975182
 30
0.0
 10
94.59640538024709
 20
124.6171967089318
 30
0.0
 10
94.42974208334061
 20
124.6816994127756
 30
0.0
 10
94.26307549951038
 20
124.7461858612093
 30
0.0
 10
94.09640890725129
 20
124.8106723129042
 30
0.0
 10
93.92973904162541
 20
124.8751423216323
 30
0.0
 10
93.76306593452267
 20
124.9395980883649
 30
0.0
  0
SPLINE
  5
135
330
1F
100
AcDbEntity
  8
0
  6
HIDDEN
 62
     7
370
     0
100
AcDbSpline
210
0.0
220
0.0
230
1.0
 70
     8
 71
     3
 72
    11
 73
     7
 74
     0
 42
0.00000001
 43
0.00000001
 40
0.0
 40
0.0
 40
0.0
 40
0.0
 40
0.0005778746105108
 40
0.0005778746105108
 40
0.0005778746105108
 40
0.0011557494857226
 40
0.0011557494857226
 40
0.0011557494857226
 40
0.0011557494857226
 10
93.76306593452269
 20
98.88530303498159
 30
0.0
 10
93.92973281093603
 20
98.95111516167546
 30
0.0
 10
94.09639953049748
 20
99.01697364181305
 30
0.0
 10
94.26306617854613
 20
99.0828812147437
 30
0.0
 10
94.42973290306479
 20
99.14878881791405
 30
0.0
 10
94.59639959748536
 20
99.21474592630257
 30
0.0
 10
94.76306593452271
 20
99.28074766622527
 30
0.0
  0
SPLINE
  5
136
330
1F
100
AcDbEntity
  8
0
  6
HIDDEN
 62
     7
370
     0
100
AcDbSpline
210
0.0
220
0.0
230
1.0
 70
     8
 71
     3
 72
    11
 73
     7
 74
     0
 42
0.00000001
 43
0.00000001
 40
0.0000000000000006
 40
0.0000000000000006
 40
0.0000000000000006
 40
0.0000000000000006
 40
0.0005780486062768
 40
0.0005780486062768
 40
0.0005780486062768
 40
0.0011560973514127
 40
0.0011560973514127
 40
0.0011560973514127
 40
0.0011560973514127
 10
93.76306593452269
 20
121.8933393921632
 30
0.0
 10
93.92973579056759
 20
121.8309675306487
 30
0.0
 10
94.09640349465187
 20
121.768613670351
 30
0.0
 10
94.26306979910551
 20
121.706294110165
 30
0.0
 10
94.42973613979926
 20
121.6439745364281
 30
0.0
 10
94.59640109642804
 20
121.5816893321085
 30
0.0
 10
94.76306593452271
 20
121.5194642115398
 30
0.0
  0
SPLINE
  5
137
330
1F
100
AcDbEntity
  8
0
  6
HIDDEN
 62
     7
370
     0
100
AcDbSpline
210
0.0
220
0.0
230
1.0
 70
     8
 71
     3
 72
    11
 73
     7
 74
     0
 42
0.00000001
 43
0.00000001
 40
0.0
 40
0.0
 40
0.0
 40
0.0
 40
0.0005782401583533
 40
0.0005782401583533
 40
0.0005782401583533
 40
0.0011564805960993
 40
0.0011564805960993
 40
0.0011564805960993
 40
0.0011564805960993
 10
94.76306593452271
 20
102.3116980980738
 30
0.0
 10
94.5964149841738
 20
102.248272640013
 30
0.0
 10
94.42975539159114
 20
102.1849171163578
 30
0.0
 10
94.26308833916258
 20
102.1216195320078
 30
0.0
 10
94.09642120259878
 20
102.0583219157045
 30
0.0
 10
93.92974659515271
 20
101.9950821207639
 30
0.0
 10
93.76306593452266
 20
101.931882114125
 30
0.0
  0
CIRCLE
  5
138
330
1F
100
AcDbEntity
  8
0
  6
HIDDEN
 62
     7
370
     0
100
AcDbCircle
 10
132.6630659345
 20
111.9125248905
 30
0.0
 40
5.0
  0
LWPOLYLINE
  5
139
330
1F
100
AcDbEntity
  8
0
  6
HIDDEN
 62
     7
370
     0
100
AcDbPolyline
 90
       21
 70
   128
 43
0.0
 10
200.1457527522
 20
104.7235574614
 10
200.1391515378
 20
105.1521954167
 10
200.1381829623
 20
105.5009426589
 10
200.1429513339
 20
105.7356606278
 10
200.1529872659
 20
105.8333735953
 10
200.1673072818
 20
105.7845168787
 10
200.1845106724
 20
105.5938728194
 10
200.2029061559
 20
105.2801027934
 10
200.220705593
 20
104.8739213537
 10
200.2361580971
 20
104.4150880578
 10
200.2477512005
 20
103.9485164027
 10
200.2543524149
 20
103.5198779817
 10
200.2553209904
 20
103.1711312051
 10
200.2505526188
 20
102.9364137019
 10
200.2405166868
 20
102.8387002687
 10
200.2261966709
 20
102.887557451
 10
200.2089932803
 20
103.0782010447
 10
200.1905977968
 20
103.3919710706
 10
200.1727983597
 20
103.7981525104
 10
200.1573458556
 20
104.2569858062
 10
200.1457527522
 20
104.7235574614
  0
LWPOLYLINE
  5
13A
330
1F
100
AcDbEntity
  8
0
  6
HIDDEN
 62
     7
370
     0
100
AcDbPolyline
 90
       17
 70
   128
 43
0.0
 10
199.6631339434
 20
104.5805035199
 10
199.6582091096
 20
104.9303771968
 10
199.659214938
 20
105.1876550581
 10
199.6659875158
 20
105.3131689358
 10
199.6775061134
 20
105.2878094877
 10
199.6920123938
 20
105.115438443
 10
199.7073009852
 20
104.8222976777
 10
199.7210398558
 20
104.453014307
 10
199.7311353925
 20
104.0638094808
 10
199.7360602263
 20
103.7139358039
 10
199.7350618485
 20
103.4566579427
 10
199.7282818202
 20
103.3311445306
 10
199.7167632226
 20
103.356503513
 10
199.7022643927
 20
103.5288745578
 10
199.6869758013
 20
103.8220157887
 10
199.6732369307
 20
104.1912982281
 10
199.6631339434
 20
104.5805035199
  0
LWPOLYLINE
  5
13B
330
1F
100
AcDbEntity
  8
0
  6
HIDDEN
 62
     7
370
     0
100
AcDbPolyline
 90
       21
 70
   128
 43
0.0
 10
205.4796904567
 20
104.8717462498
 10
205.4730892423
 20
105.3003846708
 10
205.4721206668
 20
105.6491314474
 10
205.4768890384
 20
105.8838494162
 10
205.4869249705
 20
105.9815623838
 10
205.5012449864
 20
105.9327056672
 10
205.518448377
 20
105.7420616079
 10
205.5368438605
 20
105.4282920475
 10
205.5546432975
 20
105.0221106078
 10
205.5700958017
 20
104.5632768463
 10
205.5816889051
 20
104.0967056568
 10
205.5882901195
 20
103.6680672358
 10
205.589258695
 20
103.3193204592
 10
205.5844903234
 20
103.0846020247
 10
205.5744543913
 20
102.9868895228
 10
205.5601343754
 20
103.0357457738
 10
205.5429309848
 20
103.2263902988
 10
205.5245355013
 20
103.5401603247
 10
205.5067360643
 20
103.9463417645
 10
205.4912835601
 20
104.4051750604
 10
205.4796904567
 20
104.8717462498
  0
LWPOLYLINE
  5
13C
330
1F
100
AcDbEntity
  8
0
  6
HIDDEN
 62
     7
370
     0
100
AcDbPolyline
 90
        6
 70
   128
 43
0.0
 10
205.6510463599
 20
104.803776
 10
205.6453615669
 20
105.1875432994
 10
205.6453615669
 20
105.4870231117
 10
205.6510463599
 20
105.6660926941
 10
205.661737943
 20
105.7031537447
 10
205.6630641464
 20
105.6985991116
  0
ARC
  5
13D
330
1F
100
AcDbEntity
  8
0
  6
HIDDEN
 62
     7
370
     0
100
AcDbCircle
 10
217.3127189249
 20
104.6208104125
 30
0.0
 40
11.66310779421018
100
AcDbArc
 50
179.1011327191
 51
186.6451891468
  0
LINE
  5
13E
330
1F
100
AcDbEntity
  8
0
  6
HIDDEN
 62
     7
370
     0
100
AcDbLine
 10
203.6940545086
 20
105.0455724861
 30
0.0
 11
203.7234992031
 21
104.2094650719
 31
0.0
  0
LINE
  5
13F
330
1F
100
AcDbEntity
  8
0
  6
HIDDEN
 62
     7
370
     0
100
AcDbLine
 10
205.6925088409
 20
105.1010942127
 30
0.0
 11
205.7219535354
 21
104.2649867985
 31
0.0
  0
LINE
  5
140
330
1F
100
AcDbEntity
  8
0
  6
HIDDEN
 62
     7
370
     0
100
AcDbLine
 10
203.7234992031
 20
104.2094650719
 30
0.0
 11
205.7219535354
 21
104.2649867985
 31
0.0
  0
LINE
  5
141
330
1F
100
AcDbEntity
  8
0
  6
HIDDEN
 62
     7
370
     0
100
AcDbLine
 10
203.7234992031
 20
103.5970920737
 30
0.0
 11
203.7234992031
 21
104.2094650719
 31
0.0
  0
LINE
  5
142
330
1F
100
AcDbEntity
  8
0
  6
HIDDEN
 62
     7
370
     0
100
AcDbLine
 10
205.7219535354
 20
103.6526147317
 30
0.0
 11
205.7219535354
 21
104.2649867985
 31
0.0
  0
LINE
  5
143
330
1F
100
AcDbEntity
  8
0
  6
HIDDEN
 62
     7
370
     0
100
AcDbLine
 10
203.6940545086
 20
105.0455724861
 30
0.0
 11
205.6925088409
 21
105.1010942127
 31
0.0
  0
LINE
  5
144
330
1F
100
AcDbEntity
  8
0
  6
HIDDEN
 62
     7
370
     0
100
AcDbLine
 10
203.664609814
 20
105.2693073678
 30
0.0
 11
203.6940545086
 21
105.0455724861
 31
0.0
  0
LINE
  5
145
330
1F
100
AcDbEntity
  8
0
  6
HIDDEN
 62
     7
370
     0
100
AcDbLine
 10
205.6630641464
 20
105.3248290944
 30
0.0
 11
205.6925088409
 21
105.1010942127
 31
0.0
  0
LINE
  5
146
330
1F
100
AcDbEntity
  8
0
  6
HIDDEN
 62
     7
370
     0
100
AcDbLine
 10
203.6940545086
 20
103.8208274211
 30
0.0
 11
205.6925088409
 21
103.8763491477
 31
0.0
  0
LINE
  5
147
330
1F
100
AcDbEntity
  8
0
  6
HIDDEN
 62
     7
370
     0
100
AcDbLine
 10
203.7234992031
 20
103.5970920737
 30
0.0
 11
205.7219535354
 21
103.6526147317
 31
0.0
  0
LINE
  5
148
330
1F
100
AcDbEntity
  8
0
  6
HIDDEN
 62
     7
370
     0
100
AcDbLine
 10
203.6940545086
 20
103.8208274211
 30
0.0
 11
203.7234992031
 21
103.5970920737
 31
0.0
  0
LINE
  5
149
330
1F
100
AcDbEntity
  8
0
  6
HIDDEN
 62
     7
370
     0
100
AcDbLine
 10
205.6925088409
 20
103.8763491477
 30
0.0
 11
205.7219535354
 21
103.6526147317
 31
0.0
  0
LINE
  5
14A
330
1F
100
AcDbEntity
  8
0
  6
HIDDEN
 62
     7
370
     0
100
AcDbLine
 10
203.664609814
 20
104.6569348353
 30
0.0
 11
205.6630641464
 21
104.7124565619
 31
0.0
  0
LINE
  5
14B
330
1F
100
AcDbEntity
  8
0
  6
HIDDEN
 62
     7
370
     0
100
AcDbLine
 10
203.664609814
 20
105.2693073678
 30
0.0
 11
205.6630641464
 21
105.3248290944
 31
0.0
  0
LINE
  5
14C
330
1F
100
AcDbEntity
  8
0
  6
HIDDEN
 62
     7
370
     0
100
AcDbLine
 10
203.664609814
 20
105.2693073678
 30
0.0
 11
203.664609814
 21
104.6569348353
 31
0.0
  0
LINE
  5
14D
330
1F
100
AcDbEntity
  8
0
  6
HIDDEN
 62
     7
370
     0
100
AcDbLine
 10
203.6940545086
 20
103.8208274211
 30
0.0
 11
203.664609814
 21
104.6569348353
 31
0.0
  0
LINE
  5
14E
330
1F
100
AcDbEntity
  8
0
  6
HIDDEN
 62
     7
370
     0
100
AcDbLine
 10
205.6925088409
 20
103.8763491477
 30
0.0
 11
205.6630641464
 21
104.7124565619
 31
0.0
  0
LWPOLYLINE
  5
14F
330
1F
100
AcDbEntity
  8
0
  6
HIDDEN
 62
     7
370
     0
100
AcDbPolyline
 90
        6
 70
   128
 43
0.0
 10
205.5921569708
 20
118.1605934206
 10
205.602848554
 20
118.1235319044
 10
205.6172430757
 20
118.2329492684
 10
205.6336194519
 20
118.4756472747
 10
205.649995828
 20
118.8223539892
 10
205.6630641464
 20
119.187929299
  0
ARC
  5
150
330
1F
100
AcDbEntity
  8
0
  6
HIDDEN
 62
     7
370
     0
100
AcDbCircle
 10
228.0691664974
 20
118.6876472735
 30
0.0
 40
22.48318800842209
100
AcDbArc
 50
175.2540884794
 51
181.3432582524
  0
LWPOLYLINE
  5
151
330
1F
100
AcDbEntity
  8
0
  6
HIDDEN
 62
     7
370
     0
100
AcDbPolyline
 90
       21
 70
   128
 43
0.0
 10
205.4208010677
 20
117.8942794021
 10
205.4323941711
 20
117.8450627293
 10
205.4478466753
 20
117.9424217943
 10
205.4656461123
 20
118.1768263731
 10
205.4840415958
 20
118.5253314714
 10
205.5012449864
 20
118.9538222778
 10
205.5155650023
 20
119.4203562144
 10
205.5256009344
 20
119.8792649473
 10
205.530369306
 20
120.2856270637
 10
205.5294007305
 20
120.5996662419
 10
205.5227995161
 20
120.7906404551
 10
205.5112064127
 20
120.8398571278
 10
205.4957539085
 20
120.7424975972
 10
205.4779544715
 20
120.5080930184
 10
205.459558988
 20
120.1595883857
 10
205.4423555974
 20
119.7310971137
 10
205.4280355815
 20
119.2645636428
 10
205.4179996494
 20
118.8056549098
 10
205.4132312778
 20
118.3992927934
 10
205.4141998533
 20
118.0852540809
 10
205.4208010677
 20
117.8942794021
  0
LWPOLYLINE
  5
152
330
1F
100
AcDbEntity
  8
0
  6
HIDDEN
 62
     7
370
     0
100
AcDbPolyline
 90
       21
 70
   128
 43
0.0
 10
200.0868633631
 20
118.0424686562
 10
200.0984564665
 20
117.9932519834
 10
200.1139089707
 20
118.0906110484
 10
200.1317084077
 20
118.3250156272
 10
200.1501038912
 20
118.6735202599
 10
200.1673072818
 20
119.1020115319
 10
200.1816272977
 20
119.5685450028
 10
200.1916632298
 20
120.0274542014
 10
200.1964316014
 20
120.4338163178
 10
200.1954630259
 20
120.7478545647
 10
200.1888618115
 20
120.9388297092
 10
200.1772687081
 20
120.9880463819
 10
200.1618162039
 20
120.8906868513
 10
200.1440167669
 20
120.6562822725
 10
200.1256138328
 20
120.3077776398
 10
200.1084178928
 20
119.8792863678
 10
200.0940978769
 20
119.4127528969
 10
200.0840619448
 20
118.9538441639
 10
200.0792935732
 20
118.5474815819
 10
200.0802621487
 20
118.2334428694
 10
200.0868633631
 20
118.0424686562
  0
LWPOLYLINE
  5
153
330
1F
100
AcDbEntity
  8
0
  6
HIDDEN
 62
     7
370
     0
100
AcDbPolyline
 90
       17
 70
   128
 43
0.0
 10
199.6042445544
 20
118.53907593
 10
199.6143475417
 20
118.5134165961
 10
199.6280864123
 20
118.6386450234
 10
199.6433750037
 20
118.8956970389
 10
199.6578738335
 20
119.2454380024
 10
199.6693924311
 20
119.6346232708
 10
199.6761724595
 20
120.0040025677
 10
199.6771708373
 20
120.2973421703
 10
199.6722460035
 20
120.4699832986
 10
199.6621430162
 20
120.4956421669
 10
199.6484115962
 20
120.3704137396
 10
199.6331230048
 20
120.1133621897
 10
199.6186167244
 20
119.7636207606
 10
199.6070981268
 20
119.3744359578
 10
199.600325549
 20
119.0050561953
 10
199.5993197206
 20
118.7117165926
 10
199.6042445544
 20
118.53907593
  0
LINE
  5
154
330
1F
100
AcDbEntity
  8
0
  6
HIDDEN
 62
     7
370
     0
100
AcDbLine
 10
205.6336194519
 20
119.950336967
 30
0.0
 11
205.6630641464
 21
120.174071383
 31
0.0
  0
LINE
  5
155
330
1F
100
AcDbEntity
  8
0
  6
HIDDEN
 62
     7
370
     0
100
AcDbLine
 10
205.6041747573
 20
119.1142290871
 30
0.0
 11
205.6336194519
 21
119.950336967
 31
0.0
  0
LINE
  5
156
330
1F
100
AcDbEntity
  8
0
  6
HIDDEN
 62
     7
370
     0
100
AcDbLine
 10
205.6041747573
 20
119.1142290871
 30
0.0
 11
205.6041747573
 21
118.5018565546
 31
0.0
  0
LINE
  5
157
330
1F
100
AcDbEntity
  8
0
  6
HIDDEN
 62
     7
370
     0
100
AcDbLine
 10
205.6336194519
 20
118.725591902
 30
0.0
 11
205.6041747573
 21
118.5018565546
 31
0.0
  0
LINE
  5
158
330
1F
100
AcDbEntity
  8
0
  6
HIDDEN
 62
     7
370
     0
100
AcDbLine
 10
205.6336194519
 20
118.725591902
 30
0.0
 11
205.6630641464
 21
119.5616993162
 31
0.0
  0
LINE
  5
159
330
1F
100
AcDbEntity
  8
0
  6
HIDDEN
 62
     7
370
     0
100
AcDbLine
 10
203.605720425
 20
119.1697508137
 30
0.0
 11
203.6351651195
 21
120.0058586936
 31
0.0
  0
LINE
  5
15A
330
1F
100
AcDbEntity
  8
0
  6
HIDDEN
 62
     7
370
     0
100
AcDbLine
 10
203.6351651195
 20
120.0058586936
 30
0.0
 11
203.664609814
 21
120.2295931097
 31
0.0
  0
LINE
  5
15B
330
1F
100
AcDbEntity
  8
0
  6
HIDDEN
 62
     7
370
     0
100
AcDbLine
 10
203.664609814
 20
119.6172210428
 30
0.0
 11
203.664609814
 21
120.2295931097
 31
0.0
  0
LINE
  5
15C
330
1F
100
AcDbEntity
  8
0
  6
HIDDEN
 62
     7
370
     0
100
AcDbLine
 10
203.6351651195
 20
118.7811136286
 30
0.0
 11
203.664609814
 21
119.6172210428
 31
0.0
  0
LINE
  5
15D
330
1F
100
AcDbEntity
  8
0
  6
HIDDEN
 62
     7
370
     0
100
AcDbLine
 10
203.6351651195
 20
118.7811136286
 30
0.0
 11
203.605720425
 21
118.5573782812
 31
0.0
  0
LINE
  5
15E
330
1F
100
AcDbEntity
  8
0
  6
HIDDEN
 62
     7
370
     0
100
AcDbLine
 10
203.605720425
 20
119.1697508137
 30
0.0
 11
203.605720425
 21
118.5573782812
 31
0.0
  0
LINE
  5
15F
330
1F
100
AcDbEntity
  8
0
  6
HIDDEN
 62
     7
370
     0
100
AcDbLine
 10
203.605720425
 20
119.1697508137
 30
0.0
 11
205.6041747573
 21
119.1142290871
 31
0.0
  0
LINE
  5
160
330
1F
100
AcDbEntity
  8
0
  6
HIDDEN
 62
     7
370
     0
100
AcDbLine
 10
203.6351651195
 20
120.0058586936
 30
0.0
 11
205.6336194519
 21
119.950336967
 31
0.0
  0
LINE
  5
161
330
1F
100
AcDbEntity
  8
0
  6
HIDDEN
 62
     7
370
     0
100
AcDbLine
 10
203.6351651195
 20
118.7811136286
 30
0.0
 11
205.6336194519
 21
118.725591902
 31
0.0
  0
LINE
  5
162
330
1F
100
AcDbEntity
  8
0
  6
HIDDEN
 62
     7
370
     0
100
AcDbLine
 10
203.605720425
 20
118.5573782812
 30
0.0
 11
205.6041747573
 21
118.5018565546
 31
0.0
  0
LINE
  5
163
330
1F
100
AcDbEntity
  8
0
  6
HIDDEN
 62
     7
370
     0
100
AcDbLine
 10
203.664609814
 20
119.6172210428
 30
0.0
 11
205.6630641464
 21
119.5616993162
 31
0.0
  0
LINE
  5
164
330
1F
100
AcDbEntity
  8
0
  6
HIDDEN
 62
     7
370
     0
100
AcDbLine
 10
203.664609814
 20
120.2295931097
 30
0.0
 11
205.6630641464
 21
120.174071383
 31
0.0
  0
LINE
  5
165
330
1F
100
AcDbEntity
  8
0
  6
HIDDEN
 62
     7
370
     0
100
AcDbLine
 10
129.6630661245
 20
126.2103604193
 30
0.0
 11
129.6630661245
 21
124.3064651306
 31
0.0
  0
LINE
  5
166
330
1F
100
AcDbEntity
  8
0
  6
HIDDEN
 62
     7
370
     0
100
AcDbLine
 10
137.6630660388
 20
124.3064651306
 30
0.0
 11
137.6630660388
 21
126.2131553184
 31
0.0
  0
LINE
  5
167
330
1F
100
AcDbEntity
  8
0
  6
HIDDEN
 62
     7
370
     0
100
AcDbLine
 10
125.6630659345
 20
86.5885937627
 30
0.0
 11
125.7572267068
 21
87.2585816349
 31
0.0
  0
LINE
  5
168
330
1F
100
AcDbEntity
  8
0
  6
HIDDEN
 62
     7
370
     0
100
AcDbLine
 10
125.7572267068
 20
136.566468146
 30
0.0
 11
125.6630659345
 21
137.2364560183
 31
0.0
  0
ARC
  5
169
330
1F
100
AcDbEntity
  8
0
  6
HIDDEN
 62
     7
370
     0
100
AcDbCircle
 10
125.1630591819
 20
87.3420872761
 30
0.0
 40
0.6000067526677242
100
AcDbArc
 50
352.0
 51
0.0
  0
ARC
  5
16A
330
1F
100
AcDbEntity
  8
0
  6
HIDDEN
 62
     7
370
     0
100
AcDbCircle
 10
125.1630591819
 20
87.3420872761
 30
0.0
 40
0.6000067526677242
100
AcDbArc
 50
0.0
 51
33.5571153394
  0
ARC
  5
16B
330
1F
100
AcDbEntity
  8
0
  6
HIDDEN
 62
     7
370
     0
100
AcDbCircle
 10
125.1630591819
 20
136.4829625049
 30
0.0
 40
0.6000067526677222
100
AcDbArc
 50
348.75
 51
8.0
  0
LWPOLYLINE
  5
16C
330
1F
100
AcDbEntity
  8
0
  6
HIDDEN
 62
     7
370
     0
100
AcDbPolyline
 90
        3
 70
   128
 43
0.0
 10
125.7515369734
 20
136.3659078296
 10
125.7173931417
 20
136.2533500458
 10
125.6630659345
 20
136.1512975808
  0
LINE
  5
16D
330
1F
100
AcDbEntity
  8
0
  6
HIDDEN
 62
     7
370
     0
100
AcDbLine
 10
125.763065932
 20
87.3420877423
 30
0.0
 11
125.763065932
 21
136.4829620387
 31
0.0
  0
LINE
  5
16E
330
1F
100
AcDbEntity
  8
0
  6
HIDDEN
 62
     7
370
     0
100
AcDbLine
 10
108.7455019597
 20
91.9125253375
 30
0.0
 11
112.9371734578
 21
91.9125253375
 31
0.0
  0
LINE
  5
16F
330
1F
100
AcDbEntity
  8
0
  6
HIDDEN
 62
     7
370
     0
100
AcDbLine
 10
112.9371734578
 20
131.9125244434
 30
0.0
 11
108.7455019597
 21
131.9125244434
 31
0.0
  0
ARC
  5
170
330
1F
100
AcDbEntity
  8
0
  6
HIDDEN
 62
     7
370
     0
100
AcDbCircle
 10
108.7455014998
 20
92.5125248905
 30
0.0
 40
0.5999999999999962
100
AcDbArc
 50
210.0
 51
270.0
  0
ARC
  5
171
330
1F
100
AcDbEntity
  8
0
  6
HIDDEN
 62
     7
370
     0
100
AcDbCircle
 10
108.7455014998
 20
131.3125248905
 30
0.0
 40
0.6000000000000227
100
AcDbArc
 50
90.0
 51
150.0
  0
ARC
  5
172
330
1F
100
AcDbEntity
  8
0
  6
HIDDEN
 62
     7
370
     0
100
AcDbCircle
 10
119.4180679361
 20
99.9125248905
 30
0.0
 40
7.999999999999997
100
AcDbArc
 50
276.8737317617
 51
321.3178125465
  0
ARC
  5
173
330
1F
100
AcDbEntity
  8
0
  6
HIDDEN
 62
     7
370
     0
100
AcDbCircle
 10
119.4180679361
 20
123.9125248905
 30
0.0
 40
8.000000000000004
100
AcDbArc
 50
38.6821874535
 51
83.1187088915
  0
LINE
  5
174
330
1F
100
AcDbEntity
  8
0
  6
HIDDEN
 62
     7
370
     0
100
AcDbLine
 10
108.2258854303
 20
131.6125249531
 30
0.0
 11
106.6670414302
 21
128.9125258143
 31
0.0
  0
LINE
  5
175
330
1F
100
AcDbEntity
  8
0
  6
HIDDEN
 62
     7
370
     0
100
AcDbLine
 10
106.6670414302
 20
94.9125239666
 30
0.0
 11
108.2258854303
 21
92.2125248279
 31
0.0
  0
LINE
  5
176
330
1F
100
AcDbEntity
  8
0
  6
HIDDEN
 62
     7
370
     0
100
AcDbLine
 10
129.6630661245
 20
139.186857831
 30
0.0
 11
129.6630661245
 21
135.8581265475
 31
0.0
  0
LINE
  5
177
330
1F
100
AcDbEntity
  8
0
  6
HIDDEN
 62
     7
370
     0
100
AcDbLine
 10
137.6630660388
 20
135.8581265475
 30
0.0
 11
137.6630660388
 21
139.1921905841
 31
0.0
  0
ARC
  5
178
330
1F
100
AcDbEntity
  8
0
  6
HIDDEN
 62
     7
370
     0
100
AcDbCircle
 10
134.1130659345
 20
96.1875248905
 30
0.0
 40
1.5
100
AcDbArc
 50
238.2116693829
 51
0.0
  0
ARC
  5
179
330
1F
100
AcDbEntity
  8
0
  6
HIDDEN
 62
     7
370
     0
100
AcDbCircle
 10
134.1130659345
 20
127.6375248905
 30
0.0
 40
1.500000000000013
100
AcDbArc
 50
0.0
 51
121.7883306171
  0
LINE
  5
17A
330
1F
100
AcDbEntity
  8
0
  6
HIDDEN
 62
     7
370
     0
100
AcDbLine
 10
125.6630659345
 20
94.9125239666
 30
0.0
 11
133.3228918966
 21
94.9125239666
 31
0.0
  0
LINE
  5
17B
330
1F
100
AcDbEntity
  8
0
  6
HIDDEN
 62
     7
370
     0
100
AcDbLine
 10
133.3228918966
 20
128.9125258143
 30
0.0
 11
125.6630659345
 21
128.9125258143
 31
0.0
  0
LINE
  5
17C
330
1F
100
AcDbEntity
  8
0
  6
HIDDEN
 62
     7
370
     0
100
AcDbLine
 10
103.863065714
 20
94.9125239666
 30
0.0
 11
106.6670414302
 21
94.9125239666
 31
0.0
  0
LINE
  5
17D
330
1F
100
AcDbEntity
  8
0
  6
HIDDEN
 62
     7
370
     0
100
AcDbLine
 10
106.6670414302
 20
128.9125258143
 30
0.0
 11
99.8630650583
 21
128.9125258143
 31
0.0
  0
LINE
  5
17E
330
1F
100
AcDbEntity
  8
0
  6
HIDDEN
 62
     7
370
     0
100
AcDbLine
 10
163.1630674246
 20
104.1833014268
 30
0.0
 11
163.1630674246
 21
107.5399654027
 31
0.0
  0
LINE
  5
17F
330
1F
100
AcDbEntity
  8
0
  6
HIDDEN
 62
     7
370
     0
100
AcDbLine
 10
163.1630674246
 20
102.013029721
 30
0.0
 11
163.1630674246
 21
102.4311050813
 31
0.0
  0
LINE
  5
180
330
1F
100
AcDbEntity
  8
0
  6
HIDDEN
 62
     7
370
     0
100
AcDbLine
 10
160.1630650703
 20
102.9874092008
 30
0.0
 11
160.1630650703
 21
102.013029721
 31
0.0
  0
LINE
  5
181
330
1F
100
AcDbEntity
  8
0
  6
HIDDEN
 62
     7
370
     0
100
AcDbLine
 10
160.1630650703
 20
107.4595787603
 30
0.0
 11
160.1630650703
 21
103.495958824
 31
0.0
  0
LINE
  5
182
330
1F
100
AcDbEntity
  8
0
  6
HIDDEN
 62
     7
370
     0
100
AcDbLine
 10
162.8752328697
 20
102.0486770238
 30
0.0
 11
205.6630641464
 21
103.2374218147
 31
0.0
  0
LINE
  5
183
330
1F
100
AcDbEntity
  8
0
  6
HIDDEN
 62
     7
370
     0
100
AcDbLine
 10
205.6630641464
 20
105.7383861433
 30
0.0
 11
162.8708556536
 21
104.5495198149
 31
0.0
  0
LINE
  5
184
330
1F
100
AcDbEntity
  8
0
  6
HIDDEN
 62
     7
370
     0
100
AcDbLine
 10
144.4630656633
 20
102.4125251959
 30
0.0
 11
147.4630661551
 21
102.4125251959
 31
0.0
  0
LINE
  5
185
330
1F
100
AcDbEntity
  8
0
  6
HIDDEN
 62
     7
370
     0
100
AcDbLine
 10
147.4630661551
 20
121.412524585
 30
0.0
 11
144.4630656633
 21
121.412524585
 31
0.0
  0
LINE
  5
186
330
1F
100
AcDbEntity
  8
0
  6
HIDDEN
 62
     7
370
     0
100
AcDbLine
 10
160.1875476781
 20
103.6447422619
 30
0.0
 11
159.9472627286
 21
103.2178137492
 31
0.0
  0
LINE
  5
187
330
1F
100
AcDbEntity
  8
0
  6
HIDDEN
 62
     7
370
     0
100
AcDbLine
 10
159.9472627286
 20
103.2178137492
 30
0.0
 11
160.188765848
 21
102.8395263519
 31
0.0
  0
LINE
  5
188
330
1F
100
AcDbEntity
  8
0
  6
HIDDEN
 62
     7
370
     0
100
AcDbLine
 10
135.6130657959
 20
102.9125252779
 30
0.0
 11
136.1130658779
 21
103.4125244285
 31
0.0
  0
LINE
  5
189
330
1F
100
AcDbEntity
  8
0
  6
HIDDEN
 62
     7
370
     0
100
AcDbLine
 10
136.1130658779
 20
120.4125253524
 30
0.0
 11
135.6130657959
 21
120.912524503
 31
0.0
  0
LINE
  5
18A
330
1F
100
AcDbEntity
  8
0
  6
HIDDEN
 62
     7
370
     0
100
AcDbLine
 10
136.1130658779
 20
103.4125244285
 30
0.0
 11
144.4630656633
 21
103.4125244285
 31
0.0
  0
LINE
  5
18B
330
1F
100
AcDbEntity
  8
0
  6
HIDDEN
 62
     7
370
     0
100
AcDbLine
 10
144.4630656633
 20
120.4125253524
 30
0.0
 11
136.1130658779
 21
120.4125253524
 31
0.0
  0
LINE
  5
18C
330
1F
100
AcDbEntity
  8
0
  6
HIDDEN
 62
     7
370
     0
100
AcDbLine
 10
130.6130659077
 20
143.4125253971
 30
0.0
 11
130.6130659077
 21
138.3125247474
 31
0.0
  0
ARC
  5
18D
330
1F
100
AcDbEntity
  8
0
  6
HIDDEN
 62
     7
370
     0
100
AcDbCircle
 10
205.3630659345
 20
105.6125248905
 30
0.0
 40
0.2999999999999972
100
AcDbArc
 50
0.0
 51
90.0
  0
ARC
  5
18E
330
1F
100
AcDbEntity
  8
0
  6
HIDDEN
 62
     7
370
     0
100
AcDbCircle
 10
205.3630659345
 20
118.2125248905
 30
0.0
 40
0.2999999999999972
100
AcDbArc
 50
270.0
 51
0.0
  0
LINE
  5
18F
330
1F
100
AcDbEntity
  8
0
  6
HIDDEN
 62
     7
370
     0
100
AcDbLine
 10
160.0630671028
 20
105.6125248823
 30
0.0
 11
162.7682909611
 21
105.6125248823
 31
0.0
  0
LINE
  5
190
330
1F
100
AcDbEntity
  8
0
  6
HIDDEN
 62
     7
370
     0
100
AcDbLine
 10
162.7682909611
 20
118.2125248987
 30
0.0
 11
160.0630671028
 21
118.2125248987
 31
0.0
  0
ARC
  5
191
330
1F
100
AcDbEntity
  8
0
  6
HIDDEN
 62
     7
370
     0
100
AcDbCircle
 10
162.7682919164
 20
117.8125248905
 30
0.0
 40
0.3999999999999977
100
AcDbArc
 50
70.0
 51
90.0
  0
ARC
  5
192
330
1F
100
AcDbEntity
  8
0
  6
HIDDEN
 62
     7
370
     0
100
AcDbCircle
 10
160.0630659345
 20
106.0125248905
 30
0.0
 40
0.3999999999999915
100
AcDbArc
 50
180.0
 51
270.0
  0
ARC
  5
193
330
1F
100
AcDbEntity
  8
0
  6
HIDDEN
 62
     7
370
     0
100
AcDbCircle
 10
160.0630659345
 20
117.8125248905
 30
0.0
 40
0.3999999999999915
100
AcDbArc
 50
90.0
 51
180.0
  0
LINE
  5
194
330
1F
100
AcDbEntity
  8
0
  6
HIDDEN
 62
     7
370
     0
100
AcDbLine
 10
162.9050985221
 20
105.6366479996
 30
0.0
 11
163.6630647126
 21
105.9125248383
 31
0.0
  0
LINE
  5
195
330
1F
100
AcDbEntity
  8
0
  6
HIDDEN
 62
     7
370
     0
100
AcDbLine
 10
163.6630647126
 20
117.9125249426
 30
0.0
 11
162.9050985221
 21
118.1884017813
 31
0.0
  0
LINE
  5
196
330
1F
100
AcDbEntity
  8
0
  6
HIDDEN
 62
     7
370
     0
100
AcDbLine
 10
163.6630647126
 20
105.9125248383
 30
0.0
 11
205.3630665186
 21
105.9125248383
 31
0.0
  0
LINE
  5
197
330
1F
100
AcDbEntity
  8
0
  6
HIDDEN
 62
     7
370
     0
100
AcDbLine
 10
205.3630665186
 20
117.9125249426
 30
0.0
 11
184.3200527373
 21
117.9125249426
 31
0.0
  0
LINE
  5
198
330
1F
100
AcDbEntity
  8
0
  6
HIDDEN
 62
     7
370
     0
100
AcDbLine
 10
183.0050960425
 20
117.9125249426
 30
0.0
 11
163.6630647126
 21
117.9125249426
 31
0.0
  0
LINE
  5
199
330
1F
100
AcDbEntity
  8
0
  6
HIDDEN
 62
     7
370
     0
100
AcDbLine
 10
120.847503772
 20
87.8331536468
 30
0.0
 11
120.4130715932
 21
88.3122203912
 31
0.0
  0
LINE
  5
19A
330
1F
100
AcDbEntity
  8
0
  6
HIDDEN
 62
     7
370
     0
100
AcDbLine
 10
112.9130680356
 20
88.7339083518
 30
0.0
 11
112.43063456
 21
88.2548416074
 31
0.0
  0
LINE
  5
19B
330
1F
100
AcDbEntity
  8
0
  6
HIDDEN
 62
     7
370
     0
100
AcDbLine
 10
112.4305125568
 20
135.5702025856
 30
0.0
 11
112.913063379
 21
135.0910818245
 31
0.0
  0
LINE
  5
19C
330
1F
100
AcDbEntity
  8
0
  6
HIDDEN
 62
     7
370
     0
100
AcDbLine
 10
120.4130660053
 20
135.512780961
 30
0.0
 11
120.8476080801
 21
135.9918998595
 31
0.0
  0
LINE
  5
19D
330
1F
100
AcDbEntity
  8
0
  6
HIDDEN
 62
     7
370
     0
100
AcDbLine
 10
147.4630661551
 20
107.6625246595
 30
0.0
 11
159.6630677823
 21
107.6625246595
 31
0.0
  0
LINE
  5
19E
330
1F
100
AcDbEntity
  8
0
  6
HIDDEN
 62
     7
370
     0
100
AcDbLine
 10
159.6630677823
 20
116.1625251214
 30
0.0
 11
147.4630661551
 21
116.1625251214
 31
0.0
  0
LINE
  5
19F
330
1F
100
AcDbEntity
  8
0
  6
HIDDEN
 62
     7
370
     0
100
AcDbLine
 10
120.4130660053
 20
131.847926047
 30
0.0
 11
120.4130660053
 21
135.5124885257
 31
0.0
  0
LINE
  5
1A0
330
1F
100
AcDbEntity
  8
0
  6
HIDDEN
 62
     7
370
     0
100
AcDbLine
 10
112.9130661729
 20
135.0909384008
 30
0.0
 11
112.9130661729
 21
131.9081472273
 31
0.0
  0
LINE
  5
1A1
330
1F
100
AcDbEntity
  8
0
  6
HIDDEN
 62
     7
370
     0
100
AcDbLine
 10
120.4130660053
 20
88.3127028163
 30
0.0
 11
120.4130660053
 21
91.9771237339
 31
0.0
  0
LINE
  5
1A2
330
1F
100
AcDbEntity
  8
0
  6
HIDDEN
 62
     7
370
     0
100
AcDbLine
 10
112.9130661729
 20
91.9169025536
 30
0.0
 11
112.9130661729
 21
88.7342305894
 31
0.0
  0
ARC
  5
1A3
330
1F
100
AcDbEntity
  8
0
  6
HIDDEN
 62
     7
370
     0
100
AcDbCircle
 10
162.7682919164
 20
106.0125248905
 30
0.0
 40
0.3999999999999977
100
AcDbArc
 50
270.0
 51
290.0
  0
LINE
  5
1A4
330
1F
100
AcDbEntity
  8
0
  6
HIDDEN
 62
     7
370
     0
100
AcDbLine
 10
159.1130659226
 20
132.9125246073
 30
0.0
 11
160.1130642239
 21
132.3351753916
 31
0.0
  0
LINE
  5
1A5
330
1F
100
AcDbEntity
  8
0
  6
HIDDEN
 62
     7
370
     0
100
AcDbLine
 10
165.1130669061
 20
132.3351753916
 30
0.0
 11
166.1130652073
 21
132.9125246073
 31
0.0
  0
LINE
  5
1A6
330
1F
100
AcDbEntity
  8
0
  6
HIDDEN
 62
     7
370
     0
100
AcDbLine
 10
166.1130652073
 20
90.9125251736
 30
0.0
 11
165.1130669061
 21
91.4898743893
 31
0.0
  0
LINE
  5
1A7
330
1F
100
AcDbEntity
  8
0
  6
HIDDEN
 62
     7
370
     0
100
AcDbLine
 10
160.1130642239
 20
91.4898743893
 30
0.0
 11
159.1130659226
 21
90.9125251736
 31
0.0
  0
LINE
  5
1A8
330
1F
100
AcDbEntity
  8
0
  6
HIDDEN
 62
     7
370
     0
100
AcDbLine
 10
160.1130642239
 20
132.3351753916
 30
0.0
 11
160.1130642239
 21
123.9125249948
 31
0.0
  0
LINE
  5
1A9
330
1F
100
AcDbEntity
  8
0
  6
HIDDEN
 62
     7
370
     0
100
AcDbLine
 10
165.1130669061
 20
123.9125249948
 30
0.0
 11
165.1130669061
 21
132.3351753916
 31
0.0
  0
LINE
  5
1AA
330
1F
100
AcDbEntity
  8
0
  6
HIDDEN
 62
     7
370
     0
100
AcDbLine
 10
160.1130642239
 20
123.9125249948
 30
0.0
 11
162.613065565
 21
122.4103733938
 31
0.0
  0
LINE
  5
1AB
330
1F
100
AcDbEntity
  8
0
  6
HIDDEN
 62
     7
370
     0
100
AcDbLine
 10
162.613065565
 20
122.4103733938
 30
0.0
 11
165.1130669061
 21
123.9125249948
 31
0.0
  0
LINE
  5
1AC
330
1F
100
AcDbEntity
  8
0
  6
HIDDEN
 62
     7
370
     0
100
AcDbLine
 10
165.1130669061
 20
99.9125247862
 30
0.0
 11
162.613065565
 21
101.4146763872
 31
0.0
  0
LINE
  5
1AD
330
1F
100
AcDbEntity
  8
0
  6
HIDDEN
 62
     7
370
     0
100
AcDbLine
 10
162.613065565
 20
101.4146763872
 30
0.0
 11
160.1130642239
 21
99.9125247862
 31
0.0
  0
LINE
  5
1AE
330
1F
100
AcDbEntity
  8
0
  6
HIDDEN
 62
     7
370
     0
100
AcDbLine
 10
165.1130669061
 20
91.4898743893
 30
0.0
 11
165.1130669061
 21
99.9125247862
 31
0.0
  0
LINE
  5
1AF
330
1F
100
AcDbEntity
  8
0
  6
HIDDEN
 62
     7
370
     0
100
AcDbLine
 10
160.1130642239
 20
99.9125247862
 30
0.0
 11
160.1130642239
 21
91.4898743893
 31
0.0
  0
LINE
  5
1B0
330
1F
100
AcDbEntity
  8
0
  6
HIDDEN
 62
     7
370
     0
100
AcDbLine
 10
163.1630674246
 20
121.394003373
 30
0.0
 11
163.1630674246
 21
121.81202006
 31
0.0
  0
LINE
  5
1B1
330
1F
100
AcDbEntity
  8
0
  6
HIDDEN
 62
     7
370
     0
100
AcDbLine
 10
163.1630674246
 20
116.2850843783
 30
0.0
 11
163.1630674246
 21
119.6420836303
 31
0.0
  0
LINE
  5
1B2
330
1F
100
AcDbEntity
  8
0
  6
HIDDEN
 62
     7
370
     0
100
AcDbLine
 10
160.1630650703
 20
120.3315673436
 30
0.0
 11
160.1630650703
 21
116.3654710207
 31
0.0
  0
LINE
  5
1B3
330
1F
100
AcDbEntity
  8
0
  6
HIDDEN
 62
     7
370
     0
100
AcDbLine
 10
160.1630650703
 20
121.81202006
 30
0.0
 11
160.1630650703
 21
120.8353513892
 31
0.0
  0
LINE
  5
1B4
330
1F
100
AcDbEntity
  8
0
  6
HIDDEN
 62
     7
370
     0
100
AcDbLine
 10
162.874055678
 20
119.2754410248
 30
0.0
 11
205.6630641464
 21
118.0866636376
 31
0.0
  0
LINE
  5
1B5
330
1F
100
AcDbEntity
  8
0
  6
HIDDEN
 62
     7
370
     0
100
AcDbLine
 10
205.6630641464
 20
120.5876279663
 30
0.0
 11
162.871656591
 21
121.7764724086
 31
0.0
  0
LINE
  5
1B6
330
1F
100
AcDbEntity
  8
0
  6
HIDDEN
 62
     7
370
     0
100
AcDbLine
 10
160.1901926342
 20
120.9877567406
 30
0.0
 11
159.9472627286
 21
120.6072360318
 31
0.0
  0
LINE
  5
1B7
330
1F
100
AcDbEntity
  8
0
  6
HIDDEN
 62
     7
370
     0
100
AcDbLine
 10
159.9472627286
 20
120.6072360318
 30
0.0
 11
160.1878047231
 21
120.1798511709
 31
0.0
  0
LINE
  5
1B8
330
1F
100
AcDbEntity
  8
0
  6
HIDDEN
 62
     7
370
     0
100
AcDbLine
 10
200.1539558414
 20
105.834847879
 30
0.0
 11
199.6686026696
 21
105.3213636431
 31
0.0
  0
LINE
  5
1B9
330
1F
100
AcDbEntity
  8
0
  6
HIDDEN
 62
     7
370
     0
100
AcDbLine
 10
199.7241243962
 20
103.3229060511
 30
0.0
 11
200.2372384313
 21
102.8371617238
 31
0.0
  0
LINE
  5
1BA
330
1F
100
AcDbEntity
  8
0
  6
HIDDEN
 62
     7
370
     0
100
AcDbLine
 10
205.4890334848
 20
105.983647615
 30
0.0
 11
200.1550957802
 21
105.8354583609
 31
0.0
  0
LINE
  5
1BB
330
1F
100
AcDbEntity
  8
0
  6
HIDDEN
 62
     7
370
     0
100
AcDbLine
 10
200.2384081725
 20
102.8366150375
 30
0.0
 11
205.572345877
 21
102.9848042916
 31
0.0
  0
LINE
  5
1BC
330
1F
100
AcDbEntity
  8
0
  6
HIDDEN
 62
     7
370
     0
100
AcDbLine
 10
205.5742979292
 20
102.9865961562
 30
0.0
 11
205.6630641464
 21
103.1509680714
 31
0.0
  0
LINE
  5
1BD
330
1F
100
AcDbEntity
  8
0
  6
HIDDEN
 62
     7
370
     0
100
AcDbLine
 10
205.6603074316
 20
105.706385434
 30
0.0
 11
205.4910823945
 21
105.9819675091
 31
0.0
  0
LINE
  5
1BE
330
1F
100
AcDbEntity
  8
0
  6
HIDDEN
 62
     7
370
     0
100
AcDbLine
 10
205.4321930054
 20
117.8447186056
 30
0.0
 11
205.6014180425
 21
118.1203002151
 31
0.0
  0
LINE
  5
1BF
330
1F
100
AcDbEntity
  8
0
  6
HIDDEN
 62
     7
370
     0
100
AcDbLine
 10
205.6630641464
 20
120.5666685517
 30
0.0
 11
205.5154085401
 21
120.8400899585
 31
0.0
  0
LINE
  5
1C0
330
1F
100
AcDbEntity
  8
0
  6
HIDDEN
 62
     7
370
     0
100
AcDbLine
 10
205.513456488
 20
120.8418818231
 30
0.0
 11
200.1795187834
 21
120.9900701459
 31
0.0
  0
LINE
  5
1C1
330
1F
100
AcDbEntity
  8
0
  6
HIDDEN
 62
     7
370
     0
100
AcDbLine
 10
200.0962063912
 20
117.9912277538
 30
0.0
 11
205.4301440958
 21
117.8430384997
 31
0.0
  0
LINE
  5
1C2
330
1F
100
AcDbEntity
  8
0
  6
HIDDEN
 62
     7
370
     0
100
AcDbLine
 10
200.1783490423
 20
120.9895243909
 30
0.0
 11
199.6652350072
 21
120.5037791322
 31
0.0
  0
LINE
  5
1C3
330
1F
100
AcDbEntity
  8
0
  6
HIDDEN
 62
     7
370
     0
100
AcDbLine
 10
199.6097132805
 20
118.5053220059
 30
0.0
 11
200.0950664524
 21
117.9918377701
 31
0.0
  0
DIMENSION
  5
1C4
330
1F
100
AcDbEntity
  8
VERMASSUNG
100
AcDbDimension
  2
*D1
 10
213.1706702298
 20
117.9125248905
 30
0.0
 11
213.1706702298
 21
111.9125248905
 31
0.0
 70
   160
  1
%%c<>
 71
     2
 42
-1.0
  3
SLDDIMSTYLE0
100
AcDbAlignedDimension
 13
205.3630659345
 23
105.9125248905
 33
0.0
 14
205.3630659345
 24
117.9125248905
 34
0.0
 50
90.0
100
AcDbRotatedDimension
  0
DIMENSION
  5
1D0
330
1F
100
AcDbEntity
  8
VERMASSUNG
100
AcDbDimension
  2
*D2
 10
205.6630659345
 20
154.2809317443
 30
0.0
 11
165.6630659345
 21
154.2809317443
 31
0.0
 70
   160
 71
     2
 42
-1.0
  3
SLDDIMSTYLE1
100
AcDbAlignedDimension
 13
125.6630659345
 23
111.9125248905
 33
0.0
 14
205.6630659345
 24
111.9125248905
 34
0.0
100
AcDbRotatedDimension
  0
DIMENSION
  5
1DB
330
1F
100
AcDbEntity
  8
VERMASSUNG
100
AcDbDimension
  2
*D3
 10
219.1706702298
 20
90.9125248905
 30
0.0
 11
219.1706702298
 21
111.9125248905
 31
0.0
 70
   160
  1
%%c<>
 71
     2
 42
-1.0
  3
SLDDIMSTYLE1
100
AcDbAlignedDimension
 13
192.7960244115
 23
132.9125248905
 33
0.0
 14
192.7960244115
 24
90.9125248905
 34
0.0
 50
90.0
100
AcDbRotatedDimension
  0
DIMENSION
  5
1E6
330
1F
100
AcDbEntity
  8
VERMASSUNG
100
AcDbDimension
  2
*D4
 10
205.6630659345
 20
160.2809317443
 30
0.0
 11
149.7130659345
 21
160.2809317443
 31
0.0
 70
   160
 71
     2
 42
-1.0
  3
SLDDIMSTYLE1
100
AcDbAlignedDimension
 13
93.7630659345
 23
131.6032026369
 33
0.0
 14
205.6630659345
 24
125.6383843689
 34
0.0
100
AcDbRotatedDimension
  0
DIMENSION
  5
1F0
330
1F
100
AcDbEntity
  8
VERMASSUNG
100
AcDbDimension
  2
*D5
 10
88.0154963392
 20
80.4125248905
 30
0.0
 11
88.0154963392
 21
111.9125248905
 31
0.0
 70
   160
  1
HSK A %%c<>
 71
     2
 42
-1.0
  3
SLDDIMSTYLE1
100
AcDbAlignedDimension
 13
125.9630659345
 23
143.4125248905
 33
0.0
 14
125.9630659345
 24
80.4125248905
 34
0.0
 50
90.0
100
AcDbRotatedDimension
  0
DIMENSION
  5
1FC
330
1F
100
AcDbEntity
  8
VERMASSUNG
100
AcDbDimension
  2
*D6
 10
205.6630659345
 20
148.2809317443
 30
0.0
 11
178.6380659345
 21
148.2809317443
 31
0.0
 70
   160
 71
     2
 42
-1.0
  3
SLDDIMSTYLE1
100
AcDbAlignedDimension
 13
151.6130659345
 23
141.7589652142
 33
0.0
 14
205.6630659345
 24
125.6383843689
 34
0.0
100
AcDbRotatedDimension
  0
LINE
  5
206
330
1F
100
AcDbEntity
  8
VERMASSUNG
  6
CENTERX2
370
     0
100
AcDbLine
 10
89.2926743598
 20
111.9125248905
 30
0.0
 11
207.9447629905
 21
111.9125248905
 31
0.0
  0
OLE2FRAME
  5
207
330
1F
100
AcDbEntity
  8
0
100
AcDbOle2Frame
 70
     2
  3
Bitmap Image
 10
13.8511154363
 20
38.264191557
 30
0.0
 11
51.6290888628
 21
31.9806341108
 31
0.0
 71
     2
 72
     0
 73
     1
 90
    12928
310
80552BED0767C5B32B40DDAF6807D121434000000000000000006FFBDDFB85D0
310
4940DDAF6807D121434000000000000000006FFBDDFB85D04940416F4BD60AFB
310
3F4000000000000000002BED0767C5B32B40416F4BD60AFB3F40000000000000
310
0000000000000100000000010000010000000100000000000100000000320000
310
D0CF11E0A1B11AE1000000000000000000000000000000003E000300FEFF0900
310
0600000000000000000000000100000001000000000000000010000002000000
310
01000000FEFFFFFF0000000000000000FFFFFFFFFFFFFFFFFFFFFFFFFFFFFFFF
310
FFFFFFFFFFFFFFFFFFFFFFFFFFFFFFFFFFFFFFFFFFFFFFFFFFFFFFFFFFFFFFFF
310
FFFFFFFFFFFFFFFFFFFFFFFFFFFFFFFFFFFFFFFFFFFFFFFFFFFFFFFFFFFFFFFF
310
FFFFFFFFFFFFFFFFFFFFFFFFFFFFFFFFFFFFFFFFFFFFFFFFFFFFFFFFFFFFFFFF
310
FFFFFFFFFFFFFFFFFFFFFFFFFFFFFFFFFFFFFFFFFFFFFFFFFFFFFFFFFFFFFFFF
310
FFFFFFFFFFFFFFFFFFFFFFFFFFFFFFFFFFFFFFFFFFFFFFFFFFFFFFFFFFFFFFFF
310
FFFFFFFFFFFFFFFFFFFFFFFFFFFFFFFFFFFFFFFFFFFFFFFFFFFFFFFFFFFFFFFF
310
FFFFFFFFFFFFFFFFFFFFFFFFFFFFFFFFFFFFFFFFFFFFFFFFFFFFFFFFFFFFFFFF
310
FFFFFFFFFFFFFFFFFFFFFFFFFFFFFFFFFFFFFFFFFFFFFFFFFFFFFFFFFFFFFFFF
310
FFFFFFFFFFFFFFFFFFFFFFFFFFFFFFFFFFFFFFFFFFFFFFFFFFFFFFFFFFFFFFFF
310
FFFFFFFFFFFFFFFFFFFFFFFFFFFFFFFFFFFFFFFFFFFFFFFFFFFFFFFFFFFFFFFF
310
FFFFFFFFFFFFFFFFFFFFFFFFFFFFFFFFFFFFFFFFFFFFFFFFFFFFFFFFFFFFFFFF
310
FFFFFFFFFFFFFFFFFFFFFFFFFFFFFFFFFFFFFFFFFFFFFFFFFFFFFFFFFFFFFFFF
310
FFFFFFFFFFFFFFFFFFFFFFFFFFFFFFFFFFFFFFFFFFFFFFFFFFFFFFFFFFFFFFFF
310
FDFFFFFFFEFFFFFFFEFFFFFFFEFFFFFF05000000060000000700000008000000
310
090000000A0000000B0000000C0000000D0000000E0000000F00000010000000
310
11000000120000001300000014000000150000001600000017000000FEFFFFFF
310
FFFFFFFFFFFFFFFFFFFFFFFFFFFFFFFFFFFFFFFFFFFFFFFFFFFFFFFFFFFFFFFF
310
FFFFFFFFFFFFFFFFFFFFFFFFFFFFFFFFFFFFFFFFFFFFFFFFFFFFFFFFFFFFFFFF
310
FFFFFFFFFFFFFFFFFFFFFFFFFFFFFFFFFFFFFFFFFFFFFFFFFFFFFFFFFFFFFFFF
310
FFFFFFFFFFFFFFFFFFFFFFFFFFFFFFFFFFFFFFFFFFFFFFFFFFFFFFFFFFFFFFFF
310
FFFFFFFFFFFFFFFFFFFFFFFFFFFFFFFFFFFFFFFFFFFFFFFFFFFFFFFFFFFFFFFF
310
FFFFFFFFFFFFFFFFFFFFFFFFFFFFFFFFFFFFFFFFFFFFFFFFFFFFFFFFFFFFFFFF
310
FFFFFFFFFFFFFFFFFFFFFFFFFFFFFFFFFFFFFFFFFFFFFFFFFFFFFFFFFFFFFFFF
310
FFFFFFFFFFFFFFFFFFFFFFFFFFFFFFFFFFFFFFFFFFFFFFFFFFFFFFFFFFFFFFFF
310
FFFFFFFFFFFFFFFFFFFFFFFFFFFFFFFFFFFFFFFFFFFFFFFFFFFFFFFFFFFFFFFF
310
FFFFFFFFFFFFFFFFFFFFFFFFFFFFFFFFFFFFFFFFFFFFFFFFFFFFFFFFFFFFFFFF
310
FFFFFFFFFFFFFFFFFFFFFFFFFFFFFFFFFFFFFFFFFFFFFFFFFFFFFFFFFFFFFFFF
310
FFFFFFFFFFFFFFFFFFFFFFFFFFFFFFFFFFFFFFFFFFFFFFFFFFFFFFFFFFFFFFFF
310
FFFFFFFFFFFFFFFFFFFFFFFFFFFFFFFFFFFFFFFFFFFFFFFFFFFFFFFFFFFFFFFF
310
52006F006F007400200045006E00740072007900000000000000000000000000
310
0000000000000000000000000000000000000000000000000000000000000000
310
16000500FFFFFFFFFFFFFFFF020000000A00030000000000C000000000000046
310
000000000000000000000000D0AF88CAFFFFCB0103000000C000000000000000
310
01004F006C006500000000000000000000000000000000000000000000000000
310
0000000000000000000000000000000000000000000000000000000000000000
310
0A000200FFFFFFFFFFFFFFFFFFFFFFFF00000000000000000000000000000000
310
0000000000000000000000000000000000000000000000001400000000000000
310
010043006F006D0070004F0062006A0000000000000000000000000000000000
310
0000000000000000000000000000000000000000000000000000000000000000
310
120002010100000003000000FFFFFFFF00000000000000000000000000000000
310
0000000000000000000000000000000000000000010000004D00000000000000
310
01004F006C006500310030004E00610074006900760065000000000000000000
310
0000000000000000000000000000000000000000000000000000000000000000
310
1A000200FFFFFFFFFFFFFFFFFFFFFFFF00000000000000000000000000000000
310
0000000000000000000000000000000000000000040000002426000000000000
310
FEFFFFFF02000000FEFFFFFFFFFFFFFFFFFFFFFFFFFFFFFFFFFFFFFFFFFFFFFF
310
FFFFFFFFFFFFFFFFFFFFFFFFFFFFFFFFFFFFFFFFFFFFFFFFFFFFFFFFFFFFFFFF
310
FFFFFFFFFFFFFFFFFFFFFFFFFFFFFFFFFFFFFFFFFFFFFFFFFFFFFFFFFFFFFFFF
310
FFFFFFFFFFFFFFFFFFFFFFFFFFFFFFFFFFFFFFFFFFFFFFFFFFFFFFFFFFFFFFFF
310
FFFFFFFFFFFFFFFFFFFFFFFFFFFFFFFFFFFFFFFFFFFFFFFFFFFFFFFFFFFFFFFF
310
FFFFFFFFFFFFFFFFFFFFFFFFFFFFFFFFFFFFFFFFFFFFFFFFFFFFFFFFFFFFFFFF
310
FFFFFFFFFFFFFFFFFFFFFFFFFFFFFFFFFFFFFFFFFFFFFFFFFFFFFFFFFFFFFFFF
310
FFFFFFFFFFFFFFFFFFFFFFFFFFFFFFFFFFFFFFFFFFFFFFFFFFFFFFFFFFFFFFFF
310
FFFFFFFFFFFFFFFFFFFFFFFFFFFFFFFFFFFFFFFFFFFFFFFFFFFFFFFFFFFFFFFF
310
FFFFFFFFFFFFFFFFFFFFFFFFFFFFFFFFFFFFFFFFFFFFFFFFFFFFFFFFFFFFFFFF
310
FFFFFFFFFFFFFFFFFFFFFFFFFFFFFFFFFFFFFFFFFFFFFFFFFFFFFFFFFFFFFFFF
310
FFFFFFFFFFFFFFFFFFFFFFFFFFFFFFFFFFFFFFFFFFFFFFFFFFFFFFFFFFFFFFFF
310
FFFFFFFFFFFFFFFFFFFFFFFFFFFFFFFFFFFFFFFFFFFFFFFFFFFFFFFFFFFFFFFF
310
FFFFFFFFFFFFFFFFFFFFFFFFFFFFFFFFFFFFFFFFFFFFFFFFFFFFFFFFFFFFFFFF
310
FFFFFFFFFFFFFFFFFFFFFFFFFFFFFFFFFFFFFFFFFFFFFFFFFFFFFFFFFFFFFFFF
310
FFFFFFFFFFFFFFFFFFFFFFFFFFFFFFFFFFFFFFFFFFFFFFFFFFFFFFFFFFFFFFFF
310
010000020000000000000000000000000000000061007200650064005C003100
310
30002E0030005C0044004C004C005300680061007200650064005C003B004300
310
0100FEFF030A0000FFFFFFFF0A00030000000000C00000000000004607000000
310
5042727573680007000000504272757368000700000050427275736800F439B2
310
71000000000000000000000000004100540049002E004100430045005C004300
310
6F00720065002D005300740061007400690063003B0043003A005C0050007200
310
6F006700720061006D002000460069006C006500730020002800780038003600
310
29005C0043006F006D006D006F006E002000460069006C00650073005C004100
310
750074006F006400650073006B0020005300680061007200650064005C003B00
310
43003A005C00500072006F006700720061006D002000460069006C0065007300
310
5C004E006F0072006D0061006E005C004E0070006D005C00420069006E000000
310
43003A005C00500072006F006700720061006D002000460069006C0065007300
310
5C0053006F006C006900640057006F0072006B007300200043006F0072007000
310
5C0053006F006C006900640057006F0072006B00730020002800320029005C00
310
730065007400750070005C0069003300380036005C0073007700610063007400
310
770069007A002E006500780065000000220043003A005C00500072006F006700
310
20260000424D0E260000000000003E00000028000000B40200006E0000000100
310
01000000000000000000130B0000130B00000200000002000000000000FFFFFF
310
FFFFFFFFFFFFFFFFFFFFFFFFFFFFFFFFFFFFFFFFFFFFFFFFFFFFFFFFFFFFFFFF
310
FFFFFFFFFFFFFFFFFFFFFFFFFFFFFFFFFFFFFFFFFFFFFFFFFFFFFFFFFFFFFFFF
310
FFFFFFFFFFFFFFFFFFFFFFFFFFFFFFFFFFFFFFFFFFFFFFFFF000FFFFFFFFFFFF
310
FFFFFFFFFFFFFFFFFFFFFFFFFFFFFFFFFFFFFFFFFFFFFFFFFFFFFFFFFFFFFFFF
310
FFFFFFFFFFFFFFFFFFFFFFFFFFFFFFFFFFFFFFFFFFFFFFFFFFFFFFFFFFFFFFFF
310
FFFFFFFFFFFFFFFFFFFFFFFFFFFFFFFFF000FFFFFFFFFFFFFFFFFFFFFFFFFFFF
310
FFFFFFFFFFFFFFFFFFFFFFFFFFFFFFFFFFFFFFFFFFFFFFFFFFFFFFFFFFFFFFFF
310
FFFFFFFFFFFFFFFFFFFFFFFFFFFFFFFFFFFFFFFFFFFFFFFFFFFFFFFFFFFFFFFF
310
FFFFFFFFFFFFFFFFF000FFFFFFFFFFFFFFFFFFFFFFFFFFFFFFFFFFFFFFFFFFFF
310
FFFFFFFFFFFFFFFFFFFFFFFFFFFFFFFFFFFFFFFFFFFFFFFFFFFFFFFFFFFFFFFF
310
FFFFFFFFFFFFFFFFFFFFFFFFFFFFFFFFFFFFFFFFFFFFFFFFFFFFFFFFFFFFFFFF
310
F000FFFFFFFFFFFFFFFFFFFFFFFFFFFFFFFFFFFFFFFFFFFFFFFFFFFFFFFFFFFF
310
FFFFFFFFFFFFFFFFFFFFFFFFFFFFFFFFFFFFFFFFFFFFFFFFFFFFFFFFFFFFFFFF
310
FFFFFFFFFFFFFFFFFFFFFFFFFFFFFFFFFFFFFFFFFFFFFFFFF000FFFFFFFFFFFF
310
FFFFFFFFFFFFFFFFFFFFFFFFFFFFFFFFFFFFFFFFFFFFFFFFFFFFFFFFFFFFFFFF
310
FFFFFFFFFFFFFFFFFFFFFFFFFFFFFFFFFFFFFFFFFFFFFFFFFFFFFFFFFFFFFFFF
310
FFFFFFFFFFFFFFFFFFFFFFFFFFFFFFFFF000FFFFFFFFFFFFFFFFFFFFFFFFFFFF
310
FFFFFFFFFFFFFFFFFFFFFFFFFFFFFFFFFFFFFFFFFFFFFFFFFFFFFFFFFFFFFFFF
310
FFFFFFFFFFFFFFFFFFFFFFFFFFFFFFFFFFFFFFFFFFFFFFFFFFFFFFFFFFFFFFFF
310
FFFFFFFFFFFFFFFFF000FFFFFFFFFFFFFFFFFFFFFFFFFFFFFFFFFFFFFFFFFFFF
310
FFFFFFFFFFFFFFFFFFFFFFFFFFFFFFFFFFFFFFFFFFFFFFFFFFFFFFFFFFFFFFFF
310
FFFFFFFFFFFFFFFFFFFFFFFFFFFFFFFFFFFFFFFFFFFFFFFFFFFFFFFFFFFFFFFF
310
F000FFFFFFFFFFFFFFFFFFFFFFFFFFFFFFFFFFFFFFFFFFFFFFFFFFFFFFFFFFFF
310
FFFFFFFFFFFFFFFFFFFFFFFFFFFFFFFFFFFFFFFFFFFFFFFFFFFFFFFFFFFFFFFF
310
FFFFFFFFFFFFFFFFFFFFFFFFFFFFFFFFFFFFFFFFFFFFFFFFF000FFFFFFFFFFFF
310
FFFFFFFFFFFFFFFFFFFFFFFFFFFFFFFFFFFFFFFFFFFFFFFFFFFFFFFFFFFFFFFF
310
FFFFFFFFFFFFFFFFFFFFFFFFFFFFFFFFFFFFFFFFFFFFFFFFFFFFFFFFFFFFFFFF
310
FFFFFFFFFFFFFFFFFFFFFFFFFFFFFFFFF000FFFFFFFFFFFFFFFFFFFFFFFFFFFF
310
FFFFFFFFFFFFFFFFFFFFFFFFFFFFFFFFFFFFFFFFFFFFFFFFFFFFFFFFFFFFFFFF
310
FFFFFFFFFFFFFFFFFFFFFFFFFFFFFFFFFFFFFFFFFFFFFFFFFFFFFFFFFFFFFFFF
310
FFFFFFFFFFFFFFFFF000FFFFFFFFFFFFFFFFFFFFFFFFFFFFFFFFFFFFFFFFFFFF
310
FFFFFFFFFFFFFFFFFFFFFFFFFFFFFFFFFFFFFFFFFFFFFFFFFFFFFFFFFFFFFFFF
310
FFFFFFFFFFFFFFFFFFFFFFFFFFFFFFFFFFFFFFFFFFFFFFFFFFFFFFFFFFFFFFFF
310
F000FFFFFFFFFFFFFFFFFFFFFFFFFFFFFFFFFFFFFFFFFFFFFFFFFFFFFFFFFFFF
310
FFFFFFFFFFFFFFFFFFFFFFFFFFFFFFFFFFFFFFFFFFFFFFFFFFFFFFFFFFFFFFFF
310
FFFFFFFFFFFFFFFFFFFFFFFFFFFFFFFFFFFFFFFFFFFFFFFFF000FFFFFFFFFFFF
310
FFFFFFFFFFFFFFFFFFFFFFFFFFFFFFFFFFFFFFFFFFFFFFFFFFFFFFFFFFFFFFFF
310
FFFFFFFFFFFFFFFFFFFFFFFFFFFFFFFFFFFFFFFFFFFFFFFFFFFFFFFFFFFFFFFF
310
FFFFFFFFFFFFFFFFFFFFFFFFFFFFFFFFF000FFFFFFFFFFFFFFFFFFFFFFFFFFFF
310
FFFFFFFFFFFFFFFFFFFFFFFFFFFFFFFFFFFFFFFFFFFFFFFFFFFFFFFFFFFFFFFF
310
FFFFFFFFFFFFFFFFFFFFFFFFFFFFFFFFFFFFFFFFFFFFFFFFFFFFFFFFFFFFFFFF
310
FFFFFFFFFFFFFFFFF000FFFFFFFFFFFFFFFFFFFFFFFFFFFFFFFFFFFFFFFFFFFF
310
FFFFFFFFFFFFFFFFFFFFFFFFFFFFFFFFFFFFFFFFFFFFFFFFFFFFFFFFFFFFFFFF
310
FFFFFFFFFFFFFFFFFFFFFFFFFFFFFFFFFFFFFFFFFFFFFFFFFFFFFFFFFFFFFFFF
310
F000FFFFFFFFFFFFFFFFFFFFFFFFFFFFFFFFFFFFFFFFFFFFFFFFFFFFFFFFFFFF
310
FFFFFFFFFFFFFFFFFFFFFFFFFFFFFFFFFFFFFFFFFFFFFFFFFFFFFFFFFFFFFFFF
310
FFFFFFFFFFFFFFFFFFFFFFFFFFFFFFFFFFFFFFFFFFFFFFFFF000FFFFFFFFFFFF
310
FFFFFFFFFFFFFFFFFFFFFFFFFFFFFFFFFFFFFFFFFFFFFFFFFFFFFFFFFFFFFFFF
310
FFFFFFFFFFFFFFFFFFFFFFFFFFFFFFFFFFFFFFFFFFFFFFFFFFFFFFFFFFFFFFFF
310
FFFFFFFFFFFFFFFFFFFFFFFFFFFFFFFFF000FFFFFFFFFFFFFFFFFFFFFFFFFFFF
310
FFFFFFFFFFFFFFFFFFFFFFFFFFFFFFFFFFFFFFFFFFFFFFFFFFFFFFFFFFFFFFFF
310
FFFFFFFFFFFFFFFFFFFFFFFFFFFFFFFFFFFFFFFFFFFFFFFFFFFFFFFFFFFFFFFF
310
FFFFFFFFFFFFFFFFF000FFFFF80003FFFFFFFFFFFFFFFFFFFFFFFFFFFFFFFFFF
310
FFFFF00007FFFFFFFFFF00007FFFFFF800000000000000007FFFFFFFFFFFFFFF
310
FFFFFFFC001FFFFFFFFFFFFFFC001FFFFFFFFFFFFFFFFFFFFFFFFFFE0007FFFF
310
F000FFFF8000007FFFFFFFF8000FFFFFC0007FFFFF80007FFFFF0000007FFFFF
310
FFF8000007FFFFF800000000000000007FFFFFF0001FFFFFFFFFFFC00001FFFF
310
FFFFFFFFC00001FFFFFFFF000000000003FFFFE000007FFFF000FFFE0000000F
310
FFFFFFF0000FFFFF80007FFFFF80007FFFFC0000001FFFFFFFC0000001FFFFF8
310
00000000000000007FFFFFF0001FFFFFFFFFFE0000003FFFFFFFFFFE0000003F
310
FFFFFF000000000003FFFF0000000FFFF000FFF800000003FFFFFFF00007FFFF
310
80007FFFFF80007FFFF000000007FFFFFF000000003FFFF80000000000000000
310
7FFFFFF0001FFFFFFFFFF80000000FFFFFFFFFF80000000FFFFFFF0000000000
310
03FFFC00000003FFF000FFE000000000FFFFFFF00007FFFF80003FFFFF80007F
310
FFC000000001FFFFFC000000001FFFF800000000000000007FFFFFF0001FFFFF
310
FFFFE000000003FFFFFFFFE000000003FFFFFF000000000003FFF000000000FF
310
F000FF80000000007FFFFFF00007FFFF80003FFFFF80007FFF8000000000FFFF
310
F80000000007FFF800000000000000007FFFFFF0001FFFFFFFFFC000000001FF
310
FFFFFFC000000001FFFFFF000000000003FFC0000000007FF000FF0000000000
310
3FFFFFE00007FFFF00003FFFFF80007FFE00000000003FFFF00000000003FFF8
310
00000000000000007FFFFFF0001FFFFFFFFF8000000000FFFFFFFF8000000000
310
FFFFFF000000000003FF80000000003FF000FE00000000001FFFFFE00003FFFF
310
00003FFFFF80007FFC00000000001FFFE00000000001FFF8000001FFFE000000
310
7FFFFFF0001FFFFFFFFE00000000003FFFFFFE00000000003FFFFF0000000000
310
03FF00000000001FF000FC00000000000FFFFFE00003FFFF00001FFFFF80007F
310
F800000000001FFFC00000000000FFF8000001FFFE0000007FFFFFF0001FFFFF
310
FFFC00000000001FFFFFFC00000000001FFFFF000000000003FE00000000000F
310
F000F8000000000007FFFFE00003FFFF00001FFFFF80007FF800000000000FFF
310
800000000000FFF8000001FFFE0000007FFFFFF0001FFFFFFFF800000000000F
310
FFFFF800000000000FFFFF000000000003FC000000000007F000F80000000000
310
03FFFFC00003FFFE00001FFFFF80007FF0000000000007FF0000000000007FF8
310
000001FFFE0000007FFFFFF0001FFFFFFFF0000000000007FFFFF00000000000
310
07FFFF000000000003F8000000000003F000F0000000000003FFFFC00001FFFE
310
00001FFFFF80007FE0000000000007FE0000000000003FF8000001FFFE000000
310
7FFFFFF0001FFFFFFFF0000000000007FFFFF0000000000007FFFF0000000000
310
03F800001F800003F000E00001FFF00001FFFFC00001FFFE00000FFFFF80007F
310
E00001FFE00003FE00001FFF00003FF8000001FFFE0000007FFFFFF0001FFFFF
310
FFE000003E000003FFFFE000003E000003FFFF000000000003F00001FFF80001
310
F000E00007FFFC0001FFFFC00001FFFE00000FFFFF80007FC0000FFFFC0003FC
310
0000FFFFC0001FF8000001FFFE0000007FFFFFF0001FFFFFFFC00003FFE00001
310
FFFFC00003FFE00001FFFF0001FFFFFFFFF00007FFFE0001F000E0000FFFFF00
310
00FFFF800001FFFC00000FFFFF80007FC0001FFFFE0001FC0001FFFFE0001FF8
310
000001FFFE0000007FFFFFF0001FFFFFFF80000FFFF80000FFFF80000FFFF800
310
00FFFF0003FFFFFFFFE0000FFFFF8000F000C0003FFFFF8000FFFF800000FFFC
310
000007FFFF80007F80003FFFFF0001FC0003FFFFF0001FF8000001FFFE000000
310
7FFFFFF0001FFFFFFF80003FFFFE0000FFFF80003FFFFE0000FFFF0003FFFFFF
310
FFE0003FFFFF8000F000C0003FFFFF8000FFFF800000FFFC000007FFFF80007F
310
80007FFFFF8001F80007FFFFF8000FF8000001FFFE0000007FFFFFF0001FFFFF
310
FF00007FFFFF00007FFF00007FFFFF00007FFF0003FFFFFFFFE0003FFFFFC000
310
F000C0007FFFFFC000FFFF000000FFFC000007FFFF80007F8000FFFFFF8000F8
310
000FFFFFF8000FF8000001FFFE0000007FFFFFF0001FFFFFFF0000FFFFFF8000
310
7FFF0000FFFFFF80007FFF0003FFFFFFFFC0007FFFFFC00070008000FFFFFFC0
310
00FFFF000000FFF8000007FFFF80007F8000FFFFFF8000F8000FFFFFF8000FF8
310
000001FFFE0000007FFFFFF0001FFFFFFE0001FFFFFFC0003FFE0001FFFFFFC0
310
003FFF0003FFFFFFFFC0007FFFFFE00070008000FFFFFFC0007FFF0000007FF8
310
000003FFFF80007F0001FFFFFF8000F8000FFFFFF8000FF8000001FFFE000000
310
7FFFFFF0001FFFFFFE0001FFFFFFC0003FFE0001FFFFFFC0003FFF0003FFFFFF
310
FFC000FFFFFFE00070008000FFFFFFC0007FFF0000007FF8000003FFFF80007F
310
0001FFFFFF8000F8001FFFFFF8000FF8000001FFFE0000007FFFFFF0001FFFFF
310
FE0003FFFFFFE0003FFE0003FFFFFFE0003FFF0003FFFFFFFFC000FFFFFFE000
310
70008000FFFFFFC0007FFE0000007FF8000003FFFF80007F0001FFFFFF8000F0
310
001FFFFFF8000FF8000001FFFE0000007FFFFFF0001FFFFFFC0003FFFFFFE000
310
1FFC0003FFFFFFE0001FFF0003FFFFFFFFC000FFFFFFC00070008000FFFFFF80
310
007FFE0000007FF0000003FFFF80007F0001FFFFFF0000F0001FFFFFF8000FF8
310
000001FFFE0000007FFFFFF0001FFFFFFC0007FFFFFFF0001FFC0007FFFFFFF0
310
001FFF0003FFFFFFFFC000FFFFFFC00070008001FFFFFF0000FFFE0000003FF0
310
000001FFFF80007F0001FFFFFF0000F8001FFFFFF0000FF8000001FFFE000000
310
7FFFFFF0001FFFFFFC0007FFFFFFF0001FFC0007FFFFFFF0001FFF0003FFFFFF
310
FFC001FFFFFF80007000FFFFFFFFFE0000FFFE0008003FF0008001FFFF80007F
310
FFFFFFFFFC0000FFFFFFFFFFE0000FF8000001FFFE0000007FFFFFF0001FFFFF
310
F8000FFFFFFFF8000FF8000FFFFFFFF8000FFF0003FFFFFFFFFFFFFFFFFF0000
310
7000FFFFFFFFFC0000FFFC0008003FF0008001FFFF80007FFFFFFFFFF80001FF
310
FFFFFFFF80000FF8000001FFFE0000007FFFFFF0001FFFFFF8000FFFFFFFF800
310
0FF8000FFFFFFFF8000FFF0003FFFFFFFFFFFFFFFFFE0000F000FFFFFFFFE000
310
00FFFC000C003FE000C001FFFF80007FFFFFFFFFC00001FFFFFFFFFE00001FF8
310
000001FFFE0000007FFFFFF0001FFFFFF8000FFFFFFFF8000FF8000FFFFFFFF8
310
000FFF0003FFFFFFFFFFFFFFFFF00000F000FFFFFFFE000001FFFC000C001FE0
310
00C000FFFF80007FFFFFFFFE000001FFFFFFFFE000001FF80FFFFFFFFFFFFFC0
310
7FFFFFF0001FFFFFF8000FFFFFFFF8000FF8000FFFFFFFF8000FFF0003FFFFFF
310
FFFFFFFFFF800000F000FFFFFFC0000001FFFC001C001FE001C000FFFF80007F
310
FFFFFF80000003FFFFFFF80000001FF80FFFFFFFFFFFFFC07FFFFFF0001FFFFF
310
F8001FFFFFFFFC000FF8001FFFFFFFFC000FFF0003FFFFFFFFFFFFFFF0000001
310
F000FFFFF800000001FFF8001C001FE001C000FFFF80007FFFFFF800000003FF
310
FFFF800000003FF80FFFFFFFFFFFFFC07FFFFFF0001FFFFFF8001FFFFFFFFC00
310
0FF8001FFFFFFFFC000FFF0003FFFFFFFFFFFFFE00000001F000FFFFC0000000
310
03FFF8001E001FC001E000FFFF80007FFFFF8000000007FFFFFC000000003FF8
310
0FFFFFFFFFFFFFC07FFFFFF0001FFFFFF8001FFFFFFFFC000FF8001FFFFFFFFC
310
000FFF0003FFFFFFFFFFFFE000000003F000FFFE0000000007FFF8001E000FC0
310
01E0007FFF80007FFFFE0000000007FFFFE0000000007FF80FFFFFFFFFFFFFC0
310
7FFFFFF0001FFFFFF0001FFFFFFFFC0007F0001FFFFFFFFC0007FF0003FFFFFF
310
FFFFFF0000000003F000FFF80000000007FFF8001E000FC003E0007FFF80007F
310
FFF0000000000FFFFF8000000000FFF80FFFFFFFFFFFFFC07FFFFFF0001FFFFF
310
F0001FFFFFFFFC0007F0001FFFFFFFFC0007FF0003FFFFFFFFFFFC0000000007
310
F000FFE0000000000FFFF0003E000FC003E0007FFF80007FFFC0000000001FFF
310
FE0000000001FFF80FFFFFFFFFFFFFC07FFFFFF0001FFFFFF0001FFFFFFFFC00
310
07F0001FFFFFFFFC0007FF0003FFFFFFFFFFF0000000000FF000FFC000000000
310
1FFFF0003F000F8003F0003FFF80007FFF80000000003FFFF80000000003FFF8
310
0FFFFFFFFFFFFFC07FFFFFF0001FFFFFF0001FFFFFFFFC0007F0001FFFFFFFFC
310
0007FF0003FFFFFFFFFFE0000000001FF000FF00000000007FFFF0003F000780
310
03F0003FFF80007FFF00000000007FFFF00000000007FFF80FFFFFFFFFFFFFC0
310
7FFFFFF0001FFFFFF0001FFFFFFFFC0007F0001FFFFFFFFC0007FF0003FFFFFF
310
FFFF80000000007FF000FE0000000000FFFFE0003F00078007F0003FFF80007F
310
FE0000000001FFFFE0000000001FFFF80FFFFFFFFFFFFFC07FFFFFF0001FFFFF
310
F0001FFFFFFFFC0007F0001FFFFFFFFC0007FF0003FFFFFFFFFF0000000000FF
310
F000FC0000000003FFFFE0007F00078007F0003FFF80007FFC0000000007FFFF
310
C0000000007FFFF80FFFFFFFFFFFFFC07FFFFFF0001FFFFFF8001FFFFFFFFC00
310
0FF8001FFFFFFFFC000FFF0003FFFFFFFFFE0000000003FFF000FC000000000F
310
FFFFE0007F80070007F8001FFF80007FF8000000001FFFFF8000000001FFFFF8
310
0FFFFFFFFFFFFFC07FFFFFF0001FFFFFF8001FFFFFFFFC000FF8001FFFFFFFFC
310
000FFF0003FFFFFFFFFC000000000FFFF000F8000000007FFFFFE0007F800700
310
07F8001FFF80007FF000000000FFFFFF800000000FFFFFF80FFFFFFFFFFFFFC0
310
7FFFFFF0001FFFFFF8000FFFFFFFF8000FF8000FFFFFFFF8000FFF0003FFFFFF
310
FFFC000000007FFFF000F800000007FFFFFFC0007F8003000FF8001FFF80007F
310
F000000007FFFFFF000000007FFFFFF80FFFFFFFFFFFFFC07FFFFFF0001FFFFF
310
F8000FFFFFFFF8000FF8000FFFFFFFF8000FFF0003FFFFFFFFF80000000FFFFF
310
F000F0000000FFFFFFFFC000FF8003000FF8001FFF80007FE0000000FFFFFFFF
310
0000000FFFFFFFF8000001FFFE0000007FFFFFF0001FFFFFF8000FFFFFFFF800
310
0FF8000FFFFFFFF8000FFF0003FFFFFFFFF8000000FFFFFFF000F000000FFFFF
310
FFFFC000FFC002000FF8000FFF80007FE000001FFFFFFFFE000001FFFFFFFFF8
310
000001FFFE0000007FFFFFF0001FFFFFF8000FFFFFFFF8000FF8000FFFFFFFF8
310
000FFF0003FFFFFFFFF000001FFFFFFFF000E00000FFFFFFFFFFC000FFC00200
310
0FFC000FFF80007FE00001FFFFFFFFFE00001FFFFFFFFFF8000001FFFE000000
310
7FFFFFF0001FFFFFFC000FFFFFFFF8001FFC000FFFFFFFF8001FFF0003FFFFFF
310
FFF00001FFFFFFFFF000E00007FFFFFFFFFF8000FFC000001FFC000FFF80007F
310
C0000FFFFFFFFFFE0000FFFFFFFFFFF8000001FFFE0000007FFFFFF0001FFFFF
310
FC0007FFFFFFF0001FFC0007FFFFFFF0001FFF0003FFFFFFFFF00007FFFFFFFF
310
F000E0001FFFFFFFFFFF8000FFC000001FFC000FFF80007FC0003FFFFFFFFFFE
310
0001FFFFFFFFFFF8000001FFFE0000007FFFFFF0001FFFFFFC0007FFFFFFF000
310
1FFC0007FFFFFFF0001FFF0003FFFFFFFFF0001FFFFFFFFFF000E0003FFFFF00
310
03FF8001FFE000001FFC0007FF80007FC0007FFFFF0007FC0003FFFFF0003FF8
310
000001FFFE0000007FFFFFF0001FFFFFFC0003FFFFFFE0001FFC0003FFFFFFE0
310
001FFF0003FFFFFFFFF0003FFFFFFFFFF000E0003FFFFF0001FF8001FFE00000
310
1FFE0007FF80007FC0007FFFFE0003FC0007FFFFE0003FF8000001FFFE000000
310
7FFFFFF0001FFFFFFE0003FFFFFFE0003FFE0003FFFFFFE0003FFF0003FFFFFF
310
FFF0003FFFFF8001F000E0003FFFFF0001FF0001FFE000001FFE0007FF80007F
310
C0007FFFFE0003FC0007FFFFE0003FF8000001FFFE0000007FFFFFF0001FFFFF
310
FE0001FFFFFFC0003FFE0001FFFFFFC0003FFF0003FFFFFFFFF0003FFFFF0001
310
F000E0003FFFFF0003FF0001FFE000003FFE0007FF80007FC0007FFFFE0003FC
310
0007FFFFE0003FF8000001FFFE0000007FFFFFF0001FFFFFFF0001FFFFFFC000
310
7FFF0001FFFFFFC0007FFF0003FFFFFFFFF0003FFFFF0001F000E0003FFFFE00
310
03FF0003FFF000003FFE0003FF80007FC0007FFFFC0003FE0007FFFFE0003FF8
310
000001FFFE0000007FFFFFF0001FFFFFFF0000FFFFFF80007FFF0000FFFFFF80
310
007FFF0003FFFFFFFFF0003FFFFF0001F000E0003FFFFE0003FF0003FFF00000
310
3FFF0003FF80007FC0007FFFFC0007FE0007FFFFC0003FF8000001FFFE000000
310
7FFFFFF0001FFFFFFF80007FFFFF0000FFFF80007FFFFF0000FFFF0003FFFFFF
310
FFF0003FFFFF0003F000E0003FFFFC0003FE0003FFF000003FFF0003FF80007F
310
E0003FFFF80007FE0003FFFFC0007FF8000001FFFE0000007FFFFFF0001FFFFF
310
FF80003FFFFE0000FFFF80003FFFFE0000FFFF0003FFFFFFFFF0001FFFFE0003
310
F000F0001FFFF80003FE0003FFF000007FFF0001FF80007FE0003FFFF00007FE
310
0001FFFF80007FF8000001FFFE0000007FFFFFF0001FFFFFFFC0000FFFF80001
310
FFFFC0000FFFF80001FFFF0003FFFFFFFFF0001FFFFC0003F000F0000FFFF000
310
07FE0007FFF800007FFF0001FF80007FE0001FFFE00007FF0000FFFE00007FF8
310
000001FFFE0000007FFFFFF0001FFFFFFFC00003FFE00001FFFFC00003FFE000
310
01FFFF0003FFFFFFFFF8000FFFF80003F000F00003FFC00007FC0007FFF80000
310
7FFF8001FF80007FF00007FF80000FFF00007FF80000FFF8000001FFFE000000
310
7F80000000000001FFE000003E000003FFFFE000003E000003FFFF0003FFFFFF
310
FFF80003FFE00007F000F800000000000FFC0007FFF800007FFF8001FF80007F
310
F000000000000FFF000000000000FFF8000001FFFE0000007F80000000000001
310
FFF0000000000007FFFFF0000000000007FFFF0003FFFFFFFFFC00007E000007
310
F000F800000000000FFC0007FFF80000FFFF8000FF80007FF800000000001FFF
310
800000000001FFF8000001FFFE0000007F80000000000001FFF800000000000F
310
FFFFF800000000000FFFFF0003FFFFFFFFFC00000000000FF000FC0000000000
310
1FFC0007FFFC0000FFFF8000FF80007FF800000000003FFFC00000000001FFF8
310
000001FFFE0000007F80000000000001FFF800000000000FFFFFF80000000000
310
0FFFFF0003FFFFFFFFFE00000000001FF000FE00000000003FF8000FFFFC0000
310
FFFF8000FF80007FFC00000000003FFFC00000000003FFF8000001FFFE000000
310
7F80000000000001FFFC00000000001FFFFFFC00000000001FFFFF0003FFFFFF
310
FFFF00000000001FF000FF00000000003FF8000FFFFC0000FFFFC000FF80007F
310
FE00000000007FFFE00000000007FFF8000001FFFE0000007F80000000000001
310
FFFE00000000003FFFFFFE00000000003FFFFF0003FFFFFFFFFF80000000003F
310
F000FF80000000007FF8000FFFFC0001FFFFC0007F80007FFF0000000000FFFF
310
F0000000000FFFF800000000000000007F80000000000001FFFF8000000000FF
310
FFFFFF8000000000FFFFFF0003FFFFFFFFFFC0000000007FF000FFC000000000
310
FFF8000FFFFE0001FFFFC0007F80007FFF8000000001FFFFF8000000001FFFF8
310
00000000000000007F80000000000001FFFFC000000001FFFFFFFFC000000001
310
FFFFFF0003FFFFFFFFFFE000000000FFF000FFE000000003FFF0001FFFFE0001
310
FFFFC0007F80007FFFC000000007FFFFFE000000003FFFF80000000000000000
310
7F80000000000001FFFFE000000003FFFFFFFFE000000003FFFFFF0003FFFFFF
310
FFFFF000000003FFF000FFF80000000FFFF0001FFFFE0001FFFFE0007F80007F
310
FFF00000000FFFFFFF00000000FFFFF800000000000000007F80000000000001
310
FFFFF80000000FFFFFFFFFF80000000FFFFFFF0003FFFFFFFFFFFC0000000FFF
310
F000FFFE0000003FFFF0001FFFFE0003FFFFE0003F80007FFFFC0000003FFFFF
310
FFC0000003FFFFF800000000000000007F80000000000001FFFFFE0000003FFF
310
FFFFFFFE0000003FFFFFFF0003FFFFFFFFFFFF0000003FFFF000FFFF800000FF
310
FFF0001FFFFF0003FFFFE0003F80007FFFFF000001FFFFFFFFF800001FFFFFF8
310
00000000000000007F80000000000001FFFFFFC00001FFFFFFFFFFFFC00001FF
310
FFFFFF0003FFFFFFFFFFFFC00000FFFFF000FFFFF8000FFFFFFFFFFFFFFFFFFF
310
FFFFFFFFFFFFFFFFFFFFF0001FFFFFFFFFFF0000FFFFFFF80000000000000000
310
7FFFFFFFFFFFFFFFFFFFFFFC001FFFFFFFFFFFFFFC001FFFFFFFFFFFFFFFFFFF
310
FFFFFFFC001FFFFFF000FFFFFFFFFFFFFFFFFFFFFFFFFFFFFFFFFFFFFFFFFFFF
310
FFFFFFFFFFFFFFFFFFFFFFFFFFFFFFFFFFFFFFFFFFFFFFFFFFFFFFFFFFFFFFFF
310
FFFFFFFFFFFFFFFFFFFFFFFFFFFFFFFFFFFFFFFFFFFFFFFFFFFFFFFFFFFFFFFF
310
F000FFFFFFFFFFFFFFFFFFFFFFFFFFFFFFFFFFFFFFFFFFFFFFFFFFFFFFFFFFFF
310
FFFFFFFFFFFFFFFFFFFFFFFFFFFFFFFFFFFFFFFFFFFFFFFFFFFFFFFFFFFFFFFF
310
FFFFFFFFFFFFFFFFFFFFFFFFFFFFFFFFFFFFFFFFFFFFFFFFF000FFFFFFFFFFFF
310
FFFFFFFFFFFFFFFFFFFFFFFFFFFFFFFFFFFFFFFFFFFFFFFFFFFFFFFFFFFFFFFF
310
FFFFFFFFFFFFFFFFFFFFFFFFFFFFFFFFFFFFFFFFFFFFFFFFFFFFFFFFFFFFFFFF
310
FFFFFFFFFFFFFFFFFFFFFFFFFFFFFFFFF000FFFFFFFFFFFFFFFFFFFFFFFFFFFF
310
FFFFFFFFFFFFFFFFFFFFFFFFFFFFFFFFFFFFFFFFFFFFFFFFFFFFFFFFFFFFFFFF
310
FFFFFFFFFFFFFFFFFFFFFFFFFFFFFFFFFFFFFFFFFFFFFFFFFFFFFFFFFFFFFFFF
310
FFFFFFFFFFFFFFFFF000FFFFFFFFFFFFFFFFFFFFFFFFFFFFFFFFFFFFFFFFFFFF
310
FFFFFFFFFFFFFFFFFFFFFFFFFFFFFFFFFFFFFFFFFFFFFFFFFFFFFFFFFFFFFFFF
310
FFFFFFFFFFFFFFFFFFFFFFFFFFFFFFFFFFFFFFFFFFFFFFFFFFFFFFFFFFFFFFFF
310
F000FFFFFFFFFFFFFFFFFFFFFFFFFFFFFFFFFFFFFFFFFFFFFFFFFFFFFFFFFFFF
310
FFFFFFFFFFFFFFFFFFFFFFFFFFFFFFFFFFFFFFFFFFFFFFFFFFFFFFFFFFFFFFFF
310
FFFFFFFFFFFFFFFFFFFFFFFFFFFFFFFFFFFFFFFFFFFFFFFFF000FFFFFFFFFFFF
310
FFFFFFFFFFFFFFFFFFFFFFFFFFFFFFFFFFFFFFFFFFFFFFFFFFFFFFFFFFFFFFFF
310
FFFFFFFFFFFFFFFFFFFFFFFFFFFFFFFFFFFFFFFFFFFFFFFFFFFFFFFFFFFFFFFF
310
FFFFFFFFFFFFFFFFFFFFFFFFFFFFFFFFF000FFFFFFFFFFFFFFFFFFFFFFFFFFFF
310
FFFFFFFFFFFFFFFFFFFFFFFFFFFFFFFFFFFFFFFFFFFFFFFFFFFFFFFFFFFFFFFF
310
FFFFFFFFFFFFFFFFFFFFFFFFFFFFFFFFFFFFFFFFFFFFFFFFFFFFFFFFFFFFFFFF
310
FFFFFFFFFFFFFFFFF000FFFFFFFFFFFFFFFFFFFFFFFFFFFFFFFFFFFFFFFFFFFF
310
FFFFFFFFFFFFFFFFFFFFFFFFFFFFFFFFFFFFFFFFFFFFFFFFFFFFFFFFFFFFFFFF
310
FFFFFFFFFFFFFFFFFFFFFFFFFFFFFFFFFFFFFFFFFFFFFFFFFFFFFFFFFFFFFFFF
310
F000FFFFFFFFFFFFFFFFFFFFFFFFFFFFFFFFFFFFFFFFFFFFFFFFFFFFFFFFFFFF
310
FFFFFFFFFFFFFFFFFFFFFFFFFFFFFFFFFFFFFFFFFFFFFFFFFFFFFFFFFFFFFFFF
310
FFFFFFFFFFFFFFFFFFFFFFFFFFFFFFFFFFFFFFFFFFFFFFFFF000FFFFFFFFFFFF
310
FFFFFFFFFFFFFFFFFFFFFFFFFFFFFFFFFFFFFFFFFFFFFFFFFFFFFFFFFFFFFFFF
310
FFFFFFFFFFFFFFFFFFFFFFFFFFFFFFFFFFFFFFFFFFFFFFFFFFFFFFFFFFFFFFFF
310
FFFFFFFFFFFFFFFFFFFFFFFFFFFFFFFFF000FFFFFFFFFFFFFFFFFFFFFFFFFFFF
310
FFFFFFFFFFFFFFFFFFFFFFFFFFFFFFFFFFFFFFFFFFFFFFFFFFFFFFFFFFFFFFFF
310
FFFFFFFFFFFFFFFFFFFFFFFFFFFFFFFFFFFFFFFFFFFFFFFFFFFFFFFFFFFFFFFF
310
FFFFFFFFFFFFFFFFF000FFFFFFFFFFFFFFFFFFFFFFFFFFFFFFFFFFFFFFFFFFFF
310
FFFFFFFFFFFFFFFFFFFFFFFFFFFFFFFFFFFFFFFFFFFFFFFFFFFFFFFFFFFFFFFF
310
FFFFFFFFFFFFFFFFFFFFFFFFFFFFFFFFFFFFFFFFFFFFFFFFFFFFFFFFFFFFFFFF
310
F000FFFFFFFFFFFFFFFFFFFFFFFFFFFFFFFFFFFFFFFFFFFFFFFFFFFFFFFFFFFF
310
FFFFFFFFFFFFFFFFFFFFFFFFFFFFFFFFFFFFFFFFFFFFFFFFFFFFFFFFFFFFFFFF
310
FFFFFFFFFFFFFFFFFFFFFFFFFFFFFFFFFFFFFFFFFFFFFFFFF000FFFFFFFFFFFF
310
FFFFFFFFFFFFFFFFFFFFFFFFFFFFFFFFFFFFFFFFFFFFFFFFFFFFFFFFFFFFFFFF
310
FFFFFFFFFFFFFFFFFFFFFFFFFFFFFFFFFFFFFFFFFFFFFFFFFFFFFFFFFFFFFFFF
310
FFFFFFFFFFFFFFFFFFFFFFFFFFFFFFFFF000FFFFFFFFFFFFFFFFFFFFFFFFFFFF
310
FFFFFFFFFFFFFFFFFFFFFFFFFFFFFFFFFFFFFFFFFFFFFFFFFFFFFFFFFFFFFFFF
310
FFFFFFFFFFFFFFFFFFFFFFFFFFFFFFFFFFFFFFFFFFFFFFFFFFFFFFFFFFFFFFFF
310
FFFFFFFFFFFFFFFFF000FFFFFFFFFFFFFFFFFFFFFFFFFFFFFFFFFFFFFFFFFFFF
310
FFFFFFFFFFFFFFFFFFFFFFFFFFFFFFFFFFFFFFFFFFFFFFFFFFFFFFFFFFFFFFFF
310
FFFFFFFFFFFFFFFFFFFFFFFFFFFFFFFFFFFFFFFFFFFFFFFFFFFFFFFFFFFFFFFF
310
F000FFFFFFFFFFFFFFFFFFFFFFFFFFFFFFFFFFFFFFFFFFFFFFFFFFFFFFFFFFFF
310
FFFFFFFFFFFFFFFFFFFFFFFFFFFFFFFFFFFFFFFFFFFFFFFFFFFFFFFFFFFFFFFF
310
FFFFFFFFFFFFFFFFFFFFFFFFFFFFFFFFFFFFFFFFFFFFFFFFF000FFFFFFFFFFFF
310
FFFFFFFFFFFFFFFFFFFFFFFFFFFFFFFFFFFFFFFFFFFFFFFFFFFFFFFFFFFFFFFF
310
FFFFFFFFFFFFFFFFFFFFFFFFFFFFFFFFFFFFFFFFFFFFFFFFFFFFFFFFFFFFFFFF
310
FFFFFFFFFFFFFFFFFFFFFFFFFFFFFFFFF000FFFFFFFFFFFFFFFFFFFFFFFFFFFF
310
FFFFFFFFFFFFFFFFFFFFFFFFFFFFFFFFFFFFFFFFFFFFFFFFFFFFFFFFFFFFFFFF
310
FFFFFFFFFFFFFFFFFFFFFFFFFFFFFFFFFFFFFFFFFFFFFFFFFFFFFFFFFFFFFFFF
310
FFFFFFFFFFFFFFFFF000FFFFFFFFFFFFFFFFFFFFFFFFFFFFFFFFFFFFFFFFFFFF
310
FFFFFFFFFFFFFFFFFFFFFFFFFFFFFFFFFFFFFFFFFFFFFFFFFFFFFFFFFFFFFFFF
310
FFFFFFFFFFFFFFFFFFFFFFFFFFFFFFFFFFFFFFFFFFFFFFFFFFFFFFFFFFFFFFFF
310
F000FFFFFFFFFFFFFFFFFFFFFFFFFFFFFFFFFFFFFFFFFFFFFFFFFFFFFFFFFFFF
310
FFFFFFFFFFFFFFFFFFFFFFFFFFFFFFFFFFFFFFFFFFFFFFFFFFFFFFFFFFFFFFFF
310
FFFFFFFFFFFFFFFFFFFFFFFFFFFFFFFFFFFFFFFFFFFFFFFFF000FFFFFFFFFFFF
310
FFFFFFFFFFFFFFFFFFFFFFFFFFFFFFFFFFFFFFFFFFFFFFFFFFFFFFFFFFFFFFFF
310
FFFFFFFFFFFFFFFFFFFFFFFFFFFFFFFFFFFFFFFFFFFFFFFFFFFFFFFFFFFFFFFF
310
FFFFFFFFFFFFFFFFFFFFFFFFFFFFFFFFF0000000000000000000000000000000
310
0000000001000000010000000100000001000000010000000000000001000000
310
0100000001000000010000000100000001000000010000000000000001000000
310
0100000001000000010000000100000001000000010000000100000001000000
310
0100000001000000010000000100000001000000010000000100000001000000
310
0100000001000000010000000100000001000000010000000100000001000000
310
0100000001000000010000000100000001000000010000000000000001000000
310
0100000001000000010000000100000001000000010000000100000001000000
310
0000000001000000010000000100000001000000010000000100000001000000
310
0000000000000000010000000100000001000000010000000100000001000000
310
010000000100000001000000010000000100000000000000AC00160300000007
310
1000426A00000000F011266A0000000001000000010000000100000001000000
310
0100000001000000010000000100000001000000010000000100000001000000
310
0100000001000000010000000100000001000000000000000100000000000000
310
0100000001000000010000000100000001000000010000000100000001000000
310
0100000001000000010000000000000001000000000000000100000001000000
  1
OLE
  0
ENDSEC
  0
SECTION
  2
OBJECTS
  0
DICTIONARY
  5
C
330
0
100
AcDbDictionary
281
     1
  3
ACAD_GROUP
350
D
  3
ACAD_LAYOUT
350
1A
  3
ACAD_MLEADERSTYLE
350
209
  3
ACAD_MLINESTYLE
350
17
  3
ACAD_PLOTSETTINGS
350
19
  3
ACAD_PLOTSTYLENAME
350
E
  3
ACAD_TABLESTYLE
350
208
  3
ACAD_VISUALSTYLE
350
2A
  3
AcDbVariableDictionary
350
20A
  0
DICTIONARY
  5
D
102
{ACAD_REACTORS
330
C
102
}
330
C
100
AcDbDictionary
281
     1
  0
DICTIONARY
  5
1A
102
{ACAD_REACTORS
330
C
102
}
330
C
100
AcDbDictionary
281
     1
  3
Layout1
350
1E
  3
Layout2
350
26
  3
Model
350
22
  0
DICTIONARY
  5
209
102
{ACAD_REACTORS
330
C
102
}
330
C
100
AcDbDictionary
281
     1
  0
DICTIONARY
  5
17
102
{ACAD_REACTORS
330
C
102
}
330
C
100
AcDbDictionary
281
     1
  3
Standard
350
18
  0
DICTIONARY
  5
19
102
{ACAD_REACTORS
330
C
102
}
330
C
100
AcDbDictionary
281
     1
  0
ACDBDICTIONARYWDFLT
  5
E
102
{ACAD_REACTORS
330
C
102
}
330
C
100
AcDbDictionary
281
     1
  3
Normal
350
F
100
AcDbDictionaryWithDefault
340
F
  0
DICTIONARY
  5
208
102
{ACAD_REACTORS
330
C
102
}
330
C
100
AcDbDictionary
281
     1
  0
DICTIONARY
  5
2A
102
{ACAD_REACTORS
330
C
102
}
330
C
100
AcDbDictionary
281
     1
  3
2dWireframe
350
2F
  3
3D Hidden
350
31
  3
3dWireframe
350
30
  3
Basic
350
32
  3
Brighten
350
36
  3
ColorChange
350
3A
  3
Conceptual
350
34
  3
Dim
350
35
  3
Facepattern
350
39
  3
Flat
350
2B
  3
FlatWithEdges
350
2C
  3
Gouraud
350
2D
  3
GouraudWithEdges
350
2E
  3
Linepattern
350
38
  3
Realistic
350
33
  3
Thicken
350
37
  0
DICTIONARY
  5
20A
102
{ACAD_REACTORS
330
C
102
}
330
C
100
AcDbDictionary
281
     1
  3
PSOLHEIGHT
350
20C
  3
PSOLWIDTH
350
20B
  0
LAYOUT
  5
1E
102
{ACAD_REACTORS
330
1A
102
}
330
1A
100
AcDbPlotSettings
  1

  2
none_device
  4

  6

 40
0.0
 41
0.0
 42
0.0
 43
0.0
 44
0.0
 45
0.0
 46
0.0
 47
0.0
 48
0.0
 49
0.0
140
0.0
141
0.0
142
1.0
143
1.0
 70
   688
 72
     0
 73
     0
 74
     5
  7

 75
    16
147
1.0
148
0.0
149
0.0
100
AcDbLayout
  1
Layout1
 70
     1
 71
     1
 10
0.0
 20
0.0
 11
420.0
 21
297.0
 12
0.0
 22
0.0
 32
0.0
 14
1.0000000000E+20
 24
1.0000000000E+20
 34
1.0000000000E+20
 15
-1.0000000000E+20
 25
-1.0000000000E+20
 35
-1.0000000000E+20
146
0.0
 13
0.0
 23
0.0
 33
0.0
 16
1.0
 26
0.0
 36
0.0
 17
0.0
 27
1.0
 37
0.0
 76
     0
330
1B
  0
LAYOUT
  5
26
102
{ACAD_REACTORS
330
1A
102
}
330
1A
100
AcDbPlotSettings
  1

  2
none_device
  4

  6

 40
0.0
 41
0.0
 42
0.0
 43
0.0
 44
0.0
 45
0.0
 46
0.0
 47
0.0
 48
0.0
 49
0.0
140
0.0
141
0.0
142
1.0
143
1.0
 70
   688
 72
     0
 73
     0
 74
     5
  7

 75
    16
147
1.0
148
0.0
149
0.0
100
AcDbLayout
  1
Layout2
 70
     1
 71
     2
 10
0.0
 20
0.0
 11
0.0
 21
0.0
 12
0.0
 22
0.0
 32
0.0
 14
0.0
 24
0.0
 34
0.0
 15
0.0
 25
0.0
 35
0.0
146
0.0
 13
0.0
 23
0.0
 33
0.0
 16
1.0
 26
0.0
 36
0.0
 17
0.0
 27
1.0
 37
0.0
 76
     0
330
23
  0
LAYOUT
  5
22
102
{ACAD_REACTORS
330
1A
102
}
330
1A
100
AcDbPlotSettings
  1

  2
none_device
  4

  6

 40
0.0
 41
0.0
 42
0.0
 43
0.0
 44
0.0
 45
0.0
 46
0.0
 47
0.0
 48
0.0
 49
0.0
140
0.0
141
0.0
142
1.0
143
1.0
 70
  1712
 72
     0
 73
     0
 74
     0
  7

 75
     0
147
1.0
148
0.0
149
0.0
100
AcDbLayout
  1
Model
 70
     1
 71
     0
 10
0.0
 20
0.0
 11
297.0
 21
210.0
 12
0.0
 22
0.0
 32
0.0
 14
0.0
 24
0.0
 34
0.0
 15
297.0
 25
210.0
 35
0.0
146
0.0
 13
0.0
 23
0.0
 33
0.0
 16
1.0
 26
0.0
 36
0.0
 17
0.0
 27
1.0
 37
0.0
 76
     0
330
1F
331
29
  0
MLINESTYLE
  5
18
102
{ACAD_REACTORS
330
17
102
}
330
17
100
AcDbMlineStyle
  2
Standard
 70
     0
  3

 62
   256
 51
90.0
 52
90.0
 71
     2
 49
0.5
 62
   256
  6
BYLAYER
 49
-0.5
 62
   256
  6
BYLAYER
  0
ACDBPLACEHOLDER
  5
F
102
{ACAD_REACTORS
330
E
102
}
330
E
  0
VISUALSTYLE
  5
2F
102
{ACAD_REACTORS
330
2A
102
}
330
2A
100
AcDbVisualStyle
  2
2dWireframe
 70
     4
 71
     0
 72
     2
 73
     0
 90
        0
 40
-0.6
 41
-30.0
 62
     5
 63
     7
 74
     1
 91
        4
 64
     7
 65
   257
 75
     1
175
     1
 42
1.0
 92
        0
 66
   257
 43
1.0
 76
     1
 77
     6
 78
     2
 67
     7
 79
     5
170
     0
171
     0
290
     0
174
     0
 93
        1
 44
0.0
173
     0
291
     0
 45
0.0
1001
ACAD
1000
AcDbSavedByObjectVersion
1070
     0
  0
VISUALSTYLE
  5
31
102
{ACAD_REACTORS
330
2A
102
}
330
2A
100
AcDbVisualStyle
  2
3D Hidden
 70
     6
 71
     1
 72
     2
 73
     2
 90
        0
 40
-0.6
 41
-30.0
 62
     5
 63
     7
 74
     2
 91
        2
 64
     7
 65
   257
 75
     2
175
     1
 42
40.0
 92
        0
 66
   257
 43
1.0
 76
     1
 77
     6
 78
     2
 67
     7
 79
     3
170
     0
171
     0
290
     0
174
     0
 93
        1
 44
0.0
173
     0
291
     0
 45
0.0
1001
ACAD
1000
AcDbSavedByObjectVersion
1070
     0
  0
VISUALSTYLE
  5
30
102
{ACAD_REACTORS
330
2A
102
}
330
2A
100
AcDbVisualStyle
  2
3dWireframe
 70
     5
 71
     0
 72
     2
 73
     0
 90
        0
 40
-0.6
 41
-30.0
 62
     5
 63
     7
 74
     1
 91
        4
 64
     7
 65
   257
 75
     1
175
     1
 42
1.0
 92
        0
 66
   257
 43
1.0
 76
     1
 77
     6
 78
     2
 67
     7
 79
     5
170
     0
171
     0
290
     0
174
     0
 93
        1
 44
0.0
173
     0
291
     0
 45
0.0
1001
ACAD
1000
AcDbSavedByObjectVersion
1070
     0
  0
VISUALSTYLE
  5
32
102
{ACAD_REACTORS
330
2A
102
}
330
2A
100
AcDbVisualStyle
  2
Basic
 70
     7
 71
     1
 72
     0
 73
     1
 90
        0
 40
-0.6
 41
-30.0
 62
     5
 63
     7
 74
     0
 91
        4
 64
     7
 65
   257
 75
     1
175
     1
 42
1.0
 92
        8
 66
     7
 43
1.0
 76
     1
 77
     6
 78
     2
 67
     7
 79
     5
170
     0
171
     0
290
     0
174
     0
 93
        1
 44
0.0
173
     0
291
     1
 45
0.0
1001
ACAD
1000
AcDbSavedByObjectVersion
1070
     0
  0
VISUALSTYLE
  5
36
102
{ACAD_REACTORS
330
2A
102
}
330
2A
100
AcDbVisualStyle
  2
Brighten
 70
    12
 71
     2
 72
     2
 73
     0
 90
        0
 40
-0.6
 41
-30.0
 62
     5
 63
     7
 74
     1
 91
        4
 64
     7
 65
   257
 75
     1
175
     1
 42
1.0
 92
        8
 66
     7
 43
1.0
 76
     1
 77
     6
 78
     2
 67
     7
 79
     5
170
     0
171
     0
290
     0
174
     0
 93
        1
 44
50.0
173
     0
291
     1
 45
0.0
1001
ACAD
1000
AcDbSavedByObjectVersion
1070
     0
  0
VISUALSTYLE
  5
3A
102
{ACAD_REACTORS
330
2A
102
}
330
2A
100
AcDbVisualStyle
  2
ColorChange
 70
    16
 71
     2
 72
     2
 73
     3
 90
        0
 40
-0.6
 41
-30.0
 62
     5
 63
     8
 74
     1
 91
        4
 64
     7
 65
   257
 75
     1
175
     1
 42
1.0
 92
        8
 66
     8
 43
1.0
 76
     1
 77
     6
 78
     2
 67
     7
 79
     5
170
     0
171
     0
290
     0
174
     0
 93
        1
 44
0.0
173
     0
291
     1
 45
0.0
1001
ACAD
1000
AcDbSavedByObjectVersion
1070
     0
  0
VISUALSTYLE
  5
34
102
{ACAD_REACTORS
330
2A
102
}
330
2A
100
AcDbVisualStyle
  2
Conceptual
 70
     9
 71
     3
 72
     2
 73
     0
 90
        0
 40
-0.6
 41
-30.0
 62
     5
 63
     7
 74
     2
 91
        2
 64
     7
 65
   257
 75
     1
175
     1
 42
40.0
 92
        8
 66
     7
 43
1.0
 76
     1
 77
     6
 78
     2
 67
     7
 79
     3
170
     0
171
     0
290
     0
174
     0
 93
        1
 44
0.0
173
     0
291
     0
 45
0.0
1001
ACAD
1000
AcDbSavedByObjectVersion
1070
     0
  0
VISUALSTYLE
  5
35
102
{ACAD_REACTORS
330
2A
102
}
330
2A
100
AcDbVisualStyle
  2
Dim
 70
    11
 71
     2
 72
     2
 73
     0
 90
        0
 40
-0.6
 41
-30.0
 62
     5
 63
     7
 74
     1
 91
        4
 64
     7
 65
   257
 75
     1
175
     1
 42
1.0
 92
        8
 66
     7
 43
1.0
 76
     1
 77
     6
 78
     2
 67
     7
 79
     5
170
     0
171
     0
290
     0
174
     0
 93
        1
 44
-50.0
173
     0
291
     1
 45
0.0
1001
ACAD
1000
AcDbSavedByObjectVersion
1070
     0
  0
VISUALSTYLE
  5
39
102
{ACAD_REACTORS
330
2A
102
}
330
2A
100
AcDbVisualStyle
  2
Facepattern
 70
    15
 71
     2
 72
     2
 73
     0
 90
        0
 40
-0.6
 41
-30.0
 62
     5
 63
     7
 74
     1
 91
        4
 64
     7
 65
   257
 75
     1
175
     1
 42
1.0
 92
        8
 66
     7
 43
1.0
 76
     1
 77
     6
 78
     2
 67
     7
 79
     5
170
     0
171
     0
290
     0
174
     0
 93
        1
 44
0.0
173
     0
291
     1
 45
0.0
1001
ACAD
1000
AcDbSavedByObjectVersion
1070
     0
  0
VISUALSTYLE
  5
2B
102
{ACAD_REACTORS
330
2A
102
}
330
2A
100
AcDbVisualStyle
  2
Flat
 70
     0
 71
     2
 72
     1
 73
     1
 90
        2
 40
-0.6
 41
30.0
 62
     5
 63
     7
 74
     0
 91
        4
 64
     7
 65
   257
 75
     1
175
     1
 42
1.0
 92
        8
 66
     7
 43
1.0
 76
     1
 77
     6
 78
     2
 67
     7
 79
     5
170
     0
171
     0
290
     0
174
     0
 93
       13
 44
0.0
173
     0
291
     1
 45
0.0
1001
ACAD
1000
AcDbSavedByObjectVersion
1070
     0
  0
VISUALSTYLE
  5
2C
102
{ACAD_REACTORS
330
2A
102
}
330
2A
100
AcDbVisualStyle
  2
FlatWithEdges
 70
     1
 71
     2
 72
     1
 73
     1
 90
        2
 40
-0.6
 41
30.0
 62
     5
 63
     7
 74
     1
 91
        4
 64
     7
 65
   257
 75
     1
175
     1
 42
1.0
 92
        0
 66
   257
 43
1.0
 76
     1
 77
     6
 78
     2
 67
     7
 79
     5
170
     0
171
     0
290
     0
174
     0
 93
       13
 44
0.0
173
     0
291
     1
 45
0.0
1001
ACAD
1000
AcDbSavedByObjectVersion
1070
     0
  0
VISUALSTYLE
  5
2D
102
{ACAD_REACTORS
330
2A
102
}
330
2A
100
AcDbVisualStyle
  2
Gouraud
 70
     2
 71
     2
 72
     2
 73
     1
 90
        2
 40
-0.6
 41
30.0
 62
     5
 63
     7
 74
     0
 91
        4
 64
     7
 65
   257
 75
     1
175
     1
 42
1.0
 92
        0
 66
     7
 43
1.0
 76
     1
 77
     6
 78
     2
 67
     7
 79
     5
170
     0
171
     0
290
     0
174
     0
 93
       13
 44
0.0
173
     0
291
     1
 45
0.0
1001
ACAD
1000
AcDbSavedByObjectVersion
1070
     0
  0
VISUALSTYLE
  5
2E
102
{ACAD_REACTORS
330
2A
102
}
330
2A
100
AcDbVisualStyle
  2
GouraudWithEdges
 70
     3
 71
     2
 72
     2
 73
     1
 90
        2
 40
-0.6
 41
30.0
 62
     5
 63
     7
 74
     1
 91
        4
 64
     7
 65
   257
 75
     1
175
     1
 42
1.0
 92
        0
 66
   257
 43
1.0
 76
     1
 77
     6
 78
     2
 67
     7
 79
     5
170
     0
171
     0
290
     0
174
     0
 93
       13
 44
0.0
173
     0
291
     1
 45
0.0
1001
ACAD
1000
AcDbSavedByObjectVersion
1070
     0
  0
VISUALSTYLE
  5
38
102
{ACAD_REACTORS
330
2A
102
}
330
2A
100
AcDbVisualStyle
  2
Linepattern
 70
    14
 71
     2
 72
     2
 73
     0
 90
        0
 40
-0.6
 41
-30.0
 62
     5
 63
     7
 74
     1
 91
        4
 64
     7
 65
   257
 75
     7
175
     7
 42
1.0
 92
        8
 66
     7
 43
1.0
 76
     1
 77
     6
 78
     2
 67
     7
 79
     5
170
     0
171
     0
290
     0
174
     0
 93
        1
 44
0.0
173
     0
291
     1
 45
0.0
1001
ACAD
1000
AcDbSavedByObjectVersion
1070
     0
  0
VISUALSTYLE
  5
33
102
{ACAD_REACTORS
330
2A
102
}
330
2A
100
AcDbVisualStyle
  2
Realistic
 70
     8
 71
     2
 72
     2
 73
     0
 90
        0
 40
-0.6
 41
-30.0
 62
     5
 63
     7
 74
     1
 91
        0
 64
     7
 65
   257
 75
     1
175
     1
 42
1.0
 92
        8
 66
     8
 43
1.0
 76
     1
 77
     6
 78
     2
 67
     7
 79
     5
170
     0
171
     0
290
     0
174
     0
 93
       13
 44
0.0
173
     0
291
     0
 45
0.0
1001
ACAD
1000
AcDbSavedByObjectVersion
1070
     0
  0
VISUALSTYLE
  5
37
102
{ACAD_REACTORS
330
2A
102
}
330
2A
100
AcDbVisualStyle
  2
Thicken
 70
    13
 71
     2
 72
     2
 73
     0
 90
        0
 40
-0.6
 41
-30.0
 62
     5
 63
     7
 74
     1
 91
        4
 64
     7
 65
   257
 75
     1
175
     1
 42
1.0
 92
       12
 66
     7
 43
1.0
 76
     1
 77
     6
 78
     2
 67
     7
 79
     5
170
     0
171
     0
290
     0
174
     0
 93
        1
 44
0.0
173
     0
291
     1
 45
0.0
1001
ACAD
1000
AcDbSavedByObjectVersion
1070
     0
  0
DICTIONARYVAR
  5
20C
102
{ACAD_REACTORS
330
20A
102
}
330
20A
100
DictionaryVariables
280
     0
  1
80.000000
  0
DICTIONARYVAR
  5
20B
102
{ACAD_REACTORS
330
20A
102
}
330
20A
100
DictionaryVariables
280
     0
  1
5.000000
  0
ENDSEC
  0
EOF
