  0
SECTION
  2
HEADER
  9
$ACADVER
  1
AC1015
  9
$ACADMAINTVER
 70
     6
  9
$DWGCODEPAGE
  3
ANSI_1252
  9
$INSBASE
 10
0.0
 20
0.0
 30
0.0
  9
$EXTMIN
 10
0.0
 20
0.0
 30
0.0
  9
$EXTMAX
 10
297.0
 20
210.0
 30
0.0
  9
$LIMMIN
 10
0.0
 20
0.0
  9
$LIMMAX
 10
297.0
 20
210.0
  9
$ORTHOMODE
 70
     0
  9
$REGENMODE
 70
     1
  9
$FILLMODE
 70
     1
  9
$QTEXTMODE
 70
     0
  9
$MIRRTEXT
 70
     1
  9
$LTSCALE
 40
1.0
  9
$ATTMODE
 70
     1
  9
$TEXTSIZE
 40
2.0
  9
$TRACEWID
 40
1.0
  9
$TEXTSTYLE
  7
Standard
  9
$CLAYER
  8
0
  9
$CELTYPE
  6
ByLayer
  9
$CECOLOR
 62
   256
  9
$CELTSCALE
 40
1.0
  9
$DISPSILH
 70
     0
  9
$DIMSCALE
 40
1.0
  9
$DIMASZ
 40
3.0
  9
$DIMEXO
 40
0.0
  9
$DIMDLI
 40
3.75
  9
$DIMRND
 40
0.0
  9
$DIMDLE
 40
0.0
  9
$DIMEXE
 40
1.0
  9
$DIMTP
 40
0.0
  9
$DIMTM
 40
0.0
  9
$DIMTXT
 40
2.0
  9
$DIMCEN
 40
2.5
  9
$DIMTSZ
 40
0.0
  9
$DIMTOL
 70
     0
  9
$DIMLIM
 70
     0
  9
$DIMTIH
 70
     1
  9
$DIMTOH
 70
     1
  9
$DIMSE1
 70
     0
  9
$DIMSE2
 70
     0
  9
$DIMTAD
 70
     1
  9
$DIMZIN
 70
     0
  9
$DIMBLK
  1

  9
$DIMASO
 70
     1
  9
$DIMSHO
 70
     1
  9
$DIMPOST
  1

  9
$DIMAPOST
  1

  9
$DIMALT
 70
     0
  9
$DIMALTD
 70
     3
  9
$DIMALTF
 40
0.0393700787
  9
$DIMLFAC
 40
1.0
  9
$DIMTOFL
 70
     1
  9
$DIMTVP
 40
0.0
  9
$DIMTIX
 70
     0
  9
$DIMSOXD
 70
     0
  9
$DIMSAH
 70
     0
  9
$DIMBLK1
  1

  9
$DIMBLK2
  1

  9
$DIMSTYLE
  2
ISO-25
  9
$DIMCLRD
 70
     0
  9
$DIMCLRE
 70
     0
  9
$DIMCLRT
 70
     0
  9
$DIMTFAC
 40
1.0
  9
$DIMGAP
 40
1.524
  9
$DIMJUST
 70
     0
  9
$DIMSD1
 70
     0
  9
$DIMSD2
 70
     0
  9
$DIMTOLJ
 70
     0
  9
$DIMTZIN
 70
     0
  9
$DIMALTZ
 70
     0
  9
$DIMALTTZ
 70
     0
  9
$DIMUPT
 70
     0
  9
$DIMDEC
 70
     2
  9
$DIMTDEC
 70
     3
  9
$DIMALTU
 70
     2
  9
$DIMALTTD
 70
     3
  9
$DIMTXSTY
  7
Standard
  9
$DIMAUNIT
 70
     0
  9
$DIMADEC
 70
     2
  9
$DIMALTRND
 40
0.0
  9
$DIMAZIN
 70
     0
  9
$DIMDSEP
 70
    44
  9
$DIMATFIT
 70
     3
  9
$DIMFRAC
 70
     0
  9
$DIMLDRBLK
  1

  9
$DIMLUNIT
 70
     2
  9
$DIMLWD
 70
    -2
  9
$DIMLWE
 70
    -2
  9
$DIMTMOVE
 70
     0
  9
$LUNITS
 70
     2
  9
$LUPREC
 70
     2
  9
$SKETCHINC
 40
1.0
  9
$FILLETRAD
 40
10.0
  9
$AUNITS
 70
     0
  9
$AUPREC
 70
     2
  9
$MENU
  1
.
  9
$ELEVATION
 40
0.0
  9
$PELEVATION
 40
0.0
  9
$THICKNESS
 40
0.0
  9
$LIMCHECK
 70
     0
  9
$CHAMFERA
 40
10.0
  9
$CHAMFERB
 40
10.0
  9
$CHAMFERC
 40
20.0
  9
$CHAMFERD
 40
0.0
  9
$SKPOLY
 70
     0
  9
$TDCREATE
 40
2455673.401074803
  9
$TDUCREATE
 40
2455673.31774147
  9
$TDUPDATE
 40
2455673.401074815
  9
$TDUUPDATE
 40
2455673.317741482
  9
$TDINDWG
 40
0.0000000116
  9
$TDUSRTIMER
 40
0.0000000116
  9
$USRTIMER
 70
     1
  9
$ANGBASE
 50
0.0
  9
$ANGDIR
 70
     0
  9
$PDMODE
 70
     0
  9
$PDSIZE
 40
-1.0
  9
$PLINEWID
 40
0.0
  9
$SPLFRAME
 70
     0
  9
$SPLINETYPE
 70
     6
  9
$SPLINESEGS
 70
     8
  9
$HANDSEED
  5
210
  9
$SURFTAB1
 70
     6
  9
$SURFTAB2
 70
     6
  9
$SURFTYPE
 70
     6
  9
$SURFU
 70
     6
  9
$SURFV
 70
     6
  9
$UCSBASE
  2

  9
$UCSNAME
  2

  9
$UCSORG
 10
0.0
 20
0.0
 30
0.0
  9
$UCSXDIR
 10
1.0
 20
0.0
 30
0.0
  9
$UCSYDIR
 10
0.0
 20
1.0
 30
0.0
  9
$UCSORTHOREF
  2

  9
$UCSORTHOVIEW
 70
     0
  9
$UCSORGTOP
 10
0.0
 20
0.0
 30
0.0
  9
$UCSORGBOTTOM
 10
0.0
 20
0.0
 30
0.0
  9
$UCSORGLEFT
 10
0.0
 20
0.0
 30
0.0
  9
$UCSORGRIGHT
 10
0.0
 20
0.0
 30
0.0
  9
$UCSORGFRONT
 10
0.0
 20
0.0
 30
0.0
  9
$UCSORGBACK
 10
0.0
 20
0.0
 30
0.0
  9
$PUCSBASE
  2

  9
$PUCSNAME
  2

  9
$PUCSORG
 10
0.0
 20
0.0
 30
0.0
  9
$PUCSXDIR
 10
1.0
 20
0.0
 30
0.0
  9
$PUCSYDIR
 10
0.0
 20
1.0
 30
0.0
  9
$PUCSORTHOREF
  2

  9
$PUCSORTHOVIEW
 70
     0
  9
$PUCSORGTOP
 10
0.0
 20
0.0
 30
0.0
  9
$PUCSORGBOTTOM
 10
0.0
 20
0.0
 30
0.0
  9
$PUCSORGLEFT
 10
0.0
 20
0.0
 30
0.0
  9
$PUCSORGRIGHT
 10
0.0
 20
0.0
 30
0.0
  9
$PUCSORGFRONT
 10
0.0
 20
0.0
 30
0.0
  9
$PUCSORGBACK
 10
0.0
 20
0.0
 30
0.0
  9
$USERI1
 70
     0
  9
$USERI2
 70
     0
  9
$USERI3
 70
     0
  9
$USERI4
 70
     0
  9
$USERI5
 70
     0
  9
$USERR1
 40
0.0
  9
$USERR2
 40
0.0
  9
$USERR3
 40
0.0
  9
$USERR4
 40
0.0
  9
$USERR5
 40
0.0
  9
$WORLDVIEW
 70
     1
  9
$SHADEDGE
 70
     3
  9
$SHADEDIF
 70
    70
  9
$TILEMODE
 70
     1
  9
$MAXACTVP
 70
    64
  9
$PINSBASE
 10
0.0
 20
0.0
 30
0.0
  9
$PLIMCHECK
 70
     0
  9
$PEXTMIN
 10
1.0000000000E+20
 20
1.0000000000E+20
 30
1.0000000000E+20
  9
$PEXTMAX
 10
-1.0000000000E+20
 20
-1.0000000000E+20
 30
-1.0000000000E+20
  9
$PLIMMIN
 10
0.0
 20
0.0
  9
$PLIMMAX
 10
420.0
 20
297.0
  9
$UNITMODE
 70
     0
  9
$VISRETAIN
 70
     1
  9
$PLINEGEN
 70
     0
  9
$PSLTSCALE
 70
     1
  9
$TREEDEPTH
 70
  3020
  9
$CMLSTYLE
  2
Standard
  9
$CMLJUST
 70
     0
  9
$CMLSCALE
 40
20.0
  9
$PROXYGRAPHICS
 70
     1
  9
$MEASUREMENT
 70
     1
  9
$CELWEIGHT
370
    -1
  9
$ENDCAPS
280
     0
  9
$JOINSTYLE
280
     0
  9
$LWDISPLAY
290
     1
  9
$INSUNITS
 70
     4
  9
$HYPERLINKBASE
  1

  9
$STYLESHEET
  1

  9
$XEDIT
290
     1
  9
$CEPSNTYPE
380
     0
  9
$PSTYLEMODE
290
     1
  9
$FINGERPRINTGUID
  2
{25985060-5831-44D5-96C9-9E70CA4D700B}
  9
$VERSIONGUID
  2
{FAEB1C32-E019-11D5-929B-00C0DF256EC4}
  9
$EXTNAMES
290
     1
  9
$PSVPSCALE
 40
0.0
  9
$OLESTARTUP
290
     0
  0
ENDSEC
  0
SECTION
  2
CLASSES
  0
CLASS
  1
ACDBDICTIONARYWDFLT
  2
AcDbDictionaryWithDefault
  3
ObjectDBX Classes
 90
        0
280
     0
281
     0
  0
CLASS
  1
VISUALSTYLE
  2
AcDbVisualStyle
  3
ObjectDBX Classes
 90
     4095
280
     0
281
     0
  0
CLASS
  1
DICTIONARYVAR
  2
AcDbDictionaryVar
  3
ObjectDBX Classes
 90
        0
280
     0
281
     0
  0
CLASS
  1
ACDBPLACEHOLDER
  2
AcDbPlaceHolder
  3
ObjectDBX Classes
 90
        0
280
     0
281
     0
  0
CLASS
  1
LAYOUT
  2
AcDbLayout
  3
ObjectDBX Classes
 90
        0
280
     0
281
     0
  0
ENDSEC
  0
SECTION
  2
TABLES
  0
TABLE
  2
VPORT
  5
8
330
0
100
AcDbSymbolTable
 70
     1
  0
VPORT
  5
29
330
8
100
AcDbSymbolTableRecord
100
AcDbViewportTableRecord
  2
*Active
 70
     0
 10
0.0
 20
0.0
 11
1.0
 21
1.0
 12
148.5
 22
105.0
 13
0.0
 23
0.0
 14
10.0
 24
10.0
 15
10.0
 25
10.0
 16
0.0
 26
0.0
 36
1.0
 17
0.0
 27
0.0
 37
0.0
 40
210.0
 41
1.4142857143
 42
50.0
 43
0.0
 44
0.0
 50
0.0
 51
0.0
 71
     0
 72
  2000
 73
     1
 74
     3
 75
     0
 76
     0
 77
     0
 78
     0
281
     0
 65
     1
110
0.0
120
0.0
130
0.0
111
1.0
121
0.0
131
0.0
112
0.0
122
1.0
132
0.0
 79
     0
146
0.0
  0
ENDTAB
  0
TABLE
  2
LTYPE
  5
5
330
0
100
AcDbSymbolTable
 70
     6
  0
LTYPE
  5
14
330
5
100
AcDbSymbolTableRecord
100
AcDbLinetypeTableRecord
  2
ByBlock
 70
     0
  3

 72
    65
 73
     0
 40
0.0
  0
LTYPE
  5
15
330
5
100
AcDbSymbolTableRecord
100
AcDbLinetypeTableRecord
  2
ByLayer
 70
     0
  3

 72
    65
 73
     0
 40
0.0
  0
LTYPE
  5
16
330
5
100
AcDbSymbolTableRecord
100
AcDbLinetypeTableRecord
  2
Continuous
 70
     0
  3
Solid line
 72
    65
 73
     0
 40
0.0
  0
LTYPE
  5
3B
330
5
100
AcDbSymbolTableRecord
100
AcDbLinetypeTableRecord
  2
HIDDEN
 70
     0
  3
Hidden __ __ __ __ __ __ __ __ __ __ __ __ __ __
 72
    65
 73
     2
 40
1.905
 49
1.27
 74
     0
 49
-0.635
 74
     0
  0
LTYPE
  5
3C
330
5
100
AcDbSymbolTableRecord
100
AcDbLinetypeTableRecord
  2
PHANTOM
 70
     0
  3
Phantom ______  __  __  ______  __  __  ______
 72
    65
 73
     6
 40
12.7
 49
6.35
 74
     0
 49
-1.27
 74
     0
 49
1.27
 74
     0
 49
-1.27
 74
     0
 49
1.27
 74
     0
 49
-1.27
 74
     0
  0
LTYPE
  5
3D
330
5
100
AcDbSymbolTableRecord
100
AcDbLinetypeTableRecord
  2
CENTER
 70
     0
  3
Center ____ _ ____ _ ____ _ ____ _ ____ _ ____
 72
    65
 73
     4
 40
10.16
 49
6.35
 74
     0
 49
-1.27
 74
     0
 49
1.27
 74
     0
 49
-1.27
 74
     0
  0
LTYPE
  5
3E
330
5
100
AcDbSymbolTableRecord
100
AcDbLinetypeTableRecord
  2
CENTERX2
 70
     0
  3
Center (2x) ________  __  ________  __  _____
 72
    65
 73
     4
 40
20.32
 49
12.7
 74
     0
 49
-2.54
 74
     0
 49
2.54
 74
     0
 49
-2.54
 74
     0
  0
LTYPE
  5
3F
330
5
100
AcDbSymbolTableRecord
100
AcDbLinetypeTableRecord
  2
DOT2
 70
     0
  3
Dot (.5x) ........................................
 72
    65
 73
     2
 40
0.635
 49
0.0
 74
     0
 49
-0.635
 74
     0
  0
ENDTAB
  0
TABLE
  2
LAYER
  5
2
330
0
100
AcDbSymbolTable
 70
     5
  0
LAYER
  5
10
330
2
100
AcDbSymbolTableRecord
100
AcDbLayerTableRecord
  2
0
 70
     0
 62
     7
  6
Continuous
370
    -3
390
F
  0
LAYER
  5
40
330
2
100
AcDbSymbolTableRecord
100
AcDbLayerTableRecord
  2
FORMAT
 70
     0
 62
     7
  6
Continuous
370
    -3
390
F
  0
LAYER
  5
41
330
2
100
AcDbSymbolTableRecord
100
AcDbLayerTableRecord
  2
VERMASSUNG
 70
     0
 62
     7
  6
Continuous
370
    -3
390
F
  0
LAYER
  5
42
330
2
100
AcDbSymbolTableRecord
100
AcDbLayerTableRecord
  2
KOPF_DÜNN
 70
     0
 62
     7
  6
Continuous
370
    -3
390
F
  0
LAYER
  5
43
330
2
100
AcDbSymbolTableRecord
100
AcDbLayerTableRecord
  2
KOPF_DICK
 70
     0
 62
     7
  6
Continuous
370
    15
390
F
  0
ENDTAB
  0
TABLE
  2
STYLE
  5
3
330
0
100
AcDbSymbolTable
 70
     3
  0
STYLE
  5
11
330
3
100
AcDbSymbolTableRecord
100
AcDbTextStyleTableRecord
  2
Standard
 70
     0
 40
0.0
 41
1.0
 50
0.0
 71
     0
 42
2.5
  3
txt
  4

  0
STYLE
  5
44
330
3
100
AcDbSymbolTableRecord
100
AcDbTextStyleTableRecord
  2
SLDTEXTSTYLE0
 70
     0
 40
0.0
 41
0.7
 50
0.0
 71
     0
 42
0.2
  3
TXT
  4

  0
STYLE
  5
48
330
3
100
AcDbSymbolTableRecord
100
AcDbTextStyleTableRecord
  2
SLDTEXTSTYLE1
 70
     0
 40
0.0
 41
0.6473684211
 50
0.0
 71
     0
 42
0.2
  3
TXT
  4

  0
ENDTAB
  0
TABLE
  2
VIEW
  5
6
330
0
100
AcDbSymbolTable
 70
     0
  0
ENDTAB
  0
TABLE
  2
UCS
  5
7
330
0
100
AcDbSymbolTable
 70
     0
  0
ENDTAB
  0
TABLE
  2
APPID
  5
9
330
0
100
AcDbSymbolTable
 70
     1
  0
APPID
  5
12
330
9
100
AcDbSymbolTableRecord
100
AcDbRegAppTableRecord
  2
ACAD
 70
     0
  0
ENDTAB
  0
TABLE
  2
DIMSTYLE
  5
A
330
0
100
AcDbSymbolTable
 70
     2
100
AcDbDimStyleTable
  0
DIMSTYLE
105
27
330
A
100
AcDbSymbolTableRecord
100
AcDbDimStyleTableRecord
  2
ISO-25
 70
     0
 41
2.5
 42
0.625
 43
3.75
 44
1.25
 73
     0
 74
     0
 77
     1
 78
     8
140
2.5
141
2.5
143
0.0393700787
147
0.625
171
     3
172
     1
271
     2
272
     2
274
     3
278
    44
283
     0
284
     8
340
11
  0
DIMSTYLE
105
1C9
102
{ACAD_REACTORS
330
1C8
330
1D4
330
1DF
330
1E9
330
1F3
330
1FD
102
}
330
A
100
AcDbSymbolTableRecord
100
AcDbDimStyleTableRecord
  2
SLDDIMSTYLE0
 70
     0
 41
3.0
 44
0.0
 45
0.000000001
 73
     0
 74
     0
 77
     1
 78
    12
140
2.0
147
0.5
173
     1
271
     2
272
     3
284
    12
340
44
  0
ENDTAB
  0
TABLE
  2
BLOCK_RECORD
  5
1
330
0
100
AcDbSymbolTable
 70
     7
  0
BLOCK_RECORD
  5
1F
330
1
100
AcDbSymbolTableRecord
100
AcDbBlockTableRecord
  2
*Model_Space
340
22
  0
BLOCK_RECORD
  5
1B
330
1
100
AcDbSymbolTableRecord
100
AcDbBlockTableRecord
  2
*Paper_Space
340
1E
  0
BLOCK_RECORD
  5
23
330
1
100
AcDbSymbolTableRecord
100
AcDbBlockTableRecord
  2
*Paper_Space0
340
26
  0
BLOCK_RECORD
  5
1CA
330
1
100
AcDbSymbolTableRecord
100
AcDbBlockTableRecord
  2
*D1
340
0
  0
BLOCK_RECORD
  5
1D5
330
1
100
AcDbSymbolTableRecord
100
AcDbBlockTableRecord
  2
*D2
340
0
  0
BLOCK_RECORD
  5
1E0
330
1
100
AcDbSymbolTableRecord
100
AcDbBlockTableRecord
  2
*D3
340
0
  0
BLOCK_RECORD
  5
1EA
330
1
100
AcDbSymbolTableRecord
100
AcDbBlockTableRecord
  2
*D4
340
0
  0
BLOCK_RECORD
  5
1F4
330
1
100
AcDbSymbolTableRecord
100
AcDbBlockTableRecord
  2
*D5
340
0
  0
BLOCK_RECORD
  5
1FE
330
1
100
AcDbSymbolTableRecord
100
AcDbBlockTableRecord
  2
*D6
340
0
  0
ENDTAB
  0
ENDSEC
  0
SECTION
  2
BLOCKS
  0
BLOCK
  5
20
330
1F
100
AcDbEntity
  8
0
100
AcDbBlockBegin
  2
*Model_Space
 70
     0
 10
0.0
 20
0.0
 30
0.0
  3
*Model_Space
  1

  0
ENDBLK
  5
21
330
1F
100
AcDbEntity
  8
0
100
AcDbBlockEnd
  0
BLOCK
  5
1C
330
1B
100
AcDbEntity
 67
     1
  8
0
100
AcDbBlockBegin
  2
*Paper_Space
 70
     0
 10
0.0
 20
0.0
 30
0.0
  3
*Paper_Space
  1

  0
ENDBLK
  5
1D
330
1B
100
AcDbEntity
 67
     1
  8
0
100
AcDbBlockEnd
  0
BLOCK
  5
24
330
23
100
AcDbEntity
  8
0
100
AcDbBlockBegin
  2
*Paper_Space0
 70
     0
 10
0.0
 20
0.0
 30
0.0
  3
*Paper_Space0
  1

  0
ENDBLK
  5
25
330
23
100
AcDbEntity
  8
0
100
AcDbBlockEnd
  0
BLOCK
  5
1CB
330
1CA
100
AcDbEntity
  8
0
100
AcDbBlockBegin
  2
*D1
 70
     1
 10
0.0
 20
0.0
 30
0.0
  3
*D1
  1

  0
SOLID
  5
1CD
330
1CA
100
AcDbEntity
  8
VERMASSUNG
100
AcDbTrace
 10
254.555687974
 20
119.7026002167
 30
0.0
 11
254.105687974
 21
116.7026002167
 31
0.0
 12
255.005687974
 22
116.7026002167
 32
0.0
 13
255.005687974
 23
116.7026002167
 33
0.0
  0
SOLID
  5
1CE
330
1CA
100
AcDbEntity
  8
VERMASSUNG
100
AcDbTrace
 10
254.555687974
 20
107.7026002167
 30
0.0
 11
255.005687974
 21
110.7026002167
 31
0.0
 12
254.105687974
 22
110.7026002167
 32
0.0
 13
254.105687974
 23
110.7026002167
 33
0.0
  0
LINE
  5
1CF
330
1CA
100
AcDbEntity
  8
VERMASSUNG
100
AcDbLine
 10
246.9525391303
 20
119.7026002167
 30
0.0
 11
255.555687974
 21
119.7026002167
 31
0.0
  0
LINE
  5
1D0
330
1CA
100
AcDbEntity
  8
VERMASSUNG
100
AcDbLine
 10
246.9525391303
 20
107.7026002167
 30
0.0
 11
255.555687974
 21
107.7026002167
 31
0.0
  0
LINE
  5
1D1
330
1CA
100
AcDbEntity
  8
VERMASSUNG
100
AcDbLine
 10
254.555687974
 20
119.7026002167
 30
0.0
 11
254.555687974
 21
107.7026002167
 31
0.0
  0
MTEXT
  5
1D2
330
1CA
100
AcDbEntity
  8
VERMASSUNG
100
AcDbMText
 10
251.9775524945
 20
110.6984626219
 30
0.0
 40
2.0
 41
0.0
 71
     1
 72
     1
  1
%%c
  7
SLDTEXTSTYLE0
 11
-7.044195017643634E-15
 21
1.0
 31
0.0
 73
     1
 44
1.0
  0
MTEXT
  5
1D3
330
1CA
100
AcDbEntity
  8
VERMASSUNG
100
AcDbMText
 10
251.9775526109
 20
114.3071408451
 30
0.0
 40
2.0
 41
0.0
 71
     1
 72
     1
  1
12
  7
SLDTEXTSTYLE0
 11
-7.044195017643634E-15
 21
1.0
 31
0.0
 73
     1
 44
1.0
  0
ENDBLK
  5
1CC
330
1CA
100
AcDbEntity
  8
0
100
AcDbBlockEnd
  0
BLOCK
  5
1D6
330
1D5
100
AcDbEntity
  8
0
100
AcDbBlockBegin
  2
*D2
 70
     1
 10
0.0
 20
0.0
 30
0.0
  3
*D2
  1

  0
SOLID
  5
1D8
330
1D5
100
AcDbEntity
  8
VERMASSUNG
100
AcDbTrace
 10
260.555687974
 20
134.7026002167
 30
0.0
 11
260.105687974
 21
131.7026002167
 31
0.0
 12
261.005687974
 22
131.7026002167
 32
0.0
 13
261.005687974
 23
131.7026002167
 33
0.0
  0
SOLID
  5
1D9
330
1D5
100
AcDbEntity
  8
VERMASSUNG
100
AcDbTrace
 10
260.555687974
 20
92.7026002167
 30
0.0
 11
261.005687974
 21
95.7026002167
 31
0.0
 12
260.105687974
 22
95.7026002167
 32
0.0
 13
260.105687974
 23
95.7026002167
 33
0.0
  0
LINE
  5
1DA
330
1D5
100
AcDbEntity
  8
VERMASSUNG
100
AcDbLine
 10
234.3854976073
 20
134.7026002167
 30
0.0
 11
261.555687974
 21
134.7026002167
 31
0.0
  0
LINE
  5
1DB
330
1D5
100
AcDbEntity
  8
VERMASSUNG
100
AcDbLine
 10
234.3854976073
 20
92.7026002167
 30
0.0
 11
261.555687974
 21
92.7026002167
 31
0.0
  0
LINE
  5
1DC
330
1D5
100
AcDbEntity
  8
VERMASSUNG
100
AcDbLine
 10
260.555687974
 20
134.7026002167
 30
0.0
 11
260.555687974
 21
92.7026002167
 31
0.0
  0
MTEXT
  5
1DD
330
1D5
100
AcDbEntity
  8
VERMASSUNG
100
AcDbMText
 10
257.9775524945
 20
110.3990931744
 30
0.0
 40
2.0
 41
0.0
 71
     1
 72
     1
  1
%%c
  7
SLDTEXTSTYLE0
 11
-7.044195017643634E-15
 21
1.0
 31
0.0
 73
     1
 44
1.0
  0
MTEXT
  5
1DE
330
1D5
100
AcDbEntity
  8
VERMASSUNG
100
AcDbMText
 10
257.9775526109
 20
114.0077713976
 30
0.0
 40
2.0
 41
0.0
 71
     1
 72
     1
  1
42
  7
SLDTEXTSTYLE0
 11
-7.044195017643634E-15
 21
1.0
 31
0.0
 73
     1
 44
1.0
  0
ENDBLK
  5
1D7
330
1D5
100
AcDbEntity
  8
0
100
AcDbBlockEnd
  0
BLOCK
  5
1E1
330
1E0
100
AcDbEntity
  8
0
100
AcDbBlockBegin
  2
*D3
 70
     1
 10
0.0
 20
0.0
 30
0.0
  3
*D3
  1

  0
SOLID
  5
1E3
330
1E0
100
AcDbEntity
  8
VERMASSUNG
100
AcDbTrace
 10
113.2025391303
 20
148.7450704225
 30
0.0
 11
116.2025391303
 21
148.2950704225
 31
0.0
 12
116.2025391303
 22
149.1950704225
 32
0.0
 13
116.2025391303
 23
149.1950704225
 33
0.0
  0
SOLID
  5
1E4
330
1E0
100
AcDbEntity
  8
VERMASSUNG
100
AcDbTrace
 10
247.2525391303
 20
148.7450704225
 30
0.0
 11
244.2525391303
 21
149.1950704225
 31
0.0
 12
244.2525391303
 22
148.2950704225
 32
0.0
 13
244.2525391303
 23
148.2950704225
 33
0.0
  0
LINE
  5
1E5
330
1E0
100
AcDbEntity
  8
VERMASSUNG
100
AcDbLine
 10
113.2025391303
 20
143.5490405404
 30
0.0
 11
113.2025391303
 21
149.7450704225
 31
0.0
  0
LINE
  5
1E6
330
1E0
100
AcDbEntity
  8
VERMASSUNG
100
AcDbLine
 10
247.2525391303
 20
127.4284596951
 30
0.0
 11
247.2525391303
 21
149.7450704225
 31
0.0
  0
LINE
  5
1E7
330
1E0
100
AcDbEntity
  8
VERMASSUNG
100
AcDbLine
 10
113.2025391303
 20
148.7450704225
 30
0.0
 11
247.2525391303
 21
148.7450704225
 31
0.0
  0
MTEXT
  5
1E8
330
1E0
100
AcDbEntity
  8
VERMASSUNG
100
AcDbMText
 10
176.5283538649
 20
151.3232057857
 30
0.0
 40
2.0
 41
0.0
 71
     1
 72
     1
  1
134.05
  7
SLDTEXTSTYLE0
 73
     1
 44
1.0
  0
ENDBLK
  5
1E2
330
1E0
100
AcDbEntity
  8
0
100
AcDbBlockEnd
  0
BLOCK
  5
1EB
330
1EA
100
AcDbEntity
  8
0
100
AcDbBlockBegin
  2
*D4
 70
     1
 10
0.0
 20
0.0
 30
0.0
  3
*D4
  1

  0
SOLID
  5
1ED
330
1EA
100
AcDbEntity
  8
VERMASSUNG
100
AcDbTrace
 10
87.2525391303
 20
154.7450704225
 30
0.0
 11
90.2525391303
 21
154.2950704225
 31
0.0
 12
90.2525391303
 22
155.1950704225
 32
0.0
 13
90.2525391303
 23
155.1950704225
 33
0.0
  0
SOLID
  5
1EE
330
1EA
100
AcDbEntity
  8
VERMASSUNG
100
AcDbTrace
 10
247.2525391303
 20
154.7450704225
 30
0.0
 11
244.2525391303
 21
155.1950704225
 31
0.0
 12
244.2525391303
 22
154.2950704225
 32
0.0
 13
244.2525391303
 23
154.2950704225
 33
0.0
  0
LINE
  5
1EF
330
1EA
100
AcDbEntity
  8
VERMASSUNG
100
AcDbLine
 10
87.2525391303
 20
144.9026002167
 30
0.0
 11
87.2525391303
 21
155.7450704225
 31
0.0
  0
LINE
  5
1F0
330
1EA
100
AcDbEntity
  8
VERMASSUNG
100
AcDbLine
 10
247.2525391303
 20
127.4284596951
 30
0.0
 11
247.2525391303
 21
155.7450704225
 31
0.0
  0
LINE
  5
1F1
330
1EA
100
AcDbEntity
  8
VERMASSUNG
100
AcDbLine
 10
87.2525391303
 20
154.7450704225
 30
0.0
 11
247.2525391303
 21
154.7450704225
 31
0.0
  0
MTEXT
  5
1F2
330
1EA
100
AcDbEntity
  8
VERMASSUNG
100
AcDbMText
 10
165.3530515897
 20
157.3232057857
 30
0.0
 40
2.0
 41
0.0
 71
     1
 72
     1
  1
160
  7
SLDTEXTSTYLE0
 73
     1
 44
1.0
  0
ENDBLK
  5
1EC
330
1EA
100
AcDbEntity
  8
0
100
AcDbBlockEnd
  0
BLOCK
  5
1F5
330
1F4
100
AcDbEntity
  8
0
100
AcDbBlockBegin
  2
*D5
 70
     1
 10
0.0
 20
0.0
 30
0.0
  3
*D5
  1

  0
SOLID
  5
1F7
330
1F4
100
AcDbEntity
  8
VERMASSUNG
100
AcDbTrace
 10
55.3525391303
 20
160.7450704225
 30
0.0
 11
58.3525391303
 21
160.2950704225
 31
0.0
 12
58.3525391303
 22
161.1950704225
 32
0.0
 13
58.3525391303
 23
161.1950704225
 33
0.0
  0
SOLID
  5
1F8
330
1F4
100
AcDbEntity
  8
VERMASSUNG
100
AcDbTrace
 10
247.2525391303
 20
160.7450704225
 30
0.0
 11
244.2525391303
 21
161.1950704225
 31
0.0
 12
244.2525391303
 22
160.2950704225
 32
0.0
 13
244.2525391303
 23
160.2950704225
 33
0.0
  0
LINE
  5
1F9
330
1F4
100
AcDbEntity
  8
VERMASSUNG
100
AcDbLine
 10
55.3525391303
 20
133.3932779632
 30
0.0
 11
55.3525391303
 21
161.7450704225
 31
0.0
  0
LINE
  5
1FA
330
1F4
100
AcDbEntity
  8
VERMASSUNG
100
AcDbLine
 10
247.2525391303
 20
127.4284596951
 30
0.0
 11
247.2525391303
 21
161.7450704225
 31
0.0
  0
LINE
  5
1FB
330
1F4
100
AcDbEntity
  8
VERMASSUNG
100
AcDbLine
 10
55.3525391303
 20
160.7450704225
 30
0.0
 11
247.2525391303
 21
160.7450704225
 31
0.0
  0
MTEXT
  5
1FC
330
1F4
100
AcDbEntity
  8
VERMASSUNG
100
AcDbMText
 10
148.6035727165
 20
163.3232057857
 30
0.0
 40
2.0
 41
0.0
 71
     1
 72
     1
  1
191.9
  7
SLDTEXTSTYLE0
 73
     1
 44
1.0
  0
ENDBLK
  5
1F6
330
1F4
100
AcDbEntity
  8
0
100
AcDbBlockEnd
  0
BLOCK
  5
1FF
330
1FE
100
AcDbEntity
  8
0
100
AcDbBlockBegin
  2
*D6
 70
     1
 10
0.0
 20
0.0
 30
0.0
  3
*D6
  1

  0
SOLID
  5
201
330
1FE
100
AcDbEntity
  8
VERMASSUNG
100
AcDbTrace
 10
49.6384615385
 20
145.2026002167
 30
0.0
 11
49.1884615385
 21
142.2026002167
 31
0.0
 12
50.0884615385
 22
142.2026002167
 32
0.0
 13
50.0884615385
 23
142.2026002167
 33
0.0
  0
SOLID
  5
202
330
1FE
100
AcDbEntity
  8
VERMASSUNG
100
AcDbTrace
 10
49.6384615385
 20
82.2026002167
 30
0.0
 11
50.0884615385
 21
85.2026002167
 31
0.0
 12
49.1884615385
 22
85.2026002167
 32
0.0
 13
49.1884615385
 23
85.2026002167
 33
0.0
  0
LINE
  5
203
330
1FE
100
AcDbEntity
  8
VERMASSUNG
100
AcDbLine
 10
87.5525391303
 20
145.2026002167
 30
0.0
 11
48.6384615385
 21
145.2026002167
 31
0.0
  0
LINE
  5
204
330
1FE
100
AcDbEntity
  8
VERMASSUNG
100
AcDbLine
 10
87.5525391303
 20
82.2026002167
 30
0.0
 11
48.6384615385
 21
82.2026002167
 31
0.0
  0
LINE
  5
205
330
1FE
100
AcDbEntity
  8
VERMASSUNG
100
AcDbLine
 10
49.6384615385
 20
145.2026002167
 30
0.0
 11
49.6384615385
 21
82.2026002167
 31
0.0
  0
MTEXT
  5
206
330
1FE
100
AcDbEntity
  8
VERMASSUNG
100
AcDbMText
 10
46.8603260494
 20
105.9990585049
 30
0.0
 40
2.0
 41
0.0
 71
     1
 72
     1
  1
HSK A 
  7
SLDTEXTSTYLE0
 11
-7.044195017643634E-15
 21
1.0
 31
0.0
 73
     1
 44
1.0
  0
MTEXT
  5
207
330
1FE
100
AcDbEntity
  8
VERMASSUNG
100
AcDbMText
 10
47.0603260589
 20
114.9990590488
 30
0.0
 40
2.0
 41
0.0
 71
     1
 72
     1
  1
%%c
  7
SLDTEXTSTYLE0
 11
-7.044195017643634E-15
 21
1.0
 31
0.0
 73
     1
 44
1.0
  0
MTEXT
  5
208
330
1FE
100
AcDbEntity
  8
VERMASSUNG
100
AcDbMText
 10
47.0603261753
 20
118.6073856988
 30
0.0
 40
2.0
 41
0.0
 71
     1
 72
     1
  1
63
  7
SLDTEXTSTYLE0
 11
-7.044195017643634E-15
 21
1.0
 31
0.0
 73
     1
 44
1.0
  0
ENDBLK
  5
200
330
1FE
100
AcDbEntity
  8
0
100
AcDbBlockEnd
  0
ENDSEC
  0
SECTION
  2
ENTITIES
  0
MTEXT
  5
45
330
1F
100
AcDbEntity
  8
KOPF_DÜNN
100
AcDbMText
 10
13.8892156294
 20
23.8442973028
 30
0.0
 40
3.0
 41
0.0
 71
     1
 72
     1
  1
HA6.W12.K21.160
  7
SLDTEXTSTYLE0
 73
     1
 44
1.0
  0
MTEXT
  5
46
330
1F
100
AcDbEntity
  8
VERMASSUNG
100
AcDbMText
 10
13.9329988022
 20
28.8834360957
 30
0.0
 40
3.0
 41
0.0
 71
     1
 72
     1
  1
Flächenspannfutter_End mill adapter Weldon ø12
  7
SLDTEXTSTYLE0
 73
     1
 44
1.0
  0
MTEXT
  5
47
330
1F
100
AcDbEntity
  8
VERMASSUNG
100
AcDbMText
 10
98.8601118557
 20
13.8365368179
 30
0.0
 40
2.0
 41
0.0
 71
     1
 72
     1
  1
Datum: 21.04.2011
  7
SLDTEXTSTYLE0
 73
     1
 44
1.0
  0
MTEXT
  5
49
330
1F
100
AcDbEntity
  8
VERMASSUNG
100
AcDbMText
 10
13.933048693
 20
18.0482802738
 30
0.0
 40
2.0
 41
0.0
 71
     1
 72
     1
  1
DIN 69 893 HSK A 63
  7
SLDTEXTSTYLE1
 73
     1
 44
1.0
  0
MTEXT
  5
4A
330
1F
100
AcDbEntity
  8
VERMASSUNG
100
AcDbMText
 10
13.9808475933
 20
13.9090973692
 30
0.0
 40
2.0
 41
0.0
 71
     1
 72
     1
  1
Gewicht: 2002g
  7
SLDTEXTSTYLE0
 73
     1
 44
1.0
  0
ARC
  5
4B
330
1F
100
AcDbEntity
  8
0
  6
Continuous
 62
     7
370
    15
100
AcDbCircle
 10
87.5525391303
 20
82.5026002167
 30
0.0
 40
0.2999999999999972
100
AcDbArc
 50
180.0
 51
270.0
  0
ARC
  5
4C
330
1F
100
AcDbEntity
  8
0
  6
Continuous
 62
     7
370
    15
100
AcDbCircle
 10
87.5525391303
 20
144.9026002167
 30
0.0
 40
0.3000000000000114
100
AcDbArc
 50
90.0
 51
180.0
  0
LINE
  5
4D
330
1F
100
AcDbEntity
  8
0
  6
Continuous
 62
     7
370
    15
100
AcDbLine
 10
87.5525391303
 20
82.2026002167
 30
0.0
 11
92.2025391303
 21
82.2026002167
 31
0.0
  0
LINE
  5
4E
330
1F
100
AcDbEntity
  8
0
  6
Continuous
 62
     7
370
    15
100
AcDbLine
 10
92.2118472172
 20
145.2026002167
 30
0.0
 11
87.5525391303
 21
145.2026002167
 31
0.0
  0
ARC
  5
4F
330
1F
100
AcDbEntity
  8
0
  6
Continuous
 62
     7
370
    15
100
AcDbCircle
 10
116.2025391303
 20
86.6866414152
 30
0.0
 40
3.0
100
AcDbArc
 50
104.3250519401
 51
168.149286167
  0
ARC
  5
50
330
1F
100
AcDbEntity
  8
0
  6
Continuous
 62
     7
370
    15
100
AcDbCircle
 10
116.2025391303
 20
140.7185590182
 30
0.0
 40
2.999999999999983
100
AcDbArc
 50
191.8581036668
 51
255.6749480599
  0
ARC
  5
51
330
1F
100
AcDbEntity
  8
0
  6
Continuous
 62
     7
370
    15
100
AcDbCircle
 10
86.7525323777
 20
89.1321626023
 30
0.0
 40
0.6000067526677164
100
AcDbArc
 50
33.5571153394
 51
90.0
  0
ARC
  5
52
330
1F
100
AcDbEntity
  8
0
  6
Continuous
 62
     7
370
    15
100
AcDbCircle
 10
86.7525323777
 20
138.2730378311
 30
0.0
 40
0.6000067526677242
100
AcDbArc
 50
270.0
 51
326.4428846606
  0
LINE
  5
53
330
1F
100
AcDbEntity
  8
0
  6
Continuous
 62
     7
370
    15
100
AcDbLine
 10
85.2525391303
 20
89.482169355
 30
0.0
 11
86.1092519037
 21
89.7117248507
 31
0.0
  0
LINE
  5
54
330
1F
100
AcDbEntity
  8
0
  6
Continuous
 62
     7
370
    15
100
AcDbLine
 10
86.1092519037
 20
137.6934755826
 30
0.0
 11
85.2525391303
 21
137.9230310784
 31
0.0
  0
LINE
  5
55
330
1F
100
AcDbEntity
  8
0
  6
Continuous
 62
     7
370
    15
100
AcDbLine
 10
74.0221169479
 20
137.3603846765
 30
0.0
 11
61.4525391303
 21
136.7306463089
 31
0.0
  0
LINE
  5
56
330
1F
100
AcDbEntity
  8
0
  6
Continuous
 62
     7
370
    15
100
AcDbLine
 10
85.2525391303
 20
137.9230310784
 30
0.0
 11
82.4339297728
 21
137.7818181847
 31
0.0
  0
LINE
  5
57
330
1F
100
AcDbEntity
  8
0
  6
Continuous
 62
     7
370
    15
100
AcDbLine
 10
82.434151248
 20
89.6233711527
 30
0.0
 11
85.2525391303
 21
89.482169355
 31
0.0
  0
LINE
  5
58
330
1F
100
AcDbEntity
  8
0
  6
Continuous
 62
     7
370
    15
100
AcDbLine
 10
65.4525391303
 20
90.4741533229
 30
0.0
 11
74.0228158996
 21
90.0447807393
 31
0.0
  0
ARC
  5
59
330
1F
100
AcDbEntity
  8
0
  6
Continuous
 62
     7
370
    15
100
AcDbCircle
 10
140.2025391303
 20
-7.2973997833
 30
0.0
 40
100.0
100
AcDbArc
 50
90.0
 51
104.3250519401
  0
ARC
  5
5A
330
1F
100
AcDbEntity
  8
0
  6
Continuous
 62
     7
370
    15
100
AcDbCircle
 10
140.2025391303
 20
234.7026002167
 30
0.0
 40
100.0
100
AcDbArc
 50
255.6749480599
 51
270.0
  0
ARC
  5
5B
330
1F
100
AcDbEntity
  8
0
  6
Continuous
 62
     7
370
    15
100
AcDbCircle
 10
86.2645433308
 20
89.132169355
 30
0.0
 40
0.6000000000000085
100
AcDbArc
 50
90.0
 51
105.0
  0
ARC
  5
5C
330
1F
100
AcDbEntity
  8
0
  6
Continuous
 62
     7
370
    15
100
AcDbCircle
 10
86.2645433308
 20
138.2730310784
 30
0.0
 40
0.5999999999999943
100
AcDbArc
 50
255.0
 51
270.0
  0
LINE
  5
5D
330
1F
100
AcDbEntity
  8
0
  6
Continuous
 62
     7
370
    15
100
AcDbLine
 10
86.2645433308
 20
89.732169355
 30
0.0
 11
86.7525323777
 21
89.732169355
 31
0.0
  0
LINE
  5
5E
330
1F
100
AcDbEntity
  8
0
  6
Continuous
 62
     7
370
    15
100
AcDbLine
 10
86.7525323777
 20
137.6730310784
 30
0.0
 11
86.2645433308
 21
137.6730310784
 31
0.0
  0
LINE
  5
5F
330
1F
100
AcDbEntity
  8
0
  6
Continuous
 62
     7
370
    15
100
AcDbLine
 10
162.6907603375
 20
92.7026002167
 30
0.0
 11
234.3854976073
 21
92.7026002167
 31
0.0
  0
LINE
  5
60
330
1F
100
AcDbEntity
  8
0
  6
Continuous
 62
     7
370
    15
100
AcDbLine
 10
140.2025391303
 20
92.7026002167
 30
0.0
 11
155.7042811474
 21
92.7026002167
 31
0.0
  0
LINE
  5
61
330
1F
100
AcDbEntity
  8
0
  6
Continuous
 62
     7
370
    15
100
AcDbLine
 10
155.7141388462
 20
134.7026002167
 30
0.0
 11
140.2025391303
 21
134.7026002167
 31
0.0
  0
LINE
  5
62
330
1F
100
AcDbEntity
  8
0
  6
Continuous
 62
     7
370
    15
100
AcDbLine
 10
234.3854976073
 20
134.7026002167
 30
0.0
 11
162.6969588581
 21
134.7026002167
 31
0.0
  0
LINE
  5
63
330
1F
100
AcDbEntity
  8
0
  6
Continuous
 62
     7
370
    15
100
AcDbLine
 10
234.3854976073
 20
92.7026002167
 30
0.0
 11
246.0977756538
 21
98.1641251642
 31
0.0
  0
LINE
  5
64
330
1F
100
AcDbEntity
  8
0
  6
Continuous
 62
     7
370
    15
100
AcDbLine
 10
246.0977756538
 20
129.2410752691
 30
0.0
 11
234.3854976073
 21
134.7026002167
 31
0.0
  0
ARC
  5
65
330
1F
100
AcDbEntity
  8
0
  6
Continuous
 62
     7
370
    15
100
AcDbCircle
 10
245.2525391303
 20
99.9767407383
 30
0.0
 40
2.0
100
AcDbArc
 50
295.0
 51
0.0
  0
ARC
  5
66
330
1F
100
AcDbEntity
  8
0
  6
Continuous
 62
     7
370
    15
100
AcDbCircle
 10
245.2525391303
 20
127.4284596951
 30
0.0
 40
2.0
100
AcDbArc
 50
0.0
 51
65.0
  0
LINE
  5
67
330
1F
100
AcDbEntity
  8
0
  6
Continuous
 62
     7
370
    15
100
AcDbLine
 10
56.6358757703
 20
92.8326002167
 30
0.0
 11
64.0525391303
 21
92.8326002167
 31
0.0
  0
ARC
  5
68
330
1F
100
AcDbEntity
  8
0
  6
Continuous
 62
     7
370
    15
100
AcDbCircle
 10
64.0525391303
 20
91.4326002167
 30
0.0
 40
1.399999999999991
100
AcDbArc
 50
42.2465410162
 51
90.0
  0
LINE
  5
69
330
1F
100
AcDbEntity
  8
0
  6
Continuous
 62
     7
370
    15
100
AcDbLine
 10
55.3636995655
 20
93.9714397816
 30
0.0
 11
56.4937025885
 21
92.8414367585
 31
0.0
  0
LINE
  5
6A
330
1F
100
AcDbEntity
  8
0
  6
Continuous
 62
     7
370
    15
100
AcDbLine
 10
56.4937025885
 20
134.5637636749
 30
0.0
 11
55.3637067495
 21
133.4337678359
 31
0.0
  0
ARC
  5
6B
330
1F
100
AcDbEntity
  8
0
  6
Continuous
 62
     7
370
    15
100
AcDbCircle
 10
60.0525391303
 20
135.9726002167
 30
0.0
 40
1.400000000000006
100
AcDbArc
 50
270.0
 51
302.5610026528
  0
LINE
  5
6C
330
1F
100
AcDbEntity
  8
0
  6
Continuous
 62
     7
370
    15
100
AcDbLine
 10
60.0525391303
 20
134.5726002167
 30
0.0
 11
56.6434275318
 21
134.5726002167
 31
0.0
  0
LINE
  5
6D
330
1F
100
AcDbEntity
  8
0
  6
Continuous
 62
     7
370
    15
100
AcDbLine
 10
247.2525391303
 20
104.9410432078
 30
0.0
 11
247.317440066
 21
105.0612237538
 31
0.0
  0
LINE
  5
6E
330
1F
100
AcDbEntity
  8
0
  6
Continuous
 62
     7
370
    15
100
AcDbLine
 10
247.3148770451
 20
122.3440478862
 30
0.0
 11
247.2525391303
 21
122.4594823489
 31
0.0
  0
LINE
  5
6F
330
1F
100
AcDbEntity
  8
0
  6
Continuous
 62
     7
370
    15
100
AcDbLine
 10
112.6025391303
 20
83.5156825204
 30
0.0
 11
108.6444719618
 21
83.5156825204
 31
0.0
  0
LINE
  5
70
330
1F
100
AcDbEntity
  8
0
  6
Continuous
 62
     7
370
    15
100
AcDbLine
 10
108.6444719618
 20
83.5156825204
 30
0.0
 11
108.6444719618
 21
133.5526002167
 31
0.0
  0
LINE
  5
71
330
1F
100
AcDbEntity
  8
0
  6
Continuous
 62
     7
370
    15
100
AcDbLine
 10
108.6444719618
 20
133.5526002167
 30
0.0
 11
112.6025391303
 21
133.5526002167
 31
0.0
  0
LINE
  5
72
330
1F
100
AcDbEntity
  8
0
  6
Continuous
 62
     7
370
    15
100
AcDbLine
 10
113.2025391303
 20
84.1423228161
 30
0.0
 11
113.2025391303
 21
133.5526002167
 31
0.0
  0
SPLINE
  5
73
330
1F
100
AcDbEntity
  8
0
  6
Continuous
 62
     7
370
    15
100
AcDbSpline
210
0.0
220
0.0
230
1.0
 70
     8
 71
     3
 72
    10
 73
     6
 74
     0
 42
0.00000001
 43
0.00000001
 40
0.0
 40
0.0
 40
0.0
 40
0.0
 40
0.5
 40
0.5
 40
1.0
 40
1.0
 40
1.0
 40
1.0
 10
113.202539130344
 20
84.14232281609189
 30
0.0
 10
113.202539130344
 20
83.98243554789823
 30
0.0
 10
113.1412294791082
 20
83.82130829238363
 30
0.0
 10
112.9221298415731
 20
83.5872092940288
 30
0.0
 10
112.7640816352596
 20
83.51568252043758
 30
0.0
 10
112.602539130344
 20
83.51568252043758
 30
0.0
  0
SPLINE
  5
74
330
1F
100
AcDbEntity
  8
0
  6
Continuous
 62
     7
370
    15
100
AcDbSpline
210
0.0
220
0.0
230
1.0
 70
    24
 71
     3
 72
    12
 73
     8
 74
     0
 42
0.00000001
 43
0.00000001
 40
0.0
 40
0.0
 40
0.0
 40
0.0
 40
0.2500000000000033
 40
0.2500000000000033
 40
0.5000000000000067
 40
0.5000000000000067
 40
1.0
 40
1.0
 40
1.0
 40
1.0
 10
112.602539130344
 20
133.5526002166847
 30
0.0
 10
112.6927781980311
 20
133.5526002166847
 30
0.0
 10
112.7836763121376
 20
133.5526002166847
 30
0.0
 10
112.9382733486261
 20
133.5526002166847
 30
0.0
 10
113.0032517647342
 20
133.5526002166847
 30
0.0
 10
113.1550867926704
 20
133.5526002166847
 30
0.0
 10
113.202539130344
 20
133.5526002166847
 30
0.0
 10
113.202539130344
 20
133.5526002166847
 30
0.0
  0
LINE
  5
75
330
1F
100
AcDbEntity
  8
0
  6
Continuous
 62
     7
370
    15
100
AcDbLine
 10
103.3425391303
 20
86.2047630576
 30
0.0
 11
103.3425391303
 21
133.5526002167
 31
0.0
  0
SPLINE
  5
76
330
1F
100
AcDbEntity
  8
0
  6
Continuous
 62
     7
370
    15
100
AcDbSpline
210
0.0
220
0.0
230
1.0
 70
     8
 71
     3
 72
     8
 73
     4
 74
     0
 42
0.00000001
 43
0.00000001
 40
0.0
 40
0.0
 40
0.0
 40
0.0
 40
1.0
 40
1.0
 40
1.0
 40
1.0
 10
103.342539130344
 20
86.20476305762988
 30
0.0
 10
102.8502000075628
 20
85.30749302342318
 30
0.0
 10
102.3560859595207
 20
84.41120860837093
 30
0.0
 10
101.860606298855
 20
83.51568252043758
 30
0.0
  0
LINE
  5
77
330
1F
100
AcDbEntity
  8
0
  6
Continuous
 62
     7
370
    15
100
AcDbLine
 10
101.8606062989
 20
83.5156825204
 30
0.0
 11
101.8606062989
 21
133.5526002167
 31
0.0
  0
SPLINE
  5
78
330
1F
100
AcDbEntity
  8
0
  6
Continuous
 62
     7
370
    15
100
AcDbSpline
210
0.0
220
0.0
230
1.0
 70
    24
 71
     3
 72
     8
 73
     4
 74
     0
 42
0.00000001
 43
0.00000001
 40
0.0
 40
0.0
 40
0.0
 40
0.0
 40
1.0
 40
1.0
 40
1.0
 40
1.0
 10
101.8606062988549
 20
133.5526002166847
 30
0.0
 10
102.3672864070055
 20
133.5526002166847
 30
0.0
 10
102.8625871359791
 20
133.5526002166847
 30
0.0
 10
103.342539130344
 20
133.5526002166847
 30
0.0
  0
SPLINE
  5
79
330
1F
100
AcDbEntity
  8
0
  6
Continuous
 62
     7
370
    15
100
AcDbSpline
210
0.0
220
0.0
230
1.0
 70
     8
 71
     3
 72
     8
 73
     4
 74
     0
 42
0.00000001
 43
0.00000001
 40
0.0
 40
0.0
 40
0.0
 40
0.0
 40
1.0
 40
1.0
 40
1.0
 40
1.0
 10
108.6444719618331
 20
83.51568252043758
 30
0.0
 10
108.1489923011673
 20
84.41120860837094
 30
0.0
 10
107.6548782531252
 20
85.30749302342319
 30
0.0
 10
107.162539130344
 20
86.20476305762989
 30
0.0
  0
LINE
  5
7A
330
1F
100
AcDbEntity
  8
0
  6
Continuous
 62
     7
370
    15
100
AcDbLine
 10
107.1625391303
 20
86.2047630576
 30
0.0
 11
107.1625391303
 21
133.5526002167
 31
0.0
  0
SPLINE
  5
7B
330
1F
100
AcDbEntity
  8
0
  6
Continuous
 62
     7
370
    15
100
AcDbSpline
210
0.0
220
0.0
230
1.0
 70
    24
 71
     3
 72
     8
 73
     4
 74
     0
 42
0.00000001
 43
0.00000001
 40
0.0
 40
0.0
 40
0.0
 40
0.0
 40
1.0
 40
1.0
 40
1.0
 40
1.0
 10
107.162539130344
 20
133.5526002166847
 30
0.0
 10
107.6424911247089
 20
133.5526002166847
 30
0.0
 10
108.1377918536825
 20
133.5526002166847
 30
0.0
 10
108.6444719618331
 20
133.5526002166847
 30
0.0
  0
LINE
  5
7C
330
1F
100
AcDbEntity
  8
0
  6
Continuous
 62
     7
370
    15
100
AcDbLine
 10
87.2525391303
 20
82.5026002167
 30
0.0
 11
87.2525391303
 21
144.9026002114
 31
0.0
  0
LINE
  5
7D
330
1F
100
AcDbEntity
  8
0
  6
Continuous
 62
     7
370
    15
100
AcDbLine
 10
92.2025391303
 20
133.5526002167
 30
0.0
 11
101.8606062989
 21
133.5526002167
 31
0.0
  0
LINE
  5
7E
330
1F
100
AcDbEntity
  8
0
  6
Continuous
 62
     7
370
    15
100
AcDbLine
 10
101.8606062989
 20
83.5156825204
 30
0.0
 11
100.2025391303
 21
83.5156825204
 31
0.0
  0
SPLINE
  5
7F
330
1F
100
AcDbEntity
  8
0
  6
Continuous
 62
     7
370
    15
100
AcDbSpline
210
0.0
220
0.0
230
1.0
 70
     8
 71
     3
 72
    28
 73
    24
 74
     0
 42
0.00000001
 43
0.00000001
 40
0.0
 40
0.0
 40
0.0
 40
0.0
 40
0.1250000000000001
 40
0.1250000000000001
 40
0.1875000000000001
 40
0.1875000000000001
 40
0.2500000000000001
 40
0.2500000000000001
 40
0.3749999999999999
 40
0.3749999999999999
 40
0.4375
 40
0.4375
 40
0.4999999999999999
 40
0.4999999999999999
 40
0.6249999999999999
 40
0.6249999999999999
 40
0.7499999999999997
 40
0.7499999999999997
 40
0.8124999999999998
 40
0.8124999999999998
 40
0.8749999999999998
 40
0.8749999999999998
 40
1.0
 40
1.0
 40
1.0
 40
1.0
 10
100.202539130344
 20
83.51568252043758
 30
0.0
 10
99.67083137285107
 20
83.5156825204376
 30
0.0
 10
99.14859280754075
 20
83.49989780648737
 30
0.0
 10
98.37872232126574
 20
83.45490239241116
 30
0.0
 10
98.12436274907441
 20
83.43634739733544
 30
0.0
 10
97.6202411683759
 20
83.39249467488892
 30
0.0
 10
97.37051835094798
 20
83.36715006793672
 30
0.0
 10
96.64492839950157
 20
83.28374799018661
 30
0.0
 10
96.18656813792002
 20
83.21788243103553
 30
0.0
 10
95.53607019452615
 20
83.10891209054374
 30
0.0
 10
95.32438814373369
 20
83.0706724547771
 30
0.0
 10
94.9203166545957
 20
82.99291371735774
 30
0.0
 10
94.72781014077484
 20
82.9534127551824
 30
0.0
 10
94.17797516975354
 20
82.8345050128164
 30
0.0
 10
93.84804639144473
 20
82.75468733139178
 30
0.0
 10
93.26357512287605
 20
82.60134416959572
 30
0.0
 10
93.01729798486261
 20
82.53001041632646
 30
0.0
 10
92.71745519216454
 20
82.43606690925185
 30
0.0
 10
92.62899833509236
 20
82.40687311589191
 30
0.0
 10
92.47563698178723
 20
82.35340654162852
 30
0.0
 10
92.410548767561
 20
82.32904720735331
 30
0.0
 10
92.2549547516202
 20
82.26545706190858
 30
0.0
 10
92.20253913034401
 20
82.23535412681933
 30
0.0
 10
92.20253913034401
 20
82.21847723382241
 30
0.0
  0
LINE
  5
80
330
1F
100
AcDbEntity
  8
0
  6
Continuous
 62
     7
370
    15
100
AcDbLine
 10
92.2025391303
 20
82.2184772338
 30
0.0
 11
92.2025391303
 21
82.2026002167
 31
0.0
  0
SPLINE
  5
81
330
1F
100
AcDbEntity
  8
0
  6
Continuous
 62
     7
370
    15
100
AcDbSpline
210
0.0
220
0.0
230
1.0
 70
     8
 71
     3
 72
    22
 73
    18
 74
     0
 42
0.00000001
 43
0.00000001
 40
0.0
 40
0.0
 40
0.0
 40
0.0
 40
0.0515773377536172
 40
0.1565264849943629
 40
0.2100197540385886
 40
0.2615951369298746
 40
0.3664424119934943
 40
0.4198226601719804
 40
0.4724528789006786
 40
0.5794488992297344
 40
0.6339397336480286
 40
0.6872670452602943
 40
0.7409741315029978
 40
0.7958968813361827
 40
0.8512481408256359
 40
0.9034470736265863
 40
1.0
 40
1.0
 40
1.0
 40
1.0
 10
100.202539130344
 20
144.169795689849
 30
0.0
 10
99.98572893434155
 20
144.1711923109175
 30
0.0
 10
99.3277551154268
 20
144.1754307651737
 30
0.0
 10
98.45266013809587
 20
144.214963089528
 30
0.0
 10
97.607834643239
 20
144.2779363363699
 30
0.0
 10
96.78810935963477
 20
144.3559503696251
 30
0.0
 10
96.01231938160637
 20
144.4528334975002
 30
0.0
 10
95.2948309202999
 20
144.5610929094162
 30
0.0
 10
94.61556617312783
 20
144.6748112817207
 30
0.0
 10
94.00725119521891
 20
144.7913114666615
 30
0.0
 10
93.48715925449574
 20
144.9004117180785
 30
0.0
 10
93.14326907677962
 20
144.9764156158085
 30
0.0
 10
92.84831534905206
 20
145.0444490717301
 30
0.0
 10
92.60254106171088
 20
145.1031621224887
 30
0.0
 10
92.41663875273748
 20
145.1487775024224
 30
0.0
 10
92.24504214701375
 20
145.191736953983
 30
0.0
 10
92.22491287183749
 20
145.196897975785
 30
0.0
 10
92.2118472171638
 20
145.2002479289273
 30
0.0
  0
LINE
  5
82
330
1F
100
AcDbEntity
  8
0
  6
Continuous
 62
     7
370
    15
100
AcDbLine
 10
101.8606062989
 20
144.1697956898
 30
0.0
 11
100.2025391303
 21
144.1697956898
 31
0.0
  0
LINE
  5
83
330
1F
100
AcDbEntity
  8
0
  6
Continuous
 62
     7
370
    15
100
AcDbLine
 10
101.8606062989
 20
138.1612898791
 30
0.0
 11
101.8606062989
 21
144.1697956898
 31
0.0
  0
LINE
  5
84
330
1F
100
AcDbEntity
  8
0
  6
Continuous
 62
     7
370
    15
100
AcDbLine
 10
99.448159476
 20
138.1612898791
 30
0.0
 11
101.8606062989
 21
138.1612898791
 31
0.0
  0
SPLINE
  5
85
330
1F
100
AcDbEntity
  8
0
  6
Continuous
 62
     7
370
    15
100
AcDbSpline
210
0.0
220
0.0
230
1.0
 70
     8
 71
     3
 72
    20
 73
    16
 74
     0
 42
0.00000001
 43
0.00000001
 40
0.0
 40
0.0
 40
0.0
 40
0.0
 40
0.2499999999999997
 40
0.2499999999999997
 40
0.3749999999999997
 40
0.3749999999999997
 40
0.4999999999999998
 40
0.4999999999999998
 40
0.6249999999999998
 40
0.6249999999999998
 40
0.7499999999999999
 40
0.7499999999999999
 40
0.8749999999999999
 40
0.8749999999999999
 40
1.0
 40
1.0
 40
1.0
 40
1.0
 10
92.20253913034401
 20
133.5526002166847
 30
0.0
 10
92.45091286463207
 20
134.2064626449821
 30
0.0
 10
92.77048295697733
 20
134.8102484269793
 30
0.0
 10
93.39278919018201
 20
135.6370871631479
 30
0.0
 10
93.62421345061279
 20
135.8995158011008
 30
0.0
 10
94.1454277902625
 20
136.3961784552058
 30
0.0
 10
94.43204827289756
 20
136.6267653342273
 30
0.0
 10
95.05153301420519
 20
137.0433195588099
 30
0.0
 10
95.38583339369214
 20
137.2308173607775
 30
0.0
 10
96.11109386631693
 20
137.5622143384139
 30
0.0
 10
96.4930089237074
 20
137.7017183259091
 30
0.0
 10
97.28779709987909
 20
137.9271718333801
 30
0.0
 10
97.70195529408545
 20
138.0137979449237
 30
0.0
 10
98.56750163466685
 20
138.1317787337778
 30
0.0
 10
99.00538924967867
 20
138.1612898790522
 30
0.0
 10
99.4481594760333
 20
138.1612898790522
 30
0.0
  0
SPLINE
  5
86
330
1F
100
AcDbEntity
  8
0
  6
Continuous
 62
     7
370
    15
100
AcDbSpline
210
0.0
220
0.0
230
1.0
 70
     8
 71
     3
 72
    70
 73
    66
 74
     0
 42
0.00000001
 43
0.00000001
 40
-0.0312500000000001
 40
-0.0312500000000001
 40
0.0
 40
0.0
 40
0.0312499999999999
 40
0.0312499999999999
 40
0.0624999999999998
 40
0.0624999999999998
 40
0.0937499999999997
 40
0.0937499999999997
 40
0.1249999999999996
 40
0.1249999999999996
 40
0.1562499999999994
 40
0.1562499999999994
 40
0.1874999999999993
 40
0.1874999999999993
 40
0.2187499999999992
 40
0.2187499999999992
 40
0.2499999999999991
 40
0.2499999999999991
 40
0.281249999999999
 40
0.281249999999999
 40
0.3124999999999989
 40
0.3124999999999989
 40
0.3437499999999988
 40
0.3437499999999988
 40
0.3749999999999987
 40
0.3749999999999987
 40
0.4062499999999986
 40
0.4062499999999986
 40
0.4374999999999984
 40
0.4374999999999984
 40
0.4687499999999983
 40
0.4687499999999983
 40
0.4999999999999982
 40
0.4999999999999982
 40
0.5312499999999983
 40
0.5312499999999983
 40
0.5624999999999984
 40
0.5624999999999984
 40
0.5937499999999986
 40
0.5937499999999986
 40
0.6249999999999987
 40
0.6249999999999987
 40
0.6562499999999988
 40
0.6562499999999988
 40
0.6874999999999989
 40
0.6874999999999989
 40
0.718749999999999
 40
0.718749999999999
 40
0.7499999999999991
 40
0.7499999999999991
 40
0.7812499999999992
 40
0.7812499999999992
 40
0.8124999999999993
 40
0.8124999999999993
 40
0.8437499999999994
 40
0.8437499999999994
 40
0.8749999999999996
 40
0.8749999999999996
 40
0.9062499999999997
 40
0.9062499999999997
 40
0.9374999999999998
 40
0.9374999999999998
 40
0.9687499999999999
 40
0.9687499999999999
 40
1.0
 40
1.0
 40
1.03125
 40
1.03125
 10
95.51708446900416
 20
124.3235071026681
 30
0.0
 10
94.98799379168388
 20
124.3235071026681
 30
0.0
 10
94.72792312430677
 20
124.3481843974533
 30
0.0
 10
94.21634844447135
 20
124.4446560704952
 30
0.0
 10
93.96217316073115
 20
124.5176369864752
 30
0.0
 10
93.47790253066945
 20
124.7073775894139
 30
0.0
 10
93.24826143878829
 20
124.8232382478076
 30
0.0
 10
92.81365709055481
 20
125.0958560937653
 30
0.0
 10
92.60809131390819
 20
125.2538951758191
 30
0.0
 10
92.23953417331296
 20
125.5974380267897
 30
0.0
 10
92.07405319057747
 20
125.7842004708914
 30
0.0
 10
91.78162868114237
 20
126.1877436452882
 30
0.0
 10
91.65752770451589
 20
126.4012406417174
 30
0.0
 10
91.45794850776615
 20
126.8406239556399
 30
0.0
 10
91.38101492190789
 20
127.0697639427855
 30
0.0
 10
91.27815786338752
 20
127.5357380655455
 30
0.0
 10
91.25268495392838
 20
127.7686205112217
 30
0.0
 10
91.25239454336062
 20
128.2340180463015
 30
0.0
 10
91.27841917713636
 20
128.4688938036958
 30
0.0
 10
91.38056746162835
 20
128.9203869509421
 30
0.0
 10
91.45614390921152
 20
129.1384334263535
 30
0.0
 10
91.65664144035645
 20
129.5595279513913
 30
0.0
 10
91.78177028186482
 20
129.7614493359096
 30
0.0
 10
92.0711290828864
 20
130.1334788184285
 30
0.0
 10
92.23654006994188
 20
130.3061071220089
 30
0.0
 10
92.6095306280897
 20
130.6234251265549
 30
0.0
 10
92.81126366117881
 20
130.7632120600565
 30
0.0
 10
93.24412291200667
 20
131.0073883136083
 30
0.0
 10
93.47804144489605
 20
131.1126178246498
 30
0.0
 10
93.96222518003866
 20
131.2807749710249
 30
0.0
 10
94.21154080599418
 20
131.3440258616188
 30
0.0
 10
94.7245733304219
 20
131.4296050707214
 30
0.0
 10
94.98986715332656
 20
131.4514772356438
 30
0.0
 10
95.51220177319628
 20
131.4516408852877
 30
0.0
 10
95.77195543567802
 20
131.4306391931918
 30
0.0
 10
96.28856725132326
 20
131.3452368381141
 30
0.0
 10
96.54093329182354
 20
131.2812306548271
 30
0.0
 10
97.02245841335638
 20
131.114416134786
 30
0.0
 10
97.25530914546992
 20
131.0102829713868
 30
0.0
 10
97.6923989939087
 20
130.7642963188918
 30
0.0
 10
97.89371998256587
 20
130.624546487943
 30
0.0
 10
98.26280600786578
 20
130.3114084182184
 30
0.0
 10
98.43179075891746
 20
130.1359522589483
 30
0.0
 10
98.72224681557668
 20
129.7631119948481
 30
0.0
 10
98.8453186269388
 20
129.5649901847371
 30
0.0
 10
99.04665486836082
 20
129.1442788420035
 30
0.0
 10
99.12386741430306
 20
128.9222888213359
 30
0.0
 10
99.22607095720312
 20
128.4724238816275
 30
0.0
 10
99.25229930865545
 20
128.2421684685108
 30
0.0
 10
99.25277570797255
 20
127.7708525259617
 30
0.0
 10
99.22703329547458
 20
127.5376151102476
 30
0.0
 10
99.12572251911072
 20
127.0759385707495
 30
0.0
 10
99.04888987971977
 20
126.8450411836374
 30
0.0
 10
98.8484860405046
 20
126.4027651698457
 30
0.0
 10
98.72581454221256
 20
126.1917027385598
 30
0.0
 10
98.43586725304831
 20
125.7902042278272
 30
0.0
 10
98.2672962736831
 20
125.5992977057512
 30
0.0
 10
97.89902667956993
 20
125.2555723737541
 30
0.0
 10
97.69796482229961
 20
125.1004351875401
 30
0.0
 10
97.26093390371469
 20
124.8253578274603
 30
0.0
 10
97.02878569058507
 20
124.7082415980383
 30
0.0
 10
96.54777540908621
 20
124.5193151129738
 30
0.0
 10
96.2956753262558
 20
124.4462401425795
 30
0.0
 10
95.77860583999679
 20
124.348188083445
 30
0.0
 10
95.51708446900416
 20
124.3235071026681
 30
0.0
 10
94.98799379168388
 20
124.3235071026681
 30
0.0
  0
SPLINE
  5
87
330
1F
100
AcDbEntity
  8
0
  6
Continuous
 62
     7
370
    15
100
AcDbSpline
210
0.0
220
0.0
230
1.0
 70
     8
 71
     3
 72
    70
 73
    66
 74
     0
 42
0.00000001
 43
0.00000001
 40
-0.0312499999999999
 40
-0.0312499999999999
 40
0.0
 40
0.0
 40
0.0312499999999999
 40
0.0312499999999999
 40
0.0624999999999998
 40
0.0624999999999998
 40
0.0937499999999997
 40
0.0937499999999997
 40
0.1249999999999996
 40
0.1249999999999996
 40
0.1562499999999995
 40
0.1562499999999995
 40
0.1874999999999994
 40
0.1874999999999994
 40
0.2187499999999993
 40
0.2187499999999993
 40
0.2499999999999992
 40
0.2499999999999992
 40
0.2812499999999993
 40
0.2812499999999993
 40
0.3124999999999993
 40
0.3124999999999993
 40
0.3437499999999994
 40
0.3437499999999994
 40
0.3749999999999995
 40
0.3749999999999995
 40
0.4062499999999996
 40
0.4062499999999996
 40
0.4374999999999996
 40
0.4374999999999996
 40
0.4687499999999997
 40
0.4687499999999997
 40
0.4999999999999998
 40
0.4999999999999998
 40
0.5312499999999999
 40
0.5312499999999999
 40
0.5625
 40
0.5625
 40
0.5937500000000001
 40
0.5937500000000001
 40
0.6250000000000002
 40
0.6250000000000002
 40
0.6562500000000004
 40
0.6562500000000004
 40
0.6875000000000006
 40
0.6875000000000006
 40
0.7187500000000007
 40
0.7187500000000007
 40
0.7500000000000008
 40
0.7500000000000008
 40
0.7812500000000007
 40
0.7812500000000007
 40
0.8125000000000006
 40
0.8125000000000006
 40
0.8437500000000004
 40
0.8437500000000004
 40
0.8750000000000003
 40
0.8750000000000003
 40
0.9062500000000003
 40
0.9062500000000003
 40
0.9375000000000002
 40
0.9375000000000002
 40
0.9687500000000001
 40
0.9687500000000001
 40
1.0
 40
1.0
 40
1.03125
 40
1.03125
 10
95.51708446900417
 20
138.7615636114639
 30
0.0
 10
94.98799379168388
 20
138.7615636114639
 30
0.0
 10
94.72792312430678
 20
138.7774640518787
 30
0.0
 10
94.21634844447135
 20
138.839408402053
 30
0.0
 10
93.96217316073115
 20
138.8862106361443
 30
0.0
 10
93.47790253066945
 20
139.0071876195993
 30
0.0
 10
93.24826143878829
 20
139.0807899474062
 30
0.0
 10
92.81365709055481
 20
139.2526142183843
 30
0.0
 10
92.60809131390819
 20
139.3516176413117
 30
0.0
 10
92.23953417331296
 20
139.5647140552246
 30
0.0
 10
92.07405319057747
 20
139.6796137713542
 30
0.0
 10
91.78162868114237
 20
139.9249806700445
 30
0.0
 10
91.65752770451589
 20
140.0534205705148
 30
0.0
 10
91.45794850776615
 20
140.3143127186007
 30
0.0
 10
91.38101492190788
 20
140.4486938899402
 30
0.0
 10
91.27815786338752
 20
140.7180138410465
 30
0.0
 10
91.25268495392838
 20
140.8506951052646
 30
0.0
 10
91.25239454336062
 20
141.1118815793957
 30
0.0
 10
91.27841917713636
 20
141.2416466175604
 30
0.0
 10
91.38056746162835
 20
141.487229251833
 30
0.0
 10
91.45614390921152
 20
141.6038907891419
 30
0.0
 10
91.65664144035644
 20
141.8257959792965
 30
0.0
 10
91.78177028186482
 20
141.9304072332195
 30
0.0
 10
92.07112908288639
 20
142.1204536448276
 30
0.0
 10
92.23654006994188
 20
142.2072133162772
 30
0.0
 10
92.6095306280897
 20
142.3647176920288
 30
0.0
 10
92.8112636611788
 20
142.433042956816
 30
0.0
 10
93.24412291200667
 20
142.5512726804352
 30
0.0
 10
93.47804144489605
 20
142.601567596539
 30
0.0
 10
93.96222518003866
 20
142.6814331334287
 30
0.0
 10
94.21154080599418
 20
142.7111742612283
 30
0.0
 10
94.72457333042189
 20
142.7513270027365
 30
0.0
 10
94.98986715332654
 20
142.7615252721464
 30
0.0
 10
95.51220177319628
 20
142.7616017305311
 30
0.0
 10
95.77195543567801
 20
142.751810718922
 30
0.0
 10
96.28856725132326
 20
142.7117438801833
 30
0.0
 10
96.54093329182354
 20
142.6816467133264
 30
0.0
 10
97.02245841335636
 20
142.6024245034963
 30
0.0
 10
97.25530914546992
 20
142.5526670240329
 30
0.0
 10
97.6923989939087
 20
142.4335750815825
 30
0.0
 10
97.89371998256587
 20
142.3652598200352
 30
0.0
 10
98.26280600786578
 20
142.2098588531017
 30
0.0
 10
98.43179075891747
 20
142.1217065110347
 30
0.0
 10
98.72224681557668
 20
141.9312671219184
 30
0.0
 10
98.8453186269388
 20
141.8286425442193
 30
0.0
 10
99.04665486836082
 20
141.6070021976113
 30
0.0
 10
99.12386741430306
 20
141.4882481220637
 30
0.0
 10
99.22607095720312
 20
141.243582183146
 30
0.0
 10
99.25229930865545
 20
141.1164254576975
 30
0.0
 10
99.25277570797256
 20
140.8519773118419
 30
0.0
 10
99.22703329547458
 20
140.7190766315848
 30
0.0
 10
99.12572251911072
 20
140.4522843581028
 30
0.0
 10
99.04888987971977
 20
140.3169204566342
 30
0.0
 10
98.8484860405046
 20
140.0543406613316
 30
0.0
 10
98.72581454221256
 20
139.9273655015779
 30
0.0
 10
98.43586725304831
 20
139.6832861154954
 30
0.0
 10
98.26729627368309
 20
139.5658609907416
 30
0.0
 10
97.89902667956993
 20
139.3526645297931
 30
0.0
 10
97.69796482229961
 20
139.2554904113682
 30
0.0
 10
97.26093390371469
 20
139.0821355241541
 30
0.0
 10
97.02878569058508
 20
139.0077359724974
 30
0.0
 10
96.54777540908621
 20
138.8872830929928
 30
0.0
 10
96.2956753262558
 20
138.8404247177268
 30
0.0
 10
95.77860583999679
 20
138.777467220743
 30
0.0
 10
95.51708446900417
 20
138.7615636114639
 30
0.0
 10
94.98799379168388
 20
138.7615636114639
 30
0.0
  0
ARC
  5
88
330
1F
100
AcDbEntity
  8
0
  6
Continuous
 62
     7
370
    15
100
AcDbCircle
 10
95.2496776239
 20
125.6132130484
 30
0.0
 40
4.110793026859891
100
AcDbArc
 50
19.1727796384
 51
159.4979304662
  0
SPLINE
  5
89
330
1F
100
AcDbEntity
  8
0
  6
Continuous
 62
     7
370
    15
100
AcDbSpline
210
0.0
220
0.0
230
1.0
 70
     8
 71
     3
 72
    10
 73
     6
 74
     0
 42
0.00000001
 43
0.00000001
 40
0.0
 40
0.0
 40
0.0
 40
0.0
 40
0.5
 40
0.5
 40
1.0
 40
1.0
 40
1.0
 40
1.0
 10
103.736836662035
 20
140.1026002166847
 30
0.0
 10
103.6152963983665
 20
140.1773263838965
 30
0.0
 10
103.5139620380175
 20
140.2862713998133
 30
0.0
 10
103.3783230951291
 20
140.5367018805749
 30
0.0
 10
103.342539130344
 20
140.6791212426738
 30
0.0
 10
103.342539130344
 20
140.8222540677205
 30
0.0
  0
SPLINE
  5
8A
330
1F
100
AcDbEntity
  8
0
  6
Continuous
 62
     7
370
    15
100
AcDbSpline
210
0.0
220
0.0
230
1.0
 70
    24
 71
     3
 72
    12
 73
     8
 74
     0
 42
0.00000001
 43
0.00000001
 40
0.0
 40
0.0
 40
0.0
 40
0.0
 40
0.2500000000000037
 40
0.2500000000000037
 40
0.5000000000000074
 40
0.5000000000000074
 40
1.0
 40
1.0
 40
1.0
 40
1.0
 10
104.142539130344
 20
140.1026002166847
 30
0.0
 10
104.0926624480266
 20
140.1026002166847
 30
0.0
 10
104.044659254623
 20
140.1026002166847
 30
0.0
 10
103.961611151911
 20
140.1026002166847
 30
0.0
 10
103.9254815724431
 20
140.1026002166847
 30
0.0
 10
103.8295695414989
 20
140.1026002166847
 30
0.0
 10
103.7798108735301
 20
140.1026002166847
 30
0.0
 10
103.736836662035
 20
140.1026002166847
 30
0.0
  0
SPLINE
  5
8B
330
1F
100
AcDbEntity
  8
0
  6
Continuous
 62
     7
370
    15
100
AcDbSpline
210
0.0
220
0.0
230
1.0
 70
    24
 71
     3
 72
    14
 73
    10
 74
     0
 42
0.00000001
 43
0.00000001
 40
0.0
 40
0.0
 40
0.0
 40
0.0
 40
0.1249999999999991
 40
0.1249999999999991
 40
0.2499999999999982
 40
0.2499999999999982
 40
0.4999999999999998
 40
0.4999999999999998
 40
1.0
 40
1.0
 40
1.0
 40
1.0
 10
104.142539130344
 20
87.30260021668474
 30
0.0
 10
104.0741012824576
 20
87.30260021668474
 30
0.0
 10
104.0085512436925
 20
87.30260021668475
 30
0.0
 10
103.9041246042845
 20
87.30260021668475
 30
0.0
 10
103.8615799945231
 20
87.30260021668475
 30
0.0
 10
103.7489705339829
 20
87.30260021668474
 30
0.0
 10
103.6934314869634
 20
87.30260021668474
 30
0.0
 10
103.5508197914996
 20
87.30260021668474
 30
0.0
 10
103.4874144365038
 20
87.30260021668474
 30
0.0
 10
103.4402139326763
 20
87.30260021668474
 30
0.0
  0
SPLINE
  5
8C
330
1F
100
AcDbEntity
  8
0
  6
Continuous
 62
     7
370
    15
100
AcDbSpline
210
0.0
220
0.0
230
1.0
 70
     8
 71
     3
 72
    10
 73
     6
 74
     0
 42
0.00000001
 43
0.00000001
 40
0.0
 40
0.0
 40
0.0
 40
0.0
 40
0.5
 40
0.5
 40
1.0
 40
1.0
 40
1.0
 40
1.0
 10
103.342539130344
 20
133.8384668481461
 30
0.0
 10
103.342539130344
 20
133.7906953401528
 30
0.0
 10
103.3447003739412
 20
133.7429856180912
 30
0.0
 10
103.3533717478013
 20
133.6476905005429
 30
0.0
 10
103.3599009307573
 20
133.5999979365762
 30
0.0
 10
103.3686867535042
 20
133.5526002166847
 30
0.0
  0
SPLINE
  5
8D
330
1F
100
AcDbEntity
  8
0
  6
Continuous
 62
     7
370
    15
100
AcDbSpline
210
0.0
220
0.0
230
1.0
 70
    24
 71
     3
 72
    14
 73
    10
 74
     0
 42
0.00000001
 43
0.00000001
 40
0.0
 40
0.0
 40
0.0
 40
0.0
 40
0.4999999999999984
 40
0.4999999999999984
 40
0.7499999999999992
 40
0.7499999999999992
 40
0.8749999999999996
 40
0.8749999999999996
 40
1.0
 40
1.0
 40
1.0
 40
1.0
 10
107.0648643280117
 20
87.30260021668474
 30
0.0
 10
107.0180796229635
 20
87.30260021668475
 30
0.0
 10
106.9560284261839
 20
87.30260021668475
 30
0.0
 10
106.8126367876333
 20
87.30260021668474
 30
0.0
 10
106.7564931340821
 20
87.30260021668474
 30
0.0
 10
106.643542111946
 20
87.30260021668475
 30
0.0
 10
106.6005413499078
 20
87.30260021668475
 30
0.0
 10
106.4964786396013
 20
87.30260021668474
 30
0.0
 10
106.4311464012444
 20
87.30260021668477
 30
0.0
 10
106.362539130344
 20
87.30260021668474
 30
0.0
  0
SPLINE
  5
8E
330
1F
100
AcDbEntity
  8
0
  6
Continuous
 62
     7
370
    15
100
AcDbSpline
210
0.0
220
0.0
230
1.0
 70
    24
 71
     3
 72
    12
 73
     8
 74
     0
 42
0.00000001
 43
0.00000001
 40
0.0
 40
0.0
 40
0.0
 40
0.0
 40
0.5000000000000017
 40
0.5000000000000017
 40
0.7500000000000008
 40
0.7500000000000008
 40
1.0
 40
1.0
 40
1.0
 40
1.0
 10
106.768241598653
 20
140.1026002166847
 30
0.0
 10
106.7251560490421
 20
140.1026002166847
 30
0.0
 10
106.6760038472928
 20
140.1026002166847
 30
0.0
 10
106.5795312530049
 20
140.1026002166847
 30
0.0
 10
106.5434296678703
 20
140.1026002166847
 30
0.0
 10
106.460323910009
 20
140.1026002166847
 30
0.0
 10
106.4123273130427
 20
140.1026002166847
 30
0.0
 10
106.362539130344
 20
140.1026002166847
 30
0.0
  0
SPLINE
  5
8F
330
1F
100
AcDbEntity
  8
0
  6
Continuous
 62
     7
370
    15
100
AcDbSpline
210
0.0
220
0.0
230
1.0
 70
     8
 71
     3
 72
    10
 73
     6
 74
     0
 42
0.00000001
 43
0.00000001
 40
0.0
 40
0.0
 40
0.0
 40
0.0
 40
0.5
 40
0.5
 40
1.0
 40
1.0
 40
1.0
 40
1.0
 10
107.162539130344
 20
140.8222540677205
 30
0.0
 10
107.162539130344
 20
140.6784840099025
 30
0.0
 10
107.1264900716251
 20
140.5360646474073
 30
0.0
 10
106.9909812108511
 20
140.2861703540501
 30
0.0
 10
106.8911052177549
 20
140.1781400178019
 30
0.0
 10
106.768241598653
 20
140.1026002166847
 30
0.0
  0
SPLINE
  5
90
330
1F
100
AcDbEntity
  8
0
  6
Continuous
 62
     7
370
    15
100
AcDbSpline
210
0.0
220
0.0
230
1.0
 70
     8
 71
     3
 72
    10
 73
     6
 74
     0
 42
0.00000001
 43
0.00000001
 40
0.0
 40
0.0
 40
0.0
 40
0.0
 40
0.5
 40
0.5
 40
1.0
 40
1.0
 40
1.0
 40
1.0
 10
107.1363915071839
 20
133.5526002166847
 30
0.0
 10
107.1450811500955
 20
133.5994790660029
 30
0.0
 10
107.1516202148461
 20
133.6469015314042
 30
0.0
 10
107.1603788492391
 20
133.742838329991
 30
0.0
 10
107.162539130344
 20
133.7907536180016
 30
0.0
 10
107.162539130344
 20
133.8384668481461
 30
0.0
  0
LINE
  5
91
330
1F
100
AcDbEntity
  8
0
  6
Continuous
 62
     7
370
    15
100
AcDbLine
 10
106.3625391303
 20
140.1026002167
 30
0.0
 11
104.1425391303
 21
140.1026002167
 31
0.0
  0
LINE
  5
92
330
1F
100
AcDbEntity
  8
0
  6
Continuous
 62
     7
370
    15
100
AcDbLine
 10
106.3625391303
 20
87.3026002167
 30
0.0
 11
104.1425391303
 21
87.3026002167
 31
0.0
  0
LINE
  5
93
330
1F
100
AcDbEntity
  8
0
  6
Continuous
 62
     7
370
    15
100
AcDbLine
 10
85.2525391303
 20
89.482169355
 30
0.0
 11
85.2525391303
 21
137.9230310784
 31
0.0
  0
LINE
  5
94
330
1F
100
AcDbEntity
  8
0
  6
Continuous
 62
     7
370
    15
100
AcDbLine
 10
65.4525391303
 20
90.4741533229
 30
0.0
 11
65.4525391303
 21
91.7388626855
 31
0.0
  0
SPLINE
  5
95
330
1F
100
AcDbEntity
  8
0
  6
Continuous
 62
     7
370
    15
100
AcDbSpline
210
0.0
220
0.0
230
1.0
 70
     8
 71
     3
 72
    14
 73
    10
 74
     0
 42
0.00000001
 43
0.00000001
 40
0.0
 40
0.0
 40
0.0
 40
0.0
 40
0.25
 40
0.25
 40
0.5
 40
0.5
 40
0.75
 40
0.75
 40
1.0
 40
1.0
 40
1.0
 40
1.0
 10
64.6742520124283
 20
92.86944889312478
 30
0.0
 10
64.73087868763038
 20
92.76175143928793
 30
0.0
 10
64.8254013479201
 20
92.65896185756861
 30
0.0
 10
65.00844632348233
 20
92.46060454534846
 30
0.0
 10
65.10007290043707
 20
92.36454503667021
 30
0.0
 10
65.25892621813026
 20
92.17701599396096
 30
0.0
 10
65.32681682575195
 20
92.08560702117741
 30
0.0
 10
65.42373385145955
 20
91.90723080026726
 30
0.0
 10
65.4525391303446
 20
91.82000889402109
 30
0.0
 10
65.45253913034459
 20
91.73886268548684
 30
0.0
  0
SPLINE
  5
96
330
1F
100
AcDbEntity
  8
0
  6
Continuous
 62
     7
370
    15
100
AcDbSpline
210
0.0
220
0.0
230
1.0
 70
     8
 71
     3
 72
    14
 73
    10
 74
     0
 42
0.00000001
 43
0.00000001
 40
0.0
 40
0.0
 40
0.0
 40
0.0
 40
0.1249999999999975
 40
0.1249999999999975
 40
0.249999999999995
 40
0.249999999999995
 40
0.4999999999999953
 40
0.4999999999999953
 40
1.0
 40
1.0
 40
1.0
 40
1.0
 10
64.05253913034402
 20
93.31613075540412
 30
0.0
 10
64.10108353900118
 20
93.3218790686844
 30
0.0
 10
64.1539988937861
 20
93.31877818002816
 30
0.0
 10
64.24929423876912
 20
93.29658333586583
 30
0.0
 10
64.28954523605408
 20
93.27935110876997
 30
0.0
 10
64.39381524956706
 20
93.22302319231791
 30
0.0
 10
64.44413722472038
 20
93.1788368463721
 30
0.0
 10
64.57182017224576
 20
93.0478289475215
 30
0.0
 10
64.62790561930802
 20
92.9575944272912
 30
0.0
 10
64.67425201242976
 20
92.86944889312532
 30
0.0
  0
SPLINE
  5
97
330
1F
100
AcDbEntity
  8
0
  6
Continuous
 62
     7
370
    15
100
AcDbSpline
210
0.0
220
0.0
230
1.0
 70
     8
 71
     3
 72
     8
 73
     4
 74
     0
 42
0.00000001
 43
0.00000001
 40
0.0
 40
0.0
 40
0.0
 40
0.0
 40
1.0
 40
1.0
 40
1.0
 40
1.0
 10
61.78401403739779
 20
93.00628546882132
 30
0.0
 10
62.51859106388075
 20
93.12491047989027
 30
0.0
 10
63.28206613327642
 20
93.22489635202655
 30
0.0
 10
64.05253913034403
 20
93.3161307554041
 30
0.0
  0
SPLINE
  5
98
330
1F
100
AcDbEntity
  8
0
  6
Continuous
 62
     7
370
    15
100
AcDbSpline
210
0.0
220
0.0
230
1.0
 70
     8
 71
     3
 72
    14
 73
    10
 74
     0
 42
0.00000001
 43
0.00000001
 40
0.0
 40
0.0
 40
0.0
 40
0.0
 40
0.500000000000001
 40
0.500000000000001
 40
0.7500000000000004
 40
0.7500000000000004
 40
0.8750000000000003
 40
0.8750000000000003
 40
1.0
 40
1.0
 40
1.0
 40
1.0
 10
56.50253913034402
 20
92.83266245128966
 30
0.0
 10
57.3946852608976
 20
92.83194022508901
 30
0.0
 10
58.2846616966912
 20
92.83652643154649
 30
0.0
 10
59.61125686376681
 20
92.86425143593802
 30
0.0
 10
60.05210379226553
 20
92.87685797356218
 30
0.0
 10
60.70854402968795
 20
92.90787412156965
 30
0.0
 10
60.92655768627983
 20
92.92021729419642
 30
0.0
 10
61.35926653996261
 20
92.9532413493597
 30
0.0
 10
61.57454300512741
 20
92.97245851449813
 30
0.0
 10
61.7840140373978
 20
93.00628546882132
 30
0.0
  0
SPLINE
  5
99
330
1F
100
AcDbEntity
  8
0
  6
Continuous
 62
     7
370
    15
100
AcDbSpline
210
0.0
220
0.0
230
1.0
 70
     8
 71
     3
 72
     8
 73
     4
 74
     0
 42
0.00000001
 43
0.00000001
 40
0.0000005163856712
 40
0.0000005163856712
 40
0.0000005163856712
 40
0.0000005163856712
 40
0.000026289209185
 40
0.000026289209185
 40
0.000026289209185
 40
0.000026289209185
 10
56.49249419992533
 20
92.84264632439753
 30
0.0
 10
56.49582193813681
 20
92.83931207752471
 30
0.0
 10
56.4991703911161
 20
92.8359841202457
 30
0.0
 10
56.50253913034399
 20
92.83266245128965
 30
0.0
  0
SPLINE
  5
9A
330
1F
100
AcDbEntity
  8
0
  6
Continuous
 62
     7
370
    15
100
AcDbSpline
210
0.0
220
0.0
230
1.0
 70
     8
 71
     3
 72
     8
 73
     4
 74
     0
 42
0.00000001
 43
0.00000001
 40
0.0000005099763573
 40
0.0000005099763573
 40
0.0000005099763573
 40
0.0000005099763573
 40
0.0000262827998699
 40
0.0000262827998699
 40
0.0000262827998699
 40
0.0000262827998699
 10
56.502539130344
 20
134.5725379820798
 30
0.0
 10
56.49917039111627
 20
134.5692163131239
 30
0.0
 10
56.49582193813713
 20
134.5658883558451
 30
0.0
 10
56.4924941999258
 20
134.5625541089724
 30
0.0
  0
SPLINE
  5
9B
330
1F
100
AcDbEntity
  8
0
  6
Continuous
 62
     7
370
    15
100
AcDbSpline
210
0.0
220
0.0
230
1.0
 70
     8
 71
     3
 72
    10
 73
     6
 74
     0
 42
0.00000001
 43
0.00000001
 40
0.0
 40
0.0
 40
0.0
 40
0.0
 40
0.5
 40
0.5
 40
1.0
 40
1.0
 40
1.0
 40
1.0
 10
60.05253913034403
 20
134.5256876085125
 30
0.0
 10
59.46495358325343
 20
134.5467531287489
 30
0.0
 10
58.87420718979304
 20
134.5575116146211
 30
0.0
 10
57.69018802449419
 20
134.5708763951568
 30
0.0
 10
57.09677403628873
 20
134.5730190378214
 30
0.0
 10
56.50253913034402
 20
134.5725379820798
 30
0.0
  0
SPLINE
  5
9C
330
1F
100
AcDbEntity
  8
0
  6
Continuous
 62
     7
370
    15
100
AcDbSpline
210
0.0
220
0.0
230
1.0
 70
     8
 71
     3
 72
    18
 73
    14
 74
     0
 42
0.00000001
 43
0.00000001
 40
0.0
 40
0.0
 40
0.0
 40
0.0
 40
0.2500000000000009
 40
0.2500000000000009
 40
0.500000000000001
 40
0.500000000000001
 40
0.7500000000000011
 40
0.7500000000000011
 40
0.875000000000001
 40
0.875000000000001
 40
0.9375000000000006
 40
0.9375000000000006
 40
1.0
 40
1.0
 40
1.0
 40
1.0
 10
61.45253913034403
 20
135.5467078890478
 30
0.0
 10
61.45253913034404
 20
135.4635009801905
 30
0.0
 10
61.41669003040576
 20
135.374764324877
 30
0.0
 10
61.29181829437183
 20
135.1926391343167
 30
0.0
 10
61.20141787672397
 20
135.0975090856901
 30
0.0
 10
60.97917522198179
 20
134.9083275765658
 30
0.0
 10
60.84941043553602
 20
134.8133824084711
 30
0.0
 10
60.60877297822451
 20
134.6751037008911
 30
0.0
 10
60.52100568008706
 20
134.6293932675887
 30
0.0
 10
60.36648159288026
 20
134.5715699623673
 30
0.0
 10
60.3098707068255
 20
134.5538551983294
 30
0.0
 10
60.1858266759189
 20
134.5293158950965
 30
0.0
 10
60.11811200090062
 20
134.5233367565582
 30
0.0
 10
60.05253913034402
 20
134.5256876085125
 30
0.0
  0
LINE
  5
9D
330
1F
100
AcDbEntity
  8
0
  6
Continuous
 62
     7
370
    15
100
AcDbLine
 10
61.4525391303
 20
135.546707889
 30
0.0
 11
61.4525391303
 21
136.7306463089
 31
0.0
  0
SPLINE
  5
9E
330
1F
100
AcDbEntity
  8
0
  6
Continuous
 62
     7
370
    15
100
AcDbSpline
210
0.0
220
0.0
230
1.0
 70
     8
 71
     3
 72
    18
 73
    14
 74
     0
 42
0.00000001
 43
0.00000001
 40
0.0
 40
0.0
 40
0.0
 40
0.0
 40
0.0010671296451833
 40
0.1270947795731636
 40
0.252405345751277
 40
0.3766468878987096
 40
0.4391415999051428
 40
0.5008278021400407
 40
0.562425570880851
 40
0.6253162439161144
 40
0.7499985144706706
 40
0.8752758950341252
 40
0.9999999999999999
 40
0.9999999999999999
 40
0.9999999999999999
 40
0.9999999999999999
 10
74.0228399704167
 20
90.0452611937684
 30
0.0
 10
74.02192813777819
 20
90.04514641523176
 30
0.0
 10
73.91332917914123
 20
90.03147633036588
 30
0.0
 10
74.3009702467911
 20
90.08239583098143
 30
0.0
 10
75.16693492862622
 20
90.18197900402792
 30
0.0
 10
76.36733885339605
 20
90.25110288717161
 30
0.0
 10
77.42491476788479
 20
90.25505511631042
 30
0.0
 10
78.25204885479096
 20
90.22756617785541
 30
0.0
 10
79.07732072242521
 20
90.1690260014476
 30
0.0
 10
80.13168594242518
 20
90.05550484171204
 30
0.0
 10
81.29352222390048
 20
89.87235401746341
 30
0.0
 10
82.24575700528406
 20
89.66775080782848
 30
0.0
 10
82.37146206609194
 20
89.63846545705242
 30
0.0
 10
82.43417549823712
 20
89.62385518721172
 30
0.0
  0
SPLINE
  5
9F
330
1F
100
AcDbEntity
  8
0
  6
Continuous
 62
     7
370
    15
100
AcDbSpline
210
0.0
220
0.0
230
1.0
 70
     8
 71
     3
 72
    18
 73
    14
 74
     0
 42
0.00000001
 43
0.00000001
 40
0.0
 40
0.0
 40
0.0
 40
0.0
 40
0.1248907792210109
 40
0.2505384020341698
 40
0.3748721840485282
 40
0.437490765334968
 40
0.4990776265894272
 40
0.5607931536353509
 40
0.6233901338664932
 40
0.7478191038417344
 40
0.8731940995934958
 40
0.9991614644710078
 40
0.9999999999999999
 40
0.9999999999999999
 40
0.9999999999999999
 40
0.9999999999999999
 10
82.43395673271323
 20
137.7812800656034
 30
0.0
 10
82.37021598000157
 20
137.7666187730053
 30
0.0
 10
82.2423482028251
 20
137.7372073397339
 30
0.0
 10
81.2903489817647
 20
137.5322542356714
 30
0.0
 10
80.12980527656143
 20
137.3489904598604
 30
0.0
 10
79.07754082447332
 20
137.2359628676116
 30
0.0
 10
78.25331370940572
 20
137.1776992200702
 30
0.0
 10
77.4257099398853
 20
137.150252832066
 30
0.0
 10
76.36689274740023
 20
137.1542376379952
 30
0.0
 10
75.16467404936523
 20
137.2233271143765
 30
0.0
 10
74.29949010967793
 20
137.3229533309332
 30
0.0
 10
73.9133496881477
 20
137.3737694045338
 30
0.0
 10
74.02142122892808
 20
137.3600972244706
 30
0.0
 10
74.02213587884836
 20
137.3600068137823
 30
0.0
  0
SPLINE
  5
A0
330
1F
100
AcDbEntity
  8
0
  6
Continuous
 62
     7
370
    15
100
AcDbSpline
210
0.0
220
0.0
230
1.0
 70
     8
 71
     3
 72
    10
 73
     6
 74
     0
 42
0.00000001
 43
0.00000001
 40
0.0
 40
0.0
 40
0.0
 40
0.0
 40
0.5
 40
0.5
 40
1.0
 40
1.0
 40
1.0
 40
1.0
 10
55.35253913034335
 20
94.01192247020725
 30
0.0
 10
55.35253913034331
 20
93.98304820534786
 30
0.0
 10
55.36273304010442
 20
93.96554464896931
 30
0.0
 10
55.38948364491256
 20
93.96501308614158
 30
0.0
 10
55.40637109684391
 20
93.98268054332114
 30
0.0
 10
55.41520250506743
 20
94.028047671904
 30
0.0
  0
LINE
  5
A1
330
1F
100
AcDbEntity
  8
0
  6
Continuous
 62
     7
370
    15
100
AcDbLine
 10
55.3525391303
 20
94.0119224702
 30
0.0
 11
55.3525391303
 21
133.3932779632
 31
0.0
  0
SPLINE
  5
A2
330
1F
100
AcDbEntity
  8
0
  6
Continuous
 62
     7
370
    15
100
AcDbSpline
210
0.0
220
0.0
230
1.0
 70
     8
 71
     3
 72
    10
 73
     6
 74
     0
 42
0.00000001
 43
0.00000001
 40
0.0
 40
0.0
 40
0.0
 40
0.0
 40
0.5
 40
0.5
 40
1.0
 40
1.0
 40
1.0
 40
1.0
 10
55.41520250506743
 20
133.3771527614655
 30
0.0
 10
55.40629821595866
 20
133.4228942806787
 30
0.0
 10
55.38978283576568
 20
133.4400851201476
 30
0.0
 10
55.36267488970406
 20
133.4397618432119
 30
0.0
 10
55.35253913034402
 20
133.4218843009155
 30
0.0
 10
55.35253913034402
 20
133.3932779631629
 30
0.0
  0
SPLINE
  5
A3
330
1F
100
AcDbEntity
  8
0
  6
Continuous
 62
     7
370
    15
100
AcDbSpline
210
0.0
220
0.0
230
1.0
 70
     8
 71
     3
 72
    26
 73
    22
 74
     0
 42
0.00000001
 43
0.00000001
 40
0.0
 40
0.0
 40
0.0
 40
0.0
 40
0.2500000000000165
 40
0.2500000000000165
 40
0.3750000000000256
 40
0.3750000000000256
 40
0.4375000000000291
 40
0.4375000000000291
 40
0.4687500000000291
 40
0.4687500000000291
 40
0.5000000000000292
 40
0.5000000000000292
 40
0.5312500000000293
 40
0.5312500000000293
 40
0.5625000000000293
 40
0.5625000000000293
 40
0.625000000000026
 40
0.625000000000026
 40
0.7500000000000173
 40
0.7500000000000173
 40
1.0
 40
1.0
 40
1.0
 40
1.0
 10
56.17669277644853
 20
134.0927195502826
 30
0.0
 10
56.13809225358006
 20
133.9749448539271
 30
0.0
 10
56.0917952510258
 20
133.8505551677652
 30
0.0
 10
55.99785590259187
 20
133.6453358354117
 30
0.0
 10
55.96254443567841
 20
133.5737629689653
 30
0.0
 10
55.89636445993273
 20
133.4578097363649
 30
0.0
 10
55.87182609326452
 20
133.4172252015546
 30
0.0
 10
55.82845334771072
 20
133.3530835196828
 30
0.0
 10
55.81294494628553
 20
133.3312170943978
 30
0.0
 10
55.77790230169849
 20
133.2856228260546
 30
0.0
 10
55.75835201097873
 20
133.2619525350872
 30
0.0
 10
55.71642473060812
 20
133.2173359757473
 30
0.0
 10
55.69377262037648
 20
133.1964559632293
 30
0.0
 10
55.65279890628985
 20
133.1655825494785
 30
0.0
 10
55.63519960639443
 20
133.1557436796461
 30
0.0
 10
55.59057262053827
 20
133.1367540639499
 30
0.0
 10
55.57001339788495
 20
133.1364297392965
 30
0.0
 10
55.51888795838828
 20
133.1456531801727
 30
0.0
 10
55.49797654539973
 20
133.1669000763897
 30
0.0
 10
55.44652663783881
 20
133.2408689552204
 30
0.0
 10
55.42886133853425
 20
133.3069870485352
 30
0.0
 10
55.41520250506743
 20
133.3771527614655
 30
0.0
  0
SPLINE
  5
A4
330
1F
100
AcDbEntity
  8
0
  6
Continuous
 62
     7
370
    15
100
AcDbSpline
210
0.0
220
0.0
230
1.0
 70
     8
 71
     3
 72
    10
 73
     6
 74
     0
 42
0.00000001
 43
0.00000001
 40
0.0
 40
0.0
 40
0.0
 40
0.0
 40
0.5
 40
0.5
 40
1.0
 40
1.0
 40
1.0
 40
1.0
 10
56.49249419992583
 20
134.5625541089724
 30
0.0
 10
56.42493494500759
 20
134.4948627161627
 30
0.0
 10
56.36129828967108
 20
134.420155551409
 30
0.0
 10
56.25107753509921
 20
134.2611894189824
 30
0.0
 10
56.20426124187659
 20
134.1768341529744
 30
0.0
 10
56.17669277644852
 20
134.0927195502826
 30
0.0
  0
SPLINE
  5
A5
330
1F
100
AcDbEntity
  8
0
  6
Continuous
 62
     7
370
    15
100
AcDbSpline
210
0.0
220
0.0
230
1.0
 70
     8
 71
     3
 72
    10
 73
     6
 74
     0
 42
0.00000001
 43
0.00000001
 40
0.0
 40
0.0
 40
0.0
 40
0.0
 40
0.5
 40
0.5
 40
1.0
 40
1.0
 40
1.0
 40
1.0
 10
56.17669277644858
 20
93.31248088308678
 30
0.0
 10
56.20417019120178
 20
93.22864408662119
 30
0.0
 10
56.25087882148944
 20
93.14433359903434
 30
0.0
 10
56.36115728423138
 20
92.98521236855147
 30
0.0
 10
56.42504482284302
 20
92.9102276244634
 30
0.0
 10
56.49249419992536
 20
92.84264632439753
 30
0.0
  0
SPLINE
  5
A6
330
1F
100
AcDbEntity
  8
0
  6
Continuous
 62
     7
370
    15
100
AcDbSpline
210
0.0
220
0.0
230
1.0
 70
     8
 71
     3
 72
    24
 73
    20
 74
     0
 42
0.00000001
 43
0.00000001
 40
0.0
 40
0.0
 40
0.0
 40
0.0
 40
0.25
 40
0.25
 40
0.374999999999999
 40
0.374999999999999
 40
0.4374999999999993
 40
0.4374999999999993
 40
0.4687499999999994
 40
0.4687499999999994
 40
0.4999999999999995
 40
0.4999999999999995
 40
0.5624999999999971
 40
0.5624999999999971
 40
0.6249999999999947
 40
0.6249999999999947
 40
0.7499999999999947
 40
0.7499999999999947
 40
1.0
 40
1.0
 40
1.0
 40
1.0
 10
55.41520250506743
 20
94.028047671904
 30
0.0
 10
55.42895562373765
 20
94.0986977298943
 30
0.0
 10
55.44672819114352
 20
94.1652958426592
 30
0.0
 10
55.49897928269887
 20
94.23939386289241
 30
0.0
 10
55.52001435828044
 20
94.26065167005397
 30
0.0
 10
55.57291476590886
 20
94.26879759620022
 30
0.0
 10
55.59402043878678
 20
94.26785779280445
 30
0.0
 10
55.64007260746476
 20
94.24684180122709
 30
0.0
 10
55.65844307944815
 20
94.23593299511948
 30
0.0
 10
55.69999471451384
 20
94.2032980841721
 30
0.0
 10
55.72256138727076
 20
94.18180610380075
 30
0.0
 10
55.78534240373077
 20
94.11334016021443
 30
0.0
 10
55.81847216469868
 20
94.06726570200934
 30
0.0
 10
55.87538985118368
 20
93.98225781367466
 30
0.0
 10
55.89957587668745
 20
93.94197751249328
 30
0.0
 10
55.96478382706721
 20
93.82704128602734
 30
0.0
 10
55.99949988725846
 20
93.75645830088034
 30
0.0
 10
56.09271515758935
 20
93.55225254180174
 30
0.0
 10
56.13838769295001
 20
93.42935415947437
 30
0.0
 10
56.17669277644856
 20
93.3124808830868
 30
0.0
  0
SPLINE
  5
A7
330
1F
100
AcDbEntity
  8
0
  6
Continuous
 62
     7
370
    15
100
AcDbSpline
210
0.0
220
0.0
230
1.0
 70
     8
 71
     3
 72
    39
 73
    35
 74
     0
 42
0.00000001
 43
0.00000001
 40
-0.0927617886635438
 40
-0.0616743377207534
 40
-0.0305000762232777
 40
0.0
 40
0.030524649038724
 40
0.0617091123274847
 40
0.0928114042030943
 40
0.1239166645987875
 40
0.1551097448555866
 40
0.1867024395610201
 40
0.2185028643386853
 40
0.2499297864556356
 40
0.2813812011877733
 40
0.3132533287757546
 40
0.3449219026473145
 40
0.3761678706300232
 40
0.4072644120179657
 40
0.4383207438064919
 40
0.4694504179505478
 40
0.500010603294407
 40
0.5305632149021468
 40
0.5617341879522706
 40
0.5928054546995096
 40
0.6239201523279645
 40
0.6551420271760798
 40
0.6867881689939811
 40
0.7186080515223827
 40
0.7500598449507896
 40
0.7814816996031498
 40
0.8133257226904106
 40
0.8449400523408592
 40
0.8761556140443514
 40
0.9072382113364562
 40
0.9383256622792466
 40
0.9694999237767223
 40
1.0
 40
1.030524649038724
 40
1.061709112327485
 40
1.092811404203094
 10
226.4139688781646
 20
107.7149600187812
 30
0.0
 10
225.2522253532427
 20
107.5960779351757
 30
0.0
 10
224.0903783844958
 20
107.7151623169396
 30
0.0
 10
222.9756908815883
 20
108.0722804994968
 30
0.0
 10
221.9461107732478
 20
108.6328497582285
 30
0.0
 10
221.0535218536104
 20
109.3879771727131
 30
0.0
 10
220.3202260860602
 20
110.3065419852009
 30
0.0
 10
219.7769117921717
 20
111.3624386256697
 30
0.0
 10
219.4316614336971
 20
112.5074024517452
 30
0.0
 10
219.3173065002117
 20
113.7001699176474
 30
0.0
 10
219.4323724459795
 20
114.8937601629127
 30
0.0
 10
219.7781000104005
 20
116.0408016340512
 30
0.0
 10
220.3217316121757
 20
117.0993564336873
 30
0.0
 10
221.0555889641037
 20
118.0194095141191
 30
0.0
 10
221.9478803172457
 20
118.7747979732442
 30
0.0
 10
222.9761925378469
 20
119.3349129321879
 30
0.0
 10
224.0904944075901
 20
119.6907944068885
 30
0.0
 10
225.2527988128074
 20
119.808931380186
 30
0.0
 10
226.4155937758313
 20
119.6904469008475
 30
0.0
 10
227.5303263625001
 20
119.3339325296862
 30
0.0
 10
228.5593961459962
 20
118.7732701436297
 30
0.0
 10
229.4514514275375
 20
118.0173816598028
 30
0.0
 10
230.1846635463438
 20
117.0973010527388
 30
0.0
 10
230.7276002719226
 20
116.0397618119904
 30
0.0
 10
231.0726435663078
 20
114.8935108806158
 30
0.0
 10
231.1877578336955
 20
113.7006738678041
 30
0.0
 10
231.0735408687767
 20
112.5073810653034
 30
0.0
 10
230.7277995911797
 20
111.361757297415
 30
0.0
 10
230.1839531566161
 20
110.3049066097484
 30
0.0
 10
229.4500681142222
 20
109.3864309286002
 30
0.0
 10
228.5572621808102
 20
108.6318655763375
 30
0.0
 10
227.5280632343612
 20
108.0718809827359
 30
0.0
 10
226.4139688781646
 20
107.7149600187812
 30
0.0
 10
225.2522253532427
 20
107.5960779351757
 30
0.0
 10
224.0903783844958
 20
107.7151623169396
 30
0.0
  0
LINE
  5
A8
330
1F
100
AcDbEntity
  8
0
  6
Continuous
 62
     7
370
    15
100
AcDbLine
 10
234.3854976073
 20
92.7026002167
 30
0.0
 11
234.3854976073
 21
134.7026002167
 31
0.0
  0
SPLINE
  5
A9
330
1F
100
AcDbEntity
  8
0
  6
Continuous
 62
     7
370
    15
100
AcDbSpline
210
0.0
220
0.0
230
1.0
 70
     8
 71
     3
 72
    33
 73
    29
 74
     0
 42
0.00000001
 43
0.00000001
 40
0.0
 40
0.0
 40
0.0
 40
0.0
 40
0.0074068918237052
 40
0.0542996568639769
 40
0.0976133060446738
 40
0.1420699329217327
 40
0.1877015808922236
 40
0.2344116123981442
 40
0.2851609176680391
 40
0.3371020639060288
 40
0.3935944109053258
 40
0.4515139202074488
 40
0.5120140338239465
 40
0.5741970311872083
 40
0.6049454831484372
 40
0.6359138923061428
 40
0.6675951565366576
 40
0.6995325532870792
 40
0.7292892136251744
 40
0.7592799260842047
 40
0.79005850001667
 40
0.8211334307316389
 40
0.8480483391299084
 40
0.8751922369618328
 40
0.9031123590515675
 40
0.9313243789414253
 40
0.9783601285758411
 40
1.0
 40
1.0
 40
1.0
 40
1.0
 10
162.696958858137
 20
134.7018808375667
 30
0.0
 10
162.6987328239063
 20
134.7021095041743
 30
0.0
 10
162.7117377029911
 20
134.7037858508285
 30
0.0
 10
162.655375142722
 20
134.6964847184959
 30
0.0
 10
162.5282960591041
 20
134.6804448266802
 30
0.0
 10
162.3264741969732
 20
134.6560939393495
 30
0.0
 10
162.0577942872618
 20
134.6259308778497
 30
0.0
 10
161.718156156083
 20
134.5914555027574
 30
0.0
 10
161.3109686028494
 20
134.5556285424896
 30
0.0
 10
160.8308361196554
 20
134.5212492542049
 30
0.0
 10
160.2912207616627
 20
134.492917245913
 30
0.0
 10
159.6969554155049
 20
134.4746406690802
 30
0.0
 10
159.0704070431605
 20
134.4700712681262
 30
0.0
 10
158.5406425877457
 20
134.4792540427252
 30
0.0
 10
158.1242567751292
 20
134.4939559666157
 30
0.0
 10
157.8179372344512
 20
134.5083396770419
 30
0.0
 10
157.5180019174457
 20
134.5258571249125
 30
0.0
 10
157.2347258950773
 20
134.5455412913008
 30
0.0
 10
156.9713647195406
 20
134.566503823958
 30
0.0
 10
156.7278215683826
 20
134.5881208724812
 30
0.0
 10
156.5003496191507
 20
134.6102656355791
 30
0.0
 10
156.3025556733267
 20
134.6310796832236
 30
0.0
 10
156.1352673613636
 20
134.6497597327791
 30
0.0
 10
155.9964711539174
 20
134.6659868759576
 30
0.0
 10
155.879820521152
 20
134.6801555808264
 30
0.0
 10
155.7721262447078
 20
134.6936182851158
 30
0.0
 10
155.7029861581536
 20
134.7025412856596
 30
0.0
 10
155.711466627626
 20
134.701447191546
 30
0.0
 10
155.7141388461828
 20
134.7011024395717
 30
0.0
  0
SPLINE
  5
AA
330
1F
100
AcDbEntity
  8
0
  6
Continuous
 62
     7
370
    15
100
AcDbSpline
210
0.0
220
0.0
230
1.0
 70
     8
 71
     3
 72
    70
 73
    66
 74
     0
 42
0.00000001
 43
0.00000001
 40
-0.03125
 40
-0.03125
 40
0.0
 40
0.0
 40
0.03125
 40
0.03125
 40
0.0625
 40
0.0625
 40
0.09375
 40
0.09375
 40
0.125
 40
0.125
 40
0.15625
 40
0.15625
 40
0.1875
 40
0.1875
 40
0.21875
 40
0.21875
 40
0.25
 40
0.25
 40
0.28125
 40
0.28125
 40
0.3125
 40
0.3125
 40
0.34375
 40
0.34375
 40
0.375
 40
0.375
 40
0.40625
 40
0.40625
 40
0.4375
 40
0.4375
 40
0.46875
 40
0.46875
 40
0.5
 40
0.5
 40
0.53125
 40
0.53125
 40
0.5625
 40
0.5625
 40
0.59375
 40
0.59375
 40
0.625
 40
0.625
 40
0.65625
 40
0.65625
 40
0.6875
 40
0.6875
 40
0.71875
 40
0.71875
 40
0.75
 40
0.75
 40
0.78125
 40
0.78125
 40
0.8125
 40
0.8125
 40
0.84375
 40
0.84375
 40
0.875
 40
0.875
 40
0.90625
 40
0.90625
 40
0.9375
 40
0.9375
 40
0.96875
 40
0.96875
 40
1.0
 40
1.0
 40
1.03125
 40
1.03125
 10
156.680110962044
 20
115.8553983242075
 30
0.0
 10
157.0186817320843
 20
116.128875483646
 30
0.0
 10
157.1981681350611
 20
116.2474590311346
 30
0.0
 10
157.5756660172947
 20
116.4518416187262
 30
0.0
 10
157.7750043136397
 20
116.5380232542896
 30
0.0
 10
158.1866443043579
 20
116.6752064700195
 30
0.0
 10
158.3959963267155
 20
116.7254887549224
 30
0.0
 10
158.8214575760194
 20
116.7911329222209
 30
0.0
 10
159.0395095598458
 20
116.8063952936137
 30
0.0
 10
159.4724179942077
 20
116.8004692747805
 30
0.0
 10
159.6863969086393
 20
116.7796773188774
 30
0.0
 10
160.1094649056212
 20
116.7028272519916
 30
0.0
 10
160.3205318482094
 20
116.6459855411255
 30
0.0
 10
160.7266297928058
 20
116.4979535363643
 30
0.0
 10
160.9210351226773
 20
116.4074588449639
 30
0.0
 10
161.2922666898795
 20
116.1927927583103
 30
0.0
 10
161.4709456732185
 20
116.066968347299
 30
0.0
 10
161.7983668010125
 20
115.7857404080625
 30
0.0
 10
161.9466592835289
 20
115.6314447541665
 30
0.0
 10
162.2108378486492
 20
115.2939418961201
 30
0.0
 10
162.3279445568027
 20
115.1078129492699
 30
0.0
 10
162.5155266500997
 20
114.7195264403322
 30
0.0
 10
162.5869852949953
 20
114.5173736075212
 30
0.0
 10
162.6824742621695
 20
114.0960103003287
 30
0.0
 10
162.7055034905557
 20
113.876631834379
 30
0.0
 10
162.6989453032302
 20
113.4458754705543
 30
0.0
 10
162.6696359291673
 20
113.2289190390301
 30
0.0
 10
162.5610747251098
 20
112.8081589292962
 30
0.0
 10
162.4831865088308
 20
112.6070079062063
 30
0.0
 10
162.2830468905274
 20
112.2219962656453
 30
0.0
 10
162.1614109578796
 20
112.0404062917095
 30
0.0
 10
161.8863832514025
 20
111.708387162043
 30
0.0
 10
161.730269800871
 20
111.5547988957229
 30
0.0
 10
161.394473587425
 20
111.2821632183573
 30
0.0
 10
161.2151984384719
 20
111.1627775675331
 30
0.0
 10
160.8350935945625
 20
110.9559058096472
 30
0.0
 10
160.6342009797946
 20
110.8689119076998
 30
0.0
 10
160.2255100731458
 20
110.7320025128425
 30
0.0
 10
160.0159720969946
 20
110.6810573985215
 30
0.0
 10
159.5864659930632
 20
110.6142302052587
 30
0.0
 10
159.3691942905555
 20
110.5990243375323
 30
0.0
 10
158.9386728619899
 20
110.6043859768861
 30
0.0
 10
158.7240360845111
 20
110.624720077954
 30
0.0
 10
158.296059260273
 20
110.7021248193528
 30
0.0
 10
158.0863313925528
 20
110.7587586422209
 30
0.0
 10
157.6826361817134
 20
110.9055288190549
 30
0.0
 10
157.4874618025052
 20
110.995848509198
 30
0.0
 10
157.1114697474643
 20
111.213100274384
 30
0.0
 10
156.9341943292123
 20
111.3383107663828
 30
0.0
 10
156.6090364226095
 20
111.6173323245658
 30
0.0
 10
156.4598623517386
 20
111.7718101491579
 30
0.0
 10
156.1916797836326
 20
112.1146318452082
 30
0.0
 10
156.0767887524324
 20
112.2981551821892
 30
0.0
 10
155.8901732261883
 20
112.6843336920971
 30
0.0
 10
155.8172040281171
 20
112.8902909579743
 30
0.0
 10
155.721668955223
 20
113.3148026836893
 30
0.0
 10
155.6994593191757
 20
113.5291200674665
 30
0.0
 10
155.706296795596
 20
113.9618928283533
 30
0.0
 10
155.7363497394676
 20
114.1808415127011
 30
0.0
 10
155.8447911034282
 20
114.599034277416
 30
0.0
 10
155.924167774769
 20
114.8035134635235
 30
0.0
 10
156.1252909697404
 20
115.1885058347301
 30
0.0
 10
156.2456605403439
 20
115.367737403187
 30
0.0
 10
156.5231832997909
 20
115.7016819413308
 30
0.0
 10
156.680110962044
 20
115.8553983242075
 30
0.0
 10
157.0186817320843
 20
116.128875483646
 30
0.0
  0
LINE
  5
AB
330
1F
100
AcDbEntity
  8
0
  6
Continuous
 62
     7
370
    15
100
AcDbLine
 10
156.8493963464
 20
92.8277823312
 30
0.0
 11
156.7425670587
 21
92.817557561
 31
0.0
  0
SPLINE
  5
AC
330
1F
100
AcDbEntity
  8
0
  6
Continuous
 62
     7
370
    15
100
AcDbSpline
210
0.0
220
0.0
230
1.0
 70
     8
 71
     3
 72
    33
 73
    29
 74
     0
 42
0.00000001
 43
0.00000001
 40
0.0
 40
0.0
 40
0.0
 40
0.0
 40
0.0020165658146547
 40
0.0491782266485725
 40
0.0924824524149995
 40
0.136940390221532
 40
0.1823450999717694
 40
0.2288265498632623
 40
0.2792409882785206
 40
0.330836791701324
 40
0.387026499498577
 40
0.4446280395690276
 40
0.5049734472833628
 40
0.5669883887891557
 40
0.5977442488477308
 40
0.6287191419082327
 40
0.6604024522145123
 40
0.6923396283586433
 40
0.722204723387181
 40
0.7523032850016605
 40
0.783186227420762
 40
0.8143636095243604
 40
0.8414834318328004
 40
0.8688336106132153
 40
0.8969656668072248
 40
0.9253923799219814
 40
0.9727753216720084
 40
1.0
 40
1.0
 40
1.0
 40
1.0
 10
155.704281147356
 20
92.7028244308642
 30
0.0
 10
155.7037041936645
 20
92.70275017558302
 30
0.0
 10
155.6896339564311
 20
92.70093930334593
 30
0.0
 10
155.7402656619286
 20
92.70749795261344
 30
0.0
 10
155.8577176866629
 20
92.72238329037039
 30
0.0
 10
156.0519256633018
 20
92.74597211441424
 30
0.0
 10
156.3127018397971
 20
92.775528330227
 30
0.0
 10
156.6441801851014
 20
92.8096353075831
 30
0.0
 10
157.0432887443825
 20
92.8454312566832
 30
0.0
 10
157.5156129757824
 20
92.8802134240446
 30
0.0
 10
158.0483359708618
 20
92.90943493433285
 30
0.0
 10
158.6375464520445
 20
92.92909747900998
 30
0.0
 10
159.2611646909752
 20
92.93538583542889
 30
0.0
 10
159.7908911455291
 20
92.92771071377098
 30
0.0
 10
160.2086818174249
 20
92.9141191662575
 30
0.0
 10
160.5170393231353
 20
92.9004704526634
 30
0.0
 10
160.819575731277
 20
92.8835841342705
 30
0.0
 10
161.1063180542072
 20
92.86436407538648
 30
0.0
 10
161.3739417558989
 20
92.84367539609495
 30
0.0
 10
161.6224712551774
 20
92.82213688744967
 30
0.0
 10
161.8554600408155
 20
92.79989466598671
 30
0.0
 10
162.0593164296666
 20
92.77878105272423
 30
0.0
 10
162.2330048913779
 20
92.75963302079704
 30
0.0
 10
162.3784131062025
 20
92.74280448315716
 30
0.0
 10
162.5017774458725
 20
92.72793652612532
 30
0.0
 10
162.6182480282749
 20
92.7134568369098
 30
0.0
 10
162.6974293963696
 20
92.70326326691313
 30
0.0
 10
162.692543298157
 20
92.70389174349182
 30
0.0
 10
162.6907603374892
 20
92.70412107760909
 30
0.0
  0
LINE
  5
AD
330
1F
100
AcDbEntity
  8
0
  6
Continuous
 62
     7
370
    15
100
AcDbLine
 10
156.9525372824
 20
92.8361888164
 30
0.0
 11
156.8493963464
 21
92.8277823312
 31
0.0
  0
CIRCLE
  5
AE
330
1F
100
AcDbEntity
  8
0
  6
Continuous
 62
     7
370
    15
100
AcDbCircle
 10
159.2025391303
 20
113.7026002167
 30
0.0
 40
2.5
  0
LINE
  5
AF
330
1F
100
AcDbEntity
  8
0
  6
Continuous
 62
     7
370
    15
100
AcDbLine
 10
107.1625391303
 20
133.8384668481
 30
0.0
 11
107.1625391303
 21
134.7527438843
 31
0.0
  0
SPLINE
  5
B0
330
1F
100
AcDbEntity
  8
0
  6
Continuous
 62
     7
370
    15
100
AcDbSpline
210
0.0
220
0.0
230
1.0
 70
     8
 71
     3
 72
     8
 73
     4
 74
     0
 42
0.00000001
 43
0.00000001
 40
0.0
 40
0.0
 40
0.0
 40
0.0
 40
1.0
 40
1.0
 40
1.0
 40
1.0
 10
107.162539130344
 20
134.7527438842681
 30
0.0
 10
107.6418172809339
 20
135.8937551141207
 30
0.0
 10
108.1373851200738
 20
137.0301395248885
 30
0.0
 10
108.6444719618331
 20
138.1612898790522
 30
0.0
  0
LINE
  5
B1
330
1F
100
AcDbEntity
  8
0
  6
Continuous
 62
     7
370
    15
100
AcDbLine
 10
108.6444719618
 20
138.1612898791
 30
0.0
 11
112.6025391303
 21
138.1612898791
 31
0.0
  0
SPLINE
  5
B2
330
1F
100
AcDbEntity
  8
0
  6
Continuous
 62
     7
370
    15
100
AcDbSpline
210
0.0
220
0.0
230
1.0
 70
     8
 71
     3
 72
    12
 73
     8
 74
     0
 42
0.00000001
 43
0.00000001
 40
0.0
 40
0.0
 40
0.0
 40
0.0
 40
0.25
 40
0.25
 40
0.5
 40
0.5
 40
1.0
 40
1.0
 40
1.0
 40
1.0
 10
112.602539130344
 20
138.1612898790522
 30
0.0
 10
112.6937388521697
 20
138.1612898790522
 30
0.0
 10
112.7843338613057
 20
138.1330701804643
 30
0.0
 10
112.9377465877523
 20
138.0386271732162
 30
0.0
 10
113.002955455076
 20
137.9723401965109
 30
0.0
 10
113.155739984416
 20
137.7467153732226
 30
0.0
 10
113.202539130344
 20
137.56428911019
 30
0.0
 10
113.202539130344
 20
137.3835524779431
 30
0.0
  0
LINE
  5
B3
330
1F
100
AcDbEntity
  8
0
  6
Continuous
 62
     7
370
    15
100
AcDbLine
 10
113.2025391303
 20
137.3835524779
 30
0.0
 11
113.2025391303
 21
133.5526002167
 31
0.0
  0
SPLINE
  5
B4
330
1F
100
AcDbEntity
  8
0
  6
Continuous
 62
     7
370
    15
100
AcDbSpline
210
0.0
220
0.0
230
1.0
 70
     8
 71
     3
 72
     8
 73
     4
 74
     0
 42
0.00000001
 43
0.00000001
 40
0.0
 40
0.0
 40
0.0
 40
0.0
 40
1.0
 40
1.0
 40
1.0
 40
1.0
 10
108.6444719618331
 20
144.169795689849
 30
0.0
 10
108.1493319324688
 20
143.2831160416687
 30
0.0
 10
107.6552492271898
 20
142.3958534059827
 30
0.0
 10
107.162539130344
 20
141.5078344078563
 30
0.0
  0
LINE
  5
B5
330
1F
100
AcDbEntity
  8
0
  6
Continuous
 62
     7
370
    15
100
AcDbLine
 10
108.6444719618
 20
138.1612898791
 30
0.0
 11
108.6444719618
 21
144.1697956898
 31
0.0
  0
LINE
  5
B6
330
1F
100
AcDbEntity
  8
0
  6
Continuous
 62
     7
370
    15
100
AcDbLine
 10
107.1625391303
 20
134.7527438843
 30
0.0
 11
107.1625391303
 21
141.5078344079
 31
0.0
  0
SPLINE
  5
B7
330
1F
100
AcDbEntity
  8
0
  6
Continuous
 62
     7
370
    15
100
AcDbSpline
210
0.0
220
0.0
230
1.0
 70
     8
 71
     3
 72
     8
 73
     4
 74
     0
 42
0.00000001
 43
0.00000001
 40
0.0
 40
0.0
 40
0.0
 40
0.0
 40
1.0
 40
1.0
 40
1.0
 40
1.0
 10
101.860606298855
 20
138.1612898790522
 30
0.0
 10
102.3676931406142
 20
137.0301395248885
 30
0.0
 10
102.8632609797542
 20
135.8937551141207
 30
0.0
 10
103.342539130344
 20
134.7527438842681
 30
0.0
  0
LINE
  5
B8
330
1F
100
AcDbEntity
  8
0
  6
Continuous
 62
     7
370
    15
100
AcDbLine
 10
103.3425391303
 20
134.7527438843
 30
0.0
 11
103.3425391303
 21
133.8384668481
 31
0.0
  0
SPLINE
  5
B9
330
1F
100
AcDbEntity
  8
0
  6
Continuous
 62
     7
370
    15
100
AcDbSpline
210
0.0
220
0.0
230
1.0
 70
     8
 71
     3
 72
    10
 73
     6
 74
     0
 42
0.00000001
 43
0.00000001
 40
0.0
 40
0.0
 40
0.0
 40
0.0
 40
0.5
 40
0.5
 40
1.0
 40
1.0
 40
1.0
 40
1.0
 10
113.202539130344
 20
143.5490405404487
 30
0.0
 10
113.202539130344
 20
143.7094458067995
 30
0.0
 10
113.1403012992372
 20
143.868507619788
 30
0.0
 10
112.9211663754946
 20
144.0994200854184
 30
0.0
 10
112.7635776805027
 20
144.169795689849
 30
0.0
 10
112.602539130344
 20
144.169795689849
 30
0.0
  0
LINE
  5
BA
330
1F
100
AcDbEntity
  8
0
  6
Continuous
 62
     7
370
    15
100
AcDbLine
 10
113.2025391303
 20
137.3835524779
 30
0.0
 11
113.2025391303
 21
143.5490405404
 31
0.0
  0
LINE
  5
BB
330
1F
100
AcDbEntity
  8
0
  6
Continuous
 62
     7
370
    15
100
AcDbLine
 10
112.6025391303
 20
144.1697956898
 30
0.0
 11
108.6444719618
 21
144.1697956898
 31
0.0
  0
SPLINE
  5
BC
330
1F
100
AcDbEntity
  8
0
  6
Continuous
 62
     7
370
    15
100
AcDbSpline
210
0.0
220
0.0
230
1.0
 70
     8
 71
     3
 72
     8
 73
     4
 74
     0
 42
0.00000001
 43
0.00000001
 40
0.0
 40
0.0
 40
0.0
 40
0.0
 40
1.0
 40
1.0
 40
1.0
 40
1.0
 10
103.342539130344
 20
141.5078344078564
 30
0.0
 10
102.8498290334983
 20
142.3958534059827
 30
0.0
 10
102.3557463282193
 20
143.2831160416687
 30
0.0
 10
101.860606298855
 20
144.169795689849
 30
0.0
  0
LINE
  5
BD
330
1F
100
AcDbEntity
  8
0
  6
Continuous
 62
     7
370
    15
100
AcDbLine
 10
103.3425391303
 20
134.7527438843
 30
0.0
 11
103.3425391303
 21
141.5078344079
 31
0.0
  0
ARC
  5
BE
330
1F
100
AcDbEntity
  8
0
  6
Continuous
 62
     7
370
    15
100
AcDbCircle
 10
95.2526206178
 20
132.4713297658
 30
0.0
 40
7.189591690268746
100
AcDbArc
 50
70.6423071679
 51
109.3836548569
  0
LINE
  5
BF
330
1F
100
AcDbEntity
  8
0
  6
Continuous
 62
     7
370
    15
100
AcDbLine
 10
247.2525391303
 20
99.9767407383
 30
0.0
 11
247.2525391303
 21
127.4284596951
 31
0.0
  0
CIRCLE
  5
C0
330
1F
100
AcDbEntity
  8
0
  6
Continuous
 62
     7
370
    15
100
AcDbCircle
 10
225.2525391303
 20
113.7026002167
 30
0.0
 40
5.099999999999978
  0
LINE
  5
C1
330
1F
100
AcDbEntity
  8
0
  6
Continuous
 62
     7
370
    15
100
AcDbLine
 10
223.9455958589
 20
116.9106992309
 30
0.0
 11
221.8207722504
 21
114.1748036495
 31
0.0
  0
LINE
  5
C2
330
1F
100
AcDbEntity
  8
0
  6
Continuous
 62
     7
370
    15
100
AcDbLine
 10
223.1277155218
 20
110.9667046352
 30
0.0
 11
221.8207722504
 21
114.1748036495
 31
0.0
  0
LINE
  5
C3
330
1F
100
AcDbEntity
  8
0
  6
Continuous
 62
     7
370
    15
100
AcDbLine
 10
226.5594824018
 20
110.4945012024
 30
0.0
 11
223.1277155218
 21
110.9667046352
 31
0.0
  0
LINE
  5
C4
330
1F
100
AcDbEntity
  8
0
  6
Continuous
 62
     7
370
    15
100
AcDbLine
 10
226.5594824018
 20
110.4945012024
 30
0.0
 11
228.6843060103
 21
113.2303967839
 31
0.0
  0
LINE
  5
C5
330
1F
100
AcDbEntity
  8
0
  6
Continuous
 62
     7
370
    15
100
AcDbLine
 10
227.3773627389
 20
116.4384957982
 30
0.0
 11
228.6843060103
 21
113.2303967839
 31
0.0
  0
LINE
  5
C6
330
1F
100
AcDbEntity
  8
0
  6
Continuous
 62
     7
370
    15
100
AcDbLine
 10
227.3773627389
 20
116.4384957982
 30
0.0
 11
223.9455958589
 21
116.9106992309
 31
0.0
  0
LINE
  5
C7
330
1F
100
AcDbEntity
  8
0
  6
Continuous
 62
     7
370
    15
100
AcDbLine
 10
247.3234469895
 20
105.1014262617
 30
0.0
 11
247.317440066
 21
105.0612237538
 31
0.0
  0
ARC
  5
C8
330
1F
100
AcDbEntity
  8
0
  6
Continuous
 62
     7
370
    15
100
AcDbCircle
 10
226.4372311773
 20
105.6757250383
 30
0.0
 40
20.89410993645751
100
AcDbArc
 50
358.4249608716
 51
4.9777245001
  0
LWPOLYLINE
  5
C9
330
1F
100
AcDbEntity
  8
0
  6
Continuous
 62
     7
370
    15
100
AcDbPolyline
 90
        7
 70
   128
 43
0.0
 10
247.3270432398
 20
122.0724299666
 10
247.3215294542
 20
122.2946675283
 10
247.3096050337
 20
122.3390583033
 10
247.2930853633
 20
122.1988441985
 10
247.2744854132
 20
121.8953715403
 10
247.256636857
 20
121.4748412899
 10
247.2525391303
 20
121.3562429946
  0
ARC
  5
CA
330
1F
100
AcDbEntity
  8
0
  6
Continuous
 62
     7
370
    15
100
AcDbCircle
 10
223.570815772
 20
121.8252736965
 30
0.0
 40
23.75751312163848
100
AcDbArc
 50
355.422188147
 51
0.5960752934
  0
LINE
  5
CB
330
1F
100
AcDbEntity
  8
0
  6
Continuous
 62
     7
370
    15
100
AcDbLine
 10
247.2594761449
 20
121.2634668081
 30
0.0
 11
247.2525391303
 21
120.8590865628
 31
0.0
  0
LINE
  5
CC
330
1F
100
AcDbEntity
  8
0
  6
Continuous
 62
     7
370
    15
100
AcDbLine
 10
247.2655469422
 20
120.3177140891
 30
0.0
 11
247.2525391303
 21
120.4070590196
 31
0.0
  0
LINE
  5
CD
330
1F
100
AcDbEntity
  8
0
  6
Continuous
 62
     7
370
    15
100
AcDbLine
 10
247.2993657977
 20
120.9894823514
 30
0.0
 11
247.2655469422
 21
120.3177140891
 31
0.0
  0
LINE
  5
CE
330
1F
100
AcDbEntity
  8
0
  6
Continuous
 62
     7
370
    15
100
AcDbLine
 10
247.2993657977
 20
120.9894823514
 30
0.0
 11
247.3132398269
 21
121.798242842
 31
0.0
  0
LINE
  5
CF
330
1F
100
AcDbEntity
  8
0
  6
Continuous
 62
     7
370
    15
100
AcDbLine
 10
247.2932950005
 20
121.9352350704
 30
0.0
 11
247.3132398269
 21
121.798242842
 31
0.0
  0
LINE
  5
D0
330
1F
100
AcDbEntity
  8
0
  6
Continuous
 62
     7
370
    15
100
AcDbLine
 10
247.2932950005
 20
121.9352350704
 30
0.0
 11
247.2594761449
 21
121.2634668081
 31
0.0
  0
LINE
  5
D1
330
1F
100
AcDbEntity
  8
0
  6
Continuous
 62
     7
370
    15
100
AcDbLine
 10
247.2864358846
 20
121.7989875172
 30
0.0
 11
247.3132398269
 21
121.798242842
 31
0.0
  0
LINE
  5
D2
330
1F
100
AcDbEntity
  8
0
  6
Continuous
 62
     7
370
    15
100
AcDbLine
 10
247.2547972699
 20
120.9907205676
 30
0.0
 11
247.2993657977
 21
120.9894823514
 31
0.0
  0
LINE
  5
D3
330
1F
100
AcDbEntity
  8
0
  6
HIDDEN
 62
     7
370
     0
100
AcDbLine
 10
101.8606062989
 20
138.1612898791
 30
0.0
 11
101.8606062989
 21
133.5526002167
 31
0.0
  0
ARC
  5
D4
330
1F
100
AcDbEntity
  8
0
  6
HIDDEN
 62
     7
370
     0
100
AcDbCircle
 10
95.5324947697
 20
126.2015206635
 30
0.0
 40
3.679671107484544
100
AcDbArc
 50
265.6366231594
 51
11.9475363038
  0
ARC
  5
D5
330
1F
100
AcDbEntity
  8
0
  6
HIDDEN
 62
     7
370
     0
100
AcDbCircle
 10
94.9693283087
 20
126.1936157681
 30
0.0
 40
3.672038798844923
100
AcDbArc
 50
166.4655616651
 51
274.4234051753
  0
LINE
  5
D6
330
1F
100
AcDbEntity
  8
0
  6
HIDDEN
 62
     7
370
     0
100
AcDbLine
 10
75.2476893349
 20
90.1780005939
 30
0.0
 11
74.7135439058
 21
90.1233859944
 31
0.0
  0
LINE
  5
D7
330
1F
100
AcDbEntity
  8
0
  6
HIDDEN
 62
     7
370
     0
100
AcDbLine
 10
74.4758902337
 20
137.3059333972
 30
0.0
 11
75.2475966146
 21
137.2271832467
 31
0.0
  0
SPLINE
  5
D8
330
1F
100
AcDbEntity
  8
0
  6
HIDDEN
 62
     7
370
     0
100
AcDbSpline
210
0.0
220
0.0
230
1.0
 70
     8
 71
     3
 72
    90
 73
    86
 74
     0
 42
0.00000001
 43
0.00000001
 40
-0.0312500000000002
 40
-0.0312500000000002
 40
0.0
 40
0.0
 40
0.0312499999999959
 40
0.0312499999999959
 40
0.0468749999999938
 40
0.0468749999999938
 40
0.0624999999999918
 40
0.0624999999999918
 40
0.0937499999999877
 40
0.0937499999999877
 40
0.1249999999999837
 40
0.1249999999999837
 40
0.1562499999999796
 40
0.1562499999999796
 40
0.1718749999999776
 40
0.1718749999999776
 40
0.1874999999999755
 40
0.1874999999999755
 40
0.2187499999999724
 40
0.2187499999999724
 40
0.2499999999999692
 40
0.2499999999999692
 40
0.2656249999999677
 40
0.2656249999999677
 40
0.2812499999999661
 40
0.2812499999999661
 40
0.3124999999999635
 40
0.3124999999999635
 40
0.3281249999999621
 40
0.3281249999999621
 40
0.3437499999999608
 40
0.3437499999999608
 40
0.3593749999999595
 40
0.3593749999999595
 40
0.3749999999999581
 40
0.3749999999999581
 40
0.406249999999957
 40
0.406249999999957
 40
0.437499999999956
 40
0.437499999999956
 40
0.4687499999999549
 40
0.4687499999999549
 40
0.4843749999999555
 40
0.4843749999999555
 40
0.4999999999999561
 40
0.4999999999999561
 40
0.5312499999999597
 40
0.5312499999999597
 40
0.5624999999999633
 40
0.5624999999999633
 40
0.578124999999965
 40
0.578124999999965
 40
0.5937499999999669
 40
0.5937499999999669
 40
0.6249999999999705
 40
0.6249999999999705
 40
0.656249999999974
 40
0.656249999999974
 40
0.6874999999999776
 40
0.6874999999999776
 40
0.7031249999999792
 40
0.7031249999999792
 40
0.718749999999981
 40
0.718749999999981
 40
0.7499999999999845
 40
0.7499999999999845
 40
0.781249999999988
 40
0.781249999999988
 40
0.8124999999999916
 40
0.8124999999999916
 40
0.8437499999999951
 40
0.8437499999999951
 40
0.8593749999999962
 40
0.8593749999999962
 40
0.8749999999999972
 40
0.8749999999999972
 40
0.8906249999999983
 40
0.8906249999999983
 40
0.9062499999999993
 40
0.9062499999999993
 40
0.9374999999999996
 40
0.9374999999999996
 40
0.9687499999999998
 40
0.9687499999999998
 40
1.0
 40
1.0
 40
1.031249999999996
 40
1.031249999999996
 10
225.627441886977
 20
108.1852605643107
 30
0.0
 10
224.8776363737111
 20
108.1852605643107
 30
0.0
 10
224.508688707538
 20
108.2191487427703
 30
0.0
 10
223.9638519379256
 20
108.3190269606029
 30
0.0
 10
223.783680567203
 20
108.3605553579417
 30
0.0
 10
223.4262819848489
 20
108.4605203315543
 30
0.0
 10
223.2481892909363
 20
108.5193401536186
 30
0.0
 10
222.7283116374859
 20
108.7185545252562
 30
0.0
 10
222.39886366547
 20
108.8816448689194
 30
0.0
 10
221.7739392012794
 20
109.2688521783817
 30
0.0
 10
221.4757675175739
 20
109.4960058299112
 30
0.0
 10
220.9378149420904
 20
109.9976466917895
 30
0.0
 10
220.6958484249071
 20
110.2725409318505
 30
0.0
 10
220.3742965301007
 20
110.7224822336599
 30
0.0
 10
220.2735222710301
 20
110.8797812252063
 30
0.0
 10
220.0897867885059
 20
111.2021384844351
 30
0.0
 10
220.0068012181663
 20
111.3669437886157
 30
0.0
 10
219.7839473994703
 20
111.8720950721539
 30
0.0
 10
219.6698951975035
 20
112.2230619394146
 30
0.0
 10
219.5145389670625
 20
112.9552351067758
 30
0.0
 10
219.4758978137774
 20
113.3251500608932
 30
0.0
 10
219.475124695673
 20
113.8801177567128
 30
0.0
 10
219.4844107670535
 20
114.0654271367748
 30
0.0
 10
219.5225762342592
 20
114.4367025816829
 30
0.0
 10
219.5516049852688
 20
114.6225877938247
 30
0.0
 10
219.6660089912064
 20
115.1677589033777
 30
0.0
 10
219.77875256714
 20
115.519286912722
 30
0.0
 10
220.0022793829908
 20
116.0289804680543
 30
0.0
 10
220.086357621834
 20
116.1964953529283
 30
0.0
 10
220.2692334066606
 20
116.5184220838071
 30
0.0
 10
220.3683284323595
 20
116.6736881154868
 30
0.0
 10
220.5814411480814
 20
116.9732099582427
 30
0.0
 10
220.6954599727427
 20
117.1174647710713
 30
0.0
 10
220.9384850601859
 20
117.3950168384792
 30
0.0
 10
221.0682467424993
 20
117.5289750470313
 30
0.0
 10
221.4740264190469
 20
117.9079763430005
 30
0.0
 10
221.7660635552748
 20
118.1307965179065
 30
0.0
 10
222.3917579179799
 20
118.5198088415006
 30
0.0
 10
222.7284199827811
 20
118.6865712463659
 30
0.0
 10
223.4181184892657
 20
118.9510918833708
 30
0.0
 10
223.7734865095735
 20
119.0508939087558
 30
0.0
 10
224.3224343056363
 20
119.1520944000105
 30
0.0
 10
224.5087707014228
 20
119.177675680403
 30
0.0
 10
224.8794524935072
 20
119.2114497504793
 30
0.0
 10
225.0645799371811
 20
119.2198478241696
 30
0.0
 10
225.6193350243246
 20
119.2201217033742
 30
0.0
 10
225.9883412956425
 20
119.187327694735
 30
0.0
 10
226.7246233171948
 20
119.0527512542367
 30
0.0
 10
227.0813007392698
 20
118.9527880878058
 30
0.0
 10
227.597136948437
 20
118.7556535339113
 30
0.0
 10
227.766012695318
 20
118.6819919975398
 30
0.0
 10
228.0974874253069
 20
118.5182869079358
 30
0.0
 10
228.2609537498643
 20
118.4276662025903
 30
0.0
 10
228.7333178779873
 20
118.1350221412894
 30
0.0
 10
229.0249692992271
 20
117.9126591387934
 30
0.0
 10
229.5621875490718
 20
117.4128606076408
 30
0.0
 10
229.8100373132637
 20
117.1316475968792
 30
0.0
 10
230.2383403256734
 20
116.5320952441951
 30
0.0
 10
230.4205605096739
 20
116.2134250109878
 30
0.0
 10
230.6450444483113
 20
115.7060590702948
 30
0.0
 10
230.7120032959363
 20
115.5308704187345
 30
0.0
 10
230.8265783063964
 20
115.1765670784955
 30
0.0
 10
230.8742995394358
 20
114.9976345423471
 30
0.0
 10
230.9894102559034
 20
114.4555916320449
 30
0.0
 10
231.0290585927687
 20
114.0870417035868
 30
0.0
 10
231.0303281950227
 20
113.3362991466657
 30
0.0
 10
230.9919754864739
 20
112.9676634357032
 30
0.0
 10
230.8406134416981
 20
112.2432440938725
 30
0.0
 10
230.7254916862535
 20
111.8838481609014
 30
0.0
 10
230.4283536460032
 20
111.2066314326325
 30
0.0
 10
230.2466757262956
 20
110.8863513348182
 30
0.0
 10
229.9244789344812
 20
110.4330044612723
 30
0.0
 10
229.8087290782645
 20
110.2866498604052
 30
0.0
 10
229.5656549138366
 20
110.0091827952903
 30
0.0
 10
229.4377561885552
 20
109.877216862004
 30
0.0
 10
229.1695006858587
 20
109.6264104793438
 30
0.0
 10
229.0291433138226
 20
109.5075708722842
 30
0.0
 10
228.7358700268601
 20
109.2829955973886
 30
0.0
 10
228.582154260035
 20
109.1768226013128
 30
0.0
 10
228.1103708705671
 20
108.8836717667803
 30
0.0
 10
227.7804617701302
 20
108.720357142612
 30
0.0
 10
227.0906695065817
 20
108.4552650644924
 30
0.0
 10
226.7279380298721
 20
108.3534545909905
 30
0.0
 10
225.9976239041999
 20
108.2191766771126
 30
0.0
 10
225.627441886977
 20
108.1852605643107
 30
0.0
 10
224.8776363737111
 20
108.1852605643107
 30
0.0
  0
SPLINE
  5
D9
330
1F
100
AcDbEntity
  8
0
  6
HIDDEN
 62
     7
370
     0
100
AcDbSpline
210
0.0
220
0.0
230
1.0
 70
     8
 71
     3
 72
    45
 73
    41
 74
     0
 42
0.00000001
 43
0.00000001
 40
-0.075452558348712
 40
-0.0624582876444644
 40
-0.0297178004941909
 40
0.0
 40
0.0297087962983755
 40
0.0624230266872706
 40
0.0901528007781355
 40
0.1249931446062072
 40
0.1466449327583743
 40
0.1670227894596974
 40
0.1861328429917956
 40
0.2039826041952524
 40
0.2205813722448935
 40
0.2359407968747416
 40
0.2500756715097777
 40
0.284947059766062
 40
0.3265208474022064
 40
0.3749037100796075
 40
0.3933016039447901
 40
0.4098753360602478
 40
0.4246263163936941
 40
0.4375568183423209
 40
0.470268811527377
 40
0.500024006642933
 40
0.5297575339394981
 40
0.56245548990083
 40
0.5900900246874122
 40
0.6249974600184517
 40
0.64857803402827
 40
0.6694778225522788
 40
0.6877019222769788
 40
0.7203344941553188
 40
0.7501727464243946
 40
0.7849806724433069
 40
0.8265068160220016
 40
0.8748580847785349
 40
0.8932075216376697
 40
0.9097701516952948
 40
0.924547441651288
 40
0.9375417123555356
 40
0.9702821995058091
 40
1.0
 40
1.029708796298376
 40
1.062423026687271
 40
1.090152800778136
 10
224.2565421328155
 20
108.641230083203
 30
0.0
 10
225.2524170936701
 20
108.5473261768091
 30
0.0
 10
226.2481617717572
 20
108.6412083849475
 30
0.0
 10
227.1829640336684
 20
108.9217296535969
 30
0.0
 10
228.0896581033771
 20
109.3950662667815
 30
0.0
 10
228.7944364425816
 20
109.9611724645604
 30
0.0
 10
229.3340216557645
 20
110.5788084550395
 30
0.0
 10
229.6965760617842
 20
111.1237555474469
 30
0.0
 10
229.9714808242377
 20
111.6739825650806
 30
0.0
 10
230.1675308140056
 20
112.2154726601682
 30
0.0
 10
230.2945768973252
 20
112.7368833492301
 30
0.0
 10
230.3631115560264
 20
113.229699939438
 30
0.0
 10
230.3945198994361
 20
113.9242911339216
 30
0.0
 10
230.2862526663458
 20
114.9043588995864
 30
0.0
 10
229.8199832423145
 20
116.175538820541
 30
0.0
 10
229.1232827850519
 20
117.121654980741
 30
0.0
 10
228.4605453800542
 20
117.712372360965
 30
0.0
 10
228.0282135339918
 20
118.0206391581433
 30
0.0
 10
227.6179253039498
 20
118.2563112124009
 30
0.0
 10
227.0314771975792
 20
118.5287921649958
 30
0.0
 10
226.2493402709703
 20
118.7638210183998
 30
0.0
 10
225.2531050791559
 20
118.8579379389114
 30
0.0
 10
224.2568512120691
 20
118.7639890238976
 30
0.0
 10
223.3229582009033
 20
118.4836886066981
 30
0.0
 10
222.4166033900912
 20
118.010883168544
 30
0.0
 10
221.6956645520405
 20
117.4322719920189
 30
0.0
 10
221.1418974730273
 20
116.7908974000261
 30
0.0
 10
220.7777300577288
 20
116.2271489717833
 30
0.0
 10
220.442353819385
 20
115.5349856419475
 30
0.0
 10
220.1910163033958
 20
114.697761497813
 30
0.0
 10
220.091881027773
 20
113.6466868975051
 30
0.0
 10
220.2195375433014
 20
112.4986890625444
 30
0.0
 10
220.6856082414692
 20
111.2289132998089
 30
0.0
 10
221.3814797917271
 20
110.2840434977244
 30
0.0
 10
222.0433346522769
 20
109.6938311024359
 30
0.0
 10
222.475249039226
 20
109.3855912138992
 30
0.0
 10
222.8861912594972
 20
109.149341937923
 30
0.0
 10
223.4737835002642
 20
108.8762686740938
 30
0.0
 10
224.2565421328155
 20
108.641230083203
 30
0.0
 10
225.2524170936701
 20
108.5473261768091
 30
0.0
 10
226.2481617717572
 20
108.6412083849475
 30
0.0
  0
SPLINE
  5
DA
330
1F
100
AcDbEntity
  8
0
  6
HIDDEN
 62
     7
370
     0
100
AcDbSpline
210
0.0
220
0.0
230
1.0
 70
     8
 71
     3
 72
    15
 73
    11
 74
     0
 42
0.00000001
 43
0.00000001
 40
0.0
 40
0.0
 40
0.0
 40
0.0
 40
0.1100725886921322
 40
0.2209193734147116
 40
0.3341941649114017
 40
0.4483035193932227
 40
0.5583990715890386
 40
0.7822971689737783
 40
0.8963603647916902
 40
1.0
 40
1.0
 40
1.0
 40
1.0
 10
81.00754113194562
 20
133.5401286925012
 30
0.0
 10
81.07513511840978
 20
133.5491969465928
 30
0.0
 10
81.21079851393534
 20
133.5673972363805
 30
0.0
 10
81.39124393850877
 20
133.5881182917026
 30
0.0
 10
81.55339271332457
 20
133.6048579770666
 30
0.0
 10
81.69144385889118
 20
133.6174400888809
 30
0.0
 10
81.84308457625322
 20
133.6298188887644
 30
0.0
 10
81.94453022995752
 20
133.636776174095
 30
0.0
 10
81.9959439435737
 20
133.6400728152526
 30
0.0
 10
81.99989875213342
 20
133.6403181201319
 30
0.0
 10
82.00178147875904
 20
133.6404349000014
 30
0.0
  0
SPLINE
  5
DB
330
1F
100
AcDbEntity
  8
0
  6
HIDDEN
 62
     7
370
     0
100
AcDbSpline
210
0.0
220
0.0
230
1.0
 70
     8
 71
     3
 72
    17
 73
    13
 74
     0
 42
0.00000001
 43
0.00000001
 40
0.0
 40
0.0
 40
0.0
 40
0.0
 40
0.0070268500211336
 40
0.1183631929415073
 40
0.2321134198282858
 40
0.3466983210643487
 40
0.4574106626582213
 40
0.5688954169322246
 40
0.682824119935849
 40
0.7976023978524972
 40
0.8985035916333006
 40
1.0
 40
1.0
 40
1.0
 40
1.0
 10
82.00177907952859
 20
93.76476568493317
 30
0.0
 10
82.00203098237421
 20
93.7647497770273
 30
0.0
 10
82.00627413898498
 20
93.76448181762507
 30
0.0
 10
81.99035425900637
 20
93.76547868607533
 30
0.0
 10
81.95133842067041
 20
93.76799523535581
 30
0.0
 10
81.88288628204484
 20
93.77269284534376
 30
0.0
 10
81.79013431183563
 20
93.7796427119803
 30
0.0
 10
81.67284274062088
 20
93.7893721965462
 30
0.0
 10
81.53000609836579
 20
93.8026192034739
 30
0.0
 10
81.36845670795988
 20
93.81960629197991
 30
0.0
 10
81.1946533671247
 20
93.83989893243339
 30
0.0
 10
81.0700340379427
 20
93.85666437002105
 30
0.0
 10
81.00754113194562
 20
93.86507174086827
 30
0.0
  0
SPLINE
  5
DC
330
1F
100
AcDbEntity
  8
0
  6
HIDDEN
 62
     7
370
     0
100
AcDbSpline
210
0.0
220
0.0
230
1.0
 70
     8
 71
     3
 72
    32
 73
    28
 74
     0
 42
0.00000001
 43
0.00000001
 40
0.0
 40
0.0
 40
0.0
 40
0.0
 40
0.0346246159901393
 40
0.0694870388940023
 40
0.105100760954932
 40
0.1409753874086758
 40
0.1756005721189328
 40
0.210469240812561
 40
0.2461122854708169
 40
0.2820258067991321
 40
0.3162663828049037
 40
0.3859338563640312
 40
0.4214461814158482
 40
0.4553763558770598
 40
0.5243713305904967
 40
0.5595124638219118
 40
0.593798734303577
 40
0.6635059787021123
 40
0.6990055363805018
 40
0.7337623601246063
 40
0.7687606633024604
 40
0.8045245907686109
 40
0.8405553812432468
 40
0.875170121130555
 40
0.9456085132854553
 40
0.9815233266320907
 40
1.0
 40
1.0
 40
1.0
 40
1.0
 10
81.00754113194562
 20
93.86507174086827
 30
0.0
 10
80.9355428300992
 20
93.87485968377659
 30
0.0
 10
80.79105173156603
 20
93.89450279461303
 30
0.0
 10
80.54973179730757
 20
93.92395201323475
 30
0.0
 10
80.29043354632192
 20
93.95250239532517
 30
0.0
 10
80.0164461271893
 20
93.97893361428001
 30
0.0
 10
79.73181834616777
 20
94.00238609163131
 30
0.0
 10
79.43723338719961
 20
94.02238354808992
 30
0.0
 10
79.13030247823131
 20
94.03853922659367
 30
0.0
 10
78.81857101247884
 20
94.04998121428915
 30
0.0
 10
78.40130546379342
 20
94.058672341987
 30
0.0
 10
77.98066247043586
 20
94.05738428552681
 30
0.0
 10
77.5672589172704
 20
94.04615647415933
 30
0.0
 10
77.1624149542031
 20
94.02885820207845
 30
0.0
 10
76.77177686964093
 20
94.00314255831024
 30
0.0
 10
76.40299579159966
 20
93.97104924741333
 30
0.0
 10
76.04957800935125
 20
93.93549103891088
 30
0.0
 10
75.72413691903034
 20
93.89624258257528
 30
0.0
 10
75.434759713313
 20
93.85661106520294
 30
0.0
 10
75.23684583633771
 20
93.8274753220607
 30
0.0
 10
75.0595188723002
 20
93.79974108974795
 30
0.0
 10
74.90290954378769
 20
93.77396054549357
 30
0.0
 10
74.77126202408499
 20
93.75135390875938
 30
0.0
 10
74.62940082851327
 20
93.72616786345273
 30
0.0
 10
74.54058224069763
 20
93.70972231432911
 30
0.0
 10
74.50375930214724
 20
93.70282948351294
 30
0.0
 10
74.50517544932042
 20
93.70309446942214
 30
0.0
 10
74.5056565115296
 20
93.70318448457685
 30
0.0
  0
SPLINE
  5
DD
330
1F
100
AcDbEntity
  8
0
  6
HIDDEN
 62
     7
370
     0
100
AcDbSpline
210
0.0
220
0.0
230
1.0
 70
     8
 71
     3
 72
    30
 73
    26
 74
     0
 42
0.00000001
 43
0.00000001
 40
0.0
 40
0.0
 40
0.0
 40
0.0
 40
0.0156161600804337
 40
0.0849748372628082
 40
0.1203204532886746
 40
0.15431851909124
 40
0.2234436946574013
 40
0.2586467089786606
 40
0.2931107206687011
 40
0.3631864361325603
 40
0.3988795186727328
 40
0.4336750628309723
 40
0.4687145712104809
 40
0.5045294144990544
 40
0.5406151111978532
 40
0.5750767863722916
 40
0.6452033649630275
 40
0.6809575734718859
 40
0.7149323277721685
 40
0.784033058295527
 40
0.8192378401372485
 40
0.8533347063218409
 40
0.9226550151093995
 40
0.9579547149334489
 40
1.0
 40
1.0
 40
1.0
 40
1.0
 10
74.5056565115296
 20
133.7020159487926
 30
0.0
 10
74.50505877244451
 20
133.7021282016743
 30
0.0
 10
74.50180619426786
 20
133.7027390221516
 30
0.0
 10
74.55212709671619
 20
133.6932798876945
 30
0.0
 10
74.65243212575749
 20
133.6749750515984
 30
0.0
 10
74.78704911382717
 20
133.6509917462246
 30
0.0
 10
74.96910775885723
 20
133.6198929520781
 30
0.0
 10
75.19603033252251
 20
133.5839738080358
 30
0.0
 10
75.45261673789987
 20
133.5456547868967
 30
0.0
 10
75.75065339637257
 20
133.5054096515885
 30
0.0
 10
76.08320265037231
 20
133.4667486281861
 30
0.0
 10
76.34840035577659
 20
133.4393459694549
 30
0.0
 10
76.62745818103554
 20
133.4143011328427
 30
0.0
 10
76.9219091969297
 20
133.3921334355471
 30
0.0
 10
77.22477413024595
 20
133.3739713482772
 30
0.0
 10
77.63516011711471
 20
133.3557132432828
 30
0.0
 10
78.0560009560695
 20
133.3468660092784
 30
0.0
 10
78.47590487329846
 20
133.3483314037195
 30
0.0
 10
78.89051939415218
 20
133.3563747968868
 30
0.0
 10
79.29674051362802
 20
133.3738815824861
 30
0.0
 10
79.68627101334998
 20
133.399446895514
 30
0.0
 10
80.06309171458834
 20
133.4296311312281
 30
0.0
 10
80.4162288742923
 20
133.4655287060756
 30
0.0
 10
80.7579803621139
 20
133.5063469839342
 30
0.0
 10
80.91965412312348
 20
133.5282318975007
 30
0.0
 10
81.00754113194562
 20
133.5401286925012
 30
0.0
  0
LINE
  5
DE
330
1F
100
AcDbEntity
  8
0
  6
HIDDEN
 62
     7
370
     0
100
AcDbLine
 10
68.2565137266
 20
96.7026002167
 30
0.0
 11
68.2565137266
 21
130.7026002167
 31
0.0
  0
LWPOLYLINE
  5
DF
330
1F
100
AcDbEntity
  8
0
  6
HIDDEN
 62
     7
370
     0
100
AcDbPolyline
 90
       12
 70
   128
 43
0.0
 10
95.2525391303
 20
135.6482026313
 10
96.1750026133
 20
135.7021128902
 10
97.0477358511
 20
135.8609373507
 10
97.8236895691
 20
136.1161137451
 10
98.4610319014
 20
136.4538854479
 10
98.9254035579
 20
136.8560430992
 10
99.1917701424
 20
137.300906276
 10
99.2457717634
 20
137.7644922891
 10
99.0844971796
 20
138.2218090967
 10
98.7166407455
 20
138.6482026313
 10
98.1620336966
 20
139.0206859071
 10
97.6357155098
 20
139.2544770743
  0
LWPOLYLINE
  5
E0
330
1F
100
AcDbEntity
  8
0
  6
HIDDEN
 62
     7
370
     0
100
AcDbPolyline
 90
       12
 70
   128
 43
0.0
 10
92.8664523717
 20
139.2533965433
 10
92.3430445641
 20
139.0206859071
 10
91.7884375152
 20
138.6482026313
 10
91.4205810811
 20
138.2218090967
 10
91.2593064973
 20
137.7644922891
 10
91.3133081183
 20
137.300906276
 10
91.5796747028
 20
136.8560430992
 10
92.0440463593
 20
136.4538854479
 10
92.6813886916
 20
136.1161137451
 10
93.4573424095
 20
135.8609373507
 10
94.3300756474
 20
135.7021128902
 10
95.2525391303
 20
135.6482026313
  0
SPLINE
  5
E1
330
1F
100
AcDbEntity
  8
0
  6
HIDDEN
 62
     7
370
     0
100
AcDbSpline
210
0.0
220
0.0
230
1.0
 70
     8
 71
     3
 72
    11
 73
     7
 74
     0
 42
0.00000001
 43
0.00000001
 40
0.0
 40
0.0
 40
0.0
 40
0.0
 40
0.0005779865010845
 40
0.0005779865010845
 40
0.0005779865010845
 40
0.0011559733324421
 40
0.0011559733324421
 40
0.0011559733324421
 40
0.0011559733324421
 10
55.35253913034403
 20
115.7024408248385
 30
0.0
 10
55.51920638515
 20
115.7004571854975
 30
0.0
 10
55.68587281482766
 20
115.698419578495
 30
0.0
 10
55.85253915327948
 20
115.6963081150886
 30
0.0
 10
56.01920558210588
 20
115.6941966505372
 30
0.0
 10
56.18587195574358
 20
115.6920110873809
 30
0.0
 10
56.35253913034402
 20
115.6897285100493
 30
0.0
  0
SPLINE
  5
E2
330
1F
100
AcDbEntity
  8
0
  6
HIDDEN
 62
     7
370
     0
100
AcDbSpline
210
0.0
220
0.0
230
1.0
 70
     8
 71
     3
 72
     8
 73
     4
 74
     0
 42
0.00000001
 43
0.00000001
 40
0.0
 40
0.0
 40
0.0
 40
0.0
 40
0.0011564765856722
 40
0.0011564765856722
 40
0.0011564765856722
 40
0.0011564765856722
 10
56.35253913034402
 20
111.7058999144685
 30
0.0
 10
56.01923119977517
 20
111.7050247588852
 30
0.0
 10
55.68589596738296
 20
111.7039699076337
 30
0.0
 10
55.35253913034402
 20
111.7027988205961
 30
0.0
  0
LINE
  5
E3
330
1F
100
AcDbEntity
  8
0
  6
HIDDEN
 62
     7
370
     0
100
AcDbLine
 10
94.9123650989
 20
96.7026002167
 30
0.0
 11
94.9123650989
 21
130.7026002167
 31
0.0
  0
LINE
  5
E4
330
1F
100
AcDbEntity
  8
0
  6
HIDDEN
 62
     7
370
     0
100
AcDbLine
 10
97.2025391303
 20
97.9776002167
 30
0.0
 11
97.2025391303
 21
129.4276002167
 31
0.0
  0
SPLINE
  5
E5
330
1F
100
AcDbEntity
  8
0
  6
HIDDEN
 62
     7
370
     0
100
AcDbSpline
210
0.0
220
0.0
230
1.0
 70
     8
 71
     3
 72
    16
 73
    12
 74
     0
 42
0.00000001
 43
0.00000001
 40
0.0
 40
0.0
 40
0.0
 40
0.0
 40
0.124999999999998
 40
0.124999999999998
 40
0.249999999999996
 40
0.249999999999996
 40
0.4999999999999973
 40
0.4999999999999973
 40
0.7499999999999987
 40
0.7499999999999987
 40
1.0
 40
1.0
 40
1.0
 40
1.0
 10
64.05253913034402
 20
97.90110978065309
 30
0.0
 10
64.14766088500984
 20
97.90110978065309
 30
0.0
 10
64.24099095373792
 20
97.89729394726028
 30
0.0
 10
64.42425271447593
 20
97.88252339453047
 30
0.0
 10
64.51513043003293
 20
97.87136534655488
 30
0.0
 10
64.77193212755267
 20
97.82889407641316
 30
0.0
 10
64.92699949242467
 20
97.78784787921037
 30
0.0
 10
65.18074595397928
 20
97.69270176262849
 30
0.0
 10
65.28161640564714
 20
97.6379390285469
 30
0.0
 10
65.41686282034198
 20
97.52667790464304
 30
0.0
 10
65.45253913034402
 20
97.46950816731434
 30
0.0
 10
65.45253913034402
 20
97.41508659428061
 30
0.0
  0
SPLINE
  5
E6
330
1F
100
AcDbEntity
  8
0
  6
HIDDEN
 62
     7
370
     0
100
AcDbSpline
210
0.0
220
0.0
230
1.0
 70
     8
 71
     3
 72
     8
 73
     4
 74
     0
 42
0.00000001
 43
0.00000001
 40
0.0
 40
0.0
 40
0.0
 40
0.0
 40
1.0
 40
1.0
 40
1.0
 40
1.0
 10
56.65253913365921
 20
100.0459127267353
 30
0.0
 10
56.65253913366114
 20
99.1620155844184
 30
0.0
 10
56.63905850775134
 20
98.44743233935645
 30
0.0
 10
56.63770713956204
 20
97.90110978065309
 30
0.0
  0
LINE
  5
E7
330
1F
100
AcDbEntity
  8
0
  6
HIDDEN
 62
     7
370
     0
100
AcDbLine
 10
56.3525391303
 20
104.1017734243
 30
0.0
 11
56.3525391303
 21
101.0708229924
 31
0.0
  0
LINE
  5
E8
330
1F
100
AcDbEntity
  8
0
  6
HIDDEN
 62
     7
370
     0
100
AcDbLine
 10
56.6525391335
 20
117.3072338383
 30
0.0
 11
56.6525391335
 21
105.469613841
 31
0.0
  0
SPLINE
  5
E9
330
1F
100
AcDbEntity
  8
0
  6
HIDDEN
 62
     7
370
     0
100
AcDbSpline
210
0.0
220
0.0
230
1.0
 70
     8
 71
     3
 72
     8
 73
     4
 74
     0
 42
0.00000001
 43
0.00000001
 40
0.0
 40
0.0
 40
0.0
 40
0.0
 40
1.0
 40
1.0
 40
1.0
 40
1.0
 10
56.35253913034401
 20
123.3095395377531
 30
0.0
 10
56.53357059690292
 20
122.8774320520904
 30
0.0
 10
56.65253913353745
 20
122.4232866459907
 30
0.0
 10
56.65253913353175
 20
121.9355865922967
 30
0.0
  0
LINE
  5
EA
330
1F
100
AcDbEntity
  8
0
  6
HIDDEN
 62
     7
370
     0
100
AcDbLine
 10
56.3525391303
 20
126.3427425237
 30
0.0
 11
56.3525391303
 21
123.3095395378
 31
0.0
  0
SPLINE
  5
EB
330
1F
100
AcDbEntity
  8
0
  6
HIDDEN
 62
     7
370
     0
100
AcDbSpline
210
0.0
220
0.0
230
1.0
 70
     8
 71
     3
 72
    10
 73
     6
 74
     0
 42
0.00000001
 43
0.00000001
 40
0.0
 40
0.0
 40
0.0
 40
0.0
 40
0.5
 40
0.5
 40
1.0
 40
1.0
 40
1.0
 40
1.0
 10
56.65253913373723
 20
127.3592877066046
 30
0.0
 10
56.65253913373544
 20
127.1946513599986
 30
0.0
 10
56.62538046297995
 20
127.027496136168
 30
0.0
 10
56.51961546766154
 20
126.6888731283665
 30
0.0
 10
56.44320067936438
 20
126.5166013510754
 30
0.0
 10
56.35253913034405
 20
126.3427425237314
 30
0.0
  0
SPLINE
  5
EC
330
1F
100
AcDbEntity
  8
0
  6
HIDDEN
 62
     7
370
     0
100
AcDbSpline
210
0.0
220
0.0
230
1.0
 70
     8
 71
     3
 72
    18
 73
    14
 74
     0
 42
0.00000001
 43
0.00000001
 40
0.0
 40
0.0
 40
0.0
 40
0.0
 40
0.2500000000000033
 40
0.2500000000000033
 40
0.3750000000000029
 40
0.3750000000000029
 40
0.5000000000000026
 40
0.5000000000000026
 40
0.6250000000000022
 40
0.6250000000000022
 40
0.7500000000000018
 40
0.7500000000000018
 40
1.0
 40
1.0
 40
1.0
 40
1.0
 10
61.45253913034401
 20
129.9901138390889
 30
0.0
 10
61.45253913034401
 20
129.9356393185367
 30
0.0
 10
61.41762843895185
 20
129.8792582591842
 30
0.0
 10
61.3156191376188
 20
129.7951814183307
 30
0.0
 10
61.27398278294069
 20
129.7678477143398
 30
0.0
 10
61.17557698745193
 20
129.7148937987408
 30
0.0
 10
61.11803377574765
 20
129.6890064450236
 30
0.0
 10
60.9907356021747
 20
129.6412289001904
 30
0.0
 10
60.92114829741724
 20
129.6192809820125
 30
0.0
 10
60.76971405226228
 20
129.5798484170998
 30
0.0
 10
60.68703014916834
 20
129.5622921678739
 30
0.0
 10
60.43091868713028
 20
129.5198534024534
 30
0.0
 10
60.2430036832423
 20
129.5040906527164
 30
0.0
 10
60.05253913034402
 20
129.5040906527164
 30
0.0
  0
LINE
  5
ED
330
1F
100
AcDbEntity
  8
0
  6
HIDDEN
 62
     7
370
     0
100
AcDbLine
 10
60.0525391303
 20
129.5040906527
 30
0.0
 11
56.6525391337
 21
129.5040906527
 31
0.0
  0
LINE
  5
EE
330
1F
100
AcDbEntity
  8
0
  6
HIDDEN
 62
     7
370
     0
100
AcDbLine
 10
56.5835701437
 20
97.9011097807
 30
0.0
 11
64.0525391303
 21
97.9011097807
 31
0.0
  0
SPLINE
  5
EF
330
1F
100
AcDbEntity
  8
0
  6
HIDDEN
 62
     7
370
     0
100
AcDbSpline
210
0.0
220
0.0
230
1.0
 70
     8
 71
     3
 72
    22
 73
    18
 74
     0
 42
0.00000001
 43
0.00000001
 40
0.0
 40
0.0
 40
0.0
 40
0.0
 40
0.1249999999999998
 40
0.1249999999999998
 40
0.2499999999999995
 40
0.2499999999999995
 40
0.4999999999999992
 40
0.4999999999999992
 40
0.5624999999999993
 40
0.5624999999999993
 40
0.6249999999999994
 40
0.6249999999999994
 40
0.7499999999999996
 40
0.7499999999999996
 40
0.8749999999999998
 40
0.8749999999999998
 40
1.0
 40
1.0
 40
1.0
 40
1.0
 10
56.58357014370194
 20
97.90110978065309
 30
0.0
 10
56.57048775097356
 20
98.15621549080075
 30
0.0
 10
56.55726818753373
 20
98.44937374990467
 30
0.0
 10
56.53482100973961
 20
99.11167421552946
 30
0.0
 10
56.52534254271516
 20
99.48194813614084
 30
0.0
 10
56.50614458177861
 20
100.7045049392546
 30
0.0
 10
56.50725835477549
 20
101.6416438653865
 30
0.0
 10
56.52616914772857
 20
102.9615150949015
 30
0.0
 10
56.53079867558758
 20
103.2330170038778
 30
0.0
 10
56.54127989533353
 20
103.7914018386801
 30
0.0
 10
56.54707515661794
 20
104.0785246946197
 30
0.0
 10
56.56538437752288
 20
104.9511139489914
 30
0.0
 10
56.57941931180324
 20
105.5515696253473
 30
0.0
 10
56.60887648394006
 20
106.7890441178433
 30
0.0
 10
56.62443217492164
 20
107.4260602744868
 30
0.0
 10
56.64822672491852
 20
108.7375488721713
 30
0.0
 10
56.65624577706388
 20
109.4136714838318
 30
0.0
 10
56.65253913034402
 20
110.0979665951166
 30
0.0
  0
LINE
  5
F0
330
1F
100
AcDbEntity
  8
0
  6
HIDDEN
 62
     7
370
     0
100
AcDbLine
 10
56.6525391337
 20
117.3072338383
 30
0.0
 11
56.6525391337
 21
129.5040906527
 31
0.0
  0
SPLINE
  5
F1
330
1F
100
AcDbEntity
  8
0
  6
HIDDEN
 62
     7
370
     0
100
AcDbSpline
210
0.0
220
0.0
230
1.0
 70
     8
 71
     3
 72
    10
 73
     6
 74
     0
 42
0.00000001
 43
0.00000001
 40
0.0
 40
0.0
 40
0.0
 40
0.0
 40
0.5
 40
0.5
 40
1.0
 40
1.0
 40
1.0
 40
1.0
 10
56.65253913034402
 20
110.0979665951016
 30
0.0
 10
56.65253913034383
 20
110.3718817431759
 30
0.0
 10
56.62677990047612
 20
110.642823321906
 30
0.0
 10
56.52357396774302
 20
111.1785144035089
 30
0.0
 10
56.44623580386777
 20
111.4442612070309
 30
0.0
 10
56.35253913034401
 20
111.7058999144685
 30
0.0
  0
SPLINE
  5
F2
330
1F
100
AcDbEntity
  8
0
  6
HIDDEN
 62
     7
370
     0
100
AcDbSpline
210
0.0
220
0.0
230
1.0
 70
     8
 71
     3
 72
    10
 73
     6
 74
     0
 42
0.00000001
 43
0.00000001
 40
0.0
 40
0.0
 40
0.0
 40
0.0
 40
0.5
 40
0.5
 40
1.0
 40
1.0
 40
1.0
 40
1.0
 10
56.35253913034401
 20
115.6897285100493
 30
0.0
 10
56.44576971173502
 20
115.9536223181194
 30
0.0
 10
56.52079932397178
 20
116.2198026287576
 30
0.0
 10
56.62586642314993
 20
116.7581252037158
 30
0.0
 10
56.65253913373611
 20
117.0308733199614
 30
0.0
 10
56.6525391337373
 20
117.3072338382518
 30
0.0
  0
LINE
  5
F3
330
1F
100
AcDbEntity
  8
0
  6
HIDDEN
 62
     7
370
     0
100
AcDbLine
 10
56.3525391303
 20
111.7058999145
 30
0.0
 11
56.3525391303
 21
115.68972851
 31
0.0
  0
LINE
  5
F4
330
1F
100
AcDbEntity
  8
0
  6
HIDDEN
 62
     7
370
     0
100
AcDbLine
 10
56.5025391303
 20
95.7126002167
 30
0.0
 11
56.5025391303
 21
92.8326624513
 31
0.0
  0
LWPOLYLINE
  5
F5
330
1F
100
AcDbEntity
  8
0
  6
HIDDEN
 62
     7
370
     0
100
AcDbPolyline
 90
       17
 70
   128
 43
0.0
 10
203.2525391303
 20
102.3888917177
 10
202.6785139818
 20
102.4696296658
 10
202.1918789586
 20
102.6995518895
 10
201.8667198316
 20
103.0436548144
 10
201.7525391303
 20
103.4495518895
 10
201.8667198316
 20
103.8554489646
 10
202.1918789586
 20
104.1995518895
 10
202.6785139818
 20
104.4294741131
 10
203.2525391303
 20
104.5102120613
 10
203.8265642789
 20
104.4294741131
 10
204.3131993021
 20
104.1995518895
 10
204.6383584291
 20
103.8554489646
 10
204.7525391303
 20
103.4495518895
 10
204.6383584291
 20
103.0436548144
 10
204.3131993021
 20
102.6995518895
 10
203.8265642789
 20
102.4696296658
 10
203.2525391303
 20
102.3888917177
  0
SPLINE
  5
F6
330
1F
100
AcDbEntity
  8
0
  6
HIDDEN
 62
     7
370
     0
100
AcDbSpline
210
0.0
220
0.0
230
1.0
 70
     8
 71
     3
 72
    14
 73
    10
 74
     0
 42
0.00000001
 43
0.00000001
 40
0.0
 40
0.0
 40
0.0
 40
0.0
 40
0.25
 40
0.25
 40
0.5
 40
0.5
 40
0.75
 40
0.75
 40
1.0
 40
1.0
 40
1.0
 40
1.0
 10
202.2662647768482
 20
104.6069526872241
 30
0.0
 10
202.2339118834827
 20
104.570561650426
 30
0.0
 10
202.2029376992448
 20
104.5349910192489
 30
0.0
 10
202.1530914585513
 20
104.4537202714738
 30
0.0
 10
202.1343916158756
 20
104.4056796787505
 30
0.0
 10
202.1444327721655
 20
104.270442822403
 30
0.0
 10
202.171023376713
 20
104.1902458033567
 30
0.0
 10
202.2324404749858
 20
104.0351329961707
 30
0.0
 10
202.2680807279551
 20
103.9582399069599
 30
0.0
 10
202.3052199103325
 20
103.8826482018314
 30
0.0
  0
SPLINE
  5
F7
330
1F
100
AcDbEntity
  8
0
  6
HIDDEN
 62
     7
370
     0
100
AcDbSpline
210
0.0
220
0.0
230
1.0
 70
     8
 71
     3
 72
    14
 73
    10
 74
     0
 42
0.00000001
 43
0.00000001
 40
0.0
 40
0.0
 40
0.0
 40
0.0
 40
0.25
 40
0.25
 40
0.5
 40
0.5
 40
0.75
 40
0.75
 40
1.0
 40
1.0
 40
1.0
 40
1.0
 10
202.3052199103331
 20
103.8826482018308
 30
0.0
 10
202.3413396552396
 20
103.9156973136036
 30
0.0
 10
202.3727913733321
 20
103.9559102036741
 30
0.0
 10
202.4161963419038
 20
104.055088159614
 30
0.0
 10
202.4266702677637
 20
104.1123661581919
 30
0.0
 10
202.4182089142485
 20
104.2417378831766
 30
0.0
 10
202.3992432047118
 20
104.3121676730949
 30
0.0
 10
202.342732751159
 20
104.4573739132982
 30
0.0
 10
202.3061123820905
 20
104.5313970038543
 30
0.0
 10
202.2662647768485
 20
104.6069526872248
 30
0.0
  0
SPLINE
  5
F8
330
1F
100
AcDbEntity
  8
0
  6
HIDDEN
 62
     7
370
     0
100
AcDbSpline
210
0.0
220
0.0
230
1.0
 70
     8
 71
     3
 72
    10
 73
     6
 74
     0
 42
0.00000001
 43
0.00000001
 40
0.0
 40
0.0
 40
0.0
 40
0.0
 40
0.5
 40
0.5
 40
1.0
 40
1.0
 40
1.0
 40
1.0
 10
201.7525391303436
 20
105.2860346052494
 30
0.0
 10
201.7525391303436
 20
105.3096754691791
 30
0.0
 10
201.75365500717
 20
105.3311266322065
 30
0.0
 10
201.7579481905067
 20
105.3698646798644
 30
0.0
 10
201.7611264637367
 20
105.3871539793642
 30
0.0
 10
201.765265473612
 20
105.4022985191856
 30
0.0
  0
SPLINE
  5
F9
330
1F
100
AcDbEntity
  8
0
  6
HIDDEN
 62
     7
370
     0
100
AcDbSpline
210
0.0
220
0.0
230
1.0
 70
     8
 71
     3
 72
    18
 73
    14
 74
     0
 42
0.00000001
 43
0.00000001
 40
0.0
 40
0.0
 40
0.0
 40
0.0
 40
0.0737501331173606
 40
0.1624121644508331
 40
0.2240281320612326
 40
0.2729194914005812
 40
0.3218740121895373
 40
0.389456375315268
 40
0.5009270566266765
 40
0.6197456719437897
 40
0.7649252634867694
 40
0.8997851949351008
 40
1.0
 40
1.0
 40
1.0
 40
1.0
 10
201.7818435766903
 20
105.4321035763827
 30
0.0
 10
201.7872066523164
 20
105.4442096535704
 30
0.0
 10
201.7990171899215
 20
105.4708695945897
 30
0.0
 10
201.8217181872664
 20
105.4697179613904
 30
0.0
 10
201.8372850087003
 20
105.4474711637363
 30
0.0
 10
201.8427102682796
 20
105.4064120312075
 30
0.0
 10
201.8387336638688
 20
105.3448585105069
 30
0.0
 10
201.8221300456698
 20
105.2451880911826
 30
0.0
 10
201.7939893308806
 20
105.1098735578037
 30
0.0
 10
201.7639823005154
 20
104.9446088808215
 30
0.0
 10
201.7487819425634
 20
104.7889535513679
 30
0.0
 10
201.7561634523646
 20
104.6755750410925
 30
0.0
 10
201.7737294766863
 20
104.6446867443115
 30
0.0
 10
201.7812180555496
 20
104.6315187421408
 30
0.0
  0
LWPOLYLINE
  5
FA
330
1F
100
AcDbEntity
  8
0
  6
HIDDEN
 62
     7
370
     0
100
AcDbPolyline
 90
       10
 70
   128
 43
0.0
 10
201.7875123045
 20
104.6169190028
 10
201.8250459298
 20
104.6138690387
 10
201.8370962013
 20
104.6391475016
 10
201.8412240518
 20
104.688066924
 10
201.835856265
 20
104.7469019009
 10
201.8201457141
 20
104.8361636409
 10
201.789610013
 20
104.9854946168
 10
201.7597101936
 20
105.1703797789
 10
201.7525391303
 20
105.2860346052
 10
201.7525391303
 20
105.2860346052
  0
SPLINE
  5
FB
330
1F
100
AcDbEntity
  8
0
  6
HIDDEN
 62
     7
370
     0
100
AcDbSpline
210
0.0
220
0.0
230
1.0
 70
     8
 71
     3
 72
     8
 73
     4
 74
     0
 42
0.00000001
 43
0.00000001
 40
0.0
 40
0.0
 40
0.0
 40
0.0
 40
1.0
 40
1.0
 40
1.0
 40
1.0
 10
204.4945731695545
 20
109.8996208061343
 30
0.0
 10
204.453198550156
 20
109.9379232512713
 30
0.0
 10
204.4075860865585
 20
109.9783728040723
 30
0.0
 10
204.3577651122243
 20
110.0230276787049
 30
0.0
  0
SPLINE
  5
FC
330
1F
100
AcDbEntity
  8
0
  6
HIDDEN
 62
     7
370
     0
100
AcDbSpline
210
0.0
220
0.0
230
1.0
 70
     8
 71
     3
 72
    36
 73
    32
 74
     0
 42
0.00000001
 43
0.00000001
 40
0.0
 40
0.0
 40
0.0
 40
0.0
 40
0.0624999999999999
 40
0.0624999999999999
 40
0.1249999999999998
 40
0.1249999999999998
 40
0.1874999999999998
 40
0.1874999999999998
 40
0.2499999999999997
 40
0.2499999999999997
 40
0.3124999999999996
 40
0.3124999999999996
 40
0.3749999999999995
 40
0.3749999999999995
 40
0.4999999999999997
 40
0.4999999999999997
 40
0.5624999999999997
 40
0.5624999999999997
 40
0.6249999999999997
 40
0.6249999999999997
 40
0.6874999999999998
 40
0.6874999999999998
 40
0.7499999999999998
 40
0.7499999999999998
 40
0.8124999999999998
 40
0.8124999999999998
 40
0.8749999999999998
 40
0.8749999999999998
 40
0.9374999999999999
 40
0.9374999999999999
 40
1.0
 40
1.0
 40
1.0
 40
1.0
 10
204.3577651122243
 20
110.0230276787049
 30
0.0
 10
204.2558144646116
 20
110.1144067303734
 30
0.0
 10
204.1400611441312
 20
110.1932511270865
 30
0.0
 10
203.8808615128855
 20
110.3230976474496
 30
0.0
 10
203.7406578283027
 20
110.3719527242837
 30
0.0
 10
203.44833211483
 20
110.4318838058238
 30
0.0
 10
203.2959265501374
 20
110.4426273391364
 30
0.0
 10
202.996783915828
 20
110.4239457339859
 30
0.0
 10
202.8471900774801
 20
110.3942105386295
 30
0.0
 10
202.5688031647244
 20
110.3000668910244
 30
0.0
 10
202.4363416285432
 20
110.2344683717957
 30
0.0
 10
202.2032729331983
 20
110.0787798271165
 30
0.0
 10
202.0992927790025
 20
109.9865126309726
 30
0.0
 10
201.8468130292769
 20
109.6905623612665
 30
0.0
 10
201.7526669979652
 20
109.4615070871486
 30
0.0
 10
201.7524753984253
 20
109.1416617189291
 30
0.0
 10
201.7749516799683
 20
109.0400800583958
 30
0.0
 10
201.8642762351737
 20
108.8504260172088
 30
0.0
 10
201.9291788506368
 20
108.7656778484649
 30
0.0
 10
202.0994272262385
 20
108.6134870399717
 30
0.0
 10
202.2009588872292
 20
108.5495115801168
 30
0.0
 10
202.4355941255342
 20
108.4424681465249
 30
0.0
 10
202.5661890762759
 20
108.4008720579847
 30
0.0
 10
202.8451169801137
 20
108.3412057720407
 30
0.0
 10
202.9941133901423
 20
108.3232109466497
 30
0.0
 10
203.293024462563
 20
108.3115790434261
 30
0.0
 10
203.4462504531176
 20
108.3179085443566
 30
0.0
 10
203.7377081224878
 20
108.3543724367337
 30
0.0
 10
203.8800497913292
 20
108.3850496235732
 30
0.0
 10
204.137467347579
 20
108.4689806900811
 30
0.0
 10
204.2558061924452
 20
108.5230639355701
 30
0.0
 10
204.3577651122243
 20
108.58882021186
 30
0.0
  0
SPLINE
  5
FD
330
1F
100
AcDbEntity
  8
0
  6
HIDDEN
 62
     7
370
     0
100
AcDbSpline
210
0.0
220
0.0
230
1.0
 70
     8
 71
     3
 72
     8
 73
     4
 74
     0
 42
0.00000001
 43
0.00000001
 40
0.0
 40
0.0
 40
0.0
 40
0.0
 40
1.0
 40
1.0
 40
1.0
 40
1.0
 10
204.3577651122243
 20
108.58882021186
 30
0.0
 10
204.4075860865585
 20
108.6209512089366
 30
0.0
 10
204.453198550156
 20
108.662100241659
 30
0.0
 10
204.4945731695545
 20
108.7102079716294
 30
0.0
  0
SPLINE
  5
FE
330
1F
100
AcDbEntity
  8
0
  6
HIDDEN
 62
     7
370
     0
100
AcDbSpline
210
0.0
220
0.0
230
1.0
 70
     8
 71
     3
 72
    12
 73
     8
 74
     0
 42
0.00000001
 43
0.00000001
 40
0.0
 40
0.0
 40
0.0
 40
0.0
 40
0.2500000000000005
 40
0.2500000000000005
 40
0.500000000000001
 40
0.500000000000001
 40
1.0
 40
1.0
 40
1.0
 40
1.0
 10
204.4945731695545
 20
108.7102079716295
 30
0.0
 10
204.5784568380113
 20
108.8077424729666
 30
0.0
 10
204.6423205436429
 20
108.9083711991484
 30
0.0
 10
204.7301322188012
 20
109.1184780658774
 30
0.0
 10
204.7524030715614
 20
109.2250729120628
 30
0.0
 10
204.7528093841988
 20
109.5407878943278
 30
0.0
 10
204.6623394604396
 20
109.744311603394
 30
0.0
 10
204.4945731695545
 20
109.8996208061343
 30
0.0
  0
SPLINE
  5
FF
330
1F
100
AcDbEntity
  8
0
  6
HIDDEN
 62
     7
370
     0
100
AcDbSpline
210
0.0
220
0.0
230
1.0
 70
     8
 71
     3
 72
    14
 73
    10
 74
     0
 42
0.00000001
 43
0.00000001
 40
0.0
 40
0.0
 40
0.0
 40
0.0
 40
0.25
 40
0.25
 40
0.5
 40
0.5
 40
0.75
 40
0.75
 40
1.0
 40
1.0
 40
1.0
 40
1.0
 10
202.305219910333
 20
105.5273890904809
 30
0.0
 10
202.268007823363
 20
105.5602631905108
 30
0.0
 10
202.2322692673076
 20
105.5917172855263
 30
0.0
 10
202.1707735381248
 20
105.6617525808508
 30
0.0
 10
202.1442666721888
 20
105.7008539896096
 30
0.0
 10
202.1344833317536
 20
105.8200325304709
 30
0.0
 10
202.1532665275629
 20
105.8983176138802
 30
0.0
 10
202.2031851361482
 20
106.0519612331618
 30
0.0
 10
202.2339938705636
 20
106.1291147028868
 30
0.0
 10
202.2662647768484
 20
106.2052410840021
 30
0.0
  0
SPLINE
  5
100
330
1F
100
AcDbEntity
  8
0
  6
HIDDEN
 62
     7
370
     0
100
AcDbSpline
210
0.0
220
0.0
230
1.0
 70
     8
 71
     3
 72
    10
 73
     6
 74
     0
 42
0.00000001
 43
0.00000001
 40
0.0
 40
0.0
 40
0.0
 40
0.0
 40
0.5
 40
0.5
 40
1.0
 40
1.0
 40
1.0
 40
1.0
 10
202.2662647768484
 20
106.2052410840023
 30
0.0
 10
202.3458348400173
 20
106.1525694541157
 30
0.0
 10
202.4135302231757
 20
106.0670178917162
 30
0.0
 10
202.4312044463452
 20
105.8228829860066
 30
0.0
 10
202.3774827269376
 20
105.6767508943007
 30
0.0
 10
202.305219910333
 20
105.5273890904803
 30
0.0
  0
SPLINE
  5
101
330
1F
100
AcDbEntity
  8
0
  6
HIDDEN
 62
     7
370
     0
100
AcDbSpline
210
0.0
220
0.0
230
1.0
 70
     8
 71
     3
 72
    48
 73
    44
 74
     0
 42
0.00000001
 43
0.00000001
 40
-0.0624999999999994
 40
-0.0624999999999994
 40
0.0
 40
0.0
 40
0.0312499999999998
 40
0.0312499999999998
 40
0.0624999999999997
 40
0.0624999999999997
 40
0.1250000000000007
 40
0.1250000000000007
 40
0.1875000000000016
 40
0.1875000000000016
 40
0.2500000000000026
 40
0.2500000000000026
 40
0.3125000000000036
 40
0.3125000000000036
 40
0.3437500000000034
 40
0.3437500000000034
 40
0.3750000000000032
 40
0.3750000000000032
 40
0.4062500000000029
 40
0.4062500000000029
 40
0.4375000000000027
 40
0.4375000000000027
 40
0.5000000000000024
 40
0.5000000000000024
 40
0.5625000000000021
 40
0.5625000000000021
 40
0.6250000000000018
 40
0.6250000000000018
 40
0.6875000000000018
 40
0.6875000000000018
 40
0.7500000000000017
 40
0.7500000000000017
 40
0.8125000000000016
 40
0.8125000000000016
 40
0.8437500000000013
 40
0.8437500000000013
 40
0.875000000000001
 40
0.875000000000001
 40
0.9062500000000008
 40
0.9062500000000008
 40
0.9375000000000006
 40
0.9375000000000006
 40
1.0
 40
1.0
 40
1.03125
 40
1.03125
 10
204.3833291076956
 20
103.8364913964076
 30
0.0
 10
204.5053969382126
 20
103.8398827216295
 30
0.0
 10
204.5438592681301
 20
103.8483295375758
 30
0.0
 10
204.6140087438967
 20
103.88060440163
 30
0.0
 10
204.6460258766718
 20
103.9048771590958
 30
0.0
 10
204.7247614635895
 20
104.0016998206171
 30
0.0
 10
204.7544898644103
 20
104.1008494583521
 30
0.0
 10
204.7503781103803
 20
104.3497712601218
 30
0.0
 10
204.7163320177148
 20
104.5003727072163
 30
0.0
 10
204.60496585919
 20
104.8092878777449
 30
0.0
 10
204.5285669355995
 20
104.9680477573707
 30
0.0
 10
204.3653937553351
 20
105.275819004209
 30
0.0
 10
204.2767542893196
 20
105.4265565371191
 30
0.0
 10
204.1675401885907
 20
105.6444817506416
 30
0.0
 10
204.1346186408787
 20
105.7176374103341
 30
0.0
 10
204.0901679278789
 20
105.8571740539799
 30
0.0
 10
204.0789351094548
 20
105.9251746893485
 30
0.0
 10
204.0857229078788
 20
106.0451082008596
 30
0.0
 10
204.1034698711644
 20
106.0985269355145
 30
0.0
 10
204.1556203976371
 20
106.186674013844
 30
0.0
 10
204.1899935621043
 20
106.2227961999283
 30
0.0
 10
204.3019402228024
 20
106.3088955502791
 30
0.0
 10
204.3874241999558
 20
106.3379925676734
 30
0.0
 10
204.5455756778562
 20
106.3415311631081
 30
0.0
 10
204.6178205532911
 20
106.3155663096279
 30
0.0
 10
204.7235106096761
 20
106.1938692456806
 30
0.0
 10
204.7540096554343
 20
106.0970204864529
 30
0.0
 10
204.7509532795164
 20
105.8478714159857
 30
0.0
 10
204.717030629122
 20
105.6949360931189
 30
0.0
 10
204.6070652015239
 20
105.3820551969526
 30
0.0
 10
204.5319099361311
 20
105.2210992748934
 30
0.0
 10
204.3731500063845
 20
104.9115968126894
 30
0.0
 10
204.2865052857429
 20
104.7587183461586
 30
0.0
 10
204.1780351512972
 20
104.5400947306667
 30
0.0
 10
204.1450855846464
 20
104.4679477448815
 30
0.0
 10
204.0962960448861
 20
104.3255997350197
 30
0.0
 10
204.0817044507624
 20
104.2573110830987
 30
0.0
 10
204.0816862139309
 20
104.1322303211094
 30
0.0
 10
204.0963684408901
 20
104.0773687656288
 30
0.0
 10
204.1463808169147
 20
103.9854227421814
 30
0.0
 10
204.1803671229455
 20
103.9491041771089
 30
0.0
 10
204.294664691538
 20
103.8626310881699
 30
0.0
 10
204.3833291076956
 20
103.8364913964076
 30
0.0
 10
204.5053969382126
 20
103.8398827216295
 30
0.0
  0
LINE
  5
102
330
1F
100
AcDbEntity
  8
0
  6
HIDDEN
 62
     7
370
     0
100
AcDbLine
 10
65.4525391303
 20
95.7126002167
 30
0.0
 11
65.4525391303
 21
91.7388626855
 31
0.0
  0
LINE
  5
103
330
1F
100
AcDbEntity
  8
0
  6
HIDDEN
 62
     7
370
     0
100
AcDbLine
 10
56.5025391303
 20
131.6926002167
 30
0.0
 11
56.5025391303
 21
134.5725379821
 31
0.0
  0
LINE
  5
104
330
1F
100
AcDbEntity
  8
0
  6
HIDDEN
 62
     7
370
     0
100
AcDbLine
 10
61.4525391303
 20
131.6926002167
 30
0.0
 11
61.4525391303
 21
135.546707889
 31
0.0
  0
ARC
  5
105
330
1F
100
AcDbEntity
  8
0
  6
HIDDEN
 62
     7
370
     0
100
AcDbCircle
 10
189.1571250113
 20
105.1118332158
 30
0.0
 40
13.15466024495054
100
AcDbArc
 50
1.810275534
 51
4.7678934514
  0
LINE
  5
106
330
1F
100
AcDbEntity
  8
0
  6
HIDDEN
 62
     7
370
     0
100
AcDbLine
 10
106.0525391303
 20
104.2026002167
 30
0.0
 11
106.0525391303
 21
123.2026002167
 31
0.0
  0
LINE
  5
107
330
1F
100
AcDbEntity
  8
0
  6
HIDDEN
 62
     7
370
     0
100
AcDbLine
 10
109.0525391303
 20
104.2026002167
 30
0.0
 11
109.0525391303
 21
123.2026002167
 31
0.0
  0
LINE
  5
108
330
1F
100
AcDbEntity
  8
0
  6
HIDDEN
 62
     7
370
     0
100
AcDbLine
 10
97.7025391303
 20
105.2026002167
 30
0.0
 11
97.7025391303
 21
122.2026002167
 31
0.0
  0
LINE
  5
109
330
1F
100
AcDbEntity
  8
0
  6
HIDDEN
 62
     7
370
     0
100
AcDbLine
 10
103.4402139327
 20
87.3026002167
 30
0.0
 11
100.2025391303
 21
87.3026002167
 31
0.0
  0
LINE
  5
10A
330
1F
100
AcDbEntity
  8
0
  6
HIDDEN
 62
     7
370
     0
100
AcDbLine
 10
92.2025391303
 20
82.2184772338
 30
0.0
 11
92.2025391303
 21
87.3026002167
 31
0.0
  0
LINE
  5
10B
330
1F
100
AcDbEntity
  8
0
  6
HIDDEN
 62
     7
370
     0
100
AcDbLine
 10
100.2025391303
 20
87.3026002167
 30
0.0
 11
92.2025391303
 21
87.3026002167
 31
0.0
  0
LINE
  5
10C
330
1F
100
AcDbEntity
  8
0
  6
HIDDEN
 62
     7
370
     0
100
AcDbLine
 10
113.2025391303
 20
87.3026002167
 30
0.0
 11
107.064864328
 21
87.3026002167
 31
0.0
  0
ARC
  5
10D
330
1F
100
AcDbEntity
  8
0
  6
HIDDEN
 62
     7
370
     0
100
AcDbCircle
 10
218.4548894868
 20
105.1144226794
 30
0.0
 40
16.19657666896626
100
AcDbArc
 50
181.7954811518
 51
184.3616432552
  0
LINE
  5
10E
330
1F
100
AcDbEntity
  8
0
  6
HIDDEN
 62
     7
370
     0
100
AcDbLine
 10
103.736836662
 20
140.1026002167
 30
0.0
 11
100.2025391303
 21
140.1026002167
 31
0.0
  0
LINE
  5
10F
330
1F
100
AcDbEntity
  8
0
  6
HIDDEN
 62
     7
370
     0
100
AcDbLine
 10
113.2025391303
 20
140.1026002167
 30
0.0
 11
106.7682415987
 21
140.1026002167
 31
0.0
  0
LINE
  5
110
330
1F
100
AcDbEntity
  8
0
  6
HIDDEN
 62
     7
370
     0
100
AcDbLine
 10
100.2025391303
 20
140.1026002167
 30
0.0
 11
92.2025391303
 21
140.1026002167
 31
0.0
  0
SPLINE
  5
111
330
1F
100
AcDbEntity
  8
0
  6
HIDDEN
 62
     7
370
     0
100
AcDbSpline
210
0.0
220
0.0
230
1.0
 70
     8
 71
     3
 72
    11
 73
     7
 74
     0
 42
0.00000001
 43
0.00000001
 40
0.0
 40
0.0
 40
0.0
 40
0.0
 40
0.0008203708524183
 40
0.0008203708524183
 40
0.0008203708524183
 40
0.0016409967870154
 40
0.0016409967870154
 40
0.0016409967870154
 40
0.0016409967870154
 10
56.50253913034402
 20
97.85056746604201
 30
0.0
 10
56.31138083004536
 20
97.80938843742287
 30
0.0
 10
56.11995375997318
 20
97.77063446519288
 30
0.0
 10
55.92830813645256
 20
97.73426670591432
 30
0.0
 10
55.73660273137209
 20
97.6978876021483
 30
0.0
 10
55.54466377931313
 20
97.66389335138075
 30
0.0
 10
55.35253913224233
 20
97.63224522598954
 30
0.0
  0
ELLIPSE
  5
112
330
1F
100
AcDbEntity
  8
0
  6
HIDDEN
 62
     7
370
     0
100
AcDbEllipse
 10
51.1101072617
 20
113.7026002167
 30
0.0
 11
20.19992453366627
 21
-1.421085471520200E-14
 31
0.0
210
0.0
220
0.0
230
1.0
 40
0.8164965809
 41
1.300566354718001
 42
1.359198697209605
  0
SPLINE
  5
113
330
1F
100
AcDbEntity
  8
0
  6
HIDDEN
 62
     7
370
     0
100
AcDbSpline
210
0.0
220
0.0
230
1.0
 70
     8
 71
     3
 72
    36
 73
    32
 74
     0
 42
0.00000001
 43
0.00000001
 40
0.0
 40
0.0
 40
0.0
 40
0.0
 40
0.0625000000000002
 40
0.0625000000000002
 40
0.1250000000000003
 40
0.1250000000000003
 40
0.1875000000000004
 40
0.1875000000000004
 40
0.2500000000000006
 40
0.2500000000000006
 40
0.3125000000000008
 40
0.3125000000000008
 40
0.3750000000000009
 40
0.3750000000000009
 40
0.5000000000000011
 40
0.5000000000000011
 40
0.5625000000000011
 40
0.5625000000000011
 40
0.6250000000000011
 40
0.6250000000000011
 40
0.6875000000000009
 40
0.6875000000000009
 40
0.7500000000000007
 40
0.7500000000000007
 40
0.8125000000000006
 40
0.8125000000000006
 40
0.8750000000000003
 40
0.8750000000000003
 40
0.9375000000000002
 40
0.9375000000000002
 40
1.0
 40
1.0
 40
1.0
 40
1.0
 10
204.3577651122243
 20
117.3821727546645
 30
0.0
 10
204.2558144646116
 20
117.2907937029961
 30
0.0
 10
204.1400611441313
 20
117.211949306283
 30
0.0
 10
203.8808615128855
 20
117.0821027859198
 30
0.0
 10
203.7406578283027
 20
117.0332477090858
 30
0.0
 10
203.44833211483
 20
116.9733166275457
 30
0.0
 10
203.2959265501374
 20
116.9625730942331
 30
0.0
 10
202.9967839158279
 20
116.9812546993836
 30
0.0
 10
202.8471900774801
 20
117.01098989474
 30
0.0
 10
202.5688031647243
 20
117.1051335423451
 30
0.0
 10
202.4363416285433
 20
117.1707320615738
 30
0.0
 10
202.2032729331983
 20
117.326420606253
 30
0.0
 10
202.0992927790025
 20
117.4186878023968
 30
0.0
 10
201.8468130292769
 20
117.7146380721029
 30
0.0
 10
201.7526669979652
 20
117.9436933462209
 30
0.0
 10
201.7524753984253
 20
118.2635387144404
 30
0.0
 10
201.7749516799683
 20
118.3651203749737
 30
0.0
 10
201.8642762351737
 20
118.5547744161607
 30
0.0
 10
201.9291788506368
 20
118.6395225849046
 30
0.0
 10
202.0994272262385
 20
118.7917133933978
 30
0.0
 10
202.2009588872292
 20
118.8556888532527
 30
0.0
 10
202.4355941255342
 20
118.9627322868446
 30
0.0
 10
202.5661890762759
 20
119.0043283753848
 30
0.0
 10
202.8451169801137
 20
119.0639946613288
 30
0.0
 10
202.9941133901423
 20
119.0819894867198
 30
0.0
 10
203.293024462563
 20
119.0936213899433
 30
0.0
 10
203.4462504531177
 20
119.0872918890128
 30
0.0
 10
203.7377081224878
 20
119.0508279966357
 30
0.0
 10
203.8800497913292
 20
119.0201508097963
 30
0.0
 10
204.137467347579
 20
118.9362197432884
 30
0.0
 10
204.2558061924451
 20
118.8821364977994
 30
0.0
 10
204.3577651122243
 20
118.8163802215094
 30
0.0
  0
SPLINE
  5
114
330
1F
100
AcDbEntity
  8
0
  6
HIDDEN
 62
     7
370
     0
100
AcDbSpline
210
0.0
220
0.0
230
1.0
 70
     8
 71
     3
 72
     8
 73
     4
 74
     0
 42
0.00000001
 43
0.00000001
 40
0.0
 40
0.0
 40
0.0
 40
0.0
 40
1.0
 40
1.0
 40
1.0
 40
1.0
 10
204.3577651122243
 20
118.8163802215094
 30
0.0
 10
204.4075860865585
 20
118.7842492244329
 30
0.0
 10
204.453198550156
 20
118.7431001917105
 30
0.0
 10
204.4945731695545
 20
118.69499246174
 30
0.0
  0
LINE
  5
115
330
1F
100
AcDbEntity
  8
0
  6
HIDDEN
 62
     7
370
     0
100
AcDbLine
 10
201.2525391303
 20
107.8026002167
 30
0.0
 11
201.2525391303
 21
119.6025997268
 31
0.0
  0
SPLINE
  5
116
330
1F
100
AcDbEntity
  8
0
  6
HIDDEN
 62
     7
370
     0
100
AcDbSpline
210
0.0
220
0.0
230
1.0
 70
     8
 71
     3
 72
    12
 73
     8
 74
     0
 42
0.00000001
 43
0.00000001
 40
0.0
 40
0.0
 40
0.0
 40
0.0
 40
0.2499999999999998
 40
0.2499999999999998
 40
0.4999999999999996
 40
0.4999999999999996
 40
1.0
 40
1.0
 40
1.0
 40
1.0
 10
204.4945731695545
 20
118.69499246174
 30
0.0
 10
204.5784568380113
 20
118.5974579604028
 30
0.0
 10
204.6423205436429
 20
118.4968292342211
 30
0.0
 10
204.7301322188012
 20
118.2867223674921
 30
0.0
 10
204.7524030715614
 20
118.1801275213067
 30
0.0
 10
204.7528093841988
 20
117.8644125390417
 30
0.0
 10
204.6623394604396
 20
117.6608888299754
 30
0.0
 10
204.4945731695545
 20
117.5055796272352
 30
0.0
  0
LINE
  5
117
330
1F
100
AcDbEntity
  8
0
  6
HIDDEN
 62
     7
370
     0
100
AcDbLine
 10
205.2525391303
 20
107.7026002167
 30
0.0
 11
205.2525391303
 21
119.7026002167
 31
0.0
  0
LINE
  5
118
330
1F
100
AcDbEntity
  8
0
  6
HIDDEN
 62
     7
370
     0
100
AcDbLine
 10
65.4525391303
 20
95.7126002167
 30
0.0
 11
65.4525391303
 21
97.4150865943
 31
0.0
  0
LINE
  5
119
330
1F
100
AcDbEntity
  8
0
  6
HIDDEN
 62
     7
370
     0
100
AcDbLine
 10
56.5025391303
 20
95.7126002167
 30
0.0
 11
56.5025391303
 21
97.850567466
 31
0.0
  0
LINE
  5
11A
330
1F
100
AcDbEntity
  8
0
  6
HIDDEN
 62
     7
370
     0
100
AcDbLine
 10
56.5835701437
 20
97.9011097807
 30
0.0
 11
56.5025391303
 21
97.850567466
 31
0.0
  0
LINE
  5
11B
330
1F
100
AcDbEntity
  8
0
  6
HIDDEN
 62
     7
370
     0
100
AcDbLine
 10
56.5025391303
 20
131.6926002167
 30
0.0
 11
56.5025391303
 21
129.5972246677
 31
0.0
  0
SPLINE
  5
11C
330
1F
100
AcDbEntity
  8
0
  6
HIDDEN
 62
     7
370
     0
100
AcDbSpline
210
0.0
220
0.0
230
1.0
 70
     8
 71
     3
 72
     8
 73
     4
 74
     0
 42
0.00000001
 43
0.00000001
 40
0.0
 40
0.0
 40
0.0
 40
0.0
 40
1.0
 40
1.0
 40
1.0
 40
1.0
 10
56.50253913034402
 20
129.5972246677434
 30
0.0
 10
56.55254462928774
 20
129.5661888935242
 30
0.0
 10
56.60254469995215
 20
129.5351442484967
 30
0.0
 10
56.65253913373727
 20
129.5040906527164
 30
0.0
  0
LINE
  5
11D
330
1F
100
AcDbEntity
  8
0
  6
HIDDEN
 62
     7
370
     0
100
AcDbLine
 10
61.4525391303
 20
131.6926002167
 30
0.0
 11
61.4525391303
 21
129.9901138391
 31
0.0
  0
SPLINE
  5
11E
330
1F
100
AcDbEntity
  8
0
  6
HIDDEN
 62
     7
370
     0
100
AcDbSpline
210
0.0
220
0.0
230
1.0
 70
     8
 71
     3
 72
    20
 73
    16
 74
     0
 42
0.00000001
 43
0.00000001
 40
0.0
 40
0.0
 40
0.0
 40
0.0
 40
0.1119595197684142
 40
0.1774767634647507
 40
0.2490961890179794
 40
0.3298422315093885
 40
0.3986125823881415
 40
0.4998893016461092
 40
0.6138510293005034
 40
0.6790150176761197
 40
0.7495394203319945
 40
0.8296829944212418
 40
0.8981246285268906
 40
0.9995320175861913
 40
1.0
 40
1.0
 40
1.0
 40
1.0
 10
82.00137958020689
 20
90.10260645491694
 30
0.0
 10
81.95805584190833
 20
90.11603577295398
 30
0.0
 10
81.88937961973156
 20
90.13732375190995
 30
0.0
 10
81.44420049368127
 20
90.24063456355843
 30
0.0
 10
80.91764221001151
 20
90.35393779362032
 30
0.0
 10
80.23221718888233
 20
90.47687066141292
 30
0.0
 10
79.33889979158351
 20
90.59890512059738
 30
0.0
 10
78.22554040444588
 20
90.71664142838199
 30
0.0
 10
77.11476632381026
 20
90.72861693075762
 30
0.0
 10
76.23001802190485
 20
90.70155864062629
 30
0.0
 10
75.56282142727113
 20
90.65362657621847
 30
0.0
 10
75.02154892504393
 20
90.5973330638539
 30
0.0
 10
74.63396896597177
 20
90.55225015321511
 30
0.0
 10
74.44003244590266
 20
90.5133769785152
 30
0.0
 10
74.50313490613237
 20
90.52408303575594
 30
0.0
 10
74.50342477836773
 20
90.52413221591046
 30
0.0
  0
LINE
  5
11F
330
1F
100
AcDbEntity
  8
0
  6
HIDDEN
 62
     7
370
     0
100
AcDbLine
 10
75.4125510427
 20
90.6349383601
 30
0.0
 11
75.5963963558
 21
90.6531277027
 31
0.0
  0
LINE
  5
120
330
1F
100
AcDbEntity
  8
0
  6
HIDDEN
 62
     7
370
     0
100
AcDbLine
 10
75.5963936574
 20
136.7520032995
 30
0.0
 11
75.4223203755
 21
136.7692128256
 31
0.0
  0
SPLINE
  5
121
330
1F
100
AcDbEntity
  8
0
  6
HIDDEN
 62
     7
370
     0
100
AcDbSpline
210
0.0
220
0.0
230
1.0
 70
     8
 71
     3
 72
    20
 73
    16
 74
     0
 42
0.00000001
 43
0.00000001
 40
0.0
 40
0.0
 40
0.0
 40
0.0
 40
0.0004889684280502
 40
0.1018319933926956
 40
0.1702475582150564
 40
0.2503692056770218
 40
0.3209568221796114
 40
0.3861816196721121
 40
0.5002554836817364
 40
0.6012243489302103
 40
0.669768055864141
 40
0.750240190758111
 40
0.8220490693822882
 40
0.8877204546071489
 40
1.0
 40
1.0
 40
1.0
 40
1.0
 10
74.50345816312914
 20
136.8810016708773
 30
0.0
 10
74.50315452213225
 20
136.8810532580274
 30
0.0
 10
74.43991860296667
 20
136.8917967376408
 30
0.0
 10
74.633122636761
 20
136.8529407469822
 30
0.0
 10
75.02006969166888
 20
136.8079172565775
 30
0.0
 10
75.5610766149952
 20
136.7516542944847
 30
0.0
 10
76.22857687646022
 20
136.7037231018905
 30
0.0
 10
77.11440472781358
 20
136.6766496461611
 30
0.0
 10
78.22521129990136
 20
136.6884756497407
 30
0.0
 10
79.33728166592462
 20
136.805924724896
 30
0.0
 10
80.22838197212253
 20
136.9276291131355
 30
0.0
 10
80.91386642293267
 20
137.0504501587101
 30
0.0
 10
81.44185432247022
 20
137.1638884103924
 30
0.0
 10
81.88923827396349
 20
137.2676289660311
 30
0.0
 10
81.95804874031795
 20
137.2890517593083
 30
0.0
 10
82.00146524763113
 20
137.3025686399554
 30
0.0
  0
SPLINE
  5
122
330
1F
100
AcDbEntity
  8
0
  6
HIDDEN
 62
     7
370
     0
100
AcDbSpline
210
0.0
220
0.0
230
1.0
 70
     8
 71
     3
 72
     8
 73
     4
 74
     0
 42
0.00000001
 43
0.00000001
 40
0.0
 40
0.0
 40
0.0
 40
0.0
 40
1.0
 40
1.0
 40
1.0
 40
1.0
 10
204.4945731695545
 20
117.5055796272352
 30
0.0
 10
204.453198550156
 20
117.4672771820982
 30
0.0
 10
204.4075860865585
 20
117.4268276292971
 30
0.0
 10
204.3577651122243
 20
117.3821727546645
 30
0.0
  0
LINE
  5
123
330
1F
100
AcDbEntity
  8
0
  6
HIDDEN
 62
     7
370
     0
100
AcDbLine
 10
159.2025391303
 20
134.1252499475
 30
0.0
 11
161.7025391303
 21
134.1252499475
 31
0.0
  0
LINE
  5
124
330
1F
100
AcDbEntity
  8
0
  6
HIDDEN
 62
     7
370
     0
100
AcDbLine
 10
156.7025391303
 20
134.1252499475
 30
0.0
 11
159.2025391303
 21
134.1252499475
 31
0.0
  0
LINE
  5
125
330
1F
100
AcDbEntity
  8
0
  6
HIDDEN
 62
     7
370
     0
100
AcDbLine
 10
161.7025391303
 20
93.2799504859
 30
0.0
 11
156.7025391303
 21
93.2799504859
 31
0.0
  0
LINE
  5
126
330
1F
100
AcDbEntity
  8
0
  6
HIDDEN
 62
     7
370
     0
100
AcDbLine
 10
159.2025391303
 20
122.7026002167
 30
0.0
 11
161.7025391303
 21
122.7026002167
 31
0.0
  0
LINE
  5
127
330
1F
100
AcDbEntity
  8
0
  6
HIDDEN
 62
     7
370
     0
100
AcDbLine
 10
156.7025391303
 20
122.7026002167
 30
0.0
 11
159.2025391303
 21
122.7026002167
 31
0.0
  0
LINE
  5
128
330
1F
100
AcDbEntity
  8
0
  6
HIDDEN
 62
     7
370
     0
100
AcDbLine
 10
161.7025391303
 20
104.7026002167
 30
0.0
 11
156.7025391303
 21
104.7026002167
 31
0.0
  0
SPLINE
  5
129
330
1F
100
AcDbEntity
  8
0
  6
HIDDEN
 62
     7
370
     0
100
AcDbSpline
210
0.0
220
0.0
230
1.0
 70
     8
 71
     3
 72
    48
 73
    44
 74
     0
 42
0.00000001
 43
0.00000001
 40
-0.062499999999998
 40
-0.062499999999998
 40
0.0
 40
0.0
 40
0.0625000000000019
 40
0.0625000000000019
 40
0.1250000000000037
 40
0.1250000000000037
 40
0.1875000000000056
 40
0.1875000000000056
 40
0.2500000000000074
 40
0.2500000000000074
 40
0.3125000000000093
 40
0.3125000000000093
 40
0.3437500000000097
 40
0.3437500000000097
 40
0.3750000000000102
 40
0.3750000000000102
 40
0.4062500000000104
 40
0.4062500000000104
 40
0.4375000000000105
 40
0.4375000000000105
 40
0.5000000000000097
 40
0.5000000000000097
 40
0.5625000000000088
 40
0.5625000000000088
 40
0.6250000000000078
 40
0.6250000000000078
 40
0.6562500000000073
 40
0.6562500000000073
 40
0.6875000000000068
 40
0.6875000000000068
 40
0.7500000000000057
 40
0.7500000000000057
 40
0.8125000000000046
 40
0.8125000000000046
 40
0.8437500000000039
 40
0.8437500000000039
 40
0.8750000000000032
 40
0.8750000000000032
 40
0.9062500000000027
 40
0.9062500000000027
 40
0.937500000000002
 40
0.937500000000002
 40
1.0
 40
1.0
 40
1.062500000000002
 40
1.062500000000002
 10
204.5462853393689
 20
122.4729423482816
 30
0.0
 10
204.3831299833784
 20
122.1609182208294
 30
0.0
 10
204.2954260741272
 20
122.0115869675297
 30
0.0
 10
204.1434342446763
 20
121.7161029309451
 30
0.0
 10
204.0825466269847
 20
121.5711396039829
 30
0.0
 10
204.0808627905395
 20
121.3198975171229
 30
0.0
 10
204.1393094910432
 20
121.2276019255382
 30
0.0
 10
204.2843325604023
 20
121.1048060337176
 30
0.0
 10
204.3698516686629
 20
121.0720461060956
 30
0.0
 10
204.5291440109406
 20
121.0604542187249
 30
0.0
 10
204.6038580527257
 20
121.082201389951
 30
0.0
 10
204.6875124597763
 20
121.166757951944
 30
0.0
 10
204.7100758176074
 20
121.2031501801605
 30
0.0
 10
204.7419127909387
 20
121.2930796350402
 30
0.0
 10
204.7510637895556
 20
121.3473281133301
 30
0.0
 10
204.7536755637451
 20
121.4678914662335
 30
0.0
 10
204.747220576352
 20
121.535987253938
 30
0.0
 10
204.7200332258755
 20
121.6798763893375
 30
0.0
 10
204.6995134414055
 20
121.7555756246805
 30
0.0
 10
204.621097871885
 20
121.9899249325253
 30
0.0
 10
204.5479118775081
 20
122.1506319172731
 30
0.0
 10
204.3909326217854
 20
122.460778115147
 30
0.0
 10
204.3045573207359
 20
122.6137391016215
 30
0.0
 10
204.1554558664808
 20
122.9076995965342
 30
0.0
 10
204.0907035172127
 20
123.0549447313975
 30
0.0
 10
204.0785309799477
 20
123.2467342471325
 30
0.0
 10
204.0889122078128
 20
123.303856705699
 30
0.0
 10
204.1325531391654
 20
123.4008520014123
 30
0.0
 10
204.1643520134435
 20
123.4396563424799
 30
0.0
 10
204.2744055725055
 20
123.5334568493685
 30
0.0
 10
204.362072079435
 20
123.5637791594098
 30
0.0
 10
204.5268087470536
 20
123.5690259006495
 30
0.0
 10
204.6021219387079
 20
123.5431704291161
 30
0.0
 10
204.6868358846421
 20
123.4538455570272
 30
0.0
 10
204.709532952566
 20
123.4163221422717
 30
0.0
 10
204.7417862205773
 20
123.324194934426
 30
0.0
 10
204.750944962225
 20
123.2697546931639
 30
0.0
 10
204.753744261058
 20
123.1491569788357
 30
0.0
 10
204.7473503193556
 20
123.0812141736664
 30
0.0
 10
204.7202572552732
 20
122.9387571594297
 30
0.0
 10
204.6996354834829
 20
122.8636287164712
 30
0.0
 10
204.6205406671425
 20
122.6317597126128
 30
0.0
 10
204.5462853393689
 20
122.4729423482816
 30
0.0
 10
204.3831299833784
 20
122.1609182208294
 30
0.0
  0
SPLINE
  5
12A
330
1F
100
AcDbEntity
  8
0
  6
HIDDEN
 62
     7
370
     0
100
AcDbSpline
210
0.0
220
0.0
230
1.0
 70
     8
 71
     3
 72
    14
 73
    10
 74
     0
 42
0.00000001
 43
0.00000001
 40
0.0
 40
0.0
 40
0.0
 40
0.0
 40
0.25
 40
0.25
 40
0.5
 40
0.5
 40
0.75
 40
0.75
 40
1.0
 40
1.0
 40
1.0
 40
1.0
 10
202.305219910333
 20
121.8778113428887
 30
0.0
 10
202.268007823363
 20
121.8449372428588
 30
0.0
 10
202.2322692673076
 20
121.8134831478433
 30
0.0
 10
202.1707735381247
 20
121.7434478525188
 30
0.0
 10
202.1442666721886
 20
121.70434644376
 30
0.0
 10
202.1344833317535
 20
121.5851679028987
 30
0.0
 10
202.1532665275628
 20
121.5068828194893
 30
0.0
 10
202.2031851361482
 20
121.3532392002076
 30
0.0
 10
202.2339938705636
 20
121.2760857304826
 30
0.0
 10
202.2662647768484
 20
121.1999593493673
 30
0.0
  0
SPLINE
  5
12B
330
1F
100
AcDbEntity
  8
0
  6
HIDDEN
 62
     7
370
     0
100
AcDbSpline
210
0.0
220
0.0
230
1.0
 70
     8
 71
     3
 72
    10
 73
     6
 74
     0
 42
0.00000001
 43
0.00000001
 40
0.0
 40
0.0
 40
0.0
 40
0.0
 40
0.5
 40
0.5
 40
1.0
 40
1.0
 40
1.0
 40
1.0
 10
202.2662647768484
 20
121.1999593493672
 30
0.0
 10
202.3458348400173
 20
121.2526309792539
 30
0.0
 10
202.4135302231758
 20
121.3381825416532
 30
0.0
 10
202.4312044463453
 20
121.5823174473629
 30
0.0
 10
202.3774827269378
 20
121.7284495390688
 30
0.0
 10
202.3052199103331
 20
121.8778113428891
 30
0.0
  0
LWPOLYLINE
  5
12C
330
1F
100
AcDbEntity
  8
0
  6
HIDDEN
 62
     7
370
     0
100
AcDbPolyline
 90
       17
 70
   128
 43
0.0
 10
203.2525391303
 20
122.5414349815
 10
203.8265642789
 20
122.6221729296
 10
204.3131993021
 20
122.8520951533
 10
204.6383584291
 20
123.1961980782
 10
204.7525391303
 20
123.6020951533
 10
204.6383584291
 20
124.0079922284
 10
204.3131993021
 20
124.3520951533
 10
203.8265642789
 20
124.582017377
 10
203.2525391303
 20
124.6627553251
 10
202.6785139818
 20
124.582017377
 10
202.1918789586
 20
124.3520951533
 10
201.8667198316
 20
124.0079922284
 10
201.7525391303
 20
123.6020951533
 10
201.8667198316
 20
123.1961980782
 10
202.1918789586
 20
122.8520951533
 10
202.6785139818
 20
122.6221729296
 10
203.2525391303
 20
122.5414349815
  0
SPLINE
  5
12D
330
1F
100
AcDbEntity
  8
0
  6
HIDDEN
 62
     7
370
     0
100
AcDbSpline
210
0.0
220
0.0
230
1.0
 70
     8
 71
     3
 72
    10
 73
     6
 74
     0
 42
0.00000001
 43
0.00000001
 40
0.0
 40
0.0
 40
0.0
 40
0.0
 40
0.5
 40
0.5
 40
1.0
 40
1.0
 40
1.0
 40
1.0
 10
201.7719725751637
 20
122.4223968871169
 30
0.0
 10
201.760404284444
 20
122.4957572428858
 30
0.0
 10
201.753337405778
 20
122.5632694613609
 30
0.0
 10
201.7518721513009
 20
122.6767564234187
 30
0.0
 10
201.7576078087001
 20
122.7219723955657
 30
0.0
 10
201.7680175196467
 20
122.7523764287009
 30
0.0
  0
SPLINE
  5
12E
330
1F
100
AcDbEntity
  8
0
  6
HIDDEN
 62
     7
370
     0
100
AcDbSpline
210
0.0
220
0.0
230
1.0
 70
     8
 71
     3
 72
    24
 73
    20
 74
     0
 42
0.00000001
 43
0.00000001
 40
0.0
 40
0.0
 40
0.0
 40
0.0
 40
0.007502733851635
 40
0.0775467961637604
 40
0.1497239342924013
 40
0.2158240899843849
 40
0.2705815035056457
 40
0.3257450812930529
 40
0.384842893121639
 40
0.4308769449650955
 40
0.4781242675678506
 40
0.5478386710952973
 40
0.6195332046046186
 40
0.6903865693519682
 40
0.7631875727538421
 40
0.8356525224767756
 40
0.9102706886739623
 40
0.9821168232990144
 40
1.0
 40
1.0
 40
1.0
 40
1.0
 10
201.7803790396269
 20
122.7780415844225
 30
0.0
 10
201.7808980909756
 20
122.7791516175776
 30
0.0
 10
201.7862629046461
 20
122.7906247041234
 30
0.0
 10
201.7997526479226
 20
122.7992472969188
 30
0.0
 10
201.8184349449444
 20
122.8003957512072
 30
0.0
 10
201.8342756347059
 20
122.7816599214994
 30
0.0
 10
201.8426102918439
 20
122.7429132941668
 30
0.0
 10
201.8402085737759
 20
122.6824422159013
 30
0.0
 10
201.8289343089931
 20
122.612844083156
 30
0.0
 10
201.8153563878914
 20
122.5448288823012
 30
0.0
 10
201.8000773240472
 20
122.4718944839884
 30
0.0
 10
201.783196885744
 20
122.3887718971579
 30
0.0
 10
201.7675582860343
 20
122.2989572850082
 30
0.0
 10
201.756613048935
 20
122.2135255163806
 30
0.0
 10
201.7516632196277
 20
122.1358777574572
 30
0.0
 10
201.7532446786614
 20
122.067117094318
 30
0.0
 10
201.7617034798665
 20
122.0125835358793
 30
0.0
 10
201.7715243664176
 20
121.9784745560499
 30
0.0
 10
201.7790259834109
 20
121.9682828555084
 30
0.0
 10
201.7805210661242
 20
121.9662516353979
 30
0.0
  0
LWPOLYLINE
  5
12F
330
1F
100
AcDbEntity
  8
0
  6
HIDDEN
 62
     7
370
     0
100
AcDbPolyline
 90
       10
 70
   128
 43
0.0
 10
201.7942901631
 20
121.9461357136
 10
201.8075971079
 20
121.9383125861
 10
201.8211475612
 20
121.9398671888
 10
201.8356194263
 20
121.9604287144
 10
201.8411447775
 20
121.9961313551
 10
201.8388169104
 20
122.0488139041
 10
201.826593488
 20
122.1312058242
 10
201.8132026126
 20
122.201624123
 10
201.7987695482
 20
122.2743703982
 10
201.7719725752
 20
122.4223968871
  0
SPLINE
  5
130
330
1F
100
AcDbEntity
  8
0
  6
HIDDEN
 62
     7
370
     0
100
AcDbSpline
210
0.0
220
0.0
230
1.0
 70
     8
 71
     3
 72
    14
 73
    10
 74
     0
 42
0.00000001
 43
0.00000001
 40
0.0
 40
0.0
 40
0.0
 40
0.0
 40
0.25
 40
0.25
 40
0.5
 40
0.5
 40
0.75
 40
0.75
 40
1.0
 40
1.0
 40
1.0
 40
1.0
 10
202.2662647768482
 20
122.7982477461455
 30
0.0
 10
202.2339118834828
 20
122.8346387829436
 30
0.0
 10
202.2029376992448
 20
122.8702094141207
 30
0.0
 10
202.1530914585514
 20
122.9514801618958
 30
0.0
 10
202.1343916158758
 20
122.9995207546191
 30
0.0
 10
202.1444327721657
 20
123.1347576109666
 30
0.0
 10
202.171023376713
 20
123.2149546300128
 30
0.0
 10
202.2324404749858
 20
123.3700674371987
 30
0.0
 10
202.2680807279551
 20
123.4469605264095
 30
0.0
 10
202.3052199103325
 20
123.522552231538
 30
0.0
  0
SPLINE
  5
131
330
1F
100
AcDbEntity
  8
0
  6
HIDDEN
 62
     7
370
     0
100
AcDbSpline
210
0.0
220
0.0
230
1.0
 70
     8
 71
     3
 72
    14
 73
    10
 74
     0
 42
0.00000001
 43
0.00000001
 40
0.0
 40
0.0
 40
0.0
 40
0.0
 40
0.25
 40
0.25
 40
0.5
 40
0.5
 40
0.75
 40
0.75
 40
1.0
 40
1.0
 40
1.0
 40
1.0
 10
202.3052199103331
 20
123.5225522315386
 30
0.0
 10
202.3413396552396
 20
123.4895031197659
 30
0.0
 10
202.372791373332
 20
123.4492902296952
 30
0.0
 10
202.4161963419037
 20
123.3501122737554
 30
0.0
 10
202.4266702677636
 20
123.2928342751775
 30
0.0
 10
202.4182089142484
 20
123.1634625501928
 30
0.0
 10
202.3992432047117
 20
123.0930327602746
 30
0.0
 10
202.3427327511589
 20
122.9478265200713
 30
0.0
 10
202.3061123820904
 20
122.8738034295152
 30
0.0
 10
202.2662647768484
 20
122.7982477461447
 30
0.0
  0
SPLINE
  5
132
330
1F
100
AcDbEntity
  8
0
  6
HIDDEN
 62
     7
370
     0
100
AcDbSpline
210
0.0
220
0.0
230
1.0
 70
     8
 71
     3
 72
     8
 73
     4
 74
     0
 42
0.00000001
 43
0.00000001
 40
0.0
 40
0.0
 40
0.0
 40
0.0
 40
0.000159097695343
 40
0.000159097695343
 40
0.000159097695343
 40
0.000159097695343
 10
56.63770713956204
 20
97.90110978065309
 30
0.0
 10
56.59265566905769
 20
97.8731308963293
 30
0.0
 10
56.54759963064289
 20
97.84515936595423
 30
0.0
 10
56.50253913034402
 20
97.81719502660172
 30
0.0
  0
SPLINE
  5
133
330
1F
100
AcDbEntity
  8
0
  6
HIDDEN
 62
     7
370
     0
100
AcDbSpline
210
0.0
220
0.0
230
1.0
 70
     8
 71
     3
 72
    11
 73
     7
 74
     0
 42
0.00000001
 43
0.00000001
 40
0.0
 40
0.0
 40
0.0
 40
0.0
 40
0.0008212909311456
 40
0.0008212909311456
 40
0.0008212909311456
 40
0.001642825724306
 40
0.001642825724306
 40
0.001642825724306
 40
0.001642825724306
 10
56.50253913034403
 20
97.81719502660172
 30
0.0
 10
56.31139410886184
 20
97.77390883774916
 30
0.0
 10
56.11997577318537
 20
97.73297232811188
 30
0.0
 10
55.92832969852422
 20
97.6943705567253
 30
0.0
 10
55.73662661698261
 20
97.6557573028882
 30
0.0
 10
55.54468149369711
 20
97.6194770936022
 30
0.0
 10
55.35253913034393
 20
97.5855101872507
 30
0.0
  0
LINE
  5
134
330
1F
100
AcDbEntity
  8
0
  6
HIDDEN
 62
     7
370
     0
100
AcDbLine
 10
103.3425391303
 20
133.8384668481
 30
0.0
 11
103.3425391303
 21
133.5526002167
 31
0.0
  0
ARC
  5
135
330
1F
100
AcDbEntity
  8
0
  6
HIDDEN
 62
     7
370
     0
100
AcDbCircle
 10
218.4548894855
 20
122.2907777541
 30
0.0
 40
16.19657666764101
100
AcDbArc
 50
175.6383567447
 51
178.2045188483
  0
LINE
  5
136
330
1F
100
AcDbEntity
  8
0
  6
HIDDEN
 62
     7
370
     0
100
AcDbLine
 10
107.1625391303
 20
133.8837462293
 30
0.0
 11
107.1625391303
 21
133.5526002167
 31
0.0
  0
LINE
  5
137
330
1F
100
AcDbEntity
  8
0
  6
HIDDEN
 62
     7
370
     0
100
AcDbLine
 10
108.6444719618
 20
138.1612898791
 30
0.0
 11
108.6444719618
 21
133.5526002167
 31
0.0
  0
SPLINE
  5
138
330
1F
100
AcDbEntity
  8
0
  6
HIDDEN
 62
     7
370
     0
100
AcDbSpline
210
0.0
220
0.0
230
1.0
 70
     8
 71
     3
 72
    24
 73
    20
 74
     0
 42
0.00000001
 43
0.00000001
 40
0.0
 40
0.0
 40
0.0
 40
0.0
 40
0.25
 40
0.25
 40
0.374999999999999
 40
0.374999999999999
 40
0.4374999999999993
 40
0.4374999999999993
 40
0.4687499999999994
 40
0.4687499999999994
 40
0.4999999999999995
 40
0.4999999999999995
 40
0.5624999999999971
 40
0.5624999999999971
 40
0.6249999999999947
 40
0.6249999999999947
 40
0.7499999999999947
 40
0.7499999999999947
 40
1.0
 40
1.0
 40
1.0
 40
1.0
 10
55.41520250506743
 20
94.028047671904
 30
0.0
 10
55.42895562373765
 20
94.0986977298943
 30
0.0
 10
55.44672819114352
 20
94.1652958426592
 30
0.0
 10
55.49897928269887
 20
94.23939386289241
 30
0.0
 10
55.52001435828044
 20
94.26065167005397
 30
0.0
 10
55.57291476590886
 20
94.26879759620022
 30
0.0
 10
55.59402043878678
 20
94.26785779280445
 30
0.0
 10
55.64007260746476
 20
94.24684180122709
 30
0.0
 10
55.65844307944815
 20
94.23593299511948
 30
0.0
 10
55.69999471451384
 20
94.2032980841721
 30
0.0
 10
55.72256138727076
 20
94.18180610380075
 30
0.0
 10
55.78534240373077
 20
94.11334016021443
 30
0.0
 10
55.81847216469868
 20
94.06726570200934
 30
0.0
 10
55.87538985118368
 20
93.98225781367466
 30
0.0
 10
55.89957587668745
 20
93.94197751249328
 30
0.0
 10
55.96478382706721
 20
93.82704128602734
 30
0.0
 10
55.99949988725846
 20
93.75645830088034
 30
0.0
 10
56.09271515758935
 20
93.55225254180174
 30
0.0
 10
56.13838769295001
 20
93.42935415947437
 30
0.0
 10
56.17669277644856
 20
93.3124808830868
 30
0.0
  0
ARC
  5
139
330
1F
100
AcDbEntity
  8
0
  6
HIDDEN
 62
     7
370
     0
100
AcDbCircle
 10
189.1571250109
 20
122.2933672176
 30
0.0
 40
13.15466024526638
100
AcDbArc
 50
355.2321065486
 51
358.189724466
  0
SPLINE
  5
13A
330
1F
100
AcDbEntity
  8
0
  6
HIDDEN
 62
     7
370
     0
100
AcDbSpline
210
0.0
220
0.0
230
1.0
 70
     8
 71
     3
 72
    11
 73
     7
 74
     0
 42
0.00000001
 43
0.00000001
 40
0.0
 40
0.0
 40
0.0
 40
0.0
 40
0.0005781862223978
 40
0.0005781862223978
 40
0.0005781862223978
 40
0.0011563724723928
 40
0.0011563724723928
 40
0.0011563724723928
 40
0.0011563724723928
 10
56.35253913034402
 20
126.3427425237315
 30
0.0
 10
56.1858785760684
 20
126.4072720351451
 30
0.0
 10
56.01921527916191
 20
126.4717747389889
 30
0.0
 10
55.85254869533168
 20
126.5362611874225
 30
0.0
 10
55.6858821030726
 20
126.6007476391174
 30
0.0
 10
55.51921223744672
 20
126.6652176478456
 30
0.0
 10
55.35253913034398
 20
126.7296734145781
 30
0.0
  0
SPLINE
  5
13B
330
1F
100
AcDbEntity
  8
0
  6
HIDDEN
 62
     7
370
     0
100
AcDbSpline
210
0.0
220
0.0
230
1.0
 70
     8
 71
     3
 72
    11
 73
     7
 74
     0
 42
0.00000001
 43
0.00000001
 40
0.0
 40
0.0
 40
0.0
 40
0.0
 40
0.0005778746105108
 40
0.0005778746105108
 40
0.0005778746105108
 40
0.0011557494857226
 40
0.0011557494857226
 40
0.0011557494857226
 40
0.0011557494857226
 10
55.35253913034399
 20
100.6753783611948
 30
0.0
 10
55.51920600675733
 20
100.7411904878887
 30
0.0
 10
55.68587272631878
 20
100.8070489680263
 30
0.0
 10
55.85253937436743
 20
100.8729565409569
 30
0.0
 10
56.01920609888609
 20
100.9388641441273
 30
0.0
 10
56.18587279330667
 20
101.0048212525158
 30
0.0
 10
56.35253913034402
 20
101.0708229924385
 30
0.0
  0
SPLINE
  5
13C
330
1F
100
AcDbEntity
  8
0
  6
HIDDEN
 62
     7
370
     0
100
AcDbSpline
210
0.0
220
0.0
230
1.0
 70
     8
 71
     3
 72
    11
 73
     7
 74
     0
 42
0.00000001
 43
0.00000001
 40
0.0000000000000006
 40
0.0000000000000006
 40
0.0000000000000006
 40
0.0000000000000006
 40
0.0005780486062768
 40
0.0005780486062768
 40
0.0005780486062768
 40
0.0011560973514127
 40
0.0011560973514127
 40
0.0011560973514127
 40
0.0011560973514127
 10
55.35253913034399
 20
123.6834147183765
 30
0.0
 10
55.5192089863889
 20
123.621042856862
 30
0.0
 10
55.68587669047317
 20
123.5586889965643
 30
0.0
 10
55.85254299492681
 20
123.4963694363782
 30
0.0
 10
56.01920933562056
 20
123.4340498626413
 30
0.0
 10
56.18587429224934
 20
123.3717646583217
 30
0.0
 10
56.35253913034402
 20
123.3095395377531
 30
0.0
  0
SPLINE
  5
13D
330
1F
100
AcDbEntity
  8
0
  6
HIDDEN
 62
     7
370
     0
100
AcDbSpline
210
0.0
220
0.0
230
1.0
 70
     8
 71
     3
 72
    11
 73
     7
 74
     0
 42
0.00000001
 43
0.00000001
 40
0.0
 40
0.0
 40
0.0
 40
0.0
 40
0.0005782401583533
 40
0.0005782401583533
 40
0.0005782401583533
 40
0.0011564805960992
 40
0.0011564805960992
 40
0.0011564805960992
 40
0.0011564805960992
 10
56.35253913034402
 20
104.1017734242871
 30
0.0
 10
56.1858881799951
 20
104.0383479662263
 30
0.0
 10
56.01922858741244
 20
103.974992442571
 30
0.0
 10
55.85256153498388
 20
103.911694858221
 30
0.0
 10
55.68589439842007
 20
103.8483972419178
 30
0.0
 10
55.51921979097402
 20
103.7851574469771
 30
0.0
 10
55.35253913034396
 20
103.7219574403383
 30
0.0
  0
CIRCLE
  5
13E
330
1F
100
AcDbEntity
  8
0
  6
HIDDEN
 62
     7
370
     0
100
AcDbCircle
 10
94.2525391303
 20
113.7026002167
 30
0.0
 40
5.000000000000014
  0
CIRCLE
  5
13F
330
1F
100
AcDbEntity
  8
0
  6
HIDDEN
 62
     7
370
     0
100
AcDbCircle
 10
225.2525391303
 20
113.7026002167
 30
0.0
 40
5.999999999999978
  0
CIRCLE
  5
140
330
1F
100
AcDbEntity
  8
0
  6
HIDDEN
 62
     7
370
     0
100
AcDbCircle
 10
225.2525391303
 20
113.7026002167
 30
0.0
 40
2.749999999999996
  0
CIRCLE
  5
141
330
1F
100
AcDbEntity
  8
0
  6
HIDDEN
 62
     7
370
     0
100
AcDbCircle
 10
225.2525391303
 20
113.7026002167
 30
0.0
 40
3.999999999999987
  0
LWPOLYLINE
  5
142
330
1F
100
AcDbEntity
  8
0
  6
HIDDEN
 62
     7
370
     0
100
AcDbPolyline
 90
       17
 70
   128
 43
0.0
 10
241.8372242895
 20
104.6779316455
 10
241.8220740852
 20
104.6394427203
 10
241.8014660749
 20
104.8272857481
 10
241.7785376415
 20
105.2128633307
 10
241.756779431
 20
105.7374747766
 10
241.7395039339
 20
106.3212527486
 10
241.7293411879
 20
106.8753223424
 10
241.727838379
 20
107.3153314852
 10
241.7352242961
 20
107.5742927735
 10
241.7503745005
 20
107.6127816988
 10
241.7709825108
 20
107.4249386709
 10
241.7939109442
 20
107.0393610883
 10
241.8156691547
 20
106.5147496424
 10
241.8329446518
 20
105.9309716704
 10
241.8431073978
 20
105.3769020766
 10
241.8446102067
 20
104.9368929338
 10
241.8372242895
 20
104.6779316455
  0
LWPOLYLINE
  5
143
330
1F
100
AcDbEntity
  8
0
  6
HIDDEN
 62
     7
370
     0
100
AcDbPolyline
 90
       17
 70
   128
 43
0.0
 10
241.3206097725
 20
105.1467780592
 10
241.3105096363
 20
105.1211187757
 10
241.2967709627
 20
105.2463474609
 10
241.2814853405
 20
105.5033991827
 10
241.2669798668
 20
105.8531401466
 10
241.2554628687
 20
106.2423254612
 10
241.2486877047
 20
106.6117051905
 10
241.2476858321
 20
106.905044619
 10
241.2526097769
 20
107.0776854779
 10
241.2627099132
 20
107.1033447614
 10
241.2764485867
 20
106.9781160762
 10
241.291734209
 20
106.7210643544
 10
241.3062396826
 20
106.3713233905
 10
241.3177566807
 20
105.9821380758
 10
241.3245318447
 20
105.6127583466
 10
241.3255337173
 20
105.3194189181
 10
241.3206097725
 20
105.1467780592
  0
LWPOLYLINE
  5
144
330
1F
100
AcDbEntity
  8
0
  6
HIDDEN
 62
     7
370
     0
100
AcDbPolyline
 90
       17
 70
   128
 43
0.0
 10
247.1711620934
 20
104.8261207116
 10
247.156011889
 20
104.7876317864
 10
247.1354038788
 20
104.9754748142
 10
247.1124754453
 20
105.3610523969
 10
247.0907172349
 20
105.8856638427
 10
247.0734417378
 20
106.4694418147
 10
247.0632789918
 20
107.0235114086
 10
247.0617761828
 20
107.4635205513
 10
247.0691621
 20
107.7224818396
 10
247.0843123044
 20
107.7609707649
 10
247.1049203147
 20
107.5731277371
 10
247.1278487481
 20
107.1875501544
 10
247.1496069586
 20
106.6629387085
 10
247.1668824557
 20
106.0791607366
 10
247.1770452017
 20
105.5250911427
 10
247.1785480106
 20
105.0850819999
 10
247.1711620934
 20
104.8261207116
  0
ARC
  5
145
330
1F
100
AcDbEntity
  8
0
  6
HIDDEN
 62
     7
370
     0
100
AcDbCircle
 10
260.7254862738
 20
106.6342975506
 30
0.0
 40
13.50000978816228
100
AcDbArc
 50
176.3714903392
 51
186.6915291025
  0
LINE
  5
146
330
1F
100
AcDbEntity
  8
0
  6
HIDDEN
 62
     7
370
     0
100
AcDbLine
 10
245.3129707815
 20
105.9995402936
 30
0.0
 11
245.3129707815
 21
105.3871678579
 31
0.0
  0
LINE
  5
147
330
1F
100
AcDbEntity
  8
0
  6
HIDDEN
 62
     7
370
     0
100
AcDbLine
 10
247.311428854
 20
106.0550620575
 30
0.0
 11
247.311428854
 21
105.4426896218
 31
0.0
  0
LINE
  5
148
330
1F
100
AcDbEntity
  8
0
  6
HIDDEN
 62
     7
370
     0
100
AcDbLine
 10
245.3129707815
 20
105.9995402936
 30
0.0
 11
247.311428854
 21
106.0550620575
 31
0.0
  0
LINE
  5
149
330
1F
100
AcDbEntity
  8
0
  6
HIDDEN
 62
     7
370
     0
100
AcDbLine
 10
245.3129707815
 20
105.9995402936
 30
0.0
 11
245.2835259197
 21
106.835647732
 31
0.0
  0
LINE
  5
14A
330
1F
100
AcDbEntity
  8
0
  6
HIDDEN
 62
     7
370
     0
100
AcDbLine
 10
247.311428854
 20
106.0550620575
 30
0.0
 11
247.2819839922
 21
106.8911694959
 31
0.0
  0
LINE
  5
14B
330
1F
100
AcDbEntity
  8
0
  6
HIDDEN
 62
     7
370
     0
100
AcDbLine
 10
245.2835259197
 20
106.835647732
 30
0.0
 11
247.2819839922
 21
106.8911694959
 31
0.0
  0
LINE
  5
14C
330
1F
100
AcDbEntity
  8
0
  6
HIDDEN
 62
     7
370
     0
100
AcDbLine
 10
245.2835259197
 20
106.835647732
 30
0.0
 11
245.2540810579
 21
107.0593827348
 31
0.0
  0
LINE
  5
14D
330
1F
100
AcDbEntity
  8
0
  6
HIDDEN
 62
     7
370
     0
100
AcDbLine
 10
247.2819839922
 20
106.8911694959
 30
0.0
 11
247.2525391303
 21
107.1149044987
 31
0.0
  0
LINE
  5
14E
330
1F
100
AcDbEntity
  8
0
  6
HIDDEN
 62
     7
370
     0
100
AcDbLine
 10
245.2835259197
 20
105.6109028606
 30
0.0
 11
247.2819839922
 21
105.6664246245
 31
0.0
  0
LINE
  5
14F
330
1F
100
AcDbEntity
  8
0
  6
HIDDEN
 62
     7
370
     0
100
AcDbLine
 10
245.3129707815
 20
105.3871678579
 30
0.0
 11
247.311428854
 21
105.4426896218
 31
0.0
  0
LINE
  5
150
330
1F
100
AcDbEntity
  8
0
  6
HIDDEN
 62
     7
370
     0
100
AcDbLine
 10
245.2835259197
 20
105.6109028606
 30
0.0
 11
245.3129707815
 21
105.3871678579
 31
0.0
  0
LINE
  5
151
330
1F
100
AcDbEntity
  8
0
  6
HIDDEN
 62
     7
370
     0
100
AcDbLine
 10
247.2819839922
 20
105.6664246245
 30
0.0
 11
247.311428854
 21
105.4426896218
 31
0.0
  0
LINE
  5
152
330
1F
100
AcDbEntity
  8
0
  6
HIDDEN
 62
     7
370
     0
100
AcDbLine
 10
245.2540810579
 20
106.4470102991
 30
0.0
 11
247.2525391303
 21
106.502532063
 31
0.0
  0
LINE
  5
153
330
1F
100
AcDbEntity
  8
0
  6
HIDDEN
 62
     7
370
     0
100
AcDbLine
 10
245.2540810579
 20
107.0593827348
 30
0.0
 11
247.2525391303
 21
107.1149044987
 31
0.0
  0
LINE
  5
154
330
1F
100
AcDbEntity
  8
0
  6
HIDDEN
 62
     7
370
     0
100
AcDbLine
 10
245.2540810579
 20
106.4470102991
 30
0.0
 11
245.2540810579
 21
107.0593827348
 31
0.0
  0
LINE
  5
155
330
1F
100
AcDbEntity
  8
0
  6
HIDDEN
 62
     7
370
     0
100
AcDbLine
 10
245.2835259197
 20
105.6109028606
 30
0.0
 11
245.2540810579
 21
106.4470102991
 31
0.0
  0
LINE
  5
156
330
1F
100
AcDbEntity
  8
0
  6
HIDDEN
 62
     7
370
     0
100
AcDbLine
 10
247.2819839922
 20
105.6664246245
 30
0.0
 11
247.2525391303
 21
106.502532063
 31
0.0
  0
LWPOLYLINE
  5
157
330
1F
100
AcDbEntity
  8
0
  6
HIDDEN
 62
     7
370
     0
100
AcDbPolyline
 90
        7
 70
   128
 43
0.0
 10
247.2525391303
 20
121.3562429946
 10
247.2422569757
 20
121.0012753659
 10
247.2335349758
 20
120.5467698872
 10
247.2317987028
 20
120.1805191929
 10
247.2373124885
 20
119.9582816312
 10
247.2492369089
 20
119.9138908561
 10
247.2525391303
 20
119.9291174517
  0
LWPOLYLINE
  5
158
330
1F
100
AcDbEntity
  8
0
  6
HIDDEN
 62
     7
370
     0
100
AcDbPolyline
 90
       17
 70
   128
 43
0.0
 10
247.1761750519
 20
122.2945071255
 10
247.1693930277
 20
122.56786206
 10
247.1547258439
 20
122.6224632593
 10
247.1344064461
 20
122.4499981858
 10
247.1115282786
 20
122.0767230834
 10
247.089574335
 20
121.5594657029
 10
247.0718869041
 20
120.9769737913
 10
247.061158737
 20
120.4179264621
 10
247.0590230998
 20
119.9674336032
 10
247.065805124
 20
119.6940786687
 10
247.0804723079
 20
119.6394774694
 10
247.1007917056
 20
119.811942543
 10
247.1236698731
 20
120.1852176453
 10
247.1456238168
 20
120.7024750259
 10
247.1633112477
 20
121.2849669374
 10
247.1740394148
 20
121.8440142667
 10
247.1761750519
 20
122.2945071255
  0
LWPOLYLINE
  5
159
330
1F
100
AcDbEntity
  8
0
  6
HIDDEN
 62
     7
370
     0
100
AcDbPolyline
 90
       17
 70
   128
 43
0.0
 10
241.842237248
 20
122.4426961917
 10
241.8354552238
 20
122.7160511262
 10
241.82078804
 20
122.7706523254
 10
241.8004686422
 20
122.5981872519
 10
241.7775904747
 20
122.2249121495
 10
241.7556365311
 20
121.707654769
 10
241.7379491002
 20
121.1251628575
 10
241.7272209331
 20
120.5661155282
 10
241.7250852959
 20
120.1156226693
 10
241.7318673201
 20
119.8422677348
 10
241.746534504
 20
119.7876665355
 10
241.7668539017
 20
119.9601316091
 10
241.7897320692
 20
120.3334067114
 10
241.8116860129
 20
120.850664092
 10
241.8293734438
 20
121.4331560035
 10
241.8401016109
 20
121.9922033328
 10
241.842237248
 20
122.4426961917
  0
LWPOLYLINE
  5
15A
330
1F
100
AcDbEntity
  8
0
  6
HIDDEN
 62
     7
370
     0
100
AcDbPolyline
 90
       17
 70
   128
 43
0.0
 10
241.3230974046
 20
122.0687310456
 10
241.3185760551
 20
122.2509676686
 10
241.3087979325
 20
122.2873684681
 10
241.2952516674
 20
122.1723917524
 10
241.2799995557
 20
121.9235416842
 10
241.2653635933
 20
121.5787034305
 10
241.2535719727
 20
121.1903754894
 10
241.2464198613
 20
120.8176772699
 10
241.2449961032
 20
120.5173486973
 10
241.2495174526
 20
120.3351120743
 10
241.2592955752
 20
120.2987112748
 10
241.2728418404
 20
120.4136879905
 10
241.288093952
 20
120.6625380587
 10
241.3027299145
 20
121.0073763125
 10
241.3145215351
 20
121.3957042535
 10
241.3216736465
 20
121.768402473
 10
241.3230974046
 20
122.0687310456
  0
LINE
  5
15B
330
1F
100
AcDbEntity
  8
0
  6
HIDDEN
 62
     7
370
     0
100
AcDbLine
 10
247.2525391303
 20
120.8590865628
 30
0.0
 11
247.2456021158
 21
120.4547063175
 31
0.0
  0
LINE
  5
15C
330
1F
100
AcDbEntity
  8
0
  6
HIDDEN
 62
     7
370
     0
100
AcDbLine
 10
247.2525391303
 20
120.4070590196
 30
0.0
 11
247.2456021158
 21
120.4547063175
 31
0.0
  0
LINE
  5
15D
330
1F
100
AcDbEntity
  8
0
  6
HIDDEN
 62
     7
370
     0
100
AcDbLine
 10
245.3009077252
 20
121.0450041153
 30
0.0
 11
245.3147817544
 21
121.8537646059
 31
0.0
  0
LINE
  5
15E
330
1F
100
AcDbEntity
  8
0
  6
HIDDEN
 62
     7
370
     0
100
AcDbLine
 10
245.3009077252
 20
121.0450041153
 30
0.0
 11
245.2670888697
 21
120.373235853
 31
0.0
  0
LINE
  5
15F
330
1F
100
AcDbEntity
  8
0
  6
HIDDEN
 62
     7
370
     0
100
AcDbLine
 10
245.2670888697
 20
120.373235853
 30
0.0
 11
245.2471440433
 21
120.5102280814
 31
0.0
  0
LINE
  5
160
330
1F
100
AcDbEntity
  8
0
  6
HIDDEN
 62
     7
370
     0
100
AcDbLine
 10
245.294836928
 20
121.9907568343
 30
0.0
 11
245.2610180724
 21
121.318988572
 31
0.0
  0
LINE
  5
161
330
1F
100
AcDbEntity
  8
0
  6
HIDDEN
 62
     7
370
     0
100
AcDbLine
 10
245.294836928
 20
121.9907568343
 30
0.0
 11
245.3147817544
 21
121.8537646059
 31
0.0
  0
LINE
  5
162
330
1F
100
AcDbEntity
  8
0
  6
HIDDEN
 62
     7
370
     0
100
AcDbLine
 10
245.2610180724
 20
121.318988572
 30
0.0
 11
245.2471440433
 21
120.5102280814
 31
0.0
  0
LINE
  5
163
330
1F
100
AcDbEntity
  8
0
  6
HIDDEN
 62
     7
370
     0
100
AcDbLine
 10
245.2610180724
 20
121.318988572
 30
0.0
 11
247.2594761449
 21
121.2634668081
 31
0.0
  0
LINE
  5
164
330
1F
100
AcDbEntity
  8
0
  6
HIDDEN
 62
     7
370
     0
100
AcDbLine
 10
245.2471440433
 20
120.5102280814
 30
0.0
 11
247.2456021158
 21
120.4547063175
 31
0.0
  0
LINE
  5
165
330
1F
100
AcDbEntity
  8
0
  6
HIDDEN
 62
     7
370
     0
100
AcDbLine
 10
245.3147817544
 20
121.8537646059
 30
0.0
 11
247.2864358846
 21
121.7989875172
 31
0.0
  0
LINE
  5
166
330
1F
100
AcDbEntity
  8
0
  6
HIDDEN
 62
     7
370
     0
100
AcDbLine
 10
245.294836928
 20
121.9907568343
 30
0.0
 11
247.2932950005
 21
121.9352350704
 31
0.0
  0
LINE
  5
167
330
1F
100
AcDbEntity
  8
0
  6
HIDDEN
 62
     7
370
     0
100
AcDbLine
 10
245.3009077252
 20
121.0450041153
 30
0.0
 11
247.2547972699
 21
120.9907205676
 31
0.0
  0
LINE
  5
168
330
1F
100
AcDbEntity
  8
0
  6
HIDDEN
 62
     7
370
     0
100
AcDbLine
 10
245.2670888697
 20
120.373235853
 30
0.0
 11
247.2655469422
 21
120.3177140891
 31
0.0
  0
LINE
  5
169
330
1F
100
AcDbEntity
  8
0
  6
HIDDEN
 62
     7
370
     0
100
AcDbLine
 10
91.2525391303
 20
128.0004353664
 30
0.0
 11
91.2525391303
 21
126.0965408596
 31
0.0
  0
LINE
  5
16A
330
1F
100
AcDbEntity
  8
0
  6
HIDDEN
 62
     7
370
     0
100
AcDbLine
 10
99.2525391303
 20
126.0965408596
 30
0.0
 11
99.2525391303
 21
128.0032307224
 31
0.0
  0
LINE
  5
16B
330
1F
100
AcDbEntity
  8
0
  6
HIDDEN
 62
     7
370
     0
100
AcDbLine
 10
87.2525391303
 20
88.3786690707
 30
0.0
 11
87.3466999059
 21
89.0486578019
 31
0.0
  0
LINE
  5
16C
330
1F
100
AcDbEntity
  8
0
  6
HIDDEN
 62
     7
370
     0
100
AcDbLine
 10
87.3466999059
 20
138.3565426314
 30
0.0
 11
87.2525391303
 21
139.0265313627
 31
0.0
  0
ARC
  5
16D
330
1F
100
AcDbEntity
  8
0
  6
HIDDEN
 62
     7
370
     0
100
AcDbCircle
 10
86.7525323777
 20
89.1321626023
 30
0.0
 40
0.60000675266771
100
AcDbArc
 50
352.0
 51
0.0
  0
ARC
  5
16E
330
1F
100
AcDbEntity
  8
0
  6
HIDDEN
 62
     7
370
     0
100
AcDbCircle
 10
86.7525323777
 20
89.1321626023
 30
0.0
 40
0.6000067526677164
100
AcDbArc
 50
0.0
 51
33.5571153394
  0
ARC
  5
16F
330
1F
100
AcDbEntity
  8
0
  6
HIDDEN
 62
     7
370
     0
100
AcDbCircle
 10
86.7525323777
 20
138.2730378311
 30
0.0
 40
0.6000067526677169
100
AcDbArc
 50
348.75
 51
8.0
  0
LWPOLYLINE
  5
170
330
1F
100
AcDbEntity
  8
0
  6
HIDDEN
 62
     7
370
     0
100
AcDbPolyline
 90
        3
 70
   128
 43
0.0
 10
87.3410101688
 20
138.1559823205
 10
87.3068663358
 20
138.0434251875
 10
87.2525391303
 20
137.941373316
  0
LINE
  5
171
330
1F
100
AcDbEntity
  8
0
  6
HIDDEN
 62
     7
370
     0
100
AcDbLine
 10
87.3525391303
 20
89.1321626023
 30
0.0
 11
87.3525391303
 21
138.2730378311
 31
0.0
  0
ARC
  5
172
330
1F
100
AcDbEntity
  8
0
  6
HIDDEN
 62
     7
370
     0
100
AcDbCircle
 10
81.0075411319
 20
101.7026002167
 30
0.0
 40
8.000000000000004
100
AcDbArc
 50
277.1234766433
 51
321.3178125465
  0
ARC
  5
173
330
1F
100
AcDbEntity
  8
0
  6
HIDDEN
 62
     7
370
     0
100
AcDbCircle
 10
81.0075411319
 20
125.7026002167
 30
0.0
 40
7.999999999999975
100
AcDbArc
 50
38.6821874535
 51
82.8557416614
  0
ARC
  5
174
330
1F
100
AcDbEntity
  8
0
  6
HIDDEN
 62
     7
370
     0
100
AcDbCircle
 10
70.3349746956
 20
94.3026002167
 30
0.0
 40
0.5999999999999962
100
AcDbArc
 50
210.0
 51
270.0
  0
ARC
  5
175
330
1F
100
AcDbEntity
  8
0
  6
HIDDEN
 62
     7
370
     0
100
AcDbCircle
 10
70.3349746956
 20
133.1026002167
 30
0.0
 40
0.5999999999999943
100
AcDbArc
 50
90.0
 51
150.0
  0
LINE
  5
176
330
1F
100
AcDbEntity
  8
0
  6
HIDDEN
 62
     7
370
     0
100
AcDbLine
 10
70.3349746956
 20
93.7026002167
 30
0.0
 11
74.5056565115
 21
93.7026002167
 31
0.0
  0
LINE
  5
177
330
1F
100
AcDbEntity
  8
0
  6
HIDDEN
 62
     7
370
     0
100
AcDbLine
 10
74.5056565115
 20
133.7026002167
 30
0.0
 11
70.3349746956
 21
133.7026002167
 31
0.0
  0
LINE
  5
178
330
1F
100
AcDbEntity
  8
0
  6
HIDDEN
 62
     7
370
     0
100
AcDbLine
 10
69.8153594534
 20
133.4026002167
 30
0.0
 11
68.2565137266
 21
130.7026002167
 31
0.0
  0
LINE
  5
179
330
1F
100
AcDbEntity
  8
0
  6
HIDDEN
 62
     7
370
     0
100
AcDbLine
 10
68.2565137266
 20
96.7026002167
 30
0.0
 11
69.8153594534
 21
94.0026002167
 31
0.0
  0
LINE
  5
17A
330
1F
100
AcDbEntity
  8
0
  6
HIDDEN
 62
     7
370
     0
100
AcDbLine
 10
91.2525391303
 20
140.9809577645
 30
0.0
 11
91.2525391303
 21
137.6482026313
 31
0.0
  0
LINE
  5
17B
330
1F
100
AcDbEntity
  8
0
  6
HIDDEN
 62
     7
370
     0
100
AcDbLine
 10
99.2525391303
 20
137.6482026313
 30
0.0
 11
99.2525391303
 21
140.9823324538
 31
0.0
  0
ARC
  5
17C
330
1F
100
AcDbEntity
  8
0
  6
HIDDEN
 62
     7
370
     0
100
AcDbCircle
 10
95.7025391303
 20
97.9776002167
 30
0.0
 40
1.5
100
AcDbArc
 50
238.2116693829
 51
0.0
  0
ARC
  5
17D
330
1F
100
AcDbEntity
  8
0
  6
HIDDEN
 62
     7
370
     0
100
AcDbCircle
 10
95.7025391303
 20
129.4276002167
 30
0.0
 40
1.5
100
AcDbArc
 50
0.0
 51
121.7883306171
  0
LINE
  5
17E
330
1F
100
AcDbEntity
  8
0
  6
HIDDEN
 62
     7
370
     0
100
AcDbLine
 10
65.4525391303
 20
96.7026002167
 30
0.0
 11
68.2565137266
 21
96.7026002167
 31
0.0
  0
LINE
  5
17F
330
1F
100
AcDbEntity
  8
0
  6
HIDDEN
 62
     7
370
     0
100
AcDbLine
 10
68.2565137266
 20
130.7026002167
 30
0.0
 11
61.4525391303
 21
130.7026002167
 31
0.0
  0
LINE
  5
180
330
1F
100
AcDbEntity
  8
0
  6
HIDDEN
 62
     7
370
     0
100
AcDbLine
 10
87.2525391303
 20
96.7026002167
 30
0.0
 11
94.9123650989
 21
96.7026002167
 31
0.0
  0
LINE
  5
181
330
1F
100
AcDbEntity
  8
0
  6
HIDDEN
 62
     7
370
     0
100
AcDbLine
 10
94.9123650989
 20
130.7026002167
 30
0.0
 11
87.2525391303
 21
130.7026002167
 31
0.0
  0
LINE
  5
182
330
1F
100
AcDbEntity
  8
0
  6
HIDDEN
 62
     7
370
     0
100
AcDbLine
 10
204.7525391303
 20
105.9733767335
 30
0.0
 11
204.7525391303
 21
109.3300408402
 31
0.0
  0
LINE
  5
183
330
1F
100
AcDbEntity
  8
0
  6
HIDDEN
 62
     7
370
     0
100
AcDbLine
 10
204.7525391303
 20
103.4495518895
 30
0.0
 11
204.7525391303
 21
104.2211805842
 31
0.0
  0
LINE
  5
184
330
1F
100
AcDbEntity
  8
0
  6
HIDDEN
 62
     7
370
     0
100
AcDbLine
 10
201.7525391303
 20
104.7774845748
 30
0.0
 11
201.7525391303
 21
103.4495518895
 31
0.0
  0
LINE
  5
185
330
1F
100
AcDbEntity
  8
0
  6
HIDDEN
 62
     7
370
     0
100
AcDbLine
 10
201.7525391303
 20
109.2496542073
 30
0.0
 11
201.7525391303
 21
105.2860346052
 31
0.0
  0
LINE
  5
186
330
1F
100
AcDbEntity
  8
0
  6
HIDDEN
 62
     7
370
     0
100
AcDbLine
 10
204.4647076614
 20
103.8387522799
 30
0.0
 11
247.2525391303
 21
105.0274966971
 31
0.0
  0
LINE
  5
187
330
1F
100
AcDbEntity
  8
0
  6
HIDDEN
 62
     7
370
     0
100
AcDbLine
 10
247.2525391303
 20
107.5284613313
 30
0.0
 11
204.4632953487
 21
106.3396776768
 31
0.0
  0
LINE
  5
188
330
1F
100
AcDbEntity
  8
0
  6
HIDDEN
 62
     7
370
     0
100
AcDbLine
 10
106.0525391303
 20
104.2026002167
 30
0.0
 11
109.0525391303
 21
104.2026002167
 31
0.0
  0
LINE
  5
189
330
1F
100
AcDbEntity
  8
0
  6
HIDDEN
 62
     7
370
     0
100
AcDbLine
 10
109.0525391303
 20
123.2026002167
 30
0.0
 11
106.0525391303
 21
123.2026002167
 31
0.0
  0
LINE
  5
18A
330
1F
100
AcDbEntity
  8
0
  6
HIDDEN
 62
     7
370
     0
100
AcDbLine
 10
201.7770209727
 20
105.4348172244
 30
0.0
 11
201.5367357779
 21
105.0078888005
 31
0.0
  0
LINE
  5
18B
330
1F
100
AcDbEntity
  8
0
  6
HIDDEN
 62
     7
370
     0
100
AcDbLine
 10
201.5367357779
 20
105.0078888005
 30
0.0
 11
201.7782384527
 21
104.6296017391
 31
0.0
  0
LINE
  5
18C
330
1F
100
AcDbEntity
  8
0
  6
HIDDEN
 62
     7
370
     0
100
AcDbLine
 10
97.2025391303
 20
104.7026002167
 30
0.0
 11
97.7025391303
 21
105.2026002167
 31
0.0
  0
LINE
  5
18D
330
1F
100
AcDbEntity
  8
0
  6
HIDDEN
 62
     7
370
     0
100
AcDbLine
 10
97.7025391303
 20
122.2026002167
 30
0.0
 11
97.2025391303
 21
122.7026002167
 31
0.0
  0
LINE
  5
18E
330
1F
100
AcDbEntity
  8
0
  6
HIDDEN
 62
     7
370
     0
100
AcDbLine
 10
97.7025391303
 20
105.2026002167
 30
0.0
 11
106.0525391303
 21
105.2026002167
 31
0.0
  0
LINE
  5
18F
330
1F
100
AcDbEntity
  8
0
  6
HIDDEN
 62
     7
370
     0
100
AcDbLine
 10
106.0525391303
 20
122.2026002167
 30
0.0
 11
97.7025391303
 21
122.2026002167
 31
0.0
  0
LINE
  5
190
330
1F
100
AcDbEntity
  8
0
  6
HIDDEN
 62
     7
370
     0
100
AcDbLine
 10
92.2025391303
 20
145.2026002167
 30
0.0
 11
92.2025391303
 21
140.1026002167
 31
0.0
  0
ARC
  5
191
330
1F
100
AcDbEntity
  8
0
  6
HIDDEN
 62
     7
370
     0
100
AcDbCircle
 10
246.9525391303
 20
107.4026002167
 30
0.0
 40
0.2999999999999829
100
AcDbArc
 50
0.0
 51
90.0
  0
ARC
  5
192
330
1F
100
AcDbEntity
  8
0
  6
HIDDEN
 62
     7
370
     0
100
AcDbCircle
 10
246.9525391303
 20
120.0026002167
 30
0.0
 40
0.2999999999999972
100
AcDbArc
 50
270.0
 51
0.0
  0
LINE
  5
193
330
1F
100
AcDbEntity
  8
0
  6
HIDDEN
 62
     7
370
     0
100
AcDbLine
 10
201.6525391303
 20
107.4026002167
 30
0.0
 11
204.3577651122
 21
107.4026002167
 31
0.0
  0
LINE
  5
194
330
1F
100
AcDbEntity
  8
0
  6
HIDDEN
 62
     7
370
     0
100
AcDbLine
 10
204.3577651122
 20
120.0026002167
 30
0.0
 11
201.6525391303
 21
120.0026002167
 31
0.0
  0
ARC
  5
195
330
1F
100
AcDbEntity
  8
0
  6
HIDDEN
 62
     7
370
     0
100
AcDbCircle
 10
204.3577651122
 20
119.6026002167
 30
0.0
 40
0.3999999999999941
100
AcDbArc
 50
70.0
 51
90.0
  0
ARC
  5
196
330
1F
100
AcDbEntity
  8
0
  6
HIDDEN
 62
     7
370
     0
100
AcDbCircle
 10
201.6525391303
 20
107.8026002167
 30
0.0
 40
0.4000000000000057
100
AcDbArc
 50
180.0
 51
270.0
  0
ARC
  5
197
330
1F
100
AcDbEntity
  8
0
  6
HIDDEN
 62
     7
370
     0
100
AcDbCircle
 10
201.6525391303
 20
119.6026002167
 30
0.0
 40
0.4000000000000057
100
AcDbArc
 50
90.0
 51
180.0
  0
LINE
  5
198
330
1F
100
AcDbEntity
  8
0
  6
HIDDEN
 62
     7
370
     0
100
AcDbLine
 10
204.4945731696
 20
107.4267231684
 30
0.0
 11
205.2525391303
 21
107.7026002167
 31
0.0
  0
LINE
  5
199
330
1F
100
AcDbEntity
  8
0
  6
HIDDEN
 62
     7
370
     0
100
AcDbLine
 10
205.2525391303
 20
119.7026002167
 30
0.0
 11
204.4945731696
 21
119.978477265
 31
0.0
  0
LINE
  5
19A
330
1F
100
AcDbEntity
  8
0
  6
HIDDEN
 62
     7
370
     0
100
AcDbLine
 10
205.2525391303
 20
107.7026002167
 30
0.0
 11
246.9525391303
 21
107.7026002167
 31
0.0
  0
LINE
  5
19B
330
1F
100
AcDbEntity
  8
0
  6
HIDDEN
 62
     7
370
     0
100
AcDbLine
 10
246.9525391303
 20
119.7026002167
 30
0.0
 11
225.9095277613
 21
119.7026002167
 31
0.0
  0
LINE
  5
19C
330
1F
100
AcDbEntity
  8
0
  6
HIDDEN
 62
     7
370
     0
100
AcDbLine
 10
224.5945690481
 20
119.7026002167
 30
0.0
 11
205.2525391303
 21
119.7026002167
 31
0.0
  0
LINE
  5
19D
330
1F
100
AcDbEntity
  8
0
  6
HIDDEN
 62
     7
370
     0
100
AcDbLine
 10
82.4369769608
 20
89.6232288831
 30
0.0
 11
82.0025448113
 21
90.1022949022
 31
0.0
  0
LINE
  5
19E
330
1F
100
AcDbEntity
  8
0
  6
HIDDEN
 62
     7
370
     0
100
AcDbLine
 10
74.5025414863
 20
90.5239828614
 30
0.0
 11
74.0201077429
 21
90.0449168859
 31
0.0
  0
LINE
  5
19F
330
1F
100
AcDbEntity
  8
0
  6
HIDDEN
 62
     7
370
     0
100
AcDbLine
 10
74.0199858147
 20
137.360278257
 30
0.0
 11
74.5025365656
 21
136.8811579991
 31
0.0
  0
LINE
  5
1A0
330
1F
100
AcDbEntity
  8
0
  6
HIDDEN
 62
     7
370
     0
100
AcDbLine
 10
82.0025390123
 20
137.3028557768
 30
0.0
 11
82.4370814027
 21
137.7819760273
 31
0.0
  0
LINE
  5
1A1
330
1F
100
AcDbEntity
  8
0
  6
HIDDEN
 62
     7
370
     0
100
AcDbLine
 10
109.0525391303
 20
109.4526002167
 30
0.0
 11
201.2525391303
 21
109.4526002167
 31
0.0
  0
LINE
  5
1A2
330
1F
100
AcDbEntity
  8
0
  6
HIDDEN
 62
     7
370
     0
100
AcDbLine
 10
201.2525391303
 20
117.9526002167
 30
0.0
 11
109.0525391303
 21
117.9526002167
 31
0.0
  0
LINE
  5
1A3
330
1F
100
AcDbEntity
  8
0
  6
HIDDEN
 62
     7
370
     0
100
AcDbLine
 10
82.0025391303
 20
90.0022353568
 30
0.0
 11
82.0025391303
 21
93.7647640261
 31
0.0
  0
LINE
  5
1A4
330
1F
100
AcDbEntity
  8
0
  6
HIDDEN
 62
     7
370
     0
100
AcDbLine
 10
74.5025391303
 20
93.7031844779
 30
0.0
 11
74.5025391303
 21
90.5243060992
 31
0.0
  0
LINE
  5
1A5
330
1F
100
AcDbEntity
  8
0
  6
HIDDEN
 62
     7
370
     0
100
AcDbLine
 10
82.0025391303
 20
133.6404364073
 30
0.0
 11
82.0025391303
 21
137.4028862775
 31
0.0
  0
LINE
  5
1A6
330
1F
100
AcDbEntity
  8
0
  6
HIDDEN
 62
     7
370
     0
100
AcDbLine
 10
74.5025391303
 20
136.8809028078
 30
0.0
 11
74.5025391303
 21
133.7020159555
 31
0.0
  0
ARC
  5
1A7
330
1F
100
AcDbEntity
  8
0
  6
HIDDEN
 62
     7
370
     0
100
AcDbCircle
 10
204.3577651122
 20
107.8026002167
 30
0.0
 40
0.4000000000000074
100
AcDbArc
 50
270.0
 51
290.0
  0
LINE
  5
1A8
330
1F
100
AcDbEntity
  8
0
  6
HIDDEN
 62
     7
370
     0
100
AcDbLine
 10
155.7025391303
 20
134.7026002167
 30
0.0
 11
156.7025391303
 21
134.1252499475
 31
0.0
  0
LINE
  5
1A9
330
1F
100
AcDbEntity
  8
0
  6
HIDDEN
 62
     7
370
     0
100
AcDbLine
 10
161.7025391303
 20
134.1252499475
 30
0.0
 11
162.7025391303
 21
134.7026002167
 31
0.0
  0
LINE
  5
1AA
330
1F
100
AcDbEntity
  8
0
  6
HIDDEN
 62
     7
370
     0
100
AcDbLine
 10
162.7025391303
 20
92.7026002167
 30
0.0
 11
161.7025391303
 21
93.2799504859
 31
0.0
  0
LINE
  5
1AB
330
1F
100
AcDbEntity
  8
0
  6
HIDDEN
 62
     7
370
     0
100
AcDbLine
 10
156.7025391303
 20
93.2799504859
 30
0.0
 11
155.7025391303
 21
92.7026002167
 31
0.0
  0
LINE
  5
1AC
330
1F
100
AcDbEntity
  8
0
  6
HIDDEN
 62
     7
370
     0
100
AcDbLine
 10
156.7025391303
 20
134.1252499475
 30
0.0
 11
156.7025391303
 21
122.7026002167
 31
0.0
  0
LINE
  5
1AD
330
1F
100
AcDbEntity
  8
0
  6
HIDDEN
 62
     7
370
     0
100
AcDbLine
 10
161.7025391303
 20
122.7026002167
 30
0.0
 11
161.7025391303
 21
134.1252499475
 31
0.0
  0
LINE
  5
1AE
330
1F
100
AcDbEntity
  8
0
  6
HIDDEN
 62
     7
370
     0
100
AcDbLine
 10
156.7025391303
 20
122.7026002167
 30
0.0
 11
159.2025391303
 21
121.2004486691
 31
0.0
  0
LINE
  5
1AF
330
1F
100
AcDbEntity
  8
0
  6
HIDDEN
 62
     7
370
     0
100
AcDbLine
 10
159.2025391303
 20
121.2004486691
 30
0.0
 11
161.7025391303
 21
122.7026002167
 31
0.0
  0
LINE
  5
1B0
330
1F
100
AcDbEntity
  8
0
  6
HIDDEN
 62
     7
370
     0
100
AcDbLine
 10
161.7025391303
 20
104.7026002167
 30
0.0
 11
159.2025391303
 21
106.2047517643
 31
0.0
  0
LINE
  5
1B1
330
1F
100
AcDbEntity
  8
0
  6
HIDDEN
 62
     7
370
     0
100
AcDbLine
 10
159.2025391303
 20
106.2047517643
 30
0.0
 11
156.7025391303
 21
104.7026002167
 31
0.0
  0
LINE
  5
1B2
330
1F
100
AcDbEntity
  8
0
  6
HIDDEN
 62
     7
370
     0
100
AcDbLine
 10
161.7025391303
 20
93.2799504859
 30
0.0
 11
161.7025391303
 21
104.7026002167
 31
0.0
  0
LINE
  5
1B3
330
1F
100
AcDbEntity
  8
0
  6
HIDDEN
 62
     7
370
     0
100
AcDbLine
 10
156.7025391303
 20
104.7026002167
 30
0.0
 11
156.7025391303
 21
93.2799504859
 31
0.0
  0
LINE
  5
1B4
330
1F
100
AcDbEntity
  8
0
  6
HIDDEN
 62
     7
370
     0
100
AcDbLine
 10
204.7525391303
 20
123.1908115169
 30
0.0
 11
204.7525391303
 21
123.6020951533
 31
0.0
  0
LINE
  5
1B5
330
1F
100
AcDbEntity
  8
0
  6
HIDDEN
 62
     7
370
     0
100
AcDbLine
 10
204.7525391303
 20
118.0743756412
 30
0.0
 11
204.7525391303
 21
121.4240595404
 31
0.0
  0
LINE
  5
1B6
330
1F
100
AcDbEntity
  8
0
  6
HIDDEN
 62
     7
370
     0
100
AcDbLine
 10
201.7525391303
 20
122.1202054135
 30
0.0
 11
201.7525391303
 21
118.1566348615
 31
0.0
  0
LINE
  5
1B7
330
1F
100
AcDbEntity
  8
0
  6
HIDDEN
 62
     7
370
     0
100
AcDbLine
 10
201.7525391303
 20
123.6020951533
 30
0.0
 11
201.7525391303
 21
122.6287780999
 31
0.0
  0
LINE
  5
1B8
330
1F
100
AcDbEntity
  8
0
  6
HIDDEN
 62
     7
370
     0
100
AcDbLine
 10
204.4642496512
 20
121.0654962438
 30
0.0
 11
247.2525391303
 21
119.876739102
 31
0.0
  0
LINE
  5
1B9
330
1F
100
AcDbEntity
  8
0
  6
HIDDEN
 62
     7
370
     0
100
AcDbLine
 10
247.2525391303
 20
122.3777037363
 30
0.0
 11
204.4635843015
 21
123.566479363
 31
0.0
  0
LINE
  5
1BA
330
1F
100
AcDbEntity
  8
0
  6
HIDDEN
 62
     7
370
     0
100
AcDbLine
 10
201.7799669098
 20
122.7783061299
 30
0.0
 11
201.5367357779
 21
122.3973116328
 31
0.0
  0
LINE
  5
1BB
330
1F
100
AcDbEntity
  8
0
  6
HIDDEN
 62
     7
370
     0
100
AcDbLine
 10
201.5367357779
 20
122.3973116328
 30
0.0
 11
201.7796297044
 21
121.9657481265
 31
0.0
  0
LINE
  5
1BC
330
1F
100
AcDbEntity
  8
0
  6
HIDDEN
 62
     7
370
     0
100
AcDbLine
 10
241.7434269828
 20
107.6249232018
 30
0.0
 11
241.2580782347
 21
107.1114390967
 31
0.0
  0
LINE
  5
1BD
330
1F
100
AcDbEntity
  8
0
  6
HIDDEN
 62
     7
370
     0
100
AcDbLine
 10
241.3135999821
 20
105.1129816186
 30
0.0
 11
241.8267096039
 21
104.6272369846
 31
0.0
  0
LINE
  5
1BE
330
1F
100
AcDbEntity
  8
0
  6
HIDDEN
 62
     7
370
     0
100
AcDbLine
 10
247.0785047187
 20
107.7737227183
 30
0.0
 11
241.7445669148
 21
107.6255336522
 31
0.0
  0
LINE
  5
1BF
330
1F
100
AcDbEntity
  8
0
  6
HIDDEN
 62
     7
370
     0
100
AcDbLine
 10
241.8278816708
 20
104.6266907668
 30
0.0
 11
247.1618194747
 21
104.7748798329
 31
0.0
  0
LINE
  5
1C0
330
1F
100
AcDbEntity
  8
0
  6
HIDDEN
 62
     7
370
     0
100
AcDbLine
 10
247.1637735036
 20
104.7766711324
 30
0.0
 11
247.2525391303
 21
104.9410432078
 31
0.0
  0
LINE
  5
1C1
330
1F
100
AcDbEntity
  8
0
  6
HIDDEN
 62
     7
370
     0
100
AcDbLine
 10
247.2497835767
 20
107.4964608164
 30
0.0
 11
247.0805551896
 21
107.7720426731
 31
0.0
  0
LINE
  5
1C2
330
1F
100
AcDbEntity
  8
0
  6
HIDDEN
 62
     7
370
     0
100
AcDbLine
 10
247.0779921687
 20
119.6332289669
 30
0.0
 11
247.2472205558
 21
119.9088108236
 31
0.0
  0
LINE
  5
1C3
330
1F
100
AcDbEntity
  8
0
  6
HIDDEN
 62
     7
370
     0
100
AcDbLine
 10
247.2525391303
 20
122.4594823489
 30
0.0
 11
247.1612104828
 21
122.6286005076
 31
0.0
  0
LINE
  5
1C4
330
1F
100
AcDbEntity
  8
0
  6
HIDDEN
 62
     7
370
     0
100
AcDbLine
 10
247.1592564539
 20
122.6303918071
 30
0.0
 11
241.82531865
 21
122.7785808732
 31
0.0
  0
LINE
  5
1C5
330
1F
100
AcDbEntity
  8
0
  6
HIDDEN
 62
     7
370
     0
100
AcDbLine
 10
241.742003894
 20
119.7797379878
 30
0.0
 11
247.0759416979
 21
119.6315489217
 31
0.0
  0
LINE
  5
1C6
330
1F
100
AcDbEntity
  8
0
  6
HIDDEN
 62
     7
370
     0
100
AcDbLine
 10
241.824146583
 20
122.7780346554
 30
0.0
 11
241.3110369612
 21
122.2922900214
 31
0.0
  0
LINE
  5
1C7
330
1F
100
AcDbEntity
  8
0
  6
HIDDEN
 62
     7
370
     0
100
AcDbLine
 10
241.2555152138
 20
120.2938325433
 30
0.0
 11
241.7408639619
 21
119.7803484382
 31
0.0
  0
DIMENSION
  5
1C8
330
1F
100
AcDbEntity
  8
VERMASSUNG
100
AcDbDimension
  2
*D1
 10
254.555687974
 20
107.7026002167
 30
0.0
 11
254.555687974
 21
113.7026002167
 31
0.0
 70
   160
  1
%%c<>
 71
     2
 42
-1.0
  3
SLDDIMSTYLE0
100
AcDbAlignedDimension
 13
246.9525391303
 23
119.7026002167
 33
0.0
 14
246.9525391303
 24
107.7026002167
 34
0.0
 50
90.0
100
AcDbRotatedDimension
  0
DIMENSION
  5
1D4
330
1F
100
AcDbEntity
  8
VERMASSUNG
100
AcDbDimension
  2
*D2
 10
260.555687974
 20
92.7026002167
 30
0.0
 11
260.555687974
 21
113.7026002167
 31
0.0
 70
   160
  1
%%c<>
 71
     2
 42
-1.0
  3
SLDDIMSTYLE0
100
AcDbAlignedDimension
 13
234.3854976073
 23
134.7026002167
 33
0.0
 14
234.3854976073
 24
92.7026002167
 34
0.0
 50
90.0
100
AcDbRotatedDimension
  0
DIMENSION
  5
1DF
330
1F
100
AcDbEntity
  8
VERMASSUNG
100
AcDbDimension
  2
*D3
 10
247.2525391303
 20
148.7450704225
 30
0.0
 11
180.2275391303
 21
148.7450704225
 31
0.0
 70
   160
 71
     2
 42
-1.0
  3
SLDDIMSTYLE0
100
AcDbAlignedDimension
 13
113.2025391303
 23
143.5490405404
 33
0.0
 14
247.2525391303
 24
127.4284596951
 34
0.0
100
AcDbRotatedDimension
  0
DIMENSION
  5
1E9
330
1F
100
AcDbEntity
  8
VERMASSUNG
100
AcDbDimension
  2
*D4
 10
247.2525391303
 20
154.7450704225
 30
0.0
 11
167.2525391303
 21
154.7450704225
 31
0.0
 70
   160
 71
     2
 42
-1.0
  3
SLDDIMSTYLE0
100
AcDbAlignedDimension
 13
87.2525391303
 23
144.9026002167
 33
0.0
 14
247.2525391303
 24
127.4284596951
 34
0.0
100
AcDbRotatedDimension
  0
DIMENSION
  5
1F3
330
1F
100
AcDbEntity
  8
VERMASSUNG
100
AcDbDimension
  2
*D5
 10
247.2525391303
 20
160.7450704225
 30
0.0
 11
151.3025391303
 21
160.7450704225
 31
0.0
 70
   160
 71
     2
 42
-1.0
  3
SLDDIMSTYLE0
100
AcDbAlignedDimension
 13
55.3525391303
 23
133.3932779632
 33
0.0
 14
247.2525391303
 24
127.4284596951
 34
0.0
100
AcDbRotatedDimension
  0
DIMENSION
  5
1FD
330
1F
100
AcDbEntity
  8
VERMASSUNG
100
AcDbDimension
  2
*D6
 10
49.6384615385
 20
82.2026002167
 30
0.0
 11
49.6384615385
 21
113.7026002167
 31
0.0
 70
   160
  1
HSK A %%c<>
 71
     2
 42
-1.0
  3
SLDDIMSTYLE0
100
AcDbAlignedDimension
 13
87.5525391303
 23
145.2026002167
 33
0.0
 14
87.5525391303
 24
82.2026002167
 34
0.0
 50
90.0
100
AcDbRotatedDimension
  0
LINE
  5
209
330
1F
100
AcDbEntity
  8
VERMASSUNG
  6
CENTERX2
370
     0
100
AcDbLine
 10
51.4950162514
 20
113.7026002167
 30
0.0
 11
248.7539544962
 21
113.7026002167
 31
0.0
  0
OLE2FRAME
  5
20A
330
1F
100
AcDbEntity
  8
0
100
AcDbOle2Frame
 70
     2
  3
Bitmap Image
 10
13.8511154363
 20
38.264191557
 30
0.0
 11
51.6290888628
 21
31.9806341108
 31
0.0
 71
     2
 72
     0
 73
     1
 90
    12928
310
80552BED0767C5B32B40DDAF6807D121434000000000000000006FFBDDFB85D0
310
4940DDAF6807D121434000000000000000006FFBDDFB85D04940416F4BD60AFB
310
3F4000000000000000002BED0767C5B32B40416F4BD60AFB3F40000000000000
310
0000000000000100000000010000010000000100000000000100000000320000
310
D0CF11E0A1B11AE1000000000000000000000000000000003E000300FEFF0900
310
0600000000000000000000000100000001000000000000000010000002000000
310
01000000FEFFFFFF0000000000000000FFFFFFFFFFFFFFFFFFFFFFFFFFFFFFFF
310
FFFFFFFFFFFFFFFFFFFFFFFFFFFFFFFFFFFFFFFFFFFFFFFFFFFFFFFFFFFFFFFF
310
FFFFFFFFFFFFFFFFFFFFFFFFFFFFFFFFFFFFFFFFFFFFFFFFFFFFFFFFFFFFFFFF
310
FFFFFFFFFFFFFFFFFFFFFFFFFFFFFFFFFFFFFFFFFFFFFFFFFFFFFFFFFFFFFFFF
310
FFFFFFFFFFFFFFFFFFFFFFFFFFFFFFFFFFFFFFFFFFFFFFFFFFFFFFFFFFFFFFFF
310
FFFFFFFFFFFFFFFFFFFFFFFFFFFFFFFFFFFFFFFFFFFFFFFFFFFFFFFFFFFFFFFF
310
FFFFFFFFFFFFFFFFFFFFFFFFFFFFFFFFFFFFFFFFFFFFFFFFFFFFFFFFFFFFFFFF
310
FFFFFFFFFFFFFFFFFFFFFFFFFFFFFFFFFFFFFFFFFFFFFFFFFFFFFFFFFFFFFFFF
310
FFFFFFFFFFFFFFFFFFFFFFFFFFFFFFFFFFFFFFFFFFFFFFFFFFFFFFFFFFFFFFFF
310
FFFFFFFFFFFFFFFFFFFFFFFFFFFFFFFFFFFFFFFFFFFFFFFFFFFFFFFFFFFFFFFF
310
FFFFFFFFFFFFFFFFFFFFFFFFFFFFFFFFFFFFFFFFFFFFFFFFFFFFFFFFFFFFFFFF
310
FFFFFFFFFFFFFFFFFFFFFFFFFFFFFFFFFFFFFFFFFFFFFFFFFFFFFFFFFFFFFFFF
310
FFFFFFFFFFFFFFFFFFFFFFFFFFFFFFFFFFFFFFFFFFFFFFFFFFFFFFFFFFFFFFFF
310
FFFFFFFFFFFFFFFFFFFFFFFFFFFFFFFFFFFFFFFFFFFFFFFFFFFFFFFFFFFFFFFF
310
FDFFFFFFFEFFFFFFFEFFFFFFFEFFFFFF05000000060000000700000008000000
310
090000000A0000000B0000000C0000000D0000000E0000000F00000010000000
310
11000000120000001300000014000000150000001600000017000000FEFFFFFF
310
FFFFFFFFFFFFFFFFFFFFFFFFFFFFFFFFFFFFFFFFFFFFFFFFFFFFFFFFFFFFFFFF
310
FFFFFFFFFFFFFFFFFFFFFFFFFFFFFFFFFFFFFFFFFFFFFFFFFFFFFFFFFFFFFFFF
310
FFFFFFFFFFFFFFFFFFFFFFFFFFFFFFFFFFFFFFFFFFFFFFFFFFFFFFFFFFFFFFFF
310
FFFFFFFFFFFFFFFFFFFFFFFFFFFFFFFFFFFFFFFFFFFFFFFFFFFFFFFFFFFFFFFF
310
FFFFFFFFFFFFFFFFFFFFFFFFFFFFFFFFFFFFFFFFFFFFFFFFFFFFFFFFFFFFFFFF
310
FFFFFFFFFFFFFFFFFFFFFFFFFFFFFFFFFFFFFFFFFFFFFFFFFFFFFFFFFFFFFFFF
310
FFFFFFFFFFFFFFFFFFFFFFFFFFFFFFFFFFFFFFFFFFFFFFFFFFFFFFFFFFFFFFFF
310
FFFFFFFFFFFFFFFFFFFFFFFFFFFFFFFFFFFFFFFFFFFFFFFFFFFFFFFFFFFFFFFF
310
FFFFFFFFFFFFFFFFFFFFFFFFFFFFFFFFFFFFFFFFFFFFFFFFFFFFFFFFFFFFFFFF
310
FFFFFFFFFFFFFFFFFFFFFFFFFFFFFFFFFFFFFFFFFFFFFFFFFFFFFFFFFFFFFFFF
310
FFFFFFFFFFFFFFFFFFFFFFFFFFFFFFFFFFFFFFFFFFFFFFFFFFFFFFFFFFFFFFFF
310
FFFFFFFFFFFFFFFFFFFFFFFFFFFFFFFFFFFFFFFFFFFFFFFFFFFFFFFFFFFFFFFF
310
FFFFFFFFFFFFFFFFFFFFFFFFFFFFFFFFFFFFFFFFFFFFFFFFFFFFFFFFFFFFFFFF
310
52006F006F007400200045006E00740072007900000000000000000000000000
310
0000000000000000000000000000000000000000000000000000000000000000
310
16000500FFFFFFFFFFFFFFFF020000000A00030000000000C000000000000046
310
000000000000000000000000B011E9F9F6FFCB0103000000C000000000000000
310
01004F006C006500000000000000000000000000000000000000000000000000
310
0000000000000000000000000000000000000000000000000000000000000000
310
0A000200FFFFFFFFFFFFFFFFFFFFFFFF00000000000000000000000000000000
310
0000000000000000000000000000000000000000000000001400000000000000
310
010043006F006D0070004F0062006A0000000000000000000000000000000000
310
0000000000000000000000000000000000000000000000000000000000000000
310
120002010100000003000000FFFFFFFF00000000000000000000000000000000
310
0000000000000000000000000000000000000000010000004D00000000000000
310
01004F006C006500310030004E00610074006900760065000000000000000000
310
0000000000000000000000000000000000000000000000000000000000000000
310
1A000200FFFFFFFFFFFFFFFFFFFFFFFF00000000000000000000000000000000
310
0000000000000000000000000000000000000000040000002426000000000000
310
FEFFFFFF02000000FEFFFFFFFFFFFFFFFFFFFFFFFFFFFFFFFFFFFFFFFFFFFFFF
310
FFFFFFFFFFFFFFFFFFFFFFFFFFFFFFFFFFFFFFFFFFFFFFFFFFFFFFFFFFFFFFFF
310
FFFFFFFFFFFFFFFFFFFFFFFFFFFFFFFFFFFFFFFFFFFFFFFFFFFFFFFFFFFFFFFF
310
FFFFFFFFFFFFFFFFFFFFFFFFFFFFFFFFFFFFFFFFFFFFFFFFFFFFFFFFFFFFFFFF
310
FFFFFFFFFFFFFFFFFFFFFFFFFFFFFFFFFFFFFFFFFFFFFFFFFFFFFFFFFFFFFFFF
310
FFFFFFFFFFFFFFFFFFFFFFFFFFFFFFFFFFFFFFFFFFFFFFFFFFFFFFFFFFFFFFFF
310
FFFFFFFFFFFFFFFFFFFFFFFFFFFFFFFFFFFFFFFFFFFFFFFFFFFFFFFFFFFFFFFF
310
FFFFFFFFFFFFFFFFFFFFFFFFFFFFFFFFFFFFFFFFFFFFFFFFFFFFFFFFFFFFFFFF
310
FFFFFFFFFFFFFFFFFFFFFFFFFFFFFFFFFFFFFFFFFFFFFFFFFFFFFFFFFFFFFFFF
310
FFFFFFFFFFFFFFFFFFFFFFFFFFFFFFFFFFFFFFFFFFFFFFFFFFFFFFFFFFFFFFFF
310
FFFFFFFFFFFFFFFFFFFFFFFFFFFFFFFFFFFFFFFFFFFFFFFFFFFFFFFFFFFFFFFF
310
FFFFFFFFFFFFFFFFFFFFFFFFFFFFFFFFFFFFFFFFFFFFFFFFFFFFFFFFFFFFFFFF
310
FFFFFFFFFFFFFFFFFFFFFFFFFFFFFFFFFFFFFFFFFFFFFFFFFFFFFFFFFFFFFFFF
310
FFFFFFFFFFFFFFFFFFFFFFFFFFFFFFFFFFFFFFFFFFFFFFFFFFFFFFFFFFFFFFFF
310
FFFFFFFFFFFFFFFFFFFFFFFFFFFFFFFFFFFFFFFFFFFFFFFFFFFFFFFFFFFFFFFF
310
FFFFFFFFFFFFFFFFFFFFFFFFFFFFFFFFFFFFFFFFFFFFFFFFFFFFFFFFFFFFFFFF
310
010000020000000000000000000000000000000061007200650064005C003100
310
30002E0030005C0044004C004C005300680061007200650064005C003B004300
310
0100FEFF030A0000FFFFFFFF0A00030000000000C00000000000004607000000
310
5042727573680007000000504272757368000700000050427275736800F439B2
310
71000000000000000000000000004100540049002E004100430045005C004300
310
6F00720065002D005300740061007400690063003B0043003A005C0050007200
310
6F006700720061006D002000460069006C006500730020002800780038003600
310
29005C0043006F006D006D006F006E002000460069006C00650073005C004100
310
750074006F006400650073006B0020005300680061007200650064005C003B00
310
43003A005C00500072006F006700720061006D002000460069006C0065007300
310
5C004E006F0072006D0061006E005C004E0070006D005C00420069006E000000
310
43003A005C00500072006F006700720061006D002000460069006C0065007300
310
5C0053006F006C006900640057006F0072006B007300200043006F0072007000
310
5C0053006F006C006900640057006F0072006B00730020002800320029005C00
310
730065007400750070005C0069003300380036005C0073007700610063007400
310
770069007A002E006500780065000000220043003A005C00500072006F006700
310
20260000424D0E260000000000003E00000028000000B40200006E0000000100
310
01000000000000000000130B0000130B00000200000002000000000000FFFFFF
310
FFFFFFFFFFFFFFFFFFFFFFFFFFFFFFFFFFFFFFFFFFFFFFFFFFFFFFFFFFFFFFFF
310
FFFFFFFFFFFFFFFFFFFFFFFFFFFFFFFFFFFFFFFFFFFFFFFFFFFFFFFFFFFFFFFF
310
FFFFFFFFFFFFFFFFFFFFFFFFFFFFFFFFFFFFFFFFFFFFFFFFF000FFFFFFFFFFFF
310
FFFFFFFFFFFFFFFFFFFFFFFFFFFFFFFFFFFFFFFFFFFFFFFFFFFFFFFFFFFFFFFF
310
FFFFFFFFFFFFFFFFFFFFFFFFFFFFFFFFFFFFFFFFFFFFFFFFFFFFFFFFFFFFFFFF
310
FFFFFFFFFFFFFFFFFFFFFFFFFFFFFFFFF000FFFFFFFFFFFFFFFFFFFFFFFFFFFF
310
FFFFFFFFFFFFFFFFFFFFFFFFFFFFFFFFFFFFFFFFFFFFFFFFFFFFFFFFFFFFFFFF
310
FFFFFFFFFFFFFFFFFFFFFFFFFFFFFFFFFFFFFFFFFFFFFFFFFFFFFFFFFFFFFFFF
310
FFFFFFFFFFFFFFFFF000FFFFFFFFFFFFFFFFFFFFFFFFFFFFFFFFFFFFFFFFFFFF
310
FFFFFFFFFFFFFFFFFFFFFFFFFFFFFFFFFFFFFFFFFFFFFFFFFFFFFFFFFFFFFFFF
310
FFFFFFFFFFFFFFFFFFFFFFFFFFFFFFFFFFFFFFFFFFFFFFFFFFFFFFFFFFFFFFFF
310
F000FFFFFFFFFFFFFFFFFFFFFFFFFFFFFFFFFFFFFFFFFFFFFFFFFFFFFFFFFFFF
310
FFFFFFFFFFFFFFFFFFFFFFFFFFFFFFFFFFFFFFFFFFFFFFFFFFFFFFFFFFFFFFFF
310
FFFFFFFFFFFFFFFFFFFFFFFFFFFFFFFFFFFFFFFFFFFFFFFFF000FFFFFFFFFFFF
310
FFFFFFFFFFFFFFFFFFFFFFFFFFFFFFFFFFFFFFFFFFFFFFFFFFFFFFFFFFFFFFFF
310
FFFFFFFFFFFFFFFFFFFFFFFFFFFFFFFFFFFFFFFFFFFFFFFFFFFFFFFFFFFFFFFF
310
FFFFFFFFFFFFFFFFFFFFFFFFFFFFFFFFF000FFFFFFFFFFFFFFFFFFFFFFFFFFFF
310
FFFFFFFFFFFFFFFFFFFFFFFFFFFFFFFFFFFFFFFFFFFFFFFFFFFFFFFFFFFFFFFF
310
FFFFFFFFFFFFFFFFFFFFFFFFFFFFFFFFFFFFFFFFFFFFFFFFFFFFFFFFFFFFFFFF
310
FFFFFFFFFFFFFFFFF000FFFFFFFFFFFFFFFFFFFFFFFFFFFFFFFFFFFFFFFFFFFF
310
FFFFFFFFFFFFFFFFFFFFFFFFFFFFFFFFFFFFFFFFFFFFFFFFFFFFFFFFFFFFFFFF
310
FFFFFFFFFFFFFFFFFFFFFFFFFFFFFFFFFFFFFFFFFFFFFFFFFFFFFFFFFFFFFFFF
310
F000FFFFFFFFFFFFFFFFFFFFFFFFFFFFFFFFFFFFFFFFFFFFFFFFFFFFFFFFFFFF
310
FFFFFFFFFFFFFFFFFFFFFFFFFFFFFFFFFFFFFFFFFFFFFFFFFFFFFFFFFFFFFFFF
310
FFFFFFFFFFFFFFFFFFFFFFFFFFFFFFFFFFFFFFFFFFFFFFFFF000FFFFFFFFFFFF
310
FFFFFFFFFFFFFFFFFFFFFFFFFFFFFFFFFFFFFFFFFFFFFFFFFFFFFFFFFFFFFFFF
310
FFFFFFFFFFFFFFFFFFFFFFFFFFFFFFFFFFFFFFFFFFFFFFFFFFFFFFFFFFFFFFFF
310
FFFFFFFFFFFFFFFFFFFFFFFFFFFFFFFFF000FFFFFFFFFFFFFFFFFFFFFFFFFFFF
310
FFFFFFFFFFFFFFFFFFFFFFFFFFFFFFFFFFFFFFFFFFFFFFFFFFFFFFFFFFFFFFFF
310
FFFFFFFFFFFFFFFFFFFFFFFFFFFFFFFFFFFFFFFFFFFFFFFFFFFFFFFFFFFFFFFF
310
FFFFFFFFFFFFFFFFF000FFFFFFFFFFFFFFFFFFFFFFFFFFFFFFFFFFFFFFFFFFFF
310
FFFFFFFFFFFFFFFFFFFFFFFFFFFFFFFFFFFFFFFFFFFFFFFFFFFFFFFFFFFFFFFF
310
FFFFFFFFFFFFFFFFFFFFFFFFFFFFFFFFFFFFFFFFFFFFFFFFFFFFFFFFFFFFFFFF
310
F000FFFFFFFFFFFFFFFFFFFFFFFFFFFFFFFFFFFFFFFFFFFFFFFFFFFFFFFFFFFF
310
FFFFFFFFFFFFFFFFFFFFFFFFFFFFFFFFFFFFFFFFFFFFFFFFFFFFFFFFFFFFFFFF
310
FFFFFFFFFFFFFFFFFFFFFFFFFFFFFFFFFFFFFFFFFFFFFFFFF000FFFFFFFFFFFF
310
FFFFFFFFFFFFFFFFFFFFFFFFFFFFFFFFFFFFFFFFFFFFFFFFFFFFFFFFFFFFFFFF
310
FFFFFFFFFFFFFFFFFFFFFFFFFFFFFFFFFFFFFFFFFFFFFFFFFFFFFFFFFFFFFFFF
310
FFFFFFFFFFFFFFFFFFFFFFFFFFFFFFFFF000FFFFFFFFFFFFFFFFFFFFFFFFFFFF
310
FFFFFFFFFFFFFFFFFFFFFFFFFFFFFFFFFFFFFFFFFFFFFFFFFFFFFFFFFFFFFFFF
310
FFFFFFFFFFFFFFFFFFFFFFFFFFFFFFFFFFFFFFFFFFFFFFFFFFFFFFFFFFFFFFFF
310
FFFFFFFFFFFFFFFFF000FFFFFFFFFFFFFFFFFFFFFFFFFFFFFFFFFFFFFFFFFFFF
310
FFFFFFFFFFFFFFFFFFFFFFFFFFFFFFFFFFFFFFFFFFFFFFFFFFFFFFFFFFFFFFFF
310
FFFFFFFFFFFFFFFFFFFFFFFFFFFFFFFFFFFFFFFFFFFFFFFFFFFFFFFFFFFFFFFF
310
F000FFFFFFFFFFFFFFFFFFFFFFFFFFFFFFFFFFFFFFFFFFFFFFFFFFFFFFFFFFFF
310
FFFFFFFFFFFFFFFFFFFFFFFFFFFFFFFFFFFFFFFFFFFFFFFFFFFFFFFFFFFFFFFF
310
FFFFFFFFFFFFFFFFFFFFFFFFFFFFFFFFFFFFFFFFFFFFFFFFF000FFFFFFFFFFFF
310
FFFFFFFFFFFFFFFFFFFFFFFFFFFFFFFFFFFFFFFFFFFFFFFFFFFFFFFFFFFFFFFF
310
FFFFFFFFFFFFFFFFFFFFFFFFFFFFFFFFFFFFFFFFFFFFFFFFFFFFFFFFFFFFFFFF
310
FFFFFFFFFFFFFFFFFFFFFFFFFFFFFFFFF000FFFFFFFFFFFFFFFFFFFFFFFFFFFF
310
FFFFFFFFFFFFFFFFFFFFFFFFFFFFFFFFFFFFFFFFFFFFFFFFFFFFFFFFFFFFFFFF
310
FFFFFFFFFFFFFFFFFFFFFFFFFFFFFFFFFFFFFFFFFFFFFFFFFFFFFFFFFFFFFFFF
310
FFFFFFFFFFFFFFFFF000FFFFF80003FFFFFFFFFFFFFFFFFFFFFFFFFFFFFFFFFF
310
FFFFF00007FFFFFFFFFF00007FFFFFF800000000000000007FFFFFFFFFFFFFFF
310
FFFFFFFC001FFFFFFFFFFFFFFC001FFFFFFFFFFFFFFFFFFFFFFFFFFE0007FFFF
310
F000FFFF8000007FFFFFFFF8000FFFFFC0007FFFFF80007FFFFF0000007FFFFF
310
FFF8000007FFFFF800000000000000007FFFFFF0001FFFFFFFFFFFC00001FFFF
310
FFFFFFFFC00001FFFFFFFF000000000003FFFFE000007FFFF000FFFE0000000F
310
FFFFFFF0000FFFFF80007FFFFF80007FFFFC0000001FFFFFFFC0000001FFFFF8
310
00000000000000007FFFFFF0001FFFFFFFFFFE0000003FFFFFFFFFFE0000003F
310
FFFFFF000000000003FFFF0000000FFFF000FFF800000003FFFFFFF00007FFFF
310
80007FFFFF80007FFFF000000007FFFFFF000000003FFFF80000000000000000
310
7FFFFFF0001FFFFFFFFFF80000000FFFFFFFFFF80000000FFFFFFF0000000000
310
03FFFC00000003FFF000FFE000000000FFFFFFF00007FFFF80003FFFFF80007F
310
FFC000000001FFFFFC000000001FFFF800000000000000007FFFFFF0001FFFFF
310
FFFFE000000003FFFFFFFFE000000003FFFFFF000000000003FFF000000000FF
310
F000FF80000000007FFFFFF00007FFFF80003FFFFF80007FFF8000000000FFFF
310
F80000000007FFF800000000000000007FFFFFF0001FFFFFFFFFC000000001FF
310
FFFFFFC000000001FFFFFF000000000003FFC0000000007FF000FF0000000000
310
3FFFFFE00007FFFF00003FFFFF80007FFE00000000003FFFF00000000003FFF8
310
00000000000000007FFFFFF0001FFFFFFFFF8000000000FFFFFFFF8000000000
310
FFFFFF000000000003FF80000000003FF000FE00000000001FFFFFE00003FFFF
310
00003FFFFF80007FFC00000000001FFFE00000000001FFF8000001FFFE000000
310
7FFFFFF0001FFFFFFFFE00000000003FFFFFFE00000000003FFFFF0000000000
310
03FF00000000001FF000FC00000000000FFFFFE00003FFFF00001FFFFF80007F
310
F800000000001FFFC00000000000FFF8000001FFFE0000007FFFFFF0001FFFFF
310
FFFC00000000001FFFFFFC00000000001FFFFF000000000003FE00000000000F
310
F000F8000000000007FFFFE00003FFFF00001FFFFF80007FF800000000000FFF
310
800000000000FFF8000001FFFE0000007FFFFFF0001FFFFFFFF800000000000F
310
FFFFF800000000000FFFFF000000000003FC000000000007F000F80000000000
310
03FFFFC00003FFFE00001FFFFF80007FF0000000000007FF0000000000007FF8
310
000001FFFE0000007FFFFFF0001FFFFFFFF0000000000007FFFFF00000000000
310
07FFFF000000000003F8000000000003F000F0000000000003FFFFC00001FFFE
310
00001FFFFF80007FE0000000000007FE0000000000003FF8000001FFFE000000
310
7FFFFFF0001FFFFFFFF0000000000007FFFFF0000000000007FFFF0000000000
310
03F800001F800003F000E00001FFF00001FFFFC00001FFFE00000FFFFF80007F
310
E00001FFE00003FE00001FFF00003FF8000001FFFE0000007FFFFFF0001FFFFF
310
FFE000003E000003FFFFE000003E000003FFFF000000000003F00001FFF80001
310
F000E00007FFFC0001FFFFC00001FFFE00000FFFFF80007FC0000FFFFC0003FC
310
0000FFFFC0001FF8000001FFFE0000007FFFFFF0001FFFFFFFC00003FFE00001
310
FFFFC00003FFE00001FFFF0001FFFFFFFFF00007FFFE0001F000E0000FFFFF00
310
00FFFF800001FFFC00000FFFFF80007FC0001FFFFE0001FC0001FFFFE0001FF8
310
000001FFFE0000007FFFFFF0001FFFFFFF80000FFFF80000FFFF80000FFFF800
310
00FFFF0003FFFFFFFFE0000FFFFF8000F000C0003FFFFF8000FFFF800000FFFC
310
000007FFFF80007F80003FFFFF0001FC0003FFFFF0001FF8000001FFFE000000
310
7FFFFFF0001FFFFFFF80003FFFFE0000FFFF80003FFFFE0000FFFF0003FFFFFF
310
FFE0003FFFFF8000F000C0003FFFFF8000FFFF800000FFFC000007FFFF80007F
310
80007FFFFF8001F80007FFFFF8000FF8000001FFFE0000007FFFFFF0001FFFFF
310
FF00007FFFFF00007FFF00007FFFFF00007FFF0003FFFFFFFFE0003FFFFFC000
310
F000C0007FFFFFC000FFFF000000FFFC000007FFFF80007F8000FFFFFF8000F8
310
000FFFFFF8000FF8000001FFFE0000007FFFFFF0001FFFFFFF0000FFFFFF8000
310
7FFF0000FFFFFF80007FFF0003FFFFFFFFC0007FFFFFC00070008000FFFFFFC0
310
00FFFF000000FFF8000007FFFF80007F8000FFFFFF8000F8000FFFFFF8000FF8
310
000001FFFE0000007FFFFFF0001FFFFFFE0001FFFFFFC0003FFE0001FFFFFFC0
310
003FFF0003FFFFFFFFC0007FFFFFE00070008000FFFFFFC0007FFF0000007FF8
310
000003FFFF80007F0001FFFFFF8000F8000FFFFFF8000FF8000001FFFE000000
310
7FFFFFF0001FFFFFFE0001FFFFFFC0003FFE0001FFFFFFC0003FFF0003FFFFFF
310
FFC000FFFFFFE00070008000FFFFFFC0007FFF0000007FF8000003FFFF80007F
310
0001FFFFFF8000F8001FFFFFF8000FF8000001FFFE0000007FFFFFF0001FFFFF
310
FE0003FFFFFFE0003FFE0003FFFFFFE0003FFF0003FFFFFFFFC000FFFFFFE000
310
70008000FFFFFFC0007FFE0000007FF8000003FFFF80007F0001FFFFFF8000F0
310
001FFFFFF8000FF8000001FFFE0000007FFFFFF0001FFFFFFC0003FFFFFFE000
310
1FFC0003FFFFFFE0001FFF0003FFFFFFFFC000FFFFFFC00070008000FFFFFF80
310
007FFE0000007FF0000003FFFF80007F0001FFFFFF0000F0001FFFFFF8000FF8
310
000001FFFE0000007FFFFFF0001FFFFFFC0007FFFFFFF0001FFC0007FFFFFFF0
310
001FFF0003FFFFFFFFC000FFFFFFC00070008001FFFFFF0000FFFE0000003FF0
310
000001FFFF80007F0001FFFFFF0000F8001FFFFFF0000FF8000001FFFE000000
310
7FFFFFF0001FFFFFFC0007FFFFFFF0001FFC0007FFFFFFF0001FFF0003FFFFFF
310
FFC001FFFFFF80007000FFFFFFFFFE0000FFFE0008003FF0008001FFFF80007F
310
FFFFFFFFFC0000FFFFFFFFFFE0000FF8000001FFFE0000007FFFFFF0001FFFFF
310
F8000FFFFFFFF8000FF8000FFFFFFFF8000FFF0003FFFFFFFFFFFFFFFFFF0000
310
7000FFFFFFFFFC0000FFFC0008003FF0008001FFFF80007FFFFFFFFFF80001FF
310
FFFFFFFF80000FF8000001FFFE0000007FFFFFF0001FFFFFF8000FFFFFFFF800
310
0FF8000FFFFFFFF8000FFF0003FFFFFFFFFFFFFFFFFE0000F000FFFFFFFFE000
310
00FFFC000C003FE000C001FFFF80007FFFFFFFFFC00001FFFFFFFFFE00001FF8
310
000001FFFE0000007FFFFFF0001FFFFFF8000FFFFFFFF8000FF8000FFFFFFFF8
310
000FFF0003FFFFFFFFFFFFFFFFF00000F000FFFFFFFE000001FFFC000C001FE0
310
00C000FFFF80007FFFFFFFFE000001FFFFFFFFE000001FF80FFFFFFFFFFFFFC0
310
7FFFFFF0001FFFFFF8000FFFFFFFF8000FF8000FFFFFFFF8000FFF0003FFFFFF
310
FFFFFFFFFF800000F000FFFFFFC0000001FFFC001C001FE001C000FFFF80007F
310
FFFFFF80000003FFFFFFF80000001FF80FFFFFFFFFFFFFC07FFFFFF0001FFFFF
310
F8001FFFFFFFFC000FF8001FFFFFFFFC000FFF0003FFFFFFFFFFFFFFF0000001
310
F000FFFFF800000001FFF8001C001FE001C000FFFF80007FFFFFF800000003FF
310
FFFF800000003FF80FFFFFFFFFFFFFC07FFFFFF0001FFFFFF8001FFFFFFFFC00
310
0FF8001FFFFFFFFC000FFF0003FFFFFFFFFFFFFE00000001F000FFFFC0000000
310
03FFF8001E001FC001E000FFFF80007FFFFF8000000007FFFFFC000000003FF8
310
0FFFFFFFFFFFFFC07FFFFFF0001FFFFFF8001FFFFFFFFC000FF8001FFFFFFFFC
310
000FFF0003FFFFFFFFFFFFE000000003F000FFFE0000000007FFF8001E000FC0
310
01E0007FFF80007FFFFE0000000007FFFFE0000000007FF80FFFFFFFFFFFFFC0
310
7FFFFFF0001FFFFFF0001FFFFFFFFC0007F0001FFFFFFFFC0007FF0003FFFFFF
310
FFFFFF0000000003F000FFF80000000007FFF8001E000FC003E0007FFF80007F
310
FFF0000000000FFFFF8000000000FFF80FFFFFFFFFFFFFC07FFFFFF0001FFFFF
310
F0001FFFFFFFFC0007F0001FFFFFFFFC0007FF0003FFFFFFFFFFFC0000000007
310
F000FFE0000000000FFFF0003E000FC003E0007FFF80007FFFC0000000001FFF
310
FE0000000001FFF80FFFFFFFFFFFFFC07FFFFFF0001FFFFFF0001FFFFFFFFC00
310
07F0001FFFFFFFFC0007FF0003FFFFFFFFFFF0000000000FF000FFC000000000
310
1FFFF0003F000F8003F0003FFF80007FFF80000000003FFFF80000000003FFF8
310
0FFFFFFFFFFFFFC07FFFFFF0001FFFFFF0001FFFFFFFFC0007F0001FFFFFFFFC
310
0007FF0003FFFFFFFFFFE0000000001FF000FF00000000007FFFF0003F000780
310
03F0003FFF80007FFF00000000007FFFF00000000007FFF80FFFFFFFFFFFFFC0
310
7FFFFFF0001FFFFFF0001FFFFFFFFC0007F0001FFFFFFFFC0007FF0003FFFFFF
310
FFFF80000000007FF000FE0000000000FFFFE0003F00078007F0003FFF80007F
310
FE0000000001FFFFE0000000001FFFF80FFFFFFFFFFFFFC07FFFFFF0001FFFFF
310
F0001FFFFFFFFC0007F0001FFFFFFFFC0007FF0003FFFFFFFFFF0000000000FF
310
F000FC0000000003FFFFE0007F00078007F0003FFF80007FFC0000000007FFFF
310
C0000000007FFFF80FFFFFFFFFFFFFC07FFFFFF0001FFFFFF8001FFFFFFFFC00
310
0FF8001FFFFFFFFC000FFF0003FFFFFFFFFE0000000003FFF000FC000000000F
310
FFFFE0007F80070007F8001FFF80007FF8000000001FFFFF8000000001FFFFF8
310
0FFFFFFFFFFFFFC07FFFFFF0001FFFFFF8001FFFFFFFFC000FF8001FFFFFFFFC
310
000FFF0003FFFFFFFFFC000000000FFFF000F8000000007FFFFFE0007F800700
310
07F8001FFF80007FF000000000FFFFFF800000000FFFFFF80FFFFFFFFFFFFFC0
310
7FFFFFF0001FFFFFF8000FFFFFFFF8000FF8000FFFFFFFF8000FFF0003FFFFFF
310
FFFC000000007FFFF000F800000007FFFFFFC0007F8003000FF8001FFF80007F
310
F000000007FFFFFF000000007FFFFFF80FFFFFFFFFFFFFC07FFFFFF0001FFFFF
310
F8000FFFFFFFF8000FF8000FFFFFFFF8000FFF0003FFFFFFFFF80000000FFFFF
310
F000F0000000FFFFFFFFC000FF8003000FF8001FFF80007FE0000000FFFFFFFF
310
0000000FFFFFFFF8000001FFFE0000007FFFFFF0001FFFFFF8000FFFFFFFF800
310
0FF8000FFFFFFFF8000FFF0003FFFFFFFFF8000000FFFFFFF000F000000FFFFF
310
FFFFC000FFC002000FF8000FFF80007FE000001FFFFFFFFE000001FFFFFFFFF8
310
000001FFFE0000007FFFFFF0001FFFFFF8000FFFFFFFF8000FF8000FFFFFFFF8
310
000FFF0003FFFFFFFFF000001FFFFFFFF000E00000FFFFFFFFFFC000FFC00200
310
0FFC000FFF80007FE00001FFFFFFFFFE00001FFFFFFFFFF8000001FFFE000000
310
7FFFFFF0001FFFFFFC000FFFFFFFF8001FFC000FFFFFFFF8001FFF0003FFFFFF
310
FFF00001FFFFFFFFF000E00007FFFFFFFFFF8000FFC000001FFC000FFF80007F
310
C0000FFFFFFFFFFE0000FFFFFFFFFFF8000001FFFE0000007FFFFFF0001FFFFF
310
FC0007FFFFFFF0001FFC0007FFFFFFF0001FFF0003FFFFFFFFF00007FFFFFFFF
310
F000E0001FFFFFFFFFFF8000FFC000001FFC000FFF80007FC0003FFFFFFFFFFE
310
0001FFFFFFFFFFF8000001FFFE0000007FFFFFF0001FFFFFFC0007FFFFFFF000
310
1FFC0007FFFFFFF0001FFF0003FFFFFFFFF0001FFFFFFFFFF000E0003FFFFF00
310
03FF8001FFE000001FFC0007FF80007FC0007FFFFF0007FC0003FFFFF0003FF8
310
000001FFFE0000007FFFFFF0001FFFFFFC0003FFFFFFE0001FFC0003FFFFFFE0
310
001FFF0003FFFFFFFFF0003FFFFFFFFFF000E0003FFFFF0001FF8001FFE00000
310
1FFE0007FF80007FC0007FFFFE0003FC0007FFFFE0003FF8000001FFFE000000
310
7FFFFFF0001FFFFFFE0003FFFFFFE0003FFE0003FFFFFFE0003FFF0003FFFFFF
310
FFF0003FFFFF8001F000E0003FFFFF0001FF0001FFE000001FFE0007FF80007F
310
C0007FFFFE0003FC0007FFFFE0003FF8000001FFFE0000007FFFFFF0001FFFFF
310
FE0001FFFFFFC0003FFE0001FFFFFFC0003FFF0003FFFFFFFFF0003FFFFF0001
310
F000E0003FFFFF0003FF0001FFE000003FFE0007FF80007FC0007FFFFE0003FC
310
0007FFFFE0003FF8000001FFFE0000007FFFFFF0001FFFFFFF0001FFFFFFC000
310
7FFF0001FFFFFFC0007FFF0003FFFFFFFFF0003FFFFF0001F000E0003FFFFE00
310
03FF0003FFF000003FFE0003FF80007FC0007FFFFC0003FE0007FFFFE0003FF8
310
000001FFFE0000007FFFFFF0001FFFFFFF0000FFFFFF80007FFF0000FFFFFF80
310
007FFF0003FFFFFFFFF0003FFFFF0001F000E0003FFFFE0003FF0003FFF00000
310
3FFF0003FF80007FC0007FFFFC0007FE0007FFFFC0003FF8000001FFFE000000
310
7FFFFFF0001FFFFFFF80007FFFFF0000FFFF80007FFFFF0000FFFF0003FFFFFF
310
FFF0003FFFFF0003F000E0003FFFFC0003FE0003FFF000003FFF0003FF80007F
310
E0003FFFF80007FE0003FFFFC0007FF8000001FFFE0000007FFFFFF0001FFFFF
310
FF80003FFFFE0000FFFF80003FFFFE0000FFFF0003FFFFFFFFF0001FFFFE0003
310
F000F0001FFFF80003FE0003FFF000007FFF0001FF80007FE0003FFFF00007FE
310
0001FFFF80007FF8000001FFFE0000007FFFFFF0001FFFFFFFC0000FFFF80001
310
FFFFC0000FFFF80001FFFF0003FFFFFFFFF0001FFFFC0003F000F0000FFFF000
310
07FE0007FFF800007FFF0001FF80007FE0001FFFE00007FF0000FFFE00007FF8
310
000001FFFE0000007FFFFFF0001FFFFFFFC00003FFE00001FFFFC00003FFE000
310
01FFFF0003FFFFFFFFF8000FFFF80003F000F00003FFC00007FC0007FFF80000
310
7FFF8001FF80007FF00007FF80000FFF00007FF80000FFF8000001FFFE000000
310
7F80000000000001FFE000003E000003FFFFE000003E000003FFFF0003FFFFFF
310
FFF80003FFE00007F000F800000000000FFC0007FFF800007FFF8001FF80007F
310
F000000000000FFF000000000000FFF8000001FFFE0000007F80000000000001
310
FFF0000000000007FFFFF0000000000007FFFF0003FFFFFFFFFC00007E000007
310
F000F800000000000FFC0007FFF80000FFFF8000FF80007FF800000000001FFF
310
800000000001FFF8000001FFFE0000007F80000000000001FFF800000000000F
310
FFFFF800000000000FFFFF0003FFFFFFFFFC00000000000FF000FC0000000000
310
1FFC0007FFFC0000FFFF8000FF80007FF800000000003FFFC00000000001FFF8
310
000001FFFE0000007F80000000000001FFF800000000000FFFFFF80000000000
310
0FFFFF0003FFFFFFFFFE00000000001FF000FE00000000003FF8000FFFFC0000
310
FFFF8000FF80007FFC00000000003FFFC00000000003FFF8000001FFFE000000
310
7F80000000000001FFFC00000000001FFFFFFC00000000001FFFFF0003FFFFFF
310
FFFF00000000001FF000FF00000000003FF8000FFFFC0000FFFFC000FF80007F
310
FE00000000007FFFE00000000007FFF8000001FFFE0000007F80000000000001
310
FFFE00000000003FFFFFFE00000000003FFFFF0003FFFFFFFFFF80000000003F
310
F000FF80000000007FF8000FFFFC0001FFFFC0007F80007FFF0000000000FFFF
310
F0000000000FFFF800000000000000007F80000000000001FFFF8000000000FF
310
FFFFFF8000000000FFFFFF0003FFFFFFFFFFC0000000007FF000FFC000000000
310
FFF8000FFFFE0001FFFFC0007F80007FFF8000000001FFFFF8000000001FFFF8
310
00000000000000007F80000000000001FFFFC000000001FFFFFFFFC000000001
310
FFFFFF0003FFFFFFFFFFE000000000FFF000FFE000000003FFF0001FFFFE0001
310
FFFFC0007F80007FFFC000000007FFFFFE000000003FFFF80000000000000000
310
7F80000000000001FFFFE000000003FFFFFFFFE000000003FFFFFF0003FFFFFF
310
FFFFF000000003FFF000FFF80000000FFFF0001FFFFE0001FFFFE0007F80007F
310
FFF00000000FFFFFFF00000000FFFFF800000000000000007F80000000000001
310
FFFFF80000000FFFFFFFFFF80000000FFFFFFF0003FFFFFFFFFFFC0000000FFF
310
F000FFFE0000003FFFF0001FFFFE0003FFFFE0003F80007FFFFC0000003FFFFF
310
FFC0000003FFFFF800000000000000007F80000000000001FFFFFE0000003FFF
310
FFFFFFFE0000003FFFFFFF0003FFFFFFFFFFFF0000003FFFF000FFFF800000FF
310
FFF0001FFFFF0003FFFFE0003F80007FFFFF000001FFFFFFFFF800001FFFFFF8
310
00000000000000007F80000000000001FFFFFFC00001FFFFFFFFFFFFC00001FF
310
FFFFFF0003FFFFFFFFFFFFC00000FFFFF000FFFFF8000FFFFFFFFFFFFFFFFFFF
310
FFFFFFFFFFFFFFFFFFFFF0001FFFFFFFFFFF0000FFFFFFF80000000000000000
310
7FFFFFFFFFFFFFFFFFFFFFFC001FFFFFFFFFFFFFFC001FFFFFFFFFFFFFFFFFFF
310
FFFFFFFC001FFFFFF000FFFFFFFFFFFFFFFFFFFFFFFFFFFFFFFFFFFFFFFFFFFF
310
FFFFFFFFFFFFFFFFFFFFFFFFFFFFFFFFFFFFFFFFFFFFFFFFFFFFFFFFFFFFFFFF
310
FFFFFFFFFFFFFFFFFFFFFFFFFFFFFFFFFFFFFFFFFFFFFFFFFFFFFFFFFFFFFFFF
310
F000FFFFFFFFFFFFFFFFFFFFFFFFFFFFFFFFFFFFFFFFFFFFFFFFFFFFFFFFFFFF
310
FFFFFFFFFFFFFFFFFFFFFFFFFFFFFFFFFFFFFFFFFFFFFFFFFFFFFFFFFFFFFFFF
310
FFFFFFFFFFFFFFFFFFFFFFFFFFFFFFFFFFFFFFFFFFFFFFFFF000FFFFFFFFFFFF
310
FFFFFFFFFFFFFFFFFFFFFFFFFFFFFFFFFFFFFFFFFFFFFFFFFFFFFFFFFFFFFFFF
310
FFFFFFFFFFFFFFFFFFFFFFFFFFFFFFFFFFFFFFFFFFFFFFFFFFFFFFFFFFFFFFFF
310
FFFFFFFFFFFFFFFFFFFFFFFFFFFFFFFFF000FFFFFFFFFFFFFFFFFFFFFFFFFFFF
310
FFFFFFFFFFFFFFFFFFFFFFFFFFFFFFFFFFFFFFFFFFFFFFFFFFFFFFFFFFFFFFFF
310
FFFFFFFFFFFFFFFFFFFFFFFFFFFFFFFFFFFFFFFFFFFFFFFFFFFFFFFFFFFFFFFF
310
FFFFFFFFFFFFFFFFF000FFFFFFFFFFFFFFFFFFFFFFFFFFFFFFFFFFFFFFFFFFFF
310
FFFFFFFFFFFFFFFFFFFFFFFFFFFFFFFFFFFFFFFFFFFFFFFFFFFFFFFFFFFFFFFF
310
FFFFFFFFFFFFFFFFFFFFFFFFFFFFFFFFFFFFFFFFFFFFFFFFFFFFFFFFFFFFFFFF
310
F000FFFFFFFFFFFFFFFFFFFFFFFFFFFFFFFFFFFFFFFFFFFFFFFFFFFFFFFFFFFF
310
FFFFFFFFFFFFFFFFFFFFFFFFFFFFFFFFFFFFFFFFFFFFFFFFFFFFFFFFFFFFFFFF
310
FFFFFFFFFFFFFFFFFFFFFFFFFFFFFFFFFFFFFFFFFFFFFFFFF000FFFFFFFFFFFF
310
FFFFFFFFFFFFFFFFFFFFFFFFFFFFFFFFFFFFFFFFFFFFFFFFFFFFFFFFFFFFFFFF
310
FFFFFFFFFFFFFFFFFFFFFFFFFFFFFFFFFFFFFFFFFFFFFFFFFFFFFFFFFFFFFFFF
310
FFFFFFFFFFFFFFFFFFFFFFFFFFFFFFFFF000FFFFFFFFFFFFFFFFFFFFFFFFFFFF
310
FFFFFFFFFFFFFFFFFFFFFFFFFFFFFFFFFFFFFFFFFFFFFFFFFFFFFFFFFFFFFFFF
310
FFFFFFFFFFFFFFFFFFFFFFFFFFFFFFFFFFFFFFFFFFFFFFFFFFFFFFFFFFFFFFFF
310
FFFFFFFFFFFFFFFFF000FFFFFFFFFFFFFFFFFFFFFFFFFFFFFFFFFFFFFFFFFFFF
310
FFFFFFFFFFFFFFFFFFFFFFFFFFFFFFFFFFFFFFFFFFFFFFFFFFFFFFFFFFFFFFFF
310
FFFFFFFFFFFFFFFFFFFFFFFFFFFFFFFFFFFFFFFFFFFFFFFFFFFFFFFFFFFFFFFF
310
F000FFFFFFFFFFFFFFFFFFFFFFFFFFFFFFFFFFFFFFFFFFFFFFFFFFFFFFFFFFFF
310
FFFFFFFFFFFFFFFFFFFFFFFFFFFFFFFFFFFFFFFFFFFFFFFFFFFFFFFFFFFFFFFF
310
FFFFFFFFFFFFFFFFFFFFFFFFFFFFFFFFFFFFFFFFFFFFFFFFF000FFFFFFFFFFFF
310
FFFFFFFFFFFFFFFFFFFFFFFFFFFFFFFFFFFFFFFFFFFFFFFFFFFFFFFFFFFFFFFF
310
FFFFFFFFFFFFFFFFFFFFFFFFFFFFFFFFFFFFFFFFFFFFFFFFFFFFFFFFFFFFFFFF
310
FFFFFFFFFFFFFFFFFFFFFFFFFFFFFFFFF000FFFFFFFFFFFFFFFFFFFFFFFFFFFF
310
FFFFFFFFFFFFFFFFFFFFFFFFFFFFFFFFFFFFFFFFFFFFFFFFFFFFFFFFFFFFFFFF
310
FFFFFFFFFFFFFFFFFFFFFFFFFFFFFFFFFFFFFFFFFFFFFFFFFFFFFFFFFFFFFFFF
310
FFFFFFFFFFFFFFFFF000FFFFFFFFFFFFFFFFFFFFFFFFFFFFFFFFFFFFFFFFFFFF
310
FFFFFFFFFFFFFFFFFFFFFFFFFFFFFFFFFFFFFFFFFFFFFFFFFFFFFFFFFFFFFFFF
310
FFFFFFFFFFFFFFFFFFFFFFFFFFFFFFFFFFFFFFFFFFFFFFFFFFFFFFFFFFFFFFFF
310
F000FFFFFFFFFFFFFFFFFFFFFFFFFFFFFFFFFFFFFFFFFFFFFFFFFFFFFFFFFFFF
310
FFFFFFFFFFFFFFFFFFFFFFFFFFFFFFFFFFFFFFFFFFFFFFFFFFFFFFFFFFFFFFFF
310
FFFFFFFFFFFFFFFFFFFFFFFFFFFFFFFFFFFFFFFFFFFFFFFFF000FFFFFFFFFFFF
310
FFFFFFFFFFFFFFFFFFFFFFFFFFFFFFFFFFFFFFFFFFFFFFFFFFFFFFFFFFFFFFFF
310
FFFFFFFFFFFFFFFFFFFFFFFFFFFFFFFFFFFFFFFFFFFFFFFFFFFFFFFFFFFFFFFF
310
FFFFFFFFFFFFFFFFFFFFFFFFFFFFFFFFF000FFFFFFFFFFFFFFFFFFFFFFFFFFFF
310
FFFFFFFFFFFFFFFFFFFFFFFFFFFFFFFFFFFFFFFFFFFFFFFFFFFFFFFFFFFFFFFF
310
FFFFFFFFFFFFFFFFFFFFFFFFFFFFFFFFFFFFFFFFFFFFFFFFFFFFFFFFFFFFFFFF
310
FFFFFFFFFFFFFFFFF000FFFFFFFFFFFFFFFFFFFFFFFFFFFFFFFFFFFFFFFFFFFF
310
FFFFFFFFFFFFFFFFFFFFFFFFFFFFFFFFFFFFFFFFFFFFFFFFFFFFFFFFFFFFFFFF
310
FFFFFFFFFFFFFFFFFFFFFFFFFFFFFFFFFFFFFFFFFFFFFFFFFFFFFFFFFFFFFFFF
310
F000FFFFFFFFFFFFFFFFFFFFFFFFFFFFFFFFFFFFFFFFFFFFFFFFFFFFFFFFFFFF
310
FFFFFFFFFFFFFFFFFFFFFFFFFFFFFFFFFFFFFFFFFFFFFFFFFFFFFFFFFFFFFFFF
310
FFFFFFFFFFFFFFFFFFFFFFFFFFFFFFFFFFFFFFFFFFFFFFFFF000FFFFFFFFFFFF
310
FFFFFFFFFFFFFFFFFFFFFFFFFFFFFFFFFFFFFFFFFFFFFFFFFFFFFFFFFFFFFFFF
310
FFFFFFFFFFFFFFFFFFFFFFFFFFFFFFFFFFFFFFFFFFFFFFFFFFFFFFFFFFFFFFFF
310
FFFFFFFFFFFFFFFFFFFFFFFFFFFFFFFFF000FFFFFFFFFFFFFFFFFFFFFFFFFFFF
310
FFFFFFFFFFFFFFFFFFFFFFFFFFFFFFFFFFFFFFFFFFFFFFFFFFFFFFFFFFFFFFFF
310
FFFFFFFFFFFFFFFFFFFFFFFFFFFFFFFFFFFFFFFFFFFFFFFFFFFFFFFFFFFFFFFF
310
FFFFFFFFFFFFFFFFF000FFFFFFFFFFFFFFFFFFFFFFFFFFFFFFFFFFFFFFFFFFFF
310
FFFFFFFFFFFFFFFFFFFFFFFFFFFFFFFFFFFFFFFFFFFFFFFFFFFFFFFFFFFFFFFF
310
FFFFFFFFFFFFFFFFFFFFFFFFFFFFFFFFFFFFFFFFFFFFFFFFFFFFFFFFFFFFFFFF
310
F000FFFFFFFFFFFFFFFFFFFFFFFFFFFFFFFFFFFFFFFFFFFFFFFFFFFFFFFFFFFF
310
FFFFFFFFFFFFFFFFFFFFFFFFFFFFFFFFFFFFFFFFFFFFFFFFFFFFFFFFFFFFFFFF
310
FFFFFFFFFFFFFFFFFFFFFFFFFFFFFFFFFFFFFFFFFFFFFFFFF000FFFFFFFFFFFF
310
FFFFFFFFFFFFFFFFFFFFFFFFFFFFFFFFFFFFFFFFFFFFFFFFFFFFFFFFFFFFFFFF
310
FFFFFFFFFFFFFFFFFFFFFFFFFFFFFFFFFFFFFFFFFFFFFFFFFFFFFFFFFFFFFFFF
310
FFFFFFFFFFFFFFFFFFFFFFFFFFFFFFFFF0000000000000000000000000000000
310
00000000A326F53DB8D4A83D628CB73DF3F0A73D8D87B83DCA94983DA364B93D
310
DB97973D7869B83DCA97973D2CA80C3EC994983D932A0C3EF2F0A73D1F990C3E
310
C6D4A83DB8160D3EF056DF3DAF28E03D25154E3EAF28E03D25154E3E2291F13D
310
F056DF3D2291F13DF2F0A73D1853B83DF2F0A73DBE07C03DCA94983D75E7BF3D
310
CA94983DCF64B93DF2F0A73D0AD9083EF2F0A73D58B30C3ECA94983D822A0C3E
310
CA94983D2EE9083E2943513EE5F5DB3DBC47513E18F6DB3D4D4C513EB1F6DB3D
310
D950513EB0F7DB3D5F55513E15F9DB3DDB59513EDEFADB3D4D5E513E0AFDDB3D
310
B162513E9AFFDB3D0667513E8B02DC3D7D701F3E7AEF093EA176203E2158093E
310
5A95253E2158093E7F9B263E7AEF093E7F9B263EDCDABD3D5A95253E8F09BF3D
310
A176203E8F09BF3D7D701F3EDCDABD3DA176203E2158093EA176203E804BFB3D
310
5A95253E804BFB3D5A95253E2158093EA176203E804BFB3DFE05233EF137F83D
310
FE05233EF137F83D5A95253E804BFB3D5A95253E516ED63DFE05233EE081D93D
310
FE05233EE081D93DA176203E516ED63D5A95253E8F09BF3D5A95253E516ED63D
310
A176203E516ED63DA176203E8F09BF3DA6AA513E774BFC3DA6AA513E1823FD3D
310
A6AA513EFAD0F13DA6AA513E2DADF83D38984E3E291AFA3D38984E3E1BFCF13D
  1
OLE
  0
ENDSEC
  0
SECTION
  2
OBJECTS
  0
DICTIONARY
  5
C
330
0
100
AcDbDictionary
281
     1
  3
ACAD_GROUP
350
D
  3
ACAD_LAYOUT
350
1A
  3
ACAD_MLEADERSTYLE
350
20C
  3
ACAD_MLINESTYLE
350
17
  3
ACAD_PLOTSETTINGS
350
19
  3
ACAD_PLOTSTYLENAME
350
E
  3
ACAD_TABLESTYLE
350
20B
  3
ACAD_VISUALSTYLE
350
2A
  3
AcDbVariableDictionary
350
20D
  0
DICTIONARY
  5
D
102
{ACAD_REACTORS
330
C
102
}
330
C
100
AcDbDictionary
281
     1
  0
DICTIONARY
  5
1A
102
{ACAD_REACTORS
330
C
102
}
330
C
100
AcDbDictionary
281
     1
  3
Layout1
350
1E
  3
Layout2
350
26
  3
Model
350
22
  0
DICTIONARY
  5
20C
102
{ACAD_REACTORS
330
C
102
}
330
C
100
AcDbDictionary
281
     1
  0
DICTIONARY
  5
17
102
{ACAD_REACTORS
330
C
102
}
330
C
100
AcDbDictionary
281
     1
  3
Standard
350
18
  0
DICTIONARY
  5
19
102
{ACAD_REACTORS
330
C
102
}
330
C
100
AcDbDictionary
281
     1
  0
ACDBDICTIONARYWDFLT
  5
E
102
{ACAD_REACTORS
330
C
102
}
330
C
100
AcDbDictionary
281
     1
  3
Normal
350
F
100
AcDbDictionaryWithDefault
340
F
  0
DICTIONARY
  5
20B
102
{ACAD_REACTORS
330
C
102
}
330
C
100
AcDbDictionary
281
     1
  0
DICTIONARY
  5
2A
102
{ACAD_REACTORS
330
C
102
}
330
C
100
AcDbDictionary
281
     1
  3
2dWireframe
350
2F
  3
3D Hidden
350
31
  3
3dWireframe
350
30
  3
Basic
350
32
  3
Brighten
350
36
  3
ColorChange
350
3A
  3
Conceptual
350
34
  3
Dim
350
35
  3
Facepattern
350
39
  3
Flat
350
2B
  3
FlatWithEdges
350
2C
  3
Gouraud
350
2D
  3
GouraudWithEdges
350
2E
  3
Linepattern
350
38
  3
Realistic
350
33
  3
Thicken
350
37
  0
DICTIONARY
  5
20D
102
{ACAD_REACTORS
330
C
102
}
330
C
100
AcDbDictionary
281
     1
  3
PSOLHEIGHT
350
20F
  3
PSOLWIDTH
350
20E
  0
LAYOUT
  5
1E
102
{ACAD_REACTORS
330
1A
102
}
330
1A
100
AcDbPlotSettings
  1

  2
none_device
  4

  6

 40
0.0
 41
0.0
 42
0.0
 43
0.0
 44
0.0
 45
0.0
 46
0.0
 47
0.0
 48
0.0
 49
0.0
140
0.0
141
0.0
142
1.0
143
1.0
 70
   688
 72
     0
 73
     0
 74
     5
  7

 75
    16
147
1.0
148
0.0
149
0.0
100
AcDbLayout
  1
Layout1
 70
     1
 71
     1
 10
0.0
 20
0.0
 11
420.0
 21
297.0
 12
0.0
 22
0.0
 32
0.0
 14
1.0000000000E+20
 24
1.0000000000E+20
 34
1.0000000000E+20
 15
-1.0000000000E+20
 25
-1.0000000000E+20
 35
-1.0000000000E+20
146
0.0
 13
0.0
 23
0.0
 33
0.0
 16
1.0
 26
0.0
 36
0.0
 17
0.0
 27
1.0
 37
0.0
 76
     0
330
1B
  0
LAYOUT
  5
26
102
{ACAD_REACTORS
330
1A
102
}
330
1A
100
AcDbPlotSettings
  1

  2
none_device
  4

  6

 40
0.0
 41
0.0
 42
0.0
 43
0.0
 44
0.0
 45
0.0
 46
0.0
 47
0.0
 48
0.0
 49
0.0
140
0.0
141
0.0
142
1.0
143
1.0
 70
   688
 72
     0
 73
     0
 74
     5
  7

 75
    16
147
1.0
148
0.0
149
0.0
100
AcDbLayout
  1
Layout2
 70
     1
 71
     2
 10
0.0
 20
0.0
 11
0.0
 21
0.0
 12
0.0
 22
0.0
 32
0.0
 14
0.0
 24
0.0
 34
0.0
 15
0.0
 25
0.0
 35
0.0
146
0.0
 13
0.0
 23
0.0
 33
0.0
 16
1.0
 26
0.0
 36
0.0
 17
0.0
 27
1.0
 37
0.0
 76
     0
330
23
  0
LAYOUT
  5
22
102
{ACAD_REACTORS
330
1A
102
}
330
1A
100
AcDbPlotSettings
  1

  2
none_device
  4

  6

 40
0.0
 41
0.0
 42
0.0
 43
0.0
 44
0.0
 45
0.0
 46
0.0
 47
0.0
 48
0.0
 49
0.0
140
0.0
141
0.0
142
1.0
143
1.0
 70
  1712
 72
     0
 73
     0
 74
     0
  7

 75
     0
147
1.0
148
0.0
149
0.0
100
AcDbLayout
  1
Model
 70
     1
 71
     0
 10
0.0
 20
0.0
 11
297.0
 21
210.0
 12
0.0
 22
0.0
 32
0.0
 14
0.0
 24
0.0
 34
0.0
 15
297.0
 25
210.0
 35
0.0
146
0.0
 13
0.0
 23
0.0
 33
0.0
 16
1.0
 26
0.0
 36
0.0
 17
0.0
 27
1.0
 37
0.0
 76
     0
330
1F
331
29
  0
MLINESTYLE
  5
18
102
{ACAD_REACTORS
330
17
102
}
330
17
100
AcDbMlineStyle
  2
Standard
 70
     0
  3

 62
   256
 51
90.0
 52
90.0
 71
     2
 49
0.5
 62
   256
  6
BYLAYER
 49
-0.5
 62
   256
  6
BYLAYER
  0
ACDBPLACEHOLDER
  5
F
102
{ACAD_REACTORS
330
E
102
}
330
E
  0
VISUALSTYLE
  5
2F
102
{ACAD_REACTORS
330
2A
102
}
330
2A
100
AcDbVisualStyle
  2
2dWireframe
 70
     4
 71
     0
 72
     2
 73
     0
 90
        0
 40
-0.6
 41
-30.0
 62
     5
 63
     7
 74
     1
 91
        4
 64
     7
 65
   257
 75
     1
175
     1
 42
1.0
 92
        0
 66
   257
 43
1.0
 76
     1
 77
     6
 78
     2
 67
     7
 79
     5
170
     0
171
     0
290
     0
174
     0
 93
        1
 44
0.0
173
     0
291
     0
 45
0.0
1001
ACAD
1000
AcDbSavedByObjectVersion
1070
     0
  0
VISUALSTYLE
  5
31
102
{ACAD_REACTORS
330
2A
102
}
330
2A
100
AcDbVisualStyle
  2
3D Hidden
 70
     6
 71
     1
 72
     2
 73
     2
 90
        0
 40
-0.6
 41
-30.0
 62
     5
 63
     7
 74
     2
 91
        2
 64
     7
 65
   257
 75
     2
175
     1
 42
40.0
 92
        0
 66
   257
 43
1.0
 76
     1
 77
     6
 78
     2
 67
     7
 79
     3
170
     0
171
     0
290
     0
174
     0
 93
        1
 44
0.0
173
     0
291
     0
 45
0.0
1001
ACAD
1000
AcDbSavedByObjectVersion
1070
     0
  0
VISUALSTYLE
  5
30
102
{ACAD_REACTORS
330
2A
102
}
330
2A
100
AcDbVisualStyle
  2
3dWireframe
 70
     5
 71
     0
 72
     2
 73
     0
 90
        0
 40
-0.6
 41
-30.0
 62
     5
 63
     7
 74
     1
 91
        4
 64
     7
 65
   257
 75
     1
175
     1
 42
1.0
 92
        0
 66
   257
 43
1.0
 76
     1
 77
     6
 78
     2
 67
     7
 79
     5
170
     0
171
     0
290
     0
174
     0
 93
        1
 44
0.0
173
     0
291
     0
 45
0.0
1001
ACAD
1000
AcDbSavedByObjectVersion
1070
     0
  0
VISUALSTYLE
  5
32
102
{ACAD_REACTORS
330
2A
102
}
330
2A
100
AcDbVisualStyle
  2
Basic
 70
     7
 71
     1
 72
     0
 73
     1
 90
        0
 40
-0.6
 41
-30.0
 62
     5
 63
     7
 74
     0
 91
        4
 64
     7
 65
   257
 75
     1
175
     1
 42
1.0
 92
        8
 66
     7
 43
1.0
 76
     1
 77
     6
 78
     2
 67
     7
 79
     5
170
     0
171
     0
290
     0
174
     0
 93
        1
 44
0.0
173
     0
291
     1
 45
0.0
1001
ACAD
1000
AcDbSavedByObjectVersion
1070
     0
  0
VISUALSTYLE
  5
36
102
{ACAD_REACTORS
330
2A
102
}
330
2A
100
AcDbVisualStyle
  2
Brighten
 70
    12
 71
     2
 72
     2
 73
     0
 90
        0
 40
-0.6
 41
-30.0
 62
     5
 63
     7
 74
     1
 91
        4
 64
     7
 65
   257
 75
     1
175
     1
 42
1.0
 92
        8
 66
     7
 43
1.0
 76
     1
 77
     6
 78
     2
 67
     7
 79
     5
170
     0
171
     0
290
     0
174
     0
 93
        1
 44
50.0
173
     0
291
     1
 45
0.0
1001
ACAD
1000
AcDbSavedByObjectVersion
1070
     0
  0
VISUALSTYLE
  5
3A
102
{ACAD_REACTORS
330
2A
102
}
330
2A
100
AcDbVisualStyle
  2
ColorChange
 70
    16
 71
     2
 72
     2
 73
     3
 90
        0
 40
-0.6
 41
-30.0
 62
     5
 63
     8
 74
     1
 91
        4
 64
     7
 65
   257
 75
     1
175
     1
 42
1.0
 92
        8
 66
     8
 43
1.0
 76
     1
 77
     6
 78
     2
 67
     7
 79
     5
170
     0
171
     0
290
     0
174
     0
 93
        1
 44
0.0
173
     0
291
     1
 45
0.0
1001
ACAD
1000
AcDbSavedByObjectVersion
1070
     0
  0
VISUALSTYLE
  5
34
102
{ACAD_REACTORS
330
2A
102
}
330
2A
100
AcDbVisualStyle
  2
Conceptual
 70
     9
 71
     3
 72
     2
 73
     0
 90
        0
 40
-0.6
 41
-30.0
 62
     5
 63
     7
 74
     2
 91
        2
 64
     7
 65
   257
 75
     1
175
     1
 42
40.0
 92
        8
 66
     7
 43
1.0
 76
     1
 77
     6
 78
     2
 67
     7
 79
     3
170
     0
171
     0
290
     0
174
     0
 93
        1
 44
0.0
173
     0
291
     0
 45
0.0
1001
ACAD
1000
AcDbSavedByObjectVersion
1070
     0
  0
VISUALSTYLE
  5
35
102
{ACAD_REACTORS
330
2A
102
}
330
2A
100
AcDbVisualStyle
  2
Dim
 70
    11
 71
     2
 72
     2
 73
     0
 90
        0
 40
-0.6
 41
-30.0
 62
     5
 63
     7
 74
     1
 91
        4
 64
     7
 65
   257
 75
     1
175
     1
 42
1.0
 92
        8
 66
     7
 43
1.0
 76
     1
 77
     6
 78
     2
 67
     7
 79
     5
170
     0
171
     0
290
     0
174
     0
 93
        1
 44
-50.0
173
     0
291
     1
 45
0.0
1001
ACAD
1000
AcDbSavedByObjectVersion
1070
     0
  0
VISUALSTYLE
  5
39
102
{ACAD_REACTORS
330
2A
102
}
330
2A
100
AcDbVisualStyle
  2
Facepattern
 70
    15
 71
     2
 72
     2
 73
     0
 90
        0
 40
-0.6
 41
-30.0
 62
     5
 63
     7
 74
     1
 91
        4
 64
     7
 65
   257
 75
     1
175
     1
 42
1.0
 92
        8
 66
     7
 43
1.0
 76
     1
 77
     6
 78
     2
 67
     7
 79
     5
170
     0
171
     0
290
     0
174
     0
 93
        1
 44
0.0
173
     0
291
     1
 45
0.0
1001
ACAD
1000
AcDbSavedByObjectVersion
1070
     0
  0
VISUALSTYLE
  5
2B
102
{ACAD_REACTORS
330
2A
102
}
330
2A
100
AcDbVisualStyle
  2
Flat
 70
     0
 71
     2
 72
     1
 73
     1
 90
        2
 40
-0.6
 41
30.0
 62
     5
 63
     7
 74
     0
 91
        4
 64
     7
 65
   257
 75
     1
175
     1
 42
1.0
 92
        8
 66
     7
 43
1.0
 76
     1
 77
     6
 78
     2
 67
     7
 79
     5
170
     0
171
     0
290
     0
174
     0
 93
       13
 44
0.0
173
     0
291
     1
 45
0.0
1001
ACAD
1000
AcDbSavedByObjectVersion
1070
     0
  0
VISUALSTYLE
  5
2C
102
{ACAD_REACTORS
330
2A
102
}
330
2A
100
AcDbVisualStyle
  2
FlatWithEdges
 70
     1
 71
     2
 72
     1
 73
     1
 90
        2
 40
-0.6
 41
30.0
 62
     5
 63
     7
 74
     1
 91
        4
 64
     7
 65
   257
 75
     1
175
     1
 42
1.0
 92
        0
 66
   257
 43
1.0
 76
     1
 77
     6
 78
     2
 67
     7
 79
     5
170
     0
171
     0
290
     0
174
     0
 93
       13
 44
0.0
173
     0
291
     1
 45
0.0
1001
ACAD
1000
AcDbSavedByObjectVersion
1070
     0
  0
VISUALSTYLE
  5
2D
102
{ACAD_REACTORS
330
2A
102
}
330
2A
100
AcDbVisualStyle
  2
Gouraud
 70
     2
 71
     2
 72
     2
 73
     1
 90
        2
 40
-0.6
 41
30.0
 62
     5
 63
     7
 74
     0
 91
        4
 64
     7
 65
   257
 75
     1
175
     1
 42
1.0
 92
        0
 66
     7
 43
1.0
 76
     1
 77
     6
 78
     2
 67
     7
 79
     5
170
     0
171
     0
290
     0
174
     0
 93
       13
 44
0.0
173
     0
291
     1
 45
0.0
1001
ACAD
1000
AcDbSavedByObjectVersion
1070
     0
  0
VISUALSTYLE
  5
2E
102
{ACAD_REACTORS
330
2A
102
}
330
2A
100
AcDbVisualStyle
  2
GouraudWithEdges
 70
     3
 71
     2
 72
     2
 73
     1
 90
        2
 40
-0.6
 41
30.0
 62
     5
 63
     7
 74
     1
 91
        4
 64
     7
 65
   257
 75
     1
175
     1
 42
1.0
 92
        0
 66
   257
 43
1.0
 76
     1
 77
     6
 78
     2
 67
     7
 79
     5
170
     0
171
     0
290
     0
174
     0
 93
       13
 44
0.0
173
     0
291
     1
 45
0.0
1001
ACAD
1000
AcDbSavedByObjectVersion
1070
     0
  0
VISUALSTYLE
  5
38
102
{ACAD_REACTORS
330
2A
102
}
330
2A
100
AcDbVisualStyle
  2
Linepattern
 70
    14
 71
     2
 72
     2
 73
     0
 90
        0
 40
-0.6
 41
-30.0
 62
     5
 63
     7
 74
     1
 91
        4
 64
     7
 65
   257
 75
     7
175
     7
 42
1.0
 92
        8
 66
     7
 43
1.0
 76
     1
 77
     6
 78
     2
 67
     7
 79
     5
170
     0
171
     0
290
     0
174
     0
 93
        1
 44
0.0
173
     0
291
     1
 45
0.0
1001
ACAD
1000
AcDbSavedByObjectVersion
1070
     0
  0
VISUALSTYLE
  5
33
102
{ACAD_REACTORS
330
2A
102
}
330
2A
100
AcDbVisualStyle
  2
Realistic
 70
     8
 71
     2
 72
     2
 73
     0
 90
        0
 40
-0.6
 41
-30.0
 62
     5
 63
     7
 74
     1
 91
        0
 64
     7
 65
   257
 75
     1
175
     1
 42
1.0
 92
        8
 66
     8
 43
1.0
 76
     1
 77
     6
 78
     2
 67
     7
 79
     5
170
     0
171
     0
290
     0
174
     0
 93
       13
 44
0.0
173
     0
291
     0
 45
0.0
1001
ACAD
1000
AcDbSavedByObjectVersion
1070
     0
  0
VISUALSTYLE
  5
37
102
{ACAD_REACTORS
330
2A
102
}
330
2A
100
AcDbVisualStyle
  2
Thicken
 70
    13
 71
     2
 72
     2
 73
     0
 90
        0
 40
-0.6
 41
-30.0
 62
     5
 63
     7
 74
     1
 91
        4
 64
     7
 65
   257
 75
     1
175
     1
 42
1.0
 92
       12
 66
     7
 43
1.0
 76
     1
 77
     6
 78
     2
 67
     7
 79
     5
170
     0
171
     0
290
     0
174
     0
 93
        1
 44
0.0
173
     0
291
     1
 45
0.0
1001
ACAD
1000
AcDbSavedByObjectVersion
1070
     0
  0
DICTIONARYVAR
  5
20F
102
{ACAD_REACTORS
330
20D
102
}
330
20D
100
DictionaryVariables
280
     0
  1
80.000000
  0
DICTIONARYVAR
  5
20E
102
{ACAD_REACTORS
330
20D
102
}
330
20D
100
DictionaryVariables
280
     0
  1
5.000000
  0
ENDSEC
  0
EOF
