  0
SECTION
  2
HEADER
  9
$ACADVER
  1
AC1015
  9
$ACADMAINTVER
 70
     6
  9
$DWGCODEPAGE
  3
ANSI_1252
  9
$INSBASE
 10
0.0
 20
0.0
 30
0.0
  9
$EXTMIN
 10
0.0
 20
0.0
 30
0.0
  9
$EXTMAX
 10
297.0
 20
210.0
 30
0.0
  9
$LIMMIN
 10
0.0
 20
0.0
  9
$LIMMAX
 10
297.0
 20
210.0
  9
$ORTHOMODE
 70
     0
  9
$REGENMODE
 70
     1
  9
$FILLMODE
 70
     1
  9
$QTEXTMODE
 70
     0
  9
$MIRRTEXT
 70
     1
  9
$LTSCALE
 40
1.0
  9
$ATTMODE
 70
     1
  9
$TEXTSIZE
 40
2.0
  9
$TRACEWID
 40
1.0
  9
$TEXTSTYLE
  7
Standard
  9
$CLAYER
  8
0
  9
$CELTYPE
  6
ByLayer
  9
$CECOLOR
 62
   256
  9
$CELTSCALE
 40
1.0
  9
$DISPSILH
 70
     0
  9
$DIMSCALE
 40
1.0
  9
$DIMASZ
 40
3.0
  9
$DIMEXO
 40
0.0
  9
$DIMDLI
 40
3.75
  9
$DIMRND
 40
0.0
  9
$DIMDLE
 40
0.0
  9
$DIMEXE
 40
1.0
  9
$DIMTP
 40
0.0
  9
$DIMTM
 40
0.0
  9
$DIMTXT
 40
2.0
  9
$DIMCEN
 40
2.5
  9
$DIMTSZ
 40
0.0
  9
$DIMTOL
 70
     0
  9
$DIMLIM
 70
     0
  9
$DIMTIH
 70
     1
  9
$DIMTOH
 70
     1
  9
$DIMSE1
 70
     0
  9
$DIMSE2
 70
     0
  9
$DIMTAD
 70
     1
  9
$DIMZIN
 70
     0
  9
$DIMBLK
  1

  9
$DIMASO
 70
     1
  9
$DIMSHO
 70
     1
  9
$DIMPOST
  1

  9
$DIMAPOST
  1

  9
$DIMALT
 70
     0
  9
$DIMALTD
 70
     3
  9
$DIMALTF
 40
0.0393700787
  9
$DIMLFAC
 40
1.0
  9
$DIMTOFL
 70
     1
  9
$DIMTVP
 40
0.0
  9
$DIMTIX
 70
     0
  9
$DIMSOXD
 70
     0
  9
$DIMSAH
 70
     0
  9
$DIMBLK1
  1

  9
$DIMBLK2
  1

  9
$DIMSTYLE
  2
ISO-25
  9
$DIMCLRD
 70
     0
  9
$DIMCLRE
 70
     0
  9
$DIMCLRT
 70
     0
  9
$DIMTFAC
 40
1.0
  9
$DIMGAP
 40
1.524
  9
$DIMJUST
 70
     0
  9
$DIMSD1
 70
     0
  9
$DIMSD2
 70
     0
  9
$DIMTOLJ
 70
     0
  9
$DIMTZIN
 70
     0
  9
$DIMALTZ
 70
     0
  9
$DIMALTTZ
 70
     0
  9
$DIMUPT
 70
     0
  9
$DIMDEC
 70
     2
  9
$DIMTDEC
 70
     3
  9
$DIMALTU
 70
     2
  9
$DIMALTTD
 70
     3
  9
$DIMTXSTY
  7
Standard
  9
$DIMAUNIT
 70
     0
  9
$DIMADEC
 70
     2
  9
$DIMALTRND
 40
0.0
  9
$DIMAZIN
 70
     0
  9
$DIMDSEP
 70
    44
  9
$DIMATFIT
 70
     3
  9
$DIMFRAC
 70
     0
  9
$DIMLDRBLK
  1

  9
$DIMLUNIT
 70
     2
  9
$DIMLWD
 70
    -2
  9
$DIMLWE
 70
    -2
  9
$DIMTMOVE
 70
     0
  9
$LUNITS
 70
     2
  9
$LUPREC
 70
     2
  9
$SKETCHINC
 40
1.0
  9
$FILLETRAD
 40
10.0
  9
$AUNITS
 70
     0
  9
$AUPREC
 70
     2
  9
$MENU
  1
.
  9
$ELEVATION
 40
0.0
  9
$PELEVATION
 40
0.0
  9
$THICKNESS
 40
0.0
  9
$LIMCHECK
 70
     0
  9
$CHAMFERA
 40
10.0
  9
$CHAMFERB
 40
10.0
  9
$CHAMFERC
 40
20.0
  9
$CHAMFERD
 40
0.0
  9
$SKPOLY
 70
     0
  9
$TDCREATE
 40
2455672.385321678
  9
$TDUCREATE
 40
2455672.301988345
  9
$TDUPDATE
 40
2455672.38532169
  9
$TDUUPDATE
 40
2455672.301988356
  9
$TDINDWG
 40
0.0000000116
  9
$TDUSRTIMER
 40
0.0000000116
  9
$USRTIMER
 70
     1
  9
$ANGBASE
 50
0.0
  9
$ANGDIR
 70
     0
  9
$PDMODE
 70
     0
  9
$PDSIZE
 40
-1.0
  9
$PLINEWID
 40
0.0
  9
$SPLFRAME
 70
     0
  9
$SPLINETYPE
 70
     6
  9
$SPLINESEGS
 70
     8
  9
$HANDSEED
  5
18C
  9
$SURFTAB1
 70
     6
  9
$SURFTAB2
 70
     6
  9
$SURFTYPE
 70
     6
  9
$SURFU
 70
     6
  9
$SURFV
 70
     6
  9
$UCSBASE
  2

  9
$UCSNAME
  2

  9
$UCSORG
 10
0.0
 20
0.0
 30
0.0
  9
$UCSXDIR
 10
1.0
 20
0.0
 30
0.0
  9
$UCSYDIR
 10
0.0
 20
1.0
 30
0.0
  9
$UCSORTHOREF
  2

  9
$UCSORTHOVIEW
 70
     0
  9
$UCSORGTOP
 10
0.0
 20
0.0
 30
0.0
  9
$UCSORGBOTTOM
 10
0.0
 20
0.0
 30
0.0
  9
$UCSORGLEFT
 10
0.0
 20
0.0
 30
0.0
  9
$UCSORGRIGHT
 10
0.0
 20
0.0
 30
0.0
  9
$UCSORGFRONT
 10
0.0
 20
0.0
 30
0.0
  9
$UCSORGBACK
 10
0.0
 20
0.0
 30
0.0
  9
$PUCSBASE
  2

  9
$PUCSNAME
  2

  9
$PUCSORG
 10
0.0
 20
0.0
 30
0.0
  9
$PUCSXDIR
 10
1.0
 20
0.0
 30
0.0
  9
$PUCSYDIR
 10
0.0
 20
1.0
 30
0.0
  9
$PUCSORTHOREF
  2

  9
$PUCSORTHOVIEW
 70
     0
  9
$PUCSORGTOP
 10
0.0
 20
0.0
 30
0.0
  9
$PUCSORGBOTTOM
 10
0.0
 20
0.0
 30
0.0
  9
$PUCSORGLEFT
 10
0.0
 20
0.0
 30
0.0
  9
$PUCSORGRIGHT
 10
0.0
 20
0.0
 30
0.0
  9
$PUCSORGFRONT
 10
0.0
 20
0.0
 30
0.0
  9
$PUCSORGBACK
 10
0.0
 20
0.0
 30
0.0
  9
$USERI1
 70
     0
  9
$USERI2
 70
     0
  9
$USERI3
 70
     0
  9
$USERI4
 70
     0
  9
$USERI5
 70
     0
  9
$USERR1
 40
0.0
  9
$USERR2
 40
0.0
  9
$USERR3
 40
0.0
  9
$USERR4
 40
0.0
  9
$USERR5
 40
0.0
  9
$WORLDVIEW
 70
     1
  9
$SHADEDGE
 70
     3
  9
$SHADEDIF
 70
    70
  9
$TILEMODE
 70
     1
  9
$MAXACTVP
 70
    64
  9
$PINSBASE
 10
0.0
 20
0.0
 30
0.0
  9
$PLIMCHECK
 70
     0
  9
$PEXTMIN
 10
1.0000000000E+20
 20
1.0000000000E+20
 30
1.0000000000E+20
  9
$PEXTMAX
 10
-1.0000000000E+20
 20
-1.0000000000E+20
 30
-1.0000000000E+20
  9
$PLIMMIN
 10
0.0
 20
0.0
  9
$PLIMMAX
 10
420.0
 20
297.0
  9
$UNITMODE
 70
     0
  9
$VISRETAIN
 70
     1
  9
$PLINEGEN
 70
     0
  9
$PSLTSCALE
 70
     1
  9
$TREEDEPTH
 70
  3020
  9
$CMLSTYLE
  2
Standard
  9
$CMLJUST
 70
     0
  9
$CMLSCALE
 40
20.0
  9
$PROXYGRAPHICS
 70
     1
  9
$MEASUREMENT
 70
     1
  9
$CELWEIGHT
370
    -1
  9
$ENDCAPS
280
     0
  9
$JOINSTYLE
280
     0
  9
$LWDISPLAY
290
     1
  9
$INSUNITS
 70
     4
  9
$HYPERLINKBASE
  1

  9
$STYLESHEET
  1

  9
$XEDIT
290
     1
  9
$CEPSNTYPE
380
     0
  9
$PSTYLEMODE
290
     1
  9
$FINGERPRINTGUID
  2
{6CE57D18-09D1-4600-9B80-A7087CFF2B29}
  9
$VERSIONGUID
  2
{FAEB1C32-E019-11D5-929B-00C0DF256EC4}
  9
$EXTNAMES
290
     1
  9
$PSVPSCALE
 40
0.0
  9
$OLESTARTUP
290
     0
  0
ENDSEC
  0
SECTION
  2
CLASSES
  0
CLASS
  1
ACDBDICTIONARYWDFLT
  2
AcDbDictionaryWithDefault
  3
ObjectDBX Classes
 90
        0
280
     0
281
     0
  0
CLASS
  1
VISUALSTYLE
  2
AcDbVisualStyle
  3
ObjectDBX Classes
 90
     4095
280
     0
281
     0
  0
CLASS
  1
DICTIONARYVAR
  2
AcDbDictionaryVar
  3
ObjectDBX Classes
 90
        0
280
     0
281
     0
  0
CLASS
  1
ACDBPLACEHOLDER
  2
AcDbPlaceHolder
  3
ObjectDBX Classes
 90
        0
280
     0
281
     0
  0
CLASS
  1
LAYOUT
  2
AcDbLayout
  3
ObjectDBX Classes
 90
        0
280
     0
281
     0
  0
ENDSEC
  0
SECTION
  2
TABLES
  0
TABLE
  2
VPORT
  5
8
330
0
100
AcDbSymbolTable
 70
     1
  0
VPORT
  5
29
330
8
100
AcDbSymbolTableRecord
100
AcDbViewportTableRecord
  2
*Active
 70
     0
 10
0.0
 20
0.0
 11
1.0
 21
1.0
 12
148.5
 22
105.0
 13
0.0
 23
0.0
 14
10.0
 24
10.0
 15
10.0
 25
10.0
 16
0.0
 26
0.0
 36
1.0
 17
0.0
 27
0.0
 37
0.0
 40
210.0
 41
1.4142857143
 42
50.0
 43
0.0
 44
0.0
 50
0.0
 51
0.0
 71
     0
 72
  2000
 73
     1
 74
     3
 75
     0
 76
     0
 77
     0
 78
     0
281
     0
 65
     1
110
0.0
120
0.0
130
0.0
111
1.0
121
0.0
131
0.0
112
0.0
122
1.0
132
0.0
 79
     0
146
0.0
  0
ENDTAB
  0
TABLE
  2
LTYPE
  5
5
330
0
100
AcDbSymbolTable
 70
     6
  0
LTYPE
  5
14
330
5
100
AcDbSymbolTableRecord
100
AcDbLinetypeTableRecord
  2
ByBlock
 70
     0
  3

 72
    65
 73
     0
 40
0.0
  0
LTYPE
  5
15
330
5
100
AcDbSymbolTableRecord
100
AcDbLinetypeTableRecord
  2
ByLayer
 70
     0
  3

 72
    65
 73
     0
 40
0.0
  0
LTYPE
  5
16
330
5
100
AcDbSymbolTableRecord
100
AcDbLinetypeTableRecord
  2
Continuous
 70
     0
  3
Solid line
 72
    65
 73
     0
 40
0.0
  0
LTYPE
  5
3B
330
5
100
AcDbSymbolTableRecord
100
AcDbLinetypeTableRecord
  2
HIDDEN
 70
     0
  3
Hidden __ __ __ __ __ __ __ __ __ __ __ __ __ __
 72
    65
 73
     2
 40
1.905
 49
1.27
 74
     0
 49
-0.635
 74
     0
  0
LTYPE
  5
3C
330
5
100
AcDbSymbolTableRecord
100
AcDbLinetypeTableRecord
  2
PHANTOM
 70
     0
  3
Phantom ______  __  __  ______  __  __  ______
 72
    65
 73
     6
 40
12.7
 49
6.35
 74
     0
 49
-1.27
 74
     0
 49
1.27
 74
     0
 49
-1.27
 74
     0
 49
1.27
 74
     0
 49
-1.27
 74
     0
  0
LTYPE
  5
3D
330
5
100
AcDbSymbolTableRecord
100
AcDbLinetypeTableRecord
  2
CENTER
 70
     0
  3
Center ____ _ ____ _ ____ _ ____ _ ____ _ ____
 72
    65
 73
     4
 40
10.16
 49
6.35
 74
     0
 49
-1.27
 74
     0
 49
1.27
 74
     0
 49
-1.27
 74
     0
  0
LTYPE
  5
3E
330
5
100
AcDbSymbolTableRecord
100
AcDbLinetypeTableRecord
  2
CENTERX2
 70
     0
  3
Center (2x) ________  __  ________  __  _____
 72
    65
 73
     4
 40
20.32
 49
12.7
 74
     0
 49
-2.54
 74
     0
 49
2.54
 74
     0
 49
-2.54
 74
     0
  0
LTYPE
  5
3F
330
5
100
AcDbSymbolTableRecord
100
AcDbLinetypeTableRecord
  2
DOT2
 70
     0
  3
Dot (.5x) ........................................
 72
    65
 73
     2
 40
0.635
 49
0.0
 74
     0
 49
-0.635
 74
     0
  0
ENDTAB
  0
TABLE
  2
LAYER
  5
2
330
0
100
AcDbSymbolTable
 70
     5
  0
LAYER
  5
10
330
2
100
AcDbSymbolTableRecord
100
AcDbLayerTableRecord
  2
0
 70
     0
 62
     7
  6
Continuous
370
    -3
390
F
  0
LAYER
  5
40
330
2
100
AcDbSymbolTableRecord
100
AcDbLayerTableRecord
  2
FORMAT
 70
     0
 62
     7
  6
Continuous
370
    -3
390
F
  0
LAYER
  5
41
330
2
100
AcDbSymbolTableRecord
100
AcDbLayerTableRecord
  2
VERMASSUNG
 70
     0
 62
     7
  6
Continuous
370
    -3
390
F
  0
LAYER
  5
42
330
2
100
AcDbSymbolTableRecord
100
AcDbLayerTableRecord
  2
KOPF_DÜNN
 70
     0
 62
     7
  6
Continuous
370
    -3
390
F
  0
LAYER
  5
43
330
2
100
AcDbSymbolTableRecord
100
AcDbLayerTableRecord
  2
KOPF_DICK
 70
     0
 62
     7
  6
Continuous
370
    15
390
F
  0
ENDTAB
  0
TABLE
  2
STYLE
  5
3
330
0
100
AcDbSymbolTable
 70
     3
  0
STYLE
  5
11
330
3
100
AcDbSymbolTableRecord
100
AcDbTextStyleTableRecord
  2
Standard
 70
     0
 40
0.0
 41
1.0
 50
0.0
 71
     0
 42
2.5
  3
txt
  4

  0
STYLE
  5
44
330
3
100
AcDbSymbolTableRecord
100
AcDbTextStyleTableRecord
  2
SLDTEXTSTYLE0
 70
     0
 40
0.0
 41
0.7
 50
0.0
 71
     0
 42
0.2
  3
TXT
  4

  0
STYLE
  5
48
330
3
100
AcDbSymbolTableRecord
100
AcDbTextStyleTableRecord
  2
SLDTEXTSTYLE1
 70
     0
 40
0.0
 41
0.6473684211
 50
0.0
 71
     0
 42
0.2
  3
TXT
  4

  0
ENDTAB
  0
TABLE
  2
VIEW
  5
6
330
0
100
AcDbSymbolTable
 70
     0
  0
ENDTAB
  0
TABLE
  2
UCS
  5
7
330
0
100
AcDbSymbolTable
 70
     0
  0
ENDTAB
  0
TABLE
  2
APPID
  5
9
330
0
100
AcDbSymbolTable
 70
     1
  0
APPID
  5
12
330
9
100
AcDbSymbolTableRecord
100
AcDbRegAppTableRecord
  2
ACAD
 70
     0
  0
ENDTAB
  0
TABLE
  2
DIMSTYLE
  5
A
330
0
100
AcDbSymbolTable
 70
     2
100
AcDbDimStyleTable
  0
DIMSTYLE
105
27
330
A
100
AcDbSymbolTableRecord
100
AcDbDimStyleTableRecord
  2
ISO-25
 70
     0
 41
2.5
 42
0.625
 43
3.75
 44
1.25
 73
     0
 74
     0
 77
     1
 78
     8
140
2.5
141
2.5
143
0.0393700787
147
0.625
171
     3
172
     1
271
     2
272
     2
274
     3
278
    44
283
     0
284
     8
340
11
  0
DIMSTYLE
105
144
102
{ACAD_REACTORS
330
143
330
150
330
15A
330
164
330
16E
330
179
102
}
330
A
100
AcDbSymbolTableRecord
100
AcDbDimStyleTableRecord
  2
SLDDIMSTYLE0
 70
     0
 41
3.0
 44
0.0
 45
0.000000001
 73
     0
 74
     0
 77
     1
 78
    12
140
2.0
147
0.5
173
     1
271
     2
272
     3
284
    12
340
44
  0
ENDTAB
  0
TABLE
  2
BLOCK_RECORD
  5
1
330
0
100
AcDbSymbolTable
 70
     7
  0
BLOCK_RECORD
  5
1F
330
1
100
AcDbSymbolTableRecord
100
AcDbBlockTableRecord
  2
*Model_Space
340
22
  0
BLOCK_RECORD
  5
1B
330
1
100
AcDbSymbolTableRecord
100
AcDbBlockTableRecord
  2
*Paper_Space
340
1E
  0
BLOCK_RECORD
  5
23
330
1
100
AcDbSymbolTableRecord
100
AcDbBlockTableRecord
  2
*Paper_Space0
340
26
  0
BLOCK_RECORD
  5
145
330
1
100
AcDbSymbolTableRecord
100
AcDbBlockTableRecord
  2
*D1
340
0
  0
BLOCK_RECORD
  5
151
330
1
100
AcDbSymbolTableRecord
100
AcDbBlockTableRecord
  2
*D2
340
0
  0
BLOCK_RECORD
  5
15B
330
1
100
AcDbSymbolTableRecord
100
AcDbBlockTableRecord
  2
*D3
340
0
  0
BLOCK_RECORD
  5
165
330
1
100
AcDbSymbolTableRecord
100
AcDbBlockTableRecord
  2
*D4
340
0
  0
BLOCK_RECORD
  5
16F
330
1
100
AcDbSymbolTableRecord
100
AcDbBlockTableRecord
  2
*D5
340
0
  0
BLOCK_RECORD
  5
17A
330
1
100
AcDbSymbolTableRecord
100
AcDbBlockTableRecord
  2
*D6
340
0
  0
ENDTAB
  0
ENDSEC
  0
SECTION
  2
BLOCKS
  0
BLOCK
  5
20
330
1F
100
AcDbEntity
  8
0
100
AcDbBlockBegin
  2
*Model_Space
 70
     0
 10
0.0
 20
0.0
 30
0.0
  3
*Model_Space
  1

  0
ENDBLK
  5
21
330
1F
100
AcDbEntity
  8
0
100
AcDbBlockEnd
  0
BLOCK
  5
1C
330
1B
100
AcDbEntity
 67
     1
  8
0
100
AcDbBlockBegin
  2
*Paper_Space
 70
     0
 10
0.0
 20
0.0
 30
0.0
  3
*Paper_Space
  1

  0
ENDBLK
  5
1D
330
1B
100
AcDbEntity
 67
     1
  8
0
100
AcDbBlockEnd
  0
BLOCK
  5
24
330
23
100
AcDbEntity
  8
0
100
AcDbBlockBegin
  2
*Paper_Space0
 70
     0
 10
0.0
 20
0.0
 30
0.0
  3
*Paper_Space0
  1

  0
ENDBLK
  5
25
330
23
100
AcDbEntity
  8
0
100
AcDbBlockEnd
  0
BLOCK
  5
146
330
145
100
AcDbEntity
  8
0
100
AcDbBlockBegin
  2
*D1
 70
     1
 10
0.0
 20
0.0
 30
0.0
  3
*D1
  1

  0
SOLID
  5
148
330
145
100
AcDbEntity
  8
VERMASSUNG
100
AcDbTrace
 10
85.0229420617
 20
135.4681532673
 30
0.0
 11
84.5729420617
 21
132.4681532673
 31
0.0
 12
85.4729420617
 22
132.4681532673
 32
0.0
 13
85.4729420617
 23
132.4681532673
 33
0.0
  0
SOLID
  5
149
330
145
100
AcDbEntity
  8
VERMASSUNG
100
AcDbTrace
 10
85.0229420617
 20
72.4681532673
 30
0.0
 11
85.4729420617
 21
75.4681532673
 31
0.0
 12
84.5729420617
 22
75.4681532673
 32
0.0
 13
84.5729420617
 23
75.4681532673
 33
0.0
  0
LINE
  5
14A
330
145
100
AcDbEntity
  8
VERMASSUNG
100
AcDbLine
 10
123.5455595902
 20
135.4681532673
 30
0.0
 11
84.0229420617
 21
135.4681532673
 31
0.0
  0
LINE
  5
14B
330
145
100
AcDbEntity
  8
VERMASSUNG
100
AcDbLine
 10
123.5455595902
 20
72.4681532673
 30
0.0
 11
84.0229420617
 21
72.4681532673
 31
0.0
  0
LINE
  5
14C
330
145
100
AcDbEntity
  8
VERMASSUNG
100
AcDbLine
 10
85.0229420617
 20
135.4681532673
 30
0.0
 11
85.0229420617
 21
72.4681532673
 31
0.0
  0
MTEXT
  5
14D
330
145
100
AcDbEntity
  8
VERMASSUNG
100
AcDbMText
 10
82.2448065727
 20
96.4203873241
 30
0.0
 40
2.0
 41
0.0
 71
     1
 72
     1
  1
HSK A
  7
SLDTEXTSTYLE0
 11
-7.044195017643634E-15
 21
1.0
 31
0.0
 73
     1
 44
1.0
  0
MTEXT
  5
14E
330
145
100
AcDbEntity
  8
VERMASSUNG
100
AcDbMText
 10
82.4448065822
 20
104.2203875781
 30
0.0
 40
2.0
 41
0.0
 71
     1
 72
     1
  1
%%c
  7
SLDTEXTSTYLE0
 11
-7.044195017643634E-15
 21
1.0
 31
0.0
 73
     1
 44
1.0
  0
MTEXT
  5
14F
330
145
100
AcDbEntity
  8
VERMASSUNG
100
AcDbMText
 10
82.4448066986
 20
107.8289160348
 30
0.0
 40
2.0
 41
0.0
 71
     1
 72
     1
  1
63
  7
SLDTEXTSTYLE0
 11
-7.044195017643634E-15
 21
1.0
 31
0.0
 73
     1
 44
1.0
  0
ENDBLK
  5
147
330
145
100
AcDbEntity
  8
0
100
AcDbBlockEnd
  0
BLOCK
  5
152
330
151
100
AcDbEntity
  8
0
100
AcDbBlockBegin
  2
*D2
 70
     1
 10
0.0
 20
0.0
 30
0.0
  3
*D2
  1

  0
SOLID
  5
154
330
151
100
AcDbEntity
  8
VERMASSUNG
100
AcDbTrace
 10
203.2455595902
 20
138.6139292069
 30
0.0
 11
200.2455595902
 21
139.0639292069
 31
0.0
 12
200.2455595902
 22
138.1639292069
 32
0.0
 13
200.2455595902
 23
138.1639292069
 33
0.0
  0
SOLID
  5
155
330
151
100
AcDbEntity
  8
VERMASSUNG
100
AcDbTrace
 10
149.1955595902
 20
138.6139292069
 30
0.0
 11
152.1955595902
 21
138.1639292069
 31
0.0
 12
152.1955595902
 22
139.0639292069
 32
0.0
 13
152.1955595902
 23
139.0639292069
 33
0.0
  0
LINE
  5
156
330
151
100
AcDbEntity
  8
VERMASSUNG
100
AcDbLine
 10
203.2455595902
 20
120.6940127457
 30
0.0
 11
203.2455595902
 21
139.6139292069
 31
0.0
  0
LINE
  5
157
330
151
100
AcDbEntity
  8
VERMASSUNG
100
AcDbLine
 10
149.1955595902
 20
133.8145935911
 30
0.0
 11
149.1955595902
 21
139.6139292069
 31
0.0
  0
LINE
  5
158
330
151
100
AcDbEntity
  8
VERMASSUNG
100
AcDbLine
 10
203.2455595902
 20
138.6139292069
 30
0.0
 11
149.1955595902
 21
138.6139292069
 31
0.0
  0
MTEXT
  5
159
330
151
100
AcDbEntity
  8
VERMASSUNG
100
AcDbMText
 10
170.4245825861
 20
141.1920645701
 30
0.0
 40
2.0
 41
0.0
 71
     1
 72
     1
  1
54.05
  7
SLDTEXTSTYLE0
 73
     1
 44
1.0
  0
ENDBLK
  5
153
330
151
100
AcDbEntity
  8
0
100
AcDbBlockEnd
  0
BLOCK
  5
15C
330
15B
100
AcDbEntity
  8
0
100
AcDbBlockBegin
  2
*D3
 70
     1
 10
0.0
 20
0.0
 30
0.0
  3
*D3
  1

  0
SOLID
  5
15E
330
15B
100
AcDbEntity
  8
VERMASSUNG
100
AcDbTrace
 10
203.2455595902
 20
144.6139292069
 30
0.0
 11
200.2455595902
 21
145.0639292069
 31
0.0
 12
200.2455595902
 22
144.1639292069
 32
0.0
 13
200.2455595902
 23
144.1639292069
 33
0.0
  0
SOLID
  5
15F
330
15B
100
AcDbEntity
  8
VERMASSUNG
100
AcDbTrace
 10
123.2455595902
 20
144.6139292069
 30
0.0
 11
126.2455595902
 21
144.1639292069
 31
0.0
 12
126.2455595902
 22
145.0639292069
 32
0.0
 13
126.2455595902
 23
145.0639292069
 33
0.0
  0
LINE
  5
160
330
15B
100
AcDbEntity
  8
VERMASSUNG
100
AcDbLine
 10
203.2455595902
 20
120.6940127457
 30
0.0
 11
203.2455595902
 21
145.6139292069
 31
0.0
  0
LINE
  5
161
330
15B
100
AcDbEntity
  8
VERMASSUNG
100
AcDbLine
 10
123.2455595902
 20
135.1681532673
 30
0.0
 11
123.2455595902
 21
145.6139292069
 31
0.0
  0
LINE
  5
162
330
15B
100
AcDbEntity
  8
VERMASSUNG
100
AcDbLine
 10
203.2455595902
 20
144.6139292069
 30
0.0
 11
123.2455595902
 21
144.6139292069
 31
0.0
  0
MTEXT
  5
163
330
15B
100
AcDbEntity
  8
VERMASSUNG
100
AcDbMText
 10
160.8004436767
 20
147.1920645701
 30
0.0
 40
2.0
 41
0.0
 71
     1
 72
     1
  1
80
  7
SLDTEXTSTYLE0
 73
     1
 44
1.0
  0
ENDBLK
  5
15D
330
15B
100
AcDbEntity
  8
0
100
AcDbBlockEnd
  0
BLOCK
  5
166
330
165
100
AcDbEntity
  8
0
100
AcDbBlockBegin
  2
*D4
 70
     1
 10
0.0
 20
0.0
 30
0.0
  3
*D4
  1

  0
SOLID
  5
168
330
165
100
AcDbEntity
  8
VERMASSUNG
100
AcDbTrace
 10
203.2455595902
 20
150.6139292069
 30
0.0
 11
200.2455595902
 21
151.0639292069
 31
0.0
 12
200.2455595902
 22
150.1639292069
 32
0.0
 13
200.2455595902
 23
150.1639292069
 33
0.0
  0
SOLID
  5
169
330
165
100
AcDbEntity
  8
VERMASSUNG
100
AcDbTrace
 10
91.3455595902
 20
150.6139292069
 30
0.0
 11
94.3455595902
 21
150.1639292069
 31
0.0
 12
94.3455595902
 22
151.0639292069
 32
0.0
 13
94.3455595902
 23
151.0639292069
 33
0.0
  0
LINE
  5
16A
330
165
100
AcDbEntity
  8
VERMASSUNG
100
AcDbLine
 10
203.2455595902
 20
120.6940127457
 30
0.0
 11
203.2455595902
 21
151.6139292069
 31
0.0
  0
LINE
  5
16B
330
165
100
AcDbEntity
  8
VERMASSUNG
100
AcDbLine
 10
91.3455595902
 20
123.6588310138
 30
0.0
 11
91.3455595902
 21
151.6139292069
 31
0.0
  0
LINE
  5
16C
330
165
100
AcDbEntity
  8
VERMASSUNG
100
AcDbLine
 10
203.2455595902
 20
150.6139292069
 30
0.0
 11
91.3455595902
 21
150.6139292069
 31
0.0
  0
MTEXT
  5
16D
330
165
100
AcDbEntity
  8
VERMASSUNG
100
AcDbMText
 10
142.3707677111
 20
153.1920645701
 30
0.0
 40
2.0
 41
0.0
 71
     1
 72
     1
  1
111.9
  7
SLDTEXTSTYLE0
 73
     1
 44
1.0
  0
ENDBLK
  5
167
330
165
100
AcDbEntity
  8
0
100
AcDbBlockEnd
  0
BLOCK
  5
170
330
16F
100
AcDbEntity
  8
0
100
AcDbBlockBegin
  2
*D5
 70
     1
 10
0.0
 20
0.0
 30
0.0
  3
*D5
  1

  0
SOLID
  5
172
330
16F
100
AcDbEntity
  8
VERMASSUNG
100
AcDbTrace
 10
210.812832278
 20
111.9681532673
 30
0.0
 11
210.362832278
 21
108.9681532673
 31
0.0
 12
211.262832278
 22
108.9681532673
 32
0.0
 13
211.262832278
 23
108.9681532673
 33
0.0
  0
SOLID
  5
173
330
16F
100
AcDbEntity
  8
VERMASSUNG
100
AcDbTrace
 10
210.812832278
 20
95.9681532673
 30
0.0
 11
211.262832278
 21
98.9681532673
 31
0.0
 12
210.362832278
 22
98.9681532673
 32
0.0
 13
210.362832278
 23
98.9681532673
 33
0.0
  0
LINE
  5
174
330
16F
100
AcDbEntity
  8
VERMASSUNG
100
AcDbLine
 10
202.9455595902
 20
111.9681532673
 30
0.0
 11
211.812832278
 21
111.9681532673
 31
0.0
  0
LINE
  5
175
330
16F
100
AcDbEntity
  8
VERMASSUNG
100
AcDbLine
 10
202.9455595902
 20
95.9681532673
 30
0.0
 11
211.812832278
 21
95.9681532673
 31
0.0
  0
LINE
  5
176
330
16F
100
AcDbEntity
  8
VERMASSUNG
100
AcDbLine
 10
210.812832278
 20
111.9681532673
 30
0.0
 11
210.812832278
 21
95.9681532673
 31
0.0
  0
MTEXT
  5
177
330
16F
100
AcDbEntity
  8
VERMASSUNG
100
AcDbMText
 10
208.2346967984
 20
100.495222101
 30
0.0
 40
2.0
 41
0.0
 71
     1
 72
     1
  1
%%c
  7
SLDTEXTSTYLE0
 11
-7.044195017643634E-15
 21
1.0
 31
0.0
 73
     1
 44
1.0
  0
MTEXT
  5
178
330
16F
100
AcDbEntity
  8
VERMASSUNG
100
AcDbMText
 10
208.2346969148
 20
104.1039003242
 30
0.0
 40
2.0
 41
0.0
 71
     1
 72
     1
  1
16
  7
SLDTEXTSTYLE0
 11
-7.044195017643634E-15
 21
1.0
 31
0.0
 73
     1
 44
1.0
  0
ENDBLK
  5
171
330
16F
100
AcDbEntity
  8
0
100
AcDbBlockEnd
  0
BLOCK
  5
17B
330
17A
100
AcDbEntity
  8
0
100
AcDbBlockBegin
  2
*D6
 70
     1
 10
0.0
 20
0.0
 30
0.0
  3
*D6
  1

  0
SOLID
  5
17D
330
17A
100
AcDbEntity
  8
VERMASSUNG
100
AcDbTrace
 10
216.812832278
 20
127.9681532673
 30
0.0
 11
216.362832278
 21
124.9681532673
 31
0.0
 12
217.262832278
 22
124.9681532673
 32
0.0
 13
217.262832278
 23
124.9681532673
 33
0.0
  0
SOLID
  5
17E
330
17A
100
AcDbEntity
  8
VERMASSUNG
100
AcDbTrace
 10
216.812832278
 20
79.9681532673
 30
0.0
 11
217.262832278
 21
82.9681532673
 31
0.0
 12
216.362832278
 22
82.9681532673
 32
0.0
 13
216.362832278
 23
82.9681532673
 33
0.0
  0
LINE
  5
17F
330
17A
100
AcDbEntity
  8
VERMASSUNG
100
AcDbLine
 10
190.3785180672
 20
127.9681532673
 30
0.0
 11
217.812832278
 21
127.9681532673
 31
0.0
  0
LINE
  5
180
330
17A
100
AcDbEntity
  8
VERMASSUNG
100
AcDbLine
 10
190.3785180672
 20
79.9681532673
 30
0.0
 11
217.812832278
 21
79.9681532673
 31
0.0
  0
LINE
  5
181
330
17A
100
AcDbEntity
  8
VERMASSUNG
100
AcDbLine
 10
216.812832278
 20
127.9681532673
 30
0.0
 11
216.812832278
 21
79.9681532673
 31
0.0
  0
MTEXT
  5
182
330
17A
100
AcDbEntity
  8
VERMASSUNG
100
AcDbMText
 10
214.2346967984
 20
100.2942555919
 30
0.0
 40
2.0
 41
0.0
 71
     1
 72
     1
  1
%%c
  7
SLDTEXTSTYLE0
 11
-7.044195017643634E-15
 21
1.0
 31
0.0
 73
     1
 44
1.0
  0
MTEXT
  5
183
330
17A
100
AcDbEntity
  8
VERMASSUNG
100
AcDbMText
 10
214.2346969148
 20
103.9029338151
 30
0.0
 40
2.0
 41
0.0
 71
     1
 72
     1
  1
48
  7
SLDTEXTSTYLE0
 11
-7.044195017643634E-15
 21
1.0
 31
0.0
 73
     1
 44
1.0
  0
ENDBLK
  5
17C
330
17A
100
AcDbEntity
  8
0
100
AcDbBlockEnd
  0
ENDSEC
  0
SECTION
  2
ENTITIES
  0
MTEXT
  5
45
330
1F
100
AcDbEntity
  8
KOPF_DÜNN
100
AcDbMText
 10
13.8892156294
 20
23.8442973028
 30
0.0
 40
3.0
 41
0.0
 71
     1
 72
     1
  1
HA6.W16.K01.080
  7
SLDTEXTSTYLE0
 73
     1
 44
1.0
  0
MTEXT
  5
46
330
1F
100
AcDbEntity
  8
VERMASSUNG
100
AcDbMText
 10
13.9329988022
 20
28.8834360957
 30
0.0
 40
3.0
 41
0.0
 71
     1
 72
     1
  1
Flächenspannfutter_End mill adapter Weldon ø16
  7
SLDTEXTSTYLE0
 73
     1
 44
1.0
  0
MTEXT
  5
47
330
1F
100
AcDbEntity
  8
VERMASSUNG
100
AcDbMText
 10
98.8601118557
 20
13.8365368179
 30
0.0
 40
2.0
 41
0.0
 71
     1
 72
     1
  1
Datum: 25.04.2006
  7
SLDTEXTSTYLE0
 73
     1
 44
1.0
  0
MTEXT
  5
49
330
1F
100
AcDbEntity
  8
VERMASSUNG
100
AcDbMText
 10
13.933048693
 20
18.0482802738
 30
0.0
 40
2.0
 41
0.0
 71
     1
 72
     1
  1
DIN 69 893 HSK A 63
  7
SLDTEXTSTYLE1
 73
     1
 44
1.0
  0
MTEXT
  5
4A
330
1F
100
AcDbEntity
  8
VERMASSUNG
100
AcDbMText
 10
13.9808475933
 20
13.9090973692
 30
0.0
 40
2.0
 41
0.0
 71
     1
 72
     1
  1
Gewicht: 1282g
  7
SLDTEXTSTYLE0
 73
     1
 44
1.0
  0
LINE
  5
4B
330
1F
100
AcDbEntity
  8
0
  6
Continuous
 62
     7
370
    15
100
AcDbLine
 10
123.5455596045
 20
72.4681527607
 30
0.0
 11
128.1955595634
 21
72.4681527607
 31
0.0
  0
LINE
  5
4C
330
1F
100
AcDbEntity
  8
0
  6
Continuous
 62
     7
370
    15
100
AcDbLine
 10
128.2235481351
 20
135.468153774
 30
0.0
 11
123.5455596045
 21
135.468153774
 31
0.0
  0
ARC
  5
4D
330
1F
100
AcDbEntity
  8
0
  6
Continuous
 62
     7
370
    15
100
AcDbCircle
 10
123.5455595902
 20
72.7681532673
 30
0.0
 40
0.3000000000000114
100
AcDbArc
 50
180.0
 51
270.0
  0
ARC
  5
4E
330
1F
100
AcDbEntity
  8
0
  6
Continuous
 62
     7
370
    15
100
AcDbCircle
 10
123.5455595902
 20
135.1681532673
 30
0.0
 40
0.3000000000000114
100
AcDbArc
 50
90.0
 51
180.0
  0
ARC
  5
4F
330
1F
100
AcDbEntity
  8
0
  6
Continuous
 62
     7
370
    15
100
AcDbCircle
 10
152.1955595902
 20
76.9681532673
 30
0.0
 40
2.999999999999988
100
AcDbArc
 50
90.0
 51
168.4626212438
  0
ARC
  5
50
330
1F
100
AcDbEntity
  8
0
  6
Continuous
 62
     7
370
    15
100
AcDbCircle
 10
152.1955595902
 20
130.9681532673
 30
0.0
 40
3.0
100
AcDbArc
 50
191.5455781598
 51
270.0
  0
ARC
  5
51
330
1F
100
AcDbEntity
  8
0
  6
Continuous
 62
     7
370
    15
100
AcDbCircle
 10
122.7455528376
 20
79.3977156529
 30
0.0
 40
0.6000067526677242
100
AcDbArc
 50
33.5571153394
 51
90.0
  0
ARC
  5
52
330
1F
100
AcDbEntity
  8
0
  6
Continuous
 62
     7
370
    15
100
AcDbCircle
 10
122.7455528376
 20
128.5385908817
 30
0.0
 40
0.6000067526677164
100
AcDbArc
 50
270.0
 51
326.4428846606
  0
LINE
  5
53
330
1F
100
AcDbEntity
  8
0
  6
Continuous
 62
     7
370
    15
100
AcDbLine
 10
121.2455594952
 20
79.7477220438
 30
0.0
 11
122.1022724214
 21
79.9772781573
 31
0.0
  0
LINE
  5
54
330
1F
100
AcDbEntity
  8
0
  6
Continuous
 62
     7
370
    15
100
AcDbLine
 10
122.1022724214
 20
127.9590283774
 30
0.0
 11
121.2455594952
 21
128.1885844908
 31
0.0
  0
LINE
  5
55
330
1F
100
AcDbEntity
  8
0
  6
Continuous
 62
     7
370
    15
100
AcDbLine
 10
110.0140511564
 20
127.6258831165
 30
0.0
 11
97.445558714
 21
126.99619916
 31
0.0
  0
LINE
  5
56
330
1F
100
AcDbEntity
  8
0
  6
Continuous
 62
     7
370
    15
100
AcDbLine
 10
121.2455594952
 20
128.1885844908
 30
0.0
 11
118.4285580686
 21
128.0474518679
 31
0.0
  0
LINE
  5
57
330
1F
100
AcDbEntity
  8
0
  6
Continuous
 62
     7
370
    15
100
AcDbLine
 10
118.428613948
 20
79.8888528041
 30
0.0
 11
121.2455594952
 21
79.7477220438
 31
0.0
  0
LINE
  5
58
330
1F
100
AcDbEntity
  8
0
  6
Continuous
 62
     7
370
    15
100
AcDbLine
 10
101.4455593697
 20
80.7397072457
 30
0.0
 11
110.0144534878
 21
80.310402929
 31
0.0
  0
LINE
  5
59
330
1F
100
AcDbEntity
  8
0
  6
Continuous
 62
     7
370
    15
100
AcDbLine
 10
152.195559772
 20
79.9681530587
 30
0.0
 11
190.3785168699
 21
79.9681530587
 31
0.0
  0
LINE
  5
5A
330
1F
100
AcDbEntity
  8
0
  6
Continuous
 62
     7
370
    15
100
AcDbLine
 10
190.3785168699
 20
127.9681534759
 30
0.0
 11
152.195559772
 21
127.9681534759
 31
0.0
  0
LINE
  5
5B
330
1F
100
AcDbEntity
  8
0
  6
Continuous
 62
     7
370
    15
100
AcDbLine
 10
190.3785168699
 20
79.9681530587
 30
0.0
 11
202.090799766
 21
85.4296782307
 31
0.0
  0
LINE
  5
5C
330
1F
100
AcDbEntity
  8
0
  6
Continuous
 62
     7
370
    15
100
AcDbLine
 10
202.090799766
 20
122.5066283039
 30
0.0
 11
190.3785168699
 21
127.9681534759
 31
0.0
  0
ARC
  5
5D
330
1F
100
AcDbEntity
  8
0
  6
Continuous
 62
     7
370
    15
100
AcDbCircle
 10
122.2575637907
 20
79.3977224056
 30
0.0
 40
0.6000000000000085
100
AcDbArc
 50
90.0
 51
105.0
  0
ARC
  5
5E
330
1F
100
AcDbEntity
  8
0
  6
Continuous
 62
     7
370
    15
100
AcDbCircle
 10
122.2575637907
 20
128.5385841291
 30
0.0
 40
0.6000000000000085
100
AcDbArc
 50
255.0
 51
270.0
  0
LINE
  5
5F
330
1F
100
AcDbEntity
  8
0
  6
Continuous
 62
     7
370
    15
100
AcDbLine
 10
122.2575638251
 20
79.9977225505
 30
0.0
 11
122.7455528144
 21
79.9977225505
 31
0.0
  0
LINE
  5
60
330
1F
100
AcDbEntity
  8
0
  6
Continuous
 62
     7
370
    15
100
AcDbLine
 10
122.7455528144
 20
127.9385839842
 30
0.0
 11
122.2575638251
 21
127.9385839842
 31
0.0
  0
ARC
  5
61
330
1F
100
AcDbEntity
  8
0
  6
Continuous
 62
     7
370
    15
100
AcDbCircle
 10
201.2455595902
 20
87.2422937889
 30
0.0
 40
2.000000000000001
100
AcDbArc
 50
295.0
 51
0.0
  0
ARC
  5
62
330
1F
100
AcDbEntity
  8
0
  6
Continuous
 62
     7
370
    15
100
AcDbCircle
 10
201.2455595902
 20
120.6940127457
 30
0.0
 40
2.000000000000001
100
AcDbArc
 50
0.0
 51
65.0
  0
LINE
  5
63
330
1F
100
AcDbEntity
  8
0
  6
Continuous
 62
     7
370
    15
100
AcDbLine
 10
92.6288961939
 20
83.0981531433
 30
0.0
 11
100.0455598853
 21
83.0981531433
 31
0.0
  0
ARC
  5
64
330
1F
100
AcDbEntity
  8
0
  6
Continuous
 62
     7
370
    15
100
AcDbCircle
 10
100.0455595902
 20
81.6981532673
 30
0.0
 40
1.399999999999997
100
AcDbArc
 50
42.2465410162
 51
90.0
  0
LINE
  5
65
330
1F
100
AcDbEntity
  8
0
  6
Continuous
 62
     7
370
    15
100
AcDbLine
 10
91.3465916685
 20
84.2471202157
 30
0.0
 11
92.4867223523
 21
83.1069895319
 31
0.0
  0
LINE
  5
66
330
1F
100
AcDbEntity
  8
0
  6
Continuous
 62
     7
370
    15
100
AcDbLine
 10
92.4867223523
 20
124.8293170027
 30
0.0
 11
91.3554615847
 21
123.6980543725
 31
0.0
  0
ARC
  5
67
330
1F
100
AcDbEntity
  8
0
  6
Continuous
 62
     7
370
    15
100
AcDbCircle
 10
96.0455595902
 20
126.2381532673
 30
0.0
 40
1.400000000000006
100
AcDbArc
 50
270.0
 51
301.7485287426
  0
LINE
  5
68
330
1F
100
AcDbEntity
  8
0
  6
Continuous
 62
     7
370
    15
100
AcDbLine
 10
96.0455592296
 20
124.8381533913
 30
0.0
 11
92.6364473573
 21
124.8381533913
 31
0.0
  0
ARC
  5
69
330
1F
100
AcDbEntity
  8
0
  6
Continuous
 62
     7
370
    15
100
AcDbCircle
 10
179.7455595902
 20
103.9681532673
 30
0.0
 40
6.000000000000004
100
AcDbArc
 50
67.5748093136
 51
111.92623148
  0
ARC
  5
6A
330
1F
100
AcDbEntity
  8
0
  6
Continuous
 62
     7
370
    15
100
AcDbCircle
 10
179.7455595902
 20
103.9681532673
 30
0.0
 40
6.000000000000007
100
AcDbArc
 50
248.1667758049
 51
67.5748093136
  0
LINE
  5
6B
330
1F
100
AcDbEntity
  8
0
  6
Continuous
 62
     7
370
    15
100
AcDbLine
 10
176.3116865925
 20
103.5115133817
 30
0.0
 11
178.4240863792
 21
100.7660124704
 31
0.0
  0
LINE
  5
6C
330
1F
100
AcDbEntity
  8
0
  6
Continuous
 62
     7
370
    15
100
AcDbLine
 10
183.179430621
 20
104.424793153
 30
0.0
 11
181.8579583935
 21
101.2226525016
 31
0.0
  0
LINE
  5
6D
330
1F
100
AcDbEntity
  8
0
  6
Continuous
 62
     7
370
    15
100
AcDbLine
 10
183.179430621
 20
104.424793153
 30
0.0
 11
181.0670345596
 21
107.1702940643
 31
0.0
  0
LINE
  5
6E
330
1F
100
AcDbEntity
  8
0
  6
Continuous
 62
     7
370
    15
100
AcDbLine
 10
177.6331625453
 20
106.7136540331
 30
0.0
 11
181.0670345596
 21
107.1702940643
 31
0.0
  0
LINE
  5
6F
330
1F
100
AcDbEntity
  8
0
  6
Continuous
 62
     7
370
    15
100
AcDbLine
 10
181.8579583935
 20
101.2226525016
 30
0.0
 11
178.4240863792
 21
100.7660124704
 31
0.0
  0
LINE
  5
70
330
1F
100
AcDbEntity
  8
0
  6
Continuous
 62
     7
370
    15
100
AcDbLine
 10
177.6331625453
 20
106.7136540331
 30
0.0
 11
176.3116865925
 21
103.5115133817
 31
0.0
  0
LINE
  5
71
330
1F
100
AcDbEntity
  8
0
  6
Continuous
 62
     7
370
    15
100
AcDbLine
 10
148.5955602995
 20
73.7812356345
 30
0.0
 11
144.6374915115
 21
73.7812356345
 31
0.0
  0
LINE
  5
72
330
1F
100
AcDbEntity
  8
0
  6
Continuous
 62
     7
370
    15
100
AcDbLine
 10
144.6374915115
 20
73.7812356345
 30
0.0
 11
144.6374915115
 21
123.8181540064
 31
0.0
  0
LINE
  5
73
330
1F
100
AcDbEntity
  8
0
  6
Continuous
 62
     7
370
    15
100
AcDbLine
 10
144.6374915115
 20
123.8181540064
 30
0.0
 11
148.5955602995
 21
123.8181540064
 31
0.0
  0
LINE
  5
74
330
1F
100
AcDbEntity
  8
0
  6
Continuous
 62
     7
370
    15
100
AcDbLine
 10
149.1955592803
 20
74.4078760288
 30
0.0
 11
149.1955592803
 21
123.8181540064
 31
0.0
  0
SPLINE
  5
75
330
1F
100
AcDbEntity
  8
0
  6
Continuous
 62
     7
370
    15
100
AcDbSpline
210
0.0
220
0.0
230
1.0
 70
     8
 71
     3
 72
    10
 73
     6
 74
     0
 42
0.00000001
 43
0.00000001
 40
0.0
 40
0.0
 40
0.0
 40
0.0
 40
0.5
 40
0.5
 40
1.0
 40
1.0
 40
1.0
 40
1.0
 10
149.1955595902336
 20
74.40787586673453
 30
0.0
 10
149.1955595902336
 20
74.24798859854087
 30
0.0
 10
149.1342499389977
 20
74.08686134302626
 30
0.0
 10
148.9151503014627
 20
73.85276234467143
 30
0.0
 10
148.7571020951492
 20
73.78123557108022
 30
0.0
 10
148.5955595902336
 20
73.78123557108022
 30
0.0
  0
SPLINE
  5
76
330
1F
100
AcDbEntity
  8
0
  6
Continuous
 62
     7
370
    15
100
AcDbSpline
210
0.0
220
0.0
230
1.0
 70
    24
 71
     3
 72
    12
 73
     8
 74
     0
 42
0.00000001
 43
0.00000001
 40
0.0
 40
0.0
 40
0.0
 40
0.0
 40
0.250000000000002
 40
0.250000000000002
 40
0.500000000000004
 40
0.500000000000004
 40
1.0
 40
1.0
 40
1.0
 40
1.0
 10
148.5955595902336
 20
123.8181532673274
 30
0.0
 10
148.6857986579207
 20
123.8181532673274
 30
0.0
 10
148.7766967720272
 20
123.8181532673274
 30
0.0
 10
148.9312938085157
 20
123.8181532673274
 30
0.0
 10
148.9962722246238
 20
123.8181532673274
 30
0.0
 10
149.14810725256
 20
123.8181532673274
 30
0.0
 10
149.1955595902336
 20
123.8181532673274
 30
0.0
 10
149.1955595902336
 20
123.8181532673274
 30
0.0
  0
LINE
  5
77
330
1F
100
AcDbEntity
  8
0
  6
Continuous
 62
     7
370
    15
100
AcDbLine
 10
128.1955595634
 20
123.8181540064
 30
0.0
 11
137.8536270506
 21
123.8181540064
 31
0.0
  0
LINE
  5
78
330
1F
100
AcDbEntity
  8
0
  6
Continuous
 62
     7
370
    15
100
AcDbLine
 10
137.8536270506
 20
73.7812356345
 30
0.0
 11
137.8536270506
 21
123.8181540064
 31
0.0
  0
LINE
  5
79
330
1F
100
AcDbEntity
  8
0
  6
Continuous
 62
     7
370
    15
100
AcDbLine
 10
137.8536270506
 20
73.7812356345
 30
0.0
 11
136.1955599434
 21
73.7812356345
 31
0.0
  0
SPLINE
  5
7A
330
1F
100
AcDbEntity
  8
0
  6
Continuous
 62
     7
370
    15
100
AcDbSpline
210
0.0
220
0.0
230
1.0
 70
     8
 71
     3
 72
    28
 73
    24
 74
     0
 42
0.00000001
 43
0.00000001
 40
0.0
 40
0.0
 40
0.0
 40
0.0
 40
0.1249999999999999
 40
0.1249999999999999
 40
0.1874999999999998
 40
0.1874999999999998
 40
0.2499999999999997
 40
0.2499999999999997
 40
0.3749999999999993
 40
0.3749999999999993
 40
0.4374999999999993
 40
0.4374999999999993
 40
0.4999999999999992
 40
0.4999999999999992
 40
0.6249999999999992
 40
0.6249999999999992
 40
0.7499999999999992
 40
0.7499999999999992
 40
0.8124999999999993
 40
0.8124999999999993
 40
0.8749999999999996
 40
0.8749999999999996
 40
1.0
 40
1.0
 40
1.0
 40
1.0
 10
136.1955595902336
 20
73.78123557108022
 30
0.0
 10
135.6638518327406
 20
73.78123557108022
 30
0.0
 10
135.1416132674303
 20
73.76545085712999
 30
0.0
 10
134.3717427811553
 20
73.7204554430538
 30
0.0
 10
134.117383208964
 20
73.70190044797806
 30
0.0
 10
133.6132616282655
 20
73.65804772553157
 30
0.0
 10
133.3635388108376
 20
73.63270311857936
 30
0.0
 10
132.6379488593911
 20
73.54930104082925
 30
0.0
 10
132.1795885978096
 20
73.48343548167817
 30
0.0
 10
131.5290906544157
 20
73.37446514118639
 30
0.0
 10
131.3174086036232
 20
73.33622550541973
 30
0.0
 10
130.9133371144853
 20
73.25846676800037
 30
0.0
 10
130.7208306006644
 20
73.21896580582504
 30
0.0
 10
130.1709956296431
 20
73.10005806345903
 30
0.0
 10
129.8410668513343
 20
73.0202403820344
 30
0.0
 10
129.2565955827656
 20
72.86689722023836
 30
0.0
 10
129.0103184447522
 20
72.7955634669691
 30
0.0
 10
128.7104756520541
 20
72.70161995989447
 30
0.0
 10
128.622018794982
 20
72.67242616653455
 30
0.0
 10
128.4686574416768
 20
72.61895959227114
 30
0.0
 10
128.4035692274506
 20
72.59460025799596
 30
0.0
 10
128.2479752115098
 20
72.53101011255123
 30
0.0
 10
128.1955595902336
 20
72.50090717746197
 30
0.0
 10
128.1955595902336
 20
72.48403028446504
 30
0.0
  0
LINE
  5
7B
330
1F
100
AcDbEntity
  8
0
  6
Continuous
 62
     7
370
    15
100
AcDbLine
 10
128.1955595634
 20
72.4840299479
 30
0.0
 11
128.1955595634
 21
72.4681527607
 31
0.0
  0
SPLINE
  5
7C
330
1F
100
AcDbEntity
  8
0
  6
Continuous
 62
     7
370
    15
100
AcDbSpline
210
0.0
220
0.0
230
1.0
 70
     8
 71
     3
 72
    17
 73
    13
 74
     0
 42
0.00000001
 43
0.00000001
 40
0.0
 40
0.0
 40
0.0
 40
0.0
 40
0.1034797280380778
 40
0.2100239090909901
 40
0.3134862262879433
 40
0.4198361712144981
 40
0.5254127947779869
 40
0.6339610881168427
 40
0.7409508662120068
 40
0.8511696072047016
 40
0.9558996557845765
 40
1.0
 40
1.0
 40
1.0
 40
1.0
 10
136.1955599433911
 20
134.4353487036858
 30
0.0
 10
135.7603114516652
 20
134.4407966953235
 30
0.0
 10
134.8769250010882
 20
134.4518540156521
 30
0.0
 10
133.5960971388654
 20
134.5382127760271
 30
0.0
 10
132.3786809434235
 20
134.6660839191601
 30
0.0
 10
131.2708743270977
 20
134.8250283264786
 30
0.0
 10
130.2826358477689
 20
134.9995228994632
 30
0.0
 10
129.457912747953
 20
135.1686893326501
 30
0.0
 10
128.8089590904544
 20
135.3165701411178
 30
0.0
 10
128.3919237869748
 20
135.4183608926404
 30
0.0
 10
128.1933270440968
 20
135.4687177922748
 30
0.0
 10
128.2166401610847
 20
135.4628081872993
 30
0.0
 10
128.2235481350851
 20
135.4610570959483
 30
0.0
  0
LINE
  5
7D
330
1F
100
AcDbEntity
  8
0
  6
Continuous
 62
     7
370
    15
100
AcDbLine
 10
137.8536270506
 20
134.4353487037
 30
0.0
 11
136.1955599434
 21
134.4353487037
 31
0.0
  0
LINE
  5
7E
330
1F
100
AcDbEntity
  8
0
  6
Continuous
 62
     7
370
    15
100
AcDbLine
 10
137.8536270506
 20
128.4268428825
 30
0.0
 11
137.8536270506
 21
134.4353487037
 31
0.0
  0
LINE
  5
7F
330
1F
100
AcDbEntity
  8
0
  6
Continuous
 62
     7
370
    15
100
AcDbLine
 10
135.441180276
 20
128.4268428825
 30
0.0
 11
137.8536270506
 21
128.4268428825
 31
0.0
  0
SPLINE
  5
80
330
1F
100
AcDbEntity
  8
0
  6
Continuous
 62
     7
370
    15
100
AcDbSpline
210
0.0
220
0.0
230
1.0
 70
     8
 71
     3
 72
    20
 73
    16
 74
     0
 42
0.00000001
 43
0.00000001
 40
0.0
 40
0.0
 40
0.0
 40
0.0
 40
0.2499999999999995
 40
0.2499999999999995
 40
0.3749999999999996
 40
0.3749999999999996
 40
0.4999999999999997
 40
0.4999999999999997
 40
0.6249999999999998
 40
0.6249999999999998
 40
0.7499999999999998
 40
0.7499999999999998
 40
0.8749999999999999
 40
0.8749999999999999
 40
1.0
 40
1.0
 40
1.0
 40
1.0
 10
128.1955595902336
 20
123.8181532673274
 30
0.0
 10
128.4439333245217
 20
124.4720156956248
 30
0.0
 10
128.7635034168669
 20
125.0758014776219
 30
0.0
 10
129.3858096500716
 20
125.9026402137905
 30
0.0
 10
129.6172339105024
 20
126.1650688517434
 30
0.0
 10
130.1384482501521
 20
126.6617315058484
 30
0.0
 10
130.4250687327871
 20
126.89231838487
 30
0.0
 10
131.0445534740948
 20
127.3088726094526
 30
0.0
 10
131.3788538535817
 20
127.4963704114201
 30
0.0
 10
132.1041143262065
 20
127.8277673890565
 30
0.0
 10
132.486029383597
 20
127.9672713765518
 30
0.0
 10
133.2808175597687
 20
128.1927248840227
 30
0.0
 10
133.694975753975
 20
128.2793509955664
 30
0.0
 10
134.5605220945564
 20
128.3973317844205
 30
0.0
 10
134.9984097095683
 20
128.4268429296948
 30
0.0
 10
135.4411799359229
 20
128.4268429296948
 30
0.0
  0
SPLINE
  5
81
330
1F
100
AcDbEntity
  8
0
  6
Continuous
 62
     7
370
    15
100
AcDbSpline
210
0.0
220
0.0
230
1.0
 70
     8
 71
     3
 72
    70
 73
    66
 74
     0
 42
0.00000001
 43
0.00000001
 40
-0.0312500000000001
 40
-0.0312500000000001
 40
0.0
 40
0.0
 40
0.0312499999999999
 40
0.0312499999999999
 40
0.0624999999999998
 40
0.0624999999999998
 40
0.0937499999999997
 40
0.0937499999999997
 40
0.1249999999999996
 40
0.1249999999999996
 40
0.1562499999999994
 40
0.1562499999999994
 40
0.1874999999999993
 40
0.1874999999999993
 40
0.2187499999999992
 40
0.2187499999999992
 40
0.2499999999999991
 40
0.2499999999999991
 40
0.281249999999999
 40
0.281249999999999
 40
0.3124999999999989
 40
0.3124999999999989
 40
0.3437499999999988
 40
0.3437499999999988
 40
0.3749999999999987
 40
0.3749999999999987
 40
0.4062499999999986
 40
0.4062499999999986
 40
0.4374999999999984
 40
0.4374999999999984
 40
0.4687499999999983
 40
0.4687499999999983
 40
0.4999999999999982
 40
0.4999999999999982
 40
0.5312499999999983
 40
0.5312499999999983
 40
0.5624999999999984
 40
0.5624999999999984
 40
0.5937499999999986
 40
0.5937499999999986
 40
0.6249999999999987
 40
0.6249999999999987
 40
0.6562499999999988
 40
0.6562499999999988
 40
0.6874999999999989
 40
0.6874999999999989
 40
0.718749999999999
 40
0.718749999999999
 40
0.7499999999999991
 40
0.7499999999999991
 40
0.7812499999999992
 40
0.7812499999999992
 40
0.8124999999999993
 40
0.8124999999999993
 40
0.8437499999999994
 40
0.8437499999999994
 40
0.8749999999999996
 40
0.8749999999999996
 40
0.9062499999999997
 40
0.9062499999999997
 40
0.9374999999999998
 40
0.9374999999999998
 40
0.9687499999999999
 40
0.9687499999999999
 40
1.0
 40
1.0
 40
1.03125
 40
1.03125
 10
131.5101049288938
 20
114.5890601533107
 30
0.0
 10
130.9810142515735
 20
114.5890601533107
 30
0.0
 10
130.7209435841964
 20
114.6137374480959
 30
0.0
 10
130.2093689043609
 20
114.7102091211378
 30
0.0
 10
129.9551936206207
 20
114.7831900371179
 30
0.0
 10
129.470922990559
 20
114.9729306400565
 30
0.0
 10
129.2412818986779
 20
115.0887912984503
 30
0.0
 10
128.8066775504444
 20
115.361409144408
 30
0.0
 10
128.6011117737978
 20
115.5194482264617
 30
0.0
 10
128.2325546332025
 20
115.8629910774324
 30
0.0
 10
128.0670736504671
 20
116.0497535215341
 30
0.0
 10
127.774649141032
 20
116.4532966959308
 30
0.0
 10
127.6505481644055
 20
116.66679369236
 30
0.0
 10
127.4509689676557
 20
117.1061770062825
 30
0.0
 10
127.3740353817975
 20
117.3353169934281
 30
0.0
 10
127.2711783232771
 20
117.8012911161882
 30
0.0
 10
127.245705413818
 20
118.0341735618643
 30
0.0
 10
127.2454150032502
 20
118.4995710969441
 30
0.0
 10
127.2714396370259
 20
118.7344468543385
 30
0.0
 10
127.3735879215179
 20
119.1859400015847
 30
0.0
 10
127.4491643691011
 20
119.4039864769961
 30
0.0
 10
127.649661900246
 20
119.8250810020339
 30
0.0
 10
127.7747907417544
 20
120.0270023865522
 30
0.0
 10
128.064149542776
 20
120.3990318690711
 30
0.0
 10
128.2295605298315
 20
120.5716601726515
 30
0.0
 10
128.6025510879793
 20
120.8889781771975
 30
0.0
 10
128.8042841210684
 20
121.0287651106991
 30
0.0
 10
129.2371433718963
 20
121.2729413642509
 30
0.0
 10
129.4710619047856
 20
121.3781708752924
 30
0.0
 10
129.9552456399283
 20
121.5463280216676
 30
0.0
 10
130.2045612658838
 20
121.6095789122614
 30
0.0
 10
130.7175937903115
 20
121.695158121364
 30
0.0
 10
130.9828876132161
 20
121.7170302862864
 30
0.0
 10
131.5052222330859
 20
121.7171939359304
 30
0.0
 10
131.7649758955676
 20
121.6961922438344
 30
0.0
 10
132.2815877112128
 20
121.6107898887567
 30
0.0
 10
132.5339537517131
 20
121.5467837054698
 30
0.0
 10
133.0154788732459
 20
121.3799691854286
 30
0.0
 10
133.2483296053595
 20
121.2758360220294
 30
0.0
 10
133.6854194537983
 20
121.0298493695345
 30
0.0
 10
133.8867404424555
 20
120.8900995385856
 30
0.0
 10
134.2558264677554
 20
120.576961468861
 30
0.0
 10
134.4248112188071
 20
120.4015053095909
 30
0.0
 10
134.7152672754663
 20
120.0286650454907
 30
0.0
 10
134.8383390868284
 20
119.8305432353798
 30
0.0
 10
135.0396753282504
 20
119.4098318926461
 30
0.0
 10
135.1168878741927
 20
119.1878418719786
 30
0.0
 10
135.2190914170927
 20
118.7379769322702
 30
0.0
 10
135.245319768545
 20
118.5077215191534
 30
0.0
 10
135.2457961678622
 20
118.0364055766044
 30
0.0
 10
135.2200537553642
 20
117.8031681608902
 30
0.0
 10
135.1187429790003
 20
117.3414916213922
 30
0.0
 10
135.0419103396094
 20
117.11059423428
 30
0.0
 10
134.8415065003942
 20
116.6683182204884
 30
0.0
 10
134.7188350021021
 20
116.4572557892025
 30
0.0
 10
134.4288877129379
 20
116.0557572784698
 30
0.0
 10
134.2603167335727
 20
115.8648507563939
 30
0.0
 10
133.8920471394595
 20
115.5211254243968
 30
0.0
 10
133.6909852821892
 20
115.3659882381827
 30
0.0
 10
133.2539543636043
 20
115.090910878103
 30
0.0
 10
133.0218061504746
 20
114.973794648681
 30
0.0
 10
132.5407958689758
 20
114.7848681636164
 30
0.0
 10
132.2886957861454
 20
114.7117931932221
 30
0.0
 10
131.7716262998864
 20
114.6137411340876
 30
0.0
 10
131.5101049288938
 20
114.5890601533107
 30
0.0
 10
130.9810142515735
 20
114.5890601533107
 30
0.0
  0
SPLINE
  5
82
330
1F
100
AcDbEntity
  8
0
  6
Continuous
 62
     7
370
    15
100
AcDbSpline
210
0.0
220
0.0
230
1.0
 70
     8
 71
     3
 72
    70
 73
    66
 74
     0
 42
0.00000001
 43
0.00000001
 40
-0.0312499999999999
 40
-0.0312499999999999
 40
0.0
 40
0.0
 40
0.0312499999999999
 40
0.0312499999999999
 40
0.0624999999999998
 40
0.0624999999999998
 40
0.0937499999999997
 40
0.0937499999999997
 40
0.1249999999999996
 40
0.1249999999999996
 40
0.1562499999999995
 40
0.1562499999999995
 40
0.1874999999999994
 40
0.1874999999999994
 40
0.2187499999999993
 40
0.2187499999999993
 40
0.2499999999999992
 40
0.2499999999999992
 40
0.2812499999999993
 40
0.2812499999999993
 40
0.3124999999999993
 40
0.3124999999999993
 40
0.3437499999999994
 40
0.3437499999999994
 40
0.3749999999999995
 40
0.3749999999999995
 40
0.4062499999999996
 40
0.4062499999999996
 40
0.4374999999999996
 40
0.4374999999999996
 40
0.4687499999999997
 40
0.4687499999999997
 40
0.4999999999999998
 40
0.4999999999999998
 40
0.5312499999999999
 40
0.5312499999999999
 40
0.5625
 40
0.5625
 40
0.5937500000000001
 40
0.5937500000000001
 40
0.6250000000000002
 40
0.6250000000000002
 40
0.6562500000000004
 40
0.6562500000000004
 40
0.6875000000000006
 40
0.6875000000000006
 40
0.7187500000000007
 40
0.7187500000000007
 40
0.7500000000000008
 40
0.7500000000000008
 40
0.7812500000000007
 40
0.7812500000000007
 40
0.8125000000000006
 40
0.8125000000000006
 40
0.8437500000000004
 40
0.8437500000000004
 40
0.8750000000000003
 40
0.8750000000000003
 40
0.9062500000000003
 40
0.9062500000000003
 40
0.9375000000000002
 40
0.9375000000000002
 40
0.9687500000000001
 40
0.9687500000000001
 40
1.0
 40
1.0
 40
1.03125
 40
1.03125
 10
131.5101049288938
 20
129.0271166621066
 30
0.0
 10
130.9810142515735
 20
129.0271166621066
 30
0.0
 10
130.7209435841964
 20
129.0430171025213
 30
0.0
 10
130.2093689043609
 20
129.1049614526956
 30
0.0
 10
129.9551936206207
 20
129.1517636867869
 30
0.0
 10
129.470922990559
 20
129.272740670242
 30
0.0
 10
129.2412818986779
 20
129.3463429980488
 30
0.0
 10
128.8066775504444
 20
129.5181672690269
 30
0.0
 10
128.6011117737978
 20
129.6171706919544
 30
0.0
 10
128.2325546332025
 20
129.8302671058672
 30
0.0
 10
128.0670736504671
 20
129.9451668219968
 30
0.0
 10
127.774649141032
 20
130.1905337206871
 30
0.0
 10
127.6505481644055
 20
130.3189736211574
 30
0.0
 10
127.4509689676557
 20
130.5798657692434
 30
0.0
 10
127.3740353817975
 20
130.7142469405829
 30
0.0
 10
127.2711783232771
 20
130.9835668916891
 30
0.0
 10
127.245705413818
 20
131.1162481559073
 30
0.0
 10
127.2454150032502
 20
131.3774346300383
 30
0.0
 10
127.2714396370259
 20
131.507199668203
 30
0.0
 10
127.3735879215179
 20
131.7527823024757
 30
0.0
 10
127.4491643691011
 20
131.8694438397846
 30
0.0
 10
127.649661900246
 20
132.0913490299391
 30
0.0
 10
127.7747907417544
 20
132.1959602838621
 30
0.0
 10
128.064149542776
 20
132.3860066954702
 30
0.0
 10
128.2295605298315
 20
132.4727663669198
 30
0.0
 10
128.6025510879793
 20
132.6302707426714
 30
0.0
 10
128.8042841210684
 20
132.6985960074586
 30
0.0
 10
129.2371433718963
 20
132.8168257310778
 30
0.0
 10
129.4710619047856
 20
132.8671206471817
 30
0.0
 10
129.9552456399283
 20
132.9469861840713
 30
0.0
 10
130.2045612658838
 20
132.9767273118709
 30
0.0
 10
130.7175937903115
 20
133.0168800533791
 30
0.0
 10
130.9828876132161
 20
133.027078322789
 30
0.0
 10
131.5052222330859
 20
133.0271547811737
 30
0.0
 10
131.7649758955676
 20
133.0173637695647
 30
0.0
 10
132.2815877112128
 20
132.9772969308259
 30
0.0
 10
132.5339537517131
 20
132.9471997639691
 30
0.0
 10
133.0154788732459
 20
132.8679775541389
 30
0.0
 10
133.2483296053595
 20
132.8182200746755
 30
0.0
 10
133.6854194537983
 20
132.6991281322251
 30
0.0
 10
133.8867404424555
 20
132.6308128706779
 30
0.0
 10
134.2558264677554
 20
132.4754119037443
 30
0.0
 10
134.4248112188071
 20
132.3872595616774
 30
0.0
 10
134.7152672754663
 20
132.1968201725611
 30
0.0
 10
134.8383390868284
 20
132.094195594862
 30
0.0
 10
135.0396753282504
 20
131.8725552482539
 30
0.0
 10
135.1168878741927
 20
131.7538011727064
 30
0.0
 10
135.2190914170927
 20
131.5091352337887
 30
0.0
 10
135.245319768545
 20
131.3819785083402
 30
0.0
 10
135.2457961678622
 20
131.1175303624846
 30
0.0
 10
135.2200537553642
 20
130.9846296822274
 30
0.0
 10
135.1187429790003
 20
130.7178374087454
 30
0.0
 10
135.0419103396094
 20
130.5824735072768
 30
0.0
 10
134.8415065003942
 20
130.3198937119743
 30
0.0
 10
134.7188350021021
 20
130.1929185522205
 30
0.0
 10
134.4288877129379
 20
129.9488391661381
 30
0.0
 10
134.2603167335727
 20
129.8314140413842
 30
0.0
 10
133.8920471394595
 20
129.6182175804358
 30
0.0
 10
133.6909852821892
 20
129.5210434620109
 30
0.0
 10
133.2539543636043
 20
129.3476885747967
 30
0.0
 10
133.0218061504746
 20
129.27328902314
 30
0.0
 10
132.5407958689758
 20
129.1528361436354
 30
0.0
 10
132.2886957861454
 20
129.1059777683694
 30
0.0
 10
131.7716262998864
 20
129.0430202713856
 30
0.0
 10
131.5101049288938
 20
129.0271166621066
 30
0.0
 10
130.9810142515735
 20
129.0271166621066
 30
0.0
  0
LINE
  5
83
330
1F
100
AcDbEntity
  8
0
  6
Continuous
 62
     7
370
    15
100
AcDbLine
 10
123.2455595902
 20
72.7681541137
 30
0.0
 11
123.2455595902
 21
135.1681524209
 31
0.0
  0
SPLINE
  5
84
330
1F
100
AcDbEntity
  8
0
  6
Continuous
 62
     7
370
    15
100
AcDbSpline
210
0.0
220
0.0
230
1.0
 70
     8
 71
     3
 72
     8
 73
     4
 74
     0
 42
0.00000001
 43
0.00000001
 40
0.0
 40
0.0
 40
0.0
 40
0.0
 40
1.0
 40
1.0
 40
1.0
 40
1.0
 10
144.6374924217227
 20
73.78123557108022
 30
0.0
 10
144.1420127610569
 20
74.67676165901358
 30
0.0
 10
143.6478987130148
 20
75.57304607406583
 30
0.0
 10
143.1555595902336
 20
76.47031610827253
 30
0.0
  0
LINE
  5
85
330
1F
100
AcDbEntity
  8
0
  6
Continuous
 62
     7
370
    15
100
AcDbLine
 10
143.1555598549
 20
76.4703159474
 30
0.0
 11
143.1555598549
 21
123.8181540064
 31
0.0
  0
SPLINE
  5
86
330
1F
100
AcDbEntity
  8
0
  6
Continuous
 62
     7
370
    15
100
AcDbSpline
210
0.0
220
0.0
230
1.0
 70
    24
 71
     3
 72
     8
 73
     4
 74
     0
 42
0.00000001
 43
0.00000001
 40
0.0
 40
0.0
 40
0.0
 40
0.0
 40
1.0
 40
1.0
 40
1.0
 40
1.0
 10
143.1555595902336
 20
123.8181532673274
 30
0.0
 10
143.6355115845985
 20
123.8181532673274
 30
0.0
 10
144.1308123135721
 20
123.8181532673274
 30
0.0
 10
144.6374924217227
 20
123.8181532673274
 30
0.0
  0
LINE
  5
87
330
1F
100
AcDbEntity
  8
0
  6
Continuous
 62
     7
370
    15
100
AcDbLine
 10
139.3355596385
 20
76.4703159474
 30
0.0
 11
139.3355596385
 21
123.8181540064
 31
0.0
  0
SPLINE
  5
88
330
1F
100
AcDbEntity
  8
0
  6
Continuous
 62
     7
370
    15
100
AcDbSpline
210
0.0
220
0.0
230
1.0
 70
     8
 71
     3
 72
     8
 73
     4
 74
     0
 42
0.00000001
 43
0.00000001
 40
0.0
 40
0.0
 40
0.0
 40
0.0
 40
1.0
 40
1.0
 40
1.0
 40
1.0
 10
139.3355595902336
 20
76.47031610827251
 30
0.0
 10
138.8432204674524
 20
75.57304607406581
 30
0.0
 10
138.3491064194103
 20
74.67676165901358
 30
0.0
 10
137.8536267587446
 20
73.78123557108022
 30
0.0
  0
SPLINE
  5
89
330
1F
100
AcDbEntity
  8
0
  6
Continuous
 62
     7
370
    15
100
AcDbSpline
210
0.0
220
0.0
230
1.0
 70
    24
 71
     3
 72
     8
 73
     4
 74
     0
 42
0.00000001
 43
0.00000001
 40
0.0
 40
0.0
 40
0.0
 40
0.0
 40
1.0
 40
1.0
 40
1.0
 40
1.0
 10
137.8536267587445
 20
123.8181532673274
 30
0.0
 10
138.3603068668951
 20
123.8181532673274
 30
0.0
 10
138.8556075958687
 20
123.8181532673274
 30
0.0
 10
139.3355595902336
 20
123.8181532673274
 30
0.0
  0
ARC
  5
8A
330
1F
100
AcDbEntity
  8
0
  6
Continuous
 62
     7
370
    15
100
AcDbCircle
 10
131.2464064988
 20
115.8645101788
 30
0.0
 40
4.117467637020121
100
AcDbArc
 50
20.6241183064
 51
159.7585519937
  0
SPLINE
  5
8B
330
1F
100
AcDbEntity
  8
0
  6
Continuous
 62
     7
370
    15
100
AcDbSpline
210
0.0
220
0.0
230
1.0
 70
     8
 71
     3
 72
    10
 73
     6
 74
     0
 42
0.00000001
 43
0.00000001
 40
0.0
 40
0.0
 40
0.0
 40
0.0
 40
0.5
 40
0.5
 40
1.0
 40
1.0
 40
1.0
 40
1.0
 10
139.7298571219245
 20
130.3681532673274
 30
0.0
 10
139.608316858256
 20
130.4428794345392
 30
0.0
 10
139.5069824979071
 20
130.5518244504559
 30
0.0
 10
139.3713435550187
 20
130.8022549312175
 30
0.0
 10
139.3355595902336
 20
130.9446742933165
 30
0.0
 10
139.3355595902336
 20
131.0878071183631
 30
0.0
  0
SPLINE
  5
8C
330
1F
100
AcDbEntity
  8
0
  6
Continuous
 62
     7
370
    15
100
AcDbSpline
210
0.0
220
0.0
230
1.0
 70
    24
 71
     3
 72
    12
 73
     8
 74
     0
 42
0.00000001
 43
0.00000001
 40
0.0
 40
0.0
 40
0.0
 40
0.0
 40
0.2499999999999992
 40
0.2499999999999992
 40
0.4999999999999983
 40
0.4999999999999983
 40
1.0
 40
1.0
 40
1.0
 40
1.0
 10
140.1355595902336
 20
130.3681532673274
 30
0.0
 10
140.0856829079163
 20
130.3681532673274
 30
0.0
 10
140.0376797145125
 20
130.3681532673274
 30
0.0
 10
139.9546316118006
 20
130.3681532673274
 30
0.0
 10
139.9185020323327
 20
130.3681532673274
 30
0.0
 10
139.8225900013886
 20
130.3681532673274
 30
0.0
 10
139.7728313334197
 20
130.3681532673274
 30
0.0
 10
139.7298571219245
 20
130.3681532673274
 30
0.0
  0
SPLINE
  5
8D
330
1F
100
AcDbEntity
  8
0
  6
Continuous
 62
     7
370
    15
100
AcDbSpline
210
0.0
220
0.0
230
1.0
 70
    24
 71
     3
 72
    14
 73
    10
 74
     0
 42
0.00000001
 43
0.00000001
 40
0.0
 40
0.0
 40
0.0
 40
0.0
 40
0.1250000000000012
 40
0.1250000000000012
 40
0.2500000000000024
 40
0.2500000000000024
 40
0.5000000000000013
 40
0.5000000000000013
 40
1.0
 40
1.0
 40
1.0
 40
1.0
 10
140.1355595902336
 20
77.56815326732739
 30
0.0
 10
140.0671217423472
 20
77.56815326732739
 30
0.0
 10
140.0015717035821
 20
77.56815326732739
 30
0.0
 10
139.8971450641741
 20
77.56815326732739
 30
0.0
 10
139.8546004544127
 20
77.56815326732738
 30
0.0
 10
139.7419909938725
 20
77.56815326732738
 30
0.0
 10
139.686451946853
 20
77.56815326732738
 30
0.0
 10
139.5438402513892
 20
77.56815326732739
 30
0.0
 10
139.4804348963934
 20
77.56815326732738
 30
0.0
 10
139.4332343925659
 20
77.56815326732739
 30
0.0
  0
SPLINE
  5
8E
330
1F
100
AcDbEntity
  8
0
  6
Continuous
 62
     7
370
    15
100
AcDbSpline
210
0.0
220
0.0
230
1.0
 70
     8
 71
     3
 72
    10
 73
     6
 74
     0
 42
0.00000001
 43
0.00000001
 40
0.0
 40
0.0
 40
0.0
 40
0.0
 40
0.5
 40
0.5
 40
1.0
 40
1.0
 40
1.0
 40
1.0
 10
139.3355595902336
 20
124.1040198987887
 30
0.0
 10
139.3355595902336
 20
124.0562483907955
 30
0.0
 10
139.3377208338308
 20
124.0085386687338
 30
0.0
 10
139.3463922076909
 20
123.9132435511855
 30
0.0
 10
139.3529213906469
 20
123.8655509872189
 30
0.0
 10
139.3617072133937
 20
123.8181532673274
 30
0.0
  0
SPLINE
  5
8F
330
1F
100
AcDbEntity
  8
0
  6
Continuous
 62
     7
370
    15
100
AcDbSpline
210
0.0
220
0.0
230
1.0
 70
    24
 71
     3
 72
    14
 73
    10
 74
     0
 42
0.00000001
 43
0.00000001
 40
0.0
 40
0.0
 40
0.0
 40
0.0
 40
0.5
 40
0.5
 40
0.75
 40
0.75
 40
0.875
 40
0.875
 40
1.0
 40
1.0
 40
1.0
 40
1.0
 10
143.0578847879013
 20
77.56815326732739
 30
0.0
 10
143.0111000828531
 20
77.56815326732739
 30
0.0
 10
142.9490488860735
 20
77.56815326732739
 30
0.0
 10
142.8056572475229
 20
77.56815326732738
 30
0.0
 10
142.7495135939717
 20
77.56815326732739
 30
0.0
 10
142.6365625718356
 20
77.56815326732738
 30
0.0
 10
142.5935618097974
 20
77.56815326732739
 30
0.0
 10
142.4894990994909
 20
77.56815326732738
 30
0.0
 10
142.424166861134
 20
77.56815326732738
 30
0.0
 10
142.3555595902336
 20
77.56815326732739
 30
0.0
  0
SPLINE
  5
90
330
1F
100
AcDbEntity
  8
0
  6
Continuous
 62
     7
370
    15
100
AcDbSpline
210
0.0
220
0.0
230
1.0
 70
    24
 71
     3
 72
    12
 73
     8
 74
     0
 42
0.00000001
 43
0.00000001
 40
0.0
 40
0.0
 40
0.0
 40
0.0
 40
0.5000000000000017
 40
0.5000000000000017
 40
0.7500000000000008
 40
0.7500000000000008
 40
1.0
 40
1.0
 40
1.0
 40
1.0
 10
142.7612620585426
 20
130.3681532673274
 30
0.0
 10
142.7181765089317
 20
130.3681532673274
 30
0.0
 10
142.6690243071824
 20
130.3681532673274
 30
0.0
 10
142.5725517128945
 20
130.3681532673274
 30
0.0
 10
142.5364501277599
 20
130.3681532673274
 30
0.0
 10
142.4533443698986
 20
130.3681532673274
 30
0.0
 10
142.4053477729323
 20
130.3681532673274
 30
0.0
 10
142.3555595902336
 20
130.3681532673274
 30
0.0
  0
SPLINE
  5
91
330
1F
100
AcDbEntity
  8
0
  6
Continuous
 62
     7
370
    15
100
AcDbSpline
210
0.0
220
0.0
230
1.0
 70
     8
 71
     3
 72
    10
 73
     6
 74
     0
 42
0.00000001
 43
0.00000001
 40
0.0
 40
0.0
 40
0.0
 40
0.0
 40
0.5
 40
0.5
 40
1.0
 40
1.0
 40
1.0
 40
1.0
 10
143.1555595902336
 20
131.0878071183631
 30
0.0
 10
143.1555595902336
 20
130.9440370605451
 30
0.0
 10
143.1195105315147
 20
130.80161769805
 30
0.0
 10
142.9840016707407
 20
130.5517234046928
 30
0.0
 10
142.8841256776445
 20
130.4436930684446
 30
0.0
 10
142.7612620585426
 20
130.3681532673273
 30
0.0
  0
SPLINE
  5
92
330
1F
100
AcDbEntity
  8
0
  6
Continuous
 62
     7
370
    15
100
AcDbSpline
210
0.0
220
0.0
230
1.0
 70
     8
 71
     3
 72
    10
 73
     6
 74
     0
 42
0.00000001
 43
0.00000001
 40
0.0
 40
0.0
 40
0.0
 40
0.0
 40
0.5
 40
0.5
 40
1.0
 40
1.0
 40
1.0
 40
1.0
 10
143.1294119670735
 20
123.8181532673274
 30
0.0
 10
143.1381016099851
 20
123.8650321166456
 30
0.0
 10
143.1446406747357
 20
123.9124545820469
 30
0.0
 10
143.1533993091287
 20
124.0083913806337
 30
0.0
 10
143.1555595902336
 20
124.0563066686442
 30
0.0
 10
143.1555595902336
 20
124.1040198987887
 30
0.0
  0
LINE
  5
93
330
1F
100
AcDbEntity
  8
0
  6
Continuous
 62
     7
370
    15
100
AcDbLine
 10
142.3555593512
 20
130.3681531243
 30
0.0
 11
140.1355601422
 21
130.3681531243
 31
0.0
  0
LINE
  5
94
330
1F
100
AcDbEntity
  8
0
  6
Continuous
 62
     7
370
    15
100
AcDbLine
 10
142.3555593512
 20
77.5681534104
 30
0.0
 11
140.1355601422
 21
77.5681534104
 31
0.0
  0
LINE
  5
95
330
1F
100
AcDbEntity
  8
0
  6
Continuous
 62
     7
370
    15
100
AcDbLine
 10
121.2455594952
 20
79.7477220438
 30
0.0
 11
121.2455594952
 21
128.1885844908
 31
0.0
  0
LINE
  5
96
330
1F
100
AcDbEntity
  8
0
  6
Continuous
 62
     7
370
    15
100
AcDbLine
 10
101.4455593697
 20
80.7397072457
 30
0.0
 11
101.4455593697
 21
82.0044153623
 31
0.0
  0
SPLINE
  5
97
330
1F
100
AcDbEntity
  8
0
  6
Continuous
 62
     7
370
    15
100
AcDbSpline
210
0.0
220
0.0
230
1.0
 70
     8
 71
     3
 72
    14
 73
    10
 74
     0
 42
0.00000001
 43
0.00000001
 40
0.0
 40
0.0
 40
0.0
 40
0.0
 40
0.25
 40
0.25
 40
0.5
 40
0.5
 40
0.75
 40
0.75
 40
1.0
 40
1.0
 40
1.0
 40
1.0
 10
100.6672724723179
 20
83.13500194376742
 30
0.0
 10
100.72389914752
 20
83.02730448993057
 30
0.0
 10
100.8184218078097
 20
82.92451490821125
 30
0.0
 10
101.0014667833719
 20
82.7261575959911
 30
0.0
 10
101.0930933603266
 20
82.63009808731285
 30
0.0
 10
101.2519466780198
 20
82.4425690446036
 30
0.0
 10
101.3198372856415
 20
82.35116007182006
 30
0.0
 10
101.4167543113491
 20
82.1727838509099
 30
0.0
 10
101.4455595902342
 20
82.08556194466372
 30
0.0
 10
101.4455595902342
 20
82.00441573612946
 30
0.0
  0
SPLINE
  5
98
330
1F
100
AcDbEntity
  8
0
  6
Continuous
 62
     7
370
    15
100
AcDbSpline
210
0.0
220
0.0
230
1.0
 70
     8
 71
     3
 72
    14
 73
    10
 74
     0
 42
0.00000001
 43
0.00000001
 40
0.0
 40
0.0
 40
0.0
 40
0.0
 40
0.125
 40
0.125
 40
0.25
 40
0.25
 40
0.5
 40
0.5
 40
1.0
 40
1.0
 40
1.0
 40
1.0
 10
100.0455595902336
 20
83.58168380604674
 30
0.0
 10
100.0941039988908
 20
83.58743211932703
 30
0.0
 10
100.1470193536757
 20
83.5843312306708
 30
0.0
 10
100.2423146986587
 20
83.56213638650847
 30
0.0
 10
100.2825656959437
 20
83.54490415941261
 30
0.0
 10
100.3868357094566
 20
83.48857624296055
 30
0.0
 10
100.43715768461
 20
83.44438989701474
 30
0.0
 10
100.5648406321353
 20
83.31338199816413
 30
0.0
 10
100.6209260791976
 20
83.22314747793384
 30
0.0
 10
100.6672724723194
 20
83.13500194376795
 30
0.0
  0
SPLINE
  5
99
330
1F
100
AcDbEntity
  8
0
  6
Continuous
 62
     7
370
    15
100
AcDbSpline
210
0.0
220
0.0
230
1.0
 70
     8
 71
     3
 72
     8
 73
     4
 74
     0
 42
0.00000001
 43
0.00000001
 40
0.0
 40
0.0
 40
0.0
 40
0.0
 40
1.0
 40
1.0
 40
1.0
 40
1.0
 10
97.77703449728733
 20
83.27183851946394
 30
0.0
 10
98.5116115237703
 20
83.39046353053291
 30
0.0
 10
99.27508659316598
 20
83.4904494026692
 30
0.0
 10
100.0455595902336
 20
83.58168380604674
 30
0.0
  0
SPLINE
  5
9A
330
1F
100
AcDbEntity
  8
0
  6
Continuous
 62
     7
370
    15
100
AcDbSpline
210
0.0
220
0.0
230
1.0
 70
     8
 71
     3
 72
    14
 73
    10
 74
     0
 42
0.00000001
 43
0.00000001
 40
0.0
 40
0.0
 40
0.0
 40
0.0
 40
0.5000000000000002
 40
0.5000000000000002
 40
0.7500000000000002
 40
0.7500000000000002
 40
0.8750000000000001
 40
0.8750000000000001
 40
1.0
 40
1.0
 40
1.0
 40
1.0
 10
92.4955595902336
 20
83.0982155019323
 30
0.0
 10
93.38770572078717
 20
83.09749327573165
 30
0.0
 10
94.27768215658075
 20
83.10207948218911
 30
0.0
 10
95.60427732365633
 20
83.12980448658065
 30
0.0
 10
96.04512425215508
 20
83.14241102420483
 30
0.0
 10
96.70156448957749
 20
83.17342717221227
 30
0.0
 10
96.91957814616937
 20
83.18577034483906
 30
0.0
 10
97.35228699985213
 20
83.21879440000232
 30
0.0
 10
97.56756346501693
 20
83.23801156514077
 30
0.0
 10
97.77703449728733
 20
83.27183851946394
 30
0.0
  0
SPLINE
  5
9B
330
1F
100
AcDbEntity
  8
0
  6
Continuous
 62
     7
370
    15
100
AcDbSpline
210
0.0
220
0.0
230
1.0
 70
     8
 71
     3
 72
     8
 73
     4
 74
     0
 42
0.00000001
 43
0.00000001
 40
0.0000005163856711
 40
0.0000005163856711
 40
0.0000005163856711
 40
0.0000005163856711
 40
0.000026289209185
 40
0.000026289209185
 40
0.000026289209185
 40
0.000026289209185
 10
92.4855146598149
 20
83.10819937504019
 30
0.0
 10
92.48884239802638
 20
83.10486512816736
 30
0.0
 10
92.49219085100569
 20
83.10153717088834
 30
0.0
 10
92.49555959023357
 20
83.09821550193229
 30
0.0
  0
SPLINE
  5
9C
330
1F
100
AcDbEntity
  8
0
  6
Continuous
 62
     7
370
    15
100
AcDbSpline
210
0.0
220
0.0
230
1.0
 70
     8
 71
     3
 72
     8
 73
     4
 74
     0
 42
0.00000001
 43
0.00000001
 40
0.0000005099763573
 40
0.0000005099763573
 40
0.0000005099763573
 40
0.0000005099763573
 40
0.0000262827998699
 40
0.0000262827998699
 40
0.0000262827998699
 40
0.0000262827998699
 10
92.49555959023358
 20
124.8380910327225
 30
0.0
 10
92.49219085100584
 20
124.8347693637666
 30
0.0
 10
92.4888423980267
 20
124.8314414064877
 30
0.0
 10
92.4855146598154
 20
124.828107159615
 30
0.0
  0
SPLINE
  5
9D
330
1F
100
AcDbEntity
  8
0
  6
Continuous
 62
     7
370
    15
100
AcDbSpline
210
0.0
220
0.0
230
1.0
 70
     8
 71
     3
 72
    10
 73
     6
 74
     0
 42
0.00000001
 43
0.00000001
 40
0.0
 40
0.0
 40
0.0
 40
0.0
 40
0.5
 40
0.5
 40
1.0
 40
1.0
 40
1.0
 40
1.0
 10
96.04555959023361
 20
124.7912406591551
 30
0.0
 10
95.45797404314301
 20
124.8123061793915
 30
0.0
 10
94.86722764968262
 20
124.8230646652637
 30
0.0
 10
93.68320848438377
 20
124.8364294457994
 30
0.0
 10
93.08979449617831
 20
124.838572088464
 30
0.0
 10
92.4955595902336
 20
124.8380910327224
 30
0.0
  0
SPLINE
  5
9E
330
1F
100
AcDbEntity
  8
0
  6
Continuous
 62
     7
370
    15
100
AcDbSpline
210
0.0
220
0.0
230
1.0
 70
     8
 71
     3
 72
    18
 73
    14
 74
     0
 42
0.00000001
 43
0.00000001
 40
0.0
 40
0.0
 40
0.0
 40
0.0
 40
0.2500000000000008
 40
0.2500000000000008
 40
0.5000000000000009
 40
0.5000000000000009
 40
0.7500000000000009
 40
0.7500000000000009
 40
0.875000000000001
 40
0.875000000000001
 40
0.9375000000000006
 40
0.9375000000000006
 40
1.0
 40
1.0
 40
1.0
 40
1.0
 10
97.44555959023361
 20
125.8122609396904
 30
0.0
 10
97.44555959023363
 20
125.7290540308332
 30
0.0
 10
97.40971049029535
 20
125.6403173755196
 30
0.0
 10
97.28483875426143
 20
125.4581921849594
 30
0.0
 10
97.19443833661356
 20
125.3630621363327
 30
0.0
 10
96.97219568187137
 20
125.1738806272084
 30
0.0
 10
96.84243089542561
 20
125.0789354591137
 30
0.0
 10
96.6017934381141
 20
124.9406567515338
 30
0.0
 10
96.51402613997668
 20
124.8949463182314
 30
0.0
 10
96.35950205276983
 20
124.8371230130099
 30
0.0
 10
96.30289116671509
 20
124.8194082489721
 30
0.0
 10
96.17884713580848
 20
124.7948689457391
 30
0.0
 10
96.1111324607902
 20
124.7888898072009
 30
0.0
 10
96.0455595902336
 20
124.7912406591551
 30
0.0
  0
LINE
  5
9F
330
1F
100
AcDbEntity
  8
0
  6
Continuous
 62
     7
370
    15
100
AcDbLine
 10
97.445558714
 20
125.812260925
 30
0.0
 11
97.445558714
 21
126.99619916
 31
0.0
  0
SPLINE
  5
A0
330
1F
100
AcDbEntity
  8
0
  6
Continuous
 62
     7
370
    15
100
AcDbSpline
210
0.0
220
0.0
230
1.0
 70
     8
 71
     3
 72
    24
 73
    20
 74
     0
 42
0.00000001
 43
0.00000001
 40
0.0
 40
0.0
 40
0.0
 40
0.0
 40
0.0010489815523775
 40
0.0637843212772741
 40
0.1272220630088516
 40
0.1903789073370505
 40
0.2526748662763491
 40
0.3146354150030102
 40
0.3770891884518245
 40
0.4393540587943444
 40
0.5008133488401828
 40
0.5621845177353679
 40
0.6248438462901906
 40
0.6874304788646655
 40
0.7496743245911356
 40
0.811984857412469
 40
0.8750960476811308
 40
0.9384412548145236
 40
1.0
 40
1.0
 40
1.0
 40
1.0
 10
110.0144655949605
 20
80.31064507288082
 30
0.0
 10
110.0140189292098
 20
80.31058642791433
 30
0.0
 10
109.9868589932861
 20
80.30702046493364
 30
0.0
 10
110.082488916418
 20
80.31988507440884
 30
0.0
 10
110.3160420924385
 20
80.3491195567489
 30
0.0
 10
110.7115980446729
 20
80.39573876749033
 30
0.0
 10
111.2386380450429
 20
80.44591956691549
 30
0.0
 10
111.8821684868792
 20
80.49029824035854
 30
0.0
 10
112.6208423211489
 20
80.51724143686934
 30
0.0
 10
113.4183569912678
 20
80.52071318517147
 30
0.0
 10
114.2449360410323
 20
80.49308773887805
 30
0.0
 10
115.070458862451
 20
80.43460659589941
 30
0.0
 10
115.8625853333666
 20
80.34916353250082
 30
0.0
 10
116.595157712204
 20
80.2474283640083
 30
0.0
 10
117.2307978940247
 20
80.13958471296039
 30
0.0
 10
117.7527088245709
 20
80.03795331768555
 30
0.0
 10
118.1343376622099
 20
79.95547135339305
 30
0.0
 10
118.3851523381432
 20
79.89931924588615
 30
0.0
 10
118.4142736538505
 20
79.89247039497327
 30
0.0
 10
118.4286260551942
 20
79.88909494799717
 30
0.0
  0
SPLINE
  5
A1
330
1F
100
AcDbEntity
  8
0
  6
Continuous
 62
     7
370
    15
100
AcDbSpline
210
0.0
220
0.0
230
1.0
 70
     8
 71
     3
 72
    24
 73
    20
 74
     0
 42
0.00000001
 43
0.00000001
 40
0.0
 40
0.0
 40
0.0
 40
0.0
 40
0.061438429114026
 40
0.1250736777967296
 40
0.1884253375120635
 40
0.2508623992448768
 40
0.3129665476325514
 40
0.3753451442328022
 40
0.4377328732174486
 40
0.499092717251918
 40
0.560580729454827
 40
0.622946985474185
 40
0.6854686070210457
 40
0.7475477863222202
 40
0.8098225081553685
 40
0.873068419947611
 40
0.936404185690527
 40
0.9991757203144552
 40
1.0
 40
1.0
 40
1.0
 40
1.0
 10
118.4285715728236
 20
128.0471817843352
 30
0.0
 10
118.4139707643714
 20
128.0438136264622
 30
0.0
 10
118.3842470745204
 20
128.0369568773778
 30
0.0
 10
118.1315090745344
 20
127.9806190574818
 30
0.0
 10
117.7485137755133
 20
127.8977612445965
 30
0.0
 10
117.2261578186303
 20
127.7958544963755
 30
0.0
 10
116.5913734739287
 20
127.6880159264864
 30
0.0
 10
115.8611497373145
 20
127.5865496732574
 30
0.0
 10
115.0706816424034
 20
127.5014875946902
 30
0.0
 10
114.2461979149457
 20
127.4432862377336
 30
0.0
 10
113.4191615344656
 20
127.415701790049
 30
0.0
 10
112.6208370754752
 20
127.4191957185832
 30
0.0
 10
111.8810133244756
 20
127.4461493772569
 30
0.0
 10
111.236758453016
 20
127.4905048778703
 30
0.0
 10
110.7093515959184
 20
127.540710061593
 30
0.0
 10
110.3146863556053
 20
127.5873175216382
 30
0.0
 10
110.0821576700171
 20
127.6165206984766
 30
0.0
 10
109.9867784413509
 20
127.6292788371938
 30
0.0
 10
110.0137113856777
 20
127.625739007275
 30
0.0
 10
110.0140604696405
 20
127.6256931267415
 30
0.0
  0
SPLINE
  5
A2
330
1F
100
AcDbEntity
  8
0
  6
Continuous
 62
     7
370
    15
100
AcDbSpline
210
0.0
220
0.0
230
1.0
 70
     8
 71
     3
 72
    39
 73
    35
 74
     0
 42
0.00000001
 43
0.00000001
 40
-0.0929033054605302
 40
-0.0617842215058984
 40
-0.0305661381440895
 40
0.0
 40
0.0305778672834698
 40
0.061821009479051
 40
0.0929576535415208
 40
0.1240734040233672
 40
0.1552548729388294
 40
0.1868129346092388
 40
0.2185641300335421
 40
0.2499317537043951
 40
0.2813253586315443
 40
0.313146651732048
 40
0.3447819447416039
 40
0.3760144683988932
 40
0.4071226993084213
 40
0.4382113067959525
 40
0.4693933777796789
 40
0.5000119620109617
 40
0.5306251755406889
 40
0.5618456935793383
 40
0.5929504457359266
 40
0.6240751842319099
 40
0.6552856774411242
 40
0.6868968613570662
 40
0.718668035841124
 40
0.7500609551198759
 40
0.7814253634460915
 40
0.8132191364955033
 40
0.844799949844627
 40
0.8760025022887087
 40
0.9070966945394697
 40
0.9382157784941015
 40
0.9694338618559104
 40
0.9999999999999999
 40
1.03057786728347
 40
1.061821009479051
 40
1.092957653541521
 10
181.0798620903626
 20
97.11535614257883
 30
0.0
 10
179.7453928539302
 20
96.9792384458811
 30
0.0
 10
178.4105450610007
 20
97.11538214746099
 30
0.0
 10
177.1299218945634
 20
97.5241270676418
 30
0.0
 10
175.9469095585411
 20
98.16559655952723
 30
0.0
 10
174.9212948492422
 20
99.02976675458976
 30
0.0
 10
174.0786740060502
 20
100.081025849082
 30
0.0
 10
173.4543094586103
 20
101.2895841701643
 30
0.0
 10
173.057555149193
 20
102.6001208610537
 30
0.0
 10
172.9261377218305
 20
103.965464445581
 30
0.0
 10
173.058404764545
 20
105.331725401599
 30
0.0
 10
173.4557476595315
 20
106.6446486726555
 30
0.0
 10
174.0804954581879
 20
107.8562129761596
 30
0.0
 10
174.9237914861465
 20
108.9091678791661
 30
0.0
 10
175.9490563761141
 20
109.7735850212717
 30
0.0
 10
177.1305245342278
 20
110.4144969523076
 30
0.0
 10
178.4106923450974
 20
110.8216962494851
 30
0.0
 10
179.7459475732804
 20
110.9568485885026
 30
0.0
 10
181.0817229893861
 20
110.8212830663108
 30
0.0
 10
182.3623911399019
 20
110.4133546530921
 30
0.0
 10
183.5446739786935
 20
109.7718087999316
 30
0.0
 10
184.5696562373659
 20
108.9067697155469
 30
0.0
 10
185.412172086779
 20
107.8537726536091
 30
0.0
 10
186.0361235273866
 20
106.6433336740307
 30
0.0
 10
186.4326605275689
 20
105.331317067879
 30
0.0
 10
186.5649677632488
 20
103.9658768832561
 30
0.0
 10
186.4336790313668
 20
102.599934991902
 30
0.0
 10
186.0363080300097
 20
101.2886293553411
 30
0.0
 10
185.4112991358248
 20
100.0790178360217
 30
0.0
 10
184.5679831789945
 20
99.0278634402665
 30
0.0
 10
183.5421493388027
 20
98.16438317334884
 30
0.0
 10
182.3598011367604
 20
97.52363438216703
 30
0.0
 10
181.0798620903626
 20
97.11535614257883
 30
0.0
 10
179.7453928539302
 20
96.9792384458811
 30
0.0
 10
178.4105450610007
 20
97.11538214746099
 30
0.0
  0
LINE
  5
A3
330
1F
100
AcDbEntity
  8
0
  6
Continuous
 62
     7
370
    15
100
AcDbLine
 10
190.3785168699
 20
79.9681530587
 30
0.0
 11
190.3785168699
 21
127.9681534759
 31
0.0
  0
SPLINE
  5
A4
330
1F
100
AcDbEntity
  8
0
  6
Continuous
 62
     7
370
    15
100
AcDbSpline
210
0.0
220
0.0
230
1.0
 70
     8
 71
     3
 72
    27
 73
    23
 74
     0
 42
0.00000001
 43
0.00000001
 40
0.0
 40
0.0
 40
0.0
 40
0.0
 40
0.0032886807884202
 40
0.0768924159679326
 40
0.1693608772652749
 40
0.2169583921181504
 40
0.2605273924665832
 40
0.3000727406314502
 40
0.3356019311073419
 40
0.4221340784135135
 40
0.5012883038728019
 40
0.5804544364208489
 40
0.6085186248211099
 40
0.6374178755102456
 40
0.6671608595195949
 40
0.7422450517785651
 40
0.833317744193462
 40
0.8821495597388345
 40
0.9261395349443575
 40
0.965291865792085
 40
0.9996116842372758
 40
1.0
 40
1.0
 40
1.0
 40
1.0
 10
182.0046938530338
 20
98.4112932599817
 30
0.0
 10
182.0192700086038
 20
98.41672074521216
 30
0.0
 10
182.3600740845872
 20
98.5436203985532
 30
0.0
 10
183.0646483053006
 20
98.93116664720529
 30
0.0
 10
183.8561904365588
 20
99.55794852760533
 30
0.0
 10
184.4311519251966
 20
100.2023485375814
 30
0.0
 10
184.7903808308429
 20
100.702352251632
 30
0.0
 10
185.0708010811686
 20
101.1868258352577
 30
0.0
 10
185.3935480181577
 20
101.8788049539764
 30
0.0
 10
185.6704306685713
 20
102.7994140069588
 30
0.0
 10
185.781304823182
 20
103.9656057706462
 30
0.0
 10
185.6973775558673
 20
104.8545311943324
 30
0.0
 10
185.555358002509
 20
105.4850448881922
 30
0.0
 10
185.438150762017
 20
105.8792448193075
 30
0.0
 10
185.2160817557484
 20
106.4720811279378
 30
0.0
 10
184.7851682120094
 20
107.2947562658191
 30
0.0
 10
184.1465473162951
 20
108.0877778183878
 30
0.0
 10
183.5009009625221
 20
108.6618041279677
 30
0.0
 10
182.9960777369835
 20
109.026045433535
 30
0.0
 10
182.5116788478058
 20
109.2911907114198
 30
0.0
 10
182.2043157124473
 20
109.4618144445295
 30
0.0
 10
182.0467715539418
 20
109.5089035508629
 30
0.0
 10
182.0450089446438
 20
109.5094303853546
 30
0.0
  0
SPLINE
  5
A5
330
1F
100
AcDbEntity
  8
0
  6
Continuous
 62
     7
370
    15
100
AcDbSpline
210
0.0
220
0.0
230
1.0
 70
     8
 71
     3
 72
    27
 73
    23
 74
     0
 42
0.00000001
 43
0.00000001
 40
0.0
 40
0.0
 40
0.0
 40
0.0
 40
0.0031737003098786
 40
0.0763195851015183
 40
0.1687022177273115
 40
0.2161902590514253
 40
0.2596845873371867
 40
0.2991904197424947
 40
0.3347148827308146
 40
0.4211076998104034
 40
0.5001077400181355
 40
0.5789893969122708
 40
0.6069476247425758
 40
0.6357354773503328
 40
0.6653617596906575
 40
0.7400639560014711
 40
0.8308104931132576
 40
0.8793751254736261
 40
0.9232114835959453
 40
0.9623230052147135
 40
0.9967162076628532
 40
0.9999999999999999
 40
0.9999999999999999
 40
0.9999999999999999
 40
0.9999999999999999
 10
177.4850673548115
 20
109.524507566515
 30
0.0
 10
177.4709613594048
 20
109.5192534809977
 30
0.0
 10
177.1317473153025
 20
109.3929058149862
 30
0.0
 10
176.4278675383688
 20
109.0059908268033
 30
0.0
 10
175.6361873070657
 20
108.3796570152204
 30
0.0
 10
175.0603192765163
 20
107.7344298475076
 30
0.0
 10
174.7006458198085
 20
107.2338581308504
 30
0.0
 10
174.4197364841068
 20
106.748449041766
 30
0.0
 10
174.0966356195934
 20
106.0551648150586
 30
0.0
 10
173.8198620389416
 20
105.1331295658271
 30
0.0
 10
173.7098111794857
 20
103.9662857257111
 30
0.0
 10
173.7944086633251
 20
103.0774975114916
 30
0.0
 10
173.9367258334651
 20
102.4476134303226
 30
0.0
 10
174.0540424525784
 20
102.053885177639
 30
0.0
 10
174.2760401174167
 20
101.4622008988519
 30
0.0
 10
174.7065568334557
 20
100.6408092746387
 30
0.0
 10
175.3440866098881
 20
99.84922855937614
 30
0.0
 10
175.9887290135913
 20
99.2756272190419
 30
0.0
 10
176.4932161031296
 20
98.91177965385987
 30
0.0
 10
176.9779417466749
 20
98.6448129856247
 30
0.0
 10
177.2994290908421
 20
98.46947659144959
 30
0.0
 10
177.4713088260199
 20
98.41915524994144
 30
0.0
 10
177.4862892500294
 20
98.41476942149146
 30
0.0
  0
SPLINE
  5
A6
330
1F
100
AcDbEntity
  8
0
  6
Continuous
 62
     7
370
    15
100
AcDbSpline
210
0.0
220
0.0
230
1.0
 70
     8
 71
     3
 72
     9
 73
     5
 74
     0
 42
0.00000001
 43
0.00000001
 40
0.0
 40
0.0
 40
0.0
 40
0.0
 40
0.7009339503679092
 40
0.9999999999999999
 40
0.9999999999999999
 40
0.9999999999999999
 40
0.9999999999999999
 10
91.36634315766219
 20
84.26687356752498
 30
0.0
 10
91.37548382861202
 20
84.24904428376408
 30
0.0
 10
91.38852453087084
 20
84.22360781610327
 30
0.0
 10
91.40368799413912
 20
84.27748717557682
 30
0.0
 10
91.4082228711975
 20
84.2936006627713
 30
0.0
  0
LINE
  5
A7
330
1F
100
AcDbEntity
  8
0
  6
Continuous
 62
     7
370
    15
100
AcDbLine
 10
91.3455597631
 20
84.2774757437
 30
0.0
 11
91.3455597631
 21
123.6588307909
 31
0.0
  0
SPLINE
  5
A8
330
1F
100
AcDbEntity
  8
0
  6
Continuous
 62
     7
370
    15
100
AcDbSpline
210
0.0
220
0.0
230
1.0
 70
     8
 71
     3
 72
    10
 73
     6
 74
     0
 42
0.00000001
 43
0.00000001
 40
0.0
 40
0.0
 40
0.0
 40
0.0
 40
0.5
 40
0.5
 40
1.0
 40
1.0
 40
1.0
 40
1.0
 10
91.40822296495702
 20
123.6427058121081
 30
0.0
 10
91.39931867584825
 20
123.6884473313213
 30
0.0
 10
91.38280329565526
 20
123.7056381707903
 30
0.0
 10
91.35569534959365
 20
123.7053148938546
 30
0.0
 10
91.3455595902336
 20
123.6874373515581
 30
0.0
 10
91.3455595902336
 20
123.6588310138055
 30
0.0
  0
SPLINE
  5
A9
330
1F
100
AcDbEntity
  8
0
  6
Continuous
 62
     7
370
    15
100
AcDbSpline
210
0.0
220
0.0
230
1.0
 70
     8
 71
     3
 72
    26
 73
    22
 74
     0
 42
0.00000001
 43
0.00000001
 40
0.0
 40
0.0
 40
0.0
 40
0.0
 40
0.2500000000000165
 40
0.2500000000000165
 40
0.3750000000000256
 40
0.3750000000000256
 40
0.4375000000000291
 40
0.4375000000000291
 40
0.4687500000000291
 40
0.4687500000000291
 40
0.5000000000000292
 40
0.5000000000000292
 40
0.5312500000000293
 40
0.5312500000000293
 40
0.5625000000000293
 40
0.5625000000000293
 40
0.625000000000026
 40
0.625000000000026
 40
0.7500000000000173
 40
0.7500000000000173
 40
1.0
 40
1.0
 40
1.0
 40
1.0
 10
92.16971323633811
 20
124.3582726009252
 30
0.0
 10
92.13111271346965
 20
124.2404979045698
 30
0.0
 10
92.08481571091538
 20
124.1161082184078
 30
0.0
 10
91.99087636248146
 20
123.9108888860544
 30
0.0
 10
91.955564895568
 20
123.8393160196079
 30
0.0
 10
91.88938491982232
 20
123.7233627870075
 30
0.0
 10
91.86484655315411
 20
123.6827782521972
 30
0.0
 10
91.82147380760031
 20
123.6186365703255
 30
0.0
 10
91.8059654061751
 20
123.5967701450404
 30
0.0
 10
91.77092276158808
 20
123.5511758766972
 30
0.0
 10
91.75137247086832
 20
123.5275055857298
 30
0.0
 10
91.7094451904977
 20
123.4828890263899
 30
0.0
 10
91.68679308026606
 20
123.462009013872
 30
0.0
 10
91.64581936617944
 20
123.4311356001211
 30
0.0
 10
91.62822006628402
 20
123.4212967302887
 30
0.0
 10
91.58359308042786
 20
123.4023071145926
 30
0.0
 10
91.56303385777453
 20
123.4019827899391
 30
0.0
 10
91.51190841827786
 20
123.4112062308153
 30
0.0
 10
91.49099700528932
 20
123.4324531270323
 30
0.0
 10
91.4395470977284
 20
123.5064220058631
 30
0.0
 10
91.42188179842384
 20
123.5725400991778
 30
0.0
 10
91.40822296495702
 20
123.6427058121081
 30
0.0
  0
SPLINE
  5
AA
330
1F
100
AcDbEntity
  8
0
  6
Continuous
 62
     7
370
    15
100
AcDbSpline
210
0.0
220
0.0
230
1.0
 70
     8
 71
     3
 72
    10
 73
     6
 74
     0
 42
0.00000001
 43
0.00000001
 40
0.0
 40
0.0
 40
0.0
 40
0.0
 40
0.5
 40
0.5
 40
1.0
 40
1.0
 40
1.0
 40
1.0
 10
92.48551465981541
 20
124.828107159615
 30
0.0
 10
92.41795540489717
 20
124.7604157668053
 30
0.0
 10
92.35431874956066
 20
124.6857086020516
 30
0.0
 10
92.24409799498879
 20
124.526742469625
 30
0.0
 10
92.19728170176617
 20
124.442387203617
 30
0.0
 10
92.1697132363381
 20
124.3582726009252
 30
0.0
  0
SPLINE
  5
AB
330
1F
100
AcDbEntity
  8
0
  6
Continuous
 62
     7
370
    15
100
AcDbSpline
210
0.0
220
0.0
230
1.0
 70
     8
 71
     3
 72
    10
 73
     6
 74
     0
 42
0.00000001
 43
0.00000001
 40
0.0
 40
0.0
 40
0.0
 40
0.0
 40
0.5
 40
0.5
 40
1.0
 40
1.0
 40
1.0
 40
1.0
 10
92.16971323633815
 20
83.57803393372942
 30
0.0
 10
92.19719065109136
 20
83.49419713726381
 30
0.0
 10
92.243899281379
 20
83.40988664967699
 30
0.0
 10
92.35417774412097
 20
83.25076541919414
 30
0.0
 10
92.4180652827326
 20
83.17578067510605
 30
0.0
 10
92.48551465981491
 20
83.1081993750402
 30
0.0
  0
SPLINE
  5
AC
330
1F
100
AcDbEntity
  8
0
  6
Continuous
 62
     7
370
    15
100
AcDbSpline
210
0.0
220
0.0
230
1.0
 70
     8
 71
     3
 72
    24
 73
    20
 74
     0
 42
0.00000001
 43
0.00000001
 40
0.0
 40
0.0
 40
0.0
 40
0.0
 40
0.249999999999999
 40
0.249999999999999
 40
0.3749999999999983
 40
0.3749999999999983
 40
0.4374999999999987
 40
0.4374999999999987
 40
0.4687499999999975
 40
0.4687499999999975
 40
0.4999999999999963
 40
0.4999999999999963
 40
0.5624999999999984
 40
0.5624999999999984
 40
0.6250000000000006
 40
0.6250000000000006
 40
0.7500000000000001
 40
0.7500000000000001
 40
1.0
 40
1.0
 40
1.0
 40
1.0
 10
91.40822296495702
 20
84.29360072254663
 30
0.0
 10
91.42197608362723
 20
84.36425078053692
 30
0.0
 10
91.4397486510331
 20
84.43084889330186
 30
0.0
 10
91.49199974258845
 20
84.50494691353505
 30
0.0
 10
91.51303481817003
 20
84.52620472069661
 30
0.0
 10
91.56593522579846
 20
84.53435064684285
 30
0.0
 10
91.58704089867636
 20
84.53341084344707
 30
0.0
 10
91.63309306735434
 20
84.51239485186971
 30
0.0
 10
91.65146353933773
 20
84.50148604576212
 30
0.0
 10
91.69301517440346
 20
84.46885113481474
 30
0.0
 10
91.71558184716037
 20
84.44735915444336
 30
0.0
 10
91.77836286362037
 20
84.37889321085704
 30
0.0
 10
91.81149262458827
 20
84.33281875265196
 30
0.0
 10
91.86841031107329
 20
84.24781086431729
 30
0.0
 10
91.89259633657704
 20
84.20753056313592
 30
0.0
 10
91.9578042869568
 20
84.09259433666998
 30
0.0
 10
91.99252034714806
 20
84.02201135152296
 30
0.0
 10
92.08573561747893
 20
83.81780559244437
 30
0.0
 10
92.13140815283961
 20
83.69490721011701
 30
0.0
 10
92.16971323633814
 20
83.57803393372943
 30
0.0
  0
SPLINE
  5
AD
330
1F
100
AcDbEntity
  8
0
  6
Continuous
 62
     7
370
    15
100
AcDbSpline
210
0.0
220
0.0
230
1.0
 70
     8
 71
     3
 72
     8
 73
     4
 74
     0
 42
0.00000001
 43
0.00000001
 40
0.0
 40
0.0
 40
0.0
 40
0.0
 40
1.0
 40
1.0
 40
1.0
 40
1.0
 10
137.8536267587446
 20
128.4268429296948
 30
0.0
 10
138.3607136005038
 20
127.2956925755311
 30
0.0
 10
138.8562814396438
 20
126.1593081647633
 30
0.0
 10
139.3355595902336
 20
125.0182969349107
 30
0.0
  0
LINE
  5
AE
330
1F
100
AcDbEntity
  8
0
  6
Continuous
 62
     7
370
    15
100
AcDbLine
 10
139.3355596385
 20
125.0182972543
 30
0.0
 11
139.3355596385
 21
124.1040197454
 31
0.0
  0
SPLINE
  5
AF
330
1F
100
AcDbEntity
  8
0
  6
Continuous
 62
     7
370
    15
100
AcDbSpline
210
0.0
220
0.0
230
1.0
 70
     8
 71
     3
 72
     8
 73
     4
 74
     0
 42
0.00000001
 43
0.00000001
 40
0.0
 40
0.0
 40
0.0
 40
0.0
 40
1.0
 40
1.0
 40
1.0
 40
1.0
 10
144.6374924217227
 20
134.4353487404916
 30
0.0
 10
144.1423523923583
 20
133.5486690923114
 30
0.0
 10
143.6482696870794
 20
132.6614064566254
 30
0.0
 10
143.1555595902336
 20
131.773387458499
 30
0.0
  0
LINE
  5
B0
330
1F
100
AcDbEntity
  8
0
  6
Continuous
 62
     7
370
    15
100
AcDbLine
 10
144.6374915115
 20
128.4268428825
 30
0.0
 11
144.6374915115
 21
134.4353487037
 31
0.0
  0
SPLINE
  5
B1
330
1F
100
AcDbEntity
  8
0
  6
Continuous
 62
     7
370
    15
100
AcDbSpline
210
0.0
220
0.0
230
1.0
 70
     8
 71
     3
 72
     8
 73
     4
 74
     0
 42
0.00000001
 43
0.00000001
 40
0.0
 40
0.0
 40
0.0
 40
0.0
 40
1.0
 40
1.0
 40
1.0
 40
1.0
 10
143.1555595902336
 20
125.0182969349107
 30
0.0
 10
143.6348377408235
 20
126.1593081647633
 30
0.0
 10
144.1304055799634
 20
127.2956925755311
 30
0.0
 10
144.6374924217227
 20
128.4268429296948
 30
0.0
  0
LINE
  5
B2
330
1F
100
AcDbEntity
  8
0
  6
Continuous
 62
     7
370
    15
100
AcDbLine
 10
143.1555598549
 20
125.0182972543
 30
0.0
 11
143.1555598549
 21
131.7733866416
 31
0.0
  0
SPLINE
  5
B3
330
1F
100
AcDbEntity
  8
0
  6
Continuous
 62
     7
370
    15
100
AcDbSpline
210
0.0
220
0.0
230
1.0
 70
     8
 71
     3
 72
     8
 73
     4
 74
     0
 42
0.00000001
 43
0.00000001
 40
0.0
 40
0.0
 40
0.0
 40
0.0
 40
1.0
 40
1.0
 40
1.0
 40
1.0
 10
139.3355595902336
 20
131.773387458499
 30
0.0
 10
138.8428494933879
 20
132.6614064566254
 30
0.0
 10
138.3487667881089
 20
133.5486690923114
 30
0.0
 10
137.8536267587446
 20
134.4353487404916
 30
0.0
  0
LINE
  5
B4
330
1F
100
AcDbEntity
  8
0
  6
Continuous
 62
     7
370
    15
100
AcDbLine
 10
139.3355596385
 20
125.0182972543
 30
0.0
 11
139.3355596385
 21
131.7733866416
 31
0.0
  0
LINE
  5
B5
330
1F
100
AcDbEntity
  8
0
  6
Continuous
 62
     7
370
    15
100
AcDbLine
 10
148.5955602995
 20
134.4353487037
 30
0.0
 11
144.6374915115
 21
134.4353487037
 31
0.0
  0
LINE
  5
B6
330
1F
100
AcDbEntity
  8
0
  6
Continuous
 62
     7
370
    15
100
AcDbLine
 10
144.6374915115
 20
128.4268428825
 30
0.0
 11
148.5955602995
 21
128.4268428825
 31
0.0
  0
LINE
  5
B7
330
1F
100
AcDbEntity
  8
0
  6
Continuous
 62
     7
370
    15
100
AcDbLine
 10
143.1555598549
 20
124.1040197454
 30
0.0
 11
143.1555598549
 21
125.0182972543
 31
0.0
  0
SPLINE
  5
B8
330
1F
100
AcDbEntity
  8
0
  6
Continuous
 62
     7
370
    15
100
AcDbSpline
210
0.0
220
0.0
230
1.0
 70
     8
 71
     3
 72
    12
 73
     8
 74
     0
 42
0.00000001
 43
0.00000001
 40
0.0
 40
0.0
 40
0.0
 40
0.0
 40
0.2499999999999987
 40
0.2499999999999987
 40
0.4999999999999973
 40
0.4999999999999973
 40
1.0
 40
1.0
 40
1.0
 40
1.0
 10
148.5955595902336
 20
128.4268429296948
 30
0.0
 10
148.6867593120593
 20
128.4268429296948
 30
0.0
 10
148.7773543211953
 20
128.3986232311069
 30
0.0
 10
148.930767047642
 20
128.3041802238589
 30
0.0
 10
148.9959759149656
 20
128.2378932471535
 30
0.0
 10
149.1487604443055
 20
128.0122684238652
 30
0.0
 10
149.1955595902336
 20
127.8298421608327
 30
0.0
 10
149.1955595902336
 20
127.6491055285858
 30
0.0
  0
LINE
  5
B9
330
1F
100
AcDbEntity
  8
0
  6
Continuous
 62
     7
370
    15
100
AcDbLine
 10
149.1955592803
 20
127.6491047136
 30
0.0
 11
149.1955592803
 21
123.8181540064
 31
0.0
  0
SPLINE
  5
BA
330
1F
100
AcDbEntity
  8
0
  6
Continuous
 62
     7
370
    15
100
AcDbSpline
210
0.0
220
0.0
230
1.0
 70
     8
 71
     3
 72
    10
 73
     6
 74
     0
 42
0.00000001
 43
0.00000001
 40
0.0
 40
0.0
 40
0.0
 40
0.0
 40
0.5
 40
0.5
 40
1.0
 40
1.0
 40
1.0
 40
1.0
 10
149.1955595902336
 20
133.8145935910913
 30
0.0
 10
149.1955595902336
 20
133.9749988574421
 30
0.0
 10
149.1333217591267
 20
134.1340606704307
 30
0.0
 10
148.9141868353842
 20
134.364973136061
 30
0.0
 10
148.7565981403923
 20
134.4353487404916
 30
0.0
 10
148.5955595902336
 20
134.4353487404916
 30
0.0
  0
LINE
  5
BB
330
1F
100
AcDbEntity
  8
0
  6
Continuous
 62
     7
370
    15
100
AcDbLine
 10
149.1955592803
 20
127.6491047136
 30
0.0
 11
149.1955592803
 21
133.814594268
 31
0.0
  0
ARC
  5
BC
330
1F
100
AcDbEntity
  8
0
  6
Continuous
 62
     7
370
    15
100
AcDbCircle
 10
131.2463343614
 20
122.6603245383
 30
0.0
 40
7.2619391597036
100
AcDbArc
 50
70.9635650583
 51
109.2417726031
  0
LINE
  5
BD
330
1F
100
AcDbEntity
  8
0
  6
Continuous
 62
     7
370
    15
100
AcDbLine
 10
203.2455578021
 20
87.2422945939
 30
0.0
 11
203.2455578021
 21
120.6940119408
 31
0.0
  0
ARC
  5
BE
330
1F
100
AcDbEntity
  8
0
  6
HIDDEN
 62
     7
370
     0
100
AcDbCircle
 10
179.7455595902
 20
103.9681532673
 30
0.0
 40
6.000000000000007
100
AcDbArc
 50
111.92623148
 51
248.1667758049
  0
ARC
  5
BF
330
1F
100
AcDbEntity
  8
0
  6
HIDDEN
 62
     7
370
     0
100
AcDbCircle
 10
179.7455595902
 20
103.9681532673
 30
0.0
 40
7.000000000000009
100
AcDbArc
 50
67.5748093136
 51
89.3978861014
  0
ARC
  5
C0
330
1F
100
AcDbEntity
  8
0
  6
HIDDEN
 62
     7
370
     0
100
AcDbCircle
 10
179.7455595902
 20
103.9681532673
 30
0.0
 40
7.000000000000009
100
AcDbArc
 50
91.356541149
 51
67.5748093136
  0
CIRCLE
  5
C1
330
1F
100
AcDbEntity
  8
0
  6
HIDDEN
 62
     7
370
     0
100
AcDbCircle
 10
179.7455595902
 20
103.9681532673
 30
0.0
 40
4.999999999999992
  0
CIRCLE
  5
C2
330
1F
100
AcDbEntity
  8
0
  6
HIDDEN
 62
     7
370
     0
100
AcDbCircle
 10
179.7455595902
 20
103.9681532673
 30
0.0
 40
3.75
  0
LINE
  5
C3
330
1F
100
AcDbEntity
  8
0
  6
HIDDEN
 62
     7
370
     0
100
AcDbLine
 10
137.8536270506
 20
128.4268428825
 30
0.0
 11
137.8536270506
 21
123.8181540064
 31
0.0
  0
ARC
  5
C4
330
1F
100
AcDbEntity
  8
0
  6
HIDDEN
 62
     7
370
     0
100
AcDbCircle
 10
131.5314088223
 20
116.4571283543
 30
0.0
 40
3.670208515060739
100
AcDbArc
 50
265.5330778166
 51
13.514570574
  0
ARC
  5
C5
330
1F
100
AcDbEntity
  8
0
  6
HIDDEN
 62
     7
370
     0
100
AcDbCircle
 10
130.9605996867
 20
116.4593351626
 30
0.0
 40
3.672339567597754
100
AcDbArc
 50
166.9419077272
 51
274.4504192863
  0
LINE
  5
C6
330
1F
100
AcDbEntity
  8
0
  6
HIDDEN
 62
     7
370
     0
100
AcDbLine
 10
111.2407100893
 20
80.4435541175
 30
0.0
 11
110.9890518285
 21
80.4200326346
 31
0.0
  0
LINE
  5
C7
330
1F
100
AcDbEntity
  8
0
  6
HIDDEN
 62
     7
370
     0
100
AcDbLine
 10
110.8663603238
 20
127.5275838814
 30
0.0
 11
111.240616957
 21
127.4927356533
 31
0.0
  0
SPLINE
  5
C8
330
1F
100
AcDbEntity
  8
0
  6
HIDDEN
 62
     7
370
     0
100
AcDbSpline
210
0.0
220
0.0
230
1.0
 70
     8
 71
     3
 72
    11
 73
     7
 74
     0
 42
0.00000001
 43
0.00000001
 40
0.0
 40
0.0
 40
0.0
 40
0.0
 40
0.485169166657393
 40
0.6579723861392537
 40
0.8363064526718504
 40
1.0
 40
1.0
 40
1.0
 40
1.0
 10
179.745558606757
 20
97.96815321517332
 30
0.0
 10
180.1217084243474
 20
97.98721511441201
 30
0.0
 10
180.6318319236021
 20
98.0130663106305
 30
0.0
 10
181.2612860814762
 20
98.1589304840312
 30
0.0
 10
181.6425417723216
 20
98.26956472860216
 30
0.0
 10
181.887471234497
 20
98.36541808638884
 30
0.0
 10
182.0046938530338
 20
98.4112932599817
 30
0.0
  0
SPLINE
  5
C9
330
1F
100
AcDbEntity
  8
0
  6
HIDDEN
 62
     7
370
     0
100
AcDbSpline
210
0.0
220
0.0
230
1.0
 70
     8
 71
     3
 72
    13
 73
     9
 74
     0
 42
0.00000001
 43
0.00000001
 40
0.0
 40
0.0
 40
0.0
 40
0.0
 40
0.2634504447797094
 40
0.504177898286234
 40
0.7447496564744842
 40
0.8303541074482726
 40
0.9186607223335601
 40
0.9999999999999999
 40
0.9999999999999999
 40
0.9999999999999999
 40
0.9999999999999999
 10
182.0450089446438
 20
109.5094303853546
 30
0.0
 10
181.657184188634
 20
109.6445150247268
 30
0.0
 10
180.9149851365432
 20
109.9030330531415
 30
0.0
 10
179.745336588939
 20
110.0011365842109
 30
0.0
 10
178.8591258411901
 20
109.9204181170218
 30
0.0
 10
178.2293575015869
 20
109.7776974113338
 30
0.0
 10
177.8478472842547
 20
109.6663928710605
 30
0.0
 10
177.6026370796966
 20
109.570489758105
 30
0.0
 10
177.4850673548115
 20
109.524507566515
 30
0.0
  0
SPLINE
  5
CA
330
1F
100
AcDbEntity
  8
0
  6
HIDDEN
 62
     7
370
     0
100
AcDbSpline
210
0.0
220
0.0
230
1.0
 70
     8
 71
     3
 72
     9
 73
     5
 74
     0
 42
0.00000001
 43
0.00000001
 40
0.0
 40
0.0
 40
0.0
 40
0.0
 40
0.5145365206319146
 40
1.0
 40
1.0
 40
1.0
 40
1.0
 10
177.4862892500294
 20
98.41476942149146
 30
0.0
 10
177.8616036747538
 20
98.28144530718579
 30
0.0
 10
178.5910259988747
 20
98.02233033874403
 30
0.0
 10
179.3682464582921
 20
97.98585881027955
 30
0.0
 10
179.745558606757
 20
97.96815321517332
 30
0.0
  0
SPLINE
  5
CB
330
1F
100
AcDbEntity
  8
0
  6
HIDDEN
 62
     7
370
     0
100
AcDbSpline
210
0.0
220
0.0
230
1.0
 70
     8
 71
     3
 72
    15
 73
    11
 74
     0
 42
0.00000001
 43
0.00000001
 40
0.0
 40
0.0
 40
0.0
 40
0.0
 40
0.1409172263352446
 40
0.281889861653346
 40
0.4212989542022905
 40
0.5593768841673977
 40
0.6988856533029646
 40
0.840367202775075
 40
0.9813164473602943
 40
1.0
 40
1.0
 40
1.0
 40
1.0
 10
117.0005616306496
 20
84.13062480014904
 30
0.0
 10
116.6845199110369
 20
84.17097812192371
 30
0.0
 10
116.0523122034685
 20
84.25170063249354
 30
0.0
 10
114.8181490311543
 20
84.3282585788763
 30
0.0
 10
113.5474269073387
 20
84.32358051086136
 30
0.0
 10
112.3588674408022
 20
84.24278404563815
 30
0.0
 10
111.3657447615118
 20
84.11838949878391
 30
0.0
 10
110.726336230198
 20
84.01198255202269
 30
0.0
 10
110.4453162418446
 20
83.95890549271313
 30
0.0
 10
110.5118768103334
 20
83.97115998467504
 30
0.0
 10
110.5196671134961
 20
83.97259426039798
 30
0.0
  0
SPLINE
  5
CC
330
1F
100
AcDbEntity
  8
0
  6
HIDDEN
 62
     7
370
     0
100
AcDbSpline
210
0.0
220
0.0
230
1.0
 70
     8
 71
     3
 72
    15
 73
    11
 74
     0
 42
0.00000001
 43
0.00000001
 40
0.0
 40
0.0
 40
0.0
 40
0.0
 40
0.1201202497733958
 40
0.2584739452442804
 40
0.3987302041697883
 40
0.5404022600041716
 40
0.680739511736143
 40
0.8190355942651634
 40
0.9577823154231621
 40
1.0
 40
1.0
 40
1.0
 40
1.0
 10
110.5196671134961
 20
123.9637122742568
 30
0.0
 10
110.5403763622996
 20
123.9596877701825
 30
0.0
 10
110.5849383845346
 20
123.9510278693939
 30
0.0
 10
111.147377854263
 20
123.8517349506827
 30
0.0
 10
112.0408401097103
 20
123.7278189389714
 30
0.0
 10
113.1998189335625
 20
123.6281075634377
 30
0.0
 10
114.4728558023822
 20
123.6009705057397
 30
0.0
 10
115.7071411491093
 20
123.6563078678698
 30
0.0
 10
116.5351042268052
 20
123.7427876036612
 30
0.0
 10
116.9125145394515
 20
123.7937845227983
 30
0.0
 10
117.0005616306496
 20
123.8056817345057
 30
0.0
  0
SPLINE
  5
CD
330
1F
100
AcDbEntity
  8
0
  6
HIDDEN
 62
     7
370
     0
100
AcDbSpline
210
0.0
220
0.0
230
1.0
 70
     8
 71
     3
 72
    10
 73
     6
 74
     0
 42
0.00000001
 43
0.00000001
 40
0.0
 40
0.0
 40
0.0
 40
0.0
 40
0.4475765645034734
 40
0.8951364709208242
 40
1.0
 40
1.0
 40
1.0
 40
1.0
 10
117.0005616306496
 20
123.8056817345057
 30
0.0
 10
117.2472671638048
 20
123.8351934128703
 30
0.0
 10
117.7406690481287
 20
123.8942156712219
 30
0.0
 10
118.0296836023094
 20
123.9081588749267
 30
0.0
 10
117.9693149789072
 20
123.9042655355779
 30
0.0
 10
117.9578555322421
 20
123.9035264841948
 30
0.0
  0
SPLINE
  5
CE
330
1F
100
AcDbEntity
  8
0
  6
HIDDEN
 62
     7
370
     0
100
AcDbSpline
210
0.0
220
0.0
230
1.0
 70
     8
 71
     3
 72
    10
 73
     6
 74
     0
 42
0.00000001
 43
0.00000001
 40
0.0
 40
0.0
 40
0.0
 40
0.0
 40
0.3454688819333812
 40
0.7966952282103242
 40
1.0
 40
1.0
 40
1.0
 40
1.0
 10
117.9578350431455
 20
84.03278191310508
 30
0.0
 10
117.9482749035789
 20
84.03333677083768
 30
0.0
 10
117.9262280045033
 20
84.03461634341572
 30
0.0
 10
117.509288715682
 20
84.06457576267529
 30
0.0
 10
117.1211285655945
 20
84.11497135798216
 30
0.0
 10
117.0005616306496
 20
84.13062480014904
 30
0.0
  0
LINE
  5
CF
330
1F
100
AcDbEntity
  8
0
  6
HIDDEN
 62
     7
370
     0
100
AcDbLine
 10
104.2495350859
 20
86.9681523435
 30
0.0
 11
104.2495350859
 21
120.9681541912
 31
0.0
  0
LWPOLYLINE
  5
D0
330
1F
100
AcDbEntity
  8
0
  6
HIDDEN
 62
     7
370
     0
100
AcDbPolyline
 90
       15
 70
   128
 43
0.0
 10
131.2455599702
 20
125.9137564592
 10
132.0025641046
 20
125.949897363
 10
132.732209707
 20
126.0570199482
 10
133.4081226534
 20
126.2312480502
 10
134.0058752841
 20
126.466287791
 10
134.5038637093
 20
126.7536417834
 10
134.8840873263
 20
127.0829257808
 10
135.1328054018
 20
127.4422374807
 10
135.2410288102
 20
127.8185923837
 10
135.2048450655
 20
128.1983857296
 10
135.025562676
 20
128.5678916864
 10
134.7096608526
 20
128.9137550883
 10
134.2685576103
 20
129.2234775863
 10
133.7181953288
 20
129.4858609579
 10
133.6149563587
 20
129.5251180671
  0
LWPOLYLINE
  5
D1
330
1F
100
AcDbEntity
  8
0
  6
HIDDEN
 62
     7
370
     0
100
AcDbPolyline
 90
       15
 70
   128
 43
0.0
 10
128.8531254552
 20
129.5165852897
 10
128.7729236803
 20
129.4858609579
 10
128.2225613988
 20
129.2234775863
 10
127.7814581565
 20
128.9137550883
 10
127.4655563331
 20
128.5678916864
 10
127.2862739436
 20
128.1983857296
 10
127.2500901989
 20
127.8185923837
 10
127.3583131417
 20
127.4422374807
 10
127.6070316828
 20
127.0829257808
 10
127.9872557654
 20
126.7536417834
 10
128.485243725
 20
126.466287791
 10
129.0829963557
 20
126.2312480502
 10
129.7589097678
 20
126.0570199482
 10
130.4885544389
 20
125.949897363
 10
131.2455599702
 20
125.9137564592
  0
SPLINE
  5
D2
330
1F
100
AcDbEntity
  8
0
  6
HIDDEN
 62
     7
370
     0
100
AcDbSpline
210
0.0
220
0.0
230
1.0
 70
     8
 71
     3
 72
    11
 73
     7
 74
     0
 42
0.00000001
 43
0.00000001
 40
0.0
 40
0.0
 40
0.0
 40
0.0
 40
0.0005779865010846
 40
0.0005779865010846
 40
0.0005779865010846
 40
0.0011559733324422
 40
0.0011559733324422
 40
0.0011559733324422
 40
0.0011559733324422
 10
91.3455595902336
 20
105.9679938754873
 30
0.0
 10
91.51222684503956
 20
105.9660102361466
 30
0.0
 10
91.67889327471724
 20
105.9639726291384
 30
0.0
 10
91.84555961316906
 20
105.9618611657323
 30
0.0
 10
92.01222604199546
 20
105.9597497011812
 30
0.0
 10
92.17889241563316
 20
105.9575641380251
 30
0.0
 10
92.34555959023359
 20
105.9552815606938
 30
0.0
  0
SPLINE
  5
D3
330
1F
100
AcDbEntity
  8
0
  6
HIDDEN
 62
     7
370
     0
100
AcDbSpline
210
0.0
220
0.0
230
1.0
 70
     8
 71
     3
 72
    11
 73
     7
 74
     0
 42
0.00000001
 43
0.00000001
 40
0.0
 40
0.0
 40
0.0
 40
0.0
 40
0.0005782382535738
 40
0.0005782382535738
 40
0.0005782382535738
 40
0.0011564766069467
 40
0.0011564766069467
 40
0.0011564766069467
 40
0.0011564766069467
 10
92.3455595902336
 20
101.9714529651092
 30
0.0
 10
92.17890563626497
 20
101.9710153873475
 30
0.0
 10
92.012244964063
 20
101.9705353226751
 30
0.0
 10
91.84557807539758
 20
101.9700157833058
 30
0.0
 10
91.67891115700154
 20
101.9694962438438
 30
0.0
 10
91.51223802716831
 20
101.9689374148218
 30
0.0
 10
91.34555959023359
 20
101.9683518712387
 30
0.0
  0
LINE
  5
D4
330
1F
100
AcDbEntity
  8
0
  6
HIDDEN
 62
     7
370
     0
100
AcDbLine
 10
130.9053855523
 20
86.9681523435
 30
0.0
 11
130.9053855523
 21
120.9681541912
 31
0.0
  0
LINE
  5
D5
330
1F
100
AcDbEntity
  8
0
  6
HIDDEN
 62
     7
370
     0
100
AcDbLine
 10
133.1955594517
 20
88.2431534372
 30
0.0
 11
133.1955594517
 21
119.6931530975
 31
0.0
  0
SPLINE
  5
D6
330
1F
100
AcDbEntity
  8
0
  6
HIDDEN
 62
     7
370
     0
100
AcDbSpline
210
0.0
220
0.0
230
1.0
 70
     8
 71
     3
 72
    16
 73
    12
 74
     0
 42
0.00000001
 43
0.00000001
 40
0.0
 40
0.0
 40
0.0
 40
0.0
 40
0.124999999999998
 40
0.124999999999998
 40
0.249999999999996
 40
0.249999999999996
 40
0.4999999999999973
 40
0.4999999999999973
 40
0.7499999999999987
 40
0.7499999999999987
 40
1.0
 40
1.0
 40
1.0
 40
1.0
 10
100.0455595902336
 20
88.16666283129572
 30
0.0
 10
100.1406813448994
 20
88.16666283129572
 30
0.0
 10
100.2340114136275
 20
88.16284699790292
 30
0.0
 10
100.4172731743655
 20
88.14807644517312
 30
0.0
 10
100.5081508899225
 20
88.13691839719753
 30
0.0
 10
100.7649525874423
 20
88.0944471270558
 30
0.0
 10
100.9200199523142
 20
88.053400929853
 30
0.0
 10
101.1737664138689
 20
87.95825481327111
 30
0.0
 10
101.2746368655367
 20
87.90349207918955
 30
0.0
 10
101.4098832802316
 20
87.79223095528566
 30
0.0
 10
101.4455595902336
 20
87.73506121795697
 30
0.0
 10
101.4455595902336
 20
87.68063964492326
 30
0.0
  0
SPLINE
  5
D7
330
1F
100
AcDbEntity
  8
0
  6
HIDDEN
 62
     7
370
     0
100
AcDbSpline
210
0.0
220
0.0
230
1.0
 70
     8
 71
     3
 72
     8
 73
     4
 74
     0
 42
0.00000001
 43
0.00000001
 40
0.0
 40
0.0
 40
0.0
 40
0.0
 40
1.0
 40
1.0
 40
1.0
 40
1.0
 10
92.64555959351443
 20
90.31146577737795
 30
0.0
 10
92.64555959351637
 20
89.42756863506102
 30
0.0
 10
92.63207896760694
 20
88.71298538999906
 30
0.0
 10
92.63072759941765
 20
88.16666283129571
 30
0.0
  0
SPLINE
  5
D8
330
1F
100
AcDbEntity
  8
0
  6
HIDDEN
 62
     7
370
     0
100
AcDbSpline
210
0.0
220
0.0
230
1.0
 70
     8
 71
     3
 72
    10
 73
     6
 74
     0
 42
0.00000001
 43
0.00000001
 40
0.0
 40
0.0
 40
0.0
 40
0.0
 40
0.5
 40
0.5
 40
1.0
 40
1.0
 40
1.0
 40
1.0
 10
92.34555959023359
 20
91.33637604303073
 30
0.0
 10
92.43695070591585
 20
91.16173725542144
 30
0.0
 10
92.50960253964134
 20
90.98813542817446
 30
0.0
 10
92.61710143263694
 20
90.64452200918485
 30
0.0
 10
92.64555959350882
 20
90.4761961826618
 30
0.0
 10
92.64555959351445
 20
90.31146577743743
 30
0.0
  0
LINE
  5
D9
330
1F
100
AcDbEntity
  8
0
  6
HIDDEN
 62
     7
370
     0
100
AcDbLine
 10
92.345559927
 20
94.3673267282
 30
0.0
 11
92.345559927
 21
91.3363755934
 31
0.0
  0
SPLINE
  5
DA
330
1F
100
AcDbEntity
  8
0
  6
HIDDEN
 62
     7
370
     0
100
AcDbSpline
210
0.0
220
0.0
230
1.0
 70
     8
 71
     3
 72
    10
 73
     6
 74
     0
 42
0.00000001
 43
0.00000001
 40
0.0
 40
0.0
 40
0.0
 40
0.0
 40
0.5
 40
0.5
 40
1.0
 40
1.0
 40
1.0
 40
1.0
 10
92.64555959331881
 20
95.73516689168454
 30
0.0
 10
92.6455595933188
 20
95.49318292411324
 30
0.0
 10
92.61740956425848
 20
95.25884049518116
 30
0.0
 10
92.51381965015317
 20
94.80346547296509
 30
0.0
 10
92.43719094058812
 20
94.58186090988741
 30
0.0
 10
92.34555959023359
 20
94.36732647511461
 30
0.0
  0
LINE
  5
DB
330
1F
100
AcDbEntity
  8
0
  6
HIDDEN
 62
     7
370
     0
100
AcDbLine
 10
92.6455594174
 20
107.572787001
 30
0.0
 11
92.6455594174
 21
95.7351667128
 31
0.0
  0
SPLINE
  5
DC
330
1F
100
AcDbEntity
  8
0
  6
HIDDEN
 62
     7
370
     0
100
AcDbSpline
210
0.0
220
0.0
230
1.0
 70
     8
 71
     3
 72
     8
 73
     4
 74
     0
 42
0.00000001
 43
0.00000001
 40
0.0
 40
0.0
 40
0.0
 40
0.0
 40
1.0
 40
1.0
 40
1.0
 40
1.0
 10
92.3455595902336
 20
113.5750925882079
 30
0.0
 10
92.52659105673291
 20
113.1429851025976
 30
0.0
 10
92.64555959332453
 20
112.688839696558
 30
0.0
 10
92.64555959331882
 20
112.2011396429393
 30
0.0
  0
LINE
  5
DD
330
1F
100
AcDbEntity
  8
0
  6
HIDDEN
 62
     7
370
     0
100
AcDbLine
 10
92.345559927
 20
116.6082951493
 30
0.0
 11
92.345559927
 21
113.5750930078
 31
0.0
  0
SPLINE
  5
DE
330
1F
100
AcDbEntity
  8
0
  6
HIDDEN
 62
     7
370
     0
100
AcDbSpline
210
0.0
220
0.0
230
1.0
 70
     8
 71
     3
 72
    10
 73
     6
 74
     0
 42
0.00000001
 43
0.00000001
 40
0.0
 40
0.0
 40
0.0
 40
0.0
 40
0.5
 40
0.5
 40
1.0
 40
1.0
 40
1.0
 40
1.0
 10
92.64555959362599
 20
117.6248407572472
 30
0.0
 10
92.6455595936242
 20
117.460204410642
 30
0.0
 10
92.61840092286918
 20
117.2930491868124
 30
0.0
 10
92.51263592755186
 20
116.9544261790126
 30
0.0
 10
92.43622113925345
 20
116.7821544017185
 30
0.0
 10
92.34555959023362
 20
116.6082955743754
 30
0.0
  0
SPLINE
  5
DF
330
1F
100
AcDbEntity
  8
0
  6
HIDDEN
 62
     7
370
     0
100
AcDbSpline
210
0.0
220
0.0
230
1.0
 70
     8
 71
     3
 72
    18
 73
    14
 74
     0
 42
0.00000001
 43
0.00000001
 40
0.0
 40
0.0
 40
0.0
 40
0.0
 40
0.2500000000000033
 40
0.2500000000000033
 40
0.3750000000000029
 40
0.3750000000000029
 40
0.5000000000000026
 40
0.5000000000000026
 40
0.6250000000000022
 40
0.6250000000000022
 40
0.7500000000000018
 40
0.7500000000000018
 40
1.0
 40
1.0
 40
1.0
 40
1.0
 10
97.4455595902336
 20
120.2556668897315
 30
0.0
 10
97.4455595902336
 20
120.2011923691793
 30
0.0
 10
97.41064889884143
 20
120.1448113098268
 30
0.0
 10
97.30863959750837
 20
120.0607344689733
 30
0.0
 10
97.26700324283027
 20
120.0334007649824
 30
0.0
 10
97.16859744734153
 20
119.9804468493834
 30
0.0
 10
97.11105423563724
 20
119.9545594956663
 30
0.0
 10
96.98375606206429
 20
119.906781950833
 30
0.0
 10
96.91416875730683
 20
119.8848340326551
 30
0.0
 10
96.76273451215187
 20
119.8454014677424
 30
0.0
 10
96.68005060905791
 20
119.8278452185166
 30
0.0
 10
96.42393914701987
 20
119.785406453096
 30
0.0
 10
96.23602414313189
 20
119.769643703359
 30
0.0
 10
96.0455595902336
 20
119.769643703359
 30
0.0
  0
LINE
  5
E0
330
1F
100
AcDbEntity
  8
0
  6
HIDDEN
 62
     7
370
     0
100
AcDbLine
 10
96.0455592296
 20
119.7696444832
 30
0.0
 11
92.6455594174
 21
119.7696444832
 31
0.0
  0
LINE
  5
E1
330
1F
100
AcDbEntity
  8
0
  6
HIDDEN
 62
     7
370
     0
100
AcDbLine
 10
92.5765912554
 20
88.1666620515
 30
0.0
 11
100.0455598853
 21
88.1666620515
 31
0.0
  0
SPLINE
  5
E2
330
1F
100
AcDbEntity
  8
0
  6
HIDDEN
 62
     7
370
     0
100
AcDbSpline
210
0.0
220
0.0
230
1.0
 70
     8
 71
     3
 72
    22
 73
    18
 74
     0
 42
0.00000001
 43
0.00000001
 40
0.0
 40
0.0
 40
0.0
 40
0.0
 40
0.125
 40
0.125
 40
0.25
 40
0.25
 40
0.5000000000000001
 40
0.5000000000000001
 40
0.5625000000000001
 40
0.5625000000000001
 40
0.6250000000000001
 40
0.6250000000000001
 40
0.75
 40
0.75
 40
0.875
 40
0.875
 40
1.0
 40
1.0
 40
1.0
 40
1.0
 10
92.5765906035915
 20
88.16666283129572
 30
0.0
 10
92.56350821086312
 20
88.42176854144338
 30
0.0
 10
92.55028864742329
 20
88.71492680054729
 30
0.0
 10
92.52784146962918
 20
89.3772272661721
 30
0.0
 10
92.51836300260473
 20
89.74750118678348
 30
0.0
 10
92.49916504166822
 20
90.97005798989727
 30
0.0
 10
92.5002788146651
 20
91.90719691602914
 30
0.0
 10
92.51918960761815
 20
93.22706814554412
 30
0.0
 10
92.52381913547715
 20
93.49857005452043
 30
0.0
 10
92.5343003552231
 20
94.05695488932274
 30
0.0
 10
92.54009561650753
 20
94.34407774526235
 30
0.0
 10
92.55840483741245
 20
95.21666699963403
 30
0.0
 10
92.57243977169283
 20
95.81712267598989
 30
0.0
 10
92.60189694382967
 20
97.05459716848596
 30
0.0
 10
92.61745263481123
 20
97.69161332512941
 30
0.0
 10
92.64124718480812
 20
99.00310192281397
 30
0.0
 10
92.64926623695348
 20
99.67922453447447
 30
0.0
 10
92.6455595902336
 20
100.3635196457593
 30
0.0
  0
LINE
  5
E3
330
1F
100
AcDbEntity
  8
0
  6
HIDDEN
 62
     7
370
     0
100
AcDbLine
 10
92.6455594174
 20
107.572787001
 30
0.0
 11
92.6455594174
 21
119.7696444832
 31
0.0
  0
SPLINE
  5
E4
330
1F
100
AcDbEntity
  8
0
  6
HIDDEN
 62
     7
370
     0
100
AcDbSpline
210
0.0
220
0.0
230
1.0
 70
     8
 71
     3
 72
    10
 73
     6
 74
     0
 42
0.00000001
 43
0.00000001
 40
0.0
 40
0.0
 40
0.0
 40
0.0
 40
0.5
 40
0.5
 40
1.0
 40
1.0
 40
1.0
 40
1.0
 10
92.64555959023359
 20
100.3635196457442
 30
0.0
 10
92.64555959023342
 20
100.6374347938183
 30
0.0
 10
92.6198003603646
 20
100.9083763725479
 30
0.0
 10
92.51659442763118
 20
101.4440674541501
 30
0.0
 10
92.43925626375676
 20
101.7098142576718
 30
0.0
 10
92.34555959023359
 20
101.9714529651092
 30
0.0
  0
SPLINE
  5
E5
330
1F
100
AcDbEntity
  8
0
  6
HIDDEN
 62
     7
370
     0
100
AcDbSpline
210
0.0
220
0.0
230
1.0
 70
     8
 71
     3
 72
    10
 73
     6
 74
     0
 42
0.00000001
 43
0.00000001
 40
0.0
 40
0.0
 40
0.0
 40
0.0
 40
0.5
 40
0.5
 40
1.0
 40
1.0
 40
1.0
 40
1.0
 10
92.3455595902336
 20
105.9552815606938
 30
0.0
 10
92.43879017162436
 20
106.2191753687636
 30
0.0
 10
92.51381978386094
 20
106.4853556794016
 30
0.0
 10
92.61888688303878
 20
107.0236782543591
 30
0.0
 10
92.64555959362482
 20
107.2964263706044
 30
0.0
 10
92.64555959362602
 20
107.5727868888945
 30
0.0
  0
LINE
  5
E6
330
1F
100
AcDbEntity
  8
0
  6
HIDDEN
 62
     7
370
     0
100
AcDbLine
 10
92.345559927
 20
101.971453081
 30
0.0
 11
92.345559927
 21
105.955281553
 31
0.0
  0
LINE
  5
E7
330
1F
100
AcDbEntity
  8
0
  6
HIDDEN
 62
     7
370
     0
100
AcDbLine
 10
92.4955587409
 20
85.9781527213
 30
0.0
 11
92.4955587409
 21
83.0982146106
 31
0.0
  0
LINE
  5
E8
330
1F
100
AcDbEntity
  8
0
  6
HIDDEN
 62
     7
370
     0
100
AcDbLine
 10
101.4455593697
 20
85.9781527213
 30
0.0
 11
101.4455593697
 21
82.0044153623
 31
0.0
  0
LINE
  5
E9
330
1F
100
AcDbEntity
  8
0
  6
HIDDEN
 62
     7
370
     0
100
AcDbLine
 10
92.4955587409
 20
121.9581538133
 30
0.0
 11
92.4955587409
 21
124.838091924
 31
0.0
  0
LINE
  5
EA
330
1F
100
AcDbEntity
  8
0
  6
HIDDEN
 62
     7
370
     0
100
AcDbLine
 10
97.445558714
 20
121.9581538133
 30
0.0
 11
97.445558714
 21
125.812260925
 31
0.0
  0
LINE
  5
EB
330
1F
100
AcDbEntity
  8
0
  6
HIDDEN
 62
     7
370
     0
100
AcDbLine
 10
145.0455598108
 20
94.4681535728
 30
0.0
 11
145.0455598108
 21
113.4681529619
 31
0.0
  0
LINE
  5
EC
330
1F
100
AcDbEntity
  8
0
  6
HIDDEN
 62
     7
370
     0
100
AcDbLine
 10
142.045559319
 20
94.4681535728
 30
0.0
 11
142.045559319
 21
113.4681529619
 31
0.0
  0
LINE
  5
ED
330
1F
100
AcDbEntity
  8
0
  6
HIDDEN
 62
     7
370
     0
100
AcDbLine
 10
133.6955595336
 20
95.4681528054
 30
0.0
 11
133.6955595336
 21
112.4681537293
 31
0.0
  0
LINE
  5
EE
330
1F
100
AcDbEntity
  8
0
  6
HIDDEN
 62
     7
370
     0
100
AcDbLine
 10
139.4332348875
 20
77.5681534104
 30
0.0
 11
136.1955599434
 21
77.5681534104
 31
0.0
  0
LINE
  5
EF
330
1F
100
AcDbEntity
  8
0
  6
HIDDEN
 62
     7
370
     0
100
AcDbLine
 10
128.1955595634
 20
72.4840299479
 30
0.0
 11
128.1955595634
 21
77.5681534104
 31
0.0
  0
LINE
  5
F0
330
1F
100
AcDbEntity
  8
0
  6
HIDDEN
 62
     7
370
     0
100
AcDbLine
 10
136.1955599434
 20
77.5681534104
 30
0.0
 11
128.1955595634
 21
77.5681534104
 31
0.0
  0
LINE
  5
F1
330
1F
100
AcDbEntity
  8
0
  6
HIDDEN
 62
     7
370
     0
100
AcDbLine
 10
149.1955592803
 20
77.5681534104
 30
0.0
 11
143.0578846059
 21
77.5681534104
 31
0.0
  0
LINE
  5
F2
330
1F
100
AcDbEntity
  8
0
  6
HIDDEN
 62
     7
370
     0
100
AcDbLine
 10
154.2455590836
 20
96.0681536488
 30
0.0
 11
154.2455590836
 21
111.8681528859
 31
0.0
  0
LINE
  5
F3
330
1F
100
AcDbEntity
  8
0
  6
HIDDEN
 62
     7
370
     0
100
AcDbLine
 10
158.2455597392
 20
95.9681528873
 30
0.0
 11
158.2455597392
 21
111.9681536473
 31
0.0
  0
LINE
  5
F4
330
1F
100
AcDbEntity
  8
0
  6
HIDDEN
 62
     7
370
     0
100
AcDbLine
 10
136.1955599434
 20
130.3681531243
 30
0.0
 11
128.1955595634
 21
130.3681531243
 31
0.0
  0
LINE
  5
F5
330
1F
100
AcDbEntity
  8
0
  6
HIDDEN
 62
     7
370
     0
100
AcDbLine
 10
139.7298574022
 20
130.3681531243
 30
0.0
 11
136.1955599434
 21
130.3681531243
 31
0.0
  0
LINE
  5
F6
330
1F
100
AcDbEntity
  8
0
  6
HIDDEN
 62
     7
370
     0
100
AcDbLine
 10
149.1955592803
 20
130.3681531243
 30
0.0
 11
142.7612620912
 21
130.3681531243
 31
0.0
  0
SPLINE
  5
F7
330
1F
100
AcDbEntity
  8
0
  6
HIDDEN
 62
     7
370
     0
100
AcDbSpline
210
0.0
220
0.0
230
1.0
 70
     8
 71
     3
 72
    11
 73
     7
 74
     0
 42
0.00000001
 43
0.00000001
 40
0.0
 40
0.0
 40
0.0
 40
0.0
 40
0.0008203708524183
 40
0.0008203708524183
 40
0.0008203708524183
 40
0.0016409967870154
 40
0.0016409967870154
 40
0.0016409967870154
 40
0.0016409967870154
 10
92.4955595902336
 20
88.11612051668466
 30
0.0
 10
92.30440128993494
 20
88.07494148806552
 30
0.0
 10
92.11297421986275
 20
88.03618751583552
 30
0.0
 10
91.92132859634212
 20
87.99981975655697
 30
0.0
 10
91.72962319126165
 20
87.96344065279094
 30
0.0
 10
91.5376842392027
 20
87.92944640202339
 30
0.0
 10
91.34555959213189
 20
87.89779827663217
 30
0.0
  0
ELLIPSE
  5
F8
330
1F
100
AcDbEntity
  8
0
  6
HIDDEN
 62
     7
370
     0
100
AcDbEllipse
 10
87.1031277216
 20
103.9681532673
 30
0.0
 11
20.19992453367506
 21
-1.421085471520200E-14
 31
0.0
210
0.0
220
0.0
230
1.0
 40
0.8164965809
 41
1.300566354717479
 42
1.359198697209065
  0
LINE
  5
F9
330
1F
100
AcDbEntity
  8
0
  6
HIDDEN
 62
     7
370
     0
100
AcDbLine
 10
101.4455593697
 20
85.9781527213
 30
0.0
 11
101.4455593697
 21
87.6806401901
 31
0.0
  0
LINE
  5
FA
330
1F
100
AcDbEntity
  8
0
  6
HIDDEN
 62
     7
370
     0
100
AcDbLine
 10
92.4955587409
 20
85.9781527213
 30
0.0
 11
92.4955587409
 21
88.116121038
 31
0.0
  0
LINE
  5
FB
330
1F
100
AcDbEntity
  8
0
  6
HIDDEN
 62
     7
370
     0
100
AcDbLine
 10
92.5765912554
 20
88.1666620515
 30
0.0
 11
92.4955587409
 21
88.116121038
 31
0.0
  0
LINE
  5
FC
330
1F
100
AcDbEntity
  8
0
  6
HIDDEN
 62
     7
370
     0
100
AcDbLine
 10
92.4955587409
 20
121.9581538133
 30
0.0
 11
92.4955587409
 21
119.8627786033
 31
0.0
  0
SPLINE
  5
FD
330
1F
100
AcDbEntity
  8
0
  6
HIDDEN
 62
     7
370
     0
100
AcDbSpline
210
0.0
220
0.0
230
1.0
 70
     8
 71
     3
 72
     8
 73
     4
 74
     0
 42
0.00000001
 43
0.00000001
 40
0.0
 40
0.0
 40
0.0
 40
0.0
 40
1.0
 40
1.0
 40
1.0
 40
1.0
 10
92.4955595902336
 20
119.8627777183855
 30
0.0
 10
92.54556508917705
 20
119.8317419441666
 30
0.0
 10
92.59556515984119
 20
119.8006972991392
 30
0.0
 10
92.64555959362603
 20
119.769643703359
 30
0.0
  0
LINE
  5
FE
330
1F
100
AcDbEntity
  8
0
  6
HIDDEN
 62
     7
370
     0
100
AcDbLine
 10
97.445558714
 20
121.9581538133
 30
0.0
 11
97.445558714
 21
120.2556663446
 31
0.0
  0
SPLINE
  5
FF
330
1F
100
AcDbEntity
  8
0
  6
HIDDEN
 62
     7
370
     0
100
AcDbSpline
210
0.0
220
0.0
230
1.0
 70
     8
 71
     3
 72
    20
 73
    16
 74
     0
 42
0.00000001
 43
0.00000001
 40
0.0
 40
0.0
 40
0.0
 40
0.0
 40
0.1118532751676574
 40
0.1773727996867736
 40
0.2489947105137334
 40
0.3297435705434892
 40
0.3985162980320196
 40
0.4997965447706521
 40
0.613762252866019
 40
0.6789284839908694
 40
0.749455343084578
 40
0.8296017155328829
 40
0.8980457330006051
 40
0.9994566396976663
 40
1.0
 40
1.0
 40
1.0
 40
1.0
 10
117.9941747843457
 20
80.36821943444355
 30
0.0
 10
117.9508826401613
 20
80.3816371244204
 30
0.0
 10
117.8822315541122
 20
80.40291440247022
 30
0.0
 10
117.4372147173778
 20
80.50619093867414
 30
0.0
 10
116.9106646028518
 20
80.61948939582092
 30
0.0
 10
116.2252370513797
 20
80.74242458424196
 30
0.0
 10
115.3319205231453
 20
80.86445911932786
 30
0.0
 10
114.2185607198116
 20
80.9821948841968
 30
0.0
 10
113.1077862916503
 20
80.99416845350962
 30
0.0
 10
112.2230388949531
 20
80.96711359912615
 30
0.0
 10
111.5558393819219
 20
80.91917805402865
 30
0.0
 10
111.0145781863151
 20
80.86289109590234
 30
0.0
 10
110.6269552340728
 20
80.81778081794802
 30
0.0
 10
110.4330775092452
 20
80.77898958785572
 30
0.0
 10
110.4962476214467
 20
80.7896512711154
 30
0.0
 10
110.4965842834843
 20
80.78970809203727
 30
0.0
  0
LINE
  5
100
330
1F
100
AcDbEntity
  8
0
  6
HIDDEN
 62
     7
370
     0
100
AcDbLine
 10
111.4055718801
 20
80.9004907749
 30
0.0
 11
111.589416819
 21
80.9186813675
 31
0.0
  0
SPLINE
  5
101
330
1F
100
AcDbEntity
  8
0
  6
HIDDEN
 62
     7
370
     0
100
AcDbSpline
210
0.0
220
0.0
230
1.0
 70
     8
 71
     3
 72
    27
 73
    23
 74
     0
 42
0.00000001
 43
0.00000001
 40
0.0
 40
0.0
 40
0.0
 40
0.0
 40
0.0008086712591869
 40
0.0456911834610217
 40
0.1022728485874025
 40
0.1705509376464067
 40
0.2091425948588652
 40
0.2506698340784129
 40
0.3211155926765004
 40
0.3862093443739516
 40
0.4266885161495899
 40
0.4648197780056701
 40
0.5006240417998917
 40
0.5452158716962395
 40
0.6017101231772332
 40
0.6701160578659416
 40
0.7088534256377248
 40
0.7505821482908256
 40
0.8222467570140622
 40
0.8877861676511027
 40
0.9472599271540103
 40
1.0
 40
1.0
 40
1.0
 40
1.0
 10
110.4962285182608
 20
127.14656677765
 30
0.0
 10
110.4960060553357
 20
127.1466148003292
 30
0.0
 10
110.4834365541842
 20
127.149328156371
 30
0.0
 10
110.5325213271402
 20
127.1374871174336
 30
0.0
 10
110.6776221482971
 20
127.1140508608451
 30
0.0
 10
110.9506753017976
 20
127.0801418663508
 30
0.0
 10
111.2792010029139
 20
127.0465742503442
 30
0.0
 10
111.6719289998903
 20
127.0083912223897
 30
0.0
 10
112.2216568018315
 20
126.9694231357186
 30
0.0
 10
112.8476794322165
 20
126.9499615075401
 30
0.0
 10
113.3908712728614
 20
126.9477763513602
 30
0.0
 10
113.8359400221649
 20
126.9562910726525
 30
0.0
 10
114.3023878765344
 20
126.9760746227947
 30
0.0
 10
114.8396288028544
 20
127.0202345046904
 30
0.0
 10
115.4878417686029
 20
127.0926543390254
 30
0.0
 10
116.0733809287773
 20
127.1735520017558
 30
0.0
 10
116.5543499945408
 20
127.2517213454648
 30
0.0
 10
116.9997652485036
 20
127.3364919507157
 30
0.0
 10
117.4382650530775
 20
127.4302766714873
 30
0.0
 10
117.7772899912159
 20
127.5081789205393
 30
0.0
 10
117.9646309208497
 20
127.5583699056514
 30
0.0
 10
117.9851206927713
 20
127.5650372791502
 30
0.0
 10
117.9947508073581
 20
127.5681709192429
 30
0.0
  0
SPLINE
  5
102
330
1F
100
AcDbEntity
  8
0
  6
HIDDEN
 62
     7
370
     0
100
AcDbSpline
210
0.0
220
0.0
230
1.0
 70
     8
 71
     3
 72
     8
 73
     4
 74
     0
 42
0.00000001
 43
0.00000001
 40
0.0
 40
0.0
 40
0.0
 40
0.0
 40
0.0001590976953043
 40
0.0001590976953043
 40
0.0001590976953043
 40
0.0001590976953043
 10
92.63072759941768
 20
88.16666283129572
 30
0.0
 10
92.58567612892466
 20
88.13868394697823
 30
0.0
 10
92.54062009052116
 20
88.11071241660943
 30
0.0
 10
92.49555959023361
 20
88.0827480772632
 30
0.0
  0
SPLINE
  5
103
330
1F
100
AcDbEntity
  8
0
  6
HIDDEN
 62
     7
370
     0
100
AcDbSpline
210
0.0
220
0.0
230
1.0
 70
     8
 71
     3
 72
    11
 73
     7
 74
     0
 42
0.00000001
 43
0.00000001
 40
0.0
 40
0.0
 40
0.0
 40
0.0
 40
0.000821290931147
 40
0.000821290931147
 40
0.000821290931147
 40
0.0016428257243086
 40
0.0016428257243086
 40
0.0016428257243086
 40
0.0016428257243086
 10
92.49555959023358
 20
88.08274807726319
 30
0.0
 10
92.30441456875144
 20
88.03946188840759
 30
0.0
 10
92.11299623307498
 20
87.99852537876721
 30
0.0
 10
91.92135015841384
 20
87.95992360737749
 30
0.0
 10
91.72964707687224
 20
87.92131035353725
 30
0.0
 10
91.53770195358669
 20
87.88503014424805
 30
0.0
 10
91.34555959023349
 20
87.85106323789331
 30
0.0
  0
LINE
  5
104
330
1F
100
AcDbEntity
  8
0
  6
HIDDEN
 62
     7
370
     0
100
AcDbLine
 10
139.3355596385
 20
124.1040197454
 30
0.0
 11
139.3355596385
 21
123.8181540064
 31
0.0
  0
LINE
  5
105
330
1F
100
AcDbEntity
  8
0
  6
HIDDEN
 62
     7
370
     0
100
AcDbLine
 10
143.1555598549
 20
124.1040197454
 30
0.0
 11
143.1555598549
 21
123.8181540064
 31
0.0
  0
LINE
  5
106
330
1F
100
AcDbEntity
  8
0
  6
HIDDEN
 62
     7
370
     0
100
AcDbLine
 10
144.6374915115
 20
128.4268428825
 30
0.0
 11
144.6374915115
 21
123.8181540064
 31
0.0
  0
SPLINE
  5
107
330
1F
100
AcDbEntity
  8
0
  6
HIDDEN
 62
     7
370
     0
100
AcDbSpline
210
0.0
220
0.0
230
1.0
 70
     8
 71
     3
 72
    24
 73
    20
 74
     0
 42
0.00000001
 43
0.00000001
 40
0.0
 40
0.0
 40
0.0
 40
0.0
 40
0.249999999999999
 40
0.249999999999999
 40
0.3749999999999983
 40
0.3749999999999983
 40
0.4374999999999987
 40
0.4374999999999987
 40
0.4687499999999975
 40
0.4687499999999975
 40
0.4999999999999963
 40
0.4999999999999963
 40
0.5624999999999984
 40
0.5624999999999984
 40
0.6250000000000006
 40
0.6250000000000006
 40
0.7500000000000001
 40
0.7500000000000001
 40
1.0
 40
1.0
 40
1.0
 40
1.0
 10
91.40822296495702
 20
84.29360072254663
 30
0.0
 10
91.42197608362723
 20
84.36425078053692
 30
0.0
 10
91.4397486510331
 20
84.43084889330186
 30
0.0
 10
91.49199974258845
 20
84.50494691353505
 30
0.0
 10
91.51303481817003
 20
84.52620472069661
 30
0.0
 10
91.56593522579846
 20
84.53435064684285
 30
0.0
 10
91.58704089867636
 20
84.53341084344707
 30
0.0
 10
91.63309306735434
 20
84.51239485186971
 30
0.0
 10
91.65146353933773
 20
84.50148604576212
 30
0.0
 10
91.69301517440346
 20
84.46885113481474
 30
0.0
 10
91.71558184716037
 20
84.44735915444336
 30
0.0
 10
91.77836286362037
 20
84.37889321085704
 30
0.0
 10
91.81149262458827
 20
84.33281875265196
 30
0.0
 10
91.86841031107329
 20
84.24781086431729
 30
0.0
 10
91.89259633657704
 20
84.20753056313592
 30
0.0
 10
91.9578042869568
 20
84.09259433666998
 30
0.0
 10
91.99252034714806
 20
84.02201135152296
 30
0.0
 10
92.08573561747893
 20
83.81780559244437
 30
0.0
 10
92.13140815283961
 20
83.69490721011701
 30
0.0
 10
92.16971323633814
 20
83.57803393372943
 30
0.0
  0
SPLINE
  5
108
330
1F
100
AcDbEntity
  8
0
  6
HIDDEN
 62
     7
370
     0
100
AcDbSpline
210
0.0
220
0.0
230
1.0
 70
     8
 71
     3
 72
    11
 73
     7
 74
     0
 42
0.00000001
 43
0.00000001
 40
0.0
 40
0.0
 40
0.0
 40
0.0
 40
0.0005781862223981
 40
0.0005781862223981
 40
0.0005781862223981
 40
0.0011563724723932
 40
0.0011563724723932
 40
0.0011563724723932
 40
0.0011563724723932
 10
92.34555959023389
 20
116.6082955743802
 30
0.0
 10
92.17889903595821
 20
116.6728250857936
 30
0.0
 10
92.0122357390517
 20
116.7373277896323
 30
0.0
 10
91.84556915522141
 20
116.8018142380657
 30
0.0
 10
91.67890256296229
 20
116.8663006897604
 30
0.0
 10
91.51223269733636
 20
116.9307706984883
 30
0.0
 10
91.34555959023358
 20
116.9952264652207
 30
0.0
  0
SPLINE
  5
109
330
1F
100
AcDbEntity
  8
0
  6
HIDDEN
 62
     7
370
     0
100
AcDbSpline
210
0.0
220
0.0
230
1.0
 70
     8
 71
     3
 72
    11
 73
     7
 74
     0
 42
0.00000001
 43
0.00000001
 40
0.0
 40
0.0
 40
0.0
 40
0.0
 40
0.0005778746105124
 40
0.0005778746105124
 40
0.0005778746105124
 40
0.0011557494857259
 40
0.0011557494857259
 40
0.0011557494857259
 40
0.0011557494857259
 10
91.34555959023356
 20
90.94093141183752
 30
0.0
 10
91.5122264666469
 20
91.00674353852258
 30
0.0
 10
91.67889318620834
 20
91.07260201865157
 30
0.0
 10
91.84555983425699
 20
91.13850959157378
 30
0.0
 10
92.01222655877565
 20
91.20441719473571
 30
0.0
 10
92.17889325319624
 20
91.27037430311599
 30
0.0
 10
92.34555959023359
 20
91.33637604303074
 30
0.0
  0
SPLINE
  5
10A
330
1F
100
AcDbEntity
  8
0
  6
HIDDEN
 62
     7
370
     0
100
AcDbSpline
210
0.0
220
0.0
230
1.0
 70
     8
 71
     3
 72
    11
 73
     7
 74
     0
 42
0.00000001
 43
0.00000001
 40
0.0000000000000006
 40
0.0000000000000006
 40
0.0000000000000006
 40
0.0000000000000006
 40
0.0005780486062825
 40
0.0005780486062825
 40
0.0005780486062825
 40
0.0011560973514241
 40
0.0011560973514241
 40
0.0011560973514241
 40
0.0011560973514241
 10
91.34555959023358
 20
113.9489677690191
 30
0.0
 10
91.51222944627845
 20
113.8865959074722
 30
0.0
 10
91.67889715036272
 20
113.8242420471426
 30
0.0
 10
91.84556345481637
 20
113.7619224869253
 30
0.0
 10
92.01222979551011
 20
113.6996029131572
 30
0.0
 10
92.17889475213892
 20
113.6373177088068
 30
0.0
 10
92.3455595902336
 20
113.5750925882079
 30
0.0
  0
SPLINE
  5
10B
330
1F
100
AcDbEntity
  8
0
  6
HIDDEN
 62
     7
370
     0
100
AcDbSpline
210
0.0
220
0.0
230
1.0
 70
     8
 71
     3
 72
    11
 73
     7
 74
     0
 42
0.00000001
 43
0.00000001
 40
0.0
 40
0.0
 40
0.0
 40
0.0
 40
0.0005782401583596
 40
0.0005782401583596
 40
0.0005782401583596
 40
0.0011564805961118
 40
0.0011564805961118
 40
0.0011564805961118
 40
0.0011564805961118
 10
92.3455595902336
 20
94.36732647511461
 30
0.0
 10
92.17890863988468
 20
94.3039010170247
 30
0.0
 10
92.012249047302
 20
94.24054549333951
 30
0.0
 10
91.84558199487344
 20
94.17724790895873
 30
0.0
 10
91.67891485830962
 20
94.11395029262468
 30
0.0
 10
91.51224025086357
 20
94.05071049765229
 30
0.0
 10
91.34555959023353
 20
93.98751049098085
 30
0.0
  0
CIRCLE
  5
10C
330
1F
100
AcDbEntity
  8
0
  6
HIDDEN
 62
     7
370
     0
100
AcDbCircle
 10
130.2455595902
 20
103.9681532673
 30
0.0
 40
5.000000000000014
  0
LINE
  5
10D
330
1F
100
AcDbEntity
  8
0
  6
HIDDEN
 62
     7
370
     0
100
AcDbLine
 10
127.2455597802
 20
118.2659887962
 30
0.0
 11
127.2455597802
 21
116.3620935075
 31
0.0
  0
LINE
  5
10E
330
1F
100
AcDbEntity
  8
0
  6
HIDDEN
 62
     7
370
     0
100
AcDbLine
 10
135.2455596945
 20
116.3620935075
 30
0.0
 11
135.2455596945
 21
118.2687836952
 31
0.0
  0
LINE
  5
10F
330
1F
100
AcDbEntity
  8
0
  6
HIDDEN
 62
     7
370
     0
100
AcDbLine
 10
123.2455595902
 20
78.6442221395
 30
0.0
 11
123.3397203625
 21
79.3142100118
 31
0.0
  0
LINE
  5
110
330
1F
100
AcDbEntity
  8
0
  6
HIDDEN
 62
     7
370
     0
100
AcDbLine
 10
123.3397203625
 20
128.6220965229
 30
0.0
 11
123.2455595902
 21
129.2920843951
 31
0.0
  0
ARC
  5
111
330
1F
100
AcDbEntity
  8
0
  6
HIDDEN
 62
     7
370
     0
100
AcDbCircle
 10
122.7455528376
 20
79.3977156529
 30
0.0
 40
0.6000067526677242
100
AcDbArc
 50
352.0
 51
0.0
  0
ARC
  5
112
330
1F
100
AcDbEntity
  8
0
  6
HIDDEN
 62
     7
370
     0
100
AcDbCircle
 10
122.7455528376
 20
79.3977156529
 30
0.0
 40
0.6000067526677242
100
AcDbArc
 50
0.0
 51
33.5571153394
  0
ARC
  5
113
330
1F
100
AcDbEntity
  8
0
  6
HIDDEN
 62
     7
370
     0
100
AcDbCircle
 10
122.7455528376
 20
128.5385908817
 30
0.0
 40
0.6000067526677253
100
AcDbArc
 50
348.75
 51
8.0
  0
LWPOLYLINE
  5
114
330
1F
100
AcDbEntity
  8
0
  6
HIDDEN
 62
     7
370
     0
100
AcDbPolyline
 90
        3
 70
   128
 43
0.0
 10
123.3340306291
 20
128.4215362064
 10
123.2998867974
 20
128.3089784227
 10
123.2455595902
 20
128.2069259576
  0
LINE
  5
115
330
1F
100
AcDbEntity
  8
0
  6
HIDDEN
 62
     7
370
     0
100
AcDbLine
 10
123.3455595877
 20
79.3977161191
 30
0.0
 11
123.3455595877
 21
128.5385904155
 31
0.0
  0
LINE
  5
116
330
1F
100
AcDbEntity
  8
0
  6
HIDDEN
 62
     7
370
     0
100
AcDbLine
 10
106.3279956154
 20
83.9681537144
 30
0.0
 11
110.5196671135
 21
83.9681537144
 31
0.0
  0
LINE
  5
117
330
1F
100
AcDbEntity
  8
0
  6
HIDDEN
 62
     7
370
     0
100
AcDbLine
 10
110.5196671135
 20
123.9681528203
 30
0.0
 11
106.3279956154
 21
123.9681528203
 31
0.0
  0
ARC
  5
118
330
1F
100
AcDbEntity
  8
0
  6
HIDDEN
 62
     7
370
     0
100
AcDbCircle
 10
117.0005615918
 20
91.9681532673
 30
0.0
 40
8.000000000000004
100
AcDbArc
 50
276.8737622725
 51
321.3178125465
  0
ARC
  5
119
330
1F
100
AcDbEntity
  8
0
  6
HIDDEN
 62
     7
370
     0
100
AcDbCircle
 10
117.0005615918
 20
115.9681532673
 30
0.0
 40
8.000000000000021
100
AcDbArc
 50
38.6821874535
 51
83.1187603686
  0
ARC
  5
11A
330
1F
100
AcDbEntity
  8
0
  6
HIDDEN
 62
     7
370
     0
100
AcDbCircle
 10
106.3279951555
 20
84.5681532673
 30
0.0
 40
0.6000000000000155
100
AcDbArc
 50
210.0
 51
270.0
  0
ARC
  5
11B
330
1F
100
AcDbEntity
  8
0
  6
HIDDEN
 62
     7
370
     0
100
AcDbCircle
 10
106.3279951555
 20
123.3681532673
 30
0.0
 40
0.6000000000000155
100
AcDbArc
 50
90.0
 51
150.0
  0
LINE
  5
11C
330
1F
100
AcDbEntity
  8
0
  6
HIDDEN
 62
     7
370
     0
100
AcDbLine
 10
105.808379086
 20
123.6681533299
 30
0.0
 11
104.2495350859
 21
120.9681541912
 31
0.0
  0
LINE
  5
11D
330
1F
100
AcDbEntity
  8
0
  6
HIDDEN
 62
     7
370
     0
100
AcDbLine
 10
104.2495350859
 20
86.9681523435
 30
0.0
 11
105.808379086
 21
84.2681532047
 31
0.0
  0
LINE
  5
11E
330
1F
100
AcDbEntity
  8
0
  6
HIDDEN
 62
     7
370
     0
100
AcDbLine
 10
127.2455597802
 20
131.2424862079
 30
0.0
 11
127.2455597802
 21
127.9137549244
 31
0.0
  0
LINE
  5
11F
330
1F
100
AcDbEntity
  8
0
  6
HIDDEN
 62
     7
370
     0
100
AcDbLine
 10
135.2455596945
 20
127.9137549244
 30
0.0
 11
135.2455596945
 21
131.247818961
 31
0.0
  0
ARC
  5
120
330
1F
100
AcDbEntity
  8
0
  6
HIDDEN
 62
     7
370
     0
100
AcDbCircle
 10
131.6955595902
 20
88.2431532673
 30
0.0
 40
1.5
100
AcDbArc
 50
238.2116693829
 51
0.0
  0
ARC
  5
121
330
1F
100
AcDbEntity
  8
0
  6
HIDDEN
 62
     7
370
     0
100
AcDbCircle
 10
131.6955595902
 20
119.6931532673
 30
0.0
 40
1.500000000000001
100
AcDbArc
 50
0.0
 51
121.7883306171
  0
LINE
  5
122
330
1F
100
AcDbEntity
  8
0
  6
HIDDEN
 62
     7
370
     0
100
AcDbLine
 10
123.2455595902
 20
86.9681523435
 30
0.0
 11
130.9053855523
 21
86.9681523435
 31
0.0
  0
LINE
  5
123
330
1F
100
AcDbEntity
  8
0
  6
HIDDEN
 62
     7
370
     0
100
AcDbLine
 10
130.9053855523
 20
120.9681541912
 30
0.0
 11
123.2455595902
 21
120.9681541912
 31
0.0
  0
LINE
  5
124
330
1F
100
AcDbEntity
  8
0
  6
HIDDEN
 62
     7
370
     0
100
AcDbLine
 10
101.4455593697
 20
86.9681523435
 30
0.0
 11
104.2495350859
 21
86.9681523435
 31
0.0
  0
LINE
  5
125
330
1F
100
AcDbEntity
  8
0
  6
HIDDEN
 62
     7
370
     0
100
AcDbLine
 10
104.2495350859
 20
120.9681541912
 30
0.0
 11
97.445558714
 21
120.9681541912
 31
0.0
  0
LINE
  5
126
330
1F
100
AcDbEntity
  8
0
  6
HIDDEN
 62
     7
370
     0
100
AcDbLine
 10
142.045559319
 20
94.4681535728
 30
0.0
 11
145.0455598108
 21
94.4681535728
 31
0.0
  0
LINE
  5
127
330
1F
100
AcDbEntity
  8
0
  6
HIDDEN
 62
     7
370
     0
100
AcDbLine
 10
145.0455598108
 20
113.4681529619
 30
0.0
 11
142.045559319
 21
113.4681529619
 31
0.0
  0
LINE
  5
128
330
1F
100
AcDbEntity
  8
0
  6
HIDDEN
 62
     7
370
     0
100
AcDbLine
 10
133.1955594517
 20
94.9681536548
 30
0.0
 11
133.6955595336
 21
95.4681528054
 31
0.0
  0
LINE
  5
129
330
1F
100
AcDbEntity
  8
0
  6
HIDDEN
 62
     7
370
     0
100
AcDbLine
 10
133.6955595336
 20
112.4681537293
 30
0.0
 11
133.1955594517
 21
112.9681528799
 31
0.0
  0
LINE
  5
12A
330
1F
100
AcDbEntity
  8
0
  6
HIDDEN
 62
     7
370
     0
100
AcDbLine
 10
133.6955595336
 20
95.4681528054
 30
0.0
 11
142.045559319
 21
95.4681528054
 31
0.0
  0
LINE
  5
12B
330
1F
100
AcDbEntity
  8
0
  6
HIDDEN
 62
     7
370
     0
100
AcDbLine
 10
142.045559319
 20
112.4681537293
 30
0.0
 11
133.6955595336
 21
112.4681537293
 31
0.0
  0
LINE
  5
12C
330
1F
100
AcDbEntity
  8
0
  6
HIDDEN
 62
     7
370
     0
100
AcDbLine
 10
154.6455584041
 20
95.668153397
 30
0.0
 11
157.3507859877
 21
95.668153397
 31
0.0
  0
LINE
  5
12D
330
1F
100
AcDbEntity
  8
0
  6
HIDDEN
 62
     7
370
     0
100
AcDbLine
 10
157.3507859877
 20
112.2681531377
 30
0.0
 11
154.6455584041
 21
112.2681531377
 31
0.0
  0
ARC
  5
12E
330
1F
100
AcDbEntity
  8
0
  6
HIDDEN
 62
     7
370
     0
100
AcDbCircle
 10
157.3507855721
 20
96.0681532673
 30
0.0
 40
0.4000000000000057
100
AcDbArc
 50
270.0
 51
290.0
  0
ARC
  5
12F
330
1F
100
AcDbEntity
  8
0
  6
HIDDEN
 62
     7
370
     0
100
AcDbCircle
 10
157.3507855721
 20
111.8681532673
 30
0.0
 40
0.3999999999999915
100
AcDbArc
 50
70.0
 51
90.0
  0
ARC
  5
130
330
1F
100
AcDbEntity
  8
0
  6
HIDDEN
 62
     7
370
     0
100
AcDbCircle
 10
202.9455595902
 20
95.6681532673
 30
0.0
 40
0.3000000000000114
100
AcDbArc
 50
0.0
 51
90.0
  0
ARC
  5
131
330
1F
100
AcDbEntity
  8
0
  6
HIDDEN
 62
     7
370
     0
100
AcDbCircle
 10
202.9455595902
 20
112.2681532673
 30
0.0
 40
0.3000000000000114
100
AcDbArc
 50
270.0
 51
0.0
  0
ARC
  5
132
330
1F
100
AcDbEntity
  8
0
  6
HIDDEN
 62
     7
370
     0
100
AcDbCircle
 10
154.6455595902
 20
96.0681532673
 30
0.0
 40
0.4000000000000057
100
AcDbArc
 50
180.0
 51
270.0
  0
ARC
  5
133
330
1F
100
AcDbEntity
  8
0
  6
HIDDEN
 62
     7
370
     0
100
AcDbCircle
 10
154.6455595902
 20
111.8681532673
 30
0.0
 40
0.3999999999999915
100
AcDbArc
 50
90.0
 51
180.0
  0
LINE
  5
134
330
1F
100
AcDbEntity
  8
0
  6
HIDDEN
 62
     7
370
     0
100
AcDbLine
 10
157.4875935487
 20
95.6922765143
 30
0.0
 11
158.2455597392
 21
95.9681528873
 31
0.0
  0
LINE
  5
135
330
1F
100
AcDbEntity
  8
0
  6
HIDDEN
 62
     7
370
     0
100
AcDbLine
 10
158.2455597392
 20
111.9681536473
 30
0.0
 11
157.4875935487
 21
112.2440300204
 31
0.0
  0
LINE
  5
136
330
1F
100
AcDbEntity
  8
0
  6
HIDDEN
 62
     7
370
     0
100
AcDbLine
 10
128.1955595634
 20
135.468153774
 30
0.0
 11
128.1955595634
 21
130.3681531243
 31
0.0
  0
LINE
  5
137
330
1F
100
AcDbEntity
  8
0
  6
HIDDEN
 62
     7
370
     0
100
AcDbLine
 10
158.2455597392
 20
95.9681528873
 30
0.0
 11
202.9455601744
 21
95.9681528873
 31
0.0
  0
LINE
  5
138
330
1F
100
AcDbEntity
  8
0
  6
HIDDEN
 62
     7
370
     0
100
AcDbLine
 10
202.9455601744
 20
111.9681536473
 30
0.0
 11
158.2455597392
 21
111.9681536473
 31
0.0
  0
LINE
  5
139
330
1F
100
AcDbEntity
  8
0
  6
HIDDEN
 62
     7
370
     0
100
AcDbLine
 10
118.4299974277
 20
79.8887820236
 30
0.0
 11
117.9955652489
 21
80.3678487681
 31
0.0
  0
LINE
  5
13A
330
1F
100
AcDbEntity
  8
0
  6
HIDDEN
 62
     7
370
     0
100
AcDbLine
 10
110.4955616913
 20
80.7895367287
 30
0.0
 11
110.0131282157
 21
80.3104699842
 31
0.0
  0
LINE
  5
13B
330
1F
100
AcDbEntity
  8
0
  6
HIDDEN
 62
     7
370
     0
100
AcDbLine
 10
110.0130062125
 20
127.6258309625
 30
0.0
 11
110.4955570347
 21
127.1467102013
 31
0.0
  0
LINE
  5
13C
330
1F
100
AcDbEntity
  8
0
  6
HIDDEN
 62
     7
370
     0
100
AcDbLine
 10
117.995559661
 20
127.5684093378
 30
0.0
 11
118.4301017358
 21
128.0475282363
 31
0.0
  0
LINE
  5
13D
330
1F
100
AcDbEntity
  8
0
  6
HIDDEN
 62
     7
370
     0
100
AcDbLine
 10
145.0455598108
 20
99.7681534171
 30
0.0
 11
154.2455590836
 21
99.7681534171
 31
0.0
  0
LINE
  5
13E
330
1F
100
AcDbEntity
  8
0
  6
HIDDEN
 62
     7
370
     0
100
AcDbLine
 10
154.2455590836
 20
108.1681531176
 30
0.0
 11
145.0455598108
 21
108.1681531176
 31
0.0
  0
LINE
  5
13F
330
1F
100
AcDbEntity
  8
0
  6
HIDDEN
 62
     7
370
     0
100
AcDbLine
 10
117.995559661
 20
80.3683311932
 30
0.0
 11
117.995559661
 21
84.0327521108
 31
0.0
  0
LINE
  5
140
330
1F
100
AcDbEntity
  8
0
  6
HIDDEN
 62
     7
370
     0
100
AcDbLine
 10
110.4955598287
 20
83.9725309305
 30
0.0
 11
110.4955598287
 21
80.7898589663
 31
0.0
  0
LINE
  5
141
330
1F
100
AcDbEntity
  8
0
  6
HIDDEN
 62
     7
370
     0
100
AcDbLine
 10
117.995559661
 20
123.9035544239
 30
0.0
 11
117.995559661
 21
127.5681169025
 31
0.0
  0
LINE
  5
142
330
1F
100
AcDbEntity
  8
0
  6
HIDDEN
 62
     7
370
     0
100
AcDbLine
 10
110.4955598287
 20
127.1465667776
 30
0.0
 11
110.4955598287
 21
123.9637756042
 31
0.0
  0
DIMENSION
  5
143
330
1F
100
AcDbEntity
  8
VERMASSUNG
100
AcDbDimension
  2
*D1
 10
85.0229420617
 20
72.4681532673
 30
0.0
 11
85.0229420617
 21
103.5240297943
 31
0.0
 70
   160
  1
HSK A%%c<>
 71
     2
 42
-1.0
  3
SLDDIMSTYLE0
100
AcDbAlignedDimension
 13
123.5455595902
 23
135.4681532673
 33
0.0
 14
123.5455595902
 24
72.4681532673
 34
0.0
 50
90.0
100
AcDbRotatedDimension
  0
DIMENSION
  5
150
330
1F
100
AcDbEntity
  8
VERMASSUNG
100
AcDbDimension
  2
*D2
 10
149.1955595902
 20
138.6139292069
 30
0.0
 11
173.6236584258
 21
138.6139292069
 31
0.0
 70
   160
 71
     2
 42
-1.0
  3
SLDDIMSTYLE0
100
AcDbAlignedDimension
 13
203.2455595902
 23
120.6940127457
 33
0.0
 14
149.1955595902
 24
133.8145935911
 34
0.0
100
AcDbRotatedDimension
  0
DIMENSION
  5
15A
330
1F
100
AcDbEntity
  8
VERMASSUNG
100
AcDbDimension
  2
*D3
 10
123.2455595902
 20
144.6139292069
 30
0.0
 11
162.1998217915
 21
144.6139292069
 31
0.0
 70
   160
 71
     2
 42
-1.0
  3
SLDDIMSTYLE0
100
AcDbAlignedDimension
 13
203.2455595902
 23
120.6940127457
 33
0.0
 14
123.2455595902
 24
135.1681532673
 34
0.0
100
AcDbRotatedDimension
  0
DIMENSION
  5
164
330
1F
100
AcDbEntity
  8
VERMASSUNG
100
AcDbDimension
  2
*D4
 10
91.3455595902
 20
150.6139292069
 30
0.0
 11
144.8701544933
 21
150.6139292069
 31
0.0
 70
   160
 71
     2
 42
-1.0
  3
SLDDIMSTYLE0
100
AcDbAlignedDimension
 13
203.2455595902
 23
120.6940127457
 33
0.0
 14
91.3455595902
 24
123.6588310138
 34
0.0
100
AcDbRotatedDimension
  0
DIMENSION
  5
16E
330
1F
100
AcDbEntity
  8
VERMASSUNG
100
AcDbDimension
  2
*D5
 10
210.812832278
 20
95.9681532673
 30
0.0
 11
210.812832278
 21
103.4993596958
 31
0.0
 70
   160
  1
%%c<>
 71
     2
 42
-1.0
  3
SLDDIMSTYLE0
100
AcDbAlignedDimension
 13
202.9455595902
 23
111.9681532673
 33
0.0
 14
202.9455595902
 24
95.9681532673
 34
0.0
 50
90.0
100
AcDbRotatedDimension
  0
DIMENSION
  5
179
330
1F
100
AcDbEntity
  8
VERMASSUNG
100
AcDbDimension
  2
*D6
 10
216.812832278
 20
79.9681532673
 30
0.0
 11
216.812832278
 21
103.5977626342
 31
0.0
 70
   160
  1
%%c<>
 71
     2
 42
-1.0
  3
SLDDIMSTYLE0
100
AcDbAlignedDimension
 13
190.3785180672
 23
127.9681532673
 33
0.0
 14
190.3785180672
 24
79.9681532673
 34
0.0
 50
90.0
100
AcDbRotatedDimension
  0
LINE
  5
184
330
1F
100
AcDbEntity
  8
VERMASSUNG
  6
CENTERX2
 62
     7
370
     0
100
AcDbLine
 10
135.4411799359
 20
130.3244685534
 30
0.0
 11
135.4411799359
 21
119.7185571887
 31
0.0
  0
LINE
  5
185
330
1F
100
AcDbEntity
  8
VERMASSUNG
  6
CENTERX2
 62
     7
370
     0
100
AcDbLine
 10
89.2002557479
 20
103.9681532673
 30
0.0
 11
204.2648476639
 21
103.9681532673
 31
0.0
  0
OLE2FRAME
  5
186
330
1F
100
AcDbEntity
  8
0
100
AcDbOle2Frame
 70
     2
  3
Bitmap Image
 10
13.8511154363
 20
38.264191557
 30
0.0
 11
51.6290888628
 21
31.9806341108
 31
0.0
 71
     2
 72
     0
 73
     1
 90
    12928
310
80552BED0767C5B32B40DDAF6807D121434000000000000000006FFBDDFB85D0
310
4940DDAF6807D121434000000000000000006FFBDDFB85D04940416F4BD60AFB
310
3F4000000000000000002BED0767C5B32B40416F4BD60AFB3F40000000000000
310
0000000000000100000000010000010000000100000000000100000000320000
310
D0CF11E0A1B11AE1000000000000000000000000000000003E000300FEFF0900
310
0600000000000000000000000100000001000000000000000010000002000000
310
01000000FEFFFFFF0000000000000000FFFFFFFFFFFFFFFFFFFFFFFFFFFFFFFF
310
FFFFFFFFFFFFFFFFFFFFFFFFFFFFFFFFFFFFFFFFFFFFFFFFFFFFFFFFFFFFFFFF
310
FFFFFFFFFFFFFFFFFFFFFFFFFFFFFFFFFFFFFFFFFFFFFFFFFFFFFFFFFFFFFFFF
310
FFFFFFFFFFFFFFFFFFFFFFFFFFFFFFFFFFFFFFFFFFFFFFFFFFFFFFFFFFFFFFFF
310
FFFFFFFFFFFFFFFFFFFFFFFFFFFFFFFFFFFFFFFFFFFFFFFFFFFFFFFFFFFFFFFF
310
FFFFFFFFFFFFFFFFFFFFFFFFFFFFFFFFFFFFFFFFFFFFFFFFFFFFFFFFFFFFFFFF
310
FFFFFFFFFFFFFFFFFFFFFFFFFFFFFFFFFFFFFFFFFFFFFFFFFFFFFFFFFFFFFFFF
310
FFFFFFFFFFFFFFFFFFFFFFFFFFFFFFFFFFFFFFFFFFFFFFFFFFFFFFFFFFFFFFFF
310
FFFFFFFFFFFFFFFFFFFFFFFFFFFFFFFFFFFFFFFFFFFFFFFFFFFFFFFFFFFFFFFF
310
FFFFFFFFFFFFFFFFFFFFFFFFFFFFFFFFFFFFFFFFFFFFFFFFFFFFFFFFFFFFFFFF
310
FFFFFFFFFFFFFFFFFFFFFFFFFFFFFFFFFFFFFFFFFFFFFFFFFFFFFFFFFFFFFFFF
310
FFFFFFFFFFFFFFFFFFFFFFFFFFFFFFFFFFFFFFFFFFFFFFFFFFFFFFFFFFFFFFFF
310
FFFFFFFFFFFFFFFFFFFFFFFFFFFFFFFFFFFFFFFFFFFFFFFFFFFFFFFFFFFFFFFF
310
FFFFFFFFFFFFFFFFFFFFFFFFFFFFFFFFFFFFFFFFFFFFFFFFFFFFFFFFFFFFFFFF
310
FDFFFFFFFEFFFFFFFEFFFFFFFEFFFFFF05000000060000000700000008000000
310
090000000A0000000B0000000C0000000D0000000E0000000F00000010000000
310
11000000120000001300000014000000150000001600000017000000FEFFFFFF
310
FFFFFFFFFFFFFFFFFFFFFFFFFFFFFFFFFFFFFFFFFFFFFFFFFFFFFFFFFFFFFFFF
310
FFFFFFFFFFFFFFFFFFFFFFFFFFFFFFFFFFFFFFFFFFFFFFFFFFFFFFFFFFFFFFFF
310
FFFFFFFFFFFFFFFFFFFFFFFFFFFFFFFFFFFFFFFFFFFFFFFFFFFFFFFFFFFFFFFF
310
FFFFFFFFFFFFFFFFFFFFFFFFFFFFFFFFFFFFFFFFFFFFFFFFFFFFFFFFFFFFFFFF
310
FFFFFFFFFFFFFFFFFFFFFFFFFFFFFFFFFFFFFFFFFFFFFFFFFFFFFFFFFFFFFFFF
310
FFFFFFFFFFFFFFFFFFFFFFFFFFFFFFFFFFFFFFFFFFFFFFFFFFFFFFFFFFFFFFFF
310
FFFFFFFFFFFFFFFFFFFFFFFFFFFFFFFFFFFFFFFFFFFFFFFFFFFFFFFFFFFFFFFF
310
FFFFFFFFFFFFFFFFFFFFFFFFFFFFFFFFFFFFFFFFFFFFFFFFFFFFFFFFFFFFFFFF
310
FFFFFFFFFFFFFFFFFFFFFFFFFFFFFFFFFFFFFFFFFFFFFFFFFFFFFFFFFFFFFFFF
310
FFFFFFFFFFFFFFFFFFFFFFFFFFFFFFFFFFFFFFFFFFFFFFFFFFFFFFFFFFFFFFFF
310
FFFFFFFFFFFFFFFFFFFFFFFFFFFFFFFFFFFFFFFFFFFFFFFFFFFFFFFFFFFFFFFF
310
FFFFFFFFFFFFFFFFFFFFFFFFFFFFFFFFFFFFFFFFFFFFFFFFFFFFFFFFFFFFFFFF
310
FFFFFFFFFFFFFFFFFFFFFFFFFFFFFFFFFFFFFFFFFFFFFFFFFFFFFFFFFFFFFFFF
310
52006F006F007400200045006E00740072007900000000000000000000000000
310
0000000000000000000000000000000000000000000000000000000000000000
310
16000500FFFFFFFFFFFFFFFF020000000A00030000000000C000000000000046
310
000000000000000000000000D0843CA42AFFCB0103000000C000000000000000
310
01004F006C006500000000000000000000000000000000000000000000000000
310
0000000000000000000000000000000000000000000000000000000000000000
310
0A000200FFFFFFFFFFFFFFFFFFFFFFFF00000000000000000000000000000000
310
0000000000000000000000000000000000000000000000001400000000000000
310
010043006F006D0070004F0062006A0000000000000000000000000000000000
310
0000000000000000000000000000000000000000000000000000000000000000
310
120002010100000003000000FFFFFFFF00000000000000000000000000000000
310
0000000000000000000000000000000000000000010000004D00000000000000
310
01004F006C006500310030004E00610074006900760065000000000000000000
310
0000000000000000000000000000000000000000000000000000000000000000
310
1A000200FFFFFFFFFFFFFFFFFFFFFFFF00000000000000000000000000000000
310
0000000000000000000000000000000000000000040000002426000000000000
310
FEFFFFFF02000000FEFFFFFFFFFFFFFFFFFFFFFFFFFFFFFFFFFFFFFFFFFFFFFF
310
FFFFFFFFFFFFFFFFFFFFFFFFFFFFFFFFFFFFFFFFFFFFFFFFFFFFFFFFFFFFFFFF
310
FFFFFFFFFFFFFFFFFFFFFFFFFFFFFFFFFFFFFFFFFFFFFFFFFFFFFFFFFFFFFFFF
310
FFFFFFFFFFFFFFFFFFFFFFFFFFFFFFFFFFFFFFFFFFFFFFFFFFFFFFFFFFFFFFFF
310
FFFFFFFFFFFFFFFFFFFFFFFFFFFFFFFFFFFFFFFFFFFFFFFFFFFFFFFFFFFFFFFF
310
FFFFFFFFFFFFFFFFFFFFFFFFFFFFFFFFFFFFFFFFFFFFFFFFFFFFFFFFFFFFFFFF
310
FFFFFFFFFFFFFFFFFFFFFFFFFFFFFFFFFFFFFFFFFFFFFFFFFFFFFFFFFFFFFFFF
310
FFFFFFFFFFFFFFFFFFFFFFFFFFFFFFFFFFFFFFFFFFFFFFFFFFFFFFFFFFFFFFFF
310
FFFFFFFFFFFFFFFFFFFFFFFFFFFFFFFFFFFFFFFFFFFFFFFFFFFFFFFFFFFFFFFF
310
FFFFFFFFFFFFFFFFFFFFFFFFFFFFFFFFFFFFFFFFFFFFFFFFFFFFFFFFFFFFFFFF
310
FFFFFFFFFFFFFFFFFFFFFFFFFFFFFFFFFFFFFFFFFFFFFFFFFFFFFFFFFFFFFFFF
310
FFFFFFFFFFFFFFFFFFFFFFFFFFFFFFFFFFFFFFFFFFFFFFFFFFFFFFFFFFFFFFFF
310
FFFFFFFFFFFFFFFFFFFFFFFFFFFFFFFFFFFFFFFFFFFFFFFFFFFFFFFFFFFFFFFF
310
FFFFFFFFFFFFFFFFFFFFFFFFFFFFFFFFFFFFFFFFFFFFFFFFFFFFFFFFFFFFFFFF
310
FFFFFFFFFFFFFFFFFFFFFFFFFFFFFFFFFFFFFFFFFFFFFFFFFFFFFFFFFFFFFFFF
310
FFFFFFFFFFFFFFFFFFFFFFFFFFFFFFFFFFFFFFFFFFFFFFFFFFFFFFFFFFFFFFFF
310
010000020000000000000000000000000000000061007200650064005C003100
310
30002E0030005C0044004C004C005300680061007200650064005C003B004300
310
0100FEFF030A0000FFFFFFFF0A00030000000000C00000000000004607000000
310
5042727573680007000000504272757368000700000050427275736800F439B2
310
71000000000000000000000000004100540049002E004100430045005C004300
310
6F00720065002D005300740061007400690063003B0043003A005C0050007200
310
6F006700720061006D002000460069006C006500730020002800780038003600
310
29005C0043006F006D006D006F006E002000460069006C00650073005C004100
310
750074006F006400650073006B0020005300680061007200650064005C003B00
310
43003A005C00500072006F006700720061006D002000460069006C0065007300
310
5C004E006F0072006D0061006E005C004E0070006D005C00420069006E000000
310
43003A005C00500072006F006700720061006D002000460069006C0065007300
310
5C0053006F006C006900640057006F0072006B007300200043006F0072007000
310
5C0053006F006C006900640057006F0072006B00730020002800320029005C00
310
730065007400750070005C0069003300380036005C0073007700610063007400
310
770069007A002E006500780065000000220043003A005C00500072006F006700
310
20260000424D0E260000000000003E00000028000000B40200006E0000000100
310
01000000000000000000130B0000130B00000200000002000000000000FFFFFF
310
FFFFFFFFFFFFFFFFFFFFFFFFFFFFFFFFFFFFFFFFFFFFFFFFFFFFFFFFFFFFFFFF
310
FFFFFFFFFFFFFFFFFFFFFFFFFFFFFFFFFFFFFFFFFFFFFFFFFFFFFFFFFFFFFFFF
310
FFFFFFFFFFFFFFFFFFFFFFFFFFFFFFFFFFFFFFFFFFFFFFFFF000FFFFFFFFFFFF
310
FFFFFFFFFFFFFFFFFFFFFFFFFFFFFFFFFFFFFFFFFFFFFFFFFFFFFFFFFFFFFFFF
310
FFFFFFFFFFFFFFFFFFFFFFFFFFFFFFFFFFFFFFFFFFFFFFFFFFFFFFFFFFFFFFFF
310
FFFFFFFFFFFFFFFFFFFFFFFFFFFFFFFFF000FFFFFFFFFFFFFFFFFFFFFFFFFFFF
310
FFFFFFFFFFFFFFFFFFFFFFFFFFFFFFFFFFFFFFFFFFFFFFFFFFFFFFFFFFFFFFFF
310
FFFFFFFFFFFFFFFFFFFFFFFFFFFFFFFFFFFFFFFFFFFFFFFFFFFFFFFFFFFFFFFF
310
FFFFFFFFFFFFFFFFF000FFFFFFFFFFFFFFFFFFFFFFFFFFFFFFFFFFFFFFFFFFFF
310
FFFFFFFFFFFFFFFFFFFFFFFFFFFFFFFFFFFFFFFFFFFFFFFFFFFFFFFFFFFFFFFF
310
FFFFFFFFFFFFFFFFFFFFFFFFFFFFFFFFFFFFFFFFFFFFFFFFFFFFFFFFFFFFFFFF
310
F000FFFFFFFFFFFFFFFFFFFFFFFFFFFFFFFFFFFFFFFFFFFFFFFFFFFFFFFFFFFF
310
FFFFFFFFFFFFFFFFFFFFFFFFFFFFFFFFFFFFFFFFFFFFFFFFFFFFFFFFFFFFFFFF
310
FFFFFFFFFFFFFFFFFFFFFFFFFFFFFFFFFFFFFFFFFFFFFFFFF000FFFFFFFFFFFF
310
FFFFFFFFFFFFFFFFFFFFFFFFFFFFFFFFFFFFFFFFFFFFFFFFFFFFFFFFFFFFFFFF
310
FFFFFFFFFFFFFFFFFFFFFFFFFFFFFFFFFFFFFFFFFFFFFFFFFFFFFFFFFFFFFFFF
310
FFFFFFFFFFFFFFFFFFFFFFFFFFFFFFFFF000FFFFFFFFFFFFFFFFFFFFFFFFFFFF
310
FFFFFFFFFFFFFFFFFFFFFFFFFFFFFFFFFFFFFFFFFFFFFFFFFFFFFFFFFFFFFFFF
310
FFFFFFFFFFFFFFFFFFFFFFFFFFFFFFFFFFFFFFFFFFFFFFFFFFFFFFFFFFFFFFFF
310
FFFFFFFFFFFFFFFFF000FFFFFFFFFFFFFFFFFFFFFFFFFFFFFFFFFFFFFFFFFFFF
310
FFFFFFFFFFFFFFFFFFFFFFFFFFFFFFFFFFFFFFFFFFFFFFFFFFFFFFFFFFFFFFFF
310
FFFFFFFFFFFFFFFFFFFFFFFFFFFFFFFFFFFFFFFFFFFFFFFFFFFFFFFFFFFFFFFF
310
F000FFFFFFFFFFFFFFFFFFFFFFFFFFFFFFFFFFFFFFFFFFFFFFFFFFFFFFFFFFFF
310
FFFFFFFFFFFFFFFFFFFFFFFFFFFFFFFFFFFFFFFFFFFFFFFFFFFFFFFFFFFFFFFF
310
FFFFFFFFFFFFFFFFFFFFFFFFFFFFFFFFFFFFFFFFFFFFFFFFF000FFFFFFFFFFFF
310
FFFFFFFFFFFFFFFFFFFFFFFFFFFFFFFFFFFFFFFFFFFFFFFFFFFFFFFFFFFFFFFF
310
FFFFFFFFFFFFFFFFFFFFFFFFFFFFFFFFFFFFFFFFFFFFFFFFFFFFFFFFFFFFFFFF
310
FFFFFFFFFFFFFFFFFFFFFFFFFFFFFFFFF000FFFFFFFFFFFFFFFFFFFFFFFFFFFF
310
FFFFFFFFFFFFFFFFFFFFFFFFFFFFFFFFFFFFFFFFFFFFFFFFFFFFFFFFFFFFFFFF
310
FFFFFFFFFFFFFFFFFFFFFFFFFFFFFFFFFFFFFFFFFFFFFFFFFFFFFFFFFFFFFFFF
310
FFFFFFFFFFFFFFFFF000FFFFFFFFFFFFFFFFFFFFFFFFFFFFFFFFFFFFFFFFFFFF
310
FFFFFFFFFFFFFFFFFFFFFFFFFFFFFFFFFFFFFFFFFFFFFFFFFFFFFFFFFFFFFFFF
310
FFFFFFFFFFFFFFFFFFFFFFFFFFFFFFFFFFFFFFFFFFFFFFFFFFFFFFFFFFFFFFFF
310
F000FFFFFFFFFFFFFFFFFFFFFFFFFFFFFFFFFFFFFFFFFFFFFFFFFFFFFFFFFFFF
310
FFFFFFFFFFFFFFFFFFFFFFFFFFFFFFFFFFFFFFFFFFFFFFFFFFFFFFFFFFFFFFFF
310
FFFFFFFFFFFFFFFFFFFFFFFFFFFFFFFFFFFFFFFFFFFFFFFFF000FFFFFFFFFFFF
310
FFFFFFFFFFFFFFFFFFFFFFFFFFFFFFFFFFFFFFFFFFFFFFFFFFFFFFFFFFFFFFFF
310
FFFFFFFFFFFFFFFFFFFFFFFFFFFFFFFFFFFFFFFFFFFFFFFFFFFFFFFFFFFFFFFF
310
FFFFFFFFFFFFFFFFFFFFFFFFFFFFFFFFF000FFFFFFFFFFFFFFFFFFFFFFFFFFFF
310
FFFFFFFFFFFFFFFFFFFFFFFFFFFFFFFFFFFFFFFFFFFFFFFFFFFFFFFFFFFFFFFF
310
FFFFFFFFFFFFFFFFFFFFFFFFFFFFFFFFFFFFFFFFFFFFFFFFFFFFFFFFFFFFFFFF
310
FFFFFFFFFFFFFFFFF000FFFFFFFFFFFFFFFFFFFFFFFFFFFFFFFFFFFFFFFFFFFF
310
FFFFFFFFFFFFFFFFFFFFFFFFFFFFFFFFFFFFFFFFFFFFFFFFFFFFFFFFFFFFFFFF
310
FFFFFFFFFFFFFFFFFFFFFFFFFFFFFFFFFFFFFFFFFFFFFFFFFFFFFFFFFFFFFFFF
310
F000FFFFFFFFFFFFFFFFFFFFFFFFFFFFFFFFFFFFFFFFFFFFFFFFFFFFFFFFFFFF
310
FFFFFFFFFFFFFFFFFFFFFFFFFFFFFFFFFFFFFFFFFFFFFFFFFFFFFFFFFFFFFFFF
310
FFFFFFFFFFFFFFFFFFFFFFFFFFFFFFFFFFFFFFFFFFFFFFFFF000FFFFFFFFFFFF
310
FFFFFFFFFFFFFFFFFFFFFFFFFFFFFFFFFFFFFFFFFFFFFFFFFFFFFFFFFFFFFFFF
310
FFFFFFFFFFFFFFFFFFFFFFFFFFFFFFFFFFFFFFFFFFFFFFFFFFFFFFFFFFFFFFFF
310
FFFFFFFFFFFFFFFFFFFFFFFFFFFFFFFFF000FFFFFFFFFFFFFFFFFFFFFFFFFFFF
310
FFFFFFFFFFFFFFFFFFFFFFFFFFFFFFFFFFFFFFFFFFFFFFFFFFFFFFFFFFFFFFFF
310
FFFFFFFFFFFFFFFFFFFFFFFFFFFFFFFFFFFFFFFFFFFFFFFFFFFFFFFFFFFFFFFF
310
FFFFFFFFFFFFFFFFF000FFFFF80003FFFFFFFFFFFFFFFFFFFFFFFFFFFFFFFFFF
310
FFFFF00007FFFFFFFFFF00007FFFFFF800000000000000007FFFFFFFFFFFFFFF
310
FFFFFFFC001FFFFFFFFFFFFFFC001FFFFFFFFFFFFFFFFFFFFFFFFFFE0007FFFF
310
F000FFFF8000007FFFFFFFF8000FFFFFC0007FFFFF80007FFFFF0000007FFFFF
310
FFF8000007FFFFF800000000000000007FFFFFF0001FFFFFFFFFFFC00001FFFF
310
FFFFFFFFC00001FFFFFFFF000000000003FFFFE000007FFFF000FFFE0000000F
310
FFFFFFF0000FFFFF80007FFFFF80007FFFFC0000001FFFFFFFC0000001FFFFF8
310
00000000000000007FFFFFF0001FFFFFFFFFFE0000003FFFFFFFFFFE0000003F
310
FFFFFF000000000003FFFF0000000FFFF000FFF800000003FFFFFFF00007FFFF
310
80007FFFFF80007FFFF000000007FFFFFF000000003FFFF80000000000000000
310
7FFFFFF0001FFFFFFFFFF80000000FFFFFFFFFF80000000FFFFFFF0000000000
310
03FFFC00000003FFF000FFE000000000FFFFFFF00007FFFF80003FFFFF80007F
310
FFC000000001FFFFFC000000001FFFF800000000000000007FFFFFF0001FFFFF
310
FFFFE000000003FFFFFFFFE000000003FFFFFF000000000003FFF000000000FF
310
F000FF80000000007FFFFFF00007FFFF80003FFFFF80007FFF8000000000FFFF
310
F80000000007FFF800000000000000007FFFFFF0001FFFFFFFFFC000000001FF
310
FFFFFFC000000001FFFFFF000000000003FFC0000000007FF000FF0000000000
310
3FFFFFE00007FFFF00003FFFFF80007FFE00000000003FFFF00000000003FFF8
310
00000000000000007FFFFFF0001FFFFFFFFF8000000000FFFFFFFF8000000000
310
FFFFFF000000000003FF80000000003FF000FE00000000001FFFFFE00003FFFF
310
00003FFFFF80007FFC00000000001FFFE00000000001FFF8000001FFFE000000
310
7FFFFFF0001FFFFFFFFE00000000003FFFFFFE00000000003FFFFF0000000000
310
03FF00000000001FF000FC00000000000FFFFFE00003FFFF00001FFFFF80007F
310
F800000000001FFFC00000000000FFF8000001FFFE0000007FFFFFF0001FFFFF
310
FFFC00000000001FFFFFFC00000000001FFFFF000000000003FE00000000000F
310
F000F8000000000007FFFFE00003FFFF00001FFFFF80007FF800000000000FFF
310
800000000000FFF8000001FFFE0000007FFFFFF0001FFFFFFFF800000000000F
310
FFFFF800000000000FFFFF000000000003FC000000000007F000F80000000000
310
03FFFFC00003FFFE00001FFFFF80007FF0000000000007FF0000000000007FF8
310
000001FFFE0000007FFFFFF0001FFFFFFFF0000000000007FFFFF00000000000
310
07FFFF000000000003F8000000000003F000F0000000000003FFFFC00001FFFE
310
00001FFFFF80007FE0000000000007FE0000000000003FF8000001FFFE000000
310
7FFFFFF0001FFFFFFFF0000000000007FFFFF0000000000007FFFF0000000000
310
03F800001F800003F000E00001FFF00001FFFFC00001FFFE00000FFFFF80007F
310
E00001FFE00003FE00001FFF00003FF8000001FFFE0000007FFFFFF0001FFFFF
310
FFE000003E000003FFFFE000003E000003FFFF000000000003F00001FFF80001
310
F000E00007FFFC0001FFFFC00001FFFE00000FFFFF80007FC0000FFFFC0003FC
310
0000FFFFC0001FF8000001FFFE0000007FFFFFF0001FFFFFFFC00003FFE00001
310
FFFFC00003FFE00001FFFF0001FFFFFFFFF00007FFFE0001F000E0000FFFFF00
310
00FFFF800001FFFC00000FFFFF80007FC0001FFFFE0001FC0001FFFFE0001FF8
310
000001FFFE0000007FFFFFF0001FFFFFFF80000FFFF80000FFFF80000FFFF800
310
00FFFF0003FFFFFFFFE0000FFFFF8000F000C0003FFFFF8000FFFF800000FFFC
310
000007FFFF80007F80003FFFFF0001FC0003FFFFF0001FF8000001FFFE000000
310
7FFFFFF0001FFFFFFF80003FFFFE0000FFFF80003FFFFE0000FFFF0003FFFFFF
310
FFE0003FFFFF8000F000C0003FFFFF8000FFFF800000FFFC000007FFFF80007F
310
80007FFFFF8001F80007FFFFF8000FF8000001FFFE0000007FFFFFF0001FFFFF
310
FF00007FFFFF00007FFF00007FFFFF00007FFF0003FFFFFFFFE0003FFFFFC000
310
F000C0007FFFFFC000FFFF000000FFFC000007FFFF80007F8000FFFFFF8000F8
310
000FFFFFF8000FF8000001FFFE0000007FFFFFF0001FFFFFFF0000FFFFFF8000
310
7FFF0000FFFFFF80007FFF0003FFFFFFFFC0007FFFFFC00070008000FFFFFFC0
310
00FFFF000000FFF8000007FFFF80007F8000FFFFFF8000F8000FFFFFF8000FF8
310
000001FFFE0000007FFFFFF0001FFFFFFE0001FFFFFFC0003FFE0001FFFFFFC0
310
003FFF0003FFFFFFFFC0007FFFFFE00070008000FFFFFFC0007FFF0000007FF8
310
000003FFFF80007F0001FFFFFF8000F8000FFFFFF8000FF8000001FFFE000000
310
7FFFFFF0001FFFFFFE0001FFFFFFC0003FFE0001FFFFFFC0003FFF0003FFFFFF
310
FFC000FFFFFFE00070008000FFFFFFC0007FFF0000007FF8000003FFFF80007F
310
0001FFFFFF8000F8001FFFFFF8000FF8000001FFFE0000007FFFFFF0001FFFFF
310
FE0003FFFFFFE0003FFE0003FFFFFFE0003FFF0003FFFFFFFFC000FFFFFFE000
310
70008000FFFFFFC0007FFE0000007FF8000003FFFF80007F0001FFFFFF8000F0
310
001FFFFFF8000FF8000001FFFE0000007FFFFFF0001FFFFFFC0003FFFFFFE000
310
1FFC0003FFFFFFE0001FFF0003FFFFFFFFC000FFFFFFC00070008000FFFFFF80
310
007FFE0000007FF0000003FFFF80007F0001FFFFFF0000F0001FFFFFF8000FF8
310
000001FFFE0000007FFFFFF0001FFFFFFC0007FFFFFFF0001FFC0007FFFFFFF0
310
001FFF0003FFFFFFFFC000FFFFFFC00070008001FFFFFF0000FFFE0000003FF0
310
000001FFFF80007F0001FFFFFF0000F8001FFFFFF0000FF8000001FFFE000000
310
7FFFFFF0001FFFFFFC0007FFFFFFF0001FFC0007FFFFFFF0001FFF0003FFFFFF
310
FFC001FFFFFF80007000FFFFFFFFFE0000FFFE0008003FF0008001FFFF80007F
310
FFFFFFFFFC0000FFFFFFFFFFE0000FF8000001FFFE0000007FFFFFF0001FFFFF
310
F8000FFFFFFFF8000FF8000FFFFFFFF8000FFF0003FFFFFFFFFFFFFFFFFF0000
310
7000FFFFFFFFFC0000FFFC0008003FF0008001FFFF80007FFFFFFFFFF80001FF
310
FFFFFFFF80000FF8000001FFFE0000007FFFFFF0001FFFFFF8000FFFFFFFF800
310
0FF8000FFFFFFFF8000FFF0003FFFFFFFFFFFFFFFFFE0000F000FFFFFFFFE000
310
00FFFC000C003FE000C001FFFF80007FFFFFFFFFC00001FFFFFFFFFE00001FF8
310
000001FFFE0000007FFFFFF0001FFFFFF8000FFFFFFFF8000FF8000FFFFFFFF8
310
000FFF0003FFFFFFFFFFFFFFFFF00000F000FFFFFFFE000001FFFC000C001FE0
310
00C000FFFF80007FFFFFFFFE000001FFFFFFFFE000001FF80FFFFFFFFFFFFFC0
310
7FFFFFF0001FFFFFF8000FFFFFFFF8000FF8000FFFFFFFF8000FFF0003FFFFFF
310
FFFFFFFFFF800000F000FFFFFFC0000001FFFC001C001FE001C000FFFF80007F
310
FFFFFF80000003FFFFFFF80000001FF80FFFFFFFFFFFFFC07FFFFFF0001FFFFF
310
F8001FFFFFFFFC000FF8001FFFFFFFFC000FFF0003FFFFFFFFFFFFFFF0000001
310
F000FFFFF800000001FFF8001C001FE001C000FFFF80007FFFFFF800000003FF
310
FFFF800000003FF80FFFFFFFFFFFFFC07FFFFFF0001FFFFFF8001FFFFFFFFC00
310
0FF8001FFFFFFFFC000FFF0003FFFFFFFFFFFFFE00000001F000FFFFC0000000
310
03FFF8001E001FC001E000FFFF80007FFFFF8000000007FFFFFC000000003FF8
310
0FFFFFFFFFFFFFC07FFFFFF0001FFFFFF8001FFFFFFFFC000FF8001FFFFFFFFC
310
000FFF0003FFFFFFFFFFFFE000000003F000FFFE0000000007FFF8001E000FC0
310
01E0007FFF80007FFFFE0000000007FFFFE0000000007FF80FFFFFFFFFFFFFC0
310
7FFFFFF0001FFFFFF0001FFFFFFFFC0007F0001FFFFFFFFC0007FF0003FFFFFF
310
FFFFFF0000000003F000FFF80000000007FFF8001E000FC003E0007FFF80007F
310
FFF0000000000FFFFF8000000000FFF80FFFFFFFFFFFFFC07FFFFFF0001FFFFF
310
F0001FFFFFFFFC0007F0001FFFFFFFFC0007FF0003FFFFFFFFFFFC0000000007
310
F000FFE0000000000FFFF0003E000FC003E0007FFF80007FFFC0000000001FFF
310
FE0000000001FFF80FFFFFFFFFFFFFC07FFFFFF0001FFFFFF0001FFFFFFFFC00
310
07F0001FFFFFFFFC0007FF0003FFFFFFFFFFF0000000000FF000FFC000000000
310
1FFFF0003F000F8003F0003FFF80007FFF80000000003FFFF80000000003FFF8
310
0FFFFFFFFFFFFFC07FFFFFF0001FFFFFF0001FFFFFFFFC0007F0001FFFFFFFFC
310
0007FF0003FFFFFFFFFFE0000000001FF000FF00000000007FFFF0003F000780
310
03F0003FFF80007FFF00000000007FFFF00000000007FFF80FFFFFFFFFFFFFC0
310
7FFFFFF0001FFFFFF0001FFFFFFFFC0007F0001FFFFFFFFC0007FF0003FFFFFF
310
FFFF80000000007FF000FE0000000000FFFFE0003F00078007F0003FFF80007F
310
FE0000000001FFFFE0000000001FFFF80FFFFFFFFFFFFFC07FFFFFF0001FFFFF
310
F0001FFFFFFFFC0007F0001FFFFFFFFC0007FF0003FFFFFFFFFF0000000000FF
310
F000FC0000000003FFFFE0007F00078007F0003FFF80007FFC0000000007FFFF
310
C0000000007FFFF80FFFFFFFFFFFFFC07FFFFFF0001FFFFFF8001FFFFFFFFC00
310
0FF8001FFFFFFFFC000FFF0003FFFFFFFFFE0000000003FFF000FC000000000F
310
FFFFE0007F80070007F8001FFF80007FF8000000001FFFFF8000000001FFFFF8
310
0FFFFFFFFFFFFFC07FFFFFF0001FFFFFF8001FFFFFFFFC000FF8001FFFFFFFFC
310
000FFF0003FFFFFFFFFC000000000FFFF000F8000000007FFFFFE0007F800700
310
07F8001FFF80007FF000000000FFFFFF800000000FFFFFF80FFFFFFFFFFFFFC0
310
7FFFFFF0001FFFFFF8000FFFFFFFF8000FF8000FFFFFFFF8000FFF0003FFFFFF
310
FFFC000000007FFFF000F800000007FFFFFFC0007F8003000FF8001FFF80007F
310
F000000007FFFFFF000000007FFFFFF80FFFFFFFFFFFFFC07FFFFFF0001FFFFF
310
F8000FFFFFFFF8000FF8000FFFFFFFF8000FFF0003FFFFFFFFF80000000FFFFF
310
F000F0000000FFFFFFFFC000FF8003000FF8001FFF80007FE0000000FFFFFFFF
310
0000000FFFFFFFF8000001FFFE0000007FFFFFF0001FFFFFF8000FFFFFFFF800
310
0FF8000FFFFFFFF8000FFF0003FFFFFFFFF8000000FFFFFFF000F000000FFFFF
310
FFFFC000FFC002000FF8000FFF80007FE000001FFFFFFFFE000001FFFFFFFFF8
310
000001FFFE0000007FFFFFF0001FFFFFF8000FFFFFFFF8000FF8000FFFFFFFF8
310
000FFF0003FFFFFFFFF000001FFFFFFFF000E00000FFFFFFFFFFC000FFC00200
310
0FFC000FFF80007FE00001FFFFFFFFFE00001FFFFFFFFFF8000001FFFE000000
310
7FFFFFF0001FFFFFFC000FFFFFFFF8001FFC000FFFFFFFF8001FFF0003FFFFFF
310
FFF00001FFFFFFFFF000E00007FFFFFFFFFF8000FFC000001FFC000FFF80007F
310
C0000FFFFFFFFFFE0000FFFFFFFFFFF8000001FFFE0000007FFFFFF0001FFFFF
310
FC0007FFFFFFF0001FFC0007FFFFFFF0001FFF0003FFFFFFFFF00007FFFFFFFF
310
F000E0001FFFFFFFFFFF8000FFC000001FFC000FFF80007FC0003FFFFFFFFFFE
310
0001FFFFFFFFFFF8000001FFFE0000007FFFFFF0001FFFFFFC0007FFFFFFF000
310
1FFC0007FFFFFFF0001FFF0003FFFFFFFFF0001FFFFFFFFFF000E0003FFFFF00
310
03FF8001FFE000001FFC0007FF80007FC0007FFFFF0007FC0003FFFFF0003FF8
310
000001FFFE0000007FFFFFF0001FFFFFFC0003FFFFFFE0001FFC0003FFFFFFE0
310
001FFF0003FFFFFFFFF0003FFFFFFFFFF000E0003FFFFF0001FF8001FFE00000
310
1FFE0007FF80007FC0007FFFFE0003FC0007FFFFE0003FF8000001FFFE000000
310
7FFFFFF0001FFFFFFE0003FFFFFFE0003FFE0003FFFFFFE0003FFF0003FFFFFF
310
FFF0003FFFFF8001F000E0003FFFFF0001FF0001FFE000001FFE0007FF80007F
310
C0007FFFFE0003FC0007FFFFE0003FF8000001FFFE0000007FFFFFF0001FFFFF
310
FE0001FFFFFFC0003FFE0001FFFFFFC0003FFF0003FFFFFFFFF0003FFFFF0001
310
F000E0003FFFFF0003FF0001FFE000003FFE0007FF80007FC0007FFFFE0003FC
310
0007FFFFE0003FF8000001FFFE0000007FFFFFF0001FFFFFFF0001FFFFFFC000
310
7FFF0001FFFFFFC0007FFF0003FFFFFFFFF0003FFFFF0001F000E0003FFFFE00
310
03FF0003FFF000003FFE0003FF80007FC0007FFFFC0003FE0007FFFFE0003FF8
310
000001FFFE0000007FFFFFF0001FFFFFFF0000FFFFFF80007FFF0000FFFFFF80
310
007FFF0003FFFFFFFFF0003FFFFF0001F000E0003FFFFE0003FF0003FFF00000
310
3FFF0003FF80007FC0007FFFFC0007FE0007FFFFC0003FF8000001FFFE000000
310
7FFFFFF0001FFFFFFF80007FFFFF0000FFFF80007FFFFF0000FFFF0003FFFFFF
310
FFF0003FFFFF0003F000E0003FFFFC0003FE0003FFF000003FFF0003FF80007F
310
E0003FFFF80007FE0003FFFFC0007FF8000001FFFE0000007FFFFFF0001FFFFF
310
FF80003FFFFE0000FFFF80003FFFFE0000FFFF0003FFFFFFFFF0001FFFFE0003
310
F000F0001FFFF80003FE0003FFF000007FFF0001FF80007FE0003FFFF00007FE
310
0001FFFF80007FF8000001FFFE0000007FFFFFF0001FFFFFFFC0000FFFF80001
310
FFFFC0000FFFF80001FFFF0003FFFFFFFFF0001FFFFC0003F000F0000FFFF000
310
07FE0007FFF800007FFF0001FF80007FE0001FFFE00007FF0000FFFE00007FF8
310
000001FFFE0000007FFFFFF0001FFFFFFFC00003FFE00001FFFFC00003FFE000
310
01FFFF0003FFFFFFFFF8000FFFF80003F000F00003FFC00007FC0007FFF80000
310
7FFF8001FF80007FF00007FF80000FFF00007FF80000FFF8000001FFFE000000
310
7F80000000000001FFE000003E000003FFFFE000003E000003FFFF0003FFFFFF
310
FFF80003FFE00007F000F800000000000FFC0007FFF800007FFF8001FF80007F
310
F000000000000FFF000000000000FFF8000001FFFE0000007F80000000000001
310
FFF0000000000007FFFFF0000000000007FFFF0003FFFFFFFFFC00007E000007
310
F000F800000000000FFC0007FFF80000FFFF8000FF80007FF800000000001FFF
310
800000000001FFF8000001FFFE0000007F80000000000001FFF800000000000F
310
FFFFF800000000000FFFFF0003FFFFFFFFFC00000000000FF000FC0000000000
310
1FFC0007FFFC0000FFFF8000FF80007FF800000000003FFFC00000000001FFF8
310
000001FFFE0000007F80000000000001FFF800000000000FFFFFF80000000000
310
0FFFFF0003FFFFFFFFFE00000000001FF000FE00000000003FF8000FFFFC0000
310
FFFF8000FF80007FFC00000000003FFFC00000000003FFF8000001FFFE000000
310
7F80000000000001FFFC00000000001FFFFFFC00000000001FFFFF0003FFFFFF
310
FFFF00000000001FF000FF00000000003FF8000FFFFC0000FFFFC000FF80007F
310
FE00000000007FFFE00000000007FFF8000001FFFE0000007F80000000000001
310
FFFE00000000003FFFFFFE00000000003FFFFF0003FFFFFFFFFF80000000003F
310
F000FF80000000007FF8000FFFFC0001FFFFC0007F80007FFF0000000000FFFF
310
F0000000000FFFF800000000000000007F80000000000001FFFF8000000000FF
310
FFFFFF8000000000FFFFFF0003FFFFFFFFFFC0000000007FF000FFC000000000
310
FFF8000FFFFE0001FFFFC0007F80007FFF8000000001FFFFF8000000001FFFF8
310
00000000000000007F80000000000001FFFFC000000001FFFFFFFFC000000001
310
FFFFFF0003FFFFFFFFFFE000000000FFF000FFE000000003FFF0001FFFFE0001
310
FFFFC0007F80007FFFC000000007FFFFFE000000003FFFF80000000000000000
310
7F80000000000001FFFFE000000003FFFFFFFFE000000003FFFFFF0003FFFFFF
310
FFFFF000000003FFF000FFF80000000FFFF0001FFFFE0001FFFFE0007F80007F
310
FFF00000000FFFFFFF00000000FFFFF800000000000000007F80000000000001
310
FFFFF80000000FFFFFFFFFF80000000FFFFFFF0003FFFFFFFFFFFC0000000FFF
310
F000FFFE0000003FFFF0001FFFFE0003FFFFE0003F80007FFFFC0000003FFFFF
310
FFC0000003FFFFF800000000000000007F80000000000001FFFFFE0000003FFF
310
FFFFFFFE0000003FFFFFFF0003FFFFFFFFFFFF0000003FFFF000FFFF800000FF
310
FFF0001FFFFF0003FFFFE0003F80007FFFFF000001FFFFFFFFF800001FFFFFF8
310
00000000000000007F80000000000001FFFFFFC00001FFFFFFFFFFFFC00001FF
310
FFFFFF0003FFFFFFFFFFFFC00000FFFFF000FFFFF8000FFFFFFFFFFFFFFFFFFF
310
FFFFFFFFFFFFFFFFFFFFF0001FFFFFFFFFFF0000FFFFFFF80000000000000000
310
7FFFFFFFFFFFFFFFFFFFFFFC001FFFFFFFFFFFFFFC001FFFFFFFFFFFFFFFFFFF
310
FFFFFFFC001FFFFFF000FFFFFFFFFFFFFFFFFFFFFFFFFFFFFFFFFFFFFFFFFFFF
310
FFFFFFFFFFFFFFFFFFFFFFFFFFFFFFFFFFFFFFFFFFFFFFFFFFFFFFFFFFFFFFFF
310
FFFFFFFFFFFFFFFFFFFFFFFFFFFFFFFFFFFFFFFFFFFFFFFFFFFFFFFFFFFFFFFF
310
F000FFFFFFFFFFFFFFFFFFFFFFFFFFFFFFFFFFFFFFFFFFFFFFFFFFFFFFFFFFFF
310
FFFFFFFFFFFFFFFFFFFFFFFFFFFFFFFFFFFFFFFFFFFFFFFFFFFFFFFFFFFFFFFF
310
FFFFFFFFFFFFFFFFFFFFFFFFFFFFFFFFFFFFFFFFFFFFFFFFF000FFFFFFFFFFFF
310
FFFFFFFFFFFFFFFFFFFFFFFFFFFFFFFFFFFFFFFFFFFFFFFFFFFFFFFFFFFFFFFF
310
FFFFFFFFFFFFFFFFFFFFFFFFFFFFFFFFFFFFFFFFFFFFFFFFFFFFFFFFFFFFFFFF
310
FFFFFFFFFFFFFFFFFFFFFFFFFFFFFFFFF000FFFFFFFFFFFFFFFFFFFFFFFFFFFF
310
FFFFFFFFFFFFFFFFFFFFFFFFFFFFFFFFFFFFFFFFFFFFFFFFFFFFFFFFFFFFFFFF
310
FFFFFFFFFFFFFFFFFFFFFFFFFFFFFFFFFFFFFFFFFFFFFFFFFFFFFFFFFFFFFFFF
310
FFFFFFFFFFFFFFFFF000FFFFFFFFFFFFFFFFFFFFFFFFFFFFFFFFFFFFFFFFFFFF
310
FFFFFFFFFFFFFFFFFFFFFFFFFFFFFFFFFFFFFFFFFFFFFFFFFFFFFFFFFFFFFFFF
310
FFFFFFFFFFFFFFFFFFFFFFFFFFFFFFFFFFFFFFFFFFFFFFFFFFFFFFFFFFFFFFFF
310
F000FFFFFFFFFFFFFFFFFFFFFFFFFFFFFFFFFFFFFFFFFFFFFFFFFFFFFFFFFFFF
310
FFFFFFFFFFFFFFFFFFFFFFFFFFFFFFFFFFFFFFFFFFFFFFFFFFFFFFFFFFFFFFFF
310
FFFFFFFFFFFFFFFFFFFFFFFFFFFFFFFFFFFFFFFFFFFFFFFFF000FFFFFFFFFFFF
310
FFFFFFFFFFFFFFFFFFFFFFFFFFFFFFFFFFFFFFFFFFFFFFFFFFFFFFFFFFFFFFFF
310
FFFFFFFFFFFFFFFFFFFFFFFFFFFFFFFFFFFFFFFFFFFFFFFFFFFFFFFFFFFFFFFF
310
FFFFFFFFFFFFFFFFFFFFFFFFFFFFFFFFF000FFFFFFFFFFFFFFFFFFFFFFFFFFFF
310
FFFFFFFFFFFFFFFFFFFFFFFFFFFFFFFFFFFFFFFFFFFFFFFFFFFFFFFFFFFFFFFF
310
FFFFFFFFFFFFFFFFFFFFFFFFFFFFFFFFFFFFFFFFFFFFFFFFFFFFFFFFFFFFFFFF
310
FFFFFFFFFFFFFFFFF000FFFFFFFFFFFFFFFFFFFFFFFFFFFFFFFFFFFFFFFFFFFF
310
FFFFFFFFFFFFFFFFFFFFFFFFFFFFFFFFFFFFFFFFFFFFFFFFFFFFFFFFFFFFFFFF
310
FFFFFFFFFFFFFFFFFFFFFFFFFFFFFFFFFFFFFFFFFFFFFFFFFFFFFFFFFFFFFFFF
310
F000FFFFFFFFFFFFFFFFFFFFFFFFFFFFFFFFFFFFFFFFFFFFFFFFFFFFFFFFFFFF
310
FFFFFFFFFFFFFFFFFFFFFFFFFFFFFFFFFFFFFFFFFFFFFFFFFFFFFFFFFFFFFFFF
310
FFFFFFFFFFFFFFFFFFFFFFFFFFFFFFFFFFFFFFFFFFFFFFFFF000FFFFFFFFFFFF
310
FFFFFFFFFFFFFFFFFFFFFFFFFFFFFFFFFFFFFFFFFFFFFFFFFFFFFFFFFFFFFFFF
310
FFFFFFFFFFFFFFFFFFFFFFFFFFFFFFFFFFFFFFFFFFFFFFFFFFFFFFFFFFFFFFFF
310
FFFFFFFFFFFFFFFFFFFFFFFFFFFFFFFFF000FFFFFFFFFFFFFFFFFFFFFFFFFFFF
310
FFFFFFFFFFFFFFFFFFFFFFFFFFFFFFFFFFFFFFFFFFFFFFFFFFFFFFFFFFFFFFFF
310
FFFFFFFFFFFFFFFFFFFFFFFFFFFFFFFFFFFFFFFFFFFFFFFFFFFFFFFFFFFFFFFF
310
FFFFFFFFFFFFFFFFF000FFFFFFFFFFFFFFFFFFFFFFFFFFFFFFFFFFFFFFFFFFFF
310
FFFFFFFFFFFFFFFFFFFFFFFFFFFFFFFFFFFFFFFFFFFFFFFFFFFFFFFFFFFFFFFF
310
FFFFFFFFFFFFFFFFFFFFFFFFFFFFFFFFFFFFFFFFFFFFFFFFFFFFFFFFFFFFFFFF
310
F000FFFFFFFFFFFFFFFFFFFFFFFFFFFFFFFFFFFFFFFFFFFFFFFFFFFFFFFFFFFF
310
FFFFFFFFFFFFFFFFFFFFFFFFFFFFFFFFFFFFFFFFFFFFFFFFFFFFFFFFFFFFFFFF
310
FFFFFFFFFFFFFFFFFFFFFFFFFFFFFFFFFFFFFFFFFFFFFFFFF000FFFFFFFFFFFF
310
FFFFFFFFFFFFFFFFFFFFFFFFFFFFFFFFFFFFFFFFFFFFFFFFFFFFFFFFFFFFFFFF
310
FFFFFFFFFFFFFFFFFFFFFFFFFFFFFFFFFFFFFFFFFFFFFFFFFFFFFFFFFFFFFFFF
310
FFFFFFFFFFFFFFFFFFFFFFFFFFFFFFFFF000FFFFFFFFFFFFFFFFFFFFFFFFFFFF
310
FFFFFFFFFFFFFFFFFFFFFFFFFFFFFFFFFFFFFFFFFFFFFFFFFFFFFFFFFFFFFFFF
310
FFFFFFFFFFFFFFFFFFFFFFFFFFFFFFFFFFFFFFFFFFFFFFFFFFFFFFFFFFFFFFFF
310
FFFFFFFFFFFFFFFFF000FFFFFFFFFFFFFFFFFFFFFFFFFFFFFFFFFFFFFFFFFFFF
310
FFFFFFFFFFFFFFFFFFFFFFFFFFFFFFFFFFFFFFFFFFFFFFFFFFFFFFFFFFFFFFFF
310
FFFFFFFFFFFFFFFFFFFFFFFFFFFFFFFFFFFFFFFFFFFFFFFFFFFFFFFFFFFFFFFF
310
F000FFFFFFFFFFFFFFFFFFFFFFFFFFFFFFFFFFFFFFFFFFFFFFFFFFFFFFFFFFFF
310
FFFFFFFFFFFFFFFFFFFFFFFFFFFFFFFFFFFFFFFFFFFFFFFFFFFFFFFFFFFFFFFF
310
FFFFFFFFFFFFFFFFFFFFFFFFFFFFFFFFFFFFFFFFFFFFFFFFF000FFFFFFFFFFFF
310
FFFFFFFFFFFFFFFFFFFFFFFFFFFFFFFFFFFFFFFFFFFFFFFFFFFFFFFFFFFFFFFF
310
FFFFFFFFFFFFFFFFFFFFFFFFFFFFFFFFFFFFFFFFFFFFFFFFFFFFFFFFFFFFFFFF
310
FFFFFFFFFFFFFFFFFFFFFFFFFFFFFFFFF000FFFFFFFFFFFFFFFFFFFFFFFFFFFF
310
FFFFFFFFFFFFFFFFFFFFFFFFFFFFFFFFFFFFFFFFFFFFFFFFFFFFFFFFFFFFFFFF
310
FFFFFFFFFFFFFFFFFFFFFFFFFFFFFFFFFFFFFFFFFFFFFFFFFFFFFFFFFFFFFFFF
310
FFFFFFFFFFFFFFFFF000FFFFFFFFFFFFFFFFFFFFFFFFFFFFFFFFFFFFFFFFFFFF
310
FFFFFFFFFFFFFFFFFFFFFFFFFFFFFFFFFFFFFFFFFFFFFFFFFFFFFFFFFFFFFFFF
310
FFFFFFFFFFFFFFFFFFFFFFFFFFFFFFFFFFFFFFFFFFFFFFFFFFFFFFFFFFFFFFFF
310
F000FFFFFFFFFFFFFFFFFFFFFFFFFFFFFFFFFFFFFFFFFFFFFFFFFFFFFFFFFFFF
310
FFFFFFFFFFFFFFFFFFFFFFFFFFFFFFFFFFFFFFFFFFFFFFFFFFFFFFFFFFFFFFFF
310
FFFFFFFFFFFFFFFFFFFFFFFFFFFFFFFFFFFFFFFFFFFFFFFFF000FFFFFFFFFFFF
310
FFFFFFFFFFFFFFFFFFFFFFFFFFFFFFFFFFFFFFFFFFFFFFFFFFFFFFFFFFFFFFFF
310
FFFFFFFFFFFFFFFFFFFFFFFFFFFFFFFFFFFFFFFFFFFFFFFFFFFFFFFFFFFFFFFF
310
FFFFFFFFFFFFFFFFFFFFFFFFFFFFFFFFF0000000000000000000000000000000
310
0000000001000000000000000100000000000000010000000000000001000000
310
0000000001000000000000000100000000000000010000000000000001000000
310
0000000001000000000000000100000000000000010000000000000000000000
310
0000000000000000000000000000000000000000000000000000000000000000
310
0000000000000000B2020B030000000530860857000000003004045700000000
310
0000000000000000000000000000000000000000000000000000000000000000
310
0000000000000000000000000000000000000000000000000000000000000000
310
0000000000000000000000000000000000000000000000000000000000000000
310
0000000000000000000000000000000000000000000000000000000000000000
310
0000000000000000000000000000000000000000000000000000000000000000
310
0000000000000000A6023A010000000530D6085700000000C802250000000000
310
0000000000000000000000000000000000000000000000000000000000000000
310
0000000000000000000000000000000000000000000000000000000000000000
310
0000000000000000000000000000000000000000000000000000000000000000
310
0000000000000000000000000000000000000000000000000000000000000000
  1
OLE
  0
ENDSEC
  0
SECTION
  2
OBJECTS
  0
DICTIONARY
  5
C
330
0
100
AcDbDictionary
281
     1
  3
ACAD_GROUP
350
D
  3
ACAD_LAYOUT
350
1A
  3
ACAD_MLEADERSTYLE
350
188
  3
ACAD_MLINESTYLE
350
17
  3
ACAD_PLOTSETTINGS
350
19
  3
ACAD_PLOTSTYLENAME
350
E
  3
ACAD_TABLESTYLE
350
187
  3
ACAD_VISUALSTYLE
350
2A
  3
AcDbVariableDictionary
350
189
  0
DICTIONARY
  5
D
102
{ACAD_REACTORS
330
C
102
}
330
C
100
AcDbDictionary
281
     1
  0
DICTIONARY
  5
1A
102
{ACAD_REACTORS
330
C
102
}
330
C
100
AcDbDictionary
281
     1
  3
Layout1
350
1E
  3
Layout2
350
26
  3
Model
350
22
  0
DICTIONARY
  5
188
102
{ACAD_REACTORS
330
C
102
}
330
C
100
AcDbDictionary
281
     1
  0
DICTIONARY
  5
17
102
{ACAD_REACTORS
330
C
102
}
330
C
100
AcDbDictionary
281
     1
  3
Standard
350
18
  0
DICTIONARY
  5
19
102
{ACAD_REACTORS
330
C
102
}
330
C
100
AcDbDictionary
281
     1
  0
ACDBDICTIONARYWDFLT
  5
E
102
{ACAD_REACTORS
330
C
102
}
330
C
100
AcDbDictionary
281
     1
  3
Normal
350
F
100
AcDbDictionaryWithDefault
340
F
  0
DICTIONARY
  5
187
102
{ACAD_REACTORS
330
C
102
}
330
C
100
AcDbDictionary
281
     1
  0
DICTIONARY
  5
2A
102
{ACAD_REACTORS
330
C
102
}
330
C
100
AcDbDictionary
281
     1
  3
2dWireframe
350
2F
  3
3D Hidden
350
31
  3
3dWireframe
350
30
  3
Basic
350
32
  3
Brighten
350
36
  3
ColorChange
350
3A
  3
Conceptual
350
34
  3
Dim
350
35
  3
Facepattern
350
39
  3
Flat
350
2B
  3
FlatWithEdges
350
2C
  3
Gouraud
350
2D
  3
GouraudWithEdges
350
2E
  3
Linepattern
350
38
  3
Realistic
350
33
  3
Thicken
350
37
  0
DICTIONARY
  5
189
102
{ACAD_REACTORS
330
C
102
}
330
C
100
AcDbDictionary
281
     1
  3
PSOLHEIGHT
350
18B
  3
PSOLWIDTH
350
18A
  0
LAYOUT
  5
1E
102
{ACAD_REACTORS
330
1A
102
}
330
1A
100
AcDbPlotSettings
  1

  2
none_device
  4

  6

 40
0.0
 41
0.0
 42
0.0
 43
0.0
 44
0.0
 45
0.0
 46
0.0
 47
0.0
 48
0.0
 49
0.0
140
0.0
141
0.0
142
1.0
143
1.0
 70
   688
 72
     0
 73
     0
 74
     5
  7

 75
    16
147
1.0
148
0.0
149
0.0
100
AcDbLayout
  1
Layout1
 70
     1
 71
     1
 10
0.0
 20
0.0
 11
420.0
 21
297.0
 12
0.0
 22
0.0
 32
0.0
 14
1.0000000000E+20
 24
1.0000000000E+20
 34
1.0000000000E+20
 15
-1.0000000000E+20
 25
-1.0000000000E+20
 35
-1.0000000000E+20
146
0.0
 13
0.0
 23
0.0
 33
0.0
 16
1.0
 26
0.0
 36
0.0
 17
0.0
 27
1.0
 37
0.0
 76
     0
330
1B
  0
LAYOUT
  5
26
102
{ACAD_REACTORS
330
1A
102
}
330
1A
100
AcDbPlotSettings
  1

  2
none_device
  4

  6

 40
0.0
 41
0.0
 42
0.0
 43
0.0
 44
0.0
 45
0.0
 46
0.0
 47
0.0
 48
0.0
 49
0.0
140
0.0
141
0.0
142
1.0
143
1.0
 70
   688
 72
     0
 73
     0
 74
     5
  7

 75
    16
147
1.0
148
0.0
149
0.0
100
AcDbLayout
  1
Layout2
 70
     1
 71
     2
 10
0.0
 20
0.0
 11
0.0
 21
0.0
 12
0.0
 22
0.0
 32
0.0
 14
0.0
 24
0.0
 34
0.0
 15
0.0
 25
0.0
 35
0.0
146
0.0
 13
0.0
 23
0.0
 33
0.0
 16
1.0
 26
0.0
 36
0.0
 17
0.0
 27
1.0
 37
0.0
 76
     0
330
23
  0
LAYOUT
  5
22
102
{ACAD_REACTORS
330
1A
102
}
330
1A
100
AcDbPlotSettings
  1

  2
none_device
  4

  6

 40
0.0
 41
0.0
 42
0.0
 43
0.0
 44
0.0
 45
0.0
 46
0.0
 47
0.0
 48
0.0
 49
0.0
140
0.0
141
0.0
142
1.0
143
1.0
 70
  1712
 72
     0
 73
     0
 74
     0
  7

 75
     0
147
1.0
148
0.0
149
0.0
100
AcDbLayout
  1
Model
 70
     1
 71
     0
 10
0.0
 20
0.0
 11
297.0
 21
210.0
 12
0.0
 22
0.0
 32
0.0
 14
0.0
 24
0.0
 34
0.0
 15
297.0
 25
210.0
 35
0.0
146
0.0
 13
0.0
 23
0.0
 33
0.0
 16
1.0
 26
0.0
 36
0.0
 17
0.0
 27
1.0
 37
0.0
 76
     0
330
1F
331
29
  0
MLINESTYLE
  5
18
102
{ACAD_REACTORS
330
17
102
}
330
17
100
AcDbMlineStyle
  2
Standard
 70
     0
  3

 62
   256
 51
90.0
 52
90.0
 71
     2
 49
0.5
 62
   256
  6
BYLAYER
 49
-0.5
 62
   256
  6
BYLAYER
  0
ACDBPLACEHOLDER
  5
F
102
{ACAD_REACTORS
330
E
102
}
330
E
  0
VISUALSTYLE
  5
2F
102
{ACAD_REACTORS
330
2A
102
}
330
2A
100
AcDbVisualStyle
  2
2dWireframe
 70
     4
 71
     0
 72
     2
 73
     0
 90
        0
 40
-0.6
 41
-30.0
 62
     5
 63
     7
 74
     1
 91
        4
 64
     7
 65
   257
 75
     1
175
     1
 42
1.0
 92
        0
 66
   257
 43
1.0
 76
     1
 77
     6
 78
     2
 67
     7
 79
     5
170
     0
171
     0
290
     0
174
     0
 93
        1
 44
0.0
173
     0
291
     0
 45
0.0
1001
ACAD
1000
AcDbSavedByObjectVersion
1070
     0
  0
VISUALSTYLE
  5
31
102
{ACAD_REACTORS
330
2A
102
}
330
2A
100
AcDbVisualStyle
  2
3D Hidden
 70
     6
 71
     1
 72
     2
 73
     2
 90
        0
 40
-0.6
 41
-30.0
 62
     5
 63
     7
 74
     2
 91
        2
 64
     7
 65
   257
 75
     2
175
     1
 42
40.0
 92
        0
 66
   257
 43
1.0
 76
     1
 77
     6
 78
     2
 67
     7
 79
     3
170
     0
171
     0
290
     0
174
     0
 93
        1
 44
0.0
173
     0
291
     0
 45
0.0
1001
ACAD
1000
AcDbSavedByObjectVersion
1070
     0
  0
VISUALSTYLE
  5
30
102
{ACAD_REACTORS
330
2A
102
}
330
2A
100
AcDbVisualStyle
  2
3dWireframe
 70
     5
 71
     0
 72
     2
 73
     0
 90
        0
 40
-0.6
 41
-30.0
 62
     5
 63
     7
 74
     1
 91
        4
 64
     7
 65
   257
 75
     1
175
     1
 42
1.0
 92
        0
 66
   257
 43
1.0
 76
     1
 77
     6
 78
     2
 67
     7
 79
     5
170
     0
171
     0
290
     0
174
     0
 93
        1
 44
0.0
173
     0
291
     0
 45
0.0
1001
ACAD
1000
AcDbSavedByObjectVersion
1070
     0
  0
VISUALSTYLE
  5
32
102
{ACAD_REACTORS
330
2A
102
}
330
2A
100
AcDbVisualStyle
  2
Basic
 70
     7
 71
     1
 72
     0
 73
     1
 90
        0
 40
-0.6
 41
-30.0
 62
     5
 63
     7
 74
     0
 91
        4
 64
     7
 65
   257
 75
     1
175
     1
 42
1.0
 92
        8
 66
     7
 43
1.0
 76
     1
 77
     6
 78
     2
 67
     7
 79
     5
170
     0
171
     0
290
     0
174
     0
 93
        1
 44
0.0
173
     0
291
     1
 45
0.0
1001
ACAD
1000
AcDbSavedByObjectVersion
1070
     0
  0
VISUALSTYLE
  5
36
102
{ACAD_REACTORS
330
2A
102
}
330
2A
100
AcDbVisualStyle
  2
Brighten
 70
    12
 71
     2
 72
     2
 73
     0
 90
        0
 40
-0.6
 41
-30.0
 62
     5
 63
     7
 74
     1
 91
        4
 64
     7
 65
   257
 75
     1
175
     1
 42
1.0
 92
        8
 66
     7
 43
1.0
 76
     1
 77
     6
 78
     2
 67
     7
 79
     5
170
     0
171
     0
290
     0
174
     0
 93
        1
 44
50.0
173
     0
291
     1
 45
0.0
1001
ACAD
1000
AcDbSavedByObjectVersion
1070
     0
  0
VISUALSTYLE
  5
3A
102
{ACAD_REACTORS
330
2A
102
}
330
2A
100
AcDbVisualStyle
  2
ColorChange
 70
    16
 71
     2
 72
     2
 73
     3
 90
        0
 40
-0.6
 41
-30.0
 62
     5
 63
     8
 74
     1
 91
        4
 64
     7
 65
   257
 75
     1
175
     1
 42
1.0
 92
        8
 66
     8
 43
1.0
 76
     1
 77
     6
 78
     2
 67
     7
 79
     5
170
     0
171
     0
290
     0
174
     0
 93
        1
 44
0.0
173
     0
291
     1
 45
0.0
1001
ACAD
1000
AcDbSavedByObjectVersion
1070
     0
  0
VISUALSTYLE
  5
34
102
{ACAD_REACTORS
330
2A
102
}
330
2A
100
AcDbVisualStyle
  2
Conceptual
 70
     9
 71
     3
 72
     2
 73
     0
 90
        0
 40
-0.6
 41
-30.0
 62
     5
 63
     7
 74
     2
 91
        2
 64
     7
 65
   257
 75
     1
175
     1
 42
40.0
 92
        8
 66
     7
 43
1.0
 76
     1
 77
     6
 78
     2
 67
     7
 79
     3
170
     0
171
     0
290
     0
174
     0
 93
        1
 44
0.0
173
     0
291
     0
 45
0.0
1001
ACAD
1000
AcDbSavedByObjectVersion
1070
     0
  0
VISUALSTYLE
  5
35
102
{ACAD_REACTORS
330
2A
102
}
330
2A
100
AcDbVisualStyle
  2
Dim
 70
    11
 71
     2
 72
     2
 73
     0
 90
        0
 40
-0.6
 41
-30.0
 62
     5
 63
     7
 74
     1
 91
        4
 64
     7
 65
   257
 75
     1
175
     1
 42
1.0
 92
        8
 66
     7
 43
1.0
 76
     1
 77
     6
 78
     2
 67
     7
 79
     5
170
     0
171
     0
290
     0
174
     0
 93
        1
 44
-50.0
173
     0
291
     1
 45
0.0
1001
ACAD
1000
AcDbSavedByObjectVersion
1070
     0
  0
VISUALSTYLE
  5
39
102
{ACAD_REACTORS
330
2A
102
}
330
2A
100
AcDbVisualStyle
  2
Facepattern
 70
    15
 71
     2
 72
     2
 73
     0
 90
        0
 40
-0.6
 41
-30.0
 62
     5
 63
     7
 74
     1
 91
        4
 64
     7
 65
   257
 75
     1
175
     1
 42
1.0
 92
        8
 66
     7
 43
1.0
 76
     1
 77
     6
 78
     2
 67
     7
 79
     5
170
     0
171
     0
290
     0
174
     0
 93
        1
 44
0.0
173
     0
291
     1
 45
0.0
1001
ACAD
1000
AcDbSavedByObjectVersion
1070
     0
  0
VISUALSTYLE
  5
2B
102
{ACAD_REACTORS
330
2A
102
}
330
2A
100
AcDbVisualStyle
  2
Flat
 70
     0
 71
     2
 72
     1
 73
     1
 90
        2
 40
-0.6
 41
30.0
 62
     5
 63
     7
 74
     0
 91
        4
 64
     7
 65
   257
 75
     1
175
     1
 42
1.0
 92
        8
 66
     7
 43
1.0
 76
     1
 77
     6
 78
     2
 67
     7
 79
     5
170
     0
171
     0
290
     0
174
     0
 93
       13
 44
0.0
173
     0
291
     1
 45
0.0
1001
ACAD
1000
AcDbSavedByObjectVersion
1070
     0
  0
VISUALSTYLE
  5
2C
102
{ACAD_REACTORS
330
2A
102
}
330
2A
100
AcDbVisualStyle
  2
FlatWithEdges
 70
     1
 71
     2
 72
     1
 73
     1
 90
        2
 40
-0.6
 41
30.0
 62
     5
 63
     7
 74
     1
 91
        4
 64
     7
 65
   257
 75
     1
175
     1
 42
1.0
 92
        0
 66
   257
 43
1.0
 76
     1
 77
     6
 78
     2
 67
     7
 79
     5
170
     0
171
     0
290
     0
174
     0
 93
       13
 44
0.0
173
     0
291
     1
 45
0.0
1001
ACAD
1000
AcDbSavedByObjectVersion
1070
     0
  0
VISUALSTYLE
  5
2D
102
{ACAD_REACTORS
330
2A
102
}
330
2A
100
AcDbVisualStyle
  2
Gouraud
 70
     2
 71
     2
 72
     2
 73
     1
 90
        2
 40
-0.6
 41
30.0
 62
     5
 63
     7
 74
     0
 91
        4
 64
     7
 65
   257
 75
     1
175
     1
 42
1.0
 92
        0
 66
     7
 43
1.0
 76
     1
 77
     6
 78
     2
 67
     7
 79
     5
170
     0
171
     0
290
     0
174
     0
 93
       13
 44
0.0
173
     0
291
     1
 45
0.0
1001
ACAD
1000
AcDbSavedByObjectVersion
1070
     0
  0
VISUALSTYLE
  5
2E
102
{ACAD_REACTORS
330
2A
102
}
330
2A
100
AcDbVisualStyle
  2
GouraudWithEdges
 70
     3
 71
     2
 72
     2
 73
     1
 90
        2
 40
-0.6
 41
30.0
 62
     5
 63
     7
 74
     1
 91
        4
 64
     7
 65
   257
 75
     1
175
     1
 42
1.0
 92
        0
 66
   257
 43
1.0
 76
     1
 77
     6
 78
     2
 67
     7
 79
     5
170
     0
171
     0
290
     0
174
     0
 93
       13
 44
0.0
173
     0
291
     1
 45
0.0
1001
ACAD
1000
AcDbSavedByObjectVersion
1070
     0
  0
VISUALSTYLE
  5
38
102
{ACAD_REACTORS
330
2A
102
}
330
2A
100
AcDbVisualStyle
  2
Linepattern
 70
    14
 71
     2
 72
     2
 73
     0
 90
        0
 40
-0.6
 41
-30.0
 62
     5
 63
     7
 74
     1
 91
        4
 64
     7
 65
   257
 75
     7
175
     7
 42
1.0
 92
        8
 66
     7
 43
1.0
 76
     1
 77
     6
 78
     2
 67
     7
 79
     5
170
     0
171
     0
290
     0
174
     0
 93
        1
 44
0.0
173
     0
291
     1
 45
0.0
1001
ACAD
1000
AcDbSavedByObjectVersion
1070
     0
  0
VISUALSTYLE
  5
33
102
{ACAD_REACTORS
330
2A
102
}
330
2A
100
AcDbVisualStyle
  2
Realistic
 70
     8
 71
     2
 72
     2
 73
     0
 90
        0
 40
-0.6
 41
-30.0
 62
     5
 63
     7
 74
     1
 91
        0
 64
     7
 65
   257
 75
     1
175
     1
 42
1.0
 92
        8
 66
     8
 43
1.0
 76
     1
 77
     6
 78
     2
 67
     7
 79
     5
170
     0
171
     0
290
     0
174
     0
 93
       13
 44
0.0
173
     0
291
     0
 45
0.0
1001
ACAD
1000
AcDbSavedByObjectVersion
1070
     0
  0
VISUALSTYLE
  5
37
102
{ACAD_REACTORS
330
2A
102
}
330
2A
100
AcDbVisualStyle
  2
Thicken
 70
    13
 71
     2
 72
     2
 73
     0
 90
        0
 40
-0.6
 41
-30.0
 62
     5
 63
     7
 74
     1
 91
        4
 64
     7
 65
   257
 75
     1
175
     1
 42
1.0
 92
       12
 66
     7
 43
1.0
 76
     1
 77
     6
 78
     2
 67
     7
 79
     5
170
     0
171
     0
290
     0
174
     0
 93
        1
 44
0.0
173
     0
291
     1
 45
0.0
1001
ACAD
1000
AcDbSavedByObjectVersion
1070
     0
  0
DICTIONARYVAR
  5
18B
102
{ACAD_REACTORS
330
189
102
}
330
189
100
DictionaryVariables
280
     0
  1
80.000000
  0
DICTIONARYVAR
  5
18A
102
{ACAD_REACTORS
330
189
102
}
330
189
100
DictionaryVariables
280
     0
  1
5.000000
  0
ENDSEC
  0
EOF
