  0
SECTION
  2
HEADER
  9
$ACADVER
  1
AC1015
  9
$ACADMAINTVER
 70
     6
  9
$DWGCODEPAGE
  3
ANSI_1252
  9
$INSBASE
 10
0.0
 20
0.0
 30
0.0
  9
$EXTMIN
 10
0.0
 20
0.0
 30
0.0
  9
$EXTMAX
 10
297.0
 20
210.0
 30
0.0
  9
$LIMMIN
 10
0.0
 20
0.0
  9
$LIMMAX
 10
297.0
 20
210.0
  9
$ORTHOMODE
 70
     0
  9
$REGENMODE
 70
     1
  9
$FILLMODE
 70
     1
  9
$QTEXTMODE
 70
     0
  9
$MIRRTEXT
 70
     1
  9
$LTSCALE
 40
1.0
  9
$ATTMODE
 70
     1
  9
$TEXTSIZE
 40
2.0
  9
$TRACEWID
 40
1.0
  9
$TEXTSTYLE
  7
Standard
  9
$CLAYER
  8
0
  9
$CELTYPE
  6
ByLayer
  9
$CECOLOR
 62
   256
  9
$CELTSCALE
 40
1.0
  9
$DISPSILH
 70
     0
  9
$DIMSCALE
 40
1.0
  9
$DIMASZ
 40
3.0
  9
$DIMEXO
 40
0.0
  9
$DIMDLI
 40
3.75
  9
$DIMRND
 40
0.0
  9
$DIMDLE
 40
0.0
  9
$DIMEXE
 40
1.0
  9
$DIMTP
 40
0.0
  9
$DIMTM
 40
0.0
  9
$DIMTXT
 40
2.0
  9
$DIMCEN
 40
2.5
  9
$DIMTSZ
 40
0.0
  9
$DIMTOL
 70
     0
  9
$DIMLIM
 70
     0
  9
$DIMTIH
 70
     1
  9
$DIMTOH
 70
     1
  9
$DIMSE1
 70
     0
  9
$DIMSE2
 70
     0
  9
$DIMTAD
 70
     1
  9
$DIMZIN
 70
     0
  9
$DIMBLK
  1

  9
$DIMASO
 70
     1
  9
$DIMSHO
 70
     1
  9
$DIMPOST
  1

  9
$DIMAPOST
  1

  9
$DIMALT
 70
     0
  9
$DIMALTD
 70
     3
  9
$DIMALTF
 40
0.0393700787
  9
$DIMLFAC
 40
1.0
  9
$DIMTOFL
 70
     1
  9
$DIMTVP
 40
0.0
  9
$DIMTIX
 70
     0
  9
$DIMSOXD
 70
     0
  9
$DIMSAH
 70
     0
  9
$DIMBLK1
  1

  9
$DIMBLK2
  1

  9
$DIMSTYLE
  2
ISO-25
  9
$DIMCLRD
 70
     0
  9
$DIMCLRE
 70
     0
  9
$DIMCLRT
 70
     0
  9
$DIMTFAC
 40
1.0
  9
$DIMGAP
 40
1.524
  9
$DIMJUST
 70
     0
  9
$DIMSD1
 70
     0
  9
$DIMSD2
 70
     0
  9
$DIMTOLJ
 70
     0
  9
$DIMTZIN
 70
     0
  9
$DIMALTZ
 70
     0
  9
$DIMALTTZ
 70
     0
  9
$DIMUPT
 70
     0
  9
$DIMDEC
 70
     2
  9
$DIMTDEC
 70
     3
  9
$DIMALTU
 70
     2
  9
$DIMALTTD
 70
     3
  9
$DIMTXSTY
  7
Standard
  9
$DIMAUNIT
 70
     0
  9
$DIMADEC
 70
     2
  9
$DIMALTRND
 40
0.0
  9
$DIMAZIN
 70
     0
  9
$DIMDSEP
 70
    44
  9
$DIMATFIT
 70
     3
  9
$DIMFRAC
 70
     0
  9
$DIMLDRBLK
  1

  9
$DIMLUNIT
 70
     2
  9
$DIMLWD
 70
    -2
  9
$DIMLWE
 70
    -2
  9
$DIMTMOVE
 70
     0
  9
$LUNITS
 70
     2
  9
$LUPREC
 70
     2
  9
$SKETCHINC
 40
1.0
  9
$FILLETRAD
 40
10.0
  9
$AUNITS
 70
     0
  9
$AUPREC
 70
     2
  9
$MENU
  1
.
  9
$ELEVATION
 40
0.0
  9
$PELEVATION
 40
0.0
  9
$THICKNESS
 40
0.0
  9
$LIMCHECK
 70
     0
  9
$CHAMFERA
 40
10.0
  9
$CHAMFERB
 40
10.0
  9
$CHAMFERC
 40
20.0
  9
$CHAMFERD
 40
0.0
  9
$SKPOLY
 70
     0
  9
$TDCREATE
 40
2455673.407525718
  9
$TDUCREATE
 40
2455673.324192384
  9
$TDUPDATE
 40
2455673.407525729
  9
$TDUUPDATE
 40
2455673.324192396
  9
$TDINDWG
 40
0.0000000116
  9
$TDUSRTIMER
 40
0.0000000116
  9
$USRTIMER
 70
     1
  9
$ANGBASE
 50
0.0
  9
$ANGDIR
 70
     0
  9
$PDMODE
 70
     0
  9
$PDSIZE
 40
-1.0
  9
$PLINEWID
 40
0.0
  9
$SPLFRAME
 70
     0
  9
$SPLINETYPE
 70
     6
  9
$SPLINESEGS
 70
     8
  9
$HANDSEED
  5
21A
  9
$SURFTAB1
 70
     6
  9
$SURFTAB2
 70
     6
  9
$SURFTYPE
 70
     6
  9
$SURFU
 70
     6
  9
$SURFV
 70
     6
  9
$UCSBASE
  2

  9
$UCSNAME
  2

  9
$UCSORG
 10
0.0
 20
0.0
 30
0.0
  9
$UCSXDIR
 10
1.0
 20
0.0
 30
0.0
  9
$UCSYDIR
 10
0.0
 20
1.0
 30
0.0
  9
$UCSORTHOREF
  2

  9
$UCSORTHOVIEW
 70
     0
  9
$UCSORGTOP
 10
0.0
 20
0.0
 30
0.0
  9
$UCSORGBOTTOM
 10
0.0
 20
0.0
 30
0.0
  9
$UCSORGLEFT
 10
0.0
 20
0.0
 30
0.0
  9
$UCSORGRIGHT
 10
0.0
 20
0.0
 30
0.0
  9
$UCSORGFRONT
 10
0.0
 20
0.0
 30
0.0
  9
$UCSORGBACK
 10
0.0
 20
0.0
 30
0.0
  9
$PUCSBASE
  2

  9
$PUCSNAME
  2

  9
$PUCSORG
 10
0.0
 20
0.0
 30
0.0
  9
$PUCSXDIR
 10
1.0
 20
0.0
 30
0.0
  9
$PUCSYDIR
 10
0.0
 20
1.0
 30
0.0
  9
$PUCSORTHOREF
  2

  9
$PUCSORTHOVIEW
 70
     0
  9
$PUCSORGTOP
 10
0.0
 20
0.0
 30
0.0
  9
$PUCSORGBOTTOM
 10
0.0
 20
0.0
 30
0.0
  9
$PUCSORGLEFT
 10
0.0
 20
0.0
 30
0.0
  9
$PUCSORGRIGHT
 10
0.0
 20
0.0
 30
0.0
  9
$PUCSORGFRONT
 10
0.0
 20
0.0
 30
0.0
  9
$PUCSORGBACK
 10
0.0
 20
0.0
 30
0.0
  9
$USERI1
 70
     0
  9
$USERI2
 70
     0
  9
$USERI3
 70
     0
  9
$USERI4
 70
     0
  9
$USERI5
 70
     0
  9
$USERR1
 40
0.0
  9
$USERR2
 40
0.0
  9
$USERR3
 40
0.0
  9
$USERR4
 40
0.0
  9
$USERR5
 40
0.0
  9
$WORLDVIEW
 70
     1
  9
$SHADEDGE
 70
     3
  9
$SHADEDIF
 70
    70
  9
$TILEMODE
 70
     1
  9
$MAXACTVP
 70
    64
  9
$PINSBASE
 10
0.0
 20
0.0
 30
0.0
  9
$PLIMCHECK
 70
     0
  9
$PEXTMIN
 10
1.0000000000E+20
 20
1.0000000000E+20
 30
1.0000000000E+20
  9
$PEXTMAX
 10
-1.0000000000E+20
 20
-1.0000000000E+20
 30
-1.0000000000E+20
  9
$PLIMMIN
 10
0.0
 20
0.0
  9
$PLIMMAX
 10
420.0
 20
297.0
  9
$UNITMODE
 70
     0
  9
$VISRETAIN
 70
     1
  9
$PLINEGEN
 70
     0
  9
$PSLTSCALE
 70
     1
  9
$TREEDEPTH
 70
  3020
  9
$CMLSTYLE
  2
Standard
  9
$CMLJUST
 70
     0
  9
$CMLSCALE
 40
20.0
  9
$PROXYGRAPHICS
 70
     1
  9
$MEASUREMENT
 70
     1
  9
$CELWEIGHT
370
    -1
  9
$ENDCAPS
280
     0
  9
$JOINSTYLE
280
     0
  9
$LWDISPLAY
290
     1
  9
$INSUNITS
 70
     4
  9
$HYPERLINKBASE
  1

  9
$STYLESHEET
  1

  9
$XEDIT
290
     1
  9
$CEPSNTYPE
380
     0
  9
$PSTYLEMODE
290
     1
  9
$FINGERPRINTGUID
  2
{BF689019-0CC1-4DF2-A0EF-C95DEE872BCB}
  9
$VERSIONGUID
  2
{FAEB1C32-E019-11D5-929B-00C0DF256EC4}
  9
$EXTNAMES
290
     1
  9
$PSVPSCALE
 40
0.0
  9
$OLESTARTUP
290
     0
  0
ENDSEC
  0
SECTION
  2
CLASSES
  0
CLASS
  1
ACDBDICTIONARYWDFLT
  2
AcDbDictionaryWithDefault
  3
ObjectDBX Classes
 90
        0
280
     0
281
     0
  0
CLASS
  1
VISUALSTYLE
  2
AcDbVisualStyle
  3
ObjectDBX Classes
 90
     4095
280
     0
281
     0
  0
CLASS
  1
DICTIONARYVAR
  2
AcDbDictionaryVar
  3
ObjectDBX Classes
 90
        0
280
     0
281
     0
  0
CLASS
  1
ACDBPLACEHOLDER
  2
AcDbPlaceHolder
  3
ObjectDBX Classes
 90
        0
280
     0
281
     0
  0
CLASS
  1
LAYOUT
  2
AcDbLayout
  3
ObjectDBX Classes
 90
        0
280
     0
281
     0
  0
ENDSEC
  0
SECTION
  2
TABLES
  0
TABLE
  2
VPORT
  5
8
330
0
100
AcDbSymbolTable
 70
     1
  0
VPORT
  5
29
330
8
100
AcDbSymbolTableRecord
100
AcDbViewportTableRecord
  2
*Active
 70
     0
 10
0.0
 20
0.0
 11
1.0
 21
1.0
 12
148.5
 22
105.0
 13
0.0
 23
0.0
 14
10.0
 24
10.0
 15
10.0
 25
10.0
 16
0.0
 26
0.0
 36
1.0
 17
0.0
 27
0.0
 37
0.0
 40
210.0
 41
1.4142857143
 42
50.0
 43
0.0
 44
0.0
 50
0.0
 51
0.0
 71
     0
 72
  2000
 73
     1
 74
     3
 75
     0
 76
     0
 77
     0
 78
     0
281
     0
 65
     1
110
0.0
120
0.0
130
0.0
111
1.0
121
0.0
131
0.0
112
0.0
122
1.0
132
0.0
 79
     0
146
0.0
  0
ENDTAB
  0
TABLE
  2
LTYPE
  5
5
330
0
100
AcDbSymbolTable
 70
     6
  0
LTYPE
  5
14
330
5
100
AcDbSymbolTableRecord
100
AcDbLinetypeTableRecord
  2
ByBlock
 70
     0
  3

 72
    65
 73
     0
 40
0.0
  0
LTYPE
  5
15
330
5
100
AcDbSymbolTableRecord
100
AcDbLinetypeTableRecord
  2
ByLayer
 70
     0
  3

 72
    65
 73
     0
 40
0.0
  0
LTYPE
  5
16
330
5
100
AcDbSymbolTableRecord
100
AcDbLinetypeTableRecord
  2
Continuous
 70
     0
  3
Solid line
 72
    65
 73
     0
 40
0.0
  0
LTYPE
  5
3B
330
5
100
AcDbSymbolTableRecord
100
AcDbLinetypeTableRecord
  2
HIDDEN
 70
     0
  3
Hidden __ __ __ __ __ __ __ __ __ __ __ __ __ __
 72
    65
 73
     2
 40
1.905
 49
1.27
 74
     0
 49
-0.635
 74
     0
  0
LTYPE
  5
3C
330
5
100
AcDbSymbolTableRecord
100
AcDbLinetypeTableRecord
  2
PHANTOM
 70
     0
  3
Phantom ______  __  __  ______  __  __  ______
 72
    65
 73
     6
 40
12.7
 49
6.35
 74
     0
 49
-1.27
 74
     0
 49
1.27
 74
     0
 49
-1.27
 74
     0
 49
1.27
 74
     0
 49
-1.27
 74
     0
  0
LTYPE
  5
3D
330
5
100
AcDbSymbolTableRecord
100
AcDbLinetypeTableRecord
  2
CENTER
 70
     0
  3
Center ____ _ ____ _ ____ _ ____ _ ____ _ ____
 72
    65
 73
     4
 40
10.16
 49
6.35
 74
     0
 49
-1.27
 74
     0
 49
1.27
 74
     0
 49
-1.27
 74
     0
  0
LTYPE
  5
3E
330
5
100
AcDbSymbolTableRecord
100
AcDbLinetypeTableRecord
  2
CENTERX2
 70
     0
  3
Center (2x) ________  __  ________  __  _____
 72
    65
 73
     4
 40
20.32
 49
12.7
 74
     0
 49
-2.54
 74
     0
 49
2.54
 74
     0
 49
-2.54
 74
     0
  0
LTYPE
  5
3F
330
5
100
AcDbSymbolTableRecord
100
AcDbLinetypeTableRecord
  2
DOT2
 70
     0
  3
Dot (.5x) ........................................
 72
    65
 73
     2
 40
0.635
 49
0.0
 74
     0
 49
-0.635
 74
     0
  0
ENDTAB
  0
TABLE
  2
LAYER
  5
2
330
0
100
AcDbSymbolTable
 70
     5
  0
LAYER
  5
10
330
2
100
AcDbSymbolTableRecord
100
AcDbLayerTableRecord
  2
0
 70
     0
 62
     7
  6
Continuous
370
    -3
390
F
  0
LAYER
  5
40
330
2
100
AcDbSymbolTableRecord
100
AcDbLayerTableRecord
  2
FORMAT
 70
     0
 62
     7
  6
Continuous
370
    -3
390
F
  0
LAYER
  5
41
330
2
100
AcDbSymbolTableRecord
100
AcDbLayerTableRecord
  2
VERMASSUNG
 70
     0
 62
     7
  6
Continuous
370
    -3
390
F
  0
LAYER
  5
42
330
2
100
AcDbSymbolTableRecord
100
AcDbLayerTableRecord
  2
KOPF_DÜNN
 70
     0
 62
     7
  6
Continuous
370
    -3
390
F
  0
LAYER
  5
43
330
2
100
AcDbSymbolTableRecord
100
AcDbLayerTableRecord
  2
KOPF_DICK
 70
     0
 62
     7
  6
Continuous
370
    15
390
F
  0
ENDTAB
  0
TABLE
  2
STYLE
  5
3
330
0
100
AcDbSymbolTable
 70
     3
  0
STYLE
  5
11
330
3
100
AcDbSymbolTableRecord
100
AcDbTextStyleTableRecord
  2
Standard
 70
     0
 40
0.0
 41
1.0
 50
0.0
 71
     0
 42
2.5
  3
txt
  4

  0
STYLE
  5
44
330
3
100
AcDbSymbolTableRecord
100
AcDbTextStyleTableRecord
  2
SLDTEXTSTYLE0
 70
     0
 40
0.0
 41
0.7
 50
0.0
 71
     0
 42
0.2
  3
TXT
  4

  0
STYLE
  5
48
330
3
100
AcDbSymbolTableRecord
100
AcDbTextStyleTableRecord
  2
SLDTEXTSTYLE1
 70
     0
 40
0.0
 41
0.6473684211
 50
0.0
 71
     0
 42
0.2
  3
TXT
  4

  0
ENDTAB
  0
TABLE
  2
VIEW
  5
6
330
0
100
AcDbSymbolTable
 70
     0
  0
ENDTAB
  0
TABLE
  2
UCS
  5
7
330
0
100
AcDbSymbolTable
 70
     0
  0
ENDTAB
  0
TABLE
  2
APPID
  5
9
330
0
100
AcDbSymbolTable
 70
     1
  0
APPID
  5
12
330
9
100
AcDbSymbolTableRecord
100
AcDbRegAppTableRecord
  2
ACAD
 70
     0
  0
ENDTAB
  0
TABLE
  2
DIMSTYLE
  5
A
330
0
100
AcDbSymbolTable
 70
     2
100
AcDbDimStyleTable
  0
DIMSTYLE
105
27
330
A
100
AcDbSymbolTableRecord
100
AcDbDimStyleTableRecord
  2
ISO-25
 70
     0
 41
2.5
 42
0.625
 43
3.75
 44
1.25
 73
     0
 74
     0
 77
     1
 78
     8
140
2.5
141
2.5
143
0.0393700787
147
0.625
171
     3
172
     1
271
     2
272
     2
274
     3
278
    44
283
     0
284
     8
340
11
  0
DIMSTYLE
105
1D3
102
{ACAD_REACTORS
330
1D2
330
1DE
330
1E8
330
1F2
330
1FC
330
208
102
}
330
A
100
AcDbSymbolTableRecord
100
AcDbDimStyleTableRecord
  2
SLDDIMSTYLE0
 70
     0
 41
3.0
 44
0.0
 45
0.000000001
 73
     0
 74
     0
 77
     1
 78
    12
140
2.0
147
0.5
173
     1
271
     2
272
     3
284
    12
340
44
  0
ENDTAB
  0
TABLE
  2
BLOCK_RECORD
  5
1
330
0
100
AcDbSymbolTable
 70
     7
  0
BLOCK_RECORD
  5
1F
330
1
100
AcDbSymbolTableRecord
100
AcDbBlockTableRecord
  2
*Model_Space
340
22
  0
BLOCK_RECORD
  5
1B
330
1
100
AcDbSymbolTableRecord
100
AcDbBlockTableRecord
  2
*Paper_Space
340
1E
  0
BLOCK_RECORD
  5
23
330
1
100
AcDbSymbolTableRecord
100
AcDbBlockTableRecord
  2
*Paper_Space0
340
26
  0
BLOCK_RECORD
  5
1D4
330
1
100
AcDbSymbolTableRecord
100
AcDbBlockTableRecord
  2
*D1
340
0
  0
BLOCK_RECORD
  5
1DF
330
1
100
AcDbSymbolTableRecord
100
AcDbBlockTableRecord
  2
*D2
340
0
  0
BLOCK_RECORD
  5
1E9
330
1
100
AcDbSymbolTableRecord
100
AcDbBlockTableRecord
  2
*D3
340
0
  0
BLOCK_RECORD
  5
1F3
330
1
100
AcDbSymbolTableRecord
100
AcDbBlockTableRecord
  2
*D4
340
0
  0
BLOCK_RECORD
  5
1FD
330
1
100
AcDbSymbolTableRecord
100
AcDbBlockTableRecord
  2
*D5
340
0
  0
BLOCK_RECORD
  5
209
330
1
100
AcDbSymbolTableRecord
100
AcDbBlockTableRecord
  2
*D6
340
0
  0
ENDTAB
  0
ENDSEC
  0
SECTION
  2
BLOCKS
  0
BLOCK
  5
20
330
1F
100
AcDbEntity
  8
0
100
AcDbBlockBegin
  2
*Model_Space
 70
     0
 10
0.0
 20
0.0
 30
0.0
  3
*Model_Space
  1

  0
ENDBLK
  5
21
330
1F
100
AcDbEntity
  8
0
100
AcDbBlockEnd
  0
BLOCK
  5
1C
330
1B
100
AcDbEntity
 67
     1
  8
0
100
AcDbBlockBegin
  2
*Paper_Space
 70
     0
 10
0.0
 20
0.0
 30
0.0
  3
*Paper_Space
  1

  0
ENDBLK
  5
1D
330
1B
100
AcDbEntity
 67
     1
  8
0
100
AcDbBlockEnd
  0
BLOCK
  5
24
330
23
100
AcDbEntity
  8
0
100
AcDbBlockBegin
  2
*Paper_Space0
 70
     0
 10
0.0
 20
0.0
 30
0.0
  3
*Paper_Space0
  1

  0
ENDBLK
  5
25
330
23
100
AcDbEntity
  8
0
100
AcDbBlockEnd
  0
BLOCK
  5
1D5
330
1D4
100
AcDbEntity
  8
0
100
AcDbBlockBegin
  2
*D1
 70
     1
 10
0.0
 20
0.0
 30
0.0
  3
*D1
  1

  0
SOLID
  5
1D7
330
1D4
100
AcDbEntity
  8
VERMASSUNG
100
AcDbTrace
 10
256.0185190427
 20
111.4448665298
 30
0.0
 11
255.5685190427
 21
108.4448665298
 31
0.0
 12
256.4685190427
 22
108.4448665298
 32
0.0
 13
256.4685190427
 23
108.4448665298
 33
0.0
  0
SOLID
  5
1D8
330
1D4
100
AcDbEntity
  8
VERMASSUNG
100
AcDbTrace
 10
256.0185190427
 20
95.4448665298
 30
0.0
 11
256.4685190427
 21
98.4448665298
 31
0.0
 12
255.5685190427
 22
98.4448665298
 32
0.0
 13
255.5685190427
 23
98.4448665298
 33
0.0
  0
LINE
  5
1D9
330
1D4
100
AcDbEntity
  8
VERMASSUNG
100
AcDbLine
 10
247.963428136
 20
111.4448665298
 30
0.0
 11
257.0185190427
 21
111.4448665298
 31
0.0
  0
LINE
  5
1DA
330
1D4
100
AcDbEntity
  8
VERMASSUNG
100
AcDbLine
 10
247.963428136
 20
95.4448665298
 30
0.0
 11
257.0185190427
 21
95.4448665298
 31
0.0
  0
LINE
  5
1DB
330
1D4
100
AcDbEntity
  8
VERMASSUNG
100
AcDbLine
 10
256.0185190427
 20
111.4448665298
 30
0.0
 11
256.0185190427
 21
95.4448665298
 31
0.0
  0
MTEXT
  5
1DC
330
1D4
100
AcDbEntity
  8
VERMASSUNG
100
AcDbMText
 10
253.4403835632
 20
99.8981434531
 30
0.0
 40
2.0
 41
0.0
 71
     1
 72
     1
  1
%%c
  7
SLDTEXTSTYLE0
 11
-7.044195017643634E-15
 21
1.0
 31
0.0
 73
     1
 44
1.0
  0
MTEXT
  5
1DD
330
1D4
100
AcDbEntity
  8
VERMASSUNG
100
AcDbMText
 10
253.4403836796
 20
103.5068216763
 30
0.0
 40
2.0
 41
0.0
 71
     1
 72
     1
  1
16
  7
SLDTEXTSTYLE0
 11
-7.044195017643634E-15
 21
1.0
 31
0.0
 73
     1
 44
1.0
  0
ENDBLK
  5
1D6
330
1D4
100
AcDbEntity
  8
0
100
AcDbBlockEnd
  0
BLOCK
  5
1E0
330
1DF
100
AcDbEntity
  8
0
100
AcDbBlockBegin
  2
*D2
 70
     1
 10
0.0
 20
0.0
 30
0.0
  3
*D2
  1

  0
SOLID
  5
1E2
330
1DF
100
AcDbEntity
  8
VERMASSUNG
100
AcDbTrace
 10
88.263428136
 20
142.9095341278
 30
0.0
 11
91.263428136
 21
142.4595341278
 31
0.0
 12
91.263428136
 22
143.3595341278
 32
0.0
 13
91.263428136
 23
143.3595341278
 33
0.0
  0
SOLID
  5
1E3
330
1DF
100
AcDbEntity
  8
VERMASSUNG
100
AcDbTrace
 10
248.263428136
 20
142.9095341278
 30
0.0
 11
245.263428136
 21
143.3595341278
 31
0.0
 12
245.263428136
 22
142.4595341278
 32
0.0
 13
245.263428136
 23
142.4595341278
 33
0.0
  0
LINE
  5
1E4
330
1DF
100
AcDbEntity
  8
VERMASSUNG
100
AcDbLine
 10
88.263428136
 20
134.6448665298
 30
0.0
 11
88.263428136
 21
143.9095341278
 31
0.0
  0
LINE
  5
1E5
330
1DF
100
AcDbEntity
  8
VERMASSUNG
100
AcDbLine
 10
248.263428136
 20
120.1707260082
 30
0.0
 11
248.263428136
 21
143.9095341278
 31
0.0
  0
LINE
  5
1E6
330
1DF
100
AcDbEntity
  8
VERMASSUNG
100
AcDbLine
 10
88.263428136
 20
142.9095341278
 30
0.0
 11
248.263428136
 21
142.9095341278
 31
0.0
  0
MTEXT
  5
1E7
330
1DF
100
AcDbEntity
  8
VERMASSUNG
100
AcDbMText
 10
166.3639405953
 20
145.487669491
 30
0.0
 40
2.0
 41
0.0
 71
     1
 72
     1
  1
160
  7
SLDTEXTSTYLE0
 73
     1
 44
1.0
  0
ENDBLK
  5
1E1
330
1DF
100
AcDbEntity
  8
0
100
AcDbBlockEnd
  0
BLOCK
  5
1EA
330
1E9
100
AcDbEntity
  8
0
100
AcDbBlockBegin
  2
*D3
 70
     1
 10
0.0
 20
0.0
 30
0.0
  3
*D3
  1

  0
SOLID
  5
1EC
330
1E9
100
AcDbEntity
  8
VERMASSUNG
100
AcDbTrace
 10
114.213428136
 20
136.9095341278
 30
0.0
 11
117.213428136
 21
136.4595341278
 31
0.0
 12
117.213428136
 22
137.3595341278
 32
0.0
 13
117.213428136
 23
137.3595341278
 33
0.0
  0
SOLID
  5
1ED
330
1E9
100
AcDbEntity
  8
VERMASSUNG
100
AcDbTrace
 10
248.263428136
 20
136.9095341278
 30
0.0
 11
245.263428136
 21
137.3595341278
 31
0.0
 12
245.263428136
 22
136.4595341278
 32
0.0
 13
245.263428136
 23
136.4595341278
 33
0.0
  0
LINE
  5
1EE
330
1E9
100
AcDbEntity
  8
VERMASSUNG
100
AcDbLine
 10
114.213428136
 20
133.2913068535
 30
0.0
 11
114.213428136
 21
137.9095341278
 31
0.0
  0
LINE
  5
1EF
330
1E9
100
AcDbEntity
  8
VERMASSUNG
100
AcDbLine
 10
248.263428136
 20
120.1707260082
 30
0.0
 11
248.263428136
 21
137.9095341278
 31
0.0
  0
LINE
  5
1F0
330
1E9
100
AcDbEntity
  8
VERMASSUNG
100
AcDbLine
 10
114.213428136
 20
136.9095341278
 30
0.0
 11
248.263428136
 21
136.9095341278
 31
0.0
  0
MTEXT
  5
1F1
330
1E9
100
AcDbEntity
  8
VERMASSUNG
100
AcDbMText
 10
177.5392428705
 20
139.487669491
 30
0.0
 40
2.0
 41
0.0
 71
     1
 72
     1
  1
134.05
  7
SLDTEXTSTYLE0
 73
     1
 44
1.0
  0
ENDBLK
  5
1EB
330
1E9
100
AcDbEntity
  8
0
100
AcDbBlockEnd
  0
BLOCK
  5
1F4
330
1F3
100
AcDbEntity
  8
0
100
AcDbBlockBegin
  2
*D4
 70
     1
 10
0.0
 20
0.0
 30
0.0
  3
*D4
  1

  0
SOLID
  5
1F6
330
1F3
100
AcDbEntity
  8
VERMASSUNG
100
AcDbTrace
 10
56.363428136
 20
148.9095341278
 30
0.0
 11
59.363428136
 21
148.4595341278
 31
0.0
 12
59.363428136
 22
149.3595341278
 32
0.0
 13
59.363428136
 23
149.3595341278
 33
0.0
  0
SOLID
  5
1F7
330
1F3
100
AcDbEntity
  8
VERMASSUNG
100
AcDbTrace
 10
248.263428136
 20
148.9095341278
 30
0.0
 11
245.263428136
 21
149.3595341278
 31
0.0
 12
245.263428136
 22
148.4595341278
 32
0.0
 13
245.263428136
 23
148.4595341278
 33
0.0
  0
LINE
  5
1F8
330
1F3
100
AcDbEntity
  8
VERMASSUNG
100
AcDbLine
 10
56.363428136
 20
123.1355442763
 30
0.0
 11
56.363428136
 21
149.9095341278
 31
0.0
  0
LINE
  5
1F9
330
1F3
100
AcDbEntity
  8
VERMASSUNG
100
AcDbLine
 10
248.263428136
 20
120.1707260082
 30
0.0
 11
248.263428136
 21
149.9095341278
 31
0.0
  0
LINE
  5
1FA
330
1F3
100
AcDbEntity
  8
VERMASSUNG
100
AcDbLine
 10
56.363428136
 20
148.9095341278
 30
0.0
 11
248.263428136
 21
148.9095341278
 31
0.0
  0
MTEXT
  5
1FB
330
1F3
100
AcDbEntity
  8
VERMASSUNG
100
AcDbMText
 10
149.6144617221
 20
151.487669491
 30
0.0
 40
2.0
 41
0.0
 71
     1
 72
     1
  1
191.9
  7
SLDTEXTSTYLE0
 73
     1
 44
1.0
  0
ENDBLK
  5
1F5
330
1F3
100
AcDbEntity
  8
0
100
AcDbBlockEnd
  0
BLOCK
  5
1FE
330
1FD
100
AcDbEntity
  8
0
100
AcDbBlockBegin
  2
*D5
 70
     1
 10
0.0
 20
0.0
 30
0.0
  3
*D5
  1

  0
SOLID
  5
200
330
1FD
100
AcDbEntity
  8
VERMASSUNG
100
AcDbTrace
 10
52.4620235292
 20
134.9448665298
 30
0.0
 11
52.0120235292
 21
131.9448665298
 31
0.0
 12
52.9120235292
 22
131.9448665298
 32
0.0
 13
52.9120235292
 23
131.9448665298
 33
0.0
  0
SOLID
  5
201
330
1FD
100
AcDbEntity
  8
VERMASSUNG
100
AcDbTrace
 10
52.4620235292
 20
71.9448665298
 30
0.0
 11
52.9120235292
 21
74.9448665298
 31
0.0
 12
52.0120235292
 22
74.9448665298
 32
0.0
 13
52.0120235292
 23
74.9448665298
 33
0.0
  0
LINE
  5
202
330
1FD
100
AcDbEntity
  8
VERMASSUNG
100
AcDbLine
 10
88.563428136
 20
134.9448665298
 30
0.0
 11
51.4620235292
 21
134.9448665298
 31
0.0
  0
LINE
  5
203
330
1FD
100
AcDbEntity
  8
VERMASSUNG
100
AcDbLine
 10
88.563428136
 20
71.9448665298
 30
0.0
 11
51.4620235292
 21
71.9448665298
 31
0.0
  0
LINE
  5
204
330
1FD
100
AcDbEntity
  8
VERMASSUNG
100
AcDbLine
 10
52.4620235292
 20
134.9448665298
 30
0.0
 11
52.4620235292
 21
71.9448665298
 31
0.0
  0
MTEXT
  5
205
330
1FD
100
AcDbEntity
  8
VERMASSUNG
100
AcDbMText
 10
49.6838880402
 20
95.1987393361
 30
0.0
 40
2.0
 41
0.0
 71
     1
 72
     1
  1
HSK A 
  7
SLDTEXTSTYLE0
 11
-7.044195017643634E-15
 21
1.0
 31
0.0
 73
     1
 44
1.0
  0
MTEXT
  5
206
330
1FD
100
AcDbEntity
  8
VERMASSUNG
100
AcDbMText
 10
49.8838880497
 20
104.19873988
 30
0.0
 40
2.0
 41
0.0
 71
     1
 72
     1
  1
%%c
  7
SLDTEXTSTYLE0
 11
-7.044195017643634E-15
 21
1.0
 31
0.0
 73
     1
 44
1.0
  0
MTEXT
  5
207
330
1FD
100
AcDbEntity
  8
VERMASSUNG
100
AcDbMText
 10
49.8838881661
 20
107.80706653
 30
0.0
 40
2.0
 41
0.0
 71
     1
 72
     1
  1
63
  7
SLDTEXTSTYLE0
 11
-7.044195017643634E-15
 21
1.0
 31
0.0
 73
     1
 44
1.0
  0
ENDBLK
  5
1FF
330
1FD
100
AcDbEntity
  8
0
100
AcDbBlockEnd
  0
BLOCK
  5
20A
330
209
100
AcDbEntity
  8
0
100
AcDbBlockBegin
  2
*D6
 70
     1
 10
0.0
 20
0.0
 30
0.0
  3
*D6
  1

  0
SOLID
  5
20C
330
209
100
AcDbEntity
  8
VERMASSUNG
100
AcDbTrace
 10
262.0185190427
 20
127.4448665298
 30
0.0
 11
261.5685190427
 21
124.4448665298
 31
0.0
 12
262.4685190427
 22
124.4448665298
 32
0.0
 13
262.4685190427
 23
124.4448665298
 33
0.0
  0
SOLID
  5
20D
330
209
100
AcDbEntity
  8
VERMASSUNG
100
AcDbTrace
 10
262.0185190427
 20
79.4448665298
 30
0.0
 11
262.4685190427
 21
82.4448665298
 31
0.0
 12
261.5685190427
 22
82.4448665298
 32
0.0
 13
261.5685190427
 23
82.4448665298
 33
0.0
  0
LINE
  5
20E
330
209
100
AcDbEntity
  8
VERMASSUNG
100
AcDbLine
 10
235.3963866129
 20
127.4448665298
 30
0.0
 11
263.0185190427
 21
127.4448665298
 31
0.0
  0
LINE
  5
20F
330
209
100
AcDbEntity
  8
VERMASSUNG
100
AcDbLine
 10
235.3963866129
 20
79.4448665298
 30
0.0
 11
263.0185190427
 21
79.4448665298
 31
0.0
  0
LINE
  5
210
330
209
100
AcDbEntity
  8
VERMASSUNG
100
AcDbLine
 10
262.0185190427
 20
127.4448665298
 30
0.0
 11
262.0185190427
 21
79.4448665298
 31
0.0
  0
MTEXT
  5
211
330
209
100
AcDbEntity
  8
VERMASSUNG
100
AcDbMText
 10
259.4403835632
 20
100.1227169292
 30
0.0
 40
2.0
 41
0.0
 71
     1
 72
     1
  1
%%c
  7
SLDTEXTSTYLE0
 11
-7.044195017643634E-15
 21
1.0
 31
0.0
 73
     1
 44
1.0
  0
MTEXT
  5
212
330
209
100
AcDbEntity
  8
VERMASSUNG
100
AcDbMText
 10
259.4403836796
 20
103.7313951524
 30
0.0
 40
2.0
 41
0.0
 71
     1
 72
     1
  1
48
  7
SLDTEXTSTYLE0
 11
-7.044195017643634E-15
 21
1.0
 31
0.0
 73
     1
 44
1.0
  0
ENDBLK
  5
20B
330
209
100
AcDbEntity
  8
0
100
AcDbBlockEnd
  0
ENDSEC
  0
SECTION
  2
ENTITIES
  0
MTEXT
  5
45
330
1F
100
AcDbEntity
  8
KOPF_DÜNN
100
AcDbMText
 10
13.8892156294
 20
23.8442973028
 30
0.0
 40
3.0
 41
0.0
 71
     1
 72
     1
  1
HA6.W16.K21.160
  7
SLDTEXTSTYLE0
 73
     1
 44
1.0
  0
MTEXT
  5
46
330
1F
100
AcDbEntity
  8
VERMASSUNG
100
AcDbMText
 10
13.9329988022
 20
28.8834360957
 30
0.0
 40
3.0
 41
0.0
 71
     1
 72
     1
  1
Flächenspannfutter_End mill adapter Weldon ø16
  7
SLDTEXTSTYLE0
 73
     1
 44
1.0
  0
MTEXT
  5
47
330
1F
100
AcDbEntity
  8
VERMASSUNG
100
AcDbMText
 10
98.8601118557
 20
13.8365368179
 30
0.0
 40
2.0
 41
0.0
 71
     1
 72
     1
  1
Datum: 09.10.2006
  7
SLDTEXTSTYLE0
 73
     1
 44
1.0
  0
MTEXT
  5
49
330
1F
100
AcDbEntity
  8
VERMASSUNG
100
AcDbMText
 10
13.933048693
 20
18.0482802738
 30
0.0
 40
2.0
 41
0.0
 71
     1
 72
     1
  1
DIN 69 893 HSK A 63
  7
SLDTEXTSTYLE1
 73
     1
 44
1.0
  0
MTEXT
  5
4A
330
1F
100
AcDbEntity
  8
VERMASSUNG
100
AcDbMText
 10
13.9808475933
 20
13.9090973692
 30
0.0
 40
2.0
 41
0.0
 71
     1
 72
     1
  1
Gewicht: 2382g
  7
SLDTEXTSTYLE0
 73
     1
 44
1.0
  0
ARC
  5
4B
330
1F
100
AcDbEntity
  8
0
  6
Continuous
 62
     7
370
    15
100
AcDbCircle
 10
88.563428136
 20
72.2448665298
 30
0.0
 40
0.2999999999999972
100
AcDbArc
 50
180.0
 51
270.0
  0
ARC
  5
4C
330
1F
100
AcDbEntity
  8
0
  6
Continuous
 62
     7
370
    15
100
AcDbCircle
 10
88.563428136
 20
134.6448665298
 30
0.0
 40
0.3000000000000114
100
AcDbArc
 50
90.0
 51
180.0
  0
LINE
  5
4D
330
1F
100
AcDbEntity
  8
0
  6
Continuous
 62
     7
370
    15
100
AcDbLine
 10
88.5634281502
 20
71.9448660231
 30
0.0
 11
93.2134281091
 21
71.9448660231
 31
0.0
  0
LINE
  5
4E
330
1F
100
AcDbEntity
  8
0
  6
Continuous
 62
     7
370
    15
100
AcDbLine
 10
93.2414166808
 20
134.9448670364
 30
0.0
 11
88.5634281502
 21
134.9448670364
 31
0.0
  0
ARC
  5
4F
330
1F
100
AcDbEntity
  8
0
  6
Continuous
 62
     7
370
    15
100
AcDbCircle
 10
116.213428136
 20
76.3943571843
 30
0.0
 40
2.000000000000004
100
AcDbArc
 50
94.8123490719
 51
160.9885300494
  0
ARC
  5
50
330
1F
100
AcDbEntity
  8
0
  6
Continuous
 62
     7
370
    15
100
AcDbCircle
 10
116.213428136
 20
130.4953758752
 30
0.0
 40
2.000000000000047
100
AcDbArc
 50
198.6794356079
 51
265.1876509281
  0
ARC
  5
51
330
1F
100
AcDbEntity
  8
0
  6
Continuous
 62
     7
370
    15
100
AcDbCircle
 10
141.213428136
 20
-220.5551334702
 30
0.0
 40
300.0
100
AcDbArc
 50
90.0
 51
94.8123490719
  0
ARC
  5
52
330
1F
100
AcDbEntity
  8
0
  6
Continuous
 62
     7
370
    15
100
AcDbCircle
 10
141.213428136
 20
427.4448665298
 30
0.0
 40
300.0
100
AcDbArc
 50
265.1876509281
 51
270.0
  0
ARC
  5
53
330
1F
100
AcDbEntity
  8
0
  6
Continuous
 62
     7
370
    15
100
AcDbCircle
 10
87.7634213833
 20
78.8744289154
 30
0.0
 40
0.6000067526677164
100
AcDbArc
 50
33.5571153394
 51
90.0
  0
ARC
  5
54
330
1F
100
AcDbEntity
  8
0
  6
Continuous
 62
     7
370
    15
100
AcDbCircle
 10
87.7634213833
 20
128.0153041442
 30
0.0
 40
0.6000067526677384
100
AcDbArc
 50
270.0
 51
326.4428846606
  0
LINE
  5
55
330
1F
100
AcDbEntity
  8
0
  6
Continuous
 62
     7
370
    15
100
AcDbLine
 10
75.0330056243
 20
127.1026503957
 30
0.0
 11
62.4634272598
 21
126.4729124225
 31
0.0
  0
LINE
  5
56
330
1F
100
AcDbEntity
  8
0
  6
Continuous
 62
     7
370
    15
100
AcDbLine
 10
86.263428041
 20
127.6652977533
 30
0.0
 11
83.4448186859
 21
127.5240850366
 31
0.0
  0
LINE
  5
57
330
1F
100
AcDbEntity
  8
0
  6
Continuous
 62
     7
370
    15
100
AcDbLine
 10
83.4450403407
 20
79.3656368471
 30
0.0
 11
86.263428041
 21
79.2244353063
 31
0.0
  0
LINE
  5
58
330
1F
100
AcDbEntity
  8
0
  6
Continuous
 62
     7
370
    15
100
AcDbLine
 10
66.4634279154
 20
80.2164205081
 30
0.0
 11
75.0337050475
 21
79.7870472736
 31
0.0
  0
LINE
  5
59
330
1F
100
AcDbEntity
  8
0
  6
Continuous
 62
     7
370
    15
100
AcDbLine
 10
86.263428041
 20
79.2244353063
 30
0.0
 11
87.1201409671
 21
79.4539914197
 31
0.0
  0
LINE
  5
5A
330
1F
100
AcDbEntity
  8
0
  6
Continuous
 62
     7
370
    15
100
AcDbLine
 10
87.1201409671
 20
127.4357416398
 30
0.0
 11
86.263428041
 21
127.6652977533
 31
0.0
  0
LINE
  5
5B
330
1F
100
AcDbEntity
  8
0
  6
Continuous
 62
     7
370
    15
100
AcDbLine
 10
163.6806859814
 20
79.4448663212
 30
0.0
 11
235.3963910781
 21
79.4448663212
 31
0.0
  0
LINE
  5
5C
330
1F
100
AcDbEntity
  8
0
  6
Continuous
 62
     7
370
    15
100
AcDbLine
 10
141.2134266637
 20
79.4448663212
 30
0.0
 11
156.7564442001
 21
79.4448663212
 31
0.0
  0
LINE
  5
5D
330
1F
100
AcDbEntity
  8
0
  6
Continuous
 62
     7
370
    15
100
AcDbLine
 10
156.7453651868
 20
127.4448667384
 30
0.0
 11
141.2134266637
 21
127.4448667384
 31
0.0
  0
LINE
  5
5E
330
1F
100
AcDbEntity
  8
0
  6
Continuous
 62
     7
370
    15
100
AcDbLine
 10
235.3963910781
 20
127.4448667384
 30
0.0
 11
163.670210465
 21
127.4448667384
 31
0.0
  0
LINE
  5
5F
330
1F
100
AcDbEntity
  8
0
  6
Continuous
 62
     7
370
    15
100
AcDbLine
 10
235.3963910781
 20
79.4448663212
 30
0.0
 11
247.108659073
 21
84.9063914932
 31
0.0
  0
LINE
  5
60
330
1F
100
AcDbEntity
  8
0
  6
Continuous
 62
     7
370
    15
100
AcDbLine
 10
247.108659073
 20
121.9833415664
 30
0.0
 11
235.3963910781
 21
127.4448667384
 31
0.0
  0
ARC
  5
61
330
1F
100
AcDbEntity
  8
0
  6
Continuous
 62
     7
370
    15
100
AcDbCircle
 10
87.2754323364
 20
78.8744356681
 30
0.0
 40
0.5999999999999971
100
AcDbArc
 50
90.0
 51
105.0
  0
ARC
  5
62
330
1F
100
AcDbEntity
  8
0
  6
Continuous
 62
     7
370
    15
100
AcDbCircle
 10
87.2754323364
 20
128.0152973915
 30
0.0
 40
0.6000000000000109
100
AcDbArc
 50
255.0
 51
270.0
  0
LINE
  5
63
330
1F
100
AcDbEntity
  8
0
  6
Continuous
 62
     7
370
    15
100
AcDbLine
 10
87.2754323708
 20
79.4744358129
 30
0.0
 11
87.7634213601
 21
79.4744358129
 31
0.0
  0
LINE
  5
64
330
1F
100
AcDbEntity
  8
0
  6
Continuous
 62
     7
370
    15
100
AcDbLine
 10
87.7634213601
 20
127.4152972466
 30
0.0
 11
87.2754323708
 21
127.4152972466
 31
0.0
  0
ARC
  5
65
330
1F
100
AcDbEntity
  8
0
  6
Continuous
 62
     7
370
    15
100
AcDbCircle
 10
246.263428136
 20
86.7190070514
 30
0.0
 40
2.000000000000001
100
AcDbArc
 50
295.0
 51
0.0
  0
ARC
  5
66
330
1F
100
AcDbEntity
  8
0
  6
Continuous
 62
     7
370
    15
100
AcDbCircle
 10
246.263428136
 20
120.1707260082
 30
0.0
 40
2.000000000000001
100
AcDbArc
 50
0.0
 51
65.0
  0
LINE
  5
67
330
1F
100
AcDbEntity
  8
0
  6
Continuous
 62
     7
370
    15
100
AcDbLine
 10
57.6467647396
 20
82.5748664058
 30
0.0
 11
65.063428431
 21
82.5748664058
 31
0.0
  0
ARC
  5
68
330
1F
100
AcDbEntity
  8
0
  6
Continuous
 62
     7
370
    15
100
AcDbCircle
 10
65.063428136
 20
81.1748665298
 30
0.0
 40
1.400000000000006
100
AcDbArc
 50
42.2465410162
 51
90.0
  0
LINE
  5
69
330
1F
100
AcDbEntity
  8
0
  6
Continuous
 62
     7
370
    15
100
AcDbLine
 10
56.3644602142
 20
83.7238334782
 30
0.0
 11
57.504590898
 21
82.5837027944
 31
0.0
  0
LINE
  5
6A
330
1F
100
AcDbEntity
  8
0
  6
Continuous
 62
     7
370
    15
100
AcDbLine
 10
57.504590898
 20
124.3060302652
 30
0.0
 11
56.3733301304
 21
123.1747676349
 31
0.0
  0
ARC
  5
6B
330
1F
100
AcDbEntity
  8
0
  6
Continuous
 62
     7
370
    15
100
AcDbCircle
 10
61.063428136
 20
125.7148665298
 30
0.0
 40
1.40000000000002
100
AcDbArc
 50
270.0
 51
301.7485287426
  0
LINE
  5
6C
330
1F
100
AcDbEntity
  8
0
  6
Continuous
 62
     7
370
    15
100
AcDbLine
 10
61.0634277753
 20
124.3148666538
 30
0.0
 11
57.6376936577
 21
124.3148666538
 31
0.0
  0
LINE
  5
6D
330
1F
100
AcDbEntity
  8
0
  6
Continuous
 62
     7
370
    15
100
AcDbLine
 10
248.3280806981
 20
113.8540168024
 30
0.0
 11
248.2634245597
 21
113.9737420446
 31
0.0
  0
LINE
  5
6E
330
1F
100
AcDbEntity
  8
0
  6
Continuous
 62
     7
370
    15
100
AcDbLine
 10
248.2634245597
 20
92.9155421174
 30
0.0
 11
248.3283340178
 21
93.0357227764
 31
0.0
  0
ARC
  5
6F
330
1F
100
AcDbEntity
  8
0
  6
Continuous
 62
     7
370
    15
100
AcDbCircle
 10
224.763428136
 20
103.4448665298
 30
0.0
 40
6.000000000002291
100
AcDbArc
 50
352.8267459968
 51
111.9262314796
  0
ARC
  5
70
330
1F
100
AcDbEntity
  8
0
  6
Continuous
 62
     7
370
    15
100
AcDbCircle
 10
224.763428136
 20
103.4448665298
 30
0.0
 40
5.999999999999991
100
AcDbArc
 50
248.1667758049
 51
352.8267459968
  0
LINE
  5
71
330
1F
100
AcDbEntity
  8
0
  6
Continuous
 62
     7
370
    15
100
AcDbLine
 10
222.6703225814
 20
100.6846285156
 30
0.0
 11
221.3264464579
 21
103.877429224
 31
0.0
  0
LINE
  5
72
330
1F
100
AcDbEntity
  8
0
  6
Continuous
 62
     7
370
    15
100
AcDbLine
 10
226.1073052131
 20
100.2520659669
 30
0.0
 11
228.2004117213
 21
103.0123038356
 31
0.0
  0
LINE
  5
73
330
1F
100
AcDbEntity
  8
0
  6
Continuous
 62
     7
370
    15
100
AcDbLine
 10
226.8565355979
 20
106.2051045439
 30
0.0
 11
228.2004117213
 21
103.0123038356
 31
0.0
  0
LINE
  5
74
330
1F
100
AcDbEntity
  8
0
  6
Continuous
 62
     7
370
    15
100
AcDbLine
 10
223.419538065
 20
106.6376670926
 30
0.0
 11
221.3264464579
 21
103.877429224
 31
0.0
  0
LINE
  5
75
330
1F
100
AcDbEntity
  8
0
  6
Continuous
 62
     7
370
    15
100
AcDbLine
 10
226.1073052131
 20
100.2520659669
 30
0.0
 11
222.6703225814
 21
100.6846285156
 31
0.0
  0
LINE
  5
76
330
1F
100
AcDbEntity
  8
0
  6
Continuous
 62
     7
370
    15
100
AcDbLine
 10
226.8565355979
 20
106.2051045439
 30
0.0
 11
223.419538065
 21
106.6376670926
 31
0.0
  0
LINE
  5
77
330
1F
100
AcDbEntity
  8
0
  6
Continuous
 62
     7
370
    15
100
AcDbLine
 10
109.6553600572
 20
73.257948897
 30
0.0
 11
109.6553600572
 21
123.2948672689
 31
0.0
  0
SPLINE
  5
78
330
1F
100
AcDbEntity
  8
0
  6
Continuous
 62
     7
370
    15
100
AcDbSpline
210
0.0
220
0.0
230
1.0
 70
     8
 71
     3
 72
     8
 73
     4
 74
     0
 42
0.00000001
 43
0.00000001
 40
0.0
 40
0.0
 40
0.0
 40
0.0
 40
1.0
 40
1.0
 40
1.0
 40
1.0
 10
109.6553609674412
 20
73.25794883352697
 30
0.0
 10
109.1598813067754
 20
74.15347492146033
 30
0.0
 10
108.6657672587333
 20
75.0497593365126
 30
0.0
 10
108.1734281359521
 20
75.94702937071929
 30
0.0
  0
LINE
  5
79
330
1F
100
AcDbEntity
  8
0
  6
Continuous
 62
     7
370
    15
100
AcDbLine
 10
108.1734284006
 20
75.9470292098
 30
0.0
 11
108.1734284006
 21
123.2948672689
 31
0.0
  0
SPLINE
  5
7A
330
1F
100
AcDbEntity
  8
0
  6
Continuous
 62
     7
370
    15
100
AcDbSpline
210
0.0
220
0.0
230
1.0
 70
    24
 71
     3
 72
     8
 73
     4
 74
     0
 42
0.00000001
 43
0.00000001
 40
0.0
 40
0.0
 40
0.0
 40
0.0
 40
1.0
 40
1.0
 40
1.0
 40
1.0
 10
108.1734281359521
 20
123.2948665297741
 30
0.0
 10
108.653380130317
 20
123.2948665297741
 30
0.0
 10
109.1486808592906
 20
123.2948665297741
 30
0.0
 10
109.6553609674412
 20
123.2948665297741
 30
0.0
  0
LINE
  5
7B
330
1F
100
AcDbEntity
  8
0
  6
Continuous
 62
     7
370
    15
100
AcDbLine
 10
113.6134288452
 20
73.257948897
 30
0.0
 11
109.6553600572
 21
73.257948897
 31
0.0
  0
LINE
  5
7C
330
1F
100
AcDbEntity
  8
0
  6
Continuous
 62
     7
370
    15
100
AcDbLine
 10
109.6553600572
 20
123.2948672689
 30
0.0
 11
113.6134288452
 21
123.2948672689
 31
0.0
  0
LINE
  5
7D
330
1F
100
AcDbEntity
  8
0
  6
Continuous
 62
     7
370
    15
100
AcDbLine
 10
114.213427826
 20
73.8845892913
 30
0.0
 11
114.213427826
 21
123.2948672689
 31
0.0
  0
SPLINE
  5
7E
330
1F
100
AcDbEntity
  8
0
  6
Continuous
 62
     7
370
    15
100
AcDbSpline
210
0.0
220
0.0
230
1.0
 70
     8
 71
     3
 72
    10
 73
     6
 74
     0
 42
0.00000001
 43
0.00000001
 40
0.0
 40
0.0
 40
0.0
 40
0.0
 40
0.5
 40
0.5
 40
1.0
 40
1.0
 40
1.0
 40
1.0
 10
114.2134281359521
 20
73.8845891291813
 30
0.0
 10
114.2134281359521
 20
73.72470186098764
 30
0.0
 10
114.1521184847163
 20
73.56357460547302
 30
0.0
 10
113.9330188471812
 20
73.3294756071182
 30
0.0
 10
113.7749706408677
 20
73.25794883352697
 30
0.0
 10
113.6134281359521
 20
73.25794883352697
 30
0.0
  0
SPLINE
  5
7F
330
1F
100
AcDbEntity
  8
0
  6
Continuous
 62
     7
370
    15
100
AcDbSpline
210
0.0
220
0.0
230
1.0
 70
    24
 71
     3
 72
    12
 73
     8
 74
     0
 42
0.00000001
 43
0.00000001
 40
0.0
 40
0.0
 40
0.0
 40
0.0
 40
0.2500000000000033
 40
0.2500000000000033
 40
0.5000000000000067
 40
0.5000000000000067
 40
1.0
 40
1.0
 40
1.0
 40
1.0
 10
113.6134281359521
 20
123.2948665297741
 30
0.0
 10
113.7036672036392
 20
123.2948665297741
 30
0.0
 10
113.7945653177457
 20
123.2948665297741
 30
0.0
 10
113.9491623542342
 20
123.2948665297741
 30
0.0
 10
114.0141407703423
 20
123.2948665297741
 30
0.0
 10
114.1659757982785
 20
123.2948665297741
 30
0.0
 10
114.2134281359521
 20
123.2948665297741
 30
0.0
 10
114.2134281359521
 20
123.2948665297741
 30
0.0
  0
LINE
  5
80
330
1F
100
AcDbEntity
  8
0
  6
Continuous
 62
     7
370
    15
100
AcDbLine
 10
104.3534281842
 20
75.9470292098
 30
0.0
 11
104.3534281842
 21
123.2948672689
 31
0.0
  0
SPLINE
  5
81
330
1F
100
AcDbEntity
  8
0
  6
Continuous
 62
     7
370
    15
100
AcDbSpline
210
0.0
220
0.0
230
1.0
 70
     8
 71
     3
 72
     8
 73
     4
 74
     0
 42
0.00000001
 43
0.00000001
 40
0.0
 40
0.0
 40
0.0
 40
0.0
 40
1.0
 40
1.0
 40
1.0
 40
1.0
 10
104.3534281359521
 20
75.94702937071928
 30
0.0
 10
103.8610890131709
 20
75.04975933651258
 30
0.0
 10
103.3669749651288
 20
74.15347492146032
 30
0.0
 10
102.8714953044631
 20
73.25794883352697
 30
0.0
  0
LINE
  5
82
330
1F
100
AcDbEntity
  8
0
  6
Continuous
 62
     7
370
    15
100
AcDbLine
 10
102.8714955963
 20
73.257948897
 30
0.0
 11
102.8714955963
 21
123.2948672689
 31
0.0
  0
SPLINE
  5
83
330
1F
100
AcDbEntity
  8
0
  6
Continuous
 62
     7
370
    15
100
AcDbSpline
210
0.0
220
0.0
230
1.0
 70
    24
 71
     3
 72
     8
 73
     4
 74
     0
 42
0.00000001
 43
0.00000001
 40
0.0
 40
0.0
 40
0.0
 40
0.0
 40
1.0
 40
1.0
 40
1.0
 40
1.0
 10
102.871495304463
 20
123.2948665297741
 30
0.0
 10
103.3781754126136
 20
123.2948665297741
 30
0.0
 10
103.8734761415872
 20
123.2948665297741
 30
0.0
 10
104.3534281359521
 20
123.2948665297741
 30
0.0
  0
LINE
  5
84
330
1F
100
AcDbEntity
  8
0
  6
Continuous
 62
     7
370
    15
100
AcDbLine
 10
88.263428136
 20
72.2448673762
 30
0.0
 11
88.263428136
 21
134.6448656834
 31
0.0
  0
LINE
  5
85
330
1F
100
AcDbEntity
  8
0
  6
Continuous
 62
     7
370
    15
100
AcDbLine
 10
93.2134281091
 20
123.2948672689
 30
0.0
 11
102.8714955963
 21
123.2948672689
 31
0.0
  0
LINE
  5
86
330
1F
100
AcDbEntity
  8
0
  6
Continuous
 62
     7
370
    15
100
AcDbLine
 10
102.8714955963
 20
73.257948897
 30
0.0
 11
101.2134284891
 21
73.257948897
 31
0.0
  0
SPLINE
  5
87
330
1F
100
AcDbEntity
  8
0
  6
Continuous
 62
     7
370
    15
100
AcDbSpline
210
0.0
220
0.0
230
1.0
 70
     8
 71
     3
 72
    28
 73
    24
 74
     0
 42
0.00000001
 43
0.00000001
 40
0.0
 40
0.0
 40
0.0
 40
0.0
 40
0.1250000000000001
 40
0.1250000000000001
 40
0.1875000000000001
 40
0.1875000000000001
 40
0.2500000000000001
 40
0.2500000000000001
 40
0.3749999999999999
 40
0.3749999999999999
 40
0.4375
 40
0.4375
 40
0.4999999999999999
 40
0.4999999999999999
 40
0.6249999999999999
 40
0.6249999999999999
 40
0.7499999999999997
 40
0.7499999999999997
 40
0.8124999999999998
 40
0.8124999999999998
 40
0.8749999999999998
 40
0.8749999999999998
 40
1.0
 40
1.0
 40
1.0
 40
1.0
 10
101.2134281359521
 20
73.25794883352697
 30
0.0
 10
100.6817203784592
 20
73.25794883352698
 30
0.0
 10
100.1594818131488
 20
73.24216411957677
 30
0.0
 10
99.38961132687385
 20
73.19716870550056
 30
0.0
 10
99.1352517546825
 20
73.17861371042483
 30
0.0
 10
98.631130173984
 20
73.13476098797831
 30
0.0
 10
98.38140735655607
 20
73.10941638102612
 30
0.0
 10
97.65581740510966
 20
73.02601430327601
 30
0.0
 10
97.19745714352813
 20
72.96014874412494
 30
0.0
 10
96.54695920013424
 20
72.85117840363314
 30
0.0
 10
96.33527714934179
 20
72.81293876786648
 30
0.0
 10
95.93120566020379
 20
72.73518003044713
 30
0.0
 10
95.73869914638291
 20
72.69567906827179
 30
0.0
 10
95.18886417536164
 20
72.57677132590578
 30
0.0
 10
94.85893539705285
 20
72.49695364448118
 30
0.0
 10
94.27446412848414
 20
72.34361048268512
 30
0.0
 10
94.02818699047072
 20
72.27227672941586
 30
0.0
 10
93.72834419777264
 20
72.17833322234124
 30
0.0
 10
93.63988734070045
 20
72.14913942898131
 30
0.0
 10
93.48652598739532
 20
72.0956728547179
 30
0.0
 10
93.42143777316909
 20
72.07131352044271
 30
0.0
 10
93.2658437572283
 20
72.00772337499798
 30
0.0
 10
93.21342813595211
 20
71.97762043990873
 30
0.0
 10
93.21342813595211
 20
71.96074354691181
 30
0.0
  0
LINE
  5
88
330
1F
100
AcDbEntity
  8
0
  6
Continuous
 62
     7
370
    15
100
AcDbLine
 10
93.2134281091
 20
71.9607432104
 30
0.0
 11
93.2134281091
 21
71.9448660231
 31
0.0
  0
SPLINE
  5
89
330
1F
100
AcDbEntity
  8
0
  6
Continuous
 62
     7
370
    15
100
AcDbSpline
210
0.0
220
0.0
230
1.0
 70
     8
 71
     3
 72
    17
 73
    13
 74
     0
 42
0.00000001
 43
0.00000001
 40
0.0
 40
0.0
 40
0.0
 40
0.0
 40
0.1034797280380778
 40
0.2100239090909901
 40
0.3134862262879433
 40
0.4198361712144981
 40
0.5254127947779869
 40
0.6339610881168427
 40
0.7409508662120068
 40
0.8511696072047016
 40
0.9558996557845765
 40
1.0
 40
1.0
 40
1.0
 40
1.0
 10
101.2134284891096
 20
133.9120619661326
 30
0.0
 10
100.7781799973837
 20
133.9175099577702
 30
0.0
 10
99.89479354680672
 20
133.9285672780989
 30
0.0
 10
98.61396568458397
 20
134.0149260384739
 30
0.0
 10
97.39654948914203
 20
134.1427971816069
 30
0.0
 10
96.28874287281623
 20
134.3017415889254
 30
0.0
 10
95.30050439348739
 20
134.47623616191
 30
0.0
 10
94.47578129367157
 20
134.6454025950969
 30
0.0
 10
93.82682763617295
 20
134.7932834035645
 30
0.0
 10
93.40979233269331
 20
134.8950741550871
 30
0.0
 10
93.21119558981533
 20
134.9454310547216
 30
0.0
 10
93.23450870680325
 20
134.9395214497461
 30
0.0
 10
93.24141668080365
 20
134.9377703583951
 30
0.0
  0
LINE
  5
8A
330
1F
100
AcDbEntity
  8
0
  6
Continuous
 62
     7
370
    15
100
AcDbLine
 10
102.8714955963
 20
133.9120619661
 30
0.0
 11
101.2134284891
 21
133.9120619661
 31
0.0
  0
LINE
  5
8B
330
1F
100
AcDbEntity
  8
0
  6
Continuous
 62
     7
370
    15
100
AcDbLine
 10
102.8714955963
 20
127.9035561449
 30
0.0
 11
102.8714955963
 21
133.9120619661
 31
0.0
  0
LINE
  5
8C
330
1F
100
AcDbEntity
  8
0
  6
Continuous
 62
     7
370
    15
100
AcDbLine
 10
100.4590488218
 20
127.9035561449
 30
0.0
 11
102.8714955963
 21
127.9035561449
 31
0.0
  0
SPLINE
  5
8D
330
1F
100
AcDbEntity
  8
0
  6
Continuous
 62
     7
370
    15
100
AcDbSpline
210
0.0
220
0.0
230
1.0
 70
     8
 71
     3
 72
    20
 73
    16
 74
     0
 42
0.00000001
 43
0.00000001
 40
0.0
 40
0.0
 40
0.0
 40
0.0
 40
0.2499999999999997
 40
0.2499999999999997
 40
0.3749999999999997
 40
0.3749999999999997
 40
0.4999999999999998
 40
0.4999999999999998
 40
0.6249999999999998
 40
0.6249999999999998
 40
0.7499999999999999
 40
0.7499999999999999
 40
0.8749999999999999
 40
0.8749999999999999
 40
1.0
 40
1.0
 40
1.0
 40
1.0
 10
93.2134281359521
 20
123.2948665297741
 30
0.0
 10
93.46180187024017
 20
123.9487289580715
 30
0.0
 10
93.78137196258542
 20
124.5525147400687
 30
0.0
 10
94.4036781957901
 20
125.3793534762373
 30
0.0
 10
94.63510245622086
 20
125.6417821141902
 30
0.0
 10
95.15631679587058
 20
126.1384447682952
 30
0.0
 10
95.44293727850567
 20
126.3690316473167
 30
0.0
 10
96.06242201981327
 20
126.7855858718993
 30
0.0
 10
96.39672239930023
 20
126.9730836738669
 30
0.0
 10
97.12198287192503
 20
127.3044806515033
 30
0.0
 10
97.50389792931549
 20
127.4439846389985
 30
0.0
 10
98.29868610548718
 20
127.6694381464695
 30
0.0
 10
98.71284429969357
 20
127.7560642580131
 30
0.0
 10
99.57839064027496
 20
127.8740450468673
 30
0.0
 10
100.0162782552868
 20
127.9035561921416
 30
0.0
 10
100.4590484816414
 20
127.9035561921416
 30
0.0
  0
SPLINE
  5
8E
330
1F
100
AcDbEntity
  8
0
  6
Continuous
 62
     7
370
    15
100
AcDbSpline
210
0.0
220
0.0
230
1.0
 70
     8
 71
     3
 72
    70
 73
    66
 74
     0
 42
0.00000001
 43
0.00000001
 40
-0.0312500000000001
 40
-0.0312500000000001
 40
0.0
 40
0.0
 40
0.0312499999999999
 40
0.0312499999999999
 40
0.0624999999999998
 40
0.0624999999999998
 40
0.0937499999999997
 40
0.0937499999999997
 40
0.1249999999999996
 40
0.1249999999999996
 40
0.1562499999999994
 40
0.1562499999999994
 40
0.1874999999999993
 40
0.1874999999999993
 40
0.2187499999999992
 40
0.2187499999999992
 40
0.2499999999999991
 40
0.2499999999999991
 40
0.281249999999999
 40
0.281249999999999
 40
0.3124999999999989
 40
0.3124999999999989
 40
0.3437499999999988
 40
0.3437499999999988
 40
0.3749999999999987
 40
0.3749999999999987
 40
0.4062499999999986
 40
0.4062499999999986
 40
0.4374999999999984
 40
0.4374999999999984
 40
0.4687499999999983
 40
0.4687499999999983
 40
0.4999999999999982
 40
0.4999999999999982
 40
0.5312499999999983
 40
0.5312499999999983
 40
0.5624999999999984
 40
0.5624999999999984
 40
0.5937499999999986
 40
0.5937499999999986
 40
0.6249999999999987
 40
0.6249999999999987
 40
0.6562499999999988
 40
0.6562499999999988
 40
0.6874999999999989
 40
0.6874999999999989
 40
0.718749999999999
 40
0.718749999999999
 40
0.7499999999999991
 40
0.7499999999999991
 40
0.7812499999999992
 40
0.7812499999999992
 40
0.8124999999999993
 40
0.8124999999999993
 40
0.8437499999999994
 40
0.8437499999999994
 40
0.8749999999999996
 40
0.8749999999999996
 40
0.9062499999999997
 40
0.9062499999999997
 40
0.9374999999999998
 40
0.9374999999999998
 40
0.9687499999999999
 40
0.9687499999999999
 40
1.0
 40
1.0
 40
1.03125
 40
1.03125
 10
96.52797347461225
 20
114.0657734157575
 30
0.0
 10
95.99888279729197
 20
114.0657734157575
 30
0.0
 10
95.73881212991486
 20
114.0904507105427
 30
0.0
 10
95.22723745007946
 20
114.1869223835846
 30
0.0
 10
94.97306216633926
 20
114.2599032995646
 30
0.0
 10
94.48879153627755
 20
114.4496439025033
 30
0.0
 10
94.2591504443964
 20
114.565504560897
 30
0.0
 10
93.8245460961629
 20
114.8381224068547
 30
0.0
 10
93.6189803195163
 20
114.9961614889085
 30
0.0
 10
93.25042317892105
 20
115.3397043398791
 30
0.0
 10
93.08494219618557
 20
115.5264667839808
 30
0.0
 10
92.79251768675047
 20
115.9300099583776
 30
0.0
 10
92.66841671012398
 20
116.1435069548068
 30
0.0
 10
92.46883751337425
 20
116.5828902687293
 30
0.0
 10
92.39190392751598
 20
116.8120302558749
 30
0.0
 10
92.28904686899561
 20
117.2780043786349
 30
0.0
 10
92.26357395953649
 20
117.5108868243111
 30
0.0
 10
92.2632835489687
 20
117.9762843593909
 30
0.0
 10
92.28930818274445
 20
118.2111601167852
 30
0.0
 10
92.39145646723645
 20
118.6626532640315
 30
0.0
 10
92.46703291481961
 20
118.8806997394429
 30
0.0
 10
92.66753044596454
 20
119.3017942644807
 30
0.0
 10
92.79265928747292
 20
119.503715648999
 30
0.0
 10
93.08201808849451
 20
119.8757451315179
 30
0.0
 10
93.24742907554997
 20
120.0483734350983
 30
0.0
 10
93.6204196336978
 20
120.3656914396443
 30
0.0
 10
93.82215266678689
 20
120.5054783731459
 30
0.0
 10
94.25501191761478
 20
120.7496546266977
 30
0.0
 10
94.48893045050416
 20
120.8548841377392
 30
0.0
 10
94.97311418564676
 20
121.0230412841143
 30
0.0
 10
95.22242981160227
 20
121.0862921747082
 30
0.0
 10
95.73546233603
 20
121.1718713838108
 30
0.0
 10
96.00075615893464
 20
121.1937435487332
 30
0.0
 10
96.52309077880439
 20
121.1939071983771
 30
0.0
 10
96.78284444128613
 20
121.1729055062811
 30
0.0
 10
97.29945625693136
 20
121.0875031512035
 30
0.0
 10
97.55182229743164
 20
121.0234969679165
 30
0.0
 10
98.03334741896447
 20
120.8566824478753
 30
0.0
 10
98.26619815107803
 20
120.7525492844762
 30
0.0
 10
98.70328799951679
 20
120.5065626319812
 30
0.0
 10
98.90460898817396
 20
120.3668128010324
 30
0.0
 10
99.27369501347387
 20
120.0536747313078
 30
0.0
 10
99.44267976452556
 20
119.8782185720377
 30
0.0
 10
99.73313582118477
 20
119.5053783079375
 30
0.0
 10
99.85620763254691
 20
119.3072564978265
 30
0.0
 10
100.0575438739689
 20
118.8865451550928
 30
0.0
 10
100.1347564199112
 20
118.6645551344253
 30
0.0
 10
100.2369599628112
 20
118.214690194717
 30
0.0
 10
100.2631883142635
 20
117.9844347816002
 30
0.0
 10
100.2636647135806
 20
117.5131188390511
 30
0.0
 10
100.2379223010827
 20
117.279881423337
 30
0.0
 10
100.1366115247188
 20
116.8182048838389
 30
0.0
 10
100.0597788853279
 20
116.5873074967268
 30
0.0
 10
99.8593750461127
 20
116.1450314829351
 30
0.0
 10
99.73670354782065
 20
115.9339690516492
 30
0.0
 10
99.44675625865642
 20
115.5324705409166
 30
0.0
 10
99.2781852792912
 20
115.3415640188406
 30
0.0
 10
98.90991568517802
 20
114.9978386868436
 30
0.0
 10
98.70885382790772
 20
114.8427015006295
 30
0.0
 10
98.2718229093228
 20
114.5676241405497
 30
0.0
 10
98.03967469619317
 20
114.4505079111277
 30
0.0
 10
97.5586644146943
 20
114.2615814260632
 30
0.0
 10
97.30656433186388
 20
114.1885064556689
 30
0.0
 10
96.78949484560488
 20
114.0904543965344
 30
0.0
 10
96.52797347461225
 20
114.0657734157575
 30
0.0
 10
95.99888279729197
 20
114.0657734157575
 30
0.0
  0
SPLINE
  5
8F
330
1F
100
AcDbEntity
  8
0
  6
Continuous
 62
     7
370
    15
100
AcDbSpline
210
0.0
220
0.0
230
1.0
 70
     8
 71
     3
 72
    70
 73
    66
 74
     0
 42
0.00000001
 43
0.00000001
 40
-0.0312499999999999
 40
-0.0312499999999999
 40
0.0
 40
0.0
 40
0.0312499999999999
 40
0.0312499999999999
 40
0.0624999999999998
 40
0.0624999999999998
 40
0.0937499999999997
 40
0.0937499999999997
 40
0.1249999999999996
 40
0.1249999999999996
 40
0.1562499999999995
 40
0.1562499999999995
 40
0.1874999999999994
 40
0.1874999999999994
 40
0.2187499999999993
 40
0.2187499999999993
 40
0.2499999999999992
 40
0.2499999999999992
 40
0.2812499999999993
 40
0.2812499999999993
 40
0.3124999999999993
 40
0.3124999999999993
 40
0.3437499999999994
 40
0.3437499999999994
 40
0.3749999999999995
 40
0.3749999999999995
 40
0.4062499999999996
 40
0.4062499999999996
 40
0.4374999999999996
 40
0.4374999999999996
 40
0.4687499999999997
 40
0.4687499999999997
 40
0.4999999999999998
 40
0.4999999999999998
 40
0.5312499999999999
 40
0.5312499999999999
 40
0.5625
 40
0.5625
 40
0.5937500000000001
 40
0.5937500000000001
 40
0.6250000000000002
 40
0.6250000000000002
 40
0.6562500000000004
 40
0.6562500000000004
 40
0.6875000000000006
 40
0.6875000000000006
 40
0.7187500000000007
 40
0.7187500000000007
 40
0.7500000000000008
 40
0.7500000000000008
 40
0.7812500000000007
 40
0.7812500000000007
 40
0.8125000000000006
 40
0.8125000000000006
 40
0.8437500000000004
 40
0.8437500000000004
 40
0.8750000000000003
 40
0.8750000000000003
 40
0.9062500000000003
 40
0.9062500000000003
 40
0.9375000000000002
 40
0.9375000000000002
 40
0.9687500000000001
 40
0.9687500000000001
 40
1.0
 40
1.0
 40
1.03125
 40
1.03125
 10
96.52797347461225
 20
128.5038299245533
 30
0.0
 10
95.99888279729197
 20
128.5038299245533
 30
0.0
 10
95.73881212991486
 20
128.5197303649681
 30
0.0
 10
95.22723745007946
 20
128.5816747151424
 30
0.0
 10
94.97306216633926
 20
128.6284769492337
 30
0.0
 10
94.48879153627755
 20
128.7494539326887
 30
0.0
 10
94.2591504443964
 20
128.8230562604955
 30
0.0
 10
93.8245460961629
 20
128.9948805314737
 30
0.0
 10
93.6189803195163
 20
129.0938839544011
 30
0.0
 10
93.25042317892105
 20
129.306980368314
 30
0.0
 10
93.08494219618557
 20
129.4218800844436
 30
0.0
 10
92.79251768675047
 20
129.6672469831339
 30
0.0
 10
92.66841671012398
 20
129.7956868836042
 30
0.0
 10
92.46883751337425
 20
130.0565790316901
 30
0.0
 10
92.39190392751598
 20
130.1909602030296
 30
0.0
 10
92.28904686899561
 20
130.4602801541359
 30
0.0
 10
92.26357395953649
 20
130.592961418354
 30
0.0
 10
92.2632835489687
 20
130.8541478924851
 30
0.0
 10
92.28930818274445
 20
130.9839129306498
 30
0.0
 10
92.39145646723645
 20
131.2294955649224
 30
0.0
 10
92.46703291481961
 20
131.3461571022313
 30
0.0
 10
92.66753044596454
 20
131.5680622923859
 30
0.0
 10
92.79265928747292
 20
131.6726735463089
 30
0.0
 10
93.08201808849451
 20
131.862719957917
 30
0.0
 10
93.24742907554997
 20
131.9494796293666
 30
0.0
 10
93.6204196336978
 20
132.1069840051182
 30
0.0
 10
93.82215266678689
 20
132.1753092699054
 30
0.0
 10
94.25501191761478
 20
132.2935389935246
 30
0.0
 10
94.48893045050414
 20
132.3438339096284
 30
0.0
 10
94.97311418564676
 20
132.4236994465181
 30
0.0
 10
95.22242981160227
 20
132.4534405743177
 30
0.0
 10
95.73546233603
 20
132.4935933158259
 30
0.0
 10
96.00075615893464
 20
132.5037915852357
 30
0.0
 10
96.52309077880437
 20
132.5038680436205
 30
0.0
 10
96.78284444128612
 20
132.4940770320114
 30
0.0
 10
97.29945625693136
 20
132.4540101932727
 30
0.0
 10
97.55182229743163
 20
132.4239130264158
 30
0.0
 10
98.03334741896447
 20
132.3446908165857
 30
0.0
 10
98.26619815107803
 20
132.2949333371223
 30
0.0
 10
98.70328799951679
 20
132.1758413946719
 30
0.0
 10
98.90460898817396
 20
132.1075261331246
 30
0.0
 10
99.27369501347387
 20
131.9521251661911
 30
0.0
 10
99.44267976452556
 20
131.8639728241241
 30
0.0
 10
99.73313582118476
 20
131.6735334350078
 30
0.0
 10
99.85620763254691
 20
131.5709088573088
 30
0.0
 10
100.0575438739689
 20
131.3492685107006
 30
0.0
 10
100.1347564199112
 20
131.2305144351531
 30
0.0
 10
100.2369599628112
 20
130.9858484962354
 30
0.0
 10
100.2631883142635
 20
130.8586917707869
 30
0.0
 10
100.2636647135806
 20
130.5942436249314
 30
0.0
 10
100.2379223010827
 20
130.4613429446742
 30
0.0
 10
100.1366115247188
 20
130.1945506711922
 30
0.0
 10
100.0597788853279
 20
130.0591867697236
 30
0.0
 10
99.8593750461127
 20
129.796606974421
 30
0.0
 10
99.73670354782065
 20
129.6696318146673
 30
0.0
 10
99.44675625865642
 20
129.4255524285848
 30
0.0
 10
99.2781852792912
 20
129.308127303831
 30
0.0
 10
98.90991568517802
 20
129.0949308428825
 30
0.0
 10
98.70885382790773
 20
128.9977567244576
 30
0.0
 10
98.2718229093228
 20
128.8244018372435
 30
0.0
 10
98.03967469619317
 20
128.7500022855868
 30
0.0
 10
97.55866441469432
 20
128.6295494060822
 30
0.0
 10
97.3065643318639
 20
128.5826910308162
 30
0.0
 10
96.78949484560489
 20
128.5197335338324
 30
0.0
 10
96.52797347461225
 20
128.5038299245533
 30
0.0
 10
95.99888279729197
 20
128.5038299245533
 30
0.0
  0
ARC
  5
90
330
1F
100
AcDbEntity
  8
0
  6
Continuous
 62
     7
370
    15
100
AcDbCircle
 10
96.2605667582
 20
115.3554792942
 30
0.0
 40
4.110793060673529
100
AcDbArc
 50
19.1727787623
 51
159.4979364143
  0
SPLINE
  5
91
330
1F
100
AcDbEntity
  8
0
  6
Continuous
 62
     7
370
    15
100
AcDbSpline
210
0.0
220
0.0
230
1.0
 70
    24
 71
     3
 72
    14
 73
    10
 74
     0
 42
0.00000001
 43
0.00000001
 40
0.0
 40
0.0
 40
0.0
 40
0.0
 40
0.4999999999999984
 40
0.4999999999999984
 40
0.7499999999999992
 40
0.7499999999999992
 40
0.8749999999999996
 40
0.8749999999999996
 40
1.0
 40
1.0
 40
1.0
 40
1.0
 10
108.0757533336198
 20
77.04486652977413
 30
0.0
 10
108.0289686285716
 20
77.04486652977414
 30
0.0
 10
107.966917431792
 20
77.04486652977414
 30
0.0
 10
107.8235257932414
 20
77.04486652977413
 30
0.0
 10
107.7673821396902
 20
77.04486652977413
 30
0.0
 10
107.654431117554
 20
77.04486652977414
 30
0.0
 10
107.6114303555159
 20
77.04486652977414
 30
0.0
 10
107.5073676452094
 20
77.04486652977413
 30
0.0
 10
107.4420354068525
 20
77.04486652977415
 30
0.0
 10
107.3734281359521
 20
77.04486652977413
 30
0.0
  0
SPLINE
  5
92
330
1F
100
AcDbEntity
  8
0
  6
Continuous
 62
     7
370
    15
100
AcDbSpline
210
0.0
220
0.0
230
1.0
 70
    24
 71
     3
 72
    12
 73
     8
 74
     0
 42
0.00000001
 43
0.00000001
 40
0.0
 40
0.0
 40
0.0
 40
0.0
 40
0.5000000000000017
 40
0.5000000000000017
 40
0.7500000000000008
 40
0.7500000000000008
 40
1.0
 40
1.0
 40
1.0
 40
1.0
 10
107.7791306042611
 20
129.8448665297742
 30
0.0
 10
107.7360450546502
 20
129.8448665297742
 30
0.0
 10
107.6868928529009
 20
129.8448665297742
 30
0.0
 10
107.590420258613
 20
129.8448665297742
 30
0.0
 10
107.5543186734784
 20
129.8448665297742
 30
0.0
 10
107.4712129156171
 20
129.8448665297742
 30
0.0
 10
107.4232163186508
 20
129.8448665297742
 30
0.0
 10
107.3734281359521
 20
129.8448665297742
 30
0.0
  0
SPLINE
  5
93
330
1F
100
AcDbEntity
  8
0
  6
Continuous
 62
     7
370
    15
100
AcDbSpline
210
0.0
220
0.0
230
1.0
 70
     8
 71
     3
 72
    10
 73
     6
 74
     0
 42
0.00000001
 43
0.00000001
 40
0.0
 40
0.0
 40
0.0
 40
0.0
 40
0.5
 40
0.5
 40
1.0
 40
1.0
 40
1.0
 40
1.0
 10
108.1734281359521
 20
130.5645203808099
 30
0.0
 10
108.1734281359521
 20
130.4207503229919
 30
0.0
 10
108.1373790772332
 20
130.2783309604967
 30
0.0
 10
108.0018702164592
 20
130.0284366671395
 30
0.0
 10
107.901994223363
 20
129.9204063308913
 30
0.0
 10
107.7791306042611
 20
129.8448665297741
 30
0.0
  0
SPLINE
  5
94
330
1F
100
AcDbEntity
  8
0
  6
Continuous
 62
     7
370
    15
100
AcDbSpline
210
0.0
220
0.0
230
1.0
 70
     8
 71
     3
 72
    10
 73
     6
 74
     0
 42
0.00000001
 43
0.00000001
 40
0.0
 40
0.0
 40
0.0
 40
0.0
 40
0.5
 40
0.5
 40
1.0
 40
1.0
 40
1.0
 40
1.0
 10
108.147280512792
 20
123.2948665297741
 30
0.0
 10
108.1559701557036
 20
123.3417453790923
 30
0.0
 10
108.1625092204541
 20
123.3891678444936
 30
0.0
 10
108.1712678548472
 20
123.4851046430804
 30
0.0
 10
108.1734281359521
 20
123.5330199310909
 30
0.0
 10
108.1734281359521
 20
123.5807331612355
 30
0.0
  0
SPLINE
  5
95
330
1F
100
AcDbEntity
  8
0
  6
Continuous
 62
     7
370
    15
100
AcDbSpline
210
0.0
220
0.0
230
1.0
 70
     8
 71
     3
 72
    10
 73
     6
 74
     0
 42
0.00000001
 43
0.00000001
 40
0.0
 40
0.0
 40
0.0
 40
0.0
 40
0.5
 40
0.5
 40
1.0
 40
1.0
 40
1.0
 40
1.0
 10
104.7477256676431
 20
129.8448665297742
 30
0.0
 10
104.6261854039746
 20
129.9195926969859
 30
0.0
 10
104.5248510436256
 20
130.0285377129027
 30
0.0
 10
104.3892121007372
 20
130.2789681936643
 30
0.0
 10
104.3534281359521
 20
130.4213875557632
 30
0.0
 10
104.3534281359521
 20
130.5645203808099
 30
0.0
  0
SPLINE
  5
96
330
1F
100
AcDbEntity
  8
0
  6
Continuous
 62
     7
370
    15
100
AcDbSpline
210
0.0
220
0.0
230
1.0
 70
    24
 71
     3
 72
    12
 73
     8
 74
     0
 42
0.00000001
 43
0.00000001
 40
0.0
 40
0.0
 40
0.0
 40
0.0
 40
0.2500000000000037
 40
0.2500000000000037
 40
0.5000000000000074
 40
0.5000000000000074
 40
1.0
 40
1.0
 40
1.0
 40
1.0
 10
105.1534281359521
 20
129.8448665297742
 30
0.0
 10
105.1035514536347
 20
129.8448665297742
 30
0.0
 10
105.0555482602311
 20
129.8448665297742
 30
0.0
 10
104.9725001575191
 20
129.8448665297742
 30
0.0
 10
104.9363705780513
 20
129.8448665297742
 30
0.0
 10
104.840458547107
 20
129.8448665297742
 30
0.0
 10
104.7906998791382
 20
129.8448665297742
 30
0.0
 10
104.7477256676431
 20
129.8448665297742
 30
0.0
  0
SPLINE
  5
97
330
1F
100
AcDbEntity
  8
0
  6
Continuous
 62
     7
370
    15
100
AcDbSpline
210
0.0
220
0.0
230
1.0
 70
    24
 71
     3
 72
    14
 73
    10
 74
     0
 42
0.00000001
 43
0.00000001
 40
0.0
 40
0.0
 40
0.0
 40
0.0
 40
0.1249999999999991
 40
0.1249999999999991
 40
0.2499999999999982
 40
0.2499999999999982
 40
0.4999999999999998
 40
0.4999999999999998
 40
1.0
 40
1.0
 40
1.0
 40
1.0
 10
105.1534281359521
 20
77.04486652977413
 30
0.0
 10
105.0849902880657
 20
77.04486652977413
 30
0.0
 10
105.0194402493006
 20
77.04486652977414
 30
0.0
 10
104.9150136098927
 20
77.04486652977414
 30
0.0
 10
104.8724690001312
 20
77.04486652977414
 30
0.0
 10
104.759859539591
 20
77.04486652977413
 30
0.0
 10
104.7043204925715
 20
77.04486652977413
 30
0.0
 10
104.5617087971077
 20
77.04486652977413
 30
0.0
 10
104.4983034421119
 20
77.04486652977413
 30
0.0
 10
104.4511029382844
 20
77.04486652977413
 30
0.0
  0
SPLINE
  5
98
330
1F
100
AcDbEntity
  8
0
  6
Continuous
 62
     7
370
    15
100
AcDbSpline
210
0.0
220
0.0
230
1.0
 70
     8
 71
     3
 72
    10
 73
     6
 74
     0
 42
0.00000001
 43
0.00000001
 40
0.0
 40
0.0
 40
0.0
 40
0.0
 40
0.5
 40
0.5
 40
1.0
 40
1.0
 40
1.0
 40
1.0
 10
104.3534281359521
 20
123.5807331612355
 30
0.0
 10
104.3534281359521
 20
123.5329616532422
 30
0.0
 10
104.3555893795493
 20
123.4852519311806
 30
0.0
 10
104.3642607534094
 20
123.3899568136323
 30
0.0
 10
104.3707899363654
 20
123.3422642496656
 30
0.0
 10
104.3795757591122
 20
123.2948665297741
 30
0.0
  0
LINE
  5
99
330
1F
100
AcDbEntity
  8
0
  6
Continuous
 62
     7
370
    15
100
AcDbLine
 10
107.3734278969
 20
129.8448663867
 30
0.0
 11
105.1534286879
 21
129.8448663867
 31
0.0
  0
LINE
  5
9A
330
1F
100
AcDbEntity
  8
0
  6
Continuous
 62
     7
370
    15
100
AcDbLine
 10
107.3734278969
 20
77.0448666728
 30
0.0
 11
105.1534286879
 21
77.0448666728
 31
0.0
  0
LINE
  5
9B
330
1F
100
AcDbEntity
  8
0
  6
Continuous
 62
     7
370
    15
100
AcDbLine
 10
66.4634279154
 20
80.2164205081
 30
0.0
 11
66.4634279154
 21
81.4811286247
 31
0.0
  0
SPLINE
  5
9C
330
1F
100
AcDbEntity
  8
0
  6
Continuous
 62
     7
370
    15
100
AcDbSpline
210
0.0
220
0.0
230
1.0
 70
     8
 71
     3
 72
    14
 73
    10
 74
     0
 42
0.00000001
 43
0.00000001
 40
0.0
 40
0.0
 40
0.0
 40
0.0
 40
0.25
 40
0.25
 40
0.5
 40
0.5
 40
0.75
 40
0.75
 40
1.0
 40
1.0
 40
1.0
 40
1.0
 10
65.6851410180364
 20
82.61171520621419
 30
0.0
 10
65.74176769323847
 20
82.50401775237732
 30
0.0
 10
65.8362903535282
 20
82.40122817065802
 30
0.0
 10
66.01933532909044
 20
82.20287085843786
 30
0.0
 10
66.11096190604515
 20
82.10681134975961
 30
0.0
 10
66.26981522373836
 20
81.91928230705037
 30
0.0
 10
66.33770583136005
 20
81.8278733342668
 30
0.0
 10
66.43462285706764
 20
81.64949711335666
 30
0.0
 10
66.46342813595268
 20
81.56227520711049
 30
0.0
 10
66.46342813595268
 20
81.48112899857624
 30
0.0
  0
SPLINE
  5
9D
330
1F
100
AcDbEntity
  8
0
  6
Continuous
 62
     7
370
    15
100
AcDbSpline
210
0.0
220
0.0
230
1.0
 70
     8
 71
     3
 72
    14
 73
    10
 74
     0
 42
0.00000001
 43
0.00000001
 40
0.0
 40
0.0
 40
0.0
 40
0.0
 40
0.1249999999999975
 40
0.1249999999999975
 40
0.249999999999995
 40
0.249999999999995
 40
0.4999999999999953
 40
0.4999999999999953
 40
1.0
 40
1.0
 40
1.0
 40
1.0
 10
65.06342813595212
 20
83.0583970684935
 30
0.0
 10
65.11197254460927
 20
83.0641453817738
 30
0.0
 10
65.16488789939419
 20
83.06104449311756
 30
0.0
 10
65.26018324437725
 20
83.03884964895524
 30
0.0
 10
65.30043424166217
 20
83.02161742185937
 30
0.0
 10
65.40470425517515
 20
82.96528950540731
 30
0.0
 10
65.45502623032847
 20
82.92110315946151
 30
0.0
 10
65.58270917785386
 20
82.79009526061088
 30
0.0
 10
65.63879462491612
 20
82.69986074038059
 30
0.0
 10
65.68514101803785
 20
82.61171520621471
 30
0.0
  0
SPLINE
  5
9E
330
1F
100
AcDbEntity
  8
0
  6
Continuous
 62
     7
370
    15
100
AcDbSpline
210
0.0
220
0.0
230
1.0
 70
     8
 71
     3
 72
     8
 73
     4
 74
     0
 42
0.00000001
 43
0.00000001
 40
0.0
 40
0.0
 40
0.0
 40
0.0
 40
1.0
 40
1.0
 40
1.0
 40
1.0
 10
62.79490304300589
 20
82.74855178191072
 30
0.0
 10
63.52948006948885
 20
82.86717679297966
 30
0.0
 10
64.2929551388845
 20
82.96716266511595
 30
0.0
 10
65.06342813595212
 20
83.05839706849349
 30
0.0
  0
SPLINE
  5
9F
330
1F
100
AcDbEntity
  8
0
  6
Continuous
 62
     7
370
    15
100
AcDbSpline
210
0.0
220
0.0
230
1.0
 70
     8
 71
     3
 72
    14
 73
    10
 74
     0
 42
0.00000001
 43
0.00000001
 40
0.0
 40
0.0
 40
0.0
 40
0.0
 40
0.500000000000001
 40
0.500000000000001
 40
0.7500000000000004
 40
0.7500000000000004
 40
0.8750000000000003
 40
0.8750000000000003
 40
1.0
 40
1.0
 40
1.0
 40
1.0
 10
57.51342813595212
 20
82.57492876437907
 30
0.0
 10
58.4055742665057
 20
82.57420653817842
 30
0.0
 10
59.29555070229929
 20
82.57879274463588
 30
0.0
 10
60.6221458693749
 20
82.60651774902742
 30
0.0
 10
61.06299279787364
 20
82.61912428665158
 30
0.0
 10
61.71943303529605
 20
82.65014043465904
 30
0.0
 10
61.93744669188793
 20
82.66248360728581
 30
0.0
 10
62.37015554557071
 20
82.6955076624491
 30
0.0
 10
62.5854320107355
 20
82.71472482758753
 30
0.0
 10
62.7949030430059
 20
82.74855178191072
 30
0.0
  0
SPLINE
  5
A0
330
1F
100
AcDbEntity
  8
0
  6
Continuous
 62
     7
370
    15
100
AcDbSpline
210
0.0
220
0.0
230
1.0
 70
     8
 71
     3
 72
     8
 73
     4
 74
     0
 42
0.00000001
 43
0.00000001
 40
0.0000005163856712
 40
0.0000005163856712
 40
0.0000005163856712
 40
0.0000005163856712
 40
0.000026289209185
 40
0.000026289209185
 40
0.000026289209185
 40
0.000026289209185
 10
57.50338320553343
 20
82.58491263748694
 30
0.0
 10
57.50671094374491
 20
82.58157839061411
 30
0.0
 10
57.51005939672419
 20
82.5782504333351
 30
0.0
 10
57.51342813595209
 20
82.57492876437905
 30
0.0
  0
SPLINE
  5
A1
330
1F
100
AcDbEntity
  8
0
  6
Continuous
 62
     7
370
    15
100
AcDbSpline
210
0.0
220
0.0
230
1.0
 70
     8
 71
     3
 72
     8
 73
     4
 74
     0
 42
0.00000001
 43
0.00000001
 40
0.0000005099763573
 40
0.0000005099763573
 40
0.0000005099763573
 40
0.0000005099763573
 40
0.0000262827998699
 40
0.0000262827998699
 40
0.0000262827998699
 40
0.0000262827998699
 10
57.51342813595209
 20
124.3148042951692
 30
0.0
 10
57.51005939672437
 20
124.3114826262133
 30
0.0
 10
57.50671094374523
 20
124.3081546689345
 30
0.0
 10
57.5033832055339
 20
124.3048204220618
 30
0.0
  0
SPLINE
  5
A2
330
1F
100
AcDbEntity
  8
0
  6
Continuous
 62
     7
370
    15
100
AcDbSpline
210
0.0
220
0.0
230
1.0
 70
     8
 71
     3
 72
    10
 73
     6
 74
     0
 42
0.00000001
 43
0.00000001
 40
0.0
 40
0.0
 40
0.0
 40
0.0
 40
0.5
 40
0.5
 40
1.0
 40
1.0
 40
1.0
 40
1.0
 10
61.06342813595212
 20
124.2679539216019
 30
0.0
 10
60.47584258886153
 20
124.2890194418383
 30
0.0
 10
59.88509619540114
 20
124.2997779277105
 30
0.0
 10
58.70107703010228
 20
124.3131427082462
 30
0.0
 10
58.10766304189682
 20
124.3152853509108
 30
0.0
 10
57.51342813595212
 20
124.3148042951692
 30
0.0
  0
SPLINE
  5
A3
330
1F
100
AcDbEntity
  8
0
  6
Continuous
 62
     7
370
    15
100
AcDbSpline
210
0.0
220
0.0
230
1.0
 70
     8
 71
     3
 72
    18
 73
    14
 74
     0
 42
0.00000001
 43
0.00000001
 40
0.0
 40
0.0
 40
0.0
 40
0.0
 40
0.2500000000000009
 40
0.2500000000000009
 40
0.500000000000001
 40
0.500000000000001
 40
0.7500000000000011
 40
0.7500000000000011
 40
0.875000000000001
 40
0.875000000000001
 40
0.9375000000000006
 40
0.9375000000000006
 40
1.0
 40
1.0
 40
1.0
 40
1.0
 10
62.46342813595213
 20
125.2889742021371
 30
0.0
 10
62.46342813595213
 20
125.2057672932799
 30
0.0
 10
62.42757903601385
 20
125.1170306379664
 30
0.0
 10
62.30270729997994
 20
124.9349054474061
 30
0.0
 10
62.21230688233207
 20
124.8397753987795
 30
0.0
 10
61.99006422758989
 20
124.6505938896552
 30
0.0
 10
61.86029944114413
 20
124.5556487215605
 30
0.0
 10
61.61966198383261
 20
124.4173700139805
 30
0.0
 10
61.53189468569516
 20
124.3716595806781
 30
0.0
 10
61.37737059848835
 20
124.3138362754567
 30
0.0
 10
61.3207597124336
 20
124.2961215114188
 30
0.0
 10
61.196715681527
 20
124.2715822081859
 30
0.0
 10
61.12900100650872
 20
124.2656030696476
 30
0.0
 10
61.06342813595212
 20
124.2679539216019
 30
0.0
  0
LINE
  5
A4
330
1F
100
AcDbEntity
  8
0
  6
Continuous
 62
     7
370
    15
100
AcDbLine
 10
62.4634272598
 20
125.2889741874
 30
0.0
 11
62.4634272598
 21
126.4729124225
 31
0.0
  0
LINE
  5
A5
330
1F
100
AcDbEntity
  8
0
  6
Continuous
 62
     7
370
    15
100
AcDbLine
 10
86.263428041
 20
79.2244353063
 30
0.0
 11
86.263428041
 21
127.6652977533
 31
0.0
  0
SPLINE
  5
A6
330
1F
100
AcDbEntity
  8
0
  6
Continuous
 62
     7
370
    15
100
AcDbSpline
210
0.0
220
0.0
230
1.0
 70
     8
 71
     3
 72
    18
 73
    14
 74
     0
 42
0.00000001
 43
0.00000001
 40
0.0
 40
0.0
 40
0.0
 40
0.0
 40
0.001067142096085
 40
0.1270947925777493
 40
0.2524053537361832
 40
0.3766468838452861
 40
0.4391416358858051
 40
0.5008278334298175
 40
0.5624255844801763
 40
0.6253162510714301
 40
0.7499985254815132
 40
0.8752758926324193
 40
1.0
 40
1.0
 40
1.0
 40
1.0
 10
75.03372926189577
 20
79.78752783603615
 30
0.0
 10
75.03281718661304
 20
79.78741266814413
 30
0.0
 10
74.92419058543254
 20
79.77369636981437
 30
0.0
 10
75.31187205747527
 20
79.82468263119603
 30
0.0
 10
76.17782051758482
 20
79.92423966707052
 30
0.0
 10
77.37822831130762
 20
79.99337029668959
 30
0.0
 10
78.43580386116535
 20
79.99732099695633
 30
0.0
 10
79.26293822528861
 20
79.96983412903208
 30
0.0
 10
80.08820986133645
 20
79.91129164021977
 30
0.0
 10
81.14257506844524
 20
79.79777303826006
 30
0.0
 10
82.30441127469867
 20
79.61461888242651
 30
0.0
 10
83.2566459953718
 20
79.41001873376038
 30
0.0
 10
83.38235109808043
 20
79.3807320637513
 30
0.0
 10
83.44506455509936
 20
79.36612113482899
 30
0.0
  0
SPLINE
  5
A7
330
1F
100
AcDbEntity
  8
0
  6
Continuous
 62
     7
370
    15
100
AcDbSpline
210
0.0
220
0.0
230
1.0
 70
     8
 71
     3
 72
    18
 73
    14
 74
     0
 42
0.00000001
 43
0.00000001
 40
0.0
 40
0.0
 40
0.0
 40
0.0
 40
0.1248907819469273
 40
0.2505384063477967
 40
0.3748721756041158
 40
0.4374907331267689
 40
0.4990776026247599
 40
0.5607931145009658
 40
0.6233901196104445
 40
0.7478191009174896
 40
0.8731941046696081
 40
0.9991614615322162
 40
0.9999999999999999
 40
0.9999999999999999
 40
0.9999999999999999
 40
0.9999999999999999
 10
83.44484569429433
 20
127.5235467321391
 30
0.0
 10
83.38110486232662
 20
127.508885265912
 30
0.0
 10
83.25323692674706
 20
127.479473484466
 30
0.0
 10
82.30123809015855
 20
127.2745195251085
 30
0.0
 10
81.1406940193059
 20
127.0912582632448
 30
0.0
 10
80.08843024764253
 20
126.9782277088698
 30
0.0
 10
79.26420294862426
 20
126.9199669013971
 30
0.0
 10
78.43659920329958
 20
126.8925197652749
 30
0.0
 10
77.37778187360534
 20
126.8965045591496
 30
0.0
 10
76.17556213397951
 20
126.9655973436455
 30
0.0
 10
75.31038136298062
 20
127.0652060808327
 30
0.0
 10
74.92423261534293
 20
127.1160636864759
 30
0.0
 10
75.03231048770655
 20
127.1023628790525
 30
0.0
 10
75.03302518202936
 20
127.1022722787375
 30
0.0
  0
SPLINE
  5
A8
330
1F
100
AcDbEntity
  8
0
  6
Continuous
 62
     7
370
    15
100
AcDbSpline
210
0.0
220
0.0
230
1.0
 70
     8
 71
     3
 72
    39
 73
    35
 74
     0
 42
0.00000001
 43
0.00000001
 40
-0.0929035514947498
 40
-0.0617844675329993
 40
-0.0305606518841987
 40
0.0
 40
0.0305833544991337
 40
0.0618207632592203
 40
0.0929574073278476
 40
0.1240731578172206
 40
0.1552546267378935
 40
0.1868126884168621
 40
0.2185638838482452
 40
0.249931507525989
 40
0.2813251124601421
 40
0.3131464055674568
 40
0.3447816985833619
 40
0.3760142222481845
 40
0.4071224531647309
 40
0.4382110606588945
 40
0.4693931316492472
 40
0.5000117158875057
 40
0.5306249294237224
 40
0.5618454474694697
 40
0.5929501996335507
 40
0.6240749381357711
 40
0.6552854313527381
 40
0.6868966152747101
 40
0.7186677897657543
 40
0.7500607090514105
 40
0.7814251173820412
 40
0.813218890440834
 40
0.8447997037944992
 40
0.8760022562479378
 40
0.9070964485052501
 40
0.9382155324670006
 40
0.9694393481158012
 40
0.9999999999999999
 40
1.030583354499134
 40
1.06182076325922
 40
1.092957407327847
 10
226.0976672995169
 20
96.59197613777394
 30
0.0
 10
224.7630967257687
 20
96.4559517285942
 30
0.0
 10
223.4283502731648
 20
96.59218872740655
 30
0.0
 10
222.1477119135916
 20
97.00085974702249
 30
0.0
 10
220.9647797032326
 20
97.64231514771448
 30
0.0
 10
219.939162965833
 20
98.50647858762215
 30
0.0
 10
219.0965426684096
 20
99.55773949994888
 30
0.0
 10
218.4721779727072
 20
100.7662973272277
 30
0.0
 10
218.0754237032633
 20
102.0768341514174
 30
0.0
 10
217.9440062653136
 20
103.4421777005845
 30
0.0
 10
218.0762733109016
 20
104.8084386660687
 30
0.0
 10
218.4736162050828
 20
106.1213619345529
 30
0.0
 10
219.098364003928
 20
107.3329262387523
 30
0.0
 10
219.9416600318504
 20
108.3858811415695
 30
0.0
 10
220.9669249218427
 20
109.2502982837232
 30
0.0
 10
222.1483930799445
 20
109.8912102147521
 30
0.0
 10
223.4285608908122
 20
110.2984095119346
 30
0.0
 10
224.7638161189918
 20
110.4335618509493
 30
0.0
 10
226.0995915351011
 20
110.2979963287552
 30
0.0
 10
227.3802596856237
 20
109.8900679155376
 30
0.0
 10
228.5625425244315
 20
109.2485220623755
 30
0.0
 10
229.5875247830881
 20
108.3834829780153
 30
0.0
 10
230.4300406325374
 20
107.3304859158956
 30
0.0
 10
231.0539920729496
 20
106.1200469370084
 30
0.0
 10
231.4505290738916
 20
104.8080303283015
 30
0.0
 10
231.5828363067372
 20
103.4425901531873
 30
0.0
 10
231.4515475854453
 20
102.0766482264445
 30
0.0
 10
231.0541765440685
 20
100.7653427234452
 30
0.0
 10
230.4291677983181
 20
99.55573070949774
 30
0.0
 10
229.5858512954555
 20
98.50457813327698
 30
0.0
 10
228.5600194816318
 20
97.64109111361024
 30
0.0
 10
227.3775911668944
 20
97.0003282444181
 30
0.0
 10
226.0976672995169
 20
96.59197613777394
 30
0.0
 10
224.7630967257687
 20
96.4559517285942
 30
0.0
 10
223.4283502731648
 20
96.59218872740655
 30
0.0
  0
LINE
  5
A9
330
1F
100
AcDbEntity
  8
0
  6
Continuous
 62
     7
370
    15
100
AcDbLine
 10
235.3963910781
 20
79.4448663212
 30
0.0
 11
235.3963910781
 21
127.4448667384
 31
0.0
  0
LINE
  5
AA
330
1F
100
AcDbEntity
  8
0
  6
Continuous
 62
     7
370
    15
100
AcDbLine
 10
157.8498318039
 20
127.3332104749
 30
0.0
 11
158.0472423874
 21
127.3208480991
 31
0.0
  0
SPLINE
  5
AB
330
1F
100
AcDbEntity
  8
0
  6
Continuous
 62
     7
370
    15
100
AcDbSpline
210
0.0
220
0.0
230
1.0
 70
     8
 71
     3
 72
    17
 73
    13
 74
     0
 42
0.00000001
 43
0.00000001
 40
0.0
 40
0.0
 40
0.0
 40
0.0
 40
0.0496841712957747
 40
0.1396351655832914
 40
0.2333243564266453
 40
0.3361555718905244
 40
0.4495292406137247
 40
0.570549394149989
 40
0.6940462755126129
 40
0.8141725579237505
 40
0.9242958309275173
 40
1.0
 40
1.0
 40
1.0
 40
1.0
 10
163.6702104650346
 20
127.4398636735196
 30
0.0
 10
163.6776945780911
 20
127.4407200337924
 30
0.0
 10
163.6987283467669
 20
127.4431267964568
 30
0.0
 10
163.3742137733567
 20
127.4059640297714
 30
0.0
 10
162.7645797529796
 20
127.3457923333658
 30
0.0
 10
161.8611866107497
 20
127.278610502897
 30
0.0
 10
160.7255526458033
 20
127.234170668539
 30
0.0
 10
159.4642190221572
 20
127.2385212248283
 30
0.0
 10
158.2554261186948
 20
127.2968170374651
 30
0.0
 10
157.3198141698567
 20
127.3769605879723
 30
0.0
 10
156.7784049022893
 20
127.4371665831737
 30
0.0
 10
156.7549290180754
 20
127.4400265988438
 30
0.0
 10
156.7453651867715
 20
127.441191739511
 30
0.0
  0
SPLINE
  5
AC
330
1F
100
AcDbEntity
  8
0
  6
Continuous
 62
     7
370
    15
100
AcDbSpline
210
0.0
220
0.0
230
1.0
 70
     8
 71
     3
 72
     9
 73
     5
 74
     0
 42
0.00000001
 43
0.00000001
 40
0.0
 40
0.0
 40
0.0
 40
0.0
 40
0.2142792943775731
 40
1.0
 40
1.0
 40
1.0
 40
1.0
 10
157.385541423401
 20
127.3743414051051
 30
0.0
 10
157.410844185855
 20
127.3717399132985
 30
0.0
 10
157.5289272816928
 20
127.3595992544725
 30
0.0
 10
157.7086331680477
 20
127.3448215910508
 30
0.0
 10
157.8498318038789
 20
127.3332104749197
 30
0.0
  0
SPLINE
  5
AD
330
1F
100
AcDbEntity
  8
0
  6
Continuous
 62
     7
370
    15
100
AcDbSpline
210
0.0
220
0.0
230
1.0
 70
     8
 71
     3
 72
    68
 73
    64
 74
     0
 42
0.00000001
 43
0.00000001
 40
-0.0312500000000007
 40
-0.0312500000000007
 40
0.0
 40
0.0
 40
0.0312499999999996
 40
0.0312499999999996
 40
0.0624999999999993
 40
0.0624999999999993
 40
0.0937499999999989
 40
0.0937499999999989
 40
0.1249999999999985
 40
0.1249999999999985
 40
0.1562499999999981
 40
0.1562499999999981
 40
0.1874999999999978
 40
0.1874999999999978
 40
0.2187499999999974
 40
0.2187499999999974
 40
0.249999999999997
 40
0.249999999999997
 40
0.2812499999999966
 40
0.2812499999999966
 40
0.3124999999999962
 40
0.3124999999999962
 40
0.3437499999999959
 40
0.3437499999999959
 40
0.3749999999999955
 40
0.3749999999999955
 40
0.4062499999999951
 40
0.4062499999999951
 40
0.4374999999999948
 40
0.4374999999999948
 40
0.4687499999999944
 40
0.4687499999999944
 40
0.499999999999994
 40
0.499999999999994
 40
0.5312499999999937
 40
0.5312499999999937
 40
0.5624999999999932
 40
0.5624999999999932
 40
0.5937499999999929
 40
0.5937499999999929
 40
0.6249999999999925
 40
0.6249999999999925
 40
0.6874999999999938
 40
0.6874999999999938
 40
0.7187499999999943
 40
0.7187499999999943
 40
0.749999999999995
 40
0.749999999999995
 40
0.7812499999999957
 40
0.7812499999999957
 40
0.8124999999999962
 40
0.8124999999999962
 40
0.8437499999999969
 40
0.8437499999999969
 40
0.8749999999999974
 40
0.8749999999999974
 40
0.9062499999999981
 40
0.9062499999999981
 40
0.9374999999999988
 40
0.9374999999999988
 40
0.9687499999999993
 40
0.9687499999999993
 40
1.0
 40
1.0
 40
1.03125
 40
1.03125
 10
157.6808170524596
 20
105.6178852892884
 30
0.0
 10
158.0188454521792
 20
105.8965845293417
 30
0.0
 10
158.1983801826164
 20
106.0176243053734
 30
0.0
 10
158.5766361240597
 20
106.2264603257731
 30
0.0
 10
158.7768448796699
 20
106.314698314704
 30
0.0
 10
159.1900989784461
 20
106.4550566792511
 30
0.0
 10
159.4004840758386
 20
106.5065805178602
 30
0.0
 10
159.8284613675539
 20
106.5739383784639
 30
0.0
 10
160.0481157715417
 20
106.5896461726655
 30
0.0
 10
160.4833094364548
 20
106.5837521545517
 30
0.0
 10
160.6985345209194
 20
106.5625903560995
 30
0.0
 10
161.1242793536666
 20
106.4840930781948
 30
0.0
 10
161.3368576553876
 20
106.4258765550393
 30
0.0
 10
161.7441117268709
 20
106.2749255585366
 30
0.0
 10
161.9391149021391
 20
106.1826181061396
 30
0.0
 10
162.3114864251266
 20
105.9634511607435
 30
0.0
 10
162.4906898198976
 20
105.8347995635653
 30
0.0
 10
162.8168408093353
 20
105.5492725377605
 30
0.0
 10
162.96458790618
 20
105.3925707554824
 30
0.0
 10
163.2276993635633
 20
105.0495945277786
 30
0.0
 10
163.343835063295
 20
104.8608433812883
 30
0.0
 10
163.5289255392581
 20
104.4694594800248
 30
0.0
 10
163.59956366117
 20
104.265468208446
 30
0.0
 10
163.6939024331724
 20
103.8396637937714
 30
0.0
 10
163.7163290242528
 20
103.6200739496626
 30
0.0
 10
163.7099145903198
 20
103.1869108085068
 30
0.0
 10
163.6809594128958
 20
102.9678289519157
 30
0.0
 10
163.5742014903641
 20
102.5448302735756
 30
0.0
 10
163.4974604514984
 20
102.3419050036712
 30
0.0
 10
163.2993121464924
 20
101.9524072649549
 30
0.0
 10
163.178961375084
 20
101.7688440644646
 30
0.0
 10
162.9056655784296
 20
101.4320146480304
 30
0.0
 10
162.7500681288264
 20
101.2757659279702
 30
0.0
 10
162.4149510226985
 20
100.9982934233901
 30
0.0
 10
162.2356752036657
 20
100.8765540178419
 30
0.0
 10
161.8547843842009
 20
100.6653363494628
 30
0.0
 10
161.6533216069018
 20
100.5764710488801
 30
0.0
 10
161.2430139154877
 20
100.4364965631792
 30
0.0
 10
161.0324021790695
 20
100.3843319550202
 30
0.0
 10
160.6001747376613
 20
100.3158485525706
 30
0.0
 10
160.382051233587
 20
100.3002917140806
 30
0.0
 10
159.7325470955444
 20
100.308346779936
 30
0.0
 10
159.294753149008
 20
100.3883681595878
 30
0.0
 10
158.6867784166624
 20
100.6131120799792
 30
0.0
 10
158.4907619565474
 20
100.7053685248689
 30
0.0
 10
158.1131112522316
 20
100.9275799043818
 30
0.0
 10
157.9370329293921
 20
101.0543583056181
 30
0.0
 10
157.6123955805919
 20
101.3381953238888
 30
0.0
 10
157.4630198528435
 20
101.4959975601516
 30
0.0
 10
157.1964119494737
 20
101.8439032343172
 30
0.0
 10
157.0833679916177
 20
102.0283529894587
 30
0.0
 10
156.8985723923136
 20
102.4187212016426
 30
0.0
 10
156.8262335855737
 20
102.6277714089613
 30
0.0
 10
156.7324523355896
 20
103.053627562598
 30
0.0
 10
156.710444722262
 20
103.2691110851444
 30
0.0
 10
156.7170528241736
 20
103.705280721851
 30
0.0
 10
156.7464864698825
 20
103.9248652960243
 30
0.0
 10
156.8530547161492
 20
104.3458565582562
 30
0.0
 10
156.9314013379106
 20
104.5525303920809
 30
0.0
 10
157.1298917771551
 20
104.9411635476432
 30
0.0
 10
157.2490292075291
 20
105.1226889902377
 30
0.0
 10
157.524778841186
 20
105.4617317647566
 30
0.0
 10
157.6808170524596
 20
105.6178852892884
 30
0.0
 10
158.0188454521792
 20
105.8965845293417
 30
0.0
  0
LINE
  5
AE
330
1F
100
AcDbEntity
  8
0
  6
Continuous
 62
     7
370
    15
100
AcDbLine
 10
157.8498318039
 20
79.5565225846
 30
0.0
 11
157.7560438953
 21
79.5479357905
 31
0.0
  0
SPLINE
  5
AF
330
1F
100
AcDbEntity
  8
0
  6
Continuous
 62
     7
370
    15
100
AcDbSpline
210
0.0
220
0.0
230
1.0
 70
     8
 71
     3
 72
    17
 73
    13
 74
     0
 42
0.00000001
 43
0.00000001
 40
0.0
 40
0.0
 40
0.0
 40
0.0
 40
0.0504777785373287
 40
0.1404289133716113
 40
0.2341811740562246
 40
0.3371072554441442
 40
0.4505666435332872
 40
0.5716332512122633
 40
0.6951282874035848
 40
0.8151961652817898
 40
0.9252081116164638
 40
0.9999999999999999
 40
0.9999999999999999
 40
0.9999999999999999
 40
0.9999999999999999
 10
156.7564442001191
 20
79.44984517164177
 30
0.0
 10
156.7493221981641
 20
79.44903206013564
 30
0.0
 10
156.7295088263289
 20
79.44676998821875
 30
0.0
 10
157.056753214464
 20
79.48421724845973
 30
0.0
 10
157.6690811447174
 20
79.54454810951195
 30
0.0
 10
158.5747679129476
 20
79.61165504177198
 30
0.0
 10
159.7121411925124
 20
79.65576737622868
 30
0.0
 10
160.9738240715796
 20
79.65091288772622
 30
0.0
 10
162.1812583100811
 20
79.59222962054477
 30
0.0
 10
163.1136095787636
 20
79.5121027766352
 30
0.0
 10
163.6504179986966
 20
79.45233121893715
 30
0.0
 10
163.6719655003172
 20
79.44969952437991
 30
0.0
 10
163.6806859813539
 20
79.44863445229477
 30
0.0
  0
LINE
  5
B0
330
1F
100
AcDbEntity
  8
0
  6
Continuous
 62
     7
370
    15
100
AcDbLine
 10
158.3746059976
 20
79.5916520721
 30
0.0
 11
157.8498318039
 21
79.5565225846
 31
0.0
  0
SPLINE
  5
B1
330
1F
100
AcDbEntity
  8
0
  6
Continuous
 62
     7
370
    15
100
AcDbSpline
210
0.0
220
0.0
230
1.0
 70
     8
 71
     3
 72
    24
 73
    20
 74
     0
 42
0.00000001
 43
0.00000001
 40
0.0
 40
0.0
 40
0.0
 40
0.0
 40
0.0032542302843781
 40
0.0766575619949882
 40
0.1688738554139203
 40
0.2312474436806227
 40
0.2864886755403202
 40
0.3346096371856401
 40
0.4209064039265906
 40
0.4998450642423669
 40
0.5787955996257351
 40
0.6210785477094414
 40
0.665243734084757
 40
0.7401236116276338
 40
0.8309483372316385
 40
0.8947808138536767
 40
0.9500409445739305
 40
0.9967360393334912
 40
1.0
 40
1.0
 40
1.0
 40
1.0
 10
227.0226090393869
 20
97.88888056866473
 30
0.0
 10
227.0371724430065
 20
97.89401117821389
 30
0.0
 10
227.3802320664095
 20
98.01486925684279
 30
0.0
 10
228.0813259836568
 20
98.41107124267664
 30
0.0
 10
228.9293978363042
 20
99.07789403491394
 30
0.0
 10
229.5758847905815
 20
99.82989392266053
 30
0.0
 10
230.0017638727844
 20
100.4884511618674
 30
0.0
 10
230.3939126503002
 20
101.2974846573948
 30
0.0
 10
230.6883118759159
 20
102.2760556204125
 30
0.0
 10
230.7991553403827
 20
103.4423894839868
 30
0.0
 10
230.7088306032045
 20
104.3994373750893
 30
0.0
 10
230.5225638823575
 20
105.1650529556148
 30
0.0
 10
230.2658781904506
 20
105.8877884646305
 30
0.0
 10
229.8031862046397
 20
106.7719598963506
 30
0.0
 10
229.1187786342356
 20
107.6183096157474
 30
0.0
 10
228.3692782098981
 20
108.2696981520962
 30
0.0
 10
227.7035875203184
 20
108.678968977654
 30
0.0
 10
227.2662462412388
 20
108.9264880945707
 30
0.0
 10
227.0384875129803
 20
108.9935351960565
 30
0.0
 10
227.0236074171869
 20
108.9979155651445
 30
0.0
  0
SPLINE
  5
B2
330
1F
100
AcDbEntity
  8
0
  6
Continuous
 62
     7
370
    15
100
AcDbSpline
210
0.0
220
0.0
230
1.0
 70
     8
 71
     3
 72
    24
 73
    20
 74
     0
 42
0.00000001
 43
0.00000001
 40
0.0
 40
0.0
 40
0.0
 40
0.0
 40
0.00317459113111
 40
0.0763298404258522
 40
0.168723899449047
 40
0.2311378193176919
 40
0.286460186510245
 40
0.334705152756561
 40
0.4211089558969198
 40
0.50011908569979
 40
0.5790108659993928
 40
0.6212534683872908
 40
0.6653718060913777
 40
0.7400835661521019
 40
0.8308417210907935
 40
0.8945266102152293
 40
0.9498149613565132
 40
0.9967155389945104
 40
1.0
 40
1.0
 40
1.0
 40
1.0
 10
222.5029378376809
 20
109.0012208289618
 30
0.0
 10
222.4888293662934
 20
108.9959667703757
 30
0.0
 10
222.1496054079359
 20
108.8696382332811
 30
0.0
 10
221.445665466362
 20
108.4826960306579
 30
0.0
 10
220.5988858282221
 20
107.812505671472
 30
0.0
 10
219.951058212534
 20
107.0602299023343
 30
0.0
 10
219.5246304976287
 20
106.400507176063
 30
0.0
 10
219.1319829596129
 20
105.5900680079509
 30
0.0
 10
218.8377359720444
 20
104.6099063320407
 30
0.0
 10
218.7276854585081
 20
103.4429289102925
 30
0.0
 10
218.8187640079526
 20
102.4860950486557
 30
0.0
 10
219.0053208877158
 20
101.7212774990399
 30
0.0
 10
219.2619901777177
 20
100.9998436614262
 30
0.0
 10
219.7242713159927
 20
100.1170474370619
 30
0.0
 10
220.4074955831335
 20
99.27214087928651
 30
0.0
 10
221.1561454086522
 20
98.62118009447413
 30
0.0
 10
221.822004941017
 20
98.211417242685
 30
0.0
 10
222.2603778771859
 20
97.9631724211813
 30
0.0
 10
222.4891849902102
 20
97.89588635608804
 30
0.0
 10
222.5041597328988
 20
97.89148268393821
 30
0.0
  0
CIRCLE
  5
B3
330
1F
100
AcDbEntity
  8
0
  6
Continuous
 62
     7
370
    15
100
AcDbCircle
 10
160.213428136
 20
103.4448665298
 30
0.0
 40
2.500000000000014
  0
SPLINE
  5
B4
330
1F
100
AcDbEntity
  8
0
  6
Continuous
 62
     7
370
    15
100
AcDbSpline
210
0.0
220
0.0
230
1.0
 70
     8
 71
     3
 72
     9
 73
     5
 74
     0
 42
0.00000001
 43
0.00000001
 40
0.0
 40
0.0
 40
0.0
 40
0.0
 40
0.7009339503679092
 40
0.9999999999999999
 40
0.9999999999999999
 40
0.9999999999999999
 40
0.9999999999999999
 10
56.38421170338071
 20
83.74358682997173
 30
0.0
 10
56.39335237433055
 20
83.72575754621084
 30
0.0
 10
56.40639307658935
 20
83.70032107855005
 30
0.0
 10
56.42155653985761
 20
83.75420043802359
 30
0.0
 10
56.42609141691602
 20
83.77031392521805
 30
0.0
  0
LINE
  5
B5
330
1F
100
AcDbEntity
  8
0
  6
Continuous
 62
     7
370
    15
100
AcDbLine
 10
56.3634283088
 20
83.7541890062
 30
0.0
 11
56.3634283088
 21
123.1355440534
 31
0.0
  0
SPLINE
  5
B6
330
1F
100
AcDbEntity
  8
0
  6
Continuous
 62
     7
370
    15
100
AcDbSpline
210
0.0
220
0.0
230
1.0
 70
     8
 71
     3
 72
    10
 73
     6
 74
     0
 42
0.00000001
 43
0.00000001
 40
0.0
 40
0.0
 40
0.0
 40
0.0
 40
0.5
 40
0.5
 40
1.0
 40
1.0
 40
1.0
 40
1.0
 10
56.42609151067551
 20
123.1194190745549
 30
0.0
 10
56.41718722156677
 20
123.1651605937681
 30
0.0
 10
56.40067184137379
 20
123.1823514332371
 30
0.0
 10
56.37356389531217
 20
123.1820281563013
 30
0.0
 10
56.36342813595213
 20
123.1641506140049
 30
0.0
 10
56.36342813595212
 20
123.1355442762523
 30
0.0
  0
SPLINE
  5
B7
330
1F
100
AcDbEntity
  8
0
  6
Continuous
 62
     7
370
    15
100
AcDbSpline
210
0.0
220
0.0
230
1.0
 70
     8
 71
     3
 72
    26
 73
    22
 74
     0
 42
0.00000001
 43
0.00000001
 40
0.0
 40
0.0
 40
0.0
 40
0.0
 40
0.2500000000000165
 40
0.2500000000000165
 40
0.3750000000000256
 40
0.3750000000000256
 40
0.4375000000000291
 40
0.4375000000000291
 40
0.4687500000000291
 40
0.4687500000000291
 40
0.5000000000000292
 40
0.5000000000000292
 40
0.5312500000000293
 40
0.5312500000000293
 40
0.5625000000000293
 40
0.5625000000000293
 40
0.625000000000026
 40
0.625000000000026
 40
0.7500000000000173
 40
0.7500000000000173
 40
1.0
 40
1.0
 40
1.0
 40
1.0
 10
57.18758178205663
 20
123.834985863372
 30
0.0
 10
57.14898125918816
 20
123.7172111670165
 30
0.0
 10
57.10268425663389
 20
123.5928214808546
 30
0.0
 10
57.00874490819996
 20
123.3876021485011
 30
0.0
 10
56.97343344128651
 20
123.3160292820547
 30
0.0
 10
56.90725346554085
 20
123.2000760494542
 30
0.0
 10
56.8827150988726
 20
123.159491514644
 30
0.0
 10
56.83934235331882
 20
123.0953498327722
 30
0.0
 10
56.82383395189361
 20
123.0734834074872
 30
0.0
 10
56.7887913073066
 20
123.027889139144
 30
0.0
 10
56.76924101658683
 20
123.0042188481766
 30
0.0
 10
56.72731373621623
 20
122.9596022888366
 30
0.0
 10
56.70466162598458
 20
122.9387222763187
 30
0.0
 10
56.66368791189794
 20
122.9078488625679
 30
0.0
 10
56.64608861200252
 20
122.8980099927355
 30
0.0
 10
56.60146162614637
 20
122.8790203770393
 30
0.0
 10
56.58090240349303
 20
122.8786960523859
 30
0.0
 10
56.52977696399638
 20
122.8879194932621
 30
0.0
 10
56.50886555100784
 20
122.9091663894791
 30
0.0
 10
56.4574156434469
 20
122.9831352683098
 30
0.0
 10
56.43975034414235
 20
123.0492533616246
 30
0.0
 10
56.42609151067551
 20
123.1194190745549
 30
0.0
  0
SPLINE
  5
B8
330
1F
100
AcDbEntity
  8
0
  6
Continuous
 62
     7
370
    15
100
AcDbSpline
210
0.0
220
0.0
230
1.0
 70
     8
 71
     3
 72
    10
 73
     6
 74
     0
 42
0.00000001
 43
0.00000001
 40
0.0
 40
0.0
 40
0.0
 40
0.0
 40
0.5
 40
0.5
 40
1.0
 40
1.0
 40
1.0
 40
1.0
 10
57.50338320553391
 20
124.3048204220618
 30
0.0
 10
57.43582395061568
 20
124.237129029252
 30
0.0
 10
57.37218729527918
 20
124.1624218644984
 30
0.0
 10
57.26196654070731
 20
124.0034557320718
 30
0.0
 10
57.21515024748469
 20
123.9191004660638
 30
0.0
 10
57.18758178205663
 20
123.834985863372
 30
0.0
  0
SPLINE
  5
B9
330
1F
100
AcDbEntity
  8
0
  6
Continuous
 62
     7
370
    15
100
AcDbSpline
210
0.0
220
0.0
230
1.0
 70
     8
 71
     3
 72
    10
 73
     6
 74
     0
 42
0.00000001
 43
0.00000001
 40
0.0
 40
0.0
 40
0.0
 40
0.0
 40
0.5
 40
0.5
 40
1.0
 40
1.0
 40
1.0
 40
1.0
 10
57.18758178205665
 20
83.05474719617617
 30
0.0
 10
57.21505919680988
 20
82.97091039971058
 30
0.0
 10
57.26176782709754
 20
82.88659991212374
 30
0.0
 10
57.37204628983948
 20
82.72747868164087
 30
0.0
 10
57.43593382845112
 20
82.6524939375528
 30
0.0
 10
57.50338320553346
 20
82.58491263748694
 30
0.0
  0
SPLINE
  5
BA
330
1F
100
AcDbEntity
  8
0
  6
Continuous
 62
     7
370
    15
100
AcDbSpline
210
0.0
220
0.0
230
1.0
 70
     8
 71
     3
 72
    24
 73
    20
 74
     0
 42
0.00000001
 43
0.00000001
 40
0.0
 40
0.0
 40
0.0
 40
0.0
 40
0.25
 40
0.25
 40
0.374999999999999
 40
0.374999999999999
 40
0.4374999999999993
 40
0.4374999999999993
 40
0.4687499999999994
 40
0.4687499999999994
 40
0.4999999999999995
 40
0.4999999999999995
 40
0.5624999999999971
 40
0.5624999999999971
 40
0.6249999999999947
 40
0.6249999999999947
 40
0.7499999999999947
 40
0.7499999999999947
 40
1.0
 40
1.0
 40
1.0
 40
1.0
 10
56.42609151067551
 20
83.77031398499341
 30
0.0
 10
56.43984462934576
 20
83.84096404298369
 30
0.0
 10
56.45761719675161
 20
83.9075621557486
 30
0.0
 10
56.50986828830698
 20
83.98166017598182
 30
0.0
 10
56.53090336388853
 20
84.00291798314336
 30
0.0
 10
56.58380377151698
 20
84.01106390928962
 30
0.0
 10
56.60490944439489
 20
84.01012410589384
 30
0.0
 10
56.65096161307284
 20
83.9891081143165
 30
0.0
 10
56.66933208505624
 20
83.97819930820887
 30
0.0
 10
56.71088372012195
 20
83.9455643972615
 30
0.0
 10
56.73345039287886
 20
83.92407241689016
 30
0.0
 10
56.79623140933887
 20
83.85560647330382
 30
0.0
 10
56.82936117030676
 20
83.80953201509874
 30
0.0
 10
56.88627885679179
 20
83.72452412676407
 30
0.0
 10
56.91046488229556
 20
83.68424382558268
 30
0.0
 10
56.97567283267532
 20
83.56930759911674
 30
0.0
 10
57.01038889286655
 20
83.49872461396973
 30
0.0
 10
57.10360416319743
 20
83.29451885489112
 30
0.0
 10
57.14927669855811
 20
83.17162047256377
 30
0.0
 10
57.18758178205665
 20
83.0547471961762
 30
0.0
  0
SPLINE
  5
BB
330
1F
100
AcDbEntity
  8
0
  6
Continuous
 62
     7
370
    15
100
AcDbSpline
210
0.0
220
0.0
230
1.0
 70
     8
 71
     3
 72
     8
 73
     4
 74
     0
 42
0.00000001
 43
0.00000001
 40
0.0
 40
0.0
 40
0.0
 40
0.0
 40
1.0
 40
1.0
 40
1.0
 40
1.0
 10
109.6553609674412
 20
133.9120620029384
 30
0.0
 10
109.1602209380768
 20
133.0253823547581
 30
0.0
 10
108.6661382327979
 20
132.1381197190721
 30
0.0
 10
108.1734281359521
 20
131.2501007209457
 30
0.0
  0
LINE
  5
BC
330
1F
100
AcDbEntity
  8
0
  6
Continuous
 62
     7
370
    15
100
AcDbLine
 10
109.6553600572
 20
127.9035561449
 30
0.0
 11
109.6553600572
 21
133.9120619661
 31
0.0
  0
SPLINE
  5
BD
330
1F
100
AcDbEntity
  8
0
  6
Continuous
 62
     7
370
    15
100
AcDbSpline
210
0.0
220
0.0
230
1.0
 70
     8
 71
     3
 72
     8
 73
     4
 74
     0
 42
0.00000001
 43
0.00000001
 40
0.0
 40
0.0
 40
0.0
 40
0.0
 40
1.0
 40
1.0
 40
1.0
 40
1.0
 10
108.1734281359521
 20
124.4950101973575
 30
0.0
 10
108.652706286542
 20
125.6360214272101
 30
0.0
 10
109.1482741256819
 20
126.7724058379779
 30
0.0
 10
109.6553609674412
 20
127.9035561921416
 30
0.0
  0
LINE
  5
BE
330
1F
100
AcDbEntity
  8
0
  6
Continuous
 62
     7
370
    15
100
AcDbLine
 10
108.1734284006
 20
124.4950105167
 30
0.0
 11
108.1734284006
 21
131.250099904
 31
0.0
  0
LINE
  5
BF
330
1F
100
AcDbEntity
  8
0
  6
Continuous
 62
     7
370
    15
100
AcDbLine
 10
108.1734284006
 20
123.5807330079
 30
0.0
 11
108.1734284006
 21
124.4950105167
 31
0.0
  0
LINE
  5
C0
330
1F
100
AcDbEntity
  8
0
  6
Continuous
 62
     7
370
    15
100
AcDbLine
 10
109.6553600572
 20
127.9035561449
 30
0.0
 11
113.6134288452
 21
127.9035561449
 31
0.0
  0
SPLINE
  5
C1
330
1F
100
AcDbEntity
  8
0
  6
Continuous
 62
     7
370
    15
100
AcDbSpline
210
0.0
220
0.0
230
1.0
 70
     8
 71
     3
 72
    12
 73
     8
 74
     0
 42
0.00000001
 43
0.00000001
 40
0.0
 40
0.0
 40
0.0
 40
0.0
 40
0.25
 40
0.25
 40
0.5
 40
0.5
 40
1.0
 40
1.0
 40
1.0
 40
1.0
 10
113.6134281359521
 20
127.9035561921416
 30
0.0
 10
113.7046278577778
 20
127.9035561921416
 30
0.0
 10
113.7952228669138
 20
127.8753364935537
 30
0.0
 10
113.9486355933604
 20
127.7808934863056
 30
0.0
 10
114.0138444606841
 20
127.7146065096003
 30
0.0
 10
114.1666289900241
 20
127.488981686312
 30
0.0
 10
114.2134281359521
 20
127.3065554232794
 30
0.0
 10
114.2134281359521
 20
127.1258187910325
 30
0.0
  0
LINE
  5
C2
330
1F
100
AcDbEntity
  8
0
  6
Continuous
 62
     7
370
    15
100
AcDbLine
 10
114.213427826
 20
127.1258179761
 30
0.0
 11
114.213427826
 21
123.2948672689
 31
0.0
  0
SPLINE
  5
C3
330
1F
100
AcDbEntity
  8
0
  6
Continuous
 62
     7
370
    15
100
AcDbSpline
210
0.0
220
0.0
230
1.0
 70
     8
 71
     3
 72
    10
 73
     6
 74
     0
 42
0.00000001
 43
0.00000001
 40
0.0
 40
0.0
 40
0.0
 40
0.0
 40
0.5
 40
0.5
 40
1.0
 40
1.0
 40
1.0
 40
1.0
 10
114.2134281359521
 20
133.291306853538
 30
0.0
 10
114.2134281359521
 20
133.4517121198888
 30
0.0
 10
114.1511903048452
 20
133.6107739328774
 30
0.0
 10
113.9320553811027
 20
133.8416863985078
 30
0.0
 10
113.7744666861108
 20
133.9120620029384
 30
0.0
 10
113.6134281359521
 20
133.9120620029384
 30
0.0
  0
LINE
  5
C4
330
1F
100
AcDbEntity
  8
0
  6
Continuous
 62
     7
370
    15
100
AcDbLine
 10
114.213427826
 20
127.1258179761
 30
0.0
 11
114.213427826
 21
133.2913075305
 31
0.0
  0
LINE
  5
C5
330
1F
100
AcDbEntity
  8
0
  6
Continuous
 62
     7
370
    15
100
AcDbLine
 10
113.6134288452
 20
133.9120619661
 30
0.0
 11
109.6553600572
 21
133.9120619661
 31
0.0
  0
SPLINE
  5
C6
330
1F
100
AcDbEntity
  8
0
  6
Continuous
 62
     7
370
    15
100
AcDbSpline
210
0.0
220
0.0
230
1.0
 70
     8
 71
     3
 72
     8
 73
     4
 74
     0
 42
0.00000001
 43
0.00000001
 40
0.0
 40
0.0
 40
0.0
 40
0.0
 40
1.0
 40
1.0
 40
1.0
 40
1.0
 10
104.3534281359521
 20
131.2501007209458
 30
0.0
 10
103.8607180391063
 20
132.1381197190721
 30
0.0
 10
103.3666353338274
 20
133.0253823547581
 30
0.0
 10
102.8714953044631
 20
133.9120620029384
 30
0.0
  0
SPLINE
  5
C7
330
1F
100
AcDbEntity
  8
0
  6
Continuous
 62
     7
370
    15
100
AcDbSpline
210
0.0
220
0.0
230
1.0
 70
     8
 71
     3
 72
     8
 73
     4
 74
     0
 42
0.00000001
 43
0.00000001
 40
0.0
 40
0.0
 40
0.0
 40
0.0
 40
1.0
 40
1.0
 40
1.0
 40
1.0
 10
102.8714953044631
 20
127.9035561921416
 30
0.0
 10
103.3785821462223
 20
126.7724058379779
 30
0.0
 10
103.8741499853623
 20
125.6360214272101
 30
0.0
 10
104.3534281359521
 20
124.4950101973575
 30
0.0
  0
LINE
  5
C8
330
1F
100
AcDbEntity
  8
0
  6
Continuous
 62
     7
370
    15
100
AcDbLine
 10
104.3534281842
 20
124.4950105167
 30
0.0
 11
104.3534281842
 21
131.250099904
 31
0.0
  0
LINE
  5
C9
330
1F
100
AcDbEntity
  8
0
  6
Continuous
 62
     7
370
    15
100
AcDbLine
 10
104.3534281842
 20
124.4950105167
 30
0.0
 11
104.3534281842
 21
123.5807330079
 31
0.0
  0
ARC
  5
CA
330
1F
100
AcDbEntity
  8
0
  6
Continuous
 62
     7
370
    15
100
AcDbCircle
 10
96.2636214664
 20
122.2050498199
 30
0.0
 40
7.197947589070871
100
AcDbArc
 50
70.8186200787
 51
109.2445919003
  0
LINE
  5
CB
330
1F
100
AcDbEntity
  8
0
  6
Continuous
 62
     7
370
    15
100
AcDbLine
 10
248.2634245597
 20
86.7190078563
 30
0.0
 11
248.2634245597
 21
120.1707252032
 31
0.0
  0
LWPOLYLINE
  5
CC
330
1F
100
AcDbEntity
  8
0
  6
Continuous
 62
     7
370
    15
100
AcDbPolyline
 90
        6
 70
   128
 43
0.0
 10
248.3368276797
 20
113.7632659367
 10
248.3264266692
 20
113.8554724596
 10
248.3108698569
 20
113.7620924703
 10
248.2925414286
 20
113.4973435394
 10
248.2742279015
 20
113.1015295825
 10
248.2634245597
 20
112.794326312
  0
ARC
  5
CD
330
1F
100
AcDbEntity
  8
0
  6
Continuous
 62
     7
370
    15
100
AcDbCircle
 10
225.3382279596
 20
113.3170249871
 30
0.0
 40
23.00292851072363
100
AcDbArc
 50
355.2884032808
 51
1.1115683371
  0
LINE
  5
CE
330
1F
100
AcDbEntity
  8
0
  6
Continuous
 62
     7
370
    15
100
AcDbLine
 10
248.2656150304
 20
112.5223689444
 30
0.0
 11
248.2634245597
 21
112.1793004415
 31
0.0
  0
LINE
  5
CF
330
1F
100
AcDbEntity
  8
0
  6
Continuous
 62
     7
370
    15
100
AcDbLine
 10
248.2882498942
 20
111.9503077782
 30
0.0
 11
248.2634245597
 21
111.8454883537
 31
0.0
  0
LINE
  5
D0
330
1F
100
AcDbEntity
  8
0
  6
Continuous
 62
     7
370
    15
100
AcDbLine
 10
248.3196317397
 20
112.7505178294
 30
0.0
 11
248.2882498942
 21
111.9503077782
 31
0.0
  0
LINE
  5
D1
330
1F
100
AcDbEntity
  8
0
  6
Continuous
 62
     7
370
    15
100
AcDbLine
 10
248.3196317397
 20
112.7505178294
 30
0.0
 11
248.3240126811
 21
113.4366539038
 31
0.0
  0
LINE
  5
D2
330
1F
100
AcDbEntity
  8
0
  6
Continuous
 62
     7
370
    15
100
AcDbLine
 10
248.297011777
 20
113.3225799269
 30
0.0
 11
248.3240126811
 21
113.4366539038
 31
0.0
  0
LINE
  5
D3
330
1F
100
AcDbEntity
  8
0
  6
Continuous
 62
     7
370
    15
100
AcDbLine
 10
248.297011777
 20
113.3225799269
 30
0.0
 11
248.2656150304
 21
112.5223689444
 31
0.0
  0
LINE
  5
D4
330
1F
100
AcDbEntity
  8
0
  6
Continuous
 62
     7
370
    15
100
AcDbLine
 10
248.2634245597
 20
111.9509969569
 30
0.0
 11
248.2882498942
 21
111.9503077782
 31
0.0
  0
LINE
  5
D5
330
1F
100
AcDbEntity
  8
0
  6
Continuous
 62
     7
370
    15
100
AcDbLine
 10
248.2746153317
 20
112.7517685956
 30
0.0
 11
248.3196317397
 21
112.7505178294
 31
0.0
  0
LINE
  5
D6
330
1F
100
AcDbEntity
  8
0
  6
Continuous
 62
     7
370
    15
100
AcDbLine
 10
248.3343391858
 20
93.075925178
 30
0.0
 11
248.3283340178
 21
93.0357227764
 31
0.0
  0
ARC
  5
D7
330
1F
100
AcDbEntity
  8
0
  6
Continuous
 62
     7
370
    15
100
AcDbCircle
 10
227.4533118467
 20
93.650319068
 30
0.0
 40
20.88892603933965
100
AcDbArc
 50
358.4243089206
 51
4.9787010082
  0
ARC
  5
D8
330
1F
100
AcDbEntity
  8
0
  6
HIDDEN
 62
     7
370
     0
100
AcDbCircle
 10
224.763428136
 20
103.4448665298
 30
0.0
 40
6.000000000002291
100
AcDbArc
 50
111.9262314796
 51
248.1667758049
  0
ARC
  5
D9
330
1F
100
AcDbEntity
  8
0
  6
HIDDEN
 62
     7
370
     0
100
AcDbCircle
 10
224.763428136
 20
103.4448665298
 30
0.0
 40
7.000000000000012
100
AcDbArc
 50
352.8267459968
 51
77.7635046289
  0
LWPOLYLINE
  5
DA
330
1F
100
AcDbEntity
  8
0
  6
HIDDEN
 62
     7
370
     0
100
AcDbPolyline
 90
        3
 70
   128
 43
0.0
 10
224.3508606397
 20
96.4570349745
 10
225.108644291
 20
96.4533837243
 10
225.7411091767
 20
96.5134782448
  0
ARC
  5
DB
330
1F
100
AcDbEntity
  8
0
  6
HIDDEN
 62
     7
370
     0
100
AcDbCircle
 10
224.763428136
 20
103.4448665298
 30
0.0
 40
7.000000000000004
100
AcDbArc
 50
284.4666337092
 51
352.8267459968
  0
CIRCLE
  5
DC
330
1F
100
AcDbEntity
  8
0
  6
HIDDEN
 62
     7
370
     0
100
AcDbCircle
 10
224.763428136
 20
103.4448665298
 30
0.0
 40
5.000000000000019
  0
CIRCLE
  5
DD
330
1F
100
AcDbEntity
  8
0
  6
HIDDEN
 62
     7
370
     0
100
AcDbCircle
 10
224.763428136
 20
103.4448665298
 30
0.0
 40
3.749999999999986
  0
LINE
  5
DE
330
1F
100
AcDbEntity
  8
0
  6
HIDDEN
 62
     7
370
     0
100
AcDbLine
 10
102.8714955963
 20
127.9035561449
 30
0.0
 11
102.8714955963
 21
123.2948672689
 31
0.0
  0
ARC
  5
DF
330
1F
100
AcDbEntity
  8
0
  6
HIDDEN
 62
     7
370
     0
100
AcDbCircle
 10
96.5433839853
 20
115.9437872908
 30
0.0
 40
3.679670990502849
100
AcDbArc
 50
265.6366256752
 51
11.9475298484
  0
ARC
  5
E0
330
1F
100
AcDbEntity
  8
0
  6
HIDDEN
 62
     7
370
     0
100
AcDbCircle
 10
95.9802168692
 20
115.9358819718
 30
0.0
 40
3.672038336051068
100
AcDbArc
 50
166.4655654762
 51
274.4234186471
  0
LINE
  5
E1
330
1F
100
AcDbEntity
  8
0
  6
HIDDEN
 62
     7
370
     0
100
AcDbLine
 10
76.258578635
 20
79.92026738
 30
0.0
 11
75.7244325422
 21
79.8656527615
 31
0.0
  0
LINE
  5
E2
330
1F
100
AcDbEntity
  8
0
  6
HIDDEN
 62
     7
370
     0
100
AcDbLine
 10
75.4867795102
 20
127.0481996901
 30
0.0
 11
76.2584855027
 21
126.9694489158
 31
0.0
  0
SPLINE
  5
E3
330
1F
100
AcDbEntity
  8
0
  6
HIDDEN
 62
     7
370
     0
100
AcDbSpline
210
0.0
220
0.0
230
1.0
 70
     8
 71
     3
 72
    10
 73
     6
 74
     0
 42
0.00000001
 43
0.00000001
 40
0.0
 40
0.0
 40
0.0
 40
0.0
 40
0.4851573866638717
 40
0.7463613891594972
 40
1.0
 40
1.0
 40
1.0
 40
1.0
 10
224.7634290896264
 20
97.44486647762007
 30
0.0
 10
225.1392089359191
 20
97.46513887518194
 30
0.0
 10
225.7173049843495
 20
97.49632573375975
 30
0.0
 10
226.4696746000904
 20
97.6798809431231
 30
0.0
 10
226.8401120327498
 20
97.8198998661819
 30
0.0
 10
227.0226090393869
 20
97.88888056866473
 30
0.0
  0
SPLINE
  5
E4
330
1F
100
AcDbEntity
  8
0
  6
HIDDEN
 62
     7
370
     0
100
AcDbSpline
210
0.0
220
0.0
230
1.0
 70
     8
 71
     3
 72
    13
 73
     9
 74
     0
 42
0.00000001
 43
0.00000001
 40
0.0
 40
0.0
 40
0.0
 40
0.0
 40
0.2569178484366453
 40
0.4997824684834084
 40
0.7424868193162399
 40
0.8288496301928904
 40
0.9179416455948585
 40
1.0
 40
1.0
 40
1.0
 40
1.0
 10
227.0236074171869
 20
108.9979155651445
 30
0.0
 10
226.6486584677375
 20
109.1282397814734
 30
0.0
 10
225.9192700167157
 20
109.3817595697497
 30
0.0
 10
224.7631452687763
 20
109.4776187534375
 30
0.0
 10
223.8769970454596
 20
109.3971529630968
 30
0.0
 10
223.2472231100337
 20
109.2544048405482
 30
0.0
 10
222.8657126234118
 20
109.1431111527583
 30
0.0
 10
222.6205036997158
 20
109.0472037883285
 30
0.0
 10
222.5029378376809
 20
109.0012208289618
 30
0.0
  0
SPLINE
  5
E5
330
1F
100
AcDbEntity
  8
0
  6
HIDDEN
 62
     7
370
     0
100
AcDbSpline
210
0.0
220
0.0
230
1.0
 70
     8
 71
     3
 72
     9
 73
     5
 74
     0
 42
0.00000001
 43
0.00000001
 40
0.0
 40
0.0
 40
0.0
 40
0.0
 40
0.5145365206319146
 40
1.0
 40
1.0
 40
1.0
 40
1.0
 10
222.5041597328988
 20
97.89148268393821
 30
0.0
 10
222.8794741576232
 20
97.75815856963254
 30
0.0
 10
223.6088964817442
 20
97.49904360119079
 30
0.0
 10
224.3861169411616
 20
97.4625720727263
 30
0.0
 10
224.7634290896264
 20
97.44486647762007
 30
0.0
  0
SPLINE
  5
E6
330
1F
100
AcDbEntity
  8
0
  6
HIDDEN
 62
     7
370
     0
100
AcDbSpline
210
0.0
220
0.0
230
1.0
 70
     8
 71
     3
 72
    15
 73
    11
 74
     0
 42
0.00000001
 43
0.00000001
 40
0.0
 40
0.0
 40
0.0
 40
0.0
 40
0.1409172263352446
 40
0.281889861653346
 40
0.4212989542022905
 40
0.5593768841673977
 40
0.6988856533029646
 40
0.840367202775075
 40
0.9813164473602943
 40
1.0
 40
1.0
 40
1.0
 40
1.0
 10
82.01843017636811
 20
83.60733806259579
 30
0.0
 10
81.70238845675544
 20
83.64769138437048
 30
0.0
 10
81.07018074918705
 20
83.7284138949403
 30
0.0
 10
79.83601757687283
 20
83.80497184132307
 30
0.0
 10
78.56529545305719
 20
83.80029377330814
 30
0.0
 10
77.37673598652073
 20
83.7194973080849
 30
0.0
 10
76.3836133072303
 20
83.59510276123068
 30
0.0
 10
75.74420477591653
 20
83.48869581446945
 30
0.0
 10
75.46318478756312
 20
83.4356187551599
 30
0.0
 10
75.52974535605193
 20
83.4478732471218
 30
0.0
 10
75.53753565921461
 20
83.44930752284473
 30
0.0
  0
SPLINE
  5
E7
330
1F
100
AcDbEntity
  8
0
  6
HIDDEN
 62
     7
370
     0
100
AcDbSpline
210
0.0
220
0.0
230
1.0
 70
     8
 71
     3
 72
    15
 73
    11
 74
     0
 42
0.00000001
 43
0.00000001
 40
0.0
 40
0.0
 40
0.0
 40
0.0
 40
0.1201202497733958
 40
0.2584739452442804
 40
0.3987302041697883
 40
0.5404022600041716
 40
0.680739511736143
 40
0.8190355942651634
 40
0.9577823154231621
 40
1.0
 40
1.0
 40
1.0
 40
1.0
 10
75.53753565921461
 20
123.4404255367035
 30
0.0
 10
75.55824490801808
 20
123.4364010326292
 30
0.0
 10
75.60280693025312
 20
123.4277411318407
 30
0.0
 10
76.16524639998154
 20
123.3284482131295
 30
0.0
 10
77.0587086554288
 20
123.2045322014182
 30
0.0
 10
78.21768747928097
 20
123.1048208258845
 30
0.0
 10
79.4907243481007
 20
123.0776837681865
 30
0.0
 10
80.7250096948278
 20
123.1330211303166
 30
0.0
 10
81.55297277252367
 20
123.2195008661079
 30
0.0
 10
81.93038308517
 20
123.2704977852451
 30
0.0
 10
82.01843017636811
 20
123.2823949969525
 30
0.0
  0
SPLINE
  5
E8
330
1F
100
AcDbEntity
  8
0
  6
HIDDEN
 62
     7
370
     0
100
AcDbSpline
210
0.0
220
0.0
230
1.0
 70
     8
 71
     3
 72
    10
 73
     6
 74
     0
 42
0.00000001
 43
0.00000001
 40
0.0
 40
0.0
 40
0.0
 40
0.0
 40
0.447481803028057
 40
0.8949469514968622
 40
1.0
 40
1.0
 40
1.0
 40
1.0
 10
82.01843017636811
 20
123.2823949969525
 30
0.0
 10
82.2651408936699
 20
123.3119069310986
 30
0.0
 10
82.7585531460939
 20
123.3709297010037
 30
0.0
 10
83.04757097927188
 20
123.3848729994599
 30
0.0
 10
82.98715767609589
 20
123.3809768212106
 30
0.0
 10
82.97567099257385
 20
123.3802360213513
 30
0.0
  0
SPLINE
  5
E9
330
1F
100
AcDbEntity
  8
0
  6
HIDDEN
 62
     7
370
     0
100
AcDbSpline
210
0.0
220
0.0
230
1.0
 70
     8
 71
     3
 72
    10
 73
     6
 74
     0
 42
0.00000001
 43
0.00000001
 40
0.0
 40
0.0
 40
0.0
 40
0.0
 40
0.3453897529067758
 40
0.7966706498392555
 40
1.0
 40
1.0
 40
1.0
 40
1.0
 10
82.975672855219
 20
83.50949703819698
 30
0.0
 10
82.96611264998089
 20
83.51005204423195
 30
0.0
 10
82.94406122878046
 20
83.5113322125485
 30
0.0
 10
82.52715560302792
 20
83.54128913673563
 30
0.0
 10
82.13899671828325
 20
83.59168464688105
 30
0.0
 10
82.01843017636811
 20
83.60733806259579
 30
0.0
  0
LINE
  5
EA
330
1F
100
AcDbEntity
  8
0
  6
HIDDEN
 62
     7
370
     0
100
AcDbLine
 10
69.2674036316
 20
86.4448656059
 30
0.0
 11
69.2674036316
 21
120.4448674536
 31
0.0
  0
LWPOLYLINE
  5
EB
330
1F
100
AcDbEntity
  8
0
  6
HIDDEN
 62
     7
370
     0
100
AcDbPolyline
 90
       12
 70
   128
 43
0.0
 10
96.2634285159
 20
125.3904697216
 10
97.1858914189
 20
125.4443783975
 10
98.0586244903
 20
125.6032042868
 10
98.8345782451
 20
125.8583792216
 10
99.4719204672
 20
126.196151293
 10
99.936292804
 20
126.5983094192
 10
100.2026594423
 20
127.0431724108
 10
100.2566603191
 20
127.5067587114
 10
100.0953859828
 20
127.9640753484
 10
99.7275293983
 20
128.3904683507
 10
99.1729230799
 20
128.7629526771
 10
98.6285771422
 20
129.0033903635
  0
LWPOLYLINE
  5
EC
330
1F
100
AcDbEntity
  8
0
  6
HIDDEN
 62
     7
370
     0
100
AcDbPolyline
 90
       12
 70
   128
 43
0.0
 10
93.8911669135
 20
129.0007770724
 10
93.3539334863
 20
128.7629526771
 10
92.7993267022
 20
128.3904683507
 10
92.4314701177
 20
127.9640753484
 10
92.2701953158
 20
127.5067587114
 10
92.3241971239
 20
127.0431724108
 10
92.5905637622
 20
126.5983094192
 10
93.0549351677
 20
126.196151293
 10
93.6922778554
 20
125.8583792216
 10
94.4682316102
 20
125.6032042868
 10
95.3409646816
 20
125.4443783975
 10
96.2634285159
 20
125.3904697216
  0
SPLINE
  5
ED
330
1F
100
AcDbEntity
  8
0
  6
HIDDEN
 62
     7
370
     0
100
AcDbSpline
210
0.0
220
0.0
230
1.0
 70
     8
 71
     3
 72
     8
 73
     4
 74
     0
 42
0.00000001
 43
0.00000001
 40
0.0
 40
0.0
 40
0.0
 40
0.0
 40
0.0011559732291308
 40
0.0011559732291308
 40
0.0011559732291308
 40
0.0011559732291308
 10
56.36342813595212
 20
105.4447071484068
 30
0.0
 10
56.69676271101944
 20
105.4407398686075
 30
0.0
 10
57.03009390204618
 20
105.436559986031
 30
0.0
 10
57.36342813595211
 20
105.4319948326231
 30
0.0
  0
SPLINE
  5
EE
330
1F
100
AcDbEntity
  8
0
  6
HIDDEN
 62
     7
370
     0
100
AcDbSpline
210
0.0
220
0.0
230
1.0
 70
     8
 71
     3
 72
    11
 73
     7
 74
     0
 42
0.00000001
 43
0.00000001
 40
0.0
 40
0.0
 40
0.0
 40
0.0
 40
0.0005782382535738
 40
0.0005782382535738
 40
0.0005782382535738
 40
0.0011564766069467
 40
0.0011564766069467
 40
0.0011564766069467
 40
0.0011564766069467
 10
57.36342813595211
 20
101.4481662275559
 30
0.0
 10
57.19677418198349
 20
101.4477286497942
 30
0.0
 10
57.03011350978153
 20
101.4472485851219
 30
0.0
 10
56.86344662111614
 20
101.4467290457525
 30
0.0
 10
56.69677970272008
 20
101.4462095062905
 30
0.0
 10
56.53010657288682
 20
101.4456506772686
 30
0.0
 10
56.36342813595211
 20
101.4450651336855
 30
0.0
  0
LINE
  5
EF
330
1F
100
AcDbEntity
  8
0
  6
HIDDEN
 62
     7
370
     0
100
AcDbLine
 10
95.923254098
 20
86.4448656059
 30
0.0
 11
95.923254098
 21
120.4448674536
 31
0.0
  0
LINE
  5
F0
330
1F
100
AcDbEntity
  8
0
  6
HIDDEN
 62
     7
370
     0
100
AcDbLine
 10
98.2134279974
 20
87.7198666996
 30
0.0
 11
98.2134279974
 21
119.1698663599
 31
0.0
  0
SPLINE
  5
F1
330
1F
100
AcDbEntity
  8
0
  6
HIDDEN
 62
     7
370
     0
100
AcDbSpline
210
0.0
220
0.0
230
1.0
 70
     8
 71
     3
 72
    16
 73
    12
 74
     0
 42
0.00000001
 43
0.00000001
 40
0.0
 40
0.0
 40
0.0
 40
0.0
 40
0.124999999999998
 40
0.124999999999998
 40
0.249999999999996
 40
0.249999999999996
 40
0.4999999999999973
 40
0.4999999999999973
 40
0.7499999999999987
 40
0.7499999999999987
 40
1.0
 40
1.0
 40
1.0
 40
1.0
 10
65.06342813595212
 20
87.64337609374248
 30
0.0
 10
65.15854989061795
 20
87.64337609374248
 30
0.0
 10
65.25187995934601
 20
87.63956026034968
 30
0.0
 10
65.43514172008402
 20
87.62478970761985
 30
0.0
 10
65.52601943564103
 20
87.61363165964428
 30
0.0
 10
65.78282113316077
 20
87.57116038950257
 30
0.0
 10
65.93788849803275
 20
87.53011419229976
 30
0.0
 10
66.19163495958738
 20
87.43496807571788
 30
0.0
 10
66.29250541125523
 20
87.3802053416363
 30
0.0
 10
66.42775182595008
 20
87.26894421773243
 30
0.0
 10
66.46342813595211
 20
87.21177448040373
 30
0.0
 10
66.46342813595211
 20
87.15735290737001
 30
0.0
  0
SPLINE
  5
F2
330
1F
100
AcDbEntity
  8
0
  6
HIDDEN
 62
     7
370
     0
100
AcDbSpline
210
0.0
220
0.0
230
1.0
 70
     8
 71
     3
 72
     8
 73
     4
 74
     0
 42
0.00000001
 43
0.00000001
 40
0.0
 40
0.0
 40
0.0
 40
0.0
 40
1.0
 40
1.0
 40
1.0
 40
1.0
 10
57.66342813595317
 20
89.78817903982473
 30
0.0
 10
57.66342813595507
 20
88.90428189750777
 30
0.0
 10
57.64994751004557
 20
88.18969865244584
 30
0.0
 10
57.6485961418545
 20
87.64337609374248
 30
0.0
  0
LINE
  5
F3
330
1F
100
AcDbEntity
  8
0
  6
HIDDEN
 62
     7
370
     0
100
AcDbLine
 10
57.3634284727
 20
93.8440399907
 30
0.0
 11
57.3634284727
 21
90.8130888558
 31
0.0
  0
LINE
  5
F4
330
1F
100
AcDbEntity
  8
0
  6
HIDDEN
 62
     7
370
     0
100
AcDbLine
 10
57.6634279631
 20
107.0495002634
 30
0.0
 11
57.6634279631
 21
95.2118799753
 31
0.0
  0
SPLINE
  5
F5
330
1F
100
AcDbEntity
  8
0
  6
HIDDEN
 62
     7
370
     0
100
AcDbSpline
210
0.0
220
0.0
230
1.0
 70
     8
 71
     3
 72
     8
 73
     4
 74
     0
 42
0.00000001
 43
0.00000001
 40
0.0
 40
0.0
 40
0.0
 40
0.0
 40
1.0
 40
1.0
 40
1.0
 40
1.0
 10
57.36342813595212
 20
113.0518058430533
 30
0.0
 10
57.5444596006191
 20
112.6196983596419
 30
0.0
 10
57.66342813592131
 20
112.1655529560656
 30
0.0
 10
57.66342813591559
 20
111.6778529053861
 30
0.0
  0
LINE
  5
F6
330
1F
100
AcDbEntity
  8
0
  6
HIDDEN
 62
     7
370
     0
100
AcDbLine
 10
57.3634284727
 20
116.0850084118
 30
0.0
 11
57.3634284727
 21
113.0518062703
 31
0.0
  0
SPLINE
  5
F7
330
1F
100
AcDbEntity
  8
0
  6
HIDDEN
 62
     7
370
     0
100
AcDbSpline
210
0.0
220
0.0
230
1.0
 70
     8
 71
     3
 72
    10
 73
     6
 74
     0
 42
0.00000001
 43
0.00000001
 40
0.0
 40
0.0
 40
0.0
 40
0.0
 40
0.5
 40
0.5
 40
1.0
 40
1.0
 40
1.0
 40
1.0
 10
57.66342813605725
 20
117.101554019694
 30
0.0
 10
57.66342813605546
 20
116.9369176741014
 30
0.0
 10
57.63626946563082
 20
116.7697624513156
 30
0.0
 10
57.53050447157208
 20
116.4311394456548
 30
0.0
 10
57.45408968404993
 20
116.2588676694948
 30
0.0
 10
57.36342813595213
 20
116.085008843245
 30
0.0
  0
SPLINE
  5
F8
330
1F
100
AcDbEntity
  8
0
  6
HIDDEN
 62
     7
370
     0
100
AcDbSpline
210
0.0
220
0.0
230
1.0
 70
     8
 71
     3
 72
    18
 73
    14
 74
     0
 42
0.00000001
 43
0.00000001
 40
0.0
 40
0.0
 40
0.0
 40
0.0
 40
0.2500000000000033
 40
0.2500000000000033
 40
0.3750000000000029
 40
0.3750000000000029
 40
0.5000000000000026
 40
0.5000000000000026
 40
0.6250000000000022
 40
0.6250000000000022
 40
0.7500000000000018
 40
0.7500000000000018
 40
1.0
 40
1.0
 40
1.0
 40
1.0
 10
62.46342813595213
 20
119.7323801521783
 30
0.0
 10
62.46342813595211
 20
119.6779056316261
 30
0.0
 10
62.42851744455994
 20
119.6215245722736
 30
0.0
 10
62.32650814322689
 20
119.5374477314201
 30
0.0
 10
62.28487178854877
 20
119.5101140274292
 30
0.0
 10
62.18646599306003
 20
119.4571601118302
 30
0.0
 10
62.12892278135576
 20
119.431272758113
 30
0.0
 10
62.0016246077828
 20
119.3834952132798
 30
0.0
 10
61.93203730302534
 20
119.3615472951019
 30
0.0
 10
61.78060305787038
 20
119.3221147301892
 30
0.0
 10
61.69791915477643
 20
119.3045584809633
 30
0.0
 10
61.44180769273838
 20
119.2621197155428
 30
0.0
 10
61.2538926888504
 20
119.2463569658058
 30
0.0
 10
61.06342813595212
 20
119.2463569658058
 30
0.0
  0
LINE
  5
F9
330
1F
100
AcDbEntity
  8
0
  6
HIDDEN
 62
     7
370
     0
100
AcDbLine
 10
61.0634277753
 20
119.2463577456
 30
0.0
 11
57.6634279631
 21
119.2463577456
 31
0.0
  0
LINE
  5
FA
330
1F
100
AcDbEntity
  8
0
  6
HIDDEN
 62
     7
370
     0
100
AcDbLine
 10
57.5944598012
 20
87.6433753139
 30
0.0
 11
65.063428431
 21
87.6433753139
 31
0.0
  0
SPLINE
  5
FB
330
1F
100
AcDbEntity
  8
0
  6
HIDDEN
 62
     7
370
     0
100
AcDbSpline
210
0.0
220
0.0
230
1.0
 70
     8
 71
     3
 72
    22
 73
    18
 74
     0
 42
0.00000001
 43
0.00000001
 40
0.0
 40
0.0
 40
0.0
 40
0.0
 40
0.125
 40
0.125
 40
0.2499999999999999
 40
0.2499999999999999
 40
0.5000000000000003
 40
0.5000000000000003
 40
0.5625000000000004
 40
0.5625000000000004
 40
0.6250000000000006
 40
0.6250000000000006
 40
0.7500000000000004
 40
0.7500000000000004
 40
0.8750000000000002
 40
0.8750000000000002
 40
1.0
 40
1.0
 40
1.0
 40
1.0
 10
57.59445914931001
 20
87.64337609374248
 30
0.0
 10
57.58137675658162
 20
87.89848180389015
 30
0.0
 10
57.5681571931418
 20
88.19164006299405
 30
0.0
 10
57.54571001534769
 20
88.85394052861886
 30
0.0
 10
57.53623154832324
 20
89.22421444923025
 30
0.0
 10
57.51703358738673
 20
90.44677125234405
 30
0.0
 10
57.5181473603836
 20
91.3839101784759
 30
0.0
 10
57.53705815333665
 20
92.70378140799089
 30
0.0
 10
57.54168768119565
 20
92.9752833169672
 30
0.0
 10
57.55216890094159
 20
93.53366815176949
 30
0.0
 10
57.55796416222603
 20
93.8207910077091
 30
0.0
 10
57.57627338313095
 20
94.6933802620808
 30
0.0
 10
57.59030831741133
 20
95.29383593843666
 30
0.0
 10
57.61976548954817
 20
96.53131043093272
 30
0.0
 10
57.63532118052972
 20
97.16832658757616
 30
0.0
 10
57.65911573052662
 20
98.47981518526073
 30
0.0
 10
57.66713478267199
 20
99.15593779692125
 30
0.0
 10
57.6634281359521
 20
99.84023290820603
 30
0.0
  0
LINE
  5
FC
330
1F
100
AcDbEntity
  8
0
  6
HIDDEN
 62
     7
370
     0
100
AcDbLine
 10
57.6634279631
 20
107.0495002634
 30
0.0
 11
57.6634279631
 21
119.2463577456
 31
0.0
  0
SPLINE
  5
FD
330
1F
100
AcDbEntity
  8
0
  6
HIDDEN
 62
     7
370
     0
100
AcDbSpline
210
0.0
220
0.0
230
1.0
 70
     8
 71
     3
 72
    10
 73
     6
 74
     0
 42
0.00000001
 43
0.00000001
 40
0.0
 40
0.0
 40
0.0
 40
0.0
 40
0.5
 40
0.5
 40
1.0
 40
1.0
 40
1.0
 40
1.0
 10
57.6634281359521
 20
99.84023290819097
 30
0.0
 10
57.66342813595192
 20
100.1141480562651
 30
0.0
 10
57.6376689060831
 20
100.3850896349947
 30
0.0
 10
57.5344629733497
 20
100.9207807165968
 30
0.0
 10
57.45712480947529
 20
101.1865275201186
 30
0.0
 10
57.36342813595212
 20
101.4481662275559
 30
0.0
  0
SPLINE
  5
FE
330
1F
100
AcDbEntity
  8
0
  6
HIDDEN
 62
     7
370
     0
100
AcDbSpline
210
0.0
220
0.0
230
1.0
 70
     8
 71
     3
 72
    10
 73
     6
 74
     0
 42
0.00000001
 43
0.00000001
 40
0.0
 40
0.0
 40
0.0
 40
0.0
 40
0.5
 40
0.5
 40
1.0
 40
1.0
 40
1.0
 40
1.0
 10
57.36342813595211
 20
105.4319948326232
 30
0.0
 10
57.45665871630323
 20
105.6958886392214
 30
0.0
 10
57.53168832783195
 20
105.9620689483198
 30
0.0
 10
57.63675542581145
 20
106.5003915201385
 30
0.0
 10
57.66342813605607
 20
106.7731396347541
 30
0.0
 10
57.66342813605723
 20
107.0495001513412
 30
0.0
  0
LINE
  5
FF
330
1F
100
AcDbEntity
  8
0
  6
HIDDEN
 62
     7
370
     0
100
AcDbLine
 10
57.3634284727
 20
101.4481663435
 30
0.0
 11
57.3634284727
 21
105.4319948155
 31
0.0
  0
SPLINE
  5
100
330
1F
100
AcDbEntity
  8
0
  6
HIDDEN
 62
     7
370
     0
100
AcDbSpline
210
0.0
220
0.0
230
1.0
 70
     8
 71
     3
 72
    46
 73
    42
 74
     0
 42
0.00000001
 43
0.00000001
 40
0.0
 40
0.0
 40
0.0
 40
0.0
 40
0.0624999999999985
 40
0.0624999999999985
 40
0.1249999999999971
 40
0.1249999999999971
 40
0.1874999999999956
 40
0.1874999999999956
 40
0.2187499999999942
 40
0.2187499999999942
 40
0.2499999999999927
 40
0.2499999999999927
 40
0.3124999999999898
 40
0.3124999999999898
 40
0.3749999999999868
 40
0.3749999999999868
 40
0.4062499999999868
 40
0.4062499999999868
 40
0.4374999999999868
 40
0.4374999999999868
 40
0.499999999999988
 40
0.499999999999988
 40
0.5624999999999892
 40
0.5624999999999892
 40
0.6249999999999903
 40
0.6249999999999903
 40
0.6874999999999916
 40
0.6874999999999916
 40
0.7187499999999926
 40
0.7187499999999926
 40
0.7499999999999934
 40
0.7499999999999934
 40
0.7812499999999943
 40
0.7812499999999943
 40
0.8124999999999953
 40
0.8124999999999953
 40
0.8749999999999968
 40
0.8749999999999968
 40
0.9374999999999983
 40
0.9374999999999983
 40
1.0
 40
1.0
 40
1.0
 40
1.0
 10
202.7303154876971
 20
92.3527900425688
 30
0.0
 10
202.6976880777824
 20
92.48784620054451
 30
0.0
 10
202.6421827129545
 20
92.63361953747615
 30
0.0
 10
202.5075873287775
 20
92.92424979208117
 30
0.0
 10
202.4295640700009
 20
93.06714335958105
 30
0.0
 10
202.2752043742945
 20
93.34657659562183
 30
0.0
 10
202.1987268301174
 20
93.48086166027933
 30
0.0
 10
202.1205863591252
 20
93.67947509773948
 30
0.0
 10
202.1020713315288
 20
93.74352390314019
 30
0.0
 10
202.0887142618952
 20
93.86458178409329
 30
0.0
 10
202.0942228465971
 20
93.91888186789865
 30
0.0
 10
202.1421547124592
 20
94.06419362693036
 30
0.0
 10
202.2104789427586
 20
94.13011210975608
 30
0.0
 10
202.3549365407868
 20
94.21528160522507
 30
0.0
 10
202.4337447040365
 20
94.23493596091224
 30
0.0
 10
202.5405746314394
 20
94.22805970431442
 30
0.0
 10
202.5742783958707
 20
94.21971507920118
 30
0.0
 10
202.6360736591983
 20
94.18962644469217
 30
0.0
 10
202.664479009879
 20
94.16748041567145
 30
0.0
 10
202.7351173662679
 20
94.07938821828206
 30
0.0
 10
202.7628917660281
 20
93.98971764372402
 30
0.0
 10
202.7639483309574
 20
93.76313237080869
 30
0.0
 10
202.7371955490731
 20
93.6254480471219
 30
0.0
 10
202.6437584440891
 20
93.33757223844513
 30
0.0
 10
202.5784941095938
 20
93.18888743818295
 30
0.0
 10
202.4361095256056
 20
92.90037389962563
 30
0.0
 10
202.3571571160762
 20
92.75762033271637
 30
0.0
 10
202.248524957132
 20
92.55152655213683
 30
0.0
 10
202.2140736190655
 20
92.48425807972377
 30
0.0
 10
202.153694591147
 20
92.35099828737256
 30
0.0
 10
202.1274974509586
 20
92.28392764890151
 30
0.0
 10
202.0949624603518
 20
92.15687544719803
 30
0.0
 10
202.0888165248057
 20
92.09540414472772
 30
0.0
 10
202.1013916652303
 20
91.9872728082046
 30
0.0
 10
202.1199091120769
 20
91.93948456392093
 30
0.0
 10
202.1973972204666
 20
91.8210828976511
 30
0.0
 10
202.2758249893972
 20
91.77215633736597
 30
0.0
 10
202.4300311028878
 20
91.7234465875013
 30
0.0
 10
202.5089578202427
 20
91.7235430733952
 30
0.0
 10
202.641881862557
 20
91.77545965686986
 30
0.0
 10
202.6976262912084
 20
91.82848214361566
 30
0.0
 10
202.7303154876972
 20
91.90952601900959
 30
0.0
  0
LWPOLYLINE
  5
101
330
1F
100
AcDbEntity
  8
0
  6
HIDDEN
 62
     7
370
     0
100
AcDbPolyline
 90
       16
 70
   128
 43
0.0
 10
202.7303188287
 20
92.3527904517
 10
202.5003119551
 20
92.7312063716
 10
202.0837872468
 20
93.01913499
 10
201.5435530983
 20
93.1731580488
 10
200.9610816084
 20
93.1700483627
 10
200.4241927706
 20
93.0102734558
 10
200.0138669453
 20
92.7179294369
 10
199.791973754
 20
92.3371004603
 10
199.791973754
 20
91.9252156011
 10
200.0138669453
 20
91.5443866245
 10
200.4241927706
 20
91.2520426056
 10
200.9610816084
 20
91.0922676987
 10
201.5435530983
 20
91.0891580126
 10
202.0837872468
 20
91.2431810714
 10
202.5003119551
 20
91.5311096898
 10
202.7303188287
 20
91.9095256097
  0
SPLINE
  5
102
330
1F
100
AcDbEntity
  8
0
  6
HIDDEN
 62
     7
370
     0
100
AcDbSpline
210
0.0
220
0.0
230
1.0
 70
     8
 71
     3
 72
    14
 73
    10
 74
     0
 42
0.00000001
 43
0.00000001
 40
0.0
 40
0.0
 40
0.0
 40
0.0
 40
0.25
 40
0.25
 40
0.5
 40
0.5
 40
0.75
 40
0.75
 40
1.0
 40
1.0
 40
1.0
 40
1.0
 10
200.2796480674275
 20
92.49336909121483
 30
0.0
 10
200.2480013381452
 20
92.4570010381883
 30
0.0
 10
200.2178040095687
 20
92.42124768465187
 30
0.0
 10
200.1697304047438
 20
92.33928057772056
 30
0.0
 10
200.1522449364124
 20
92.29060161289823
 30
0.0
 10
200.1619547727718
 20
92.15764073533715
 30
0.0
 10
200.1872795470095
 20
92.07903311674428
 30
0.0
 10
200.2469745637089
 20
91.92618593606677
 30
0.0
 10
200.2818374921243
 20
91.8503523225637
 30
0.0
 10
200.3182475544035
 20
91.77577147683938
 30
0.0
  0
SPLINE
  5
103
330
1F
100
AcDbEntity
  8
0
  6
HIDDEN
 62
     7
370
     0
100
AcDbSpline
210
0.0
220
0.0
230
1.0
 70
     8
 71
     3
 72
    14
 73
    10
 74
     0
 42
0.00000001
 43
0.00000001
 40
0.0
 40
0.0
 40
0.0
 40
0.0
 40
0.25
 40
0.25
 40
0.5
 40
0.5
 40
0.75
 40
0.75
 40
1.0
 40
1.0
 40
1.0
 40
1.0
 10
200.3182475544039
 20
91.77577147683903
 30
0.0
 10
200.353820808355
 20
91.80878783826698
 30
0.0
 10
200.3847226393741
 20
91.84883861279373
 30
0.0
 10
200.4272767599543
 20
91.94730125490035
 30
0.0
 10
200.4375034101139
 20
92.00411690552502
 30
0.0
 10
200.4291693036173
 20
92.13205427033266
 30
0.0
 10
200.4105516667826
 20
92.20178736707257
 30
0.0
 10
200.3550462842297
 20
92.3453061337181
 30
0.0
 10
200.3189536348702
 20
92.41863171243553
 30
0.0
 10
200.2796480674279
 20
92.4933690912161
 30
0.0
  0
SPLINE
  5
104
330
1F
100
AcDbEntity
  8
0
  6
HIDDEN
 62
     7
370
     0
100
AcDbSpline
210
0.0
220
0.0
230
1.0
 70
     8
 71
     3
 72
    10
 73
     6
 74
     0
 42
0.00000001
 43
0.00000001
 40
0.0
 40
0.0
 40
0.0
 40
0.0
 40
0.5
 40
0.5
 40
1.0
 40
1.0
 40
1.0
 40
1.0
 10
199.7634281359517
 20
93.17427026756273
 30
0.0
 10
199.7634281359517
 20
93.19752368414706
 30
0.0
 10
199.7645077827686
 20
93.21861908002388
 30
0.0
 10
199.7686610397658
 20
93.25670110255177
 30
0.0
 10
199.7717356054017
 20
93.27369022134546
 30
0.0
 10
199.7757384866545
 20
93.28855574752212
 30
0.0
  0
SPLINE
  5
105
330
1F
100
AcDbEntity
  8
0
  6
HIDDEN
 62
     7
370
     0
100
AcDbSpline
210
0.0
220
0.0
230
1.0
 70
     8
 71
     3
 72
    18
 73
    14
 74
     0
 42
0.00000001
 43
0.00000001
 40
0.0
 40
0.0
 40
0.0
 40
0.0
 40
0.0725463909498172
 40
0.1614468621099256
 40
0.2237905737921036
 40
0.2739498593495954
 40
0.3241524546332521
 40
0.3940490095083032
 40
0.5073058708582109
 40
0.6272499136440413
 40
0.7710995805696288
 40
0.905190839686553
 40
1.0
 40
1.0
 40
1.0
 40
1.0
 10
199.7919737540094
 20
93.31806345946735
 30
0.0
 10
199.7970775606049
 20
93.32971780749735
 30
0.0
 10
199.8084357212092
 20
93.35565373476736
 30
0.0
 10
199.8302632633395
 20
93.3537599401728
 30
0.0
 10
199.8452039600571
 20
93.33064943082057
 30
0.0
 10
199.8501945993028
 20
93.28857566065993
 30
0.0
 10
199.8459497741134
 20
93.22573927137557
 30
0.0
 10
199.8293247548818
 20
93.12500313005175
 30
0.0
 10
199.8017387769849
 20
92.98934237243145
 30
0.0
 10
199.7731765873741
 20
92.82635798939695
 30
0.0
 10
199.7597160914963
 20
92.67541226197271
 30
0.0
 10
199.7676545604401
 20
92.56780545593682
 30
0.0
 10
199.7844875444436
 20
92.53966242691635
 30
0.0
 10
199.7914596639482
 20
92.5280057556147
 30
0.0
  0
LWPOLYLINE
  5
106
330
1F
100
AcDbEntity
  8
0
  6
HIDDEN
 62
     7
370
     0
100
AcDbPolyline
 90
        9
 70
   128
 43
0.0
 10
199.7988580905
 20
92.5117532454
 10
199.8292117558
 20
92.5073397077
 10
199.8432933532
 20
92.5311349995
 10
199.8487024747
 20
92.5699106149
 10
199.8456551872
 20
92.6271087221
 10
199.8334138833
 20
92.7060308597
 10
199.8076497756
 20
92.8358488447
 10
199.7759252034
 20
93.0159759439
 10
199.7634305797
 20
93.1742700479
  0
SPLINE
  5
107
330
1F
100
AcDbEntity
  8
0
  6
HIDDEN
 62
     7
370
     0
100
AcDbSpline
210
0.0
220
0.0
230
1.0
 70
     8
 71
     3
 72
     8
 73
     4
 74
     0
 42
0.00000001
 43
0.00000001
 40
0.0
 40
0.0
 40
0.0
 40
0.0
 40
1.0
 40
1.0
 40
1.0
 40
1.0
 10
202.5054621751626
 20
98.21794132550612
 30
0.0
 10
202.4642031564282
 20
98.25475304140654
 30
0.0
 10
202.4186337464824
 20
98.29370176867445
 30
0.0
 10
202.3686541178324
 20
98.33695848333628
 30
0.0
  0
SPLINE
  5
108
330
1F
100
AcDbEntity
  8
0
  6
HIDDEN
 62
     7
370
     0
100
AcDbSpline
210
0.0
220
0.0
230
1.0
 70
     8
 71
     3
 72
    34
 73
    30
 74
     0
 42
0.00000001
 43
0.00000001
 40
0.0
 40
0.0
 40
0.0
 40
0.0
 40
0.0624999999999955
 40
0.0624999999999955
 40
0.124999999999991
 40
0.124999999999991
 40
0.2499999999999876
 40
0.2499999999999876
 40
0.3124999999999886
 40
0.3124999999999886
 40
0.3749999999999896
 40
0.3749999999999896
 40
0.4999999999999917
 40
0.4999999999999917
 40
0.5624999999999927
 40
0.5624999999999927
 40
0.6249999999999938
 40
0.6249999999999938
 40
0.6874999999999948
 40
0.6874999999999948
 40
0.7499999999999958
 40
0.7499999999999958
 40
0.8124999999999969
 40
0.8124999999999969
 40
0.8749999999999979
 40
0.8749999999999979
 40
0.937499999999999
 40
0.937499999999999
 40
1.0
 40
1.0
 40
1.0
 40
1.0
 10
202.3686541178324
 20
98.33695848333629
 30
0.0
 10
202.2665393620336
 20
98.425337468408
 30
0.0
 10
202.1505676759166
 20
98.50110462917617
 30
0.0
 10
201.8910604703678
 20
98.62539808688072
 30
0.0
 10
201.7508004476724
 20
98.67186638896997
 30
0.0
 10
201.3125681682797
 20
98.75721591468344
 30
0.0
 10
200.9975038162552
 20
98.73780142368709
 30
0.0
 10
200.5800553012994
 20
98.60323909054489
 30
0.0
 10
200.4474004791738
 20
98.54051446832165
 30
0.0
 10
200.2140389021458
 20
98.39077050295685
 30
0.0
 10
200.1099228489522
 20
98.30164563801269
 30
0.0
 10
199.8572054048947
 20
98.01382596724281
 30
0.0
 10
199.7635124014187
 20
97.78923382205494
 30
0.0
 10
199.7633860910947
 20
97.4696481269355
 30
0.0
 10
199.7857214072113
 20
97.36756490947597
 30
0.0
 10
199.8750353156343
 20
97.17424977178113
 30
0.0
 10
199.9399436206874
 20
97.08701431726493
 30
0.0
 10
200.1099532002443
 20
96.92911611205376
 30
0.0
 10
200.2120759899997
 20
96.86151276750772
 30
0.0
 10
200.4466558154695
 20
96.74836087961114
 30
0.0
 10
200.5778990347119
 20
96.70371075088934
 30
0.0
 10
200.8565824218318
 20
96.6398229766851
 30
0.0
 10
201.0057293789742
 20
96.62037734566526
 30
0.0
 10
201.3040845755506
 20
96.60787849532456
 30
0.0
 10
201.4571460128853
 20
96.6147375252738
 30
0.0
 10
201.7482562459217
 20
96.6539871488368
 30
0.0
 10
201.8905989058971
 20
96.68696414593174
 30
0.0
 10
202.1482792937688
 20
96.77648797327517
 30
0.0
 10
202.266536702234
 20
96.83374528178939
 30
0.0
 10
202.3686541178324
 20
96.90275101649137
 30
0.0
  0
SPLINE
  5
109
330
1F
100
AcDbEntity
  8
0
  6
HIDDEN
 62
     7
370
     0
100
AcDbSpline
210
0.0
220
0.0
230
1.0
 70
     8
 71
     3
 72
     8
 73
     4
 74
     0
 42
0.00000001
 43
0.00000001
 40
0.0
 40
0.0
 40
0.0
 40
0.0
 40
1.0
 40
1.0
 40
1.0
 40
1.0
 10
202.3686541178324
 20
96.90275101649137
 30
0.0
 10
202.4186337464824
 20
96.93652469725792
 30
0.0
 10
202.4642031564282
 20
96.9791714617764
 30
0.0
 10
202.5054621751626
 20
97.02852849100127
 30
0.0
  0
SPLINE
  5
10A
330
1F
100
AcDbEntity
  8
0
  6
HIDDEN
 62
     7
370
     0
100
AcDbSpline
210
0.0
220
0.0
230
1.0
 70
     8
 71
     3
 72
    12
 73
     8
 74
     0
 42
0.00000001
 43
0.00000001
 40
0.0
 40
0.0
 40
0.0
 40
0.0
 40
0.2500000000000002
 40
0.2500000000000002
 40
0.5000000000000004
 40
0.5000000000000004
 40
1.0
 40
1.0
 40
1.0
 40
1.0
 10
202.5054621751626
 20
97.02852849100125
 30
0.0
 10
202.5891877408172
 20
97.12868708220475
 30
0.0
 10
202.6530684278983
 20
97.23169920951383
 30
0.0
 10
202.7409808372098
 20
97.44539609696983
 30
0.0
 10
202.7632910078419
 20
97.55297463554237
 30
0.0
 10
202.7637005041296
 20
97.86912377458339
 30
0.0
 10
202.6729187427071
 20
98.06853487379702
 30
0.0
 10
202.5054621751626
 20
98.21794132550613
 30
0.0
  0
SPLINE
  5
10B
330
1F
100
AcDbEntity
  8
0
  6
HIDDEN
 62
     7
370
     0
100
AcDbSpline
210
0.0
220
0.0
230
1.0
 70
     8
 71
     3
 72
    14
 73
    10
 74
     0
 42
0.00000001
 43
0.00000001
 40
0.0
 40
0.0
 40
0.0
 40
0.0
 40
0.25
 40
0.25
 40
0.5
 40
0.5
 40
0.75
 40
0.75
 40
1.0
 40
1.0
 40
1.0
 40
1.0
 10
200.3182475544037
 20
93.42297132401325
 30
0.0
 10
200.2817785587698
 20
93.45582030050906
 30
0.0
 10
200.2468356266098
 20
93.4874361448624
 30
0.0
 10
200.1870982852651
 20
93.55823328783227
 30
0.0
 10
200.1618090859421
 20
93.59817508980137
 30
0.0
 10
200.1523219867109
 20
93.71592344761883
 30
0.0
 10
200.1698169894638
 20
93.79222000059531
 30
0.0
 10
200.2180115587213
 20
93.94355650353019
 30
0.0
 10
200.2480641086988
 20
94.01962647796006
 30
0.0
 10
200.2796480674262
 20
94.0947289987767
 30
0.0
  0
SPLINE
  5
10C
330
1F
100
AcDbEntity
  8
0
  6
HIDDEN
 62
     7
370
     0
100
AcDbSpline
210
0.0
220
0.0
230
1.0
 70
     8
 71
     3
 72
    10
 73
     6
 74
     0
 42
0.00000001
 43
0.00000001
 40
0.0
 40
0.0
 40
0.0
 40
0.0
 40
0.5
 40
0.5
 40
1.0
 40
1.0
 40
1.0
 40
1.0
 10
200.2796480674279
 20
94.09472899877845
 30
0.0
 10
200.3581283854803
 20
94.0419302404828
 30
0.0
 10
200.424538445576
 20
93.95677188730919
 30
0.0
 10
200.4419823077049
 20
93.71532228270243
 30
0.0
 10
200.3894219389797
 20
93.5707111394357
 30
0.0
 10
200.3182475544039
 20
93.42297132401279
 30
0.0
  0
SPLINE
  5
10D
330
1F
100
AcDbEntity
  8
0
  6
HIDDEN
 62
     7
370
     0
100
AcDbSpline
210
0.0
220
0.0
230
1.0
 70
     8
 71
     3
 72
    10
 73
     6
 74
     0
 42
0.00000001
 43
0.00000001
 40
0.0
 40
0.0
 40
0.0
 40
0.0
 40
0.5
 40
0.5
 40
1.0
 40
1.0
 40
1.0
 40
1.0
 10
202.7303154876972
 20
91.90952601900959
 30
0.0
 10
202.7518681492761
 20
91.96295991788236
 30
0.0
 10
202.7634105311353
 20
92.02894110194612
 30
0.0
 10
202.7634456992274
 20
92.1783423700934
 30
0.0
 10
202.7518274121132
 20
92.2637447315895
 30
0.0
 10
202.7303154876971
 20
92.3527900425688
 30
0.0
  0
ARC
  5
10E
330
1F
100
AcDbEntity
  8
0
  6
HIDDEN
 62
     7
370
     0
100
AcDbCircle
 10
187.1369322659
 20
93.002661933
 30
0.0
 40
13.18801269984795
100
AcDbArc
 50
1.8263581822
 51
4.7499612848
  0
ARC
  5
10F
330
1F
100
AcDbEntity
  8
0
  6
HIDDEN
 62
     7
370
     0
100
AcDbCircle
 10
202.0037274245
 20
92.1311580307
 30
0.0
 40
0.7596420201050056
100
AcDbArc
 50
343.0367038683
 51
16.9632961317
  0
LINE
  5
110
330
1F
100
AcDbEntity
  8
0
  6
HIDDEN
 62
     7
370
     0
100
AcDbLine
 10
57.5134272866
 20
85.4548659838
 30
0.0
 11
57.5134272866
 21
82.5749278731
 31
0.0
  0
LINE
  5
111
330
1F
100
AcDbEntity
  8
0
  6
HIDDEN
 62
     7
370
     0
100
AcDbLine
 10
66.4634279154
 20
85.4548659838
 30
0.0
 11
66.4634279154
 21
81.4811286247
 31
0.0
  0
ARC
  5
112
330
1F
100
AcDbEntity
  8
0
  6
HIDDEN
 62
     7
370
     0
100
AcDbCircle
 10
216.4866752948
 20
93.0051832576
 30
0.0
 40
16.21510326693213
100
AcDbArc
 50
181.8087872431
 51
184.3482761836
  0
LINE
  5
113
330
1F
100
AcDbEntity
  8
0
  6
HIDDEN
 62
     7
370
     0
100
AcDbLine
 10
57.5134272866
 20
121.4348670758
 30
0.0
 11
57.5134272866
 21
124.3148051865
 31
0.0
  0
LINE
  5
114
330
1F
100
AcDbEntity
  8
0
  6
HIDDEN
 62
     7
370
     0
100
AcDbLine
 10
62.4634272598
 20
121.4348670758
 30
0.0
 11
62.4634272598
 21
125.2889741874
 31
0.0
  0
LINE
  5
115
330
1F
100
AcDbEntity
  8
0
  6
HIDDEN
 62
     7
370
     0
100
AcDbLine
 10
110.0634283565
 20
93.9448668352
 30
0.0
 11
110.0634283565
 21
112.9448662243
 31
0.0
  0
LINE
  5
116
330
1F
100
AcDbEntity
  8
0
  6
HIDDEN
 62
     7
370
     0
100
AcDbLine
 10
107.0634278648
 20
93.9448668352
 30
0.0
 11
107.0634278648
 21
112.9448662243
 31
0.0
  0
LINE
  5
117
330
1F
100
AcDbEntity
  8
0
  6
HIDDEN
 62
     7
370
     0
100
AcDbLine
 10
98.7134280793
 20
94.9448660678
 30
0.0
 11
98.7134280793
 21
111.9448669917
 31
0.0
  0
LINE
  5
118
330
1F
100
AcDbEntity
  8
0
  6
HIDDEN
 62
     7
370
     0
100
AcDbLine
 10
93.2134281091
 20
71.9607432104
 30
0.0
 11
93.2134281091
 21
77.0448666728
 31
0.0
  0
LINE
  5
119
330
1F
100
AcDbEntity
  8
0
  6
HIDDEN
 62
     7
370
     0
100
AcDbLine
 10
101.2134284891
 20
77.0448666728
 30
0.0
 11
93.2134281091
 21
77.0448666728
 31
0.0
  0
LINE
  5
11A
330
1F
100
AcDbEntity
  8
0
  6
HIDDEN
 62
     7
370
     0
100
AcDbLine
 10
114.213427826
 20
77.0448666728
 30
0.0
 11
108.0757531516
 21
77.0448666728
 31
0.0
  0
LINE
  5
11B
330
1F
100
AcDbEntity
  8
0
  6
HIDDEN
 62
     7
370
     0
100
AcDbLine
 10
104.4511034332
 20
77.0448666728
 30
0.0
 11
101.2134284891
 21
77.0448666728
 31
0.0
  0
LINE
  5
11C
330
1F
100
AcDbEntity
  8
0
  6
HIDDEN
 62
     7
370
     0
100
AcDbLine
 10
199.2634295665
 20
95.5448669112
 30
0.0
 11
199.2634295665
 21
111.3448661483
 31
0.0
  0
SPLINE
  5
11D
330
1F
100
AcDbEntity
  8
0
  6
HIDDEN
 62
     7
370
     0
100
AcDbSpline
210
0.0
220
0.0
230
1.0
 70
     8
 71
     3
 72
    34
 73
    30
 74
     0
 42
0.00000001
 43
0.00000001
 40
0.0
 40
0.0
 40
0.0
 40
0.0
 40
0.0624999999999957
 40
0.0624999999999957
 40
0.1249999999999913
 40
0.1249999999999913
 40
0.2499999999999882
 40
0.2499999999999882
 40
0.3124999999999895
 40
0.3124999999999895
 40
0.3749999999999906
 40
0.3749999999999906
 40
0.499999999999993
 40
0.499999999999993
 40
0.5624999999999939
 40
0.5624999999999939
 40
0.6249999999999948
 40
0.6249999999999948
 40
0.6874999999999957
 40
0.6874999999999957
 40
0.7499999999999964
 40
0.7499999999999964
 40
0.8124999999999973
 40
0.8124999999999973
 40
0.8749999999999982
 40
0.8749999999999982
 40
0.9374999999999991
 40
0.9374999999999991
 40
1.0
 40
1.0
 40
1.0
 40
1.0
 10
202.3686541178324
 20
108.552774576212
 30
0.0
 10
202.2665393620336
 20
108.4643955911403
 30
0.0
 10
202.1505676759166
 20
108.3886284303721
 30
0.0
 10
201.8910604703678
 20
108.2643349726675
 30
0.0
 10
201.7508004476723
 20
108.2178666705783
 30
0.0
 10
201.3125681682797
 20
108.1325171448648
 30
0.0
 10
200.9975038162552
 20
108.1519316358612
 30
0.0
 10
200.5800553012994
 20
108.2864939690034
 30
0.0
 10
200.4474004791738
 20
108.3492185912266
 30
0.0
 10
200.2140389021457
 20
108.4989625565914
 30
0.0
 10
200.1099228489522
 20
108.5880874215356
 30
0.0
 10
199.8572054048947
 20
108.8759070923055
 30
0.0
 10
199.7635124014187
 20
109.1004992374933
 30
0.0
 10
199.7633860910947
 20
109.4200849326128
 30
0.0
 10
199.7857214072113
 20
109.5221681500723
 30
0.0
 10
199.8750353156343
 20
109.7154832877671
 30
0.0
 10
199.9399436206874
 20
109.8027187422833
 30
0.0
 10
200.1099532002443
 20
109.9606169474945
 30
0.0
 10
200.2120759899997
 20
110.0282202920406
 30
0.0
 10
200.4466558154695
 20
110.1413721799372
 30
0.0
 10
200.5778990347119
 20
110.1860223086589
 30
0.0
 10
200.8565824218318
 20
110.2499100828632
 30
0.0
 10
201.0057293789742
 20
110.269355713883
 30
0.0
 10
201.3040845755506
 20
110.2818545642237
 30
0.0
 10
201.4571460128853
 20
110.2749955342745
 30
0.0
 10
201.7482562459217
 20
110.2357459107115
 30
0.0
 10
201.8905989058971
 20
110.2027689136165
 30
0.0
 10
202.1482792937687
 20
110.1132450862731
 30
0.0
 10
202.266536702234
 20
110.0559877777589
 30
0.0
 10
202.3686541178324
 20
109.9869820430569
 30
0.0
  0
SPLINE
  5
11E
330
1F
100
AcDbEntity
  8
0
  6
HIDDEN
 62
     7
370
     0
100
AcDbSpline
210
0.0
220
0.0
230
1.0
 70
     8
 71
     3
 72
     8
 73
     4
 74
     0
 42
0.00000001
 43
0.00000001
 40
0.0
 40
0.0
 40
0.0
 40
0.0
 40
1.0
 40
1.0
 40
1.0
 40
1.0
 10
202.3686541178324
 20
109.9869820430569
 30
0.0
 10
202.4186337464824
 20
109.9532083622904
 30
0.0
 10
202.4642031564282
 20
109.9105615977719
 30
0.0
 10
202.5054621751626
 20
109.861204568547
 30
0.0
  0
SPLINE
  5
11F
330
1F
100
AcDbEntity
  8
0
  6
HIDDEN
 62
     7
370
     0
100
AcDbSpline
210
0.0
220
0.0
230
1.0
 70
     8
 71
     3
 72
    12
 73
     8
 74
     0
 42
0.00000001
 43
0.00000001
 40
0.0
 40
0.0
 40
0.0
 40
0.0
 40
0.2499999999999998
 40
0.2499999999999998
 40
0.4999999999999996
 40
0.4999999999999996
 40
1.0
 40
1.0
 40
1.0
 40
1.0
 10
202.5054621751626
 20
109.861204568547
 30
0.0
 10
202.5891877408172
 20
109.7610459773435
 30
0.0
 10
202.6530684278983
 20
109.6580338500344
 30
0.0
 10
202.7409808372098
 20
109.4443369625784
 30
0.0
 10
202.7632910078419
 20
109.3367584240059
 30
0.0
 10
202.7637005041295
 20
109.0206092849649
 30
0.0
 10
202.6729187427071
 20
108.8211981857512
 30
0.0
 10
202.5054621751626
 20
108.6717917340421
 30
0.0
  0
LINE
  5
120
330
1F
100
AcDbEntity
  8
0
  6
HIDDEN
 62
     7
370
     0
100
AcDbLine
 10
203.2634302221
 20
95.4448661498
 30
0.0
 11
203.2634302221
 21
111.4448669098
 31
0.0
  0
LINE
  5
121
330
1F
100
AcDbEntity
  8
0
  6
HIDDEN
 62
     7
370
     0
100
AcDbLine
 10
114.213427826
 20
129.8448663867
 30
0.0
 11
107.7791306369
 21
129.8448663867
 31
0.0
  0
LINE
  5
122
330
1F
100
AcDbEntity
  8
0
  6
HIDDEN
 62
     7
370
     0
100
AcDbLine
 10
104.7477259479
 20
129.8448663867
 30
0.0
 11
101.2134284891
 21
129.8448663867
 31
0.0
  0
LINE
  5
123
330
1F
100
AcDbEntity
  8
0
  6
HIDDEN
 62
     7
370
     0
100
AcDbLine
 10
101.2134284891
 20
129.8448663867
 30
0.0
 11
93.2134281091
 21
129.8448663867
 31
0.0
  0
SPLINE
  5
124
330
1F
100
AcDbEntity
  8
0
  6
HIDDEN
 62
     7
370
     0
100
AcDbSpline
210
0.0
220
0.0
230
1.0
 70
     8
 71
     3
 72
    11
 73
     7
 74
     0
 42
0.00000001
 43
0.00000001
 40
0.0
 40
0.0
 40
0.0
 40
0.0
 40
0.0008203708524183
 40
0.0008203708524183
 40
0.0008203708524183
 40
0.0016409967870154
 40
0.0016409967870154
 40
0.0016409967870154
 40
0.0016409967870154
 10
57.51342813595212
 20
87.59283377913142
 30
0.0
 10
57.32226983565344
 20
87.55165475051227
 30
0.0
 10
57.13084276558125
 20
87.51290077828227
 30
0.0
 10
56.93919714206061
 20
87.47653301900374
 30
0.0
 10
56.74749173698015
 20
87.4401539152377
 30
0.0
 10
56.55555278492122
 20
87.40615966447015
 30
0.0
 10
56.36342813785042
 20
87.37451153907894
 30
0.0
  0
ELLIPSE
  5
125
330
1F
100
AcDbEntity
  8
0
  6
HIDDEN
 62
     7
370
     0
100
AcDbEllipse
 10
52.1209962732
 20
103.4448665298
 30
0.0
 11
20.19992452772427
 21
-1.421085471520200E-14
 31
0.0
210
0.0
220
0.0
230
1.0
 40
0.816496581
 41
1.300566354937166
 42
1.359198697442763
  0
LINE
  5
126
330
1F
100
AcDbEntity
  8
0
  6
HIDDEN
 62
     7
370
     0
100
AcDbLine
 10
57.5134272866
 20
85.4548659838
 30
0.0
 11
57.5134272866
 21
87.5928343005
 31
0.0
  0
LINE
  5
127
330
1F
100
AcDbEntity
  8
0
  6
HIDDEN
 62
     7
370
     0
100
AcDbLine
 10
57.5944598012
 20
87.6433753139
 30
0.0
 11
57.5134272866
 21
87.5928343005
 31
0.0
  0
LINE
  5
128
330
1F
100
AcDbEntity
  8
0
  6
HIDDEN
 62
     7
370
     0
100
AcDbLine
 10
66.4634279154
 20
85.4548659838
 30
0.0
 11
66.4634279154
 21
87.1573534525
 31
0.0
  0
LINE
  5
129
330
1F
100
AcDbEntity
  8
0
  6
HIDDEN
 62
     7
370
     0
100
AcDbLine
 10
62.4634272598
 20
121.4348670758
 30
0.0
 11
62.4634272598
 21
119.732379607
 31
0.0
  0
LINE
  5
12A
330
1F
100
AcDbEntity
  8
0
  6
HIDDEN
 62
     7
370
     0
100
AcDbLine
 10
57.5134272866
 20
121.4348670758
 30
0.0
 11
57.5134272866
 21
119.3394918657
 31
0.0
  0
SPLINE
  5
12B
330
1F
100
AcDbEntity
  8
0
  6
HIDDEN
 62
     7
370
     0
100
AcDbSpline
210
0.0
220
0.0
230
1.0
 70
     8
 71
     3
 72
     8
 73
     4
 74
     0
 42
0.00000001
 43
0.00000001
 40
0.0
 40
0.0
 40
0.0
 40
0.0
 40
1.0
 40
1.0
 40
1.0
 40
1.0
 10
57.51342813595212
 20
119.3394909787727
 30
0.0
 10
57.56343363379956
 20
119.3084552052399
 30
0.0
 10
57.61343370336794
 20
119.277410560899
 30
0.0
 10
57.66342813605726
 20
119.2463569658058
 30
0.0
  0
SPLINE
  5
12C
330
1F
100
AcDbEntity
  8
0
  6
HIDDEN
 62
     7
370
     0
100
AcDbSpline
210
0.0
220
0.0
230
1.0
 70
     8
 71
     3
 72
     8
 73
     4
 74
     0
 42
0.00000001
 43
0.00000001
 40
0.0
 40
0.0
 40
0.0
 40
0.0
 40
1.0
 40
1.0
 40
1.0
 40
1.0
 10
202.5054621751626
 20
108.6717917340422
 30
0.0
 10
202.4642031564282
 20
108.6349800181417
 30
0.0
 10
202.4186337464824
 20
108.5960312908738
 30
0.0
 10
202.3686541178324
 20
108.552774576212
 30
0.0
  0
SPLINE
  5
12D
330
1F
100
AcDbEntity
  8
0
  6
HIDDEN
 62
     7
370
     0
100
AcDbSpline
210
0.0
220
0.0
230
1.0
 70
     8
 71
     3
 72
    20
 73
    16
 74
     0
 42
0.00000001
 43
0.00000001
 40
0.0
 40
0.0
 40
0.0
 40
0.0
 40
0.1119595197270015
 40
0.1774767654920859
 40
0.249096185325418
 40
0.3298422369283467
 40
0.3986125725171922
 40
0.4998892967520781
 40
0.6138510411462624
 40
0.6790150058045442
 40
0.7495394119902732
 40
0.8296829969661308
 40
0.8981246339666275
 40
0.9995320129300933
 40
0.9999999999999999
 40
0.9999999999999999
 40
0.9999999999999999
 40
0.9999999999999999
 10
83.01226871012723
 20
79.84487309224552
 30
0.0
 10
82.96894479365986
 20
79.85830146046297
 30
0.0
 10
82.90026828824229
 20
79.8795879340284
 30
0.0
 10
82.45508977887211
 20
79.98290284769472
 30
0.0
 10
81.9285310721725
 20
80.09620309041287
 30
0.0
 10
81.24310607547159
 20
80.21913774370502
 30
0.0
 10
80.34978889768296
 20
80.34117243085042
 30
0.0
 10
79.23642924707647
 20
80.45890806803364
 30
0.0
 10
78.1256551184251
 20
80.47088194027624
 30
0.0
 10
77.24090684116248
 20
80.44382640168193
 30
0.0
 10
76.57371057110453
 20
80.39589333548166
 30
0.0
 10
76.03243608109729
 20
80.33959622607757
 30
0.0
 10
75.64486366388853
 20
80.29452453172789
 30
0.0
 10
75.45090095876556
 20
80.25562010917311
 30
0.0
 10
75.5140240920381
 20
80.26634971392507
 30
0.0
 10
75.51431406213915
 20
80.26639900274223
 30
0.0
  0
LINE
  5
12E
330
1F
100
AcDbEntity
  8
0
  6
HIDDEN
 62
     7
370
     0
100
AcDbLine
 10
76.4234404258
 20
80.3772040374
 30
0.0
 11
76.6072853647
 21
80.3953946299
 31
0.0
  0
LINE
  5
12F
330
1F
100
AcDbEntity
  8
0
  6
HIDDEN
 62
     7
370
     0
100
AcDbLine
 10
76.6072825707
 20
126.4942695118
 30
0.0
 11
76.4332090683
 21
126.5114784903
 31
0.0
  0
SPLINE
  5
130
330
1F
100
AcDbEntity
  8
0
  6
HIDDEN
 62
     7
370
     0
100
AcDbSpline
210
0.0
220
0.0
230
1.0
 70
     8
 71
     3
 72
    20
 73
    16
 74
     0
 42
0.00000001
 43
0.00000001
 40
0.0
 40
0.0
 40
0.0
 40
0.0
 40
0.0004889697591047
 40
0.1018319945141926
 40
0.1702475571949642
 40
0.2503691863856972
 40
0.3209567830713191
 40
0.3861815969282947
 40
0.5002554405931924
 40
0.6012243594512068
 40
0.6697680251707869
 40
0.7502401868573377
 40
0.8220490723920678
 40
0.8877204424947721
 40
1.0
 40
1.0
 40
1.0
 40
1.0
 10
75.51434758975184
 20
126.6232688642258
 30
0.0
 10
75.51404384589652
 20
126.6233200365289
 30
0.0
 10
75.45078667705718
 20
126.6339770916749
 30
0.0
 10
75.64401872848244
 20
126.5952353307356
 30
0.0
 10
76.03095707363343
 20
126.5501749179038
 30
0.0
 10
76.57196589202854
 20
126.4939225099786
 30
0.0
 10
77.23946556012287
 20
126.4459894438199
 30
0.0
 10
78.12529337730007
 20
126.4189163704878
 30
0.0
 10
79.23610019611566
 20
126.4307416595468
 30
0.0
 10
80.34817031358658
 20
126.5481926348099
 30
0.0
 10
81.239271238578
 20
126.6698937626699
 30
0.0
 10
81.92475511563728
 20
126.79271688064
 30
0.0
 10
82.4527436536552
 20
126.9061558773185
 30
0.0
 10
82.90012703728414
 20
127.0098945296546
 30
0.0
 10
82.96893773383114
 20
127.0313182718527
 30
0.0
 10
83.0123543918041
 20
127.0448357529158
 30
0.0
  0
LINE
  5
131
330
1F
100
AcDbEntity
  8
0
  6
HIDDEN
 62
     7
370
     0
100
AcDbLine
 10
162.7134292565
 20
80.0222173995
 30
0.0
 11
157.7134265743
 21
80.0222173995
 31
0.0
  0
LINE
  5
132
330
1F
100
AcDbEntity
  8
0
  6
HIDDEN
 62
     7
370
     0
100
AcDbLine
 10
160.2134316407
 20
126.86751566
 30
0.0
 11
162.7134292565
 21
126.86751566
 31
0.0
  0
LINE
  5
133
330
1F
100
AcDbEntity
  8
0
  6
HIDDEN
 62
     7
370
     0
100
AcDbLine
 10
157.7134265743
 20
126.86751566
 30
0.0
 11
160.2134316407
 21
126.86751566
 31
0.0
  0
LINE
  5
134
330
1F
100
AcDbEntity
  8
0
  6
HIDDEN
 62
     7
370
     0
100
AcDbLine
 10
160.2134316407
 20
115.4448666341
 30
0.0
 11
162.7134292565
 21
115.4448666341
 31
0.0
  0
LINE
  5
135
330
1F
100
AcDbEntity
  8
0
  6
HIDDEN
 62
     7
370
     0
100
AcDbLine
 10
157.7134265743
 20
115.4448666341
 30
0.0
 11
160.2134316407
 21
115.4448666341
 31
0.0
  0
LINE
  5
136
330
1F
100
AcDbEntity
  8
0
  6
HIDDEN
 62
     7
370
     0
100
AcDbLine
 10
162.7134292565
 20
91.4448664255
 30
0.0
 11
157.7134265743
 21
91.4448664255
 31
0.0
  0
LWPOLYLINE
  5
137
330
1F
100
AcDbEntity
  8
0
  6
HIDDEN
 62
     7
370
     0
100
AcDbPolyline
 90
       16
 70
   128
 43
0.0
 10
202.7303188287
 20
114.9802074499
 10
202.5003119551
 20
115.3586233697
 10
202.0837872468
 20
115.6465519882
 10
201.5435530983
 20
115.8005750469
 10
200.9610816084
 20
115.7974653608
 10
200.4241927706
 20
115.6376904539
 10
200.0138669453
 20
115.3453464351
 10
199.791973754
 20
114.9645174585
 10
199.791973754
 20
114.5526325992
 10
200.0138669453
 20
114.1718036226
 10
200.4241927706
 20
113.8794596038
 10
200.9610816084
 20
113.7196846969
 10
201.5435530983
 20
113.7165750108
 10
202.0837872468
 20
113.8705980695
 10
202.5003119551
 20
114.158526688
 10
202.7303188287
 20
114.5369426078
  0
SPLINE
  5
138
330
1F
100
AcDbEntity
  8
0
  6
HIDDEN
 62
     7
370
     0
100
AcDbSpline
210
0.0
220
0.0
230
1.0
 70
     8
 71
     3
 72
    46
 73
    42
 74
     0
 42
0.00000001
 43
0.00000001
 40
0.0
 40
0.0
 40
0.0
 40
0.0
 40
0.0624999999999994
 40
0.0624999999999994
 40
0.1249999999999989
 40
0.1249999999999989
 40
0.1562499999999989
 40
0.1562499999999989
 40
0.1874999999999989
 40
0.1874999999999989
 40
0.2187499999999989
 40
0.2187499999999989
 40
0.2499999999999989
 40
0.2499999999999989
 40
0.3124999999999989
 40
0.3124999999999989
 40
0.3749999999999989
 40
0.3749999999999989
 40
0.4374999999999989
 40
0.4374999999999989
 40
0.4687499999999996
 40
0.4687499999999996
 40
0.5000000000000002
 40
0.5000000000000002
 40
0.5625000000000011
 40
0.5625000000000011
 40
0.625000000000002
 40
0.625000000000002
 40
0.6875000000000029
 40
0.6875000000000029
 40
0.7500000000000038
 40
0.7500000000000038
 40
0.7812500000000039
 40
0.7812500000000039
 40
0.8125000000000041
 40
0.8125000000000041
 40
0.8750000000000028
 40
0.8750000000000028
 40
0.9375000000000014
 40
0.9375000000000014
 40
1.0
 40
1.0
 40
1.0
 40
1.0
 10
202.7303154876971
 20
114.5369430169794
 30
0.0
 10
202.6971836071702
 20
114.3997986802953
 30
0.0
 10
202.6420703154654
 20
114.2558846634778
 30
0.0
 10
202.5078123534723
 20
113.965955332287
 30
0.0
 10
202.4292442324838
 20
113.8220102255658
 30
0.0
 10
202.3138112238534
 20
113.6130456539474
 30
0.0
 10
202.2758590956512
 20
113.544665070519
 30
0.0
 10
202.2049517710833
 20
113.4087231755038
 30
0.0
 10
202.1717779840999
 20
113.3406360852935
 30
0.0
 10
202.1202446210356
 20
113.2091210929476
 30
0.0
 10
202.1016551594406
 20
113.1439291996845
 30
0.0
 10
202.0888341875348
 20
113.0247118930145
 30
0.0
 10
202.0945884118914
 20
112.9692292872128
 30
0.0
 10
202.1424474987514
 20
112.8256958455875
 30
0.0
 10
202.2109579864518
 20
112.759209152262
 30
0.0
 10
202.3554769524607
 20
112.6742631162037
 30
0.0
 10
202.4344946717151
 20
112.6546959574421
 30
0.0
 10
202.5767186583097
 20
112.6641505841527
 30
0.0
 10
202.6421701232192
 20
112.693829319453
 30
0.0
 10
202.7121882971454
 20
112.7820594081474
 30
0.0
 10
202.7311776395808
 20
112.8194444837571
 30
0.0
 10
202.7565351328315
 20
112.9069864325536
 30
0.0
 10
202.7632687149099
 20
112.9573036221785
 30
0.0
 10
202.7637386518091
 20
113.129630769773
 30
0.0
 10
202.7364712243833
 20
113.2668683491742
 30
0.0
 10
202.6435158913945
 20
113.5525527094309
 30
0.0
 10
202.5782925670252
 20
113.7012774771866
 30
0.0
 10
202.4359948627045
 20
113.9895679782566
 30
0.0
 10
202.356970354319
 20
114.1324523645819
 30
0.0
 10
202.2121308665027
 20
114.4072670391568
 30
0.0
 10
202.1432653283404
 20
114.5431481124626
 30
0.0
 10
202.0946432801237
 20
114.7346546714975
 30
0.0
 10
202.0887497219636
 20
114.7944342184837
 30
0.0
 10
202.1015790282725
 20
114.9033851669203
 30
0.0
 10
202.1197944550557
 20
114.9500768894024
 30
0.0
 10
202.1976488220296
 20
115.0690274280888
 30
0.0
 10
202.2752572892077
 20
115.1172447131198
 30
0.0
 10
202.4292039371466
 20
115.1661765018382
 30
0.0
 10
202.5073081234809
 20
115.1665160167248
 30
0.0
 10
202.6414784734224
 20
115.1147444138818
 30
0.0
 10
202.697202746444
 20
115.0623009787294
 30
0.0
 10
202.7303154876971
 20
114.9802070405383
 30
0.0
  0
SPLINE
  5
139
330
1F
100
AcDbEntity
  8
0
  6
HIDDEN
 62
     7
370
     0
100
AcDbSpline
210
0.0
220
0.0
230
1.0
 70
     8
 71
     3
 72
    14
 73
    10
 74
     0
 42
0.00000001
 43
0.00000001
 40
0.0
 40
0.0
 40
0.0
 40
0.0
 40
0.25
 40
0.25
 40
0.5
 40
0.5
 40
0.75
 40
0.75
 40
1.0
 40
1.0
 40
1.0
 40
1.0
 10
200.3182475544037
 20
113.4667617355352
 30
0.0
 10
200.2817785587698
 20
113.4339127590394
 30
0.0
 10
200.2468356266098
 20
113.402296914686
 30
0.0
 10
200.1870982852649
 20
113.3314997717162
 30
0.0
 10
200.1618090859418
 20
113.2915579697471
 30
0.0
 10
200.1523219867107
 20
113.1738096119296
 30
0.0
 10
200.1698169894636
 20
113.097513058953
 30
0.0
 10
200.2180115587211
 20
112.946176556018
 30
0.0
 10
200.2480641086988
 20
112.8701065815881
 30
0.0
 10
200.2796480674262
 20
112.7950040607714
 30
0.0
  0
SPLINE
  5
13A
330
1F
100
AcDbEntity
  8
0
  6
HIDDEN
 62
     7
370
     0
100
AcDbSpline
210
0.0
220
0.0
230
1.0
 70
     8
 71
     3
 72
    10
 73
     6
 74
     0
 42
0.00000001
 43
0.00000001
 40
0.0
 40
0.0
 40
0.0
 40
0.0
 40
0.5
 40
0.5
 40
1.0
 40
1.0
 40
1.0
 40
1.0
 10
200.2796480674279
 20
112.7950040607696
 30
0.0
 10
200.3581283854804
 20
112.8478028190653
 30
0.0
 10
200.4245384455761
 20
112.9329611722389
 30
0.0
 10
200.4419823077052
 20
113.1744107768458
 30
0.0
 10
200.3894219389798
 20
113.3190219201127
 30
0.0
 10
200.3182475544039
 20
113.4667617355357
 30
0.0
  0
SPLINE
  5
13B
330
1F
100
AcDbEntity
  8
0
  6
HIDDEN
 62
     7
370
     0
100
AcDbSpline
210
0.0
220
0.0
230
1.0
 70
     8
 71
     3
 72
    10
 73
     6
 74
     0
 42
0.00000001
 43
0.00000001
 40
0.0
 40
0.0
 40
0.0
 40
0.0
 40
0.5041493954061661
 40
0.997616585379191
 40
1.0
 40
1.0
 40
1.0
 40
1.0
 10
199.7828169904558
 20
114.0127551472897
 30
0.0
 10
199.7755433721238
 20
114.0685748799741
 30
0.0
 10
199.761150253041
 20
114.1790316049543
 30
0.0
 10
199.7609278419606
 20
114.2749732895002
 30
0.0
 10
199.7686906290094
 20
114.2992844775409
 30
0.0
 10
199.768727942547
 20
114.2994013345951
 30
0.0
  0
SPLINE
  5
13C
330
1F
100
AcDbEntity
  8
0
  6
HIDDEN
 62
     7
370
     0
100
AcDbSpline
210
0.0
220
0.0
230
1.0
 70
     8
 71
     3
 72
    18
 73
    14
 74
     0
 42
0.00000001
 43
0.00000001
 40
0.0
 40
0.0
 40
0.0
 40
0.0
 40
0.0034841811175645
 40
0.1447458541391217
 40
0.2135429724584487
 40
0.2697767779442053
 40
0.3264098283199684
 40
0.3870861355414718
 40
0.4810754055459113
 40
0.6213699765031256
 40
0.7638460204490648
 40
0.9105215423963161
 40
1.0
 40
1.0
 40
1.0
 40
1.0
 10
199.7906028471795
 20
114.3666726268048
 30
0.0
 10
199.7908001783763
 20
114.367291429823
 30
0.0
 10
199.7989980508905
 20
114.3929988108093
 30
0.0
 10
199.8214116645987
 20
114.3922627048725
 30
0.0
 10
199.8417817941888
 20
114.3698356833276
 30
0.0
 10
199.8500965375948
 20
114.3300564028218
 30
0.0
 10
199.8477179599436
 20
114.2692948896627
 30
0.0
 10
199.8334612484851
 20
114.1792961145713
 30
0.0
 10
199.8060781994694
 20
114.0482580555036
 30
0.0
 10
199.7749690367254
 20
113.8861061964096
 30
0.0
 10
199.7596506329261
 20
113.7263437275099
 30
0.0
 10
199.7667682135067
 20
113.6130940125845
 30
0.0
 10
199.785069297654
 20
113.5825964478016
 30
0.0
 10
199.7920035563318
 20
113.571040957343
 30
0.0
  0
LWPOLYLINE
  5
13D
330
1F
100
AcDbEntity
  8
0
  6
HIDDEN
 62
     7
370
     0
100
AcDbPolyline
 90
        8
 70
   128
 43
0.0
 10
199.8037903748
 20
113.5457089833
 10
199.8295395814
 20
113.5403026558
 10
199.8435019694
 20
113.5616066597
 10
199.8486950241
 20
113.5982914559
 10
199.8461469255
 20
113.6518294654
 10
199.8337491594
 20
113.7359949491
 10
199.8064204298
 20
113.8795816071
 10
199.7828169905
 20
114.0127551473
  0
SPLINE
  5
13E
330
1F
100
AcDbEntity
  8
0
  6
HIDDEN
 62
     7
370
     0
100
AcDbSpline
210
0.0
220
0.0
230
1.0
 70
     8
 71
     3
 72
    14
 73
    10
 74
     0
 42
0.00000001
 43
0.00000001
 40
0.0
 40
0.0
 40
0.0
 40
0.0
 40
0.25
 40
0.25
 40
0.5
 40
0.5
 40
0.75
 40
0.75
 40
1.0
 40
1.0
 40
1.0
 40
1.0
 10
200.2796480674275
 20
114.3963639683336
 30
0.0
 10
200.2480013381452
 20
114.4327320213602
 30
0.0
 10
200.2178040095688
 20
114.4684853748966
 30
0.0
 10
200.169730404744
 20
114.5504524818279
 30
0.0
 10
200.1522449364126
 20
114.5991314466502
 30
0.0
 10
200.161954772772
 20
114.7320923242112
 30
0.0
 10
200.1872795470096
 20
114.810699942804
 30
0.0
 10
200.246974563709
 20
114.9635471234814
 30
0.0
 10
200.2818374921243
 20
115.0393807369844
 30
0.0
 10
200.3182475544035
 20
115.1139615827087
 30
0.0
  0
SPLINE
  5
13F
330
1F
100
AcDbEntity
  8
0
  6
HIDDEN
 62
     7
370
     0
100
AcDbSpline
210
0.0
220
0.0
230
1.0
 70
     8
 71
     3
 72
    14
 73
    10
 74
     0
 42
0.00000001
 43
0.00000001
 40
0.0
 40
0.0
 40
0.0
 40
0.0
 40
0.25
 40
0.25
 40
0.5
 40
0.5
 40
0.75
 40
0.75
 40
1.0
 40
1.0
 40
1.0
 40
1.0
 10
200.3182475544039
 20
115.1139615827092
 30
0.0
 10
200.353820808355
 20
115.0809452212812
 30
0.0
 10
200.384722639374
 20
115.0408944467544
 30
0.0
 10
200.4272767599541
 20
114.9424318046478
 30
0.0
 10
200.4375034101137
 20
114.8856161540231
 30
0.0
 10
200.4291693036172
 20
114.7576787892156
 30
0.0
 10
200.4105516667825
 20
114.6879456924757
 30
0.0
 10
200.3550462842296
 20
114.5444269258303
 30
0.0
 10
200.3189536348701
 20
114.4711013471127
 30
0.0
 10
200.2796480674279
 20
114.3963639683322
 30
0.0
  0
SPLINE
  5
140
330
1F
100
AcDbEntity
  8
0
  6
HIDDEN
 62
     7
370
     0
100
AcDbSpline
210
0.0
220
0.0
230
1.0
 70
     8
 71
     3
 72
     8
 73
     4
 74
     0
 42
0.00000001
 43
0.00000001
 40
0.0
 40
0.0
 40
0.0
 40
0.0
 40
0.000159097691435
 40
0.000159097691435
 40
0.000159097691435
 40
0.000159097691435
 10
57.64859614185448
 20
87.64337609374248
 30
0.0
 10
57.60354467245513
 20
87.61539721010858
 30
0.0
 10
57.55848863514554
 20
87.58742568042304
 30
0.0
 10
57.51342813595212
 20
87.55946134175969
 30
0.0
  0
SPLINE
  5
141
330
1F
100
AcDbEntity
  8
0
  6
HIDDEN
 62
     7
370
     0
100
AcDbSpline
210
0.0
220
0.0
230
1.0
 70
     8
 71
     3
 72
    11
 73
     7
 74
     0
 42
0.00000001
 43
0.00000001
 40
0.0
 40
0.0
 40
0.0
 40
0.0
 40
0.0008212909311356
 40
0.0008212909311356
 40
0.0008212909311356
 40
0.0016428257242859
 40
0.0016428257242859
 40
0.0016428257242859
 40
0.0016428257242859
 10
57.51342813595212
 20
87.55946134175969
 30
0.0
 10
57.32228311446977
 20
87.51617515292989
 30
0.0
 10
57.1308647787932
 20
87.47523864331586
 30
0.0
 10
56.93921870413207
 20
87.43663687195303
 30
0.0
 10
56.74751562259048
 20
87.39802361813967
 30
0.0
 10
56.55557049930507
 20
87.36174340887796
 30
0.0
 10
56.36342813595208
 20
87.32777650255122
 30
0.0
  0
LINE
  5
142
330
1F
100
AcDbEntity
  8
0
  6
HIDDEN
 62
     7
370
     0
100
AcDbLine
 10
104.3534281842
 20
123.5807330079
 30
0.0
 11
104.3534281842
 21
123.2948672689
 31
0.0
  0
LINE
  5
143
330
1F
100
AcDbEntity
  8
0
  6
HIDDEN
 62
     7
370
     0
100
AcDbLine
 10
108.1734284006
 20
123.6260120488
 30
0.0
 11
108.1734284006
 21
123.2948672689
 31
0.0
  0
SPLINE
  5
144
330
1F
100
AcDbEntity
  8
0
  6
HIDDEN
 62
     7
370
     0
100
AcDbSpline
210
0.0
220
0.0
230
1.0
 70
     8
 71
     3
 72
    10
 73
     6
 74
     0
 42
0.00000001
 43
0.00000001
 40
0.0
 40
0.0
 40
0.0
 40
0.0
 40
0.5
 40
0.5
 40
1.0
 40
1.0
 40
1.0
 40
1.0
 10
202.730315487697
 20
114.9802070405383
 30
0.0
 10
202.7060008852117
 20
114.9286391235631
 30
0.0
 10
202.6945881547208
 20
114.862969683289
 30
0.0
 10
202.694567463959
 20
114.7128889056556
 30
0.0
 10
202.7059284362372
 20
114.6266920933742
 30
0.0
 10
202.730315487697
 20
114.5369430169794
 30
0.0
  0
LINE
  5
145
330
1F
100
AcDbEntity
  8
0
  6
HIDDEN
 62
     7
370
     0
100
AcDbLine
 10
109.6553600572
 20
127.9035561449
 30
0.0
 11
109.6553600572
 21
123.2948672689
 31
0.0
  0
SPLINE
  5
146
330
1F
100
AcDbEntity
  8
0
  6
HIDDEN
 62
     7
370
     0
100
AcDbSpline
210
0.0
220
0.0
230
1.0
 70
     8
 71
     3
 72
    24
 73
    20
 74
     0
 42
0.00000001
 43
0.00000001
 40
0.0
 40
0.0
 40
0.0
 40
0.0
 40
0.25
 40
0.25
 40
0.374999999999999
 40
0.374999999999999
 40
0.4374999999999993
 40
0.4374999999999993
 40
0.4687499999999994
 40
0.4687499999999994
 40
0.4999999999999995
 40
0.4999999999999995
 40
0.5624999999999971
 40
0.5624999999999971
 40
0.6249999999999947
 40
0.6249999999999947
 40
0.7499999999999947
 40
0.7499999999999947
 40
1.0
 40
1.0
 40
1.0
 40
1.0
 10
56.42609151067551
 20
83.77031398499341
 30
0.0
 10
56.43984462934576
 20
83.84096404298369
 30
0.0
 10
56.45761719675161
 20
83.9075621557486
 30
0.0
 10
56.50986828830698
 20
83.98166017598182
 30
0.0
 10
56.53090336388853
 20
84.00291798314336
 30
0.0
 10
56.58380377151698
 20
84.01106390928962
 30
0.0
 10
56.60490944439489
 20
84.01012410589384
 30
0.0
 10
56.65096161307284
 20
83.9891081143165
 30
0.0
 10
56.66933208505624
 20
83.97819930820887
 30
0.0
 10
56.71088372012195
 20
83.9455643972615
 30
0.0
 10
56.73345039287886
 20
83.92407241689016
 30
0.0
 10
56.79623140933887
 20
83.85560647330382
 30
0.0
 10
56.82936117030676
 20
83.80953201509874
 30
0.0
 10
56.88627885679179
 20
83.72452412676407
 30
0.0
 10
56.91046488229556
 20
83.68424382558268
 30
0.0
 10
56.97567283267532
 20
83.56930759911674
 30
0.0
 10
57.01038889286655
 20
83.49872461396973
 30
0.0
 10
57.10360416319743
 20
83.29451885489112
 30
0.0
 10
57.14927669855811
 20
83.17162047256377
 30
0.0
 10
57.18758178205665
 20
83.0547471961762
 30
0.0
  0
ARC
  5
147
330
1F
100
AcDbEntity
  8
0
  6
HIDDEN
 62
     7
370
     0
100
AcDbCircle
 10
216.4866752948
 20
113.884549802
 30
0.0
 40
16.21510326693213
100
AcDbArc
 50
175.6517238164
 51
178.1912127569
  0
SPLINE
  5
148
330
1F
100
AcDbEntity
  8
0
  6
HIDDEN
 62
     7
370
     0
100
AcDbSpline
210
0.0
220
0.0
230
1.0
 70
     8
 71
     3
 72
     8
 73
     4
 74
     0
 42
0.00000001
 43
0.00000001
 40
0.0
 40
0.0
 40
0.0
 40
0.0
 40
0.001156372467817
 40
0.001156372467817
 40
0.001156372467817
 40
0.001156372467817
 10
57.36342813595241
 20
116.0850088432499
 30
0.0
 10
57.03010702075516
 20
116.2140678688766
 30
0.0
 10
56.69677433994709
 20
116.3430282050453
 30
0.0
 10
56.36342813595211
 20
116.4719397348182
 30
0.0
  0
SPLINE
  5
149
330
1F
100
AcDbEntity
  8
0
  6
HIDDEN
 62
     7
370
     0
100
AcDbSpline
210
0.0
220
0.0
230
1.0
 70
     8
 71
     3
 72
    11
 73
     7
 74
     0
 42
0.00000001
 43
0.00000001
 40
0.0
 40
0.0
 40
0.0
 40
0.0
 40
0.000577874610501
 40
0.000577874610501
 40
0.000577874610501
 40
0.001155749485703
 40
0.001155749485703
 40
0.001155749485703
 40
0.001155749485703
 10
56.36342813595212
 20
90.41764466732346
 30
0.0
 10
56.53009501236522
 20
90.48345679410644
 30
0.0
 10
56.69676173192653
 20
90.54931527433398
 30
0.0
 10
56.86342837997513
 20
90.61522284735632
 30
0.0
 10
57.03009510449377
 20
90.68113045061838
 30
0.0
 10
57.19676179891446
 20
90.74708755910038
 30
0.0
 10
57.36342813595212
 20
90.81308929912001
 30
0.0
  0
ARC
  5
14A
330
1F
100
AcDbEntity
  8
0
  6
HIDDEN
 62
     7
370
     0
100
AcDbCircle
 10
187.1369322659
 20
113.8870711265
 30
0.0
 40
13.18801269984795
100
AcDbArc
 50
355.2500387152
 51
358.1736418178
  0
SPLINE
  5
14B
330
1F
100
AcDbEntity
  8
0
  6
HIDDEN
 62
     7
370
     0
100
AcDbSpline
210
0.0
220
0.0
230
1.0
 70
     8
 71
     3
 72
    11
 73
     7
 74
     0
 42
0.00000001
 43
0.00000001
 40
0.0000000000000006
 40
0.0000000000000006
 40
0.0000000000000006
 40
0.0000000000000006
 40
0.000578048606266
 40
0.000578048606266
 40
0.000578048606266
 40
0.001156097351391
 40
0.001156097351391
 40
0.001156097351391
 40
0.001156097351391
 10
56.36342813595212
 20
113.4256810230614
 30
0.0
 10
56.53009799199732
 20
113.3633091616562
 30
0.0
 10
56.69676569608174
 20
113.3009553014648
 30
0.0
 10
56.8634320005354
 20
113.2386357413813
 30
0.0
 10
57.03009834122913
 20
113.1763161677469
 30
0.0
 10
57.19676329785776
 20
113.1140309635263
 30
0.0
 10
57.36342813595212
 20
113.0518058430533
 30
0.0
  0
SPLINE
  5
14C
330
1F
100
AcDbEntity
  8
0
  6
HIDDEN
 62
     7
370
     0
100
AcDbSpline
210
0.0
220
0.0
230
1.0
 70
     8
 71
     3
 72
    11
 73
     7
 74
     0
 42
0.00000001
 43
0.00000001
 40
0.0
 40
0.0
 40
0.0
 40
0.0
 40
0.0005782401583357
 40
0.0005782401583357
 40
0.0005782401583357
 40
0.001156480596064
 40
0.001156480596064
 40
0.001156480596064
 40
0.001156480596064
 10
57.36342813595211
 20
93.84403974501382
 30
0.0
 10
57.19677718560339
 20
93.78061428707475
 30
0.0
 10
57.03011759302082
 20
93.71725876354492
 30
0.0
 10
56.86345054059225
 20
93.65396117932357
 30
0.0
 10
56.69678340402845
 20
93.59066356314896
 30
0.0
 10
56.5301087965823
 20
93.52742376834009
 30
0.0
 10
56.36342813595211
 20
93.46422376183583
 30
0.0
  0
CIRCLE
  5
14D
330
1F
100
AcDbEntity
  8
0
  6
HIDDEN
 62
     7
370
     0
100
AcDbCircle
 10
95.263428136
 20
103.4448665298
 30
0.0
 40
5.0
  0
LWPOLYLINE
  5
14E
330
1F
100
AcDbEntity
  8
0
  6
HIDDEN
 62
     7
370
     0
100
AcDbPolyline
 90
        7
 70
   128
 43
0.0
 10
248.2634245597
 20
112.794326312
 10
248.2587157927
 20
112.6349108956
 10
248.2483594857
 20
112.1685250393
 10
248.2447534047
 20
111.7733760468
 10
248.2484190904
 20
111.509620837
 10
248.258835002
 20
111.4174143142
 10
248.2634245597
 20
111.427559211
  0
LWPOLYLINE
  5
14F
330
1F
100
AcDbEntity
  8
0
  6
HIDDEN
 62
     7
370
     0
100
AcDbPolyline
 90
       17
 70
   128
 43
0.0
 10
248.1851785622
 20
114.026944778
 10
248.1723784648
 20
114.1403603099
 10
248.1532453738
 20
114.0255021594
 10
248.1307148181
 20
113.6998568393
 10
248.1081842624
 20
113.2130005128
 10
248.0890958749
 20
112.6390534184
 10
248.076355382
 20
112.0653941027
 10
248.071914836
 20
111.5793554775
 10
248.0764298879
 20
111.2549334495
 10
248.0892299853
 20
111.1415183834
 10
248.1083630763
 20
111.2563765339
 10
248.1309085332
 20
111.582021854
 10
248.1534241877
 20
112.0688781805
 10
248.1725125752
 20
112.6428243435
 10
248.1852530681
 20
113.2164845905
 10
248.1896936141
 20
113.7025232158
 10
248.1851785622
 20
114.026944778
  0
LWPOLYLINE
  5
150
330
1F
100
AcDbEntity
  8
0
  6
HIDDEN
 62
     7
370
     0
100
AcDbPolyline
 90
       17
 70
   128
 43
0.0
 10
242.8512334071
 20
114.1751340321
 10
242.8384333096
 20
114.2885486326
 10
242.8193151198
 20
114.1736904822
 10
242.7967696629
 20
113.848045162
 10
242.7742391072
 20
113.3611897669
 10
242.7551507197
 20
112.7872426725
 10
242.7424251281
 20
112.2135824255
 10
242.737984582
 20
111.7275447316
 10
242.7424996339
 20
111.403122238
 10
242.7552997313
 20
111.2897076375
 10
242.7744179211
 20
111.404565788
 10
242.796963378
 20
111.7302111081
 10
242.8194939338
 20
112.2170665032
 10
242.8385823212
 20
112.7910135976
 10
242.8513079129
 20
113.3646738446
 10
242.8557633601
 20
113.8507124699
 10
242.8512334071
 20
114.1751340321
  0
LWPOLYLINE
  5
151
330
1F
100
AcDbEntity
  8
0
  6
HIDDEN
 62
     7
370
     0
100
AcDbPolyline
 90
       17
 70
   128
 43
0.0
 10
242.3334925614
 20
113.7270123429
 10
242.3249690972
 20
113.8026226974
 10
242.3122137032
 20
113.7260502867
 10
242.2971933328
 20
113.5089534066
 10
242.2821729623
 20
113.1843828327
 10
242.2694473706
 20
112.8017517469
 10
242.2609537087
 20
112.4193115822
 10
242.2579883777
 20
112.0952858321
 10
242.2610133134
 20
111.8790047906
 10
242.2695367776
 20
111.8033953673
 10
242.2822921716
 20
111.8799668468
 10
242.297312542
 20
112.0970637269
 10
242.3123329125
 20
112.4216343007
 10
242.3250585042
 20
112.8042653865
 10
242.3335521661
 20
113.1867055512
 10
242.3365174971
 20
113.5107313014
 10
242.3334925614
 20
113.7270123429
  0
LINE
  5
152
330
1F
100
AcDbEntity
  8
0
  6
HIDDEN
 62
     7
370
     0
100
AcDbLine
 10
248.2634245597
 20
112.1793004415
 30
0.0
 11
248.261234089
 21
111.83623287
 31
0.0
  0
LINE
  5
153
330
1F
100
AcDbEntity
  8
0
  6
HIDDEN
 62
     7
370
     0
100
AcDbLine
 10
248.2634245597
 20
111.8454883537
 30
0.0
 11
248.261234089
 21
111.83623287
 31
0.0
  0
LINE
  5
154
330
1F
100
AcDbEntity
  8
0
  6
HIDDEN
 62
     7
370
     0
100
AcDbLine
 10
246.3211774073
 20
112.806039556
 30
0.0
 11
246.3255583487
 21
113.4921756304
 31
0.0
  0
LINE
  5
155
330
1F
100
AcDbEntity
  8
0
  6
HIDDEN
 62
     7
370
     0
100
AcDbLine
 10
246.3211774073
 20
112.806039556
 30
0.0
 11
246.2897806607
 21
112.0058295048
 31
0.0
  0
LINE
  5
156
330
1F
100
AcDbEntity
  8
0
  6
HIDDEN
 62
     7
370
     0
100
AcDbLine
 10
246.2897806607
 20
112.0058295048
 30
0.0
 11
246.2627797566
 21
111.8917545966
 31
0.0
  0
LINE
  5
157
330
1F
100
AcDbEntity
  8
0
  6
HIDDEN
 62
     7
370
     0
100
AcDbLine
 10
246.2985574447
 20
113.3781016535
 30
0.0
 11
246.267160698
 21
112.577890671
 31
0.0
  0
LINE
  5
158
330
1F
100
AcDbEntity
  8
0
  6
HIDDEN
 62
     7
370
     0
100
AcDbLine
 10
246.2985574447
 20
113.3781016535
 30
0.0
 11
246.3255583487
 21
113.4921756304
 31
0.0
  0
LINE
  5
159
330
1F
100
AcDbEntity
  8
0
  6
HIDDEN
 62
     7
370
     0
100
AcDbLine
 10
246.267160698
 20
112.577890671
 30
0.0
 11
246.2627797566
 21
111.8917545966
 31
0.0
  0
LINE
  5
15A
330
1F
100
AcDbEntity
  8
0
  6
HIDDEN
 62
     7
370
     0
100
AcDbLine
 10
246.267160698
 20
112.577890671
 30
0.0
 11
248.2656150304
 21
112.5223689444
 31
0.0
  0
LINE
  5
15B
330
1F
100
AcDbEntity
  8
0
  6
HIDDEN
 62
     7
370
     0
100
AcDbLine
 10
246.2985574447
 20
113.3781016535
 30
0.0
 11
248.297011777
 21
113.3225799269
 31
0.0
  0
LINE
  5
15C
330
1F
100
AcDbEntity
  8
0
  6
HIDDEN
 62
     7
370
     0
100
AcDbLine
 10
246.2897806607
 20
112.0058295048
 30
0.0
 11
248.2634245597
 21
111.9509969569
 31
0.0
  0
LINE
  5
15D
330
1F
100
AcDbEntity
  8
0
  6
HIDDEN
 62
     7
370
     0
100
AcDbLine
 10
246.2627797566
 20
111.8917545966
 30
0.0
 11
248.261234089
 21
111.83623287
 31
0.0
  0
LINE
  5
15E
330
1F
100
AcDbEntity
  8
0
  6
HIDDEN
 62
     7
370
     0
100
AcDbLine
 10
246.3211774073
 20
112.806039556
 30
0.0
 11
248.2746153317
 21
112.7517685956
 31
0.0
  0
LINE
  5
15F
330
1F
100
AcDbEntity
  8
0
  6
HIDDEN
 62
     7
370
     0
100
AcDbLine
 10
246.3255583487
 20
113.4921756304
 30
0.0
 11
248.3240126811
 21
113.4366539038
 31
0.0
  0
LWPOLYLINE
  5
160
330
1F
100
AcDbEntity
  8
0
  6
HIDDEN
 62
     7
370
     0
100
AcDbPolyline
 90
       17
 70
   128
 43
0.0
 10
242.8481190644
 20
92.6524313829
 10
242.8329645835
 20
92.6139416835
 10
242.8123562775
 20
92.8017847902
 10
242.7894233905
 20
93.1873625807
 10
242.7676676951
 20
93.711973793
 10
242.7503972493
 20
94.2957519285
 10
242.7402346574
 20
94.8498218051
 10
242.7387296401
 20
95.2898307434
 10
242.746120616
 20
95.5487924359
 10
242.7612601958
 20
95.5872812039
 10
242.7818685017
 20
95.3994380972
 10
242.8048013888
 20
95.0138603068
 10
242.8265570842
 20
94.4892490945
 10
242.84382753
 20
93.905470959
 10
242.8539901219
 20
93.3514010823
 10
242.8554951392
 20
92.911392144
 10
242.8481190644
 20
92.6524313829
  0
LWPOLYLINE
  5
161
330
1F
100
AcDbEntity
  8
0
  6
HIDDEN
 62
     7
370
     0
100
AcDbPolyline
 90
       17
 70
   128
 43
0.0
 10
242.3314958058
 20
93.1212777934
 10
242.3213928185
 20
93.0956179938
 10
242.3076539479
 20
93.2208464212
 10
242.2923802577
 20
93.4778989024
 10
242.2778665267
 20
93.8276394001
 10
242.2663479291
 20
94.2168251342
 10
242.2595828019
 20
94.5862044311
 10
242.2585695229
 20
94.8795440338
 10
242.2635018073
 20
95.0521851621
 10
242.2736047946
 20
95.0778440303
 10
242.2873436652
 20
94.952615603
 10
242.3026173554
 20
94.6955640531
 10
242.3171310864
 20
94.345822624
 10
242.328649684
 20
93.9566378213
 10
242.3354148112
 20
93.587257593
 10
242.3364280902
 20
93.2939179904
 10
242.3314958058
 20
93.1212777934
  0
LWPOLYLINE
  5
162
330
1F
100
AcDbEntity
  8
0
  6
HIDDEN
 62
     7
370
     0
100
AcDbPolyline
 90
       17
 70
   128
 43
0.0
 10
248.1820493184
 20
92.8006197057
 10
248.1668948375
 20
92.7621309376
 10
248.1462865315
 20
92.9499740443
 10
248.1233685456
 20
93.3355518348
 10
248.1016128503
 20
93.8601630471
 10
248.0843275033
 20
94.4439411826
 10
248.0741649114
 20
94.9980110592
 10
248.0726598941
 20
95.4380199975
 10
248.08005087
 20
95.6969812243
 10
248.095205351
 20
95.7354699924
 10
248.1158136569
 20
95.5476273514
 10
248.1387316428
 20
95.1620495609
 10
248.1605022393
 20
94.6374383486
 10
248.1777726851
 20
94.0536602131
 10
248.1879352771
 20
93.4995903365
 10
248.1894402943
 20
93.0595813981
 10
248.1820493184
 20
92.8006197057
  0
ARC
  5
163
330
1F
100
AcDbEntity
  8
0
  6
HIDDEN
 62
     7
370
     0
100
AcDbCircle
 10
261.7364145218
 20
94.6088447506
 30
0.0
 40
13.50004946460199
100
AcDbArc
 50
176.3717064038
 51
186.6917152195
  0
LINE
  5
164
330
1F
100
AcDbEntity
  8
0
  6
HIDDEN
 62
     7
370
     0
100
AcDbLine
 10
246.3238596164
 20
93.9740395836
 30
0.0
 11
246.3238596164
 21
93.3616670511
 31
0.0
  0
LINE
  5
165
330
1F
100
AcDbEntity
  8
0
  6
HIDDEN
 62
     7
370
     0
100
AcDbLine
 10
248.3223139487
 20
94.0295613102
 30
0.0
 11
248.3223139487
 21
93.4171887777
 31
0.0
  0
LINE
  5
166
330
1F
100
AcDbEntity
  8
0
  6
HIDDEN
 62
     7
370
     0
100
AcDbLine
 10
246.3238596164
 20
93.9740395836
 30
0.0
 11
248.3223139487
 21
94.0295613102
 31
0.0
  0
LINE
  5
167
330
1F
100
AcDbEntity
  8
0
  6
HIDDEN
 62
     7
370
     0
100
AcDbLine
 10
246.3238596164
 20
93.9740395836
 30
0.0
 11
246.2944149218
 21
94.8101474635
 31
0.0
  0
LINE
  5
168
330
1F
100
AcDbEntity
  8
0
  6
HIDDEN
 62
     7
370
     0
100
AcDbLine
 10
248.3223139487
 20
94.0295613102
 30
0.0
 11
248.2928692542
 21
94.8656691901
 31
0.0
  0
LINE
  5
169
330
1F
100
AcDbEntity
  8
0
  6
HIDDEN
 62
     7
370
     0
100
AcDbLine
 10
246.2944149218
 20
94.8101474635
 30
0.0
 11
248.2928692542
 21
94.8656691901
 31
0.0
  0
LINE
  5
16A
330
1F
100
AcDbEntity
  8
0
  6
HIDDEN
 62
     7
370
     0
100
AcDbLine
 10
246.2944149218
 20
94.8101474635
 30
0.0
 11
246.2649702273
 21
95.0338818795
 31
0.0
  0
LINE
  5
16B
330
1F
100
AcDbEntity
  8
0
  6
HIDDEN
 62
     7
370
     0
100
AcDbLine
 10
248.2928692542
 20
94.8656691901
 30
0.0
 11
248.2634245597
 21
95.0894036061
 31
0.0
  0
LINE
  5
16C
330
1F
100
AcDbEntity
  8
0
  6
HIDDEN
 62
     7
370
     0
100
AcDbLine
 10
246.2944149218
 20
93.5854023985
 30
0.0
 11
248.2928692542
 21
93.6409241251
 31
0.0
  0
LINE
  5
16D
330
1F
100
AcDbEntity
  8
0
  6
HIDDEN
 62
     7
370
     0
100
AcDbLine
 10
246.3238596164
 20
93.3616670511
 30
0.0
 11
248.3223139487
 21
93.4171887777
 31
0.0
  0
LINE
  5
16E
330
1F
100
AcDbEntity
  8
0
  6
HIDDEN
 62
     7
370
     0
100
AcDbLine
 10
246.2944149218
 20
93.5854023985
 30
0.0
 11
246.3238596164
 21
93.3616670511
 31
0.0
  0
LINE
  5
16F
330
1F
100
AcDbEntity
  8
0
  6
HIDDEN
 62
     7
370
     0
100
AcDbLine
 10
248.2928692542
 20
93.6409241251
 30
0.0
 11
248.3223139487
 21
93.4171887777
 31
0.0
  0
LINE
  5
170
330
1F
100
AcDbEntity
  8
0
  6
HIDDEN
 62
     7
370
     0
100
AcDbLine
 10
246.2649702273
 20
94.421509347
 30
0.0
 11
248.2634245597
 21
94.4770310736
 31
0.0
  0
LINE
  5
171
330
1F
100
AcDbEntity
  8
0
  6
HIDDEN
 62
     7
370
     0
100
AcDbLine
 10
246.2649702273
 20
95.0338818795
 30
0.0
 11
248.2634245597
 21
95.0894036061
 31
0.0
  0
LINE
  5
172
330
1F
100
AcDbEntity
  8
0
  6
HIDDEN
 62
     7
370
     0
100
AcDbLine
 10
246.2649702273
 20
94.421509347
 30
0.0
 11
246.2649702273
 21
95.0338818795
 31
0.0
  0
LINE
  5
173
330
1F
100
AcDbEntity
  8
0
  6
HIDDEN
 62
     7
370
     0
100
AcDbLine
 10
246.2944149218
 20
93.5854023985
 30
0.0
 11
246.2649702273
 21
94.421509347
 31
0.0
  0
LINE
  5
174
330
1F
100
AcDbEntity
  8
0
  6
HIDDEN
 62
     7
370
     0
100
AcDbLine
 10
248.2928692542
 20
93.6409241251
 30
0.0
 11
248.2634245597
 21
94.4770310736
 31
0.0
  0
LINE
  5
175
330
1F
100
AcDbEntity
  8
0
  6
HIDDEN
 62
     7
370
     0
100
AcDbLine
 10
92.2634283259
 20
117.7427020586
 30
0.0
 11
92.2634283259
 21
115.8388067699
 31
0.0
  0
LINE
  5
176
330
1F
100
AcDbEntity
  8
0
  6
HIDDEN
 62
     7
370
     0
100
AcDbLine
 10
100.2634282403
 20
115.8388067699
 30
0.0
 11
100.2634282403
 21
117.7454969577
 31
0.0
  0
LINE
  5
177
330
1F
100
AcDbEntity
  8
0
  6
HIDDEN
 62
     7
370
     0
100
AcDbLine
 10
88.263428136
 20
78.120935402
 30
0.0
 11
88.3575889082
 21
78.7909232742
 31
0.0
  0
LINE
  5
178
330
1F
100
AcDbEntity
  8
0
  6
HIDDEN
 62
     7
370
     0
100
AcDbLine
 10
88.3575889082
 20
128.0988097853
 30
0.0
 11
88.263428136
 21
128.7687976576
 31
0.0
  0
ARC
  5
179
330
1F
100
AcDbEntity
  8
0
  6
HIDDEN
 62
     7
370
     0
100
AcDbCircle
 10
87.7634213833
 20
78.8744289154
 30
0.0
 40
0.6000067526677363
100
AcDbArc
 50
352.0
 51
0.0
  0
ARC
  5
17A
330
1F
100
AcDbEntity
  8
0
  6
HIDDEN
 62
     7
370
     0
100
AcDbCircle
 10
87.7634213833
 20
78.8744289154
 30
0.0
 40
0.6000067526677242
100
AcDbArc
 50
0.0
 51
33.5571153394
  0
ARC
  5
17B
330
1F
100
AcDbEntity
  8
0
  6
HIDDEN
 62
     7
370
     0
100
AcDbCircle
 10
87.7634213833
 20
128.0153041442
 30
0.0
 40
0.6000067526677323
100
AcDbArc
 50
348.75
 51
8.0
  0
LWPOLYLINE
  5
17C
330
1F
100
AcDbEntity
  8
0
  6
HIDDEN
 62
     7
370
     0
100
AcDbPolyline
 90
        3
 70
   128
 43
0.0
 10
88.3518991749
 20
127.8982494689
 10
88.3177553431
 20
127.7856916852
 10
88.263428136
 20
127.6836392201
  0
LINE
  5
17D
330
1F
100
AcDbEntity
  8
0
  6
HIDDEN
 62
     7
370
     0
100
AcDbLine
 10
88.3634281334
 20
78.8744293816
 30
0.0
 11
88.3634281334
 21
128.015303678
 31
0.0
  0
LINE
  5
17E
330
1F
100
AcDbEntity
  8
0
  6
HIDDEN
 62
     7
370
     0
100
AcDbLine
 10
71.3458641611
 20
83.4448669768
 30
0.0
 11
75.5375356592
 21
83.4448669768
 31
0.0
  0
LINE
  5
17F
330
1F
100
AcDbEntity
  8
0
  6
HIDDEN
 62
     7
370
     0
100
AcDbLine
 10
75.5375356592
 20
123.4448660827
 30
0.0
 11
71.3458641611
 21
123.4448660827
 31
0.0
  0
ARC
  5
180
330
1F
100
AcDbEntity
  8
0
  6
HIDDEN
 62
     7
370
     0
100
AcDbCircle
 10
82.0184301376
 20
91.4448665298
 30
0.0
 40
7.999999999999995
100
AcDbArc
 50
276.8677048148
 51
321.3178125465
  0
ARC
  5
181
330
1F
100
AcDbEntity
  8
0
  6
HIDDEN
 62
     7
370
     0
100
AcDbCircle
 10
82.0184301376
 20
115.4448665298
 30
0.0
 40
7.999999999999993
100
AcDbArc
 50
38.6821874535
 51
83.1185947581
  0
ARC
  5
182
330
1F
100
AcDbEntity
  8
0
  6
HIDDEN
 62
     7
370
     0
100
AcDbCircle
 10
71.3458637013
 20
84.0448665298
 30
0.0
 40
0.6000000000000085
100
AcDbArc
 50
210.0
 51
270.0
  0
ARC
  5
183
330
1F
100
AcDbEntity
  8
0
  6
HIDDEN
 62
     7
370
     0
100
AcDbCircle
 10
71.3458637013
 20
122.8448665298
 30
0.0
 40
0.6000000000000085
100
AcDbArc
 50
90.0
 51
150.0
  0
LINE
  5
184
330
1F
100
AcDbEntity
  8
0
  6
HIDDEN
 62
     7
370
     0
100
AcDbLine
 10
70.8262476317
 20
123.1448665924
 30
0.0
 11
69.2674036316
 21
120.4448674536
 31
0.0
  0
LINE
  5
185
330
1F
100
AcDbEntity
  8
0
  6
HIDDEN
 62
     7
370
     0
100
AcDbLine
 10
69.2674036316
 20
86.4448656059
 30
0.0
 11
70.8262476317
 21
83.7448664672
 31
0.0
  0
LINE
  5
186
330
1F
100
AcDbEntity
  8
0
  6
HIDDEN
 62
     7
370
     0
100
AcDbLine
 10
92.2634283259
 20
130.7191994704
 30
0.0
 11
92.2634283259
 21
127.3904681868
 31
0.0
  0
LINE
  5
187
330
1F
100
AcDbEntity
  8
0
  6
HIDDEN
 62
     7
370
     0
100
AcDbLine
 10
100.2634282403
 20
127.3904681868
 30
0.0
 11
100.2634282403
 21
130.7245322234
 31
0.0
  0
ARC
  5
188
330
1F
100
AcDbEntity
  8
0
  6
HIDDEN
 62
     7
370
     0
100
AcDbCircle
 10
96.713428136
 20
87.7198665298
 30
0.0
 40
1.500000000000009
100
AcDbArc
 50
238.2116693829
 51
0.0
  0
ARC
  5
189
330
1F
100
AcDbEntity
  8
0
  6
HIDDEN
 62
     7
370
     0
100
AcDbCircle
 10
96.713428136
 20
119.1698665298
 30
0.0
 40
1.500000000000009
100
AcDbArc
 50
0.0
 51
121.7883306171
  0
LINE
  5
18A
330
1F
100
AcDbEntity
  8
0
  6
HIDDEN
 62
     7
370
     0
100
AcDbLine
 10
88.263428136
 20
86.4448656059
 30
0.0
 11
95.923254098
 21
86.4448656059
 31
0.0
  0
LINE
  5
18B
330
1F
100
AcDbEntity
  8
0
  6
HIDDEN
 62
     7
370
     0
100
AcDbLine
 10
95.923254098
 20
120.4448674536
 30
0.0
 11
88.263428136
 21
120.4448674536
 31
0.0
  0
LINE
  5
18C
330
1F
100
AcDbEntity
  8
0
  6
HIDDEN
 62
     7
370
     0
100
AcDbLine
 10
66.4634279154
 20
86.4448656059
 30
0.0
 11
69.2674036316
 21
86.4448656059
 31
0.0
  0
LINE
  5
18D
330
1F
100
AcDbEntity
  8
0
  6
HIDDEN
 62
     7
370
     0
100
AcDbLine
 10
69.2674036316
 20
120.4448674536
 30
0.0
 11
62.4634272598
 21
120.4448674536
 31
0.0
  0
LINE
  5
18E
330
1F
100
AcDbEntity
  8
0
  6
HIDDEN
 62
     7
370
     0
100
AcDbLine
 10
202.7634292088
 20
93.8645290873
 30
0.0
 11
202.7634292088
 21
97.6576024397
 31
0.0
  0
LINE
  5
18F
330
1F
100
AcDbEntity
  8
0
  6
HIDDEN
 62
     7
370
     0
100
AcDbLine
 10
199.7634305797
 20
92.6702839053
 30
0.0
 11
199.7634305797
 21
92.1311580307
 31
0.0
  0
LINE
  5
190
330
1F
100
AcDbEntity
  8
0
  6
HIDDEN
 62
     7
370
     0
100
AcDbLine
 10
199.7634305797
 20
97.5771301157
 30
0.0
 11
199.7634305797
 21
93.1742700479
 31
0.0
  0
LINE
  5
191
330
1F
100
AcDbEntity
  8
0
  6
HIDDEN
 62
     7
370
     0
100
AcDbLine
 10
202.4755983792
 20
91.72990515
 30
0.0
 11
248.2634245597
 21
93.0019958607
 31
0.0
  0
LINE
  5
192
330
1F
100
AcDbEntity
  8
0
  6
HIDDEN
 62
     7
370
     0
100
AcDbLine
 10
248.2634245597
 20
95.5029611207
 30
0.0
 11
202.4712174378
 21
94.2307474754
 31
0.0
  0
LINE
  5
193
330
1F
100
AcDbEntity
  8
0
  6
HIDDEN
 62
     7
370
     0
100
AcDbLine
 10
202.7634292088
 20
92.1123332075
 30
0.0
 11
202.7634292088
 21
92.1311580307
 31
0.0
  0
LINE
  5
194
330
1F
100
AcDbEntity
  8
0
  6
HIDDEN
 62
     7
370
     0
100
AcDbLine
 10
199.7872351847
 20
93.3207279734
 30
0.0
 11
199.5499341927
 21
92.8991052053
 31
0.0
  0
LINE
  5
195
330
1F
100
AcDbEntity
  8
0
  6
HIDDEN
 62
     7
370
     0
100
AcDbLine
 10
199.5499341927
 20
92.8991052053
 30
0.0
 11
199.7881963096
 21
92.5259046919
 31
0.0
  0
LINE
  5
196
330
1F
100
AcDbEntity
  8
0
  6
HIDDEN
 62
     7
370
     0
100
AcDbLine
 10
107.0634278648
 20
93.9448668352
 30
0.0
 11
110.0634283565
 21
93.9448668352
 31
0.0
  0
LINE
  5
197
330
1F
100
AcDbEntity
  8
0
  6
HIDDEN
 62
     7
370
     0
100
AcDbLine
 10
110.0634283565
 20
112.9448662243
 30
0.0
 11
107.0634278648
 21
112.9448662243
 31
0.0
  0
LINE
  5
198
330
1F
100
AcDbEntity
  8
0
  6
HIDDEN
 62
     7
370
     0
100
AcDbLine
 10
98.2134279974
 20
94.4448669172
 30
0.0
 11
98.7134280793
 21
94.9448660678
 31
0.0
  0
LINE
  5
199
330
1F
100
AcDbEntity
  8
0
  6
HIDDEN
 62
     7
370
     0
100
AcDbLine
 10
98.7134280793
 20
111.9448669917
 30
0.0
 11
98.2134279974
 21
112.4448661423
 31
0.0
  0
LINE
  5
19A
330
1F
100
AcDbEntity
  8
0
  6
HIDDEN
 62
     7
370
     0
100
AcDbLine
 10
98.7134280793
 20
94.9448660678
 30
0.0
 11
107.0634278648
 21
94.9448660678
 31
0.0
  0
LINE
  5
19B
330
1F
100
AcDbEntity
  8
0
  6
HIDDEN
 62
     7
370
     0
100
AcDbLine
 10
107.0634278648
 20
111.9448669917
 30
0.0
 11
98.7134280793
 21
111.9448669917
 31
0.0
  0
ARC
  5
19C
330
1F
100
AcDbEntity
  8
0
  6
HIDDEN
 62
     7
370
     0
100
AcDbCircle
 10
199.663428136
 20
95.5448665298
 30
0.0
 40
0.4000000000000199
100
AcDbArc
 50
180.0
 51
270.0
  0
ARC
  5
19D
330
1F
100
AcDbEntity
  8
0
  6
HIDDEN
 62
     7
370
     0
100
AcDbCircle
 10
199.663428136
 20
111.3448665298
 30
0.0
 40
0.4000000000000199
100
AcDbArc
 50
90.0
 51
180.0
  0
LINE
  5
19E
330
1F
100
AcDbEntity
  8
0
  6
HIDDEN
 62
     7
370
     0
100
AcDbLine
 10
199.663428887
 20
95.1448666594
 30
0.0
 11
202.3686527453
 21
95.1448666594
 31
0.0
  0
LINE
  5
19F
330
1F
100
AcDbEntity
  8
0
  6
HIDDEN
 62
     7
370
     0
100
AcDbLine
 10
202.3686527453
 20
111.7448664001
 30
0.0
 11
199.663428887
 21
111.7448664001
 31
0.0
  0
ARC
  5
1A0
330
1F
100
AcDbEntity
  8
0
  6
HIDDEN
 62
     7
370
     0
100
AcDbCircle
 10
247.963428136
 20
95.1448665298
 30
0.0
 40
0.3000000000000114
100
AcDbArc
 50
0.0
 51
90.0
  0
ARC
  5
1A1
330
1F
100
AcDbEntity
  8
0
  6
HIDDEN
 62
     7
370
     0
100
AcDbCircle
 10
247.963428136
 20
111.7448665298
 30
0.0
 40
0.3000000000000114
100
AcDbArc
 50
270.0
 51
0.0
  0
ARC
  5
1A2
330
1F
100
AcDbEntity
  8
0
  6
HIDDEN
 62
     7
370
     0
100
AcDbCircle
 10
202.3686541178
 20
111.3448665298
 30
0.0
 40
0.4000000000000199
100
AcDbArc
 50
70.0
 51
90.0
  0
LINE
  5
1A3
330
1F
100
AcDbEntity
  8
0
  6
HIDDEN
 62
     7
370
     0
100
AcDbLine
 10
202.5054603062
 20
95.1689897767
 30
0.0
 11
203.2634302221
 21
95.4448661498
 31
0.0
  0
LINE
  5
1A4
330
1F
100
AcDbEntity
  8
0
  6
HIDDEN
 62
     7
370
     0
100
AcDbLine
 10
203.2634302221
 20
111.4448669098
 30
0.0
 11
202.5054603062
 21
111.7207432828
 31
0.0
  0
LINE
  5
1A5
330
1F
100
AcDbEntity
  8
0
  6
HIDDEN
 62
     7
370
     0
100
AcDbLine
 10
203.2634302221
 20
95.4448661498
 30
0.0
 11
247.9634343825
 21
95.4448661498
 31
0.0
  0
LINE
  5
1A6
330
1F
100
AcDbEntity
  8
0
  6
HIDDEN
 62
     7
370
     0
100
AcDbLine
 10
247.9634343825
 20
111.4448669098
 30
0.0
 11
203.2634302221
 21
111.4448669098
 31
0.0
  0
LINE
  5
1A7
330
1F
100
AcDbEntity
  8
0
  6
HIDDEN
 62
     7
370
     0
100
AcDbLine
 10
93.2134281091
 20
134.9448670364
 30
0.0
 11
93.2134281091
 21
129.8448663867
 31
0.0
  0
ARC
  5
1A8
330
1F
100
AcDbEntity
  8
0
  6
HIDDEN
 62
     7
370
     0
100
AcDbCircle
 10
202.3686541178
 20
95.5448665298
 30
0.0
 40
0.4000000000000199
100
AcDbArc
 50
270.0
 51
290.0
  0
LINE
  5
1A9
330
1F
100
AcDbEntity
  8
0
  6
HIDDEN
 62
     7
370
     0
100
AcDbLine
 10
83.4478659734
 20
79.3654952861
 30
0.0
 11
83.0134337947
 21
79.8445620305
 31
0.0
  0
LINE
  5
1AA
330
1F
100
AcDbEntity
  8
0
  6
HIDDEN
 62
     7
370
     0
100
AcDbLine
 10
75.513430237
 20
80.2662499911
 30
0.0
 11
75.0309967615
 21
79.7871832467
 31
0.0
  0
LINE
  5
1AB
330
1F
100
AcDbEntity
  8
0
  6
HIDDEN
 62
     7
370
     0
100
AcDbLine
 10
75.0308747582
 20
127.1025442249
 30
0.0
 11
75.5134255804
 21
126.6234234638
 31
0.0
  0
LINE
  5
1AC
330
1F
100
AcDbEntity
  8
0
  6
HIDDEN
 62
     7
370
     0
100
AcDbLine
 10
83.0134282067
 20
127.0451226003
 30
0.0
 11
83.4479702815
 21
127.5242414988
 31
0.0
  0
LINE
  5
1AD
330
1F
100
AcDbEntity
  8
0
  6
HIDDEN
 62
     7
370
     0
100
AcDbLine
 10
110.0634283565
 20
99.1948662988
 30
0.0
 11
199.2634295665
 21
99.1948662988
 31
0.0
  0
LINE
  5
1AE
330
1F
100
AcDbEntity
  8
0
  6
HIDDEN
 62
     7
370
     0
100
AcDbLine
 10
199.2634295665
 20
107.6948667607
 30
0.0
 11
110.0634283565
 21
107.6948667607
 31
0.0
  0
LINE
  5
1AF
330
1F
100
AcDbEntity
  8
0
  6
HIDDEN
 62
     7
370
     0
100
AcDbLine
 10
83.0134282067
 20
79.7445025957
 30
0.0
 11
83.0134282067
 21
83.5094653732
 31
0.0
  0
LINE
  5
1B0
330
1F
100
AcDbEntity
  8
0
  6
HIDDEN
 62
     7
370
     0
100
AcDbLine
 10
75.5134283744
 20
83.4492441929
 30
0.0
 11
75.5134283744
 21
80.2665722287
 31
0.0
  0
LINE
  5
1B1
330
1F
100
AcDbEntity
  8
0
  6
HIDDEN
 62
     7
370
     0
100
AcDbLine
 10
83.0134282067
 20
123.3802676863
 30
0.0
 11
83.0134282067
 21
127.1451522327
 31
0.0
  0
LINE
  5
1B2
330
1F
100
AcDbEntity
  8
0
  6
HIDDEN
 62
     7
370
     0
100
AcDbLine
 10
75.5134283744
 20
126.6231682814
 30
0.0
 11
75.5134283744
 21
123.4404888666
 31
0.0
  0
LINE
  5
1B3
330
1F
100
AcDbEntity
  8
0
  6
HIDDEN
 62
     7
370
     0
100
AcDbLine
 10
163.7134312831
 20
79.4448663212
 30
0.0
 11
162.7134292565
 21
80.0222173995
 31
0.0
  0
LINE
  5
1B4
330
1F
100
AcDbEntity
  8
0
  6
HIDDEN
 62
     7
370
     0
100
AcDbLine
 10
157.7134265743
 20
80.0222173995
 30
0.0
 11
156.7134245478
 21
79.4448663212
 31
0.0
  0
LINE
  5
1B5
330
1F
100
AcDbEntity
  8
0
  6
HIDDEN
 62
     7
370
     0
100
AcDbLine
 10
156.7134245478
 20
127.4448667384
 30
0.0
 11
157.7134265743
 21
126.86751566
 31
0.0
  0
LINE
  5
1B6
330
1F
100
AcDbEntity
  8
0
  6
HIDDEN
 62
     7
370
     0
100
AcDbLine
 10
162.7134292565
 20
126.86751566
 30
0.0
 11
163.7134312831
 21
127.4448667384
 31
0.0
  0
LINE
  5
1B7
330
1F
100
AcDbEntity
  8
0
  6
HIDDEN
 62
     7
370
     0
100
AcDbLine
 10
157.7134265743
 20
126.86751566
 30
0.0
 11
157.7134265743
 21
115.4448666341
 31
0.0
  0
LINE
  5
1B8
330
1F
100
AcDbEntity
  8
0
  6
HIDDEN
 62
     7
370
     0
100
AcDbLine
 10
162.7134292565
 20
115.4448666341
 30
0.0
 11
162.7134292565
 21
126.86751566
 31
0.0
  0
LINE
  5
1B9
330
1F
100
AcDbEntity
  8
0
  6
HIDDEN
 62
     7
370
     0
100
AcDbLine
 10
157.7134265743
 20
115.4448666341
 30
0.0
 11
160.2134316407
 21
113.9427150331
 31
0.0
  0
LINE
  5
1BA
330
1F
100
AcDbEntity
  8
0
  6
HIDDEN
 62
     7
370
     0
100
AcDbLine
 10
160.2134316407
 20
113.9427150331
 30
0.0
 11
162.7134292565
 21
115.4448666341
 31
0.0
  0
LINE
  5
1BB
330
1F
100
AcDbEntity
  8
0
  6
HIDDEN
 62
     7
370
     0
100
AcDbLine
 10
162.7134292565
 20
80.0222173995
 30
0.0
 11
162.7134292565
 21
91.4448664255
 31
0.0
  0
LINE
  5
1BC
330
1F
100
AcDbEntity
  8
0
  6
HIDDEN
 62
     7
370
     0
100
AcDbLine
 10
157.7134265743
 20
91.4448664255
 30
0.0
 11
157.7134265743
 21
80.0222173995
 31
0.0
  0
LINE
  5
1BD
330
1F
100
AcDbEntity
  8
0
  6
HIDDEN
 62
     7
370
     0
100
AcDbLine
 10
162.7134292565
 20
91.4448664255
 30
0.0
 11
160.2134316407
 21
92.9470180265
 31
0.0
  0
LINE
  5
1BE
330
1F
100
AcDbEntity
  8
0
  6
HIDDEN
 62
     7
370
     0
100
AcDbLine
 10
160.2134316407
 20
92.9470180265
 30
0.0
 11
157.7134265743
 21
91.4448664255
 31
0.0
  0
LINE
  5
1BF
330
1F
100
AcDbEntity
  8
0
  6
HIDDEN
 62
     7
370
     0
100
AcDbLine
 10
202.7634292088
 20
109.2321306198
 30
0.0
 11
202.7634292088
 21
113.0183755151
 31
0.0
  0
LINE
  5
1C0
330
1F
100
AcDbEntity
  8
0
  6
HIDDEN
 62
     7
370
     0
100
AcDbLine
 10
199.7634305797
 20
113.717851854
 30
0.0
 11
199.7634305797
 21
109.3126029438
 31
0.0
  0
LINE
  5
1C1
330
1F
100
AcDbEntity
  8
0
  6
HIDDEN
 62
     7
370
     0
100
AcDbLine
 10
199.7634305797
 20
114.7585750288
 30
0.0
 11
199.7634305797
 21
114.2161261953
 31
0.0
  0
LINE
  5
1C2
330
1F
100
AcDbEntity
  8
0
  6
HIDDEN
 62
     7
370
     0
100
AcDbLine
 10
202.4692877374
 20
112.6590386695
 30
0.0
 11
248.2634245597
 21
111.3867719389
 31
0.0
  0
LINE
  5
1C3
330
1F
100
AcDbEntity
  8
0
  6
HIDDEN
 62
     7
370
     0
100
AcDbLine
 10
248.2634245597
 20
113.8877371988
 30
0.0
 11
202.4733706556
 21
115.1598903082
 31
0.0
  0
LINE
  5
1C4
330
1F
100
AcDbEntity
  8
0
  6
HIDDEN
 62
     7
370
     0
100
AcDbLine
 10
199.7901781641
 20
114.3669436417
 30
0.0
 11
199.5499341927
 21
113.9906278542
 31
0.0
  0
LINE
  5
1C5
330
1F
100
AcDbEntity
  8
0
  6
HIDDEN
 62
     7
370
     0
100
AcDbLine
 10
199.5499341927
 20
113.9906278542
 30
0.0
 11
199.7875108562
 21
113.5685207985
 31
0.0
  0
LINE
  5
1C6
330
1F
100
AcDbEntity
  8
0
  6
HIDDEN
 62
     7
370
     0
100
AcDbLine
 10
248.0911969386
 20
111.1431980237
 30
0.0
 11
248.2604294263
 21
111.4187796331
 31
0.0
  0
LINE
  5
1C7
330
1F
100
AcDbEntity
  8
0
  6
HIDDEN
 62
     7
370
     0
100
AcDbLine
 10
248.2634245597
 20
113.9737420446
 30
0.0
 11
248.1744199239
 21
114.1385693765
 31
0.0
  0
LINE
  5
1C8
330
1F
100
AcDbEntity
  8
0
  6
HIDDEN
 62
     7
370
     0
100
AcDbLine
 10
248.1724678717
 20
114.1403603099
 30
0.0
 11
242.8385227166
 21
114.288549564
 31
0.0
  0
LINE
  5
1C9
330
1F
100
AcDbEntity
  8
0
  6
HIDDEN
 62
     7
370
     0
100
AcDbLine
 10
242.7552103244
 20
111.2897067062
 30
0.0
 11
248.0891554795
 21
111.1415179177
 31
0.0
  0
LINE
  5
1CA
330
1F
100
AcDbEntity
  8
0
  6
HIDDEN
 62
     7
370
     0
100
AcDbLine
 10
242.837360426
 20
114.2880038089
 30
0.0
 11
242.3242389403
 21
113.8022585503
 31
0.0
  0
LINE
  5
1CB
330
1F
100
AcDbEntity
  8
0
  6
HIDDEN
 62
     7
370
     0
100
AcDbLine
 10
242.2687172137
 20
111.803801424
 30
0.0
 11
242.754062935
 21
111.2903176538
 31
0.0
  0
LINE
  5
1CC
330
1F
100
AcDbEntity
  8
0
  6
HIDDEN
 62
     7
370
     0
100
AcDbLine
 10
242.7543162547
 20
95.5994228563
 30
0.0
 11
242.2689705335
 21
95.0859381548
 31
0.0
  0
LINE
  5
1CD
330
1F
100
AcDbEntity
  8
0
  6
HIDDEN
 62
     7
370
     0
100
AcDbLine
 10
242.3244922601
 20
93.0874810285
 30
0.0
 11
242.8375988446
 21
92.6017367012
 31
0.0
  0
LINE
  5
1CE
330
1F
100
AcDbEntity
  8
0
  6
HIDDEN
 62
     7
370
     0
100
AcDbLine
 10
248.0893938981
 20
95.7482221267
 30
0.0
 11
242.7554487429
 21
95.6000328726
 31
0.0
  0
LINE
  5
1CF
330
1F
100
AcDbEntity
  8
0
  6
HIDDEN
 62
     7
370
     0
100
AcDbLine
 10
242.8387760363
 20
92.6011900149
 30
0.0
 11
248.1727062903
 21
92.749379269
 31
0.0
  0
LINE
  5
1D0
330
1F
100
AcDbEntity
  8
0
  6
HIDDEN
 62
     7
370
     0
100
AcDbLine
 10
248.1746583424
 20
92.7511702023
 30
0.0
 11
248.2634245597
 21
92.9155421174
 31
0.0
  0
LINE
  5
1D1
330
1F
100
AcDbEntity
  8
0
  6
HIDDEN
 62
     7
370
     0
100
AcDbLine
 10
248.2606678449
 20
95.4709599457
 30
0.0
 11
248.0914502583
 21
95.7465420208
 31
0.0
  0
DIMENSION
  5
1D2
330
1F
100
AcDbEntity
  8
VERMASSUNG
100
AcDbDimension
  2
*D1
 10
256.0185190427
 20
95.4448665298
 30
0.0
 11
256.0185190427
 21
102.9022810479
 31
0.0
 70
   160
  1
%%c<>
 71
     2
 42
-1.0
  3
SLDDIMSTYLE0
100
AcDbAlignedDimension
 13
247.963428136
 23
111.4448665298
 33
0.0
 14
247.963428136
 24
95.4448665298
 34
0.0
 50
90.0
100
AcDbRotatedDimension
  0
DIMENSION
  5
1DE
330
1F
100
AcDbEntity
  8
VERMASSUNG
100
AcDbDimension
  2
*D2
 10
248.263428136
 20
142.9095341278
 30
0.0
 11
168.263428136
 21
142.9095341278
 31
0.0
 70
   160
 71
     2
 42
-1.0
  3
SLDDIMSTYLE0
100
AcDbAlignedDimension
 13
88.263428136
 23
134.6448665298
 33
0.0
 14
248.263428136
 24
120.1707260082
 34
0.0
100
AcDbRotatedDimension
  0
DIMENSION
  5
1E8
330
1F
100
AcDbEntity
  8
VERMASSUNG
100
AcDbDimension
  2
*D3
 10
248.263428136
 20
136.9095341278
 30
0.0
 11
181.238428136
 21
136.9095341278
 31
0.0
 70
   160
 71
     2
 42
-1.0
  3
SLDDIMSTYLE0
100
AcDbAlignedDimension
 13
114.213428136
 23
133.2913068535
 33
0.0
 14
248.263428136
 24
120.1707260082
 34
0.0
100
AcDbRotatedDimension
  0
DIMENSION
  5
1F2
330
1F
100
AcDbEntity
  8
VERMASSUNG
100
AcDbDimension
  2
*D4
 10
248.263428136
 20
148.9095341278
 30
0.0
 11
152.313428136
 21
148.9095341278
 31
0.0
 70
   160
 71
     2
 42
-1.0
  3
SLDDIMSTYLE0
100
AcDbAlignedDimension
 13
56.363428136
 23
123.1355442763
 33
0.0
 14
248.263428136
 24
120.1707260082
 34
0.0
100
AcDbRotatedDimension
  0
DIMENSION
  5
1FC
330
1F
100
AcDbEntity
  8
VERMASSUNG
100
AcDbDimension
  2
*D5
 10
52.4620235292
 20
71.9448665298
 30
0.0
 11
52.4620235292
 21
102.9022810479
 31
0.0
 70
   160
  1
HSK A %%c<>
 71
     2
 42
-1.0
  3
SLDDIMSTYLE0
100
AcDbAlignedDimension
 13
88.563428136
 23
134.9448665298
 33
0.0
 14
88.563428136
 24
71.9448665298
 34
0.0
 50
90.0
100
AcDbRotatedDimension
  0
DIMENSION
  5
208
330
1F
100
AcDbEntity
  8
VERMASSUNG
100
AcDbDimension
  2
*D6
 10
262.0185190427
 20
79.4448665298
 30
0.0
 11
262.0185190427
 21
103.4262239714
 31
0.0
 70
   160
  1
%%c<>
 71
     2
 42
-1.0
  3
SLDDIMSTYLE0
100
AcDbAlignedDimension
 13
235.3963866129
 23
127.4448665298
 33
0.0
 14
235.3963866129
 24
79.4448665298
 34
0.0
 50
90.0
100
AcDbRotatedDimension
  0
LINE
  5
213
330
1F
100
AcDbEntity
  8
VERMASSUNG
  6
CENTERX2
 62
     7
370
     0
100
AcDbLine
 10
54.2181242936
 20
103.4448665298
 30
0.0
 11
250.263428136
 21
103.4448665298
 31
0.0
  0
OLE2FRAME
  5
214
330
1F
100
AcDbEntity
  8
0
100
AcDbOle2Frame
 70
     2
  3
Bitmap Image
 10
13.8511154363
 20
38.264191557
 30
0.0
 11
51.6290888628
 21
31.9806341108
 31
0.0
 71
     2
 72
     0
 73
     1
 90
    12928
310
80552BED0767C5B32B40DDAF6807D121434000000000000000006FFBDDFB85D0
310
4940DDAF6807D121434000000000000000006FFBDDFB85D04940416F4BD60AFB
310
3F4000000000000000002BED0767C5B32B40416F4BD60AFB3F40000000000000
310
0000000000000100000000010000010000000100000000000100000000320000
310
D0CF11E0A1B11AE1000000000000000000000000000000003E000300FEFF0900
310
0600000000000000000000000100000001000000000000000010000002000000
310
01000000FEFFFFFF0000000000000000FFFFFFFFFFFFFFFFFFFFFFFFFFFFFFFF
310
FFFFFFFFFFFFFFFFFFFFFFFFFFFFFFFFFFFFFFFFFFFFFFFFFFFFFFFFFFFFFFFF
310
FFFFFFFFFFFFFFFFFFFFFFFFFFFFFFFFFFFFFFFFFFFFFFFFFFFFFFFFFFFFFFFF
310
FFFFFFFFFFFFFFFFFFFFFFFFFFFFFFFFFFFFFFFFFFFFFFFFFFFFFFFFFFFFFFFF
310
FFFFFFFFFFFFFFFFFFFFFFFFFFFFFFFFFFFFFFFFFFFFFFFFFFFFFFFFFFFFFFFF
310
FFFFFFFFFFFFFFFFFFFFFFFFFFFFFFFFFFFFFFFFFFFFFFFFFFFFFFFFFFFFFFFF
310
FFFFFFFFFFFFFFFFFFFFFFFFFFFFFFFFFFFFFFFFFFFFFFFFFFFFFFFFFFFFFFFF
310
FFFFFFFFFFFFFFFFFFFFFFFFFFFFFFFFFFFFFFFFFFFFFFFFFFFFFFFFFFFFFFFF
310
FFFFFFFFFFFFFFFFFFFFFFFFFFFFFFFFFFFFFFFFFFFFFFFFFFFFFFFFFFFFFFFF
310
FFFFFFFFFFFFFFFFFFFFFFFFFFFFFFFFFFFFFFFFFFFFFFFFFFFFFFFFFFFFFFFF
310
FFFFFFFFFFFFFFFFFFFFFFFFFFFFFFFFFFFFFFFFFFFFFFFFFFFFFFFFFFFFFFFF
310
FFFFFFFFFFFFFFFFFFFFFFFFFFFFFFFFFFFFFFFFFFFFFFFFFFFFFFFFFFFFFFFF
310
FFFFFFFFFFFFFFFFFFFFFFFFFFFFFFFFFFFFFFFFFFFFFFFFFFFFFFFFFFFFFFFF
310
FFFFFFFFFFFFFFFFFFFFFFFFFFFFFFFFFFFFFFFFFFFFFFFFFFFFFFFFFFFFFFFF
310
FDFFFFFFFEFFFFFFFEFFFFFFFEFFFFFF05000000060000000700000008000000
310
090000000A0000000B0000000C0000000D0000000E0000000F00000010000000
310
11000000120000001300000014000000150000001600000017000000FEFFFFFF
310
FFFFFFFFFFFFFFFFFFFFFFFFFFFFFFFFFFFFFFFFFFFFFFFFFFFFFFFFFFFFFFFF
310
FFFFFFFFFFFFFFFFFFFFFFFFFFFFFFFFFFFFFFFFFFFFFFFFFFFFFFFFFFFFFFFF
310
FFFFFFFFFFFFFFFFFFFFFFFFFFFFFFFFFFFFFFFFFFFFFFFFFFFFFFFFFFFFFFFF
310
FFFFFFFFFFFFFFFFFFFFFFFFFFFFFFFFFFFFFFFFFFFFFFFFFFFFFFFFFFFFFFFF
310
FFFFFFFFFFFFFFFFFFFFFFFFFFFFFFFFFFFFFFFFFFFFFFFFFFFFFFFFFFFFFFFF
310
FFFFFFFFFFFFFFFFFFFFFFFFFFFFFFFFFFFFFFFFFFFFFFFFFFFFFFFFFFFFFFFF
310
FFFFFFFFFFFFFFFFFFFFFFFFFFFFFFFFFFFFFFFFFFFFFFFFFFFFFFFFFFFFFFFF
310
FFFFFFFFFFFFFFFFFFFFFFFFFFFFFFFFFFFFFFFFFFFFFFFFFFFFFFFFFFFFFFFF
310
FFFFFFFFFFFFFFFFFFFFFFFFFFFFFFFFFFFFFFFFFFFFFFFFFFFFFFFFFFFFFFFF
310
FFFFFFFFFFFFFFFFFFFFFFFFFFFFFFFFFFFFFFFFFFFFFFFFFFFFFFFFFFFFFFFF
310
FFFFFFFFFFFFFFFFFFFFFFFFFFFFFFFFFFFFFFFFFFFFFFFFFFFFFFFFFFFFFFFF
310
FFFFFFFFFFFFFFFFFFFFFFFFFFFFFFFFFFFFFFFFFFFFFFFFFFFFFFFFFFFFFFFF
310
FFFFFFFFFFFFFFFFFFFFFFFFFFFFFFFFFFFFFFFFFFFFFFFFFFFFFFFFFFFFFFFF
310
52006F006F007400200045006E00740072007900000000000000000000000000
310
0000000000000000000000000000000000000000000000000000000000000000
310
16000500FFFFFFFFFFFFFFFF020000000A00030000000000C000000000000046
310
000000000000000000000000B0741F46F8FFCB0103000000C000000000000000
310
01004F006C006500000000000000000000000000000000000000000000000000
310
0000000000000000000000000000000000000000000000000000000000000000
310
0A000200FFFFFFFFFFFFFFFFFFFFFFFF00000000000000000000000000000000
310
0000000000000000000000000000000000000000000000001400000000000000
310
010043006F006D0070004F0062006A0000000000000000000000000000000000
310
0000000000000000000000000000000000000000000000000000000000000000
310
120002010100000003000000FFFFFFFF00000000000000000000000000000000
310
0000000000000000000000000000000000000000010000004D00000000000000
310
01004F006C006500310030004E00610074006900760065000000000000000000
310
0000000000000000000000000000000000000000000000000000000000000000
310
1A000200FFFFFFFFFFFFFFFFFFFFFFFF00000000000000000000000000000000
310
0000000000000000000000000000000000000000040000002426000000000000
310
FEFFFFFF02000000FEFFFFFFFFFFFFFFFFFFFFFFFFFFFFFFFFFFFFFFFFFFFFFF
310
FFFFFFFFFFFFFFFFFFFFFFFFFFFFFFFFFFFFFFFFFFFFFFFFFFFFFFFFFFFFFFFF
310
FFFFFFFFFFFFFFFFFFFFFFFFFFFFFFFFFFFFFFFFFFFFFFFFFFFFFFFFFFFFFFFF
310
FFFFFFFFFFFFFFFFFFFFFFFFFFFFFFFFFFFFFFFFFFFFFFFFFFFFFFFFFFFFFFFF
310
FFFFFFFFFFFFFFFFFFFFFFFFFFFFFFFFFFFFFFFFFFFFFFFFFFFFFFFFFFFFFFFF
310
FFFFFFFFFFFFFFFFFFFFFFFFFFFFFFFFFFFFFFFFFFFFFFFFFFFFFFFFFFFFFFFF
310
FFFFFFFFFFFFFFFFFFFFFFFFFFFFFFFFFFFFFFFFFFFFFFFFFFFFFFFFFFFFFFFF
310
FFFFFFFFFFFFFFFFFFFFFFFFFFFFFFFFFFFFFFFFFFFFFFFFFFFFFFFFFFFFFFFF
310
FFFFFFFFFFFFFFFFFFFFFFFFFFFFFFFFFFFFFFFFFFFFFFFFFFFFFFFFFFFFFFFF
310
FFFFFFFFFFFFFFFFFFFFFFFFFFFFFFFFFFFFFFFFFFFFFFFFFFFFFFFFFFFFFFFF
310
FFFFFFFFFFFFFFFFFFFFFFFFFFFFFFFFFFFFFFFFFFFFFFFFFFFFFFFFFFFFFFFF
310
FFFFFFFFFFFFFFFFFFFFFFFFFFFFFFFFFFFFFFFFFFFFFFFFFFFFFFFFFFFFFFFF
310
FFFFFFFFFFFFFFFFFFFFFFFFFFFFFFFFFFFFFFFFFFFFFFFFFFFFFFFFFFFFFFFF
310
FFFFFFFFFFFFFFFFFFFFFFFFFFFFFFFFFFFFFFFFFFFFFFFFFFFFFFFFFFFFFFFF
310
FFFFFFFFFFFFFFFFFFFFFFFFFFFFFFFFFFFFFFFFFFFFFFFFFFFFFFFFFFFFFFFF
310
FFFFFFFFFFFFFFFFFFFFFFFFFFFFFFFFFFFFFFFFFFFFFFFFFFFFFFFFFFFFFFFF
310
010000020000000000000000000000000000000061007200520082005C003107
310
E807250000000000E807250000000000680061007200650064005C003B004300
310
0100FEFF030A0000FFFFFFFF0A00030000000000C00000000000004607000000
310
5042727573680007000000504272757368000700000050427275736800F439B2
310
71000000000000000000000000004100540049002E004100430045005C004300
310
6F00720065002D005300740061007400690063003B0043003A005C0050007200
310
6F006700720061006D002000460069006C006500730020002800780038003600
310
29005C0043006F006D006D006F006E002000460069006C00650073005C004100
310
750074006F006400650073006B0020005300680061007200650064005C003B00
310
43003A005C00500072006F006700720061006D002000460069006C0065007300
310
5C004E006F0072006D0061006E005C004E0070006D005C00420069006E000000
310
43003A005C00500072006F006700720061006D002000460069006C0065007300
310
5C0053006F006C006900640057006F0072006B007300200043006F0072007000
310
5C0053006F006C006900640057006F0072006B00730020002800320029005C00
310
730065007400750070005C0069003300380036005C0073007700610063007400
310
770069007A002E006500780065000000220043003A005C00500072006F006700
310
20260000424D0E260000000000003E00000028000000B40200006E0000000100
310
01000000000000000000130B0000130B00000200000002000000000000FFFFFF
310
FFFFFFFFFFFFFFFFFFFFFFFFFFFFFFFFFFFFFFFFFFFFFFFFFFFFFFFFFFFFFFFF
310
FFFFFFFFFFFFFFFFFFFFFFFFFFFFFFFFFFFFFFFFFFFFFFFFFFFFFFFFFFFFFFFF
310
FFFFFFFFFFFFFFFFFFFFFFFFFFFFFFFFFFFFFFFFFFFFFFFFF000FFFFFFFFFFFF
310
FFFFFFFFFFFFFFFFFFFFFFFFFFFFFFFFFFFFFFFFFFFFFFFFFFFFFFFFFFFFFFFF
310
FFFFFFFFFFFFFFFFFFFFFFFFFFFFFFFFFFFFFFFFFFFFFFFFFFFFFFFFFFFFFFFF
310
FFFFFFFFFFFFFFFFFFFFFFFFFFFFFFFFF000FFFFFFFFFFFFFFFFFFFFFFFFFFFF
310
FFFFFFFFFFFFFFFFFFFFFFFFFFFFFFFFFFFFFFFFFFFFFFFFFFFFFFFFFFFFFFFF
310
FFFFFFFFFFFFFFFFFFFFFFFFFFFFFFFFFFFFFFFFFFFFFFFFFFFFFFFFFFFFFFFF
310
FFFFFFFFFFFFFFFFF000FFFFFFFFFFFFFFFFFFFFFFFFFFFFFFFFFFFFFFFFFFFF
310
FFFFFFFFFFFFFFFFFFFFFFFFFFFFFFFFFFFFFFFFFFFFFFFFFFFFFFFFFFFFFFFF
310
FFFFFFFFFFFFFFFFFFFFFFFFFFFFFFFFFFFFFFFFFFFFFFFFFFFFFFFFFFFFFFFF
310
F000FFFFFFFFFFFFFFFFFFFFFFFFFFFFFFFFFFFFFFFFFFFFFFFFFFFFFFFFFFFF
310
FFFFFFFFFFFFFFFFFFFFFFFFFFFFFFFFFFFFFFFFFFFFFFFFFFFFFFFFFFFFFFFF
310
FFFFFFFFFFFFFFFFFFFFFFFFFFFFFFFFFFFFFFFFFFFFFFFFF000FFFFFFFFFFFF
310
FFFFFFFFFFFFFFFFFFFFFFFFFFFFFFFFFFFFFFFFFFFFFFFFFFFFFFFFFFFFFFFF
310
FFFFFFFFFFFFFFFFFFFFFFFFFFFFFFFFFFFFFFFFFFFFFFFFFFFFFFFFFFFFFFFF
310
FFFFFFFFFFFFFFFFFFFFFFFFFFFFFFFFF000FFFFFFFFFFFFFFFFFFFFFFFFFFFF
310
FFFFFFFFFFFFFFFFFFFFFFFFFFFFFFFFFFFFFFFFFFFFFFFFFFFFFFFFFFFFFFFF
310
FFFFFFFFFFFFFFFFFFFFFFFFFFFFFFFFFFFFFFFFFFFFFFFFFFFFFFFFFFFFFFFF
310
FFFFFFFFFFFFFFFFF000FFFFFFFFFFFFFFFFFFFFFFFFFFFFFFFFFFFFFFFFFFFF
310
FFFFFFFFFFFFFFFFFFFFFFFFFFFFFFFFFFFFFFFFFFFFFFFFFFFFFFFFFFFFFFFF
310
FFFFFFFFFFFFFFFFFFFFFFFFFFFFFFFFFFFFFFFFFFFFFFFFFFFFFFFFFFFFFFFF
310
F000FFFFFFFFFFFFFFFFFFFFFFFFFFFFFFFFFFFFFFFFFFFFFFFFFFFFFFFFFFFF
310
FFFFFFFFFFFFFFFFFFFFFFFFFFFFFFFFFFFFFFFFFFFFFFFFFFFFFFFFFFFFFFFF
310
FFFFFFFFFFFFFFFFFFFFFFFFFFFFFFFFFFFFFFFFFFFFFFFFF000FFFFFFFFFFFF
310
FFFFFFFFFFFFFFFFFFFFFFFFFFFFFFFFFFFFFFFFFFFFFFFFFFFFFFFFFFFFFFFF
310
FFFFFFFFFFFFFFFFFFFFFFFFFFFFFFFFFFFFFFFFFFFFFFFFFFFFFFFFFFFFFFFF
310
FFFFFFFFFFFFFFFFFFFFFFFFFFFFFFFFF000FFFFFFFFFFFFFFFFFFFFFFFFFFFF
310
FFFFFFFFFFFFFFFFFFFFFFFFFFFFFFFFFFFFFFFFFFFFFFFFFFFFFFFFFFFFFFFF
310
FFFFFFFFFFFFFFFFFFFFFFFFFFFFFFFFFFFFFFFFFFFFFFFFFFFFFFFFFFFFFFFF
310
FFFFFFFFFFFFFFFFF000FFFFFFFFFFFFFFFFFFFFFFFFFFFFFFFFFFFFFFFFFFFF
310
FFFFFFFFFFFFFFFFFFFFFFFFFFFFFFFFFFFFFFFFFFFFFFFFFFFFFFFFFFFFFFFF
310
FFFFFFFFFFFFFFFFFFFFFFFFFFFFFFFFFFFFFFFFFFFFFFFFFFFFFFFFFFFFFFFF
310
F000FFFFFFFFFFFFFFFFFFFFFFFFFFFFFFFFFFFFFFFFFFFFFFFFFFFFFFFFFFFF
310
FFFFFFFFFFFFFFFFFFFFFFFFFFFFFFFFFFFFFFFFFFFFFFFFFFFFFFFFFFFFFFFF
310
FFFFFFFFFFFFFFFFFFFFFFFFFFFFFFFFFFFFFFFFFFFFFFFFF000FFFFFFFFFFFF
310
FFFFFFFFFFFFFFFFFFFFFFFFFFFFFFFFFFFFFFFFFFFFFFFFFFFFFFFFFFFFFFFF
310
FFFFFFFFFFFFFFFFFFFFFFFFFFFFFFFFFFFFFFFFFFFFFFFFFFFFFFFFFFFFFFFF
310
FFFFFFFFFFFFFFFFFFFFFFFFFFFFFFFFF000FFFFFFFFFFFFFFFFFFFFFFFFFFFF
310
FFFFFFFFFFFFFFFFFFFFFFFFFFFFFFFFFFFFFFFFFFFFFFFFFFFFFFFFFFFFFFFF
310
FFFFFFFFFFFFFFFFFFFFFFFFFFFFFFFFFFFFFFFFFFFFFFFFFFFFFFFFFFFFFFFF
310
FFFFFFFFFFFFFFFFF000FFFFFFFFFFFFFFFFFFFFFFFFFFFFFFFFFFFFFFFFFFFF
310
FFFFFFFFFFFFFFFFFFFFFFFFFFFFFFFFFFFFFFFFFFFFFFFFFFFFFFFFFFFFFFFF
310
FFFFFFFFFFFFFFFFFFFFFFFFFFFFFFFFFFFFFFFFFFFFFFFFFFFFFFFFFFFFFFFF
310
F000FFFFFFFFFFFFFFFFFFFFFFFFFFFFFFFFFFFFFFFFFFFFFFFFFFFFFFFFFFFF
310
FFFFFFFFFFFFFFFFFFFFFFFFFFFFFFFFFFFFFFFFFFFFFFFFFFFFFFFFFFFFFFFF
310
FFFFFFFFFFFFFFFFFFFFFFFFFFFFFFFFFFFFFFFFFFFFFFFFF000FFFFFFFFFFFF
310
FFFFFFFFFFFFFFFFFFFFFFFFFFFFFFFFFFFFFFFFFFFFFFFFFFFFFFFFFFFFFFFF
310
FFFFFFFFFFFFFFFFFFFFFFFFFFFFFFFFFFFFFFFFFFFFFFFFFFFFFFFFFFFFFFFF
310
FFFFFFFFFFFFFFFFFFFFFFFFFFFFFFFFF000FFFFFFFFFFFFFFFFFFFFFFFFFFFF
310
FFFFFFFFFFFFFFFFFFFFFFFFFFFFFFFFFFFFFFFFFFFFFFFFFFFFFFFFFFFFFFFF
310
FFFFFFFFFFFFFFFFFFFFFFFFFFFFFFFFFFFFFFFFFFFFFFFFFFFFFFFFFFFFFFFF
310
FFFFFFFFFFFFFFFFF000FFFFF80003FFFFFFFFFFFFFFFFFFFFFFFFFFFFFFFFFF
310
FFFFF00007FFFFFFFFFF00007FFFFFF800000000000000007FFFFFFFFFFFFFFF
310
FFFFFFFC001FFFFFFFFFFFFFFC001FFFFFFFFFFFFFFFFFFFFFFFFFFE0007FFFF
310
F000FFFF8000007FFFFFFFF8000FFFFFC0007FFFFF80007FFFFF0000007FFFFF
310
FFF8000007FFFFF800000000000000007FFFFFF0001FFFFFFFFFFFC00001FFFF
310
FFFFFFFFC00001FFFFFFFF000000000003FFFFE000007FFFF000FFFE0000000F
310
FFFFFFF0000FFFFF80007FFFFF80007FFFFC0000001FFFFFFFC0000001FFFFF8
310
00000000000000007FFFFFF0001FFFFFFFFFFE0000003FFFFFFFFFFE0000003F
310
FFFFFF000000000003FFFF0000000FFFF000FFF800000003FFFFFFF00007FFFF
310
80007FFFFF80007FFFF000000007FFFFFF000000003FFFF80000000000000000
310
7FFFFFF0001FFFFFFFFFF80000000FFFFFFFFFF80000000FFFFFFF0000000000
310
03FFFC00000003FFF000FFE000000000FFFFFFF00007FFFF80003FFFFF80007F
310
FFC000000001FFFFFC000000001FFFF800000000000000007FFFFFF0001FFFFF
310
FFFFE000000003FFFFFFFFE000000003FFFFFF000000000003FFF000000000FF
310
F000FF80000000007FFFFFF00007FFFF80003FFFFF80007FFF8000000000FFFF
310
F80000000007FFF800000000000000007FFFFFF0001FFFFFFFFFC000000001FF
310
FFFFFFC000000001FFFFFF000000000003FFC0000000007FF000FF0000000000
310
3FFFFFE00007FFFF00003FFFFF80007FFE00000000003FFFF00000000003FFF8
310
00000000000000007FFFFFF0001FFFFFFFFF8000000000FFFFFFFF8000000000
310
FFFFFF000000000003FF80000000003FF000FE00000000001FFFFFE00003FFFF
310
00003FFFFF80007FFC00000000001FFFE00000000001FFF8000001FFFE000000
310
7FFFFFF0001FFFFFFFFE00000000003FFFFFFE00000000003FFFFF0000000000
310
03FF00000000001FF000FC00000000000FFFFFE00003FFFF00001FFFFF80007F
310
F800000000001FFFC00000000000FFF8000001FFFE0000007FFFFFF0001FFFFF
310
FFFC00000000001FFFFFFC00000000001FFFFF000000000003FE00000000000F
310
F000F8000000000007FFFFE00003FFFF00001FFFFF80007FF800000000000FFF
310
800000000000FFF8000001FFFE0000007FFFFFF0001FFFFFFFF800000000000F
310
FFFFF800000000000FFFFF000000000003FC000000000007F000F80000000000
310
03FFFFC00003FFFE00001FFFFF80007FF0000000000007FF0000000000007FF8
310
000001FFFE0000007FFFFFF0001FFFFFFFF0000000000007FFFFF00000000000
310
07FFFF000000000003F8000000000003F000F0000000000003FFFFC00001FFFE
310
00001FFFFF80007FE0000000000007FE0000000000003FF8000001FFFE000000
310
7FFFFFF0001FFFFFFFF0000000000007FFFFF0000000000007FFFF0000000000
310
03F800001F800003F000E00001FFF00001FFFFC00001FFFE00000FFFFF80007F
310
E00001FFE00003FE00001FFF00003FF8000001FFFE0000007FFFFFF0001FFFFF
310
FFE000003E000003FFFFE000003E000003FFFF000000000003F00001FFF80001
310
F000E00007FFFC0001FFFFC00001FFFE00000FFFFF80007FC0000FFFFC0003FC
310
0000FFFFC0001FF8000001FFFE0000007FFFFFF0001FFFFFFFC00003FFE00001
310
FFFFC00003FFE00001FFFF0001FFFFFFFFF00007FFFE0001F000E0000FFFFF00
310
00FFFF800001FFFC00000FFFFF80007FC0001FFFFE0001FC0001FFFFE0001FF8
310
000001FFFE0000007FFFFFF0001FFFFFFF80000FFFF80000FFFF80000FFFF800
310
00FFFF0003FFFFFFFFE0000FFFFF8000F000C0003FFFFF8000FFFF800000FFFC
310
000007FFFF80007F80003FFFFF0001FC0003FFFFF0001FF8000001FFFE000000
310
7FFFFFF0001FFFFFFF80003FFFFE0000FFFF80003FFFFE0000FFFF0003FFFFFF
310
FFE0003FFFFF8000F000C0003FFFFF8000FFFF800000FFFC000007FFFF80007F
310
80007FFFFF8001F80007FFFFF8000FF8000001FFFE0000007FFFFFF0001FFFFF
310
FF00007FFFFF00007FFF00007FFFFF00007FFF0003FFFFFFFFE0003FFFFFC000
310
F000C0007FFFFFC000FFFF000000FFFC000007FFFF80007F8000FFFFFF8000F8
310
000FFFFFF8000FF8000001FFFE0000007FFFFFF0001FFFFFFF0000FFFFFF8000
310
7FFF0000FFFFFF80007FFF0003FFFFFFFFC0007FFFFFC00070008000FFFFFFC0
310
00FFFF000000FFF8000007FFFF80007F8000FFFFFF8000F8000FFFFFF8000FF8
310
000001FFFE0000007FFFFFF0001FFFFFFE0001FFFFFFC0003FFE0001FFFFFFC0
310
003FFF0003FFFFFFFFC0007FFFFFE00070008000FFFFFFC0007FFF0000007FF8
310
000003FFFF80007F0001FFFFFF8000F8000FFFFFF8000FF8000001FFFE000000
310
7FFFFFF0001FFFFFFE0001FFFFFFC0003FFE0001FFFFFFC0003FFF0003FFFFFF
310
FFC000FFFFFFE00070008000FFFFFFC0007FFF0000007FF8000003FFFF80007F
310
0001FFFFFF8000F8001FFFFFF8000FF8000001FFFE0000007FFFFFF0001FFFFF
310
FE0003FFFFFFE0003FFE0003FFFFFFE0003FFF0003FFFFFFFFC000FFFFFFE000
310
70008000FFFFFFC0007FFE0000007FF8000003FFFF80007F0001FFFFFF8000F0
310
001FFFFFF8000FF8000001FFFE0000007FFFFFF0001FFFFFFC0003FFFFFFE000
310
1FFC0003FFFFFFE0001FFF0003FFFFFFFFC000FFFFFFC00070008000FFFFFF80
310
007FFE0000007FF0000003FFFF80007F0001FFFFFF0000F0001FFFFFF8000FF8
310
000001FFFE0000007FFFFFF0001FFFFFFC0007FFFFFFF0001FFC0007FFFFFFF0
310
001FFF0003FFFFFFFFC000FFFFFFC00070008001FFFFFF0000FFFE0000003FF0
310
000001FFFF80007F0001FFFFFF0000F8001FFFFFF0000FF8000001FFFE000000
310
7FFFFFF0001FFFFFFC0007FFFFFFF0001FFC0007FFFFFFF0001FFF0003FFFFFF
310
FFC001FFFFFF80007000FFFFFFFFFE0000FFFE0008003FF0008001FFFF80007F
310
FFFFFFFFFC0000FFFFFFFFFFE0000FF8000001FFFE0000007FFFFFF0001FFFFF
310
F8000FFFFFFFF8000FF8000FFFFFFFF8000FFF0003FFFFFFFFFFFFFFFFFF0000
310
7000FFFFFFFFFC0000FFFC0008003FF0008001FFFF80007FFFFFFFFFF80001FF
310
FFFFFFFF80000FF8000001FFFE0000007FFFFFF0001FFFFFF8000FFFFFFFF800
310
0FF8000FFFFFFFF8000FFF0003FFFFFFFFFFFFFFFFFE0000F000FFFFFFFFE000
310
00FFFC000C003FE000C001FFFF80007FFFFFFFFFC00001FFFFFFFFFE00001FF8
310
000001FFFE0000007FFFFFF0001FFFFFF8000FFFFFFFF8000FF8000FFFFFFFF8
310
000FFF0003FFFFFFFFFFFFFFFFF00000F000FFFFFFFE000001FFFC000C001FE0
310
00C000FFFF80007FFFFFFFFE000001FFFFFFFFE000001FF80FFFFFFFFFFFFFC0
310
7FFFFFF0001FFFFFF8000FFFFFFFF8000FF8000FFFFFFFF8000FFF0003FFFFFF
310
FFFFFFFFFF800000F000FFFFFFC0000001FFFC001C001FE001C000FFFF80007F
310
FFFFFF80000003FFFFFFF80000001FF80FFFFFFFFFFFFFC07FFFFFF0001FFFFF
310
F8001FFFFFFFFC000FF8001FFFFFFFFC000FFF0003FFFFFFFFFFFFFFF0000001
310
F000FFFFF800000001FFF8001C001FE001C000FFFF80007FFFFFF800000003FF
310
FFFF800000003FF80FFFFFFFFFFFFFC07FFFFFF0001FFFFFF8001FFFFFFFFC00
310
0FF8001FFFFFFFFC000FFF0003FFFFFFFFFFFFFE00000001F000FFFFC0000000
310
03FFF8001E001FC001E000FFFF80007FFFFF8000000007FFFFFC000000003FF8
310
0FFFFFFFFFFFFFC07FFFFFF0001FFFFFF8001FFFFFFFFC000FF8001FFFFFFFFC
310
000FFF0003FFFFFFFFFFFFE000000003F000FFFE0000000007FFF8001E000FC0
310
01E0007FFF80007FFFFE0000000007FFFFE0000000007FF80FFFFFFFFFFFFFC0
310
7FFFFFF0001FFFFFF0001FFFFFFFFC0007F0001FFFFFFFFC0007FF0003FFFFFF
310
FFFFFF0000000003F000FFF80000000007FFF8001E000FC003E0007FFF80007F
310
FFF0000000000FFFFF8000000000FFF80FFFFFFFFFFFFFC07FFFFFF0001FFFFF
310
F0001FFFFFFFFC0007F0001FFFFFFFFC0007FF0003FFFFFFFFFFFC0000000007
310
F000FFE0000000000FFFF0003E000FC003E0007FFF80007FFFC0000000001FFF
310
FE0000000001FFF80FFFFFFFFFFFFFC07FFFFFF0001FFFFFF0001FFFFFFFFC00
310
07F0001FFFFFFFFC0007FF0003FFFFFFFFFFF0000000000FF000FFC000000000
310
1FFFF0003F000F8003F0003FFF80007FFF80000000003FFFF80000000003FFF8
310
0FFFFFFFFFFFFFC07FFFFFF0001FFFFFF0001FFFFFFFFC0007F0001FFFFFFFFC
310
0007FF0003FFFFFFFFFFE0000000001FF000FF00000000007FFFF0003F000780
310
03F0003FFF80007FFF00000000007FFFF00000000007FFF80FFFFFFFFFFFFFC0
310
7FFFFFF0001FFFFFF0001FFFFFFFFC0007F0001FFFFFFFFC0007FF0003FFFFFF
310
FFFF80000000007FF000FE0000000000FFFFE0003F00078007F0003FFF80007F
310
FE0000000001FFFFE0000000001FFFF80FFFFFFFFFFFFFC07FFFFFF0001FFFFF
310
F0001FFFFFFFFC0007F0001FFFFFFFFC0007FF0003FFFFFFFFFF0000000000FF
310
F000FC0000000003FFFFE0007F00078007F0003FFF80007FFC0000000007FFFF
310
C0000000007FFFF80FFFFFFFFFFFFFC07FFFFFF0001FFFFFF8001FFFFFFFFC00
310
0FF8001FFFFFFFFC000FFF0003FFFFFFFFFE0000000003FFF000FC000000000F
310
FFFFE0007F80070007F8001FFF80007FF8000000001FFFFF8000000001FFFFF8
310
0FFFFFFFFFFFFFC07FFFFFF0001FFFFFF8001FFFFFFFFC000FF8001FFFFFFFFC
310
000FFF0003FFFFFFFFFC000000000FFFF000F8000000007FFFFFE0007F800700
310
07F8001FFF80007FF000000000FFFFFF800000000FFFFFF80FFFFFFFFFFFFFC0
310
7FFFFFF0001FFFFFF8000FFFFFFFF8000FF8000FFFFFFFF8000FFF0003FFFFFF
310
FFFC000000007FFFF000F800000007FFFFFFC0007F8003000FF8001FFF80007F
310
F000000007FFFFFF000000007FFFFFF80FFFFFFFFFFFFFC07FFFFFF0001FFFFF
310
F8000FFFFFFFF8000FF8000FFFFFFFF8000FFF0003FFFFFFFFF80000000FFFFF
310
F000F0000000FFFFFFFFC000FF8003000FF8001FFF80007FE0000000FFFFFFFF
310
0000000FFFFFFFF8000001FFFE0000007FFFFFF0001FFFFFF8000FFFFFFFF800
310
0FF8000FFFFFFFF8000FFF0003FFFFFFFFF8000000FFFFFFF000F000000FFFFF
310
FFFFC000FFC002000FF8000FFF80007FE000001FFFFFFFFE000001FFFFFFFFF8
310
000001FFFE0000007FFFFFF0001FFFFFF8000FFFFFFFF8000FF8000FFFFFFFF8
310
000FFF0003FFFFFFFFF000001FFFFFFFF000E00000FFFFFFFFFFC000FFC00200
310
0FFC000FFF80007FE00001FFFFFFFFFE00001FFFFFFFFFF8000001FFFE000000
310
7FFFFFF0001FFFFFFC000FFFFFFFF8001FFC000FFFFFFFF8001FFF0003FFFFFF
310
FFF00001FFFFFFFFF000E00007FFFFFFFFFF8000FFC000001FFC000FFF80007F
310
C0000FFFFFFFFFFE0000FFFFFFFFFFF8000001FFFE0000007FFFFFF0001FFFFF
310
FC0007FFFFFFF0001FFC0007FFFFFFF0001FFF0003FFFFFFFFF00007FFFFFFFF
310
F000E0001FFFFFFFFFFF8000FFC000001FFC000FFF80007FC0003FFFFFFFFFFE
310
0001FFFFFFFFFFF8000001FFFE0000007FFFFFF0001FFFFFFC0007FFFFFFF000
310
1FFC0007FFFFFFF0001FFF0003FFFFFFFFF0001FFFFFFFFFF000E0003FFFFF00
310
03FF8001FFE000001FFC0007FF80007FC0007FFFFF0007FC0003FFFFF0003FF8
310
000001FFFE0000007FFFFFF0001FFFFFFC0003FFFFFFE0001FFC0003FFFFFFE0
310
001FFF0003FFFFFFFFF0003FFFFFFFFFF000E0003FFFFF0001FF8001FFE00000
310
1FFE0007FF80007FC0007FFFFE0003FC0007FFFFE0003FF8000001FFFE000000
310
7FFFFFF0001FFFFFFE0003FFFFFFE0003FFE0003FFFFFFE0003FFF0003FFFFFF
310
FFF0003FFFFF8001F000E0003FFFFF0001FF0001FFE000001FFE0007FF80007F
310
C0007FFFFE0003FC0007FFFFE0003FF8000001FFFE0000007FFFFFF0001FFFFF
310
FE0001FFFFFFC0003FFE0001FFFFFFC0003FFF0003FFFFFFFFF0003FFFFF0001
310
F000E0003FFFFF0003FF0001FFE000003FFE0007FF80007FC0007FFFFE0003FC
310
0007FFFFE0003FF8000001FFFE0000007FFFFFF0001FFFFFFF0001FFFFFFC000
310
7FFF0001FFFFFFC0007FFF0003FFFFFFFFF0003FFFFF0001F000E0003FFFFE00
310
03FF0003FFF000003FFE0003FF80007FC0007FFFFC0003FE0007FFFFE0003FF8
310
000001FFFE0000007FFFFFF0001FFFFFFF0000FFFFFF80007FFF0000FFFFFF80
310
007FFF0003FFFFFFFFF0003FFFFF0001F000E0003FFFFE0003FF0003FFF00000
310
3FFF0003FF80007FC0007FFFFC0007FE0007FFFFC0003FF8000001FFFE000000
310
7FFFFFF0001FFFFFFF80007FFFFF0000FFFF80007FFFFF0000FFFF0003FFFFFF
310
FFF0003FFFFF0003F000E0003FFFFC0003FE0003FFF000003FFF0003FF80007F
310
E0003FFFF80007FE0003FFFFC0007FF8000001FFFE0000007FFFFFF0001FFFFF
310
FF80003FFFFE0000FFFF80003FFFFE0000FFFF0003FFFFFFFFF0001FFFFE0003
310
F000F0001FFFF80003FE0003FFF000007FFF0001FF80007FE0003FFFF00007FE
310
0001FFFF80007FF8000001FFFE0000007FFFFFF0001FFFFFFFC0000FFFF80001
310
FFFFC0000FFFF80001FFFF0003FFFFFFFFF0001FFFFC0003F000F0000FFFF000
310
07FE0007FFF800007FFF0001FF80007FE0001FFFE00007FF0000FFFE00007FF8
310
000001FFFE0000007FFFFFF0001FFFFFFFC00003FFE00001FFFFC00003FFE000
310
01FFFF0003FFFFFFFFF8000FFFF80003F000F00003FFC00007FC0007FFF80000
310
7FFF8001FF80007FF00007FF80000FFF00007FF80000FFF8000001FFFE000000
310
7F80000000000001FFE000003E000003FFFFE000003E000003FFFF0003FFFFFF
310
FFF80003FFE00007F000F800000000000FFC0007FFF800007FFF8001FF80007F
310
F000000000000FFF000000000000FFF8000001FFFE0000007F80000000000001
310
FFF0000000000007FFFFF0000000000007FFFF0003FFFFFFFFFC00007E000007
310
F000F800000000000FFC0007FFF80000FFFF8000FF80007FF800000000001FFF
310
800000000001FFF8000001FFFE0000007F80000000000001FFF800000000000F
310
FFFFF800000000000FFFFF0003FFFFFFFFFC00000000000FF000FC0000000000
310
1FFC0007FFFC0000FFFF8000FF80007FF800000000003FFFC00000000001FFF8
310
000001FFFE0000007F80000000000001FFF800000000000FFFFFF80000000000
310
0FFFFF0003FFFFFFFFFE00000000001FF000FE00000000003FF8000FFFFC0000
310
FFFF8000FF80007FFC00000000003FFFC00000000003FFF8000001FFFE000000
310
7F80000000000001FFFC00000000001FFFFFFC00000000001FFFFF0003FFFFFF
310
FFFF00000000001FF000FF00000000003FF8000FFFFC0000FFFFC000FF80007F
310
FE00000000007FFFE00000000007FFF8000001FFFE0000007F80000000000001
310
FFFE00000000003FFFFFFE00000000003FFFFF0003FFFFFFFFFF80000000003F
310
F000FF80000000007FF8000FFFFC0001FFFFC0007F80007FFF0000000000FFFF
310
F0000000000FFFF800000000000000007F80000000000001FFFF8000000000FF
310
FFFFFF8000000000FFFFFF0003FFFFFFFFFFC0000000007FF000FFC000000000
310
FFF8000FFFFE0001FFFFC0007F80007FFF8000000001FFFFF8000000001FFFF8
310
00000000000000007F80000000000001FFFFC000000001FFFFFFFFC000000001
310
FFFFFF0003FFFFFFFFFFE000000000FFF000FFE000000003FFF0001FFFFE0001
310
FFFFC0007F80007FFFC000000007FFFFFE000000003FFFF80000000000000000
310
7F80000000000001FFFFE000000003FFFFFFFFE000000003FFFFFF0003FFFFFF
310
FFFFF000000003FFF000FFF80000000FFFF0001FFFFE0001FFFFE0007F80007F
310
FFF00000000FFFFFFF00000000FFFFF800000000000000007F80000000000001
310
FFFFF80000000FFFFFFFFFF80000000FFFFFFF0003FFFFFFFFFFFC0000000FFF
310
F000FFFE0000003FFFF0001FFFFE0003FFFFE0003F80007FFFFC0000003FFFFF
310
FFC0000003FFFFF800000000000000007F80000000000001FFFFFE0000003FFF
310
FFFFFFFE0000003FFFFFFF0003FFFFFFFFFFFF0000003FFFF000FFFF800000FF
310
FFF0001FFFFF0003FFFFE0003F80007FFFFF000001FFFFFFFFF800001FFFFFF8
310
00000000000000007F80000000000001FFFFFFC00001FFFFFFFFFFFFC00001FF
310
FFFFFF0003FFFFFFFFFFFFC00000FFFFF000FFFFF8000FFFFFFFFFFFFFFFFFFF
310
FFFFFFFFFFFFFFFFFFFFF0001FFFFFFFFFFF0000FFFFFFF80000000000000000
310
7FFFFFFFFFFFFFFFFFFFFFFC001FFFFFFFFFFFFFFC001FFFFFFFFFFFFFFFFFFF
310
FFFFFFFC001FFFFFF000FFFFFFFFFFFFFFFFFFFFFFFFFFFFFFFFFFFFFFFFFFFF
310
FFFFFFFFFFFFFFFFFFFFFFFFFFFFFFFFFFFFFFFFFFFFFFFFFFFFFFFFFFFFFFFF
310
FFFFFFFFFFFFFFFFFFFFFFFFFFFFFFFFFFFFFFFFFFFFFFFFFFFFFFFFFFFFFFFF
310
F000FFFFFFFFFFFFFFFFFFFFFFFFFFFFFFFFFFFFFFFFFFFFFFFFFFFFFFFFFFFF
310
FFFFFFFFFFFFFFFFFFFFFFFFFFFFFFFFFFFFFFFFFFFFFFFFFFFFFFFFFFFFFFFF
310
FFFFFFFFFFFFFFFFFFFFFFFFFFFFFFFFFFFFFFFFFFFFFFFFF000FFFFFFFFFFFF
310
FFFFFFFFFFFFFFFFFFFFFFFFFFFFFFFFFFFFFFFFFFFFFFFFFFFFFFFFFFFFFFFF
310
FFFFFFFFFFFFFFFFFFFFFFFFFFFFFFFFFFFFFFFFFFFFFFFFFFFFFFFFFFFFFFFF
310
FFFFFFFFFFFFFFFFFFFFFFFFFFFFFFFFF000FFFFFFFFFFFFFFFFFFFFFFFFFFFF
310
FFFFFFFFFFFFFFFFFFFFFFFFFFFFFFFFFFFFFFFFFFFFFFFFFFFFFFFFFFFFFFFF
310
FFFFFFFFFFFFFFFFFFFFFFFFFFFFFFFFFFFFFFFFFFFFFFFFFFFFFFFFFFFFFFFF
310
FFFFFFFFFFFFFFFFF000FFFFFFFFFFFFFFFFFFFFFFFFFFFFFFFFFFFFFFFFFFFF
310
FFFFFFFFFFFFFFFFFFFFFFFFFFFFFFFFFFFFFFFFFFFFFFFFFFFFFFFFFFFFFFFF
310
FFFFFFFFFFFFFFFFFFFFFFFFFFFFFFFFFFFFFFFFFFFFFFFFFFFFFFFFFFFFFFFF
310
F000FFFFFFFFFFFFFFFFFFFFFFFFFFFFFFFFFFFFFFFFFFFFFFFFFFFFFFFFFFFF
310
FFFFFFFFFFFFFFFFFFFFFFFFFFFFFFFFFFFFFFFFFFFFFFFFFFFFFFFFFFFFFFFF
310
FFFFFFFFFFFFFFFFFFFFFFFFFFFFFFFFFFFFFFFFFFFFFFFFF000FFFFFFFFFFFF
310
FFFFFFFFFFFFFFFFFFFFFFFFFFFFFFFFFFFFFFFFFFFFFFFFFFFFFFFFFFFFFFFF
310
FFFFFFFFFFFFFFFFFFFFFFFFFFFFFFFFFFFFFFFFFFFFFFFFFFFFFFFFFFFFFFFF
310
FFFFFFFFFFFFFFFFFFFFFFFFFFFFFFFFF000FFFFFFFFFFFFFFFFFFFFFFFFFFFF
310
FFFFFFFFFFFFFFFFFFFFFFFFFFFFFFFFFFFFFFFFFFFFFFFFFFFFFFFFFFFFFFFF
310
FFFFFFFFFFFFFFFFFFFFFFFFFFFFFFFFFFFFFFFFFFFFFFFFFFFFFFFFFFFFFFFF
310
FFFFFFFFFFFFFFFFF000FFFFFFFFFFFFFFFFFFFFFFFFFFFFFFFFFFFFFFFFFFFF
310
FFFFFFFFFFFFFFFFFFFFFFFFFFFFFFFFFFFFFFFFFFFFFFFFFFFFFFFFFFFFFFFF
310
FFFFFFFFFFFFFFFFFFFFFFFFFFFFFFFFFFFFFFFFFFFFFFFFFFFFFFFFFFFFFFFF
310
F000FFFFFFFFFFFFFFFFFFFFFFFFFFFFFFFFFFFFFFFFFFFFFFFFFFFFFFFFFFFF
310
FFFFFFFFFFFFFFFFFFFFFFFFFFFFFFFFFFFFFFFFFFFFFFFFFFFFFFFFFFFFFFFF
310
FFFFFFFFFFFFFFFFFFFFFFFFFFFFFFFFFFFFFFFFFFFFFFFFF000FFFFFFFFFFFF
310
FFFFFFFFFFFFFFFFFFFFFFFFFFFFFFFFFFFFFFFFFFFFFFFFFFFFFFFFFFFFFFFF
310
FFFFFFFFFFFFFFFFFFFFFFFFFFFFFFFFFFFFFFFFFFFFFFFFFFFFFFFFFFFFFFFF
310
FFFFFFFFFFFFFFFFFFFFFFFFFFFFFFFFF000FFFFFFFFFFFFFFFFFFFFFFFFFFFF
310
FFFFFFFFFFFFFFFFFFFFFFFFFFFFFFFFFFFFFFFFFFFFFFFFFFFFFFFFFFFFFFFF
310
FFFFFFFFFFFFFFFFFFFFFFFFFFFFFFFFFFFFFFFFFFFFFFFFFFFFFFFFFFFFFFFF
310
FFFFFFFFFFFFFFFFF000FFFFFFFFFFFFFFFFFFFFFFFFFFFFFFFFFFFFFFFFFFFF
310
FFFFFFFFFFFFFFFFFFFFFFFFFFFFFFFFFFFFFFFFFFFFFFFFFFFFFFFFFFFFFFFF
310
FFFFFFFFFFFFFFFFFFFFFFFFFFFFFFFFFFFFFFFFFFFFFFFFFFFFFFFFFFFFFFFF
310
F000FFFFFFFFFFFFFFFFFFFFFFFFFFFFFFFFFFFFFFFFFFFFFFFFFFFFFFFFFFFF
310
FFFFFFFFFFFFFFFFFFFFFFFFFFFFFFFFFFFFFFFFFFFFFFFFFFFFFFFFFFFFFFFF
310
FFFFFFFFFFFFFFFFFFFFFFFFFFFFFFFFFFFFFFFFFFFFFFFFF000FFFFFFFFFFFF
310
FFFFFFFFFFFFFFFFFFFFFFFFFFFFFFFFFFFFFFFFFFFFFFFFFFFFFFFFFFFFFFFF
310
FFFFFFFFFFFFFFFFFFFFFFFFFFFFFFFFFFFFFFFFFFFFFFFFFFFFFFFFFFFFFFFF
310
FFFFFFFFFFFFFFFFFFFFFFFFFFFFFFFFF000FFFFFFFFFFFFFFFFFFFFFFFFFFFF
310
FFFFFFFFFFFFFFFFFFFFFFFFFFFFFFFFFFFFFFFFFFFFFFFFFFFFFFFFFFFFFFFF
310
FFFFFFFFFFFFFFFFFFFFFFFFFFFFFFFFFFFFFFFFFFFFFFFFFFFFFFFFFFFFFFFF
310
FFFFFFFFFFFFFFFFF000FFFFFFFFFFFFFFFFFFFFFFFFFFFFFFFFFFFFFFFFFFFF
310
FFFFFFFFFFFFFFFFFFFFFFFFFFFFFFFFFFFFFFFFFFFFFFFFFFFFFFFFFFFFFFFF
310
FFFFFFFFFFFFFFFFFFFFFFFFFFFFFFFFFFFFFFFFFFFFFFFFFFFFFFFFFFFFFFFF
310
F000FFFFFFFFFFFFFFFFFFFFFFFFFFFFFFFFFFFFFFFFFFFFFFFFFFFFFFFFFFFF
310
FFFFFFFFFFFFFFFFFFFFFFFFFFFFFFFFFFFFFFFFFFFFFFFFFFFFFFFFFFFFFFFF
310
FFFFFFFFFFFFFFFFFFFFFFFFFFFFFFFFFFFFFFFFFFFFFFFFF000FFFFFFFFFFFF
310
FFFFFFFFFFFFFFFFFFFFFFFFFFFFFFFFFFFFFFFFFFFFFFFFFFFFFFFFFFFFFFFF
310
FFFFFFFFFFFFFFFFFFFFFFFFFFFFFFFFFFFFFFFFFFFFFFFFFFFFFFFFFFFFFFFF
310
FFFFFFFFFFFFFFFFFFFFFFFFFFFFFFFFF000FFFFFFFFFFFFFFFFFFFFFFFFFFFF
310
FFFFFFFFFFFFFFFFFFFFFFFFFFFFFFFFFFFFFFFFFFFFFFFFFFFFFFFFFFFFFFFF
310
FFFFFFFFFFFFFFFFFFFFFFFFFFFFFFFFFFFFFFFFFFFFFFFFFFFFFFFFFFFFFFFF
310
FFFFFFFFFFFFFFFFF000FFFFFFFFFFFFFFFFFFFFFFFFFFFFFFFFFFFFFFFFFFFF
310
FFFFFFFFFFFFFFFFFFFFFFFFFFFFFFFFFFFFFFFFFFFFFFFFFFFFFFFFFFFFFFFF
310
FFFFFFFFFFFFFFFFFFFFFFFFFFFFFFFFFFFFFFFFFFFFFFFFFFFFFFFFFFFFFFFF
310
F000FFFFFFFFFFFFFFFFFFFFFFFFFFFFFFFFFFFFFFFFFFFFFFFFFFFFFFFFFFFF
310
FFFFFFFFFFFFFFFFFFFFFFFFFFFFFFFFFFFFFFFFFFFFFFFFFFFFFFFFFFFFFFFF
310
FFFFFFFFFFFFFFFFFFFFFFFFFFFFFFFFFFFFFFFFFFFFFFFFF000FFFFFFFFFFFF
310
FFFFFFFFFFFFFFFFFFFFFFFFFFFFFFFFFFFFFFFFFFFFFFFFFFFFFFFFFFFFFFFF
310
FFFFFFFFFFFFFFFFFFFFFFFFFFFFFFFFFFFFFFFFFFFFFFFFFFFFFFFFFFFFFFFF
310
FFFFFFFFFFFFFFFFFFFFFFFFFFFFFFFFF0000000000000000000000000000000
310
0000000001000000010000000100000001000000000000000100000001000000
310
0100000001000000010000000100000001000000010000000000000001000000
310
0000000001000000000000000100000001000000010000000000000001000000
310
0100000001000000010000000100000001000000000000000100000001000000
310
0000000001000000010000000100000001000000010000000100000001000000
310
0100000000000000010000000100000001000000010000000100000001000000
310
0100000001000000000000000100000001000000010000000000000001000000
310
0100000001000000000000000100000001000000010000000100000001000000
310
0100000001000000010000000100000001000000010000000100000001000000
310
0100000001000000010000000100000001000000010000000100000001000000
310
0100000001000000010000000100000001000000010000000100000001000000
310
0000000001000000010000000100000001000000010000000100000001000000
310
0100000001000000010000000100000000000000010000000100000001000000
310
0100000001000000010000000100000001000000010000000100000001000000
310
0000000001000000000000000100000001000000000000000100000001000000
  1
OLE
  0
ENDSEC
  0
SECTION
  2
OBJECTS
  0
DICTIONARY
  5
C
330
0
100
AcDbDictionary
281
     1
  3
ACAD_GROUP
350
D
  3
ACAD_LAYOUT
350
1A
  3
ACAD_MLEADERSTYLE
350
216
  3
ACAD_MLINESTYLE
350
17
  3
ACAD_PLOTSETTINGS
350
19
  3
ACAD_PLOTSTYLENAME
350
E
  3
ACAD_TABLESTYLE
350
215
  3
ACAD_VISUALSTYLE
350
2A
  3
AcDbVariableDictionary
350
217
  0
DICTIONARY
  5
D
102
{ACAD_REACTORS
330
C
102
}
330
C
100
AcDbDictionary
281
     1
  0
DICTIONARY
  5
1A
102
{ACAD_REACTORS
330
C
102
}
330
C
100
AcDbDictionary
281
     1
  3
Layout1
350
1E
  3
Layout2
350
26
  3
Model
350
22
  0
DICTIONARY
  5
216
102
{ACAD_REACTORS
330
C
102
}
330
C
100
AcDbDictionary
281
     1
  0
DICTIONARY
  5
17
102
{ACAD_REACTORS
330
C
102
}
330
C
100
AcDbDictionary
281
     1
  3
Standard
350
18
  0
DICTIONARY
  5
19
102
{ACAD_REACTORS
330
C
102
}
330
C
100
AcDbDictionary
281
     1
  0
ACDBDICTIONARYWDFLT
  5
E
102
{ACAD_REACTORS
330
C
102
}
330
C
100
AcDbDictionary
281
     1
  3
Normal
350
F
100
AcDbDictionaryWithDefault
340
F
  0
DICTIONARY
  5
215
102
{ACAD_REACTORS
330
C
102
}
330
C
100
AcDbDictionary
281
     1
  0
DICTIONARY
  5
2A
102
{ACAD_REACTORS
330
C
102
}
330
C
100
AcDbDictionary
281
     1
  3
2dWireframe
350
2F
  3
3D Hidden
350
31
  3
3dWireframe
350
30
  3
Basic
350
32
  3
Brighten
350
36
  3
ColorChange
350
3A
  3
Conceptual
350
34
  3
Dim
350
35
  3
Facepattern
350
39
  3
Flat
350
2B
  3
FlatWithEdges
350
2C
  3
Gouraud
350
2D
  3
GouraudWithEdges
350
2E
  3
Linepattern
350
38
  3
Realistic
350
33
  3
Thicken
350
37
  0
DICTIONARY
  5
217
102
{ACAD_REACTORS
330
C
102
}
330
C
100
AcDbDictionary
281
     1
  3
PSOLHEIGHT
350
219
  3
PSOLWIDTH
350
218
  0
LAYOUT
  5
1E
102
{ACAD_REACTORS
330
1A
102
}
330
1A
100
AcDbPlotSettings
  1

  2
none_device
  4

  6

 40
0.0
 41
0.0
 42
0.0
 43
0.0
 44
0.0
 45
0.0
 46
0.0
 47
0.0
 48
0.0
 49
0.0
140
0.0
141
0.0
142
1.0
143
1.0
 70
   688
 72
     0
 73
     0
 74
     5
  7

 75
    16
147
1.0
148
0.0
149
0.0
100
AcDbLayout
  1
Layout1
 70
     1
 71
     1
 10
0.0
 20
0.0
 11
420.0
 21
297.0
 12
0.0
 22
0.0
 32
0.0
 14
1.0000000000E+20
 24
1.0000000000E+20
 34
1.0000000000E+20
 15
-1.0000000000E+20
 25
-1.0000000000E+20
 35
-1.0000000000E+20
146
0.0
 13
0.0
 23
0.0
 33
0.0
 16
1.0
 26
0.0
 36
0.0
 17
0.0
 27
1.0
 37
0.0
 76
     0
330
1B
  0
LAYOUT
  5
26
102
{ACAD_REACTORS
330
1A
102
}
330
1A
100
AcDbPlotSettings
  1

  2
none_device
  4

  6

 40
0.0
 41
0.0
 42
0.0
 43
0.0
 44
0.0
 45
0.0
 46
0.0
 47
0.0
 48
0.0
 49
0.0
140
0.0
141
0.0
142
1.0
143
1.0
 70
   688
 72
     0
 73
     0
 74
     5
  7

 75
    16
147
1.0
148
0.0
149
0.0
100
AcDbLayout
  1
Layout2
 70
     1
 71
     2
 10
0.0
 20
0.0
 11
0.0
 21
0.0
 12
0.0
 22
0.0
 32
0.0
 14
0.0
 24
0.0
 34
0.0
 15
0.0
 25
0.0
 35
0.0
146
0.0
 13
0.0
 23
0.0
 33
0.0
 16
1.0
 26
0.0
 36
0.0
 17
0.0
 27
1.0
 37
0.0
 76
     0
330
23
  0
LAYOUT
  5
22
102
{ACAD_REACTORS
330
1A
102
}
330
1A
100
AcDbPlotSettings
  1

  2
none_device
  4

  6

 40
0.0
 41
0.0
 42
0.0
 43
0.0
 44
0.0
 45
0.0
 46
0.0
 47
0.0
 48
0.0
 49
0.0
140
0.0
141
0.0
142
1.0
143
1.0
 70
  1712
 72
     0
 73
     0
 74
     0
  7

 75
     0
147
1.0
148
0.0
149
0.0
100
AcDbLayout
  1
Model
 70
     1
 71
     0
 10
0.0
 20
0.0
 11
297.0
 21
210.0
 12
0.0
 22
0.0
 32
0.0
 14
0.0
 24
0.0
 34
0.0
 15
297.0
 25
210.0
 35
0.0
146
0.0
 13
0.0
 23
0.0
 33
0.0
 16
1.0
 26
0.0
 36
0.0
 17
0.0
 27
1.0
 37
0.0
 76
     0
330
1F
331
29
  0
MLINESTYLE
  5
18
102
{ACAD_REACTORS
330
17
102
}
330
17
100
AcDbMlineStyle
  2
Standard
 70
     0
  3

 62
   256
 51
90.0
 52
90.0
 71
     2
 49
0.5
 62
   256
  6
BYLAYER
 49
-0.5
 62
   256
  6
BYLAYER
  0
ACDBPLACEHOLDER
  5
F
102
{ACAD_REACTORS
330
E
102
}
330
E
  0
VISUALSTYLE
  5
2F
102
{ACAD_REACTORS
330
2A
102
}
330
2A
100
AcDbVisualStyle
  2
2dWireframe
 70
     4
 71
     0
 72
     2
 73
     0
 90
        0
 40
-0.6
 41
-30.0
 62
     5
 63
     7
 74
     1
 91
        4
 64
     7
 65
   257
 75
     1
175
     1
 42
1.0
 92
        0
 66
   257
 43
1.0
 76
     1
 77
     6
 78
     2
 67
     7
 79
     5
170
     0
171
     0
290
     0
174
     0
 93
        1
 44
0.0
173
     0
291
     0
 45
0.0
1001
ACAD
1000
AcDbSavedByObjectVersion
1070
     0
  0
VISUALSTYLE
  5
31
102
{ACAD_REACTORS
330
2A
102
}
330
2A
100
AcDbVisualStyle
  2
3D Hidden
 70
     6
 71
     1
 72
     2
 73
     2
 90
        0
 40
-0.6
 41
-30.0
 62
     5
 63
     7
 74
     2
 91
        2
 64
     7
 65
   257
 75
     2
175
     1
 42
40.0
 92
        0
 66
   257
 43
1.0
 76
     1
 77
     6
 78
     2
 67
     7
 79
     3
170
     0
171
     0
290
     0
174
     0
 93
        1
 44
0.0
173
     0
291
     0
 45
0.0
1001
ACAD
1000
AcDbSavedByObjectVersion
1070
     0
  0
VISUALSTYLE
  5
30
102
{ACAD_REACTORS
330
2A
102
}
330
2A
100
AcDbVisualStyle
  2
3dWireframe
 70
     5
 71
     0
 72
     2
 73
     0
 90
        0
 40
-0.6
 41
-30.0
 62
     5
 63
     7
 74
     1
 91
        4
 64
     7
 65
   257
 75
     1
175
     1
 42
1.0
 92
        0
 66
   257
 43
1.0
 76
     1
 77
     6
 78
     2
 67
     7
 79
     5
170
     0
171
     0
290
     0
174
     0
 93
        1
 44
0.0
173
     0
291
     0
 45
0.0
1001
ACAD
1000
AcDbSavedByObjectVersion
1070
     0
  0
VISUALSTYLE
  5
32
102
{ACAD_REACTORS
330
2A
102
}
330
2A
100
AcDbVisualStyle
  2
Basic
 70
     7
 71
     1
 72
     0
 73
     1
 90
        0
 40
-0.6
 41
-30.0
 62
     5
 63
     7
 74
     0
 91
        4
 64
     7
 65
   257
 75
     1
175
     1
 42
1.0
 92
        8
 66
     7
 43
1.0
 76
     1
 77
     6
 78
     2
 67
     7
 79
     5
170
     0
171
     0
290
     0
174
     0
 93
        1
 44
0.0
173
     0
291
     1
 45
0.0
1001
ACAD
1000
AcDbSavedByObjectVersion
1070
     0
  0
VISUALSTYLE
  5
36
102
{ACAD_REACTORS
330
2A
102
}
330
2A
100
AcDbVisualStyle
  2
Brighten
 70
    12
 71
     2
 72
     2
 73
     0
 90
        0
 40
-0.6
 41
-30.0
 62
     5
 63
     7
 74
     1
 91
        4
 64
     7
 65
   257
 75
     1
175
     1
 42
1.0
 92
        8
 66
     7
 43
1.0
 76
     1
 77
     6
 78
     2
 67
     7
 79
     5
170
     0
171
     0
290
     0
174
     0
 93
        1
 44
50.0
173
     0
291
     1
 45
0.0
1001
ACAD
1000
AcDbSavedByObjectVersion
1070
     0
  0
VISUALSTYLE
  5
3A
102
{ACAD_REACTORS
330
2A
102
}
330
2A
100
AcDbVisualStyle
  2
ColorChange
 70
    16
 71
     2
 72
     2
 73
     3
 90
        0
 40
-0.6
 41
-30.0
 62
     5
 63
     8
 74
     1
 91
        4
 64
     7
 65
   257
 75
     1
175
     1
 42
1.0
 92
        8
 66
     8
 43
1.0
 76
     1
 77
     6
 78
     2
 67
     7
 79
     5
170
     0
171
     0
290
     0
174
     0
 93
        1
 44
0.0
173
     0
291
     1
 45
0.0
1001
ACAD
1000
AcDbSavedByObjectVersion
1070
     0
  0
VISUALSTYLE
  5
34
102
{ACAD_REACTORS
330
2A
102
}
330
2A
100
AcDbVisualStyle
  2
Conceptual
 70
     9
 71
     3
 72
     2
 73
     0
 90
        0
 40
-0.6
 41
-30.0
 62
     5
 63
     7
 74
     2
 91
        2
 64
     7
 65
   257
 75
     1
175
     1
 42
40.0
 92
        8
 66
     7
 43
1.0
 76
     1
 77
     6
 78
     2
 67
     7
 79
     3
170
     0
171
     0
290
     0
174
     0
 93
        1
 44
0.0
173
     0
291
     0
 45
0.0
1001
ACAD
1000
AcDbSavedByObjectVersion
1070
     0
  0
VISUALSTYLE
  5
35
102
{ACAD_REACTORS
330
2A
102
}
330
2A
100
AcDbVisualStyle
  2
Dim
 70
    11
 71
     2
 72
     2
 73
     0
 90
        0
 40
-0.6
 41
-30.0
 62
     5
 63
     7
 74
     1
 91
        4
 64
     7
 65
   257
 75
     1
175
     1
 42
1.0
 92
        8
 66
     7
 43
1.0
 76
     1
 77
     6
 78
     2
 67
     7
 79
     5
170
     0
171
     0
290
     0
174
     0
 93
        1
 44
-50.0
173
     0
291
     1
 45
0.0
1001
ACAD
1000
AcDbSavedByObjectVersion
1070
     0
  0
VISUALSTYLE
  5
39
102
{ACAD_REACTORS
330
2A
102
}
330
2A
100
AcDbVisualStyle
  2
Facepattern
 70
    15
 71
     2
 72
     2
 73
     0
 90
        0
 40
-0.6
 41
-30.0
 62
     5
 63
     7
 74
     1
 91
        4
 64
     7
 65
   257
 75
     1
175
     1
 42
1.0
 92
        8
 66
     7
 43
1.0
 76
     1
 77
     6
 78
     2
 67
     7
 79
     5
170
     0
171
     0
290
     0
174
     0
 93
        1
 44
0.0
173
     0
291
     1
 45
0.0
1001
ACAD
1000
AcDbSavedByObjectVersion
1070
     0
  0
VISUALSTYLE
  5
2B
102
{ACAD_REACTORS
330
2A
102
}
330
2A
100
AcDbVisualStyle
  2
Flat
 70
     0
 71
     2
 72
     1
 73
     1
 90
        2
 40
-0.6
 41
30.0
 62
     5
 63
     7
 74
     0
 91
        4
 64
     7
 65
   257
 75
     1
175
     1
 42
1.0
 92
        8
 66
     7
 43
1.0
 76
     1
 77
     6
 78
     2
 67
     7
 79
     5
170
     0
171
     0
290
     0
174
     0
 93
       13
 44
0.0
173
     0
291
     1
 45
0.0
1001
ACAD
1000
AcDbSavedByObjectVersion
1070
     0
  0
VISUALSTYLE
  5
2C
102
{ACAD_REACTORS
330
2A
102
}
330
2A
100
AcDbVisualStyle
  2
FlatWithEdges
 70
     1
 71
     2
 72
     1
 73
     1
 90
        2
 40
-0.6
 41
30.0
 62
     5
 63
     7
 74
     1
 91
        4
 64
     7
 65
   257
 75
     1
175
     1
 42
1.0
 92
        0
 66
   257
 43
1.0
 76
     1
 77
     6
 78
     2
 67
     7
 79
     5
170
     0
171
     0
290
     0
174
     0
 93
       13
 44
0.0
173
     0
291
     1
 45
0.0
1001
ACAD
1000
AcDbSavedByObjectVersion
1070
     0
  0
VISUALSTYLE
  5
2D
102
{ACAD_REACTORS
330
2A
102
}
330
2A
100
AcDbVisualStyle
  2
Gouraud
 70
     2
 71
     2
 72
     2
 73
     1
 90
        2
 40
-0.6
 41
30.0
 62
     5
 63
     7
 74
     0
 91
        4
 64
     7
 65
   257
 75
     1
175
     1
 42
1.0
 92
        0
 66
     7
 43
1.0
 76
     1
 77
     6
 78
     2
 67
     7
 79
     5
170
     0
171
     0
290
     0
174
     0
 93
       13
 44
0.0
173
     0
291
     1
 45
0.0
1001
ACAD
1000
AcDbSavedByObjectVersion
1070
     0
  0
VISUALSTYLE
  5
2E
102
{ACAD_REACTORS
330
2A
102
}
330
2A
100
AcDbVisualStyle
  2
GouraudWithEdges
 70
     3
 71
     2
 72
     2
 73
     1
 90
        2
 40
-0.6
 41
30.0
 62
     5
 63
     7
 74
     1
 91
        4
 64
     7
 65
   257
 75
     1
175
     1
 42
1.0
 92
        0
 66
   257
 43
1.0
 76
     1
 77
     6
 78
     2
 67
     7
 79
     5
170
     0
171
     0
290
     0
174
     0
 93
       13
 44
0.0
173
     0
291
     1
 45
0.0
1001
ACAD
1000
AcDbSavedByObjectVersion
1070
     0
  0
VISUALSTYLE
  5
38
102
{ACAD_REACTORS
330
2A
102
}
330
2A
100
AcDbVisualStyle
  2
Linepattern
 70
    14
 71
     2
 72
     2
 73
     0
 90
        0
 40
-0.6
 41
-30.0
 62
     5
 63
     7
 74
     1
 91
        4
 64
     7
 65
   257
 75
     7
175
     7
 42
1.0
 92
        8
 66
     7
 43
1.0
 76
     1
 77
     6
 78
     2
 67
     7
 79
     5
170
     0
171
     0
290
     0
174
     0
 93
        1
 44
0.0
173
     0
291
     1
 45
0.0
1001
ACAD
1000
AcDbSavedByObjectVersion
1070
     0
  0
VISUALSTYLE
  5
33
102
{ACAD_REACTORS
330
2A
102
}
330
2A
100
AcDbVisualStyle
  2
Realistic
 70
     8
 71
     2
 72
     2
 73
     0
 90
        0
 40
-0.6
 41
-30.0
 62
     5
 63
     7
 74
     1
 91
        0
 64
     7
 65
   257
 75
     1
175
     1
 42
1.0
 92
        8
 66
     8
 43
1.0
 76
     1
 77
     6
 78
     2
 67
     7
 79
     5
170
     0
171
     0
290
     0
174
     0
 93
       13
 44
0.0
173
     0
291
     0
 45
0.0
1001
ACAD
1000
AcDbSavedByObjectVersion
1070
     0
  0
VISUALSTYLE
  5
37
102
{ACAD_REACTORS
330
2A
102
}
330
2A
100
AcDbVisualStyle
  2
Thicken
 70
    13
 71
     2
 72
     2
 73
     0
 90
        0
 40
-0.6
 41
-30.0
 62
     5
 63
     7
 74
     1
 91
        4
 64
     7
 65
   257
 75
     1
175
     1
 42
1.0
 92
       12
 66
     7
 43
1.0
 76
     1
 77
     6
 78
     2
 67
     7
 79
     5
170
     0
171
     0
290
     0
174
     0
 93
        1
 44
0.0
173
     0
291
     1
 45
0.0
1001
ACAD
1000
AcDbSavedByObjectVersion
1070
     0
  0
DICTIONARYVAR
  5
219
102
{ACAD_REACTORS
330
217
102
}
330
217
100
DictionaryVariables
280
     0
  1
80.000000
  0
DICTIONARYVAR
  5
218
102
{ACAD_REACTORS
330
217
102
}
330
217
100
DictionaryVariables
280
     0
  1
5.000000
  0
ENDSEC
  0
EOF
