  0
SECTION
  2
HEADER
  9
$ACADVER
  1
AC1015
  9
$ACADMAINTVER
 70
     6
  9
$DWGCODEPAGE
  3
ANSI_1252
  9
$INSBASE
 10
0.0
 20
0.0
 30
0.0
  9
$EXTMIN
 10
0.0
 20
0.0
 30
0.0
  9
$EXTMAX
 10
297.0
 20
210.0
 30
0.0
  9
$LIMMIN
 10
0.0
 20
0.0
  9
$LIMMAX
 10
297.0
 20
210.0
  9
$ORTHOMODE
 70
     0
  9
$REGENMODE
 70
     1
  9
$FILLMODE
 70
     1
  9
$QTEXTMODE
 70
     0
  9
$MIRRTEXT
 70
     1
  9
$LTSCALE
 40
1.0
  9
$ATTMODE
 70
     1
  9
$TEXTSIZE
 40
2.0
  9
$TRACEWID
 40
1.0
  9
$TEXTSTYLE
  7
Standard
  9
$CLAYER
  8
0
  9
$CELTYPE
  6
ByLayer
  9
$CECOLOR
 62
   256
  9
$CELTSCALE
 40
1.0
  9
$DISPSILH
 70
     0
  9
$DIMSCALE
 40
1.0
  9
$DIMASZ
 40
3.0
  9
$DIMEXO
 40
0.0
  9
$DIMDLI
 40
3.75
  9
$DIMRND
 40
0.0
  9
$DIMDLE
 40
0.0
  9
$DIMEXE
 40
1.0
  9
$DIMTP
 40
0.0
  9
$DIMTM
 40
0.0
  9
$DIMTXT
 40
2.0
  9
$DIMCEN
 40
2.5
  9
$DIMTSZ
 40
0.0
  9
$DIMTOL
 70
     0
  9
$DIMLIM
 70
     0
  9
$DIMTIH
 70
     1
  9
$DIMTOH
 70
     1
  9
$DIMSE1
 70
     0
  9
$DIMSE2
 70
     0
  9
$DIMTAD
 70
     1
  9
$DIMZIN
 70
     0
  9
$DIMBLK
  1

  9
$DIMASO
 70
     1
  9
$DIMSHO
 70
     1
  9
$DIMPOST
  1

  9
$DIMAPOST
  1

  9
$DIMALT
 70
     0
  9
$DIMALTD
 70
     3
  9
$DIMALTF
 40
0.0393700787
  9
$DIMLFAC
 40
1.0
  9
$DIMTOFL
 70
     1
  9
$DIMTVP
 40
0.0
  9
$DIMTIX
 70
     0
  9
$DIMSOXD
 70
     0
  9
$DIMSAH
 70
     0
  9
$DIMBLK1
  1

  9
$DIMBLK2
  1

  9
$DIMSTYLE
  2
ISO-25
  9
$DIMCLRD
 70
     0
  9
$DIMCLRE
 70
     0
  9
$DIMCLRT
 70
     0
  9
$DIMTFAC
 40
1.0
  9
$DIMGAP
 40
1.524
  9
$DIMJUST
 70
     0
  9
$DIMSD1
 70
     0
  9
$DIMSD2
 70
     0
  9
$DIMTOLJ
 70
     0
  9
$DIMTZIN
 70
     0
  9
$DIMALTZ
 70
     0
  9
$DIMALTTZ
 70
     0
  9
$DIMUPT
 70
     0
  9
$DIMDEC
 70
     2
  9
$DIMTDEC
 70
     3
  9
$DIMALTU
 70
     2
  9
$DIMALTTD
 70
     3
  9
$DIMTXSTY
  7
Standard
  9
$DIMAUNIT
 70
     0
  9
$DIMADEC
 70
     2
  9
$DIMALTRND
 40
0.0
  9
$DIMAZIN
 70
     0
  9
$DIMDSEP
 70
    44
  9
$DIMATFIT
 70
     3
  9
$DIMFRAC
 70
     0
  9
$DIMLDRBLK
  1

  9
$DIMLUNIT
 70
     2
  9
$DIMLWD
 70
    -2
  9
$DIMLWE
 70
    -2
  9
$DIMTMOVE
 70
     0
  9
$LUNITS
 70
     2
  9
$LUPREC
 70
     2
  9
$SKETCHINC
 40
1.0
  9
$FILLETRAD
 40
10.0
  9
$AUNITS
 70
     0
  9
$AUPREC
 70
     2
  9
$MENU
  1
.
  9
$ELEVATION
 40
0.0
  9
$PELEVATION
 40
0.0
  9
$THICKNESS
 40
0.0
  9
$LIMCHECK
 70
     0
  9
$CHAMFERA
 40
10.0
  9
$CHAMFERB
 40
10.0
  9
$CHAMFERC
 40
20.0
  9
$CHAMFERD
 40
0.0
  9
$SKPOLY
 70
     0
  9
$TDCREATE
 40
2456231.469895671
  9
$TDUCREATE
 40
2456231.428229005
  9
$TDUPDATE
 40
2456231.469896759
  9
$TDUUPDATE
 40
2456231.428230092
  9
$TDINDWG
 40
0.0000000116
  9
$TDUSRTIMER
 40
0.0000000116
  9
$USRTIMER
 70
     1
  9
$ANGBASE
 50
0.0
  9
$ANGDIR
 70
     0
  9
$PDMODE
 70
     0
  9
$PDSIZE
 40
-1.0
  9
$PLINEWID
 40
0.0
  9
$SPLFRAME
 70
     0
  9
$SPLINETYPE
 70
     6
  9
$SPLINESEGS
 70
     8
  9
$HANDSEED
  5
188
  9
$SURFTAB1
 70
     6
  9
$SURFTAB2
 70
     6
  9
$SURFTYPE
 70
     6
  9
$SURFU
 70
     6
  9
$SURFV
 70
     6
  9
$UCSBASE
  2

  9
$UCSNAME
  2

  9
$UCSORG
 10
0.0
 20
0.0
 30
0.0
  9
$UCSXDIR
 10
1.0
 20
0.0
 30
0.0
  9
$UCSYDIR
 10
0.0
 20
1.0
 30
0.0
  9
$UCSORTHOREF
  2

  9
$UCSORTHOVIEW
 70
     0
  9
$UCSORGTOP
 10
0.0
 20
0.0
 30
0.0
  9
$UCSORGBOTTOM
 10
0.0
 20
0.0
 30
0.0
  9
$UCSORGLEFT
 10
0.0
 20
0.0
 30
0.0
  9
$UCSORGRIGHT
 10
0.0
 20
0.0
 30
0.0
  9
$UCSORGFRONT
 10
0.0
 20
0.0
 30
0.0
  9
$UCSORGBACK
 10
0.0
 20
0.0
 30
0.0
  9
$PUCSBASE
  2

  9
$PUCSNAME
  2

  9
$PUCSORG
 10
0.0
 20
0.0
 30
0.0
  9
$PUCSXDIR
 10
1.0
 20
0.0
 30
0.0
  9
$PUCSYDIR
 10
0.0
 20
1.0
 30
0.0
  9
$PUCSORTHOREF
  2

  9
$PUCSORTHOVIEW
 70
     0
  9
$PUCSORGTOP
 10
0.0
 20
0.0
 30
0.0
  9
$PUCSORGBOTTOM
 10
0.0
 20
0.0
 30
0.0
  9
$PUCSORGLEFT
 10
0.0
 20
0.0
 30
0.0
  9
$PUCSORGRIGHT
 10
0.0
 20
0.0
 30
0.0
  9
$PUCSORGFRONT
 10
0.0
 20
0.0
 30
0.0
  9
$PUCSORGBACK
 10
0.0
 20
0.0
 30
0.0
  9
$USERI1
 70
     0
  9
$USERI2
 70
     0
  9
$USERI3
 70
     0
  9
$USERI4
 70
     0
  9
$USERI5
 70
     0
  9
$USERR1
 40
0.0
  9
$USERR2
 40
0.0
  9
$USERR3
 40
0.0
  9
$USERR4
 40
0.0
  9
$USERR5
 40
0.0
  9
$WORLDVIEW
 70
     1
  9
$SHADEDGE
 70
     3
  9
$SHADEDIF
 70
    70
  9
$TILEMODE
 70
     1
  9
$MAXACTVP
 70
    64
  9
$PINSBASE
 10
0.0
 20
0.0
 30
0.0
  9
$PLIMCHECK
 70
     0
  9
$PEXTMIN
 10
1.0000000000E+20
 20
1.0000000000E+20
 30
1.0000000000E+20
  9
$PEXTMAX
 10
-1.0000000000E+20
 20
-1.0000000000E+20
 30
-1.0000000000E+20
  9
$PLIMMIN
 10
0.0
 20
0.0
  9
$PLIMMAX
 10
420.0
 20
297.0
  9
$UNITMODE
 70
     0
  9
$VISRETAIN
 70
     1
  9
$PLINEGEN
 70
     0
  9
$PSLTSCALE
 70
     1
  9
$TREEDEPTH
 70
  3020
  9
$CMLSTYLE
  2
Standard
  9
$CMLJUST
 70
     0
  9
$CMLSCALE
 40
20.0
  9
$PROXYGRAPHICS
 70
     1
  9
$MEASUREMENT
 70
     1
  9
$CELWEIGHT
370
    -1
  9
$ENDCAPS
280
     0
  9
$JOINSTYLE
280
     0
  9
$LWDISPLAY
290
     1
  9
$INSUNITS
 70
     4
  9
$HYPERLINKBASE
  1

  9
$STYLESHEET
  1

  9
$XEDIT
290
     1
  9
$CEPSNTYPE
380
     0
  9
$PSTYLEMODE
290
     1
  9
$FINGERPRINTGUID
  2
{DFEE6B4A-5C24-4E67-9FA6-2E367A0E1A47}
  9
$VERSIONGUID
  2
{FAEB1C32-E019-11D5-929B-00C0DF256EC4}
  9
$EXTNAMES
290
     1
  9
$PSVPSCALE
 40
0.0
  9
$OLESTARTUP
290
     0
  0
ENDSEC
  0
SECTION
  2
CLASSES
  0
CLASS
  1
ACDBDICTIONARYWDFLT
  2
AcDbDictionaryWithDefault
  3
ObjectDBX Classes
 90
        0
280
     0
281
     0
  0
CLASS
  1
VISUALSTYLE
  2
AcDbVisualStyle
  3
ObjectDBX Classes
 90
     4095
280
     0
281
     0
  0
CLASS
  1
MATERIAL
  2
AcDbMaterial
  3
ObjectDBX Classes
 90
     1153
280
     0
281
     0
  0
CLASS
  1
ACDBPLACEHOLDER
  2
AcDbPlaceHolder
  3
ObjectDBX Classes
 90
        0
280
     0
281
     0
  0
CLASS
  1
LAYOUT
  2
AcDbLayout
  3
ObjectDBX Classes
 90
        0
280
     0
281
     0
  0
ENDSEC
  0
SECTION
  2
TABLES
  0
TABLE
  2
VPORT
  5
8
330
0
100
AcDbSymbolTable
 70
     1
  0
VPORT
  5
29
330
8
100
AcDbSymbolTableRecord
100
AcDbViewportTableRecord
  2
*Active
 70
     0
 10
0.0
 20
0.0
 11
1.0
 21
1.0
 12
148.5
 22
105.0
 13
0.0
 23
0.0
 14
10.0
 24
10.0
 15
10.0
 25
10.0
 16
0.0
 26
0.0
 36
1.0
 17
0.0
 27
0.0
 37
0.0
 40
210.0
 41
1.4142857143
 42
50.0
 43
0.0
 44
0.0
 50
0.0
 51
0.0
 71
     0
 72
  2000
 73
     1
 74
     3
 75
     0
 76
     0
 77
     0
 78
     0
281
     0
 65
     1
110
0.0
120
0.0
130
0.0
111
1.0
121
0.0
131
0.0
112
0.0
122
1.0
132
0.0
 79
     0
146
0.0
  0
ENDTAB
  0
TABLE
  2
LTYPE
  5
5
330
0
100
AcDbSymbolTable
 70
     6
  0
LTYPE
  5
14
330
5
100
AcDbSymbolTableRecord
100
AcDbLinetypeTableRecord
  2
ByBlock
 70
     0
  3

 72
    65
 73
     0
 40
0.0
  0
LTYPE
  5
15
330
5
100
AcDbSymbolTableRecord
100
AcDbLinetypeTableRecord
  2
ByLayer
 70
     0
  3

 72
    65
 73
     0
 40
0.0
  0
LTYPE
  5
16
330
5
100
AcDbSymbolTableRecord
100
AcDbLinetypeTableRecord
  2
Continuous
 70
     0
  3
Solid line
 72
    65
 73
     0
 40
0.0
  0
LTYPE
  5
3F
330
5
100
AcDbSymbolTableRecord
100
AcDbLinetypeTableRecord
  2
HIDDEN
 70
     0
  3
Hidden __ __ __ __ __ __ __ __ __ __ __ __ __ __
 72
    65
 73
     2
 40
1.905
 49
1.27
 74
     0
 49
-0.635
 74
     0
  0
LTYPE
  5
40
330
5
100
AcDbSymbolTableRecord
100
AcDbLinetypeTableRecord
  2
PHANTOM
 70
     0
  3
Phantom ______  __  __  ______  __  __  ______
 72
    65
 73
     6
 40
12.7
 49
6.35
 74
     0
 49
-1.27
 74
     0
 49
1.27
 74
     0
 49
-1.27
 74
     0
 49
1.27
 74
     0
 49
-1.27
 74
     0
  0
LTYPE
  5
41
330
5
100
AcDbSymbolTableRecord
100
AcDbLinetypeTableRecord
  2
CENTER
 70
     0
  3
Center ____ _ ____ _ ____ _ ____ _ ____ _ ____
 72
    65
 73
     4
 40
10.16
 49
6.35
 74
     0
 49
-1.27
 74
     0
 49
1.27
 74
     0
 49
-1.27
 74
     0
  0
LTYPE
  5
42
330
5
100
AcDbSymbolTableRecord
100
AcDbLinetypeTableRecord
  2
CENTERX2
 70
     0
  3
Center (2x) ________  __  ________  __  _____
 72
    65
 73
     4
 40
20.32
 49
12.7
 74
     0
 49
-2.54
 74
     0
 49
2.54
 74
     0
 49
-2.54
 74
     0
  0
LTYPE
  5
43
330
5
100
AcDbSymbolTableRecord
100
AcDbLinetypeTableRecord
  2
DOT2
 70
     0
  3
Dot (.5x) ........................................
 72
    65
 73
     2
 40
0.635
 49
0.0
 74
     0
 49
-0.635
 74
     0
  0
ENDTAB
  0
TABLE
  2
LAYER
  5
2
330
0
100
AcDbSymbolTable
 70
     5
  0
LAYER
  5
10
330
2
100
AcDbSymbolTableRecord
100
AcDbLayerTableRecord
  2
0
 70
     0
 62
     7
  6
Continuous
370
    -3
390
F
  0
LAYER
  5
44
330
2
100
AcDbSymbolTableRecord
100
AcDbLayerTableRecord
  2
FORMAT
 70
     0
 62
     7
  6
Continuous
370
    -3
390
F
  0
LAYER
  5
45
330
2
100
AcDbSymbolTableRecord
100
AcDbLayerTableRecord
  2
VERMASSUNG
 70
     0
 62
     7
  6
Continuous
370
    -3
390
F
  0
LAYER
  5
46
330
2
100
AcDbSymbolTableRecord
100
AcDbLayerTableRecord
  2
KOPF_DÜNN
 70
     0
 62
     7
  6
Continuous
370
    -3
390
F
  0
LAYER
  5
47
330
2
100
AcDbSymbolTableRecord
100
AcDbLayerTableRecord
  2
KOPF_DICK
 70
     0
 62
     7
  6
Continuous
370
    15
390
F
  0
ENDTAB
  0
TABLE
  2
STYLE
  5
3
330
0
100
AcDbSymbolTable
 70
     3
  0
STYLE
  5
11
330
3
100
AcDbSymbolTableRecord
100
AcDbTextStyleTableRecord
  2
Standard
 70
     0
 40
0.0
 41
1.0
 50
0.0
 71
     0
 42
2.0
  3
txt
  4

  0
STYLE
  5
48
330
3
100
AcDbSymbolTableRecord
100
AcDbTextStyleTableRecord
  2
SLDTEXTSTYLE0
 70
     0
 40
0.0
 41
0.7
 50
0.0
 71
     0
 42
0.2
  3
TXT
  4

  0
STYLE
  5
4C
330
3
100
AcDbSymbolTableRecord
100
AcDbTextStyleTableRecord
  2
SLDTEXTSTYLE1
 70
     0
 40
0.0
 41
0.6473684211
 50
0.0
 71
     0
 42
0.2
  3
TXT
  4

  0
ENDTAB
  0
TABLE
  2
VIEW
  5
6
330
0
100
AcDbSymbolTable
 70
     0
  0
ENDTAB
  0
TABLE
  2
UCS
  5
7
330
0
100
AcDbSymbolTable
 70
     0
  0
ENDTAB
  0
TABLE
  2
APPID
  5
9
330
0
100
AcDbSymbolTable
 70
     1
  0
APPID
  5
12
330
9
100
AcDbSymbolTableRecord
100
AcDbRegAppTableRecord
  2
ACAD
 70
     0
  0
ENDTAB
  0
TABLE
  2
DIMSTYLE
  5
A
330
0
100
AcDbSymbolTable
 70
     2
100
AcDbDimStyleTable
  0
DIMSTYLE
105
27
330
A
100
AcDbSymbolTableRecord
100
AcDbDimStyleTableRecord
  2
ISO-25
 70
     0
 41
2.5
 42
0.625
 43
3.75
 44
1.25
 73
     0
 74
     0
 77
     1
 78
     8
140
2.5
141
2.5
143
0.0393700787
147
0.625
171
     3
172
     1
178
     0
271
     2
272
     2
274
     3
278
    44
283
     0
284
     8
340
11
  0
DIMSTYLE
105
146
102
{ACAD_REACTORS
330
145
330
151
330
15C
330
166
330
170
330
17A
102
}
330
A
100
AcDbSymbolTableRecord
100
AcDbDimStyleTableRecord
  2
SLDDIMSTYLE0
 70
     0
 41
3.0
 44
0.0
 45
0.000000001
 73
     0
 74
     0
 77
     1
 78
    12
 79
     3
140
2.0
147
0.5
173
     1
178
     0
271
     2
272
     3
276
     2
284
    12
340
48
  0
ENDTAB
  0
TABLE
  2
BLOCK_RECORD
  5
1
330
0
100
AcDbSymbolTable
 70
     7
  0
BLOCK_RECORD
  5
1F
330
1
100
AcDbSymbolTableRecord
100
AcDbBlockTableRecord
  2
*Model_Space
340
22
  0
BLOCK_RECORD
  5
1B
330
1
100
AcDbSymbolTableRecord
100
AcDbBlockTableRecord
  2
*Paper_Space
340
1E
  0
BLOCK_RECORD
  5
23
330
1
100
AcDbSymbolTableRecord
100
AcDbBlockTableRecord
  2
*Paper_Space0
340
26
  0
BLOCK_RECORD
  5
147
330
1
100
AcDbSymbolTableRecord
100
AcDbBlockTableRecord
  2
_D
340
0
  0
BLOCK_RECORD
  5
152
330
1
100
AcDbSymbolTableRecord
100
AcDbBlockTableRecord
  2
_D_1
340
0
  0
BLOCK_RECORD
  5
15D
330
1
100
AcDbSymbolTableRecord
100
AcDbBlockTableRecord
  2
_D_2
340
0
  0
BLOCK_RECORD
  5
167
330
1
100
AcDbSymbolTableRecord
100
AcDbBlockTableRecord
  2
_D_3
340
0
  0
BLOCK_RECORD
  5
171
330
1
100
AcDbSymbolTableRecord
100
AcDbBlockTableRecord
  2
_D_4
340
0
  0
BLOCK_RECORD
  5
17B
330
1
100
AcDbSymbolTableRecord
100
AcDbBlockTableRecord
  2
_D_5
340
0
  0
ENDTAB
  0
ENDSEC
  0
SECTION
  2
BLOCKS
  0
BLOCK
  5
20
330
1F
100
AcDbEntity
  8
0
100
AcDbBlockBegin
  2
*Model_Space
 70
     0
 10
0.0
 20
0.0
 30
0.0
  3
*Model_Space
  1

  0
ENDBLK
  5
21
330
1F
100
AcDbEntity
  8
0
100
AcDbBlockEnd
  0
BLOCK
  5
1C
330
1B
100
AcDbEntity
 67
     1
  8
0
100
AcDbBlockBegin
  2
*Paper_Space
 70
     0
 10
0.0
 20
0.0
 30
0.0
  3
*Paper_Space
  1

  0
ENDBLK
  5
1D
330
1B
100
AcDbEntity
 67
     1
  8
0
100
AcDbBlockEnd
  0
BLOCK
  5
24
330
23
100
AcDbEntity
  8
0
100
AcDbBlockBegin
  2
*Paper_Space0
 70
     0
 10
0.0
 20
0.0
 30
0.0
  3
*Paper_Space0
  1

  0
ENDBLK
  5
25
330
23
100
AcDbEntity
  8
0
100
AcDbBlockEnd
  0
BLOCK
  5
148
330
147
100
AcDbEntity
  8
0
100
AcDbBlockBegin
  2
_D
 70
     0
 10
0.0
 20
0.0
 30
0.0
  3
_D
  1

  0
SOLID
  5
14A
330
147
100
AcDbEntity
  8
VERMASSUNG
100
AcDbTrace
 10
239.2391115926
 20
123.398808234
 30
0.0
 11
238.7891115926
 21
120.398808234
 31
0.0
 12
239.6891115926
 22
120.398808234
 32
0.0
 13
239.6891115926
 23
120.398808234
 33
0.0
  0
SOLID
  5
14B
330
147
100
AcDbEntity
  8
VERMASSUNG
100
AcDbTrace
 10
239.2391115926
 20
105.398808234
 30
0.0
 11
239.6891115926
 21
108.398808234
 31
0.0
 12
238.7891115926
 22
108.398808234
 32
0.0
 13
238.7891115926
 23
108.398808234
 33
0.0
  0
LINE
  5
14C
330
147
100
AcDbEntity
  8
VERMASSUNG
100
AcDbLine
 10
231.3112759732
 20
123.398808234
 30
0.0
 11
240.2391115926
 21
123.398808234
 31
0.0
  0
LINE
  5
14D
330
147
100
AcDbEntity
  8
VERMASSUNG
100
AcDbLine
 10
231.3112759732
 20
105.398808234
 30
0.0
 11
240.2391115926
 21
105.398808234
 31
0.0
  0
LINE
  5
14E
330
147
100
AcDbEntity
  8
VERMASSUNG
100
AcDbLine
 10
239.2391115926
 20
123.398808234
 30
0.0
 11
239.2391115926
 21
105.398808234
 31
0.0
  0
MTEXT
  5
14F
330
147
100
AcDbEntity
  8
VERMASSUNG
100
AcDbMText
 10
236.6609761131
 20
111.394889191
 30
0.0
 40
2.0
 41
0.0
 71
     1
 72
     1
  1
%%c
  7
SLDTEXTSTYLE0
 11
-7.044195017643634E-15
 21
1.0
 31
0.0
 73
     1
 44
1.0
  0
MTEXT
  5
150
330
147
100
AcDbEntity
  8
VERMASSUNG
100
AcDbMText
 10
236.6609762295
 20
115.004548096
 30
0.0
 40
2.0
 41
0.0
 71
     1
 72
     1
  1
18
  7
SLDTEXTSTYLE0
 11
-7.044195017643634E-15
 21
1.0
 31
0.0
 73
     1
 44
1.0
  0
ENDBLK
  5
149
330
147
100
AcDbEntity
  8
0
100
AcDbBlockEnd
  0
BLOCK
  5
153
330
152
100
AcDbEntity
  8
0
100
AcDbBlockBegin
  2
_D_1
 70
     0
 10
0.0
 20
0.0
 30
0.0
  3
_D_1
  1

  0
SOLID
  5
155
330
152
100
AcDbEntity
  8
VERMASSUNG
100
AcDbTrace
 10
245.2391115926
 20
138.398808234
 30
0.0
 11
244.7891115926
 21
135.398808234
 31
0.0
 12
245.6891115926
 22
135.398808234
 32
0.0
 13
245.6891115926
 23
135.398808234
 33
0.0
  0
SOLID
  5
156
330
152
100
AcDbEntity
  8
VERMASSUNG
100
AcDbTrace
 10
245.2391115926
 20
90.398808234
 30
0.0
 11
245.6891115926
 21
93.398808234
 31
0.0
 12
244.7891115926
 22
93.398808234
 32
0.0
 13
244.7891115926
 23
93.398808234
 33
0.0
  0
LINE
  5
157
330
152
100
AcDbEntity
  8
VERMASSUNG
100
AcDbLine
 10
220.8887413706
 20
138.398808234
 30
0.0
 11
246.2391115926
 21
138.398808234
 31
0.0
  0
LINE
  5
158
330
152
100
AcDbEntity
  8
VERMASSUNG
100
AcDbLine
 10
220.8887413706
 20
90.398808234
 30
0.0
 11
246.2391115926
 21
90.398808234
 31
0.0
  0
LINE
  5
159
330
152
100
AcDbEntity
  8
VERMASSUNG
100
AcDbLine
 10
245.2391115926
 20
138.398808234
 30
0.0
 11
245.2391115926
 21
90.398808234
 31
0.0
  0
MTEXT
  5
15A
330
152
100
AcDbEntity
  8
VERMASSUNG
100
AcDbMText
 10
242.6609761131
 20
111.094772623
 30
0.0
 40
2.0
 41
0.0
 71
     1
 72
     1
  1
%%c
  7
SLDTEXTSTYLE0
 11
-7.044195017643634E-15
 21
1.0
 31
0.0
 73
     1
 44
1.0
  0
MTEXT
  5
15B
330
152
100
AcDbEntity
  8
VERMASSUNG
100
AcDbMText
 10
242.6609762295
 20
114.704431528
 30
0.0
 40
2.0
 41
0.0
 71
     1
 72
     1
  1
48
  7
SLDTEXTSTYLE0
 11
-7.044195017643634E-15
 21
1.0
 31
0.0
 73
     1
 44
1.0
  0
ENDBLK
  5
154
330
152
100
AcDbEntity
  8
0
100
AcDbBlockEnd
  0
BLOCK
  5
15E
330
15D
100
AcDbEntity
  8
0
100
AcDbBlockBegin
  2
_D_2
 70
     0
 10
0.0
 20
0.0
 30
0.0
  3
_D_2
  1

  0
SOLID
  5
160
330
15D
100
AcDbEntity
  8
VERMASSUNG
100
AcDbTrace
 10
231.6112759732
 20
147.8167930661
 30
0.0
 11
228.6112759732
 21
148.2667930661
 31
0.0
 12
228.6112759732
 22
147.3667930661
 32
0.0
 13
228.6112759732
 23
147.3667930661
 33
0.0
  0
SOLID
  5
161
330
15D
100
AcDbEntity
  8
VERMASSUNG
100
AcDbTrace
 10
127.5612759732
 20
147.8167930661
 30
0.0
 11
130.5612759732
 21
147.3667930661
 31
0.0
 12
130.5612759732
 22
148.2667930661
 32
0.0
 13
130.5612759732
 23
148.2667930661
 33
0.0
  0
LINE
  5
162
330
15D
100
AcDbEntity
  8
VERMASSUNG
100
AcDbLine
 10
231.6112759732
 20
132.1246677124
 30
0.0
 11
231.6112759732
 21
148.8167930661
 31
0.0
  0
LINE
  5
163
330
15D
100
AcDbEntity
  8
VERMASSUNG
100
AcDbLine
 10
127.5612759732
 20
144.2452485578
 30
0.0
 11
127.5612759732
 21
148.8167930661
 31
0.0
  0
LINE
  5
164
330
15D
100
AcDbEntity
  8
VERMASSUNG
100
AcDbLine
 10
231.6112759732
 20
147.8167930661
 30
0.0
 11
127.5612759732
 21
147.8167930661
 31
0.0
  0
MTEXT
  5
165
330
15D
100
AcDbEntity
  8
VERMASSUNG
100
AcDbMText
 10
175.8871327704
 20
150.3949284292
 30
0.0
 40
2.0
 41
0.0
 71
     1
 72
     1
  1
104.05
  7
SLDTEXTSTYLE0
 73
     1
 44
1.0
  0
ENDBLK
  5
15F
330
15D
100
AcDbEntity
  8
0
100
AcDbBlockEnd
  0
BLOCK
  5
168
330
167
100
AcDbEntity
  8
0
100
AcDbBlockBegin
  2
_D_3
 70
     0
 10
0.0
 20
0.0
 30
0.0
  3
_D_3
  1

  0
SOLID
  5
16A
330
167
100
AcDbEntity
  8
VERMASSUNG
100
AcDbTrace
 10
231.6112759732
 20
153.8167930661
 30
0.0
 11
228.6112759732
 21
154.2667930661
 31
0.0
 12
228.6112759732
 22
153.3667930661
 32
0.0
 13
228.6112759732
 23
153.3667930661
 33
0.0
  0
SOLID
  5
16B
330
167
100
AcDbEntity
  8
VERMASSUNG
100
AcDbTrace
 10
101.6112759732
 20
153.8167930661
 30
0.0
 11
104.6112759732
 21
153.3667930661
 31
0.0
 12
104.6112759732
 22
154.2667930661
 32
0.0
 13
104.6112759732
 23
154.2667930661
 33
0.0
  0
LINE
  5
16C
330
167
100
AcDbEntity
  8
VERMASSUNG
100
AcDbLine
 10
231.6112759732
 20
132.1246677124
 30
0.0
 11
231.6112759732
 21
154.8167930661
 31
0.0
  0
LINE
  5
16D
330
167
100
AcDbEntity
  8
VERMASSUNG
100
AcDbLine
 10
101.6112759732
 20
145.598808234
 30
0.0
 11
101.6112759732
 21
154.8167930661
 31
0.0
  0
LINE
  5
16E
330
167
100
AcDbEntity
  8
VERMASSUNG
100
AcDbLine
 10
231.6112759732
 20
153.8167930661
 30
0.0
 11
101.6112759732
 21
153.8167930661
 31
0.0
  0
MTEXT
  5
16F
330
167
100
AcDbEntity
  8
VERMASSUNG
100
AcDbMText
 10
164.7114554969
 20
156.3949284292
 30
0.0
 40
2.0
 41
0.0
 71
     1
 72
     1
  1
130
  7
SLDTEXTSTYLE0
 73
     1
 44
1.0
  0
ENDBLK
  5
169
330
167
100
AcDbEntity
  8
0
100
AcDbBlockEnd
  0
BLOCK
  5
172
330
171
100
AcDbEntity
  8
0
100
AcDbBlockBegin
  2
_D_4
 70
     0
 10
0.0
 20
0.0
 30
0.0
  3
_D_4
  1

  0
SOLID
  5
174
330
171
100
AcDbEntity
  8
VERMASSUNG
100
AcDbTrace
 10
231.6112759732
 20
159.8167930661
 30
0.0
 11
228.6112759732
 21
160.2667930661
 31
0.0
 12
228.6112759732
 22
159.3667930661
 32
0.0
 13
228.6112759732
 23
159.3667930661
 33
0.0
  0
SOLID
  5
175
330
171
100
AcDbEntity
  8
VERMASSUNG
100
AcDbTrace
 10
69.7112759732
 20
159.8167930661
 30
0.0
 11
72.7112759732
 21
159.3667930661
 31
0.0
 12
72.7112759732
 22
160.2667930661
 32
0.0
 13
72.7112759732
 23
160.2667930661
 33
0.0
  0
LINE
  5
176
330
171
100
AcDbEntity
  8
VERMASSUNG
100
AcDbLine
 10
231.6112759732
 20
132.1246677124
 30
0.0
 11
231.6112759732
 21
160.8167930661
 31
0.0
  0
LINE
  5
177
330
171
100
AcDbEntity
  8
VERMASSUNG
100
AcDbLine
 10
69.7112759732
 20
134.0894859805
 30
0.0
 11
69.7112759732
 21
160.8167930661
 31
0.0
  0
LINE
  5
178
330
171
100
AcDbEntity
  8
VERMASSUNG
100
AcDbLine
 10
231.6112759732
 20
159.8167930661
 30
0.0
 11
69.7112759732
 21
159.8167930661
 31
0.0
  0
MTEXT
  5
179
330
171
100
AcDbEntity
  8
VERMASSUNG
100
AcDbMText
 10
147.9616035427
 20
162.3949284292
 30
0.0
 40
2.0
 41
0.0
 71
     1
 72
     1
  1
161.9
  7
SLDTEXTSTYLE0
 73
     1
 44
1.0
  0
ENDBLK
  5
173
330
171
100
AcDbEntity
  8
0
100
AcDbBlockEnd
  0
BLOCK
  5
17C
330
17B
100
AcDbEntity
  8
0
100
AcDbBlockBegin
  2
_D_5
 70
     0
 10
0.0
 20
0.0
 30
0.0
  3
_D_5
  1

  0
SOLID
  5
17E
330
17B
100
AcDbEntity
  8
VERMASSUNG
100
AcDbTrace
 10
63.0984832069
 20
145.898808234
 30
0.0
 11
62.6484832069
 21
142.898808234
 31
0.0
 12
63.5484832069
 22
142.898808234
 32
0.0
 13
63.5484832069
 23
142.898808234
 33
0.0
  0
SOLID
  5
17F
330
17B
100
AcDbEntity
  8
VERMASSUNG
100
AcDbTrace
 10
63.0984832069
 20
82.898808234
 30
0.0
 11
63.5484832069
 21
85.898808234
 31
0.0
 12
62.6484832069
 22
85.898808234
 32
0.0
 13
62.6484832069
 23
85.898808234
 33
0.0
  0
LINE
  5
180
330
17B
100
AcDbEntity
  8
VERMASSUNG
100
AcDbLine
 10
101.9112759732
 20
145.898808234
 30
0.0
 11
62.0984832069
 21
145.898808234
 31
0.0
  0
LINE
  5
181
330
17B
100
AcDbEntity
  8
VERMASSUNG
100
AcDbLine
 10
101.9112759732
 20
82.898808234
 30
0.0
 11
62.0984832069
 21
82.898808234
 31
0.0
  0
LINE
  5
182
330
17B
100
AcDbEntity
  8
VERMASSUNG
100
AcDbLine
 10
63.0984832069
 20
145.898808234
 30
0.0
 11
63.0984832069
 21
82.898808234
 31
0.0
  0
MTEXT
  5
183
330
17B
100
AcDbEntity
  8
VERMASSUNG
100
AcDbMText
 10
60.3203477179
 20
106.6962752159
 30
0.0
 40
2.0
 41
0.0
 71
     1
 72
     1
  1
HSK A
  7
SLDTEXTSTYLE0
 11
-7.044195017643634E-15
 21
1.0
 31
0.0
 73
     1
 44
1.0
  0
MTEXT
  5
184
330
17B
100
AcDbEntity
  8
VERMASSUNG
100
AcDbMText
 10
60.5203477274
 20
115.6962757598
 30
0.0
 40
2.0
 41
0.0
 71
     1
 72
     1
  1
%%c
  7
SLDTEXTSTYLE0
 11
-7.044195017643634E-15
 21
1.0
 31
0.0
 73
     1
 44
1.0
  0
MTEXT
  5
185
330
17B
100
AcDbEntity
  8
VERMASSUNG
100
AcDbMText
 10
60.5203478438
 20
119.3039244348
 30
0.0
 40
2.0
 41
0.0
 71
     1
 72
     1
  1
63
  7
SLDTEXTSTYLE0
 11
-7.044195017643634E-15
 21
1.0
 31
0.0
 73
     1
 44
1.0
  0
ENDBLK
  5
17D
330
17B
100
AcDbEntity
  8
0
100
AcDbBlockEnd
  0
ENDSEC
  0
SECTION
  2
ENTITIES
  0
MTEXT
  5
49
330
1F
100
AcDbEntity
  8
KOPF_DÜNN
100
AcDbMText
 10
13.8892156294
 20
23.8442973028
 30
0.0
 40
3.0
 41
0.0
 71
     1
 72
     1
  1
HA6.W18.K01.130
  7
SLDTEXTSTYLE0
 73
     1
 44
1.0
  0
MTEXT
  5
4A
330
1F
100
AcDbEntity
  8
VERMASSUNG
100
AcDbMText
 10
13.9329988022
 20
28.8834360957
 30
0.0
 40
3.0
 41
0.0
 71
     1
 72
     1
  1
Flächenspannfutter_End mill adapter Weldon ø18
  7
SLDTEXTSTYLE0
 73
     1
 44
1.0
  0
MTEXT
  5
4B
330
1F
100
AcDbEntity
  8
VERMASSUNG
100
AcDbMText
 10
98.8601118557
 20
13.8365368179
 30
0.0
 40
2.0
 41
0.0
 71
     1
 72
     1
  1
Datum: 20.04.2011
  7
SLDTEXTSTYLE0
 73
     1
 44
1.0
  0
MTEXT
  5
4D
330
1F
100
AcDbEntity
  8
VERMASSUNG
100
AcDbMText
 10
13.933048693
 20
18.0482802738
 30
0.0
 40
2.0
 41
0.0
 71
     1
 72
     1
  1
DIN 69 893 HSK A 63
  7
SLDTEXTSTYLE1
 73
     1
 44
1.0
  0
MTEXT
  5
4E
330
1F
100
AcDbEntity
  8
VERMASSUNG
100
AcDbMText
 10
13.9808475933
 20
13.9090973692
 30
0.0
 40
2.0
 41
0.0
 71
     1
 72
     1
  1
Gewicht: 1975g
  7
SLDTEXTSTYLE0
 73
     1
 44
1.0
  0
LINE
  5
4F
330
1F
100
AcDbEntity
  8
0
  6
Continuous
 62
     7
370
    15
100
AcDbLine
 10
101.9112759732
 20
82.898808234
 30
0.0
 11
106.5612759732
 21
82.898808234
 31
0.0
  0
LINE
  5
50
330
1F
100
AcDbEntity
  8
0
  6
Continuous
 62
     7
370
    15
100
AcDbLine
 10
106.5892643323
 20
145.898808234
 30
0.0
 11
101.9112759732
 21
145.898808234
 31
0.0
  0
ARC
  5
51
330
1F
100
AcDbEntity
  8
0
  6
Continuous
 62
     7
370
    15
100
AcDbCircle
 10
101.9112759732
 20
83.198808234
 30
0.0
 40
0.2999999999999972
100
AcDbArc
 50
180.0
 51
270.0
  0
ARC
  5
52
330
1F
100
AcDbEntity
  8
0
  6
Continuous
 62
     7
370
    15
100
AcDbCircle
 10
101.9112759732
 20
145.598808234
 30
0.0
 40
0.3000000000000114
100
AcDbArc
 50
90.0
 51
180.0
  0
ARC
  5
53
330
1F
100
AcDbEntity
  8
0
  6
Continuous
 62
     7
370
    15
100
AcDbCircle
 10
129.5612759732
 20
87.3482988886
 30
0.0
 40
2.000000000000019
100
AcDbArc
 50
94.8123490719
 51
160.9900915671
  0
ARC
  5
54
330
1F
100
AcDbEntity
  8
0
  6
Continuous
 62
     7
370
    15
100
AcDbCircle
 10
129.5612759732
 20
141.4493175795
 30
0.0
 40
2.000000000000027
100
AcDbArc
 50
198.7098898235
 51
265.1876509281
  0
ARC
  5
55
330
1F
100
AcDbEntity
  8
0
  6
Continuous
 62
     7
370
    15
100
AcDbCircle
 10
154.5612759732
 20
-209.601191766
 30
0.0
 40
300.0
100
AcDbArc
 50
90.0
 51
94.8123490719
  0
ARC
  5
56
330
1F
100
AcDbEntity
  8
0
  6
Continuous
 62
     7
370
    15
100
AcDbCircle
 10
154.5612759732
 20
438.398808234
 30
0.0
 40
300.0000000000001
100
AcDbArc
 50
265.1876509281
 51
270.0
  0
ARC
  5
57
330
1F
100
AcDbEntity
  8
0
  6
Continuous
 62
     7
370
    15
100
AcDbCircle
 10
101.1112692205
 20
89.8283706196
 30
0.0
 40
0.6000067526677045
100
AcDbArc
 50
33.5571153394
 51
90.0
  0
ARC
  5
58
330
1F
100
AcDbEntity
  8
0
  6
Continuous
 62
     7
370
    15
100
AcDbCircle
 10
101.1112692205
 20
138.9692458484
 30
0.0
 40
0.6000067526677242
100
AcDbArc
 50
270.0
 51
326.4428846606
  0
LINE
  5
59
330
1F
100
AcDbEntity
  8
0
  6
Continuous
 62
     7
370
    15
100
AcDbLine
 10
88.3808537907
 20
138.0565926938
 30
0.0
 11
75.8112759732
 21
137.4268543262
 31
0.0
  0
LINE
  5
5A
330
1F
100
AcDbEntity
  8
0
  6
Continuous
 62
     7
370
    15
100
AcDbLine
 10
99.6112759732
 20
138.6192390957
 30
0.0
 11
96.7926666157
 21
138.4780262021
 31
0.0
  0
LINE
  5
5B
330
1F
100
AcDbEntity
  8
0
  6
Continuous
 62
     7
370
    15
100
AcDbLine
 10
96.7928880908
 20
90.31957917
 30
0.0
 11
99.6112759732
 21
90.1783773723
 31
0.0
  0
LINE
  5
5C
330
1F
100
AcDbEntity
  8
0
  6
Continuous
 62
     7
370
    15
100
AcDbLine
 10
79.8112759732
 20
91.1703613402
 30
0.0
 11
88.3815527424
 21
90.7409887566
 31
0.0
  0
LINE
  5
5D
330
1F
100
AcDbEntity
  8
0
  6
Continuous
 62
     7
370
    15
100
AcDbLine
 10
99.6112759732
 20
90.1783773723
 30
0.0
 11
100.4679887466
 21
90.4079328681
 31
0.0
  0
LINE
  5
5E
330
1F
100
AcDbEntity
  8
0
  6
Continuous
 62
     7
370
    15
100
AcDbLine
 10
100.4679887466
 20
138.3896836
 30
0.0
 11
99.6112759732
 21
138.6192390957
 31
0.0
  0
LINE
  5
5F
330
1F
100
AcDbEntity
  8
0
  6
Continuous
 62
     7
370
    15
100
AcDbLine
 10
154.5612759732
 20
90.398808234
 30
0.0
 11
220.8887413706
 21
90.398808234
 31
0.0
  0
LINE
  5
60
330
1F
100
AcDbEntity
  8
0
  6
Continuous
 62
     7
370
    15
100
AcDbLine
 10
220.8887413706
 20
138.398808234
 30
0.0
 11
154.5612759732
 21
138.398808234
 31
0.0
  0
LINE
  5
61
330
1F
100
AcDbEntity
  8
0
  6
Continuous
 62
     7
370
    15
100
AcDbLine
 10
220.8887413706
 20
90.398808234
 30
0.0
 11
230.4565124967
 21
94.8603331816
 31
0.0
  0
LINE
  5
62
330
1F
100
AcDbEntity
  8
0
  6
Continuous
 62
     7
370
    15
100
AcDbLine
 10
230.4565124967
 20
133.9372832865
 30
0.0
 11
220.8887413706
 21
138.398808234
 31
0.0
  0
ARC
  5
63
330
1F
100
AcDbEntity
  8
0
  6
Continuous
 62
     7
370
    15
100
AcDbCircle
 10
100.6232801736
 20
89.8283773723
 30
0.0
 40
0.5999999999999971
100
AcDbArc
 50
90.0
 51
105.0
  0
ARC
  5
64
330
1F
100
AcDbEntity
  8
0
  6
Continuous
 62
     7
370
    15
100
AcDbCircle
 10
100.6232801736
 20
138.9692390957
 30
0.0
 40
0.5999999999999697
100
AcDbArc
 50
255.0
 51
270.0
  0
LINE
  5
65
330
1F
100
AcDbEntity
  8
0
  6
Continuous
 62
     7
370
    15
100
AcDbLine
 10
100.6232801736
 20
90.4283773723
 30
0.0
 11
101.1112692205
 21
90.4283773723
 31
0.0
  0
LINE
  5
66
330
1F
100
AcDbEntity
  8
0
  6
Continuous
 62
     7
370
    15
100
AcDbLine
 10
101.1112692205
 20
138.3692390957
 30
0.0
 11
100.6232801736
 21
138.3692390957
 31
0.0
  0
ARC
  5
67
330
1F
100
AcDbEntity
  8
0
  6
Continuous
 62
     7
370
    15
100
AcDbCircle
 10
229.6112759732
 20
96.6729487556
 30
0.0
 40
2.000000000000002
100
AcDbArc
 50
295.0
 51
0.0
  0
ARC
  5
68
330
1F
100
AcDbEntity
  8
0
  6
Continuous
 62
     7
370
    15
100
AcDbCircle
 10
229.6112759732
 20
132.1246677124
 30
0.0
 40
2.0
100
AcDbArc
 50
0.0
 51
65.0
  0
LINE
  5
69
330
1F
100
AcDbEntity
  8
0
  6
Continuous
 62
     7
370
    15
100
AcDbLine
 10
70.9946126132
 20
93.528808234
 30
0.0
 11
78.4112759732
 21
93.528808234
 31
0.0
  0
ARC
  5
6A
330
1F
100
AcDbEntity
  8
0
  6
Continuous
 62
     7
370
    15
100
AcDbCircle
 10
78.4112759732
 20
92.128808234
 30
0.0
 40
1.400000000000006
100
AcDbArc
 50
42.2465410162
 51
90.0
  0
LINE
  5
6B
330
1F
100
AcDbEntity
  8
0
  6
Continuous
 62
     7
370
    15
100
AcDbLine
 10
69.7123084673
 20
94.6777757399
 30
0.0
 11
70.8524394314
 21
93.5376447758
 31
0.0
  0
LINE
  5
6C
330
1F
100
AcDbEntity
  8
0
  6
Continuous
 62
     7
370
    15
100
AcDbLine
 10
70.8524394314
 20
135.2599716922
 30
0.0
 11
69.7211767466
 21
134.1287090074
 31
0.0
  0
ARC
  5
6D
330
1F
100
AcDbEntity
  8
0
  6
Continuous
 62
     7
370
    15
100
AcDbCircle
 10
74.4112759732
 20
136.668808234
 30
0.0
 40
1.400000000000034
100
AcDbArc
 50
270.0
 51
301.7485287426
  0
LINE
  5
6E
330
1F
100
AcDbEntity
  8
0
  6
Continuous
 62
     7
370
    15
100
AcDbLine
 10
74.4112759732
 20
135.268808234
 30
0.0
 11
70.9855417071
 21
135.268808234
 31
0.0
  0
LINE
  5
6F
330
1F
100
AcDbEntity
  8
0
  6
Continuous
 62
     7
370
    15
100
AcDbLine
 10
206.318963139
 20
117.3631993527
 30
0.0
 11
204.6478815406
 21
114.3288153475
 31
0.0
  0
LINE
  5
70
330
1F
100
AcDbEntity
  8
0
  6
Continuous
 62
     7
370
    15
100
AcDbLine
 10
206.4401943747
 20
111.3644242288
 30
0.0
 11
204.6478815406
 21
114.3288153475
 31
0.0
  0
LINE
  5
71
330
1F
100
AcDbEntity
  8
0
  6
Continuous
 62
     7
370
    15
100
AcDbLine
 10
209.9035888073
 20
111.4344171153
 30
0.0
 11
211.5746704058
 21
114.4688011206
 31
0.0
  0
LINE
  5
72
330
1F
100
AcDbEntity
  8
0
  6
Continuous
 62
     7
370
    15
100
AcDbLine
 10
209.7823575716
 20
117.4331922393
 30
0.0
 11
211.5746704058
 21
114.4688011206
 31
0.0
  0
LINE
  5
73
330
1F
100
AcDbEntity
  8
0
  6
Continuous
 62
     7
370
    15
100
AcDbLine
 10
209.7823575716
 20
117.4331922393
 30
0.0
 11
206.318963139
 21
117.3631993527
 31
0.0
  0
CIRCLE
  5
74
330
1F
100
AcDbEntity
  8
0
  6
Continuous
 62
     7
370
    15
100
AcDbCircle
 10
208.1112759732
 20
114.398808234
 30
0.0
 40
5.999999999999987
  0
LINE
  5
75
330
1F
100
AcDbEntity
  8
0
  6
Continuous
 62
     7
370
    15
100
AcDbLine
 10
209.9035888073
 20
111.4344171153
 30
0.0
 11
206.4401943747
 21
111.3644242288
 31
0.0
  0
LINE
  5
76
330
1F
100
AcDbEntity
  8
0
  6
Continuous
 62
     7
370
    15
100
AcDbLine
 10
106.5612759732
 20
134.248808234
 30
0.0
 11
116.2193431417
 21
134.248808234
 31
0.0
  0
LINE
  5
77
330
1F
100
AcDbEntity
  8
0
  6
Continuous
 62
     7
370
    15
100
AcDbLine
 10
116.2193431417
 20
84.2118905378
 30
0.0
 11
116.2193431417
 21
134.248808234
 31
0.0
  0
LINE
  5
78
330
1F
100
AcDbEntity
  8
0
  6
Continuous
 62
     7
370
    15
100
AcDbLine
 10
116.2193431417
 20
84.2118905378
 30
0.0
 11
114.5612759732
 21
84.2118905378
 31
0.0
  0
SPLINE
  5
79
330
1F
100
AcDbEntity
  8
0
  6
Continuous
 62
     7
370
    15
100
AcDbSpline
210
0.0
220
0.0
230
1.0
 70
     8
 71
     3
 72
    28
 73
    24
 74
     0
 42
0.00000001
 43
0.00000001
 12
1.0
 22
0.0
 32
0.0
 13
1.0
 23
0.0
 33
0.0
 40
0.0
 40
0.0
 40
0.0
 40
0.0
 40
0.1250000000000001
 40
0.1250000000000001
 40
0.1875000000000001
 40
0.1875000000000001
 40
0.2500000000000001
 40
0.2500000000000001
 40
0.3749999999999999
 40
0.3749999999999999
 40
0.4375
 40
0.4375
 40
0.4999999999999999
 40
0.4999999999999999
 40
0.6249999999999999
 40
0.6249999999999999
 40
0.7499999999999997
 40
0.7499999999999997
 40
0.8124999999999998
 40
0.8124999999999998
 40
0.8749999999999998
 40
0.8749999999999998
 40
1.0
 40
1.0
 40
1.0
 40
1.0
 10
114.561275973175
 20
84.21189053777235
 30
0.0
 10
114.0295682156821
 20
84.21189053777236
 30
0.0
 10
113.5073296503717
 20
84.19610582382214
 30
0.0
 10
112.7374591640967
 20
84.15111040974594
 30
0.0
 10
112.4830995919054
 20
84.13255541467021
 30
0.0
 10
111.9789780112069
 20
84.08870269222369
 30
0.0
 10
111.729255193779
 20
84.0633580852715
 30
0.0
 10
111.0036652423326
 20
83.9799560075214
 30
0.0
 10
110.545304980751
 20
83.91409044837032
 30
0.0
 10
109.8948070373571
 20
83.80512010787852
 30
0.0
 10
109.6831249865647
 20
83.76688047211186
 30
0.0
 10
109.2790534974267
 20
83.6891217346925
 30
0.0
 10
109.0865469836058
 20
83.64962077251717
 30
0.0
 10
108.5367120125845
 20
83.53071303015116
 30
0.0
 10
108.2067832342757
 20
83.45089534872656
 30
0.0
 10
107.622311965707
 20
83.2975521869305
 30
0.0
 10
107.3760348276936
 20
83.22621843366123
 30
0.0
 10
107.0761920349955
 20
83.13227492658662
 30
0.0
 10
106.9877351779234
 20
83.1030811332267
 30
0.0
 10
106.8343738246182
 20
83.04961455896328
 30
0.0
 10
106.769285610392
 20
83.0252552246881
 30
0.0
 10
106.6136915944512
 20
82.96166507924335
 30
0.0
 10
106.561275973175
 20
82.9315621441541
 30
0.0
 10
106.561275973175
 20
82.9146852511572
 30
0.0
  0
LINE
  5
7A
330
1F
100
AcDbEntity
  8
0
  6
Continuous
 62
     7
370
    15
100
AcDbLine
 10
106.5612759732
 20
82.9146852512
 30
0.0
 11
106.5612759732
 21
82.898808234
 31
0.0
  0
SPLINE
  5
7B
330
1F
100
AcDbEntity
  8
0
  6
Continuous
 62
     7
370
    15
100
AcDbSpline
210
0.0
220
0.0
230
1.0
 70
     8
 71
     3
 72
    17
 73
    13
 74
     0
 42
0.00000001
 43
0.00000001
 12
1.0
 22
0.0
 32
0.0
 13
1.0
 23
0.0
 33
0.0
 40
0.0
 40
0.0
 40
0.0
 40
0.0
 40
0.1034796923964056
 40
0.210023918880785
 40
0.3134862136955583
 40
0.4198361274354882
 40
0.5254127712915682
 40
0.633961069541979
 40
0.7409508756305031
 40
0.8511696089308174
 40
0.9558996534551937
 40
1.0
 40
1.0
 40
1.0
 40
1.0
 10
114.561275973175
 20
144.8660037071838
 30
0.0
 10
114.126027624065
 20
144.8714519037171
 30
0.0
 10
113.2426411175
 20
144.8825096442289
 30
0.0
 10
111.9618135322713
 20
144.9688680371305
 30
0.0
 10
110.7443969963973
 20
145.0967382136683
 30
0.0
 10
109.6365911441507
 20
145.2556835122614
 30
0.0
 10
108.6483523402025
 20
145.430177199977
 30
0.0
 10
107.823628782671
 20
145.5993430506168
 30
0.0
 10
107.1746752820117
 20
145.7472268331452
 30
0.0
 10
106.75764046655
 20
145.849017417376
 30
0.0
 10
106.5590437535855
 20
145.8993689399792
 30
0.0
 10
106.5823564750187
 20
145.8934632557568
 30
0.0
 10
106.5892643322563
 20
145.8917133260622
 30
0.0
  0
LINE
  5
7C
330
1F
100
AcDbEntity
  8
0
  6
Continuous
 62
     7
370
    15
100
AcDbLine
 10
116.2193431417
 20
144.8660037072
 30
0.0
 11
114.5612759732
 21
144.8660037072
 31
0.0
  0
LINE
  5
7D
330
1F
100
AcDbEntity
  8
0
  6
Continuous
 62
     7
370
    15
100
AcDbLine
 10
116.2193431417
 20
138.8574978964
 30
0.0
 11
116.2193431417
 21
144.8660037072
 31
0.0
  0
LINE
  5
7E
330
1F
100
AcDbEntity
  8
0
  6
Continuous
 62
     7
370
    15
100
AcDbLine
 10
113.8068963189
 20
138.8574978964
 30
0.0
 11
116.2193431417
 21
138.8574978964
 31
0.0
  0
SPLINE
  5
7F
330
1F
100
AcDbEntity
  8
0
  6
Continuous
 62
     7
370
    15
100
AcDbSpline
210
0.0
220
0.0
230
1.0
 70
     8
 71
     3
 72
    20
 73
    16
 74
     0
 42
0.00000001
 43
0.00000001
 12
1.0
 22
0.0
 32
0.0
 13
1.0
 23
0.0
 33
0.0
 40
0.0
 40
0.0
 40
0.0
 40
0.0
 40
0.2499999999999997
 40
0.2499999999999997
 40
0.3749999999999997
 40
0.3749999999999997
 40
0.4999999999999998
 40
0.4999999999999998
 40
0.6249999999999998
 40
0.6249999999999998
 40
0.7499999999999999
 40
0.7499999999999999
 40
0.8749999999999999
 40
0.8749999999999999
 40
1.0
 40
1.0
 40
1.0
 40
1.0
 10
106.561275973175
 20
134.2488082340195
 30
0.0
 10
106.8096497074631
 20
134.9026706623169
 30
0.0
 10
107.1292197998083
 20
135.5064564443141
 30
0.0
 10
107.751526033013
 20
136.3332951804827
 30
0.0
 10
107.9829502934438
 20
136.5957238184356
 30
0.0
 10
108.5041646330935
 20
137.0923864725405
 30
0.0
 10
108.7907851157286
 20
137.3229733515621
 30
0.0
 10
109.4102698570362
 20
137.7395275761447
 30
0.0
 10
109.7445702365231
 20
137.9270253781122
 30
0.0
 10
110.4698307091479
 20
138.2584223557486
 30
0.0
 10
110.8517457665384
 20
138.3979263432439
 30
0.0
 10
111.6465339427101
 20
138.6233798507149
 30
0.0
 10
112.0606921369165
 20
138.7100059622585
 30
0.0
 10
112.9262384774979
 20
138.8279867511126
 30
0.0
 10
113.3641260925097
 20
138.857497896387
 30
0.0
 10
113.8068963188643
 20
138.857497896387
 30
0.0
  0
SPLINE
  5
80
330
1F
100
AcDbEntity
  8
0
  6
Continuous
 62
     7
370
    15
100
AcDbSpline
210
0.0
220
0.0
230
1.0
 70
     8
 71
     3
 72
    70
 73
    66
 74
     0
 42
0.00000001
 43
0.00000001
 12
1.0
 22
0.0
 32
0.0
 13
1.0
 23
0.0
 33
0.0
 40
-0.0312500000000001
 40
-0.0312500000000001
 40
0.0
 40
0.0
 40
0.0312499999999999
 40
0.0312499999999999
 40
0.0624999999999998
 40
0.0624999999999998
 40
0.0937499999999997
 40
0.0937499999999997
 40
0.1249999999999996
 40
0.1249999999999996
 40
0.1562499999999994
 40
0.1562499999999994
 40
0.1874999999999993
 40
0.1874999999999993
 40
0.2187499999999992
 40
0.2187499999999992
 40
0.2499999999999991
 40
0.2499999999999991
 40
0.281249999999999
 40
0.281249999999999
 40
0.3124999999999989
 40
0.3124999999999989
 40
0.3437499999999988
 40
0.3437499999999988
 40
0.3749999999999987
 40
0.3749999999999987
 40
0.4062499999999986
 40
0.4062499999999986
 40
0.4374999999999984
 40
0.4374999999999984
 40
0.4687499999999983
 40
0.4687499999999983
 40
0.4999999999999982
 40
0.4999999999999982
 40
0.5312499999999983
 40
0.5312499999999983
 40
0.5624999999999984
 40
0.5624999999999984
 40
0.5937499999999986
 40
0.5937499999999986
 40
0.6249999999999987
 40
0.6249999999999987
 40
0.6562499999999988
 40
0.6562499999999988
 40
0.6874999999999989
 40
0.6874999999999989
 40
0.718749999999999
 40
0.718749999999999
 40
0.7499999999999991
 40
0.7499999999999991
 40
0.7812499999999992
 40
0.7812499999999992
 40
0.8124999999999993
 40
0.8124999999999993
 40
0.8437499999999994
 40
0.8437499999999994
 40
0.8749999999999996
 40
0.8749999999999996
 40
0.9062499999999997
 40
0.9062499999999997
 40
0.9374999999999998
 40
0.9374999999999998
 40
0.9687499999999999
 40
0.9687499999999999
 40
1.0
 40
1.0
 40
1.03125
 40
1.03125
 10
109.8758213118352
 20
125.0197151200029
 30
0.0
 10
109.3467306345149
 20
125.0197151200028
 30
0.0
 10
109.0866599671378
 20
125.044392414788
 30
0.0
 10
108.5750852873023
 20
125.14086408783
 30
0.0
 10
108.3209100035622
 20
125.21384500381
 30
0.0
 10
107.8366393735004
 20
125.4035856067486
 30
0.0
 10
107.6069982816193
 20
125.5194462651424
 30
0.0
 10
107.1723939333858
 20
125.7920641111001
 30
0.0
 10
106.9668281567392
 20
125.9501031931539
 30
0.0
 10
106.598271016144
 20
126.2936460441245
 30
0.0
 10
106.4327900334085
 20
126.4804084882262
 30
0.0
 10
106.1403655239734
 20
126.883951662623
 30
0.0
 10
106.0162645473469
 20
127.0974486590521
 30
0.0
 10
105.8166853505972
 20
127.5368319729746
 30
0.0
 10
105.7397517647389
 20
127.7659719601203
 30
0.0
 10
105.6368947062185
 20
128.2319460828803
 30
0.0
 10
105.6114217967594
 20
128.4648285285565
 30
0.0
 10
105.6111313861916
 20
128.9302260636363
 30
0.0
 10
105.6371560199673
 20
129.1651018210306
 30
0.0
 10
105.7393043044594
 20
129.6165949682768
 30
0.0
 10
105.8148807520425
 20
129.8346414436882
 30
0.0
 10
106.0153782831874
 20
130.255735968726
 30
0.0
 10
106.1405071246958
 20
130.4576573532444
 30
0.0
 10
106.4298659257174
 20
130.8296868357633
 30
0.0
 10
106.5952769127729
 20
131.0023151393436
 30
0.0
 10
106.9682674709207
 20
131.3196331438896
 30
0.0
 10
107.1700005040098
 20
131.4594200773913
 30
0.0
 10
107.6028597548377
 20
131.7035963309431
 30
0.0
 10
107.8367782877271
 20
131.8088258419846
 30
0.0
 10
108.3209620228697
 20
131.9769829883597
 30
0.0
 10
108.5702776488252
 20
132.0402338789536
 30
0.0
 10
109.0833101732529
 20
132.1258130880562
 30
0.0
 10
109.3486039961575
 20
132.1476852529786
 30
0.0
 10
109.8709386160273
 20
132.1478489026225
 30
0.0
 10
110.130692278509
 20
132.1268472105265
 30
0.0
 10
110.6473040941543
 20
132.0414448554488
 30
0.0
 10
110.8996701346545
 20
131.9774386721619
 30
0.0
 10
111.3811952561874
 20
131.8106241521207
 30
0.0
 10
111.6140459883009
 20
131.7064909887216
 30
0.0
 10
112.0511358367397
 20
131.4605043362266
 30
0.0
 10
112.2524568253969
 20
131.3207545052778
 30
0.0
 10
112.6215428506968
 20
131.0076164355532
 30
0.0
 10
112.7905276017485
 20
130.832160276283
 30
0.0
 10
113.0809836584077
 20
130.4593200121828
 30
0.0
 10
113.2040554697698
 20
130.2611982020719
 30
0.0
 10
113.4053917111918
 20
129.8404868593383
 30
0.0
 10
113.4826042571341
 20
129.6184968386707
 30
0.0
 10
113.5848078000341
 20
129.1686318989623
 30
0.0
 10
113.6110361514864
 20
128.9383764858456
 30
0.0
 10
113.6115125508035
 20
128.4670605432965
 30
0.0
 10
113.5857701383056
 20
128.2338231275824
 30
0.0
 10
113.4844593619417
 20
127.7721465880843
 30
0.0
 10
113.4076267225508
 20
127.5412492009722
 30
0.0
 10
113.2072228833356
 20
127.0989731871805
 30
0.0
 10
113.0845513850436
 20
126.8879107558946
 30
0.0
 10
112.7946040958793
 20
126.4864122451619
 30
0.0
 10
112.6260331165141
 20
126.295505723086
 30
0.0
 10
112.2577635224009
 20
125.9517803910889
 30
0.0
 10
112.0567016651306
 20
125.7966432048749
 30
0.0
 10
111.6196707465457
 20
125.5215658447951
 30
0.0
 10
111.3875225334161
 20
125.4044496153731
 30
0.0
 10
110.9065122519172
 20
125.2155231303086
 30
0.0
 10
110.6544121690868
 20
125.1424481599143
 30
0.0
 10
110.1373426828278
 20
125.0443961007798
 30
0.0
 10
109.8758213118352
 20
125.0197151200029
 30
0.0
 10
109.3467306345149
 20
125.0197151200028
 30
0.0
  0
SPLINE
  5
81
330
1F
100
AcDbEntity
  8
0
  6
Continuous
 62
     7
370
    15
100
AcDbSpline
210
0.0
220
0.0
230
1.0
 70
     8
 71
     3
 72
    70
 73
    66
 74
     0
 42
0.00000001
 43
0.00000001
 12
1.0
 22
0.0
 32
0.0
 13
1.0
 23
0.0
 33
0.0
 40
-0.0312499999999999
 40
-0.0312499999999999
 40
0.0
 40
0.0
 40
0.0312499999999999
 40
0.0312499999999999
 40
0.0624999999999998
 40
0.0624999999999998
 40
0.0937499999999997
 40
0.0937499999999997
 40
0.1249999999999996
 40
0.1249999999999996
 40
0.1562499999999995
 40
0.1562499999999995
 40
0.1874999999999994
 40
0.1874999999999994
 40
0.2187499999999993
 40
0.2187499999999993
 40
0.2499999999999992
 40
0.2499999999999992
 40
0.2812499999999993
 40
0.2812499999999993
 40
0.3124999999999993
 40
0.3124999999999993
 40
0.3437499999999994
 40
0.3437499999999994
 40
0.3749999999999995
 40
0.3749999999999995
 40
0.4062499999999996
 40
0.4062499999999996
 40
0.4374999999999996
 40
0.4374999999999996
 40
0.4687499999999997
 40
0.4687499999999997
 40
0.4999999999999998
 40
0.4999999999999998
 40
0.5312499999999999
 40
0.5312499999999999
 40
0.5625
 40
0.5625
 40
0.5937500000000001
 40
0.5937500000000001
 40
0.6250000000000002
 40
0.6250000000000002
 40
0.6562500000000004
 40
0.6562500000000004
 40
0.6875000000000006
 40
0.6875000000000006
 40
0.7187500000000007
 40
0.7187500000000007
 40
0.7500000000000008
 40
0.7500000000000008
 40
0.7812500000000007
 40
0.7812500000000007
 40
0.8125000000000006
 40
0.8125000000000006
 40
0.8437500000000004
 40
0.8437500000000004
 40
0.8750000000000003
 40
0.8750000000000003
 40
0.9062500000000003
 40
0.9062500000000003
 40
0.9375000000000002
 40
0.9375000000000002
 40
0.9687500000000001
 40
0.9687500000000001
 40
1.0
 40
1.0
 40
1.03125
 40
1.03125
 10
109.8758213118352
 20
139.4577716287987
 30
0.0
 10
109.3467306345149
 20
139.4577716287987
 30
0.0
 10
109.0866599671378
 20
139.4736720692134
 30
0.0
 10
108.5750852873023
 20
139.5356164193877
 30
0.0
 10
108.3209100035622
 20
139.582418653479
 30
0.0
 10
107.8366393735004
 20
139.7033956369341
 30
0.0
 10
107.6069982816193
 20
139.7769979647409
 30
0.0
 10
107.1723939333858
 20
139.9488222357191
 30
0.0
 10
106.9668281567392
 20
140.0478256586465
 30
0.0
 10
106.598271016144
 20
140.2609220725593
 30
0.0
 10
106.4327900334085
 20
140.375821788689
 30
0.0
 10
106.1403655239734
 20
140.6211886873793
 30
0.0
 10
106.0162645473469
 20
140.7496285878496
 30
0.0
 10
105.8166853505972
 20
141.0105207359355
 30
0.0
 10
105.7397517647389
 20
141.144901907275
 30
0.0
 10
105.6368947062185
 20
141.4142218583813
 30
0.0
 10
105.6114217967594
 20
141.5469031225994
 30
0.0
 10
105.6111313861916
 20
141.8080895967304
 30
0.0
 10
105.6371560199673
 20
141.9378546348952
 30
0.0
 10
105.7393043044594
 20
142.1834372691678
 30
0.0
 10
105.8148807520425
 20
142.3000988064767
 30
0.0
 10
106.0153782831874
 20
142.5220039966313
 30
0.0
 10
106.1405071246958
 20
142.6266152505543
 30
0.0
 10
106.4298659257174
 20
142.8166616621623
 30
0.0
 10
106.5952769127729
 20
142.903421333612
 30
0.0
 10
106.9682674709207
 20
143.0609257093636
 30
0.0
 10
107.1700005040098
 20
143.1292509741508
 30
0.0
 10
107.6028597548377
 20
143.24748069777
 30
0.0
 10
107.836778287727
 20
143.2977756138738
 30
0.0
 10
108.3209620228697
 20
143.3776411507635
 30
0.0
 10
108.5702776488252
 20
143.4073822785631
 30
0.0
 10
109.0833101732529
 20
143.4475350200713
 30
0.0
 10
109.3486039961575
 20
143.4577332894811
 30
0.0
 10
109.8709386160273
 20
143.4578097478658
 30
0.0
 10
110.130692278509
 20
143.4480187362568
 30
0.0
 10
110.6473040941543
 20
143.407951897518
 30
0.0
 10
110.8996701346545
 20
143.3778547306612
 30
0.0
 10
111.3811952561874
 20
143.298632520831
 30
0.0
 10
111.6140459883009
 20
143.2488750413677
 30
0.0
 10
112.0511358367397
 20
143.1297830989173
 30
0.0
 10
112.2524568253969
 20
143.06146783737
 30
0.0
 10
112.6215428506968
 20
142.9060668704364
 30
0.0
 10
112.7905276017485
 20
142.8179145283695
 30
0.0
 10
113.0809836584077
 20
142.6274751392532
 30
0.0
 10
113.2040554697698
 20
142.5248505615541
 30
0.0
 10
113.4053917111918
 20
142.303210214946
 30
0.0
 10
113.4826042571341
 20
142.1844561393985
 30
0.0
 10
113.5848078000341
 20
141.9397902004808
 30
0.0
 10
113.6110361514864
 20
141.8126334750323
 30
0.0
 10
113.6115125508035
 20
141.5481853291767
 30
0.0
 10
113.5857701383056
 20
141.4152846489196
 30
0.0
 10
113.4844593619417
 20
141.1484923754375
 30
0.0
 10
113.4076267225508
 20
141.013128473969
 30
0.0
 10
113.2072228833356
 20
140.7505486786664
 30
0.0
 10
113.0845513850436
 20
140.6235735189127
 30
0.0
 10
112.7946040958793
 20
140.3794941328302
 30
0.0
 10
112.6260331165141
 20
140.2620690080764
 30
0.0
 10
112.2577635224009
 20
140.0488725471279
 30
0.0
 10
112.0567016651306
 20
139.951698428703
 30
0.0
 10
111.6196707465457
 20
139.7783435414889
 30
0.0
 10
111.3875225334161
 20
139.7039439898322
 30
0.0
 10
110.9065122519172
 20
139.5834911103275
 30
0.0
 10
110.6544121690868
 20
139.5366327350615
 30
0.0
 10
110.1373426828278
 20
139.4736752380778
 30
0.0
 10
109.8758213118352
 20
139.4577716287987
 30
0.0
 10
109.3467306345149
 20
139.4577716287987
 30
0.0
  0
LINE
  5
82
330
1F
100
AcDbEntity
  8
0
  6
Continuous
 62
     7
370
    15
100
AcDbLine
 10
126.9612759732
 20
84.2118905378
 30
0.0
 11
123.0032088047
 21
84.2118905378
 31
0.0
  0
LINE
  5
83
330
1F
100
AcDbEntity
  8
0
  6
Continuous
 62
     7
370
    15
100
AcDbLine
 10
123.0032088047
 20
84.2118905378
 30
0.0
 11
123.0032088047
 21
134.248808234
 31
0.0
  0
LINE
  5
84
330
1F
100
AcDbEntity
  8
0
  6
Continuous
 62
     7
370
    15
100
AcDbLine
 10
123.0032088047
 20
134.248808234
 30
0.0
 11
126.9612759732
 21
134.248808234
 31
0.0
  0
SPLINE
  5
85
330
1F
100
AcDbEntity
  8
0
  6
Continuous
 62
     7
370
    15
100
AcDbSpline
210
0.0
220
0.0
230
1.0
 70
     8
 71
     3
 72
     8
 73
     4
 74
     0
 42
0.00000001
 43
0.00000001
 12
1.0
 22
0.0
 32
0.0
 13
1.0
 23
0.0
 33
0.0
 40
0.0
 40
0.0
 40
0.0
 40
0.0
 40
1.0
 40
1.0
 40
1.0
 40
1.0
 10
123.0032088046641
 20
84.21189053777235
 30
0.0
 10
122.5077291439983
 20
85.10741662570571
 30
0.0
 10
122.0136150959562
 20
86.00370104075797
 30
0.0
 10
121.521275973175
 20
86.90097107496467
 30
0.0
  0
LINE
  5
86
330
1F
100
AcDbEntity
  8
0
  6
Continuous
 62
     7
370
    15
100
AcDbLine
 10
121.5212759732
 20
86.900971075
 30
0.0
 11
121.5212759732
 21
134.248808234
 31
0.0
  0
SPLINE
  5
87
330
1F
100
AcDbEntity
  8
0
  6
Continuous
 62
     7
370
    15
100
AcDbSpline
210
0.0
220
0.0
230
1.0
 70
    24
 71
     3
 72
     8
 73
     4
 74
     0
 42
0.00000001
 43
0.00000001
 12
1.0
 22
0.0
 32
0.0
 13
1.0
 23
0.0
 33
0.0
 40
0.0
 40
0.0
 40
0.0
 40
0.0
 40
1.0
 40
1.0
 40
1.0
 40
1.0
 10
121.521275973175
 20
134.2488082340195
 30
0.0
 10
122.0012279675399
 20
134.2488082340195
 30
0.0
 10
122.4965286965135
 20
134.2488082340195
 30
0.0
 10
123.0032088046641
 20
134.2488082340195
 30
0.0
  0
LINE
  5
88
330
1F
100
AcDbEntity
  8
0
  6
Continuous
 62
     7
370
    15
100
AcDbLine
 10
101.6112759732
 20
83.198808234
 30
0.0
 11
101.6112759732
 21
145.5988082306
 31
0.0
  0
LINE
  5
89
330
1F
100
AcDbEntity
  8
0
  6
Continuous
 62
     7
370
    15
100
AcDbLine
 10
117.7012759732
 20
86.900971075
 30
0.0
 11
117.7012759732
 21
134.248808234
 31
0.0
  0
SPLINE
  5
8A
330
1F
100
AcDbEntity
  8
0
  6
Continuous
 62
     7
370
    15
100
AcDbSpline
210
0.0
220
0.0
230
1.0
 70
     8
 71
     3
 72
     8
 73
     4
 74
     0
 42
0.00000001
 43
0.00000001
 12
1.0
 22
0.0
 32
0.0
 13
1.0
 23
0.0
 33
0.0
 40
0.0
 40
0.0
 40
0.0
 40
0.0
 40
1.0
 40
1.0
 40
1.0
 40
1.0
 10
117.701275973175
 20
86.90097107496466
 30
0.0
 10
117.2089368503938
 20
86.00370104075796
 30
0.0
 10
116.7148228023517
 20
85.1074166257057
 30
0.0
 10
116.219343141686
 20
84.21189053777235
 30
0.0
  0
SPLINE
  5
8B
330
1F
100
AcDbEntity
  8
0
  6
Continuous
 62
     7
370
    15
100
AcDbSpline
210
0.0
220
0.0
230
1.0
 70
    24
 71
     3
 72
     8
 73
     4
 74
     0
 42
0.00000001
 43
0.00000001
 12
1.0
 22
0.0
 32
0.0
 13
1.0
 23
0.0
 33
0.0
 40
0.0
 40
0.0
 40
0.0
 40
0.0
 40
1.0
 40
1.0
 40
1.0
 40
1.0
 10
116.2193431416859
 20
134.2488082340195
 30
0.0
 10
116.7260232498365
 20
134.2488082340195
 30
0.0
 10
117.2213239788101
 20
134.2488082340195
 30
0.0
 10
117.701275973175
 20
134.2488082340195
 30
0.0
  0
LINE
  5
8C
330
1F
100
AcDbEntity
  8
0
  6
Continuous
 62
     7
370
    15
100
AcDbLine
 10
127.5612759732
 20
84.8385308334
 30
0.0
 11
127.5612759732
 21
134.248808234
 31
0.0
  0
SPLINE
  5
8D
330
1F
100
AcDbEntity
  8
0
  6
Continuous
 62
     7
370
    15
100
AcDbSpline
210
0.0
220
0.0
230
1.0
 70
     8
 71
     3
 72
    10
 73
     6
 74
     0
 42
0.00000001
 43
0.00000001
 12
1.0
 22
0.0
 32
0.0
 13
1.0
 23
0.0
 33
0.0
 40
0.0
 40
0.0
 40
0.0
 40
0.0
 40
0.5
 40
0.5
 40
1.0
 40
1.0
 40
1.0
 40
1.0
 10
127.561275973175
 20
84.83853083342667
 30
0.0
 10
127.561275973175
 20
84.67864356523302
 30
0.0
 10
127.4999663219392
 20
84.5175163097184
 30
0.0
 10
127.2808666844041
 20
84.28341731136358
 30
0.0
 10
127.1228184780906
 20
84.21189053777235
 30
0.0
 10
126.961275973175
 20
84.21189053777235
 30
0.0
  0
SPLINE
  5
8E
330
1F
100
AcDbEntity
  8
0
  6
Continuous
 62
     7
370
    15
100
AcDbSpline
210
0.0
220
0.0
230
1.0
 70
    24
 71
     3
 72
    12
 73
     8
 74
     0
 42
0.00000001
 43
0.00000001
 12
1.0
 22
0.0
 32
0.0
 13
1.0
 23
0.0
 33
0.0
 40
0.0
 40
0.0
 40
0.0
 40
0.0
 40
0.2500000000000033
 40
0.2500000000000033
 40
0.5000000000000067
 40
0.5000000000000067
 40
1.0
 40
1.0
 40
1.0
 40
1.0
 10
126.961275973175
 20
134.2488082340195
 30
0.0
 10
127.051515040862
 20
134.2488082340195
 30
0.0
 10
127.1424131549686
 20
134.2488082340195
 30
0.0
 10
127.2970101914571
 20
134.2488082340195
 30
0.0
 10
127.3619886075652
 20
134.2488082340195
 30
0.0
 10
127.5138236355014
 20
134.2488082340195
 30
0.0
 10
127.561275973175
 20
134.2488082340195
 30
0.0
 10
127.561275973175
 20
134.2488082340195
 30
0.0
  0
ARC
  5
8F
330
1F
100
AcDbEntity
  8
0
  6
Continuous
 62
     7
370
    15
100
AcDbCircle
 10
109.6082708289
 20
126.2970393113
 30
0.0
 40
4.115011572779903
100
AcDbArc
 50
19.3349591234
 51
159.3357509812
  0
SPLINE
  5
90
330
1F
100
AcDbEntity
  8
0
  6
Continuous
 62
     7
370
    15
100
AcDbSpline
210
0.0
220
0.0
230
1.0
 70
    24
 71
     3
 72
    14
 73
    10
 74
     0
 42
0.00000001
 43
0.00000001
 12
1.0
 22
0.0
 32
0.0
 13
1.0
 23
0.0
 33
0.0
 40
0.0
 40
0.0
 40
0.0
 40
0.0
 40
0.4999999999999984
 40
0.4999999999999984
 40
0.7499999999999992
 40
0.7499999999999992
 40
0.8749999999999996
 40
0.8749999999999996
 40
1.0
 40
1.0
 40
1.0
 40
1.0
 10
121.4236011708427
 20
87.9988082340195
 30
0.0
 10
121.3768164657945
 20
87.99880823401952
 30
0.0
 10
121.3147652690149
 20
87.99880823401952
 30
0.0
 10
121.1713736304643
 20
87.9988082340195
 30
0.0
 10
121.1152299769131
 20
87.9988082340195
 30
0.0
 10
121.0022789547769
 20
87.99880823401952
 30
0.0
 10
120.9592781927388
 20
87.99880823401952
 30
0.0
 10
120.8552154824323
 20
87.9988082340195
 30
0.0
 10
120.7898832440754
 20
87.99880823401953
 30
0.0
 10
120.721275973175
 20
87.9988082340195
 30
0.0
  0
SPLINE
  5
91
330
1F
100
AcDbEntity
  8
0
  6
Continuous
 62
     7
370
    15
100
AcDbSpline
210
0.0
220
0.0
230
1.0
 70
    24
 71
     3
 72
    12
 73
     8
 74
     0
 42
0.00000001
 43
0.00000001
 12
1.0
 22
0.0
 32
0.0
 13
1.0
 23
0.0
 33
0.0
 40
0.0
 40
0.0
 40
0.0
 40
0.0
 40
0.5000000000000017
 40
0.5000000000000017
 40
0.7500000000000008
 40
0.7500000000000008
 40
1.0
 40
1.0
 40
1.0
 40
1.0
 10
121.126978441484
 20
140.7988082340195
 30
0.0
 10
121.0838928918731
 20
140.7988082340195
 30
0.0
 10
121.0347406901238
 20
140.7988082340195
 30
0.0
 10
120.9382680958359
 20
140.7988082340195
 30
0.0
 10
120.9021665107013
 20
140.7988082340195
 30
0.0
 10
120.81906075284
 20
140.7988082340195
 30
0.0
 10
120.7710641558737
 20
140.7988082340195
 30
0.0
 10
120.721275973175
 20
140.7988082340195
 30
0.0
  0
SPLINE
  5
92
330
1F
100
AcDbEntity
  8
0
  6
Continuous
 62
     7
370
    15
100
AcDbSpline
210
0.0
220
0.0
230
1.0
 70
     8
 71
     3
 72
    10
 73
     6
 74
     0
 42
0.00000001
 43
0.00000001
 12
1.0
 22
0.0
 32
0.0
 13
1.0
 23
0.0
 33
0.0
 40
0.0
 40
0.0
 40
0.0
 40
0.0
 40
0.5
 40
0.5
 40
1.0
 40
1.0
 40
1.0
 40
1.0
 10
121.521275973175
 20
141.5184620850553
 30
0.0
 10
121.521275973175
 20
141.3746920272373
 30
0.0
 10
121.4852269144561
 20
141.2322726647421
 30
0.0
 10
121.3497180536821
 20
140.9823783713849
 30
0.0
 10
121.2498420605859
 20
140.8743480351367
 30
0.0
 10
121.126978441484
 20
140.7988082340195
 30
0.0
  0
SPLINE
  5
93
330
1F
100
AcDbEntity
  8
0
  6
Continuous
 62
     7
370
    15
100
AcDbSpline
210
0.0
220
0.0
230
1.0
 70
     8
 71
     3
 72
    10
 73
     6
 74
     0
 42
0.00000001
 43
0.00000001
 12
1.0
 22
0.0
 32
0.0
 13
1.0
 23
0.0
 33
0.0
 40
0.0
 40
0.0
 40
0.0
 40
0.0
 40
0.5
 40
0.5
 40
1.0
 40
1.0
 40
1.0
 40
1.0
 10
121.4951283500149
 20
134.2488082340195
 30
0.0
 10
121.5038179929265
 20
134.2956870833377
 30
0.0
 10
121.510357057677
 20
134.343109548739
 30
0.0
 10
121.5191156920701
 20
134.4390463473258
 30
0.0
 10
121.521275973175
 20
134.4869616353363
 30
0.0
 10
121.521275973175
 20
134.5346748654809
 30
0.0
  0
SPLINE
  5
94
330
1F
100
AcDbEntity
  8
0
  6
Continuous
 62
     7
370
    15
100
AcDbSpline
210
0.0
220
0.0
230
1.0
 70
     8
 71
     3
 72
    10
 73
     6
 74
     0
 42
0.00000001
 43
0.00000001
 12
1.0
 22
0.0
 32
0.0
 13
1.0
 23
0.0
 33
0.0
 40
0.0
 40
0.0
 40
0.0
 40
0.0
 40
0.5
 40
0.5
 40
1.0
 40
1.0
 40
1.0
 40
1.0
 10
118.095573504866
 20
140.7988082340195
 30
0.0
 10
117.9740332411975
 20
140.8735344012313
 30
0.0
 10
117.8726988808485
 20
140.9824794171481
 30
0.0
 10
117.7370599379601
 20
141.2329098979096
 30
0.0
 10
117.701275973175
 20
141.3753292600086
 30
0.0
 10
117.701275973175
 20
141.5184620850553
 30
0.0
  0
SPLINE
  5
95
330
1F
100
AcDbEntity
  8
0
  6
Continuous
 62
     7
370
    15
100
AcDbSpline
210
0.0
220
0.0
230
1.0
 70
    24
 71
     3
 72
    12
 73
     8
 74
     0
 42
0.00000001
 43
0.00000001
 12
1.0
 22
0.0
 32
0.0
 13
1.0
 23
0.0
 33
0.0
 40
0.0
 40
0.0
 40
0.0
 40
0.0
 40
0.2500000000000037
 40
0.2500000000000037
 40
0.5000000000000074
 40
0.5000000000000074
 40
1.0
 40
1.0
 40
1.0
 40
1.0
 10
118.501275973175
 20
140.7988082340195
 30
0.0
 10
118.4513992908576
 20
140.7988082340195
 30
0.0
 10
118.4033960974539
 20
140.7988082340195
 30
0.0
 10
118.320347994742
 20
140.7988082340195
 30
0.0
 10
118.2842184152741
 20
140.7988082340195
 30
0.0
 10
118.1883063843299
 20
140.7988082340195
 30
0.0
 10
118.1385477163611
 20
140.7988082340195
 30
0.0
 10
118.095573504866
 20
140.7988082340195
 30
0.0
  0
SPLINE
  5
96
330
1F
100
AcDbEntity
  8
0
  6
Continuous
 62
     7
370
    15
100
AcDbSpline
210
0.0
220
0.0
230
1.0
 70
    24
 71
     3
 72
    14
 73
    10
 74
     0
 42
0.00000001
 43
0.00000001
 12
1.0
 22
0.0
 32
0.0
 13
1.0
 23
0.0
 33
0.0
 40
0.0
 40
0.0
 40
0.0
 40
0.0
 40
0.1249999999999991
 40
0.1249999999999991
 40
0.2499999999999982
 40
0.2499999999999982
 40
0.4999999999999998
 40
0.4999999999999998
 40
1.0
 40
1.0
 40
1.0
 40
1.0
 10
118.501275973175
 20
87.9988082340195
 30
0.0
 10
118.4328381252886
 20
87.9988082340195
 30
0.0
 10
118.3672880865235
 20
87.99880823401952
 30
0.0
 10
118.2628614471156
 20
87.99880823401952
 30
0.0
 10
118.2203168373541
 20
87.99880823401952
 30
0.0
 10
118.1077073768139
 20
87.9988082340195
 30
0.0
 10
118.0521683297944
 20
87.9988082340195
 30
0.0
 10
117.9095566343306
 20
87.9988082340195
 30
0.0
 10
117.8461512793348
 20
87.9988082340195
 30
0.0
 10
117.7989507755073
 20
87.9988082340195
 30
0.0
  0
SPLINE
  5
97
330
1F
100
AcDbEntity
  8
0
  6
Continuous
 62
     7
370
    15
100
AcDbSpline
210
0.0
220
0.0
230
1.0
 70
     8
 71
     3
 72
    10
 73
     6
 74
     0
 42
0.00000001
 43
0.00000001
 12
1.0
 22
0.0
 32
0.0
 13
1.0
 23
0.0
 33
0.0
 40
0.0
 40
0.0
 40
0.0
 40
0.0
 40
0.5
 40
0.5
 40
1.0
 40
1.0
 40
1.0
 40
1.0
 10
117.701275973175
 20
134.5346748654809
 30
0.0
 10
117.701275973175
 20
134.4869033574876
 30
0.0
 10
117.7034372167722
 20
134.4391936354259
 30
0.0
 10
117.7121085906323
 20
134.3438985178776
 30
0.0
 10
117.7186377735883
 20
134.296205953911
 30
0.0
 10
117.7274235963351
 20
134.2488082340195
 30
0.0
  0
LINE
  5
98
330
1F
100
AcDbEntity
  8
0
  6
Continuous
 62
     7
370
    15
100
AcDbLine
 10
120.7212759732
 20
140.798808234
 30
0.0
 11
118.5012759732
 21
140.798808234
 31
0.0
  0
LINE
  5
99
330
1F
100
AcDbEntity
  8
0
  6
Continuous
 62
     7
370
    15
100
AcDbLine
 10
120.7212759732
 20
87.998808234
 30
0.0
 11
118.5012759732
 21
87.998808234
 31
0.0
  0
LINE
  5
9A
330
1F
100
AcDbEntity
  8
0
  6
Continuous
 62
     7
370
    15
100
AcDbLine
 10
79.8112759732
 20
91.1703613402
 30
0.0
 11
79.8112759732
 21
92.4350707028
 31
0.0
  0
SPLINE
  5
9B
330
1F
100
AcDbEntity
  8
0
  6
Continuous
 62
     7
370
    15
100
AcDbSpline
210
0.0
220
0.0
230
1.0
 70
     8
 71
     3
 72
    14
 73
    10
 74
     0
 42
0.00000001
 43
0.00000001
 12
1.0
 22
0.0
 32
0.0
 13
1.0
 23
0.0
 33
0.0
 40
0.0
 40
0.0
 40
0.0
 40
0.0
 40
0.25
 40
0.25
 40
0.5
 40
0.5
 40
0.75
 40
0.75
 40
1.0
 40
1.0
 40
1.0
 40
1.0
 10
79.0329888552593
 20
93.56565691045957
 30
0.0
 10
79.08961553046137
 20
93.4579594566227
 30
0.0
 10
79.1841381907511
 20
93.35516987490338
 30
0.0
 10
79.36718316631334
 20
93.15681256268324
 30
0.0
 10
79.45880974326805
 20
93.06075305400499
 30
0.0
 10
79.61766306096125
 20
92.87322401129575
 30
0.0
 10
79.68555366858295
 20
92.78181503851218
 30
0.0
 10
79.78247069429054
 20
92.60343881760204
 30
0.0
 10
79.81127597317558
 20
92.51621691135587
 30
0.0
 10
79.81127597317558
 20
92.43507070282162
 30
0.0
  0
SPLINE
  5
9C
330
1F
100
AcDbEntity
  8
0
  6
Continuous
 62
     7
370
    15
100
AcDbSpline
210
0.0
220
0.0
230
1.0
 70
     8
 71
     3
 72
    14
 73
    10
 74
     0
 42
0.00000001
 43
0.00000001
 12
1.0
 22
0.0
 32
0.0
 13
1.0
 23
0.0
 33
0.0
 40
0.0
 40
0.0
 40
0.0
 40
0.0
 40
0.1249999999999975
 40
0.1249999999999975
 40
0.249999999999995
 40
0.249999999999995
 40
0.4999999999999953
 40
0.4999999999999953
 40
1.0
 40
1.0
 40
1.0
 40
1.0
 10
78.41127597317501
 20
94.01233877273889
 30
0.0
 10
78.45982038183217
 20
94.01808708601918
 30
0.0
 10
78.51273573661709
 20
94.01498619736294
 30
0.0
 10
78.60803108160013
 20
93.99279135320062
 30
0.0
 10
78.64828207888507
 20
93.97555912610476
 30
0.0
 10
78.75255209239805
 20
93.9192312096527
 30
0.0
 10
78.80287406755137
 20
93.87504486370689
 30
0.0
 10
78.93055701507676
 20
93.74403696485626
 30
0.0
 10
78.98664246213902
 20
93.65380244462597
 30
0.0
 10
79.03298885526075
 20
93.56565691046009
 30
0.0
  0
SPLINE
  5
9D
330
1F
100
AcDbEntity
  8
0
  6
Continuous
 62
     7
370
    15
100
AcDbSpline
210
0.0
220
0.0
230
1.0
 70
     8
 71
     3
 72
     8
 73
     4
 74
     0
 42
0.00000001
 43
0.00000001
 12
1.0
 22
0.0
 32
0.0
 13
1.0
 23
0.0
 33
0.0
 40
0.0
 40
0.0
 40
0.0
 40
0.0
 40
1.0
 40
1.0
 40
1.0
 40
1.0
 10
76.14275088022879
 20
93.7024934861561
 30
0.0
 10
76.87732790671174
 20
93.82111849722504
 30
0.0
 10
77.6408029761074
 20
93.92110436936133
 30
0.0
 10
78.41127597317501
 20
94.01233877273887
 30
0.0
  0
SPLINE
  5
9E
330
1F
100
AcDbEntity
  8
0
  6
Continuous
 62
     7
370
    15
100
AcDbSpline
210
0.0
220
0.0
230
1.0
 70
     8
 71
     3
 72
    14
 73
    10
 74
     0
 42
0.00000001
 43
0.00000001
 12
1.0
 22
0.0
 32
0.0
 13
1.0
 23
0.0
 33
0.0
 40
0.0
 40
0.0
 40
0.0
 40
0.0
 40
0.500000000000001
 40
0.500000000000001
 40
0.7500000000000004
 40
0.7500000000000004
 40
0.8750000000000003
 40
0.8750000000000003
 40
1.0
 40
1.0
 40
1.0
 40
1.0
 10
70.86127597317501
 20
93.52887046862445
 30
0.0
 10
71.7534221037286
 20
93.5281482424238
 30
0.0
 10
72.6433985395222
 20
93.53273444888126
 30
0.0
 10
73.96999370659779
 20
93.5604594532728
 30
0.0
 10
74.41084063509653
 20
93.57306599089696
 30
0.0
 10
75.06728087251895
 20
93.60408213890442
 30
0.0
 10
75.28529452911083
 20
93.61642531153119
 30
0.0
 10
75.71800338279361
 20
93.64944936669447
 30
0.0
 10
75.93327984795839
 20
93.66866653183291
 30
0.0
 10
76.1427508802288
 20
93.7024934861561
 30
0.0
  0
SPLINE
  5
9F
330
1F
100
AcDbEntity
  8
0
  6
Continuous
 62
     7
370
    15
100
AcDbSpline
210
0.0
220
0.0
230
1.0
 70
     8
 71
     3
 72
     8
 73
     4
 74
     0
 42
0.00000001
 43
0.00000001
 12
1.0
 22
0.0
 32
0.0
 13
1.0
 23
0.0
 33
0.0
 40
0.0000005163856712
 40
0.0000005163856712
 40
0.0000005163856712
 40
0.0000005163856712
 40
0.000026289209185
 40
0.000026289209185
 40
0.000026289209185
 40
0.000026289209185
 10
70.85123104275632
 20
93.53885434173232
 30
0.0
 10
70.8545587809678
 20
93.53552009485949
 30
0.0
 10
70.8579072339471
 20
93.53219213758048
 30
0.0
 10
70.86127597317498
 20
93.52887046862443
 30
0.0
  0
SPLINE
  5
A0
330
1F
100
AcDbEntity
  8
0
  6
Continuous
 62
     7
370
    15
100
AcDbSpline
210
0.0
220
0.0
230
1.0
 70
     8
 71
     3
 72
     8
 73
     4
 74
     0
 42
0.00000001
 43
0.00000001
 12
1.0
 22
0.0
 32
0.0
 13
1.0
 23
0.0
 33
0.0
 40
0.0000005099763573
 40
0.0000005099763573
 40
0.0000005099763573
 40
0.0000005099763573
 40
0.0000262827998699
 40
0.0000262827998699
 40
0.0000262827998699
 40
0.0000262827998699
 10
70.86127597317498
 20
135.2687459994146
 30
0.0
 10
70.85790723394726
 20
135.2654243304587
 30
0.0
 10
70.85455878096812
 20
135.2620963731798
 30
0.0
 10
70.8512310427568
 20
135.2587621263072
 30
0.0
  0
SPLINE
  5
A1
330
1F
100
AcDbEntity
  8
0
  6
Continuous
 62
     7
370
    15
100
AcDbSpline
210
0.0
220
0.0
230
1.0
 70
     8
 71
     3
 72
    10
 73
     6
 74
     0
 42
0.00000001
 43
0.00000001
 12
1.0
 22
0.0
 32
0.0
 13
1.0
 23
0.0
 33
0.0
 40
0.0
 40
0.0
 40
0.0
 40
0.0
 40
0.5
 40
0.5
 40
1.0
 40
1.0
 40
1.0
 40
1.0
 10
74.41127597317501
 20
135.2218956258473
 30
0.0
 10
73.82369042608443
 20
135.2429611460837
 30
0.0
 10
73.23294403262403
 20
135.2537196319559
 30
0.0
 10
72.04892486732518
 20
135.2670844124916
 30
0.0
 10
71.45551087911971
 20
135.2692270551561
 30
0.0
 10
70.86127597317501
 20
135.2687459994146
 30
0.0
  0
SPLINE
  5
A2
330
1F
100
AcDbEntity
  8
0
  6
Continuous
 62
     7
370
    15
100
AcDbSpline
210
0.0
220
0.0
230
1.0
 70
     8
 71
     3
 72
    18
 73
    14
 74
     0
 42
0.00000001
 43
0.00000001
 12
1.0
 22
0.0
 32
0.0
 13
1.0
 23
0.0
 33
0.0
 40
0.0
 40
0.0
 40
0.0
 40
0.0
 40
0.2500000000000009
 40
0.2500000000000009
 40
0.500000000000001
 40
0.500000000000001
 40
0.7500000000000011
 40
0.7500000000000011
 40
0.875000000000001
 40
0.875000000000001
 40
0.9375000000000006
 40
0.9375000000000006
 40
1.0
 40
1.0
 40
1.0
 40
1.0
 10
75.81127597317503
 20
136.2429159063825
 30
0.0
 10
75.81127597317503
 20
136.1597089975253
 30
0.0
 10
75.77542687323675
 20
136.0709723422117
 30
0.0
 10
75.65055513720284
 20
135.8888471516515
 30
0.0
 10
75.56015471955496
 20
135.7937171030249
 30
0.0
 10
75.33791206481278
 20
135.6045355939006
 30
0.0
 10
75.20814727836702
 20
135.5095904258058
 30
0.0
 10
74.9675098210555
 20
135.3713117182259
 30
0.0
 10
74.87974252291805
 20
135.3256012849235
 30
0.0
 10
74.72521843571126
 20
135.2677779797021
 30
0.0
 10
74.6686075496565
 20
135.2500632156642
 30
0.0
 10
74.5445635187499
 20
135.2255239124313
 30
0.0
 10
74.47684884373162
 20
135.219544773893
 30
0.0
 10
74.41127597317501
 20
135.2218956258473
 30
0.0
  0
LINE
  5
A3
330
1F
100
AcDbEntity
  8
0
  6
Continuous
 62
     7
370
    15
100
AcDbLine
 10
75.8112759732
 20
136.2429159064
 30
0.0
 11
75.8112759732
 21
137.4268543262
 31
0.0
  0
LINE
  5
A4
330
1F
100
AcDbEntity
  8
0
  6
Continuous
 62
     7
370
    15
100
AcDbLine
 10
99.6112759732
 20
90.1783773723
 30
0.0
 11
99.6112759732
 21
138.6192390957
 31
0.0
  0
SPLINE
  5
A5
330
1F
100
AcDbEntity
  8
0
  6
Continuous
 62
     7
370
    15
100
AcDbSpline
210
0.0
220
0.0
230
1.0
 70
     8
 71
     3
 72
    18
 73
    14
 74
     0
 42
0.00000001
 43
0.00000001
 12
1.0
 22
0.0
 32
0.0
 13
1.0
 23
0.0
 33
0.0
 40
0.0
 40
0.0
 40
0.0
 40
0.0
 40
0.0010671296451833
 40
0.1270947795731636
 40
0.252405345751277
 40
0.3766468878987096
 40
0.4391415999051428
 40
0.5008278021400407
 40
0.562425570880851
 40
0.6253162439161144
 40
0.7499985144706706
 40
0.8752758950341252
 40
0.9999999999999999
 40
0.9999999999999999
 40
0.9999999999999999
 40
0.9999999999999999
 10
88.38157681324768
 20
90.74146921110317
 30
0.0
 10
88.38066498060918
 20
90.74135443256654
 30
0.0
 10
88.27206602197224
 20
90.72768434770065
 30
0.0
 10
88.65970708962209
 20
90.77860384831621
 30
0.0
 10
89.52567177145721
 20
90.8781870213627
 30
0.0
 10
90.72607569622706
 20
90.9473109045064
 30
0.0
 10
91.78365161071578
 20
90.9512631336452
 30
0.0
 10
92.61078569762194
 20
90.92377419519018
 30
0.0
 10
93.4360575652562
 20
90.86523401878239
 30
0.0
 10
94.49042278525617
 20
90.75171285904682
 30
0.0
 10
95.65225906673147
 20
90.56856203479818
 30
0.0
 10
96.60449384811507
 20
90.36395882516327
 30
0.0
 10
96.73019890892293
 20
90.3346734743872
 30
0.0
 10
96.79291234106813
 20
90.3200632045465
 30
0.0
  0
SPLINE
  5
A6
330
1F
100
AcDbEntity
  8
0
  6
Continuous
 62
     7
370
    15
100
AcDbSpline
210
0.0
220
0.0
230
1.0
 70
     8
 71
     3
 72
    18
 73
    14
 74
     0
 42
0.00000001
 43
0.00000001
 12
1.0
 22
0.0
 32
0.0
 13
1.0
 23
0.0
 33
0.0
 40
0.0
 40
0.0
 40
0.0
 40
0.0
 40
0.1248907792210109
 40
0.2505384020341698
 40
0.3748721840485282
 40
0.437490765334968
 40
0.4990776265894272
 40
0.5607931536353509
 40
0.6233901338664932
 40
0.7478191038417344
 40
0.8731940995934958
 40
0.9991614644710078
 40
0.9999999999999999
 40
0.9999999999999999
 40
0.9999999999999999
 40
0.9999999999999999
 10
96.7926935755442
 20
138.4774880829382
 30
0.0
 10
96.72895282283258
 20
138.4628267903401
 30
0.0
 10
96.60108504565609
 20
138.4334153570686
 30
0.0
 10
95.64908582459569
 20
138.2284622530062
 30
0.0
 10
94.48854211939242
 20
138.0451984771952
 30
0.0
 10
93.43627766730431
 20
137.9321708849463
 30
0.0
 10
92.6120505522367
 20
137.873907237405
 30
0.0
 10
91.78444678271629
 20
137.8464608494008
 30
0.0
 10
90.72562959023122
 20
137.8504456553299
 30
0.0
 10
89.52341089219622
 20
137.9195351317113
 30
0.0
 10
88.65822695250893
 20
138.019161348268
 30
0.0
 10
88.27208653097871
 20
138.0699774218685
 30
0.0
 10
88.38015807175907
 20
138.0563052418054
 30
0.0
 10
88.38087272167935
 20
138.056214831117
 30
0.0
  0
SPLINE
  5
A7
330
1F
100
AcDbEntity
  8
0
  6
Continuous
 62
     7
370
    15
100
AcDbSpline
210
0.0
220
0.0
230
1.0
 70
     8
 71
     3
 72
    39
 73
    35
 74
     0
 42
0.00000001
 43
0.00000001
 12
1.0
 22
0.0
 32
0.0
 13
1.0
 23
0.0
 33
0.0
 40
-0.0929035514947508
 40
-0.0617844675329996
 40
-0.0305606518841992
 40
0.0
 40
0.0305833544994085
 40
0.0618207632592327
 40
0.0929574073290301
 40
0.1240731578172552
 40
0.1552546267400193
 40
0.1868126884169077
 40
0.2185638838494427
 40
0.2499315075259905
 40
0.2813251124600524
 40
0.3131464055674541
 40
0.3447816985832688
 40
0.3760142222481852
 40
0.4071224531652368
 40
0.4382110606589154
 40
0.4693931316497309
 40
0.5000117158875056
 40
0.5306249294239965
 40
0.5618454474694816
 40
0.5929501996329427
 40
0.6240749381357374
 40
0.6552854313530191
 40
0.6868966152747532
 40
0.7186677897669522
 40
0.7500607090514089
 40
0.7814251173832354
 40
0.8132188904408767
 40
0.8447997037956982
 40
0.876002256247937
 40
0.9070964485052492
 40
0.9382155324670004
 40
0.9694393481158008
 40
1.0
 40
1.030583354499409
 40
1.061820763259233
 40
1.09295740732903
 10
209.4455151367398
 20
107.545917842019
 30
0.0
 10
208.1109445629878
 20
107.4098934328403
 30
0.0
 10
206.7761981103824
 20
107.5461304316481
 30
0.0
 10
205.4955597507968
 20
107.9548014512778
 30
0.0
 10
204.3126275404359
 20
108.596256851962
 30
0.0
 10
203.287010803025
 20
109.460420291902
 30
0.0
 10
202.4443905056129
 20
110.5116812042177
 30
0.0
 10
201.8200258099106
 20
111.720239031516
 30
0.0
 10
201.4232715404994
 20
113.0307758556831
 30
0.0
 10
201.2918541025335
 20
114.3961194048452
 30
0.0
 10
201.4241211481267
 20
115.7623803703128
 30
0.0
 10
201.8214640423043
 20
117.0753036387957
 30
0.0
 10
202.4462118411489
 20
118.2868679429976
 30
0.0
 10
203.2895078690781
 20
119.3398228458181
 30
0.0
 10
204.3147727590675
 20
120.2042399879781
 30
0.0
 10
205.4962409171804
 20
120.8451519190029
 30
0.0
 10
206.7764087280434
 20
121.252351216175
 30
0.0
 10
208.1116639562254
 20
121.3875035551953
 30
0.0
 10
209.4474393723283
 20
121.2519380330024
 30
0.0
 10
210.728107522843
 20
120.8440096197865
 30
0.0
 10
211.910390361639
 20
120.2024637666136
 30
0.0
 10
212.9353726203061
 20
119.3374246822631
 30
0.0
 10
213.777888469786
 20
118.2844276201524
 30
0.0
 10
214.4018399101785
 20
117.0739886412333
 30
0.0
 10
214.798376911104
 20
115.7619720325272
 30
0.0
 10
214.93068414396
 20
114.3965318573991
 30
0.0
 10
214.7993954226796
 20
113.0305899306698
 30
0.0
 10
214.402024381279
 20
111.7192844276589
 30
0.0
 10
213.7770156355183
 20
110.5096724137373
 30
0.0
 10
212.9336991326686
 20
109.4585198375088
 30
0.0
 10
211.9078673188539
 20
108.5950328178562
 30
0.0
 10
210.7254390041176
 20
107.9542699486634
 30
0.0
 10
209.4455151367398
 20
107.545917842019
 30
0.0
 10
208.1109445629878
 20
107.4098934328403
 30
0.0
 10
206.7761981103824
 20
107.5461304316481
 30
0.0
  0
LINE
  5
A8
330
1F
100
AcDbEntity
  8
0
  6
Continuous
 62
     7
370
    15
100
AcDbLine
 10
220.8887413706
 20
90.398808234
 30
0.0
 11
220.8887413706
 21
138.398808234
 31
0.0
  0
SPLINE
  5
A9
330
1F
100
AcDbEntity
  8
0
  6
Continuous
 62
     7
370
    15
100
AcDbSpline
210
0.0
220
0.0
230
1.0
 70
     8
 71
     3
 72
     9
 73
     5
 74
     0
 42
0.00000001
 43
0.00000001
 12
1.0
 22
0.0
 32
0.0
 13
1.0
 23
0.0
 33
0.0
 40
0.0
 40
0.0
 40
0.0
 40
0.0
 40
0.7009329310330151
 40
1.0
 40
1.0
 40
1.0
 40
1.0
 10
69.73206065741047
 20
94.6975279299169
 30
0.0
 10
69.74119993408576
 20
94.67969864437536
 30
0.0
 10
69.75423866613936
 20
94.6542621371831
 30
0.0
 10
69.76940391990468
 20
94.70814199737487
 30
0.0
 10
69.7739393478984
 20
94.72425568923879
 30
0.0
  0
LINE
  5
AA
330
1F
100
AcDbEntity
  8
0
  6
Continuous
 62
     7
370
    15
100
AcDbLine
 10
69.7112759732
 20
94.7081304875
 30
0.0
 11
69.7112759732
 21
134.0894859805
 31
0.0
  0
SPLINE
  5
AB
330
1F
100
AcDbEntity
  8
0
  6
Continuous
 62
     7
370
    15
100
AcDbSpline
210
0.0
220
0.0
230
1.0
 70
     8
 71
     3
 72
    10
 73
     6
 74
     0
 42
0.00000001
 43
0.00000001
 12
1.0
 22
0.0
 32
0.0
 13
1.0
 23
0.0
 33
0.0
 40
0.0
 40
0.0
 40
0.0
 40
0.0
 40
0.5
 40
0.5
 40
1.0
 40
1.0
 40
1.0
 40
1.0
 10
69.7739393478984
 20
134.0733607788002
 30
0.0
 10
69.76503505878966
 20
134.1191022980134
 30
0.0
 10
69.7485196785967
 20
134.1362931374824
 30
0.0
 10
69.72141173253507
 20
134.1359698605467
 30
0.0
 10
69.71127597317503
 20
134.1180923182503
 30
0.0
 10
69.71127597317502
 20
134.0894859804977
 30
0.0
  0
SPLINE
  5
AC
330
1F
100
AcDbEntity
  8
0
  6
Continuous
 62
     7
370
    15
100
AcDbSpline
210
0.0
220
0.0
230
1.0
 70
     8
 71
     3
 72
    26
 73
    22
 74
     0
 42
0.00000001
 43
0.00000001
 12
1.0
 22
0.0
 32
0.0
 13
1.0
 23
0.0
 33
0.0
 40
0.0
 40
0.0
 40
0.0
 40
0.0
 40
0.2500000000000165
 40
0.2500000000000165
 40
0.3750000000000256
 40
0.3750000000000256
 40
0.4375000000000291
 40
0.4375000000000291
 40
0.4687500000000291
 40
0.4687500000000291
 40
0.5000000000000292
 40
0.5000000000000292
 40
0.5312500000000293
 40
0.5312500000000293
 40
0.5625000000000293
 40
0.5625000000000293
 40
0.625000000000026
 40
0.625000000000026
 40
0.7500000000000173
 40
0.7500000000000173
 40
1.0
 40
1.0
 40
1.0
 40
1.0
 10
70.53542961927953
 20
134.7889275676173
 30
0.0
 10
70.49682909641106
 20
134.6711528712619
 30
0.0
 10
70.4505320938568
 20
134.5467631851
 30
0.0
 10
70.35659274542286
 20
134.3415438527465
 30
0.0
 10
70.3212812785094
 20
134.2699709863001
 30
0.0
 10
70.25510130276375
 20
134.1540177536996
 30
0.0
 10
70.23056293609551
 20
134.1134332188894
 30
0.0
 10
70.18719019054171
 20
134.0492915370176
 30
0.0
 10
70.1716817891165
 20
134.0274251117326
 30
0.0
 10
70.1366391445295
 20
133.9818308433894
 30
0.0
 10
70.11708885380972
 20
133.958160552422
 30
0.0
 10
70.07516157343913
 20
133.913543993082
 30
0.0
 10
70.05250946320749
 20
133.8926639805641
 30
0.0
 10
70.01153574912084
 20
133.8617905668133
 30
0.0
 10
69.99393644922542
 20
133.8519516969808
 30
0.0
 10
69.94930946336927
 20
133.8329620812847
 30
0.0
 10
69.92875024071593
 20
133.8326377566313
 30
0.0
 10
69.87762480121927
 20
133.8418611975075
 30
0.0
 10
69.85671338823074
 20
133.8631080937245
 30
0.0
 10
69.80526348066981
 20
133.9370769725552
 30
0.0
 10
69.78759818136525
 20
134.00319506587
 30
0.0
 10
69.7739393478984
 20
134.0733607788002
 30
0.0
  0
SPLINE
  5
AD
330
1F
100
AcDbEntity
  8
0
  6
Continuous
 62
     7
370
    15
100
AcDbSpline
210
0.0
220
0.0
230
1.0
 70
     8
 71
     3
 72
    10
 73
     6
 74
     0
 42
0.00000001
 43
0.00000001
 12
1.0
 22
0.0
 32
0.0
 13
1.0
 23
0.0
 33
0.0
 40
0.0
 40
0.0
 40
0.0
 40
0.0
 40
0.5
 40
0.5
 40
1.0
 40
1.0
 40
1.0
 40
1.0
 10
70.85123104275681
 20
135.2587621263072
 30
0.0
 10
70.78367178783859
 20
135.1910707334974
 30
0.0
 10
70.72003513250208
 20
135.1163635687438
 30
0.0
 10
70.6098143779302
 20
134.9573974363171
 30
0.0
 10
70.56299808470759
 20
134.8730421703092
 30
0.0
 10
70.53542961927953
 20
134.7889275676173
 30
0.0
  0
SPLINE
  5
AE
330
1F
100
AcDbEntity
  8
0
  6
Continuous
 62
     7
370
    15
100
AcDbSpline
210
0.0
220
0.0
230
1.0
 70
     8
 71
     3
 72
    10
 73
     6
 74
     0
 42
0.00000001
 43
0.00000001
 12
1.0
 22
0.0
 32
0.0
 13
1.0
 23
0.0
 33
0.0
 40
0.0
 40
0.0
 40
0.0
 40
0.0
 40
0.5
 40
0.5
 40
1.0
 40
1.0
 40
1.0
 40
1.0
 10
70.53542961927955
 20
94.00868890042155
 30
0.0
 10
70.56290703403278
 20
93.92485210395596
 30
0.0
 10
70.60961566432043
 20
93.84054161636912
 30
0.0
 10
70.71989412706237
 20
93.68142038588626
 30
0.0
 10
70.78378166567401
 20
93.60643564179819
 30
0.0
 10
70.85123104275635
 20
93.53885434173232
 30
0.0
  0
SPLINE
  5
AF
330
1F
100
AcDbEntity
  8
0
  6
Continuous
 62
     7
370
    15
100
AcDbSpline
210
0.0
220
0.0
230
1.0
 70
     8
 71
     3
 72
    24
 73
    20
 74
     0
 42
0.00000001
 43
0.00000001
 12
1.0
 22
0.0
 32
0.0
 13
1.0
 23
0.0
 33
0.0
 40
0.0
 40
0.0
 40
0.0
 40
0.0
 40
0.25
 40
0.25
 40
0.374999999999999
 40
0.374999999999999
 40
0.4374999999999993
 40
0.4374999999999993
 40
0.4687499999999994
 40
0.4687499999999994
 40
0.4999999999999995
 40
0.4999999999999995
 40
0.5624999999999971
 40
0.5624999999999971
 40
0.6249999999999947
 40
0.6249999999999947
 40
0.7499999999999947
 40
0.7499999999999947
 40
1.0
 40
1.0
 40
1.0
 40
1.0
 10
69.7739393478984
 20
94.72425568923879
 30
0.0
 10
69.78769246656866
 20
94.79490574722907
 30
0.0
 10
69.80546503397451
 20
94.86150385999397
 30
0.0
 10
69.85771612552988
 20
94.9356018802272
 30
0.0
 10
69.87875120111143
 20
94.95685968738874
 30
0.0
 10
69.93165160873987
 20
94.965005613535
 30
0.0
 10
69.95275728161779
 20
94.96406581013922
 30
0.0
 10
69.99880945029574
 20
94.94304981856187
 30
0.0
 10
70.01717992227914
 20
94.93214101245425
 30
0.0
 10
70.05873155734486
 20
94.89950610150689
 30
0.0
 10
70.08129823010175
 20
94.87801412113554
 30
0.0
 10
70.14407924656177
 20
94.8095481775492
 30
0.0
 10
70.17720900752965
 20
94.76347371934412
 30
0.0
 10
70.23412669401469
 20
94.67846583100945
 30
0.0
 10
70.25831271951846
 20
94.63818552982805
 30
0.0
 10
70.32352066989822
 20
94.52324930336212
 30
0.0
 10
70.35823673008946
 20
94.45266631821511
 30
0.0
 10
70.45145200042033
 20
94.2484605591365
 30
0.0
 10
70.49712453578101
 20
94.12556217680914
 30
0.0
 10
70.53542961927955
 20
94.00868890042157
 30
0.0
  0
SPLINE
  5
B0
330
1F
100
AcDbEntity
  8
0
  6
Continuous
 62
     7
370
    15
100
AcDbSpline
210
0.0
220
0.0
230
1.0
 70
     8
 71
     3
 72
     8
 73
     4
 74
     0
 42
0.00000001
 43
0.00000001
 12
1.0
 22
0.0
 32
0.0
 13
1.0
 23
0.0
 33
0.0
 40
0.0
 40
0.0
 40
0.0
 40
0.0
 40
1.0
 40
1.0
 40
1.0
 40
1.0
 10
123.0032088046641
 20
144.8660037071838
 30
0.0
 10
122.5080687752997
 20
143.9793240590035
 30
0.0
 10
122.0139860700208
 20
143.0920614233175
 30
0.0
 10
121.521275973175
 20
142.2040424251911
 30
0.0
  0
LINE
  5
B1
330
1F
100
AcDbEntity
  8
0
  6
Continuous
 62
     7
370
    15
100
AcDbLine
 10
123.0032088047
 20
138.8574978964
 30
0.0
 11
123.0032088047
 21
144.8660037072
 31
0.0
  0
SPLINE
  5
B2
330
1F
100
AcDbEntity
  8
0
  6
Continuous
 62
     7
370
    15
100
AcDbSpline
210
0.0
220
0.0
230
1.0
 70
     8
 71
     3
 72
     8
 73
     4
 74
     0
 42
0.00000001
 43
0.00000001
 12
1.0
 22
0.0
 32
0.0
 13
1.0
 23
0.0
 33
0.0
 40
0.0
 40
0.0
 40
0.0
 40
0.0
 40
1.0
 40
1.0
 40
1.0
 40
1.0
 10
121.521275973175
 20
135.4489519016028
 30
0.0
 10
122.0005541237649
 20
136.5899631314554
 30
0.0
 10
122.4961219629048
 20
137.7263475422233
 30
0.0
 10
123.0032088046641
 20
138.857497896387
 30
0.0
  0
LINE
  5
B3
330
1F
100
AcDbEntity
  8
0
  6
Continuous
 62
     7
370
    15
100
AcDbLine
 10
121.5212759732
 20
135.4489519016
 30
0.0
 11
121.5212759732
 21
142.2040424252
 31
0.0
  0
LINE
  5
B4
330
1F
100
AcDbEntity
  8
0
  6
Continuous
 62
     7
370
    15
100
AcDbLine
 10
126.9612759732
 20
144.8660037072
 30
0.0
 11
123.0032088047
 21
144.8660037072
 31
0.0
  0
LINE
  5
B5
330
1F
100
AcDbEntity
  8
0
  6
Continuous
 62
     7
370
    15
100
AcDbLine
 10
123.0032088047
 20
138.8574978964
 30
0.0
 11
126.9612759732
 21
138.8574978964
 31
0.0
  0
SPLINE
  5
B6
330
1F
100
AcDbEntity
  8
0
  6
Continuous
 62
     7
370
    15
100
AcDbSpline
210
0.0
220
0.0
230
1.0
 70
     8
 71
     3
 72
    10
 73
     6
 74
     0
 42
0.00000001
 43
0.00000001
 12
1.0
 22
0.0
 32
0.0
 13
1.0
 23
0.0
 33
0.0
 40
0.0
 40
0.0
 40
0.0
 40
0.0
 40
0.5
 40
0.5
 40
1.0
 40
1.0
 40
1.0
 40
1.0
 10
127.561275973175
 20
144.2452485577834
 30
0.0
 10
127.561275973175
 20
144.4056538241342
 30
0.0
 10
127.4990381420681
 20
144.5647156371228
 30
0.0
 10
127.2799032183256
 20
144.7956281027531
 30
0.0
 10
127.1223145233337
 20
144.8660037071838
 30
0.0
 10
126.961275973175
 20
144.8660037071838
 30
0.0
  0
SPLINE
  5
B7
330
1F
100
AcDbEntity
  8
0
  6
Continuous
 62
     7
370
    15
100
AcDbSpline
210
0.0
220
0.0
230
1.0
 70
     8
 71
     3
 72
    12
 73
     8
 74
     0
 42
0.00000001
 43
0.00000001
 12
1.0
 22
0.0
 32
0.0
 13
1.0
 23
0.0
 33
0.0
 40
0.0
 40
0.0
 40
0.0
 40
0.0
 40
0.25
 40
0.25
 40
0.5
 40
0.5
 40
1.0
 40
1.0
 40
1.0
 40
1.0
 10
126.961275973175
 20
138.857497896387
 30
0.0
 10
127.0524756950007
 20
138.857497896387
 30
0.0
 10
127.1430707041367
 20
138.8292781977991
 30
0.0
 10
127.2964834305833
 20
138.734835190551
 30
0.0
 10
127.361692297907
 20
138.6685482138457
 30
0.0
 10
127.514476827247
 20
138.4429233905574
 30
0.0
 10
127.561275973175
 20
138.2604971275248
 30
0.0
 10
127.561275973175
 20
138.0797604952779
 30
0.0
  0
LINE
  5
B8
330
1F
100
AcDbEntity
  8
0
  6
Continuous
 62
     7
370
    15
100
AcDbLine
 10
127.5612759732
 20
138.0797604953
 30
0.0
 11
127.5612759732
 21
144.2452485578
 31
0.0
  0
SPLINE
  5
B9
330
1F
100
AcDbEntity
  8
0
  6
Continuous
 62
     7
370
    15
100
AcDbSpline
210
0.0
220
0.0
230
1.0
 70
     8
 71
     3
 72
     8
 73
     4
 74
     0
 42
0.00000001
 43
0.00000001
 12
1.0
 22
0.0
 32
0.0
 13
1.0
 23
0.0
 33
0.0
 40
0.0
 40
0.0
 40
0.0
 40
0.0
 40
1.0
 40
1.0
 40
1.0
 40
1.0
 10
116.219343141686
 20
138.857497896387
 30
0.0
 10
116.7264299834452
 20
137.7263475422233
 30
0.0
 10
117.2219978225852
 20
136.5899631314554
 30
0.0
 10
117.701275973175
 20
135.4489519016028
 30
0.0
  0
LINE
  5
BA
330
1F
100
AcDbEntity
  8
0
  6
Continuous
 62
     7
370
    15
100
AcDbLine
 10
117.7012759732
 20
135.4489519016
 30
0.0
 11
117.7012759732
 21
134.5346748655
 31
0.0
  0
SPLINE
  5
BB
330
1F
100
AcDbEntity
  8
0
  6
Continuous
 62
     7
370
    15
100
AcDbSpline
210
0.0
220
0.0
230
1.0
 70
     8
 71
     3
 72
     8
 73
     4
 74
     0
 42
0.00000001
 43
0.00000001
 12
1.0
 22
0.0
 32
0.0
 13
1.0
 23
0.0
 33
0.0
 40
0.0
 40
0.0
 40
0.0
 40
0.0
 40
1.0
 40
1.0
 40
1.0
 40
1.0
 10
117.701275973175
 20
142.2040424251911
 30
0.0
 10
117.2085658763292
 20
143.0920614233175
 30
0.0
 10
116.7144831710503
 20
143.9793240590035
 30
0.0
 10
116.219343141686
 20
144.8660037071838
 30
0.0
  0
LINE
  5
BC
330
1F
100
AcDbEntity
  8
0
  6
Continuous
 62
     7
370
    15
100
AcDbLine
 10
117.7012759732
 20
135.4489519016
 30
0.0
 11
117.7012759732
 21
142.2040424252
 31
0.0
  0
LINE
  5
BD
330
1F
100
AcDbEntity
  8
0
  6
Continuous
 62
     7
370
    15
100
AcDbLine
 10
121.5212759732
 20
134.5346748655
 30
0.0
 11
121.5212759732
 21
135.4489519016
 31
0.0
  0
LINE
  5
BE
330
1F
100
AcDbEntity
  8
0
  6
Continuous
 62
     7
370
    15
100
AcDbLine
 10
127.5612759732
 20
138.0797604953
 30
0.0
 11
127.5612759732
 21
134.248808234
 31
0.0
  0
LINE
  5
BF
330
1F
100
AcDbEntity
  8
0
  6
Continuous
 62
     7
370
    15
100
AcDbLine
 10
231.6112759732
 20
96.6729487556
 30
0.0
 11
231.6112759732
 21
132.1246676964
 31
0.0
  0
ARC
  5
C0
330
1F
100
AcDbEntity
  8
0
  6
Continuous
 62
     7
370
    15
100
AcDbCircle
 10
109.6114860785
 20
133.1286786007
 30
0.0
 40
7.226579600532664
100
AcDbArc
 50
70.8977090435
 51
109.1655022323
  0
CIRCLE
  5
C1
330
1F
100
AcDbEntity
  8
0
  6
HIDDEN
 62
     7
370
     0
100
AcDbCircle
 10
208.1112759732
 20
114.398808234
 30
0.0
 40
6.99999999999999
  0
CIRCLE
  5
C2
330
1F
100
AcDbEntity
  8
0
  6
HIDDEN
 62
     7
370
     0
100
AcDbCircle
 10
208.1112759732
 20
114.398808234
 30
0.0
 40
4.999999999999984
  0
CIRCLE
  5
C3
330
1F
100
AcDbEntity
  8
0
  6
HIDDEN
 62
     7
370
     0
100
AcDbCircle
 10
208.1112759732
 20
114.398808234
 30
0.0
 40
3.749999999999974
  0
LINE
  5
C4
330
1F
100
AcDbEntity
  8
0
  6
HIDDEN
 62
     7
370
     0
100
AcDbLine
 10
116.2193431417
 20
138.8574978964
 30
0.0
 11
116.2193431417
 21
134.248808234
 31
0.0
  0
ARC
  5
C5
330
1F
100
AcDbEntity
  8
0
  6
HIDDEN
 62
     7
370
     0
100
AcDbCircle
 10
109.9125009883
 20
126.8791035558
 30
0.0
 40
3.662788052458457
100
AcDbArc
 50
265.2827092948
 51
12.3014501683
  0
ARC
  5
C6
330
1F
100
AcDbEntity
  8
0
  6
HIDDEN
 62
     7
370
     0
100
AcDbCircle
 10
109.3292080516
 20
126.8907980007
 30
0.0
 40
3.672922165405721
100
AcDbArc
 50
166.4845093491
 51
274.4044574913
  0
LINE
  5
C7
330
1F
100
AcDbEntity
  8
0
  6
HIDDEN
 62
     7
370
     0
100
AcDbLine
 10
89.6064261777
 20
90.8742086112
 30
0.0
 11
89.0722807486
 21
90.8195940117
 31
0.0
  0
LINE
  5
C8
330
1F
100
AcDbEntity
  8
0
  6
HIDDEN
 62
     7
370
     0
100
AcDbLine
 10
88.8346270766
 20
138.0021414145
 30
0.0
 11
89.6063334575
 21
137.923391264
 31
0.0
  0
SPLINE
  5
C9
330
1F
100
AcDbEntity
  8
0
  6
HIDDEN
 62
     7
370
     0
100
AcDbSpline
210
0.0
220
0.0
230
1.0
 70
     8
 71
     3
 72
    13
 73
     9
 74
     0
 42
0.00000001
 43
0.00000001
 12
1.0
 22
0.0
 32
0.0
 13
1.0
 23
0.0
 33
0.0
 40
0.0
 40
0.0
 40
0.0
 40
0.0
 40
0.1709847769598151
 40
0.3419531002489845
 40
0.5131971390673497
 40
0.6843841293660243
 40
0.8508982386837414
 40
1.0
 40
1.0
 40
1.0
 40
1.0
 10
208.1112759731751
 20
108.061081815148
 30
0.0
 10
207.703660486208
 20
108.0801513080015
 30
0.0
 10
206.8884687366488
 20
108.1182884586729
 30
0.0
 10
205.6981364082969
 20
108.4197946874912
 30
0.0
 10
204.574767197683
 20
108.9009128154853
 30
0.0
 10
203.5652265033433
 20
109.5644711500663
 30
0.0
 10
202.7145558588091
 20
110.3521996865683
 30
0.0
 10
202.2983445290861
 20
110.9742992860875
 30
0.0
 10
202.1017199353455
 20
111.2681886453778
 30
0.0
  0
SPLINE
  5
CA
330
1F
100
AcDbEntity
  8
0
  6
HIDDEN
 62
     7
370
     0
100
AcDbSpline
210
0.0
220
0.0
230
1.0
 70
     8
 71
     3
 72
    18
 73
    14
 74
     0
 42
0.00000001
 43
0.00000001
 12
1.0
 22
0.0
 32
0.0
 13
1.0
 23
0.0
 33
0.0
 40
0.0
 40
0.0
 40
0.0
 40
0.0
 40
0.1257140975183768
 40
0.2723420749808123
 40
0.3518346142033921
 40
0.4313394731888953
 40
0.5153791101363968
 40
0.5994176164089554
 40
0.6850384345038225
 40
0.7706388685473322
 40
0.8543089657241213
 40
0.937938649554597
 40
1.0
 40
1.0
 40
1.0
 40
1.0
 10
202.0153166062199
 20
117.3589628046306
 30
0.0
 10
202.3551367975372
 20
117.8655046432598
 30
0.0
 10
203.0913098906957
 20
118.9628569539399
 30
0.0
 10
204.5496877680919
 20
119.912285645843
 30
0.0
 10
205.9265678707025
 20
120.448132288963
 30
0.0
 10
207.082597365768
 20
120.6988456700106
 30
0.0
 10
208.2864972001464
 20
120.7660885017616
 30
0.0
 10
209.5160105397524
 20
120.6413788149997
 30
0.0
 10
210.7126589214413
 20
120.3137839330247
 30
0.0
 10
211.8355947779073
 20
119.7951082289172
 30
0.0
 10
212.831496507215
 20
119.088130182059
 30
0.0
 10
213.6268884913836
 20
118.3086966295904
 30
0.0
 10
213.998513405678
 20
117.7109672530288
 30
0.0
 10
214.1568178899236
 20
117.4563469704927
 30
0.0
  0
SPLINE
  5
CB
330
1F
100
AcDbEntity
  8
0
  6
HIDDEN
 62
     7
370
     0
100
AcDbSpline
210
0.0
220
0.0
230
1.0
 70
     8
 71
     3
 72
    11
 73
     7
 74
     0
 42
0.00000001
 43
0.00000001
 12
1.0
 22
0.0
 32
0.0
 13
1.0
 23
0.0
 33
0.0
 40
0.0
 40
0.0
 40
0.0
 40
0.0
 40
0.194112343209657
 40
0.4583177085027303
 40
0.7442173360172469
 40
1.0
 40
1.0
 40
1.0
 40
1.0
 10
214.4135774691125
 20
111.9030647538643
 30
0.0
 10
214.1849642378955
 20
111.4498036839138
 30
0.0
 10
213.6451866506884
 20
110.379611178387
 30
0.0
 10
212.1315509036076
 20
109.115922866547
 30
0.0
 10
210.2004281424859
 20
108.2184103661597
 30
0.0
 10
208.7813604748929
 20
108.1115441152461
 30
0.0
 10
208.1112759731725
 20
108.0610818151533
 30
0.0
  0
SPLINE
  5
CC
330
1F
100
AcDbEntity
  8
0
  6
HIDDEN
 62
     7
370
     0
100
AcDbSpline
210
0.0
220
0.0
230
1.0
 70
     8
 71
     3
 72
    43
 73
    39
 74
     0
 42
0.00000001
 43
0.00000001
 12
1.0
 22
0.0
 32
0.0
 13
1.0
 23
0.0
 33
0.0
 40
-0.0801624898435038
 40
-0.0624517874774191
 40
-0.0297160539831997
 40
0.0
 40
0.0297073985844776
 40
0.0624149912524689
 40
0.0901337064947566
 40
0.1249567905560827
 40
0.1485103757500053
 40
0.1693705616755075
 40
0.1875422011078711
 40
0.2201296716089547
 40
0.2499386603981739
 40
0.2797521365905021
 40
0.3123513443111138
 40
0.340627575294544
 40
0.3749249989935046
 40
0.3990296689718449
 40
0.4198969595403693
 40
0.4375301221058139
 40
0.4702368940841988
 40
0.4999891146274806
 40
0.5297219999553339
 40
0.5624132421486666
 40
0.5900380497717984
 40
0.6249279837507451
 40
0.6484965424936115
 40
0.6693874599149768
 40
0.6876056206600006
 40
0.7202333973536004
 40
0.7500691566086897
 40
0.7798602090141411
 40
0.812426510136486
 40
0.8406391111792152
 40
0.8749111523669723
 40
0.8989596270891319
 40
0.9198375101564962
 40
0.9375482125225809
 40
0.9702839460168003
 40
1.0
 40
1.029707398584478
 40
1.062414991252469
 40
1.090133706494757
 10
206.9452571121085
 20
108.4733002967525
 30
0.0
 10
208.1111467493064
 20
108.3633661519709
 30
0.0
 10
209.2768026798738
 20
108.47326539267
 30
0.0
 10
210.3711803316047
 20
108.8016485905883
 30
0.0
 10
211.432687542022
 20
109.3557820431449
 30
0.0
 10
212.2765773912064
 20
110.033600433332
 30
0.0
 10
212.9238696956233
 20
110.7834894125762
 30
0.0
 10
213.3495749843363
 20
111.4424699431199
 30
0.0
 10
213.7417846676639
 20
112.2513917149176
 30
0.0
 10
214.0361573104205
 20
113.229964481137
 30
0.0
 10
214.1469574473945
 20
114.3964839138823
 30
0.0
 10
214.0370061995252
 20
115.5633567763959
 30
0.0
 10
213.706621303876
 20
116.664707413403
 30
0.0
 10
213.1509338379558
 20
117.7253779599165
 30
0.0
 10
212.4671814007879
 20
118.5737724581876
 30
0.0
 10
211.7158067124901
 20
119.2201022800419
 30
0.0
 10
211.0554025814671
 20
119.6435110641729
 30
0.0
 10
210.2509561617483
 20
120.031851850267
 30
0.0
 10
209.278249506927
 20
120.3241367128699
 30
0.0
 10
208.1119508111323
 20
120.4343242331335
 30
0.0
 10
206.9457053149158
 20
120.3243548631533
 30
0.0
 10
205.8523661220466
 20
119.9962267435155
 30
0.0
 10
204.791245817367
 20
119.4427109874045
 30
0.0
 10
203.9471650275632
 20
118.765289720459
 30
0.0
 10
203.2988307668504
 20
118.0143923172612
 30
0.0
 10
202.8724905425907
 20
117.3544066617766
 30
0.0
 10
202.4798335480781
 20
116.5440225167705
 30
0.0
 10
202.1855674694225
 20
115.5638889726111
 30
0.0
 10
202.0755892335553
 20
114.3967175593042
 30
0.0
 10
202.1863973417634
 20
113.2302930047551
 30
0.0
 10
202.5169921182659
 20
112.1306040419985
 30
0.0
 10
203.0722318007084
 20
111.0715113201152
 30
0.0
 10
203.7548021438146
 20
110.2245719149297
 30
0.0
 10
204.5053052062457
 20
109.578643177783
 30
0.0
 10
205.1658830029438
 20
109.154740790107
 30
0.0
 10
205.9716315078782
 20
108.7656413999589
 30
0.0
 10
206.9452571121085
 20
108.4733002967525
 30
0.0
 10
208.1111467493064
 20
108.3633661519709
 30
0.0
 10
209.2768026798738
 20
108.47326539267
 30
0.0
  0
SPLINE
  5
CD
330
1F
100
AcDbEntity
  8
0
  6
HIDDEN
 62
     7
370
     0
100
AcDbSpline
210
0.0
220
0.0
230
1.0
 70
     8
 71
     3
 72
    15
 73
    11
 74
     0
 42
0.00000001
 43
0.00000001
 12
1.0
 22
0.0
 32
0.0
 13
1.0
 23
0.0
 33
0.0
 40
0.0
 40
0.0
 40
0.0
 40
0.0
 40
0.1409172169897704
 40
0.2818898291171903
 40
0.4212989265166057
 40
0.5593768372264385
 40
0.6988856205980568
 40
0.840367197904641
 40
0.9813164454670267
 40
1.0
 40
1.0
 40
1.0
 40
1.0
 10
95.36627797477662
 20
94.56127975820306
 30
0.0
 10
95.05023628850405
 20
94.60163357552467
 30
0.0
 10
94.41802867867203
 20
94.68235707341951
 30
0.0
 10
93.1838655569948
 20
94.75891217102178
 30
0.0
 10
91.9131435561363
 20
94.75423611988273
 30
0.0
 10
90.72458415110883
 20
94.67344010815052
 30
0.0
 10
89.7314614783278
 20
94.54904331163878
 30
0.0
 10
89.09205247203117
 20
94.44263977297666
 30
0.0
 10
88.81103236544766
 20
94.3895591122995
 30
0.0
 10
88.87759310314084
 20
94.40181515231374
 30
0.0
 10
88.88538342665908
 20
94.40324960932358
 30
0.0
  0
SPLINE
  5
CE
330
1F
100
AcDbEntity
  8
0
  6
HIDDEN
 62
     7
370
     0
100
AcDbSpline
210
0.0
220
0.0
230
1.0
 70
     8
 71
     3
 72
    15
 73
    11
 74
     0
 42
0.00000001
 43
0.00000001
 12
1.0
 22
0.0
 32
0.0
 13
1.0
 23
0.0
 33
0.0
 40
0.0
 40
0.0
 40
0.0
 40
0.0
 40
0.1201202395113828
 40
0.2584739316900693
 40
0.3987301965958639
 40
0.54040228904327
 40
0.6807395403003644
 40
0.8190356063860877
 40
0.9577823106998845
 40
1.0
 40
1.0
 40
1.0
 40
1.0
 10
88.88538342665908
 20
134.3943668587154
 30
0.0
 10
88.90609256312953
 20
134.3903422648618
 30
0.0
 10
88.95065434511733
 20
134.381682170601
 30
0.0
 10
89.51309395099004
 20
134.2823910439923
 30
0.0
 10
90.40655616331136
 20
134.158473454011
 30
0.0
 10
91.56553531750356
 20
134.0587630171896
 30
0.0
 10
92.8385721976289
 20
134.031624528114
 30
0.0
 10
94.0728574722725
 20
134.0869633622779
 30
0.0
 10
94.9008202690385
 20
134.1734419612621
 30
0.0
 10
95.27823081370249
 20
134.2244393795519
 30
0.0
 10
95.36627797477664
 20
134.236336709836
 30
0.0
  0
SPLINE
  5
CF
330
1F
100
AcDbEntity
  8
0
  6
HIDDEN
 62
     7
370
     0
100
AcDbSpline
210
0.0
220
0.0
230
1.0
 70
     8
 71
     3
 72
    10
 73
     6
 74
     0
 42
0.00000001
 43
0.00000001
 12
1.0
 22
0.0
 32
0.0
 13
1.0
 23
0.0
 33
0.0
 40
0.0
 40
0.0
 40
0.0
 40
0.0
 40
0.4474980330246504
 40
0.8949793102011562
 40
1.0
 40
1.0
 40
1.0
 40
1.0
 10
95.36627797477662
 20
134.236336709836
 30
0.0
 10
95.61298784046218
 20
134.2658494183154
 30
0.0
 10
96.106398334177
 20
134.324873730218
 30
0.0
 10
96.39541620016057
 20
134.338811703791
 30
0.0
 10
96.33500992774711
 20
134.3349187986127
 30
0.0
 10
96.32352778148116
 20
134.3341788273337
 30
0.0
  0
SPLINE
  5
D0
330
1F
100
AcDbEntity
  8
0
  6
HIDDEN
 62
     7
370
     0
100
AcDbSpline
210
0.0
220
0.0
230
1.0
 70
     8
 71
     3
 72
    10
 73
     6
 74
     0
 42
0.00000001
 43
0.00000001
 12
1.0
 22
0.0
 32
0.0
 13
1.0
 23
0.0
 33
0.0
 40
0.0
 40
0.0
 40
0.0
 40
0.0
 40
0.3454371160332159
 40
0.796685321207651
 40
0.9999999999999999
 40
0.9999999999999999
 40
0.9999999999999999
 40
0.9999999999999999
 10
96.32353906316679
 20
94.46343687380407
 30
0.0
 10
96.31397899262734
 20
94.46399250908053
 30
0.0
 10
96.2919304995298
 20
94.46527397667086
 30
0.0
 10
95.87500459427673
 20
94.49523025021166
 30
0.0
 10
95.48684481756024
 20
94.5456262021659
 30
0.0
 10
95.36627797477662
 20
94.56127975820306
 30
0.0
  0
LINE
  5
D1
330
1F
100
AcDbEntity
  8
0
  6
HIDDEN
 62
     7
370
     0
100
AcDbLine
 10
82.6152505694
 20
97.398808234
 30
0.0
 11
82.6152505694
 21
131.398808234
 31
0.0
  0
LWPOLYLINE
  5
D2
330
1F
100
AcDbEntity
  8
0
  6
HIDDEN
 62
     7
370
     0
100
AcDbPolyline
 90
       13
 70
   128
 43
0.0
 10
109.6112759732
 20
136.3444106487
 10
110.471157734
 20
136.3911695372
 10
111.2908323794
 20
136.5292598093
 10
112.031972834
 20
136.7522245172
 10
112.6599241937
 20
137.0496380791
 10
113.145324151
 20
137.4075937673
 10
113.4654759433
 20
137.8093539716
 10
113.6054096286
 20
138.2361328315
 10
113.5585820633
 20
138.6679746418
 10
113.3271828524
 20
139.0846869593
 10
112.9220319658
 20
139.4667847794
 10
112.3620738086
 20
139.7964016325
 10
111.976425316
 20
139.9573325769
  0
LWPOLYLINE
  5
D3
330
1F
100
AcDbEntity
  8
0
  6
HIDDEN
 62
     7
370
     0
100
AcDbPolyline
 90
       13
 70
   128
 43
0.0
 10
107.2390146042
 20
139.9547193145
 10
106.8604781378
 20
139.7964016325
 10
106.3005199805
 20
139.4667847794
 10
105.8953690939
 20
139.0846869593
 10
105.663969883
 20
138.6679746418
 10
105.6171423178
 20
138.2361328315
 10
105.7570760031
 20
137.8093539716
 10
106.0772277954
 20
137.4075937673
 10
106.5626277527
 20
137.0496380791
 10
107.1905791124
 20
136.7522245172
 10
107.9317195669
 20
136.5292598093
 10
108.7513942123
 20
136.3911695372
 10
109.6112759732
 20
136.3444106487
  0
SPLINE
  5
D4
330
1F
100
AcDbEntity
  8
0
  6
HIDDEN
 62
     7
370
     0
100
AcDbSpline
210
0.0
220
0.0
230
1.0
 70
     8
 71
     3
 72
     8
 73
     4
 74
     0
 42
0.00000001
 43
0.00000001
 12
1.0
 22
0.0
 32
0.0
 13
1.0
 23
0.0
 33
0.0
 40
0.0
 40
0.0
 40
0.0
 40
0.0
 40
0.0011559732291308
 40
0.0011559732291308
 40
0.0011559732291308
 40
0.0011559732291308
 10
69.71127597317502
 20
116.3986488526522
 30
0.0
 10
70.04461054824233
 20
116.3946815728529
 30
0.0
 10
70.37794173926908
 20
116.3905016902763
 30
0.0
 10
70.711275973175
 20
116.3859365368685
 30
0.0
  0
SPLINE
  5
D5
330
1F
100
AcDbEntity
  8
0
  6
HIDDEN
 62
     7
370
     0
100
AcDbSpline
210
0.0
220
0.0
230
1.0
 70
     8
 71
     3
 72
    11
 73
     7
 74
     0
 42
0.00000001
 43
0.00000001
 12
1.0
 22
0.0
 32
0.0
 13
1.0
 23
0.0
 33
0.0
 40
0.0
 40
0.0
 40
0.0
 40
0.0
 40
0.0005782382535738
 40
0.0005782382535738
 40
0.0005782382535738
 40
0.0011564766069467
 40
0.0011564766069467
 40
0.0011564766069467
 40
0.0011564766069467
 10
70.711275973175
 20
112.4021079318013
 30
0.0
 10
70.54462201920639
 20
112.4016703540396
 30
0.0
 10
70.37796134700443
 20
112.4011902893672
 30
0.0
 10
70.21129445833904
 20
112.4006707499979
 30
0.0
 10
70.04462753994298
 20
112.4001512105359
 30
0.0
 10
69.87795441010972
 20
112.399592381514
 30
0.0
 10
69.711275973175
 20
112.3990068379309
 30
0.0
  0
LINE
  5
D6
330
1F
100
AcDbEntity
  8
0
  6
HIDDEN
 62
     7
370
     0
100
AcDbLine
 10
109.2711019417
 20
97.398808234
 30
0.0
 11
109.2711019417
 21
131.398808234
 31
0.0
  0
LINE
  5
D7
330
1F
100
AcDbEntity
  8
0
  6
HIDDEN
 62
     7
370
     0
100
AcDbLine
 10
111.5612759732
 20
98.673808234
 30
0.0
 11
111.5612759732
 21
130.1238082333
 31
0.0
  0
SPLINE
  5
D8
330
1F
100
AcDbEntity
  8
0
  6
HIDDEN
 62
     7
370
     0
100
AcDbSpline
210
0.0
220
0.0
230
1.0
 70
     8
 71
     3
 72
    16
 73
    12
 74
     0
 42
0.00000001
 43
0.00000001
 12
1.0
 22
0.0
 32
0.0
 13
1.0
 23
0.0
 33
0.0
 40
0.0
 40
0.0
 40
0.0
 40
0.0
 40
0.124999999999998
 40
0.124999999999998
 40
0.249999999999996
 40
0.249999999999996
 40
0.4999999999999973
 40
0.4999999999999973
 40
0.7499999999999987
 40
0.7499999999999987
 40
1.0
 40
1.0
 40
1.0
 40
1.0
 10
78.41127597317501
 20
98.59731779798786
 30
0.0
 10
78.50639772784085
 20
98.59731779798786
 30
0.0
 10
78.59972779656891
 20
98.59350196459506
 30
0.0
 10
78.78298955730692
 20
98.57873141186523
 30
0.0
 10
78.87386727286393
 20
98.56757336388966
 30
0.0
 10
79.13066897038367
 20
98.52510209374795
 30
0.0
 10
79.28573633525565
 20
98.48405589654514
 30
0.0
 10
79.53948279681028
 20
98.38890977996326
 30
0.0
 10
79.64035324847814
 20
98.33414704588166
 30
0.0
 10
79.77559966317298
 20
98.2228859219778
 30
0.0
 10
79.81127597317501
 20
98.16571618464911
 30
0.0
 10
79.81127597317501
 20
98.11129461161539
 30
0.0
  0
SPLINE
  5
D9
330
1F
100
AcDbEntity
  8
0
  6
HIDDEN
 62
     7
370
     0
100
AcDbSpline
210
0.0
220
0.0
230
1.0
 70
     8
 71
     3
 72
     8
 73
     4
 74
     0
 42
0.00000001
 43
0.00000001
 12
1.0
 22
0.0
 32
0.0
 13
1.0
 23
0.0
 33
0.0
 40
0.0
 40
0.0
 40
0.0
 40
0.0
 40
1.0
 40
1.0
 40
1.0
 40
1.0
 10
71.01127597317607
 20
100.7421207440701
 30
0.0
 10
71.01127597317797
 20
99.85822360175315
 30
0.0
 10
70.99779534726846
 20
99.14364035669122
 30
0.0
 10
70.9964439790774
 20
98.59731779798786
 30
0.0
  0
LINE
  5
DA
330
1F
100
AcDbEntity
  8
0
  6
HIDDEN
 62
     7
370
     0
100
AcDbLine
 10
70.7112759732
 20
104.7979814493
 30
0.0
 11
70.7112759732
 21
101.7670310034
 31
0.0
  0
SPLINE
  5
DB
330
1F
100
AcDbEntity
  8
0
  6
HIDDEN
 62
     7
370
     0
100
AcDbSpline
210
0.0
220
0.0
230
1.0
 70
     8
 71
     3
 72
    10
 73
     6
 74
     0
 42
0.00000001
 43
0.00000001
 12
1.0
 22
0.0
 32
0.0
 13
1.0
 23
0.0
 33
0.0
 40
0.0
 40
0.0
 40
0.0
 40
0.0
 40
0.5
 40
0.5
 40
1.0
 40
1.0
 40
1.0
 40
1.0
 10
71.01127597313845
 20
106.1658218583767
 30
0.0
 10
71.01127597313845
 20
105.9238378922047
 30
0.0
 10
70.98312594439228
 20
105.6894954645855
 30
0.0
 10
70.87953603142158
 20
105.2341204448507
 30
0.0
 10
70.80290732265989
 20
105.0125158829685
 30
0.0
 10
70.71127597317502
 20
104.7979814492592
 30
0.0
  0
LINE
  5
DC
330
1F
100
AcDbEntity
  8
0
  6
HIDDEN
 62
     7
370
     0
100
AcDbLine
 10
71.0112759731
 20
118.0034418556
 30
0.0
 11
71.0112759731
 21
106.1658218583
 31
0.0
  0
SPLINE
  5
DD
330
1F
100
AcDbEntity
  8
0
  6
HIDDEN
 62
     7
370
     0
100
AcDbSpline
210
0.0
220
0.0
230
1.0
 70
     8
 71
     3
 72
     8
 73
     4
 74
     0
 42
0.00000001
 43
0.00000001
 12
1.0
 22
0.0
 32
0.0
 13
1.0
 23
0.0
 33
0.0
 40
0.0
 40
0.0
 40
0.0
 40
0.0
 40
1.0
 40
1.0
 40
1.0
 40
1.0
 10
70.71127597317502
 20
124.0057475472987
 30
0.0
 10
70.892307437842
 20
123.5736400638873
 30
0.0
 10
71.01127597314421
 20
123.1194946603109
 30
0.0
 10
71.01127597313848
 20
122.6317946096314
 30
0.0
  0
LINE
  5
DE
330
1F
100
AcDbEntity
  8
0
  6
HIDDEN
 62
     7
370
     0
100
AcDbLine
 10
70.7112759732
 20
127.0389505475
 30
0.0
 11
70.7112759732
 21
124.0057475473
 31
0.0
  0
SPLINE
  5
DF
330
1F
100
AcDbEntity
  8
0
  6
HIDDEN
 62
     7
370
     0
100
AcDbSpline
210
0.0
220
0.0
230
1.0
 70
     8
 71
     3
 72
    10
 73
     6
 74
     0
 42
0.00000001
 43
0.00000001
 12
1.0
 22
0.0
 32
0.0
 13
1.0
 23
0.0
 33
0.0
 40
0.0
 40
0.0
 40
0.0
 40
0.0
 40
0.5
 40
0.5
 40
1.0
 40
1.0
 40
1.0
 40
1.0
 10
71.01127597328015
 20
128.0554957239393
 30
0.0
 10
71.01127597327836
 20
127.8908593783468
 30
0.0
 10
70.98411730285372
 20
127.723704155561
 30
0.0
 10
70.87835230879499
 20
127.3850811499001
 30
0.0
 10
70.80193752127282
 20
127.2128093737402
 30
0.0
 10
70.71127597317503
 20
127.0389505474904
 30
0.0
  0
SPLINE
  5
E0
330
1F
100
AcDbEntity
  8
0
  6
HIDDEN
 62
     7
370
     0
100
AcDbSpline
210
0.0
220
0.0
230
1.0
 70
     8
 71
     3
 72
    18
 73
    14
 74
     0
 42
0.00000001
 43
0.00000001
 12
1.0
 22
0.0
 32
0.0
 13
1.0
 23
0.0
 33
0.0
 40
0.0
 40
0.0
 40
0.0
 40
0.0
 40
0.2500000000000033
 40
0.2500000000000033
 40
0.3750000000000029
 40
0.3750000000000029
 40
0.5000000000000026
 40
0.5000000000000026
 40
0.6250000000000022
 40
0.6250000000000022
 40
0.7500000000000018
 40
0.7500000000000018
 40
1.0
 40
1.0
 40
1.0
 40
1.0
 10
75.81127597317503
 20
130.6863218564237
 30
0.0
 10
75.81127597317501
 20
130.6318473358715
 30
0.0
 10
75.77636528178283
 20
130.5754662765189
 30
0.0
 10
75.67435598044979
 20
130.4913894356655
 30
0.0
 10
75.63271962577167
 20
130.4640557316746
 30
0.0
 10
75.53431383028293
 20
130.4111018160756
 30
0.0
 10
75.47677061857866
 20
130.3852144623584
 30
0.0
 10
75.3494724450057
 20
130.3374369175251
 30
0.0
 10
75.27988514024824
 20
130.3154889993473
 30
0.0
 10
75.12845089509328
 20
130.2760564344345
 30
0.0
 10
75.04576699199933
 20
130.2585001852087
 30
0.0
 10
74.78965552996128
 20
130.2160614197882
 30
0.0
 10
74.6017405260733
 20
130.2002986700512
 30
0.0
 10
74.41127597317501
 20
130.2002986700512
 30
0.0
  0
LINE
  5
E1
330
1F
100
AcDbEntity
  8
0
  6
HIDDEN
 62
     7
370
     0
100
AcDbLine
 10
74.4112759732
 20
130.2002986701
 30
0.0
 11
71.0112759733
 21
130.2002986701
 31
0.0
  0
LINE
  5
E2
330
1F
100
AcDbEntity
  8
0
  6
HIDDEN
 62
     7
370
     0
100
AcDbLine
 10
70.9423069865
 20
98.597317798
 30
0.0
 11
78.4112759732
 21
98.597317798
 31
0.0
  0
SPLINE
  5
E3
330
1F
100
AcDbEntity
  8
0
  6
HIDDEN
 62
     7
370
     0
100
AcDbSpline
210
0.0
220
0.0
230
1.0
 70
     8
 71
     3
 72
    22
 73
    18
 74
     0
 42
0.00000001
 43
0.00000001
 12
1.0
 22
0.0
 32
0.0
 13
1.0
 23
0.0
 33
0.0
 40
0.0
 40
0.0
 40
0.0
 40
0.0
 40
0.125
 40
0.125
 40
0.2499999999999999
 40
0.2499999999999999
 40
0.5000000000000003
 40
0.5000000000000003
 40
0.5625000000000004
 40
0.5625000000000004
 40
0.6250000000000006
 40
0.6250000000000006
 40
0.7500000000000004
 40
0.7500000000000004
 40
0.8750000000000002
 40
0.8750000000000002
 40
1.0
 40
1.0
 40
1.0
 40
1.0
 10
70.94230698653291
 20
98.59731779798786
 30
0.0
 10
70.92922459380452
 20
98.85242350813553
 30
0.0
 10
70.9160050303647
 20
99.14558176723943
 30
0.0
 10
70.8935578525706
 20
99.80788223286424
 30
0.0
 10
70.88407938554614
 20
100.1781561534756
 30
0.0
 10
70.86488142460964
 20
101.4007129565894
 30
0.0
 10
70.86599519760651
 20
102.3378518827213
 30
0.0
 10
70.88490599055955
 20
103.6577231122363
 30
0.0
 10
70.88953551841855
 20
103.9292250212126
 30
0.0
 10
70.90001673816448
 20
104.4876098560149
 30
0.0
 10
70.90581199944893
 20
104.7747327119545
 30
0.0
 10
70.92412122035385
 20
105.6473219663262
 30
0.0
 10
70.93815615463423
 20
106.247777642682
 30
0.0
 10
70.96761332677107
 20
107.4852521351781
 30
0.0
 10
70.98316901775262
 20
108.1222682918215
 30
0.0
 10
71.00696356774952
 20
109.4337568895061
 30
0.0
 10
71.0149826198949
 20
110.1098795011666
 30
0.0
 10
71.011275973175
 20
110.7941746124514
 30
0.0
  0
LINE
  5
E4
330
1F
100
AcDbEntity
  8
0
  6
HIDDEN
 62
     7
370
     0
100
AcDbLine
 10
71.0112759733
 20
118.0034418556
 30
0.0
 11
71.0112759733
 21
130.2002986701
 31
0.0
  0
SPLINE
  5
E5
330
1F
100
AcDbEntity
  8
0
  6
HIDDEN
 62
     7
370
     0
100
AcDbSpline
210
0.0
220
0.0
230
1.0
 70
     8
 71
     3
 72
    10
 73
     6
 74
     0
 42
0.00000001
 43
0.00000001
 12
1.0
 22
0.0
 32
0.0
 13
1.0
 23
0.0
 33
0.0
 40
0.0
 40
0.0
 40
0.0
 40
0.0
 40
0.5
 40
0.5
 40
1.0
 40
1.0
 40
1.0
 40
1.0
 10
71.011275973175
 20
110.7941746124364
 30
0.0
 10
71.01127597317482
 20
111.0680897605104
 30
0.0
 10
70.985516743306
 20
111.33903133924
 30
0.0
 10
70.8823108105726
 20
111.8747224208422
 30
0.0
 10
70.80497264669819
 20
112.1404692243639
 30
0.0
 10
70.71127597317502
 20
112.4021079318013
 30
0.0
  0
SPLINE
  5
E6
330
1F
100
AcDbEntity
  8
0
  6
HIDDEN
 62
     7
370
     0
100
AcDbSpline
210
0.0
220
0.0
230
1.0
 70
     8
 71
     3
 72
    10
 73
     6
 74
     0
 42
0.00000001
 43
0.00000001
 12
1.0
 22
0.0
 32
0.0
 13
1.0
 23
0.0
 33
0.0
 40
0.0
 40
0.0
 40
0.0
 40
0.0
 40
0.5
 40
0.5
 40
1.0
 40
1.0
 40
1.0
 40
1.0
 10
70.711275973175
 20
116.3859365368685
 30
0.0
 10
70.80450655352611
 20
116.6498303434668
 30
0.0
 10
70.87953616505484
 20
116.9160106525652
 30
0.0
 10
70.98460326303437
 20
117.4543332243838
 30
0.0
 10
71.01127597327896
 20
117.7270813389995
 30
0.0
 10
71.01127597328014
 20
118.0034418555866
 30
0.0
  0
LINE
  5
E7
330
1F
100
AcDbEntity
  8
0
  6
HIDDEN
 62
     7
370
     0
100
AcDbLine
 10
70.7112759732
 20
112.4021079318
 30
0.0
 11
70.7112759732
 21
116.3859365369
 31
0.0
  0
LINE
  5
E8
330
1F
100
AcDbEntity
  8
0
  6
HIDDEN
 62
     7
370
     0
100
AcDbLine
 10
70.8612759732
 20
96.408808234
 30
0.0
 11
70.8612759732
 21
93.5288704686
 31
0.0
  0
LINE
  5
E9
330
1F
100
AcDbEntity
  8
0
  6
HIDDEN
 62
     7
370
     0
100
AcDbLine
 10
79.8112759732
 20
96.408808234
 30
0.0
 11
79.8112759732
 21
92.4350707028
 31
0.0
  0
LINE
  5
EA
330
1F
100
AcDbEntity
  8
0
  6
HIDDEN
 62
     7
370
     0
100
AcDbLine
 10
70.8612759732
 20
132.388808234
 30
0.0
 11
70.8612759732
 21
135.2687459994
 31
0.0
  0
LINE
  5
EB
330
1F
100
AcDbEntity
  8
0
  6
HIDDEN
 62
     7
370
     0
100
AcDbLine
 10
75.8112759732
 20
132.388808234
 30
0.0
 11
75.8112759732
 21
136.2429159064
 31
0.0
  0
LINE
  5
EC
330
1F
100
AcDbEntity
  8
0
  6
HIDDEN
 62
     7
370
     0
100
AcDbLine
 10
123.4112759732
 20
104.898808234
 30
0.0
 11
123.4112759732
 21
123.898808234
 31
0.0
  0
LINE
  5
ED
330
1F
100
AcDbEntity
  8
0
  6
HIDDEN
 62
     7
370
     0
100
AcDbLine
 10
120.4112759732
 20
104.898808234
 30
0.0
 11
120.4112759732
 21
123.898808234
 31
0.0
  0
LINE
  5
EE
330
1F
100
AcDbEntity
  8
0
  6
HIDDEN
 62
     7
370
     0
100
AcDbLine
 10
182.6112759732
 20
105.498808234
 30
0.0
 11
182.6112759732
 21
123.2988081272
 31
0.0
  0
LINE
  5
EF
330
1F
100
AcDbEntity
  8
0
  6
HIDDEN
 62
     7
370
     0
100
AcDbLine
 10
186.6112759732
 20
105.398808234
 30
0.0
 11
186.6112759732
 21
123.398808234
 31
0.0
  0
LINE
  5
F0
330
1F
100
AcDbEntity
  8
0
  6
HIDDEN
 62
     7
370
     0
100
AcDbLine
 10
112.0612759732
 20
105.898808234
 30
0.0
 11
112.0612759732
 21
122.898808234
 31
0.0
  0
LINE
  5
F1
330
1F
100
AcDbEntity
  8
0
  6
HIDDEN
 62
     7
370
     0
100
AcDbLine
 10
106.5612759732
 20
82.9146852512
 30
0.0
 11
106.5612759732
 21
87.998808234
 31
0.0
  0
LINE
  5
F2
330
1F
100
AcDbEntity
  8
0
  6
HIDDEN
 62
     7
370
     0
100
AcDbLine
 10
114.5612759732
 20
87.998808234
 30
0.0
 11
106.5612759732
 21
87.998808234
 31
0.0
  0
LINE
  5
F3
330
1F
100
AcDbEntity
  8
0
  6
HIDDEN
 62
     7
370
     0
100
AcDbLine
 10
127.5612759732
 20
87.998808234
 30
0.0
 11
121.4236011708
 21
87.998808234
 31
0.0
  0
LINE
  5
F4
330
1F
100
AcDbEntity
  8
0
  6
HIDDEN
 62
     7
370
     0
100
AcDbLine
 10
117.7989507755
 20
87.998808234
 30
0.0
 11
114.5612759732
 21
87.998808234
 31
0.0
  0
LINE
  5
F5
330
1F
100
AcDbEntity
  8
0
  6
HIDDEN
 62
     7
370
     0
100
AcDbLine
 10
127.5612759732
 20
140.798808234
 30
0.0
 11
121.1269784415
 21
140.798808234
 31
0.0
  0
LINE
  5
F6
330
1F
100
AcDbEntity
  8
0
  6
HIDDEN
 62
     7
370
     0
100
AcDbLine
 10
118.0955735049
 20
140.798808234
 30
0.0
 11
114.5612759732
 21
140.798808234
 31
0.0
  0
LINE
  5
F7
330
1F
100
AcDbEntity
  8
0
  6
HIDDEN
 62
     7
370
     0
100
AcDbLine
 10
114.5612759732
 20
140.798808234
 30
0.0
 11
106.5612759732
 21
140.798808234
 31
0.0
  0
SPLINE
  5
F8
330
1F
100
AcDbEntity
  8
0
  6
HIDDEN
 62
     7
370
     0
100
AcDbSpline
210
0.0
220
0.0
230
1.0
 70
     8
 71
     3
 72
    11
 73
     7
 74
     0
 42
0.00000001
 43
0.00000001
 12
1.0
 22
0.0
 32
0.0
 13
1.0
 23
0.0
 33
0.0
 40
0.0
 40
0.0
 40
0.0
 40
0.0
 40
0.0008203708524183
 40
0.0008203708524183
 40
0.0008203708524183
 40
0.0016409967870154
 40
0.0016409967870154
 40
0.0016409967870154
 40
0.0016409967870154
 10
70.86127597317501
 20
98.5467754833768
 30
0.0
 10
70.67011767287634
 20
98.50559645475765
 30
0.0
 10
70.47869060280415
 20
98.46684248252765
 30
0.0
 10
70.28704497928351
 20
98.43047472324912
 30
0.0
 10
70.09533957420305
 20
98.39409561948308
 30
0.0
 10
69.90340062214412
 20
98.36010136871553
 30
0.0
 10
69.71127597507332
 20
98.32845324332432
 30
0.0
  0
ELLIPSE
  5
F9
330
1F
100
AcDbEntity
  8
0
  6
HIDDEN
 62
     7
370
     0
100
AcDbEllipse
 10
65.4688441104
 20
114.398808234
 30
0.0
 11
20.19992452772428
 21
-1.421085471520200E-14
 31
0.0
210
0.0
220
0.0
230
1.0
 40
0.816496581
 41
1.300566354937166
 42
1.359198697442763
  0
LINE
  5
FA
330
1F
100
AcDbEntity
  8
0
  6
HIDDEN
 62
     7
370
     0
100
AcDbLine
 10
70.8612759732
 20
96.408808234
 30
0.0
 11
70.8612759732
 21
98.5467754834
 31
0.0
  0
LINE
  5
FB
330
1F
100
AcDbEntity
  8
0
  6
HIDDEN
 62
     7
370
     0
100
AcDbLine
 10
70.9423069865
 20
98.597317798
 30
0.0
 11
70.8612759732
 21
98.5467754834
 31
0.0
  0
LINE
  5
FC
330
1F
100
AcDbEntity
  8
0
  6
HIDDEN
 62
     7
370
     0
100
AcDbLine
 10
79.8112759732
 20
96.408808234
 30
0.0
 11
79.8112759732
 21
98.1112946116
 31
0.0
  0
LINE
  5
FD
330
1F
100
AcDbEntity
  8
0
  6
HIDDEN
 62
     7
370
     0
100
AcDbLine
 10
70.8612759732
 20
132.388808234
 30
0.0
 11
70.8612759732
 21
130.293432683
 31
0.0
  0
SPLINE
  5
FE
330
1F
100
AcDbEntity
  8
0
  6
HIDDEN
 62
     7
370
     0
100
AcDbSpline
210
0.0
220
0.0
230
1.0
 70
     8
 71
     3
 72
     8
 73
     4
 74
     0
 42
0.00000001
 43
0.00000001
 12
1.0
 22
0.0
 32
0.0
 13
1.0
 23
0.0
 33
0.0
 40
0.0
 40
0.0
 40
0.0
 40
0.0
 40
1.0
 40
1.0
 40
1.0
 40
1.0
 10
70.86127597317501
 20
130.293432683018
 30
0.0
 10
70.91128147102246
 20
130.2623969094852
 30
0.0
 10
70.96128154059083
 20
130.2313522651444
 30
0.0
 10
71.01127597328016
 20
130.2002986700512
 30
0.0
  0
LINE
  5
FF
330
1F
100
AcDbEntity
  8
0
  6
HIDDEN
 62
     7
370
     0
100
AcDbLine
 10
75.8112759732
 20
132.388808234
 30
0.0
 11
75.8112759732
 21
130.6863218564
 31
0.0
  0
SPLINE
  5
100
330
1F
100
AcDbEntity
  8
0
  6
HIDDEN
 62
     7
370
     0
100
AcDbSpline
210
0.0
220
0.0
230
1.0
 70
     8
 71
     3
 72
    20
 73
    16
 74
     0
 42
0.00000001
 43
0.00000001
 12
1.0
 22
0.0
 32
0.0
 13
1.0
 23
0.0
 33
0.0
 40
0.0
 40
0.0
 40
0.0
 40
0.0
 40
0.1119595197684142
 40
0.1774767634647507
 40
0.2490961890179794
 40
0.3298422315093885
 40
0.3986125823881415
 40
0.4998893016461092
 40
0.6138510293005034
 40
0.6790150176761197
 40
0.7495394203319945
 40
0.8296829944212418
 40
0.8981246285268906
 40
0.9995320175861913
 40
1.0
 40
1.0
 40
1.0
 40
1.0
 10
96.36011642303788
 20
90.79881447225172
 30
0.0
 10
96.31679268473933
 20
90.81224379028875
 30
0.0
 10
96.24811646256255
 20
90.83353176924471
 30
0.0
 10
95.80293733651227
 20
90.93684258089321
 30
0.0
 10
95.2763790528425
 20
91.05014581095509
 30
0.0
 10
94.59095403171334
 20
91.17307867874769
 30
0.0
 10
93.69763663441451
 20
91.29511313793215
 30
0.0
 10
92.58427724727687
 20
91.41284944571676
 30
0.0
 10
91.47350316664125
 20
91.4248249480924
 30
0.0
 10
90.58875486473585
 20
91.39776665796107
 30
0.0
 10
89.92155827010214
 20
91.34983459355325
 30
0.0
 10
89.38028576787491
 20
91.29354108118868
 30
0.0
 10
88.99270580880275
 20
91.24845817054988
 30
0.0
 10
88.79876928873367
 20
91.20958499584997
 30
0.0
 10
88.86187174896337
 20
91.2202910530907
 30
0.0
 10
88.86216162119872
 20
91.22034023324522
 30
0.0
  0
LINE
  5
101
330
1F
100
AcDbEntity
  8
0
  6
HIDDEN
 62
     7
370
     0
100
AcDbLine
 10
89.7712878855
 20
91.3311463775
 30
0.0
 11
89.9551331987
 21
91.34933572
 31
0.0
  0
LINE
  5
102
330
1F
100
AcDbEntity
  8
0
  6
HIDDEN
 62
     7
370
     0
100
AcDbLine
 10
89.9551305002
 20
137.4482113168
 30
0.0
 11
89.7810572183
 21
137.4654208429
 31
0.0
  0
SPLINE
  5
103
330
1F
100
AcDbEntity
  8
0
  6
HIDDEN
 62
     7
370
     0
100
AcDbSpline
210
0.0
220
0.0
230
1.0
 70
     8
 71
     3
 72
    20
 73
    16
 74
     0
 42
0.00000001
 43
0.00000001
 12
1.0
 22
0.0
 32
0.0
 13
1.0
 23
0.0
 33
0.0
 40
0.0
 40
0.0
 40
0.0
 40
0.0
 40
0.0004889684280502
 40
0.1018319933926956
 40
0.1702475582150564
 40
0.2503692056770218
 40
0.3209568221796114
 40
0.3861816196721121
 40
0.5002554836817364
 40
0.6012243489302103
 40
0.669768055864141
 40
0.750240190758111
 40
0.8220490693822882
 40
0.8877204546071489
 40
1.0
 40
1.0
 40
1.0
 40
1.0
 10
88.86219500596016
 20
137.577209688212
 30
0.0
 10
88.86189136496324
 20
137.5772612753622
 30
0.0
 10
88.79865544579766
 20
137.5880047549756
 30
0.0
 10
88.99185947959201
 20
137.549148764317
 30
0.0
 10
89.37880653449989
 20
137.5041252739123
 30
0.0
 10
89.91981345782621
 20
137.4478623118194
 30
0.0
 10
90.58731371929122
 20
137.3999311192253
 30
0.0
 10
91.47314157064459
 20
137.3728576634959
 30
0.0
 10
92.58394814273235
 20
137.3846836670754
 30
0.0
 10
93.69601850875561
 20
137.5021327422307
 30
0.0
 10
94.58711881495354
 20
137.6238371304703
 30
0.0
 10
95.27260326576368
 20
137.7466581760449
 30
0.0
 10
95.80059116530123
 20
137.8600964277272
 30
0.0
 10
96.24797511679448
 20
137.9638369833658
 30
0.0
 10
96.31678558314896
 20
137.9852597766431
 30
0.0
 10
96.36020209046214
 20
137.9987766572902
 30
0.0
  0
SPLINE
  5
104
330
1F
100
AcDbEntity
  8
0
  6
HIDDEN
 62
     7
370
     0
100
AcDbSpline
210
0.0
220
0.0
230
1.0
 70
     8
 71
     3
 72
     8
 73
     4
 74
     0
 42
0.00000001
 43
0.00000001
 12
1.0
 22
0.0
 32
0.0
 13
1.0
 23
0.0
 33
0.0
 40
0.0
 40
0.0
 40
0.0
 40
0.0
 40
0.000159097691435
 40
0.000159097691435
 40
0.000159097691435
 40
0.000159097691435
 10
70.99644397907738
 20
98.59731779798786
 30
0.0
 10
70.95139250967803
 20
98.56933891435396
 30
0.0
 10
70.90633647236844
 20
98.54136738466842
 30
0.0
 10
70.86127597317501
 20
98.51340304600507
 30
0.0
  0
SPLINE
  5
105
330
1F
100
AcDbEntity
  8
0
  6
HIDDEN
 62
     7
370
     0
100
AcDbSpline
210
0.0
220
0.0
230
1.0
 70
     8
 71
     3
 72
    11
 73
     7
 74
     0
 42
0.00000001
 43
0.00000001
 12
1.0
 22
0.0
 32
0.0
 13
1.0
 23
0.0
 33
0.0
 40
0.0
 40
0.0
 40
0.0
 40
0.0
 40
0.0008212909311356
 40
0.0008212909311356
 40
0.0008212909311356
 40
0.0016428257242859
 40
0.0016428257242859
 40
0.0016428257242859
 40
0.0016428257242859
 10
70.86127597317501
 20
98.51340304600507
 30
0.0
 10
70.67013095169267
 20
98.47011685717527
 30
0.0
 10
70.4787126160161
 20
98.42918034756123
 30
0.0
 10
70.28706654135497
 20
98.39057857619841
 30
0.0
 10
70.09536345981337
 20
98.35196532238506
 30
0.0
 10
69.90341833652796
 20
98.31568511312334
 30
0.0
 10
69.71127597317498
 20
98.2817182067966
 30
0.0
  0
LINE
  5
106
330
1F
100
AcDbEntity
  8
0
  6
HIDDEN
 62
     7
370
     0
100
AcDbLine
 10
117.7012759732
 20
134.5346748655
 30
0.0
 11
117.7012759732
 21
134.248808234
 31
0.0
  0
LINE
  5
107
330
1F
100
AcDbEntity
  8
0
  6
HIDDEN
 62
     7
370
     0
100
AcDbLine
 10
121.5212759732
 20
134.5430514039
 30
0.0
 11
121.5212759732
 21
134.248808234
 31
0.0
  0
LINE
  5
108
330
1F
100
AcDbEntity
  8
0
  6
HIDDEN
 62
     7
370
     0
100
AcDbLine
 10
123.0032088047
 20
138.8574978964
 30
0.0
 11
123.0032088047
 21
134.248808234
 31
0.0
  0
SPLINE
  5
109
330
1F
100
AcDbEntity
  8
0
  6
HIDDEN
 62
     7
370
     0
100
AcDbSpline
210
0.0
220
0.0
230
1.0
 70
     8
 71
     3
 72
    24
 73
    20
 74
     0
 42
0.00000001
 43
0.00000001
 12
1.0
 22
0.0
 32
0.0
 13
1.0
 23
0.0
 33
0.0
 40
0.0
 40
0.0
 40
0.0
 40
0.0
 40
0.25
 40
0.25
 40
0.374999999999999
 40
0.374999999999999
 40
0.4374999999999993
 40
0.4374999999999993
 40
0.4687499999999994
 40
0.4687499999999994
 40
0.4999999999999995
 40
0.4999999999999995
 40
0.5624999999999971
 40
0.5624999999999971
 40
0.6249999999999947
 40
0.6249999999999947
 40
0.7499999999999947
 40
0.7499999999999947
 40
1.0
 40
1.0
 40
1.0
 40
1.0
 10
69.7739393478984
 20
94.72425568923879
 30
0.0
 10
69.78769246656866
 20
94.79490574722907
 30
0.0
 10
69.80546503397451
 20
94.86150385999397
 30
0.0
 10
69.85771612552988
 20
94.9356018802272
 30
0.0
 10
69.87875120111143
 20
94.95685968738874
 30
0.0
 10
69.93165160873987
 20
94.965005613535
 30
0.0
 10
69.95275728161779
 20
94.96406581013922
 30
0.0
 10
69.99880945029574
 20
94.94304981856187
 30
0.0
 10
70.01717992227914
 20
94.93214101245425
 30
0.0
 10
70.05873155734486
 20
94.89950610150689
 30
0.0
 10
70.08129823010175
 20
94.87801412113554
 30
0.0
 10
70.14407924656177
 20
94.8095481775492
 30
0.0
 10
70.17720900752965
 20
94.76347371934412
 30
0.0
 10
70.23412669401469
 20
94.67846583100945
 30
0.0
 10
70.25831271951846
 20
94.63818552982805
 30
0.0
 10
70.32352066989822
 20
94.52324930336212
 30
0.0
 10
70.35823673008946
 20
94.45266631821511
 30
0.0
 10
70.45145200042033
 20
94.2484605591365
 30
0.0
 10
70.49712453578101
 20
94.12556217680914
 30
0.0
 10
70.53542961927955
 20
94.00868890042157
 30
0.0
  0
SPLINE
  5
10A
330
1F
100
AcDbEntity
  8
0
  6
HIDDEN
 62
     7
370
     0
100
AcDbSpline
210
0.0
220
0.0
230
1.0
 70
     8
 71
     3
 72
     8
 73
     4
 74
     0
 42
0.00000001
 43
0.00000001
 12
1.0
 22
0.0
 32
0.0
 13
1.0
 23
0.0
 33
0.0
 40
0.0
 40
0.0
 40
0.0
 40
0.0
 40
0.001156372467817
 40
0.001156372467817
 40
0.001156372467817
 40
0.001156372467817
 10
70.7112759731753
 20
127.0389505474952
 30
0.0
 10
70.37795485797805
 20
127.168009573122
 30
0.0
 10
70.04462217716998
 20
127.2969699092907
 30
0.0
 10
69.711275973175
 20
127.4258814390635
 30
0.0
  0
SPLINE
  5
10B
330
1F
100
AcDbEntity
  8
0
  6
HIDDEN
 62
     7
370
     0
100
AcDbSpline
210
0.0
220
0.0
230
1.0
 70
     8
 71
     3
 72
    11
 73
     7
 74
     0
 42
0.00000001
 43
0.00000001
 12
1.0
 22
0.0
 32
0.0
 13
1.0
 23
0.0
 33
0.0
 40
0.0
 40
0.0
 40
0.0
 40
0.0
 40
0.000577874610501
 40
0.000577874610501
 40
0.000577874610501
 40
0.001155749485703
 40
0.001155749485703
 40
0.001155749485703
 40
0.001155749485703
 10
69.71127597317502
 20
101.3715863715688
 30
0.0
 10
69.87794284958812
 20
101.4373984983518
 30
0.0
 10
70.04460956914943
 20
101.5032569785794
 30
0.0
 10
70.21127621719802
 20
101.5691645516017
 30
0.0
 10
70.37794294171668
 20
101.6350721548638
 30
0.0
 10
70.54460963613737
 20
101.7010292633458
 30
0.0
 10
70.71127597317502
 20
101.7670310033654
 30
0.0
  0
SPLINE
  5
10C
330
1F
100
AcDbEntity
  8
0
  6
HIDDEN
 62
     7
370
     0
100
AcDbSpline
210
0.0
220
0.0
230
1.0
 70
     8
 71
     3
 72
    11
 73
     7
 74
     0
 42
0.00000001
 43
0.00000001
 12
1.0
 22
0.0
 32
0.0
 13
1.0
 23
0.0
 33
0.0
 40
0.0000000000000006
 40
0.0000000000000006
 40
0.0000000000000006
 40
0.0000000000000006
 40
0.000578048606266
 40
0.000578048606266
 40
0.000578048606266
 40
0.001156097351391
 40
0.001156097351391
 40
0.001156097351391
 40
0.001156097351391
 10
69.71127597317502
 20
124.3796227273068
 30
0.0
 10
69.87794582922022
 20
124.3172508659016
 30
0.0
 10
70.04461353330464
 20
124.2548970057102
 30
0.0
 10
70.2112798377583
 20
124.1925774456266
 30
0.0
 10
70.37794617845202
 20
124.1302578719923
 30
0.0
 10
70.54461113508066
 20
124.0679726677717
 30
0.0
 10
70.71127597317502
 20
124.0057475472987
 30
0.0
  0
SPLINE
  5
10D
330
1F
100
AcDbEntity
  8
0
  6
HIDDEN
 62
     7
370
     0
100
AcDbSpline
210
0.0
220
0.0
230
1.0
 70
     8
 71
     3
 72
    11
 73
     7
 74
     0
 42
0.00000001
 43
0.00000001
 12
1.0
 22
0.0
 32
0.0
 13
1.0
 23
0.0
 33
0.0
 40
0.0
 40
0.0
 40
0.0
 40
0.0
 40
0.0005782401583357
 40
0.0005782401583357
 40
0.0005782401583357
 40
0.001156480596064
 40
0.001156480596064
 40
0.001156480596064
 40
0.001156480596064
 10
70.711275973175
 20
104.7979814492592
 30
0.0
 10
70.5446250228263
 20
104.7345559913201
 30
0.0
 10
70.37796543024372
 20
104.6712004677903
 30
0.0
 10
70.21129837781514
 20
104.607902883569
 30
0.0
 10
70.04463124125135
 20
104.5446052673943
 30
0.0
 10
69.8779566338052
 20
104.4813654725855
 30
0.0
 10
69.711275973175
 20
104.4181654660812
 30
0.0
  0
CIRCLE
  5
10E
330
1F
100
AcDbEntity
  8
0
  6
HIDDEN
 62
     7
370
     0
100
AcDbCircle
 10
108.6112759732
 20
114.398808234
 30
0.0
 40
5.0
  0
LINE
  5
10F
330
1F
100
AcDbEntity
  8
0
  6
HIDDEN
 62
     7
370
     0
100
AcDbLine
 10
105.6112759732
 20
128.6966433838
 30
0.0
 11
105.6112759732
 21
126.7927488769
 31
0.0
  0
LINE
  5
110
330
1F
100
AcDbEntity
  8
0
  6
HIDDEN
 62
     7
370
     0
100
AcDbLine
 10
113.6112759732
 20
126.7927488769
 30
0.0
 11
113.6112759732
 21
128.6994387397
 31
0.0
  0
LINE
  5
111
330
1F
100
AcDbEntity
  8
0
  6
HIDDEN
 62
     7
370
     0
100
AcDbLine
 10
101.6112759732
 20
89.074877088
 30
0.0
 11
101.7054367487
 21
89.7448658193
 31
0.0
  0
LINE
  5
112
330
1F
100
AcDbEntity
  8
0
  6
HIDDEN
 62
     7
370
     0
100
AcDbLine
 10
101.7054367487
 20
139.0527506488
 30
0.0
 11
101.6112759732
 21
139.72273938
 31
0.0
  0
ARC
  5
113
330
1F
100
AcDbEntity
  8
0
  6
HIDDEN
 62
     7
370
     0
100
AcDbCircle
 10
101.1112692205
 20
89.8283706196
 30
0.0
 40
0.6000067526677222
100
AcDbArc
 50
352.0
 51
0.0
  0
ARC
  5
114
330
1F
100
AcDbEntity
  8
0
  6
HIDDEN
 62
     7
370
     0
100
AcDbCircle
 10
101.1112692205
 20
89.8283706196
 30
0.0
 40
0.60000675266771
100
AcDbArc
 50
0.0
 51
33.5571153394
  0
ARC
  5
115
330
1F
100
AcDbEntity
  8
0
  6
HIDDEN
 62
     7
370
     0
100
AcDbCircle
 10
101.1112692205
 20
138.9692458484
 30
0.0
 40
0.6000067526677222
100
AcDbArc
 50
348.75
 51
8.0
  0
LWPOLYLINE
  5
116
330
1F
100
AcDbEntity
  8
0
  6
HIDDEN
 62
     7
370
     0
100
AcDbPolyline
 90
        3
 70
   128
 43
0.0
 10
101.6997470117
 20
138.8521903378
 10
101.6656031787
 20
138.7396332049
 10
101.6112759732
 20
138.6375813334
  0
LINE
  5
117
330
1F
100
AcDbEntity
  8
0
  6
HIDDEN
 62
     7
370
     0
100
AcDbLine
 10
101.7112759732
 20
89.8283706196
 30
0.0
 11
101.7112759732
 21
138.9692458484
 31
0.0
  0
ARC
  5
118
330
1F
100
AcDbEntity
  8
0
  6
HIDDEN
 62
     7
370
     0
100
AcDbCircle
 10
84.6937115385
 20
94.998808234
 30
0.0
 40
0.6000000000000085
100
AcDbArc
 50
210.0
 51
270.0
  0
ARC
  5
119
330
1F
100
AcDbEntity
  8
0
  6
HIDDEN
 62
     7
370
     0
100
AcDbCircle
 10
84.6937115385
 20
133.798808234
 30
0.0
 40
0.6000000000000032
100
AcDbArc
 50
90.0
 51
150.0
  0
LINE
  5
11A
330
1F
100
AcDbEntity
  8
0
  6
HIDDEN
 62
     7
370
     0
100
AcDbLine
 10
84.6937115385
 20
94.398808234
 30
0.0
 11
88.8853834267
 21
94.398808234
 31
0.0
  0
LINE
  5
11B
330
1F
100
AcDbEntity
  8
0
  6
HIDDEN
 62
     7
370
     0
100
AcDbLine
 10
88.8853834267
 20
134.398808234
 30
0.0
 11
84.6937115385
 21
134.398808234
 31
0.0
  0
ARC
  5
11C
330
1F
100
AcDbEntity
  8
0
  6
HIDDEN
 62
     7
370
     0
100
AcDbCircle
 10
95.3662779748
 20
102.398808234
 30
0.0
 40
8.000000000000002
100
AcDbArc
 50
276.8813033455
 51
321.3178125465
  0
ARC
  5
11D
330
1F
100
AcDbEntity
  8
0
  6
HIDDEN
 62
     7
370
     0
100
AcDbCircle
 10
95.3662779748
 20
126.398808234
 30
0.0
 40
7.999999999999999
100
AcDbArc
 50
38.6821874535
 51
83.1303396552
  0
LINE
  5
11E
330
1F
100
AcDbEntity
  8
0
  6
HIDDEN
 62
     7
370
     0
100
AcDbLine
 10
84.1740962962
 20
134.098808234
 30
0.0
 11
82.6152505694
 21
131.398808234
 31
0.0
  0
LINE
  5
11F
330
1F
100
AcDbEntity
  8
0
  6
HIDDEN
 62
     7
370
     0
100
AcDbLine
 10
82.6152505694
 20
97.398808234
 30
0.0
 11
84.1740962962
 21
94.698808234
 31
0.0
  0
LINE
  5
120
330
1F
100
AcDbEntity
  8
0
  6
HIDDEN
 62
     7
370
     0
100
AcDbLine
 10
105.6112759732
 20
141.6731420932
 30
0.0
 11
105.6112759732
 21
138.3444106487
 31
0.0
  0
LINE
  5
121
330
1F
100
AcDbEntity
  8
0
  6
HIDDEN
 62
     7
370
     0
100
AcDbLine
 10
113.6112759732
 20
138.3444106487
 30
0.0
 11
113.6112759732
 21
141.678474472
 31
0.0
  0
ARC
  5
122
330
1F
100
AcDbEntity
  8
0
  6
HIDDEN
 62
     7
370
     0
100
AcDbCircle
 10
110.0612759732
 20
98.673808234
 30
0.0
 40
1.500000000000009
100
AcDbArc
 50
238.2116693829
 51
0.0
  0
ARC
  5
123
330
1F
100
AcDbEntity
  8
0
  6
HIDDEN
 62
     7
370
     0
100
AcDbCircle
 10
110.0612759732
 20
130.123808234
 30
0.0
 40
1.500000000000009
100
AcDbArc
 50
0.0
 51
121.7883306171
  0
LINE
  5
124
330
1F
100
AcDbEntity
  8
0
  6
HIDDEN
 62
     7
370
     0
100
AcDbLine
 10
79.8112759732
 20
97.398808234
 30
0.0
 11
82.6152505694
 21
97.398808234
 31
0.0
  0
LINE
  5
125
330
1F
100
AcDbEntity
  8
0
  6
HIDDEN
 62
     7
370
     0
100
AcDbLine
 10
82.6152505694
 20
131.398808234
 30
0.0
 11
75.8112759732
 21
131.398808234
 31
0.0
  0
LINE
  5
126
330
1F
100
AcDbEntity
  8
0
  6
HIDDEN
 62
     7
370
     0
100
AcDbLine
 10
101.6112759732
 20
97.398808234
 30
0.0
 11
109.2711019417
 21
97.398808234
 31
0.0
  0
LINE
  5
127
330
1F
100
AcDbEntity
  8
0
  6
HIDDEN
 62
     7
370
     0
100
AcDbLine
 10
109.2711019417
 20
131.398808234
 30
0.0
 11
101.6112759732
 21
131.398808234
 31
0.0
  0
LINE
  5
128
330
1F
100
AcDbEntity
  8
0
  6
HIDDEN
 62
     7
370
     0
100
AcDbLine
 10
120.4112759732
 20
104.898808234
 30
0.0
 11
123.4112759732
 21
104.898808234
 31
0.0
  0
LINE
  5
129
330
1F
100
AcDbEntity
  8
0
  6
HIDDEN
 62
     7
370
     0
100
AcDbLine
 10
123.4112759732
 20
123.898808234
 30
0.0
 11
120.4112759732
 21
123.898808234
 31
0.0
  0
ARC
  5
12A
330
1F
100
AcDbEntity
  8
0
  6
HIDDEN
 62
     7
370
     0
100
AcDbCircle
 10
183.0112759732
 20
105.498808234
 30
0.0
 40
0.4000000000000057
100
AcDbArc
 50
180.0
 51
270.0
  0
ARC
  5
12B
330
1F
100
AcDbEntity
  8
0
  6
HIDDEN
 62
     7
370
     0
100
AcDbCircle
 10
183.0112759732
 20
123.298808234
 30
0.0
 40
0.4000000000000199
100
AcDbArc
 50
90.0
 51
180.0
  0
LINE
  5
12C
330
1F
100
AcDbEntity
  8
0
  6
HIDDEN
 62
     7
370
     0
100
AcDbLine
 10
183.0112759732
 20
105.098808234
 30
0.0
 11
185.7165019551
 21
105.098808234
 31
0.0
  0
LINE
  5
12D
330
1F
100
AcDbEntity
  8
0
  6
HIDDEN
 62
     7
370
     0
100
AcDbLine
 10
185.7165019551
 20
123.698808234
 30
0.0
 11
183.0112759732
 21
123.698808234
 31
0.0
  0
ARC
  5
12E
330
1F
100
AcDbEntity
  8
0
  6
HIDDEN
 62
     7
370
     0
100
AcDbCircle
 10
185.7165019551
 20
105.498808234
 30
0.0
 40
0.4000000000000074
100
AcDbArc
 50
270.0
 51
290.0
  0
ARC
  5
12F
330
1F
100
AcDbEntity
  8
0
  6
HIDDEN
 62
     7
370
     0
100
AcDbCircle
 10
185.7165019551
 20
123.298808234
 30
0.0
 40
0.4000000000000199
100
AcDbArc
 50
70.0
 51
90.0
  0
ARC
  5
130
330
1F
100
AcDbEntity
  8
0
  6
HIDDEN
 62
     7
370
     0
100
AcDbCircle
 10
231.3112759732
 20
105.098808234
 30
0.0
 40
0.3000000000000114
100
AcDbArc
 50
0.0
 51
90.0
  0
ARC
  5
131
330
1F
100
AcDbEntity
  8
0
  6
HIDDEN
 62
     7
370
     0
100
AcDbCircle
 10
231.3112759732
 20
123.698808234
 30
0.0
 40
0.3000000000000114
100
AcDbArc
 50
270.0
 51
0.0
  0
LINE
  5
132
330
1F
100
AcDbEntity
  8
0
  6
HIDDEN
 62
     7
370
     0
100
AcDbLine
 10
185.8533100124
 20
105.1229311857
 30
0.0
 11
186.6112759732
 21
105.398808234
 31
0.0
  0
LINE
  5
133
330
1F
100
AcDbEntity
  8
0
  6
HIDDEN
 62
     7
370
     0
100
AcDbLine
 10
186.6112759732
 20
123.398808234
 30
0.0
 11
185.8533100124
 21
123.6746852823
 31
0.0
  0
LINE
  5
134
330
1F
100
AcDbEntity
  8
0
  6
HIDDEN
 62
     7
370
     0
100
AcDbLine
 10
111.5612759732
 20
105.398808234
 30
0.0
 11
112.0612759732
 21
105.898808234
 31
0.0
  0
LINE
  5
135
330
1F
100
AcDbEntity
  8
0
  6
HIDDEN
 62
     7
370
     0
100
AcDbLine
 10
112.0612759732
 20
122.898808234
 30
0.0
 11
111.5612759732
 21
123.398808234
 31
0.0
  0
LINE
  5
136
330
1F
100
AcDbEntity
  8
0
  6
HIDDEN
 62
     7
370
     0
100
AcDbLine
 10
186.6112759732
 20
105.398808234
 30
0.0
 11
231.3112759732
 21
105.398808234
 31
0.0
  0
LINE
  5
137
330
1F
100
AcDbEntity
  8
0
  6
HIDDEN
 62
     7
370
     0
100
AcDbLine
 10
231.3112759732
 20
123.398808234
 30
0.0
 11
186.6112759732
 21
123.398808234
 31
0.0
  0
LINE
  5
138
330
1F
100
AcDbEntity
  8
0
  6
HIDDEN
 62
     7
370
     0
100
AcDbLine
 10
112.0612759732
 20
105.898808234
 30
0.0
 11
120.4112759732
 21
105.898808234
 31
0.0
  0
LINE
  5
139
330
1F
100
AcDbEntity
  8
0
  6
HIDDEN
 62
     7
370
     0
100
AcDbLine
 10
120.4112759732
 20
122.898808234
 30
0.0
 11
112.0612759732
 21
122.898808234
 31
0.0
  0
LINE
  5
13A
330
1F
100
AcDbEntity
  8
0
  6
HIDDEN
 62
     7
370
     0
100
AcDbLine
 10
106.5612759732
 20
145.898808234
 30
0.0
 11
106.5612759732
 21
140.798808234
 31
0.0
  0
LINE
  5
13B
330
1F
100
AcDbEntity
  8
0
  6
HIDDEN
 62
     7
370
     0
100
AcDbLine
 10
96.7957138036
 20
90.3194369005
 30
0.0
 11
96.3612816542
 21
90.7985029196
 31
0.0
  0
LINE
  5
13C
330
1F
100
AcDbEntity
  8
0
  6
HIDDEN
 62
     7
370
     0
100
AcDbLine
 10
88.8612783291
 20
91.2201908787
 30
0.0
 11
88.3788445857
 21
90.7411249033
 31
0.0
  0
LINE
  5
13D
330
1F
100
AcDbEntity
  8
0
  6
HIDDEN
 62
     7
370
     0
100
AcDbLine
 10
88.3787226575
 20
138.0564862743
 30
0.0
 11
88.8612734085
 21
137.5773660164
 31
0.0
  0
LINE
  5
13E
330
1F
100
AcDbEntity
  8
0
  6
HIDDEN
 62
     7
370
     0
100
AcDbLine
 10
96.3612758552
 20
137.9990637941
 30
0.0
 11
96.7958182455
 21
138.4781840447
 31
0.0
  0
LINE
  5
13F
330
1F
100
AcDbEntity
  8
0
  6
HIDDEN
 62
     7
370
     0
100
AcDbLine
 10
123.4112759732
 20
110.148808234
 30
0.0
 11
182.6112759732
 21
110.148808234
 31
0.0
  0
LINE
  5
140
330
1F
100
AcDbEntity
  8
0
  6
HIDDEN
 62
     7
370
     0
100
AcDbLine
 10
182.6112759732
 20
118.648808234
 30
0.0
 11
123.4112759732
 21
118.648808234
 31
0.0
  0
LINE
  5
141
330
1F
100
AcDbEntity
  8
0
  6
HIDDEN
 62
     7
370
     0
100
AcDbLine
 10
96.3612759732
 20
90.7989868213
 30
0.0
 11
96.3612759732
 21
94.4634078958
 31
0.0
  0
LINE
  5
142
330
1F
100
AcDbEntity
  8
0
  6
HIDDEN
 62
     7
370
     0
100
AcDbLine
 10
88.8612759732
 20
94.4031860021
 30
0.0
 11
88.8612759732
 21
91.2205141165
 31
0.0
  0
LINE
  5
143
330
1F
100
AcDbEntity
  8
0
  6
HIDDEN
 62
     7
370
     0
100
AcDbLine
 10
96.3612759732
 20
134.3342085723
 30
0.0
 11
96.3612759732
 21
137.9985103725
 31
0.0
  0
LINE
  5
144
330
1F
100
AcDbEntity
  8
0
  6
HIDDEN
 62
     7
370
     0
100
AcDbLine
 10
88.8612759732
 20
137.5771108252
 30
0.0
 11
88.8612759732
 21
134.394430466
 31
0.0
  0
DIMENSION
  5
145
330
1F
100
AcDbEntity
  8
VERMASSUNG
100
AcDbDimension
  2
_D
 10
239.2391115926
 20
105.398808234
 30
0.0
 11
239.2391115926
 21
114.398808234
 31
0.0
 70
   160
  1
%%c<>
 71
     2
 42
-1.0
  3
SLDDIMSTYLE0
100
AcDbAlignedDimension
 13
231.3112759732
 23
123.398808234
 33
0.0
 14
231.3112759732
 24
105.398808234
 34
0.0
 50
90.0
100
AcDbRotatedDimension
  0
DIMENSION
  5
151
330
1F
100
AcDbEntity
  8
VERMASSUNG
100
AcDbDimension
  2
_D_1
 10
245.2391115926
 20
90.398808234
 30
0.0
 11
245.2391115926
 21
114.398808234
 31
0.0
 70
   160
  1
%%c<>
 71
     2
 42
-1.0
  3
SLDDIMSTYLE0
100
AcDbAlignedDimension
 13
220.8887413706
 23
138.398808234
 33
0.0
 14
220.8887413706
 24
90.398808234
 34
0.0
 50
90.0
100
AcDbRotatedDimension
  0
DIMENSION
  5
15C
330
1F
100
AcDbEntity
  8
VERMASSUNG
100
AcDbDimension
  2
_D_2
 10
127.5612759732
 20
147.8167930661
 30
0.0
 11
179.5862759732
 21
147.8167930661
 31
0.0
 70
   160
  1
<>
 71
     2
 42
-1.0
  3
SLDDIMSTYLE0
100
AcDbAlignedDimension
 13
231.6112759732
 23
132.1246677124
 33
0.0
 14
127.5612759732
 24
144.2452485578
 34
0.0
100
AcDbRotatedDimension
  0
DIMENSION
  5
166
330
1F
100
AcDbEntity
  8
VERMASSUNG
100
AcDbDimension
  2
_D_3
 10
101.6112759732
 20
153.8167930661
 30
0.0
 11
166.6112759732
 21
153.8167930661
 31
0.0
 70
   160
  1
<>
 71
     2
 42
-1.0
  3
SLDDIMSTYLE0
100
AcDbAlignedDimension
 13
231.6112759732
 23
132.1246677124
 33
0.0
 14
101.6112759732
 24
145.598808234
 34
0.0
100
AcDbRotatedDimension
  0
DIMENSION
  5
170
330
1F
100
AcDbEntity
  8
VERMASSUNG
100
AcDbDimension
  2
_D_4
 10
69.7112759732
 20
159.8167930661
 30
0.0
 11
150.6612759732
 21
159.8167930661
 31
0.0
 70
   160
  1
<>
 71
     2
 42
-1.0
  3
SLDDIMSTYLE0
100
AcDbAlignedDimension
 13
231.6112759732
 23
132.1246677124
 33
0.0
 14
69.7112759732
 24
134.0894859805
 34
0.0
100
AcDbRotatedDimension
  0
DIMENSION
  5
17A
330
1F
100
AcDbEntity
  8
VERMASSUNG
100
AcDbDimension
  2
_D_5
 10
63.0984832069
 20
82.898808234
 30
0.0
 11
63.0984832069
 21
114.398808234
 31
0.0
 70
   160
  1
HSK A %%c<>
 71
     2
 42
-1.0
  3
SLDDIMSTYLE0
100
AcDbAlignedDimension
 13
101.9112759732
 23
145.898808234
 33
0.0
 14
101.9112759732
 24
82.898808234
 34
0.0
 50
90.0
100
AcDbRotatedDimension
  0
LINE
  5
186
330
1F
100
AcDbEntity
  8
VERMASSUNG
  6
CENTERX2
370
     0
100
AcDbLine
 10
65.419176598
 20
114.398808234
 30
0.0
 11
233.2053087757
 21
114.398808234
 31
0.0
  0
OLE2FRAME
  5
187
330
1F
100
AcDbEntity
  8
0
100
AcDbOle2Frame
 70
     2
  3
Paintbrush-Bild
 10
13.8511154363
 20
38.264191557
 30
0.0
 11
51.6290888628
 21
31.9806341108
 31
0.0
 71
     2
 72
     0
 73
     1
 90
    12928
310
80552BED0767C5B32B40DDAF6807D121434000000000000000006FFBDDFB85D0
310
4940DDAF6807D121434000000000000000006FFBDDFB85D04940416F4BD60AFB
310
3F4000000000000000002BED0767C5B32B40416F4BD60AFB3F40000000000000
310
0000000000000100000000010000010000000100000000000100000000320000
310
D0CF11E0A1B11AE1000000000000000000000000000000003E000300FEFF0900
310
0600000000000000000000000100000001000000000000000010000002000000
310
01000000FEFFFFFF0000000000000000FFFFFFFFFFFFFFFFFFFFFFFFFFFFFFFF
310
FFFFFFFFFFFFFFFFFFFFFFFFFFFFFFFFFFFFFFFFFFFFFFFFFFFFFFFFFFFFFFFF
310
FFFFFFFFFFFFFFFFFFFFFFFFFFFFFFFFFFFFFFFFFFFFFFFFFFFFFFFFFFFFFFFF
310
FFFFFFFFFFFFFFFFFFFFFFFFFFFFFFFFFFFFFFFFFFFFFFFFFFFFFFFFFFFFFFFF
310
FFFFFFFFFFFFFFFFFFFFFFFFFFFFFFFFFFFFFFFFFFFFFFFFFFFFFFFFFFFFFFFF
310
FFFFFFFFFFFFFFFFFFFFFFFFFFFFFFFFFFFFFFFFFFFFFFFFFFFFFFFFFFFFFFFF
310
FFFFFFFFFFFFFFFFFFFFFFFFFFFFFFFFFFFFFFFFFFFFFFFFFFFFFFFFFFFFFFFF
310
FFFFFFFFFFFFFFFFFFFFFFFFFFFFFFFFFFFFFFFFFFFFFFFFFFFFFFFFFFFFFFFF
310
FFFFFFFFFFFFFFFFFFFFFFFFFFFFFFFFFFFFFFFFFFFFFFFFFFFFFFFFFFFFFFFF
310
FFFFFFFFFFFFFFFFFFFFFFFFFFFFFFFFFFFFFFFFFFFFFFFFFFFFFFFFFFFFFFFF
310
FFFFFFFFFFFFFFFFFFFFFFFFFFFFFFFFFFFFFFFFFFFFFFFFFFFFFFFFFFFFFFFF
310
FFFFFFFFFFFFFFFFFFFFFFFFFFFFFFFFFFFFFFFFFFFFFFFFFFFFFFFFFFFFFFFF
310
FFFFFFFFFFFFFFFFFFFFFFFFFFFFFFFFFFFFFFFFFFFFFFFFFFFFFFFFFFFFFFFF
310
FFFFFFFFFFFFFFFFFFFFFFFFFFFFFFFFFFFFFFFFFFFFFFFFFFFFFFFFFFFFFFFF
310
FDFFFFFFFEFFFFFFFEFFFFFFFEFFFFFF05000000060000000700000008000000
310
090000000A0000000B0000000C0000000D0000000E0000000F00000010000000
310
11000000120000001300000014000000150000001600000017000000FEFFFFFF
310
FFFFFFFFFFFFFFFFFFFFFFFFFFFFFFFFFFFFFFFFFFFFFFFFFFFFFFFFFFFFFFFF
310
FFFFFFFFFFFFFFFFFFFFFFFFFFFFFFFFFFFFFFFFFFFFFFFFFFFFFFFFFFFFFFFF
310
FFFFFFFFFFFFFFFFFFFFFFFFFFFFFFFFFFFFFFFFFFFFFFFFFFFFFFFFFFFFFFFF
310
FFFFFFFFFFFFFFFFFFFFFFFFFFFFFFFFFFFFFFFFFFFFFFFFFFFFFFFFFFFFFFFF
310
FFFFFFFFFFFFFFFFFFFFFFFFFFFFFFFFFFFFFFFFFFFFFFFFFFFFFFFFFFFFFFFF
310
FFFFFFFFFFFFFFFFFFFFFFFFFFFFFFFFFFFFFFFFFFFFFFFFFFFFFFFFFFFFFFFF
310
FFFFFFFFFFFFFFFFFFFFFFFFFFFFFFFFFFFFFFFFFFFFFFFFFFFFFFFFFFFFFFFF
310
FFFFFFFFFFFFFFFFFFFFFFFFFFFFFFFFFFFFFFFFFFFFFFFFFFFFFFFFFFFFFFFF
310
FFFFFFFFFFFFFFFFFFFFFFFFFFFFFFFFFFFFFFFFFFFFFFFFFFFFFFFFFFFFFFFF
310
FFFFFFFFFFFFFFFFFFFFFFFFFFFFFFFFFFFFFFFFFFFFFFFFFFFFFFFFFFFFFFFF
310
FFFFFFFFFFFFFFFFFFFFFFFFFFFFFFFFFFFFFFFFFFFFFFFFFFFFFFFFFFFFFFFF
310
FFFFFFFFFFFFFFFFFFFFFFFFFFFFFFFFFFFFFFFFFFFFFFFFFFFFFFFFFFFFFFFF
310
FFFFFFFFFFFFFFFFFFFFFFFFFFFFFFFFFFFFFFFFFFFFFFFFFFFFFFFFFFFFFFFF
310
52006F006F007400200045006E00740072007900000000000000000000000000
310
0000000000000000000000000000000000000000000000000000000000000000
310
16000500FFFFFFFFFFFFFFFF020000000A00030000000000C000000000000046
310
000000000000000000000000805251A687B6CD0103000000C000000000000000
310
01004F006C006500000000000000000000000000000000000000000000000000
310
0000000000000000000000000000000000000000000000000000000000000000
310
0A000200FFFFFFFFFFFFFFFFFFFFFFFF00000000000000000000000000000000
310
0000000000000000000000000000000000000000000000001400000000000000
310
010043006F006D0070004F0062006A0000000000000000000000000000000000
310
0000000000000000000000000000000000000000000000000000000000000000
310
120002010100000003000000FFFFFFFF00000000000000000000000000000000
310
0000000000000000000000000000000000000000010000004D00000000000000
310
01004F006C006500310030004E00610074006900760065000000000000000000
310
0000000000000000000000000000000000000000000000000000000000000000
310
1A000200FFFFFFFFFFFFFFFFFFFFFFFF00000000000000000000000000000000
310
0000000000000000000000000000000000000000040000002426000000000000
310
FEFFFFFF02000000FEFFFFFFFFFFFFFFFFFFFFFFFFFFFFFFFFFFFFFFFFFFFFFF
310
FFFFFFFFFFFFFFFFFFFFFFFFFFFFFFFFFFFFFFFFFFFFFFFFFFFFFFFFFFFFFFFF
310
FFFFFFFFFFFFFFFFFFFFFFFFFFFFFFFFFFFFFFFFFFFFFFFFFFFFFFFFFFFFFFFF
310
FFFFFFFFFFFFFFFFFFFFFFFFFFFFFFFFFFFFFFFFFFFFFFFFFFFFFFFFFFFFFFFF
310
FFFFFFFFFFFFFFFFFFFFFFFFFFFFFFFFFFFFFFFFFFFFFFFFFFFFFFFFFFFFFFFF
310
FFFFFFFFFFFFFFFFFFFFFFFFFFFFFFFFFFFFFFFFFFFFFFFFFFFFFFFFFFFFFFFF
310
FFFFFFFFFFFFFFFFFFFFFFFFFFFFFFFFFFFFFFFFFFFFFFFFFFFFFFFFFFFFFFFF
310
FFFFFFFFFFFFFFFFFFFFFFFFFFFFFFFFFFFFFFFFFFFFFFFFFFFFFFFFFFFFFFFF
310
FFFFFFFFFFFFFFFFFFFFFFFFFFFFFFFFFFFFFFFFFFFFFFFFFFFFFFFFFFFFFFFF
310
FFFFFFFFFFFFFFFFFFFFFFFFFFFFFFFFFFFFFFFFFFFFFFFFFFFFFFFFFFFFFFFF
310
FFFFFFFFFFFFFFFFFFFFFFFFFFFFFFFFFFFFFFFFFFFFFFFFFFFFFFFFFFFFFFFF
310
FFFFFFFFFFFFFFFFFFFFFFFFFFFFFFFFFFFFFFFFFFFFFFFFFFFFFFFFFFFFFFFF
310
FFFFFFFFFFFFFFFFFFFFFFFFFFFFFFFFFFFFFFFFFFFFFFFFFFFFFFFFFFFFFFFF
310
FFFFFFFFFFFFFFFFFFFFFFFFFFFFFFFFFFFFFFFFFFFFFFFFFFFFFFFFFFFFFFFF
310
FFFFFFFFFFFFFFFFFFFFFFFFFFFFFFFFFFFFFFFFFFFFFFFFFFFFFFFFFFFFFFFF
310
FFFFFFFFFFFFFFFFFFFFFFFFFFFFFFFFFFFFFFFFFFFFFFFFFFFFFFFFFFFFFFFF
310
0100000200000000000000000000000000000000000000000000000000000000
310
0000000000000000000000000000000000000000000000000000000000000000
310
0100FEFF030A0000FFFFFFFF0A00030000000000C00000000000004607000000
310
5042727573680007000000504272757368000700000050427275736800F439B2
310
7100000000000000000000000000000000000000000000000000000000000000
310
0000000000000000000000000000000000000000000000000000000000000000
310
0000000000000000000000000000000000000000000000000000000000000000
310
0000000000000000000000000000000000000000000000000000000000000000
310
0000000000000000000000000000000000000000000000000000000000000000
310
0000000000000000000000000000000000000000000000000000000000000000
310
0000000000000000000000000000000000000000000000000000000000000000
310
0000000000000000000000000000000000000000000000000000000000000000
310
0000000000000000000000000000000000000000000000000000000000000000
310
0000000000000000000000000000000000000000000000000000000000000000
310
0000000000000000000000000000000000000000000000000000000000000000
310
0000000000000000000000000000000000000000000000000000000000000000
310
20260000424D0E260000000000003E00000028000000B40200006E0000000100
310
01000000000000000000130B0000130B00000200000002000000000000FFFFFF
310
FFFFFFFFFFFFFFFFFFFFFFFFFFFFFFFFFFFFFFFFFFFFFFFFFFFFFFFFFFFFFFFF
310
FFFFFFFFFFFFFFFFFFFFFFFFFFFFFFFFFFFFFFFFFFFFFFFFFFFFFFFFFFFFFFFF
310
FFFFFFFFFFFFFFFFFFFFFFFFFFFFFFFFFFFFFFFFFFFFFFFFF000FFFFFFFFFFFF
310
FFFFFFFFFFFFFFFFFFFFFFFFFFFFFFFFFFFFFFFFFFFFFFFFFFFFFFFFFFFFFFFF
310
FFFFFFFFFFFFFFFFFFFFFFFFFFFFFFFFFFFFFFFFFFFFFFFFFFFFFFFFFFFFFFFF
310
FFFFFFFFFFFFFFFFFFFFFFFFFFFFFFFFF000FFFFFFFFFFFFFFFFFFFFFFFFFFFF
310
FFFFFFFFFFFFFFFFFFFFFFFFFFFFFFFFFFFFFFFFFFFFFFFFFFFFFFFFFFFFFFFF
310
FFFFFFFFFFFFFFFFFFFFFFFFFFFFFFFFFFFFFFFFFFFFFFFFFFFFFFFFFFFFFFFF
310
FFFFFFFFFFFFFFFFF000FFFFFFFFFFFFFFFFFFFFFFFFFFFFFFFFFFFFFFFFFFFF
310
FFFFFFFFFFFFFFFFFFFFFFFFFFFFFFFFFFFFFFFFFFFFFFFFFFFFFFFFFFFFFFFF
310
FFFFFFFFFFFFFFFFFFFFFFFFFFFFFFFFFFFFFFFFFFFFFFFFFFFFFFFFFFFFFFFF
310
F000FFFFFFFFFFFFFFFFFFFFFFFFFFFFFFFFFFFFFFFFFFFFFFFFFFFFFFFFFFFF
310
FFFFFFFFFFFFFFFFFFFFFFFFFFFFFFFFFFFFFFFFFFFFFFFFFFFFFFFFFFFFFFFF
310
FFFFFFFFFFFFFFFFFFFFFFFFFFFFFFFFFFFFFFFFFFFFFFFFF000FFFFFFFFFFFF
310
FFFFFFFFFFFFFFFFFFFFFFFFFFFFFFFFFFFFFFFFFFFFFFFFFFFFFFFFFFFFFFFF
310
FFFFFFFFFFFFFFFFFFFFFFFFFFFFFFFFFFFFFFFFFFFFFFFFFFFFFFFFFFFFFFFF
310
FFFFFFFFFFFFFFFFFFFFFFFFFFFFFFFFF000FFFFFFFFFFFFFFFFFFFFFFFFFFFF
310
FFFFFFFFFFFFFFFFFFFFFFFFFFFFFFFFFFFFFFFFFFFFFFFFFFFFFFFFFFFFFFFF
310
FFFFFFFFFFFFFFFFFFFFFFFFFFFFFFFFFFFFFFFFFFFFFFFFFFFFFFFFFFFFFFFF
310
FFFFFFFFFFFFFFFFF000FFFFFFFFFFFFFFFFFFFFFFFFFFFFFFFFFFFFFFFFFFFF
310
FFFFFFFFFFFFFFFFFFFFFFFFFFFFFFFFFFFFFFFFFFFFFFFFFFFFFFFFFFFFFFFF
310
FFFFFFFFFFFFFFFFFFFFFFFFFFFFFFFFFFFFFFFFFFFFFFFFFFFFFFFFFFFFFFFF
310
F000FFFFFFFFFFFFFFFFFFFFFFFFFFFFFFFFFFFFFFFFFFFFFFFFFFFFFFFFFFFF
310
FFFFFFFFFFFFFFFFFFFFFFFFFFFFFFFFFFFFFFFFFFFFFFFFFFFFFFFFFFFFFFFF
310
FFFFFFFFFFFFFFFFFFFFFFFFFFFFFFFFFFFFFFFFFFFFFFFFF000FFFFFFFFFFFF
310
FFFFFFFFFFFFFFFFFFFFFFFFFFFFFFFFFFFFFFFFFFFFFFFFFFFFFFFFFFFFFFFF
310
FFFFFFFFFFFFFFFFFFFFFFFFFFFFFFFFFFFFFFFFFFFFFFFFFFFFFFFFFFFFFFFF
310
FFFFFFFFFFFFFFFFFFFFFFFFFFFFFFFFF000FFFFFFFFFFFFFFFFFFFFFFFFFFFF
310
FFFFFFFFFFFFFFFFFFFFFFFFFFFFFFFFFFFFFFFFFFFFFFFFFFFFFFFFFFFFFFFF
310
FFFFFFFFFFFFFFFFFFFFFFFFFFFFFFFFFFFFFFFFFFFFFFFFFFFFFFFFFFFFFFFF
310
FFFFFFFFFFFFFFFFF000FFFFFFFFFFFFFFFFFFFFFFFFFFFFFFFFFFFFFFFFFFFF
310
FFFFFFFFFFFFFFFFFFFFFFFFFFFFFFFFFFFFFFFFFFFFFFFFFFFFFFFFFFFFFFFF
310
FFFFFFFFFFFFFFFFFFFFFFFFFFFFFFFFFFFFFFFFFFFFFFFFFFFFFFFFFFFFFFFF
310
F000FFFFFFFFFFFFFFFFFFFFFFFFFFFFFFFFFFFFFFFFFFFFFFFFFFFFFFFFFFFF
310
FFFFFFFFFFFFFFFFFFFFFFFFFFFFFFFFFFFFFFFFFFFFFFFFFFFFFFFFFFFFFFFF
310
FFFFFFFFFFFFFFFFFFFFFFFFFFFFFFFFFFFFFFFFFFFFFFFFF000FFFFFFFFFFFF
310
FFFFFFFFFFFFFFFFFFFFFFFFFFFFFFFFFFFFFFFFFFFFFFFFFFFFFFFFFFFFFFFF
310
FFFFFFFFFFFFFFFFFFFFFFFFFFFFFFFFFFFFFFFFFFFFFFFFFFFFFFFFFFFFFFFF
310
FFFFFFFFFFFFFFFFFFFFFFFFFFFFFFFFF000FFFFFFFFFFFFFFFFFFFFFFFFFFFF
310
FFFFFFFFFFFFFFFFFFFFFFFFFFFFFFFFFFFFFFFFFFFFFFFFFFFFFFFFFFFFFFFF
310
FFFFFFFFFFFFFFFFFFFFFFFFFFFFFFFFFFFFFFFFFFFFFFFFFFFFFFFFFFFFFFFF
310
FFFFFFFFFFFFFFFFF000FFFFFFFFFFFFFFFFFFFFFFFFFFFFFFFFFFFFFFFFFFFF
310
FFFFFFFFFFFFFFFFFFFFFFFFFFFFFFFFFFFFFFFFFFFFFFFFFFFFFFFFFFFFFFFF
310
FFFFFFFFFFFFFFFFFFFFFFFFFFFFFFFFFFFFFFFFFFFFFFFFFFFFFFFFFFFFFFFF
310
F000FFFFFFFFFFFFFFFFFFFFFFFFFFFFFFFFFFFFFFFFFFFFFFFFFFFFFFFFFFFF
310
FFFFFFFFFFFFFFFFFFFFFFFFFFFFFFFFFFFFFFFFFFFFFFFFFFFFFFFFFFFFFFFF
310
FFFFFFFFFFFFFFFFFFFFFFFFFFFFFFFFFFFFFFFFFFFFFFFFF000FFFFFFFFFFFF
310
FFFFFFFFFFFFFFFFFFFFFFFFFFFFFFFFFFFFFFFFFFFFFFFFFFFFFFFFFFFFFFFF
310
FFFFFFFFFFFFFFFFFFFFFFFFFFFFFFFFFFFFFFFFFFFFFFFFFFFFFFFFFFFFFFFF
310
FFFFFFFFFFFFFFFFFFFFFFFFFFFFFFFFF000FFFFFFFFFFFFFFFFFFFFFFFFFFFF
310
FFFFFFFFFFFFFFFFFFFFFFFFFFFFFFFFFFFFFFFFFFFFFFFFFFFFFFFFFFFFFFFF
310
FFFFFFFFFFFFFFFFFFFFFFFFFFFFFFFFFFFFFFFFFFFFFFFFFFFFFFFFFFFFFFFF
310
FFFFFFFFFFFFFFFFF000FFFFF80003FFFFFFFFFFFFFFFFFFFFFFFFFFFFFFFFFF
310
FFFFF00007FFFFFFFFFF00007FFFFFF800000000000000007FFFFFFFFFFFFFFF
310
FFFFFFFC001FFFFFFFFFFFFFFC001FFFFFFFFFFFFFFFFFFFFFFFFFFE0007FFFF
310
F000FFFF8000007FFFFFFFF8000FFFFFC0007FFFFF80007FFFFF0000007FFFFF
310
FFF8000007FFFFF800000000000000007FFFFFF0001FFFFFFFFFFFC00001FFFF
310
FFFFFFFFC00001FFFFFFFF000000000003FFFFE000007FFFF000FFFE0000000F
310
FFFFFFF0000FFFFF80007FFFFF80007FFFFC0000001FFFFFFFC0000001FFFFF8
310
00000000000000007FFFFFF0001FFFFFFFFFFE0000003FFFFFFFFFFE0000003F
310
FFFFFF000000000003FFFF0000000FFFF000FFF800000003FFFFFFF00007FFFF
310
80007FFFFF80007FFFF000000007FFFFFF000000003FFFF80000000000000000
310
7FFFFFF0001FFFFFFFFFF80000000FFFFFFFFFF80000000FFFFFFF0000000000
310
03FFFC00000003FFF000FFE000000000FFFFFFF00007FFFF80003FFFFF80007F
310
FFC000000001FFFFFC000000001FFFF800000000000000007FFFFFF0001FFFFF
310
FFFFE000000003FFFFFFFFE000000003FFFFFF000000000003FFF000000000FF
310
F000FF80000000007FFFFFF00007FFFF80003FFFFF80007FFF8000000000FFFF
310
F80000000007FFF800000000000000007FFFFFF0001FFFFFFFFFC000000001FF
310
FFFFFFC000000001FFFFFF000000000003FFC0000000007FF000FF0000000000
310
3FFFFFE00007FFFF00003FFFFF80007FFE00000000003FFFF00000000003FFF8
310
00000000000000007FFFFFF0001FFFFFFFFF8000000000FFFFFFFF8000000000
310
FFFFFF000000000003FF80000000003FF000FE00000000001FFFFFE00003FFFF
310
00003FFFFF80007FFC00000000001FFFE00000000001FFF8000001FFFE000000
310
7FFFFFF0001FFFFFFFFE00000000003FFFFFFE00000000003FFFFF0000000000
310
03FF00000000001FF000FC00000000000FFFFFE00003FFFF00001FFFFF80007F
310
F800000000001FFFC00000000000FFF8000001FFFE0000007FFFFFF0001FFFFF
310
FFFC00000000001FFFFFFC00000000001FFFFF000000000003FE00000000000F
310
F000F8000000000007FFFFE00003FFFF00001FFFFF80007FF800000000000FFF
310
800000000000FFF8000001FFFE0000007FFFFFF0001FFFFFFFF800000000000F
310
FFFFF800000000000FFFFF000000000003FC000000000007F000F80000000000
310
03FFFFC00003FFFE00001FFFFF80007FF0000000000007FF0000000000007FF8
310
000001FFFE0000007FFFFFF0001FFFFFFFF0000000000007FFFFF00000000000
310
07FFFF000000000003F8000000000003F000F0000000000003FFFFC00001FFFE
310
00001FFFFF80007FE0000000000007FE0000000000003FF8000001FFFE000000
310
7FFFFFF0001FFFFFFFF0000000000007FFFFF0000000000007FFFF0000000000
310
03F800001F800003F000E00001FFF00001FFFFC00001FFFE00000FFFFF80007F
310
E00001FFE00003FE00001FFF00003FF8000001FFFE0000007FFFFFF0001FFFFF
310
FFE000003E000003FFFFE000003E000003FFFF000000000003F00001FFF80001
310
F000E00007FFFC0001FFFFC00001FFFE00000FFFFF80007FC0000FFFFC0003FC
310
0000FFFFC0001FF8000001FFFE0000007FFFFFF0001FFFFFFFC00003FFE00001
310
FFFFC00003FFE00001FFFF0001FFFFFFFFF00007FFFE0001F000E0000FFFFF00
310
00FFFF800001FFFC00000FFFFF80007FC0001FFFFE0001FC0001FFFFE0001FF8
310
000001FFFE0000007FFFFFF0001FFFFFFF80000FFFF80000FFFF80000FFFF800
310
00FFFF0003FFFFFFFFE0000FFFFF8000F000C0003FFFFF8000FFFF800000FFFC
310
000007FFFF80007F80003FFFFF0001FC0003FFFFF0001FF8000001FFFE000000
310
7FFFFFF0001FFFFFFF80003FFFFE0000FFFF80003FFFFE0000FFFF0003FFFFFF
310
FFE0003FFFFF8000F000C0003FFFFF8000FFFF800000FFFC000007FFFF80007F
310
80007FFFFF8001F80007FFFFF8000FF8000001FFFE0000007FFFFFF0001FFFFF
310
FF00007FFFFF00007FFF00007FFFFF00007FFF0003FFFFFFFFE0003FFFFFC000
310
F000C0007FFFFFC000FFFF000000FFFC000007FFFF80007F8000FFFFFF8000F8
310
000FFFFFF8000FF8000001FFFE0000007FFFFFF0001FFFFFFF0000FFFFFF8000
310
7FFF0000FFFFFF80007FFF0003FFFFFFFFC0007FFFFFC00070008000FFFFFFC0
310
00FFFF000000FFF8000007FFFF80007F8000FFFFFF8000F8000FFFFFF8000FF8
310
000001FFFE0000007FFFFFF0001FFFFFFE0001FFFFFFC0003FFE0001FFFFFFC0
310
003FFF0003FFFFFFFFC0007FFFFFE00070008000FFFFFFC0007FFF0000007FF8
310
000003FFFF80007F0001FFFFFF8000F8000FFFFFF8000FF8000001FFFE000000
310
7FFFFFF0001FFFFFFE0001FFFFFFC0003FFE0001FFFFFFC0003FFF0003FFFFFF
310
FFC000FFFFFFE00070008000FFFFFFC0007FFF0000007FF8000003FFFF80007F
310
0001FFFFFF8000F8001FFFFFF8000FF8000001FFFE0000007FFFFFF0001FFFFF
310
FE0003FFFFFFE0003FFE0003FFFFFFE0003FFF0003FFFFFFFFC000FFFFFFE000
310
70008000FFFFFFC0007FFE0000007FF8000003FFFF80007F0001FFFFFF8000F0
310
001FFFFFF8000FF8000001FFFE0000007FFFFFF0001FFFFFFC0003FFFFFFE000
310
1FFC0003FFFFFFE0001FFF0003FFFFFFFFC000FFFFFFC00070008000FFFFFF80
310
007FFE0000007FF0000003FFFF80007F0001FFFFFF0000F0001FFFFFF8000FF8
310
000001FFFE0000007FFFFFF0001FFFFFFC0007FFFFFFF0001FFC0007FFFFFFF0
310
001FFF0003FFFFFFFFC000FFFFFFC00070008001FFFFFF0000FFFE0000003FF0
310
000001FFFF80007F0001FFFFFF0000F8001FFFFFF0000FF8000001FFFE000000
310
7FFFFFF0001FFFFFFC0007FFFFFFF0001FFC0007FFFFFFF0001FFF0003FFFFFF
310
FFC001FFFFFF80007000FFFFFFFFFE0000FFFE0008003FF0008001FFFF80007F
310
FFFFFFFFFC0000FFFFFFFFFFE0000FF8000001FFFE0000007FFFFFF0001FFFFF
310
F8000FFFFFFFF8000FF8000FFFFFFFF8000FFF0003FFFFFFFFFFFFFFFFFF0000
310
7000FFFFFFFFFC0000FFFC0008003FF0008001FFFF80007FFFFFFFFFF80001FF
310
FFFFFFFF80000FF8000001FFFE0000007FFFFFF0001FFFFFF8000FFFFFFFF800
310
0FF8000FFFFFFFF8000FFF0003FFFFFFFFFFFFFFFFFE0000F000FFFFFFFFE000
310
00FFFC000C003FE000C001FFFF80007FFFFFFFFFC00001FFFFFFFFFE00001FF8
310
000001FFFE0000007FFFFFF0001FFFFFF8000FFFFFFFF8000FF8000FFFFFFFF8
310
000FFF0003FFFFFFFFFFFFFFFFF00000F000FFFFFFFE000001FFFC000C001FE0
310
00C000FFFF80007FFFFFFFFE000001FFFFFFFFE000001FF80FFFFFFFFFFFFFC0
310
7FFFFFF0001FFFFFF8000FFFFFFFF8000FF8000FFFFFFFF8000FFF0003FFFFFF
310
FFFFFFFFFF800000F000FFFFFFC0000001FFFC001C001FE001C000FFFF80007F
310
FFFFFF80000003FFFFFFF80000001FF80FFFFFFFFFFFFFC07FFFFFF0001FFFFF
310
F8001FFFFFFFFC000FF8001FFFFFFFFC000FFF0003FFFFFFFFFFFFFFF0000001
310
F000FFFFF800000001FFF8001C001FE001C000FFFF80007FFFFFF800000003FF
310
FFFF800000003FF80FFFFFFFFFFFFFC07FFFFFF0001FFFFFF8001FFFFFFFFC00
310
0FF8001FFFFFFFFC000FFF0003FFFFFFFFFFFFFE00000001F000FFFFC0000000
310
03FFF8001E001FC001E000FFFF80007FFFFF8000000007FFFFFC000000003FF8
310
0FFFFFFFFFFFFFC07FFFFFF0001FFFFFF8001FFFFFFFFC000FF8001FFFFFFFFC
310
000FFF0003FFFFFFFFFFFFE000000003F000FFFE0000000007FFF8001E000FC0
310
01E0007FFF80007FFFFE0000000007FFFFE0000000007FF80FFFFFFFFFFFFFC0
310
7FFFFFF0001FFFFFF0001FFFFFFFFC0007F0001FFFFFFFFC0007FF0003FFFFFF
310
FFFFFF0000000003F000FFF80000000007FFF8001E000FC003E0007FFF80007F
310
FFF0000000000FFFFF8000000000FFF80FFFFFFFFFFFFFC07FFFFFF0001FFFFF
310
F0001FFFFFFFFC0007F0001FFFFFFFFC0007FF0003FFFFFFFFFFFC0000000007
310
F000FFE0000000000FFFF0003E000FC003E0007FFF80007FFFC0000000001FFF
310
FE0000000001FFF80FFFFFFFFFFFFFC07FFFFFF0001FFFFFF0001FFFFFFFFC00
310
07F0001FFFFFFFFC0007FF0003FFFFFFFFFFF0000000000FF000FFC000000000
310
1FFFF0003F000F8003F0003FFF80007FFF80000000003FFFF80000000003FFF8
310
0FFFFFFFFFFFFFC07FFFFFF0001FFFFFF0001FFFFFFFFC0007F0001FFFFFFFFC
310
0007FF0003FFFFFFFFFFE0000000001FF000FF00000000007FFFF0003F000780
310
03F0003FFF80007FFF00000000007FFFF00000000007FFF80FFFFFFFFFFFFFC0
310
7FFFFFF0001FFFFFF0001FFFFFFFFC0007F0001FFFFFFFFC0007FF0003FFFFFF
310
FFFF80000000007FF000FE0000000000FFFFE0003F00078007F0003FFF80007F
310
FE0000000001FFFFE0000000001FFFF80FFFFFFFFFFFFFC07FFFFFF0001FFFFF
310
F0001FFFFFFFFC0007F0001FFFFFFFFC0007FF0003FFFFFFFFFF0000000000FF
310
F000FC0000000003FFFFE0007F00078007F0003FFF80007FFC0000000007FFFF
310
C0000000007FFFF80FFFFFFFFFFFFFC07FFFFFF0001FFFFFF8001FFFFFFFFC00
310
0FF8001FFFFFFFFC000FFF0003FFFFFFFFFE0000000003FFF000FC000000000F
310
FFFFE0007F80070007F8001FFF80007FF8000000001FFFFF8000000001FFFFF8
310
0FFFFFFFFFFFFFC07FFFFFF0001FFFFFF8001FFFFFFFFC000FF8001FFFFFFFFC
310
000FFF0003FFFFFFFFFC000000000FFFF000F8000000007FFFFFE0007F800700
310
07F8001FFF80007FF000000000FFFFFF800000000FFFFFF80FFFFFFFFFFFFFC0
310
7FFFFFF0001FFFFFF8000FFFFFFFF8000FF8000FFFFFFFF8000FFF0003FFFFFF
310
FFFC000000007FFFF000F800000007FFFFFFC0007F8003000FF8001FFF80007F
310
F000000007FFFFFF000000007FFFFFF80FFFFFFFFFFFFFC07FFFFFF0001FFFFF
310
F8000FFFFFFFF8000FF8000FFFFFFFF8000FFF0003FFFFFFFFF80000000FFFFF
310
F000F0000000FFFFFFFFC000FF8003000FF8001FFF80007FE0000000FFFFFFFF
310
0000000FFFFFFFF8000001FFFE0000007FFFFFF0001FFFFFF8000FFFFFFFF800
310
0FF8000FFFFFFFF8000FFF0003FFFFFFFFF8000000FFFFFFF000F000000FFFFF
310
FFFFC000FFC002000FF8000FFF80007FE000001FFFFFFFFE000001FFFFFFFFF8
310
000001FFFE0000007FFFFFF0001FFFFFF8000FFFFFFFF8000FF8000FFFFFFFF8
310
000FFF0003FFFFFFFFF000001FFFFFFFF000E00000FFFFFFFFFFC000FFC00200
310
0FFC000FFF80007FE00001FFFFFFFFFE00001FFFFFFFFFF8000001FFFE000000
310
7FFFFFF0001FFFFFFC000FFFFFFFF8001FFC000FFFFFFFF8001FFF0003FFFFFF
310
FFF00001FFFFFFFFF000E00007FFFFFFFFFF8000FFC000001FFC000FFF80007F
310
C0000FFFFFFFFFFE0000FFFFFFFFFFF8000001FFFE0000007FFFFFF0001FFFFF
310
FC0007FFFFFFF0001FFC0007FFFFFFF0001FFF0003FFFFFFFFF00007FFFFFFFF
310
F000E0001FFFFFFFFFFF8000FFC000001FFC000FFF80007FC0003FFFFFFFFFFE
310
0001FFFFFFFFFFF8000001FFFE0000007FFFFFF0001FFFFFFC0007FFFFFFF000
310
1FFC0007FFFFFFF0001FFF0003FFFFFFFFF0001FFFFFFFFFF000E0003FFFFF00
310
03FF8001FFE000001FFC0007FF80007FC0007FFFFF0007FC0003FFFFF0003FF8
310
000001FFFE0000007FFFFFF0001FFFFFFC0003FFFFFFE0001FFC0003FFFFFFE0
310
001FFF0003FFFFFFFFF0003FFFFFFFFFF000E0003FFFFF0001FF8001FFE00000
310
1FFE0007FF80007FC0007FFFFE0003FC0007FFFFE0003FF8000001FFFE000000
310
7FFFFFF0001FFFFFFE0003FFFFFFE0003FFE0003FFFFFFE0003FFF0003FFFFFF
310
FFF0003FFFFF8001F000E0003FFFFF0001FF0001FFE000001FFE0007FF80007F
310
C0007FFFFE0003FC0007FFFFE0003FF8000001FFFE0000007FFFFFF0001FFFFF
310
FE0001FFFFFFC0003FFE0001FFFFFFC0003FFF0003FFFFFFFFF0003FFFFF0001
310
F000E0003FFFFF0003FF0001FFE000003FFE0007FF80007FC0007FFFFE0003FC
310
0007FFFFE0003FF8000001FFFE0000007FFFFFF0001FFFFFFF0001FFFFFFC000
310
7FFF0001FFFFFFC0007FFF0003FFFFFFFFF0003FFFFF0001F000E0003FFFFE00
310
03FF0003FFF000003FFE0003FF80007FC0007FFFFC0003FE0007FFFFE0003FF8
310
000001FFFE0000007FFFFFF0001FFFFFFF0000FFFFFF80007FFF0000FFFFFF80
310
007FFF0003FFFFFFFFF0003FFFFF0001F000E0003FFFFE0003FF0003FFF00000
310
3FFF0003FF80007FC0007FFFFC0007FE0007FFFFC0003FF8000001FFFE000000
310
7FFFFFF0001FFFFFFF80007FFFFF0000FFFF80007FFFFF0000FFFF0003FFFFFF
310
FFF0003FFFFF0003F000E0003FFFFC0003FE0003FFF000003FFF0003FF80007F
310
E0003FFFF80007FE0003FFFFC0007FF8000001FFFE0000007FFFFFF0001FFFFF
310
FF80003FFFFE0000FFFF80003FFFFE0000FFFF0003FFFFFFFFF0001FFFFE0003
310
F000F0001FFFF80003FE0003FFF000007FFF0001FF80007FE0003FFFF00007FE
310
0001FFFF80007FF8000001FFFE0000007FFFFFF0001FFFFFFFC0000FFFF80001
310
FFFFC0000FFFF80001FFFF0003FFFFFFFFF0001FFFFC0003F000F0000FFFF000
310
07FE0007FFF800007FFF0001FF80007FE0001FFFE00007FF0000FFFE00007FF8
310
000001FFFE0000007FFFFFF0001FFFFFFFC00003FFE00001FFFFC00003FFE000
310
01FFFF0003FFFFFFFFF8000FFFF80003F000F00003FFC00007FC0007FFF80000
310
7FFF8001FF80007FF00007FF80000FFF00007FF80000FFF8000001FFFE000000
310
7F80000000000001FFE000003E000003FFFFE000003E000003FFFF0003FFFFFF
310
FFF80003FFE00007F000F800000000000FFC0007FFF800007FFF8001FF80007F
310
F000000000000FFF000000000000FFF8000001FFFE0000007F80000000000001
310
FFF0000000000007FFFFF0000000000007FFFF0003FFFFFFFFFC00007E000007
310
F000F800000000000FFC0007FFF80000FFFF8000FF80007FF800000000001FFF
310
800000000001FFF8000001FFFE0000007F80000000000001FFF800000000000F
310
FFFFF800000000000FFFFF0003FFFFFFFFFC00000000000FF000FC0000000000
310
1FFC0007FFFC0000FFFF8000FF80007FF800000000003FFFC00000000001FFF8
310
000001FFFE0000007F80000000000001FFF800000000000FFFFFF80000000000
310
0FFFFF0003FFFFFFFFFE00000000001FF000FE00000000003FF8000FFFFC0000
310
FFFF8000FF80007FFC00000000003FFFC00000000003FFF8000001FFFE000000
310
7F80000000000001FFFC00000000001FFFFFFC00000000001FFFFF0003FFFFFF
310
FFFF00000000001FF000FF00000000003FF8000FFFFC0000FFFFC000FF80007F
310
FE00000000007FFFE00000000007FFF8000001FFFE0000007F80000000000001
310
FFFE00000000003FFFFFFE00000000003FFFFF0003FFFFFFFFFF80000000003F
310
F000FF80000000007FF8000FFFFC0001FFFFC0007F80007FFF0000000000FFFF
310
F0000000000FFFF800000000000000007F80000000000001FFFF8000000000FF
310
FFFFFF8000000000FFFFFF0003FFFFFFFFFFC0000000007FF000FFC000000000
310
FFF8000FFFFE0001FFFFC0007F80007FFF8000000001FFFFF8000000001FFFF8
310
00000000000000007F80000000000001FFFFC000000001FFFFFFFFC000000001
310
FFFFFF0003FFFFFFFFFFE000000000FFF000FFE000000003FFF0001FFFFE0001
310
FFFFC0007F80007FFFC000000007FFFFFE000000003FFFF80000000000000000
310
7F80000000000001FFFFE000000003FFFFFFFFE000000003FFFFFF0003FFFFFF
310
FFFFF000000003FFF000FFF80000000FFFF0001FFFFE0001FFFFE0007F80007F
310
FFF00000000FFFFFFF00000000FFFFF800000000000000007F80000000000001
310
FFFFF80000000FFFFFFFFFF80000000FFFFFFF0003FFFFFFFFFFFC0000000FFF
310
F000FFFE0000003FFFF0001FFFFE0003FFFFE0003F80007FFFFC0000003FFFFF
310
FFC0000003FFFFF800000000000000007F80000000000001FFFFFE0000003FFF
310
FFFFFFFE0000003FFFFFFF0003FFFFFFFFFFFF0000003FFFF000FFFF800000FF
310
FFF0001FFFFF0003FFFFE0003F80007FFFFF000001FFFFFFFFF800001FFFFFF8
310
00000000000000007F80000000000001FFFFFFC00001FFFFFFFFFFFFC00001FF
310
FFFFFF0003FFFFFFFFFFFFC00000FFFFF000FFFFF8000FFFFFFFFFFFFFFFFFFF
310
FFFFFFFFFFFFFFFFFFFFF0001FFFFFFFFFFF0000FFFFFFF80000000000000000
310
7FFFFFFFFFFFFFFFFFFFFFFC001FFFFFFFFFFFFFFC001FFFFFFFFFFFFFFFFFFF
310
FFFFFFFC001FFFFFF000FFFFFFFFFFFFFFFFFFFFFFFFFFFFFFFFFFFFFFFFFFFF
310
FFFFFFFFFFFFFFFFFFFFFFFFFFFFFFFFFFFFFFFFFFFFFFFFFFFFFFFFFFFFFFFF
310
FFFFFFFFFFFFFFFFFFFFFFFFFFFFFFFFFFFFFFFFFFFFFFFFFFFFFFFFFFFFFFFF
310
F000FFFFFFFFFFFFFFFFFFFFFFFFFFFFFFFFFFFFFFFFFFFFFFFFFFFFFFFFFFFF
310
FFFFFFFFFFFFFFFFFFFFFFFFFFFFFFFFFFFFFFFFFFFFFFFFFFFFFFFFFFFFFFFF
310
FFFFFFFFFFFFFFFFFFFFFFFFFFFFFFFFFFFFFFFFFFFFFFFFF000FFFFFFFFFFFF
310
FFFFFFFFFFFFFFFFFFFFFFFFFFFFFFFFFFFFFFFFFFFFFFFFFFFFFFFFFFFFFFFF
310
FFFFFFFFFFFFFFFFFFFFFFFFFFFFFFFFFFFFFFFFFFFFFFFFFFFFFFFFFFFFFFFF
310
FFFFFFFFFFFFFFFFFFFFFFFFFFFFFFFFF000FFFFFFFFFFFFFFFFFFFFFFFFFFFF
310
FFFFFFFFFFFFFFFFFFFFFFFFFFFFFFFFFFFFFFFFFFFFFFFFFFFFFFFFFFFFFFFF
310
FFFFFFFFFFFFFFFFFFFFFFFFFFFFFFFFFFFFFFFFFFFFFFFFFFFFFFFFFFFFFFFF
310
FFFFFFFFFFFFFFFFF000FFFFFFFFFFFFFFFFFFFFFFFFFFFFFFFFFFFFFFFFFFFF
310
FFFFFFFFFFFFFFFFFFFFFFFFFFFFFFFFFFFFFFFFFFFFFFFFFFFFFFFFFFFFFFFF
310
FFFFFFFFFFFFFFFFFFFFFFFFFFFFFFFFFFFFFFFFFFFFFFFFFFFFFFFFFFFFFFFF
310
F000FFFFFFFFFFFFFFFFFFFFFFFFFFFFFFFFFFFFFFFFFFFFFFFFFFFFFFFFFFFF
310
FFFFFFFFFFFFFFFFFFFFFFFFFFFFFFFFFFFFFFFFFFFFFFFFFFFFFFFFFFFFFFFF
310
FFFFFFFFFFFFFFFFFFFFFFFFFFFFFFFFFFFFFFFFFFFFFFFFF000FFFFFFFFFFFF
310
FFFFFFFFFFFFFFFFFFFFFFFFFFFFFFFFFFFFFFFFFFFFFFFFFFFFFFFFFFFFFFFF
310
FFFFFFFFFFFFFFFFFFFFFFFFFFFFFFFFFFFFFFFFFFFFFFFFFFFFFFFFFFFFFFFF
310
FFFFFFFFFFFFFFFFFFFFFFFFFFFFFFFFF000FFFFFFFFFFFFFFFFFFFFFFFFFFFF
310
FFFFFFFFFFFFFFFFFFFFFFFFFFFFFFFFFFFFFFFFFFFFFFFFFFFFFFFFFFFFFFFF
310
FFFFFFFFFFFFFFFFFFFFFFFFFFFFFFFFFFFFFFFFFFFFFFFFFFFFFFFFFFFFFFFF
310
FFFFFFFFFFFFFFFFF000FFFFFFFFFFFFFFFFFFFFFFFFFFFFFFFFFFFFFFFFFFFF
310
FFFFFFFFFFFFFFFFFFFFFFFFFFFFFFFFFFFFFFFFFFFFFFFFFFFFFFFFFFFFFFFF
310
FFFFFFFFFFFFFFFFFFFFFFFFFFFFFFFFFFFFFFFFFFFFFFFFFFFFFFFFFFFFFFFF
310
F000FFFFFFFFFFFFFFFFFFFFFFFFFFFFFFFFFFFFFFFFFFFFFFFFFFFFFFFFFFFF
310
FFFFFFFFFFFFFFFFFFFFFFFFFFFFFFFFFFFFFFFFFFFFFFFFFFFFFFFFFFFFFFFF
310
FFFFFFFFFFFFFFFFFFFFFFFFFFFFFFFFFFFFFFFFFFFFFFFFF000FFFFFFFFFFFF
310
FFFFFFFFFFFFFFFFFFFFFFFFFFFFFFFFFFFFFFFFFFFFFFFFFFFFFFFFFFFFFFFF
310
FFFFFFFFFFFFFFFFFFFFFFFFFFFFFFFFFFFFFFFFFFFFFFFFFFFFFFFFFFFFFFFF
310
FFFFFFFFFFFFFFFFFFFFFFFFFFFFFFFFF000FFFFFFFFFFFFFFFFFFFFFFFFFFFF
310
FFFFFFFFFFFFFFFFFFFFFFFFFFFFFFFFFFFFFFFFFFFFFFFFFFFFFFFFFFFFFFFF
310
FFFFFFFFFFFFFFFFFFFFFFFFFFFFFFFFFFFFFFFFFFFFFFFFFFFFFFFFFFFFFFFF
310
FFFFFFFFFFFFFFFFF000FFFFFFFFFFFFFFFFFFFFFFFFFFFFFFFFFFFFFFFFFFFF
310
FFFFFFFFFFFFFFFFFFFFFFFFFFFFFFFFFFFFFFFFFFFFFFFFFFFFFFFFFFFFFFFF
310
FFFFFFFFFFFFFFFFFFFFFFFFFFFFFFFFFFFFFFFFFFFFFFFFFFFFFFFFFFFFFFFF
310
F000FFFFFFFFFFFFFFFFFFFFFFFFFFFFFFFFFFFFFFFFFFFFFFFFFFFFFFFFFFFF
310
FFFFFFFFFFFFFFFFFFFFFFFFFFFFFFFFFFFFFFFFFFFFFFFFFFFFFFFFFFFFFFFF
310
FFFFFFFFFFFFFFFFFFFFFFFFFFFFFFFFFFFFFFFFFFFFFFFFF000FFFFFFFFFFFF
310
FFFFFFFFFFFFFFFFFFFFFFFFFFFFFFFFFFFFFFFFFFFFFFFFFFFFFFFFFFFFFFFF
310
FFFFFFFFFFFFFFFFFFFFFFFFFFFFFFFFFFFFFFFFFFFFFFFFFFFFFFFFFFFFFFFF
310
FFFFFFFFFFFFFFFFFFFFFFFFFFFFFFFFF000FFFFFFFFFFFFFFFFFFFFFFFFFFFF
310
FFFFFFFFFFFFFFFFFFFFFFFFFFFFFFFFFFFFFFFFFFFFFFFFFFFFFFFFFFFFFFFF
310
FFFFFFFFFFFFFFFFFFFFFFFFFFFFFFFFFFFFFFFFFFFFFFFFFFFFFFFFFFFFFFFF
310
FFFFFFFFFFFFFFFFF000FFFFFFFFFFFFFFFFFFFFFFFFFFFFFFFFFFFFFFFFFFFF
310
FFFFFFFFFFFFFFFFFFFFFFFFFFFFFFFFFFFFFFFFFFFFFFFFFFFFFFFFFFFFFFFF
310
FFFFFFFFFFFFFFFFFFFFFFFFFFFFFFFFFFFFFFFFFFFFFFFFFFFFFFFFFFFFFFFF
310
F000FFFFFFFFFFFFFFFFFFFFFFFFFFFFFFFFFFFFFFFFFFFFFFFFFFFFFFFFFFFF
310
FFFFFFFFFFFFFFFFFFFFFFFFFFFFFFFFFFFFFFFFFFFFFFFFFFFFFFFFFFFFFFFF
310
FFFFFFFFFFFFFFFFFFFFFFFFFFFFFFFFFFFFFFFFFFFFFFFFF000FFFFFFFFFFFF
310
FFFFFFFFFFFFFFFFFFFFFFFFFFFFFFFFFFFFFFFFFFFFFFFFFFFFFFFFFFFFFFFF
310
FFFFFFFFFFFFFFFFFFFFFFFFFFFFFFFFFFFFFFFFFFFFFFFFFFFFFFFFFFFFFFFF
310
FFFFFFFFFFFFFFFFFFFFFFFFFFFFFFFFF000FFFFFFFFFFFFFFFFFFFFFFFFFFFF
310
FFFFFFFFFFFFFFFFFFFFFFFFFFFFFFFFFFFFFFFFFFFFFFFFFFFFFFFFFFFFFFFF
310
FFFFFFFFFFFFFFFFFFFFFFFFFFFFFFFFFFFFFFFFFFFFFFFFFFFFFFFFFFFFFFFF
310
FFFFFFFFFFFFFFFFF000FFFFFFFFFFFFFFFFFFFFFFFFFFFFFFFFFFFFFFFFFFFF
310
FFFFFFFFFFFFFFFFFFFFFFFFFFFFFFFFFFFFFFFFFFFFFFFFFFFFFFFFFFFFFFFF
310
FFFFFFFFFFFFFFFFFFFFFFFFFFFFFFFFFFFFFFFFFFFFFFFFFFFFFFFFFFFFFFFF
310
F000FFFFFFFFFFFFFFFFFFFFFFFFFFFFFFFFFFFFFFFFFFFFFFFFFFFFFFFFFFFF
310
FFFFFFFFFFFFFFFFFFFFFFFFFFFFFFFFFFFFFFFFFFFFFFFFFFFFFFFFFFFFFFFF
310
FFFFFFFFFFFFFFFFFFFFFFFFFFFFFFFFFFFFFFFFFFFFFFFFF000FFFFFFFFFFFF
310
FFFFFFFFFFFFFFFFFFFFFFFFFFFFFFFFFFFFFFFFFFFFFFFFFFFFFFFFFFFFFFFF
310
FFFFFFFFFFFFFFFFFFFFFFFFFFFFFFFFFFFFFFFFFFFFFFFFFFFFFFFFFFFFFFFF
310
FFFFFFFFFFFFFFFFFFFFFFFFFFFFFFFFF0000000000000000000000000000000
310
0000000000000000000000000000000000000000000000000000000000000000
310
0000000000000000000000000000000000000000000000000000000000000000
310
0000000000000000000000000000000000000000000000000000000000000000
310
0000000000000000000000000000000000000000000000000000000000000000
310
0000000000000000000000000000000000000000000000000000000000000000
310
0000000000000000000000000000000000000000000000000000000000000000
310
0000000000000000000000000000000000000000000000000000000000000000
310
0000000000000000000000000000000000000000000000000000000000000000
310
0000000000000000000000000000000000000000000000000000000000000000
310
0000000000000000000000000000000000000000000000000000000000000000
310
0000000000000000000000000000000000000000000000000000000000000000
310
0000000000000000000000000000000000000000000000000000000000000000
310
0000000000000000000000000000000000000000000000000000000000000000
310
0000000000000000000000000000000000000000000000000000000000000000
310
0000000000000000000000000000000000000000000000000000000000000000
  1
OLE
  0
ENDSEC
  0
SECTION
  2
OBJECTS
  0
DICTIONARY
  5
C
330
0
100
AcDbDictionary
281
     1
  3
ACAD_GROUP
350
D
  3
ACAD_LAYOUT
350
1A
  3
ACAD_MLINESTYLE
350
17
  3
ACAD_PLOTSETTINGS
350
19
  3
ACAD_PLOTSTYLENAME
350
E
  0
DICTIONARY
  5
D
102
{ACAD_REACTORS
330
C
102
}
330
C
100
AcDbDictionary
281
     1
  0
DICTIONARY
  5
1A
102
{ACAD_REACTORS
330
C
102
}
330
C
100
AcDbDictionary
281
     1
  3
Layout1
350
1E
  3
Layout2
350
26
  3
Model
350
22
  0
DICTIONARY
  5
17
102
{ACAD_REACTORS
330
C
102
}
330
C
100
AcDbDictionary
281
     1
  3
Standard
350
18
  0
DICTIONARY
  5
19
102
{ACAD_REACTORS
330
C
102
}
330
C
100
AcDbDictionary
281
     1
  0
ACDBDICTIONARYWDFLT
  5
E
102
{ACAD_REACTORS
330
C
102
}
330
C
100
AcDbDictionary
281
     1
  3
Normal
350
F
100
AcDbDictionaryWithDefault
340
F
  0
LAYOUT
  5
1E
102
{ACAD_REACTORS
330
1A
102
}
330
1A
100
AcDbPlotSettings
  1

  2
none_device
  4

  6

 40
0.0
 41
0.0
 42
0.0
 43
0.0
 44
0.0
 45
0.0
 46
0.0
 47
0.0
 48
0.0
 49
0.0
140
0.0
141
0.0
142
1.0
143
1.0
 70
   688
 72
     0
 73
     0
 74
     5
  7

 75
    16
147
1.0
148
0.0
149
0.0
100
AcDbLayout
  1
Layout1
 70
     1
 71
     1
 10
0.0
 20
0.0
 11
420.0
 21
297.0
 12
0.0
 22
0.0
 32
0.0
 14
1.0000000000E+20
 24
1.0000000000E+20
 34
1.0000000000E+20
 15
-1.0000000000E+20
 25
-1.0000000000E+20
 35
-1.0000000000E+20
146
0.0
 13
0.0
 23
0.0
 33
0.0
 16
1.0
 26
0.0
 36
0.0
 17
0.0
 27
1.0
 37
0.0
 76
     0
330
1B
  0
LAYOUT
  5
26
102
{ACAD_REACTORS
330
1A
102
}
330
1A
100
AcDbPlotSettings
  1

  2
none_device
  4

  6

 40
0.0
 41
0.0
 42
0.0
 43
0.0
 44
0.0
 45
0.0
 46
0.0
 47
0.0
 48
0.0
 49
0.0
140
0.0
141
0.0
142
1.0
143
1.0
 70
   688
 72
     0
 73
     0
 74
     5
  7

 75
    16
147
1.0
148
0.0
149
0.0
100
AcDbLayout
  1
Layout2
 70
     1
 71
     2
 10
0.0
 20
0.0
 11
0.0
 21
0.0
 12
0.0
 22
0.0
 32
0.0
 14
0.0
 24
0.0
 34
0.0
 15
0.0
 25
0.0
 35
0.0
146
0.0
 13
0.0
 23
0.0
 33
0.0
 16
1.0
 26
0.0
 36
0.0
 17
0.0
 27
1.0
 37
0.0
 76
     0
330
23
  0
LAYOUT
  5
22
102
{ACAD_REACTORS
330
1A
102
}
330
1A
100
AcDbPlotSettings
  1

  2
none_device
  4

  6

 40
0.0
 41
0.0
 42
0.0
 43
0.0
 44
0.0
 45
0.0
 46
0.0
 47
0.0
 48
0.0
 49
0.0
140
0.0
141
0.0
142
1.0
143
1.0
 70
  1712
 72
     0
 73
     0
 74
     0
  7

 75
     0
147
1.0
148
0.0
149
0.0
100
AcDbLayout
  1
Model
 70
     1
 71
     0
 10
0.0
 20
0.0
 11
297.0
 21
210.0
 12
0.0
 22
0.0
 32
0.0
 14
0.0
 24
0.0
 34
0.0
 15
297.0
 25
210.0
 35
0.0
146
0.0
 13
0.0
 23
0.0
 33
0.0
 16
1.0
 26
0.0
 36
0.0
 17
0.0
 27
1.0
 37
0.0
 76
     0
330
1F
331
29
  0
MLINESTYLE
  5
18
102
{ACAD_REACTORS
330
17
102
}
330
17
100
AcDbMlineStyle
  2
Standard
 70
     0
  3

 62
   256
 51
90.0
 52
90.0
 71
     2
 49
0.5
 62
   256
  6
BYLAYER
 49
-0.5
 62
   256
  6
BYLAYER
  0
ACDBPLACEHOLDER
  5
F
102
{ACAD_REACTORS
330
E
102
}
330
E
  0
ENDSEC
  0
EOF
