  0
SECTION
  2
HEADER
  9
$ACADVER
  1
AC1015
  9
$ACADMAINTVER
 70
     6
  9
$DWGCODEPAGE
  3
ANSI_1252
  9
$INSBASE
 10
0.0
 20
0.0
 30
0.0
  9
$EXTMIN
 10
0.0
 20
0.0
 30
0.0
  9
$EXTMAX
 10
297.0
 20
210.0
 30
0.0
  9
$LIMMIN
 10
0.0
 20
0.0
  9
$LIMMAX
 10
297.0
 20
210.0
  9
$ORTHOMODE
 70
     0
  9
$REGENMODE
 70
     1
  9
$FILLMODE
 70
     1
  9
$QTEXTMODE
 70
     0
  9
$MIRRTEXT
 70
     1
  9
$LTSCALE
 40
1.0
  9
$ATTMODE
 70
     1
  9
$TEXTSIZE
 40
2.0
  9
$TRACEWID
 40
1.0
  9
$TEXTSTYLE
  7
Standard
  9
$CLAYER
  8
0
  9
$CELTYPE
  6
ByLayer
  9
$CECOLOR
 62
   256
  9
$CELTSCALE
 40
1.0
  9
$DISPSILH
 70
     0
  9
$DIMSCALE
 40
1.0
  9
$DIMASZ
 40
3.0
  9
$DIMEXO
 40
0.0
  9
$DIMDLI
 40
3.75
  9
$DIMRND
 40
0.0
  9
$DIMDLE
 40
0.0
  9
$DIMEXE
 40
1.0
  9
$DIMTP
 40
0.0
  9
$DIMTM
 40
0.0
  9
$DIMTXT
 40
2.0
  9
$DIMCEN
 40
2.5
  9
$DIMTSZ
 40
0.0
  9
$DIMTOL
 70
     0
  9
$DIMLIM
 70
     0
  9
$DIMTIH
 70
     1
  9
$DIMTOH
 70
     1
  9
$DIMSE1
 70
     0
  9
$DIMSE2
 70
     0
  9
$DIMTAD
 70
     1
  9
$DIMZIN
 70
     0
  9
$DIMBLK
  1

  9
$DIMASO
 70
     1
  9
$DIMSHO
 70
     1
  9
$DIMPOST
  1

  9
$DIMAPOST
  1

  9
$DIMALT
 70
     0
  9
$DIMALTD
 70
     3
  9
$DIMALTF
 40
0.0393700787
  9
$DIMLFAC
 40
1.0
  9
$DIMTOFL
 70
     1
  9
$DIMTVP
 40
0.0
  9
$DIMTIX
 70
     0
  9
$DIMSOXD
 70
     0
  9
$DIMSAH
 70
     0
  9
$DIMBLK1
  1

  9
$DIMBLK2
  1

  9
$DIMSTYLE
  2
ISO-25
  9
$DIMCLRD
 70
     0
  9
$DIMCLRE
 70
     0
  9
$DIMCLRT
 70
     0
  9
$DIMTFAC
 40
1.0
  9
$DIMGAP
 40
1.524
  9
$DIMJUST
 70
     0
  9
$DIMSD1
 70
     0
  9
$DIMSD2
 70
     0
  9
$DIMTOLJ
 70
     0
  9
$DIMTZIN
 70
     0
  9
$DIMALTZ
 70
     0
  9
$DIMALTTZ
 70
     0
  9
$DIMUPT
 70
     0
  9
$DIMDEC
 70
     2
  9
$DIMTDEC
 70
     3
  9
$DIMALTU
 70
     2
  9
$DIMALTTD
 70
     3
  9
$DIMTXSTY
  7
Standard
  9
$DIMAUNIT
 70
     0
  9
$DIMADEC
 70
     2
  9
$DIMALTRND
 40
0.0
  9
$DIMAZIN
 70
     0
  9
$DIMDSEP
 70
    44
  9
$DIMATFIT
 70
     3
  9
$DIMFRAC
 70
     0
  9
$DIMLDRBLK
  1

  9
$DIMLUNIT
 70
     2
  9
$DIMLWD
 70
    -2
  9
$DIMLWE
 70
    -2
  9
$DIMTMOVE
 70
     0
  9
$LUNITS
 70
     2
  9
$LUPREC
 70
     2
  9
$SKETCHINC
 40
1.0
  9
$FILLETRAD
 40
10.0
  9
$AUNITS
 70
     0
  9
$AUPREC
 70
     2
  9
$MENU
  1
.
  9
$ELEVATION
 40
0.0
  9
$PELEVATION
 40
0.0
  9
$THICKNESS
 40
0.0
  9
$LIMCHECK
 70
     0
  9
$CHAMFERA
 40
10.0
  9
$CHAMFERB
 40
10.0
  9
$CHAMFERC
 40
20.0
  9
$CHAMFERD
 40
0.0
  9
$SKPOLY
 70
     0
  9
$TDCREATE
 40
2455673.411328901
  9
$TDUCREATE
 40
2455673.327995567
  9
$TDUPDATE
 40
2455673.411328912
  9
$TDUUPDATE
 40
2455673.327995579
  9
$TDINDWG
 40
0.0000000116
  9
$TDUSRTIMER
 40
0.0000000116
  9
$USRTIMER
 70
     1
  9
$ANGBASE
 50
0.0
  9
$ANGDIR
 70
     0
  9
$PDMODE
 70
     0
  9
$PDSIZE
 40
-1.0
  9
$PLINEWID
 40
0.0
  9
$SPLFRAME
 70
     0
  9
$SPLINETYPE
 70
     6
  9
$SPLINESEGS
 70
     8
  9
$HANDSEED
  5
214
  9
$SURFTAB1
 70
     6
  9
$SURFTAB2
 70
     6
  9
$SURFTYPE
 70
     6
  9
$SURFU
 70
     6
  9
$SURFV
 70
     6
  9
$UCSBASE
  2

  9
$UCSNAME
  2

  9
$UCSORG
 10
0.0
 20
0.0
 30
0.0
  9
$UCSXDIR
 10
1.0
 20
0.0
 30
0.0
  9
$UCSYDIR
 10
0.0
 20
1.0
 30
0.0
  9
$UCSORTHOREF
  2

  9
$UCSORTHOVIEW
 70
     0
  9
$UCSORGTOP
 10
0.0
 20
0.0
 30
0.0
  9
$UCSORGBOTTOM
 10
0.0
 20
0.0
 30
0.0
  9
$UCSORGLEFT
 10
0.0
 20
0.0
 30
0.0
  9
$UCSORGRIGHT
 10
0.0
 20
0.0
 30
0.0
  9
$UCSORGFRONT
 10
0.0
 20
0.0
 30
0.0
  9
$UCSORGBACK
 10
0.0
 20
0.0
 30
0.0
  9
$PUCSBASE
  2

  9
$PUCSNAME
  2

  9
$PUCSORG
 10
0.0
 20
0.0
 30
0.0
  9
$PUCSXDIR
 10
1.0
 20
0.0
 30
0.0
  9
$PUCSYDIR
 10
0.0
 20
1.0
 30
0.0
  9
$PUCSORTHOREF
  2

  9
$PUCSORTHOVIEW
 70
     0
  9
$PUCSORGTOP
 10
0.0
 20
0.0
 30
0.0
  9
$PUCSORGBOTTOM
 10
0.0
 20
0.0
 30
0.0
  9
$PUCSORGLEFT
 10
0.0
 20
0.0
 30
0.0
  9
$PUCSORGRIGHT
 10
0.0
 20
0.0
 30
0.0
  9
$PUCSORGFRONT
 10
0.0
 20
0.0
 30
0.0
  9
$PUCSORGBACK
 10
0.0
 20
0.0
 30
0.0
  9
$USERI1
 70
     0
  9
$USERI2
 70
     0
  9
$USERI3
 70
     0
  9
$USERI4
 70
     0
  9
$USERI5
 70
     0
  9
$USERR1
 40
0.0
  9
$USERR2
 40
0.0
  9
$USERR3
 40
0.0
  9
$USERR4
 40
0.0
  9
$USERR5
 40
0.0
  9
$WORLDVIEW
 70
     1
  9
$SHADEDGE
 70
     3
  9
$SHADEDIF
 70
    70
  9
$TILEMODE
 70
     1
  9
$MAXACTVP
 70
    64
  9
$PINSBASE
 10
0.0
 20
0.0
 30
0.0
  9
$PLIMCHECK
 70
     0
  9
$PEXTMIN
 10
1.0000000000E+20
 20
1.0000000000E+20
 30
1.0000000000E+20
  9
$PEXTMAX
 10
-1.0000000000E+20
 20
-1.0000000000E+20
 30
-1.0000000000E+20
  9
$PLIMMIN
 10
0.0
 20
0.0
  9
$PLIMMAX
 10
420.0
 20
297.0
  9
$UNITMODE
 70
     0
  9
$VISRETAIN
 70
     1
  9
$PLINEGEN
 70
     0
  9
$PSLTSCALE
 70
     1
  9
$TREEDEPTH
 70
  3020
  9
$CMLSTYLE
  2
Standard
  9
$CMLJUST
 70
     0
  9
$CMLSCALE
 40
20.0
  9
$PROXYGRAPHICS
 70
     1
  9
$MEASUREMENT
 70
     1
  9
$CELWEIGHT
370
    -1
  9
$ENDCAPS
280
     0
  9
$JOINSTYLE
280
     0
  9
$LWDISPLAY
290
     1
  9
$INSUNITS
 70
     4
  9
$HYPERLINKBASE
  1

  9
$STYLESHEET
  1

  9
$XEDIT
290
     1
  9
$CEPSNTYPE
380
     0
  9
$PSTYLEMODE
290
     1
  9
$FINGERPRINTGUID
  2
{91CB830A-D451-4F06-90B5-5A3B32E0AC7A}
  9
$VERSIONGUID
  2
{FAEB1C32-E019-11D5-929B-00C0DF256EC4}
  9
$EXTNAMES
290
     1
  9
$PSVPSCALE
 40
0.0
  9
$OLESTARTUP
290
     0
  0
ENDSEC
  0
SECTION
  2
CLASSES
  0
CLASS
  1
ACDBDICTIONARYWDFLT
  2
AcDbDictionaryWithDefault
  3
ObjectDBX Classes
 90
        0
280
     0
281
     0
  0
CLASS
  1
VISUALSTYLE
  2
AcDbVisualStyle
  3
ObjectDBX Classes
 90
     4095
280
     0
281
     0
  0
CLASS
  1
DICTIONARYVAR
  2
AcDbDictionaryVar
  3
ObjectDBX Classes
 90
        0
280
     0
281
     0
  0
CLASS
  1
ACDBPLACEHOLDER
  2
AcDbPlaceHolder
  3
ObjectDBX Classes
 90
        0
280
     0
281
     0
  0
CLASS
  1
LAYOUT
  2
AcDbLayout
  3
ObjectDBX Classes
 90
        0
280
     0
281
     0
  0
ENDSEC
  0
SECTION
  2
TABLES
  0
TABLE
  2
VPORT
  5
8
330
0
100
AcDbSymbolTable
 70
     1
  0
VPORT
  5
29
330
8
100
AcDbSymbolTableRecord
100
AcDbViewportTableRecord
  2
*Active
 70
     0
 10
0.0
 20
0.0
 11
1.0
 21
1.0
 12
148.5
 22
105.0
 13
0.0
 23
0.0
 14
10.0
 24
10.0
 15
10.0
 25
10.0
 16
0.0
 26
0.0
 36
1.0
 17
0.0
 27
0.0
 37
0.0
 40
210.0
 41
1.4142857143
 42
50.0
 43
0.0
 44
0.0
 50
0.0
 51
0.0
 71
     0
 72
  2000
 73
     1
 74
     3
 75
     0
 76
     0
 77
     0
 78
     0
281
     0
 65
     1
110
0.0
120
0.0
130
0.0
111
1.0
121
0.0
131
0.0
112
0.0
122
1.0
132
0.0
 79
     0
146
0.0
  0
ENDTAB
  0
TABLE
  2
LTYPE
  5
5
330
0
100
AcDbSymbolTable
 70
     6
  0
LTYPE
  5
14
330
5
100
AcDbSymbolTableRecord
100
AcDbLinetypeTableRecord
  2
ByBlock
 70
     0
  3

 72
    65
 73
     0
 40
0.0
  0
LTYPE
  5
15
330
5
100
AcDbSymbolTableRecord
100
AcDbLinetypeTableRecord
  2
ByLayer
 70
     0
  3

 72
    65
 73
     0
 40
0.0
  0
LTYPE
  5
16
330
5
100
AcDbSymbolTableRecord
100
AcDbLinetypeTableRecord
  2
Continuous
 70
     0
  3
Solid line
 72
    65
 73
     0
 40
0.0
  0
LTYPE
  5
3B
330
5
100
AcDbSymbolTableRecord
100
AcDbLinetypeTableRecord
  2
HIDDEN
 70
     0
  3
Hidden __ __ __ __ __ __ __ __ __ __ __ __ __ __
 72
    65
 73
     2
 40
1.905
 49
1.27
 74
     0
 49
-0.635
 74
     0
  0
LTYPE
  5
3C
330
5
100
AcDbSymbolTableRecord
100
AcDbLinetypeTableRecord
  2
PHANTOM
 70
     0
  3
Phantom ______  __  __  ______  __  __  ______
 72
    65
 73
     6
 40
12.7
 49
6.35
 74
     0
 49
-1.27
 74
     0
 49
1.27
 74
     0
 49
-1.27
 74
     0
 49
1.27
 74
     0
 49
-1.27
 74
     0
  0
LTYPE
  5
3D
330
5
100
AcDbSymbolTableRecord
100
AcDbLinetypeTableRecord
  2
CENTER
 70
     0
  3
Center ____ _ ____ _ ____ _ ____ _ ____ _ ____
 72
    65
 73
     4
 40
10.16
 49
6.35
 74
     0
 49
-1.27
 74
     0
 49
1.27
 74
     0
 49
-1.27
 74
     0
  0
LTYPE
  5
3E
330
5
100
AcDbSymbolTableRecord
100
AcDbLinetypeTableRecord
  2
CENTERX2
 70
     0
  3
Center (2x) ________  __  ________  __  _____
 72
    65
 73
     4
 40
20.32
 49
12.7
 74
     0
 49
-2.54
 74
     0
 49
2.54
 74
     0
 49
-2.54
 74
     0
  0
LTYPE
  5
3F
330
5
100
AcDbSymbolTableRecord
100
AcDbLinetypeTableRecord
  2
DOT2
 70
     0
  3
Dot (.5x) ........................................
 72
    65
 73
     2
 40
0.635
 49
0.0
 74
     0
 49
-0.635
 74
     0
  0
ENDTAB
  0
TABLE
  2
LAYER
  5
2
330
0
100
AcDbSymbolTable
 70
     5
  0
LAYER
  5
10
330
2
100
AcDbSymbolTableRecord
100
AcDbLayerTableRecord
  2
0
 70
     0
 62
     7
  6
Continuous
370
    -3
390
F
  0
LAYER
  5
40
330
2
100
AcDbSymbolTableRecord
100
AcDbLayerTableRecord
  2
FORMAT
 70
     0
 62
     7
  6
Continuous
370
    -3
390
F
  0
LAYER
  5
41
330
2
100
AcDbSymbolTableRecord
100
AcDbLayerTableRecord
  2
VERMASSUNG
 70
     0
 62
     7
  6
Continuous
370
    -3
390
F
  0
LAYER
  5
42
330
2
100
AcDbSymbolTableRecord
100
AcDbLayerTableRecord
  2
KOPF_DÜNN
 70
     0
 62
     7
  6
Continuous
370
    -3
390
F
  0
LAYER
  5
43
330
2
100
AcDbSymbolTableRecord
100
AcDbLayerTableRecord
  2
KOPF_DICK
 70
     0
 62
     7
  6
Continuous
370
    15
390
F
  0
ENDTAB
  0
TABLE
  2
STYLE
  5
3
330
0
100
AcDbSymbolTable
 70
     3
  0
STYLE
  5
11
330
3
100
AcDbSymbolTableRecord
100
AcDbTextStyleTableRecord
  2
Standard
 70
     0
 40
0.0
 41
1.0
 50
0.0
 71
     0
 42
2.5
  3
txt
  4

  0
STYLE
  5
44
330
3
100
AcDbSymbolTableRecord
100
AcDbTextStyleTableRecord
  2
SLDTEXTSTYLE0
 70
     0
 40
0.0
 41
0.7
 50
0.0
 71
     0
 42
0.2
  3
TXT
  4

  0
STYLE
  5
48
330
3
100
AcDbSymbolTableRecord
100
AcDbTextStyleTableRecord
  2
SLDTEXTSTYLE1
 70
     0
 40
0.0
 41
0.6473684211
 50
0.0
 71
     0
 42
0.2
  3
TXT
  4

  0
ENDTAB
  0
TABLE
  2
VIEW
  5
6
330
0
100
AcDbSymbolTable
 70
     0
  0
ENDTAB
  0
TABLE
  2
UCS
  5
7
330
0
100
AcDbSymbolTable
 70
     0
  0
ENDTAB
  0
TABLE
  2
APPID
  5
9
330
0
100
AcDbSymbolTable
 70
     1
  0
APPID
  5
12
330
9
100
AcDbSymbolTableRecord
100
AcDbRegAppTableRecord
  2
ACAD
 70
     0
  0
ENDTAB
  0
TABLE
  2
DIMSTYLE
  5
A
330
0
100
AcDbSymbolTable
 70
     2
100
AcDbDimStyleTable
  0
DIMSTYLE
105
27
330
A
100
AcDbSymbolTableRecord
100
AcDbDimStyleTableRecord
  2
ISO-25
 70
     0
 41
2.5
 42
0.625
 43
3.75
 44
1.25
 73
     0
 74
     0
 77
     1
 78
     8
140
2.5
141
2.5
143
0.0393700787
147
0.625
171
     3
172
     1
271
     2
272
     2
274
     3
278
    44
283
     0
284
     8
340
11
  0
DIMSTYLE
105
1CD
102
{ACAD_REACTORS
330
1CC
330
1D9
330
1E4
330
1EE
330
1F8
330
202
102
}
330
A
100
AcDbSymbolTableRecord
100
AcDbDimStyleTableRecord
  2
SLDDIMSTYLE0
 70
     0
 41
3.0
 44
0.0
 45
0.000000001
 73
     0
 74
     0
 77
     1
 78
    12
140
2.0
147
0.5
173
     1
271
     2
272
     3
284
    12
340
44
  0
ENDTAB
  0
TABLE
  2
BLOCK_RECORD
  5
1
330
0
100
AcDbSymbolTable
 70
     7
  0
BLOCK_RECORD
  5
1F
330
1
100
AcDbSymbolTableRecord
100
AcDbBlockTableRecord
  2
*Model_Space
340
22
  0
BLOCK_RECORD
  5
1B
330
1
100
AcDbSymbolTableRecord
100
AcDbBlockTableRecord
  2
*Paper_Space
340
1E
  0
BLOCK_RECORD
  5
23
330
1
100
AcDbSymbolTableRecord
100
AcDbBlockTableRecord
  2
*Paper_Space0
340
26
  0
BLOCK_RECORD
  5
1CE
330
1
100
AcDbSymbolTableRecord
100
AcDbBlockTableRecord
  2
*D1
340
0
  0
BLOCK_RECORD
  5
1DA
330
1
100
AcDbSymbolTableRecord
100
AcDbBlockTableRecord
  2
*D2
340
0
  0
BLOCK_RECORD
  5
1E5
330
1
100
AcDbSymbolTableRecord
100
AcDbBlockTableRecord
  2
*D3
340
0
  0
BLOCK_RECORD
  5
1EF
330
1
100
AcDbSymbolTableRecord
100
AcDbBlockTableRecord
  2
*D4
340
0
  0
BLOCK_RECORD
  5
1F9
330
1
100
AcDbSymbolTableRecord
100
AcDbBlockTableRecord
  2
*D5
340
0
  0
BLOCK_RECORD
  5
203
330
1
100
AcDbSymbolTableRecord
100
AcDbBlockTableRecord
  2
*D6
340
0
  0
ENDTAB
  0
ENDSEC
  0
SECTION
  2
BLOCKS
  0
BLOCK
  5
20
330
1F
100
AcDbEntity
  8
0
100
AcDbBlockBegin
  2
*Model_Space
 70
     0
 10
0.0
 20
0.0
 30
0.0
  3
*Model_Space
  1

  0
ENDBLK
  5
21
330
1F
100
AcDbEntity
  8
0
100
AcDbBlockEnd
  0
BLOCK
  5
1C
330
1B
100
AcDbEntity
 67
     1
  8
0
100
AcDbBlockBegin
  2
*Paper_Space
 70
     0
 10
0.0
 20
0.0
 30
0.0
  3
*Paper_Space
  1

  0
ENDBLK
  5
1D
330
1B
100
AcDbEntity
 67
     1
  8
0
100
AcDbBlockEnd
  0
BLOCK
  5
24
330
23
100
AcDbEntity
  8
0
100
AcDbBlockBegin
  2
*Paper_Space0
 70
     0
 10
0.0
 20
0.0
 30
0.0
  3
*Paper_Space0
  1

  0
ENDBLK
  5
25
330
23
100
AcDbEntity
  8
0
100
AcDbBlockEnd
  0
BLOCK
  5
1CF
330
1CE
100
AcDbEntity
  8
0
100
AcDbBlockBegin
  2
*D1
 70
     1
 10
0.0
 20
0.0
 30
0.0
  3
*D1
  1

  0
SOLID
  5
1D1
330
1CE
100
AcDbEntity
  8
VERMASSUNG
100
AcDbTrace
 10
90.8409986837
 20
147.6324118078
 30
0.0
 11
90.3909986837
 21
144.6324118078
 31
0.0
 12
91.2909986837
 22
144.6324118078
 32
0.0
 13
91.2909986837
 23
144.6324118078
 33
0.0
  0
SOLID
  5
1D2
330
1CE
100
AcDbEntity
  8
VERMASSUNG
100
AcDbTrace
 10
90.8409986837
 20
84.6324118078
 30
0.0
 11
91.2909986837
 21
87.6324118078
 31
0.0
 12
90.3909986837
 22
87.6324118078
 32
0.0
 13
90.3909986837
 23
87.6324118078
 33
0.0
  0
LINE
  5
1D3
330
1CE
100
AcDbEntity
  8
VERMASSUNG
100
AcDbLine
 10
126.8196495706
 20
147.6324118078
 30
0.0
 11
89.8409986837
 21
147.6324118078
 31
0.0
  0
LINE
  5
1D4
330
1CE
100
AcDbEntity
  8
VERMASSUNG
100
AcDbLine
 10
126.8196495706
 20
84.6324118078
 30
0.0
 11
89.8409986837
 21
84.6324118078
 31
0.0
  0
LINE
  5
1D5
330
1CE
100
AcDbEntity
  8
VERMASSUNG
100
AcDbLine
 10
90.8409986837
 20
147.6324118078
 30
0.0
 11
90.8409986837
 21
84.6324118078
 31
0.0
  0
MTEXT
  5
1D6
330
1CE
100
AcDbEntity
  8
VERMASSUNG
100
AcDbMText
 10
88.0628631946
 20
108.428870096
 30
0.0
 40
2.0
 41
0.0
 71
     1
 72
     1
  1
HSK A 
  7
SLDTEXTSTYLE0
 11
-7.044195017643634E-15
 21
1.0
 31
0.0
 73
     1
 44
1.0
  0
MTEXT
  5
1D7
330
1CE
100
AcDbEntity
  8
VERMASSUNG
100
AcDbMText
 10
88.2628632041
 20
117.4288706398
 30
0.0
 40
2.0
 41
0.0
 71
     1
 72
     1
  1
%%c
  7
SLDTEXTSTYLE0
 11
-7.044195017643634E-15
 21
1.0
 31
0.0
 73
     1
 44
1.0
  0
MTEXT
  5
1D8
330
1CE
100
AcDbEntity
  8
VERMASSUNG
100
AcDbMText
 10
88.2628633205
 20
121.0371972899
 30
0.0
 40
2.0
 41
0.0
 71
     1
 72
     1
  1
63
  7
SLDTEXTSTYLE0
 11
-7.044195017643634E-15
 21
1.0
 31
0.0
 73
     1
 44
1.0
  0
ENDBLK
  5
1D0
330
1CE
100
AcDbEntity
  8
0
100
AcDbBlockEnd
  0
BLOCK
  5
1DB
330
1DA
100
AcDbEntity
  8
0
100
AcDbBlockBegin
  2
*D2
 70
     1
 10
0.0
 20
0.0
 30
0.0
  3
*D2
  1

  0
SOLID
  5
1DD
330
1DA
100
AcDbEntity
  8
VERMASSUNG
100
AcDbTrace
 10
215.9904266305
 20
125.1324118078
 30
0.0
 11
215.5404266305
 21
122.1324118078
 31
0.0
 12
216.4404266305
 22
122.1324118078
 32
0.0
 13
216.4404266305
 23
122.1324118078
 33
0.0
  0
SOLID
  5
1DE
330
1DA
100
AcDbEntity
  8
VERMASSUNG
100
AcDbTrace
 10
215.9904266305
 20
107.1324118078
 30
0.0
 11
216.4404266305
 21
110.1324118078
 31
0.0
 12
215.5404266305
 22
110.1324118078
 32
0.0
 13
215.5404266305
 23
110.1324118078
 33
0.0
  0
LINE
  5
1DF
330
1DA
100
AcDbEntity
  8
VERMASSUNG
100
AcDbLine
 10
206.2196495706
 20
125.1324118078
 30
0.0
 11
216.9904266305
 21
125.1324118078
 31
0.0
  0
LINE
  5
1E0
330
1DA
100
AcDbEntity
  8
VERMASSUNG
100
AcDbLine
 10
206.2196495706
 20
107.1324118078
 30
0.0
 11
216.9904266305
 21
107.1324118078
 31
0.0
  0
LINE
  5
1E1
330
1DA
100
AcDbEntity
  8
VERMASSUNG
100
AcDbLine
 10
215.9904266305
 20
125.1324118078
 30
0.0
 11
215.9904266305
 21
107.1324118078
 31
0.0
  0
MTEXT
  5
1E2
330
1DA
100
AcDbEntity
  8
VERMASSUNG
100
AcDbMText
 10
213.4122911509
 20
113.128274213
 30
0.0
 40
2.0
 41
0.0
 71
     1
 72
     1
  1
%%c
  7
SLDTEXTSTYLE0
 11
-7.044195017643634E-15
 21
1.0
 31
0.0
 73
     1
 44
1.0
  0
MTEXT
  5
1E3
330
1DA
100
AcDbEntity
  8
VERMASSUNG
100
AcDbMText
 10
213.4122912673
 20
116.7369524361
 30
0.0
 40
2.0
 41
0.0
 71
     1
 72
     1
  1
18
  7
SLDTEXTSTYLE0
 11
-7.044195017643634E-15
 21
1.0
 31
0.0
 73
     1
 44
1.0
  0
ENDBLK
  5
1DC
330
1DA
100
AcDbEntity
  8
0
100
AcDbBlockEnd
  0
BLOCK
  5
1E6
330
1E5
100
AcDbEntity
  8
0
100
AcDbBlockBegin
  2
*D3
 70
     1
 10
0.0
 20
0.0
 30
0.0
  3
*D3
  1

  0
SOLID
  5
1E8
330
1E5
100
AcDbEntity
  8
VERMASSUNG
100
AcDbTrace
 10
126.5196495706
 20
156.1374864572
 30
0.0
 11
129.5196495706
 21
155.6874864572
 31
0.0
 12
129.5196495706
 22
156.5874864572
 32
0.0
 13
129.5196495706
 23
156.5874864572
 33
0.0
  0
SOLID
  5
1E9
330
1E5
100
AcDbEntity
  8
VERMASSUNG
100
AcDbTrace
 10
206.5196495706
 20
156.1374864572
 30
0.0
 11
203.5196495706
 21
156.5874864572
 31
0.0
 12
203.5196495706
 22
155.6874864572
 32
0.0
 13
203.5196495706
 23
155.6874864572
 33
0.0
  0
LINE
  5
1EA
330
1E5
100
AcDbEntity
  8
VERMASSUNG
100
AcDbLine
 10
126.5196495706
 20
147.3324118078
 30
0.0
 11
126.5196495706
 21
157.1374864572
 31
0.0
  0
LINE
  5
1EB
330
1E5
100
AcDbEntity
  8
VERMASSUNG
100
AcDbLine
 10
206.5196495706
 20
133.8582712861
 30
0.0
 11
206.5196495706
 21
157.1374864572
 31
0.0
  0
LINE
  5
1EC
330
1E5
100
AcDbEntity
  8
VERMASSUNG
100
AcDbLine
 10
126.5196495706
 20
156.1374864572
 30
0.0
 11
206.5196495706
 21
156.1374864572
 31
0.0
  0
MTEXT
  5
1ED
330
1E5
100
AcDbEntity
  8
VERMASSUNG
100
AcDbMText
 10
165.1202714557
 20
158.7156218203
 30
0.0
 40
2.0
 41
0.0
 71
     1
 72
     1
  1
80
  7
SLDTEXTSTYLE0
 73
     1
 44
1.0
  0
ENDBLK
  5
1E7
330
1E5
100
AcDbEntity
  8
0
100
AcDbBlockEnd
  0
BLOCK
  5
1F0
330
1EF
100
AcDbEntity
  8
0
100
AcDbBlockBegin
  2
*D4
 70
     1
 10
0.0
 20
0.0
 30
0.0
  3
*D4
  1

  0
SOLID
  5
1F2
330
1EF
100
AcDbEntity
  8
VERMASSUNG
100
AcDbTrace
 10
152.4696495706
 20
150.1374864572
 30
0.0
 11
155.4696495706
 21
149.6874864572
 31
0.0
 12
155.4696495706
 22
150.5874864572
 32
0.0
 13
155.4696495706
 23
150.5874864572
 33
0.0
  0
SOLID
  5
1F3
330
1EF
100
AcDbEntity
  8
VERMASSUNG
100
AcDbTrace
 10
206.5196495706
 20
150.1374864572
 30
0.0
 11
203.5196495706
 21
150.5874864572
 31
0.0
 12
203.5196495706
 22
149.6874864572
 32
0.0
 13
203.5196495706
 23
149.6874864572
 33
0.0
  0
LINE
  5
1F4
330
1EF
100
AcDbEntity
  8
VERMASSUNG
100
AcDbLine
 10
152.4696495706
 20
145.9788521315
 30
0.0
 11
152.4696495706
 21
151.1374864572
 31
0.0
  0
LINE
  5
1F5
330
1EF
100
AcDbEntity
  8
VERMASSUNG
100
AcDbLine
 10
206.5196495706
 20
133.8582712861
 30
0.0
 11
206.5196495706
 21
151.1374864572
 31
0.0
  0
LINE
  5
1F6
330
1EF
100
AcDbEntity
  8
VERMASSUNG
100
AcDbLine
 10
152.4696495706
 20
150.1374864572
 30
0.0
 11
206.5196495706
 21
150.1374864572
 31
0.0
  0
MTEXT
  5
1F7
330
1EF
100
AcDbEntity
  8
VERMASSUNG
100
AcDbMText
 10
176.2955737309
 20
152.7156218203
 30
0.0
 40
2.0
 41
0.0
 71
     1
 72
     1
  1
54.05
  7
SLDTEXTSTYLE0
 73
     1
 44
1.0
  0
ENDBLK
  5
1F1
330
1EF
100
AcDbEntity
  8
0
100
AcDbBlockEnd
  0
BLOCK
  5
1FA
330
1F9
100
AcDbEntity
  8
0
100
AcDbBlockBegin
  2
*D5
 70
     1
 10
0.0
 20
0.0
 30
0.0
  3
*D5
  1

  0
SOLID
  5
1FC
330
1F9
100
AcDbEntity
  8
VERMASSUNG
100
AcDbTrace
 10
94.6196495706
 20
162.1374864572
 30
0.0
 11
97.6196495706
 21
161.6874864572
 31
0.0
 12
97.6196495706
 22
162.5874864572
 32
0.0
 13
97.6196495706
 23
162.5874864572
 33
0.0
  0
SOLID
  5
1FD
330
1F9
100
AcDbEntity
  8
VERMASSUNG
100
AcDbTrace
 10
206.5196495706
 20
162.1374864572
 30
0.0
 11
203.5196495706
 21
162.5874864572
 31
0.0
 12
203.5196495706
 22
161.6874864572
 32
0.0
 13
203.5196495706
 23
161.6874864572
 33
0.0
  0
LINE
  5
1FE
330
1F9
100
AcDbEntity
  8
VERMASSUNG
100
AcDbLine
 10
94.6196495706
 20
135.8230895542
 30
0.0
 11
94.6196495706
 21
163.1374864572
 31
0.0
  0
LINE
  5
1FF
330
1F9
100
AcDbEntity
  8
VERMASSUNG
100
AcDbLine
 10
206.5196495706
 20
133.8582712861
 30
0.0
 11
206.5196495706
 21
163.1374864572
 31
0.0
  0
LINE
  5
200
330
1F9
100
AcDbEntity
  8
VERMASSUNG
100
AcDbLine
 10
94.6196495706
 20
162.1374864572
 30
0.0
 11
206.5196495706
 21
162.1374864572
 31
0.0
  0
MTEXT
  5
201
330
1F9
100
AcDbEntity
  8
VERMASSUNG
100
AcDbMText
 10
148.0702627884
 20
164.7156218203
 30
0.0
 40
2.0
 41
0.0
 71
     1
 72
     1
  1
111.9
  7
SLDTEXTSTYLE0
 73
     1
 44
1.0
  0
ENDBLK
  5
1FB
330
1F9
100
AcDbEntity
  8
0
100
AcDbBlockEnd
  0
BLOCK
  5
204
330
203
100
AcDbEntity
  8
0
100
AcDbBlockBegin
  2
*D6
 70
     1
 10
0.0
 20
0.0
 30
0.0
  3
*D6
  1

  0
SOLID
  5
206
330
203
100
AcDbEntity
  8
VERMASSUNG
100
AcDbTrace
 10
221.9904266305
 20
140.1324118078
 30
0.0
 11
221.5404266305
 21
137.1324118078
 31
0.0
 12
222.4404266305
 22
137.1324118078
 32
0.0
 13
222.4404266305
 23
137.1324118078
 33
0.0
  0
SOLID
  5
207
330
203
100
AcDbEntity
  8
VERMASSUNG
100
AcDbTrace
 10
221.9904266305
 20
92.1324118078
 30
0.0
 11
222.4404266305
 21
95.1324118078
 31
0.0
 12
221.5404266305
 22
95.1324118078
 32
0.0
 13
221.5404266305
 23
95.1324118078
 33
0.0
  0
LINE
  5
208
330
203
100
AcDbEntity
  8
VERMASSUNG
100
AcDbLine
 10
195.797114968
 20
140.1324118078
 30
0.0
 11
222.9904266305
 21
140.1324118078
 31
0.0
  0
LINE
  5
209
330
203
100
AcDbEntity
  8
VERMASSUNG
100
AcDbLine
 10
195.797114968
 20
92.1324118078
 30
0.0
 11
222.9904266305
 21
92.1324118078
 31
0.0
  0
LINE
  5
20A
330
203
100
AcDbEntity
  8
VERMASSUNG
100
AcDbLine
 10
221.9904266305
 20
140.1324118078
 30
0.0
 11
221.9904266305
 21
92.1324118078
 31
0.0
  0
MTEXT
  5
20B
330
203
100
AcDbEntity
  8
VERMASSUNG
100
AcDbMText
 10
219.4122911509
 20
112.8289047655
 30
0.0
 40
2.0
 41
0.0
 71
     1
 72
     1
  1
%%c
  7
SLDTEXTSTYLE0
 11
-7.044195017643634E-15
 21
1.0
 31
0.0
 73
     1
 44
1.0
  0
MTEXT
  5
20C
330
203
100
AcDbEntity
  8
VERMASSUNG
100
AcDbMText
 10
219.4122912673
 20
116.4375829887
 30
0.0
 40
2.0
 41
0.0
 71
     1
 72
     1
  1
48
  7
SLDTEXTSTYLE0
 11
-7.044195017643634E-15
 21
1.0
 31
0.0
 73
     1
 44
1.0
  0
ENDBLK
  5
205
330
203
100
AcDbEntity
  8
0
100
AcDbBlockEnd
  0
ENDSEC
  0
SECTION
  2
ENTITIES
  0
MTEXT
  5
45
330
1F
100
AcDbEntity
  8
KOPF_DÜNN
100
AcDbMText
 10
13.8892156294
 20
23.8442973028
 30
0.0
 40
3.0
 41
0.0
 71
     1
 72
     1
  1
HA6.W18.K21.080
  7
SLDTEXTSTYLE0
 73
     1
 44
1.0
  0
MTEXT
  5
46
330
1F
100
AcDbEntity
  8
VERMASSUNG
100
AcDbMText
 10
13.9329988022
 20
28.8834360957
 30
0.0
 40
3.0
 41
0.0
 71
     1
 72
     1
  1
Flächenspannfutter_End mill adapter Weldon ø18
  7
SLDTEXTSTYLE0
 73
     1
 44
1.0
  0
MTEXT
  5
47
330
1F
100
AcDbEntity
  8
VERMASSUNG
100
AcDbMText
 10
98.8601118557
 20
13.8365368179
 30
0.0
 40
2.0
 41
0.0
 71
     1
 72
     1
  1
Datum: 09.10.2006
  7
SLDTEXTSTYLE0
 73
     1
 44
1.0
  0
MTEXT
  5
49
330
1F
100
AcDbEntity
  8
VERMASSUNG
100
AcDbMText
 10
13.933048693
 20
18.0482802738
 30
0.0
 40
2.0
 41
0.0
 71
     1
 72
     1
  1
DIN 69 893 HSK A 63
  7
SLDTEXTSTYLE1
 73
     1
 44
1.0
  0
MTEXT
  5
4A
330
1F
100
AcDbEntity
  8
VERMASSUNG
100
AcDbMText
 10
13.9808475933
 20
13.9090973692
 30
0.0
 40
2.0
 41
0.0
 71
     1
 72
     1
  1
Gewicht: 1264g
  7
SLDTEXTSTYLE0
 73
     1
 44
1.0
  0
LINE
  5
4B
330
1F
100
AcDbEntity
  8
0
  6
Continuous
 62
     7
370
    15
100
AcDbLine
 10
126.8196495706
 20
84.6324118078
 30
0.0
 11
131.4696495706
 21
84.6324118078
 31
0.0
  0
LINE
  5
4C
330
1F
100
AcDbEntity
  8
0
  6
Continuous
 62
     7
370
    15
100
AcDbLine
 10
131.4976379297
 20
147.6324118078
 30
0.0
 11
126.8196495706
 21
147.6324118078
 31
0.0
  0
ARC
  5
4D
330
1F
100
AcDbEntity
  8
0
  6
Continuous
 62
     7
370
    15
100
AcDbCircle
 10
126.8196495706
 20
84.9324118078
 30
0.0
 40
0.2999999999999972
100
AcDbArc
 50
180.0
 51
270.0
  0
ARC
  5
4E
330
1F
100
AcDbEntity
  8
0
  6
Continuous
 62
     7
370
    15
100
AcDbCircle
 10
126.8196495706
 20
147.3324118078
 30
0.0
 40
0.2999999999999829
100
AcDbArc
 50
90.0
 51
180.0
  0
ARC
  5
4F
330
1F
100
AcDbEntity
  8
0
  6
Continuous
 62
     7
370
    15
100
AcDbCircle
 10
155.4696495706
 20
89.1324118078
 30
0.0
 40
3.000000000000009
100
AcDbArc
 50
90.0
 51
168.4626267714
  0
ARC
  5
50
330
1F
100
AcDbEntity
  8
0
  6
Continuous
 62
     7
370
    15
100
AcDbCircle
 10
155.4696495706
 20
143.1324118078
 30
0.0
 40
3.000000000000027
100
AcDbArc
 50
191.5455749772
 51
270.0
  0
ARC
  5
51
330
1F
100
AcDbEntity
  8
0
  6
Continuous
 62
     7
370
    15
100
AcDbCircle
 10
126.0196428179
 20
91.5619741934
 30
0.0
 40
0.6000067526677164
100
AcDbArc
 50
33.5571153394
 51
90.0
  0
ARC
  5
52
330
1F
100
AcDbEntity
  8
0
  6
Continuous
 62
     7
370
    15
100
AcDbCircle
 10
126.0196428179
 20
140.7028494222
 30
0.0
 40
0.6000067526677242
100
AcDbArc
 50
270.0
 51
326.4428846606
  0
LINE
  5
53
330
1F
100
AcDbEntity
  8
0
  6
Continuous
 62
     7
370
    15
100
AcDbLine
 10
113.2881407718
 20
139.7901418279
 30
0.0
 11
100.7196495706
 21
139.1604578999
 31
0.0
  0
LINE
  5
54
330
1F
100
AcDbEntity
  8
0
  6
Continuous
 62
     7
370
    15
100
AcDbLine
 10
124.5196495706
 20
140.3528426695
 30
0.0
 11
121.7026479132
 21
140.2117103219
 31
0.0
  0
LINE
  5
55
330
1F
100
AcDbEntity
  8
0
  6
Continuous
 62
     7
370
    15
100
AcDbLine
 10
121.7027040033
 20
92.0531104835
 30
0.0
 11
124.5196495706
 21
91.911980946
 31
0.0
  0
LINE
  5
56
330
1F
100
AcDbEntity
  8
0
  6
Continuous
 62
     7
370
    15
100
AcDbLine
 10
104.7196495706
 20
92.903964914
 30
0.0
 11
113.2885432905
 21
92.4746616214
 31
0.0
  0
LINE
  5
57
330
1F
100
AcDbEntity
  8
0
  6
Continuous
 62
     7
370
    15
100
AcDbLine
 10
124.5196495706
 20
91.911980946
 30
0.0
 11
125.376362344
 21
92.1415364418
 31
0.0
  0
LINE
  5
58
330
1F
100
AcDbEntity
  8
0
  6
Continuous
 62
     7
370
    15
100
AcDbLine
 10
125.376362344
 20
140.1232871737
 30
0.0
 11
124.5196495706
 21
140.3528426695
 31
0.0
  0
LINE
  5
59
330
1F
100
AcDbEntity
  8
0
  6
Continuous
 62
     7
370
    15
100
AcDbLine
 10
166.9685726564
 20
92.1324118078
 30
0.0
 11
195.797114968
 21
92.1324118078
 31
0.0
  0
LINE
  5
5A
330
1F
100
AcDbEntity
  8
0
  6
Continuous
 62
     7
370
    15
100
AcDbLine
 10
155.4696495706
 20
92.1324118078
 30
0.0
 11
159.9803270453
 21
92.1324118078
 31
0.0
  0
LINE
  5
5B
330
1F
100
AcDbEntity
  8
0
  6
Continuous
 62
     7
370
    15
100
AcDbLine
 10
159.9710426088
 20
140.1324118078
 30
0.0
 11
155.4696495706
 21
140.1324118078
 31
0.0
  0
LINE
  5
5C
330
1F
100
AcDbEntity
  8
0
  6
Continuous
 62
     7
370
    15
100
AcDbLine
 10
195.797114968
 20
140.1324118078
 30
0.0
 11
166.958862218
 21
140.1324118078
 31
0.0
  0
LINE
  5
5D
330
1F
100
AcDbEntity
  8
0
  6
Continuous
 62
     7
370
    15
100
AcDbLine
 10
195.797114968
 20
92.1324118078
 30
0.0
 11
205.3648860941
 21
96.5939367553
 31
0.0
  0
LINE
  5
5E
330
1F
100
AcDbEntity
  8
0
  6
Continuous
 62
     7
370
    15
100
AcDbLine
 10
205.3648860941
 20
135.6708868602
 30
0.0
 11
195.797114968
 21
140.1324118078
 31
0.0
  0
ARC
  5
5F
330
1F
100
AcDbEntity
  8
0
  6
Continuous
 62
     7
370
    15
100
AcDbCircle
 10
125.531653771
 20
91.561980946
 30
0.0
 40
0.5999999999999943
100
AcDbArc
 50
90.0
 51
105.0
  0
ARC
  5
60
330
1F
100
AcDbEntity
  8
0
  6
Continuous
 62
     7
370
    15
100
AcDbCircle
 10
125.531653771
 20
140.7028426695
 30
0.0
 40
0.5999999999999971
100
AcDbArc
 50
255.0
 51
270.0
  0
LINE
  5
61
330
1F
100
AcDbEntity
  8
0
  6
Continuous
 62
     7
370
    15
100
AcDbLine
 10
125.531653771
 20
92.161980946
 30
0.0
 11
126.0196428179
 21
92.161980946
 31
0.0
  0
LINE
  5
62
330
1F
100
AcDbEntity
  8
0
  6
Continuous
 62
     7
370
    15
100
AcDbLine
 10
126.0196428179
 20
140.1028426695
 30
0.0
 11
125.531653771
 21
140.1028426695
 31
0.0
  0
ARC
  5
63
330
1F
100
AcDbEntity
  8
0
  6
Continuous
 62
     7
370
    15
100
AcDbCircle
 10
204.5196495706
 20
98.4065523294
 30
0.0
 40
2.000000000000001
100
AcDbArc
 50
295.0
 51
0.0
  0
ARC
  5
64
330
1F
100
AcDbEntity
  8
0
  6
Continuous
 62
     7
370
    15
100
AcDbCircle
 10
204.5196495706
 20
133.8582712861
 30
0.0
 40
2.000000000000001
100
AcDbArc
 50
0.0
 51
65.0
  0
LINE
  5
65
330
1F
100
AcDbEntity
  8
0
  6
Continuous
 62
     7
370
    15
100
AcDbLine
 10
95.910609682
 20
95.2624118078
 30
0.0
 11
103.3196495706
 21
95.2624118078
 31
0.0
  0
ARC
  5
66
330
1F
100
AcDbEntity
  8
0
  6
Continuous
 62
     7
370
    15
100
AcDbCircle
 10
103.3196495706
 20
93.8624118078
 30
0.0
 40
1.400000000000006
100
AcDbArc
 50
42.2465410162
 51
90.0
  0
LINE
  5
67
330
1F
100
AcDbEntity
  8
0
  6
Continuous
 62
     7
370
    15
100
AcDbLine
 10
94.6308100057
 20
96.4012513727
 30
0.0
 11
95.7608130288
 21
95.2712483496
 31
0.0
  0
LINE
  5
68
330
1F
100
AcDbEntity
  8
0
  6
Continuous
 62
     7
370
    15
100
AcDbLine
 10
95.7608130288
 20
136.9935752659
 30
0.0
 11
94.629550344
 21
135.8623125811
 31
0.0
  0
ARC
  5
69
330
1F
100
AcDbEntity
  8
0
  6
Continuous
 62
     7
370
    15
100
AcDbCircle
 10
99.3196495706
 20
138.4024118078
 30
0.0
 40
1.400000000000006
100
AcDbArc
 50
270.0
 51
301.7485287426
  0
LINE
  5
6A
330
1F
100
AcDbEntity
  8
0
  6
Continuous
 62
     7
370
    15
100
AcDbLine
 10
99.3196495706
 20
137.0024118078
 30
0.0
 11
95.8939153045
 21
137.0024118078
 31
0.0
  0
LINE
  5
6B
330
1F
100
AcDbEntity
  8
0
  6
Continuous
 62
     7
370
    15
100
AcDbLine
 10
206.5196495706
 20
104.8959810647
 30
0.0
 11
206.5845505062
 21
105.0161616107
 31
0.0
  0
LINE
  5
6C
330
1F
100
AcDbEntity
  8
0
  6
Continuous
 62
     7
370
    15
100
AcDbLine
 10
206.5256607826
 20
127.2502980968
 30
0.0
 11
206.5196495706
 21
127.2614293807
 31
0.0
  0
CIRCLE
  5
6D
330
1F
100
AcDbEntity
  8
0
  6
Continuous
 62
     7
370
    15
100
AcDbCircle
 10
183.0196495706
 20
116.1324118078
 30
0.0
 40
6.000000000000013
  0
LINE
  5
6E
330
1F
100
AcDbEntity
  8
0
  6
Continuous
 62
     7
370
    15
100
AcDbLine
 10
186.4484395255
 20
115.6390565147
 30
0.0
 11
184.3067863312
 21
112.9163149561
 31
0.0
  0
LINE
  5
6F
330
1F
100
AcDbEntity
  8
0
  6
Continuous
 62
     7
370
    15
100
AcDbLine
 10
185.1613027649
 20
118.8551533664
 30
0.0
 11
181.73251281
 21
119.3485086595
 31
0.0
  0
LINE
  5
70
330
1F
100
AcDbEntity
  8
0
  6
Continuous
 62
     7
370
    15
100
AcDbLine
 10
186.4484395255
 20
115.6390565147
 30
0.0
 11
185.1613027649
 21
118.8551533664
 31
0.0
  0
LINE
  5
71
330
1F
100
AcDbEntity
  8
0
  6
Continuous
 62
     7
370
    15
100
AcDbLine
 10
179.5908596157
 20
116.6257671008
 30
0.0
 11
181.73251281
 21
119.3485086595
 31
0.0
  0
LINE
  5
72
330
1F
100
AcDbEntity
  8
0
  6
Continuous
 62
     7
370
    15
100
AcDbLine
 10
180.8779963763
 20
113.4096702491
 30
0.0
 11
179.5908596157
 21
116.6257671008
 31
0.0
  0
LINE
  5
73
330
1F
100
AcDbEntity
  8
0
  6
Continuous
 62
     7
370
    15
100
AcDbLine
 10
180.8779963763
 20
113.4096702491
 30
0.0
 11
184.3067863312
 21
112.9163149561
 31
0.0
  0
LINE
  5
74
330
1F
100
AcDbEntity
  8
0
  6
Continuous
 62
     7
370
    15
100
AcDbLine
 10
151.8696495706
 20
85.9454941115
 30
0.0
 11
147.9115824021
 21
85.9454941115
 31
0.0
  0
LINE
  5
75
330
1F
100
AcDbEntity
  8
0
  6
Continuous
 62
     7
370
    15
100
AcDbLine
 10
147.9115824021
 20
85.9454941115
 30
0.0
 11
147.9115824021
 21
135.9824118078
 31
0.0
  0
LINE
  5
76
330
1F
100
AcDbEntity
  8
0
  6
Continuous
 62
     7
370
    15
100
AcDbLine
 10
147.9115824021
 20
135.9824118078
 30
0.0
 11
151.8696495706
 21
135.9824118078
 31
0.0
  0
LINE
  5
77
330
1F
100
AcDbEntity
  8
0
  6
Continuous
 62
     7
370
    15
100
AcDbLine
 10
142.6096495706
 20
88.6345746487
 30
0.0
 11
142.6096495706
 21
135.9824118078
 31
0.0
  0
SPLINE
  5
78
330
1F
100
AcDbEntity
  8
0
  6
Continuous
 62
     7
370
    15
100
AcDbSpline
210
0.0
220
0.0
230
1.0
 70
     8
 71
     3
 72
     8
 73
     4
 74
     0
 42
0.00000001
 43
0.00000001
 40
0.0
 40
0.0
 40
0.0
 40
0.0
 40
1.0
 40
1.0
 40
1.0
 40
1.0
 10
142.6096495705878
 20
88.63457464870535
 30
0.0
 10
142.1173104478067
 20
87.73730461449865
 30
0.0
 10
141.6231963997645
 20
86.84102019944639
 30
0.0
 10
141.1277167390988
 20
85.94549411151304
 30
0.0
  0
LINE
  5
79
330
1F
100
AcDbEntity
  8
0
  6
Continuous
 62
     7
370
    15
100
AcDbLine
 10
141.1277167391
 20
85.9454941115
 30
0.0
 11
141.1277167391
 21
135.9824118078
 31
0.0
  0
SPLINE
  5
7A
330
1F
100
AcDbEntity
  8
0
  6
Continuous
 62
     7
370
    15
100
AcDbSpline
210
0.0
220
0.0
230
1.0
 70
    24
 71
     3
 72
     8
 73
     4
 74
     0
 42
0.00000001
 43
0.00000001
 40
0.0
 40
0.0
 40
0.0
 40
0.0
 40
1.0
 40
1.0
 40
1.0
 40
1.0
 10
141.1277167390988
 20
135.9824118077602
 30
0.0
 10
141.6343968472493
 20
135.9824118077602
 30
0.0
 10
142.1296975762229
 20
135.9824118077602
 30
0.0
 10
142.6096495705878
 20
135.9824118077602
 30
0.0
  0
LINE
  5
7B
330
1F
100
AcDbEntity
  8
0
  6
Continuous
 62
     7
370
    15
100
AcDbLine
 10
131.4696495706
 20
135.9824118078
 30
0.0
 11
141.1277167391
 21
135.9824118078
 31
0.0
  0
LINE
  5
7C
330
1F
100
AcDbEntity
  8
0
  6
Continuous
 62
     7
370
    15
100
AcDbLine
 10
141.1277167391
 20
85.9454941115
 30
0.0
 11
139.4696495706
 21
85.9454941115
 31
0.0
  0
SPLINE
  5
7D
330
1F
100
AcDbEntity
  8
0
  6
Continuous
 62
     7
370
    15
100
AcDbSpline
210
0.0
220
0.0
230
1.0
 70
     8
 71
     3
 72
    28
 73
    24
 74
     0
 42
0.00000001
 43
0.00000001
 40
0.0
 40
0.0
 40
0.0
 40
0.0
 40
0.1250000000000001
 40
0.1250000000000001
 40
0.1875000000000001
 40
0.1875000000000001
 40
0.2500000000000001
 40
0.2500000000000001
 40
0.3749999999999999
 40
0.3749999999999999
 40
0.4375
 40
0.4375
 40
0.4999999999999999
 40
0.4999999999999999
 40
0.6249999999999999
 40
0.6249999999999999
 40
0.7499999999999997
 40
0.7499999999999997
 40
0.8124999999999998
 40
0.8124999999999998
 40
0.8749999999999998
 40
0.8749999999999998
 40
1.0
 40
1.0
 40
1.0
 40
1.0
 10
139.4696495705878
 20
85.94549411151304
 30
0.0
 10
138.9379418130949
 20
85.94549411151306
 30
0.0
 10
138.4157032477846
 20
85.92970939756283
 30
0.0
 10
137.6458327615096
 20
85.88471398348662
 30
0.0
 10
137.3914731893182
 20
85.8661589884109
 30
0.0
 10
136.8873516086197
 20
85.82230626596439
 30
0.0
 10
136.6376287911918
 20
85.7969616590122
 30
0.0
 10
135.9120388397454
 20
85.71355958126209
 30
0.0
 10
135.4536785781638
 20
85.647694022111
 30
0.0
 10
134.8031806347699
 20
85.53872368161922
 30
0.0
 10
134.5914985839775
 20
85.50048404585256
 30
0.0
 10
134.1874270948395
 20
85.4227253084332
 30
0.0
 10
133.9949205810186
 20
85.38322434625786
 30
0.0
 10
133.4450856099974
 20
85.26431660389186
 30
0.0
 10
133.1151568316886
 20
85.18449892246726
 30
0.0
 10
132.5306855631199
 20
85.03115576067118
 30
0.0
 10
132.2844084251064
 20
84.95982200740193
 30
0.0
 10
131.9845656324083
 20
84.86587850032731
 30
0.0
 10
131.8961087753362
 20
84.83668470696739
 30
0.0
 10
131.742747422031
 20
84.78321813270398
 30
0.0
 10
131.6776592078048
 20
84.75885879842879
 30
0.0
 10
131.522065191864
 20
84.69526865298404
 30
0.0
 10
131.4696495705878
 20
84.6651657178948
 30
0.0
 10
131.4696495705878
 20
84.64828882489789
 30
0.0
  0
LINE
  5
7E
330
1F
100
AcDbEntity
  8
0
  6
Continuous
 62
     7
370
    15
100
AcDbLine
 10
131.4696495706
 20
84.6482888249
 30
0.0
 11
131.4696495706
 21
84.6324118078
 31
0.0
  0
SPLINE
  5
7F
330
1F
100
AcDbEntity
  8
0
  6
Continuous
 62
     7
370
    15
100
AcDbSpline
210
0.0
220
0.0
230
1.0
 70
     8
 71
     3
 72
    17
 73
    13
 74
     0
 42
0.00000001
 43
0.00000001
 40
0.0
 40
0.0
 40
0.0
 40
0.0
 40
0.1034796923964056
 40
0.210023918880785
 40
0.3134862136955583
 40
0.4198361274354882
 40
0.5254127712915682
 40
0.633961069541979
 40
0.7409508756305031
 40
0.8511696089308174
 40
0.9558996534551937
 40
1.0
 40
1.0
 40
1.0
 40
1.0
 10
139.4696495705878
 20
146.5996072809245
 30
0.0
 10
139.0344012214778
 20
146.6050554774578
 30
0.0
 10
138.1510147149128
 20
146.6161132179696
 30
0.0
 10
136.8701871296842
 20
146.7024716108712
 30
0.0
 10
135.6527705938101
 20
146.8303417874089
 30
0.0
 10
134.5449647415636
 20
146.9892870860021
 30
0.0
 10
133.5567259376154
 20
147.1637807737177
 30
0.0
 10
132.7320023800838
 20
147.3329466243575
 30
0.0
 10
132.0830488794245
 20
147.4808304068859
 30
0.0
 10
131.6660140639628
 20
147.5826209911167
 30
0.0
 10
131.4674173509983
 20
147.6329725137198
 30
0.0
 10
131.4907300724316
 20
147.6270668294975
 30
0.0
 10
131.4976379296691
 20
147.6253168998029
 30
0.0
  0
LINE
  5
80
330
1F
100
AcDbEntity
  8
0
  6
Continuous
 62
     7
370
    15
100
AcDbLine
 10
141.1277167391
 20
146.5996072809
 30
0.0
 11
139.4696495706
 21
146.5996072809
 31
0.0
  0
LINE
  5
81
330
1F
100
AcDbEntity
  8
0
  6
Continuous
 62
     7
370
    15
100
AcDbLine
 10
141.1277167391
 20
140.5911014701
 30
0.0
 11
141.1277167391
 21
146.5996072809
 31
0.0
  0
LINE
  5
82
330
1F
100
AcDbEntity
  8
0
  6
Continuous
 62
     7
370
    15
100
AcDbLine
 10
138.7152699163
 20
140.5911014701
 30
0.0
 11
141.1277167391
 21
140.5911014701
 31
0.0
  0
SPLINE
  5
83
330
1F
100
AcDbEntity
  8
0
  6
Continuous
 62
     7
370
    15
100
AcDbSpline
210
0.0
220
0.0
230
1.0
 70
     8
 71
     3
 72
    20
 73
    16
 74
     0
 42
0.00000001
 43
0.00000001
 40
0.0
 40
0.0
 40
0.0
 40
0.0
 40
0.2499999999999997
 40
0.2499999999999997
 40
0.3749999999999997
 40
0.3749999999999997
 40
0.4999999999999998
 40
0.4999999999999998
 40
0.6249999999999998
 40
0.6249999999999998
 40
0.7499999999999999
 40
0.7499999999999999
 40
0.8749999999999999
 40
0.8749999999999999
 40
1.0
 40
1.0
 40
1.0
 40
1.0
 10
131.4696495705878
 20
135.9824118077602
 30
0.0
 10
131.7180233048759
 20
136.6362742360576
 30
0.0
 10
132.0375933972211
 20
137.2400600180548
 30
0.0
 10
132.6598996304259
 20
138.0668987542234
 30
0.0
 10
132.8913238908566
 20
138.3293273921763
 30
0.0
 10
133.4125382305063
 20
138.8259900462812
 30
0.0
 10
133.6991587131414
 20
139.0565769253028
 30
0.0
 10
134.318643454449
 20
139.4731311498854
 30
0.0
 10
134.652943833936
 20
139.6606289518529
 30
0.0
 10
135.3782043065607
 20
139.9920259294893
 30
0.0
 10
135.7601193639512
 20
140.1315299169846
 30
0.0
 10
136.5549075401229
 20
140.3569834244556
 30
0.0
 10
136.9690657343293
 20
140.4436095359992
 30
0.0
 10
137.8346120749107
 20
140.5615903248533
 30
0.0
 10
138.2724996899225
 20
140.5911014701277
 30
0.0
 10
138.7152699162771
 20
140.5911014701277
 30
0.0
  0
SPLINE
  5
84
330
1F
100
AcDbEntity
  8
0
  6
Continuous
 62
     7
370
    15
100
AcDbSpline
210
0.0
220
0.0
230
1.0
 70
     8
 71
     3
 72
    70
 73
    66
 74
     0
 42
0.00000001
 43
0.00000001
 40
-0.0312500000000001
 40
-0.0312500000000001
 40
0.0
 40
0.0
 40
0.0312499999999999
 40
0.0312499999999999
 40
0.0624999999999998
 40
0.0624999999999998
 40
0.0937499999999997
 40
0.0937499999999997
 40
0.1249999999999996
 40
0.1249999999999996
 40
0.1562499999999994
 40
0.1562499999999994
 40
0.1874999999999993
 40
0.1874999999999993
 40
0.2187499999999992
 40
0.2187499999999992
 40
0.2499999999999991
 40
0.2499999999999991
 40
0.281249999999999
 40
0.281249999999999
 40
0.3124999999999989
 40
0.3124999999999989
 40
0.3437499999999988
 40
0.3437499999999988
 40
0.3749999999999987
 40
0.3749999999999987
 40
0.4062499999999986
 40
0.4062499999999986
 40
0.4374999999999984
 40
0.4374999999999984
 40
0.4687499999999983
 40
0.4687499999999983
 40
0.4999999999999982
 40
0.4999999999999982
 40
0.5312499999999983
 40
0.5312499999999983
 40
0.5624999999999984
 40
0.5624999999999984
 40
0.5937499999999986
 40
0.5937499999999986
 40
0.6249999999999987
 40
0.6249999999999987
 40
0.6562499999999988
 40
0.6562499999999988
 40
0.6874999999999989
 40
0.6874999999999989
 40
0.718749999999999
 40
0.718749999999999
 40
0.7499999999999991
 40
0.7499999999999991
 40
0.7812499999999992
 40
0.7812499999999992
 40
0.8124999999999993
 40
0.8124999999999993
 40
0.8437499999999994
 40
0.8437499999999994
 40
0.8749999999999996
 40
0.8749999999999996
 40
0.9062499999999997
 40
0.9062499999999997
 40
0.9374999999999998
 40
0.9374999999999998
 40
0.9687499999999999
 40
0.9687499999999999
 40
1.0
 40
1.0
 40
1.03125
 40
1.03125
 10
134.784194909248
 20
126.7533186937436
 30
0.0
 10
134.2551042319277
 20
126.7533186937435
 30
0.0
 10
133.9950335645506
 20
126.7779959885287
 30
0.0
 10
133.4834588847152
 20
126.8744676615706
 30
0.0
 10
133.229283600975
 20
126.9474485775507
 30
0.0
 10
132.7450129709133
 20
127.1371891804893
 30
0.0
 10
132.5153718790321
 20
127.2530498388831
 30
0.0
 10
132.0807675307986
 20
127.5256676848408
 30
0.0
 10
131.875201754152
 20
127.6837067668946
 30
0.0
 10
131.5066446135568
 20
128.0272496178652
 30
0.0
 10
131.3411636308213
 20
128.2140120619669
 30
0.0
 10
131.0487391213862
 20
128.6175552363637
 30
0.0
 10
130.9246381447597
 20
128.8310522327928
 30
0.0
 10
130.72505894801
 20
129.2704355467153
 30
0.0
 10
130.6481253621517
 20
129.499575533861
 30
0.0
 10
130.5452683036313
 20
129.965549656621
 30
0.0
 10
130.5197953941722
 20
130.1984321022972
 30
0.0
 10
130.5195049836044
 20
130.663829637377
 30
0.0
 10
130.5455296173802
 20
130.8987053947713
 30
0.0
 10
130.6476779018722
 20
131.3501985420176
 30
0.0
 10
130.7232543494553
 20
131.5682450174289
 30
0.0
 10
130.9237518806003
 20
131.9893395424668
 30
0.0
 10
131.0488807221087
 20
132.1912609269851
 30
0.0
 10
131.3382395231302
 20
132.563290409504
 30
0.0
 10
131.5036505101857
 20
132.7359187130843
 30
0.0
 10
131.8766410683335
 20
133.0532367176303
 30
0.0
 10
132.0783741014226
 20
133.193023651132
 30
0.0
 10
132.5112333522505
 20
133.4371999046838
 30
0.0
 10
132.7451518851399
 20
133.5424294157253
 30
0.0
 10
133.2293356202825
 20
133.7105865621004
 30
0.0
 10
133.478651246238
 20
133.7738374526942
 30
0.0
 10
133.9916837706657
 20
133.8594166617968
 30
0.0
 10
134.2569775935704
 20
133.8812888267193
 30
0.0
 10
134.7793122134401
 20
133.8814524763632
 30
0.0
 10
135.0390658759218
 20
133.8604507842672
 30
0.0
 10
135.5556776915671
 20
133.7750484291896
 30
0.0
 10
135.8080437320674
 20
133.7110422459026
 30
0.0
 10
136.2895688536002
 20
133.5442277258614
 30
0.0
 10
136.5224195857137
 20
133.4400945624623
 30
0.0
 10
136.9595094341525
 20
133.1941079099673
 30
0.0
 10
137.1608304228097
 20
133.0543580790184
 30
0.0
 10
137.5299164481096
 20
132.7412200092939
 30
0.0
 10
137.6989011991613
 20
132.5657638500238
 30
0.0
 10
137.9893572558205
 20
132.1929235859235
 30
0.0
 10
138.1124290671826
 20
131.9948017758126
 30
0.0
 10
138.3137653086046
 20
131.5740904330789
 30
0.0
 10
138.3909778545469
 20
131.3521004124114
 30
0.0
 10
138.493181397447
 20
130.902235472703
 30
0.0
 10
138.5194097488992
 20
130.6719800595863
 30
0.0
 10
138.5198861482164
 20
130.2006641170372
 30
0.0
 10
138.4941437357184
 20
129.9674267013231
 30
0.0
 10
138.3928329593545
 20
129.505750161825
 30
0.0
 10
138.3160003199636
 20
129.2748527747129
 30
0.0
 10
138.1155964807484
 20
128.8325767609212
 30
0.0
 10
137.9929249824564
 20
128.6215143296353
 30
0.0
 10
137.7029776932922
 20
128.2200158189026
 30
0.0
 10
137.5344067139269
 20
128.0291092968267
 30
0.0
 10
137.1661371198138
 20
127.6853839648296
 30
0.0
 10
136.9650752625434
 20
127.5302467786155
 30
0.0
 10
136.5280443439585
 20
127.2551694185358
 30
0.0
 10
136.2958961308289
 20
127.1380531891138
 30
0.0
 10
135.81488584933
 20
126.9491267040493
 30
0.0
 10
135.5627857664996
 20
126.876051733655
 30
0.0
 10
135.0457162802406
 20
126.7779996745205
 30
0.0
 10
134.784194909248
 20
126.7533186937436
 30
0.0
 10
134.2551042319277
 20
126.7533186937435
 30
0.0
  0
SPLINE
  5
85
330
1F
100
AcDbEntity
  8
0
  6
Continuous
 62
     7
370
    15
100
AcDbSpline
210
0.0
220
0.0
230
1.0
 70
     8
 71
     3
 72
    70
 73
    66
 74
     0
 42
0.00000001
 43
0.00000001
 40
-0.0312499999999999
 40
-0.0312499999999999
 40
0.0
 40
0.0
 40
0.0312499999999999
 40
0.0312499999999999
 40
0.0624999999999998
 40
0.0624999999999998
 40
0.0937499999999997
 40
0.0937499999999997
 40
0.1249999999999996
 40
0.1249999999999996
 40
0.1562499999999995
 40
0.1562499999999995
 40
0.1874999999999994
 40
0.1874999999999994
 40
0.2187499999999993
 40
0.2187499999999993
 40
0.2499999999999992
 40
0.2499999999999992
 40
0.2812499999999993
 40
0.2812499999999993
 40
0.3124999999999993
 40
0.3124999999999993
 40
0.3437499999999994
 40
0.3437499999999994
 40
0.3749999999999995
 40
0.3749999999999995
 40
0.4062499999999996
 40
0.4062499999999996
 40
0.4374999999999996
 40
0.4374999999999996
 40
0.4687499999999997
 40
0.4687499999999997
 40
0.4999999999999998
 40
0.4999999999999998
 40
0.5312499999999999
 40
0.5312499999999999
 40
0.5625
 40
0.5625
 40
0.5937500000000001
 40
0.5937500000000001
 40
0.6250000000000002
 40
0.6250000000000002
 40
0.6562500000000004
 40
0.6562500000000004
 40
0.6875000000000006
 40
0.6875000000000006
 40
0.7187500000000007
 40
0.7187500000000007
 40
0.7500000000000008
 40
0.7500000000000008
 40
0.7812500000000007
 40
0.7812500000000007
 40
0.8125000000000006
 40
0.8125000000000006
 40
0.8437500000000004
 40
0.8437500000000004
 40
0.8750000000000003
 40
0.8750000000000003
 40
0.9062500000000003
 40
0.9062500000000003
 40
0.9375000000000002
 40
0.9375000000000002
 40
0.9687500000000001
 40
0.9687500000000001
 40
1.0
 40
1.0
 40
1.03125
 40
1.03125
 10
134.784194909248
 20
141.1913752025394
 30
0.0
 10
134.2551042319277
 20
141.1913752025394
 30
0.0
 10
133.9950335645506
 20
141.2072756429542
 30
0.0
 10
133.4834588847152
 20
141.2692199931284
 30
0.0
 10
133.229283600975
 20
141.3160222272197
 30
0.0
 10
132.7450129709133
 20
141.4369992106748
 30
0.0
 10
132.5153718790321
 20
141.5106015384816
 30
0.0
 10
132.0807675307986
 20
141.6824258094598
 30
0.0
 10
131.875201754152
 20
141.7814292323872
 30
0.0
 10
131.5066446135568
 20
141.9945256463
 30
0.0
 10
131.3411636308213
 20
142.1094253624297
 30
0.0
 10
131.0487391213862
 20
142.35479226112
 30
0.0
 10
130.9246381447597
 20
142.4832321615903
 30
0.0
 10
130.72505894801
 20
142.7441243096762
 30
0.0
 10
130.6481253621517
 20
142.8785054810157
 30
0.0
 10
130.5452683036313
 20
143.147825432122
 30
0.0
 10
130.5197953941722
 20
143.2805066963401
 30
0.0
 10
130.5195049836044
 20
143.5416931704711
 30
0.0
 10
130.5455296173802
 20
143.6714582086359
 30
0.0
 10
130.6476779018722
 20
143.9170408429085
 30
0.0
 10
130.7232543494553
 20
144.0337023802174
 30
0.0
 10
130.9237518806003
 20
144.255607570372
 30
0.0
 10
131.0488807221086
 20
144.3602188242949
 30
0.0
 10
131.3382395231302
 20
144.550265235903
 30
0.0
 10
131.5036505101857
 20
144.6370249073527
 30
0.0
 10
131.8766410683335
 20
144.7945292831043
 30
0.0
 10
132.0783741014226
 20
144.8628545478915
 30
0.0
 10
132.5112333522505
 20
144.9810842715107
 30
0.0
 10
132.7451518851398
 20
145.0313791876145
 30
0.0
 10
133.2293356202825
 20
145.1112447245042
 30
0.0
 10
133.478651246238
 20
145.1409858523037
 30
0.0
 10
133.9916837706657
 20
145.181138593812
 30
0.0
 10
134.2569775935704
 20
145.1913368632218
 30
0.0
 10
134.7793122134401
 20
145.1914133216065
 30
0.0
 10
135.0390658759218
 20
145.1816223099975
 30
0.0
 10
135.5556776915671
 20
145.1415554712587
 30
0.0
 10
135.8080437320673
 20
145.1114583044019
 30
0.0
 10
136.2895688536002
 20
145.0322360945717
 30
0.0
 10
136.5224195857137
 20
144.9824786151084
 30
0.0
 10
136.9595094341525
 20
144.863386672658
 30
0.0
 10
137.1608304228097
 20
144.7950714111107
 30
0.0
 10
137.5299164481096
 20
144.6396704441771
 30
0.0
 10
137.6989011991613
 20
144.5515181021102
 30
0.0
 10
137.9893572558205
 20
144.3610787129939
 30
0.0
 10
138.1124290671826
 20
144.2584541352948
 30
0.0
 10
138.3137653086046
 20
144.0368137886867
 30
0.0
 10
138.3909778545469
 20
143.9180597131392
 30
0.0
 10
138.4931813974469
 20
143.6733937742215
 30
0.0
 10
138.5194097488992
 20
143.546237048773
 30
0.0
 10
138.5198861482164
 20
143.2817889029174
 30
0.0
 10
138.4941437357184
 20
143.1488882226603
 30
0.0
 10
138.3928329593545
 20
142.8820959491782
 30
0.0
 10
138.3160003199636
 20
142.7467320477097
 30
0.0
 10
138.1155964807484
 20
142.4841522524071
 30
0.0
 10
137.9929249824564
 20
142.3571770926533
 30
0.0
 10
137.7029776932922
 20
142.1130977065709
 30
0.0
 10
137.5344067139269
 20
141.995672581817
 30
0.0
 10
137.1661371198138
 20
141.7824761208686
 30
0.0
 10
136.9650752625435
 20
141.6853020024437
 30
0.0
 10
136.5280443439585
 20
141.5119471152296
 30
0.0
 10
136.2958961308289
 20
141.4375475635729
 30
0.0
 10
135.81488584933
 20
141.3170946840682
 30
0.0
 10
135.5627857664996
 20
141.2702363088022
 30
0.0
 10
135.0457162802406
 20
141.2072788118185
 30
0.0
 10
134.784194909248
 20
141.1913752025394
 30
0.0
 10
134.2551042319277
 20
141.1913752025394
 30
0.0
  0
SPLINE
  5
86
330
1F
100
AcDbEntity
  8
0
  6
Continuous
 62
     7
370
    15
100
AcDbSpline
210
0.0
220
0.0
230
1.0
 70
     8
 71
     3
 72
     8
 73
     4
 74
     0
 42
0.00000001
 43
0.00000001
 40
0.0
 40
0.0
 40
0.0
 40
0.0
 40
1.0
 40
1.0
 40
1.0
 40
1.0
 10
147.9115824020769
 20
85.94549411151304
 30
0.0
 10
147.4161027414112
 20
86.8410201994464
 30
0.0
 10
146.921988693369
 20
87.73730461449867
 30
0.0
 10
146.4296495705878
 20
88.63457464870537
 30
0.0
  0
LINE
  5
87
330
1F
100
AcDbEntity
  8
0
  6
Continuous
 62
     7
370
    15
100
AcDbLine
 10
146.4296495706
 20
88.6345746487
 30
0.0
 11
146.4296495706
 21
135.9824118078
 31
0.0
  0
SPLINE
  5
88
330
1F
100
AcDbEntity
  8
0
  6
Continuous
 62
     7
370
    15
100
AcDbSpline
210
0.0
220
0.0
230
1.0
 70
    24
 71
     3
 72
     8
 73
     4
 74
     0
 42
0.00000001
 43
0.00000001
 40
0.0
 40
0.0
 40
0.0
 40
0.0
 40
1.0
 40
1.0
 40
1.0
 40
1.0
 10
146.4296495705878
 20
135.9824118077602
 30
0.0
 10
146.9096015649527
 20
135.9824118077602
 30
0.0
 10
147.4049022939264
 20
135.9824118077602
 30
0.0
 10
147.9115824020769
 20
135.9824118077602
 30
0.0
  0
LINE
  5
89
330
1F
100
AcDbEntity
  8
0
  6
Continuous
 62
     7
370
    15
100
AcDbLine
 10
126.5196495706
 20
84.9324118078
 30
0.0
 11
126.5196495706
 21
147.3324118018
 31
0.0
  0
LINE
  5
8A
330
1F
100
AcDbEntity
  8
0
  6
Continuous
 62
     7
370
    15
100
AcDbLine
 10
152.4696495706
 20
86.5721344072
 30
0.0
 11
152.4696495706
 21
135.9824118078
 31
0.0
  0
SPLINE
  5
8B
330
1F
100
AcDbEntity
  8
0
  6
Continuous
 62
     7
370
    15
100
AcDbSpline
210
0.0
220
0.0
230
1.0
 70
     8
 71
     3
 72
    10
 73
     6
 74
     0
 42
0.00000001
 43
0.00000001
 40
0.0
 40
0.0
 40
0.0
 40
0.0
 40
0.5
 40
0.5
 40
1.0
 40
1.0
 40
1.0
 40
1.0
 10
152.4696495705878
 20
86.57213440716737
 30
0.0
 10
152.4696495705878
 20
86.41224713897371
 30
0.0
 10
152.408339919352
 20
86.2511198834591
 30
0.0
 10
152.1892402818169
 20
86.01702088510427
 30
0.0
 10
152.0311920755034
 20
85.94549411151304
 30
0.0
 10
151.8696495705878
 20
85.94549411151304
 30
0.0
  0
SPLINE
  5
8C
330
1F
100
AcDbEntity
  8
0
  6
Continuous
 62
     7
370
    15
100
AcDbSpline
210
0.0
220
0.0
230
1.0
 70
    24
 71
     3
 72
    12
 73
     8
 74
     0
 42
0.00000001
 43
0.00000001
 40
0.0
 40
0.0
 40
0.0
 40
0.0
 40
0.2500000000000033
 40
0.2500000000000033
 40
0.5000000000000067
 40
0.5000000000000067
 40
1.0
 40
1.0
 40
1.0
 40
1.0
 10
151.8696495705878
 20
135.9824118077602
 30
0.0
 10
151.9598886382749
 20
135.9824118077602
 30
0.0
 10
152.0507867523814
 20
135.9824118077602
 30
0.0
 10
152.2053837888699
 20
135.9824118077602
 30
0.0
 10
152.270362204978
 20
135.9824118077602
 30
0.0
 10
152.4221972329142
 20
135.9824118077602
 30
0.0
 10
152.4696495705878
 20
135.9824118077602
 30
0.0
 10
152.4696495705878
 20
135.9824118077602
 30
0.0
  0
ARC
  5
8D
330
1F
100
AcDbEntity
  8
0
  6
Continuous
 62
     7
370
    15
100
AcDbCircle
 10
134.5204859438
 20
128.028859734
 30
0.0
 40
4.117392050589242
100
AcDbArc
 50
20.6101700589
 51
159.7676371835
  0
SPLINE
  5
8E
330
1F
100
AcDbEntity
  8
0
  6
Continuous
 62
     7
370
    15
100
AcDbSpline
210
0.0
220
0.0
230
1.0
 70
     8
 71
     3
 72
    10
 73
     6
 74
     0
 42
0.00000001
 43
0.00000001
 40
0.0
 40
0.0
 40
0.0
 40
0.0
 40
0.5
 40
0.5
 40
1.0
 40
1.0
 40
1.0
 40
1.0
 10
143.0039471022788
 20
142.5324118077602
 30
0.0
 10
142.8824068386103
 20
142.607137974972
 30
0.0
 10
142.7810724782614
 20
142.7160829908888
 30
0.0
 10
142.6454335353729
 20
142.9665134716504
 30
0.0
 10
142.6096495705878
 20
143.1089328337493
 30
0.0
 10
142.6096495705878
 20
143.252065658796
 30
0.0
  0
SPLINE
  5
8F
330
1F
100
AcDbEntity
  8
0
  6
Continuous
 62
     7
370
    15
100
AcDbSpline
210
0.0
220
0.0
230
1.0
 70
    24
 71
     3
 72
    12
 73
     8
 74
     0
 42
0.00000001
 43
0.00000001
 40
0.0
 40
0.0
 40
0.0
 40
0.0
 40
0.2500000000000037
 40
0.2500000000000037
 40
0.5000000000000074
 40
0.5000000000000074
 40
1.0
 40
1.0
 40
1.0
 40
1.0
 10
143.4096495705878
 20
142.5324118077602
 30
0.0
 10
143.3597728882704
 20
142.5324118077602
 30
0.0
 10
143.3117696948668
 20
142.5324118077602
 30
0.0
 10
143.2287215921548
 20
142.5324118077602
 30
0.0
 10
143.192592012687
 20
142.5324118077602
 30
0.0
 10
143.0966799817427
 20
142.5324118077602
 30
0.0
 10
143.0469213137739
 20
142.5324118077602
 30
0.0
 10
143.0039471022788
 20
142.5324118077602
 30
0.0
  0
SPLINE
  5
90
330
1F
100
AcDbEntity
  8
0
  6
Continuous
 62
     7
370
    15
100
AcDbSpline
210
0.0
220
0.0
230
1.0
 70
    24
 71
     3
 72
    14
 73
    10
 74
     0
 42
0.00000001
 43
0.00000001
 40
0.0
 40
0.0
 40
0.0
 40
0.0
 40
0.1249999999999991
 40
0.1249999999999991
 40
0.2499999999999982
 40
0.2499999999999982
 40
0.4999999999999998
 40
0.4999999999999998
 40
1.0
 40
1.0
 40
1.0
 40
1.0
 10
143.4096495705878
 20
89.7324118077602
 30
0.0
 10
143.3412117227014
 20
89.7324118077602
 30
0.0
 10
143.2756616839363
 20
89.73241180776022
 30
0.0
 10
143.1712350445284
 20
89.73241180776022
 30
0.0
 10
143.128690434767
 20
89.73241180776022
 30
0.0
 10
143.0160809742267
 20
89.7324118077602
 30
0.0
 10
142.9605419272072
 20
89.7324118077602
 30
0.0
 10
142.8179302317434
 20
89.7324118077602
 30
0.0
 10
142.7545248767477
 20
89.7324118077602
 30
0.0
 10
142.7073243729201
 20
89.7324118077602
 30
0.0
  0
SPLINE
  5
91
330
1F
100
AcDbEntity
  8
0
  6
Continuous
 62
     7
370
    15
100
AcDbSpline
210
0.0
220
0.0
230
1.0
 70
     8
 71
     3
 72
    10
 73
     6
 74
     0
 42
0.00000001
 43
0.00000001
 40
0.0
 40
0.0
 40
0.0
 40
0.0
 40
0.5
 40
0.5
 40
1.0
 40
1.0
 40
1.0
 40
1.0
 10
142.6096495705878
 20
136.2682784392216
 30
0.0
 10
142.6096495705878
 20
136.2205069312283
 30
0.0
 10
142.611810814185
 20
136.1727972091666
 30
0.0
 10
142.6204821880451
 20
136.0775020916183
 30
0.0
 10
142.6270113710011
 20
136.0298095276517
 30
0.0
 10
142.635797193748
 20
135.9824118077602
 30
0.0
  0
SPLINE
  5
92
330
1F
100
AcDbEntity
  8
0
  6
Continuous
 62
     7
370
    15
100
AcDbSpline
210
0.0
220
0.0
230
1.0
 70
    24
 71
     3
 72
    14
 73
    10
 74
     0
 42
0.00000001
 43
0.00000001
 40
0.0
 40
0.0
 40
0.0
 40
0.0
 40
0.5000000000000013
 40
0.5000000000000013
 40
0.750000000000002
 40
0.750000000000002
 40
0.875000000000001
 40
0.875000000000001
 40
1.0
 40
1.0
 40
1.0
 40
1.0
 10
146.3319747682555
 20
89.7324118077602
 30
0.0
 10
146.2851900632073
 20
89.7324118077602
 30
0.0
 10
146.2231388664277
 20
89.73241180776022
 30
0.0
 10
146.0797472278771
 20
89.7324118077602
 30
0.0
 10
146.023603574326
 20
89.7324118077602
 30
0.0
 10
145.9106525521898
 20
89.7324118077602
 30
0.0
 10
145.8676517901516
 20
89.7324118077602
 30
0.0
 10
145.7635890798452
 20
89.7324118077602
 30
0.0
 10
145.6982568414882
 20
89.73241180776022
 30
0.0
 10
145.6296495705878
 20
89.7324118077602
 30
0.0
  0
SPLINE
  5
93
330
1F
100
AcDbEntity
  8
0
  6
Continuous
 62
     7
370
    15
100
AcDbSpline
210
0.0
220
0.0
230
1.0
 70
    24
 71
     3
 72
    12
 73
     8
 74
     0
 42
0.00000001
 43
0.00000001
 40
0.0
 40
0.0
 40
0.0
 40
0.0
 40
0.5000000000000017
 40
0.5000000000000017
 40
0.7500000000000008
 40
0.7500000000000008
 40
1.0
 40
1.0
 40
1.0
 40
1.0
 10
146.0353520388969
 20
142.5324118077602
 30
0.0
 10
145.9922664892859
 20
142.5324118077602
 30
0.0
 10
145.9431142875366
 20
142.5324118077602
 30
0.0
 10
145.8466416932487
 20
142.5324118077602
 30
0.0
 10
145.8105401081141
 20
142.5324118077602
 30
0.0
 10
145.7274343502528
 20
142.5324118077602
 30
0.0
 10
145.6794377532865
 20
142.5324118077602
 30
0.0
 10
145.6296495705878
 20
142.5324118077602
 30
0.0
  0
SPLINE
  5
94
330
1F
100
AcDbEntity
  8
0
  6
Continuous
 62
     7
370
    15
100
AcDbSpline
210
0.0
220
0.0
230
1.0
 70
     8
 71
     3
 72
    10
 73
     6
 74
     0
 42
0.00000001
 43
0.00000001
 40
0.0
 40
0.0
 40
0.0
 40
0.0
 40
0.5
 40
0.5
 40
1.0
 40
1.0
 40
1.0
 40
1.0
 10
146.4296495705878
 20
143.252065658796
 30
0.0
 10
146.4296495705878
 20
143.108295600978
 30
0.0
 10
146.393600511869
 20
142.9658762384828
 30
0.0
 10
146.2580916510949
 20
142.7159819451256
 30
0.0
 10
146.1582156579988
 20
142.6079516088774
 30
0.0
 10
146.0353520388968
 20
142.5324118077602
 30
0.0
  0
SPLINE
  5
95
330
1F
100
AcDbEntity
  8
0
  6
Continuous
 62
     7
370
    15
100
AcDbSpline
210
0.0
220
0.0
230
1.0
 70
     8
 71
     3
 72
    10
 73
     6
 74
     0
 42
0.00000001
 43
0.00000001
 40
0.0
 40
0.0
 40
0.0
 40
0.0
 40
0.5
 40
0.5
 40
1.0
 40
1.0
 40
1.0
 40
1.0
 10
146.4035019474277
 20
135.9824118077602
 30
0.0
 10
146.4121915903393
 20
136.0292906570783
 30
0.0
 10
146.4187306550899
 20
136.0767131224796
 30
0.0
 10
146.4274892894829
 20
136.1726499210664
 30
0.0
 10
146.4296495705879
 20
136.2205652090769
 30
0.0
 10
146.4296495705879
 20
136.2682784392214
 30
0.0
  0
LINE
  5
96
330
1F
100
AcDbEntity
  8
0
  6
Continuous
 62
     7
370
    15
100
AcDbLine
 10
145.6296495706
 20
142.5324118078
 30
0.0
 11
143.4096495706
 21
142.5324118078
 31
0.0
  0
LINE
  5
97
330
1F
100
AcDbEntity
  8
0
  6
Continuous
 62
     7
370
    15
100
AcDbLine
 10
145.6296495706
 20
89.7324118078
 30
0.0
 11
143.4096495706
 21
89.7324118078
 31
0.0
  0
LINE
  5
98
330
1F
100
AcDbEntity
  8
0
  6
Continuous
 62
     7
370
    15
100
AcDbLine
 10
104.7196495706
 20
92.903964914
 30
0.0
 11
104.7196495706
 21
94.1686742766
 31
0.0
  0
SPLINE
  5
99
330
1F
100
AcDbEntity
  8
0
  6
Continuous
 62
     7
370
    15
100
AcDbSpline
210
0.0
220
0.0
230
1.0
 70
     8
 71
     3
 72
    14
 73
    10
 74
     0
 42
0.00000001
 43
0.00000001
 40
0.0
 40
0.0
 40
0.0
 40
0.0
 40
0.25
 40
0.25
 40
0.5
 40
0.5
 40
0.75
 40
0.75
 40
1.0
 40
1.0
 40
1.0
 40
1.0
 10
103.9413624526721
 20
95.29926048420026
 30
0.0
 10
103.9979891278742
 20
95.1915630303634
 30
0.0
 10
104.0925117881639
 20
95.08877344864408
 30
0.0
 10
104.2755567637262
 20
94.89041613642394
 30
0.0
 10
104.3671833406809
 20
94.79435662774569
 30
0.0
 10
104.5260366583741
 20
94.60682758503644
 30
0.0
 10
104.5939272659958
 20
94.51541861225287
 30
0.0
 10
104.6908442917034
 20
94.33704239134273
 30
0.0
 10
104.7196495705884
 20
94.24982048509656
 30
0.0
 10
104.7196495705884
 20
94.16867427656231
 30
0.0
  0
SPLINE
  5
9A
330
1F
100
AcDbEntity
  8
0
  6
Continuous
 62
     7
370
    15
100
AcDbSpline
210
0.0
220
0.0
230
1.0
 70
     8
 71
     3
 72
    14
 73
    10
 74
     0
 42
0.00000001
 43
0.00000001
 40
0.0
 40
0.0
 40
0.0
 40
0.0
 40
0.1249999999999975
 40
0.1249999999999975
 40
0.249999999999995
 40
0.249999999999995
 40
0.4999999999999953
 40
0.4999999999999953
 40
1.0
 40
1.0
 40
1.0
 40
1.0
 10
103.3196495705878
 20
95.74594234647958
 30
0.0
 10
103.368193979245
 20
95.75169065975987
 30
0.0
 10
103.4211093340299
 20
95.74858977110364
 30
0.0
 10
103.516404679013
 20
95.72639492694131
 30
0.0
 10
103.5566556762979
 20
95.70916269984545
 30
0.0
 10
103.6609256898109
 20
95.65283478339339
 30
0.0
 10
103.7112476649642
 20
95.60864843744758
 30
0.0
 10
103.8389306124896
 20
95.47764053859696
 30
0.0
 10
103.8950160595518
 20
95.38740601836666
 30
0.0
 10
103.9413624526736
 20
95.29926048420079
 30
0.0
  0
SPLINE
  5
9B
330
1F
100
AcDbEntity
  8
0
  6
Continuous
 62
     7
370
    15
100
AcDbSpline
210
0.0
220
0.0
230
1.0
 70
     8
 71
     3
 72
     8
 73
     4
 74
     0
 42
0.00000001
 43
0.00000001
 40
0.0
 40
0.0
 40
0.0
 40
0.0
 40
1.0
 40
1.0
 40
1.0
 40
1.0
 10
101.0511244776416
 20
95.4360970598968
 30
0.0
 10
101.7857015041246
 20
95.55472207096574
 30
0.0
 10
102.5491765735202
 20
95.65470794310203
 30
0.0
 10
103.3196495705878
 20
95.74594234647957
 30
0.0
  0
SPLINE
  5
9C
330
1F
100
AcDbEntity
  8
0
  6
Continuous
 62
     7
370
    15
100
AcDbSpline
210
0.0
220
0.0
230
1.0
 70
     8
 71
     3
 72
    14
 73
    10
 74
     0
 42
0.00000001
 43
0.00000001
 40
0.0
 40
0.0
 40
0.0
 40
0.0
 40
0.500000000000001
 40
0.500000000000001
 40
0.7500000000000004
 40
0.7500000000000004
 40
0.8750000000000003
 40
0.8750000000000003
 40
1.0
 40
1.0
 40
1.0
 40
1.0
 10
95.76964957058784
 20
95.26247404236514
 30
0.0
 10
96.66179570114141
 20
95.26175181616449
 30
0.0
 10
97.55177213693501
 20
95.26633802262195
 30
0.0
 10
98.87836730401062
 20
95.2940630270135
 30
0.0
 10
99.31921423250937
 20
95.30666956463766
 30
0.0
 10
99.97565446993177
 20
95.33768571264511
 30
0.0
 10
100.1936681265236
 20
95.35002888527188
 30
0.0
 10
100.6263769802064
 20
95.38305294043516
 30
0.0
 10
100.8416534453712
 20
95.4022701055736
 30
0.0
 10
101.0511244776416
 20
95.4360970598968
 30
0.0
  0
SPLINE
  5
9D
330
1F
100
AcDbEntity
  8
0
  6
Continuous
 62
     7
370
    15
100
AcDbSpline
210
0.0
220
0.0
230
1.0
 70
     8
 71
     3
 72
     8
 73
     4
 74
     0
 42
0.00000001
 43
0.00000001
 40
0.0000005163856998
 40
0.0000005163856998
 40
0.0000005163856998
 40
0.0000005163856998
 40
0.000026289209185
 40
0.000026289209185
 40
0.000026289209185
 40
0.000026289209185
 10
95.75960464018023
 20
95.27245791546191
 30
0.0
 10
95.76293237838807
 20
95.2691236685928
 30
0.0
 10
95.76628083136366
 20
95.2657957113175
 30
0.0
 10
95.76964957058782
 20
95.26247404236513
 30
0.0
  0
SPLINE
  5
9E
330
1F
100
AcDbEntity
  8
0
  6
Continuous
 62
     7
370
    15
100
AcDbSpline
210
0.0
220
0.0
230
1.0
 70
     8
 71
     3
 72
     8
 73
     4
 74
     0
 42
0.00000001
 43
0.00000001
 40
0.0000005099763573
 40
0.0000005099763573
 40
0.0000005099763573
 40
0.0000005099763573
 40
0.0000262827998699
 40
0.0000262827998699
 40
0.0000262827998699
 40
0.0000262827998699
 10
95.76964957058782
 20
137.0023495731553
 30
0.0
 10
95.76628083136008
 20
136.9990279041994
 30
0.0
 10
95.76293237838094
 20
136.9956999469205
 30
0.0
 10
95.7596046401696
 20
136.9923657000479
 30
0.0
  0
SPLINE
  5
9F
330
1F
100
AcDbEntity
  8
0
  6
Continuous
 62
     7
370
    15
100
AcDbSpline
210
0.0
220
0.0
230
1.0
 70
     8
 71
     3
 72
    10
 73
     6
 74
     0
 42
0.00000001
 43
0.00000001
 40
0.0
 40
0.0
 40
0.0
 40
0.0
 40
0.5
 40
0.5
 40
1.0
 40
1.0
 40
1.0
 40
1.0
 10
99.31964957058784
 20
136.9554991995879
 30
0.0
 10
98.73206402349726
 20
136.9765647198244
 30
0.0
 10
98.14131763003687
 20
136.9873232056966
 30
0.0
 10
96.957298464738
 20
137.0006879862322
 30
0.0
 10
96.36388447653255
 20
137.0028306288968
 30
0.0
 10
95.76964957058784
 20
137.0023495731553
 30
0.0
  0
SPLINE
  5
A0
330
1F
100
AcDbEntity
  8
0
  6
Continuous
 62
     7
370
    15
100
AcDbSpline
210
0.0
220
0.0
230
1.0
 70
     8
 71
     3
 72
    18
 73
    14
 74
     0
 42
0.00000001
 43
0.00000001
 40
0.0
 40
0.0
 40
0.0
 40
0.0
 40
0.2500000000000009
 40
0.2500000000000009
 40
0.500000000000001
 40
0.500000000000001
 40
0.7500000000000011
 40
0.7500000000000011
 40
0.875000000000001
 40
0.875000000000001
 40
0.9375000000000006
 40
0.9375000000000006
 40
1.0
 40
1.0
 40
1.0
 40
1.0
 10
100.7196495705878
 20
137.9765194801232
 30
0.0
 10
100.7196495705878
 20
137.893312571266
 30
0.0
 10
100.6838004706496
 20
137.8045759159524
 30
0.0
 10
100.5589287346157
 20
137.6224507253922
 30
0.0
 10
100.4685283169678
 20
137.5273206767656
 30
0.0
 10
100.2462856622256
 20
137.3381391676413
 30
0.0
 10
100.1165208757799
 20
137.2431939995465
 30
0.0
 10
99.87588341846833
 20
137.1049152919666
 30
0.0
 10
99.78811612033088
 20
137.0592048586642
 30
0.0
 10
99.63359203312407
 20
137.0013815534428
 30
0.0
 10
99.57698114706932
 20
136.9836667894049
 30
0.0
 10
99.45293711616273
 20
136.959127486172
 30
0.0
 10
99.38522244114444
 20
136.9531483476337
 30
0.0
 10
99.31964957058784
 20
136.9554991995879
 30
0.0
  0
LINE
  5
A1
330
1F
100
AcDbEntity
  8
0
  6
Continuous
 62
     7
370
    15
100
AcDbLine
 10
100.7196495706
 20
137.9765194801
 30
0.0
 11
100.7196495706
 21
139.1604578999
 31
0.0
  0
LINE
  5
A2
330
1F
100
AcDbEntity
  8
0
  6
Continuous
 62
     7
370
    15
100
AcDbLine
 10
124.5196495706
 20
91.911980946
 30
0.0
 11
124.5196495706
 21
140.3528426695
 31
0.0
  0
SPLINE
  5
A3
330
1F
100
AcDbEntity
  8
0
  6
Continuous
 62
     7
370
    15
100
AcDbSpline
210
0.0
220
0.0
230
1.0
 70
     8
 71
     3
 72
    24
 73
    20
 74
     0
 42
0.00000001
 43
0.00000001
 40
0.0
 40
0.0
 40
0.0
 40
0.0
 40
0.0010489762969682
 40
0.0637843125639766
 40
0.1272220590447888
 40
0.1903788924487598
 40
0.252674865369363
 40
0.3146354154424954
 40
0.377089199714964
 40
0.4393540298504154
 40
0.5008133242537826
 40
0.562184510458698
 40
0.624843845111553
 40
0.6874304766616532
 40
0.7496743174679398
 40
0.8119848426977657
 40
0.8750960525413161
 40
0.9384412526965076
 40
0.9999999999999999
 40
0.9999999999999999
 40
0.9999999999999999
 40
0.9999999999999999
 10
113.2885554025635
 20
92.47490337918008
 30
0.0
 10
113.2881089424593
 20
92.47484509336117
 30
0.0
 10
113.2609613787655
 20
92.47130095141864
 30
0.0
 10
113.3565731563792
 20
92.48413469610139
 30
0.0
 10
113.5901334142737
 20
92.51338138130158
 30
0.0
 10
113.9856877215909
 20
92.55999570436443
 30
0.0
 10
114.5127280254284
 20
92.61017884602377
 30
0.0
 10
115.1562584374183
 20
92.65455530847339
 30
0.0
 10
115.8949322926573
 20
92.68150008941159
 30
0.0
 10
116.6924467980906
 20
92.68497194011837
 30
0.0
 10
117.5190256805333
 20
92.65734469608813
 30
0.0
 10
118.3445486981441
 20
92.59886580711479
 30
0.0
 10
119.1366752461453
 20
92.51342077775473
 30
0.0
 10
119.8692475201512
 20
92.4116865379184
 30
0.0
 10
120.5048877568792
 20
92.30384341594544
 30
0.0
 10
121.0267988638887
 20
92.20221325920636
 30
0.0
 10
121.4084276410043
 20
92.11972810252813
 30
0.0
 10
121.659242111238
 20
92.0635788961785
 30
0.0
 10
121.6883636672223
 20
92.05672943756475
 30
0.0
 10
121.7027161880385
 20
92.05335369083659
 30
0.0
  0
SPLINE
  5
A4
330
1F
100
AcDbEntity
  8
0
  6
Continuous
 62
     7
370
    15
100
AcDbSpline
210
0.0
220
0.0
230
1.0
 70
     8
 71
     3
 72
    24
 73
    20
 74
     0
 42
0.00000001
 43
0.00000001
 40
0.0
 40
0.0
 40
0.0
 40
0.0
 40
0.0614384276250176
 40
0.1250736755369651
 40
0.1884253490729237
 40
0.2508623904037427
 40
0.3129665632511172
 40
0.3753451453465143
 40
0.4377328972324873
 40
0.4990927322917189
 40
0.5605807588447405
 40
0.6229469893028771
 40
0.6854686282025979
 40
0.7475477813740068
 40
0.8098225060804932
 40
0.8730684085990272
 40
0.9364041844536292
 40
0.9991757196257863
 40
1.0
 40
1.0
 40
1.0
 40
1.0
 10
121.7026614172356
 20
140.2114407822176
 30
0.0
 10
121.6880606929322
 20
140.208072725365
 30
0.0
 10
121.6583371742042
 20
140.2012161818913
 30
0.0
 10
121.4055993585555
 20
140.1448775613653
 30
0.0
 10
121.0226034421059
 20
140.0620204792353
 30
0.0
 10
120.5002478576688
 20
139.960113449284
 30
0.0
 10
119.8654633796689
 20
139.8522743102402
 30
0.0
 10
119.1352397754963
 20
139.7508073582651
 30
0.0
 10
118.3447711902622
 20
139.6657476445744
 30
0.0
 10
117.5202876754341
 20
139.607543350688
 30
0.0
 10
116.6932512165506
 20
139.5799599118614
 30
0.0
 10
115.8949269488989
 20
139.5834528893542
 30
0.0
 10
115.1551029846097
 20
139.6104088092073
 30
0.0
 10
114.5108487516346
 20
139.6547627512065
 30
0.0
 10
113.9834414964186
 20
139.7049682009644
 30
0.0
 10
113.5887768942684
 20
139.7515780561628
 30
0.0
 10
113.3562476150801
 20
139.7807736487102
 30
0.0
 10
113.2608675825315
 20
139.7935517176514
 30
0.0
 10
113.2878012194324
 20
139.7899974591436
 30
0.0
 10
113.2881503126568
 20
139.7899513915603
 30
0.0
  0
SPLINE
  5
A5
330
1F
100
AcDbEntity
  8
0
  6
Continuous
 62
     7
370
    15
100
AcDbSpline
210
0.0
220
0.0
230
1.0
 70
     8
 71
     3
 72
    39
 73
    35
 74
     0
 42
0.00000001
 43
0.00000001
 40
-0.0929035514949715
 40
-0.0617844675330088
 40
-0.0305606518844096
 40
0.0
 40
0.0305833544996188
 40
0.0618207632592421
 40
0.092957407328803
 40
0.1240731578172394
 40
0.1552546267395585
 40
0.1868126884169079
 40
0.2185638838481928
 40
0.2499315075259442
 40
0.281325112459997
 40
0.3131464055674988
 40
0.3447816985840116
 40
0.3760142222481691
 40
0.4071224531647578
 40
0.4382110606589149
 40
0.4693931316496997
 40
0.5000117158875057
 40
0.5306249294235121
 40
0.5618454474694607
 40
0.5929501996328829
 40
0.6240749381357529
 40
0.6552854313521826
 40
0.6868966152747047
 40
0.7186677897656593
 40
0.7500607090514082
 40
0.7814251173844291
 40
0.8132188904409209
 40
0.8447997037968994
 40
0.8760022562479365
 40
0.9070964485050284
 40
0.9382155324669911
 40
0.9694393481155903
 40
0.9999999999999999
 40
1.030583354499619
 40
1.061820763259242
 40
1.092957407328803
 10
184.3538887341562
 20
109.2795214157573
 30
0.0
 10
183.0193181604007
 20
109.143497006582
 30
0.0
 10
181.684571707792
 20
109.2797340053868
 30
0.0
 10
180.4039333482093
 20
109.6884050250177
 30
0.0
 10
179.2210011378568
 20
110.3298604257082
 30
0.0
 10
178.1953844004441
 20
111.1940238656353
 30
0.0
 10
177.3527641030255
 20
112.2452847779502
 30
0.0
 10
176.7283994073312
 20
113.4538426052339
 30
0.0
 10
176.3316451379306
 20
114.7643794294093
 30
0.0
 10
176.200227699949
 20
116.1297229785668
 30
0.0
 10
176.3324947455078
 20
117.4959839440587
 30
0.0
 10
176.7298376397229
 20
118.8089072125454
 30
0.0
 10
177.354585438585
 20
120.0204715167357
 30
0.0
 10
178.1978814664919
 20
121.0734264195628
 30
0.0
 10
179.2231463564723
 20
121.9378435617187
 30
0.0
 10
180.4046145145869
 20
122.5787554927402
 30
0.0
 10
181.6847823254555
 20
122.9859547899158
 30
0.0
 10
183.0200375536311
 20
123.1211071289368
 30
0.0
 10
184.3558129697331
 20
122.9855416067381
 30
0.0
 10
185.6364811202485
 20
122.5776131935295
 30
0.0
 10
186.8187639590577
 20
121.9360673403643
 30
0.0
 10
187.8437462177116
 20
121.0710282560135
 30
0.0
 10
188.6862620671731
 20
120.018031193891
 30
0.0
 10
189.3102135075804
 20
118.8075922150025
 30
0.0
 10
189.706750508531
 20
117.4955756062891
 30
0.0
 10
189.8390577413676
 20
116.1301354311412
 30
0.0
 10
189.7077690201061
 20
114.7641935043907
 30
0.0
 10
189.3103979786786
 20
113.4528880013679
 30
0.0
 10
188.6853892329083
 20
112.2432759874724
 30
0.0
 10
187.8420727300741
 20
111.1921234112378
 30
0.0
 10
186.8162409162667
 20
110.3286363916018
 30
0.0
 10
185.6338126015363
 20
109.6878735224064
 30
0.0
 10
184.3538887341562
 20
109.2795214157573
 30
0.0
 10
183.0193181604007
 20
109.143497006582
 30
0.0
 10
181.684571707792
 20
109.2797340053868
 30
0.0
  0
LINE
  5
A6
330
1F
100
AcDbEntity
  8
0
  6
Continuous
 62
     7
370
    15
100
AcDbLine
 10
195.797114968
 20
92.1324118078
 30
0.0
 11
195.797114968
 21
140.1324118078
 31
0.0
  0
LINE
  5
A7
330
1F
100
AcDbEntity
  8
0
  6
Continuous
 62
     7
370
    15
100
AcDbLine
 10
161.106052686
 20
140.0207552513
 30
0.0
 11
161.2573844552
 21
140.0092630392
 31
0.0
  0
SPLINE
  5
A8
330
1F
100
AcDbEntity
  8
0
  6
Continuous
 62
     7
370
    15
100
AcDbSpline
210
0.0
220
0.0
230
1.0
 70
     8
 71
     3
 72
    37
 73
    33
 74
     0
 42
0.00000001
 43
0.00000001
 40
0.0
 40
0.0
 40
0.0
 40
0.0
 40
0.0256149929634771
 40
0.0497067086304288
 40
0.0718163130150371
 40
0.1167423152375816
 40
0.1395962735861159
 40
0.1626522064888441
 40
0.2094323706696481
 40
0.2331865098942859
 40
0.2584960098645346
 40
0.3098384509937954
 40
0.3359062500565494
 40
0.3637925677554255
 40
0.4204057369446654
 40
0.4491821380830175
 40
0.4789197060413855
 40
0.5393642338504852
 40
0.5701401082433712
 40
0.6004516982398521
 40
0.6309793894439626
 40
0.6622055127908589
 40
0.6936815483294084
 40
0.7231198339567664
 40
0.7831508081445492
 40
0.8138624108872854
 40
0.8408184383686202
 40
0.8958648125178854
 40
0.9240742712119184
 40
0.9479672352312112
 40
0.9966914106035681
 40
1.0
 40
1.0
 40
1.0
 40
1.0
 10
166.9588622179793
 20
140.1311577714621
 30
0.0
 10
166.9609855010688
 20
140.1314036846905
 30
0.0
 10
166.9651057994433
 20
140.1318808871324
 30
0.0
 10
166.9253852204484
 20
140.1272776487978
 30
0.0
 10
166.8557213561035
 20
140.119312737023
 30
0.0
 10
166.7479166127845
 20
140.1072490794008
 30
0.0
 10
166.6055734820265
 20
140.0920489299706
 30
0.0
 10
166.4380393770726
 20
140.0747821589949
 30
0.0
 10
166.2368335805021
 20
140.055280566118
 30
0.0
 10
166.0034079170051
 20
140.0346234990008
 30
0.0
 10
165.7405851010376
 20
140.0129584124246
 30
0.0
 10
165.4451008356039
 20
139.9915540878681
 30
0.0
 10
165.1219111665534
 20
139.9720113970752
 30
0.0
 10
164.7695418757592
 20
139.9536885909986
 30
0.0
 10
164.3907145428213
 20
139.9391978709819
 30
0.0
 10
163.9961821001748
 20
139.9300484492806
 30
0.0
 10
163.5839362682999
 20
139.9247368770003
 30
0.0
 10
163.1609526860582
 20
139.9261311696782
 30
0.0
 10
162.7424663634908
 20
139.9343096547752
 30
0.0
 10
162.4319868041797
 20
139.9436896163647
 30
0.0
 10
162.1273533809159
 20
139.956064260226
 30
0.0
 10
161.8287740388167
 20
139.9712432723035
 30
0.0
 10
161.5460821296656
 20
139.9884235913481
 30
0.0
 10
161.1943452694545
 20
140.0129969158662
 30
0.0
 10
160.8766631209861
 20
140.0393398173937
 30
0.0
 10
160.6087716449732
 20
140.0643049540449
 30
0.0
 10
160.3812287497487
 20
140.0868634645011
 30
0.0
 10
160.2030016890395
 20
140.1059691375392
 30
0.0
 10
160.080716032862
 20
140.1196466265109
 30
0.0
 10
159.9997459673649
 20
140.1288901771572
 30
0.0
 10
159.963753622877
 20
140.1330977048161
 30
0.0
 10
159.9706068359195
 20
140.1323004886042
 30
0.0
 10
159.9710426088042
 20
140.1322497962931
 30
0.0
  0
SPLINE
  5
A9
330
1F
100
AcDbEntity
  8
0
  6
Continuous
 62
     7
370
    15
100
AcDbSpline
210
0.0
220
0.0
230
1.0
 70
     8
 71
     3
 72
     9
 73
     5
 74
     0
 42
0.00000001
 43
0.00000001
 40
0.0
 40
0.0
 40
0.0
 40
0.0
 40
0.2833990932422814
 40
0.9999999999999999
 40
0.9999999999999999
 40
0.9999999999999999
 40
0.9999999999999999
 10
160.8316270305796
 20
140.0440253219809
 30
0.0
 10
160.8558412090505
 20
140.0418366885576
 30
0.0
 10
160.9412831848657
 20
140.0341138924177
 30
0.0
 10
161.0372690954324
 20
140.0263318616051
 30
0.0
 10
161.1060526859804
 20
140.0207552512683
 30
0.0
  0
SPLINE
  5
AA
330
1F
100
AcDbEntity
  8
0
  6
Continuous
 62
     7
370
    15
100
AcDbSpline
210
0.0
220
0.0
230
1.0
 70
     8
 71
     3
 72
    68
 73
    64
 74
     0
 42
0.00000001
 43
0.00000001
 40
-0.0312499999999997
 40
-0.0312499999999997
 40
0.0
 40
0.0
 40
0.0312500000000001
 40
0.0312500000000001
 40
0.0625000000000003
 40
0.0625000000000003
 40
0.0937500000000004
 40
0.0937500000000004
 40
0.1250000000000006
 40
0.1250000000000006
 40
0.1562500000000007
 40
0.1562500000000007
 40
0.1875000000000008
 40
0.1875000000000008
 40
0.218750000000001
 40
0.218750000000001
 40
0.2500000000000011
 40
0.2500000000000011
 40
0.2812500000000012
 40
0.2812500000000012
 40
0.3125000000000014
 40
0.3125000000000014
 40
0.3437500000000016
 40
0.3437500000000016
 40
0.3750000000000017
 40
0.3750000000000017
 40
0.4062500000000018
 40
0.4062500000000018
 40
0.4375000000000019
 40
0.4375000000000019
 40
0.4687500000000021
 40
0.4687500000000021
 40
0.5000000000000022
 40
0.5000000000000022
 40
0.5312500000000023
 40
0.5312500000000023
 40
0.5625000000000024
 40
0.5625000000000024
 40
0.5937500000000027
 40
0.5937500000000027
 40
0.6250000000000028
 40
0.6250000000000028
 40
0.6875000000000031
 40
0.6875000000000031
 40
0.7187500000000028
 40
0.7187500000000028
 40
0.7500000000000024
 40
0.7500000000000024
 40
0.7812500000000021
 40
0.7812500000000021
 40
0.8125000000000018
 40
0.8125000000000018
 40
0.8437500000000016
 40
0.8437500000000016
 40
0.8750000000000012
 40
0.8750000000000012
 40
0.9062500000000009
 40
0.9062500000000009
 40
0.9375000000000006
 40
0.9375000000000006
 40
0.9687500000000003
 40
0.9687500000000003
 40
1.0
 40
1.0
 40
1.03125
 40
1.03125
 10
160.9370384870954
 20
118.3054305672745
 30
0.0
 10
161.275066886815
 20
118.5841298073278
 30
0.0
 10
161.4546016172521
 20
118.7051695833595
 30
0.0
 10
161.8328575586955
 20
118.9140056037592
 30
0.0
 10
162.0330663143056
 20
119.00224359269
 30
0.0
 10
162.4463204130819
 20
119.1426019572371
 30
0.0
 10
162.6567055104744
 20
119.1941257958462
 30
0.0
 10
163.0846828021896
 20
119.26148365645
 30
0.0
 10
163.3043372061774
 20
119.2771914506516
 30
0.0
 10
163.7395308710906
 20
119.2712974325378
 30
0.0
 10
163.9547559555551
 20
119.2501356340856
 30
0.0
 10
164.3805007883023
 20
119.1716383561808
 30
0.0
 10
164.5930790900234
 20
119.1134218330254
 30
0.0
 10
165.0003331615067
 20
118.9624708365226
 30
0.0
 10
165.1953363367749
 20
118.8701633841256
 30
0.0
 10
165.5677078597623
 20
118.6509964387296
 30
0.0
 10
165.7469112545333
 20
118.5223448415513
 30
0.0
 10
166.073062243971
 20
118.2368178157466
 30
0.0
 10
166.2208093408158
 20
118.0801160334685
 30
0.0
 10
166.4839207981991
 20
117.7371398057647
 30
0.0
 10
166.6000564979308
 20
117.5483886592744
 30
0.0
 10
166.7851469738938
 20
117.1570047580109
 30
0.0
 10
166.8557850958057
 20
116.953013486432
 30
0.0
 10
166.9501238678082
 20
116.5272090717575
 30
0.0
 10
166.9725504588885
 20
116.3076192276486
 30
0.0
 10
166.9661360249555
 20
115.8744560864929
 30
0.0
 10
166.9371808475315
 20
115.6553742299018
 30
0.0
 10
166.8304229249998
 20
115.2323755515617
 30
0.0
 10
166.7536818861342
 20
115.0294502816573
 30
0.0
 10
166.5555335811281
 20
114.639952542941
 30
0.0
 10
166.4351828097196
 20
114.4563893424507
 30
0.0
 10
166.1618870130653
 20
114.1195599260164
 30
0.0
 10
166.0062895634621
 20
113.9633112059562
 30
0.0
 10
165.6711724573341
 20
113.6858387013762
 30
0.0
 10
165.4918966383014
 20
113.564099295828
 30
0.0
 10
165.1110058188366
 20
113.3528816274489
 30
0.0
 10
164.9095430415375
 20
113.2640163268662
 30
0.0
 10
164.4992353501235
 20
113.1240418411653
 30
0.0
 10
164.2886236137052
 20
113.0718772330062
 30
0.0
 10
163.8563961722971
 20
113.0033938305567
 30
0.0
 10
163.6382726682227
 20
112.9878369920666
 30
0.0
 10
162.9887685301801
 20
112.9958920579221
 30
0.0
 10
162.5509745836437
 20
113.0759134375738
 30
0.0
 10
161.9429998512981
 20
113.3006573579653
 30
0.0
 10
161.7469833911831
 20
113.392913802855
 30
0.0
 10
161.3693326868674
 20
113.6151251823679
 30
0.0
 10
161.1932543640278
 20
113.7419035836042
 30
0.0
 10
160.8686170152276
 20
114.0257406018749
 30
0.0
 10
160.7192412874792
 20
114.1835428381376
 30
0.0
 10
160.4526333841094
 20
114.5314485123033
 30
0.0
 10
160.3395894262534
 20
114.7158982674448
 30
0.0
 10
160.1547938269493
 20
115.1062664796287
 30
0.0
 10
160.0824550202095
 20
115.3153166869474
 30
0.0
 10
159.9886737702253
 20
115.7411728405841
 30
0.0
 10
159.9666661568978
 20
115.9566563631305
 30
0.0
 10
159.9732742588093
 20
116.392825999837
 30
0.0
 10
160.0027079045182
 20
116.6124105740104
 30
0.0
 10
160.1092761507849
 20
117.0334018362423
 30
0.0
 10
160.1876227725463
 20
117.240075670067
 30
0.0
 10
160.3861132117909
 20
117.6287088256293
 30
0.0
 10
160.5052506421648
 20
117.8102342682238
 30
0.0
 10
160.7810002758218
 20
118.1492770427427
 30
0.0
 10
160.9370384870954
 20
118.3054305672745
 30
0.0
 10
161.275066886815
 20
118.5841298073278
 30
0.0
  0
LINE
  5
AB
330
1F
100
AcDbEntity
  8
0
  6
Continuous
 62
     7
370
    15
100
AcDbLine
 10
161.1060526863
 20
92.2440683643
 30
0.0
 11
161.0269299109
 21
92.237490853
 31
0.0
  0
SPLINE
  5
AC
330
1F
100
AcDbEntity
  8
0
  6
Continuous
 62
     7
370
    15
100
AcDbSpline
210
0.0
220
0.0
230
1.0
 70
     8
 71
     3
 72
    38
 73
    34
 74
     0
 42
0.00000001
 43
0.00000001
 40
0.0
 40
0.0
 40
0.0
 40
0.0
 40
0.0264441120772272
 40
0.0505031275662755
 40
0.0726119049718961
 40
0.1175353631651346
 40
0.140387464469519
 40
0.16345775028552
 40
0.21026671096093
 40
0.2340352859201677
 40
0.2593665467664352
 40
0.3107532928293951
 40
0.3368437263485951
 40
0.3647495791206692
 40
0.421402953803048
 40
0.4502001824626401
 40
0.479947277052421
 40
0.5098929218562357
 40
0.5404634043410307
 40
0.5712499688602818
 40
0.6015590667667976
 40
0.6320843867017545
 40
0.6633087233061334
 40
0.6947832701702928
 40
0.7242050849190149
 40
0.7842035553572076
 40
0.8148993124687878
 40
0.8418266283398126
 40
0.8968144734118042
 40
0.9249938742230192
 40
0.9488623561586427
 40
0.9975354542224844
 40
0.9999999999999999
 40
0.9999999999999999
 40
0.9999999999999999
 40
0.9999999999999999
 10
159.9803270452694
 20
92.13365303365151
 30
0.0
 10
159.9783930721715
 20
92.13342924569557
 30
0.0
 10
159.9746995584779
 20
92.13300185408364
 30
0.0
 10
160.0154412451046
 20
92.13772194590061
 30
0.0
 10
160.086041650085
 20
92.1457897831591
 30
0.0
 10
160.1946710080194
 20
92.15793567314657
 30
0.0
 10
160.3378238535079
 20
92.17320499507004
 30
0.0
 10
160.5061944922579
 20
92.190534267969
 30
0.0
 10
160.7082324137883
 20
92.21008142481472
 30
0.0
 10
160.94246689644
 20
92.23076221708925
 30
0.0
 10
161.2061300601658
 20
92.25243705613741
 30
0.0
 10
161.502431712046
 20
92.27382340536259
 30
0.0
 10
161.8263725453041
 20
92.2933170056034
 30
0.0
 10
162.179443319935
 20
92.31156642489802
 30
0.0
 10
162.5588907795502
 20
92.32595033873073
 30
0.0
 10
162.95385583314
 20
92.33496874936955
 30
0.0
 10
163.2607047150925
 20
92.33880219250862
 30
0.0
 10
163.5750728174866
 20
92.33937515608942
 30
0.0
 10
163.8923678120596
 20
92.33651862609862
 30
0.0
 10
164.2079780204642
 20
92.33023578207194
 30
0.0
 10
164.5182451192726
 20
92.32074347408413
 30
0.0
 10
164.8225729749992
 20
92.30827039074786
 30
0.0
 10
165.1207532819552
 20
92.29300649147807
 30
0.0
 10
165.402921941688
 20
92.27576350651924
 30
0.0
 10
165.7537917132481
 20
92.25114092426327
 30
0.0
 10
166.0704266203903
 20
92.22479754667756
 30
0.0
 10
166.3371243059222
 20
92.19988255557512
 30
0.0
 10
166.5633978284086
 20
92.17740517130008
 30
0.0
 10
166.7402807751414
 20
92.15841725156643
 30
0.0
 10
166.8612858157877
 20
92.14487091588944
 30
0.0
 10
166.940967590623
 20
92.1357689569009
 30
0.0
 10
166.976045448469
 20
92.13166791806155
 30
0.0
 10
166.9689162438156
 20
92.13249707733029
 30
0.0
 10
166.9685726563933
 20
92.1325370381267
 30
0.0
  0
CIRCLE
  5
AD
330
1F
100
AcDbEntity
  8
0
  6
Continuous
 62
     7
370
    15
100
AcDbCircle
 10
163.4696495706
 20
116.1324118078
 30
0.0
 40
2.5
  0
SPLINE
  5
AE
330
1F
100
AcDbEntity
  8
0
  6
Continuous
 62
     7
370
    15
100
AcDbSpline
210
0.0
220
0.0
230
1.0
 70
     8
 71
     3
 72
    10
 73
     6
 74
     0
 42
0.00000001
 43
0.00000001
 40
0.0
 40
0.0
 40
0.0
 40
0.0
 40
0.0840381716606348
 40
0.7011125076933074
 40
1.0
 40
1.0
 40
1.0
 40
1.0
 10
94.63319653312351
 20
96.40363790007687
 30
0.0
 10
94.63387109045843
 20
96.40143227324099
 30
0.0
 10
94.63949877815462
 20
96.38303119987876
 30
0.0
 10
94.66582025828146
 20
96.39726576260193
 30
0.0
 10
94.67825527512618
 20
96.44295153815293
 30
0.0
 10
94.68231294531124
 20
96.45785926297948
 30
0.0
  0
LINE
  5
AF
330
1F
100
AcDbEntity
  8
0
  6
Continuous
 62
     7
370
    15
100
AcDbLine
 10
94.6196495706
 20
96.4417340613
 30
0.0
 11
94.6196495706
 21
135.8230895542
 31
0.0
  0
SPLINE
  5
B0
330
1F
100
AcDbEntity
  8
0
  6
Continuous
 62
     7
370
    15
100
AcDbSpline
210
0.0
220
0.0
230
1.0
 70
     8
 71
     3
 72
    10
 73
     6
 74
     0
 42
0.00000001
 43
0.00000001
 40
0.0
 40
0.0
 40
0.0
 40
0.0
 40
0.5
 40
0.5
 40
1.0
 40
1.0
 40
1.0
 40
1.0
 10
94.68231294531124
 20
135.8069643525409
 30
0.0
 10
94.6734086562025
 20
135.8527058717541
 30
0.0
 10
94.65689327600951
 20
135.8698967112231
 30
0.0
 10
94.6297853299479
 20
135.8695734342874
 30
0.0
 10
94.61964957058784
 20
135.851695891991
 30
0.0
 10
94.61964957058784
 20
135.8230895542384
 30
0.0
  0
SPLINE
  5
B1
330
1F
100
AcDbEntity
  8
0
  6
Continuous
 62
     7
370
    15
100
AcDbSpline
210
0.0
220
0.0
230
1.0
 70
     8
 71
     3
 72
    26
 73
    22
 74
     0
 42
0.00000001
 43
0.00000001
 40
0.0
 40
0.0
 40
0.0
 40
0.0
 40
0.2500000000000165
 40
0.2500000000000165
 40
0.3750000000000256
 40
0.3750000000000256
 40
0.4375000000000291
 40
0.4375000000000291
 40
0.4687500000000291
 40
0.4687500000000291
 40
0.5000000000000292
 40
0.5000000000000292
 40
0.5312500000000293
 40
0.5312500000000293
 40
0.5625000000000293
 40
0.5625000000000293
 40
0.625000000000026
 40
0.625000000000026
 40
0.7500000000000173
 40
0.7500000000000173
 40
1.0
 40
1.0
 40
1.0
 40
1.0
 10
95.44380321669236
 20
136.522531141358
 30
0.0
 10
95.40520269382388
 20
136.4047564450026
 30
0.0
 10
95.35890569126961
 20
136.2803667588407
 30
0.0
 10
95.26496634283568
 20
136.0751474264872
 30
0.0
 10
95.22965487592224
 20
136.0035745600408
 30
0.0
 10
95.16347490017657
 20
135.8876213274403
 30
0.0
 10
95.13893653350833
 20
135.84703679263
 30
0.0
 10
95.09556378795455
 20
135.7828951107583
 30
0.0
 10
95.08005538652934
 20
135.7610286854733
 30
0.0
 10
95.04501274194233
 20
135.7154344171301
 30
0.0
 10
95.02546245122255
 20
135.6917641261627
 30
0.0
 10
94.98353517085195
 20
135.6471475668227
 30
0.0
 10
94.9608830606203
 20
135.6262675543048
 30
0.0
 10
94.91990934653366
 20
135.595394140554
 30
0.0
 10
94.90231004663823
 20
135.5855552707216
 30
0.0
 10
94.8576830607821
 20
135.5665656550254
 30
0.0
 10
94.83712383812876
 20
135.566241330372
 30
0.0
 10
94.7859983986321
 20
135.5754647712482
 30
0.0
 10
94.76508698564356
 20
135.5967116674651
 30
0.0
 10
94.71363707808263
 20
135.6706805462959
 30
0.0
 10
94.69597177877807
 20
135.7367986396107
 30
0.0
 10
94.68231294531124
 20
135.8069643525409
 30
0.0
  0
SPLINE
  5
B2
330
1F
100
AcDbEntity
  8
0
  6
Continuous
 62
     7
370
    15
100
AcDbSpline
210
0.0
220
0.0
230
1.0
 70
     8
 71
     3
 72
    10
 73
     6
 74
     0
 42
0.00000001
 43
0.00000001
 40
0.0
 40
0.0
 40
0.0
 40
0.0
 40
0.5
 40
0.5
 40
1.0
 40
1.0
 40
1.0
 40
1.0
 10
95.75960464016963
 20
136.9923657000479
 30
0.0
 10
95.69204538525138
 20
136.9246743072381
 30
0.0
 10
95.6284087299149
 20
136.8499671424844
 30
0.0
 10
95.51818797534305
 20
136.6910010100578
 30
0.0
 10
95.47137168212042
 20
136.6066457440498
 30
0.0
 10
95.44380321669236
 20
136.522531141358
 30
0.0
  0
SPLINE
  5
B3
330
1F
100
AcDbEntity
  8
0
  6
Continuous
 62
     7
370
    15
100
AcDbSpline
210
0.0
220
0.0
230
1.0
 70
     8
 71
     3
 72
    10
 73
     6
 74
     0
 42
0.00000001
 43
0.00000001
 40
0.0
 40
0.0
 40
0.0
 40
0.0
 40
0.5
 40
0.5
 40
1.0
 40
1.0
 40
1.0
 40
1.0
 10
95.44380321669237
 20
95.74229247416224
 30
0.0
 10
95.47128063144636
 20
95.65845567769435
 30
0.0
 10
95.51798926173576
 20
95.57414519010521
 30
0.0
 10
95.62826772448173
 20
95.41502395961851
 30
0.0
 10
95.69215526309563
 20
95.34003921552886
 30
0.0
 10
95.75960464018024
 20
95.27245791546191
 30
0.0
  0
SPLINE
  5
B4
330
1F
100
AcDbEntity
  8
0
  6
Continuous
 62
     7
370
    15
100
AcDbSpline
210
0.0
220
0.0
230
1.0
 70
     8
 71
     3
 72
    24
 73
    20
 74
     0
 42
0.00000001
 43
0.00000001
 40
0.0
 40
0.0
 40
0.0
 40
0.0
 40
0.25
 40
0.25
 40
0.374999999999999
 40
0.374999999999999
 40
0.4374999999999993
 40
0.4374999999999993
 40
0.4687499999999994
 40
0.4687499999999994
 40
0.4999999999999995
 40
0.4999999999999995
 40
0.5624999999999971
 40
0.5624999999999971
 40
0.6249999999999947
 40
0.6249999999999947
 40
0.7499999999999947
 40
0.7499999999999947
 40
1.0
 40
1.0
 40
1.0
 40
1.0
 10
94.68231294531124
 20
96.45785926297948
 30
0.0
 10
94.69606606398148
 20
96.52850932096976
 30
0.0
 10
94.71383863138735
 20
96.59510743373467
 30
0.0
 10
94.76608972294271
 20
96.66920545396789
 30
0.0
 10
94.78712479852425
 20
96.69046326112944
 30
0.0
 10
94.8400252061527
 20
96.69860918727568
 30
0.0
 10
94.86113087903061
 20
96.69766938387991
 30
0.0
 10
94.90718304770857
 20
96.67665339230257
 30
0.0
 10
94.92555351969196
 20
96.66574458619495
 30
0.0
 10
94.96710515475768
 20
96.63310967524758
 30
0.0
 10
94.98967182751458
 20
96.61161769487622
 30
0.0
 10
95.05245284397459
 20
96.5431517512899
 30
0.0
 10
95.08558260494249
 20
96.4970772930848
 30
0.0
 10
95.14250029142751
 20
96.41206940475014
 30
0.0
 10
95.16668631693129
 20
96.37178910356874
 30
0.0
 10
95.23189426731105
 20
96.25685287710282
 30
0.0
 10
95.26661032750228
 20
96.1862698919558
 30
0.0
 10
95.35982559783315
 20
95.9820641328772
 30
0.0
 10
95.40549813319383
 20
95.85916575054983
 30
0.0
 10
95.44380321669237
 20
95.74229247416227
 30
0.0
  0
SPLINE
  5
B5
330
1F
100
AcDbEntity
  8
0
  6
Continuous
 62
     7
370
    15
100
AcDbSpline
210
0.0
220
0.0
230
1.0
 70
     8
 71
     3
 72
     8
 73
     4
 74
     0
 42
0.00000001
 43
0.00000001
 40
0.0
 40
0.0
 40
0.0
 40
0.0
 40
1.0
 40
1.0
 40
1.0
 40
1.0
 10
147.9115824020769
 20
146.5996072809245
 30
0.0
 10
147.4164423727126
 20
145.7129276327442
 30
0.0
 10
146.9223596674336
 20
144.8256649970582
 30
0.0
 10
146.4296495705878
 20
143.9376459989318
 30
0.0
  0
LINE
  5
B6
330
1F
100
AcDbEntity
  8
0
  6
Continuous
 62
     7
370
    15
100
AcDbLine
 10
147.9115824021
 20
140.5911014701
 30
0.0
 11
147.9115824021
 21
146.5996072809
 31
0.0
  0
SPLINE
  5
B7
330
1F
100
AcDbEntity
  8
0
  6
Continuous
 62
     7
370
    15
100
AcDbSpline
210
0.0
220
0.0
230
1.0
 70
     8
 71
     3
 72
     8
 73
     4
 74
     0
 42
0.00000001
 43
0.00000001
 40
0.0
 40
0.0
 40
0.0
 40
0.0
 40
1.0
 40
1.0
 40
1.0
 40
1.0
 10
146.4296495705878
 20
137.1825554753435
 30
0.0
 10
146.9089277211777
 20
138.3235667051961
 30
0.0
 10
147.4044955603176
 20
139.459951115964
 30
0.0
 10
147.9115824020769
 20
140.5911014701277
 30
0.0
  0
LINE
  5
B8
330
1F
100
AcDbEntity
  8
0
  6
Continuous
 62
     7
370
    15
100
AcDbLine
 10
146.4296495706
 20
137.1825554753
 30
0.0
 11
146.4296495706
 21
143.9376459989
 31
0.0
  0
LINE
  5
B9
330
1F
100
AcDbEntity
  8
0
  6
Continuous
 62
     7
370
    15
100
AcDbLine
 10
151.8696495706
 20
146.5996072809
 30
0.0
 11
147.9115824021
 21
146.5996072809
 31
0.0
  0
LINE
  5
BA
330
1F
100
AcDbEntity
  8
0
  6
Continuous
 62
     7
370
    15
100
AcDbLine
 10
147.9115824021
 20
140.5911014701
 30
0.0
 11
151.8696495706
 21
140.5911014701
 31
0.0
  0
SPLINE
  5
BB
330
1F
100
AcDbEntity
  8
0
  6
Continuous
 62
     7
370
    15
100
AcDbSpline
210
0.0
220
0.0
230
1.0
 70
     8
 71
     3
 72
    12
 73
     8
 74
     0
 42
0.00000001
 43
0.00000001
 40
0.0
 40
0.0
 40
0.0
 40
0.0
 40
0.250000000000002
 40
0.250000000000002
 40
0.500000000000004
 40
0.500000000000004
 40
1.0
 40
1.0
 40
1.0
 40
1.0
 10
151.8696495705878
 20
140.5911014701277
 30
0.0
 10
151.9608492924135
 20
140.5911014701277
 30
0.0
 10
152.0514443015495
 20
140.5628817715398
 30
0.0
 10
152.2048570279962
 20
140.4684387642916
 30
0.0
 10
152.2700658953198
 20
140.4021517875863
 30
0.0
 10
152.4228504246598
 20
140.1765269642981
 30
0.0
 10
152.4696495705878
 20
139.9941007012655
 30
0.0
 10
152.4696495705878
 20
139.8133640690186
 30
0.0
  0
LINE
  5
BC
330
1F
100
AcDbEntity
  8
0
  6
Continuous
 62
     7
370
    15
100
AcDbLine
 10
146.4296495706
 20
136.2682784392
 30
0.0
 11
146.4296495706
 21
137.1825554753
 31
0.0
  0
LINE
  5
BD
330
1F
100
AcDbEntity
  8
0
  6
Continuous
 62
     7
370
    15
100
AcDbLine
 10
152.4696495706
 20
139.813364069
 30
0.0
 11
152.4696495706
 21
135.9824118078
 31
0.0
  0
SPLINE
  5
BE
330
1F
100
AcDbEntity
  8
0
  6
Continuous
 62
     7
370
    15
100
AcDbSpline
210
0.0
220
0.0
230
1.0
 70
     8
 71
     3
 72
     8
 73
     4
 74
     0
 42
0.00000001
 43
0.00000001
 40
0.0
 40
0.0
 40
0.0
 40
0.0
 40
1.0
 40
1.0
 40
1.0
 40
1.0
 10
142.6096495705878
 20
143.9376459989318
 30
0.0
 10
142.1169394737421
 20
144.8256649970582
 30
0.0
 10
141.6228567684631
 20
145.7129276327442
 30
0.0
 10
141.1277167390988
 20
146.5996072809245
 30
0.0
  0
LINE
  5
BF
330
1F
100
AcDbEntity
  8
0
  6
Continuous
 62
     7
370
    15
100
AcDbLine
 10
142.6096495706
 20
137.1825554753
 30
0.0
 11
142.6096495706
 21
143.9376459989
 31
0.0
  0
SPLINE
  5
C0
330
1F
100
AcDbEntity
  8
0
  6
Continuous
 62
     7
370
    15
100
AcDbSpline
210
0.0
220
0.0
230
1.0
 70
     8
 71
     3
 72
     8
 73
     4
 74
     0
 42
0.00000001
 43
0.00000001
 40
0.0
 40
0.0
 40
0.0
 40
0.0
 40
1.0
 40
1.0
 40
1.0
 40
1.0
 10
141.1277167390988
 20
140.5911014701277
 30
0.0
 10
141.6348035808581
 20
139.459951115964
 30
0.0
 10
142.130371419998
 20
138.3235667051962
 30
0.0
 10
142.6096495705878
 20
137.1825554753435
 30
0.0
  0
SPLINE
  5
C1
330
1F
100
AcDbEntity
  8
0
  6
Continuous
 62
     7
370
    15
100
AcDbSpline
210
0.0
220
0.0
230
1.0
 70
     8
 71
     3
 72
    10
 73
     6
 74
     0
 42
0.00000001
 43
0.00000001
 40
0.0
 40
0.0
 40
0.0
 40
0.0
 40
0.5
 40
0.5
 40
1.0
 40
1.0
 40
1.0
 40
1.0
 10
152.4696495705878
 20
145.9788521315241
 30
0.0
 10
152.4696495705878
 20
146.1392573978749
 30
0.0
 10
152.407411739481
 20
146.2983192108635
 30
0.0
 10
152.1882768157384
 20
146.5292316764939
 30
0.0
 10
152.0306881207466
 20
146.5996072809245
 30
0.0
 10
151.8696495705878
 20
146.5996072809245
 30
0.0
  0
LINE
  5
C2
330
1F
100
AcDbEntity
  8
0
  6
Continuous
 62
     7
370
    15
100
AcDbLine
 10
152.4696495706
 20
139.813364069
 30
0.0
 11
152.4696495706
 21
145.9788521315
 31
0.0
  0
LINE
  5
C3
330
1F
100
AcDbEntity
  8
0
  6
Continuous
 62
     7
370
    15
100
AcDbLine
 10
142.6096495706
 20
137.1825554753
 30
0.0
 11
142.6096495706
 21
136.2682784392
 31
0.0
  0
LINE
  5
C4
330
1F
100
AcDbEntity
  8
0
  6
Continuous
 62
     7
370
    15
100
AcDbLine
 10
206.5196495706
 20
98.4065523294
 30
0.0
 11
206.5196495706
 21
133.8582712856
 31
0.0
  0
ARC
  5
C5
330
1F
100
AcDbEntity
  8
0
  6
Continuous
 62
     7
370
    15
100
AcDbCircle
 10
134.520413349
 20
134.824455712
 30
0.0
 40
7.2620643186142
100
AcDbArc
 50
70.9641575277
 51
109.2384168944
  0
SPLINE
  5
C6
330
1F
100
AcDbEntity
  8
0
  6
Continuous
 62
     7
370
    15
100
AcDbSpline
210
0.0
220
0.0
230
1.0
 70
    11
 71
     3
 72
    62
 73
    58
 74
     0
 42
0.00000001
 43
0.00000001
 40
0.0
 40
0.0
 40
0.0
 40
0.0
 40
0.0000354683643063
 40
0.0000354683643063
 40
0.0000354683643063
 40
0.000070925625666
 40
0.000070925625666
 40
0.000070925625666
 40
0.0001062535416666
 40
0.0001062535416666
 40
0.0001062535416666
 40
0.0001416489793185
 40
0.0001416489793185
 40
0.0001416489793185
 40
0.0001772767516325
 40
0.0001772767516325
 40
0.0001772767516325
 40
0.0002131979165119
 40
0.0002131979165119
 40
0.0002131979165119
 40
0.0002493472361901
 40
0.0002493472361901
 40
0.0002493472361901
 40
0.0002855626097705
 40
0.0002855626097705
 40
0.0002855626097705
 40
0.0003216520912339
 40
0.0003216520912339
 40
0.0003216520912339
 40
0.000357475133192
 40
0.000357475133192
 40
0.000357475133192
 40
0.0003930073579622
 40
0.0003930073579622
 40
0.0003930073579622
 40
0.0004283554212109
 40
0.0004283554212109
 40
0.0004283554212109
 40
0.0004637085916074
 40
0.0004637085916074
 40
0.0004637085916074
 40
0.0004992512803726
 40
0.0004992512803726
 40
0.0004992512803726
 40
0.0005350818968996
 40
0.0005350818968996
 40
0.0005350818968996
 40
0.0005711737272019
 40
0.0005711737272019
 40
0.0005711737272019
 40
0.0006073890614899
 40
0.0006073890614899
 40
0.0006073890614899
 40
0.0006435366833388
 40
0.0006435366833388
 40
0.0006435366833388
 40
0.0006661078579228
 40
0.0006661078579228
 40
0.0006661078579228
 40
0.0006661078579228
 10
163.3780122092964
 20
116.1871485278452
 30
0.0
 10
163.3718748584247
 20
116.1770436527643
 30
0.0
 10
163.3673929040837
 20
116.1657412138651
 30
0.0
 10
163.3649481439141
 20
116.154173980047
 30
0.0
 10
163.3625042851009
 20
116.1426110109412
 30
0.0
 10
163.3620294335852
 20
116.1304640141966
 30
0.0
 10
163.3635644525287
 20
116.1187457056584
 30
0.0
 10
163.365094092251
 20
116.107068462003
 30
0.0
 10
163.3686606614976
 20
116.0954957588001
 30
0.0
 10
163.3739614360954
 20
116.0849792192792
 30
0.0
 10
163.3792727220041
 20
116.0744418257086
 30
0.0
 10
163.3864689815826
 20
116.0646762199712
 30
0.0
 10
163.3949499951508
 20
116.0564714902752
 30
0.0
 10
163.4034864222522
 20
116.0482131522389
 30
0.0
 10
163.4135564133391
 20
116.0413100487281
 30
0.0
 10
163.4243312500452
 20
116.0363125406682
 30
0.0
 10
163.4351935836466
 20
116.0312744504212
 30
0.0
 10
163.4470691313859
 20
116.0280347332566
 30
0.0
 10
163.4589843590934
 20
116.0268506916122
 30
0.0
 10
163.4709734978301
 20
116.0256593052709
 30
0.0
 10
163.4833328842626
 20
116.0265167043901
 30
0.0
 10
163.4950421212561
 20
116.0293543078202
 30
0.0
 10
163.5067713299128
 20
116.0321967511609
 30
0.0
 10
163.5181731845965
 20
116.0371060433927
 30
0.0
 10
163.5282919181956
 20
116.0436834871363
 30
0.0
 10
163.5383750359279
 20
116.0502377796271
 30
0.0
 10
163.5474643311096
 20
116.0586324098324
 30
0.0
 10
163.5547847356578
 20
116.06817386437
 30
0.0
 10
163.5620515145611
 20
116.0776454229545
 30
0.0
 10
163.5677769650167
 20
116.0885119280351
 30
0.0
 10
163.5714672626168
 20
116.0998653546459
 30
0.0
 10
163.5751281068127
 20
116.1111281660543
 30
0.0
 10
163.5768874913354
 20
116.1231829505271
 30
0.0
 10
163.5765936381537
 20
116.1350221881411
 30
0.0
 10
163.5763012626569
 20
116.1468018903678
 30
0.0
 10
163.5739688742858
 20
116.1586928442865
 30
0.0
 10
163.5697954486392
 20
116.1697122762318
 30
0.0
 10
163.5656210039268
 20
116.1807343988986
 30
0.0
 10
163.5594916177257
 20
116.1911866907412
 30
0.0
 10
163.5519212742414
 20
116.2002200305474
 30
0.0
 10
163.5443103344132
 20
116.2093018120882
 30
0.0
 10
163.5350363796251
 20
116.2171979476882
 30
0.0
 10
163.5248651756121
 20
116.223276799097
 30
0.0
 10
163.5146125158603
 20
116.229404332779
 30
0.0
 10
163.5031685409391
 20
116.2338534077327
 30
0.0
 10
163.4914714154743
 20
116.2362706728963
 30
0.0
 10
163.4796907033897
 20
116.238705211622
 30
0.0
 10
163.4673296240625
 20
116.2391456165179
 30
0.0
 10
163.4554053602746
 20
116.2375567766616
 30
0.0
 10
163.4434419178191
 20
116.2359627164722
 30
0.0
 10
163.4315872461556
 20
116.2322810729189
 30
0.0
 10
163.4208298227461
 20
116.2268092647202
 30
0.0
 10
163.410093288196
 20
116.2213480817269
 30
0.0
 10
163.4001514517743
 20
116.2139503908327
 30
0.0
 10
163.3918477839844
 20
116.2052242485777
 30
0.0
 10
163.386617206397
 20
116.1997275493771
 30
0.0
 10
163.3819511056207
 20
116.1936337453512
 30
0.0
 10
163.3780122092964
 20
116.1871485278452
 30
0.0
  0
LINE
  5
C7
330
1F
100
AcDbEntity
  8
0
  6
Continuous
 62
     7
370
    15
100
AcDbLine
 10
206.5905574297
 20
105.0563641186
 30
0.0
 11
206.5845505062
 21
105.0161616107
 31
0.0
  0
ARC
  5
C8
330
1F
100
AcDbEntity
  8
0
  6
Continuous
 62
     7
370
    15
100
AcDbCircle
 10
184.1156822773
 20
105.5834753248
 30
0.0
 40
22.48105556557113
100
AcDbArc
 50
358.6564680972
 51
4.7462172745
  0
LWPOLYLINE
  5
C9
330
1F
100
AcDbEntity
  8
0
  6
Continuous
 62
     7
370
    15
100
AcDbPolyline
 90
        6
 70
   128
 43
0.0
 10
206.5316677061
 20
126.3477788693
 10
206.5373546896
 20
126.7315465396
 10
206.5373546896
 20
127.0310259935
 10
206.5316677061
 20
127.2100955889
 10
206.5209796731
 20
127.2471568899
 10
206.5196495706
 20
127.2426019838
  0
LWPOLYLINE
  5
CA
330
1F
100
AcDbEntity
  8
0
  6
Continuous
 62
     7
370
    15
100
AcDbPolyline
 90
        3
 70
   128
 43
0.0
 10
206.5196495706
 20
125.8826900382
 10
206.5209796731
 20
125.9260110273
 10
206.5316677061
 20
126.3477788693
  0
CIRCLE
  5
CB
330
1F
100
AcDbEntity
  8
0
  6
HIDDEN
 62
     7
370
     0
100
AcDbCircle
 10
183.0196495706
 20
116.1324118078
 30
0.0
 40
7.000000000000009
  0
CIRCLE
  5
CC
330
1F
100
AcDbEntity
  8
0
  6
HIDDEN
 62
     7
370
     0
100
AcDbCircle
 10
183.0196495706
 20
116.1324118078
 30
0.0
 40
5.000000000000006
  0
CIRCLE
  5
CD
330
1F
100
AcDbEntity
  8
0
  6
HIDDEN
 62
     7
370
     0
100
AcDbCircle
 10
183.0196495706
 20
116.1324118078
 30
0.0
 40
3.750000000000008
  0
LINE
  5
CE
330
1F
100
AcDbEntity
  8
0
  6
HIDDEN
 62
     7
370
     0
100
AcDbLine
 10
141.1277167391
 20
140.5911014701
 30
0.0
 11
141.1277167391
 21
135.9824118078
 31
0.0
  0
ARC
  5
CF
330
1F
100
AcDbEntity
  8
0
  6
HIDDEN
 62
     7
370
     0
100
AcDbCircle
 10
134.8054678502
 20
128.6214617739
 30
0.0
 40
3.670281203198797
100
AcDbArc
 50
265.5336451734
 51
13.4990676234
  0
ARC
  5
D0
330
1F
100
AcDbEntity
  8
0
  6
HIDDEN
 62
     7
370
     0
100
AcDbCircle
 10
134.2347095539
 20
128.623641132
 30
0.0
 40
3.672385698370112
100
AcDbArc
 50
166.9516062505
 51
274.4500461145
  0
LINE
  5
D1
330
1F
100
AcDbEntity
  8
0
  6
HIDDEN
 62
     7
370
     0
100
AcDbLine
 10
114.5147997752
 20
92.6078121849
 30
0.0
 11
114.2659349564
 21
92.5845492184
 31
0.0
  0
LINE
  5
D2
330
1F
100
AcDbEntity
  8
0
  6
HIDDEN
 62
     7
370
     0
100
AcDbLine
 10
114.1333741952
 20
139.692498136
 30
0.0
 11
114.5147070549
 21
139.6569948377
 31
0.0
  0
SPLINE
  5
D3
330
1F
100
AcDbEntity
  8
0
  6
HIDDEN
 62
     7
370
     0
100
AcDbSpline
210
0.0
220
0.0
230
1.0
 70
     8
 71
     3
 72
    10
 73
     6
 74
     0
 42
0.00000001
 43
0.00000001
 40
0.0
 40
0.0
 40
0.0
 40
0.0
 40
0.6689726467435606
 40
0.9072414662417629
 40
0.9999999999999999
 40
0.9999999999999999
 40
0.9999999999999999
 40
0.9999999999999999
 10
183.0196495705879
 20
110.1324118077602
 30
0.0
 10
183.3953395170025
 20
110.152818074748
 30
0.0
 10
183.9048394188245
 20
110.1804924672253
 30
0.0
 10
184.4528097745637
 20
110.3008193789195
 30
0.0
 10
184.629643679567
 20
110.3548153786329
 30
0.0
 10
184.6791950341166
 20
110.3699458194045
 30
0.0
  0
ARC
  5
D4
330
1F
100
AcDbEntity
  8
0
  6
HIDDEN
 62
     7
370
     0
100
AcDbCircle
 10
183.0098247436
 20
116.1315328361
 30
0.0
 40
5.999129073456934
100
AcDbArc
 50
291.0721331402
 51
270.0938338487
  0
SPLINE
  5
D5
330
1F
100
AcDbEntity
  8
0
  6
HIDDEN
 62
     7
370
     0
100
AcDbSpline
210
0.0
220
0.0
230
1.0
 70
     8
 71
     3
 72
    13
 73
     9
 74
     0
 42
0.00000001
 43
0.00000001
 40
0.0
 40
0.0
 40
0.0
 40
0.0
 40
0.1709847769597231
 40
0.3419531002487985
 40
0.5131971390670694
 40
0.6843841293656499
 40
0.8508982386832774
 40
1.0
 40
1.0
 40
1.0
 40
1.0
 10
183.0196495705879
 20
109.7946853888887
 30
0.0
 10
182.6120340836209
 20
109.8137548817422
 30
0.0
 10
181.7968423340616
 20
109.8518920324135
 30
0.0
 10
180.6065100057097
 20
110.1533982612319
 30
0.0
 10
179.4831407950958
 20
110.634516389226
 30
0.0
 10
178.4736001007561
 20
111.2980747238069
 30
0.0
 10
177.622929456221
 20
112.08580326031
 30
0.0
 10
177.2067181264973
 20
112.7079028598303
 30
0.0
 10
177.0100935327561
 20
113.0017922191216
 30
0.0
  0
SPLINE
  5
D6
330
1F
100
AcDbEntity
  8
0
  6
HIDDEN
 62
     7
370
     0
100
AcDbSpline
210
0.0
220
0.0
230
1.0
 70
     8
 71
     3
 72
    20
 73
    16
 74
     0
 42
0.00000001
 43
0.00000001
 40
0.0
 40
0.0
 40
0.0
 40
0.0
 40
0.049066263615532
 40
0.1181899529468328
 40
0.1923089907070177
 40
0.2664488334954743
 40
0.3465851762335636
 40
0.4267339385113184
 40
0.5114542055435801
 40
0.5961733327436559
 40
0.6824875867789175
 40
0.7687812916740729
 40
0.8531290260635136
 40
0.9374360198022845
 40
1.0
 40
1.0
 40
1.0
 40
1.0
 10
176.9834621271546
 20
119.207671545866
 30
0.0
 10
177.1056655196356
 20
119.4083793484191
 30
0.0
 10
177.4000269024472
 20
119.8918407736805
 30
0.0
 10
178.0284201748132
 20
120.5692095463025
 30
0.0
 10
178.8347379173806
 20
121.2263914297577
 30
0.0
 10
179.7835441995489
 20
121.7756249289062
 30
0.0
 10
180.8359824635206
 20
122.18129404052
 30
0.0
 10
181.9906742573071
 20
122.4325751724887
 30
0.0
 10
183.1949521034579
 20
122.4996575674251
 30
0.0
 10
184.4243618929147
 20
122.3749918297074
 30
0.0
 10
185.6210385292516
 20
122.0473849558156
 30
0.0
 10
186.7439668047633
 20
121.5287124692381
 30
0.0
 10
187.7398705233035
 20
120.8217335781038
 30
0.0
 10
188.5352620149585
 20
120.0423002346779
 30
0.0
 10
188.9068869810164
 20
119.4445708361585
 30
0.0
 10
189.0651914873069
 20
119.1899505442774
 30
0.0
  0
SPLINE
  5
D7
330
1F
100
AcDbEntity
  8
0
  6
HIDDEN
 62
     7
370
     0
100
AcDbSpline
210
0.0
220
0.0
230
1.0
 70
     8
 71
     3
 72
    13
 73
     9
 74
     0
 42
0.00000001
 43
0.00000001
 40
0.0
 40
0.0
 40
0.0
 40
0.0
 40
0.1152541395790874
 40
0.2603943417653927
 40
0.4055796949160868
 40
0.5626572150974376
 40
0.7197681350940467
 40
1.0
 40
1.0
 40
1.0
 40
1.0
 10
189.0295448638252
 20
113.0025896444587
 30
0.0
 10
188.8814355230289
 20
112.7731000027636
 30
0.0
 10
188.5468112358078
 20
112.2546127327234
 30
0.0
 10
187.8706586026493
 20
111.5673837697278
 30
0.0
 10
187.0309514928176
 20
110.9204714420017
 30
0.0
 10
186.0685826002127
 20
110.4067193826866
 30
0.0
 10
184.7349766709603
 20
109.91933144042
 30
0.0
 10
183.6895301361684
 20
109.8433629661769
 30
0.0
 10
183.0196495705853
 20
109.794685388894
 30
0.0
  0
SPLINE
  5
D8
330
1F
100
AcDbEntity
  8
0
  6
HIDDEN
 62
     7
370
     0
100
AcDbSpline
210
0.0
220
0.0
230
1.0
 70
     8
 71
     3
 72
    32
 73
    28
 74
     0
 42
0.00000001
 43
0.00000001
 40
0.0
 40
0.0
 40
0.0
 40
0.0
 40
0.0346246159901393
 40
0.0694870388940023
 40
0.105100760954932
 40
0.1409753874086758
 40
0.1756005721189328
 40
0.210469240812561
 40
0.2461122854708169
 40
0.2820258067991321
 40
0.3162663828049037
 40
0.3859338563640312
 40
0.4214461814158482
 40
0.4553763558770598
 40
0.5243713305904967
 40
0.5595124638219118
 40
0.593798734303577
 40
0.6635059787021123
 40
0.6990055363805018
 40
0.7337623601246063
 40
0.7687606633024604
 40
0.8045245907686109
 40
0.8405553812432468
 40
0.875170121130555
 40
0.9456085132854553
 40
0.9815233266320907
 40
1.0
 40
1.0
 40
1.0
 40
1.0
 10
120.2746515721894
 20
96.29488333194375
 30
0.0
 10
120.202653270343
 20
96.30467127485207
 30
0.0
 10
120.0581621718099
 20
96.32431438568851
 30
0.0
 10
119.8168422375514
 20
96.35376360431022
 30
0.0
 10
119.5575439865657
 20
96.38231398640063
 30
0.0
 10
119.2835565674331
 20
96.40874520535547
 30
0.0
 10
118.9989287864116
 20
96.43219768270677
 30
0.0
 10
118.7043438274434
 20
96.4521951391654
 30
0.0
 10
118.3974129184751
 20
96.46835081766913
 30
0.0
 10
118.0856814527227
 20
96.47979280536461
 30
0.0
 10
117.6684159040373
 20
96.48848393306247
 30
0.0
 10
117.2477729106797
 20
96.48719587660227
 30
0.0
 10
116.8343693575142
 20
96.4759680652348
 30
0.0
 10
116.4295253944469
 20
96.45866979315393
 30
0.0
 10
116.0388873098848
 20
96.43295414938571
 30
0.0
 10
115.6701062318435
 20
96.4008608384888
 30
0.0
 10
115.3166884495951
 20
96.36530262998636
 30
0.0
 10
114.9912473592742
 20
96.32605417365076
 30
0.0
 10
114.7018701535568
 20
96.28642265627842
 30
0.0
 10
114.5039562765815
 20
96.25728691313617
 30
0.0
 10
114.326629312544
 20
96.22955268082342
 30
0.0
 10
114.1700199840315
 20
96.20377213656904
 30
0.0
 10
114.0383724643288
 20
96.18116549983485
 30
0.0
 10
113.8965112687571
 20
96.1559794545282
 30
0.0
 10
113.8076926809415
 20
96.13953390540459
 30
0.0
 10
113.7708697423911
 20
96.1326410745884
 30
0.0
 10
113.7722858895642
 20
96.13290606049762
 30
0.0
 10
113.7727669517734
 20
96.13299607565231
 30
0.0
  0
SPLINE
  5
D9
330
1F
100
AcDbEntity
  8
0
  6
HIDDEN
 62
     7
370
     0
100
AcDbSpline
210
0.0
220
0.0
230
1.0
 70
     8
 71
     3
 72
    22
 73
    18
 74
     0
 42
0.00000001
 43
0.00000001
 40
0.0
 40
0.0
 40
0.0
 40
0.0
 40
0.0499040281125884
 40
0.1203075863893544
 40
0.1885125365560131
 40
0.258644416829719
 40
0.3277839407293157
 40
0.3988873214655099
 40
0.4686969488930336
 40
0.5405663748364754
 40
0.609708789122301
 40
0.6809159691092499
 40
0.7490773369981711
 40
0.8192056085539694
 40
0.8876078379088254
 40
0.9579332867310426
 40
1.0
 40
1.0
 40
1.0
 40
1.0
 10
113.7796217122492
 20
136.1305469996786
 30
0.0
 10
113.7808726462747
 20
136.1303079692828
 30
0.0
 10
113.783888371839
 20
136.1297317198081
 30
0.0
 10
113.9087816988925
 20
136.1065336849846
 30
0.0
 10
114.1332635267701
 20
136.066853648667
 30
0.0
 10
114.4522916889476
 20
136.0146422272678
 30
0.0
 10
114.8598269199443
 20
135.9553124155956
 30
0.0
 10
115.3416134737772
 20
135.8958376390796
 30
0.0
 10
115.8920331555725
 20
135.8422312827176
 30
0.0
 10
116.4849280415207
 20
135.8017573642432
 30
0.0
 10
117.1118806118379
 20
135.7785581158769
 30
0.0
 10
117.740091585666
 20
135.775580012662
 30
0.0
 10
118.364351678143
 20
135.7927143383613
 30
0.0
 10
118.9569699679713
 20
135.8274001940513
 30
0.0
 10
119.5137960514994
 20
135.8763565577152
 30
0.0
 10
119.9516028961323
 20
135.9262567223383
 30
0.0
 10
120.1866696029052
 20
135.9580431113301
 30
0.0
 10
120.2746515721894
 20
135.9699402835767
 30
0.0
  0
SPLINE
  5
DA
330
1F
100
AcDbEntity
  8
0
  6
HIDDEN
 62
     7
370
     0
100
AcDbSpline
210
0.0
220
0.0
230
1.0
 70
     8
 71
     3
 72
    12
 73
     8
 74
     0
 42
0.00000001
 43
0.00000001
 40
0.0
 40
0.0
 40
0.0
 40
0.0
 40
0.2208188216103116
 40
0.4480900742980286
 40
0.6689432733876343
 40
0.8961371317007352
 40
1.0
 40
1.0
 40
1.0
 40
1.0
 10
120.2746515721894
 20
135.9699402835767
 30
0.0
 10
120.406694787682
 20
135.9869973714286
 30
0.0
 10
120.6746395842765
 20
136.0216099633587
 30
0.0
 10
120.9697955631118
 20
136.0485819005837
 30
0.0
 10
121.1708882850087
 20
136.0640916589938
 30
0.0
 10
121.2682201873829
 20
136.0702009125206
 30
0.0
 10
121.2595615179824
 20
136.0696556552788
 30
0.0
 10
121.2568450220852
 20
136.0694845909972
 30
0.0
  0
SPLINE
  5
DB
330
1F
100
AcDbEntity
  8
0
  6
HIDDEN
 62
     7
370
     0
100
AcDbSpline
210
0.0
220
0.0
230
1.0
 70
     8
 71
     3
 72
    17
 73
    13
 74
     0
 42
0.00000001
 43
0.00000001
 40
0.0
 40
0.0
 40
0.0
 40
0.0
 40
0.0069672687624688
 40
0.1183102921851768
 40
0.2320673444143036
 40
0.346659121075588
 40
0.457378105729912
 40
0.5688695494113597
 40
0.6828050884664152
 40
0.7975902534114447
 40
0.8984975015554767
 40
1.0
 40
1.0
 40
1.0
 40
1.0
 10
121.2688956004517
 20
96.19457689187767
 30
0.0
 10
121.2691452377386
 20
96.19456112700387
 30
0.0
 10
121.2733842963079
 20
96.19429342571514
 30
0.0
 10
121.2574629602351
 20
96.1952903863624
 30
0.0
 10
121.2184493354699
 20
96.19780679662877
 30
0.0
 10
121.1499965995635
 20
96.20250444412648
 30
0.0
 10
121.0572447847133
 20
96.20945430100636
 30
0.0
 10
120.9399531718803
 20
96.21918378818589
 30
0.0
 10
120.7971165410688
 20
96.23243079439492
 30
0.0
 10
120.6355671476341
 20
96.24941788309116
 30
0.0
 10
120.4617638075041
 20
96.26971052350035
 30
0.0
 10
120.3371444782318
 20
96.28647596109367
 30
0.0
 10
120.2746515721894
 20
96.29488333194375
 30
0.0
  0
LINE
  5
DC
330
1F
100
AcDbEntity
  8
0
  6
HIDDEN
 62
     7
370
     0
100
AcDbLine
 10
107.5236241668
 20
99.1324118078
 30
0.0
 11
107.5236241668
 21
133.1324118078
 31
0.0
  0
LWPOLYLINE
  5
DD
330
1F
100
AcDbEntity
  8
0
  6
HIDDEN
 62
     7
370
     0
100
AcDbPolyline
 90
       15
 70
   128
 43
0.0
 10
134.5196495706
 20
138.0780142224
 10
135.276654548
 20
138.1141568279
 10
136.0062993932
 20
138.2212783564
 10
136.6822128404
 20
138.3955071567
 10
137.2799656165
 20
138.6305461462
 10
137.7779533788
 20
138.9179004033
 10
138.158177552
 20
139.2471841964
 10
138.4068958439
 20
139.6064963514
 10
138.5151189273
 20
139.9828503908
 10
138.4789353381
 20
140.3626438989
 10
138.2996528454
 20
140.732150149
 10
137.9837511857
 20
141.0780142224
 10
137.542647868
 20
141.3877356903
 10
136.9922855155
 20
141.6501204119
 10
136.8890051823
 20
141.6893920478
  0
LWPOLYLINE
  5
DE
330
1F
100
AcDbEntity
  8
0
  6
HIDDEN
 62
     7
370
     0
100
AcDbPolyline
 90
       15
 70
   128
 43
0.0
 10
132.1275647657
 20
141.680974787
 10
132.0470136257
 20
141.6501204119
 10
131.4966512732
 20
141.3877356903
 10
131.0555479555
 20
141.0780142224
 10
130.7396462957
 20
140.732150149
 10
130.5603638031
 20
140.3626438989
 10
130.5241802139
 20
139.9828503908
 10
130.6324032973
 20
139.6064963514
 10
130.8811215892
 20
139.2471841964
 10
131.2613457624
 20
138.9179004033
 10
131.7593335247
 20
138.6305461462
 10
132.3570863008
 20
138.3955071567
 10
133.0329997479
 20
138.2212783564
 10
133.7626445931
 20
138.1141568279
 10
134.5196495706
 20
138.0780142224
  0
SPLINE
  5
DF
330
1F
100
AcDbEntity
  8
0
  6
HIDDEN
 62
     7
370
     0
100
AcDbSpline
210
0.0
220
0.0
230
1.0
 70
     8
 71
     3
 72
    11
 73
     7
 74
     0
 42
0.00000001
 43
0.00000001
 40
0.0
 40
0.0
 40
0.0
 40
0.0
 40
0.0005779865010845
 40
0.0005779865010845
 40
0.0005779865010845
 40
0.0011559733324421
 40
0.0011559733324421
 40
0.0011559733324421
 40
0.0011559733324421
 10
94.61964957058785
 20
118.132252415914
 30
0.0
 10
94.78631682539381
 20
118.130268776573
 30
0.0
 10
94.95298325507149
 20
118.1282311695705
 30
0.0
 10
95.1196495935233
 20
118.126119706164
 30
0.0
 10
95.2863160223497
 20
118.1240082416127
 30
0.0
 10
95.4529823959874
 20
118.1218226784564
 30
0.0
 10
95.61964957058784
 20
118.1195401011247
 30
0.0
  0
SPLINE
  5
E0
330
1F
100
AcDbEntity
  8
0
  6
HIDDEN
 62
     7
370
     0
100
AcDbSpline
210
0.0
220
0.0
230
1.0
 70
     8
 71
     3
 72
     8
 73
     4
 74
     0
 42
0.00000001
 43
0.00000001
 40
0.0
 40
0.0
 40
0.0
 40
0.0
 40
0.0011564765856722
 40
0.0011564765856722
 40
0.0011564765856722
 40
0.0011564765856722
 10
95.61964957058782
 20
114.1357115055439
 30
0.0
 10
95.28634164001899
 20
114.1348363499607
 30
0.0
 10
94.9530064076268
 20
114.1337814987092
 30
0.0
 10
94.61964957058784
 20
114.1326104116716
 30
0.0
  0
LINE
  5
E1
330
1F
100
AcDbEntity
  8
0
  6
HIDDEN
 62
     7
370
     0
100
AcDbLine
 10
134.1794755391
 20
99.1324118078
 30
0.0
 11
134.1794755391
 21
133.1324118078
 31
0.0
  0
LINE
  5
E2
330
1F
100
AcDbEntity
  8
0
  6
HIDDEN
 62
     7
370
     0
100
AcDbLine
 10
136.4696495706
 20
100.4074118078
 30
0.0
 11
136.4696495706
 21
131.8574118063
 31
0.0
  0
SPLINE
  5
E3
330
1F
100
AcDbEntity
  8
0
  6
HIDDEN
 62
     7
370
     0
100
AcDbSpline
210
0.0
220
0.0
230
1.0
 70
     8
 71
     3
 72
    16
 73
    12
 74
     0
 42
0.00000001
 43
0.00000001
 40
0.0
 40
0.0
 40
0.0
 40
0.0
 40
0.124999999999998
 40
0.124999999999998
 40
0.249999999999996
 40
0.249999999999996
 40
0.4999999999999973
 40
0.4999999999999973
 40
0.7499999999999987
 40
0.7499999999999987
 40
1.0
 40
1.0
 40
1.0
 40
1.0
 10
103.3196495705878
 20
100.3309213717286
 30
0.0
 10
103.4147713252537
 20
100.3309213717286
 30
0.0
 10
103.5081013939817
 20
100.3271055383358
 30
0.0
 10
103.6913631547198
 20
100.3123349856059
 30
0.0
 10
103.7822408702768
 20
100.3011769376304
 30
0.0
 10
104.0390425677965
 20
100.2587056674886
 30
0.0
 10
104.1941099326685
 20
100.2176594702858
 30
0.0
 10
104.4478563942231
 20
100.122513353704
 30
0.0
 10
104.548726845891
 20
100.0677506196224
 30
0.0
 10
104.6839732605858
 20
99.9564894957185
 30
0.0
 10
104.7196495705878
 20
99.89931975838981
 30
0.0
 10
104.7196495705878
 20
99.84489818535607
 30
0.0
  0
SPLINE
  5
E4
330
1F
100
AcDbEntity
  8
0
  6
HIDDEN
 62
     7
370
     0
100
AcDbSpline
210
0.0
220
0.0
230
1.0
 70
     8
 71
     3
 72
     8
 73
     4
 74
     0
 42
0.00000001
 43
0.00000001
 40
0.0
 40
0.0
 40
0.0
 40
0.0
 40
1.0
 40
1.0
 40
1.0
 40
1.0
 10
95.91964957390303
 20
102.4757243178108
 30
0.0
 10
95.91964957390496
 20
101.5918271754939
 30
0.0
 10
95.90616894799517
 20
100.8772439304319
 30
0.0
 10
95.90481757980587
 20
100.3309213717286
 30
0.0
  0
SPLINE
  5
E5
330
1F
100
AcDbEntity
  8
0
  6
HIDDEN
 62
     7
370
     0
100
AcDbSpline
210
0.0
220
0.0
230
1.0
 70
     8
 71
     3
 72
    10
 73
     6
 74
     0
 42
0.00000001
 43
0.00000001
 40
0.0
 40
0.0
 40
0.0
 40
0.0
 40
0.5
 40
0.5
 40
1.0
 40
1.0
 40
1.0
 40
1.0
 10
95.61964957058782
 20
103.500634583514
 30
0.0
 10
95.71104068628074
 20
103.3259957958966
 30
0.0
 10
95.7836925200138
 20
103.152393968641
 30
0.0
 10
95.89119141302196
 20
102.8087805496343
 30
0.0
 10
95.91964957389742
 20
102.6404547231028
 30
0.0
 10
95.91964957390303
 20
102.4757243178703
 30
0.0
  0
LINE
  5
E6
330
1F
100
AcDbEntity
  8
0
  6
HIDDEN
 62
     7
370
     0
100
AcDbLine
 10
95.6196495706
 20
106.5315850154
 30
0.0
 11
95.6196495706
 21
103.5006345835
 31
0.0
  0
SPLINE
  5
E7
330
1F
100
AcDbEntity
  8
0
  6
HIDDEN
 62
     7
370
     0
100
AcDbSpline
210
0.0
220
0.0
230
1.0
 70
     8
 71
     3
 72
    10
 73
     6
 74
     0
 42
0.00000001
 43
0.00000001
 40
0.0
 40
0.0
 40
0.0
 40
0.0
 40
0.5
 40
0.5
 40
1.0
 40
1.0
 40
1.0
 40
1.0
 10
95.91964957377554
 20
107.8994254321174
 30
0.0
 10
95.91964957377553
 20
107.6574414645106
 30
0.0
 10
95.89149954470496
 20
107.4230990355456
 30
0.0
 10
95.78790963056255
 20
106.9677240132679
 30
0.0
 10
95.71128092097105
 20
106.7461194501605
 30
0.0
 10
95.61964957058784
 20
106.5315850153626
 30
0.0
  0
LINE
  5
E8
330
1F
100
AcDbEntity
  8
0
  6
HIDDEN
 62
     7
370
     0
100
AcDbLine
 10
95.9196495738
 20
119.7370454293
 30
0.0
 11
95.9196495738
 21
107.8994254321
 31
0.0
  0
SPLINE
  5
E9
330
1F
100
AcDbEntity
  8
0
  6
HIDDEN
 62
     7
370
     0
100
AcDbSpline
210
0.0
220
0.0
230
1.0
 70
     8
 71
     3
 72
     8
 73
     4
 74
     0
 42
0.00000001
 43
0.00000001
 40
0.0
 40
0.0
 40
0.0
 40
0.0
 40
1.0
 40
1.0
 40
1.0
 40
1.0
 10
95.61964957058782
 20
125.7393511288286
 30
0.0
 10
95.80068103714675
 20
125.3072436431659
 30
0.0
 10
95.91964957378127
 20
124.8530982370662
 30
0.0
 10
95.91964957377556
 20
124.3653981833721
 30
0.0
  0
LINE
  5
EA
330
1F
100
AcDbEntity
  8
0
  6
HIDDEN
 62
     7
370
     0
100
AcDbLine
 10
95.6196495706
 20
128.7725541148
 30
0.0
 11
95.6196495706
 21
125.7393511288
 31
0.0
  0
SPLINE
  5
EB
330
1F
100
AcDbEntity
  8
0
  6
HIDDEN
 62
     7
370
     0
100
AcDbSpline
210
0.0
220
0.0
230
1.0
 70
     8
 71
     3
 72
    10
 73
     6
 74
     0
 42
0.00000001
 43
0.00000001
 40
0.0
 40
0.0
 40
0.0
 40
0.0
 40
0.5
 40
0.5
 40
1.0
 40
1.0
 40
1.0
 40
1.0
 10
95.91964957398105
 20
129.78909929768
 30
0.0
 10
95.91964957397926
 20
129.624462951074
 30
0.0
 10
95.89249090322376
 20
129.4573077272435
 30
0.0
 10
95.78672590790534
 20
129.1186847194419
 30
0.0
 10
95.7103111196082
 20
128.9464129421509
 30
0.0
 10
95.61964957058785
 20
128.7725541148069
 30
0.0
  0
SPLINE
  5
EC
330
1F
100
AcDbEntity
  8
0
  6
HIDDEN
 62
     7
370
     0
100
AcDbSpline
210
0.0
220
0.0
230
1.0
 70
     8
 71
     3
 72
    18
 73
    14
 74
     0
 42
0.00000001
 43
0.00000001
 40
0.0
 40
0.0
 40
0.0
 40
0.0
 40
0.2500000000000033
 40
0.2500000000000033
 40
0.3750000000000029
 40
0.3750000000000029
 40
0.5000000000000026
 40
0.5000000000000026
 40
0.6250000000000022
 40
0.6250000000000022
 40
0.7500000000000018
 40
0.7500000000000018
 40
1.0
 40
1.0
 40
1.0
 40
1.0
 10
100.7196495705878
 20
132.4199254301643
 30
0.0
 10
100.7196495705878
 20
132.3654509096122
 30
0.0
 10
100.6847388791957
 20
132.3090698502596
 30
0.0
 10
100.5827295778626
 20
132.2249930094061
 30
0.0
 10
100.5410932231845
 20
132.1976593054153
 30
0.0
 10
100.4426874276958
 20
132.1447053898163
 30
0.0
 10
100.3851442159915
 20
132.1188180360991
 30
0.0
 10
100.2578460424185
 20
132.0710404912658
 30
0.0
 10
100.1882587376611
 20
132.0490925730879
 30
0.0
 10
100.0368244925061
 20
132.0096600081752
 30
0.0
 10
99.95414058941215
 20
131.9921037589494
 30
0.0
 10
99.6980291273741
 20
131.9496649935289
 30
0.0
 10
99.51011412348612
 20
131.9339022437919
 30
0.0
 10
99.31964957058784
 20
131.9339022437919
 30
0.0
  0
LINE
  5
ED
330
1F
100
AcDbEntity
  8
0
  6
HIDDEN
 62
     7
370
     0
100
AcDbLine
 10
99.3196495706
 20
131.9339022438
 30
0.0
 11
95.919649574
 21
131.9339022438
 31
0.0
  0
LINE
  5
EE
330
1F
100
AcDbEntity
  8
0
  6
HIDDEN
 62
     7
370
     0
100
AcDbLine
 10
95.8506805839
 20
100.3309213717
 30
0.0
 11
103.3196495706
 21
100.3309213717
 31
0.0
  0
SPLINE
  5
EF
330
1F
100
AcDbEntity
  8
0
  6
HIDDEN
 62
     7
370
     0
100
AcDbSpline
210
0.0
220
0.0
230
1.0
 70
     8
 71
     3
 72
    22
 73
    18
 74
     0
 42
0.00000001
 43
0.00000001
 40
0.0
 40
0.0
 40
0.0
 40
0.0
 40
0.1249999999999998
 40
0.1249999999999998
 40
0.2499999999999995
 40
0.2499999999999995
 40
0.4999999999999992
 40
0.4999999999999992
 40
0.5624999999999993
 40
0.5624999999999993
 40
0.6249999999999994
 40
0.6249999999999994
 40
0.7499999999999996
 40
0.7499999999999996
 40
0.8749999999999998
 40
0.8749999999999998
 40
1.0
 40
1.0
 40
1.0
 40
1.0
 10
95.85068058394576
 20
100.3309213717286
 30
0.0
 10
95.8375981912174
 20
100.5860270818762
 30
0.0
 10
95.82437862777756
 20
100.8791853409801
 30
0.0
 10
95.80193144998344
 20
101.5414858066049
 30
0.0
 10
95.79245298295898
 20
101.9117597272163
 30
0.0
 10
95.77325502202241
 20
103.1343165303301
 30
0.0
 10
95.77436879501931
 20
104.071455456462
 30
0.0
 10
95.79327958797239
 20
105.391326685977
 30
0.0
 10
95.79790911583139
 20
105.6628285949533
 30
0.0
 10
95.80839033557736
 20
106.2212134297556
 30
0.0
 10
95.81418559686176
 20
106.5083362856952
 30
0.0
 10
95.8324948177667
 20
107.3809255400669
 30
0.0
 10
95.84652975204706
 20
107.9813812164227
 30
0.0
 10
95.87598692418388
 20
109.2188557089188
 30
0.0
 10
95.89154261516546
 20
109.8558718655622
 30
0.0
 10
95.91533716516234
 20
111.1673604632468
 30
0.0
 10
95.92335621730771
 20
111.8434830749073
 30
0.0
 10
95.91964957058784
 20
112.5277781861921
 30
0.0
  0
LINE
  5
F0
330
1F
100
AcDbEntity
  8
0
  6
HIDDEN
 62
     7
370
     0
100
AcDbLine
 10
95.919649574
 20
119.7370454293
 30
0.0
 11
95.919649574
 21
131.9339022438
 31
0.0
  0
SPLINE
  5
F1
330
1F
100
AcDbEntity
  8
0
  6
HIDDEN
 62
     7
370
     0
100
AcDbSpline
210
0.0
220
0.0
230
1.0
 70
     8
 71
     3
 72
    10
 73
     6
 74
     0
 42
0.00000001
 43
0.00000001
 40
0.0
 40
0.0
 40
0.0
 40
0.0
 40
0.5
 40
0.5
 40
1.0
 40
1.0
 40
1.0
 40
1.0
 10
95.91964957058784
 20
112.527778186177
 30
0.0
 10
95.91964957058765
 20
112.8016933342514
 30
0.0
 10
95.89389034071995
 20
113.0726349129815
 30
0.0
 10
95.79068440798683
 20
113.6083259945843
 30
0.0
 10
95.71334624411159
 20
113.8740727981064
 30
0.0
 10
95.61964957058782
 20
114.1357115055439
 30
0.0
  0
SPLINE
  5
F2
330
1F
100
AcDbEntity
  8
0
  6
HIDDEN
 62
     7
370
     0
100
AcDbSpline
210
0.0
220
0.0
230
1.0
 70
     8
 71
     3
 72
    10
 73
     6
 74
     0
 42
0.00000001
 43
0.00000001
 40
0.0
 40
0.0
 40
0.0
 40
0.0
 40
0.5
 40
0.5
 40
1.0
 40
1.0
 40
1.0
 40
1.0
 10
95.61964957058782
 20
118.1195401011247
 30
0.0
 10
95.71288015197885
 20
118.3834339091948
 30
0.0
 10
95.7879097642156
 20
118.6496142198331
 30
0.0
 10
95.89297686339374
 20
119.1879367947913
 30
0.0
 10
95.91964957397992
 20
119.4606849110369
 30
0.0
 10
95.9196495739811
 20
119.7370454293273
 30
0.0
  0
LINE
  5
F3
330
1F
100
AcDbEntity
  8
0
  6
HIDDEN
 62
     7
370
     0
100
AcDbLine
 10
95.6196495706
 20
114.1357115055
 30
0.0
 11
95.6196495706
 21
118.1195401011
 31
0.0
  0
SPLINE
  5
F4
330
1F
100
AcDbEntity
  8
0
  6
HIDDEN
 62
     7
370
     0
100
AcDbSpline
210
0.0
220
0.0
230
1.0
 70
     8
 71
     3
 72
    14
 73
    10
 74
     0
 42
0.00000001
 43
0.00000001
 40
0.0
 40
0.0
 40
0.0
 40
0.0
 40
0.25
 40
0.25
 40
0.5
 40
0.5
 40
0.75
 40
0.75
 40
1.0
 40
1.0
 40
1.0
 40
1.0
 10
158.5358695020632
 20
104.4738075880143
 30
0.0
 10
158.5042227727809
 20
104.4374395349878
 30
0.0
 10
158.4740254442044
 20
104.4016861814514
 30
0.0
 10
158.4259518393796
 20
104.3197190745201
 30
0.0
 10
158.4084663710481
 20
104.2710401096978
 30
0.0
 10
158.4181762074075
 20
104.1380792321367
 30
0.0
 10
158.4435009816452
 20
104.0594716135438
 30
0.0
 10
158.5031959983446
 20
103.9066244328663
 30
0.0
 10
158.53805892676
 20
103.8307908193632
 30
0.0
 10
158.5744689890392
 20
103.7562099736389
 30
0.0
  0
SPLINE
  5
F5
330
1F
100
AcDbEntity
  8
0
  6
HIDDEN
 62
     7
370
     0
100
AcDbSpline
210
0.0
220
0.0
230
1.0
 70
     8
 71
     3
 72
    14
 73
    10
 74
     0
 42
0.00000001
 43
0.00000001
 40
0.0
 40
0.0
 40
0.0
 40
0.0
 40
0.25
 40
0.25
 40
0.5
 40
0.5
 40
0.75
 40
0.75
 40
1.0
 40
1.0
 40
1.0
 40
1.0
 10
158.5744689890396
 20
103.7562099736385
 30
0.0
 10
158.6100422429907
 20
103.7892263350665
 30
0.0
 10
158.6409440740098
 20
103.8292771095933
 30
0.0
 10
158.68349819459
 20
103.9277397516999
 30
0.0
 10
158.6937248447496
 20
103.9845554023246
 30
0.0
 10
158.685390738253
 20
104.1124927671322
 30
0.0
 10
158.6667731014183
 20
104.1822258638721
 30
0.0
 10
158.6112677188654
 20
104.3257446305176
 30
0.0
 10
158.5751750695059
 20
104.3990702092352
 30
0.0
 10
158.5358695020636
 20
104.4738075880157
 30
0.0
  0
SPLINE
  5
F6
330
1F
100
AcDbEntity
  8
0
  6
HIDDEN
 62
     7
370
     0
100
AcDbSpline
210
0.0
220
0.0
230
1.0
 70
     8
 71
     3
 72
    10
 73
     6
 74
     0
 42
0.00000001
 43
0.00000001
 40
0.0
 40
0.0
 40
0.0
 40
0.0
 40
0.5
 40
0.5
 40
1.0
 40
1.0
 40
1.0
 40
1.0
 10
158.0196495705875
 20
105.1547087643623
 30
0.0
 10
158.0196495705875
 20
105.1779621809466
 30
0.0
 10
158.0207292174042
 20
105.1990575768234
 30
0.0
 10
158.0248824744016
 20
105.2371395993513
 30
0.0
 10
158.0279570400375
 20
105.254128718145
 30
0.0
 10
158.0319599212902
 20
105.2689942443216
 30
0.0
  0
SPLINE
  5
F7
330
1F
100
AcDbEntity
  8
0
  6
HIDDEN
 62
     7
370
     0
100
AcDbSpline
210
0.0
220
0.0
230
1.0
 70
     8
 71
     3
 72
    18
 73
    14
 74
     0
 42
0.00000001
 43
0.00000001
 40
0.0
 40
0.0
 40
0.0
 40
0.0
 40
0.0725468170436635
 40
0.1614465570821677
 40
0.2237901744065772
 40
0.2739496779913405
 40
0.3241523600612594
 40
0.3940486994924075
 40
0.5073064483300179
 40
0.6272500531558487
 40
0.771099884788164
 40
0.9051909783953889
 40
1.0
 40
1.0
 40
1.0
 40
1.0
 10
158.0481935127396
 20
105.2985020980039
 30
0.0
 10
158.0532992301718
 20
105.3101565132818
 30
0.0
 10
158.0646615550048
 20
105.3360923888735
 30
0.0
 10
158.0864854518885
 20
105.3341979418438
 30
0.0
 10
158.1014186034218
 20
105.3110873899251
 30
0.0
 10
158.1064220493062
 20
105.2690142700053
 30
0.0
 10
158.1021719788606
 20
105.2061776525338
 30
0.0
 10
158.0855485832935
 20
105.1054410144875
 30
0.0
 10
158.0579544951513
 20
104.9697813859645
 30
0.0
 10
158.0293960878336
 20
104.806796198063
 30
0.0
 10
158.0159347363166
 20
104.6558504300629
 30
0.0
 10
158.0238767099054
 20
104.5482442660094
 30
0.0
 10
158.0407111495852
 20
104.5201006974235
 30
0.0
 10
158.0476838710879
 20
104.508443804199
 30
0.0
  0
LWPOLYLINE
  5
F8
330
1F
100
AcDbEntity
  8
0
  6
HIDDEN
 62
     7
370
     0
100
AcDbPolyline
 90
        9
 70
   128
 43
0.0
 10
158.0550761874
 20
104.4921917353
 10
158.0854339209
 20
104.487778189
 10
158.0995166245
 20
104.5115739589
 10
158.1049232475
 20
104.5503494892
 10
158.101872963
 20
104.6075469058
 10
158.0896319276
 20
104.6864691219
 10
158.0638731498
 20
104.816287762
 10
158.0321481797
 20
104.9964142915
 10
158.0196495706
 20
105.1547087644
  0
SPLINE
  5
F9
330
1F
100
AcDbEntity
  8
0
  6
HIDDEN
 62
     7
370
     0
100
AcDbSpline
210
0.0
220
0.0
230
1.0
 70
     8
 71
     3
 72
     8
 73
     4
 74
     0
 42
0.00000001
 43
0.00000001
 40
0.0
 40
0.0
 40
0.0
 40
0.0
 40
1.0
 40
1.0
 40
1.0
 40
1.0
 10
160.7616836097983
 20
110.1950992580315
 30
0.0
 10
160.7204625701018
 20
110.2314102036603
 30
0.0
 10
160.6749079047688
 20
110.269852989207
 30
0.0
 10
160.6248755524681
 20
110.3126384400348
 30
0.0
  0
SPLINE
  5
FA
330
1F
100
AcDbEntity
  8
0
  6
HIDDEN
 62
     7
370
     0
100
AcDbSpline
210
0.0
220
0.0
230
1.0
 70
     8
 71
     3
 72
    34
 73
    30
 74
     0
 42
0.00000001
 43
0.00000001
 40
0.0
 40
0.0
 40
0.0
 40
0.0
 40
0.0625000000000008
 40
0.0625000000000008
 40
0.1250000000000015
 40
0.1250000000000015
 40
0.250000000000003
 40
0.250000000000003
 40
0.3125000000000024
 40
0.3125000000000024
 40
0.3750000000000017
 40
0.3750000000000017
 40
0.500000000000001
 40
0.500000000000001
 40
0.5625000000000009
 40
0.5625000000000009
 40
0.6250000000000008
 40
0.6250000000000008
 40
0.6875000000000007
 40
0.6875000000000007
 40
0.7500000000000004
 40
0.7500000000000004
 40
0.8125000000000003
 40
0.8125000000000003
 40
0.8750000000000002
 40
0.8750000000000002
 40
0.9375000000000001
 40
0.9375000000000001
 40
1.0
 40
1.0
 40
1.0
 40
1.0
 10
160.6248755524681
 20
110.3126384400348
 30
0.0
 10
160.5227156130082
 20
110.4000010937046
 30
0.0
 10
160.4066843179722
 20
110.4747322121096
 30
0.0
 10
160.1470947163032
 20
110.597172825107
 30
0.0
 10
160.0068200692562
 20
110.6428547257766
 30
0.0
 10
159.5686602047975
 20
110.7267154321374
 30
0.0
 10
159.2537908432339
 20
110.7076787057392
 30
0.0
 10
158.8363789654089
 20
110.5753158821477
 30
0.0
 10
158.703673103053
 20
110.5135522383759
 30
0.0
 10
158.4702289679382
 20
110.3658072880112
 30
0.0
 10
158.3660781338205
 20
110.2777493877539
 30
0.0
 10
158.1132898120229
 20
109.9926948064792
 30
0.0
 10
158.0197220789316
 20
109.769586603747
 30
0.0
 10
158.019613381519
 20
109.4500675490212
 30
0.0
 10
158.0419082320078
 20
109.3477943346721
 30
0.0
 10
158.131222001166
 20
109.1532460934123
 30
0.0
 10
158.1961344484756
 20
109.065169461909
 30
0.0
 10
158.3660834614091
 20
108.9053457384335
 30
0.0
 10
158.4683666509442
 20
108.836545874931
 30
0.0
 10
158.7029393589477
 20
108.7213490695224
 30
0.0
 10
158.8343495212882
 20
108.6756927548221
 30
0.0
 10
159.1129766327532
 20
108.6103973248061
 30
0.0
 10
159.2621522436459
 20
108.5904732229973
 30
0.0
 10
159.5603658218467
 20
108.5776859125267
 30
0.0
 10
159.7133729205231
 20
108.584720125783
 30
0.0
 10
160.0043999959221
 20
108.6248975268604
 30
0.0
 10
160.146725666007
 20
108.6586349137392
 30
0.0
 10
160.4044951965778
 20
108.7500265572904
 30
0.0
 10
160.5227139480023
 20
108.8083399234369
 30
0.0
 10
160.6248755524681
 20
108.8784309731899
 30
0.0
  0
SPLINE
  5
FB
330
1F
100
AcDbEntity
  8
0
  6
HIDDEN
 62
     7
370
     0
100
AcDbSpline
210
0.0
220
0.0
230
1.0
 70
     8
 71
     3
 72
     8
 73
     4
 74
     0
 42
0.00000001
 43
0.00000001
 40
0.0
 40
0.0
 40
0.0
 40
0.0
 40
1.0
 40
1.0
 40
1.0
 40
1.0
 10
160.6248755524681
 20
108.8784309731899
 30
0.0
 10
160.6749079047688
 20
108.9127571773711
 30
0.0
 10
160.7204625701018
 20
108.9559079425922
 30
0.0
 10
160.7616836097983
 20
109.0056864235267
 30
0.0
  0
SPLINE
  5
FC
330
1F
100
AcDbEntity
  8
0
  6
HIDDEN
 62
     7
370
     0
100
AcDbSpline
210
0.0
220
0.0
230
1.0
 70
     8
 71
     3
 72
    12
 73
     8
 74
     0
 42
0.00000001
 43
0.00000001
 40
0.0
 40
0.0
 40
0.0
 40
0.0
 40
0.2500000000000003
 40
0.2500000000000003
 40
0.5000000000000006
 40
0.5000000000000006
 40
1.0
 40
1.0
 40
1.0
 40
1.0
 10
160.7616836097983
 20
109.0056864235267
 30
0.0
 10
160.8453482569031
 20
109.106719756782
 30
0.0
 10
160.9092343395202
 20
109.2105289066896
 30
0.0
 10
160.9971860212722
 20
109.4254411382717
 30
0.0
 10
161.0195120797462
 20
109.533353226025
 30
0.0
 10
161.0199226562651
 20
109.8496759159714
 30
0.0
 10
160.9290208262633
 20
110.047694616774
 30
0.0
 10
160.7616836097983
 20
110.1950992580315
 30
0.0
  0
SPLINE
  5
FD
330
1F
100
AcDbEntity
  8
0
  6
HIDDEN
 62
     7
370
     0
100
AcDbSpline
210
0.0
220
0.0
230
1.0
 70
     8
 71
     3
 72
    14
 73
    10
 74
     0
 42
0.00000001
 43
0.00000001
 40
0.0
 40
0.0
 40
0.0
 40
0.0
 40
0.25
 40
0.25
 40
0.5
 40
0.5
 40
0.75
 40
0.75
 40
1.0
 40
1.0
 40
1.0
 40
1.0
 10
158.5744689890394
 20
105.4034098208128
 30
0.0
 10
158.5379999934056
 20
105.4362587973086
 30
0.0
 10
158.5030570612456
 20
105.467874641662
 30
0.0
 10
158.4433197199008
 20
105.5386717846318
 30
0.0
 10
158.4180305205778
 20
105.5786135866009
 30
0.0
 10
158.4085434213466
 20
105.6963619444184
 30
0.0
 10
158.4260384240995
 20
105.7726584973948
 30
0.0
 10
158.474232993357
 20
105.9239950003297
 30
0.0
 10
158.5042855433346
 20
106.0000649747596
 30
0.0
 10
158.535869502062
 20
106.0751674955762
 30
0.0
  0
SPLINE
  5
FE
330
1F
100
AcDbEntity
  8
0
  6
HIDDEN
 62
     7
370
     0
100
AcDbSpline
210
0.0
220
0.0
230
1.0
 70
     8
 71
     3
 72
    10
 73
     6
 74
     0
 42
0.00000001
 43
0.00000001
 40
0.0
 40
0.0
 40
0.0
 40
0.0
 40
0.5
 40
0.5
 40
1.0
 40
1.0
 40
1.0
 40
1.0
 10
158.5358695020636
 20
106.075167495578
 30
0.0
 10
158.614349820116
 20
106.0223687372823
 30
0.0
 10
158.6807598802116
 20
105.9372103841087
 30
0.0
 10
158.6982037423407
 20
105.695760779502
 30
0.0
 10
158.6456433736154
 20
105.5511496362352
 30
0.0
 10
158.5744689890396
 20
105.4034098208123
 30
0.0
  0
SPLINE
  5
FF
330
1F
100
AcDbEntity
  8
0
  6
HIDDEN
 62
     7
370
     0
100
AcDbSpline
210
0.0
220
0.0
230
1.0
 70
     8
 71
     3
 72
    48
 73
    44
 74
     0
 42
0.00000001
 43
0.00000001
 40
-0.062499999999999
 40
-0.062499999999999
 40
0.0
 40
0.0
 40
0.03125
 40
0.03125
 40
0.0624999999999999
 40
0.0624999999999999
 40
0.1250000000000003
 40
0.1250000000000003
 40
0.1875000000000007
 40
0.1875000000000007
 40
0.2500000000000012
 40
0.2500000000000012
 40
0.3125000000000016
 40
0.3125000000000016
 40
0.3437500000000013
 40
0.3437500000000013
 40
0.3750000000000009
 40
0.3750000000000009
 40
0.4062500000000006
 40
0.4062500000000006
 40
0.4375000000000003
 40
0.4375000000000003
 40
0.5000000000000004
 40
0.5000000000000004
 40
0.5625000000000006
 40
0.5625000000000006
 40
0.6250000000000007
 40
0.6250000000000007
 40
0.6875000000000009
 40
0.6875000000000009
 40
0.750000000000001
 40
0.750000000000001
 40
0.8125000000000011
 40
0.8125000000000011
 40
0.8437500000000011
 40
0.8437500000000011
 40
0.875000000000001
 40
0.875000000000001
 40
0.906250000000001
 40
0.906250000000001
 40
0.937500000000001
 40
0.937500000000001
 40
1.0
 40
1.0
 40
1.03125
 40
1.03125
 10
160.6504395479394
 20
103.7080823500341
 30
0.0
 10
160.7725073784564
 20
103.711473675256
 30
0.0
 10
160.810969708374
 20
103.7199204912023
 30
0.0
 10
160.8811191841405
 20
103.7521953552565
 30
0.0
 10
160.9131363169157
 20
103.7764681127223
 30
0.0
 10
160.9918719038334
 20
103.8732907742436
 30
0.0
 10
161.0216003046542
 20
103.9724404119786
 30
0.0
 10
161.0174885506241
 20
104.2213622137483
 30
0.0
 10
160.9834424579587
 20
104.3719636608429
 30
0.0
 10
160.8720762994339
 20
104.6808788313714
 30
0.0
 10
160.7956773758433
 20
104.8396387109972
 30
0.0
 10
160.632504195579
 20
105.1474099578355
 30
0.0
 10
160.5438647295634
 20
105.2981474907456
 30
0.0
 10
160.4346506288345
 20
105.5160727042682
 30
0.0
 10
160.4017290811226
 20
105.5892283639606
 30
0.0
 10
160.3572783681227
 20
105.7287650076064
 30
0.0
 10
160.3460455496987
 20
105.796765642975
 30
0.0
 10
160.3528333481226
 20
105.9166991544861
 30
0.0
 10
160.3705803114082
 20
105.970117889141
 30
0.0
 10
160.422730837881
 20
106.0582649674705
 30
0.0
 10
160.4571040023482
 20
106.0943871535549
 30
0.0
 10
160.5690506630462
 20
106.1804865039056
 30
0.0
 10
160.6545346401997
 20
106.2095835212999
 30
0.0
 10
160.8126861181001
 20
106.2131221167346
 30
0.0
 10
160.884930993535
 20
106.1871572632544
 30
0.0
 10
160.99062104992
 20
106.0654601993072
 30
0.0
 10
161.0211200956782
 20
105.9686114400794
 30
0.0
 10
161.0180637197602
 20
105.7194623696122
 30
0.0
 10
160.9841410693658
 20
105.5665270467454
 30
0.0
 10
160.8741756417676
 20
105.2536461505792
 30
0.0
 10
160.7990203763748
 20
105.0926902285199
 30
0.0
 10
160.6402604466284
 20
104.7831877663159
 30
0.0
 10
160.5536157259866
 20
104.6303092997851
 30
0.0
 10
160.445145591541
 20
104.4116856842932
 30
0.0
 10
160.4121960248902
 20
104.339538698508
 30
0.0
 10
160.3634064851299
 20
104.1971906886462
 30
0.0
 10
160.3488148910062
 20
104.1289020367252
 30
0.0
 10
160.3487966541747
 20
104.0038212747359
 30
0.0
 10
160.3634788811339
 20
103.9489597192553
 30
0.0
 10
160.4134912571585
 20
103.8570136958079
 30
0.0
 10
160.4474775631892
 20
103.8206951307355
 30
0.0
 10
160.5617751317818
 20
103.7342220417964
 30
0.0
 10
160.6504395479394
 20
103.7080823500341
 30
0.0
 10
160.7725073784564
 20
103.711473675256
 30
0.0
  0
LWPOLYLINE
  5
100
330
1F
100
AcDbEntity
  8
0
  6
HIDDEN
 62
     7
370
     0
100
AcDbPolyline
 90
       21
 70
   128
 43
0.0
 10
159.5196495706
 20
102.7680936433
 10
159.056124079
 20
102.8200060472
 10
158.6379716921
 20
102.9706617109
 10
158.306124079
 20
103.2053134084
 10
158.0930647961
 20
103.5009917968
 10
158.0196495706
 20
103.8287538151
 10
158.0930647961
 20
104.1565158335
 10
158.306124079
 20
104.4521942218
 10
158.6379716921
 20
104.6868459193
 10
159.056124079
 20
104.8375015831
 10
159.5196495706
 20
104.8894139869
 10
159.9831750622
 20
104.8375015831
 10
160.401327449
 20
104.6868459193
 10
160.7331750622
 20
104.4521942218
 10
160.946234345
 20
104.1565158335
 10
161.0196495706
 20
103.8287538151
 10
160.946234345
 20
103.5009917968
 10
160.7331750622
 20
103.2053134084
 10
160.401327449
 20
102.9706617109
 10
159.9831750622
 20
102.8200060472
 10
159.5196495706
 20
102.7680936433
  0
ARC
  5
101
330
1F
100
AcDbEntity
  8
0
  6
HIDDEN
 62
     7
370
     0
100
AcDbCircle
 10
145.3968060248
 20
104.9832034078
 30
0.0
 40
13.18436098677335
100
AcDbArc
 50
1.8264163085
 51
4.7508319696
  0
LINE
  5
102
330
1F
100
AcDbEntity
  8
0
  6
HIDDEN
 62
     7
370
     0
100
AcDbLine
 10
95.7696495706
 20
98.1424118078
 30
0.0
 11
95.7696495706
 21
95.2624740424
 31
0.0
  0
ARC
  5
103
330
1F
100
AcDbEntity
  8
0
  6
HIDDEN
 62
     7
370
     0
100
AcDbCircle
 10
174.7438402546
 20
104.9857953934
 30
0.0
 40
16.21605523631749
100
AcDbArc
 50
181.8092943
 51
184.3486370525
  0
LINE
  5
104
330
1F
100
AcDbEntity
  8
0
  6
HIDDEN
 62
     7
370
     0
100
AcDbLine
 10
104.7196495706
 20
98.1424118078
 30
0.0
 11
104.7196495706
 21
94.1686742766
 31
0.0
  0
LINE
  5
105
330
1F
100
AcDbEntity
  8
0
  6
HIDDEN
 62
     7
370
     0
100
AcDbLine
 10
95.7696495706
 20
134.1224118078
 30
0.0
 11
95.7696495706
 21
137.0023495732
 31
0.0
  0
LINE
  5
106
330
1F
100
AcDbEntity
  8
0
  6
HIDDEN
 62
     7
370
     0
100
AcDbLine
 10
100.7196495706
 20
134.1224118078
 30
0.0
 11
100.7196495706
 21
137.9765194801
 31
0.0
  0
LINE
  5
107
330
1F
100
AcDbEntity
  8
0
  6
HIDDEN
 62
     7
370
     0
100
AcDbLine
 10
145.3196495706
 20
106.6324118078
 30
0.0
 11
145.3196495706
 21
125.6324118078
 31
0.0
  0
LINE
  5
108
330
1F
100
AcDbEntity
  8
0
  6
HIDDEN
 62
     7
370
     0
100
AcDbLine
 10
148.3196495706
 20
106.6324118078
 30
0.0
 11
148.3196495706
 21
125.6324118078
 31
0.0
  0
SPLINE
  5
109
330
1F
100
AcDbEntity
  8
0
  6
HIDDEN
 62
     7
370
     0
100
AcDbSpline
210
0.0
220
0.0
230
1.0
 70
     8
 71
     3
 72
    34
 73
    30
 74
     0
 42
0.00000001
 43
0.00000001
 40
0.0
 40
0.0
 40
0.0
 40
0.0
 40
0.0625000000000009
 40
0.0625000000000009
 40
0.1250000000000019
 40
0.1250000000000019
 40
0.2500000000000038
 40
0.2500000000000038
 40
0.3125000000000034
 40
0.3125000000000034
 40
0.3750000000000031
 40
0.3750000000000031
 40
0.5000000000000023
 40
0.5000000000000023
 40
0.562500000000002
 40
0.562500000000002
 40
0.6250000000000018
 40
0.6250000000000018
 40
0.6875000000000014
 40
0.6875000000000014
 40
0.7500000000000012
 40
0.7500000000000012
 40
0.8125000000000009
 40
0.8125000000000009
 40
0.8750000000000007
 40
0.8750000000000007
 40
0.9375000000000003
 40
0.9375000000000003
 40
1.0
 40
1.0
 40
1.0
 40
1.0
 10
160.6248755524681
 20
121.9521851754856
 30
0.0
 10
160.5227156130082
 20
121.8648225218159
 30
0.0
 10
160.4066843179722
 20
121.7900914034108
 30
0.0
 10
160.1470947163032
 20
121.6676507904135
 30
0.0
 10
160.0068200692562
 20
121.6219688897438
 30
0.0
 10
159.5686602047975
 20
121.538108183383
 30
0.0
 10
159.2537908432339
 20
121.5571449097812
 30
0.0
 10
158.8363789654089
 20
121.6895077333727
 30
0.0
 10
158.703673103053
 20
121.7512713771445
 30
0.0
 10
158.4702289679383
 20
121.8990163275092
 30
0.0
 10
158.3660781338205
 20
121.9870742277665
 30
0.0
 10
158.1132898120229
 20
122.2721288090412
 30
0.0
 10
158.0197220789316
 20
122.4952370117735
 30
0.0
 10
158.019613381519
 20
122.8147560664992
 30
0.0
 10
158.0419082320078
 20
122.9170292808483
 30
0.0
 10
158.1312220011661
 20
123.1115775221081
 30
0.0
 10
158.1961344484756
 20
123.1996541536115
 30
0.0
 10
158.3660834614091
 20
123.3594778770869
 30
0.0
 10
158.4683666509442
 20
123.4282777405894
 30
0.0
 10
158.7029393589477
 20
123.543474545998
 30
0.0
 10
158.8343495212882
 20
123.5891308606983
 30
0.0
 10
159.1129766327531
 20
123.6544262907143
 30
0.0
 10
159.2621522436459
 20
123.6743503925231
 30
0.0
 10
159.5603658218467
 20
123.6871377029937
 30
0.0
 10
159.7133729205232
 20
123.6801034897374
 30
0.0
 10
160.0043999959221
 20
123.63992608866
 30
0.0
 10
160.146725666007
 20
123.6061887017812
 30
0.0
 10
160.4044951965777
 20
123.51479705823
 30
0.0
 10
160.5227139480023
 20
123.4564836920835
 30
0.0
 10
160.6248755524681
 20
123.3863926423305
 30
0.0
  0
SPLINE
  5
10A
330
1F
100
AcDbEntity
  8
0
  6
HIDDEN
 62
     7
370
     0
100
AcDbSpline
210
0.0
220
0.0
230
1.0
 70
     8
 71
     3
 72
     8
 73
     4
 74
     0
 42
0.00000001
 43
0.00000001
 40
0.0
 40
0.0
 40
0.0
 40
0.0
 40
1.0
 40
1.0
 40
1.0
 40
1.0
 10
160.6248755524681
 20
123.3863926423305
 30
0.0
 10
160.6749079047688
 20
123.3520664381493
 30
0.0
 10
160.7204625701018
 20
123.3089156729283
 30
0.0
 10
160.7616836097983
 20
123.2591371919938
 30
0.0
  0
LINE
  5
10B
330
1F
100
AcDbEntity
  8
0
  6
HIDDEN
 62
     7
370
     0
100
AcDbLine
 10
157.5196495706
 20
107.2324118078
 30
0.0
 11
157.5196495706
 21
125.0324117787
 31
0.0
  0
SPLINE
  5
10C
330
1F
100
AcDbEntity
  8
0
  6
HIDDEN
 62
     7
370
     0
100
AcDbSpline
210
0.0
220
0.0
230
1.0
 70
     8
 71
     3
 72
    12
 73
     8
 74
     0
 42
0.00000001
 43
0.00000001
 40
0.0
 40
0.0
 40
0.0
 40
0.0
 40
0.2500000000000005
 40
0.2500000000000005
 40
0.500000000000001
 40
0.500000000000001
 40
1.0
 40
1.0
 40
1.0
 40
1.0
 10
160.7616836097983
 20
123.2591371919938
 30
0.0
 10
160.8453482569031
 20
123.1581038587384
 30
0.0
 10
160.9092343395202
 20
123.0542947088308
 30
0.0
 10
160.9971860212723
 20
122.8393824772487
 30
0.0
 10
161.0195120797462
 20
122.7314703894954
 30
0.0
 10
161.0199226562651
 20
122.415147699549
 30
0.0
 10
160.9290208262633
 20
122.2171289987464
 30
0.0
 10
160.7616836097983
 20
122.0697243574889
 30
0.0
  0
LINE
  5
10D
330
1F
100
AcDbEntity
  8
0
  6
HIDDEN
 62
     7
370
     0
100
AcDbLine
 10
161.5196495706
 20
107.1324118078
 30
0.0
 11
161.5196495706
 21
125.1324118078
 31
0.0
  0
LINE
  5
10E
330
1F
100
AcDbEntity
  8
0
  6
HIDDEN
 62
     7
370
     0
100
AcDbLine
 10
136.9696495706
 20
107.6324118078
 30
0.0
 11
136.9696495706
 21
124.6324118078
 31
0.0
  0
LINE
  5
10F
330
1F
100
AcDbEntity
  8
0
  6
HIDDEN
 62
     7
370
     0
100
AcDbLine
 10
142.7073243729
 20
89.7324118078
 30
0.0
 11
139.4696495706
 21
89.7324118078
 31
0.0
  0
LINE
  5
110
330
1F
100
AcDbEntity
  8
0
  6
HIDDEN
 62
     7
370
     0
100
AcDbLine
 10
131.4696495706
 20
84.6482888249
 30
0.0
 11
131.4696495706
 21
89.7324118078
 31
0.0
  0
LINE
  5
111
330
1F
100
AcDbEntity
  8
0
  6
HIDDEN
 62
     7
370
     0
100
AcDbLine
 10
139.4696495706
 20
89.7324118078
 30
0.0
 11
131.4696495706
 21
89.7324118078
 31
0.0
  0
LINE
  5
112
330
1F
100
AcDbEntity
  8
0
  6
HIDDEN
 62
     7
370
     0
100
AcDbLine
 10
152.4696495706
 20
89.7324118078
 30
0.0
 11
146.3319747683
 21
89.7324118078
 31
0.0
  0
LINE
  5
113
330
1F
100
AcDbEntity
  8
0
  6
HIDDEN
 62
     7
370
     0
100
AcDbLine
 10
139.4696495706
 20
142.5324118078
 30
0.0
 11
131.4696495706
 21
142.5324118078
 31
0.0
  0
LINE
  5
114
330
1F
100
AcDbEntity
  8
0
  6
HIDDEN
 62
     7
370
     0
100
AcDbLine
 10
143.0039471023
 20
142.5324118078
 30
0.0
 11
139.4696495706
 21
142.5324118078
 31
0.0
  0
LINE
  5
115
330
1F
100
AcDbEntity
  8
0
  6
HIDDEN
 62
     7
370
     0
100
AcDbLine
 10
152.4696495706
 20
142.5324118078
 30
0.0
 11
146.0353520389
 21
142.5324118078
 31
0.0
  0
SPLINE
  5
116
330
1F
100
AcDbEntity
  8
0
  6
HIDDEN
 62
     7
370
     0
100
AcDbSpline
210
0.0
220
0.0
230
1.0
 70
     8
 71
     3
 72
    11
 73
     7
 74
     0
 42
0.00000001
 43
0.00000001
 40
0.0
 40
0.0
 40
0.0
 40
0.0
 40
0.0008203708524183
 40
0.0008203708524183
 40
0.0008203708524183
 40
0.0016409967870154
 40
0.0016409967870154
 40
0.0016409967870154
 40
0.0016409967870154
 10
95.76964957058784
 20
100.2803790571175
 30
0.0
 10
95.57849127028918
 20
100.2392000284983
 30
0.0
 10
95.387064200217
 20
100.2004460562683
 30
0.0
 10
95.19541857669637
 20
100.1640782969898
 30
0.0
 10
95.00371317161591
 20
100.1276991932238
 30
0.0
 10
94.81177421955695
 20
100.0937049424562
 30
0.0
 10
94.61964957248614
 20
100.062056817065
 30
0.0
  0
ELLIPSE
  5
117
330
1F
100
AcDbEntity
  8
0
  6
HIDDEN
 62
     7
370
     0
100
AcDbEllipse
 10
90.377217702
 20
116.1324118078
 30
0.0
 11
20.19992453366628
 21
-1.421085471520200E-14
 31
0.0
210
0.0
220
0.0
230
1.0
 40
0.8164965809
 41
1.300566354718001
 42
1.359198697209605
  0
LINE
  5
118
330
1F
100
AcDbEntity
  8
0
  6
HIDDEN
 62
     7
370
     0
100
AcDbLine
 10
95.7696495706
 20
98.1424118078
 30
0.0
 11
95.7696495706
 21
100.2803790571
 31
0.0
  0
LINE
  5
119
330
1F
100
AcDbEntity
  8
0
  6
HIDDEN
 62
     7
370
     0
100
AcDbLine
 10
95.8506805839
 20
100.3309213717
 30
0.0
 11
95.7696495706
 21
100.2803790571
 31
0.0
  0
LINE
  5
11A
330
1F
100
AcDbEntity
  8
0
  6
HIDDEN
 62
     7
370
     0
100
AcDbLine
 10
104.7196495706
 20
98.1424118078
 30
0.0
 11
104.7196495706
 21
99.8448981854
 31
0.0
  0
LINE
  5
11B
330
1F
100
AcDbEntity
  8
0
  6
HIDDEN
 62
     7
370
     0
100
AcDbLine
 10
95.7696495706
 20
134.1224118078
 30
0.0
 11
95.7696495706
 21
132.0270362588
 31
0.0
  0
SPLINE
  5
11C
330
1F
100
AcDbEntity
  8
0
  6
HIDDEN
 62
     7
370
     0
100
AcDbSpline
210
0.0
220
0.0
230
1.0
 70
     8
 71
     3
 72
     8
 73
     4
 74
     0
 42
0.00000001
 43
0.00000001
 40
0.0
 40
0.0
 40
0.0
 40
0.0
 40
1.0
 40
1.0
 40
1.0
 40
1.0
 10
95.76964957058784
 20
132.0270362588188
 30
0.0
 10
95.81965506953158
 20
131.9960004845997
 30
0.0
 10
95.86965514019599
 20
131.9649558395722
 30
0.0
 10
95.9196495739811
 20
131.9339022437919
 30
0.0
  0
LINE
  5
11D
330
1F
100
AcDbEntity
  8
0
  6
HIDDEN
 62
     7
370
     0
100
AcDbLine
 10
100.7196495706
 20
134.1224118078
 30
0.0
 11
100.7196495706
 21
132.4199254302
 31
0.0
  0
SPLINE
  5
11E
330
1F
100
AcDbEntity
  8
0
  6
HIDDEN
 62
     7
370
     0
100
AcDbSpline
210
0.0
220
0.0
230
1.0
 70
     8
 71
     3
 72
     8
 73
     4
 74
     0
 42
0.00000001
 43
0.00000001
 40
0.0
 40
0.0
 40
0.0
 40
0.0
 40
1.0
 40
1.0
 40
1.0
 40
1.0
 10
160.7616836097983
 20
122.0697243574889
 30
0.0
 10
160.7204625701018
 20
122.0334134118601
 30
0.0
 10
160.6749079047688
 20
121.9949706263135
 30
0.0
 10
160.6248755524681
 20
121.9521851754856
 30
0.0
  0
SPLINE
  5
11F
330
1F
100
AcDbEntity
  8
0
  6
HIDDEN
 62
     7
370
     0
100
AcDbSpline
210
0.0
220
0.0
230
1.0
 70
     8
 71
     3
 72
    20
 73
    16
 74
     0
 42
0.00000001
 43
0.00000001
 40
0.0
 40
0.0
 40
0.0
 40
0.0
 40
0.1118535494849179
 40
0.1773730685924756
 40
0.2489949814854543
 40
0.3297438282836502
 40
0.3985165675539052
 40
0.4997968041482328
 40
0.6137624896888147
 40
0.6789287412071094
 40
0.7494555931726334
 40
0.8296019506449644
 40
0.8980459617257948
 40
0.9994568726596122
 40
1.0
 40
1.0
 40
1.0
 40
1.0
 10
121.2682654561774
 20
92.53247800610656
 30
0.0
 10
121.224973301557
 20
92.54589644749454
 30
0.0
 10
121.1563222632452
 20
92.56717489717875
 30
0.0
 10
120.7113044427577
 20
92.67044752130651
 30
0.0
 10
120.1847547190965
 20
92.78374894888215
 30
0.0
 10
119.4993271513368
 20
92.90668235407968
 30
0.0
 10
118.6060104069296
 20
93.0287166710853
 30
0.0
 10
117.4926508352173
 20
93.1464530441432
 30
0.0
 10
116.3818765795797
 20
93.15842848286347
 30
0.0
 10
115.4971288619266
 20
93.13137030838494
 30
0.0
 10
114.8299301017601
 20
93.08343783222655
 30
0.0
 10
114.2886664806808
 20
93.02714600405982
 30
0.0
 10
113.9010527620352
 20
92.98205669258203
 30
0.0
 10
113.7071447995599
 20
92.94318800465265
 30
0.0
 10
113.7703375738557
 20
92.9539102575371
 30
0.0
 10
113.7706742130317
 20
92.95396737689
 30
0.0
  0
LINE
  5
120
330
1F
100
AcDbEntity
  8
0
  6
HIDDEN
 62
     7
370
     0
100
AcDbLine
 10
114.679661483
 20
93.0647499512
 30
0.0
 11
114.8635067961
 21
93.0829392937
 31
0.0
  0
SPLINE
  5
121
330
1F
100
AcDbEntity
  8
0
  6
HIDDEN
 62
     7
370
     0
100
AcDbSpline
210
0.0
220
0.0
230
1.0
 70
     8
 71
     3
 72
    27
 73
    23
 74
     0
 42
0.00000001
 43
0.00000001
 40
0.0
 40
0.0
 40
0.0
 40
0.0
 40
0.0008085620132743
 40
0.0456910729025998
 40
0.1022727378510186
 40
0.1705508272471735
 40
0.2091424989402973
 40
0.2506697374996056
 40
0.3211155140175551
 40
0.3862092476672336
 40
0.4266883970036038
 40
0.4648196494536864
 40
0.5006239657997564
 40
0.545215729606189
 40
0.6017099851214275
 40
0.6701159591381641
 40
0.7088532888090754
 40
0.750582033877325
 40
0.8222466184915082
 40
0.8877860424923878
 40
0.9472597969153607
 40
1.0
 40
1.0
 40
1.0
 40
1.0
 10
113.770318020223
 20
139.3108259568058
 30
0.0
 10
113.770095680874
 20
139.3108738856587
 30
0.0
 10
113.7575314950286
 20
139.3135822997007
 30
0.0
 10
113.8066081659588
 20
139.3017502623966
 30
0.0
 10
113.9517126417562
 20
139.2783060638575
 30
0.0
 10
114.2247648118934
 20
139.2444019154977
 30
0.0
 10
114.5532912921751
 20
139.2108331182069
 30
0.0
 10
114.946019056977
 20
139.172649779841
 30
0.0
 10
115.4957470323831
 20
139.1336811072127
 30
0.0
 10
116.1217696775462
 20
139.1142200028368
 30
0.0
 10
116.6649611879785
 20
139.1120343249973
 30
0.0
 10
117.110030084817
 20
139.1205492061773
 30
0.0
 10
117.5764778812745
 20
139.1403326031029
 30
0.0
 10
118.1137185304134
 20
139.1844949886184
 30
0.0
 10
118.7619319611875
 20
139.2569106086314
 30
0.0
 10
119.3474705912349
 20
139.3378127018136
 30
0.0
 10
119.8284402055693
 20
139.4159786902713
 30
0.0
 10
120.2738551031788
 20
139.500750829366
 30
0.0
 10
120.7123548188563
 20
139.5945338713414
 30
0.0
 10
121.0513800893182
 20
139.672437638734
 30
0.0
 10
121.2387211207584
 20
139.7226293023448
 30
0.0
 10
121.259210908027
 20
139.7292957447509
 30
0.0
 10
121.2688410428669
 20
139.7324289514763
 30
0.0
  0
LINE
  5
122
330
1F
100
AcDbEntity
  8
0
  6
HIDDEN
 62
     7
370
     0
100
AcDbLine
 10
165.9696495706
 20
92.7097620769
 30
0.0
 11
160.9696495706
 21
92.7097620769
 31
0.0
  0
LINE
  5
123
330
1F
100
AcDbEntity
  8
0
  6
HIDDEN
 62
     7
370
     0
100
AcDbLine
 10
163.4696495706
 20
139.5550615386
 30
0.0
 11
165.9696495706
 21
139.5550615386
 31
0.0
  0
LINE
  5
124
330
1F
100
AcDbEntity
  8
0
  6
HIDDEN
 62
     7
370
     0
100
AcDbLine
 10
160.9696495706
 20
139.5550615386
 30
0.0
 11
163.4696495706
 21
139.5550615386
 31
0.0
  0
LINE
  5
125
330
1F
100
AcDbEntity
  8
0
  6
HIDDEN
 62
     7
370
     0
100
AcDbLine
 10
163.4696495706
 20
128.1324118078
 30
0.0
 11
165.9696495706
 21
128.1324118078
 31
0.0
  0
LINE
  5
126
330
1F
100
AcDbEntity
  8
0
  6
HIDDEN
 62
     7
370
     0
100
AcDbLine
 10
160.9696495706
 20
128.1324118078
 30
0.0
 11
163.4696495706
 21
128.1324118078
 31
0.0
  0
LINE
  5
127
330
1F
100
AcDbEntity
  8
0
  6
HIDDEN
 62
     7
370
     0
100
AcDbLine
 10
163.3780122093
 20
126.6943963673
 30
0.0
 11
163.3753682624
 21
126.6944205347
 31
0.0
  0
SPLINE
  5
128
330
1F
100
AcDbEntity
  8
0
  6
HIDDEN
 62
     7
370
     0
100
AcDbSpline
210
0.0
220
0.0
230
1.0
 70
     8
 71
     3
 72
    17
 73
    13
 74
     0
 42
0.00000001
 43
0.00000001
 40
0.0
 40
0.0
 40
0.0
 40
0.0
 40
0.0410155497535718
 40
0.1470832828628823
 40
0.2533613457850718
 40
0.360333811908381
 40
0.4681749462934297
 40
0.5766850271244496
 40
0.6853801863495712
 40
0.7936927609086686
 40
0.9012118913866013
 40
0.9999999999999999
 40
0.9999999999999999
 40
0.9999999999999999
 40
0.9999999999999999
 10
163.3640976399566
 20
126.6945241275385
 30
0.0
 10
163.3637319165025
 20
126.6945277330231
 30
0.0
 10
163.3624204186299
 20
126.6945406624247
 30
0.0
 10
163.3726544383292
 20
126.6944392336157
 30
0.0
 10
163.3934811281921
 20
126.6942654560544
 30
0.0
 10
163.423602643887
 20
126.6940868509962
 30
0.0
 10
163.4588504469271
 20
126.6939900303846
 30
0.0
 10
163.4955367947852
 20
126.6940163658624
 30
0.0
 10
163.5294313280583
 20
126.6941571819271
 30
0.0
 10
163.5561934115294
 20
126.6943462142746
 30
0.0
 10
163.5736060831731
 20
126.6945073522614
 30
0.0
 10
163.5753704163826
 20
126.6945255074032
 30
0.0
 10
163.5762152492711
 20
126.6945342008069
 30
0.0
  0
SPLINE
  5
129
330
1F
100
AcDbEntity
  8
0
  6
HIDDEN
 62
     7
370
     0
100
AcDbSpline
210
0.0
220
0.0
230
1.0
 70
     8
 71
     3
 72
     9
 73
     5
 74
     0
 42
0.00000001
 43
0.00000001
 40
0.0
 40
0.0
 40
0.0
 40
0.0
 40
0.0649321423258427
 40
1.0
 40
1.0
 40
1.0
 40
1.0
 10
163.3931155094635
 20
126.6942797494338
 30
0.0
 10
163.3926896122896
 20
126.6942822395709
 30
0.0
 10
163.3861305005976
 20
126.6943205894081
 30
0.0
 10
163.3819351483419
 20
126.6943597497273
 30
0.0
 10
163.3780122092959
 20
126.694396367283
 30
0.0
  0
LINE
  5
12A
330
1F
100
AcDbEntity
  8
0
  6
HIDDEN
 62
     7
370
     0
100
AcDbLine
 10
165.9696495706
 20
104.1324118078
 30
0.0
 11
160.9696495706
 21
104.1324118078
 31
0.0
  0
SPLINE
  5
12B
330
1F
100
AcDbEntity
  8
0
  6
HIDDEN
 62
     7
370
     0
100
AcDbSpline
210
0.0
220
0.0
230
1.0
 70
     8
 71
     3
 72
    17
 73
    13
 74
     0
 42
0.00000001
 43
0.00000001
 40
0.0
 40
0.0
 40
0.0
 40
0.0
 40
0.0336064521780227
 40
0.1396711833794266
 40
0.2459054411552676
 40
0.3528084976938525
 40
0.4605802802745694
 40
0.5690459888550252
 40
0.6777361147737135
 40
0.786081095058793
 40
0.8936517813020328
 40
1.0
 40
1.0
 40
1.0
 40
1.0
 10
163.5753265370206
 20
105.5702982297633
 30
0.0
 10
163.5756945026434
 20
105.5702946051628
 30
0.0
 10
163.5772237980808
 20
105.5702795410246
 30
0.0
 10
163.5677018357259
 20
105.5703743845464
 30
0.0
 10
163.5476450038
 20
105.5705445305905
 30
0.0
 10
163.5180060878353
 20
105.5707262212294
 30
0.0
 10
163.4830166119132
 20
105.5708305624607
 30
0.0
 10
163.4462868279664
 20
105.570813249796
 30
0.0
 10
163.4120650380553
 20
105.5706789282659
 30
0.0
 10
163.3846744288217
 20
105.5704904303063
 30
0.0
 10
163.3661967914026
 20
105.570321506724
 30
0.0
 10
163.3638565123065
 20
105.5702975284377
 30
0.0
 10
163.3626930596738
 20
105.570285607808
 30
0.0
  0
SPLINE
  5
12C
330
1F
100
AcDbEntity
  8
0
  6
HIDDEN
 62
     7
370
     0
100
AcDbSpline
210
0.0
220
0.0
230
1.0
 70
     8
 71
     3
 72
     9
 73
     5
 74
     0
 42
0.00000001
 43
0.00000001
 40
0.0
 40
0.0
 40
0.0
 40
0.0
 40
0.0028668704042248
 40
1.0
 40
1.0
 40
1.0
 40
1.0
 10
163.3686400732366
 20
105.5703431881122
 30
0.0
 10
163.3686436098452
 20
105.5703432223636
 30
0.0
 10
163.3698772228674
 20
105.5703551696836
 30
0.0
 10
163.3739505549394
 20
105.5703912606946
 30
0.0
 10
163.3780122092963
 20
105.5704272482374
 30
0.0
  0
LWPOLYLINE
  5
12D
330
1F
100
AcDbEntity
  8
0
  6
HIDDEN
 62
     7
370
     0
100
AcDbPolyline
 90
       19
 70
   128
 43
0.0
 10
160.9865369223
 20
128.3748590997
 10
160.8091461103
 20
128.6950751635
 10
160.4961895785
 20
128.9583263405
 10
160.0805686773
 20
129.1369368408
 10
159.6059779378
 20
129.2121292111
 10
159.1223114335
 20
129.1759984223
 10
158.6804173799
 20
129.0323429307
 10
158.3267524238
 20
128.7962653439
 10
158.0984976223
 20
128.4925846721
 10
158.0196495706
 20
128.1532270879
 10
158.0984976223
 20
127.8138695037
 10
158.3267524238
 20
127.510188832
 10
158.6804173799
 20
127.2741112452
 10
159.1223114335
 20
127.1304557536
 10
159.6059779378
 20
127.0943249647
 10
160.0805686773
 20
127.1695173351
 10
160.4961895785
 20
127.3481278354
 10
160.8091461103
 20
127.6113790124
 10
160.9865369223
 20
127.9315950762
  0
SPLINE
  5
12E
330
1F
100
AcDbEntity
  8
0
  6
HIDDEN
 62
     7
370
     0
100
AcDbSpline
210
0.0
220
0.0
230
1.0
 70
     8
 71
     3
 72
    46
 73
    42
 74
     0
 42
0.00000001
 43
0.00000001
 40
0.0
 40
0.0
 40
0.0
 40
0.0
 40
0.062499999999999
 40
0.062499999999999
 40
0.124999999999998
 40
0.124999999999998
 40
0.1562499999999981
 40
0.1562499999999981
 40
0.1874999999999983
 40
0.1874999999999983
 40
0.2187499999999984
 40
0.2187499999999984
 40
0.2499999999999986
 40
0.2499999999999986
 40
0.3124999999999989
 40
0.3124999999999989
 40
0.3749999999999992
 40
0.3749999999999992
 40
0.4374999999999996
 40
0.4374999999999996
 40
0.4687499999999998
 40
0.4687499999999998
 40
0.5000000000000001
 40
0.5000000000000001
 40
0.5624999999999997
 40
0.5624999999999997
 40
0.6249999999999992
 40
0.6249999999999992
 40
0.6874999999999988
 40
0.6874999999999988
 40
0.7499999999999983
 40
0.7499999999999983
 40
0.7812499999999981
 40
0.7812499999999981
 40
0.812499999999998
 40
0.812499999999998
 40
0.8749999999999987
 40
0.8749999999999987
 40
0.9374999999999993
 40
0.9374999999999993
 40
1.0
 40
1.0
 40
1.0
 40
1.0
 10
160.9865369223328
 20
127.9315950761521
 30
0.0
 10
160.9534050418059
 20
127.794450739468
 30
0.0
 10
160.8982917501012
 20
127.6505367226506
 30
0.0
 10
160.7640337881081
 20
127.3606073914597
 30
0.0
 10
160.6854656671195
 20
127.2166622847385
 30
0.0
 10
160.5700326584891
 20
127.0076977131201
 30
0.0
 10
160.5320805302869
 20
126.9393171296917
 30
0.0
 10
160.4611732057191
 20
126.8033752346764
 30
0.0
 10
160.4279994187357
 20
126.7352881444662
 30
0.0
 10
160.3764660556714
 20
126.6037731521203
 30
0.0
 10
160.3578765940763
 20
126.5385812588571
 30
0.0
 10
160.3450556221705
 20
126.4193639521872
 30
0.0
 10
160.3508098465271
 20
126.3638813463855
 30
0.0
 10
160.3986689333871
 20
126.2203479047602
 30
0.0
 10
160.4671794210875
 20
126.1538612114346
 30
0.0
 10
160.6116983870964
 20
126.0689151753763
 30
0.0
 10
160.6907161063508
 20
126.0493480166147
 30
0.0
 10
160.8329400929454
 20
126.0588026433253
 30
0.0
 10
160.8983915578549
 20
126.0884813786257
 30
0.0
 10
160.9684097317811
 20
126.17671146732
 30
0.0
 10
160.9873990742165
 20
126.2140965429297
 30
0.0
 10
161.0127565674672
 20
126.3016384917262
 30
0.0
 10
161.0194901495456
 20
126.3519556813512
 30
0.0
 10
161.0199600864449
 20
126.5242828289456
 30
0.0
 10
160.992692659019
 20
126.6615204083468
 30
0.0
 10
160.8997373260302
 20
126.9472047686035
 30
0.0
 10
160.8345140016609
 20
127.0959295363593
 30
0.0
 10
160.6922162973402
 20
127.3842200374292
 30
0.0
 10
160.6131917889547
 20
127.5271044237545
 30
0.0
 10
160.4683523011384
 20
127.8019190983295
 30
0.0
 10
160.3994867629762
 20
127.9378001716352
 30
0.0
 10
160.3508647147594
 20
128.1293067306702
 30
0.0
 10
160.3449711565993
 20
128.1890862776563
 30
0.0
 10
160.3578004629082
 20
128.298037226093
 30
0.0
 10
160.3760158896915
 20
128.344728948575
 30
0.0
 10
160.4538702566654
 20
128.4636794872614
 30
0.0
 10
160.5314787238434
 20
128.5118967722924
 30
0.0
 10
160.6854253717823
 20
128.5608285610108
 30
0.0
 10
160.7635295581167
 20
128.5611680758974
 30
0.0
 10
160.8976999080581
 20
128.5093964730544
 30
0.0
 10
160.9534241810798
 20
128.456953037902
 30
0.0
 10
160.9865369223328
 20
128.3748590997108
 30
0.0
  0
SPLINE
  5
12F
330
1F
100
AcDbEntity
  8
0
  6
HIDDEN
 62
     7
370
     0
100
AcDbSpline
210
0.0
220
0.0
230
1.0
 70
     8
 71
     3
 72
    14
 73
    10
 74
     0
 42
0.00000001
 43
0.00000001
 40
0.0
 40
0.0
 40
0.0
 40
0.0
 40
0.25
 40
0.25
 40
0.5
 40
0.5
 40
0.75
 40
0.75
 40
1.0
 40
1.0
 40
1.0
 40
1.0
 10
158.5744689890394
 20
126.8614137947078
 30
0.0
 10
158.5379999934056
 20
126.828564818212
 30
0.0
 10
158.5030570612455
 20
126.7969489738586
 30
0.0
 10
158.4433197199007
 20
126.7261518308888
 30
0.0
 10
158.4180305205776
 20
126.6862100289197
 30
0.0
 10
158.4085434213465
 20
126.5684616711022
 30
0.0
 10
158.4260384240994
 20
126.4921651181256
 30
0.0
 10
158.4742329933569
 20
126.3408286151906
 30
0.0
 10
158.5042855433345
 20
126.2647586407608
 30
0.0
 10
158.5358695020619
 20
126.1896561199441
 30
0.0
  0
SPLINE
  5
130
330
1F
100
AcDbEntity
  8
0
  6
HIDDEN
 62
     7
370
     0
100
AcDbSpline
210
0.0
220
0.0
230
1.0
 70
     8
 71
     3
 72
    10
 73
     6
 74
     0
 42
0.00000001
 43
0.00000001
 40
0.0
 40
0.0
 40
0.0
 40
0.0
 40
0.5
 40
0.5
 40
1.0
 40
1.0
 40
1.0
 40
1.0
 10
158.5358695020636
 20
126.1896561199423
 30
0.0
 10
158.6143498201161
 20
126.242454878238
 30
0.0
 10
158.6807598802118
 20
126.3276132314116
 30
0.0
 10
158.6982037423408
 20
126.5690628360185
 30
0.0
 10
158.6456433736155
 20
126.7136739792852
 30
0.0
 10
158.5744689890396
 20
126.8614137947082
 30
0.0
  0
SPLINE
  5
131
330
1F
100
AcDbEntity
  8
0
  6
HIDDEN
 62
     7
370
     0
100
AcDbSpline
210
0.0
220
0.0
230
1.0
 70
     8
 71
     3
 72
    10
 73
     6
 74
     0
 42
0.00000001
 43
0.00000001
 40
0.0
 40
0.0
 40
0.0
 40
0.0
 40
0.5041480232558361
 40
0.9976150031749146
 40
1.0
 40
1.0
 40
1.0
 40
1.0
 10
158.0390399953239
 20
127.4074075661612
 30
0.0
 10
158.0317894405395
 20
127.463227662124
 30
0.0
 10
158.0174419435733
 20
127.5736852314138
 30
0.0
 10
158.0169826938193
 20
127.6696208593908
 30
0.0
 10
158.0249130651866
 20
127.6939365508759
 30
0.0
 10
158.0249512094543
 20
127.694053506842
 30
0.0
  0
SPLINE
  5
132
330
1F
100
AcDbEntity
  8
0
  6
HIDDEN
 62
     7
370
     0
100
AcDbSpline
210
0.0
220
0.0
230
1.0
 70
     8
 71
     3
 72
    18
 73
    14
 74
     0
 42
0.00000001
 43
0.00000001
 40
0.0
 40
0.0
 40
0.0
 40
0.0
 40
0.0034843705632088
 40
0.1447456796354238
 40
0.2135437618056274
 40
0.2697776213437087
 40
0.3264104371965597
 40
0.3870862909225964
 40
0.4810758529987652
 40
0.6213704360341474
 40
0.7638466556597511
 40
0.9105219170620129
 40
1.0
 40
1.0
 40
1.0
 40
1.0
 10
158.0468214082885
 20
127.7613245429529
 30
0.0
 10
158.0470196378393
 20
127.7619434589586
 30
0.0
 10
158.05525437365
 20
127.7876541048969
 30
0.0
 10
158.0776184679467
 20
127.7869130891006
 30
0.0
 10
158.0980058985646
 20
127.7644878956242
 30
0.0
 10
158.1063225270009
 20
127.7247082267635
 30
0.0
 10
158.1039366082959
 20
127.6639470834981
 30
0.0
 10
158.0896878502838
 20
127.5739478759665
 30
0.0
 10
158.0623002611504
 20
127.4429102472463
 30
0.0
 10
158.0311907117185
 20
127.2807584335945
 30
0.0
 10
158.0158738500272
 20
127.1209953211373
 30
0.0
 10
158.0229923377469
 20
127.007746592762
 30
0.0
 10
158.0412923257636
 20
126.9772489655041
 30
0.0
 10
158.048226158736
 20
126.9656934686771
 30
0.0
  0
LWPOLYLINE
  5
133
330
1F
100
AcDbEntity
  8
0
  6
HIDDEN
 62
     7
370
     0
100
AcDbPolyline
 90
        8
 70
   128
 43
0.0
 10
158.0600136809
 20
126.9403606443
 10
158.0857607648
 20
126.9349550661
 10
158.0997266423
 20
126.9562585313
 10
158.1049145224
 20
126.9929431609
 10
158.1023646753
 20
127.0464815478
 10
158.0899718267
 20
127.1306469764
 10
158.0626392213
 20
127.2742332666
 10
158.0390399953
 20
127.4074075662
  0
SPLINE
  5
134
330
1F
100
AcDbEntity
  8
0
  6
HIDDEN
 62
     7
370
     0
100
AcDbSpline
210
0.0
220
0.0
230
1.0
 70
     8
 71
     3
 72
    14
 73
    10
 74
     0
 42
0.00000001
 43
0.00000001
 40
0.0
 40
0.0
 40
0.0
 40
0.0
 40
0.25
 40
0.25
 40
0.5
 40
0.5
 40
0.75
 40
0.75
 40
1.0
 40
1.0
 40
1.0
 40
1.0
 10
158.5358695020632
 20
127.7910160275063
 30
0.0
 10
158.504222772781
 20
127.8273840805328
 30
0.0
 10
158.4740254442045
 20
127.8631374340692
 30
0.0
 10
158.4259518393797
 20
127.9451045410005
 30
0.0
 10
158.4084663710483
 20
127.9937835058228
 30
0.0
 10
158.4181762074077
 20
128.1267443833839
 30
0.0
 10
158.4435009816453
 20
128.2053520019766
 30
0.0
 10
158.5031959983447
 20
128.358199182654
 30
0.0
 10
158.53805892676
 20
128.434032796157
 30
0.0
 10
158.5744689890392
 20
128.5086136418813
 30
0.0
  0
SPLINE
  5
135
330
1F
100
AcDbEntity
  8
0
  6
HIDDEN
 62
     7
370
     0
100
AcDbSpline
210
0.0
220
0.0
230
1.0
 70
     8
 71
     3
 72
    14
 73
    10
 74
     0
 42
0.00000001
 43
0.00000001
 40
0.0
 40
0.0
 40
0.0
 40
0.0
 40
0.25
 40
0.25
 40
0.5
 40
0.5
 40
0.75
 40
0.75
 40
1.0
 40
1.0
 40
1.0
 40
1.0
 10
158.5744689890396
 20
128.5086136418818
 30
0.0
 10
158.6100422429907
 20
128.4755972804538
 30
0.0
 10
158.6409440740097
 20
128.435546505927
 30
0.0
 10
158.6834981945898
 20
128.3370838638204
 30
0.0
 10
158.6937248447494
 20
128.2802682131957
 30
0.0
 10
158.6853907382528
 20
128.1523308483882
 30
0.0
 10
158.6667731014182
 20
128.0825977516483
 30
0.0
 10
158.6112677188653
 20
127.9390789850029
 30
0.0
 10
158.5751750695058
 20
127.8657534062853
 30
0.0
 10
158.5358695020635
 20
127.7910160275048
 30
0.0
  0
SPLINE
  5
136
330
1F
100
AcDbEntity
  8
0
  6
HIDDEN
 62
     7
370
     0
100
AcDbSpline
210
0.0
220
0.0
230
1.0
 70
     8
 71
     3
 72
     8
 73
     4
 74
     0
 42
0.00000001
 43
0.00000001
 40
0.0
 40
0.0
 40
0.0
 40
0.0
 40
0.000159097695343
 40
0.000159097695343
 40
0.000159097695343
 40
0.000159097695343
 10
95.90481757980587
 20
100.3309213717286
 30
0.0
 10
95.85976610930152
 20
100.3029424874048
 30
0.0
 10
95.8147100708867
 20
100.2749709570297
 30
0.0
 10
95.76964957058784
 20
100.2470066176772
 30
0.0
  0
SPLINE
  5
137
330
1F
100
AcDbEntity
  8
0
  6
HIDDEN
 62
     7
370
     0
100
AcDbSpline
210
0.0
220
0.0
230
1.0
 70
     8
 71
     3
 72
    11
 73
     7
 74
     0
 42
0.00000001
 43
0.00000001
 40
0.0
 40
0.0
 40
0.0
 40
0.0
 40
0.0008212909311456
 40
0.0008212909311456
 40
0.0008212909311456
 40
0.001642825724306
 40
0.001642825724306
 40
0.001642825724306
 40
0.001642825724306
 10
95.76964957058784
 20
100.2470066176772
 30
0.0
 10
95.57850454910566
 20
100.2037204288246
 30
0.0
 10
95.38708621342919
 20
100.1627839191874
 30
0.0
 10
95.19544013876805
 20
100.1241821478008
 30
0.0
 10
95.00373705722645
 20
100.0855688939637
 30
0.0
 10
94.81179193394092
 20
100.0492886846777
 30
0.0
 10
94.61964957058775
 20
100.0153217783262
 30
0.0
  0
LINE
  5
138
330
1F
100
AcDbEntity
  8
0
  6
HIDDEN
 62
     7
370
     0
100
AcDbLine
 10
142.6096495706
 20
136.3181949352
 30
0.0
 11
142.6096495706
 21
135.9824118078
 31
0.0
  0
LINE
  5
139
330
1F
100
AcDbEntity
  8
0
  6
HIDDEN
 62
     7
370
     0
100
AcDbLine
 10
146.4296495706
 20
136.3181949351
 30
0.0
 11
146.4296495706
 21
135.9824118078
 31
0.0
  0
LINE
  5
13A
330
1F
100
AcDbEntity
  8
0
  6
HIDDEN
 62
     7
370
     0
100
AcDbLine
 10
147.9115824021
 20
140.5911014701
 30
0.0
 11
147.9115824021
 21
135.9824118078
 31
0.0
  0
SPLINE
  5
13B
330
1F
100
AcDbEntity
  8
0
  6
HIDDEN
 62
     7
370
     0
100
AcDbSpline
210
0.0
220
0.0
230
1.0
 70
     8
 71
     3
 72
    10
 73
     6
 74
     0
 42
0.00000001
 43
0.00000001
 40
0.0
 40
0.0
 40
0.0
 40
0.0
 40
0.5
 40
0.5
 40
1.0
 40
1.0
 40
1.0
 40
1.0
 10
160.9865369223328
 20
128.3748590997109
 30
0.0
 10
160.9622223198475
 20
128.3232911827356
 30
0.0
 10
160.9508095893566
 20
128.2576217424616
 30
0.0
 10
160.9507888985948
 20
128.1075409648282
 30
0.0
 10
160.962149870873
 20
128.0213441525469
 30
0.0
 10
160.9865369223328
 20
127.9315950761521
 30
0.0
  0
ARC
  5
13C
330
1F
100
AcDbEntity
  8
0
  6
HIDDEN
 62
     7
370
     0
100
AcDbCircle
 10
174.7438402525
 20
127.2790282223
 30
0.0
 40
16.21605523425385
100
AcDbArc
 50
175.6513629474
 51
178.1907057002
  0
SPLINE
  5
13D
330
1F
100
AcDbEntity
  8
0
  6
HIDDEN
 62
     7
370
     0
100
AcDbSpline
210
0.0
220
0.0
230
1.0
 70
     8
 71
     3
 72
    11
 73
     7
 74
     0
 42
0.00000001
 43
0.00000001
 40
0.0
 40
0.0
 40
0.0
 40
0.0
 40
0.0005781862223978
 40
0.0005781862223978
 40
0.0005781862223978
 40
0.0011563724723928
 40
0.0011563724723928
 40
0.0011563724723928
 40
0.0011563724723928
 10
95.61964957058782
 20
128.772554114807
 30
0.0
 10
95.45298901631222
 20
128.8370836262205
 30
0.0
 10
95.28632571940574
 20
128.9015863300643
 30
0.0
 10
95.11965913557549
 20
128.966072778498
 30
0.0
 10
94.95299254331641
 20
129.0305592301929
 30
0.0
 10
94.78632267769053
 20
129.095029238921
 30
0.0
 10
94.6196495705878
 20
129.1594850056536
 30
0.0
  0
SPLINE
  5
13E
330
1F
100
AcDbEntity
  8
0
  6
HIDDEN
 62
     7
370
     0
100
AcDbSpline
210
0.0
220
0.0
230
1.0
 70
     8
 71
     3
 72
    11
 73
     7
 74
     0
 42
0.00000001
 43
0.00000001
 40
0.0
 40
0.0
 40
0.0
 40
0.0
 40
0.0005778746105108
 40
0.0005778746105108
 40
0.0005778746105108
 40
0.0011557494857226
 40
0.0011557494857226
 40
0.0011557494857226
 40
0.0011557494857226
 10
94.61964957058781
 20
103.1051899522703
 30
0.0
 10
94.78631644700114
 20
103.1710020789642
 30
0.0
 10
94.95298316656262
 20
103.2368605591018
 30
0.0
 10
95.11964981461125
 20
103.3027681320324
 30
0.0
 10
95.28631653912991
 20
103.3686757352028
 30
0.0
 10
95.4529832335505
 20
103.4346328435913
 30
0.0
 10
95.61964957058782
 20
103.500634583514
 30
0.0
  0
SPLINE
  5
13F
330
1F
100
AcDbEntity
  8
0
  6
HIDDEN
 62
     7
370
     0
100
AcDbSpline
210
0.0
220
0.0
230
1.0
 70
     8
 71
     3
 72
    11
 73
     7
 74
     0
 42
0.00000001
 43
0.00000001
 40
0.0000000000000006
 40
0.0000000000000006
 40
0.0000000000000006
 40
0.0000000000000006
 40
0.0005780486062768
 40
0.0005780486062768
 40
0.0005780486062768
 40
0.0011560973514127
 40
0.0011560973514127
 40
0.0011560973514127
 40
0.0011560973514127
 10
94.61964957058781
 20
126.113226309452
 30
0.0
 10
94.78631942663273
 20
126.0508544479375
 30
0.0
 10
94.95298713071699
 20
125.9885005876397
 30
0.0
 10
95.11965343517065
 20
125.9261810274537
 30
0.0
 10
95.28631977586438
 20
125.8638614537168
 30
0.0
 10
95.45298473249316
 20
125.8015762493972
 30
0.0
 10
95.61964957058782
 20
125.7393511288285
 30
0.0
  0
SPLINE
  5
140
330
1F
100
AcDbEntity
  8
0
  6
HIDDEN
 62
     7
370
     0
100
AcDbSpline
210
0.0
220
0.0
230
1.0
 70
     8
 71
     3
 72
    11
 73
     7
 74
     0
 42
0.00000001
 43
0.00000001
 40
0.0
 40
0.0
 40
0.0
 40
0.0
 40
0.0005782401583533
 40
0.0005782401583533
 40
0.0005782401583533
 40
0.0011564805960993
 40
0.0011564805960993
 40
0.0011564805960993
 40
0.0011564805960993
 10
95.61964957058782
 20
106.5315850153626
 30
0.0
 10
95.45299862023893
 20
106.4681595573018
 30
0.0
 10
95.28633902765627
 20
106.4048040336465
 30
0.0
 10
95.1196719752277
 20
106.3415064492965
 30
0.0
 10
94.9530048386639
 20
106.2782088329933
 30
0.0
 10
94.78633023121785
 20
106.2149690380526
 30
0.0
 10
94.61964957058777
 20
106.1517690314137
 30
0.0
  0
ARC
  5
141
330
1F
100
AcDbEntity
  8
0
  6
HIDDEN
 62
     7
370
     0
100
AcDbCircle
 10
145.3968060242
 20
127.2816202078
 30
0.0
 40
13.18436098734246
100
AcDbArc
 50
355.2491680305
 51
358.1735836914
  0
CIRCLE
  5
142
330
1F
100
AcDbEntity
  8
0
  6
HIDDEN
 62
     7
370
     0
100
AcDbCircle
 10
133.5196495706
 20
116.1324118078
 30
0.0
 40
5.0
  0
LWPOLYLINE
  5
143
330
1F
100
AcDbEntity
  8
0
  6
HIDDEN
 62
     7
370
     0
100
AcDbPolyline
 90
       21
 70
   128
 43
0.0
 10
201.1043347298
 20
104.6328695024
 10
201.0927396496
 20
104.5836529328
 10
201.0772873416
 20
104.6810120277
 10
201.0594903854
 20
104.9154166004
 10
201.0410908711
 20
105.2639214982
 10
201.0238898713
 20
105.6924126335
 10
201.0095711397
 20
106.1589463086
 10
200.9995362936
 20
106.6178549567
 10
200.9947676135
 20
107.0242174021
 10
200.9957318912
 20
107.3382560572
 10
201.0023347364
 20
107.5292306304
 10
201.0139298166
 20
107.5784472
 10
201.0293821246
 20
107.4810881052
 10
201.0471790808
 20
107.2466835325
 10
201.0655785951
 20
106.8981786347
 10
201.0827795949
 20
106.4696874994
 10
201.0970983265
 20
106.0031538243
 10
201.1071331726
 20
105.5442451762
 10
201.1119018527
 20
105.1378827308
 10
201.110937575
 20
104.8238440757
 10
201.1043347298
 20
104.6328695024
  0
LWPOLYLINE
  5
144
330
1F
100
AcDbEntity
  8
0
  6
HIDDEN
 62
     7
370
     0
100
AcDbPolyline
 90
       17
 70
   128
 43
0.0
 10
200.5877202128
 20
105.1017159161
 10
200.5776200765
 20
105.0760566326
 10
200.563881403
 20
105.2012853178
 10
200.5485957807
 20
105.4583370396
 10
200.5340903071
 20
105.8080780035
 10
200.522573309
 20
106.1972633182
 10
200.515798145
 20
106.5666430474
 10
200.5147962724
 20
106.8599824759
 10
200.5197202172
 20
107.0326233348
 10
200.5298203534
 20
107.0582826183
 10
200.5435590269
 20
106.9330539331
 10
200.5588446492
 20
106.6760022113
 10
200.5733501228
 20
106.3262612474
 10
200.5848671209
 20
105.9370759328
 10
200.5916422849
 20
105.5676962035
 10
200.5926441576
 20
105.274356775
 10
200.5877202128
 20
105.1017159161
  0
LWPOLYLINE
  5
145
330
1F
100
AcDbEntity
  8
0
  6
HIDDEN
 62
     7
370
     0
100
AcDbPolyline
 90
       21
 70
   128
 43
0.0
 10
206.4382725337
 20
104.7810585685
 10
206.4266774535
 20
104.731841999
 10
206.4112251455
 20
104.8292010938
 10
206.3934281893
 20
105.0636056665
 10
206.375028675
 20
105.4121105643
 10
206.3578276752
 20
105.8406016996
 10
206.3435089436
 20
106.3071353747
 10
206.3334740974
 20
106.7660440228
 10
206.3287054174
 20
107.1724064682
 10
206.3296696951
 20
107.4864451233
 10
206.3362725403
 20
107.6774196965
 10
206.3478676205
 20
107.7266362661
 10
206.3633199285
 20
107.6292771713
 10
206.3811168847
 20
107.3948725986
 10
206.399516399
 20
107.0463677008
 10
206.4167173988
 20
106.6178765655
 10
206.4310361304
 20
106.1513428904
 10
206.4410709765
 20
105.6924342423
 10
206.4458396565
 20
105.2860717969
 10
206.4448753789
 20
104.9720331418
 10
206.4382725337
 20
104.7810585685
  0
LWPOLYLINE
  5
146
330
1F
100
AcDbEntity
  8
0
  6
HIDDEN
 62
     7
370
     0
100
AcDbPolyline
 90
       12
 70
   128
 43
0.0
 10
206.5845505062
 20
105.0161616107
 10
206.5798693968
 20
105.0193028177
 10
206.5654694489
 20
105.128719951
 10
206.5490944324
 20
105.3714181975
 10
206.5327194159
 20
105.7181245669
 10
206.5183194681
 20
106.1270211541
 10
206.5076314351
 20
106.548788996
 10
206.5019444515
 20
106.9325566664
 10
206.5019444515
 20
107.2320361203
 10
206.5076314351
 20
107.4111057157
 10
206.5183194681
 20
107.4481670167
 10
206.5196495706
 20
107.4436121106
  0
LINE
  5
147
330
1F
100
AcDbEntity
  8
0
  6
HIDDEN
 62
     7
370
     0
100
AcDbLine
 10
204.5800812217
 20
105.9544781505
 30
0.0
 11
204.5800812217
 21
105.3421057148
 31
0.0
  0
LINE
  5
148
330
1F
100
AcDbEntity
  8
0
  6
HIDDEN
 62
     7
370
     0
100
AcDbLine
 10
206.5785392942
 20
106.0099999144
 30
0.0
 11
206.5785392942
 21
105.3976274787
 31
0.0
  0
LINE
  5
149
330
1F
100
AcDbEntity
  8
0
  6
HIDDEN
 62
     7
370
     0
100
AcDbLine
 10
204.5800812217
 20
105.9544781505
 30
0.0
 11
206.5785392942
 21
106.0099999144
 31
0.0
  0
LINE
  5
14A
330
1F
100
AcDbEntity
  8
0
  6
HIDDEN
 62
     7
370
     0
100
AcDbLine
 10
204.5800812217
 20
105.9544781505
 30
0.0
 11
204.5506363599
 21
106.790585589
 31
0.0
  0
LINE
  5
14B
330
1F
100
AcDbEntity
  8
0
  6
HIDDEN
 62
     7
370
     0
100
AcDbLine
 10
206.5785392942
 20
106.0099999144
 30
0.0
 11
206.5490944324
 21
106.8461073529
 31
0.0
  0
LINE
  5
14C
330
1F
100
AcDbEntity
  8
0
  6
HIDDEN
 62
     7
370
     0
100
AcDbLine
 10
204.5506363599
 20
106.790585589
 30
0.0
 11
206.5490944324
 21
106.8461073529
 31
0.0
  0
LINE
  5
14D
330
1F
100
AcDbEntity
  8
0
  6
HIDDEN
 62
     7
370
     0
100
AcDbLine
 10
204.5506363599
 20
106.790585589
 30
0.0
 11
204.5211914981
 21
107.0143205917
 31
0.0
  0
LINE
  5
14E
330
1F
100
AcDbEntity
  8
0
  6
HIDDEN
 62
     7
370
     0
100
AcDbLine
 10
206.5490944324
 20
106.8461073529
 30
0.0
 11
206.5196495706
 21
107.0698423556
 31
0.0
  0
LINE
  5
14F
330
1F
100
AcDbEntity
  8
0
  6
HIDDEN
 62
     7
370
     0
100
AcDbLine
 10
204.5506363599
 20
105.5658407176
 30
0.0
 11
206.5490944324
 21
105.6213624815
 31
0.0
  0
LINE
  5
150
330
1F
100
AcDbEntity
  8
0
  6
HIDDEN
 62
     7
370
     0
100
AcDbLine
 10
204.5800812217
 20
105.3421057148
 30
0.0
 11
206.5785392942
 21
105.3976274787
 31
0.0
  0
LINE
  5
151
330
1F
100
AcDbEntity
  8
0
  6
HIDDEN
 62
     7
370
     0
100
AcDbLine
 10
204.5506363599
 20
105.5658407176
 30
0.0
 11
204.5800812217
 21
105.3421057148
 31
0.0
  0
LINE
  5
152
330
1F
100
AcDbEntity
  8
0
  6
HIDDEN
 62
     7
370
     0
100
AcDbLine
 10
206.5490944324
 20
105.6213624815
 30
0.0
 11
206.5785392942
 21
105.3976274787
 31
0.0
  0
LINE
  5
153
330
1F
100
AcDbEntity
  8
0
  6
HIDDEN
 62
     7
370
     0
100
AcDbLine
 10
204.5211914981
 20
106.401948156
 30
0.0
 11
206.5196495706
 21
106.4574699199
 31
0.0
  0
LINE
  5
154
330
1F
100
AcDbEntity
  8
0
  6
HIDDEN
 62
     7
370
     0
100
AcDbLine
 10
204.5211914981
 20
107.0143205917
 30
0.0
 11
206.5196495706
 21
107.0698423556
 31
0.0
  0
LINE
  5
155
330
1F
100
AcDbEntity
  8
0
  6
HIDDEN
 62
     7
370
     0
100
AcDbLine
 10
204.5211914981
 20
106.401948156
 30
0.0
 11
204.5211914981
 21
107.0143205917
 31
0.0
  0
LINE
  5
156
330
1F
100
AcDbEntity
  8
0
  6
HIDDEN
 62
     7
370
     0
100
AcDbLine
 10
204.5506363599
 20
105.5658407176
 30
0.0
 11
204.5211914981
 21
106.401948156
 31
0.0
  0
LINE
  5
157
330
1F
100
AcDbEntity
  8
0
  6
HIDDEN
 62
     7
370
     0
100
AcDbLine
 10
206.5490944324
 20
105.6213624815
 30
0.0
 11
206.5196495706
 21
106.4574699199
 31
0.0
  0
LWPOLYLINE
  5
158
330
1F
100
AcDbEntity
  8
0
  6
HIDDEN
 62
     7
370
     0
100
AcDbPolyline
 90
       14
 70
   128
 43
0.0
 10
206.5196495706
 20
127.2426019838
 10
206.5065797253
 20
127.1377397566
 10
206.4902047088
 20
126.89504151
 10
206.4738296923
 20
126.5483351407
 10
206.4594297444
 20
126.1394385535
 10
206.4487417115
 20
125.7176707115
 10
206.4430547279
 20
125.3339030412
 10
206.4430547279
 20
125.0344235873
 10
206.4487417115
 20
124.8553539919
 10
206.4594297444
 20
124.8182926909
 10
206.4738296923
 20
124.9277098242
 10
206.4902047088
 20
125.1704080707
 10
206.5065797253
 20
125.5171144401
 10
206.5196495706
 20
125.8826900382
  0
LWPOLYLINE
  5
159
330
1F
100
AcDbEntity
  8
0
  6
HIDDEN
 62
     7
370
     0
100
AcDbPolyline
 90
       21
 70
   128
 43
0.0
 10
206.37938281
 20
126.4247409672
 10
206.3859856552
 20
126.8533792664
 10
206.3869499329
 20
127.2021262663
 10
206.3821812529
 20
127.4368441807
 10
206.3721464067
 20
127.5345571849
 10
206.3578276752
 20
127.4857004492
 10
206.3406266753
 20
127.2950564112
 10
206.322227161
 20
126.9812866377
 10
206.3044302048
 20
126.5751051003
 10
206.2889778968
 20
126.1162716779
 10
206.2773828166
 20
125.6497001828
 10
206.2707799715
 20
125.2210618837
 10
206.2698156938
 20
124.8723148838
 10
206.2745843738
 20
124.6375969693
 10
206.2846192199
 20
124.5398839651
 10
206.2989379515
 20
124.5887407009
 10
206.3161389513
 20
124.7793847388
 10
206.3345384657
 20
125.0931545123
 10
206.3523354218
 20
125.4993360497
 10
206.3677877298
 20
125.9581694721
 10
206.37938281
 20
126.4247409672
  0
LWPOLYLINE
  5
15A
330
1F
100
AcDbEntity
  8
0
  6
HIDDEN
 62
     7
370
     0
100
AcDbPolyline
 90
       21
 70
   128
 43
0.0
 10
201.0454450061
 20
126.5729300333
 10
201.0520478513
 20
127.0015683325
 10
201.053012129
 20
127.3503153324
 10
201.048243449
 20
127.5850332468
 10
201.0382086028
 20
127.682746251
 10
201.0238898713
 20
127.6338895153
 10
201.0066888715
 20
127.4432454773
 10
200.9882893571
 20
127.1294757038
 10
200.9704924009
 20
126.7232941664
 10
200.955040093
 20
126.264460744
 10
200.9434450128
 20
125.7978892489
 10
200.9368421676
 20
125.3692509498
 10
200.9358778899
 20
125.0205039499
 10
200.9406465699
 20
124.7857860354
 10
200.950681416
 20
124.6880730312
 10
200.9650001476
 20
124.736929767
 10
200.9822011474
 20
124.9275738049
 10
201.0006006618
 20
125.2413435784
 10
201.0183976179
 20
125.6475251158
 10
201.0338499259
 20
126.1063585382
 10
201.0454450061
 20
126.5729300333
  0
LWPOLYLINE
  5
15B
330
1F
100
AcDbEntity
  8
0
  6
HIDDEN
 62
     7
370
     0
100
AcDbPolyline
 90
       17
 70
   128
 43
0.0
 10
200.5288304891
 20
126.4576370102
 10
200.5337544339
 20
126.8075110213
 10
200.5327525613
 20
127.0647889078
 10
200.5259773973
 20
127.190302444
 10
200.5144603992
 20
127.1649433315
 10
200.4999549256
 20
126.9925722656
 10
200.4846693033
 20
126.6994311783
 10
200.4709306298
 20
126.3301481429
 10
200.4608304935
 20
125.940943154
 10
200.4559065487
 20
125.5910691429
 10
200.4569084213
 20
125.3337912564
 10
200.4636835854
 20
125.2082777202
 10
200.4752005834
 20
125.2336368327
 10
200.4897060571
 20
125.4060078986
 10
200.5049916793
 20
125.6991489859
 10
200.5187303529
 20
126.0684320213
 10
200.5288304891
 20
126.4576370102
  0
LINE
  5
15C
330
1F
100
AcDbEntity
  8
0
  6
HIDDEN
 62
     7
370
     0
100
AcDbLine
 10
206.4902047088
 20
126.6450972261
 30
0.0
 11
206.4607598469
 21
125.8089897876
 31
0.0
  0
LINE
  5
15D
330
1F
100
AcDbEntity
  8
0
  6
HIDDEN
 62
     7
370
     0
100
AcDbLine
 10
206.4607598469
 20
125.1966173519
 30
0.0
 11
206.4607598469
 21
125.8089897876
 31
0.0
  0
LINE
  5
15E
330
1F
100
AcDbEntity
  8
0
  6
HIDDEN
 62
     7
370
     0
100
AcDbLine
 10
206.4902047088
 20
125.4203523547
 30
0.0
 11
206.4607598469
 21
125.1966173519
 31
0.0
  0
LINE
  5
15F
330
1F
100
AcDbEntity
  8
0
  6
HIDDEN
 62
     7
370
     0
100
AcDbLine
 10
206.4902047088
 20
125.4203523547
 30
0.0
 11
206.5196495706
 21
126.2564597932
 31
0.0
  0
LINE
  5
160
330
1F
100
AcDbEntity
  8
0
  6
HIDDEN
 62
     7
370
     0
100
AcDbLine
 10
206.5196495706
 20
126.8688322289
 30
0.0
 11
206.4902047088
 21
126.6450972261
 31
0.0
  0
LINE
  5
161
330
1F
100
AcDbEntity
  8
0
  6
HIDDEN
 62
     7
370
     0
100
AcDbLine
 10
204.4917466363
 20
125.4758741186
 30
0.0
 11
204.5211914981
 21
126.3119815571
 31
0.0
  0
LINE
  5
162
330
1F
100
AcDbEntity
  8
0
  6
HIDDEN
 62
     7
370
     0
100
AcDbLine
 10
204.4917466363
 20
125.4758741186
 30
0.0
 11
204.4623017745
 21
125.2521391158
 31
0.0
  0
LINE
  5
163
330
1F
100
AcDbEntity
  8
0
  6
HIDDEN
 62
     7
370
     0
100
AcDbLine
 10
204.4623017745
 20
125.2521391158
 30
0.0
 11
204.4623017745
 21
125.8645115515
 31
0.0
  0
LINE
  5
164
330
1F
100
AcDbEntity
  8
0
  6
HIDDEN
 62
     7
370
     0
100
AcDbLine
 10
204.5211914981
 20
126.9243539928
 30
0.0
 11
204.4917466363
 21
126.70061899
 31
0.0
  0
LINE
  5
165
330
1F
100
AcDbEntity
  8
0
  6
HIDDEN
 62
     7
370
     0
100
AcDbLine
 10
204.5211914981
 20
126.9243539928
 30
0.0
 11
204.5211914981
 21
126.3119815571
 31
0.0
  0
LINE
  5
166
330
1F
100
AcDbEntity
  8
0
  6
HIDDEN
 62
     7
370
     0
100
AcDbLine
 10
204.4917466363
 20
126.70061899
 30
0.0
 11
204.4623017745
 21
125.8645115515
 31
0.0
  0
LINE
  5
167
330
1F
100
AcDbEntity
  8
0
  6
HIDDEN
 62
     7
370
     0
100
AcDbLine
 10
204.4623017745
 20
125.8645115515
 30
0.0
 11
206.4607598469
 21
125.8089897876
 31
0.0
  0
LINE
  5
168
330
1F
100
AcDbEntity
  8
0
  6
HIDDEN
 62
     7
370
     0
100
AcDbLine
 10
204.4917466363
 20
126.70061899
 30
0.0
 11
206.4902047088
 21
126.6450972261
 31
0.0
  0
LINE
  5
169
330
1F
100
AcDbEntity
  8
0
  6
HIDDEN
 62
     7
370
     0
100
AcDbLine
 10
204.4917466363
 20
125.4758741186
 30
0.0
 11
206.4902047088
 21
125.4203523547
 31
0.0
  0
LINE
  5
16A
330
1F
100
AcDbEntity
  8
0
  6
HIDDEN
 62
     7
370
     0
100
AcDbLine
 10
204.4623017745
 20
125.2521391158
 30
0.0
 11
206.4607598469
 21
125.1966173519
 31
0.0
  0
LINE
  5
16B
330
1F
100
AcDbEntity
  8
0
  6
HIDDEN
 62
     7
370
     0
100
AcDbLine
 10
204.5211914981
 20
126.3119815571
 30
0.0
 11
206.5196495706
 21
126.2564597932
 31
0.0
  0
LINE
  5
16C
330
1F
100
AcDbEntity
  8
0
  6
HIDDEN
 62
     7
370
     0
100
AcDbLine
 10
204.5211914981
 20
126.9243539928
 30
0.0
 11
206.5196495706
 21
126.8688322289
 31
0.0
  0
LINE
  5
16D
330
1F
100
AcDbEntity
  8
0
  6
HIDDEN
 62
     7
370
     0
100
AcDbLine
 10
130.5196495706
 20
130.4302469575
 30
0.0
 11
130.5196495706
 21
128.5263524506
 31
0.0
  0
LINE
  5
16E
330
1F
100
AcDbEntity
  8
0
  6
HIDDEN
 62
     7
370
     0
100
AcDbLine
 10
138.5196495706
 20
128.5263524506
 30
0.0
 11
138.5196495706
 21
130.4330423135
 31
0.0
  0
LINE
  5
16F
330
1F
100
AcDbEntity
  8
0
  6
HIDDEN
 62
     7
370
     0
100
AcDbLine
 10
126.5196495706
 20
90.8084806618
 30
0.0
 11
126.6138103461
 21
91.478469393
 31
0.0
  0
LINE
  5
170
330
1F
100
AcDbEntity
  8
0
  6
HIDDEN
 62
     7
370
     0
100
AcDbLine
 10
126.6138103461
 20
140.7863542225
 30
0.0
 11
126.5196495706
 21
141.4563429537
 31
0.0
  0
ARC
  5
171
330
1F
100
AcDbEntity
  8
0
  6
HIDDEN
 62
     7
370
     0
100
AcDbCircle
 10
126.0196428179
 20
91.5619741934
 30
0.0
 40
0.6000067526677242
100
AcDbArc
 50
352.0
 51
0.0
  0
ARC
  5
172
330
1F
100
AcDbEntity
  8
0
  6
HIDDEN
 62
     7
370
     0
100
AcDbCircle
 10
126.0196428179
 20
91.5619741934
 30
0.0
 40
0.6000067526677242
100
AcDbArc
 50
0.0
 51
33.5571153394
  0
ARC
  5
173
330
1F
100
AcDbEntity
  8
0
  6
HIDDEN
 62
     7
370
     0
100
AcDbCircle
 10
126.0196428179
 20
140.7028494222
 30
0.0
 40
0.6000067526677222
100
AcDbArc
 50
348.75
 51
8.0
  0
LWPOLYLINE
  5
174
330
1F
100
AcDbEntity
  8
0
  6
HIDDEN
 62
     7
370
     0
100
AcDbPolyline
 90
        3
 70
   128
 43
0.0
 10
126.6081206091
 20
140.5857939116
 10
126.5739767761
 20
140.4732367786
 10
126.5196495706
 20
140.3711849071
  0
LINE
  5
175
330
1F
100
AcDbEntity
  8
0
  6
HIDDEN
 62
     7
370
     0
100
AcDbLine
 10
126.6196495706
 20
91.5619741934
 30
0.0
 11
126.6196495706
 21
140.7028494222
 31
0.0
  0
LINE
  5
176
330
1F
100
AcDbEntity
  8
0
  6
HIDDEN
 62
     7
370
     0
100
AcDbLine
 10
109.6020851359
 20
96.1324118078
 30
0.0
 11
113.7727669518
 21
96.1324118078
 31
0.0
  0
LINE
  5
177
330
1F
100
AcDbEntity
  8
0
  6
HIDDEN
 62
     7
370
     0
100
AcDbLine
 10
113.7796217122
 20
136.1324118078
 30
0.0
 11
109.6020851359
 21
136.1324118078
 31
0.0
  0
ARC
  5
178
330
1F
100
AcDbEntity
  8
0
  6
HIDDEN
 62
     7
370
     0
100
AcDbCircle
 10
109.6020851359
 20
96.7324118078
 30
0.0
 40
0.6000000000000085
100
AcDbArc
 50
210.0
 51
270.0
  0
ARC
  5
179
330
1F
100
AcDbEntity
  8
0
  6
HIDDEN
 62
     7
370
     0
100
AcDbCircle
 10
109.6020851359
 20
135.5324118078
 30
0.0
 40
0.5999999999999943
100
AcDbArc
 50
90.0
 51
150.0
  0
ARC
  5
17A
330
1F
100
AcDbEntity
  8
0
  6
HIDDEN
 62
     7
370
     0
100
AcDbCircle
 10
120.2746515722
 20
104.1324118078
 30
0.0
 40
8.000000000000004
100
AcDbArc
 50
277.1324855855
 51
321.3178125465
  0
ARC
  5
17B
330
1F
100
AcDbEntity
  8
0
  6
HIDDEN
 62
     7
370
     0
100
AcDbCircle
 10
120.2746515722
 20
128.1324118078
 30
0.0
 40
8.0
100
AcDbArc
 50
38.6821874535
 51
82.9418950986
  0
LINE
  5
17C
330
1F
100
AcDbEntity
  8
0
  6
HIDDEN
 62
     7
370
     0
100
AcDbLine
 10
109.0824698936
 20
135.8324118078
 30
0.0
 11
107.5236241668
 21
133.1324118078
 31
0.0
  0
LINE
  5
17D
330
1F
100
AcDbEntity
  8
0
  6
HIDDEN
 62
     7
370
     0
100
AcDbLine
 10
107.5236241668
 20
99.1324118078
 30
0.0
 11
109.0824698936
 21
96.4324118078
 31
0.0
  0
LINE
  5
17E
330
1F
100
AcDbEntity
  8
0
  6
HIDDEN
 62
     7
370
     0
100
AcDbLine
 10
130.5196495706
 20
143.406745667
 30
0.0
 11
130.5196495706
 21
140.0780142224
 31
0.0
  0
LINE
  5
17F
330
1F
100
AcDbEntity
  8
0
  6
HIDDEN
 62
     7
370
     0
100
AcDbLine
 10
138.5196495706
 20
140.0780142224
 30
0.0
 11
138.5196495706
 21
143.4120780457
 31
0.0
  0
ARC
  5
180
330
1F
100
AcDbEntity
  8
0
  6
HIDDEN
 62
     7
370
     0
100
AcDbCircle
 10
134.9696495706
 20
100.4074118078
 30
0.0
 40
1.500000000000001
100
AcDbArc
 50
238.2116693829
 51
0.0
  0
ARC
  5
181
330
1F
100
AcDbEntity
  8
0
  6
HIDDEN
 62
     7
370
     0
100
AcDbCircle
 10
134.9696495706
 20
131.8574118078
 30
0.0
 40
1.500000000000001
100
AcDbArc
 50
0.0
 51
121.7883306171
  0
LINE
  5
182
330
1F
100
AcDbEntity
  8
0
  6
HIDDEN
 62
     7
370
     0
100
AcDbLine
 10
126.5196495706
 20
99.1324118078
 30
0.0
 11
134.1794755391
 21
99.1324118078
 31
0.0
  0
LINE
  5
183
330
1F
100
AcDbEntity
  8
0
  6
HIDDEN
 62
     7
370
     0
100
AcDbLine
 10
134.1794755391
 20
133.1324118078
 30
0.0
 11
126.5196495706
 21
133.1324118078
 31
0.0
  0
LINE
  5
184
330
1F
100
AcDbEntity
  8
0
  6
HIDDEN
 62
     7
370
     0
100
AcDbLine
 10
104.7196495706
 20
99.1324118078
 30
0.0
 11
107.5236241668
 21
99.1324118078
 31
0.0
  0
LINE
  5
185
330
1F
100
AcDbEntity
  8
0
  6
HIDDEN
 62
     7
370
     0
100
AcDbLine
 10
107.5236241668
 20
133.1324118078
 30
0.0
 11
100.7196495706
 21
133.1324118078
 31
0.0
  0
LINE
  5
186
330
1F
100
AcDbEntity
  8
0
  6
HIDDEN
 62
     7
370
     0
100
AcDbLine
 10
161.0196495706
 20
105.8449676871
 30
0.0
 11
161.0196495706
 21
109.6378927956
 31
0.0
  0
LINE
  5
187
330
1F
100
AcDbEntity
  8
0
  6
HIDDEN
 62
     7
370
     0
100
AcDbLine
 10
161.0196495706
 20
103.8287538151
 30
0.0
 11
161.0196495706
 21
104.0927715379
 31
0.0
  0
LINE
  5
188
330
1F
100
AcDbEntity
  8
0
  6
HIDDEN
 62
     7
370
     0
100
AcDbLine
 10
158.0196495706
 20
104.6507221966
 30
0.0
 11
158.0196495706
 21
103.8287538151
 31
0.0
  0
LINE
  5
189
330
1F
100
AcDbEntity
  8
0
  6
HIDDEN
 62
     7
370
     0
100
AcDbLine
 10
158.0196495706
 20
109.5573985299
 30
0.0
 11
158.0196495706
 21
105.1547087644
 31
0.0
  0
LINE
  5
18A
330
1F
100
AcDbEntity
  8
0
  6
HIDDEN
 62
     7
370
     0
100
AcDbLine
 10
160.7318181016
 20
103.7103432335
 30
0.0
 11
206.5196495706
 21
104.982434554
 31
0.0
  0
LINE
  5
18B
330
1F
100
AcDbEntity
  8
0
  6
HIDDEN
 62
     7
370
     0
100
AcDbLine
 10
206.5196495706
 20
107.4833991883
 30
0.0
 11
160.730405789
 21
106.2112686304
 31
0.0
  0
LINE
  5
18C
330
1F
100
AcDbEntity
  8
0
  6
HIDDEN
 62
     7
370
     0
100
AcDbLine
 10
158.0434578667
 20
105.3011662613
 30
0.0
 11
157.8061591095
 21
104.8795440116
 31
0.0
  0
LINE
  5
18D
330
1F
100
AcDbEntity
  8
0
  6
HIDDEN
 62
     7
370
     0
100
AcDbLine
 10
157.8061591095
 20
104.8795440116
 30
0.0
 11
158.0444147238
 21
104.506343109
 31
0.0
  0
LINE
  5
18E
330
1F
100
AcDbEntity
  8
0
  6
HIDDEN
 62
     7
370
     0
100
AcDbLine
 10
145.3196495706
 20
106.6324118078
 30
0.0
 11
148.3196495706
 21
106.6324118078
 31
0.0
  0
LINE
  5
18F
330
1F
100
AcDbEntity
  8
0
  6
HIDDEN
 62
     7
370
     0
100
AcDbLine
 10
148.3196495706
 20
125.6324118078
 30
0.0
 11
145.3196495706
 21
125.6324118078
 31
0.0
  0
LINE
  5
190
330
1F
100
AcDbEntity
  8
0
  6
HIDDEN
 62
     7
370
     0
100
AcDbLine
 10
157.9196495706
 20
106.8324118078
 30
0.0
 11
160.6248755525
 21
106.8324118078
 31
0.0
  0
LINE
  5
191
330
1F
100
AcDbEntity
  8
0
  6
HIDDEN
 62
     7
370
     0
100
AcDbLine
 10
160.6248755525
 20
125.4324118078
 30
0.0
 11
157.9196495706
 21
125.4324118078
 31
0.0
  0
ARC
  5
192
330
1F
100
AcDbEntity
  8
0
  6
HIDDEN
 62
     7
370
     0
100
AcDbCircle
 10
160.6248755525
 20
125.0324118078
 30
0.0
 40
0.4000000000000199
100
AcDbArc
 50
70.0
 51
90.0
  0
ARC
  5
193
330
1F
100
AcDbEntity
  8
0
  6
HIDDEN
 62
     7
370
     0
100
AcDbCircle
 10
206.2196495706
 20
106.8324118078
 30
0.0
 40
0.3000000000000114
100
AcDbArc
 50
0.0
 51
90.0
  0
ARC
  5
194
330
1F
100
AcDbEntity
  8
0
  6
HIDDEN
 62
     7
370
     0
100
AcDbCircle
 10
206.2196495706
 20
125.4324118078
 30
0.0
 40
0.3000000000000114
100
AcDbArc
 50
270.0
 51
0.0
  0
ARC
  5
195
330
1F
100
AcDbEntity
  8
0
  6
HIDDEN
 62
     7
370
     0
100
AcDbCircle
 10
157.9196495706
 20
107.2324118078
 30
0.0
 40
0.4000000000000057
100
AcDbArc
 50
180.0
 51
270.0
  0
ARC
  5
196
330
1F
100
AcDbEntity
  8
0
  6
HIDDEN
 62
     7
370
     0
100
AcDbCircle
 10
157.9196495706
 20
125.0324118078
 30
0.0
 40
0.4000000000000199
100
AcDbArc
 50
90.0
 51
180.0
  0
LINE
  5
197
330
1F
100
AcDbEntity
  8
0
  6
HIDDEN
 62
     7
370
     0
100
AcDbLine
 10
160.7616836098
 20
106.8565347594
 30
0.0
 11
161.5196495706
 21
107.1324118078
 31
0.0
  0
LINE
  5
198
330
1F
100
AcDbEntity
  8
0
  6
HIDDEN
 62
     7
370
     0
100
AcDbLine
 10
161.5196495706
 20
125.1324118078
 30
0.0
 11
160.7616836098
 21
125.4082888561
 31
0.0
  0
LINE
  5
199
330
1F
100
AcDbEntity
  8
0
  6
HIDDEN
 62
     7
370
     0
100
AcDbLine
 10
136.4696495706
 20
107.1324118078
 30
0.0
 11
136.9696495706
 21
107.6324118078
 31
0.0
  0
LINE
  5
19A
330
1F
100
AcDbEntity
  8
0
  6
HIDDEN
 62
     7
370
     0
100
AcDbLine
 10
136.9696495706
 20
124.6324118078
 30
0.0
 11
136.4696495706
 21
125.1324118078
 31
0.0
  0
LINE
  5
19B
330
1F
100
AcDbEntity
  8
0
  6
HIDDEN
 62
     7
370
     0
100
AcDbLine
 10
161.5196495706
 20
107.1324118078
 30
0.0
 11
206.2196495706
 21
107.1324118078
 31
0.0
  0
LINE
  5
19C
330
1F
100
AcDbEntity
  8
0
  6
HIDDEN
 62
     7
370
     0
100
AcDbLine
 10
206.2196495706
 20
125.1324118078
 30
0.0
 11
161.5196495706
 21
125.1324118078
 31
0.0
  0
LINE
  5
19D
330
1F
100
AcDbEntity
  8
0
  6
HIDDEN
 62
     7
370
     0
100
AcDbLine
 10
136.9696495706
 20
107.6324118078
 30
0.0
 11
145.3196495706
 21
107.6324118078
 31
0.0
  0
LINE
  5
19E
330
1F
100
AcDbEntity
  8
0
  6
HIDDEN
 62
     7
370
     0
100
AcDbLine
 10
145.3196495706
 20
124.6324118078
 30
0.0
 11
136.9696495706
 21
124.6324118078
 31
0.0
  0
LINE
  5
19F
330
1F
100
AcDbEntity
  8
0
  6
HIDDEN
 62
     7
370
     0
100
AcDbLine
 10
131.4696495706
 20
147.6324118078
 30
0.0
 11
131.4696495706
 21
142.5324118078
 31
0.0
  0
ARC
  5
1A0
330
1F
100
AcDbEntity
  8
0
  6
HIDDEN
 62
     7
370
     0
100
AcDbCircle
 10
160.6248755525
 20
107.2324118078
 30
0.0
 40
0.3999999999999977
100
AcDbArc
 50
270.0
 51
290.0
  0
LINE
  5
1A1
330
1F
100
AcDbEntity
  8
0
  6
HIDDEN
 62
     7
370
     0
100
AcDbLine
 10
121.7040874011
 20
92.0530404742
 30
0.0
 11
121.2696552516
 21
92.5321064933
 31
0.0
  0
LINE
  5
1A2
330
1F
100
AcDbEntity
  8
0
  6
HIDDEN
 62
     7
370
     0
100
AcDbLine
 10
113.7696519265
 20
92.9537944524
 30
0.0
 11
113.2872181832
 21
92.474728477
 31
0.0
  0
LINE
  5
1A3
330
1F
100
AcDbEntity
  8
0
  6
HIDDEN
 62
     7
370
     0
100
AcDbLine
 10
113.2870962549
 20
139.7900898481
 30
0.0
 11
113.7696470059
 21
139.3109695902
 31
0.0
  0
LINE
  5
1A4
330
1F
100
AcDbEntity
  8
0
  6
HIDDEN
 62
     7
370
     0
100
AcDbLine
 10
121.2696494526
 20
139.7326673679
 30
0.0
 11
121.7041918429
 21
140.2117876184
 31
0.0
  0
LINE
  5
1A5
330
1F
100
AcDbEntity
  8
0
  6
HIDDEN
 62
     7
370
     0
100
AcDbLine
 10
148.3196495706
 20
111.8824118078
 30
0.0
 11
157.5196495706
 21
111.8824118078
 31
0.0
  0
LINE
  5
1A6
330
1F
100
AcDbEntity
  8
0
  6
HIDDEN
 62
     7
370
     0
100
AcDbLine
 10
157.5196495706
 20
120.3824118078
 30
0.0
 11
148.3196495706
 21
120.3824118078
 31
0.0
  0
LINE
  5
1A7
330
1F
100
AcDbEntity
  8
0
  6
HIDDEN
 62
     7
370
     0
100
AcDbLine
 10
121.2696495706
 20
136.0694846338
 30
0.0
 11
121.2696495706
 21
139.7323760618
 31
0.0
  0
LINE
  5
1A8
330
1F
100
AcDbEntity
  8
0
  6
HIDDEN
 62
     7
370
     0
100
AcDbLine
 10
113.7696495706
 20
139.3108258109
 30
0.0
 11
113.7696495706
 21
136.1305495622
 31
0.0
  0
LINE
  5
1A9
330
1F
100
AcDbEntity
  8
0
  6
HIDDEN
 62
     7
370
     0
100
AcDbLine
 10
121.2696495706
 20
92.532590395
 30
0.0
 11
121.2696495706
 21
96.1945756171
 31
0.0
  0
LINE
  5
1AA
330
1F
100
AcDbEntity
  8
0
  6
HIDDEN
 62
     7
370
     0
100
AcDbLine
 10
113.7696495706
 20
96.132996069
 30
0.0
 11
113.7696495706
 21
92.9541176902
 31
0.0
  0
LINE
  5
1AB
330
1F
100
AcDbEntity
  8
0
  6
HIDDEN
 62
     7
370
     0
100
AcDbLine
 10
166.9696495706
 20
92.1324118078
 30
0.0
 11
165.9696495706
 21
92.7097620769
 31
0.0
  0
LINE
  5
1AC
330
1F
100
AcDbEntity
  8
0
  6
HIDDEN
 62
     7
370
     0
100
AcDbLine
 10
160.9696495706
 20
92.7097620769
 30
0.0
 11
159.9696495706
 21
92.1324118078
 31
0.0
  0
LINE
  5
1AD
330
1F
100
AcDbEntity
  8
0
  6
HIDDEN
 62
     7
370
     0
100
AcDbLine
 10
159.9696495706
 20
140.1324118078
 30
0.0
 11
160.9696495706
 21
139.5550615386
 31
0.0
  0
LINE
  5
1AE
330
1F
100
AcDbEntity
  8
0
  6
HIDDEN
 62
     7
370
     0
100
AcDbLine
 10
165.9696495706
 20
139.5550615386
 30
0.0
 11
166.9696495706
 21
140.1324118078
 31
0.0
  0
LINE
  5
1AF
330
1F
100
AcDbEntity
  8
0
  6
HIDDEN
 62
     7
370
     0
100
AcDbLine
 10
160.9696495706
 20
139.5550615386
 30
0.0
 11
160.9696495706
 21
128.1324118078
 31
0.0
  0
LINE
  5
1B0
330
1F
100
AcDbEntity
  8
0
  6
HIDDEN
 62
     7
370
     0
100
AcDbLine
 10
165.9696495706
 20
128.1324118078
 30
0.0
 11
165.9696495706
 21
139.5550615386
 31
0.0
  0
LINE
  5
1B1
330
1F
100
AcDbEntity
  8
0
  6
HIDDEN
 62
     7
370
     0
100
AcDbLine
 10
160.9696495706
 20
128.1324118078
 30
0.0
 11
163.3637259769
 21
126.6939055763
 31
0.0
  0
LINE
  5
1B2
330
1F
100
AcDbEntity
  8
0
  6
HIDDEN
 62
     7
370
     0
100
AcDbLine
 10
163.5763224484
 20
126.6943557916
 30
0.0
 11
165.9696495706
 21
128.1324118078
 31
0.0
  0
LINE
  5
1B3
330
1F
100
AcDbEntity
  8
0
  6
HIDDEN
 62
     7
370
     0
100
AcDbLine
 10
165.9696495706
 20
92.7097620769
 30
0.0
 11
165.9696495706
 21
104.1324118078
 31
0.0
  0
LINE
  5
1B4
330
1F
100
AcDbEntity
  8
0
  6
HIDDEN
 62
     7
370
     0
100
AcDbLine
 10
160.9696495706
 20
104.1324118078
 30
0.0
 11
160.9696495706
 21
92.7097620769
 31
0.0
  0
LINE
  5
1B5
330
1F
100
AcDbEntity
  8
0
  6
HIDDEN
 62
     7
370
     0
100
AcDbLine
 10
165.9696495706
 20
104.1324118078
 30
0.0
 11
163.5756655881
 21
105.5708625054
 31
0.0
  0
LINE
  5
1B6
330
1F
100
AcDbEntity
  8
0
  6
HIDDEN
 62
     7
370
     0
100
AcDbLine
 10
163.3626878537
 20
105.5702942719
 30
0.0
 11
160.9696495706
 21
104.1324118078
 31
0.0
  0
LINE
  5
1B7
330
1F
100
AcDbEntity
  8
0
  6
HIDDEN
 62
     7
370
     0
100
AcDbLine
 10
163.5762130077
 20
126.6945382009
 30
0.0
 11
163.3640981974
 21
126.6945382009
 31
0.0
  0
LINE
  5
1B8
330
1F
100
AcDbEntity
  8
0
  6
HIDDEN
 62
     7
370
     0
100
AcDbLine
 10
163.3626932079
 20
105.5702854146
 30
0.0
 11
163.5753252201
 21
105.5702854146
 31
0.0
  0
LINE
  5
1B9
330
1F
100
AcDbEntity
  8
0
  6
HIDDEN
 62
     7
370
     0
100
AcDbLine
 10
161.0196495706
 20
122.62693082
 30
0.0
 11
161.0196495706
 21
126.4130278639
 31
0.0
  0
LINE
  5
1BA
330
1F
100
AcDbEntity
  8
0
  6
HIDDEN
 62
     7
370
     0
100
AcDbLine
 10
158.0196495706
 20
127.1125037054
 30
0.0
 11
158.0196495706
 21
122.7074250856
 31
0.0
  0
LINE
  5
1BB
330
1F
100
AcDbEntity
  8
0
  6
HIDDEN
 62
     7
370
     0
100
AcDbLine
 10
158.0196495706
 20
128.1532270879
 30
0.0
 11
158.0196495706
 21
127.6107783523
 31
0.0
  0
LINE
  5
1BC
330
1F
100
AcDbEntity
  8
0
  6
HIDDEN
 62
     7
370
     0
100
AcDbLine
 10
160.7312529714
 20
126.0535314484
 30
0.0
 11
206.5196495706
 21
124.7814244273
 31
0.0
  0
LINE
  5
1BD
330
1F
100
AcDbEntity
  8
0
  6
HIDDEN
 62
     7
370
     0
100
AcDbLine
 10
206.5196495706
 20
127.2823890615
 30
0.0
 11
160.7303804377
 21
128.5545203236
 31
0.0
  0
LINE
  5
1BE
330
1F
100
AcDbEntity
  8
0
  6
HIDDEN
 62
     7
370
     0
100
AcDbLine
 10
158.0464032145
 20
127.7615952559
 30
0.0
 11
157.8061591095
 21
127.3852796039
 31
0.0
  0
LINE
  5
1BF
330
1F
100
AcDbEntity
  8
0
  6
HIDDEN
 62
     7
370
     0
100
AcDbLine
 10
157.8061591095
 20
127.3852796039
 30
0.0
 11
158.0437305487
 21
126.9631728644
 31
0.0
  0
LINE
  5
1C0
330
1F
100
AcDbEntity
  8
0
  6
HIDDEN
 62
     7
370
     0
100
AcDbLine
 10
201.010537423
 20
107.5798610587
 30
0.0
 11
200.5251886749
 21
107.0663769536
 31
0.0
  0
LINE
  5
1C1
330
1F
100
AcDbEntity
  8
0
  6
HIDDEN
 62
     7
370
     0
100
AcDbLine
 10
200.5807104223
 20
105.0679194755
 30
0.0
 11
201.0938200441
 21
104.5821748415
 31
0.0
  0
LINE
  5
1C2
330
1F
100
AcDbEntity
  8
0
  6
HIDDEN
 62
     7
370
     0
100
AcDbLine
 10
206.345615159
 20
107.7286605753
 30
0.0
 11
201.0116773551
 21
107.5804715091
 31
0.0
  0
LINE
  5
1C3
330
1F
100
AcDbEntity
  8
0
  6
HIDDEN
 62
     7
370
     0
100
AcDbLine
 10
201.0949921111
 20
104.5816286237
 30
0.0
 11
206.428929915
 21
104.7298176898
 31
0.0
  0
LINE
  5
1C4
330
1F
100
AcDbEntity
  8
0
  6
HIDDEN
 62
     7
370
     0
100
AcDbLine
 10
206.4308839439
 20
104.7316089893
 30
0.0
 11
206.5196495706
 21
104.8959810647
 31
0.0
  0
LINE
  5
1C5
330
1F
100
AcDbEntity
  8
0
  6
HIDDEN
 62
     7
370
     0
100
AcDbLine
 10
206.5168940169
 20
107.4513986733
 30
0.0
 11
206.3476656298
 21
107.72698053
 31
0.0
  0
LINE
  5
1C6
330
1F
100
AcDbEntity
  8
0
  6
HIDDEN
 62
     7
370
     0
100
AcDbLine
 10
206.2887759062
 20
124.5394791776
 30
0.0
 11
206.4580042933
 21
124.8150610343
 31
0.0
  0
LINE
  5
1C7
330
1F
100
AcDbEntity
  8
0
  6
HIDDEN
 62
     7
370
     0
100
AcDbLine
 10
206.5196495706
 20
127.2614293807
 30
0.0
 11
206.3719942202
 21
127.5348507182
 31
0.0
  0
LINE
  5
1C8
330
1F
100
AcDbEntity
  8
0
  6
HIDDEN
 62
     7
370
     0
100
AcDbLine
 10
206.3700401913
 20
127.5366420177
 30
0.0
 11
201.0361023874
 21
127.6848310838
 31
0.0
  0
LINE
  5
1C9
330
1F
100
AcDbEntity
  8
0
  6
HIDDEN
 62
     7
370
     0
100
AcDbLine
 10
200.9527876314
 20
124.6859881984
 30
0.0
 11
206.2867254353
 21
124.5377991323
 31
0.0
  0
LINE
  5
1CA
330
1F
100
AcDbEntity
  8
0
  6
HIDDEN
 62
     7
370
     0
100
AcDbLine
 10
201.0349303205
 20
127.684284866
 30
0.0
 11
200.5218206987
 21
127.198540232
 31
0.0
  0
LINE
  5
1CB
330
1F
100
AcDbEntity
  8
0
  6
HIDDEN
 62
     7
370
     0
100
AcDbLine
 10
200.4662989513
 20
125.2000827539
 30
0.0
 11
200.9516476994
 21
124.6865986489
 31
0.0
  0
DIMENSION
  5
1CC
330
1F
100
AcDbEntity
  8
VERMASSUNG
100
AcDbDimension
  2
*D1
 10
90.8409986837
 20
84.6324118078
 30
0.0
 11
90.8409986837
 21
116.1324118078
 31
0.0
 70
   160
  1
HSK A %%c<>
 71
     2
 42
-1.0
  3
SLDDIMSTYLE0
100
AcDbAlignedDimension
 13
126.8196495706
 23
147.6324118078
 33
0.0
 14
126.8196495706
 24
84.6324118078
 34
0.0
 50
90.0
100
AcDbRotatedDimension
  0
DIMENSION
  5
1D9
330
1F
100
AcDbEntity
  8
VERMASSUNG
100
AcDbDimension
  2
*D2
 10
215.9904266305
 20
107.1324118078
 30
0.0
 11
215.9904266305
 21
116.1324118078
 31
0.0
 70
   160
  1
%%c<>
 71
     2
 42
-1.0
  3
SLDDIMSTYLE0
100
AcDbAlignedDimension
 13
206.2196495706
 23
125.1324118078
 33
0.0
 14
206.2196495706
 24
107.1324118078
 34
0.0
 50
90.0
100
AcDbRotatedDimension
  0
DIMENSION
  5
1E4
330
1F
100
AcDbEntity
  8
VERMASSUNG
100
AcDbDimension
  2
*D3
 10
206.5196495706
 20
156.1374864572
 30
0.0
 11
166.5196495706
 21
156.1374864572
 31
0.0
 70
   160
 71
     2
 42
-1.0
  3
SLDDIMSTYLE0
100
AcDbAlignedDimension
 13
126.5196495706
 23
147.3324118078
 33
0.0
 14
206.5196495706
 24
133.8582712861
 34
0.0
100
AcDbRotatedDimension
  0
DIMENSION
  5
1EE
330
1F
100
AcDbEntity
  8
VERMASSUNG
100
AcDbDimension
  2
*D4
 10
206.5196495706
 20
150.1374864572
 30
0.0
 11
179.4946495706
 21
150.1374864572
 31
0.0
 70
   160
 71
     2
 42
-1.0
  3
SLDDIMSTYLE0
100
AcDbAlignedDimension
 13
152.4696495706
 23
145.9788521315
 33
0.0
 14
206.5196495706
 24
133.8582712861
 34
0.0
100
AcDbRotatedDimension
  0
DIMENSION
  5
1F8
330
1F
100
AcDbEntity
  8
VERMASSUNG
100
AcDbDimension
  2
*D5
 10
206.5196495706
 20
162.1374864572
 30
0.0
 11
150.5696495706
 21
162.1374864572
 31
0.0
 70
   160
 71
     2
 42
-1.0
  3
SLDDIMSTYLE0
100
AcDbAlignedDimension
 13
94.6196495706
 23
135.8230895542
 33
0.0
 14
206.5196495706
 24
133.8582712861
 34
0.0
100
AcDbRotatedDimension
  0
DIMENSION
  5
202
330
1F
100
AcDbEntity
  8
VERMASSUNG
100
AcDbDimension
  2
*D6
 10
221.9904266305
 20
92.1324118078
 30
0.0
 11
221.9904266305
 21
116.1324118078
 31
0.0
 70
   160
  1
%%c<>
 71
     2
 42
-1.0
  3
SLDDIMSTYLE0
100
AcDbAlignedDimension
 13
195.797114968
 23
140.1324118078
 33
0.0
 14
195.797114968
 24
92.1324118078
 34
0.0
 50
90.0
100
AcDbRotatedDimension
  0
LINE
  5
20D
330
1F
100
AcDbEntity
  8
VERMASSUNG
  6
CENTERX2
370
     0
100
AcDbLine
 10
92.9987487042
 20
116.1324118078
 30
0.0
 11
207.6410022253
 21
116.1324118078
 31
0.0
  0
OLE2FRAME
  5
20E
330
1F
100
AcDbEntity
  8
0
100
AcDbOle2Frame
 70
     2
  3
Bitmap Image
 10
13.8511154363
 20
38.264191557
 30
0.0
 11
51.6290888628
 21
31.9806341108
 31
0.0
 71
     2
 72
     0
 73
     1
 90
    12928
310
80552BED0767C5B32B40DDAF6807D121434000000000000000006FFBDDFB85D0
310
4940DDAF6807D121434000000000000000006FFBDDFB85D04940416F4BD60AFB
310
3F4000000000000000002BED0767C5B32B40416F4BD60AFB3F40000000000000
310
0000000000000100000000010000010000000100000000000100000000320000
310
D0CF11E0A1B11AE1000000000000000000000000000000003E000300FEFF0900
310
0600000000000000000000000100000001000000000000000010000002000000
310
01000000FEFFFFFF0000000000000000FFFFFFFFFFFFFFFFFFFFFFFFFFFFFFFF
310
FFFFFFFFFFFFFFFFFFFFFFFFFFFFFFFFFFFFFFFFFFFFFFFFFFFFFFFFFFFFFFFF
310
FFFFFFFFFFFFFFFFFFFFFFFFFFFFFFFFFFFFFFFFFFFFFFFFFFFFFFFFFFFFFFFF
310
FFFFFFFFFFFFFFFFFFFFFFFFFFFFFFFFFFFFFFFFFFFFFFFFFFFFFFFFFFFFFFFF
310
FFFFFFFFFFFFFFFFFFFFFFFFFFFFFFFFFFFFFFFFFFFFFFFFFFFFFFFFFFFFFFFF
310
FFFFFFFFFFFFFFFFFFFFFFFFFFFFFFFFFFFFFFFFFFFFFFFFFFFFFFFFFFFFFFFF
310
FFFFFFFFFFFFFFFFFFFFFFFFFFFFFFFFFFFFFFFFFFFFFFFFFFFFFFFFFFFFFFFF
310
FFFFFFFFFFFFFFFFFFFFFFFFFFFFFFFFFFFFFFFFFFFFFFFFFFFFFFFFFFFFFFFF
310
FFFFFFFFFFFFFFFFFFFFFFFFFFFFFFFFFFFFFFFFFFFFFFFFFFFFFFFFFFFFFFFF
310
FFFFFFFFFFFFFFFFFFFFFFFFFFFFFFFFFFFFFFFFFFFFFFFFFFFFFFFFFFFFFFFF
310
FFFFFFFFFFFFFFFFFFFFFFFFFFFFFFFFFFFFFFFFFFFFFFFFFFFFFFFFFFFFFFFF
310
FFFFFFFFFFFFFFFFFFFFFFFFFFFFFFFFFFFFFFFFFFFFFFFFFFFFFFFFFFFFFFFF
310
FFFFFFFFFFFFFFFFFFFFFFFFFFFFFFFFFFFFFFFFFFFFFFFFFFFFFFFFFFFFFFFF
310
FFFFFFFFFFFFFFFFFFFFFFFFFFFFFFFFFFFFFFFFFFFFFFFFFFFFFFFFFFFFFFFF
310
FDFFFFFFFEFFFFFFFEFFFFFFFEFFFFFF05000000060000000700000008000000
310
090000000A0000000B0000000C0000000D0000000E0000000F00000010000000
310
11000000120000001300000014000000150000001600000017000000FEFFFFFF
310
FFFFFFFFFFFFFFFFFFFFFFFFFFFFFFFFFFFFFFFFFFFFFFFFFFFFFFFFFFFFFFFF
310
FFFFFFFFFFFFFFFFFFFFFFFFFFFFFFFFFFFFFFFFFFFFFFFFFFFFFFFFFFFFFFFF
310
FFFFFFFFFFFFFFFFFFFFFFFFFFFFFFFFFFFFFFFFFFFFFFFFFFFFFFFFFFFFFFFF
310
FFFFFFFFFFFFFFFFFFFFFFFFFFFFFFFFFFFFFFFFFFFFFFFFFFFFFFFFFFFFFFFF
310
FFFFFFFFFFFFFFFFFFFFFFFFFFFFFFFFFFFFFFFFFFFFFFFFFFFFFFFFFFFFFFFF
310
FFFFFFFFFFFFFFFFFFFFFFFFFFFFFFFFFFFFFFFFFFFFFFFFFFFFFFFFFFFFFFFF
310
FFFFFFFFFFFFFFFFFFFFFFFFFFFFFFFFFFFFFFFFFFFFFFFFFFFFFFFFFFFFFFFF
310
FFFFFFFFFFFFFFFFFFFFFFFFFFFFFFFFFFFFFFFFFFFFFFFFFFFFFFFFFFFFFFFF
310
FFFFFFFFFFFFFFFFFFFFFFFFFFFFFFFFFFFFFFFFFFFFFFFFFFFFFFFFFFFFFFFF
310
FFFFFFFFFFFFFFFFFFFFFFFFFFFFFFFFFFFFFFFFFFFFFFFFFFFFFFFFFFFFFFFF
310
FFFFFFFFFFFFFFFFFFFFFFFFFFFFFFFFFFFFFFFFFFFFFFFFFFFFFFFFFFFFFFFF
310
FFFFFFFFFFFFFFFFFFFFFFFFFFFFFFFFFFFFFFFFFFFFFFFFFFFFFFFFFFFFFFFF
310
FFFFFFFFFFFFFFFFFFFFFFFFFFFFFFFFFFFFFFFFFFFFFFFFFFFFFFFFFFFFFFFF
310
52006F006F007400200045006E00740072007900000000000000000000000000
310
0000000000000000000000000000000000000000000000000000000000000000
310
16000500FFFFFFFFFFFFFFFF020000000A00030000000000C000000000000046
310
000000000000000000000000C017020AF9FFCB0103000000C000000000000000
310
01004F006C006500000000000000000000000000000000000000000000000000
310
0000000000000000000000000000000000000000000000000000000000000000
310
0A000200FFFFFFFFFFFFFFFFFFFFFFFF00000000000000000000000000000000
310
0000000000000000000000000000000000000000000000001400000000000000
310
010043006F006D0070004F0062006A0000000000000000000000000000000000
310
0000000000000000000000000000000000000000000000000000000000000000
310
120002010100000003000000FFFFFFFF00000000000000000000000000000000
310
0000000000000000000000000000000000000000010000004D00000000000000
310
01004F006C006500310030004E00610074006900760065000000000000000000
310
0000000000000000000000000000000000000000000000000000000000000000
310
1A000200FFFFFFFFFFFFFFFFFFFFFFFF00000000000000000000000000000000
310
0000000000000000000000000000000000000000040000002426000000000000
310
FEFFFFFF02000000FEFFFFFFFFFFFFFFFFFFFFFFFFFFFFFFFFFFFFFFFFFFFFFF
310
FFFFFFFFFFFFFFFFFFFFFFFFFFFFFFFFFFFFFFFFFFFFFFFFFFFFFFFFFFFFFFFF
310
FFFFFFFFFFFFFFFFFFFFFFFFFFFFFFFFFFFFFFFFFFFFFFFFFFFFFFFFFFFFFFFF
310
FFFFFFFFFFFFFFFFFFFFFFFFFFFFFFFFFFFFFFFFFFFFFFFFFFFFFFFFFFFFFFFF
310
FFFFFFFFFFFFFFFFFFFFFFFFFFFFFFFFFFFFFFFFFFFFFFFFFFFFFFFFFFFFFFFF
310
FFFFFFFFFFFFFFFFFFFFFFFFFFFFFFFFFFFFFFFFFFFFFFFFFFFFFFFFFFFFFFFF
310
FFFFFFFFFFFFFFFFFFFFFFFFFFFFFFFFFFFFFFFFFFFFFFFFFFFFFFFFFFFFFFFF
310
FFFFFFFFFFFFFFFFFFFFFFFFFFFFFFFFFFFFFFFFFFFFFFFFFFFFFFFFFFFFFFFF
310
FFFFFFFFFFFFFFFFFFFFFFFFFFFFFFFFFFFFFFFFFFFFFFFFFFFFFFFFFFFFFFFF
310
FFFFFFFFFFFFFFFFFFFFFFFFFFFFFFFFFFFFFFFFFFFFFFFFFFFFFFFFFFFFFFFF
310
FFFFFFFFFFFFFFFFFFFFFFFFFFFFFFFFFFFFFFFFFFFFFFFFFFFFFFFFFFFFFFFF
310
FFFFFFFFFFFFFFFFFFFFFFFFFFFFFFFFFFFFFFFFFFFFFFFFFFFFFFFFFFFFFFFF
310
FFFFFFFFFFFFFFFFFFFFFFFFFFFFFFFFFFFFFFFFFFFFFFFFFFFFFFFFFFFFFFFF
310
FFFFFFFFFFFFFFFFFFFFFFFFFFFFFFFFFFFFFFFFFFFFFFFFFFFFFFFFFFFFFFFF
310
FFFFFFFFFFFFFFFFFFFFFFFFFFFFFFFFFFFFFFFFFFFFFFFFFFFFFFFFFFFFFFFF
310
FFFFFFFFFFFFFFFFFFFFFFFFFFFFFFFFFFFFFFFFFFFFFFFFFFFFFFFFFFFFFFFF
310
010000020000000000000000000000000000000061007200520082005C003107
310
E807250000000000102C386A00000000680061007200650064005C003B004300
310
0100FEFF030A0000FFFFFFFF0A00030000000000C00000000000004607000000
310
5042727573680007000000504272757368000700000050427275736800F439B2
310
71000000000000000000000000004100540049002E004100430045005C004300
310
6F00720065002D005300740061007400690063003B0043003A005C0050007200
310
6F006700720061006D002000460069006C006500730020002800780038003600
310
29005C0043006F006D006D006F006E002000460069006C00650073005C004100
310
750074006F006400650073006B0020005300680061007200650064005C003B00
310
43003A005C00500072006F006700720061006D002000460069006C0065007300
310
5C004E006F0072006D0061006E005C004E0070006D005C00420069006E000000
310
43003A005C00500072006F006700720061006D002000460069006C0065007300
310
5C0053006F006C006900640057006F0072006B007300200043006F0072007000
310
5C0053006F006C006900640057006F0072006B00730020002800320029005C00
310
730065007400750070005C0069003300380036005C0073007700610063007400
310
770069007A002E006500780065000000220043003A005C00500072006F006700
310
20260000424D0E260000000000003E00000028000000B40200006E0000000100
310
01000000000000000000130B0000130B00000200000002000000000000FFFFFF
310
FFFFFFFFFFFFFFFFFFFFFFFFFFFFFFFFFFFFFFFFFFFFFFFFFFFFFFFFFFFFFFFF
310
FFFFFFFFFFFFFFFFFFFFFFFFFFFFFFFFFFFFFFFFFFFFFFFFFFFFFFFFFFFFFFFF
310
FFFFFFFFFFFFFFFFFFFFFFFFFFFFFFFFFFFFFFFFFFFFFFFFF000FFFFFFFFFFFF
310
FFFFFFFFFFFFFFFFFFFFFFFFFFFFFFFFFFFFFFFFFFFFFFFFFFFFFFFFFFFFFFFF
310
FFFFFFFFFFFFFFFFFFFFFFFFFFFFFFFFFFFFFFFFFFFFFFFFFFFFFFFFFFFFFFFF
310
FFFFFFFFFFFFFFFFFFFFFFFFFFFFFFFFF000FFFFFFFFFFFFFFFFFFFFFFFFFFFF
310
FFFFFFFFFFFFFFFFFFFFFFFFFFFFFFFFFFFFFFFFFFFFFFFFFFFFFFFFFFFFFFFF
310
FFFFFFFFFFFFFFFFFFFFFFFFFFFFFFFFFFFFFFFFFFFFFFFFFFFFFFFFFFFFFFFF
310
FFFFFFFFFFFFFFFFF000FFFFFFFFFFFFFFFFFFFFFFFFFFFFFFFFFFFFFFFFFFFF
310
FFFFFFFFFFFFFFFFFFFFFFFFFFFFFFFFFFFFFFFFFFFFFFFFFFFFFFFFFFFFFFFF
310
FFFFFFFFFFFFFFFFFFFFFFFFFFFFFFFFFFFFFFFFFFFFFFFFFFFFFFFFFFFFFFFF
310
F000FFFFFFFFFFFFFFFFFFFFFFFFFFFFFFFFFFFFFFFFFFFFFFFFFFFFFFFFFFFF
310
FFFFFFFFFFFFFFFFFFFFFFFFFFFFFFFFFFFFFFFFFFFFFFFFFFFFFFFFFFFFFFFF
310
FFFFFFFFFFFFFFFFFFFFFFFFFFFFFFFFFFFFFFFFFFFFFFFFF000FFFFFFFFFFFF
310
FFFFFFFFFFFFFFFFFFFFFFFFFFFFFFFFFFFFFFFFFFFFFFFFFFFFFFFFFFFFFFFF
310
FFFFFFFFFFFFFFFFFFFFFFFFFFFFFFFFFFFFFFFFFFFFFFFFFFFFFFFFFFFFFFFF
310
FFFFFFFFFFFFFFFFFFFFFFFFFFFFFFFFF000FFFFFFFFFFFFFFFFFFFFFFFFFFFF
310
FFFFFFFFFFFFFFFFFFFFFFFFFFFFFFFFFFFFFFFFFFFFFFFFFFFFFFFFFFFFFFFF
310
FFFFFFFFFFFFFFFFFFFFFFFFFFFFFFFFFFFFFFFFFFFFFFFFFFFFFFFFFFFFFFFF
310
FFFFFFFFFFFFFFFFF000FFFFFFFFFFFFFFFFFFFFFFFFFFFFFFFFFFFFFFFFFFFF
310
FFFFFFFFFFFFFFFFFFFFFFFFFFFFFFFFFFFFFFFFFFFFFFFFFFFFFFFFFFFFFFFF
310
FFFFFFFFFFFFFFFFFFFFFFFFFFFFFFFFFFFFFFFFFFFFFFFFFFFFFFFFFFFFFFFF
310
F000FFFFFFFFFFFFFFFFFFFFFFFFFFFFFFFFFFFFFFFFFFFFFFFFFFFFFFFFFFFF
310
FFFFFFFFFFFFFFFFFFFFFFFFFFFFFFFFFFFFFFFFFFFFFFFFFFFFFFFFFFFFFFFF
310
FFFFFFFFFFFFFFFFFFFFFFFFFFFFFFFFFFFFFFFFFFFFFFFFF000FFFFFFFFFFFF
310
FFFFFFFFFFFFFFFFFFFFFFFFFFFFFFFFFFFFFFFFFFFFFFFFFFFFFFFFFFFFFFFF
310
FFFFFFFFFFFFFFFFFFFFFFFFFFFFFFFFFFFFFFFFFFFFFFFFFFFFFFFFFFFFFFFF
310
FFFFFFFFFFFFFFFFFFFFFFFFFFFFFFFFF000FFFFFFFFFFFFFFFFFFFFFFFFFFFF
310
FFFFFFFFFFFFFFFFFFFFFFFFFFFFFFFFFFFFFFFFFFFFFFFFFFFFFFFFFFFFFFFF
310
FFFFFFFFFFFFFFFFFFFFFFFFFFFFFFFFFFFFFFFFFFFFFFFFFFFFFFFFFFFFFFFF
310
FFFFFFFFFFFFFFFFF000FFFFFFFFFFFFFFFFFFFFFFFFFFFFFFFFFFFFFFFFFFFF
310
FFFFFFFFFFFFFFFFFFFFFFFFFFFFFFFFFFFFFFFFFFFFFFFFFFFFFFFFFFFFFFFF
310
FFFFFFFFFFFFFFFFFFFFFFFFFFFFFFFFFFFFFFFFFFFFFFFFFFFFFFFFFFFFFFFF
310
F000FFFFFFFFFFFFFFFFFFFFFFFFFFFFFFFFFFFFFFFFFFFFFFFFFFFFFFFFFFFF
310
FFFFFFFFFFFFFFFFFFFFFFFFFFFFFFFFFFFFFFFFFFFFFFFFFFFFFFFFFFFFFFFF
310
FFFFFFFFFFFFFFFFFFFFFFFFFFFFFFFFFFFFFFFFFFFFFFFFF000FFFFFFFFFFFF
310
FFFFFFFFFFFFFFFFFFFFFFFFFFFFFFFFFFFFFFFFFFFFFFFFFFFFFFFFFFFFFFFF
310
FFFFFFFFFFFFFFFFFFFFFFFFFFFFFFFFFFFFFFFFFFFFFFFFFFFFFFFFFFFFFFFF
310
FFFFFFFFFFFFFFFFFFFFFFFFFFFFFFFFF000FFFFFFFFFFFFFFFFFFFFFFFFFFFF
310
FFFFFFFFFFFFFFFFFFFFFFFFFFFFFFFFFFFFFFFFFFFFFFFFFFFFFFFFFFFFFFFF
310
FFFFFFFFFFFFFFFFFFFFFFFFFFFFFFFFFFFFFFFFFFFFFFFFFFFFFFFFFFFFFFFF
310
FFFFFFFFFFFFFFFFF000FFFFFFFFFFFFFFFFFFFFFFFFFFFFFFFFFFFFFFFFFFFF
310
FFFFFFFFFFFFFFFFFFFFFFFFFFFFFFFFFFFFFFFFFFFFFFFFFFFFFFFFFFFFFFFF
310
FFFFFFFFFFFFFFFFFFFFFFFFFFFFFFFFFFFFFFFFFFFFFFFFFFFFFFFFFFFFFFFF
310
F000FFFFFFFFFFFFFFFFFFFFFFFFFFFFFFFFFFFFFFFFFFFFFFFFFFFFFFFFFFFF
310
FFFFFFFFFFFFFFFFFFFFFFFFFFFFFFFFFFFFFFFFFFFFFFFFFFFFFFFFFFFFFFFF
310
FFFFFFFFFFFFFFFFFFFFFFFFFFFFFFFFFFFFFFFFFFFFFFFFF000FFFFFFFFFFFF
310
FFFFFFFFFFFFFFFFFFFFFFFFFFFFFFFFFFFFFFFFFFFFFFFFFFFFFFFFFFFFFFFF
310
FFFFFFFFFFFFFFFFFFFFFFFFFFFFFFFFFFFFFFFFFFFFFFFFFFFFFFFFFFFFFFFF
310
FFFFFFFFFFFFFFFFFFFFFFFFFFFFFFFFF000FFFFFFFFFFFFFFFFFFFFFFFFFFFF
310
FFFFFFFFFFFFFFFFFFFFFFFFFFFFFFFFFFFFFFFFFFFFFFFFFFFFFFFFFFFFFFFF
310
FFFFFFFFFFFFFFFFFFFFFFFFFFFFFFFFFFFFFFFFFFFFFFFFFFFFFFFFFFFFFFFF
310
FFFFFFFFFFFFFFFFF000FFFFF80003FFFFFFFFFFFFFFFFFFFFFFFFFFFFFFFFFF
310
FFFFF00007FFFFFFFFFF00007FFFFFF800000000000000007FFFFFFFFFFFFFFF
310
FFFFFFFC001FFFFFFFFFFFFFFC001FFFFFFFFFFFFFFFFFFFFFFFFFFE0007FFFF
310
F000FFFF8000007FFFFFFFF8000FFFFFC0007FFFFF80007FFFFF0000007FFFFF
310
FFF8000007FFFFF800000000000000007FFFFFF0001FFFFFFFFFFFC00001FFFF
310
FFFFFFFFC00001FFFFFFFF000000000003FFFFE000007FFFF000FFFE0000000F
310
FFFFFFF0000FFFFF80007FFFFF80007FFFFC0000001FFFFFFFC0000001FFFFF8
310
00000000000000007FFFFFF0001FFFFFFFFFFE0000003FFFFFFFFFFE0000003F
310
FFFFFF000000000003FFFF0000000FFFF000FFF800000003FFFFFFF00007FFFF
310
80007FFFFF80007FFFF000000007FFFFFF000000003FFFF80000000000000000
310
7FFFFFF0001FFFFFFFFFF80000000FFFFFFFFFF80000000FFFFFFF0000000000
310
03FFFC00000003FFF000FFE000000000FFFFFFF00007FFFF80003FFFFF80007F
310
FFC000000001FFFFFC000000001FFFF800000000000000007FFFFFF0001FFFFF
310
FFFFE000000003FFFFFFFFE000000003FFFFFF000000000003FFF000000000FF
310
F000FF80000000007FFFFFF00007FFFF80003FFFFF80007FFF8000000000FFFF
310
F80000000007FFF800000000000000007FFFFFF0001FFFFFFFFFC000000001FF
310
FFFFFFC000000001FFFFFF000000000003FFC0000000007FF000FF0000000000
310
3FFFFFE00007FFFF00003FFFFF80007FFE00000000003FFFF00000000003FFF8
310
00000000000000007FFFFFF0001FFFFFFFFF8000000000FFFFFFFF8000000000
310
FFFFFF000000000003FF80000000003FF000FE00000000001FFFFFE00003FFFF
310
00003FFFFF80007FFC00000000001FFFE00000000001FFF8000001FFFE000000
310
7FFFFFF0001FFFFFFFFE00000000003FFFFFFE00000000003FFFFF0000000000
310
03FF00000000001FF000FC00000000000FFFFFE00003FFFF00001FFFFF80007F
310
F800000000001FFFC00000000000FFF8000001FFFE0000007FFFFFF0001FFFFF
310
FFFC00000000001FFFFFFC00000000001FFFFF000000000003FE00000000000F
310
F000F8000000000007FFFFE00003FFFF00001FFFFF80007FF800000000000FFF
310
800000000000FFF8000001FFFE0000007FFFFFF0001FFFFFFFF800000000000F
310
FFFFF800000000000FFFFF000000000003FC000000000007F000F80000000000
310
03FFFFC00003FFFE00001FFFFF80007FF0000000000007FF0000000000007FF8
310
000001FFFE0000007FFFFFF0001FFFFFFFF0000000000007FFFFF00000000000
310
07FFFF000000000003F8000000000003F000F0000000000003FFFFC00001FFFE
310
00001FFFFF80007FE0000000000007FE0000000000003FF8000001FFFE000000
310
7FFFFFF0001FFFFFFFF0000000000007FFFFF0000000000007FFFF0000000000
310
03F800001F800003F000E00001FFF00001FFFFC00001FFFE00000FFFFF80007F
310
E00001FFE00003FE00001FFF00003FF8000001FFFE0000007FFFFFF0001FFFFF
310
FFE000003E000003FFFFE000003E000003FFFF000000000003F00001FFF80001
310
F000E00007FFFC0001FFFFC00001FFFE00000FFFFF80007FC0000FFFFC0003FC
310
0000FFFFC0001FF8000001FFFE0000007FFFFFF0001FFFFFFFC00003FFE00001
310
FFFFC00003FFE00001FFFF0001FFFFFFFFF00007FFFE0001F000E0000FFFFF00
310
00FFFF800001FFFC00000FFFFF80007FC0001FFFFE0001FC0001FFFFE0001FF8
310
000001FFFE0000007FFFFFF0001FFFFFFF80000FFFF80000FFFF80000FFFF800
310
00FFFF0003FFFFFFFFE0000FFFFF8000F000C0003FFFFF8000FFFF800000FFFC
310
000007FFFF80007F80003FFFFF0001FC0003FFFFF0001FF8000001FFFE000000
310
7FFFFFF0001FFFFFFF80003FFFFE0000FFFF80003FFFFE0000FFFF0003FFFFFF
310
FFE0003FFFFF8000F000C0003FFFFF8000FFFF800000FFFC000007FFFF80007F
310
80007FFFFF8001F80007FFFFF8000FF8000001FFFE0000007FFFFFF0001FFFFF
310
FF00007FFFFF00007FFF00007FFFFF00007FFF0003FFFFFFFFE0003FFFFFC000
310
F000C0007FFFFFC000FFFF000000FFFC000007FFFF80007F8000FFFFFF8000F8
310
000FFFFFF8000FF8000001FFFE0000007FFFFFF0001FFFFFFF0000FFFFFF8000
310
7FFF0000FFFFFF80007FFF0003FFFFFFFFC0007FFFFFC00070008000FFFFFFC0
310
00FFFF000000FFF8000007FFFF80007F8000FFFFFF8000F8000FFFFFF8000FF8
310
000001FFFE0000007FFFFFF0001FFFFFFE0001FFFFFFC0003FFE0001FFFFFFC0
310
003FFF0003FFFFFFFFC0007FFFFFE00070008000FFFFFFC0007FFF0000007FF8
310
000003FFFF80007F0001FFFFFF8000F8000FFFFFF8000FF8000001FFFE000000
310
7FFFFFF0001FFFFFFE0001FFFFFFC0003FFE0001FFFFFFC0003FFF0003FFFFFF
310
FFC000FFFFFFE00070008000FFFFFFC0007FFF0000007FF8000003FFFF80007F
310
0001FFFFFF8000F8001FFFFFF8000FF8000001FFFE0000007FFFFFF0001FFFFF
310
FE0003FFFFFFE0003FFE0003FFFFFFE0003FFF0003FFFFFFFFC000FFFFFFE000
310
70008000FFFFFFC0007FFE0000007FF8000003FFFF80007F0001FFFFFF8000F0
310
001FFFFFF8000FF8000001FFFE0000007FFFFFF0001FFFFFFC0003FFFFFFE000
310
1FFC0003FFFFFFE0001FFF0003FFFFFFFFC000FFFFFFC00070008000FFFFFF80
310
007FFE0000007FF0000003FFFF80007F0001FFFFFF0000F0001FFFFFF8000FF8
310
000001FFFE0000007FFFFFF0001FFFFFFC0007FFFFFFF0001FFC0007FFFFFFF0
310
001FFF0003FFFFFFFFC000FFFFFFC00070008001FFFFFF0000FFFE0000003FF0
310
000001FFFF80007F0001FFFFFF0000F8001FFFFFF0000FF8000001FFFE000000
310
7FFFFFF0001FFFFFFC0007FFFFFFF0001FFC0007FFFFFFF0001FFF0003FFFFFF
310
FFC001FFFFFF80007000FFFFFFFFFE0000FFFE0008003FF0008001FFFF80007F
310
FFFFFFFFFC0000FFFFFFFFFFE0000FF8000001FFFE0000007FFFFFF0001FFFFF
310
F8000FFFFFFFF8000FF8000FFFFFFFF8000FFF0003FFFFFFFFFFFFFFFFFF0000
310
7000FFFFFFFFFC0000FFFC0008003FF0008001FFFF80007FFFFFFFFFF80001FF
310
FFFFFFFF80000FF8000001FFFE0000007FFFFFF0001FFFFFF8000FFFFFFFF800
310
0FF8000FFFFFFFF8000FFF0003FFFFFFFFFFFFFFFFFE0000F000FFFFFFFFE000
310
00FFFC000C003FE000C001FFFF80007FFFFFFFFFC00001FFFFFFFFFE00001FF8
310
000001FFFE0000007FFFFFF0001FFFFFF8000FFFFFFFF8000FF8000FFFFFFFF8
310
000FFF0003FFFFFFFFFFFFFFFFF00000F000FFFFFFFE000001FFFC000C001FE0
310
00C000FFFF80007FFFFFFFFE000001FFFFFFFFE000001FF80FFFFFFFFFFFFFC0
310
7FFFFFF0001FFFFFF8000FFFFFFFF8000FF8000FFFFFFFF8000FFF0003FFFFFF
310
FFFFFFFFFF800000F000FFFFFFC0000001FFFC001C001FE001C000FFFF80007F
310
FFFFFF80000003FFFFFFF80000001FF80FFFFFFFFFFFFFC07FFFFFF0001FFFFF
310
F8001FFFFFFFFC000FF8001FFFFFFFFC000FFF0003FFFFFFFFFFFFFFF0000001
310
F000FFFFF800000001FFF8001C001FE001C000FFFF80007FFFFFF800000003FF
310
FFFF800000003FF80FFFFFFFFFFFFFC07FFFFFF0001FFFFFF8001FFFFFFFFC00
310
0FF8001FFFFFFFFC000FFF0003FFFFFFFFFFFFFE00000001F000FFFFC0000000
310
03FFF8001E001FC001E000FFFF80007FFFFF8000000007FFFFFC000000003FF8
310
0FFFFFFFFFFFFFC07FFFFFF0001FFFFFF8001FFFFFFFFC000FF8001FFFFFFFFC
310
000FFF0003FFFFFFFFFFFFE000000003F000FFFE0000000007FFF8001E000FC0
310
01E0007FFF80007FFFFE0000000007FFFFE0000000007FF80FFFFFFFFFFFFFC0
310
7FFFFFF0001FFFFFF0001FFFFFFFFC0007F0001FFFFFFFFC0007FF0003FFFFFF
310
FFFFFF0000000003F000FFF80000000007FFF8001E000FC003E0007FFF80007F
310
FFF0000000000FFFFF8000000000FFF80FFFFFFFFFFFFFC07FFFFFF0001FFFFF
310
F0001FFFFFFFFC0007F0001FFFFFFFFC0007FF0003FFFFFFFFFFFC0000000007
310
F000FFE0000000000FFFF0003E000FC003E0007FFF80007FFFC0000000001FFF
310
FE0000000001FFF80FFFFFFFFFFFFFC07FFFFFF0001FFFFFF0001FFFFFFFFC00
310
07F0001FFFFFFFFC0007FF0003FFFFFFFFFFF0000000000FF000FFC000000000
310
1FFFF0003F000F8003F0003FFF80007FFF80000000003FFFF80000000003FFF8
310
0FFFFFFFFFFFFFC07FFFFFF0001FFFFFF0001FFFFFFFFC0007F0001FFFFFFFFC
310
0007FF0003FFFFFFFFFFE0000000001FF000FF00000000007FFFF0003F000780
310
03F0003FFF80007FFF00000000007FFFF00000000007FFF80FFFFFFFFFFFFFC0
310
7FFFFFF0001FFFFFF0001FFFFFFFFC0007F0001FFFFFFFFC0007FF0003FFFFFF
310
FFFF80000000007FF000FE0000000000FFFFE0003F00078007F0003FFF80007F
310
FE0000000001FFFFE0000000001FFFF80FFFFFFFFFFFFFC07FFFFFF0001FFFFF
310
F0001FFFFFFFFC0007F0001FFFFFFFFC0007FF0003FFFFFFFFFF0000000000FF
310
F000FC0000000003FFFFE0007F00078007F0003FFF80007FFC0000000007FFFF
310
C0000000007FFFF80FFFFFFFFFFFFFC07FFFFFF0001FFFFFF8001FFFFFFFFC00
310
0FF8001FFFFFFFFC000FFF0003FFFFFFFFFE0000000003FFF000FC000000000F
310
FFFFE0007F80070007F8001FFF80007FF8000000001FFFFF8000000001FFFFF8
310
0FFFFFFFFFFFFFC07FFFFFF0001FFFFFF8001FFFFFFFFC000FF8001FFFFFFFFC
310
000FFF0003FFFFFFFFFC000000000FFFF000F8000000007FFFFFE0007F800700
310
07F8001FFF80007FF000000000FFFFFF800000000FFFFFF80FFFFFFFFFFFFFC0
310
7FFFFFF0001FFFFFF8000FFFFFFFF8000FF8000FFFFFFFF8000FFF0003FFFFFF
310
FFFC000000007FFFF000F800000007FFFFFFC0007F8003000FF8001FFF80007F
310
F000000007FFFFFF000000007FFFFFF80FFFFFFFFFFFFFC07FFFFFF0001FFFFF
310
F8000FFFFFFFF8000FF8000FFFFFFFF8000FFF0003FFFFFFFFF80000000FFFFF
310
F000F0000000FFFFFFFFC000FF8003000FF8001FFF80007FE0000000FFFFFFFF
310
0000000FFFFFFFF8000001FFFE0000007FFFFFF0001FFFFFF8000FFFFFFFF800
310
0FF8000FFFFFFFF8000FFF0003FFFFFFFFF8000000FFFFFFF000F000000FFFFF
310
FFFFC000FFC002000FF8000FFF80007FE000001FFFFFFFFE000001FFFFFFFFF8
310
000001FFFE0000007FFFFFF0001FFFFFF8000FFFFFFFF8000FF8000FFFFFFFF8
310
000FFF0003FFFFFFFFF000001FFFFFFFF000E00000FFFFFFFFFFC000FFC00200
310
0FFC000FFF80007FE00001FFFFFFFFFE00001FFFFFFFFFF8000001FFFE000000
310
7FFFFFF0001FFFFFFC000FFFFFFFF8001FFC000FFFFFFFF8001FFF0003FFFFFF
310
FFF00001FFFFFFFFF000E00007FFFFFFFFFF8000FFC000001FFC000FFF80007F
310
C0000FFFFFFFFFFE0000FFFFFFFFFFF8000001FFFE0000007FFFFFF0001FFFFF
310
FC0007FFFFFFF0001FFC0007FFFFFFF0001FFF0003FFFFFFFFF00007FFFFFFFF
310
F000E0001FFFFFFFFFFF8000FFC000001FFC000FFF80007FC0003FFFFFFFFFFE
310
0001FFFFFFFFFFF8000001FFFE0000007FFFFFF0001FFFFFFC0007FFFFFFF000
310
1FFC0007FFFFFFF0001FFF0003FFFFFFFFF0001FFFFFFFFFF000E0003FFFFF00
310
03FF8001FFE000001FFC0007FF80007FC0007FFFFF0007FC0003FFFFF0003FF8
310
000001FFFE0000007FFFFFF0001FFFFFFC0003FFFFFFE0001FFC0003FFFFFFE0
310
001FFF0003FFFFFFFFF0003FFFFFFFFFF000E0003FFFFF0001FF8001FFE00000
310
1FFE0007FF80007FC0007FFFFE0003FC0007FFFFE0003FF8000001FFFE000000
310
7FFFFFF0001FFFFFFE0003FFFFFFE0003FFE0003FFFFFFE0003FFF0003FFFFFF
310
FFF0003FFFFF8001F000E0003FFFFF0001FF0001FFE000001FFE0007FF80007F
310
C0007FFFFE0003FC0007FFFFE0003FF8000001FFFE0000007FFFFFF0001FFFFF
310
FE0001FFFFFFC0003FFE0001FFFFFFC0003FFF0003FFFFFFFFF0003FFFFF0001
310
F000E0003FFFFF0003FF0001FFE000003FFE0007FF80007FC0007FFFFE0003FC
310
0007FFFFE0003FF8000001FFFE0000007FFFFFF0001FFFFFFF0001FFFFFFC000
310
7FFF0001FFFFFFC0007FFF0003FFFFFFFFF0003FFFFF0001F000E0003FFFFE00
310
03FF0003FFF000003FFE0003FF80007FC0007FFFFC0003FE0007FFFFE0003FF8
310
000001FFFE0000007FFFFFF0001FFFFFFF0000FFFFFF80007FFF0000FFFFFF80
310
007FFF0003FFFFFFFFF0003FFFFF0001F000E0003FFFFE0003FF0003FFF00000
310
3FFF0003FF80007FC0007FFFFC0007FE0007FFFFC0003FF8000001FFFE000000
310
7FFFFFF0001FFFFFFF80007FFFFF0000FFFF80007FFFFF0000FFFF0003FFFFFF
310
FFF0003FFFFF0003F000E0003FFFFC0003FE0003FFF000003FFF0003FF80007F
310
E0003FFFF80007FE0003FFFFC0007FF8000001FFFE0000007FFFFFF0001FFFFF
310
FF80003FFFFE0000FFFF80003FFFFE0000FFFF0003FFFFFFFFF0001FFFFE0003
310
F000F0001FFFF80003FE0003FFF000007FFF0001FF80007FE0003FFFF00007FE
310
0001FFFF80007FF8000001FFFE0000007FFFFFF0001FFFFFFFC0000FFFF80001
310
FFFFC0000FFFF80001FFFF0003FFFFFFFFF0001FFFFC0003F000F0000FFFF000
310
07FE0007FFF800007FFF0001FF80007FE0001FFFE00007FF0000FFFE00007FF8
310
000001FFFE0000007FFFFFF0001FFFFFFFC00003FFE00001FFFFC00003FFE000
310
01FFFF0003FFFFFFFFF8000FFFF80003F000F00003FFC00007FC0007FFF80000
310
7FFF8001FF80007FF00007FF80000FFF00007FF80000FFF8000001FFFE000000
310
7F80000000000001FFE000003E000003FFFFE000003E000003FFFF0003FFFFFF
310
FFF80003FFE00007F000F800000000000FFC0007FFF800007FFF8001FF80007F
310
F000000000000FFF000000000000FFF8000001FFFE0000007F80000000000001
310
FFF0000000000007FFFFF0000000000007FFFF0003FFFFFFFFFC00007E000007
310
F000F800000000000FFC0007FFF80000FFFF8000FF80007FF800000000001FFF
310
800000000001FFF8000001FFFE0000007F80000000000001FFF800000000000F
310
FFFFF800000000000FFFFF0003FFFFFFFFFC00000000000FF000FC0000000000
310
1FFC0007FFFC0000FFFF8000FF80007FF800000000003FFFC00000000001FFF8
310
000001FFFE0000007F80000000000001FFF800000000000FFFFFF80000000000
310
0FFFFF0003FFFFFFFFFE00000000001FF000FE00000000003FF8000FFFFC0000
310
FFFF8000FF80007FFC00000000003FFFC00000000003FFF8000001FFFE000000
310
7F80000000000001FFFC00000000001FFFFFFC00000000001FFFFF0003FFFFFF
310
FFFF00000000001FF000FF00000000003FF8000FFFFC0000FFFFC000FF80007F
310
FE00000000007FFFE00000000007FFF8000001FFFE0000007F80000000000001
310
FFFE00000000003FFFFFFE00000000003FFFFF0003FFFFFFFFFF80000000003F
310
F000FF80000000007FF8000FFFFC0001FFFFC0007F80007FFF0000000000FFFF
310
F0000000000FFFF800000000000000007F80000000000001FFFF8000000000FF
310
FFFFFF8000000000FFFFFF0003FFFFFFFFFFC0000000007FF000FFC000000000
310
FFF8000FFFFE0001FFFFC0007F80007FFF8000000001FFFFF8000000001FFFF8
310
00000000000000007F80000000000001FFFFC000000001FFFFFFFFC000000001
310
FFFFFF0003FFFFFFFFFFE000000000FFF000FFE000000003FFF0001FFFFE0001
310
FFFFC0007F80007FFFC000000007FFFFFE000000003FFFF80000000000000000
310
7F80000000000001FFFFE000000003FFFFFFFFE000000003FFFFFF0003FFFFFF
310
FFFFF000000003FFF000FFF80000000FFFF0001FFFFE0001FFFFE0007F80007F
310
FFF00000000FFFFFFF00000000FFFFF800000000000000007F80000000000001
310
FFFFF80000000FFFFFFFFFF80000000FFFFFFF0003FFFFFFFFFFFC0000000FFF
310
F000FFFE0000003FFFF0001FFFFE0003FFFFE0003F80007FFFFC0000003FFFFF
310
FFC0000003FFFFF800000000000000007F80000000000001FFFFFE0000003FFF
310
FFFFFFFE0000003FFFFFFF0003FFFFFFFFFFFF0000003FFFF000FFFF800000FF
310
FFF0001FFFFF0003FFFFE0003F80007FFFFF000001FFFFFFFFF800001FFFFFF8
310
00000000000000007F80000000000001FFFFFFC00001FFFFFFFFFFFFC00001FF
310
FFFFFF0003FFFFFFFFFFFFC00000FFFFF000FFFFF8000FFFFFFFFFFFFFFFFFFF
310
FFFFFFFFFFFFFFFFFFFFF0001FFFFFFFFFFF0000FFFFFFF80000000000000000
310
7FFFFFFFFFFFFFFFFFFFFFFC001FFFFFFFFFFFFFFC001FFFFFFFFFFFFFFFFFFF
310
FFFFFFFC001FFFFFF000FFFFFFFFFFFFFFFFFFFFFFFFFFFFFFFFFFFFFFFFFFFF
310
FFFFFFFFFFFFFFFFFFFFFFFFFFFFFFFFFFFFFFFFFFFFFFFFFFFFFFFFFFFFFFFF
310
FFFFFFFFFFFFFFFFFFFFFFFFFFFFFFFFFFFFFFFFFFFFFFFFFFFFFFFFFFFFFFFF
310
F000FFFFFFFFFFFFFFFFFFFFFFFFFFFFFFFFFFFFFFFFFFFFFFFFFFFFFFFFFFFF
310
FFFFFFFFFFFFFFFFFFFFFFFFFFFFFFFFFFFFFFFFFFFFFFFFFFFFFFFFFFFFFFFF
310
FFFFFFFFFFFFFFFFFFFFFFFFFFFFFFFFFFFFFFFFFFFFFFFFF000FFFFFFFFFFFF
310
FFFFFFFFFFFFFFFFFFFFFFFFFFFFFFFFFFFFFFFFFFFFFFFFFFFFFFFFFFFFFFFF
310
FFFFFFFFFFFFFFFFFFFFFFFFFFFFFFFFFFFFFFFFFFFFFFFFFFFFFFFFFFFFFFFF
310
FFFFFFFFFFFFFFFFFFFFFFFFFFFFFFFFF000FFFFFFFFFFFFFFFFFFFFFFFFFFFF
310
FFFFFFFFFFFFFFFFFFFFFFFFFFFFFFFFFFFFFFFFFFFFFFFFFFFFFFFFFFFFFFFF
310
FFFFFFFFFFFFFFFFFFFFFFFFFFFFFFFFFFFFFFFFFFFFFFFFFFFFFFFFFFFFFFFF
310
FFFFFFFFFFFFFFFFF000FFFFFFFFFFFFFFFFFFFFFFFFFFFFFFFFFFFFFFFFFFFF
310
FFFFFFFFFFFFFFFFFFFFFFFFFFFFFFFFFFFFFFFFFFFFFFFFFFFFFFFFFFFFFFFF
310
FFFFFFFFFFFFFFFFFFFFFFFFFFFFFFFFFFFFFFFFFFFFFFFFFFFFFFFFFFFFFFFF
310
F000FFFFFFFFFFFFFFFFFFFFFFFFFFFFFFFFFFFFFFFFFFFFFFFFFFFFFFFFFFFF
310
FFFFFFFFFFFFFFFFFFFFFFFFFFFFFFFFFFFFFFFFFFFFFFFFFFFFFFFFFFFFFFFF
310
FFFFFFFFFFFFFFFFFFFFFFFFFFFFFFFFFFFFFFFFFFFFFFFFF000FFFFFFFFFFFF
310
FFFFFFFFFFFFFFFFFFFFFFFFFFFFFFFFFFFFFFFFFFFFFFFFFFFFFFFFFFFFFFFF
310
FFFFFFFFFFFFFFFFFFFFFFFFFFFFFFFFFFFFFFFFFFFFFFFFFFFFFFFFFFFFFFFF
310
FFFFFFFFFFFFFFFFFFFFFFFFFFFFFFFFF000FFFFFFFFFFFFFFFFFFFFFFFFFFFF
310
FFFFFFFFFFFFFFFFFFFFFFFFFFFFFFFFFFFFFFFFFFFFFFFFFFFFFFFFFFFFFFFF
310
FFFFFFFFFFFFFFFFFFFFFFFFFFFFFFFFFFFFFFFFFFFFFFFFFFFFFFFFFFFFFFFF
310
FFFFFFFFFFFFFFFFF000FFFFFFFFFFFFFFFFFFFFFFFFFFFFFFFFFFFFFFFFFFFF
310
FFFFFFFFFFFFFFFFFFFFFFFFFFFFFFFFFFFFFFFFFFFFFFFFFFFFFFFFFFFFFFFF
310
FFFFFFFFFFFFFFFFFFFFFFFFFFFFFFFFFFFFFFFFFFFFFFFFFFFFFFFFFFFFFFFF
310
F000FFFFFFFFFFFFFFFFFFFFFFFFFFFFFFFFFFFFFFFFFFFFFFFFFFFFFFFFFFFF
310
FFFFFFFFFFFFFFFFFFFFFFFFFFFFFFFFFFFFFFFFFFFFFFFFFFFFFFFFFFFFFFFF
310
FFFFFFFFFFFFFFFFFFFFFFFFFFFFFFFFFFFFFFFFFFFFFFFFF000FFFFFFFFFFFF
310
FFFFFFFFFFFFFFFFFFFFFFFFFFFFFFFFFFFFFFFFFFFFFFFFFFFFFFFFFFFFFFFF
310
FFFFFFFFFFFFFFFFFFFFFFFFFFFFFFFFFFFFFFFFFFFFFFFFFFFFFFFFFFFFFFFF
310
FFFFFFFFFFFFFFFFFFFFFFFFFFFFFFFFF000FFFFFFFFFFFFFFFFFFFFFFFFFFFF
310
FFFFFFFFFFFFFFFFFFFFFFFFFFFFFFFFFFFFFFFFFFFFFFFFFFFFFFFFFFFFFFFF
310
FFFFFFFFFFFFFFFFFFFFFFFFFFFFFFFFFFFFFFFFFFFFFFFFFFFFFFFFFFFFFFFF
310
FFFFFFFFFFFFFFFFF000FFFFFFFFFFFFFFFFFFFFFFFFFFFFFFFFFFFFFFFFFFFF
310
FFFFFFFFFFFFFFFFFFFFFFFFFFFFFFFFFFFFFFFFFFFFFFFFFFFFFFFFFFFFFFFF
310
FFFFFFFFFFFFFFFFFFFFFFFFFFFFFFFFFFFFFFFFFFFFFFFFFFFFFFFFFFFFFFFF
310
F000FFFFFFFFFFFFFFFFFFFFFFFFFFFFFFFFFFFFFFFFFFFFFFFFFFFFFFFFFFFF
310
FFFFFFFFFFFFFFFFFFFFFFFFFFFFFFFFFFFFFFFFFFFFFFFFFFFFFFFFFFFFFFFF
310
FFFFFFFFFFFFFFFFFFFFFFFFFFFFFFFFFFFFFFFFFFFFFFFFF000FFFFFFFFFFFF
310
FFFFFFFFFFFFFFFFFFFFFFFFFFFFFFFFFFFFFFFFFFFFFFFFFFFFFFFFFFFFFFFF
310
FFFFFFFFFFFFFFFFFFFFFFFFFFFFFFFFFFFFFFFFFFFFFFFFFFFFFFFFFFFFFFFF
310
FFFFFFFFFFFFFFFFFFFFFFFFFFFFFFFFF000FFFFFFFFFFFFFFFFFFFFFFFFFFFF
310
FFFFFFFFFFFFFFFFFFFFFFFFFFFFFFFFFFFFFFFFFFFFFFFFFFFFFFFFFFFFFFFF
310
FFFFFFFFFFFFFFFFFFFFFFFFFFFFFFFFFFFFFFFFFFFFFFFFFFFFFFFFFFFFFFFF
310
FFFFFFFFFFFFFFFFF000FFFFFFFFFFFFFFFFFFFFFFFFFFFFFFFFFFFFFFFFFFFF
310
FFFFFFFFFFFFFFFFFFFFFFFFFFFFFFFFFFFFFFFFFFFFFFFFFFFFFFFFFFFFFFFF
310
FFFFFFFFFFFFFFFFFFFFFFFFFFFFFFFFFFFFFFFFFFFFFFFFFFFFFFFFFFFFFFFF
310
F000FFFFFFFFFFFFFFFFFFFFFFFFFFFFFFFFFFFFFFFFFFFFFFFFFFFFFFFFFFFF
310
FFFFFFFFFFFFFFFFFFFFFFFFFFFFFFFFFFFFFFFFFFFFFFFFFFFFFFFFFFFFFFFF
310
FFFFFFFFFFFFFFFFFFFFFFFFFFFFFFFFFFFFFFFFFFFFFFFFF000FFFFFFFFFFFF
310
FFFFFFFFFFFFFFFFFFFFFFFFFFFFFFFFFFFFFFFFFFFFFFFFFFFFFFFFFFFFFFFF
310
FFFFFFFFFFFFFFFFFFFFFFFFFFFFFFFFFFFFFFFFFFFFFFFFFFFFFFFFFFFFFFFF
310
FFFFFFFFFFFFFFFFFFFFFFFFFFFFFFFFF000FFFFFFFFFFFFFFFFFFFFFFFFFFFF
310
FFFFFFFFFFFFFFFFFFFFFFFFFFFFFFFFFFFFFFFFFFFFFFFFFFFFFFFFFFFFFFFF
310
FFFFFFFFFFFFFFFFFFFFFFFFFFFFFFFFFFFFFFFFFFFFFFFFFFFFFFFFFFFFFFFF
310
FFFFFFFFFFFFFFFFF000FFFFFFFFFFFFFFFFFFFFFFFFFFFFFFFFFFFFFFFFFFFF
310
FFFFFFFFFFFFFFFFFFFFFFFFFFFFFFFFFFFFFFFFFFFFFFFFFFFFFFFFFFFFFFFF
310
FFFFFFFFFFFFFFFFFFFFFFFFFFFFFFFFFFFFFFFFFFFFFFFFFFFFFFFFFFFFFFFF
310
F000FFFFFFFFFFFFFFFFFFFFFFFFFFFFFFFFFFFFFFFFFFFFFFFFFFFFFFFFFFFF
310
FFFFFFFFFFFFFFFFFFFFFFFFFFFFFFFFFFFFFFFFFFFFFFFFFFFFFFFFFFFFFFFF
310
FFFFFFFFFFFFFFFFFFFFFFFFFFFFFFFFFFFFFFFFFFFFFFFFF000FFFFFFFFFFFF
310
FFFFFFFFFFFFFFFFFFFFFFFFFFFFFFFFFFFFFFFFFFFFFFFFFFFFFFFFFFFFFFFF
310
FFFFFFFFFFFFFFFFFFFFFFFFFFFFFFFFFFFFFFFFFFFFFFFFFFFFFFFFFFFFFFFF
310
FFFFFFFFFFFFFFFFFFFFFFFFFFFFFFFFF0000000000000000000000000000000
310
00000000F9F6C63D32A9FF3D11CDC73DE674003E29C3C83D9D08013EF8D6C93D
310
5E8E013EEF05CB3D5E8E013EDD53083E6008013E97EB083E6174003EB075093E
310
84A7FF3DE1F0093E0550FE3D025C0A3E77E5FC3D15B60A3E3B6BFB3D42FE0A3E
310
D7E4F93DDD330B3EEF55F83D67560B3EA166DF3DA7170B3E5935DC3DDD53083E
310
5935DC3DEF05CB3DA166DF3D5B7EC53DF1A6053E38D9123EF1A6053E9C700F3E
310
18D80D3E9C700F3E18D80D3E9EDA123E5866093EEF05CB3D61C5093E9CB0CA3D
310
482C0A3E2F90CA3DD4930A3EF1A6CA3DC1F40A3E47F3CA3D42480B3ED76FCB3D
310
79880B3EE213CC3DE7B00B3EE5D3CC3DB3BE0B3E67A2CD3DB3BE0B3EA105073E
310
E7B00B3EE26C073E79880B3EE3CC073E42480B3EE91E083EC1F40A3E315D083E
310
D4930A3E5C83083E482C0A3EBD8E083E61C5093E877E083E5866093EDD53083E
310
5E8E013EEF05CB3D5866093EEF05CB3D5866093EDD53083E5E8E013EDD53083E
310
4177D63DEF05CB3D5935DC3DEF05CB3D5935DC3DDD53083E1B46CE3DDD53083E
310
56E2243E3FC5D83D56E2243ED589E03D56E2243E2BA4D43D56E2243E972ED53D
310
E7CF213E1E53D63DE7CF213E2BA4D43DE7CF213EA15FE03DE7CF213E5A5BD73D
310
E296243E1766D43DE379533E0801D73DE379533E4220DC3D8396243E4B85D93D
  1
OLE
  0
ENDSEC
  0
SECTION
  2
OBJECTS
  0
DICTIONARY
  5
C
330
0
100
AcDbDictionary
281
     1
  3
ACAD_GROUP
350
D
  3
ACAD_LAYOUT
350
1A
  3
ACAD_MLEADERSTYLE
350
210
  3
ACAD_MLINESTYLE
350
17
  3
ACAD_PLOTSETTINGS
350
19
  3
ACAD_PLOTSTYLENAME
350
E
  3
ACAD_TABLESTYLE
350
20F
  3
ACAD_VISUALSTYLE
350
2A
  3
AcDbVariableDictionary
350
211
  0
DICTIONARY
  5
D
102
{ACAD_REACTORS
330
C
102
}
330
C
100
AcDbDictionary
281
     1
  0
DICTIONARY
  5
1A
102
{ACAD_REACTORS
330
C
102
}
330
C
100
AcDbDictionary
281
     1
  3
Layout1
350
1E
  3
Layout2
350
26
  3
Model
350
22
  0
DICTIONARY
  5
210
102
{ACAD_REACTORS
330
C
102
}
330
C
100
AcDbDictionary
281
     1
  0
DICTIONARY
  5
17
102
{ACAD_REACTORS
330
C
102
}
330
C
100
AcDbDictionary
281
     1
  3
Standard
350
18
  0
DICTIONARY
  5
19
102
{ACAD_REACTORS
330
C
102
}
330
C
100
AcDbDictionary
281
     1
  0
ACDBDICTIONARYWDFLT
  5
E
102
{ACAD_REACTORS
330
C
102
}
330
C
100
AcDbDictionary
281
     1
  3
Normal
350
F
100
AcDbDictionaryWithDefault
340
F
  0
DICTIONARY
  5
20F
102
{ACAD_REACTORS
330
C
102
}
330
C
100
AcDbDictionary
281
     1
  0
DICTIONARY
  5
2A
102
{ACAD_REACTORS
330
C
102
}
330
C
100
AcDbDictionary
281
     1
  3
2dWireframe
350
2F
  3
3D Hidden
350
31
  3
3dWireframe
350
30
  3
Basic
350
32
  3
Brighten
350
36
  3
ColorChange
350
3A
  3
Conceptual
350
34
  3
Dim
350
35
  3
Facepattern
350
39
  3
Flat
350
2B
  3
FlatWithEdges
350
2C
  3
Gouraud
350
2D
  3
GouraudWithEdges
350
2E
  3
Linepattern
350
38
  3
Realistic
350
33
  3
Thicken
350
37
  0
DICTIONARY
  5
211
102
{ACAD_REACTORS
330
C
102
}
330
C
100
AcDbDictionary
281
     1
  3
PSOLHEIGHT
350
213
  3
PSOLWIDTH
350
212
  0
LAYOUT
  5
1E
102
{ACAD_REACTORS
330
1A
102
}
330
1A
100
AcDbPlotSettings
  1

  2
none_device
  4

  6

 40
0.0
 41
0.0
 42
0.0
 43
0.0
 44
0.0
 45
0.0
 46
0.0
 47
0.0
 48
0.0
 49
0.0
140
0.0
141
0.0
142
1.0
143
1.0
 70
   688
 72
     0
 73
     0
 74
     5
  7

 75
    16
147
1.0
148
0.0
149
0.0
100
AcDbLayout
  1
Layout1
 70
     1
 71
     1
 10
0.0
 20
0.0
 11
420.0
 21
297.0
 12
0.0
 22
0.0
 32
0.0
 14
1.0000000000E+20
 24
1.0000000000E+20
 34
1.0000000000E+20
 15
-1.0000000000E+20
 25
-1.0000000000E+20
 35
-1.0000000000E+20
146
0.0
 13
0.0
 23
0.0
 33
0.0
 16
1.0
 26
0.0
 36
0.0
 17
0.0
 27
1.0
 37
0.0
 76
     0
330
1B
  0
LAYOUT
  5
26
102
{ACAD_REACTORS
330
1A
102
}
330
1A
100
AcDbPlotSettings
  1

  2
none_device
  4

  6

 40
0.0
 41
0.0
 42
0.0
 43
0.0
 44
0.0
 45
0.0
 46
0.0
 47
0.0
 48
0.0
 49
0.0
140
0.0
141
0.0
142
1.0
143
1.0
 70
   688
 72
     0
 73
     0
 74
     5
  7

 75
    16
147
1.0
148
0.0
149
0.0
100
AcDbLayout
  1
Layout2
 70
     1
 71
     2
 10
0.0
 20
0.0
 11
0.0
 21
0.0
 12
0.0
 22
0.0
 32
0.0
 14
0.0
 24
0.0
 34
0.0
 15
0.0
 25
0.0
 35
0.0
146
0.0
 13
0.0
 23
0.0
 33
0.0
 16
1.0
 26
0.0
 36
0.0
 17
0.0
 27
1.0
 37
0.0
 76
     0
330
23
  0
LAYOUT
  5
22
102
{ACAD_REACTORS
330
1A
102
}
330
1A
100
AcDbPlotSettings
  1

  2
none_device
  4

  6

 40
0.0
 41
0.0
 42
0.0
 43
0.0
 44
0.0
 45
0.0
 46
0.0
 47
0.0
 48
0.0
 49
0.0
140
0.0
141
0.0
142
1.0
143
1.0
 70
  1712
 72
     0
 73
     0
 74
     0
  7

 75
     0
147
1.0
148
0.0
149
0.0
100
AcDbLayout
  1
Model
 70
     1
 71
     0
 10
0.0
 20
0.0
 11
297.0
 21
210.0
 12
0.0
 22
0.0
 32
0.0
 14
0.0
 24
0.0
 34
0.0
 15
297.0
 25
210.0
 35
0.0
146
0.0
 13
0.0
 23
0.0
 33
0.0
 16
1.0
 26
0.0
 36
0.0
 17
0.0
 27
1.0
 37
0.0
 76
     0
330
1F
331
29
  0
MLINESTYLE
  5
18
102
{ACAD_REACTORS
330
17
102
}
330
17
100
AcDbMlineStyle
  2
Standard
 70
     0
  3

 62
   256
 51
90.0
 52
90.0
 71
     2
 49
0.5
 62
   256
  6
BYLAYER
 49
-0.5
 62
   256
  6
BYLAYER
  0
ACDBPLACEHOLDER
  5
F
102
{ACAD_REACTORS
330
E
102
}
330
E
  0
VISUALSTYLE
  5
2F
102
{ACAD_REACTORS
330
2A
102
}
330
2A
100
AcDbVisualStyle
  2
2dWireframe
 70
     4
 71
     0
 72
     2
 73
     0
 90
        0
 40
-0.6
 41
-30.0
 62
     5
 63
     7
 74
     1
 91
        4
 64
     7
 65
   257
 75
     1
175
     1
 42
1.0
 92
        0
 66
   257
 43
1.0
 76
     1
 77
     6
 78
     2
 67
     7
 79
     5
170
     0
171
     0
290
     0
174
     0
 93
        1
 44
0.0
173
     0
291
     0
 45
0.0
1001
ACAD
1000
AcDbSavedByObjectVersion
1070
     0
  0
VISUALSTYLE
  5
31
102
{ACAD_REACTORS
330
2A
102
}
330
2A
100
AcDbVisualStyle
  2
3D Hidden
 70
     6
 71
     1
 72
     2
 73
     2
 90
        0
 40
-0.6
 41
-30.0
 62
     5
 63
     7
 74
     2
 91
        2
 64
     7
 65
   257
 75
     2
175
     1
 42
40.0
 92
        0
 66
   257
 43
1.0
 76
     1
 77
     6
 78
     2
 67
     7
 79
     3
170
     0
171
     0
290
     0
174
     0
 93
        1
 44
0.0
173
     0
291
     0
 45
0.0
1001
ACAD
1000
AcDbSavedByObjectVersion
1070
     0
  0
VISUALSTYLE
  5
30
102
{ACAD_REACTORS
330
2A
102
}
330
2A
100
AcDbVisualStyle
  2
3dWireframe
 70
     5
 71
     0
 72
     2
 73
     0
 90
        0
 40
-0.6
 41
-30.0
 62
     5
 63
     7
 74
     1
 91
        4
 64
     7
 65
   257
 75
     1
175
     1
 42
1.0
 92
        0
 66
   257
 43
1.0
 76
     1
 77
     6
 78
     2
 67
     7
 79
     5
170
     0
171
     0
290
     0
174
     0
 93
        1
 44
0.0
173
     0
291
     0
 45
0.0
1001
ACAD
1000
AcDbSavedByObjectVersion
1070
     0
  0
VISUALSTYLE
  5
32
102
{ACAD_REACTORS
330
2A
102
}
330
2A
100
AcDbVisualStyle
  2
Basic
 70
     7
 71
     1
 72
     0
 73
     1
 90
        0
 40
-0.6
 41
-30.0
 62
     5
 63
     7
 74
     0
 91
        4
 64
     7
 65
   257
 75
     1
175
     1
 42
1.0
 92
        8
 66
     7
 43
1.0
 76
     1
 77
     6
 78
     2
 67
     7
 79
     5
170
     0
171
     0
290
     0
174
     0
 93
        1
 44
0.0
173
     0
291
     1
 45
0.0
1001
ACAD
1000
AcDbSavedByObjectVersion
1070
     0
  0
VISUALSTYLE
  5
36
102
{ACAD_REACTORS
330
2A
102
}
330
2A
100
AcDbVisualStyle
  2
Brighten
 70
    12
 71
     2
 72
     2
 73
     0
 90
        0
 40
-0.6
 41
-30.0
 62
     5
 63
     7
 74
     1
 91
        4
 64
     7
 65
   257
 75
     1
175
     1
 42
1.0
 92
        8
 66
     7
 43
1.0
 76
     1
 77
     6
 78
     2
 67
     7
 79
     5
170
     0
171
     0
290
     0
174
     0
 93
        1
 44
50.0
173
     0
291
     1
 45
0.0
1001
ACAD
1000
AcDbSavedByObjectVersion
1070
     0
  0
VISUALSTYLE
  5
3A
102
{ACAD_REACTORS
330
2A
102
}
330
2A
100
AcDbVisualStyle
  2
ColorChange
 70
    16
 71
     2
 72
     2
 73
     3
 90
        0
 40
-0.6
 41
-30.0
 62
     5
 63
     8
 74
     1
 91
        4
 64
     7
 65
   257
 75
     1
175
     1
 42
1.0
 92
        8
 66
     8
 43
1.0
 76
     1
 77
     6
 78
     2
 67
     7
 79
     5
170
     0
171
     0
290
     0
174
     0
 93
        1
 44
0.0
173
     0
291
     1
 45
0.0
1001
ACAD
1000
AcDbSavedByObjectVersion
1070
     0
  0
VISUALSTYLE
  5
34
102
{ACAD_REACTORS
330
2A
102
}
330
2A
100
AcDbVisualStyle
  2
Conceptual
 70
     9
 71
     3
 72
     2
 73
     0
 90
        0
 40
-0.6
 41
-30.0
 62
     5
 63
     7
 74
     2
 91
        2
 64
     7
 65
   257
 75
     1
175
     1
 42
40.0
 92
        8
 66
     7
 43
1.0
 76
     1
 77
     6
 78
     2
 67
     7
 79
     3
170
     0
171
     0
290
     0
174
     0
 93
        1
 44
0.0
173
     0
291
     0
 45
0.0
1001
ACAD
1000
AcDbSavedByObjectVersion
1070
     0
  0
VISUALSTYLE
  5
35
102
{ACAD_REACTORS
330
2A
102
}
330
2A
100
AcDbVisualStyle
  2
Dim
 70
    11
 71
     2
 72
     2
 73
     0
 90
        0
 40
-0.6
 41
-30.0
 62
     5
 63
     7
 74
     1
 91
        4
 64
     7
 65
   257
 75
     1
175
     1
 42
1.0
 92
        8
 66
     7
 43
1.0
 76
     1
 77
     6
 78
     2
 67
     7
 79
     5
170
     0
171
     0
290
     0
174
     0
 93
        1
 44
-50.0
173
     0
291
     1
 45
0.0
1001
ACAD
1000
AcDbSavedByObjectVersion
1070
     0
  0
VISUALSTYLE
  5
39
102
{ACAD_REACTORS
330
2A
102
}
330
2A
100
AcDbVisualStyle
  2
Facepattern
 70
    15
 71
     2
 72
     2
 73
     0
 90
        0
 40
-0.6
 41
-30.0
 62
     5
 63
     7
 74
     1
 91
        4
 64
     7
 65
   257
 75
     1
175
     1
 42
1.0
 92
        8
 66
     7
 43
1.0
 76
     1
 77
     6
 78
     2
 67
     7
 79
     5
170
     0
171
     0
290
     0
174
     0
 93
        1
 44
0.0
173
     0
291
     1
 45
0.0
1001
ACAD
1000
AcDbSavedByObjectVersion
1070
     0
  0
VISUALSTYLE
  5
2B
102
{ACAD_REACTORS
330
2A
102
}
330
2A
100
AcDbVisualStyle
  2
Flat
 70
     0
 71
     2
 72
     1
 73
     1
 90
        2
 40
-0.6
 41
30.0
 62
     5
 63
     7
 74
     0
 91
        4
 64
     7
 65
   257
 75
     1
175
     1
 42
1.0
 92
        8
 66
     7
 43
1.0
 76
     1
 77
     6
 78
     2
 67
     7
 79
     5
170
     0
171
     0
290
     0
174
     0
 93
       13
 44
0.0
173
     0
291
     1
 45
0.0
1001
ACAD
1000
AcDbSavedByObjectVersion
1070
     0
  0
VISUALSTYLE
  5
2C
102
{ACAD_REACTORS
330
2A
102
}
330
2A
100
AcDbVisualStyle
  2
FlatWithEdges
 70
     1
 71
     2
 72
     1
 73
     1
 90
        2
 40
-0.6
 41
30.0
 62
     5
 63
     7
 74
     1
 91
        4
 64
     7
 65
   257
 75
     1
175
     1
 42
1.0
 92
        0
 66
   257
 43
1.0
 76
     1
 77
     6
 78
     2
 67
     7
 79
     5
170
     0
171
     0
290
     0
174
     0
 93
       13
 44
0.0
173
     0
291
     1
 45
0.0
1001
ACAD
1000
AcDbSavedByObjectVersion
1070
     0
  0
VISUALSTYLE
  5
2D
102
{ACAD_REACTORS
330
2A
102
}
330
2A
100
AcDbVisualStyle
  2
Gouraud
 70
     2
 71
     2
 72
     2
 73
     1
 90
        2
 40
-0.6
 41
30.0
 62
     5
 63
     7
 74
     0
 91
        4
 64
     7
 65
   257
 75
     1
175
     1
 42
1.0
 92
        0
 66
     7
 43
1.0
 76
     1
 77
     6
 78
     2
 67
     7
 79
     5
170
     0
171
     0
290
     0
174
     0
 93
       13
 44
0.0
173
     0
291
     1
 45
0.0
1001
ACAD
1000
AcDbSavedByObjectVersion
1070
     0
  0
VISUALSTYLE
  5
2E
102
{ACAD_REACTORS
330
2A
102
}
330
2A
100
AcDbVisualStyle
  2
GouraudWithEdges
 70
     3
 71
     2
 72
     2
 73
     1
 90
        2
 40
-0.6
 41
30.0
 62
     5
 63
     7
 74
     1
 91
        4
 64
     7
 65
   257
 75
     1
175
     1
 42
1.0
 92
        0
 66
   257
 43
1.0
 76
     1
 77
     6
 78
     2
 67
     7
 79
     5
170
     0
171
     0
290
     0
174
     0
 93
       13
 44
0.0
173
     0
291
     1
 45
0.0
1001
ACAD
1000
AcDbSavedByObjectVersion
1070
     0
  0
VISUALSTYLE
  5
38
102
{ACAD_REACTORS
330
2A
102
}
330
2A
100
AcDbVisualStyle
  2
Linepattern
 70
    14
 71
     2
 72
     2
 73
     0
 90
        0
 40
-0.6
 41
-30.0
 62
     5
 63
     7
 74
     1
 91
        4
 64
     7
 65
   257
 75
     7
175
     7
 42
1.0
 92
        8
 66
     7
 43
1.0
 76
     1
 77
     6
 78
     2
 67
     7
 79
     5
170
     0
171
     0
290
     0
174
     0
 93
        1
 44
0.0
173
     0
291
     1
 45
0.0
1001
ACAD
1000
AcDbSavedByObjectVersion
1070
     0
  0
VISUALSTYLE
  5
33
102
{ACAD_REACTORS
330
2A
102
}
330
2A
100
AcDbVisualStyle
  2
Realistic
 70
     8
 71
     2
 72
     2
 73
     0
 90
        0
 40
-0.6
 41
-30.0
 62
     5
 63
     7
 74
     1
 91
        0
 64
     7
 65
   257
 75
     1
175
     1
 42
1.0
 92
        8
 66
     8
 43
1.0
 76
     1
 77
     6
 78
     2
 67
     7
 79
     5
170
     0
171
     0
290
     0
174
     0
 93
       13
 44
0.0
173
     0
291
     0
 45
0.0
1001
ACAD
1000
AcDbSavedByObjectVersion
1070
     0
  0
VISUALSTYLE
  5
37
102
{ACAD_REACTORS
330
2A
102
}
330
2A
100
AcDbVisualStyle
  2
Thicken
 70
    13
 71
     2
 72
     2
 73
     0
 90
        0
 40
-0.6
 41
-30.0
 62
     5
 63
     7
 74
     1
 91
        4
 64
     7
 65
   257
 75
     1
175
     1
 42
1.0
 92
       12
 66
     7
 43
1.0
 76
     1
 77
     6
 78
     2
 67
     7
 79
     5
170
     0
171
     0
290
     0
174
     0
 93
        1
 44
0.0
173
     0
291
     1
 45
0.0
1001
ACAD
1000
AcDbSavedByObjectVersion
1070
     0
  0
DICTIONARYVAR
  5
213
102
{ACAD_REACTORS
330
211
102
}
330
211
100
DictionaryVariables
280
     0
  1
80.000000
  0
DICTIONARYVAR
  5
212
102
{ACAD_REACTORS
330
211
102
}
330
211
100
DictionaryVariables
280
     0
  1
5.000000
  0
ENDSEC
  0
EOF
