  0
SECTION
  2
HEADER
  9
$ACADVER
  1
AC1015
  9
$ACADMAINTVER
 70
     6
  9
$DWGCODEPAGE
  3
ANSI_1252
  9
$INSBASE
 10
0.0
 20
0.0
 30
0.0
  9
$EXTMIN
 10
0.0
 20
0.0
 30
0.0
  9
$EXTMAX
 10
297.0
 20
210.0
 30
0.0
  9
$LIMMIN
 10
0.0
 20
0.0
  9
$LIMMAX
 10
297.0
 20
210.0
  9
$ORTHOMODE
 70
     0
  9
$REGENMODE
 70
     1
  9
$FILLMODE
 70
     1
  9
$QTEXTMODE
 70
     0
  9
$MIRRTEXT
 70
     1
  9
$LTSCALE
 40
1.0
  9
$ATTMODE
 70
     1
  9
$TEXTSIZE
 40
2.0
  9
$TRACEWID
 40
1.0
  9
$TEXTSTYLE
  7
Standard
  9
$CLAYER
  8
0
  9
$CELTYPE
  6
ByLayer
  9
$CECOLOR
 62
   256
  9
$CELTSCALE
 40
1.0
  9
$DISPSILH
 70
     0
  9
$DIMSCALE
 40
1.0
  9
$DIMASZ
 40
3.0
  9
$DIMEXO
 40
0.0
  9
$DIMDLI
 40
3.75
  9
$DIMRND
 40
0.0
  9
$DIMDLE
 40
0.0
  9
$DIMEXE
 40
1.0
  9
$DIMTP
 40
0.0
  9
$DIMTM
 40
0.0
  9
$DIMTXT
 40
2.0
  9
$DIMCEN
 40
2.5
  9
$DIMTSZ
 40
0.0
  9
$DIMTOL
 70
     0
  9
$DIMLIM
 70
     0
  9
$DIMTIH
 70
     1
  9
$DIMTOH
 70
     1
  9
$DIMSE1
 70
     0
  9
$DIMSE2
 70
     0
  9
$DIMTAD
 70
     1
  9
$DIMZIN
 70
     0
  9
$DIMBLK
  1

  9
$DIMASO
 70
     1
  9
$DIMSHO
 70
     1
  9
$DIMPOST
  1

  9
$DIMAPOST
  1

  9
$DIMALT
 70
     0
  9
$DIMALTD
 70
     3
  9
$DIMALTF
 40
0.0393700787
  9
$DIMLFAC
 40
1.0
  9
$DIMTOFL
 70
     1
  9
$DIMTVP
 40
0.0
  9
$DIMTIX
 70
     0
  9
$DIMSOXD
 70
     0
  9
$DIMSAH
 70
     0
  9
$DIMBLK1
  1

  9
$DIMBLK2
  1

  9
$DIMSTYLE
  2
ISO-25
  9
$DIMCLRD
 70
     0
  9
$DIMCLRE
 70
     0
  9
$DIMCLRT
 70
     0
  9
$DIMTFAC
 40
1.0
  9
$DIMGAP
 40
1.524
  9
$DIMJUST
 70
     0
  9
$DIMSD1
 70
     0
  9
$DIMSD2
 70
     0
  9
$DIMTOLJ
 70
     0
  9
$DIMTZIN
 70
     0
  9
$DIMALTZ
 70
     0
  9
$DIMALTTZ
 70
     0
  9
$DIMUPT
 70
     0
  9
$DIMDEC
 70
     2
  9
$DIMTDEC
 70
     3
  9
$DIMALTU
 70
     2
  9
$DIMALTTD
 70
     3
  9
$DIMTXSTY
  7
Standard
  9
$DIMAUNIT
 70
     0
  9
$DIMADEC
 70
     2
  9
$DIMALTRND
 40
0.0
  9
$DIMAZIN
 70
     0
  9
$DIMDSEP
 70
    44
  9
$DIMATFIT
 70
     3
  9
$DIMFRAC
 70
     0
  9
$DIMLDRBLK
  1

  9
$DIMLUNIT
 70
     2
  9
$DIMLWD
 70
    -2
  9
$DIMLWE
 70
    -2
  9
$DIMTMOVE
 70
     0
  9
$LUNITS
 70
     2
  9
$LUPREC
 70
     2
  9
$SKETCHINC
 40
1.0
  9
$FILLETRAD
 40
10.0
  9
$AUNITS
 70
     0
  9
$AUPREC
 70
     2
  9
$MENU
  1
.
  9
$ELEVATION
 40
0.0
  9
$PELEVATION
 40
0.0
  9
$THICKNESS
 40
0.0
  9
$LIMCHECK
 70
     0
  9
$CHAMFERA
 40
10.0
  9
$CHAMFERB
 40
10.0
  9
$CHAMFERC
 40
20.0
  9
$CHAMFERD
 40
0.0
  9
$SKPOLY
 70
     0
  9
$TDCREATE
 40
2455673.41262985
  9
$TDUCREATE
 40
2455673.329296516
  9
$TDUPDATE
 40
2455673.412629861
  9
$TDUUPDATE
 40
2455673.329296528
  9
$TDINDWG
 40
0.0000000116
  9
$TDUSRTIMER
 40
0.0000000116
  9
$USRTIMER
 70
     1
  9
$ANGBASE
 50
0.0
  9
$ANGDIR
 70
     0
  9
$PDMODE
 70
     0
  9
$PDSIZE
 40
-1.0
  9
$PLINEWID
 40
0.0
  9
$SPLFRAME
 70
     0
  9
$SPLINETYPE
 70
     6
  9
$SPLINESEGS
 70
     8
  9
$HANDSEED
  5
20F
  9
$SURFTAB1
 70
     6
  9
$SURFTAB2
 70
     6
  9
$SURFTYPE
 70
     6
  9
$SURFU
 70
     6
  9
$SURFV
 70
     6
  9
$UCSBASE
  2

  9
$UCSNAME
  2

  9
$UCSORG
 10
0.0
 20
0.0
 30
0.0
  9
$UCSXDIR
 10
1.0
 20
0.0
 30
0.0
  9
$UCSYDIR
 10
0.0
 20
1.0
 30
0.0
  9
$UCSORTHOREF
  2

  9
$UCSORTHOVIEW
 70
     0
  9
$UCSORGTOP
 10
0.0
 20
0.0
 30
0.0
  9
$UCSORGBOTTOM
 10
0.0
 20
0.0
 30
0.0
  9
$UCSORGLEFT
 10
0.0
 20
0.0
 30
0.0
  9
$UCSORGRIGHT
 10
0.0
 20
0.0
 30
0.0
  9
$UCSORGFRONT
 10
0.0
 20
0.0
 30
0.0
  9
$UCSORGBACK
 10
0.0
 20
0.0
 30
0.0
  9
$PUCSBASE
  2

  9
$PUCSNAME
  2

  9
$PUCSORG
 10
0.0
 20
0.0
 30
0.0
  9
$PUCSXDIR
 10
1.0
 20
0.0
 30
0.0
  9
$PUCSYDIR
 10
0.0
 20
1.0
 30
0.0
  9
$PUCSORTHOREF
  2

  9
$PUCSORTHOVIEW
 70
     0
  9
$PUCSORGTOP
 10
0.0
 20
0.0
 30
0.0
  9
$PUCSORGBOTTOM
 10
0.0
 20
0.0
 30
0.0
  9
$PUCSORGLEFT
 10
0.0
 20
0.0
 30
0.0
  9
$PUCSORGRIGHT
 10
0.0
 20
0.0
 30
0.0
  9
$PUCSORGFRONT
 10
0.0
 20
0.0
 30
0.0
  9
$PUCSORGBACK
 10
0.0
 20
0.0
 30
0.0
  9
$USERI1
 70
     0
  9
$USERI2
 70
     0
  9
$USERI3
 70
     0
  9
$USERI4
 70
     0
  9
$USERI5
 70
     0
  9
$USERR1
 40
0.0
  9
$USERR2
 40
0.0
  9
$USERR3
 40
0.0
  9
$USERR4
 40
0.0
  9
$USERR5
 40
0.0
  9
$WORLDVIEW
 70
     1
  9
$SHADEDGE
 70
     3
  9
$SHADEDIF
 70
    70
  9
$TILEMODE
 70
     1
  9
$MAXACTVP
 70
    64
  9
$PINSBASE
 10
0.0
 20
0.0
 30
0.0
  9
$PLIMCHECK
 70
     0
  9
$PEXTMIN
 10
1.0000000000E+20
 20
1.0000000000E+20
 30
1.0000000000E+20
  9
$PEXTMAX
 10
-1.0000000000E+20
 20
-1.0000000000E+20
 30
-1.0000000000E+20
  9
$PLIMMIN
 10
0.0
 20
0.0
  9
$PLIMMAX
 10
420.0
 20
297.0
  9
$UNITMODE
 70
     0
  9
$VISRETAIN
 70
     1
  9
$PLINEGEN
 70
     0
  9
$PSLTSCALE
 70
     1
  9
$TREEDEPTH
 70
  3020
  9
$CMLSTYLE
  2
Standard
  9
$CMLJUST
 70
     0
  9
$CMLSCALE
 40
20.0
  9
$PROXYGRAPHICS
 70
     1
  9
$MEASUREMENT
 70
     1
  9
$CELWEIGHT
370
    -1
  9
$ENDCAPS
280
     0
  9
$JOINSTYLE
280
     0
  9
$LWDISPLAY
290
     1
  9
$INSUNITS
 70
     4
  9
$HYPERLINKBASE
  1

  9
$STYLESHEET
  1

  9
$XEDIT
290
     1
  9
$CEPSNTYPE
380
     0
  9
$PSTYLEMODE
290
     1
  9
$FINGERPRINTGUID
  2
{0D894B99-7F3A-4FAB-A8D5-95A68B8C8C97}
  9
$VERSIONGUID
  2
{FAEB1C32-E019-11D5-929B-00C0DF256EC4}
  9
$EXTNAMES
290
     1
  9
$PSVPSCALE
 40
0.0
  9
$OLESTARTUP
290
     0
  0
ENDSEC
  0
SECTION
  2
CLASSES
  0
CLASS
  1
ACDBDICTIONARYWDFLT
  2
AcDbDictionaryWithDefault
  3
ObjectDBX Classes
 90
        0
280
     0
281
     0
  0
CLASS
  1
VISUALSTYLE
  2
AcDbVisualStyle
  3
ObjectDBX Classes
 90
     4095
280
     0
281
     0
  0
CLASS
  1
DICTIONARYVAR
  2
AcDbDictionaryVar
  3
ObjectDBX Classes
 90
        0
280
     0
281
     0
  0
CLASS
  1
ACDBPLACEHOLDER
  2
AcDbPlaceHolder
  3
ObjectDBX Classes
 90
        0
280
     0
281
     0
  0
CLASS
  1
LAYOUT
  2
AcDbLayout
  3
ObjectDBX Classes
 90
        0
280
     0
281
     0
  0
ENDSEC
  0
SECTION
  2
TABLES
  0
TABLE
  2
VPORT
  5
8
330
0
100
AcDbSymbolTable
 70
     1
  0
VPORT
  5
29
330
8
100
AcDbSymbolTableRecord
100
AcDbViewportTableRecord
  2
*Active
 70
     0
 10
0.0
 20
0.0
 11
1.0
 21
1.0
 12
148.5
 22
105.0
 13
0.0
 23
0.0
 14
10.0
 24
10.0
 15
10.0
 25
10.0
 16
0.0
 26
0.0
 36
1.0
 17
0.0
 27
0.0
 37
0.0
 40
210.0
 41
1.4142857143
 42
50.0
 43
0.0
 44
0.0
 50
0.0
 51
0.0
 71
     0
 72
  2000
 73
     1
 74
     3
 75
     0
 76
     0
 77
     0
 78
     0
281
     0
 65
     1
110
0.0
120
0.0
130
0.0
111
1.0
121
0.0
131
0.0
112
0.0
122
1.0
132
0.0
 79
     0
146
0.0
  0
ENDTAB
  0
TABLE
  2
LTYPE
  5
5
330
0
100
AcDbSymbolTable
 70
     6
  0
LTYPE
  5
14
330
5
100
AcDbSymbolTableRecord
100
AcDbLinetypeTableRecord
  2
ByBlock
 70
     0
  3

 72
    65
 73
     0
 40
0.0
  0
LTYPE
  5
15
330
5
100
AcDbSymbolTableRecord
100
AcDbLinetypeTableRecord
  2
ByLayer
 70
     0
  3

 72
    65
 73
     0
 40
0.0
  0
LTYPE
  5
16
330
5
100
AcDbSymbolTableRecord
100
AcDbLinetypeTableRecord
  2
Continuous
 70
     0
  3
Solid line
 72
    65
 73
     0
 40
0.0
  0
LTYPE
  5
3B
330
5
100
AcDbSymbolTableRecord
100
AcDbLinetypeTableRecord
  2
HIDDEN
 70
     0
  3
Hidden __ __ __ __ __ __ __ __ __ __ __ __ __ __
 72
    65
 73
     2
 40
1.905
 49
1.27
 74
     0
 49
-0.635
 74
     0
  0
LTYPE
  5
3C
330
5
100
AcDbSymbolTableRecord
100
AcDbLinetypeTableRecord
  2
PHANTOM
 70
     0
  3
Phantom ______  __  __  ______  __  __  ______
 72
    65
 73
     6
 40
12.7
 49
6.35
 74
     0
 49
-1.27
 74
     0
 49
1.27
 74
     0
 49
-1.27
 74
     0
 49
1.27
 74
     0
 49
-1.27
 74
     0
  0
LTYPE
  5
3D
330
5
100
AcDbSymbolTableRecord
100
AcDbLinetypeTableRecord
  2
CENTER
 70
     0
  3
Center ____ _ ____ _ ____ _ ____ _ ____ _ ____
 72
    65
 73
     4
 40
10.16
 49
6.35
 74
     0
 49
-1.27
 74
     0
 49
1.27
 74
     0
 49
-1.27
 74
     0
  0
LTYPE
  5
3E
330
5
100
AcDbSymbolTableRecord
100
AcDbLinetypeTableRecord
  2
CENTERX2
 70
     0
  3
Center (2x) ________  __  ________  __  _____
 72
    65
 73
     4
 40
20.32
 49
12.7
 74
     0
 49
-2.54
 74
     0
 49
2.54
 74
     0
 49
-2.54
 74
     0
  0
LTYPE
  5
3F
330
5
100
AcDbSymbolTableRecord
100
AcDbLinetypeTableRecord
  2
DOT2
 70
     0
  3
Dot (.5x) ........................................
 72
    65
 73
     2
 40
0.635
 49
0.0
 74
     0
 49
-0.635
 74
     0
  0
ENDTAB
  0
TABLE
  2
LAYER
  5
2
330
0
100
AcDbSymbolTable
 70
     5
  0
LAYER
  5
10
330
2
100
AcDbSymbolTableRecord
100
AcDbLayerTableRecord
  2
0
 70
     0
 62
     7
  6
Continuous
370
    -3
390
F
  0
LAYER
  5
40
330
2
100
AcDbSymbolTableRecord
100
AcDbLayerTableRecord
  2
FORMAT
 70
     0
 62
     7
  6
Continuous
370
    -3
390
F
  0
LAYER
  5
41
330
2
100
AcDbSymbolTableRecord
100
AcDbLayerTableRecord
  2
VERMASSUNG
 70
     0
 62
     7
  6
Continuous
370
    -3
390
F
  0
LAYER
  5
42
330
2
100
AcDbSymbolTableRecord
100
AcDbLayerTableRecord
  2
KOPF_DÜNN
 70
     0
 62
     7
  6
Continuous
370
    -3
390
F
  0
LAYER
  5
43
330
2
100
AcDbSymbolTableRecord
100
AcDbLayerTableRecord
  2
KOPF_DICK
 70
     0
 62
     7
  6
Continuous
370
    15
390
F
  0
ENDTAB
  0
TABLE
  2
STYLE
  5
3
330
0
100
AcDbSymbolTable
 70
     3
  0
STYLE
  5
11
330
3
100
AcDbSymbolTableRecord
100
AcDbTextStyleTableRecord
  2
Standard
 70
     0
 40
0.0
 41
1.0
 50
0.0
 71
     0
 42
2.5
  3
txt
  4

  0
STYLE
  5
44
330
3
100
AcDbSymbolTableRecord
100
AcDbTextStyleTableRecord
  2
SLDTEXTSTYLE0
 70
     0
 40
0.0
 41
0.7
 50
0.0
 71
     0
 42
0.2
  3
TXT
  4

  0
STYLE
  5
48
330
3
100
AcDbSymbolTableRecord
100
AcDbTextStyleTableRecord
  2
SLDTEXTSTYLE1
 70
     0
 40
0.0
 41
0.6473684211
 50
0.0
 71
     0
 42
0.2
  3
TXT
  4

  0
ENDTAB
  0
TABLE
  2
VIEW
  5
6
330
0
100
AcDbSymbolTable
 70
     0
  0
ENDTAB
  0
TABLE
  2
UCS
  5
7
330
0
100
AcDbSymbolTable
 70
     0
  0
ENDTAB
  0
TABLE
  2
APPID
  5
9
330
0
100
AcDbSymbolTable
 70
     1
  0
APPID
  5
12
330
9
100
AcDbSymbolTableRecord
100
AcDbRegAppTableRecord
  2
ACAD
 70
     0
  0
ENDTAB
  0
TABLE
  2
DIMSTYLE
  5
A
330
0
100
AcDbSymbolTable
 70
     2
100
AcDbDimStyleTable
  0
DIMSTYLE
105
27
330
A
100
AcDbSymbolTableRecord
100
AcDbDimStyleTableRecord
  2
ISO-25
 70
     0
 41
2.5
 42
0.625
 43
3.75
 44
1.25
 73
     0
 74
     0
 77
     1
 78
     8
140
2.5
141
2.5
143
0.0393700787
147
0.625
171
     3
172
     1
271
     2
272
     2
274
     3
278
    44
283
     0
284
     8
340
11
  0
DIMSTYLE
105
1C8
102
{ACAD_REACTORS
330
1C7
330
1D2
330
1DC
330
1E6
330
1F1
330
1FD
102
}
330
A
100
AcDbSymbolTableRecord
100
AcDbDimStyleTableRecord
  2
SLDDIMSTYLE0
 70
     0
 41
3.0
 44
0.0
 45
0.000000001
 73
     0
 74
     0
 77
     1
 78
    12
140
2.0
147
0.5
173
     1
271
     2
272
     3
284
    12
340
44
  0
ENDTAB
  0
TABLE
  2
BLOCK_RECORD
  5
1
330
0
100
AcDbSymbolTable
 70
     7
  0
BLOCK_RECORD
  5
1F
330
1
100
AcDbSymbolTableRecord
100
AcDbBlockTableRecord
  2
*Model_Space
340
22
  0
BLOCK_RECORD
  5
1B
330
1
100
AcDbSymbolTableRecord
100
AcDbBlockTableRecord
  2
*Paper_Space
340
1E
  0
BLOCK_RECORD
  5
23
330
1
100
AcDbSymbolTableRecord
100
AcDbBlockTableRecord
  2
*Paper_Space0
340
26
  0
BLOCK_RECORD
  5
1C9
330
1
100
AcDbSymbolTableRecord
100
AcDbBlockTableRecord
  2
*D1
340
0
  0
BLOCK_RECORD
  5
1D3
330
1
100
AcDbSymbolTableRecord
100
AcDbBlockTableRecord
  2
*D2
340
0
  0
BLOCK_RECORD
  5
1DD
330
1
100
AcDbSymbolTableRecord
100
AcDbBlockTableRecord
  2
*D3
340
0
  0
BLOCK_RECORD
  5
1E7
330
1
100
AcDbSymbolTableRecord
100
AcDbBlockTableRecord
  2
*D4
340
0
  0
BLOCK_RECORD
  5
1F2
330
1
100
AcDbSymbolTableRecord
100
AcDbBlockTableRecord
  2
*D5
340
0
  0
BLOCK_RECORD
  5
1FE
330
1
100
AcDbSymbolTableRecord
100
AcDbBlockTableRecord
  2
*D6
340
0
  0
ENDTAB
  0
ENDSEC
  0
SECTION
  2
BLOCKS
  0
BLOCK
  5
20
330
1F
100
AcDbEntity
  8
0
100
AcDbBlockBegin
  2
*Model_Space
 70
     0
 10
0.0
 20
0.0
 30
0.0
  3
*Model_Space
  1

  0
ENDBLK
  5
21
330
1F
100
AcDbEntity
  8
0
100
AcDbBlockEnd
  0
BLOCK
  5
1C
330
1B
100
AcDbEntity
 67
     1
  8
0
100
AcDbBlockBegin
  2
*Paper_Space
 70
     0
 10
0.0
 20
0.0
 30
0.0
  3
*Paper_Space
  1

  0
ENDBLK
  5
1D
330
1B
100
AcDbEntity
 67
     1
  8
0
100
AcDbBlockEnd
  0
BLOCK
  5
24
330
23
100
AcDbEntity
  8
0
100
AcDbBlockBegin
  2
*Paper_Space0
 70
     0
 10
0.0
 20
0.0
 30
0.0
  3
*Paper_Space0
  1

  0
ENDBLK
  5
25
330
23
100
AcDbEntity
  8
0
100
AcDbBlockEnd
  0
BLOCK
  5
1CA
330
1C9
100
AcDbEntity
  8
0
100
AcDbBlockBegin
  2
*D1
 70
     1
 10
0.0
 20
0.0
 30
0.0
  3
*D1
  1

  0
SOLID
  5
1CC
330
1C9
100
AcDbEntity
  8
VERMASSUNG
100
AcDbTrace
 10
45.1030664039
 20
162.8336944745
 30
0.0
 11
48.1030664039
 21
162.3836944745
 31
0.0
 12
48.1030664039
 22
163.2836944745
 32
0.0
 13
48.1030664039
 23
163.2836944745
 33
0.0
  0
SOLID
  5
1CD
330
1C9
100
AcDbEntity
  8
VERMASSUNG
100
AcDbTrace
 10
237.0030664039
 20
162.8336944745
 30
0.0
 11
234.0030664039
 21
163.2836944745
 31
0.0
 12
234.0030664039
 22
162.3836944745
 32
0.0
 13
234.0030664039
 23
162.3836944745
 33
0.0
  0
LINE
  5
1CE
330
1C9
100
AcDbEntity
  8
VERMASSUNG
100
AcDbLine
 10
45.1030664039
 20
134.95455865
 30
0.0
 11
45.1030664039
 21
163.8336944745
 31
0.0
  0
LINE
  5
1CF
330
1C9
100
AcDbEntity
  8
VERMASSUNG
100
AcDbLine
 10
237.0030664039
 20
132.9897403819
 30
0.0
 11
237.0030664039
 21
163.8336944745
 31
0.0
  0
LINE
  5
1D0
330
1C9
100
AcDbEntity
  8
VERMASSUNG
100
AcDbLine
 10
45.1030664039
 20
162.8336944745
 30
0.0
 11
237.0030664039
 21
162.8336944745
 31
0.0
  0
MTEXT
  5
1D1
330
1C9
100
AcDbEntity
  8
VERMASSUNG
100
AcDbMText
 10
138.3540999901
 20
165.4118298377
 30
0.0
 40
2.0
 41
0.0
 71
     1
 72
     1
  1
191.9
  7
SLDTEXTSTYLE0
 73
     1
 44
1.0
  0
ENDBLK
  5
1CB
330
1C9
100
AcDbEntity
  8
0
100
AcDbBlockEnd
  0
BLOCK
  5
1D4
330
1D3
100
AcDbEntity
  8
0
100
AcDbBlockBegin
  2
*D2
 70
     1
 10
0.0
 20
0.0
 30
0.0
  3
*D2
  1

  0
SOLID
  5
1D6
330
1D3
100
AcDbEntity
  8
VERMASSUNG
100
AcDbTrace
 10
77.0030664039
 20
156.8336944745
 30
0.0
 11
80.0030664039
 21
156.3836944745
 31
0.0
 12
80.0030664039
 22
157.2836944745
 32
0.0
 13
80.0030664039
 23
157.2836944745
 33
0.0
  0
SOLID
  5
1D7
330
1D3
100
AcDbEntity
  8
VERMASSUNG
100
AcDbTrace
 10
237.0030664039
 20
156.8336944745
 30
0.0
 11
234.0030664039
 21
157.2836944745
 31
0.0
 12
234.0030664039
 22
156.3836944745
 32
0.0
 13
234.0030664039
 23
156.3836944745
 33
0.0
  0
LINE
  5
1D8
330
1D3
100
AcDbEntity
  8
VERMASSUNG
100
AcDbLine
 10
77.0030664039
 20
146.4638809035
 30
0.0
 11
77.0030664039
 21
157.8336944745
 31
0.0
  0
LINE
  5
1D9
330
1D3
100
AcDbEntity
  8
VERMASSUNG
100
AcDbLine
 10
237.0030664039
 20
132.9897403819
 30
0.0
 11
237.0030664039
 21
157.8336944745
 31
0.0
  0
LINE
  5
1DA
330
1D3
100
AcDbEntity
  8
VERMASSUNG
100
AcDbLine
 10
77.0030664039
 20
156.8336944745
 30
0.0
 11
237.0030664039
 21
156.8336944745
 31
0.0
  0
MTEXT
  5
1DB
330
1D3
100
AcDbEntity
  8
VERMASSUNG
100
AcDbMText
 10
155.1035788633
 20
159.4118298377
 30
0.0
 40
2.0
 41
0.0
 71
     1
 72
     1
  1
160
  7
SLDTEXTSTYLE0
 73
     1
 44
1.0
  0
ENDBLK
  5
1D5
330
1D3
100
AcDbEntity
  8
0
100
AcDbBlockEnd
  0
BLOCK
  5
1DE
330
1DD
100
AcDbEntity
  8
0
100
AcDbBlockBegin
  2
*D3
 70
     1
 10
0.0
 20
0.0
 30
0.0
  3
*D3
  1

  0
SOLID
  5
1E0
330
1DD
100
AcDbEntity
  8
VERMASSUNG
100
AcDbTrace
 10
102.9530664039
 20
150.8336944745
 30
0.0
 11
105.9530664039
 21
150.3836944745
 31
0.0
 12
105.9530664039
 22
151.2836944745
 32
0.0
 13
105.9530664039
 23
151.2836944745
 33
0.0
  0
SOLID
  5
1E1
330
1DD
100
AcDbEntity
  8
VERMASSUNG
100
AcDbTrace
 10
237.0030664039
 20
150.8336944745
 30
0.0
 11
234.0030664039
 21
151.2836944745
 31
0.0
 12
234.0030664039
 22
150.3836944745
 32
0.0
 13
234.0030664039
 23
150.3836944745
 33
0.0
  0
LINE
  5
1E2
330
1DD
100
AcDbEntity
  8
VERMASSUNG
100
AcDbLine
 10
102.9530664039
 20
145.1103212273
 30
0.0
 11
102.9530664039
 21
151.8336944745
 31
0.0
  0
LINE
  5
1E3
330
1DD
100
AcDbEntity
  8
VERMASSUNG
100
AcDbLine
 10
237.0030664039
 20
132.9897403819
 30
0.0
 11
237.0030664039
 21
151.8336944745
 31
0.0
  0
LINE
  5
1E4
330
1DD
100
AcDbEntity
  8
VERMASSUNG
100
AcDbLine
 10
102.9530664039
 20
150.8336944745
 30
0.0
 11
237.0030664039
 21
150.8336944745
 31
0.0
  0
MTEXT
  5
1E5
330
1DD
100
AcDbEntity
  8
VERMASSUNG
100
AcDbMText
 10
166.2788811385
 20
153.4118298377
 30
0.0
 40
2.0
 41
0.0
 71
     1
 72
     1
  1
134.05
  7
SLDTEXTSTYLE0
 73
     1
 44
1.0
  0
ENDBLK
  5
1DF
330
1DD
100
AcDbEntity
  8
0
100
AcDbBlockEnd
  0
BLOCK
  5
1E8
330
1E7
100
AcDbEntity
  8
0
100
AcDbBlockBegin
  2
*D4
 70
     1
 10
0.0
 20
0.0
 30
0.0
  3
*D4
  1

  0
SOLID
  5
1EA
330
1E7
100
AcDbEntity
  8
VERMASSUNG
100
AcDbTrace
 10
243.1577199695
 20
124.2638809035
 30
0.0
 11
242.7077199695
 21
121.2638809035
 31
0.0
 12
243.6077199695
 22
121.2638809035
 32
0.0
 13
243.6077199695
 23
121.2638809035
 33
0.0
  0
SOLID
  5
1EB
330
1E7
100
AcDbEntity
  8
VERMASSUNG
100
AcDbTrace
 10
243.1577199695
 20
106.2638809035
 30
0.0
 11
243.6077199695
 21
109.2638809035
 31
0.0
 12
242.7077199695
 22
109.2638809035
 32
0.0
 13
242.7077199695
 23
109.2638809035
 33
0.0
  0
LINE
  5
1EC
330
1E7
100
AcDbEntity
  8
VERMASSUNG
100
AcDbLine
 10
236.7030664039
 20
124.2638809035
 30
0.0
 11
244.1577199695
 21
124.2638809035
 31
0.0
  0
LINE
  5
1ED
330
1E7
100
AcDbEntity
  8
VERMASSUNG
100
AcDbLine
 10
236.7030664039
 20
106.2638809035
 30
0.0
 11
244.1577199695
 21
106.2638809035
 31
0.0
  0
LINE
  5
1EE
330
1E7
100
AcDbEntity
  8
VERMASSUNG
100
AcDbLine
 10
243.1577199695
 20
124.2638809035
 30
0.0
 11
243.1577199695
 21
106.2638809035
 31
0.0
  0
MTEXT
  5
1EF
330
1E7
100
AcDbEntity
  8
VERMASSUNG
100
AcDbMText
 10
240.57958449
 20
112.2597433087
 30
0.0
 40
2.0
 41
0.0
 71
     1
 72
     1
  1
%%c
  7
SLDTEXTSTYLE0
 11
-7.044195017643634E-15
 21
1.0
 31
0.0
 73
     1
 44
1.0
  0
MTEXT
  5
1F0
330
1E7
100
AcDbEntity
  8
VERMASSUNG
100
AcDbMText
 10
240.5795846064
 20
115.8684215319
 30
0.0
 40
2.0
 41
0.0
 71
     1
 72
     1
  1
18
  7
SLDTEXTSTYLE0
 11
-7.044195017643634E-15
 21
1.0
 31
0.0
 73
     1
 44
1.0
  0
ENDBLK
  5
1E9
330
1E7
100
AcDbEntity
  8
0
100
AcDbBlockEnd
  0
BLOCK
  5
1F3
330
1F2
100
AcDbEntity
  8
0
100
AcDbBlockBegin
  2
*D5
 70
     1
 10
0.0
 20
0.0
 30
0.0
  3
*D5
  1

  0
SOLID
  5
1F5
330
1F2
100
AcDbEntity
  8
VERMASSUNG
100
AcDbTrace
 10
39.8550238237
 20
146.7638809035
 30
0.0
 11
39.4050238237
 21
143.7638809035
 31
0.0
 12
40.3050238237
 22
143.7638809035
 32
0.0
 13
40.3050238237
 23
143.7638809035
 33
0.0
  0
SOLID
  5
1F6
330
1F2
100
AcDbEntity
  8
VERMASSUNG
100
AcDbTrace
 10
39.8550238237
 20
83.7638809035
 30
0.0
 11
40.3050238237
 21
86.7638809035
 31
0.0
 12
39.4050238237
 22
86.7638809035
 32
0.0
 13
39.4050238237
 23
86.7638809035
 33
0.0
  0
LINE
  5
1F7
330
1F2
100
AcDbEntity
  8
VERMASSUNG
100
AcDbLine
 10
77.3030664039
 20
146.7638809035
 30
0.0
 11
38.8550238237
 21
146.7638809035
 31
0.0
  0
LINE
  5
1F8
330
1F2
100
AcDbEntity
  8
VERMASSUNG
100
AcDbLine
 10
77.3030664039
 20
83.7638809035
 30
0.0
 11
38.8550238237
 21
83.7638809035
 31
0.0
  0
LINE
  5
1F9
330
1F2
100
AcDbEntity
  8
VERMASSUNG
100
AcDbLine
 10
39.8550238237
 20
146.7638809035
 30
0.0
 11
39.8550238237
 21
83.7638809035
 31
0.0
  0
MTEXT
  5
1FA
330
1F2
100
AcDbEntity
  8
VERMASSUNG
100
AcDbMText
 10
37.0768883347
 20
107.2669052785
 30
0.0
 40
2.0
 41
0.0
 71
     1
 72
     1
  1
HSK A 
  7
SLDTEXTSTYLE0
 11
-7.044195017643634E-15
 21
1.0
 31
0.0
 73
     1
 44
1.0
  0
MTEXT
  5
1FB
330
1F2
100
AcDbEntity
  8
VERMASSUNG
100
AcDbMText
 10
37.2768883442
 20
116.2669058224
 30
0.0
 40
2.0
 41
0.0
 71
     1
 72
     1
  1
%%c
  7
SLDTEXTSTYLE0
 11
-7.044195017643634E-15
 21
1.0
 31
0.0
 73
     1
 44
1.0
  0
MTEXT
  5
1FC
330
1F2
100
AcDbEntity
  8
VERMASSUNG
100
AcDbMText
 10
37.2768884606
 20
119.8752324724
 30
0.0
 40
2.0
 41
0.0
 71
     1
 72
     1
  1
63
  7
SLDTEXTSTYLE0
 11
-7.044195017643634E-15
 21
1.0
 31
0.0
 73
     1
 44
1.0
  0
ENDBLK
  5
1F4
330
1F2
100
AcDbEntity
  8
0
100
AcDbBlockEnd
  0
BLOCK
  5
1FF
330
1FE
100
AcDbEntity
  8
0
100
AcDbBlockBegin
  2
*D6
 70
     1
 10
0.0
 20
0.0
 30
0.0
  3
*D6
  1

  0
SOLID
  5
201
330
1FE
100
AcDbEntity
  8
VERMASSUNG
100
AcDbTrace
 10
249.1577199695
 20
139.2638809035
 30
0.0
 11
248.7077199695
 21
136.2638809035
 31
0.0
 12
249.6077199695
 22
136.2638809035
 32
0.0
 13
249.6077199695
 23
136.2638809035
 33
0.0
  0
SOLID
  5
202
330
1FE
100
AcDbEntity
  8
VERMASSUNG
100
AcDbTrace
 10
249.1577199695
 20
91.2638809035
 30
0.0
 11
249.6077199695
 21
94.2638809035
 31
0.0
 12
248.7077199695
 22
94.2638809035
 32
0.0
 13
248.7077199695
 23
94.2638809035
 33
0.0
  0
LINE
  5
203
330
1FE
100
AcDbEntity
  8
VERMASSUNG
100
AcDbLine
 10
226.2805318014
 20
139.2638809035
 30
0.0
 11
250.1577199695
 21
139.2638809035
 31
0.0
  0
LINE
  5
204
330
1FE
100
AcDbEntity
  8
VERMASSUNG
100
AcDbLine
 10
226.2805318014
 20
91.2638809035
 30
0.0
 11
250.1577199695
 21
91.2638809035
 31
0.0
  0
LINE
  5
205
330
1FE
100
AcDbEntity
  8
VERMASSUNG
100
AcDbLine
 10
249.1577199695
 20
139.2638809035
 30
0.0
 11
249.1577199695
 21
91.2638809035
 31
0.0
  0
MTEXT
  5
206
330
1FE
100
AcDbEntity
  8
VERMASSUNG
100
AcDbMText
 10
246.57958449
 20
111.9603738612
 30
0.0
 40
2.0
 41
0.0
 71
     1
 72
     1
  1
%%c
  7
SLDTEXTSTYLE0
 11
-7.044195017643634E-15
 21
1.0
 31
0.0
 73
     1
 44
1.0
  0
MTEXT
  5
207
330
1FE
100
AcDbEntity
  8
VERMASSUNG
100
AcDbMText
 10
246.5795846064
 20
115.5690520844
 30
0.0
 40
2.0
 41
0.0
 71
     1
 72
     1
  1
48
  7
SLDTEXTSTYLE0
 11
-7.044195017643634E-15
 21
1.0
 31
0.0
 73
     1
 44
1.0
  0
ENDBLK
  5
200
330
1FE
100
AcDbEntity
  8
0
100
AcDbBlockEnd
  0
ENDSEC
  0
SECTION
  2
ENTITIES
  0
MTEXT
  5
45
330
1F
100
AcDbEntity
  8
KOPF_DÜNN
100
AcDbMText
 10
13.8892156294
 20
23.8442973028
 30
0.0
 40
3.0
 41
0.0
 71
     1
 72
     1
  1
HA6.W18.K21.160
  7
SLDTEXTSTYLE0
 73
     1
 44
1.0
  0
MTEXT
  5
46
330
1F
100
AcDbEntity
  8
VERMASSUNG
100
AcDbMText
 10
13.9329988022
 20
28.8834360957
 30
0.0
 40
3.0
 41
0.0
 71
     1
 72
     1
  1
Flächenspannfutter_End mill adapter Weldon ø18
  7
SLDTEXTSTYLE0
 73
     1
 44
1.0
  0
MTEXT
  5
47
330
1F
100
AcDbEntity
  8
VERMASSUNG
100
AcDbMText
 10
98.8601118557
 20
13.8365368179
 30
0.0
 40
2.0
 41
0.0
 71
     1
 72
     1
  1
Datum: 09.10.2006
  7
SLDTEXTSTYLE0
 73
     1
 44
1.0
  0
MTEXT
  5
49
330
1F
100
AcDbEntity
  8
VERMASSUNG
100
AcDbMText
 10
13.933048693
 20
18.0482802738
 30
0.0
 40
2.0
 41
0.0
 71
     1
 72
     1
  1
DIN 69 893 HSK A 63
  7
SLDTEXTSTYLE1
 73
     1
 44
1.0
  0
MTEXT
  5
4A
330
1F
100
AcDbEntity
  8
VERMASSUNG
100
AcDbMText
 10
13.9808475933
 20
13.9090973692
 30
0.0
 40
2.0
 41
0.0
 71
     1
 72
     1
  1
Gewicht: 2376g
  7
SLDTEXTSTYLE0
 73
     1
 44
1.0
  0
ARC
  5
4B
330
1F
100
AcDbEntity
  8
0
  6
Continuous
 62
     7
370
    15
100
AcDbCircle
 10
77.3030664039
 20
84.0638809035
 30
0.0
 40
0.2999999999999972
100
AcDbArc
 50
180.0
 51
270.0
  0
ARC
  5
4C
330
1F
100
AcDbEntity
  8
0
  6
Continuous
 62
     7
370
    15
100
AcDbCircle
 10
77.3030664039
 20
146.4638809035
 30
0.0
 40
0.2999999999999972
100
AcDbArc
 50
90.0
 51
180.0
  0
LINE
  5
4D
330
1F
100
AcDbEntity
  8
0
  6
Continuous
 62
     7
370
    15
100
AcDbLine
 10
77.3030664039
 20
83.7638809035
 30
0.0
 11
81.9530664039
 21
83.7638809035
 31
0.0
  0
LINE
  5
4E
330
1F
100
AcDbEntity
  8
0
  6
Continuous
 62
     7
370
    15
100
AcDbLine
 10
81.981054763
 20
146.7638809035
 30
0.0
 11
77.3030664039
 21
146.7638809035
 31
0.0
  0
ARC
  5
4F
330
1F
100
AcDbEntity
  8
0
  6
Continuous
 62
     7
370
    15
100
AcDbCircle
 10
104.9530664039
 20
88.213371558
 30
0.0
 40
2.000000000000004
100
AcDbArc
 50
94.8123490719
 51
160.9885300494
  0
ARC
  5
50
330
1F
100
AcDbEntity
  8
0
  6
Continuous
 62
     7
370
    15
100
AcDbCircle
 10
104.9530664039
 20
142.3143902489
 30
0.0
 40
2.000000000000047
100
AcDbArc
 50
198.6794356079
 51
265.1876509281
  0
ARC
  5
51
330
1F
100
AcDbEntity
  8
0
  6
Continuous
 62
     7
370
    15
100
AcDbCircle
 10
129.9530664039
 20
-208.7361190965
 30
0.0
 40
300.0
100
AcDbArc
 50
90.0
 51
94.8123490719
  0
ARC
  5
52
330
1F
100
AcDbEntity
  8
0
  6
Continuous
 62
     7
370
    15
100
AcDbCircle
 10
129.9530664039
 20
439.2638809035
 30
0.0
 40
300.0
100
AcDbArc
 50
265.1876509281
 51
270.0
  0
ARC
  5
53
330
1F
100
AcDbEntity
  8
0
  6
Continuous
 62
     7
370
    15
100
AcDbCircle
 10
76.5030596513
 20
90.6934432891
 30
0.0
 40
0.6000067526677164
100
AcDbArc
 50
33.5571153394
 51
90.0
  0
ARC
  5
54
330
1F
100
AcDbEntity
  8
0
  6
Continuous
 62
     7
370
    15
100
AcDbCircle
 10
76.5030596513
 20
139.8343185179
 30
0.0
 40
0.6000067526677242
100
AcDbArc
 50
270.0
 51
326.4428846606
  0
LINE
  5
55
330
1F
100
AcDbEntity
  8
0
  6
Continuous
 62
     7
370
    15
100
AcDbLine
 10
63.7726442214
 20
138.9216653633
 30
0.0
 11
51.2030664039
 21
138.2919269957
 31
0.0
  0
LINE
  5
56
330
1F
100
AcDbEntity
  8
0
  6
Continuous
 62
     7
370
    15
100
AcDbLine
 10
75.0030664039
 20
139.4843117652
 30
0.0
 11
72.1844570464
 21
139.3430988716
 31
0.0
  0
LINE
  5
57
330
1F
100
AcDbEntity
  8
0
  6
Continuous
 62
     7
370
    15
100
AcDbLine
 10
72.1846785216
 20
91.1846518395
 30
0.0
 11
75.0030664039
 21
91.0434500418
 31
0.0
  0
LINE
  5
58
330
1F
100
AcDbEntity
  8
0
  6
Continuous
 62
     7
370
    15
100
AcDbLine
 10
55.2030664039
 20
92.0354340097
 30
0.0
 11
63.7733431731
 21
91.6060614261
 31
0.0
  0
LINE
  5
59
330
1F
100
AcDbEntity
  8
0
  6
Continuous
 62
     7
370
    15
100
AcDbLine
 10
75.0030664039
 20
91.0434500418
 30
0.0
 11
75.8597791773
 21
91.2730055375
 31
0.0
  0
LINE
  5
5A
330
1F
100
AcDbEntity
  8
0
  6
Continuous
 62
     7
370
    15
100
AcDbLine
 10
75.8597791773
 20
139.2547562694
 30
0.0
 11
75.0030664039
 21
139.4843117652
 31
0.0
  0
LINE
  5
5B
330
1F
100
AcDbEntity
  8
0
  6
Continuous
 62
     7
370
    15
100
AcDbLine
 10
152.4412145952
 20
91.2638809035
 30
0.0
 11
226.2805318014
 21
91.2638809035
 31
0.0
  0
LINE
  5
5C
330
1F
100
AcDbEntity
  8
0
  6
Continuous
 62
     7
370
    15
100
AcDbLine
 10
129.9530664039
 20
91.2638809035
 30
0.0
 11
145.455300007
 21
91.2638809035
 31
0.0
  0
LINE
  5
5D
330
1F
100
AcDbEntity
  8
0
  6
Continuous
 62
     7
370
    15
100
AcDbLine
 10
145.4648517745
 20
139.2638809035
 30
0.0
 11
129.9530664039
 21
139.2638809035
 31
0.0
  0
LINE
  5
5E
330
1F
100
AcDbEntity
  8
0
  6
Continuous
 62
     7
370
    15
100
AcDbLine
 10
226.2805318014
 20
139.2638809035
 30
0.0
 11
152.4515400245
 21
139.2638809035
 31
0.0
  0
LINE
  5
5F
330
1F
100
AcDbEntity
  8
0
  6
Continuous
 62
     7
370
    15
100
AcDbLine
 10
226.2805318014
 20
91.2638809035
 30
0.0
 11
235.8483029274
 21
95.725405851
 31
0.0
  0
LINE
  5
60
330
1F
100
AcDbEntity
  8
0
  6
Continuous
 62
     7
370
    15
100
AcDbLine
 10
235.8483029274
 20
134.8023559559
 30
0.0
 11
226.2805318014
 21
139.2638809035
 31
0.0
  0
ARC
  5
61
330
1F
100
AcDbEntity
  8
0
  6
Continuous
 62
     7
370
    15
100
AcDbCircle
 10
76.0150706044
 20
90.6934500418
 30
0.0
 40
0.6000000000000085
100
AcDbArc
 50
90.0
 51
105.0
  0
ARC
  5
62
330
1F
100
AcDbEntity
  8
0
  6
Continuous
 62
     7
370
    15
100
AcDbCircle
 10
76.0150706044
 20
139.8343117652
 30
0.0
 40
0.5999999999999971
100
AcDbArc
 50
255.0
 51
270.0
  0
LINE
  5
63
330
1F
100
AcDbEntity
  8
0
  6
Continuous
 62
     7
370
    15
100
AcDbLine
 10
76.0150706044
 20
91.2934500418
 30
0.0
 11
76.5030596513
 21
91.2934500418
 31
0.0
  0
LINE
  5
64
330
1F
100
AcDbEntity
  8
0
  6
Continuous
 62
     7
370
    15
100
AcDbLine
 10
76.5030596513
 20
139.2343117652
 30
0.0
 11
76.0150706044
 21
139.2343117652
 31
0.0
  0
ARC
  5
65
330
1F
100
AcDbEntity
  8
0
  6
Continuous
 62
     7
370
    15
100
AcDbCircle
 10
235.0030664039
 20
97.5380214251
 30
0.0
 40
1.999999999999975
100
AcDbArc
 50
295.0
 51
0.0
  0
ARC
  5
66
330
1F
100
AcDbEntity
  8
0
  6
Continuous
 62
     7
370
    15
100
AcDbCircle
 10
235.0030664039
 20
132.9897403819
 30
0.0
 40
1.999999999999975
100
AcDbArc
 50
0.0
 51
65.0
  0
LINE
  5
67
330
1F
100
AcDbEntity
  8
0
  6
Continuous
 62
     7
370
    15
100
AcDbLine
 10
46.3864030439
 20
94.3938809035
 30
0.0
 11
53.8030664039
 21
94.3938809035
 31
0.0
  0
ARC
  5
68
330
1F
100
AcDbEntity
  8
0
  6
Continuous
 62
     7
370
    15
100
AcDbCircle
 10
53.8030664039
 20
92.9938809035
 30
0.0
 40
1.399999999999991
100
AcDbArc
 50
42.2465410162
 51
90.0
  0
LINE
  5
69
330
1F
100
AcDbEntity
  8
0
  6
Continuous
 62
     7
370
    15
100
AcDbLine
 10
45.114226839
 20
95.5327204684
 30
0.0
 11
46.2442298621
 21
94.4027174453
 31
0.0
  0
LINE
  5
6A
330
1F
100
AcDbEntity
  8
0
  6
Continuous
 62
     7
370
    15
100
AcDbLine
 10
46.2442298621
 20
136.1250443617
 30
0.0
 11
45.1129671773
 21
134.9937816769
 31
0.0
  0
ARC
  5
6B
330
1F
100
AcDbEntity
  8
0
  6
Continuous
 62
     7
370
    15
100
AcDbCircle
 10
49.8030664039
 20
137.5338809035
 30
0.0
 40
1.400000000000006
100
AcDbArc
 50
270.0
 51
301.7485287426
  0
LINE
  5
6C
330
1F
100
AcDbEntity
  8
0
  6
Continuous
 62
     7
370
    15
100
AcDbLine
 10
49.8030664039
 20
136.1338809035
 30
0.0
 11
46.3939548053
 21
136.1338809035
 31
0.0
  0
LINE
  5
6D
330
1F
100
AcDbEntity
  8
0
  6
Continuous
 62
     7
370
    15
100
AcDbLine
 10
237.0678918543
 20
126.3801331977
 30
0.0
 11
237.0030664039
 21
126.5001739635
 31
0.0
  0
LINE
  5
6E
330
1F
100
AcDbEntity
  8
0
  6
Continuous
 62
     7
370
    15
100
AcDbLine
 10
237.0030664039
 20
104.0274501605
 30
0.0
 11
237.0679673396
 21
104.1476307065
 31
0.0
  0
LINE
  5
6F
330
1F
100
AcDbEntity
  8
0
  6
Continuous
 62
     7
370
    15
100
AcDbLine
 10
215.2953792381
 20
112.2994897848
 30
0.0
 11
216.9664608365
 21
115.33387379
 31
0.0
  0
LINE
  5
70
330
1F
100
AcDbEntity
  8
0
  6
Continuous
 62
     7
370
    15
100
AcDbLine
 10
215.1741480024
 20
118.2982649087
 30
0.0
 11
216.9664608365
 21
115.33387379
 31
0.0
  0
LINE
  5
71
330
1F
100
AcDbEntity
  8
0
  6
Continuous
 62
     7
370
    15
100
AcDbLine
 10
215.1741480024
 20
118.2982649087
 30
0.0
 11
211.7107535698
 21
118.2282720222
 31
0.0
  0
CIRCLE
  5
72
330
1F
100
AcDbEntity
  8
0
  6
Continuous
 62
     7
370
    15
100
AcDbCircle
 10
213.5030664039
 20
115.2638809035
 30
0.0
 40
6.000000000000015
  0
LINE
  5
73
330
1F
100
AcDbEntity
  8
0
  6
Continuous
 62
     7
370
    15
100
AcDbLine
 10
211.7107535698
 20
118.2282720222
 30
0.0
 11
210.0396719713
 21
115.1938880169
 31
0.0
  0
LINE
  5
74
330
1F
100
AcDbEntity
  8
0
  6
Continuous
 62
     7
370
    15
100
AcDbLine
 10
211.8319848055
 20
112.2294968982
 30
0.0
 11
210.0396719713
 21
115.1938880169
 31
0.0
  0
LINE
  5
75
330
1F
100
AcDbEntity
  8
0
  6
Continuous
 62
     7
370
    15
100
AcDbLine
 10
215.2953792381
 20
112.2994897848
 30
0.0
 11
211.8319848055
 21
112.2294968982
 31
0.0
  0
LINE
  5
76
330
1F
100
AcDbEntity
  8
0
  6
Continuous
 62
     7
370
    15
100
AcDbLine
 10
98.3949992354
 20
85.0769632072
 30
0.0
 11
98.3949992354
 21
135.1138809035
 31
0.0
  0
SPLINE
  5
77
330
1F
100
AcDbEntity
  8
0
  6
Continuous
 62
     7
370
    15
100
AcDbSpline
210
0.0
220
0.0
230
1.0
 70
     8
 71
     3
 72
     8
 73
     4
 74
     0
 42
0.00000001
 43
0.00000001
 40
0.0
 40
0.0
 40
0.0
 40
0.0
 40
1.0
 40
1.0
 40
1.0
 40
1.0
 10
98.39499923540984
 20
85.07696320724361
 30
0.0
 10
97.8995195747441
 20
85.97248929517697
 30
0.0
 10
97.40540552670197
 20
86.86877371022922
 30
0.0
 10
96.91306640392078
 20
87.76604374443592
 30
0.0
  0
LINE
  5
78
330
1F
100
AcDbEntity
  8
0
  6
Continuous
 62
     7
370
    15
100
AcDbLine
 10
96.9130664039
 20
87.7660437444
 30
0.0
 11
96.9130664039
 21
135.1138809035
 31
0.0
  0
SPLINE
  5
79
330
1F
100
AcDbEntity
  8
0
  6
Continuous
 62
     7
370
    15
100
AcDbSpline
210
0.0
220
0.0
230
1.0
 70
    24
 71
     3
 72
     8
 73
     4
 74
     0
 42
0.00000001
 43
0.00000001
 40
0.0
 40
0.0
 40
0.0
 40
0.0
 40
1.0
 40
1.0
 40
1.0
 40
1.0
 10
96.91306640392078
 20
135.1138809034908
 30
0.0
 10
97.39301839828568
 20
135.1138809034908
 30
0.0
 10
97.88831912725932
 20
135.1138809034908
 30
0.0
 10
98.39499923540984
 20
135.1138809034908
 30
0.0
  0
LINE
  5
7A
330
1F
100
AcDbEntity
  8
0
  6
Continuous
 62
     7
370
    15
100
AcDbLine
 10
102.3530664039
 20
85.0769632072
 30
0.0
 11
98.3949992354
 21
85.0769632072
 31
0.0
  0
LINE
  5
7B
330
1F
100
AcDbEntity
  8
0
  6
Continuous
 62
     7
370
    15
100
AcDbLine
 10
98.3949992354
 20
135.1138809035
 30
0.0
 11
102.3530664039
 21
135.1138809035
 31
0.0
  0
LINE
  5
7C
330
1F
100
AcDbEntity
  8
0
  6
Continuous
 62
     7
370
    15
100
AcDbLine
 10
102.9530664039
 20
85.7036035029
 30
0.0
 11
102.9530664039
 21
135.1138809035
 31
0.0
  0
SPLINE
  5
7D
330
1F
100
AcDbEntity
  8
0
  6
Continuous
 62
     7
370
    15
100
AcDbSpline
210
0.0
220
0.0
230
1.0
 70
     8
 71
     3
 72
    10
 73
     6
 74
     0
 42
0.00000001
 43
0.00000001
 40
0.0
 40
0.0
 40
0.0
 40
0.0
 40
0.5
 40
0.5
 40
1.0
 40
1.0
 40
1.0
 40
1.0
 10
102.9530664039208
 20
85.70360350289792
 30
0.0
 10
102.9530664039208
 20
85.54371623470426
 30
0.0
 10
102.8917567526849
 20
85.38258897918965
 30
0.0
 10
102.6726571151499
 20
85.14848998083482
 30
0.0
 10
102.5146089088364
 20
85.07696320724361
 30
0.0
 10
102.3530664039208
 20
85.07696320724361
 30
0.0
  0
SPLINE
  5
7E
330
1F
100
AcDbEntity
  8
0
  6
Continuous
 62
     7
370
    15
100
AcDbSpline
210
0.0
220
0.0
230
1.0
 70
    24
 71
     3
 72
    12
 73
     8
 74
     0
 42
0.00000001
 43
0.00000001
 40
0.0
 40
0.0
 40
0.0
 40
0.0
 40
0.2500000000000033
 40
0.2500000000000033
 40
0.5000000000000067
 40
0.5000000000000067
 40
1.0
 40
1.0
 40
1.0
 40
1.0
 10
102.3530664039208
 20
135.1138809034908
 30
0.0
 10
102.4433054716078
 20
135.1138809034908
 30
0.0
 10
102.5342035857143
 20
135.1138809034908
 30
0.0
 10
102.6888006222029
 20
135.1138809034908
 30
0.0
 10
102.753779038311
 20
135.1138809034908
 30
0.0
 10
102.9056140662472
 20
135.1138809034908
 30
0.0
 10
102.9530664039208
 20
135.1138809034908
 30
0.0
 10
102.9530664039208
 20
135.1138809034908
 30
0.0
  0
LINE
  5
7F
330
1F
100
AcDbEntity
  8
0
  6
Continuous
 62
     7
370
    15
100
AcDbLine
 10
93.0930664039
 20
87.7660437444
 30
0.0
 11
93.0930664039
 21
135.1138809035
 31
0.0
  0
SPLINE
  5
80
330
1F
100
AcDbEntity
  8
0
  6
Continuous
 62
     7
370
    15
100
AcDbSpline
210
0.0
220
0.0
230
1.0
 70
     8
 71
     3
 72
     8
 73
     4
 74
     0
 42
0.00000001
 43
0.00000001
 40
0.0
 40
0.0
 40
0.0
 40
0.0
 40
1.0
 40
1.0
 40
1.0
 40
1.0
 10
93.09306640392079
 20
87.7660437444359
 30
0.0
 10
92.60072728113961
 20
86.8687737102292
 30
0.0
 10
92.10661323309748
 20
85.97248929517696
 30
0.0
 10
91.61113357243174
 20
85.07696320724361
 30
0.0
  0
LINE
  5
81
330
1F
100
AcDbEntity
  8
0
  6
Continuous
 62
     7
370
    15
100
AcDbLine
 10
91.6111335724
 20
85.0769632072
 30
0.0
 11
91.6111335724
 21
135.1138809035
 31
0.0
  0
SPLINE
  5
82
330
1F
100
AcDbEntity
  8
0
  6
Continuous
 62
     7
370
    15
100
AcDbSpline
210
0.0
220
0.0
230
1.0
 70
    24
 71
     3
 72
     8
 73
     4
 74
     0
 42
0.00000001
 43
0.00000001
 40
0.0
 40
0.0
 40
0.0
 40
0.0
 40
1.0
 40
1.0
 40
1.0
 40
1.0
 10
91.61113357243171
 20
135.1138809034908
 30
0.0
 10
92.11781368058224
 20
135.1138809034908
 30
0.0
 10
92.61311440955589
 20
135.1138809034908
 30
0.0
 10
93.09306640392079
 20
135.1138809034908
 30
0.0
  0
LINE
  5
83
330
1F
100
AcDbEntity
  8
0
  6
Continuous
 62
     7
370
    15
100
AcDbLine
 10
77.0030664039
 20
84.0638809035
 30
0.0
 11
77.0030664039
 21
146.4638808982
 31
0.0
  0
LINE
  5
84
330
1F
100
AcDbEntity
  8
0
  6
Continuous
 62
     7
370
    15
100
AcDbLine
 10
81.9530664039
 20
135.1138809035
 30
0.0
 11
91.6111335724
 21
135.1138809035
 31
0.0
  0
LINE
  5
85
330
1F
100
AcDbEntity
  8
0
  6
Continuous
 62
     7
370
    15
100
AcDbLine
 10
91.6111335724
 20
85.0769632072
 30
0.0
 11
89.9530664039
 21
85.0769632072
 31
0.0
  0
SPLINE
  5
86
330
1F
100
AcDbEntity
  8
0
  6
Continuous
 62
     7
370
    15
100
AcDbSpline
210
0.0
220
0.0
230
1.0
 70
     8
 71
     3
 72
    28
 73
    24
 74
     0
 42
0.00000001
 43
0.00000001
 40
0.0
 40
0.0
 40
0.0
 40
0.0
 40
0.1250000000000001
 40
0.1250000000000001
 40
0.1875000000000001
 40
0.1875000000000001
 40
0.2500000000000001
 40
0.2500000000000001
 40
0.3749999999999999
 40
0.3749999999999999
 40
0.4375
 40
0.4375
 40
0.4999999999999999
 40
0.4999999999999999
 40
0.6249999999999999
 40
0.6249999999999999
 40
0.7499999999999997
 40
0.7499999999999997
 40
0.8124999999999998
 40
0.8124999999999998
 40
0.8749999999999998
 40
0.8749999999999998
 40
1.0
 40
1.0
 40
1.0
 40
1.0
 10
89.95306640392079
 20
85.07696320724361
 30
0.0
 10
89.42135864642786
 20
85.07696320724362
 30
0.0
 10
88.89912008111753
 20
85.0611784932934
 30
0.0
 10
88.12924959484253
 20
85.01618307921719
 30
0.0
 10
87.87489002265119
 20
84.99762808414147
 30
0.0
 10
87.37076844195269
 20
84.95377536169495
 30
0.0
 10
87.12104562452474
 20
84.92843075474275
 30
0.0
 10
86.39545567307835
 20
84.84502867699264
 30
0.0
 10
85.9370954114968
 20
84.77916311784156
 30
0.0
 10
85.28659746810293
 20
84.67019277734977
 30
0.0
 10
85.07491541731046
 20
84.63195314158311
 30
0.0
 10
84.67084392817246
 20
84.55419440416375
 30
0.0
 10
84.4783374143516
 20
84.51469344198841
 30
0.0
 10
83.92850244333032
 20
84.39578569962242
 30
0.0
 10
83.59857366502152
 20
84.31596801819781
 30
0.0
 10
83.01410239645283
 20
84.16262485640175
 30
0.0
 10
82.7678252584394
 20
84.09129110313249
 30
0.0
 10
82.46798246574131
 20
83.99734759605786
 30
0.0
 10
82.37952560866914
 20
83.96815380269794
 30
0.0
 10
82.226164255364
 20
83.91468722843453
 30
0.0
 10
82.16107604113778
 20
83.89032789415934
 30
0.0
 10
82.00548202519697
 20
83.8267377487146
 30
0.0
 10
81.95306640392079
 20
83.79663481362536
 30
0.0
 10
81.95306640392079
 20
83.77975792062844
 30
0.0
  0
LINE
  5
87
330
1F
100
AcDbEntity
  8
0
  6
Continuous
 62
     7
370
    15
100
AcDbLine
 10
81.9530664039
 20
83.7797579206
 30
0.0
 11
81.9530664039
 21
83.7638809035
 31
0.0
  0
SPLINE
  5
88
330
1F
100
AcDbEntity
  8
0
  6
Continuous
 62
     7
370
    15
100
AcDbSpline
210
0.0
220
0.0
230
1.0
 70
     8
 71
     3
 72
    17
 73
    13
 74
     0
 42
0.00000001
 43
0.00000001
 40
0.0
 40
0.0
 40
0.0
 40
0.0
 40
0.1034796923964056
 40
0.210023918880785
 40
0.3134862136955583
 40
0.4198361274354882
 40
0.5254127712915682
 40
0.633961069541979
 40
0.7409508756305031
 40
0.8511696089308174
 40
0.9558996534551937
 40
1.0
 40
1.0
 40
1.0
 40
1.0
 10
89.95306640392079
 20
145.731076376655
 30
0.0
 10
89.51781805481076
 20
145.7365245731883
 30
0.0
 10
88.63443154824579
 20
145.7475823137001
 30
0.0
 10
87.35360396301711
 20
145.8339407066017
 30
0.0
 10
86.13618742714307
 20
145.9618108831395
 30
0.0
 10
85.02838157489651
 20
146.1207561817327
 30
0.0
 10
84.04014277094831
 20
146.2952498694482
 30
0.0
 10
83.21541921341677
 20
146.4644157200881
 30
0.0
 10
82.56646571275748
 20
146.6122995026165
 30
0.0
 10
82.14943089729574
 20
146.7140900868472
 30
0.0
 10
81.95083418433123
 20
146.7644416094504
 30
0.0
 10
81.97414690576451
 20
146.758535925228
 30
0.0
 10
81.98105476300205
 20
146.7567859955334
 30
0.0
  0
LINE
  5
89
330
1F
100
AcDbEntity
  8
0
  6
Continuous
 62
     7
370
    15
100
AcDbLine
 10
91.6111335724
 20
145.7310763767
 30
0.0
 11
89.9530664039
 21
145.7310763767
 31
0.0
  0
LINE
  5
8A
330
1F
100
AcDbEntity
  8
0
  6
Continuous
 62
     7
370
    15
100
AcDbLine
 10
91.6111335724
 20
139.7225705659
 30
0.0
 11
91.6111335724
 21
145.7310763767
 31
0.0
  0
LINE
  5
8B
330
1F
100
AcDbEntity
  8
0
  6
Continuous
 62
     7
370
    15
100
AcDbLine
 10
89.1986867496
 20
139.7225705659
 30
0.0
 11
91.6111335724
 21
139.7225705659
 31
0.0
  0
SPLINE
  5
8C
330
1F
100
AcDbEntity
  8
0
  6
Continuous
 62
     7
370
    15
100
AcDbSpline
210
0.0
220
0.0
230
1.0
 70
     8
 71
     3
 72
    20
 73
    16
 74
     0
 42
0.00000001
 43
0.00000001
 40
0.0
 40
0.0
 40
0.0
 40
0.0
 40
0.2499999999999997
 40
0.2499999999999997
 40
0.3749999999999997
 40
0.3749999999999997
 40
0.4999999999999998
 40
0.4999999999999998
 40
0.6249999999999998
 40
0.6249999999999998
 40
0.7499999999999999
 40
0.7499999999999999
 40
0.8749999999999999
 40
0.8749999999999999
 40
1.0
 40
1.0
 40
1.0
 40
1.0
 10
81.95306640392077
 20
135.1138809034908
 30
0.0
 10
82.20144013820885
 20
135.7677433317882
 30
0.0
 10
82.52101023055411
 20
136.3715291137853
 30
0.0
 10
83.1433164637588
 20
137.1983678499539
 30
0.0
 10
83.37474072418955
 20
137.4607964879069
 30
0.0
 10
83.89595506383927
 20
137.9574591420118
 30
0.0
 10
84.18257554647435
 20
138.1880460210334
 30
0.0
 10
84.80206028778196
 20
138.604600245616
 30
0.0
 10
85.13636066726892
 20
138.7920980475835
 30
0.0
 10
85.86162113989371
 20
139.1234950252199
 30
0.0
 10
86.24353619728417
 20
139.2629990127152
 30
0.0
 10
87.03832437345586
 20
139.4884525201861
 30
0.0
 10
87.45248256766224
 20
139.5750786317298
 30
0.0
 10
88.31802890824363
 20
139.6930594205839
 30
0.0
 10
88.75591652325544
 20
139.7225705658582
 30
0.0
 10
89.19868674961006
 20
139.7225705658582
 30
0.0
  0
SPLINE
  5
8D
330
1F
100
AcDbEntity
  8
0
  6
Continuous
 62
     7
370
    15
100
AcDbSpline
210
0.0
220
0.0
230
1.0
 70
     8
 71
     3
 72
    70
 73
    66
 74
     0
 42
0.00000001
 43
0.00000001
 40
-0.0312500000000001
 40
-0.0312500000000001
 40
0.0
 40
0.0
 40
0.0312499999999999
 40
0.0312499999999999
 40
0.0624999999999998
 40
0.0624999999999998
 40
0.0937499999999997
 40
0.0937499999999997
 40
0.1249999999999996
 40
0.1249999999999996
 40
0.1562499999999994
 40
0.1562499999999994
 40
0.1874999999999993
 40
0.1874999999999993
 40
0.2187499999999992
 40
0.2187499999999992
 40
0.2499999999999991
 40
0.2499999999999991
 40
0.281249999999999
 40
0.281249999999999
 40
0.3124999999999989
 40
0.3124999999999989
 40
0.3437499999999988
 40
0.3437499999999988
 40
0.3749999999999987
 40
0.3749999999999987
 40
0.4062499999999986
 40
0.4062499999999986
 40
0.4374999999999984
 40
0.4374999999999984
 40
0.4687499999999983
 40
0.4687499999999983
 40
0.4999999999999982
 40
0.4999999999999982
 40
0.5312499999999983
 40
0.5312499999999983
 40
0.5624999999999984
 40
0.5624999999999984
 40
0.5937499999999986
 40
0.5937499999999986
 40
0.6249999999999987
 40
0.6249999999999987
 40
0.6562499999999988
 40
0.6562499999999988
 40
0.6874999999999989
 40
0.6874999999999989
 40
0.718749999999999
 40
0.718749999999999
 40
0.7499999999999991
 40
0.7499999999999991
 40
0.7812499999999992
 40
0.7812499999999992
 40
0.8124999999999993
 40
0.8124999999999993
 40
0.8437499999999994
 40
0.8437499999999994
 40
0.8749999999999996
 40
0.8749999999999996
 40
0.9062499999999997
 40
0.9062499999999997
 40
0.9374999999999998
 40
0.9374999999999998
 40
0.9687499999999999
 40
0.9687499999999999
 40
1.0
 40
1.0
 40
1.03125
 40
1.03125
 10
85.26761174258094
 20
125.8847877894741
 30
0.0
 10
84.73852106526064
 20
125.8847877894741
 30
0.0
 10
84.47845039788355
 20
125.9094650842593
 30
0.0
 10
83.96687571804813
 20
126.0059367573012
 30
0.0
 10
83.71270043430793
 20
126.0789176732813
 30
0.0
 10
83.22842980424623
 20
126.2686582762199
 30
0.0
 10
82.99878871236507
 20
126.3845189346137
 30
0.0
 10
82.56418436413159
 20
126.6571367805713
 30
0.0
 10
82.35861858748497
 20
126.8151758626251
 30
0.0
 10
81.99006144688974
 20
127.1587187135958
 30
0.0
 10
81.82458046415425
 20
127.3454811576974
 30
0.0
 10
81.53215595471914
 20
127.7490243320943
 30
0.0
 10
81.40805497809265
 20
127.9625213285234
 30
0.0
 10
81.20847578134294
 20
128.4019046424459
 30
0.0
 10
81.13154219548466
 20
128.6310446295915
 30
0.0
 10
81.02868513696428
 20
129.0970187523515
 30
0.0
 10
81.00321222750517
 20
129.3299011980277
 30
0.0
 10
81.00292181693739
 20
129.7952987331075
 30
0.0
 10
81.02894645071312
 20
130.0301744905018
 30
0.0
 10
81.13109473520514
 20
130.4816676377481
 30
0.0
 10
81.2066711827883
 20
130.6997141131595
 30
0.0
 10
81.40716871393322
 20
131.1208086381973
 30
0.0
 10
81.5322975554416
 20
131.3227300227156
 30
0.0
 10
81.82165635646318
 20
131.6947595052345
 30
0.0
 10
81.98706734351866
 20
131.8673878088149
 30
0.0
 10
82.36005790166648
 20
132.1847058133609
 30
0.0
 10
82.56179093475558
 20
132.3244927468625
 30
0.0
 10
82.99465018558345
 20
132.5686690004143
 30
0.0
 10
83.22856871847284
 20
132.6738985114558
 30
0.0
 10
83.71275245361544
 20
132.842055657831
 30
0.0
 10
83.96206807957095
 20
132.9053065484248
 30
0.0
 10
84.47510060399868
 20
132.9908857575274
 30
0.0
 10
84.74039442690332
 20
133.0127579224498
 30
0.0
 10
85.26272904677306
 20
133.0129215720938
 30
0.0
 10
85.5224827092548
 20
132.9919198799978
 30
0.0
 10
86.03909452490005
 20
132.9065175249201
 30
0.0
 10
86.29146056540033
 20
132.8425113416332
 30
0.0
 10
86.77298568693314
 20
132.675696821592
 30
0.0
 10
87.0058364190467
 20
132.5715636581928
 30
0.0
 10
87.44292626748548
 20
132.3255770056979
 30
0.0
 10
87.64424725614265
 20
132.185827174749
 30
0.0
 10
88.01333328144256
 20
131.8726891050244
 30
0.0
 10
88.18231803249424
 20
131.6972329457543
 30
0.0
 10
88.47277408915345
 20
131.3243926816541
 30
0.0
 10
88.59584590051558
 20
131.1262708715432
 30
0.0
 10
88.7971821419376
 20
130.7055595288095
 30
0.0
 10
88.87439468787983
 20
130.483569508142
 30
0.0
 10
88.9765982307799
 20
130.0337045684336
 30
0.0
 10
89.00282658223223
 20
129.8034491553168
 30
0.0
 10
89.00330298154933
 20
129.3321332127678
 30
0.0
 10
88.97756056905136
 20
129.0988957970536
 30
0.0
 10
88.87624979268749
 20
128.6372192575556
 30
0.0
 10
88.79941715329656
 20
128.4063218704434
 30
0.0
 10
88.59901331408138
 20
127.9640458566518
 30
0.0
 10
88.47634181578934
 20
127.7529834253658
 30
0.0
 10
88.18639452662511
 20
127.3514849146332
 30
0.0
 10
88.01782354725987
 20
127.1605783925573
 30
0.0
 10
87.64955395314671
 20
126.8168530605602
 30
0.0
 10
87.44849209587639
 20
126.6617158743461
 30
0.0
 10
87.01146117729147
 20
126.3866385142664
 30
0.0
 10
86.77931296416186
 20
126.2695222848444
 30
0.0
 10
86.29830268266299
 20
126.0805957997798
 30
0.0
 10
86.04620259983255
 20
126.0075208293855
 30
0.0
 10
85.52913311357356
 20
125.909468770251
 30
0.0
 10
85.26761174258094
 20
125.8847877894741
 30
0.0
 10
84.73852106526064
 20
125.8847877894741
 30
0.0
  0
SPLINE
  5
8E
330
1F
100
AcDbEntity
  8
0
  6
Continuous
 62
     7
370
    15
100
AcDbSpline
210
0.0
220
0.0
230
1.0
 70
     8
 71
     3
 72
    70
 73
    66
 74
     0
 42
0.00000001
 43
0.00000001
 40
-0.0312499999999999
 40
-0.0312499999999999
 40
0.0
 40
0.0
 40
0.0312499999999999
 40
0.0312499999999999
 40
0.0624999999999998
 40
0.0624999999999998
 40
0.0937499999999997
 40
0.0937499999999997
 40
0.1249999999999996
 40
0.1249999999999996
 40
0.1562499999999995
 40
0.1562499999999995
 40
0.1874999999999994
 40
0.1874999999999994
 40
0.2187499999999993
 40
0.2187499999999993
 40
0.2499999999999992
 40
0.2499999999999992
 40
0.2812499999999993
 40
0.2812499999999993
 40
0.3124999999999993
 40
0.3124999999999993
 40
0.3437499999999994
 40
0.3437499999999994
 40
0.3749999999999995
 40
0.3749999999999995
 40
0.4062499999999996
 40
0.4062499999999996
 40
0.4374999999999996
 40
0.4374999999999996
 40
0.4687499999999997
 40
0.4687499999999997
 40
0.4999999999999998
 40
0.4999999999999998
 40
0.5312499999999999
 40
0.5312499999999999
 40
0.5625
 40
0.5625
 40
0.5937500000000001
 40
0.5937500000000001
 40
0.6250000000000002
 40
0.6250000000000002
 40
0.6562500000000004
 40
0.6562500000000004
 40
0.6875000000000006
 40
0.6875000000000006
 40
0.7187500000000007
 40
0.7187500000000007
 40
0.7500000000000008
 40
0.7500000000000008
 40
0.7812500000000007
 40
0.7812500000000007
 40
0.8125000000000006
 40
0.8125000000000006
 40
0.8437500000000004
 40
0.8437500000000004
 40
0.8750000000000003
 40
0.8750000000000003
 40
0.9062500000000003
 40
0.9062500000000003
 40
0.9375000000000002
 40
0.9375000000000002
 40
0.9687500000000001
 40
0.9687500000000001
 40
1.0
 40
1.0
 40
1.03125
 40
1.03125
 10
85.26761174258094
 20
140.3228442982699
 30
0.0
 10
84.73852106526066
 20
140.3228442982699
 30
0.0
 10
84.47845039788355
 20
140.3387447386847
 30
0.0
 10
83.96687571804813
 20
140.400689088859
 30
0.0
 10
83.71270043430793
 20
140.4474913229503
 30
0.0
 10
83.22842980424623
 20
140.5684683064054
 30
0.0
 10
82.99878871236507
 20
140.6420706342122
 30
0.0
 10
82.56418436413159
 20
140.8138949051903
 30
0.0
 10
82.35861858748497
 20
140.9128983281177
 30
0.0
 10
81.99006144688974
 20
141.1259947420306
 30
0.0
 10
81.82458046415425
 20
141.2408944581603
 30
0.0
 10
81.53215595471914
 20
141.4862613568505
 30
0.0
 10
81.40805497809265
 20
141.6147012573208
 30
0.0
 10
81.20847578134294
 20
141.8755934054068
 30
0.0
 10
81.13154219548466
 20
142.0099745767462
 30
0.0
 10
81.02868513696428
 20
142.2792945278525
 30
0.0
 10
81.00321222750517
 20
142.4119757920706
 30
0.0
 10
81.00292181693739
 20
142.6731622662017
 30
0.0
 10
81.02894645071312
 20
142.8029273043664
 30
0.0
 10
81.13109473520514
 20
143.0485099386391
 30
0.0
 10
81.2066711827883
 20
143.1651714759479
 30
0.0
 10
81.40716871393322
 20
143.3870766661025
 30
0.0
 10
81.5322975554416
 20
143.4916879200255
 30
0.0
 10
81.82165635646318
 20
143.6817343316336
 30
0.0
 10
81.98706734351866
 20
143.7684940030832
 30
0.0
 10
82.36005790166648
 20
143.9259983788348
 30
0.0
 10
82.56179093475558
 20
143.994323643622
 30
0.0
 10
82.99465018558345
 20
144.1125533672412
 30
0.0
 10
83.22856871847283
 20
144.1628482833451
 30
0.0
 10
83.71275245361544
 20
144.2427138202347
 30
0.0
 10
83.96206807957095
 20
144.2724549480343
 30
0.0
 10
84.47510060399868
 20
144.3126076895425
 30
0.0
 10
84.74039442690332
 20
144.3228059589524
 30
0.0
 10
85.26272904677305
 20
144.3228824173371
 30
0.0
 10
85.52248270925479
 20
144.3130914057281
 30
0.0
 10
86.03909452490004
 20
144.2730245669893
 30
0.0
 10
86.29146056540031
 20
144.2429274001325
 30
0.0
 10
86.77298568693314
 20
144.1637051903023
 30
0.0
 10
87.0058364190467
 20
144.1139477108389
 30
0.0
 10
87.44292626748548
 20
143.9948557683885
 30
0.0
 10
87.64424725614265
 20
143.9265405068412
 30
0.0
 10
88.01333328144256
 20
143.7711395399077
 30
0.0
 10
88.18231803249424
 20
143.6829871978408
 30
0.0
 10
88.47277408915343
 20
143.4925478087245
 30
0.0
 10
88.59584590051558
 20
143.3899232310254
 30
0.0
 10
88.79718214193758
 20
143.1682828844172
 30
0.0
 10
88.87439468787983
 20
143.0495288088698
 30
0.0
 10
88.9765982307799
 20
142.804862869952
 30
0.0
 10
89.00282658223222
 20
142.6777061445035
 30
0.0
 10
89.00330298154933
 20
142.413257998648
 30
0.0
 10
88.97756056905136
 20
142.2803573183908
 30
0.0
 10
88.87624979268749
 20
142.0135650449088
 30
0.0
 10
88.79941715329656
 20
141.8782011434402
 30
0.0
 10
88.59901331408138
 20
141.6156213481376
 30
0.0
 10
88.47634181578934
 20
141.4886461883839
 30
0.0
 10
88.18639452662511
 20
141.2445668023014
 30
0.0
 10
88.01782354725987
 20
141.1271416775476
 30
0.0
 10
87.64955395314671
 20
140.9139452165992
 30
0.0
 10
87.4484920958764
 20
140.8167710981743
 30
0.0
 10
87.01146117729147
 20
140.6434162109601
 30
0.0
 10
86.77931296416186
 20
140.5690166593034
 30
0.0
 10
86.298302682663
 20
140.4485637797988
 30
0.0
 10
86.04620259983257
 20
140.4017054045328
 30
0.0
 10
85.52913311357358
 20
140.338747907549
 30
0.0
 10
85.26761174258094
 20
140.3228442982699
 30
0.0
 10
84.73852106526066
 20
140.3228442982699
 30
0.0
  0
ARC
  5
8F
330
1F
100
AcDbEntity
  8
0
  6
Continuous
 62
     7
370
    15
100
AcDbCircle
 10
85.0002048974
 20
127.1744937352
 30
0.0
 40
4.110793026859924
100
AcDbArc
 50
19.1727796384
 51
159.4979304662
  0
SPLINE
  5
90
330
1F
100
AcDbEntity
  8
0
  6
Continuous
 62
     7
370
    15
100
AcDbSpline
210
0.0
220
0.0
230
1.0
 70
    24
 71
     3
 72
    14
 73
    10
 74
     0
 42
0.00000001
 43
0.00000001
 40
0.0
 40
0.0
 40
0.0
 40
0.0
 40
0.4999999999999984
 40
0.4999999999999984
 40
0.7499999999999992
 40
0.7499999999999992
 40
0.8749999999999996
 40
0.8749999999999996
 40
1.0
 40
1.0
 40
1.0
 40
1.0
 10
96.8153916015885
 20
88.86388090349077
 30
0.0
 10
96.76860689654029
 20
88.86388090349078
 30
0.0
 10
96.70655569976067
 20
88.86388090349078
 30
0.0
 10
96.56316406121007
 20
88.86388090349077
 30
0.0
 10
96.5070204076589
 20
88.86388090349077
 30
0.0
 10
96.39406938552273
 20
88.86388090349078
 30
0.0
 10
96.35106862348458
 20
88.86388090349078
 30
0.0
 10
96.24700591317813
 20
88.86388090349077
 30
0.0
 10
96.1816736748212
 20
88.8638809034908
 30
0.0
 10
96.1130664039208
 20
88.86388090349077
 30
0.0
  0
SPLINE
  5
91
330
1F
100
AcDbEntity
  8
0
  6
Continuous
 62
     7
370
    15
100
AcDbSpline
210
0.0
220
0.0
230
1.0
 70
    24
 71
     3
 72
    12
 73
     8
 74
     0
 42
0.00000001
 43
0.00000001
 40
0.0
 40
0.0
 40
0.0
 40
0.0
 40
0.5000000000000017
 40
0.5000000000000017
 40
0.7500000000000008
 40
0.7500000000000008
 40
1.0
 40
1.0
 40
1.0
 40
1.0
 10
96.51876887222983
 20
141.6638809034908
 30
0.0
 10
96.47568332261886
 20
141.6638809034908
 30
0.0
 10
96.42653112086954
 20
141.6638809034908
 30
0.0
 10
96.33005852658164
 20
141.6638809034908
 30
0.0
 10
96.29395694144706
 20
141.6638809034908
 30
0.0
 10
96.2108511835858
 20
141.6638809034908
 30
0.0
 10
96.16285458661949
 20
141.6638809034908
 30
0.0
 10
96.11306640392078
 20
141.6638809034908
 30
0.0
  0
SPLINE
  5
92
330
1F
100
AcDbEntity
  8
0
  6
Continuous
 62
     7
370
    15
100
AcDbSpline
210
0.0
220
0.0
230
1.0
 70
     8
 71
     3
 72
    10
 73
     6
 74
     0
 42
0.00000001
 43
0.00000001
 40
0.0
 40
0.0
 40
0.0
 40
0.0
 40
0.5
 40
0.5
 40
1.0
 40
1.0
 40
1.0
 40
1.0
 10
96.91306640392078
 20
142.3835347545266
 30
0.0
 10
96.9130664039208
 20
142.2397646967085
 30
0.0
 10
96.8770173452019
 20
142.0973453342134
 30
0.0
 10
96.7415084844279
 20
141.8474510408561
 30
0.0
 10
96.64163249133173
 20
141.739420704608
 30
0.0
 10
96.5187688722298
 20
141.6638809034907
 30
0.0
  0
SPLINE
  5
93
330
1F
100
AcDbEntity
  8
0
  6
Continuous
 62
     7
370
    15
100
AcDbSpline
210
0.0
220
0.0
230
1.0
 70
     8
 71
     3
 72
    10
 73
     6
 74
     0
 42
0.00000001
 43
0.00000001
 40
0.0
 40
0.0
 40
0.0
 40
0.0
 40
0.5
 40
0.5
 40
1.0
 40
1.0
 40
1.0
 40
1.0
 10
96.88691878076065
 20
135.1138809034908
 30
0.0
 10
96.89560842367233
 20
135.160759752809
 30
0.0
 10
96.90214748842283
 20
135.2081822182102
 30
0.0
 10
96.91090612281586
 20
135.3041190167971
 30
0.0
 10
96.9130664039208
 20
135.3520343048076
 30
0.0
 10
96.9130664039208
 20
135.3997475349522
 30
0.0
  0
SPLINE
  5
94
330
1F
100
AcDbEntity
  8
0
  6
Continuous
 62
     7
370
    15
100
AcDbSpline
210
0.0
220
0.0
230
1.0
 70
     8
 71
     3
 72
    10
 73
     6
 74
     0
 42
0.00000001
 43
0.00000001
 40
0.0
 40
0.0
 40
0.0
 40
0.0
 40
0.5
 40
0.5
 40
1.0
 40
1.0
 40
1.0
 40
1.0
 10
93.48736393561174
 20
141.6638809034908
 30
0.0
 10
93.36582367194323
 20
141.7386070707025
 30
0.0
 10
93.2644893115943
 20
141.8475520866193
 30
0.0
 10
93.12885036870587
 20
142.0979825673809
 30
0.0
 10
93.09306640392079
 20
142.2404019294798
 30
0.0
 10
93.09306640392079
 20
142.3835347545266
 30
0.0
  0
SPLINE
  5
95
330
1F
100
AcDbEntity
  8
0
  6
Continuous
 62
     7
370
    15
100
AcDbSpline
210
0.0
220
0.0
230
1.0
 70
    24
 71
     3
 72
    12
 73
     8
 74
     0
 42
0.00000001
 43
0.00000001
 40
0.0
 40
0.0
 40
0.0
 40
0.0
 40
0.2500000000000037
 40
0.2500000000000037
 40
0.5000000000000074
 40
0.5000000000000074
 40
1.0
 40
1.0
 40
1.0
 40
1.0
 10
93.8930664039208
 20
141.6638809034908
 30
0.0
 10
93.84318972160334
 20
141.6638809034908
 30
0.0
 10
93.79518652819974
 20
141.6638809034908
 30
0.0
 10
93.71213842548778
 20
141.6638809034908
 30
0.0
 10
93.67600884601993
 20
141.6638809034908
 30
0.0
 10
93.58009681507572
 20
141.6638809034908
 30
0.0
 10
93.53033814710692
 20
141.6638809034908
 30
0.0
 10
93.48736393561174
 20
141.6638809034908
 30
0.0
  0
SPLINE
  5
96
330
1F
100
AcDbEntity
  8
0
  6
Continuous
 62
     7
370
    15
100
AcDbSpline
210
0.0
220
0.0
230
1.0
 70
    24
 71
     3
 72
    14
 73
    10
 74
     0
 42
0.00000001
 43
0.00000001
 40
0.0
 40
0.0
 40
0.0
 40
0.0
 40
0.1249999999999991
 40
0.1249999999999991
 40
0.2499999999999982
 40
0.2499999999999982
 40
0.4999999999999998
 40
0.4999999999999998
 40
1.0
 40
1.0
 40
1.0
 40
1.0
 10
93.89306640392078
 20
88.86388090349077
 30
0.0
 10
93.82462855603434
 20
88.86388090349077
 30
0.0
 10
93.75907851726927
 20
88.86388090349078
 30
0.0
 10
93.65465187786134
 20
88.86388090349078
 30
0.0
 10
93.61210726809992
 20
88.86388090349078
 30
0.0
 10
93.49949780755966
 20
88.86388090349077
 30
0.0
 10
93.44395876054018
 20
88.86388090349077
 30
0.0
 10
93.30134706507637
 20
88.86388090349077
 30
0.0
 10
93.23794171008062
 20
88.86388090349077
 30
0.0
 10
93.19074120625307
 20
88.86388090349077
 30
0.0
  0
SPLINE
  5
97
330
1F
100
AcDbEntity
  8
0
  6
Continuous
 62
     7
370
    15
100
AcDbSpline
210
0.0
220
0.0
230
1.0
 70
     8
 71
     3
 72
    10
 73
     6
 74
     0
 42
0.00000001
 43
0.00000001
 40
0.0
 40
0.0
 40
0.0
 40
0.0
 40
0.5
 40
0.5
 40
1.0
 40
1.0
 40
1.0
 40
1.0
 10
93.09306640392079
 20
135.3997475349522
 30
0.0
 10
93.09306640392079
 20
135.3519760269588
 30
0.0
 10
93.09522764751794
 20
135.3042663048972
 30
0.0
 10
93.10389902137811
 20
135.2089711873489
 30
0.0
 10
93.1104282043341
 20
135.1612786233823
 30
0.0
 10
93.11921402708093
 20
135.1138809034908
 30
0.0
  0
LINE
  5
98
330
1F
100
AcDbEntity
  8
0
  6
Continuous
 62
     7
370
    15
100
AcDbLine
 10
96.1130664039
 20
141.6638809035
 30
0.0
 11
93.8930664039
 21
141.6638809035
 31
0.0
  0
LINE
  5
99
330
1F
100
AcDbEntity
  8
0
  6
Continuous
 62
     7
370
    15
100
AcDbLine
 10
96.1130664039
 20
88.8638809035
 30
0.0
 11
93.8930664039
 21
88.8638809035
 31
0.0
  0
LINE
  5
9A
330
1F
100
AcDbEntity
  8
0
  6
Continuous
 62
     7
370
    15
100
AcDbLine
 10
55.2030664039
 20
92.0354340097
 30
0.0
 11
55.2030664039
 21
93.3001433723
 31
0.0
  0
SPLINE
  5
9B
330
1F
100
AcDbEntity
  8
0
  6
Continuous
 62
     7
370
    15
100
AcDbSpline
210
0.0
220
0.0
230
1.0
 70
     8
 71
     3
 72
    14
 73
    10
 74
     0
 42
0.00000001
 43
0.00000001
 40
0.0
 40
0.0
 40
0.0
 40
0.0
 40
0.25
 40
0.25
 40
0.5
 40
0.5
 40
0.75
 40
0.75
 40
1.0
 40
1.0
 40
1.0
 40
1.0
 10
54.42477928600509
 20
94.43072957993081
 30
0.0
 10
54.48140596120715
 20
94.32303212609395
 30
0.0
 10
54.57592862149688
 20
94.22024254437464
 30
0.0
 10
54.75897359705911
 20
94.02188523215449
 30
0.0
 10
54.85060017401383
 20
93.92582572347624
 30
0.0
 10
55.00945349170703
 20
93.738296680767
 30
0.0
 10
55.07734409932874
 20
93.64688770798344
 30
0.0
 10
55.17426112503632
 20
93.46851148707329
 30
0.0
 10
55.20306640392136
 20
93.38128958082712
 30
0.0
 10
55.20306640392136
 20
93.30014337229287
 30
0.0
  0
SPLINE
  5
9C
330
1F
100
AcDbEntity
  8
0
  6
Continuous
 62
     7
370
    15
100
AcDbSpline
210
0.0
220
0.0
230
1.0
 70
     8
 71
     3
 72
    14
 73
    10
 74
     0
 42
0.00000001
 43
0.00000001
 40
0.0
 40
0.0
 40
0.0
 40
0.0
 40
0.1249999999999975
 40
0.1249999999999975
 40
0.249999999999995
 40
0.249999999999995
 40
0.4999999999999953
 40
0.4999999999999953
 40
1.0
 40
1.0
 40
1.0
 40
1.0
 10
53.80306640392079
 20
94.87741144221013
 30
0.0
 10
53.85161081257796
 20
94.88315975549042
 30
0.0
 10
53.90452616736287
 20
94.88005886683419
 30
0.0
 10
53.99982151234592
 20
94.85786402267186
 30
0.0
 10
54.04007250963086
 20
94.840631795576
 30
0.0
 10
54.14434252314383
 20
94.78430387912394
 30
0.0
 10
54.19466449829716
 20
94.74011753317814
 30
0.0
 10
54.32234744582254
 20
94.60910963432752
 30
0.0
 10
54.3784328928848
 20
94.51887511409721
 30
0.0
 10
54.42477928600653
 20
94.43072957993134
 30
0.0
  0
SPLINE
  5
9D
330
1F
100
AcDbEntity
  8
0
  6
Continuous
 62
     7
370
    15
100
AcDbSpline
210
0.0
220
0.0
230
1.0
 70
     8
 71
     3
 72
     8
 73
     4
 74
     0
 42
0.00000001
 43
0.00000001
 40
0.0
 40
0.0
 40
0.0
 40
0.0
 40
1.0
 40
1.0
 40
1.0
 40
1.0
 10
51.53454131097457
 20
94.56756615562735
 30
0.0
 10
52.26911833745752
 20
94.6861911666963
 30
0.0
 10
53.03259340685318
 20
94.78617703883258
 30
0.0
 10
53.80306640392079
 20
94.87741144221012
 30
0.0
  0
SPLINE
  5
9E
330
1F
100
AcDbEntity
  8
0
  6
Continuous
 62
     7
370
    15
100
AcDbSpline
210
0.0
220
0.0
230
1.0
 70
     8
 71
     3
 72
    14
 73
    10
 74
     0
 42
0.00000001
 43
0.00000001
 40
0.0
 40
0.0
 40
0.0
 40
0.0
 40
0.500000000000001
 40
0.500000000000001
 40
0.7500000000000004
 40
0.7500000000000004
 40
0.8750000000000003
 40
0.8750000000000003
 40
1.0
 40
1.0
 40
1.0
 40
1.0
 10
46.2530664039208
 20
94.3939431380957
 30
0.0
 10
47.14521253447437
 20
94.39322091189504
 30
0.0
 10
48.03518897026797
 20
94.3978071183525
 30
0.0
 10
49.36178413734357
 20
94.42553212274404
 30
0.0
 10
49.80263106584232
 20
94.43813866036821
 30
0.0
 10
50.45907130326473
 20
94.46915480837568
 30
0.0
 10
50.67708495985661
 20
94.48149798100245
 30
0.0
 10
51.10979381353939
 20
94.51452203616573
 30
0.0
 10
51.32507027870417
 20
94.53373920130416
 30
0.0
 10
51.53454131097458
 20
94.56756615562735
 30
0.0
  0
SPLINE
  5
9F
330
1F
100
AcDbEntity
  8
0
  6
Continuous
 62
     7
370
    15
100
AcDbSpline
210
0.0
220
0.0
230
1.0
 70
     8
 71
     3
 72
     8
 73
     4
 74
     0
 42
0.00000001
 43
0.00000001
 40
0.0000005163856712
 40
0.0000005163856712
 40
0.0000005163856712
 40
0.0000005163856712
 40
0.000026289209185
 40
0.000026289209185
 40
0.000026289209185
 40
0.000026289209185
 10
46.24302147350211
 20
94.40392701120356
 30
0.0
 10
46.24634921171359
 20
94.40059276433074
 30
0.0
 10
46.24969766469287
 20
94.39726480705173
 30
0.0
 10
46.25306640392077
 20
94.39394313809568
 30
0.0
  0
SPLINE
  5
A0
330
1F
100
AcDbEntity
  8
0
  6
Continuous
 62
     7
370
    15
100
AcDbSpline
210
0.0
220
0.0
230
1.0
 70
     8
 71
     3
 72
     8
 73
     4
 74
     0
 42
0.00000001
 43
0.00000001
 40
0.0000005099763573
 40
0.0000005099763573
 40
0.0000005099763573
 40
0.0000005099763573
 40
0.0000262827998699
 40
0.0000262827998699
 40
0.0000262827998699
 40
0.0000262827998699
 10
46.25306640392077
 20
136.1338186688859
 30
0.0
 10
46.24969766469304
 20
136.13049699993
 30
0.0
 10
46.24634921171391
 20
136.1271690426511
 30
0.0
 10
46.24302147350258
 20
136.1238347957784
 30
0.0
  0
SPLINE
  5
A1
330
1F
100
AcDbEntity
  8
0
  6
Continuous
 62
     7
370
    15
100
AcDbSpline
210
0.0
220
0.0
230
1.0
 70
     8
 71
     3
 72
    10
 73
     6
 74
     0
 42
0.00000001
 43
0.00000001
 40
0.0
 40
0.0
 40
0.0
 40
0.0
 40
0.5
 40
0.5
 40
1.0
 40
1.0
 40
1.0
 40
1.0
 10
49.80306640392079
 20
136.0869682953185
 30
0.0
 10
49.21548085683021
 20
136.1080338155549
 30
0.0
 10
48.62473446336982
 20
136.1187923014272
 30
0.0
 10
47.44071529807096
 20
136.1321570819628
 30
0.0
 10
46.8473013098655
 20
136.1342997246274
 30
0.0
 10
46.2530664039208
 20
136.1338186688859
 30
0.0
  0
SPLINE
  5
A2
330
1F
100
AcDbEntity
  8
0
  6
Continuous
 62
     7
370
    15
100
AcDbSpline
210
0.0
220
0.0
230
1.0
 70
     8
 71
     3
 72
    18
 73
    14
 74
     0
 42
0.00000001
 43
0.00000001
 40
0.0
 40
0.0
 40
0.0
 40
0.0
 40
0.2500000000000009
 40
0.2500000000000009
 40
0.500000000000001
 40
0.500000000000001
 40
0.7500000000000011
 40
0.7500000000000011
 40
0.875000000000001
 40
0.875000000000001
 40
0.9375000000000006
 40
0.9375000000000006
 40
1.0
 40
1.0
 40
1.0
 40
1.0
 10
51.20306640392081
 20
137.1079885758538
 30
0.0
 10
51.20306640392081
 20
137.0247816669965
 30
0.0
 10
51.16721730398253
 20
136.936045011683
 30
0.0
 10
51.04234556794862
 20
136.7539198211228
 30
0.0
 10
50.95194515030074
 20
136.6587897724961
 30
0.0
 10
50.72970249555857
 20
136.4696082633718
 30
0.0
 10
50.59993770911281
 20
136.3746630952771
 30
0.0
 10
50.35930025180129
 20
136.2363843876972
 30
0.0
 10
50.27153295366384
 20
136.1906739543948
 30
0.0
 10
50.11700886645703
 20
136.1328506491733
 30
0.0
 10
50.06039798040228
 20
136.1151358851355
 30
0.0
 10
49.93635394949568
 20
136.0905965819025
 30
0.0
 10
49.86863927447739
 20
136.0846174433643
 30
0.0
 10
49.80306640392079
 20
136.0869682953185
 30
0.0
  0
LINE
  5
A3
330
1F
100
AcDbEntity
  8
0
  6
Continuous
 62
     7
370
    15
100
AcDbLine
 10
51.2030664039
 20
137.1079885759
 30
0.0
 11
51.2030664039
 21
138.2919269957
 31
0.0
  0
LINE
  5
A4
330
1F
100
AcDbEntity
  8
0
  6
Continuous
 62
     7
370
    15
100
AcDbLine
 10
75.0030664039
 20
91.0434500418
 30
0.0
 11
75.0030664039
 21
139.4843117652
 31
0.0
  0
SPLINE
  5
A5
330
1F
100
AcDbEntity
  8
0
  6
Continuous
 62
     7
370
    15
100
AcDbSpline
210
0.0
220
0.0
230
1.0
 70
     8
 71
     3
 72
    18
 73
    14
 74
     0
 42
0.00000001
 43
0.00000001
 40
0.0
 40
0.0
 40
0.0
 40
0.0
 40
0.0010671296451833
 40
0.1270947795731636
 40
0.252405345751277
 40
0.3766468878987096
 40
0.4391415999051428
 40
0.5008278021400407
 40
0.562425570880851
 40
0.6253162439161144
 40
0.7499985144706706
 40
0.8752758950341252
 40
0.9999999999999999
 40
0.9999999999999999
 40
0.9999999999999999
 40
0.9999999999999999
 10
63.77336724399348
 20
91.60654188057441
 30
0.0
 10
63.77245541135497
 20
91.60642710203778
 30
0.0
 10
63.66385645271801
 20
91.5927570171719
 30
0.0
 10
64.05149752036787
 20
91.64367651778745
 30
0.0
 10
64.917462202203
 20
91.74325969083395
 30
0.0
 10
66.11786612697283
 20
91.81238357397764
 30
0.0
 10
67.17544204146157
 20
91.81633580311644
 30
0.0
 10
68.00257612836772
 20
91.78884686466144
 30
0.0
 10
68.82784799600199
 20
91.73030668825363
 30
0.0
 10
69.88221321600196
 20
91.61678552851807
 30
0.0
 10
71.04404949747726
 20
91.43363470426944
 30
0.0
 10
71.99628427886084
 20
91.22903149463451
 30
0.0
 10
72.1219893396687
 20
91.19974614385845
 30
0.0
 10
72.1847027718139
 20
91.18513587401775
 30
0.0
  0
SPLINE
  5
A6
330
1F
100
AcDbEntity
  8
0
  6
Continuous
 62
     7
370
    15
100
AcDbSpline
210
0.0
220
0.0
230
1.0
 70
     8
 71
     3
 72
    18
 73
    14
 74
     0
 42
0.00000001
 43
0.00000001
 40
0.0
 40
0.0
 40
0.0
 40
0.0
 40
0.1248907792210109
 40
0.2505384020341698
 40
0.3748721840485282
 40
0.437490765334968
 40
0.4990776265894272
 40
0.5607931536353509
 40
0.6233901338664932
 40
0.7478191038417344
 40
0.8731940995934958
 40
0.9991614644710078
 40
0.9999999999999999
 40
0.9999999999999999
 40
0.9999999999999999
 40
0.9999999999999999
 10
72.18448400629
 20
139.3425607524094
 30
0.0
 10
72.12074325357835
 20
139.3278994598113
 30
0.0
 10
71.99287547640188
 20
139.2984880265399
 30
0.0
 10
71.04087625534147
 20
139.0935349224774
 30
0.0
 10
69.8803325501382
 20
138.9102711466664
 30
0.0
 10
68.82806809805008
 20
138.7972435544176
 30
0.0
 10
68.0038409829825
 20
138.7389799068762
 30
0.0
 10
67.17623721346207
 20
138.711533518872
 30
0.0
 10
66.11742002097701
 20
138.7155183248012
 30
0.0
 10
64.91520132294201
 20
138.7846078011826
 30
0.0
 10
64.05001738325471
 20
138.8842340177392
 30
0.0
 10
63.66387696172448
 20
138.9350500913398
 30
0.0
 10
63.77194850250486
 20
138.9213779112766
 30
0.0
 10
63.77266315242514
 20
138.9212875005883
 30
0.0
  0
SPLINE
  5
A7
330
1F
100
AcDbEntity
  8
0
  6
Continuous
 62
     7
370
    15
100
AcDbSpline
210
0.0
220
0.0
230
1.0
 70
     8
 71
     3
 72
    39
 73
    35
 74
     0
 42
0.00000001
 43
0.00000001
 40
-0.0929035514949699
 40
-0.0617844675330091
 40
-0.0305606518844097
 40
0.0
 40
0.0305833544994093
 40
0.0618207632592329
 40
0.0929574073281345
 40
0.1240731578172215
 40
0.1552546267390965
 40
0.1868126884169066
 40
0.2185638838494406
 40
0.2499315075259889
 40
0.2813251124600493
 40
0.3131464055674533
 40
0.3447816985832686
 40
0.3760142222481843
 40
0.4071224531654557
 40
0.4382110606589223
 40
0.4693931316499385
 40
0.5000117158875027
 40
0.5306249294235088
 40
0.5618454474694574
 40
0.5929501996342207
 40
0.6240749381358013
 40
0.6552854313523624
 40
0.6868966152746604
 40
0.7186677897644597
 40
0.7500607090514085
 40
0.7814251173844275
 40
0.8132188904409218
 40
0.8447997037969013
 40
0.8760022562479371
 40
0.9070964485050301
 40
0.9382155324669909
 40
0.9694393481155903
 40
1.0
 40
1.030583354499409
 40
1.061820763259233
 40
1.092957407328135
 10
214.8373055674892
 20
108.4109905114881
 30
0.0
 10
213.5027349937364
 20
108.2749661023119
 30
0.0
 10
212.1679885411286
 20
108.4112031011199
 30
0.0
 10
210.8873501815532
 20
108.8198741207425
 30
0.0
 10
209.7044179711991
 20
109.4613295214358
 30
0.0
 10
208.6788012337887
 20
110.3254929613548
 30
0.0
 10
207.8361809363557
 20
111.3767538736715
 30
0.0
 10
207.211816240663
 20
112.585311700976
 30
0.0
 10
206.8150619712445
 20
113.8958485251539
 30
0.0
 10
206.6836445332794
 20
115.2611920743165
 30
0.0
 10
206.8159115788723
 20
116.627453039784
 30
0.0
 10
207.2132544730502
 20
117.9403763082669
 30
0.0
 10
207.8380022718945
 20
119.151940612469
 30
0.0
 10
208.6812982998264
 20
120.2048955152912
 30
0.0
 10
209.7065631898141
 20
121.0693126574534
 30
0.0
 10
210.8880313479317
 20
121.7102245884767
 30
0.0
 10
212.1681991587927
 20
122.1174238856435
 30
0.0
 10
213.5034543869671
 20
122.2525762246677
 30
0.0
 10
214.8392298030666
 20
122.1170107024695
 30
0.0
 10
216.1198979535975
 20
121.7090822892504
 30
0.0
 10
217.302180792416
 20
121.067536436098
 30
0.0
 10
218.3271630510616
 20
120.20249735173
 30
0.0
 10
219.1696789004788
 20
119.1495002896013
 30
0.0
 10
219.7936303409104
 20
117.9390613107481
 30
0.0
 10
220.1901673418753
 20
116.627044702039
 30
0.0
 10
220.3224745746982
 20
115.2616045268887
 30
0.0
 10
220.19118585344
 20
113.8956626001214
 30
0.0
 10
219.7938148120112
 20
112.5843570970984
 30
0.0
 10
219.1688060662412
 20
111.3747450832029
 30
0.0
 10
218.3254895634068
 20
110.3235925069683
 30
0.0
 10
217.2996577495996
 20
109.4601054873323
 30
0.0
 10
216.1172294348691
 20
108.8193426181368
 30
0.0
 10
214.8373055674892
 20
108.4109905114881
 30
0.0
 10
213.5027349937364
 20
108.2749661023119
 30
0.0
 10
212.1679885411286
 20
108.4112031011199
 30
0.0
  0
LINE
  5
A8
330
1F
100
AcDbEntity
  8
0
  6
Continuous
 62
     7
370
    15
100
AcDbLine
 10
226.2805318014
 20
91.2638809035
 30
0.0
 11
226.2805318014
 21
139.2638809035
 31
0.0
  0
SPLINE
  5
A9
330
1F
100
AcDbEntity
  8
0
  6
Continuous
 62
     7
370
    15
100
AcDbSpline
210
0.0
220
0.0
230
1.0
 70
     8
 71
     3
 72
    33
 73
    29
 74
     0
 42
0.00000001
 43
0.00000001
 40
0.0
 40
0.0
 40
0.0
 40
0.0
 40
0.0017544127816196
 40
0.0497010130937465
 40
0.0940366321515096
 40
0.1395656212271218
 40
0.1857893294687883
 40
0.2331336027917021
 40
0.2838733843754394
 40
0.3358291211675062
 40
0.3917399806582367
 40
0.449075372942224
 40
0.5087070699051441
 40
0.5699969904428535
 40
0.6003124827031807
 40
0.630844103991651
 40
0.6620742473379018
 40
0.6935543350490868
 40
0.7229964105125352
 40
0.7526667309377715
 40
0.7830989011464258
 40
0.8138144576499872
 40
0.8407739554056137
 40
0.8679568601282057
 40
0.8958904349675544
 40
0.9241035253005346
 40
0.9720372939777221
 40
1.0
 40
1.0
 40
1.0
 40
1.0
 10
152.4515400245149
 20
139.2637040937084
 30
0.0
 10
152.4520461680721
 20
139.2637627203808
 30
0.0
 10
152.466384782009
 20
139.2654235638487
 30
0.0
 10
152.4150723745238
 20
139.2594400110858
 30
0.0
 10
152.2953311082621
 20
139.2457843729312
 30
0.0
 10
152.0959762649883
 20
139.2240319334344
 30
0.0
 10
151.8280444106794
 20
139.1968316647442
 30
0.0
 10
151.4888442365008
 20
139.1656966318505
 30
0.0
 10
151.081629834626
 20
139.1332970525253
 30
0.0
 10
150.6033970939186
 20
139.1022873191416
 30
0.0
 10
150.0663681398446
 20
139.076640854389
 30
0.0
 10
149.4766778392603
 20
139.0598843518903
 30
0.0
 10
148.8549199450562
 20
139.0551634626192
 30
0.0
 10
148.329164029729
 20
139.0626511035724
 30
0.0
 10
147.9154227766004
 20
139.0751595533386
 30
0.0
 10
147.6107661746602
 20
139.0875329945938
 30
0.0
 10
147.3121872300255
 20
139.1027129649044
 30
0.0
 10
147.0295173000051
 20
139.1198907096798
 30
0.0
 10
146.7660041190212
 20
139.1383034650582
 30
0.0
 10
146.5215999114545
 20
139.1574090479665
 30
0.0
 10
146.2927695909021
 20
139.177083928986
 30
0.0
 10
146.0921819268044
 20
139.1957742498539
 30
0.0
 10
145.9208746587038
 20
139.2127575899228
 30
0.0
 10
145.7771119961631
 20
139.2277189260165
 30
0.0
 10
145.6551469119636
 20
139.2409364815587
 30
0.0
 10
145.5386289690881
 20
139.2539626364144
 30
0.0
 10
145.4585888080956
 20
139.2632358143127
 30
0.0
 10
145.4631655538897
 20
139.2627062344348
 30
0.0
 10
145.4648517744643
 20
139.2625111201492
 30
0.0
  0
SPLINE
  5
AA
330
1F
100
AcDbEntity
  8
0
  6
Continuous
 62
     7
370
    15
100
AcDbSpline
210
0.0
220
0.0
230
1.0
 70
     8
 71
     3
 72
    68
 73
    64
 74
     0
 42
0.00000001
 43
0.00000001
 40
-0.0312500000000007
 40
-0.0312500000000007
 40
0.0
 40
0.0
 40
0.0312499999999996
 40
0.0312499999999996
 40
0.0624999999999993
 40
0.0624999999999993
 40
0.0937499999999989
 40
0.0937499999999989
 40
0.1249999999999985
 40
0.1249999999999985
 40
0.1562499999999981
 40
0.1562499999999981
 40
0.1874999999999978
 40
0.1874999999999978
 40
0.2187499999999974
 40
0.2187499999999974
 40
0.249999999999997
 40
0.249999999999997
 40
0.2812499999999966
 40
0.2812499999999966
 40
0.3124999999999962
 40
0.3124999999999962
 40
0.3437499999999959
 40
0.3437499999999959
 40
0.3749999999999955
 40
0.3749999999999955
 40
0.4062499999999951
 40
0.4062499999999951
 40
0.4374999999999948
 40
0.4374999999999948
 40
0.4687499999999944
 40
0.4687499999999944
 40
0.499999999999994
 40
0.499999999999994
 40
0.5312499999999937
 40
0.5312499999999937
 40
0.5624999999999932
 40
0.5624999999999932
 40
0.5937499999999929
 40
0.5937499999999929
 40
0.6249999999999925
 40
0.6249999999999925
 40
0.6874999999999938
 40
0.6874999999999938
 40
0.7187499999999943
 40
0.7187499999999943
 40
0.749999999999995
 40
0.749999999999995
 40
0.7812499999999957
 40
0.7812499999999957
 40
0.8124999999999962
 40
0.8124999999999962
 40
0.8437499999999969
 40
0.8437499999999969
 40
0.8749999999999974
 40
0.8749999999999974
 40
0.9062499999999981
 40
0.9062499999999981
 40
0.9374999999999988
 40
0.9374999999999988
 40
0.9687499999999993
 40
0.9687499999999993
 40
1.0
 40
1.0
 40
1.03125
 40
1.03125
 10
146.4204553204282
 20
117.4368996630051
 30
0.0
 10
146.7584837201479
 20
117.7155989030583
 30
0.0
 10
146.9380184505851
 20
117.83663867909
 30
0.0
 10
147.3162743920284
 20
118.0454746994897
 30
0.0
 10
147.5164831476386
 20
118.1337126884206
 30
0.0
 10
147.9297372464148
 20
118.2740710529677
 30
0.0
 10
148.1401223438073
 20
118.3255948915768
 30
0.0
 10
148.5680996355226
 20
118.3929527521805
 30
0.0
 10
148.7877540395103
 20
118.4086605463821
 30
0.0
 10
149.2229477044235
 20
118.4027665282683
 30
0.0
 10
149.4381727888881
 20
118.3816047298161
 30
0.0
 10
149.8639176216353
 20
118.3031074519114
 30
0.0
 10
150.0764959233564
 20
118.244890928756
 30
0.0
 10
150.4837499948396
 20
118.0939399322532
 30
0.0
 10
150.6787531701078
 20
118.0016324798562
 30
0.0
 10
151.0511246930952
 20
117.7824655344601
 30
0.0
 10
151.2303280878662
 20
117.6538139372819
 30
0.0
 10
151.556479077304
 20
117.3682869114771
 30
0.0
 10
151.7042261741487
 20
117.2115851291991
 30
0.0
 10
151.967337631532
 20
116.8686089014952
 30
0.0
 10
152.0834733312637
 20
116.6798577550049
 30
0.0
 10
152.2685638072268
 20
116.2884738537414
 30
0.0
 10
152.3392019291386
 20
116.0844825821626
 30
0.0
 10
152.4335407011411
 20
115.658678167488
 30
0.0
 10
152.4559672922215
 20
115.4390883233792
 30
0.0
 10
152.4495528582885
 20
115.0059251822234
 30
0.0
 10
152.4205976808645
 20
114.7868433256323
 30
0.0
 10
152.3138397583328
 20
114.3638446472922
 30
0.0
 10
152.2370987194671
 20
114.1609193773878
 30
0.0
 10
152.0389504144611
 20
113.7714216386715
 30
0.0
 10
151.9185996430526
 20
113.5878584381812
 30
0.0
 10
151.6453038463982
 20
113.251029021747
 30
0.0
 10
151.4897063967951
 20
113.0947803016868
 30
0.0
 10
151.1545892906671
 20
112.8173077971067
 30
0.0
 10
150.9753134716343
 20
112.6955683915586
 30
0.0
 10
150.5944226521696
 20
112.4843507231795
 30
0.0
 10
150.3929598748705
 20
112.3954854225967
 30
0.0
 10
149.9826521834564
 20
112.2555109368958
 30
0.0
 10
149.7720404470382
 20
112.2033463287368
 30
0.0
 10
149.33981300563
 20
112.1348629262872
 30
0.0
 10
149.1216895015556
 20
112.1193060877972
 30
0.0
 10
148.4721853635131
 20
112.1273611536526
 30
0.0
 10
148.0343914169767
 20
112.2073825333044
 30
0.0
 10
147.4264166846311
 20
112.4321264536958
 30
0.0
 10
147.230400224516
 20
112.5243828985855
 30
0.0
 10
146.8527495202003
 20
112.7465942780985
 30
0.0
 10
146.6766711973608
 20
112.8733726793347
 30
0.0
 10
146.3520338485606
 20
113.1572096976055
 30
0.0
 10
146.2026581208122
 20
113.3150119338682
 30
0.0
 10
145.9360502174424
 20
113.6629176080338
 30
0.0
 10
145.8230062595864
 20
113.8473673631754
 30
0.0
 10
145.6382106602822
 20
114.2377355753592
 30
0.0
 10
145.5658718535424
 20
114.446785782678
 30
0.0
 10
145.4720906035582
 20
114.8726419363146
 30
0.0
 10
145.4500829902307
 20
115.088125458861
 30
0.0
 10
145.4566910921423
 20
115.5242950955676
 30
0.0
 10
145.4861247378512
 20
115.7438796697409
 30
0.0
 10
145.5926929841179
 20
116.1648709319728
 30
0.0
 10
145.6710396058792
 20
116.3715447657975
 30
0.0
 10
145.8695300451238
 20
116.7601779213598
 30
0.0
 10
145.9886674754978
 20
116.9417033639544
 30
0.0
 10
146.2644171091547
 20
117.2807461384733
 30
0.0
 10
146.4204553204282
 20
117.4368996630051
 30
0.0
 10
146.7584837201479
 20
117.7155989030583
 30
0.0
  0
LINE
  5
AB
330
1F
100
AcDbEntity
  8
0
  6
Continuous
 62
     7
370
    15
100
AcDbLine
 10
146.5894695197
 20
91.37553746
 30
0.0
 11
146.5026699861
 21
91.3680549384
 31
0.0
  0
SPLINE
  5
AC
330
1F
100
AcDbEntity
  8
0
  6
Continuous
 62
     7
370
    15
100
AcDbSpline
210
0.0
220
0.0
230
1.0
 70
     8
 71
     3
 72
    33
 73
    29
 74
     0
 42
0.00000001
 43
0.00000001
 40
0.0
 40
0.0
 40
0.0
 40
0.0
 40
0.0026208140275883
 40
0.0505050974283591
 40
0.0948408286041549
 40
0.1403683521545189
 40
0.1866227560263934
 40
0.2339979054215132
 40
0.2847834895576155
 40
0.3367864644641382
 40
0.3927389398386767
 40
0.4501180509175874
 40
0.5097714740310402
 40
0.5710850160019763
 40
0.601399305855816
 40
0.6319298547769222
 40
0.6631595401089794
 40
0.6946394785618251
 40
0.7240663332662993
 40
0.7537214971471701
 40
0.7841389068699809
 40
0.8148399221635918
 40
0.8417718506828055
 40
0.8689270002061816
 40
0.8968320690468361
 40
0.9250162969883444
 40
0.972902854533504
 40
0.9999999999999999
 40
0.9999999999999999
 40
0.9999999999999999
 40
0.9999999999999999
 10
145.4553000069944
 20
91.26413971298692
 30
0.0
 10
145.4545621644592
 20
91.2640542244778
 30
0.0
 10
145.4403433726122
 20
91.26240679530679
 30
0.0
 10
145.492455312154
 20
91.2684841181211
 30
0.0
 10
145.6137376113789
 20
91.28230672226586
 30
0.0
 10
145.8142861676575
 20
91.30416665910676
 30
0.0
 10
146.0834569074642
 20
91.33145189785193
 30
0.0
 10
146.4239083231936
 20
91.36263537771991
 30
0.0
 10
146.8323457163528
 20
91.39503506460834
 30
0.0
 10
147.3117420553908
 20
91.42598488522844
 30
0.0
 10
147.8497846070915
 20
91.45150588644097
 30
0.0
 10
148.4402097943209
 20
91.4680722174747
 30
0.0
 10
149.0623831845857
 20
91.47256011395325
 30
0.0
 10
149.5881292409839
 20
91.4648695628511
 30
0.0
 10
150.0016479350032
 20
91.45221196239642
 30
0.0
 10
150.3059924389187
 20
91.43973978324915
 30
0.0
 10
150.6041741342215
 20
91.42447500860281
 30
0.0
 10
150.8863203789293
 20
91.407234572494
 30
0.0
 10
151.1491940000888
 20
91.38878425158974
 30
0.0
 10
151.3928533248268
 20
91.36966689690618
 30
0.0
 10
151.6208602910286
 20
91.35000365133175
 30
0.0
 10
151.820547854679
 20
91.33135141941648
 30
0.0
 10
151.9909070551763
 20
91.31442844278936
 30
0.0
 10
152.1336898910846
 20
91.29954546934695
 30
0.0
 10
152.2546566516117
 20
91.28641997808235
 30
0.0
 10
152.3698581030577
 20
91.27352960660026
 30
0.0
 10
152.4482953674373
 20
91.26443825550169
 30
0.0
 10
152.4430941712383
 20
91.26504074157916
 30
0.0
 10
152.4412145952192
 20
91.26525846426057
 30
0.0
  0
LINE
  5
AD
330
1F
100
AcDbEntity
  8
0
  6
Continuous
 62
     7
370
    15
100
AcDbLine
 10
146.7282171873
 20
91.3857503509
 30
0.0
 11
146.5894695197
 21
91.37553746
 31
0.0
  0
CIRCLE
  5
AE
330
1F
100
AcDbEntity
  8
0
  6
Continuous
 62
     7
370
    15
100
AcDbCircle
 10
148.9530664039
 20
115.2638809035
 30
0.0
 40
2.5
  0
SPLINE
  5
AF
330
1F
100
AcDbEntity
  8
0
  6
Continuous
 62
     7
370
    15
100
AcDbSpline
210
0.0
220
0.0
230
1.0
 70
     8
 71
     3
 72
    10
 73
     6
 74
     0
 42
0.00000001
 43
0.00000001
 40
0.0
 40
0.0
 40
0.0
 40
0.0
 40
0.5
 40
0.5
 40
1.0
 40
1.0
 40
1.0
 40
1.0
 10
45.10306640392013
 20
95.57320315701327
 30
0.0
 10
45.10306640392009
 20
95.54432889215387
 30
0.0
 10
45.1132603136812
 20
95.52682533577533
 30
0.0
 10
45.14001091848935
 20
95.52629377294761
 30
0.0
 10
45.15689837042067
 20
95.54396123012717
 30
0.0
 10
45.16572977864419
 20
95.58932835871003
 30
0.0
  0
LINE
  5
B0
330
1F
100
AcDbEntity
  8
0
  6
Continuous
 62
     7
370
    15
100
AcDbLine
 10
45.1030664039
 20
95.573203157
 30
0.0
 11
45.1030664039
 21
134.95455865
 31
0.0
  0
SPLINE
  5
B1
330
1F
100
AcDbEntity
  8
0
  6
Continuous
 62
     7
370
    15
100
AcDbSpline
210
0.0
220
0.0
230
1.0
 70
     8
 71
     3
 72
    10
 73
     6
 74
     0
 42
0.00000001
 43
0.00000001
 40
0.0
 40
0.0
 40
0.0
 40
0.0
 40
0.5
 40
0.5
 40
1.0
 40
1.0
 40
1.0
 40
1.0
 10
45.16572977864419
 20
134.9384334482715
 30
0.0
 10
45.15682548953545
 20
134.9841749674847
 30
0.0
 10
45.14031010934247
 20
135.0013658069537
 30
0.0
 10
45.11320216328085
 20
135.001042530018
 30
0.0
 10
45.10306640392081
 20
134.9831649877215
 30
0.0
 10
45.1030664039208
 20
134.9545586499689
 30
0.0
  0
SPLINE
  5
B2
330
1F
100
AcDbEntity
  8
0
  6
Continuous
 62
     7
370
    15
100
AcDbSpline
210
0.0
220
0.0
230
1.0
 70
     8
 71
     3
 72
    26
 73
    22
 74
     0
 42
0.00000001
 43
0.00000001
 40
0.0
 40
0.0
 40
0.0
 40
0.0
 40
0.2500000000000165
 40
0.2500000000000165
 40
0.3750000000000256
 40
0.3750000000000256
 40
0.4375000000000291
 40
0.4375000000000291
 40
0.4687500000000291
 40
0.4687500000000291
 40
0.5000000000000292
 40
0.5000000000000292
 40
0.5312500000000293
 40
0.5312500000000293
 40
0.5625000000000293
 40
0.5625000000000293
 40
0.625000000000026
 40
0.625000000000026
 40
0.7500000000000173
 40
0.7500000000000173
 40
1.0
 40
1.0
 40
1.0
 40
1.0
 10
45.9272200500253
 20
135.6540002370886
 30
0.0
 10
45.88861952715683
 20
135.5362255407332
 30
0.0
 10
45.84232252460257
 20
135.4118358545712
 30
0.0
 10
45.74838317616864
 20
135.2066165222177
 30
0.0
 10
45.71307170925519
 20
135.1350436557713
 30
0.0
 10
45.64689173350953
 20
135.0190904231708
 30
0.0
 10
45.62235336684128
 20
134.9785058883606
 30
0.0
 10
45.5789806212875
 20
134.9143642064889
 30
0.0
 10
45.56347221986229
 20
134.8924977812038
 30
0.0
 10
45.52842957527528
 20
134.8469035128606
 30
0.0
 10
45.5088792845555
 20
134.8232332218932
 30
0.0
 10
45.4669520041849
 20
134.7786166625533
 30
0.0
 10
45.44429989395326
 20
134.7577366500354
 30
0.0
 10
45.40332617986662
 20
134.7268632362845
 30
0.0
 10
45.38572687997119
 20
134.7170243664521
 30
0.0
 10
45.34109989411505
 20
134.698034750756
 30
0.0
 10
45.32054067146171
 20
134.6977104261025
 30
0.0
 10
45.26941523196505
 20
134.7069338669787
 30
0.0
 10
45.24850381897652
 20
134.7281807631957
 30
0.0
 10
45.19705391141558
 20
134.8021496420265
 30
0.0
 10
45.17938861211103
 20
134.8682677353412
 30
0.0
 10
45.16572977864419
 20
134.9384334482715
 30
0.0
  0
SPLINE
  5
B3
330
1F
100
AcDbEntity
  8
0
  6
Continuous
 62
     7
370
    15
100
AcDbSpline
210
0.0
220
0.0
230
1.0
 70
     8
 71
     3
 72
    10
 73
     6
 74
     0
 42
0.00000001
 43
0.00000001
 40
0.0
 40
0.0
 40
0.0
 40
0.0
 40
0.5
 40
0.5
 40
1.0
 40
1.0
 40
1.0
 40
1.0
 10
46.24302147350259
 20
136.1238347957784
 30
0.0
 10
46.17546221858436
 20
136.0561434029687
 30
0.0
 10
46.11182556324786
 20
135.981436238215
 30
0.0
 10
46.00160480867599
 20
135.8224701057884
 30
0.0
 10
45.95478851545337
 20
135.7381148397804
 30
0.0
 10
45.9272200500253
 20
135.6540002370886
 30
0.0
  0
SPLINE
  5
B4
330
1F
100
AcDbEntity
  8
0
  6
Continuous
 62
     7
370
    15
100
AcDbSpline
210
0.0
220
0.0
230
1.0
 70
     8
 71
     3
 72
    10
 73
     6
 74
     0
 42
0.00000001
 43
0.00000001
 40
0.0
 40
0.0
 40
0.0
 40
0.0
 40
0.5
 40
0.5
 40
1.0
 40
1.0
 40
1.0
 40
1.0
 10
45.92722005002533
 20
94.8737615698928
 30
0.0
 10
45.95469746477855
 20
94.7899247734272
 30
0.0
 10
46.00140609506622
 20
94.70561428584037
 30
0.0
 10
46.11168455780816
 20
94.5464930553575
 30
0.0
 10
46.1755720964198
 20
94.47150831126943
 30
0.0
 10
46.24302147350213
 20
94.40392701120356
 30
0.0
  0
SPLINE
  5
B5
330
1F
100
AcDbEntity
  8
0
  6
Continuous
 62
     7
370
    15
100
AcDbSpline
210
0.0
220
0.0
230
1.0
 70
     8
 71
     3
 72
    24
 73
    20
 74
     0
 42
0.00000001
 43
0.00000001
 40
0.0
 40
0.0
 40
0.0
 40
0.0
 40
0.25
 40
0.25
 40
0.374999999999999
 40
0.374999999999999
 40
0.4374999999999993
 40
0.4374999999999993
 40
0.4687499999999994
 40
0.4687499999999994
 40
0.4999999999999995
 40
0.4999999999999995
 40
0.5624999999999971
 40
0.5624999999999971
 40
0.6249999999999947
 40
0.6249999999999947
 40
0.7499999999999947
 40
0.7499999999999947
 40
1.0
 40
1.0
 40
1.0
 40
1.0
 10
45.16572977864419
 20
95.58932835871003
 30
0.0
 10
45.17948289731444
 20
95.65997841670033
 30
0.0
 10
45.19725546472029
 20
95.72657652946523
 30
0.0
 10
45.24950655627566
 20
95.80067454969844
 30
0.0
 10
45.27054163185721
 20
95.82193235686
 30
0.0
 10
45.32344203948566
 20
95.83007828300624
 30
0.0
 10
45.34454771236357
 20
95.82913847961046
 30
0.0
 10
45.39059988104152
 20
95.80812248803312
 30
0.0
 10
45.40897035302492
 20
95.79721368192551
 30
0.0
 10
45.45052198809063
 20
95.76457877097813
 30
0.0
 10
45.47308866084754
 20
95.74308679060678
 30
0.0
 10
45.53586967730755
 20
95.67462084702045
 30
0.0
 10
45.56899943827544
 20
95.62854638881537
 30
0.0
 10
45.62591712476047
 20
95.5435385004807
 30
0.0
 10
45.65010315026424
 20
95.50325819929931
 30
0.0
 10
45.715311100644
 20
95.38832197283337
 30
0.0
 10
45.75002716083523
 20
95.31773898768637
 30
0.0
 10
45.84324243116611
 20
95.11353322860776
 30
0.0
 10
45.88891496652679
 20
94.9906348462804
 30
0.0
 10
45.92722005002533
 20
94.87376156989284
 30
0.0
  0
LINE
  5
B6
330
1F
100
AcDbEntity
  8
0
  6
Continuous
 62
     7
370
    15
100
AcDbLine
 10
96.9130664039
 20
135.399747535
 30
0.0
 11
96.9130664039
 21
136.3140245711
 31
0.0
  0
SPLINE
  5
B7
330
1F
100
AcDbEntity
  8
0
  6
Continuous
 62
     7
370
    15
100
AcDbSpline
210
0.0
220
0.0
230
1.0
 70
     8
 71
     3
 72
     8
 73
     4
 74
     0
 42
0.00000001
 43
0.00000001
 40
0.0
 40
0.0
 40
0.0
 40
0.0
 40
1.0
 40
1.0
 40
1.0
 40
1.0
 10
96.9130664039208
 20
136.3140245710741
 30
0.0
 10
97.39234455451064
 20
137.4550358009267
 30
0.0
 10
97.88791239365058
 20
138.5914202116946
 30
0.0
 10
98.39499923540984
 20
139.7225705658582
 30
0.0
  0
LINE
  5
B8
330
1F
100
AcDbEntity
  8
0
  6
Continuous
 62
     7
370
    15
100
AcDbLine
 10
98.3949992354
 20
139.7225705659
 30
0.0
 11
102.3530664039
 21
139.7225705659
 31
0.0
  0
SPLINE
  5
B9
330
1F
100
AcDbEntity
  8
0
  6
Continuous
 62
     7
370
    15
100
AcDbSpline
210
0.0
220
0.0
230
1.0
 70
     8
 71
     3
 72
    12
 73
     8
 74
     0
 42
0.00000001
 43
0.00000001
 40
0.0
 40
0.0
 40
0.0
 40
0.0
 40
0.25
 40
0.25
 40
0.5
 40
0.5
 40
1.0
 40
1.0
 40
1.0
 40
1.0
 10
102.3530664039208
 20
139.7225705658582
 30
0.0
 10
102.4442661257465
 20
139.7225705658582
 30
0.0
 10
102.5348611348825
 20
139.6943508672703
 30
0.0
 10
102.6882738613291
 20
139.5999078600222
 30
0.0
 10
102.7534827286528
 20
139.5336208833169
 30
0.0
 10
102.9062672579927
 20
139.3079960600286
 30
0.0
 10
102.9530664039208
 20
139.125569796996
 30
0.0
 10
102.9530664039208
 20
138.9448331647492
 30
0.0
  0
LINE
  5
BA
330
1F
100
AcDbEntity
  8
0
  6
Continuous
 62
     7
370
    15
100
AcDbLine
 10
102.9530664039
 20
138.9448331647
 30
0.0
 11
102.9530664039
 21
135.1138809035
 31
0.0
  0
LINE
  5
BB
330
1F
100
AcDbEntity
  8
0
  6
Continuous
 62
     7
370
    15
100
AcDbLine
 10
102.3530664039
 20
145.7310763767
 30
0.0
 11
98.3949992354
 21
145.7310763767
 31
0.0
  0
LINE
  5
BC
330
1F
100
AcDbEntity
  8
0
  6
Continuous
 62
     7
370
    15
100
AcDbLine
 10
98.3949992354
 20
139.7225705659
 30
0.0
 11
98.3949992354
 21
145.7310763767
 31
0.0
  0
SPLINE
  5
BD
330
1F
100
AcDbEntity
  8
0
  6
Continuous
 62
     7
370
    15
100
AcDbSpline
210
0.0
220
0.0
230
1.0
 70
     8
 71
     3
 72
    10
 73
     6
 74
     0
 42
0.00000001
 43
0.00000001
 40
0.0
 40
0.0
 40
0.0
 40
0.0
 40
0.5
 40
0.5
 40
1.0
 40
1.0
 40
1.0
 40
1.0
 10
102.9530664039208
 20
145.1103212272547
 30
0.0
 10
102.9530664039208
 20
145.2707264936055
 30
0.0
 10
102.8908285728139
 20
145.429788306594
 30
0.0
 10
102.6716936490714
 20
145.6607007722244
 30
0.0
 10
102.5141049540795
 20
145.731076376655
 30
0.0
 10
102.3530664039208
 20
145.731076376655
 30
0.0
  0
LINE
  5
BE
330
1F
100
AcDbEntity
  8
0
  6
Continuous
 62
     7
370
    15
100
AcDbLine
 10
102.9530664039
 20
138.9448331647
 30
0.0
 11
102.9530664039
 21
145.1103212273
 31
0.0
  0
SPLINE
  5
BF
330
1F
100
AcDbEntity
  8
0
  6
Continuous
 62
     7
370
    15
100
AcDbSpline
210
0.0
220
0.0
230
1.0
 70
     8
 71
     3
 72
     8
 73
     4
 74
     0
 42
0.00000001
 43
0.00000001
 40
0.0
 40
0.0
 40
0.0
 40
0.0
 40
1.0
 40
1.0
 40
1.0
 40
1.0
 10
91.61113357243174
 20
139.7225705658582
 30
0.0
 10
92.11822041419101
 20
138.5914202116946
 30
0.0
 10
92.61378825333094
 20
137.4550358009267
 30
0.0
 10
93.09306640392079
 20
136.3140245710741
 30
0.0
  0
LINE
  5
C0
330
1F
100
AcDbEntity
  8
0
  6
Continuous
 62
     7
370
    15
100
AcDbLine
 10
93.0930664039
 20
136.3140245711
 30
0.0
 11
93.0930664039
 21
135.399747535
 31
0.0
  0
SPLINE
  5
C1
330
1F
100
AcDbEntity
  8
0
  6
Continuous
 62
     7
370
    15
100
AcDbSpline
210
0.0
220
0.0
230
1.0
 70
     8
 71
     3
 72
     8
 73
     4
 74
     0
 42
0.00000001
 43
0.00000001
 40
0.0
 40
0.0
 40
0.0
 40
0.0
 40
1.0
 40
1.0
 40
1.0
 40
1.0
 10
98.39499923540984
 20
145.731076376655
 30
0.0
 10
97.89985920604552
 20
144.8443967284748
 30
0.0
 10
97.40577650076654
 20
143.9571340927887
 30
0.0
 10
96.91306640392078
 20
143.0691150946624
 30
0.0
  0
LINE
  5
C2
330
1F
100
AcDbEntity
  8
0
  6
Continuous
 62
     7
370
    15
100
AcDbLine
 10
96.9130664039
 20
136.3140245711
 30
0.0
 11
96.9130664039
 21
143.0691150947
 31
0.0
  0
SPLINE
  5
C3
330
1F
100
AcDbEntity
  8
0
  6
Continuous
 62
     7
370
    15
100
AcDbSpline
210
0.0
220
0.0
230
1.0
 70
     8
 71
     3
 72
     8
 73
     4
 74
     0
 42
0.00000001
 43
0.00000001
 40
0.0
 40
0.0
 40
0.0
 40
0.0
 40
1.0
 40
1.0
 40
1.0
 40
1.0
 10
93.09306640392079
 20
143.0691150946624
 30
0.0
 10
92.60035630707503
 20
143.9571340927887
 30
0.0
 10
92.10627360179606
 20
144.8443967284748
 30
0.0
 10
91.61113357243174
 20
145.731076376655
 30
0.0
  0
LINE
  5
C4
330
1F
100
AcDbEntity
  8
0
  6
Continuous
 62
     7
370
    15
100
AcDbLine
 10
93.0930664039
 20
136.3140245711
 30
0.0
 11
93.0930664039
 21
143.0691150947
 31
0.0
  0
LINE
  5
C5
330
1F
100
AcDbEntity
  8
0
  6
Continuous
 62
     7
370
    15
100
AcDbLine
 10
237.0030664039
 20
97.5380214251
 30
0.0
 11
237.0030664039
 21
132.9897403547
 31
0.0
  0
ARC
  5
C6
330
1F
100
AcDbEntity
  8
0
  6
Continuous
 62
     7
370
    15
100
AcDbCircle
 10
85.0031478913
 20
134.0326104526
 30
0.0
 40
7.189591690270006
100
AcDbArc
 50
70.6423071679
 51
109.3836548569
  0
LWPOLYLINE
  5
C7
330
1F
100
AcDbEntity
  8
0
  6
Continuous
 62
     7
370
    15
100
AcDbPolyline
 90
        6
 70
   128
 43
0.0
 10
237.0755055045
 20
126.3143024972
 10
237.0642250061
 20
126.3794763869
 10
237.0481048862
 20
126.2593857715
 10
237.029599287
 20
125.9723133586
 10
237.0115255183
 20
125.5619633207
 10
237.0030664039
 20
125.3150113618
  0
ARC
  5
C8
330
1F
100
AcDbEntity
  8
0
  6
Continuous
 62
     7
370
    15
100
AcDbCircle
 10
214.5326243779
 20
125.8240882122
 30
0.0
 40
22.54821056171754
100
AcDbArc
 50
355.2399835652
 51
1.2457495282
  0
LINE
  5
C9
330
1F
100
AcDbEntity
  8
0
  6
Continuous
 62
     7
370
    15
100
AcDbLine
 10
237.0042829029
 20
124.9992416415
 30
0.0
 11
237.0030664039
 21
124.6719469511
 31
0.0
  0
LINE
  5
CA
330
1F
100
AcDbEntity
  8
0
  6
Continuous
 62
     7
370
    15
100
AcDbLine
 10
237.0300027826
 20
124.5079705105
 30
0.0
 11
237.0030664039
 21
124.3517093183
 31
0.0
  0
LINE
  5
CB
330
1F
100
AcDbEntity
  8
0
  6
Continuous
 62
     7
370
    15
100
AcDbLine
 10
237.0605886581
 20
125.325878141
 30
0.0
 11
237.0300027826
 21
124.5079705105
 31
0.0
  0
LINE
  5
CC
330
1F
100
AcDbEntity
  8
0
  6
Continuous
 62
     7
370
    15
100
AcDbLine
 10
237.0605886581
 20
125.325878141
 30
0.0
 11
237.063021656
 21
125.9804675217
 31
0.0
  0
LINE
  5
CD
330
1F
100
AcDbEntity
  8
0
  6
Continuous
 62
     7
370
    15
100
AcDbLine
 10
237.0348687784
 20
125.817149272
 30
0.0
 11
237.063021656
 21
125.9804675217
 31
0.0
  0
LINE
  5
CE
330
1F
100
AcDbEntity
  8
0
  6
Continuous
 62
     7
370
    15
100
AcDbLine
 10
237.0348687784
 20
125.817149272
 30
0.0
 11
237.0042829029
 21
124.9992416415
 31
0.0
  0
LINE
  5
CF
330
1F
100
AcDbEntity
  8
0
  6
Continuous
 62
     7
370
    15
100
AcDbLine
 10
237.0030664039
 20
124.5087188651
 30
0.0
 11
237.0300027826
 21
124.5079705105
 31
0.0
  0
LINE
  5
D0
330
1F
100
AcDbEntity
  8
0
  6
Continuous
 62
     7
370
    15
100
AcDbLine
 10
237.0165433224
 20
125.3271018218
 30
0.0
 11
237.0605886581
 21
125.325878141
 31
0.0
  0
LINE
  5
D1
330
1F
100
AcDbEntity
  8
0
  6
Continuous
 62
     7
370
    15
100
AcDbLine
 10
237.0739742631
 20
104.1878332144
 30
0.0
 11
237.0679673396
 21
104.1476307065
 31
0.0
  0
ARC
  5
D2
330
1F
100
AcDbEntity
  8
0
  6
Continuous
 62
     7
370
    15
100
AcDbCircle
 10
216.1877584509
 20
104.762131991
 30
0.0
 40
20.89410993642611
100
AcDbArc
 50
358.4249608716
 51
4.9777245001
  0
CIRCLE
  5
D3
330
1F
100
AcDbEntity
  8
0
  6
HIDDEN
 62
     7
370
     0
100
AcDbCircle
 10
213.5030664039
 20
115.2638809035
 30
0.0
 40
7.000000000000019
  0
CIRCLE
  5
D4
330
1F
100
AcDbEntity
  8
0
  6
HIDDEN
 62
     7
370
     0
100
AcDbCircle
 10
213.5030664039
 20
115.2638809035
 30
0.0
 40
5.000000000000012
  0
CIRCLE
  5
D5
330
1F
100
AcDbEntity
  8
0
  6
HIDDEN
 62
     7
370
     0
100
AcDbCircle
 10
213.5030664039
 20
115.2638809035
 30
0.0
 40
3.750000000000003
  0
LINE
  5
D6
330
1F
100
AcDbEntity
  8
0
  6
HIDDEN
 62
     7
370
     0
100
AcDbLine
 10
91.6111335724
 20
139.7225705659
 30
0.0
 11
91.6111335724
 21
135.1138809035
 31
0.0
  0
ARC
  5
D7
330
1F
100
AcDbEntity
  8
0
  6
HIDDEN
 62
     7
370
     0
100
AcDbCircle
 10
85.2830220433
 20
127.7628013503
 30
0.0
 40
3.679671107484544
100
AcDbArc
 50
265.6366231594
 51
11.9475363038
  0
ARC
  5
D8
330
1F
100
AcDbEntity
  8
0
  6
HIDDEN
 62
     7
370
     0
100
AcDbCircle
 10
84.7198555823
 20
127.7548964549
 30
0.0
 40
3.672038798844923
100
AcDbArc
 50
166.4655616651
 51
274.4234051753
  0
LINE
  5
D9
330
1F
100
AcDbEntity
  8
0
  6
HIDDEN
 62
     7
370
     0
100
AcDbLine
 10
64.9982166085
 20
91.7392812807
 30
0.0
 11
64.4640711794
 21
91.6846666812
 31
0.0
  0
LINE
  5
DA
330
1F
100
AcDbEntity
  8
0
  6
HIDDEN
 62
     7
370
     0
100
AcDbLine
 10
64.2264175073
 20
138.867214084
 30
0.0
 11
64.9981238882
 21
138.7884639335
 31
0.0
  0
SPLINE
  5
DB
330
1F
100
AcDbEntity
  8
0
  6
HIDDEN
 62
     7
370
     0
100
AcDbSpline
210
0.0
220
0.0
230
1.0
 70
     8
 71
     3
 72
    12
 73
     8
 74
     0
 42
0.00000001
 43
0.00000001
 40
0.0
 40
0.0
 40
0.0
 40
0.0
 40
0.3411847470822188
 40
0.5126287350217325
 40
0.684015607830176
 40
0.8507241434768159
 40
0.9999999999999999
 40
0.9999999999999999
 40
0.9999999999999999
 40
0.9999999999999999
 10
213.5030664039208
 20
108.9261544846192
 30
0.0
 10
212.6868625475309
 20
108.9982487582065
 30
0.0
 10
211.4605194768068
 20
109.1065701195435
 30
0.0
 10
209.9667442040564
 20
109.7696056749979
 30
0.0
 10
208.9569685200373
 20
110.4286044253103
 30
0.0
 10
208.1063568037989
 20
111.2174763675205
 30
0.0
 10
207.6901383332584
 20
111.8394374113777
 30
0.0
 10
207.4935103660855
 20
112.1332613148569
 30
0.0
  0
SPLINE
  5
DC
330
1F
100
AcDbEntity
  8
0
  6
HIDDEN
 62
     7
370
     0
100
AcDbSpline
210
0.0
220
0.0
230
1.0
 70
     8
 71
     3
 72
    16
 73
    12
 74
     0
 42
0.00000001
 43
0.00000001
 40
0.0
 40
0.0
 40
0.0
 40
0.0
 40
0.1258483902237854
 40
0.2726330014144336
 40
0.4313013006839231
 40
0.598989698680465
 40
0.6847019802748827
 40
0.7703938560429059
 40
0.8541533328830283
 40
0.9378723532057232
 40
1.0
 40
1.0
 40
1.0
 40
1.0
 10
207.4071070369658
 20
118.224035474102
 30
0.0
 10
207.7472427009401
 20
118.7305413644517
 30
0.0
 10
208.4840992216513
 20
119.8278157981935
 30
0.0
 10
210.2640186155749
 20
120.9911215406825
 30
0.0
 10
212.4783225945907
 20
121.6607784944127
 30
0.0
 10
214.517951103147
 20
121.6128966279198
 30
0.0
 10
216.1041708419093
 20
121.1789863571093
 30
0.0
 10
217.2274579852402
 20
120.6601469926456
 30
0.0
 10
218.2232675373163
 20
119.9532118900581
 30
0.0
 10
219.018682343071
 20
119.1737677053025
 30
0.0
 10
219.3903048583169
 20
118.5760394464534
 30
0.0
 10
219.5486083206064
 20
118.321419640058
 30
0.0
  0
SPLINE
  5
DD
330
1F
100
AcDbEntity
  8
0
  6
HIDDEN
 62
     7
370
     0
100
AcDbSpline
210
0.0
220
0.0
230
1.0
 70
     8
 71
     3
 72
    11
 73
     7
 74
     0
 42
0.00000001
 43
0.00000001
 40
0.0
 40
0.0
 40
0.0
 40
0.0
 40
0.1941123432104497
 40
0.4583177085032619
 40
0.7442173360174961
 40
1.0
 40
1.0
 40
1.0
 40
1.0
 10
219.8053678998621
 20
112.7681374233422
 30
0.0
 10
219.5767546686439
 20
112.3148763533893
 30
0.0
 10
219.0369770814359
 20
111.2446838478601
 30
0.0
 10
217.5233413343534
 20
109.9809955360182
 30
0.0
 10
215.5922185732316
 20
109.083483035631
 30
0.0
 10
214.1731509056386
 20
108.9766167847174
 30
0.0
 10
213.5030664039182
 20
108.9261544846245
 30
0.0
  0
SPLINE
  5
DE
330
1F
100
AcDbEntity
  8
0
  6
HIDDEN
 62
     7
370
     0
100
AcDbSpline
210
0.0
220
0.0
230
1.0
 70
     8
 71
     3
 72
    43
 73
    39
 74
     0
 42
0.00000001
 43
0.00000001
 40
-0.0801624898434109
 40
-0.0624517874774194
 40
-0.0297160539835406
 40
0.0
 40
0.0297073985860991
 40
0.0624149912524756
 40
0.0901337064970938
 40
0.1249567905560921
 40
0.1485103757524771
 40
0.169370561677979
 40
0.1875422011078786
 40
0.2201296716100188
 40
0.2499386603981727
 40
0.2797521365887041
 40
0.3123513443111067
 40
0.3406275752951411
 40
0.3749249989935015
 40
0.399029668969212
 40
0.4198969595377358
 40
0.4375301221058157
 40
0.4702368940842461
 40
0.4999891146274818
 40
0.5297219999566554
 40
0.5624132421486722
 40
0.5900380497741889
 40
0.6249279837507545
 40
0.6484965424937491
 40
0.6693874599151141
 40
0.6876056206600096
 40
0.7202333973538037
 40
0.7500691566086972
 40
0.7798602090135995
 40
0.8124265101364895
 40
0.8406391111777303
 40
0.8749111523669725
 40
0.8989596270892245
 40
0.9198375101565891
 40
0.9375482125225806
 40
0.9702839460164594
 40
1.0
 40
1.029707398586099
 40
1.062414991252476
 40
1.090133706497094
 10
212.3370475428498
 20
109.3383729662247
 30
0.0
 10
213.5029371800682
 20
109.2284388214398
 30
0.0
 10
214.6685931106407
 20
109.3383380621456
 30
0.0
 10
215.7629707623965
 20
109.6667212600774
 30
0.0
 10
216.8244779727923
 20
110.2208547126327
 30
0.0
 10
217.6683678219951
 20
110.8986731028446
 30
0.0
 10
218.315660126408
 20
111.6485620820958
 30
0.0
 10
218.7413654151107
 20
112.3075426126458
 30
0.0
 10
219.1335750984245
 20
113.1164643844308
 30
0.0
 10
219.4279477411689
 20
114.0950371506223
 30
0.0
 10
219.5387478781367
 20
115.2615565833443
 30
0.0
 10
219.4287966302755
 20
116.428429445844
 30
0.0
 10
219.0984117346301
 20
117.5297800828615
 30
0.0
 10
218.5427242686966
 20
118.5904506293952
 30
0.0
 10
217.8589718315484
 20
119.438845127638
 30
0.0
 10
217.107597143288
 20
120.085174949471
 30
0.0
 10
216.4471930122719
 20
120.5085837336132
 30
0.0
 10
215.6427465925252
 20
120.896924519729
 30
0.0
 10
214.6700399376722
 20
121.1892093823412
 30
0.0
 10
213.5037412418608
 20
121.2993969026062
 30
0.0
 10
212.3374957456443
 20
121.189427532621
 30
0.0
 10
211.2441565527489
 20
120.8612994129704
 30
0.0
 10
210.1830362480873
 20
120.3077836568588
 30
0.0
 10
209.3389554582882
 20
119.6303623899067
 30
0.0
 10
208.6906211975942
 20
118.87946498673
 30
0.0
 10
208.264280973335
 20
118.2194793312451
 30
0.0
 10
207.8716239788222
 20
117.409095186238
 30
0.0
 10
207.5773579001676
 20
116.4289616420799
 30
0.0
 10
207.467379664302
 20
115.2617902287799
 30
0.0
 10
207.5781877725077
 20
114.0953656742336
 30
0.0
 10
207.908782549003
 20
112.9956767114938
 30
0.0
 10
208.4640222314434
 20
111.9365839896026
 30
0.0
 10
209.146592574547
 20
111.0896445844121
 30
0.0
 10
209.8970956369934
 20
110.4437158472527
 30
0.0
 10
210.5576734336917
 20
110.0198134595771
 30
0.0
 10
211.3634219386212
 20
109.6307140694317
 30
0.0
 10
212.3370475428498
 20
109.3383729662247
 30
0.0
 10
213.5029371800682
 20
109.2284388214398
 30
0.0
 10
214.6685931106407
 20
109.3383380621456
 30
0.0
  0
SPLINE
  5
DF
330
1F
100
AcDbEntity
  8
0
  6
HIDDEN
 62
     7
370
     0
100
AcDbSpline
210
0.0
220
0.0
230
1.0
 70
     8
 71
     3
 72
    12
 73
     8
 74
     0
 42
0.00000001
 43
0.00000001
 40
0.0
 40
0.0
 40
0.0
 40
0.0
 40
0.2208161136540117
 40
0.4480845792576567
 40
0.6689350699693828
 40
0.8961261421475183
 40
1.0
 40
1.0
 40
1.0
 40
1.0
 10
70.7580684055224
 20
135.1014093793072
 30
0.0
 10
70.89011162836812
 20
135.1184664676209
 30
0.0
 10
71.15805643988378
 20
135.1530790604879
 30
0.0
 10
71.45321230538899
 20
135.1800509905966
 30
0.0
 10
71.65430545273547
 20
135.1955607757222
 30
0.0
 10
71.7516381904573
 20
135.2016700816463
 30
0.0
 10
71.74297865885008
 20
135.201124770206
 30
0.0
 10
71.74026167232071
 20
135.2009536750585
 30
0.0
  0
SPLINE
  5
E0
330
1F
100
AcDbEntity
  8
0
  6
HIDDEN
 62
     7
370
     0
100
AcDbSpline
210
0.0
220
0.0
230
1.0
 70
     8
 71
     3
 72
    17
 73
    13
 74
     0
 42
0.00000001
 43
0.00000001
 40
0.0
 40
0.0
 40
0.0
 40
0.0
 40
0.0070268500211336
 40
0.1183631929415073
 40
0.2321134198282858
 40
0.3466983210643487
 40
0.4574106626582213
 40
0.5688954169322246
 40
0.682824119935849
 40
0.7976023978524972
 40
0.8985035916333006
 40
1.0
 40
1.0
 40
1.0
 40
1.0
 10
71.75230635310537
 20
95.3260463717392
 30
0.0
 10
71.75255825595099
 20
95.32603046383332
 30
0.0
 10
71.75680141256176
 20
95.32576250443108
 30
0.0
 10
71.74088153258315
 20
95.32675937288134
 30
0.0
 10
71.70186569424719
 20
95.32927592216184
 30
0.0
 10
71.63341355562162
 20
95.33397353214978
 30
0.0
 10
71.54066158541241
 20
95.34092339878633
 30
0.0
 10
71.42337001419766
 20
95.35065288335223
 30
0.0
 10
71.28053337194257
 20
95.36389989027992
 30
0.0
 10
71.11898398153666
 20
95.38088697878594
 30
0.0
 10
70.94518064070148
 20
95.40117961923941
 30
0.0
 10
70.82056131151948
 20
95.41794505682708
 30
0.0
 10
70.7580684055224
 20
95.4263524276743
 30
0.0
  0
SPLINE
  5
E1
330
1F
100
AcDbEntity
  8
0
  6
HIDDEN
 62
     7
370
     0
100
AcDbSpline
210
0.0
220
0.0
230
1.0
 70
     8
 71
     3
 72
    32
 73
    28
 74
     0
 42
0.00000001
 43
0.00000001
 40
0.0
 40
0.0
 40
0.0
 40
0.0
 40
0.0346246159901393
 40
0.0694870388940023
 40
0.105100760954932
 40
0.1409753874086758
 40
0.1756005721189328
 40
0.210469240812561
 40
0.2461122854708169
 40
0.2820258067991321
 40
0.3162663828049037
 40
0.3859338563640312
 40
0.4214461814158482
 40
0.4553763558770598
 40
0.5243713305904967
 40
0.5595124638219118
 40
0.593798734303577
 40
0.6635059787021123
 40
0.6990055363805018
 40
0.7337623601246063
 40
0.7687606633024604
 40
0.8045245907686109
 40
0.8405553812432468
 40
0.875170121130555
 40
0.9456085132854553
 40
0.9815233266320907
 40
1.0
 40
1.0
 40
1.0
 40
1.0
 10
70.7580684055224
 20
95.4263524276743
 30
0.0
 10
70.68607010367597
 20
95.43614037058262
 30
0.0
 10
70.54157900514281
 20
95.45578348141906
 30
0.0
 10
70.30025907088434
 20
95.48523270004078
 30
0.0
 10
70.0409608198987
 20
95.5137830821312
 30
0.0
 10
69.76697340076606
 20
95.54021430108602
 30
0.0
 10
69.48234561974455
 20
95.56366677843734
 30
0.0
 10
69.18776066077639
 20
95.58366423489595
 30
0.0
 10
68.8808297518081
 20
95.59981991339968
 30
0.0
 10
68.56909828605562
 20
95.61126190109518
 30
0.0
 10
68.1518327373702
 20
95.61995302879303
 30
0.0
 10
67.73118974401264
 20
95.61866497233284
 30
0.0
 10
67.31778619084717
 20
95.60743716096536
 30
0.0
 10
66.91294222777988
 20
95.59013888888448
 30
0.0
 10
66.52230414321772
 20
95.56442324511627
 30
0.0
 10
66.15352306517644
 20
95.53232993421935
 30
0.0
 10
65.80010528292803
 20
95.49677172571691
 30
0.0
 10
65.47466419260712
 20
95.45752326938131
 30
0.0
 10
65.18528698688978
 20
95.41789175200897
 30
0.0
 10
64.98737310991449
 20
95.38875600886674
 30
0.0
 10
64.81004614587697
 20
95.36102177655398
 30
0.0
 10
64.65343681736447
 20
95.3352412322996
 30
0.0
 10
64.52178929766177
 20
95.31263459556541
 30
0.0
 10
64.37992810209003
 20
95.28744855025876
 30
0.0
 10
64.29110951427441
 20
95.27100300113514
 30
0.0
 10
64.25428657572402
 20
95.26411017031897
 30
0.0
 10
64.2557027228972
 20
95.26437515622817
 30
0.0
 10
64.25618378510637
 20
95.26446517138287
 30
0.0
  0
SPLINE
  5
E2
330
1F
100
AcDbEntity
  8
0
  6
HIDDEN
 62
     7
370
     0
100
AcDbSpline
210
0.0
220
0.0
230
1.0
 70
     8
 71
     3
 72
    22
 73
    18
 74
     0
 42
0.00000001
 43
0.00000001
 40
0.0
 40
0.0
 40
0.0
 40
0.0
 40
0.0499040281125884
 40
0.1203075863893544
 40
0.1885125365560131
 40
0.258644416829719
 40
0.3277839407293157
 40
0.3988873214655099
 40
0.4686969488930336
 40
0.5405663748364754
 40
0.609708789122301
 40
0.6809159691092499
 40
0.7490773369981711
 40
0.8192056085539694
 40
0.8876078379088254
 40
0.9579332867310426
 40
1.0
 40
1.0
 40
1.0
 40
1.0
 10
64.26303854558219
 20
135.2620160954091
 30
0.0
 10
64.26428947960768
 20
135.2617770650133
 30
0.0
 10
64.267305205172
 20
135.2612008155387
 30
0.0
 10
64.39219853222549
 20
135.2380027807152
 30
0.0
 10
64.61668036010308
 20
135.1983227443976
 30
0.0
 10
64.93570852228058
 20
135.1461113229983
 30
0.0
 10
65.34324375327724
 20
135.0867815113261
 30
0.0
 10
65.8250303071102
 20
135.0273067348101
 30
0.0
 10
66.37544998890546
 20
134.9737003784481
 30
0.0
 10
66.9683448748537
 20
134.9332264599738
 30
0.0
 10
67.59529744517089
 20
134.9100272116075
 30
0.0
 10
68.2235084189989
 20
134.9070491083926
 30
0.0
 10
68.84776851147593
 20
134.9241834340919
 30
0.0
 10
69.44038680130424
 20
134.9588692897819
 30
0.0
 10
69.99721288483238
 20
135.0078256534457
 30
0.0
 10
70.43501972946525
 20
135.0577258180689
 30
0.0
 10
70.67008643623817
 20
135.0895122070606
 30
0.0
 10
70.7580684055224
 20
135.1014093793072
 30
0.0
  0
LINE
  5
E3
330
1F
100
AcDbEntity
  8
0
  6
HIDDEN
 62
     7
370
     0
100
AcDbLine
 10
58.0070410001
 20
98.2638809035
 30
0.0
 11
58.0070410001
 21
132.2638809035
 31
0.0
  0
LWPOLYLINE
  5
E4
330
1F
100
AcDbEntity
  8
0
  6
HIDDEN
 62
     7
370
     0
100
AcDbPolyline
 90
       12
 70
   128
 43
0.0
 10
85.0030664039
 20
137.2094833181
 10
85.9255298869
 20
137.263393577
 10
86.7982631247
 20
137.4222180375
 10
87.5742168427
 20
137.6773944319
 10
88.2115591749
 20
138.0151661347
 10
88.6759308314
 20
138.4173237861
 10
88.942297416
 20
138.8621869628
 10
88.996299037
 20
139.325772976
 10
88.8350244532
 20
139.7830897836
 10
88.4671680191
 20
140.2094833181
 10
87.9125609702
 20
140.5819665939
 10
87.3862427833
 20
140.8157577611
  0
LWPOLYLINE
  5
E5
330
1F
100
AcDbEntity
  8
0
  6
HIDDEN
 62
     7
370
     0
100
AcDbPolyline
 90
       12
 70
   128
 43
0.0
 10
82.6169796453
 20
140.8146772301
 10
82.0935718376
 20
140.5819665939
 10
81.5389647888
 20
140.2094833181
 10
81.1711083547
 20
139.7830897836
 10
81.0098337708
 20
139.325772976
 10
81.0638353919
 20
138.8621869628
 10
81.3302019764
 20
138.4173237861
 10
81.7945736329
 20
138.0151661347
 10
82.4319159652
 20
137.6773944319
 10
83.2078696831
 20
137.4222180375
 10
84.080602921
 20
137.263393577
 10
85.0030664039
 20
137.2094833181
  0
SPLINE
  5
E6
330
1F
100
AcDbEntity
  8
0
  6
HIDDEN
 62
     7
370
     0
100
AcDbSpline
210
0.0
220
0.0
230
1.0
 70
     8
 71
     3
 72
    11
 73
     7
 74
     0
 42
0.00000001
 43
0.00000001
 40
0.0
 40
0.0
 40
0.0
 40
0.0
 40
0.0005779865010845
 40
0.0005779865010845
 40
0.0005779865010845
 40
0.0011559733324421
 40
0.0011559733324421
 40
0.0011559733324421
 40
0.0011559733324421
 10
45.10306640392081
 20
117.2637215116446
 30
0.0
 10
45.26973365872677
 20
117.2617378723036
 30
0.0
 10
45.43640008840444
 20
117.259700265301
 30
0.0
 10
45.60306642685626
 20
117.2575888018946
 30
0.0
 10
45.76973285568265
 20
117.2554773373433
 30
0.0
 10
45.93639922932036
 20
117.2532917741869
 30
0.0
 10
46.10306640392078
 20
117.2510091968553
 30
0.0
  0
SPLINE
  5
E7
330
1F
100
AcDbEntity
  8
0
  6
HIDDEN
 62
     7
370
     0
100
AcDbSpline
210
0.0
220
0.0
230
1.0
 70
     8
 71
     3
 72
     8
 73
     4
 74
     0
 42
0.00000001
 43
0.00000001
 40
0.0
 40
0.0
 40
0.0
 40
0.0
 40
0.0011564765856722
 40
0.0011564765856722
 40
0.0011564765856722
 40
0.0011564765856722
 10
46.10306640392078
 20
113.2671806012745
 30
0.0
 10
45.76975847335193
 20
113.2663054456912
 30
0.0
 10
45.43642324095974
 20
113.2652505944397
 30
0.0
 10
45.10306640392078
 20
113.2640795074022
 30
0.0
  0
LINE
  5
E8
330
1F
100
AcDbEntity
  8
0
  6
HIDDEN
 62
     7
370
     0
100
AcDbLine
 10
84.6628923725
 20
98.2638809035
 30
0.0
 11
84.6628923725
 21
132.2638809035
 31
0.0
  0
LINE
  5
E9
330
1F
100
AcDbEntity
  8
0
  6
HIDDEN
 62
     7
370
     0
100
AcDbLine
 10
86.9530664039
 20
99.5388809035
 30
0.0
 11
86.9530664039
 21
130.9888809035
 31
0.0
  0
SPLINE
  5
EA
330
1F
100
AcDbEntity
  8
0
  6
HIDDEN
 62
     7
370
     0
100
AcDbSpline
210
0.0
220
0.0
230
1.0
 70
     8
 71
     3
 72
    16
 73
    12
 74
     0
 42
0.00000001
 43
0.00000001
 40
0.0
 40
0.0
 40
0.0
 40
0.0
 40
0.124999999999998
 40
0.124999999999998
 40
0.249999999999996
 40
0.249999999999996
 40
0.4999999999999973
 40
0.4999999999999973
 40
0.7499999999999987
 40
0.7499999999999987
 40
1.0
 40
1.0
 40
1.0
 40
1.0
 10
53.80306640392079
 20
99.46239046745912
 30
0.0
 10
53.89818815858663
 20
99.46239046745912
 30
0.0
 10
53.9915182273147
 20
99.45857463406631
 30
0.0
 10
54.1747799880527
 20
99.4438040813365
 30
0.0
 10
54.2656577036097
 20
99.43264603336091
 30
0.0
 10
54.52245940112945
 20
99.39017476321919
 30
0.0
 10
54.67752676600144
 20
99.34912856601639
 30
0.0
 10
54.93127322755606
 20
99.2539824494345
 30
0.0
 10
55.03214367922392
 20
99.19921971535292
 30
0.0
 10
55.16739009391876
 20
99.08795859144907
 30
0.0
 10
55.20306640392079
 20
99.03078885412036
 30
0.0
 10
55.20306640392079
 20
98.97636728108664
 30
0.0
  0
SPLINE
  5
EB
330
1F
100
AcDbEntity
  8
0
  6
HIDDEN
 62
     7
370
     0
100
AcDbSpline
210
0.0
220
0.0
230
1.0
 70
     8
 71
     3
 72
     8
 73
     4
 74
     0
 42
0.00000001
 43
0.00000001
 40
0.0
 40
0.0
 40
0.0
 40
0.0
 40
1.0
 40
1.0
 40
1.0
 40
1.0
 10
46.40306640723599
 20
101.6071934135414
 30
0.0
 10
46.40306640723792
 20
100.7232962712244
 30
0.0
 10
46.38958578132812
 20
100.0087130261625
 30
0.0
 10
46.38823441313882
 20
99.46239046745912
 30
0.0
  0
LINE
  5
EC
330
1F
100
AcDbEntity
  8
0
  6
HIDDEN
 62
     7
370
     0
100
AcDbLine
 10
46.1030664039
 20
105.6630541111
 30
0.0
 11
46.1030664039
 21
102.6321036792
 31
0.0
  0
LINE
  5
ED
330
1F
100
AcDbEntity
  8
0
  6
HIDDEN
 62
     7
370
     0
100
AcDbLine
 10
46.4030664071
 20
118.8685145251
 30
0.0
 11
46.4030664071
 21
107.0308945278
 31
0.0
  0
SPLINE
  5
EE
330
1F
100
AcDbEntity
  8
0
  6
HIDDEN
 62
     7
370
     0
100
AcDbSpline
210
0.0
220
0.0
230
1.0
 70
     8
 71
     3
 72
     8
 73
     4
 74
     0
 42
0.00000001
 43
0.00000001
 40
0.0
 40
0.0
 40
0.0
 40
0.0
 40
1.0
 40
1.0
 40
1.0
 40
1.0
 10
46.10306640392078
 20
124.8708202245591
 30
0.0
 10
46.2840978704797
 20
124.4387127388964
 30
0.0
 10
46.40306640711422
 20
123.9845673327968
 30
0.0
 10
46.40306640710852
 20
123.4968672791027
 30
0.0
  0
LINE
  5
EF
330
1F
100
AcDbEntity
  8
0
  6
HIDDEN
 62
     7
370
     0
100
AcDbLine
 10
46.1030664039
 20
127.9040232105
 30
0.0
 11
46.1030664039
 21
124.8708202246
 31
0.0
  0
SPLINE
  5
F0
330
1F
100
AcDbEntity
  8
0
  6
HIDDEN
 62
     7
370
     0
100
AcDbSpline
210
0.0
220
0.0
230
1.0
 70
     8
 71
     3
 72
    10
 73
     6
 74
     0
 42
0.00000001
 43
0.00000001
 40
0.0
 40
0.0
 40
0.0
 40
0.0
 40
0.5
 40
0.5
 40
1.0
 40
1.0
 40
1.0
 40
1.0
 10
46.40306640731401
 20
128.9205683934106
 30
0.0
 10
46.4030664073122
 20
128.7559320468046
 30
0.0
 10
46.37590773655673
 20
128.5887768229741
 30
0.0
 10
46.27014274123832
 20
128.2501538151725
 30
0.0
 10
46.19372795294116
 20
128.0778820378815
 30
0.0
 10
46.10306640392081
 20
127.9040232105375
 30
0.0
  0
SPLINE
  5
F1
330
1F
100
AcDbEntity
  8
0
  6
HIDDEN
 62
     7
370
     0
100
AcDbSpline
210
0.0
220
0.0
230
1.0
 70
     8
 71
     3
 72
    18
 73
    14
 74
     0
 42
0.00000001
 43
0.00000001
 40
0.0
 40
0.0
 40
0.0
 40
0.0
 40
0.2500000000000033
 40
0.2500000000000033
 40
0.3750000000000029
 40
0.3750000000000029
 40
0.5000000000000026
 40
0.5000000000000026
 40
0.6250000000000022
 40
0.6250000000000022
 40
0.7500000000000018
 40
0.7500000000000018
 40
1.0
 40
1.0
 40
1.0
 40
1.0
 10
51.20306640392081
 20
131.5513945258949
 30
0.0
 10
51.20306640392079
 20
131.4969200053427
 30
0.0
 10
51.16815571252861
 20
131.4405389459902
 30
0.0
 10
51.06614641119557
 20
131.3564621051367
 30
0.0
 10
51.02451005651745
 20
131.3291284011458
 30
0.0
 10
50.92610426102871
 20
131.2761744855468
 30
0.0
 10
50.86856104932444
 20
131.2502871318297
 30
0.0
 10
50.74126287575148
 20
131.2025095869964
 30
0.0
 10
50.67167557099402
 20
131.1805616688185
 30
0.0
 10
50.52024132583906
 20
131.1411291039058
 30
0.0
 10
50.43755742274511
 20
131.1235728546799
 30
0.0
 10
50.18144596070706
 20
131.0811340892594
 30
0.0
 10
49.99353095681908
 20
131.0653713395224
 30
0.0
 10
49.80306640392079
 20
131.0653713395224
 30
0.0
  0
LINE
  5
F2
330
1F
100
AcDbEntity
  8
0
  6
HIDDEN
 62
     7
370
     0
100
AcDbLine
 10
49.8030664039
 20
131.0653713395
 30
0.0
 11
46.4030664073
 21
131.0653713395
 31
0.0
  0
LINE
  5
F3
330
1F
100
AcDbEntity
  8
0
  6
HIDDEN
 62
     7
370
     0
100
AcDbLine
 10
46.3340974173
 20
99.4623904675
 30
0.0
 11
53.8030664039
 21
99.4623904675
 31
0.0
  0
SPLINE
  5
F4
330
1F
100
AcDbEntity
  8
0
  6
HIDDEN
 62
     7
370
     0
100
AcDbSpline
210
0.0
220
0.0
230
1.0
 70
     8
 71
     3
 72
    22
 73
    18
 74
     0
 42
0.00000001
 43
0.00000001
 40
0.0
 40
0.0
 40
0.0
 40
0.0
 40
0.1249999999999998
 40
0.1249999999999998
 40
0.2499999999999995
 40
0.2499999999999995
 40
0.4999999999999992
 40
0.4999999999999992
 40
0.5624999999999993
 40
0.5624999999999993
 40
0.6249999999999994
 40
0.6249999999999994
 40
0.7499999999999996
 40
0.7499999999999996
 40
0.8749999999999998
 40
0.8749999999999998
 40
1.0
 40
1.0
 40
1.0
 40
1.0
 10
46.33409741727871
 20
99.46239046745912
 30
0.0
 10
46.32101502455036
 20
99.71749617760678
 30
0.0
 10
46.30779546111052
 20
100.0106544367107
 30
0.0
 10
46.2853482833164
 20
100.6729549023355
 30
0.0
 10
46.27586981629194
 20
101.0432288229469
 30
0.0
 10
46.25667185535537
 20
102.2657856260607
 30
0.0
 10
46.25778562835227
 20
103.2029245521925
 30
0.0
 10
46.27669642130535
 20
104.5227957817075
 30
0.0
 10
46.28132594916434
 20
104.7942976906838
 30
0.0
 10
46.29180716891031
 20
105.3526825254861
 30
0.0
 10
46.29760243019472
 20
105.6398053814257
 30
0.0
 10
46.31591165109966
 20
106.5123946357974
 30
0.0
 10
46.32994658538002
 20
107.1128503121533
 30
0.0
 10
46.35940375751684
 20
108.3503248046494
 30
0.0
 10
46.37495944849842
 20
108.9873409612928
 30
0.0
 10
46.3987539984953
 20
110.2988295589774
 30
0.0
 10
46.40677305064067
 20
110.9749521706379
 30
0.0
 10
46.40306640392079
 20
111.6592472819227
 30
0.0
  0
LINE
  5
F5
330
1F
100
AcDbEntity
  8
0
  6
HIDDEN
 62
     7
370
     0
100
AcDbLine
 10
46.4030664073
 20
118.8685145251
 30
0.0
 11
46.4030664073
 21
131.0653713395
 31
0.0
  0
SPLINE
  5
F6
330
1F
100
AcDbEntity
  8
0
  6
HIDDEN
 62
     7
370
     0
100
AcDbSpline
210
0.0
220
0.0
230
1.0
 70
     8
 71
     3
 72
    10
 73
     6
 74
     0
 42
0.00000001
 43
0.00000001
 40
0.0
 40
0.0
 40
0.0
 40
0.0
 40
0.5
 40
0.5
 40
1.0
 40
1.0
 40
1.0
 40
1.0
 10
46.40306640392079
 20
111.6592472819076
 30
0.0
 10
46.40306640392061
 20
111.933162429982
 30
0.0
 10
46.3773071740529
 20
112.204104008712
 30
0.0
 10
46.2741012413198
 20
112.7397950903149
 30
0.0
 10
46.19676307744455
 20
113.0055418938369
 30
0.0
 10
46.10306640392078
 20
113.2671806012745
 30
0.0
  0
SPLINE
  5
F7
330
1F
100
AcDbEntity
  8
0
  6
HIDDEN
 62
     7
370
     0
100
AcDbSpline
210
0.0
220
0.0
230
1.0
 70
     8
 71
     3
 72
    10
 73
     6
 74
     0
 42
0.00000001
 43
0.00000001
 40
0.0
 40
0.0
 40
0.0
 40
0.0
 40
0.5
 40
0.5
 40
1.0
 40
1.0
 40
1.0
 40
1.0
 10
46.10306640392078
 20
117.2510091968553
 30
0.0
 10
46.1962969853118
 20
117.5149030049254
 30
0.0
 10
46.27132659754857
 20
117.7810833155637
 30
0.0
 10
46.37639369672671
 20
118.3194058905218
 30
0.0
 10
46.40306640731288
 20
118.5921540067674
 30
0.0
 10
46.40306640731406
 20
118.8685145250579
 30
0.0
  0
LINE
  5
F8
330
1F
100
AcDbEntity
  8
0
  6
HIDDEN
 62
     7
370
     0
100
AcDbLine
 10
46.1030664039
 20
113.2671806013
 30
0.0
 11
46.1030664039
 21
117.2510091969
 31
0.0
  0
LWPOLYLINE
  5
F9
330
1F
100
AcDbEntity
  8
0
  6
HIDDEN
 62
     7
370
     0
100
AcDbPolyline
 90
       17
 70
   128
 43
0.0
 10
190.0030664039
 20
101.8288520609
 10
189.4290412554
 20
101.9095900091
 10
188.9424062321
 20
102.1395122327
 10
188.6172471052
 20
102.4836151576
 10
188.5030664039
 20
102.8895122327
 10
188.6172471052
 20
103.2954093078
 10
188.9424062321
 20
103.6395122327
 10
189.4290412554
 20
103.8694344564
 10
190.0030664039
 20
103.9501724045
 10
190.5770915525
 20
103.8694344564
 10
191.0637265757
 20
103.6395122327
 10
191.3888857027
 20
103.2954093078
 10
191.5030664039
 20
102.8895122327
 10
191.3888857027
 20
102.4836151576
 10
191.0637265757
 20
102.1395122327
 10
190.5770915525
 20
101.9095900091
 10
190.0030664039
 20
101.8288520609
  0
SPLINE
  5
FA
330
1F
100
AcDbEntity
  8
0
  6
HIDDEN
 62
     7
370
     0
100
AcDbSpline
210
0.0
220
0.0
230
1.0
 70
     8
 71
     3
 72
    14
 73
    10
 74
     0
 42
0.00000001
 43
0.00000001
 40
0.0
 40
0.0
 40
0.0
 40
0.0
 40
0.25
 40
0.25
 40
0.5
 40
0.5
 40
0.75
 40
0.75
 40
1.0
 40
1.0
 40
1.0
 40
1.0
 10
189.0578858223725
 20
102.887679069369
 30
0.0
 10
189.0934590763237
 20
102.920695430797
 30
0.0
 10
189.1243609073424
 20
102.9607462053233
 30
0.0
 10
189.1669150279228
 20
103.0592088474301
 30
0.0
 10
189.1771416780825
 20
103.1160244980548
 30
0.0
 10
189.1688075715859
 20
103.2439618628627
 30
0.0
 10
189.1501899347512
 20
103.3136949596028
 30
0.0
 10
189.0946845521981
 20
103.4572137262487
 30
0.0
 10
189.0585919028389
 20
103.5305393049654
 30
0.0
 10
189.0192863353965
 20
103.6052766837462
 30
0.0
  0
SPLINE
  5
FB
330
1F
100
AcDbEntity
  8
0
  6
HIDDEN
 62
     7
370
     0
100
AcDbSpline
210
0.0
220
0.0
230
1.0
 70
     8
 71
     3
 72
    14
 73
    10
 74
     0
 42
0.00000001
 43
0.00000001
 40
0.0
 40
0.0
 40
0.0
 40
0.0
 40
0.25
 40
0.25
 40
0.5
 40
0.5
 40
0.75
 40
0.75
 40
1.0
 40
1.0
 40
1.0
 40
1.0
 10
189.0192863353964
 20
103.6052766837454
 30
0.0
 10
188.987639606114
 20
103.5689086307188
 30
0.0
 10
188.9574422775375
 20
103.5331552771823
 30
0.0
 10
188.9093686727125
 20
103.4511881702509
 30
0.0
 10
188.8918832043809
 20
103.4025092054285
 30
0.0
 10
188.9015930407404
 20
103.2695483278672
 30
0.0
 10
188.9269178149781
 20
103.1909407092741
 30
0.0
 10
188.9866128316777
 20
103.0380935285963
 30
0.0
 10
189.0214757600932
 20
102.9622599150931
 30
0.0
 10
189.0578858223725
 20
102.8876790693686
 30
0.0
  0
SPLINE
  5
FC
330
1F
100
AcDbEntity
  8
0
  6
HIDDEN
 62
     7
370
     0
100
AcDbSpline
210
0.0
220
0.0
230
1.0
 70
     8
 71
     3
 72
    48
 73
    44
 74
     0
 42
0.00000001
 43
0.00000001
 40
-0.0625000000000016
 40
-0.0625000000000016
 40
0.0
 40
0.0
 40
0.0312500000000001
 40
0.0312500000000001
 40
0.0625000000000003
 40
0.0625000000000003
 40
0.1250000000000011
 40
0.1250000000000011
 40
0.1875000000000019
 40
0.1875000000000019
 40
0.2500000000000028
 40
0.2500000000000028
 40
0.3125000000000036
 40
0.3125000000000036
 40
0.3437500000000031
 40
0.3437500000000031
 40
0.3750000000000026
 40
0.3750000000000026
 40
0.4062500000000021
 40
0.4062500000000021
 40
0.4375000000000015
 40
0.4375000000000015
 40
0.5000000000000011
 40
0.5000000000000011
 40
0.5625000000000008
 40
0.5625000000000008
 40
0.6250000000000006
 40
0.6250000000000006
 40
0.6875000000000002
 40
0.6875000000000002
 40
0.75
 40
0.75
 40
0.8124999999999997
 40
0.8124999999999997
 40
0.8437499999999994
 40
0.8437499999999994
 40
0.8749999999999991
 40
0.8749999999999991
 40
0.9062499999999988
 40
0.9062499999999988
 40
0.9374999999999984
 40
0.9374999999999984
 40
1.0
 40
1.0
 40
1.03125
 40
1.03125
 10
191.1338563812723
 20
102.8395514457647
 30
0.0
 10
191.2559242117893
 20
102.8429427709865
 30
0.0
 10
191.2943865417069
 20
102.8513895869329
 30
0.0
 10
191.3645360174734
 20
102.8836644509871
 30
0.0
 10
191.3965531502486
 20
102.9079372084529
 30
0.0
 10
191.4752887371663
 20
103.0047598699742
 30
0.0
 10
191.5050171379871
 20
103.1039095077091
 30
0.0
 10
191.500905383957
 20
103.3528313094789
 30
0.0
 10
191.4668592912916
 20
103.5034327565734
 30
0.0
 10
191.3554931327668
 20
103.8123479271019
 30
0.0
 10
191.2790942091762
 20
103.9711078067278
 30
0.0
 10
191.1159210289119
 20
104.278879053566
 30
0.0
 10
191.0272815628963
 20
104.4296165864762
 30
0.0
 10
190.9180674621674
 20
104.6475417999987
 30
0.0
 10
190.8851459144555
 20
104.7206974596912
 30
0.0
 10
190.8406952014556
 20
104.860234103337
 30
0.0
 10
190.8294623830316
 20
104.9282347387056
 30
0.0
 10
190.8362501814556
 20
105.0481682502167
 30
0.0
 10
190.853997144741
 20
105.1015869848715
 30
0.0
 10
190.9061476712139
 20
105.1897340632011
 30
0.0
 10
190.9405208356811
 20
105.2258562492854
 30
0.0
 10
191.0524674963792
 20
105.3119555996362
 30
0.0
 10
191.1379514735326
 20
105.3410526170305
 30
0.0
 10
191.296102951433
 20
105.3445912124652
 30
0.0
 10
191.368347826868
 20
105.318626358985
 30
0.0
 10
191.4740378832528
 20
105.1969292950377
 30
0.0
 10
191.5045369290112
 20
105.10008053581
 30
0.0
 10
191.5014805530931
 20
104.8509314653427
 30
0.0
 10
191.4675579026987
 20
104.697996142476
 30
0.0
 10
191.3575924751006
 20
104.3851152463097
 30
0.0
 10
191.2824372097077
 20
104.2241593242505
 30
0.0
 10
191.1236772799613
 20
103.9146568620465
 30
0.0
 10
191.0370325593195
 20
103.7617783955156
 30
0.0
 10
190.9285624248738
 20
103.5431547800237
 30
0.0
 10
190.8956128582231
 20
103.4710077942385
 30
0.0
 10
190.8468233184628
 20
103.3286597843767
 30
0.0
 10
190.8322317243391
 20
103.2603711324557
 30
0.0
 10
190.8322134875075
 20
103.1352903704664
 30
0.0
 10
190.8468957144667
 20
103.0804288149859
 30
0.0
 10
190.8969080904914
 20
102.9884827915384
 30
0.0
 10
190.9308943965221
 20
102.952164226466
 30
0.0
 10
191.0451919651147
 20
102.865691137527
 30
0.0
 10
191.1338563812723
 20
102.8395514457647
 30
0.0
 10
191.2559242117893
 20
102.8429427709865
 30
0.0
  0
SPLINE
  5
FD
330
1F
100
AcDbEntity
  8
0
  6
HIDDEN
 62
     7
370
     0
100
AcDbSpline
210
0.0
220
0.0
230
1.0
 70
     8
 71
     3
 72
     8
 73
     4
 74
     0
 42
0.00000001
 43
0.00000001
 40
0.0
 40
0.0
 40
0.0
 40
0.0
 40
1.0
 40
1.0
 40
1.0
 40
1.0
 10
191.2451004431313
 20
109.326568353762
 30
0.0
 10
191.2038794034347
 20
109.3628792993908
 30
0.0
 10
191.1583247381018
 20
109.4013220849375
 30
0.0
 10
191.108292385801
 20
109.4441075357653
 30
0.0
  0
SPLINE
  5
FE
330
1F
100
AcDbEntity
  8
0
  6
HIDDEN
 62
     7
370
     0
100
AcDbSpline
210
0.0
220
0.0
230
1.0
 70
     8
 71
     3
 72
    34
 73
    30
 74
     0
 42
0.00000001
 43
0.00000001
 40
0.0
 40
0.0
 40
0.0
 40
0.0
 40
0.0624999999999997
 40
0.0624999999999997
 40
0.1249999999999995
 40
0.1249999999999995
 40
0.2499999999999989
 40
0.2499999999999989
 40
0.3124999999999988
 40
0.3124999999999988
 40
0.3749999999999986
 40
0.3749999999999986
 40
0.4999999999999986
 40
0.4999999999999986
 40
0.5624999999999988
 40
0.5624999999999988
 40
0.6249999999999989
 40
0.6249999999999989
 40
0.6874999999999991
 40
0.6874999999999991
 40
0.7499999999999992
 40
0.7499999999999992
 40
0.8124999999999994
 40
0.8124999999999994
 40
0.8749999999999997
 40
0.8749999999999997
 40
0.9374999999999998
 40
0.9374999999999998
 40
1.0
 40
1.0
 40
1.0
 40
1.0
 10
191.108292385801
 20
109.4441075357653
 30
0.0
 10
191.0061324463412
 20
109.5314701894351
 30
0.0
 10
190.8901011513051
 20
109.6062013078401
 30
0.0
 10
190.6305115496362
 20
109.7286419208375
 30
0.0
 10
190.4902369025892
 20
109.7743238215072
 30
0.0
 10
190.0520770381305
 20
109.858184527868
 30
0.0
 10
189.7372076765669
 20
109.8391478014698
 30
0.0
 10
189.3197957987418
 20
109.7067849778783
 30
0.0
 10
189.1870899363859
 20
109.6450213341065
 30
0.0
 10
188.9536458012712
 20
109.4972763837418
 30
0.0
 10
188.8494949671534
 20
109.4092184834845
 30
0.0
 10
188.5967066453558
 20
109.1241639022098
 30
0.0
 10
188.5031389122645
 20
108.9010556994775
 30
0.0
 10
188.5030302148519
 20
108.5815366447518
 30
0.0
 10
188.5253250653406
 20
108.4792634304026
 30
0.0
 10
188.614638834499
 20
108.2847151891428
 30
0.0
 10
188.6795512818086
 20
108.1966385576395
 30
0.0
 10
188.8495002947421
 20
108.036814834164
 30
0.0
 10
188.9517834842771
 20
107.9680149706616
 30
0.0
 10
189.1863561922806
 20
107.852818165253
 30
0.0
 10
189.3177663546211
 20
107.8071618505527
 30
0.0
 10
189.5963934660861
 20
107.7418664205366
 30
0.0
 10
189.7455690769788
 20
107.7219423187279
 30
0.0
 10
190.0437826551797
 20
107.7091550082573
 30
0.0
 10
190.1967897538561
 20
107.7161892215135
 30
0.0
 10
190.4878168292551
 20
107.7563666225909
 30
0.0
 10
190.63014249934
 20
107.7901040094698
 30
0.0
 10
190.8879120299107
 20
107.8814956530209
 30
0.0
 10
191.0061307813353
 20
107.9398090191675
 30
0.0
 10
191.108292385801
 20
108.0099000689205
 30
0.0
  0
SPLINE
  5
FF
330
1F
100
AcDbEntity
  8
0
  6
HIDDEN
 62
     7
370
     0
100
AcDbSpline
210
0.0
220
0.0
230
1.0
 70
     8
 71
     3
 72
     8
 73
     4
 74
     0
 42
0.00000001
 43
0.00000001
 40
0.0
 40
0.0
 40
0.0
 40
0.0
 40
1.0
 40
1.0
 40
1.0
 40
1.0
 10
191.108292385801
 20
108.0099000689205
 30
0.0
 10
191.1583247381018
 20
108.0442262731017
 30
0.0
 10
191.2038794034347
 20
108.0873770383228
 30
0.0
 10
191.2451004431313
 20
108.1371555192573
 30
0.0
  0
SPLINE
  5
100
330
1F
100
AcDbEntity
  8
0
  6
HIDDEN
 62
     7
370
     0
100
AcDbSpline
210
0.0
220
0.0
230
1.0
 70
     8
 71
     3
 72
    12
 73
     8
 74
     0
 42
0.00000001
 43
0.00000001
 40
0.0
 40
0.0
 40
0.0
 40
0.0
 40
0.2499999999999998
 40
0.2499999999999998
 40
0.4999999999999996
 40
0.4999999999999996
 40
1.0
 40
1.0
 40
1.0
 40
1.0
 10
191.2451004431313
 20
108.1371555192573
 30
0.0
 10
191.3287650902361
 20
108.2381888525126
 30
0.0
 10
191.3926511728531
 20
108.3419980024202
 30
0.0
 10
191.4806028546052
 20
108.5569102340023
 30
0.0
 10
191.5029289130791
 20
108.6648223217556
 30
0.0
 10
191.503339489598
 20
108.9811450117019
 30
0.0
 10
191.4124376595962
 20
109.1791637125045
 30
0.0
 10
191.2451004431313
 20
109.326568353762
 30
0.0
  0
SPLINE
  5
101
330
1F
100
AcDbEntity
  8
0
  6
HIDDEN
 62
     7
370
     0
100
AcDbSpline
210
0.0
220
0.0
230
1.0
 70
     8
 71
     3
 72
    10
 73
     6
 74
     0
 42
0.00000001
 43
0.00000001
 40
0.0
 40
0.0
 40
0.0
 40
0.0
 40
0.5
 40
0.5
 40
1.0
 40
1.0
 40
1.0
 40
1.0
 10
189.0192863353965
 20
105.2066365913085
 30
0.0
 10
189.0977666534494
 20
105.1538378330125
 30
0.0
 10
189.1641767135437
 20
105.0686794798417
 30
0.0
 10
189.1816205756741
 20
104.8272298752343
 30
0.0
 10
189.1290602069488
 20
104.6826187319667
 30
0.0
 10
189.0578858223725
 20
104.5348789165429
 30
0.0
  0
SPLINE
  5
102
330
1F
100
AcDbEntity
  8
0
  6
HIDDEN
 62
     7
370
     0
100
AcDbSpline
210
0.0
220
0.0
230
1.0
 70
     8
 71
     3
 72
    14
 73
    10
 74
     0
 42
0.00000001
 43
0.00000001
 40
0.0
 40
0.0
 40
0.0
 40
0.0
 40
0.25
 40
0.25
 40
0.5
 40
0.5
 40
0.75
 40
0.75
 40
1.0
 40
1.0
 40
1.0
 40
1.0
 10
189.0578858223725
 20
104.5348789165431
 30
0.0
 10
189.0214168267385
 20
104.5677278930391
 30
0.0
 10
188.9864738945782
 20
104.5993437373926
 30
0.0
 10
188.9267365532333
 20
104.6701408803629
 30
0.0
 10
188.9014473539102
 20
104.7100826823323
 30
0.0
 10
188.8919602546796
 20
104.8278310401508
 30
0.0
 10
188.909455257433
 20
104.9041275931279
 30
0.0
 10
188.9576498266911
 20
105.0554640960635
 30
0.0
 10
188.9877023766688
 20
105.1315340704937
 30
0.0
 10
189.0192863353964
 20
105.2066365913107
 30
0.0
  0
SPLINE
  5
103
330
1F
100
AcDbEntity
  8
0
  6
HIDDEN
 62
     7
370
     0
100
AcDbSpline
210
0.0
220
0.0
230
1.0
 70
     8
 71
     3
 72
    10
 73
     6
 74
     0
 42
0.00000001
 43
0.00000001
 40
0.0
 40
0.0
 40
0.0
 40
0.0
 40
0.5
 40
0.5
 40
1.0
 40
1.0
 40
1.0
 40
1.0
 10
188.5030664039203
 20
104.2861778600928
 30
0.0
 10
188.5030664039203
 20
104.3094312766772
 30
0.0
 10
188.5041460507372
 20
104.330526672554
 30
0.0
 10
188.5082993077344
 20
104.3686086950819
 30
0.0
 10
188.5113738733704
 20
104.3855978138756
 30
0.0
 10
188.5153767546231
 20
104.4004633400522
 30
0.0
  0
SPLINE
  5
104
330
1F
100
AcDbEntity
  8
0
  6
HIDDEN
 62
     7
370
     0
100
AcDbSpline
210
0.0
220
0.0
230
1.0
 70
     8
 71
     3
 72
    18
 73
    14
 74
     0
 42
0.00000001
 43
0.00000001
 40
0.0
 40
0.0
 40
0.0
 40
0.0
 40
0.0725468170436779
 40
0.1614465570821791
 40
0.2237901744065829
 40
0.2739496779913365
 40
0.3241523600612455
 40
0.3940486994923784
 40
0.5073064483299808
 40
0.6272500531558045
 40
0.7710998847881301
 40
0.9051909783953589
 40
1.0
 40
1.0
 40
1.0
 40
1.0
 10
188.5316103460725
 20
104.4299711937344
 30
0.0
 10
188.5367160635047
 20
104.4416256090123
 30
0.0
 10
188.5480783883378
 20
104.4675614846041
 30
0.0
 10
188.5699022852214
 20
104.4656670375744
 30
0.0
 10
188.5848354367547
 20
104.4425564856557
 30
0.0
 10
188.5898388826392
 20
104.4004833657359
 30
0.0
 10
188.5855888121935
 20
104.3376467482645
 30
0.0
 10
188.5689654166264
 20
104.2369101102182
 30
0.0
 10
188.5413713284842
 20
104.1012504816951
 30
0.0
 10
188.5128129211666
 20
103.9382652937936
 30
0.0
 10
188.4993515696495
 20
103.7873195257935
 30
0.0
 10
188.5072935432383
 20
103.67971336174
 30
0.0
 10
188.5241279829181
 20
103.651569793154
 30
0.0
 10
188.5311007044208
 20
103.6399128999296
 30
0.0
  0
LWPOLYLINE
  5
105
330
1F
100
AcDbEntity
  8
0
  6
HIDDEN
 62
     7
370
     0
100
AcDbPolyline
 90
        9
 70
   128
 43
0.0
 10
188.5384930207
 20
103.623660831
 10
188.5688507543
 20
103.6192472847
 10
188.5829334579
 20
103.6430430546
 10
188.5883400808
 20
103.6818185849
 10
188.5852897963
 20
103.7390160016
 10
188.573048761
 20
103.8179382177
 10
188.5472899831
 20
103.9477568577
 10
188.5155650131
 20
104.1278833873
 10
188.5030664039
 20
104.2861778601
  0
ARC
  5
106
330
1F
100
AcDbEntity
  8
0
  6
HIDDEN
 62
     7
370
     0
100
AcDbCircle
 10
175.8802228579
 20
104.1146725035
 30
0.0
 40
13.18436098694587
100
AcDbArc
 50
1.8264163085
 51
4.7508319696
  0
LINE
  5
107
330
1F
100
AcDbEntity
  8
0
  6
HIDDEN
 62
     7
370
     0
100
AcDbLine
 10
46.2530664039
 20
97.2738809035
 30
0.0
 11
46.2530664039
 21
94.3939431381
 31
0.0
  0
ARC
  5
108
330
1F
100
AcDbEntity
  8
0
  6
HIDDEN
 62
     7
370
     0
100
AcDbCircle
 10
205.2272570869
 20
104.117264489
 30
0.0
 40
16.21605523525539
100
AcDbArc
 50
181.8092942998
 51
184.3486370525
  0
LINE
  5
109
330
1F
100
AcDbEntity
  8
0
  6
HIDDEN
 62
     7
370
     0
100
AcDbLine
 10
55.2030664039
 20
97.2738809035
 30
0.0
 11
55.2030664039
 21
93.3001433723
 31
0.0
  0
LINE
  5
10A
330
1F
100
AcDbEntity
  8
0
  6
HIDDEN
 62
     7
370
     0
100
AcDbLine
 10
46.2530664039
 20
133.2538809035
 30
0.0
 11
46.2530664039
 21
136.1338186689
 31
0.0
  0
LINE
  5
10B
330
1F
100
AcDbEntity
  8
0
  6
HIDDEN
 62
     7
370
     0
100
AcDbLine
 10
51.2030664039
 20
133.2538809035
 30
0.0
 11
51.2030664039
 21
137.1079885759
 31
0.0
  0
LINE
  5
10C
330
1F
100
AcDbEntity
  8
0
  6
HIDDEN
 62
     7
370
     0
100
AcDbLine
 10
95.8030664039
 20
105.7638809035
 30
0.0
 11
95.8030664039
 21
124.7638809035
 31
0.0
  0
LINE
  5
10D
330
1F
100
AcDbEntity
  8
0
  6
HIDDEN
 62
     7
370
     0
100
AcDbLine
 10
98.8030664039
 20
105.7638809035
 30
0.0
 11
98.8030664039
 21
124.7638809035
 31
0.0
  0
SPLINE
  5
10E
330
1F
100
AcDbEntity
  8
0
  6
HIDDEN
 62
     7
370
     0
100
AcDbSpline
210
0.0
220
0.0
230
1.0
 70
     8
 71
     3
 72
    34
 73
    30
 74
     0
 42
0.00000001
 43
0.00000001
 40
0.0
 40
0.0
 40
0.0
 40
0.0
 40
0.0624999999999999
 40
0.0624999999999999
 40
0.1249999999999998
 40
0.1249999999999998
 40
0.2499999999999996
 40
0.2499999999999996
 40
0.3124999999999994
 40
0.3124999999999994
 40
0.3749999999999993
 40
0.3749999999999993
 40
0.499999999999999
 40
0.499999999999999
 40
0.5624999999999991
 40
0.5624999999999991
 40
0.6249999999999992
 40
0.6249999999999992
 40
0.6874999999999994
 40
0.6874999999999994
 40
0.7499999999999996
 40
0.7499999999999996
 40
0.8124999999999997
 40
0.8124999999999997
 40
0.8749999999999998
 40
0.8749999999999998
 40
0.9375
 40
0.9375
 40
1.0
 40
1.0
 40
1.0
 40
1.0
 10
191.108292385801
 20
121.0836542712162
 30
0.0
 10
191.0061324463412
 20
120.9962916175465
 30
0.0
 10
190.8901011513051
 20
120.9215604991414
 30
0.0
 10
190.6305115496362
 20
120.799119886144
 30
0.0
 10
190.4902369025892
 20
120.7534379854744
 30
0.0
 10
190.0520770381305
 20
120.6695772791135
 30
0.0
 10
189.7372076765669
 20
120.6886140055118
 30
0.0
 10
189.3197957987418
 20
120.8209768291033
 30
0.0
 10
189.1870899363859
 20
120.882740472875
 30
0.0
 10
188.9536458012711
 20
121.0304854232397
 30
0.0
 10
188.8494949671534
 20
121.1185433234971
 30
0.0
 10
188.5967066453558
 20
121.4035979047718
 30
0.0
 10
188.5031389122645
 20
121.626706107504
 30
0.0
 10
188.5030302148519
 20
121.9462251622298
 30
0.0
 10
188.5253250653406
 20
122.0484983765789
 30
0.0
 10
188.614638834499
 20
122.2430466178387
 30
0.0
 10
188.6795512818085
 20
122.331123249342
 30
0.0
 10
188.849500294742
 20
122.4909469728175
 30
0.0
 10
188.9517834842771
 20
122.5597468363199
 30
0.0
 10
189.1863561922806
 20
122.6749436417286
 30
0.0
 10
189.3177663546211
 20
122.7205999564289
 30
0.0
 10
189.5963934660861
 20
122.7858953864449
 30
0.0
 10
189.7455690769788
 20
122.8058194882537
 30
0.0
 10
190.0437826551797
 20
122.8186067987243
 30
0.0
 10
190.1967897538561
 20
122.811572585468
 30
0.0
 10
190.4878168292551
 20
122.7713951843906
 30
0.0
 10
190.63014249934
 20
122.7376577975117
 30
0.0
 10
190.8879120299107
 20
122.6462661539606
 30
0.0
 10
191.0061307813353
 20
122.587952787814
 30
0.0
 10
191.108292385801
 20
122.5178617380611
 30
0.0
  0
LINE
  5
10F
330
1F
100
AcDbEntity
  8
0
  6
HIDDEN
 62
     7
370
     0
100
AcDbLine
 10
188.0030664039
 20
106.3638809035
 30
0.0
 11
188.0030664039
 21
124.1638806682
 31
0.0
  0
SPLINE
  5
110
330
1F
100
AcDbEntity
  8
0
  6
HIDDEN
 62
     7
370
     0
100
AcDbSpline
210
0.0
220
0.0
230
1.0
 70
     8
 71
     3
 72
     8
 73
     4
 74
     0
 42
0.00000001
 43
0.00000001
 40
0.0
 40
0.0
 40
0.0
 40
0.0
 40
1.0
 40
1.0
 40
1.0
 40
1.0
 10
191.108292385801
 20
122.5178617380611
 30
0.0
 10
191.1583247381018
 20
122.4835355338798
 30
0.0
 10
191.2038794034347
 20
122.4403847686588
 30
0.0
 10
191.2451004431313
 20
122.3906062877243
 30
0.0
  0
SPLINE
  5
111
330
1F
100
AcDbEntity
  8
0
  6
HIDDEN
 62
     7
370
     0
100
AcDbSpline
210
0.0
220
0.0
230
1.0
 70
     8
 71
     3
 72
    12
 73
     8
 74
     0
 42
0.00000001
 43
0.00000001
 40
0.0
 40
0.0
 40
0.0
 40
0.0
 40
0.2500000000000005
 40
0.2500000000000005
 40
0.500000000000001
 40
0.500000000000001
 40
1.0
 40
1.0
 40
1.0
 40
1.0
 10
191.2451004431313
 20
122.3906062877243
 30
0.0
 10
191.328765090236
 20
122.2895729544689
 30
0.0
 10
191.3926511728531
 20
122.1857638045613
 30
0.0
 10
191.4806028546051
 20
121.9708515729793
 30
0.0
 10
191.5029289130791
 20
121.862939485226
 30
0.0
 10
191.5033394895981
 20
121.5466167952796
 30
0.0
 10
191.4124376595962
 20
121.3485980944771
 30
0.0
 10
191.2451004431313
 20
121.2011934532195
 30
0.0
  0
LINE
  5
112
330
1F
100
AcDbEntity
  8
0
  6
HIDDEN
 62
     7
370
     0
100
AcDbLine
 10
192.0030664039
 20
106.2638809035
 30
0.0
 11
192.0030664039
 21
124.2638809035
 31
0.0
  0
LINE
  5
113
330
1F
100
AcDbEntity
  8
0
  6
HIDDEN
 62
     7
370
     0
100
AcDbLine
 10
87.4530664039
 20
106.7638809035
 30
0.0
 11
87.4530664039
 21
123.7638809035
 31
0.0
  0
LINE
  5
114
330
1F
100
AcDbEntity
  8
0
  6
HIDDEN
 62
     7
370
     0
100
AcDbLine
 10
102.9530664039
 20
88.8638809035
 30
0.0
 11
96.8153916016
 21
88.8638809035
 31
0.0
  0
LINE
  5
115
330
1F
100
AcDbEntity
  8
0
  6
HIDDEN
 62
     7
370
     0
100
AcDbLine
 10
93.1907412063
 20
88.8638809035
 30
0.0
 11
89.9530664039
 21
88.8638809035
 31
0.0
  0
LINE
  5
116
330
1F
100
AcDbEntity
  8
0
  6
HIDDEN
 62
     7
370
     0
100
AcDbLine
 10
81.9530664039
 20
83.7797579206
 30
0.0
 11
81.9530664039
 21
88.8638809035
 31
0.0
  0
LINE
  5
117
330
1F
100
AcDbEntity
  8
0
  6
HIDDEN
 62
     7
370
     0
100
AcDbLine
 10
89.9530664039
 20
88.8638809035
 30
0.0
 11
81.9530664039
 21
88.8638809035
 31
0.0
  0
LINE
  5
118
330
1F
100
AcDbEntity
  8
0
  6
HIDDEN
 62
     7
370
     0
100
AcDbLine
 10
102.9530664039
 20
141.6638809035
 30
0.0
 11
96.5187688722
 21
141.6638809035
 31
0.0
  0
LINE
  5
119
330
1F
100
AcDbEntity
  8
0
  6
HIDDEN
 62
     7
370
     0
100
AcDbLine
 10
93.4873639356
 20
141.6638809035
 30
0.0
 11
89.9530664039
 21
141.6638809035
 31
0.0
  0
LINE
  5
11A
330
1F
100
AcDbEntity
  8
0
  6
HIDDEN
 62
     7
370
     0
100
AcDbLine
 10
89.9530664039
 20
141.6638809035
 30
0.0
 11
81.9530664039
 21
141.6638809035
 31
0.0
  0
SPLINE
  5
11B
330
1F
100
AcDbEntity
  8
0
  6
HIDDEN
 62
     7
370
     0
100
AcDbSpline
210
0.0
220
0.0
230
1.0
 70
     8
 71
     3
 72
    11
 73
     7
 74
     0
 42
0.00000001
 43
0.00000001
 40
0.0
 40
0.0
 40
0.0
 40
0.0
 40
0.0008203708524183
 40
0.0008203708524183
 40
0.0008203708524183
 40
0.0016409967870154
 40
0.0016409967870154
 40
0.0016409967870154
 40
0.0016409967870154
 10
46.2530664039208
 20
99.41184815284804
 30
0.0
 10
46.06190810362214
 20
99.3706691242289
 30
0.0
 10
45.87048103354996
 20
99.33191515199891
 30
0.0
 10
45.67883541002933
 20
99.29554739272035
 30
0.0
 10
45.48713000494887
 20
99.25916828895433
 30
0.0
 10
45.29519105288991
 20
99.22517403818678
 30
0.0
 10
45.1030664058191
 20
99.19352591279556
 30
0.0
  0
ELLIPSE
  5
11C
330
1F
100
AcDbEntity
  8
0
  6
HIDDEN
 62
     7
370
     0
100
AcDbEllipse
 10
40.8606345353
 20
115.2638809035
 30
0.0
 11
20.19992453366628
 21
-1.421085471520200E-14
 31
0.0
210
0.0
220
0.0
230
1.0
 40
0.8164965809
 41
1.300566354718
 42
1.359198697209605
  0
LINE
  5
11D
330
1F
100
AcDbEntity
  8
0
  6
HIDDEN
 62
     7
370
     0
100
AcDbLine
 10
46.2530664039
 20
97.2738809035
 30
0.0
 11
46.2530664039
 21
99.4118481528
 31
0.0
  0
LINE
  5
11E
330
1F
100
AcDbEntity
  8
0
  6
HIDDEN
 62
     7
370
     0
100
AcDbLine
 10
46.3340974173
 20
99.4623904675
 30
0.0
 11
46.2530664039
 21
99.4118481528
 31
0.0
  0
LINE
  5
11F
330
1F
100
AcDbEntity
  8
0
  6
HIDDEN
 62
     7
370
     0
100
AcDbLine
 10
55.2030664039
 20
97.2738809035
 30
0.0
 11
55.2030664039
 21
98.9763672811
 31
0.0
  0
LINE
  5
120
330
1F
100
AcDbEntity
  8
0
  6
HIDDEN
 62
     7
370
     0
100
AcDbLine
 10
51.2030664039
 20
133.2538809035
 30
0.0
 11
51.2030664039
 21
131.5513945259
 31
0.0
  0
LINE
  5
121
330
1F
100
AcDbEntity
  8
0
  6
HIDDEN
 62
     7
370
     0
100
AcDbLine
 10
46.2530664039
 20
133.2538809035
 30
0.0
 11
46.2530664039
 21
131.1585053545
 31
0.0
  0
SPLINE
  5
122
330
1F
100
AcDbEntity
  8
0
  6
HIDDEN
 62
     7
370
     0
100
AcDbSpline
210
0.0
220
0.0
230
1.0
 70
     8
 71
     3
 72
     8
 73
     4
 74
     0
 42
0.00000001
 43
0.00000001
 40
0.0
 40
0.0
 40
0.0
 40
0.0
 40
1.0
 40
1.0
 40
1.0
 40
1.0
 10
46.2530664039208
 20
131.1585053545494
 30
0.0
 10
46.30307190286453
 20
131.1274695803303
 30
0.0
 10
46.35307197352895
 20
131.0964249353027
 30
0.0
 10
46.40306640731406
 20
131.0653713395224
 30
0.0
  0
SPLINE
  5
123
330
1F
100
AcDbEntity
  8
0
  6
HIDDEN
 62
     7
370
     0
100
AcDbSpline
210
0.0
220
0.0
230
1.0
 70
     8
 71
     3
 72
     8
 73
     4
 74
     0
 42
0.00000001
 43
0.00000001
 40
0.0
 40
0.0
 40
0.0
 40
0.0
 40
1.0
 40
1.0
 40
1.0
 40
1.0
 10
191.2451004431313
 20
121.2011934532195
 30
0.0
 10
191.2038794034347
 20
121.1648825075907
 30
0.0
 10
191.1583247381018
 20
121.1264397220441
 30
0.0
 10
191.108292385801
 20
121.0836542712162
 30
0.0
  0
SPLINE
  5
124
330
1F
100
AcDbEntity
  8
0
  6
HIDDEN
 62
     7
370
     0
100
AcDbSpline
210
0.0
220
0.0
230
1.0
 70
     8
 71
     3
 72
    20
 73
    16
 74
     0
 42
0.00000001
 43
0.00000001
 40
0.0
 40
0.0
 40
0.0
 40
0.0
 40
0.1119595197684142
 40
0.1774767634647507
 40
0.2490961890179794
 40
0.3298422315093885
 40
0.3986125823881415
 40
0.4998893016461092
 40
0.6138510293005034
 40
0.6790150176761197
 40
0.7495394203319945
 40
0.8296829944212418
 40
0.8981246285268906
 40
0.9995320175861913
 40
1.0
 40
1.0
 40
1.0
 40
1.0
 10
71.75190685378367
 20
91.66388714172297
 30
0.0
 10
71.70858311548511
 20
91.67731645976001
 30
0.0
 10
71.63990689330834
 20
91.69860443871598
 30
0.0
 10
71.19472776725804
 20
91.80191525036446
 30
0.0
 10
70.66816948358829
 20
91.91521848042635
 30
0.0
 10
69.98274446245911
 20
92.03815134821893
 30
0.0
 10
69.0894270651603
 20
92.1601858074034
 30
0.0
 10
67.97606767802266
 20
92.277922115188
 30
0.0
 10
66.86529359738704
 20
92.28989761756365
 30
0.0
 10
65.98054529548163
 20
92.26283932743232
 30
0.0
 10
65.31334870084791
 20
92.2149072630245
 30
0.0
 10
64.77207619862068
 20
92.15861375065992
 30
0.0
 10
64.38449623954854
 20
92.11353084002114
 30
0.0
 10
64.19055971947944
 20
92.07465766532123
 30
0.0
 10
64.25366217970915
 20
92.08536372256197
 30
0.0
 10
64.25395205194451
 20
92.08541290271647
 30
0.0
  0
LINE
  5
125
330
1F
100
AcDbEntity
  8
0
  6
HIDDEN
 62
     7
370
     0
100
AcDbLine
 10
65.1630783163
 20
92.1962190469
 30
0.0
 11
65.3469236294
 21
92.2144083895
 31
0.0
  0
LINE
  5
126
330
1F
100
AcDbEntity
  8
0
  6
HIDDEN
 62
     7
370
     0
100
AcDbLine
 10
65.346920931
 20
138.3132839863
 30
0.0
 11
65.1728476491
 21
138.3304935124
 31
0.0
  0
SPLINE
  5
127
330
1F
100
AcDbEntity
  8
0
  6
HIDDEN
 62
     7
370
     0
100
AcDbSpline
210
0.0
220
0.0
230
1.0
 70
     8
 71
     3
 72
    20
 73
    16
 74
     0
 42
0.00000001
 43
0.00000001
 40
0.0
 40
0.0
 40
0.0
 40
0.0
 40
0.0004889684280502
 40
0.1018319933926956
 40
0.1702475582150564
 40
0.2503692056770218
 40
0.3209568221796114
 40
0.3861816196721121
 40
0.5002554836817364
 40
0.6012243489302103
 40
0.669768055864141
 40
0.750240190758111
 40
0.8220490693822882
 40
0.8877204546071489
 40
1.0
 40
1.0
 40
1.0
 40
1.0
 10
64.25398543670593
 20
138.4422823576832
 30
0.0
 10
64.25368179570901
 20
138.4423339448335
 30
0.0
 10
64.19044587654345
 20
138.4530774244468
 30
0.0
 10
64.38364991033778
 20
138.4142214337882
 30
0.0
 10
64.77059696524566
 20
138.3691979433836
 30
0.0
 10
65.311603888572
 20
138.3129349812907
 30
0.0
 10
65.97910415003699
 20
138.2650037886966
 30
0.0
 10
66.86493200139036
 20
138.2379303329671
 30
0.0
 10
67.97573857347814
 20
138.2497563365467
 30
0.0
 10
69.0878089395014
 20
138.367205411702
 30
0.0
 10
69.97890924569931
 20
138.4889097999416
 30
0.0
 10
70.66439369650945
 20
138.6117308455162
 30
0.0
 10
71.192381596047
 20
138.7251690971984
 30
0.0
 10
71.63976554754026
 20
138.8289096528371
 30
0.0
 10
71.70857601389473
 20
138.8503324461143
 30
0.0
 10
71.75199252120791
 20
138.8638493267615
 30
0.0
  0
LINE
  5
128
330
1F
100
AcDbEntity
  8
0
  6
HIDDEN
 62
     7
370
     0
100
AcDbLine
 10
151.4530664039
 20
91.8412311727
 30
0.0
 11
146.4530664039
 21
91.8412311727
 31
0.0
  0
LINE
  5
129
330
1F
100
AcDbEntity
  8
0
  6
HIDDEN
 62
     7
370
     0
100
AcDbLine
 10
148.9530664039
 20
138.6865306343
 30
0.0
 11
151.4530664039
 21
138.6865306343
 31
0.0
  0
LINE
  5
12A
330
1F
100
AcDbEntity
  8
0
  6
HIDDEN
 62
     7
370
     0
100
AcDbLine
 10
146.4530664039
 20
138.6865306343
 30
0.0
 11
148.9530664039
 21
138.6865306343
 31
0.0
  0
LINE
  5
12B
330
1F
100
AcDbEntity
  8
0
  6
HIDDEN
 62
     7
370
     0
100
AcDbLine
 10
148.9530664039
 20
127.2638809035
 30
0.0
 11
151.4530664039
 21
127.2638809035
 31
0.0
  0
LINE
  5
12C
330
1F
100
AcDbEntity
  8
0
  6
HIDDEN
 62
     7
370
     0
100
AcDbLine
 10
146.4530664039
 20
127.2638809035
 30
0.0
 11
148.9530664039
 21
127.2638809035
 31
0.0
  0
LINE
  5
12D
330
1F
100
AcDbEntity
  8
0
  6
HIDDEN
 62
     7
370
     0
100
AcDbLine
 10
151.4530664039
 20
103.2638809035
 30
0.0
 11
146.4530664039
 21
103.2638809035
 31
0.0
  0
SPLINE
  5
12E
330
1F
100
AcDbEntity
  8
0
  6
HIDDEN
 62
     7
370
     0
100
AcDbSpline
210
0.0
220
0.0
230
1.0
 70
     8
 71
     3
 72
    30
 73
    26
 74
     0
 42
0.00000001
 43
0.00000001
 40
-0.0624999999999997
 40
-0.0624999999999997
 40
0.0
 40
0.0
 40
0.1250000000000025
 40
0.1250000000000025
 40
0.2500000000000049
 40
0.2500000000000049
 40
0.3125000000000052
 40
0.3125000000000052
 40
0.3750000000000055
 40
0.3750000000000055
 40
0.4375000000000058
 40
0.4375000000000058
 40
0.5000000000000061
 40
0.5000000000000061
 40
0.6250000000000037
 40
0.6250000000000037
 40
0.7500000000000012
 40
0.7500000000000012
 40
0.812500000000001
 40
0.812500000000001
 40
0.8750000000000007
 40
0.8750000000000007
 40
0.9375000000000003
 40
0.9375000000000003
 40
1.0
 40
1.0
 40
1.125000000000002
 40
1.125000000000002
 10
188.530717529971
 20
126.4860800326192
 30
0.0
 10
188.5059354260283
 20
126.6444699204369
 30
0.0
 10
188.4991411316145
 20
126.7379564236145
 30
0.0
 10
188.5120918914102
 20
126.8699308041905
 30
0.0
 10
188.531718264419
 20
126.9084233905982
 30
0.0
 10
188.5637602172598
 20
126.914661546334
 30
0.0
 10
188.5752528091743
 20
126.9084478828459
 30
0.0
 10
188.5895574513392
 20
126.8643653496155
 30
0.0
 10
188.5900964250447
 20
126.8225180651238
 30
0.0
 10
188.5760668966601
 20
126.7197103629564
 30
0.0
 10
188.5640667799577
 20
126.6629069645655
 30
0.0
 10
188.5416538343634
 20
126.5523128128959
 30
0.0
 10
188.5310734389379
 20
126.4986766496866
 30
0.0
 10
188.5059362401015
 20
126.3439323942797
 30
0.0
 10
188.4991578936648
 20
126.2511077016114
 30
0.0
 10
188.512097639269
 20
126.1168698359012
 30
0.0
 10
188.5320142913032
 20
126.0725809328903
 30
0.0
 10
188.5654930280395
 20
126.0612333744457
 30
0.0
 10
188.5774605018854
 20
126.0665674106575
 30
0.0
 10
188.5905340917521
 20
126.1147524169418
 30
0.0
 10
188.5889169767522
 20
126.16072552945
 30
0.0
 10
188.5739137252891
 20
126.2645734479618
 30
0.0
 10
188.5624796308975
 20
126.3209536932123
 30
0.0
 10
188.541037634986
 20
126.4313894328751
 30
0.0
 10
188.530717529971
 20
126.4860800326192
 30
0.0
 10
188.5059354260283
 20
126.6444699204369
 30
0.0
  0
SPLINE
  5
12F
330
1F
100
AcDbEntity
  8
0
  6
HIDDEN
 62
     7
370
     0
100
AcDbSpline
210
0.0
220
0.0
230
1.0
 70
     8
 71
     3
 72
    10
 73
     6
 74
     0
 42
0.00000001
 43
0.00000001
 40
0.0
 40
0.0
 40
0.0
 40
0.0
 40
0.5
 40
0.5
 40
1.0
 40
1.0
 40
1.0
 40
1.0
 10
189.0192863353965
 20
125.3211252156728
 30
0.0
 10
189.0977666534495
 20
125.3739239739688
 30
0.0
 10
189.1641767135439
 20
125.4590823271396
 30
0.0
 10
189.1816205756743
 20
125.7005319317473
 30
0.0
 10
189.1290602069489
 20
125.8451430750149
 30
0.0
 10
189.0578858223725
 20
125.9928828904389
 30
0.0
  0
SPLINE
  5
130
330
1F
100
AcDbEntity
  8
0
  6
HIDDEN
 62
     7
370
     0
100
AcDbSpline
210
0.0
220
0.0
230
1.0
 70
     8
 71
     3
 72
    14
 73
    10
 74
     0
 42
0.00000001
 43
0.00000001
 40
0.0
 40
0.0
 40
0.0
 40
0.0
 40
0.25
 40
0.25
 40
0.5
 40
0.5
 40
0.75
 40
0.75
 40
1.0
 40
1.0
 40
1.0
 40
1.0
 10
189.0578858223725
 20
125.9928828904386
 30
0.0
 10
189.0214168267384
 20
125.9600339139426
 30
0.0
 10
188.9864738945782
 20
125.9284180695891
 30
0.0
 10
188.9267365532331
 20
125.8576209266189
 30
0.0
 10
188.90144735391
 20
125.8176791246495
 30
0.0
 10
188.8919602546795
 20
125.6999307668308
 30
0.0
 10
188.9094552574328
 20
125.6236342138537
 30
0.0
 10
188.957649826691
 20
125.4722977109179
 30
0.0
 10
188.9877023766688
 20
125.3962277364876
 30
0.0
 10
189.0192863353965
 20
125.3211252156706
 30
0.0
  0
SPLINE
  5
131
330
1F
100
AcDbEntity
  8
0
  6
HIDDEN
 62
     7
370
     0
100
AcDbSpline
210
0.0
220
0.0
230
1.0
 70
     8
 71
     3
 72
    14
 73
    10
 74
     0
 42
0.00000001
 43
0.00000001
 40
0.0
 40
0.0
 40
0.0
 40
0.0
 40
0.25
 40
0.25
 40
0.5
 40
0.5
 40
0.75
 40
0.75
 40
1.0
 40
1.0
 40
1.0
 40
1.0
 10
189.0578858223725
 20
127.6400827376123
 30
0.0
 10
189.0934590763237
 20
127.6070663761843
 30
0.0
 10
189.1243609073424
 20
127.567015601658
 30
0.0
 10
189.1669150279226
 20
127.4685529595513
 30
0.0
 10
189.1771416780824
 20
127.4117373089265
 30
0.0
 10
189.1688075715858
 20
127.2837999441186
 30
0.0
 10
189.150189934751
 20
127.2140668473786
 30
0.0
 10
189.094684552198
 20
127.0705480807328
 30
0.0
 10
189.0585919028388
 20
126.9972225020161
 30
0.0
 10
189.0192863353965
 20
126.9224851232353
 30
0.0
  0
SPLINE
  5
132
330
1F
100
AcDbEntity
  8
0
  6
HIDDEN
 62
     7
370
     0
100
AcDbSpline
210
0.0
220
0.0
230
1.0
 70
     8
 71
     3
 72
    14
 73
    10
 74
     0
 42
0.00000001
 43
0.00000001
 40
0.0
 40
0.0
 40
0.0
 40
0.0
 40
0.25
 40
0.25
 40
0.5
 40
0.5
 40
0.75
 40
0.75
 40
1.0
 40
1.0
 40
1.0
 40
1.0
 10
189.0192863353965
 20
126.9224851232363
 30
0.0
 10
188.9876396061141
 20
126.9588531762629
 30
0.0
 10
188.9574422775376
 20
126.9946065297994
 30
0.0
 10
188.9093686727126
 20
127.0765736367308
 30
0.0
 10
188.8918832043811
 20
127.1252526015531
 30
0.0
 10
188.9015930407405
 20
127.2582134791144
 30
0.0
 10
188.9269178149782
 20
127.3368210977074
 30
0.0
 10
188.9866128316777
 20
127.4896682783851
 30
0.0
 10
189.0214757600932
 20
127.5655018918883
 30
0.0
 10
189.0578858223725
 20
127.6400827376127
 30
0.0
  0
LWPOLYLINE
  5
133
330
1F
100
AcDbEntity
  8
0
  6
HIDDEN
 62
     7
370
     0
100
AcDbPolyline
 90
       16
 70
   128
 43
0.0
 10
191.4699537557
 20
127.5063281954
 10
191.239951397
 20
127.8847443125
 10
190.8234275508
 20
128.172673545
 10
190.283193754
 20
128.3266963439
 10
189.7007169271
 20
128.3235861667
 10
189.1638342132
 20
128.1638120264
 10
188.7535071916
 20
127.8714677639
 10
188.5316129218
 20
127.4906387121
 10
188.5316129218
 20
127.0787536552
 10
188.7535071916
 20
126.6979246034
 10
189.1638342132
 20
126.4055803409
 10
189.7007169271
 20
126.2458062006
 10
190.283193754
 20
126.2426960235
 10
190.8234275508
 20
126.3967188223
 10
191.239951397
 20
126.6846480548
 10
191.4699537557
 20
127.0630641719
  0
SPLINE
  5
134
330
1F
100
AcDbEntity
  8
0
  6
HIDDEN
 62
     7
370
     0
100
AcDbSpline
210
0.0
220
0.0
230
1.0
 70
     8
 71
     3
 72
    46
 73
    42
 74
     0
 42
0.00000001
 43
0.00000001
 40
0.0
 40
0.0
 40
0.0
 40
0.0
 40
0.0624999999999977
 40
0.0624999999999977
 40
0.1249999999999953
 40
0.1249999999999953
 40
0.1562499999999942
 40
0.1562499999999942
 40
0.1874999999999931
 40
0.1874999999999931
 40
0.218749999999992
 40
0.218749999999992
 40
0.2499999999999909
 40
0.2499999999999909
 40
0.3124999999999893
 40
0.3124999999999893
 40
0.3749999999999878
 40
0.3749999999999878
 40
0.4374999999999862
 40
0.4374999999999862
 40
0.4687499999999863
 40
0.4687499999999863
 40
0.4999999999999865
 40
0.4999999999999865
 40
0.5624999999999871
 40
0.5624999999999871
 40
0.6249999999999878
 40
0.6249999999999878
 40
0.6874999999999885
 40
0.6874999999999885
 40
0.7499999999999891
 40
0.7499999999999891
 40
0.7812499999999897
 40
0.7812499999999897
 40
0.8124999999999903
 40
0.8124999999999903
 40
0.8749999999999936
 40
0.8749999999999936
 40
0.9374999999999968
 40
0.9374999999999968
 40
1.0
 40
1.0
 40
1.0
 40
1.0
 10
191.4699537556657
 20
127.0630641718826
 30
0.0
 10
191.4368218751388
 20
126.9259198351985
 30
0.0
 10
191.381708583434
 20
126.782005818381
 30
0.0
 10
191.2474506214409
 20
126.4920764871902
 30
0.0
 10
191.1688825004524
 20
126.3481313804689
 30
0.0
 10
191.053449491822
 20
126.1391668088506
 30
0.0
 10
191.0154973636198
 20
126.0707862254222
 30
0.0
 10
190.9445900390519
 20
125.9348443304069
 30
0.0
 10
190.9114162520685
 20
125.8667572401967
 30
0.0
 10
190.8598828890043
 20
125.7352422478507
 30
0.0
 10
190.8412934274093
 20
125.6700503545876
 30
0.0
 10
190.8284724555033
 20
125.5508330479177
 30
0.0
 10
190.83422667986
 20
125.495350442116
 30
0.0
 10
190.8820857667201
 20
125.3518170004907
 30
0.0
 10
190.9505962544204
 20
125.2853303071652
 30
0.0
 10
191.0951152204294
 20
125.2003842711069
 30
0.0
 10
191.1741329396838
 20
125.1808171123452
 30
0.0
 10
191.3163569262784
 20
125.1902717390559
 30
0.0
 10
191.3818083911879
 20
125.2199504743562
 30
0.0
 10
191.451826565114
 20
125.3081805630506
 30
0.0
 10
191.4708159075495
 20
125.3455656386603
 30
0.0
 10
191.4961734008002
 20
125.4331075874567
 30
0.0
 10
191.5029069828785
 20
125.4834247770817
 30
0.0
 10
191.5033769197778
 20
125.6557519246762
 30
0.0
 10
191.4761094923519
 20
125.7929895040774
 30
0.0
 10
191.3831541593631
 20
126.078673864334
 30
0.0
 10
191.3179308349938
 20
126.2273986320898
 30
0.0
 10
191.1756331306732
 20
126.5156891331598
 30
0.0
 10
191.0966086222876
 20
126.6585735194851
 30
0.0
 10
190.9517691344713
 20
126.93338819406
 30
0.0
 10
190.8829035963091
 20
127.0692692673658
 30
0.0
 10
190.8342815480923
 20
127.2607758264007
 30
0.0
 10
190.8283879899323
 20
127.3205553733869
 30
0.0
 10
190.8412172962411
 20
127.4295063218235
 30
0.0
 10
190.8594327230244
 20
127.4761980443055
 30
0.0
 10
190.9372870899983
 20
127.595148582992
 30
0.0
 10
191.0148955571763
 20
127.643365868023
 30
0.0
 10
191.1688422051152
 20
127.6922976567413
 30
0.0
 10
191.2469463914495
 20
127.692637171628
 30
0.0
 10
191.381116741391
 20
127.640865568785
 30
0.0
 10
191.4368410144126
 20
127.5884221336326
 30
0.0
 10
191.4699537556657
 20
127.5063281954415
 30
0.0
  0
SPLINE
  5
135
330
1F
100
AcDbEntity
  8
0
  6
HIDDEN
 62
     7
370
     0
100
AcDbSpline
210
0.0
220
0.0
230
1.0
 70
     8
 71
     3
 72
     8
 73
     4
 74
     0
 42
0.00000001
 43
0.00000001
 40
0.0
 40
0.0
 40
0.0
 40
0.0
 40
0.000159097695343
 40
0.000159097695343
 40
0.000159097695343
 40
0.000159097695343
 10
46.38823441313882
 20
99.46239046745912
 30
0.0
 10
46.34318294263447
 20
99.43441158313533
 30
0.0
 10
46.29812690421966
 20
99.40644005276026
 30
0.0
 10
46.2530664039208
 20
99.37847571340774
 30
0.0
  0
SPLINE
  5
136
330
1F
100
AcDbEntity
  8
0
  6
HIDDEN
 62
     7
370
     0
100
AcDbSpline
210
0.0
220
0.0
230
1.0
 70
     8
 71
     3
 72
    11
 73
     7
 74
     0
 42
0.00000001
 43
0.00000001
 40
0.0
 40
0.0
 40
0.0
 40
0.0
 40
0.0008212909311456
 40
0.0008212909311456
 40
0.0008212909311456
 40
0.001642825724306
 40
0.001642825724306
 40
0.001642825724306
 40
0.001642825724306
 10
46.2530664039208
 20
99.37847571340774
 30
0.0
 10
46.06192138243861
 20
99.33518952455519
 30
0.0
 10
45.87050304676215
 20
99.29425301491791
 30
0.0
 10
45.678856972101
 20
99.25565124353133
 30
0.0
 10
45.48715389055941
 20
99.21703798969423
 30
0.0
 10
45.29520876727388
 20
99.18075778040823
 30
0.0
 10
45.10306640392071
 20
99.14679087405673
 30
0.0
  0
LINE
  5
137
330
1F
100
AcDbEntity
  8
0
  6
HIDDEN
 62
     7
370
     0
100
AcDbLine
 10
93.0930664039
 20
135.399747535
 30
0.0
 11
93.0930664039
 21
135.1138809035
 31
0.0
  0
LINE
  5
138
330
1F
100
AcDbEntity
  8
0
  6
HIDDEN
 62
     7
370
     0
100
AcDbLine
 10
96.9130664039
 20
135.4450269161
 30
0.0
 11
96.9130664039
 21
135.1138809035
 31
0.0
  0
LINE
  5
139
330
1F
100
AcDbEntity
  8
0
  6
HIDDEN
 62
     7
370
     0
100
AcDbLine
 10
98.3949992354
 20
139.7225705659
 30
0.0
 11
98.3949992354
 21
135.1138809035
 31
0.0
  0
SPLINE
  5
13A
330
1F
100
AcDbEntity
  8
0
  6
HIDDEN
 62
     7
370
     0
100
AcDbSpline
210
0.0
220
0.0
230
1.0
 70
     8
 71
     3
 72
    10
 73
     6
 74
     0
 42
0.00000001
 43
0.00000001
 40
0.0
 40
0.0
 40
0.0
 40
0.0
 40
0.5
 40
0.5
 40
1.0
 40
1.0
 40
1.0
 40
1.0
 10
191.4699537556656
 20
127.5063281954415
 30
0.0
 10
191.4456391531803
 20
127.4547602784663
 30
0.0
 10
191.4342264226894
 20
127.3890908381922
 30
0.0
 10
191.4342057319276
 20
127.2390100605588
 30
0.0
 10
191.4455667042058
 20
127.1528132482774
 30
0.0
 10
191.4699537556656
 20
127.0630641718826
 30
0.0
  0
SPLINE
  5
13B
330
1F
100
AcDbEntity
  8
0
  6
HIDDEN
 62
     7
370
     0
100
AcDbSpline
210
0.0
220
0.0
230
1.0
 70
     8
 71
     3
 72
    24
 73
    20
 74
     0
 42
0.00000001
 43
0.00000001
 40
0.0
 40
0.0
 40
0.0
 40
0.0
 40
0.25
 40
0.25
 40
0.374999999999999
 40
0.374999999999999
 40
0.4374999999999993
 40
0.4374999999999993
 40
0.4687499999999994
 40
0.4687499999999994
 40
0.4999999999999995
 40
0.4999999999999995
 40
0.5624999999999971
 40
0.5624999999999971
 40
0.6249999999999947
 40
0.6249999999999947
 40
0.7499999999999947
 40
0.7499999999999947
 40
1.0
 40
1.0
 40
1.0
 40
1.0
 10
45.16572977864419
 20
95.58932835871003
 30
0.0
 10
45.17948289731444
 20
95.65997841670033
 30
0.0
 10
45.19725546472029
 20
95.72657652946523
 30
0.0
 10
45.24950655627566
 20
95.80067454969844
 30
0.0
 10
45.27054163185721
 20
95.82193235686
 30
0.0
 10
45.32344203948566
 20
95.83007828300624
 30
0.0
 10
45.34454771236357
 20
95.82913847961046
 30
0.0
 10
45.39059988104152
 20
95.80812248803312
 30
0.0
 10
45.40897035302492
 20
95.79721368192551
 30
0.0
 10
45.45052198809063
 20
95.76457877097813
 30
0.0
 10
45.47308866084754
 20
95.74308679060678
 30
0.0
 10
45.53586967730755
 20
95.67462084702045
 30
0.0
 10
45.56899943827544
 20
95.62854638881537
 30
0.0
 10
45.62591712476047
 20
95.5435385004807
 30
0.0
 10
45.65010315026424
 20
95.50325819929931
 30
0.0
 10
45.715311100644
 20
95.38832197283337
 30
0.0
 10
45.75002716083523
 20
95.31773898768637
 30
0.0
 10
45.84324243116611
 20
95.11353322860776
 30
0.0
 10
45.88891496652679
 20
94.9906348462804
 30
0.0
 10
45.92722005002533
 20
94.87376156989284
 30
0.0
  0
ARC
  5
13C
330
1F
100
AcDbEntity
  8
0
  6
HIDDEN
 62
     7
370
     0
100
AcDbCircle
 10
205.2272570869
 20
126.410497318
 30
0.0
 40
16.2160552352997
100
AcDbArc
 50
175.6513629475
 51
178.1907057002
  0
SPLINE
  5
13D
330
1F
100
AcDbEntity
  8
0
  6
HIDDEN
 62
     7
370
     0
100
AcDbSpline
210
0.0
220
0.0
230
1.0
 70
     8
 71
     3
 72
    11
 73
     7
 74
     0
 42
0.00000001
 43
0.00000001
 40
0.0
 40
0.0
 40
0.0
 40
0.0
 40
0.0005781862223978
 40
0.0005781862223978
 40
0.0005781862223978
 40
0.0011563724723928
 40
0.0011563724723928
 40
0.0011563724723928
 40
0.0011563724723928
 10
46.10306640392078
 20
127.9040232105375
 30
0.0
 10
45.93640584964518
 20
127.9685527219511
 30
0.0
 10
45.76974255273869
 20
128.0330554257949
 30
0.0
 10
45.60307596890845
 20
128.0975418742285
 30
0.0
 10
45.43640937664936
 20
128.1620283259235
 30
0.0
 10
45.26973951102349
 20
128.2264983346516
 30
0.0
 10
45.10306640392076
 20
128.2909541013842
 30
0.0
  0
SPLINE
  5
13E
330
1F
100
AcDbEntity
  8
0
  6
HIDDEN
 62
     7
370
     0
100
AcDbSpline
210
0.0
220
0.0
230
1.0
 70
     8
 71
     3
 72
    11
 73
     7
 74
     0
 42
0.00000001
 43
0.00000001
 40
0.0
 40
0.0
 40
0.0
 40
0.0
 40
0.0005778746105108
 40
0.0005778746105108
 40
0.0005778746105108
 40
0.0011557494857226
 40
0.0011557494857226
 40
0.0011557494857226
 40
0.0011557494857226
 10
45.10306640392077
 20
102.2366590480009
 30
0.0
 10
45.26973328033409
 20
102.3024711746947
 30
0.0
 10
45.43639999989557
 20
102.3683296548323
 30
0.0
 10
45.60306664794421
 20
102.434237227763
 30
0.0
 10
45.76973337246287
 20
102.5001448309333
 30
0.0
 10
45.93640006688346
 20
102.5661019393219
 30
0.0
 10
46.10306640392078
 20
102.6321036792446
 30
0.0
  0
SPLINE
  5
13F
330
1F
100
AcDbEntity
  8
0
  6
HIDDEN
 62
     7
370
     0
100
AcDbSpline
210
0.0
220
0.0
230
1.0
 70
     8
 71
     3
 72
    11
 73
     7
 74
     0
 42
0.00000001
 43
0.00000001
 40
0.0000000000000006
 40
0.0000000000000006
 40
0.0000000000000006
 40
0.0000000000000006
 40
0.0005780486062768
 40
0.0005780486062768
 40
0.0005780486062768
 40
0.0011560973514127
 40
0.0011560973514127
 40
0.0011560973514127
 40
0.0011560973514127
 10
45.10306640392077
 20
125.2446954051825
 30
0.0
 10
45.26973625996569
 20
125.182323543668
 30
0.0
 10
45.43640396404995
 20
125.1199696833703
 30
0.0
 10
45.6030702685036
 20
125.0576501231842
 30
0.0
 10
45.76973660919734
 20
124.9953305494473
 30
0.0
 10
45.93640156582612
 20
124.9330453451278
 30
0.0
 10
46.10306640392078
 20
124.8708202245591
 30
0.0
  0
SPLINE
  5
140
330
1F
100
AcDbEntity
  8
0
  6
HIDDEN
 62
     7
370
     0
100
AcDbSpline
210
0.0
220
0.0
230
1.0
 70
     8
 71
     3
 72
    11
 73
     7
 74
     0
 42
0.00000001
 43
0.00000001
 40
0.0
 40
0.0
 40
0.0
 40
0.0
 40
0.0005782401583533
 40
0.0005782401583533
 40
0.0005782401583533
 40
0.0011564805960992
 40
0.0011564805960992
 40
0.0011564805960992
 40
0.0011564805960992
 10
46.10306640392078
 20
105.6630541110931
 30
0.0
 10
45.93641545357188
 20
105.5996286530323
 30
0.0
 10
45.76975586098922
 20
105.536273129377
 30
0.0
 10
45.60308880856066
 20
105.4729755450271
 30
0.0
 10
45.43642167199685
 20
105.4096779287238
 30
0.0
 10
45.26974706455081
 20
105.3464381337831
 30
0.0
 10
45.10306640392073
 20
105.2832381271443
 30
0.0
  0
ARC
  5
141
330
1F
100
AcDbEntity
  8
0
  6
HIDDEN
 62
     7
370
     0
100
AcDbCircle
 10
175.8802228579
 20
126.4130893035
 30
0.0
 40
13.18436098692458
100
AcDbArc
 50
355.2491680304
 51
358.1735836915
  0
CIRCLE
  5
142
330
1F
100
AcDbEntity
  8
0
  6
HIDDEN
 62
     7
370
     0
100
AcDbCircle
 10
84.0030664039
 20
115.2638809035
 30
0.0
 40
5.000000000000014
  0
LWPOLYLINE
  5
143
330
1F
100
AcDbEntity
  8
0
  6
HIDDEN
 62
     7
370
     0
100
AcDbPolyline
 90
        7
 70
   128
 43
0.0
 10
237.0030664039
 20
125.3150113618
 10
236.9966351474
 20
125.0908077313
 10
236.9871950983
 20
124.6305757578
 10
236.984642533
 20
124.2513335461
 10
236.9893660564
 20
124.0108172853
 10
237.0006465548
 20
123.9456433956
 10
237.0030664039
 20
123.952983007
  0
LWPOLYLINE
  5
144
330
1F
100
AcDbEntity
  8
0
  6
HIDDEN
 62
     7
370
     0
100
AcDbPolyline
 90
       17
 70
   128
 43
0.0
 10
236.9235901754
 20
126.5837132478
 10
236.9097150235
 20
126.6638779338
 10
236.8898870778
 20
126.5161649997
 10
236.8671249632
 20
126.1630624008
 10
236.8448940053
 20
125.6583268068
 10
236.826578666
 20
125.0787996365
 10
236.8149672895
 20
124.5127086482
 10
236.8118276028
 20
124.0462360632
 10
236.8176375947
 20
123.7503981039
 10
236.8315127465
 20
123.670233418
 10
236.8513406922
 20
123.817946352
 10
236.8741028068
 20
124.171048951
 10
236.8963337647
 20
124.6757845449
 10
236.9146491041
 20
125.2553117152
 10
236.9262604805
 20
125.8214027035
 10
236.9294001672
 20
126.2878752885
 10
236.9235901754
 20
126.5837132478
  0
LWPOLYLINE
  5
145
330
1F
100
AcDbEntity
  8
0
  6
HIDDEN
 62
     7
370
     0
100
AcDbPolyline
 90
       17
 70
   128
 43
0.0
 10
231.5896523715
 20
126.7319023139
 10
231.5757772197
 20
126.8120669999
 10
231.5559492739
 20
126.6643540658
 10
231.5331871593
 20
126.3112514669
 10
231.5109562014
 20
125.8065158729
 10
231.4926408621
 20
125.2269887026
 10
231.4810294857
 20
124.6608977143
 10
231.4778897989
 20
124.1944251293
 10
231.4836997908
 20
123.89858717
 10
231.4975749426
 20
123.8184224841
 10
231.5174028883
 20
123.9661354182
 10
231.5401650029
 20
124.3192380171
 10
231.5623959608
 20
124.823973611
 10
231.5807113002
 20
125.4035007813
 10
231.5923226766
 20
125.9695917696
 10
231.5954623633
 20
126.4360643547
 10
231.5896523715
 20
126.7319023139
  0
LWPOLYLINE
  5
146
330
1F
100
AcDbEntity
  8
0
  6
HIDDEN
 62
     7
370
     0
100
AcDbPolyline
 90
       17
 70
   128
 43
0.0
 10
231.0723790899
 20
126.2735635642
 10
231.0631289887
 20
126.3270066882
 10
231.0499103582
 20
126.2285313988
 10
231.0347356151
 20
125.9931296662
 10
231.0199149766
 20
125.6566392702
 10
231.0077047503
 20
125.2702878234
 10
230.9999638327
 20
124.8928938312
 10
230.9978707082
 20
124.5819121078
 10
231.0017440361
 20
124.3846868017
 10
231.0109941373
 20
124.3312436777
 10
231.0242127678
 20
124.4297189671
 10
231.0393875109
 20
124.6651206997
 10
231.0542081495
 20
125.0016110957
 10
231.0664183757
 20
125.3879625425
 10
231.0741592933
 20
125.7653565347
 10
231.0762524178
 20
126.0763382581
 10
231.0723790899
 20
126.2735635642
  0
LINE
  5
147
330
1F
100
AcDbEntity
  8
0
  6
HIDDEN
 62
     7
370
     0
100
AcDbLine
 10
237.0030664039
 20
124.6719469511
 30
0.0
 11
237.001849905
 21
124.3446522607
 31
0.0
  0
LINE
  5
148
330
1F
100
AcDbEntity
  8
0
  6
HIDDEN
 62
     7
370
     0
100
AcDbLine
 10
237.0030664039
 20
124.3517093183
 30
0.0
 11
237.001849905
 21
124.3446522607
 31
0.0
  0
LINE
  5
149
330
1F
100
AcDbEntity
  8
0
  6
HIDDEN
 62
     7
370
     0
100
AcDbLine
 10
235.0621305856
 20
125.3813999049
 30
0.0
 11
235.0645635835
 21
126.0359892857
 31
0.0
  0
LINE
  5
14A
330
1F
100
AcDbEntity
  8
0
  6
HIDDEN
 62
     7
370
     0
100
AcDbLine
 10
235.0621305856
 20
125.3813999049
 30
0.0
 11
235.0315447101
 21
124.5634922744
 31
0.0
  0
LINE
  5
14B
330
1F
100
AcDbEntity
  8
0
  6
HIDDEN
 62
     7
370
     0
100
AcDbLine
 10
235.0315447101
 20
124.5634922744
 30
0.0
 11
235.0033918325
 21
124.4001740246
 31
0.0
  0
LINE
  5
14C
330
1F
100
AcDbEntity
  8
0
  6
HIDDEN
 62
     7
370
     0
100
AcDbLine
 10
235.0364107059
 20
125.8726710359
 30
0.0
 11
235.0058248304
 21
125.0547634054
 31
0.0
  0
LINE
  5
14D
330
1F
100
AcDbEntity
  8
0
  6
HIDDEN
 62
     7
370
     0
100
AcDbLine
 10
235.0364107059
 20
125.8726710359
 30
0.0
 11
235.0645635835
 21
126.0359892857
 31
0.0
  0
LINE
  5
14E
330
1F
100
AcDbEntity
  8
0
  6
HIDDEN
 62
     7
370
     0
100
AcDbLine
 10
235.0058248304
 20
125.0547634054
 30
0.0
 11
235.0033918325
 21
124.4001740246
 31
0.0
  0
LINE
  5
14F
330
1F
100
AcDbEntity
  8
0
  6
HIDDEN
 62
     7
370
     0
100
AcDbLine
 10
235.0058248304
 20
125.0547634054
 30
0.0
 11
237.0042829029
 21
124.9992416415
 31
0.0
  0
LINE
  5
150
330
1F
100
AcDbEntity
  8
0
  6
HIDDEN
 62
     7
370
     0
100
AcDbLine
 10
235.0364107059
 20
125.8726710359
 30
0.0
 11
237.0348687784
 21
125.817149272
 31
0.0
  0
LINE
  5
151
330
1F
100
AcDbEntity
  8
0
  6
HIDDEN
 62
     7
370
     0
100
AcDbLine
 10
235.0315447101
 20
124.5634922744
 30
0.0
 11
237.0030664039
 21
124.5087188651
 31
0.0
  0
LINE
  5
152
330
1F
100
AcDbEntity
  8
0
  6
HIDDEN
 62
     7
370
     0
100
AcDbLine
 10
235.0033918325
 20
124.4001740246
 30
0.0
 11
237.001849905
 21
124.3446522607
 31
0.0
  0
LINE
  5
153
330
1F
100
AcDbEntity
  8
0
  6
HIDDEN
 62
     7
370
     0
100
AcDbLine
 10
235.0621305856
 20
125.3813999049
 30
0.0
 11
237.0165433224
 21
125.3271018218
 31
0.0
  0
LINE
  5
154
330
1F
100
AcDbEntity
  8
0
  6
HIDDEN
 62
     7
370
     0
100
AcDbLine
 10
235.0645635835
 20
126.0359892857
 30
0.0
 11
237.063021656
 21
125.9804675217
 31
0.0
  0
LWPOLYLINE
  5
155
330
1F
100
AcDbEntity
  8
0
  6
HIDDEN
 62
     7
370
     0
100
AcDbPolyline
 90
       17
 70
   128
 43
0.0
 10
231.5877515631
 20
103.7643385982
 10
231.5726013587
 20
103.7258496729
 10
231.5519933485
 20
103.9136927007
 10
231.529064915
 20
104.2992702834
 10
231.5073067046
 20
104.8238817292
 10
231.4900312075
 20
105.4076597012
 10
231.4798684615
 20
105.9617292951
 10
231.4783656525
 20
106.4017384378
 10
231.4857515697
 20
106.6606997262
 10
231.5009017741
 20
106.6991886514
 10
231.5215097844
 20
106.5113456236
 10
231.5444382178
 20
106.1257680409
 10
231.5661964282
 20
105.6011565951
 10
231.5834719254
 20
105.0173786231
 10
231.5936346714
 20
104.4633090292
 10
231.5951374803
 20
104.0232998865
 10
231.5877515631
 20
103.7643385982
  0
LWPOLYLINE
  5
156
330
1F
100
AcDbEntity
  8
0
  6
HIDDEN
 62
     7
370
     0
100
AcDbPolyline
 90
       17
 70
   128
 43
0.0
 10
231.0711370461
 20
104.2331850119
 10
231.0610369098
 20
104.2075257284
 10
231.0472982363
 20
104.3327544136
 10
231.032012614
 20
104.5898061353
 10
231.0175071404
 20
104.9395470992
 10
231.0059901423
 20
105.3287324139
 10
230.9992149783
 20
105.6981121432
 10
230.9982131057
 20
105.9914515716
 10
231.0031370505
 20
106.1640924305
 10
231.0132371868
 20
106.189751714
 10
231.0269758603
 20
106.0645230288
 10
231.0422614826
 20
105.807471307
 10
231.0567669562
 20
105.4577303431
 10
231.0682839543
 20
105.0685450285
 10
231.0750591183
 20
104.6991652992
 10
231.0760609909
 20
104.4058258707
 10
231.0711370461
 20
104.2331850119
  0
LWPOLYLINE
  5
157
330
1F
100
AcDbEntity
  8
0
  6
HIDDEN
 62
     7
370
     0
100
AcDbPolyline
 90
       17
 70
   128
 43
0.0
 10
236.921689367
 20
103.9125276643
 10
236.9065391626
 20
103.874038739
 10
236.8859311523
 20
104.0618817668
 10
236.8630027189
 20
104.4474593495
 10
236.8412445085
 20
104.9720707953
 10
236.8239690114
 20
105.5558487673
 10
236.8138062653
 20
106.1099183612
 10
236.8123034564
 20
106.549927504
 10
236.8196893736
 20
106.8088887923
 10
236.834839578
 20
106.8473777175
 10
236.8554475883
 20
106.6595346897
 10
236.8783760217
 20
106.273957107
 10
236.9001342321
 20
105.7493456612
 10
236.9174097293
 20
105.1655676892
 10
236.9275724753
 20
104.6114980953
 10
236.9290752842
 20
104.1714889526
 10
236.921689367
 20
103.9125276643
  0
ARC
  5
158
330
1F
100
AcDbEntity
  8
0
  6
HIDDEN
 62
     7
370
     0
100
AcDbCircle
 10
250.4760135474
 20
105.7207045032
 30
0.0
 40
13.50000978817932
100
AcDbArc
 50
176.3714903393
 51
186.6915291025
  0
LINE
  5
159
330
1F
100
AcDbEntity
  8
0
  6
HIDDEN
 62
     7
370
     0
100
AcDbLine
 10
235.0634980551
 20
105.0859472462
 30
0.0
 11
235.0634980551
 21
104.4735748105
 31
0.0
  0
LINE
  5
15A
330
1F
100
AcDbEntity
  8
0
  6
HIDDEN
 62
     7
370
     0
100
AcDbLine
 10
237.0619561276
 20
105.1414690101
 30
0.0
 11
237.0619561276
 21
104.5290965744
 31
0.0
  0
LINE
  5
15B
330
1F
100
AcDbEntity
  8
0
  6
HIDDEN
 62
     7
370
     0
100
AcDbLine
 10
235.0634980551
 20
105.0859472462
 30
0.0
 11
237.0619561276
 21
105.1414690101
 31
0.0
  0
LINE
  5
15C
330
1F
100
AcDbEntity
  8
0
  6
HIDDEN
 62
     7
370
     0
100
AcDbLine
 10
235.0634980551
 20
105.0859472462
 30
0.0
 11
235.0340531933
 21
105.9220546847
 31
0.0
  0
LINE
  5
15D
330
1F
100
AcDbEntity
  8
0
  6
HIDDEN
 62
     7
370
     0
100
AcDbLine
 10
237.0619561276
 20
105.1414690101
 30
0.0
 11
237.0325112657
 21
105.9775764486
 31
0.0
  0
LINE
  5
15E
330
1F
100
AcDbEntity
  8
0
  6
HIDDEN
 62
     7
370
     0
100
AcDbLine
 10
235.0340531933
 20
105.9220546847
 30
0.0
 11
237.0325112657
 21
105.9775764486
 31
0.0
  0
LINE
  5
15F
330
1F
100
AcDbEntity
  8
0
  6
HIDDEN
 62
     7
370
     0
100
AcDbLine
 10
235.0340531933
 20
105.9220546847
 30
0.0
 11
235.0046083314
 21
106.1457896875
 31
0.0
  0
LINE
  5
160
330
1F
100
AcDbEntity
  8
0
  6
HIDDEN
 62
     7
370
     0
100
AcDbLine
 10
237.0325112657
 20
105.9775764486
 30
0.0
 11
237.0030664039
 21
106.2013114514
 31
0.0
  0
LINE
  5
161
330
1F
100
AcDbEntity
  8
0
  6
HIDDEN
 62
     7
370
     0
100
AcDbLine
 10
235.0340531933
 20
104.6973098133
 30
0.0
 11
237.0325112657
 21
104.7528315772
 31
0.0
  0
LINE
  5
162
330
1F
100
AcDbEntity
  8
0
  6
HIDDEN
 62
     7
370
     0
100
AcDbLine
 10
235.0634980551
 20
104.4735748105
 30
0.0
 11
237.0619561276
 21
104.5290965744
 31
0.0
  0
LINE
  5
163
330
1F
100
AcDbEntity
  8
0
  6
HIDDEN
 62
     7
370
     0
100
AcDbLine
 10
235.0340531933
 20
104.6973098133
 30
0.0
 11
235.0634980551
 21
104.4735748105
 31
0.0
  0
LINE
  5
164
330
1F
100
AcDbEntity
  8
0
  6
HIDDEN
 62
     7
370
     0
100
AcDbLine
 10
237.0325112657
 20
104.7528315772
 30
0.0
 11
237.0619561276
 21
104.5290965744
 31
0.0
  0
LINE
  5
165
330
1F
100
AcDbEntity
  8
0
  6
HIDDEN
 62
     7
370
     0
100
AcDbLine
 10
235.0046083314
 20
105.5334172518
 30
0.0
 11
237.0030664039
 21
105.5889390157
 31
0.0
  0
LINE
  5
166
330
1F
100
AcDbEntity
  8
0
  6
HIDDEN
 62
     7
370
     0
100
AcDbLine
 10
235.0046083314
 20
106.1457896875
 30
0.0
 11
237.0030664039
 21
106.2013114514
 31
0.0
  0
LINE
  5
167
330
1F
100
AcDbEntity
  8
0
  6
HIDDEN
 62
     7
370
     0
100
AcDbLine
 10
235.0046083314
 20
105.5334172518
 30
0.0
 11
235.0046083314
 21
106.1457896875
 31
0.0
  0
LINE
  5
168
330
1F
100
AcDbEntity
  8
0
  6
HIDDEN
 62
     7
370
     0
100
AcDbLine
 10
235.0340531933
 20
104.6973098133
 30
0.0
 11
235.0046083314
 21
105.5334172518
 31
0.0
  0
LINE
  5
169
330
1F
100
AcDbEntity
  8
0
  6
HIDDEN
 62
     7
370
     0
100
AcDbLine
 10
237.0325112657
 20
104.7528315772
 30
0.0
 11
237.0030664039
 21
105.5889390157
 31
0.0
  0
LINE
  5
16A
330
1F
100
AcDbEntity
  8
0
  6
HIDDEN
 62
     7
370
     0
100
AcDbLine
 10
81.0030664039
 20
129.5617160532
 30
0.0
 11
81.0030664039
 21
127.6578215464
 31
0.0
  0
LINE
  5
16B
330
1F
100
AcDbEntity
  8
0
  6
HIDDEN
 62
     7
370
     0
100
AcDbLine
 10
89.0030664039
 20
127.6578215464
 30
0.0
 11
89.0030664039
 21
129.5645114092
 31
0.0
  0
LINE
  5
16C
330
1F
100
AcDbEntity
  8
0
  6
HIDDEN
 62
     7
370
     0
100
AcDbLine
 10
77.0030664039
 20
89.9399497575
 30
0.0
 11
77.0972271794
 21
90.6099384887
 31
0.0
  0
LINE
  5
16D
330
1F
100
AcDbEntity
  8
0
  6
HIDDEN
 62
     7
370
     0
100
AcDbLine
 10
77.0972271794
 20
139.9178233182
 30
0.0
 11
77.0030664039
 21
140.5878120495
 31
0.0
  0
ARC
  5
16E
330
1F
100
AcDbEntity
  8
0
  6
HIDDEN
 62
     7
370
     0
100
AcDbCircle
 10
76.5030596513
 20
90.6934432891
 30
0.0
 40
0.6000067526677222
100
AcDbArc
 50
352.0
 51
0.0
  0
ARC
  5
16F
330
1F
100
AcDbEntity
  8
0
  6
HIDDEN
 62
     7
370
     0
100
AcDbCircle
 10
76.5030596513
 20
90.6934432891
 30
0.0
 40
0.6000067526677164
100
AcDbArc
 50
0.0
 51
33.5571153394
  0
ARC
  5
170
330
1F
100
AcDbEntity
  8
0
  6
HIDDEN
 62
     7
370
     0
100
AcDbCircle
 10
76.5030596513
 20
139.8343185179
 30
0.0
 40
0.6000067526677222
100
AcDbArc
 50
348.75
 51
8.0
  0
LWPOLYLINE
  5
171
330
1F
100
AcDbEntity
  8
0
  6
HIDDEN
 62
     7
370
     0
100
AcDbPolyline
 90
        3
 70
   128
 43
0.0
 10
77.0915374424
 20
139.7172630073
 10
77.0573936094
 20
139.6047058743
 10
77.0030664039
 20
139.5026540028
  0
LINE
  5
172
330
1F
100
AcDbEntity
  8
0
  6
HIDDEN
 62
     7
370
     0
100
AcDbLine
 10
77.1030664039
 20
90.6934432891
 30
0.0
 11
77.1030664039
 21
139.8343185179
 31
0.0
  0
ARC
  5
173
330
1F
100
AcDbEntity
  8
0
  6
HIDDEN
 62
     7
370
     0
100
AcDbCircle
 10
60.0855019692
 20
95.8638809035
 30
0.0
 40
0.6000000000000085
100
AcDbArc
 50
210.0
 51
270.0
  0
ARC
  5
174
330
1F
100
AcDbEntity
  8
0
  6
HIDDEN
 62
     7
370
     0
100
AcDbCircle
 10
60.0855019692
 20
134.6638809035
 30
0.0
 40
0.6000000000000227
100
AcDbArc
 50
90.0
 51
150.0
  0
ARC
  5
175
330
1F
100
AcDbEntity
  8
0
  6
HIDDEN
 62
     7
370
     0
100
AcDbCircle
 10
70.7580684055
 20
103.2638809035
 30
0.0
 40
8.000000000000005
100
AcDbArc
 50
277.1234766433
 51
321.3178125465
  0
ARC
  5
176
330
1F
100
AcDbEntity
  8
0
  6
HIDDEN
 62
     7
370
     0
100
AcDbCircle
 10
70.7580684055
 20
127.2638809035
 30
0.0
 40
8.000000000000012
100
AcDbArc
 50
38.6821874535
 51
82.9413570988
  0
LINE
  5
177
330
1F
100
AcDbEntity
  8
0
  6
HIDDEN
 62
     7
370
     0
100
AcDbLine
 10
60.0855019692
 20
95.2638809035
 30
0.0
 11
64.2561837851
 21
95.2638809035
 31
0.0
  0
LINE
  5
178
330
1F
100
AcDbEntity
  8
0
  6
HIDDEN
 62
     7
370
     0
100
AcDbLine
 10
64.2630385456
 20
135.2638809035
 30
0.0
 11
60.0855019692
 21
135.2638809035
 31
0.0
  0
LINE
  5
179
330
1F
100
AcDbEntity
  8
0
  6
HIDDEN
 62
     7
370
     0
100
AcDbLine
 10
59.5658867269
 20
134.9638809035
 30
0.0
 11
58.0070410001
 21
132.2638809035
 31
0.0
  0
LINE
  5
17A
330
1F
100
AcDbEntity
  8
0
  6
HIDDEN
 62
     7
370
     0
100
AcDbLine
 10
58.0070410001
 20
98.2638809035
 30
0.0
 11
59.5658867269
 21
95.5638809035
 31
0.0
  0
LINE
  5
17B
330
1F
100
AcDbEntity
  8
0
  6
HIDDEN
 62
     7
370
     0
100
AcDbLine
 10
81.0030664039
 20
142.5422384513
 30
0.0
 11
81.0030664039
 21
139.2094833181
 31
0.0
  0
LINE
  5
17C
330
1F
100
AcDbEntity
  8
0
  6
HIDDEN
 62
     7
370
     0
100
AcDbLine
 10
89.0030664039
 20
139.2094833181
 30
0.0
 11
89.0030664039
 21
142.5436131406
 31
0.0
  0
ARC
  5
17D
330
1F
100
AcDbEntity
  8
0
  6
HIDDEN
 62
     7
370
     0
100
AcDbCircle
 10
85.4530664039
 20
99.5388809035
 30
0.0
 40
1.5
100
AcDbArc
 50
238.2116693829
 51
0.0
  0
ARC
  5
17E
330
1F
100
AcDbEntity
  8
0
  6
HIDDEN
 62
     7
370
     0
100
AcDbCircle
 10
85.4530664039
 20
130.9888809035
 30
0.0
 40
1.500000000000033
100
AcDbArc
 50
0.0
 51
121.7883306171
  0
LINE
  5
17F
330
1F
100
AcDbEntity
  8
0
  6
HIDDEN
 62
     7
370
     0
100
AcDbLine
 10
77.0030664039
 20
98.2638809035
 30
0.0
 11
84.6628923725
 21
98.2638809035
 31
0.0
  0
LINE
  5
180
330
1F
100
AcDbEntity
  8
0
  6
HIDDEN
 62
     7
370
     0
100
AcDbLine
 10
84.6628923725
 20
132.2638809035
 30
0.0
 11
77.0030664039
 21
132.2638809035
 31
0.0
  0
LINE
  5
181
330
1F
100
AcDbEntity
  8
0
  6
HIDDEN
 62
     7
370
     0
100
AcDbLine
 10
55.2030664039
 20
98.2638809035
 30
0.0
 11
58.0070410001
 21
98.2638809035
 31
0.0
  0
LINE
  5
182
330
1F
100
AcDbEntity
  8
0
  6
HIDDEN
 62
     7
370
     0
100
AcDbLine
 10
58.0070410001
 20
132.2638809035
 30
0.0
 11
51.2030664039
 21
132.2638809035
 31
0.0
  0
LINE
  5
183
330
1F
100
AcDbEntity
  8
0
  6
HIDDEN
 62
     7
370
     0
100
AcDbLine
 10
191.5030664039
 20
104.9764367829
 30
0.0
 11
191.5030664039
 21
108.7693618913
 31
0.0
  0
LINE
  5
184
330
1F
100
AcDbEntity
  8
0
  6
HIDDEN
 62
     7
370
     0
100
AcDbLine
 10
191.5030664039
 20
102.8895122327
 30
0.0
 11
191.5030664039
 21
103.2242406336
 31
0.0
  0
LINE
  5
185
330
1F
100
AcDbEntity
  8
0
  6
HIDDEN
 62
     7
370
     0
100
AcDbLine
 10
188.5030664039
 20
103.7821912923
 30
0.0
 11
188.5030664039
 21
102.8895122327
 31
0.0
  0
LINE
  5
186
330
1F
100
AcDbEntity
  8
0
  6
HIDDEN
 62
     7
370
     0
100
AcDbLine
 10
188.5030664039
 20
108.6888676256
 30
0.0
 11
188.5030664039
 21
104.2861778601
 31
0.0
  0
LINE
  5
187
330
1F
100
AcDbEntity
  8
0
  6
HIDDEN
 62
     7
370
     0
100
AcDbLine
 10
191.215234935
 20
102.8418123292
 30
0.0
 11
237.0030664039
 21
104.1139036498
 31
0.0
  0
LINE
  5
188
330
1F
100
AcDbEntity
  8
0
  6
HIDDEN
 62
     7
370
     0
100
AcDbLine
 10
237.0030664039
 20
106.614868284
 30
0.0
 11
191.2138226223
 21
105.3427377262
 31
0.0
  0
LINE
  5
189
330
1F
100
AcDbEntity
  8
0
  6
HIDDEN
 62
     7
370
     0
100
AcDbLine
 10
188.5268747
 20
104.432635357
 30
0.0
 11
188.2895759428
 21
104.0110131073
 31
0.0
  0
LINE
  5
18A
330
1F
100
AcDbEntity
  8
0
  6
HIDDEN
 62
     7
370
     0
100
AcDbLine
 10
188.2895759428
 20
104.0110131073
 30
0.0
 11
188.5278315571
 21
103.6378122048
 31
0.0
  0
LINE
  5
18B
330
1F
100
AcDbEntity
  8
0
  6
HIDDEN
 62
     7
370
     0
100
AcDbLine
 10
95.8030664039
 20
105.7638809035
 30
0.0
 11
98.8030664039
 21
105.7638809035
 31
0.0
  0
LINE
  5
18C
330
1F
100
AcDbEntity
  8
0
  6
HIDDEN
 62
     7
370
     0
100
AcDbLine
 10
98.8030664039
 20
124.7638809035
 30
0.0
 11
95.8030664039
 21
124.7638809035
 31
0.0
  0
LINE
  5
18D
330
1F
100
AcDbEntity
  8
0
  6
HIDDEN
 62
     7
370
     0
100
AcDbLine
 10
188.4030664039
 20
105.9638809035
 30
0.0
 11
191.1082923858
 21
105.9638809035
 31
0.0
  0
LINE
  5
18E
330
1F
100
AcDbEntity
  8
0
  6
HIDDEN
 62
     7
370
     0
100
AcDbLine
 10
191.1082923858
 20
124.5638809035
 30
0.0
 11
188.4030664039
 21
124.5638809035
 31
0.0
  0
ARC
  5
18F
330
1F
100
AcDbEntity
  8
0
  6
HIDDEN
 62
     7
370
     0
100
AcDbCircle
 10
188.4030664039
 20
106.3638809035
 30
0.0
 40
0.4000000000000341
100
AcDbArc
 50
180.0
 51
270.0
  0
ARC
  5
190
330
1F
100
AcDbEntity
  8
0
  6
HIDDEN
 62
     7
370
     0
100
AcDbCircle
 10
188.4030664039
 20
124.1638809035
 30
0.0
 40
0.4000000000000341
100
AcDbArc
 50
90.0
 51
180.0
  0
ARC
  5
191
330
1F
100
AcDbEntity
  8
0
  6
HIDDEN
 62
     7
370
     0
100
AcDbCircle
 10
236.7030664039
 20
105.9638809035
 30
0.0
 40
0.2999999999999972
100
AcDbArc
 50
0.0
 51
90.0
  0
ARC
  5
192
330
1F
100
AcDbEntity
  8
0
  6
HIDDEN
 62
     7
370
     0
100
AcDbCircle
 10
236.7030664039
 20
124.5638809035
 30
0.0
 40
0.2999999999999972
100
AcDbArc
 50
270.0
 51
0.0
  0
ARC
  5
193
330
1F
100
AcDbEntity
  8
0
  6
HIDDEN
 62
     7
370
     0
100
AcDbCircle
 10
191.1082923858
 20
124.1638809035
 30
0.0
 40
0.4000000000000171
100
AcDbArc
 50
70.0
 51
90.0
  0
LINE
  5
194
330
1F
100
AcDbEntity
  8
0
  6
HIDDEN
 62
     7
370
     0
100
AcDbLine
 10
191.2451004431
 20
105.9880038552
 30
0.0
 11
192.0030664039
 21
106.2638809035
 31
0.0
  0
LINE
  5
195
330
1F
100
AcDbEntity
  8
0
  6
HIDDEN
 62
     7
370
     0
100
AcDbLine
 10
192.0030664039
 20
124.2638809035
 30
0.0
 11
191.2451004431
 21
124.5397579518
 31
0.0
  0
LINE
  5
196
330
1F
100
AcDbEntity
  8
0
  6
HIDDEN
 62
     7
370
     0
100
AcDbLine
 10
86.9530664039
 20
106.2638809035
 30
0.0
 11
87.4530664039
 21
106.7638809035
 31
0.0
  0
LINE
  5
197
330
1F
100
AcDbEntity
  8
0
  6
HIDDEN
 62
     7
370
     0
100
AcDbLine
 10
87.4530664039
 20
123.7638809035
 30
0.0
 11
86.9530664039
 21
124.2638809035
 31
0.0
  0
LINE
  5
198
330
1F
100
AcDbEntity
  8
0
  6
HIDDEN
 62
     7
370
     0
100
AcDbLine
 10
192.0030664039
 20
106.2638809035
 30
0.0
 11
236.7030664039
 21
106.2638809035
 31
0.0
  0
LINE
  5
199
330
1F
100
AcDbEntity
  8
0
  6
HIDDEN
 62
     7
370
     0
100
AcDbLine
 10
236.7030664039
 20
124.2638809035
 30
0.0
 11
192.0030664039
 21
124.2638809035
 31
0.0
  0
LINE
  5
19A
330
1F
100
AcDbEntity
  8
0
  6
HIDDEN
 62
     7
370
     0
100
AcDbLine
 10
87.4530664039
 20
106.7638809035
 30
0.0
 11
95.8030664039
 21
106.7638809035
 31
0.0
  0
LINE
  5
19B
330
1F
100
AcDbEntity
  8
0
  6
HIDDEN
 62
     7
370
     0
100
AcDbLine
 10
95.8030664039
 20
123.7638809035
 30
0.0
 11
87.4530664039
 21
123.7638809035
 31
0.0
  0
LINE
  5
19C
330
1F
100
AcDbEntity
  8
0
  6
HIDDEN
 62
     7
370
     0
100
AcDbLine
 10
81.9530664039
 20
146.7638809035
 30
0.0
 11
81.9530664039
 21
141.6638809035
 31
0.0
  0
ARC
  5
19D
330
1F
100
AcDbEntity
  8
0
  6
HIDDEN
 62
     7
370
     0
100
AcDbCircle
 10
191.1082923858
 20
106.3638809035
 30
0.0
 40
0.4000000000000199
100
AcDbArc
 50
270.0
 51
290.0
  0
LINE
  5
19E
330
1F
100
AcDbEntity
  8
0
  6
HIDDEN
 62
     7
370
     0
100
AcDbLine
 10
72.1875042344
 20
91.1845095699
 30
0.0
 11
71.7530720849
 21
91.663575589
 31
0.0
  0
LINE
  5
19F
330
1F
100
AcDbEntity
  8
0
  6
HIDDEN
 62
     7
370
     0
100
AcDbLine
 10
64.2530687598
 20
92.0852635482
 30
0.0
 11
63.7706350165
 21
91.6061975727
 31
0.0
  0
LINE
  5
1A0
330
1F
100
AcDbEntity
  8
0
  6
HIDDEN
 62
     7
370
     0
100
AcDbLine
 10
63.7705130882
 20
138.9215589438
 30
0.0
 11
64.2530638392
 21
138.4424386859
 31
0.0
  0
LINE
  5
1A1
330
1F
100
AcDbEntity
  8
0
  6
HIDDEN
 62
     7
370
     0
100
AcDbLine
 10
71.7530662859
 20
138.8641364636
 30
0.0
 11
72.1876086763
 21
139.3432567141
 31
0.0
  0
LINE
  5
1A2
330
1F
100
AcDbEntity
  8
0
  6
HIDDEN
 62
     7
370
     0
100
AcDbLine
 10
98.8030664039
 20
111.0138809035
 30
0.0
 11
188.0030664039
 21
111.0138809035
 31
0.0
  0
LINE
  5
1A3
330
1F
100
AcDbEntity
  8
0
  6
HIDDEN
 62
     7
370
     0
100
AcDbLine
 10
188.0030664039
 20
119.5138809035
 30
0.0
 11
98.8030664039
 21
119.5138809035
 31
0.0
  0
LINE
  5
1A4
330
1F
100
AcDbEntity
  8
0
  6
HIDDEN
 62
     7
370
     0
100
AcDbLine
 10
71.7530664039
 20
135.2009537295
 30
0.0
 11
71.7530664039
 21
138.9641669643
 31
0.0
  0
LINE
  5
1A5
330
1F
100
AcDbEntity
  8
0
  6
HIDDEN
 62
     7
370
     0
100
AcDbLine
 10
64.2530664039
 20
138.4421834946
 30
0.0
 11
64.2530664039
 21
135.2620186579
 31
0.0
  0
LINE
  5
1A6
330
1F
100
AcDbEntity
  8
0
  6
HIDDEN
 62
     7
370
     0
100
AcDbLine
 10
71.7530664039
 20
91.5635160436
 30
0.0
 11
71.7530664039
 21
95.3260447129
 31
0.0
  0
LINE
  5
1A7
330
1F
100
AcDbEntity
  8
0
  6
HIDDEN
 62
     7
370
     0
100
AcDbLine
 10
64.2530664039
 20
95.2644651647
 30
0.0
 11
64.2530664039
 21
92.085586786
 31
0.0
  0
LINE
  5
1A8
330
1F
100
AcDbEntity
  8
0
  6
HIDDEN
 62
     7
370
     0
100
AcDbLine
 10
152.4530664039
 20
91.2638809035
 30
0.0
 11
151.4530664039
 21
91.8412311727
 31
0.0
  0
LINE
  5
1A9
330
1F
100
AcDbEntity
  8
0
  6
HIDDEN
 62
     7
370
     0
100
AcDbLine
 10
146.4530664039
 20
91.8412311727
 30
0.0
 11
145.4530664039
 21
91.2638809035
 31
0.0
  0
LINE
  5
1AA
330
1F
100
AcDbEntity
  8
0
  6
HIDDEN
 62
     7
370
     0
100
AcDbLine
 10
145.4530664039
 20
139.2638809035
 30
0.0
 11
146.4530664039
 21
138.6865306343
 31
0.0
  0
LINE
  5
1AB
330
1F
100
AcDbEntity
  8
0
  6
HIDDEN
 62
     7
370
     0
100
AcDbLine
 10
151.4530664039
 20
138.6865306343
 30
0.0
 11
152.4530664039
 21
139.2638809035
 31
0.0
  0
LINE
  5
1AC
330
1F
100
AcDbEntity
  8
0
  6
HIDDEN
 62
     7
370
     0
100
AcDbLine
 10
146.4530664039
 20
138.6865306343
 30
0.0
 11
146.4530664039
 21
127.2638809035
 31
0.0
  0
LINE
  5
1AD
330
1F
100
AcDbEntity
  8
0
  6
HIDDEN
 62
     7
370
     0
100
AcDbLine
 10
151.4530664039
 20
127.2638809035
 30
0.0
 11
151.4530664039
 21
138.6865306343
 31
0.0
  0
LINE
  5
1AE
330
1F
100
AcDbEntity
  8
0
  6
HIDDEN
 62
     7
370
     0
100
AcDbLine
 10
146.4530664039
 20
127.2638809035
 30
0.0
 11
148.9530664039
 21
125.7617293559
 31
0.0
  0
LINE
  5
1AF
330
1F
100
AcDbEntity
  8
0
  6
HIDDEN
 62
     7
370
     0
100
AcDbLine
 10
148.9530664039
 20
125.7617293559
 30
0.0
 11
151.4530664039
 21
127.2638809035
 31
0.0
  0
LINE
  5
1B0
330
1F
100
AcDbEntity
  8
0
  6
HIDDEN
 62
     7
370
     0
100
AcDbLine
 10
151.4530664039
 20
103.2638809035
 30
0.0
 11
148.9530664039
 21
104.7660324511
 31
0.0
  0
LINE
  5
1B1
330
1F
100
AcDbEntity
  8
0
  6
HIDDEN
 62
     7
370
     0
100
AcDbLine
 10
148.9530664039
 20
104.7660324511
 30
0.0
 11
146.4530664039
 21
103.2638809035
 31
0.0
  0
LINE
  5
1B2
330
1F
100
AcDbEntity
  8
0
  6
HIDDEN
 62
     7
370
     0
100
AcDbLine
 10
151.4530664039
 20
91.8412311727
 30
0.0
 11
151.4530664039
 21
103.2638809035
 31
0.0
  0
LINE
  5
1B3
330
1F
100
AcDbEntity
  8
0
  6
HIDDEN
 62
     7
370
     0
100
AcDbLine
 10
146.4530664039
 20
103.2638809035
 30
0.0
 11
146.4530664039
 21
91.8412311727
 31
0.0
  0
LINE
  5
1B4
330
1F
100
AcDbEntity
  8
0
  6
HIDDEN
 62
     7
370
     0
100
AcDbLine
 10
191.5030664039
 20
121.7572435179
 30
0.0
 11
191.5030664039
 21
125.5436945955
 31
0.0
  0
LINE
  5
1B5
330
1F
100
AcDbEntity
  8
0
  6
HIDDEN
 62
     7
370
     0
100
AcDbLine
 10
188.5030664039
 20
126.2425905058
 30
0.0
 11
188.5030664039
 21
121.8395154657
 31
0.0
  0
LINE
  5
1B6
330
1F
100
AcDbEntity
  8
0
  6
HIDDEN
 62
     7
370
     0
100
AcDbLine
 10
188.5030664039
 20
127.2846961837
 30
0.0
 11
188.5030664039
 21
126.7458040956
 31
0.0
  0
LINE
  5
1B7
330
1F
100
AcDbEntity
  8
0
  6
HIDDEN
 62
     7
370
     0
100
AcDbLine
 10
191.2146698047
 20
125.1850005441
 30
0.0
 11
237.0030664039
 21
123.912893523
 31
0.0
  0
LINE
  5
1B8
330
1F
100
AcDbEntity
  8
0
  6
HIDDEN
 62
     7
370
     0
100
AcDbLine
 10
237.0030664039
 20
126.4138581572
 30
0.0
 11
191.213797271
 21
127.6859894193
 31
0.0
  0
LINE
  5
1B9
330
1F
100
AcDbEntity
  8
0
  6
HIDDEN
 62
     7
370
     0
100
AcDbLine
 10
188.5299563251
 20
126.8932778148
 30
0.0
 11
188.2895759428
 21
126.5167486997
 31
0.0
  0
LINE
  5
1BA
330
1F
100
AcDbEntity
  8
0
  6
HIDDEN
 62
     7
370
     0
100
AcDbLine
 10
188.2895759428
 20
126.5167486997
 30
0.0
 11
188.5294521919
 21
126.0905468729
 31
0.0
  0
LINE
  5
1BB
330
1F
100
AcDbEntity
  8
0
  6
HIDDEN
 62
     7
370
     0
100
AcDbLine
 10
236.8310069779
 20
123.6693142784
 30
0.0
 11
237.000235365
 21
123.9448961351
 31
0.0
  0
LINE
  5
1BC
330
1F
100
AcDbEntity
  8
0
  6
HIDDEN
 62
     7
370
     0
100
AcDbLine
 10
237.0030664039
 20
126.5001739635
 30
0.0
 11
236.9142252919
 21
126.6646858191
 31
0.0
  0
LINE
  5
1BD
330
1F
100
AcDbEntity
  8
0
  6
HIDDEN
 62
     7
370
     0
100
AcDbLine
 10
236.912271263
 20
126.6664771186
 30
0.0
 11
231.5783334591
 21
126.8146661847
 31
0.0
  0
LINE
  5
1BE
330
1F
100
AcDbEntity
  8
0
  6
HIDDEN
 62
     7
370
     0
100
AcDbLine
 10
231.4950187031
 20
123.8158232993
 30
0.0
 11
236.828956507
 21
123.6676342332
 31
0.0
  0
LINE
  5
1BF
330
1F
100
AcDbEntity
  8
0
  6
HIDDEN
 62
     7
370
     0
100
AcDbLine
 10
231.5771613922
 20
126.8141199669
 30
0.0
 11
231.0640517704
 21
126.3283753329
 31
0.0
  0
LINE
  5
1C0
330
1F
100
AcDbEntity
  8
0
  6
HIDDEN
 62
     7
370
     0
100
AcDbLine
 10
231.008530023
 20
124.3299178548
 30
0.0
 11
231.4938787711
 21
123.8164337497
 31
0.0
  0
LINE
  5
1C1
330
1F
100
AcDbEntity
  8
0
  6
HIDDEN
 62
     7
370
     0
100
AcDbLine
 10
231.4939542564
 20
106.7113301544
 30
0.0
 11
231.0086055083
 21
106.1978460494
 31
0.0
  0
LINE
  5
1C2
330
1F
100
AcDbEntity
  8
0
  6
HIDDEN
 62
     7
370
     0
100
AcDbLine
 10
231.0641272557
 20
104.1993885713
 30
0.0
 11
231.5772368775
 21
103.7136439373
 31
0.0
  0
LINE
  5
1C3
330
1F
100
AcDbEntity
  8
0
  6
HIDDEN
 62
     7
370
     0
100
AcDbLine
 10
236.8290319923
 20
106.860129671
 30
0.0
 11
231.4950941884
 21
106.7119406049
 31
0.0
  0
LINE
  5
1C4
330
1F
100
AcDbEntity
  8
0
  6
HIDDEN
 62
     7
370
     0
100
AcDbLine
 10
231.5784089444
 20
103.7130977195
 30
0.0
 11
236.9123467483
 21
103.8612867856
 31
0.0
  0
LINE
  5
1C5
330
1F
100
AcDbEntity
  8
0
  6
HIDDEN
 62
     7
370
     0
100
AcDbLine
 10
236.9143007772
 20
103.8630780851
 30
0.0
 11
237.0030664039
 21
104.0274501605
 31
0.0
  0
LINE
  5
1C6
330
1F
100
AcDbEntity
  8
0
  6
HIDDEN
 62
     7
370
     0
100
AcDbLine
 10
237.0003108502
 20
106.582867769
 30
0.0
 11
236.8310824632
 21
106.8584496257
 31
0.0
  0
DIMENSION
  5
1C7
330
1F
100
AcDbEntity
  8
VERMASSUNG
100
AcDbDimension
  2
*D1
 10
237.0030664039
 20
162.8336944745
 30
0.0
 11
141.0530664039
 21
162.8336944745
 31
0.0
 70
   160
 71
     2
 42
-1.0
  3
SLDDIMSTYLE0
100
AcDbAlignedDimension
 13
45.1030664039
 23
134.95455865
 33
0.0
 14
237.0030664039
 24
132.9897403819
 34
0.0
100
AcDbRotatedDimension
  0
DIMENSION
  5
1D2
330
1F
100
AcDbEntity
  8
VERMASSUNG
100
AcDbDimension
  2
*D2
 10
237.0030664039
 20
156.8336944745
 30
0.0
 11
157.0030664039
 21
156.8336944745
 31
0.0
 70
   160
 71
     2
 42
-1.0
  3
SLDDIMSTYLE0
100
AcDbAlignedDimension
 13
77.0030664039
 23
146.4638809035
 33
0.0
 14
237.0030664039
 24
132.9897403819
 34
0.0
100
AcDbRotatedDimension
  0
DIMENSION
  5
1DC
330
1F
100
AcDbEntity
  8
VERMASSUNG
100
AcDbDimension
  2
*D3
 10
237.0030664039
 20
150.8336944745
 30
0.0
 11
169.9780664039
 21
150.8336944745
 31
0.0
 70
   160
 71
     2
 42
-1.0
  3
SLDDIMSTYLE0
100
AcDbAlignedDimension
 13
102.9530664039
 23
145.1103212273
 33
0.0
 14
237.0030664039
 24
132.9897403819
 34
0.0
100
AcDbRotatedDimension
  0
DIMENSION
  5
1E6
330
1F
100
AcDbEntity
  8
VERMASSUNG
100
AcDbDimension
  2
*D4
 10
243.1577199695
 20
106.2638809035
 30
0.0
 11
243.1577199695
 21
115.2638809035
 31
0.0
 70
   160
  1
%%c<>
 71
     2
 42
-1.0
  3
SLDDIMSTYLE0
100
AcDbAlignedDimension
 13
236.7030664039
 23
124.2638809035
 33
0.0
 14
236.7030664039
 24
106.2638809035
 34
0.0
 50
90.0
100
AcDbRotatedDimension
  0
DIMENSION
  5
1F1
330
1F
100
AcDbEntity
  8
VERMASSUNG
100
AcDbDimension
  2
*D5
 10
39.8550238237
 20
83.7638809035
 30
0.0
 11
39.8550238237
 21
114.9704469903
 31
0.0
 70
   160
  1
HSK A %%c<>
 71
     2
 42
-1.0
  3
SLDDIMSTYLE0
100
AcDbAlignedDimension
 13
77.3030664039
 23
146.7638809035
 33
0.0
 14
77.3030664039
 24
83.7638809035
 34
0.0
 50
90.0
100
AcDbRotatedDimension
  0
DIMENSION
  5
1FD
330
1F
100
AcDbEntity
  8
VERMASSUNG
100
AcDbDimension
  2
*D6
 10
249.1577199695
 20
91.2638809035
 30
0.0
 11
249.1577199695
 21
115.2638809035
 31
0.0
 70
   160
  1
%%c<>
 71
     2
 42
-1.0
  3
SLDDIMSTYLE0
100
AcDbAlignedDimension
 13
226.2805318014
 23
139.2638809035
 33
0.0
 14
226.2805318014
 24
91.2638809035
 34
0.0
 50
90.0
100
AcDbRotatedDimension
  0
LINE
  5
208
330
1F
100
AcDbEntity
  8
VERMASSUNG
  6
CENTERX2
370
     0
100
AcDbLine
 10
42.871771456
 20
115.2638809035
 30
0.0
 11
238.274154988
 21
115.2638809035
 31
0.0
  0
OLE2FRAME
  5
209
330
1F
100
AcDbEntity
  8
0
100
AcDbOle2Frame
 70
     2
  3
Bitmap Image
 10
13.8511154363
 20
38.264191557
 30
0.0
 11
51.6290888628
 21
31.9806341108
 31
0.0
 71
     2
 72
     0
 73
     1
 90
    12928
310
80552BED0767C5B32B40DDAF6807D121434000000000000000006FFBDDFB85D0
310
4940DDAF6807D121434000000000000000006FFBDDFB85D04940416F4BD60AFB
310
3F4000000000000000002BED0767C5B32B40416F4BD60AFB3F40000000000000
310
0000000000000100000000010000010000000100000000000100000000320000
310
D0CF11E0A1B11AE1000000000000000000000000000000003E000300FEFF0900
310
0600000000000000000000000100000001000000000000000010000002000000
310
01000000FEFFFFFF0000000000000000FFFFFFFFFFFFFFFFFFFFFFFFFFFFFFFF
310
FFFFFFFFFFFFFFFFFFFFFFFFFFFFFFFFFFFFFFFFFFFFFFFFFFFFFFFFFFFFFFFF
310
FFFFFFFFFFFFFFFFFFFFFFFFFFFFFFFFFFFFFFFFFFFFFFFFFFFFFFFFFFFFFFFF
310
FFFFFFFFFFFFFFFFFFFFFFFFFFFFFFFFFFFFFFFFFFFFFFFFFFFFFFFFFFFFFFFF
310
FFFFFFFFFFFFFFFFFFFFFFFFFFFFFFFFFFFFFFFFFFFFFFFFFFFFFFFFFFFFFFFF
310
FFFFFFFFFFFFFFFFFFFFFFFFFFFFFFFFFFFFFFFFFFFFFFFFFFFFFFFFFFFFFFFF
310
FFFFFFFFFFFFFFFFFFFFFFFFFFFFFFFFFFFFFFFFFFFFFFFFFFFFFFFFFFFFFFFF
310
FFFFFFFFFFFFFFFFFFFFFFFFFFFFFFFFFFFFFFFFFFFFFFFFFFFFFFFFFFFFFFFF
310
FFFFFFFFFFFFFFFFFFFFFFFFFFFFFFFFFFFFFFFFFFFFFFFFFFFFFFFFFFFFFFFF
310
FFFFFFFFFFFFFFFFFFFFFFFFFFFFFFFFFFFFFFFFFFFFFFFFFFFFFFFFFFFFFFFF
310
FFFFFFFFFFFFFFFFFFFFFFFFFFFFFFFFFFFFFFFFFFFFFFFFFFFFFFFFFFFFFFFF
310
FFFFFFFFFFFFFFFFFFFFFFFFFFFFFFFFFFFFFFFFFFFFFFFFFFFFFFFFFFFFFFFF
310
FFFFFFFFFFFFFFFFFFFFFFFFFFFFFFFFFFFFFFFFFFFFFFFFFFFFFFFFFFFFFFFF
310
FFFFFFFFFFFFFFFFFFFFFFFFFFFFFFFFFFFFFFFFFFFFFFFFFFFFFFFFFFFFFFFF
310
FDFFFFFFFEFFFFFFFEFFFFFFFEFFFFFF05000000060000000700000008000000
310
090000000A0000000B0000000C0000000D0000000E0000000F00000010000000
310
11000000120000001300000014000000150000001600000017000000FEFFFFFF
310
FFFFFFFFFFFFFFFFFFFFFFFFFFFFFFFFFFFFFFFFFFFFFFFFFFFFFFFFFFFFFFFF
310
FFFFFFFFFFFFFFFFFFFFFFFFFFFFFFFFFFFFFFFFFFFFFFFFFFFFFFFFFFFFFFFF
310
FFFFFFFFFFFFFFFFFFFFFFFFFFFFFFFFFFFFFFFFFFFFFFFFFFFFFFFFFFFFFFFF
310
FFFFFFFFFFFFFFFFFFFFFFFFFFFFFFFFFFFFFFFFFFFFFFFFFFFFFFFFFFFFFFFF
310
FFFFFFFFFFFFFFFFFFFFFFFFFFFFFFFFFFFFFFFFFFFFFFFFFFFFFFFFFFFFFFFF
310
FFFFFFFFFFFFFFFFFFFFFFFFFFFFFFFFFFFFFFFFFFFFFFFFFFFFFFFFFFFFFFFF
310
FFFFFFFFFFFFFFFFFFFFFFFFFFFFFFFFFFFFFFFFFFFFFFFFFFFFFFFFFFFFFFFF
310
FFFFFFFFFFFFFFFFFFFFFFFFFFFFFFFFFFFFFFFFFFFFFFFFFFFFFFFFFFFFFFFF
310
FFFFFFFFFFFFFFFFFFFFFFFFFFFFFFFFFFFFFFFFFFFFFFFFFFFFFFFFFFFFFFFF
310
FFFFFFFFFFFFFFFFFFFFFFFFFFFFFFFFFFFFFFFFFFFFFFFFFFFFFFFFFFFFFFFF
310
FFFFFFFFFFFFFFFFFFFFFFFFFFFFFFFFFFFFFFFFFFFFFFFFFFFFFFFFFFFFFFFF
310
FFFFFFFFFFFFFFFFFFFFFFFFFFFFFFFFFFFFFFFFFFFFFFFFFFFFFFFFFFFFFFFF
310
FFFFFFFFFFFFFFFFFFFFFFFFFFFFFFFFFFFFFFFFFFFFFFFFFFFFFFFFFFFFFFFF
310
52006F006F007400200045006E00740072007900000000000000000000000000
310
0000000000000000000000000000000000000000000000000000000000000000
310
16000500FFFFFFFFFFFFFFFF020000000A00030000000000C000000000000046
310
00000000000000000000000000D1F74CF9FFCB0103000000C000000000000000
310
01004F006C006500000000000000000000000000000000000000000000000000
310
0000000000000000000000000000000000000000000000000000000000000000
310
0A000200FFFFFFFFFFFFFFFFFFFFFFFF00000000000000000000000000000000
310
0000000000000000000000000000000000000000000000001400000000000000
310
010043006F006D0070004F0062006A0000000000000000000000000000000000
310
0000000000000000000000000000000000000000000000000000000000000000
310
120002010100000003000000FFFFFFFF00000000000000000000000000000000
310
0000000000000000000000000000000000000000010000004D00000000000000
310
01004F006C006500310030004E00610074006900760065000000000000000000
310
0000000000000000000000000000000000000000000000000000000000000000
310
1A000200FFFFFFFFFFFFFFFFFFFFFFFF00000000000000000000000000000000
310
0000000000000000000000000000000000000000040000002426000000000000
310
FEFFFFFF02000000FEFFFFFFFFFFFFFFFFFFFFFFFFFFFFFFFFFFFFFFFFFFFFFF
310
FFFFFFFFFFFFFFFFFFFFFFFFFFFFFFFFFFFFFFFFFFFFFFFFFFFFFFFFFFFFFFFF
310
FFFFFFFFFFFFFFFFFFFFFFFFFFFFFFFFFFFFFFFFFFFFFFFFFFFFFFFFFFFFFFFF
310
FFFFFFFFFFFFFFFFFFFFFFFFFFFFFFFFFFFFFFFFFFFFFFFFFFFFFFFFFFFFFFFF
310
FFFFFFFFFFFFFFFFFFFFFFFFFFFFFFFFFFFFFFFFFFFFFFFFFFFFFFFFFFFFFFFF
310
FFFFFFFFFFFFFFFFFFFFFFFFFFFFFFFFFFFFFFFFFFFFFFFFFFFFFFFFFFFFFFFF
310
FFFFFFFFFFFFFFFFFFFFFFFFFFFFFFFFFFFFFFFFFFFFFFFFFFFFFFFFFFFFFFFF
310
FFFFFFFFFFFFFFFFFFFFFFFFFFFFFFFFFFFFFFFFFFFFFFFFFFFFFFFFFFFFFFFF
310
FFFFFFFFFFFFFFFFFFFFFFFFFFFFFFFFFFFFFFFFFFFFFFFFFFFFFFFFFFFFFFFF
310
FFFFFFFFFFFFFFFFFFFFFFFFFFFFFFFFFFFFFFFFFFFFFFFFFFFFFFFFFFFFFFFF
310
FFFFFFFFFFFFFFFFFFFFFFFFFFFFFFFFFFFFFFFFFFFFFFFFFFFFFFFFFFFFFFFF
310
FFFFFFFFFFFFFFFFFFFFFFFFFFFFFFFFFFFFFFFFFFFFFFFFFFFFFFFFFFFFFFFF
310
FFFFFFFFFFFFFFFFFFFFFFFFFFFFFFFFFFFFFFFFFFFFFFFFFFFFFFFFFFFFFFFF
310
FFFFFFFFFFFFFFFFFFFFFFFFFFFFFFFFFFFFFFFFFFFFFFFFFFFFFFFFFFFFFFFF
310
FFFFFFFFFFFFFFFFFFFFFFFFFFFFFFFFFFFFFFFFFFFFFFFFFFFFFFFFFFFFFFFF
310
FFFFFFFFFFFFFFFFFFFFFFFFFFFFFFFFFFFFFFFFFFFFFFFFFFFFFFFFFFFFFFFF
310
010000020000000000000000000000000000000061007200650064005C003100
310
30002E0030005C0044004C004C005300680061007200650064005C003B004300
310
0100FEFF030A0000FFFFFFFF0A00030000000000C00000000000004607000000
310
5042727573680007000000504272757368000700000050427275736800F439B2
310
71000000000000000000000000004100540049002E004100430045005C004300
310
6F00720065002D005300740061007400690063003B0043003A005C0050007200
310
6F006700720061006D002000460069006C006500730020002800780038003600
310
29005C0043006F006D006D006F006E002000460069006C00650073005C004100
310
750074006F006400650073006B0020005300680061007200650064005C003B00
310
43003A005C00500072006F006700720061006D002000460069006C0065007300
310
5C004E006F0072006D0061006E005C004E0070006D005C00420069006E000000
310
43003A005C00500072006F006700720061006D002000460069006C0065007300
310
5C0053006F006C006900640057006F0072006B007300200043006F0072007000
310
5C0053006F006C006900640057006F0072006B00730020002800320029005C00
310
730065007400750070005C0069003300380036005C0073007700610063007400
310
770069007A002E006500780065000000220043003A005C00500072006F006700
310
20260000424D0E260000000000003E00000028000000B40200006E0000000100
310
01000000000000000000130B0000130B00000200000002000000000000FFFFFF
310
FFFFFFFFFFFFFFFFFFFFFFFFFFFFFFFFFFFFFFFFFFFFFFFFFFFFFFFFFFFFFFFF
310
FFFFFFFFFFFFFFFFFFFFFFFFFFFFFFFFFFFFFFFFFFFFFFFFFFFFFFFFFFFFFFFF
310
FFFFFFFFFFFFFFFFFFFFFFFFFFFFFFFFFFFFFFFFFFFFFFFFF000FFFFFFFFFFFF
310
FFFFFFFFFFFFFFFFFFFFFFFFFFFFFFFFFFFFFFFFFFFFFFFFFFFFFFFFFFFFFFFF
310
FFFFFFFFFFFFFFFFFFFFFFFFFFFFFFFFFFFFFFFFFFFFFFFFFFFFFFFFFFFFFFFF
310
FFFFFFFFFFFFFFFFFFFFFFFFFFFFFFFFF000FFFFFFFFFFFFFFFFFFFFFFFFFFFF
310
FFFFFFFFFFFFFFFFFFFFFFFFFFFFFFFFFFFFFFFFFFFFFFFFFFFFFFFFFFFFFFFF
310
FFFFFFFFFFFFFFFFFFFFFFFFFFFFFFFFFFFFFFFFFFFFFFFFFFFFFFFFFFFFFFFF
310
FFFFFFFFFFFFFFFFF000FFFFFFFFFFFFFFFFFFFFFFFFFFFFFFFFFFFFFFFFFFFF
310
FFFFFFFFFFFFFFFFFFFFFFFFFFFFFFFFFFFFFFFFFFFFFFFFFFFFFFFFFFFFFFFF
310
FFFFFFFFFFFFFFFFFFFFFFFFFFFFFFFFFFFFFFFFFFFFFFFFFFFFFFFFFFFFFFFF
310
F000FFFFFFFFFFFFFFFFFFFFFFFFFFFFFFFFFFFFFFFFFFFFFFFFFFFFFFFFFFFF
310
FFFFFFFFFFFFFFFFFFFFFFFFFFFFFFFFFFFFFFFFFFFFFFFFFFFFFFFFFFFFFFFF
310
FFFFFFFFFFFFFFFFFFFFFFFFFFFFFFFFFFFFFFFFFFFFFFFFF000FFFFFFFFFFFF
310
FFFFFFFFFFFFFFFFFFFFFFFFFFFFFFFFFFFFFFFFFFFFFFFFFFFFFFFFFFFFFFFF
310
FFFFFFFFFFFFFFFFFFFFFFFFFFFFFFFFFFFFFFFFFFFFFFFFFFFFFFFFFFFFFFFF
310
FFFFFFFFFFFFFFFFFFFFFFFFFFFFFFFFF000FFFFFFFFFFFFFFFFFFFFFFFFFFFF
310
FFFFFFFFFFFFFFFFFFFFFFFFFFFFFFFFFFFFFFFFFFFFFFFFFFFFFFFFFFFFFFFF
310
FFFFFFFFFFFFFFFFFFFFFFFFFFFFFFFFFFFFFFFFFFFFFFFFFFFFFFFFFFFFFFFF
310
FFFFFFFFFFFFFFFFF000FFFFFFFFFFFFFFFFFFFFFFFFFFFFFFFFFFFFFFFFFFFF
310
FFFFFFFFFFFFFFFFFFFFFFFFFFFFFFFFFFFFFFFFFFFFFFFFFFFFFFFFFFFFFFFF
310
FFFFFFFFFFFFFFFFFFFFFFFFFFFFFFFFFFFFFFFFFFFFFFFFFFFFFFFFFFFFFFFF
310
F000FFFFFFFFFFFFFFFFFFFFFFFFFFFFFFFFFFFFFFFFFFFFFFFFFFFFFFFFFFFF
310
FFFFFFFFFFFFFFFFFFFFFFFFFFFFFFFFFFFFFFFFFFFFFFFFFFFFFFFFFFFFFFFF
310
FFFFFFFFFFFFFFFFFFFFFFFFFFFFFFFFFFFFFFFFFFFFFFFFF000FFFFFFFFFFFF
310
FFFFFFFFFFFFFFFFFFFFFFFFFFFFFFFFFFFFFFFFFFFFFFFFFFFFFFFFFFFFFFFF
310
FFFFFFFFFFFFFFFFFFFFFFFFFFFFFFFFFFFFFFFFFFFFFFFFFFFFFFFFFFFFFFFF
310
FFFFFFFFFFFFFFFFFFFFFFFFFFFFFFFFF000FFFFFFFFFFFFFFFFFFFFFFFFFFFF
310
FFFFFFFFFFFFFFFFFFFFFFFFFFFFFFFFFFFFFFFFFFFFFFFFFFFFFFFFFFFFFFFF
310
FFFFFFFFFFFFFFFFFFFFFFFFFFFFFFFFFFFFFFFFFFFFFFFFFFFFFFFFFFFFFFFF
310
FFFFFFFFFFFFFFFFF000FFFFFFFFFFFFFFFFFFFFFFFFFFFFFFFFFFFFFFFFFFFF
310
FFFFFFFFFFFFFFFFFFFFFFFFFFFFFFFFFFFFFFFFFFFFFFFFFFFFFFFFFFFFFFFF
310
FFFFFFFFFFFFFFFFFFFFFFFFFFFFFFFFFFFFFFFFFFFFFFFFFFFFFFFFFFFFFFFF
310
F000FFFFFFFFFFFFFFFFFFFFFFFFFFFFFFFFFFFFFFFFFFFFFFFFFFFFFFFFFFFF
310
FFFFFFFFFFFFFFFFFFFFFFFFFFFFFFFFFFFFFFFFFFFFFFFFFFFFFFFFFFFFFFFF
310
FFFFFFFFFFFFFFFFFFFFFFFFFFFFFFFFFFFFFFFFFFFFFFFFF000FFFFFFFFFFFF
310
FFFFFFFFFFFFFFFFFFFFFFFFFFFFFFFFFFFFFFFFFFFFFFFFFFFFFFFFFFFFFFFF
310
FFFFFFFFFFFFFFFFFFFFFFFFFFFFFFFFFFFFFFFFFFFFFFFFFFFFFFFFFFFFFFFF
310
FFFFFFFFFFFFFFFFFFFFFFFFFFFFFFFFF000FFFFFFFFFFFFFFFFFFFFFFFFFFFF
310
FFFFFFFFFFFFFFFFFFFFFFFFFFFFFFFFFFFFFFFFFFFFFFFFFFFFFFFFFFFFFFFF
310
FFFFFFFFFFFFFFFFFFFFFFFFFFFFFFFFFFFFFFFFFFFFFFFFFFFFFFFFFFFFFFFF
310
FFFFFFFFFFFFFFFFF000FFFFFFFFFFFFFFFFFFFFFFFFFFFFFFFFFFFFFFFFFFFF
310
FFFFFFFFFFFFFFFFFFFFFFFFFFFFFFFFFFFFFFFFFFFFFFFFFFFFFFFFFFFFFFFF
310
FFFFFFFFFFFFFFFFFFFFFFFFFFFFFFFFFFFFFFFFFFFFFFFFFFFFFFFFFFFFFFFF
310
F000FFFFFFFFFFFFFFFFFFFFFFFFFFFFFFFFFFFFFFFFFFFFFFFFFFFFFFFFFFFF
310
FFFFFFFFFFFFFFFFFFFFFFFFFFFFFFFFFFFFFFFFFFFFFFFFFFFFFFFFFFFFFFFF
310
FFFFFFFFFFFFFFFFFFFFFFFFFFFFFFFFFFFFFFFFFFFFFFFFF000FFFFFFFFFFFF
310
FFFFFFFFFFFFFFFFFFFFFFFFFFFFFFFFFFFFFFFFFFFFFFFFFFFFFFFFFFFFFFFF
310
FFFFFFFFFFFFFFFFFFFFFFFFFFFFFFFFFFFFFFFFFFFFFFFFFFFFFFFFFFFFFFFF
310
FFFFFFFFFFFFFFFFFFFFFFFFFFFFFFFFF000FFFFFFFFFFFFFFFFFFFFFFFFFFFF
310
FFFFFFFFFFFFFFFFFFFFFFFFFFFFFFFFFFFFFFFFFFFFFFFFFFFFFFFFFFFFFFFF
310
FFFFFFFFFFFFFFFFFFFFFFFFFFFFFFFFFFFFFFFFFFFFFFFFFFFFFFFFFFFFFFFF
310
FFFFFFFFFFFFFFFFF000FFFFF80003FFFFFFFFFFFFFFFFFFFFFFFFFFFFFFFFFF
310
FFFFF00007FFFFFFFFFF00007FFFFFF800000000000000007FFFFFFFFFFFFFFF
310
FFFFFFFC001FFFFFFFFFFFFFFC001FFFFFFFFFFFFFFFFFFFFFFFFFFE0007FFFF
310
F000FFFF8000007FFFFFFFF8000FFFFFC0007FFFFF80007FFFFF0000007FFFFF
310
FFF8000007FFFFF800000000000000007FFFFFF0001FFFFFFFFFFFC00001FFFF
310
FFFFFFFFC00001FFFFFFFF000000000003FFFFE000007FFFF000FFFE0000000F
310
FFFFFFF0000FFFFF80007FFFFF80007FFFFC0000001FFFFFFFC0000001FFFFF8
310
00000000000000007FFFFFF0001FFFFFFFFFFE0000003FFFFFFFFFFE0000003F
310
FFFFFF000000000003FFFF0000000FFFF000FFF800000003FFFFFFF00007FFFF
310
80007FFFFF80007FFFF000000007FFFFFF000000003FFFF80000000000000000
310
7FFFFFF0001FFFFFFFFFF80000000FFFFFFFFFF80000000FFFFFFF0000000000
310
03FFFC00000003FFF000FFE000000000FFFFFFF00007FFFF80003FFFFF80007F
310
FFC000000001FFFFFC000000001FFFF800000000000000007FFFFFF0001FFFFF
310
FFFFE000000003FFFFFFFFE000000003FFFFFF000000000003FFF000000000FF
310
F000FF80000000007FFFFFF00007FFFF80003FFFFF80007FFF8000000000FFFF
310
F80000000007FFF800000000000000007FFFFFF0001FFFFFFFFFC000000001FF
310
FFFFFFC000000001FFFFFF000000000003FFC0000000007FF000FF0000000000
310
3FFFFFE00007FFFF00003FFFFF80007FFE00000000003FFFF00000000003FFF8
310
00000000000000007FFFFFF0001FFFFFFFFF8000000000FFFFFFFF8000000000
310
FFFFFF000000000003FF80000000003FF000FE00000000001FFFFFE00003FFFF
310
00003FFFFF80007FFC00000000001FFFE00000000001FFF8000001FFFE000000
310
7FFFFFF0001FFFFFFFFE00000000003FFFFFFE00000000003FFFFF0000000000
310
03FF00000000001FF000FC00000000000FFFFFE00003FFFF00001FFFFF80007F
310
F800000000001FFFC00000000000FFF8000001FFFE0000007FFFFFF0001FFFFF
310
FFFC00000000001FFFFFFC00000000001FFFFF000000000003FE00000000000F
310
F000F8000000000007FFFFE00003FFFF00001FFFFF80007FF800000000000FFF
310
800000000000FFF8000001FFFE0000007FFFFFF0001FFFFFFFF800000000000F
310
FFFFF800000000000FFFFF000000000003FC000000000007F000F80000000000
310
03FFFFC00003FFFE00001FFFFF80007FF0000000000007FF0000000000007FF8
310
000001FFFE0000007FFFFFF0001FFFFFFFF0000000000007FFFFF00000000000
310
07FFFF000000000003F8000000000003F000F0000000000003FFFFC00001FFFE
310
00001FFFFF80007FE0000000000007FE0000000000003FF8000001FFFE000000
310
7FFFFFF0001FFFFFFFF0000000000007FFFFF0000000000007FFFF0000000000
310
03F800001F800003F000E00001FFF00001FFFFC00001FFFE00000FFFFF80007F
310
E00001FFE00003FE00001FFF00003FF8000001FFFE0000007FFFFFF0001FFFFF
310
FFE000003E000003FFFFE000003E000003FFFF000000000003F00001FFF80001
310
F000E00007FFFC0001FFFFC00001FFFE00000FFFFF80007FC0000FFFFC0003FC
310
0000FFFFC0001FF8000001FFFE0000007FFFFFF0001FFFFFFFC00003FFE00001
310
FFFFC00003FFE00001FFFF0001FFFFFFFFF00007FFFE0001F000E0000FFFFF00
310
00FFFF800001FFFC00000FFFFF80007FC0001FFFFE0001FC0001FFFFE0001FF8
310
000001FFFE0000007FFFFFF0001FFFFFFF80000FFFF80000FFFF80000FFFF800
310
00FFFF0003FFFFFFFFE0000FFFFF8000F000C0003FFFFF8000FFFF800000FFFC
310
000007FFFF80007F80003FFFFF0001FC0003FFFFF0001FF8000001FFFE000000
310
7FFFFFF0001FFFFFFF80003FFFFE0000FFFF80003FFFFE0000FFFF0003FFFFFF
310
FFE0003FFFFF8000F000C0003FFFFF8000FFFF800000FFFC000007FFFF80007F
310
80007FFFFF8001F80007FFFFF8000FF8000001FFFE0000007FFFFFF0001FFFFF
310
FF00007FFFFF00007FFF00007FFFFF00007FFF0003FFFFFFFFE0003FFFFFC000
310
F000C0007FFFFFC000FFFF000000FFFC000007FFFF80007F8000FFFFFF8000F8
310
000FFFFFF8000FF8000001FFFE0000007FFFFFF0001FFFFFFF0000FFFFFF8000
310
7FFF0000FFFFFF80007FFF0003FFFFFFFFC0007FFFFFC00070008000FFFFFFC0
310
00FFFF000000FFF8000007FFFF80007F8000FFFFFF8000F8000FFFFFF8000FF8
310
000001FFFE0000007FFFFFF0001FFFFFFE0001FFFFFFC0003FFE0001FFFFFFC0
310
003FFF0003FFFFFFFFC0007FFFFFE00070008000FFFFFFC0007FFF0000007FF8
310
000003FFFF80007F0001FFFFFF8000F8000FFFFFF8000FF8000001FFFE000000
310
7FFFFFF0001FFFFFFE0001FFFFFFC0003FFE0001FFFFFFC0003FFF0003FFFFFF
310
FFC000FFFFFFE00070008000FFFFFFC0007FFF0000007FF8000003FFFF80007F
310
0001FFFFFF8000F8001FFFFFF8000FF8000001FFFE0000007FFFFFF0001FFFFF
310
FE0003FFFFFFE0003FFE0003FFFFFFE0003FFF0003FFFFFFFFC000FFFFFFE000
310
70008000FFFFFFC0007FFE0000007FF8000003FFFF80007F0001FFFFFF8000F0
310
001FFFFFF8000FF8000001FFFE0000007FFFFFF0001FFFFFFC0003FFFFFFE000
310
1FFC0003FFFFFFE0001FFF0003FFFFFFFFC000FFFFFFC00070008000FFFFFF80
310
007FFE0000007FF0000003FFFF80007F0001FFFFFF0000F0001FFFFFF8000FF8
310
000001FFFE0000007FFFFFF0001FFFFFFC0007FFFFFFF0001FFC0007FFFFFFF0
310
001FFF0003FFFFFFFFC000FFFFFFC00070008001FFFFFF0000FFFE0000003FF0
310
000001FFFF80007F0001FFFFFF0000F8001FFFFFF0000FF8000001FFFE000000
310
7FFFFFF0001FFFFFFC0007FFFFFFF0001FFC0007FFFFFFF0001FFF0003FFFFFF
310
FFC001FFFFFF80007000FFFFFFFFFE0000FFFE0008003FF0008001FFFF80007F
310
FFFFFFFFFC0000FFFFFFFFFFE0000FF8000001FFFE0000007FFFFFF0001FFFFF
310
F8000FFFFFFFF8000FF8000FFFFFFFF8000FFF0003FFFFFFFFFFFFFFFFFF0000
310
7000FFFFFFFFFC0000FFFC0008003FF0008001FFFF80007FFFFFFFFFF80001FF
310
FFFFFFFF80000FF8000001FFFE0000007FFFFFF0001FFFFFF8000FFFFFFFF800
310
0FF8000FFFFFFFF8000FFF0003FFFFFFFFFFFFFFFFFE0000F000FFFFFFFFE000
310
00FFFC000C003FE000C001FFFF80007FFFFFFFFFC00001FFFFFFFFFE00001FF8
310
000001FFFE0000007FFFFFF0001FFFFFF8000FFFFFFFF8000FF8000FFFFFFFF8
310
000FFF0003FFFFFFFFFFFFFFFFF00000F000FFFFFFFE000001FFFC000C001FE0
310
00C000FFFF80007FFFFFFFFE000001FFFFFFFFE000001FF80FFFFFFFFFFFFFC0
310
7FFFFFF0001FFFFFF8000FFFFFFFF8000FF8000FFFFFFFF8000FFF0003FFFFFF
310
FFFFFFFFFF800000F000FFFFFFC0000001FFFC001C001FE001C000FFFF80007F
310
FFFFFF80000003FFFFFFF80000001FF80FFFFFFFFFFFFFC07FFFFFF0001FFFFF
310
F8001FFFFFFFFC000FF8001FFFFFFFFC000FFF0003FFFFFFFFFFFFFFF0000001
310
F000FFFFF800000001FFF8001C001FE001C000FFFF80007FFFFFF800000003FF
310
FFFF800000003FF80FFFFFFFFFFFFFC07FFFFFF0001FFFFFF8001FFFFFFFFC00
310
0FF8001FFFFFFFFC000FFF0003FFFFFFFFFFFFFE00000001F000FFFFC0000000
310
03FFF8001E001FC001E000FFFF80007FFFFF8000000007FFFFFC000000003FF8
310
0FFFFFFFFFFFFFC07FFFFFF0001FFFFFF8001FFFFFFFFC000FF8001FFFFFFFFC
310
000FFF0003FFFFFFFFFFFFE000000003F000FFFE0000000007FFF8001E000FC0
310
01E0007FFF80007FFFFE0000000007FFFFE0000000007FF80FFFFFFFFFFFFFC0
310
7FFFFFF0001FFFFFF0001FFFFFFFFC0007F0001FFFFFFFFC0007FF0003FFFFFF
310
FFFFFF0000000003F000FFF80000000007FFF8001E000FC003E0007FFF80007F
310
FFF0000000000FFFFF8000000000FFF80FFFFFFFFFFFFFC07FFFFFF0001FFFFF
310
F0001FFFFFFFFC0007F0001FFFFFFFFC0007FF0003FFFFFFFFFFFC0000000007
310
F000FFE0000000000FFFF0003E000FC003E0007FFF80007FFFC0000000001FFF
310
FE0000000001FFF80FFFFFFFFFFFFFC07FFFFFF0001FFFFFF0001FFFFFFFFC00
310
07F0001FFFFFFFFC0007FF0003FFFFFFFFFFF0000000000FF000FFC000000000
310
1FFFF0003F000F8003F0003FFF80007FFF80000000003FFFF80000000003FFF8
310
0FFFFFFFFFFFFFC07FFFFFF0001FFFFFF0001FFFFFFFFC0007F0001FFFFFFFFC
310
0007FF0003FFFFFFFFFFE0000000001FF000FF00000000007FFFF0003F000780
310
03F0003FFF80007FFF00000000007FFFF00000000007FFF80FFFFFFFFFFFFFC0
310
7FFFFFF0001FFFFFF0001FFFFFFFFC0007F0001FFFFFFFFC0007FF0003FFFFFF
310
FFFF80000000007FF000FE0000000000FFFFE0003F00078007F0003FFF80007F
310
FE0000000001FFFFE0000000001FFFF80FFFFFFFFFFFFFC07FFFFFF0001FFFFF
310
F0001FFFFFFFFC0007F0001FFFFFFFFC0007FF0003FFFFFFFFFF0000000000FF
310
F000FC0000000003FFFFE0007F00078007F0003FFF80007FFC0000000007FFFF
310
C0000000007FFFF80FFFFFFFFFFFFFC07FFFFFF0001FFFFFF8001FFFFFFFFC00
310
0FF8001FFFFFFFFC000FFF0003FFFFFFFFFE0000000003FFF000FC000000000F
310
FFFFE0007F80070007F8001FFF80007FF8000000001FFFFF8000000001FFFFF8
310
0FFFFFFFFFFFFFC07FFFFFF0001FFFFFF8001FFFFFFFFC000FF8001FFFFFFFFC
310
000FFF0003FFFFFFFFFC000000000FFFF000F8000000007FFFFFE0007F800700
310
07F8001FFF80007FF000000000FFFFFF800000000FFFFFF80FFFFFFFFFFFFFC0
310
7FFFFFF0001FFFFFF8000FFFFFFFF8000FF8000FFFFFFFF8000FFF0003FFFFFF
310
FFFC000000007FFFF000F800000007FFFFFFC0007F8003000FF8001FFF80007F
310
F000000007FFFFFF000000007FFFFFF80FFFFFFFFFFFFFC07FFFFFF0001FFFFF
310
F8000FFFFFFFF8000FF8000FFFFFFFF8000FFF0003FFFFFFFFF80000000FFFFF
310
F000F0000000FFFFFFFFC000FF8003000FF8001FFF80007FE0000000FFFFFFFF
310
0000000FFFFFFFF8000001FFFE0000007FFFFFF0001FFFFFF8000FFFFFFFF800
310
0FF8000FFFFFFFF8000FFF0003FFFFFFFFF8000000FFFFFFF000F000000FFFFF
310
FFFFC000FFC002000FF8000FFF80007FE000001FFFFFFFFE000001FFFFFFFFF8
310
000001FFFE0000007FFFFFF0001FFFFFF8000FFFFFFFF8000FF8000FFFFFFFF8
310
000FFF0003FFFFFFFFF000001FFFFFFFF000E00000FFFFFFFFFFC000FFC00200
310
0FFC000FFF80007FE00001FFFFFFFFFE00001FFFFFFFFFF8000001FFFE000000
310
7FFFFFF0001FFFFFFC000FFFFFFFF8001FFC000FFFFFFFF8001FFF0003FFFFFF
310
FFF00001FFFFFFFFF000E00007FFFFFFFFFF8000FFC000001FFC000FFF80007F
310
C0000FFFFFFFFFFE0000FFFFFFFFFFF8000001FFFE0000007FFFFFF0001FFFFF
310
FC0007FFFFFFF0001FFC0007FFFFFFF0001FFF0003FFFFFFFFF00007FFFFFFFF
310
F000E0001FFFFFFFFFFF8000FFC000001FFC000FFF80007FC0003FFFFFFFFFFE
310
0001FFFFFFFFFFF8000001FFFE0000007FFFFFF0001FFFFFFC0007FFFFFFF000
310
1FFC0007FFFFFFF0001FFF0003FFFFFFFFF0001FFFFFFFFFF000E0003FFFFF00
310
03FF8001FFE000001FFC0007FF80007FC0007FFFFF0007FC0003FFFFF0003FF8
310
000001FFFE0000007FFFFFF0001FFFFFFC0003FFFFFFE0001FFC0003FFFFFFE0
310
001FFF0003FFFFFFFFF0003FFFFFFFFFF000E0003FFFFF0001FF8001FFE00000
310
1FFE0007FF80007FC0007FFFFE0003FC0007FFFFE0003FF8000001FFFE000000
310
7FFFFFF0001FFFFFFE0003FFFFFFE0003FFE0003FFFFFFE0003FFF0003FFFFFF
310
FFF0003FFFFF8001F000E0003FFFFF0001FF0001FFE000001FFE0007FF80007F
310
C0007FFFFE0003FC0007FFFFE0003FF8000001FFFE0000007FFFFFF0001FFFFF
310
FE0001FFFFFFC0003FFE0001FFFFFFC0003FFF0003FFFFFFFFF0003FFFFF0001
310
F000E0003FFFFF0003FF0001FFE000003FFE0007FF80007FC0007FFFFE0003FC
310
0007FFFFE0003FF8000001FFFE0000007FFFFFF0001FFFFFFF0001FFFFFFC000
310
7FFF0001FFFFFFC0007FFF0003FFFFFFFFF0003FFFFF0001F000E0003FFFFE00
310
03FF0003FFF000003FFE0003FF80007FC0007FFFFC0003FE0007FFFFE0003FF8
310
000001FFFE0000007FFFFFF0001FFFFFFF0000FFFFFF80007FFF0000FFFFFF80
310
007FFF0003FFFFFFFFF0003FFFFF0001F000E0003FFFFE0003FF0003FFF00000
310
3FFF0003FF80007FC0007FFFFC0007FE0007FFFFC0003FF8000001FFFE000000
310
7FFFFFF0001FFFFFFF80007FFFFF0000FFFF80007FFFFF0000FFFF0003FFFFFF
310
FFF0003FFFFF0003F000E0003FFFFC0003FE0003FFF000003FFF0003FF80007F
310
E0003FFFF80007FE0003FFFFC0007FF8000001FFFE0000007FFFFFF0001FFFFF
310
FF80003FFFFE0000FFFF80003FFFFE0000FFFF0003FFFFFFFFF0001FFFFE0003
310
F000F0001FFFF80003FE0003FFF000007FFF0001FF80007FE0003FFFF00007FE
310
0001FFFF80007FF8000001FFFE0000007FFFFFF0001FFFFFFFC0000FFFF80001
310
FFFFC0000FFFF80001FFFF0003FFFFFFFFF0001FFFFC0003F000F0000FFFF000
310
07FE0007FFF800007FFF0001FF80007FE0001FFFE00007FF0000FFFE00007FF8
310
000001FFFE0000007FFFFFF0001FFFFFFFC00003FFE00001FFFFC00003FFE000
310
01FFFF0003FFFFFFFFF8000FFFF80003F000F00003FFC00007FC0007FFF80000
310
7FFF8001FF80007FF00007FF80000FFF00007FF80000FFF8000001FFFE000000
310
7F80000000000001FFE000003E000003FFFFE000003E000003FFFF0003FFFFFF
310
FFF80003FFE00007F000F800000000000FFC0007FFF800007FFF8001FF80007F
310
F000000000000FFF000000000000FFF8000001FFFE0000007F80000000000001
310
FFF0000000000007FFFFF0000000000007FFFF0003FFFFFFFFFC00007E000007
310
F000F800000000000FFC0007FFF80000FFFF8000FF80007FF800000000001FFF
310
800000000001FFF8000001FFFE0000007F80000000000001FFF800000000000F
310
FFFFF800000000000FFFFF0003FFFFFFFFFC00000000000FF000FC0000000000
310
1FFC0007FFFC0000FFFF8000FF80007FF800000000003FFFC00000000001FFF8
310
000001FFFE0000007F80000000000001FFF800000000000FFFFFF80000000000
310
0FFFFF0003FFFFFFFFFE00000000001FF000FE00000000003FF8000FFFFC0000
310
FFFF8000FF80007FFC00000000003FFFC00000000003FFF8000001FFFE000000
310
7F80000000000001FFFC00000000001FFFFFFC00000000001FFFFF0003FFFFFF
310
FFFF00000000001FF000FF00000000003FF8000FFFFC0000FFFFC000FF80007F
310
FE00000000007FFFE00000000007FFF8000001FFFE0000007F80000000000001
310
FFFE00000000003FFFFFFE00000000003FFFFF0003FFFFFFFFFF80000000003F
310
F000FF80000000007FF8000FFFFC0001FFFFC0007F80007FFF0000000000FFFF
310
F0000000000FFFF800000000000000007F80000000000001FFFF8000000000FF
310
FFFFFF8000000000FFFFFF0003FFFFFFFFFFC0000000007FF000FFC000000000
310
FFF8000FFFFE0001FFFFC0007F80007FFF8000000001FFFFF8000000001FFFF8
310
00000000000000007F80000000000001FFFFC000000001FFFFFFFFC000000001
310
FFFFFF0003FFFFFFFFFFE000000000FFF000FFE000000003FFF0001FFFFE0001
310
FFFFC0007F80007FFFC000000007FFFFFE000000003FFFF80000000000000000
310
7F80000000000001FFFFE000000003FFFFFFFFE000000003FFFFFF0003FFFFFF
310
FFFFF000000003FFF000FFF80000000FFFF0001FFFFE0001FFFFE0007F80007F
310
FFF00000000FFFFFFF00000000FFFFF800000000000000007F80000000000001
310
FFFFF80000000FFFFFFFFFF80000000FFFFFFF0003FFFFFFFFFFFC0000000FFF
310
F000FFFE0000003FFFF0001FFFFE0003FFFFE0003F80007FFFFC0000003FFFFF
310
FFC0000003FFFFF800000000000000007F80000000000001FFFFFE0000003FFF
310
FFFFFFFE0000003FFFFFFF0003FFFFFFFFFFFF0000003FFFF000FFFF800000FF
310
FFF0001FFFFF0003FFFFE0003F80007FFFFF000001FFFFFFFFF800001FFFFFF8
310
00000000000000007F80000000000001FFFFFFC00001FFFFFFFFFFFFC00001FF
310
FFFFFF0003FFFFFFFFFFFFC00000FFFFF000FFFFF8000FFFFFFFFFFFFFFFFFFF
310
FFFFFFFFFFFFFFFFFFFFF0001FFFFFFFFFFF0000FFFFFFF80000000000000000
310
7FFFFFFFFFFFFFFFFFFFFFFC001FFFFFFFFFFFFFFC001FFFFFFFFFFFFFFFFFFF
310
FFFFFFFC001FFFFFF000FFFFFFFFFFFFFFFFFFFFFFFFFFFFFFFFFFFFFFFFFFFF
310
FFFFFFFFFFFFFFFFFFFFFFFFFFFFFFFFFFFFFFFFFFFFFFFFFFFFFFFFFFFFFFFF
310
FFFFFFFFFFFFFFFFFFFFFFFFFFFFFFFFFFFFFFFFFFFFFFFFFFFFFFFFFFFFFFFF
310
F000FFFFFFFFFFFFFFFFFFFFFFFFFFFFFFFFFFFFFFFFFFFFFFFFFFFFFFFFFFFF
310
FFFFFFFFFFFFFFFFFFFFFFFFFFFFFFFFFFFFFFFFFFFFFFFFFFFFFFFFFFFFFFFF
310
FFFFFFFFFFFFFFFFFFFFFFFFFFFFFFFFFFFFFFFFFFFFFFFFF000FFFFFFFFFFFF
310
FFFFFFFFFFFFFFFFFFFFFFFFFFFFFFFFFFFFFFFFFFFFFFFFFFFFFFFFFFFFFFFF
310
FFFFFFFFFFFFFFFFFFFFFFFFFFFFFFFFFFFFFFFFFFFFFFFFFFFFFFFFFFFFFFFF
310
FFFFFFFFFFFFFFFFFFFFFFFFFFFFFFFFF000FFFFFFFFFFFFFFFFFFFFFFFFFFFF
310
FFFFFFFFFFFFFFFFFFFFFFFFFFFFFFFFFFFFFFFFFFFFFFFFFFFFFFFFFFFFFFFF
310
FFFFFFFFFFFFFFFFFFFFFFFFFFFFFFFFFFFFFFFFFFFFFFFFFFFFFFFFFFFFFFFF
310
FFFFFFFFFFFFFFFFF000FFFFFFFFFFFFFFFFFFFFFFFFFFFFFFFFFFFFFFFFFFFF
310
FFFFFFFFFFFFFFFFFFFFFFFFFFFFFFFFFFFFFFFFFFFFFFFFFFFFFFFFFFFFFFFF
310
FFFFFFFFFFFFFFFFFFFFFFFFFFFFFFFFFFFFFFFFFFFFFFFFFFFFFFFFFFFFFFFF
310
F000FFFFFFFFFFFFFFFFFFFFFFFFFFFFFFFFFFFFFFFFFFFFFFFFFFFFFFFFFFFF
310
FFFFFFFFFFFFFFFFFFFFFFFFFFFFFFFFFFFFFFFFFFFFFFFFFFFFFFFFFFFFFFFF
310
FFFFFFFFFFFFFFFFFFFFFFFFFFFFFFFFFFFFFFFFFFFFFFFFF000FFFFFFFFFFFF
310
FFFFFFFFFFFFFFFFFFFFFFFFFFFFFFFFFFFFFFFFFFFFFFFFFFFFFFFFFFFFFFFF
310
FFFFFFFFFFFFFFFFFFFFFFFFFFFFFFFFFFFFFFFFFFFFFFFFFFFFFFFFFFFFFFFF
310
FFFFFFFFFFFFFFFFFFFFFFFFFFFFFFFFF000FFFFFFFFFFFFFFFFFFFFFFFFFFFF
310
FFFFFFFFFFFFFFFFFFFFFFFFFFFFFFFFFFFFFFFFFFFFFFFFFFFFFFFFFFFFFFFF
310
FFFFFFFFFFFFFFFFFFFFFFFFFFFFFFFFFFFFFFFFFFFFFFFFFFFFFFFFFFFFFFFF
310
FFFFFFFFFFFFFFFFF000FFFFFFFFFFFFFFFFFFFFFFFFFFFFFFFFFFFFFFFFFFFF
310
FFFFFFFFFFFFFFFFFFFFFFFFFFFFFFFFFFFFFFFFFFFFFFFFFFFFFFFFFFFFFFFF
310
FFFFFFFFFFFFFFFFFFFFFFFFFFFFFFFFFFFFFFFFFFFFFFFFFFFFFFFFFFFFFFFF
310
F000FFFFFFFFFFFFFFFFFFFFFFFFFFFFFFFFFFFFFFFFFFFFFFFFFFFFFFFFFFFF
310
FFFFFFFFFFFFFFFFFFFFFFFFFFFFFFFFFFFFFFFFFFFFFFFFFFFFFFFFFFFFFFFF
310
FFFFFFFFFFFFFFFFFFFFFFFFFFFFFFFFFFFFFFFFFFFFFFFFF000FFFFFFFFFFFF
310
FFFFFFFFFFFFFFFFFFFFFFFFFFFFFFFFFFFFFFFFFFFFFFFFFFFFFFFFFFFFFFFF
310
FFFFFFFFFFFFFFFFFFFFFFFFFFFFFFFFFFFFFFFFFFFFFFFFFFFFFFFFFFFFFFFF
310
FFFFFFFFFFFFFFFFFFFFFFFFFFFFFFFFF000FFFFFFFFFFFFFFFFFFFFFFFFFFFF
310
FFFFFFFFFFFFFFFFFFFFFFFFFFFFFFFFFFFFFFFFFFFFFFFFFFFFFFFFFFFFFFFF
310
FFFFFFFFFFFFFFFFFFFFFFFFFFFFFFFFFFFFFFFFFFFFFFFFFFFFFFFFFFFFFFFF
310
FFFFFFFFFFFFFFFFF000FFFFFFFFFFFFFFFFFFFFFFFFFFFFFFFFFFFFFFFFFFFF
310
FFFFFFFFFFFFFFFFFFFFFFFFFFFFFFFFFFFFFFFFFFFFFFFFFFFFFFFFFFFFFFFF
310
FFFFFFFFFFFFFFFFFFFFFFFFFFFFFFFFFFFFFFFFFFFFFFFFFFFFFFFFFFFFFFFF
310
F000FFFFFFFFFFFFFFFFFFFFFFFFFFFFFFFFFFFFFFFFFFFFFFFFFFFFFFFFFFFF
310
FFFFFFFFFFFFFFFFFFFFFFFFFFFFFFFFFFFFFFFFFFFFFFFFFFFFFFFFFFFFFFFF
310
FFFFFFFFFFFFFFFFFFFFFFFFFFFFFFFFFFFFFFFFFFFFFFFFF000FFFFFFFFFFFF
310
FFFFFFFFFFFFFFFFFFFFFFFFFFFFFFFFFFFFFFFFFFFFFFFFFFFFFFFFFFFFFFFF
310
FFFFFFFFFFFFFFFFFFFFFFFFFFFFFFFFFFFFFFFFFFFFFFFFFFFFFFFFFFFFFFFF
310
FFFFFFFFFFFFFFFFFFFFFFFFFFFFFFFFF000FFFFFFFFFFFFFFFFFFFFFFFFFFFF
310
FFFFFFFFFFFFFFFFFFFFFFFFFFFFFFFFFFFFFFFFFFFFFFFFFFFFFFFFFFFFFFFF
310
FFFFFFFFFFFFFFFFFFFFFFFFFFFFFFFFFFFFFFFFFFFFFFFFFFFFFFFFFFFFFFFF
310
FFFFFFFFFFFFFFFFF000FFFFFFFFFFFFFFFFFFFFFFFFFFFFFFFFFFFFFFFFFFFF
310
FFFFFFFFFFFFFFFFFFFFFFFFFFFFFFFFFFFFFFFFFFFFFFFFFFFFFFFFFFFFFFFF
310
FFFFFFFFFFFFFFFFFFFFFFFFFFFFFFFFFFFFFFFFFFFFFFFFFFFFFFFFFFFFFFFF
310
F000FFFFFFFFFFFFFFFFFFFFFFFFFFFFFFFFFFFFFFFFFFFFFFFFFFFFFFFFFFFF
310
FFFFFFFFFFFFFFFFFFFFFFFFFFFFFFFFFFFFFFFFFFFFFFFFFFFFFFFFFFFFFFFF
310
FFFFFFFFFFFFFFFFFFFFFFFFFFFFFFFFFFFFFFFFFFFFFFFFF000FFFFFFFFFFFF
310
FFFFFFFFFFFFFFFFFFFFFFFFFFFFFFFFFFFFFFFFFFFFFFFFFFFFFFFFFFFFFFFF
310
FFFFFFFFFFFFFFFFFFFFFFFFFFFFFFFFFFFFFFFFFFFFFFFFFFFFFFFFFFFFFFFF
310
FFFFFFFFFFFFFFFFFFFFFFFFFFFFFFFFF000FFFFFFFFFFFFFFFFFFFFFFFFFFFF
310
FFFFFFFFFFFFFFFFFFFFFFFFFFFFFFFFFFFFFFFFFFFFFFFFFFFFFFFFFFFFFFFF
310
FFFFFFFFFFFFFFFFFFFFFFFFFFFFFFFFFFFFFFFFFFFFFFFFFFFFFFFFFFFFFFFF
310
FFFFFFFFFFFFFFFFF000FFFFFFFFFFFFFFFFFFFFFFFFFFFFFFFFFFFFFFFFFFFF
310
FFFFFFFFFFFFFFFFFFFFFFFFFFFFFFFFFFFFFFFFFFFFFFFFFFFFFFFFFFFFFFFF
310
FFFFFFFFFFFFFFFFFFFFFFFFFFFFFFFFFFFFFFFFFFFFFFFFFFFFFFFFFFFFFFFF
310
F000FFFFFFFFFFFFFFFFFFFFFFFFFFFFFFFFFFFFFFFFFFFFFFFFFFFFFFFFFFFF
310
FFFFFFFFFFFFFFFFFFFFFFFFFFFFFFFFFFFFFFFFFFFFFFFFFFFFFFFFFFFFFFFF
310
FFFFFFFFFFFFFFFFFFFFFFFFFFFFFFFFFFFFFFFFFFFFFFFFF000FFFFFFFFFFFF
310
FFFFFFFFFFFFFFFFFFFFFFFFFFFFFFFFFFFFFFFFFFFFFFFFFFFFFFFFFFFFFFFF
310
FFFFFFFFFFFFFFFFFFFFFFFFFFFFFFFFFFFFFFFFFFFFFFFFFFFFFFFFFFFFFFFF
310
FFFFFFFFFFFFFFFFFFFFFFFFFFFFFFFFF0000000000000000000000000000000
310
0000000074410E3E1C97833DDBC30D3E46F3923D66320E3E19D7933D00B00E3E
310
4359CA3D3F5BE33DE083403E3F5BE33DE083403EB2C3F43D4359CA3DB2C3F43D
310
46F3923D1E720A3E46F3923D9F4C0E3E1D97833DCAC30D3E1D97833D20820A3E
310
46F3923DA785BB3D46F3923D4D3AC33D1D97833D041AC33D1D97833D5E97BC3D
310
A81C1C3E8FE8BA3D83161B3E4117BC3DCBF7153E4117BC3DA6F1143E8FE8BA3D
310
A6F1143E319B0E3ECBF7153ED8030E3E83161B3ED8030E3EA81C1C3E319B0E3E
310
CBF7153ED8030E3ECBF7153E7651023E83161B3E7651023E83161B3ED8030E3E
310
CBF7153E7651023E2787183EAFC7003E2787183EAFC7003E83161B3E7651023E
310
83161B3E037CD33D2787183E938FD63D2787183E938FD63DCBF7153E037CD33D
310
83161B3E4117BC3D83161B3E037CD33DCBF7153E037CD33DCBF7153E4117BC3D
310
6119443EDD5BF93D6119443E878E003EF306413EBD45013EF306413EFF86F93D
310
F306413EEB56023EF306413EA7C9013EC7CD433E7F30003EEFB0723E0BC6FD3D
310
EFB0723EA272013E8DCD433E1EC0023EFF0D413E50F0013EFCCE403E9B8D013E
310
FCCE403E9B8D013EDD0D413EE11D013ED483723E5646FD3D31B0723ED2D6FD3D
310
EFB0723E4389013EA599723E63B4013E2199723EDBB4013EDF226D3EB4DB013E
  1
OLE
  0
ENDSEC
  0
SECTION
  2
OBJECTS
  0
DICTIONARY
  5
C
330
0
100
AcDbDictionary
281
     1
  3
ACAD_GROUP
350
D
  3
ACAD_LAYOUT
350
1A
  3
ACAD_MLEADERSTYLE
350
20B
  3
ACAD_MLINESTYLE
350
17
  3
ACAD_PLOTSETTINGS
350
19
  3
ACAD_PLOTSTYLENAME
350
E
  3
ACAD_TABLESTYLE
350
20A
  3
ACAD_VISUALSTYLE
350
2A
  3
AcDbVariableDictionary
350
20C
  0
DICTIONARY
  5
D
102
{ACAD_REACTORS
330
C
102
}
330
C
100
AcDbDictionary
281
     1
  0
DICTIONARY
  5
1A
102
{ACAD_REACTORS
330
C
102
}
330
C
100
AcDbDictionary
281
     1
  3
Layout1
350
1E
  3
Layout2
350
26
  3
Model
350
22
  0
DICTIONARY
  5
20B
102
{ACAD_REACTORS
330
C
102
}
330
C
100
AcDbDictionary
281
     1
  0
DICTIONARY
  5
17
102
{ACAD_REACTORS
330
C
102
}
330
C
100
AcDbDictionary
281
     1
  3
Standard
350
18
  0
DICTIONARY
  5
19
102
{ACAD_REACTORS
330
C
102
}
330
C
100
AcDbDictionary
281
     1
  0
ACDBDICTIONARYWDFLT
  5
E
102
{ACAD_REACTORS
330
C
102
}
330
C
100
AcDbDictionary
281
     1
  3
Normal
350
F
100
AcDbDictionaryWithDefault
340
F
  0
DICTIONARY
  5
20A
102
{ACAD_REACTORS
330
C
102
}
330
C
100
AcDbDictionary
281
     1
  0
DICTIONARY
  5
2A
102
{ACAD_REACTORS
330
C
102
}
330
C
100
AcDbDictionary
281
     1
  3
2dWireframe
350
2F
  3
3D Hidden
350
31
  3
3dWireframe
350
30
  3
Basic
350
32
  3
Brighten
350
36
  3
ColorChange
350
3A
  3
Conceptual
350
34
  3
Dim
350
35
  3
Facepattern
350
39
  3
Flat
350
2B
  3
FlatWithEdges
350
2C
  3
Gouraud
350
2D
  3
GouraudWithEdges
350
2E
  3
Linepattern
350
38
  3
Realistic
350
33
  3
Thicken
350
37
  0
DICTIONARY
  5
20C
102
{ACAD_REACTORS
330
C
102
}
330
C
100
AcDbDictionary
281
     1
  3
PSOLHEIGHT
350
20E
  3
PSOLWIDTH
350
20D
  0
LAYOUT
  5
1E
102
{ACAD_REACTORS
330
1A
102
}
330
1A
100
AcDbPlotSettings
  1

  2
none_device
  4

  6

 40
0.0
 41
0.0
 42
0.0
 43
0.0
 44
0.0
 45
0.0
 46
0.0
 47
0.0
 48
0.0
 49
0.0
140
0.0
141
0.0
142
1.0
143
1.0
 70
   688
 72
     0
 73
     0
 74
     5
  7

 75
    16
147
1.0
148
0.0
149
0.0
100
AcDbLayout
  1
Layout1
 70
     1
 71
     1
 10
0.0
 20
0.0
 11
420.0
 21
297.0
 12
0.0
 22
0.0
 32
0.0
 14
1.0000000000E+20
 24
1.0000000000E+20
 34
1.0000000000E+20
 15
-1.0000000000E+20
 25
-1.0000000000E+20
 35
-1.0000000000E+20
146
0.0
 13
0.0
 23
0.0
 33
0.0
 16
1.0
 26
0.0
 36
0.0
 17
0.0
 27
1.0
 37
0.0
 76
     0
330
1B
  0
LAYOUT
  5
26
102
{ACAD_REACTORS
330
1A
102
}
330
1A
100
AcDbPlotSettings
  1

  2
none_device
  4

  6

 40
0.0
 41
0.0
 42
0.0
 43
0.0
 44
0.0
 45
0.0
 46
0.0
 47
0.0
 48
0.0
 49
0.0
140
0.0
141
0.0
142
1.0
143
1.0
 70
   688
 72
     0
 73
     0
 74
     5
  7

 75
    16
147
1.0
148
0.0
149
0.0
100
AcDbLayout
  1
Layout2
 70
     1
 71
     2
 10
0.0
 20
0.0
 11
0.0
 21
0.0
 12
0.0
 22
0.0
 32
0.0
 14
0.0
 24
0.0
 34
0.0
 15
0.0
 25
0.0
 35
0.0
146
0.0
 13
0.0
 23
0.0
 33
0.0
 16
1.0
 26
0.0
 36
0.0
 17
0.0
 27
1.0
 37
0.0
 76
     0
330
23
  0
LAYOUT
  5
22
102
{ACAD_REACTORS
330
1A
102
}
330
1A
100
AcDbPlotSettings
  1

  2
none_device
  4

  6

 40
0.0
 41
0.0
 42
0.0
 43
0.0
 44
0.0
 45
0.0
 46
0.0
 47
0.0
 48
0.0
 49
0.0
140
0.0
141
0.0
142
1.0
143
1.0
 70
  1712
 72
     0
 73
     0
 74
     0
  7

 75
     0
147
1.0
148
0.0
149
0.0
100
AcDbLayout
  1
Model
 70
     1
 71
     0
 10
0.0
 20
0.0
 11
297.0
 21
210.0
 12
0.0
 22
0.0
 32
0.0
 14
0.0
 24
0.0
 34
0.0
 15
297.0
 25
210.0
 35
0.0
146
0.0
 13
0.0
 23
0.0
 33
0.0
 16
1.0
 26
0.0
 36
0.0
 17
0.0
 27
1.0
 37
0.0
 76
     0
330
1F
331
29
  0
MLINESTYLE
  5
18
102
{ACAD_REACTORS
330
17
102
}
330
17
100
AcDbMlineStyle
  2
Standard
 70
     0
  3

 62
   256
 51
90.0
 52
90.0
 71
     2
 49
0.5
 62
   256
  6
BYLAYER
 49
-0.5
 62
   256
  6
BYLAYER
  0
ACDBPLACEHOLDER
  5
F
102
{ACAD_REACTORS
330
E
102
}
330
E
  0
VISUALSTYLE
  5
2F
102
{ACAD_REACTORS
330
2A
102
}
330
2A
100
AcDbVisualStyle
  2
2dWireframe
 70
     4
 71
     0
 72
     2
 73
     0
 90
        0
 40
-0.6
 41
-30.0
 62
     5
 63
     7
 74
     1
 91
        4
 64
     7
 65
   257
 75
     1
175
     1
 42
1.0
 92
        0
 66
   257
 43
1.0
 76
     1
 77
     6
 78
     2
 67
     7
 79
     5
170
     0
171
     0
290
     0
174
     0
 93
        1
 44
0.0
173
     0
291
     0
 45
0.0
1001
ACAD
1000
AcDbSavedByObjectVersion
1070
     0
  0
VISUALSTYLE
  5
31
102
{ACAD_REACTORS
330
2A
102
}
330
2A
100
AcDbVisualStyle
  2
3D Hidden
 70
     6
 71
     1
 72
     2
 73
     2
 90
        0
 40
-0.6
 41
-30.0
 62
     5
 63
     7
 74
     2
 91
        2
 64
     7
 65
   257
 75
     2
175
     1
 42
40.0
 92
        0
 66
   257
 43
1.0
 76
     1
 77
     6
 78
     2
 67
     7
 79
     3
170
     0
171
     0
290
     0
174
     0
 93
        1
 44
0.0
173
     0
291
     0
 45
0.0
1001
ACAD
1000
AcDbSavedByObjectVersion
1070
     0
  0
VISUALSTYLE
  5
30
102
{ACAD_REACTORS
330
2A
102
}
330
2A
100
AcDbVisualStyle
  2
3dWireframe
 70
     5
 71
     0
 72
     2
 73
     0
 90
        0
 40
-0.6
 41
-30.0
 62
     5
 63
     7
 74
     1
 91
        4
 64
     7
 65
   257
 75
     1
175
     1
 42
1.0
 92
        0
 66
   257
 43
1.0
 76
     1
 77
     6
 78
     2
 67
     7
 79
     5
170
     0
171
     0
290
     0
174
     0
 93
        1
 44
0.0
173
     0
291
     0
 45
0.0
1001
ACAD
1000
AcDbSavedByObjectVersion
1070
     0
  0
VISUALSTYLE
  5
32
102
{ACAD_REACTORS
330
2A
102
}
330
2A
100
AcDbVisualStyle
  2
Basic
 70
     7
 71
     1
 72
     0
 73
     1
 90
        0
 40
-0.6
 41
-30.0
 62
     5
 63
     7
 74
     0
 91
        4
 64
     7
 65
   257
 75
     1
175
     1
 42
1.0
 92
        8
 66
     7
 43
1.0
 76
     1
 77
     6
 78
     2
 67
     7
 79
     5
170
     0
171
     0
290
     0
174
     0
 93
        1
 44
0.0
173
     0
291
     1
 45
0.0
1001
ACAD
1000
AcDbSavedByObjectVersion
1070
     0
  0
VISUALSTYLE
  5
36
102
{ACAD_REACTORS
330
2A
102
}
330
2A
100
AcDbVisualStyle
  2
Brighten
 70
    12
 71
     2
 72
     2
 73
     0
 90
        0
 40
-0.6
 41
-30.0
 62
     5
 63
     7
 74
     1
 91
        4
 64
     7
 65
   257
 75
     1
175
     1
 42
1.0
 92
        8
 66
     7
 43
1.0
 76
     1
 77
     6
 78
     2
 67
     7
 79
     5
170
     0
171
     0
290
     0
174
     0
 93
        1
 44
50.0
173
     0
291
     1
 45
0.0
1001
ACAD
1000
AcDbSavedByObjectVersion
1070
     0
  0
VISUALSTYLE
  5
3A
102
{ACAD_REACTORS
330
2A
102
}
330
2A
100
AcDbVisualStyle
  2
ColorChange
 70
    16
 71
     2
 72
     2
 73
     3
 90
        0
 40
-0.6
 41
-30.0
 62
     5
 63
     8
 74
     1
 91
        4
 64
     7
 65
   257
 75
     1
175
     1
 42
1.0
 92
        8
 66
     8
 43
1.0
 76
     1
 77
     6
 78
     2
 67
     7
 79
     5
170
     0
171
     0
290
     0
174
     0
 93
        1
 44
0.0
173
     0
291
     1
 45
0.0
1001
ACAD
1000
AcDbSavedByObjectVersion
1070
     0
  0
VISUALSTYLE
  5
34
102
{ACAD_REACTORS
330
2A
102
}
330
2A
100
AcDbVisualStyle
  2
Conceptual
 70
     9
 71
     3
 72
     2
 73
     0
 90
        0
 40
-0.6
 41
-30.0
 62
     5
 63
     7
 74
     2
 91
        2
 64
     7
 65
   257
 75
     1
175
     1
 42
40.0
 92
        8
 66
     7
 43
1.0
 76
     1
 77
     6
 78
     2
 67
     7
 79
     3
170
     0
171
     0
290
     0
174
     0
 93
        1
 44
0.0
173
     0
291
     0
 45
0.0
1001
ACAD
1000
AcDbSavedByObjectVersion
1070
     0
  0
VISUALSTYLE
  5
35
102
{ACAD_REACTORS
330
2A
102
}
330
2A
100
AcDbVisualStyle
  2
Dim
 70
    11
 71
     2
 72
     2
 73
     0
 90
        0
 40
-0.6
 41
-30.0
 62
     5
 63
     7
 74
     1
 91
        4
 64
     7
 65
   257
 75
     1
175
     1
 42
1.0
 92
        8
 66
     7
 43
1.0
 76
     1
 77
     6
 78
     2
 67
     7
 79
     5
170
     0
171
     0
290
     0
174
     0
 93
        1
 44
-50.0
173
     0
291
     1
 45
0.0
1001
ACAD
1000
AcDbSavedByObjectVersion
1070
     0
  0
VISUALSTYLE
  5
39
102
{ACAD_REACTORS
330
2A
102
}
330
2A
100
AcDbVisualStyle
  2
Facepattern
 70
    15
 71
     2
 72
     2
 73
     0
 90
        0
 40
-0.6
 41
-30.0
 62
     5
 63
     7
 74
     1
 91
        4
 64
     7
 65
   257
 75
     1
175
     1
 42
1.0
 92
        8
 66
     7
 43
1.0
 76
     1
 77
     6
 78
     2
 67
     7
 79
     5
170
     0
171
     0
290
     0
174
     0
 93
        1
 44
0.0
173
     0
291
     1
 45
0.0
1001
ACAD
1000
AcDbSavedByObjectVersion
1070
     0
  0
VISUALSTYLE
  5
2B
102
{ACAD_REACTORS
330
2A
102
}
330
2A
100
AcDbVisualStyle
  2
Flat
 70
     0
 71
     2
 72
     1
 73
     1
 90
        2
 40
-0.6
 41
30.0
 62
     5
 63
     7
 74
     0
 91
        4
 64
     7
 65
   257
 75
     1
175
     1
 42
1.0
 92
        8
 66
     7
 43
1.0
 76
     1
 77
     6
 78
     2
 67
     7
 79
     5
170
     0
171
     0
290
     0
174
     0
 93
       13
 44
0.0
173
     0
291
     1
 45
0.0
1001
ACAD
1000
AcDbSavedByObjectVersion
1070
     0
  0
VISUALSTYLE
  5
2C
102
{ACAD_REACTORS
330
2A
102
}
330
2A
100
AcDbVisualStyle
  2
FlatWithEdges
 70
     1
 71
     2
 72
     1
 73
     1
 90
        2
 40
-0.6
 41
30.0
 62
     5
 63
     7
 74
     1
 91
        4
 64
     7
 65
   257
 75
     1
175
     1
 42
1.0
 92
        0
 66
   257
 43
1.0
 76
     1
 77
     6
 78
     2
 67
     7
 79
     5
170
     0
171
     0
290
     0
174
     0
 93
       13
 44
0.0
173
     0
291
     1
 45
0.0
1001
ACAD
1000
AcDbSavedByObjectVersion
1070
     0
  0
VISUALSTYLE
  5
2D
102
{ACAD_REACTORS
330
2A
102
}
330
2A
100
AcDbVisualStyle
  2
Gouraud
 70
     2
 71
     2
 72
     2
 73
     1
 90
        2
 40
-0.6
 41
30.0
 62
     5
 63
     7
 74
     0
 91
        4
 64
     7
 65
   257
 75
     1
175
     1
 42
1.0
 92
        0
 66
     7
 43
1.0
 76
     1
 77
     6
 78
     2
 67
     7
 79
     5
170
     0
171
     0
290
     0
174
     0
 93
       13
 44
0.0
173
     0
291
     1
 45
0.0
1001
ACAD
1000
AcDbSavedByObjectVersion
1070
     0
  0
VISUALSTYLE
  5
2E
102
{ACAD_REACTORS
330
2A
102
}
330
2A
100
AcDbVisualStyle
  2
GouraudWithEdges
 70
     3
 71
     2
 72
     2
 73
     1
 90
        2
 40
-0.6
 41
30.0
 62
     5
 63
     7
 74
     1
 91
        4
 64
     7
 65
   257
 75
     1
175
     1
 42
1.0
 92
        0
 66
   257
 43
1.0
 76
     1
 77
     6
 78
     2
 67
     7
 79
     5
170
     0
171
     0
290
     0
174
     0
 93
       13
 44
0.0
173
     0
291
     1
 45
0.0
1001
ACAD
1000
AcDbSavedByObjectVersion
1070
     0
  0
VISUALSTYLE
  5
38
102
{ACAD_REACTORS
330
2A
102
}
330
2A
100
AcDbVisualStyle
  2
Linepattern
 70
    14
 71
     2
 72
     2
 73
     0
 90
        0
 40
-0.6
 41
-30.0
 62
     5
 63
     7
 74
     1
 91
        4
 64
     7
 65
   257
 75
     7
175
     7
 42
1.0
 92
        8
 66
     7
 43
1.0
 76
     1
 77
     6
 78
     2
 67
     7
 79
     5
170
     0
171
     0
290
     0
174
     0
 93
        1
 44
0.0
173
     0
291
     1
 45
0.0
1001
ACAD
1000
AcDbSavedByObjectVersion
1070
     0
  0
VISUALSTYLE
  5
33
102
{ACAD_REACTORS
330
2A
102
}
330
2A
100
AcDbVisualStyle
  2
Realistic
 70
     8
 71
     2
 72
     2
 73
     0
 90
        0
 40
-0.6
 41
-30.0
 62
     5
 63
     7
 74
     1
 91
        0
 64
     7
 65
   257
 75
     1
175
     1
 42
1.0
 92
        8
 66
     8
 43
1.0
 76
     1
 77
     6
 78
     2
 67
     7
 79
     5
170
     0
171
     0
290
     0
174
     0
 93
       13
 44
0.0
173
     0
291
     0
 45
0.0
1001
ACAD
1000
AcDbSavedByObjectVersion
1070
     0
  0
VISUALSTYLE
  5
37
102
{ACAD_REACTORS
330
2A
102
}
330
2A
100
AcDbVisualStyle
  2
Thicken
 70
    13
 71
     2
 72
     2
 73
     0
 90
        0
 40
-0.6
 41
-30.0
 62
     5
 63
     7
 74
     1
 91
        4
 64
     7
 65
   257
 75
     1
175
     1
 42
1.0
 92
       12
 66
     7
 43
1.0
 76
     1
 77
     6
 78
     2
 67
     7
 79
     5
170
     0
171
     0
290
     0
174
     0
 93
        1
 44
0.0
173
     0
291
     1
 45
0.0
1001
ACAD
1000
AcDbSavedByObjectVersion
1070
     0
  0
DICTIONARYVAR
  5
20E
102
{ACAD_REACTORS
330
20C
102
}
330
20C
100
DictionaryVariables
280
     0
  1
80.000000
  0
DICTIONARYVAR
  5
20D
102
{ACAD_REACTORS
330
20C
102
}
330
20C
100
DictionaryVariables
280
     0
  1
5.000000
  0
ENDSEC
  0
EOF
