  0
SECTION
  2
HEADER
  9
$ACADVER
  1
AC1015
  9
$ACADMAINTVER
 70
     6
  9
$DWGCODEPAGE
  3
ANSI_1252
  9
$INSBASE
 10
0.0
 20
0.0
 30
0.0
  9
$EXTMIN
 10
0.0
 20
0.0
 30
0.0
  9
$EXTMAX
 10
297.0
 20
210.0
 30
0.0
  9
$LIMMIN
 10
0.0
 20
0.0
  9
$LIMMAX
 10
297.0
 20
210.0
  9
$ORTHOMODE
 70
     0
  9
$REGENMODE
 70
     1
  9
$FILLMODE
 70
     1
  9
$QTEXTMODE
 70
     0
  9
$MIRRTEXT
 70
     1
  9
$LTSCALE
 40
1.0
  9
$ATTMODE
 70
     1
  9
$TEXTSIZE
 40
2.0
  9
$TRACEWID
 40
1.0
  9
$TEXTSTYLE
  7
Standard
  9
$CLAYER
  8
0
  9
$CELTYPE
  6
ByLayer
  9
$CECOLOR
 62
   256
  9
$CELTSCALE
 40
1.0
  9
$DISPSILH
 70
     0
  9
$DIMSCALE
 40
1.0
  9
$DIMASZ
 40
3.0
  9
$DIMEXO
 40
0.0
  9
$DIMDLI
 40
3.75
  9
$DIMRND
 40
0.0
  9
$DIMDLE
 40
0.0
  9
$DIMEXE
 40
1.0
  9
$DIMTP
 40
0.0
  9
$DIMTM
 40
0.0
  9
$DIMTXT
 40
2.0
  9
$DIMCEN
 40
2.5
  9
$DIMTSZ
 40
0.0
  9
$DIMTOL
 70
     0
  9
$DIMLIM
 70
     0
  9
$DIMTIH
 70
     1
  9
$DIMTOH
 70
     1
  9
$DIMSE1
 70
     0
  9
$DIMSE2
 70
     0
  9
$DIMTAD
 70
     1
  9
$DIMZIN
 70
     0
  9
$DIMBLK
  1

  9
$DIMASO
 70
     1
  9
$DIMSHO
 70
     1
  9
$DIMPOST
  1

  9
$DIMAPOST
  1

  9
$DIMALT
 70
     0
  9
$DIMALTD
 70
     3
  9
$DIMALTF
 40
0.0393700787
  9
$DIMLFAC
 40
1.0
  9
$DIMTOFL
 70
     1
  9
$DIMTVP
 40
0.0
  9
$DIMTIX
 70
     0
  9
$DIMSOXD
 70
     0
  9
$DIMSAH
 70
     0
  9
$DIMBLK1
  1

  9
$DIMBLK2
  1

  9
$DIMSTYLE
  2
ISO-25
  9
$DIMCLRD
 70
     0
  9
$DIMCLRE
 70
     0
  9
$DIMCLRT
 70
     0
  9
$DIMTFAC
 40
1.0
  9
$DIMGAP
 40
1.524
  9
$DIMJUST
 70
     0
  9
$DIMSD1
 70
     0
  9
$DIMSD2
 70
     0
  9
$DIMTOLJ
 70
     0
  9
$DIMTZIN
 70
     0
  9
$DIMALTZ
 70
     0
  9
$DIMALTTZ
 70
     0
  9
$DIMUPT
 70
     0
  9
$DIMDEC
 70
     2
  9
$DIMTDEC
 70
     3
  9
$DIMALTU
 70
     2
  9
$DIMALTTD
 70
     3
  9
$DIMTXSTY
  7
Standard
  9
$DIMAUNIT
 70
     0
  9
$DIMADEC
 70
     2
  9
$DIMALTRND
 40
0.0
  9
$DIMAZIN
 70
     0
  9
$DIMDSEP
 70
    44
  9
$DIMATFIT
 70
     3
  9
$DIMFRAC
 70
     0
  9
$DIMLDRBLK
  1

  9
$DIMLUNIT
 70
     2
  9
$DIMLWD
 70
    -2
  9
$DIMLWE
 70
    -2
  9
$DIMTMOVE
 70
     0
  9
$LUNITS
 70
     2
  9
$LUPREC
 70
     2
  9
$SKETCHINC
 40
1.0
  9
$FILLETRAD
 40
10.0
  9
$AUNITS
 70
     0
  9
$AUPREC
 70
     2
  9
$MENU
  1
.
  9
$ELEVATION
 40
0.0
  9
$PELEVATION
 40
0.0
  9
$THICKNESS
 40
0.0
  9
$LIMCHECK
 70
     0
  9
$CHAMFERA
 40
10.0
  9
$CHAMFERB
 40
10.0
  9
$CHAMFERC
 40
20.0
  9
$CHAMFERD
 40
0.0
  9
$SKPOLY
 70
     0
  9
$TDCREATE
 40
2455673.416565382
  9
$TDUCREATE
 40
2455673.333232048
  9
$TDUPDATE
 40
2455673.416565394
  9
$TDUUPDATE
 40
2455673.33323206
  9
$TDINDWG
 40
0.0000000116
  9
$TDUSRTIMER
 40
0.0000000116
  9
$USRTIMER
 70
     1
  9
$ANGBASE
 50
0.0
  9
$ANGDIR
 70
     0
  9
$PDMODE
 70
     0
  9
$PDSIZE
 40
-1.0
  9
$PLINEWID
 40
0.0
  9
$SPLFRAME
 70
     0
  9
$SPLINETYPE
 70
     6
  9
$SPLINESEGS
 70
     8
  9
$HANDSEED
  5
214
  9
$SURFTAB1
 70
     6
  9
$SURFTAB2
 70
     6
  9
$SURFTYPE
 70
     6
  9
$SURFU
 70
     6
  9
$SURFV
 70
     6
  9
$UCSBASE
  2

  9
$UCSNAME
  2

  9
$UCSORG
 10
0.0
 20
0.0
 30
0.0
  9
$UCSXDIR
 10
1.0
 20
0.0
 30
0.0
  9
$UCSYDIR
 10
0.0
 20
1.0
 30
0.0
  9
$UCSORTHOREF
  2

  9
$UCSORTHOVIEW
 70
     0
  9
$UCSORGTOP
 10
0.0
 20
0.0
 30
0.0
  9
$UCSORGBOTTOM
 10
0.0
 20
0.0
 30
0.0
  9
$UCSORGLEFT
 10
0.0
 20
0.0
 30
0.0
  9
$UCSORGRIGHT
 10
0.0
 20
0.0
 30
0.0
  9
$UCSORGFRONT
 10
0.0
 20
0.0
 30
0.0
  9
$UCSORGBACK
 10
0.0
 20
0.0
 30
0.0
  9
$PUCSBASE
  2

  9
$PUCSNAME
  2

  9
$PUCSORG
 10
0.0
 20
0.0
 30
0.0
  9
$PUCSXDIR
 10
1.0
 20
0.0
 30
0.0
  9
$PUCSYDIR
 10
0.0
 20
1.0
 30
0.0
  9
$PUCSORTHOREF
  2

  9
$PUCSORTHOVIEW
 70
     0
  9
$PUCSORGTOP
 10
0.0
 20
0.0
 30
0.0
  9
$PUCSORGBOTTOM
 10
0.0
 20
0.0
 30
0.0
  9
$PUCSORGLEFT
 10
0.0
 20
0.0
 30
0.0
  9
$PUCSORGRIGHT
 10
0.0
 20
0.0
 30
0.0
  9
$PUCSORGFRONT
 10
0.0
 20
0.0
 30
0.0
  9
$PUCSORGBACK
 10
0.0
 20
0.0
 30
0.0
  9
$USERI1
 70
     0
  9
$USERI2
 70
     0
  9
$USERI3
 70
     0
  9
$USERI4
 70
     0
  9
$USERI5
 70
     0
  9
$USERR1
 40
0.0
  9
$USERR2
 40
0.0
  9
$USERR3
 40
0.0
  9
$USERR4
 40
0.0
  9
$USERR5
 40
0.0
  9
$WORLDVIEW
 70
     1
  9
$SHADEDGE
 70
     3
  9
$SHADEDIF
 70
    70
  9
$TILEMODE
 70
     1
  9
$MAXACTVP
 70
    64
  9
$PINSBASE
 10
0.0
 20
0.0
 30
0.0
  9
$PLIMCHECK
 70
     0
  9
$PEXTMIN
 10
1.0000000000E+20
 20
1.0000000000E+20
 30
1.0000000000E+20
  9
$PEXTMAX
 10
-1.0000000000E+20
 20
-1.0000000000E+20
 30
-1.0000000000E+20
  9
$PLIMMIN
 10
0.0
 20
0.0
  9
$PLIMMAX
 10
420.0
 20
297.0
  9
$UNITMODE
 70
     0
  9
$VISRETAIN
 70
     1
  9
$PLINEGEN
 70
     0
  9
$PSLTSCALE
 70
     1
  9
$TREEDEPTH
 70
  3020
  9
$CMLSTYLE
  2
Standard
  9
$CMLJUST
 70
     0
  9
$CMLSCALE
 40
20.0
  9
$PROXYGRAPHICS
 70
     1
  9
$MEASUREMENT
 70
     1
  9
$CELWEIGHT
370
    -1
  9
$ENDCAPS
280
     0
  9
$JOINSTYLE
280
     0
  9
$LWDISPLAY
290
     1
  9
$INSUNITS
 70
     4
  9
$HYPERLINKBASE
  1

  9
$STYLESHEET
  1

  9
$XEDIT
290
     1
  9
$CEPSNTYPE
380
     0
  9
$PSTYLEMODE
290
     1
  9
$FINGERPRINTGUID
  2
{C7C43A4B-96AD-4A9A-BB84-29C396FE1EF0}
  9
$VERSIONGUID
  2
{FAEB1C32-E019-11D5-929B-00C0DF256EC4}
  9
$EXTNAMES
290
     1
  9
$PSVPSCALE
 40
0.0
  9
$OLESTARTUP
290
     0
  0
ENDSEC
  0
SECTION
  2
CLASSES
  0
CLASS
  1
ACDBDICTIONARYWDFLT
  2
AcDbDictionaryWithDefault
  3
ObjectDBX Classes
 90
        0
280
     0
281
     0
  0
CLASS
  1
VISUALSTYLE
  2
AcDbVisualStyle
  3
ObjectDBX Classes
 90
     4095
280
     0
281
     0
  0
CLASS
  1
DICTIONARYVAR
  2
AcDbDictionaryVar
  3
ObjectDBX Classes
 90
        0
280
     0
281
     0
  0
CLASS
  1
ACDBPLACEHOLDER
  2
AcDbPlaceHolder
  3
ObjectDBX Classes
 90
        0
280
     0
281
     0
  0
CLASS
  1
LAYOUT
  2
AcDbLayout
  3
ObjectDBX Classes
 90
        0
280
     0
281
     0
  0
ENDSEC
  0
SECTION
  2
TABLES
  0
TABLE
  2
VPORT
  5
8
330
0
100
AcDbSymbolTable
 70
     1
  0
VPORT
  5
29
330
8
100
AcDbSymbolTableRecord
100
AcDbViewportTableRecord
  2
*Active
 70
     0
 10
0.0
 20
0.0
 11
1.0
 21
1.0
 12
148.5
 22
105.0
 13
0.0
 23
0.0
 14
10.0
 24
10.0
 15
10.0
 25
10.0
 16
0.0
 26
0.0
 36
1.0
 17
0.0
 27
0.0
 37
0.0
 40
210.0
 41
1.4142857143
 42
50.0
 43
0.0
 44
0.0
 50
0.0
 51
0.0
 71
     0
 72
  2000
 73
     1
 74
     3
 75
     0
 76
     0
 77
     0
 78
     0
281
     0
 65
     1
110
0.0
120
0.0
130
0.0
111
1.0
121
0.0
131
0.0
112
0.0
122
1.0
132
0.0
 79
     0
146
0.0
  0
ENDTAB
  0
TABLE
  2
LTYPE
  5
5
330
0
100
AcDbSymbolTable
 70
     6
  0
LTYPE
  5
14
330
5
100
AcDbSymbolTableRecord
100
AcDbLinetypeTableRecord
  2
ByBlock
 70
     0
  3

 72
    65
 73
     0
 40
0.0
  0
LTYPE
  5
15
330
5
100
AcDbSymbolTableRecord
100
AcDbLinetypeTableRecord
  2
ByLayer
 70
     0
  3

 72
    65
 73
     0
 40
0.0
  0
LTYPE
  5
16
330
5
100
AcDbSymbolTableRecord
100
AcDbLinetypeTableRecord
  2
Continuous
 70
     0
  3
Solid line
 72
    65
 73
     0
 40
0.0
  0
LTYPE
  5
3B
330
5
100
AcDbSymbolTableRecord
100
AcDbLinetypeTableRecord
  2
HIDDEN
 70
     0
  3
Hidden __ __ __ __ __ __ __ __ __ __ __ __ __ __
 72
    65
 73
     2
 40
1.905
 49
1.27
 74
     0
 49
-0.635
 74
     0
  0
LTYPE
  5
3C
330
5
100
AcDbSymbolTableRecord
100
AcDbLinetypeTableRecord
  2
PHANTOM
 70
     0
  3
Phantom ______  __  __  ______  __  __  ______
 72
    65
 73
     6
 40
12.7
 49
6.35
 74
     0
 49
-1.27
 74
     0
 49
1.27
 74
     0
 49
-1.27
 74
     0
 49
1.27
 74
     0
 49
-1.27
 74
     0
  0
LTYPE
  5
3D
330
5
100
AcDbSymbolTableRecord
100
AcDbLinetypeTableRecord
  2
CENTER
 70
     0
  3
Center ____ _ ____ _ ____ _ ____ _ ____ _ ____
 72
    65
 73
     4
 40
10.16
 49
6.35
 74
     0
 49
-1.27
 74
     0
 49
1.27
 74
     0
 49
-1.27
 74
     0
  0
LTYPE
  5
3E
330
5
100
AcDbSymbolTableRecord
100
AcDbLinetypeTableRecord
  2
CENTERX2
 70
     0
  3
Center (2x) ________  __  ________  __  _____
 72
    65
 73
     4
 40
20.32
 49
12.7
 74
     0
 49
-2.54
 74
     0
 49
2.54
 74
     0
 49
-2.54
 74
     0
  0
LTYPE
  5
3F
330
5
100
AcDbSymbolTableRecord
100
AcDbLinetypeTableRecord
  2
DOT2
 70
     0
  3
Dot (.5x) ........................................
 72
    65
 73
     2
 40
0.635
 49
0.0
 74
     0
 49
-0.635
 74
     0
  0
ENDTAB
  0
TABLE
  2
LAYER
  5
2
330
0
100
AcDbSymbolTable
 70
     5
  0
LAYER
  5
10
330
2
100
AcDbSymbolTableRecord
100
AcDbLayerTableRecord
  2
0
 70
     0
 62
     7
  6
Continuous
370
    -3
390
F
  0
LAYER
  5
40
330
2
100
AcDbSymbolTableRecord
100
AcDbLayerTableRecord
  2
FORMAT
 70
     0
 62
     7
  6
Continuous
370
    -3
390
F
  0
LAYER
  5
41
330
2
100
AcDbSymbolTableRecord
100
AcDbLayerTableRecord
  2
VERMASSUNG
 70
     0
 62
     7
  6
Continuous
370
    -3
390
F
  0
LAYER
  5
42
330
2
100
AcDbSymbolTableRecord
100
AcDbLayerTableRecord
  2
KOPF_DÜNN
 70
     0
 62
     7
  6
Continuous
370
    -3
390
F
  0
LAYER
  5
43
330
2
100
AcDbSymbolTableRecord
100
AcDbLayerTableRecord
  2
KOPF_DICK
 70
     0
 62
     7
  6
Continuous
370
    15
390
F
  0
ENDTAB
  0
TABLE
  2
STYLE
  5
3
330
0
100
AcDbSymbolTable
 70
     3
  0
STYLE
  5
11
330
3
100
AcDbSymbolTableRecord
100
AcDbTextStyleTableRecord
  2
Standard
 70
     0
 40
0.0
 41
1.0
 50
0.0
 71
     0
 42
2.5
  3
txt
  4

  0
STYLE
  5
44
330
3
100
AcDbSymbolTableRecord
100
AcDbTextStyleTableRecord
  2
SLDTEXTSTYLE0
 70
     0
 40
0.0
 41
0.7
 50
0.0
 71
     0
 42
0.2
  3
TXT
  4

  0
STYLE
  5
48
330
3
100
AcDbSymbolTableRecord
100
AcDbTextStyleTableRecord
  2
SLDTEXTSTYLE1
 70
     0
 40
0.0
 41
0.6473684211
 50
0.0
 71
     0
 42
0.2
  3
TXT
  4

  0
ENDTAB
  0
TABLE
  2
VIEW
  5
6
330
0
100
AcDbSymbolTable
 70
     0
  0
ENDTAB
  0
TABLE
  2
UCS
  5
7
330
0
100
AcDbSymbolTable
 70
     0
  0
ENDTAB
  0
TABLE
  2
APPID
  5
9
330
0
100
AcDbSymbolTable
 70
     1
  0
APPID
  5
12
330
9
100
AcDbSymbolTableRecord
100
AcDbRegAppTableRecord
  2
ACAD
 70
     0
  0
ENDTAB
  0
TABLE
  2
DIMSTYLE
  5
A
330
0
100
AcDbSymbolTable
 70
     2
100
AcDbDimStyleTable
  0
DIMSTYLE
105
27
330
A
100
AcDbSymbolTableRecord
100
AcDbDimStyleTableRecord
  2
ISO-25
 70
     0
 41
2.5
 42
0.625
 43
3.75
 44
1.25
 73
     0
 74
     0
 77
     1
 78
     8
140
2.5
141
2.5
143
0.0393700787
147
0.625
171
     3
172
     1
271
     2
272
     2
274
     3
278
    44
283
     0
284
     8
340
11
  0
DIMSTYLE
105
1CD
102
{ACAD_REACTORS
330
1CC
330
1D8
330
1E2
330
1EC
330
1F6
330
202
102
}
330
A
100
AcDbSymbolTableRecord
100
AcDbDimStyleTableRecord
  2
SLDDIMSTYLE0
 70
     0
 41
3.0
 44
0.0
 45
0.000000001
 73
     0
 74
     0
 77
     1
 78
    12
140
2.0
147
0.5
173
     1
271
     2
272
     3
284
    12
340
44
  0
ENDTAB
  0
TABLE
  2
BLOCK_RECORD
  5
1
330
0
100
AcDbSymbolTable
 70
     7
  0
BLOCK_RECORD
  5
1F
330
1
100
AcDbSymbolTableRecord
100
AcDbBlockTableRecord
  2
*Model_Space
340
22
  0
BLOCK_RECORD
  5
1B
330
1
100
AcDbSymbolTableRecord
100
AcDbBlockTableRecord
  2
*Paper_Space
340
1E
  0
BLOCK_RECORD
  5
23
330
1
100
AcDbSymbolTableRecord
100
AcDbBlockTableRecord
  2
*Paper_Space0
340
26
  0
BLOCK_RECORD
  5
1CE
330
1
100
AcDbSymbolTableRecord
100
AcDbBlockTableRecord
  2
*D1
340
0
  0
BLOCK_RECORD
  5
1D9
330
1
100
AcDbSymbolTableRecord
100
AcDbBlockTableRecord
  2
*D2
340
0
  0
BLOCK_RECORD
  5
1E3
330
1
100
AcDbSymbolTableRecord
100
AcDbBlockTableRecord
  2
*D3
340
0
  0
BLOCK_RECORD
  5
1ED
330
1
100
AcDbSymbolTableRecord
100
AcDbBlockTableRecord
  2
*D4
340
0
  0
BLOCK_RECORD
  5
1F7
330
1
100
AcDbSymbolTableRecord
100
AcDbBlockTableRecord
  2
*D5
340
0
  0
BLOCK_RECORD
  5
203
330
1
100
AcDbSymbolTableRecord
100
AcDbBlockTableRecord
  2
*D6
340
0
  0
ENDTAB
  0
ENDSEC
  0
SECTION
  2
BLOCKS
  0
BLOCK
  5
20
330
1F
100
AcDbEntity
  8
0
100
AcDbBlockBegin
  2
*Model_Space
 70
     0
 10
0.0
 20
0.0
 30
0.0
  3
*Model_Space
  1

  0
ENDBLK
  5
21
330
1F
100
AcDbEntity
  8
0
100
AcDbBlockEnd
  0
BLOCK
  5
1C
330
1B
100
AcDbEntity
 67
     1
  8
0
100
AcDbBlockBegin
  2
*Paper_Space
 70
     0
 10
0.0
 20
0.0
 30
0.0
  3
*Paper_Space
  1

  0
ENDBLK
  5
1D
330
1B
100
AcDbEntity
 67
     1
  8
0
100
AcDbBlockEnd
  0
BLOCK
  5
24
330
23
100
AcDbEntity
  8
0
100
AcDbBlockBegin
  2
*Paper_Space0
 70
     0
 10
0.0
 20
0.0
 30
0.0
  3
*Paper_Space0
  1

  0
ENDBLK
  5
25
330
23
100
AcDbEntity
  8
0
100
AcDbBlockEnd
  0
BLOCK
  5
1CF
330
1CE
100
AcDbEntity
  8
0
100
AcDbBlockBegin
  2
*D1
 70
     1
 10
0.0
 20
0.0
 30
0.0
  3
*D1
  1

  0
SOLID
  5
1D1
330
1CE
100
AcDbEntity
  8
VERMASSUNG
100
AcDbTrace
 10
252.2321181516
 20
116.8661601643
 30
0.0
 11
251.7821181516
 21
113.8661601643
 31
0.0
 12
252.6821181516
 22
113.8661601643
 32
0.0
 13
252.6821181516
 23
113.8661601643
 33
0.0
  0
SOLID
  5
1D2
330
1CE
100
AcDbEntity
  8
VERMASSUNG
100
AcDbTrace
 10
252.2321181516
 20
96.8661601643
 30
0.0
 11
252.6821181516
 21
99.8661601643
 31
0.0
 12
251.7821181516
 22
99.8661601643
 32
0.0
 13
251.7821181516
 23
99.8661601643
 33
0.0
  0
LINE
  5
1D3
330
1CE
100
AcDbEntity
  8
VERMASSUNG
100
AcDbLine
 10
244.7897604491
 20
116.8661601643
 30
0.0
 11
253.2321181516
 21
116.8661601643
 31
0.0
  0
LINE
  5
1D4
330
1CE
100
AcDbEntity
  8
VERMASSUNG
100
AcDbLine
 10
244.7897604491
 20
96.8661601643
 30
0.0
 11
253.2321181516
 21
96.8661601643
 31
0.0
  0
LINE
  5
1D5
330
1CE
100
AcDbEntity
  8
VERMASSUNG
100
AcDbLine
 10
252.2321181516
 20
116.8661601643
 30
0.0
 11
252.2321181516
 21
96.8661601643
 31
0.0
  0
MTEXT
  5
1D6
330
1CE
100
AcDbEntity
  8
VERMASSUNG
100
AcDbMText
 10
249.6539826721
 20
103.6624429378
 30
0.0
 40
2.0
 41
0.0
 71
     1
 72
     1
  1
%%c
  7
SLDTEXTSTYLE0
 11
-7.044195017643634E-15
 21
1.0
 31
0.0
 73
     1
 44
1.0
  0
MTEXT
  5
1D7
330
1CE
100
AcDbEntity
  8
VERMASSUNG
100
AcDbMText
 10
249.6539827885
 20
107.271121161
 30
0.0
 40
2.0
 41
0.0
 71
     1
 72
     1
  1
20
  7
SLDTEXTSTYLE0
 11
-7.044195017643634E-15
 21
1.0
 31
0.0
 73
     1
 44
1.0
  0
ENDBLK
  5
1D0
330
1CE
100
AcDbEntity
  8
0
100
AcDbBlockEnd
  0
BLOCK
  5
1DA
330
1D9
100
AcDbEntity
  8
0
100
AcDbBlockBegin
  2
*D2
 70
     1
 10
0.0
 20
0.0
 30
0.0
  3
*D2
  1

  0
SOLID
  5
1DC
330
1D9
100
AcDbEntity
  8
VERMASSUNG
100
AcDbTrace
 10
111.0397604491
 20
142.3661601643
 30
0.0
 11
114.0397604491
 21
141.9161601643
 31
0.0
 12
114.0397604491
 22
142.8161601643
 32
0.0
 13
114.0397604491
 23
142.8161601643
 33
0.0
  0
SOLID
  5
1DD
330
1D9
100
AcDbEntity
  8
VERMASSUNG
100
AcDbTrace
 10
245.0897604491
 20
142.3661601643
 30
0.0
 11
242.0897604491
 21
142.8161601643
 31
0.0
 12
242.0897604491
 22
141.9161601643
 32
0.0
 13
242.0897604491
 23
141.9161601643
 33
0.0
  0
LINE
  5
1DE
330
1D9
100
AcDbEntity
  8
VERMASSUNG
100
AcDbLine
 10
111.0397604491
 20
136.712600488
 30
0.0
 11
111.0397604491
 21
143.3661601643
 31
0.0
  0
LINE
  5
1DF
330
1D9
100
AcDbEntity
  8
VERMASSUNG
100
AcDbLine
 10
245.0897604491
 20
125.5920196427
 30
0.0
 11
245.0897604491
 21
143.3661601643
 31
0.0
  0
LINE
  5
1E0
330
1D9
100
AcDbEntity
  8
VERMASSUNG
100
AcDbLine
 10
111.0397604491
 20
142.3661601643
 30
0.0
 11
245.0897604491
 21
142.3661601643
 31
0.0
  0
MTEXT
  5
1E1
330
1D9
100
AcDbEntity
  8
VERMASSUNG
100
AcDbMText
 10
174.3655751837
 20
144.9442955274
 30
0.0
 40
2.0
 41
0.0
 71
     1
 72
     1
  1
134.05
  7
SLDTEXTSTYLE0
 73
     1
 44
1.0
  0
ENDBLK
  5
1DB
330
1D9
100
AcDbEntity
  8
0
100
AcDbBlockEnd
  0
BLOCK
  5
1E4
330
1E3
100
AcDbEntity
  8
0
100
AcDbBlockBegin
  2
*D3
 70
     1
 10
0.0
 20
0.0
 30
0.0
  3
*D3
  1

  0
SOLID
  5
1E6
330
1E3
100
AcDbEntity
  8
VERMASSUNG
100
AcDbTrace
 10
53.1897604491
 20
154.3661601643
 30
0.0
 11
56.1897604491
 21
153.9161601643
 31
0.0
 12
56.1897604491
 22
154.8161601643
 32
0.0
 13
56.1897604491
 23
154.8161601643
 33
0.0
  0
SOLID
  5
1E7
330
1E3
100
AcDbEntity
  8
VERMASSUNG
100
AcDbTrace
 10
245.0897604491
 20
154.3661601643
 30
0.0
 11
242.0897604491
 21
154.8161601643
 31
0.0
 12
242.0897604491
 22
153.9161601643
 32
0.0
 13
242.0897604491
 23
153.9161601643
 33
0.0
  0
LINE
  5
1E8
330
1E3
100
AcDbEntity
  8
VERMASSUNG
100
AcDbLine
 10
53.1897604491
 20
126.5568379107
 30
0.0
 11
53.1897604491
 21
155.3661601643
 31
0.0
  0
LINE
  5
1E9
330
1E3
100
AcDbEntity
  8
VERMASSUNG
100
AcDbLine
 10
245.0897604491
 20
125.5920196427
 30
0.0
 11
245.0897604491
 21
155.3661601643
 31
0.0
  0
LINE
  5
1EA
330
1E3
100
AcDbEntity
  8
VERMASSUNG
100
AcDbLine
 10
53.1897604491
 20
154.3661601643
 30
0.0
 11
245.0897604491
 21
154.3661601643
 31
0.0
  0
MTEXT
  5
1EB
330
1E3
100
AcDbEntity
  8
VERMASSUNG
100
AcDbMText
 10
146.4407940352
 20
156.9442955274
 30
0.0
 40
2.0
 41
0.0
 71
     1
 72
     1
  1
191.9
  7
SLDTEXTSTYLE0
 73
     1
 44
1.0
  0
ENDBLK
  5
1E5
330
1E3
100
AcDbEntity
  8
0
100
AcDbBlockEnd
  0
BLOCK
  5
1EE
330
1ED
100
AcDbEntity
  8
0
100
AcDbBlockBegin
  2
*D4
 70
     1
 10
0.0
 20
0.0
 30
0.0
  3
*D4
  1

  0
SOLID
  5
1F0
330
1ED
100
AcDbEntity
  8
VERMASSUNG
100
AcDbTrace
 10
85.0897604491
 20
148.3661601643
 30
0.0
 11
88.0897604491
 21
147.9161601643
 31
0.0
 12
88.0897604491
 22
148.8161601643
 32
0.0
 13
88.0897604491
 23
148.8161601643
 33
0.0
  0
SOLID
  5
1F1
330
1ED
100
AcDbEntity
  8
VERMASSUNG
100
AcDbTrace
 10
245.0897604491
 20
148.3661601643
 30
0.0
 11
242.0897604491
 21
148.8161601643
 31
0.0
 12
242.0897604491
 22
147.9161601643
 32
0.0
 13
242.0897604491
 23
147.9161601643
 33
0.0
  0
LINE
  5
1F2
330
1ED
100
AcDbEntity
  8
VERMASSUNG
100
AcDbLine
 10
85.0897604491
 20
138.0661601643
 30
0.0
 11
85.0897604491
 21
149.3661601643
 31
0.0
  0
LINE
  5
1F3
330
1ED
100
AcDbEntity
  8
VERMASSUNG
100
AcDbLine
 10
245.0897604491
 20
125.5920196427
 30
0.0
 11
245.0897604491
 21
149.3661601643
 31
0.0
  0
LINE
  5
1F4
330
1ED
100
AcDbEntity
  8
VERMASSUNG
100
AcDbLine
 10
85.0897604491
 20
148.3661601643
 30
0.0
 11
245.0897604491
 21
148.3661601643
 31
0.0
  0
MTEXT
  5
1F5
330
1ED
100
AcDbEntity
  8
VERMASSUNG
100
AcDbMText
 10
163.1902729085
 20
150.9442955274
 30
0.0
 40
2.0
 41
0.0
 71
     1
 72
     1
  1
160
  7
SLDTEXTSTYLE0
 73
     1
 44
1.0
  0
ENDBLK
  5
1EF
330
1ED
100
AcDbEntity
  8
0
100
AcDbBlockEnd
  0
BLOCK
  5
1F8
330
1F7
100
AcDbEntity
  8
0
100
AcDbBlockBegin
  2
*D5
 70
     1
 10
0.0
 20
0.0
 30
0.0
  3
*D5
  1

  0
SOLID
  5
1FA
330
1F7
100
AcDbEntity
  8
VERMASSUNG
100
AcDbTrace
 10
48.3227532179
 20
138.3661601643
 30
0.0
 11
47.8727532179
 21
135.3661601643
 31
0.0
 12
48.7727532179
 22
135.3661601643
 32
0.0
 13
48.7727532179
 23
135.3661601643
 33
0.0
  0
SOLID
  5
1FB
330
1F7
100
AcDbEntity
  8
VERMASSUNG
100
AcDbTrace
 10
48.3227532179
 20
75.3661601643
 30
0.0
 11
48.7727532179
 21
78.3661601643
 31
0.0
 12
47.8727532179
 22
78.3661601643
 32
0.0
 13
47.8727532179
 23
78.3661601643
 33
0.0
  0
LINE
  5
1FC
330
1F7
100
AcDbEntity
  8
VERMASSUNG
100
AcDbLine
 10
85.3897604491
 20
138.3661601643
 30
0.0
 11
47.3227532179
 21
138.3661601643
 31
0.0
  0
LINE
  5
1FD
330
1F7
100
AcDbEntity
  8
VERMASSUNG
100
AcDbLine
 10
85.3897604491
 20
75.3661601643
 30
0.0
 11
47.3227532179
 21
75.3661601643
 31
0.0
  0
LINE
  5
1FE
330
1F7
100
AcDbEntity
  8
VERMASSUNG
100
AcDbLine
 10
48.3227532179
 20
138.3661601643
 30
0.0
 11
48.3227532179
 21
75.3661601643
 31
0.0
  0
MTEXT
  5
1FF
330
1F7
100
AcDbEntity
  8
VERMASSUNG
100
AcDbMText
 10
45.5446177289
 20
99.1626184525
 30
0.0
 40
2.0
 41
0.0
 71
     1
 72
     1
  1
HSK A 
  7
SLDTEXTSTYLE0
 11
-7.044195017643634E-15
 21
1.0
 31
0.0
 73
     1
 44
1.0
  0
MTEXT
  5
200
330
1F7
100
AcDbEntity
  8
VERMASSUNG
100
AcDbMText
 10
45.7446177384
 20
108.1626189964
 30
0.0
 40
2.0
 41
0.0
 71
     1
 72
     1
  1
%%c
  7
SLDTEXTSTYLE0
 11
-7.044195017643634E-15
 21
1.0
 31
0.0
 73
     1
 44
1.0
  0
MTEXT
  5
201
330
1F7
100
AcDbEntity
  8
VERMASSUNG
100
AcDbMText
 10
45.7446178548
 20
111.7709456464
 30
0.0
 40
2.0
 41
0.0
 71
     1
 72
     1
  1
63
  7
SLDTEXTSTYLE0
 11
-7.044195017643634E-15
 21
1.0
 31
0.0
 73
     1
 44
1.0
  0
ENDBLK
  5
1F9
330
1F7
100
AcDbEntity
  8
0
100
AcDbBlockEnd
  0
BLOCK
  5
204
330
203
100
AcDbEntity
  8
0
100
AcDbBlockBegin
  2
*D6
 70
     1
 10
0.0
 20
0.0
 30
0.0
  3
*D6
  1

  0
SOLID
  5
206
330
203
100
AcDbEntity
  8
VERMASSUNG
100
AcDbTrace
 10
258.2321181516
 20
132.8661601643
 30
0.0
 11
257.7821181516
 21
129.8661601643
 31
0.0
 12
258.6821181516
 22
129.8661601643
 32
0.0
 13
258.6821181516
 23
129.8661601643
 33
0.0
  0
SOLID
  5
207
330
203
100
AcDbEntity
  8
VERMASSUNG
100
AcDbTrace
 10
258.2321181516
 20
80.8661601643
 30
0.0
 11
258.6821181516
 21
83.8661601643
 31
0.0
 12
257.7821181516
 22
83.8661601643
 32
0.0
 13
257.7821181516
 23
83.8661601643
 33
0.0
  0
LINE
  5
208
330
203
100
AcDbEntity
  8
VERMASSUNG
100
AcDbLine
 10
232.222718926
 20
132.8661601643
 30
0.0
 11
259.2321181516
 21
132.8661601643
 31
0.0
  0
LINE
  5
209
330
203
100
AcDbEntity
  8
VERMASSUNG
100
AcDbLine
 10
232.222718926
 20
80.8661601643
 30
0.0
 11
259.2321181516
 21
80.8661601643
 31
0.0
  0
LINE
  5
20A
330
203
100
AcDbEntity
  8
VERMASSUNG
100
AcDbLine
 10
258.2321181516
 20
132.8661601643
 30
0.0
 11
258.2321181516
 21
80.8661601643
 31
0.0
  0
MTEXT
  5
20B
330
203
100
AcDbEntity
  8
VERMASSUNG
100
AcDbMText
 10
255.6539826721
 20
103.6624429378
 30
0.0
 40
2.0
 41
0.0
 71
     1
 72
     1
  1
%%c
  7
SLDTEXTSTYLE0
 11
-7.044195017643634E-15
 21
1.0
 31
0.0
 73
     1
 44
1.0
  0
MTEXT
  5
20C
330
203
100
AcDbEntity
  8
VERMASSUNG
100
AcDbMText
 10
255.6539827885
 20
107.271121161
 30
0.0
 40
2.0
 41
0.0
 71
     1
 72
     1
  1
52
  7
SLDTEXTSTYLE0
 11
-7.044195017643634E-15
 21
1.0
 31
0.0
 73
     1
 44
1.0
  0
ENDBLK
  5
205
330
203
100
AcDbEntity
  8
0
100
AcDbBlockEnd
  0
ENDSEC
  0
SECTION
  2
ENTITIES
  0
MTEXT
  5
45
330
1F
100
AcDbEntity
  8
KOPF_DÜNN
100
AcDbMText
 10
13.8892156294
 20
23.8442973028
 30
0.0
 40
3.0
 41
0.0
 71
     1
 72
     1
  1
HA6.W20.K21.160
  7
SLDTEXTSTYLE0
 73
     1
 44
1.0
  0
MTEXT
  5
46
330
1F
100
AcDbEntity
  8
VERMASSUNG
100
AcDbMText
 10
13.9329988022
 20
28.8834360957
 30
0.0
 40
3.0
 41
0.0
 71
     1
 72
     1
  1
Flächenspannfutter_End mill adapter Weldon ø20
  7
SLDTEXTSTYLE0
 73
     1
 44
1.0
  0
MTEXT
  5
47
330
1F
100
AcDbEntity
  8
VERMASSUNG
100
AcDbMText
 10
98.8601118557
 20
13.8365368179
 30
0.0
 40
2.0
 41
0.0
 71
     1
 72
     1
  1
Datum: 09.10.2006
  7
SLDTEXTSTYLE0
 73
     1
 44
1.0
  0
MTEXT
  5
49
330
1F
100
AcDbEntity
  8
VERMASSUNG
100
AcDbMText
 10
13.933048693
 20
18.0482802738
 30
0.0
 40
2.0
 41
0.0
 71
     1
 72
     1
  1
DIN 69 893 HSK A 63
  7
SLDTEXTSTYLE1
 73
     1
 44
1.0
  0
MTEXT
  5
4A
330
1F
100
AcDbEntity
  8
VERMASSUNG
100
AcDbMText
 10
13.9808475933
 20
13.9090973692
 30
0.0
 40
2.0
 41
0.0
 71
     1
 72
     1
  1
Gewicht: 2641g
  7
SLDTEXTSTYLE0
 73
     1
 44
1.0
  0
LINE
  5
4B
330
1F
100
AcDbEntity
  8
0
  6
Continuous
 62
     7
370
    15
100
AcDbLine
 10
245.0897604491
 20
94.9226226401
 30
0.0
 11
245.1546613847
 21
95.0428031861
 31
0.0
  0
LINE
  5
4C
330
1F
100
AcDbEntity
  8
0
  6
Continuous
 62
     7
370
    15
100
AcDbLine
 10
245.1546438505
 20
118.6895176296
 30
0.0
 11
245.0897604491
 21
118.8096657066
 31
0.0
  0
ARC
  5
4D
330
1F
100
AcDbEntity
  8
0
  6
Continuous
 62
     7
370
    15
100
AcDbCircle
 10
85.3897604491
 20
75.6661601643
 30
0.0
 40
0.2999999999999972
100
AcDbArc
 50
180.0
 51
270.0
  0
ARC
  5
4E
330
1F
100
AcDbEntity
  8
0
  6
Continuous
 62
     7
370
    15
100
AcDbCircle
 10
85.3897604491
 20
138.0661601643
 30
0.0
 40
0.3000000000000114
100
AcDbArc
 50
90.0
 51
180.0
  0
LINE
  5
4F
330
1F
100
AcDbEntity
  8
0
  6
Continuous
 62
     7
370
    15
100
AcDbLine
 10
85.3897604491
 20
75.3661601643
 30
0.0
 11
90.0397604491
 21
75.3661601643
 31
0.0
  0
LINE
  5
50
330
1F
100
AcDbEntity
  8
0
  6
Continuous
 62
     7
370
    15
100
AcDbLine
 10
90.0677488082
 20
138.3661601643
 30
0.0
 11
85.3897604491
 21
138.3661601643
 31
0.0
  0
ARC
  5
51
330
1F
100
AcDbEntity
  8
0
  6
Continuous
 62
     7
370
    15
100
AcDbCircle
 10
112.0397604491
 20
79.8661601643
 30
0.0
 40
1.000000000000008
100
AcDbArc
 50
90.0
 51
143.1139143113
  0
ARC
  5
52
330
1F
100
AcDbEntity
  8
0
  6
Continuous
 62
     7
370
    15
100
AcDbCircle
 10
112.0397604491
 20
133.8661601643
 30
0.0
 40
1.000000000000012
100
AcDbArc
 50
216.9131042757
 51
270.0
  0
LINE
  5
53
330
1F
100
AcDbEntity
  8
0
  6
Continuous
 62
     7
370
    15
100
AcDbLine
 10
160.5278573881
 20
80.8661601643
 30
0.0
 11
232.222718926
 21
80.8661601643
 31
0.0
  0
LINE
  5
54
330
1F
100
AcDbEntity
  8
0
  6
Continuous
 62
     7
370
    15
100
AcDbLine
 10
112.0397604491
 20
80.8661601643
 30
0.0
 11
153.5423413208
 21
80.8661601643
 31
0.0
  0
LINE
  5
55
330
1F
100
AcDbEntity
  8
0
  6
Continuous
 62
     7
370
    15
100
AcDbLine
 10
153.5510365317
 20
132.8661601643
 30
0.0
 11
112.0397604491
 21
132.8661601643
 31
0.0
  0
LINE
  5
56
330
1F
100
AcDbEntity
  8
0
  6
Continuous
 62
     7
370
    15
100
AcDbLine
 10
232.222718926
 20
132.8661601643
 30
0.0
 11
160.5384117545
 21
132.8661601643
 31
0.0
  0
LINE
  5
57
330
1F
100
AcDbEntity
  8
0
  6
Continuous
 62
     7
370
    15
100
AcDbLine
 10
232.222718926
 20
80.8661601643
 30
0.0
 11
243.9349969726
 21
86.3276851118
 31
0.0
  0
LINE
  5
58
330
1F
100
AcDbEntity
  8
0
  6
Continuous
 62
     7
370
    15
100
AcDbLine
 10
243.9349969726
 20
127.4046352167
 30
0.0
 11
232.222718926
 21
132.8661601643
 31
0.0
  0
ARC
  5
59
330
1F
100
AcDbEntity
  8
0
  6
Continuous
 62
     7
370
    15
100
AcDbCircle
 10
84.5897536964
 20
82.2957225499
 30
0.0
 40
0.6000067526677282
100
AcDbArc
 50
33.5571153394
 51
90.0
  0
ARC
  5
5A
330
1F
100
AcDbEntity
  8
0
  6
Continuous
 62
     7
370
    15
100
AcDbCircle
 10
84.5897536964
 20
131.4365977787
 30
0.0
 40
0.600006752667744
100
AcDbArc
 50
270.0
 51
326.4428846606
  0
LINE
  5
5B
330
1F
100
AcDbEntity
  8
0
  6
Continuous
 62
     7
370
    15
100
AcDbLine
 10
83.0897604491
 20
82.6457293025
 30
0.0
 11
83.9464732225
 21
82.8752847983
 31
0.0
  0
LINE
  5
5C
330
1F
100
AcDbEntity
  8
0
  6
Continuous
 62
     7
370
    15
100
AcDbLine
 10
83.9464732225
 20
130.8570355302
 30
0.0
 11
83.0897604491
 21
131.086591026
 31
0.0
  0
LINE
  5
5D
330
1F
100
AcDbEntity
  8
0
  6
Continuous
 62
     7
370
    15
100
AcDbLine
 10
71.8593382666
 20
130.5239446241
 30
0.0
 11
59.2897604491
 21
129.8942062565
 31
0.0
  0
LINE
  5
5E
330
1F
100
AcDbEntity
  8
0
  6
Continuous
 62
     7
370
    15
100
AcDbLine
 10
83.0897604491
 20
131.086591026
 30
0.0
 11
80.2711510916
 21
130.9453781323
 31
0.0
  0
LINE
  5
5F
330
1F
100
AcDbEntity
  8
0
  6
Continuous
 62
     7
370
    15
100
AcDbLine
 10
80.2713725668
 20
82.7869311003
 30
0.0
 11
83.0897604491
 21
82.6457293025
 31
0.0
  0
LINE
  5
60
330
1F
100
AcDbEntity
  8
0
  6
Continuous
 62
     7
370
    15
100
AcDbLine
 10
63.2897604491
 20
83.6377132705
 30
0.0
 11
71.8600372183
 21
83.2083406869
 31
0.0
  0
ARC
  5
61
330
1F
100
AcDbEntity
  8
0
  6
Continuous
 62
     7
370
    15
100
AcDbCircle
 10
84.1017646495
 20
82.2957293025
 30
0.0
 40
0.5999999999999943
100
AcDbArc
 50
90.0
 51
105.0
  0
ARC
  5
62
330
1F
100
AcDbEntity
  8
0
  6
Continuous
 62
     7
370
    15
100
AcDbCircle
 10
84.1017646495
 20
131.436591026
 30
0.0
 40
0.5999999999999943
100
AcDbArc
 50
255.0
 51
270.0
  0
LINE
  5
63
330
1F
100
AcDbEntity
  8
0
  6
Continuous
 62
     7
370
    15
100
AcDbLine
 10
84.1017646495
 20
82.8957293025
 30
0.0
 11
84.5897536964
 21
82.8957293025
 31
0.0
  0
LINE
  5
64
330
1F
100
AcDbEntity
  8
0
  6
Continuous
 62
     7
370
    15
100
AcDbLine
 10
84.5897536964
 20
130.836591026
 30
0.0
 11
84.1017646495
 21
130.836591026
 31
0.0
  0
ARC
  5
65
330
1F
100
AcDbEntity
  8
0
  6
Continuous
 62
     7
370
    15
100
AcDbCircle
 10
243.0897604491
 20
88.1403006859
 30
0.0
 40
2.000000000000001
100
AcDbArc
 50
295.0
 51
0.0
  0
ARC
  5
66
330
1F
100
AcDbEntity
  8
0
  6
Continuous
 62
     7
370
    15
100
AcDbCircle
 10
243.0897604491
 20
125.5920196427
 30
0.0
 40
2.000000000000001
100
AcDbArc
 50
0.0
 51
65.0
  0
LINE
  5
67
330
1F
100
AcDbEntity
  8
0
  6
Continuous
 62
     7
370
    15
100
AcDbLine
 10
54.4730970891
 20
85.9961601643
 30
0.0
 11
61.8897604491
 21
85.9961601643
 31
0.0
  0
ARC
  5
68
330
1F
100
AcDbEntity
  8
0
  6
Continuous
 62
     7
370
    15
100
AcDbCircle
 10
61.8897604491
 20
84.5961601643
 30
0.0
 40
1.400000000000006
100
AcDbArc
 50
42.2465410162
 51
90.0
  0
LINE
  5
69
330
1F
100
AcDbEntity
  8
0
  6
Continuous
 62
     7
370
    15
100
AcDbLine
 10
53.1907929433
 20
87.1451276701
 30
0.0
 11
54.3309239073
 21
86.0049967061
 31
0.0
  0
LINE
  5
6A
330
1F
100
AcDbEntity
  8
0
  6
Continuous
 62
     7
370
    15
100
AcDbLine
 10
54.3309239073
 20
127.7273236225
 30
0.0
 11
53.1996612225
 21
126.5960609376
 31
0.0
  0
ARC
  5
6B
330
1F
100
AcDbEntity
  8
0
  6
Continuous
 62
     7
370
    15
100
AcDbCircle
 10
57.8897604491
 20
129.1361601643
 30
0.0
 40
1.400000000000024
100
AcDbArc
 50
270.0
 51
301.7485287426
  0
LINE
  5
6C
330
1F
100
AcDbEntity
  8
0
  6
Continuous
 62
     7
370
    15
100
AcDbLine
 10
57.8897604491
 20
127.7361601643
 30
0.0
 11
54.464026183
 21
127.7361601643
 31
0.0
  0
LINE
  5
6D
330
1F
100
AcDbEntity
  8
0
  6
Continuous
 62
     7
370
    15
100
AcDbLine
 10
218.8020935436
 20
102.6073363397
 30
0.0
 11
216.0076773741
 21
106.2849132056
 31
0.0
  0
LINE
  5
6E
330
1F
100
AcDbEntity
  8
0
  6
Continuous
 62
     7
370
    15
100
AcDbLine
 10
223.3841766187
 20
103.1885832984
 30
0.0
 11
218.8020935436
 21
102.6073363397
 31
0.0
  0
LINE
  5
6F
330
1F
100
AcDbEntity
  8
0
  6
Continuous
 62
     7
370
    15
100
AcDbLine
 10
222.3774273546
 20
111.1249839888
 30
0.0
 11
225.1718435241
 21
107.4474071229
 31
0.0
  0
LINE
  5
70
330
1F
100
AcDbEntity
  8
0
  6
Continuous
 62
     7
370
    15
100
AcDbLine
 10
222.3774273546
 20
111.1249839888
 30
0.0
 11
217.7953442795
 21
110.5437370302
 31
0.0
  0
ARC
  5
71
330
1F
100
AcDbEntity
  8
0
  6
Continuous
 62
     7
370
    15
100
AcDbCircle
 10
220.5897604491
 20
106.8661601643
 30
0.0
 40
7.000000000000005
100
AcDbArc
 50
7.2294785656
 51
119.6094583666
  0
ARC
  5
72
330
1F
100
AcDbEntity
  8
0
  6
Continuous
 62
     7
370
    15
100
AcDbCircle
 10
220.5897604491
 20
106.8661601643
 30
0.0
 40
7.000000000000005
100
AcDbArc
 50
240.4538608566
 51
7.2294785656
  0
LINE
  5
73
330
1F
100
AcDbEntity
  8
0
  6
Continuous
 62
     7
370
    15
100
AcDbLine
 10
223.3841766187
 20
103.1885832984
 30
0.0
 11
225.1718435241
 21
107.4474071229
 31
0.0
  0
LINE
  5
74
330
1F
100
AcDbEntity
  8
0
  6
Continuous
 62
     7
370
    15
100
AcDbLine
 10
217.7953442795
 20
110.5437370302
 30
0.0
 11
216.0076773741
 21
106.2849132056
 31
0.0
  0
LINE
  5
75
330
1F
100
AcDbEntity
  8
0
  6
Continuous
 62
     7
370
    15
100
AcDbLine
 10
245.1606683082
 20
95.083005694
 30
0.0
 11
245.1546613847
 21
95.0428031861
 31
0.0
  0
ARC
  5
76
330
1F
100
AcDbEntity
  8
0
  6
Continuous
 62
     7
370
    15
100
AcDbCircle
 10
224.2744524961
 20
95.6573044706
 30
0.0
 40
20.89410993640837
100
AcDbArc
 50
358.4249608716
 51
4.9777245001
  0
LWPOLYLINE
  5
77
330
1F
100
AcDbEntity
  8
0
  6
Continuous
 62
     7
370
    15
100
AcDbPolyline
 90
        6
 70
   128
 43
0.0
 10
245.1614520997
 20
118.63771156
 10
245.1496269478
 20
118.685361145
 10
245.1331677081
 20
118.5482790186
 10
245.1145801505
 20
118.2473346917
 10
245.0966940622
 20
117.8283442102
 10
245.0897604491
 20
117.6225408357
  0
ARC
  5
78
330
1F
100
AcDbEntity
  8
0
  6
Continuous
 62
     7
370
    15
100
AcDbCircle
 10
222.9771209713
 20
118.1183354368
 30
0.0
 40
22.19041007220146
100
AcDbArc
 50
355.2016757077
 51
1.341154913
  0
LINE
  5
79
330
1F
100
AcDbEntity
  8
0
  6
Continuous
 62
     7
370
    15
100
AcDbLine
 10
245.0903470431
 20
117.2771988491
 30
0.0
 11
245.0897604491
 21
116.9606379896
 31
0.0
  0
LINE
  5
7A
330
1F
100
AcDbEntity
  8
0
  6
Continuous
 62
     7
370
    15
100
AcDbLine
 10
245.1180145886
 20
116.8388226042
 30
0.0
 11
245.0897604491
 21
116.6480380742
 31
0.0
  0
LINE
  5
7B
330
1F
100
AcDbEntity
  8
0
  6
Continuous
 62
     7
370
    15
100
AcDbLine
 10
245.1480285103
 20
117.6666897973
 30
0.0
 11
245.1180145886
 21
116.8388226042
 31
0.0
  0
LINE
  5
7C
330
1F
100
AcDbEntity
  8
0
  6
Continuous
 62
     7
370
    15
100
AcDbLine
 10
245.1480285103
 20
117.6666897973
 30
0.0
 11
245.1492016983
 21
118.2998115163
 31
0.0
  0
LINE
  5
7D
330
1F
100
AcDbEntity
  8
0
  6
Continuous
 62
     7
370
    15
100
AcDbLine
 10
245.1203609648
 20
118.1050660421
 30
0.0
 11
245.1492016983
 21
118.2998115163
 31
0.0
  0
LINE
  5
7E
330
1F
100
AcDbEntity
  8
0
  6
Continuous
 62
     7
370
    15
100
AcDbLine
 10
245.1203609648
 20
118.1050660421
 30
0.0
 11
245.0903470431
 21
117.2771988491
 31
0.0
  0
LINE
  5
7F
330
1F
100
AcDbEntity
  8
0
  6
Continuous
 62
     7
370
    15
100
AcDbLine
 10
245.0897604491
 20
116.8396075693
 30
0.0
 11
245.1180145886
 21
116.8388226042
 31
0.0
  0
LINE
  5
80
330
1F
100
AcDbEntity
  8
0
  6
Continuous
 62
     7
370
    15
100
AcDbLine
 10
245.1045116793
 20
117.667898795
 30
0.0
 11
245.1480285103
 21
117.6666897973
 31
0.0
  0
LINE
  5
81
330
1F
100
AcDbEntity
  8
0
  6
Continuous
 62
     7
370
    15
100
AcDbLine
 10
111.0397604491
 20
77.3058827637
 30
0.0
 11
111.0397604491
 21
126.7161601643
 31
0.0
  0
SPLINE
  5
82
330
1F
100
AcDbEntity
  8
0
  6
Continuous
 62
     7
370
    15
100
AcDbSpline
210
0.0
220
0.0
230
1.0
 70
     8
 71
     3
 72
    10
 73
     6
 74
     0
 42
0.00000001
 43
0.00000001
 40
0.0
 40
0.0
 40
0.0
 40
0.0
 40
0.5
 40
0.5
 40
1.0
 40
1.0
 40
1.0
 40
1.0
 10
111.0397604490953
 20
77.30588276367821
 30
0.0
 10
111.0397604490953
 20
77.14599549548456
 30
0.0
 10
110.9784507978595
 20
76.98486823996994
 30
0.0
 10
110.7593511603244
 20
76.75076924161512
 30
0.0
 10
110.6013029540109
 20
76.67924246802389
 30
0.0
 10
110.4397604490953
 20
76.67924246802389
 30
0.0
  0
SPLINE
  5
83
330
1F
100
AcDbEntity
  8
0
  6
Continuous
 62
     7
370
    15
100
AcDbSpline
210
0.0
220
0.0
230
1.0
 70
    24
 71
     3
 72
    12
 73
     8
 74
     0
 42
0.00000001
 43
0.00000001
 40
0.0
 40
0.0
 40
0.0
 40
0.0
 40
0.2500000000000033
 40
0.2500000000000033
 40
0.5000000000000067
 40
0.5000000000000067
 40
1.0
 40
1.0
 40
1.0
 40
1.0
 10
110.4397604490953
 20
126.7161601642711
 30
0.0
 10
110.5299995167824
 20
126.7161601642711
 30
0.0
 10
110.6208976308888
 20
126.7161601642711
 30
0.0
 10
110.7754946673774
 20
126.7161601642711
 30
0.0
 10
110.8404730834855
 20
126.7161601642711
 30
0.0
 10
110.9923081114217
 20
126.7161601642711
 30
0.0
 10
111.0397604490953
 20
126.7161601642711
 30
0.0
 10
111.0397604490953
 20
126.7161601642711
 30
0.0
  0
LINE
  5
84
330
1F
100
AcDbEntity
  8
0
  6
Continuous
 62
     7
370
    15
100
AcDbLine
 10
110.4397604491
 20
76.679242468
 30
0.0
 11
106.4816932806
 21
76.679242468
 31
0.0
  0
LINE
  5
85
330
1F
100
AcDbEntity
  8
0
  6
Continuous
 62
     7
370
    15
100
AcDbLine
 10
106.4816932806
 20
76.679242468
 30
0.0
 11
106.4816932806
 21
126.7161601643
 31
0.0
  0
LINE
  5
86
330
1F
100
AcDbEntity
  8
0
  6
Continuous
 62
     7
370
    15
100
AcDbLine
 10
106.4816932806
 20
126.7161601643
 30
0.0
 11
110.4397604491
 21
126.7161601643
 31
0.0
  0
SPLINE
  5
87
330
1F
100
AcDbEntity
  8
0
  6
Continuous
 62
     7
370
    15
100
AcDbSpline
210
0.0
220
0.0
230
1.0
 70
     8
 71
     3
 72
     8
 73
     4
 74
     0
 42
0.00000001
 43
0.00000001
 40
0.0
 40
0.0
 40
0.0
 40
0.0
 40
1.0
 40
1.0
 40
1.0
 40
1.0
 10
106.4816932805844
 20
76.67924246802389
 30
0.0
 10
105.9862136199186
 20
77.57476855595725
 30
0.0
 10
105.4920995718765
 20
78.47105297100951
 30
0.0
 10
104.9997604490953
 20
79.36832300521621
 30
0.0
  0
LINE
  5
88
330
1F
100
AcDbEntity
  8
0
  6
Continuous
 62
     7
370
    15
100
AcDbLine
 10
104.9997604491
 20
79.3683230052
 30
0.0
 11
104.9997604491
 21
126.7161601643
 31
0.0
  0
SPLINE
  5
89
330
1F
100
AcDbEntity
  8
0
  6
Continuous
 62
     7
370
    15
100
AcDbSpline
210
0.0
220
0.0
230
1.0
 70
    24
 71
     3
 72
     8
 73
     4
 74
     0
 42
0.00000001
 43
0.00000001
 40
0.0
 40
0.0
 40
0.0
 40
0.0
 40
1.0
 40
1.0
 40
1.0
 40
1.0
 10
104.9997604490953
 20
126.7161601642711
 30
0.0
 10
105.4797124434602
 20
126.7161601642711
 30
0.0
 10
105.9750131724338
 20
126.7161601642711
 30
0.0
 10
106.4816932805844
 20
126.7161601642711
 30
0.0
  0
LINE
  5
8A
330
1F
100
AcDbEntity
  8
0
  6
Continuous
 62
     7
370
    15
100
AcDbLine
 10
85.0897604491
 20
75.6661601643
 30
0.0
 11
85.0897604491
 21
138.066160159
 31
0.0
  0
LINE
  5
8B
330
1F
100
AcDbEntity
  8
0
  6
Continuous
 62
     7
370
    15
100
AcDbLine
 10
101.1797604491
 20
79.3683230052
 30
0.0
 11
101.1797604491
 21
126.7161601643
 31
0.0
  0
SPLINE
  5
8C
330
1F
100
AcDbEntity
  8
0
  6
Continuous
 62
     7
370
    15
100
AcDbSpline
210
0.0
220
0.0
230
1.0
 70
     8
 71
     3
 72
     8
 73
     4
 74
     0
 42
0.00000001
 43
0.00000001
 40
0.0
 40
0.0
 40
0.0
 40
0.0
 40
1.0
 40
1.0
 40
1.0
 40
1.0
 10
101.1797604490953
 20
79.3683230052162
 30
0.0
 10
100.6874213263141
 20
78.4710529710095
 30
0.0
 10
100.193307278272
 20
77.57476855595723
 30
0.0
 10
99.69782761760626
 20
76.67924246802389
 30
0.0
  0
LINE
  5
8D
330
1F
100
AcDbEntity
  8
0
  6
Continuous
 62
     7
370
    15
100
AcDbLine
 10
99.6978276176
 20
76.679242468
 30
0.0
 11
99.6978276176
 21
126.7161601643
 31
0.0
  0
SPLINE
  5
8E
330
1F
100
AcDbEntity
  8
0
  6
Continuous
 62
     7
370
    15
100
AcDbSpline
210
0.0
220
0.0
230
1.0
 70
    24
 71
     3
 72
     8
 73
     4
 74
     0
 42
0.00000001
 43
0.00000001
 40
0.0
 40
0.0
 40
0.0
 40
0.0
 40
1.0
 40
1.0
 40
1.0
 40
1.0
 10
99.69782761760626
 20
126.7161601642711
 30
0.0
 10
100.2045077257568
 20
126.7161601642711
 30
0.0
 10
100.6998084547304
 20
126.7161601642711
 30
0.0
 10
101.1797604490953
 20
126.7161601642711
 30
0.0
  0
LINE
  5
8F
330
1F
100
AcDbEntity
  8
0
  6
Continuous
 62
     7
370
    15
100
AcDbLine
 10
90.0397604491
 20
126.7161601643
 30
0.0
 11
99.6978276176
 21
126.7161601643
 31
0.0
  0
LINE
  5
90
330
1F
100
AcDbEntity
  8
0
  6
Continuous
 62
     7
370
    15
100
AcDbLine
 10
99.6978276176
 20
76.679242468
 30
0.0
 11
98.0397604491
 21
76.679242468
 31
0.0
  0
SPLINE
  5
91
330
1F
100
AcDbEntity
  8
0
  6
Continuous
 62
     7
370
    15
100
AcDbSpline
210
0.0
220
0.0
230
1.0
 70
     8
 71
     3
 72
    28
 73
    24
 74
     0
 42
0.00000001
 43
0.00000001
 40
0.0
 40
0.0
 40
0.0
 40
0.0
 40
0.1250000000000001
 40
0.1250000000000001
 40
0.1875000000000001
 40
0.1875000000000001
 40
0.2500000000000001
 40
0.2500000000000001
 40
0.3749999999999999
 40
0.3749999999999999
 40
0.4375
 40
0.4375
 40
0.4999999999999999
 40
0.4999999999999999
 40
0.6249999999999999
 40
0.6249999999999999
 40
0.7499999999999997
 40
0.7499999999999997
 40
0.8124999999999998
 40
0.8124999999999998
 40
0.8749999999999998
 40
0.8749999999999998
 40
1.0
 40
1.0
 40
1.0
 40
1.0
 10
98.03976044909531
 20
76.67924246802389
 30
0.0
 10
97.50805269160237
 20
76.6792424680239
 30
0.0
 10
96.98581412629206
 20
76.66345775407368
 30
0.0
 10
96.21594364001703
 20
76.61846233999748
 30
0.0
 10
95.96158406782571
 20
76.59990734492175
 30
0.0
 10
95.45746248712719
 20
76.55605462247523
 30
0.0
 10
95.20773966969928
 20
76.53071001552304
 30
0.0
 10
94.48214971825286
 20
76.44730793777293
 30
0.0
 10
94.02378945667132
 20
76.38144237862186
 30
0.0
 10
93.37329151327745
 20
76.27247203813006
 30
0.0
 10
93.16160946248499
 20
76.2342324023634
 30
0.0
 10
92.75753797334698
 20
76.15647366494404
 30
0.0
 10
92.56503145952612
 20
76.1169727027687
 30
0.0
 10
92.01519648850484
 20
75.9980649604027
 30
0.0
 10
91.68526771019603
 20
75.9182472789781
 30
0.0
 10
91.10079644162734
 20
75.76490411718204
 30
0.0
 10
90.85451930361391
 20
75.69357036391278
 30
0.0
 10
90.55467651091584
 20
75.59962685683816
 30
0.0
 10
90.46621965384367
 20
75.57043306347823
 30
0.0
 10
90.31285830053854
 20
75.51696648921482
 30
0.0
 10
90.2477700863123
 20
75.49260715493963
 30
0.0
 10
90.09217607037151
 20
75.42901700949488
 30
0.0
 10
90.03976044909531
 20
75.39891407440565
 30
0.0
 10
90.03976044909531
 20
75.38203718140873
 30
0.0
  0
LINE
  5
92
330
1F
100
AcDbEntity
  8
0
  6
Continuous
 62
     7
370
    15
100
AcDbLine
 10
90.0397604491
 20
75.3820371814
 30
0.0
 11
90.0397604491
 21
75.3661601643
 31
0.0
  0
SPLINE
  5
93
330
1F
100
AcDbEntity
  8
0
  6
Continuous
 62
     7
370
    15
100
AcDbSpline
210
0.0
220
0.0
230
1.0
 70
     8
 71
     3
 72
    17
 73
    13
 74
     0
 42
0.00000001
 43
0.00000001
 40
0.0
 40
0.0
 40
0.0
 40
0.0
 40
0.1034796923964056
 40
0.210023918880785
 40
0.3134862136955583
 40
0.4198361274354882
 40
0.5254127712915682
 40
0.633961069541979
 40
0.7409508756305031
 40
0.8511696089308174
 40
0.9558996534551937
 40
1.0
 40
1.0
 40
1.0
 40
1.0
 10
98.03976044909531
 20
137.3333556374353
 30
0.0
 10
97.60451209998527
 20
137.3388038339686
 30
0.0
 10
96.72112559342031
 20
137.3498615744805
 30
0.0
 10
95.44029800819163
 20
137.436219967382
 30
0.0
 10
94.2228814723176
 20
137.5640901439198
 30
0.0
 10
93.11507562007104
 20
137.723035442513
 30
0.0
 10
92.12683681612283
 20
137.8975291302285
 30
0.0
 10
91.30211325859129
 20
138.0666949808684
 30
0.0
 10
90.653159757932
 20
138.2145787633967
 30
0.0
 10
90.23612494247027
 20
138.3163693476275
 30
0.0
 10
90.03752822950575
 20
138.3667208702307
 30
0.0
 10
90.06084095093904
 20
138.3608151860084
 30
0.0
 10
90.06774880817656
 20
138.3590652563138
 30
0.0
  0
LINE
  5
94
330
1F
100
AcDbEntity
  8
0
  6
Continuous
 62
     7
370
    15
100
AcDbLine
 10
99.6978276176
 20
137.3333556374
 30
0.0
 11
98.0397604491
 21
137.3333556374
 31
0.0
  0
LINE
  5
95
330
1F
100
AcDbEntity
  8
0
  6
Continuous
 62
     7
370
    15
100
AcDbLine
 10
99.6978276176
 20
131.3248498266
 30
0.0
 11
99.6978276176
 21
137.3333556374
 31
0.0
  0
LINE
  5
96
330
1F
100
AcDbEntity
  8
0
  6
Continuous
 62
     7
370
    15
100
AcDbLine
 10
97.2853807948
 20
131.3248498266
 30
0.0
 11
99.6978276176
 21
131.3248498266
 31
0.0
  0
SPLINE
  5
97
330
1F
100
AcDbEntity
  8
0
  6
Continuous
 62
     7
370
    15
100
AcDbSpline
210
0.0
220
0.0
230
1.0
 70
     8
 71
     3
 72
    20
 73
    16
 74
     0
 42
0.00000001
 43
0.00000001
 40
0.0
 40
0.0
 40
0.0
 40
0.0
 40
0.2499999999999997
 40
0.2499999999999997
 40
0.3749999999999997
 40
0.3749999999999997
 40
0.4999999999999998
 40
0.4999999999999998
 40
0.6249999999999998
 40
0.6249999999999998
 40
0.7499999999999999
 40
0.7499999999999999
 40
0.8749999999999999
 40
0.8749999999999999
 40
1.0
 40
1.0
 40
1.0
 40
1.0
 10
90.03976044909531
 20
126.7161601642711
 30
0.0
 10
90.28813418338336
 20
127.3700225925685
 30
0.0
 10
90.60770427572864
 20
127.9738083745656
 30
0.0
 10
91.23001050893332
 20
128.8006471107342
 30
0.0
 10
91.46143476936408
 20
129.0630757486871
 30
0.0
 10
91.98264910901379
 20
129.5597384027921
 30
0.0
 10
92.26926959164885
 20
129.7903252818136
 30
0.0
 10
92.88875433295648
 20
130.2068795063963
 30
0.0
 10
93.22305471244344
 20
130.3943773083638
 30
0.0
 10
93.94831518506822
 20
130.7257742860002
 30
0.0
 10
94.3302302424587
 20
130.8652782734954
 30
0.0
 10
95.12501841863039
 20
131.0907317809664
 30
0.0
 10
95.53917661283675
 20
131.17735789251
 30
0.0
 10
96.40472295341814
 20
131.2953386813642
 30
0.0
 10
96.84261056842996
 20
131.3248498266385
 30
0.0
 10
97.28538079478459
 20
131.3248498266385
 30
0.0
  0
SPLINE
  5
98
330
1F
100
AcDbEntity
  8
0
  6
Continuous
 62
     7
370
    15
100
AcDbSpline
210
0.0
220
0.0
230
1.0
 70
     8
 71
     3
 72
    70
 73
    66
 74
     0
 42
0.00000001
 43
0.00000001
 40
-0.0312500000000001
 40
-0.0312500000000001
 40
0.0
 40
0.0
 40
0.0312499999999999
 40
0.0312499999999999
 40
0.0624999999999998
 40
0.0624999999999998
 40
0.0937499999999997
 40
0.0937499999999997
 40
0.1249999999999996
 40
0.1249999999999996
 40
0.1562499999999994
 40
0.1562499999999994
 40
0.1874999999999993
 40
0.1874999999999993
 40
0.2187499999999992
 40
0.2187499999999992
 40
0.2499999999999991
 40
0.2499999999999991
 40
0.281249999999999
 40
0.281249999999999
 40
0.3124999999999989
 40
0.3124999999999989
 40
0.3437499999999988
 40
0.3437499999999988
 40
0.3749999999999987
 40
0.3749999999999987
 40
0.4062499999999986
 40
0.4062499999999986
 40
0.4374999999999984
 40
0.4374999999999984
 40
0.4687499999999983
 40
0.4687499999999983
 40
0.4999999999999982
 40
0.4999999999999982
 40
0.5312499999999983
 40
0.5312499999999983
 40
0.5624999999999984
 40
0.5624999999999984
 40
0.5937499999999986
 40
0.5937499999999986
 40
0.6249999999999987
 40
0.6249999999999987
 40
0.6562499999999988
 40
0.6562499999999988
 40
0.6874999999999989
 40
0.6874999999999989
 40
0.718749999999999
 40
0.718749999999999
 40
0.7499999999999991
 40
0.7499999999999991
 40
0.7812499999999992
 40
0.7812499999999992
 40
0.8124999999999993
 40
0.8124999999999993
 40
0.8437499999999994
 40
0.8437499999999994
 40
0.8749999999999996
 40
0.8749999999999996
 40
0.9062499999999997
 40
0.9062499999999997
 40
0.9374999999999998
 40
0.9374999999999998
 40
0.9687499999999999
 40
0.9687499999999999
 40
1.0
 40
1.0
 40
1.03125
 40
1.03125
 10
93.35430578775545
 20
117.4870670502544
 30
0.0
 10
92.82521511043518
 20
117.4870670502544
 30
0.0
 10
92.56514444305806
 20
117.5117443450396
 30
0.0
 10
92.05356976322265
 20
117.6082160180815
 30
0.0
 10
91.79939447948246
 20
117.6811969340615
 30
0.0
 10
91.31512384942076
 20
117.8709375370002
 30
0.0
 10
91.0854827575396
 20
117.9867981953939
 30
0.0
 10
90.6508784093061
 20
118.2594160413516
 30
0.0
 10
90.4453126326595
 20
118.4174551234054
 30
0.0
 10
90.07675549206427
 20
118.7609979743761
 30
0.0
 10
89.91127450932878
 20
118.9477604184777
 30
0.0
 10
89.61884999989367
 20
119.3513035928745
 30
0.0
 10
89.49474902326718
 20
119.5648005893037
 30
0.0
 10
89.29516982651745
 20
120.0041839032262
 30
0.0
 10
89.2182362406592
 20
120.2333238903718
 30
0.0
 10
89.11537918213881
 20
120.6992980131318
 30
0.0
 10
89.08990627267968
 20
120.932180458808
 30
0.0
 10
89.08961586211193
 20
121.3975779938878
 30
0.0
 10
89.11564049588766
 20
121.6324537512821
 30
0.0
 10
89.21778878037964
 20
122.0839468985284
 30
0.0
 10
89.29336522796281
 20
122.3019933739398
 30
0.0
 10
89.49386275910776
 20
122.7230878989776
 30
0.0
 10
89.61899160061613
 20
122.9250092834959
 30
0.0
 10
89.9083504016377
 20
123.2970387660148
 30
0.0
 10
90.07376138869317
 20
123.4696670695952
 30
0.0
 10
90.446751946841
 20
123.7869850741412
 30
0.0
 10
90.64848497993012
 20
123.9267720076428
 30
0.0
 10
91.08134423075798
 20
124.1709482611946
 30
0.0
 10
91.31526276364735
 20
124.2761777722361
 30
0.0
 10
91.79944649878996
 20
124.4443349186112
 30
0.0
 10
92.04876212474547
 20
124.5075858092051
 30
0.0
 10
92.56179464917321
 20
124.5931650183077
 30
0.0
 10
92.82708847207785
 20
124.6150371832301
 30
0.0
 10
93.34942309194757
 20
124.6152008328741
 30
0.0
 10
93.60917675442933
 20
124.5941991407781
 30
0.0
 10
94.12578857007456
 20
124.5087967857004
 30
0.0
 10
94.37815461057484
 20
124.4447906024134
 30
0.0
 10
94.85967973210767
 20
124.2779760823723
 30
0.0
 10
95.09253046422123
 20
124.1738429189731
 30
0.0
 10
95.52962031265999
 20
123.9278562664781
 30
0.0
 10
95.73094130131716
 20
123.7881064355293
 30
0.0
 10
96.10002732661707
 20
123.4749683658047
 30
0.0
 10
96.26901207766876
 20
123.2995122065346
 30
0.0
 10
96.55946813432797
 20
122.9266719424344
 30
0.0
 10
96.68253994569011
 20
122.7285501323234
 30
0.0
 10
96.88387618711211
 20
122.3078387895898
 30
0.0
 10
96.96108873305437
 20
122.0858487689222
 30
0.0
 10
97.06329227595442
 20
121.6359838292139
 30
0.0
 10
97.08952062740676
 20
121.4057284160971
 30
0.0
 10
97.08999702672384
 20
120.9344124735481
 30
0.0
 10
97.06425461422589
 20
120.7011750578339
 30
0.0
 10
96.96294383786203
 20
120.2394985183359
 30
0.0
 10
96.88611119847107
 20
120.0086011312237
 30
0.0
 10
96.6857073592559
 20
119.566325117432
 30
0.0
 10
96.56303586096386
 20
119.3552626861461
 30
0.0
 10
96.27308857179962
 20
118.9537641754135
 30
0.0
 10
96.10451759243439
 20
118.7628576533375
 30
0.0
 10
95.73624799832123
 20
118.4191323213405
 30
0.0
 10
95.53518614105091
 20
118.2639951351264
 30
0.0
 10
95.09815522246598
 20
117.9889177750466
 30
0.0
 10
94.86600700933637
 20
117.8718015456246
 30
0.0
 10
94.38499672783752
 20
117.6828750605601
 30
0.0
 10
94.1328966450071
 20
117.6098000901658
 30
0.0
 10
93.61582715874809
 20
117.5117480310313
 30
0.0
 10
93.35430578775545
 20
117.4870670502544
 30
0.0
 10
92.82521511043518
 20
117.4870670502544
 30
0.0
  0
SPLINE
  5
99
330
1F
100
AcDbEntity
  8
0
  6
Continuous
 62
     7
370
    15
100
AcDbSpline
210
0.0
220
0.0
230
1.0
 70
     8
 71
     3
 72
    70
 73
    66
 74
     0
 42
0.00000001
 43
0.00000001
 40
-0.0312499999999999
 40
-0.0312499999999999
 40
0.0
 40
0.0
 40
0.0312499999999999
 40
0.0312499999999999
 40
0.0624999999999998
 40
0.0624999999999998
 40
0.0937499999999997
 40
0.0937499999999997
 40
0.1249999999999996
 40
0.1249999999999996
 40
0.1562499999999995
 40
0.1562499999999995
 40
0.1874999999999994
 40
0.1874999999999994
 40
0.2187499999999993
 40
0.2187499999999993
 40
0.2499999999999992
 40
0.2499999999999992
 40
0.2812499999999993
 40
0.2812499999999993
 40
0.3124999999999993
 40
0.3124999999999993
 40
0.3437499999999994
 40
0.3437499999999994
 40
0.3749999999999995
 40
0.3749999999999995
 40
0.4062499999999996
 40
0.4062499999999996
 40
0.4374999999999996
 40
0.4374999999999996
 40
0.4687499999999997
 40
0.4687499999999997
 40
0.4999999999999998
 40
0.4999999999999998
 40
0.5312499999999999
 40
0.5312499999999999
 40
0.5625
 40
0.5625
 40
0.5937500000000001
 40
0.5937500000000001
 40
0.6250000000000002
 40
0.6250000000000002
 40
0.6562500000000004
 40
0.6562500000000004
 40
0.6875000000000006
 40
0.6875000000000006
 40
0.7187500000000007
 40
0.7187500000000007
 40
0.7500000000000008
 40
0.7500000000000008
 40
0.7812500000000007
 40
0.7812500000000007
 40
0.8125000000000006
 40
0.8125000000000006
 40
0.8437500000000004
 40
0.8437500000000004
 40
0.8750000000000003
 40
0.8750000000000003
 40
0.9062500000000003
 40
0.9062500000000003
 40
0.9375000000000002
 40
0.9375000000000002
 40
0.9687500000000001
 40
0.9687500000000001
 40
1.0
 40
1.0
 40
1.03125
 40
1.03125
 10
93.35430578775546
 20
131.9251235590502
 30
0.0
 10
92.82521511043518
 20
131.9251235590502
 30
0.0
 10
92.56514444305807
 20
131.941023999465
 30
0.0
 10
92.05356976322265
 20
132.0029683496393
 30
0.0
 10
91.79939447948246
 20
132.0497705837306
 30
0.0
 10
91.31512384942076
 20
132.1707475671856
 30
0.0
 10
91.0854827575396
 20
132.2443498949925
 30
0.0
 10
90.6508784093061
 20
132.4161741659706
 30
0.0
 10
90.4453126326595
 20
132.515177588898
 30
0.0
 10
90.07675549206427
 20
132.7282740028109
 30
0.0
 10
89.91127450932878
 20
132.8431737189406
 30
0.0
 10
89.61884999989367
 20
133.0885406176308
 30
0.0
 10
89.49474902326718
 20
133.2169805181011
 30
0.0
 10
89.29516982651745
 20
133.4778726661871
 30
0.0
 10
89.21823624065918
 20
133.6122538375265
 30
0.0
 10
89.11537918213881
 20
133.8815737886328
 30
0.0
 10
89.08990627267968
 20
134.014255052851
 30
0.0
 10
89.08961586211193
 20
134.275441526982
 30
0.0
 10
89.11564049588766
 20
134.4052065651467
 30
0.0
 10
89.21778878037964
 20
134.6507891994194
 30
0.0
 10
89.29336522796281
 20
134.7674507367283
 30
0.0
 10
89.49386275910774
 20
134.9893559268828
 30
0.0
 10
89.61899160061613
 20
135.0939671808058
 30
0.0
 10
89.90835040163769
 20
135.2840135924139
 30
0.0
 10
90.07376138869317
 20
135.3707732638636
 30
0.0
 10
90.446751946841
 20
135.5282776396151
 30
0.0
 10
90.6484849799301
 20
135.5966029044023
 30
0.0
 10
91.08134423075798
 20
135.7148326280215
 30
0.0
 10
91.31526276364735
 20
135.7651275441254
 30
0.0
 10
91.79944649878996
 20
135.844993081015
 30
0.0
 10
92.04876212474547
 20
135.8747342088146
 30
0.0
 10
92.5617946491732
 20
135.9148869503228
 30
0.0
 10
92.82708847207783
 20
135.9250852197327
 30
0.0
 10
93.34942309194757
 20
135.9251616781174
 30
0.0
 10
93.60917675442931
 20
135.9153706665083
 30
0.0
 10
94.12578857007456
 20
135.8753038277696
 30
0.0
 10
94.37815461057484
 20
135.8452066609128
 30
0.0
 10
94.85967973210765
 20
135.7659844510826
 30
0.0
 10
95.09253046422123
 20
135.7162269716192
 30
0.0
 10
95.52962031265999
 20
135.5971350291688
 30
0.0
 10
95.73094130131716
 20
135.5288197676215
 30
0.0
 10
96.10002732661707
 20
135.373418800688
 30
0.0
 10
96.26901207766878
 20
135.2852664586211
 30
0.0
 10
96.55946813432797
 20
135.0948270695047
 30
0.0
 10
96.68253994569011
 20
134.9922024918057
 30
0.0
 10
96.88387618711211
 20
134.7705621451976
 30
0.0
 10
96.96108873305437
 20
134.6518080696501
 30
0.0
 10
97.06329227595442
 20
134.4071421307324
 30
0.0
 10
97.08952062740676
 20
134.2799854052838
 30
0.0
 10
97.08999702672385
 20
134.0155372594283
 30
0.0
 10
97.06425461422589
 20
133.8826365791711
 30
0.0
 10
96.96294383786203
 20
133.6158443056891
 30
0.0
 10
96.88611119847107
 20
133.4804804042205
 30
0.0
 10
96.6857073592559
 20
133.2179006089179
 30
0.0
 10
96.56303586096386
 20
133.0909254491642
 30
0.0
 10
96.27308857179962
 20
132.8468460630818
 30
0.0
 10
96.10451759243438
 20
132.7294209383279
 30
0.0
 10
95.73624799832123
 20
132.5162244773795
 30
0.0
 10
95.53518614105091
 20
132.4190503589546
 30
0.0
 10
95.09815522246598
 20
132.2456954717404
 30
0.0
 10
94.86600700933639
 20
132.1712959200837
 30
0.0
 10
94.38499672783752
 20
132.0508430405791
 30
0.0
 10
94.1328966450071
 20
132.0039846653131
 30
0.0
 10
93.61582715874809
 20
131.9410271683293
 30
0.0
 10
93.35430578775546
 20
131.9251235590502
 30
0.0
 10
92.82521511043518
 20
131.9251235590502
 30
0.0
  0
ARC
  5
9A
330
1F
100
AcDbEntity
  8
0
  6
Continuous
 62
     7
370
    15
100
AcDbCircle
 10
93.0868989426
 20
118.776772996
 30
0.0
 40
4.110793026859914
100
AcDbArc
 50
19.1727796384
 51
159.4979304662
  0
SPLINE
  5
9B
330
1F
100
AcDbEntity
  8
0
  6
Continuous
 62
     7
370
    15
100
AcDbSpline
210
0.0
220
0.0
230
1.0
 70
     8
 71
     3
 72
    10
 73
     6
 74
     0
 42
0.00000001
 43
0.00000001
 40
0.0
 40
0.0
 40
0.0
 40
0.0
 40
0.5
 40
0.5
 40
1.0
 40
1.0
 40
1.0
 40
1.0
 10
101.5740579807863
 20
133.2661601642711
 30
0.0
 10
101.4525177171178
 20
133.3408863314828
 30
0.0
 10
101.3511833567688
 20
133.4498313473996
 30
0.0
 10
101.2155444138804
 20
133.7002618281612
 30
0.0
 10
101.1797604490953
 20
133.8426811902601
 30
0.0
 10
101.1797604490953
 20
133.9858140153069
 30
0.0
  0
SPLINE
  5
9C
330
1F
100
AcDbEntity
  8
0
  6
Continuous
 62
     7
370
    15
100
AcDbSpline
210
0.0
220
0.0
230
1.0
 70
    24
 71
     3
 72
    12
 73
     8
 74
     0
 42
0.00000001
 43
0.00000001
 40
0.0
 40
0.0
 40
0.0
 40
0.0
 40
0.2500000000000037
 40
0.2500000000000037
 40
0.5000000000000074
 40
0.5000000000000074
 40
1.0
 40
1.0
 40
1.0
 40
1.0
 10
101.9797604490953
 20
133.2661601642711
 30
0.0
 10
101.9298837667779
 20
133.2661601642711
 30
0.0
 10
101.8818805733743
 20
133.2661601642711
 30
0.0
 10
101.7988324706623
 20
133.2661601642711
 30
0.0
 10
101.7627028911945
 20
133.2661601642711
 30
0.0
 10
101.6667908602502
 20
133.2661601642711
 30
0.0
 10
101.6170321922814
 20
133.2661601642711
 30
0.0
 10
101.5740579807863
 20
133.2661601642711
 30
0.0
  0
SPLINE
  5
9D
330
1F
100
AcDbEntity
  8
0
  6
Continuous
 62
     7
370
    15
100
AcDbSpline
210
0.0
220
0.0
230
1.0
 70
    24
 71
     3
 72
    14
 73
    10
 74
     0
 42
0.00000001
 43
0.00000001
 40
0.0
 40
0.0
 40
0.0
 40
0.0
 40
0.1249999999999991
 40
0.1249999999999991
 40
0.2499999999999982
 40
0.2499999999999982
 40
0.4999999999999998
 40
0.4999999999999998
 40
1.0
 40
1.0
 40
1.0
 40
1.0
 10
101.9797604490953
 20
80.46616016427105
 30
0.0
 10
101.9113226012089
 20
80.46616016427105
 30
0.0
 10
101.8457725624438
 20
80.46616016427106
 30
0.0
 10
101.7413459230359
 20
80.46616016427106
 30
0.0
 10
101.6988013132744
 20
80.46616016427106
 30
0.0
 10
101.5861918527342
 20
80.46616016427105
 30
0.0
 10
101.5306528057147
 20
80.46616016427105
 30
0.0
 10
101.3880411102509
 20
80.46616016427105
 30
0.0
 10
101.3246357552551
 20
80.46616016427105
 30
0.0
 10
101.2774352514276
 20
80.46616016427105
 30
0.0
  0
SPLINE
  5
9E
330
1F
100
AcDbEntity
  8
0
  6
Continuous
 62
     7
370
    15
100
AcDbSpline
210
0.0
220
0.0
230
1.0
 70
     8
 71
     3
 72
    10
 73
     6
 74
     0
 42
0.00000001
 43
0.00000001
 40
0.0
 40
0.0
 40
0.0
 40
0.0
 40
0.5
 40
0.5
 40
1.0
 40
1.0
 40
1.0
 40
1.0
 10
101.1797604490953
 20
127.0020267957324
 30
0.0
 10
101.1797604490953
 20
126.9542552877391
 30
0.0
 10
101.1819216926925
 20
126.9065455656775
 30
0.0
 10
101.1905930665526
 20
126.8112504481292
 30
0.0
 10
101.1971222495086
 20
126.7635578841626
 30
0.0
 10
101.2059080722555
 20
126.7161601642711
 30
0.0
  0
SPLINE
  5
9F
330
1F
100
AcDbEntity
  8
0
  6
Continuous
 62
     7
370
    15
100
AcDbSpline
210
0.0
220
0.0
230
1.0
 70
    24
 71
     3
 72
    14
 73
    10
 74
     0
 42
0.00000001
 43
0.00000001
 40
0.0
 40
0.0
 40
0.0
 40
0.0
 40
0.5000000000000013
 40
0.5000000000000013
 40
0.750000000000002
 40
0.750000000000002
 40
0.875000000000001
 40
0.875000000000001
 40
1.0
 40
1.0
 40
1.0
 40
1.0
 10
104.902085646763
 20
80.46616016427105
 30
0.0
 10
104.8553009417148
 20
80.46616016427105
 30
0.0
 10
104.7932497449352
 20
80.46616016427106
 30
0.0
 10
104.6498581063846
 20
80.46616016427105
 30
0.0
 10
104.5937144528334
 20
80.46616016427105
 30
0.0
 10
104.4807634306973
 20
80.46616016427105
 30
0.0
 10
104.4377626686591
 20
80.46616016427105
 30
0.0
 10
104.3336999583526
 20
80.46616016427105
 30
0.0
 10
104.2683677199957
 20
80.46616016427106
 30
0.0
 10
104.1997604490953
 20
80.46616016427105
 30
0.0
  0
SPLINE
  5
A0
330
1F
100
AcDbEntity
  8
0
  6
Continuous
 62
     7
370
    15
100
AcDbSpline
210
0.0
220
0.0
230
1.0
 70
    24
 71
     3
 72
    12
 73
     8
 74
     0
 42
0.00000001
 43
0.00000001
 40
0.0
 40
0.0
 40
0.0
 40
0.0
 40
0.5000000000000017
 40
0.5000000000000017
 40
0.7500000000000008
 40
0.7500000000000008
 40
1.0
 40
1.0
 40
1.0
 40
1.0
 10
104.6054629174043
 20
133.2661601642711
 30
0.0
 10
104.5623773677934
 20
133.2661601642711
 30
0.0
 10
104.5132251660441
 20
133.2661601642711
 30
0.0
 10
104.4167525717562
 20
133.2661601642711
 30
0.0
 10
104.3806509866216
 20
133.2661601642711
 30
0.0
 10
104.2975452287603
 20
133.2661601642711
 30
0.0
 10
104.249548631794
 20
133.2661601642711
 30
0.0
 10
104.1997604490953
 20
133.2661601642711
 30
0.0
  0
SPLINE
  5
A1
330
1F
100
AcDbEntity
  8
0
  6
Continuous
 62
     7
370
    15
100
AcDbSpline
210
0.0
220
0.0
230
1.0
 70
     8
 71
     3
 72
    10
 73
     6
 74
     0
 42
0.00000001
 43
0.00000001
 40
0.0
 40
0.0
 40
0.0
 40
0.0
 40
0.5
 40
0.5
 40
1.0
 40
1.0
 40
1.0
 40
1.0
 10
104.9997604490953
 20
133.9858140153069
 30
0.0
 10
104.9997604490953
 20
133.8420439574888
 30
0.0
 10
104.9637113903764
 20
133.6996245949937
 30
0.0
 10
104.8282025296024
 20
133.4497303016364
 30
0.0
 10
104.7283265365062
 20
133.3416999653882
 30
0.0
 10
104.6054629174043
 20
133.266160164271
 30
0.0
  0
SPLINE
  5
A2
330
1F
100
AcDbEntity
  8
0
  6
Continuous
 62
     7
370
    15
100
AcDbSpline
210
0.0
220
0.0
230
1.0
 70
     8
 71
     3
 72
    10
 73
     6
 74
     0
 42
0.00000001
 43
0.00000001
 40
0.0
 40
0.0
 40
0.0
 40
0.0
 40
0.5
 40
0.5
 40
1.0
 40
1.0
 40
1.0
 40
1.0
 10
104.9736128259352
 20
126.7161601642711
 30
0.0
 10
104.9823024688469
 20
126.7630390135892
 30
0.0
 10
104.9888415335973
 20
126.8104614789905
 30
0.0
 10
104.9976001679904
 20
126.9063982775772
 30
0.0
 10
104.9997604490953
 20
126.9543135655877
 30
0.0
 10
104.9997604490953
 20
127.0020267957322
 30
0.0
  0
LINE
  5
A3
330
1F
100
AcDbEntity
  8
0
  6
Continuous
 62
     7
370
    15
100
AcDbLine
 10
104.1997604491
 20
133.2661601643
 30
0.0
 11
101.9797604491
 21
133.2661601643
 31
0.0
  0
LINE
  5
A4
330
1F
100
AcDbEntity
  8
0
  6
Continuous
 62
     7
370
    15
100
AcDbLine
 10
104.1997604491
 20
80.4661601643
 30
0.0
 11
101.9797604491
 21
80.4661601643
 31
0.0
  0
SPLINE
  5
A5
330
1F
100
AcDbEntity
  8
0
  6
Continuous
 62
     7
370
    15
100
AcDbSpline
210
0.0
220
0.0
230
1.0
 70
     8
 71
     3
 72
    39
 73
    35
 74
     0
 42
0.00000001
 43
0.00000001
 40
-0.0929946525447376
 40
-0.06186268080312
 40
-0.0305913286419888
 40
0.0
 40
0.0306130831480657
 40
0.0619040996444655
 40
0.0930588770308261
 40
0.1241966210416338
 40
0.1553767729399354
 40
0.1869012712538003
 40
0.2186194724888779
 40
0.2499363328595891
 40
0.2812811127868807
 40
0.3130731839310861
 40
0.3446801097602908
 40
0.3759115026470747
 40
0.4070391656922503
 40
0.438144379016185
 40
0.4693729506320772
 40
0.5000120705146819
 40
0.5306484290212775
 40
0.5619148569967869
 40
0.5930393589970882
 40
0.6241824383491474
 40
0.6553925771497204
 40
0.6869707191793033
 40
0.718711471604216
 40
0.7500541986095008
 40
0.7813706634675633
 40
0.8131351125323628
 40
0.8446872986549274
 40
0.8758891940595346
 40
0.9070053474552624
 40
0.93813731919688
 40
0.9694086713580112
 40
1.0
 40
1.030613083148066
 40
1.061904099644466
 40
1.093058877030826
 10
222.1204058112301
 20
99.03006826315948
 30
0.0
 10
220.5893985329106
 20
98.87436289718397
 30
0.0
 10
219.0580763047014
 20
99.03029159537353
 30
0.0
 10
217.5893932943918
 20
99.49783725885014
 30
0.0
 10
216.2330181715163
 20
100.2312787638827
 30
0.0
 10
215.0574747889846
 20
101.2189532532374
 30
0.0
 10
214.091479717701
 20
102.420407905997
 30
0.0
 10
213.3752433381641
 20
103.8020648894701
 30
0.0
 10
212.9199571973663
 20
105.3010120439519
 30
0.0
 10
212.76905345854
 20
106.8633326396472
 30
0.0
 10
212.9210378386956
 20
108.4267637119831
 30
0.0
 10
213.3772499452292
 20
109.9285588279091
 30
0.0
 10
214.0941214596779
 20
111.313718043234
 30
0.0
 10
215.0610078563759
 20
112.517070618756
 30
0.0
 10
216.2362256816691
 20
113.504848474103
 30
0.0
 10
217.5908748267361
 20
114.2373821474816
 30
0.0
 10
219.058774954024
 20
114.7030161068137
 30
0.0
 10
220.5902754036881
 20
114.8576983702636
 30
0.0
 10
222.1223654386667
 20
114.7025468112403
 30
0.0
 10
223.5909127788147
 20
114.2360381211519
 30
0.0
 10
224.9465051754941
 20
113.5027382630074
 30
0.0
 10
226.1213672042095
 20
112.5141376711884
 30
0.0
 10
227.0872353754885
 20
111.3107431910845
 30
0.0
 10
227.8031509636537
 20
109.9269438364267
 30
0.0
 10
228.2583728385949
 20
108.4262922560058
 30
0.0
 10
228.4104574599708
 20
106.8638084067346
 30
0.0
 10
228.2597196061967
 20
105.3007061716567
 30
0.0
 10
227.8035798560469
 20
103.8007232925205
 30
0.0
 10
227.0864791563066
 20
102.4177578238433
 30
0.0
 10
226.1195680025847
 20
101.2164089884344
 30
0.0
 10
224.9437958718926
 20
100.2296121855193
 30
0.0
 10
223.5881498043116
 20
99.49706472460508
 30
0.0
 10
222.1204058112301
 20
99.03006826315948
 30
0.0
 10
220.5893985329106
 20
98.87436289718397
 30
0.0
 10
219.0580763047014
 20
99.03029159537353
 30
0.0
  0
LINE
  5
A6
330
1F
100
AcDbEntity
  8
0
  6
Continuous
 62
     7
370
    15
100
AcDbLine
 10
232.222718926
 20
80.8661601643
 30
0.0
 11
232.222718926
 21
132.8661601643
 31
0.0
  0
LINE
  5
A7
330
1F
100
AcDbEntity
  8
0
  6
Continuous
 62
     7
370
    15
100
AcDbLine
 10
154.6700630797
 20
132.7620200926
 30
0.0
 11
154.9915006407
 21
132.7403536334
 31
0.0
  0
SPLINE
  5
A8
330
1F
100
AcDbEntity
  8
0
  6
Continuous
 62
     7
370
    15
100
AcDbSpline
210
0.0
220
0.0
230
1.0
 70
     8
 71
     3
 72
    26
 73
    22
 74
     0
 42
0.00000001
 43
0.00000001
 40
0.0
 40
0.0
 40
0.0
 40
0.0
 40
0.0470398156581964
 40
0.0919676954371225
 40
0.138117193362808
 40
0.1847080749806184
 40
0.2324443722254666
 40
0.2832199608481656
 40
0.3352264682669706
 40
0.3908530776335206
 40
0.4479045394338649
 40
0.5070795108640854
 40
0.5679003610780432
 40
0.6282257647049743
 40
0.6903849864815284
 40
0.7491025101801497
 40
0.80980534464941
 40
0.8639353476204601
 40
0.9200203185742021
 40
0.968443056541599
 40
1.0
 40
1.0
 40
1.0
 40
1.0
 10
160.5384117545033
 20
132.8660137655986
 30
0.0
 10
160.5307268016762
 20
132.8651691424688
 30
0.0
 10
160.5157019255971
 20
132.8635178170613
 30
0.0
 10
160.3883962458276
 20
132.8498527606785
 30
0.0
 10
160.1942031473342
 20
132.8299552934085
 30
0.0
 10
159.9258383426144
 20
132.8043276499345
 30
0.0
 10
159.5871636919159
 20
132.7751052037922
 30
0.0
 10
159.1797876573825
 20
132.7446262553249
 30
0.0
 10
158.7025176771393
 20
132.7155051933661
 30
0.0
 10
158.1667683348523
 20
132.6913716370488
 30
0.0
 10
157.5795386914151
 20
132.6754998307906
 30
0.0
 10
156.9603160160534
 20
132.6707684659869
 30
0.0
 10
156.3315819035211
 20
132.6787177362842
 30
0.0
 10
155.7124352131156
 20
132.6989679763124
 30
0.0
 10
155.1383067449531
 20
132.7287955870841
 30
0.0
 10
154.6199755275828
 20
132.7646399727455
 30
0.0
 10
154.1968192437723
 20
132.8001885486687
 30
0.0
 10
153.8662278041385
 20
132.831749966298
 30
0.0
 10
153.656246770047
 20
132.8535222995554
 30
0.0
 10
153.5484868755743
 20
132.865204028458
 30
0.0
 10
153.5503151601198
 20
132.8650087336567
 30
0.0
 10
153.5510365317357
 20
132.8649316777484
 30
0.0
  0
SPLINE
  5
A9
330
1F
100
AcDbEntity
  8
0
  6
Continuous
 62
     7
370
    15
100
AcDbSpline
210
0.0
220
0.0
230
1.0
 70
     8
 71
     3
 72
    66
 73
    62
 74
     0
 42
0.00000001
 43
0.00000001
 40
-0.0312499999999993
 40
-0.0312499999999993
 40
0.0
 40
0.0
 40
0.0312500000000004
 40
0.0312500000000004
 40
0.0625000000000007
 40
0.0625000000000007
 40
0.0937500000000011
 40
0.0937500000000011
 40
0.1250000000000015
 40
0.1250000000000015
 40
0.1562500000000019
 40
0.1562500000000019
 40
0.1875000000000022
 40
0.1875000000000022
 40
0.2187500000000026
 40
0.2187500000000026
 40
0.250000000000003
 40
0.250000000000003
 40
0.2812500000000034
 40
0.2812500000000034
 40
0.3125000000000038
 40
0.3125000000000038
 40
0.3437500000000041
 40
0.3437500000000041
 40
0.3750000000000045
 40
0.3750000000000045
 40
0.4062500000000049
 40
0.4062500000000049
 40
0.4375000000000052
 40
0.4375000000000052
 40
0.4687500000000056
 40
0.4687500000000056
 40
0.500000000000006
 40
0.500000000000006
 40
0.5312500000000063
 40
0.5312500000000063
 40
0.5625000000000068
 40
0.5625000000000068
 40
0.5937500000000071
 40
0.5937500000000071
 40
0.6250000000000075
 40
0.6250000000000075
 40
0.6875000000000062
 40
0.6875000000000062
 40
0.750000000000005
 40
0.750000000000005
 40
0.7812500000000043
 40
0.7812500000000043
 40
0.8125000000000038
 40
0.8125000000000038
 40
0.8437500000000031
 40
0.8437500000000031
 40
0.8750000000000024
 40
0.8750000000000024
 40
0.9062500000000019
 40
0.9062500000000019
 40
0.9375000000000012
 40
0.9375000000000012
 40
0.9687500000000007
 40
0.9687500000000007
 40
1.0
 40
1.0
 40
1.03125
 40
1.03125
 10
154.5012332227764
 20
109.0500787557319
 30
0.0
 10
154.8388929383509
 20
109.3317312531187
 30
0.0
 10
155.0184234649273
 20
109.4541692079786
 30
0.0
 10
155.3970488232891
 20
109.6655551394666
 30
0.0
 10
155.5977147927383
 20
109.7549765942498
 30
0.0
 10
156.0118407495927
 20
109.8971824511516
 30
0.0
 10
156.2227930578473
 20
109.9494366277532
 30
0.0
 10
156.6521675628447
 20
110.0178202912371
 30
0.0
 10
156.8726931193014
 20
110.0338074596883
 30
0.0
 10
157.3091807232197
 20
110.0279858002449
 30
0.0
 10
157.5251126795368
 20
110.0066395818732
 30
0.0
 10
157.9523793650225
 20
109.9272547979931
 30
0.0
 10
158.1657364885867
 20
109.8683046839954
 30
0.0
 10
158.5736773485582
 20
109.7157479035053
 30
0.0
 10
158.7690352662468
 20
109.6224358904194
 30
0.0
 10
159.1420878085926
 20
109.400760994769
 30
0.0
 10
159.3214560938709
 20
109.2706455068985
 30
0.0
 10
159.6469904880567
 20
108.9827260449386
 30
0.0
 10
159.7944765067614
 20
108.824681374172
 30
0.0
 10
160.0570764447681
 20
108.4786420517558
 30
0.0
 10
160.1725746976788
 20
108.2886818671911
 30
0.0
 10
160.3564390829539
 20
107.895499521283
 30
0.0
 10
160.4266812854491
 20
107.6904487695938
 30
0.0
 10
160.5204766802351
 20
107.2621015316009
 30
0.0
 10
160.5425953080218
 20
107.0425988367284
 30
0.0
 10
160.5363371684472
 20
106.6079899475377
 30
0.0
 10
160.5076224186345
 20
106.3878052407495
 30
0.0
 10
160.4019097100776
 20
105.963502922992
 30
0.0
 10
160.325822381211
 20
105.7595706242695
 30
0.0
 10
160.128817651512
 20
105.367532491629
 30
0.0
 10
160.0092272712491
 20
105.182898807646
 30
0.0
 10
159.7369540179596
 20
104.8433586839677
 30
0.0
 10
159.5816799137478
 20
104.6856082029574
 30
0.0
 10
159.2470066783835
 20
104.405388143563
 30
0.0
 10
159.0677612959508
 20
104.2823031032634
 30
0.0
 10
158.6864831244228
 20
104.0685849022198
 30
0.0
 10
158.4847244275548
 20
103.97863487118
 30
0.0
 10
158.0735396045576
 20
103.8368670267865
 30
0.0
 10
157.8623359188533
 20
103.7839806288593
 30
0.0
 10
157.428590506136
 20
103.714496497565
 30
0.0
 10
157.2099982930099
 20
103.6987111655992
 30
0.0
 10
156.5583807225802
 20
103.7066872984631
 30
0.0
 10
156.119182535024
 20
103.7876171503816
 30
0.0
 10
155.3066439714258
 20
104.0906560070067
 30
0.0
 10
154.9215295409182
 20
104.3175105006031
 30
0.0
 10
154.434893255871
 20
104.7473000046628
 30
0.0
 10
154.2851307514194
 20
104.9073109751669
 30
0.0
 10
154.0200728538211
 20
105.2570194690828
 30
0.0
 10
153.907599510081
 20
105.4424965799237
 30
0.0
 10
153.7236949984657
 20
105.8352561263042
 30
0.0
 10
153.6517525932015
 20
106.0457324560242
 30
0.0
 10
153.5587932603839
 20
106.4724841633745
 30
0.0
 10
153.5368541455695
 20
106.6886766869788
 30
0.0
 10
153.5432764355838
 20
107.1268386111219
 30
0.0
 10
153.5723271446678
 20
107.3466491213342
 30
0.0
 10
153.6778269893528
 20
107.7692675502469
 30
0.0
 10
153.7555738069568
 20
107.9771440851088
 30
0.0
 10
153.9525680404341
 20
108.3678234803019
 30
0.0
 10
154.071000775428
 20
108.5506370122941
 30
0.0
 10
154.3457203165653
 20
108.8925557956829
 30
0.0
 10
154.5012332227764
 20
109.0500787557319
 30
0.0
 10
154.8388929383509
 20
109.3317312531187
 30
0.0
  0
SPLINE
  5
AA
330
1F
100
AcDbEntity
  8
0
  6
Continuous
 62
     7
370
    15
100
AcDbSpline
210
0.0
220
0.0
230
1.0
 70
     8
 71
     3
 72
    27
 73
    23
 74
     0
 42
0.00000001
 43
0.00000001
 40
0.0
 40
0.0
 40
0.0
 40
0.0
 40
0.0030585053718243
 40
0.0513649896314728
 40
0.0962912053164443
 40
0.1424310070757664
 40
0.1891730411272491
 40
0.237061248169815
 40
0.2880640116557924
 40
0.3403048143014879
 40
0.396138555243798
 40
0.4534076068629732
 40
0.5126918656657925
 40
0.5736315958655498
 40
0.6339445232844889
 40
0.6960993493625524
 40
0.7546640991741597
 40
0.8152187551683775
 40
0.8690771302623987
 40
0.9248807079614074
 40
0.9730703796946681
 40
1.0
 40
1.0
 40
1.0
 40
1.0
 10
153.5423413208224
 20
80.86644057471905
 30
0.0
 10
153.541490540413
 20
80.86634814505797
 30
0.0
 10
153.5272024089258
 20
80.86479586771797
 30
0.0
 10
153.5802605427331
 20
80.87059787450359
 30
0.0
 10
153.703893441819
 20
80.88380075765943
 30
0.0
 10
153.9081550699848
 20
80.90463754841821
 30
0.0
 10
154.1821900429057
 20
80.93058365416704
 30
0.0
 10
154.5277936573647
 20
80.96007118329116
 30
0.0
 10
154.9415418814347
 20
80.99053029907003
 30
0.0
 10
155.424916795717
 20
81.01934328635792
 30
0.0
 10
155.9659156212914
 20
81.04284339771408
 30
0.0
 10
156.5569292927301
 20
81.05777077638943
 30
0.0
 10
157.17825400174
 20
81.06135264407678
 30
0.0
 10
157.8066864213667
 20
81.05220896458862
 30
0.0
 10
158.4233823507601
 20
81.03089688350701
 30
0.0
 10
158.9924666241153
 20
81.00035475351442
 30
0.0
 10
159.5036656292153
 20
80.96423638321039
 30
0.0
 10
159.9177773090697
 20
80.92894012460312
 30
0.0
 10
160.2383202347977
 20
80.89804413450192
 30
0.0
 10
160.4375830800979
 20
80.87726731196152
 30
0.0
 10
160.5351365795435
 20
80.86666682361907
 30
0.0
 10
160.5297782891384
 20
80.8672487573741
 30
0.0
 10
160.5278573880999
 20
80.8674573756217
 30
0.0
  0
LINE
  5
AB
330
1F
100
AcDbEntity
  8
0
  6
Continuous
 62
     7
370
    15
100
AcDbLine
 10
154.8357356761
 20
80.9817587675
 30
0.0
 11
154.67006308
 21
80.970300236
 31
0.0
  0
SPLINE
  5
AC
330
1F
100
AcDbEntity
  8
0
  6
Continuous
 62
     7
370
    15
100
AcDbSpline
210
0.0
220
0.0
230
1.0
 70
     8
 71
     3
 72
    22
 73
    18
 74
     0
 42
0.00000001
 43
0.00000001
 40
0.0
 40
0.0
 40
0.0
 40
0.0
 40
0.0214845389622189
 40
0.125639631805884
 40
0.195945197811946
 40
0.2582521570859927
 40
0.3125766612484522
 40
0.4099138575688387
 40
0.4989648392012984
 40
0.588032910287681
 40
0.6195996190870798
 40
0.6521032884532547
 40
0.6855544841784483
 40
0.7700652935994016
 40
0.8724461970060485
 40
0.9445662247511564
 40
1.0
 40
1.0
 40
1.0
 40
1.0
 10
224.0723727553419
 20
100.8172880949284
 30
0.0
 10
224.1662941215296
 20
100.8645477229543
 30
0.0
 10
224.7155377374753
 20
101.1409177337276
 30
0.0
 10
225.4439444461077
 20
101.7805352411227
 30
0.0
 10
226.2045441257773
 20
102.6457541276585
 30
0.0
 10
226.7001779499284
 20
103.4160988968241
 30
0.0
 10
227.1583156789306
 20
104.3593945067701
 30
0.0
 10
227.5019854578276
 20
105.5019273272283
 30
0.0
 10
227.6315424427517
 20
106.8634553293414
 30
0.0
 10
227.5334163965798
 20
107.9013038695487
 30
0.0
 10
227.367509013864
 20
108.6372059212467
 30
0.0
 10
227.2306592920935
 20
109.0971691473437
 30
0.0
 10
226.9712718885641
 20
109.7889511676643
 30
0.0
 10
226.4688462784937
 20
110.7494470835223
 30
0.0
 10
225.6688591054075
 20
111.7350854052296
 30
0.0
 10
224.8236191312596
 20
112.4763412551055
 30
0.0
 10
224.2903507940979
 20
112.7991845498089
 30
0.0
 10
224.0585970050639
 20
112.9394894424825
 30
0.0
  0
SPLINE
  5
AD
330
1F
100
AcDbEntity
  8
0
  6
Continuous
 62
     7
370
    15
100
AcDbSpline
210
0.0
220
0.0
230
1.0
 70
     8
 71
     3
 72
    22
 73
    18
 74
     0
 42
0.00000001
 43
0.00000001
 40
0.0
 40
0.0
 40
0.0
 40
0.0
 40
0.0211504138683768
 40
0.1254891658671667
 40
0.1958389442110585
 40
0.2582383692694139
 40
0.3127036875126245
 40
0.4101628034148516
 40
0.4992921009862671
 40
0.5882903446233281
 40
0.6198258133432316
 40
0.6522944186557973
 40
0.6857067967449783
 40
0.7700226515864984
 40
0.8723272762668787
 40
0.9442971200484171
 40
1.0
 40
1.0
 40
1.0
 40
1.0
 10
217.1065547990451
 20
112.915026204265
 30
0.0
 10
217.0140918663714
 20
112.8685164015184
 30
0.0
 10
216.4654928475976
 20
112.5925654727263
 30
0.0
 10
215.737240125243
 20
111.9534803209813
 30
0.0
 10
214.9754096361768
 20
111.0872303525771
 30
0.0
 10
214.478987864561
 20
110.3157326197231
 30
0.0
 10
214.0202633416467
 20
109.3707493538615
 30
0.0
 10
213.6766522155774
 20
108.2264155884855
 30
0.0
 10
213.5479748887401
 20
106.864161871574
 30
0.0
 10
213.6468129831518
 20
105.8265042064024
 30
0.0
 10
213.8130052258515
 20
105.091361214583
 30
0.0
 10
213.949943737133
 20
104.631972995507
 30
0.0
 10
214.2091651786698
 20
103.941558114627
 30
0.0
 10
214.7110352235285
 20
102.9825849846836
 30
0.0
 10
215.5095560850049
 20
101.9984909748614
 30
0.0
 10
216.3547159954593
 20
101.2569161523821
 30
0.0
 10
216.8883617010836
 20
100.9335601715164
 30
0.0
 10
217.1211882736505
 20
100.7924818044452
 30
0.0
  0
CIRCLE
  5
AE
330
1F
100
AcDbEntity
  8
0
  6
Continuous
 62
     7
370
    15
100
AcDbCircle
 10
157.0397604491
 20
106.8661601643
 30
0.0
 40
2.500000000000014
  0
LINE
  5
AF
330
1F
100
AcDbEntity
  8
0
  6
Continuous
 62
     7
370
    15
100
AcDbLine
 10
83.0897604491
 20
82.6457293025
 30
0.0
 11
83.0897604491
 21
131.086591026
 31
0.0
  0
LINE
  5
B0
330
1F
100
AcDbEntity
  8
0
  6
Continuous
 62
     7
370
    15
100
AcDbLine
 10
63.2897604491
 20
83.6377132705
 30
0.0
 11
63.2897604491
 21
84.9024226331
 31
0.0
  0
SPLINE
  5
B1
330
1F
100
AcDbEntity
  8
0
  6
Continuous
 62
     7
370
    15
100
AcDbSpline
210
0.0
220
0.0
230
1.0
 70
     8
 71
     3
 72
    14
 73
    10
 74
     0
 42
0.00000001
 43
0.00000001
 40
0.0
 40
0.0
 40
0.0
 40
0.0
 40
0.25
 40
0.25
 40
0.5
 40
0.5
 40
0.75
 40
0.75
 40
1.0
 40
1.0
 40
1.0
 40
1.0
 10
62.51147333117959
 20
86.0330088407111
 30
0.0
 10
62.56810000638168
 20
85.92531138687424
 30
0.0
 10
62.6626226666714
 20
85.82252180515493
 30
0.0
 10
62.84566764223364
 20
85.62416449293478
 30
0.0
 10
62.93729421918837
 20
85.52810498425653
 30
0.0
 10
63.09614753688156
 20
85.34057594154729
 30
0.0
 10
63.16403814450325
 20
85.24916696876372
 30
0.0
 10
63.26095517021084
 20
85.07079074785358
 30
0.0
 10
63.2897604490959
 20
84.98356884160741
 30
0.0
 10
63.28976044909589
 20
84.90242263307316
 30
0.0
  0
SPLINE
  5
B2
330
1F
100
AcDbEntity
  8
0
  6
Continuous
 62
     7
370
    15
100
AcDbSpline
210
0.0
220
0.0
230
1.0
 70
     8
 71
     3
 72
    14
 73
    10
 74
     0
 42
0.00000001
 43
0.00000001
 40
0.0
 40
0.0
 40
0.0
 40
0.0
 40
0.1249999999999975
 40
0.1249999999999975
 40
0.249999999999995
 40
0.249999999999995
 40
0.4999999999999953
 40
0.4999999999999953
 40
1.0
 40
1.0
 40
1.0
 40
1.0
 10
61.88976044909532
 20
86.47969070299042
 30
0.0
 10
61.93830485775248
 20
86.48543901627072
 30
0.0
 10
61.99122021253739
 20
86.48233812761448
 30
0.0
 10
62.08651555752043
 20
86.46014328345215
 30
0.0
 10
62.12676655480539
 20
86.4429110563563
 30
0.0
 10
62.23103656831835
 20
86.38658313990423
 30
0.0
 10
62.28135854347168
 20
86.34239679395843
 30
0.0
 10
62.40904149099706
 20
86.2113888951078
 30
0.0
 10
62.46512693805932
 20
86.1211543748775
 30
0.0
 10
62.51147333118107
 20
86.03300884071163
 30
0.0
  0
SPLINE
  5
B3
330
1F
100
AcDbEntity
  8
0
  6
Continuous
 62
     7
370
    15
100
AcDbSpline
210
0.0
220
0.0
230
1.0
 70
     8
 71
     3
 72
     8
 73
     4
 74
     0
 42
0.00000001
 43
0.00000001
 40
0.0
 40
0.0
 40
0.0
 40
0.0
 40
1.0
 40
1.0
 40
1.0
 40
1.0
 10
59.62123535614909
 20
86.16984541640764
 30
0.0
 10
60.35581238263205
 20
86.28847042747658
 30
0.0
 10
61.11928745202771
 20
86.38845629961287
 30
0.0
 10
61.88976044909533
 20
86.47969070299041
 30
0.0
  0
SPLINE
  5
B4
330
1F
100
AcDbEntity
  8
0
  6
Continuous
 62
     7
370
    15
100
AcDbSpline
210
0.0
220
0.0
230
1.0
 70
     8
 71
     3
 72
    14
 73
    10
 74
     0
 42
0.00000001
 43
0.00000001
 40
0.0
 40
0.0
 40
0.0
 40
0.0
 40
0.500000000000001
 40
0.500000000000001
 40
0.7500000000000004
 40
0.7500000000000004
 40
0.8750000000000003
 40
0.8750000000000003
 40
1.0
 40
1.0
 40
1.0
 40
1.0
 10
54.33976044909532
 20
85.99622239887599
 30
0.0
 10
55.23190657964889
 20
85.99550017267534
 30
0.0
 10
56.12188301544249
 20
86.0000863791328
 30
0.0
 10
57.44847818251811
 20
86.02781138352434
 30
0.0
 10
57.88932511101682
 20
86.0404179211485
 30
0.0
 10
58.54576534843925
 20
86.07143406915596
 30
0.0
 10
58.76377900503113
 20
86.08377724178273
 30
0.0
 10
59.19648785871391
 20
86.11680129694602
 30
0.0
 10
59.41176432387871
 20
86.13601846208445
 30
0.0
 10
59.62123535614911
 20
86.16984541640764
 30
0.0
  0
SPLINE
  5
B5
330
1F
100
AcDbEntity
  8
0
  6
Continuous
 62
     7
370
    15
100
AcDbSpline
210
0.0
220
0.0
230
1.0
 70
     8
 71
     3
 72
     8
 73
     4
 74
     0
 42
0.00000001
 43
0.00000001
 40
0.0000005163856998
 40
0.0000005163856998
 40
0.0000005163856998
 40
0.0000005163856998
 40
0.000026289209185
 40
0.000026289209185
 40
0.000026289209185
 40
0.000026289209185
 10
54.32971551868771
 20
86.00620627197277
 30
0.0
 10
54.33304325689553
 20
86.00287202510366
 30
0.0
 10
54.33639170987113
 20
85.99954406782834
 30
0.0
 10
54.33976044909529
 20
85.99622239887597
 30
0.0
  0
SPLINE
  5
B6
330
1F
100
AcDbEntity
  8
0
  6
Continuous
 62
     7
370
    15
100
AcDbSpline
210
0.0
220
0.0
230
1.0
 70
     8
 71
     3
 72
     8
 73
     4
 74
     0
 42
0.00000001
 43
0.00000001
 40
0.0000005099763573
 40
0.0000005099763573
 40
0.0000005099763573
 40
0.0000005099763573
 40
0.0000262827998699
 40
0.0000262827998699
 40
0.0000262827998699
 40
0.0000262827998699
 10
54.3397604490953
 20
127.7360979296661
 30
0.0
 10
54.33639170986755
 20
127.7327762607103
 30
0.0
 10
54.33304325688841
 20
127.7294483034314
 30
0.0
 10
54.32971551867708
 20
127.7261140565587
 30
0.0
  0
SPLINE
  5
B7
330
1F
100
AcDbEntity
  8
0
  6
Continuous
 62
     7
370
    15
100
AcDbSpline
210
0.0
220
0.0
230
1.0
 70
     8
 71
     3
 72
    10
 73
     6
 74
     0
 42
0.00000001
 43
0.00000001
 40
0.0
 40
0.0
 40
0.0
 40
0.0
 40
0.5
 40
0.5
 40
1.0
 40
1.0
 40
1.0
 40
1.0
 10
57.88976044909533
 20
127.6892475560988
 30
0.0
 10
57.30217490200473
 20
127.7103130763352
 30
0.0
 10
56.71142850854434
 20
127.7210715622074
 30
0.0
 10
55.52740934324549
 20
127.7344363427431
 30
0.0
 10
54.93399535504003
 20
127.7365789854077
 30
0.0
 10
54.33976044909532
 20
127.7360979296661
 30
0.0
  0
SPLINE
  5
B8
330
1F
100
AcDbEntity
  8
0
  6
Continuous
 62
     7
370
    15
100
AcDbSpline
210
0.0
220
0.0
230
1.0
 70
     8
 71
     3
 72
    18
 73
    14
 74
     0
 42
0.00000001
 43
0.00000001
 40
0.0
 40
0.0
 40
0.0
 40
0.0
 40
0.2500000000000009
 40
0.2500000000000009
 40
0.500000000000001
 40
0.500000000000001
 40
0.7500000000000011
 40
0.7500000000000011
 40
0.875000000000001
 40
0.875000000000001
 40
0.9375000000000006
 40
0.9375000000000006
 40
1.0
 40
1.0
 40
1.0
 40
1.0
 10
59.28976044909533
 20
128.710267836634
 30
0.0
 10
59.28976044909534
 20
128.6270609277769
 30
0.0
 10
59.25391134915706
 20
128.5383242724633
 30
0.0
 10
59.12903961312313
 20
128.356199081903
 30
0.0
 10
59.03863919547526
 20
128.2610690332764
 30
0.0
 10
58.81639654073309
 20
128.0718875241521
 30
0.0
 10
58.68663175428732
 20
127.9769423560574
 30
0.0
 10
58.4459942969758
 20
127.8386636484775
 30
0.0
 10
58.35822699883836
 20
127.7929532151751
 30
0.0
 10
58.20370291163156
 20
127.7351299099536
 30
0.0
 10
58.1470920255768
 20
127.7174151459158
 30
0.0
 10
58.0230479946702
 20
127.6928758426828
 30
0.0
 10
57.95533331965191
 20
127.6868967041445
 30
0.0
 10
57.88976044909531
 20
127.6892475560988
 30
0.0
  0
LINE
  5
B9
330
1F
100
AcDbEntity
  8
0
  6
Continuous
 62
     7
370
    15
100
AcDbLine
 10
59.2897604491
 20
128.7102678366
 30
0.0
 11
59.2897604491
 21
129.8942062565
 31
0.0
  0
SPLINE
  5
BA
330
1F
100
AcDbEntity
  8
0
  6
Continuous
 62
     7
370
    15
100
AcDbSpline
210
0.0
220
0.0
230
1.0
 70
     8
 71
     3
 72
    18
 73
    14
 74
     0
 42
0.00000001
 43
0.00000001
 40
0.0
 40
0.0
 40
0.0
 40
0.0
 40
0.0010671296451833
 40
0.1270947795731636
 40
0.252405345751277
 40
0.3766468878987097
 40
0.4391415999051428
 40
0.5008278021400407
 40
0.5624255708808511
 40
0.6253162439161145
 40
0.7499985144706707
 40
0.8752758950341254
 40
1.0
 40
1.0
 40
1.0
 40
1.0
 10
71.860061289168
 20
83.2088211413547
 30
0.0
 10
71.8591494565295
 20
83.20870636281808
 30
0.0
 10
71.75055049789269
 20
83.19503627795213
 30
0.0
 10
72.13819156554233
 20
83.24595577856778
 30
0.0
 10
73.00415624737754
 20
83.34553895161423
 30
0.0
 10
74.20456017214735
 20
83.41466283475793
 30
0.0
 10
75.26213608663608
 20
83.41861506389674
 30
0.0
 10
76.08927017354225
 20
83.39112612544172
 30
0.0
 10
76.9145420411765
 20
83.33258594903393
 30
0.0
 10
77.96890726117647
 20
83.21906478929836
 30
0.0
 10
79.13074354265179
 20
83.03591396504973
 30
0.0
 10
80.08297832403537
 20
82.8313107554148
 30
0.0
 10
80.20868338484323
 20
82.80202540463873
 30
0.0
 10
80.27139681698843
 20
82.78741513479804
 30
0.0
  0
SPLINE
  5
BB
330
1F
100
AcDbEntity
  8
0
  6
Continuous
 62
     7
370
    15
100
AcDbSpline
210
0.0
220
0.0
230
1.0
 70
     8
 71
     3
 72
    18
 73
    14
 74
     0
 42
0.00000001
 43
0.00000001
 40
0.0
 40
0.0
 40
0.0
 40
0.0
 40
0.1248907792210109
 40
0.2505384020341698
 40
0.3748721840485282
 40
0.437490765334968
 40
0.4990776265894272
 40
0.5607931536353509
 40
0.6233901338664932
 40
0.7478191038417344
 40
0.8731940995934958
 40
0.9991614644710078
 40
0.9999999999999999
 40
0.9999999999999999
 40
0.9999999999999999
 40
0.9999999999999999
 10
80.27117805146453
 20
130.9448400131897
 30
0.0
 10
80.20743729875288
 20
130.9301787205916
 30
0.0
 10
80.0795695215764
 20
130.9007672873202
 30
0.0
 10
79.127570300516
 20
130.6958141832577
 30
0.0
 10
77.96702659531273
 20
130.5125504074468
 30
0.0
 10
76.9147621432246
 20
130.3995228151979
 30
0.0
 10
76.09053502815702
 20
130.3412591676565
 30
0.0
 10
75.26293125863658
 20
130.3138127796523
 30
0.0
 10
74.20411406615153
 20
130.3177975855815
 30
0.0
 10
73.00189536811654
 20
130.3868870619629
 30
0.0
 10
72.13671142842922
 20
130.4865132785195
 30
0.0
 10
71.75057100689901
 20
130.5373293521201
 30
0.0
 10
71.85864254767938
 20
130.5236571720569
 30
0.0
 10
71.85935719759966
 20
130.5235667613686
 30
0.0
  0
SPLINE
  5
BC
330
1F
100
AcDbEntity
  8
0
  6
Continuous
 62
     7
370
    15
100
AcDbSpline
210
0.0
220
0.0
230
1.0
 70
     8
 71
     3
 72
     9
 73
     5
 74
     0
 42
0.00000001
 43
0.00000001
 40
0.0
 40
0.0
 40
0.0
 40
0.0
 40
0.7009329310330167
 40
1.0
 40
1.0
 40
1.0
 40
1.0
 10
53.21054513333078
 20
87.16487986016844
 30
0.0
 10
53.21968441000607
 20
87.1470505746269
 30
0.0
 10
53.23272314205966
 20
87.12161406743462
 30
0.0
 10
53.24788839582498
 20
87.17549392762643
 30
0.0
 10
53.2524238238187
 20
87.19160761949033
 30
0.0
  0
LINE
  5
BD
330
1F
100
AcDbEntity
  8
0
  6
Continuous
 62
     7
370
    15
100
AcDbLine
 10
53.1897604491
 20
87.1754824178
 30
0.0
 11
53.1897604491
 21
126.5568379107
 31
0.0
  0
SPLINE
  5
BE
330
1F
100
AcDbEntity
  8
0
  6
Continuous
 62
     7
370
    15
100
AcDbSpline
210
0.0
220
0.0
230
1.0
 70
     8
 71
     3
 72
    10
 73
     6
 74
     0
 42
0.00000001
 43
0.00000001
 40
0.0
 40
0.0
 40
0.0
 40
0.0
 40
0.5
 40
0.5
 40
1.0
 40
1.0
 40
1.0
 40
1.0
 10
53.25242382381873
 20
126.5407127090518
 30
0.0
 10
53.24351953470998
 20
126.586454228265
 30
0.0
 10
53.22700415451699
 20
126.603645067734
 30
0.0
 10
53.19989620845539
 20
126.6033217907982
 30
0.0
 10
53.18976044909532
 20
126.5854442485018
 30
0.0
 10
53.18976044909532
 20
126.5568379107492
 30
0.0
  0
SPLINE
  5
BF
330
1F
100
AcDbEntity
  8
0
  6
Continuous
 62
     7
370
    15
100
AcDbSpline
210
0.0
220
0.0
230
1.0
 70
     8
 71
     3
 72
    26
 73
    22
 74
     0
 42
0.00000001
 43
0.00000001
 40
0.0
 40
0.0
 40
0.0
 40
0.0
 40
0.2500000000000165
 40
0.2500000000000165
 40
0.3750000000000256
 40
0.3750000000000256
 40
0.4375000000000291
 40
0.4375000000000291
 40
0.4687500000000291
 40
0.4687500000000291
 40
0.5000000000000292
 40
0.5000000000000292
 40
0.5312500000000293
 40
0.5312500000000293
 40
0.5625000000000293
 40
0.5625000000000293
 40
0.625000000000026
 40
0.625000000000026
 40
0.7500000000000173
 40
0.7500000000000173
 40
1.0
 40
1.0
 40
1.0
 40
1.0
 10
54.01391409519983
 20
127.2562794978689
 30
0.0
 10
53.97531357233136
 20
127.1385048015134
 30
0.0
 10
53.9290165697771
 20
127.0141151153515
 30
0.0
 10
53.83507722134318
 20
126.808895782998
 30
0.0
 10
53.79976575442971
 20
126.7373229165516
 30
0.0
 10
53.73358577868403
 20
126.6213696839512
 30
0.0
 10
53.70904741201582
 20
126.5807851491409
 30
0.0
 10
53.66567466646202
 20
126.5166434672691
 30
0.0
 10
53.65016626503682
 20
126.4947770419841
 30
0.0
 10
53.61512362044979
 20
126.4491827736409
 30
0.0
 10
53.59557332973003
 20
126.4255124826735
 30
0.0
 10
53.55364604935941
 20
126.3808959233336
 30
0.0
 10
53.53099393912778
 20
126.3600159108156
 30
0.0
 10
53.49002022504115
 20
126.3291424970648
 30
0.0
 10
53.47242092514573
 20
126.3193036272324
 30
0.0
 10
53.42779393928958
 20
126.3003140115362
 30
0.0
 10
53.40723471663625
 20
126.2999896868828
 30
0.0
 10
53.35610927713957
 20
126.309213127759
 30
0.0
 10
53.33519786415103
 20
126.330460023976
 30
0.0
 10
53.2837479565901
 20
126.4044289028068
 30
0.0
 10
53.26608265728555
 20
126.4705469961215
 30
0.0
 10
53.25242382381873
 20
126.5407127090518
 30
0.0
  0
SPLINE
  5
C0
330
1F
100
AcDbEntity
  8
0
  6
Continuous
 62
     7
370
    15
100
AcDbSpline
210
0.0
220
0.0
230
1.0
 70
     8
 71
     3
 72
    10
 73
     6
 74
     0
 42
0.00000001
 43
0.00000001
 40
0.0
 40
0.0
 40
0.0
 40
0.0
 40
0.5
 40
0.5
 40
1.0
 40
1.0
 40
1.0
 40
1.0
 10
54.32971551867711
 20
127.7261140565587
 30
0.0
 10
54.26215626375885
 20
127.6584226637489
 30
0.0
 10
54.19851960842237
 20
127.5837154989953
 30
0.0
 10
54.08829885385052
 20
127.4247493665687
 30
0.0
 10
54.04148256062789
 20
127.3403941005607
 30
0.0
 10
54.01391409519982
 20
127.2562794978689
 30
0.0
  0
SPLINE
  5
C1
330
1F
100
AcDbEntity
  8
0
  6
Continuous
 62
     7
370
    15
100
AcDbSpline
210
0.0
220
0.0
230
1.0
 70
     8
 71
     3
 72
    10
 73
     6
 74
     0
 42
0.00000001
 43
0.00000001
 40
0.0
 40
0.0
 40
0.0
 40
0.0
 40
0.5
 40
0.5
 40
1.0
 40
1.0
 40
1.0
 40
1.0
 10
54.01391409519987
 20
86.47604083067309
 30
0.0
 10
54.04139150995384
 20
86.3922040342052
 30
0.0
 10
54.08810014024326
 20
86.30789354661606
 30
0.0
 10
54.19837860298921
 20
86.14877231612935
 30
0.0
 10
54.26226614160311
 20
86.0737875720397
 30
0.0
 10
54.32971551868772
 20
86.00620627197277
 30
0.0
  0
SPLINE
  5
C2
330
1F
100
AcDbEntity
  8
0
  6
Continuous
 62
     7
370
    15
100
AcDbSpline
210
0.0
220
0.0
230
1.0
 70
     8
 71
     3
 72
    24
 73
    20
 74
     0
 42
0.00000001
 43
0.00000001
 40
0.0
 40
0.0
 40
0.0
 40
0.0
 40
0.25
 40
0.25
 40
0.374999999999999
 40
0.374999999999999
 40
0.4374999999999993
 40
0.4374999999999993
 40
0.4687499999999994
 40
0.4687499999999994
 40
0.4999999999999995
 40
0.4999999999999995
 40
0.5624999999999971
 40
0.5624999999999971
 40
0.6249999999999947
 40
0.6249999999999947
 40
0.7499999999999947
 40
0.7499999999999947
 40
1.0
 40
1.0
 40
1.0
 40
1.0
 10
53.25242382381873
 20
87.19160761949033
 30
0.0
 10
53.26617694248895
 20
87.2622576774806
 30
0.0
 10
53.28394950989482
 20
87.32885579024551
 30
0.0
 10
53.33620060145017
 20
87.40295381047873
 30
0.0
 10
53.35723567703174
 20
87.42421161764028
 30
0.0
 10
53.41013608466017
 20
87.43235754378654
 30
0.0
 10
53.43124175753807
 20
87.43141774039076
 30
0.0
 10
53.47729392621606
 20
87.41040174881341
 30
0.0
 10
53.49566439819944
 20
87.39949294270579
 30
0.0
 10
53.53721603326514
 20
87.36685803175843
 30
0.0
 10
53.55978270602206
 20
87.34536605138707
 30
0.0
 10
53.62256372248207
 20
87.27690010780074
 30
0.0
 10
53.65569348344998
 20
87.23082564959566
 30
0.0
 10
53.71261116993497
 20
87.14581776126099
 30
0.0
 10
53.73679719543875
 20
87.1055374600796
 30
0.0
 10
53.80200514581851
 20
86.99060123361366
 30
0.0
 10
53.83672120600976
 20
86.92001824846665
 30
0.0
 10
53.92993647634064
 20
86.71581248938804
 30
0.0
 10
53.97560901170132
 20
86.5929141070607
 30
0.0
 10
54.01391409519986
 20
86.47604083067311
 30
0.0
  0
LINE
  5
C3
330
1F
100
AcDbEntity
  8
0
  6
Continuous
 62
     7
370
    15
100
AcDbLine
 10
245.0897604491
 20
88.1403006859
 30
0.0
 11
245.0897604491
 21
125.5920195879
 31
0.0
  0
SPLINE
  5
C4
330
1F
100
AcDbEntity
  8
0
  6
Continuous
 62
     7
370
    15
100
AcDbSpline
210
0.0
220
0.0
230
1.0
 70
     8
 71
     3
 72
     8
 73
     4
 74
     0
 42
0.00000001
 43
0.00000001
 40
0.0
 40
0.0
 40
0.0
 40
0.0
 40
1.0
 40
1.0
 40
1.0
 40
1.0
 10
106.4816932805844
 20
137.3333556374353
 30
0.0
 10
105.9865532512201
 20
136.446675989255
 30
0.0
 10
105.4924705459411
 20
135.5594133535691
 30
0.0
 10
104.9997604490953
 20
134.6713943554427
 30
0.0
  0
LINE
  5
C5
330
1F
100
AcDbEntity
  8
0
  6
Continuous
 62
     7
370
    15
100
AcDbLine
 10
106.4816932806
 20
131.3248498266
 30
0.0
 11
106.4816932806
 21
137.3333556374
 31
0.0
  0
SPLINE
  5
C6
330
1F
100
AcDbEntity
  8
0
  6
Continuous
 62
     7
370
    15
100
AcDbSpline
210
0.0
220
0.0
230
1.0
 70
     8
 71
     3
 72
     8
 73
     4
 74
     0
 42
0.00000001
 43
0.00000001
 40
0.0
 40
0.0
 40
0.0
 40
0.0
 40
1.0
 40
1.0
 40
1.0
 40
1.0
 10
104.9997604490953
 20
127.9163038318544
 30
0.0
 10
105.4790385996852
 20
129.057315061707
 30
0.0
 10
105.9746064388251
 20
130.1936994724748
 30
0.0
 10
106.4816932805844
 20
131.3248498266385
 30
0.0
  0
LINE
  5
C7
330
1F
100
AcDbEntity
  8
0
  6
Continuous
 62
     7
370
    15
100
AcDbLine
 10
104.9997604491
 20
127.9163038319
 30
0.0
 11
104.9997604491
 21
134.6713943554
 31
0.0
  0
SPLINE
  5
C8
330
1F
100
AcDbEntity
  8
0
  6
Continuous
 62
     7
370
    15
100
AcDbSpline
210
0.0
220
0.0
230
1.0
 70
     8
 71
     3
 72
     8
 73
     4
 74
     0
 42
0.00000001
 43
0.00000001
 40
0.0
 40
0.0
 40
0.0
 40
0.0
 40
1.0
 40
1.0
 40
1.0
 40
1.0
 10
99.69782761760626
 20
131.3248498266385
 30
0.0
 10
100.2049144593655
 20
130.1936994724748
 30
0.0
 10
100.7004822985055
 20
129.057315061707
 30
0.0
 10
101.1797604490953
 20
127.9163038318544
 30
0.0
  0
LINE
  5
C9
330
1F
100
AcDbEntity
  8
0
  6
Continuous
 62
     7
370
    15
100
AcDbLine
 10
101.1797604491
 20
127.9163038319
 30
0.0
 11
101.1797604491
 21
127.0020267957
 31
0.0
  0
LINE
  5
CA
330
1F
100
AcDbEntity
  8
0
  6
Continuous
 62
     7
370
    15
100
AcDbLine
 10
110.4397604491
 20
137.3333556374
 30
0.0
 11
106.4816932806
 21
137.3333556374
 31
0.0
  0
LINE
  5
CB
330
1F
100
AcDbEntity
  8
0
  6
Continuous
 62
     7
370
    15
100
AcDbLine
 10
106.4816932806
 20
131.3248498266
 30
0.0
 11
110.4397604491
 21
131.3248498266
 31
0.0
  0
SPLINE
  5
CC
330
1F
100
AcDbEntity
  8
0
  6
Continuous
 62
     7
370
    15
100
AcDbSpline
210
0.0
220
0.0
230
1.0
 70
     8
 71
     3
 72
     8
 73
     4
 74
     0
 42
0.00000001
 43
0.00000001
 40
0.0
 40
0.0
 40
0.0
 40
0.0
 40
1.0
 40
1.0
 40
1.0
 40
1.0
 10
101.1797604490953
 20
134.6713943554427
 30
0.0
 10
100.6870503522496
 20
135.5594133535691
 30
0.0
 10
100.1929676469706
 20
136.4466759892551
 30
0.0
 10
99.69782761760626
 20
137.3333556374353
 30
0.0
  0
LINE
  5
CD
330
1F
100
AcDbEntity
  8
0
  6
Continuous
 62
     7
370
    15
100
AcDbLine
 10
101.1797604491
 20
127.9163038319
 30
0.0
 11
101.1797604491
 21
134.6713943554
 31
0.0
  0
SPLINE
  5
CE
330
1F
100
AcDbEntity
  8
0
  6
Continuous
 62
     7
370
    15
100
AcDbSpline
210
0.0
220
0.0
230
1.0
 70
     8
 71
     3
 72
    12
 73
     8
 74
     0
 42
0.00000001
 43
0.00000001
 40
0.0
 40
0.0
 40
0.0
 40
0.0
 40
0.250000000000002
 40
0.250000000000002
 40
0.500000000000004
 40
0.500000000000004
 40
1.0
 40
1.0
 40
1.0
 40
1.0
 10
110.4397604490953
 20
131.3248498266385
 30
0.0
 10
110.530960170921
 20
131.3248498266385
 30
0.0
 10
110.621555180057
 20
131.2966301280506
 30
0.0
 10
110.7749679065036
 20
131.2021871208025
 30
0.0
 10
110.8401767738273
 20
131.1359001440972
 30
0.0
 10
110.9929613031673
 20
130.9102753208089
 30
0.0
 10
111.0397604490953
 20
130.7278490577764
 30
0.0
 10
111.0397604490953
 20
130.5471124255295
 30
0.0
  0
LINE
  5
CF
330
1F
100
AcDbEntity
  8
0
  6
Continuous
 62
     7
370
    15
100
AcDbLine
 10
104.9997604491
 20
127.0020267957
 30
0.0
 11
104.9997604491
 21
127.9163038319
 31
0.0
  0
LINE
  5
D0
330
1F
100
AcDbEntity
  8
0
  6
Continuous
 62
     7
370
    15
100
AcDbLine
 10
111.0397604491
 20
130.5471124255
 30
0.0
 11
111.0397604491
 21
126.7161601643
 31
0.0
  0
SPLINE
  5
D1
330
1F
100
AcDbEntity
  8
0
  6
Continuous
 62
     7
370
    15
100
AcDbSpline
210
0.0
220
0.0
230
1.0
 70
     8
 71
     3
 72
    10
 73
     6
 74
     0
 42
0.00000001
 43
0.00000001
 40
0.0
 40
0.0
 40
0.0
 40
0.0
 40
0.5
 40
0.5
 40
1.0
 40
1.0
 40
1.0
 40
1.0
 10
111.0397604490953
 20
136.712600488035
 30
0.0
 10
111.0397604490953
 20
136.8730057543858
 30
0.0
 10
110.9775226179885
 20
137.0320675673744
 30
0.0
 10
110.7583876942459
 20
137.2629800330047
 30
0.0
 10
110.600798999254
 20
137.3333556374353
 30
0.0
 10
110.4397604490953
 20
137.3333556374353
 30
0.0
  0
LINE
  5
D2
330
1F
100
AcDbEntity
  8
0
  6
Continuous
 62
     7
370
    15
100
AcDbLine
 10
111.0397604491
 20
130.5471124255
 30
0.0
 11
111.0397604491
 21
136.712600488
 31
0.0
  0
ARC
  5
D3
330
1F
100
AcDbEntity
  8
0
  6
Continuous
 62
     7
370
    15
100
AcDbCircle
 10
93.0899538675
 20
125.6262812025
 30
0.0
 40
7.198006947530882
100
AcDbArc
 50
70.8187823495
 51
109.2444289262
  0
ARC
  5
D4
330
1F
100
AcDbEntity
  8
0
  6
HIDDEN
 62
     7
370
     0
100
AcDbCircle
 10
220.5897604491
 20
106.8661601643
 30
0.0
 40
7.000000000000002
100
AcDbArc
 50
119.6094583666
 51
240.4538608566
  0
ARC
  5
D5
330
1F
100
AcDbEntity
  8
0
  6
HIDDEN
 62
     7
370
     0
100
AcDbCircle
 10
220.5897604491
 20
106.8661601643
 30
0.0
 40
8.000000000000036
100
AcDbArc
 50
7.2294785656
 51
87.4146870949
  0
ARC
  5
D6
330
1F
100
AcDbEntity
  8
0
  6
HIDDEN
 62
     7
370
     0
100
AcDbCircle
 10
220.5897604491
 20
106.8661601643
 30
0.0
 40
7.999999999999994
100
AcDbArc
 50
262.1165144231
 51
275.8067741231
  0
ARC
  5
D7
330
1F
100
AcDbEntity
  8
0
  6
HIDDEN
 62
     7
370
     0
100
AcDbCircle
 10
220.5897604491
 20
106.8661601643
 30
0.0
 40
8.000000000000036
100
AcDbArc
 50
282.0521245845
 51
7.2294785656
  0
CIRCLE
  5
D8
330
1F
100
AcDbEntity
  8
0
  6
HIDDEN
 62
     7
370
     0
100
AcDbCircle
 10
220.5897604491
 20
106.8661601643
 30
0.0
 40
4.000000000000033
  0
CIRCLE
  5
D9
330
1F
100
AcDbEntity
  8
0
  6
HIDDEN
 62
     7
370
     0
100
AcDbCircle
 10
220.5897604491
 20
106.8661601643
 30
0.0
 40
5.500000000000004
  0
LWPOLYLINE
  5
DA
330
1F
100
AcDbEntity
  8
0
  6
HIDDEN
 62
     7
370
     0
100
AcDbPolyline
 90
       17
 70
   128
 43
0.0
 10
239.6744456083
 20
94.6595110778
 10
239.6592954039
 20
94.6210221525
 10
239.6386873936
 20
94.8088651803
 10
239.6157589602
 20
95.194442763
 10
239.5940007498
 20
95.7190542088
 10
239.5767252526
 20
96.3028321808
 10
239.5665625066
 20
96.8569017747
 10
239.5650596977
 20
97.2969109174
 10
239.5724456149
 20
97.5558722058
 10
239.5875958193
 20
97.594361131
 10
239.6082038296
 20
97.4065181032
 10
239.631132263
 20
97.0209405205
 10
239.6528904734
 20
96.4963290747
 10
239.6701659705
 20
95.9125511027
 10
239.6803287166
 20
95.3584815088
 10
239.6818315255
 20
94.9184723661
 10
239.6744456083
 20
94.6595110778
  0
LWPOLYLINE
  5
DB
330
1F
100
AcDbEntity
  8
0
  6
HIDDEN
 62
     7
370
     0
100
AcDbPolyline
 90
       17
 70
   128
 43
0.0
 10
239.1578310913
 20
95.1283574914
 10
239.147730955
 20
95.102698208
 10
239.1339922815
 20
95.2279268932
 10
239.1187066592
 20
95.4849786149
 10
239.1042011856
 20
95.8347195788
 10
239.0926841875
 20
96.2239048935
 10
239.0859090235
 20
96.5932846227
 10
239.0849071509
 20
96.8866240512
 10
239.0898310957
 20
97.0592649101
 10
239.0999312319
 20
97.0849241936
 10
239.1136699054
 20
96.9596955084
 10
239.1289555277
 20
96.7026437866
 10
239.1434610013
 20
96.3529028227
 10
239.1549779994
 20
95.9637175081
 10
239.1617531634
 20
95.5943377788
 10
239.1627550361
 20
95.3009983503
 10
239.1578310913
 20
95.1283574914
  0
LWPOLYLINE
  5
DC
330
1F
100
AcDbEntity
  8
0
  6
HIDDEN
 62
     7
370
     0
100
AcDbPolyline
 90
       17
 70
   128
 43
0.0
 10
245.0083834122
 20
94.8077001439
 10
244.9932332078
 20
94.7692112186
 10
244.9726251975
 20
94.9570542464
 10
244.9496967641
 20
95.3426318291
 10
244.9279385537
 20
95.8672432749
 10
244.9106630565
 20
96.4510212469
 10
244.9005003105
 20
97.0050908408
 10
244.8989975016
 20
97.4450999835
 10
244.9063834188
 20
97.7040612719
 10
244.9215336232
 20
97.7425501971
 10
244.9421416334
 20
97.5547071693
 10
244.9650700669
 20
97.1691295866
 10
244.9868282773
 20
96.6445181408
 10
245.0041037744
 20
96.0607401688
 10
245.0142665204
 20
95.5066705749
 10
245.0157693294
 20
95.0666614322
 10
245.0083834122
 20
94.8077001439
  0
ARC
  5
DD
330
1F
100
AcDbEntity
  8
0
  6
HIDDEN
 62
     7
370
     0
100
AcDbCircle
 10
258.5627075925
 20
96.6158769828
 30
0.0
 40
13.50000978818721
100
AcDbArc
 50
176.3714903393
 51
186.6915291025
  0
LINE
  5
DE
330
1F
100
AcDbEntity
  8
0
  6
HIDDEN
 62
     7
370
     0
100
AcDbLine
 10
243.1501921003
 20
95.9811197258
 30
0.0
 11
243.1501921003
 21
95.3687472901
 31
0.0
  0
LINE
  5
DF
330
1F
100
AcDbEntity
  8
0
  6
HIDDEN
 62
     7
370
     0
100
AcDbLine
 10
245.1486501727
 20
96.0366414897
 30
0.0
 11
245.1486501727
 21
95.424269054
 31
0.0
  0
LINE
  5
E0
330
1F
100
AcDbEntity
  8
0
  6
HIDDEN
 62
     7
370
     0
100
AcDbLine
 10
243.1501921003
 20
95.9811197258
 30
0.0
 11
245.1486501727
 21
96.0366414897
 31
0.0
  0
LINE
  5
E1
330
1F
100
AcDbEntity
  8
0
  6
HIDDEN
 62
     7
370
     0
100
AcDbLine
 10
243.1501921003
 20
95.9811197258
 30
0.0
 11
243.1207472384
 21
96.8172271643
 31
0.0
  0
LINE
  5
E2
330
1F
100
AcDbEntity
  8
0
  6
HIDDEN
 62
     7
370
     0
100
AcDbLine
 10
245.1486501727
 20
96.0366414897
 30
0.0
 11
245.1192053109
 21
96.8727489282
 31
0.0
  0
LINE
  5
E3
330
1F
100
AcDbEntity
  8
0
  6
HIDDEN
 62
     7
370
     0
100
AcDbLine
 10
243.1207472384
 20
96.8172271643
 30
0.0
 11
245.1192053109
 21
96.8727489282
 31
0.0
  0
LINE
  5
E4
330
1F
100
AcDbEntity
  8
0
  6
HIDDEN
 62
     7
370
     0
100
AcDbLine
 10
243.1207472384
 20
96.8172271643
 30
0.0
 11
243.0913023766
 21
97.040962167
 31
0.0
  0
LINE
  5
E5
330
1F
100
AcDbEntity
  8
0
  6
HIDDEN
 62
     7
370
     0
100
AcDbLine
 10
245.1192053109
 20
96.8727489282
 30
0.0
 11
245.0897604491
 21
97.096483931
 31
0.0
  0
LINE
  5
E6
330
1F
100
AcDbEntity
  8
0
  6
HIDDEN
 62
     7
370
     0
100
AcDbLine
 10
243.1207472384
 20
95.5924822929
 30
0.0
 11
245.1192053109
 21
95.6480040568
 31
0.0
  0
LINE
  5
E7
330
1F
100
AcDbEntity
  8
0
  6
HIDDEN
 62
     7
370
     0
100
AcDbLine
 10
243.1501921003
 20
95.3687472901
 30
0.0
 11
245.1486501727
 21
95.424269054
 31
0.0
  0
LINE
  5
E8
330
1F
100
AcDbEntity
  8
0
  6
HIDDEN
 62
     7
370
     0
100
AcDbLine
 10
243.1207472384
 20
95.5924822929
 30
0.0
 11
243.1501921003
 21
95.3687472901
 31
0.0
  0
LINE
  5
E9
330
1F
100
AcDbEntity
  8
0
  6
HIDDEN
 62
     7
370
     0
100
AcDbLine
 10
245.1192053109
 20
95.6480040568
 30
0.0
 11
245.1486501727
 21
95.424269054
 31
0.0
  0
LINE
  5
EA
330
1F
100
AcDbEntity
  8
0
  6
HIDDEN
 62
     7
370
     0
100
AcDbLine
 10
243.0913023766
 20
96.4285897314
 30
0.0
 11
245.0897604491
 21
96.4841114953
 31
0.0
  0
LINE
  5
EB
330
1F
100
AcDbEntity
  8
0
  6
HIDDEN
 62
     7
370
     0
100
AcDbLine
 10
243.0913023766
 20
97.040962167
 30
0.0
 11
245.0897604491
 21
97.096483931
 31
0.0
  0
LINE
  5
EC
330
1F
100
AcDbEntity
  8
0
  6
HIDDEN
 62
     7
370
     0
100
AcDbLine
 10
243.0913023766
 20
96.4285897314
 30
0.0
 11
243.0913023766
 21
97.040962167
 31
0.0
  0
LINE
  5
ED
330
1F
100
AcDbEntity
  8
0
  6
HIDDEN
 62
     7
370
     0
100
AcDbLine
 10
243.1207472384
 20
95.5924822929
 30
0.0
 11
243.0913023766
 21
96.4285897314
 31
0.0
  0
LINE
  5
EE
330
1F
100
AcDbEntity
  8
0
  6
HIDDEN
 62
     7
370
     0
100
AcDbLine
 10
245.1192053109
 20
95.6480040568
 30
0.0
 11
245.0897604491
 21
96.4841114953
 31
0.0
  0
LWPOLYLINE
  5
EF
330
1F
100
AcDbEntity
  8
0
  6
HIDDEN
 62
     7
370
     0
100
AcDbPolyline
 90
        7
 70
   128
 43
0.0
 10
245.0897604491
 20
117.6225408357
 10
245.082232438
 20
117.3550950767
 10
245.0733969292
 20
116.8996351817
 10
245.0715326618
 20
116.5313041655
 10
245.0769234537
 20
116.3061770864
 10
245.0887486056
 20
116.2585275014
 10
245.0897604491
 20
116.2621364985
  0
LWPOLYLINE
  5
F0
330
1F
100
AcDbEntity
  8
0
  6
HIDDEN
 62
     7
370
     0
100
AcDbPolyline
 90
       17
 70
   128
 43
0.0
 10
245.0093515185
 20
118.9103481482
 10
244.9948064362
 20
118.9689577238
 10
244.9745613688
 20
118.8003450222
 10
244.9516984443
 20
118.4301797985
 10
244.9296983358
 20
117.9148163526
 10
244.9119103602
 20
117.3327140974
 10
244.9010425756
 20
116.7724928243
 10
244.8987495038
 20
116.3194411439
 10
244.9053802441
 20
116.0425320675
 10
244.9199253264
 20
115.9839224918
 10
244.9401703937
 20
116.1525351935
 10
244.9630333182
 20
116.5227004171
 10
244.9850334268
 20
117.038063863
 10
245.0028214024
 20
117.6201661183
 10
245.0136891869
 20
118.1803873913
 10
245.0159822587
 20
118.6334390718
 10
245.0093515185
 20
118.9103481482
  0
LWPOLYLINE
  5
F1
330
1F
100
AcDbEntity
  8
0
  6
HIDDEN
 62
     7
370
     0
100
AcDbPolyline
 90
       17
 70
   128
 43
0.0
 10
239.6754137146
 20
119.0585372143
 10
239.6608686323
 20
119.1171467899
 10
239.6406235649
 20
118.9485340883
 10
239.6177606404
 20
118.5783688646
 10
239.5957605319
 20
118.0630054187
 10
239.5779725563
 20
117.4809031635
 10
239.5671047717
 20
116.9206818904
 10
239.5648116999
 20
116.46763021
 10
239.5714424402
 20
116.1907211336
 10
239.5859875225
 20
116.1321115579
 10
239.6062325898
 20
116.3007242596
 10
239.6290955143
 20
116.6708894832
 10
239.6510956229
 20
117.1862529291
 10
239.6688835985
 20
117.7683551844
 10
239.679751383
 20
118.3285764574
 10
239.6820444549
 20
118.7816281379
 10
239.6754137146
 20
119.0585372143
  0
LWPOLYLINE
  5
F2
330
1F
100
AcDbEntity
  8
0
  6
HIDDEN
 62
     7
370
     0
100
AcDbPolyline
 90
       17
 70
   128
 43
0.0
 10
239.1584706507
 20
118.5944483085
 10
239.1487739292
 20
118.6335213589
 10
239.1352772176
 20
118.5211128911
 10
239.120035268
 20
118.2743360754
 10
239.1053685289
 20
117.9307604448
 10
239.0935098785
 20
117.5426922746
 10
239.0862646888
 20
117.1692114259
 10
239.0847359743
 20
116.8671769723
 10
239.0891564678
 20
116.6825709213
 10
239.0988531893
 20
116.6434978709
 10
239.1123499009
 20
116.7559063387
 10
239.1275918505
 20
117.0026831544
 10
239.1422585896
 20
117.346258785
 10
239.15411724
 20
117.7343269552
 10
239.1613624297
 20
118.1078078039
 10
239.1628911442
 20
118.4098422575
 10
239.1584706507
 20
118.5944483085
  0
LINE
  5
F3
330
1F
100
AcDbEntity
  8
0
  6
HIDDEN
 62
     7
370
     0
100
AcDbLine
 10
245.0897604491
 20
116.9606379896
 30
0.0
 11
245.0891738551
 21
116.6440771301
 31
0.0
  0
LINE
  5
F4
330
1F
100
AcDbEntity
  8
0
  6
HIDDEN
 62
     7
370
     0
100
AcDbLine
 10
245.0897604491
 20
116.6480380742
 30
0.0
 11
245.0891738551
 21
116.6440771301
 31
0.0
  0
LINE
  5
F5
330
1F
100
AcDbEntity
  8
0
  6
HIDDEN
 62
     7
370
     0
100
AcDbLine
 10
243.1495704378
 20
117.7222115612
 30
0.0
 11
243.1507436259
 21
118.3553332802
 31
0.0
  0
LINE
  5
F6
330
1F
100
AcDbEntity
  8
0
  6
HIDDEN
 62
     7
370
     0
100
AcDbLine
 10
243.1495704378
 20
117.7222115612
 30
0.0
 11
243.1195565162
 21
116.8943443681
 31
0.0
  0
LINE
  5
F7
330
1F
100
AcDbEntity
  8
0
  6
HIDDEN
 62
     7
370
     0
100
AcDbLine
 10
243.1195565162
 20
116.8943443681
 30
0.0
 11
243.0907157826
 21
116.699598894
 31
0.0
  0
LINE
  5
F8
330
1F
100
AcDbEntity
  8
0
  6
HIDDEN
 62
     7
370
     0
100
AcDbLine
 10
243.1219028923
 20
118.1605878061
 30
0.0
 11
243.0918889706
 21
117.332720613
 31
0.0
  0
LINE
  5
F9
330
1F
100
AcDbEntity
  8
0
  6
HIDDEN
 62
     7
370
     0
100
AcDbLine
 10
243.1219028923
 20
118.1605878061
 30
0.0
 11
243.1507436259
 21
118.3553332802
 31
0.0
  0
LINE
  5
FA
330
1F
100
AcDbEntity
  8
0
  6
HIDDEN
 62
     7
370
     0
100
AcDbLine
 10
243.0918889706
 20
117.332720613
 30
0.0
 11
243.0907157826
 21
116.699598894
 31
0.0
  0
LINE
  5
FB
330
1F
100
AcDbEntity
  8
0
  6
HIDDEN
 62
     7
370
     0
100
AcDbLine
 10
243.0918889706
 20
117.332720613
 30
0.0
 11
245.0903470431
 21
117.2771988491
 31
0.0
  0
LINE
  5
FC
330
1F
100
AcDbEntity
  8
0
  6
HIDDEN
 62
     7
370
     0
100
AcDbLine
 10
243.1219028923
 20
118.1605878061
 30
0.0
 11
245.1203609648
 21
118.1050660421
 31
0.0
  0
LINE
  5
FD
330
1F
100
AcDbEntity
  8
0
  6
HIDDEN
 62
     7
370
     0
100
AcDbLine
 10
243.1195565162
 20
116.8943443681
 30
0.0
 11
245.0897604491
 21
116.8396075693
 31
0.0
  0
LINE
  5
FE
330
1F
100
AcDbEntity
  8
0
  6
HIDDEN
 62
     7
370
     0
100
AcDbLine
 10
243.0907157826
 20
116.699598894
 30
0.0
 11
245.0891738551
 21
116.6440771301
 31
0.0
  0
LINE
  5
FF
330
1F
100
AcDbEntity
  8
0
  6
HIDDEN
 62
     7
370
     0
100
AcDbLine
 10
243.1495704378
 20
117.7222115612
 30
0.0
 11
245.1045116793
 21
117.667898795
 31
0.0
  0
LINE
  5
100
330
1F
100
AcDbEntity
  8
0
  6
HIDDEN
 62
     7
370
     0
100
AcDbLine
 10
243.1507436259
 20
118.3553332802
 30
0.0
 11
245.1492016983
 21
118.2998115163
 31
0.0
  0
LINE
  5
101
330
1F
100
AcDbEntity
  8
0
  6
HIDDEN
 62
     7
370
     0
100
AcDbLine
 10
99.6978276176
 20
131.3248498266
 30
0.0
 11
99.6978276176
 21
126.7161601643
 31
0.0
  0
ARC
  5
102
330
1F
100
AcDbEntity
  8
0
  6
HIDDEN
 62
     7
370
     0
100
AcDbCircle
 10
93.3697160885
 20
119.3650806111
 30
0.0
 40
3.679671107484561
100
AcDbArc
 50
265.6366231594
 51
11.9475363038
  0
ARC
  5
103
330
1F
100
AcDbEntity
  8
0
  6
HIDDEN
 62
     7
370
     0
100
AcDbCircle
 10
92.8065496275
 20
119.3571757157
 30
0.0
 40
3.672038798844892
100
AcDbArc
 50
166.4655616651
 51
274.4234051753
  0
SPLINE
  5
104
330
1F
100
AcDbEntity
  8
0
  6
HIDDEN
 62
     7
370
     0
100
AcDbSpline
210
0.0
220
0.0
230
1.0
 70
     8
 71
     3
 72
    12
 73
     8
 74
     0
 42
0.00000001
 43
0.00000001
 40
0.0
 40
0.0
 40
0.0
 40
0.0
 40
0.3580587489807322
 40
0.485631800255491
 40
0.6173138142275957
 40
0.7531498424042299
 40
1.0
 40
1.0
 40
1.0
 40
1.0
 10
220.5897604490953
 20
99.86616016427105
 30
0.0
 10
221.0286108909172
 20
99.88864199026027
 30
0.0
 10
221.6238197238574
 20
99.9191338848425
 30
0.0
 10
222.3588892567695
 20
100.0881846658069
 30
0.0
 10
222.8197460694634
 20
100.2257998619515
 30
0.0
 10
223.4086737850226
 20
100.4400096629807
 30
0.0
 10
223.8121269456355
 20
100.6693518536536
 30
0.0
 10
224.0723727553419
 20
100.8172880949284
 30
0.0
  0
SPLINE
  5
105
330
1F
100
AcDbEntity
  8
0
  6
HIDDEN
 62
     7
370
     0
100
AcDbSpline
210
0.0
220
0.0
230
1.0
 70
     8
 71
     3
 72
    16
 73
    12
 74
     0
 42
0.00000001
 43
0.00000001
 40
0.0
 40
0.0
 40
0.0
 40
0.0
 40
0.0139614444855575
 40
0.1203785948493004
 40
0.3182681161080445
 40
0.4981324481916168
 40
0.6778890373629289
 40
0.7418809187488331
 40
0.8079088279844888
 40
0.8759954899149197
 40
0.9999999999999999
 40
0.9999999999999999
 40
0.9999999999999999
 40
0.9999999999999999
 10
224.0585970050639
 20
112.9394894424825
 30
0.0
 10
224.0303898693091
 20
112.9578082785656
 30
0.0
 10
223.7871818423455
 20
113.1157572464707
 30
0.0
 10
223.0794658919434
 20
113.4279764182759
 30
0.0
 10
221.9534769109586
 20
113.7819864969136
 30
0.0
 10
220.5902510295741
 20
113.9069431614165
 30
0.0
 10
219.5557147476892
 20
113.8097300770651
 30
0.0
 10
218.8204932715728
 20
113.6446398274269
 30
0.0
 10
218.3599174565892
 20
113.5064188789255
 30
0.0
 10
217.7709008185246
 20
113.2923729772089
 30
0.0
 10
217.3671781081807
 20
113.063059551004
 30
0.0
 10
217.1065547990451
 20
112.915026204265
 30
0.0
  0
SPLINE
  5
106
330
1F
100
AcDbEntity
  8
0
  6
HIDDEN
 62
     7
370
     0
100
AcDbSpline
210
0.0
220
0.0
230
1.0
 70
     8
 71
     3
 72
    11
 73
     7
 74
     0
 42
0.00000001
 43
0.00000001
 40
0.0
 40
0.0
 40
0.0
 40
0.0
 40
0.027071471616756
 40
0.241587801683509
 40
0.6392577732589326
 40
0.9999999999999999
 40
0.9999999999999999
 40
0.9999999999999999
 40
0.9999999999999999
 10
217.1211882736505
 20
100.7924818044452
 30
0.0
 10
217.1484289522714
 20
100.7747769580159
 30
0.0
 10
217.3915267696926
 20
100.6167776076823
 30
0.0
 10
218.0997053054961
 20
100.3063308883714
 30
0.0
 10
219.2269061508307
 20
99.93772375074936
 30
0.0
 10
220.1504653140613
 20
99.8892275863906
 30
0.0
 10
220.5897604490953
 20
99.86616016427105
 30
0.0
  0
LINE
  5
107
330
1F
100
AcDbEntity
  8
0
  6
HIDDEN
 62
     7
370
     0
100
AcDbLine
 10
73.0849106537
 20
83.3415605414
 30
0.0
 11
72.5507652246
 21
83.286945942
 31
0.0
  0
LINE
  5
108
330
1F
100
AcDbEntity
  8
0
  6
HIDDEN
 62
     7
370
     0
100
AcDbLine
 10
72.3131115525
 20
130.4694933448
 30
0.0
 11
73.0848179334
 21
130.3907431943
 31
0.0
  0
SPLINE
  5
109
330
1F
100
AcDbEntity
  8
0
  6
HIDDEN
 62
     7
370
     0
100
AcDbSpline
210
0.0
220
0.0
230
1.0
 70
     8
 71
     3
 72
    10
 73
     6
 74
     0
 42
0.00000001
 43
0.00000001
 40
0.0
 40
0.0
 40
0.0
 40
0.0
 40
0.4474818549583782
 40
0.8949469546743736
 40
1.0
 40
1.0
 40
1.0
 40
1.0
 10
78.8447624506969
 20
126.7036886400875
 30
0.0
 10
79.0914731923035
 20
126.7332013947079
 30
0.0
 10
79.58488543782752
 20
126.7922257988908
 30
0.0
 10
79.87390396583469
 20
126.8061637608202
 30
0.0
 10
79.8134899553985
 20
126.8022704015082
 30
0.0
 10
79.80200313666936
 20
126.8015301375804
 30
0.0
  0
SPLINE
  5
10A
330
1F
100
AcDbEntity
  8
0
  6
HIDDEN
 62
     7
370
     0
100
AcDbSpline
210
0.0
220
0.0
230
1.0
 70
     8
 71
     3
 72
    10
 73
     6
 74
     0
 42
0.00000001
 43
0.00000001
 40
0.0
 40
0.0
 40
0.0
 40
0.0
 40
0.3453897268195796
 40
0.7966706015787434
 40
1.0
 40
1.0
 40
1.0
 40
1.0
 10
79.80200531036809
 20
86.93079004319907
 30
0.0
 10
79.79244512776084
 20
86.9313457161007
 30
0.0
 10
79.77039375843079
 20
86.93262742262075
 30
0.0
 10
79.35348808411534
 20
86.9625822522761
 30
0.0
 10
78.96532905978184
 20
87.01297814943692
 30
0.0
 10
78.8447624506969
 20
87.0286316884546
 30
0.0
  0
SPLINE
  5
10B
330
1F
100
AcDbEntity
  8
0
  6
HIDDEN
 62
     7
370
     0
100
AcDbSpline
210
0.0
220
0.0
230
1.0
 70
     8
 71
     3
 72
    15
 73
    11
 74
     0
 42
0.00000001
 43
0.00000001
 40
0.0
 40
0.0
 40
0.0
 40
0.0
 40
0.1409172169897704
 40
0.2818898291171903
 40
0.4212989265166057
 40
0.5593768372264385
 40
0.6988856205980568
 40
0.840367197904641
 40
0.9813164454670267
 40
1.0
 40
1.0
 40
1.0
 40
1.0
 10
78.8447624506969
 20
87.0286316884546
 30
0.0
 10
78.52872076442435
 20
87.06898550577621
 30
0.0
 10
77.89651315459234
 20
87.14970900367105
 30
0.0
 10
76.6623500329151
 20
87.22626410127332
 30
0.0
 10
75.3916280320566
 20
87.22158805013427
 30
0.0
 10
74.20306862702914
 20
87.14079203840205
 30
0.0
 10
73.2099459542481
 20
87.01639524189032
 30
0.0
 10
72.57053694795148
 20
86.9099917032282
 30
0.0
 10
72.28951684136796
 20
86.85691104255105
 30
0.0
 10
72.35607757906114
 20
86.86916708256528
 30
0.0
 10
72.36386790257939
 20
86.87060153957512
 30
0.0
  0
SPLINE
  5
10C
330
1F
100
AcDbEntity
  8
0
  6
HIDDEN
 62
     7
370
     0
100
AcDbSpline
210
0.0
220
0.0
230
1.0
 70
     8
 71
     3
 72
    15
 73
    11
 74
     0
 42
0.00000001
 43
0.00000001
 40
0.0
 40
0.0
 40
0.0
 40
0.0
 40
0.1201202395113828
 40
0.2584739316900693
 40
0.3987301965958639
 40
0.54040228904327
 40
0.6807395403003644
 40
0.8190356063860877
 40
0.9577823106998845
 40
1.0
 40
1.0
 40
1.0
 40
1.0
 10
72.36386790257939
 20
126.861718788967
 30
0.0
 10
72.38457703904984
 20
126.8576941951134
 30
0.0
 10
72.42913882103763
 20
126.8490341008525
 30
0.0
 10
72.99157842691034
 20
126.7497429742438
 30
0.0
 10
73.88504063923166
 20
126.6258253842626
 30
0.0
 10
75.04401979342386
 20
126.5261149474411
 30
0.0
 10
76.31705667354922
 20
126.4989764583655
 30
0.0
 10
77.5513419481928
 20
126.5543152925295
 30
0.0
 10
78.37930474495883
 20
126.6407938915136
 30
0.0
 10
78.75671528962279
 20
126.6917913098035
 30
0.0
 10
78.84476245069693
 20
126.7036886400875
 30
0.0
  0
LINE
  5
10D
330
1F
100
AcDbEntity
  8
0
  6
HIDDEN
 62
     7
370
     0
100
AcDbLine
 10
66.0937350453
 20
89.8661601643
 30
0.0
 11
66.0937350453
 21
123.8661601643
 31
0.0
  0
LWPOLYLINE
  5
10E
330
1F
100
AcDbEntity
  8
0
  6
HIDDEN
 62
     7
370
     0
100
AcDbPolyline
 90
       12
 70
   128
 43
0.0
 10
93.0897604491
 20
128.8117625789
 10
94.0122239321
 20
128.8656728378
 10
94.8849571699
 20
129.0244972983
 10
95.6609108878
 20
129.2796736927
 10
96.2982532201
 20
129.6174453955
 10
96.7626248766
 20
130.0196030468
 10
97.0289914611
 20
130.4644662236
 10
97.0829930822
 20
130.9280522367
 10
96.9217184984
 20
131.3853690443
 10
96.5538620642
 20
131.8117625789
 10
95.9992550154
 20
132.1842458546
 10
95.454909792
 20
132.4246845071
  0
LWPOLYLINE
  5
10F
330
1F
100
AcDbEntity
  8
0
  6
HIDDEN
 62
     7
370
     0
100
AcDbPolyline
 90
       12
 70
   128
 43
0.0
 10
90.7174990802
 20
132.4220712448
 10
90.1802658828
 20
132.1842458546
 10
89.625658834
 20
131.8117625789
 10
89.2578023998
 20
131.3853690443
 10
89.096527816
 20
130.9280522367
 10
89.150529437
 20
130.4644662236
 10
89.4168960216
 20
130.0196030468
 10
89.8812676781
 20
129.6174453955
 10
90.5186100103
 20
129.2796736927
 10
91.2945637283
 20
129.0244972983
 10
92.1672969661
 20
128.8656728378
 10
93.0897604491
 20
128.8117625789
  0
SPLINE
  5
110
330
1F
100
AcDbEntity
  8
0
  6
HIDDEN
 62
     7
370
     0
100
AcDbSpline
210
0.0
220
0.0
230
1.0
 70
     8
 71
     3
 72
    11
 73
     7
 74
     0
 42
0.00000001
 43
0.00000001
 40
0.0
 40
0.0
 40
0.0
 40
0.0
 40
0.0005779865010845
 40
0.0005779865010845
 40
0.0005779865010845
 40
0.0011559733324421
 40
0.0011559733324421
 40
0.0011559733324421
 40
0.0011559733324421
 10
53.18976044909533
 20
108.8660007724249
 30
0.0
 10
53.3564277039013
 20
108.8640171330839
 30
0.0
 10
53.52309413357896
 20
108.8619795260813
 30
0.0
 10
53.68976047203078
 20
108.8598680626749
 30
0.0
 10
53.85642690085718
 20
108.8577565981235
 30
0.0
 10
54.02309327449488
 20
108.8555710349672
 30
0.0
 10
54.18976044909532
 20
108.8532884576356
 30
0.0
  0
SPLINE
  5
111
330
1F
100
AcDbEntity
  8
0
  6
HIDDEN
 62
     7
370
     0
100
AcDbSpline
210
0.0
220
0.0
230
1.0
 70
     8
 71
     3
 72
     8
 73
     4
 74
     0
 42
0.00000001
 43
0.00000001
 40
0.0
 40
0.0
 40
0.0
 40
0.0
 40
0.0011564765856722
 40
0.0011564765856722
 40
0.0011564765856722
 40
0.0011564765856722
 10
54.18976044909532
 20
104.8694598620548
 30
0.0
 10
53.85645251852647
 20
104.8685847064715
 30
0.0
 10
53.52311728613427
 20
104.86752985522
 30
0.0
 10
53.18976044909532
 20
104.8663587681825
 30
0.0
  0
LINE
  5
112
330
1F
100
AcDbEntity
  8
0
  6
HIDDEN
 62
     7
370
     0
100
AcDbLine
 10
92.7495864176
 20
89.8661601643
 30
0.0
 11
92.7495864176
 21
123.8661601643
 31
0.0
  0
LINE
  5
113
330
1F
100
AcDbEntity
  8
0
  6
HIDDEN
 62
     7
370
     0
100
AcDbLine
 10
95.0397604491
 20
91.1411601643
 30
0.0
 11
95.0397604491
 21
122.5911601643
 31
0.0
  0
SPLINE
  5
114
330
1F
100
AcDbEntity
  8
0
  6
HIDDEN
 62
     7
370
     0
100
AcDbSpline
210
0.0
220
0.0
230
1.0
 70
     8
 71
     3
 72
    16
 73
    12
 74
     0
 42
0.00000001
 43
0.00000001
 40
0.0
 40
0.0
 40
0.0
 40
0.0
 40
0.124999999999998
 40
0.124999999999998
 40
0.249999999999996
 40
0.249999999999996
 40
0.4999999999999973
 40
0.4999999999999973
 40
0.7499999999999987
 40
0.7499999999999987
 40
1.0
 40
1.0
 40
1.0
 40
1.0
 10
61.88976044909532
 20
91.0646697282394
 30
0.0
 10
61.98488220376114
 20
91.0646697282394
 30
0.0
 10
62.07821227248922
 20
91.0608538948466
 30
0.0
 10
62.26147403322722
 20
91.04608334211677
 30
0.0
 10
62.35235174878423
 20
91.0349252941412
 30
0.0
 10
62.60915344630396
 20
90.99245402399949
 30
0.0
 10
62.76422081117597
 20
90.95140782679668
 30
0.0
 10
63.01796727273058
 20
90.8562617102148
 30
0.0
 10
63.11883772439844
 20
90.80149897613322
 30
0.0
 10
63.25408413909328
 20
90.69023785222934
 30
0.0
 10
63.28976044909532
 20
90.63306811490065
 30
0.0
 10
63.28976044909532
 20
90.57864654186693
 30
0.0
  0
SPLINE
  5
115
330
1F
100
AcDbEntity
  8
0
  6
HIDDEN
 62
     7
370
     0
100
AcDbSpline
210
0.0
220
0.0
230
1.0
 70
     8
 71
     3
 72
     8
 73
     4
 74
     0
 42
0.00000001
 43
0.00000001
 40
0.0
 40
0.0
 40
0.0
 40
0.0
 40
1.0
 40
1.0
 40
1.0
 40
1.0
 10
54.48976045241051
 20
93.20947267432165
 30
0.0
 10
54.48976045241244
 20
92.3255755320047
 30
0.0
 10
54.47627982650265
 20
91.61099228694276
 30
0.0
 10
54.47492845831334
 20
91.0646697282394
 30
0.0
  0
LINE
  5
116
330
1F
100
AcDbEntity
  8
0
  6
HIDDEN
 62
     7
370
     0
100
AcDbLine
 10
54.1897604491
 20
97.2653333719
 30
0.0
 11
54.1897604491
 21
94.23438294
 31
0.0
  0
LINE
  5
117
330
1F
100
AcDbEntity
  8
0
  6
HIDDEN
 62
     7
370
     0
100
AcDbLine
 10
54.4897604523
 20
110.4707937858
 30
0.0
 11
54.4897604523
 21
98.6331737886
 31
0.0
  0
SPLINE
  5
118
330
1F
100
AcDbEntity
  8
0
  6
HIDDEN
 62
     7
370
     0
100
AcDbSpline
210
0.0
220
0.0
230
1.0
 70
     8
 71
     3
 72
     8
 73
     4
 74
     0
 42
0.00000001
 43
0.00000001
 40
0.0
 40
0.0
 40
0.0
 40
0.0
 40
1.0
 40
1.0
 40
1.0
 40
1.0
 10
54.1897604490953
 20
116.4730994853394
 30
0.0
 10
54.37079191565422
 20
116.0409919996767
 30
0.0
 10
54.48976045228875
 20
115.5868465935771
 30
0.0
 10
54.48976045228304
 20
115.099146539883
 30
0.0
  0
LINE
  5
119
330
1F
100
AcDbEntity
  8
0
  6
HIDDEN
 62
     7
370
     0
100
AcDbLine
 10
54.1897604491
 20
119.5063024713
 30
0.0
 11
54.1897604491
 21
116.4730994853
 31
0.0
  0
SPLINE
  5
11A
330
1F
100
AcDbEntity
  8
0
  6
HIDDEN
 62
     7
370
     0
100
AcDbSpline
210
0.0
220
0.0
230
1.0
 70
     8
 71
     3
 72
    10
 73
     6
 74
     0
 42
0.00000001
 43
0.00000001
 40
0.0
 40
0.0
 40
0.0
 40
0.0
 40
0.5
 40
0.5
 40
1.0
 40
1.0
 40
1.0
 40
1.0
 10
54.48976045248853
 20
120.5228476541909
 30
0.0
 10
54.48976045248674
 20
120.3582113075849
 30
0.0
 10
54.46260178173124
 20
120.1910560837544
 30
0.0
 10
54.35683678641281
 20
119.8524330759528
 30
0.0
 10
54.28042199811568
 20
119.6801612986617
 30
0.0
 10
54.18976044909535
 20
119.5063024713177
 30
0.0
  0
SPLINE
  5
11B
330
1F
100
AcDbEntity
  8
0
  6
HIDDEN
 62
     7
370
     0
100
AcDbSpline
210
0.0
220
0.0
230
1.0
 70
     8
 71
     3
 72
    18
 73
    14
 74
     0
 42
0.00000001
 43
0.00000001
 40
0.0
 40
0.0
 40
0.0
 40
0.0
 40
0.2500000000000033
 40
0.2500000000000033
 40
0.3750000000000029
 40
0.3750000000000029
 40
0.5000000000000026
 40
0.5000000000000026
 40
0.6250000000000022
 40
0.6250000000000022
 40
0.7500000000000018
 40
0.7500000000000018
 40
1.0
 40
1.0
 40
1.0
 40
1.0
 10
59.28976044909531
 20
123.1536737866752
 30
0.0
 10
59.28976044909531
 20
123.099199266123
 30
0.0
 10
59.25484975770315
 20
123.0428182067705
 30
0.0
 10
59.15284045637009
 20
122.958741365917
 30
0.0
 10
59.11120410169199
 20
122.9314076619261
 30
0.0
 10
59.01279830620324
 20
122.8784537463271
 30
0.0
 10
58.95525509449895
 20
122.85256639261
 30
0.0
 10
58.82795692092601
 20
122.8047888477767
 30
0.0
 10
58.75836961616854
 20
122.7828409295988
 30
0.0
 10
58.60693537101358
 20
122.7434083646861
 30
0.0
 10
58.52425146791963
 20
122.7258521154602
 30
0.0
 10
58.26814000588158
 20
122.6834133500397
 30
0.0
 10
58.0802250019936
 20
122.6676506003027
 30
0.0
 10
57.88976044909531
 20
122.6676506003027
 30
0.0
  0
LINE
  5
11C
330
1F
100
AcDbEntity
  8
0
  6
HIDDEN
 62
     7
370
     0
100
AcDbLine
 10
57.8897604491
 20
122.6676506003
 30
0.0
 11
54.4897604525
 21
122.6676506003
 31
0.0
  0
LINE
  5
11D
330
1F
100
AcDbEntity
  8
0
  6
HIDDEN
 62
     7
370
     0
100
AcDbLine
 10
54.4207914625
 20
91.0646697282
 30
0.0
 11
61.8897604491
 21
91.0646697282
 31
0.0
  0
SPLINE
  5
11E
330
1F
100
AcDbEntity
  8
0
  6
HIDDEN
 62
     7
370
     0
100
AcDbSpline
210
0.0
220
0.0
230
1.0
 70
     8
 71
     3
 72
    22
 73
    18
 74
     0
 42
0.00000001
 43
0.00000001
 40
0.0
 40
0.0
 40
0.0
 40
0.0
 40
0.1249999999999998
 40
0.1249999999999998
 40
0.2499999999999995
 40
0.2499999999999995
 40
0.4999999999999992
 40
0.4999999999999992
 40
0.5624999999999993
 40
0.5624999999999993
 40
0.6249999999999994
 40
0.6249999999999994
 40
0.7499999999999996
 40
0.7499999999999996
 40
0.8749999999999998
 40
0.8749999999999998
 40
1.0
 40
1.0
 40
1.0
 40
1.0
 10
54.42079146245324
 20
91.0646697282394
 30
0.0
 10
54.40770906972487
 20
91.31977543838707
 30
0.0
 10
54.39448950628503
 20
91.61293369749097
 30
0.0
 10
54.37204232849091
 20
92.27523416311578
 30
0.0
 10
54.36256386146646
 20
92.64550808372717
 30
0.0
 10
54.3433659005299
 20
93.86806488684097
 30
0.0
 10
54.34447967352679
 20
94.80520381297282
 30
0.0
 10
54.36339046647986
 20
96.12507504248781
 30
0.0
 10
54.36801999433888
 20
96.39657695146413
 30
0.0
 10
54.37850121408483
 20
96.95496178626644
 30
0.0
 10
54.38429647536924
 20
97.24208464220604
 30
0.0
 10
54.40260569627419
 20
98.11467389657771
 30
0.0
 10
54.41664063055454
 20
98.71512957293358
 30
0.0
 10
54.44609780269136
 20
99.95260406542965
 30
0.0
 10
54.46165349367293
 20
100.5896202220731
 30
0.0
 10
54.48544804366983
 20
101.9011088197577
 30
0.0
 10
54.49346709581518
 20
102.5772314314182
 30
0.0
 10
54.48976044909531
 20
103.261526542703
 30
0.0
  0
LINE
  5
11F
330
1F
100
AcDbEntity
  8
0
  6
HIDDEN
 62
     7
370
     0
100
AcDbLine
 10
54.4897604525
 20
110.4707937858
 30
0.0
 11
54.4897604525
 21
122.6676506003
 31
0.0
  0
SPLINE
  5
120
330
1F
100
AcDbEntity
  8
0
  6
HIDDEN
 62
     7
370
     0
100
AcDbSpline
210
0.0
220
0.0
230
1.0
 70
     8
 71
     3
 72
    10
 73
     6
 74
     0
 42
0.00000001
 43
0.00000001
 40
0.0
 40
0.0
 40
0.0
 40
0.0
 40
0.5
 40
0.5
 40
1.0
 40
1.0
 40
1.0
 40
1.0
 10
54.48976044909531
 20
103.2615265426879
 30
0.0
 10
54.48976044909514
 20
103.5354416907622
 30
0.0
 10
54.46400121922743
 20
103.8063832694923
 30
0.0
 10
54.3607952864943
 20
104.3420743510952
 30
0.0
 10
54.28345712261908
 20
104.6078211546172
 30
0.0
 10
54.1897604490953
 20
104.8694598620548
 30
0.0
  0
SPLINE
  5
121
330
1F
100
AcDbEntity
  8
0
  6
HIDDEN
 62
     7
370
     0
100
AcDbSpline
210
0.0
220
0.0
230
1.0
 70
     8
 71
     3
 72
    10
 73
     6
 74
     0
 42
0.00000001
 43
0.00000001
 40
0.0
 40
0.0
 40
0.0
 40
0.0
 40
0.5
 40
0.5
 40
1.0
 40
1.0
 40
1.0
 40
1.0
 10
54.1897604490953
 20
108.8532884576356
 30
0.0
 10
54.28299103048632
 20
109.1171822657057
 30
0.0
 10
54.35802064272308
 20
109.383362576344
 30
0.0
 10
54.46308774190121
 20
109.9216851513021
 30
0.0
 10
54.48976045248741
 20
110.1944332675477
 30
0.0
 10
54.4897604524886
 20
110.4707937858382
 30
0.0
  0
LINE
  5
122
330
1F
100
AcDbEntity
  8
0
  6
HIDDEN
 62
     7
370
     0
100
AcDbLine
 10
54.1897604491
 20
104.8694598621
 30
0.0
 11
54.1897604491
 21
108.8532884576
 31
0.0
  0
SPLINE
  5
123
330
1F
100
AcDbEntity
  8
0
  6
HIDDEN
 62
     7
370
     0
100
AcDbSpline
210
0.0
220
0.0
230
1.0
 70
     8
 71
     3
 72
    14
 73
    10
 74
     0
 42
0.00000001
 43
0.00000001
 40
0.0
 40
0.0
 40
0.0
 40
0.0
 40
0.25
 40
0.25
 40
0.5
 40
0.5
 40
0.75
 40
0.75
 40
1.0
 40
1.0
 40
1.0
 40
1.0
 10
195.1076439135384
 20
94.44171839658385
 30
0.0
 10
195.0764550611807
 20
94.40536006743018
 30
0.0
 10
195.0467658380002
 20
94.36948944407435
 30
0.0
 10
194.9998281843091
 20
94.28707572995488
 30
0.0
 10
194.9830973292557
 20
94.2381385435116
 30
0.0
 10
194.9926544216146
 20
94.10638054424457
 30
0.0
 10
195.0172026788338
 20
94.02887677976842
 30
0.0
 10
195.0757511253728
 20
93.87761156266292
 30
0.0
 10
195.110087801088
 20
93.80250528233346
 30
0.0
 10
195.1460049502014
 20
93.72861594416854
 30
0.0
  0
SPLINE
  5
124
330
1F
100
AcDbEntity
  8
0
  6
HIDDEN
 62
     7
370
     0
100
AcDbSpline
210
0.0
220
0.0
230
1.0
 70
     8
 71
     3
 72
    14
 73
    10
 74
     0
 42
0.00000001
 43
0.00000001
 40
0.0
 40
0.0
 40
0.0
 40
0.0
 40
0.25
 40
0.25
 40
0.5
 40
0.5
 40
0.75
 40
0.75
 40
1.0
 40
1.0
 40
1.0
 40
1.0
 10
195.146004950202
 20
93.72861594416804
 30
0.0
 10
195.1812127316552
 20
93.76160746999776
 30
0.0
 10
195.2117477824121
 20
93.80154734406022
 30
0.0
 10
195.2537358968825
 20
93.8995280451846
 30
0.0
 10
195.2637988224137
 20
93.95603355623554
 30
0.0
 10
195.2555485465379
 20
94.08301440418612
 30
0.0
 10
195.2371621359848
 20
94.15227974385269
 30
0.0
 10
195.182323798517
 20
94.29467481249502
 30
0.0
 10
195.1465864048416
 20
94.36752801199538
 30
0.0
 10
195.107643913539
 20
94.44171839658556
 30
0.0
  0
SPLINE
  5
125
330
1F
100
AcDbEntity
  8
0
  6
HIDDEN
 62
     7
370
     0
100
AcDbSpline
210
0.0
220
0.0
230
1.0
 70
     8
 71
     3
 72
    10
 73
     6
 74
     0
 42
0.00000001
 43
0.00000001
 40
0.0
 40
0.0
 40
0.0
 40
0.0
 40
0.5
 40
0.5
 40
1.0
 40
1.0
 40
1.0
 40
1.0
 10
194.5897604490949
 20
95.12384120781347
 30
0.0
 10
194.5897604490949
 20
95.14683822324001
 30
0.0
 10
194.5908164474014
 20
95.16769830551172
 30
0.0
 10
194.5948783917004
 20
95.20534685244328
 30
0.0
 10
194.5978852846425
 20
95.22213785225497
 30
0.0
 10
194.6017993812667
 20
95.23681979619785
 30
0.0
  0
SPLINE
  5
126
330
1F
100
AcDbEntity
  8
0
  6
HIDDEN
 62
     7
370
     0
100
AcDbSpline
210
0.0
220
0.0
230
1.0
 70
     8
 71
     3
 72
    18
 73
    14
 74
     0
 42
0.00000001
 43
0.00000001
 40
0.0
 40
0.0
 40
0.0
 40
0.0
 40
0.0717322440337994
 40
0.1608051315997359
 40
0.2236374241965418
 40
0.274624809358047
 40
0.3256431149586774
 40
0.3969999524034015
 40
0.5112839091016814
 40
0.6318409452773173
 40
0.7748542124876459
 40
0.9085088591211016
 40
1.0
 40
1.0
 40
1.0
 40
1.0
 10
194.617805586163
 20
95.2661341580616
 30
0.0
 10
194.622745092367
 20
95.2774943135763
 30
0.0
 10
194.6338181872613
 20
95.3029608429891
 30
0.0
 10
194.655081008731
 20
95.30060325830728
 30
0.0
 10
194.6696134422543
 20
95.27696115389439
 30
0.0
 10
194.674355890696
 20
95.23426478302851
 30
0.0
 10
194.669944369427
 20
95.1706519650295
 30
0.0
 10
194.653341507797
 20
95.06934884613473
 30
0.0
 10
194.6261447957792
 20
94.93365269305654
 30
0.0
 10
194.5985223652027
 20
94.77227602028421
 30
0.0
 10
194.586108629614
 20
94.62434192878888
 30
0.0
 10
194.5943422087585
 20
94.52023957751172
 30
0.0
 10
194.6107028299743
 20
94.49374671529459
 30
0.0
 10
194.6173511973147
 20
94.48298097005825
 30
0.0
  0
LWPOLYLINE
  5
127
330
1F
100
AcDbEntity
  8
0
  6
HIDDEN
 62
     7
370
     0
100
AcDbPolyline
 90
        9
 70
   128
 43
0.0
 10
194.625386949
 20
94.4658934169
 10
194.6543598031
 20
94.4632474594
 10
194.6679663807
 20
94.4880044532
 10
194.6729189523
 20
94.5275730126
 10
194.6696015759
 20
94.5850895102
 10
194.6571310346
 20
94.6655034296
 10
194.6314736533
 20
94.7965676395
 10
194.6010299392
 20
94.9743163508
 10
194.5897604491
 20
95.1238412078
  0
SPLINE
  5
128
330
1F
100
AcDbEntity
  8
0
  6
HIDDEN
 62
     7
370
     0
100
AcDbSpline
210
0.0
220
0.0
230
1.0
 70
     8
 71
     3
 72
     8
 73
     4
 74
     0
 42
0.00000001
 43
0.00000001
 40
0.0
 40
0.0
 40
0.0
 40
0.0
 40
1.0
 40
1.0
 40
1.0
 40
1.0
 10
197.3317944883058
 20
100.2191023742798
 30
0.0
 10
197.2906036420844
 20
100.2550110738761
 30
0.0
 10
197.2450609265579
 20
100.2930467805238
 30
0.0
 10
197.1949864309755
 20
100.3354530395439
 30
0.0
  0
SPLINE
  5
129
330
1F
100
AcDbEntity
  8
0
  6
HIDDEN
 62
     7
370
     0
100
AcDbSpline
210
0.0
220
0.0
230
1.0
 70
     8
 71
     3
 72
    32
 73
    28
 74
     0
 42
0.00000001
 43
0.00000001
 40
0.0
 40
0.0
 40
0.0
 40
0.0
 40
0.0625000000000001
 40
0.0625000000000001
 40
0.1250000000000002
 40
0.1250000000000002
 40
0.2500000000000004
 40
0.2500000000000004
 40
0.3125000000000005
 40
0.3125000000000005
 40
0.3750000000000005
 40
0.3750000000000005
 40
0.5000000000000003
 40
0.5000000000000003
 40
0.6250000000000001
 40
0.6250000000000001
 40
0.6875000000000001
 40
0.6875000000000001
 40
0.7500000000000001
 40
0.7500000000000001
 40
0.8125000000000001
 40
0.8125000000000001
 40
0.875
 40
0.875
 40
0.9375
 40
0.9375
 40
1.0
 40
1.0
 40
1.0
 40
1.0
 10
197.1949864309755
 20
100.3354530395439
 30
0.0
 10
197.0927938752716
 20
100.4219961776568
 30
0.0
 10
196.976719687394
 20
100.495894077043
 30
0.0
 10
196.7170712109357
 20
100.6168501277846
 30
0.0
 10
196.5767862399694
 20
100.661905208905
 30
0.0
 10
196.1386791315711
 20
100.7445822921082
 30
0.0
 10
195.8239495948345
 20
100.725846002313
 30
0.0
 10
195.406564244623
 20
100.5952387637688
 30
0.0
 10
195.27382214079
 20
100.5342456678379
 30
0.0
 10
195.0403178755525
 20
100.3881078383797
 30
0.0
 10
194.9361426621244
 20
100.3009106046159
 30
0.0
 10
194.6833017041398
 20
100.0180899365651
 30
0.0
 10
194.5898245478086
 20
99.79616742784552
 30
0.0
 10
194.5896964182466
 20
99.37020442882782
 30
0.0
 10
194.6812708105162
 20
99.17065503466593
 30
0.0
 10
194.9361308321356
 20
98.92859497886205
 30
0.0
 10
195.0385290779557
 20
98.85884235481298
 30
0.0
 10
195.2730989170306
 20
98.74200479389647
 30
0.0
 10
195.4046263660204
 20
98.69554666100478
 30
0.0
 10
195.6832157924914
 20
98.62912297466674
 30
0.0
 10
195.8324087420625
 20
98.60881685669315
 30
0.0
 10
196.1305231065232
 20
98.59579824296237
 30
0.0
 10
196.283488487099
 20
98.60297239126976
 30
0.0
 10
196.5744589679675
 20
98.6438927464317
 30
0.0
 10
196.7167674386695
 20
98.67823769888481
 30
0.0
 10
196.9746060827318
 20
98.7711255866624
 30
0.0
 10
197.0927927827682
 20
98.83028512178765
 30
0.0
 10
197.1949864309755
 20
98.90124557269897
 30
0.0
  0
SPLINE
  5
12A
330
1F
100
AcDbEntity
  8
0
  6
HIDDEN
 62
     7
370
     0
100
AcDbSpline
210
0.0
220
0.0
230
1.0
 70
     8
 71
     3
 72
     8
 73
     4
 74
     0
 42
0.00000001
 43
0.00000001
 40
0.0
 40
0.0
 40
0.0
 40
0.0
 40
1.0
 40
1.0
 40
1.0
 40
1.0
 10
197.1949864309755
 20
98.90124557269898
 30
0.0
 10
197.2450609265579
 20
98.93601592142424
 30
0.0
 10
197.2906036420844
 20
98.97957187135711
 30
0.0
 10
197.3317944883058
 20
99.02968953977496
 30
0.0
  0
SPLINE
  5
12B
330
1F
100
AcDbEntity
  8
0
  6
HIDDEN
 62
     7
370
     0
100
AcDbSpline
210
0.0
220
0.0
230
1.0
 70
     8
 71
     3
 72
    12
 73
     8
 74
     0
 42
0.00000001
 43
0.00000001
 40
0.0
 40
0.0
 40
0.0
 40
0.0
 40
0.25
 40
0.25
 40
0.5
 40
0.5
 40
1.0
 40
1.0
 40
1.0
 40
1.0
 10
197.3317944883058
 20
99.02968953977496
 30
0.0
 10
197.4154073868489
 20
99.13142290796334
 30
0.0
 10
197.479297693145
 20
99.23587074383103
 30
0.0
 10
197.5672828994085
 20
99.45176239687055
 30
0.0
 10
197.5896226937221
 20
99.55994343329044
 30
0.0
 10
197.5900340582949
 20
99.87641594011146
 30
0.0
 10
197.4990303043512
 20
100.0733121992534
 30
0.0
 10
197.3317944883058
 20
100.2191023742798
 30
0.0
  0
SPLINE
  5
12C
330
1F
100
AcDbEntity
  8
0
  6
HIDDEN
 62
     7
370
     0
100
AcDbSpline
210
0.0
220
0.0
230
1.0
 70
     8
 71
     3
 72
    14
 73
    10
 74
     0
 42
0.00000001
 43
0.00000001
 40
0.0
 40
0.0
 40
0.0
 40
0.0
 40
0.25
 40
0.25
 40
0.5
 40
0.5
 40
0.75
 40
0.75
 40
1.0
 40
1.0
 40
1.0
 40
1.0
 10
195.1460049502017
 20
95.37744920336083
 30
0.0
 10
195.110021499568
 20
95.41028268384346
 30
0.0
 10
195.075600092969
 20
95.44200244398945
 30
0.0
 10
195.0170015315428
 20
95.51327014029441
 30
0.0
 10
194.9924798524137
 20
95.55368444376136
 30
0.0
 10
194.9831882726352
 20
95.67055362007092
 30
0.0
 10
194.9999343028335
 20
95.74568462658884
 30
0.0
 10
195.0469300069587
 20
95.89523670749705
 30
0.0
 10
195.0765171893541
 20
95.97070178420068
 30
0.0
 10
195.1076439135379
 20
96.04511922643718
 30
0.0
  0
SPLINE
  5
12D
330
1F
100
AcDbEntity
  8
0
  6
HIDDEN
 62
     7
370
     0
100
AcDbSpline
210
0.0
220
0.0
230
1.0
 70
     8
 71
     3
 72
    10
 73
     6
 74
     0
 42
0.00000001
 43
0.00000001
 40
0.0
 40
0.0
 40
0.0
 40
0.0
 40
0.5
 40
0.5
 40
1.0
 40
1.0
 40
1.0
 40
1.0
 10
195.107643913539
 20
96.04511922643826
 30
0.0
 10
195.1853946677917
 20
95.99224210480354
 30
0.0
 10
195.2509508169938
 20
95.90735270092675
 30
0.0
 10
195.2682402238052
 20
95.66769399230319
 30
0.0
 10
195.2164510479894
 20
95.52410442807172
 30
0.0
 10
195.1460049502021
 20
95.37744920336056
 30
0.0
  0
SPLINE
  5
12E
330
1F
100
AcDbEntity
  8
0
  6
HIDDEN
 62
     7
370
     0
100
AcDbSpline
210
0.0
220
0.0
230
1.0
 70
     8
 71
     3
 72
    48
 73
    44
 74
     0
 42
0.00000001
 43
0.00000001
 40
-0.062499999999999
 40
-0.062499999999999
 40
0.0
 40
0.0
 40
0.0312500000000005
 40
0.0312500000000005
 40
0.062500000000001
 40
0.062500000000001
 40
0.1250000000000022
 40
0.1250000000000022
 40
0.1875000000000034
 40
0.1875000000000034
 40
0.2500000000000046
 40
0.2500000000000046
 40
0.3125000000000058
 40
0.3125000000000058
 40
0.3437500000000054
 40
0.3437500000000054
 40
0.3750000000000049
 40
0.3750000000000049
 40
0.4062500000000044
 40
0.4062500000000044
 40
0.437500000000004
 40
0.437500000000004
 40
0.5000000000000031
 40
0.5000000000000031
 40
0.5625000000000022
 40
0.5625000000000022
 40
0.6250000000000013
 40
0.6250000000000013
 40
0.6875000000000004
 40
0.6875000000000004
 40
0.7499999999999994
 40
0.7499999999999994
 40
0.8124999999999986
 40
0.8124999999999986
 40
0.8437499999999992
 40
0.8437499999999992
 40
0.8749999999999998
 40
0.8749999999999998
 40
0.9062500000000004
 40
0.9062500000000004
 40
0.937500000000001
 40
0.937500000000001
 40
1.0
 40
1.0
 40
1.03125
 40
1.03125
 10
197.2205504264469
 20
93.67915932316104
 30
0.0
 10
197.3426182569639
 20
93.68255064838293
 30
0.0
 10
197.3810805868815
 20
93.69099746432923
 30
0.0
 10
197.451230062648
 20
93.72327232838344
 30
0.0
 10
197.4832471954231
 20
93.74754508584927
 30
0.0
 10
197.5619827823408
 20
93.84436774737055
 30
0.0
 10
197.5917111831617
 20
93.94351738510551
 30
0.0
 10
197.5875994291316
 20
94.19243918687525
 30
0.0
 10
197.5535533364661
 20
94.34304063396976
 30
0.0
 10
197.4421871779414
 20
94.6519558044983
 30
0.0
 10
197.3657882543508
 20
94.81071568412415
 30
0.0
 10
197.2026150740865
 20
95.11848693096242
 30
0.0
 10
197.1139756080709
 20
95.26922446387259
 30
0.0
 10
197.004761507342
 20
95.48714967739511
 30
0.0
 10
196.9718399596301
 20
95.56030533708757
 30
0.0
 10
196.9273892466303
 20
95.69984198073335
 30
0.0
 10
196.9161564282061
 20
95.76784261610194
 30
0.0
 10
196.9229442266301
 20
95.88777612761307
 30
0.0
 10
196.9406911899157
 20
95.94119486226795
 30
0.0
 10
196.9928417163885
 20
96.02934194059749
 30
0.0
 10
197.0272148808557
 20
96.06546412668183
 30
0.0
 10
197.1391615415538
 20
96.15156347703257
 30
0.0
 10
197.2246455187071
 20
96.1806604944269
 30
0.0
 10
197.3827969966076
 20
96.18419908986162
 30
0.0
 10
197.4550418720424
 20
96.15823423638142
 30
0.0
 10
197.5607319284275
 20
96.03653717243411
 30
0.0
 10
197.5912309741857
 20
95.93968841320637
 30
0.0
 10
197.5881745982677
 20
95.69053934273913
 30
0.0
 10
197.5542519478734
 20
95.5376040198724
 30
0.0
 10
197.4442865202751
 20
95.22472312370613
 30
0.0
 10
197.3691312548823
 20
95.06376720164687
 30
0.0
 10
197.2103713251359
 20
94.75426473944286
 30
0.0
 10
197.1237266044942
 20
94.60138627291201
 30
0.0
 10
197.0152564700484
 20
94.38276265742013
 30
0.0
 10
196.9823069033977
 20
94.31061567163493
 30
0.0
 10
196.9335173636374
 20
94.16826766177311
 30
0.0
 10
196.9189257695137
 20
94.09997900985213
 30
0.0
 10
196.9189075326821
 20
93.97489824786282
 30
0.0
 10
196.9335897596413
 20
93.92003669238224
 30
0.0
 10
196.983602135666
 20
93.8280906689348
 30
0.0
 10
197.0175884416967
 20
93.7917721038624
 30
0.0
 10
197.1318860102892
 20
93.70529901492337
 30
0.0
 10
197.2205504264469
 20
93.67915932316104
 30
0.0
 10
197.3426182569639
 20
93.68255064838293
 30
0.0
  0
LWPOLYLINE
  5
12F
330
1F
100
AcDbEntity
  8
0
  6
HIDDEN
 62
     7
370
     0
100
AcDbPolyline
 90
       17
 70
   128
 43
0.0
 10
196.0897604491
 20
92.5826031843
 10
195.5157353005
 20
92.6633411324
 10
195.0291002773
 20
92.8932633561
 10
194.7039411503
 20
93.237366281
 10
194.5897604491
 20
93.6432633561
 10
194.7039411503
 20
94.0491604312
 10
195.0291002773
 20
94.3932633561
 10
195.5157353005
 20
94.6231855797
 10
196.0897604491
 20
94.7039235279
 10
196.6637855976
 20
94.6231855797
 10
197.1504206209
 20
94.3932633561
 10
197.4755797479
 20
94.0491604312
 10
197.5897604491
 20
93.6432633561
 10
197.4755797479
 20
93.237366281
 10
197.1504206209
 20
92.8932633561
 10
196.6637855976
 20
92.6633411324
 10
196.0897604491
 20
92.5826031843
  0
ARC
  5
130
330
1F
100
AcDbEntity
  8
0
  6
HIDDEN
 62
     7
370
     0
100
AcDbCircle
 10
181.9486961802
 20
94.954133761
 30
0.0
 40
13.20409613468346
100
AcDbArc
 50
1.8371833019
 51
4.7394539215
  0
ARC
  5
131
330
1F
100
AcDbEntity
  8
0
  6
HIDDEN
 62
     7
370
     0
100
AcDbCircle
 10
211.328465653
 20
94.956727422
 30
0.0
 40
16.2289954155639
100
AcDbArc
 50
181.8185228138
 51
184.3399443331
  0
LINE
  5
132
330
1F
100
AcDbEntity
  8
0
  6
HIDDEN
 62
     7
370
     0
100
AcDbLine
 10
54.3397604491
 20
88.8761601643
 30
0.0
 11
54.3397604491
 21
85.9962223989
 31
0.0
  0
LINE
  5
133
330
1F
100
AcDbEntity
  8
0
  6
HIDDEN
 62
     7
370
     0
100
AcDbLine
 10
194.0897604491
 20
96.9661601643
 30
0.0
 11
194.0897604491
 21
116.7661601643
 31
0.0
  0
SPLINE
  5
134
330
1F
100
AcDbEntity
  8
0
  6
HIDDEN
 62
     7
370
     0
100
AcDbSpline
210
0.0
220
0.0
230
1.0
 70
     8
 71
     3
 72
    32
 73
    28
 74
     0
 42
0.00000001
 43
0.00000001
 40
0.0
 40
0.0
 40
0.0
 40
0.0
 40
0.0625000000000005
 40
0.0625000000000005
 40
0.125000000000001
 40
0.125000000000001
 40
0.2500000000000022
 40
0.2500000000000022
 40
0.3125000000000028
 40
0.3125000000000028
 40
0.3750000000000034
 40
0.3750000000000034
 40
0.5000000000000049
 40
0.5000000000000049
 40
0.6250000000000063
 40
0.6250000000000063
 40
0.6875000000000053
 40
0.6875000000000053
 40
0.7500000000000042
 40
0.7500000000000042
 40
0.8125000000000032
 40
0.8125000000000032
 40
0.8750000000000022
 40
0.8750000000000022
 40
0.9375000000000011
 40
0.9375000000000011
 40
1.0
 40
1.0
 40
1.0
 40
1.0
 10
197.1949864309755
 20
113.3968672889982
 30
0.0
 10
197.0927938752717
 20
113.3103241508854
 30
0.0
 10
196.976719687394
 20
113.2364262514992
 30
0.0
 10
196.7170712109356
 20
113.1154702007576
 30
0.0
 10
196.5767862399694
 20
113.0704151196371
 30
0.0
 10
196.1386791315711
 20
112.9877380364339
 30
0.0
 10
195.8239495948346
 20
113.0064743262291
 30
0.0
 10
195.406564244623
 20
113.1370815647734
 30
0.0
 10
195.27382214079
 20
113.1980746607042
 30
0.0
 10
195.0403178755524
 20
113.3442124901625
 30
0.0
 10
194.9361426621244
 20
113.4314097239262
 30
0.0
 10
194.6833017041398
 20
113.714230391977
 30
0.0
 10
194.5898245478086
 20
113.9361529006966
 30
0.0
 10
194.5896964182466
 20
114.3621158997143
 30
0.0
 10
194.6812708105162
 20
114.5616652938762
 30
0.0
 10
194.9361308321355
 20
114.8037253496801
 30
0.0
 10
195.0385290779557
 20
114.8734779737291
 30
0.0
 10
195.2730989170306
 20
114.9903155346456
 30
0.0
 10
195.4046263660204
 20
115.0367736675373
 30
0.0
 10
195.6832157924915
 20
115.1031973538754
 30
0.0
 10
195.8324087420625
 20
115.123503471849
 30
0.0
 10
196.1305231065232
 20
115.1365220855797
 30
0.0
 10
196.283488487099
 20
115.1293479372724
 30
0.0
 10
196.5744589679676
 20
115.0884275821104
 30
0.0
 10
196.7167674386695
 20
115.0540826296573
 30
0.0
 10
196.9746060827318
 20
114.9611947418797
 30
0.0
 10
197.0927927827682
 20
114.9020352067545
 30
0.0
 10
197.1949864309755
 20
114.8310747558431
 30
0.0
  0
SPLINE
  5
135
330
1F
100
AcDbEntity
  8
0
  6
HIDDEN
 62
     7
370
     0
100
AcDbSpline
210
0.0
220
0.0
230
1.0
 70
     8
 71
     3
 72
     8
 73
     4
 74
     0
 42
0.00000001
 43
0.00000001
 40
0.0
 40
0.0
 40
0.0
 40
0.0
 40
1.0
 40
1.0
 40
1.0
 40
1.0
 10
197.1949864309755
 20
114.8310747558431
 30
0.0
 10
197.2450609265579
 20
114.7963044071179
 30
0.0
 10
197.2906036420844
 20
114.752748457185
 30
0.0
 10
197.3317944883058
 20
114.7026307887672
 30
0.0
  0
SPLINE
  5
136
330
1F
100
AcDbEntity
  8
0
  6
HIDDEN
 62
     7
370
     0
100
AcDbSpline
210
0.0
220
0.0
230
1.0
 70
     8
 71
     3
 72
    12
 73
     8
 74
     0
 42
0.00000001
 43
0.00000001
 40
0.0
 40
0.0
 40
0.0
 40
0.0
 40
0.25
 40
0.25
 40
0.5
 40
0.5
 40
1.0
 40
1.0
 40
1.0
 40
1.0
 10
197.3317944883058
 20
114.7026307887672
 30
0.0
 10
197.4154073868489
 20
114.6008974205788
 30
0.0
 10
197.479297693145
 20
114.4964495847111
 30
0.0
 10
197.5672828994085
 20
114.2805579316716
 30
0.0
 10
197.5896226937221
 20
114.1723768952517
 30
0.0
 10
197.5900340582949
 20
113.8559043884307
 30
0.0
 10
197.4990303043512
 20
113.6590081292887
 30
0.0
 10
197.3317944883058
 20
113.5132179542623
 30
0.0
  0
LINE
  5
137
330
1F
100
AcDbEntity
  8
0
  6
HIDDEN
 62
     7
370
     0
100
AcDbLine
 10
198.0897604491
 20
96.8661601643
 30
0.0
 11
198.0897604491
 21
116.8661601643
 31
0.0
  0
LINE
  5
138
330
1F
100
AcDbEntity
  8
0
  6
HIDDEN
 62
     7
370
     0
100
AcDbLine
 10
63.2897604491
 20
88.8761601643
 30
0.0
 11
63.2897604491
 21
84.9024226331
 31
0.0
  0
LINE
  5
139
330
1F
100
AcDbEntity
  8
0
  6
HIDDEN
 62
     7
370
     0
100
AcDbLine
 10
54.3397604491
 20
124.8561601643
 30
0.0
 11
54.3397604491
 21
127.7360979297
 31
0.0
  0
LINE
  5
13A
330
1F
100
AcDbEntity
  8
0
  6
HIDDEN
 62
     7
370
     0
100
AcDbLine
 10
59.2897604491
 20
124.8561601643
 30
0.0
 11
59.2897604491
 21
128.7102678366
 31
0.0
  0
LINE
  5
13B
330
1F
100
AcDbEntity
  8
0
  6
HIDDEN
 62
     7
370
     0
100
AcDbLine
 10
106.8897604491
 20
97.3661601643
 30
0.0
 11
106.8897604491
 21
116.3661601643
 31
0.0
  0
LINE
  5
13C
330
1F
100
AcDbEntity
  8
0
  6
HIDDEN
 62
     7
370
     0
100
AcDbLine
 10
103.8897604491
 20
97.3661601643
 30
0.0
 11
103.8897604491
 21
116.3661601643
 31
0.0
  0
LINE
  5
13D
330
1F
100
AcDbEntity
  8
0
  6
HIDDEN
 62
     7
370
     0
100
AcDbLine
 10
95.5397604491
 20
98.3661601643
 30
0.0
 11
95.5397604491
 21
115.3661601643
 31
0.0
  0
LINE
  5
13E
330
1F
100
AcDbEntity
  8
0
  6
HIDDEN
 62
     7
370
     0
100
AcDbLine
 10
101.2774352514
 20
80.4661601643
 30
0.0
 11
98.0397604491
 21
80.4661601643
 31
0.0
  0
LINE
  5
13F
330
1F
100
AcDbEntity
  8
0
  6
HIDDEN
 62
     7
370
     0
100
AcDbLine
 10
111.0397604491
 20
80.4661601643
 30
0.0
 11
104.9020856468
 21
80.4661601643
 31
0.0
  0
LINE
  5
140
330
1F
100
AcDbEntity
  8
0
  6
HIDDEN
 62
     7
370
     0
100
AcDbLine
 10
90.0397604491
 20
75.3820371814
 30
0.0
 11
90.0397604491
 21
80.4661601643
 31
0.0
  0
LINE
  5
141
330
1F
100
AcDbEntity
  8
0
  6
HIDDEN
 62
     7
370
     0
100
AcDbLine
 10
98.0397604491
 20
80.4661601643
 30
0.0
 11
90.0397604491
 21
80.4661601643
 31
0.0
  0
LINE
  5
142
330
1F
100
AcDbEntity
  8
0
  6
HIDDEN
 62
     7
370
     0
100
AcDbLine
 10
101.5740579808
 20
133.2661601643
 30
0.0
 11
98.0397604491
 21
133.2661601643
 31
0.0
  0
LINE
  5
143
330
1F
100
AcDbEntity
  8
0
  6
HIDDEN
 62
     7
370
     0
100
AcDbLine
 10
111.0397604491
 20
133.2661601643
 30
0.0
 11
104.6054629174
 21
133.2661601643
 31
0.0
  0
LINE
  5
144
330
1F
100
AcDbEntity
  8
0
  6
HIDDEN
 62
     7
370
     0
100
AcDbLine
 10
98.0397604491
 20
133.2661601643
 30
0.0
 11
90.0397604491
 21
133.2661601643
 31
0.0
  0
SPLINE
  5
145
330
1F
100
AcDbEntity
  8
0
  6
HIDDEN
 62
     7
370
     0
100
AcDbSpline
210
0.0
220
0.0
230
1.0
 70
     8
 71
     3
 72
    11
 73
     7
 74
     0
 42
0.00000001
 43
0.00000001
 40
0.0
 40
0.0
 40
0.0
 40
0.0
 40
0.0008203708524183
 40
0.0008203708524183
 40
0.0008203708524183
 40
0.0016409967870154
 40
0.0016409967870154
 40
0.0016409967870154
 40
0.0016409967870154
 10
54.33976044909532
 20
91.01412741362833
 30
0.0
 10
54.14860214879666
 20
90.97294838500919
 30
0.0
 10
53.95717507872448
 20
90.93419441277919
 30
0.0
 10
53.76552945520385
 20
90.89782665350064
 30
0.0
 10
53.5738240501234
 20
90.86144754973462
 30
0.0
 10
53.38188509806444
 20
90.82745329896706
 30
0.0
 10
53.18976045099363
 20
90.79580517357586
 30
0.0
  0
ELLIPSE
  5
146
330
1F
100
AcDbEntity
  8
0
  6
HIDDEN
 62
     7
370
     0
100
AcDbEllipse
 10
48.9473285805
 20
106.8661601643
 30
0.0
 11
20.19992453366628
 21
-1.421085471520200E-14
 31
0.0
210
0.0
220
0.0
230
1.0
 40
0.8164965809
 41
1.300566354718001
 42
1.359198697209606
  0
SPLINE
  5
147
330
1F
100
AcDbEntity
  8
0
  6
HIDDEN
 62
     7
370
     0
100
AcDbSpline
210
0.0
220
0.0
230
1.0
 70
     8
 71
     3
 72
     8
 73
     4
 74
     0
 42
0.00000001
 43
0.00000001
 40
0.0
 40
0.0
 40
0.0
 40
0.0
 40
1.0
 40
1.0
 40
1.0
 40
1.0
 10
197.3317944883058
 20
113.5132179542623
 30
0.0
 10
197.2906036420844
 20
113.477309254666
 30
0.0
 10
197.2450609265579
 20
113.4392735480184
 30
0.0
 10
197.1949864309755
 20
113.3968672889982
 30
0.0
  0
LINE
  5
148
330
1F
100
AcDbEntity
  8
0
  6
HIDDEN
 62
     7
370
     0
100
AcDbLine
 10
54.3397604491
 20
88.8761601643
 30
0.0
 11
54.3397604491
 21
91.0141274136
 31
0.0
  0
LINE
  5
149
330
1F
100
AcDbEntity
  8
0
  6
HIDDEN
 62
     7
370
     0
100
AcDbLine
 10
54.4207914625
 20
91.0646697282
 30
0.0
 11
54.3397604491
 21
91.0141274136
 31
0.0
  0
LINE
  5
14A
330
1F
100
AcDbEntity
  8
0
  6
HIDDEN
 62
     7
370
     0
100
AcDbLine
 10
63.2897604491
 20
88.8761601643
 30
0.0
 11
63.2897604491
 21
90.5786465419
 31
0.0
  0
LINE
  5
14B
330
1F
100
AcDbEntity
  8
0
  6
HIDDEN
 62
     7
370
     0
100
AcDbLine
 10
59.2897604491
 20
124.8561601643
 30
0.0
 11
59.2897604491
 21
123.1536737867
 31
0.0
  0
LINE
  5
14C
330
1F
100
AcDbEntity
  8
0
  6
HIDDEN
 62
     7
370
     0
100
AcDbLine
 10
54.3397604491
 20
124.8561601643
 30
0.0
 11
54.3397604491
 21
122.7607846153
 31
0.0
  0
SPLINE
  5
14D
330
1F
100
AcDbEntity
  8
0
  6
HIDDEN
 62
     7
370
     0
100
AcDbSpline
210
0.0
220
0.0
230
1.0
 70
     8
 71
     3
 72
     8
 73
     4
 74
     0
 42
0.00000001
 43
0.00000001
 40
0.0
 40
0.0
 40
0.0
 40
0.0
 40
1.0
 40
1.0
 40
1.0
 40
1.0
 10
54.33976044909532
 20
122.7607846153297
 30
0.0
 10
54.38976594803904
 20
122.7297488411106
 30
0.0
 10
54.43976601870346
 20
122.698704196083
 30
0.0
 10
54.48976045248858
 20
122.6676506003027
 30
0.0
  0
SPLINE
  5
14E
330
1F
100
AcDbEntity
  8
0
  6
HIDDEN
 62
     7
370
     0
100
AcDbSpline
210
0.0
220
0.0
230
1.0
 70
     8
 71
     3
 72
    20
 73
    16
 74
     0
 42
0.00000001
 43
0.00000001
 40
0.0
 40
0.0
 40
0.0
 40
0.0
 40
0.1119595197684142
 40
0.1774767634647507
 40
0.2490961890179794
 40
0.3298422315093885
 40
0.3986125823881415
 40
0.4998893016461092
 40
0.6138510293005034
 40
0.6790150176761197
 40
0.7495394203319945
 40
0.8296829944212418
 40
0.8981246285268906
 40
0.9995320175861913
 40
1.0
 40
1.0
 40
1.0
 40
1.0
 10
79.83860089895818
 20
83.26616640250326
 30
0.0
 10
79.79527716065964
 20
83.27959572054029
 30
0.0
 10
79.72660093848286
 20
83.30088369949625
 30
0.0
 10
79.28142181243257
 20
83.40419451114475
 30
0.0
 10
78.75486352876281
 20
83.51749774120664
 30
0.0
 10
78.06943850763363
 20
83.64043060899922
 30
0.0
 10
77.1761211103348
 20
83.76246506818369
 30
0.0
 10
76.06276172319717
 20
83.8802013759683
 30
0.0
 10
74.95198764256156
 20
83.89217687834393
 30
0.0
 10
74.06723934065614
 20
83.86511858821261
 30
0.0
 10
73.40004274602244
 20
83.81718652380479
 30
0.0
 10
72.85877024379522
 20
83.76089301144022
 30
0.0
 10
72.47119028472306
 20
83.71581010080142
 30
0.0
 10
72.27725376465396
 20
83.6769369261015
 30
0.0
 10
72.34035622488368
 20
83.68764298334224
 30
0.0
 10
72.34064609711903
 20
83.68769216349676
 30
0.0
  0
LINE
  5
14F
330
1F
100
AcDbEntity
  8
0
  6
HIDDEN
 62
     7
370
     0
100
AcDbLine
 10
73.2497723615
 20
83.7984983077
 30
0.0
 11
73.4336176746
 21
83.8166876502
 31
0.0
  0
LINE
  5
150
330
1F
100
AcDbEntity
  8
0
  6
HIDDEN
 62
     7
370
     0
100
AcDbLine
 10
73.4336149761
 20
129.9155632471
 30
0.0
 11
73.2595416942
 21
129.9327727732
 31
0.0
  0
SPLINE
  5
151
330
1F
100
AcDbEntity
  8
0
  6
HIDDEN
 62
     7
370
     0
100
AcDbSpline
210
0.0
220
0.0
230
1.0
 70
     8
 71
     3
 72
    20
 73
    16
 74
     0
 42
0.00000001
 43
0.00000001
 40
0.0
 40
0.0
 40
0.0
 40
0.0
 40
0.0004889684280502
 40
0.1018319933926956
 40
0.1702475582150564
 40
0.2503692056770218
 40
0.3209568221796114
 40
0.3861816196721121
 40
0.5002554836817364
 40
0.6012243489302103
 40
0.669768055864141
 40
0.750240190758111
 40
0.8220490693822882
 40
0.8877204546071489
 40
1.0
 40
1.0
 40
1.0
 40
1.0
 10
72.34067948188044
 20
130.0445616184635
 30
0.0
 10
72.34037584088354
 20
130.0446132056138
 30
0.0
 10
72.27713992171797
 20
130.0553566852271
 30
0.0
 10
72.4703439555123
 20
130.0165006945685
 30
0.0
 10
72.85729101042018
 20
129.9714772041638
 30
0.0
 10
73.39829793374649
 20
129.915214242071
 30
0.0
 10
74.06579819521153
 20
129.8672830494768
 30
0.0
 10
74.95162604656488
 20
129.8402095937474
 30
0.0
 10
76.06243261865265
 20
129.852035597327
 30
0.0
 10
77.17450298467591
 20
129.9694846724823
 30
0.0
 10
78.06560329087384
 20
130.0911890607218
 30
0.0
 10
78.75108774168397
 20
130.2140101062965
 30
0.0
 10
79.27907564122152
 20
130.3274483579787
 30
0.0
 10
79.72645959271478
 20
130.4311889136174
 30
0.0
 10
79.79527005906925
 20
130.4526117068946
 30
0.0
 10
79.83868656638244
 20
130.4661285875418
 30
0.0
  0
LINE
  5
152
330
1F
100
AcDbEntity
  8
0
  6
HIDDEN
 62
     7
370
     0
100
AcDbLine
 10
159.5397604491
 20
81.4435104335
 30
0.0
 11
154.5397604491
 21
81.4435104335
 31
0.0
  0
LINE
  5
153
330
1F
100
AcDbEntity
  8
0
  6
HIDDEN
 62
     7
370
     0
100
AcDbLine
 10
157.0397604491
 20
132.2888098951
 30
0.0
 11
159.5397604491
 21
132.2888098951
 31
0.0
  0
LINE
  5
154
330
1F
100
AcDbEntity
  8
0
  6
HIDDEN
 62
     7
370
     0
100
AcDbLine
 10
154.5397604491
 20
132.2888098951
 30
0.0
 11
157.0397604491
 21
132.2888098951
 31
0.0
  0
LINE
  5
155
330
1F
100
AcDbEntity
  8
0
  6
HIDDEN
 62
     7
370
     0
100
AcDbLine
 10
157.0397604491
 20
120.8661601643
 30
0.0
 11
159.5397604491
 21
120.8661601643
 31
0.0
  0
LINE
  5
156
330
1F
100
AcDbEntity
  8
0
  6
HIDDEN
 62
     7
370
     0
100
AcDbLine
 10
154.5397604491
 20
120.8661601643
 30
0.0
 11
157.0397604491
 21
120.8661601643
 31
0.0
  0
LINE
  5
157
330
1F
100
AcDbEntity
  8
0
  6
HIDDEN
 62
     7
370
     0
100
AcDbLine
 10
159.5397604491
 20
92.8661601643
 30
0.0
 11
154.5397604491
 21
92.8661601643
 31
0.0
  0
LWPOLYLINE
  5
158
330
1F
100
AcDbEntity
  8
0
  6
HIDDEN
 62
     7
370
     0
100
AcDbPolyline
 90
       15
 70
   128
 43
0.0
 10
197.4904831759
 20
119.9735396295
 10
197.1745350288
 20
120.3266339682
 10
196.6902421825
 20
120.5660445932
 10
196.1127613884
 20
120.6546176934
 10
195.5317111097
 20
120.5786077293
 10
195.0372637529
 20
120.3498105844
 10
194.7061519343
 20
120.003732978
 10
194.5897604491
 20
119.5940822256
 10
194.7061519343
 20
119.1844314732
 10
195.0372637529
 20
118.8383538669
 10
195.5317111097
 20
118.6095567219
 10
196.1127613884
 20
118.5335467579
 10
196.6902421825
 20
118.6221198581
 10
197.1745350288
 20
118.861530483
 10
197.4904831759
 20
119.2146248218
  0
SPLINE
  5
159
330
1F
100
AcDbEntity
  8
0
  6
HIDDEN
 62
     7
370
     0
100
AcDbSpline
210
0.0
220
0.0
230
1.0
 70
     8
 71
     3
 72
    44
 73
    40
 74
     0
 42
0.00000001
 43
0.00000001
 40
0.0
 40
0.0
 40
0.0
 40
0.0
 40
0.0625000000000016
 40
0.0625000000000016
 40
0.1250000000000032
 40
0.1250000000000032
 40
0.1875000000000049
 40
0.1875000000000049
 40
0.2187500000000049
 40
0.2187500000000049
 40
0.2500000000000049
 40
0.2500000000000049
 40
0.3125000000000042
 40
0.3125000000000042
 40
0.3750000000000034
 40
0.3750000000000034
 40
0.4375000000000027
 40
0.4375000000000027
 40
0.5000000000000019
 40
0.5000000000000019
 40
0.5312500000000018
 40
0.5312500000000018
 40
0.5625000000000018
 40
0.5625000000000018
 40
0.6250000000000011
 40
0.6250000000000011
 40
0.6875000000000006
 40
0.6875000000000006
 40
0.7499999999999999
 40
0.7499999999999999
 40
0.7812499999999992
 40
0.7812499999999992
 40
0.8124999999999984
 40
0.8124999999999984
 40
0.874999999999999
 40
0.874999999999999
 40
0.9374999999999994
 40
0.9374999999999994
 40
1.0
 40
1.0
 40
1.0
 40
1.0
 10
197.4904831758681
 20
119.2146248217598
 30
0.0
 10
197.4402388838048
 20
119.0791704011947
 30
0.0
 10
197.3767673403985
 20
118.9450469818913
 30
0.0
 10
197.2362152979042
 20
118.6752016955035
 30
0.0
 10
197.1613214710651
 20
118.544913762759
 30
0.0
 10
197.0231074409943
 20
118.2869224264242
 30
0.0
 10
196.9600035812183
 20
118.1593676388832
 30
0.0
 10
196.919469514607
 20
117.9833029866333
 30
0.0
 10
196.9155515913735
 20
117.9267636139759
 30
0.0
 10
196.9287663328819
 20
117.8265762426907
 30
0.0
 10
196.9456122748722
 20
117.7819540672645
 30
0.0
 10
197.0145643288917
 20
117.6680762031491
 30
0.0
 10
197.0832509278556
 20
117.6166724628168
 30
0.0
 10
197.2222517925287
 20
117.5543388740513
 30
0.0
 10
197.2944489428527
 20
117.5430157863018
 30
0.0
 10
197.4250542213998
 20
117.564308106798
 30
0.0
 10
197.4831466780279
 20
117.5973048141526
 30
0.0
 10
197.5659471289865
 20
117.7152284963098
 30
0.0
 10
197.5897688519294
 20
117.8015026216703
 30
0.0
 10
197.5897562441685
 20
117.9611211683763
 30
0.0
 10
197.5839228490466
 20
118.0202754353716
 30
0.0
 10
197.5615237760822
 20
118.1442053819627
 30
0.0
 10
197.5451671206977
 20
118.2087885613322
 30
0.0
 10
197.4824858265987
 20
118.409924248527
 30
0.0
 10
197.4238894113138
 20
118.5488155469715
 30
0.0
 10
197.293328375838
 20
118.8209240188546
 30
0.0
 10
197.2215784143084
 20
118.9535426863822
 30
0.0
 10
197.0812921778304
 20
119.2157815139477
 30
0.0
 10
197.013383849337
 20
119.3424783112351
 30
0.0
 10
196.9447249633816
 20
119.5273635707733
 30
0.0
 10
196.9282626078368
 20
119.5870079844927
 30
0.0
 10
196.9154853585131
 20
119.7007288263175
 30
0.0
 10
196.919620023697
 20
119.7520324894715
 30
0.0
 10
196.9610714176941
 20
119.8897304805882
 30
0.0
 10
197.0244925283089
 20
119.9538398388974
 30
0.0
 10
197.1619323868917
 20
120.0352380307122
 30
0.0
 10
197.2374736066925
 20
120.0537677093802
 30
0.0
 10
197.3769736735479
 20
120.0476535697292
 30
0.0
 10
197.4402304279296
 20
120.0235645675244
 30
0.0
 10
197.4904831758681
 20
119.973539629498
 30
0.0
  0
SPLINE
  5
15A
330
1F
100
AcDbEntity
  8
0
  6
HIDDEN
 62
     7
370
     0
100
AcDbSpline
210
0.0
220
0.0
230
1.0
 70
     8
 71
     3
 72
    14
 73
    10
 74
     0
 42
0.00000001
 43
0.00000001
 40
0.0
 40
0.0
 40
0.0
 40
0.0
 40
0.25
 40
0.25
 40
0.5
 40
0.5
 40
0.75
 40
0.75
 40
1.0
 40
1.0
 40
1.0
 40
1.0
 10
195.1460049502017
 20
118.3548711251815
 30
0.0
 10
195.110021499568
 20
118.3220376446988
 30
0.0
 10
195.0756000929689
 20
118.2903178845528
 30
0.0
 10
195.0170015315427
 20
118.2190501882479
 30
0.0
 10
194.9924798524135
 20
118.1786358847809
 30
0.0
 10
194.983188272635
 20
118.0617667084713
 30
0.0
 10
194.9999343028334
 20
117.9866357019533
 30
0.0
 10
195.0469300069586
 20
117.837083621045
 30
0.0
 10
195.076517189354
 20
117.7616185443413
 30
0.0
 10
195.1076439135378
 20
117.6872011021048
 30
0.0
  0
SPLINE
  5
15B
330
1F
100
AcDbEntity
  8
0
  6
HIDDEN
 62
     7
370
     0
100
AcDbSpline
210
0.0
220
0.0
230
1.0
 70
     8
 71
     3
 72
    10
 73
     6
 74
     0
 42
0.00000001
 43
0.00000001
 40
0.0
 40
0.0
 40
0.0
 40
0.0
 40
0.5
 40
0.5
 40
1.0
 40
1.0
 40
1.0
 40
1.0
 10
195.107643913539
 20
117.6872011021035
 30
0.0
 10
195.1853946677917
 20
117.7400782237382
 30
0.0
 10
195.250950816994
 20
117.8249676276152
 30
0.0
 10
195.2682402238053
 20
118.064626336239
 30
0.0
 10
195.2164510479893
 20
118.2082159004708
 30
0.0
 10
195.146004950202
 20
118.3548711251821
 30
0.0
  0
SPLINE
  5
15C
330
1F
100
AcDbEntity
  8
0
  6
HIDDEN
 62
     7
370
     0
100
AcDbSpline
210
0.0
220
0.0
230
1.0
 70
     8
 71
     3
 72
    10
 73
     6
 74
     0
 42
0.00000001
 43
0.00000001
 40
0.0
 40
0.0
 40
0.0
 40
0.0
 40
0.4955889490168877
 40
0.9812042834843373
 40
0.9999999999999999
 40
0.9999999999999999
 40
0.9999999999999999
 40
0.9999999999999999
 10
194.609120395325
 20
118.9018149453095
 30
0.0
 10
194.6019215503305
 20
118.957184033552
 30
0.0
 10
194.587668735455
 20
119.0668079197665
 30
0.0
 10
194.5871735855529
 20
119.1630675400777
 30
0.0
 10
194.5951964991372
 20
119.1879330208882
 30
0.0
 10
194.5954954545409
 20
119.1888595757831
 30
0.0
  0
SPLINE
  5
15D
330
1F
100
AcDbEntity
  8
0
  6
HIDDEN
 62
     7
370
     0
100
AcDbSpline
210
0.0
220
0.0
230
1.0
 70
     8
 71
     3
 72
    18
 73
    14
 74
     0
 42
0.00000001
 43
0.00000001
 40
0.0
 40
0.0
 40
0.0
 40
0.0
 40
0.0006341151590581
 40
0.1413079887288156
 40
0.2117226355891782
 40
0.2688107940172327
 40
0.326293803946928
 40
0.3878257596809293
 40
0.4821788744686837
 40
0.6217321006851858
 40
0.7634334212303365
 40
0.9098432328119013
 40
0.9999999999999999
 40
0.9999999999999999
 40
0.9999999999999999
 40
0.9999999999999999
 10
194.616363519003
 20
119.2551504917832
 30
0.0
 10
194.6163986295203
 20
119.2552623397407
 30
0.0
 10
194.6242227550291
 20
119.2801868502076
 30
0.0
 10
194.6459440998007
 20
119.279316980536
 30
0.0
 10
194.665992929908
 20
119.2573321754089
 30
0.0
 10
194.6742483849265
 20
119.2171851768852
 30
0.0
 10
194.6718982448298
 20
119.1562167792586
 30
0.0
 10
194.6578892285785
 20
119.0662834926788
 30
0.0
 10
194.6311480477076
 20
118.9363035665572
 30
0.0
 10
194.6009292298704
 20
118.7762965446802
 30
0.0
 10
194.5860784083342
 20
118.6189509424353
 30
0.0
 10
194.5930737551868
 20
118.5070404322418
 30
0.0
 10
194.611000866825
 20
118.4769803275186
 30
0.0
 10
194.6178329833426
 20
118.4655242635332
 30
0.0
  0
LWPOLYLINE
  5
15E
330
1F
100
AcDbEntity
  8
0
  6
HIDDEN
 62
     7
370
     0
100
AcDbPolyline
 90
        8
 70
   128
 43
0.0
 10
194.6291891902
 20
118.4409048122
 10
194.6542550273
 20
118.4359962626
 10
194.6679009275
 20
118.4577375054
 10
194.6728847546
 20
118.4950190206
 10
194.670207614
 20
118.5490830069
 10
194.6577377603
 20
118.634274344
 10
194.6307805501
 20
118.7778727305
 10
194.6091203953
 20
118.9018149453
  0
SPLINE
  5
15F
330
1F
100
AcDbEntity
  8
0
  6
HIDDEN
 62
     7
370
     0
100
AcDbSpline
210
0.0
220
0.0
230
1.0
 70
     8
 71
     3
 72
    14
 73
    10
 74
     0
 42
0.00000001
 43
0.00000001
 40
0.0
 40
0.0
 40
0.0
 40
0.0
 40
0.25
 40
0.25
 40
0.5
 40
0.5
 40
0.75
 40
0.75
 40
1.0
 40
1.0
 40
1.0
 40
1.0
 10
195.1076439135384
 20
119.2906019319584
 30
0.0
 10
195.0764550611808
 20
119.3269602611121
 30
0.0
 10
195.0467658380003
 20
119.3628308844679
 30
0.0
 10
194.9998281843092
 20
119.4452445985874
 30
0.0
 10
194.983097329256
 20
119.4941817850307
 30
0.0
 10
194.9926544216148
 20
119.6259397842976
 30
0.0
 10
195.017202678834
 20
119.7034435487737
 30
0.0
 10
195.0757511253729
 20
119.8547087658791
 30
0.0
 10
195.110087801088
 20
119.9298150462085
 30
0.0
 10
195.1460049502014
 20
120.0037043843734
 30
0.0
  0
SPLINE
  5
160
330
1F
100
AcDbEntity
  8
0
  6
HIDDEN
 62
     7
370
     0
100
AcDbSpline
210
0.0
220
0.0
230
1.0
 70
     8
 71
     3
 72
    14
 73
    10
 74
     0
 42
0.00000001
 43
0.00000001
 40
0.0
 40
0.0
 40
0.0
 40
0.0
 40
0.25
 40
0.25
 40
0.5
 40
0.5
 40
0.75
 40
0.75
 40
1.0
 40
1.0
 40
1.0
 40
1.0
 10
195.1460049502019
 20
120.0037043843738
 30
0.0
 10
195.1812127316551
 20
119.9707128585441
 30
0.0
 10
195.211747782412
 20
119.9307729844817
 30
0.0
 10
195.2537358968823
 20
119.8327922833574
 30
0.0
 10
195.2637988224135
 20
119.7762867723064
 30
0.0
 10
195.2555485465377
 20
119.649305924356
 30
0.0
 10
195.2371621359846
 20
119.5800405846894
 30
0.0
 10
195.1823237985168
 20
119.4376455160472
 30
0.0
 10
195.1465864048417
 20
119.364792316547
 30
0.0
 10
195.1076439135391
 20
119.2906019319568
 30
0.0
  0
SPLINE
  5
161
330
1F
100
AcDbEntity
  8
0
  6
HIDDEN
 62
     7
370
     0
100
AcDbSpline
210
0.0
220
0.0
230
1.0
 70
     8
 71
     3
 72
     8
 73
     4
 74
     0
 42
0.00000001
 43
0.00000001
 40
0.0
 40
0.0
 40
0.0
 40
0.0
 40
0.000159097695343
 40
0.000159097695343
 40
0.000159097695343
 40
0.000159097695343
 10
54.47492845831334
 20
91.0646697282394
 30
0.0
 10
54.42987698780899
 20
91.03669084391562
 30
0.0
 10
54.38482094939419
 20
91.00871931354054
 30
0.0
 10
54.33976044909532
 20
90.98075497418803
 30
0.0
  0
SPLINE
  5
162
330
1F
100
AcDbEntity
  8
0
  6
HIDDEN
 62
     7
370
     0
100
AcDbSpline
210
0.0
220
0.0
230
1.0
 70
     8
 71
     3
 72
    11
 73
     7
 74
     0
 42
0.00000001
 43
0.00000001
 40
0.0
 40
0.0
 40
0.0
 40
0.0
 40
0.0008212909311456
 40
0.0008212909311456
 40
0.0008212909311456
 40
0.001642825724306
 40
0.001642825724306
 40
0.001642825724306
 40
0.001642825724306
 10
54.33976044909533
 20
90.98075497418803
 30
0.0
 10
54.14861542761314
 20
90.93746878533548
 30
0.0
 10
53.95719709193666
 20
90.8965322756982
 30
0.0
 10
53.76555101727552
 20
90.85793050431162
 30
0.0
 10
53.57384793573392
 20
90.81931725047453
 30
0.0
 10
53.38190281244841
 20
90.78303704118852
 30
0.0
 10
53.18976044909524
 20
90.74907013483701
 30
0.0
  0
LINE
  5
163
330
1F
100
AcDbEntity
  8
0
  6
HIDDEN
 62
     7
370
     0
100
AcDbLine
 10
101.1797604491
 20
127.0473061768
 30
0.0
 11
101.1797604491
 21
126.7161601643
 31
0.0
  0
LINE
  5
164
330
1F
100
AcDbEntity
  8
0
  6
HIDDEN
 62
     7
370
     0
100
AcDbLine
 10
104.9997604491
 20
127.0473061768
 30
0.0
 11
104.9997604491
 21
126.7161601643
 31
0.0
  0
LINE
  5
165
330
1F
100
AcDbEntity
  8
0
  6
HIDDEN
 62
     7
370
     0
100
AcDbLine
 10
106.4816932806
 20
131.3248498266
 30
0.0
 11
106.4816932806
 21
126.7161601643
 31
0.0
  0
SPLINE
  5
166
330
1F
100
AcDbEntity
  8
0
  6
HIDDEN
 62
     7
370
     0
100
AcDbSpline
210
0.0
220
0.0
230
1.0
 70
     8
 71
     3
 72
    24
 73
    20
 74
     0
 42
0.00000001
 43
0.00000001
 40
0.0
 40
0.0
 40
0.0
 40
0.0
 40
0.25
 40
0.25
 40
0.374999999999999
 40
0.374999999999999
 40
0.4374999999999993
 40
0.4374999999999993
 40
0.4687499999999994
 40
0.4687499999999994
 40
0.4999999999999995
 40
0.4999999999999995
 40
0.5624999999999971
 40
0.5624999999999971
 40
0.6249999999999947
 40
0.6249999999999947
 40
0.7499999999999947
 40
0.7499999999999947
 40
1.0
 40
1.0
 40
1.0
 40
1.0
 10
53.25242382381873
 20
87.19160761949033
 30
0.0
 10
53.26617694248895
 20
87.2622576774806
 30
0.0
 10
53.28394950989482
 20
87.32885579024551
 30
0.0
 10
53.33620060145017
 20
87.40295381047873
 30
0.0
 10
53.35723567703174
 20
87.42421161764028
 30
0.0
 10
53.41013608466017
 20
87.43235754378654
 30
0.0
 10
53.43124175753807
 20
87.43141774039076
 30
0.0
 10
53.47729392621606
 20
87.41040174881341
 30
0.0
 10
53.49566439819944
 20
87.39949294270579
 30
0.0
 10
53.53721603326514
 20
87.36685803175843
 30
0.0
 10
53.55978270602206
 20
87.34536605138707
 30
0.0
 10
53.62256372248207
 20
87.27690010780074
 30
0.0
 10
53.65569348344998
 20
87.23082564959566
 30
0.0
 10
53.71261116993497
 20
87.14581776126099
 30
0.0
 10
53.73679719543875
 20
87.1055374600796
 30
0.0
 10
53.80200514581851
 20
86.99060123361366
 30
0.0
 10
53.83672120600976
 20
86.92001824846665
 30
0.0
 10
53.92993647634064
 20
86.71581248938804
 30
0.0
 10
53.97560901170132
 20
86.5929141070607
 30
0.0
 10
54.01391409519986
 20
86.47604083067311
 30
0.0
  0
SPLINE
  5
167
330
1F
100
AcDbEntity
  8
0
  6
HIDDEN
 62
     7
370
     0
100
AcDbSpline
210
0.0
220
0.0
230
1.0
 70
     8
 71
     3
 72
    12
 73
     8
 74
     0
 42
0.00000001
 43
0.00000001
 40
0.0
 40
0.0
 40
0.0
 40
0.0
 40
0.2500000000000016
 40
0.2500000000000016
 40
0.5000000000000032
 40
0.5000000000000032
 40
1.0
 40
1.0
 40
1.0
 40
1.0
 10
197.4904831758681
 20
119.973539629498
 30
0.0
 10
197.4517386316597
 20
119.945871158698
 30
0.0
 10
197.4237613147767
 20
119.9070351355322
 30
0.0
 10
197.3888969174074
 20
119.8095935512598
 30
0.0
 10
197.3809735736037
 20
119.7497414215449
 30
0.0
 10
197.3809950712159
 20
119.5486096058747
 30
0.0
 10
197.4127543429645
 20
119.3790988713422
 30
0.0
 10
197.4904831758681
 20
119.2146248217598
 30
0.0
  0
SPLINE
  5
168
330
1F
100
AcDbEntity
  8
0
  6
HIDDEN
 62
     7
370
     0
100
AcDbSpline
210
0.0
220
0.0
230
1.0
 70
     8
 71
     3
 72
    11
 73
     7
 74
     0
 42
0.00000001
 43
0.00000001
 40
0.0
 40
0.0
 40
0.0
 40
0.0
 40
0.0005781862223978
 40
0.0005781862223978
 40
0.0005781862223978
 40
0.0011563724723928
 40
0.0011563724723928
 40
0.0011563724723928
 40
0.0011563724723928
 10
54.18976044909532
 20
119.5063024713178
 30
0.0
 10
54.02309989481969
 20
119.5708319827314
 30
0.0
 10
53.85643659791321
 20
119.6353346865752
 30
0.0
 10
53.68977001408298
 20
119.6998211350088
 30
0.0
 10
53.5231034218239
 20
119.7643075867038
 30
0.0
 10
53.35643355619801
 20
119.8287775954319
 30
0.0
 10
53.18976044909527
 20
119.8932333621645
 30
0.0
  0
SPLINE
  5
169
330
1F
100
AcDbEntity
  8
0
  6
HIDDEN
 62
     7
370
     0
100
AcDbSpline
210
0.0
220
0.0
230
1.0
 70
     8
 71
     3
 72
    11
 73
     7
 74
     0
 42
0.00000001
 43
0.00000001
 40
0.0
 40
0.0
 40
0.0
 40
0.0
 40
0.0005778746105108
 40
0.0005778746105108
 40
0.0005778746105108
 40
0.0011557494857226
 40
0.0011557494857226
 40
0.0011557494857226
 40
0.0011557494857226
 10
53.18976044909529
 20
93.83893830878117
 30
0.0
 10
53.35642732550863
 20
93.90475043547502
 30
0.0
 10
53.52309404507008
 20
93.97060891561263
 30
0.0
 10
53.68976069311874
 20
94.03651648854326
 30
0.0
 10
53.8564274176374
 20
94.10242409171363
 30
0.0
 10
54.02309411205797
 20
94.16838120010213
 30
0.0
 10
54.18976044909532
 20
94.23438294002484
 30
0.0
  0
ARC
  5
16A
330
1F
100
AcDbEntity
  8
0
  6
HIDDEN
 62
     7
370
     0
100
AcDbCircle
 10
211.3284656499
 20
118.7755929067
 30
0.0
 40
16.22899541252038
100
AcDbArc
 50
175.6600556667
 51
178.1814771864
  0
SPLINE
  5
16B
330
1F
100
AcDbEntity
  8
0
  6
HIDDEN
 62
     7
370
     0
100
AcDbSpline
210
0.0
220
0.0
230
1.0
 70
     8
 71
     3
 72
    11
 73
     7
 74
     0
 42
0.00000001
 43
0.00000001
 40
0.0000000000000006
 40
0.0000000000000006
 40
0.0000000000000006
 40
0.0000000000000006
 40
0.0005780486062768
 40
0.0005780486062768
 40
0.0005780486062768
 40
0.0011560973514127
 40
0.0011560973514127
 40
0.0011560973514127
 40
0.0011560973514127
 10
53.18976044909529
 20
116.8469746659628
 30
0.0
 10
53.3564303051402
 20
116.7846028044483
 30
0.0
 10
53.52309800922448
 20
116.7222489441506
 30
0.0
 10
53.68976431367811
 20
116.6599293839645
 30
0.0
 10
53.85643065437186
 20
116.5976098102276
 30
0.0
 10
54.02309561100065
 20
116.535324605908
 30
0.0
 10
54.18976044909532
 20
116.4730994853394
 30
0.0
  0
SPLINE
  5
16C
330
1F
100
AcDbEntity
  8
0
  6
HIDDEN
 62
     7
370
     0
100
AcDbSpline
210
0.0
220
0.0
230
1.0
 70
     8
 71
     3
 72
    11
 73
     7
 74
     0
 42
0.00000001
 43
0.00000001
 40
0.0
 40
0.0
 40
0.0
 40
0.0
 40
0.0005782401583533
 40
0.0005782401583533
 40
0.0005782401583533
 40
0.0011564805960993
 40
0.0011564805960993
 40
0.0011564805960993
 40
0.0011564805960993
 10
54.18976044909532
 20
97.2653333718734
 30
0.0
 10
54.02310949874641
 20
97.20190791381262
 30
0.0
 10
53.85644990616374
 20
97.13855239015733
 30
0.0
 10
53.68978285373519
 20
97.07525480580735
 30
0.0
 10
53.52311571717137
 20
97.0119571895041
 30
0.0
 10
53.35644110972532
 20
96.94871739456343
 30
0.0
 10
53.18976044909526
 20
96.88551738792458
 30
0.0
  0
ARC
  5
16D
330
1F
100
AcDbEntity
  8
0
  6
HIDDEN
 62
     7
370
     0
100
AcDbCircle
 10
181.9486961794
 20
118.7781865676
 30
0.0
 40
13.20409613548682
100
AcDbArc
 50
355.2605460785
 51
358.162816698
  0
CIRCLE
  5
16E
330
1F
100
AcDbEntity
  8
0
  6
HIDDEN
 62
     7
370
     0
100
AcDbCircle
 10
92.0897604491
 20
106.8661601643
 30
0.0
 40
5.0
  0
LINE
  5
16F
330
1F
100
AcDbEntity
  8
0
  6
HIDDEN
 62
     7
370
     0
100
AcDbLine
 10
239.5806483015
 20
97.606502634
 30
0.0
 11
239.0952995534
 21
97.0930185289
 31
0.0
  0
LINE
  5
170
330
1F
100
AcDbEntity
  8
0
  6
HIDDEN
 62
     7
370
     0
100
AcDbLine
 10
239.1508213008
 20
95.0945610508
 30
0.0
 11
239.6639309226
 21
94.6088164169
 31
0.0
  0
LINE
  5
171
330
1F
100
AcDbEntity
  8
0
  6
HIDDEN
 62
     7
370
     0
100
AcDbLine
 10
244.9157260375
 20
97.7553021506
 30
0.0
 11
239.5817882336
 21
97.6071130845
 31
0.0
  0
LINE
  5
172
330
1F
100
AcDbEntity
  8
0
  6
HIDDEN
 62
     7
370
     0
100
AcDbLine
 10
239.6651029896
 20
94.608270199
 30
0.0
 11
244.9990407935
 21
94.7564592652
 31
0.0
  0
LINE
  5
173
330
1F
100
AcDbEntity
  8
0
  6
HIDDEN
 62
     7
370
     0
100
AcDbLine
 10
245.0009948224
 20
94.7582505647
 30
0.0
 11
245.0897604491
 21
94.9226226401
 31
0.0
  0
LINE
  5
174
330
1F
100
AcDbEntity
  8
0
  6
HIDDEN
 62
     7
370
     0
100
AcDbLine
 10
245.0870048954
 20
97.4780402486
 30
0.0
 11
244.9177765083
 21
97.7536221053
 31
0.0
  0
LINE
  5
175
330
1F
100
AcDbEntity
  8
0
  6
HIDDEN
 62
     7
370
     0
100
AcDbLine
 10
244.9177589741
 20
115.9786987104
 30
0.0
 11
245.0869873612
 21
116.2542805671
 31
0.0
  0
LINE
  5
176
330
1F
100
AcDbEntity
  8
0
  6
HIDDEN
 62
     7
370
     0
100
AcDbLine
 10
245.0897604491
 20
118.8096657066
 30
0.0
 11
245.0009772882
 21
118.974070251
 31
0.0
  0
LINE
  5
177
330
1F
100
AcDbEntity
  8
0
  6
HIDDEN
 62
     7
370
     0
100
AcDbLine
 10
244.9990232593
 20
118.9758615505
 30
0.0
 11
239.6650854554
 21
119.1240506166
 31
0.0
  0
LINE
  5
178
330
1F
100
AcDbEntity
  8
0
  6
HIDDEN
 62
     7
370
     0
100
AcDbLine
 10
239.5817706994
 20
116.1252077312
 30
0.0
 11
244.9157085033
 21
115.9770186651
 31
0.0
  0
LINE
  5
179
330
1F
100
AcDbEntity
  8
0
  6
HIDDEN
 62
     7
370
     0
100
AcDbLine
 10
239.6639133884
 20
119.1235043988
 30
0.0
 11
239.1508037666
 21
118.6377597648
 31
0.0
  0
LINE
  5
17A
330
1F
100
AcDbEntity
  8
0
  6
HIDDEN
 62
     7
370
     0
100
AcDbLine
 10
239.0952820192
 20
116.6393022867
 30
0.0
 11
239.5806307673
 21
116.1258181817
 31
0.0
  0
LINE
  5
17B
330
1F
100
AcDbEntity
  8
0
  6
HIDDEN
 62
     7
370
     0
100
AcDbLine
 10
89.0897604491
 20
121.163995314
 30
0.0
 11
89.0897604491
 21
119.2601008072
 31
0.0
  0
LINE
  5
17C
330
1F
100
AcDbEntity
  8
0
  6
HIDDEN
 62
     7
370
     0
100
AcDbLine
 10
97.0897604491
 20
119.2601008072
 30
0.0
 11
97.0897604491
 21
121.16679067
 31
0.0
  0
LINE
  5
17D
330
1F
100
AcDbEntity
  8
0
  6
HIDDEN
 62
     7
370
     0
100
AcDbLine
 10
85.0897604491
 20
81.5422290183
 30
0.0
 11
85.1839212246
 21
82.2122177495
 31
0.0
  0
LINE
  5
17E
330
1F
100
AcDbEntity
  8
0
  6
HIDDEN
 62
     7
370
     0
100
AcDbLine
 10
85.1839212246
 20
131.520102579
 30
0.0
 11
85.0897604491
 21
132.1900913103
 31
0.0
  0
ARC
  5
17F
330
1F
100
AcDbEntity
  8
0
  6
HIDDEN
 62
     7
370
     0
100
AcDbCircle
 10
84.5897536964
 20
82.2957225499
 30
0.0
 40
0.6000067526677242
100
AcDbArc
 50
352.0
 51
0.0
  0
ARC
  5
180
330
1F
100
AcDbEntity
  8
0
  6
HIDDEN
 62
     7
370
     0
100
AcDbCircle
 10
84.5897536964
 20
82.2957225499
 30
0.0
 40
0.6000067526677282
100
AcDbArc
 50
0.0
 51
33.5571153394
  0
ARC
  5
181
330
1F
100
AcDbEntity
  8
0
  6
HIDDEN
 62
     7
370
     0
100
AcDbCircle
 10
84.5897536964
 20
131.4365977787
 30
0.0
 40
0.6000067526677308
100
AcDbArc
 50
348.75
 51
8.0
  0
LWPOLYLINE
  5
182
330
1F
100
AcDbEntity
  8
0
  6
HIDDEN
 62
     7
370
     0
100
AcDbPolyline
 90
        3
 70
   128
 43
0.0
 10
85.1782314876
 20
131.3195422681
 10
85.1440876546
 20
131.2069851351
 10
85.0897604491
 20
131.1049332636
  0
LINE
  5
183
330
1F
100
AcDbEntity
  8
0
  6
HIDDEN
 62
     7
370
     0
100
AcDbLine
 10
85.1897604491
 20
82.2957225499
 30
0.0
 11
85.1897604491
 21
131.4365977787
 31
0.0
  0
ARC
  5
184
330
1F
100
AcDbEntity
  8
0
  6
HIDDEN
 62
     7
370
     0
100
AcDbCircle
 10
78.8447624507
 20
94.8661601643
 30
0.0
 40
8.000000000000004
100
AcDbArc
 50
276.8677048148
 51
321.3178125465
  0
ARC
  5
185
330
1F
100
AcDbEntity
  8
0
  6
HIDDEN
 62
     7
370
     0
100
AcDbCircle
 10
78.8447624507
 20
118.8661601643
 30
0.0
 40
8.000000000000004
100
AcDbArc
 50
38.6821874535
 51
83.1185947581
  0
LINE
  5
186
330
1F
100
AcDbEntity
  8
0
  6
HIDDEN
 62
     7
370
     0
100
AcDbLine
 10
68.1721960144
 20
86.8661601643
 30
0.0
 11
72.3638679026
 21
86.8661601643
 31
0.0
  0
LINE
  5
187
330
1F
100
AcDbEntity
  8
0
  6
HIDDEN
 62
     7
370
     0
100
AcDbLine
 10
72.3638679026
 20
126.8661601643
 30
0.0
 11
68.1721960144
 21
126.8661601643
 31
0.0
  0
ARC
  5
188
330
1F
100
AcDbEntity
  8
0
  6
HIDDEN
 62
     7
370
     0
100
AcDbCircle
 10
68.1721960144
 20
87.4661601643
 30
0.0
 40
0.6000000000000085
100
AcDbArc
 50
210.0
 51
270.0
  0
ARC
  5
189
330
1F
100
AcDbEntity
  8
0
  6
HIDDEN
 62
     7
370
     0
100
AcDbCircle
 10
68.1721960144
 20
126.2661601643
 30
0.0
 40
0.5999999999999962
100
AcDbArc
 50
90.0
 51
150.0
  0
LINE
  5
18A
330
1F
100
AcDbEntity
  8
0
  6
HIDDEN
 62
     7
370
     0
100
AcDbLine
 10
67.6525807721
 20
126.5661601643
 30
0.0
 11
66.0937350453
 21
123.8661601643
 31
0.0
  0
LINE
  5
18B
330
1F
100
AcDbEntity
  8
0
  6
HIDDEN
 62
     7
370
     0
100
AcDbLine
 10
66.0937350453
 20
89.8661601643
 30
0.0
 11
67.6525807721
 21
87.1661601643
 31
0.0
  0
LINE
  5
18C
330
1F
100
AcDbEntity
  8
0
  6
HIDDEN
 62
     7
370
     0
100
AcDbLine
 10
89.0897604491
 20
134.1404940235
 30
0.0
 11
89.0897604491
 21
130.8117625789
 31
0.0
  0
LINE
  5
18D
330
1F
100
AcDbEntity
  8
0
  6
HIDDEN
 62
     7
370
     0
100
AcDbLine
 10
97.0897604491
 20
130.8117625789
 30
0.0
 11
97.0897604491
 21
134.1458264022
 31
0.0
  0
ARC
  5
18E
330
1F
100
AcDbEntity
  8
0
  6
HIDDEN
 62
     7
370
     0
100
AcDbCircle
 10
93.5397604491
 20
91.1411601643
 30
0.0
 40
1.500000000000001
100
AcDbArc
 50
238.2116693829
 51
0.0
  0
ARC
  5
18F
330
1F
100
AcDbEntity
  8
0
  6
HIDDEN
 62
     7
370
     0
100
AcDbCircle
 10
93.5397604491
 20
122.5911601643
 30
0.0
 40
1.500000000000001
100
AcDbArc
 50
0.0
 51
121.7883306171
  0
LINE
  5
190
330
1F
100
AcDbEntity
  8
0
  6
HIDDEN
 62
     7
370
     0
100
AcDbLine
 10
63.2897604491
 20
89.8661601643
 30
0.0
 11
66.0937350453
 21
89.8661601643
 31
0.0
  0
LINE
  5
191
330
1F
100
AcDbEntity
  8
0
  6
HIDDEN
 62
     7
370
     0
100
AcDbLine
 10
66.0937350453
 20
123.8661601643
 30
0.0
 11
59.2897604491
 21
123.8661601643
 31
0.0
  0
LINE
  5
192
330
1F
100
AcDbEntity
  8
0
  6
HIDDEN
 62
     7
370
     0
100
AcDbLine
 10
85.0897604491
 20
89.8661601643
 30
0.0
 11
92.7495864176
 21
89.8661601643
 31
0.0
  0
LINE
  5
193
330
1F
100
AcDbEntity
  8
0
  6
HIDDEN
 62
     7
370
     0
100
AcDbLine
 10
92.7495864176
 20
123.8661601643
 30
0.0
 11
85.0897604491
 21
123.8661601643
 31
0.0
  0
LINE
  5
194
330
1F
100
AcDbEntity
  8
0
  6
HIDDEN
 62
     7
370
     0
100
AcDbLine
 10
197.5897604491
 20
95.8160446603
 30
0.0
 11
197.5897604491
 21
99.6644224242
 31
0.0
  0
LINE
  5
195
330
1F
100
AcDbEntity
  8
0
  6
HIDDEN
 62
     7
370
     0
100
AcDbLine
 10
197.5897604491
 20
93.6432633561
 30
0.0
 11
197.5897604491
 21
94.063848511
 31
0.0
  0
LINE
  5
196
330
1F
100
AcDbEntity
  8
0
  6
HIDDEN
 62
     7
370
     0
100
AcDbLine
 10
194.5897604491
 20
94.6229096902
 30
0.0
 11
194.5897604491
 21
93.6432633561
 31
0.0
  0
LINE
  5
197
330
1F
100
AcDbEntity
  8
0
  6
HIDDEN
 62
     7
370
     0
100
AcDbLine
 10
194.5897604491
 20
99.583911567
 30
0.0
 11
194.5897604491
 21
95.1238412078
 31
0.0
  0
LINE
  5
198
330
1F
100
AcDbEntity
  8
0
  6
HIDDEN
 62
     7
370
     0
100
AcDbLine
 10
197.3019289801
 20
93.6814202066
 30
0.0
 11
245.0897604491
 21
95.0090761294
 31
0.0
  0
LINE
  5
199
330
1F
100
AcDbEntity
  8
0
  6
HIDDEN
 62
     7
370
     0
100
AcDbLine
 10
245.0897604491
 20
97.5100407636
 30
0.0
 11
197.2975487369
 21
96.1822631476
 31
0.0
  0
LINE
  5
19A
330
1F
100
AcDbEntity
  8
0
  6
HIDDEN
 62
     7
370
     0
100
AcDbLine
 10
194.6131288321
 20
95.2687648234
 30
0.0
 11
194.3778119155
 21
94.850663823
 31
0.0
  0
LINE
  5
19B
330
1F
100
AcDbEntity
  8
0
  6
HIDDEN
 62
     7
370
     0
100
AcDbLine
 10
194.3778119155
 20
94.850663823
 30
0.0
 11
194.6139421866
 21
94.480792034
 31
0.0
  0
ARC
  5
19C
330
1F
100
AcDbEntity
  8
0
  6
HIDDEN
 62
     7
370
     0
100
AcDbCircle
 10
194.4897604491
 20
96.9661601643
 30
0.0
 40
0.4000000000000057
100
AcDbArc
 50
180.0
 51
270.0
  0
ARC
  5
19D
330
1F
100
AcDbEntity
  8
0
  6
HIDDEN
 62
     7
370
     0
100
AcDbCircle
 10
194.4897604491
 20
116.7661601643
 30
0.0
 40
0.4000000000000199
100
AcDbArc
 50
90.0
 51
180.0
  0
LINE
  5
19E
330
1F
100
AcDbEntity
  8
0
  6
HIDDEN
 62
     7
370
     0
100
AcDbLine
 10
194.4897604491
 20
96.5661601643
 30
0.0
 11
197.194986431
 21
96.5661601643
 31
0.0
  0
LINE
  5
19F
330
1F
100
AcDbEntity
  8
0
  6
HIDDEN
 62
     7
370
     0
100
AcDbLine
 10
197.194986431
 20
117.1661601643
 30
0.0
 11
194.4897604491
 21
117.1661601643
 31
0.0
  0
ARC
  5
1A0
330
1F
100
AcDbEntity
  8
0
  6
HIDDEN
 62
     7
370
     0
100
AcDbCircle
 10
244.7897604491
 20
96.5661601643
 30
0.0
 40
0.2999999999999972
100
AcDbArc
 50
0.0
 51
90.0
  0
ARC
  5
1A1
330
1F
100
AcDbEntity
  8
0
  6
HIDDEN
 62
     7
370
     0
100
AcDbCircle
 10
244.7897604491
 20
117.1661601643
 30
0.0
 40
0.2999999999999972
100
AcDbArc
 50
270.0
 51
0.0
  0
ARC
  5
1A2
330
1F
100
AcDbEntity
  8
0
  6
HIDDEN
 62
     7
370
     0
100
AcDbCircle
 10
197.194986431
 20
116.7661601643
 30
0.0
 40
0.4000000000000135
100
AcDbArc
 50
70.0
 51
90.0
  0
LINE
  5
1A3
330
1F
100
AcDbEntity
  8
0
  6
HIDDEN
 62
     7
370
     0
100
AcDbLine
 10
197.3317944883
 20
96.590283116
 30
0.0
 11
198.0897604491
 21
96.8661601643
 31
0.0
  0
LINE
  5
1A4
330
1F
100
AcDbEntity
  8
0
  6
HIDDEN
 62
     7
370
     0
100
AcDbLine
 10
198.0897604491
 20
116.8661601643
 30
0.0
 11
197.3317944883
 21
117.1420372126
 31
0.0
  0
LINE
  5
1A5
330
1F
100
AcDbEntity
  8
0
  6
HIDDEN
 62
     7
370
     0
100
AcDbLine
 10
198.0897604491
 20
96.8661601643
 30
0.0
 11
244.7897604491
 21
96.8661601643
 31
0.0
  0
LINE
  5
1A6
330
1F
100
AcDbEntity
  8
0
  6
HIDDEN
 62
     7
370
     0
100
AcDbLine
 10
244.7897604491
 20
116.8661601643
 30
0.0
 11
198.0897604491
 21
116.8661601643
 31
0.0
  0
LINE
  5
1A7
330
1F
100
AcDbEntity
  8
0
  6
HIDDEN
 62
     7
370
     0
100
AcDbLine
 10
103.8897604491
 20
97.3661601643
 30
0.0
 11
106.8897604491
 21
97.3661601643
 31
0.0
  0
LINE
  5
1A8
330
1F
100
AcDbEntity
  8
0
  6
HIDDEN
 62
     7
370
     0
100
AcDbLine
 10
106.8897604491
 20
116.3661601643
 30
0.0
 11
103.8897604491
 21
116.3661601643
 31
0.0
  0
LINE
  5
1A9
330
1F
100
AcDbEntity
  8
0
  6
HIDDEN
 62
     7
370
     0
100
AcDbLine
 10
95.0397604491
 20
97.8661601643
 30
0.0
 11
95.5397604491
 21
98.3661601643
 31
0.0
  0
LINE
  5
1AA
330
1F
100
AcDbEntity
  8
0
  6
HIDDEN
 62
     7
370
     0
100
AcDbLine
 10
95.5397604491
 20
115.3661601643
 30
0.0
 11
95.0397604491
 21
115.8661601643
 31
0.0
  0
LINE
  5
1AB
330
1F
100
AcDbEntity
  8
0
  6
HIDDEN
 62
     7
370
     0
100
AcDbLine
 10
95.5397604491
 20
98.3661601643
 30
0.0
 11
103.8897604491
 21
98.3661601643
 31
0.0
  0
LINE
  5
1AC
330
1F
100
AcDbEntity
  8
0
  6
HIDDEN
 62
     7
370
     0
100
AcDbLine
 10
103.8897604491
 20
115.3661601643
 30
0.0
 11
95.5397604491
 21
115.3661601643
 31
0.0
  0
LINE
  5
1AD
330
1F
100
AcDbEntity
  8
0
  6
HIDDEN
 62
     7
370
     0
100
AcDbLine
 10
90.0397604491
 20
138.3661601643
 30
0.0
 11
90.0397604491
 21
133.2661601643
 31
0.0
  0
ARC
  5
1AE
330
1F
100
AcDbEntity
  8
0
  6
HIDDEN
 62
     7
370
     0
100
AcDbCircle
 10
197.194986431
 20
96.9661601643
 30
0.0
 40
0.4000000000000001
100
AcDbArc
 50
270.0
 51
290.0
  0
LINE
  5
1AF
330
1F
100
AcDbEntity
  8
0
  6
HIDDEN
 62
     7
370
     0
100
AcDbLine
 10
80.2741982796
 20
82.7867888307
 30
0.0
 11
79.8397661301
 21
83.2658548498
 31
0.0
  0
LINE
  5
1B0
330
1F
100
AcDbEntity
  8
0
  6
HIDDEN
 62
     7
370
     0
100
AcDbLine
 10
72.339762805
 20
83.687542809
 30
0.0
 11
71.8573290617
 21
83.2084768335
 31
0.0
  0
LINE
  5
1B1
330
1F
100
AcDbEntity
  8
0
  6
HIDDEN
 62
     7
370
     0
100
AcDbLine
 10
71.8572071334
 20
130.5238382046
 30
0.0
 11
72.3397578844
 21
130.0447179467
 31
0.0
  0
LINE
  5
1B2
330
1F
100
AcDbEntity
  8
0
  6
HIDDEN
 62
     7
370
     0
100
AcDbLine
 10
79.8397603311
 20
130.4664157244
 30
0.0
 11
80.2743027214
 21
130.9455359749
 31
0.0
  0
LINE
  5
1B3
330
1F
100
AcDbEntity
  8
0
  6
HIDDEN
 62
     7
370
     0
100
AcDbLine
 10
106.8897604491
 20
102.6161601643
 30
0.0
 11
194.0897604491
 21
102.6161601643
 31
0.0
  0
LINE
  5
1B4
330
1F
100
AcDbEntity
  8
0
  6
HIDDEN
 62
     7
370
     0
100
AcDbLine
 10
194.0897604491
 20
111.1161601643
 30
0.0
 11
106.8897604491
 21
111.1161601643
 31
0.0
  0
LINE
  5
1B5
330
1F
100
AcDbEntity
  8
0
  6
HIDDEN
 62
     7
370
     0
100
AcDbLine
 10
79.8397604491
 20
83.1657953044
 30
0.0
 11
79.8397604491
 21
86.930759826
 31
0.0
  0
LINE
  5
1B6
330
1F
100
AcDbEntity
  8
0
  6
HIDDEN
 62
     7
370
     0
100
AcDbLine
 10
72.3397604491
 20
86.8705379323
 30
0.0
 11
72.3397604491
 21
83.6878660468
 31
0.0
  0
LINE
  5
1B7
330
1F
100
AcDbEntity
  8
0
  6
HIDDEN
 62
     7
370
     0
100
AcDbLine
 10
79.8397604491
 20
126.8015605025
 30
0.0
 11
79.8397604491
 21
130.5664462251
 31
0.0
  0
LINE
  5
1B8
330
1F
100
AcDbEntity
  8
0
  6
HIDDEN
 62
     7
370
     0
100
AcDbLine
 10
72.3397604491
 20
130.0444627554
 30
0.0
 11
72.3397604491
 21
126.8617823962
 31
0.0
  0
LINE
  5
1B9
330
1F
100
AcDbEntity
  8
0
  6
HIDDEN
 62
     7
370
     0
100
AcDbLine
 10
160.5397604491
 20
80.8661601643
 30
0.0
 11
159.5397604491
 21
81.4435104335
 31
0.0
  0
LINE
  5
1BA
330
1F
100
AcDbEntity
  8
0
  6
HIDDEN
 62
     7
370
     0
100
AcDbLine
 10
154.5397604491
 20
81.4435104335
 30
0.0
 11
153.5397604491
 21
80.8661601643
 31
0.0
  0
LINE
  5
1BB
330
1F
100
AcDbEntity
  8
0
  6
HIDDEN
 62
     7
370
     0
100
AcDbLine
 10
153.5397604491
 20
132.8661601643
 30
0.0
 11
154.5397604491
 21
132.2888098951
 31
0.0
  0
LINE
  5
1BC
330
1F
100
AcDbEntity
  8
0
  6
HIDDEN
 62
     7
370
     0
100
AcDbLine
 10
159.5397604491
 20
132.2888098951
 30
0.0
 11
160.5397604491
 21
132.8661601643
 31
0.0
  0
LINE
  5
1BD
330
1F
100
AcDbEntity
  8
0
  6
HIDDEN
 62
     7
370
     0
100
AcDbLine
 10
154.5397604491
 20
132.2888098951
 30
0.0
 11
154.5397604491
 21
120.8661601643
 31
0.0
  0
LINE
  5
1BE
330
1F
100
AcDbEntity
  8
0
  6
HIDDEN
 62
     7
370
     0
100
AcDbLine
 10
159.5397604491
 20
120.8661601643
 30
0.0
 11
159.5397604491
 21
132.2888098951
 31
0.0
  0
LINE
  5
1BF
330
1F
100
AcDbEntity
  8
0
  6
HIDDEN
 62
     7
370
     0
100
AcDbLine
 10
154.5397604491
 20
120.8661601643
 30
0.0
 11
157.0397604491
 21
119.3640086167
 31
0.0
  0
LINE
  5
1C0
330
1F
100
AcDbEntity
  8
0
  6
HIDDEN
 62
     7
370
     0
100
AcDbLine
 10
157.0397604491
 20
119.3640086167
 30
0.0
 11
159.5397604491
 21
120.8661601643
 31
0.0
  0
LINE
  5
1C1
330
1F
100
AcDbEntity
  8
0
  6
HIDDEN
 62
     7
370
     0
100
AcDbLine
 10
159.5397604491
 20
81.4435104335
 30
0.0
 11
159.5397604491
 21
92.8661601643
 31
0.0
  0
LINE
  5
1C2
330
1F
100
AcDbEntity
  8
0
  6
HIDDEN
 62
     7
370
     0
100
AcDbLine
 10
154.5397604491
 20
92.8661601643
 30
0.0
 11
154.5397604491
 21
81.4435104335
 31
0.0
  0
LINE
  5
1C3
330
1F
100
AcDbEntity
  8
0
  6
HIDDEN
 62
     7
370
     0
100
AcDbLine
 10
159.5397604491
 20
92.8661601643
 30
0.0
 11
157.0397604491
 21
94.3683117118
 31
0.0
  0
LINE
  5
1C4
330
1F
100
AcDbEntity
  8
0
  6
HIDDEN
 62
     7
370
     0
100
AcDbLine
 10
157.0397604491
 20
94.3683117118
 30
0.0
 11
154.5397604491
 21
92.8661601643
 31
0.0
  0
LINE
  5
1C5
330
1F
100
AcDbEntity
  8
0
  6
HIDDEN
 62
     7
370
     0
100
AcDbLine
 10
197.5897604491
 20
114.0678979044
 30
0.0
 11
197.5897604491
 21
117.9166069604
 31
0.0
  0
LINE
  5
1C6
330
1F
100
AcDbEntity
  8
0
  6
HIDDEN
 62
     7
370
     0
100
AcDbLine
 10
194.5897604491
 20
118.6108268078
 30
0.0
 11
194.5897604491
 21
114.1484087616
 31
0.0
  0
LINE
  5
1C7
330
1F
100
AcDbEntity
  8
0
  6
HIDDEN
 62
     7
370
     0
100
AcDbLine
 10
194.5897604491
 20
119.5940822256
 30
0.0
 11
194.5897604491
 21
119.1054250236
 31
0.0
  0
LINE
  5
1C8
330
1F
100
AcDbEntity
  8
0
  6
HIDDEN
 62
     7
370
     0
100
AcDbLine
 10
197.3010994917
 20
117.5499585328
 30
0.0
 11
245.0897604491
 21
116.222279565
 31
0.0
  0
LINE
  5
1C9
330
1F
100
AcDbEntity
  8
0
  6
HIDDEN
 62
     7
370
     0
100
AcDbLine
 10
245.0897604491
 20
118.7232441992
 30
0.0
 11
197.297722155
 21
120.0510169972
 31
0.0
  0
LINE
  5
1CA
330
1F
100
AcDbEntity
  8
0
  6
HIDDEN
 62
     7
370
     0
100
AcDbLine
 10
194.6162864909
 20
119.2552003863
 30
0.0
 11
194.3778119155
 21
118.8816565055
 31
0.0
  0
LINE
  5
1CB
330
1F
100
AcDbEntity
  8
0
  6
HIDDEN
 62
     7
370
     0
100
AcDbLine
 10
194.3778119155
 20
118.8816565055
 30
0.0
 11
194.6134147951
 21
118.4630474183
 31
0.0
  0
DIMENSION
  5
1CC
330
1F
100
AcDbEntity
  8
VERMASSUNG
100
AcDbDimension
  2
*D1
 10
252.2321181516
 20
96.8661601643
 30
0.0
 11
252.2321181516
 21
106.8661601643
 31
0.0
 70
   160
  1
%%c<>
 71
     2
 42
-1.0
  3
SLDDIMSTYLE0
100
AcDbAlignedDimension
 13
244.7897604491
 23
116.8661601643
 33
0.0
 14
244.7897604491
 24
96.8661601643
 34
0.0
 50
90.0
100
AcDbRotatedDimension
  0
DIMENSION
  5
1D8
330
1F
100
AcDbEntity
  8
VERMASSUNG
100
AcDbDimension
  2
*D2
 10
245.0897604491
 20
142.3661601643
 30
0.0
 11
178.0647604491
 21
142.3661601643
 31
0.0
 70
   160
 71
     2
 42
-1.0
  3
SLDDIMSTYLE0
100
AcDbAlignedDimension
 13
111.0397604491
 23
136.712600488
 33
0.0
 14
245.0897604491
 24
125.5920196427
 34
0.0
100
AcDbRotatedDimension
  0
DIMENSION
  5
1E2
330
1F
100
AcDbEntity
  8
VERMASSUNG
100
AcDbDimension
  2
*D3
 10
245.0897604491
 20
154.3661601643
 30
0.0
 11
149.1397604491
 21
154.3661601643
 31
0.0
 70
   160
 71
     2
 42
-1.0
  3
SLDDIMSTYLE0
100
AcDbAlignedDimension
 13
53.1897604491
 23
126.5568379107
 33
0.0
 14
245.0897604491
 24
125.5920196427
 34
0.0
100
AcDbRotatedDimension
  0
DIMENSION
  5
1EC
330
1F
100
AcDbEntity
  8
VERMASSUNG
100
AcDbDimension
  2
*D4
 10
245.0897604491
 20
148.3661601643
 30
0.0
 11
165.0897604491
 21
148.3661601643
 31
0.0
 70
   160
 71
     2
 42
-1.0
  3
SLDDIMSTYLE0
100
AcDbAlignedDimension
 13
85.0897604491
 23
138.0661601643
 33
0.0
 14
245.0897604491
 24
125.5920196427
 34
0.0
100
AcDbRotatedDimension
  0
DIMENSION
  5
1F6
330
1F
100
AcDbEntity
  8
VERMASSUNG
100
AcDbDimension
  2
*D5
 10
48.3227532179
 20
75.3661601643
 30
0.0
 11
48.3227532179
 21
106.8661601643
 31
0.0
 70
   160
  1
HSK A %%c<>
 71
     2
 42
-1.0
  3
SLDDIMSTYLE0
100
AcDbAlignedDimension
 13
85.3897604491
 23
138.3661601643
 33
0.0
 14
85.3897604491
 24
75.3661601643
 34
0.0
 50
90.0
100
AcDbRotatedDimension
  0
DIMENSION
  5
202
330
1F
100
AcDbEntity
  8
VERMASSUNG
100
AcDbDimension
  2
*D6
 10
258.2321181516
 20
80.8661601643
 30
0.0
 11
258.2321181516
 21
106.8661601643
 31
0.0
 70
   160
  1
%%c<>
 71
     2
 42
-1.0
  3
SLDDIMSTYLE0
100
AcDbAlignedDimension
 13
232.222718926
 23
132.8661601643
 33
0.0
 14
232.222718926
 24
80.8661601643
 34
0.0
 50
90.0
100
AcDbRotatedDimension
  0
LINE
  5
20D
330
1F
100
AcDbEntity
  8
VERMASSUNG
  6
CENTERX2
370
     0
100
AcDbLine
 10
49.8338516294
 20
106.8661601643
 30
0.0
 11
248.2531365698
 21
106.8661601643
 31
0.0
  0
OLE2FRAME
  5
20E
330
1F
100
AcDbEntity
  8
0
100
AcDbOle2Frame
 70
     2
  3
Bitmap Image
 10
13.8511154363
 20
38.264191557
 30
0.0
 11
51.6290888628
 21
31.9806341108
 31
0.0
 71
     2
 72
     0
 73
     1
 90
    12928
310
80552BED0767C5B32B40DDAF6807D121434000000000000000006FFBDDFB85D0
310
4940DDAF6807D121434000000000000000006FFBDDFB85D04940416F4BD60AFB
310
3F4000000000000000002BED0767C5B32B40416F4BD60AFB3F40000000000000
310
0000000000000100000000010000010000000100000000000100000000320000
310
D0CF11E0A1B11AE1000000000000000000000000000000003E000300FEFF0900
310
0600000000000000000000000100000001000000000000000010000002000000
310
01000000FEFFFFFF0000000000000000FFFFFFFFFFFFFFFFFFFFFFFFFFFFFFFF
310
FFFFFFFFFFFFFFFFFFFFFFFFFFFFFFFFFFFFFFFFFFFFFFFFFFFFFFFFFFFFFFFF
310
FFFFFFFFFFFFFFFFFFFFFFFFFFFFFFFFFFFFFFFFFFFFFFFFFFFFFFFFFFFFFFFF
310
FFFFFFFFFFFFFFFFFFFFFFFFFFFFFFFFFFFFFFFFFFFFFFFFFFFFFFFFFFFFFFFF
310
FFFFFFFFFFFFFFFFFFFFFFFFFFFFFFFFFFFFFFFFFFFFFFFFFFFFFFFFFFFFFFFF
310
FFFFFFFFFFFFFFFFFFFFFFFFFFFFFFFFFFFFFFFFFFFFFFFFFFFFFFFFFFFFFFFF
310
FFFFFFFFFFFFFFFFFFFFFFFFFFFFFFFFFFFFFFFFFFFFFFFFFFFFFFFFFFFFFFFF
310
FFFFFFFFFFFFFFFFFFFFFFFFFFFFFFFFFFFFFFFFFFFFFFFFFFFFFFFFFFFFFFFF
310
FFFFFFFFFFFFFFFFFFFFFFFFFFFFFFFFFFFFFFFFFFFFFFFFFFFFFFFFFFFFFFFF
310
FFFFFFFFFFFFFFFFFFFFFFFFFFFFFFFFFFFFFFFFFFFFFFFFFFFFFFFFFFFFFFFF
310
FFFFFFFFFFFFFFFFFFFFFFFFFFFFFFFFFFFFFFFFFFFFFFFFFFFFFFFFFFFFFFFF
310
FFFFFFFFFFFFFFFFFFFFFFFFFFFFFFFFFFFFFFFFFFFFFFFFFFFFFFFFFFFFFFFF
310
FFFFFFFFFFFFFFFFFFFFFFFFFFFFFFFFFFFFFFFFFFFFFFFFFFFFFFFFFFFFFFFF
310
FFFFFFFFFFFFFFFFFFFFFFFFFFFFFFFFFFFFFFFFFFFFFFFFFFFFFFFFFFFFFFFF
310
FDFFFFFFFEFFFFFFFEFFFFFFFEFFFFFF05000000060000000700000008000000
310
090000000A0000000B0000000C0000000D0000000E0000000F00000010000000
310
11000000120000001300000014000000150000001600000017000000FEFFFFFF
310
FFFFFFFFFFFFFFFFFFFFFFFFFFFFFFFFFFFFFFFFFFFFFFFFFFFFFFFFFFFFFFFF
310
FFFFFFFFFFFFFFFFFFFFFFFFFFFFFFFFFFFFFFFFFFFFFFFFFFFFFFFFFFFFFFFF
310
FFFFFFFFFFFFFFFFFFFFFFFFFFFFFFFFFFFFFFFFFFFFFFFFFFFFFFFFFFFFFFFF
310
FFFFFFFFFFFFFFFFFFFFFFFFFFFFFFFFFFFFFFFFFFFFFFFFFFFFFFFFFFFFFFFF
310
FFFFFFFFFFFFFFFFFFFFFFFFFFFFFFFFFFFFFFFFFFFFFFFFFFFFFFFFFFFFFFFF
310
FFFFFFFFFFFFFFFFFFFFFFFFFFFFFFFFFFFFFFFFFFFFFFFFFFFFFFFFFFFFFFFF
310
FFFFFFFFFFFFFFFFFFFFFFFFFFFFFFFFFFFFFFFFFFFFFFFFFFFFFFFFFFFFFFFF
310
FFFFFFFFFFFFFFFFFFFFFFFFFFFFFFFFFFFFFFFFFFFFFFFFFFFFFFFFFFFFFFFF
310
FFFFFFFFFFFFFFFFFFFFFFFFFFFFFFFFFFFFFFFFFFFFFFFFFFFFFFFFFFFFFFFF
310
FFFFFFFFFFFFFFFFFFFFFFFFFFFFFFFFFFFFFFFFFFFFFFFFFFFFFFFFFFFFFFFF
310
FFFFFFFFFFFFFFFFFFFFFFFFFFFFFFFFFFFFFFFFFFFFFFFFFFFFFFFFFFFFFFFF
310
FFFFFFFFFFFFFFFFFFFFFFFFFFFFFFFFFFFFFFFFFFFFFFFFFFFFFFFFFFFFFFFF
310
FFFFFFFFFFFFFFFFFFFFFFFFFFFFFFFFFFFFFFFFFFFFFFFFFFFFFFFFFFFFFFFF
310
52006F006F007400200045006E00740072007900000000000000000000000000
310
0000000000000000000000000000000000000000000000000000000000000000
310
16000500FFFFFFFFFFFFFFFF020000000A00030000000000C000000000000046
310
000000000000000000000000D072AB17FAFFCB0103000000C000000000000000
310
01004F006C006500000000000000000000000000000000000000000000000000
310
0000000000000000000000000000000000000000000000000000000000000000
310
0A000200FFFFFFFFFFFFFFFFFFFFFFFF00000000000000000000000000000000
310
0000000000000000000000000000000000000000000000001400000000000000
310
010043006F006D0070004F0062006A0000000000000000000000000000000000
310
0000000000000000000000000000000000000000000000000000000000000000
310
120002010100000003000000FFFFFFFF00000000000000000000000000000000
310
0000000000000000000000000000000000000000010000004D00000000000000
310
01004F006C006500310030004E00610074006900760065000000000000000000
310
0000000000000000000000000000000000000000000000000000000000000000
310
1A000200FFFFFFFFFFFFFFFFFFFFFFFF00000000000000000000000000000000
310
0000000000000000000000000000000000000000040000002426000000000000
310
FEFFFFFF02000000FEFFFFFFFFFFFFFFFFFFFFFFFFFFFFFFFFFFFFFFFFFFFFFF
310
FFFFFFFFFFFFFFFFFFFFFFFFFFFFFFFFFFFFFFFFFFFFFFFFFFFFFFFFFFFFFFFF
310
FFFFFFFFFFFFFFFFFFFFFFFFFFFFFFFFFFFFFFFFFFFFFFFFFFFFFFFFFFFFFFFF
310
FFFFFFFFFFFFFFFFFFFFFFFFFFFFFFFFFFFFFFFFFFFFFFFFFFFFFFFFFFFFFFFF
310
FFFFFFFFFFFFFFFFFFFFFFFFFFFFFFFFFFFFFFFFFFFFFFFFFFFFFFFFFFFFFFFF
310
FFFFFFFFFFFFFFFFFFFFFFFFFFFFFFFFFFFFFFFFFFFFFFFFFFFFFFFFFFFFFFFF
310
FFFFFFFFFFFFFFFFFFFFFFFFFFFFFFFFFFFFFFFFFFFFFFFFFFFFFFFFFFFFFFFF
310
FFFFFFFFFFFFFFFFFFFFFFFFFFFFFFFFFFFFFFFFFFFFFFFFFFFFFFFFFFFFFFFF
310
FFFFFFFFFFFFFFFFFFFFFFFFFFFFFFFFFFFFFFFFFFFFFFFFFFFFFFFFFFFFFFFF
310
FFFFFFFFFFFFFFFFFFFFFFFFFFFFFFFFFFFFFFFFFFFFFFFFFFFFFFFFFFFFFFFF
310
FFFFFFFFFFFFFFFFFFFFFFFFFFFFFFFFFFFFFFFFFFFFFFFFFFFFFFFFFFFFFFFF
310
FFFFFFFFFFFFFFFFFFFFFFFFFFFFFFFFFFFFFFFFFFFFFFFFFFFFFFFFFFFFFFFF
310
FFFFFFFFFFFFFFFFFFFFFFFFFFFFFFFFFFFFFFFFFFFFFFFFFFFFFFFFFFFFFFFF
310
FFFFFFFFFFFFFFFFFFFFFFFFFFFFFFFFFFFFFFFFFFFFFFFFFFFFFFFFFFFFFFFF
310
FFFFFFFFFFFFFFFFFFFFFFFFFFFFFFFFFFFFFFFFFFFFFFFFFFFFFFFFFFFFFFFF
310
FFFFFFFFFFFFFFFFFFFFFFFFFFFFFFFFFFFFFFFFFFFFFFFFFFFFFFFFFFFFFFFF
310
010000020000000000000000000000000000000061007200650064005C003100
310
30002E0030005C0044004C004C005300680061007200650064005C003B004300
310
0100FEFF030A0000FFFFFFFF0A00030000000000C00000000000004607000000
310
5042727573680007000000504272757368000700000050427275736800F439B2
310
71000000000000000000000000004100540049002E004100430045005C004300
310
6F00720065002D005300740061007400690063003B0043003A005C0050007200
310
6F006700720061006D002000460069006C006500730020002800780038003600
310
29005C0043006F006D006D006F006E002000460069006C00650073005C004100
310
750074006F006400650073006B0020005300680061007200650064005C003B00
310
43003A005C00500072006F006700720061006D002000460069006C0065007300
310
5C004E006F0072006D0061006E005C004E0070006D005C00420069006E000000
310
43003A005C00500072006F006700720061006D002000460069006C0065007300
310
5C0053006F006C006900640057006F0072006B007300200043006F0072007000
310
5C0053006F006C006900640057006F0072006B00730020002800320029005C00
310
730065007400750070005C0069003300380036005C0073007700610063007400
310
770069007A002E006500780065000000220043003A005C00500072006F006700
310
20260000424D0E260000000000003E00000028000000B40200006E0000000100
310
01000000000000000000130B0000130B00000200000002000000000000FFFFFF
310
FFFFFFFFFFFFFFFFFFFFFFFFFFFFFFFFFFFFFFFFFFFFFFFFFFFFFFFFFFFFFFFF
310
FFFFFFFFFFFFFFFFFFFFFFFFFFFFFFFFFFFFFFFFFFFFFFFFFFFFFFFFFFFFFFFF
310
FFFFFFFFFFFFFFFFFFFFFFFFFFFFFFFFFFFFFFFFFFFFFFFFF000FFFFFFFFFFFF
310
FFFFFFFFFFFFFFFFFFFFFFFFFFFFFFFFFFFFFFFFFFFFFFFFFFFFFFFFFFFFFFFF
310
FFFFFFFFFFFFFFFFFFFFFFFFFFFFFFFFFFFFFFFFFFFFFFFFFFFFFFFFFFFFFFFF
310
FFFFFFFFFFFFFFFFFFFFFFFFFFFFFFFFF000FFFFFFFFFFFFFFFFFFFFFFFFFFFF
310
FFFFFFFFFFFFFFFFFFFFFFFFFFFFFFFFFFFFFFFFFFFFFFFFFFFFFFFFFFFFFFFF
310
FFFFFFFFFFFFFFFFFFFFFFFFFFFFFFFFFFFFFFFFFFFFFFFFFFFFFFFFFFFFFFFF
310
FFFFFFFFFFFFFFFFF000FFFFFFFFFFFFFFFFFFFFFFFFFFFFFFFFFFFFFFFFFFFF
310
FFFFFFFFFFFFFFFFFFFFFFFFFFFFFFFFFFFFFFFFFFFFFFFFFFFFFFFFFFFFFFFF
310
FFFFFFFFFFFFFFFFFFFFFFFFFFFFFFFFFFFFFFFFFFFFFFFFFFFFFFFFFFFFFFFF
310
F000FFFFFFFFFFFFFFFFFFFFFFFFFFFFFFFFFFFFFFFFFFFFFFFFFFFFFFFFFFFF
310
FFFFFFFFFFFFFFFFFFFFFFFFFFFFFFFFFFFFFFFFFFFFFFFFFFFFFFFFFFFFFFFF
310
FFFFFFFFFFFFFFFFFFFFFFFFFFFFFFFFFFFFFFFFFFFFFFFFF000FFFFFFFFFFFF
310
FFFFFFFFFFFFFFFFFFFFFFFFFFFFFFFFFFFFFFFFFFFFFFFFFFFFFFFFFFFFFFFF
310
FFFFFFFFFFFFFFFFFFFFFFFFFFFFFFFFFFFFFFFFFFFFFFFFFFFFFFFFFFFFFFFF
310
FFFFFFFFFFFFFFFFFFFFFFFFFFFFFFFFF000FFFFFFFFFFFFFFFFFFFFFFFFFFFF
310
FFFFFFFFFFFFFFFFFFFFFFFFFFFFFFFFFFFFFFFFFFFFFFFFFFFFFFFFFFFFFFFF
310
FFFFFFFFFFFFFFFFFFFFFFFFFFFFFFFFFFFFFFFFFFFFFFFFFFFFFFFFFFFFFFFF
310
FFFFFFFFFFFFFFFFF000FFFFFFFFFFFFFFFFFFFFFFFFFFFFFFFFFFFFFFFFFFFF
310
FFFFFFFFFFFFFFFFFFFFFFFFFFFFFFFFFFFFFFFFFFFFFFFFFFFFFFFFFFFFFFFF
310
FFFFFFFFFFFFFFFFFFFFFFFFFFFFFFFFFFFFFFFFFFFFFFFFFFFFFFFFFFFFFFFF
310
F000FFFFFFFFFFFFFFFFFFFFFFFFFFFFFFFFFFFFFFFFFFFFFFFFFFFFFFFFFFFF
310
FFFFFFFFFFFFFFFFFFFFFFFFFFFFFFFFFFFFFFFFFFFFFFFFFFFFFFFFFFFFFFFF
310
FFFFFFFFFFFFFFFFFFFFFFFFFFFFFFFFFFFFFFFFFFFFFFFFF000FFFFFFFFFFFF
310
FFFFFFFFFFFFFFFFFFFFFFFFFFFFFFFFFFFFFFFFFFFFFFFFFFFFFFFFFFFFFFFF
310
FFFFFFFFFFFFFFFFFFFFFFFFFFFFFFFFFFFFFFFFFFFFFFFFFFFFFFFFFFFFFFFF
310
FFFFFFFFFFFFFFFFFFFFFFFFFFFFFFFFF000FFFFFFFFFFFFFFFFFFFFFFFFFFFF
310
FFFFFFFFFFFFFFFFFFFFFFFFFFFFFFFFFFFFFFFFFFFFFFFFFFFFFFFFFFFFFFFF
310
FFFFFFFFFFFFFFFFFFFFFFFFFFFFFFFFFFFFFFFFFFFFFFFFFFFFFFFFFFFFFFFF
310
FFFFFFFFFFFFFFFFF000FFFFFFFFFFFFFFFFFFFFFFFFFFFFFFFFFFFFFFFFFFFF
310
FFFFFFFFFFFFFFFFFFFFFFFFFFFFFFFFFFFFFFFFFFFFFFFFFFFFFFFFFFFFFFFF
310
FFFFFFFFFFFFFFFFFFFFFFFFFFFFFFFFFFFFFFFFFFFFFFFFFFFFFFFFFFFFFFFF
310
F000FFFFFFFFFFFFFFFFFFFFFFFFFFFFFFFFFFFFFFFFFFFFFFFFFFFFFFFFFFFF
310
FFFFFFFFFFFFFFFFFFFFFFFFFFFFFFFFFFFFFFFFFFFFFFFFFFFFFFFFFFFFFFFF
310
FFFFFFFFFFFFFFFFFFFFFFFFFFFFFFFFFFFFFFFFFFFFFFFFF000FFFFFFFFFFFF
310
FFFFFFFFFFFFFFFFFFFFFFFFFFFFFFFFFFFFFFFFFFFFFFFFFFFFFFFFFFFFFFFF
310
FFFFFFFFFFFFFFFFFFFFFFFFFFFFFFFFFFFFFFFFFFFFFFFFFFFFFFFFFFFFFFFF
310
FFFFFFFFFFFFFFFFFFFFFFFFFFFFFFFFF000FFFFFFFFFFFFFFFFFFFFFFFFFFFF
310
FFFFFFFFFFFFFFFFFFFFFFFFFFFFFFFFFFFFFFFFFFFFFFFFFFFFFFFFFFFFFFFF
310
FFFFFFFFFFFFFFFFFFFFFFFFFFFFFFFFFFFFFFFFFFFFFFFFFFFFFFFFFFFFFFFF
310
FFFFFFFFFFFFFFFFF000FFFFFFFFFFFFFFFFFFFFFFFFFFFFFFFFFFFFFFFFFFFF
310
FFFFFFFFFFFFFFFFFFFFFFFFFFFFFFFFFFFFFFFFFFFFFFFFFFFFFFFFFFFFFFFF
310
FFFFFFFFFFFFFFFFFFFFFFFFFFFFFFFFFFFFFFFFFFFFFFFFFFFFFFFFFFFFFFFF
310
F000FFFFFFFFFFFFFFFFFFFFFFFFFFFFFFFFFFFFFFFFFFFFFFFFFFFFFFFFFFFF
310
FFFFFFFFFFFFFFFFFFFFFFFFFFFFFFFFFFFFFFFFFFFFFFFFFFFFFFFFFFFFFFFF
310
FFFFFFFFFFFFFFFFFFFFFFFFFFFFFFFFFFFFFFFFFFFFFFFFF000FFFFFFFFFFFF
310
FFFFFFFFFFFFFFFFFFFFFFFFFFFFFFFFFFFFFFFFFFFFFFFFFFFFFFFFFFFFFFFF
310
FFFFFFFFFFFFFFFFFFFFFFFFFFFFFFFFFFFFFFFFFFFFFFFFFFFFFFFFFFFFFFFF
310
FFFFFFFFFFFFFFFFFFFFFFFFFFFFFFFFF000FFFFFFFFFFFFFFFFFFFFFFFFFFFF
310
FFFFFFFFFFFFFFFFFFFFFFFFFFFFFFFFFFFFFFFFFFFFFFFFFFFFFFFFFFFFFFFF
310
FFFFFFFFFFFFFFFFFFFFFFFFFFFFFFFFFFFFFFFFFFFFFFFFFFFFFFFFFFFFFFFF
310
FFFFFFFFFFFFFFFFF000FFFFF80003FFFFFFFFFFFFFFFFFFFFFFFFFFFFFFFFFF
310
FFFFF00007FFFFFFFFFF00007FFFFFF800000000000000007FFFFFFFFFFFFFFF
310
FFFFFFFC001FFFFFFFFFFFFFFC001FFFFFFFFFFFFFFFFFFFFFFFFFFE0007FFFF
310
F000FFFF8000007FFFFFFFF8000FFFFFC0007FFFFF80007FFFFF0000007FFFFF
310
FFF8000007FFFFF800000000000000007FFFFFF0001FFFFFFFFFFFC00001FFFF
310
FFFFFFFFC00001FFFFFFFF000000000003FFFFE000007FFFF000FFFE0000000F
310
FFFFFFF0000FFFFF80007FFFFF80007FFFFC0000001FFFFFFFC0000001FFFFF8
310
00000000000000007FFFFFF0001FFFFFFFFFFE0000003FFFFFFFFFFE0000003F
310
FFFFFF000000000003FFFF0000000FFFF000FFF800000003FFFFFFF00007FFFF
310
80007FFFFF80007FFFF000000007FFFFFF000000003FFFF80000000000000000
310
7FFFFFF0001FFFFFFFFFF80000000FFFFFFFFFF80000000FFFFFFF0000000000
310
03FFFC00000003FFF000FFE000000000FFFFFFF00007FFFF80003FFFFF80007F
310
FFC000000001FFFFFC000000001FFFF800000000000000007FFFFFF0001FFFFF
310
FFFFE000000003FFFFFFFFE000000003FFFFFF000000000003FFF000000000FF
310
F000FF80000000007FFFFFF00007FFFF80003FFFFF80007FFF8000000000FFFF
310
F80000000007FFF800000000000000007FFFFFF0001FFFFFFFFFC000000001FF
310
FFFFFFC000000001FFFFFF000000000003FFC0000000007FF000FF0000000000
310
3FFFFFE00007FFFF00003FFFFF80007FFE00000000003FFFF00000000003FFF8
310
00000000000000007FFFFFF0001FFFFFFFFF8000000000FFFFFFFF8000000000
310
FFFFFF000000000003FF80000000003FF000FE00000000001FFFFFE00003FFFF
310
00003FFFFF80007FFC00000000001FFFE00000000001FFF8000001FFFE000000
310
7FFFFFF0001FFFFFFFFE00000000003FFFFFFE00000000003FFFFF0000000000
310
03FF00000000001FF000FC00000000000FFFFFE00003FFFF00001FFFFF80007F
310
F800000000001FFFC00000000000FFF8000001FFFE0000007FFFFFF0001FFFFF
310
FFFC00000000001FFFFFFC00000000001FFFFF000000000003FE00000000000F
310
F000F8000000000007FFFFE00003FFFF00001FFFFF80007FF800000000000FFF
310
800000000000FFF8000001FFFE0000007FFFFFF0001FFFFFFFF800000000000F
310
FFFFF800000000000FFFFF000000000003FC000000000007F000F80000000000
310
03FFFFC00003FFFE00001FFFFF80007FF0000000000007FF0000000000007FF8
310
000001FFFE0000007FFFFFF0001FFFFFFFF0000000000007FFFFF00000000000
310
07FFFF000000000003F8000000000003F000F0000000000003FFFFC00001FFFE
310
00001FFFFF80007FE0000000000007FE0000000000003FF8000001FFFE000000
310
7FFFFFF0001FFFFFFFF0000000000007FFFFF0000000000007FFFF0000000000
310
03F800001F800003F000E00001FFF00001FFFFC00001FFFE00000FFFFF80007F
310
E00001FFE00003FE00001FFF00003FF8000001FFFE0000007FFFFFF0001FFFFF
310
FFE000003E000003FFFFE000003E000003FFFF000000000003F00001FFF80001
310
F000E00007FFFC0001FFFFC00001FFFE00000FFFFF80007FC0000FFFFC0003FC
310
0000FFFFC0001FF8000001FFFE0000007FFFFFF0001FFFFFFFC00003FFE00001
310
FFFFC00003FFE00001FFFF0001FFFFFFFFF00007FFFE0001F000E0000FFFFF00
310
00FFFF800001FFFC00000FFFFF80007FC0001FFFFE0001FC0001FFFFE0001FF8
310
000001FFFE0000007FFFFFF0001FFFFFFF80000FFFF80000FFFF80000FFFF800
310
00FFFF0003FFFFFFFFE0000FFFFF8000F000C0003FFFFF8000FFFF800000FFFC
310
000007FFFF80007F80003FFFFF0001FC0003FFFFF0001FF8000001FFFE000000
310
7FFFFFF0001FFFFFFF80003FFFFE0000FFFF80003FFFFE0000FFFF0003FFFFFF
310
FFE0003FFFFF8000F000C0003FFFFF8000FFFF800000FFFC000007FFFF80007F
310
80007FFFFF8001F80007FFFFF8000FF8000001FFFE0000007FFFFFF0001FFFFF
310
FF00007FFFFF00007FFF00007FFFFF00007FFF0003FFFFFFFFE0003FFFFFC000
310
F000C0007FFFFFC000FFFF000000FFFC000007FFFF80007F8000FFFFFF8000F8
310
000FFFFFF8000FF8000001FFFE0000007FFFFFF0001FFFFFFF0000FFFFFF8000
310
7FFF0000FFFFFF80007FFF0003FFFFFFFFC0007FFFFFC00070008000FFFFFFC0
310
00FFFF000000FFF8000007FFFF80007F8000FFFFFF8000F8000FFFFFF8000FF8
310
000001FFFE0000007FFFFFF0001FFFFFFE0001FFFFFFC0003FFE0001FFFFFFC0
310
003FFF0003FFFFFFFFC0007FFFFFE00070008000FFFFFFC0007FFF0000007FF8
310
000003FFFF80007F0001FFFFFF8000F8000FFFFFF8000FF8000001FFFE000000
310
7FFFFFF0001FFFFFFE0001FFFFFFC0003FFE0001FFFFFFC0003FFF0003FFFFFF
310
FFC000FFFFFFE00070008000FFFFFFC0007FFF0000007FF8000003FFFF80007F
310
0001FFFFFF8000F8001FFFFFF8000FF8000001FFFE0000007FFFFFF0001FFFFF
310
FE0003FFFFFFE0003FFE0003FFFFFFE0003FFF0003FFFFFFFFC000FFFFFFE000
310
70008000FFFFFFC0007FFE0000007FF8000003FFFF80007F0001FFFFFF8000F0
310
001FFFFFF8000FF8000001FFFE0000007FFFFFF0001FFFFFFC0003FFFFFFE000
310
1FFC0003FFFFFFE0001FFF0003FFFFFFFFC000FFFFFFC00070008000FFFFFF80
310
007FFE0000007FF0000003FFFF80007F0001FFFFFF0000F0001FFFFFF8000FF8
310
000001FFFE0000007FFFFFF0001FFFFFFC0007FFFFFFF0001FFC0007FFFFFFF0
310
001FFF0003FFFFFFFFC000FFFFFFC00070008001FFFFFF0000FFFE0000003FF0
310
000001FFFF80007F0001FFFFFF0000F8001FFFFFF0000FF8000001FFFE000000
310
7FFFFFF0001FFFFFFC0007FFFFFFF0001FFC0007FFFFFFF0001FFF0003FFFFFF
310
FFC001FFFFFF80007000FFFFFFFFFE0000FFFE0008003FF0008001FFFF80007F
310
FFFFFFFFFC0000FFFFFFFFFFE0000FF8000001FFFE0000007FFFFFF0001FFFFF
310
F8000FFFFFFFF8000FF8000FFFFFFFF8000FFF0003FFFFFFFFFFFFFFFFFF0000
310
7000FFFFFFFFFC0000FFFC0008003FF0008001FFFF80007FFFFFFFFFF80001FF
310
FFFFFFFF80000FF8000001FFFE0000007FFFFFF0001FFFFFF8000FFFFFFFF800
310
0FF8000FFFFFFFF8000FFF0003FFFFFFFFFFFFFFFFFE0000F000FFFFFFFFE000
310
00FFFC000C003FE000C001FFFF80007FFFFFFFFFC00001FFFFFFFFFE00001FF8
310
000001FFFE0000007FFFFFF0001FFFFFF8000FFFFFFFF8000FF8000FFFFFFFF8
310
000FFF0003FFFFFFFFFFFFFFFFF00000F000FFFFFFFE000001FFFC000C001FE0
310
00C000FFFF80007FFFFFFFFE000001FFFFFFFFE000001FF80FFFFFFFFFFFFFC0
310
7FFFFFF0001FFFFFF8000FFFFFFFF8000FF8000FFFFFFFF8000FFF0003FFFFFF
310
FFFFFFFFFF800000F000FFFFFFC0000001FFFC001C001FE001C000FFFF80007F
310
FFFFFF80000003FFFFFFF80000001FF80FFFFFFFFFFFFFC07FFFFFF0001FFFFF
310
F8001FFFFFFFFC000FF8001FFFFFFFFC000FFF0003FFFFFFFFFFFFFFF0000001
310
F000FFFFF800000001FFF8001C001FE001C000FFFF80007FFFFFF800000003FF
310
FFFF800000003FF80FFFFFFFFFFFFFC07FFFFFF0001FFFFFF8001FFFFFFFFC00
310
0FF8001FFFFFFFFC000FFF0003FFFFFFFFFFFFFE00000001F000FFFFC0000000
310
03FFF8001E001FC001E000FFFF80007FFFFF8000000007FFFFFC000000003FF8
310
0FFFFFFFFFFFFFC07FFFFFF0001FFFFFF8001FFFFFFFFC000FF8001FFFFFFFFC
310
000FFF0003FFFFFFFFFFFFE000000003F000FFFE0000000007FFF8001E000FC0
310
01E0007FFF80007FFFFE0000000007FFFFE0000000007FF80FFFFFFFFFFFFFC0
310
7FFFFFF0001FFFFFF0001FFFFFFFFC0007F0001FFFFFFFFC0007FF0003FFFFFF
310
FFFFFF0000000003F000FFF80000000007FFF8001E000FC003E0007FFF80007F
310
FFF0000000000FFFFF8000000000FFF80FFFFFFFFFFFFFC07FFFFFF0001FFFFF
310
F0001FFFFFFFFC0007F0001FFFFFFFFC0007FF0003FFFFFFFFFFFC0000000007
310
F000FFE0000000000FFFF0003E000FC003E0007FFF80007FFFC0000000001FFF
310
FE0000000001FFF80FFFFFFFFFFFFFC07FFFFFF0001FFFFFF0001FFFFFFFFC00
310
07F0001FFFFFFFFC0007FF0003FFFFFFFFFFF0000000000FF000FFC000000000
310
1FFFF0003F000F8003F0003FFF80007FFF80000000003FFFF80000000003FFF8
310
0FFFFFFFFFFFFFC07FFFFFF0001FFFFFF0001FFFFFFFFC0007F0001FFFFFFFFC
310
0007FF0003FFFFFFFFFFE0000000001FF000FF00000000007FFFF0003F000780
310
03F0003FFF80007FFF00000000007FFFF00000000007FFF80FFFFFFFFFFFFFC0
310
7FFFFFF0001FFFFFF0001FFFFFFFFC0007F0001FFFFFFFFC0007FF0003FFFFFF
310
FFFF80000000007FF000FE0000000000FFFFE0003F00078007F0003FFF80007F
310
FE0000000001FFFFE0000000001FFFF80FFFFFFFFFFFFFC07FFFFFF0001FFFFF
310
F0001FFFFFFFFC0007F0001FFFFFFFFC0007FF0003FFFFFFFFFF0000000000FF
310
F000FC0000000003FFFFE0007F00078007F0003FFF80007FFC0000000007FFFF
310
C0000000007FFFF80FFFFFFFFFFFFFC07FFFFFF0001FFFFFF8001FFFFFFFFC00
310
0FF8001FFFFFFFFC000FFF0003FFFFFFFFFE0000000003FFF000FC000000000F
310
FFFFE0007F80070007F8001FFF80007FF8000000001FFFFF8000000001FFFFF8
310
0FFFFFFFFFFFFFC07FFFFFF0001FFFFFF8001FFFFFFFFC000FF8001FFFFFFFFC
310
000FFF0003FFFFFFFFFC000000000FFFF000F8000000007FFFFFE0007F800700
310
07F8001FFF80007FF000000000FFFFFF800000000FFFFFF80FFFFFFFFFFFFFC0
310
7FFFFFF0001FFFFFF8000FFFFFFFF8000FF8000FFFFFFFF8000FFF0003FFFFFF
310
FFFC000000007FFFF000F800000007FFFFFFC0007F8003000FF8001FFF80007F
310
F000000007FFFFFF000000007FFFFFF80FFFFFFFFFFFFFC07FFFFFF0001FFFFF
310
F8000FFFFFFFF8000FF8000FFFFFFFF8000FFF0003FFFFFFFFF80000000FFFFF
310
F000F0000000FFFFFFFFC000FF8003000FF8001FFF80007FE0000000FFFFFFFF
310
0000000FFFFFFFF8000001FFFE0000007FFFFFF0001FFFFFF8000FFFFFFFF800
310
0FF8000FFFFFFFF8000FFF0003FFFFFFFFF8000000FFFFFFF000F000000FFFFF
310
FFFFC000FFC002000FF8000FFF80007FE000001FFFFFFFFE000001FFFFFFFFF8
310
000001FFFE0000007FFFFFF0001FFFFFF8000FFFFFFFF8000FF8000FFFFFFFF8
310
000FFF0003FFFFFFFFF000001FFFFFFFF000E00000FFFFFFFFFFC000FFC00200
310
0FFC000FFF80007FE00001FFFFFFFFFE00001FFFFFFFFFF8000001FFFE000000
310
7FFFFFF0001FFFFFFC000FFFFFFFF8001FFC000FFFFFFFF8001FFF0003FFFFFF
310
FFF00001FFFFFFFFF000E00007FFFFFFFFFF8000FFC000001FFC000FFF80007F
310
C0000FFFFFFFFFFE0000FFFFFFFFFFF8000001FFFE0000007FFFFFF0001FFFFF
310
FC0007FFFFFFF0001FFC0007FFFFFFF0001FFF0003FFFFFFFFF00007FFFFFFFF
310
F000E0001FFFFFFFFFFF8000FFC000001FFC000FFF80007FC0003FFFFFFFFFFE
310
0001FFFFFFFFFFF8000001FFFE0000007FFFFFF0001FFFFFFC0007FFFFFFF000
310
1FFC0007FFFFFFF0001FFF0003FFFFFFFFF0001FFFFFFFFFF000E0003FFFFF00
310
03FF8001FFE000001FFC0007FF80007FC0007FFFFF0007FC0003FFFFF0003FF8
310
000001FFFE0000007FFFFFF0001FFFFFFC0003FFFFFFE0001FFC0003FFFFFFE0
310
001FFF0003FFFFFFFFF0003FFFFFFFFFF000E0003FFFFF0001FF8001FFE00000
310
1FFE0007FF80007FC0007FFFFE0003FC0007FFFFE0003FF8000001FFFE000000
310
7FFFFFF0001FFFFFFE0003FFFFFFE0003FFE0003FFFFFFE0003FFF0003FFFFFF
310
FFF0003FFFFF8001F000E0003FFFFF0001FF0001FFE000001FFE0007FF80007F
310
C0007FFFFE0003FC0007FFFFE0003FF8000001FFFE0000007FFFFFF0001FFFFF
310
FE0001FFFFFFC0003FFE0001FFFFFFC0003FFF0003FFFFFFFFF0003FFFFF0001
310
F000E0003FFFFF0003FF0001FFE000003FFE0007FF80007FC0007FFFFE0003FC
310
0007FFFFE0003FF8000001FFFE0000007FFFFFF0001FFFFFFF0001FFFFFFC000
310
7FFF0001FFFFFFC0007FFF0003FFFFFFFFF0003FFFFF0001F000E0003FFFFE00
310
03FF0003FFF000003FFE0003FF80007FC0007FFFFC0003FE0007FFFFE0003FF8
310
000001FFFE0000007FFFFFF0001FFFFFFF0000FFFFFF80007FFF0000FFFFFF80
310
007FFF0003FFFFFFFFF0003FFFFF0001F000E0003FFFFE0003FF0003FFF00000
310
3FFF0003FF80007FC0007FFFFC0007FE0007FFFFC0003FF8000001FFFE000000
310
7FFFFFF0001FFFFFFF80007FFFFF0000FFFF80007FFFFF0000FFFF0003FFFFFF
310
FFF0003FFFFF0003F000E0003FFFFC0003FE0003FFF000003FFF0003FF80007F
310
E0003FFFF80007FE0003FFFFC0007FF8000001FFFE0000007FFFFFF0001FFFFF
310
FF80003FFFFE0000FFFF80003FFFFE0000FFFF0003FFFFFFFFF0001FFFFE0003
310
F000F0001FFFF80003FE0003FFF000007FFF0001FF80007FE0003FFFF00007FE
310
0001FFFF80007FF8000001FFFE0000007FFFFFF0001FFFFFFFC0000FFFF80001
310
FFFFC0000FFFF80001FFFF0003FFFFFFFFF0001FFFFC0003F000F0000FFFF000
310
07FE0007FFF800007FFF0001FF80007FE0001FFFE00007FF0000FFFE00007FF8
310
000001FFFE0000007FFFFFF0001FFFFFFFC00003FFE00001FFFFC00003FFE000
310
01FFFF0003FFFFFFFFF8000FFFF80003F000F00003FFC00007FC0007FFF80000
310
7FFF8001FF80007FF00007FF80000FFF00007FF80000FFF8000001FFFE000000
310
7F80000000000001FFE000003E000003FFFFE000003E000003FFFF0003FFFFFF
310
FFF80003FFE00007F000F800000000000FFC0007FFF800007FFF8001FF80007F
310
F000000000000FFF000000000000FFF8000001FFFE0000007F80000000000001
310
FFF0000000000007FFFFF0000000000007FFFF0003FFFFFFFFFC00007E000007
310
F000F800000000000FFC0007FFF80000FFFF8000FF80007FF800000000001FFF
310
800000000001FFF8000001FFFE0000007F80000000000001FFF800000000000F
310
FFFFF800000000000FFFFF0003FFFFFFFFFC00000000000FF000FC0000000000
310
1FFC0007FFFC0000FFFF8000FF80007FF800000000003FFFC00000000001FFF8
310
000001FFFE0000007F80000000000001FFF800000000000FFFFFF80000000000
310
0FFFFF0003FFFFFFFFFE00000000001FF000FE00000000003FF8000FFFFC0000
310
FFFF8000FF80007FFC00000000003FFFC00000000003FFF8000001FFFE000000
310
7F80000000000001FFFC00000000001FFFFFFC00000000001FFFFF0003FFFFFF
310
FFFF00000000001FF000FF00000000003FF8000FFFFC0000FFFFC000FF80007F
310
FE00000000007FFFE00000000007FFF8000001FFFE0000007F80000000000001
310
FFFE00000000003FFFFFFE00000000003FFFFF0003FFFFFFFFFF80000000003F
310
F000FF80000000007FF8000FFFFC0001FFFFC0007F80007FFF0000000000FFFF
310
F0000000000FFFF800000000000000007F80000000000001FFFF8000000000FF
310
FFFFFF8000000000FFFFFF0003FFFFFFFFFFC0000000007FF000FFC000000000
310
FFF8000FFFFE0001FFFFC0007F80007FFF8000000001FFFFF8000000001FFFF8
310
00000000000000007F80000000000001FFFFC000000001FFFFFFFFC000000001
310
FFFFFF0003FFFFFFFFFFE000000000FFF000FFE000000003FFF0001FFFFE0001
310
FFFFC0007F80007FFFC000000007FFFFFE000000003FFFF80000000000000000
310
7F80000000000001FFFFE000000003FFFFFFFFE000000003FFFFFF0003FFFFFF
310
FFFFF000000003FFF000FFF80000000FFFF0001FFFFE0001FFFFE0007F80007F
310
FFF00000000FFFFFFF00000000FFFFF800000000000000007F80000000000001
310
FFFFF80000000FFFFFFFFFF80000000FFFFFFF0003FFFFFFFFFFFC0000000FFF
310
F000FFFE0000003FFFF0001FFFFE0003FFFFE0003F80007FFFFC0000003FFFFF
310
FFC0000003FFFFF800000000000000007F80000000000001FFFFFE0000003FFF
310
FFFFFFFE0000003FFFFFFF0003FFFFFFFFFFFF0000003FFFF000FFFF800000FF
310
FFF0001FFFFF0003FFFFE0003F80007FFFFF000001FFFFFFFFF800001FFFFFF8
310
00000000000000007F80000000000001FFFFFFC00001FFFFFFFFFFFFC00001FF
310
FFFFFF0003FFFFFFFFFFFFC00000FFFFF000FFFFF8000FFFFFFFFFFFFFFFFFFF
310
FFFFFFFFFFFFFFFFFFFFF0001FFFFFFFFFFF0000FFFFFFF80000000000000000
310
7FFFFFFFFFFFFFFFFFFFFFFC001FFFFFFFFFFFFFFC001FFFFFFFFFFFFFFFFFFF
310
FFFFFFFC001FFFFFF000FFFFFFFFFFFFFFFFFFFFFFFFFFFFFFFFFFFFFFFFFFFF
310
FFFFFFFFFFFFFFFFFFFFFFFFFFFFFFFFFFFFFFFFFFFFFFFFFFFFFFFFFFFFFFFF
310
FFFFFFFFFFFFFFFFFFFFFFFFFFFFFFFFFFFFFFFFFFFFFFFFFFFFFFFFFFFFFFFF
310
F000FFFFFFFFFFFFFFFFFFFFFFFFFFFFFFFFFFFFFFFFFFFFFFFFFFFFFFFFFFFF
310
FFFFFFFFFFFFFFFFFFFFFFFFFFFFFFFFFFFFFFFFFFFFFFFFFFFFFFFFFFFFFFFF
310
FFFFFFFFFFFFFFFFFFFFFFFFFFFFFFFFFFFFFFFFFFFFFFFFF000FFFFFFFFFFFF
310
FFFFFFFFFFFFFFFFFFFFFFFFFFFFFFFFFFFFFFFFFFFFFFFFFFFFFFFFFFFFFFFF
310
FFFFFFFFFFFFFFFFFFFFFFFFFFFFFFFFFFFFFFFFFFFFFFFFFFFFFFFFFFFFFFFF
310
FFFFFFFFFFFFFFFFFFFFFFFFFFFFFFFFF000FFFFFFFFFFFFFFFFFFFFFFFFFFFF
310
FFFFFFFFFFFFFFFFFFFFFFFFFFFFFFFFFFFFFFFFFFFFFFFFFFFFFFFFFFFFFFFF
310
FFFFFFFFFFFFFFFFFFFFFFFFFFFFFFFFFFFFFFFFFFFFFFFFFFFFFFFFFFFFFFFF
310
FFFFFFFFFFFFFFFFF000FFFFFFFFFFFFFFFFFFFFFFFFFFFFFFFFFFFFFFFFFFFF
310
FFFFFFFFFFFFFFFFFFFFFFFFFFFFFFFFFFFFFFFFFFFFFFFFFFFFFFFFFFFFFFFF
310
FFFFFFFFFFFFFFFFFFFFFFFFFFFFFFFFFFFFFFFFFFFFFFFFFFFFFFFFFFFFFFFF
310
F000FFFFFFFFFFFFFFFFFFFFFFFFFFFFFFFFFFFFFFFFFFFFFFFFFFFFFFFFFFFF
310
FFFFFFFFFFFFFFFFFFFFFFFFFFFFFFFFFFFFFFFFFFFFFFFFFFFFFFFFFFFFFFFF
310
FFFFFFFFFFFFFFFFFFFFFFFFFFFFFFFFFFFFFFFFFFFFFFFFF000FFFFFFFFFFFF
310
FFFFFFFFFFFFFFFFFFFFFFFFFFFFFFFFFFFFFFFFFFFFFFFFFFFFFFFFFFFFFFFF
310
FFFFFFFFFFFFFFFFFFFFFFFFFFFFFFFFFFFFFFFFFFFFFFFFFFFFFFFFFFFFFFFF
310
FFFFFFFFFFFFFFFFFFFFFFFFFFFFFFFFF000FFFFFFFFFFFFFFFFFFFFFFFFFFFF
310
FFFFFFFFFFFFFFFFFFFFFFFFFFFFFFFFFFFFFFFFFFFFFFFFFFFFFFFFFFFFFFFF
310
FFFFFFFFFFFFFFFFFFFFFFFFFFFFFFFFFFFFFFFFFFFFFFFFFFFFFFFFFFFFFFFF
310
FFFFFFFFFFFFFFFFF000FFFFFFFFFFFFFFFFFFFFFFFFFFFFFFFFFFFFFFFFFFFF
310
FFFFFFFFFFFFFFFFFFFFFFFFFFFFFFFFFFFFFFFFFFFFFFFFFFFFFFFFFFFFFFFF
310
FFFFFFFFFFFFFFFFFFFFFFFFFFFFFFFFFFFFFFFFFFFFFFFFFFFFFFFFFFFFFFFF
310
F000FFFFFFFFFFFFFFFFFFFFFFFFFFFFFFFFFFFFFFFFFFFFFFFFFFFFFFFFFFFF
310
FFFFFFFFFFFFFFFFFFFFFFFFFFFFFFFFFFFFFFFFFFFFFFFFFFFFFFFFFFFFFFFF
310
FFFFFFFFFFFFFFFFFFFFFFFFFFFFFFFFFFFFFFFFFFFFFFFFF000FFFFFFFFFFFF
310
FFFFFFFFFFFFFFFFFFFFFFFFFFFFFFFFFFFFFFFFFFFFFFFFFFFFFFFFFFFFFFFF
310
FFFFFFFFFFFFFFFFFFFFFFFFFFFFFFFFFFFFFFFFFFFFFFFFFFFFFFFFFFFFFFFF
310
FFFFFFFFFFFFFFFFFFFFFFFFFFFFFFFFF000FFFFFFFFFFFFFFFFFFFFFFFFFFFF
310
FFFFFFFFFFFFFFFFFFFFFFFFFFFFFFFFFFFFFFFFFFFFFFFFFFFFFFFFFFFFFFFF
310
FFFFFFFFFFFFFFFFFFFFFFFFFFFFFFFFFFFFFFFFFFFFFFFFFFFFFFFFFFFFFFFF
310
FFFFFFFFFFFFFFFFF000FFFFFFFFFFFFFFFFFFFFFFFFFFFFFFFFFFFFFFFFFFFF
310
FFFFFFFFFFFFFFFFFFFFFFFFFFFFFFFFFFFFFFFFFFFFFFFFFFFFFFFFFFFFFFFF
310
FFFFFFFFFFFFFFFFFFFFFFFFFFFFFFFFFFFFFFFFFFFFFFFFFFFFFFFFFFFFFFFF
310
F000FFFFFFFFFFFFFFFFFFFFFFFFFFFFFFFFFFFFFFFFFFFFFFFFFFFFFFFFFFFF
310
FFFFFFFFFFFFFFFFFFFFFFFFFFFFFFFFFFFFFFFFFFFFFFFFFFFFFFFFFFFFFFFF
310
FFFFFFFFFFFFFFFFFFFFFFFFFFFFFFFFFFFFFFFFFFFFFFFFF000FFFFFFFFFFFF
310
FFFFFFFFFFFFFFFFFFFFFFFFFFFFFFFFFFFFFFFFFFFFFFFFFFFFFFFFFFFFFFFF
310
FFFFFFFFFFFFFFFFFFFFFFFFFFFFFFFFFFFFFFFFFFFFFFFFFFFFFFFFFFFFFFFF
310
FFFFFFFFFFFFFFFFFFFFFFFFFFFFFFFFF000FFFFFFFFFFFFFFFFFFFFFFFFFFFF
310
FFFFFFFFFFFFFFFFFFFFFFFFFFFFFFFFFFFFFFFFFFFFFFFFFFFFFFFFFFFFFFFF
310
FFFFFFFFFFFFFFFFFFFFFFFFFFFFFFFFFFFFFFFFFFFFFFFFFFFFFFFFFFFFFFFF
310
FFFFFFFFFFFFFFFFF000FFFFFFFFFFFFFFFFFFFFFFFFFFFFFFFFFFFFFFFFFFFF
310
FFFFFFFFFFFFFFFFFFFFFFFFFFFFFFFFFFFFFFFFFFFFFFFFFFFFFFFFFFFFFFFF
310
FFFFFFFFFFFFFFFFFFFFFFFFFFFFFFFFFFFFFFFFFFFFFFFFFFFFFFFFFFFFFFFF
310
F000FFFFFFFFFFFFFFFFFFFFFFFFFFFFFFFFFFFFFFFFFFFFFFFFFFFFFFFFFFFF
310
FFFFFFFFFFFFFFFFFFFFFFFFFFFFFFFFFFFFFFFFFFFFFFFFFFFFFFFFFFFFFFFF
310
FFFFFFFFFFFFFFFFFFFFFFFFFFFFFFFFFFFFFFFFFFFFFFFFF000FFFFFFFFFFFF
310
FFFFFFFFFFFFFFFFFFFFFFFFFFFFFFFFFFFFFFFFFFFFFFFFFFFFFFFFFFFFFFFF
310
FFFFFFFFFFFFFFFFFFFFFFFFFFFFFFFFFFFFFFFFFFFFFFFFFFFFFFFFFFFFFFFF
310
FFFFFFFFFFFFFFFFFFFFFFFFFFFFFFFFF000FFFFFFFFFFFFFFFFFFFFFFFFFFFF
310
FFFFFFFFFFFFFFFFFFFFFFFFFFFFFFFFFFFFFFFFFFFFFFFFFFFFFFFFFFFFFFFF
310
FFFFFFFFFFFFFFFFFFFFFFFFFFFFFFFFFFFFFFFFFFFFFFFFFFFFFFFFFFFFFFFF
310
FFFFFFFFFFFFFFFFF000FFFFFFFFFFFFFFFFFFFFFFFFFFFFFFFFFFFFFFFFFFFF
310
FFFFFFFFFFFFFFFFFFFFFFFFFFFFFFFFFFFFFFFFFFFFFFFFFFFFFFFFFFFFFFFF
310
FFFFFFFFFFFFFFFFFFFFFFFFFFFFFFFFFFFFFFFFFFFFFFFFFFFFFFFFFFFFFFFF
310
F000FFFFFFFFFFFFFFFFFFFFFFFFFFFFFFFFFFFFFFFFFFFFFFFFFFFFFFFFFFFF
310
FFFFFFFFFFFFFFFFFFFFFFFFFFFFFFFFFFFFFFFFFFFFFFFFFFFFFFFFFFFFFFFF
310
FFFFFFFFFFFFFFFFFFFFFFFFFFFFFFFFFFFFFFFFFFFFFFFFF000FFFFFFFFFFFF
310
FFFFFFFFFFFFFFFFFFFFFFFFFFFFFFFFFFFFFFFFFFFFFFFFFFFFFFFFFFFFFFFF
310
FFFFFFFFFFFFFFFFFFFFFFFFFFFFFFFFFFFFFFFFFFFFFFFFFFFFFFFFFFFFFFFF
310
FFFFFFFFFFFFFFFFFFFFFFFFFFFFFFFFF0000000000000000000000000000000
310
0000000001000000010000000100000001000000010000000000000001000000
310
0100000001000000010000000100000001000000010000000100000001000000
310
0100000001000000010000000100000001000000010000000100000000000000
310
0100000001000000010000000100000001000000010000000100000001000000
310
0100000001000000010000000100000001000000010000000100000001000000
310
0000000001000000010000000100000001000000010000000100000001000000
310
0100000001000000010000000100000001000000010000000100000001000000
310
0100000000000000010000000100000001000000010000000100000001000000
310
0100000001000000010000000000000001000000000000000100000000000000
310
0100000000000000010000000000000001000000000000000100000000000000
310
0100000000000000010000000000000001000000000000000100000000000000
310
0100000000000000010000000000000001000000000000000100000000000000
310
0100000000000000010000000000000001000000000000000100000001000000
310
0100000001000000010000000100000000000000010000000100000001000000
310
0100000001000000010000000100000001000000010000000100000001000000
  1
OLE
  0
ENDSEC
  0
SECTION
  2
OBJECTS
  0
DICTIONARY
  5
C
330
0
100
AcDbDictionary
281
     1
  3
ACAD_GROUP
350
D
  3
ACAD_LAYOUT
350
1A
  3
ACAD_MLEADERSTYLE
350
210
  3
ACAD_MLINESTYLE
350
17
  3
ACAD_PLOTSETTINGS
350
19
  3
ACAD_PLOTSTYLENAME
350
E
  3
ACAD_TABLESTYLE
350
20F
  3
ACAD_VISUALSTYLE
350
2A
  3
AcDbVariableDictionary
350
211
  0
DICTIONARY
  5
D
102
{ACAD_REACTORS
330
C
102
}
330
C
100
AcDbDictionary
281
     1
  0
DICTIONARY
  5
1A
102
{ACAD_REACTORS
330
C
102
}
330
C
100
AcDbDictionary
281
     1
  3
Layout1
350
1E
  3
Layout2
350
26
  3
Model
350
22
  0
DICTIONARY
  5
210
102
{ACAD_REACTORS
330
C
102
}
330
C
100
AcDbDictionary
281
     1
  0
DICTIONARY
  5
17
102
{ACAD_REACTORS
330
C
102
}
330
C
100
AcDbDictionary
281
     1
  3
Standard
350
18
  0
DICTIONARY
  5
19
102
{ACAD_REACTORS
330
C
102
}
330
C
100
AcDbDictionary
281
     1
  0
ACDBDICTIONARYWDFLT
  5
E
102
{ACAD_REACTORS
330
C
102
}
330
C
100
AcDbDictionary
281
     1
  3
Normal
350
F
100
AcDbDictionaryWithDefault
340
F
  0
DICTIONARY
  5
20F
102
{ACAD_REACTORS
330
C
102
}
330
C
100
AcDbDictionary
281
     1
  0
DICTIONARY
  5
2A
102
{ACAD_REACTORS
330
C
102
}
330
C
100
AcDbDictionary
281
     1
  3
2dWireframe
350
2F
  3
3D Hidden
350
31
  3
3dWireframe
350
30
  3
Basic
350
32
  3
Brighten
350
36
  3
ColorChange
350
3A
  3
Conceptual
350
34
  3
Dim
350
35
  3
Facepattern
350
39
  3
Flat
350
2B
  3
FlatWithEdges
350
2C
  3
Gouraud
350
2D
  3
GouraudWithEdges
350
2E
  3
Linepattern
350
38
  3
Realistic
350
33
  3
Thicken
350
37
  0
DICTIONARY
  5
211
102
{ACAD_REACTORS
330
C
102
}
330
C
100
AcDbDictionary
281
     1
  3
PSOLHEIGHT
350
213
  3
PSOLWIDTH
350
212
  0
LAYOUT
  5
1E
102
{ACAD_REACTORS
330
1A
102
}
330
1A
100
AcDbPlotSettings
  1

  2
none_device
  4

  6

 40
0.0
 41
0.0
 42
0.0
 43
0.0
 44
0.0
 45
0.0
 46
0.0
 47
0.0
 48
0.0
 49
0.0
140
0.0
141
0.0
142
1.0
143
1.0
 70
   688
 72
     0
 73
     0
 74
     5
  7

 75
    16
147
1.0
148
0.0
149
0.0
100
AcDbLayout
  1
Layout1
 70
     1
 71
     1
 10
0.0
 20
0.0
 11
420.0
 21
297.0
 12
0.0
 22
0.0
 32
0.0
 14
1.0000000000E+20
 24
1.0000000000E+20
 34
1.0000000000E+20
 15
-1.0000000000E+20
 25
-1.0000000000E+20
 35
-1.0000000000E+20
146
0.0
 13
0.0
 23
0.0
 33
0.0
 16
1.0
 26
0.0
 36
0.0
 17
0.0
 27
1.0
 37
0.0
 76
     0
330
1B
  0
LAYOUT
  5
26
102
{ACAD_REACTORS
330
1A
102
}
330
1A
100
AcDbPlotSettings
  1

  2
none_device
  4

  6

 40
0.0
 41
0.0
 42
0.0
 43
0.0
 44
0.0
 45
0.0
 46
0.0
 47
0.0
 48
0.0
 49
0.0
140
0.0
141
0.0
142
1.0
143
1.0
 70
   688
 72
     0
 73
     0
 74
     5
  7

 75
    16
147
1.0
148
0.0
149
0.0
100
AcDbLayout
  1
Layout2
 70
     1
 71
     2
 10
0.0
 20
0.0
 11
0.0
 21
0.0
 12
0.0
 22
0.0
 32
0.0
 14
0.0
 24
0.0
 34
0.0
 15
0.0
 25
0.0
 35
0.0
146
0.0
 13
0.0
 23
0.0
 33
0.0
 16
1.0
 26
0.0
 36
0.0
 17
0.0
 27
1.0
 37
0.0
 76
     0
330
23
  0
LAYOUT
  5
22
102
{ACAD_REACTORS
330
1A
102
}
330
1A
100
AcDbPlotSettings
  1

  2
none_device
  4

  6

 40
0.0
 41
0.0
 42
0.0
 43
0.0
 44
0.0
 45
0.0
 46
0.0
 47
0.0
 48
0.0
 49
0.0
140
0.0
141
0.0
142
1.0
143
1.0
 70
  1712
 72
     0
 73
     0
 74
     0
  7

 75
     0
147
1.0
148
0.0
149
0.0
100
AcDbLayout
  1
Model
 70
     1
 71
     0
 10
0.0
 20
0.0
 11
297.0
 21
210.0
 12
0.0
 22
0.0
 32
0.0
 14
0.0
 24
0.0
 34
0.0
 15
297.0
 25
210.0
 35
0.0
146
0.0
 13
0.0
 23
0.0
 33
0.0
 16
1.0
 26
0.0
 36
0.0
 17
0.0
 27
1.0
 37
0.0
 76
     0
330
1F
331
29
  0
MLINESTYLE
  5
18
102
{ACAD_REACTORS
330
17
102
}
330
17
100
AcDbMlineStyle
  2
Standard
 70
     0
  3

 62
   256
 51
90.0
 52
90.0
 71
     2
 49
0.5
 62
   256
  6
BYLAYER
 49
-0.5
 62
   256
  6
BYLAYER
  0
ACDBPLACEHOLDER
  5
F
102
{ACAD_REACTORS
330
E
102
}
330
E
  0
VISUALSTYLE
  5
2F
102
{ACAD_REACTORS
330
2A
102
}
330
2A
100
AcDbVisualStyle
  2
2dWireframe
 70
     4
 71
     0
 72
     2
 73
     0
 90
        0
 40
-0.6
 41
-30.0
 62
     5
 63
     7
 74
     1
 91
        4
 64
     7
 65
   257
 75
     1
175
     1
 42
1.0
 92
        0
 66
   257
 43
1.0
 76
     1
 77
     6
 78
     2
 67
     7
 79
     5
170
     0
171
     0
290
     0
174
     0
 93
        1
 44
0.0
173
     0
291
     0
 45
0.0
1001
ACAD
1000
AcDbSavedByObjectVersion
1070
     0
  0
VISUALSTYLE
  5
31
102
{ACAD_REACTORS
330
2A
102
}
330
2A
100
AcDbVisualStyle
  2
3D Hidden
 70
     6
 71
     1
 72
     2
 73
     2
 90
        0
 40
-0.6
 41
-30.0
 62
     5
 63
     7
 74
     2
 91
        2
 64
     7
 65
   257
 75
     2
175
     1
 42
40.0
 92
        0
 66
   257
 43
1.0
 76
     1
 77
     6
 78
     2
 67
     7
 79
     3
170
     0
171
     0
290
     0
174
     0
 93
        1
 44
0.0
173
     0
291
     0
 45
0.0
1001
ACAD
1000
AcDbSavedByObjectVersion
1070
     0
  0
VISUALSTYLE
  5
30
102
{ACAD_REACTORS
330
2A
102
}
330
2A
100
AcDbVisualStyle
  2
3dWireframe
 70
     5
 71
     0
 72
     2
 73
     0
 90
        0
 40
-0.6
 41
-30.0
 62
     5
 63
     7
 74
     1
 91
        4
 64
     7
 65
   257
 75
     1
175
     1
 42
1.0
 92
        0
 66
   257
 43
1.0
 76
     1
 77
     6
 78
     2
 67
     7
 79
     5
170
     0
171
     0
290
     0
174
     0
 93
        1
 44
0.0
173
     0
291
     0
 45
0.0
1001
ACAD
1000
AcDbSavedByObjectVersion
1070
     0
  0
VISUALSTYLE
  5
32
102
{ACAD_REACTORS
330
2A
102
}
330
2A
100
AcDbVisualStyle
  2
Basic
 70
     7
 71
     1
 72
     0
 73
     1
 90
        0
 40
-0.6
 41
-30.0
 62
     5
 63
     7
 74
     0
 91
        4
 64
     7
 65
   257
 75
     1
175
     1
 42
1.0
 92
        8
 66
     7
 43
1.0
 76
     1
 77
     6
 78
     2
 67
     7
 79
     5
170
     0
171
     0
290
     0
174
     0
 93
        1
 44
0.0
173
     0
291
     1
 45
0.0
1001
ACAD
1000
AcDbSavedByObjectVersion
1070
     0
  0
VISUALSTYLE
  5
36
102
{ACAD_REACTORS
330
2A
102
}
330
2A
100
AcDbVisualStyle
  2
Brighten
 70
    12
 71
     2
 72
     2
 73
     0
 90
        0
 40
-0.6
 41
-30.0
 62
     5
 63
     7
 74
     1
 91
        4
 64
     7
 65
   257
 75
     1
175
     1
 42
1.0
 92
        8
 66
     7
 43
1.0
 76
     1
 77
     6
 78
     2
 67
     7
 79
     5
170
     0
171
     0
290
     0
174
     0
 93
        1
 44
50.0
173
     0
291
     1
 45
0.0
1001
ACAD
1000
AcDbSavedByObjectVersion
1070
     0
  0
VISUALSTYLE
  5
3A
102
{ACAD_REACTORS
330
2A
102
}
330
2A
100
AcDbVisualStyle
  2
ColorChange
 70
    16
 71
     2
 72
     2
 73
     3
 90
        0
 40
-0.6
 41
-30.0
 62
     5
 63
     8
 74
     1
 91
        4
 64
     7
 65
   257
 75
     1
175
     1
 42
1.0
 92
        8
 66
     8
 43
1.0
 76
     1
 77
     6
 78
     2
 67
     7
 79
     5
170
     0
171
     0
290
     0
174
     0
 93
        1
 44
0.0
173
     0
291
     1
 45
0.0
1001
ACAD
1000
AcDbSavedByObjectVersion
1070
     0
  0
VISUALSTYLE
  5
34
102
{ACAD_REACTORS
330
2A
102
}
330
2A
100
AcDbVisualStyle
  2
Conceptual
 70
     9
 71
     3
 72
     2
 73
     0
 90
        0
 40
-0.6
 41
-30.0
 62
     5
 63
     7
 74
     2
 91
        2
 64
     7
 65
   257
 75
     1
175
     1
 42
40.0
 92
        8
 66
     7
 43
1.0
 76
     1
 77
     6
 78
     2
 67
     7
 79
     3
170
     0
171
     0
290
     0
174
     0
 93
        1
 44
0.0
173
     0
291
     0
 45
0.0
1001
ACAD
1000
AcDbSavedByObjectVersion
1070
     0
  0
VISUALSTYLE
  5
35
102
{ACAD_REACTORS
330
2A
102
}
330
2A
100
AcDbVisualStyle
  2
Dim
 70
    11
 71
     2
 72
     2
 73
     0
 90
        0
 40
-0.6
 41
-30.0
 62
     5
 63
     7
 74
     1
 91
        4
 64
     7
 65
   257
 75
     1
175
     1
 42
1.0
 92
        8
 66
     7
 43
1.0
 76
     1
 77
     6
 78
     2
 67
     7
 79
     5
170
     0
171
     0
290
     0
174
     0
 93
        1
 44
-50.0
173
     0
291
     1
 45
0.0
1001
ACAD
1000
AcDbSavedByObjectVersion
1070
     0
  0
VISUALSTYLE
  5
39
102
{ACAD_REACTORS
330
2A
102
}
330
2A
100
AcDbVisualStyle
  2
Facepattern
 70
    15
 71
     2
 72
     2
 73
     0
 90
        0
 40
-0.6
 41
-30.0
 62
     5
 63
     7
 74
     1
 91
        4
 64
     7
 65
   257
 75
     1
175
     1
 42
1.0
 92
        8
 66
     7
 43
1.0
 76
     1
 77
     6
 78
     2
 67
     7
 79
     5
170
     0
171
     0
290
     0
174
     0
 93
        1
 44
0.0
173
     0
291
     1
 45
0.0
1001
ACAD
1000
AcDbSavedByObjectVersion
1070
     0
  0
VISUALSTYLE
  5
2B
102
{ACAD_REACTORS
330
2A
102
}
330
2A
100
AcDbVisualStyle
  2
Flat
 70
     0
 71
     2
 72
     1
 73
     1
 90
        2
 40
-0.6
 41
30.0
 62
     5
 63
     7
 74
     0
 91
        4
 64
     7
 65
   257
 75
     1
175
     1
 42
1.0
 92
        8
 66
     7
 43
1.0
 76
     1
 77
     6
 78
     2
 67
     7
 79
     5
170
     0
171
     0
290
     0
174
     0
 93
       13
 44
0.0
173
     0
291
     1
 45
0.0
1001
ACAD
1000
AcDbSavedByObjectVersion
1070
     0
  0
VISUALSTYLE
  5
2C
102
{ACAD_REACTORS
330
2A
102
}
330
2A
100
AcDbVisualStyle
  2
FlatWithEdges
 70
     1
 71
     2
 72
     1
 73
     1
 90
        2
 40
-0.6
 41
30.0
 62
     5
 63
     7
 74
     1
 91
        4
 64
     7
 65
   257
 75
     1
175
     1
 42
1.0
 92
        0
 66
   257
 43
1.0
 76
     1
 77
     6
 78
     2
 67
     7
 79
     5
170
     0
171
     0
290
     0
174
     0
 93
       13
 44
0.0
173
     0
291
     1
 45
0.0
1001
ACAD
1000
AcDbSavedByObjectVersion
1070
     0
  0
VISUALSTYLE
  5
2D
102
{ACAD_REACTORS
330
2A
102
}
330
2A
100
AcDbVisualStyle
  2
Gouraud
 70
     2
 71
     2
 72
     2
 73
     1
 90
        2
 40
-0.6
 41
30.0
 62
     5
 63
     7
 74
     0
 91
        4
 64
     7
 65
   257
 75
     1
175
     1
 42
1.0
 92
        0
 66
     7
 43
1.0
 76
     1
 77
     6
 78
     2
 67
     7
 79
     5
170
     0
171
     0
290
     0
174
     0
 93
       13
 44
0.0
173
     0
291
     1
 45
0.0
1001
ACAD
1000
AcDbSavedByObjectVersion
1070
     0
  0
VISUALSTYLE
  5
2E
102
{ACAD_REACTORS
330
2A
102
}
330
2A
100
AcDbVisualStyle
  2
GouraudWithEdges
 70
     3
 71
     2
 72
     2
 73
     1
 90
        2
 40
-0.6
 41
30.0
 62
     5
 63
     7
 74
     1
 91
        4
 64
     7
 65
   257
 75
     1
175
     1
 42
1.0
 92
        0
 66
   257
 43
1.0
 76
     1
 77
     6
 78
     2
 67
     7
 79
     5
170
     0
171
     0
290
     0
174
     0
 93
       13
 44
0.0
173
     0
291
     1
 45
0.0
1001
ACAD
1000
AcDbSavedByObjectVersion
1070
     0
  0
VISUALSTYLE
  5
38
102
{ACAD_REACTORS
330
2A
102
}
330
2A
100
AcDbVisualStyle
  2
Linepattern
 70
    14
 71
     2
 72
     2
 73
     0
 90
        0
 40
-0.6
 41
-30.0
 62
     5
 63
     7
 74
     1
 91
        4
 64
     7
 65
   257
 75
     7
175
     7
 42
1.0
 92
        8
 66
     7
 43
1.0
 76
     1
 77
     6
 78
     2
 67
     7
 79
     5
170
     0
171
     0
290
     0
174
     0
 93
        1
 44
0.0
173
     0
291
     1
 45
0.0
1001
ACAD
1000
AcDbSavedByObjectVersion
1070
     0
  0
VISUALSTYLE
  5
33
102
{ACAD_REACTORS
330
2A
102
}
330
2A
100
AcDbVisualStyle
  2
Realistic
 70
     8
 71
     2
 72
     2
 73
     0
 90
        0
 40
-0.6
 41
-30.0
 62
     5
 63
     7
 74
     1
 91
        0
 64
     7
 65
   257
 75
     1
175
     1
 42
1.0
 92
        8
 66
     8
 43
1.0
 76
     1
 77
     6
 78
     2
 67
     7
 79
     5
170
     0
171
     0
290
     0
174
     0
 93
       13
 44
0.0
173
     0
291
     0
 45
0.0
1001
ACAD
1000
AcDbSavedByObjectVersion
1070
     0
  0
VISUALSTYLE
  5
37
102
{ACAD_REACTORS
330
2A
102
}
330
2A
100
AcDbVisualStyle
  2
Thicken
 70
    13
 71
     2
 72
     2
 73
     0
 90
        0
 40
-0.6
 41
-30.0
 62
     5
 63
     7
 74
     1
 91
        4
 64
     7
 65
   257
 75
     1
175
     1
 42
1.0
 92
       12
 66
     7
 43
1.0
 76
     1
 77
     6
 78
     2
 67
     7
 79
     5
170
     0
171
     0
290
     0
174
     0
 93
        1
 44
0.0
173
     0
291
     1
 45
0.0
1001
ACAD
1000
AcDbSavedByObjectVersion
1070
     0
  0
DICTIONARYVAR
  5
213
102
{ACAD_REACTORS
330
211
102
}
330
211
100
DictionaryVariables
280
     0
  1
80.000000
  0
DICTIONARYVAR
  5
212
102
{ACAD_REACTORS
330
211
102
}
330
211
100
DictionaryVariables
280
     0
  1
5.000000
  0
ENDSEC
  0
EOF
