  0
SECTION
  2
HEADER
  9
$ACADVER
  1
AC1015
  9
$ACADMAINTVER
 70
     6
  9
$DWGCODEPAGE
  3
ANSI_1252
  9
$INSBASE
 10
0.0
 20
0.0
 30
0.0
  9
$EXTMIN
 10
0.0
 20
0.0
 30
0.0
  9
$EXTMAX
 10
297.0
 20
210.0
 30
0.0
  9
$LIMMIN
 10
0.0
 20
0.0
  9
$LIMMAX
 10
297.0
 20
210.0
  9
$ORTHOMODE
 70
     0
  9
$REGENMODE
 70
     1
  9
$FILLMODE
 70
     1
  9
$QTEXTMODE
 70
     0
  9
$MIRRTEXT
 70
     1
  9
$LTSCALE
 40
1.0
  9
$ATTMODE
 70
     1
  9
$TEXTSIZE
 40
2.0
  9
$TRACEWID
 40
1.0
  9
$TEXTSTYLE
  7
Standard
  9
$CLAYER
  8
0
  9
$CELTYPE
  6
ByLayer
  9
$CECOLOR
 62
   256
  9
$CELTSCALE
 40
1.0
  9
$DISPSILH
 70
     0
  9
$DIMSCALE
 40
1.0
  9
$DIMASZ
 40
3.0
  9
$DIMEXO
 40
0.0
  9
$DIMDLI
 40
3.75
  9
$DIMRND
 40
0.0
  9
$DIMDLE
 40
0.0
  9
$DIMEXE
 40
1.0
  9
$DIMTP
 40
0.0
  9
$DIMTM
 40
0.0
  9
$DIMTXT
 40
2.0
  9
$DIMCEN
 40
2.5
  9
$DIMTSZ
 40
0.0
  9
$DIMTOL
 70
     0
  9
$DIMLIM
 70
     0
  9
$DIMTIH
 70
     1
  9
$DIMTOH
 70
     1
  9
$DIMSE1
 70
     0
  9
$DIMSE2
 70
     0
  9
$DIMTAD
 70
     1
  9
$DIMZIN
 70
     0
  9
$DIMBLK
  1

  9
$DIMASO
 70
     1
  9
$DIMSHO
 70
     1
  9
$DIMPOST
  1

  9
$DIMAPOST
  1

  9
$DIMALT
 70
     0
  9
$DIMALTD
 70
     3
  9
$DIMALTF
 40
0.0393700787
  9
$DIMLFAC
 40
1.0
  9
$DIMTOFL
 70
     1
  9
$DIMTVP
 40
0.0
  9
$DIMTIX
 70
     0
  9
$DIMSOXD
 70
     0
  9
$DIMSAH
 70
     0
  9
$DIMBLK1
  1

  9
$DIMBLK2
  1

  9
$DIMSTYLE
  2
ISO-25
  9
$DIMCLRD
 70
     0
  9
$DIMCLRE
 70
     0
  9
$DIMCLRT
 70
     0
  9
$DIMTFAC
 40
1.0
  9
$DIMGAP
 40
1.524
  9
$DIMJUST
 70
     0
  9
$DIMSD1
 70
     0
  9
$DIMSD2
 70
     0
  9
$DIMTOLJ
 70
     0
  9
$DIMTZIN
 70
     0
  9
$DIMALTZ
 70
     0
  9
$DIMALTTZ
 70
     0
  9
$DIMUPT
 70
     0
  9
$DIMDEC
 70
     2
  9
$DIMTDEC
 70
     3
  9
$DIMALTU
 70
     2
  9
$DIMALTTD
 70
     3
  9
$DIMTXSTY
  7
Standard
  9
$DIMAUNIT
 70
     0
  9
$DIMADEC
 70
     2
  9
$DIMALTRND
 40
0.0
  9
$DIMAZIN
 70
     0
  9
$DIMDSEP
 70
    44
  9
$DIMATFIT
 70
     3
  9
$DIMFRAC
 70
     0
  9
$DIMLDRBLK
  1

  9
$DIMLUNIT
 70
     2
  9
$DIMLWD
 70
    -2
  9
$DIMLWE
 70
    -2
  9
$DIMTMOVE
 70
     0
  9
$LUNITS
 70
     2
  9
$LUPREC
 70
     2
  9
$SKETCHINC
 40
1.0
  9
$FILLETRAD
 40
10.0
  9
$AUNITS
 70
     0
  9
$AUPREC
 70
     2
  9
$MENU
  1
.
  9
$ELEVATION
 40
0.0
  9
$PELEVATION
 40
0.0
  9
$THICKNESS
 40
0.0
  9
$LIMCHECK
 70
     0
  9
$CHAMFERA
 40
10.0
  9
$CHAMFERB
 40
10.0
  9
$CHAMFERC
 40
20.0
  9
$CHAMFERD
 40
0.0
  9
$SKPOLY
 70
     0
  9
$TDCREATE
 40
2455673.418757431
  9
$TDUCREATE
 40
2455673.335424097
  9
$TDUPDATE
 40
2455673.418757442
  9
$TDUUPDATE
 40
2455673.335424109
  9
$TDINDWG
 40
0.0000000116
  9
$TDUSRTIMER
 40
0.0000000116
  9
$USRTIMER
 70
     1
  9
$ANGBASE
 50
0.0
  9
$ANGDIR
 70
     0
  9
$PDMODE
 70
     0
  9
$PDSIZE
 40
-1.0
  9
$PLINEWID
 40
0.0
  9
$SPLFRAME
 70
     0
  9
$SPLINETYPE
 70
     6
  9
$SPLINESEGS
 70
     8
  9
$HANDSEED
  5
237
  9
$SURFTAB1
 70
     6
  9
$SURFTAB2
 70
     6
  9
$SURFTYPE
 70
     6
  9
$SURFU
 70
     6
  9
$SURFV
 70
     6
  9
$UCSBASE
  2

  9
$UCSNAME
  2

  9
$UCSORG
 10
0.0
 20
0.0
 30
0.0
  9
$UCSXDIR
 10
1.0
 20
0.0
 30
0.0
  9
$UCSYDIR
 10
0.0
 20
1.0
 30
0.0
  9
$UCSORTHOREF
  2

  9
$UCSORTHOVIEW
 70
     0
  9
$UCSORGTOP
 10
0.0
 20
0.0
 30
0.0
  9
$UCSORGBOTTOM
 10
0.0
 20
0.0
 30
0.0
  9
$UCSORGLEFT
 10
0.0
 20
0.0
 30
0.0
  9
$UCSORGRIGHT
 10
0.0
 20
0.0
 30
0.0
  9
$UCSORGFRONT
 10
0.0
 20
0.0
 30
0.0
  9
$UCSORGBACK
 10
0.0
 20
0.0
 30
0.0
  9
$PUCSBASE
  2

  9
$PUCSNAME
  2

  9
$PUCSORG
 10
0.0
 20
0.0
 30
0.0
  9
$PUCSXDIR
 10
1.0
 20
0.0
 30
0.0
  9
$PUCSYDIR
 10
0.0
 20
1.0
 30
0.0
  9
$PUCSORTHOREF
  2

  9
$PUCSORTHOVIEW
 70
     0
  9
$PUCSORGTOP
 10
0.0
 20
0.0
 30
0.0
  9
$PUCSORGBOTTOM
 10
0.0
 20
0.0
 30
0.0
  9
$PUCSORGLEFT
 10
0.0
 20
0.0
 30
0.0
  9
$PUCSORGRIGHT
 10
0.0
 20
0.0
 30
0.0
  9
$PUCSORGFRONT
 10
0.0
 20
0.0
 30
0.0
  9
$PUCSORGBACK
 10
0.0
 20
0.0
 30
0.0
  9
$USERI1
 70
     0
  9
$USERI2
 70
     0
  9
$USERI3
 70
     0
  9
$USERI4
 70
     0
  9
$USERI5
 70
     0
  9
$USERR1
 40
0.0
  9
$USERR2
 40
0.0
  9
$USERR3
 40
0.0
  9
$USERR4
 40
0.0
  9
$USERR5
 40
0.0
  9
$WORLDVIEW
 70
     1
  9
$SHADEDGE
 70
     3
  9
$SHADEDIF
 70
    70
  9
$TILEMODE
 70
     1
  9
$MAXACTVP
 70
    64
  9
$PINSBASE
 10
0.0
 20
0.0
 30
0.0
  9
$PLIMCHECK
 70
     0
  9
$PEXTMIN
 10
1.0000000000E+20
 20
1.0000000000E+20
 30
1.0000000000E+20
  9
$PEXTMAX
 10
-1.0000000000E+20
 20
-1.0000000000E+20
 30
-1.0000000000E+20
  9
$PLIMMIN
 10
0.0
 20
0.0
  9
$PLIMMAX
 10
420.0
 20
297.0
  9
$UNITMODE
 70
     0
  9
$VISRETAIN
 70
     1
  9
$PLINEGEN
 70
     0
  9
$PSLTSCALE
 70
     1
  9
$TREEDEPTH
 70
  3020
  9
$CMLSTYLE
  2
Standard
  9
$CMLJUST
 70
     0
  9
$CMLSCALE
 40
20.0
  9
$PROXYGRAPHICS
 70
     1
  9
$MEASUREMENT
 70
     1
  9
$CELWEIGHT
370
    -1
  9
$ENDCAPS
280
     0
  9
$JOINSTYLE
280
     0
  9
$LWDISPLAY
290
     1
  9
$INSUNITS
 70
     4
  9
$HYPERLINKBASE
  1

  9
$STYLESHEET
  1

  9
$XEDIT
290
     1
  9
$CEPSNTYPE
380
     0
  9
$PSTYLEMODE
290
     1
  9
$FINGERPRINTGUID
  2
{64741FAD-8F80-4531-91FC-9A288B19139B}
  9
$VERSIONGUID
  2
{FAEB1C32-E019-11D5-929B-00C0DF256EC4}
  9
$EXTNAMES
290
     1
  9
$PSVPSCALE
 40
0.0
  9
$OLESTARTUP
290
     0
  0
ENDSEC
  0
SECTION
  2
CLASSES
  0
CLASS
  1
ACDBDICTIONARYWDFLT
  2
AcDbDictionaryWithDefault
  3
ObjectDBX Classes
 90
        0
280
     0
281
     0
  0
CLASS
  1
VISUALSTYLE
  2
AcDbVisualStyle
  3
ObjectDBX Classes
 90
     4095
280
     0
281
     0
  0
CLASS
  1
DICTIONARYVAR
  2
AcDbDictionaryVar
  3
ObjectDBX Classes
 90
        0
280
     0
281
     0
  0
CLASS
  1
ACDBPLACEHOLDER
  2
AcDbPlaceHolder
  3
ObjectDBX Classes
 90
        0
280
     0
281
     0
  0
CLASS
  1
LAYOUT
  2
AcDbLayout
  3
ObjectDBX Classes
 90
        0
280
     0
281
     0
  0
ENDSEC
  0
SECTION
  2
TABLES
  0
TABLE
  2
VPORT
  5
8
330
0
100
AcDbSymbolTable
 70
     1
  0
VPORT
  5
29
330
8
100
AcDbSymbolTableRecord
100
AcDbViewportTableRecord
  2
*Active
 70
     0
 10
0.0
 20
0.0
 11
1.0
 21
1.0
 12
148.5
 22
105.0
 13
0.0
 23
0.0
 14
10.0
 24
10.0
 15
10.0
 25
10.0
 16
0.0
 26
0.0
 36
1.0
 17
0.0
 27
0.0
 37
0.0
 40
210.0
 41
1.4142857143
 42
50.0
 43
0.0
 44
0.0
 50
0.0
 51
0.0
 71
     0
 72
  2000
 73
     1
 74
     3
 75
     0
 76
     0
 77
     0
 78
     0
281
     0
 65
     1
110
0.0
120
0.0
130
0.0
111
1.0
121
0.0
131
0.0
112
0.0
122
1.0
132
0.0
 79
     0
146
0.0
  0
ENDTAB
  0
TABLE
  2
LTYPE
  5
5
330
0
100
AcDbSymbolTable
 70
     6
  0
LTYPE
  5
14
330
5
100
AcDbSymbolTableRecord
100
AcDbLinetypeTableRecord
  2
ByBlock
 70
     0
  3

 72
    65
 73
     0
 40
0.0
  0
LTYPE
  5
15
330
5
100
AcDbSymbolTableRecord
100
AcDbLinetypeTableRecord
  2
ByLayer
 70
     0
  3

 72
    65
 73
     0
 40
0.0
  0
LTYPE
  5
16
330
5
100
AcDbSymbolTableRecord
100
AcDbLinetypeTableRecord
  2
Continuous
 70
     0
  3
Solid line
 72
    65
 73
     0
 40
0.0
  0
LTYPE
  5
3B
330
5
100
AcDbSymbolTableRecord
100
AcDbLinetypeTableRecord
  2
HIDDEN
 70
     0
  3
Hidden __ __ __ __ __ __ __ __ __ __ __ __ __ __
 72
    65
 73
     2
 40
1.905
 49
1.27
 74
     0
 49
-0.635
 74
     0
  0
LTYPE
  5
3C
330
5
100
AcDbSymbolTableRecord
100
AcDbLinetypeTableRecord
  2
PHANTOM
 70
     0
  3
Phantom ______  __  __  ______  __  __  ______
 72
    65
 73
     6
 40
12.7
 49
6.35
 74
     0
 49
-1.27
 74
     0
 49
1.27
 74
     0
 49
-1.27
 74
     0
 49
1.27
 74
     0
 49
-1.27
 74
     0
  0
LTYPE
  5
3D
330
5
100
AcDbSymbolTableRecord
100
AcDbLinetypeTableRecord
  2
CENTER
 70
     0
  3
Center ____ _ ____ _ ____ _ ____ _ ____ _ ____
 72
    65
 73
     4
 40
10.16
 49
6.35
 74
     0
 49
-1.27
 74
     0
 49
1.27
 74
     0
 49
-1.27
 74
     0
  0
LTYPE
  5
3E
330
5
100
AcDbSymbolTableRecord
100
AcDbLinetypeTableRecord
  2
CENTERX2
 70
     0
  3
Center (2x) ________  __  ________  __  _____
 72
    65
 73
     4
 40
20.32
 49
12.7
 74
     0
 49
-2.54
 74
     0
 49
2.54
 74
     0
 49
-2.54
 74
     0
  0
LTYPE
  5
3F
330
5
100
AcDbSymbolTableRecord
100
AcDbLinetypeTableRecord
  2
DOT2
 70
     0
  3
Dot (.5x) ........................................
 72
    65
 73
     2
 40
0.635
 49
0.0
 74
     0
 49
-0.635
 74
     0
  0
ENDTAB
  0
TABLE
  2
LAYER
  5
2
330
0
100
AcDbSymbolTable
 70
     5
  0
LAYER
  5
10
330
2
100
AcDbSymbolTableRecord
100
AcDbLayerTableRecord
  2
0
 70
     0
 62
     7
  6
Continuous
370
    -3
390
F
  0
LAYER
  5
40
330
2
100
AcDbSymbolTableRecord
100
AcDbLayerTableRecord
  2
FORMAT
 70
     0
 62
     7
  6
Continuous
370
    -3
390
F
  0
LAYER
  5
41
330
2
100
AcDbSymbolTableRecord
100
AcDbLayerTableRecord
  2
VERMASSUNG
 70
     0
 62
     7
  6
Continuous
370
    -3
390
F
  0
LAYER
  5
42
330
2
100
AcDbSymbolTableRecord
100
AcDbLayerTableRecord
  2
KOPF_DÜNN
 70
     0
 62
     7
  6
Continuous
370
    -3
390
F
  0
LAYER
  5
43
330
2
100
AcDbSymbolTableRecord
100
AcDbLayerTableRecord
  2
KOPF_DICK
 70
     0
 62
     7
  6
Continuous
370
    15
390
F
  0
ENDTAB
  0
TABLE
  2
STYLE
  5
3
330
0
100
AcDbSymbolTable
 70
     3
  0
STYLE
  5
11
330
3
100
AcDbSymbolTableRecord
100
AcDbTextStyleTableRecord
  2
Standard
 70
     0
 40
0.0
 41
1.0
 50
0.0
 71
     0
 42
2.5
  3
txt
  4

  0
STYLE
  5
44
330
3
100
AcDbSymbolTableRecord
100
AcDbTextStyleTableRecord
  2
SLDTEXTSTYLE0
 70
     0
 40
0.0
 41
0.7
 50
0.0
 71
     0
 42
0.2
  3
TXT
  4

  0
STYLE
  5
48
330
3
100
AcDbSymbolTableRecord
100
AcDbTextStyleTableRecord
  2
SLDTEXTSTYLE1
 70
     0
 40
0.0
 41
0.6473684211
 50
0.0
 71
     0
 42
0.2
  3
TXT
  4

  0
ENDTAB
  0
TABLE
  2
VIEW
  5
6
330
0
100
AcDbSymbolTable
 70
     0
  0
ENDTAB
  0
TABLE
  2
UCS
  5
7
330
0
100
AcDbSymbolTable
 70
     0
  0
ENDTAB
  0
TABLE
  2
APPID
  5
9
330
0
100
AcDbSymbolTable
 70
     1
  0
APPID
  5
12
330
9
100
AcDbSymbolTableRecord
100
AcDbRegAppTableRecord
  2
ACAD
 70
     0
  0
ENDTAB
  0
TABLE
  2
DIMSTYLE
  5
A
330
0
100
AcDbSymbolTable
 70
     2
100
AcDbDimStyleTable
  0
DIMSTYLE
105
27
330
A
100
AcDbSymbolTableRecord
100
AcDbDimStyleTableRecord
  2
ISO-25
 70
     0
 41
2.5
 42
0.625
 43
3.75
 44
1.25
 73
     0
 74
     0
 77
     1
 78
     8
140
2.5
141
2.5
143
0.0393700787
147
0.625
171
     3
172
     1
271
     2
272
     2
274
     3
278
    44
283
     0
284
     8
340
11
  0
DIMSTYLE
105
1F0
102
{ACAD_REACTORS
330
1EF
330
1FC
330
206
330
210
330
21A
330
225
102
}
330
A
100
AcDbSymbolTableRecord
100
AcDbDimStyleTableRecord
  2
SLDDIMSTYLE0
 70
     0
 41
3.0
 44
0.0
 45
0.000000001
 73
     0
 74
     0
 77
     1
 78
    12
140
2.0
147
0.5
173
     1
271
     2
272
     3
284
    12
340
44
  0
ENDTAB
  0
TABLE
  2
BLOCK_RECORD
  5
1
330
0
100
AcDbSymbolTable
 70
     7
  0
BLOCK_RECORD
  5
1F
330
1
100
AcDbSymbolTableRecord
100
AcDbBlockTableRecord
  2
*Model_Space
340
22
  0
BLOCK_RECORD
  5
1B
330
1
100
AcDbSymbolTableRecord
100
AcDbBlockTableRecord
  2
*Paper_Space
340
1E
  0
BLOCK_RECORD
  5
23
330
1
100
AcDbSymbolTableRecord
100
AcDbBlockTableRecord
  2
*Paper_Space0
340
26
  0
BLOCK_RECORD
  5
1F1
330
1
100
AcDbSymbolTableRecord
100
AcDbBlockTableRecord
  2
*D1
340
0
  0
BLOCK_RECORD
  5
1FD
330
1
100
AcDbSymbolTableRecord
100
AcDbBlockTableRecord
  2
*D2
340
0
  0
BLOCK_RECORD
  5
207
330
1
100
AcDbSymbolTableRecord
100
AcDbBlockTableRecord
  2
*D3
340
0
  0
BLOCK_RECORD
  5
211
330
1
100
AcDbSymbolTableRecord
100
AcDbBlockTableRecord
  2
*D4
340
0
  0
BLOCK_RECORD
  5
21B
330
1
100
AcDbSymbolTableRecord
100
AcDbBlockTableRecord
  2
*D5
340
0
  0
BLOCK_RECORD
  5
226
330
1
100
AcDbSymbolTableRecord
100
AcDbBlockTableRecord
  2
*D6
340
0
  0
ENDTAB
  0
ENDSEC
  0
SECTION
  2
BLOCKS
  0
BLOCK
  5
20
330
1F
100
AcDbEntity
  8
0
100
AcDbBlockBegin
  2
*Model_Space
 70
     0
 10
0.0
 20
0.0
 30
0.0
  3
*Model_Space
  1

  0
ENDBLK
  5
21
330
1F
100
AcDbEntity
  8
0
100
AcDbBlockEnd
  0
BLOCK
  5
1C
330
1B
100
AcDbEntity
 67
     1
  8
0
100
AcDbBlockBegin
  2
*Paper_Space
 70
     0
 10
0.0
 20
0.0
 30
0.0
  3
*Paper_Space
  1

  0
ENDBLK
  5
1D
330
1B
100
AcDbEntity
 67
     1
  8
0
100
AcDbBlockEnd
  0
BLOCK
  5
24
330
23
100
AcDbEntity
  8
0
100
AcDbBlockBegin
  2
*Paper_Space0
 70
     0
 10
0.0
 20
0.0
 30
0.0
  3
*Paper_Space0
  1

  0
ENDBLK
  5
25
330
23
100
AcDbEntity
  8
0
100
AcDbBlockEnd
  0
BLOCK
  5
1F2
330
1F1
100
AcDbEntity
  8
0
100
AcDbBlockBegin
  2
*D1
 70
     1
 10
0.0
 20
0.0
 30
0.0
  3
*D1
  1

  0
SOLID
  5
1F4
330
1F1
100
AcDbEntity
  8
VERMASSUNG
100
AcDbTrace
 10
79.3934759377
 20
137.8430558037
 30
0.0
 11
78.9434759377
 21
134.8430558037
 31
0.0
 12
79.8434759377
 22
134.8430558037
 32
0.0
 13
79.8434759377
 23
134.8430558037
 33
0.0
  0
SOLID
  5
1F5
330
1F1
100
AcDbEntity
  8
VERMASSUNG
100
AcDbTrace
 10
79.3934759377
 20
74.8430558037
 30
0.0
 11
79.8434759377
 21
77.8430558037
 31
0.0
 12
78.9434759377
 22
77.8430558037
 32
0.0
 13
78.9434759377
 23
77.8430558037
 33
0.0
  0
LINE
  5
1F6
330
1F1
100
AcDbEntity
  8
VERMASSUNG
100
AcDbLine
 10
115.7472267432
 20
137.8430558037
 30
0.0
 11
78.3934759377
 21
137.8430558037
 31
0.0
  0
LINE
  5
1F7
330
1F1
100
AcDbEntity
  8
VERMASSUNG
100
AcDbLine
 10
115.7472267432
 20
74.8430558037
 30
0.0
 11
78.3934759377
 21
74.8430558037
 31
0.0
  0
LINE
  5
1F8
330
1F1
100
AcDbEntity
  8
VERMASSUNG
100
AcDbLine
 10
79.3934759377
 20
137.8430558037
 30
0.0
 11
79.3934759377
 21
74.8430558037
 31
0.0
  0
MTEXT
  5
1F9
330
1F1
100
AcDbEntity
  8
VERMASSUNG
100
AcDbMText
 10
76.6153404487
 20
98.4388230924
 30
0.0
 40
2.0
 41
0.0
 71
     1
 72
     1
  1
HSK A 
  7
SLDTEXTSTYLE0
 11
-7.044195017643634E-15
 21
1.0
 31
0.0
 73
     1
 44
1.0
  0
MTEXT
  5
1FA
330
1F1
100
AcDbEntity
  8
VERMASSUNG
100
AcDbMText
 10
76.8153404582
 20
107.4388236363
 30
0.0
 40
2.0
 41
0.0
 71
     1
 72
     1
  1
%%c
  7
SLDTEXTSTYLE0
 11
-7.044195017643634E-15
 21
1.0
 31
0.0
 73
     1
 44
1.0
  0
MTEXT
  5
1FB
330
1F1
100
AcDbEntity
  8
VERMASSUNG
100
AcDbMText
 10
76.8153405746
 20
111.0471502864
 30
0.0
 40
2.0
 41
0.0
 71
     1
 72
     1
  1
63
  7
SLDTEXTSTYLE0
 11
-7.044195017643634E-15
 21
1.0
 31
0.0
 73
     1
 44
1.0
  0
ENDBLK
  5
1F3
330
1F1
100
AcDbEntity
  8
0
100
AcDbBlockEnd
  0
BLOCK
  5
1FE
330
1FD
100
AcDbEntity
  8
0
100
AcDbBlockBegin
  2
*D2
 70
     1
 10
0.0
 20
0.0
 30
0.0
  3
*D2
  1

  0
SOLID
  5
200
330
1FD
100
AcDbEntity
  8
VERMASSUNG
100
AcDbTrace
 10
83.5472267432
 20
157.9221779146
 30
0.0
 11
86.5472267432
 21
157.4721779146
 31
0.0
 12
86.5472267432
 22
158.3721779146
 32
0.0
 13
86.5472267432
 23
158.3721779146
 33
0.0
  0
SOLID
  5
201
330
1FD
100
AcDbEntity
  8
VERMASSUNG
100
AcDbTrace
 10
225.4472267432
 20
157.9221779146
 30
0.0
 11
222.4472267432
 21
158.3721779146
 31
0.0
 12
222.4472267432
 22
157.4721779146
 32
0.0
 13
222.4472267432
 23
157.4721779146
 33
0.0
  0
LINE
  5
202
330
1FD
100
AcDbEntity
  8
VERMASSUNG
100
AcDbLine
 10
83.5472267432
 20
126.0337335502
 30
0.0
 11
83.5472267432
 21
158.9221779146
 31
0.0
  0
LINE
  5
203
330
1FD
100
AcDbEntity
  8
VERMASSUNG
100
AcDbLine
 10
225.4472267432
 20
128.014628679
 30
0.0
 11
225.4472267432
 21
158.9221779146
 31
0.0
  0
LINE
  5
204
330
1FD
100
AcDbEntity
  8
VERMASSUNG
100
AcDbLine
 10
83.5472267432
 20
157.9221779146
 30
0.0
 11
225.4472267432
 21
157.9221779146
 31
0.0
  0
MTEXT
  5
205
330
1FD
100
AcDbEntity
  8
VERMASSUNG
100
AcDbMText
 10
150.0544597373
 20
160.5003132777
 30
0.0
 40
2.0
 41
0.0
 71
     1
 72
     1
  1
141.9
  7
SLDTEXTSTYLE0
 73
     1
 44
1.0
  0
ENDBLK
  5
1FF
330
1FD
100
AcDbEntity
  8
0
100
AcDbBlockEnd
  0
BLOCK
  5
208
330
207
100
AcDbEntity
  8
0
100
AcDbBlockBegin
  2
*D3
 70
     1
 10
0.0
 20
0.0
 30
0.0
  3
*D3
  1

  0
SOLID
  5
20A
330
207
100
AcDbEntity
  8
VERMASSUNG
100
AcDbTrace
 10
115.4472267432
 20
151.9221779146
 30
0.0
 11
118.4472267432
 21
151.4721779146
 31
0.0
 12
118.4472267432
 22
152.3721779146
 32
0.0
 13
118.4472267432
 23
152.3721779146
 33
0.0
  0
SOLID
  5
20B
330
207
100
AcDbEntity
  8
VERMASSUNG
100
AcDbTrace
 10
225.4472267432
 20
151.9221779146
 30
0.0
 11
222.4472267432
 21
152.3721779146
 31
0.0
 12
222.4472267432
 22
151.4721779146
 32
0.0
 13
222.4472267432
 23
151.4721779146
 33
0.0
  0
LINE
  5
20C
330
207
100
AcDbEntity
  8
VERMASSUNG
100
AcDbLine
 10
115.4472267432
 20
137.5430558037
 30
0.0
 11
115.4472267432
 21
152.9221779146
 31
0.0
  0
LINE
  5
20D
330
207
100
AcDbEntity
  8
VERMASSUNG
100
AcDbLine
 10
225.4472267432
 20
128.014628679
 30
0.0
 11
225.4472267432
 21
152.9221779146
 31
0.0
  0
LINE
  5
20E
330
207
100
AcDbEntity
  8
VERMASSUNG
100
AcDbLine
 10
115.4472267432
 20
151.9221779146
 30
0.0
 11
225.4472267432
 21
151.9221779146
 31
0.0
  0
MTEXT
  5
20F
330
207
100
AcDbEntity
  8
VERMASSUNG
100
AcDbMText
 10
169.0657788446
 20
154.5003132777
 30
0.0
 40
2.0
 41
0.0
 71
     1
 72
     1
  1
110
  7
SLDTEXTSTYLE0
 73
     1
 44
1.0
  0
ENDBLK
  5
209
330
207
100
AcDbEntity
  8
0
100
AcDbBlockEnd
  0
BLOCK
  5
212
330
211
100
AcDbEntity
  8
0
100
AcDbBlockBegin
  2
*D4
 70
     1
 10
0.0
 20
0.0
 30
0.0
  3
*D4
  1

  0
SOLID
  5
214
330
211
100
AcDbEntity
  8
VERMASSUNG
100
AcDbTrace
 10
225.4472267432
 20
145.9221779146
 30
0.0
 11
222.4472267432
 21
146.3721779146
 31
0.0
 12
222.4472267432
 22
145.4721779146
 32
0.0
 13
222.4472267432
 23
145.4721779146
 33
0.0
  0
SOLID
  5
215
330
211
100
AcDbEntity
  8
VERMASSUNG
100
AcDbTrace
 10
141.3972267432
 20
145.9221779146
 30
0.0
 11
144.3972267432
 21
145.4721779146
 31
0.0
 12
144.3972267432
 22
146.3721779146
 32
0.0
 13
144.3972267432
 23
146.3721779146
 33
0.0
  0
LINE
  5
216
330
211
100
AcDbEntity
  8
VERMASSUNG
100
AcDbLine
 10
225.4472267432
 20
128.014628679
 30
0.0
 11
225.4472267432
 21
146.9221779146
 31
0.0
  0
LINE
  5
217
330
211
100
AcDbEntity
  8
VERMASSUNG
100
AcDbLine
 10
141.3972267432
 20
136.1894961275
 30
0.0
 11
141.3972267432
 21
146.9221779146
 31
0.0
  0
LINE
  5
218
330
211
100
AcDbEntity
  8
VERMASSUNG
100
AcDbLine
 10
225.4472267432
 20
145.9221779146
 30
0.0
 11
141.3972267432
 21
145.9221779146
 31
0.0
  0
MTEXT
  5
219
330
211
100
AcDbEntity
  8
VERMASSUNG
100
AcDbMText
 10
178.4684339515
 20
148.5003132777
 30
0.0
 40
2.0
 41
0.0
 71
     1
 72
     1
  1
84.05
  7
SLDTEXTSTYLE0
 73
     1
 44
1.0
  0
ENDBLK
  5
213
330
211
100
AcDbEntity
  8
0
100
AcDbBlockEnd
  0
BLOCK
  5
21C
330
21B
100
AcDbEntity
  8
0
100
AcDbBlockBegin
  2
*D5
 70
     1
 10
0.0
 20
0.0
 30
0.0
  3
*D5
  1

  0
SOLID
  5
21E
330
21B
100
AcDbEntity
  8
VERMASSUNG
100
AcDbTrace
 10
234.0576407638
 20
118.8430558037
 30
0.0
 11
233.6076407638
 21
115.8430558037
 31
0.0
 12
234.5076407638
 22
115.8430558037
 32
0.0
 13
234.5076407638
 23
115.8430558037
 33
0.0
  0
SOLID
  5
21F
330
21B
100
AcDbEntity
  8
VERMASSUNG
100
AcDbTrace
 10
234.0576407638
 20
93.8430558037
 30
0.0
 11
234.5076407638
 21
96.8430558037
 31
0.0
 12
233.6076407638
 22
96.8430558037
 32
0.0
 13
233.6076407638
 23
96.8430558037
 33
0.0
  0
LINE
  5
220
330
21B
100
AcDbEntity
  8
VERMASSUNG
100
AcDbLine
 10
224.9472267432
 20
118.8430558037
 30
0.0
 11
235.0576407638
 21
118.8430558037
 31
0.0
  0
LINE
  5
221
330
21B
100
AcDbEntity
  8
VERMASSUNG
100
AcDbLine
 10
224.9472267432
 20
93.8430558037
 30
0.0
 11
235.0576407638
 21
93.8430558037
 31
0.0
  0
LINE
  5
222
330
21B
100
AcDbEntity
  8
VERMASSUNG
100
AcDbLine
 10
234.0576407638
 20
118.8430558037
 30
0.0
 11
234.0576407638
 21
93.8430558037
 31
0.0
  0
MTEXT
  5
223
330
21B
100
AcDbEntity
  8
VERMASSUNG
100
AcDbMText
 10
231.4795052843
 20
102.9386475778
 30
0.0
 40
2.0
 41
0.0
 71
     1
 72
     1
  1
%%c
  7
SLDTEXTSTYLE0
 11
-7.044195017643634E-15
 21
1.0
 31
0.0
 73
     1
 44
1.0
  0
MTEXT
  5
224
330
21B
100
AcDbEntity
  8
VERMASSUNG
100
AcDbMText
 10
231.4795054007
 20
106.547325801
 30
0.0
 40
2.0
 41
0.0
 71
     1
 72
     1
  1
25
  7
SLDTEXTSTYLE0
 11
-7.044195017643634E-15
 21
1.0
 31
0.0
 73
     1
 44
1.0
  0
ENDBLK
  5
21D
330
21B
100
AcDbEntity
  8
0
100
AcDbBlockEnd
  0
BLOCK
  5
227
330
226
100
AcDbEntity
  8
0
100
AcDbBlockBegin
  2
*D6
 70
     1
 10
0.0
 20
0.0
 30
0.0
  3
*D6
  1

  0
SOLID
  5
229
330
226
100
AcDbEntity
  8
VERMASSUNG
100
AcDbTrace
 10
240.0576407638
 20
137.8430558037
 30
0.0
 11
239.6076407638
 21
134.8430558037
 31
0.0
 12
240.5076407638
 22
134.8430558037
 32
0.0
 13
240.5076407638
 23
134.8430558037
 33
0.0
  0
SOLID
  5
22A
330
226
100
AcDbEntity
  8
VERMASSUNG
100
AcDbTrace
 10
240.0576407638
 20
74.8430558037
 30
0.0
 11
240.5076407638
 21
77.8430558037
 31
0.0
 12
239.6076407638
 22
77.8430558037
 32
0.0
 13
239.6076407638
 23
77.8430558037
 33
0.0
  0
LINE
  5
22B
330
226
100
AcDbEntity
  8
VERMASSUNG
100
AcDbLine
 10
215.6187996185
 20
137.8430558037
 30
0.0
 11
241.0576407638
 21
137.8430558037
 31
0.0
  0
LINE
  5
22C
330
226
100
AcDbEntity
  8
VERMASSUNG
100
AcDbLine
 10
215.6187996185
 20
74.8430558037
 30
0.0
 11
241.0576407638
 21
74.8430558037
 31
0.0
  0
LINE
  5
22D
330
226
100
AcDbEntity
  8
VERMASSUNG
100
AcDbLine
 10
240.0576407638
 20
137.8430558037
 30
0.0
 11
240.0576407638
 21
74.8430558037
 31
0.0
  0
MTEXT
  5
22E
330
226
100
AcDbEntity
  8
VERMASSUNG
100
AcDbMText
 10
237.4795052843
 20
102.4045442629
 30
0.0
 40
2.0
 41
0.0
 71
     1
 72
     1
  1
%%c
  7
SLDTEXTSTYLE0
 11
-7.044195017643634E-15
 21
1.0
 31
0.0
 73
     1
 44
1.0
  0
MTEXT
  5
22F
330
226
100
AcDbEntity
  8
VERMASSUNG
100
AcDbMText
 10
237.4795054007
 20
106.0132224861
 30
0.0
 40
2.0
 41
0.0
 71
     1
 72
     1
  1
63
  7
SLDTEXTSTYLE0
 11
-7.044195017643634E-15
 21
1.0
 31
0.0
 73
     1
 44
1.0
  0
ENDBLK
  5
228
330
226
100
AcDbEntity
  8
0
100
AcDbBlockEnd
  0
ENDSEC
  0
SECTION
  2
ENTITIES
  0
MTEXT
  5
45
330
1F
100
AcDbEntity
  8
KOPF_DÜNN
100
AcDbMText
 10
13.8892156294
 20
23.8442973028
 30
0.0
 40
3.0
 41
0.0
 71
     1
 72
     1
  1
HA6.W25.K21.110
  7
SLDTEXTSTYLE0
 73
     1
 44
1.0
  0
MTEXT
  5
46
330
1F
100
AcDbEntity
  8
VERMASSUNG
100
AcDbMText
 10
13.9329988022
 20
28.8834360957
 30
0.0
 40
3.0
 41
0.0
 71
     1
 72
     1
  1
Flächenspannfutter_End mill adapter Weldon ø25
  7
SLDTEXTSTYLE0
 73
     1
 44
1.0
  0
MTEXT
  5
47
330
1F
100
AcDbEntity
  8
VERMASSUNG
100
AcDbMText
 10
98.8601118557
 20
13.8365368179
 30
0.0
 40
2.0
 41
0.0
 71
     1
 72
     1
  1
Datum: 09.10.2006
  7
SLDTEXTSTYLE0
 73
     1
 44
1.0
  0
MTEXT
  5
49
330
1F
100
AcDbEntity
  8
VERMASSUNG
100
AcDbMText
 10
13.933048693
 20
18.0482802738
 30
0.0
 40
2.0
 41
0.0
 71
     1
 72
     1
  1
DIN 69 893 HSK A 63
  7
SLDTEXTSTYLE1
 73
     1
 44
1.0
  0
MTEXT
  5
4A
330
1F
100
AcDbEntity
  8
VERMASSUNG
100
AcDbMText
 10
13.9808475933
 20
13.9090973692
 30
0.0
 40
2.0
 41
0.0
 71
     1
 72
     1
  1
Gewicht: 2212g
  7
SLDTEXTSTYLE0
 73
     1
 44
1.0
  0
LINE
  5
4B
330
1F
100
AcDbEntity
  8
0
  6
Continuous
 62
     7
370
    15
100
AcDbLine
 10
225.4547765042
 20
120.6795249468
 30
0.0
 11
225.4472267432
 21
120.6935052445
 31
0.0
  0
LINE
  5
4C
330
1F
100
AcDbEntity
  8
0
  6
Continuous
 62
     7
370
    15
100
AcDbLine
 10
225.4472267432
 20
91.8493888029
 30
0.0
 11
225.5332961357
 21
92.0087681167
 31
0.0
  0
LINE
  5
4D
330
1F
100
AcDbEntity
  8
0
  6
Continuous
 62
     7
370
    15
100
AcDbLine
 10
161.2000034929
 20
74.8430558037
 30
0.0
 11
215.6187996185
 21
74.8430558037
 31
0.0
  0
LINE
  5
4E
330
1F
100
AcDbEntity
  8
0
  6
Continuous
 62
     7
370
    15
100
AcDbLine
 10
215.6187996185
 20
137.8430558037
 30
0.0
 11
161.2000034929
 21
137.8430558037
 31
0.0
  0
ARC
  5
4F
330
1F
100
AcDbEntity
  8
0
  6
Continuous
 62
     7
370
    15
100
AcDbCircle
 10
215.6187996185
 20
76.8430558037
 30
0.0
 40
2.000000000000016
100
AcDbArc
 50
270.0
 51
315.0
  0
ARC
  5
50
330
1F
100
AcDbEntity
  8
0
  6
Continuous
 62
     7
370
    15
100
AcDbCircle
 10
215.6187996185
 20
135.8430558037
 30
0.0
 40
2.000000000000028
100
AcDbArc
 50
45.0
 51
90.0
  0
LINE
  5
51
330
1F
100
AcDbEntity
  8
0
  6
Continuous
 62
     7
370
    15
100
AcDbLine
 10
115.7472267432
 20
74.8430558037
 30
0.0
 11
120.3972267432
 21
74.8430558037
 31
0.0
  0
LINE
  5
52
330
1F
100
AcDbEntity
  8
0
  6
Continuous
 62
     7
370
    15
100
AcDbLine
 10
120.4252151023
 20
137.8430558037
 30
0.0
 11
115.7472267432
 21
137.8430558037
 31
0.0
  0
ARC
  5
53
330
1F
100
AcDbEntity
  8
0
  6
Continuous
 62
     7
370
    15
100
AcDbCircle
 10
161.2000034929
 20
136.8430558037
 30
0.0
 40
1.000000000000033
100
AcDbArc
 50
90.0
 51
150.0
  0
ARC
  5
54
330
1F
100
AcDbEntity
  8
0
  6
Continuous
 62
     7
370
    15
100
AcDbCircle
 10
161.2000034929
 20
75.8430558037
 30
0.0
 40
1.000000000000026
100
AcDbArc
 50
210.0
 51
270.0
  0
ARC
  5
55
330
1F
100
AcDbEntity
  8
0
  6
Continuous
 62
     7
370
    15
100
AcDbCircle
 10
115.7472267432
 20
75.1430558037
 30
0.0
 40
0.3000000000000114
100
AcDbArc
 50
180.0
 51
270.0
  0
ARC
  5
56
330
1F
100
AcDbEntity
  8
0
  6
Continuous
 62
     7
370
    15
100
AcDbCircle
 10
115.7472267432
 20
137.5430558037
 30
0.0
 40
0.3000000000000114
100
AcDbArc
 50
90.0
 51
180.0
  0
LINE
  5
57
330
1F
100
AcDbEntity
  8
0
  6
Continuous
 62
     7
370
    15
100
AcDbLine
 10
160.3339780892
 20
137.3430558037
 30
0.0
 11
157.7359018778
 21
132.8430558037
 31
0.0
  0
LINE
  5
58
330
1F
100
AcDbEntity
  8
0
  6
Continuous
 62
     7
370
    15
100
AcDbLine
 10
157.7359018778
 20
79.8430558037
 30
0.0
 11
160.3339780892
 21
75.3430558037
 31
0.0
  0
LINE
  5
59
330
1F
100
AcDbEntity
  8
0
  6
Continuous
 62
     7
370
    15
100
AcDbLine
 10
217.0330131808
 20
75.4288422413
 30
0.0
 11
224.8614403056
 21
83.2572693661
 31
0.0
  0
LINE
  5
5A
330
1F
100
AcDbEntity
  8
0
  6
Continuous
 62
     7
370
    15
100
AcDbLine
 10
224.8614403056
 20
129.4288422413
 30
0.0
 11
217.0330131808
 21
137.2572693661
 31
0.0
  0
ARC
  5
5B
330
1F
100
AcDbEntity
  8
0
  6
Continuous
 62
     7
370
    15
100
AcDbCircle
 10
142.3972267432
 20
79.3430558037
 30
0.0
 40
1.000000000000017
100
AcDbArc
 50
90.0
 51
143.1139143113
  0
ARC
  5
5C
330
1F
100
AcDbEntity
  8
0
  6
Continuous
 62
     7
370
    15
100
AcDbCircle
 10
142.3972267432
 20
133.3430558037
 30
0.0
 40
1.0
100
AcDbArc
 50
216.9047686334
 51
270.0
  0
ARC
  5
5D
330
1F
100
AcDbEntity
  8
0
  6
Continuous
 62
     7
370
    15
100
AcDbCircle
 10
156.869876474
 20
79.3430558037
 30
0.0
 40
1.0
100
AcDbArc
 50
30.0
 51
90.0
  0
ARC
  5
5E
330
1F
100
AcDbEntity
  8
0
  6
Continuous
 62
     7
370
    15
100
AcDbCircle
 10
156.869876474
 20
133.3430558037
 30
0.0
 40
1.0
100
AcDbArc
 50
270.0
 51
330.0
  0
LINE
  5
5F
330
1F
100
AcDbEntity
  8
0
  6
Continuous
 62
     7
370
    15
100
AcDbLine
 10
152.8853236822
 20
80.3430558037
 30
0.0
 11
156.869876474
 21
80.3430558037
 31
0.0
  0
LINE
  5
60
330
1F
100
AcDbEntity
  8
0
  6
Continuous
 62
     7
370
    15
100
AcDbLine
 10
142.3972267432
 20
80.3430558037
 30
0.0
 11
145.8998076149
 21
80.3430558037
 31
0.0
  0
LINE
  5
61
330
1F
100
AcDbEntity
  8
0
  6
Continuous
 62
     7
370
    15
100
AcDbLine
 10
145.9085028258
 20
132.3430558037
 30
0.0
 11
142.3972267432
 21
132.3430558037
 31
0.0
  0
LINE
  5
62
330
1F
100
AcDbEntity
  8
0
  6
Continuous
 62
     7
370
    15
100
AcDbLine
 10
156.869876474
 20
132.3430558037
 30
0.0
 11
152.8958780486
 21
132.3430558037
 31
0.0
  0
ARC
  5
63
330
1F
100
AcDbEntity
  8
0
  6
Continuous
 62
     7
370
    15
100
AcDbCircle
 10
114.9472199905
 20
81.7726181893
 30
0.0
 40
0.6000067526677242
100
AcDbArc
 50
33.5571153394
 51
90.0
  0
ARC
  5
64
330
1F
100
AcDbEntity
  8
0
  6
Continuous
 62
     7
370
    15
100
AcDbCircle
 10
114.9472199905
 20
130.9134934181
 30
0.0
 40
0.6000067526677164
100
AcDbArc
 50
270.0
 51
326.4428846606
  0
LINE
  5
65
330
1F
100
AcDbEntity
  8
0
  6
Continuous
 62
     7
370
    15
100
AcDbLine
 10
102.2157179444
 20
130.0007858238
 30
0.0
 11
89.6472267432
 21
129.3711018959
 31
0.0
  0
LINE
  5
66
330
1F
100
AcDbEntity
  8
0
  6
Continuous
 62
     7
370
    15
100
AcDbLine
 10
113.4472267432
 20
130.5634866654
 30
0.0
 11
110.6302250859
 21
130.4223543179
 31
0.0
  0
LINE
  5
67
330
1F
100
AcDbEntity
  8
0
  6
Continuous
 62
     7
370
    15
100
AcDbLine
 10
110.6288388609
 20
82.2638267397
 30
0.0
 11
113.4472267432
 21
82.122624942
 31
0.0
  0
LINE
  5
68
330
1F
100
AcDbEntity
  8
0
  6
Continuous
 62
     7
370
    15
100
AcDbLine
 10
93.6472267432
 20
83.1146089099
 30
0.0
 11
102.2175035124
 21
82.6852363263
 31
0.0
  0
LINE
  5
69
330
1F
100
AcDbEntity
  8
0
  6
Continuous
 62
     7
370
    15
100
AcDbLine
 10
113.4472267432
 20
82.122624942
 30
0.0
 11
114.3039395166
 21
82.3521804378
 31
0.0
  0
LINE
  5
6A
330
1F
100
AcDbEntity
  8
0
  6
Continuous
 62
     7
370
    15
100
AcDbLine
 10
114.3039395166
 20
130.3339311697
 30
0.0
 11
113.4472267432
 21
130.5634866654
 31
0.0
  0
ARC
  5
6B
330
1F
100
AcDbEntity
  8
0
  6
Continuous
 62
     7
370
    15
100
AcDbCircle
 10
114.4592309437
 20
81.772624942
 30
0.0
 40
0.6000000000000109
100
AcDbArc
 50
90.0
 51
105.0
  0
ARC
  5
6C
330
1F
100
AcDbEntity
  8
0
  6
Continuous
 62
     7
370
    15
100
AcDbCircle
 10
114.4592309437
 20
130.9134866654
 30
0.0
 40
0.6000000000000245
100
AcDbArc
 50
255.0
 51
270.0
  0
LINE
  5
6D
330
1F
100
AcDbEntity
  8
0
  6
Continuous
 62
     7
370
    15
100
AcDbLine
 10
114.4592309437
 20
82.372624942
 30
0.0
 11
114.9472199905
 21
82.372624942
 31
0.0
  0
LINE
  5
6E
330
1F
100
AcDbEntity
  8
0
  6
Continuous
 62
     7
370
    15
100
AcDbLine
 10
114.9472199905
 20
130.3134866654
 30
0.0
 11
114.4592309437
 21
130.3134866654
 31
0.0
  0
ARC
  5
6F
330
1F
100
AcDbEntity
  8
0
  6
Continuous
 62
     7
370
    15
100
AcDbCircle
 10
223.4472267432
 20
84.6714829285
 30
0.0
 40
2.0
100
AcDbArc
 50
315.0
 51
0.0
  0
ARC
  5
70
330
1F
100
AcDbEntity
  8
0
  6
Continuous
 62
     7
370
    15
100
AcDbCircle
 10
223.4472267432
 20
128.014628679
 30
0.0
 40
2.0
100
AcDbArc
 50
0.0
 51
45.0
  0
LINE
  5
71
330
1F
100
AcDbEntity
  8
0
  6
Continuous
 62
     7
370
    15
100
AcDbLine
 10
84.8416458697
 20
85.4730558037
 30
0.0
 11
92.2472267432
 21
85.4730558037
 31
0.0
  0
ARC
  5
72
330
1F
100
AcDbEntity
  8
0
  6
Continuous
 62
     7
370
    15
100
AcDbCircle
 10
92.2472267432
 20
84.0730558037
 30
0.0
 40
1.399999999999997
100
AcDbArc
 50
42.2465410162
 51
90.0
  0
LINE
  5
73
330
1F
100
AcDbEntity
  8
0
  6
Continuous
 62
     7
370
    15
100
AcDbLine
 10
83.5583871783
 20
86.6118953686
 30
0.0
 11
84.6883902014
 21
85.4818923455
 31
0.0
  0
LINE
  5
74
330
1F
100
AcDbEntity
  8
0
  6
Continuous
 62
     7
370
    15
100
AcDbLine
 10
84.6883902014
 20
127.2042192619
 30
0.0
 11
83.5571275166
 21
126.0729565771
 31
0.0
  0
ARC
  5
75
330
1F
100
AcDbEntity
  8
0
  6
Continuous
 62
     7
370
    15
100
AcDbCircle
 10
88.2472267432
 20
128.6130558037
 30
0.0
 40
1.399999999999996
100
AcDbArc
 50
270.0
 51
301.7485287426
  0
LINE
  5
76
330
1F
100
AcDbEntity
  8
0
  6
Continuous
 62
     7
370
    15
100
AcDbLine
 10
88.2472267432
 20
127.2130558037
 30
0.0
 11
84.8381151446
 21
127.2130558037
 31
0.0
  0
LWPOLYLINE
  5
77
330
1F
100
AcDbEntity
  8
0
  6
Continuous
 62
     7
370
    15
100
AcDbPolyline
 90
        7
 70
   128
 43
0.0
 10
225.4472267432
 20
118.8864138791
 10
225.4588979727
 20
119.3144527104
 10
225.4682932483
 20
119.817923801
 10
225.4711512311
 20
120.2405699066
 10
225.4671622141
 20
120.5365907637
 10
225.4567584693
 20
120.6739079192
 10
225.4472267432
 20
120.6708465621
  0
ARC
  5
78
330
1F
100
AcDbEntity
  8
0
  6
Continuous
 62
     7
370
    15
100
AcDbCircle
 10
203.0863774901
 20
93.0104667642
 30
0.0
 40
22.46925803988591
100
AcDbArc
 50
357.444858536
 51
5.6305429419
  0
LINE
  5
79
330
1F
100
AcDbEntity
  8
0
  6
Continuous
 62
     7
370
    15
100
AcDbLine
 10
177.5501470376
 20
112.0849910569
 30
0.0
 11
172.2760250942
 21
109.7361677217
 31
0.0
  0
LINE
  5
7A
330
1F
100
AcDbEntity
  8
0
  6
Continuous
 62
     7
370
    15
100
AcDbLine
 10
172.2760250942
 20
109.7361677217
 30
0.0
 11
171.6731047999
 21
103.9942324685
 31
0.0
  0
LINE
  5
7B
330
1F
100
AcDbEntity
  8
0
  6
Continuous
 62
     7
370
    15
100
AcDbLine
 10
176.3443064488
 20
100.6011205505
 30
0.0
 11
171.6731047999
 21
103.9942324685
 31
0.0
  0
LINE
  5
7C
330
1F
100
AcDbEntity
  8
0
  6
Continuous
 62
     7
370
    15
100
AcDbLine
 10
181.6184283922
 20
102.9499438857
 30
0.0
 11
176.3443064488
 21
100.6011205505
 31
0.0
  0
ARC
  5
7D
330
1F
100
AcDbEntity
  8
0
  6
Continuous
 62
     7
370
    15
100
AcDbCircle
 10
176.9472267432
 20
106.3430558037
 30
0.0
 40
8.000000000000009
100
AcDbArc
 50
24.0057383509
 51
149.2560953669
  0
ARC
  5
7E
330
1F
100
AcDbEntity
  8
0
  6
Continuous
 62
     7
370
    15
100
AcDbCircle
 10
176.9472267432
 20
106.3430558037
 30
0.0
 40
8.000000000000014
100
AcDbArc
 50
210.7768050115
 51
24.0057383509
  0
LINE
  5
7F
330
1F
100
AcDbEntity
  8
0
  6
Continuous
 62
     7
370
    15
100
AcDbLine
 10
181.6184283922
 20
102.9499438857
 30
0.0
 11
182.2213486866
 21
108.6918791389
 31
0.0
  0
LINE
  5
80
330
1F
100
AcDbEntity
  8
0
  6
Continuous
 62
     7
370
    15
100
AcDbLine
 10
177.5501470376
 20
112.0849910569
 30
0.0
 11
182.2213486866
 21
108.6918791389
 31
0.0
  0
ARC
  5
81
330
1F
100
AcDbEntity
  8
0
  6
Continuous
 62
     7
370
    15
100
AcDbCircle
 10
176.9472267432
 20
106.3430558037
 30
0.0
 40
5.000000000000032
100
AcDbArc
 50
234.0057383509
 51
294.0057383509
  0
ARC
  5
82
330
1F
100
AcDbEntity
  8
0
  6
Continuous
 62
     7
370
    15
100
AcDbCircle
 10
176.9472267432
 20
106.3430558037
 30
0.0
 40
5.000000000000023
100
AcDbArc
 50
174.0057383509
 51
234.0057383509
  0
ARC
  5
83
330
1F
100
AcDbEntity
  8
0
  6
Continuous
 62
     7
370
    15
100
AcDbCircle
 10
176.9472267432
 20
106.3430558037
 30
0.0
 40
4.999999999999998
100
AcDbArc
 50
354.0057383509
 51
54.0057383509
  0
ARC
  5
84
330
1F
100
AcDbEntity
  8
0
  6
Continuous
 62
     7
370
    15
100
AcDbCircle
 10
176.9472267432
 20
106.3430558037
 30
0.0
 40
5.000000000000032
100
AcDbArc
 50
294.0057383509
 51
354.0057383509
  0
ARC
  5
85
330
1F
100
AcDbEntity
  8
0
  6
Continuous
 62
     7
370
    15
100
AcDbCircle
 10
176.9472267432
 20
106.3430558037
 30
0.0
 40
5.000000000000023
100
AcDbArc
 50
114.0057383509
 51
174.0057383509
  0
ARC
  5
86
330
1F
100
AcDbEntity
  8
0
  6
Continuous
 62
     7
370
    15
100
AcDbCircle
 10
176.9472267432
 20
106.3430558037
 30
0.0
 40
5.000000000000004
100
AcDbArc
 50
54.0057383509
 51
114.0057383509
  0
LINE
  5
87
330
1F
100
AcDbEntity
  8
0
  6
Continuous
 62
     7
370
    15
100
AcDbLine
 10
204.5114896976
 20
111.5158586063
 30
0.0
 11
207.7091368562
 21
106.7087403445
 31
0.0
  0
LINE
  5
88
330
1F
100
AcDbEntity
  8
0
  6
Continuous
 62
     7
370
    15
100
AcDbLine
 10
204.5114896976
 20
111.5158586063
 30
0.0
 11
198.7495795846
 21
111.1501740655
 31
0.0
  0
LINE
  5
89
330
1F
100
AcDbEntity
  8
0
  6
Continuous
 62
     7
370
    15
100
AcDbLine
 10
198.7495795846
 20
111.1501740655
 30
0.0
 11
196.1853166302
 21
105.977371263
 31
0.0
  0
LINE
  5
8A
330
1F
100
AcDbEntity
  8
0
  6
Continuous
 62
     7
370
    15
100
AcDbLine
 10
199.3829637888
 20
101.1702530012
 30
0.0
 11
196.1853166302
 21
105.977371263
 31
0.0
  0
LINE
  5
8B
330
1F
100
AcDbEntity
  8
0
  6
Continuous
 62
     7
370
    15
100
AcDbLine
 10
205.1448739018
 20
101.5359375419
 30
0.0
 11
199.3829637888
 21
101.1702530012
 31
0.0
  0
LINE
  5
8C
330
1F
100
AcDbEntity
  8
0
  6
Continuous
 62
     7
370
    15
100
AcDbLine
 10
205.1448739018
 20
101.5359375419
 30
0.0
 11
207.7091368562
 21
106.7087403445
 31
0.0
  0
ARC
  5
8D
330
1F
100
AcDbEntity
  8
0
  6
Continuous
 62
     7
370
    15
100
AcDbCircle
 10
201.9472267432
 20
106.3430558037
 30
0.0
 40
7.999999999999995
100
AcDbArc
 50
3.6314550214
 51
149.2560953669
  0
ARC
  5
8E
330
1F
100
AcDbEntity
  8
0
  6
Continuous
 62
     7
370
    15
100
AcDbCircle
 10
201.9472267432
 20
106.3430558037
 30
0.0
 40
8.000000000000007
100
AcDbArc
 50
210.7768050115
 51
3.6314550214
  0
ARC
  5
8F
330
1F
100
AcDbEntity
  8
0
  6
Continuous
 62
     7
370
    15
100
AcDbCircle
 10
201.9472267432
 20
106.3430558037
 30
0.0
 40
5.000000000000011
100
AcDbArc
 50
333.6314550214
 51
33.6314550214
  0
ARC
  5
90
330
1F
100
AcDbEntity
  8
0
  6
Continuous
 62
     7
370
    15
100
AcDbCircle
 10
201.9472267432
 20
106.3430558037
 30
0.0
 40
5.000000000000022
100
AcDbArc
 50
273.6314550214
 51
333.6314550214
  0
ARC
  5
91
330
1F
100
AcDbEntity
  8
0
  6
Continuous
 62
     7
370
    15
100
AcDbCircle
 10
201.9472267432
 20
106.3430558037
 30
0.0
 40
5.000000000000022
100
AcDbArc
 50
213.6314550214
 51
273.6314550214
  0
ARC
  5
92
330
1F
100
AcDbEntity
  8
0
  6
Continuous
 62
     7
370
    15
100
AcDbCircle
 10
201.9472267432
 20
106.3430558037
 30
0.0
 40
5.000000000000018
100
AcDbArc
 50
153.6314550214
 51
213.6314550214
  0
ARC
  5
93
330
1F
100
AcDbEntity
  8
0
  6
Continuous
 62
     7
370
    15
100
AcDbCircle
 10
201.9472267432
 20
106.3430558037
 30
0.0
 40
5.000000000000018
100
AcDbArc
 50
93.6314550214
 51
153.6314550214
  0
ARC
  5
94
330
1F
100
AcDbEntity
  8
0
  6
Continuous
 62
     7
370
    15
100
AcDbCircle
 10
201.9472267432
 20
106.3430558037
 30
0.0
 40
5.000000000000009
100
AcDbArc
 50
33.6314550214
 51
93.6314550214
  0
SPLINE
  5
95
330
1F
100
AcDbEntity
  8
0
  6
Continuous
 62
     7
370
    15
100
AcDbSpline
210
0.0
220
0.0
230
1.0
 70
     8
 71
     3
 72
    17
 73
    13
 74
     0
 42
0.00000001
 43
0.00000001
 40
0.0
 40
0.0
 40
0.0
 40
0.0
 40
0.0533986020970522
 40
0.1321242419941379
 40
0.3239907774836048
 40
0.4995100848796598
 40
0.6750759299888784
 40
0.7373050428362534
 40
0.8013789655001626
 40
0.8673152963467162
 40
0.9743882790759163
 40
1.0
 40
1.0
 40
1.0
 40
1.0
 10
208.8227950553712
 20
102.269436912168
 30
0.0
 10
208.9006334715966
 20
102.3992883123379
 30
0.0
 10
209.0932291826811
 20
102.7205798283245
 30
0.0
 10
209.474497624452
 20
103.559902821416
 30
0.0
 10
209.84826751214
 20
104.7843768380138
 30
0.0
 10
209.994498463024
 20
106.3396713717872
 30
0.0
 10
209.8832093048281
 20
107.5244869025195
 30
0.0
 10
209.6935898388143
 20
108.3649777318499
 30
0.0
 10
209.5381789100971
 20
108.8910437471925
 30
0.0
 10
209.2976391930834
 20
109.520771151703
 30
0.0
 10
209.0678622199676
 20
110.0400867813778
 30
0.0
 10
208.8607449858254
 20
110.3537198678536
 30
0.0
 10
208.8207657820938
 20
110.4142594994931
 30
0.0
  0
SPLINE
  5
96
330
1F
100
AcDbEntity
  8
0
  6
Continuous
 62
     7
370
    15
100
AcDbSpline
210
0.0
220
0.0
230
1.0
 70
     8
 71
     3
 72
    18
 73
    14
 74
     0
 42
0.00000001
 43
0.00000001
 40
0.0
 40
0.0
 40
0.0
 40
0.0
 40
0.0587733692572807
 40
0.1337110732799425
 40
0.3219809091549147
 40
0.4126162918902596
 40
0.5009298248991004
 40
0.6761572708426291
 40
0.7382174059792191
 40
0.8020943706673203
 40
0.86780580967653
 40
0.9743743929597277
 40
1.0
 40
1.0
 40
1.0
 40
1.0
 10
195.0767316532957
 20
110.4270040505783
 30
0.0
 10
194.9914986322676
 20
110.2834828816074
 30
0.0
 10
194.797591104682
 20
109.9569681729223
 30
0.0
 10
194.4189819703687
 20
109.1213733330833
 30
0.0
 10
194.1208782764091
 20
108.1479238668389
 30
0.0
 10
193.9714023413747
 20
107.1056810542415
 30
0.0
 10
193.9233304187399
 20
106.0907883416059
 30
0.0
 10
194.0122675469405
 20
105.1549555639709
 30
0.0
 10
194.2024614817592
 20
104.315060957235
 30
0.0
 10
194.3580947577129
 20
103.7897154047445
 30
0.0
 10
194.5985543551242
 20
103.1614104802786
 30
0.0
 10
194.8282255087066
 20
102.643137040277
 30
0.0
 10
195.0350271416263
 20
102.3301129097314
 30
0.0
 10
195.0751152677952
 20
102.2694337426374
 30
0.0
  0
SPLINE
  5
97
330
1F
100
AcDbEntity
  8
0
  6
Continuous
 62
     7
370
    15
100
AcDbSpline
210
0.0
220
0.0
230
1.0
 70
     8
 71
     3
 72
    39
 73
    35
 74
     0
 42
0.00000001
 43
0.00000001
 40
-0.0931207261887395
 40
-0.0619511902978445
 40
-0.0306570609595095
 40
0.0
 40
0.030676625573923
 40
0.0619884351880756
 40
0.0931786770078705
 40
0.1243035093027818
 40
0.1554610904611431
 40
0.1869501965027901
 40
0.2186198542433131
 40
0.2499168294763157
 40
0.2814668200238286
 40
0.3129752671682267
 40
0.3444080948980093
 40
0.3758070711408246
 40
0.406976187843041
 40
0.4381182606699976
 40
0.4693302543141534
 40
0.5000485752812187
 40
0.5307608120559144
 40
0.5620521600204166
 40
0.5932083628429602
 40
0.6243426223064905
 40
0.6555306071087039
 40
0.6870881590059674
 40
0.7187798694380089
 40
0.7500819188468733
 40
0.7813573083848753
 40
0.8130684055863849
 40
0.8445967306457428
 40
0.8757739303182056
 40
0.9068792738112605
 40
0.9380488097021555
 40
0.9693429390404905
 40
1.0
 40
1.030676625573923
 40
1.061988435188076
 40
1.093178677007871
 10
203.6763026225666
 20
97.51176157530386
 30
0.0
 10
201.9468595423304
 20
97.33662065790783
 30
0.0
 10
200.2170979170957
 20
97.51199989302111
 30
0.0
 10
198.5570770972118
 20
98.03843584548424
 30
0.0
 10
197.0234253330122
 20
98.86480830765919
 30
0.0
 10
195.6934287225366
 20
99.97845938674443
 30
0.0
 10
194.6007259787734
 20
101.3329999667874
 30
0.0
 10
193.7910941502671
 20
102.890310856584
 30
0.0
 10
193.276380103578
 20
104.5794309790386
 30
0.0
 10
193.1070386151729
 20
106.3438667834173
 30
0.0
 10
193.2736251027339
 20
108.1054661898814
 30
0.0
 10
193.7836020055986
 20
109.796904589005
 30
0.0
 10
194.5981917690137
 20
111.3525829259919
 30
0.0
 10
195.6952195636067
 20
112.7087139486011
 30
0.0
 10
197.0269260055248
 20
113.8268811831487
 30
0.0
 10
198.5589637149196
 20
114.6526675715982
 30
0.0
 10
200.2180700132614
 20
115.1758388615817
 30
0.0
 10
201.947842787089
 20
115.3490710090559
 30
0.0
 10
203.6790223406141
 20
115.1746976003991
 30
0.0
 10
205.3391000174388
 20
114.6492179610521
 30
0.0
 10
206.8717643747086
 20
113.8226763259976
 30
0.0
 10
208.2009306457804
 20
112.7078698294853
 30
0.0
 10
209.2935282799025
 20
111.3507028277182
 30
0.0
 10
210.1026194188839
 20
109.7905075376212
 30
0.0
 10
210.6167401563361
 20
108.0995831671577
 30
0.0
 10
210.7882326396198
 20
106.3398616871765
 30
0.0
 10
210.6179598446445
 20
104.5795586208451
 30
0.0
 10
210.1026682422003
 20
102.8895900716519
 30
0.0
 10
209.292169273483
 20
101.3305945197691
 30
0.0
 10
208.1985208026173
 20
99.97584160917052
 30
0.0
 10
206.8682609145103
 20
98.86311175238782
 30
0.0
 10
205.3353695756674
 20
98.0376370497307
 30
0.0
 10
203.6763026225666
 20
97.51176157530386
 30
0.0
 10
201.9468595423304
 20
97.33662065790783
 30
0.0
 10
200.2170979170957
 20
97.51199989302111
 30
0.0
  0
SPLINE
  5
98
330
1F
100
AcDbEntity
  8
0
  6
Continuous
 62
     7
370
    15
100
AcDbSpline
210
0.0
220
0.0
230
1.0
 70
     8
 71
     3
 72
    17
 73
    13
 74
     0
 42
0.00000001
 43
0.00000001
 40
0.0
 40
0.0
 40
0.0
 40
0.0
 40
0.0533986020782462
 40
0.1321242419892528
 40
0.323990777466072
 40
0.4995100848753123
 40
0.6750759299772069
 40
0.7373050428255044
 40
0.8013789654920171
 40
0.8673152963428501
 40
0.9743882790626536
 40
1.0
 40
1.0
 40
1.0
 40
1.0
 10
183.822795055391
 20
102.2694369122069
 30
0.0
 10
183.9006334715907
 20
102.3992883123298
 30
0.0
 10
184.0932291826723
 20
102.7205798283014
 30
0.0
 10
184.4744976244232
 20
103.5599028213455
 30
0.0
 10
184.848267512133
 20
104.7843768379752
 30
0.0
 10
184.9944984630253
 20
106.339671371729
 30
0.0
 10
184.8832093048327
 20
107.5244869024782
 30
0.0
 10
184.693589838828
 20
108.3649777317986
 30
0.0
 10
184.5381789101078
 20
108.8910437471629
 30
0.0
 10
184.2976391930984
 20
109.5207711516673
 30
0.0
 10
184.0678622199723
 20
110.0400867813614
 30
0.0
 10
183.860744985826
 20
110.353719867847
 30
0.0
 10
183.8207657820741
 20
110.4142594995181
 30
0.0
  0
SPLINE
  5
99
330
1F
100
AcDbEntity
  8
0
  6
Continuous
 62
     7
370
    15
100
AcDbSpline
210
0.0
220
0.0
230
1.0
 70
     8
 71
     3
 72
    18
 73
    14
 74
     0
 42
0.00000001
 43
0.00000001
 40
0.0
 40
0.0
 40
0.0
 40
0.0
 40
0.0587733692581119
 40
0.1337110732796531
 40
0.321980909160313
 40
0.4126162918941301
 40
0.5009298248985351
 40
0.6761572708460846
 40
0.7382174059821646
 40
0.802094370668821
 40
0.867805809675653
 40
0.9743743929589441
 40
0.9999999999999999
 40
0.9999999999999999
 40
0.9999999999999999
 40
0.9999999999999999
 10
170.0767316532947
 20
110.427004050577
 30
0.0
 10
169.9914986322655
 20
110.2834828816039
 30
0.0
 10
169.7975911046805
 20
109.956968172919
 30
0.0
 10
169.4189819703608
 20
109.1213733330653
 30
0.0
 10
169.1208782764014
 20
108.1479238668105
 30
0.0
 10
168.9714023413727
 20
107.1056810542124
 30
0.0
 10
168.9233304187405
 20
106.0907883415815
 30
0.0
 10
169.0122675469431
 20
105.1549555639485
 30
0.0
 10
169.2024614817666
 20
104.3150609572069
 30
0.0
 10
169.3580947577188
 20
103.7897154047284
 30
0.0
 10
169.5985543551272
 20
103.161410480272
 30
0.0
 10
169.8282255087082
 20
102.643137040274
 30
0.0
 10
170.0350271416295
 20
102.3301129097262
 30
0.0
 10
170.0751152677998
 20
102.2694337426304
 30
0.0
  0
SPLINE
  5
9A
330
1F
100
AcDbEntity
  8
0
  6
Continuous
 62
     7
370
    15
100
AcDbSpline
210
0.0
220
0.0
230
1.0
 70
     8
 71
     3
 72
    39
 73
    35
 74
     0
 42
0.00000001
 43
0.00000001
 40
-0.0931207261892442
 40
-0.061951190297866
 40
-0.0306570609599921
 40
0.0
 40
0.0306766255739237
 40
0.061988435188076
 40
0.0931786770078711
 40
0.124303509302783
 40
0.1554610904636505
 40
0.1869501965028832
 40
0.2186198542458015
 40
0.2499168294763147
 40
0.2814668200238275
 40
0.3129752671682257
 40
0.3444080948980088
 40
0.3758070711408236
 40
0.4069761878435401
 40
0.4381182606700162
 40
0.4693302543146328
 40
0.5000485752812172
 40
0.5307608120554296
 40
0.5620521600203944
 40
0.5932083628424556
 40
0.6243426223064872
 40
0.655530607109896
 40
0.6870881590060082
 40
0.7187798694391925
 40
0.7500819188468694
 40
0.7813573083861753
 40
0.8130684055864307
 40
0.8445967306470543
 40
0.8757739303182034
 40
0.9068792738107557
 40
0.9380488097021339
 40
0.9693429390400078
 40
0.9999999999999999
 40
1.030676625573923
 40
1.061988435188076
 40
1.093178677007871
 10
178.6763026225771
 20
97.51176157529719
 30
0.0
 10
176.9468595423392
 20
97.33662065790924
 30
0.0
 10
175.2170979170956
 20
97.5119998930204
 30
0.0
 10
173.5570770972124
 20
98.03843584548494
 30
0.0
 10
172.0234253330097
 20
98.86480830765738
 30
0.0
 10
170.6934287225101
 20
99.97845938678107
 30
0.0
 10
169.600725978712
 20
101.3329999668029
 30
0.0
 10
168.7910941502324
 20
102.8903108566694
 30
0.0
 10
168.2763801036117
 20
104.5794309790924
 30
0.0
 10
168.1070386151659
 20
106.3438667834623
 30
0.0
 10
168.273625102737
 20
108.1054661898818
 30
0.0
 10
168.7836020055979
 20
109.7969045890048
 30
0.0
 10
169.5981917690136
 20
111.3525829259924
 30
0.0
 10
170.695219563614
 20
112.7087139486065
 30
0.0
 10
172.0269260055275
 20
113.8268811831608
 30
0.0
 10
173.5589637149362
 20
114.6526675716054
 30
0.0
 10
175.2180700132719
 20
115.1758388615744
 30
0.0
 10
176.947842787089
 20
115.3490710090587
 30
0.0
 10
178.6790223406037
 20
115.1746976003917
 30
0.0
 10
180.3391000174217
 20
114.6492179610591
 30
0.0
 10
181.8717643747072
 20
113.8226763260105
 30
0.0
 10
183.2009306457857
 20
112.7078698294733
 30
0.0
 10
184.2935282799323
 20
111.3507028277112
 30
0.0
 10
185.1026194188999
 20
109.7905075375804
 30
0.0
 10
185.6167401563218
 20
108.099583167132
 30
0.0
 10
185.7882326396194
 20
106.3398616871314
 30
0.0
 10
185.6179598446607
 20
104.5795586208168
 30
0.0
 10
185.1026682421825
 20
102.8895900716071
 30
0.0
 10
184.2921692734503
 20
101.3305945197615
 30
0.0
 10
183.1985208026107
 20
99.97584160915686
 30
0.0
 10
181.8682609145116
 20
98.86311175240098
 30
0.0
 10
180.3353695756845
 20
98.03763704973754
 30
0.0
 10
178.6763026225771
 20
97.51176157529719
 30
0.0
 10
176.9468595423392
 20
97.33662065790924
 30
0.0
 10
175.2170979170956
 20
97.5119998930204
 30
0.0
  0
LINE
  5
9B
330
1F
100
AcDbEntity
  8
0
  6
Continuous
 62
     7
370
    15
100
AcDbLine
 10
131.5372267432
 20
78.8452186447
 30
0.0
 11
131.5372267432
 21
126.1930558037
 31
0.0
  0
SPLINE
  5
9C
330
1F
100
AcDbEntity
  8
0
  6
Continuous
 62
     7
370
    15
100
AcDbSpline
210
0.0
220
0.0
230
1.0
 70
     8
 71
     3
 72
     8
 73
     4
 74
     0
 42
0.00000001
 43
0.00000001
 40
0.0
 40
0.0
 40
0.0
 40
0.0
 40
1.0
 40
1.0
 40
1.0
 40
1.0
 10
131.537226743208
 20
78.84521864466656
 30
0.0
 10
131.0448876204268
 20
77.94794861045986
 30
0.0
 10
130.5507735723847
 20
77.05166419540761
 30
0.0
 10
130.0552939117189
 20
76.15613810747426
 30
0.0
  0
LINE
  5
9D
330
1F
100
AcDbEntity
  8
0
  6
Continuous
 62
     7
370
    15
100
AcDbLine
 10
130.0552939117
 20
76.1561381075
 30
0.0
 11
130.0552939117
 21
126.1930558037
 31
0.0
  0
SPLINE
  5
9E
330
1F
100
AcDbEntity
  8
0
  6
Continuous
 62
     7
370
    15
100
AcDbSpline
210
0.0
220
0.0
230
1.0
 70
    24
 71
     3
 72
     8
 73
     4
 74
     0
 42
0.00000001
 43
0.00000001
 40
0.0
 40
0.0
 40
0.0
 40
0.0
 40
1.0
 40
1.0
 40
1.0
 40
1.0
 10
130.0552939117189
 20
126.1930558037214
 30
0.0
 10
130.5619740198695
 20
126.1930558037214
 30
0.0
 10
131.0572747488431
 20
126.1930558037214
 30
0.0
 10
131.537226743208
 20
126.1930558037214
 30
0.0
  0
LINE
  5
9F
330
1F
100
AcDbEntity
  8
0
  6
Continuous
 62
     7
370
    15
100
AcDbLine
 10
120.3972267432
 20
126.1930558037
 30
0.0
 11
130.0552939117
 21
126.1930558037
 31
0.0
  0
LINE
  5
A0
330
1F
100
AcDbEntity
  8
0
  6
Continuous
 62
     7
370
    15
100
AcDbLine
 10
130.0552939117
 20
76.1561381075
 30
0.0
 11
128.3972267432
 21
76.1561381075
 31
0.0
  0
SPLINE
  5
A1
330
1F
100
AcDbEntity
  8
0
  6
Continuous
 62
     7
370
    15
100
AcDbSpline
210
0.0
220
0.0
230
1.0
 70
     8
 71
     3
 72
    28
 73
    24
 74
     0
 42
0.00000001
 43
0.00000001
 40
0.0
 40
0.0
 40
0.0
 40
0.0
 40
0.1250000000000001
 40
0.1250000000000001
 40
0.1875000000000001
 40
0.1875000000000001
 40
0.2500000000000001
 40
0.2500000000000001
 40
0.3749999999999999
 40
0.3749999999999999
 40
0.4375
 40
0.4375
 40
0.4999999999999999
 40
0.4999999999999999
 40
0.6249999999999999
 40
0.6249999999999999
 40
0.7499999999999997
 40
0.7499999999999997
 40
0.8124999999999998
 40
0.8124999999999998
 40
0.8749999999999998
 40
0.8749999999999998
 40
1.0
 40
1.0
 40
1.0
 40
1.0
 10
128.397226743208
 20
76.15613810747426
 30
0.0
 10
127.8655189857151
 20
76.15613810747426
 30
0.0
 10
127.3432804204047
 20
76.14035339352405
 30
0.0
 10
126.5734099341297
 20
76.09535797944785
 30
0.0
 10
126.3190503619384
 20
76.07680298437211
 30
0.0
 10
125.8149287812399
 20
76.0329502619256
 30
0.0
 10
125.565205963812
 20
76.00760565497342
 30
0.0
 10
124.8396160123656
 20
75.92420357722332
 30
0.0
 10
124.381255750784
 20
75.85833801807223
 30
0.0
 10
123.7307578073901
 20
75.74936767758044
 30
0.0
 10
123.5190757565977
 20
75.7111280418138
 30
0.0
 10
123.1150042674597
 20
75.63336930439444
 30
0.0
 10
122.9224977536388
 20
75.59386834221907
 30
0.0
 10
122.3726627826175
 20
75.47496059985308
 30
0.0
 10
122.0427340043087
 20
75.39514291842848
 30
0.0
 10
121.45826273574
 20
75.2417997566324
 30
0.0
 10
121.2119855977266
 20
75.17046600336316
 30
0.0
 10
120.9121428050285
 20
75.07652249628853
 30
0.0
 10
120.8236859479563
 20
75.0473287029286
 30
0.0
 10
120.6703245946512
 20
74.99386212866519
 30
0.0
 10
120.605236380425
 20
74.96950279439001
 30
0.0
 10
120.4496423644842
 20
74.90591264894528
 30
0.0
 10
120.397226743208
 20
74.87580971385601
 30
0.0
 10
120.397226743208
 20
74.8589328208591
 30
0.0
  0
LINE
  5
A2
330
1F
100
AcDbEntity
  8
0
  6
Continuous
 62
     7
370
    15
100
AcDbLine
 10
120.3972267432
 20
74.8589328209
 30
0.0
 11
120.3972267432
 21
74.8430558037
 31
0.0
  0
SPLINE
  5
A3
330
1F
100
AcDbEntity
  8
0
  6
Continuous
 62
     7
370
    15
100
AcDbSpline
210
0.0
220
0.0
230
1.0
 70
     8
 71
     3
 72
    17
 73
    13
 74
     0
 42
0.00000001
 43
0.00000001
 40
0.0
 40
0.0
 40
0.0
 40
0.0
 40
0.1034796923964056
 40
0.210023918880785
 40
0.3134862136955583
 40
0.4198361274354882
 40
0.5254127712915682
 40
0.633961069541979
 40
0.7409508756305031
 40
0.8511696089308174
 40
0.9558996534551937
 40
1.0
 40
1.0
 40
1.0
 40
1.0
 10
128.397226743208
 20
136.8102512768857
 30
0.0
 10
127.961978394098
 20
136.815699473419
 30
0.0
 10
127.078591887533
 20
136.8267572139308
 30
0.0
 10
125.7977643023043
 20
136.9131156068324
 30
0.0
 10
124.5803477664303
 20
137.0409857833702
 30
0.0
 10
123.4725419141837
 20
137.1999310819633
 30
0.0
 10
122.4843031102355
 20
137.3744247696789
 30
0.0
 10
121.659579552704
 20
137.5435906203188
 30
0.0
 10
121.0106260520447
 20
137.6914744028471
 30
0.0
 10
120.593591236583
 20
137.7932649870779
 30
0.0
 10
120.3949945236185
 20
137.8436165096811
 30
0.0
 10
120.4183072450517
 20
137.8377108254587
 30
0.0
 10
120.4252151022892
 20
137.8359608957641
 30
0.0
  0
LINE
  5
A4
330
1F
100
AcDbEntity
  8
0
  6
Continuous
 62
     7
370
    15
100
AcDbLine
 10
130.0552939117
 20
136.8102512769
 30
0.0
 11
128.3972267432
 21
136.8102512769
 31
0.0
  0
LINE
  5
A5
330
1F
100
AcDbEntity
  8
0
  6
Continuous
 62
     7
370
    15
100
AcDbLine
 10
130.0552939117
 20
130.8017454661
 30
0.0
 11
130.0552939117
 21
136.8102512769
 31
0.0
  0
LINE
  5
A6
330
1F
100
AcDbEntity
  8
0
  6
Continuous
 62
     7
370
    15
100
AcDbLine
 10
127.6428470889
 20
130.8017454661
 30
0.0
 11
130.0552939117
 21
130.8017454661
 31
0.0
  0
SPLINE
  5
A7
330
1F
100
AcDbEntity
  8
0
  6
Continuous
 62
     7
370
    15
100
AcDbSpline
210
0.0
220
0.0
230
1.0
 70
     8
 71
     3
 72
    20
 73
    16
 74
     0
 42
0.00000001
 43
0.00000001
 40
0.0
 40
0.0
 40
0.0
 40
0.0
 40
0.2499999999999997
 40
0.2499999999999997
 40
0.3749999999999997
 40
0.3749999999999997
 40
0.4999999999999998
 40
0.4999999999999998
 40
0.6249999999999998
 40
0.6249999999999998
 40
0.7499999999999999
 40
0.7499999999999999
 40
0.8749999999999999
 40
0.8749999999999999
 40
1.0
 40
1.0
 40
1.0
 40
1.0
 10
120.397226743208
 20
126.1930558037214
 30
0.0
 10
120.6456004774961
 20
126.8469182320188
 30
0.0
 10
120.9651705698413
 20
127.450704014016
 30
0.0
 10
121.587476803046
 20
128.2775427501846
 30
0.0
 10
121.8189010634768
 20
128.5399713881375
 30
0.0
 10
122.3401154031265
 20
129.0366340422425
 30
0.0
 10
122.6267358857616
 20
129.267220921264
 30
0.0
 10
123.2462206270692
 20
129.6837751458467
 30
0.0
 10
123.5805210065561
 20
129.8712729478141
 30
0.0
 10
124.3057814791809
 20
130.2026699254506
 30
0.0
 10
124.6876965365714
 20
130.3421739129458
 30
0.0
 10
125.4824847127431
 20
130.5676274204168
 30
0.0
 10
125.8966429069495
 20
130.6542535319604
 30
0.0
 10
126.7621892475309
 20
130.7722343208145
 30
0.0
 10
127.2000768625427
 20
130.8017454660888
 30
0.0
 10
127.6428470888973
 20
130.8017454660888
 30
0.0
  0
SPLINE
  5
A8
330
1F
100
AcDbEntity
  8
0
  6
Continuous
 62
     7
370
    15
100
AcDbSpline
210
0.0
220
0.0
230
1.0
 70
     8
 71
     3
 72
    70
 73
    66
 74
     0
 42
0.00000001
 43
0.00000001
 40
-0.0312500000000001
 40
-0.0312500000000001
 40
0.0
 40
0.0
 40
0.0312499999999999
 40
0.0312499999999999
 40
0.0624999999999998
 40
0.0624999999999998
 40
0.0937499999999997
 40
0.0937499999999997
 40
0.1249999999999996
 40
0.1249999999999996
 40
0.1562499999999994
 40
0.1562499999999994
 40
0.1874999999999993
 40
0.1874999999999993
 40
0.2187499999999992
 40
0.2187499999999992
 40
0.2499999999999991
 40
0.2499999999999991
 40
0.281249999999999
 40
0.281249999999999
 40
0.3124999999999989
 40
0.3124999999999989
 40
0.3437499999999988
 40
0.3437499999999988
 40
0.3749999999999987
 40
0.3749999999999987
 40
0.4062499999999986
 40
0.4062499999999986
 40
0.4374999999999984
 40
0.4374999999999984
 40
0.4687499999999983
 40
0.4687499999999983
 40
0.4999999999999982
 40
0.4999999999999982
 40
0.5312499999999983
 40
0.5312499999999983
 40
0.5624999999999984
 40
0.5624999999999984
 40
0.5937499999999986
 40
0.5937499999999986
 40
0.6249999999999987
 40
0.6249999999999987
 40
0.6562499999999988
 40
0.6562499999999988
 40
0.6874999999999989
 40
0.6874999999999989
 40
0.718749999999999
 40
0.718749999999999
 40
0.7499999999999991
 40
0.7499999999999991
 40
0.7812499999999992
 40
0.7812499999999992
 40
0.8124999999999993
 40
0.8124999999999993
 40
0.8437499999999994
 40
0.8437499999999994
 40
0.8749999999999996
 40
0.8749999999999996
 40
0.9062499999999997
 40
0.9062499999999997
 40
0.9374999999999998
 40
0.9374999999999998
 40
0.9687499999999999
 40
0.9687499999999999
 40
1.0
 40
1.0
 40
1.03125
 40
1.03125
 10
123.7117720818681
 20
116.9639626897048
 30
0.0
 10
123.1826814045478
 20
116.9639626897048
 30
0.0
 10
122.9226107371708
 20
116.98863998449
 30
0.0
 10
122.4110360573354
 20
117.0851116575319
 30
0.0
 10
122.1568607735952
 20
117.1580925735119
 30
0.0
 10
121.6725901435334
 20
117.3478331764506
 30
0.0
 10
121.4429490516523
 20
117.4636938348443
 30
0.0
 10
121.0083447034188
 20
117.736311680802
 30
0.0
 10
120.8027789267722
 20
117.8943507628558
 30
0.0
 10
120.4342217861769
 20
118.2378936138264
 30
0.0
 10
120.2687408034415
 20
118.4246560579281
 30
0.0
 10
119.9763162940064
 20
118.8281992323249
 30
0.0
 10
119.8522153173799
 20
119.0416962287541
 30
0.0
 10
119.6526361206301
 20
119.4810795426766
 30
0.0
 10
119.5757025347719
 20
119.7102195298222
 30
0.0
 10
119.4728454762515
 20
120.1761936525822
 30
0.0
 10
119.4473725667924
 20
120.4090760982584
 30
0.0
 10
119.4470821562246
 20
120.8744736333382
 30
0.0
 10
119.4731067900004
 20
121.1093493907325
 30
0.0
 10
119.5752550744923
 20
121.5608425379788
 30
0.0
 10
119.6508315220755
 20
121.7788890133902
 30
0.0
 10
119.8513290532204
 20
122.199983538428
 30
0.0
 10
119.9764578947288
 20
122.4019049229463
 30
0.0
 10
120.2658166957504
 20
122.7739344054652
 30
0.0
 10
120.4312276828059
 20
122.9465627090456
 30
0.0
 10
120.8042182409537
 20
123.2638807135916
 30
0.0
 10
121.0059512740428
 20
123.4036676470932
 30
0.0
 10
121.4388105248707
 20
123.647843900645
 30
0.0
 10
121.6727290577601
 20
123.7530734116865
 30
0.0
 10
122.1569127929027
 20
123.9212305580616
 30
0.0
 10
122.4062284188582
 20
123.9844814486555
 30
0.0
 10
122.9192609432859
 20
124.0700606577581
 30
0.0
 10
123.1845547661905
 20
124.0919328226805
 30
0.0
 10
123.7068893860603
 20
124.0920964723244
 30
0.0
 10
123.966643048542
 20
124.0710947802284
 30
0.0
 10
124.4832548641872
 20
123.9856924251508
 30
0.0
 10
124.7356209046875
 20
123.9216862418638
 30
0.0
 10
125.2171460262204
 20
123.7548717218226
 30
0.0
 10
125.4499967583339
 20
123.6507385584235
 30
0.0
 10
125.8870866067727
 20
123.4047519059285
 30
0.0
 10
126.0884075954299
 20
123.2650020749797
 30
0.0
 10
126.4574936207297
 20
122.9518640052551
 30
0.0
 10
126.6264783717815
 20
122.776407845985
 30
0.0
 10
126.9169344284407
 20
122.4035675818848
 30
0.0
 10
127.0400062398028
 20
122.2054457717738
 30
0.0
 10
127.2413424812248
 20
121.7847344290401
 30
0.0
 10
127.3185550271671
 20
121.5627444083726
 30
0.0
 10
127.4207585700671
 20
121.1128794686642
 30
0.0
 10
127.4469869215194
 20
120.8826240555475
 30
0.0
 10
127.4474633208365
 20
120.4113081129984
 30
0.0
 10
127.4217209083386
 20
120.1780706972843
 30
0.0
 10
127.3204101319747
 20
119.7163941577862
 30
0.0
 10
127.2435774925838
 20
119.4854967706741
 30
0.0
 10
127.0431736533686
 20
119.0432207568824
 30
0.0
 10
126.9205021550765
 20
118.8321583255965
 30
0.0
 10
126.6305548659123
 20
118.4306598148638
 30
0.0
 10
126.4619838865471
 20
118.2397532927879
 30
0.0
 10
126.0937142924339
 20
117.8960279607908
 30
0.0
 10
125.8926524351636
 20
117.7408907745768
 30
0.0
 10
125.4556215165787
 20
117.465813414497
 30
0.0
 10
125.2234733034491
 20
117.348697185075
 30
0.0
 10
124.7424630219502
 20
117.1597707000105
 30
0.0
 10
124.4903629391198
 20
117.0866957296162
 30
0.0
 10
123.9732934528608
 20
116.9886436704817
 30
0.0
 10
123.7117720818681
 20
116.9639626897048
 30
0.0
 10
123.1826814045478
 20
116.9639626897048
 30
0.0
  0
SPLINE
  5
A9
330
1F
100
AcDbEntity
  8
0
  6
Continuous
 62
     7
370
    15
100
AcDbSpline
210
0.0
220
0.0
230
1.0
 70
     8
 71
     3
 72
    70
 73
    66
 74
     0
 42
0.00000001
 43
0.00000001
 40
-0.0312500000000001
 40
-0.0312500000000001
 40
0.0
 40
0.0
 40
0.0312500000000001
 40
0.0312500000000001
 40
0.0625000000000002
 40
0.0625000000000002
 40
0.0937500000000003
 40
0.0937500000000003
 40
0.1250000000000004
 40
0.1250000000000004
 40
0.1562500000000005
 40
0.1562500000000005
 40
0.1875000000000006
 40
0.1875000000000006
 40
0.2187500000000007
 40
0.2187500000000007
 40
0.2500000000000008
 40
0.2500000000000008
 40
0.2812500000000007
 40
0.2812500000000007
 40
0.3125000000000006
 40
0.3125000000000006
 40
0.3437500000000006
 40
0.3437500000000006
 40
0.3750000000000005
 40
0.3750000000000005
 40
0.4062500000000004
 40
0.4062500000000004
 40
0.4375000000000003
 40
0.4375000000000003
 40
0.4687500000000003
 40
0.4687500000000003
 40
0.5000000000000002
 40
0.5000000000000002
 40
0.5312500000000001
 40
0.5312500000000001
 40
0.5625
 40
0.5625
 40
0.5937499999999999
 40
0.5937499999999999
 40
0.6249999999999997
 40
0.6249999999999997
 40
0.6562499999999996
 40
0.6562499999999996
 40
0.6874999999999994
 40
0.6874999999999994
 40
0.7187499999999993
 40
0.7187499999999993
 40
0.7499999999999992
 40
0.7499999999999992
 40
0.7812499999999993
 40
0.7812499999999993
 40
0.8124999999999994
 40
0.8124999999999994
 40
0.8437499999999996
 40
0.8437499999999996
 40
0.8749999999999996
 40
0.8749999999999996
 40
0.9062499999999997
 40
0.9062499999999997
 40
0.9374999999999998
 40
0.9374999999999998
 40
0.9687499999999999
 40
0.9687499999999999
 40
1.0
 40
1.0
 40
1.03125
 40
1.03125
 10
123.7117720818681
 20
131.4020191985006
 30
0.0
 10
123.1826814045479
 20
131.4020191985006
 30
0.0
 10
122.9226107371708
 20
131.4179196389154
 30
0.0
 10
122.4110360573354
 20
131.4798639890896
 30
0.0
 10
122.1568607735952
 20
131.526666223181
 30
0.0
 10
121.6725901435334
 20
131.647643206636
 30
0.0
 10
121.4429490516523
 20
131.7212455344429
 30
0.0
 10
121.0083447034188
 20
131.893069805421
 30
0.0
 10
120.8027789267722
 20
131.9920732283484
 30
0.0
 10
120.4342217861769
 20
132.2051696422612
 30
0.0
 10
120.2687408034415
 20
132.3200693583909
 30
0.0
 10
119.9763162940064
 20
132.5654362570812
 30
0.0
 10
119.8522153173799
 20
132.6938761575515
 30
0.0
 10
119.6526361206301
 20
132.9547683056374
 30
0.0
 10
119.5757025347719
 20
133.0891494769769
 30
0.0
 10
119.4728454762515
 20
133.3584694280832
 30
0.0
 10
119.4473725667924
 20
133.4911506923013
 30
0.0
 10
119.4470821562246
 20
133.7523371664324
 30
0.0
 10
119.4731067900004
 20
133.8821022045971
 30
0.0
 10
119.5752550744923
 20
134.1276848388698
 30
0.0
 10
119.6508315220755
 20
134.2443463761786
 30
0.0
 10
119.8513290532204
 20
134.4662515663331
 30
0.0
 10
119.9764578947288
 20
134.5708628202562
 30
0.0
 10
120.2658166957504
 20
134.7609092318643
 30
0.0
 10
120.4312276828059
 20
134.8476689033139
 30
0.0
 10
120.8042182409537
 20
135.0051732790655
 30
0.0
 10
121.0059512740428
 20
135.0734985438527
 30
0.0
 10
121.4388105248707
 20
135.1917282674719
 30
0.0
 10
121.67272905776
 20
135.2420231835758
 30
0.0
 10
122.1569127929027
 20
135.3218887204654
 30
0.0
 10
122.4062284188581
 20
135.351629848265
 30
0.0
 10
122.9192609432859
 20
135.3917825897732
 30
0.0
 10
123.1845547661905
 20
135.401980859183
 30
0.0
 10
123.7068893860603
 20
135.4020573175678
 30
0.0
 10
123.966643048542
 20
135.3922663059587
 30
0.0
 10
124.4832548641872
 20
135.35219946722
 30
0.0
 10
124.7356209046875
 20
135.3221023003632
 30
0.0
 10
125.2171460262204
 20
135.2428800905329
 30
0.0
 10
125.4499967583339
 20
135.1931226110696
 30
0.0
 10
125.8870866067727
 20
135.0740306686192
 30
0.0
 10
126.0884075954299
 20
135.0057154070719
 30
0.0
 10
126.4574936207297
 20
134.8503144401384
 30
0.0
 10
126.6264783717815
 20
134.7621620980715
 30
0.0
 10
126.9169344284407
 20
134.5717227089551
 30
0.0
 10
127.0400062398028
 20
134.469098131256
 30
0.0
 10
127.2413424812248
 20
134.2474577846479
 30
0.0
 10
127.3185550271671
 20
134.1287037091004
 30
0.0
 10
127.4207585700671
 20
133.8840377701828
 30
0.0
 10
127.4469869215194
 20
133.7568810447342
 30
0.0
 10
127.4474633208365
 20
133.4924328988787
 30
0.0
 10
127.4217209083386
 20
133.3595322186215
 30
0.0
 10
127.3204101319747
 20
133.0927399451394
 30
0.0
 10
127.2435774925838
 20
132.9573760436708
 30
0.0
 10
127.0431736533686
 20
132.6947962483683
 30
0.0
 10
126.9205021550765
 20
132.5678210886146
 30
0.0
 10
126.6305548659123
 20
132.3237417025321
 30
0.0
 10
126.4619838865471
 20
132.2063165777783
 30
0.0
 10
126.0937142924339
 20
131.9931201168299
 30
0.0
 10
125.8926524351636
 20
131.8959459984049
 30
0.0
 10
125.4556215165787
 20
131.7225911111908
 30
0.0
 10
125.2234733034491
 20
131.6481915595341
 30
0.0
 10
124.7424630219502
 20
131.5277386800294
 30
0.0
 10
124.4903629391198
 20
131.4808803047634
 30
0.0
 10
123.9732934528608
 20
131.4179228077797
 30
0.0
 10
123.7117720818681
 20
131.4020191985006
 30
0.0
 10
123.1826814045479
 20
131.4020191985006
 30
0.0
  0
LINE
  5
AA
330
1F
100
AcDbEntity
  8
0
  6
Continuous
 62
     7
370
    15
100
AcDbLine
 10
136.8391595747
 20
76.1561381075
 30
0.0
 11
136.8391595747
 21
126.1930558037
 31
0.0
  0
SPLINE
  5
AB
330
1F
100
AcDbEntity
  8
0
  6
Continuous
 62
     7
370
    15
100
AcDbSpline
210
0.0
220
0.0
230
1.0
 70
     8
 71
     3
 72
     8
 73
     4
 74
     0
 42
0.00000001
 43
0.00000001
 40
0.0
 40
0.0
 40
0.0
 40
0.0
 40
1.0
 40
1.0
 40
1.0
 40
1.0
 10
136.839159574697
 20
76.15613810747426
 30
0.0
 10
136.3436799140313
 20
77.05166419540762
 30
0.0
 10
135.8495658659892
 20
77.94794861045986
 30
0.0
 10
135.357226743208
 20
78.84521864466656
 30
0.0
  0
LINE
  5
AC
330
1F
100
AcDbEntity
  8
0
  6
Continuous
 62
     7
370
    15
100
AcDbLine
 10
135.3572267432
 20
78.8452186447
 30
0.0
 11
135.3572267432
 21
126.1930558037
 31
0.0
  0
SPLINE
  5
AD
330
1F
100
AcDbEntity
  8
0
  6
Continuous
 62
     7
370
    15
100
AcDbSpline
210
0.0
220
0.0
230
1.0
 70
    24
 71
     3
 72
     8
 73
     4
 74
     0
 42
0.00000001
 43
0.00000001
 40
0.0
 40
0.0
 40
0.0
 40
0.0
 40
1.0
 40
1.0
 40
1.0
 40
1.0
 10
135.357226743208
 20
126.1930558037214
 30
0.0
 10
135.8371787375729
 20
126.1930558037214
 30
0.0
 10
136.3324794665465
 20
126.1930558037214
 30
0.0
 10
136.8391595746971
 20
126.1930558037214
 30
0.0
  0
LINE
  5
AE
330
1F
100
AcDbEntity
  8
0
  6
Continuous
 62
     7
370
    15
100
AcDbLine
 10
140.7972267432
 20
76.1561381075
 30
0.0
 11
136.8391595747
 21
76.1561381075
 31
0.0
  0
LINE
  5
AF
330
1F
100
AcDbEntity
  8
0
  6
Continuous
 62
     7
370
    15
100
AcDbLine
 10
136.8391595747
 20
126.1930558037
 30
0.0
 11
140.7972267432
 21
126.1930558037
 31
0.0
  0
LINE
  5
B0
330
1F
100
AcDbEntity
  8
0
  6
Continuous
 62
     7
370
    15
100
AcDbLine
 10
141.3972267432
 20
76.7827784031
 30
0.0
 11
141.3972267432
 21
126.1930558037
 31
0.0
  0
SPLINE
  5
B1
330
1F
100
AcDbEntity
  8
0
  6
Continuous
 62
     7
370
    15
100
AcDbSpline
210
0.0
220
0.0
230
1.0
 70
     8
 71
     3
 72
    10
 73
     6
 74
     0
 42
0.00000001
 43
0.00000001
 40
0.0
 40
0.0
 40
0.0
 40
0.0
 40
0.5
 40
0.5
 40
1.0
 40
1.0
 40
1.0
 40
1.0
 10
141.397226743208
 20
76.78277840312859
 30
0.0
 10
141.397226743208
 20
76.62289113493492
 30
0.0
 10
141.3359170919722
 20
76.46176387942032
 30
0.0
 10
141.1168174544371
 20
76.22766488106548
 30
0.0
 10
140.9587692481236
 20
76.15613810747426
 30
0.0
 10
140.797226743208
 20
76.15613810747426
 30
0.0
  0
SPLINE
  5
B2
330
1F
100
AcDbEntity
  8
0
  6
Continuous
 62
     7
370
    15
100
AcDbSpline
210
0.0
220
0.0
230
1.0
 70
    24
 71
     3
 72
    12
 73
     8
 74
     0
 42
0.00000001
 43
0.00000001
 40
0.0
 40
0.0
 40
0.0
 40
0.0
 40
0.2500000000000033
 40
0.2500000000000033
 40
0.5000000000000067
 40
0.5000000000000067
 40
1.0
 40
1.0
 40
1.0
 40
1.0
 10
140.797226743208
 20
126.1930558037214
 30
0.0
 10
140.887465810895
 20
126.1930558037214
 30
0.0
 10
140.9783639250015
 20
126.1930558037214
 30
0.0
 10
141.1329609614901
 20
126.1930558037214
 30
0.0
 10
141.1979393775982
 20
126.1930558037214
 30
0.0
 10
141.3497744055344
 20
126.1930558037214
 30
0.0
 10
141.397226743208
 20
126.1930558037214
 30
0.0
 10
141.397226743208
 20
126.1930558037214
 30
0.0
  0
LINE
  5
B3
330
1F
100
AcDbEntity
  8
0
  6
Continuous
 62
     7
370
    15
100
AcDbLine
 10
115.4472267432
 20
75.1430558037
 30
0.0
 11
115.4472267432
 21
137.5430558018
 31
0.0
  0
ARC
  5
B4
330
1F
100
AcDbEntity
  8
0
  6
Continuous
 62
     7
370
    15
100
AcDbCircle
 10
123.4444170585
 20
118.2581357309
 30
0.0
 40
4.109279153950275
100
AcDbArc
 50
19.1141868895
 51
159.5565232151
  0
SPLINE
  5
B5
330
1F
100
AcDbEntity
  8
0
  6
Continuous
 62
     7
370
    15
100
AcDbSpline
210
0.0
220
0.0
230
1.0
 70
     8
 71
     3
 72
    10
 73
     6
 74
     0
 42
0.00000001
 43
0.00000001
 40
0.0
 40
0.0
 40
0.0
 40
0.0
 40
0.5
 40
0.5
 40
1.0
 40
1.0
 40
1.0
 40
1.0
 10
131.9315242748989
 20
132.7430558037214
 30
0.0
 10
131.8099840112305
 20
132.8177819709332
 30
0.0
 10
131.7086496508815
 20
132.92672698685
 30
0.0
 10
131.5730107079931
 20
133.1771574676116
 30
0.0
 10
131.537226743208
 20
133.3195768297105
 30
0.0
 10
131.537226743208
 20
133.4627096547572
 30
0.0
  0
SPLINE
  5
B6
330
1F
100
AcDbEntity
  8
0
  6
Continuous
 62
     7
370
    15
100
AcDbSpline
210
0.0
220
0.0
230
1.0
 70
    24
 71
     3
 72
    12
 73
     8
 74
     0
 42
0.00000001
 43
0.00000001
 40
0.0
 40
0.0
 40
0.0
 40
0.0
 40
0.2500000000000037
 40
0.2500000000000037
 40
0.5000000000000074
 40
0.5000000000000074
 40
1.0
 40
1.0
 40
1.0
 40
1.0
 10
132.337226743208
 20
132.7430558037214
 30
0.0
 10
132.2873500608905
 20
132.7430558037214
 30
0.0
 10
132.2393468674869
 20
132.7430558037214
 30
0.0
 10
132.156298764775
 20
132.7430558037214
 30
0.0
 10
132.1201691853071
 20
132.7430558037214
 30
0.0
 10
132.0242571543629
 20
132.7430558037214
 30
0.0
 10
131.9744984863941
 20
132.7430558037214
 30
0.0
 10
131.9315242748989
 20
132.7430558037214
 30
0.0
  0
SPLINE
  5
B7
330
1F
100
AcDbEntity
  8
0
  6
Continuous
 62
     7
370
    15
100
AcDbSpline
210
0.0
220
0.0
230
1.0
 70
    24
 71
     3
 72
    14
 73
    10
 74
     0
 42
0.00000001
 43
0.00000001
 40
0.0
 40
0.0
 40
0.0
 40
0.0
 40
0.1249999999999991
 40
0.1249999999999991
 40
0.2499999999999982
 40
0.2499999999999982
 40
0.4999999999999998
 40
0.4999999999999998
 40
1.0
 40
1.0
 40
1.0
 40
1.0
 10
132.337226743208
 20
79.94305580372144
 30
0.0
 10
132.2687888953215
 20
79.94305580372144
 30
0.0
 10
132.2032388565565
 20
79.94305580372144
 30
0.0
 10
132.0988122171485
 20
79.94305580372144
 30
0.0
 10
132.0562676073872
 20
79.94305580372144
 30
0.0
 10
131.9436581468469
 20
79.94305580372142
 30
0.0
 10
131.8881190998274
 20
79.94305580372144
 30
0.0
 10
131.7455074043636
 20
79.94305580372142
 30
0.0
 10
131.6821020493678
 20
79.94305580372142
 30
0.0
 10
131.6349015455403
 20
79.94305580372144
 30
0.0
  0
SPLINE
  5
B8
330
1F
100
AcDbEntity
  8
0
  6
Continuous
 62
     7
370
    15
100
AcDbSpline
210
0.0
220
0.0
230
1.0
 70
     8
 71
     3
 72
    10
 73
     6
 74
     0
 42
0.00000001
 43
0.00000001
 40
0.0
 40
0.0
 40
0.0
 40
0.0
 40
0.5
 40
0.5
 40
1.0
 40
1.0
 40
1.0
 40
1.0
 10
131.537226743208
 20
126.4789224351828
 30
0.0
 10
131.537226743208
 20
126.4311509271895
 30
0.0
 10
131.5393879868051
 20
126.3834412051278
 30
0.0
 10
131.5480593606653
 20
126.2881460875795
 30
0.0
 10
131.5545885436213
 20
126.2404535236129
 30
0.0
 10
131.5633743663682
 20
126.1930558037214
 30
0.0
  0
SPLINE
  5
B9
330
1F
100
AcDbEntity
  8
0
  6
Continuous
 62
     7
370
    15
100
AcDbSpline
210
0.0
220
0.0
230
1.0
 70
    24
 71
     3
 72
    14
 73
    10
 74
     0
 42
0.00000001
 43
0.00000001
 40
0.0
 40
0.0
 40
0.0
 40
0.0
 40
0.5000000000000013
 40
0.5000000000000013
 40
0.750000000000002
 40
0.750000000000002
 40
0.875000000000001
 40
0.875000000000001
 40
1.0
 40
1.0
 40
1.0
 40
1.0
 10
135.2595519408757
 20
79.94305580372144
 30
0.0
 10
135.2127672358275
 20
79.94305580372142
 30
0.0
 10
135.1507160390479
 20
79.94305580372144
 30
0.0
 10
135.0073244004973
 20
79.94305580372144
 30
0.0
 10
134.9511807469461
 20
79.94305580372142
 30
0.0
 10
134.8382297248099
 20
79.94305580372142
 30
0.0
 10
134.7952289627718
 20
79.94305580372144
 30
0.0
 10
134.6911662524653
 20
79.94305580372142
 30
0.0
 10
134.6258340141084
 20
79.94305580372144
 30
0.0
 10
134.557226743208
 20
79.94305580372144
 30
0.0
  0
SPLINE
  5
BA
330
1F
100
AcDbEntity
  8
0
  6
Continuous
 62
     7
370
    15
100
AcDbSpline
210
0.0
220
0.0
230
1.0
 70
    24
 71
     3
 72
    12
 73
     8
 74
     0
 42
0.00000001
 43
0.00000001
 40
0.0
 40
0.0
 40
0.0
 40
0.0
 40
0.5000000000000017
 40
0.5000000000000017
 40
0.7500000000000008
 40
0.7500000000000008
 40
1.0
 40
1.0
 40
1.0
 40
1.0
 10
134.962929211517
 20
132.7430558037214
 30
0.0
 10
134.9198436619061
 20
132.7430558037214
 30
0.0
 10
134.8706914601568
 20
132.7430558037214
 30
0.0
 10
134.7742188658688
 20
132.7430558037214
 30
0.0
 10
134.7381172807343
 20
132.7430558037214
 30
0.0
 10
134.655011522873
 20
132.7430558037214
 30
0.0
 10
134.6070149259067
 20
132.7430558037214
 30
0.0
 10
134.557226743208
 20
132.7430558037214
 30
0.0
  0
SPLINE
  5
BB
330
1F
100
AcDbEntity
  8
0
  6
Continuous
 62
     7
370
    15
100
AcDbSpline
210
0.0
220
0.0
230
1.0
 70
     8
 71
     3
 72
    10
 73
     6
 74
     0
 42
0.00000001
 43
0.00000001
 40
0.0
 40
0.0
 40
0.0
 40
0.0
 40
0.5
 40
0.5
 40
1.0
 40
1.0
 40
1.0
 40
1.0
 10
135.357226743208
 20
133.4627096547572
 30
0.0
 10
135.357226743208
 20
133.3189395969392
 30
0.0
 10
135.3211776844891
 20
133.176520234444
 30
0.0
 10
135.1856688237151
 20
132.9266259410868
 30
0.0
 10
135.0857928306189
 20
132.8185956048386
 30
0.0
 10
134.962929211517
 20
132.7430558037214
 30
0.0
  0
SPLINE
  5
BC
330
1F
100
AcDbEntity
  8
0
  6
Continuous
 62
     7
370
    15
100
AcDbSpline
210
0.0
220
0.0
230
1.0
 70
     8
 71
     3
 72
    10
 73
     6
 74
     0
 42
0.00000001
 43
0.00000001
 40
0.0
 40
0.0
 40
0.0
 40
0.0
 40
0.5
 40
0.5
 40
1.0
 40
1.0
 40
1.0
 40
1.0
 10
135.3310791200479
 20
126.1930558037214
 30
0.0
 10
135.3397687629595
 20
126.2399346530396
 30
0.0
 10
135.34630782771
 20
126.2873571184408
 30
0.0
 10
135.3550664621031
 20
126.3832939170276
 30
0.0
 10
135.357226743208
 20
126.4312092050381
 30
0.0
 10
135.357226743208
 20
126.4789224351826
 30
0.0
  0
LINE
  5
BD
330
1F
100
AcDbEntity
  8
0
  6
Continuous
 62
     7
370
    15
100
AcDbLine
 10
134.5572267432
 20
132.7430558037
 30
0.0
 11
132.3372267432
 21
132.7430558037
 31
0.0
  0
LINE
  5
BE
330
1F
100
AcDbEntity
  8
0
  6
Continuous
 62
     7
370
    15
100
AcDbLine
 10
134.5572267432
 20
79.9430558037
 30
0.0
 11
132.3372267432
 21
79.9430558037
 31
0.0
  0
LINE
  5
BF
330
1F
100
AcDbEntity
  8
0
  6
Continuous
 62
     7
370
    15
100
AcDbLine
 10
141.5972255117
 20
132.7430558037
 30
0.0
 11
141.577704661
 21
132.7430558037
 31
0.0
  0
LINE
  5
C0
330
1F
100
AcDbEntity
  8
0
  6
Continuous
 62
     7
370
    15
100
AcDbLine
 10
141.5972254605
 20
79.9430558037
 30
0.0
 11
141.5795458049
 21
79.9430558037
 31
0.0
  0
SPLINE
  5
C1
330
1F
100
AcDbEntity
  8
0
  6
Continuous
 62
     7
370
    15
100
AcDbSpline
210
0.0
220
0.0
230
1.0
 70
     8
 71
     3
 72
    66
 73
    62
 74
     0
 42
0.00000001
 43
0.00000001
 40
-0.0312500000000003
 40
-0.0312500000000003
 40
0.0
 40
0.0
 40
0.0312499999999998
 40
0.0312499999999998
 40
0.0624999999999996
 40
0.0624999999999996
 40
0.0937499999999993
 40
0.0937499999999993
 40
0.1249999999999991
 40
0.1249999999999991
 40
0.1562499999999989
 40
0.1562499999999989
 40
0.1874999999999987
 40
0.1874999999999987
 40
0.2187499999999984
 40
0.2187499999999984
 40
0.2499999999999982
 40
0.2499999999999982
 40
0.2812499999999981
 40
0.2812499999999981
 40
0.3124999999999979
 40
0.3124999999999979
 40
0.3437499999999977
 40
0.3437499999999977
 40
0.3749999999999976
 40
0.3749999999999976
 40
0.4062499999999974
 40
0.4062499999999974
 40
0.4374999999999972
 40
0.4374999999999972
 40
0.4687499999999971
 40
0.4687499999999971
 40
0.4999999999999969
 40
0.4999999999999969
 40
0.5312499999999967
 40
0.5312499999999967
 40
0.5624999999999964
 40
0.5624999999999964
 40
0.5937499999999962
 40
0.5937499999999962
 40
0.624999999999996
 40
0.624999999999996
 40
0.6874999999999967
 40
0.6874999999999967
 40
0.7499999999999973
 40
0.7499999999999973
 40
0.7812499999999977
 40
0.7812499999999977
 40
0.812499999999998
 40
0.812499999999998
 40
0.8437499999999983
 40
0.8437499999999983
 40
0.8749999999999987
 40
0.8749999999999987
 40
0.906249999999999
 40
0.906249999999999
 40
0.9374999999999993
 40
0.9374999999999993
 40
0.9687499999999997
 40
0.9687499999999997
 40
1.0
 40
1.0
 40
1.03125
 40
1.03125
 10
146.8586995168891
 20
108.5269743951822
 30
0.0
 10
147.1963592324637
 20
108.808626892569
 30
0.0
 10
147.37588975904
 20
108.9310648474289
 30
0.0
 10
147.7545151174018
 20
109.142450778917
 30
0.0
 10
147.955181086851
 20
109.2318722337001
 30
0.0
 10
148.3693070437054
 20
109.3740780906019
 30
0.0
 10
148.58025935196
 20
109.4263322672036
 30
0.0
 10
149.0096338569574
 20
109.4947159306874
 30
0.0
 10
149.230159413414
 20
109.5107030991387
 30
0.0
 10
149.6666470173323
 20
109.5048814396953
 30
0.0
 10
149.8825789736495
 20
109.4835352213235
 30
0.0
 10
150.3098456591352
 20
109.4041504374434
 30
0.0
 10
150.5232027826994
 20
109.3452003234458
 30
0.0
 10
150.9311436426708
 20
109.1926435429557
 30
0.0
 10
151.1265015603595
 20
109.0993315298697
 30
0.0
 10
151.4995541027053
 20
108.8776566342193
 30
0.0
 10
151.6789223879836
 20
108.7475411463489
 30
0.0
 10
152.0044567821694
 20
108.459621684389
 30
0.0
 10
152.1519428008741
 20
108.3015770136223
 30
0.0
 10
152.4145427388807
 20
107.9555376912061
 30
0.0
 10
152.5300409917914
 20
107.7655775066415
 30
0.0
 10
152.7139053770665
 20
107.3723951607334
 30
0.0
 10
152.7841475795618
 20
107.1673444090442
 30
0.0
 10
152.8779429743478
 20
106.7389971710513
 30
0.0
 10
152.9000616021345
 20
106.5194944761787
 30
0.0
 10
152.8938034625599
 20
106.0848855869881
 30
0.0
 10
152.8650887127472
 20
105.8647008801998
 30
0.0
 10
152.7593760041903
 20
105.4403985624423
 30
0.0
 10
152.6832886753236
 20
105.2364662637199
 30
0.0
 10
152.4862839456246
 20
104.8444281310794
 30
0.0
 10
152.3666935653617
 20
104.6597944470964
 30
0.0
 10
152.0944203120723
 20
104.3202543234181
 30
0.0
 10
151.9391462078604
 20
104.1625038424077
 30
0.0
 10
151.6044729724962
 20
103.8822837830133
 30
0.0
 10
151.4252275900635
 20
103.7591987427137
 30
0.0
 10
151.0439494185354
 20
103.5454805416702
 30
0.0
 10
150.8421907216675
 20
103.4555305106304
 30
0.0
 10
150.4310058986703
 20
103.3137626662368
 30
0.0
 10
150.219802212966
 20
103.2608762683097
 30
0.0
 10
149.7860568002487
 20
103.1913921370154
 30
0.0
 10
149.5674645871226
 20
103.1756068050495
 30
0.0
 10
148.9158470166929
 20
103.1835829379135
 30
0.0
 10
148.4766488291367
 20
103.264512789832
 30
0.0
 10
147.6641102655385
 20
103.5675516464571
 30
0.0
 10
147.2789958350309
 20
103.7944061400535
 30
0.0
 10
146.7923595499837
 20
104.2241956441132
 30
0.0
 10
146.6425970455321
 20
104.3842066146173
 30
0.0
 10
146.3775391479339
 20
104.7339151085332
 30
0.0
 10
146.2650658041937
 20
104.9193922193741
 30
0.0
 10
146.0811612925784
 20
105.3121517657546
 30
0.0
 10
146.0092188873142
 20
105.5226280954746
 30
0.0
 10
145.9162595544965
 20
105.9493798028249
 30
0.0
 10
145.8943204396822
 20
106.1655723264292
 30
0.0
 10
145.9007427296965
 20
106.6037342505723
 30
0.0
 10
145.9297934387805
 20
106.8235447607846
 30
0.0
 10
146.0352932834655
 20
107.2461631896973
 30
0.0
 10
146.1130401010695
 20
107.4540397245592
 30
0.0
 10
146.3100343345468
 20
107.8447191197523
 30
0.0
 10
146.4284670695407
 20
108.0275326517445
 30
0.0
 10
146.703186610678
 20
108.3694514351332
 30
0.0
 10
146.8586995168891
 20
108.5269743951822
 30
0.0
 10
147.1963592324637
 20
108.808626892569
 30
0.0
  0
CIRCLE
  5
C2
330
1F
100
AcDbEntity
  8
0
  6
Continuous
 62
     7
370
    15
100
AcDbCircle
 10
149.3972267432
 20
106.3430558037
 30
0.0
 40
2.5
  0
LINE
  5
C3
330
1F
100
AcDbEntity
  8
0
  6
Continuous
 62
     7
370
    15
100
AcDbLine
 10
147.0275293738
 20
132.238915732
 30
0.0
 11
147.3489669348
 21
132.2172492728
 31
0.0
  0
SPLINE
  5
C4
330
1F
100
AcDbEntity
  8
0
  6
Continuous
 62
     7
370
    15
100
AcDbSpline
210
0.0
220
0.0
230
1.0
 70
     8
 71
     3
 72
    26
 73
    22
 74
     0
 42
0.00000001
 43
0.00000001
 40
0.0
 40
0.0
 40
0.0
 40
0.0
 40
0.047039815658196
 40
0.091967695437122
 40
0.1381171933628072
 40
0.1847080749806176
 40
0.2324443722254657
 40
0.2832199608481639
 40
0.3352264682669703
 40
0.3908530776335189
 40
0.4479045394338648
 40
0.5070795108640854
 40
0.5679003610780422
 40
0.6282257647049727
 40
0.6903849864815291
 40
0.7491025101801492
 40
0.8098053446494091
 40
0.8639353476204596
 40
0.9200203185742012
 40
0.9684430565415986
 40
1.0
 40
1.0
 40
1.0
 40
1.0
 10
152.895878048616
 20
132.3429094050489
 30
0.0
 10
152.8881930957889
 20
132.3420647819192
 30
0.0
 10
152.8731682197098
 20
132.3404134565116
 30
0.0
 10
152.7458625399402
 20
132.3267484001288
 30
0.0
 10
152.5516694414468
 20
132.3068509328588
 30
0.0
 10
152.2833046367271
 20
132.2812232893849
 30
0.0
 10
151.9446299860286
 20
132.2520008432426
 30
0.0
 10
151.5372539514952
 20
132.2215218947752
 30
0.0
 10
151.059983971252
 20
132.1924008328165
 30
0.0
 10
150.524234628965
 20
132.1682672764992
 30
0.0
 10
149.9370049855278
 20
132.152395470241
 30
0.0
 10
149.3177823101661
 20
132.1476641054373
 30
0.0
 10
148.6890481976338
 20
132.1556133757346
 30
0.0
 10
148.0699015072283
 20
132.1758636157628
 30
0.0
 10
147.4957730390658
 20
132.2056912265345
 30
0.0
 10
146.9774418216955
 20
132.2415356121959
 30
0.0
 10
146.554285537885
 20
132.2770841881191
 30
0.0
 10
146.2236940982512
 20
132.3086456057484
 30
0.0
 10
146.0137130641597
 20
132.3304179390058
 30
0.0
 10
145.905953169687
 20
132.3420996679083
 30
0.0
 10
145.9077814542325
 20
132.341904373107
 30
0.0
 10
145.9085028258484
 20
132.3418273171987
 30
0.0
  0
LINE
  5
C5
330
1F
100
AcDbEntity
  8
0
  6
Continuous
 62
     7
370
    15
100
AcDbLine
 10
147.0275293747
 20
80.4471958714
 30
0.0
 11
146.9529729008
 21
80.4411663867
 31
0.0
  0
SPLINE
  5
C6
330
1F
100
AcDbEntity
  8
0
  6
Continuous
 62
     7
370
    15
100
AcDbSpline
210
0.0
220
0.0
230
1.0
 70
     8
 71
     3
 72
    27
 73
    23
 74
     0
 42
0.00000001
 43
0.00000001
 40
0.0
 40
0.0
 40
0.0
 40
0.0
 40
0.0030585053718261
 40
0.0513649896314746
 40
0.0962912053164462
 40
0.1424310070757685
 40
0.1891730411272508
 40
0.2370612481698169
 40
0.2880640116557955
 40
0.3403048143014908
 40
0.3961385552438009
 40
0.4534076068629748
 40
0.5126918656657949
 40
0.573631595865552
 40
0.6339445232844895
 40
0.6960993493625539
 40
0.7546640991741621
 40
0.8152187551683807
 40
0.8690771302624022
 40
0.92488070796141
 40
0.9730703796946706
 40
0.9999999999999999
 40
0.9999999999999999
 40
0.9999999999999999
 40
0.9999999999999999
 10
145.8998076149351
 20
80.34333621416943
 30
0.0
 10
145.8989568345257
 20
80.34324378450833
 30
0.0
 10
145.8846687030385
 20
80.34169150716832
 30
0.0
 10
145.9377268368458
 20
80.34749351395395
 30
0.0
 10
146.0613597359317
 20
80.3606963971098
 30
0.0
 10
146.2656213640975
 20
80.38153318786858
 30
0.0
 10
146.5396563370184
 20
80.40747929361741
 30
0.0
 10
146.8852599514774
 20
80.43696682274154
 30
0.0
 10
147.2990081755474
 20
80.4674259385204
 30
0.0
 10
147.7823830898297
 20
80.49623892580829
 30
0.0
 10
148.3233819154042
 20
80.51973903716444
 30
0.0
 10
148.9143955868428
 20
80.53466641583978
 30
0.0
 10
149.5357202958527
 20
80.53824828352712
 30
0.0
 10
150.1641527154795
 20
80.52910460403899
 30
0.0
 10
150.7808486448728
 20
80.50779252295737
 30
0.0
 10
151.349932918228
 20
80.47725039296478
 30
0.0
 10
151.861131923328
 20
80.44113202266077
 30
0.0
 10
152.2752436031824
 20
80.40583576405348
 30
0.0
 10
152.5957865289104
 20
80.37493977395226
 30
0.0
 10
152.7950493742107
 20
80.35416295141188
 30
0.0
 10
152.8926028736562
 20
80.34356246306942
 30
0.0
 10
152.8872445832511
 20
80.34414439682448
 30
0.0
 10
152.8853236822125
 20
80.34435301507207
 30
0.0
  0
LINE
  5
C7
330
1F
100
AcDbEntity
  8
0
  6
Continuous
 62
     7
370
    15
100
AcDbLine
 10
93.6472267432
 20
83.1146089099
 30
0.0
 11
93.6472267432
 21
84.3793182725
 31
0.0
  0
SPLINE
  5
C8
330
1F
100
AcDbEntity
  8
0
  6
Continuous
 62
     7
370
    15
100
AcDbSpline
210
0.0
220
0.0
230
1.0
 70
     8
 71
     3
 72
    14
 73
    10
 74
     0
 42
0.00000001
 43
0.00000001
 40
0.0
 40
0.0
 40
0.0
 40
0.0
 40
0.25
 40
0.25
 40
0.5
 40
0.5
 40
0.75
 40
0.75
 40
1.0
 40
1.0
 40
1.0
 40
1.0
 10
92.8689396252923
 20
85.50990448016148
 30
0.0
 10
92.92556630049437
 20
85.40220702632462
 30
0.0
 10
93.0200889607841
 20
85.2994174446053
 30
0.0
 10
93.20313393634633
 20
85.10106013238516
 30
0.0
 10
93.29476051330104
 20
85.0050006237069
 30
0.0
 10
93.45361383099426
 20
84.81747158099766
 30
0.0
 10
93.52150443861595
 20
84.72606260821411
 30
0.0
 10
93.61842146432353
 20
84.54768638730395
 30
0.0
 10
93.64722674320858
 20
84.46046448105777
 30
0.0
 10
93.64722674320858
 20
84.3793182725235
 30
0.0
  0
SPLINE
  5
C9
330
1F
100
AcDbEntity
  8
0
  6
Continuous
 62
     7
370
    15
100
AcDbSpline
210
0.0
220
0.0
230
1.0
 70
     8
 71
     3
 72
    14
 73
    10
 74
     0
 42
0.00000001
 43
0.00000001
 40
0.0
 40
0.0
 40
0.0
 40
0.0
 40
0.124999999999998
 40
0.124999999999998
 40
0.249999999999996
 40
0.249999999999996
 40
0.4999999999999973
 40
0.4999999999999973
 40
1.0
 40
1.0
 40
1.0
 40
1.0
 10
92.24722674320802
 20
85.9565863424408
 30
0.0
 10
92.29577115186517
 20
85.9623346557211
 30
0.0
 10
92.34868650665008
 20
85.95923376706486
 30
0.0
 10
92.44398185163313
 20
85.93703892290253
 30
0.0
 10
92.48423284891807
 20
85.91980669580667
 30
0.0
 10
92.58850286243104
 20
85.86347877935461
 30
0.0
 10
92.63882483758437
 20
85.8192924334088
 30
0.0
 10
92.76650778510974
 20
85.68828453455818
 30
0.0
 10
92.82259323217201
 20
85.59805001432788
 30
0.0
 10
92.86893962529375
 20
85.509904480162
 30
0.0
  0
SPLINE
  5
CA
330
1F
100
AcDbEntity
  8
0
  6
Continuous
 62
     7
370
    15
100
AcDbSpline
210
0.0
220
0.0
230
1.0
 70
     8
 71
     3
 72
     8
 73
     4
 74
     0
 42
0.00000001
 43
0.00000001
 40
0.0
 40
0.0
 40
0.0
 40
0.0
 40
1.0
 40
1.0
 40
1.0
 40
1.0
 10
89.97870165026178
 20
85.64674105585802
 30
0.0
 10
90.71327867674474
 20
85.76536606692697
 30
0.0
 10
91.47675374614039
 20
85.86535193906325
 30
0.0
 10
92.24722674320802
 20
85.9565863424408
 30
0.0
  0
SPLINE
  5
CB
330
1F
100
AcDbEntity
  8
0
  6
Continuous
 62
     7
370
    15
100
AcDbSpline
210
0.0
220
0.0
230
1.0
 70
     8
 71
     3
 72
    14
 73
    10
 74
     0
 42
0.00000001
 43
0.00000001
 40
0.0
 40
0.0
 40
0.0
 40
0.0
 40
0.500000000000001
 40
0.500000000000001
 40
0.7500000000000004
 40
0.7500000000000004
 40
0.8750000000000003
 40
0.8750000000000003
 40
1.0
 40
1.0
 40
1.0
 40
1.0
 10
84.697226743208
 20
85.47311803832636
 30
0.0
 10
85.58937287376159
 20
85.47239581212571
 30
0.0
 10
86.47934930955519
 20
85.47698201858317
 30
0.0
 10
87.80594447663078
 20
85.5047070229747
 30
0.0
 10
88.24679140512953
 20
85.51731356059888
 30
0.0
 10
88.90323164255194
 20
85.54832970860633
 30
0.0
 10
89.12124529914382
 20
85.5606728812331
 30
0.0
 10
89.5539541528266
 20
85.59369693639638
 30
0.0
 10
89.76923061799138
 20
85.61291410153483
 30
0.0
 10
89.9787016502618
 20
85.64674105585802
 30
0.0
  0
SPLINE
  5
CC
330
1F
100
AcDbEntity
  8
0
  6
Continuous
 62
     7
370
    15
100
AcDbSpline
210
0.0
220
0.0
230
1.0
 70
     8
 71
     3
 72
     8
 73
     4
 74
     0
 42
0.00000001
 43
0.00000001
 40
0.0000005163856998
 40
0.0000005163856998
 40
0.0000005163856998
 40
0.0000005163856998
 40
0.000026289209185
 40
0.000026289209185
 40
0.000026289209185
 40
0.000026289209185
 10
84.6871818128004
 20
85.48310191142313
 30
0.0
 10
84.69050955100823
 20
85.47976766455402
 30
0.0
 10
84.69385800398382
 20
85.47643970727871
 30
0.0
 10
84.69722674320798
 20
85.47311803832635
 30
0.0
  0
SPLINE
  5
CD
330
1F
100
AcDbEntity
  8
0
  6
Continuous
 62
     7
370
    15
100
AcDbSpline
210
0.0
220
0.0
230
1.0
 70
     8
 71
     3
 72
     8
 73
     4
 74
     0
 42
0.00000001
 43
0.00000001
 40
0.0000005099763573
 40
0.0000005099763573
 40
0.0000005099763573
 40
0.0000005099763573
 40
0.0000262827998699
 40
0.0000262827998699
 40
0.0000262827998699
 40
0.0000262827998699
 10
84.69722674320798
 20
127.2129935691165
 30
0.0
 10
84.69385800398024
 20
127.2096719001606
 30
0.0
 10
84.6905095510011
 20
127.2063439428817
 30
0.0
 10
84.68718181278976
 20
127.2030096960091
 30
0.0
  0
SPLINE
  5
CE
330
1F
100
AcDbEntity
  8
0
  6
Continuous
 62
     7
370
    15
100
AcDbSpline
210
0.0
220
0.0
230
1.0
 70
     8
 71
     3
 72
    10
 73
     6
 74
     0
 42
0.00000001
 43
0.00000001
 40
0.0
 40
0.0
 40
0.0
 40
0.0
 40
0.5
 40
0.5
 40
1.0
 40
1.0
 40
1.0
 40
1.0
 10
88.247226743208
 20
127.1661431955492
 30
0.0
 10
87.65964119611742
 20
127.1872087157856
 30
0.0
 10
87.06889480265703
 20
127.1979672016578
 30
0.0
 10
85.88487563735818
 20
127.2113319821935
 30
0.0
 10
85.29146164915272
 20
127.2134746248581
 30
0.0
 10
84.697226743208
 20
127.2129935691165
 30
0.0
  0
SPLINE
  5
CF
330
1F
100
AcDbEntity
  8
0
  6
Continuous
 62
     7
370
    15
100
AcDbSpline
210
0.0
220
0.0
230
1.0
 70
     8
 71
     3
 72
    18
 73
    14
 74
     0
 42
0.00000001
 43
0.00000001
 40
0.0
 40
0.0
 40
0.0
 40
0.0
 40
0.2500000000000009
 40
0.2500000000000009
 40
0.500000000000001
 40
0.500000000000001
 40
0.7500000000000011
 40
0.7500000000000011
 40
0.875000000000001
 40
0.875000000000001
 40
0.9375000000000006
 40
0.9375000000000006
 40
1.0
 40
1.0
 40
1.0
 40
1.0
 10
89.64722674320802
 20
128.1871634760844
 30
0.0
 10
89.64722674320802
 20
128.1039565672272
 30
0.0
 10
89.61137764326975
 20
128.0152199119137
 30
0.0
 10
89.48650590723584
 20
127.8330947213534
 30
0.0
 10
89.39610548958795
 20
127.7379646727268
 30
0.0
 10
89.17386283484578
 20
127.5487831636025
 30
0.0
 10
89.04409804840002
 20
127.4538379955077
 30
0.0
 10
88.8034605910885
 20
127.3155592879278
 30
0.0
 10
88.71569329295104
 20
127.2698488546255
 30
0.0
 10
88.56116920574425
 20
127.212025549404
 30
0.0
 10
88.5045583196895
 20
127.1943107853661
 30
0.0
 10
88.38051428878289
 20
127.1697714821332
 30
0.0
 10
88.31279961376461
 20
127.1637923435949
 30
0.0
 10
88.247226743208
 20
127.1661431955492
 30
0.0
  0
LINE
  5
D0
330
1F
100
AcDbEntity
  8
0
  6
Continuous
 62
     7
370
    15
100
AcDbLine
 10
89.6472267432
 20
128.1871634761
 30
0.0
 11
89.6472267432
 21
129.3711018959
 31
0.0
  0
LINE
  5
D1
330
1F
100
AcDbEntity
  8
0
  6
Continuous
 62
     7
370
    15
100
AcDbLine
 10
113.4472267432
 20
82.122624942
 30
0.0
 11
113.4472267432
 21
130.5634866654
 31
0.0
  0
SPLINE
  5
D2
330
1F
100
AcDbEntity
  8
0
  6
Continuous
 62
     7
370
    15
100
AcDbSpline
210
0.0
220
0.0
230
1.0
 70
     8
 71
     3
 72
    18
 73
    14
 74
     0
 42
0.00000001
 43
0.00000001
 40
0.0
 40
0.0
 40
0.0
 40
0.0
 40
0.0010671296451833
 40
0.1270947795731636
 40
0.252405345751277
 40
0.3766468878987097
 40
0.4391415999051428
 40
0.5008278021400407
 40
0.5624255708808511
 40
0.6253162439161145
 40
0.7499985144706707
 40
0.8752758950341254
 40
1.0
 40
1.0
 40
1.0
 40
1.0
 10
102.2175275832807
 20
82.68571678080508
 30
0.0
 10
102.2166157506422
 20
82.68560200226845
 30
0.0
 10
102.1080167920054
 20
82.6719319174025
 30
0.0
 10
102.495657859655
 20
82.72285141801815
 30
0.0
 10
103.3616225414902
 20
82.8224345910646
 30
0.0
 10
104.5620264662601
 20
82.8915584742083
 30
0.0
 10
105.6196023807488
 20
82.89551070334711
 30
0.0
 10
106.4467364676549
 20
82.86802176489208
 30
0.0
 10
107.2720083352892
 20
82.80948158848429
 30
0.0
 10
108.3263735552892
 20
82.69596042874875
 30
0.0
 10
109.4882098367645
 20
82.51280960450009
 30
0.0
 10
110.4404446181481
 20
82.30820639486518
 30
0.0
 10
110.5661496789559
 20
82.2789210440891
 30
0.0
 10
110.6288631111011
 20
82.26431077424841
 30
0.0
  0
SPLINE
  5
D3
330
1F
100
AcDbEntity
  8
0
  6
Continuous
 62
     7
370
    15
100
AcDbSpline
210
0.0
220
0.0
230
1.0
 70
     8
 71
     3
 72
    23
 73
    19
 74
     0
 42
0.00000001
 43
0.00000001
 40
0.0
 40
0.0
 40
0.0
 40
0.0
 40
0.0614757925112171
 40
0.1251497413451839
 40
0.1885399433422982
 40
0.2510149568842258
 40
0.3131568995027461
 40
0.375573418256215
 40
0.437999112377033
 40
0.4993962645249799
 40
0.5609216861286822
 40
0.62332584573302
 40
0.6858855082933845
 40
0.7480024160197727
 40
0.8729912128658166
 40
0.936365507513113
 40
0.9991752183248322
 40
1.0
 40
1.0
 40
1.0
 40
1.0
 10
110.6302385898558
 20
130.4220847781788
 30
0.0
 10
110.6156378654242
 20
130.4187167213533
 30
0.0
 10
110.5859143464355
 20
130.4118601779347
 30
0.0
 10
110.3331765327933
 20
130.3555215569843
 30
0.0
 10
109.9501806087343
 20
130.2726644764638
 30
0.0
 10
109.4278250522509
 20
130.1707574406003
 30
0.0
 10
108.7930404706187
 20
130.062918323475
 30
0.0
 10
108.0628172544993
 20
129.9614512894252
 30
0.0
 10
107.2723472273723
 20
129.8763918807001
 30
0.0
 10
106.4478690117895
 20
129.8181864660044
 30
0.0
 10
105.6208127110491
 20
129.7906072238012
 30
0.0
 10
104.8225636250712
 20
129.7940843001019
 30
0.0
 10
104.0824582426765
 20
129.8210997408881
 30
0.0
 10
103.2236535645575
 20
129.8800255268977
 30
0.0
 10
102.5915317839082
 20
129.9526503502979
 30
0.0
 10
102.2839345185125
 20
129.9914303103847
 30
0.0
 10
102.1884445129689
 20
130.0041956856587
 30
0.0
 10
102.2153783889538
 20
130.0006414547472
 30
0.0
 10
102.2157274852769
 20
130.0005953875215
 30
0.0
  0
LINE
  5
D4
330
1F
100
AcDbEntity
  8
0
  6
Continuous
 62
     7
370
    15
100
AcDbLine
 10
225.4472267432
 20
84.6714829285
 30
0.0
 11
225.4472267432
 21
128.0146286605
 31
0.0
  0
SPLINE
  5
D5
330
1F
100
AcDbEntity
  8
0
  6
Continuous
 62
     7
370
    15
100
AcDbSpline
210
0.0
220
0.0
230
1.0
 70
     8
 71
     3
 72
    10
 73
     6
 74
     0
 42
0.00000001
 43
0.00000001
 40
0.0
 40
0.0
 40
0.0
 40
0.0
 40
0.0840381716606348
 40
0.7011125076933074
 40
1.0
 40
1.0
 40
1.0
 40
1.0
 10
83.56077370574367
 20
86.6142818960381
 30
0.0
 10
83.5614482630786
 20
86.61207626920219
 30
0.0
 10
83.56707595077478
 20
86.59367519583998
 30
0.0
 10
83.59339743090163
 20
86.60790975856315
 30
0.0
 10
83.60583244774635
 20
86.65359553411415
 30
0.0
 10
83.6098901179314
 20
86.66850325894072
 30
0.0
  0
LINE
  5
D6
330
1F
100
AcDbEntity
  8
0
  6
Continuous
 62
     7
370
    15
100
AcDbLine
 10
83.5472267432
 20
86.6523780572
 30
0.0
 11
83.5472267432
 21
126.0337335502
 31
0.0
  0
SPLINE
  5
D7
330
1F
100
AcDbEntity
  8
0
  6
Continuous
 62
     7
370
    15
100
AcDbSpline
210
0.0
220
0.0
230
1.0
 70
     8
 71
     3
 72
    10
 73
     6
 74
     0
 42
0.00000001
 43
0.00000001
 40
0.0
 40
0.0
 40
0.0
 40
0.0
 40
0.5
 40
0.5
 40
1.0
 40
1.0
 40
1.0
 40
1.0
 10
83.6098901179314
 20
126.0176083485022
 30
0.0
 10
83.60098582882267
 20
126.0633498677153
 30
0.0
 10
83.58447044862969
 20
126.0805407071843
 30
0.0
 10
83.55736250256807
 20
126.0802174302486
 30
0.0
 10
83.54722674320801
 20
126.0623398879522
 30
0.0
 10
83.54722674320801
 20
126.0337335501996
 30
0.0
  0
SPLINE
  5
D8
330
1F
100
AcDbEntity
  8
0
  6
Continuous
 62
     7
370
    15
100
AcDbSpline
210
0.0
220
0.0
230
1.0
 70
     8
 71
     3
 72
    26
 73
    22
 74
     0
 42
0.00000001
 43
0.00000001
 40
0.0
 40
0.0
 40
0.0
 40
0.0
 40
0.2500000000000163
 40
0.2500000000000163
 40
0.3750000000000245
 40
0.3750000000000245
 40
0.437500000000028
 40
0.437500000000028
 40
0.4687500000000281
 40
0.4687500000000281
 40
0.5000000000000282
 40
0.5000000000000282
 40
0.5312500000000283
 40
0.5312500000000283
 40
0.5625000000000285
 40
0.5625000000000285
 40
0.6250000000000252
 40
0.6250000000000252
 40
0.7500000000000169
 40
0.7500000000000169
 40
1.0
 40
1.0
 40
1.0
 40
1.0
 10
84.37138038931252
 20
126.7331751373193
 30
0.0
 10
84.33277986644406
 20
126.6154004409638
 30
0.0
 10
84.28648286388979
 20
126.4910107548019
 30
0.0
 10
84.19254351545585
 20
126.2857914224484
 30
0.0
 10
84.15723204854241
 20
126.214218556002
 30
0.0
 10
84.09105207279674
 20
126.0982653234015
 30
0.0
 10
84.06651370612853
 20
126.0576807885913
 30
0.0
 10
84.02314096057471
 20
125.9935391067195
 30
0.0
 10
84.00763255914951
 20
125.9716726814345
 30
0.0
 10
83.97258991456249
 20
125.9260784130913
 30
0.0
 10
83.95303962384273
 20
125.9024081221239
 30
0.0
 10
83.91111234347211
 20
125.8577915627839
 30
0.0
 10
83.88846023324048
 20
125.836911550266
 30
0.0
 10
83.84748651915383
 20
125.8060381365152
 30
0.0
 10
83.82988721925841
 20
125.7961992666828
 30
0.0
 10
83.78526023340227
 20
125.7772096509866
 30
0.0
 10
83.76470101074894
 20
125.7768853263332
 30
0.0
 10
83.71357557125228
 20
125.7861087672094
 30
0.0
 10
83.69266415826374
 20
125.8073556634263
 30
0.0
 10
83.64121425070279
 20
125.8813245422571
 30
0.0
 10
83.62354895139823
 20
125.9474426355719
 30
0.0
 10
83.6098901179314
 20
126.0176083485022
 30
0.0
  0
SPLINE
  5
D9
330
1F
100
AcDbEntity
  8
0
  6
Continuous
 62
     7
370
    15
100
AcDbSpline
210
0.0
220
0.0
230
1.0
 70
     8
 71
     3
 72
    10
 73
     6
 74
     0
 42
0.00000001
 43
0.00000001
 40
0.0
 40
0.0
 40
0.0
 40
0.0
 40
0.5
 40
0.5
 40
1.0
 40
1.0
 40
1.0
 40
1.0
 10
84.68718181278979
 20
127.2030096960091
 30
0.0
 10
84.61962255787155
 20
127.1353183031993
 30
0.0
 10
84.55598590253506
 20
127.0606111384457
 30
0.0
 10
84.44576514796321
 20
126.9016450060191
 30
0.0
 10
84.39894885474058
 20
126.817289740011
 30
0.0
 10
84.37138038931252
 20
126.7331751373193
 30
0.0
  0
SPLINE
  5
DA
330
1F
100
AcDbEntity
  8
0
  6
Continuous
 62
     7
370
    15
100
AcDbSpline
210
0.0
220
0.0
230
1.0
 70
     8
 71
     3
 72
    10
 73
     6
 74
     0
 42
0.00000001
 43
0.00000001
 40
0.0
 40
0.0
 40
0.0
 40
0.0
 40
0.5
 40
0.5
 40
1.0
 40
1.0
 40
1.0
 40
1.0
 10
84.37138038931255
 20
85.95293647012346
 30
0.0
 10
84.39885780406652
 20
85.86909967365558
 30
0.0
 10
84.44556643435594
 20
85.78478918606643
 30
0.0
 10
84.55584489710189
 20
85.62566795557973
 30
0.0
 10
84.6197324357158
 20
85.55068321149008
 30
0.0
 10
84.6871818128004
 20
85.48310191142313
 30
0.0
  0
SPLINE
  5
DB
330
1F
100
AcDbEntity
  8
0
  6
Continuous
 62
     7
370
    15
100
AcDbSpline
210
0.0
220
0.0
230
1.0
 70
     8
 71
     3
 72
    24
 73
    20
 74
     0
 42
0.00000001
 43
0.00000001
 40
0.0
 40
0.0
 40
0.0
 40
0.0
 40
0.2500000000000072
 40
0.2500000000000072
 40
0.3750000000000097
 40
0.3750000000000097
 40
0.4375000000000103
 40
0.4375000000000103
 40
0.4687500000000105
 40
0.4687500000000105
 40
0.5000000000000108
 40
0.5000000000000108
 40
0.5625000000000087
 40
0.5625000000000087
 40
0.6250000000000066
 40
0.6250000000000066
 40
0.7500000000000026
 40
0.7500000000000026
 40
1.0
 40
1.0
 40
1.0
 40
1.0
 10
83.6098901179314
 20
86.66850325894069
 30
0.0
 10
83.62364323660164
 20
86.73915331693097
 30
0.0
 10
83.64141580400751
 20
86.8057514296959
 30
0.0
 10
83.69366689556287
 20
86.8798494499291
 30
0.0
 10
83.71470197114442
 20
86.90110725709066
 30
0.0
 10
83.76760237877286
 20
86.9092531832369
 30
0.0
 10
83.78870805165079
 20
86.90831337984113
 30
0.0
 10
83.83476022032873
 20
86.88729738826379
 30
0.0
 10
83.85313069231213
 20
86.87638858215617
 30
0.0
 10
83.89468232737782
 20
86.84375367120879
 30
0.0
 10
83.91724900013475
 20
86.82226169083742
 30
0.0
 10
83.9800300165948
 20
86.75379574725112
 30
0.0
 10
84.01315977756268
 20
86.70772128904602
 30
0.0
 10
84.07007746404767
 20
86.62271340071136
 30
0.0
 10
84.09426348955144
 20
86.58243309952996
 30
0.0
 10
84.15947143993121
 20
86.46749687306402
 30
0.0
 10
84.19418750012245
 20
86.39691388791702
 30
0.0
 10
84.28740277045333
 20
86.19270812883842
 30
0.0
 10
84.333075305814
 20
86.06980974651104
 30
0.0
 10
84.37138038931255
 20
85.95293647012348
 30
0.0
  0
LINE
  5
DC
330
1F
100
AcDbEntity
  8
0
  6
Continuous
 62
     7
370
    15
100
AcDbLine
 10
140.7972267432
 20
136.8102512769
 30
0.0
 11
136.8391595747
 21
136.8102512769
 31
0.0
  0
LINE
  5
DD
330
1F
100
AcDbEntity
  8
0
  6
Continuous
 62
     7
370
    15
100
AcDbLine
 10
136.8391595747
 20
130.8017454661
 30
0.0
 11
140.7972267432
 21
130.8017454661
 31
0.0
  0
LINE
  5
DE
330
1F
100
AcDbEntity
  8
0
  6
Continuous
 62
     7
370
    15
100
AcDbLine
 10
136.8391595747
 20
130.8017454661
 30
0.0
 11
136.8391595747
 21
136.8102512769
 31
0.0
  0
SPLINE
  5
DF
330
1F
100
AcDbEntity
  8
0
  6
Continuous
 62
     7
370
    15
100
AcDbSpline
210
0.0
220
0.0
230
1.0
 70
     8
 71
     3
 72
     8
 73
     4
 74
     0
 42
0.00000001
 43
0.00000001
 40
0.0
 40
0.0
 40
0.0
 40
0.0
 40
1.0
 40
1.0
 40
1.0
 40
1.0
 10
131.537226743208
 20
134.148289994893
 30
0.0
 10
131.0445166463622
 20
135.0363089930194
 30
0.0
 10
130.5504339410833
 20
135.9235716287054
 30
0.0
 10
130.0552939117189
 20
136.8102512768857
 30
0.0
  0
LINE
  5
E0
330
1F
100
AcDbEntity
  8
0
  6
Continuous
 62
     7
370
    15
100
AcDbLine
 10
131.5372267432
 20
127.3931994713
 30
0.0
 11
131.5372267432
 21
134.1482899949
 31
0.0
  0
SPLINE
  5
E1
330
1F
100
AcDbEntity
  8
0
  6
Continuous
 62
     7
370
    15
100
AcDbSpline
210
0.0
220
0.0
230
1.0
 70
     8
 71
     3
 72
     8
 73
     4
 74
     0
 42
0.00000001
 43
0.00000001
 40
0.0
 40
0.0
 40
0.0
 40
0.0
 40
1.0
 40
1.0
 40
1.0
 40
1.0
 10
130.0552939117189
 20
130.8017454660888
 30
0.0
 10
130.5623807534782
 20
129.6705951119252
 30
0.0
 10
131.0579485926181
 20
128.5342107011574
 30
0.0
 10
131.537226743208
 20
127.3931994713048
 30
0.0
  0
LINE
  5
E2
330
1F
100
AcDbEntity
  8
0
  6
Continuous
 62
     7
370
    15
100
AcDbLine
 10
131.5372267432
 20
127.3931994713
 30
0.0
 11
131.5372267432
 21
126.4789224352
 31
0.0
  0
SPLINE
  5
E3
330
1F
100
AcDbEntity
  8
0
  6
Continuous
 62
     7
370
    15
100
AcDbSpline
210
0.0
220
0.0
230
1.0
 70
     8
 71
     3
 72
    10
 73
     6
 74
     0
 42
0.00000001
 43
0.00000001
 40
0.0
 40
0.0
 40
0.0
 40
0.0
 40
0.5
 40
0.5
 40
1.0
 40
1.0
 40
1.0
 40
1.0
 10
141.397226743208
 20
136.1894961274853
 30
0.0
 10
141.397226743208
 20
136.3499013938361
 30
0.0
 10
141.3349889121012
 20
136.5089632068247
 30
0.0
 10
141.1158539883586
 20
136.739875672455
 30
0.0
 10
140.9582652933667
 20
136.8102512768857
 30
0.0
 10
140.797226743208
 20
136.8102512768857
 30
0.0
  0
SPLINE
  5
E4
330
1F
100
AcDbEntity
  8
0
  6
Continuous
 62
     7
370
    15
100
AcDbSpline
210
0.0
220
0.0
230
1.0
 70
     8
 71
     3
 72
    12
 73
     8
 74
     0
 42
0.00000001
 43
0.00000001
 40
0.0
 40
0.0
 40
0.0
 40
0.0
 40
0.250000000000002
 40
0.250000000000002
 40
0.500000000000004
 40
0.500000000000004
 40
1.0
 40
1.0
 40
1.0
 40
1.0
 10
140.797226743208
 20
130.8017454660889
 30
0.0
 10
140.8884264650337
 20
130.8017454660889
 30
0.0
 10
140.9790214741697
 20
130.773525767501
 30
0.0
 10
141.1324342006163
 20
130.6790827602529
 30
0.0
 10
141.19764306794
 20
130.6127957835476
 30
0.0
 10
141.3504275972799
 20
130.3871709602593
 30
0.0
 10
141.397226743208
 20
130.2047446972267
 30
0.0
 10
141.397226743208
 20
130.0240080649798
 30
0.0
  0
LINE
  5
E5
330
1F
100
AcDbEntity
  8
0
  6
Continuous
 62
     7
370
    15
100
AcDbLine
 10
141.3972267432
 20
130.024008065
 30
0.0
 11
141.3972267432
 21
136.1894961275
 31
0.0
  0
SPLINE
  5
E6
330
1F
100
AcDbEntity
  8
0
  6
Continuous
 62
     7
370
    15
100
AcDbSpline
210
0.0
220
0.0
230
1.0
 70
     8
 71
     3
 72
     8
 73
     4
 74
     0
 42
0.00000001
 43
0.00000001
 40
0.0
 40
0.0
 40
0.0
 40
0.0
 40
1.0
 40
1.0
 40
1.0
 40
1.0
 10
135.357226743208
 20
127.3931994713047
 30
0.0
 10
135.8365048937978
 20
128.5342107011573
 30
0.0
 10
136.3320727329378
 20
129.6705951119252
 30
0.0
 10
136.839159574697
 20
130.8017454660888
 30
0.0
  0
LINE
  5
E7
330
1F
100
AcDbEntity
  8
0
  6
Continuous
 62
     7
370
    15
100
AcDbLine
 10
135.3572267432
 20
126.4789224352
 30
0.0
 11
135.3572267432
 21
127.3931994713
 31
0.0
  0
LINE
  5
E8
330
1F
100
AcDbEntity
  8
0
  6
Continuous
 62
     7
370
    15
100
AcDbLine
 10
141.3972267432
 20
130.024008065
 30
0.0
 11
141.3972267432
 21
126.1930558037
 31
0.0
  0
SPLINE
  5
E9
330
1F
100
AcDbEntity
  8
0
  6
Continuous
 62
     7
370
    15
100
AcDbSpline
210
0.0
220
0.0
230
1.0
 70
     8
 71
     3
 72
     8
 73
     4
 74
     0
 42
0.00000001
 43
0.00000001
 40
0.0
 40
0.0
 40
0.0
 40
0.0
 40
1.0
 40
1.0
 40
1.0
 40
1.0
 10
136.839159574697
 20
136.8102512768857
 30
0.0
 10
136.3440195453327
 20
135.9235716287054
 30
0.0
 10
135.8499368400537
 20
135.0363089930194
 30
0.0
 10
135.357226743208
 20
134.148289994893
 30
0.0
  0
LINE
  5
EA
330
1F
100
AcDbEntity
  8
0
  6
Continuous
 62
     7
370
    15
100
AcDbLine
 10
135.3572267432
 20
127.3931994713
 30
0.0
 11
135.3572267432
 21
134.1482899949
 31
0.0
  0
ARC
  5
EB
330
1F
100
AcDbEntity
  8
0
  6
Continuous
 62
     7
370
    15
100
AcDbCircle
 10
123.4474527234
 20
125.0441477985
 30
0.0
 40
7.253774253418186
100
AcDbArc
 50
70.9722171151
 51
109.0909941607
  0
LINE
  5
EC
330
1F
100
AcDbEntity
  8
0
  6
Continuous
 62
     7
370
    15
100
AcDbLine
 10
156.869876474
 20
80.3430558037
 30
0.0
 11
156.869876474
 21
132.3430558037
 31
0.0
  0
LINE
  5
ED
330
1F
100
AcDbEntity
  8
0
  6
Continuous
 62
     7
370
    15
100
AcDbLine
 10
156.869876474
 20
132.3430558037
 30
0.0
 11
156.869876474
 21
80.3430558037
 31
0.0
  0
LINE
  5
EE
330
1F
100
AcDbEntity
  8
0
  6
Continuous
 62
     7
370
    15
100
AcDbLine
 10
157.7359018778
 20
132.8430558037
 30
0.0
 11
157.7359018778
 21
79.8430558037
 31
0.0
  0
LINE
  5
EF
330
1F
100
AcDbEntity
  8
0
  6
Continuous
 62
     7
370
    15
100
AcDbLine
 10
157.7359018778
 20
79.8430558037
 30
0.0
 11
157.7359018778
 21
132.8430558037
 31
0.0
  0
LINE
  5
F0
330
1F
100
AcDbEntity
  8
0
  6
Continuous
 62
     7
370
    15
100
AcDbLine
 10
160.3339780892
 20
75.3430558037
 30
0.0
 11
160.3339780892
 21
137.3430558037
 31
0.0
  0
LINE
  5
F1
330
1F
100
AcDbEntity
  8
0
  6
Continuous
 62
     7
370
    15
100
AcDbLine
 10
160.3339780892
 20
137.3430558037
 30
0.0
 11
160.3339780892
 21
75.3430558037
 31
0.0
  0
LINE
  5
F2
330
1F
100
AcDbEntity
  8
0
  6
Continuous
 62
     7
370
    15
100
AcDbLine
 10
161.2000034929
 20
137.8430558037
 30
0.0
 11
161.2000034929
 21
74.8430558037
 31
0.0
  0
LINE
  5
F3
330
1F
100
AcDbEntity
  8
0
  6
Continuous
 62
     7
370
    15
100
AcDbLine
 10
161.2000034929
 20
74.8430558037
 30
0.0
 11
161.2000034929
 21
137.8430558037
 31
0.0
  0
LWPOLYLINE
  5
F4
330
1F
100
AcDbEntity
  8
0
  6
HIDDEN
 62
     7
370
     0
100
AcDbPolyline
 90
        7
 70
   128
 43
0.0
 10
225.353226931
 20
117.5176881211
 10
225.3664547463
 20
117.466464414
 10
225.3841810505
 20
117.5892328332
 10
225.4044849236
 20
117.8726895156
 10
225.4251661258
 20
118.2861175313
 10
225.443983528
 20
118.7847155398
 10
225.4472267432
 20
118.8864138791
  0
ARC
  5
F5
330
1F
100
AcDbEntity
  8
0
  6
HIDDEN
 62
     7
370
     0
100
AcDbCircle
 10
253.0460960493
 20
118.2701075149
 30
0.0
 40
27.70308890623973
100
AcDbArc
 50
175.0285339297
 51
181.5563519948
  0
LWPOLYLINE
  5
F6
330
1F
100
AcDbEntity
  8
0
  6
HIDDEN
 62
     7
370
     0
100
AcDbPolyline
 90
       22
 70
   128
 43
0.0
 10
225.1149739222
 20
117.147411998
 10
225.129567005
 20
117.0804596044
 10
225.1489055264
 20
117.1910258227
 10
225.1712711739
 20
117.469286359
 10
225.1946766616
 20
117.8905165436
 10
225.2170423091
 20
118.4172882261
 10
225.2363808305
 20
119.0027954307
 10
225.2509739133
 20
119.5950132729
 10
225.2595248982
 20
120.1413205986
 10
225.2612739925
 20
120.5931756042
 10
225.2560657815
 20
120.9104289898
 10
225.2443630377
 20
121.0648913998
 10
225.2272056011
 20
121.0428381711
 10
225.2061179854
 20
120.8462288299
 10
225.1829739178
 20
120.492532979
 10
225.1598298501
 20
120.0131780469
 10
225.1387422344
 20
119.450756823
 10
225.1215847978
 20
118.8552429011
 10
225.109882054
 20
118.2795503065
 10
225.1046738431
 20
117.7748318528
 10
225.1064229373
 20
117.3859339893
 10
225.1149739222
 20
117.147411998
  0
LWPOLYLINE
  5
F7
330
1F
100
AcDbEntity
  8
0
  6
HIDDEN
 62
     7
370
     0
100
AcDbPolyline
 90
       22
 70
   128
 43
0.0
 10
218.0955564191
 20
117.3424275686
 10
218.110149502
 20
117.275475175
 10
218.1294880234
 20
117.3860413933
 10
218.1518536709
 20
117.6643019296
 10
218.1752591585
 20
118.0855321142
 10
218.197624806
 20
118.6123037967
 10
218.2169633274
 20
119.1978110013
 10
218.2315564103
 20
119.7900288435
 10
218.2401073951
 20
120.3363361692
 10
218.2418564894
 20
120.7881911749
 10
218.2366482784
 20
121.1054445604
 10
218.2249455346
 20
121.2599069704
 10
218.2077880981
 20
121.2378537417
 10
218.1867004824
 20
121.0412444005
 10
218.1635564147
 20
120.6875485496
 10
218.140412347
 20
120.2081936175
 10
218.1193247313
 20
119.6457723936
 10
218.1021672948
 20
119.0502584717
 10
218.090464551
 20
118.4745658772
 10
218.08525634
 20
117.9698474234
 10
218.0870054343
 20
117.5809495599
 10
218.0955564191
 20
117.3424275686
  0
LWPOLYLINE
  5
F8
330
1F
100
AcDbEntity
  8
0
  6
HIDDEN
 62
     7
370
     0
100
AcDbPolyline
 90
       18
 70
   128
 43
0.0
 10
217.3716346403
 20
118.087338512
 10
217.3833684961
 20
118.0518388213
 10
217.3992574899
 20
118.184120902
 10
217.4171557248
 20
118.4663193262
 10
217.4346459452
 20
118.8603216329
 10
217.4493659998
 20
119.3129156274
 10
217.4593278637
 20
119.7629759828
 10
217.463186132
 20
120.1497195543
 10
217.4604197242
 20
120.4209144795
 10
217.4514022589
 20
120.539934381
 10
217.4373515949
 20
120.4907049617
 10
217.4201653521
 20
120.2798749272
 10
217.4021646279
 20
119.9359180422
 10
217.3857805198
 20
119.5052875898
 10
217.3732257924
 20
119.0461425988
 10
217.3661960313
 20
118.6204931445
 10
217.3656406446
 20
118.2858255443
 10
217.3716346403
 20
118.087338512
  0
LINE
  5
F9
330
1F
100
AcDbEntity
  8
0
  6
HIDDEN
 62
     7
370
     0
100
AcDbLine
 10
225.4079669274
 20
119.888565174
 30
0.0
 11
225.4472267432
 21
120.186878511
 31
0.0
  0
LINE
  5
FA
330
1F
100
AcDbEntity
  8
0
  6
HIDDEN
 62
     7
370
     0
100
AcDbLine
 10
225.3687071117
 20
118.7737552561
 30
0.0
 11
225.4079669274
 21
119.888565174
 31
0.0
  0
LINE
  5
FB
330
1F
100
AcDbEntity
  8
0
  6
HIDDEN
 62
     7
370
     0
100
AcDbLine
 10
225.3687071117
 20
118.7737552561
 30
0.0
 11
225.3687071117
 21
117.9572586752
 31
0.0
  0
LINE
  5
FC
330
1F
100
AcDbEntity
  8
0
  6
HIDDEN
 62
     7
370
     0
100
AcDbLine
 10
225.4079669274
 20
118.2555720122
 30
0.0
 11
225.3687071117
 21
117.9572586752
 31
0.0
  0
LINE
  5
FD
330
1F
100
AcDbEntity
  8
0
  6
HIDDEN
 62
     7
370
     0
100
AcDbLine
 10
225.4079669274
 20
118.2555720122
 30
0.0
 11
225.4472267432
 21
119.3703819301
 31
0.0
  0
LINE
  5
FE
330
1F
100
AcDbEntity
  8
0
  6
HIDDEN
 62
     7
370
     0
100
AcDbLine
 10
222.8706345211
 20
118.843157461
 30
0.0
 11
222.9098943368
 21
119.9579673789
 31
0.0
  0
LINE
  5
FF
330
1F
100
AcDbEntity
  8
0
  6
HIDDEN
 62
     7
370
     0
100
AcDbLine
 10
222.9098943368
 20
119.9579673789
 30
0.0
 11
222.9491541526
 21
120.2562807159
 31
0.0
  0
LINE
  5
100
330
1F
100
AcDbEntity
  8
0
  6
HIDDEN
 62
     7
370
     0
100
AcDbLine
 10
222.9491541526
 20
119.439784135
 30
0.0
 11
222.9491541526
 21
120.2562807159
 31
0.0
  0
LINE
  5
101
330
1F
100
AcDbEntity
  8
0
  6
HIDDEN
 62
     7
370
     0
100
AcDbLine
 10
222.9098943368
 20
118.3249742171
 30
0.0
 11
222.9491541526
 21
119.439784135
 31
0.0
  0
LINE
  5
102
330
1F
100
AcDbEntity
  8
0
  6
HIDDEN
 62
     7
370
     0
100
AcDbLine
 10
222.9098943368
 20
118.3249742171
 30
0.0
 11
222.8706345211
 21
118.02666088
 31
0.0
  0
LINE
  5
103
330
1F
100
AcDbEntity
  8
0
  6
HIDDEN
 62
     7
370
     0
100
AcDbLine
 10
222.8706345211
 20
118.843157461
 30
0.0
 11
222.8706345211
 21
118.02666088
 31
0.0
  0
LINE
  5
104
330
1F
100
AcDbEntity
  8
0
  6
HIDDEN
 62
     7
370
     0
100
AcDbLine
 10
222.8706345211
 20
118.843157461
 30
0.0
 11
225.3687071117
 21
118.7737552561
 31
0.0
  0
LINE
  5
105
330
1F
100
AcDbEntity
  8
0
  6
HIDDEN
 62
     7
370
     0
100
AcDbLine
 10
222.9098943368
 20
119.9579673789
 30
0.0
 11
225.4079669274
 21
119.888565174
 31
0.0
  0
LINE
  5
106
330
1F
100
AcDbEntity
  8
0
  6
HIDDEN
 62
     7
370
     0
100
AcDbLine
 10
222.9098943368
 20
118.3249742171
 30
0.0
 11
225.4079669274
 21
118.2555720122
 31
0.0
  0
LINE
  5
107
330
1F
100
AcDbEntity
  8
0
  6
HIDDEN
 62
     7
370
     0
100
AcDbLine
 10
222.8706345211
 20
118.02666088
 30
0.0
 11
225.3687071117
 21
117.9572586752
 31
0.0
  0
LINE
  5
108
330
1F
100
AcDbEntity
  8
0
  6
HIDDEN
 62
     7
370
     0
100
AcDbLine
 10
222.9491541526
 20
119.439784135
 30
0.0
 11
225.4472267432
 21
119.3703819301
 31
0.0
  0
LINE
  5
109
330
1F
100
AcDbEntity
  8
0
  6
HIDDEN
 62
     7
370
     0
100
AcDbLine
 10
222.9491541526
 20
120.2562807159
 30
0.0
 11
225.4472267432
 21
120.186878511
 31
0.0
  0
LWPOLYLINE
  5
10A
330
1F
100
AcDbEntity
  8
0
  6
HIDDEN
 62
     7
370
     0
100
AcDbPolyline
 90
       22
 70
   128
 43
0.0
 10
218.1740760506
 20
93.9316519325
 10
218.1655250658
 20
94.4779592581
 10
218.1637759715
 20
94.9298142638
 10
218.1689841825
 20
95.2470676494
 10
218.1806869263
 20
95.4015300594
 10
218.1978443628
 20
95.3794768307
 10
218.2189319785
 20
95.1828674895
 10
218.2420760462
 20
94.8291716386
 10
218.2652201139
 20
94.3498167065
 10
218.2863077296
 20
93.7873954826
 10
218.3034651661
 20
93.1918815607
 10
218.31516791
 20
92.6161889661
 10
218.3203761209
 20
92.1114705124
 10
218.3186270266
 20
91.7225726489
 10
218.3100760418
 20
91.4840506576
 10
218.295482959
 20
91.417098264
 10
218.2761444375
 20
91.5276644823
 10
218.25377879
 20
91.8059250186
 10
218.2303733024
 20
92.2271552032
 10
218.2080076549
 20
92.7539268857
 10
218.1886691335
 20
93.3394340903
 10
218.1740760506
 20
93.9316519325
  0
LWPOLYLINE
  5
10B
330
1F
100
AcDbEntity
  8
0
  6
HIDDEN
 62
     7
370
     0
100
AcDbPolyline
 90
       18
 70
   128
 43
0.0
 10
217.4501542718
 20
93.717071075
 10
217.4441602761
 20
94.1313068208
 10
217.4447156628
 20
94.4459837536
 10
217.451745424
 20
94.6186030098
 10
217.4643001513
 20
94.6258514025
 10
217.4806842594
 20
94.4667499959
 10
217.4986849836
 20
94.1627863167
 10
217.5158712264
 20
93.755012344
 10
217.5299218904
 20
93.2985002125
 10
217.5389393557
 20
92.8549044151
 10
217.5417057635
 20
92.4841350223
 10
217.5378474952
 20
92.2362664951
 10
217.5278856313
 20
92.1447748516
 10
217.5131655767
 20
92.2220165452
 10
217.4956753563
 20
92.4575596571
 10
217.4777771214
 20
92.819592785
 10
217.4618881276
 20
93.2592213489
 10
217.4501542718
 20
93.717071075
  0
LWPOLYLINE
  5
10C
330
1F
100
AcDbEntity
  8
0
  6
HIDDEN
 62
     7
370
     0
100
AcDbPolyline
 90
       22
 70
   128
 43
0.0
 10
225.1934935537
 20
94.1266675031
 10
225.1849425689
 20
94.6729748288
 10
225.1831934746
 20
95.1248298345
 10
225.1884016855
 20
95.44208322
 10
225.2001044294
 20
95.59654563
 10
225.2172618659
 20
95.5744924013
 10
225.2383494816
 20
95.3778830601
 10
225.2614935493
 20
95.0241872092
 10
225.284637617
 20
94.5448322771
 10
225.3057252327
 20
93.9824110532
 10
225.3228826692
 20
93.3868971313
 10
225.334585413
 20
92.8112045367
 10
225.339793624
 20
92.306486083
 10
225.3380445297
 20
91.9175882195
 10
225.3294935449
 20
91.6790662282
 10
225.314900462
 20
91.6121138346
 10
225.2955619406
 20
91.7226800529
 10
225.2731962931
 20
92.0009405892
 10
225.2497908055
 20
92.4221707738
 10
225.227425158
 20
92.9489424563
 10
225.2080866365
 20
93.5344496609
 10
225.1934935537
 20
94.1266675031
  0
LWPOLYLINE
  5
10D
330
1F
100
AcDbEntity
  8
0
  6
HIDDEN
 62
     7
370
     0
100
AcDbPolyline
 90
        6
 70
   128
 43
0.0
 10
225.4317465625
 20
94.0321630247
 10
225.4244506752
 20
94.5144371536
 10
225.4238773385
 20
94.899376001
 10
225.4300886824
 20
95.14526547
 10
225.4424116112
 20
95.2254596211
 10
225.4472267432
 20
95.2150024393
  0
ARC
  5
10E
330
1F
100
AcDbEntity
  8
0
  6
HIDDEN
 62
     7
370
     0
100
AcDbCircle
 10
241.9195960225
 20
93.8454048403
 30
0.0
 40
16.48890713283057
100
AcDbArc
 50
179.3510373691
 51
186.3952301452
  0
LINE
  5
10F
330
1F
100
AcDbEntity
  8
0
  6
HIDDEN
 62
     7
370
     0
100
AcDbLine
 10
225.486486559
 20
94.4327210513
 30
0.0
 11
225.5257463747
 21
93.3179111334
 31
0.0
  0
LINE
  5
110
330
1F
100
AcDbEntity
  8
0
  6
HIDDEN
 62
     7
370
     0
100
AcDbLine
 10
222.9884139684
 20
94.3633188464
 30
0.0
 11
223.0276737841
 21
93.2485089285
 31
0.0
  0
LINE
  5
111
330
1F
100
AcDbEntity
  8
0
  6
HIDDEN
 62
     7
370
     0
100
AcDbLine
 10
223.0276737841
 20
92.4320123476
 30
0.0
 11
223.0276737841
 21
93.2485089285
 31
0.0
  0
LINE
  5
112
330
1F
100
AcDbEntity
  8
0
  6
HIDDEN
 62
     7
370
     0
100
AcDbLine
 10
223.0276737841
 20
93.2485089285
 30
0.0
 11
225.5257463747
 21
93.3179111334
 31
0.0
  0
LINE
  5
113
330
1F
100
AcDbEntity
  8
0
  6
HIDDEN
 62
     7
370
     0
100
AcDbLine
 10
225.5257463747
 20
92.5014145524
 30
0.0
 11
225.5257463747
 21
93.3179111334
 31
0.0
  0
LINE
  5
114
330
1F
100
AcDbEntity
  8
0
  6
HIDDEN
 62
     7
370
     0
100
AcDbLine
 10
222.9491541526
 20
94.6616321835
 30
0.0
 11
222.9884139684
 21
94.3633188464
 31
0.0
  0
LINE
  5
115
330
1F
100
AcDbEntity
  8
0
  6
HIDDEN
 62
     7
370
     0
100
AcDbLine
 10
222.9884139684
 20
94.3633188464
 30
0.0
 11
225.486486559
 21
94.4327210513
 31
0.0
  0
LINE
  5
116
330
1F
100
AcDbEntity
  8
0
  6
HIDDEN
 62
     7
370
     0
100
AcDbLine
 10
225.4472267432
 20
94.7310343883
 30
0.0
 11
225.486486559
 21
94.4327210513
 31
0.0
  0
LINE
  5
117
330
1F
100
AcDbEntity
  8
0
  6
HIDDEN
 62
     7
370
     0
100
AcDbLine
 10
222.9884139684
 20
92.7303256846
 30
0.0
 11
225.486486559
 21
92.7997278895
 31
0.0
  0
LINE
  5
118
330
1F
100
AcDbEntity
  8
0
  6
HIDDEN
 62
     7
370
     0
100
AcDbLine
 10
223.0276737841
 20
92.4320123476
 30
0.0
 11
225.5257463747
 21
92.5014145524
 31
0.0
  0
LINE
  5
119
330
1F
100
AcDbEntity
  8
0
  6
HIDDEN
 62
     7
370
     0
100
AcDbLine
 10
222.9884139684
 20
92.7303256846
 30
0.0
 11
223.0276737841
 21
92.4320123476
 31
0.0
  0
LINE
  5
11A
330
1F
100
AcDbEntity
  8
0
  6
HIDDEN
 62
     7
370
     0
100
AcDbLine
 10
225.486486559
 20
92.7997278895
 30
0.0
 11
225.5257463747
 21
92.5014145524
 31
0.0
  0
LINE
  5
11B
330
1F
100
AcDbEntity
  8
0
  6
HIDDEN
 62
     7
370
     0
100
AcDbLine
 10
222.9491541526
 20
93.8451356025
 30
0.0
 11
225.4472267432
 21
93.9145378074
 31
0.0
  0
LINE
  5
11C
330
1F
100
AcDbEntity
  8
0
  6
HIDDEN
 62
     7
370
     0
100
AcDbLine
 10
222.9491541526
 20
94.6616321835
 30
0.0
 11
225.4472267432
 21
94.7310343883
 31
0.0
  0
LINE
  5
11D
330
1F
100
AcDbEntity
  8
0
  6
HIDDEN
 62
     7
370
     0
100
AcDbLine
 10
222.9491541526
 20
94.6616321835
 30
0.0
 11
222.9491541526
 21
93.8451356025
 31
0.0
  0
LINE
  5
11E
330
1F
100
AcDbEntity
  8
0
  6
HIDDEN
 62
     7
370
     0
100
AcDbLine
 10
222.9884139684
 20
92.7303256846
 30
0.0
 11
222.9491541526
 21
93.8451356025
 31
0.0
  0
LINE
  5
11F
330
1F
100
AcDbEntity
  8
0
  6
HIDDEN
 62
     7
370
     0
100
AcDbLine
 10
225.486486559
 20
92.7997278895
 30
0.0
 11
225.4472267432
 21
93.9145378074
 31
0.0
  0
ARC
  5
120
330
1F
100
AcDbEntity
  8
0
  6
HIDDEN
 62
     7
370
     0
100
AcDbCircle
 10
176.9472267432
 20
106.3430558037
 30
0.0
 40
8.000000000000014
100
AcDbArc
 50
149.2560953669
 51
210.7768050115
  0
CIRCLE
  5
121
330
1F
100
AcDbEntity
  8
0
  6
HIDDEN
 62
     7
370
     0
100
AcDbCircle
 10
176.9472267432
 20
106.3430558037
 30
0.0
 40
8.999999999999986
  0
CIRCLE
  5
122
330
1F
100
AcDbEntity
  8
0
  6
HIDDEN
 62
     7
370
     0
100
AcDbCircle
 10
176.9472267432
 20
106.3430558037
 30
0.0
 40
4.499999999999996
  0
CIRCLE
  5
123
330
1F
100
AcDbEntity
  8
0
  6
HIDDEN
 62
     7
370
     0
100
AcDbCircle
 10
176.9472267432
 20
106.3430558037
 30
0.0
 40
5.999999999999989
  0
ARC
  5
124
330
1F
100
AcDbEntity
  8
0
  6
HIDDEN
 62
     7
370
     0
100
AcDbCircle
 10
201.9472267432
 20
106.3430558037
 30
0.0
 40
8.000000000000007
100
AcDbArc
 50
149.2560953669
 51
210.7768050115
  0
CIRCLE
  5
125
330
1F
100
AcDbEntity
  8
0
  6
HIDDEN
 62
     7
370
     0
100
AcDbCircle
 10
201.9472267432
 20
106.3430558037
 30
0.0
 40
9.000000000000007
  0
CIRCLE
  5
126
330
1F
100
AcDbEntity
  8
0
  6
HIDDEN
 62
     7
370
     0
100
AcDbCircle
 10
201.9472267432
 20
106.3430558037
 30
0.0
 40
4.499999999999989
  0
CIRCLE
  5
127
330
1F
100
AcDbEntity
  8
0
  6
HIDDEN
 62
     7
370
     0
100
AcDbCircle
 10
201.9472267432
 20
106.3430558037
 30
0.0
 40
6.000000000000004
  0
SPLINE
  5
128
330
1F
100
AcDbEntity
  8
0
  6
HIDDEN
 62
     7
370
     0
100
AcDbSpline
210
0.0
220
0.0
230
1.0
 70
     8
 71
     3
 72
    16
 73
    12
 74
     0
 42
0.00000001
 43
0.00000001
 40
0.0
 40
0.0
 40
0.0
 40
0.0
 40
0.1799701200838868
 40
0.2440521066255158
 40
0.310173233397199
 40
0.3783524851496388
 40
0.5462635416135678
 40
0.7569354380667198
 40
0.8654539662746729
 40
0.9647815532813075
 40
1.0
 40
1.0
 40
1.0
 40
1.0
 10
201.947226743208
 20
98.34305580372143
 30
0.0
 10
202.4486266309147
 20
98.36863496847766
 30
0.0
 10
203.1285600487486
 20
98.4033221101075
 30
0.0
 10
203.968217029093
 20
98.59686677874538
 30
0.0
 10
204.4953390488766
 20
98.75270668027022
 30
0.0
 10
205.2784031110895
 20
99.04641965229118
 30
0.0
 10
206.3753747190168
 20
99.61911383665434
 30
0.0
 10
207.4294335990742
 20
100.4630894882072
 30
0.0
 10
208.1921380897085
 20
101.3237740451935
 30
0.0
 10
208.5928218102326
 20
101.8618017432566
 30
0.0
 10
208.775086014826
 20
102.1848710628253
 30
0.0
 10
208.8227950553712
 20
102.269436912168
 30
0.0
  0
SPLINE
  5
129
330
1F
100
AcDbEntity
  8
0
  6
HIDDEN
 62
     7
370
     0
100
AcDbSpline
210
0.0
220
0.0
230
1.0
 70
     8
 71
     3
 72
    24
 73
    20
 74
     0
 42
0.00000001
 43
0.00000001
 40
0.0
 40
0.0
 40
0.0
 40
0.0
 40
0.0500439014646363
 40
0.1214019540116327
 40
0.1770583092016642
 40
0.2272178945611337
 40
0.2718843301818692
 40
0.31106356270855
 40
0.4101577437336195
 40
0.5003358261597792
 40
0.5903748470558199
 40
0.6224139512572244
 40
0.6554627978040213
 40
0.6895309620510118
 40
0.7727541279028854
 40
0.8790013836684818
 40
0.935338028662872
 40
0.9857716166318807
 40
1.0
 40
1.0
 40
1.0
 40
1.0
 10
208.8207657820938
 20
110.4142594994931
 30
0.0
 10
208.6768982274818
 20
110.6495873764385
 30
0.0
 10
208.3278886231622
 20
111.2204714054298
 30
0.0
 10
207.6800456757826
 20
111.9524042716399
 30
0.0
 10
206.9554579967665
 20
112.6024067601599
 30
0.0
 10
206.2802200974346
 20
113.0831190934061
 30
0.0
 10
205.6397214401356
 20
113.4512284687763
 30
0.0
 10
204.7239343690336
 20
113.8766979960458
 30
0.0
 10
203.5027903917788
 20
114.2435166153002
 30
0.0
 10
201.9489811827868
 20
114.3904378949621
 30
0.0
 10
200.7666583288349
 20
114.278864412585
 30
0.0
 10
199.9273239822471
 20
114.0901503835445
 30
0.0
 10
199.400696684211
 20
113.9337476067848
 30
0.0
 10
198.6220258576969
 20
113.6421990060908
 30
0.0
 10
197.5245862521498
 20
113.0705837414872
 30
0.0
 10
196.4599846768905
 20
112.2204299829361
 30
0.0
 10
195.6862045777614
 20
111.3427124662749
 30
0.0
 10
195.2890357710207
 20
110.8062035611377
 30
0.0
 10
195.1150220677438
 20
110.4953951235986
 30
0.0
 10
195.0767316532957
 20
110.4270040505783
 30
0.0
  0
SPLINE
  5
12A
330
1F
100
AcDbEntity
  8
0
  6
HIDDEN
 62
     7
370
     0
100
AcDbSpline
210
0.0
220
0.0
230
1.0
 70
     8
 71
     3
 72
    15
 73
    11
 74
     0
 42
0.00000001
 43
0.00000001
 40
0.0
 40
0.0
 40
0.0
 40
0.0
 40
0.0997649367535245
 40
0.2422973160429276
 40
0.3532606012214251
 40
0.4534709551730034
 40
0.5429359478758861
 40
0.6216677455114505
 40
0.8199435986069423
 40
1.0
 40
1.0
 40
1.0
 40
1.0
 10
195.0751152677952
 20
102.2694337426374
 30
0.0
 10
195.2186275230878
 20
102.0348080768353
 30
0.0
 10
195.5671731685642
 20
101.4649769222375
 30
0.0
 10
196.2136928408576
 20
100.7345497844191
 30
0.0
 10
196.9370987168404
 20
100.0852686702266
 30
0.0
 10
197.6116826241053
 20
99.60470454857793
 30
0.0
 10
198.2532705004788
 20
99.23529163350749
 30
0.0
 10
199.1709291715191
 20
98.81059607669496
 30
0.0
 10
200.392994318792
 20
98.42783282848656
 30
0.0
 10
201.4460534218645
 20
98.3703927595124
 30
0.0
 10
201.947226743208
 20
98.34305580372143
 30
0.0
  0
SPLINE
  5
12B
330
1F
100
AcDbEntity
  8
0
  6
HIDDEN
 62
     7
370
     0
100
AcDbSpline
210
0.0
220
0.0
230
1.0
 70
     8
 71
     3
 72
    16
 73
    12
 74
     0
 42
0.00000001
 43
0.00000001
 40
0.0
 40
0.0
 40
0.0
 40
0.0
 40
0.1799701200914514
 40
0.2440521066317985
 40
0.3101732334003025
 40
0.3783524851476677
 40
0.5462635416222518
 40
0.7569354380627904
 40
0.8654539662559569
 40
0.9647815532573344
 40
1.0
 40
1.0
 40
1.0
 40
1.0
 10
176.947226743208
 20
98.34305580372143
 30
0.0
 10
177.4486266309385
 20
98.36863496848002
 30
0.0
 10
178.1285600487936
 20
98.40332211011246
 30
0.0
 10
178.9682170291492
 20
98.59686677876039
 30
0.0
 10
179.495339048909
 20
98.7527066802819
 30
0.0
 10
180.2784031111306
 20
99.04641965230832
 30
0.0
 10
181.3753747190438
 20
99.6191138366722
 30
0.0
 10
182.4294335990638
 20
100.4630894882066
 30
0.0
 10
183.1921380896506
 20
101.3237740451232
 30
0.0
 10
183.5928218101889
 20
101.8618017431934
 30
0.0
 10
183.7750860148122
 20
102.1848710628067
 30
0.0
 10
183.822795055391
 20
102.2694369122069
 30
0.0
  0
SPLINE
  5
12C
330
1F
100
AcDbEntity
  8
0
  6
HIDDEN
 62
     7
370
     0
100
AcDbSpline
210
0.0
220
0.0
230
1.0
 70
     8
 71
     3
 72
    24
 73
    20
 74
     0
 42
0.00000001
 43
0.00000001
 40
0.0
 40
0.0
 40
0.0
 40
0.0
 40
0.050043901457917
 40
0.1214019540099482
 40
0.1770583092035291
 40
0.227217894564238
 40
0.2718843301839038
 40
0.3110635627072058
 40
0.4101577437356528
 40
0.5003358261587626
 40
0.5903748470625618
 40
0.6224139512631783
 40
0.655462797807501
 40
0.6895309620503365
 40
0.7727541279143467
 40
0.8790013836681678
 40
0.9353380286632069
 40
0.9857716166324896
 40
1.0
 40
1.0
 40
1.0
 40
1.0
 10
183.8207657820741
 20
110.4142594995181
 30
0.0
 10
183.6768982274835
 20
110.6495873764326
 30
0.0
 10
183.3278886231741
 20
111.2204714054177
 30
0.0
 10
182.6800456757897
 20
111.9524042716359
 30
0.0
 10
181.955457996733
 20
112.6024067601887
 30
0.0
 10
181.2802200973815
 20
113.0831190934402
 30
0.0
 10
180.639721440096
 20
113.4512284687957
 30
0.0
 10
179.723934368999
 20
113.8766979960589
 30
0.0
 10
178.5027903917603
 20
114.2435166153039
 30
0.0
 10
176.948981182727
 20
114.3904378949645
 30
0.0
 10
175.7666583287544
 20
114.2788644125759
 30
0.0
 10
174.9273239821467
 20
114.0901503835177
 30
0.0
 10
174.4006966841531
 20
113.933747606764
 30
0.0
 10
173.6220258576147
 20
113.642199006057
 30
0.0
 10
172.5245862520937
 20
113.0705837414497
 30
0.0
 10
171.4599846768446
 20
112.220429982885
 30
0.0
 10
170.6862045777569
 20
111.3427124662694
 30
0.0
 10
170.2890357710164
 20
110.8062035611314
 30
0.0
 10
170.115022067741
 20
110.4953951235942
 30
0.0
 10
170.0767316532947
 20
110.427004050577
 30
0.0
  0
SPLINE
  5
12D
330
1F
100
AcDbEntity
  8
0
  6
HIDDEN
 62
     7
370
     0
100
AcDbSpline
210
0.0
220
0.0
230
1.0
 70
     8
 71
     3
 72
    15
 73
    11
 74
     0
 42
0.00000001
 43
0.00000001
 40
0.0
 40
0.0
 40
0.0
 40
0.0
 40
0.0997649367527946
 40
0.242297316042161
 40
0.3532606012129812
 40
0.4534709551620628
 40
0.5429359478676296
 40
0.621667745511062
 40
0.8199435986023252
 40
1.0
 40
1.0
 40
1.0
 40
1.0
 10
170.0751152677998
 20
102.2694337426304
 30
0.0
 10
170.2186275230912
 20
102.0348080768302
 30
0.0
 10
170.5671731685662
 20
101.4649769222349
 30
0.0
 10
171.2136928408438
 20
100.7345497844349
 30
0.0
 10
171.9370987168022
 20
100.0852686702593
 30
0.0
 10
172.6116826240451
 20
99.60470454861671
 30
0.0
 10
173.2532705004338
 20
99.23529163352946
 30
0.0
 10
174.1709291714871
 20
98.81059607670657
 30
0.0
 10
175.3929943187792
 20
98.42783282848919
 30
0.0
 10
176.446053421852
 20
98.3703927595137
 30
0.0
 10
176.947226743208
 20
98.34305580372143
 30
0.0
  0
SPLINE
  5
12E
330
1F
100
AcDbEntity
  8
0
  6
HIDDEN
 62
     7
370
     0
100
AcDbSpline
210
0.0
220
0.0
230
1.0
 70
     8
 71
     3
 72
    92
 73
    88
 74
     0
 42
0.00000001
 43
0.00000001
 40
-0.0312500000000007
 40
-0.0312500000000007
 40
0.0
 40
0.0
 40
0.0312500000000002
 40
0.0312500000000002
 40
0.0468750000000003
 40
0.0468750000000003
 40
0.0625000000000004
 40
0.0625000000000004
 40
0.0937500000000007
 40
0.0937500000000007
 40
0.1250000000000009
 40
0.1250000000000009
 40
0.1562500000000012
 40
0.1562500000000012
 40
0.1718750000000014
 40
0.1718750000000014
 40
0.1875000000000016
 40
0.1875000000000016
 40
0.2187500000000018
 40
0.2187500000000018
 40
0.2500000000000021
 40
0.2500000000000021
 40
0.2656250000000023
 40
0.2656250000000023
 40
0.2812500000000024
 40
0.2812500000000024
 40
0.3125000000000027
 40
0.3125000000000027
 40
0.3281250000000028
 40
0.3281250000000028
 40
0.343750000000003
 40
0.343750000000003
 40
0.3593750000000032
 40
0.3593750000000032
 40
0.3750000000000033
 40
0.3750000000000033
 40
0.4062500000000036
 40
0.4062500000000036
 40
0.4375000000000039
 40
0.4375000000000039
 40
0.4687500000000042
 40
0.4687500000000042
 40
0.4843750000000041
 40
0.4843750000000041
 40
0.5000000000000041
 40
0.5000000000000041
 40
0.5312500000000037
 40
0.5312500000000037
 40
0.5625000000000032
 40
0.5625000000000032
 40
0.5781250000000027
 40
0.5781250000000027
 40
0.5937500000000021
 40
0.5937500000000021
 40
0.6250000000000017
 40
0.6250000000000017
 40
0.6562500000000012
 40
0.6562500000000012
 40
0.6875000000000008
 40
0.6875000000000008
 40
0.7031250000000006
 40
0.7031250000000006
 40
0.7187500000000003
 40
0.7187500000000003
 40
0.7343750000000001
 40
0.7343750000000001
 40
0.7499999999999998
 40
0.7499999999999998
 40
0.7812499999999993
 40
0.7812499999999993
 40
0.8124999999999989
 40
0.8124999999999989
 40
0.8437499999999984
 40
0.8437499999999984
 40
0.874999999999998
 40
0.874999999999998
 40
0.890624999999998
 40
0.890624999999998
 40
0.906249999999998
 40
0.906249999999998
 40
0.9374999999999987
 40
0.9374999999999987
 40
0.953124999999999
 40
0.953124999999999
 40
0.9687499999999993
 40
0.9687499999999993
 40
1.0
 40
1.0
 40
1.03125
 40
1.03125
 10
177.5865980155453
 20
96.92799166540546
 30
0.0
 10
176.3078554708707
 20
96.92799166540546
 30
0.0
 10
175.6788131320347
 20
96.98595791055607
 30
0.0
 10
174.7501184317782
 20
97.15679006390897
 30
0.0
 10
174.4430492551427
 20
97.22782206239356
 30
0.0
 10
173.834007316415
 20
97.39883633299512
 30
0.0
 10
173.5306765914849
 20
97.49944856487022
 30
0.0
 10
172.6462013109353
 20
97.83987189981708
 30
0.0
 10
172.0860015580901
 20
98.11854151773177
 30
0.0
 10
171.0238463253002
 20
98.78042269929801
 30
0.0
 10
170.5178281796526
 20
99.16855057923323
 30
0.0
 10
169.6065671360876
 20
100.0244950970897
 30
0.0
 10
169.1967625496055
 20
100.4937520798335
 30
0.0
 10
168.6522691340498
 20
101.2624674198523
 30
0.0
 10
168.4817262903947
 20
101.5312522791809
 30
0.0
 10
168.1717449693093
 20
102.0804123501759
 30
0.0
 10
168.0316995635967
 20
102.3612896566101
 30
0.0
 10
167.6555430903248
 20
103.222626839253
 30
0.0
 10
167.4628833306362
 20
103.8217522993164
 30
0.0
 10
167.2006968414053
 20
105.0723858906205
 30
0.0
 10
167.136020388406
 20
105.7006330148964
 30
0.0
 10
167.1348590085842
 20
106.6472526325581
 30
0.0
 10
167.1505788623807
 20
106.9635060545276
 30
0.0
 10
167.2152023349795
 20
107.5974812914053
 30
0.0
 10
167.2641817087565
 20
107.9138171013985
 30
0.0
 10
167.4572205339017
 20
108.8426106723514
 30
0.0
 10
167.6475111542942
 20
109.4421723511947
 30
0.0
 10
168.0256442657397
 20
110.3123591425851
 30
0.0
 10
168.1677023692011
 20
110.5978818773538
 30
0.0
 10
168.4766208909465
 20
111.1464510833956
 30
0.0
 10
168.6441291787037
 20
111.4111828301836
 30
0.0
 10
169.0047073190525
 20
111.9221365563861
 30
0.0
 10
169.1977786118989
 20
112.168357130431
 30
0.0
 10
169.6097264762297
 20
112.6423324128283
 30
0.0
 10
169.8298276411267
 20
112.8711161078003
 30
0.0
 10
170.5170429225244
 20
113.5172355034301
 30
0.0
 10
171.0124177165804
 20
113.8975970424131
 30
0.0
 10
172.0759640074675
 20
114.5622659587802
 30
0.0
 10
172.6484675166283
 20
114.8470558265141
 30
0.0
 10
173.8216694884882
 20
115.2987185637798
 30
0.0
 10
174.42706903687
 20
115.4693803139505
 30
0.0
 10
175.3638400373022
 20
115.6424681835478
 30
0.0
 10
175.6813475825195
 20
115.6861021938582
 30
0.0
 10
176.3126512545324
 20
115.7436845535358
 30
0.0
 10
176.6281041465463
 20
115.7580028485892
 30
0.0
 10
177.5738763869938
 20
115.7583519782205
 30
0.0
 10
178.2053310093226
 20
115.7019000008201
 30
0.0
 10
179.4594998473364
 20
115.4714969234511
 30
0.0
 10
180.0654857496854
 20
115.3009310959626
 30
0.0
 10
180.943887636475
 20
114.9636508106466
 30
0.0
 10
181.2315563653354
 20
114.8375514750008
 30
0.0
 10
181.7963758550774
 20
114.5570433304137
 30
0.0
 10
182.0743741989873
 20
114.4019339247529
 30
0.0
 10
182.8747445423315
 20
113.9029638590735
 30
0.0
 10
183.3694263820589
 20
113.5234566122143
 30
0.0
 10
184.2812734477869
 20
112.6686813002266
 30
0.0
 10
184.7009638799848
 20
112.1880824277593
 30
0.0
 10
185.4238195734753
 20
111.1668664739858
 30
0.0
 10
185.7319493159083
 20
110.6230803810468
 30
0.0
 10
186.1118278820685
 20
109.755103564906
 30
0.0
 10
186.2248396185126
 20
109.4557600535792
 30
0.0
 10
186.4173544788704
 20
108.8533649009872
 30
0.0
 10
186.4976631457523
 20
108.5487853533058
 30
0.0
 10
186.6269012437602
 20
107.9329345645911
 30
0.0
 10
186.6758311516937
 20
107.6216634812621
 30
0.0
 10
186.7418173801702
 20
106.9923005570559
 30
0.0
 10
186.7588476607951
 20
106.6723725704171
 30
0.0
 10
186.7599298567124
 20
105.7158013884112
 30
0.0
 10
186.6953786019056
 20
105.0879296422708
 30
0.0
 10
186.4393302748903
 20
103.851240462245
 30
0.0
 10
186.2446214916658
 20
103.2381782562972
 30
0.0
 10
185.7431246285761
 20
102.0849399121435
 30
0.0
 10
185.4359182913003
 20
101.5381733129977
 30
0.0
 10
184.7065873374888
 20
100.5041820605817
 30
0.0
 10
184.2937932810804
 20
100.0308717101841
 30
0.0
 10
183.611386581675
 20
99.38865589310899
 30
0.0
 10
183.3730082855827
 20
99.18555190032002
 30
0.0
 10
182.8740635455729
 20
98.8013697783785
 30
0.0
 10
182.6131298515071
 20
98.62029509007786
 30
0.0
 10
181.8134063135214
 20
98.12100294960642
 30
0.0
 10
181.252700193611
 20
97.84202360545285
 30
0.0
 10
180.3706896195653
 20
97.50189272334805
 30
0.0
 10
180.0683923289025
 20
97.40129137332694
 30
0.0
 10
179.4566783687041
 20
97.22908396406636
 30
0.0
 10
179.1484659412925
 20
97.15765084975045
 30
0.0
 10
178.2169381911045
 20
96.98599636184937
 30
0.0
 10
177.5865980155453
 20
96.92799166540546
 30
0.0
 10
176.3078554708707
 20
96.92799166540546
 30
0.0
  0
SPLINE
  5
12F
330
1F
100
AcDbEntity
  8
0
  6
HIDDEN
 62
     7
370
     0
100
AcDbSpline
210
0.0
220
0.0
230
1.0
 70
     8
 71
     3
 72
    92
 73
    88
 74
     0
 42
0.00000001
 43
0.00000001
 40
-0.0312500000000006
 40
-0.0312500000000006
 40
0.0
 40
0.0
 40
0.0312499999999994
 40
0.0312499999999994
 40
0.046874999999999
 40
0.046874999999999
 40
0.0624999999999987
 40
0.0624999999999987
 40
0.093749999999998
 40
0.093749999999998
 40
0.1249999999999974
 40
0.1249999999999974
 40
0.1562499999999967
 40
0.1562499999999967
 40
0.1718749999999964
 40
0.1718749999999964
 40
0.187499999999996
 40
0.187499999999996
 40
0.2187499999999956
 40
0.2187499999999956
 40
0.2499999999999952
 40
0.2499999999999952
 40
0.2656249999999949
 40
0.2656249999999949
 40
0.2812499999999947
 40
0.2812499999999947
 40
0.3124999999999942
 40
0.3124999999999942
 40
0.3281249999999939
 40
0.3281249999999939
 40
0.3437499999999936
 40
0.3437499999999936
 40
0.3593749999999933
 40
0.3593749999999933
 40
0.3749999999999931
 40
0.3749999999999931
 40
0.4062499999999931
 40
0.4062499999999931
 40
0.437499999999993
 40
0.437499999999993
 40
0.468749999999993
 40
0.468749999999993
 40
0.4843749999999933
 40
0.4843749999999933
 40
0.4999999999999937
 40
0.4999999999999937
 40
0.531249999999995
 40
0.531249999999995
 40
0.5624999999999963
 40
0.5624999999999963
 40
0.5781249999999967
 40
0.5781249999999967
 40
0.5937499999999971
 40
0.5937499999999971
 40
0.6249999999999972
 40
0.6249999999999972
 40
0.6562499999999973
 40
0.6562499999999973
 40
0.6874999999999974
 40
0.6874999999999974
 40
0.7031249999999974
 40
0.7031249999999974
 40
0.7187499999999974
 40
0.7187499999999974
 40
0.7343749999999974
 40
0.7343749999999974
 40
0.7499999999999974
 40
0.7499999999999974
 40
0.7812499999999977
 40
0.7812499999999977
 40
0.8124999999999978
 40
0.8124999999999978
 40
0.8437499999999979
 40
0.8437499999999979
 40
0.874999999999998
 40
0.874999999999998
 40
0.890624999999998
 40
0.890624999999998
 40
0.906249999999998
 40
0.906249999999998
 40
0.9374999999999988
 40
0.9374999999999988
 40
0.9531249999999991
 40
0.9531249999999991
 40
0.9687499999999994
 40
0.9687499999999994
 40
1.0
 40
1.0
 40
1.031249999999999
 40
1.031249999999999
 10
202.5865980155453
 20
96.92799166540546
 30
0.0
 10
201.3078554708708
 20
96.92799166540546
 30
0.0
 10
200.6788131320347
 20
96.98595791055607
 30
0.0
 10
199.7501184317781
 20
97.15679006390896
 30
0.0
 10
199.4430492551427
 20
97.22782206239356
 30
0.0
 10
198.834007316415
 20
97.39883633299512
 30
0.0
 10
198.5306765914849
 20
97.49944856487022
 30
0.0
 10
197.6462013109353
 20
97.83987189981708
 30
0.0
 10
197.0860015580901
 20
98.11854151773177
 30
0.0
 10
196.0238463253002
 20
98.78042269929801
 30
0.0
 10
195.5178281796527
 20
99.16855057923324
 30
0.0
 10
194.6065671360877
 20
100.0244950970897
 30
0.0
 10
194.1967625496055
 20
100.4937520798334
 30
0.0
 10
193.6522691340498
 20
101.2624674198523
 30
0.0
 10
193.4817262903947
 20
101.5312522791809
 30
0.0
 10
193.1717449693093
 20
102.0804123501759
 30
0.0
 10
193.0316995635967
 20
102.3612896566101
 30
0.0
 10
192.6555430903248
 20
103.222626839253
 30
0.0
 10
192.4628833306362
 20
103.8217522993164
 30
0.0
 10
192.2006968414053
 20
105.0723858906205
 30
0.0
 10
192.136020388406
 20
105.7006330148964
 30
0.0
 10
192.1348590085842
 20
106.6472526325581
 30
0.0
 10
192.1505788623807
 20
106.9635060545276
 30
0.0
 10
192.2152023349795
 20
107.5974812914053
 30
0.0
 10
192.2641817087565
 20
107.9138171013985
 30
0.0
 10
192.4572205339017
 20
108.8426106723514
 30
0.0
 10
192.6475111542942
 20
109.4421723511947
 30
0.0
 10
193.0256442657397
 20
110.3123591425852
 30
0.0
 10
193.1677023692011
 20
110.5978818773538
 30
0.0
 10
193.4766208909465
 20
111.1464510833956
 30
0.0
 10
193.6441291787038
 20
111.4111828301836
 30
0.0
 10
194.0047073190525
 20
111.9221365563861
 30
0.0
 10
194.1977786118989
 20
112.168357130431
 30
0.0
 10
194.6097264762297
 20
112.6423324128283
 30
0.0
 10
194.8298276411267
 20
112.8711161078003
 30
0.0
 10
195.5170429225245
 20
113.5172355034301
 30
0.0
 10
196.0124177165804
 20
113.8975970424131
 30
0.0
 10
197.0759640074675
 20
114.5622659587802
 30
0.0
 10
197.6484675166283
 20
114.8470558265141
 30
0.0
 10
198.8216694884882
 20
115.2987185637798
 30
0.0
 10
199.42706903687
 20
115.4693803139505
 30
0.0
 10
200.3638400373022
 20
115.6424681835478
 30
0.0
 10
200.6813475825195
 20
115.6861021938582
 30
0.0
 10
201.3126512545325
 20
115.7436845535358
 30
0.0
 10
201.6281041465463
 20
115.7580028485892
 30
0.0
 10
202.5738763869938
 20
115.7583519782205
 30
0.0
 10
203.2053310093226
 20
115.7019000008201
 30
0.0
 10
204.4594998473365
 20
115.4714969234511
 30
0.0
 10
205.0654857496854
 20
115.3009310959626
 30
0.0
 10
205.943887636475
 20
114.9636508106466
 30
0.0
 10
206.2315563653354
 20
114.8375514750008
 30
0.0
 10
206.7963758550775
 20
114.5570433304137
 30
0.0
 10
207.0743741989873
 20
114.4019339247529
 30
0.0
 10
207.8747445423315
 20
113.9029638590735
 30
0.0
 10
208.3694263820589
 20
113.5234566122143
 30
0.0
 10
209.2812734477869
 20
112.6686813002266
 30
0.0
 10
209.7009638799848
 20
112.1880824277593
 30
0.0
 10
210.4238195734754
 20
111.1668664739858
 30
0.0
 10
210.7319493159083
 20
110.6230803810468
 30
0.0
 10
211.1118278820685
 20
109.755103564906
 30
0.0
 10
211.2248396185126
 20
109.4557600535792
 30
0.0
 10
211.4173544788704
 20
108.8533649009872
 30
0.0
 10
211.4976631457523
 20
108.5487853533058
 30
0.0
 10
211.6269012437602
 20
107.9329345645911
 30
0.0
 10
211.6758311516938
 20
107.6216634812621
 30
0.0
 10
211.7418173801702
 20
106.9923005570559
 30
0.0
 10
211.7588476607951
 20
106.6723725704171
 30
0.0
 10
211.7599298567124
 20
105.7158013884111
 30
0.0
 10
211.6953786019056
 20
105.0879296422708
 30
0.0
 10
211.4393302748902
 20
103.851240462245
 30
0.0
 10
211.2446214916658
 20
103.2381782562972
 30
0.0
 10
210.7431246285761
 20
102.0849399121435
 30
0.0
 10
210.4359182913003
 20
101.5381733129977
 30
0.0
 10
209.7065873374888
 20
100.5041820605817
 30
0.0
 10
209.2937932810804
 20
100.0308717101841
 30
0.0
 10
208.611386581675
 20
99.38865589310899
 30
0.0
 10
208.3730082855828
 20
99.18555190032004
 30
0.0
 10
207.874063545573
 20
98.8013697783785
 30
0.0
 10
207.6131298515071
 20
98.62029509007786
 30
0.0
 10
206.8134063135213
 20
98.12100294960642
 30
0.0
 10
206.2527001936111
 20
97.84202360545285
 30
0.0
 10
205.3706896195653
 20
97.50189272334804
 30
0.0
 10
205.0683923289025
 20
97.40129137332694
 30
0.0
 10
204.4566783687041
 20
97.22908396406636
 30
0.0
 10
204.1484659412924
 20
97.15765084975044
 30
0.0
 10
203.2169381911045
 20
96.98599636184937
 30
0.0
 10
202.5865980155453
 20
96.92799166540546
 30
0.0
 10
201.3078554708708
 20
96.92799166540546
 30
0.0
  0
LINE
  5
130
330
1F
100
AcDbEntity
  8
0
  6
HIDDEN
 62
     7
370
     0
100
AcDbLine
 10
130.0552939117
 20
130.8017454661
 30
0.0
 11
130.0552939117
 21
126.1930558037
 31
0.0
  0
ARC
  5
131
330
1F
100
AcDbEntity
  8
0
  6
HIDDEN
 62
     7
370
     0
100
AcDbCircle
 10
123.7396311854
 20
118.8310751074
 30
0.0
 40
3.66977257811414
100
AcDbArc
 50
265.4298751957
 51
12.1542842674
  0
ARC
  5
132
330
1F
100
AcDbEntity
  8
0
  6
HIDDEN
 62
     7
370
     0
100
AcDbCircle
 10
123.1734807335
 20
118.8421392206
 30
0.0
 40
3.679366396507321
100
AcDbArc
 50
166.6222003664
 51
274.266766474
  0
LINE
  5
133
330
1F
100
AcDbEntity
  8
0
  6
HIDDEN
 62
     7
370
     0
100
AcDbLine
 10
103.4423769478
 20
82.8184561809
 30
0.0
 11
102.9082315187
 21
82.7638415814
 31
0.0
  0
LINE
  5
134
330
1F
100
AcDbEntity
  8
0
  6
HIDDEN
 62
     7
370
     0
100
AcDbLine
 10
102.6705778466
 20
129.9463889842
 30
0.0
 11
103.4422842275
 21
129.8676388337
 31
0.0
  0
SPLINE
  5
135
330
1F
100
AcDbEntity
  8
0
  6
HIDDEN
 62
     7
370
     0
100
AcDbSpline
210
0.0
220
0.0
230
1.0
 70
     8
 71
     3
 72
    12
 73
     8
 74
     0
 42
0.00000001
 43
0.00000001
 40
0.0
 40
0.0
 40
0.0
 40
0.0
 40
0.220823356693464
 40
0.4480992769816219
 40
0.6689570118604101
 40
0.8961555361844591
 40
1.0
 40
1.0
 40
1.0
 40
1.0
 10
109.2022287448096
 20
126.1805842795379
 30
0.0
 10
109.3342719479867
 20
126.1976413666165
 30
0.0
 10
109.6022167195904
 20
126.2322539569773
 30
0.0
 10
109.897372888237
 20
126.2592259061213
 30
0.0
 10
110.0984648975682
 20
126.2747356197868
 30
0.0
 10
110.1957954011211
 20
126.2808447855723
 30
0.0
 10
110.187138175642
 20
126.2802996190957
 30
0.0
 10
110.1844225013332
 20
126.2801286065007
 30
0.0
  0
SPLINE
  5
136
330
1F
100
AcDbEntity
  8
0
  6
HIDDEN
 62
     7
370
     0
100
AcDbSpline
210
0.0
220
0.0
230
1.0
 70
     8
 71
     3
 72
    12
 73
     8
 74
     0
 42
0.00000001
 43
0.00000001
 40
0.0
 40
0.0
 40
0.0
 40
0.0
 40
0.1181173916027805
 40
0.3465052120165135
 40
0.5687634619648639
 40
0.7975196827538197
 40
1.0
 40
1.0
 40
1.0
 40
1.0
 10
110.1844223956416
 20
86.40598300767822
 30
0.0
 10
110.1865456895665
 20
86.40584894403558
 30
0.0
 10
110.1927745132955
 20
86.40545565943725
 30
0.0
 10
110.0881082244463
 20
86.41207901190697
 30
0.0
 10
109.8781339786302
 20
86.42848343100405
 30
0.0
 10
109.5826756710157
 20
86.45608513232433
 30
0.0
 10
109.3237862095852
 20
86.48972993927141
 30
0.0
 10
109.2022287448096
 20
86.50552732790497
 30
0.0
  0
SPLINE
  5
137
330
1F
100
AcDbEntity
  8
0
  6
HIDDEN
 62
     7
370
     0
100
AcDbSpline
210
0.0
220
0.0
230
1.0
 70
     8
 71
     3
 72
    22
 73
    18
 74
     0
 42
0.00000001
 43
0.00000001
 40
0.0
 40
0.0
 40
0.0
 40
0.0
 40
0.069470503305567
 40
0.1409377255045835
 40
0.210413548914841
 40
0.2819466223559928
 40
0.3506518733998513
 40
0.4213897814436845
 40
0.4894670043894698
 40
0.5594810940348494
 40
0.6282706827033766
 40
0.6989997382187428
 40
0.7687375408512302
 40
0.8405098102584779
 40
0.9099666189318144
 40
0.9814998892127903
 40
1.0
 40
1.0
 40
1.0
 40
1.0
 10
109.2022287448096
 20
86.50552732790497
 30
0.0
 10
109.0540548903502
 20
86.52525366771428
 30
0.0
 10
108.7534483734391
 20
86.56527332113507
 30
0.0
 10
108.2185535107584
 20
86.62064698466493
 30
0.0
 10
107.6329149580896
 20
86.66510336979273
 30
0.0
 10
107.0186822985163
 20
86.6927883452449
 30
0.0
 10
106.384765653148
 20
86.70104159871477
 30
0.0
 10
105.7626169525762
 20
86.68906154383428
 30
0.0
 10
105.1566194827156
 20
86.65831079007333
 30
0.0
 10
104.5921305615891
 20
86.61284481932312
 30
0.0
 10
104.0727543240074
 20
86.55676366752353
 30
0.0
 10
103.619888826326
 20
86.49677350520513
 30
0.0
 10
103.2411736826603
 20
86.43879359084622
 30
0.0
 10
102.9530885615852
 20
86.38987478269972
 30
0.0
 10
102.7706306650325
 20
86.35683942017396
 30
0.0
 10
102.6899727136985
 20
86.34169962391832
 30
0.0
 10
102.7042625923973
 20
86.34437157729131
 30
0.0
 10
102.7071988848694
 20
86.3449206118031
 30
0.0
  0
SPLINE
  5
138
330
1F
100
AcDbEntity
  8
0
  6
HIDDEN
 62
     7
370
     0
100
AcDbSpline
210
0.0
220
0.0
230
1.0
 70
     8
 71
     3
 72
    22
 73
    18
 74
     0
 42
0.00000001
 43
0.00000001
 40
0.0
 40
0.0
 40
0.0
 40
0.0
 40
0.0499040281125884
 40
0.1203075863893544
 40
0.1885125365560131
 40
0.258644416829719
 40
0.3277839407293157
 40
0.3988873214655099
 40
0.4686969488930336
 40
0.5405663748364754
 40
0.609708789122301
 40
0.6809159691092499
 40
0.7490773369981711
 40
0.8192056085539694
 40
0.8876078379088254
 40
0.9579332867310426
 40
1.0
 40
1.0
 40
1.0
 40
1.0
 10
102.7071988848694
 20
126.3411909956398
 30
0.0
 10
102.7084498188949
 20
126.340951965244
 30
0.0
 10
102.7114655444592
 20
126.3403757157693
 30
0.0
 10
102.8363588715127
 20
126.3171776809459
 30
0.0
 10
103.0608406993903
 20
126.2774976446282
 30
0.0
 10
103.3798688615678
 20
126.225286223229
 30
0.0
 10
103.7874040925645
 20
126.1659564115568
 30
0.0
 10
104.2691906463974
 20
126.1064816350408
 30
0.0
 10
104.8196103281927
 20
126.0528752786788
 30
0.0
 10
105.4125052141409
 20
126.0124013602044
 30
0.0
 10
106.0394577844581
 20
125.9892021118381
 30
0.0
 10
106.6676687582861
 20
125.9862240086233
 30
0.0
 10
107.2919288507631
 20
126.0033583343225
 30
0.0
 10
107.8845471405915
 20
126.0380441900126
 30
0.0
 10
108.4413732241196
 20
126.0870005536764
 30
0.0
 10
108.8791800687525
 20
126.1369007182996
 30
0.0
 10
109.1142467755254
 20
126.1686871072913
 30
0.0
 10
109.2022287448096
 20
126.1805842795379
 30
0.0
  0
LINE
  5
139
330
1F
100
AcDbEntity
  8
0
  6
HIDDEN
 62
     7
370
     0
100
AcDbLine
 10
96.4512013394
 20
89.3430558037
 30
0.0
 11
96.4512013394
 21
123.3430558037
 31
0.0
  0
LWPOLYLINE
  5
13A
330
1F
100
AcDbEntity
  8
0
  6
HIDDEN
 62
     7
370
     0
100
AcDbPolyline
 90
       13
 70
   128
 43
0.0
 10
123.4472267432
 20
128.2886582184
 10
124.2788735065
 20
128.3323630169
 10
125.0741733155
 20
128.4615673031
 10
125.7983677524
 20
128.6706242296
 10
126.4198060451
 20
128.9503970056
 10
126.9113283583
 20
129.2886582184
 10
127.2514528084
 20
129.6706242296
 10
127.4253143247
 20
130.0796012918
 10
127.4253143247
 20
130.4977151449
 10
127.2514528084
 20
130.9066922071
 10
126.9113283583
 20
131.2886582184
 10
126.4198060451
 20
131.6269194311
 10
125.8123760861
 20
131.9015801466
  0
LWPOLYLINE
  5
13B
330
1F
100
AcDbEntity
  8
0
  6
HIDDEN
 62
     7
370
     0
100
AcDbPolyline
 90
       13
 70
   128
 43
0.0
 10
121.0749653743
 20
131.8989668842
 10
120.4746474413
 20
131.6269194311
 10
119.9831251281
 20
131.2886582184
 10
119.643000678
 20
130.9066922071
 10
119.4691391617
 20
130.4977151449
 10
119.4691391617
 20
130.0796012918
 10
119.643000678
 20
129.6706242296
 10
119.9831251281
 20
129.2886582184
 10
120.4746474413
 20
128.9503970056
 10
121.096085734
 20
128.6706242296
 10
121.8202801709
 20
128.4615673031
 10
122.6155799799
 20
128.3323630169
 10
123.4472267432
 20
128.2886582184
  0
SPLINE
  5
13C
330
1F
100
AcDbEntity
  8
0
  6
HIDDEN
 62
     7
370
     0
100
AcDbSpline
210
0.0
220
0.0
230
1.0
 70
     8
 71
     3
 72
    56
 73
    52
 74
     0
 42
0.00000001
 43
0.00000001
 40
-0.0625000000000001
 40
-0.0625000000000001
 40
0.0
 40
0.0
 40
0.0312500000000009
 40
0.0312500000000009
 40
0.0625000000000017
 40
0.0625000000000017
 40
0.1250000000000022
 40
0.1250000000000022
 40
0.1562500000000025
 40
0.1562500000000025
 40
0.1875000000000032
 40
0.1875000000000032
 40
0.2500000000000031
 40
0.2500000000000031
 40
0.2812500000000033
 40
0.2812500000000033
 40
0.3125000000000034
 40
0.3125000000000034
 40
0.3437500000000036
 40
0.3437500000000036
 40
0.375000000000004
 40
0.375000000000004
 40
0.4062500000000044
 40
0.4062500000000044
 40
0.4375000000000048
 40
0.4375000000000048
 40
0.5000000000000043
 40
0.5000000000000043
 40
0.5625000000000039
 40
0.5625000000000039
 40
0.5937500000000037
 40
0.5937500000000037
 40
0.6250000000000033
 40
0.6250000000000033
 40
0.6562500000000031
 40
0.6562500000000031
 40
0.6875000000000029
 40
0.6875000000000029
 40
0.7500000000000022
 40
0.7500000000000022
 40
0.8125000000000016
 40
0.8125000000000016
 40
0.8437500000000011
 40
0.8437500000000011
 40
0.8750000000000006
 40
0.8750000000000006
 40
0.9062500000000001
 40
0.9062500000000001
 40
0.9374999999999999
 40
0.9374999999999999
 40
1.0
 40
1.0
 40
1.031250000000001
 40
1.031250000000001
 10
170.4660670630554
 20
90.43699395079423
 30
0.0
 10
170.6249257284397
 20
90.44140741006805
 30
0.0
 10
170.6750252555128
 20
90.45256048884244
 30
0.0
 10
170.7664293670586
 20
90.49515035358742
 30
0.0
 10
170.8081642959316
 20
90.52717157558608
 30
0.0
 10
170.9108388182848
 20
90.65482052132295
 30
0.0
 10
170.9496520227666
 20
90.7854203262125
 30
0.0
 10
170.9458276764901
 20
91.03115123966282
 30
0.0
 10
170.9343594430072
 20
91.12272184610931
 30
0.0
 10
170.8936812860189
 20
91.31264026892022
 30
0.0
 10
170.8641741861239
 20
91.41315007910822
 30
0.0
 10
170.7554921955781
 20
91.7187904751627
 30
0.0
 10
170.6560193225997
 20
91.92839654937316
 30
0.0
 10
170.4969146011979
 20
92.23349787515878
 30
0.0
 10
170.4414900152862
 20
92.33519982277843
 30
0.0
 10
170.3339240144098
 20
92.53396311461061
 30
0.0
 10
170.2817396075847
 20
92.63097139771922
 30
0.0
 10
170.1878140952353
 20
92.82301270090024
 30
0.0
 10
170.1454919022544
 20
92.91969047465622
 30
0.0
 10
170.088429187286
 20
93.103972150478
 30
0.0
 10
170.0740385550479
 20
93.19353926559026
 30
0.0
 10
170.0824814467161
 20
93.3518548548271
 30
0.0
 10
170.1049690027888
 20
93.4222978133088
 30
0.0
 10
170.1718172727687
 20
93.53897099253018
 30
0.0
 10
170.2158155882529
 20
93.58656976478235
 30
0.0
 10
170.3609072049994
 20
93.70088678480253
 30
0.0
 10
170.4713563346555
 20
93.7390645199711
 30
0.0
 10
170.6779997211655
 20
93.74348770357078
 30
0.0
 10
170.7712432243379
 20
93.70947557913053
 30
0.0
 10
170.8750888723312
 20
93.5883196598273
 30
0.0
 10
170.9022585808249
 20
93.53738894751827
 30
0.0
 10
170.9390434059426
 20
93.41220549065535
 30
0.0
 10
170.9481704608262
 20
93.3379926848816
 30
0.0
 10
170.9461240162881
 20
93.17389641500576
 30
0.0
 10
170.9348433523439
 20
93.08158372988048
 30
0.0
 10
170.8944005785675
 20
92.88906318695278
 30
0.0
 10
170.8651409558555
 20
92.78740894884669
 30
0.0
 10
170.7573379679477
 20
92.47705744939803
 30
0.0
 10
170.6592908829088
 20
92.26454812006274
 30
0.0
 10
170.4525670415649
 20
91.85533588291375
 30
0.0
 10
170.34002713831
 20
91.65320745789754
 30
0.0
 10
170.1993586847787
 20
91.36237244540769
 30
0.0
 10
170.1566795655836
 20
91.26567067062733
 30
0.0
 10
170.0953701265829
 20
91.07956281054902
 30
0.0
 10
170.0771229161298
 20
90.9889030309929
 30
0.0
 10
170.0778734563118
 20
90.8261140580362
 30
0.0
 10
170.0968598446257
 20
90.75357767400033
 30
0.0
 10
170.160891993103
 20
90.6331648666932
 30
0.0
 10
170.2046416910584
 20
90.58513820112066
 30
0.0
 10
170.3524441375697
 20
90.47099911880034
 30
0.0
 10
170.4660670630554
 20
90.43699395079423
 30
0.0
 10
170.6249257284397
 20
90.44140741006805
 30
0.0
  0
SPLINE
  5
13D
330
1F
100
AcDbEntity
  8
0
  6
HIDDEN
 62
     7
370
     0
100
AcDbSpline
210
0.0
220
0.0
230
1.0
 70
     8
 71
     3
 72
    60
 73
    56
 74
     0
 42
0.00000001
 43
0.00000001
 40
-0.0624999999999984
 40
-0.0624999999999984
 40
0.0
 40
0.0
 40
0.0312500000000013
 40
0.0312500000000013
 40
0.0625000000000025
 40
0.0625000000000025
 40
0.0937500000000038
 40
0.0937500000000038
 40
0.1250000000000051
 40
0.1250000000000051
 40
0.1875000000000062
 40
0.1875000000000062
 40
0.2500000000000074
 40
0.2500000000000074
 40
0.2812500000000082
 40
0.2812500000000082
 40
0.3125000000000089
 40
0.3125000000000089
 40
0.3437500000000096
 40
0.3437500000000096
 40
0.3750000000000103
 40
0.3750000000000103
 40
0.406250000000011
 40
0.406250000000011
 40
0.4375000000000117
 40
0.4375000000000117
 40
0.4687500000000123
 40
0.4687500000000123
 40
0.500000000000013
 40
0.500000000000013
 40
0.5625000000000127
 40
0.5625000000000127
 40
0.5937500000000117
 40
0.5937500000000117
 40
0.6250000000000108
 40
0.6250000000000108
 40
0.6562500000000098
 40
0.6562500000000098
 40
0.6875000000000089
 40
0.6875000000000089
 40
0.7187500000000079
 40
0.7187500000000079
 40
0.7500000000000069
 40
0.7500000000000069
 40
0.781250000000006
 40
0.781250000000006
 40
0.812500000000005
 40
0.812500000000005
 40
0.8437500000000041
 40
0.8437500000000041
 40
0.8750000000000031
 40
0.8750000000000031
 40
0.9375000000000016
 40
0.9375000000000016
 40
1.0
 40
1.0
 40
1.031250000000001
 40
1.031250000000001
 10
168.6825327468539
 20
95.98904358589755
 30
0.0
 10
169.0795737413851
 20
95.98904358589755
 30
0.0
 10
169.209667939567
 20
95.996772194373
 30
0.0
 10
169.4655478265551
 20
96.02719731927031
 30
0.0
 10
169.5926746200404
 20
96.0502747408222
 30
0.0
 10
169.8347730595008
 20
96.11094673584776
 30
0.0
 10
169.9495651023215
 20
96.14826198035999
 30
0.0
 10
170.1668130826016
 20
96.23743507735394
 30
0.0
 10
170.2695151278494
 20
96.28971261058459
 30
0.0
 10
170.5457636676468
 20
96.46337613728463
 30
0.0
 10
170.69471205969
 20
96.60645043519983
 30
0.0
 10
170.8943401777711
 20
96.92625064062817
 30
0.0
 10
170.947077789554
 20
97.10652845373973
 30
0.0
 10
170.9473007347469
 20
97.38366274154899
 30
0.0
 10
170.9342703253173
 20
97.47897748248228
 30
0.0
 10
170.883163209774
 20
97.66600118888356
 30
0.0
 10
170.8453516635596
 20
97.75828473388057
 30
0.0
 10
170.7450251748996
 20
97.93994143102762
 30
0.0
 10
170.6824917326918
 20
98.02874140774018
 30
0.0
 10
170.537845625879
 20
98.19515374526937
 30
0.0
 10
170.4550164440183
 20
98.27393372330953
 30
0.0
 10
170.2687498788663
 20
98.4203728467051
 30
0.0
 10
170.1679736110323
 20
98.48599725180846
 30
0.0
 10
169.951609438678
 20
98.60182484114291
 30
0.0
 10
169.8346004367701
 20
98.65244244898155
 30
0.0
 10
169.5926467641319
 20
98.73377298664894
 30
0.0
 10
169.4679911796331
 20
98.76470027284716
 30
0.0
 10
169.2113105706728
 20
98.80664981310282
 30
0.0
 10
169.0786219661969
 20
98.81742913823545
 30
0.0
 10
168.686761139445
 20
98.81755348659172
 30
0.0
 10
168.4232073346237
 20
98.77438589526625
 30
0.0
 10
168.0620410037944
 20
98.65327434654287
 30
0.0
 10
167.945465501123
 20
98.60310469608987
 30
0.0
 10
167.7272070732173
 20
98.48650817029528
 30
0.0
 10
167.6266108959812
 20
98.420911948504
 30
0.0
 10
167.4420781369985
 20
98.27618097114886
 30
0.0
 10
167.3576215714764
 20
98.19619936958668
 30
0.0
 10
167.2125132613955
 20
98.02949524002923
 30
0.0
 10
167.1509569415162
 20
97.94228627324932
 30
0.0
 10
167.0501891284977
 20
97.7606655879312
 30
0.0
 10
167.0116194350696
 20
97.66682279004816
 30
0.0
 10
166.9604842761422
 20
97.48045763234613
 30
0.0
 10
166.9473371662628
 20
97.3867402808444
 30
0.0
 10
166.9471176985772
 20
97.19978600632815
 30
0.0
 10
166.9599845833213
 20
97.10925899305266
 30
0.0
 10
167.0106932924038
 20
96.93372395823084
 30
0.0
 10
167.0491941101587
 20
96.84782915411164
 30
0.0
 10
167.1493587221344
 20
96.68696018823023
 30
0.0
 10
167.2106872907408
 20
96.61181809333405
 30
0.0
 10
167.3557644096901
 20
96.47135697337066
 30
0.0
 10
167.439954031803
 20
96.4060830922362
 30
0.0
 10
167.7159096764131
 20
96.23236439476212
 30
0.0
 10
167.9386260982203
 20
96.14143726599437
 30
0.0
 10
168.4196035316879
 20
96.02059461808338
 30
0.0
 10
168.6825327468539
 20
95.98904358589755
 30
0.0
 10
169.0795737413851
 20
95.98904358589755
 30
0.0
  0
SPLINE
  5
13E
330
1F
100
AcDbEntity
  8
0
  6
HIDDEN
 62
     7
370
     0
100
AcDbSpline
210
0.0
220
0.0
230
1.0
 70
     8
 71
     3
 72
    28
 73
    24
 74
     0
 42
0.00000001
 43
0.00000001
 40
0.0
 40
0.0
 40
0.0
 40
0.0
 40
0.0625000000000002
 40
0.0625000000000002
 40
0.1250000000000005
 40
0.1250000000000005
 40
0.1875000000000007
 40
0.1875000000000007
 40
0.2500000000000009
 40
0.2500000000000009
 40
0.3750000000000016
 40
0.3750000000000016
 40
0.5000000000000022
 40
0.5000000000000022
 40
0.6250000000000028
 40
0.6250000000000028
 40
0.7500000000000036
 40
0.7500000000000036
 40
0.8125000000000026
 40
0.8125000000000026
 40
0.8750000000000016
 40
0.8750000000000016
 40
1.0
 40
1.0
 40
1.0
 40
1.0
 10
167.4536085885156
 20
91.75439673379611
 30
0.0
 10
167.423092909915
 20
91.74658728449081
 30
0.0
 10
167.3923174986882
 20
91.74257074631659
 30
0.0
 10
167.3295833356279
 20
91.74629832661489
 30
0.0
 10
167.2971520878321
 20
91.75436089556007
 30
0.0
 10
167.2336127487245
 20
91.78764470328127
 30
0.0
 10
167.2019162634236
 20
91.81341907973173
 30
0.0
 10
167.1429647957267
 20
91.8812106891925
 30
0.0
 10
167.1160356917854
 20
91.92240520147453
 30
0.0
 10
167.043622481318
 20
92.05874225305473
 30
0.0
 10
167.0080607700107
 20
92.16143904778303
 30
0.0
 10
166.9596114054506
 20
92.36289552103341
 30
0.0
 10
166.9472127434502
 20
92.46266871699308
 30
0.0
 10
166.9472407673447
 20
92.64213392159026
 30
0.0
 10
166.9592136989378
 20
92.72314070956892
 30
0.0
 10
167.0074088196388
 20
92.87528732442593
 30
0.0
 10
167.0431456400447
 20
92.94439478361889
 30
0.0
 10
167.1146893257801
 20
93.06125831590101
 30
0.0
 10
167.1420772709496
 20
93.10353880242786
 30
0.0
 10
167.2006277032732
 20
93.19555669368778
 30
0.0
 10
167.2321934537963
 20
93.24611798268764
 30
0.0
 10
167.3285324838243
 20
93.40723368827823
 30
0.0
 10
167.3921903068717
 20
93.52215337505262
 30
0.0
 10
167.4536085885158
 20
93.63540965665098
 30
0.0
  0
SPLINE
  5
13F
330
1F
100
AcDbEntity
  8
0
  6
HIDDEN
 62
     7
370
     0
100
AcDbSpline
210
0.0
220
0.0
230
1.0
 70
     8
 71
     3
 72
    16
 73
    12
 74
     0
 42
0.00000001
 43
0.00000001
 40
0.0
 40
0.0
 40
0.0
 40
0.0
 40
0.2500000000000053
 40
0.2500000000000053
 40
0.3750000000000054
 40
0.3750000000000054
 40
0.5000000000000056
 40
0.5000000000000056
 40
0.7500000000000028
 40
0.7500000000000028
 40
1.0
 40
1.0
 40
1.0
 40
1.0
 10
167.4536085885158
 20
93.63540965665098
 30
0.0
 10
167.5358424778918
 20
93.61397492383772
 30
0.0
 10
167.6171922327301
 20
93.57200085784335
 30
0.0
 10
167.719372027379
 20
93.47100516358138
 30
0.0
 10
167.7491779065114
 20
93.43141860940172
 30
0.0
 10
167.7945124157148
 20
93.33904897217259
 30
0.0
 10
167.8099119240713
 20
93.28525836534608
 30
0.0
 10
167.8251333623745
 20
93.11065180477055
 30
0.0
 10
167.7923333856197
 20
92.97216504397636
 30
0.0
 10
167.6808397130181
 20
92.68890543576316
 30
0.0
 10
167.604687131826
 20
92.54146313013544
 30
0.0
 10
167.5257836134325
 20
92.3908259212676
 30
0.0
  0
SPLINE
  5
140
330
1F
100
AcDbEntity
  8
0
  6
HIDDEN
 62
     7
370
     0
100
AcDbSpline
210
0.0
220
0.0
230
1.0
 70
     8
 71
     3
 72
    28
 73
    24
 74
     0
 42
0.00000001
 43
0.00000001
 40
0.0
 40
0.0
 40
0.0
 40
0.0
 40
0.0624999999999982
 40
0.0624999999999982
 40
0.1249999999999963
 40
0.1249999999999963
 40
0.1874999999999944
 40
0.1874999999999944
 40
0.2499999999999926
 40
0.2499999999999926
 40
0.3749999999999925
 40
0.3749999999999925
 40
0.4999999999999925
 40
0.4999999999999925
 40
0.6249999999999925
 40
0.6249999999999925
 40
0.7499999999999922
 40
0.7499999999999922
 40
0.812499999999994
 40
0.812499999999994
 40
0.8749999999999957
 40
0.8749999999999957
 40
1.0
 40
1.0
 40
1.0
 40
1.0
 10
167.5257836134326
 20
92.3908259212678
 30
0.0
 10
167.4903403995753
 20
92.39883122444323
 30
0.0
 10
167.4547493776052
 20
92.40287243585654
 30
0.0
 10
167.38244109241
 20
92.39848012510915
 30
0.0
 10
167.3451627134546
 20
92.38973584939139
 30
0.0
 10
167.2721364671825
 20
92.35295950466137
 30
0.0
 10
167.2355470495709
 20
92.32400749674626
 30
0.0
 10
167.1683649562692
 20
92.24737615512863
 30
0.0
 10
167.1375975687274
 20
92.19999589295983
 30
0.0
 10
167.0562312401983
 20
92.04529664700294
 30
0.0
 10
167.0165503841937
 20
91.92935897492
 30
0.0
 10
166.9616870283332
 20
91.70398665275243
 30
0.0
 10
166.9472248955998
 20
91.59328510845268
 30
0.0
 10
166.9472285911808
 20
91.39972917123661
 30
0.0
 10
166.9617278127552
 20
91.31454191241373
 30
0.0
 10
167.0165380398305
 20
91.16698788327965
 30
0.0
 10
167.0561808650638
 20
91.10417545207095
 30
0.0
 10
167.1374878853224
 20
90.9918885949242
 30
0.0
 10
167.1682219221337
 20
90.9511188148638
 30
0.0
 10
167.2349284008492
 20
90.85866964583654
 30
0.0
 10
167.2717546798742
 20
90.80553398605
 30
0.0
 10
167.3810158269144
 20
90.63983191536403
 30
0.0
 10
167.4546391257086
 20
90.51882165872215
 30
0.0
 10
167.525783613432
 20
90.40110260943983
 30
0.0
  0
SPLINE
  5
141
330
1F
100
AcDbEntity
  8
0
  6
HIDDEN
 62
     7
370
     0
100
AcDbSpline
210
0.0
220
0.0
230
1.0
 70
     8
 71
     3
 72
    18
 73
    14
 74
     0
 42
0.00000001
 43
0.00000001
 40
0.0
 40
0.0
 40
0.0
 40
0.0
 40
0.2499999999999985
 40
0.2499999999999985
 40
0.3749999999999989
 40
0.3749999999999989
 40
0.4999999999999993
 40
0.4999999999999993
 40
0.6249999999999998
 40
0.6249999999999998
 40
0.7500000000000001
 40
0.7500000000000001
 40
1.0
 40
1.0
 40
1.0
 40
1.0
 10
167.5257836134326
 20
90.40110260944029
 30
0.0
 10
167.6046541388836
 20
90.43898782902737
 30
0.0
 10
167.6799704188348
 20
90.49642002031588
 30
0.0
 10
167.7644153027492
 20
90.61982525105243
 30
0.0
 10
167.7868952165659
 20
90.66644847267952
 30
0.0
 10
167.814994179447
 20
90.77269782796758
 30
0.0
 10
167.8200575691882
 20
90.83254008110715
 30
0.0
 10
167.8098975120105
 20
90.95870382465691
 30
0.0
 10
167.7946537082105
 20
91.02684032292892
 30
0.0
 10
167.7492080106137
 20
91.16622237287802
 30
0.0
 10
167.7195688879023
 20
91.2369953787975
 30
0.0
 10
167.6182363857903
 20
91.45391381278306
 30
0.0
 10
167.535829306521
 20
91.60239072561092
 30
0.0
 10
167.4536085885158
 20
91.75439673379626
 30
0.0
  0
LWPOLYLINE
  5
142
330
1F
100
AcDbEntity
  8
0
  6
HIDDEN
 62
     7
370
     0
100
AcDbPolyline
 90
       22
 70
   128
 43
0.0
 10
168.9472267432
 20
88.6653862741
 10
168.3577163944
 20
88.7282158147
 10
167.8205866271
 20
88.911121756
 10
167.3835637783
 20
89.1978521026
 10
167.0854792459
 20
89.5629296049
 10
166.9528191488
 20
89.9739155246
 10
166.9973709188
 20
90.3942919591
 10
167.2151759356
 20
90.7867066176
 10
167.5868812677
 20
91.1162917355
 10
168.079459265
 20
91.3537622287
 10
168.6491422109
 20
91.4780178018
 10
169.2453112756
 20
91.4780178018
 10
169.8149942214
 20
91.3537622287
 10
170.3075722187
 20
91.1162917355
 10
170.6792775508
 20
90.7867066176
 10
170.8970825676
 20
90.3942919591
 10
170.9416343376
 20
89.9739155246
 10
170.8089742405
 20
89.5629296049
 10
170.5108897081
 20
89.1978521026
 10
170.0738668593
 20
88.911121756
 10
169.536737092
 20
88.7282158147
 10
168.9472267432
 20
88.6653862741
  0
SPLINE
  5
143
330
1F
100
AcDbEntity
  8
0
  6
HIDDEN
 62
     7
370
     0
100
AcDbSpline
210
0.0
220
0.0
230
1.0
 70
     8
 71
     3
 72
     8
 73
     4
 74
     0
 42
0.00000001
 43
0.00000001
 40
0.0
 40
0.0
 40
0.0
 40
0.0
 40
0.0011559732291308
 40
0.0011559732291308
 40
0.0011559732291308
 40
0.0011559732291308
 10
83.54722674320801
 20
108.3428964223541
 30
0.0
 10
83.88056131827533
 20
108.3389291425548
 30
0.0
 10
84.21389250930207
 20
108.3347492599782
 30
0.0
 10
84.547226743208
 20
108.3301841065704
 30
0.0
  0
SPLINE
  5
144
330
1F
100
AcDbEntity
  8
0
  6
HIDDEN
 62
     7
370
     0
100
AcDbSpline
210
0.0
220
0.0
230
1.0
 70
     8
 71
     3
 72
    11
 73
     7
 74
     0
 42
0.00000001
 43
0.00000001
 40
0.0
 40
0.0
 40
0.0
 40
0.0
 40
0.0005782382535738
 40
0.0005782382535738
 40
0.0005782382535738
 40
0.0011564766069467
 40
0.0011564766069467
 40
0.0011564766069467
 40
0.0011564766069467
 10
84.547226743208
 20
104.3463555015032
 30
0.0
 10
84.38057278923938
 20
104.3459179237416
 30
0.0
 10
84.21391211703741
 20
104.3454378590692
 30
0.0
 10
84.047245228372
 20
104.3449183196998
 30
0.0
 10
83.88057830997595
 20
104.3443987802378
 30
0.0
 10
83.71390518014272
 20
104.3438399512159
 30
0.0
 10
83.547226743208
 20
104.3432544076328
 30
0.0
  0
LINE
  5
145
330
1F
100
AcDbEntity
  8
0
  6
HIDDEN
 62
     7
370
     0
100
AcDbLine
 10
123.1070527117
 20
89.3430558037
 30
0.0
 11
123.1070527117
 21
123.3430558037
 31
0.0
  0
LINE
  5
146
330
1F
100
AcDbEntity
  8
0
  6
HIDDEN
 62
     7
370
     0
100
AcDbLine
 10
125.3972267432
 20
90.6180558037
 30
0.0
 11
125.3972267432
 21
122.0680557645
 31
0.0
  0
SPLINE
  5
147
330
1F
100
AcDbEntity
  8
0
  6
HIDDEN
 62
     7
370
     0
100
AcDbSpline
210
0.0
220
0.0
230
1.0
 70
     8
 71
     3
 72
    16
 73
    12
 74
     0
 42
0.00000001
 43
0.00000001
 40
0.0
 40
0.0
 40
0.0
 40
0.0
 40
0.124999999999998
 40
0.124999999999998
 40
0.249999999999996
 40
0.249999999999996
 40
0.4999999999999973
 40
0.4999999999999973
 40
0.7499999999999987
 40
0.7499999999999987
 40
1.0
 40
1.0
 40
1.0
 40
1.0
 10
92.24722674320802
 20
90.54156536768977
 30
0.0
 10
92.34234849787384
 20
90.54156536768977
 30
0.0
 10
92.43567856660191
 20
90.53774953429696
 30
0.0
 10
92.61894032733991
 20
90.52297898156716
 30
0.0
 10
92.70981804289693
 20
90.51182093359158
 30
0.0
 10
92.96661974041665
 20
90.46934966344986
 30
0.0
 10
93.12168710528864
 20
90.42830346624706
 30
0.0
 10
93.37543356684328
 20
90.33315734966517
 30
0.0
 10
93.47630401851113
 20
90.2783946155836
 30
0.0
 10
93.61155043320598
 20
90.1671334916797
 30
0.0
 10
93.64722674320801
 20
90.10996375435103
 30
0.0
 10
93.64722674320801
 20
90.0555421813173
 30
0.0
  0
SPLINE
  5
148
330
1F
100
AcDbEntity
  8
0
  6
HIDDEN
 62
     7
370
     0
100
AcDbSpline
210
0.0
220
0.0
230
1.0
 70
     8
 71
     3
 72
     8
 73
     4
 74
     0
 42
0.00000001
 43
0.00000001
 40
0.0
 40
0.0
 40
0.0
 40
0.0
 40
1.0
 40
1.0
 40
1.0
 40
1.0
 10
84.84722674320906
 20
92.68636831377201
 30
0.0
 10
84.84722674321097
 20
91.80247117145507
 30
0.0
 10
84.83374611730146
 20
91.08788792639312
 30
0.0
 10
84.83239474911038
 20
90.54156536768977
 30
0.0
  0
LINE
  5
149
330
1F
100
AcDbEntity
  8
0
  6
HIDDEN
 62
     7
370
     0
100
AcDbLine
 10
84.5472267432
 20
96.742229019
 30
0.0
 11
84.5472267432
 21
93.7112785731
 31
0.0
  0
SPLINE
  5
14A
330
1F
100
AcDbEntity
  8
0
  6
HIDDEN
 62
     7
370
     0
100
AcDbSpline
210
0.0
220
0.0
230
1.0
 70
     8
 71
     3
 72
    10
 73
     6
 74
     0
 42
0.00000001
 43
0.00000001
 40
0.0
 40
0.0
 40
0.0
 40
0.0
 40
0.5
 40
0.5
 40
1.0
 40
1.0
 40
1.0
 40
1.0
 10
84.84722674317145
 20
98.11006942807859
 30
0.0
 10
84.84722674317145
 20
97.86808546190662
 30
0.0
 10
84.81907671442526
 20
97.63374303428739
 30
0.0
 10
84.71548680145456
 20
97.17836801455258
 30
0.0
 10
84.63885809269289
 20
96.95676345267046
 30
0.0
 10
84.54722674320801
 20
96.74222901896113
 30
0.0
  0
LINE
  5
14B
330
1F
100
AcDbEntity
  8
0
  6
HIDDEN
 62
     7
370
     0
100
AcDbLine
 10
84.8472267432
 20
109.9476894253
 30
0.0
 11
84.8472267432
 21
98.110069428
 31
0.0
  0
SPLINE
  5
14C
330
1F
100
AcDbEntity
  8
0
  6
HIDDEN
 62
     7
370
     0
100
AcDbSpline
210
0.0
220
0.0
230
1.0
 70
     8
 71
     3
 72
     8
 73
     4
 74
     0
 42
0.00000001
 43
0.00000001
 40
0.0
 40
0.0
 40
0.0
 40
0.0
 40
1.0
 40
1.0
 40
1.0
 40
1.0
 10
84.54722674320801
 20
115.9499951170006
 30
0.0
 10
84.72825820787499
 20
115.5178876335892
 30
0.0
 10
84.84722674317719
 20
115.0637422300128
 30
0.0
 10
84.84722674317148
 20
114.5760421793334
 30
0.0
  0
LINE
  5
14D
330
1F
100
AcDbEntity
  8
0
  6
HIDDEN
 62
     7
370
     0
100
AcDbLine
 10
84.5472267432
 20
118.9831981172
 30
0.0
 11
84.5472267432
 21
115.949995117
 31
0.0
  0
SPLINE
  5
14E
330
1F
100
AcDbEntity
  8
0
  6
HIDDEN
 62
     7
370
     0
100
AcDbSpline
210
0.0
220
0.0
230
1.0
 70
     8
 71
     3
 72
    10
 73
     6
 74
     0
 42
0.00000001
 43
0.00000001
 40
0.0
 40
0.0
 40
0.0
 40
0.0
 40
0.5
 40
0.5
 40
1.0
 40
1.0
 40
1.0
 40
1.0
 10
84.84722674331314
 20
119.9997432936413
 30
0.0
 10
84.84722674331135
 20
119.835106948048
 30
0.0
 10
84.82006807288647
 20
119.6679517252616
 30
0.0
 10
84.71430307882697
 20
119.3293287195994
 30
0.0
 10
84.63788829130617
 20
119.1570569434428
 30
0.0
 10
84.54722674320803
 20
118.9831981171923
 30
0.0
  0
SPLINE
  5
14F
330
1F
100
AcDbEntity
  8
0
  6
HIDDEN
 62
     7
370
     0
100
AcDbSpline
210
0.0
220
0.0
230
1.0
 70
     8
 71
     3
 72
    18
 73
    14
 74
     0
 42
0.00000001
 43
0.00000001
 40
0.0
 40
0.0
 40
0.0
 40
0.0
 40
0.2500000000000033
 40
0.2500000000000033
 40
0.3750000000000029
 40
0.3750000000000029
 40
0.5000000000000026
 40
0.5000000000000026
 40
0.6250000000000022
 40
0.6250000000000022
 40
0.7500000000000018
 40
0.7500000000000018
 40
1.0
 40
1.0
 40
1.0
 40
1.0
 10
89.64722674320802
 20
122.6305694261256
 30
0.0
 10
89.64722674320801
 20
122.5760949055734
 30
0.0
 10
89.61231605181582
 20
122.5197138462209
 30
0.0
 10
89.51030675048278
 20
122.4356370053674
 30
0.0
 10
89.46867039580466
 20
122.4083033013765
 30
0.0
 10
89.37026460031592
 20
122.3553493857775
 30
0.0
 10
89.31272138861165
 20
122.3294620320603
 30
0.0
 10
89.1854232150387
 20
122.2816844872271
 30
0.0
 10
89.11583591028123
 20
122.2597365690492
 30
0.0
 10
88.96440166512627
 20
122.2203040041365
 30
0.0
 10
88.88171776203232
 20
122.2027477549106
 30
0.0
 10
88.62560629999427
 20
122.1603089894901
 30
0.0
 10
88.4376912961063
 20
122.1445462397531
 30
0.0
 10
88.247226743208
 20
122.1445462397531
 30
0.0
  0
LINE
  5
150
330
1F
100
AcDbEntity
  8
0
  6
HIDDEN
 62
     7
370
     0
100
AcDbLine
 10
88.2472267432
 20
122.1445462398
 30
0.0
 11
84.8472267433
 21
122.1445462398
 31
0.0
  0
LINE
  5
151
330
1F
100
AcDbEntity
  8
0
  6
HIDDEN
 62
     7
370
     0
100
AcDbLine
 10
84.7782577566
 20
90.5415653677
 30
0.0
 11
92.2472267432
 21
90.5415653677
 31
0.0
  0
SPLINE
  5
152
330
1F
100
AcDbEntity
  8
0
  6
HIDDEN
 62
     7
370
     0
100
AcDbSpline
210
0.0
220
0.0
230
1.0
 70
     8
 71
     3
 72
    22
 73
    18
 74
     0
 42
0.00000001
 43
0.00000001
 40
0.0
 40
0.0
 40
0.0
 40
0.0
 40
0.125
 40
0.125
 40
0.2499999999999999
 40
0.2499999999999999
 40
0.5000000000000003
 40
0.5000000000000003
 40
0.5625000000000004
 40
0.5625000000000004
 40
0.6250000000000006
 40
0.6250000000000006
 40
0.7500000000000004
 40
0.7500000000000004
 40
0.8750000000000002
 40
0.8750000000000002
 40
1.0
 40
1.0
 40
1.0
 40
1.0
 10
84.7782577565659
 20
90.54156536768977
 30
0.0
 10
84.76517536383751
 20
90.79667107783744
 30
0.0
 10
84.7519558003977
 20
91.08982933694135
 30
0.0
 10
84.72950862260359
 20
91.75212980256616
 30
0.0
 10
84.72003015557914
 20
92.12240372317754
 30
0.0
 10
84.70083219464263
 20
93.34496052629132
 30
0.0
 10
84.7019459676395
 20
94.2820994524232
 30
0.0
 10
84.72085676059254
 20
95.60197068193818
 30
0.0
 10
84.72548628845155
 20
95.87347259091449
 30
0.0
 10
84.73596750819748
 20
96.43185742571677
 30
0.0
 10
84.74176276948192
 20
96.71898028165639
 30
0.0
 10
84.76007199038685
 20
97.59156953602809
 30
0.0
 10
84.77410692466722
 20
98.19202521238394
 30
0.0
 10
84.80356409680407
 20
99.42949970488
 30
0.0
 10
84.81911978778561
 20
100.0665158615235
 30
0.0
 10
84.84291433778252
 20
101.378004459208
 30
0.0
 10
84.85093338992789
 20
102.0541270708685
 30
0.0
 10
84.847226743208
 20
102.7384221821533
 30
0.0
  0
LINE
  5
153
330
1F
100
AcDbEntity
  8
0
  6
HIDDEN
 62
     7
370
     0
100
AcDbLine
 10
84.8472267433
 20
109.9476894253
 30
0.0
 11
84.8472267433
 21
122.1445462398
 31
0.0
  0
SPLINE
  5
154
330
1F
100
AcDbEntity
  8
0
  6
HIDDEN
 62
     7
370
     0
100
AcDbSpline
210
0.0
220
0.0
230
1.0
 70
     8
 71
     3
 72
    10
 73
     6
 74
     0
 42
0.00000001
 43
0.00000001
 40
0.0
 40
0.0
 40
0.0
 40
0.0
 40
0.5
 40
0.5
 40
1.0
 40
1.0
 40
1.0
 40
1.0
 10
84.847226743208
 20
102.7384221821383
 30
0.0
 10
84.84722674320781
 20
103.0123373302123
 30
0.0
 10
84.82146751333899
 20
103.283278908942
 30
0.0
 10
84.7182615806056
 20
103.8189699905441
 30
0.0
 10
84.64092341673118
 20
104.0847167940659
 30
0.0
 10
84.54722674320801
 20
104.3463555015032
 30
0.0
  0
SPLINE
  5
155
330
1F
100
AcDbEntity
  8
0
  6
HIDDEN
 62
     7
370
     0
100
AcDbSpline
210
0.0
220
0.0
230
1.0
 70
     8
 71
     3
 72
    10
 73
     6
 74
     0
 42
0.00000001
 43
0.00000001
 40
0.0
 40
0.0
 40
0.0
 40
0.0
 40
0.5
 40
0.5
 40
1.0
 40
1.0
 40
1.0
 40
1.0
 10
84.547226743208
 20
108.3301841065705
 30
0.0
 10
84.64045732355913
 20
108.5940779131687
 30
0.0
 10
84.71548693508785
 20
108.8602582222671
 30
0.0
 10
84.82055403306735
 20
109.3985807940857
 30
0.0
 10
84.84722674331194
 20
109.6713289087014
 30
0.0
 10
84.84722674331313
 20
109.9476894252885
 30
0.0
  0
LINE
  5
156
330
1F
100
AcDbEntity
  8
0
  6
HIDDEN
 62
     7
370
     0
100
AcDbLine
 10
84.5472267432
 20
104.3463555015
 30
0.0
 11
84.5472267432
 21
108.3301841066
 31
0.0
  0
ARC
  5
157
330
1F
100
AcDbEntity
  8
0
  6
HIDDEN
 62
     7
370
     0
100
AcDbCircle
 10
152.4034036606
 20
92.1382441249
 30
0.0
 40
15.12448918147084
100
AcDbArc
 50
0.95689471
 51
5.6809840321
  0
ARC
  5
158
330
1F
100
AcDbEntity
  8
0
  6
HIDDEN
 62
     7
370
     0
100
AcDbCircle
 10
187.4347158008
 20
92.1414743032
 30
0.0
 40
19.98485612842578
100
AcDbArc
 50
181.1098052345
 51
184.9959039226
  0
SPLINE
  5
159
330
1F
100
AcDbEntity
  8
0
  6
HIDDEN
 62
     7
370
     0
100
AcDbSpline
210
0.0
220
0.0
230
1.0
 70
     8
 71
     3
 72
    60
 73
    56
 74
     0
 42
0.00000001
 43
0.00000001
 40
-0.0625000000000013
 40
-0.0625000000000013
 40
0.0
 40
0.0
 40
0.0312499999999999
 40
0.0312499999999999
 40
0.0624999999999998
 40
0.0624999999999998
 40
0.0937499999999998
 40
0.0937499999999998
 40
0.1249999999999997
 40
0.1249999999999997
 40
0.1874999999999988
 40
0.1874999999999988
 40
0.2499999999999978
 40
0.2499999999999978
 40
0.2812499999999972
 40
0.2812499999999972
 40
0.3124999999999966
 40
0.3124999999999966
 40
0.3437499999999959
 40
0.3437499999999959
 40
0.3749999999999953
 40
0.3749999999999953
 40
0.4062499999999944
 40
0.4062499999999944
 40
0.4374999999999936
 40
0.4374999999999936
 40
0.4687499999999926
 40
0.4687499999999926
 40
0.4999999999999917
 40
0.4999999999999917
 40
0.5624999999999916
 40
0.5624999999999916
 40
0.5937499999999921
 40
0.5937499999999921
 40
0.6249999999999927
 40
0.6249999999999927
 40
0.6562499999999933
 40
0.6562499999999933
 40
0.6874999999999939
 40
0.6874999999999939
 40
0.7187499999999944
 40
0.7187499999999944
 40
0.7499999999999951
 40
0.7499999999999951
 40
0.7812499999999957
 40
0.7812499999999957
 40
0.8124999999999962
 40
0.8124999999999962
 40
0.8437499999999968
 40
0.8437499999999968
 40
0.8749999999999974
 40
0.8749999999999974
 40
0.9374999999999987
 40
0.9374999999999987
 40
1.0
 40
1.0
 40
1.03125
 40
1.03125
 10
169.2119207395622
 20
113.8686408967991
 30
0.0
 10
168.814879745031
 20
113.8686408967991
 30
0.0
 10
168.684785546849
 20
113.8793068214331
 30
0.0
 10
168.428905659861
 20
113.9209003294299
 30
0.0
 10
168.3017788663757
 20
113.9523418678343
 30
0.0
 10
168.0596804269152
 20
114.0337333055685
 30
0.0
 10
167.9448883840946
 20
114.0833099828887
 30
0.0
 10
167.7276404038144
 20
114.1993771816805
 30
0.0
 10
167.6249383585667
 20
114.2663681465954
 30
0.0
 10
167.3486898187691
 20
114.4834661776227
 30
0.0
 10
167.1997414267261
 20
114.6554919799037
 30
0.0
 10
167.000113308645
 20
115.0161094646743
 30
0.0
 10
166.9473756968621
 20
115.2084291377021
 30
0.0
 10
166.9471527516692
 20
115.4856126898966
 30
0.0
 10
166.9601831610987
 20
115.5780219081508
 30
0.0
 10
167.0112902766421
 20
115.7539647208315
 30
0.0
 10
167.0491018228564
 20
115.8381306679107
 30
0.0
 10
167.1494283115165
 20
115.999266749924
 30
0.0
 10
167.2119617537243
 20
116.0756803678613
 30
0.0
 10
167.3566078605371
 20
116.2154160497615
 30
0.0
 10
167.4394370423977
 20
116.279758515847
 30
0.0
 10
167.6257036075498
 20
116.3969051511285
 30
0.0
 10
167.7264798753837
 20
116.4481023336684
 30
0.0
 10
167.942844047738
 20
116.5371068946566
 30
0.0
 10
168.0598530496459
 20
116.5752128967047
 30
0.0
 10
168.3018067222841
 20
116.6358390792693
 30
0.0
 10
168.426462306783
 20
116.6585394482901
 30
0.0
 10
168.6831429157433
 20
116.6892270819414
 30
0.0
 10
168.8158315202191
 20
116.6970378055578
 30
0.0
 10
169.207692346971
 20
116.6971281854163
 30
0.0
 10
169.4712461517923
 20
116.6661065439107
 30
0.0
 10
169.8324124826217
 20
116.5758362827873
 30
0.0
 10
169.948987985293
 20
116.5380821225413
 30
0.0
 10
170.1672464131987
 20
116.4485030513035
 30
0.0
 10
170.2678425904348
 20
116.3973197175405
 30
0.0
 10
170.4523753494175
 20
116.2815726219942
 30
0.0
 10
170.5368319149397
 20
116.2162809420252
 30
0.0
 10
170.6819402250206
 20
116.0763263303152
 30
0.0
 10
170.7434965448999
 20
116.0013061630398
 30
0.0
 10
170.8442643579183
 20
115.8402820772862
 30
0.0
 10
170.8828340513464
 20
115.7547158298968
 30
0.0
 10
170.9339692102738
 20
115.5794359068027
 30
0.0
 10
170.9471163201533
 20
115.4886494789498
 30
0.0
 10
170.9473357878388
 20
115.3017437003825
 30
0.0
 10
170.9344689030947
 20
115.2083475709139
 30
0.0
 10
170.8837601940123
 20
115.0218158464697
 30
0.0
 10
170.8452593762574
 20
114.9276561502612
 30
0.0
 10
170.7450947642816
 20
114.7462998024259
 30
0.0
 10
170.6837661956752
 20
114.6590005341388
 30
0.0
 10
170.5386890767259
 20
114.4917665200418
 30
0.0
 10
170.4544994546131
 20
114.4118329776039
 30
0.0
 10
170.178543810003
 20
114.1946980672912
 30
0.0
 10
169.9558273881958
 20
114.0746273408821
 30
0.0
 10
169.4748499547282
 20
113.9125349333925
 30
0.0
 10
169.2119207395622
 20
113.8686408967991
 30
0.0
 10
168.814879745031
 20
113.8686408967991
 30
0.0
  0
LINE
  5
15A
330
1F
100
AcDbEntity
  8
0
  6
HIDDEN
 62
     7
370
     0
100
AcDbLine
 10
166.4472267432
 20
93.9430558037
 30
0.0
 11
166.4472267432
 21
118.7430558037
 31
0.0
  0
LINE
  5
15B
330
1F
100
AcDbEntity
  8
0
  6
HIDDEN
 62
     7
370
     0
100
AcDbLine
 10
172.4472267432
 20
112.9574340814
 30
0.0
 11
172.4472267432
 21
118.8430558037
 31
0.0
  0
LINE
  5
15C
330
1F
100
AcDbEntity
  8
0
  6
HIDDEN
 62
     7
370
     0
100
AcDbLine
 10
172.4472267432
 20
112.9574340814
 30
0.0
 11
172.4472267432
 21
99.7286775261
 31
0.0
  0
LINE
  5
15D
330
1F
100
AcDbEntity
  8
0
  6
HIDDEN
 62
     7
370
     0
100
AcDbLine
 10
172.4472267432
 20
93.8430558037
 30
0.0
 11
172.4472267432
 21
99.7286775261
 31
0.0
  0
LINE
  5
15E
330
1F
100
AcDbEntity
  8
0
  6
HIDDEN
 62
     7
370
     0
100
AcDbLine
 10
84.6972267432
 20
88.3530558037
 30
0.0
 11
84.6972267432
 21
85.4731180383
 31
0.0
  0
LINE
  5
15F
330
1F
100
AcDbEntity
  8
0
  6
HIDDEN
 62
     7
370
     0
100
AcDbLine
 10
93.6472267432
 20
88.3530558037
 30
0.0
 11
93.6472267432
 21
84.3793182725
 31
0.0
  0
LINE
  5
160
330
1F
100
AcDbEntity
  8
0
  6
HIDDEN
 62
     7
370
     0
100
AcDbLine
 10
84.6972267432
 20
124.3330558037
 30
0.0
 11
84.6972267432
 21
127.2129935691
 31
0.0
  0
LINE
  5
161
330
1F
100
AcDbEntity
  8
0
  6
HIDDEN
 62
     7
370
     0
100
AcDbLine
 10
89.6472267432
 20
124.3330558037
 30
0.0
 11
89.6472267432
 21
128.1871634761
 31
0.0
  0
LINE
  5
162
330
1F
100
AcDbEntity
  8
0
  6
HIDDEN
 62
     7
370
     0
100
AcDbLine
 10
134.2472267432
 20
96.8430558037
 30
0.0
 11
134.2472267432
 21
115.8430558037
 31
0.0
  0
LINE
  5
163
330
1F
100
AcDbEntity
  8
0
  6
HIDDEN
 62
     7
370
     0
100
AcDbLine
 10
137.2472267432
 20
96.8430558037
 30
0.0
 11
137.2472267432
 21
115.8430558037
 31
0.0
  0
LINE
  5
164
330
1F
100
AcDbEntity
  8
0
  6
HIDDEN
 62
     7
370
     0
100
AcDbLine
 10
125.8972267432
 20
97.8430558037
 30
0.0
 11
125.8972267432
 21
114.8430558037
 31
0.0
  0
LINE
  5
165
330
1F
100
AcDbEntity
  8
0
  6
HIDDEN
 62
     7
370
     0
100
AcDbLine
 10
120.3972267432
 20
74.8589328209
 30
0.0
 11
120.3972267432
 21
79.9430558037
 31
0.0
  0
LINE
  5
166
330
1F
100
AcDbEntity
  8
0
  6
HIDDEN
 62
     7
370
     0
100
AcDbLine
 10
128.3972267432
 20
79.9430558037
 30
0.0
 11
120.3972267432
 21
79.9430558037
 31
0.0
  0
LINE
  5
167
330
1F
100
AcDbEntity
  8
0
  6
HIDDEN
 62
     7
370
     0
100
AcDbLine
 10
131.6349015455
 20
79.9430558037
 30
0.0
 11
128.3972267432
 21
79.9430558037
 31
0.0
  0
LINE
  5
168
330
1F
100
AcDbEntity
  8
0
  6
HIDDEN
 62
     7
370
     0
100
AcDbLine
 10
141.3972267432
 20
79.9430558037
 30
0.0
 11
135.2595519409
 21
79.9430558037
 31
0.0
  0
LINE
  5
169
330
1F
100
AcDbEntity
  8
0
  6
HIDDEN
 62
     7
370
     0
100
AcDbLine
 10
128.3972267432
 20
132.7430558037
 30
0.0
 11
120.3972267432
 21
132.7430558037
 31
0.0
  0
LINE
  5
16A
330
1F
100
AcDbEntity
  8
0
  6
HIDDEN
 62
     7
370
     0
100
AcDbLine
 10
141.3972267432
 20
132.7430558037
 30
0.0
 11
134.9629292115
 21
132.7430558037
 31
0.0
  0
LINE
  5
16B
330
1F
100
AcDbEntity
  8
0
  6
HIDDEN
 62
     7
370
     0
100
AcDbLine
 10
131.9315242749
 20
132.7430558037
 30
0.0
 11
128.3972267432
 21
132.7430558037
 31
0.0
  0
SPLINE
  5
16C
330
1F
100
AcDbEntity
  8
0
  6
HIDDEN
 62
     7
370
     0
100
AcDbSpline
210
0.0
220
0.0
230
1.0
 70
     8
 71
     3
 72
    11
 73
     7
 74
     0
 42
0.00000001
 43
0.00000001
 40
0.0
 40
0.0
 40
0.0
 40
0.0
 40
0.0008203708524183
 40
0.0008203708524183
 40
0.0008203708524183
 40
0.0016409967870154
 40
0.0016409967870154
 40
0.0016409967870154
 40
0.0016409967870154
 10
84.697226743208
 20
90.4910230530787
 30
0.0
 10
84.50606844290934
 20
90.44984402445958
 30
0.0
 10
84.31464137283714
 20
90.41109005222957
 30
0.0
 10
84.1229957493165
 20
90.37472229295102
 30
0.0
 10
83.93129034423605
 20
90.33834318918498
 30
0.0
 10
83.73935139217711
 20
90.30434893841745
 30
0.0
 10
83.54722674510631
 20
90.27270081302623
 30
0.0
  0
ELLIPSE
  5
16D
330
1F
100
AcDbEntity
  8
0
  6
HIDDEN
 62
     7
370
     0
100
AcDbEllipse
 10
79.3047948805
 20
106.3430558037
 30
0.0
 11
20.19992452772428
 21
-1.421085471520200E-14
 31
0.0
210
0.0
220
0.0
230
1.0
 40
0.816496581
 41
1.300566354937166
 42
1.359198697442763
  0
LINE
  5
16E
330
1F
100
AcDbEntity
  8
0
  6
HIDDEN
 62
     7
370
     0
100
AcDbLine
 10
93.6472267432
 20
88.3530558037
 30
0.0
 11
93.6472267432
 21
90.0555421813
 31
0.0
  0
LINE
  5
16F
330
1F
100
AcDbEntity
  8
0
  6
HIDDEN
 62
     7
370
     0
100
AcDbLine
 10
84.6972267432
 20
88.3530558037
 30
0.0
 11
84.6972267432
 21
90.4910230531
 31
0.0
  0
LINE
  5
170
330
1F
100
AcDbEntity
  8
0
  6
HIDDEN
 62
     7
370
     0
100
AcDbLine
 10
84.7782577566
 20
90.5415653677
 30
0.0
 11
84.6972267432
 21
90.4910230531
 31
0.0
  0
LINE
  5
171
330
1F
100
AcDbEntity
  8
0
  6
HIDDEN
 62
     7
370
     0
100
AcDbLine
 10
89.6472267432
 20
124.3330558037
 30
0.0
 11
89.6472267432
 21
122.6305694261
 31
0.0
  0
LINE
  5
172
330
1F
100
AcDbEntity
  8
0
  6
HIDDEN
 62
     7
370
     0
100
AcDbLine
 10
84.6972267432
 20
124.3330558037
 30
0.0
 11
84.6972267432
 21
122.2376802527
 31
0.0
  0
SPLINE
  5
173
330
1F
100
AcDbEntity
  8
0
  6
HIDDEN
 62
     7
370
     0
100
AcDbSpline
210
0.0
220
0.0
230
1.0
 70
     8
 71
     3
 72
     8
 73
     4
 74
     0
 42
0.00000001
 43
0.00000001
 40
0.0
 40
0.0
 40
0.0
 40
0.0
 40
1.0
 40
1.0
 40
1.0
 40
1.0
 10
84.697226743208
 20
122.23768025272
 30
0.0
 10
84.74723224105546
 20
122.2066444791871
 30
0.0
 10
84.79723231062383
 20
122.1755998348463
 30
0.0
 10
84.84722674331316
 20
122.1445462397531
 30
0.0
  0
SPLINE
  5
174
330
1F
100
AcDbEntity
  8
0
  6
HIDDEN
 62
     7
370
     0
100
AcDbSpline
210
0.0
220
0.0
230
1.0
 70
     8
 71
     3
 72
    20
 73
    16
 74
     0
 42
0.00000001
 43
0.00000001
 40
0.0
 40
0.0
 40
0.0
 40
0.0
 40
0.1119319396859475
 40
0.1774507566208943
 40
0.2490719019419149
 40
0.3298198833548126
 40
0.3985918855876999
 40
0.4998710367618484
 40
0.6138355009323095
 40
0.6790010540639615
 40
0.7495271501932941
 40
0.8296726487372043
 40
0.8981159263036466
 40
0.9995257504168481
 40
1.0
 40
1.0
 40
1.0
 40
1.0
 10
110.1960053199078
 20
82.74307856248855
 30
0.0
 10
110.1526902829959
 20
82.75650488388571
 30
0.0
 10
110.0840209997274
 20
82.77779023726423
 30
0.0
 10
109.6388863188786
 20
82.88109052696576
 30
0.0
 10
109.1123303927458
 20
82.99439326065863
 30
0.0
 10
108.4269046696852
 20
83.1173262763364
 30
0.0
 10
107.5335874544566
 20
83.23936069679519
 30
0.0
 10
106.4202280038096
 20
83.35709702015198
 30
0.0
 10
105.3094539232176
 20
83.36907251414313
 30
0.0
 10
104.4247056676599
 20
83.34201423414308
 30
0.0
 10
103.7575088931184
 20
83.2940821353029
 30
0.0
 10
103.2162371308527
 20
83.23778876333007
 30
0.0
 10
102.8286543583978
 20
83.1927053192538
 30
0.0
 10
102.63472022009
 20
83.15383251888731
 30
0.0
 10
102.6978302012698
 20
83.16453992483297
 30
0.0
 10
102.6981239653605
 20
83.1645897656238
 30
0.0
  0
LINE
  5
175
330
1F
100
AcDbEntity
  8
0
  6
HIDDEN
 62
     7
370
     0
100
AcDbLine
 10
103.6072386556
 20
83.2753939472
 30
0.0
 11
103.7910839687
 21
83.2935832897
 31
0.0
  0
SPLINE
  5
176
330
1F
100
AcDbEntity
  8
0
  6
HIDDEN
 62
     7
370
     0
100
AcDbSpline
210
0.0
220
0.0
230
1.0
 70
     8
 71
     3
 72
    27
 73
    23
 74
     0
 42
0.00000001
 43
0.00000001
 40
0.0
 40
0.0
 40
0.0
 40
0.0
 40
0.0007777328048627
 40
0.0456599279791617
 40
0.1022411949177211
 40
0.1705188040283844
 40
0.2091102042578487
 40
0.2506371507039716
 40
0.3210824316883654
 40
0.3861757074521227
 40
0.4266545720478344
 40
0.4647855562729639
 40
0.5005896207623426
 40
0.5451810708989379
 40
0.6016749290191771
 40
0.6700804218508492
 40
0.7088174790335054
 40
0.7505459305711215
 40
0.8222100110783422
 40
0.8877489740582009
 40
0.9472223101276195
 40
1.0
 40
1.0
 40
1.0
 40
1.0
 10
102.6978701767388
 20
129.5214753387125
 30
0.0
 10
102.6976564428066
 20
129.5215214104273
 30
0.0
 10
102.6851083338826
 20
129.5242262354828
 30
0.0
 10
102.7341941208912
 20
129.5123922226723
 30
0.0
 10
102.8792865902261
 20
129.4889508071568
 30
0.0
 10
103.1523424778908
 20
129.4550457970971
 30
0.0
 10
103.4808683580083
 20
129.4214771389207
 30
0.0
 10
103.8735962826628
 20
129.3832937635021
 30
0.0
 10
104.4233241889493
 20
129.3443251068944
 30
0.0
 10
105.0493468526246
 20
129.3248639982304
 30
0.0
 10
105.5925383600997
 20
129.3226783210696
 30
0.0
 10
106.0376072575876
 20
129.3311932021193
 30
0.0
 10
106.5040550537317
 20
129.3509765990415
 30
0.0
 10
107.0412957037083
 20
129.395138984745
 30
0.0
 10
107.6895091303333
 20
129.4675546037062
 30
0.0
 10
108.2750477767569
 20
129.5484567010757
 30
0.0
 10
108.7560173518903
 20
129.6266226795032
 30
0.0
 10
109.2014324175568
 20
129.7113948616
 30
0.0
 10
109.6399310644484
 20
129.8051776300953
 30
0.0
 10
109.9789602232273
 20
129.8830823924281
 30
0.0
 10
110.1663287261929
 20
129.9332815656976
 30
0.0
 10
110.1868199736538
 20
129.9399488619977
 30
0.0
 10
110.1964544575663
 20
129.9430836618221
 30
0.0
  0
LINE
  5
177
330
1F
100
AcDbEntity
  8
0
  6
HIDDEN
 62
     7
370
     0
100
AcDbLine
 10
151.8972267432
 20
80.9204060729
 30
0.0
 11
146.8972267432
 21
80.9204060729
 31
0.0
  0
LINE
  5
178
330
1F
100
AcDbEntity
  8
0
  6
HIDDEN
 62
     7
370
     0
100
AcDbLine
 10
149.3972267432
 20
131.7657055345
 30
0.0
 11
151.8972267432
 21
131.7657055345
 31
0.0
  0
LINE
  5
179
330
1F
100
AcDbEntity
  8
0
  6
HIDDEN
 62
     7
370
     0
100
AcDbLine
 10
146.8972267432
 20
131.7657055345
 30
0.0
 11
149.3972267432
 21
131.7657055345
 31
0.0
  0
LINE
  5
17A
330
1F
100
AcDbEntity
  8
0
  6
HIDDEN
 62
     7
370
     0
100
AcDbLine
 10
149.3972267432
 20
118.3430558037
 30
0.0
 11
151.8972267432
 21
118.3430558037
 31
0.0
  0
LINE
  5
17B
330
1F
100
AcDbEntity
  8
0
  6
HIDDEN
 62
     7
370
     0
100
AcDbLine
 10
146.8972267432
 20
118.3430558037
 30
0.0
 11
149.3972267432
 21
118.3430558037
 31
0.0
  0
LINE
  5
17C
330
1F
100
AcDbEntity
  8
0
  6
HIDDEN
 62
     7
370
     0
100
AcDbLine
 10
151.8972267432
 20
94.3430558037
 30
0.0
 11
146.8972267432
 21
94.3430558037
 31
0.0
  0
SPLINE
  5
17D
330
1F
100
AcDbEntity
  8
0
  6
HIDDEN
 62
     7
370
     0
100
AcDbSpline
210
0.0
220
0.0
230
1.0
 70
     8
 71
     3
 72
     8
 73
     4
 74
     0
 42
0.00000001
 43
0.00000001
 40
0.0
 40
0.0
 40
0.0
 40
0.0
 40
0.000159097691435
 40
0.000159097691435
 40
0.000159097691435
 40
0.000159097691435
 10
84.83239474911038
 20
90.54156536768977
 30
0.0
 10
84.78734327971102
 20
90.51358648405588
 30
0.0
 10
84.74228724240143
 20
90.48561495437032
 30
0.0
 10
84.697226743208
 20
90.45765061570697
 30
0.0
  0
SPLINE
  5
17E
330
1F
100
AcDbEntity
  8
0
  6
HIDDEN
 62
     7
370
     0
100
AcDbSpline
210
0.0
220
0.0
230
1.0
 70
     8
 71
     3
 72
    11
 73
     7
 74
     0
 42
0.00000001
 43
0.00000001
 40
0.0
 40
0.0
 40
0.0
 40
0.0
 40
0.0008212909311356
 40
0.0008212909311356
 40
0.0008212909311356
 40
0.0016428257242859
 40
0.0016428257242859
 40
0.0016428257242859
 40
0.0016428257242859
 10
84.697226743208
 20
90.45765061570697
 30
0.0
 10
84.50608172172566
 20
90.41436442687717
 30
0.0
 10
84.31466338604909
 20
90.37342791726314
 30
0.0
 10
84.12301731138797
 20
90.33482614590031
 30
0.0
 10
83.93131422984636
 20
90.29621289208697
 30
0.0
 10
83.73936910656096
 20
90.25993268282522
 30
0.0
 10
83.54722674320797
 20
90.22596577649851
 30
0.0
  0
SPLINE
  5
17F
330
1F
100
AcDbEntity
  8
0
  6
HIDDEN
 62
     7
370
     0
100
AcDbSpline
210
0.0
220
0.0
230
1.0
 70
     8
 71
     3
 72
    28
 73
    24
 74
     0
 42
0.00000001
 43
0.00000001
 40
0.0
 40
0.0
 40
0.0
 40
0.0
 40
0.0624999999999998
 40
0.0624999999999998
 40
0.1249999999999997
 40
0.1249999999999997
 40
0.1874999999999995
 40
0.1874999999999995
 40
0.2499999999999993
 40
0.2499999999999993
 40
0.3749999999999982
 40
0.3749999999999982
 40
0.499999999999997
 40
0.499999999999997
 40
0.6249999999999958
 40
0.6249999999999958
 40
0.7499999999999946
 40
0.7499999999999946
 40
0.8124999999999957
 40
0.8124999999999957
 40
0.8749999999999967
 40
0.8749999999999967
 40
1.0
 40
1.0
 40
1.0
 40
1.0
 10
167.5257836134327
 20
120.2952856861752
 30
0.0
 10
167.4903403995753
 20
120.2872803829998
 30
0.0
 10
167.4547493776052
 20
120.2832391715865
 30
0.0
 10
167.38244109241
 20
120.2876314823339
 30
0.0
 10
167.3451627134547
 20
120.2963757580516
 30
0.0
 10
167.2721364671825
 20
120.3331521027816
 30
0.0
 10
167.2355470495709
 20
120.3621041106967
 30
0.0
 10
167.1683649562692
 20
120.4387354523143
 30
0.0
 10
167.1375975687275
 20
120.4861157144831
 30
0.0
 10
167.0562312401983
 20
120.64081496044
 30
0.0
 10
167.0165503841937
 20
120.7567526325229
 30
0.0
 10
166.9616870283332
 20
120.9821249546904
 30
0.0
 10
166.9472248955999
 20
121.0928264989902
 30
0.0
 10
166.9472285911808
 20
121.2863824362062
 30
0.0
 10
166.9617278127552
 20
121.3715696950291
 30
0.0
 10
167.0165380398305
 20
121.5191237241631
 30
0.0
 10
167.0561808650638
 20
121.5819361553718
 30
0.0
 10
167.1374878853223
 20
121.6942230125185
 30
0.0
 10
167.1682219221337
 20
121.7349927925789
 30
0.0
 10
167.2349284008491
 20
121.8274419616061
 30
0.0
 10
167.2717546798742
 20
121.8805776213926
 30
0.0
 10
167.3810158269144
 20
122.0462796920786
 30
0.0
 10
167.4546391257086
 20
122.1672899487205
 30
0.0
 10
167.525783613432
 20
122.2850089980029
 30
0.0
  0
SPLINE
  5
180
330
1F
100
AcDbEntity
  8
0
  6
HIDDEN
 62
     7
370
     0
100
AcDbSpline
210
0.0
220
0.0
230
1.0
 70
     8
 71
     3
 72
    18
 73
    14
 74
     0
 42
0.00000001
 43
0.00000001
 40
0.0
 40
0.0
 40
0.0
 40
0.0
 40
0.2500000000000019
 40
0.2500000000000019
 40
0.3750000000000027
 40
0.3750000000000027
 40
0.5000000000000019
 40
0.5000000000000019
 40
0.6250000000000011
 40
0.6250000000000011
 40
0.7500000000000004
 40
0.7500000000000004
 40
1.0
 40
1.0
 40
1.0
 40
1.0
 10
167.5257836134326
 20
122.2850089980024
 30
0.0
 10
167.6046541388835
 20
122.2471237784153
 30
0.0
 10
167.6799704188347
 20
122.1896915871268
 30
0.0
 10
167.7644153027491
 20
122.0662863563903
 30
0.0
 10
167.7868952165657
 20
122.0196631347632
 30
0.0
 10
167.8149941794469
 20
121.9134137794751
 30
0.0
 10
167.820057569188
 20
121.8535715263356
 30
0.0
 10
167.8098975120103
 20
121.7274077827858
 30
0.0
 10
167.7946537082103
 20
121.6592712845139
 30
0.0
 10
167.7492080106136
 20
121.5198892345648
 30
0.0
 10
167.7195688879021
 20
121.4491162286453
 30
0.0
 10
167.6182363857903
 20
121.2321977946599
 30
0.0
 10
167.5358293065211
 20
121.0837208818322
 30
0.0
 10
167.4536085885158
 20
120.9317148736468
 30
0.0
  0
SPLINE
  5
181
330
1F
100
AcDbEntity
  8
0
  6
HIDDEN
 62
     7
370
     0
100
AcDbSpline
210
0.0
220
0.0
230
1.0
 70
     8
 71
     3
 72
    28
 73
    24
 74
     0
 42
0.00000001
 43
0.00000001
 40
0.0
 40
0.0
 40
0.0
 40
0.0
 40
0.0625000000000008
 40
0.0625000000000008
 40
0.1250000000000017
 40
0.1250000000000017
 40
0.1875000000000026
 40
0.1875000000000026
 40
0.2500000000000034
 40
0.2500000000000034
 40
0.3750000000000041
 40
0.3750000000000041
 40
0.5000000000000048
 40
0.5000000000000048
 40
0.6250000000000054
 40
0.6250000000000054
 40
0.7500000000000061
 40
0.7500000000000061
 40
0.8125000000000041
 40
0.8125000000000041
 40
0.8750000000000021
 40
0.8750000000000021
 40
1.0
 40
1.0
 40
1.0
 40
1.0
 10
167.4536085885157
 20
120.9317148736469
 30
0.0
 10
167.423092909915
 20
120.9395243229522
 30
0.0
 10
167.3923174986882
 20
120.9435408611264
 30
0.0
 10
167.3295833356279
 20
120.9398132808281
 30
0.0
 10
167.2971520878321
 20
120.9317507118829
 30
0.0
 10
167.2336127487245
 20
120.8984669041618
 30
0.0
 10
167.2019162634236
 20
120.8726925277113
 30
0.0
 10
167.1429647957267
 20
120.8049009182505
 30
0.0
 10
167.1160356917854
 20
120.7637064059684
 30
0.0
 10
167.043622481318
 20
120.6273693543882
 30
0.0
 10
167.0080607700107
 20
120.5246725596599
 30
0.0
 10
166.9596114054506
 20
120.3232160864095
 30
0.0
 10
166.9472127434503
 20
120.2234428904498
 30
0.0
 10
166.9472407673447
 20
120.0439776858526
 30
0.0
 10
166.9592136989378
 20
119.9629708978739
 30
0.0
 10
167.0074088196388
 20
119.8108242830169
 30
0.0
 10
167.0431456400447
 20
119.7417168238239
 30
0.0
 10
167.1146893257801
 20
119.6248532915418
 30
0.0
 10
167.1420772709496
 20
119.5825728050149
 30
0.0
 10
167.2006277032732
 20
119.490554913755
 30
0.0
 10
167.2321934537963
 20
119.4399936247551
 30
0.0
 10
167.3285324838243
 20
119.2788779191645
 30
0.0
 10
167.3921903068717
 20
119.1639582323901
 30
0.0
 10
167.4536085885158
 20
119.0507019507918
 30
0.0
  0
SPLINE
  5
182
330
1F
100
AcDbEntity
  8
0
  6
HIDDEN
 62
     7
370
     0
100
AcDbSpline
210
0.0
220
0.0
230
1.0
 70
     8
 71
     3
 72
    16
 73
    12
 74
     0
 42
0.00000001
 43
0.00000001
 40
0.0
 40
0.0
 40
0.0
 40
0.0
 40
0.2500000000000006
 40
0.2500000000000006
 40
0.3750000000000009
 40
0.3750000000000009
 40
0.5000000000000012
 40
0.5000000000000012
 40
0.7500000000000006
 40
0.7500000000000006
 40
1.0
 40
1.0
 40
1.0
 40
1.0
 10
167.4536085885158
 20
119.0507019507918
 30
0.0
 10
167.5358424778918
 20
119.072136683605
 30
0.0
 10
167.6171922327303
 20
119.1141107495994
 30
0.0
 10
167.7193720273792
 20
119.2151064438614
 30
0.0
 10
167.7491779065117
 20
119.2546929980411
 30
0.0
 10
167.794512415715
 20
119.3470626352703
 30
0.0
 10
167.8099119240715
 20
119.4008532420968
 30
0.0
 10
167.8251333623747
 20
119.5754598026724
 30
0.0
 10
167.7923333856198
 20
119.7139465634666
 30
0.0
 10
167.6808397130181
 20
119.9972061716799
 30
0.0
 10
167.6046871318261
 20
120.1446484773074
 30
0.0
 10
167.5257836134326
 20
120.2952856861753
 30
0.0
  0
LWPOLYLINE
  5
183
330
1F
100
AcDbEntity
  8
0
  6
HIDDEN
 62
     7
370
     0
100
AcDbPolyline
 90
       22
 70
   128
 43
0.0
 10
168.9472267432
 20
120.838744818
 10
169.536737092
 20
120.9015743586
 10
170.0738668593
 20
121.0844803
 10
170.5108897081
 20
121.3712106466
 10
170.8089742405
 20
121.7362881489
 10
170.9416343376
 20
122.1472740686
 10
170.8970825676
 20
122.5676505031
 10
170.6792775508
 20
122.9600651616
 10
170.3075722187
 20
123.2896502795
 10
169.8149942214
 20
123.5271207727
 10
169.2453112756
 20
123.6513763458
 10
168.6491422109
 20
123.6513763458
 10
168.079459265
 20
123.5271207727
 10
167.5868812677
 20
123.2896502795
 10
167.2151759356
 20
122.9600651616
 10
166.9973709188
 20
122.5676505031
 10
166.9528191488
 20
122.1472740686
 10
167.0854792459
 20
121.7362881489
 10
167.3835637783
 20
121.3712106466
 10
167.8205866271
 20
121.0844803
 10
168.3577163944
 20
120.9015743586
 10
168.9472267432
 20
120.838744818
  0
SPLINE
  5
184
330
1F
100
AcDbEntity
  8
0
  6
HIDDEN
 62
     7
370
     0
100
AcDbSpline
210
0.0
220
0.0
230
1.0
 70
     8
 71
     3
 72
    62
 73
    58
 74
     0
 42
0.00000001
 43
0.00000001
 40
-0.0625
 40
-0.0625
 40
0.0
 40
0.0
 40
0.0625
 40
0.0625
 40
0.0937500000000001
 40
0.0937500000000001
 40
0.1250000000000002
 40
0.1250000000000002
 40
0.1562500000000002
 40
0.1562500000000002
 40
0.1875000000000003
 40
0.1875000000000003
 40
0.2187500000000004
 40
0.2187500000000004
 40
0.2500000000000004
 40
0.2500000000000004
 40
0.2812500000000005
 40
0.2812500000000005
 40
0.3125000000000006
 40
0.3125000000000006
 40
0.3437500000000007
 40
0.3437500000000007
 40
0.3750000000000007
 40
0.3750000000000007
 40
0.4062500000000008
 40
0.4062500000000008
 40
0.4375000000000009
 40
0.4375000000000009
 40
0.4687500000000009
 40
0.4687500000000009
 40
0.500000000000001
 40
0.500000000000001
 40
0.531250000000001
 40
0.531250000000001
 40
0.562500000000001
 40
0.562500000000001
 40
0.625000000000001
 40
0.625000000000001
 40
0.6562500000000009
 40
0.6562500000000009
 40
0.6875000000000008
 40
0.6875000000000008
 40
0.7187500000000007
 40
0.7187500000000007
 40
0.7500000000000006
 40
0.7500000000000006
 40
0.7812500000000004
 40
0.7812500000000004
 40
0.8125000000000003
 40
0.8125000000000003
 40
0.8437500000000002
 40
0.8437500000000002
 40
0.8749999999999999
 40
0.8749999999999999
 40
0.9375
 40
0.9375
 40
1.0
 40
1.0
 40
1.0625
 40
1.0625
 10
170.6781689304894
 20
120.8030835243225
 30
0.0
 10
170.4657767494673
 20
120.3905400026475
 30
0.0
 10
170.3517215136144
 20
120.1926881388151
 30
0.0
 10
170.2046384593184
 20
119.8995103229344
 30
0.0
 10
170.1609733317543
 20
119.8043992704468
 30
0.0
 10
170.0966813784686
 20
119.6168478742193
 30
0.0
 10
170.077867325568
 20
119.5276671585528
 30
0.0
 10
170.077128447407
 20
119.3625135363041
 30
0.0
 10
170.0950931414907
 20
119.2906436011947
 30
0.0
 10
170.1567167540173
 20
119.1669823152435
 30
0.0
 10
170.1985470863816
 20
119.1173602541007
 30
0.0
 10
170.2922613027182
 20
119.0364788974925
 30
0.0
 10
170.3444896170714
 20
119.0054307848265
 30
0.0
 10
170.4492337006728
 20
118.9620679557383
 30
0.0
 10
170.5022617378684
 20
118.9493654398052
 30
0.0
 10
170.6057715029893
 20
118.9421865901506
 30
0.0
 10
170.6566268579753
 20
118.9479630238874
 30
0.0
 10
170.7490700256697
 20
118.979692801805
 30
0.0
 10
170.7911062253591
 20
119.0054577148254
 30
0.0
 10
170.8634150924868
 20
119.0803099720655
 30
0.0
 10
170.8927652649248
 20
119.1287688153413
 30
0.0
 10
170.933843044184
 20
119.2477938096004
 30
0.0
 10
170.9455723972553
 20
119.3196097913756
 30
0.0
 10
170.9485445125529
 20
119.4789707672879
 30
0.0
 10
170.9399436402301
 20
119.5686592134983
 30
0.0
 10
170.9040947347792
 20
119.7587385655249
 30
0.0
 10
170.8772714645842
 20
119.8582846125507
 30
0.0
 10
170.8087603604783
 20
120.0647154875677
 30
0.0
 10
170.7682811243601
 20
120.1681024799887
 30
0.0
 10
170.6784194513292
 20
120.3757814886057
 30
0.0
 10
170.6284904186091
 20
120.4810004442232
 30
0.0
 10
170.5258665970106
 20
120.6866963547522
 30
0.0
 10
170.4729976596576
 20
120.7876192772158
 30
0.0
 10
170.3678216818153
 20
120.9875818020796
 30
0.0
 10
170.3149967891239
 20
121.0874526263962
 30
0.0
 10
170.1700293637115
 20
121.3802993597075
 30
0.0
 10
170.0883509707363
 20
121.5723172214796
 30
0.0
 10
170.0735902950197
 20
121.8261228881106
 30
0.0
 10
170.0870039503429
 20
121.9005558643103
 30
0.0
 10
170.1434682986043
 20
122.0287213075895
 30
0.0
 10
170.1846247480065
 20
122.0799028149462
 30
0.0
 10
170.2788123943737
 20
122.161772403671
 30
0.0
 10
170.3320664067742
 20
122.1922987235664
 30
0.0
 10
170.4392246510558
 20
122.2334870146884
 30
0.0
 10
170.4937463273708
 20
122.2445681520357
 30
0.0
 10
170.600325061634
 20
122.2477267087928
 30
0.0
 10
170.6521667902479
 20
122.2395331382755
 30
0.0
 10
170.7459704974636
 20
122.2033854934891
 30
0.0
 10
170.7885327075567
 20
122.1755105701625
 30
0.0
 10
170.8616483205043
 20
122.0971978603417
 30
0.0
 10
170.8917053220702
 20
122.046659604847
 30
0.0
 10
170.9333110992953
 20
121.9256656580831
 30
0.0
 10
170.945295798655
 20
121.8534032919346
 30
0.0
 10
170.9504242624604
 20
121.613995737528
 30
0.0
 10
170.9122811345001
 20
121.4198765157035
 30
0.0
 10
170.7751167879196
 20
121.0132026314745
 30
0.0
 10
170.6781689304894
 20
120.8030835243225
 30
0.0
 10
170.4657767494673
 20
120.3905400026475
 30
0.0
  0
LINE
  5
185
330
1F
100
AcDbEntity
  8
0
  6
HIDDEN
 62
     7
370
     0
100
AcDbLine
 10
131.5372267432
 20
126.5126759656
 30
0.0
 11
131.5372267432
 21
126.1930558037
 31
0.0
  0
LINE
  5
186
330
1F
100
AcDbEntity
  8
0
  6
HIDDEN
 62
     7
370
     0
100
AcDbLine
 10
135.3572267432
 20
126.5126759655
 30
0.0
 11
135.3572267432
 21
126.1930558037
 31
0.0
  0
LINE
  5
187
330
1F
100
AcDbEntity
  8
0
  6
HIDDEN
 62
     7
370
     0
100
AcDbLine
 10
136.8391595747
 20
130.8017454661
 30
0.0
 11
136.8391595747
 21
126.1930558037
 31
0.0
  0
SPLINE
  5
188
330
1F
100
AcDbEntity
  8
0
  6
HIDDEN
 62
     7
370
     0
100
AcDbSpline
210
0.0
220
0.0
230
1.0
 70
     8
 71
     3
 72
    24
 73
    20
 74
     0
 42
0.00000001
 43
0.00000001
 40
0.0
 40
0.0
 40
0.0
 40
0.0
 40
0.2500000000000072
 40
0.2500000000000072
 40
0.3750000000000097
 40
0.3750000000000097
 40
0.4375000000000103
 40
0.4375000000000103
 40
0.4687500000000105
 40
0.4687500000000105
 40
0.5000000000000108
 40
0.5000000000000108
 40
0.5625000000000087
 40
0.5625000000000087
 40
0.6250000000000066
 40
0.6250000000000066
 40
0.7500000000000026
 40
0.7500000000000026
 40
1.0
 40
1.0
 40
1.0
 40
1.0
 10
83.6098901179314
 20
86.66850325894069
 30
0.0
 10
83.62364323660164
 20
86.73915331693097
 30
0.0
 10
83.64141580400751
 20
86.8057514296959
 30
0.0
 10
83.69366689556287
 20
86.8798494499291
 30
0.0
 10
83.71470197114442
 20
86.90110725709066
 30
0.0
 10
83.76760237877286
 20
86.9092531832369
 30
0.0
 10
83.78870805165079
 20
86.90831337984113
 30
0.0
 10
83.83476022032873
 20
86.88729738826379
 30
0.0
 10
83.85313069231213
 20
86.87638858215617
 30
0.0
 10
83.89468232737782
 20
86.84375367120879
 30
0.0
 10
83.91724900013475
 20
86.82226169083742
 30
0.0
 10
83.9800300165948
 20
86.75379574725112
 30
0.0
 10
84.01315977756268
 20
86.70772128904602
 30
0.0
 10
84.07007746404767
 20
86.62271340071136
 30
0.0
 10
84.09426348955144
 20
86.58243309952996
 30
0.0
 10
84.15947143993121
 20
86.46749687306402
 30
0.0
 10
84.19418750012245
 20
86.39691388791702
 30
0.0
 10
84.28740277045333
 20
86.19270812883842
 30
0.0
 10
84.333075305814
 20
86.06980974651104
 30
0.0
 10
84.37138038931255
 20
85.95293647012348
 30
0.0
  0
SPLINE
  5
189
330
1F
100
AcDbEntity
  8
0
  6
HIDDEN
 62
     7
370
     0
100
AcDbSpline
210
0.0
220
0.0
230
1.0
 70
     8
 71
     3
 72
     8
 73
     4
 74
     0
 42
0.00000001
 43
0.00000001
 40
0.0000000000000004
 40
0.0000000000000004
 40
0.0000000000000004
 40
0.0000000000000004
 40
0.001156372467817
 40
0.001156372467817
 40
0.001156372467817
 40
0.001156372467817
 10
84.5472267432083
 20
118.9831981171971
 30
0.0
 10
84.21390562801105
 20
119.1122571428239
 30
0.0
 10
83.88057294720298
 20
119.2412174789926
 30
0.0
 10
83.547226743208
 20
119.3701290087654
 30
0.0
  0
SPLINE
  5
18A
330
1F
100
AcDbEntity
  8
0
  6
HIDDEN
 62
     7
370
     0
100
AcDbSpline
210
0.0
220
0.0
230
1.0
 70
     8
 71
     3
 72
    11
 73
     7
 74
     0
 42
0.00000001
 43
0.00000001
 40
0.0
 40
0.0
 40
0.0
 40
0.0
 40
0.000577874610501
 40
0.000577874610501
 40
0.000577874610501
 40
0.001155749485703
 40
0.001155749485703
 40
0.001155749485703
 40
0.001155749485703
 10
83.54722674320801
 20
93.31583394127071
 30
0.0
 10
83.71389361962112
 20
93.38164606805373
 30
0.0
 10
83.88056033918242
 20
93.44750454828127
 30
0.0
 10
84.04722698723106
 20
93.51341212130363
 30
0.0
 10
84.21389371174968
 20
93.57931972456568
 30
0.0
 10
84.38056040617036
 20
93.64527683304769
 30
0.0
 10
84.54722674320801
 20
93.7112785730673
 30
0.0
  0
SPLINE
  5
18B
330
1F
100
AcDbEntity
  8
0
  6
HIDDEN
 62
     7
370
     0
100
AcDbSpline
210
0.0
220
0.0
230
1.0
 70
     8
 71
     3
 72
    11
 73
     7
 74
     0
 42
0.00000001
 43
0.00000001
 40
0.0000000000000006
 40
0.0000000000000006
 40
0.0000000000000006
 40
0.0000000000000006
 40
0.000578048606266
 40
0.000578048606266
 40
0.000578048606266
 40
0.001156097351391
 40
0.001156097351391
 40
0.001156097351391
 40
0.001156097351391
 10
83.54722674320801
 20
116.3238702970087
 30
0.0
 10
83.71389659925322
 20
116.2614984356035
 30
0.0
 10
83.88056430333765
 20
116.1991445754121
 30
0.0
 10
84.04723060779129
 20
116.1368250153285
 30
0.0
 10
84.21389694848504
 20
116.0745054416942
 30
0.0
 10
84.38056190511364
 20
116.0122202374736
 30
0.0
 10
84.54722674320801
 20
115.9499951170006
 30
0.0
  0
SPLINE
  5
18C
330
1F
100
AcDbEntity
  8
0
  6
HIDDEN
 62
     7
370
     0
100
AcDbSpline
210
0.0
220
0.0
230
1.0
 70
     8
 71
     3
 72
    11
 73
     7
 74
     0
 42
0.00000001
 43
0.00000001
 40
0.0
 40
0.0
 40
0.0
 40
0.0
 40
0.0005782401583357
 40
0.0005782401583357
 40
0.0005782401583357
 40
0.001156480596064
 40
0.001156480596064
 40
0.001156480596064
 40
0.001156480596064
 10
84.547226743208
 20
96.74222901896111
 30
0.0
 10
84.38057579285929
 20
96.67880356102202
 30
0.0
 10
84.21391620027671
 20
96.61544803749221
 30
0.0
 10
84.04724914784813
 20
96.55215045327087
 30
0.0
 10
83.88058201128435
 20
96.48885283709626
 30
0.0
 10
83.71390740383819
 20
96.42561304228738
 30
0.0
 10
83.547226743208
 20
96.36241303578312
 30
0.0
  0
ARC
  5
18D
330
1F
100
AcDbEntity
  8
0
  6
HIDDEN
 62
     7
370
     0
100
AcDbCircle
 10
152.4034036606
 20
120.5478674825
 30
0.0
 40
15.12448918149703
100
AcDbArc
 50
354.3190159679
 51
359.04310529
  0
ARC
  5
18E
330
1F
100
AcDbEntity
  8
0
  6
HIDDEN
 62
     7
370
     0
100
AcDbCircle
 10
187.4347158008
 20
120.5446373043
 30
0.0
 40
19.98485612846012
100
AcDbArc
 50
175.0040960774
 51
178.8901947655
  0
CIRCLE
  5
18F
330
1F
100
AcDbEntity
  8
0
  6
HIDDEN
 62
     7
370
     0
100
AcDbCircle
 10
122.4472267432
 20
106.3430558037
 30
0.0
 40
5.0
  0
LINE
  5
190
330
1F
100
AcDbEntity
  8
0
  6
HIDDEN
 62
     7
370
     0
100
AcDbLine
 10
225.1301647082
 20
117.0813308867
 30
0.0
 11
225.3654555138
 21
117.4644928265
 31
0.0
  0
LINE
  5
191
330
1F
100
AcDbEntity
  8
0
  6
HIDDEN
 62
     7
370
     0
100
AcDbLine
 10
225.4472267432
 20
120.6935052445
 30
0.0
 11
225.2411224603
 21
121.0751596076
 31
0.0
  0
LINE
  5
192
330
1F
100
AcDbEntity
  8
0
  6
HIDDEN
 62
     7
370
     0
100
AcDbLine
 10
225.2385170884
 20
121.0775480069
 30
0.0
 11
218.2190995854
 21
121.2725635775
 31
0.0
  0
LINE
  5
193
330
1F
100
AcDbEntity
  8
0
  6
HIDDEN
 62
     7
370
     0
100
AcDbLine
 10
218.108013244
 20
117.274106397
 30
0.0
 11
225.1274307471
 21
117.0790908264
 31
0.0
  0
LINE
  5
194
330
1F
100
AcDbEntity
  8
0
  6
HIDDEN
 62
     7
370
     0
100
AcDbLine
 10
218.2175368294
 20
121.2718352871
 30
0.0
 11
217.4478723967
 21
120.5432183361
 31
0.0
  0
LINE
  5
195
330
1F
100
AcDbEntity
  8
0
  6
HIDDEN
 62
     7
370
     0
100
AcDbLine
 10
217.3784702125
 20
118.0451464885
 30
0.0
 11
218.1064933346
 21
117.2749203309
 31
0.0
  0
LINE
  5
196
330
1F
100
AcDbEntity
  8
0
  6
HIDDEN
 62
     7
370
     0
100
AcDbLine
 10
218.1850129662
 20
95.4133727326
 30
0.0
 11
217.456989844
 21
94.643146575
 31
0.0
  0
LINE
  5
197
330
1F
100
AcDbEntity
  8
0
  6
HIDDEN
 62
     7
370
     0
100
AcDbLine
 10
217.5263920282
 20
92.1450747274
 30
0.0
 11
218.2960564609
 21
91.4164577764
 31
0.0
  0
LINE
  5
198
330
1F
100
AcDbEntity
  8
0
  6
HIDDEN
 62
     7
370
     0
100
AcDbLine
 10
225.2059503786
 20
95.6092022371
 30
0.0
 11
218.1865328756
 21
95.4141866665
 31
0.0
  0
LINE
  5
199
330
1F
100
AcDbEntity
  8
0
  6
HIDDEN
 62
     7
370
     0
100
AcDbLine
 10
218.2976192169
 20
91.415729486
 30
0.0
 11
225.3170367199
 21
91.6107450566
 31
0.0
  0
LINE
  5
19A
330
1F
100
AcDbEntity
  8
0
  6
HIDDEN
 62
     7
370
     0
100
AcDbLine
 10
225.3196420918
 20
91.6131334559
 30
0.0
 11
225.4472267432
 21
91.8493888029
 31
0.0
  0
LINE
  5
19B
330
1F
100
AcDbEntity
  8
0
  6
HIDDEN
 62
     7
370
     0
100
AcDbLine
 10
225.4439751453
 20
95.223800237
 30
0.0
 11
225.2086843398
 21
95.6069621768
 31
0.0
  0
LINE
  5
19C
330
1F
100
AcDbEntity
  8
0
  6
HIDDEN
 62
     7
370
     0
100
AcDbLine
 10
119.4472267432
 20
120.6408909535
 30
0.0
 11
119.4472267432
 21
118.7369964466
 31
0.0
  0
LINE
  5
19D
330
1F
100
AcDbEntity
  8
0
  6
HIDDEN
 62
     7
370
     0
100
AcDbLine
 10
127.4472267432
 20
118.7369964466
 30
0.0
 11
127.4472267432
 21
120.6436863095
 31
0.0
  0
LINE
  5
19E
330
1F
100
AcDbEntity
  8
0
  6
HIDDEN
 62
     7
370
     0
100
AcDbLine
 10
115.4472267432
 20
81.0191246577
 30
0.0
 11
115.5413875187
 21
81.689113389
 31
0.0
  0
LINE
  5
19F
330
1F
100
AcDbEntity
  8
0
  6
HIDDEN
 62
     7
370
     0
100
AcDbLine
 10
115.5413875187
 20
130.9969982185
 30
0.0
 11
115.4472267432
 21
131.6669869497
 31
0.0
  0
ARC
  5
1A0
330
1F
100
AcDbEntity
  8
0
  6
HIDDEN
 62
     7
370
     0
100
AcDbCircle
 10
114.9472199905
 20
81.7726181893
 30
0.0
 40
0.6000067526677343
100
AcDbArc
 50
352.0
 51
0.0
  0
ARC
  5
1A1
330
1F
100
AcDbEntity
  8
0
  6
HIDDEN
 62
     7
370
     0
100
AcDbCircle
 10
114.9472199905
 20
81.7726181893
 30
0.0
 40
0.6000067526677242
100
AcDbArc
 50
0.0
 51
33.5571153394
  0
ARC
  5
1A2
330
1F
100
AcDbEntity
  8
0
  6
HIDDEN
 62
     7
370
     0
100
AcDbCircle
 10
114.9472199905
 20
130.9134934181
 30
0.0
 40
0.6000067526677363
100
AcDbArc
 50
348.75
 51
8.0
  0
LWPOLYLINE
  5
1A3
330
1F
100
AcDbEntity
  8
0
  6
HIDDEN
 62
     7
370
     0
100
AcDbPolyline
 90
        3
 70
   128
 43
0.0
 10
115.5356977817
 20
130.7964379075
 10
115.5015539487
 20
130.6838807746
 10
115.4472267432
 20
130.5818289031
  0
LINE
  5
1A4
330
1F
100
AcDbEntity
  8
0
  6
HIDDEN
 62
     7
370
     0
100
AcDbLine
 10
115.5472267432
 20
81.7726181893
 30
0.0
 11
115.5472267432
 21
130.9134934181
 31
0.0
  0
ARC
  5
1A5
330
1F
100
AcDbEntity
  8
0
  6
HIDDEN
 62
     7
370
     0
100
AcDbCircle
 10
109.2022287448
 20
94.3430558037
 30
0.0
 40
7.999999999999993
100
AcDbArc
 50
277.0632563366
 51
321.3178125465
  0
ARC
  5
1A6
330
1F
100
AcDbEntity
  8
0
  6
HIDDEN
 62
     7
370
     0
100
AcDbCircle
 10
109.2022287448
 20
118.3430558037
 30
0.0
 40
7.999999999999998
100
AcDbArc
 50
38.6821874535
 51
82.9440023806
  0
LINE
  5
1A7
330
1F
100
AcDbEntity
  8
0
  6
HIDDEN
 62
     7
370
     0
100
AcDbLine
 10
98.5296623085
 20
86.3430558037
 30
0.0
 11
102.7071988849
 21
86.3430558037
 31
0.0
  0
LINE
  5
1A8
330
1F
100
AcDbEntity
  8
0
  6
HIDDEN
 62
     7
370
     0
100
AcDbLine
 10
102.7071988849
 20
126.3430558037
 30
0.0
 11
98.5296623085
 21
126.3430558037
 31
0.0
  0
ARC
  5
1A9
330
1F
100
AcDbEntity
  8
0
  6
HIDDEN
 62
     7
370
     0
100
AcDbCircle
 10
98.5296623085
 20
86.9430558037
 30
0.0
 40
0.5999999999999962
100
AcDbArc
 50
210.0
 51
270.0
  0
ARC
  5
1AA
330
1F
100
AcDbEntity
  8
0
  6
HIDDEN
 62
     7
370
     0
100
AcDbCircle
 10
98.5296623085
 20
125.7430558037
 30
0.0
 40
0.5999999999999962
100
AcDbArc
 50
90.0
 51
150.0
  0
LINE
  5
1AB
330
1F
100
AcDbEntity
  8
0
  6
HIDDEN
 62
     7
370
     0
100
AcDbLine
 10
98.0100470662
 20
126.0430558037
 30
0.0
 11
96.4512013394
 21
123.3430558037
 31
0.0
  0
LINE
  5
1AC
330
1F
100
AcDbEntity
  8
0
  6
HIDDEN
 62
     7
370
     0
100
AcDbLine
 10
96.4512013394
 20
89.3430558037
 30
0.0
 11
98.0100470662
 21
86.6430558037
 31
0.0
  0
LINE
  5
1AD
330
1F
100
AcDbEntity
  8
0
  6
HIDDEN
 62
     7
370
     0
100
AcDbLine
 10
119.4472267432
 20
133.6173896629
 30
0.0
 11
119.4472267432
 21
130.2886582184
 31
0.0
  0
LINE
  5
1AE
330
1F
100
AcDbEntity
  8
0
  6
HIDDEN
 62
     7
370
     0
100
AcDbLine
 10
127.4472267432
 20
130.2886582184
 30
0.0
 11
127.4472267432
 21
133.6227220417
 31
0.0
  0
LINE
  5
1AF
330
1F
100
AcDbEntity
  8
0
  6
HIDDEN
 62
     7
370
     0
100
AcDbLine
 10
170.9472267432
 20
93.2679949394
 30
0.0
 11
170.9472267432
 21
97.2928235769
 31
0.0
  0
LINE
  5
1B0
330
1F
100
AcDbEntity
  8
0
  6
HIDDEN
 62
     7
370
     0
100
AcDbLine
 10
170.9472267432
 20
90.0795998364
 30
0.0
 11
170.9472267432
 21
90.9358258012
 31
0.0
  0
LINE
  5
1B1
330
1F
100
AcDbEntity
  8
0
  6
HIDDEN
 62
     7
370
     0
100
AcDbLine
 10
166.9472267432
 20
91.4970727492
 30
0.0
 11
166.9472267432
 21
90.0795998364
 31
0.0
  0
LINE
  5
1B2
330
1F
100
AcDbEntity
  8
0
  6
HIDDEN
 62
     7
370
     0
100
AcDbLine
 10
166.9472267432
 20
97.2922326864
 30
0.0
 11
166.9472267432
 21
92.5492038848
 31
0.0
  0
ARC
  5
1B3
330
1F
100
AcDbEntity
  8
0
  6
HIDDEN
 62
     7
370
     0
100
AcDbCircle
 10
123.8972267432
 20
90.6180558037
 30
0.0
 40
1.500000000000014
100
AcDbArc
 50
238.2116693829
 51
0.0
  0
ARC
  5
1B4
330
1F
100
AcDbEntity
  8
0
  6
HIDDEN
 62
     7
370
     0
100
AcDbCircle
 10
123.8972267432
 20
122.0680558037
 30
0.0
 40
1.500000000000014
100
AcDbArc
 50
0.0
 51
121.7883306171
  0
LINE
  5
1B5
330
1F
100
AcDbEntity
  8
0
  6
HIDDEN
 62
     7
370
     0
100
AcDbLine
 10
115.4472267432
 20
89.3430558037
 30
0.0
 11
123.1070527117
 21
89.3430558037
 31
0.0
  0
LINE
  5
1B6
330
1F
100
AcDbEntity
  8
0
  6
HIDDEN
 62
     7
370
     0
100
AcDbLine
 10
123.1070527117
 20
123.3430558037
 30
0.0
 11
115.4472267432
 21
123.3430558037
 31
0.0
  0
LINE
  5
1B7
330
1F
100
AcDbEntity
  8
0
  6
HIDDEN
 62
     7
370
     0
100
AcDbLine
 10
93.6472267432
 20
89.3430558037
 30
0.0
 11
96.4512013394
 21
89.3430558037
 31
0.0
  0
LINE
  5
1B8
330
1F
100
AcDbEntity
  8
0
  6
HIDDEN
 62
     7
370
     0
100
AcDbLine
 10
96.4512013394
 20
123.3430558037
 30
0.0
 11
89.6472267432
 21
123.3430558037
 31
0.0
  0
LINE
  5
1B9
330
1F
100
AcDbEntity
  8
0
  6
HIDDEN
 62
     7
370
     0
100
AcDbLine
 10
170.57197284
 20
90.439936257
 30
0.0
 11
225.4472267432
 21
91.9644970838
 31
0.0
  0
LINE
  5
1BA
330
1F
100
AcDbEntity
  8
0
  6
HIDDEN
 62
     7
370
     0
100
AcDbLine
 10
225.4472267432
 20
95.2657704009
 30
0.0
 11
170.5716218572
 21
93.741199823
 31
0.0
  0
LINE
  5
1BB
330
1F
100
AcDbEntity
  8
0
  6
HIDDEN
 62
     7
370
     0
100
AcDbLine
 10
167.0591526252
 20
92.9686716564
 30
0.0
 11
166.5012869688
 21
91.977479895
 31
0.0
  0
LINE
  5
1BC
330
1F
100
AcDbEntity
  8
0
  6
HIDDEN
 62
     7
370
     0
100
AcDbLine
 10
166.5012869688
 20
91.977479895
 30
0.0
 11
167.0620845228
 21
91.099052942
 31
0.0
  0
ARC
  5
1BD
330
1F
100
AcDbEntity
  8
0
  6
HIDDEN
 62
     7
370
     0
100
AcDbCircle
 10
224.9472267432
 20
93.3430558037
 30
0.0
 40
0.5
100
AcDbArc
 50
0.0
 51
90.0
  0
ARC
  5
1BE
330
1F
100
AcDbEntity
  8
0
  6
HIDDEN
 62
     7
370
     0
100
AcDbCircle
 10
224.9472267432
 20
119.3430558037
 30
0.0
 40
0.5
100
AcDbArc
 50
270.0
 51
0.0
  0
LINE
  5
1BF
330
1F
100
AcDbEntity
  8
0
  6
HIDDEN
 62
     7
370
     0
100
AcDbLine
 10
166.8472267432
 20
93.5430558037
 30
0.0
 11
171.5524527251
 21
93.5430558037
 31
0.0
  0
LINE
  5
1C0
330
1F
100
AcDbEntity
  8
0
  6
HIDDEN
 62
     7
370
     0
100
AcDbLine
 10
171.5524527251
 20
119.1430558037
 30
0.0
 11
166.8472267432
 21
119.1430558037
 31
0.0
  0
ARC
  5
1C1
330
1F
100
AcDbEntity
  8
0
  6
HIDDEN
 62
     7
370
     0
100
AcDbCircle
 10
166.8472267432
 20
93.9430558037
 30
0.0
 40
0.4000000000000057
100
AcDbArc
 50
180.0
 51
270.0
  0
ARC
  5
1C2
330
1F
100
AcDbEntity
  8
0
  6
HIDDEN
 62
     7
370
     0
100
AcDbCircle
 10
166.8472267432
 20
118.7430558037
 30
0.0
 40
0.4000000000000057
100
AcDbArc
 50
90.0
 51
180.0
  0
LINE
  5
1C3
330
1F
100
AcDbEntity
  8
0
  6
HIDDEN
 62
     7
370
     0
100
AcDbLine
 10
172.4472267432
 20
93.8430558037
 30
0.0
 11
224.9472267432
 21
93.8430558037
 31
0.0
  0
LINE
  5
1C4
330
1F
100
AcDbEntity
  8
0
  6
HIDDEN
 62
     7
370
     0
100
AcDbLine
 10
224.9472267432
 20
118.8430558037
 30
0.0
 11
172.4472267432
 21
118.8430558037
 31
0.0
  0
ARC
  5
1C5
330
1F
100
AcDbEntity
  8
0
  6
HIDDEN
 62
     7
370
     0
100
AcDbCircle
 10
171.5524527251
 20
93.9430558037
 30
0.0
 40
0.4000000000000057
100
AcDbArc
 50
270.0
 51
290.0
  0
ARC
  5
1C6
330
1F
100
AcDbEntity
  8
0
  6
HIDDEN
 62
     7
370
     0
100
AcDbCircle
 10
171.5524527251
 20
118.7430558037
 30
0.0
 40
0.4000000000000057
100
AcDbArc
 50
70.0
 51
90.0
  0
LINE
  5
1C7
330
1F
100
AcDbEntity
  8
0
  6
HIDDEN
 62
     7
370
     0
100
AcDbLine
 10
171.6892607824
 20
93.5671787554
 30
0.0
 11
172.4472267432
 21
93.8430558037
 31
0.0
  0
LINE
  5
1C8
330
1F
100
AcDbEntity
  8
0
  6
HIDDEN
 62
     7
370
     0
100
AcDbLine
 10
172.4472267432
 20
118.8430558037
 30
0.0
 11
171.6892607824
 21
119.118932852
 31
0.0
  0
LINE
  5
1C9
330
1F
100
AcDbEntity
  8
0
  6
HIDDEN
 62
     7
370
     0
100
AcDbLine
 10
134.2472267432
 20
96.8430558037
 30
0.0
 11
137.2472267432
 21
96.8430558037
 31
0.0
  0
LINE
  5
1CA
330
1F
100
AcDbEntity
  8
0
  6
HIDDEN
 62
     7
370
     0
100
AcDbLine
 10
137.2472267432
 20
115.8430558037
 30
0.0
 11
134.2472267432
 21
115.8430558037
 31
0.0
  0
LINE
  5
1CB
330
1F
100
AcDbEntity
  8
0
  6
HIDDEN
 62
     7
370
     0
100
AcDbLine
 10
125.3972267432
 20
97.3430558037
 30
0.0
 11
125.8972267432
 21
97.8430558037
 31
0.0
  0
LINE
  5
1CC
330
1F
100
AcDbEntity
  8
0
  6
HIDDEN
 62
     7
370
     0
100
AcDbLine
 10
125.8972267432
 20
114.8430558037
 30
0.0
 11
125.3972267432
 21
115.3430558037
 31
0.0
  0
LINE
  5
1CD
330
1F
100
AcDbEntity
  8
0
  6
HIDDEN
 62
     7
370
     0
100
AcDbLine
 10
125.8972267432
 20
97.8430558037
 30
0.0
 11
134.2472267432
 21
97.8430558037
 31
0.0
  0
LINE
  5
1CE
330
1F
100
AcDbEntity
  8
0
  6
HIDDEN
 62
     7
370
     0
100
AcDbLine
 10
134.2472267432
 20
114.8430558037
 30
0.0
 11
125.8972267432
 21
114.8430558037
 31
0.0
  0
LINE
  5
1CF
330
1F
100
AcDbEntity
  8
0
  6
HIDDEN
 62
     7
370
     0
100
AcDbLine
 10
120.3972267432
 20
137.8430558037
 30
0.0
 11
120.3972267432
 21
132.7430558037
 31
0.0
  0
LINE
  5
1D0
330
1F
100
AcDbEntity
  8
0
  6
HIDDEN
 62
     7
370
     0
100
AcDbLine
 10
110.6316645737
 20
82.2636844702
 30
0.0
 11
110.1972324242
 21
82.7427504893
 31
0.0
  0
LINE
  5
1D1
330
1F
100
AcDbEntity
  8
0
  6
HIDDEN
 62
     7
370
     0
100
AcDbLine
 10
102.6972290991
 20
83.1644384484
 30
0.0
 11
102.2147953558
 21
82.685372473
 31
0.0
  0
LINE
  5
1D2
330
1F
100
AcDbEntity
  8
0
  6
HIDDEN
 62
     7
370
     0
100
AcDbLine
 10
102.2146734275
 20
130.000733844
 30
0.0
 11
102.6972241785
 21
129.5216135861
 31
0.0
  0
LINE
  5
1D3
330
1F
100
AcDbEntity
  8
0
  6
HIDDEN
 62
     7
370
     0
100
AcDbLine
 10
110.1972266252
 20
129.9433113638
 30
0.0
 11
110.6317690155
 21
130.4224316144
 31
0.0
  0
LINE
  5
1D4
330
1F
100
AcDbEntity
  8
0
  6
HIDDEN
 62
     7
370
     0
100
AcDbLine
 10
137.2472267432
 20
102.0930558037
 30
0.0
 11
166.4472267432
 21
102.0930558037
 31
0.0
  0
LINE
  5
1D5
330
1F
100
AcDbEntity
  8
0
  6
HIDDEN
 62
     7
370
     0
100
AcDbLine
 10
166.4472267432
 20
110.5930558037
 30
0.0
 11
137.2472267432
 21
110.5930558037
 31
0.0
  0
LINE
  5
1D6
330
1F
100
AcDbEntity
  8
0
  6
HIDDEN
 62
     7
370
     0
100
AcDbLine
 10
110.1972267432
 20
126.2801286298
 30
0.0
 11
110.1972267432
 21
129.9430200577
 31
0.0
  0
LINE
  5
1D7
330
1F
100
AcDbEntity
  8
0
  6
HIDDEN
 62
     7
370
     0
100
AcDbLine
 10
102.6972267432
 20
129.5214698069
 30
0.0
 11
102.6972267432
 21
126.3411935581
 31
0.0
  0
LINE
  5
1D8
330
1F
100
AcDbEntity
  8
0
  6
HIDDEN
 62
     7
370
     0
100
AcDbLine
 10
110.1972267432
 20
82.743234391
 30
0.0
 11
110.1972267432
 21
86.4059829777
 31
0.0
  0
LINE
  5
1D9
330
1F
100
AcDbEntity
  8
0
  6
HIDDEN
 62
     7
370
     0
100
AcDbLine
 10
102.6972267432
 20
86.3449180493
 30
0.0
 11
102.6972267432
 21
83.1647616862
 31
0.0
  0
LINE
  5
1DA
330
1F
100
AcDbEntity
  8
0
  6
HIDDEN
 62
     7
370
     0
100
AcDbLine
 10
152.8972267432
 20
80.3430558037
 30
0.0
 11
151.8972267432
 21
80.9204060729
 31
0.0
  0
LINE
  5
1DB
330
1F
100
AcDbEntity
  8
0
  6
HIDDEN
 62
     7
370
     0
100
AcDbLine
 10
146.8972267432
 20
80.9204060729
 30
0.0
 11
145.8972267432
 21
80.3430558037
 31
0.0
  0
LINE
  5
1DC
330
1F
100
AcDbEntity
  8
0
  6
HIDDEN
 62
     7
370
     0
100
AcDbLine
 10
145.8972267432
 20
132.3430558037
 30
0.0
 11
146.8972267432
 21
131.7657055345
 31
0.0
  0
LINE
  5
1DD
330
1F
100
AcDbEntity
  8
0
  6
HIDDEN
 62
     7
370
     0
100
AcDbLine
 10
151.8972267432
 20
131.7657055345
 30
0.0
 11
152.8972267432
 21
132.3430558037
 31
0.0
  0
LINE
  5
1DE
330
1F
100
AcDbEntity
  8
0
  6
HIDDEN
 62
     7
370
     0
100
AcDbLine
 10
146.8972267432
 20
131.7657055345
 30
0.0
 11
146.8972267432
 21
118.3430558037
 31
0.0
  0
LINE
  5
1DF
330
1F
100
AcDbEntity
  8
0
  6
HIDDEN
 62
     7
370
     0
100
AcDbLine
 10
151.8972267432
 20
118.3430558037
 30
0.0
 11
151.8972267432
 21
131.7657055345
 31
0.0
  0
LINE
  5
1E0
330
1F
100
AcDbEntity
  8
0
  6
HIDDEN
 62
     7
370
     0
100
AcDbLine
 10
146.8972267432
 20
118.3430558037
 30
0.0
 11
149.3972267432
 21
116.8409042562
 31
0.0
  0
LINE
  5
1E1
330
1F
100
AcDbEntity
  8
0
  6
HIDDEN
 62
     7
370
     0
100
AcDbLine
 10
149.3972267432
 20
116.8409042562
 30
0.0
 11
151.8972267432
 21
118.3430558037
 31
0.0
  0
LINE
  5
1E2
330
1F
100
AcDbEntity
  8
0
  6
HIDDEN
 62
     7
370
     0
100
AcDbLine
 10
151.8972267432
 20
94.3430558037
 30
0.0
 11
149.3972267432
 21
95.8452073513
 31
0.0
  0
LINE
  5
1E3
330
1F
100
AcDbEntity
  8
0
  6
HIDDEN
 62
     7
370
     0
100
AcDbLine
 10
149.3972267432
 20
95.8452073513
 30
0.0
 11
146.8972267432
 21
94.3430558037
 31
0.0
  0
LINE
  5
1E4
330
1F
100
AcDbEntity
  8
0
  6
HIDDEN
 62
     7
370
     0
100
AcDbLine
 10
151.8972267432
 20
80.9204060729
 30
0.0
 11
151.8972267432
 21
94.3430558037
 31
0.0
  0
LINE
  5
1E5
330
1F
100
AcDbEntity
  8
0
  6
HIDDEN
 62
     7
370
     0
100
AcDbLine
 10
146.8972267432
 20
94.3430558037
 30
0.0
 11
146.8972267432
 21
80.9204060729
 31
0.0
  0
LINE
  5
1E6
330
1F
100
AcDbEntity
  8
0
  6
HIDDEN
 62
     7
370
     0
100
AcDbLine
 10
84.8305633832
 20
85.4730558037
 30
0.0
 11
84.8416458697
 21
85.4730558037
 31
0.0
  0
LINE
  5
1E7
330
1F
100
AcDbEntity
  8
0
  6
HIDDEN
 62
     7
370
     0
100
AcDbLine
 10
170.9472267432
 20
121.7507804123
 30
0.0
 11
170.9472267432
 21
122.2529583804
 31
0.0
  0
LINE
  5
1E8
330
1F
100
AcDbEntity
  8
0
  6
HIDDEN
 62
     7
370
     0
100
AcDbLine
 10
170.9472267432
 20
115.393878921
 30
0.0
 11
170.9472267432
 21
119.4175429592
 31
0.0
  0
LINE
  5
1E9
330
1F
100
AcDbEntity
  8
0
  6
HIDDEN
 62
     7
370
     0
100
AcDbLine
 10
166.9472267432
 20
120.1369077227
 30
0.0
 11
166.9472267432
 21
115.3932880306
 31
0.0
  0
LINE
  5
1EA
330
1F
100
AcDbEntity
  8
0
  6
HIDDEN
 62
     7
370
     0
100
AcDbLine
 10
166.9472267432
 20
122.2529583804
 30
0.0
 11
166.9472267432
 21
121.1890388583
 31
0.0
  0
LINE
  5
1EB
330
1F
100
AcDbEntity
  8
0
  6
HIDDEN
 62
     7
370
     0
100
AcDbLine
 10
170.5714650431
 20
118.9449161411
 30
0.0
 11
225.4472267432
 21
117.4203412065
 31
0.0
  0
LINE
  5
1EC
330
1F
100
AcDbEntity
  8
0
  6
HIDDEN
 62
     7
370
     0
100
AcDbLine
 10
225.4472267432
 20
120.7216145237
 30
0.0
 11
170.5717078707
 21
122.2461827119
 31
0.0
  0
LINE
  5
1ED
330
1F
100
AcDbEntity
  8
0
  6
HIDDEN
 62
     7
370
     0
100
AcDbLine
 10
167.0620845228
 20
121.5870586655
 30
0.0
 11
166.5012869688
 21
120.7086317124
 31
0.0
  0
LINE
  5
1EE
330
1F
100
AcDbEntity
  8
0
  6
HIDDEN
 62
     7
370
     0
100
AcDbLine
 10
166.5012869688
 20
120.7086317124
 30
0.0
 11
167.0591526252
 21
119.7174399511
 31
0.0
  0
DIMENSION
  5
1EF
330
1F
100
AcDbEntity
  8
VERMASSUNG
100
AcDbDimension
  2
*D1
 10
79.3934759377
 20
74.8430558037
 30
0.0
 11
79.3934759377
 21
106.1423648042
 31
0.0
 70
   160
  1
HSK A %%c<>
 71
     2
 42
-1.0
  3
SLDDIMSTYLE0
100
AcDbAlignedDimension
 13
115.7472267432
 23
137.8430558037
 33
0.0
 14
115.7472267432
 24
74.8430558037
 34
0.0
 50
90.0
100
AcDbRotatedDimension
  0
DIMENSION
  5
1FC
330
1F
100
AcDbEntity
  8
VERMASSUNG
100
AcDbDimension
  2
*D2
 10
225.4472267432
 20
157.9221779146
 30
0.0
 11
152.8543763136
 21
157.9221779146
 31
0.0
 70
   160
 71
     2
 42
-1.0
  3
SLDDIMSTYLE0
100
AcDbAlignedDimension
 13
83.5472267432
 23
126.0337335502
 33
0.0
 14
225.4472267432
 24
128.014628679
 34
0.0
100
AcDbRotatedDimension
  0
DIMENSION
  5
206
330
1F
100
AcDbEntity
  8
VERMASSUNG
100
AcDbDimension
  2
*D3
 10
225.4472267432
 20
151.9221779146
 30
0.0
 11
170.7656867536
 21
151.9221779146
 31
0.0
 70
   160
 71
     2
 42
-1.0
  3
SLDDIMSTYLE0
100
AcDbAlignedDimension
 13
115.4472267432
 23
137.5430558037
 33
0.0
 14
225.4472267432
 24
128.014628679
 34
0.0
100
AcDbRotatedDimension
  0
DIMENSION
  5
210
330
1F
100
AcDbEntity
  8
VERMASSUNG
100
AcDbDimension
  2
*D4
 10
141.3972267432
 20
145.9221779146
 30
0.0
 11
181.6675097912
 21
145.9221779146
 31
0.0
 70
   160
 71
     2
 42
-1.0
  3
SLDDIMSTYLE0
100
AcDbAlignedDimension
 13
225.4472267432
 23
128.014628679
 33
0.0
 14
141.3972267432
 24
136.1894961275
 34
0.0
100
AcDbRotatedDimension
  0
DIMENSION
  5
21A
330
1F
100
AcDbEntity
  8
VERMASSUNG
100
AcDbDimension
  2
*D5
 10
234.0576407638
 20
93.8430558037
 30
0.0
 11
234.0576407638
 21
106.1423648042
 31
0.0
 70
   160
  1
%%c<>
 71
     2
 42
-1.0
  3
SLDDIMSTYLE0
100
AcDbAlignedDimension
 13
224.9472267432
 23
118.8430558037
 33
0.0
 14
224.9472267432
 24
93.8430558037
 34
0.0
 50
90.0
100
AcDbRotatedDimension
  0
DIMENSION
  5
225
330
1F
100
AcDbEntity
  8
VERMASSUNG
100
AcDbDimension
  2
*D6
 10
240.0576407638
 20
74.8430558037
 30
0.0
 11
240.0576407638
 21
105.6082614893
 31
0.0
 70
   160
  1
%%c<>
 71
     2
 42
-1.0
  3
SLDDIMSTYLE0
100
AcDbAlignedDimension
 13
215.6187996185
 23
137.8430558037
 33
0.0
 14
215.6187996185
 24
74.8430558037
 34
0.0
 50
90.0
100
AcDbRotatedDimension
  0
LINE
  5
230
330
1F
100
AcDbEntity
  8
VERMASSUNG
  6
CENTERX2
370
     0
100
AcDbLine
 10
81.1632124095
 20
106.3430558037
 30
0.0
 11
228.5272427453
 21
106.3430558037
 31
0.0
  0
OLE2FRAME
  5
231
330
1F
100
AcDbEntity
  8
0
100
AcDbOle2Frame
 70
     2
  3
Bitmap Image
 10
13.8511154363
 20
38.264191557
 30
0.0
 11
51.6290888628
 21
31.9806341108
 31
0.0
 71
     2
 72
     0
 73
     1
 90
    12928
310
80552BED0767C5B32B40DDAF6807D121434000000000000000006FFBDDFB85D0
310
4940DDAF6807D121434000000000000000006FFBDDFB85D04940416F4BD60AFB
310
3F4000000000000000002BED0767C5B32B40416F4BD60AFB3F40000000000000
310
0000000000000100000000010000010000000100000000000100000000320000
310
D0CF11E0A1B11AE1000000000000000000000000000000003E000300FEFF0900
310
0600000000000000000000000100000001000000000000000010000002000000
310
01000000FEFFFFFF0000000000000000FFFFFFFFFFFFFFFFFFFFFFFFFFFFFFFF
310
FFFFFFFFFFFFFFFFFFFFFFFFFFFFFFFFFFFFFFFFFFFFFFFFFFFFFFFFFFFFFFFF
310
FFFFFFFFFFFFFFFFFFFFFFFFFFFFFFFFFFFFFFFFFFFFFFFFFFFFFFFFFFFFFFFF
310
FFFFFFFFFFFFFFFFFFFFFFFFFFFFFFFFFFFFFFFFFFFFFFFFFFFFFFFFFFFFFFFF
310
FFFFFFFFFFFFFFFFFFFFFFFFFFFFFFFFFFFFFFFFFFFFFFFFFFFFFFFFFFFFFFFF
310
FFFFFFFFFFFFFFFFFFFFFFFFFFFFFFFFFFFFFFFFFFFFFFFFFFFFFFFFFFFFFFFF
310
FFFFFFFFFFFFFFFFFFFFFFFFFFFFFFFFFFFFFFFFFFFFFFFFFFFFFFFFFFFFFFFF
310
FFFFFFFFFFFFFFFFFFFFFFFFFFFFFFFFFFFFFFFFFFFFFFFFFFFFFFFFFFFFFFFF
310
FFFFFFFFFFFFFFFFFFFFFFFFFFFFFFFFFFFFFFFFFFFFFFFFFFFFFFFFFFFFFFFF
310
FFFFFFFFFFFFFFFFFFFFFFFFFFFFFFFFFFFFFFFFFFFFFFFFFFFFFFFFFFFFFFFF
310
FFFFFFFFFFFFFFFFFFFFFFFFFFFFFFFFFFFFFFFFFFFFFFFFFFFFFFFFFFFFFFFF
310
FFFFFFFFFFFFFFFFFFFFFFFFFFFFFFFFFFFFFFFFFFFFFFFFFFFFFFFFFFFFFFFF
310
FFFFFFFFFFFFFFFFFFFFFFFFFFFFFFFFFFFFFFFFFFFFFFFFFFFFFFFFFFFFFFFF
310
FFFFFFFFFFFFFFFFFFFFFFFFFFFFFFFFFFFFFFFFFFFFFFFFFFFFFFFFFFFFFFFF
310
FDFFFFFFFEFFFFFFFEFFFFFFFEFFFFFF05000000060000000700000008000000
310
090000000A0000000B0000000C0000000D0000000E0000000F00000010000000
310
11000000120000001300000014000000150000001600000017000000FEFFFFFF
310
FFFFFFFFFFFFFFFFFFFFFFFFFFFFFFFFFFFFFFFFFFFFFFFFFFFFFFFFFFFFFFFF
310
FFFFFFFFFFFFFFFFFFFFFFFFFFFFFFFFFFFFFFFFFFFFFFFFFFFFFFFFFFFFFFFF
310
FFFFFFFFFFFFFFFFFFFFFFFFFFFFFFFFFFFFFFFFFFFFFFFFFFFFFFFFFFFFFFFF
310
FFFFFFFFFFFFFFFFFFFFFFFFFFFFFFFFFFFFFFFFFFFFFFFFFFFFFFFFFFFFFFFF
310
FFFFFFFFFFFFFFFFFFFFFFFFFFFFFFFFFFFFFFFFFFFFFFFFFFFFFFFFFFFFFFFF
310
FFFFFFFFFFFFFFFFFFFFFFFFFFFFFFFFFFFFFFFFFFFFFFFFFFFFFFFFFFFFFFFF
310
FFFFFFFFFFFFFFFFFFFFFFFFFFFFFFFFFFFFFFFFFFFFFFFFFFFFFFFFFFFFFFFF
310
FFFFFFFFFFFFFFFFFFFFFFFFFFFFFFFFFFFFFFFFFFFFFFFFFFFFFFFFFFFFFFFF
310
FFFFFFFFFFFFFFFFFFFFFFFFFFFFFFFFFFFFFFFFFFFFFFFFFFFFFFFFFFFFFFFF
310
FFFFFFFFFFFFFFFFFFFFFFFFFFFFFFFFFFFFFFFFFFFFFFFFFFFFFFFFFFFFFFFF
310
FFFFFFFFFFFFFFFFFFFFFFFFFFFFFFFFFFFFFFFFFFFFFFFFFFFFFFFFFFFFFFFF
310
FFFFFFFFFFFFFFFFFFFFFFFFFFFFFFFFFFFFFFFFFFFFFFFFFFFFFFFFFFFFFFFF
310
FFFFFFFFFFFFFFFFFFFFFFFFFFFFFFFFFFFFFFFFFFFFFFFFFFFFFFFFFFFFFFFF
310
52006F006F007400200045006E00740072007900000000000000000000000000
310
0000000000000000000000000000000000000000000000000000000000000000
310
16000500FFFFFFFFFFFFFFFF020000000A00030000000000C000000000000046
310
000000000000000000000000E0158C88FAFFCB0103000000C000000000000000
310
01004F006C006500000000000000000000000000000000000000000000000000
310
0000000000000000000000000000000000000000000000000000000000000000
310
0A000200FFFFFFFFFFFFFFFFFFFFFFFF00000000000000000000000000000000
310
0000000000000000000000000000000000000000000000001400000000000000
310
010043006F006D0070004F0062006A0000000000000000000000000000000000
310
0000000000000000000000000000000000000000000000000000000000000000
310
120002010100000003000000FFFFFFFF00000000000000000000000000000000
310
0000000000000000000000000000000000000000010000004D00000000000000
310
01004F006C006500310030004E00610074006900760065000000000000000000
310
0000000000000000000000000000000000000000000000000000000000000000
310
1A000200FFFFFFFFFFFFFFFFFFFFFFFF00000000000000000000000000000000
310
0000000000000000000000000000000000000000040000002426000000000000
310
FEFFFFFF02000000FEFFFFFFFFFFFFFFFFFFFFFFFFFFFFFFFFFFFFFFFFFFFFFF
310
FFFFFFFFFFFFFFFFFFFFFFFFFFFFFFFFFFFFFFFFFFFFFFFFFFFFFFFFFFFFFFFF
310
FFFFFFFFFFFFFFFFFFFFFFFFFFFFFFFFFFFFFFFFFFFFFFFFFFFFFFFFFFFFFFFF
310
FFFFFFFFFFFFFFFFFFFFFFFFFFFFFFFFFFFFFFFFFFFFFFFFFFFFFFFFFFFFFFFF
310
FFFFFFFFFFFFFFFFFFFFFFFFFFFFFFFFFFFFFFFFFFFFFFFFFFFFFFFFFFFFFFFF
310
FFFFFFFFFFFFFFFFFFFFFFFFFFFFFFFFFFFFFFFFFFFFFFFFFFFFFFFFFFFFFFFF
310
FFFFFFFFFFFFFFFFFFFFFFFFFFFFFFFFFFFFFFFFFFFFFFFFFFFFFFFFFFFFFFFF
310
FFFFFFFFFFFFFFFFFFFFFFFFFFFFFFFFFFFFFFFFFFFFFFFFFFFFFFFFFFFFFFFF
310
FFFFFFFFFFFFFFFFFFFFFFFFFFFFFFFFFFFFFFFFFFFFFFFFFFFFFFFFFFFFFFFF
310
FFFFFFFFFFFFFFFFFFFFFFFFFFFFFFFFFFFFFFFFFFFFFFFFFFFFFFFFFFFFFFFF
310
FFFFFFFFFFFFFFFFFFFFFFFFFFFFFFFFFFFFFFFFFFFFFFFFFFFFFFFFFFFFFFFF
310
FFFFFFFFFFFFFFFFFFFFFFFFFFFFFFFFFFFFFFFFFFFFFFFFFFFFFFFFFFFFFFFF
310
FFFFFFFFFFFFFFFFFFFFFFFFFFFFFFFFFFFFFFFFFFFFFFFFFFFFFFFFFFFFFFFF
310
FFFFFFFFFFFFFFFFFFFFFFFFFFFFFFFFFFFFFFFFFFFFFFFFFFFFFFFFFFFFFFFF
310
FFFFFFFFFFFFFFFFFFFFFFFFFFFFFFFFFFFFFFFFFFFFFFFFFFFFFFFFFFFFFFFF
310
FFFFFFFFFFFFFFFFFFFFFFFFFFFFFFFFFFFFFFFFFFFFFFFFFFFFFFFFFFFFFFFF
310
010000020000000000000000000000000000000061007200650064005C003100
310
30002E0030005C0044004C004C005300680061007200650064005C003B004300
310
0100FEFF030A0000FFFFFFFF0A00030000000000C00000000000004607000000
310
5042727573680007000000504272757368000700000050427275736800F439B2
310
71000000000000000000000000004100540049002E004100430045005C004300
310
6F00720065002D005300740061007400690063003B0043003A005C0050007200
310
6F006700720061006D002000460069006C006500730020002800780038003600
310
29005C0043006F006D006D006F006E002000460069006C00650073005C004100
310
750074006F006400650073006B0020005300680061007200650064005C003B00
310
43003A005C00500072006F006700720061006D002000460069006C0065007300
310
5C004E006F0072006D0061006E005C004E0070006D005C00420069006E000000
310
43003A005C00500072006F006700720061006D002000460069006C0065007300
310
5C0053006F006C006900640057006F0072006B007300200043006F0072007000
310
5C0053006F006C006900640057006F0072006B00730020002800320029005C00
310
730065007400750070005C0069003300380036005C0073007700610063007400
310
770069007A002E006500780065000000220043003A005C00500072006F006700
310
20260000424D0E260000000000003E00000028000000B40200006E0000000100
310
01000000000000000000130B0000130B00000200000002000000000000FFFFFF
310
FFFFFFFFFFFFFFFFFFFFFFFFFFFFFFFFFFFFFFFFFFFFFFFFFFFFFFFFFFFFFFFF
310
FFFFFFFFFFFFFFFFFFFFFFFFFFFFFFFFFFFFFFFFFFFFFFFFFFFFFFFFFFFFFFFF
310
FFFFFFFFFFFFFFFFFFFFFFFFFFFFFFFFFFFFFFFFFFFFFFFFF000FFFFFFFFFFFF
310
FFFFFFFFFFFFFFFFFFFFFFFFFFFFFFFFFFFFFFFFFFFFFFFFFFFFFFFFFFFFFFFF
310
FFFFFFFFFFFFFFFFFFFFFFFFFFFFFFFFFFFFFFFFFFFFFFFFFFFFFFFFFFFFFFFF
310
FFFFFFFFFFFFFFFFFFFFFFFFFFFFFFFFF000FFFFFFFFFFFFFFFFFFFFFFFFFFFF
310
FFFFFFFFFFFFFFFFFFFFFFFFFFFFFFFFFFFFFFFFFFFFFFFFFFFFFFFFFFFFFFFF
310
FFFFFFFFFFFFFFFFFFFFFFFFFFFFFFFFFFFFFFFFFFFFFFFFFFFFFFFFFFFFFFFF
310
FFFFFFFFFFFFFFFFF000FFFFFFFFFFFFFFFFFFFFFFFFFFFFFFFFFFFFFFFFFFFF
310
FFFFFFFFFFFFFFFFFFFFFFFFFFFFFFFFFFFFFFFFFFFFFFFFFFFFFFFFFFFFFFFF
310
FFFFFFFFFFFFFFFFFFFFFFFFFFFFFFFFFFFFFFFFFFFFFFFFFFFFFFFFFFFFFFFF
310
F000FFFFFFFFFFFFFFFFFFFFFFFFFFFFFFFFFFFFFFFFFFFFFFFFFFFFFFFFFFFF
310
FFFFFFFFFFFFFFFFFFFFFFFFFFFFFFFFFFFFFFFFFFFFFFFFFFFFFFFFFFFFFFFF
310
FFFFFFFFFFFFFFFFFFFFFFFFFFFFFFFFFFFFFFFFFFFFFFFFF000FFFFFFFFFFFF
310
FFFFFFFFFFFFFFFFFFFFFFFFFFFFFFFFFFFFFFFFFFFFFFFFFFFFFFFFFFFFFFFF
310
FFFFFFFFFFFFFFFFFFFFFFFFFFFFFFFFFFFFFFFFFFFFFFFFFFFFFFFFFFFFFFFF
310
FFFFFFFFFFFFFFFFFFFFFFFFFFFFFFFFF000FFFFFFFFFFFFFFFFFFFFFFFFFFFF
310
FFFFFFFFFFFFFFFFFFFFFFFFFFFFFFFFFFFFFFFFFFFFFFFFFFFFFFFFFFFFFFFF
310
FFFFFFFFFFFFFFFFFFFFFFFFFFFFFFFFFFFFFFFFFFFFFFFFFFFFFFFFFFFFFFFF
310
FFFFFFFFFFFFFFFFF000FFFFFFFFFFFFFFFFFFFFFFFFFFFFFFFFFFFFFFFFFFFF
310
FFFFFFFFFFFFFFFFFFFFFFFFFFFFFFFFFFFFFFFFFFFFFFFFFFFFFFFFFFFFFFFF
310
FFFFFFFFFFFFFFFFFFFFFFFFFFFFFFFFFFFFFFFFFFFFFFFFFFFFFFFFFFFFFFFF
310
F000FFFFFFFFFFFFFFFFFFFFFFFFFFFFFFFFFFFFFFFFFFFFFFFFFFFFFFFFFFFF
310
FFFFFFFFFFFFFFFFFFFFFFFFFFFFFFFFFFFFFFFFFFFFFFFFFFFFFFFFFFFFFFFF
310
FFFFFFFFFFFFFFFFFFFFFFFFFFFFFFFFFFFFFFFFFFFFFFFFF000FFFFFFFFFFFF
310
FFFFFFFFFFFFFFFFFFFFFFFFFFFFFFFFFFFFFFFFFFFFFFFFFFFFFFFFFFFFFFFF
310
FFFFFFFFFFFFFFFFFFFFFFFFFFFFFFFFFFFFFFFFFFFFFFFFFFFFFFFFFFFFFFFF
310
FFFFFFFFFFFFFFFFFFFFFFFFFFFFFFFFF000FFFFFFFFFFFFFFFFFFFFFFFFFFFF
310
FFFFFFFFFFFFFFFFFFFFFFFFFFFFFFFFFFFFFFFFFFFFFFFFFFFFFFFFFFFFFFFF
310
FFFFFFFFFFFFFFFFFFFFFFFFFFFFFFFFFFFFFFFFFFFFFFFFFFFFFFFFFFFFFFFF
310
FFFFFFFFFFFFFFFFF000FFFFFFFFFFFFFFFFFFFFFFFFFFFFFFFFFFFFFFFFFFFF
310
FFFFFFFFFFFFFFFFFFFFFFFFFFFFFFFFFFFFFFFFFFFFFFFFFFFFFFFFFFFFFFFF
310
FFFFFFFFFFFFFFFFFFFFFFFFFFFFFFFFFFFFFFFFFFFFFFFFFFFFFFFFFFFFFFFF
310
F000FFFFFFFFFFFFFFFFFFFFFFFFFFFFFFFFFFFFFFFFFFFFFFFFFFFFFFFFFFFF
310
FFFFFFFFFFFFFFFFFFFFFFFFFFFFFFFFFFFFFFFFFFFFFFFFFFFFFFFFFFFFFFFF
310
FFFFFFFFFFFFFFFFFFFFFFFFFFFFFFFFFFFFFFFFFFFFFFFFF000FFFFFFFFFFFF
310
FFFFFFFFFFFFFFFFFFFFFFFFFFFFFFFFFFFFFFFFFFFFFFFFFFFFFFFFFFFFFFFF
310
FFFFFFFFFFFFFFFFFFFFFFFFFFFFFFFFFFFFFFFFFFFFFFFFFFFFFFFFFFFFFFFF
310
FFFFFFFFFFFFFFFFFFFFFFFFFFFFFFFFF000FFFFFFFFFFFFFFFFFFFFFFFFFFFF
310
FFFFFFFFFFFFFFFFFFFFFFFFFFFFFFFFFFFFFFFFFFFFFFFFFFFFFFFFFFFFFFFF
310
FFFFFFFFFFFFFFFFFFFFFFFFFFFFFFFFFFFFFFFFFFFFFFFFFFFFFFFFFFFFFFFF
310
FFFFFFFFFFFFFFFFF000FFFFFFFFFFFFFFFFFFFFFFFFFFFFFFFFFFFFFFFFFFFF
310
FFFFFFFFFFFFFFFFFFFFFFFFFFFFFFFFFFFFFFFFFFFFFFFFFFFFFFFFFFFFFFFF
310
FFFFFFFFFFFFFFFFFFFFFFFFFFFFFFFFFFFFFFFFFFFFFFFFFFFFFFFFFFFFFFFF
310
F000FFFFFFFFFFFFFFFFFFFFFFFFFFFFFFFFFFFFFFFFFFFFFFFFFFFFFFFFFFFF
310
FFFFFFFFFFFFFFFFFFFFFFFFFFFFFFFFFFFFFFFFFFFFFFFFFFFFFFFFFFFFFFFF
310
FFFFFFFFFFFFFFFFFFFFFFFFFFFFFFFFFFFFFFFFFFFFFFFFF000FFFFFFFFFFFF
310
FFFFFFFFFFFFFFFFFFFFFFFFFFFFFFFFFFFFFFFFFFFFFFFFFFFFFFFFFFFFFFFF
310
FFFFFFFFFFFFFFFFFFFFFFFFFFFFFFFFFFFFFFFFFFFFFFFFFFFFFFFFFFFFFFFF
310
FFFFFFFFFFFFFFFFFFFFFFFFFFFFFFFFF000FFFFFFFFFFFFFFFFFFFFFFFFFFFF
310
FFFFFFFFFFFFFFFFFFFFFFFFFFFFFFFFFFFFFFFFFFFFFFFFFFFFFFFFFFFFFFFF
310
FFFFFFFFFFFFFFFFFFFFFFFFFFFFFFFFFFFFFFFFFFFFFFFFFFFFFFFFFFFFFFFF
310
FFFFFFFFFFFFFFFFF000FFFFF80003FFFFFFFFFFFFFFFFFFFFFFFFFFFFFFFFFF
310
FFFFF00007FFFFFFFFFF00007FFFFFF800000000000000007FFFFFFFFFFFFFFF
310
FFFFFFFC001FFFFFFFFFFFFFFC001FFFFFFFFFFFFFFFFFFFFFFFFFFE0007FFFF
310
F000FFFF8000007FFFFFFFF8000FFFFFC0007FFFFF80007FFFFF0000007FFFFF
310
FFF8000007FFFFF800000000000000007FFFFFF0001FFFFFFFFFFFC00001FFFF
310
FFFFFFFFC00001FFFFFFFF000000000003FFFFE000007FFFF000FFFE0000000F
310
FFFFFFF0000FFFFF80007FFFFF80007FFFFC0000001FFFFFFFC0000001FFFFF8
310
00000000000000007FFFFFF0001FFFFFFFFFFE0000003FFFFFFFFFFE0000003F
310
FFFFFF000000000003FFFF0000000FFFF000FFF800000003FFFFFFF00007FFFF
310
80007FFFFF80007FFFF000000007FFFFFF000000003FFFF80000000000000000
310
7FFFFFF0001FFFFFFFFFF80000000FFFFFFFFFF80000000FFFFFFF0000000000
310
03FFFC00000003FFF000FFE000000000FFFFFFF00007FFFF80003FFFFF80007F
310
FFC000000001FFFFFC000000001FFFF800000000000000007FFFFFF0001FFFFF
310
FFFFE000000003FFFFFFFFE000000003FFFFFF000000000003FFF000000000FF
310
F000FF80000000007FFFFFF00007FFFF80003FFFFF80007FFF8000000000FFFF
310
F80000000007FFF800000000000000007FFFFFF0001FFFFFFFFFC000000001FF
310
FFFFFFC000000001FFFFFF000000000003FFC0000000007FF000FF0000000000
310
3FFFFFE00007FFFF00003FFFFF80007FFE00000000003FFFF00000000003FFF8
310
00000000000000007FFFFFF0001FFFFFFFFF8000000000FFFFFFFF8000000000
310
FFFFFF000000000003FF80000000003FF000FE00000000001FFFFFE00003FFFF
310
00003FFFFF80007FFC00000000001FFFE00000000001FFF8000001FFFE000000
310
7FFFFFF0001FFFFFFFFE00000000003FFFFFFE00000000003FFFFF0000000000
310
03FF00000000001FF000FC00000000000FFFFFE00003FFFF00001FFFFF80007F
310
F800000000001FFFC00000000000FFF8000001FFFE0000007FFFFFF0001FFFFF
310
FFFC00000000001FFFFFFC00000000001FFFFF000000000003FE00000000000F
310
F000F8000000000007FFFFE00003FFFF00001FFFFF80007FF800000000000FFF
310
800000000000FFF8000001FFFE0000007FFFFFF0001FFFFFFFF800000000000F
310
FFFFF800000000000FFFFF000000000003FC000000000007F000F80000000000
310
03FFFFC00003FFFE00001FFFFF80007FF0000000000007FF0000000000007FF8
310
000001FFFE0000007FFFFFF0001FFFFFFFF0000000000007FFFFF00000000000
310
07FFFF000000000003F8000000000003F000F0000000000003FFFFC00001FFFE
310
00001FFFFF80007FE0000000000007FE0000000000003FF8000001FFFE000000
310
7FFFFFF0001FFFFFFFF0000000000007FFFFF0000000000007FFFF0000000000
310
03F800001F800003F000E00001FFF00001FFFFC00001FFFE00000FFFFF80007F
310
E00001FFE00003FE00001FFF00003FF8000001FFFE0000007FFFFFF0001FFFFF
310
FFE000003E000003FFFFE000003E000003FFFF000000000003F00001FFF80001
310
F000E00007FFFC0001FFFFC00001FFFE00000FFFFF80007FC0000FFFFC0003FC
310
0000FFFFC0001FF8000001FFFE0000007FFFFFF0001FFFFFFFC00003FFE00001
310
FFFFC00003FFE00001FFFF0001FFFFFFFFF00007FFFE0001F000E0000FFFFF00
310
00FFFF800001FFFC00000FFFFF80007FC0001FFFFE0001FC0001FFFFE0001FF8
310
000001FFFE0000007FFFFFF0001FFFFFFF80000FFFF80000FFFF80000FFFF800
310
00FFFF0003FFFFFFFFE0000FFFFF8000F000C0003FFFFF8000FFFF800000FFFC
310
000007FFFF80007F80003FFFFF0001FC0003FFFFF0001FF8000001FFFE000000
310
7FFFFFF0001FFFFFFF80003FFFFE0000FFFF80003FFFFE0000FFFF0003FFFFFF
310
FFE0003FFFFF8000F000C0003FFFFF8000FFFF800000FFFC000007FFFF80007F
310
80007FFFFF8001F80007FFFFF8000FF8000001FFFE0000007FFFFFF0001FFFFF
310
FF00007FFFFF00007FFF00007FFFFF00007FFF0003FFFFFFFFE0003FFFFFC000
310
F000C0007FFFFFC000FFFF000000FFFC000007FFFF80007F8000FFFFFF8000F8
310
000FFFFFF8000FF8000001FFFE0000007FFFFFF0001FFFFFFF0000FFFFFF8000
310
7FFF0000FFFFFF80007FFF0003FFFFFFFFC0007FFFFFC00070008000FFFFFFC0
310
00FFFF000000FFF8000007FFFF80007F8000FFFFFF8000F8000FFFFFF8000FF8
310
000001FFFE0000007FFFFFF0001FFFFFFE0001FFFFFFC0003FFE0001FFFFFFC0
310
003FFF0003FFFFFFFFC0007FFFFFE00070008000FFFFFFC0007FFF0000007FF8
310
000003FFFF80007F0001FFFFFF8000F8000FFFFFF8000FF8000001FFFE000000
310
7FFFFFF0001FFFFFFE0001FFFFFFC0003FFE0001FFFFFFC0003FFF0003FFFFFF
310
FFC000FFFFFFE00070008000FFFFFFC0007FFF0000007FF8000003FFFF80007F
310
0001FFFFFF8000F8001FFFFFF8000FF8000001FFFE0000007FFFFFF0001FFFFF
310
FE0003FFFFFFE0003FFE0003FFFFFFE0003FFF0003FFFFFFFFC000FFFFFFE000
310
70008000FFFFFFC0007FFE0000007FF8000003FFFF80007F0001FFFFFF8000F0
310
001FFFFFF8000FF8000001FFFE0000007FFFFFF0001FFFFFFC0003FFFFFFE000
310
1FFC0003FFFFFFE0001FFF0003FFFFFFFFC000FFFFFFC00070008000FFFFFF80
310
007FFE0000007FF0000003FFFF80007F0001FFFFFF0000F0001FFFFFF8000FF8
310
000001FFFE0000007FFFFFF0001FFFFFFC0007FFFFFFF0001FFC0007FFFFFFF0
310
001FFF0003FFFFFFFFC000FFFFFFC00070008001FFFFFF0000FFFE0000003FF0
310
000001FFFF80007F0001FFFFFF0000F8001FFFFFF0000FF8000001FFFE000000
310
7FFFFFF0001FFFFFFC0007FFFFFFF0001FFC0007FFFFFFF0001FFF0003FFFFFF
310
FFC001FFFFFF80007000FFFFFFFFFE0000FFFE0008003FF0008001FFFF80007F
310
FFFFFFFFFC0000FFFFFFFFFFE0000FF8000001FFFE0000007FFFFFF0001FFFFF
310
F8000FFFFFFFF8000FF8000FFFFFFFF8000FFF0003FFFFFFFFFFFFFFFFFF0000
310
7000FFFFFFFFFC0000FFFC0008003FF0008001FFFF80007FFFFFFFFFF80001FF
310
FFFFFFFF80000FF8000001FFFE0000007FFFFFF0001FFFFFF8000FFFFFFFF800
310
0FF8000FFFFFFFF8000FFF0003FFFFFFFFFFFFFFFFFE0000F000FFFFFFFFE000
310
00FFFC000C003FE000C001FFFF80007FFFFFFFFFC00001FFFFFFFFFE00001FF8
310
000001FFFE0000007FFFFFF0001FFFFFF8000FFFFFFFF8000FF8000FFFFFFFF8
310
000FFF0003FFFFFFFFFFFFFFFFF00000F000FFFFFFFE000001FFFC000C001FE0
310
00C000FFFF80007FFFFFFFFE000001FFFFFFFFE000001FF80FFFFFFFFFFFFFC0
310
7FFFFFF0001FFFFFF8000FFFFFFFF8000FF8000FFFFFFFF8000FFF0003FFFFFF
310
FFFFFFFFFF800000F000FFFFFFC0000001FFFC001C001FE001C000FFFF80007F
310
FFFFFF80000003FFFFFFF80000001FF80FFFFFFFFFFFFFC07FFFFFF0001FFFFF
310
F8001FFFFFFFFC000FF8001FFFFFFFFC000FFF0003FFFFFFFFFFFFFFF0000001
310
F000FFFFF800000001FFF8001C001FE001C000FFFF80007FFFFFF800000003FF
310
FFFF800000003FF80FFFFFFFFFFFFFC07FFFFFF0001FFFFFF8001FFFFFFFFC00
310
0FF8001FFFFFFFFC000FFF0003FFFFFFFFFFFFFE00000001F000FFFFC0000000
310
03FFF8001E001FC001E000FFFF80007FFFFF8000000007FFFFFC000000003FF8
310
0FFFFFFFFFFFFFC07FFFFFF0001FFFFFF8001FFFFFFFFC000FF8001FFFFFFFFC
310
000FFF0003FFFFFFFFFFFFE000000003F000FFFE0000000007FFF8001E000FC0
310
01E0007FFF80007FFFFE0000000007FFFFE0000000007FF80FFFFFFFFFFFFFC0
310
7FFFFFF0001FFFFFF0001FFFFFFFFC0007F0001FFFFFFFFC0007FF0003FFFFFF
310
FFFFFF0000000003F000FFF80000000007FFF8001E000FC003E0007FFF80007F
310
FFF0000000000FFFFF8000000000FFF80FFFFFFFFFFFFFC07FFFFFF0001FFFFF
310
F0001FFFFFFFFC0007F0001FFFFFFFFC0007FF0003FFFFFFFFFFFC0000000007
310
F000FFE0000000000FFFF0003E000FC003E0007FFF80007FFFC0000000001FFF
310
FE0000000001FFF80FFFFFFFFFFFFFC07FFFFFF0001FFFFFF0001FFFFFFFFC00
310
07F0001FFFFFFFFC0007FF0003FFFFFFFFFFF0000000000FF000FFC000000000
310
1FFFF0003F000F8003F0003FFF80007FFF80000000003FFFF80000000003FFF8
310
0FFFFFFFFFFFFFC07FFFFFF0001FFFFFF0001FFFFFFFFC0007F0001FFFFFFFFC
310
0007FF0003FFFFFFFFFFE0000000001FF000FF00000000007FFFF0003F000780
310
03F0003FFF80007FFF00000000007FFFF00000000007FFF80FFFFFFFFFFFFFC0
310
7FFFFFF0001FFFFFF0001FFFFFFFFC0007F0001FFFFFFFFC0007FF0003FFFFFF
310
FFFF80000000007FF000FE0000000000FFFFE0003F00078007F0003FFF80007F
310
FE0000000001FFFFE0000000001FFFF80FFFFFFFFFFFFFC07FFFFFF0001FFFFF
310
F0001FFFFFFFFC0007F0001FFFFFFFFC0007FF0003FFFFFFFFFF0000000000FF
310
F000FC0000000003FFFFE0007F00078007F0003FFF80007FFC0000000007FFFF
310
C0000000007FFFF80FFFFFFFFFFFFFC07FFFFFF0001FFFFFF8001FFFFFFFFC00
310
0FF8001FFFFFFFFC000FFF0003FFFFFFFFFE0000000003FFF000FC000000000F
310
FFFFE0007F80070007F8001FFF80007FF8000000001FFFFF8000000001FFFFF8
310
0FFFFFFFFFFFFFC07FFFFFF0001FFFFFF8001FFFFFFFFC000FF8001FFFFFFFFC
310
000FFF0003FFFFFFFFFC000000000FFFF000F8000000007FFFFFE0007F800700
310
07F8001FFF80007FF000000000FFFFFF800000000FFFFFF80FFFFFFFFFFFFFC0
310
7FFFFFF0001FFFFFF8000FFFFFFFF8000FF8000FFFFFFFF8000FFF0003FFFFFF
310
FFFC000000007FFFF000F800000007FFFFFFC0007F8003000FF8001FFF80007F
310
F000000007FFFFFF000000007FFFFFF80FFFFFFFFFFFFFC07FFFFFF0001FFFFF
310
F8000FFFFFFFF8000FF8000FFFFFFFF8000FFF0003FFFFFFFFF80000000FFFFF
310
F000F0000000FFFFFFFFC000FF8003000FF8001FFF80007FE0000000FFFFFFFF
310
0000000FFFFFFFF8000001FFFE0000007FFFFFF0001FFFFFF8000FFFFFFFF800
310
0FF8000FFFFFFFF8000FFF0003FFFFFFFFF8000000FFFFFFF000F000000FFFFF
310
FFFFC000FFC002000FF8000FFF80007FE000001FFFFFFFFE000001FFFFFFFFF8
310
000001FFFE0000007FFFFFF0001FFFFFF8000FFFFFFFF8000FF8000FFFFFFFF8
310
000FFF0003FFFFFFFFF000001FFFFFFFF000E00000FFFFFFFFFFC000FFC00200
310
0FFC000FFF80007FE00001FFFFFFFFFE00001FFFFFFFFFF8000001FFFE000000
310
7FFFFFF0001FFFFFFC000FFFFFFFF8001FFC000FFFFFFFF8001FFF0003FFFFFF
310
FFF00001FFFFFFFFF000E00007FFFFFFFFFF8000FFC000001FFC000FFF80007F
310
C0000FFFFFFFFFFE0000FFFFFFFFFFF8000001FFFE0000007FFFFFF0001FFFFF
310
FC0007FFFFFFF0001FFC0007FFFFFFF0001FFF0003FFFFFFFFF00007FFFFFFFF
310
F000E0001FFFFFFFFFFF8000FFC000001FFC000FFF80007FC0003FFFFFFFFFFE
310
0001FFFFFFFFFFF8000001FFFE0000007FFFFFF0001FFFFFFC0007FFFFFFF000
310
1FFC0007FFFFFFF0001FFF0003FFFFFFFFF0001FFFFFFFFFF000E0003FFFFF00
310
03FF8001FFE000001FFC0007FF80007FC0007FFFFF0007FC0003FFFFF0003FF8
310
000001FFFE0000007FFFFFF0001FFFFFFC0003FFFFFFE0001FFC0003FFFFFFE0
310
001FFF0003FFFFFFFFF0003FFFFFFFFFF000E0003FFFFF0001FF8001FFE00000
310
1FFE0007FF80007FC0007FFFFE0003FC0007FFFFE0003FF8000001FFFE000000
310
7FFFFFF0001FFFFFFE0003FFFFFFE0003FFE0003FFFFFFE0003FFF0003FFFFFF
310
FFF0003FFFFF8001F000E0003FFFFF0001FF0001FFE000001FFE0007FF80007F
310
C0007FFFFE0003FC0007FFFFE0003FF8000001FFFE0000007FFFFFF0001FFFFF
310
FE0001FFFFFFC0003FFE0001FFFFFFC0003FFF0003FFFFFFFFF0003FFFFF0001
310
F000E0003FFFFF0003FF0001FFE000003FFE0007FF80007FC0007FFFFE0003FC
310
0007FFFFE0003FF8000001FFFE0000007FFFFFF0001FFFFFFF0001FFFFFFC000
310
7FFF0001FFFFFFC0007FFF0003FFFFFFFFF0003FFFFF0001F000E0003FFFFE00
310
03FF0003FFF000003FFE0003FF80007FC0007FFFFC0003FE0007FFFFE0003FF8
310
000001FFFE0000007FFFFFF0001FFFFFFF0000FFFFFF80007FFF0000FFFFFF80
310
007FFF0003FFFFFFFFF0003FFFFF0001F000E0003FFFFE0003FF0003FFF00000
310
3FFF0003FF80007FC0007FFFFC0007FE0007FFFFC0003FF8000001FFFE000000
310
7FFFFFF0001FFFFFFF80007FFFFF0000FFFF80007FFFFF0000FFFF0003FFFFFF
310
FFF0003FFFFF0003F000E0003FFFFC0003FE0003FFF000003FFF0003FF80007F
310
E0003FFFF80007FE0003FFFFC0007FF8000001FFFE0000007FFFFFF0001FFFFF
310
FF80003FFFFE0000FFFF80003FFFFE0000FFFF0003FFFFFFFFF0001FFFFE0003
310
F000F0001FFFF80003FE0003FFF000007FFF0001FF80007FE0003FFFF00007FE
310
0001FFFF80007FF8000001FFFE0000007FFFFFF0001FFFFFFFC0000FFFF80001
310
FFFFC0000FFFF80001FFFF0003FFFFFFFFF0001FFFFC0003F000F0000FFFF000
310
07FE0007FFF800007FFF0001FF80007FE0001FFFE00007FF0000FFFE00007FF8
310
000001FFFE0000007FFFFFF0001FFFFFFFC00003FFE00001FFFFC00003FFE000
310
01FFFF0003FFFFFFFFF8000FFFF80003F000F00003FFC00007FC0007FFF80000
310
7FFF8001FF80007FF00007FF80000FFF00007FF80000FFF8000001FFFE000000
310
7F80000000000001FFE000003E000003FFFFE000003E000003FFFF0003FFFFFF
310
FFF80003FFE00007F000F800000000000FFC0007FFF800007FFF8001FF80007F
310
F000000000000FFF000000000000FFF8000001FFFE0000007F80000000000001
310
FFF0000000000007FFFFF0000000000007FFFF0003FFFFFFFFFC00007E000007
310
F000F800000000000FFC0007FFF80000FFFF8000FF80007FF800000000001FFF
310
800000000001FFF8000001FFFE0000007F80000000000001FFF800000000000F
310
FFFFF800000000000FFFFF0003FFFFFFFFFC00000000000FF000FC0000000000
310
1FFC0007FFFC0000FFFF8000FF80007FF800000000003FFFC00000000001FFF8
310
000001FFFE0000007F80000000000001FFF800000000000FFFFFF80000000000
310
0FFFFF0003FFFFFFFFFE00000000001FF000FE00000000003FF8000FFFFC0000
310
FFFF8000FF80007FFC00000000003FFFC00000000003FFF8000001FFFE000000
310
7F80000000000001FFFC00000000001FFFFFFC00000000001FFFFF0003FFFFFF
310
FFFF00000000001FF000FF00000000003FF8000FFFFC0000FFFFC000FF80007F
310
FE00000000007FFFE00000000007FFF8000001FFFE0000007F80000000000001
310
FFFE00000000003FFFFFFE00000000003FFFFF0003FFFFFFFFFF80000000003F
310
F000FF80000000007FF8000FFFFC0001FFFFC0007F80007FFF0000000000FFFF
310
F0000000000FFFF800000000000000007F80000000000001FFFF8000000000FF
310
FFFFFF8000000000FFFFFF0003FFFFFFFFFFC0000000007FF000FFC000000000
310
FFF8000FFFFE0001FFFFC0007F80007FFF8000000001FFFFF8000000001FFFF8
310
00000000000000007F80000000000001FFFFC000000001FFFFFFFFC000000001
310
FFFFFF0003FFFFFFFFFFE000000000FFF000FFE000000003FFF0001FFFFE0001
310
FFFFC0007F80007FFFC000000007FFFFFE000000003FFFF80000000000000000
310
7F80000000000001FFFFE000000003FFFFFFFFE000000003FFFFFF0003FFFFFF
310
FFFFF000000003FFF000FFF80000000FFFF0001FFFFE0001FFFFE0007F80007F
310
FFF00000000FFFFFFF00000000FFFFF800000000000000007F80000000000001
310
FFFFF80000000FFFFFFFFFF80000000FFFFFFF0003FFFFFFFFFFFC0000000FFF
310
F000FFFE0000003FFFF0001FFFFE0003FFFFE0003F80007FFFFC0000003FFFFF
310
FFC0000003FFFFF800000000000000007F80000000000001FFFFFE0000003FFF
310
FFFFFFFE0000003FFFFFFF0003FFFFFFFFFFFF0000003FFFF000FFFF800000FF
310
FFF0001FFFFF0003FFFFE0003F80007FFFFF000001FFFFFFFFF800001FFFFFF8
310
00000000000000007F80000000000001FFFFFFC00001FFFFFFFFFFFFC00001FF
310
FFFFFF0003FFFFFFFFFFFFC00000FFFFF000FFFFF8000FFFFFFFFFFFFFFFFFFF
310
FFFFFFFFFFFFFFFFFFFFF0001FFFFFFFFFFF0000FFFFFFF80000000000000000
310
7FFFFFFFFFFFFFFFFFFFFFFC001FFFFFFFFFFFFFFC001FFFFFFFFFFFFFFFFFFF
310
FFFFFFFC001FFFFFF000FFFFFFFFFFFFFFFFFFFFFFFFFFFFFFFFFFFFFFFFFFFF
310
FFFFFFFFFFFFFFFFFFFFFFFFFFFFFFFFFFFFFFFFFFFFFFFFFFFFFFFFFFFFFFFF
310
FFFFFFFFFFFFFFFFFFFFFFFFFFFFFFFFFFFFFFFFFFFFFFFFFFFFFFFFFFFFFFFF
310
F000FFFFFFFFFFFFFFFFFFFFFFFFFFFFFFFFFFFFFFFFFFFFFFFFFFFFFFFFFFFF
310
FFFFFFFFFFFFFFFFFFFFFFFFFFFFFFFFFFFFFFFFFFFFFFFFFFFFFFFFFFFFFFFF
310
FFFFFFFFFFFFFFFFFFFFFFFFFFFFFFFFFFFFFFFFFFFFFFFFF000FFFFFFFFFFFF
310
FFFFFFFFFFFFFFFFFFFFFFFFFFFFFFFFFFFFFFFFFFFFFFFFFFFFFFFFFFFFFFFF
310
FFFFFFFFFFFFFFFFFFFFFFFFFFFFFFFFFFFFFFFFFFFFFFFFFFFFFFFFFFFFFFFF
310
FFFFFFFFFFFFFFFFFFFFFFFFFFFFFFFFF000FFFFFFFFFFFFFFFFFFFFFFFFFFFF
310
FFFFFFFFFFFFFFFFFFFFFFFFFFFFFFFFFFFFFFFFFFFFFFFFFFFFFFFFFFFFFFFF
310
FFFFFFFFFFFFFFFFFFFFFFFFFFFFFFFFFFFFFFFFFFFFFFFFFFFFFFFFFFFFFFFF
310
FFFFFFFFFFFFFFFFF000FFFFFFFFFFFFFFFFFFFFFFFFFFFFFFFFFFFFFFFFFFFF
310
FFFFFFFFFFFFFFFFFFFFFFFFFFFFFFFFFFFFFFFFFFFFFFFFFFFFFFFFFFFFFFFF
310
FFFFFFFFFFFFFFFFFFFFFFFFFFFFFFFFFFFFFFFFFFFFFFFFFFFFFFFFFFFFFFFF
310
F000FFFFFFFFFFFFFFFFFFFFFFFFFFFFFFFFFFFFFFFFFFFFFFFFFFFFFFFFFFFF
310
FFFFFFFFFFFFFFFFFFFFFFFFFFFFFFFFFFFFFFFFFFFFFFFFFFFFFFFFFFFFFFFF
310
FFFFFFFFFFFFFFFFFFFFFFFFFFFFFFFFFFFFFFFFFFFFFFFFF000FFFFFFFFFFFF
310
FFFFFFFFFFFFFFFFFFFFFFFFFFFFFFFFFFFFFFFFFFFFFFFFFFFFFFFFFFFFFFFF
310
FFFFFFFFFFFFFFFFFFFFFFFFFFFFFFFFFFFFFFFFFFFFFFFFFFFFFFFFFFFFFFFF
310
FFFFFFFFFFFFFFFFFFFFFFFFFFFFFFFFF000FFFFFFFFFFFFFFFFFFFFFFFFFFFF
310
FFFFFFFFFFFFFFFFFFFFFFFFFFFFFFFFFFFFFFFFFFFFFFFFFFFFFFFFFFFFFFFF
310
FFFFFFFFFFFFFFFFFFFFFFFFFFFFFFFFFFFFFFFFFFFFFFFFFFFFFFFFFFFFFFFF
310
FFFFFFFFFFFFFFFFF000FFFFFFFFFFFFFFFFFFFFFFFFFFFFFFFFFFFFFFFFFFFF
310
FFFFFFFFFFFFFFFFFFFFFFFFFFFFFFFFFFFFFFFFFFFFFFFFFFFFFFFFFFFFFFFF
310
FFFFFFFFFFFFFFFFFFFFFFFFFFFFFFFFFFFFFFFFFFFFFFFFFFFFFFFFFFFFFFFF
310
F000FFFFFFFFFFFFFFFFFFFFFFFFFFFFFFFFFFFFFFFFFFFFFFFFFFFFFFFFFFFF
310
FFFFFFFFFFFFFFFFFFFFFFFFFFFFFFFFFFFFFFFFFFFFFFFFFFFFFFFFFFFFFFFF
310
FFFFFFFFFFFFFFFFFFFFFFFFFFFFFFFFFFFFFFFFFFFFFFFFF000FFFFFFFFFFFF
310
FFFFFFFFFFFFFFFFFFFFFFFFFFFFFFFFFFFFFFFFFFFFFFFFFFFFFFFFFFFFFFFF
310
FFFFFFFFFFFFFFFFFFFFFFFFFFFFFFFFFFFFFFFFFFFFFFFFFFFFFFFFFFFFFFFF
310
FFFFFFFFFFFFFFFFFFFFFFFFFFFFFFFFF000FFFFFFFFFFFFFFFFFFFFFFFFFFFF
310
FFFFFFFFFFFFFFFFFFFFFFFFFFFFFFFFFFFFFFFFFFFFFFFFFFFFFFFFFFFFFFFF
310
FFFFFFFFFFFFFFFFFFFFFFFFFFFFFFFFFFFFFFFFFFFFFFFFFFFFFFFFFFFFFFFF
310
FFFFFFFFFFFFFFFFF000FFFFFFFFFFFFFFFFFFFFFFFFFFFFFFFFFFFFFFFFFFFF
310
FFFFFFFFFFFFFFFFFFFFFFFFFFFFFFFFFFFFFFFFFFFFFFFFFFFFFFFFFFFFFFFF
310
FFFFFFFFFFFFFFFFFFFFFFFFFFFFFFFFFFFFFFFFFFFFFFFFFFFFFFFFFFFFFFFF
310
F000FFFFFFFFFFFFFFFFFFFFFFFFFFFFFFFFFFFFFFFFFFFFFFFFFFFFFFFFFFFF
310
FFFFFFFFFFFFFFFFFFFFFFFFFFFFFFFFFFFFFFFFFFFFFFFFFFFFFFFFFFFFFFFF
310
FFFFFFFFFFFFFFFFFFFFFFFFFFFFFFFFFFFFFFFFFFFFFFFFF000FFFFFFFFFFFF
310
FFFFFFFFFFFFFFFFFFFFFFFFFFFFFFFFFFFFFFFFFFFFFFFFFFFFFFFFFFFFFFFF
310
FFFFFFFFFFFFFFFFFFFFFFFFFFFFFFFFFFFFFFFFFFFFFFFFFFFFFFFFFFFFFFFF
310
FFFFFFFFFFFFFFFFFFFFFFFFFFFFFFFFF000FFFFFFFFFFFFFFFFFFFFFFFFFFFF
310
FFFFFFFFFFFFFFFFFFFFFFFFFFFFFFFFFFFFFFFFFFFFFFFFFFFFFFFFFFFFFFFF
310
FFFFFFFFFFFFFFFFFFFFFFFFFFFFFFFFFFFFFFFFFFFFFFFFFFFFFFFFFFFFFFFF
310
FFFFFFFFFFFFFFFFF000FFFFFFFFFFFFFFFFFFFFFFFFFFFFFFFFFFFFFFFFFFFF
310
FFFFFFFFFFFFFFFFFFFFFFFFFFFFFFFFFFFFFFFFFFFFFFFFFFFFFFFFFFFFFFFF
310
FFFFFFFFFFFFFFFFFFFFFFFFFFFFFFFFFFFFFFFFFFFFFFFFFFFFFFFFFFFFFFFF
310
F000FFFFFFFFFFFFFFFFFFFFFFFFFFFFFFFFFFFFFFFFFFFFFFFFFFFFFFFFFFFF
310
FFFFFFFFFFFFFFFFFFFFFFFFFFFFFFFFFFFFFFFFFFFFFFFFFFFFFFFFFFFFFFFF
310
FFFFFFFFFFFFFFFFFFFFFFFFFFFFFFFFFFFFFFFFFFFFFFFFF000FFFFFFFFFFFF
310
FFFFFFFFFFFFFFFFFFFFFFFFFFFFFFFFFFFFFFFFFFFFFFFFFFFFFFFFFFFFFFFF
310
FFFFFFFFFFFFFFFFFFFFFFFFFFFFFFFFFFFFFFFFFFFFFFFFFFFFFFFFFFFFFFFF
310
FFFFFFFFFFFFFFFFFFFFFFFFFFFFFFFFF000FFFFFFFFFFFFFFFFFFFFFFFFFFFF
310
FFFFFFFFFFFFFFFFFFFFFFFFFFFFFFFFFFFFFFFFFFFFFFFFFFFFFFFFFFFFFFFF
310
FFFFFFFFFFFFFFFFFFFFFFFFFFFFFFFFFFFFFFFFFFFFFFFFFFFFFFFFFFFFFFFF
310
FFFFFFFFFFFFFFFFF000FFFFFFFFFFFFFFFFFFFFFFFFFFFFFFFFFFFFFFFFFFFF
310
FFFFFFFFFFFFFFFFFFFFFFFFFFFFFFFFFFFFFFFFFFFFFFFFFFFFFFFFFFFFFFFF
310
FFFFFFFFFFFFFFFFFFFFFFFFFFFFFFFFFFFFFFFFFFFFFFFFFFFFFFFFFFFFFFFF
310
F000FFFFFFFFFFFFFFFFFFFFFFFFFFFFFFFFFFFFFFFFFFFFFFFFFFFFFFFFFFFF
310
FFFFFFFFFFFFFFFFFFFFFFFFFFFFFFFFFFFFFFFFFFFFFFFFFFFFFFFFFFFFFFFF
310
FFFFFFFFFFFFFFFFFFFFFFFFFFFFFFFFFFFFFFFFFFFFFFFFF000FFFFFFFFFFFF
310
FFFFFFFFFFFFFFFFFFFFFFFFFFFFFFFFFFFFFFFFFFFFFFFFFFFFFFFFFFFFFFFF
310
FFFFFFFFFFFFFFFFFFFFFFFFFFFFFFFFFFFFFFFFFFFFFFFFFFFFFFFFFFFFFFFF
310
FFFFFFFFFFFFFFFFFFFFFFFFFFFFFFFFF0000000000000000000000000000000
310
0000000000000000000000000000000000000000000000007819406A00000000
310
0000000000000000000000000000000000000000000000000000000000000000
310
0000000000000000000000000000000000000000000000000000000000000000
310
0000000000000000000000000000000000000000000000000000000000000000
310
0000000000000000000000000000000000000000000000000000000000000000
310
0000000000000000000000000000000000000000000000000000000000000000
310
0000000000000000000000000000000000000000000000000000000000000000
310
401A406A00000000000000000000000000000000000000000000000000000000
310
0000000000000000000000000000000000000000000000000000000000000000
310
0000000000000000000000000000000000000000000000000000000000000000
310
0000000000000000000000000000000000000000000000000000000000000000
310
0000000000000000000000000000000000000000000000000000000000000000
310
0000000000000000000000000000000000000000000000000000000000000000
310
0000000000000000081B406A0000000000000000000000000000000000000000
310
0000000000000000000000000000000000000000000000000000000000000000
  1
OLE
  0
ENDSEC
  0
SECTION
  2
OBJECTS
  0
DICTIONARY
  5
C
330
0
100
AcDbDictionary
281
     1
  3
ACAD_GROUP
350
D
  3
ACAD_LAYOUT
350
1A
  3
ACAD_MLEADERSTYLE
350
233
  3
ACAD_MLINESTYLE
350
17
  3
ACAD_PLOTSETTINGS
350
19
  3
ACAD_PLOTSTYLENAME
350
E
  3
ACAD_TABLESTYLE
350
232
  3
ACAD_VISUALSTYLE
350
2A
  3
AcDbVariableDictionary
350
234
  0
DICTIONARY
  5
D
102
{ACAD_REACTORS
330
C
102
}
330
C
100
AcDbDictionary
281
     1
  0
DICTIONARY
  5
1A
102
{ACAD_REACTORS
330
C
102
}
330
C
100
AcDbDictionary
281
     1
  3
Layout1
350
1E
  3
Layout2
350
26
  3
Model
350
22
  0
DICTIONARY
  5
233
102
{ACAD_REACTORS
330
C
102
}
330
C
100
AcDbDictionary
281
     1
  0
DICTIONARY
  5
17
102
{ACAD_REACTORS
330
C
102
}
330
C
100
AcDbDictionary
281
     1
  3
Standard
350
18
  0
DICTIONARY
  5
19
102
{ACAD_REACTORS
330
C
102
}
330
C
100
AcDbDictionary
281
     1
  0
ACDBDICTIONARYWDFLT
  5
E
102
{ACAD_REACTORS
330
C
102
}
330
C
100
AcDbDictionary
281
     1
  3
Normal
350
F
100
AcDbDictionaryWithDefault
340
F
  0
DICTIONARY
  5
232
102
{ACAD_REACTORS
330
C
102
}
330
C
100
AcDbDictionary
281
     1
  0
DICTIONARY
  5
2A
102
{ACAD_REACTORS
330
C
102
}
330
C
100
AcDbDictionary
281
     1
  3
2dWireframe
350
2F
  3
3D Hidden
350
31
  3
3dWireframe
350
30
  3
Basic
350
32
  3
Brighten
350
36
  3
ColorChange
350
3A
  3
Conceptual
350
34
  3
Dim
350
35
  3
Facepattern
350
39
  3
Flat
350
2B
  3
FlatWithEdges
350
2C
  3
Gouraud
350
2D
  3
GouraudWithEdges
350
2E
  3
Linepattern
350
38
  3
Realistic
350
33
  3
Thicken
350
37
  0
DICTIONARY
  5
234
102
{ACAD_REACTORS
330
C
102
}
330
C
100
AcDbDictionary
281
     1
  3
PSOLHEIGHT
350
236
  3
PSOLWIDTH
350
235
  0
LAYOUT
  5
1E
102
{ACAD_REACTORS
330
1A
102
}
330
1A
100
AcDbPlotSettings
  1

  2
none_device
  4

  6

 40
0.0
 41
0.0
 42
0.0
 43
0.0
 44
0.0
 45
0.0
 46
0.0
 47
0.0
 48
0.0
 49
0.0
140
0.0
141
0.0
142
1.0
143
1.0
 70
   688
 72
     0
 73
     0
 74
     5
  7

 75
    16
147
1.0
148
0.0
149
0.0
100
AcDbLayout
  1
Layout1
 70
     1
 71
     1
 10
0.0
 20
0.0
 11
420.0
 21
297.0
 12
0.0
 22
0.0
 32
0.0
 14
1.0000000000E+20
 24
1.0000000000E+20
 34
1.0000000000E+20
 15
-1.0000000000E+20
 25
-1.0000000000E+20
 35
-1.0000000000E+20
146
0.0
 13
0.0
 23
0.0
 33
0.0
 16
1.0
 26
0.0
 36
0.0
 17
0.0
 27
1.0
 37
0.0
 76
     0
330
1B
  0
LAYOUT
  5
26
102
{ACAD_REACTORS
330
1A
102
}
330
1A
100
AcDbPlotSettings
  1

  2
none_device
  4

  6

 40
0.0
 41
0.0
 42
0.0
 43
0.0
 44
0.0
 45
0.0
 46
0.0
 47
0.0
 48
0.0
 49
0.0
140
0.0
141
0.0
142
1.0
143
1.0
 70
   688
 72
     0
 73
     0
 74
     5
  7

 75
    16
147
1.0
148
0.0
149
0.0
100
AcDbLayout
  1
Layout2
 70
     1
 71
     2
 10
0.0
 20
0.0
 11
0.0
 21
0.0
 12
0.0
 22
0.0
 32
0.0
 14
0.0
 24
0.0
 34
0.0
 15
0.0
 25
0.0
 35
0.0
146
0.0
 13
0.0
 23
0.0
 33
0.0
 16
1.0
 26
0.0
 36
0.0
 17
0.0
 27
1.0
 37
0.0
 76
     0
330
23
  0
LAYOUT
  5
22
102
{ACAD_REACTORS
330
1A
102
}
330
1A
100
AcDbPlotSettings
  1

  2
none_device
  4

  6

 40
0.0
 41
0.0
 42
0.0
 43
0.0
 44
0.0
 45
0.0
 46
0.0
 47
0.0
 48
0.0
 49
0.0
140
0.0
141
0.0
142
1.0
143
1.0
 70
  1712
 72
     0
 73
     0
 74
     0
  7

 75
     0
147
1.0
148
0.0
149
0.0
100
AcDbLayout
  1
Model
 70
     1
 71
     0
 10
0.0
 20
0.0
 11
297.0
 21
210.0
 12
0.0
 22
0.0
 32
0.0
 14
0.0
 24
0.0
 34
0.0
 15
297.0
 25
210.0
 35
0.0
146
0.0
 13
0.0
 23
0.0
 33
0.0
 16
1.0
 26
0.0
 36
0.0
 17
0.0
 27
1.0
 37
0.0
 76
     0
330
1F
331
29
  0
MLINESTYLE
  5
18
102
{ACAD_REACTORS
330
17
102
}
330
17
100
AcDbMlineStyle
  2
Standard
 70
     0
  3

 62
   256
 51
90.0
 52
90.0
 71
     2
 49
0.5
 62
   256
  6
BYLAYER
 49
-0.5
 62
   256
  6
BYLAYER
  0
ACDBPLACEHOLDER
  5
F
102
{ACAD_REACTORS
330
E
102
}
330
E
  0
VISUALSTYLE
  5
2F
102
{ACAD_REACTORS
330
2A
102
}
330
2A
100
AcDbVisualStyle
  2
2dWireframe
 70
     4
 71
     0
 72
     2
 73
     0
 90
        0
 40
-0.6
 41
-30.0
 62
     5
 63
     7
 74
     1
 91
        4
 64
     7
 65
   257
 75
     1
175
     1
 42
1.0
 92
        0
 66
   257
 43
1.0
 76
     1
 77
     6
 78
     2
 67
     7
 79
     5
170
     0
171
     0
290
     0
174
     0
 93
        1
 44
0.0
173
     0
291
     0
 45
0.0
1001
ACAD
1000
AcDbSavedByObjectVersion
1070
     0
  0
VISUALSTYLE
  5
31
102
{ACAD_REACTORS
330
2A
102
}
330
2A
100
AcDbVisualStyle
  2
3D Hidden
 70
     6
 71
     1
 72
     2
 73
     2
 90
        0
 40
-0.6
 41
-30.0
 62
     5
 63
     7
 74
     2
 91
        2
 64
     7
 65
   257
 75
     2
175
     1
 42
40.0
 92
        0
 66
   257
 43
1.0
 76
     1
 77
     6
 78
     2
 67
     7
 79
     3
170
     0
171
     0
290
     0
174
     0
 93
        1
 44
0.0
173
     0
291
     0
 45
0.0
1001
ACAD
1000
AcDbSavedByObjectVersion
1070
     0
  0
VISUALSTYLE
  5
30
102
{ACAD_REACTORS
330
2A
102
}
330
2A
100
AcDbVisualStyle
  2
3dWireframe
 70
     5
 71
     0
 72
     2
 73
     0
 90
        0
 40
-0.6
 41
-30.0
 62
     5
 63
     7
 74
     1
 91
        4
 64
     7
 65
   257
 75
     1
175
     1
 42
1.0
 92
        0
 66
   257
 43
1.0
 76
     1
 77
     6
 78
     2
 67
     7
 79
     5
170
     0
171
     0
290
     0
174
     0
 93
        1
 44
0.0
173
     0
291
     0
 45
0.0
1001
ACAD
1000
AcDbSavedByObjectVersion
1070
     0
  0
VISUALSTYLE
  5
32
102
{ACAD_REACTORS
330
2A
102
}
330
2A
100
AcDbVisualStyle
  2
Basic
 70
     7
 71
     1
 72
     0
 73
     1
 90
        0
 40
-0.6
 41
-30.0
 62
     5
 63
     7
 74
     0
 91
        4
 64
     7
 65
   257
 75
     1
175
     1
 42
1.0
 92
        8
 66
     7
 43
1.0
 76
     1
 77
     6
 78
     2
 67
     7
 79
     5
170
     0
171
     0
290
     0
174
     0
 93
        1
 44
0.0
173
     0
291
     1
 45
0.0
1001
ACAD
1000
AcDbSavedByObjectVersion
1070
     0
  0
VISUALSTYLE
  5
36
102
{ACAD_REACTORS
330
2A
102
}
330
2A
100
AcDbVisualStyle
  2
Brighten
 70
    12
 71
     2
 72
     2
 73
     0
 90
        0
 40
-0.6
 41
-30.0
 62
     5
 63
     7
 74
     1
 91
        4
 64
     7
 65
   257
 75
     1
175
     1
 42
1.0
 92
        8
 66
     7
 43
1.0
 76
     1
 77
     6
 78
     2
 67
     7
 79
     5
170
     0
171
     0
290
     0
174
     0
 93
        1
 44
50.0
173
     0
291
     1
 45
0.0
1001
ACAD
1000
AcDbSavedByObjectVersion
1070
     0
  0
VISUALSTYLE
  5
3A
102
{ACAD_REACTORS
330
2A
102
}
330
2A
100
AcDbVisualStyle
  2
ColorChange
 70
    16
 71
     2
 72
     2
 73
     3
 90
        0
 40
-0.6
 41
-30.0
 62
     5
 63
     8
 74
     1
 91
        4
 64
     7
 65
   257
 75
     1
175
     1
 42
1.0
 92
        8
 66
     8
 43
1.0
 76
     1
 77
     6
 78
     2
 67
     7
 79
     5
170
     0
171
     0
290
     0
174
     0
 93
        1
 44
0.0
173
     0
291
     1
 45
0.0
1001
ACAD
1000
AcDbSavedByObjectVersion
1070
     0
  0
VISUALSTYLE
  5
34
102
{ACAD_REACTORS
330
2A
102
}
330
2A
100
AcDbVisualStyle
  2
Conceptual
 70
     9
 71
     3
 72
     2
 73
     0
 90
        0
 40
-0.6
 41
-30.0
 62
     5
 63
     7
 74
     2
 91
        2
 64
     7
 65
   257
 75
     1
175
     1
 42
40.0
 92
        8
 66
     7
 43
1.0
 76
     1
 77
     6
 78
     2
 67
     7
 79
     3
170
     0
171
     0
290
     0
174
     0
 93
        1
 44
0.0
173
     0
291
     0
 45
0.0
1001
ACAD
1000
AcDbSavedByObjectVersion
1070
     0
  0
VISUALSTYLE
  5
35
102
{ACAD_REACTORS
330
2A
102
}
330
2A
100
AcDbVisualStyle
  2
Dim
 70
    11
 71
     2
 72
     2
 73
     0
 90
        0
 40
-0.6
 41
-30.0
 62
     5
 63
     7
 74
     1
 91
        4
 64
     7
 65
   257
 75
     1
175
     1
 42
1.0
 92
        8
 66
     7
 43
1.0
 76
     1
 77
     6
 78
     2
 67
     7
 79
     5
170
     0
171
     0
290
     0
174
     0
 93
        1
 44
-50.0
173
     0
291
     1
 45
0.0
1001
ACAD
1000
AcDbSavedByObjectVersion
1070
     0
  0
VISUALSTYLE
  5
39
102
{ACAD_REACTORS
330
2A
102
}
330
2A
100
AcDbVisualStyle
  2
Facepattern
 70
    15
 71
     2
 72
     2
 73
     0
 90
        0
 40
-0.6
 41
-30.0
 62
     5
 63
     7
 74
     1
 91
        4
 64
     7
 65
   257
 75
     1
175
     1
 42
1.0
 92
        8
 66
     7
 43
1.0
 76
     1
 77
     6
 78
     2
 67
     7
 79
     5
170
     0
171
     0
290
     0
174
     0
 93
        1
 44
0.0
173
     0
291
     1
 45
0.0
1001
ACAD
1000
AcDbSavedByObjectVersion
1070
     0
  0
VISUALSTYLE
  5
2B
102
{ACAD_REACTORS
330
2A
102
}
330
2A
100
AcDbVisualStyle
  2
Flat
 70
     0
 71
     2
 72
     1
 73
     1
 90
        2
 40
-0.6
 41
30.0
 62
     5
 63
     7
 74
     0
 91
        4
 64
     7
 65
   257
 75
     1
175
     1
 42
1.0
 92
        8
 66
     7
 43
1.0
 76
     1
 77
     6
 78
     2
 67
     7
 79
     5
170
     0
171
     0
290
     0
174
     0
 93
       13
 44
0.0
173
     0
291
     1
 45
0.0
1001
ACAD
1000
AcDbSavedByObjectVersion
1070
     0
  0
VISUALSTYLE
  5
2C
102
{ACAD_REACTORS
330
2A
102
}
330
2A
100
AcDbVisualStyle
  2
FlatWithEdges
 70
     1
 71
     2
 72
     1
 73
     1
 90
        2
 40
-0.6
 41
30.0
 62
     5
 63
     7
 74
     1
 91
        4
 64
     7
 65
   257
 75
     1
175
     1
 42
1.0
 92
        0
 66
   257
 43
1.0
 76
     1
 77
     6
 78
     2
 67
     7
 79
     5
170
     0
171
     0
290
     0
174
     0
 93
       13
 44
0.0
173
     0
291
     1
 45
0.0
1001
ACAD
1000
AcDbSavedByObjectVersion
1070
     0
  0
VISUALSTYLE
  5
2D
102
{ACAD_REACTORS
330
2A
102
}
330
2A
100
AcDbVisualStyle
  2
Gouraud
 70
     2
 71
     2
 72
     2
 73
     1
 90
        2
 40
-0.6
 41
30.0
 62
     5
 63
     7
 74
     0
 91
        4
 64
     7
 65
   257
 75
     1
175
     1
 42
1.0
 92
        0
 66
     7
 43
1.0
 76
     1
 77
     6
 78
     2
 67
     7
 79
     5
170
     0
171
     0
290
     0
174
     0
 93
       13
 44
0.0
173
     0
291
     1
 45
0.0
1001
ACAD
1000
AcDbSavedByObjectVersion
1070
     0
  0
VISUALSTYLE
  5
2E
102
{ACAD_REACTORS
330
2A
102
}
330
2A
100
AcDbVisualStyle
  2
GouraudWithEdges
 70
     3
 71
     2
 72
     2
 73
     1
 90
        2
 40
-0.6
 41
30.0
 62
     5
 63
     7
 74
     1
 91
        4
 64
     7
 65
   257
 75
     1
175
     1
 42
1.0
 92
        0
 66
   257
 43
1.0
 76
     1
 77
     6
 78
     2
 67
     7
 79
     5
170
     0
171
     0
290
     0
174
     0
 93
       13
 44
0.0
173
     0
291
     1
 45
0.0
1001
ACAD
1000
AcDbSavedByObjectVersion
1070
     0
  0
VISUALSTYLE
  5
38
102
{ACAD_REACTORS
330
2A
102
}
330
2A
100
AcDbVisualStyle
  2
Linepattern
 70
    14
 71
     2
 72
     2
 73
     0
 90
        0
 40
-0.6
 41
-30.0
 62
     5
 63
     7
 74
     1
 91
        4
 64
     7
 65
   257
 75
     7
175
     7
 42
1.0
 92
        8
 66
     7
 43
1.0
 76
     1
 77
     6
 78
     2
 67
     7
 79
     5
170
     0
171
     0
290
     0
174
     0
 93
        1
 44
0.0
173
     0
291
     1
 45
0.0
1001
ACAD
1000
AcDbSavedByObjectVersion
1070
     0
  0
VISUALSTYLE
  5
33
102
{ACAD_REACTORS
330
2A
102
}
330
2A
100
AcDbVisualStyle
  2
Realistic
 70
     8
 71
     2
 72
     2
 73
     0
 90
        0
 40
-0.6
 41
-30.0
 62
     5
 63
     7
 74
     1
 91
        0
 64
     7
 65
   257
 75
     1
175
     1
 42
1.0
 92
        8
 66
     8
 43
1.0
 76
     1
 77
     6
 78
     2
 67
     7
 79
     5
170
     0
171
     0
290
     0
174
     0
 93
       13
 44
0.0
173
     0
291
     0
 45
0.0
1001
ACAD
1000
AcDbSavedByObjectVersion
1070
     0
  0
VISUALSTYLE
  5
37
102
{ACAD_REACTORS
330
2A
102
}
330
2A
100
AcDbVisualStyle
  2
Thicken
 70
    13
 71
     2
 72
     2
 73
     0
 90
        0
 40
-0.6
 41
-30.0
 62
     5
 63
     7
 74
     1
 91
        4
 64
     7
 65
   257
 75
     1
175
     1
 42
1.0
 92
       12
 66
     7
 43
1.0
 76
     1
 77
     6
 78
     2
 67
     7
 79
     5
170
     0
171
     0
290
     0
174
     0
 93
        1
 44
0.0
173
     0
291
     1
 45
0.0
1001
ACAD
1000
AcDbSavedByObjectVersion
1070
     0
  0
DICTIONARYVAR
  5
236
102
{ACAD_REACTORS
330
234
102
}
330
234
100
DictionaryVariables
280
     0
  1
80.000000
  0
DICTIONARYVAR
  5
235
102
{ACAD_REACTORS
330
234
102
}
330
234
100
DictionaryVariables
280
     0
  1
5.000000
  0
ENDSEC
  0
EOF
