  0
SECTION
  2
HEADER
  9
$ACADVER
  1
AC1015
  9
$ACADMAINTVER
 70
     6
  9
$DWGCODEPAGE
  3
ANSI_1252
  9
$INSBASE
 10
0.0
 20
0.0
 30
0.0
  9
$EXTMIN
 10
0.0
 20
0.0
 30
0.0
  9
$EXTMAX
 10
297.0
 20
210.0
 30
0.0
  9
$LIMMIN
 10
0.0
 20
0.0
  9
$LIMMAX
 10
297.0
 20
210.0
  9
$ORTHOMODE
 70
     0
  9
$REGENMODE
 70
     1
  9
$FILLMODE
 70
     1
  9
$QTEXTMODE
 70
     0
  9
$MIRRTEXT
 70
     1
  9
$LTSCALE
 40
1.0
  9
$ATTMODE
 70
     1
  9
$TEXTSIZE
 40
2.0
  9
$TRACEWID
 40
1.0
  9
$TEXTSTYLE
  7
Standard
  9
$CLAYER
  8
0
  9
$CELTYPE
  6
ByLayer
  9
$CECOLOR
 62
   256
  9
$CELTSCALE
 40
1.0
  9
$DISPSILH
 70
     0
  9
$DIMSCALE
 40
1.0
  9
$DIMASZ
 40
3.0
  9
$DIMEXO
 40
0.0
  9
$DIMDLI
 40
3.75
  9
$DIMRND
 40
0.0
  9
$DIMDLE
 40
0.0
  9
$DIMEXE
 40
1.0
  9
$DIMTP
 40
0.0
  9
$DIMTM
 40
0.0
  9
$DIMTXT
 40
2.0
  9
$DIMCEN
 40
2.5
  9
$DIMTSZ
 40
0.0
  9
$DIMTOL
 70
     0
  9
$DIMLIM
 70
     0
  9
$DIMTIH
 70
     1
  9
$DIMTOH
 70
     1
  9
$DIMSE1
 70
     0
  9
$DIMSE2
 70
     0
  9
$DIMTAD
 70
     1
  9
$DIMZIN
 70
     0
  9
$DIMBLK
  1

  9
$DIMASO
 70
     1
  9
$DIMSHO
 70
     1
  9
$DIMPOST
  1

  9
$DIMAPOST
  1

  9
$DIMALT
 70
     0
  9
$DIMALTD
 70
     3
  9
$DIMALTF
 40
0.0393700787
  9
$DIMLFAC
 40
2.0
  9
$DIMTOFL
 70
     1
  9
$DIMTVP
 40
0.0
  9
$DIMTIX
 70
     0
  9
$DIMSOXD
 70
     0
  9
$DIMSAH
 70
     0
  9
$DIMBLK1
  1

  9
$DIMBLK2
  1

  9
$DIMSTYLE
  2
ISO-25
  9
$DIMCLRD
 70
     0
  9
$DIMCLRE
 70
     0
  9
$DIMCLRT
 70
     0
  9
$DIMTFAC
 40
1.0
  9
$DIMGAP
 40
1.524
  9
$DIMJUST
 70
     0
  9
$DIMSD1
 70
     0
  9
$DIMSD2
 70
     0
  9
$DIMTOLJ
 70
     0
  9
$DIMTZIN
 70
     0
  9
$DIMALTZ
 70
     0
  9
$DIMALTTZ
 70
     0
  9
$DIMUPT
 70
     0
  9
$DIMDEC
 70
     2
  9
$DIMTDEC
 70
     3
  9
$DIMALTU
 70
     2
  9
$DIMALTTD
 70
     3
  9
$DIMTXSTY
  7
Standard
  9
$DIMAUNIT
 70
     0
  9
$DIMADEC
 70
     2
  9
$DIMALTRND
 40
0.0
  9
$DIMAZIN
 70
     0
  9
$DIMDSEP
 70
    44
  9
$DIMATFIT
 70
     3
  9
$DIMFRAC
 70
     0
  9
$DIMLDRBLK
  1

  9
$DIMLUNIT
 70
     2
  9
$DIMLWD
 70
    -2
  9
$DIMLWE
 70
    -2
  9
$DIMTMOVE
 70
     0
  9
$LUNITS
 70
     2
  9
$LUPREC
 70
     2
  9
$SKETCHINC
 40
1.0
  9
$FILLETRAD
 40
10.0
  9
$AUNITS
 70
     0
  9
$AUPREC
 70
     2
  9
$MENU
  1
.
  9
$ELEVATION
 40
0.0
  9
$PELEVATION
 40
0.0
  9
$THICKNESS
 40
0.0
  9
$LIMCHECK
 70
     0
  9
$CHAMFERA
 40
0.0
  9
$CHAMFERB
 40
0.0
  9
$CHAMFERC
 40
0.0
  9
$CHAMFERD
 40
0.0
  9
$SKPOLY
 70
     0
  9
$TDCREATE
 40
2458169.505451366
  9
$TDUCREATE
 40
2458169.463784699
  9
$TDUPDATE
 40
2458169.505453137
  9
$TDUUPDATE
 40
2458169.46378647
  9
$TDINDWG
 40
0.0000000116
  9
$TDUSRTIMER
 40
0.0000000116
  9
$USRTIMER
 70
     1
  9
$ANGBASE
 50
0.0
  9
$ANGDIR
 70
     0
  9
$PDMODE
 70
     0
  9
$PDSIZE
 40
-1.0
  9
$PLINEWID
 40
0.0
  9
$SPLFRAME
 70
     0
  9
$SPLINETYPE
 70
     6
  9
$SPLINESEGS
 70
     8
  9
$HANDSEED
  5
26E
  9
$SURFTAB1
 70
     6
  9
$SURFTAB2
 70
     6
  9
$SURFTYPE
 70
     6
  9
$SURFU
 70
     6
  9
$SURFV
 70
     6
  9
$UCSBASE
  2

  9
$UCSNAME
  2

  9
$UCSORG
 10
0.0
 20
0.0
 30
0.0
  9
$UCSXDIR
 10
1.0
 20
0.0
 30
0.0
  9
$UCSYDIR
 10
0.0
 20
1.0
 30
0.0
  9
$UCSORTHOREF
  2

  9
$UCSORTHOVIEW
 70
     0
  9
$UCSORGTOP
 10
0.0
 20
0.0
 30
0.0
  9
$UCSORGBOTTOM
 10
0.0
 20
0.0
 30
0.0
  9
$UCSORGLEFT
 10
0.0
 20
0.0
 30
0.0
  9
$UCSORGRIGHT
 10
0.0
 20
0.0
 30
0.0
  9
$UCSORGFRONT
 10
0.0
 20
0.0
 30
0.0
  9
$UCSORGBACK
 10
0.0
 20
0.0
 30
0.0
  9
$PUCSBASE
  2

  9
$PUCSNAME
  2

  9
$PUCSORG
 10
0.0
 20
0.0
 30
0.0
  9
$PUCSXDIR
 10
1.0
 20
0.0
 30
0.0
  9
$PUCSYDIR
 10
0.0
 20
1.0
 30
0.0
  9
$PUCSORTHOREF
  2

  9
$PUCSORTHOVIEW
 70
     0
  9
$PUCSORGTOP
 10
0.0
 20
0.0
 30
0.0
  9
$PUCSORGBOTTOM
 10
0.0
 20
0.0
 30
0.0
  9
$PUCSORGLEFT
 10
0.0
 20
0.0
 30
0.0
  9
$PUCSORGRIGHT
 10
0.0
 20
0.0
 30
0.0
  9
$PUCSORGFRONT
 10
0.0
 20
0.0
 30
0.0
  9
$PUCSORGBACK
 10
0.0
 20
0.0
 30
0.0
  9
$USERI1
 70
     0
  9
$USERI2
 70
     0
  9
$USERI3
 70
     0
  9
$USERI4
 70
     0
  9
$USERI5
 70
     0
  9
$USERR1
 40
0.0
  9
$USERR2
 40
0.0
  9
$USERR3
 40
0.0
  9
$USERR4
 40
0.0
  9
$USERR5
 40
0.0
  9
$WORLDVIEW
 70
     1
  9
$SHADEDGE
 70
     3
  9
$SHADEDIF
 70
    70
  9
$TILEMODE
 70
     1
  9
$MAXACTVP
 70
    64
  9
$PINSBASE
 10
0.0
 20
0.0
 30
0.0
  9
$PLIMCHECK
 70
     0
  9
$PEXTMIN
 10
1.0000000000E+20
 20
1.0000000000E+20
 30
1.0000000000E+20
  9
$PEXTMAX
 10
-1.0000000000E+20
 20
-1.0000000000E+20
 30
-1.0000000000E+20
  9
$PLIMMIN
 10
0.0
 20
0.0
  9
$PLIMMAX
 10
420.0
 20
297.0
  9
$UNITMODE
 70
     0
  9
$VISRETAIN
 70
     1
  9
$PLINEGEN
 70
     0
  9
$PSLTSCALE
 70
     1
  9
$TREEDEPTH
 70
  3020
  9
$CMLSTYLE
  2
Standard
  9
$CMLJUST
 70
     0
  9
$CMLSCALE
 40
20.0
  9
$PROXYGRAPHICS
 70
     1
  9
$MEASUREMENT
 70
     1
  9
$CELWEIGHT
370
    -1
  9
$ENDCAPS
280
     0
  9
$JOINSTYLE
280
     0
  9
$LWDISPLAY
290
     1
  9
$INSUNITS
 70
     4
  9
$HYPERLINKBASE
  1

  9
$STYLESHEET
  1

  9
$XEDIT
290
     1
  9
$CEPSNTYPE
380
     0
  9
$PSTYLEMODE
290
     1
  9
$FINGERPRINTGUID
  2
{CE8DBAAE-DBC1-4C68-AF52-69EDFF79126B}
  9
$VERSIONGUID
  2
{FAEB1C32-E019-11D5-929B-00C0DF256EC4}
  9
$EXTNAMES
290
     1
  9
$PSVPSCALE
 40
0.0
  9
$OLESTARTUP
290
     0
  0
ENDSEC
  0
SECTION
  2
CLASSES
  0
CLASS
  1
ACDBDICTIONARYWDFLT
  2
AcDbDictionaryWithDefault
  3
ObjectDBX Classes
 90
        0
280
     0
281
     0
  0
CLASS
  1
VISUALSTYLE
  2
AcDbVisualStyle
  3
ObjectDBX Classes
 90
     4095
280
     0
281
     0
  0
CLASS
  1
MATERIAL
  2
AcDbMaterial
  3
ObjectDBX Classes
 90
     1153
280
     0
281
     0
  0
CLASS
  1
SCALE
  2
AcDbScale
  3
ObjectDBX Classes
 90
     1153
280
     0
281
     0
  0
CLASS
  1
TABLESTYLE
  2
AcDbTableStyle
  3
ObjectDBX Classes
 90
     4095
280
     0
281
     0
  0
CLASS
  1
MLEADERSTYLE
  2
AcDbMLeaderStyle
  3
ACDB_MLEADERSTYLE_CLASS
 90
     4095
280
     0
281
     0
  0
CLASS
  1
SUN
  2
AcDbSun
  3
SCENEOE
 90
     1153
280
     0
281
     0
  0
CLASS
  1
ACDBPLACEHOLDER
  2
AcDbPlaceHolder
  3
ObjectDBX Classes
 90
        0
280
     0
281
     0
  0
CLASS
  1
LAYOUT
  2
AcDbLayout
  3
ObjectDBX Classes
 90
        0
280
     0
281
     0
  0
ENDSEC
  0
SECTION
  2
TABLES
  0
TABLE
  2
VPORT
  5
8
330
0
100
AcDbSymbolTable
 70
     1
  0
VPORT
  5
29
330
8
100
AcDbSymbolTableRecord
100
AcDbViewportTableRecord
  2
*Active
 70
     0
 10
0.0
 20
0.0
 11
1.0
 21
1.0
 12
148.5
 22
105.0
 13
0.0
 23
0.0
 14
10.0
 24
10.0
 15
10.0
 25
10.0
 16
0.0
 26
0.0
 36
1.0
 17
0.0
 27
0.0
 37
0.0
 40
210.0
 41
1.4142857143
 42
50.0
 43
0.0
 44
0.0
 50
0.0
 51
0.0
 71
     0
 72
  2000
 73
     1
 74
     3
 75
     0
 76
     0
 77
     0
 78
     0
281
     0
 65
     1
110
0.0
120
0.0
130
0.0
111
1.0
121
0.0
131
0.0
112
0.0
122
1.0
132
0.0
 79
     0
146
0.0
  0
ENDTAB
  0
TABLE
  2
LTYPE
  5
5
330
0
100
AcDbSymbolTable
 70
     6
  0
LTYPE
  5
14
330
5
100
AcDbSymbolTableRecord
100
AcDbLinetypeTableRecord
  2
ByBlock
 70
     0
  3

 72
    65
 73
     0
 40
0.0
  0
LTYPE
  5
15
330
5
100
AcDbSymbolTableRecord
100
AcDbLinetypeTableRecord
  2
ByLayer
 70
     0
  3

 72
    65
 73
     0
 40
0.0
  0
LTYPE
  5
16
330
5
100
AcDbSymbolTableRecord
100
AcDbLinetypeTableRecord
  2
Continuous
 70
     0
  3
Solid line
 72
    65
 73
     0
 40
0.0
  0
LTYPE
  5
6E
330
5
100
AcDbSymbolTableRecord
100
AcDbLinetypeTableRecord
  2
HIDDEN
 70
     0
  3
Hidden __ __ __ __ __ __ __ __ __ __ __ __ __ __
 72
    65
 73
     2
 40
1.905
 49
1.27
 74
     0
 49
-0.635
 74
     0
  0
LTYPE
  5
6F
330
5
100
AcDbSymbolTableRecord
100
AcDbLinetypeTableRecord
  2
PHANTOM
 70
     0
  3
Phantom ______  __  __  ______  __  __  ______
 72
    65
 73
     6
 40
12.7
 49
6.35
 74
     0
 49
-1.27
 74
     0
 49
1.27
 74
     0
 49
-1.27
 74
     0
 49
1.27
 74
     0
 49
-1.27
 74
     0
  0
LTYPE
  5
70
330
5
100
AcDbSymbolTableRecord
100
AcDbLinetypeTableRecord
  2
CENTER
 70
     0
  3
Center ____ _ ____ _ ____ _ ____ _ ____ _ ____
 72
    65
 73
     4
 40
10.16
 49
6.35
 74
     0
 49
-1.27
 74
     0
 49
1.27
 74
     0
 49
-1.27
 74
     0
  0
LTYPE
  5
71
330
5
100
AcDbSymbolTableRecord
100
AcDbLinetypeTableRecord
  2
CENTERX2
 70
     0
  3
Center (2x) ________  __  ________  __  _____
 72
    65
 73
     4
 40
20.32
 49
12.7
 74
     0
 49
-2.54
 74
     0
 49
2.54
 74
     0
 49
-2.54
 74
     0
  0
LTYPE
  5
72
330
5
100
AcDbSymbolTableRecord
100
AcDbLinetypeTableRecord
  2
DOT2
 70
     0
  3
Dot (.5x) ........................................
 72
    65
 73
     2
 40
0.635
 49
0.0
 74
     0
 49
-0.635
 74
     0
  0
ENDTAB
  0
TABLE
  2
LAYER
  5
2
330
0
100
AcDbSymbolTable
 70
     5
  0
LAYER
  5
10
330
2
100
AcDbSymbolTableRecord
100
AcDbLayerTableRecord
  2
0
 70
     0
 62
     7
  6
Continuous
370
    -3
390
F
  0
LAYER
  5
73
330
2
100
AcDbSymbolTableRecord
100
AcDbLayerTableRecord
  2
FORMAT
 70
     0
 62
     7
  6
Continuous
370
    -3
390
F
  0
LAYER
  5
74
330
2
100
AcDbSymbolTableRecord
100
AcDbLayerTableRecord
  2
VERMASSUNG
 70
     0
 62
     7
  6
Continuous
370
    -3
390
F
  0
LAYER
  5
75
330
2
100
AcDbSymbolTableRecord
100
AcDbLayerTableRecord
  2
KOPF_DÜNN
 70
     0
 62
     7
  6
Continuous
370
    -3
390
F
  0
LAYER
  5
76
330
2
100
AcDbSymbolTableRecord
100
AcDbLayerTableRecord
  2
KOPF_DICK
 70
     0
 62
     7
  6
Continuous
370
    25
390
F
  0
ENDTAB
  0
TABLE
  2
STYLE
  5
3
330
0
100
AcDbSymbolTable
 70
     2
  0
STYLE
  5
11
330
3
100
AcDbSymbolTableRecord
100
AcDbTextStyleTableRecord
  2
Standard
 70
     0
 40
0.0
 41
1.0
 50
0.0
 71
     0
 42
2.0
  3
txt
  4

  0
STYLE
  5
77
330
3
100
AcDbSymbolTableRecord
100
AcDbTextStyleTableRecord
  2
SLDTEXTSTYLE0
 70
     0
 40
0.0
 41
0.7
 50
0.0
 71
     0
 42
2.0
  3
TXT
  4

  0
ENDTAB
  0
TABLE
  2
VIEW
  5
6
330
0
100
AcDbSymbolTable
 70
     0
  0
ENDTAB
  0
TABLE
  2
UCS
  5
7
330
0
100
AcDbSymbolTable
 70
     0
  0
ENDTAB
  0
TABLE
  2
APPID
  5
9
330
0
100
AcDbSymbolTable
 70
     1
  0
APPID
  5
12
330
9
100
AcDbSymbolTableRecord
100
AcDbRegAppTableRecord
  2
ACAD
 70
     0
  0
ENDTAB
  0
TABLE
  2
DIMSTYLE
  5
A
330
0
100
AcDbSymbolTable
 70
     4
100
AcDbDimStyleTable
  0
DIMSTYLE
105
27
330
A
100
AcDbSymbolTableRecord
100
AcDbDimStyleTableRecord
  2
ISO-25
 70
     0
 41
2.5
 42
0.625
 43
3.75
 44
1.25
 73
     0
 74
     0
 77
     1
 78
     8
140
2.5
141
2.5
143
0.0393700787
147
0.625
171
     3
172
     1
178
     0
271
     2
272
     2
274
     3
278
    44
283
     0
284
     8
340
11
  0
DIMSTYLE
105
114
102
{ACAD_REACTORS
330
113
330
11F
330
12A
330
134
330
13E
330
148
102
}
330
A
100
AcDbSymbolTableRecord
100
AcDbDimStyleTableRecord
  2
SLDDIMSTYLE0
 70
     0
 41
3.0
 44
0.0
 45
0.000000001
 73
     0
 74
     0
 77
     1
 78
    12
 79
     3
140
2.0
147
0.5
173
     1
178
     0
271
     2
272
     3
276
     2
284
    12
340
77
  0
DIMSTYLE
105
153
102
{ACAD_REACTORS
330
152
102
}
330
A
100
AcDbSymbolTableRecord
100
AcDbDimStyleTableRecord
  2
SLDDIMSTYLE1
 70
     0
 41
3.0
 44
0.0
 45
0.000000001
 73
     0
 74
     0
 77
     1
 78
    12
 79
     3
140
2.0
147
0.5
173
     1
178
     0
271
     1
272
     3
276
     2
284
    12
340
77
  0
DIMSTYLE
105
161
102
{ACAD_REACTORS
330
160
102
}
330
A
100
AcDbSymbolTableRecord
100
AcDbDimStyleTableRecord
  2
SLDDIMSTYLE2
 70
     0
 41
3.0
 44
0.0
 45
0.000000001
 73
     0
 74
     0
 77
     1
 78
    12
 79
     3
140
2.0
147
0.5
172
     1
173
     1
178
     0
271
     0
272
     3
276
     2
284
    12
289
     0
340
77
  0
ENDTAB
  0
TABLE
  2
BLOCK_RECORD
  5
1
330
0
100
AcDbSymbolTable
 70
     9
  0
BLOCK_RECORD
  5
1F
330
1
100
AcDbSymbolTableRecord
100
AcDbBlockTableRecord
  2
*Model_Space
340
22
  0
BLOCK_RECORD
  5
1B
330
1
100
AcDbSymbolTableRecord
100
AcDbBlockTableRecord
  2
*Paper_Space
340
1E
  0
BLOCK_RECORD
  5
23
330
1
100
AcDbSymbolTableRecord
100
AcDbBlockTableRecord
  2
*Paper_Space0
340
26
  0
BLOCK_RECORD
  5
115
330
1
100
AcDbSymbolTableRecord
100
AcDbBlockTableRecord
  2
_D
340
0
  0
BLOCK_RECORD
  5
120
330
1
100
AcDbSymbolTableRecord
100
AcDbBlockTableRecord
  2
_D_1
340
0
  0
BLOCK_RECORD
  5
12B
330
1
100
AcDbSymbolTableRecord
100
AcDbBlockTableRecord
  2
_D_2
340
0
  0
BLOCK_RECORD
  5
135
330
1
100
AcDbSymbolTableRecord
100
AcDbBlockTableRecord
  2
_D_3
340
0
  0
BLOCK_RECORD
  5
13F
330
1
100
AcDbSymbolTableRecord
100
AcDbBlockTableRecord
  2
_D_4
340
0
  0
BLOCK_RECORD
  5
149
330
1
100
AcDbSymbolTableRecord
100
AcDbBlockTableRecord
  2
_D_5
340
0
  0
BLOCK_RECORD
  5
154
330
1
100
AcDbSymbolTableRecord
100
AcDbBlockTableRecord
  2
_D_6
340
0
  0
BLOCK_RECORD
  5
162
330
1
100
AcDbSymbolTableRecord
100
AcDbBlockTableRecord
  2
_D_7
340
0
  0
ENDTAB
  0
ENDSEC
  0
SECTION
  2
BLOCKS
  0
BLOCK
  5
20
330
1F
100
AcDbEntity
  8
0
100
AcDbBlockBegin
  2
*Model_Space
 70
     0
 10
0.0
 20
0.0
 30
0.0
  3
*Model_Space
  1

  0
ENDBLK
  5
21
330
1F
100
AcDbEntity
  8
0
100
AcDbBlockEnd
  0
BLOCK
  5
1C
330
1B
100
AcDbEntity
 67
     1
  8
0
100
AcDbBlockBegin
  2
*Paper_Space
 70
     0
 10
0.0
 20
0.0
 30
0.0
  3
*Paper_Space
  1

  0
ENDBLK
  5
1D
330
1B
100
AcDbEntity
 67
     1
  8
0
100
AcDbBlockEnd
  0
BLOCK
  5
24
330
23
100
AcDbEntity
  8
0
100
AcDbBlockBegin
  2
*Paper_Space0
 70
     0
 10
0.0
 20
0.0
 30
0.0
  3
*Paper_Space0
  1

  0
ENDBLK
  5
25
330
23
100
AcDbEntity
  8
0
100
AcDbBlockEnd
  0
BLOCK
  5
116
330
115
100
AcDbEntity
  8
0
100
AcDbBlockBegin
  2
_D
 70
     0
 10
0.0
 20
0.0
 30
0.0
  3
_D
  1

  0
SOLID
  5
118
330
115
100
AcDbEntity
  8
VERMASSUNG
100
AcDbTrace
 10
212.1700756779
 20
112.8565074336
 30
0.0
 11
212.6200756779
 21
115.8565074336
 31
0.0
 12
211.7200756779
 22
115.8565074336
 32
0.0
 13
211.7200756779
 23
115.8565074336
 33
0.0
  0
SOLID
  5
119
330
115
100
AcDbEntity
  8
VERMASSUNG
100
AcDbTrace
 10
212.1700756779
 20
128.8565074336
 30
0.0
 11
211.7200756779
 21
125.8565074336
 31
0.0
 12
212.6200756779
 22
125.8565074336
 32
0.0
 13
212.6200756779
 23
125.8565074336
 33
0.0
  0
LINE
  5
11A
330
115
100
AcDbEntity
  8
VERMASSUNG
100
AcDbLine
 10
181.1630437148
 20
112.8565074336
 30
0.0
 11
213.1700756779
 21
112.8565074336
 31
0.0
  0
LINE
  5
11B
330
115
100
AcDbEntity
  8
VERMASSUNG
100
AcDbLine
 10
181.1630437148
 20
128.8565074336
 30
0.0
 11
213.1700756779
 21
128.8565074336
 31
0.0
  0
LINE
  5
11C
330
115
100
AcDbEntity
  8
VERMASSUNG
100
AcDbLine
 10
212.1700756779
 20
112.8565074336
 30
0.0
 11
212.1700756779
 21
128.8565074336
 31
0.0
  0
MTEXT
  5
11D
330
115
100
AcDbEntity
  8
VERMASSUNG
100
AcDbMText
 10
209.591940373
 20
117.8515073695
 30
0.0
 40
2.0
 41
0.0
 71
     1
 72
     1
  1
%%c
  7
SLDTEXTSTYLE0
 11
6.123233995736766E-17
 21
1.0
 31
0.0
 73
     1
 44
1.0
  0
MTEXT
  5
11E
330
115
100
AcDbEntity
  8
VERMASSUNG
100
AcDbMText
 10
209.3919404217
 20
121.4615073838
 30
0.0
 40
2.0
 41
0.0
 71
     1
 72
     1
  1
16
  7
SLDTEXTSTYLE0
 11
6.123233995736766E-17
 21
1.0
 31
0.0
 73
     1
 44
1.0
  0
ENDBLK
  5
117
330
115
100
AcDbEntity
  8
0
100
AcDbBlockEnd
  0
BLOCK
  5
121
330
120
100
AcDbEntity
  8
0
100
AcDbBlockBegin
  2
_D_1
 70
     0
 10
0.0
 20
0.0
 30
0.0
  3
_D_1
  1

  0
SOLID
  5
123
330
120
100
AcDbEntity
  8
VERMASSUNG
100
AcDbTrace
 10
223.508448867
 20
139.8565074336
 30
0.0
 11
223.058448867
 21
136.8565074336
 31
0.0
 12
223.958448867
 22
136.8565074336
 32
0.0
 13
223.958448867
 23
136.8565074336
 33
0.0
  0
SOLID
  5
124
330
120
100
AcDbEntity
  8
VERMASSUNG
100
AcDbTrace
 10
223.508448867
 20
101.8565074336
 30
0.0
 11
223.958448867
 21
104.8565074336
 31
0.0
 12
223.058448867
 22
104.8565074336
 32
0.0
 13
223.058448867
 23
104.8565074336
 33
0.0
  0
LINE
  5
125
330
120
100
AcDbEntity
  8
VERMASSUNG
100
AcDbLine
 10
164.1630437148
 20
139.8565074336
 30
0.0
 11
224.508448867
 21
139.8565074336
 31
0.0
  0
LINE
  5
126
330
120
100
AcDbEntity
  8
VERMASSUNG
100
AcDbLine
 10
164.1630437148
 20
101.8565074336
 30
0.0
 11
224.508448867
 21
101.8565074336
 31
0.0
  0
LINE
  5
127
330
120
100
AcDbEntity
  8
VERMASSUNG
100
AcDbLine
 10
223.508448867
 20
139.8565074336
 30
0.0
 11
223.508448867
 21
101.8565074336
 31
0.0
  0
MTEXT
  5
128
330
120
100
AcDbEntity
  8
VERMASSUNG
100
AcDbMText
 10
220.9303135621
 20
117.6515074764
 30
0.0
 40
2.0
 41
0.0
 71
     1
 72
     1
  1
%%c
  7
SLDTEXTSTYLE0
 11
-7.044195017643634E-15
 21
1.0
 31
0.0
 73
     1
 44
1.0
  0
MTEXT
  5
129
330
120
100
AcDbEntity
  8
VERMASSUNG
100
AcDbMText
 10
220.7303136108
 20
121.2615074907
 30
0.0
 40
2.0
 41
0.0
 71
     1
 72
     1
  1
38
  7
SLDTEXTSTYLE0
 11
-7.044195017643634E-15
 21
1.0
 31
0.0
 73
     1
 44
1.0
  0
ENDBLK
  5
122
330
120
100
AcDbEntity
  8
0
100
AcDbBlockEnd
  0
BLOCK
  5
12C
330
12B
100
AcDbEntity
  8
0
100
AcDbBlockBegin
  2
_D_2
 70
     0
 10
0.0
 20
0.0
 30
0.0
  3
_D_2
  1

  0
SOLID
  5
12E
330
12B
100
AcDbEntity
  8
VERMASSUNG
100
AcDbTrace
 10
154.7630437148
 20
157.5481947341
 30
0.0
 11
157.7630437148
 21
157.0981947341
 31
0.0
 12
157.7630437148
 22
157.9981947341
 32
0.0
 13
157.7630437148
 23
157.9981947341
 33
0.0
  0
SOLID
  5
12F
330
12B
100
AcDbEntity
  8
VERMASSUNG
100
AcDbTrace
 10
164.7630437148
 20
157.5481947341
 30
0.0
 11
161.7630437148
 21
157.9981947341
 31
0.0
 12
161.7630437148
 22
157.0981947341
 32
0.0
 13
161.7630437148
 23
157.0981947341
 33
0.0
  0
LINE
  5
130
330
12B
100
AcDbEntity
  8
VERMASSUNG
100
AcDbLine
 10
154.7630437148
 20
152.3315074336
 30
0.0
 11
154.7630437148
 21
158.5481947341
 31
0.0
  0
LINE
  5
131
330
12B
100
AcDbEntity
  8
VERMASSUNG
100
AcDbLine
 10
164.7630437148
 20
139.2565074336
 30
0.0
 11
164.7630437148
 21
158.5481947341
 31
0.0
  0
LINE
  5
132
330
12B
100
AcDbEntity
  8
VERMASSUNG
100
AcDbLine
 10
154.7630437148
 20
157.5481947341
 30
0.0
 11
164.7630437148
 21
157.5481947341
 31
0.0
  0
MTEXT
  5
133
330
12B
100
AcDbEntity
  8
VERMASSUNG
100
AcDbMText
 10
158.5630436578
 20
160.12633033
 30
0.0
 40
2.0
 41
0.0
 71
     1
 72
     1
  1
10
  7
SLDTEXTSTYLE0
 73
     1
 44
1.0
  0
ENDBLK
  5
12D
330
12B
100
AcDbEntity
  8
0
100
AcDbBlockEnd
  0
BLOCK
  5
136
330
135
100
AcDbEntity
  8
0
100
AcDbBlockBegin
  2
_D_3
 70
     0
 10
0.0
 20
0.0
 30
0.0
  3
_D_3
  1

  0
SOLID
  5
138
330
135
100
AcDbEntity
  8
VERMASSUNG
100
AcDbTrace
 10
136.7630437148
 20
164.2892975507
 30
0.0
 11
139.7630437148
 21
163.8392975507
 31
0.0
 12
139.7630437148
 22
164.7392975507
 32
0.0
 13
139.7630437148
 23
164.7392975507
 33
0.0
  0
SOLID
  5
139
330
135
100
AcDbEntity
  8
VERMASSUNG
100
AcDbTrace
 10
164.7630437148
 20
164.2892975507
 30
0.0
 11
161.7630437148
 21
164.7392975507
 31
0.0
 12
161.7630437148
 22
163.8392975507
 32
0.0
 13
161.7630437148
 23
163.8392975507
 33
0.0
  0
LINE
  5
13A
330
135
100
AcDbEntity
  8
VERMASSUNG
100
AcDbLine
 10
136.7630437148
 20
152.1315074336
 30
0.0
 11
136.7630437148
 21
165.2892975507
 31
0.0
  0
LINE
  5
13B
330
135
100
AcDbEntity
  8
VERMASSUNG
100
AcDbLine
 10
164.7630437148
 20
139.2565074336
 30
0.0
 11
164.7630437148
 21
165.2892975507
 31
0.0
  0
LINE
  5
13C
330
135
100
AcDbEntity
  8
VERMASSUNG
100
AcDbLine
 10
136.7630437148
 20
164.2892975507
 30
0.0
 11
164.7630437148
 21
164.2892975507
 31
0.0
  0
MTEXT
  5
13D
330
135
100
AcDbEntity
  8
VERMASSUNG
100
AcDbMText
 10
149.3630437647
 20
166.8674331467
 30
0.0
 40
2.0
 41
0.0
 71
     1
 72
     1
  1
28
  7
SLDTEXTSTYLE0
 73
     1
 44
1.0
  0
ENDBLK
  5
137
330
135
100
AcDbEntity
  8
0
100
AcDbBlockEnd
  0
BLOCK
  5
140
330
13F
100
AcDbEntity
  8
0
100
AcDbBlockBegin
  2
_D_4
 70
     0
 10
0.0
 20
0.0
 30
0.0
  3
_D_4
  1

  0
SOLID
  5
142
330
13F
100
AcDbEntity
  8
VERMASSUNG
100
AcDbTrace
 10
164.7630437148
 20
157.5481947341
 30
0.0
 11
167.7630437148
 21
157.0981947341
 31
0.0
 12
167.7630437148
 22
157.9981947341
 32
0.0
 13
167.7630437148
 23
157.9981947341
 33
0.0
  0
SOLID
  5
143
330
13F
100
AcDbEntity
  8
VERMASSUNG
100
AcDbTrace
 10
181.7630437148
 20
157.5481947341
 30
0.0
 11
178.7630437148
 21
157.9981947341
 31
0.0
 12
178.7630437148
 22
157.0981947341
 32
0.0
 13
178.7630437148
 23
157.0981947341
 33
0.0
  0
LINE
  5
144
330
13F
100
AcDbEntity
  8
VERMASSUNG
100
AcDbLine
 10
164.7630437148
 20
139.2565074336
 30
0.0
 11
164.7630437148
 21
158.5481947341
 31
0.0
  0
LINE
  5
145
330
13F
100
AcDbEntity
  8
VERMASSUNG
100
AcDbLine
 10
181.7630437148
 20
128.2565074336
 30
0.0
 11
181.7630437148
 21
158.5481947341
 31
0.0
  0
LINE
  5
146
330
13F
100
AcDbEntity
  8
VERMASSUNG
100
AcDbLine
 10
164.7630437148
 20
157.5481947341
 30
0.0
 11
181.7630437148
 21
157.5481947341
 31
0.0
  0
MTEXT
  5
147
330
13F
100
AcDbEntity
  8
VERMASSUNG
100
AcDbMText
 10
172.0630436578
 20
160.12633033
 30
0.0
 40
2.0
 41
0.0
 71
     1
 72
     1
  1
17
  7
SLDTEXTSTYLE0
 73
     1
 44
1.0
  0
ENDBLK
  5
141
330
13F
100
AcDbEntity
  8
0
100
AcDbBlockEnd
  0
BLOCK
  5
14A
330
149
100
AcDbEntity
  8
0
100
AcDbBlockBegin
  2
_D_5
 70
     0
 10
0.0
 20
0.0
 30
0.0
  3
_D_5
  1

  0
SOLID
  5
14C
330
149
100
AcDbEntity
  8
VERMASSUNG
100
AcDbTrace
 10
96.8130437148
 20
172.0674931083
 30
0.0
 11
99.8130437148
 21
171.6174931083
 31
0.0
 12
99.8130437148
 22
172.5174931083
 32
0.0
 13
99.8130437148
 23
172.5174931083
 33
0.0
  0
SOLID
  5
14D
330
149
100
AcDbEntity
  8
VERMASSUNG
100
AcDbTrace
 10
181.7630437148
 20
172.0674931083
 30
0.0
 11
178.7630437148
 21
172.5174931083
 31
0.0
 12
178.7630437148
 22
171.6174931083
 32
0.0
 13
178.7630437148
 23
171.6174931083
 33
0.0
  0
LINE
  5
14E
330
149
100
AcDbEntity
  8
VERMASSUNG
100
AcDbLine
 10
96.8130437148
 20
141.1187331704
 30
0.0
 11
96.8130437148
 21
173.0674931083
 31
0.0
  0
LINE
  5
14F
330
149
100
AcDbEntity
  8
VERMASSUNG
100
AcDbLine
 10
181.7630437148
 20
125.7065074336
 30
0.0
 11
181.7630437148
 21
173.0674931083
 31
0.0
  0
LINE
  5
150
330
149
100
AcDbEntity
  8
VERMASSUNG
100
AcDbLine
 10
96.8130437148
 20
172.0674931083
 30
0.0
 11
181.7630437148
 21
172.0674931083
 31
0.0
  0
MTEXT
  5
151
330
149
100
AcDbEntity
  8
VERMASSUNG
100
AcDbMText
 10
136.0880437956
 20
174.6456287043
 30
0.0
 40
2.0
 41
0.0
 71
     1
 72
     1
  1
84.95
  7
SLDTEXTSTYLE0
 73
     1
 44
1.0
  0
ENDBLK
  5
14B
330
149
100
AcDbEntity
  8
0
100
AcDbBlockEnd
  0
BLOCK
  5
155
330
154
100
AcDbEntity
  8
0
100
AcDbBlockBegin
  2
_D_6
 70
     0
 10
0.0
 20
0.0
 30
0.0
  3
_D_6
  1

  0
SOLID
  5
157
330
154
100
AcDbEntity
  8
VERMASSUNG
100
AcDbTrace
 10
89.376989983
 20
89.3815074336
 30
0.0
 11
89.826989983
 21
92.3815074336
 31
0.0
 12
88.926989983
 22
92.3815074336
 32
0.0
 13
88.926989983
 23
92.3815074336
 33
0.0
  0
SOLID
  5
158
330
154
100
AcDbEntity
  8
VERMASSUNG
100
AcDbTrace
 10
89.376989983
 20
152.3315074336
 30
0.0
 11
88.926989983
 21
149.3315074336
 31
0.0
 12
89.826989983
 22
149.3315074336
 32
0.0
 13
89.826989983
 23
149.3315074336
 33
0.0
  0
LINE
  5
159
330
154
100
AcDbEntity
  8
VERMASSUNG
100
AcDbLine
 10
136.9630437148
 20
89.3815074336
 30
0.0
 11
88.376989983
 21
89.3815074336
 31
0.0
  0
LINE
  5
15A
330
154
100
AcDbEntity
  8
VERMASSUNG
100
AcDbLine
 10
136.9630437148
 20
152.3315074336
 30
0.0
 11
88.376989983
 21
152.3315074336
 31
0.0
  0
LINE
  5
15B
330
154
100
AcDbEntity
  8
VERMASSUNG
100
AcDbLine
 10
89.376989983
 20
89.3815074336
 30
0.0
 11
89.376989983
 21
152.3315074336
 31
0.0
  0
MTEXT
  5
15C
330
154
100
AcDbEntity
  8
VERMASSUNG
100
AcDbMText
 10
86.5988547268
 20
112.7515088153
 30
0.0
 40
2.0
 41
0.0
 71
     1
 72
     1
  1
KM
  7
SLDTEXTSTYLE0
 11
6.123233995736766E-17
 21
1.0
 31
0.0
 73
     1
 44
1.0
  0
MTEXT
  5
15D
330
154
100
AcDbEntity
  8
VERMASSUNG
100
AcDbMText
 10
86.7988546781
 20
116.1515086275
 30
0.0
 40
2.0
 41
0.0
 71
     1
 72
     1
  1
%%c
  7
SLDTEXTSTYLE0
 11
6.123233995736766E-17
 21
1.0
 31
0.0
 73
     1
 44
1.0
  0
MTEXT
  5
15E
330
154
100
AcDbEntity
  8
VERMASSUNG
100
AcDbMText
 10
86.5988547268
 20
119.7615086418
 30
0.0
 40
2.0
 41
0.0
 71
     1
 72
     1
  1
63
  7
SLDTEXTSTYLE0
 11
6.123233995736766E-17
 21
1.0
 31
0.0
 73
     1
 44
1.0
  0
MTEXT
  5
15F
330
154
100
AcDbEntity
  8
VERMASSUNG
100
AcDbMText
 10
86.5988547268
 20
123.749008542
 30
0.0
 40
2.0
 41
0.0
 71
     1
 72
     1
  1
XMZ
  7
SLDTEXTSTYLE0
 11
6.123233995736766E-17
 21
1.0
 31
0.0
 73
     1
 44
1.0
  0
ENDBLK
  5
156
330
154
100
AcDbEntity
  8
0
100
AcDbBlockEnd
  0
BLOCK
  5
163
330
162
100
AcDbEntity
  8
0
100
AcDbBlockBegin
  2
_D_7
 70
     0
 10
0.0
 20
0.0
 30
0.0
  3
_D_7
  1

  0
SOLID
  5
165
330
162
100
AcDbEntity
  8
VERMASSUNG
100
AcDbTrace
 10
202.0853000677
 20
123.9040074336
 30
0.0
 11
202.5353000677
 21
126.9040074336
 31
0.0
 12
201.6353000677
 22
126.9040074336
 32
0.0
 13
201.6353000677
 23
126.9040074336
 33
0.0
  0
SOLID
  5
166
330
162
100
AcDbEntity
  8
VERMASSUNG
100
AcDbTrace
 10
202.0853000677
 20
117.8090074336
 30
0.0
 11
201.6353000677
 21
114.8090074336
 31
0.0
 12
202.5353000677
 22
114.8090074336
 32
0.0
 13
202.5353000677
 23
114.8090074336
 33
0.0
  0
LINE
  5
167
330
162
100
AcDbEntity
  8
VERMASSUNG
100
AcDbLine
 10
192.7630437148
 20
123.9040074336
 30
0.0
 11
203.0853000677
 21
123.9040074336
 31
0.0
  0
LINE
  5
168
330
162
100
AcDbEntity
  8
VERMASSUNG
100
AcDbLine
 10
192.7630437148
 20
117.8090074336
 30
0.0
 11
203.0853000677
 21
117.8090074336
 31
0.0
  0
LINE
  5
169
330
162
100
AcDbEntity
  8
VERMASSUNG
100
AcDbLine
 10
202.0853000677
 20
123.9040074336
 30
0.0
 11
202.0853000677
 21
129.9040074336
 31
0.0
  0
LINE
  5
16A
330
162
100
AcDbEntity
  8
VERMASSUNG
100
AcDbLine
 10
202.0853000677
 20
123.9040074336
 30
0.0
 11
202.0853000677
 21
117.8090074336
 31
0.0
  0
LINE
  5
16B
330
162
100
AcDbEntity
  8
VERMASSUNG
100
AcDbLine
 10
202.0853000677
 20
117.8090074336
 30
0.0
 11
202.0853000677
 21
111.8090074336
 31
0.0
  0
MTEXT
  5
16C
330
162
100
AcDbEntity
  8
VERMASSUNG
100
AcDbMText
 10
199.5071644718
 20
118.2565074265
 30
0.0
 40
2.0
 41
0.0
 71
     1
 72
     1
  1
SW
  7
SLDTEXTSTYLE0
 11
-7.044195017643634E-15
 21
1.0
 31
0.0
 73
     1
 44
1.0
  0
MTEXT
  5
16D
330
162
100
AcDbEntity
  8
VERMASSUNG
100
AcDbMText
 10
199.5071644718
 20
122.0565074906
 30
0.0
 40
2.0
 41
0.0
 71
     1
 72
     1
  1
6
  7
SLDTEXTSTYLE0
 11
-7.044195017643634E-15
 21
1.0
 31
0.0
 73
     1
 44
1.0
  0
ENDBLK
  5
164
330
162
100
AcDbEntity
  8
0
100
AcDbBlockEnd
  0
ENDSEC
  0
SECTION
  2
ENTITIES
  0
MTEXT
  5
78
330
1F
100
AcDbEntity
  8
KOPF_DÜNN
100
AcDbMText
 10
13.8892156294
 20
23.8442973028
 30
0.0
 40
3.0
 41
0.0
 71
     1
 72
     1
  1
KY6.D16.K21.028
  7
SLDTEXTSTYLE0
 73
     1
 44
1.0
  0
MTEXT
  5
79
330
1F
100
AcDbEntity
  8
VERMASSUNG
100
AcDbMText
 10
13.9329988022
 20
28.8834360957
 30
0.0
 40
3.0
 41
0.0
 71
     1
 72
     1
  1
Fräsdorn _Milling arbor
  7
SLDTEXTSTYLE0
 73
     1
 44
1.0
  0
MTEXT
  5
7A
330
1F
100
AcDbEntity
  8
VERMASSUNG
100
AcDbMText
 10
98.8601118557
 20
13.8365368761
 30
0.0
 40
2.0
 41
0.0
 71
     1
 72
     1
  1
Datum: 19.02.2018
  7
SLDTEXTSTYLE0
 73
     1
 44
1.0
  0
MTEXT
  5
7B
330
1F
100
AcDbEntity
  8
VERMASSUNG
100
AcDbMText
 10
13.933048693
 20
18.0482802738
 30
0.0
 40
2.0
 41
0.0
 71
     1
 72
     1
  1
KM63 XMZ / Ø16
  7
SLDTEXTSTYLE0
 73
     1
 44
1.0
  0
MTEXT
  5
7C
330
1F
100
AcDbEntity
  8
VERMASSUNG
100
AcDbMText
 10
13.9808475933
 20
13.9090974274
 30
0.0
 40
2.0
 41
0.0
 71
     1
 72
     1
  1
Gewicht: 740g
  7
SLDTEXTSTYLE0
 73
     1
 44
1.0
  0
ARC
  5
7D
330
1F
100
AcDbEntity
  8
0
  6
Continuous
 62
     7
370
    25
100
AcDbCircle
 10
169.2630437148
 20
103.3565074336
 30
0.0
 40
0.5
100
AcDbArc
 50
270.0
 51
0.0
  0
ARC
  5
7E
330
1F
100
AcDbEntity
  8
0
  6
Continuous
 62
     7
370
    25
100
AcDbCircle
 10
169.2630437148
 20
110.3565074336
 30
0.0
 40
0.5
100
AcDbArc
 50
0.0
 51
90.0
  0
LINE
  5
7F
330
1F
100
AcDbEntity
  8
0
  6
Continuous
 62
     7
370
    25
100
AcDbLine
 10
164.763044579
 20
102.8565082085
 30
0.0
 11
169.2630425227
 21
102.8565082085
 31
0.0
  0
LINE
  5
80
330
1F
100
AcDbEntity
  8
0
  6
Continuous
 62
     7
370
    25
100
AcDbLine
 10
169.2630425227
 20
110.8565076571
 30
0.0
 11
164.763044579
 21
110.8565076571
 31
0.0
  0
LINE
  5
81
330
1F
100
AcDbEntity
  8
0
  6
Continuous
 62
     7
370
    25
100
AcDbLine
 10
164.763044579
 20
130.8565072101
 30
0.0
 11
169.2630425227
 21
130.8565072101
 31
0.0
  0
LINE
  5
82
330
1F
100
AcDbEntity
  8
0
  6
Continuous
 62
     7
370
    25
100
AcDbLine
 10
169.2630425227
 20
138.8565066588
 30
0.0
 11
164.763044579
 21
138.8565066588
 31
0.0
  0
ARC
  5
83
330
1F
100
AcDbEntity
  8
0
  6
Continuous
 62
     7
370
    25
100
AcDbCircle
 10
169.2630437148
 20
131.3565074336
 30
0.0
 40
0.5
100
AcDbArc
 50
270.0
 51
0.0
  0
ARC
  5
84
330
1F
100
AcDbEntity
  8
0
  6
Continuous
 62
     7
370
    25
100
AcDbCircle
 10
169.2630437148
 20
138.3565074336
 30
0.0
 40
0.5
100
AcDbArc
 50
0.0
 51
90.0
  0
LINE
  5
85
330
1F
100
AcDbEntity
  8
0
  6
Continuous
 62
     7
370
    25
100
AcDbLine
 10
192.3630423975
 20
127.3565075677
 30
0.0
 11
184.763044132
 21
127.3565075677
 31
0.0
  0
LINE
  5
86
330
1F
100
AcDbEntity
  8
0
  6
Continuous
 62
     7
370
    25
100
AcDbLine
 10
184.763044132
 20
114.3565072995
 30
0.0
 11
192.3630423975
 21
114.3565072995
 31
0.0
  0
ARC
  5
87
330
1F
100
AcDbEntity
  8
0
  6
Continuous
 62
     7
370
    25
100
AcDbCircle
 10
192.3630437148
 20
126.9565074336
 30
0.0
 40
0.4000000000000057
100
AcDbArc
 50
0.0
 51
90.0
  0
ARC
  5
88
330
1F
100
AcDbEntity
  8
0
  6
Continuous
 62
     7
370
    25
100
AcDbCircle
 10
192.3630437148
 20
114.7565074336
 30
0.0
 40
0.4000000000000057
100
AcDbArc
 50
270.0
 51
0.0
  0
ARC
  5
89
330
1F
100
AcDbEntity
  8
0
  6
Continuous
 62
     7
370
    25
100
AcDbCircle
 10
184.3630437148
 20
116.4565074336
 30
0.0
 40
0.4000000000000199
100
AcDbArc
 50
0.0
 51
90.0
  0
ARC
  5
8A
330
1F
100
AcDbEntity
  8
0
  6
Continuous
 62
     7
370
    25
100
AcDbCircle
 10
184.3630437148
 20
125.2565074336
 30
0.0
 40
0.4000000000000057
100
AcDbArc
 50
270.0
 51
0.0
  0
LINE
  5
8B
330
1F
100
AcDbEntity
  8
0
  6
Continuous
 62
     7
370
    25
100
AcDbLine
 10
184.3630448115
 20
124.8565076236
 30
0.0
 11
181.7630455029
 21
124.8565076236
 31
0.0
  0
LINE
  5
8C
330
1F
100
AcDbEntity
  8
0
  6
Continuous
 62
     7
370
    25
100
AcDbLine
 10
181.7630455029
 20
116.8565072436
 30
0.0
 11
184.3630448115
 21
116.8565072436
 31
0.0
  0
ARC
  5
8D
330
1F
100
AcDbEntity
  8
0
  6
Continuous
 62
     7
370
    25
100
AcDbCircle
 10
136.9630437148
 20
89.5815074336
 30
0.0
 40
0.2000000000000171
100
AcDbArc
 50
180.0
 51
270.0
  0
ARC
  5
8E
330
1F
100
AcDbEntity
  8
0
  6
Continuous
 62
     7
370
    25
100
AcDbCircle
 10
136.9630437148
 20
152.1315074336
 30
0.0
 40
0.1999999999999886
100
AcDbArc
 50
90.0
 51
180.0
  0
LINE
  5
8F
330
1F
100
AcDbEntity
  8
0
  6
Continuous
 62
     7
370
    25
100
AcDbLine
 10
143.3288459797
 20
89.3815073502
 30
0.0
 11
144.7880435866
 21
91.9089119267
 31
0.0
  0
LINE
  5
90
330
1F
100
AcDbEntity
  8
0
  6
Continuous
 62
     7
370
    25
100
AcDbLine
 10
136.9630437097
 20
89.3815073502
 30
0.0
 11
143.3288459797
 21
89.3815073502
 31
0.0
  0
LINE
  5
91
330
1F
100
AcDbEntity
  8
0
  6
Continuous
 62
     7
370
    25
100
AcDbLine
 10
142.0924500693
 20
152.3315075171
 30
0.0
 11
136.9630437097
 21
152.3315075171
 31
0.0
  0
LINE
  5
92
330
1F
100
AcDbEntity
  8
0
  6
Continuous
 62
     7
370
    25
100
AcDbLine
 10
149.9972418082
 20
89.3815073502
 30
0.0
 11
154.7630429399
 21
89.3815073502
 31
0.0
  0
LINE
  5
93
330
1F
100
AcDbEntity
  8
0
  6
Continuous
 62
     7
370
    25
100
AcDbLine
 10
154.7630429399
 20
152.3315075171
 30
0.0
 11
153.5410676283
 21
152.3315075171
 31
0.0
  0
ARC
  5
94
330
1F
100
AcDbEntity
  8
0
  6
Continuous
 62
     7
370
    25
100
AcDbCircle
 10
136.3341088402
 20
95.3065074336
 30
0.0
 40
0.8000000000000115
100
AcDbArc
 50
57.576802718
 51
107.5
  0
ARC
  5
95
330
1F
100
AcDbEntity
  8
0
  6
Continuous
 62
     7
370
    25
100
AcDbCircle
 10
136.3341088402
 20
146.4065074336
 30
0.0
 40
0.7999999999999875
100
AcDbArc
 50
252.5
 51
302.423197282
  0
LINE
  5
96
330
1F
100
AcDbEntity
  8
0
  6
Continuous
 62
     7
370
    25
100
AcDbLine
 10
148.5380437356
 20
91.9089119267
 30
0.0
 11
149.9972418082
 21
89.3815073502
 31
0.0
  0
LINE
  5
97
330
1F
100
AcDbEntity
  8
0
  6
Continuous
 62
     7
370
    25
100
AcDbLine
 10
135.602861656
 20
145.7982461285
 30
0.0
 11
119.6579858792
 21
144.9975266438
 31
0.0
  0
LINE
  5
98
330
1F
100
AcDbEntity
  8
0
  6
Continuous
 62
     7
370
    25
100
AcDbLine
 10
119.6579858792
 20
96.7154882234
 30
0.0
 11
135.602861656
 21
95.9147687387
 31
0.0
  0
LINE
  5
99
330
1F
100
AcDbEntity
  8
0
  6
Continuous
 62
     7
370
    25
100
AcDbLine
 10
135.602861656
 20
95.9147687387
 30
0.0
 11
136.0935442048
 21
96.0694819075
 31
0.0
  0
LINE
  5
9A
330
1F
100
AcDbEntity
  8
0
  6
Continuous
 62
     7
370
    25
100
AcDbLine
 10
136.0935442048
 20
145.6435329598
 30
0.0
 11
135.602861656
 21
145.7982461285
 31
0.0
  0
ARC
  5
9B
330
1F
100
AcDbEntity
  8
0
  6
Continuous
 62
     7
370
    25
100
AcDbCircle
 10
145.7880437148
 20
92.0065074336
 30
0.0
 40
1.000000000000014
100
AcDbArc
 50
90.0
 51
180.0
  0
ARC
  5
9C
330
1F
100
AcDbEntity
  8
0
  6
Continuous
 62
     7
370
    25
100
AcDbCircle
 10
147.5380437148
 20
92.0065074336
 30
0.0
 40
1.000000000000014
100
AcDbArc
 50
0.0
 51
90.0
  0
LINE
  5
9D
330
1F
100
AcDbEntity
  8
0
  6
Continuous
 62
     7
370
    25
100
AcDbLine
 10
145.7880437505
 20
93.0065072459
 30
0.0
 11
147.5380435717
 21
93.0065072459
 31
0.0
  0
ARC
  5
9E
330
1F
100
AcDbEntity
  8
0
  6
Continuous
 62
     7
370
    25
100
AcDbCircle
 10
157.7630437148
 20
98.8565074336
 30
0.0
 40
3.000000000000014
100
AcDbArc
 50
90.0
 51
180.0
  0
ARC
  5
9F
330
1F
100
AcDbEntity
  8
0
  6
Continuous
 62
     7
370
    25
100
AcDbCircle
 10
157.7630437148
 20
142.8565074336
 30
0.0
 40
3.0
100
AcDbArc
 50
180.0
 51
270.0
  0
LINE
  5
A0
330
1F
100
AcDbEntity
  8
0
  6
Continuous
 62
     7
370
    25
100
AcDbLine
 10
157.7630434316
 20
101.8565080446
 30
0.0
 11
164.1630437356
 21
101.8565080446
 31
0.0
  0
LINE
  5
A1
330
1F
100
AcDbEntity
  8
0
  6
Continuous
 62
     7
370
    25
100
AcDbLine
 10
164.1630437356
 20
139.8565068227
 30
0.0
 11
157.7630434316
 21
139.8565068227
 31
0.0
  0
ARC
  5
A2
330
1F
100
AcDbEntity
  8
0
  6
Continuous
 62
     7
370
    25
100
AcDbCircle
 10
164.1630437148
 20
102.4565074336
 30
0.0
 40
0.5999999999999943
100
AcDbArc
 50
270.0
 51
0.0
  0
ARC
  5
A3
330
1F
100
AcDbEntity
  8
0
  6
Continuous
 62
     7
370
    25
100
AcDbCircle
 10
164.1630437148
 20
139.2565074336
 30
0.0
 40
0.5999999999999943
100
AcDbArc
 50
0.0
 51
90.0
  0
ARC
  5
A4
330
1F
100
AcDbEntity
  8
0
  6
Continuous
 62
     7
370
    25
100
AcDbCircle
 10
165.2630437148
 20
112.5065074336
 30
0.0
 40
0.6000000000000097
100
AcDbArc
 50
90.0
 51
146.4426902381
  0
ARC
  5
A5
330
1F
100
AcDbEntity
  8
0
  6
Continuous
 62
     7
370
    25
100
AcDbCircle
 10
165.2630437148
 20
129.2065074336
 30
0.0
 40
0.6000000000000227
100
AcDbArc
 50
213.5573097619
 51
270.0
  0
LINE
  5
A6
330
1F
100
AcDbEntity
  8
0
  6
Continuous
 62
     7
370
    25
100
AcDbLine
 10
166.7630430442
 20
112.8565070536
 30
0.0
 11
181.1630427969
 21
112.8565070536
 31
0.0
  0
LINE
  5
A7
330
1F
100
AcDbEntity
  8
0
  6
Continuous
 62
     7
370
    25
100
AcDbLine
 10
181.1630427969
 20
128.8565078136
 30
0.0
 11
166.7630430442
 21
128.8565078136
 31
0.0
  0
ARC
  5
A8
330
1F
100
AcDbEntity
  8
0
  6
Continuous
 62
     7
370
    25
100
AcDbCircle
 10
181.1630437148
 20
113.4565074336
 30
0.0
 40
0.6000000000000085
100
AcDbArc
 50
270.0
 51
0.0
  0
ARC
  5
A9
330
1F
100
AcDbEntity
  8
0
  6
Continuous
 62
     7
370
    25
100
AcDbCircle
 10
181.1630437148
 20
128.2565074336
 30
0.0
 40
0.6000000000000227
100
AcDbArc
 50
0.0
 51
90.0
  0
LINE
  5
AA
330
1F
100
AcDbEntity
  8
0
  6
Continuous
 62
     7
370
    25
100
AcDbLine
 10
166.7630430442
 20
128.8565078136
 30
0.0
 11
165.9063305837
 21
128.6269521658
 31
0.0
  0
LINE
  5
AB
330
1F
100
AcDbEntity
  8
0
  6
Continuous
 62
     7
370
    25
100
AcDbLine
 10
165.9063305837
 20
113.0860627015
 30
0.0
 11
166.7630430442
 21
112.8565070536
 31
0.0
  0
ARC
  5
AC
330
1F
100
AcDbEntity
  8
0
  6
Continuous
 62
     7
370
    25
100
AcDbCircle
 10
165.7510395143
 20
112.5065074336
 30
0.0
 40
0.6000000000000071
100
AcDbArc
 50
75.0
 51
90.0
  0
ARC
  5
AD
330
1F
100
AcDbEntity
  8
0
  6
Continuous
 62
     7
370
    25
100
AcDbCircle
 10
165.7510395143
 20
129.2065074336
 30
0.0
 40
0.5999999999999943
100
AcDbArc
 50
270.0
 51
285.0
  0
LINE
  5
AE
330
1F
100
AcDbEntity
  8
0
  6
Continuous
 62
     7
370
    25
100
AcDbLine
 10
165.2630437297
 20
113.1065075603
 30
0.0
 11
165.751039995
 21
113.1065075603
 31
0.0
  0
LINE
  5
AF
330
1F
100
AcDbEntity
  8
0
  6
Continuous
 62
     7
370
    25
100
AcDbLine
 10
165.751039995
 20
128.606507307
 30
0.0
 11
165.2630437297
 21
128.606507307
 31
0.0
  0
LINE
  5
B0
330
1F
100
AcDbEntity
  8
0
  6
Continuous
 62
     7
370
    25
100
AcDbLine
 10
118.7630444896
 20
97.610429613
 30
0.0
 11
119.6579858792
 21
96.7154882234
 31
0.0
  0
LINE
  5
B1
330
1F
100
AcDbEntity
  8
0
  6
Continuous
 62
     7
370
    25
100
AcDbLine
 10
119.6579858792
 20
144.9975266438
 30
0.0
 11
118.7630444896
 21
144.1025852543
 31
0.0
  0
LINE
  5
B2
330
1F
100
AcDbEntity
  8
0
  6
Continuous
 62
     7
370
    25
100
AcDbLine
 10
169.7630435359
 20
103.3565073591
 30
0.0
 11
169.7630435359
 21
110.3565075752
 31
0.0
  0
LINE
  5
B3
330
1F
100
AcDbEntity
  8
0
  6
Continuous
 62
     7
370
    25
100
AcDbLine
 10
169.7630435359
 20
131.3565072921
 30
0.0
 11
169.7630435359
 21
138.3565075081
 31
0.0
  0
LINE
  5
B4
330
1F
100
AcDbEntity
  8
0
  6
Continuous
 62
     7
370
    25
100
AcDbLine
 10
184.763044132
 20
124.1065075007
 30
0.0
 11
184.763044132
 21
114.3565072995
 31
0.0
  0
LINE
  5
B5
330
1F
100
AcDbEntity
  8
0
  6
Continuous
 62
     7
370
    25
100
AcDbLine
 10
184.763044132
 20
127.3565075677
 30
0.0
 11
184.763044132
 21
124.1065075007
 31
0.0
  0
LINE
  5
B6
330
1F
100
AcDbEntity
  8
0
  6
Continuous
 62
     7
370
    25
100
AcDbLine
 10
192.7630454433
 20
123.9065073748
 30
0.0
 11
192.7630454433
 21
114.7565075513
 31
0.0
  0
LINE
  5
B7
330
1F
100
AcDbEntity
  8
0
  6
Continuous
 62
     7
370
    25
100
AcDbLine
 10
192.7630454433
 20
126.9565073159
 30
0.0
 11
192.7630454433
 21
123.9065073748
 31
0.0
  0
LINE
  5
B8
330
1F
100
AcDbEntity
  8
0
  6
Continuous
 62
     7
370
    25
100
AcDbLine
 10
136.7630437148
 20
89.5815070104
 30
0.0
 11
136.7630437148
 21
152.1315078568
 31
0.0
  0
LINE
  5
B9
330
1F
100
AcDbEntity
  8
0
  6
Continuous
 62
     7
370
    25
100
AcDbLine
 10
143.3288459797
 20
89.3815073502
 30
0.0
 11
143.3288459797
 21
152.1585720908
 31
0.0
  0
SPLINE
  5
BA
330
1F
100
AcDbEntity
  8
0
  6
Continuous
 62
     7
370
    25
100
AcDbSpline
210
0.0
220
0.0
230
1.0
 70
     8
 71
     3
 72
    10
 73
     6
 74
     0
 42
0.000000001
 43
0.00000001
 40
0.0
 40
0.0
 40
0.0
 40
0.0
 40
0.5
 40
0.5
 40
1.0
 40
1.0
 40
1.0
 40
1.0
 10
144.457061907309
 20
150.331507433628
 30
0.0
 10
144.2801767608856
 20
150.6217009733706
 30
0.0
 10
144.0946273860082
 20
150.9241143593111
 30
0.0
 10
143.7166784459606
 20
151.5361484966114
 30
0.0
 10
143.5238919037814
 20
151.8464253361764
 30
0.0
 10
143.3288459101921
 20
152.1585724071415
 30
0.0
  0
SPLINE
  5
BB
330
1F
100
AcDbEntity
  8
0
  6
Continuous
 62
     7
370
    25
100
AcDbSpline
210
0.0
220
0.0
230
1.0
 70
     8
 71
     3
 72
     8
 73
     4
 74
     0
 42
0.000000001
 43
0.00000001
 40
0.0
 40
0.0
 40
0.0
 40
0.0
 40
1.0
 40
1.0
 40
1.0
 40
1.0
 10
144.7880437147623
 20
149.7207585122451
 30
0.0
 10
144.6697469553324
 20
149.938643746576
 30
0.0
 10
144.558318473161
 20
150.144324037618
 30
0.0
 10
144.457061907309
 20
150.331507433628
 30
0.0
  0
LINE
  5
BC
330
1F
100
AcDbEntity
  8
0
  6
Continuous
 62
     7
370
    25
100
AcDbLine
 10
144.7880435866
 20
108.3253582325
 30
0.0
 11
144.7880435866
 21
149.7207588833
 31
0.0
  0
SPLINE
  5
BD
330
1F
100
AcDbEntity
  8
0
  6
Continuous
 62
     7
370
    25
100
AcDbSpline
210
0.0
220
0.0
230
1.0
 70
     8
 71
     3
 72
    26
 73
    22
 74
     0
 42
0.000000001
 43
0.00000001
 40
0.0
 40
0.0
 40
0.0
 40
0.0
 40
0.1250000000000014
 40
0.1250000000000014
 40
0.2500000000000027
 40
0.2500000000000027
 40
0.3125000000000025
 40
0.3125000000000025
 40
0.3750000000000023
 40
0.3750000000000023
 40
0.4375000000000021
 40
0.4375000000000021
 40
0.5000000000000018
 40
0.5000000000000018
 40
0.5625000000000016
 40
0.5625000000000016
 40
0.6250000000000013
 40
0.6250000000000013
 40
0.7500000000000006
 40
0.7500000000000006
 40
1.0
 40
1.0
 40
1.0
 40
1.0
 10
144.7880437147623
 20
104.5234055826574
 30
0.0
 10
144.6961388040795
 20
104.5484532749937
 30
0.0
 10
144.6084420278545
 20
104.5864608689081
 30
0.0
 10
144.4442357570872
 20
104.6974571200008
 30
0.0
 10
144.3669653388205
 20
104.7713906313143
 30
0.0
 10
144.2671992324954
 20
104.9166887666447
 30
0.0
 10
144.2365863035931
 20
104.9708305806363
 30
0.0
 10
144.1817174296901
 20
105.0928948199044
 30
0.0
 10
144.1573322087612
 20
105.1614668014886
 30
0.0
 10
144.1176528322627
 20
105.3110509715228
 30
0.0
 10
144.1021867530254
 20
105.3922099766956
 30
0.0
 10
144.081090417943
 20
105.5688659837871
 30
0.0
 10
144.0755773517829
 20
105.6651100905088
 30
0.0
 10
144.0755103941606
 20
105.8643400328699
 30
0.0
 10
144.0807787015101
 20
105.9681879810933
 30
0.0
 10
144.1016212286781
 20
106.1841081772463
 30
0.0
 10
144.1172953418883
 20
106.2960773313404
 30
0.0
 10
144.1766142720659
 20
106.6307035474854
 30
0.0
 10
144.2336341075799
 20
106.8587582558543
 30
0.0
 10
144.4324689962238
 20
107.5171411999234
 30
0.0
 10
144.6037392014559
 20
107.9356661883822
 30
0.0
 10
144.7880437147623
 20
108.3253582059814
 30
0.0
  0
LINE
  5
BE
330
1F
100
AcDbEntity
  8
0
  6
Continuous
 62
     7
370
    25
100
AcDbLine
 10
144.7880435866
 20
91.9089119267
 30
0.0
 11
144.7880435866
 21
104.5234061163
 31
0.0
  0
SPLINE
  5
BF
330
1F
100
AcDbEntity
  8
0
  6
Continuous
 62
     7
370
    25
100
AcDbSpline
210
0.0
220
0.0
230
1.0
 70
     8
 71
     3
 72
    11
 73
     7
 74
     0
 42
0.000000001
 43
0.00000001
 40
0.0
 40
0.0
 40
0.0
 40
0.0
 40
0.4051838670643448
 40
0.6486322391308984
 40
0.900236933056225
 40
1.0
 40
1.0
 40
1.0
 40
1.0
 10
143.3288459797209
 20
152.1585720908394
 30
0.0
 10
143.0373347570275
 20
152.1962703285661
 30
0.0
 10
142.5706735879208
 20
152.2566189612133
 30
0.0
 10
142.2178993394439
 20
152.3097745725684
 30
0.0
 10
142.0751215976725
 20
152.3315544805236
 30
0.0
 10
142.0886180512803
 20
152.3294897683046
 30
0.0
 10
142.0924500693386
 20
152.3289035391559
 30
0.0
  0
LINE
  5
C0
330
1F
100
AcDbEntity
  8
0
  6
Continuous
 62
     7
370
    25
100
AcDbLine
 10
154.7630429399
 20
89.3815073502
 30
0.0
 11
154.7630429399
 21
152.3315075171
 31
0.0
  0
SPLINE
  5
C1
330
1F
100
AcDbEntity
  8
0
  6
Continuous
 62
     7
370
    25
100
AcDbSpline
210
0.0
220
0.0
230
1.0
 70
     8
 71
     3
 72
    24
 73
    20
 74
     0
 42
0.000000001
 43
0.00000001
 40
0.0
 40
0.0
 40
0.0
 40
0.0
 40
0.1249999999999991
 40
0.1249999999999991
 40
0.2499999999999981
 40
0.2499999999999981
 40
0.3749999999999972
 40
0.3749999999999972
 40
0.4999999999999962
 40
0.4999999999999962
 40
0.6249999999999964
 40
0.6249999999999964
 40
0.7499999999999968
 40
0.7499999999999968
 40
0.8124999999999976
 40
0.8124999999999976
 40
0.8749999999999982
 40
0.8749999999999982
 40
1.0
 40
1.0
 40
1.0
 40
1.0
 10
149.9972415193322
 20
107.8187634283162
 30
0.0
 10
150.2365844194938
 20
107.6611433339909
 30
0.0
 10
150.4528788278106
 20
107.480611552829
 30
0.0
 10
150.839012026058
 20
107.0746067444709
 30
0.0
 10
151.0046311794484
 20
106.8526515684133
 30
0.0
 10
151.2726382547347
 20
106.3859418387494
 30
0.0
 10
151.3772999858846
 20
106.1359360855557
 30
0.0
 10
151.515358517853
 20
105.6323176167321
 30
0.0
 10
151.5505310786073
 20
105.3772836023264
 30
0.0
 10
151.5505563442039
 20
104.8610056246234
 30
0.0
 10
151.5154150610065
 20
104.610197297709
 30
0.0
 10
151.3773513868629
 20
104.12236966312
 30
0.0
 10
151.2727224372065
 20
103.8843078925725
 30
0.0
 10
151.0717097993693
 20
103.5554941000941
 30
0.0
 10
150.9971597745031
 20
103.4498053784522
 30
0.0
 10
150.8328136111192
 20
103.2461652528487
 30
0.0
 10
150.7423337911523
 20
103.1476065398723
 30
0.0
 10
150.4529464925249
 20
102.8694687677153
 30
0.0
 10
150.2367060626736
 20
102.7067160645936
 30
0.0
 10
149.9972415193322
 20
102.5657111154665
 30
0.0
  0
LINE
  5
C2
330
1F
100
AcDbEntity
  8
0
  6
Continuous
 62
     7
370
    25
100
AcDbLine
 10
149.9972418082
 20
107.8187634554
 30
0.0
 11
149.9972418082
 21
151.9493746888
 31
0.0
  0
SPLINE
  5
C3
330
1F
100
AcDbEntity
  8
0
  6
Continuous
 62
     7
370
    25
100
AcDbSpline
210
0.0
220
0.0
230
1.0
 70
     8
 71
     3
 72
    15
 73
    11
 74
     0
 42
0.000000001
 43
0.00000001
 40
0.0
 40
0.0
 40
0.0
 40
0.0
 40
0.11436559586224
 40
0.2385618599933278
 40
0.3661861427447488
 40
0.4939536589848885
 40
0.6249407100809414
 40
0.7623960319383225
 40
0.903287580874513
 40
1.0
 40
1.0
 40
1.0
 40
1.0
 10
153.541067628265
 20
152.3300509285679
 30
0.0
 10
153.5341501099455
 20
152.3289755587062
 30
0.0
 10
153.5197204554294
 20
152.3267323820546
 30
0.0
 10
153.326518216558
 20
152.2973380731773
 30
0.0
 10
153.0139705726587
 20
152.2518719336372
 30
0.0
 10
152.5742153141697
 20
152.1922181747582
 30
0.0
 10
152.0177878932415
 20
152.1239054984561
 30
0.0
 10
151.3455678161424
 20
152.0526471153377
 30
0.0
 10
150.6585681587041
 20
151.9921502227469
 30
0.0
 10
150.1885530140947
 20
151.961748971172
 30
0.0
 10
149.9972418081766
 20
151.9493746888389
 30
0.0
  0
LINE
  5
C4
330
1F
100
AcDbEntity
  8
0
  6
Continuous
 62
     7
370
    25
100
AcDbLine
 10
149.9972418082
 20
89.3815073502
 30
0.0
 11
149.9972418082
 21
102.5657101851
 31
0.0
  0
SPLINE
  5
C5
330
1F
100
AcDbEntity
  8
0
  6
Continuous
 62
     7
370
    25
100
AcDbSpline
210
0.0
220
0.0
230
1.0
 70
     8
 71
     3
 72
     8
 73
     4
 74
     0
 42
0.000000001
 43
0.00000001
 40
0.0
 40
0.0
 40
0.0
 40
0.0
 40
1.0
 40
1.0
 40
1.0
 40
1.0
 10
148.9658874300983
 20
150.331507433628
 30
0.0
 10
148.8243493418164
 20
150.0790434335727
 30
0.0
 10
148.6817388730795
 20
149.8254997444301
 30
0.0
 10
148.5380437147625
 20
149.5709635547086
 30
0.0
  0
SPLINE
  5
C6
330
1F
100
AcDbEntity
  8
0
  6
Continuous
 62
     7
370
    25
100
AcDbSpline
210
0.0
220
0.0
230
1.0
 70
     8
 71
     3
 72
     8
 73
     4
 74
     0
 42
0.000000001
 43
0.00000001
 40
0.0
 40
0.0
 40
0.0
 40
0.0
 40
1.0
 40
1.0
 40
1.0
 40
1.0
 10
149.9972415193319
 20
151.9493745854195
 30
0.0
 10
149.6488401146516
 20
151.4073858397686
 30
0.0
 10
149.3042717294188
 20
150.8671666527751
 30
0.0
 10
148.9658874300979
 20
150.3315074336276
 30
0.0
  0
SPLINE
  5
C7
330
1F
100
AcDbEntity
  8
0
  6
Continuous
 62
     7
370
    25
100
AcDbSpline
210
0.0
220
0.0
230
1.0
 70
     8
 71
     3
 72
    10
 73
     6
 74
     0
 42
0.000000001
 43
0.00000001
 40
0.0
 40
0.0
 40
0.0
 40
0.0
 40
0.5
 40
0.5
 40
1.0
 40
1.0
 40
1.0
 40
1.0
 10
148.5380437147623
 20
109.6745684839405
 30
0.0
 10
148.7892366046338
 20
109.409076335385
 30
0.0
 10
149.0365059163356
 20
109.1233900123424
 30
0.0
 10
149.5231272676464
 20
108.5075173304522
 30
0.0
 10
149.7625105753631
 20
108.1775796032115
 30
0.0
 10
149.9972415193322
 20
107.8187634283162
 30
0.0
  0
LINE
  5
C8
330
1F
100
AcDbEntity
  8
0
  6
Continuous
 62
     7
370
    25
100
AcDbLine
 10
148.5380437356
 20
109.6745680403
 30
0.0
 11
148.5380437356
 21
149.5709630978
 31
0.0
  0
SPLINE
  5
C9
330
1F
100
AcDbEntity
  8
0
  6
Continuous
 62
     7
370
    25
100
AcDbSpline
210
0.0
220
0.0
230
1.0
 70
     8
 71
     3
 72
    10
 73
     6
 74
     0
 42
0.000000001
 43
0.00000001
 40
0.0
 40
0.0
 40
0.0
 40
0.0
 40
0.5
 40
0.5
 40
1.0
 40
1.0
 40
1.0
 40
1.0
 10
149.9972415193322
 20
102.5657111154666
 30
0.0
 10
149.7625105753631
 20
102.6317267725213
 30
0.0
 10
149.5231272676464
 20
102.7331347136058
 30
0.0
 10
149.0365059163356
 20
102.9893805076843
 30
0.0
 10
148.7892366046338
 20
103.144528789375
 30
0.0
 10
148.5380437147623
 20
103.323990262235
 30
0.0
  0
LINE
  5
CA
330
1F
100
AcDbEntity
  8
0
  6
Continuous
 62
     7
370
    25
100
AcDbLine
 10
148.5380437356
 20
103.3239911628
 30
0.0
 11
148.5380437356
 21
103.3731854838
 31
0.0
  0
SPLINE
  5
CB
330
1F
100
AcDbEntity
  8
0
  6
Continuous
 62
     7
370
    25
100
AcDbSpline
210
0.0
220
0.0
230
1.0
 70
     8
 71
     3
 72
    14
 73
    10
 74
     0
 42
0.000000001
 43
0.00000001
 40
0.0
 40
0.0
 40
0.0
 40
0.0
 40
0.25
 40
0.25
 40
0.5
 40
0.5
 40
0.75
 40
0.75
 40
1.0
 40
1.0
 40
1.0
 40
1.0
 10
148.5380437147624
 20
103.3731854500311
 30
0.0
 10
148.5380437147625
 20
103.4391027297402
 30
0.0
 10
148.5121142764965
 20
103.5004921885344
 30
0.0
 10
148.4126720192201
 20
103.6079182508238
 30
0.0
 10
148.3403896334993
 20
103.6534594249223
 30
0.0
 10
148.1556522967347
 20
103.7300963488021
 30
0.0
 10
148.0461056604126
 20
103.7600219026274
 30
0.0
 10
147.8027444154094
 20
103.805664090054
 30
0.0
 10
147.6712333079636
 20
103.8209433406755
 30
0.0
 10
147.5380437147622
 20
103.8287898243753
 30
0.0
  0
SPLINE
  5
CC
330
1F
100
AcDbEntity
  8
0
  6
Continuous
 62
     7
370
    25
100
AcDbSpline
210
0.0
220
0.0
230
1.0
 70
     8
 71
     3
 72
    10
 73
     6
 74
     0
 42
0.000000001
 43
0.00000001
 40
0.0
 40
0.0
 40
0.0
 40
0.0
 40
0.5
 40
0.5
 40
1.0
 40
1.0
 40
1.0
 40
1.0
 10
147.5380437147622
 20
103.8287898243752
 30
0.0
 10
147.2275659350203
 20
103.847080734193
 30
0.0
 10
146.9236253706683
 20
103.8956194787093
 30
0.0
 10
146.3290620050938
 20
104.05525884112
 30
0.0
 10
146.0487284473738
 20
104.1638674208801
 30
0.0
 10
145.7880437147623
 20
104.2998585506489
 30
0.0
  0
SPLINE
  5
CD
330
1F
100
AcDbEntity
  8
0
  6
Continuous
 62
     7
370
    25
100
AcDbSpline
210
0.0
220
0.0
230
1.0
 70
     8
 71
     3
 72
    14
 73
    10
 74
     0
 42
0.000000001
 43
0.00000001
 40
0.0
 40
0.0
 40
0.0
 40
0.0
 40
0.25
 40
0.25
 40
0.5
 40
0.5
 40
0.75
 40
0.75
 40
1.0
 40
1.0
 40
1.0
 40
1.0
 10
145.7880437147623
 20
104.2998585506489
 30
0.0
 10
145.6536929662212
 20
104.3699451640702
 30
0.0
 10
145.5305140634277
 20
104.4311404713658
 30
0.0
 10
145.3017636425384
 20
104.5407828446923
 30
0.0
 10
145.1998405505452
 20
104.5874906440805
 30
0.0
 10
145.0204154862
 20
104.6584561569294
 30
0.0
 10
144.9439742372955
 20
104.682968635322
 30
0.0
 10
144.8266862628338
 20
104.6814529277962
 30
0.0
 10
144.7880437147623
 20
104.6528458845878
 30
0.0
 10
144.7880437147623
 20
104.5723445943741
 30
0.0
  0
LINE
  5
CE
330
1F
100
AcDbEntity
  8
0
  6
Continuous
 62
     7
370
    25
100
AcDbLine
 10
144.7880435866
 20
104.572345255
 30
0.0
 11
144.7880435866
 21
104.5234061163
 31
0.0
  0
SPLINE
  5
CF
330
1F
100
AcDbEntity
  8
0
  6
Continuous
 62
     7
370
    25
100
AcDbSpline
210
0.0
220
0.0
230
1.0
 70
     8
 71
     3
 72
    16
 73
    12
 74
     0
 42
0.000000001
 43
0.00000001
 40
0.0
 40
0.0
 40
0.0
 40
0.0
 40
0.1250000000000001
 40
0.1250000000000001
 40
0.2500000000000003
 40
0.2500000000000003
 40
0.5000000000000002
 40
0.5000000000000002
 40
0.7500000000000001
 40
0.7500000000000001
 40
1.0
 40
1.0
 40
1.0
 40
1.0
 10
144.7880437147623
 20
108.3742972176981
 30
0.0
 10
144.7880437147623
 20
108.4143262678519
 30
0.0
 10
144.7978162784019
 20
108.4658129229044
 30
0.0
 10
144.8320123238023
 20
108.5798771698104
 30
0.0
 10
144.8561975155132
 20
108.6422217072786
 30
0.0
 10
144.9439141796095
 20
108.8347480036336
 30
0.0
 10
145.0206243454589
 20
108.9670092112221
 30
0.0
 10
145.1997064456999
 20
109.2209581508884
 30
0.0
 10
145.3005892153197
 20
109.3409302131699
 30
0.0
 10
145.5294007135827
 20
109.5628105707387
 30
0.0
 10
145.6536983220176
 20
109.6609769434852
 30
0.0
 10
145.7880437147623
 20
109.7408918854117
 30
0.0
  0
SPLINE
  5
D0
330
1F
100
AcDbEntity
  8
0
  6
Continuous
 62
     7
370
    25
100
AcDbSpline
210
0.0
220
0.0
230
1.0
 70
     8
 71
     3
 72
    12
 73
     8
 74
     0
 42
0.000000001
 43
0.00000001
 40
0.0
 40
0.0
 40
0.0
 40
0.0
 40
0.5000000000000003
 40
0.5000000000000003
 40
0.7500000000000001
 40
0.7500000000000001
 40
1.0
 40
1.0
 40
1.0
 40
1.0
 10
145.7880437147623
 20
109.7408918854117
 30
0.0
 10
146.0478459416899
 20
109.8954344376579
 30
0.0
 10
146.3331699504633
 20
110.0226978969802
 30
0.0
 10
146.7730669836754
 20
110.1596958259222
 30
0.0
 10
146.9224074009823
 20
110.1968925263345
 30
0.0
 10
147.2265662217687
 20
110.2540594970994
 30
0.0
 10
147.3825257284808
 20
110.2740712063182
 30
0.0
 10
147.5380437147623
 20
110.2847826798545
 30
0.0
  0
SPLINE
  5
D1
330
1F
100
AcDbEntity
  8
0
  6
Continuous
 62
     7
370
    25
100
AcDbSpline
210
0.0
220
0.0
230
1.0
 70
     8
 71
     3
 72
    14
 73
    10
 74
     0
 42
0.000000001
 43
0.00000001
 40
0.0
 40
0.0
 40
0.0
 40
0.0
 40
0.25
 40
0.25
 40
0.5
 40
0.5
 40
0.75
 40
0.75
 40
1.0
 40
1.0
 40
1.0
 40
1.0
 10
147.5380437147623
 20
110.2847826798545
 30
0.0
 10
147.6712731657856
 20
110.2939590058411
 30
0.0
 10
147.8029745283958
 20
110.2825668738747
 30
0.0
 10
148.0460521866129
 20
110.224406214215
 30
0.0
 10
148.1569581271615
 20
110.1776300923155
 30
0.0
 10
148.3396552002392
 20
110.0646709655844
 30
0.0
 10
148.4130427297208
 20
109.9977172596437
 30
0.0
 10
148.5118770086391
 20
109.8606854108489
 30
0.0
 10
148.5380437147623
 20
109.7899014357256
 30
0.0
 10
148.5380437147623
 20
109.7237636717377
 30
0.0
  0
ARC
  5
D2
330
1F
100
AcDbEntity
  8
0
  6
Continuous
 62
     7
370
    25
100
AcDbCircle
 10
147.8237268067
 20
112.5414236377
 30
0.0
 40
4.209199282722154
100
AcDbArc
 50
269.8545792253
 51
292.0516585031
  0
ARC
  5
D3
330
1F
100
AcDbEntity
  8
0
  6
Continuous
 62
     7
370
    25
100
AcDbCircle
 10
147.7662199967
 20
112.3632435245
 30
0.0
 40
4.031277550817646
100
AcDbArc
 50
230.9175835335
 51
270.6655094912
  0
SPLINE
  5
D4
330
1F
100
AcDbEntity
  8
0
  6
Continuous
 62
     7
370
    25
100
AcDbSpline
210
0.0
220
0.0
230
1.0
 70
     8
 71
     3
 72
    14
 73
    10
 74
     0
 42
0.000000001
 43
0.00000001
 40
0.0
 40
0.0
 40
0.0
 40
0.0
 40
0.25
 40
0.25
 40
0.5
 40
0.5
 40
0.75
 40
0.75
 40
1.0
 40
1.0
 40
1.0
 40
1.0
 10
145.7880437147623
 20
148.5287718648234
 30
0.0
 10
145.6536956284058
 20
148.5386031843943
 30
0.0
 10
145.5305189545498
 20
148.5746425977844
 30
0.0
 10
145.3017723496318
 20
148.6865142941036
 30
0.0
 10
145.1998503856646
 20
148.760869083194
 30
0.0
 10
145.0204269832359
 20
148.9443455500457
 30
0.0
 10
144.9439856950531
 20
149.0516110709058
 30
0.0
 10
144.826695722203
 20
149.3106375607241
 30
0.0
 10
144.7880437147623
 20
149.4618822657004
 30
0.0
 10
144.7880437147623
 20
149.6228804888118
 30
0.0
  0
SPLINE
  5
D5
330
1F
100
AcDbEntity
  8
0
  6
Continuous
 62
     7
370
    25
100
AcDbSpline
210
0.0
220
0.0
230
1.0
 70
     8
 71
     3
 72
    14
 73
    10
 74
     0
 42
0.000000001
 43
0.00000001
 40
0.0
 40
0.0
 40
0.0
 40
0.0
 40
0.25
 40
0.25
 40
0.5
 40
0.5
 40
0.75
 40
0.75
 40
1.0
 40
1.0
 40
1.0
 40
1.0
 10
148.5380437147624
 20
149.4725731791156
 30
0.0
 10
148.5380437147626
 20
149.3407340021466
 30
0.0
 10
148.5121271921914
 20
149.208685065158
 30
0.0
 10
148.4126823456139
 20
148.9634187734448
 30
0.0
 10
148.3403839532016
 20
148.851798356857
 30
0.0
 10
148.1556800586777
 20
148.6610590676614
 30
0.0
 10
148.0461027968018
 20
148.5850982008144
 30
0.0
 10
147.8027726185836
 20
148.481255876645
 30
0.0
 10
147.6712363596634
 20
148.4546226692117
 30
0.0
 10
147.5380437147621
 20
148.4559497966538
 30
0.0
  0
SPLINE
  5
D6
330
1F
100
AcDbEntity
  8
0
  6
Continuous
 62
     7
370
    25
100
AcDbSpline
210
0.0
220
0.0
230
1.0
 70
     8
 71
     3
 72
    10
 73
     6
 74
     0
 42
0.000000001
 43
0.00000001
 40
0.0
 40
0.0
 40
0.0
 40
0.0
 40
0.5
 40
0.5
 40
1.0
 40
1.0
 40
1.0
 40
1.0
 10
147.5380437147622
 20
148.4559497966542
 30
0.0
 10
147.2276658502014
 20
148.4590423922085
 30
0.0
 10
146.9236761463636
 20
148.4673068941345
 30
0.0
 10
146.328747876573
 20
148.4928676554779
 30
0.0
 10
146.0488188528194
 20
148.5096888708791
 30
0.0
 10
145.7880437147623
 20
148.5287718648234
 30
0.0
  0
LINE
  5
D7
330
1F
100
AcDbEntity
  8
0
  6
Continuous
 62
     7
370
    25
100
AcDbLine
 10
148.5380437356
 20
91.9089119267
 30
0.0
 11
148.5380437356
 21
103.3239911628
 31
0.0
  0
LINE
  5
D8
330
1F
100
AcDbEntity
  8
0
  6
Continuous
 62
     7
370
    25
100
AcDbLine
 10
135.602861656
 20
95.9147687387
 30
0.0
 11
135.602861656
 21
145.7982461285
 31
0.0
  0
LINE
  5
D9
330
1F
100
AcDbEntity
  8
0
  6
Continuous
 62
     7
370
    25
100
AcDbLine
 10
119.6579858792
 20
97.1151708942
 30
0.0
 11
119.6579858792
 21
96.7154882234
 31
0.0
  0
SPLINE
  5
DA
330
1F
100
AcDbEntity
  8
0
  6
Continuous
 62
     7
370
    25
100
AcDbSpline
210
0.0
220
0.0
230
1.0
 70
     8
 71
     3
 72
    26
 73
    22
 74
     0
 42
0.000000001
 43
0.00000001
 40
0.0
 40
0.0
 40
0.0
 40
0.0
 40
0.0241259796969038
 40
0.048215991228259
 40
0.0723203915136643
 40
0.0964895678725153
 40
0.1207736231978452
 40
0.1452220711257179
 40
0.1698835501670319
 40
0.1948055644482148
 40
0.2200342569523467
 40
0.2456142191612283
 40
0.369097148691835
 40
0.4940698769485373
 40
0.6192566784762581
 40
0.7454656653603327
 40
0.7971495824713788
 40
0.8481710308405456
 40
0.8988013269235281
 40
0.9493179290492212
 40
1.0
 40
1.0
 40
1.0
 40
1.0
 10
114.7181015615609
 20
98.93709451970794
 30
0.0
 10
114.7833506201118
 20
98.93327389022703
 30
0.0
 10
114.9137514607936
 20
98.92563832724252
 30
0.0
 10
115.1087312790932
 20
98.90971807688054
 30
0.0
 10
115.3028604163594
 20
98.89055987572954
 30
0.0
 10
115.496121756455
 20
98.86786546199208
 30
0.0
 10
115.6885169349298
 20
98.84175309540424
 30
0.0
 10
115.8800425134303
 20
98.81224128894964
 30
0.0
 10
116.0706980458143
 20
98.77938692835497
 30
0.0
 10
116.2604780449103
 20
98.74325061891464
 30
0.0
 10
116.4493966655627
 20
98.70389632606887
 30
0.0
 10
116.8761410787331
 20
98.60749756321039
 30
0.0
 10
117.5106134059112
 20
98.4308614843397
 30
0.0
 10
118.2502892582591
 20
98.15274225080705
 30
0.0
 10
118.8570365010911
 20
97.86139689108373
 30
0.0
 10
119.2178283173096
 20
97.63391970106491
 30
0.0
 10
119.4200023730739
 20
97.47450846397182
 30
0.0
 10
119.5268258290591
 20
97.37320931926324
 30
0.0
 10
119.6024365453573
 20
97.27927597953251
 30
0.0
 10
119.6495992180486
 20
97.19215633552375
 30
0.0
 10
119.6551872723369
 20
97.14086120526075
 30
0.0
 10
119.6579858679637
 20
97.11517170408068
 30
0.0
  0
LINE
  5
DB
330
1F
100
AcDbEntity
  8
0
  6
Continuous
 62
     7
370
    25
100
AcDbLine
 10
112.8032282126
 20
99.0426044297
 30
0.0
 11
114.7181019318
 21
98.9370948952
 31
0.0
  0
SPLINE
  5
DC
330
1F
100
AcDbEntity
  8
0
  6
Continuous
 62
     7
370
    25
100
AcDbSpline
210
0.0
220
0.0
230
1.0
 70
     8
 71
     3
 72
    14
 73
    10
 74
     0
 42
0.000000001
 43
0.00000001
 40
0.0
 40
0.0
 40
0.0
 40
0.0
 40
0.0789261963155847
 40
0.1582328720522156
 40
0.3308475394554963
 40
0.5000195457601538
 40
0.667035788356921
 40
0.8332395193656904
 40
1.0
 40
1.0
 40
1.0
 40
1.0
 10
110.607016056199
 20
98.93661152448297
 30
0.0
 10
110.6604115792411
 20
98.94464061767482
 30
0.0
 10
110.7674600290598
 20
98.96073750989859
 30
0.0
 10
110.9965307436222
 20
98.99053892351735
 30
0.0
 10
111.2954034818206
 20
99.02233288671052
 30
0.0
 10
111.6675465566218
 20
99.04848987670634
 30
0.0
 10
112.0431763556534
 20
99.06095509094102
 30
0.0
 10
112.4223686676832
 20
99.06057593126732
 30
0.0
 10
112.676133637231
 20
99.04860214300584
 30
0.0
 10
112.8032282822714
 20
99.04260523818641
 30
0.0
  0
SPLINE
  5
DD
330
1F
100
AcDbEntity
  8
0
  6
Continuous
 62
     7
370
    25
100
AcDbSpline
210
0.0
220
0.0
230
1.0
 70
     8
 71
     3
 72
     8
 73
     4
 74
     0
 42
0.000000001
 43
0.00000001
 40
0.0
 40
0.0
 40
0.0
 40
0.0
 40
1.0
 40
1.0
 40
1.0
 40
1.0
 10
105.2147223325546
 20
99.2312209069316
 30
0.0
 10
107.0120590179277
 20
99.1330850768742
 30
0.0
 10
108.8093957033007
 20
99.03486620183261
 30
0.0
 10
110.6067323886737
 20
98.93656751278205
 30
0.0
  0
SPLINE
  5
DE
330
1F
100
AcDbEntity
  8
0
  6
Continuous
 62
     7
370
    25
100
AcDbSpline
210
0.0
220
0.0
230
1.0
 70
     8
 71
     3
 72
    13
 73
     9
 74
     0
 42
0.000000001
 43
0.00000001
 40
0.0
 40
0.0
 40
0.0
 40
0.0
 40
0.1667030582308044
 40
0.3329480818053134
 40
0.4990671507274983
 40
0.6653938523718556
 40
0.8322612710550201
 40
1.0
 40
1.0
 40
1.0
 40
1.0
 10
104.1312181677092
 20
99.34788797127348
 30
0.0
 10
104.1923252104606
 20
99.34420134359974
 30
0.0
 10
104.3143713977638
 20
99.33683821765996
 30
0.0
 10
104.4967063430275
 20
99.32180371007097
 30
0.0
 10
104.6780105559012
 20
99.30390210183796
 30
0.0
 10
104.8582094159378
 20
99.28280152499204
 30
0.0
 10
105.0375133940762
 20
99.25885515395782
 30
0.0
 10
105.1555454196476
 20
99.24044233874515
 30
0.0
 10
105.2147151093992
 20
99.23121195776748
 30
0.0
  0
SPLINE
  5
DF
330
1F
100
AcDbEntity
  8
0
  6
Continuous
 62
     7
370
    25
100
AcDbSpline
210
0.0
220
0.0
230
1.0
 70
     8
 71
     3
 72
     8
 73
     4
 74
     0
 42
0.000000001
 43
0.00000001
 40
0.0
 40
0.0
 40
0.0
 40
0.0
 40
1.0
 40
1.0
 40
1.0
 40
1.0
 10
98.31304371477503
 20
99.66765520336712
 30
0.0
 10
100.2524351990864
 20
99.5611695534838
 30
0.0
 10
102.1918266833978
 20
99.45457898225241
 30
0.0
 10
104.1312181677093
 20
99.34788797127347
 30
0.0
  0
LINE
  5
E0
330
1F
100
AcDbEntity
  8
0
  6
Continuous
 62
     7
370
    25
100
AcDbLine
 10
98.3130447698
 20
99.6676559877
 30
0.0
 11
98.3130447698
 21
142.0454464239
 31
0.0
  0
SPLINE
  5
E1
330
1F
100
AcDbEntity
  8
0
  6
Continuous
 62
     7
370
    25
100
AcDbSpline
210
0.0
220
0.0
230
1.0
 70
     8
 71
     3
 72
     8
 73
     4
 74
     0
 42
0.000000001
 43
0.00000001
 40
0.0
 40
0.0
 40
0.0
 40
0.0
 40
1.0
 40
1.0
 40
1.0
 40
1.0
 10
104.1312181677093
 20
142.3651268959826
 30
0.0
 10
102.1918266833978
 20
142.2584358850037
 30
0.0
 10
100.2524351990864
 20
142.1518453137723
 30
0.0
 10
98.31304371477505
 20
142.045359663889
 30
0.0
  0
SPLINE
  5
E2
330
1F
100
AcDbEntity
  8
0
  6
Continuous
 62
     7
370
    25
100
AcDbSpline
210
0.0
220
0.0
230
1.0
 70
     8
 71
     3
 72
    13
 73
     9
 74
     0
 42
0.000000001
 43
0.00000001
 40
0.0
 40
0.0
 40
0.0
 40
0.0
 40
0.1686319999748162
 40
0.3360343310905639
 40
0.5025367825908819
 40
0.6684737453788441
 40
0.8341822636915266
 40
1.0
 40
1.0
 40
1.0
 40
1.0
 10
105.2147132171762
 20
142.4818056717246
 30
0.0
 10
105.1552233211165
 20
142.4725311815283
 30
0.0
 10
105.0366773308414
 20
142.4540498309555
 30
0.0
 10
104.8568006352555
 20
142.4300190842213
 30
0.0
 10
104.6764103476275
 20
142.4088879767122
 30
0.0
 10
104.4952981755937
 20
142.3910092781261
 30
0.0
 10
104.3135373384262
 20
142.3760475169491
 30
0.0
 10
104.1920045705316
 20
142.3687679023701
 30
0.0
 10
104.1312181677092
 20
142.3651268959826
 30
0.0
  0
SPLINE
  5
E3
330
1F
100
AcDbEntity
  8
0
  6
Continuous
 62
     7
370
    25
100
AcDbSpline
210
0.0
220
0.0
230
1.0
 70
     8
 71
     3
 72
     8
 73
     4
 74
     0
 42
0.000000001
 43
0.00000001
 40
0.0
 40
0.0
 40
0.0
 40
0.0
 40
1.0
 40
1.0
 40
1.0
 40
1.0
 10
110.6069066336695
 20
142.7764568956696
 30
0.0
 10
108.8095119622315
 20
142.6781550364531
 30
0.0
 10
107.0121172907936
 20
142.5799329962944
 30
0.0
 10
105.2147226193556
 20
142.4817940064789
 30
0.0
  0
SPLINE
  5
E4
330
1F
100
AcDbEntity
  8
0
  6
Continuous
 62
     7
370
    25
100
AcDbSpline
210
0.0
220
0.0
230
1.0
 70
     8
 71
     3
 72
    18
 73
    14
 74
     0
 42
0.000000001
 43
0.00000001
 40
0.0
 40
0.0
 40
0.0
 40
0.0
 40
0.0923325137111259
 40
0.1843692047063178
 40
0.2763458873811051
 40
0.3684982175655905
 40
0.461059898830402
 40
0.5542609546533457
 40
0.6483261285442697
 40
0.7434734636505935
 40
0.8399130993120554
 40
0.9201660718299485
 40
1.0
 40
1.0
 40
1.0
 40
1.0
 10
112.8032282822714
 20
142.6704096290697
 30
0.0
 10
112.7328979787583
 20
142.6667383217648
 30
0.0
 10
112.5924627019064
 20
142.6594074695997
 30
0.0
 10
112.3821001754038
 20
142.6538168103551
 30
0.0
 10
112.1726565124874
 20
142.6522122202215
 30
0.0
 10
111.9641068421149
 20
142.6549444942199
 30
0.0
 10
111.7564632248396
 20
142.661867591808
 30
0.0
 10
111.5497250373
 20
142.6729502021008
 30
0.0
 10
111.3439029453352
 20
142.6881191429553
 30
0.0
 10
111.1389712665431
 20
142.7072731289162
 30
0.0
 10
110.9474905211474
 20
142.7289758229678
 30
0.0
 10
110.7697673690929
 20
142.7520053462317
 30
0.0
 10
110.661433374529
 20
142.7682687638739
 30
0.0
 10
110.6074081650757
 20
142.7763791870895
 30
0.0
  0
LINE
  5
E5
330
1F
100
AcDbEntity
  8
0
  6
Continuous
 62
     7
370
    25
100
AcDbLine
 10
114.7181019318
 20
142.775919972
 30
0.0
 11
112.8032282126
 21
142.6704104376
 31
0.0
  0
SPLINE
  5
E6
330
1F
100
AcDbEntity
  8
0
  6
Continuous
 62
     7
370
    25
100
AcDbSpline
210
0.0
220
0.0
230
1.0
 70
     8
 71
     3
 72
    25
 73
    21
 74
     0
 42
0.000000001
 43
0.00000001
 40
0.0
 40
0.0
 40
0.0
 40
0.0
 40
0.0280105225426479
 40
0.0559601148860778
 40
0.0839014045043132
 40
0.1118870776786396
 40
0.1399695827588963
 40
0.1682008401739896
 40
0.1966319670424239
 40
0.2253130233141486
 40
0.2542927850735853
 40
0.3799486436570562
 40
0.5057850221666559
 40
0.6313085886326678
 40
0.753206823801271
 40
0.8039473267958359
 40
0.8535894438558028
 40
0.9025339722397656
 40
0.9511970353793487
 40
1.0
 40
1.0
 40
1.0
 40
1.0
 10
119.6579858679637
 20
144.5978431631754
 30
0.0
 10
119.6580230896976
 20
144.5838850233535
 30
0.0
 10
119.6580974521982
 20
144.555999106308
 30
0.0
 10
119.6456814015517
 20
144.5109553114222
 30
0.0
 10
119.6240768411979
 20
144.4636880872271
 30
0.0
 10
119.5923913715379
 20
144.4139889062511
 30
0.0
 10
119.550865233218
 20
144.3619516572785
 30
0.0
 10
119.4994344774882
 20
144.3075888946427
 30
0.0
 10
119.4381206027769
 20
144.2509376119777
 30
0.0
 10
119.3669102672774
 20
144.1920200503125
 30
0.0
 10
119.1960736600739
 20
144.0632034744895
 30
0.0
 10
118.858341426637
 20
143.8530000903463
 30
0.0
 10
118.2467867624413
 20
143.5620745687546
 30
0.0
 10
117.5105519272927
 20
143.2835477525323
 30
0.0
 10
116.8240658556434
 20
143.0892510467981
 30
0.0
 10
116.2753617094917
 20
142.9686602343451
 30
0.0
 10
115.8933255309858
 20
142.8988830685825
 30
0.0
 10
115.5061594322814
 20
142.8430940647268
 30
0.0
 10
115.1139327634959
 20
142.8003638799835
 30
0.0
 10
114.8501714953817
 20
142.7840759848382
 30
0.0
 10
114.7181015615609
 20
142.7759203475482
 30
0.0
  0
LINE
  5
E7
330
1F
100
AcDbEntity
  8
0
  6
Continuous
 62
     7
370
    25
100
AcDbLine
 10
119.6579858792
 20
144.9975266438
 30
0.0
 11
119.6579858792
 21
144.597843973
 31
0.0
  0
SPLINE
  5
E8
330
1F
100
AcDbEntity
  8
0
  6
Continuous
 62
     7
370
    25
100
AcDbSpline
210
0.0
220
0.0
230
1.0
 70
    11
 71
     3
 72
    39
 73
    35
 74
     0
 42
0.000000001
 43
0.00000001
 40
0.0
 40
0.0
 40
0.0
 40
0.0
 40
0.0310664058347798
 40
0.0621048158425991
 40
0.0931361551792733
 40
0.1235538293503577
 40
0.1538561545807598
 40
0.1850588072749104
 40
0.2160250992947717
 40
0.247186722379756
 40
0.2784462884306427
 40
0.3100516090231226
 40
0.3419834369140484
 40
0.3734259894013217
 40
0.4048604886785525
 40
0.4368740651833295
 40
0.468512068592407
 40
0.4998055358633177
 40
0.5309508213228404
 40
0.561864978443814
 40
0.5930416446592908
 40
0.6233742450133256
 40
0.6540913579073041
 40
0.6849496782718417
 40
0.7158160645167227
 40
0.7471731804043494
 40
0.7784514311866261
 40
0.8101295911560916
 40
0.8419598919689909
 40
0.8735175891922292
 40
0.9050808037889628
 40
0.9370235169792575
 40
0.9687441590033682
 40
0.9999999999999999
 40
0.9999999999999999
 40
0.9999999999999999
 40
0.9999999999999999
 10
108.6754598094892
 20
126.6647605632228
 30
0.0
 10
109.039588970454
 20
127.0441842211306
 30
0.0
 10
109.8423733071709
 20
127.7316659220241
 30
0.0
 10
111.2374117925529
 20
128.4975798964427
 30
0.0
 10
112.7486536322762
 20
128.9864608298735
 30
0.0
 10
114.3202500387987
 20
129.1484387035071
 30
0.0
 10
115.8877946558573
 20
128.9869938125487
 30
0.0
 10
117.383466649966
 20
128.5072694253047
 30
0.0
 10
118.7638829120015
 20
127.7539699571111
 30
0.0
 10
119.9609289655862
 20
126.7414840834507
 30
0.0
 10
120.9498367453276
 20
125.5069352960848
 30
0.0
 10
121.6893315396301
 20
124.0819836678028
 30
0.0
 10
122.1656354625195
 20
122.5310531882605
 30
0.0
 10
122.3333016349756
 20
120.9101243210344
 30
0.0
 10
122.188024034188
 20
119.285115375113
 30
0.0
 10
121.7290493235562
 20
117.7260893948414
 30
0.0
 10
121.0050634377029
 20
116.2894327961657
 30
0.0
 10
120.0292491823802
 20
115.0426885813652
 30
0.0
 10
118.8449246347311
 20
114.0164913921682
 30
0.0
 10
117.4767183790016
 20
113.2460871724475
 30
0.0
 10
115.9889805418693
 20
112.7472379619708
 30
0.0
 10
114.4193306814168
 20
112.566033882075
 30
0.0
 10
112.8430761630876
 20
112.7024570239934
 30
0.0
 10
111.3238006546128
 20
113.1668887568001
 30
0.0
 10
109.9227826205648
 20
113.9213228311692
 30
0.0
 10
108.7046461236657
 20
114.9447325667037
 30
0.0
 10
107.6970352205372
 20
116.1916748281969
 30
0.0
 10
106.9515613099871
 20
117.624764234465
 30
0.0
 10
106.4757254973634
 20
119.1814264596865
 30
0.0
 10
106.3119143823756
 20
120.8050894333922
 30
0.0
 10
106.4577265256409
 20
122.4326384773837
 30
0.0
 10
106.917870837818
 20
123.9973861657192
 30
0.0
 10
107.6473309026392
 20
125.4414122351816
 30
0.0
 10
108.3091102801012
 20
126.28302327488
 30
0.0
 10
108.6754598094892
 20
126.6647605632228
 30
0.0
  0
SPLINE
  5
E9
330
1F
100
AcDbEntity
  8
0
  6
Continuous
 62
     7
370
    25
100
AcDbSpline
210
0.0
220
0.0
230
1.0
 70
    11
 71
     3
 72
    47
 73
    43
 74
     0
 42
0.000000001
 43
0.00000001
 40
0.0
 40
0.0
 40
0.0
 40
0.0
 40
0.0185565231571564
 40
0.035175779134607
 40
0.0498587703163977
 40
0.0626072874024163
 40
0.0953681049684394
 40
0.1250235944851125
 40
0.1545621306648851
 40
0.187325415667866
 40
0.214037648789779
 40
0.2498478283714602
 40
0.2676842772503708
 40
0.2839032654384537
 40
0.2985082395935219
 40
0.311504112535417
 40
0.3429211892384783
 40
0.3729479206117491
 40
0.4028496296254227
 40
0.4364008870238722
 40
0.4619504140689453
 40
0.4999311490763327
 40
0.5173446591947486
 40
0.5335937024374298
 40
0.5486836298429361
 40
0.5626211828729782
 40
0.5950895091111661
 40
0.6250625446193601
 40
0.6549914305494098
 40
0.6874537010179621
 40
0.7162620319992257
 40
0.7500327075718594
 40
0.7698580256218077
 40
0.7869169820502812
 40
0.8012094712348541
 40
0.8127363282889571
 40
0.8457518306190162
 40
0.8751838152098743
 40
0.9050548231038161
 40
0.9375234850660229
 40
0.9660340097891252
 40
1.0
 40
1.0
 40
1.0
 40
1.0
 10
109.2192727298635
 20
125.9657265574193
 30
0.0
 10
109.0211741022526
 20
125.7663412683067
 30
0.0
 10
108.6682281222616
 20
125.3670122402044
 30
0.0
 10
108.2323211263654
 20
124.7483579456295
 30
0.0
 10
107.9023843893578
 20
124.1659973748786
 30
0.0
 10
107.521168657366
 20
123.3334690698907
 30
0.0
 10
107.194762838825
 20
122.2241829667253
 30
0.0
 10
107.0704097799954
 20
120.8130056381006
 30
0.0
 10
107.2117791479019
 20
119.4035156389303
 30
0.0
 10
107.6132769021309
 20
118.095448040209
 30
0.0
 10
108.2902262926272
 20
116.8107847392967
 30
0.0
 10
109.0634086503149
 20
115.8572969573853
 30
0.0
 10
109.858670351279
 20
115.1579929898543
 30
0.0
 10
110.4628104690415
 20
114.7314939499357
 30
0.0
 10
111.0425256636659
 20
114.4013424218266
 30
0.0
 10
111.8603269311029
 20
114.0253817797377
 30
0.0
 10
112.9599893604641
 20
113.6963799455134
 30
0.0
 10
114.3623570891242
 20
113.5628019290094
 30
0.0
 10
115.7898297725285
 20
113.698801808017
 30
0.0
 10
117.0870067562839
 20
114.0932899578604
 30
0.0
 10
118.381409779441
 20
114.7650837648099
 30
0.0
 10
119.3334064599019
 20
115.5276377547629
 30
0.0
 10
120.0428791885212
 20
116.3296768746912
 30
0.0
 10
120.4684839684606
 20
116.9254724796778
 30
0.0
 10
120.8091465963786
 20
117.5167420999773
 30
0.0
 10
121.1988119832485
 20
118.3613049310217
 30
0.0
 10
121.5305239448055
 20
119.4849568358882
 30
0.0
 10
121.6567651063032
 20
120.9028489960408
 30
0.0
 10
121.5124369950331
 20
122.3186741876127
 30
0.0
 10
121.1001586459646
 20
123.6538321629697
 30
0.0
 10
120.4208424649828
 20
124.9228004965526
 30
0.0
 10
119.634492106747
 20
125.8831229887927
 30
0.0
 10
118.8406444330262
 20
126.5785305956592
 30
0.0
 10
118.210920210988
 20
127.0146044716841
 30
0.0
 10
117.6496842916223
 20
127.3274536201555
 30
0.0
 10
116.8460758320696
 20
127.6946556209325
 30
0.0
 10
115.765927437578
 20
128.0173655588582
 30
0.0
 10
114.3563991175025
 20
128.1493097913712
 30
0.0
 10
112.9471941906687
 20
128.0154997703508
 30
0.0
 10
111.6064813408467
 20
127.6107457782458
 30
0.0
 10
110.3222128756654
 20
126.9324904297164
 30
0.0
 10
109.5818738480383
 20
126.330682789836
 30
0.0
 10
109.2192727298636
 20
125.9657265574193
 30
0.0
  0
SPLINE
  5
EA
330
1F
100
AcDbEntity
  8
0
  6
Continuous
 62
     7
370
    25
100
AcDbSpline
210
0.0
220
0.0
230
1.0
 70
     8
 71
     3
 72
     8
 73
     4
 74
     0
 42
0.000000001
 43
0.00000001
 40
0.0
 40
0.0
 40
0.0
 40
0.0
 40
1.0
 40
1.0
 40
1.0
 40
1.0
 10
97.39938389318309
 20
100.0782272143675
 30
0.0
 10
97.70393716689252
 20
99.94055047399222
 30
0.0
 10
98.00849044060192
 20
99.80368775307826
 30
0.0
 10
98.31304371431133
 20
99.66765520374713
 30
0.0
  0
SPLINE
  5
EB
330
1F
100
AcDbEntity
  8
0
  6
Continuous
 62
     7
370
    25
100
AcDbSpline
210
0.0
220
0.0
230
1.0
 70
     8
 71
     3
 72
     8
 73
     4
 74
     0
 42
0.000000001
 43
0.00000001
 40
0.0
 40
0.0
 40
0.0
 40
0.0
 40
1.0
 40
1.0
 40
1.0
 40
1.0
 10
96.81304371476229
 20
100.5942816968837
 30
0.0
 10
97.00759084729502
 20
100.4208748285639
 30
0.0
 10
97.20305186753406
 20
100.2488787335972
 30
0.0
 10
97.39938389319123
 20
100.0782272143654
 30
0.0
  0
LINE
  5
EC
330
1F
100
AcDbEntity
  8
0
  6
Continuous
 62
     7
370
    25
100
AcDbLine
 10
96.8130454552
 20
100.5942809713
 30
0.0
 11
96.8130454552
 21
141.118733896
 31
0.0
  0
SPLINE
  5
ED
330
1F
100
AcDbEntity
  8
0
  6
Continuous
 62
     7
370
    25
100
AcDbSpline
210
0.0
220
0.0
230
1.0
 70
     8
 71
     3
 72
     8
 73
     4
 74
     0
 42
0.000000001
 43
0.00000001
 40
0.0
 40
0.0
 40
0.0
 40
0.0
 40
1.0
 40
1.0
 40
1.0
 40
1.0
 10
97.39938389319475
 20
141.6347876528938
 30
0.0
 10
97.20305186753639
 20
141.464136133661
 30
0.0
 10
97.00759084729619
 20
141.2921400386932
 30
0.0
 10
96.81304371476229
 20
141.1187331703724
 30
0.0
  0
SPLINE
  5
EE
330
1F
100
AcDbEntity
  8
0
  6
Continuous
 62
     7
370
    25
100
AcDbSpline
210
0.0
220
0.0
230
1.0
 70
     8
 71
     3
 72
     8
 73
     4
 74
     0
 42
0.000000001
 43
0.00000001
 40
0.0
 40
0.0
 40
0.0
 40
0.0
 40
1.0
 40
1.0
 40
1.0
 40
1.0
 10
98.31304371431136
 20
142.045359663509
 30
0.0
 10
98.00849044060583
 20
141.9093271141796
 30
0.0
 10
97.70393716690029
 20
141.7724643932673
 30
0.0
 10
97.39938389319475
 20
141.6347876528938
 30
0.0
  0
SPLINE
  5
EF
330
1F
100
AcDbEntity
  8
0
  6
Continuous
 62
     7
370
    25
100
AcDbSpline
210
0.0
220
0.0
230
1.0
 70
     8
 71
     3
 72
     9
 73
     5
 74
     0
 42
0.000000001
 43
0.00000001
 40
0.0
 40
0.0
 40
0.0
 40
0.0
 40
0.9920587934989529
 40
1.0
 40
1.0
 40
1.0
 40
1.0
 10
112.4377884101873
 20
113.866808576559
 30
0.0
 10
112.5462579025691
 20
113.8387705828202
 30
0.0
 10
112.6555956687304
 20
113.8105081512763
 30
0.0
 10
112.6200289323238
 20
113.8191475233136
 30
0.0
 10
112.6197464895254
 20
113.819216130351
 30
0.0
  0
LINE
  5
F0
330
1F
100
AcDbEntity
  8
0
  6
Continuous
 62
     7
370
    25
100
AcDbLine
 10
164.763044579
 20
102.4565070253
 30
0.0
 11
164.763044579
 21
139.2565078419
 31
0.0
  0
LINE
  5
F1
330
1F
100
AcDbEntity
  8
0
  6
Continuous
 62
     7
370
    25
100
AcDbLine
 10
119.6579858792
 20
144.597843973
 30
0.0
 11
119.012175141
 21
143.962724818
 31
0.0
  0
LINE
  5
F2
330
1F
100
AcDbEntity
  8
0
  6
Continuous
 62
     7
370
    25
100
AcDbLine
 10
119.6579858792
 20
97.1151708942
 30
0.0
 11
119.0146748108
 21
97.7478332203
 31
0.0
  0
LINE
  5
F3
330
1F
100
AcDbEntity
  8
0
  6
Continuous
 62
     7
370
    25
100
AcDbLine
 10
166.7630430442
 20
112.8565070536
 30
0.0
 11
166.7630430442
 21
128.8565078136
 31
0.0
  0
LINE
  5
F4
330
1F
100
AcDbEntity
  8
0
  6
Continuous
 62
     7
370
    25
100
AcDbLine
 10
181.7630455029
 20
113.4565074314
 30
0.0
 11
181.7630455029
 21
128.2565074359
 31
0.0
  0
LINE
  5
F5
330
1F
100
AcDbEntity
  8
0
  6
Continuous
 62
     7
370
    25
100
AcDbLine
 10
118.7630444896
 20
97.610429613
 30
0.0
 11
118.7630444896
 21
97.9952968043
 31
0.0
  0
LINE
  5
F6
330
1F
100
AcDbEntity
  8
0
  6
Continuous
 62
     7
370
    25
100
AcDbLine
 10
118.7630444896
 20
143.717718063
 30
0.0
 11
118.7630444896
 21
144.1025852543
 31
0.0
  0
SPLINE
  5
F7
330
1F
100
AcDbEntity
  8
0
  6
Continuous
 62
     7
370
    25
100
AcDbSpline
210
0.0
220
0.0
230
1.0
 70
     8
 71
     3
 72
     9
 73
     5
 74
     0
 42
0.000000001
 43
0.00000001
 40
0.0
 40
0.0
 40
0.0
 40
0.0
 40
0.658318662577133
 40
1.0
 40
1.0
 40
1.0
 40
1.0
 10
109.3553938102728
 20
126.0762724411239
 30
0.0
 10
109.2519515376265
 20
125.9881927772296
 30
0.0
 10
109.0948205332566
 20
125.8543979011288
 30
0.0
 10
108.9662080915782
 20
125.6869567071947
 30
0.0
 10
108.9222636204963
 20
125.6297451761117
 30
0.0
  0
SPLINE
  5
F8
330
1F
100
AcDbEntity
  8
0
  6
Continuous
 62
     7
370
    25
100
AcDbSpline
210
0.0
220
0.0
230
1.0
 70
     8
 71
     3
 72
     9
 73
     5
 74
     0
 42
0.000000001
 43
0.00000001
 40
0.0
 40
0.0
 40
0.0
 40
0.0
 40
0.4215719596259527
 40
1.0
 40
1.0
 40
1.0
 40
1.0
 10
111.7318309974676
 20
114.1092234608283
 30
0.0
 10
111.8658663860118
 20
114.0567921263969
 30
0.0
 10
112.1838082829615
 20
113.9324211068494
 30
0.0
 10
112.3537628331362
 20
113.8886310678504
 30
0.0
 10
112.4520693105465
 20
113.8633016814043
 30
0.0
  0
LINE
  5
F9
330
1F
100
AcDbEntity
  8
0
  6
HIDDEN
 62
     7
370
    18
100
AcDbLine
 10
184.763044132
 20
114.3565072995
 30
0.0
 11
184.763044132
 21
127.3565075677
 31
0.0
  0
LINE
  5
FA
330
1F
100
AcDbEntity
  8
0
  6
HIDDEN
 62
     7
370
    18
100
AcDbLine
 10
192.7630454433
 20
114.7565075513
 30
0.0
 11
192.7630454433
 21
126.9565073159
 31
0.0
  0
LINE
  5
FB
330
1F
100
AcDbEntity
  8
0
  6
HIDDEN
 62
     7
370
    18
100
AcDbLine
 10
184.763044132
 20
116.4565074575
 30
0.0
 11
184.763044132
 21
125.2565074098
 31
0.0
  0
LINE
  5
FC
330
1F
100
AcDbEntity
  8
0
  6
HIDDEN
 62
     7
370
    18
100
AcDbLine
 10
160.4535430801
 20
124.8565076236
 30
0.0
 11
160.4535430801
 21
116.8565072436
 31
0.0
  0
LINE
  5
FD
330
1F
100
AcDbEntity
  8
0
  6
HIDDEN
 62
     7
370
    18
100
AcDbLine
 10
159.7630437595
 20
124.1660073717
 30
0.0
 11
159.7630437595
 21
117.5470074956
 31
0.0
  0
LINE
  5
FE
330
1F
100
AcDbEntity
  8
0
  6
HIDDEN
 62
     7
370
    18
100
AcDbLine
 10
192.7630454433
 20
117.8090073951
 30
0.0
 11
192.7630454433
 21
120.8565074336
 31
0.0
  0
LINE
  5
FF
330
1F
100
AcDbEntity
  8
0
  6
HIDDEN
 62
     7
370
    18
100
AcDbLine
 10
188.7630447876
 20
123.9040074721
 30
0.0
 11
188.7630447876
 21
122.3802574529
 31
0.0
  0
LINE
  5
100
330
1F
100
AcDbEntity
  8
0
  6
HIDDEN
 62
     7
370
    18
100
AcDbLine
 10
188.7630447876
 20
122.3802574529
 30
0.0
 11
188.7630447876
 21
123.9040074721
 31
0.0
  0
LINE
  5
101
330
1F
100
AcDbEntity
  8
0
  6
HIDDEN
 62
     7
370
    18
100
AcDbLine
 10
188.7630447876
 20
119.3327574144
 30
0.0
 11
188.7630447876
 21
122.3802574529
 31
0.0
  0
LINE
  5
102
330
1F
100
AcDbEntity
  8
0
  6
HIDDEN
 62
     7
370
    18
100
AcDbLine
 10
188.7630447876
 20
117.8090073951
 30
0.0
 11
188.7630447876
 21
119.3327574144
 31
0.0
  0
LINE
  5
103
330
1F
100
AcDbEntity
  8
0
  6
HIDDEN
 62
     7
370
    18
100
AcDbLine
 10
188.7630447876
 20
119.3327574144
 30
0.0
 11
188.7630447876
 21
117.8090073951
 31
0.0
  0
LINE
  5
104
330
1F
100
AcDbEntity
  8
0
  6
HIDDEN
 62
     7
370
    18
100
AcDbLine
 10
188.7630447876
 20
122.3802574529
 30
0.0
 11
188.7630447876
 21
119.3327574144
 31
0.0
  0
LINE
  5
105
330
1F
100
AcDbEntity
  8
0
  6
HIDDEN
 62
     7
370
    18
100
AcDbLine
 10
188.7630447876
 20
119.3327574144
 30
0.0
 11
188.7630447876
 21
120.8565074336
 31
0.0
  0
LINE
  5
106
330
1F
100
AcDbEntity
  8
0
  6
HIDDEN
 62
     7
370
    18
100
AcDbLine
 10
188.7630447876
 20
122.3802574529
 30
0.0
 11
188.7630447876
 21
120.8565074336
 31
0.0
  0
LINE
  5
107
330
1F
100
AcDbEntity
  8
0
  6
HIDDEN
 62
     7
370
    18
100
AcDbLine
 10
188.7630447876
 20
120.8565074336
 30
0.0
 11
192.7630454433
 21
120.8565074336
 31
0.0
  0
LINE
  5
108
330
1F
100
AcDbEntity
  8
0
  6
HIDDEN
 62
     7
370
    18
100
AcDbLine
 10
192.7630454433
 20
123.9040074721
 30
0.0
 11
192.7630454433
 21
120.8565074336
 31
0.0
  0
LINE
  5
109
330
1F
100
AcDbEntity
  8
0
  6
HIDDEN
 62
     7
370
    18
100
AcDbLine
 10
188.7630447876
 20
117.8090073951
 30
0.0
 11
188.7630447876
 21
119.3327574144
 31
0.0
  0
LINE
  5
10A
330
1F
100
AcDbEntity
  8
0
  6
HIDDEN
 62
     7
370
    18
100
AcDbLine
 10
188.7630447876
 20
123.9040074721
 30
0.0
 11
188.7630447876
 21
122.3802574529
 31
0.0
  0
LINE
  5
10B
330
1F
100
AcDbEntity
  8
0
  6
HIDDEN
 62
     7
370
    18
100
AcDbLine
 10
188.7630447876
 20
117.8090073951
 30
0.0
 11
192.7630454433
 21
117.8090073951
 31
0.0
  0
LINE
  5
10C
330
1F
100
AcDbEntity
  8
0
  6
HIDDEN
 62
     7
370
    18
100
AcDbLine
 10
188.7630447876
 20
123.9040074721
 30
0.0
 11
192.7630454433
 21
123.9040074721
 31
0.0
  0
LINE
  5
10D
330
1F
100
AcDbEntity
  8
0
  6
HIDDEN
 62
     7
370
    18
100
AcDbLine
 10
181.7630455029
 20
124.8565076236
 30
0.0
 11
160.4535430801
 21
124.8565076236
 31
0.0
  0
LINE
  5
10E
330
1F
100
AcDbEntity
  8
0
  6
HIDDEN
 62
     7
370
    18
100
AcDbLine
 10
160.4535430801
 20
116.8565072436
 30
0.0
 11
181.7630455029
 21
116.8565072436
 31
0.0
  0
LINE
  5
10F
330
1F
100
AcDbEntity
  8
0
  6
HIDDEN
 62
     7
370
    18
100
AcDbLine
 10
160.4535430801
 20
124.8565076236
 30
0.0
 11
159.7630437595
 21
124.1660073717
 31
0.0
  0
LINE
  5
110
330
1F
100
AcDbEntity
  8
0
  6
HIDDEN
 62
     7
370
    18
100
AcDbLine
 10
159.7630437595
 20
117.5470074956
 30
0.0
 11
160.4535430801
 21
116.8565072436
 31
0.0
  0
LINE
  5
111
330
1F
100
AcDbEntity
  8
0
  6
HIDDEN
 62
     7
370
    18
100
AcDbLine
 10
188.7630447876
 20
123.9040074721
 30
0.0
 11
187.0035678279
 21
120.8565074336
 31
0.0
  0
LINE
  5
112
330
1F
100
AcDbEntity
  8
0
  6
HIDDEN
 62
     7
370
    18
100
AcDbLine
 10
187.0035678279
 20
120.8565074336
 30
0.0
 11
188.7630447876
 21
117.8090073951
 31
0.0
  0
DIMENSION
  5
113
330
1F
100
AcDbEntity
  8
VERMASSUNG
100
AcDbDimension
  2
_D
 10
212.1700756779
 20
128.8565074336
 30
0.0
 11
212.1700756779
 21
120.8565074336
 31
0.0
 70
   160
  1
%%c<>
 71
     2
 42
-1.0
  3
SLDDIMSTYLE0
100
AcDbAlignedDimension
 13
181.1630437148
 23
112.8565074336
 33
0.0
 14
181.1630437148
 24
128.8565074336
 34
0.0
 50
90.0
100
AcDbRotatedDimension
  0
DIMENSION
  5
11F
330
1F
100
AcDbEntity
  8
VERMASSUNG
100
AcDbDimension
  2
_D_1
 10
223.508448867
 20
101.8565074336
 30
0.0
 11
223.508448867
 21
120.8565074336
 31
0.0
 70
   160
  1
%%c<>
 71
     2
 42
-1.0
  3
SLDDIMSTYLE0
100
AcDbAlignedDimension
 13
164.1630437148
 23
139.8565074336
 33
0.0
 14
164.1630437148
 24
101.8565074336
 34
0.0
 50
90.0
100
AcDbRotatedDimension
  0
DIMENSION
  5
12A
330
1F
100
AcDbEntity
  8
VERMASSUNG
100
AcDbDimension
  2
_D_2
 10
164.7630437148
 20
157.5481947341
 30
0.0
 11
159.7630437148
 21
157.5481947341
 31
0.0
 70
   160
  1
<>
 71
     2
 42
-1.0
  3
SLDDIMSTYLE0
100
AcDbAlignedDimension
 13
154.7630437148
 23
152.3315074336
 33
0.0
 14
164.7630437148
 24
139.2565074336
 34
0.0
100
AcDbRotatedDimension
  0
DIMENSION
  5
134
330
1F
100
AcDbEntity
  8
VERMASSUNG
100
AcDbDimension
  2
_D_3
 10
164.7630437148
 20
164.2892975507
 30
0.0
 11
150.7630437148
 21
164.2892975507
 31
0.0
 70
   160
  1
<>
 71
     2
 42
-1.0
  3
SLDDIMSTYLE0
100
AcDbAlignedDimension
 13
136.7630437148
 23
152.1315074336
 33
0.0
 14
164.7630437148
 24
139.2565074336
 34
0.0
100
AcDbRotatedDimension
  0
DIMENSION
  5
13E
330
1F
100
AcDbEntity
  8
VERMASSUNG
100
AcDbDimension
  2
_D_4
 10
181.7630437148
 20
157.5481947341
 30
0.0
 11
173.2630437148
 21
157.5481947341
 31
0.0
 70
   160
  1
<>
 71
     2
 42
-1.0
  3
SLDDIMSTYLE0
100
AcDbAlignedDimension
 13
164.7630437148
 23
139.2565074336
 33
0.0
 14
181.7630437148
 24
128.2565074336
 34
0.0
100
AcDbRotatedDimension
  0
DIMENSION
  5
148
330
1F
100
AcDbEntity
  8
VERMASSUNG
100
AcDbDimension
  2
_D_5
 10
181.7630437148
 20
172.0674931083
 30
0.0
 11
139.2880437148
 21
172.0674931083
 31
0.0
 70
   160
  1
<>
 71
     2
 42
-1.0
  3
SLDDIMSTYLE0
100
AcDbAlignedDimension
 13
96.8130437148
 23
141.1187331704
 33
0.0
 14
181.7630437148
 24
125.7065074336
 34
0.0
100
AcDbRotatedDimension
  0
DIMENSION
  5
152
330
1F
100
AcDbEntity
  8
VERMASSUNG
100
AcDbDimension
  2
_D_6
 10
89.376989983
 20
152.3315074336
 30
0.0
 11
89.376989983
 21
120.8565074336
 31
0.0
 70
   160
  1
KM%%c<> XMZ
 71
     2
 42
-1.0
  3
SLDDIMSTYLE1
100
AcDbAlignedDimension
 13
136.9630437148
 23
89.3815074336
 33
0.0
 14
136.9630437148
 24
152.3315074336
 34
0.0
 50
90.0
100
AcDbRotatedDimension
  0
DIMENSION
  5
160
330
1F
100
AcDbEntity
  8
VERMASSUNG
100
AcDbDimension
  2
_D_7
 10
202.0853000677
 20
117.8090074336
 30
0.0
 11
202.0853000677
 21
120.8565074336
 31
0.0
 70
   160
  1
SW<>
 71
     2
 42
-1.0
  3
SLDDIMSTYLE2
100
AcDbAlignedDimension
 13
192.7630437148
 23
123.9040074336
 33
0.0
 14
192.7630437148
 24
117.8090074336
 34
0.0
 50
90.0
100
AcDbRotatedDimension
  0
LINE
  5
16E
330
1F
100
AcDbEntity
  8
VERMASSUNG
  6
CENTERX2
370
    18
100
AcDbLine
 10
194.3630437148
 20
120.8565074336
 30
0.0
 11
94.8130437148
 21
120.8565074336
 31
0.0
  0
SPLINE
  5
16F
330
1F
100
AcDbEntity
  8
0
  6
Continuous
 62
     7
370
    25
100
AcDbSpline
210
0.0
220
0.0
230
1.0
 70
     8
 71
     3
 72
    12
 73
     8
 74
     0
 42
0.000000001
 43
0.00000001
 40
0.0
 40
0.0
 40
0.0
 40
0.0
 40
0.0875911732935251
 40
0.3181261558531705
 40
0.549695348701843
 40
0.7911941833920694
 40
1.0
 40
1.0
 40
1.0
 40
1.0
 10
239.3425025974812
 20
37.09256254384578
 30
0.0
 10
239.371579542612
 20
37.07315414156322
 30
0.0
 10
239.4771853523142
 20
37.00266392916802
 30
0.0
 10
239.7026668285665
 20
36.96707444507172
 30
0.0
 10
239.9942120642125
 20
36.9864090895906
 30
0.0
 10
240.2834317839246
 20
37.08056468163295
 30
0.0
 10
240.4691537876001
 20
37.19274458517565
 30
0.0
 10
240.5552728950261
 20
37.24476229429481
 30
0.0
  0
SPLINE
  5
170
330
1F
100
AcDbEntity
  8
0
  6
Continuous
 62
     7
370
    25
100
AcDbSpline
210
0.0
220
0.0
230
1.0
 70
     8
 71
     3
 72
    18
 73
    14
 74
     0
 42
0.000000001
 43
0.00000001
 40
0.0
 40
0.0
 40
0.0
 40
0.0
 40
0.0519346811681252
 40
0.1492760490718901
 40
0.2463165504501993
 40
0.3431644577339338
 40
0.4401284770813119
 40
0.5374779135893547
 40
0.6355972790977674
 40
0.7347741039821298
 40
0.834368781941448
 40
0.9202234490366373
 40
1.0
 40
1.0
 40
1.0
 40
1.0
 10
240.5552728950261
 20
37.24476229429481
 30
0.0
 10
240.6105350024853
 20
37.28386932782121
 30
0.0
 10
240.7693750854387
 20
37.39627482111466
 30
0.0
 10
241.0178984215904
 20
37.63422087356496
 30
0.0
 10
241.2813500501189
 20
37.96551004090055
 30
0.0
 10
241.5021251198195
 20
38.33573202978907
 30
0.0
 10
241.670794136333
 20
38.72737000160703
 30
0.0
 10
241.7794406588575
 20
39.12453528794259
 30
0.0
 10
241.8214399290392
 20
39.51111899592732
 30
0.0
 10
241.7916416335203
 20
39.87234134079537
 30
0.0
 10
241.6876147996956
 20
40.17537728863541
 30
0.0
 10
241.5276067033854
 20
40.41561368237023
 30
0.0
 10
241.3812049401133
 20
40.50985183834296
 30
0.0
 10
241.3106902879498
 20
40.5552418025102
 30
0.0
  0
LINE
  5
171
330
1F
100
AcDbEntity
  8
0
  6
Continuous
 62
     7
370
    25
100
AcDbLine
 10
237.7313642391
 20
38.0094728653
 30
0.0
 11
239.3223537697
 21
37.0910141592
 31
0.0
  0
LINE
  5
172
330
1F
100
AcDbEntity
  8
0
  6
Continuous
 62
     7
370
    25
100
AcDbLine
 10
241.3221914385
 20
40.5552096966
 30
0.0
 11
239.7312019079
 21
41.4736684027
 31
0.0
  0
SPLINE
  5
173
330
1F
100
AcDbEntity
  8
0
  6
Continuous
 62
     7
370
    25
100
AcDbSpline
210
0.0
220
0.0
230
1.0
 70
     8
 71
     3
 72
    17
 73
    13
 74
     0
 42
0.000000001
 43
0.00000001
 40
0.0
 40
0.0
 40
0.0
 40
0.0
 40
0.0746994023269044
 40
0.1802468178318037
 40
0.2855846579192726
 40
0.3910487244108329
 40
0.4969320590444525
 40
0.6036527972479554
 40
0.7115237089638324
 40
0.8198491086000472
 40
0.9132299614570698
 40
1.0
 40
1.0
 40
1.0
 40
1.0
 10
250.7058487675829
 20
43.16233520943958
 30
0.0
 10
250.7759567694993
 20
43.22510384448725
 30
0.0
 10
250.9451247126998
 20
43.37656217446794
 30
0.0
 10
251.1802953570195
 20
43.68192881898256
 30
0.0
 10
251.401767793862
 20
44.05017023990968
 30
0.0
 10
251.5702492774665
 20
44.44233955097359
 30
0.0
 10
251.6789464766874
 20
44.83936159037254
 30
0.0
 10
251.7209313374573
 20
45.22598376252923
 30
0.0
 10
251.6911375258891
 20
45.5871959920151
 30
0.0
 10
251.587109402617
 20
45.89023434072315
 30
0.0
 10
251.4271020279832
 20
46.13047080921596
 30
0.0
 10
251.280700021309
 20
46.22470870153858
 30
0.0
 10
251.2101852008539
 20
46.27009857158304
 30
0.0
  0
LINE
  5
174
330
1F
100
AcDbEntity
  8
0
  6
Continuous
 62
     7
370
    25
100
AcDbLine
 10
251.2216866807
 20
46.2700666557
 30
0.0
 11
249.63069715
 21
47.1885253618
 31
0.0
  0
SPLINE
  5
175
330
1F
100
AcDbEntity
  8
0
  6
Continuous
 62
     7
370
    25
100
AcDbSpline
210
0.0
220
0.0
230
1.0
 70
     8
 71
     3
 72
    26
 73
    22
 74
     0
 42
0.000000001
 43
0.00000001
 40
0.0
 40
0.0
 40
0.0
 40
0.0
 40
0.042184148756703
 40
0.0939403819070809
 40
0.1460700598121435
 40
0.1993225951523567
 40
0.2536086518243614
 40
0.3084176522715764
 40
0.3633086140557545
 40
0.4181166270685311
 40
0.472838657498988
 40
0.5275145832968904
 40
0.582198345067576
 40
0.6369342608310409
 40
0.6917787544212635
 40
0.7467903847592013
 40
0.8020064862601051
 40
0.8573874061636263
 40
0.9125628268727959
 40
0.9668976865089339
 40
0.9999999999999999
 40
0.9999999999999999
 40
0.9999999999999999
 40
0.9999999999999999
 10
251.7662432258734
 20
34.18891122696581
 30
0.0
 10
251.8440835378509
 20
34.14219483425017
 30
0.0
 10
252.0174270531391
 20
34.03816154443934
 30
0.0
 10
252.3350493036944
 20
33.97527366795416
 30
0.0
 10
252.6949380518473
 20
33.98296626301926
 30
0.0
 10
253.0757463466581
 20
34.07564359238606
 30
0.0
 10
253.4680223714937
 20
34.24940068456122
 30
0.0
 10
253.8611770772009
 20
34.50115013781608
 30
0.0
 10
254.2428666735254
 20
34.82293957010616
 30
0.0
 10
254.6018651922401
 20
35.20472351196885
 30
0.0
 10
254.9283061669746
 20
35.6352411903047
 30
0.0
 10
255.2134525953815
 20
36.10242033529661
 30
0.0
 10
255.4495557933865
 20
36.59341723496852
 30
0.0
 10
255.6300339272335
 20
37.09492898426936
 30
0.0
 10
255.7495334653516
 20
37.59354237274909
 30
0.0
 10
255.8040484330342
 20
38.07623815100101
 30
0.0
 10
255.7904428452075
 20
38.53001047954098
 30
0.0
 10
255.7077692780093
 20
38.94322927520496
 30
0.0
 10
255.5532436659658
 20
39.298122907419
 30
0.0
 10
255.3676218285704
 20
39.56103262913247
 30
0.0
 10
255.2129655841738
 20
39.66845990356455
 30
0.0
 10
255.154415206774
 20
39.70913014927991
 30
0.0
  0
LINE
  5
176
330
1F
100
AcDbEntity
  8
0
  6
Continuous
 62
     7
370
    25
100
AcDbLine
 10
255.0639713626
 20
39.780442402
 30
0.0
 11
252.3769662073
 21
41.3316174604
 31
0.0
  0
LINE
  5
177
330
1F
100
AcDbEntity
  8
0
  6
Continuous
 62
     7
370
    25
100
AcDbLine
 10
249.1272304894
 20
35.7022998309
 30
0.0
 11
251.8142356447
 21
34.1511247725
 31
0.0
  0
LINE
  5
178
330
1F
100
AcDbEntity
  8
0
  6
Continuous
 62
     7
370
    25
100
AcDbLine
 10
250.4710439824
 20
40.9885464074
 30
0.0
 11
250.1821918732
 21
41.1552971806
 31
0.0
  0
LINE
  5
179
330
1F
100
AcDbEntity
  8
0
  6
Continuous
 62
     7
370
    25
100
AcDbLine
 10
248.1731755757
 20
37.6964005429
 30
0.0
 11
248.4712064782
 21
37.5243509651
 31
0.0
  0
LINE
  5
17A
330
1F
100
AcDbEntity
  8
0
  6
Continuous
 62
     7
370
    25
100
AcDbLine
 10
230.5924204028
 20
31.9832852066
 30
0.0
 11
232.2773855518
 21
31.0105755307
 31
0.0
  0
LINE
  5
17B
330
1F
100
AcDbEntity
  8
0
  6
Continuous
 62
     7
370
    25
100
AcDbLine
 10
248.0136068664
 20
58.2694639245
 30
0.0
 11
246.3286417174
 21
59.2421736004
 31
0.0
  0
LINE
  5
17C
330
1F
100
AcDbEntity
  8
0
  6
Continuous
 62
     7
370
    25
100
AcDbLine
 10
225.9841354714
 20
34.6435914712
 30
0.0
 11
228.2347864479
 21
33.3443183184
 31
0.0
  0
LINE
  5
17D
330
1F
100
AcDbEntity
  8
0
  6
Continuous
 62
     7
370
    25
100
AcDbLine
 10
243.9710077624
 20
60.6032067122
 30
0.0
 11
241.720356786
 21
61.902479865
 31
0.0
  0
SPLINE
  5
17E
330
1F
100
AcDbEntity
  8
0
  6
Continuous
 62
     7
370
    25
100
AcDbSpline
210
0.0
220
0.0
230
1.0
 70
     8
 71
     3
 72
    18
 73
    14
 74
     0
 42
0.000000001
 43
0.00000001
 40
0.0
 40
0.0
 40
0.0
 40
0.0
 40
0.0004660757274465
 40
0.1089820007464805
 40
0.2183176974466705
 40
0.3284528830640412
 40
0.4392011457785286
 40
0.550329152860388
 40
0.6616386264464182
 40
0.7729842497374471
 40
0.8842849970492854
 40
0.9955161080918066
 40
1.0
 40
1.0
 40
1.0
 40
1.0
 10
240.0568156178502
 20
34.05348198063226
 30
0.0
 10
240.0576215916429
 20
34.05331969884681
 30
0.0
 10
240.2460816021282
 20
34.01537351838257
 30
0.0
 10
240.6514397671232
 20
34.01637682098502
 30
0.0
 10
241.2690851164179
 20
34.06308802659814
 30
0.0
 10
241.912427236557
 20
34.20429487843317
 30
0.0
 10
242.5703049774147
 20
34.42576106312947
 30
0.0
 10
243.2374066885022
 20
34.72885800319898
 30
0.0
 10
243.9062307869621
 20
35.1100203042919
 30
0.0
 10
244.571112732924
 20
35.5632161452443
 30
0.0
 10
245.2219012707006
 20
36.09181947955073
 30
0.0
 10
245.6601307198599
 20
36.47825355140173
 30
0.0
 10
245.8721359588048
 20
36.70201105776648
 30
0.0
 10
245.8803510437217
 20
36.71068153649959
 30
0.0
  0
SPLINE
  5
17F
330
1F
100
AcDbEntity
  8
0
  6
Continuous
 62
     7
370
    25
100
AcDbSpline
210
0.0
220
0.0
230
1.0
 70
     8
 71
     3
 72
    13
 73
     9
 74
     0
 42
0.000000001
 43
0.00000001
 40
0.0
 40
0.0
 40
0.0
 40
0.0
 40
0.0366545949313775
 40
0.2390880089953494
 40
0.4415101708224023
 40
0.643637203170992
 40
0.8450674992633507
 40
1.0
 40
1.0
 40
1.0
 40
1.0
 10
250.2623625053941
 20
46.82387270148276
 30
0.0
 10
250.2620798252305
 20
46.87042563930325
 30
0.0
 10
250.2602359789776
 20
47.17407786182065
 30
0.0
 10
250.1918843478901
 20
47.69730075592899
 30
0.0
 10
250.0541308132131
 20
48.38311332409625
 30
0.0
 10
249.8423772847241
 20
49.00921412539689
 30
0.0
 10
249.5953888956429
 20
49.54022597311432
 30
0.0
 10
249.3903163190193
 20
49.82903384593486
 30
0.0
 10
249.3011588440766
 20
49.95459612787528
 30
0.0
  0
LINE
  5
180
330
1F
100
AcDbEntity
  8
0
  6
Continuous
 62
     7
370
    25
100
AcDbLine
 10
236.4565425853
 20
35.8002492133
 30
0.0
 11
238.7192843925
 21
34.4939961724
 31
0.0
  0
LINE
  5
181
330
1F
100
AcDbEntity
  8
0
  6
Continuous
 62
     7
370
    25
100
AcDbLine
 10
248.2185123315
 20
50.9489248325
 30
0.0
 11
245.9557705242
 21
52.2551778735
 31
0.0
  0
SPLINE
  5
182
330
1F
100
AcDbEntity
  8
0
  6
Continuous
 62
     7
370
    25
100
AcDbSpline
210
0.0
220
0.0
230
1.0
 70
     8
 71
     3
 72
    12
 73
     8
 74
     0
 42
0.000000001
 43
0.00000001
 40
0.0
 40
0.0
 40
0.0
 40
0.0
 40
0.0406139237248646
 40
0.2867037965802409
 40
0.5331569882537278
 40
0.7841369387935127
 40
1.0
 40
1.0
 40
1.0
 40
1.0
 10
247.5440282476075
 20
35.75949477948041
 30
0.0
 10
247.5613025659036
 20
35.74825296181545
 30
0.0
 10
247.6832462784189
 20
35.66889417277444
 30
0.0
 10
247.9527531308422
 20
35.59912564865649
 30
0.0
 10
248.3399870422606
 20
35.56058972985902
 30
0.0
 10
248.7312731467869
 20
35.60227725331588
 30
0.0
 10
248.9924502861534
 20
35.69109353074441
 30
0.0
 10
249.1132157156496
 20
35.73216119813644
 30
0.0
  0
SPLINE
  5
183
330
1F
100
AcDbEntity
  8
0
  6
Continuous
 62
     7
370
    25
100
AcDbSpline
210
0.0
220
0.0
230
1.0
 70
     8
 71
     3
 72
    12
 73
     8
 74
     0
 42
0.000000001
 43
0.00000001
 40
0.0
 40
0.0
 40
0.0
 40
0.0
 40
0.1759750934678112
 40
0.413230430834206
 40
0.6464574452929879
 40
0.8735112552894732
 40
1.0
 40
1.0
 40
1.0
 40
1.0
 10
252.3394156702025
 20
41.33988867201832
 30
0.0
 10
252.3178530696609
 20
41.45441625818297
 30
0.0
 10
252.2672190706324
 20
41.72335365631469
 30
0.0
 10
252.105196884971
 20
42.08672853091397
 30
0.0
 10
251.8674676859899
 20
42.41896498579442
 30
0.0
 10
251.6176975535321
 20
42.64826692452046
 30
0.0
 10
251.4348886418417
 20
42.73123768469454
 30
0.0
 10
251.3694841538846
 20
42.76092256183979
 30
0.0
  0
LINE
  5
184
330
1F
100
AcDbEntity
  8
0
  6
Continuous
 62
     7
370
    25
100
AcDbLine
 10
242.388299429
 20
38.7265999285
 30
0.0
 11
247.479468166
 21
35.7875307765
 31
0.0
  0
LINE
  5
185
330
1F
100
AcDbEntity
  8
0
  6
Continuous
 62
     7
370
    25
100
AcDbLine
 10
251.4791431744
 20
42.7159216612
 30
0.0
 11
246.3879744373
 21
45.6549908132
 31
0.0
  0
SPLINE
  5
186
330
1F
100
AcDbEntity
  8
0
  6
Continuous
 62
     7
370
    25
100
AcDbSpline
210
0.0
220
0.0
230
1.0
 70
     8
 71
     3
 72
    12
 73
     8
 74
     0
 42
0.000000001
 43
0.00000001
 40
0.0
 40
0.0
 40
0.0
 40
0.0
 40
0.1899862176553058
 40
0.4519561862400203
 40
0.7031655713227795
 40
0.9525198800705755
 40
1.0
 40
1.0
 40
1.0
 40
1.0
 10
248.3968939287361
 20
37.43439492707719
 30
0.0
 10
248.3610709484881
 20
37.45703958990708
 30
0.0
 10
248.2758520429672
 20
37.51090873671995
 30
0.0
 10
248.1738575355704
 20
37.67088525982637
 30
0.0
 10
248.0922034319283
 20
37.90476110198578
 30
0.0
 10
248.0659935324055
 20
38.11651798870449
 30
0.0
 10
248.0647682709657
 20
38.24179267460325
 30
0.0
 10
248.0645722844005
 20
38.2618309738568
 30
0.0
  0
SPLINE
  5
187
330
1F
100
AcDbEntity
  8
0
  6
Continuous
 62
     7
370
    25
100
AcDbSpline
210
0.0
220
0.0
230
1.0
 70
     8
 71
     3
 72
    20
 73
    16
 74
     0
 42
0.000000001
 43
0.00000001
 40
0.0
 40
0.0
 40
0.0
 40
0.0
 40
0.0430168931552736
 40
0.1259694682079373
 40
0.2094555835784578
 40
0.2933847045707365
 40
0.3775689403809427
 40
0.4617629183861344
 40
0.5456254027974019
 40
0.628905114130832
 40
0.7114204321751665
 40
0.7932706913498104
 40
0.8751481944999951
 40
0.9590639695523968
 40
1.0
 40
1.0
 40
1.0
 40
1.0
 10
248.0645722844005
 20
38.2618309738568
 30
0.0
 10
248.0661280927348
 20
38.32148383071603
 30
0.0
 10
248.0706840783982
 20
38.49616959029697
 30
0.0
 10
248.1229981900084
 20
38.81595852234589
 30
0.0
 10
248.2413664143718
 20
39.21388831855099
 30
0.0
 10
248.4159151893094
 20
39.61485762157342
 30
0.0
 10
248.63873455776
 20
39.99974168006319
 30
0.0
 10
248.900113223357
 20
40.35114475463459
 30
0.0
 10
249.1873754655837
 20
40.65309587414539
 30
0.0
 10
249.4858964489574
 20
40.8926835234867
 30
0.0
 10
249.7795176866125
 20
41.06065519921978
 30
0.0
 10
250.0523986327842
 20
41.15446579024429
 30
0.0
 10
250.2874793092357
 20
41.17286924815102
 30
0.0
 10
250.448595652979
 20
41.14761569578599
 30
0.0
 10
250.5216132933117
 20
41.09595710642772
 30
0.0
 10
250.5455540952561
 20
41.079019445187
 30
0.0
  0
LINE
  5
188
330
1F
100
AcDbEntity
  8
0
  6
Continuous
 62
     7
370
    25
100
AcDbLine
 10
234.9429675957
 20
61.6823617727
 30
0.0
 11
225.7457554121
 21
66.2630143825
 31
0.0
  0
LINE
  5
189
330
1F
100
AcDbEntity
  8
0
  6
Continuous
 62
     7
370
    25
100
AcDbLine
 10
214.2194076225
 20
46.2966309268
 30
0.0
 11
222.7855076281
 21
40.6227413305
 31
0.0
  0
LINE
  5
18A
330
1F
100
AcDbEntity
  8
0
  6
Continuous
 62
     7
370
    25
100
AcDbLine
 10
245.9727459906
 20
45.8110242888
 30
0.0
 11
245.6243828606
 21
45.8820005616
 31
0.0
  0
LINE
  5
18B
330
1F
100
AcDbEntity
  8
0
  6
Continuous
 62
     7
370
    25
100
AcDbLine
 10
241.809856159
 20
39.274330361
 30
0.0
 11
242.045529976
 21
39.0081493703
 31
0.0
  0
LINE
  5
18C
330
1F
100
AcDbEntity
  8
0
  6
Continuous
 62
     7
370
    25
100
AcDbLine
 10
241.9204644714
 20
39.1410089352
 30
0.0
 11
241.935668947
 21
39.1322315782
 31
0.0
  0
LINE
  5
18D
330
1F
100
AcDbEntity
  8
0
  6
Continuous
 62
     7
370
    25
100
AcDbLine
 10
245.8103541833
 20
45.8441102537
 30
0.0
 11
245.7951497077
 21
45.8528876107
 31
0.0
  0
LINE
  5
18E
330
1F
100
AcDbEntity
  8
0
  6
Continuous
 62
     7
370
    25
100
AcDbLine
 10
219.1988450642
 20
47.2431207925
 30
0.0
 11
219.1988450642
 21
46.8778020875
 31
0.0
  0
LINE
  5
18F
330
1F
100
AcDbEntity
  8
0
  6
Continuous
 62
     7
370
    25
100
AcDbLine
 10
223.0968118245
 20
66.6399827592
 30
0.0
 11
222.4572617158
 21
66.5527710038
 31
0.0
  0
LWPOLYLINE
  5
190
330
1F
100
AcDbEntity
  8
0
  6
Continuous
 62
     7
370
    25
100
AcDbPolyline
 90
       16
 70
   128
 43
0.0
 10
237.7313642391
 20
38.0094728653
 10
237.6646885833
 20
38.0534774133
 10
237.4792793283
 20
38.2593899009
 10
237.3613656171
 20
38.5452069218
 10
237.3173050382
 20
38.8955205624
 10
237.3494716447
 20
39.2914445457
 10
237.456132806
 20
39.7116353659
 10
237.6315374527
 20
40.1334398782
 10
237.8662295445
 20
40.5341185865
 10
238.1475571241
 20
40.8920709691
 10
238.4603532531
 20
41.187999327
 10
238.7877552407
 20
41.4059503506
 10
239.1121131063
 20
41.5341745482
 10
239.4159401883
 20
41.5657587667
 10
239.6828571677
 20
41.4990005358
 10
239.7312019079
 20
41.4736684027
  0
ARC
  5
191
330
1F
100
AcDbEntity
  8
0
  6
Continuous
 62
     7
370
    25
100
AcDbCircle
 10
241.0333460298
 20
38.6203602474
 30
0.0
 40
1.165478932728739
100
AcDbArc
 50
99.2771993145
 51
148.0261007543
  0
LINE
  5
192
330
1F
100
AcDbEntity
  8
0
  6
Continuous
 62
     7
370
    25
100
AcDbLine
 10
240.0380131843
 20
39.2330798581
 30
0.0
 11
240.0446825938
 21
39.2375196701
 31
0.0
  0
LINE
  5
193
330
1F
100
AcDbEntity
  8
0
  6
Continuous
 62
     7
370
    25
100
AcDbLine
 10
240.0380131843
 20
39.2330798581
 30
0.0
 11
240.0351208569
 21
39.2244456437
 31
0.0
  0
ARC
  5
194
330
1F
100
AcDbEntity
  8
0
  6
Continuous
 62
     7
370
    25
100
AcDbCircle
 10
241.3775795968
 20
38.1982030744
 30
0.0
 40
1.68978379663074
100
AcDbArc
 50
142.6038960436
 51
180.3547590349
  0
LINE
  5
195
330
1F
100
AcDbEntity
  8
0
  6
Continuous
 62
     7
370
    25
100
AcDbLine
 10
239.6849358635
 20
38.1791062821
 30
0.0
 11
239.6878281909
 21
38.1877404846
 31
0.0
  0
LINE
  5
196
330
1F
100
AcDbEntity
  8
0
  6
Continuous
 62
     7
370
    25
100
AcDbLine
 10
239.6849358635
 20
38.1791062821
 30
0.0
 11
239.6887126162
 21
38.1749117016
 31
0.0
  0
ARC
  5
197
330
1F
100
AcDbEntity
  8
0
  6
Continuous
 62
     7
370
    25
100
AcDbCircle
 10
240.1591657569
 20
38.1425417278
 30
0.0
 40
0.4715654490921573
100
AcDbArc
 50
176.0639132991
 51
267.9376579124
  0
LINE
  5
198
330
1F
100
AcDbEntity
  8
0
  6
Continuous
 62
     7
370
    25
100
AcDbLine
 10
240.1459723368
 20
37.6670871371
 30
0.0
 11
240.142195584
 21
37.6712817295
 31
0.0
  0
LINE
  5
199
330
1F
100
AcDbEntity
  8
0
  6
Continuous
 62
     7
370
    25
100
AcDbLine
 10
240.1459723368
 20
37.6670871371
 30
0.0
 11
240.1526417463
 21
37.6715269492
 31
0.0
  0
ARC
  5
19A
330
1F
100
AcDbEntity
  8
0
  6
Continuous
 62
     7
370
    25
100
AcDbCircle
 10
239.9647533512
 20
38.821761753
 30
0.0
 40
1.165479366148134
100
AcDbArc
 50
279.2772089685
 51
328.0260911004
  0
LINE
  5
19B
330
1F
100
AcDbEntity
  8
0
  6
Continuous
 62
     7
370
    25
100
AcDbLine
 10
240.960086131
 20
38.2090415561
 30
0.0
 11
240.9534170508
 21
38.2046019341
 31
0.0
  0
LINE
  5
19C
330
1F
100
AcDbEntity
  8
0
  6
Continuous
 62
     7
370
    25
100
AcDbLine
 10
240.960086131
 20
38.2090415561
 30
0.0
 11
240.9629787877
 21
38.2176759606
 31
0.0
  0
ARC
  5
19D
330
1F
100
AcDbEntity
  8
0
  6
Continuous
 62
     7
370
    25
100
AcDbCircle
 10
239.6205185113
 20
39.2439190445
 30
0.0
 40
1.689785329886451
100
AcDbArc
 50
322.6039138182
 51
0.3547412602
  0
LINE
  5
19E
330
1F
100
AcDbEntity
  8
0
  6
Continuous
 62
     7
370
    25
100
AcDbLine
 10
241.3131637811
 20
39.2630153221
 30
0.0
 11
241.3102714536
 21
39.2543811196
 31
0.0
  0
LINE
  5
19F
330
1F
100
AcDbEntity
  8
0
  6
Continuous
 62
     7
370
    25
100
AcDbLine
 10
241.3131637811
 20
39.2630153221
 30
0.0
 11
241.3093870284
 21
39.2672099026
 31
0.0
  0
ARC
  5
1A0
330
1F
100
AcDbEntity
  8
0
  6
Continuous
 62
     7
370
    25
100
AcDbCircle
 10
240.8389331632
 20
39.2995792241
 30
0.0
 40
0.4715661270916455
100
AcDbArc
 50
356.0639984157
 51
87.9375727958
  0
LINE
  5
1A1
330
1F
100
AcDbEntity
  8
0
  6
Continuous
 62
     7
370
    25
100
AcDbLine
 10
240.8521273078
 20
39.7750344671
 30
0.0
 11
240.8559040605
 21
39.7708398747
 31
0.0
  0
LINE
  5
1A2
330
1F
100
AcDbEntity
  8
0
  6
Continuous
 62
     7
370
    25
100
AcDbLine
 10
240.8521273078
 20
39.7750344671
 30
0.0
 11
240.8454578983
 21
39.7705946551
 31
0.0
  0
LINE
  5
1A3
330
1F
100
AcDbEntity
  8
0
  6
Continuous
 62
     7
370
    25
100
AcDbLine
 10
239.6878281909
 20
38.1877404846
 30
0.0
 11
239.6961870964
 21
38.2777751307
 31
0.0
  0
SPLINE
  5
1A4
330
1F
100
AcDbEntity
  8
0
  6
Continuous
 62
     7
370
    25
100
AcDbSpline
210
0.0
220
0.0
230
1.0
 70
     8
 71
     3
 72
     9
 73
     5
 74
     0
 42
0.000000001
 43
0.00000001
 40
0.0
 40
0.0
 40
0.0
 40
0.0
 40
0.6301006978067
 40
1.0
 40
1.0
 40
1.0
 40
1.0
 10
240.4842350404055
 20
39.63291915168409
 30
0.0
 10
240.5545006632835
 20
39.66842082099441
 30
0.0
 10
240.6660155737139
 20
39.72476367132594
 30
0.0
 10
240.7970050006662
 20
39.75821940320283
 30
0.0
 10
240.8454578982906
 20
39.77059465507845
 30
0.0
  0
SPLINE
  5
1A5
330
1F
100
AcDbEntity
  8
0
  6
Continuous
 62
     7
370
    25
100
AcDbSpline
210
0.0
220
0.0
230
1.0
 70
     8
 71
     3
 72
    10
 73
     6
 74
     0
 42
0.000000001
 43
0.00000001
 40
0.0
 40
0.0
 40
0.0
 40
0.0
 40
0.4395942917188702
 40
0.7571243719467823
 40
1.0
 40
1.0
 40
1.0
 40
1.0
 10
240.1421955840378
 20
37.67128172948746
 30
0.0
 10
240.0301743270194
 20
37.77063380606088
 30
0.0
 10
239.8372372815153
 20
37.94175040150876
 30
0.0
 10
239.7127133616339
 20
38.09963072008269
 30
0.0
 10
239.6959693466472
 20
38.15215016733787
 30
0.0
 10
239.6887126162179
 20
38.17491170161316
 30
0.0
  0
LINE
  5
1A6
330
1F
100
AcDbEntity
  8
0
  6
Continuous
 62
     7
370
    25
100
AcDbLine
 10
239.9651537956
 20
38.7834037677
 30
0.0
 11
240.0626746883
 21
39.2565086332
 31
0.0
  0
SPLINE
  5
1A7
330
1F
100
AcDbEntity
  8
0
  6
Continuous
 62
     7
370
    25
100
AcDbSpline
210
0.0
220
0.0
230
1.0
 70
     8
 71
     3
 72
     9
 73
     5
 74
     0
 42
0.000000001
 43
0.00000001
 40
0.0
 40
0.0
 40
0.0
 40
0.0
 40
0.4929559262176684
 40
1.0
 40
1.0
 40
1.0
 40
1.0
 10
239.7736062472864
 20
38.69315254474268
 30
0.0
 10
239.8021704808135
 20
38.71047404590831
 30
0.0
 10
239.8601152827885
 20
38.7456120780211
 30
0.0
 10
239.9298136510311
 20
38.77068877636844
 30
0.0
 10
239.9651537956008
 20
38.78340376765549
 30
0.0
  0
SPLINE
  5
1A8
330
1F
100
AcDbEntity
  8
0
  6
Continuous
 62
     7
370
    25
100
AcDbSpline
210
0.0
220
0.0
230
1.0
 70
     8
 71
     3
 72
    10
 73
     6
 74
     0
 42
0.000000001
 43
0.00000001
 40
0.0
 40
0.0
 40
0.0
 40
0.0
 40
0.4395942979903193
 40
0.7571241612678318
 40
0.9999999999999999
 40
0.9999999999999999
 40
0.9999999999999999
 40
0.9999999999999999
 10
240.8559040605485
 20
39.77083987474354
 30
0.0
 10
240.873955705728
 20
39.72573540259158
 30
0.0
 10
240.9050465018975
 20
39.64805085162357
 30
0.0
 10
241.1030269431199
 20
39.44776402046589
 30
0.0
 10
241.2469931150971
 20
39.32180126390868
 30
0.0
 10
241.3093870283685
 20
39.26720990261784
 30
0.0
  0
LINE
  5
1A9
330
1F
100
AcDbEntity
  8
0
  6
Continuous
 62
     7
370
    25
100
AcDbLine
 10
240.5904111836
 20
39.6802515155
 30
0.0
 11
241.3131637811
 21
39.2630153221
 31
0.0
  0
SPLINE
  5
1AA
330
1F
100
AcDbEntity
  8
0
  6
Continuous
 62
     7
370
    25
100
AcDbSpline
210
0.0
220
0.0
230
1.0
 70
     8
 71
     3
 72
    10
 73
     6
 74
     0
 42
0.000000001
 43
0.00000001
 40
0.0
 40
0.0
 40
0.0
 40
0.0
 40
0.439594409722516
 40
0.7571242175429957
 40
1.0
 40
1.0
 40
1.0
 40
1.0
 10
241.3102714536427
 20
39.25438111959291
 30
0.0
 10
241.2134793717725
 20
39.13282535670918
 30
0.0
 10
241.046771998727
 20
38.92346688939092
 30
0.0
 10
240.9600085409966
 20
38.53362639018834
 30
0.0
 10
240.9620807201024
 20
38.31320501229041
 30
0.0
 10
240.962978787735
 20
38.2176759605536
 30
0.0
  0
LINE
  5
1AB
330
1F
100
AcDbEntity
  8
0
  6
Continuous
 62
     7
370
    25
100
AcDbLine
 10
239.9651537956
 20
38.7834037677
 30
0.0
 11
240.960086131
 21
38.2090415561
 31
0.0
  0
SPLINE
  5
1AC
330
1F
100
AcDbEntity
  8
0
  6
Continuous
 62
     7
370
    25
100
AcDbSpline
210
0.0
220
0.0
230
1.0
 70
     8
 71
     3
 72
    11
 73
     7
 74
     0
 42
0.000000001
 43
0.00000001
 40
0.0
 40
0.0
 40
0.0
 40
0.0
 40
0.1297146836171119
 40
0.4834720420315137
 40
0.8215905648946462
 40
1.0
 40
1.0
 40
1.0
 40
1.0
 10
240.9534170507513
 20
38.20460193409911
 30
0.0
 10
240.905549722292
 20
38.19173208296808
 30
0.0
 10
240.7271388100383
 20
38.14376362609453
 30
0.0
 10
240.445380829493
 20
38.0233447350351
 30
0.0
 10
240.2472013974764
 20
37.83480175089223
 30
0.0
 10
240.1769177949284
 20
37.71344405626988
 30
0.0
 10
240.1526417462958
 20
37.67152694915255
 30
0.0
  0
LWPOLYLINE
  5
1AD
330
1F
100
AcDbEntity
  8
0
  6
Continuous
 62
     7
370
    25
100
AcDbPolyline
 90
       11
 70
   128
 43
0.0
 10
247.2759102476
 20
45.1423964775
 10
247.3556277189
 20
45.426492135
 10
247.5310323657
 20
45.8482966473
 10
247.7657244574
 20
46.2489753556
 10
248.0470517078
 20
46.6069275481
 10
248.359848166
 20
46.902856096
 10
248.6872501536
 20
47.1208071196
 10
249.0116080192
 20
47.2490313173
 10
249.3154354305
 20
47.2806157259
 10
249.5823520806
 20
47.2138573049
 10
249.63069715
 20
47.1885253618
  0
ARC
  5
1AE
330
1F
100
AcDbEntity
  8
0
  6
Continuous
 62
     7
370
    25
100
AcDbCircle
 10
250.9328412063
 20
44.3352166203
 30
0.0
 40
1.165479366148082
100
AcDbArc
 50
99.2772089685
 51
148.0260911004
  0
LINE
  5
1AF
330
1F
100
AcDbEntity
  8
0
  6
Continuous
 62
     7
370
    25
100
AcDbLine
 10
249.9375084265
 20
44.9479368172
 30
0.0
 11
249.9441775067
 21
44.9523764392
 31
0.0
  0
LINE
  5
1B0
330
1F
100
AcDbEntity
  8
0
  6
Continuous
 62
     7
370
    25
100
AcDbLine
 10
249.9375084265
 20
44.9479368172
 30
0.0
 11
249.9346157698
 21
44.9393024128
 31
0.0
  0
ARC
  5
1B1
330
1F
100
AcDbEntity
  8
0
  6
Continuous
 62
     7
370
    25
100
AcDbCircle
 10
251.2770760462
 20
43.9130593288
 30
0.0
 40
1.689785329886391
100
AcDbArc
 50
142.6039138182
 51
180.3547412602
  0
LINE
  5
1B2
330
1F
100
AcDbEntity
  8
0
  6
Continuous
 62
     7
370
    25
100
AcDbLine
 10
249.5844307764
 20
43.8939630512
 30
0.0
 11
249.5873231038
 21
43.9025972537
 31
0.0
  0
LINE
  5
1B3
330
1F
100
AcDbEntity
  8
0
  6
Continuous
 62
     7
370
    25
100
AcDbLine
 10
249.5844307764
 20
43.8939630512
 30
0.0
 11
249.5882075291
 21
43.8897684707
 31
0.0
  0
LINE
  5
1B4
330
1F
100
AcDbEntity
  8
0
  6
Continuous
 62
     7
370
    25
100
AcDbLine
 10
249.5993678829
 20
43.8010927866
 30
0.0
 11
249.5882075291
 21
43.8897684707
 31
0.0
  0
ARC
  5
1B5
330
1F
100
AcDbEntity
  8
0
  6
Continuous
 62
     7
370
    25
100
AcDbCircle
 10
249.7554019495
 20
44.6478522854
 30
0.0
 40
1.317226420077337
100
AcDbArc
 50
291.9816925643
 51
326.4286334339
  0
LINE
  5
1B6
330
1F
100
AcDbEntity
  8
0
  6
Continuous
 62
     7
370
    25
100
AcDbLine
 10
250.8595813732
 20
43.9238985152
 30
0.0
 11
250.8529119637
 21
43.9194587032
 31
0.0
  0
LINE
  5
1B7
330
1F
100
AcDbEntity
  8
0
  6
Continuous
 62
     7
370
    25
100
AcDbLine
 10
250.8595813732
 20
43.9238985152
 30
0.0
 11
250.8624737006
 21
43.9325327296
 31
0.0
  0
ARC
  5
1B8
330
1F
100
AcDbEntity
  8
0
  6
Continuous
 62
     7
370
    25
100
AcDbCircle
 10
249.5200149607
 20
44.9587752989
 30
0.0
 40
1.689783796630938
100
AcDbArc
 50
322.6038960436
 51
0.3547590349
  0
LINE
  5
1B9
330
1F
100
AcDbEntity
  8
0
  6
Continuous
 62
     7
370
    25
100
AcDbLine
 10
251.212658694
 20
44.9778720912
 30
0.0
 11
251.2097663665
 21
44.9692378887
 31
0.0
  0
LINE
  5
1BA
330
1F
100
AcDbEntity
  8
0
  6
Continuous
 62
     7
370
    25
100
AcDbLine
 10
251.212658694
 20
44.9778720912
 30
0.0
 11
251.2088819413
 21
44.9820666717
 31
0.0
  0
ARC
  5
1BB
330
1F
100
AcDbEntity
  8
0
  6
Continuous
 62
     7
370
    25
100
AcDbCircle
 10
250.7384288006
 20
45.0144366455
 30
0.0
 40
0.471565449092146
100
AcDbArc
 50
356.0639132991
 51
87.9376579124
  0
LINE
  5
1BC
330
1F
100
AcDbEntity
  8
0
  6
Continuous
 62
     7
370
    25
100
AcDbLine
 10
250.7516222207
 20
45.4898912362
 30
0.0
 11
250.7553989735
 21
45.4856966438
 31
0.0
  0
LINE
  5
1BD
330
1F
100
AcDbEntity
  8
0
  6
Continuous
 62
     7
370
    25
100
AcDbLine
 10
250.7516222207
 20
45.4898912362
 30
0.0
 11
250.7449528112
 21
45.4854514242
 31
0.0
  0
LINE
  5
1BE
330
1F
100
AcDbEntity
  8
0
  6
Continuous
 62
     7
370
    25
100
AcDbLine
 10
249.5873231038
 20
43.9025972537
 30
0.0
 11
249.5956820093
 21
43.9926318998
 31
0.0
  0
SPLINE
  5
1BF
330
1F
100
AcDbEntity
  8
0
  6
Continuous
 62
     7
370
    25
100
AcDbSpline
210
0.0
220
0.0
230
1.0
 70
     8
 71
     3
 72
     9
 73
     5
 74
     0
 42
0.000000001
 43
0.00000001
 40
0.0
 40
0.0
 40
0.0
 40
0.0
 40
0.6301006978067
 40
1.0
 40
1.0
 40
1.0
 40
1.0
 10
250.3837299533095
 20
45.34777592075694
 30
0.0
 10
250.4539955761876
 20
45.38327759006725
 30
0.0
 10
250.565510486618
 20
45.43962044039878
 30
0.0
 10
250.6964999135703
 20
45.47307617227568
 30
0.0
 10
250.7449528111947
 20
45.4854514241513
 30
0.0
  0
SPLINE
  5
1C0
330
1F
100
AcDbEntity
  8
0
  6
Continuous
 62
     7
370
    25
100
AcDbSpline
210
0.0
220
0.0
230
1.0
 70
     8
 71
     3
 72
     9
 73
     5
 74
     0
 42
0.000000001
 43
0.00000001
 40
0.0
 40
0.0
 40
0.0
 40
0.0
 40
0.2961943020099753
 40
0.9999999999999999
 40
0.9999999999999999
 40
0.9999999999999999
 40
0.9999999999999999
 10
249.6582289202944
 20
43.76711290092366
 30
0.0
 10
249.6442352369027
 20
43.78377703752043
 30
0.0
 10
249.5969902922942
 20
43.84003786523949
 30
0.0
 10
249.5918355007692
 20
43.86922582106402
 30
0.0
 10
249.5882075291219
 20
43.88976847068601
 30
0.0
  0
LINE
  5
1C1
330
1F
100
AcDbEntity
  8
0
  6
Continuous
 62
     7
370
    25
100
AcDbLine
 10
249.8646490378
 20
44.4982607268
 30
0.0
 11
249.9621696012
 21
44.9713654023
 31
0.0
  0
SPLINE
  5
1C2
330
1F
100
AcDbEntity
  8
0
  6
Continuous
 62
     7
370
    25
100
AcDbSpline
210
0.0
220
0.0
230
1.0
 70
     8
 71
     3
 72
     9
 73
     5
 74
     0
 42
0.000000001
 43
0.00000001
 40
0.0
 40
0.0
 40
0.0
 40
0.0
 40
0.4929549834633988
 40
1.0
 40
1.0
 40
1.0
 40
1.0
 10
249.6731011601905
 20
44.40800931381553
 30
0.0
 10
249.7016654002682
 20
44.42533081051072
 30
0.0
 10
249.7596103263487
 20
44.46046890075476
 30
0.0
 10
249.8293087827822
 20
44.48554567393919
 30
0.0
 10
249.8646490377771
 20
44.49826072681317
 30
0.0
  0
SPLINE
  5
1C3
330
1F
100
AcDbEntity
  8
0
  6
Continuous
 62
     7
370
    25
100
AcDbSpline
210
0.0
220
0.0
230
1.0
 70
     8
 71
     3
 72
    10
 73
     6
 74
     0
 42
0.000000001
 43
0.00000001
 40
0.0
 40
0.0
 40
0.0
 40
0.0
 40
0.4395942917188702
 40
0.7571243719467823
 40
1.0
 40
1.0
 40
1.0
 40
1.0
 10
250.7553989734526
 20
45.48569664381639
 30
0.0
 10
250.7734505765327
 20
45.44059209377048
 30
0.0
 10
250.8045413092881
 20
45.36290738591881
 30
0.0
 10
251.0025221983038
 20
45.16262126169656
 30
0.0
 10
251.1464881697365
 20
45.03665814227767
 30
0.0
 10
251.2088819412726
 20
44.98206667169069
 30
0.0
  0
LINE
  5
1C4
330
1F
100
AcDbEntity
  8
0
  6
Continuous
 62
     7
370
    25
100
AcDbLine
 10
250.4899060965
 20
45.3951082846
 30
0.0
 11
251.212658694
 21
44.9778720912
 31
0.0
  0
SPLINE
  5
1C5
330
1F
100
AcDbEntity
  8
0
  6
Continuous
 62
     7
370
    25
100
AcDbSpline
210
0.0
220
0.0
230
1.0
 70
     8
 71
     3
 72
    10
 73
     6
 74
     0
 42
0.000000001
 43
0.00000001
 40
0.0
 40
0.0
 40
0.0
 40
0.0
 40
0.439594409722516
 40
0.7571242175429957
 40
1.0
 40
1.0
 40
1.0
 40
1.0
 10
251.2097663665469
 20
44.96923788866575
 30
0.0
 10
251.1129742846766
 20
44.84768212578203
 30
0.0
 10
250.9462669116311
 20
44.63832365846377
 30
0.0
 10
250.8595034539007
 20
44.24848315926118
 30
0.0
 10
250.8615756330065
 20
44.02806178136325
 30
0.0
 10
250.862473700639
 20
43.93253272962644
 30
0.0
  0
LINE
  5
1C6
330
1F
100
AcDbEntity
  8
0
  6
Continuous
 62
     7
370
    25
100
AcDbLine
 10
249.8646490378
 20
44.4982607268
 30
0.0
 11
250.8595813732
 21
43.9238985152
 31
0.0
  0
SPLINE
  5
1C7
330
1F
100
AcDbEntity
  8
0
  6
Continuous
 62
     7
370
    25
100
AcDbSpline
210
0.0
220
0.0
230
1.0
 70
     8
 71
     3
 72
    11
 73
     7
 74
     0
 42
0.000000001
 43
0.00000001
 40
0.0
 40
0.0
 40
0.0
 40
0.0
 40
0.1546036781049637
 40
0.5762382012172528
 40
0.9792331884644909
 40
1.0
 40
1.0
 40
1.0
 40
1.0
 10
250.8529119636554
 20
43.91945870317195
 30
0.0
 10
250.8049936538933
 20
43.90659903660955
 30
0.0
 10
250.6263927243351
 20
43.85866853961877
 30
0.0
 10
250.3479224480383
 20
43.73759286170398
 30
0.0
 10
250.1770477790112
 20
43.58579541384784
 30
0.0
 10
250.1254759546759
 20
43.50289858750913
 30
0.0
 10
250.1229486330542
 20
43.49883615721359
 30
0.0
  0
LINE
  5
1C8
330
1F
100
AcDbEntity
  8
0
  6
Continuous
 62
     7
370
    25
100
AcDbLine
 10
255.0639713626
 20
39.780442402
 30
0.0
 11
255.1496563995
 21
39.7254626858
 31
0.0
  0
LWPOLYLINE
  5
1C9
330
1F
100
AcDbEntity
  8
0
  6
Continuous
 62
     7
370
    25
100
AcDbPolyline
 90
        3
 70
   128
 43
0.0
 10
251.8142356447
 20
34.1511247725
 10
251.8019941255
 20
34.1582988923
 10
251.7679473744
 20
34.1794138677
  0
LWPOLYLINE
  5
1CA
330
1F
100
AcDbEntity
  8
0
  6
Continuous
 62
     7
370
    25
100
AcDbPolyline
 90
       18
 70
   128
 43
0.0
 10
251.9011468915
 20
41.4785117699
 10
251.5273153758
 20
41.4626933827
 10
251.1285677876
 20
41.3521968281
 10
250.7177201796
 20
41.1505732839
 10
250.3079774962
 20
40.8643032068
 10
249.9125092538
 20
40.5025874996
 10
249.544026025
 20
40.07705207
 10
249.214371239
 20
39.6013739675
 10
248.9341403006
 20
39.0908419223
 10
248.7123400408
 20
38.5618646902
 10
248.5560993684
 20
38.0314442217
 10
248.4704396855
 20
37.5166284829
 10
248.4581145311
 20
37.0339642463
 10
248.5195200198
 20
36.5989647515
 10
248.6526821645
 20
36.2256109849
 10
248.8533214137
 20
35.9259031436
 10
249.1149889702
 20
35.7094739507
 10
249.1272304894
 20
35.7022998309
  0
LWPOLYLINE
  5
1CB
330
1F
100
AcDbEntity
  8
0
  6
Continuous
 62
     7
370
    25
100
AcDbPolyline
 90
        3
 70
   128
 43
0.0
 10
252.3769662073
 20
41.3316174604
 10
252.2380469019
 20
41.3991432504
 10
251.9011468915
 20
41.4785117699
  0
LINE
  5
1CC
330
1F
100
AcDbEntity
  8
0
  6
Continuous
 62
     7
370
    25
100
AcDbLine
 10
252.5030719653
 20
36.9804827809
 30
0.0
 11
252.5030719653
 21
35.5437996517
 31
0.0
  0
LINE
  5
1CD
330
1F
100
AcDbEntity
  8
0
  6
Continuous
 62
     7
370
    25
100
AcDbLine
 10
252.5030719653
 20
35.5437996517
 30
0.0
 11
253.5805259367
 21
35.4474590252
 31
0.0
  0
LINE
  5
1CE
330
1F
100
AcDbEntity
  8
0
  6
Continuous
 62
     7
370
    25
100
AcDbLine
 10
254.6579799082
 20
36.7878015278
 30
0.0
 11
253.5805259367
 21
35.4474590252
 31
0.0
  0
LINE
  5
1CF
330
1F
100
AcDbEntity
  8
0
  6
Continuous
 62
     7
370
    25
100
AcDbLine
 10
254.6579799082
 20
38.224484657
 30
0.0
 11
254.6579799082
 21
36.7878015278
 31
0.0
  0
LINE
  5
1D0
330
1F
100
AcDbEntity
  8
0
  6
Continuous
 62
     7
370
    25
100
AcDbLine
 10
254.6579799082
 20
38.224484657
 30
0.0
 11
253.5805259367
 21
38.3208252836
 31
0.0
  0
LINE
  5
1D1
330
1F
100
AcDbEntity
  8
0
  6
Continuous
 62
     7
370
    25
100
AcDbLine
 10
252.5030719653
 20
36.9804827809
 30
0.0
 11
253.5805259367
 21
38.3208252836
 31
0.0
  0
LINE
  5
1D2
330
1F
100
AcDbEntity
  8
0
  6
Continuous
 62
     7
370
    25
100
AcDbLine
 10
252.5030707305
 20
36.0694606761
 30
0.0
 11
253.5805259367
 21
35.4474590252
 31
0.0
  0
ARC
  5
1D3
330
1F
100
AcDbEntity
  8
0
  6
Continuous
 62
     7
370
    25
100
AcDbCircle
 10
250.7178639778
 20
38.5362733387
 30
0.0
 40
2.552649879969626
100
AcDbArc
 50
321.1211961458
 51
343.2437586151
  0
LWPOLYLINE
  5
1D4
330
1F
100
AcDbEntity
  8
0
  6
Continuous
 62
     7
370
    25
100
AcDbPolyline
 90
        3
 70
   128
 43
0.0
 10
252.5030717389
 20
36.7130870263
 10
252.578635914
 20
36.7890851481
 10
252.7050391283
 20
36.9340385459
  0
LINE
  5
1D5
330
1F
100
AcDbEntity
  8
0
  6
Continuous
 62
     7
370
    25
100
AcDbLine
 10
253.243766114
 20
37.6042097735
 30
0.0
 11
254.6579799082
 21
36.7878015278
 31
0.0
  0
LINE
  5
1D6
330
1F
100
AcDbEntity
  8
0
  6
Continuous
 62
     7
370
    25
100
AcDbLine
 10
253.243766114
 20
37.9018996263
 30
0.0
 11
253.243766114
 21
37.6042097735
 31
0.0
  0
LINE
  5
1D7
330
1F
100
AcDbEntity
  8
0
  6
Continuous
 62
     7
370
    25
100
AcDbLine
 10
252.7050391283
 20
36.9340385459
 30
0.0
 11
252.5030717389
 21
36.6827930364
 31
0.0
  0
LINE
  5
1D8
330
1F
100
AcDbEntity
  8
0
  6
Continuous
 62
     7
370
    25
100
AcDbLine
 10
253.243766114
 20
37.6042097735
 30
0.0
 11
252.7050391283
 21
36.9340385459
 31
0.0
  0
LWPOLYLINE
  5
1D9
330
1F
100
AcDbEntity
  8
0
  6
Continuous
 62
     7
370
    25
100
AcDbPolyline
 90
       45
 70
   128
 43
0.0
 10
229.0174032107
 20
38.2159083807
 10
229.0534888155
 20
39.2707605617
 10
229.1615092126
 20
40.3604338625
 10
229.3407656863
 20
41.4778623175
 10
229.5900945883
 20
42.6157982542
 10
229.9078791918
 20
43.7668621023
 10
230.2920589113
 20
44.923588591
 10
230.7401424727
 20
46.078476748
 10
231.2492230606
 20
47.2240355263
 10
231.8159987328
 20
48.3528358933
 10
232.4367954696
 20
49.4575575978
 10
233.1075849542
 20
50.5310347959
 10
233.8240188171
 20
51.5663069983
 10
234.5814497099
 20
52.556660134
 10
235.374965549
 20
53.4956698934
 10
236.1994201383
 20
54.3772483031
 10
237.0494664258
 20
55.1956766138
 10
237.9195917353
 20
55.9456469313
 10
238.8041528343
 20
56.6222961498
 10
239.6974131005
 20
57.2212365327
 10
240.5935793178
 20
57.7385822779
 10
241.4868395839
 20
58.1709782458
 10
242.371400683
 20
58.5156215334
 10
243.2415259925
 20
58.7702765141
 10
244.0915722799
 20
58.9332907564
 10
244.9160268693
 20
59.0036073538
 10
245.7095427083
 20
58.980771481
 10
246.4669736011
 20
58.8649294395
 10
247.183407464
 20
58.6568341683
 10
247.8541969486
 20
58.357834024
 10
248.4749936854
 20
57.9698689751
 10
249.0417693576
 20
57.4954538703
 10
249.5508499455
 20
56.9376670278
 10
249.9989335069
 20
56.3001251387
 10
250.3831132264
 20
55.5869631125
 10
250.70089783
 20
54.8028055579
 10
250.950226732
 20
53.9527386439
 10
251.1294832056
 20
53.042275308
 10
251.2375036027
 20
52.0773197031
 10
251.2735892075
 20
51.0641310746
 10
251.2375036027
 20
50.0092788936
 10
251.1294832056
 20
48.9196055928
 10
250.950226732
 20
47.8021771378
 10
250.70089783
 20
46.6642412011
 10
250.6804796575
 20
46.5824982992
  0
LWPOLYLINE
  5
1DA
330
1F
100
AcDbEntity
  8
0
  6
Continuous
 62
     7
370
    25
100
AcDbPolyline
 90
       27
 70
   128
 43
0.0
 10
245.0045513855
 20
35.8845334198
 10
244.9160268693
 20
35.7843695619
 10
244.0915722799
 20
34.9027911521
 10
243.2415259925
 20
34.0843628415
 10
242.371400683
 20
33.334392524
 10
241.4868395839
 20
32.6577433055
 10
240.5935793178
 20
32.0588029226
 10
239.6974131005
 20
31.5414571774
 10
238.8041528343
 20
31.1090612095
 10
237.9195917353
 20
30.7644179219
 10
237.0494664258
 20
30.5097629411
 10
236.1994201383
 20
30.3467486989
 10
235.374965549
 20
30.2764321014
 10
234.5814497099
 20
30.2992679743
 10
233.8240188171
 20
30.4151100158
 10
233.1075849542
 20
30.623205287
 10
232.4367954696
 20
30.9222054313
 10
231.8159987328
 20
31.3101704802
 10
231.2492230606
 20
31.784585585
 10
230.7401424727
 20
32.3423724275
 10
230.2920589113
 20
32.9799143166
 10
229.9078791918
 20
33.6930763428
 10
229.5900945883
 20
34.4772338974
 10
229.3407656863
 20
35.3273008114
 10
229.1615092126
 20
36.2377641473
 10
229.0534888155
 20
37.2027197522
 10
229.0174032107
 20
38.2159083807
  0
SPLINE
  5
1DB
330
1F
100
AcDbEntity
  8
0
  6
Continuous
 62
     7
370
    25
100
AcDbSpline
210
0.0
220
0.0
230
1.0
 70
     8
 71
     3
 72
    24
 73
    20
 74
     0
 42
0.000000001
 43
0.00000001
 40
0.0
 40
0.0
 40
0.0
 40
0.0
 40
0.1249999999999991
 40
0.1249999999999991
 40
0.2499999999999981
 40
0.2499999999999981
 40
0.3749999999999972
 40
0.3749999999999972
 40
0.4999999999999962
 40
0.4999999999999962
 40
0.6249999999999964
 40
0.6249999999999964
 40
0.7499999999999968
 40
0.7499999999999968
 40
0.8124999999999976
 40
0.8124999999999976
 40
0.8749999999999982
 40
0.8749999999999982
 40
1.0
 40
1.0
 40
1.0
 40
1.0
 10
233.8509923592101
 20
54.64772283515638
 30
0.0
 10
233.8798857343023
 20
54.53741510418868
 30
0.0
 10
233.8925297323894
 20
54.42225202410715
 30
0.0
 10
233.8855040572583
 20
54.18130699482661
 30
0.0
 10
233.8655862654317
 20
54.05775695157675
 30
0.0
 10
233.7953342682567
 20
53.81115845966616
 30
0.0
 10
233.7439473964606
 20
53.68544775915086
 30
0.0
 10
233.6147024413204
 20
53.44328567047167
 30
0.0
 10
233.5369696789212
 20
53.3259336013376
 30
0.0
 10
233.3544467821529
 20
53.09886199833833
 30
0.0
 10
233.2533483279591
 20
52.99373131288612
 30
0.0
 10
233.0320623336139
 20
52.79983915388093
 30
0.0
 10
232.9109028675609
 20
52.71088435562302
 30
0.0
 10
232.7235809366969
 20
52.59726602962083
 30
0.0
 10
232.6598569167527
 20
52.5623777132209
 30
0.0
 10
232.5297541165893
 20
52.49870426014855
 30
0.0
 10
232.4629189023145
 20
52.46976292732508
 30
0.0
 10
232.262268489292
 20
52.39418205839365
 30
0.0
 10
232.1282741821177
 20
52.35835265529435
 30
0.0
 10
231.9937579030382
 20
52.33734082807558
 30
0.0
  0
LWPOLYLINE
  5
1DC
330
1F
100
AcDbEntity
  8
0
  6
Continuous
 62
     7
370
    25
100
AcDbPolyline
 90
       16
 70
   128
 43
0.0
 10
233.8509924709
 20
54.6477228677
 10
234.7141358915
 20
55.5501674105
 10
235.6035246157
 20
56.382995767
 10
236.51292766
 20
57.1403743456
 10
237.4359746762
 20
57.8169967112
 10
238.3661990868
 20
58.4081214141
 10
239.2970843468
 20
58.9096101039
 10
240.2221091369
 20
59.3179490558
 10
241.1347933791
 20
59.6302757351
 10
242.0287431826
 20
59.8444039833
 10
242.8976962829
 20
59.9588335192
 10
243.7355650945
 20
59.9727618653
 10
244.5364800104
 20
59.8860926135
 10
245.2948302313
 20
59.6994316185
 10
246.0053029494
 20
59.4140875652
 10
246.3286417174
 20
59.2421736004
  0
LWPOLYLINE
  5
1DD
330
1F
100
AcDbEntity
  8
0
  6
Continuous
 62
     7
370
    25
100
AcDbPolyline
 90
       22
 70
   128
 43
0.0
 10
230.5924204028
 20
31.9832852066
 10
230.0233859229
 20
32.3631476093
 10
229.4505628364
 20
32.8695418868
 10
228.9398457654
 20
33.4637759681
 10
228.4947546303
 20
34.1417525291
 10
228.1183582484
 20
34.8987993779
 10
227.8132506266
 20
35.7296972144
 10
227.581535156
 20
36.6287193655
 10
227.4248088071
 20
37.5896684791
 10
227.3441522514
 20
38.6059209172
 10
227.3401206419
 20
39.6704711484
 10
227.4127429546
 20
40.7759818439
 10
227.5615173786
 20
41.9148320717
 10
227.7854198771
 20
43.0791725251
 10
228.0829055048
 20
44.2609765683
 10
228.4519248711
 20
45.4520983149
 10
228.8899340186
 20
46.6443276661
 10
229.3939128622
 20
47.829445062
 10
229.9603888967
 20
48.9992834568
 10
230.5854562947
 20
50.145778128
 10
231.2648068578
 20
51.2610259888
 10
231.9937576762
 20
52.3373403396
  0
LWPOLYLINE
  5
1DE
330
1F
100
AcDbEntity
  8
0
  6
Continuous
 62
     7
370
    25
100
AcDbPolyline
 90
       44
 70
   128
 43
0.0
 10
229.3687856026
 20
32.8559148869
 10
228.6759842679
 20
33.1167019353
 10
228.0316043937
 20
33.4678327548
 10
227.439846177
 20
33.907017958
 10
226.9045693471
 20
34.4313951808
 10
226.4292622143
 20
35.0375446744
 10
226.0170245476
 20
35.7215144024
 10
225.670543867
 20
36.4788458992
 10
225.3920789804
 20
37.3046008868
 10
225.1834461534
 20
38.1933964484
 10
225.0460046218
 20
39.139437254
 10
224.9806493478
 20
40.1365547248
 10
224.9878090436
 20
41.1782494294
 10
225.0674362943
 20
42.2577293931
 10
225.2190108495
 20
43.3679562004
 10
225.4415455511
 20
44.5016919531
 10
225.733588967
 20
45.6515448981
 10
226.0932372449
 20
46.8100181905
 10
226.518145308
 20
47.9695595132
 10
227.005543318
 20
49.1226074634
 10
227.5522531391
 20
50.2616463042
 10
228.154711387
 20
51.3792493093
 10
228.8089885265
 20
52.4681297117
 10
229.5108204821
 20
53.5211878496
 10
230.2556303694
 20
54.5315594541
 10
231.0385630689
 20
55.4926561401
 10
231.8545135437
 20
56.3982121725
 10
232.6981624006
 20
57.242323246
 10
233.5640089818
 20
58.0194868823
 10
234.4464084085
 20
58.7246352208
 10
235.3396076358
 20
59.3531710428
 10
236.2377832782
 20
59.9009972117
 10
237.1350795167
 20
60.3645415985
 10
238.0256462124
 20
60.7407821261
 10
238.9036773487
 20
61.0272659195
 10
239.7634480336
 20
61.2221245835
 10
240.5993527363
 20
61.3240886709
 10
241.4059423302
 20
61.3324923374
 10
242.1779576789
 20
61.2472813233
 10
242.9103651975
 20
61.0690114287
 10
243.5983894503
 20
60.7988437584
 10
244.237546408
 20
60.4385418663
 10
244.8236668252
 20
59.9904533123
 10
245.0610457785
 20
59.7689043957
  0
LWPOLYLINE
  5
1DF
330
1F
100
AcDbEntity
  8
0
  6
Continuous
 62
     7
370
    25
100
AcDbPolyline
 90
       13
 70
   128
 43
0.0
 10
232.1883710785
 20
54.7719993483
 10
232.9824598513
 20
55.624034913
 10
233.8024732165
 20
56.4122768056
 10
234.6425654391
 20
57.1311047082
 10
235.4967467275
 20
57.7753938532
 10
236.358927603
 20
58.3405512832
 10
237.22296117
 20
58.8225478585
 10
238.0826875266
 20
59.2179469362
 10
238.9319771465
 20
59.5239301742
 10
239.7647754947
 20
59.7383149229
 10
240.5751451341
 20
59.8595747302
 10
241.3573086537
 20
59.88684283
 10
241.9889216547
 20
59.8368859813
  0
SPLINE
  5
1E0
330
1F
100
AcDbEntity
  8
0
  6
Continuous
 62
     7
370
    25
100
AcDbSpline
210
0.0
220
0.0
230
1.0
 70
     8
 71
     3
 72
    26
 73
    22
 74
     0
 42
0.000000001
 43
0.00000001
 40
0.0
 40
0.0
 40
0.0
 40
0.0
 40
0.1250000000000014
 40
0.1250000000000014
 40
0.2500000000000027
 40
0.2500000000000027
 40
0.3125000000000025
 40
0.3125000000000025
 40
0.3750000000000023
 40
0.3750000000000023
 40
0.4375000000000021
 40
0.4375000000000021
 40
0.5000000000000018
 40
0.5000000000000018
 40
0.5625000000000016
 40
0.5625000000000016
 40
0.6250000000000013
 40
0.6250000000000013
 40
0.7500000000000006
 40
0.7500000000000006
 40
1.0
 40
1.0
 40
1.0
 40
1.0
 10
230.8441778735825
 20
53.09983606203113
 30
0.0
 10
230.8205402773505
 20
53.20941192160412
 30
0.0
 10
230.8029724984688
 20
53.32030117996865
 30
0.0
 10
230.7841599155993
 20
53.54563113983158
 30
0.0
 10
230.7829801408319
 20
53.66130805314996
 30
0.0
 10
230.7990781440673
 20
53.83266356300952
 30
0.0
 10
230.8073968611675
 20
53.88946207510369
 30
0.0
 10
230.8311540104245
 20
54.00228828750077
 30
0.0
 10
230.8467763894735
 20
54.05874114116692
 30
0.0
 10
230.8856336018705
 20
54.16732425757553
 30
0.0
 10
230.908859558573
 20
54.21970421780107
 30
0.0
 10
230.9638582080514
 20
54.32016099307319
 30
0.0
 10
230.995936475074
 20
54.36843986084462
 30
0.0
 10
231.0663512236091
 20
54.45613683642836
 30
0.0
 10
231.1049296457357
 20
54.49612596440432
 30
0.0
 10
231.188637909332
 20
54.56860464851991
 30
0.0
 10
231.2337666192738
 20
54.60094127289653
 30
0.0
 10
231.3730472614639
 20
54.68414104025018
 30
0.0
 10
231.4738363330256
 20
54.72296976288627
 30
0.0
 10
231.7769086042583
 20
54.79838605034144
 30
0.0
 10
231.9854326947433
 20
54.79825590397068
 30
0.0
 10
232.1883711144337
 20
54.77199967464446
 30
0.0
  0
LWPOLYLINE
  5
1E1
330
1F
100
AcDbEntity
  8
0
  6
Continuous
 62
     7
370
    25
100
AcDbPolyline
 90
       19
 70
   128
 43
0.0
 10
227.9071992446
 20
35.443984772
 10
227.6821686593
 20
35.7567549966
 10
227.2821996768
 20
36.4452076429
 10
226.9529880089
 20
37.2111934881
 10
226.6970282223
 20
38.0489078749
 10
226.5162597304
 20
38.9520013266
 10
226.4120536231
 20
39.9136308793
 10
226.3851988366
 20
40.9265081351
 10
226.4358995198
 20
41.9829575803
 10
226.563770424
 20
43.0749722898
 10
226.7678434888
 20
44.1942769496
 10
227.0465711347
 20
45.3323884563
 10
227.397842068
 20
46.480682218
 10
227.8189937932
 20
47.6304561276
 10
228.3068343451
 20
48.7729955798
 10
228.8576666548
 20
49.8996430515
 10
229.4673168673
 20
51.0018593163
 10
230.1311639756
 20
52.0712915031
 10
230.844178017
 20
53.099835831
  0
LINE
  5
1E2
330
1F
100
AcDbEntity
  8
0
  6
Continuous
 62
     7
370
    25
100
AcDbLine
 10
229.3687856026
 20
32.8559148869
 30
0.0
 11
229.4806649059
 21
32.9087892883
 31
0.0
  0
ARC
  5
1E3
330
1F
100
AcDbEntity
  8
0
  6
Continuous
 62
     7
370
    25
100
AcDbCircle
 10
246.5706328557
 20
48.0952089743
 30
0.0
 40
3.292822149481369
100
AcDbArc
 50
35.6453555462
 51
84.9852362795
  0
ARC
  5
1E4
330
1F
100
AcDbEntity
  8
0
  6
Continuous
 62
     7
370
    25
100
AcDbCircle
 10
240.3646255677
 20
37.3462805457
 30
0.0
 40
3.290342017397864
100
AcDbArc
 50
214.8743507005
 51
263.3482317766
  0
LWPOLYLINE
  5
1E5
330
1F
100
AcDbEntity
  8
0
  6
Continuous
 62
     7
370
    25
100
AcDbPolyline
 90
       21
 70
   128
 43
0.0
 10
240.4728609889
 20
41.0455179704
 10
240.4984085646
 20
41.3156538792
 10
240.6054520109
 20
41.9190180018
 10
240.7811984423
 20
42.5375716275
 10
241.0217226042
 20
43.1574974188
 10
241.3216512674
 20
43.7649474705
 10
241.6742845646
 20
44.346352046
 10
242.0717453158
 20
44.8887235584
 10
242.5051546945
 20
45.3799465758
 10
242.9648312735
 20
45.8090478617
 10
243.4405065944
 20
46.1664417349
 10
243.9215547947
 20
46.4441449499
 10
244.3972301157
 20
46.6359541121
 10
244.8569066946
 20
46.7375841074
 10
245.2903160734
 20
46.7467649073
 10
245.6877768245
 20
46.6632918102
 10
246.0404101218
 20
46.4890289735
 10
246.3403387849
 20
46.2278691853
 10
246.5808629468
 20
45.8856466802
 10
246.7566093782
 20
45.470005565
 10
246.7670499429
 20
45.4361551463
  0
ARC
  5
1E6
330
1F
100
AcDbEntity
  8
0
  6
Continuous
 62
     7
370
    25
100
AcDbCircle
 10
242.2690022552
 20
40.3489334183
 30
0.0
 40
1.907427350631449
100
AcDbArc
 50
249.0961629275
 51
285.1460308383
  0
LWPOLYLINE
  5
1E7
330
1F
100
AcDbEntity
  8
0
  6
Continuous
 62
     7
370
    25
100
AcDbPolyline
 90
       27
 70
   128
 43
0.0
 10
222.724153012
 20
41.930565062
 10
222.7600087848
 20
42.9787141644
 10
222.8673436371
 20
44.0614638951
 10
223.0454608287
 20
45.1717918249
 10
223.2932052726
 20
46.3024968587
 10
223.6089707787
 20
47.4462467642
 10
223.9907099322
 20
48.5956236081
 10
224.4359452886
 20
49.7431724248
 10
224.9417911059
 20
50.8814523558
 10
225.5049658568
 20
52.0030796142
 10
226.1218172534
 20
53.1007814758
 10
226.7883452965
 20
54.1674381018
 10
227.5002266412
 20
55.1961323471
 10
228.2528442322
 20
56.1801919634
 10
229.0413179252
 20
57.1132354139
 10
229.860533793
 20
57.9892116049
 10
230.7051786984
 20
58.8024396166
 10
231.5697748682
 20
59.5476446321
 10
232.4487152899
 20
60.2199943406
 10
233.3362995609
 20
60.815128759
 10
234.2267713439
 20
61.3291871773
 10
235.1143556149
 20
61.7588357451
 10
235.9932960366
 20
62.1012890467
 10
236.8578922064
 20
62.3543255208
 10
237.7025371118
 20
62.516303759
 10
238.5217529796
 20
62.586174076
 10
239.3080554514
 20
62.5636767157
  0
LWPOLYLINE
  5
1E8
330
1F
100
AcDbEntity
  8
0
  6
Continuous
 62
     7
370
    25
100
AcDbPolyline
 90
        3
 70
   128
 43
0.0
 10
222.8109853981
 20
40.3836333771
 10
222.7600087848
 20
40.9238141537
 10
222.724153012
 20
41.930565062
  0
SPLINE
  5
1E9
330
1F
100
AcDbEntity
  8
0
  6
Continuous
 62
     7
370
    25
100
AcDbSpline
210
0.0
220
0.0
230
1.0
 70
     8
 71
     3
 72
    10
 73
     6
 74
     0
 42
0.000000001
 43
0.00000001
 40
0.0
 40
0.0
 40
0.0
 40
0.0
 40
0.5
 40
0.5
 40
1.0
 40
1.0
 40
1.0
 40
1.0
 10
231.5708659412138
 20
51.63678278121141
 30
0.0
 10
231.4675622826653
 20
51.70965499164607
 30
0.0
 10
231.3772641032987
 20
51.79693540566381
 30
0.0
 10
231.2234952473298
 20
52.00054049534637
 30
0.0
 10
231.1627812991225
 20
52.11346522350916
 30
0.0
 10
231.1186954530521
 20
52.23547590262825
 30
0.0
  0
SPLINE
  5
1EA
330
1F
100
AcDbEntity
  8
0
  6
Continuous
 62
     7
370
    25
100
AcDbSpline
210
0.0
220
0.0
230
1.0
 70
     8
 71
     3
 72
    14
 73
    10
 74
     0
 42
0.000000001
 43
0.00000001
 40
0.0
 40
0.0
 40
0.0
 40
0.0
 40
0.25
 40
0.25
 40
0.5
 40
0.5
 40
0.75
 40
0.75
 40
1.0
 40
1.0
 40
1.0
 40
1.0
 10
231.1186954530521
 20
52.23547590262825
 30
0.0
 10
231.095974650187
 20
52.29835732228579
 30
0.0
 10
231.0740601398376
 20
52.36740375175921
 30
0.0
 10
231.0319490857748
 20
52.51505626837798
 30
0.0
 10
231.0124275318617
 20
52.59145605523629
 30
0.0
 10
230.9740812896879
 20
52.74578834663189
 30
0.0
 10
230.9557216968041
 20
52.82274094296355
 30
0.0
 10
230.9137182522225
 20
52.96813111047952
 30
0.0
 10
230.8899419312094
 20
53.03472201667255
 30
0.0
 10
230.8614804271073
 20
53.07521763190389
 30
0.0
  0
LINE
  5
1EB
330
1F
100
AcDbEntity
  8
0
  6
Continuous
 62
     7
370
    25
100
AcDbLine
 10
230.8614806154
 20
53.0752180236
 30
0.0
 11
230.844178017
 21
53.099835831
 31
0.0
  0
LINE
  5
1EC
330
1F
100
AcDbEntity
  8
0
  6
Continuous
 62
     7
370
    25
100
AcDbLine
 10
232.1883710785
 20
54.7719993483
 30
0.0
 11
232.2056736769
 21
54.7473815409
 31
0.0
  0
SPLINE
  5
1ED
330
1F
100
AcDbEntity
  8
0
  6
Continuous
 62
     7
370
    25
100
AcDbSpline
210
0.0
220
0.0
230
1.0
 70
     8
 71
     3
 72
    16
 73
    12
 74
     0
 42
0.000000001
 43
0.00000001
 40
0.0
 40
0.0
 40
0.0
 40
0.0
 40
0.1250000000000001
 40
0.1250000000000001
 40
0.2500000000000003
 40
0.2500000000000003
 40
0.5000000000000002
 40
0.5000000000000002
 40
0.7500000000000001
 40
0.7500000000000001
 40
1.0
 40
1.0
 40
1.0
 40
1.0
 10
232.2056736679585
 20
54.74738124451717
 30
0.0
 10
232.2198260743626
 20
54.72724490870439
 30
0.0
 10
232.2414844788362
 20
54.71044748802696
 30
0.0
 10
232.2939024078715
 20
54.68360196669547
 30
0.0
 10
232.3244952870099
 20
54.67337648213449
 30
0.0
 10
232.4235761358674
 20
54.6488760417018
 30
0.0
 10
232.4974586734833
 20
54.64061611930031
 30
0.0
 10
232.6505582658746
 20
54.62943015259539
 30
0.0
 10
232.7286422405222
 20
54.6268334808442
 30
0.0
 10
232.8879858742644
 20
54.62480448001049
 30
0.0
 10
232.9666387690959
 20
54.62544206867272
 30
0.0
 10
233.0423912368886
 20
54.62853516948775
 30
0.0
  0
SPLINE
  5
1EE
330
1F
100
AcDbEntity
  8
0
  6
Continuous
 62
     7
370
    25
100
AcDbSpline
210
0.0
220
0.0
230
1.0
 70
     8
 71
     3
 72
    12
 73
     8
 74
     0
 42
0.000000001
 43
0.00000001
 40
0.0
 40
0.0
 40
0.0
 40
0.0
 40
0.5000000000000003
 40
0.5000000000000003
 40
0.7500000000000001
 40
0.7500000000000001
 40
1.0
 40
1.0
 40
1.0
 40
1.0
 10
233.0423912368886
 20
54.62853516948775
 30
0.0
 10
233.1888842384401
 20
54.63451672541194
 30
0.0
 10
233.3347559367016
 20
54.62419988672167
 30
0.0
 10
233.5387191065874
 20
54.58576170887719
 30
0.0
 10
233.6046699370285
 20
54.56916563432955
 30
0.0
 10
233.7324178957403
 20
54.52839330954981
 30
0.0
 10
233.7946331157794
 20
54.50399952171139
 30
0.0
 10
233.8534041049145
 20
54.47623855717147
 30
0.0
  0
LINE
  5
1EF
330
1F
100
AcDbEntity
  8
0
  6
Continuous
 62
     7
370
    25
100
AcDbLine
 10
251.3882482272
 20
42.7638279453
 30
0.0
 11
251.4791431744
 21
42.7159216612
 31
0.0
  0
LWPOLYLINE
  5
1F0
330
1F
100
AcDbEntity
  8
0
  6
Continuous
 62
     7
370
    25
100
AcDbPolyline
 90
        3
 70
   128
 43
0.0
 10
247.5330559083
 20
35.7582100938
 10
247.5199852815
 20
35.7650696499
 10
247.479468166
 20
35.7875307765
  0
ARC
  5
1F1
330
1F
100
AcDbEntity
  8
0
  6
Continuous
 62
     7
370
    25
100
AcDbCircle
 10
243.1520277358
 20
40.0074141106
 30
0.0
 40
1.491229658972869
100
AcDbArc
 50
204.188078785
 51
239.1930754404
  0
LWPOLYLINE
  5
1F2
330
1F
100
AcDbEntity
  8
0
  6
Continuous
 62
     7
370
    25
100
AcDbPolyline
 90
       17
 70
   128
 43
0.0
 10
241.567177898
 20
40.3250984432
 10
241.5631667034
 20
40.3985386221
 10
241.5776141821
 20
40.9352349025
 10
241.6656816684
 20
41.5048198559
 10
241.8250626103
 20
42.0923736067
 10
242.051582
 20
42.682505491
 10
242.3393061871
 20
43.2597571855
 10
242.6806986235
 20
43.8090080682
 10
243.0668164394
 20
44.3158705451
 10
243.487545626
 20
44.7670678356
 10
243.9318653997
 20
45.1507808852
 10
244.3881369331
 20
45.4569587736
 10
244.8444084665
 20
45.6775807844
 10
245.2887282402
 20
45.806868426
 10
245.7094574268
 20
45.8414347146
 10
246.0955752427
 20
45.7803743788
 10
246.3879744373
 20
45.6549908132
  0
LWPOLYLINE
  5
1F3
330
1F
100
AcDbEntity
  8
0
  6
Continuous
 62
     7
370
    25
100
AcDbPolyline
 90
       17
 70
   128
 43
0.0
 10
248.6021303948
 20
40.268651149
 10
248.5684895541
 20
40.4445286023
 10
248.4726886973
 20
40.554789454
 10
248.329312445
 20
40.5826474938
 10
248.1601886664
 20
40.5238617109
 10
247.9910648879
 20
40.3873813355
 10
247.8476887179
 20
40.1939846458
 10
247.7518877787
 20
39.9731144317
 10
247.7182468557
 20
39.758396043
 10
247.7518877787
 20
39.5825186373
 10
247.8476887179
 20
39.4722577381
 10
247.9910648879
 20
39.4443997458
 10
248.1601886664
 20
39.5031856238
 10
248.329312445
 20
39.6396659041
 10
248.4726886973
 20
39.8330625463
 10
248.5684895541
 20
40.0539328079
 10
248.6021303948
 20
40.268651149
  0
LINE
  5
1F4
330
1F
100
AcDbEntity
  8
0
  6
Continuous
 62
     7
370
    25
100
AcDbLine
 10
248.4168920321
 20
37.411372393
 30
0.0
 11
248.3833465158
 21
37.4320009578
 31
0.0
  0
ARC
  5
1F5
330
1F
100
AcDbEntity
  8
0
  6
Continuous
 62
     7
370
    25
100
AcDbCircle
 10
216.5417098378
 20
49.7577950918
 30
0.0
 40
4.16806249430764
100
AcDbArc
 50
211.8183542798
 51
236.1399747015
  0
SPLINE
  5
1F6
330
1F
100
AcDbEntity
  8
0
  6
Continuous
 62
     7
370
    25
100
AcDbSpline
210
0.0
220
0.0
230
1.0
 70
     8
 71
     3
 72
     8
 73
     4
 74
     0
 42
0.000000001
 43
0.00000001
 40
0.0
 40
0.0
 40
0.0
 40
0.0
 40
1.0
 40
1.0
 40
1.0
 40
1.0
 10
214.4304504357777
 20
46.6355341379328
 30
0.0
 10
213.9536771439536
 20
46.94362694586545
 30
0.0
 10
213.4768747671087
 20
47.2518563914382
 30
0.0
 10
213.0000423225831
 20
47.56022154765812
 30
0.0
  0
SPLINE
  5
1F7
330
1F
100
AcDbEntity
  8
0
  6
Continuous
 62
     7
370
    25
100
AcDbSpline
210
0.0
220
0.0
230
1.0
 70
     8
 71
     3
 72
    23
 73
    19
 74
     0
 42
0.000000001
 43
0.00000001
 40
0.0
 40
0.0
 40
0.0
 40
0.0
 40
0.0521036415684141
 40
0.1035646240942128
 40
0.1544751946758079
 40
0.2049306267497427
 40
0.2550287880868969
 40
0.3048696389164994
 40
0.3545546704630395
 40
0.4041862979540088
 40
0.4538672252136959
 40
0.5036997999425104
 40
0.590187023076665
 40
0.6742716378260809
 40
0.7565997087257926
 40
0.8378563983752378
 40
0.9187511781386904
 40
1.0
 40
1.0
 40
1.0
 40
1.0
 10
215.3110152393194
 20
46.4608034398127
 30
0.0
 10
215.3057463003793
 20
46.45088197757757
 30
0.0
 10
215.2952734108791
 20
46.43116142684605
 30
0.0
 10
215.2760271151165
 20
46.40659359789311
 30
0.0
 10
215.254231374784
 20
46.38590501563339
 30
0.0
 10
215.2295800835791
 20
46.36937408033614
 30
0.0
 10
215.2020835690402
 20
46.3568565807599
 30
0.0
 10
215.1716725150329
 20
46.34832195693764
 30
0.0
 10
215.1383021432602
 20
46.34371208428985
 30
0.0
 10
215.1019262549883
 20
46.34297734115387
 30
0.0
 10
215.0624978833991
 20
46.34607242370581
 30
0.0
 10
215.0096494918479
 20
46.35460819918622
 30
0.0
 10
214.9411104980759
 20
46.37220463803477
 30
0.0
 10
214.8533892661199
 20
46.40384124612166
 30
0.0
 10
214.7586583466255
 20
46.44602090345469
 30
0.0
 10
214.6566240992962
 20
46.49875733918127
 30
0.0
 10
214.5477101861088
 20
46.56107389509091
 30
0.0
 10
214.4695938751244
 20
46.61067795334101
 30
0.0
 10
214.4304504357777
 20
46.63553413793279
 30
0.0
  0
SPLINE
  5
1F8
330
1F
100
AcDbEntity
  8
0
  6
Continuous
 62
     7
370
    25
100
AcDbSpline
210
0.0
220
0.0
230
1.0
 70
     8
 71
     3
 72
     8
 73
     4
 74
     0
 42
0.000000001
 43
0.00000001
 40
0.0
 40
0.0
 40
0.0
 40
0.0
 40
1.0
 40
1.0
 40
1.0
 40
1.0
 10
216.7845182657716
 20
45.51348330325756
 30
0.0
 10
216.2931509537307
 20
45.82935792322469
 30
0.0
 10
215.801764753805
 20
46.14534394451382
 30
0.0
 10
215.3103590436616
 20
46.46144082535615
 30
0.0
  0
SPLINE
  5
1F9
330
1F
100
AcDbEntity
  8
0
  6
Continuous
 62
     7
370
    25
100
AcDbSpline
210
0.0
220
0.0
230
1.0
 70
     8
 71
     3
 72
    18
 73
    14
 74
     0
 42
0.000000001
 43
0.00000001
 40
0.0
 40
0.0
 40
0.0
 40
0.0
 40
0.0923824559397059
 40
0.1844689291547896
 40
0.2764953615916986
 40
0.3686975365456813
 40
0.4613092839965452
 40
0.5545607518407201
 40
0.648676805150765
 40
0.7438756050126222
 40
0.840367404429405
 40
0.9203921078117897
 40
1.0
 40
1.0
 40
1.0
 40
1.0
 10
217.5980823849728
 20
44.86917557871216
 30
0.0
 10
217.5745148708501
 20
44.88444955297748
 30
0.0
 10
217.5274553501993
 20
44.91494856545773
 30
0.0
 10
217.4550575622373
 20
44.96458113806813
 30
0.0
 10
217.3815753533423
 20
45.01691068073634
 30
0.0
 10
217.3068759055976
 20
45.07222836644404
 30
0.0
 10
217.2310151158295
 20
45.13046668155761
 30
0.0
 10
217.1540038350425
 20
45.19165959319538
 30
0.0
 10
217.0758717029609
 20
45.25582330977726
 30
0.0
 10
216.9966454683163
 20
45.32297226964488
 30
0.0
 10
216.9213489839056
 20
45.38882317939149
 30
0.0
 10
216.8505216757829
 20
45.45235476620012
 30
0.0
 10
216.8066173049755
 20
45.49301551121376
 30
0.0
 10
216.7847224381701
 20
45.51329279978234
 30
0.0
  0
LINE
  5
1FA
330
1F
100
AcDbEntity
  8
0
  6
Continuous
 62
     7
370
    25
100
AcDbLine
 10
218.2377889168
 20
44.4574217722
 30
0.0
 11
217.5980820745
 21
44.8691754398
 31
0.0
  0
SPLINE
  5
1FB
330
1F
100
AcDbEntity
  8
0
  6
Continuous
 62
     7
370
    25
100
AcDbSpline
210
0.0
220
0.0
230
1.0
 70
     8
 71
     3
 72
    25
 73
    21
 74
     0
 42
0.000000001
 43
0.00000001
 40
0.0
 40
0.0
 40
0.0
 40
0.0
 40
0.0280105225426455
 40
0.0559601148860777
 40
0.0839014045043132
 40
0.1118870776786386
 40
0.1399695827588948
 40
0.1682008401739887
 40
0.196631967042423
 40
0.2253130233141507
 40
0.2542927850735879
 40
0.3799486436587393
 40
0.5057850221667148
 40
0.6313085886345164
 40
0.7532068238012837
 40
0.8039473267959832
 40
0.8535894438560202
 40
0.9025339722399832
 40
0.9511970353794942
 40
1.0
 40
1.0
 40
1.0
 40
1.0
 10
219.3401545099631
 20
45.17332776258923
 30
0.0
 10
219.3451026174937
 20
45.14570390148175
 30
0.0
 10
219.3549880691292
 20
45.09051626837643
 30
0.0
 10
219.3665237187324
 20
45.01135556100652
 30
0.0
 10
219.3755968405451
 20
44.93505222190814
 30
0.0
 10
219.3819656492581
 20
44.86185646093851
 30
0.0
 10
219.3856818880682
 20
44.79170899272513
 30
0.0
 10
219.386718509051
 20
44.72463270621235
 30
0.0
 10
219.3850700338241
 20
44.66062879698592
 30
0.0
 10
219.3807238819552
 20
44.59969994371907
 30
0.0
 10
219.3658675573876
 20
44.47781182222192
 30
0.0
 10
219.3207793003226
 20
44.32291095056672
 30
0.0
 10
219.2074197798296
 20
44.19196783222462
 30
0.0
 10
219.0455955578358
 20
44.13609143141412
 30
0.0
 10
218.8715803387034
 20
44.15596548379734
 30
0.0
 10
218.7202194180168
 20
44.20328328615366
 30
0.0
 10
218.609819185318
 20
44.24819870988929
 30
0.0
 10
218.4926596898692
 20
44.30557444118045
 30
0.0
 10
218.3690940229359
 20
44.37425150563288
 30
0.0
 10
218.2815989728414
 20
44.42967175158572
 30
0.0
 10
218.2377886531601
 20
44.45742164931578
 30
0.0
  0
ARC
  5
1FC
330
1F
100
AcDbEntity
  8
0
  6
Continuous
 62
     7
370
    25
100
AcDbCircle
 10
230.5331756744
 20
46.9593781312
 30
0.0
 40
11.33462419218393
100
AcDbArc
 50
170.9338462887
 51
189.0661537113
  0
SPLINE
  5
1FD
330
1F
100
AcDbEntity
  8
0
  6
Continuous
 62
     7
370
    25
100
AcDbSpline
210
0.0
220
0.0
230
1.0
 70
     8
 71
     3
 72
    26
 73
    22
 74
     0
 42
0.000000001
 43
0.00000001
 40
0.0
 40
0.0
 40
0.0
 40
0.0
 40
0.0241259796969038
 40
0.048215991228259
 40
0.0723203915136643
 40
0.0964895678725153
 40
0.1207736231978452
 40
0.1452220711257179
 40
0.1698835501670319
 40
0.1948055644482148
 40
0.2200342569523467
 40
0.2456142191612283
 40
0.369097148691835
 40
0.4940698769485373
 40
0.6192566784762581
 40
0.7454656653603327
 40
0.7971495824713788
 40
0.8481710308405456
 40
0.8988013269235281
 40
0.9493179290492212
 40
1.0
 40
1.0
 40
1.0
 40
1.0
 10
218.2377886531601
 20
52.22153204068035
 30
0.0
 10
218.2595068825366
 20
52.20720051728496
 30
0.0
 10
218.3029109627136
 20
52.17855883661537
 30
0.0
 10
218.3662180800762
 20
52.13056653868583
 30
0.0
 10
218.4280796477949
 20
52.07896734079965
 30
0.0
 10
218.488384162932
 20
52.0233925479261
 30
0.0
 10
218.547174014872
 20
51.96393730729885
 30
0.0
 10
218.6044545333016
 20
51.90057299846156
 30
0.0
 10
218.6602456726273
 20
51.83330422049794
 30
0.0
 10
218.7145669200483
 20
51.76213010653834
 30
0.0
 10
218.7674458952562
 20
51.68704096679081
 30
0.0
 10
218.8842407199917
 20
51.5077865180867
 30
0.0
 10
219.0461102779173
 20
51.19748104624367
 30
0.0
 10
219.2092951854501
 20
50.72756725811268
 30
0.0
 10
219.3208065906227
 20
50.2286042242046
 30
0.0
 10
219.3679404287313
 20
49.81972055114765
 30
0.0
 10
219.3830593682638
 20
49.51544859455694
 30
0.0
 10
219.3850125072464
 20
49.31419935286163
 30
0.0
 10
219.3785344816073
 20
49.11853943313903
 30
0.0
 10
219.3644075589201
 20
48.92790314524157
 30
0.0
 10
219.3482476672351
 20
48.80631987150275
 30
0.0
 10
219.340154509963
 20
48.74542883490387
 30
0.0
  0
LINE
  5
1FE
330
1F
100
AcDbEntity
  8
0
  6
Continuous
 62
     7
370
    25
100
AcDbLine
 10
217.5980820745
 20
52.634506891
 30
0.0
 11
218.2377889168
 21
52.2215319199
 31
0.0
  0
SPLINE
  5
1FF
330
1F
100
AcDbEntity
  8
0
  6
Continuous
 62
     7
370
    25
100
AcDbSpline
210
0.0
220
0.0
230
1.0
 70
     8
 71
     3
 72
    14
 73
    10
 74
     0
 42
0.000000001
 43
0.00000001
 40
0.0
 40
0.0
 40
0.0
 40
0.0
 40
0.0789261963155847
 40
0.1582328720522156
 40
0.3308475394554963
 40
0.5000195457601538
 40
0.667035788356921
 40
0.8332395193656904
 40
1.0
 40
1.0
 40
1.0
 40
1.0
 10
216.7841296691211
 20
52.84308932396551
 30
0.0
 10
216.8058465504565
 20
52.84469248782393
 30
0.0
 10
216.8493850036714
 20
52.84790654391087
 30
0.0
 10
216.94091012232
 20
52.84872758397864
 30
0.0
 10
217.0578184557532
 20
52.84079160219539
 30
0.0
 10
217.1986387941357
 20
52.81451593331757
 30
0.0
 10
217.3358511019484
 20
52.77155833478533
 30
0.0
 10
217.4697817763652
 20
52.71320120997573
 30
0.0
 10
217.5552678683245
 20
52.66076766382569
 30
0.0
 10
217.5980823849728
 20
52.63450705367124
 30
0.0
  0
SPLINE
  5
200
330
1F
100
AcDbEntity
  8
0
  6
Continuous
 62
     7
370
    25
100
AcDbSpline
210
0.0
220
0.0
230
1.0
 70
     8
 71
     3
 72
     8
 73
     4
 74
     0
 42
0.000000001
 43
0.00000001
 40
0.0
 40
0.0
 40
0.0
 40
0.0
 40
1.0
 40
1.0
 40
1.0
 40
1.0
 10
214.9818260861171
 20
54.00548073537765
 30
0.0
 10
215.582584309813
 20
53.61821325221892
 30
0.0
 10
216.1833131726731
 20
53.23074590229579
 30
0.0
 10
216.7840138170197
 20
52.84307900970636
 30
0.0
  0
SPLINE
  5
201
330
1F
100
AcDbEntity
  8
0
  6
Continuous
 62
     7
370
    25
100
AcDbSpline
210
0.0
220
0.0
230
1.0
 70
     8
 71
     3
 72
    13
 73
     9
 74
     0
 42
0.000000001
 43
0.00000001
 40
0.0
 40
0.0
 40
0.0
 40
0.0
 40
0.1667030582308044
 40
0.3329480818053134
 40
0.4990671507274983
 40
0.6653938523718556
 40
0.8322612710550201
 40
1.0
 40
1.0
 40
1.0
 40
1.0
 10
214.6399975510827
 20
54.30654551446344
 30
0.0
 10
214.6602987335227
 20
54.2929804077842
 30
0.0
 10
214.7008453187114
 20
54.26588746602135
 30
0.0
 10
214.759994955699
 20
54.22069289301363
 30
0.0
 10
214.8177665006015
 20
54.17228174453069
 30
0.0
 10
214.8740162380611
 20
54.12024662976022
 30
0.0
 10
214.9289434468072
 20
54.06494866255121
 30
0.0
 10
214.9641641563978
 20
54.02533140739084
 30
0.0
 10
214.9818203683387
 20
54.00547119838991
 30
0.0
  0
SPLINE
  5
202
330
1F
100
AcDbEntity
  8
0
  6
Continuous
 62
     7
370
    25
100
AcDbSpline
210
0.0
220
0.0
230
1.0
 70
     8
 71
     3
 72
     8
 73
     4
 74
     0
 42
0.000000001
 43
0.00000001
 40
0.0
 40
0.0
 40
0.0
 40
0.0
 40
1.0
 40
1.0
 40
1.0
 40
1.0
 10
212.696017035292
 20
55.5612673668429
 30
0.0
 10
213.3440471076923
 20
55.14327205095815
 30
0.0
 10
213.9920400847942
 20
54.72503128854052
 30
0.0
 10
214.6399975510827
 20
54.30654551446343
 30
0.0
  0
LWPOLYLINE
  5
203
330
1F
100
AcDbEntity
  8
0
  6
Continuous
 62
     7
370
    25
100
AcDbPolyline
 90
       21
 70
   128
 43
0.0
 10
212.6960176856
 20
55.5612674173
 10
213.0436751852
 20
56.5824474843
 10
213.4585259565
 20
57.5996695008
 10
213.9366668063
 20
58.6033645485
 10
214.4736018513
 20
59.584093043
 10
215.0642793965
 20
60.5326299028
 10
215.7031446189
 20
61.4400535183
 10
216.3841876415
 20
62.2978282574
 10
217.101003131
 20
63.0978867803
 10
217.8468490734
 20
63.8327042738
 10
218.6147096648
 20
64.4953674577
 10
219.3973628945
 20
65.0796447788
 10
220.1874471574
 20
65.5800408345
 10
220.9775310572
 20
65.991848077
 10
221.7601831344
 20
66.3111931498
 10
222.5280419148
 20
66.5350727628
 10
223.2738852231
 20
66.6613815394
 10
223.9906977491
 20
66.688931249
 10
224.6717368204
 20
66.6174621609
 10
225.310597433
 20
66.4476463648
 10
225.7457554121
 20
66.2630143825
  0
SPLINE
  5
204
330
1F
100
AcDbEntity
  8
0
  6
Continuous
 62
     7
370
    25
100
AcDbSpline
210
0.0
220
0.0
230
1.0
 70
    11
 71
     3
 72
    39
 73
    35
 74
     0
 42
0.000000001
 43
0.00000001
 40
0.0
 40
0.0
 40
0.0
 40
0.0
 40
0.0310664058347798
 40
0.0621048158425991
 40
0.0931361551792733
 40
0.1235538293503577
 40
0.1538561545807598
 40
0.1850588072749104
 40
0.2160250992947717
 40
0.247186722379756
 40
0.2784462884306427
 40
0.3100516090231226
 40
0.3419834369140484
 40
0.3734259894013217
 40
0.4048604886785525
 40
0.4368740651833295
 40
0.468512068592407
 40
0.4998055358633177
 40
0.5309508213228404
 40
0.561864978443814
 40
0.5930416446592908
 40
0.6233742450133256
 40
0.6540913579073041
 40
0.6849496782718417
 40
0.7158160645167227
 40
0.7471731804043494
 40
0.7784514311866261
 40
0.8101295911560916
 40
0.8419598919689909
 40
0.8735175891922292
 40
0.9050808037889628
 40
0.9370235169792575
 40
0.9687441590033682
 40
0.9999999999999999
 40
0.9999999999999999
 40
0.9999999999999999
 40
0.9999999999999999
 10
225.9046025164974
 20
64.56645774218433
 30
0.0
 10
226.1674881366949
 20
64.53792325489411
 30
0.0
 10
226.6943767471781
 20
64.45198076657164
 30
0.0
 10
227.4583888162515
 20
64.25160564650145
 30
0.0
 10
228.165539004303
 20
64.00460354028178
 30
0.0
 10
228.7784500688974
 20
63.72662166212947
 30
0.0
 10
229.2755813945724
 20
63.43248796479958
 30
0.0
 10
229.6347731156446
 20
63.13098143660693
 30
0.0
 10
229.8564923844054
 20
62.82398393170373
 30
0.0
 10
229.9217442617861
 20
62.51347867030148
 30
0.0
 10
229.8348970506717
 20
62.19433418555303
 30
0.0
 10
229.5925514629129
 20
61.8650142199802
 30
0.0
 10
229.2126136001867
 20
61.52607349842332
 30
0.0
 10
228.698807647028
 20
61.18823503401293
 30
0.0
 10
228.0729168361174
 20
60.86233713270393
 30
0.0
 10
227.3594458496289
 20
60.56569023946394
 30
0.0
 10
226.5955433733639
 20
60.3095869310253
 30
0.0
 10
225.80975029046
 20
60.12055936303555
 30
0.0
 10
225.0282128354179
 20
60.01238344098039
 30
0.0
 10
224.2720998506642
 20
60.00471955761236
 30
0.0
 10
223.5697352642734
 20
60.10264159299998
 30
0.0
 10
222.9507149172296
 20
60.32429002650143
 30
0.0
 10
222.441657652217
 20
60.66015811341257
 30
0.0
 10
222.0687140587833
 20
61.09996867959386
 30
0.0
 10
221.8401121075356
 20
61.61104332011644
 30
0.0
 10
221.771265800816
 20
62.16222840787969
 30
0.0
 10
221.8558822140411
 20
62.71990033619117
 30
0.0
 10
222.0989910039767
 20
63.24998047711092
 30
0.0
 10
222.4811208467934
 20
63.72250482622393
 30
0.0
 10
222.997256421207
 20
64.10862633711766
 30
0.0
 10
223.6242342817081
 20
64.39225052444995
 30
0.0
 10
224.3401417140745
 20
64.56198774317639
 30
0.0
 10
225.108585106258
 20
64.62352657788692
 30
0.0
 10
225.6401138856305
 20
64.59516622563129
 30
0.0
 10
225.9046025164974
 20
64.56645774218433
 30
0.0
  0
LINE
  5
205
330
1F
100
AcDbEntity
  8
0
  6
Continuous
 62
     7
370
    25
100
AcDbLine
 10
241.809856159
 20
39.274330361
 30
0.0
 11
241.7862689057
 21
39.301651158
 31
0.0
  0
LWPOLYLINE
  5
206
330
1F
100
AcDbEntity
  8
0
  6
Continuous
 62
     7
370
    25
100
AcDbPolyline
 90
        3
 70
   128
 43
0.0
 10
245.5494874169
 20
45.8952300427
 10
245.5701148419
 20
45.8919852082
 10
245.6243828606
 20
45.8820005616
  0
LINE
  5
207
330
1F
100
AcDbEntity
  8
0
  6
Continuous
 62
     7
370
    25
100
AcDbLine
 10
245.754634074
 20
45.8753186037
 30
0.0
 11
245.7951497077
 21
45.8528876107
 31
0.0
  0
LINE
  5
208
330
1F
100
AcDbEntity
  8
0
  6
Continuous
 62
     7
370
    25
100
AcDbLine
 10
216.6799478825
 20
48.1274490075
 30
0.0
 11
216.9945642285
 21
47.9590008484
 31
0.0
  0
LINE
  5
209
330
1F
100
AcDbEntity
  8
0
  6
Continuous
 62
     7
370
    25
100
AcDbLine
 10
215.6931057664
 20
48.6971408349
 30
0.0
 11
216.6799478825
 21
48.1274490075
 31
0.0
  0
ARC
  5
20A
330
1F
100
AcDbEntity
  8
0
  6
Continuous
 62
     7
370
    25
100
AcDbCircle
 10
217.9169328839
 20
52.2683855257
 30
0.0
 40
4.462224792523414
100
AcDbArc
 50
267.6359113829
 51
287.0347849962
  0
SPLINE
  5
20B
330
1F
100
AcDbEntity
  8
0
  6
Continuous
 62
     7
370
    25
100
AcDbSpline
210
0.0
220
0.0
230
1.0
 70
     8
 71
     3
 72
    15
 73
    11
 74
     0
 42
0.000000001
 43
0.00000001
 40
0.0
 40
0.0
 40
0.0
 40
0.0
 40
0.1252497635454733
 40
0.2503727919841512
 40
0.3766344102255409
 40
0.5028061577795291
 40
0.6119482178955007
 40
0.7210893809617371
 40
0.9276070019086514
 40
1.0
 40
1.0
 40
1.0
 40
1.0
 10
227.2431084747968
 20
61.5639620268486
 30
0.0
 10
227.0738452531852
 20
61.65751288739514
 30
0.0
 10
226.7354900804847
 20
61.84451994820332
 30
0.0
 10
226.1490023015419
 20
62.11070212548479
 30
0.0
 10
225.5127739443806
 20
62.34824876150914
 30
0.0
 10
224.8698213191474
 20
62.52724955029193
 30
0.0
 10
224.2469465982943
 20
62.6342776664327
 30
0.0
 10
223.4935138022462
 20
62.67613818589935
 30
0.0
 10
222.8238777163781
 20
62.60356223121713
 30
0.0
 10
222.4369634748182
 20
62.42177608670832
 30
0.0
 10
222.3365374600348
 20
62.37459235430745
 30
0.0
  0
SPLINE
  5
20C
330
1F
100
AcDbEntity
  8
0
  6
Continuous
 62
     7
370
    25
100
AcDbSpline
210
0.0
220
0.0
230
1.0
 70
     8
 71
     3
 72
    10
 73
     6
 74
     0
 42
0.000000001
 43
0.00000001
 40
0.0
 40
0.0
 40
0.0
 40
0.0
 40
0.3798174073072795
 40
0.9603711649033085
 40
1.0
 40
1.0
 40
1.0
 40
1.0
 10
228.3829885966562
 20
61.0357350993301
 30
0.0
 10
228.2533359794079
 20
61.10606366116748
 30
0.0
 10
227.9255083636534
 20
61.2838899575886
 30
0.0
 10
227.5175798186432
 20
61.45694280799101
 30
0.0
 10
227.2609470372113
 20
61.55614824023932
 30
0.0
 10
227.2445485469996
 20
61.5624873341797
 30
0.0
  0
SPLINE
  5
20D
330
1F
100
AcDbEntity
  8
0
  6
Continuous
 62
     7
370
    25
100
AcDbSpline
210
0.0
220
0.0
230
1.0
 70
     8
 71
     3
 72
    25
 73
    21
 74
     0
 42
0.000000001
 43
0.00000001
 40
0.0
 40
0.0
 40
0.0
 40
0.0
 40
0.0467516195788714
 40
0.0886224482833321
 40
0.125615019097914
 40
0.1577338316145404
 40
0.2402719649841113
 40
0.3149864878460159
 40
0.3894063595971983
 40
0.4160489482726422
 40
0.4436071402921337
 40
0.4720888772781716
 40
0.5393881414675178
 40
0.6296088510655184
 40
0.689493673975783
 40
0.7419097241172673
 40
0.7875281666877652
 40
0.8678100869214177
 40
0.9441690084173003
 40
1.0
 40
1.0
 40
1.0
 40
1.0
 10
225.8497239494951
 20
63.99259984222755
 30
0.0
 10
225.7093197920392
 20
64.00791578247153
 30
0.0
 10
225.4431694362873
 20
64.03694870441969
 30
0.0
 10
225.0703908888982
 20
64.0442165939981
 30
0.0
 10
224.7478299974924
 20
64.03082913094683
 30
0.0
 10
224.3187134244276
 20
63.98487153849408
 30
0.0
 10
223.8110959246203
 20
63.86785087769897
 30
0.0
 10
223.2682863446386
 20
63.62526804806735
 30
0.0
 10
222.927886902201
 20
63.36791624833651
 30
0.0
 10
222.7212607765321
 20
63.15310722905595
 30
0.0
 10
222.6032766304766
 20
63.00660422544983
 30
0.0
 10
222.4511061933895
 20
62.77685319446874
 30
0.0
 10
222.2844262663429
 20
62.40391146317163
 30
0.0
 10
222.2160611405247
 20
61.94134807716848
 30
0.0
 10
222.2664258994067
 20
61.51302664338859
 30
0.0
 10
222.3718288633827
 20
61.19306804448071
 30
0.0
 10
222.5541315436429
 20
60.8527276921979
 30
0.0
 10
222.8543501914665
 20
60.51598043634731
 30
0.0
 10
223.2668838909221
 20
60.23139990269541
 30
0.0
 10
223.5863888139437
 20
60.130448378201
 30
0.0
 10
223.7213331243862
 20
60.08781105752315
 30
0.0
  0
SPLINE
  5
20E
330
1F
100
AcDbEntity
  8
0
  6
Continuous
 62
     7
370
    25
100
AcDbSpline
210
0.0
220
0.0
230
1.0
 70
     8
 71
     3
 72
    23
 73
    19
 74
     0
 42
0.000000001
 43
0.00000001
 40
0.0
 40
0.0
 40
0.0
 40
0.0
 40
0.0348553456757368
 40
0.0924875483733811
 40
0.1569235134172366
 40
0.2282023331356552
 40
0.2894010413024372
 40
0.3420603943937356
 40
0.386179852768862
 40
0.4217620765699267
 40
0.5236776464945392
 40
0.6145312802564606
 40
0.706740138236361
 40
0.7392881005544185
 40
0.7727496196924775
 40
0.8071413148832504
 40
0.8951504119937103
 40
1.0
 40
1.0
 40
1.0
 40
1.0
 10
229.1134678968794
 20
61.47545575445783
 30
0.0
 10
229.1511037867417
 20
61.51062897688348
 30
0.0
 10
229.2509694204552
 20
61.60396000107713
 30
0.0
 10
229.3697934696082
 20
61.75930524023676
 30
0.0
 10
229.466204536147
 20
61.94803444712667
 30
0.0
 10
229.4974806991868
 20
62.13401332440992
 30
0.0
 10
229.4680753501346
 20
62.30582491198297
 30
0.0
 10
229.3995804004937
 20
62.45263142490779
 30
0.0
 10
229.3117675427874
 20
62.57384256912295
 30
0.0
 10
229.157477360762
 20
62.73942469339389
 30
0.0
 10
228.8896408558158
 20
62.94959967921673
 30
0.0
 10
228.4381101851753
 20
63.20500186481863
 30
0.0
 10
228.0224337145001
 20
63.3969840219254
 30
0.0
 10
227.6903244984965
 20
63.52825386417973
 30
0.0
 10
227.4711989010214
 20
63.60787114063504
 30
0.0
 10
227.1197453251831
 20
63.72380966074614
 30
0.0
 10
226.5811981760589
 20
63.87600489609213
 30
0.0
 10
226.1073411479958
 20
63.95153638121698
 30
0.0
 10
225.8497239494951
 20
63.99259984222755
 30
0.0
  0
LINE
  5
20F
330
1F
100
AcDbEntity
  8
0
  6
Continuous
 62
     7
370
    25
100
AcDbLine
 10
219.3401542276
 20
48.7454286541
 30
0.0
 11
219.3349161646
 21
49.0415120771
 31
0.0
  0
LINE
  5
210
330
1F
100
AcDbEntity
  8
0
  6
Continuous
 62
     7
370
    25
100
AcDbLine
 10
219.3349161646
 20
49.0415120771
 30
0.0
 11
219.3780119757
 21
49.6931121782
 31
0.0
  0
LINE
  5
211
330
1F
100
AcDbEntity
  8
0
  6
Continuous
 62
     7
370
    25
100
AcDbLine
 10
218.8553673466
 20
51.5222002945
 30
0.0
 11
218.543952844
 21
51.850796864
 31
0.0
  0
SPLINE
  5
212
330
1F
100
AcDbEntity
  8
0
  6
Continuous
 62
     7
370
    25
100
AcDbSpline
210
0.0
220
0.0
230
1.0
 70
     8
 71
     3
 72
    21
 73
    17
 74
     0
 42
0.000000001
 43
0.00000001
 40
0.0
 40
0.0
 40
0.0
 40
0.0
 40
0.07069713625456
 40
0.1335275377189964
 40
0.1982764247492844
 40
0.2594303159517108
 40
0.3224480379136997
 40
0.4431337284874596
 40
0.5642288053924455
 40
0.625859762067354
 40
0.6892065836071358
 40
0.7632984584154543
 40
0.811925079627065
 40
0.852886817268283
 40
0.9054744357386597
 40
1.0
 40
1.0
 40
1.0
 40
1.0
 10
222.2698381377918
 20
61.73395105453215
 30
0.0
 10
222.2665644711088
 20
61.91222562971515
 30
0.0
 10
222.2603814108795
 20
62.24893750127347
 30
0.0
 10
222.4340466810569
 20
62.68756504936405
 30
0.0
 10
222.6747646852486
 20
63.06651605920241
 30
0.0
 10
223.0084268214113
 20
63.38939018896156
 30
0.0
 10
223.5390738441208
 20
63.72618062975585
 30
0.0
 10
224.3612440526733
 20
63.97535800629464
 30
0.0
 10
225.290399057798
 20
63.96862186277863
 30
0.0
 10
226.0420048770286
 20
63.80605915105937
 30
0.0
 10
226.6317419085939
 20
63.58553430106581
 30
0.0
 10
227.1417263495709
 20
63.28056830191252
 30
0.0
 10
227.5063292109172
 20
62.90525502487007
 30
0.0
 10
227.7002298182354
 20
62.5133477044877
 30
0.0
 10
227.7621571385275
 20
61.99930250807634
 30
0.0
 10
227.6953907118383
 20
61.64580761521372
 30
0.0
 10
227.6524908571868
 20
61.41867430471851
 30
0.0
  0
SPLINE
  5
213
330
1F
100
AcDbEntity
  8
0
  6
Continuous
 62
     7
370
    25
100
AcDbSpline
210
0.0
220
0.0
230
1.0
 70
     8
 71
     3
 72
    10
 73
     6
 74
     0
 42
0.000000001
 43
0.00000001
 40
0.0
 40
0.0
 40
0.0
 40
0.0
 40
0.2949144692794468
 40
0.9797009353324534
 40
1.0
 40
1.0
 40
1.0
 40
1.0
 10
227.655218713175
 20
61.41743575129613
 30
0.0
 10
227.7380439341555
 20
61.37867044165972
 30
0.0
 10
228.0131879332342
 20
61.2498927312882
 30
0.0
 10
228.2883479942607
 20
61.10856935297282
 30
0.0
 10
228.4370046854102
 20
61.0144515319523
 30
0.0
 10
228.441284438228
 20
61.01174192630586
 30
0.0
  0
ARC
  5
214
330
1F
100
AcDbEntity
  8
0
  6
Continuous
 62
     7
370
    25
100
AcDbCircle
 10
231.6653272785
 20
47.2042167589
 30
0.0
 40
12.46654291792021
100
AcDbArc
 50
171.5249863735
 51
179.8211981812
  0
SPLINE
  5
215
330
1F
100
AcDbEntity
  8
0
  6
Continuous
 62
     7
370
    25
100
AcDbSpline
210
0.0
220
0.0
230
1.0
 70
     8
 71
     3
 72
    14
 73
    10
 74
     0
 42
0.000000001
 43
0.00000001
 40
0.0
 40
0.0
 40
0.0
 40
0.0
 40
0.0003951393068452
 40
0.0003951393068452
 40
0.0003951393068452
 40
0.0008163352168296
 40
0.0008163352168296
 40
0.0008163352168296
 40
0.0012378579336484
 40
0.0012378579336484
 40
0.0012378579336484
 40
0.0012378579336484
 10
227.2471410503367
 20
61.56268307346417
 30
0.0
 10
227.2926028645666
 20
61.54824621083981
 30
0.0
 10
227.3374904691863
 20
61.53338035027489
 30
0.0
 10
227.3817741618601
 20
61.51809656267012
 30
0.0
 10
227.4289774540939
 20
61.50180512333458
 30
0.0
 10
227.4755032671477
 20
61.48503564525292
 30
0.0
 10
227.5213141763841
 20
61.46780683445997
 30
0.0
 10
227.567160564368
 20
61.45056468063066
 30
0.0
 10
227.6122997999352
 20
61.43285897442859
 30
0.0
 10
227.6566933579726
 20
61.4147161177403
 30
0.0
  0
LINE
  5
216
330
1F
100
AcDbEntity
  8
0
  6
Continuous
 62
     7
370
    25
100
AcDbLine
 10
218.543952844
 20
51.850796864
 30
0.0
 11
217.9040161697
 21
52.2630285041
 31
0.0
  0
LINE
  5
217
330
1F
100
AcDbEntity
  8
0
  6
Continuous
 62
     7
370
    25
100
AcDbLine
 10
217.5980820745
 20
52.634506891
 30
0.0
 11
217.9040161697
 21
52.2630285041
 31
0.0
  0
SPLINE
  5
218
330
1F
100
AcDbEntity
  8
0
  6
Continuous
 62
     7
370
    25
100
AcDbSpline
210
0.0
220
0.0
230
1.0
 70
     8
 71
     3
 72
    13
 73
     9
 74
     0
 42
0.000000001
 43
0.00000001
 40
0.0
 40
0.0
 40
0.0
 40
0.0
 40
0.1618542299052077
 40
0.3254858841874489
 40
0.4910085196967187
 40
0.6585318473110602
 40
0.828161695440384
 40
1.0
 40
1.0
 40
1.0
 40
1.0
 10
217.9040165813149
 20
52.26302850803436
 30
0.0
 10
217.884439189295
 20
52.27559148506906
 30
0.0
 10
217.8450694134455
 20
52.30085540119012
 30
0.0
 10
217.7835334736709
 20
52.33354909810696
 30
0.0
 10
217.7199768144202
 20
52.3624951718139
 30
0.0
 10
217.654358711765
 20
52.38700753927811
 30
0.0
 10
217.5869314427145
 20
52.40744260262929
 30
0.0
 10
217.5410468425196
 20
52.4170392576176
 30
0.0
 10
217.5179561623469
 20
52.42186861845154
 30
0.0
  0
SPLINE
  5
219
330
1F
100
AcDbEntity
  8
0
  6
Continuous
 62
     7
370
    25
100
AcDbSpline
210
0.0
220
0.0
230
1.0
 70
     8
 71
     3
 72
     9
 73
     5
 74
     0
 42
0.000000001
 43
0.00000001
 40
0.0
 40
0.0
 40
0.0
 40
0.0
 40
0.4907282259505859
 40
1.0
 40
1.0
 40
1.0
 40
1.0
 10
217.517950335055
 20
52.42184062142053
 30
0.0
 10
217.4938568125771
 20
52.42993615363866
 30
0.0
 10
217.4447593260179
 20
52.44643313055994
 30
0.0
 10
217.3940586321977
 20
52.46122679957617
 30
0.0
 10
217.3682381999104
 20
52.46876079764077
 30
0.0
  0
SPLINE
  5
21A
330
1F
100
AcDbEntity
  8
0
  6
Continuous
 62
     7
370
    25
100
AcDbSpline
210
0.0
220
0.0
230
1.0
 70
     8
 71
     3
 72
    14
 73
    10
 74
     0
 42
0.000000001
 43
0.00000001
 40
0.0
 40
0.0
 40
0.0
 40
0.0
 40
0.0310276388063898
 40
0.0622853718665477
 40
0.1248003166898006
 40
0.2498289731748368
 40
0.4998892603607338
 40
0.7606803622944698
 40
1.0
 40
1.0
 40
1.0
 40
1.0
 10
216.7842975106219
 20
52.84286854028661
 30
0.0
 10
216.7902897500263
 20
52.83903749663309
 30
0.0
 10
216.8023186659855
 20
52.8313469991355
 30
0.0
 10
216.8263784740345
 20
52.81590910962889
 30
0.0
 10
216.8686121466808
 20
52.78883865669803
 30
0.0
 10
216.9531747211932
 20
52.73462663190266
 30
0.0
 10
217.0764616906867
 20
52.65562345002039
 30
0.0
 10
217.2225933971466
 20
52.56201727534482
 30
0.0
 10
217.3209600136845
 20
52.49903419895113
 30
0.0
 10
217.3680317143425
 20
52.46889470017734
 30
0.0
  0
LINE
  5
21B
330
1F
100
AcDbEntity
  8
0
  6
Continuous
 62
     7
370
    25
100
AcDbLine
 10
214.9817973554
 20
54.0054992173
 30
0.0
 11
215.2727647095
 21
53.8174206781
 31
0.0
  0
SPLINE
  5
21C
330
1F
100
AcDbEntity
  8
0
  6
Continuous
 62
     7
370
    25
100
AcDbSpline
210
0.0
220
0.0
230
1.0
 70
     8
 71
     3
 72
     8
 73
     4
 74
     0
 42
0.000000001
 43
0.00000001
 40
0.0
 40
0.0
 40
0.0
 40
0.0
 40
1.0
 40
1.0
 40
1.0
 40
1.0
 10
215.3041530129173
 20
53.79719814797546
 30
0.0
 10
215.2937105070655
 20
53.80402357287286
 30
0.0
 10
215.2832445741757
 20
53.81076653965938
 30
0.0
 10
215.2727568093592
 20
53.81742562731236
 30
0.0
  0
SPLINE
  5
21D
330
1F
100
AcDbEntity
  8
0
  6
Continuous
 62
     7
370
    25
100
AcDbSpline
210
0.0
220
0.0
230
1.0
 70
     8
 71
     3
 72
     8
 73
     4
 74
     0
 42
0.000000001
 43
0.00000001
 40
0.0
 40
0.0
 40
0.0
 40
0.0
 40
1.0
 40
1.0
 40
1.0
 40
1.0
 10
212.5181486340912
 20
55.67545379978598
 30
0.0
 10
212.577148398262
 20
55.63671313286653
 30
0.0
 10
212.6364359617733
 20
55.59865115556676
 30
0.0
 10
212.6960170352624
 20
55.56126736710599
 30
0.0
  0
SPLINE
  5
21E
330
1F
100
AcDbEntity
  8
0
  6
Continuous
 62
     7
370
    25
100
AcDbSpline
210
0.0
220
0.0
230
1.0
 70
     8
 71
     3
 72
     8
 73
     4
 74
     0
 42
0.000000001
 43
0.00000001
 40
0.0
 40
0.0
 40
0.0
 40
0.0
 40
1.0
 40
1.0
 40
1.0
 40
1.0
 10
212.4932988879939
 20
56.03866397772286
 30
0.0
 10
212.5007731000845
 20
55.91770613701174
 30
0.0
 10
212.5090692039745
 20
55.79663429460181
 30
0.0
 10
212.5181486340934
 20
55.67545379978671
 30
0.0
  0
LWPOLYLINE
  5
21F
330
1F
100
AcDbEntity
  8
0
  6
Continuous
 62
     7
370
    25
100
AcDbPolyline
 90
       17
 70
   128
 43
0.0
 10
212.4932992468
 20
56.0386633123
 10
212.8331589208
 20
57.0091318826
 10
213.2355948111
 20
57.9746356026
 10
213.6969151171
 20
58.9263207494
 10
214.2128909953
 20
59.8554608377
 10
214.7787901448
 20
60.7535349446
 10
215.3894232349
 20
61.6123081242
 10
216.039190991
 20
62.4239053581
 10
216.7221349023
 20
63.1808845551
 10
217.4319925398
 20
63.8763034666
 10
218.162254191
 20
64.5037850815
 10
218.9062234462
 20
65.0575761759
 10
219.6570781135
 20
65.5325984482
 10
220.4079327808
 20
65.9244945218
 10
221.151902036
 20
66.2296720459
 10
221.8821636873
 20
66.4453325867
 10
222.4572617158
 20
66.5527710038
  0
SPLINE
  5
220
330
1F
100
AcDbEntity
  8
0
  6
Continuous
 62
     7
370
    25
100
AcDbSpline
210
0.0
220
0.0
230
1.0
 70
     8
 71
     3
 72
    10
 73
     6
 74
     0
 42
0.000000001
 43
0.00000001
 40
0.0
 40
0.0
 40
0.0
 40
0.0
 40
0.2409818396634726
 40
0.5031433556203718
 40
1.0
 40
1.0
 40
1.0
 40
1.0
 10
218.5439528440326
 20
45.14495524076904
 30
0.0
 10
218.6261987150356
 20
45.09327871884848
 30
0.0
 10
218.7979189723801
 20
44.9853838721571
 30
0.0
 10
219.075640331407
 20
44.85566116169286
 30
0.0
 10
219.1966175784511
 20
44.87843910279785
 30
0.0
 10
219.2758098193665
 20
44.89334964377658
 30
0.0
  0
LINE
  5
221
330
1F
100
AcDbEntity
  8
0
  6
Continuous
 62
     7
370
    25
100
AcDbLine
 10
213.7607787879
 20
54.8740279737
 30
0.0
 11
212.9989000855
 21
55.3646623814
 31
0.0
  0
LINE
  5
222
330
1F
100
AcDbEntity
  8
0
  6
Continuous
 62
     7
370
    25
100
AcDbLine
 10
212.9989000855
 20
55.3646623814
 30
0.0
 11
212.5181487653
 21
55.6754537575
 31
0.0
  0
LINE
  5
223
330
1F
100
AcDbEntity
  8
0
  6
Continuous
 62
     7
370
    25
100
AcDbLine
 10
217.5980820745
 20
44.8691754398
 30
0.0
 11
217.9040161697
 21
45.5571868809
 31
0.0
  0
LINE
  5
224
330
1F
100
AcDbEntity
  8
0
  6
Continuous
 62
     7
370
    25
100
AcDbLine
 10
217.9040161697
 20
45.5571868809
 30
0.0
 11
218.543952844
 21
45.1449552408
 31
0.0
  0
SPLINE
  5
225
330
1F
100
AcDbEntity
  8
0
  6
Continuous
 62
     7
370
    25
100
AcDbSpline
210
0.0
220
0.0
230
1.0
 70
     8
 71
     3
 72
    13
 73
     9
 74
     0
 42
0.000000001
 43
0.00000001
 40
0.0
 40
0.0
 40
0.0
 40
0.0
 40
0.1722587823584898
 40
0.3421398271275632
 40
0.5097456257942847
 40
0.675182899330312
 40
0.838562619015417
 40
1.0
 40
1.0
 40
1.0
 40
1.0
 10
217.5179446505416
 20
45.83849658628765
 30
0.0
 10
217.5410961744944
 20
45.82037699535251
 30
0.0
 10
217.5870796552465
 20
45.78438792341499
 30
0.0
 10
217.6546206679614
 20
45.7333879399967
 30
0.0
 10
217.7202802826481
 20
45.68506325980552
 30
0.0
 10
217.7838043538972
 20
45.63963225389786
 30
0.0
 10
217.8452347326152
 20
45.59680668614115
 30
0.0
 10
217.8845008995854
 20
45.57034086896819
 30
0.0
 10
217.9040165813149
 20
45.55718709042264
 30
0.0
  0
SPLINE
  5
226
330
1F
100
AcDbEntity
  8
0
  6
Continuous
 62
     7
370
    25
100
AcDbSpline
210
0.0
220
0.0
230
1.0
 70
     8
 71
     3
 72
    11
 73
     7
 74
     0
 42
0.000000001
 43
0.00000001
 40
0.0
 40
0.0
 40
0.0
 40
0.0
 40
0.2392845095215635
 40
0.5001120454085677
 40
0.751501091501476
 40
1.0
 40
1.0
 40
1.0
 40
1.0
 10
217.3685642390655
 20
45.88581057850053
 30
0.0
 10
217.3214950070458
 20
45.85749605578023
 30
0.0
 10
217.2231188524496
 20
45.79831782522646
 30
0.0
 10
217.0768216308677
 20
45.70512992476375
 30
0.0
 10
216.9289808872439
 20
45.6097580087911
 30
0.0
 10
216.8326944245216
 20
45.54522275353406
 30
0.0
 10
216.7848295366604
 20
45.51314168347875
 30
0.0
  0
SPLINE
  5
227
330
1F
100
AcDbEntity
  8
0
  6
Continuous
 62
     7
370
    25
100
AcDbSpline
210
0.0
220
0.0
230
1.0
 70
     8
 71
     3
 72
     9
 73
     5
 74
     0
 42
0.000000001
 43
0.00000001
 40
0.0
 40
0.0
 40
0.0
 40
0.0
 40
0.5090669353869889
 40
1.0
 40
1.0
 40
1.0
 40
1.0
 10
217.3691352426496
 20
45.88511162428876
 30
0.0
 10
217.3947838172736
 20
45.87761891612887
 30
0.0
 10
217.4451673186191
 20
45.86290040341661
 30
0.0
 10
217.4939748301144
 20
45.84650804556445
 30
0.0
 10
217.5179360513089
 20
45.83846049508785
 30
0.0
  0
LINE
  5
228
330
1F
100
AcDbEntity
  8
0
  6
Continuous
 62
     7
370
    25
100
AcDbLine
 10
219.1990538228
 20
46.8089901915
 30
0.0
 11
217.5179378664
 21
45.8385026073
 31
0.0
  0
LINE
  5
229
330
1F
100
AcDbEntity
  8
0
  6
Continuous
 62
     7
370
    25
100
AcDbLine
 10
215.5114502152
 20
46.962323906
 30
0.0
 11
215.3111545616
 21
46.4611664917
 31
0.0
  0
SPLINE
  5
22A
330
1F
100
AcDbEntity
  8
0
  6
Continuous
 62
     7
370
    25
100
AcDbSpline
210
0.0
220
0.0
230
1.0
 70
     8
 71
     3
 72
     8
 73
     4
 74
     0
 42
0.000000001
 43
0.00000001
 40
0.0
 40
0.0
 40
0.0
 40
0.0
 40
1.0
 40
1.0
 40
1.0
 40
1.0
 10
215.5110070445095
 20
46.96310765815009
 30
0.0
 10
215.5371823790787
 20
46.98527503512837
 30
0.0
 10
215.5630034190442
 20
47.00790717621999
 30
0.0
 10
215.5884609727525
 20
47.03099189631127
 30
0.0
  0
LINE
  5
22B
330
1F
100
AcDbEntity
  8
0
  6
Continuous
 62
     7
370
    25
100
AcDbLine
 10
215.5884610685
 20
47.0309917807
 30
0.0
 11
217.3687538278
 21
45.8852208956
 31
0.0
  0
LINE
  5
22C
330
1F
100
AcDbEntity
  8
0
  6
Continuous
 62
     7
370
    25
100
AcDbLine
 10
219.1988450642
 20
46.9070401267
 30
0.0
 11
219.1108457372
 21
47.0145311951
 31
0.0
  0
LINE
  5
22D
330
1F
100
AcDbEntity
  8
0
  6
Continuous
 62
     7
370
    25
100
AcDbLine
 10
217.2825740593
 20
48.0089823931
 30
0.0
 11
215.5884610685
 21
47.0309917807
 31
0.0
  0
LINE
  5
22E
330
1F
100
AcDbEntity
  8
0
  6
Continuous
 62
     7
370
    25
100
AcDbLine
 10
217.4248848689
 20
47.9877540999
 30
0.0
 11
217.2829942107
 21
48.0084950156
 31
0.0
  0
LINE
  5
22F
330
1F
100
AcDbEntity
  8
0
  6
Continuous
 62
     7
370
    25
100
AcDbLine
 10
219.1109194942
 20
47.0144270286
 30
0.0
 11
217.4248848689
 21
47.9877540999
 31
0.0
  0
LINE
  5
230
330
1F
100
AcDbEntity
  8
0
  6
Continuous
 62
     7
370
    25
100
AcDbLine
 10
219.1988450642
 20
46.9636629458
 30
0.0
 11
219.1108727375
 21
47.014454002
 31
0.0
  0
SPLINE
  5
231
330
1F
100
AcDbEntity
  8
0
  6
Continuous
 62
     7
370
    25
100
AcDbSpline
210
0.0
220
0.0
230
1.0
 70
     8
 71
     3
 72
    19
 73
    15
 74
     0
 42
0.000000001
 43
0.00000001
 40
0.0
 40
0.0
 40
0.0
 40
0.0
 40
0.0637853009096226
 40
0.1289628367612685
 40
0.1955871994238738
 40
0.2637095015333396
 40
0.333377557928126
 40
0.4046360709483682
 40
0.4775268158796784
 40
0.5520888236292854
 40
0.6283585584260098
 40
0.7063700889343436
 40
0.837704180588121
 40
1.0
 40
1.0
 40
1.0
 40
1.0
 10
214.7269379385481
 20
47.13159574550197
 30
0.0
 10
214.7476273075522
 20
47.1182366054923
 30
0.0
 10
214.7894576302051
 20
47.09122673695252
 30
0.0
 10
214.8499486037974
 20
47.05370477142707
 30
0.0
 10
214.909432801975
 20
47.01818503033686
 30
0.0
 10
214.9675139614457
 20
46.9852049014203
 30
0.0
 10
215.0240460785327
 20
46.95499846514951
 30
0.0
 10
215.078791133287
 20
46.92788502518729
 30
0.0
 10
215.1315135108804
 20
46.9041534074365
 30
0.0
 10
215.1819551438131
 20
46.88411315399107
 30
0.0
 10
215.2298380622809
 20
46.86799329245225
 30
0.0
 10
215.2848022166567
 20
46.85371532276969
 30
0.0
 10
215.3476335306196
 20
46.84357676551749
 30
0.0
 10
215.3861410462785
 20
46.85005101683188
 30
0.0
 10
215.4074250114737
 20
46.85362948034173
 30
0.0
  0
LINE
  5
232
330
1F
100
AcDbEntity
  8
0
  6
Continuous
 62
     7
370
    25
100
AcDbLine
 10
215.4320606991
 20
46.8796999346
 30
0.0
 11
215.4997254888
 21
46.951303105
 31
0.0
  0
SPLINE
  5
233
330
1F
100
AcDbEntity
  8
0
  6
Continuous
 62
     7
370
    25
100
AcDbSpline
210
0.0
220
0.0
230
1.0
 70
     8
 71
     3
 72
     9
 73
     5
 74
     0
 42
0.000000001
 43
0.00000001
 40
0.0
 40
0.0
 40
0.0
 40
0.0
 40
0.5231976711515671
 40
0.9999999999999999
 40
0.9999999999999999
 40
0.9999999999999999
 40
0.9999999999999999
 10
217.1163244982243
 20
47.91300873386079
 30
0.0
 10
217.0472897066994
 20
47.93804542877748
 30
0.0
 10
216.9153418878705
 20
47.98589865194185
 30
0.0
 10
216.6739029175006
 20
48.1234931693288
 30
0.0
 10
216.5587842541534
 20
48.18909855565568
 30
0.0
  0
LINE
  5
234
330
1F
100
AcDbEntity
  8
0
  6
Continuous
 62
     7
370
    25
100
AcDbLine
 10
212.8292537519
 20
47.9549712007
 30
0.0
 11
213.2807248663
 21
48.0672351736
 31
0.0
  0
LINE
  5
235
330
1F
100
AcDbEntity
  8
0
  6
Continuous
 62
     7
370
    25
100
AcDbLine
 10
213.2807248663
 20
48.0672351736
 30
0.0
 11
214.7269373381
 21
47.1315958406
 31
0.0
  0
SPLINE
  5
236
330
1F
100
AcDbEntity
  8
0
  6
Continuous
 62
     7
370
    25
100
AcDbSpline
210
0.0
220
0.0
230
1.0
 70
     8
 71
     3
 72
     8
 73
     4
 74
     0
 42
0.000000001
 43
0.00000001
 40
0.0
 40
0.0
 40
0.0
 40
0.0
 40
1.0
 40
1.0
 40
1.0
 40
1.0
 10
213.0000423225649
 20
47.56022154771865
 30
0.0
 10
212.9429170536416
 20
47.69200773151258
 30
0.0
 10
212.8859885619247
 20
47.82359195317167
 30
0.0
 10
212.829254443976
 20
47.95497102007133
 30
0.0
  0
LINE
  5
237
330
1F
100
AcDbEntity
  8
0
  6
Continuous
 62
     7
370
    25
100
AcDbLine
 10
214.6184263253
 20
48.8394737884
 30
0.0
 11
213.2807248663
 21
48.0672351736
 31
0.0
  0
LINE
  5
238
330
1F
100
AcDbEntity
  8
0
  6
Continuous
 62
     7
370
    25
100
AcDbLine
 10
215.6015246159
 20
48.7417135424
 30
0.0
 11
214.6184263253
 21
48.8394737884
 31
0.0
  0
LINE
  5
239
330
1F
100
AcDbEntity
  8
0
  6
Continuous
 62
     7
370
    25
100
AcDbLine
 10
216.5587842542
 20
48.1890985557
 30
0.0
 11
215.6015239573
 21
48.7417131623
 31
0.0
  0
SPLINE
  5
23A
330
1F
100
AcDbEntity
  8
0
  6
Continuous
 62
     7
370
    25
100
AcDbSpline
210
0.0
220
0.0
230
1.0
 70
     8
 71
     3
 72
     8
 73
     4
 74
     0
 42
0.000000001
 43
0.00000001
 40
0.0
 40
0.0
 40
0.0
 40
0.0
 40
1.0
 40
1.0
 40
1.0
 40
1.0
 10
212.829254443976
 20
47.95497102007133
 30
0.0
 10
212.8261171062259
 20
47.99018732694385
 30
0.0
 10
212.8241247023279
 20
48.02583158317154
 30
0.0
 10
212.8233433049559
 20
48.06192848516642
 30
0.0
  0
LINE
  5
23B
330
1F
100
AcDbEntity
  8
0
  6
Continuous
 62
     7
370
    25
100
AcDbLine
 10
213.63442978
 20
48.5301581998
 30
0.0
 11
212.8233439735
 21
48.0619283303
 31
0.0
  0
SPLINE
  5
23C
330
1F
100
AcDbEntity
  8
0
  6
Continuous
 62
     7
370
    25
100
AcDbSpline
210
0.0
220
0.0
230
1.0
 70
     8
 71
     3
 72
     8
 73
     4
 74
     0
 42
0.000000001
 43
0.00000001
 40
0.0000004089325119
 40
0.0000004089325119
 40
0.0000004089325119
 40
0.0000004089325119
 40
0.0015399868451459
 40
0.0015399868451459
 40
0.0015399868451459
 40
0.0015399868451459
 10
213.6344288374447
 20
48.53015819652254
 30
0.0
 10
213.8729054054679
 20
48.6245345823389
 30
0.0
 10
214.1113523631366
 20
48.71896319426911
 30
0.0
 10
214.3497611019869
 20
48.81345657723156
 30
0.0
  0
LINE
  5
23D
330
1F
100
AcDbEntity
  8
0
  6
Continuous
 62
     7
370
    25
100
AcDbLine
 10
214.3497605809
 20
48.8134567243
 30
0.0
 11
214.3741570208
 21
48.8184507508
 31
0.0
  0
LINE
  5
23E
330
1F
100
AcDbEntity
  8
0
  6
Continuous
 62
     7
370
    25
100
AcDbLine
 10
214.6184263253
 20
48.8394737884
 30
0.0
 11
214.3741576793
 21
48.8184507507
 31
0.0
  0
SPLINE
  5
23F
330
1F
100
AcDbEntity
  8
0
  6
Continuous
 62
     7
370
    25
100
AcDbSpline
210
0.0
220
0.0
230
1.0
 70
     8
 71
     3
 72
     8
 73
     4
 74
     0
 42
0.000000001
 43
0.00000001
 40
0.0
 40
0.0
 40
0.0
 40
0.0
 40
1.0
 40
1.0
 40
1.0
 40
1.0
 10
215.6015225596227
 20
48.74171390720327
 30
0.0
 10
215.632107226121
 20
48.7267931059955
 30
0.0
 10
215.66263546712
 20
48.71193524055753
 30
0.0
 10
215.6931062553309
 20
48.69714065342929
 30
0.0
  0
ARC
  5
240
330
1F
100
AcDbEntity
  8
0
  6
Continuous
 62
     7
370
    25
100
AcDbCircle
 10
216.4569491526
 20
54.2424009414
 30
0.0
 40
6.625640594018769
100
AcDbArc
 50
283.7328304029
 51
294.8489571919
  0
LWPOLYLINE
  5
241
330
1F
100
AcDbEntity
  8
0
  6
Continuous
 62
     7
370
    18
100
AcDbPolyline
 90
       27
 70
   128
 43
0.0
 10
240.5935139161
 20
37.3508171059
 10
240.2954951966
 20
37.1940705118
 10
240.0093062414
 20
37.126067021
 10
239.7515792506
 20
37.1507587193
 10
239.537292819
 20
37.2667108239
 10
239.3788996939
 20
37.4671841323
 10
239.2856063276
 20
37.7405286299
 10
239.2628332
 20
38.0708576966
 10
239.3119053026
 20
38.4389746829
 10
239.4299691619
 20
38.8234850115
 10
239.61016472
 20
39.2020431656
 10
239.842018485
 20
39.5526481303
 10
240.1120566361
 20
39.8549242817
 10
240.4045857285
 20
40.0913044983
 10
240.702604448
 20
40.2480510924
 10
240.9887934032
 20
40.3160545833
 10
241.246520394
 20
40.2913628849
 10
241.4608068256
 20
40.1754107803
 10
241.6191996214
 20
39.9749372818
 10
241.712493317
 20
39.7015929744
 10
241.7352661153
 20
39.3712637176
 10
241.6861946713
 20
39.0031471114
 10
241.5681304826
 20
38.6186365927
 10
241.3879352538
 20
38.2400786288
 10
241.1560811596
 20
37.8894734739
 10
240.8860426792
 20
37.5871971325
 10
240.5935139161
 20
37.3508171059
  0
LWPOLYLINE
  5
242
330
1F
100
AcDbEntity
  8
0
  6
Continuous
 62
     7
370
    18
100
AcDbPolyline
 90
       16
 70
   128
 43
0.0
 10
239.3335872219
 20
37.0846737914
 10
239.2556781139
 20
37.1350187072
 10
239.070268859
 20
37.3409311948
 10
238.9523551477
 20
37.6267482157
 10
238.9082945689
 20
37.9770618563
 10
238.9404611754
 20
38.3729858396
 10
239.0471223366
 20
38.7931766599
 10
239.2225269834
 20
39.2149811721
 10
239.4572190751
 20
39.6156598804
 10
239.7385466548
 20
39.973612263
 10
240.0513427837
 20
40.2695406209
 10
240.3787447713
 20
40.4874916445
 10
240.7031026369
 20
40.6157158421
 10
241.0069297189
 20
40.6473000606
 10
241.2738466984
 20
40.5805418297
 10
241.3149164973
 20
40.5593488182
  0
LWPOLYLINE
  5
243
330
1F
100
AcDbEntity
  8
0
  6
Continuous
 62
     7
370
    18
100
AcDbPolyline
 90
       20
 70
   128
 43
0.0
 10
249.1887923825
 20
44.038112842
 10
249.2113998862
 20
44.1538312619
 10
249.3294640748
 20
44.5383417806
 10
249.5096593037
 20
44.9168997445
 10
249.7415133979
 20
45.2675048994
 10
250.0115518783
 20
45.5697812408
 10
250.3040806414
 20
45.8061612674
 10
250.6020993609
 20
45.9629078615
 10
250.8882883161
 20
46.0309113523
 10
251.1460153069
 20
46.006219654
 10
251.3603017385
 20
45.8902675494
 10
251.5186948636
 20
45.689794241
 10
251.6119882299
 20
45.4164497434
 10
251.6347613575
 20
45.0861206767
 10
251.5856892549
 20
44.7180036904
 10
251.4676253955
 20
44.3334933618
 10
251.2874298375
 20
43.9549352078
 10
251.0555760725
 20
43.604330243
 10
250.7855379214
 20
43.3020540916
 10
250.6590288872
 20
43.1893635558
  0
LWPOLYLINE
  5
244
330
1F
100
AcDbEntity
  8
0
  6
Continuous
 62
     7
370
    18
100
AcDbPolyline
 90
       11
 70
   128
 43
0.0
 10
248.8668997783
 20
44.2239377714
 10
248.9466172495
 20
44.5080334289
 10
249.1220218963
 20
44.9298379412
 10
249.356713988
 20
45.3305166495
 10
249.6380412384
 20
45.688468842
 10
249.9508376966
 20
45.9843973899
 10
250.2782396842
 20
46.2023484135
 10
250.6025975498
 20
46.3305726112
 10
250.9064249611
 20
46.3621570198
 10
251.1733416113
 20
46.2953985988
 10
251.2144117395
 20
46.2742057774
  0
LWPOLYLINE
  5
245
330
1F
100
AcDbEntity
  8
0
  6
Continuous
 62
     7
370
    18
100
AcDbPolyline
 90
       35
 70
   128
 43
0.0
 10
254.6588637572
 20
39.66344586
 10
254.2973074289
 20
39.6468097264
 10
253.9113419837
 20
39.5360943612
 10
253.5141109822
 20
39.3350698565
 10
253.1191416696
 20
39.0505820083
 10
252.7398842411
 20
38.6923186598
 10
252.3892538247
 20
38.2724800837
 10
252.0791908201
 20
37.8053631927
 10
251.8202539183
 20
37.3068752619
 10
251.6212610304
 20
36.7939917522
 10
251.4889884148
 20
36.2841780543
 10
251.4279406803
 20
35.7947954579
 10
251.4401966875
 20
35.3425093004
 10
251.5253390838
 20
34.9427216204
 10
251.6804682976
 20
34.6090466512
 10
251.9003018143
 20
34.3528473685
 10
252.1773532998
 20
34.1828482198
 10
252.5021881162
 20
34.1048384488
 10
252.8637444446
 20
34.1214745823
 10
253.2497098898
 20
34.2321899476
 10
253.6469408912
 20
34.4332144523
 10
254.0419102039
 20
34.7177023005
 10
254.4211676324
 20
35.0759656489
 10
254.7717980488
 20
35.495804225
 10
255.0818610534
 20
35.962921116
 10
255.3407979551
 20
36.4614090469
 10
255.539790843
 20
36.9742925566
 10
255.6720634587
 20
37.4841062545
 10
255.7331111932
 20
37.9734888508
 10
255.720855186
 20
38.4257750083
 10
255.6357127897
 20
38.8255626883
 10
255.4805835759
 20
39.1592376576
 10
255.2607500592
 20
39.4154369403
 10
254.9836985737
 20
39.585436089
 10
254.6588637572
 20
39.66344586
  0
LWPOLYLINE
  5
246
330
1F
100
AcDbEntity
  8
0
  6
Continuous
 62
     7
370
    18
100
AcDbPolyline
 90
        3
 70
   128
 43
0.0
 10
254.5881520468
 20
39.9273367115
 10
254.9250520572
 20
39.847968192
 10
255.0639713626
 20
39.780442402
  0
LWPOLYLINE
  5
247
330
1F
100
AcDbEntity
  8
0
  6
Continuous
 62
     7
370
    18
100
AcDbPolyline
 90
       17
 70
   128
 43
0.0
 10
251.7679473744
 20
34.1794138677
 10
251.540326569
 20
34.3747280851
 10
251.3396873198
 20
34.6744359264
 10
251.2065251751
 20
35.047789693
 10
251.1451196864
 20
35.4827891879
 10
251.1574448408
 20
35.9654534244
 10
251.2431045237
 20
36.4802691632
 10
251.3993451961
 20
37.0106896317
 10
251.6211454559
 20
37.5396668639
 10
251.9013763943
 20
38.0501989091
 10
252.2310311803
 20
38.5258770115
 10
252.5995144091
 20
38.9514124411
 10
252.9949826515
 20
39.3131281483
 10
253.4047253349
 20
39.5993982255
 10
253.8155729428
 20
39.8010217696
 10
254.2143205311
 20
39.9115183243
 10
254.5881520468
 20
39.9273367115
  0
LWPOLYLINE
  5
248
330
1F
100
AcDbEntity
  8
0
  6
Continuous
 62
     7
370
    18
100
AcDbPolyline
 90
       31
 70
   128
 43
0.0
 10
232.3673216582
 20
40.1497751369
 10
232.4036331438
 20
41.0376204252
 10
232.5122277917
 20
41.9591000982
 10
232.6920927605
 20
42.9056110393
 10
232.941548103
 20
43.8683155914
 10
233.2582645474
 20
44.8382254918
 10
233.6392852289
 20
45.8062844755
 10
234.0810526899
 20
46.7634543944
 10
234.5794424662
 20
47.7007986757
 10
235.1298009532
 20
48.6095650183
 10
235.7269895279
 20
49.4812690397
 10
236.365432294
 20
50.3077712682
 10
237.0391687653
 20
51.081355466
 10
237.7419080306
 20
51.7947990616
 10
238.4670890109
 20
52.4414398752
 10
239.2079408811
 20
53.0152406566
 10
239.9575463718
 20
53.5108446416
 10
240.7089067189
 20
53.9236244522
 10
241.4550066949
 20
54.2497257227
 10
242.1888801335
 20
54.4861034053
 10
242.9036748792
 20
54.6305508994
 10
243.5927175711
 20
54.6817191997
 10
244.2495742295
 20
54.6391313392
 10
244.8681121587
 20
54.5031839045
 10
245.4425565817
 20
54.2751470301
 10
245.9675433244
 20
53.9571499452
 10
246.4381714985
 20
53.552160816
 10
246.8500469657
 20
53.063962027
 10
247.1993231677
 20
52.4971106328
 10
247.4827403091
 20
51.856899951
 10
247.6679697814
 20
51.2667462563
  0
LWPOLYLINE
  5
249
330
1F
100
AcDbEntity
  8
0
  6
Continuous
 62
     7
370
    18
100
AcDbPolyline
 90
       15
 70
   128
 43
0.0
 10
238.1687416778
 20
34.8118176912
 10
237.7419080306
 20
34.7101165529
 10
237.0391687653
 20
34.6121946632
 10
236.365432294
 20
34.6078992889
 10
235.7269895279
 20
34.6972711899
 10
235.1298009532
 20
34.8794759593
 10
234.5794424662
 20
35.1528119184
 10
234.0810526899
 20
35.5147276123
 10
233.6392852289
 20
35.9618436775
 10
233.2582645474
 20
36.4899855463
 10
232.941548103
 20
37.0942224236
 10
232.6920927605
 20
37.7689119678
 10
232.5122277917
 20
38.5077552362
 10
232.4036331438
 20
39.3038541976
 10
232.3673216582
 20
40.1497751369
  0
LWPOLYLINE
  5
24A
330
1F
100
AcDbEntity
  8
0
  6
Continuous
 62
     7
370
    18
100
AcDbPolyline
 90
       31
 70
   128
 43
0.0
 10
222.7241531303
 20
41.8489243212
 10
222.7602387352
 20
42.9037765022
 10
222.8682591323
 20
43.993449803
 10
223.0475156059
 20
45.1108782579
 10
223.2968445079
 20
46.2488141947
 10
223.6146291115
 20
47.3998780428
 10
223.9988088309
 20
48.5566045315
 10
224.4468923923
 20
49.7114926885
 10
224.9559729802
 20
50.8570514668
 10
225.5227486524
 20
51.9858518338
 10
226.1435453892
 20
53.0905735383
 10
226.8143348738
 20
54.1640507363
 10
227.5307687367
 20
55.1993229388
 10
228.2881996295
 20
56.1896760745
 10
229.0817154686
 20
57.1286858339
 10
229.9061700579
 20
58.0102642436
 10
230.7562163454
 20
58.8286925543
 10
231.6263416549
 20
59.5786628718
 10
232.5109027539
 20
60.2553120903
 10
233.4041630201
 20
60.8542524732
 10
234.3003292374
 20
61.3715982184
 10
235.1935895036
 20
61.8039941863
 10
236.0781506026
 20
62.1486374739
 10
236.9482759121
 20
62.4032924546
 10
237.7983221995
 20
62.5663066969
 10
238.6227767889
 20
62.6366232943
 10
239.4162926279
 20
62.6137874215
 10
240.1737235207
 20
62.49794538
 10
240.8901573836
 20
62.2898501088
 10
241.5609468682
 20
61.9908499644
 10
241.720356786
 20
61.902479865
  0
LWPOLYLINE
  5
24B
330
1F
100
AcDbEntity
  8
0
  6
Continuous
 62
     7
370
    18
100
AcDbPolyline
 90
       11
 70
   128
 43
0.0
 10
225.9841354714
 20
34.6435914712
 10
225.5227486524
 20
34.9431864207
 10
224.9559729802
 20
35.4176015255
 10
224.4468923923
 20
35.975388368
 10
223.9988088309
 20
36.6129302571
 10
223.6146291115
 20
37.3260922833
 10
223.2968445079
 20
38.1102498379
 10
223.0475156059
 20
38.9603167518
 10
222.8682591323
 20
39.8707800878
 10
222.7602387352
 20
40.8357356927
 10
222.7241531303
 20
41.8489243212
  0
LWPOLYLINE
  5
24C
330
1F
100
AcDbEntity
  8
0
  6
Continuous
 62
     7
370
    18
100
AcDbPolyline
 90
       30
 70
   128
 43
0.0
 10
237.1756481633
 20
38.8435217158
 10
237.2125022896
 20
39.6632925015
 10
237.3226478098
 20
40.5163261862
 10
237.5048361236
 20
41.3929573088
 10
237.7570033524
 20
42.2832533717
 10
238.0762920717
 20
43.177127008
 10
238.4590845671
 20
44.0644499517
 10
238.9010439938
 20
44.9351691004
 10
239.3971624502
 20
45.7794181079
 10
239.9418189295
 20
46.5876322094
 10
240.5288418819
 20
47.3506527788
 10
241.1515808311
 20
48.0598359733
 10
241.8029791434
 20
48.707145693
 10
242.475656675
 20
49.2852469202
 10
243.1619915554
 20
49.7875905746
 10
243.8542073618
 20
50.208485131
 10
244.5444609936
 20
50.5431610366
 10
245.2249316587
 20
50.787825884
 10
245.887909159
 20
50.9397085331
 10
246.5258820537
 20
50.9970871927
 10
247.1316214996
 20
50.9593127257
 10
247.6982644751
 20
50.8268122056
 10
248.2193905006
 20
50.6010871984
 10
248.689095066
 20
50.2846953147
 10
249.1020564732
 20
49.8812218759
 10
249.4535954341
 20
49.395237513
 10
249.739728413
 20
48.8322489213
 10
249.9572147124
 20
48.1986357381
 10
250.1035887416
 20
47.5015758237
 10
250.170072761
 20
46.8771498931
  0
LWPOLYLINE
  5
24D
330
1F
100
AcDbEntity
  8
0
  6
Continuous
 62
     7
370
    18
100
AcDbPolyline
 90
       19
 70
   128
 43
0.0
 10
245.8239928047
 20
36.7432164699
 10
245.2249316587
 20
36.1927224536
 10
244.5444609936
 20
35.6517325942
 10
243.8542073618
 20
35.1894586201
 10
243.1619915554
 20
34.8111378182
 10
242.475656675
 20
34.5210560869
 10
241.8029791434
 20
34.3225003677
 10
241.1515808311
 20
34.2177216048
 10
240.5288418819
 20
34.2079057129
 10
239.9418189295
 20
34.293164008
 10
239.3971624502
 20
34.4725311238
 10
238.9010439938
 20
34.7439739542
 10
238.4590845671
 20
35.1044176102
 10
238.0762920717
 20
35.5497777462
 10
237.7570033524
 20
36.075008474
 10
237.5048361236
 20
36.6741584518
 10
237.3226478098
 20
37.3404394246
 10
237.2125022896
 20
38.0663017986
 10
237.1756481633
 20
38.8435217158
  0
LWPOLYLINE
  5
24E
330
1F
100
AcDbEntity
  8
0
  6
Continuous
 62
     7
370
    18
100
AcDbPolyline
 90
       22
 70
   128
 43
0.0
 10
236.7513841567
 20
38.843522096
 10
236.7881829653
 20
39.6756072526
 10
236.8981776788
 20
40.5410637782
 10
237.0801625024
 20
41.4304091939
 10
237.3321433631
 20
42.3338994957
 10
237.651360301
 20
43.241635997
 10
238.0343151276
 20
44.1436736923
 10
238.476812256
 20
45.030128859
 10
238.9740038106
 20
45.8912898902
 10
239.5204423114
 20
46.7177214735
 10
240.1101412594
 20
47.5003695291
 10
240.736639016
 20
48.2306589233
 10
241.3930722303
 20
48.9005879492
 10
242.0722486084
 20
49.5028174839
 10
242.7667269267
 20
50.0307491187
 10
243.468898362
 20
50.4785979659
 10
244.1710697973
 20
50.8414590014
 10
244.8655481156
 20
51.1153549656
 10
245.5447244938
 20
51.2972857858
 10
246.2011577081
 20
51.3852584168
 10
246.8276554647
 20
51.3783079356
 10
246.8584664573
 20
51.3754268825
  0
ARC
  5
24F
330
1F
100
AcDbEntity
  8
0
  6
Continuous
 62
     7
370
    18
100
AcDbCircle
 10
242.4159496966
 20
38.5627606034
 30
0.0
 40
5.671519176684437
100
AcDbArc
 50
177.1624840487
 51
213.1072319832
  0
LWPOLYLINE
  5
250
330
1F
100
AcDbEntity
  8
0
  6
Continuous
 62
     7
370
    18
100
AcDbPolyline
 90
        9
 70
   128
 43
0.0
 10
234.4886423495
 20
40.1497751369
 10
234.525441158
 20
39.3601769804
 10
234.6354358716
 20
38.6217176478
 10
234.8174206951
 20
37.9424874368
 10
235.0694015558
 20
37.3299280442
 10
235.3886184937
 20
36.7907515744
 10
235.7715733204
 20
36.3308641105
 10
236.2140704487
 20
35.9553052535
 10
236.4565425853
 20
35.8002492133
  0
LWPOLYLINE
  5
251
330
1F
100
AcDbEntity
  8
0
  6
Continuous
 62
     7
370
    18
100
AcDbPolyline
 90
       24
 70
   128
 43
0.0
 10
245.9557705242
 20
52.2551778735
 10
245.7010511062
 20
52.3872377144
 10
245.1546126054
 20
52.5827648339
 10
244.5649136574
 20
52.6845609765
 10
243.9384159008
 20
52.6915114577
 10
243.2819826865
 20
52.6035388267
 10
242.6028063084
 20
52.4216080065
 10
241.90832799
 20
52.1477120424
 10
241.2061565547
 20
51.7848510069
 10
240.5039851195
 20
51.3370021596
 10
239.8095068011
 20
50.8090705248
 10
239.130330423
 20
50.2068409902
 10
238.4738972087
 20
49.5369119643
 10
237.8473994521
 20
48.8066225701
 10
237.2577005041
 20
48.0239745144
 10
236.7112620033
 20
47.1975429311
 10
236.2140704487
 20
46.3363818999
 10
235.7715733204
 20
45.4499267333
 10
235.3886184937
 20
44.5478890379
 10
235.0694015558
 20
43.6401525367
 10
234.8174206951
 20
42.7366622349
 10
234.6354358716
 20
41.8473168192
 10
234.525441158
 20
40.9818602935
 10
234.4886423495
 20
40.1497751369
  0
LWPOLYLINE
  5
252
330
1F
100
AcDbEntity
  8
0
  6
Continuous
 62
     7
370
    18
100
AcDbPolyline
 90
       15
 70
   128
 43
0.0
 10
227.3482345688
 20
38.5132876934
 10
227.3409938719
 20
38.5481130105
 10
227.1984097663
 20
39.4520390082
 10
227.1314087895
 20
40.4102501161
 10
227.1405092161
 20
41.4153362403
 10
227.2256405817
 20
42.4595249812
 10
227.3861450005
 20
43.5347415204
 10
227.6207811159
 20
44.6326712633
 10
227.927734638
 20
45.7448236218
 10
228.3046308552
 20
46.8625976033
 10
228.7485563666
 20
47.97735044
 10
229.2560775211
 20
49.0804607062
 10
229.823270052
 20
50.1633978974
 10
230.4457467358
 20
51.2177870672
 10
231.1186955878
 20
52.2354761246
  0
LWPOLYLINE
  5
253
330
1F
100
AcDbEntity
  8
0
  6
Continuous
 62
     7
370
    18
100
AcDbPolyline
 90
       19
 70
   128
 43
0.0
 10
227.8600303357
 20
35.5833599925
 10
227.7112499848
 20
35.7951328299
 10
227.3129115585
 20
36.4812282685
 10
226.9850531995
 20
37.2445356364
 10
226.7301576208
 20
38.0792729012
 10
226.5501556748
 20
38.9791189143
 10
226.4464105487
 20
39.9372581843
 10
226.4197072274
 20
40.9464337064
 10
226.4702492013
 20
41.9990029759
 10
226.5976525389
 20
43.0869935497
 10
226.8009531311
 20
44.2021659267
 10
227.0786106421
 20
45.3360733147
 10
227.4285229981
 20
46.4801291443
 10
227.8480388988
 20
47.625667429
 10
228.3339821839
 20
48.7640127262
 10
228.8826715898
 20
49.8865440133
 10
229.4899523591
 20
50.9847589447
 10
230.1512245584
 20
52.050340389
 10
230.8614806154
 20
53.0752180236
  0
LWPOLYLINE
  5
254
330
1F
100
AcDbEntity
  8
0
  6
Continuous
 62
     7
370
    18
100
AcDbPolyline
 90
       18
 70
   128
 43
0.0
 10
247.0751435701
 20
37.6189094424
 10
247.1127765899
 20
38.1512199539
 10
247.2245930022
 20
38.7116670005
 10
247.4073761463
 20
39.2841276447
 10
247.6558675443
 20
39.8521331302
 10
247.9629186956
 20
40.399343016
 10
248.3196960488
 20
40.9100149331
 10
248.7159361054
 20
41.3694580343
 10
249.1402395011
 20
41.7644548568
 10
249.5803999489
 20
42.0836419034
 10
250.0237547697
 20
42.3178370955
 10
250.4575494176
 20
42.4603026812
 10
250.8693045359
 20
42.5069404017
 10
251.2471744934
 20
42.4564085455
 10
251.5802888607
 20
42.3101609019
 10
251.8590644157
 20
42.072404633
 10
252.0754812388
 20
41.7499794291
 10
252.2072136834
 20
41.4109933961
  0
LWPOLYLINE
  5
255
330
1F
100
AcDbEntity
  8
0
  6
Continuous
 62
     7
370
    18
100
AcDbPolyline
 90
        9
 70
   128
 43
0.0
 10
248.9736024278
 20
35.8096074815
 10
248.7159361054
 20
35.7627795879
 10
248.3196960488
 20
35.7647336577
 10
247.9629186956
 20
35.8634792109
 10
247.6558675443
 20
36.0561753835
 10
247.4073761463
 20
36.3372788077
 10
247.2245930022
 20
36.6987025258
 10
247.1127765899
 20
37.1300490907
 10
247.0751435701
 20
37.6189094424
  0
LWPOLYLINE
  5
256
330
1F
100
AcDbEntity
  8
0
  6
Continuous
 62
     7
370
    18
100
AcDbPolyline
 90
       16
 70
   128
 43
0.0
 10
246.6508784111
 20
37.6189099176
 10
246.6875059981
 20
38.1639839901
 10
246.7964394672
 20
38.7372298501
 10
246.9748577783
 20
39.3238010076
 10
247.2181400892
 20
39.9085055112
 10
247.5199852815
 20
40.4761996189
 10
247.872575938
 20
41.0121805141
 10
248.2667800219
 20
41.5025666136
 10
248.6923878709
 20
41.9346572914
 10
249.1383764581
 20
42.297261101
 10
249.5931949439
 20
42.5809874273
 10
250.0450637677
 20
42.7784877809
 10
250.4822797395
 20
42.8846465628
 10
250.8935192997
 20
42.8967146867
 10
251.2681313553
 20
42.81437958
 10
251.3882482272
 20
42.7638279453
  0
ARC
  5
257
330
1F
100
AcDbEntity
  8
0
  6
Continuous
 62
     7
370
    18
100
AcDbCircle
 10
248.6772549626
 20
37.4325910869
 30
0.0
 40
2.034924233247354
100
AcDbArc
 50
174.7466078729
 51
233.9412186825
  0
LWPOLYLINE
  5
258
330
1F
100
AcDbEntity
  8
0
  6
Continuous
 62
     7
370
    18
100
AcDbPolyline
 90
       13
 70
   128
 43
0.0
 10
247.9767046663
 20
38.1393695849
 10
248.0141758488
 20
38.572689564
 10
248.1249512669
 20
39.0303344353
 10
248.3041897952
 20
39.4923030057
 10
248.5440577175
 20
39.9384051027
 10
248.8340716638
 20
40.3491439167
 10
249.1615567515
 20
40.7065680806
 10
249.5122001536
 20
40.9950565462
 10
249.870677169
 20
41.2020009223
 10
250.2213205711
 20
41.3183567114
 10
250.5488056588
 20
41.3390387815
 10
250.8388196051
 20
41.2631429426
 10
250.882125245
 20
41.2415275218
  0
ARC
  5
259
330
1F
100
AcDbEntity
  8
0
  6
Continuous
 62
     7
370
    18
100
AcDbCircle
 10
249.1865332599
 20
38.0154305131
 30
0.0
 40
1.216160400352407
100
AcDbArc
 50
174.1508247584
 51
233.1811618282
  0
LINE
  5
25A
330
1F
100
AcDbEntity
  8
0
  6
Continuous
 62
     7
370
    18
100
AcDbLine
 10
250.5529248547
 20
41.0854733748
 30
0.0
 11
250.5833119093
 21
41.0661112296
 31
0.0
  0
LINE
  5
25B
330
1F
100
AcDbEntity
  8
0
  6
Continuous
 62
     7
370
    18
100
AcDbLine
 10
248.4601801383
 20
37.3883405642
 30
0.0
 11
248.4168920321
 21
37.411372393
 31
0.0
  0
ARC
  5
25C
330
1F
100
AcDbEntity
  8
0
  6
Continuous
 62
     7
370
    18
100
AcDbCircle
 10
244.0893931203
 20
45.083082305
 30
0.0
 40
14.59972304561273
100
AcDbArc
 50
110.1861656722
 51
139.1704809678
  0
LWPOLYLINE
  5
25D
330
1F
100
AcDbEntity
  8
0
  6
Continuous
 62
     7
370
    18
100
AcDbPolyline
 90
       13
 70
   128
 43
0.0
 10
232.2056736769
 20
54.7473815409
 10
232.996959355
 20
55.5961426253
 10
233.8140524046
 20
56.3813427503
 10
234.6511312921
 20
57.0973862156
 10
235.5022307569
 20
57.73917078
 10
236.3612864271
 20
58.302124064
 10
237.2221770493
 20
58.7822340119
 10
238.0787683636
 20
59.1760795442
 10
238.9249564035
 20
59.4808540322
 10
239.7547119468
 20
59.694387158
 10
240.5621220872
 20
59.8151559839
 10
241.341434109
 20
59.8423003958
 10
241.8446371872
 20
59.80803463
  0
LWPOLYLINE
  5
25E
330
1F
100
AcDbEntity
  8
0
  6
Continuous
 62
     7
370
    18
100
AcDbPolyline
 90
       19
 70
   128
 43
0.0
 10
240.6660453496
 20
40.8969225547
 10
240.7027549254
 20
41.4567418998
 10
240.8119798004
 20
42.0451605831
 10
240.9910306435
 20
42.6476899951
 10
241.2354983346
 20
43.2494935857
 10
241.5393632829
 20
43.8357530646
 10
241.8951435997
 20
44.3920326965
 10
242.2940785851
 20
44.9046352279
 10
242.7263452245
 20
45.3609387521
 10
243.1812995865
 20
45.7497071691
 10
243.6477392941
 20
46.0613679439
 10
244.1141790016
 20
46.2882469923
 10
244.5691333636
 20
46.4247577008
 10
245.001400003
 20
46.4675386152
 10
245.4003349884
 20
46.4155366137
 10
245.7561153052
 20
46.270032192
 10
246.0599802535
 20
46.0346077147
 10
246.3044479446
 20
45.7150605122
 10
246.3173004285
 20
45.693003601
  0
ARC
  5
25F
330
1F
100
AcDbEntity
  8
0
  6
Continuous
 62
     7
370
    18
100
AcDbCircle
 10
242.3046264214
 20
40.3745934894
 30
0.0
 40
1.605874884079397
100
AcDbArc
 50
247.6291910381
 51
270.5498934937
  0
LWPOLYLINE
  5
260
330
1F
100
AcDbEntity
  8
0
  6
Continuous
 62
     7
370
    18
100
AcDbPolyline
 90
       15
 70
   128
 43
0.0
 10
241.3494709862
 20
40.4964221222
 10
241.338575532
 20
40.8462864433
 10
241.3843679182
 20
41.3870160463
 10
241.5018914419
 20
41.9537366613
 10
241.6880249311
 20
42.5313973215
 10
241.9378246924
 20
43.1046557718
 10
242.2446567131
 20
43.6582876922
 10
242.6003718339
 20
44.1775890617
 10
242.9955227402
 20
44.6487681561
 10
243.4196151136
 20
45.0593111651
 10
243.8613854764
 20
45.3983148324
 10
244.3091011995
 20
45.6567756179
 10
244.7508715622
 20
45.8278291545
 10
245.1749639356
 20
45.9069327774
 10
245.5494874169
 20
45.8952300427
  0
LWPOLYLINE
  5
261
330
1F
100
AcDbEntity
  8
0
  6
Continuous
 62
     7
370
    18
100
AcDbPolyline
 90
       16
 70
   128
 43
0.0
 10
241.1177683572
 20
40.9151575821
 10
241.1551389471
 20
41.4575241944
 10
241.266231125
 20
42.0282434515
 10
241.4480149278
 20
42.6117479167
 10
241.6955315153
 20
43.1921209017
 10
242.0020293246
 20
43.7535314383
 10
242.3591479685
 20
44.2806655389
 10
242.7571460097
 20
44.7591445723
 10
243.1851673419
 20
45.175916782
 10
243.6315364856
 20
45.5196136898
 10
244.0840776936
 20
45.7808601684
 10
244.5304468372
 20
45.952530104
 10
244.9584681695
 20
46.0299408055
 10
245.3564662106
 20
46.0109805293
 10
245.7135848545
 20
45.8961668384
 10
245.754634074
 20
45.8753186037
  0
LINE
  5
262
330
1F
100
AcDbEntity
  8
0
  6
Continuous
 62
     7
370
    18
100
AcDbLine
 10
241.9193237077
 20
39.1416682685
 30
0.0
 11
241.7642101343
 21
39.2470979991
 31
0.0
  0
LINE
  5
263
330
1F
100
AcDbEntity
  8
0
  6
Continuous
 62
     7
370
    18
100
AcDbLine
 10
241.1264713522
 20
40.6681966554
 30
0.0
 11
241.1177683572
 21
40.9151575821
 31
0.0
  0
LWPOLYLINE
  5
264
330
1F
100
AcDbEntity
  8
0
  6
Continuous
 62
     7
370
    18
100
AcDbPolyline
 90
        3
 70
   128
 43
0.0
 10
241.8805395521
 20
39.1944976164
 10
241.8765596383
 20
39.1980297696
 10
241.7702014076
 20
39.3037997953
  0
LWPOLYLINE
  5
265
330
1F
100
AcDbEntity
  8
0
  6
Continuous
 62
     7
370
    18
100
AcDbPolyline
 90
       16
 70
   128
 43
0.0
 10
241.2990040864
 20
40.5685956281
 10
241.2903182136
 20
40.804363057
 10
241.3262563045
 20
41.3472161249
 10
241.4362870733
 20
41.9188430465
 10
241.6173953741
 20
42.503581141
 10
241.8646187447
 20
43.0854083487
 10
242.1711835608
 20
43.6483824857
 10
242.5286895935
 20
44.1770780654
 10
242.9273411578
 20
44.6570085236
 10
243.3562151817
 20
45.0750237487
 10
243.8035603295
 20
45.4196702167
 10
244.257119318
 20
45.6815042475
 10
244.7044644658
 20
45.8533514932
 10
245.1333384897
 20
45.9305036762
 10
245.531990054
 20
45.910846517
 10
245.7288639103
 20
45.8607131589
  0
LINE
  5
266
330
1F
100
AcDbEntity
  8
0
  6
Continuous
 62
     7
370
    18
100
AcDbLine
 10
218.2377889168
 20
52.2215319199
 30
0.0
 11
218.543952844
 21
51.850796864
 31
0.0
  0
LINE
  5
267
330
1F
100
AcDbEntity
  8
0
  6
Continuous
 62
     7
370
    18
100
AcDbLine
 10
218.2377889168
 20
44.4574217722
 30
0.0
 11
218.543952844
 21
45.1449552408
 31
0.0
  0
LINE
  5
268
330
1F
100
AcDbEntity
  8
0
  6
Continuous
 62
     7
370
    18
100
AcDbLine
 10
219.2798631608
 20
45.5697872238
 30
0.0
 11
218.543960088
 21
45.1449594226
 31
0.0
  0
LINE
  5
269
330
1F
100
AcDbEntity
  8
0
  6
Continuous
 62
     7
370
    18
100
AcDbLine
 10
219.2132876038
 20
46.3130131916
 30
0.0
 11
217.9040161697
 21
45.5571868809
 31
0.0
  0
LINE
  5
26A
330
1F
100
AcDbEntity
  8
0
  6
Continuous
 62
     7
370
    18
100
AcDbLine
 10
214.7269373381
 20
47.1315958406
 30
0.0
 11
214.4304500639
 21
46.6355342227
 31
0.0
  0
LINE
  5
26B
330
1F
100
AcDbEntity
  8
0
  6
Continuous
 62
     7
370
    18
100
AcDbLine
 10
216.5587842542
 20
48.1890985557
 30
0.0
 11
214.7269979242
 21
47.1316308162
 31
0.0
  0
LINE
  5
26C
330
1F
100
AcDbEntity
  8
0
  6
Continuous
 62
     7
370
    18
100
AcDbLine
 10
216.5587842542
 20
48.1890985557
 30
0.0
 11
216.6799478825
 21
48.1274490075
 31
0.0
  0
OLE2FRAME
  5
26D
330
1F
100
AcDbEntity
  8
0
100
AcDbOle2Frame
 70
     2
  3
Paintbrush-Bild
 10
13.8511154363
 20
38.264191557
 30
0.0
 11
51.6290888628
 21
31.9806341108
 31
0.0
 71
     2
 72
     0
 73
     1
 90
    12928
310
80552BED0767C5B32B40DDAF6807D121434000000000000000006FFBDDFB85D0
310
4940DDAF6807D121434000000000000000006FFBDDFB85D04940416F4BD60AFB
310
3F4000000000000000002BED0767C5B32B40416F4BD60AFB3F40000000000000
310
0000000000000100000000010000010000000100000000000100000000320000
310
D0CF11E0A1B11AE1000000000000000000000000000000003E000300FEFF0900
310
0600000000000000000000000100000001000000000000000010000002000000
310
01000000FEFFFFFF0000000000000000FFFFFFFFFFFFFFFFFFFFFFFFFFFFFFFF
310
FFFFFFFFFFFFFFFFFFFFFFFFFFFFFFFFFFFFFFFFFFFFFFFFFFFFFFFFFFFFFFFF
310
FFFFFFFFFFFFFFFFFFFFFFFFFFFFFFFFFFFFFFFFFFFFFFFFFFFFFFFFFFFFFFFF
310
FFFFFFFFFFFFFFFFFFFFFFFFFFFFFFFFFFFFFFFFFFFFFFFFFFFFFFFFFFFFFFFF
310
FFFFFFFFFFFFFFFFFFFFFFFFFFFFFFFFFFFFFFFFFFFFFFFFFFFFFFFFFFFFFFFF
310
FFFFFFFFFFFFFFFFFFFFFFFFFFFFFFFFFFFFFFFFFFFFFFFFFFFFFFFFFFFFFFFF
310
FFFFFFFFFFFFFFFFFFFFFFFFFFFFFFFFFFFFFFFFFFFFFFFFFFFFFFFFFFFFFFFF
310
FFFFFFFFFFFFFFFFFFFFFFFFFFFFFFFFFFFFFFFFFFFFFFFFFFFFFFFFFFFFFFFF
310
FFFFFFFFFFFFFFFFFFFFFFFFFFFFFFFFFFFFFFFFFFFFFFFFFFFFFFFFFFFFFFFF
310
FFFFFFFFFFFFFFFFFFFFFFFFFFFFFFFFFFFFFFFFFFFFFFFFFFFFFFFFFFFFFFFF
310
FFFFFFFFFFFFFFFFFFFFFFFFFFFFFFFFFFFFFFFFFFFFFFFFFFFFFFFFFFFFFFFF
310
FFFFFFFFFFFFFFFFFFFFFFFFFFFFFFFFFFFFFFFFFFFFFFFFFFFFFFFFFFFFFFFF
310
FFFFFFFFFFFFFFFFFFFFFFFFFFFFFFFFFFFFFFFFFFFFFFFFFFFFFFFFFFFFFFFF
310
FFFFFFFFFFFFFFFFFFFFFFFFFFFFFFFFFFFFFFFFFFFFFFFFFFFFFFFFFFFFFFFF
310
FDFFFFFFFEFFFFFFFEFFFFFFFEFFFFFF05000000060000000700000008000000
310
090000000A0000000B0000000C0000000D0000000E0000000F00000010000000
310
11000000120000001300000014000000150000001600000017000000FEFFFFFF
310
FFFFFFFFFFFFFFFFFFFFFFFFFFFFFFFFFFFFFFFFFFFFFFFFFFFFFFFFFFFFFFFF
310
FFFFFFFFFFFFFFFFFFFFFFFFFFFFFFFFFFFFFFFFFFFFFFFFFFFFFFFFFFFFFFFF
310
FFFFFFFFFFFFFFFFFFFFFFFFFFFFFFFFFFFFFFFFFFFFFFFFFFFFFFFFFFFFFFFF
310
FFFFFFFFFFFFFFFFFFFFFFFFFFFFFFFFFFFFFFFFFFFFFFFFFFFFFFFFFFFFFFFF
310
FFFFFFFFFFFFFFFFFFFFFFFFFFFFFFFFFFFFFFFFFFFFFFFFFFFFFFFFFFFFFFFF
310
FFFFFFFFFFFFFFFFFFFFFFFFFFFFFFFFFFFFFFFFFFFFFFFFFFFFFFFFFFFFFFFF
310
FFFFFFFFFFFFFFFFFFFFFFFFFFFFFFFFFFFFFFFFFFFFFFFFFFFFFFFFFFFFFFFF
310
FFFFFFFFFFFFFFFFFFFFFFFFFFFFFFFFFFFFFFFFFFFFFFFFFFFFFFFFFFFFFFFF
310
FFFFFFFFFFFFFFFFFFFFFFFFFFFFFFFFFFFFFFFFFFFFFFFFFFFFFFFFFFFFFFFF
310
FFFFFFFFFFFFFFFFFFFFFFFFFFFFFFFFFFFFFFFFFFFFFFFFFFFFFFFFFFFFFFFF
310
FFFFFFFFFFFFFFFFFFFFFFFFFFFFFFFFFFFFFFFFFFFFFFFFFFFFFFFFFFFFFFFF
310
FFFFFFFFFFFFFFFFFFFFFFFFFFFFFFFFFFFFFFFFFFFFFFFFFFFFFFFFFFFFFFFF
310
FFFFFFFFFFFFFFFFFFFFFFFFFFFFFFFFFFFFFFFFFFFFFFFFFFFFFFFFFFFFFFFF
310
52006F006F007400200045006E00740072007900000000000000000000000000
310
0000000000000000000000000000000000000000000000000000000000000000
310
16000500FFFFFFFFFFFFFFFF020000000A00030000000000C000000000000046
310
000000000000000000000000D059F9E171A9D30103000000C000000000000000
310
01004F006C006500000000000000000000000000000000000000000000000000
310
0000000000000000000000000000000000000000000000000000000000000000
310
0A000200FFFFFFFFFFFFFFFFFFFFFFFF00000000000000000000000000000000
310
0000000000000000000000000000000000000000000000001400000000000000
310
010043006F006D0070004F0062006A0000000000000000000000000000000000
310
0000000000000000000000000000000000000000000000000000000000000000
310
120002010100000003000000FFFFFFFF00000000000000000000000000000000
310
0000000000000000000000000000000000000000010000004D00000000000000
310
01004F006C006500310030004E00610074006900760065000000000000000000
310
0000000000000000000000000000000000000000000000000000000000000000
310
1A000200FFFFFFFFFFFFFFFFFFFFFFFF00000000000000000000000000000000
310
0000000000000000000000000000000000000000040000002426000000000000
310
FEFFFFFF02000000FEFFFFFFFFFFFFFFFFFFFFFFFFFFFFFFFFFFFFFFFFFFFFFF
310
FFFFFFFFFFFFFFFFFFFFFFFFFFFFFFFFFFFFFFFFFFFFFFFFFFFFFFFFFFFFFFFF
310
FFFFFFFFFFFFFFFFFFFFFFFFFFFFFFFFFFFFFFFFFFFFFFFFFFFFFFFFFFFFFFFF
310
FFFFFFFFFFFFFFFFFFFFFFFFFFFFFFFFFFFFFFFFFFFFFFFFFFFFFFFFFFFFFFFF
310
FFFFFFFFFFFFFFFFFFFFFFFFFFFFFFFFFFFFFFFFFFFFFFFFFFFFFFFFFFFFFFFF
310
FFFFFFFFFFFFFFFFFFFFFFFFFFFFFFFFFFFFFFFFFFFFFFFFFFFFFFFFFFFFFFFF
310
FFFFFFFFFFFFFFFFFFFFFFFFFFFFFFFFFFFFFFFFFFFFFFFFFFFFFFFFFFFFFFFF
310
FFFFFFFFFFFFFFFFFFFFFFFFFFFFFFFFFFFFFFFFFFFFFFFFFFFFFFFFFFFFFFFF
310
FFFFFFFFFFFFFFFFFFFFFFFFFFFFFFFFFFFFFFFFFFFFFFFFFFFFFFFFFFFFFFFF
310
FFFFFFFFFFFFFFFFFFFFFFFFFFFFFFFFFFFFFFFFFFFFFFFFFFFFFFFFFFFFFFFF
310
FFFFFFFFFFFFFFFFFFFFFFFFFFFFFFFFFFFFFFFFFFFFFFFFFFFFFFFFFFFFFFFF
310
FFFFFFFFFFFFFFFFFFFFFFFFFFFFFFFFFFFFFFFFFFFFFFFFFFFFFFFFFFFFFFFF
310
FFFFFFFFFFFFFFFFFFFFFFFFFFFFFFFFFFFFFFFFFFFFFFFFFFFFFFFFFFFFFFFF
310
FFFFFFFFFFFFFFFFFFFFFFFFFFFFFFFFFFFFFFFFFFFFFFFFFFFFFFFFFFFFFFFF
310
FFFFFFFFFFFFFFFFFFFFFFFFFFFFFFFFFFFFFFFFFFFFFFFFFFFFFFFFFFFFFFFF
310
FFFFFFFFFFFFFFFFFFFFFFFFFFFFFFFFFFFFFFFFFFFFFFFFFFFFFFFFFFFFFFFF
310
0100000200000000000000000000000000000000000000000000000000000000
310
0000000000000000000000000000000000000000000000000000000000000000
310
0100FEFF030A0000FFFFFFFF0A00030000000000C00000000000004607000000
310
5042727573680007000000504272757368000700000050427275736800F439B2
310
7100000000000000000000000000000000000000000000000000000000000000
310
0000000000000000000000000000000000000000000000000000000000000000
310
0000000000000000000000000000000000000000000000000000000000000000
310
0000000000000000000000000000000000000000000000000000000000000000
310
0000000000000000000000000000000000000000000000000000000000000000
310
0000000000000000000000000000000000000000000000000000000000000000
310
0000000000000000000000000000000000000000000000000000000000000000
310
0000000000000000000000000000000000000000000000000000000000000000
310
0000000000000000000000000000000000000000000000000000000000000000
310
0000000000000000000000000000000000000000000000000000000000000000
310
0000000000000000000000000000000000000000000000000000000000000000
310
0000000000000000000000000000000000000000000000000000000000000000
310
20260000424D0E260000000000003E00000028000000B40200006E0000000100
310
01000000000000000000130B0000130B00000200000002000000000000FFFFFF
310
FFFFFFFFFFFFFFFFFFFFFFFFFFFFFFFFFFFFFFFFFFFFFFFFFFFFFFFFFFFFFFFF
310
FFFFFFFFFFFFFFFFFFFFFFFFFFFFFFFFFFFFFFFFFFFFFFFFFFFFFFFFFFFFFFFF
310
FFFFFFFFFFFFFFFFFFFFFFFFFFFFFFFFFFFFFFFFFFFFFFFFF000FFFFFFFFFFFF
310
FFFFFFFFFFFFFFFFFFFFFFFFFFFFFFFFFFFFFFFFFFFFFFFFFFFFFFFFFFFFFFFF
310
FFFFFFFFFFFFFFFFFFFFFFFFFFFFFFFFFFFFFFFFFFFFFFFFFFFFFFFFFFFFFFFF
310
FFFFFFFFFFFFFFFFFFFFFFFFFFFFFFFFF000FFFFFFFFFFFFFFFFFFFFFFFFFFFF
310
FFFFFFFFFFFFFFFFFFFFFFFFFFFFFFFFFFFFFFFFFFFFFFFFFFFFFFFFFFFFFFFF
310
FFFFFFFFFFFFFFFFFFFFFFFFFFFFFFFFFFFFFFFFFFFFFFFFFFFFFFFFFFFFFFFF
310
FFFFFFFFFFFFFFFFF000FFFFFFFFFFFFFFFFFFFFFFFFFFFFFFFFFFFFFFFFFFFF
310
FFFFFFFFFFFFFFFFFFFFFFFFFFFFFFFFFFFFFFFFFFFFFFFFFFFFFFFFFFFFFFFF
310
FFFFFFFFFFFFFFFFFFFFFFFFFFFFFFFFFFFFFFFFFFFFFFFFFFFFFFFFFFFFFFFF
310
F000FFFFFFFFFFFFFFFFFFFFFFFFFFFFFFFFFFFFFFFFFFFFFFFFFFFFFFFFFFFF
310
FFFFFFFFFFFFFFFFFFFFFFFFFFFFFFFFFFFFFFFFFFFFFFFFFFFFFFFFFFFFFFFF
310
FFFFFFFFFFFFFFFFFFFFFFFFFFFFFFFFFFFFFFFFFFFFFFFFF000FFFFFFFFFFFF
310
FFFFFFFFFFFFFFFFFFFFFFFFFFFFFFFFFFFFFFFFFFFFFFFFFFFFFFFFFFFFFFFF
310
FFFFFFFFFFFFFFFFFFFFFFFFFFFFFFFFFFFFFFFFFFFFFFFFFFFFFFFFFFFFFFFF
310
FFFFFFFFFFFFFFFFFFFFFFFFFFFFFFFFF000FFFFFFFFFFFFFFFFFFFFFFFFFFFF
310
FFFFFFFFFFFFFFFFFFFFFFFFFFFFFFFFFFFFFFFFFFFFFFFFFFFFFFFFFFFFFFFF
310
FFFFFFFFFFFFFFFFFFFFFFFFFFFFFFFFFFFFFFFFFFFFFFFFFFFFFFFFFFFFFFFF
310
FFFFFFFFFFFFFFFFF000FFFFFFFFFFFFFFFFFFFFFFFFFFFFFFFFFFFFFFFFFFFF
310
FFFFFFFFFFFFFFFFFFFFFFFFFFFFFFFFFFFFFFFFFFFFFFFFFFFFFFFFFFFFFFFF
310
FFFFFFFFFFFFFFFFFFFFFFFFFFFFFFFFFFFFFFFFFFFFFFFFFFFFFFFFFFFFFFFF
310
F000FFFFFFFFFFFFFFFFFFFFFFFFFFFFFFFFFFFFFFFFFFFFFFFFFFFFFFFFFFFF
310
FFFFFFFFFFFFFFFFFFFFFFFFFFFFFFFFFFFFFFFFFFFFFFFFFFFFFFFFFFFFFFFF
310
FFFFFFFFFFFFFFFFFFFFFFFFFFFFFFFFFFFFFFFFFFFFFFFFF000FFFFFFFFFFFF
310
FFFFFFFFFFFFFFFFFFFFFFFFFFFFFFFFFFFFFFFFFFFFFFFFFFFFFFFFFFFFFFFF
310
FFFFFFFFFFFFFFFFFFFFFFFFFFFFFFFFFFFFFFFFFFFFFFFFFFFFFFFFFFFFFFFF
310
FFFFFFFFFFFFFFFFFFFFFFFFFFFFFFFFF000FFFFFFFFFFFFFFFFFFFFFFFFFFFF
310
FFFFFFFFFFFFFFFFFFFFFFFFFFFFFFFFFFFFFFFFFFFFFFFFFFFFFFFFFFFFFFFF
310
FFFFFFFFFFFFFFFFFFFFFFFFFFFFFFFFFFFFFFFFFFFFFFFFFFFFFFFFFFFFFFFF
310
FFFFFFFFFFFFFFFFF000FFFFFFFFFFFFFFFFFFFFFFFFFFFFFFFFFFFFFFFFFFFF
310
FFFFFFFFFFFFFFFFFFFFFFFFFFFFFFFFFFFFFFFFFFFFFFFFFFFFFFFFFFFFFFFF
310
FFFFFFFFFFFFFFFFFFFFFFFFFFFFFFFFFFFFFFFFFFFFFFFFFFFFFFFFFFFFFFFF
310
F000FFFFFFFFFFFFFFFFFFFFFFFFFFFFFFFFFFFFFFFFFFFFFFFFFFFFFFFFFFFF
310
FFFFFFFFFFFFFFFFFFFFFFFFFFFFFFFFFFFFFFFFFFFFFFFFFFFFFFFFFFFFFFFF
310
FFFFFFFFFFFFFFFFFFFFFFFFFFFFFFFFFFFFFFFFFFFFFFFFF000FFFFFFFFFFFF
310
FFFFFFFFFFFFFFFFFFFFFFFFFFFFFFFFFFFFFFFFFFFFFFFFFFFFFFFFFFFFFFFF
310
FFFFFFFFFFFFFFFFFFFFFFFFFFFFFFFFFFFFFFFFFFFFFFFFFFFFFFFFFFFFFFFF
310
FFFFFFFFFFFFFFFFFFFFFFFFFFFFFFFFF000FFFFFFFFFFFFFFFFFFFFFFFFFFFF
310
FFFFFFFFFFFFFFFFFFFFFFFFFFFFFFFFFFFFFFFFFFFFFFFFFFFFFFFFFFFFFFFF
310
FFFFFFFFFFFFFFFFFFFFFFFFFFFFFFFFFFFFFFFFFFFFFFFFFFFFFFFFFFFFFFFF
310
FFFFFFFFFFFFFFFFF000FFFFFFFFFFFFFFFFFFFFFFFFFFFFFFFFFFFFFFFFFFFF
310
FFFFFFFFFFFFFFFFFFFFFFFFFFFFFFFFFFFFFFFFFFFFFFFFFFFFFFFFFFFFFFFF
310
FFFFFFFFFFFFFFFFFFFFFFFFFFFFFFFFFFFFFFFFFFFFFFFFFFFFFFFFFFFFFFFF
310
F000FFFFFFFFFFFFFFFFFFFFFFFFFFFFFFFFFFFFFFFFFFFFFFFFFFFFFFFFFFFF
310
FFFFFFFFFFFFFFFFFFFFFFFFFFFFFFFFFFFFFFFFFFFFFFFFFFFFFFFFFFFFFFFF
310
FFFFFFFFFFFFFFFFFFFFFFFFFFFFFFFFFFFFFFFFFFFFFFFFF000FFFFFFFFFFFF
310
FFFFFFFFFFFFFFFFFFFFFFFFFFFFFFFFFFFFFFFFFFFFFFFFFFFFFFFFFFFFFFFF
310
FFFFFFFFFFFFFFFFFFFFFFFFFFFFFFFFFFFFFFFFFFFFFFFFFFFFFFFFFFFFFFFF
310
FFFFFFFFFFFFFFFFFFFFFFFFFFFFFFFFF000FFFFFFFFFFFFFFFFFFFFFFFFFFFF
310
FFFFFFFFFFFFFFFFFFFFFFFFFFFFFFFFFFFFFFFFFFFFFFFFFFFFFFFFFFFFFFFF
310
FFFFFFFFFFFFFFFFFFFFFFFFFFFFFFFFFFFFFFFFFFFFFFFFFFFFFFFFFFFFFFFF
310
FFFFFFFFFFFFFFFFF000FFFFF80003FFFFFFFFFFFFFFFFFFFFFFFFFFFFFFFFFF
310
FFFFF00007FFFFFFFFFF00007FFFFFF800000000000000007FFFFFFFFFFFFFFF
310
FFFFFFFC001FFFFFFFFFFFFFFC001FFFFFFFFFFFFFFFFFFFFFFFFFFE0007FFFF
310
F000FFFF8000007FFFFFFFF8000FFFFFC0007FFFFF80007FFFFF0000007FFFFF
310
FFF8000007FFFFF800000000000000007FFFFFF0001FFFFFFFFFFFC00001FFFF
310
FFFFFFFFC00001FFFFFFFF000000000003FFFFE000007FFFF000FFFE0000000F
310
FFFFFFF0000FFFFF80007FFFFF80007FFFFC0000001FFFFFFFC0000001FFFFF8
310
00000000000000007FFFFFF0001FFFFFFFFFFE0000003FFFFFFFFFFE0000003F
310
FFFFFF000000000003FFFF0000000FFFF000FFF800000003FFFFFFF00007FFFF
310
80007FFFFF80007FFFF000000007FFFFFF000000003FFFF80000000000000000
310
7FFFFFF0001FFFFFFFFFF80000000FFFFFFFFFF80000000FFFFFFF0000000000
310
03FFFC00000003FFF000FFE000000000FFFFFFF00007FFFF80003FFFFF80007F
310
FFC000000001FFFFFC000000001FFFF800000000000000007FFFFFF0001FFFFF
310
FFFFE000000003FFFFFFFFE000000003FFFFFF000000000003FFF000000000FF
310
F000FF80000000007FFFFFF00007FFFF80003FFFFF80007FFF8000000000FFFF
310
F80000000007FFF800000000000000007FFFFFF0001FFFFFFFFFC000000001FF
310
FFFFFFC000000001FFFFFF000000000003FFC0000000007FF000FF0000000000
310
3FFFFFE00007FFFF00003FFFFF80007FFE00000000003FFFF00000000003FFF8
310
00000000000000007FFFFFF0001FFFFFFFFF8000000000FFFFFFFF8000000000
310
FFFFFF000000000003FF80000000003FF000FE00000000001FFFFFE00003FFFF
310
00003FFFFF80007FFC00000000001FFFE00000000001FFF8000001FFFE000000
310
7FFFFFF0001FFFFFFFFE00000000003FFFFFFE00000000003FFFFF0000000000
310
03FF00000000001FF000FC00000000000FFFFFE00003FFFF00001FFFFF80007F
310
F800000000001FFFC00000000000FFF8000001FFFE0000007FFFFFF0001FFFFF
310
FFFC00000000001FFFFFFC00000000001FFFFF000000000003FE00000000000F
310
F000F8000000000007FFFFE00003FFFF00001FFFFF80007FF800000000000FFF
310
800000000000FFF8000001FFFE0000007FFFFFF0001FFFFFFFF800000000000F
310
FFFFF800000000000FFFFF000000000003FC000000000007F000F80000000000
310
03FFFFC00003FFFE00001FFFFF80007FF0000000000007FF0000000000007FF8
310
000001FFFE0000007FFFFFF0001FFFFFFFF0000000000007FFFFF00000000000
310
07FFFF000000000003F8000000000003F000F0000000000003FFFFC00001FFFE
310
00001FFFFF80007FE0000000000007FE0000000000003FF8000001FFFE000000
310
7FFFFFF0001FFFFFFFF0000000000007FFFFF0000000000007FFFF0000000000
310
03F800001F800003F000E00001FFF00001FFFFC00001FFFE00000FFFFF80007F
310
E00001FFE00003FE00001FFF00003FF8000001FFFE0000007FFFFFF0001FFFFF
310
FFE000003E000003FFFFE000003E000003FFFF000000000003F00001FFF80001
310
F000E00007FFFC0001FFFFC00001FFFE00000FFFFF80007FC0000FFFFC0003FC
310
0000FFFFC0001FF8000001FFFE0000007FFFFFF0001FFFFFFFC00003FFE00001
310
FFFFC00003FFE00001FFFF0001FFFFFFFFF00007FFFE0001F000E0000FFFFF00
310
00FFFF800001FFFC00000FFFFF80007FC0001FFFFE0001FC0001FFFFE0001FF8
310
000001FFFE0000007FFFFFF0001FFFFFFF80000FFFF80000FFFF80000FFFF800
310
00FFFF0003FFFFFFFFE0000FFFFF8000F000C0003FFFFF8000FFFF800000FFFC
310
000007FFFF80007F80003FFFFF0001FC0003FFFFF0001FF8000001FFFE000000
310
7FFFFFF0001FFFFFFF80003FFFFE0000FFFF80003FFFFE0000FFFF0003FFFFFF
310
FFE0003FFFFF8000F000C0003FFFFF8000FFFF800000FFFC000007FFFF80007F
310
80007FFFFF8001F80007FFFFF8000FF8000001FFFE0000007FFFFFF0001FFFFF
310
FF00007FFFFF00007FFF00007FFFFF00007FFF0003FFFFFFFFE0003FFFFFC000
310
F000C0007FFFFFC000FFFF000000FFFC000007FFFF80007F8000FFFFFF8000F8
310
000FFFFFF8000FF8000001FFFE0000007FFFFFF0001FFFFFFF0000FFFFFF8000
310
7FFF0000FFFFFF80007FFF0003FFFFFFFFC0007FFFFFC00070008000FFFFFFC0
310
00FFFF000000FFF8000007FFFF80007F8000FFFFFF8000F8000FFFFFF8000FF8
310
000001FFFE0000007FFFFFF0001FFFFFFE0001FFFFFFC0003FFE0001FFFFFFC0
310
003FFF0003FFFFFFFFC0007FFFFFE00070008000FFFFFFC0007FFF0000007FF8
310
000003FFFF80007F0001FFFFFF8000F8000FFFFFF8000FF8000001FFFE000000
310
7FFFFFF0001FFFFFFE0001FFFFFFC0003FFE0001FFFFFFC0003FFF0003FFFFFF
310
FFC000FFFFFFE00070008000FFFFFFC0007FFF0000007FF8000003FFFF80007F
310
0001FFFFFF8000F8001FFFFFF8000FF8000001FFFE0000007FFFFFF0001FFFFF
310
FE0003FFFFFFE0003FFE0003FFFFFFE0003FFF0003FFFFFFFFC000FFFFFFE000
310
70008000FFFFFFC0007FFE0000007FF8000003FFFF80007F0001FFFFFF8000F0
310
001FFFFFF8000FF8000001FFFE0000007FFFFFF0001FFFFFFC0003FFFFFFE000
310
1FFC0003FFFFFFE0001FFF0003FFFFFFFFC000FFFFFFC00070008000FFFFFF80
310
007FFE0000007FF0000003FFFF80007F0001FFFFFF0000F0001FFFFFF8000FF8
310
000001FFFE0000007FFFFFF0001FFFFFFC0007FFFFFFF0001FFC0007FFFFFFF0
310
001FFF0003FFFFFFFFC000FFFFFFC00070008001FFFFFF0000FFFE0000003FF0
310
000001FFFF80007F0001FFFFFF0000F8001FFFFFF0000FF8000001FFFE000000
310
7FFFFFF0001FFFFFFC0007FFFFFFF0001FFC0007FFFFFFF0001FFF0003FFFFFF
310
FFC001FFFFFF80007000FFFFFFFFFE0000FFFE0008003FF0008001FFFF80007F
310
FFFFFFFFFC0000FFFFFFFFFFE0000FF8000001FFFE0000007FFFFFF0001FFFFF
310
F8000FFFFFFFF8000FF8000FFFFFFFF8000FFF0003FFFFFFFFFFFFFFFFFF0000
310
7000FFFFFFFFFC0000FFFC0008003FF0008001FFFF80007FFFFFFFFFF80001FF
310
FFFFFFFF80000FF8000001FFFE0000007FFFFFF0001FFFFFF8000FFFFFFFF800
310
0FF8000FFFFFFFF8000FFF0003FFFFFFFFFFFFFFFFFE0000F000FFFFFFFFE000
310
00FFFC000C003FE000C001FFFF80007FFFFFFFFFC00001FFFFFFFFFE00001FF8
310
000001FFFE0000007FFFFFF0001FFFFFF8000FFFFFFFF8000FF8000FFFFFFFF8
310
000FFF0003FFFFFFFFFFFFFFFFF00000F000FFFFFFFE000001FFFC000C001FE0
310
00C000FFFF80007FFFFFFFFE000001FFFFFFFFE000001FF80FFFFFFFFFFFFFC0
310
7FFFFFF0001FFFFFF8000FFFFFFFF8000FF8000FFFFFFFF8000FFF0003FFFFFF
310
FFFFFFFFFF800000F000FFFFFFC0000001FFFC001C001FE001C000FFFF80007F
310
FFFFFF80000003FFFFFFF80000001FF80FFFFFFFFFFFFFC07FFFFFF0001FFFFF
310
F8001FFFFFFFFC000FF8001FFFFFFFFC000FFF0003FFFFFFFFFFFFFFF0000001
310
F000FFFFF800000001FFF8001C001FE001C000FFFF80007FFFFFF800000003FF
310
FFFF800000003FF80FFFFFFFFFFFFFC07FFFFFF0001FFFFFF8001FFFFFFFFC00
310
0FF8001FFFFFFFFC000FFF0003FFFFFFFFFFFFFE00000001F000FFFFC0000000
310
03FFF8001E001FC001E000FFFF80007FFFFF8000000007FFFFFC000000003FF8
310
0FFFFFFFFFFFFFC07FFFFFF0001FFFFFF8001FFFFFFFFC000FF8001FFFFFFFFC
310
000FFF0003FFFFFFFFFFFFE000000003F000FFFE0000000007FFF8001E000FC0
310
01E0007FFF80007FFFFE0000000007FFFFE0000000007FF80FFFFFFFFFFFFFC0
310
7FFFFFF0001FFFFFF0001FFFFFFFFC0007F0001FFFFFFFFC0007FF0003FFFFFF
310
FFFFFF0000000003F000FFF80000000007FFF8001E000FC003E0007FFF80007F
310
FFF0000000000FFFFF8000000000FFF80FFFFFFFFFFFFFC07FFFFFF0001FFFFF
310
F0001FFFFFFFFC0007F0001FFFFFFFFC0007FF0003FFFFFFFFFFFC0000000007
310
F000FFE0000000000FFFF0003E000FC003E0007FFF80007FFFC0000000001FFF
310
FE0000000001FFF80FFFFFFFFFFFFFC07FFFFFF0001FFFFFF0001FFFFFFFFC00
310
07F0001FFFFFFFFC0007FF0003FFFFFFFFFFF0000000000FF000FFC000000000
310
1FFFF0003F000F8003F0003FFF80007FFF80000000003FFFF80000000003FFF8
310
0FFFFFFFFFFFFFC07FFFFFF0001FFFFFF0001FFFFFFFFC0007F0001FFFFFFFFC
310
0007FF0003FFFFFFFFFFE0000000001FF000FF00000000007FFFF0003F000780
310
03F0003FFF80007FFF00000000007FFFF00000000007FFF80FFFFFFFFFFFFFC0
310
7FFFFFF0001FFFFFF0001FFFFFFFFC0007F0001FFFFFFFFC0007FF0003FFFFFF
310
FFFF80000000007FF000FE0000000000FFFFE0003F00078007F0003FFF80007F
310
FE0000000001FFFFE0000000001FFFF80FFFFFFFFFFFFFC07FFFFFF0001FFFFF
310
F0001FFFFFFFFC0007F0001FFFFFFFFC0007FF0003FFFFFFFFFF0000000000FF
310
F000FC0000000003FFFFE0007F00078007F0003FFF80007FFC0000000007FFFF
310
C0000000007FFFF80FFFFFFFFFFFFFC07FFFFFF0001FFFFFF8001FFFFFFFFC00
310
0FF8001FFFFFFFFC000FFF0003FFFFFFFFFE0000000003FFF000FC000000000F
310
FFFFE0007F80070007F8001FFF80007FF8000000001FFFFF8000000001FFFFF8
310
0FFFFFFFFFFFFFC07FFFFFF0001FFFFFF8001FFFFFFFFC000FF8001FFFFFFFFC
310
000FFF0003FFFFFFFFFC000000000FFFF000F8000000007FFFFFE0007F800700
310
07F8001FFF80007FF000000000FFFFFF800000000FFFFFF80FFFFFFFFFFFFFC0
310
7FFFFFF0001FFFFFF8000FFFFFFFF8000FF8000FFFFFFFF8000FFF0003FFFFFF
310
FFFC000000007FFFF000F800000007FFFFFFC0007F8003000FF8001FFF80007F
310
F000000007FFFFFF000000007FFFFFF80FFFFFFFFFFFFFC07FFFFFF0001FFFFF
310
F8000FFFFFFFF8000FF8000FFFFFFFF8000FFF0003FFFFFFFFF80000000FFFFF
310
F000F0000000FFFFFFFFC000FF8003000FF8001FFF80007FE0000000FFFFFFFF
310
0000000FFFFFFFF8000001FFFE0000007FFFFFF0001FFFFFF8000FFFFFFFF800
310
0FF8000FFFFFFFF8000FFF0003FFFFFFFFF8000000FFFFFFF000F000000FFFFF
310
FFFFC000FFC002000FF8000FFF80007FE000001FFFFFFFFE000001FFFFFFFFF8
310
000001FFFE0000007FFFFFF0001FFFFFF8000FFFFFFFF8000FF8000FFFFFFFF8
310
000FFF0003FFFFFFFFF000001FFFFFFFF000E00000FFFFFFFFFFC000FFC00200
310
0FFC000FFF80007FE00001FFFFFFFFFE00001FFFFFFFFFF8000001FFFE000000
310
7FFFFFF0001FFFFFFC000FFFFFFFF8001FFC000FFFFFFFF8001FFF0003FFFFFF
310
FFF00001FFFFFFFFF000E00007FFFFFFFFFF8000FFC000001FFC000FFF80007F
310
C0000FFFFFFFFFFE0000FFFFFFFFFFF8000001FFFE0000007FFFFFF0001FFFFF
310
FC0007FFFFFFF0001FFC0007FFFFFFF0001FFF0003FFFFFFFFF00007FFFFFFFF
310
F000E0001FFFFFFFFFFF8000FFC000001FFC000FFF80007FC0003FFFFFFFFFFE
310
0001FFFFFFFFFFF8000001FFFE0000007FFFFFF0001FFFFFFC0007FFFFFFF000
310
1FFC0007FFFFFFF0001FFF0003FFFFFFFFF0001FFFFFFFFFF000E0003FFFFF00
310
03FF8001FFE000001FFC0007FF80007FC0007FFFFF0007FC0003FFFFF0003FF8
310
000001FFFE0000007FFFFFF0001FFFFFFC0003FFFFFFE0001FFC0003FFFFFFE0
310
001FFF0003FFFFFFFFF0003FFFFFFFFFF000E0003FFFFF0001FF8001FFE00000
310
1FFE0007FF80007FC0007FFFFE0003FC0007FFFFE0003FF8000001FFFE000000
310
7FFFFFF0001FFFFFFE0003FFFFFFE0003FFE0003FFFFFFE0003FFF0003FFFFFF
310
FFF0003FFFFF8001F000E0003FFFFF0001FF0001FFE000001FFE0007FF80007F
310
C0007FFFFE0003FC0007FFFFE0003FF8000001FFFE0000007FFFFFF0001FFFFF
310
FE0001FFFFFFC0003FFE0001FFFFFFC0003FFF0003FFFFFFFFF0003FFFFF0001
310
F000E0003FFFFF0003FF0001FFE000003FFE0007FF80007FC0007FFFFE0003FC
310
0007FFFFE0003FF8000001FFFE0000007FFFFFF0001FFFFFFF0001FFFFFFC000
310
7FFF0001FFFFFFC0007FFF0003FFFFFFFFF0003FFFFF0001F000E0003FFFFE00
310
03FF0003FFF000003FFE0003FF80007FC0007FFFFC0003FE0007FFFFE0003FF8
310
000001FFFE0000007FFFFFF0001FFFFFFF0000FFFFFF80007FFF0000FFFFFF80
310
007FFF0003FFFFFFFFF0003FFFFF0001F000E0003FFFFE0003FF0003FFF00000
310
3FFF0003FF80007FC0007FFFFC0007FE0007FFFFC0003FF8000001FFFE000000
310
7FFFFFF0001FFFFFFF80007FFFFF0000FFFF80007FFFFF0000FFFF0003FFFFFF
310
FFF0003FFFFF0003F000E0003FFFFC0003FE0003FFF000003FFF0003FF80007F
310
E0003FFFF80007FE0003FFFFC0007FF8000001FFFE0000007FFFFFF0001FFFFF
310
FF80003FFFFE0000FFFF80003FFFFE0000FFFF0003FFFFFFFFF0001FFFFE0003
310
F000F0001FFFF80003FE0003FFF000007FFF0001FF80007FE0003FFFF00007FE
310
0001FFFF80007FF8000001FFFE0000007FFFFFF0001FFFFFFFC0000FFFF80001
310
FFFFC0000FFFF80001FFFF0003FFFFFFFFF0001FFFFC0003F000F0000FFFF000
310
07FE0007FFF800007FFF0001FF80007FE0001FFFE00007FF0000FFFE00007FF8
310
000001FFFE0000007FFFFFF0001FFFFFFFC00003FFE00001FFFFC00003FFE000
310
01FFFF0003FFFFFFFFF8000FFFF80003F000F00003FFC00007FC0007FFF80000
310
7FFF8001FF80007FF00007FF80000FFF00007FF80000FFF8000001FFFE000000
310
7F80000000000001FFE000003E000003FFFFE000003E000003FFFF0003FFFFFF
310
FFF80003FFE00007F000F800000000000FFC0007FFF800007FFF8001FF80007F
310
F000000000000FFF000000000000FFF8000001FFFE0000007F80000000000001
310
FFF0000000000007FFFFF0000000000007FFFF0003FFFFFFFFFC00007E000007
310
F000F800000000000FFC0007FFF80000FFFF8000FF80007FF800000000001FFF
310
800000000001FFF8000001FFFE0000007F80000000000001FFF800000000000F
310
FFFFF800000000000FFFFF0003FFFFFFFFFC00000000000FF000FC0000000000
310
1FFC0007FFFC0000FFFF8000FF80007FF800000000003FFFC00000000001FFF8
310
000001FFFE0000007F80000000000001FFF800000000000FFFFFF80000000000
310
0FFFFF0003FFFFFFFFFE00000000001FF000FE00000000003FF8000FFFFC0000
310
FFFF8000FF80007FFC00000000003FFFC00000000003FFF8000001FFFE000000
310
7F80000000000001FFFC00000000001FFFFFFC00000000001FFFFF0003FFFFFF
310
FFFF00000000001FF000FF00000000003FF8000FFFFC0000FFFFC000FF80007F
310
FE00000000007FFFE00000000007FFF8000001FFFE0000007F80000000000001
310
FFFE00000000003FFFFFFE00000000003FFFFF0003FFFFFFFFFF80000000003F
310
F000FF80000000007FF8000FFFFC0001FFFFC0007F80007FFF0000000000FFFF
310
F0000000000FFFF800000000000000007F80000000000001FFFF8000000000FF
310
FFFFFF8000000000FFFFFF0003FFFFFFFFFFC0000000007FF000FFC000000000
310
FFF8000FFFFE0001FFFFC0007F80007FFF8000000001FFFFF8000000001FFFF8
310
00000000000000007F80000000000001FFFFC000000001FFFFFFFFC000000001
310
FFFFFF0003FFFFFFFFFFE000000000FFF000FFE000000003FFF0001FFFFE0001
310
FFFFC0007F80007FFFC000000007FFFFFE000000003FFFF80000000000000000
310
7F80000000000001FFFFE000000003FFFFFFFFE000000003FFFFFF0003FFFFFF
310
FFFFF000000003FFF000FFF80000000FFFF0001FFFFE0001FFFFE0007F80007F
310
FFF00000000FFFFFFF00000000FFFFF800000000000000007F80000000000001
310
FFFFF80000000FFFFFFFFFF80000000FFFFFFF0003FFFFFFFFFFFC0000000FFF
310
F000FFFE0000003FFFF0001FFFFE0003FFFFE0003F80007FFFFC0000003FFFFF
310
FFC0000003FFFFF800000000000000007F80000000000001FFFFFE0000003FFF
310
FFFFFFFE0000003FFFFFFF0003FFFFFFFFFFFF0000003FFFF000FFFF800000FF
310
FFF0001FFFFF0003FFFFE0003F80007FFFFF000001FFFFFFFFF800001FFFFFF8
310
00000000000000007F80000000000001FFFFFFC00001FFFFFFFFFFFFC00001FF
310
FFFFFF0003FFFFFFFFFFFFC00000FFFFF000FFFFF8000FFFFFFFFFFFFFFFFFFF
310
FFFFFFFFFFFFFFFFFFFFF0001FFFFFFFFFFF0000FFFFFFF80000000000000000
310
7FFFFFFFFFFFFFFFFFFFFFFC001FFFFFFFFFFFFFFC001FFFFFFFFFFFFFFFFFFF
310
FFFFFFFC001FFFFFF000FFFFFFFFFFFFFFFFFFFFFFFFFFFFFFFFFFFFFFFFFFFF
310
FFFFFFFFFFFFFFFFFFFFFFFFFFFFFFFFFFFFFFFFFFFFFFFFFFFFFFFFFFFFFFFF
310
FFFFFFFFFFFFFFFFFFFFFFFFFFFFFFFFFFFFFFFFFFFFFFFFFFFFFFFFFFFFFFFF
310
F000FFFFFFFFFFFFFFFFFFFFFFFFFFFFFFFFFFFFFFFFFFFFFFFFFFFFFFFFFFFF
310
FFFFFFFFFFFFFFFFFFFFFFFFFFFFFFFFFFFFFFFFFFFFFFFFFFFFFFFFFFFFFFFF
310
FFFFFFFFFFFFFFFFFFFFFFFFFFFFFFFFFFFFFFFFFFFFFFFFF000FFFFFFFFFFFF
310
FFFFFFFFFFFFFFFFFFFFFFFFFFFFFFFFFFFFFFFFFFFFFFFFFFFFFFFFFFFFFFFF
310
FFFFFFFFFFFFFFFFFFFFFFFFFFFFFFFFFFFFFFFFFFFFFFFFFFFFFFFFFFFFFFFF
310
FFFFFFFFFFFFFFFFFFFFFFFFFFFFFFFFF000FFFFFFFFFFFFFFFFFFFFFFFFFFFF
310
FFFFFFFFFFFFFFFFFFFFFFFFFFFFFFFFFFFFFFFFFFFFFFFFFFFFFFFFFFFFFFFF
310
FFFFFFFFFFFFFFFFFFFFFFFFFFFFFFFFFFFFFFFFFFFFFFFFFFFFFFFFFFFFFFFF
310
FFFFFFFFFFFFFFFFF000FFFFFFFFFFFFFFFFFFFFFFFFFFFFFFFFFFFFFFFFFFFF
310
FFFFFFFFFFFFFFFFFFFFFFFFFFFFFFFFFFFFFFFFFFFFFFFFFFFFFFFFFFFFFFFF
310
FFFFFFFFFFFFFFFFFFFFFFFFFFFFFFFFFFFFFFFFFFFFFFFFFFFFFFFFFFFFFFFF
310
F000FFFFFFFFFFFFFFFFFFFFFFFFFFFFFFFFFFFFFFFFFFFFFFFFFFFFFFFFFFFF
310
FFFFFFFFFFFFFFFFFFFFFFFFFFFFFFFFFFFFFFFFFFFFFFFFFFFFFFFFFFFFFFFF
310
FFFFFFFFFFFFFFFFFFFFFFFFFFFFFFFFFFFFFFFFFFFFFFFFF000FFFFFFFFFFFF
310
FFFFFFFFFFFFFFFFFFFFFFFFFFFFFFFFFFFFFFFFFFFFFFFFFFFFFFFFFFFFFFFF
310
FFFFFFFFFFFFFFFFFFFFFFFFFFFFFFFFFFFFFFFFFFFFFFFFFFFFFFFFFFFFFFFF
310
FFFFFFFFFFFFFFFFFFFFFFFFFFFFFFFFF000FFFFFFFFFFFFFFFFFFFFFFFFFFFF
310
FFFFFFFFFFFFFFFFFFFFFFFFFFFFFFFFFFFFFFFFFFFFFFFFFFFFFFFFFFFFFFFF
310
FFFFFFFFFFFFFFFFFFFFFFFFFFFFFFFFFFFFFFFFFFFFFFFFFFFFFFFFFFFFFFFF
310
FFFFFFFFFFFFFFFFF000FFFFFFFFFFFFFFFFFFFFFFFFFFFFFFFFFFFFFFFFFFFF
310
FFFFFFFFFFFFFFFFFFFFFFFFFFFFFFFFFFFFFFFFFFFFFFFFFFFFFFFFFFFFFFFF
310
FFFFFFFFFFFFFFFFFFFFFFFFFFFFFFFFFFFFFFFFFFFFFFFFFFFFFFFFFFFFFFFF
310
F000FFFFFFFFFFFFFFFFFFFFFFFFFFFFFFFFFFFFFFFFFFFFFFFFFFFFFFFFFFFF
310
FFFFFFFFFFFFFFFFFFFFFFFFFFFFFFFFFFFFFFFFFFFFFFFFFFFFFFFFFFFFFFFF
310
FFFFFFFFFFFFFFFFFFFFFFFFFFFFFFFFFFFFFFFFFFFFFFFFF000FFFFFFFFFFFF
310
FFFFFFFFFFFFFFFFFFFFFFFFFFFFFFFFFFFFFFFFFFFFFFFFFFFFFFFFFFFFFFFF
310
FFFFFFFFFFFFFFFFFFFFFFFFFFFFFFFFFFFFFFFFFFFFFFFFFFFFFFFFFFFFFFFF
310
FFFFFFFFFFFFFFFFFFFFFFFFFFFFFFFFF000FFFFFFFFFFFFFFFFFFFFFFFFFFFF
310
FFFFFFFFFFFFFFFFFFFFFFFFFFFFFFFFFFFFFFFFFFFFFFFFFFFFFFFFFFFFFFFF
310
FFFFFFFFFFFFFFFFFFFFFFFFFFFFFFFFFFFFFFFFFFFFFFFFFFFFFFFFFFFFFFFF
310
FFFFFFFFFFFFFFFFF000FFFFFFFFFFFFFFFFFFFFFFFFFFFFFFFFFFFFFFFFFFFF
310
FFFFFFFFFFFFFFFFFFFFFFFFFFFFFFFFFFFFFFFFFFFFFFFFFFFFFFFFFFFFFFFF
310
FFFFFFFFFFFFFFFFFFFFFFFFFFFFFFFFFFFFFFFFFFFFFFFFFFFFFFFFFFFFFFFF
310
F000FFFFFFFFFFFFFFFFFFFFFFFFFFFFFFFFFFFFFFFFFFFFFFFFFFFFFFFFFFFF
310
FFFFFFFFFFFFFFFFFFFFFFFFFFFFFFFFFFFFFFFFFFFFFFFFFFFFFFFFFFFFFFFF
310
FFFFFFFFFFFFFFFFFFFFFFFFFFFFFFFFFFFFFFFFFFFFFFFFF000FFFFFFFFFFFF
310
FFFFFFFFFFFFFFFFFFFFFFFFFFFFFFFFFFFFFFFFFFFFFFFFFFFFFFFFFFFFFFFF
310
FFFFFFFFFFFFFFFFFFFFFFFFFFFFFFFFFFFFFFFFFFFFFFFFFFFFFFFFFFFFFFFF
310
FFFFFFFFFFFFFFFFFFFFFFFFFFFFFFFFF000FFFFFFFFFFFFFFFFFFFFFFFFFFFF
310
FFFFFFFFFFFFFFFFFFFFFFFFFFFFFFFFFFFFFFFFFFFFFFFFFFFFFFFFFFFFFFFF
310
FFFFFFFFFFFFFFFFFFFFFFFFFFFFFFFFFFFFFFFFFFFFFFFFFFFFFFFFFFFFFFFF
310
FFFFFFFFFFFFFFFFF000FFFFFFFFFFFFFFFFFFFFFFFFFFFFFFFFFFFFFFFFFFFF
310
FFFFFFFFFFFFFFFFFFFFFFFFFFFFFFFFFFFFFFFFFFFFFFFFFFFFFFFFFFFFFFFF
310
FFFFFFFFFFFFFFFFFFFFFFFFFFFFFFFFFFFFFFFFFFFFFFFFFFFFFFFFFFFFFFFF
310
F000FFFFFFFFFFFFFFFFFFFFFFFFFFFFFFFFFFFFFFFFFFFFFFFFFFFFFFFFFFFF
310
FFFFFFFFFFFFFFFFFFFFFFFFFFFFFFFFFFFFFFFFFFFFFFFFFFFFFFFFFFFFFFFF
310
FFFFFFFFFFFFFFFFFFFFFFFFFFFFFFFFFFFFFFFFFFFFFFFFF000FFFFFFFFFFFF
310
FFFFFFFFFFFFFFFFFFFFFFFFFFFFFFFFFFFFFFFFFFFFFFFFFFFFFFFFFFFFFFFF
310
FFFFFFFFFFFFFFFFFFFFFFFFFFFFFFFFFFFFFFFFFFFFFFFFFFFFFFFFFFFFFFFF
310
FFFFFFFFFFFFFFFFFFFFFFFFFFFFFFFFF000FFFFFFFFFFFFFFFFFFFFFFFFFFFF
310
FFFFFFFFFFFFFFFFFFFFFFFFFFFFFFFFFFFFFFFFFFFFFFFFFFFFFFFFFFFFFFFF
310
FFFFFFFFFFFFFFFFFFFFFFFFFFFFFFFFFFFFFFFFFFFFFFFFFFFFFFFFFFFFFFFF
310
FFFFFFFFFFFFFFFFF000FFFFFFFFFFFFFFFFFFFFFFFFFFFFFFFFFFFFFFFFFFFF
310
FFFFFFFFFFFFFFFFFFFFFFFFFFFFFFFFFFFFFFFFFFFFFFFFFFFFFFFFFFFFFFFF
310
FFFFFFFFFFFFFFFFFFFFFFFFFFFFFFFFFFFFFFFFFFFFFFFFFFFFFFFFFFFFFFFF
310
F000FFFFFFFFFFFFFFFFFFFFFFFFFFFFFFFFFFFFFFFFFFFFFFFFFFFFFFFFFFFF
310
FFFFFFFFFFFFFFFFFFFFFFFFFFFFFFFFFFFFFFFFFFFFFFFFFFFFFFFFFFFFFFFF
310
FFFFFFFFFFFFFFFFFFFFFFFFFFFFFFFFFFFFFFFFFFFFFFFFF000FFFFFFFFFFFF
310
FFFFFFFFFFFFFFFFFFFFFFFFFFFFFFFFFFFFFFFFFFFFFFFFFFFFFFFFFFFFFFFF
310
FFFFFFFFFFFFFFFFFFFFFFFFFFFFFFFFFFFFFFFFFFFFFFFFFFFFFFFFFFFFFFFF
310
FFFFFFFFFFFFFFFFFFFFFFFFFFFFFFFFF0000000000000000000000000000000
310
0000000000000000000000000000000000000000000000000000000000000000
310
0000000000000000000000000000000000000000000000000000000000000000
310
0000000000000000000000000000000000000000000000000000000000000000
310
0000000000000000000000000000000000000000000000000000000000000000
310
0000000000000000000000000000000000000000000000000000000000000000
310
0000000000000000000000000000000000000000000000000000000000000000
310
0000000000000000000000000000000000000000000000000000000000000000
310
0000000000000000000000000000000000000000000000000000000000000000
310
0000000000000000000000000000000000000000000000000000000000000000
310
0000000000000000000000000000000000000000000000000000000000000000
310
0000000000000000000000000000000000000000000000000000000000000000
310
0000000000000000000000000000000000000000000000000000000000000000
310
0000000000000000000000000000000000000000000000000000000000000000
310
0000000000000000000000000000000000000000000000000000000000000000
310
0000000000000000000000000000000000000000000000000000000000000000
  1
OLE
  0
ENDSEC
  0
SECTION
  2
OBJECTS
  0
DICTIONARY
  5
C
330
0
100
AcDbDictionary
281
     1
  3
ACAD_GROUP
350
D
  3
ACAD_LAYOUT
350
1A
  3
ACAD_MLINESTYLE
350
17
  3
ACAD_PLOTSETTINGS
350
19
  3
ACAD_PLOTSTYLENAME
350
E
  3
ACAD_SCALELIST
350
47
  0
DICTIONARY
  5
D
102
{ACAD_REACTORS
330
C
102
}
330
C
100
AcDbDictionary
281
     1
  0
DICTIONARY
  5
1A
102
{ACAD_REACTORS
330
C
102
}
330
C
100
AcDbDictionary
281
     1
  3
Layout1
350
1E
  3
Layout2
350
26
  3
Model
350
22
  0
DICTIONARY
  5
17
102
{ACAD_REACTORS
330
C
102
}
330
C
100
AcDbDictionary
281
     1
  3
Standard
350
18
  0
DICTIONARY
  5
19
102
{ACAD_REACTORS
330
C
102
}
330
C
100
AcDbDictionary
281
     1
  0
ACDBDICTIONARYWDFLT
  5
E
102
{ACAD_REACTORS
330
C
102
}
330
C
100
AcDbDictionary
281
     1
  3
Normal
350
F
100
AcDbDictionaryWithDefault
340
F
  0
DICTIONARY
  5
47
102
{ACAD_REACTORS
330
C
102
}
330
C
100
AcDbDictionary
281
     1
  3
A0
350
48
  3
A1
350
49
  3
A2
350
4A
  3
A3
350
4B
  3
A4
350
4C
  3
A5
350
4D
  3
A6
350
4E
  3
A7
350
4F
  3
A8
350
50
  3
A9
350
51
  3
B0
350
52
  3
B1
350
53
  3
B2
350
54
  3
B3
350
55
  3
B4
350
56
  3
B5
350
57
  3
B6
350
58
  3
B7
350
59
  3
B8
350
5A
  3
B9
350
5B
  3
C0
350
5C
  3
C1
350
5D
  3
C2
350
5E
  3
C3
350
5F
  3
C4
350
60
  3
C5
350
61
  3
C6
350
62
  3
C7
350
63
  3
C8
350
64
  3
C9
350
65
  3
D0
350
66
  3
D1
350
67
  3
D2
350
68
  0
LAYOUT
  5
1E
102
{ACAD_REACTORS
330
1A
102
}
330
1A
100
AcDbPlotSettings
  1

  2
none_device
  4

  6

 40
0.0
 41
0.0
 42
0.0
 43
0.0
 44
0.0
 45
0.0
 46
0.0
 47
0.0
 48
0.0
 49
0.0
140
0.0
141
0.0
142
1.0
143
1.0
 70
   688
 72
     1
 73
     0
 74
     5
  7

 75
    16
147
1.0
148
0.0
149
0.0
100
AcDbLayout
  1
Layout1
 70
     1
 71
     1
 10
0.0
 20
0.0
 11
420.0
 21
297.0
 12
0.0
 22
0.0
 32
0.0
 14
1.0000000000E+20
 24
1.0000000000E+20
 34
1.0000000000E+20
 15
-1.0000000000E+20
 25
-1.0000000000E+20
 35
-1.0000000000E+20
146
0.0
 13
0.0
 23
0.0
 33
0.0
 16
1.0
 26
0.0
 36
0.0
 17
0.0
 27
1.0
 37
0.0
 76
     0
330
1B
  0
LAYOUT
  5
26
102
{ACAD_REACTORS
330
1A
102
}
330
1A
100
AcDbPlotSettings
  1

  2
none_device
  4

  6

 40
0.0
 41
0.0
 42
0.0
 43
0.0
 44
0.0
 45
0.0
 46
0.0
 47
0.0
 48
0.0
 49
0.0
140
0.0
141
0.0
142
1.0
143
1.0
 70
   688
 72
     1
 73
     0
 74
     5
  7

 75
    16
147
1.0
148
0.0
149
0.0
100
AcDbLayout
  1
Layout2
 70
     1
 71
     2
 10
0.0
 20
0.0
 11
0.0
 21
0.0
 12
0.0
 22
0.0
 32
0.0
 14
0.0
 24
0.0
 34
0.0
 15
0.0
 25
0.0
 35
0.0
146
0.0
 13
0.0
 23
0.0
 33
0.0
 16
1.0
 26
0.0
 36
0.0
 17
0.0
 27
1.0
 37
0.0
 76
     0
330
23
  0
LAYOUT
  5
22
102
{ACAD_REACTORS
330
1A
102
}
330
1A
100
AcDbPlotSettings
  1

  2
none_device
  4
Letter_(8.50_x_11.00_Inches)
  6

 40
6.35
 41
6.35
 42
6.35000508
 43
6.35000508
 44
215.9
 45
279.4
 46
0.0
 47
0.0
 48
0.0
 49
0.0
140
0.0
141
0.0
142
1.0
143
1.0
 70
  1712
 72
     1
 73
     0
 74
     0
  7

 75
     0
147
1.0
148
0.0
149
0.0
100
AcDbLayout
  1
Model
 70
     1
 71
     0
 10
0.0
 20
0.0
 11
297.0
 21
210.0
 12
0.0
 22
0.0
 32
0.0
 14
0.0
 24
0.0
 34
0.0
 15
297.0
 25
210.0
 35
0.0
146
0.0
 13
0.0
 23
0.0
 33
0.0
 16
1.0
 26
0.0
 36
0.0
 17
0.0
 27
1.0
 37
0.0
 76
     0
330
1F
331
29
  0
MLINESTYLE
  5
18
102
{ACAD_REACTORS
330
17
102
}
330
17
100
AcDbMlineStyle
  2
Standard
 70
     0
  3

 62
   256
 51
90.0
 52
90.0
 71
     2
 49
0.5
 62
   256
  6
BYLAYER
 49
-0.5
 62
   256
  6
BYLAYER
  0
ACDBPLACEHOLDER
  5
F
102
{ACAD_REACTORS
330
E
102
}
330
E
  0
SCALE
  5
48
102
{ACAD_REACTORS
330
47
102
}
330
47
100
AcDbScale
 70
     0
300
1:1
140
1.0
141
1.0
290
     1
  0
SCALE
  5
49
102
{ACAD_REACTORS
330
47
102
}
330
47
100
AcDbScale
 70
     0
300
1:2
140
1.0
141
2.0
290
     0
  0
SCALE
  5
4A
102
{ACAD_REACTORS
330
47
102
}
330
47
100
AcDbScale
 70
     0
300
1:4
140
1.0
141
4.0
290
     0
  0
SCALE
  5
4B
102
{ACAD_REACTORS
330
47
102
}
330
47
100
AcDbScale
 70
     0
300
1:5
140
1.0
141
5.0
290
     0
  0
SCALE
  5
4C
102
{ACAD_REACTORS
330
47
102
}
330
47
100
AcDbScale
 70
     0
300
1:8
140
1.0
141
8.0
290
     0
  0
SCALE
  5
4D
102
{ACAD_REACTORS
330
47
102
}
330
47
100
AcDbScale
 70
     0
300
1:10
140
1.0
141
10.0
290
     0
  0
SCALE
  5
4E
102
{ACAD_REACTORS
330
47
102
}
330
47
100
AcDbScale
 70
     0
300
1:16
140
1.0
141
16.0
290
     0
  0
SCALE
  5
4F
102
{ACAD_REACTORS
330
47
102
}
330
47
100
AcDbScale
 70
     0
300
1:20
140
1.0
141
20.0
290
     0
  0
SCALE
  5
50
102
{ACAD_REACTORS
330
47
102
}
330
47
100
AcDbScale
 70
     0
300
1:30
140
1.0
141
30.0
290
     0
  0
SCALE
  5
51
102
{ACAD_REACTORS
330
47
102
}
330
47
100
AcDbScale
 70
     0
300
1:40
140
1.0
141
40.0
290
     0
  0
SCALE
  5
52
102
{ACAD_REACTORS
330
47
102
}
330
47
100
AcDbScale
 70
     0
300
1:50
140
1.0
141
50.0
290
     0
  0
SCALE
  5
53
102
{ACAD_REACTORS
330
47
102
}
330
47
100
AcDbScale
 70
     0
300
1:100
140
1.0
141
100.0
290
     0
  0
SCALE
  5
54
102
{ACAD_REACTORS
330
47
102
}
330
47
100
AcDbScale
 70
     0
300
2:1
140
2.0
141
1.0
290
     0
  0
SCALE
  5
55
102
{ACAD_REACTORS
330
47
102
}
330
47
100
AcDbScale
 70
     0
300
4:1
140
4.0
141
1.0
290
     0
  0
SCALE
  5
56
102
{ACAD_REACTORS
330
47
102
}
330
47
100
AcDbScale
 70
     0
300
8:1
140
8.0
141
1.0
290
     0
  0
SCALE
  5
57
102
{ACAD_REACTORS
330
47
102
}
330
47
100
AcDbScale
 70
     0
300
10:1
140
10.0
141
1.0
290
     0
  0
SCALE
  5
58
102
{ACAD_REACTORS
330
47
102
}
330
47
100
AcDbScale
 70
     0
300
100:1
140
100.0
141
1.0
290
     0
  0
SCALE
  5
59
102
{ACAD_REACTORS
330
47
102
}
330
47
100
AcDbScale
 70
     0
300
1/128" = 1'-0"
140
0.0078125
141
12.0
290
     0
  0
SCALE
  5
5A
102
{ACAD_REACTORS
330
47
102
}
330
47
100
AcDbScale
 70
     0
300
1/64" = 1'-0"
140
0.015625
141
12.0
290
     0
  0
SCALE
  5
5B
102
{ACAD_REACTORS
330
47
102
}
330
47
100
AcDbScale
 70
     0
300
1/32" = 1'-0"
140
0.03125
141
12.0
290
     0
  0
SCALE
  5
5C
102
{ACAD_REACTORS
330
47
102
}
330
47
100
AcDbScale
 70
     0
300
1/16" = 1'-0"
140
0.0625
141
12.0
290
     0
  0
SCALE
  5
5D
102
{ACAD_REACTORS
330
47
102
}
330
47
100
AcDbScale
 70
     0
300
3/32" = 1'-0"
140
0.09375
141
12.0
290
     0
  0
SCALE
  5
5E
102
{ACAD_REACTORS
330
47
102
}
330
47
100
AcDbScale
 70
     0
300
1/8" = 1'-0"
140
0.125
141
12.0
290
     0
  0
SCALE
  5
5F
102
{ACAD_REACTORS
330
47
102
}
330
47
100
AcDbScale
 70
     0
300
3/16" = 1'-0"
140
0.1875
141
12.0
290
     0
  0
SCALE
  5
60
102
{ACAD_REACTORS
330
47
102
}
330
47
100
AcDbScale
 70
     0
300
1/4" = 1'-0"
140
0.25
141
12.0
290
     0
  0
SCALE
  5
61
102
{ACAD_REACTORS
330
47
102
}
330
47
100
AcDbScale
 70
     0
300
3/8" = 1'-0"
140
0.375
141
12.0
290
     0
  0
SCALE
  5
62
102
{ACAD_REACTORS
330
47
102
}
330
47
100
AcDbScale
 70
     0
300
1/2" = 1'-0"
140
0.5
141
12.0
290
     0
  0
SCALE
  5
63
102
{ACAD_REACTORS
330
47
102
}
330
47
100
AcDbScale
 70
     0
300
3/4" = 1'-0"
140
0.75
141
12.0
290
     0
  0
SCALE
  5
64
102
{ACAD_REACTORS
330
47
102
}
330
47
100
AcDbScale
 70
     0
300
1" = 1'-0"
140
1.0
141
12.0
290
     0
  0
SCALE
  5
65
102
{ACAD_REACTORS
330
47
102
}
330
47
100
AcDbScale
 70
     0
300
1-1/2" = 1'-0"
140
1.5
141
12.0
290
     0
  0
SCALE
  5
66
102
{ACAD_REACTORS
330
47
102
}
330
47
100
AcDbScale
 70
     0
300
3" = 1'-0"
140
3.0
141
12.0
290
     0
  0
SCALE
  5
67
102
{ACAD_REACTORS
330
47
102
}
330
47
100
AcDbScale
 70
     0
300
6" = 1'-0"
140
6.0
141
12.0
290
     0
  0
SCALE
  5
68
102
{ACAD_REACTORS
330
47
102
}
330
47
100
AcDbScale
 70
     0
300
1'-0" = 1'-0"
140
12.0
141
12.0
290
     0
  0
ENDSEC
  0
EOF
