  0
SECTION
  2
HEADER
  9
$ACADVER
  1
AC1015
  9
$ACADMAINTVER
 70
     6
  9
$DWGCODEPAGE
  3
ANSI_1252
  9
$INSBASE
 10
0.0
 20
0.0
 30
0.0
  9
$EXTMIN
 10
0.0
 20
0.0
 30
0.0
  9
$EXTMAX
 10
297.0
 20
210.0
 30
0.0
  9
$LIMMIN
 10
0.0
 20
0.0
  9
$LIMMAX
 10
297.0
 20
210.0
  9
$ORTHOMODE
 70
     0
  9
$REGENMODE
 70
     1
  9
$FILLMODE
 70
     1
  9
$QTEXTMODE
 70
     0
  9
$MIRRTEXT
 70
     1
  9
$LTSCALE
 40
1.0
  9
$ATTMODE
 70
     1
  9
$TEXTSIZE
 40
2.0
  9
$TRACEWID
 40
1.0
  9
$TEXTSTYLE
  7
Standard
  9
$CLAYER
  8
0
  9
$CELTYPE
  6
ByLayer
  9
$CECOLOR
 62
   256
  9
$CELTSCALE
 40
1.0
  9
$DISPSILH
 70
     0
  9
$DIMSCALE
 40
1.0
  9
$DIMASZ
 40
3.0
  9
$DIMEXO
 40
0.0
  9
$DIMDLI
 40
3.75
  9
$DIMRND
 40
0.0
  9
$DIMDLE
 40
0.0
  9
$DIMEXE
 40
1.0
  9
$DIMTP
 40
0.0
  9
$DIMTM
 40
0.0
  9
$DIMTXT
 40
2.0
  9
$DIMCEN
 40
2.5
  9
$DIMTSZ
 40
0.0
  9
$DIMTOL
 70
     0
  9
$DIMLIM
 70
     0
  9
$DIMTIH
 70
     1
  9
$DIMTOH
 70
     1
  9
$DIMSE1
 70
     0
  9
$DIMSE2
 70
     0
  9
$DIMTAD
 70
     1
  9
$DIMZIN
 70
     0
  9
$DIMBLK
  1

  9
$DIMASO
 70
     1
  9
$DIMSHO
 70
     1
  9
$DIMPOST
  1

  9
$DIMAPOST
  1

  9
$DIMALT
 70
     0
  9
$DIMALTD
 70
     3
  9
$DIMALTF
 40
0.0393700787
  9
$DIMLFAC
 40
2.0
  9
$DIMTOFL
 70
     1
  9
$DIMTVP
 40
0.0
  9
$DIMTIX
 70
     0
  9
$DIMSOXD
 70
     0
  9
$DIMSAH
 70
     0
  9
$DIMBLK1
  1

  9
$DIMBLK2
  1

  9
$DIMSTYLE
  2
ISO-25
  9
$DIMCLRD
 70
     0
  9
$DIMCLRE
 70
     0
  9
$DIMCLRT
 70
     0
  9
$DIMTFAC
 40
1.0
  9
$DIMGAP
 40
1.524
  9
$DIMJUST
 70
     0
  9
$DIMSD1
 70
     0
  9
$DIMSD2
 70
     0
  9
$DIMTOLJ
 70
     0
  9
$DIMTZIN
 70
     0
  9
$DIMALTZ
 70
     0
  9
$DIMALTTZ
 70
     0
  9
$DIMUPT
 70
     0
  9
$DIMDEC
 70
     2
  9
$DIMTDEC
 70
     3
  9
$DIMALTU
 70
     2
  9
$DIMALTTD
 70
     3
  9
$DIMTXSTY
  7
Standard
  9
$DIMAUNIT
 70
     0
  9
$DIMADEC
 70
     2
  9
$DIMALTRND
 40
0.0
  9
$DIMAZIN
 70
     0
  9
$DIMDSEP
 70
    44
  9
$DIMATFIT
 70
     3
  9
$DIMFRAC
 70
     0
  9
$DIMLDRBLK
  1

  9
$DIMLUNIT
 70
     2
  9
$DIMLWD
 70
    -2
  9
$DIMLWE
 70
    -2
  9
$DIMTMOVE
 70
     0
  9
$LUNITS
 70
     2
  9
$LUPREC
 70
     2
  9
$SKETCHINC
 40
1.0
  9
$FILLETRAD
 40
10.0
  9
$AUNITS
 70
     0
  9
$AUPREC
 70
     2
  9
$MENU
  1
.
  9
$ELEVATION
 40
0.0
  9
$PELEVATION
 40
0.0
  9
$THICKNESS
 40
0.0
  9
$LIMCHECK
 70
     0
  9
$CHAMFERA
 40
0.0
  9
$CHAMFERB
 40
0.0
  9
$CHAMFERC
 40
0.0
  9
$CHAMFERD
 40
0.0
  9
$SKPOLY
 70
     0
  9
$TDCREATE
 40
2458169.567202975
  9
$TDUCREATE
 40
2458169.525536308
  9
$TDUPDATE
 40
2458169.567204838
  9
$TDUUPDATE
 40
2458169.525538171
  9
$TDINDWG
 40
0.0000000116
  9
$TDUSRTIMER
 40
0.0000000116
  9
$USRTIMER
 70
     1
  9
$ANGBASE
 50
0.0
  9
$ANGDIR
 70
     0
  9
$PDMODE
 70
     0
  9
$PDSIZE
 40
-1.0
  9
$PLINEWID
 40
0.0
  9
$SPLFRAME
 70
     0
  9
$SPLINETYPE
 70
     6
  9
$SPLINESEGS
 70
     8
  9
$HANDSEED
  5
25C
  9
$SURFTAB1
 70
     6
  9
$SURFTAB2
 70
     6
  9
$SURFTYPE
 70
     6
  9
$SURFU
 70
     6
  9
$SURFV
 70
     6
  9
$UCSBASE
  2

  9
$UCSNAME
  2

  9
$UCSORG
 10
0.0
 20
0.0
 30
0.0
  9
$UCSXDIR
 10
1.0
 20
0.0
 30
0.0
  9
$UCSYDIR
 10
0.0
 20
1.0
 30
0.0
  9
$UCSORTHOREF
  2

  9
$UCSORTHOVIEW
 70
     0
  9
$UCSORGTOP
 10
0.0
 20
0.0
 30
0.0
  9
$UCSORGBOTTOM
 10
0.0
 20
0.0
 30
0.0
  9
$UCSORGLEFT
 10
0.0
 20
0.0
 30
0.0
  9
$UCSORGRIGHT
 10
0.0
 20
0.0
 30
0.0
  9
$UCSORGFRONT
 10
0.0
 20
0.0
 30
0.0
  9
$UCSORGBACK
 10
0.0
 20
0.0
 30
0.0
  9
$PUCSBASE
  2

  9
$PUCSNAME
  2

  9
$PUCSORG
 10
0.0
 20
0.0
 30
0.0
  9
$PUCSXDIR
 10
1.0
 20
0.0
 30
0.0
  9
$PUCSYDIR
 10
0.0
 20
1.0
 30
0.0
  9
$PUCSORTHOREF
  2

  9
$PUCSORTHOVIEW
 70
     0
  9
$PUCSORGTOP
 10
0.0
 20
0.0
 30
0.0
  9
$PUCSORGBOTTOM
 10
0.0
 20
0.0
 30
0.0
  9
$PUCSORGLEFT
 10
0.0
 20
0.0
 30
0.0
  9
$PUCSORGRIGHT
 10
0.0
 20
0.0
 30
0.0
  9
$PUCSORGFRONT
 10
0.0
 20
0.0
 30
0.0
  9
$PUCSORGBACK
 10
0.0
 20
0.0
 30
0.0
  9
$USERI1
 70
     0
  9
$USERI2
 70
     0
  9
$USERI3
 70
     0
  9
$USERI4
 70
     0
  9
$USERI5
 70
     0
  9
$USERR1
 40
0.0
  9
$USERR2
 40
0.0
  9
$USERR3
 40
0.0
  9
$USERR4
 40
0.0
  9
$USERR5
 40
0.0
  9
$WORLDVIEW
 70
     1
  9
$SHADEDGE
 70
     3
  9
$SHADEDIF
 70
    70
  9
$TILEMODE
 70
     1
  9
$MAXACTVP
 70
    64
  9
$PINSBASE
 10
0.0
 20
0.0
 30
0.0
  9
$PLIMCHECK
 70
     0
  9
$PEXTMIN
 10
1.0000000000E+20
 20
1.0000000000E+20
 30
1.0000000000E+20
  9
$PEXTMAX
 10
-1.0000000000E+20
 20
-1.0000000000E+20
 30
-1.0000000000E+20
  9
$PLIMMIN
 10
0.0
 20
0.0
  9
$PLIMMAX
 10
420.0
 20
297.0
  9
$UNITMODE
 70
     0
  9
$VISRETAIN
 70
     1
  9
$PLINEGEN
 70
     0
  9
$PSLTSCALE
 70
     1
  9
$TREEDEPTH
 70
  3020
  9
$CMLSTYLE
  2
Standard
  9
$CMLJUST
 70
     0
  9
$CMLSCALE
 40
20.0
  9
$PROXYGRAPHICS
 70
     1
  9
$MEASUREMENT
 70
     1
  9
$CELWEIGHT
370
    -1
  9
$ENDCAPS
280
     0
  9
$JOINSTYLE
280
     0
  9
$LWDISPLAY
290
     1
  9
$INSUNITS
 70
     4
  9
$HYPERLINKBASE
  1

  9
$STYLESHEET
  1

  9
$XEDIT
290
     1
  9
$CEPSNTYPE
380
     0
  9
$PSTYLEMODE
290
     1
  9
$FINGERPRINTGUID
  2
{0E7902D2-6C3E-4381-B33E-531790C2DEF1}
  9
$VERSIONGUID
  2
{FAEB1C32-E019-11D5-929B-00C0DF256EC4}
  9
$EXTNAMES
290
     1
  9
$PSVPSCALE
 40
0.0
  9
$OLESTARTUP
290
     0
  0
ENDSEC
  0
SECTION
  2
CLASSES
  0
CLASS
  1
ACDBDICTIONARYWDFLT
  2
AcDbDictionaryWithDefault
  3
ObjectDBX Classes
 90
        0
280
     0
281
     0
  0
CLASS
  1
VISUALSTYLE
  2
AcDbVisualStyle
  3
ObjectDBX Classes
 90
     4095
280
     0
281
     0
  0
CLASS
  1
MATERIAL
  2
AcDbMaterial
  3
ObjectDBX Classes
 90
     1153
280
     0
281
     0
  0
CLASS
  1
SCALE
  2
AcDbScale
  3
ObjectDBX Classes
 90
     1153
280
     0
281
     0
  0
CLASS
  1
TABLESTYLE
  2
AcDbTableStyle
  3
ObjectDBX Classes
 90
     4095
280
     0
281
     0
  0
CLASS
  1
MLEADERSTYLE
  2
AcDbMLeaderStyle
  3
ACDB_MLEADERSTYLE_CLASS
 90
     4095
280
     0
281
     0
  0
CLASS
  1
SUN
  2
AcDbSun
  3
SCENEOE
 90
     1153
280
     0
281
     0
  0
CLASS
  1
ACDBPLACEHOLDER
  2
AcDbPlaceHolder
  3
ObjectDBX Classes
 90
        0
280
     0
281
     0
  0
CLASS
  1
LAYOUT
  2
AcDbLayout
  3
ObjectDBX Classes
 90
        0
280
     0
281
     0
  0
ENDSEC
  0
SECTION
  2
TABLES
  0
TABLE
  2
VPORT
  5
8
330
0
100
AcDbSymbolTable
 70
     1
  0
VPORT
  5
29
330
8
100
AcDbSymbolTableRecord
100
AcDbViewportTableRecord
  2
*Active
 70
     0
 10
0.0
 20
0.0
 11
1.0
 21
1.0
 12
148.5
 22
105.0
 13
0.0
 23
0.0
 14
10.0
 24
10.0
 15
10.0
 25
10.0
 16
0.0
 26
0.0
 36
1.0
 17
0.0
 27
0.0
 37
0.0
 40
210.0
 41
1.4142857143
 42
50.0
 43
0.0
 44
0.0
 50
0.0
 51
0.0
 71
     0
 72
  2000
 73
     1
 74
     3
 75
     0
 76
     0
 77
     0
 78
     0
281
     0
 65
     1
110
0.0
120
0.0
130
0.0
111
1.0
121
0.0
131
0.0
112
0.0
122
1.0
132
0.0
 79
     0
146
0.0
  0
ENDTAB
  0
TABLE
  2
LTYPE
  5
5
330
0
100
AcDbSymbolTable
 70
     6
  0
LTYPE
  5
14
330
5
100
AcDbSymbolTableRecord
100
AcDbLinetypeTableRecord
  2
ByBlock
 70
     0
  3

 72
    65
 73
     0
 40
0.0
  0
LTYPE
  5
15
330
5
100
AcDbSymbolTableRecord
100
AcDbLinetypeTableRecord
  2
ByLayer
 70
     0
  3

 72
    65
 73
     0
 40
0.0
  0
LTYPE
  5
16
330
5
100
AcDbSymbolTableRecord
100
AcDbLinetypeTableRecord
  2
Continuous
 70
     0
  3
Solid line
 72
    65
 73
     0
 40
0.0
  0
LTYPE
  5
6E
330
5
100
AcDbSymbolTableRecord
100
AcDbLinetypeTableRecord
  2
HIDDEN
 70
     0
  3
Hidden __ __ __ __ __ __ __ __ __ __ __ __ __ __
 72
    65
 73
     2
 40
1.905
 49
1.27
 74
     0
 49
-0.635
 74
     0
  0
LTYPE
  5
6F
330
5
100
AcDbSymbolTableRecord
100
AcDbLinetypeTableRecord
  2
PHANTOM
 70
     0
  3
Phantom ______  __  __  ______  __  __  ______
 72
    65
 73
     6
 40
12.7
 49
6.35
 74
     0
 49
-1.27
 74
     0
 49
1.27
 74
     0
 49
-1.27
 74
     0
 49
1.27
 74
     0
 49
-1.27
 74
     0
  0
LTYPE
  5
70
330
5
100
AcDbSymbolTableRecord
100
AcDbLinetypeTableRecord
  2
CENTER
 70
     0
  3
Center ____ _ ____ _ ____ _ ____ _ ____ _ ____
 72
    65
 73
     4
 40
10.16
 49
6.35
 74
     0
 49
-1.27
 74
     0
 49
1.27
 74
     0
 49
-1.27
 74
     0
  0
LTYPE
  5
71
330
5
100
AcDbSymbolTableRecord
100
AcDbLinetypeTableRecord
  2
CENTERX2
 70
     0
  3
Center (2x) ________  __  ________  __  _____
 72
    65
 73
     4
 40
20.32
 49
12.7
 74
     0
 49
-2.54
 74
     0
 49
2.54
 74
     0
 49
-2.54
 74
     0
  0
LTYPE
  5
72
330
5
100
AcDbSymbolTableRecord
100
AcDbLinetypeTableRecord
  2
DOT2
 70
     0
  3
Dot (.5x) ........................................
 72
    65
 73
     2
 40
0.635
 49
0.0
 74
     0
 49
-0.635
 74
     0
  0
ENDTAB
  0
TABLE
  2
LAYER
  5
2
330
0
100
AcDbSymbolTable
 70
     5
  0
LAYER
  5
10
330
2
100
AcDbSymbolTableRecord
100
AcDbLayerTableRecord
  2
0
 70
     0
 62
     7
  6
Continuous
370
    -3
390
F
  0
LAYER
  5
73
330
2
100
AcDbSymbolTableRecord
100
AcDbLayerTableRecord
  2
FORMAT
 70
     0
 62
     7
  6
Continuous
370
    -3
390
F
  0
LAYER
  5
74
330
2
100
AcDbSymbolTableRecord
100
AcDbLayerTableRecord
  2
VERMASSUNG
 70
     0
 62
     7
  6
Continuous
370
    -3
390
F
  0
LAYER
  5
75
330
2
100
AcDbSymbolTableRecord
100
AcDbLayerTableRecord
  2
KOPF_DÜNN
 70
     0
 62
     7
  6
Continuous
370
    -3
390
F
  0
LAYER
  5
76
330
2
100
AcDbSymbolTableRecord
100
AcDbLayerTableRecord
  2
KOPF_DICK
 70
     0
 62
     7
  6
Continuous
370
    25
390
F
  0
ENDTAB
  0
TABLE
  2
STYLE
  5
3
330
0
100
AcDbSymbolTable
 70
     2
  0
STYLE
  5
11
330
3
100
AcDbSymbolTableRecord
100
AcDbTextStyleTableRecord
  2
Standard
 70
     0
 40
0.0
 41
1.0
 50
0.0
 71
     0
 42
2.0
  3
txt
  4

  0
STYLE
  5
77
330
3
100
AcDbSymbolTableRecord
100
AcDbTextStyleTableRecord
  2
SLDTEXTSTYLE0
 70
     0
 40
0.0
 41
0.7
 50
0.0
 71
     0
 42
2.0
  3
TXT
  4

  0
ENDTAB
  0
TABLE
  2
VIEW
  5
6
330
0
100
AcDbSymbolTable
 70
     0
  0
ENDTAB
  0
TABLE
  2
UCS
  5
7
330
0
100
AcDbSymbolTable
 70
     0
  0
ENDTAB
  0
TABLE
  2
APPID
  5
9
330
0
100
AcDbSymbolTable
 70
     1
  0
APPID
  5
12
330
9
100
AcDbSymbolTableRecord
100
AcDbRegAppTableRecord
  2
ACAD
 70
     0
  0
ENDTAB
  0
TABLE
  2
DIMSTYLE
  5
A
330
0
100
AcDbSymbolTable
 70
     3
100
AcDbDimStyleTable
  0
DIMSTYLE
105
27
330
A
100
AcDbSymbolTableRecord
100
AcDbDimStyleTableRecord
  2
ISO-25
 70
     0
 41
2.5
 42
0.625
 43
3.75
 44
1.25
 73
     0
 74
     0
 77
     1
 78
     8
140
2.5
141
2.5
143
0.0393700787
147
0.625
171
     3
172
     1
178
     0
271
     2
272
     2
274
     3
278
    44
283
     0
284
     8
340
11
  0
DIMSTYLE
105
113
102
{ACAD_REACTORS
330
112
330
11E
330
137
330
141
330
14B
330
155
102
}
330
A
100
AcDbSymbolTableRecord
100
AcDbDimStyleTableRecord
  2
SLDDIMSTYLE0
 70
     0
 41
3.0
 44
0.0
 45
0.000000001
 73
     0
 74
     0
 77
     1
 78
    12
 79
     3
140
2.0
147
0.5
173
     1
178
     0
271
     2
272
     3
276
     2
284
    12
340
77
  0
DIMSTYLE
105
12A
102
{ACAD_REACTORS
330
129
330
15F
102
}
330
A
100
AcDbSymbolTableRecord
100
AcDbDimStyleTableRecord
  2
SLDDIMSTYLE1
 70
     0
 41
3.0
 44
0.0
 45
0.000000001
 73
     0
 74
     0
 77
     1
 78
    12
 79
     3
140
2.0
147
0.5
173
     1
178
     0
271
     0
272
     3
276
     2
284
    12
340
77
  0
ENDTAB
  0
TABLE
  2
BLOCK_RECORD
  5
1
330
0
100
AcDbSymbolTable
 70
     9
  0
BLOCK_RECORD
  5
1F
330
1
100
AcDbSymbolTableRecord
100
AcDbBlockTableRecord
  2
*Model_Space
340
22
  0
BLOCK_RECORD
  5
1B
330
1
100
AcDbSymbolTableRecord
100
AcDbBlockTableRecord
  2
*Paper_Space
340
1E
  0
BLOCK_RECORD
  5
23
330
1
100
AcDbSymbolTableRecord
100
AcDbBlockTableRecord
  2
*Paper_Space0
340
26
  0
BLOCK_RECORD
  5
114
330
1
100
AcDbSymbolTableRecord
100
AcDbBlockTableRecord
  2
_D
340
0
  0
BLOCK_RECORD
  5
11F
330
1
100
AcDbSymbolTableRecord
100
AcDbBlockTableRecord
  2
_D_1
340
0
  0
BLOCK_RECORD
  5
12B
330
1
100
AcDbSymbolTableRecord
100
AcDbBlockTableRecord
  2
_D_2
340
0
  0
BLOCK_RECORD
  5
138
330
1
100
AcDbSymbolTableRecord
100
AcDbBlockTableRecord
  2
_D_3
340
0
  0
BLOCK_RECORD
  5
142
330
1
100
AcDbSymbolTableRecord
100
AcDbBlockTableRecord
  2
_D_4
340
0
  0
BLOCK_RECORD
  5
14C
330
1
100
AcDbSymbolTableRecord
100
AcDbBlockTableRecord
  2
_D_5
340
0
  0
BLOCK_RECORD
  5
156
330
1
100
AcDbSymbolTableRecord
100
AcDbBlockTableRecord
  2
_D_6
340
0
  0
BLOCK_RECORD
  5
160
330
1
100
AcDbSymbolTableRecord
100
AcDbBlockTableRecord
  2
_D_7
340
0
  0
ENDTAB
  0
ENDSEC
  0
SECTION
  2
BLOCKS
  0
BLOCK
  5
20
330
1F
100
AcDbEntity
  8
0
100
AcDbBlockBegin
  2
*Model_Space
 70
     0
 10
0.0
 20
0.0
 30
0.0
  3
*Model_Space
  1

  0
ENDBLK
  5
21
330
1F
100
AcDbEntity
  8
0
100
AcDbBlockEnd
  0
BLOCK
  5
1C
330
1B
100
AcDbEntity
 67
     1
  8
0
100
AcDbBlockBegin
  2
*Paper_Space
 70
     0
 10
0.0
 20
0.0
 30
0.0
  3
*Paper_Space
  1

  0
ENDBLK
  5
1D
330
1B
100
AcDbEntity
 67
     1
  8
0
100
AcDbBlockEnd
  0
BLOCK
  5
24
330
23
100
AcDbEntity
  8
0
100
AcDbBlockBegin
  2
*Paper_Space0
 70
     0
 10
0.0
 20
0.0
 30
0.0
  3
*Paper_Space0
  1

  0
ENDBLK
  5
25
330
23
100
AcDbEntity
  8
0
100
AcDbBlockEnd
  0
BLOCK
  5
115
330
114
100
AcDbEntity
  8
0
100
AcDbBlockBegin
  2
_D
 70
     0
 10
0.0
 20
0.0
 30
0.0
  3
_D
  1

  0
SOLID
  5
117
330
114
100
AcDbEntity
  8
VERMASSUNG
100
AcDbTrace
 10
214.9240169388
 20
103.9817686418
 30
0.0
 11
215.3740169388
 21
106.9817686418
 31
0.0
 12
214.4740169388
 22
106.9817686418
 32
0.0
 13
214.4740169388
 23
106.9817686418
 33
0.0
  0
SOLID
  5
118
330
114
100
AcDbEntity
  8
VERMASSUNG
100
AcDbTrace
 10
214.9240169388
 20
125.9817686418
 30
0.0
 11
214.4740169388
 21
122.9817686418
 31
0.0
 12
215.3740169388
 22
122.9817686418
 32
0.0
 13
215.3740169388
 23
122.9817686418
 33
0.0
  0
LINE
  5
119
330
114
100
AcDbEntity
  8
VERMASSUNG
100
AcDbLine
 10
178.1557050571
 20
103.9817686418
 30
0.0
 11
215.9240169388
 21
103.9817686418
 31
0.0
  0
LINE
  5
11A
330
114
100
AcDbEntity
  8
VERMASSUNG
100
AcDbLine
 10
178.1557050571
 20
125.9817686418
 30
0.0
 11
215.9240169388
 21
125.9817686418
 31
0.0
  0
LINE
  5
11B
330
114
100
AcDbEntity
  8
VERMASSUNG
100
AcDbLine
 10
214.9240169388
 20
103.9817686418
 30
0.0
 11
214.9240169388
 21
125.9817686418
 31
0.0
  0
MTEXT
  5
11C
330
114
100
AcDbEntity
  8
VERMASSUNG
100
AcDbMText
 10
212.3458816338
 20
111.7767686846
 30
0.0
 40
2.0
 41
0.0
 71
     1
 72
     1
  1
%%c
  7
SLDTEXTSTYLE0
 11
6.123233995736766E-17
 21
1.0
 31
0.0
 73
     1
 44
1.0
  0
MTEXT
  5
11D
330
114
100
AcDbEntity
  8
VERMASSUNG
100
AcDbMText
 10
212.1458816826
 20
115.3867686989
 30
0.0
 40
2.0
 41
0.0
 71
     1
 72
     1
  1
22
  7
SLDTEXTSTYLE0
 11
6.123233995736766E-17
 21
1.0
 31
0.0
 73
     1
 44
1.0
  0
ENDBLK
  5
116
330
114
100
AcDbEntity
  8
0
100
AcDbBlockEnd
  0
BLOCK
  5
120
330
11F
100
AcDbEntity
  8
0
100
AcDbBlockBegin
  2
_D_1
 70
     0
 10
0.0
 20
0.0
 30
0.0
  3
_D_1
  1

  0
SOLID
  5
122
330
11F
100
AcDbEntity
  8
VERMASSUNG
100
AcDbTrace
 10
225.9557050571
 20
138.9817686418
 30
0.0
 11
225.5057050571
 21
135.9817686418
 31
0.0
 12
226.4057050571
 22
135.9817686418
 32
0.0
 13
226.4057050571
 23
135.9817686418
 33
0.0
  0
SOLID
  5
123
330
11F
100
AcDbEntity
  8
VERMASSUNG
100
AcDbTrace
 10
225.9557050571
 20
90.9817686418
 30
0.0
 11
226.4057050571
 21
93.9817686418
 31
0.0
 12
225.5057050571
 22
93.9817686418
 32
0.0
 13
225.5057050571
 23
93.9817686418
 33
0.0
  0
LINE
  5
124
330
11F
100
AcDbEntity
  8
VERMASSUNG
100
AcDbLine
 10
159.1557050571
 20
138.9817686418
 30
0.0
 11
226.9557050571
 21
138.9817686418
 31
0.0
  0
LINE
  5
125
330
11F
100
AcDbEntity
  8
VERMASSUNG
100
AcDbLine
 10
159.1557050571
 20
90.9817686418
 30
0.0
 11
226.9557050571
 21
90.9817686418
 31
0.0
  0
LINE
  5
126
330
11F
100
AcDbEntity
  8
VERMASSUNG
100
AcDbLine
 10
225.9557050571
 20
138.9817686418
 30
0.0
 11
225.9557050571
 21
90.9817686418
 31
0.0
  0
MTEXT
  5
127
330
11F
100
AcDbEntity
  8
VERMASSUNG
100
AcDbMText
 10
223.3775697522
 20
111.6767686216
 30
0.0
 40
2.0
 41
0.0
 71
     1
 72
     1
  1
%%c
  7
SLDTEXTSTYLE0
 11
-7.044195017643634E-15
 21
1.0
 31
0.0
 73
     1
 44
1.0
  0
MTEXT
  5
128
330
11F
100
AcDbEntity
  8
VERMASSUNG
100
AcDbMText
 10
223.1775698009
 20
115.2867686359
 30
0.0
 40
2.0
 41
0.0
 71
     1
 72
     1
  1
48
  7
SLDTEXTSTYLE0
 11
-7.044195017643634E-15
 21
1.0
 31
0.0
 73
     1
 44
1.0
  0
ENDBLK
  5
121
330
11F
100
AcDbEntity
  8
0
100
AcDbBlockEnd
  0
BLOCK
  5
12C
330
12B
100
AcDbEntity
  8
0
100
AcDbBlockBegin
  2
_D_2
 70
     0
 10
0.0
 20
0.0
 30
0.0
  3
_D_2
  1

  0
SOLID
  5
12E
330
12B
100
AcDbEntity
  8
VERMASSUNG
100
AcDbTrace
 10
80.0056800571
 20
146.4567686418
 30
0.0
 11
79.5556800571
 21
143.4567686418
 31
0.0
 12
80.4556800571
 22
143.4567686418
 32
0.0
 13
80.4556800571
 23
143.4567686418
 33
0.0
  0
SOLID
  5
12F
330
12B
100
AcDbEntity
  8
VERMASSUNG
100
AcDbTrace
 10
80.0056800571
 20
83.5067686418
 30
0.0
 11
80.4556800571
 21
86.5067686418
 31
0.0
 12
79.5556800571
 22
86.5067686418
 32
0.0
 13
79.5556800571
 23
86.5067686418
 33
0.0
  0
LINE
  5
130
330
12B
100
AcDbEntity
  8
VERMASSUNG
100
AcDbLine
 10
130.1557050571
 20
146.4567686418
 30
0.0
 11
79.0056800571
 21
146.4567686418
 31
0.0
  0
LINE
  5
131
330
12B
100
AcDbEntity
  8
VERMASSUNG
100
AcDbLine
 10
130.1557050571
 20
83.5067686418
 30
0.0
 11
79.0056800571
 21
83.5067686418
 31
0.0
  0
LINE
  5
132
330
12B
100
AcDbEntity
  8
VERMASSUNG
100
AcDbLine
 10
80.0056800571
 20
146.4567686418
 30
0.0
 11
80.0056800571
 21
83.5067686418
 31
0.0
  0
MTEXT
  5
133
330
12B
100
AcDbEntity
  8
VERMASSUNG
100
AcDbMText
 10
77.2275448009
 20
106.8767700234
 30
0.0
 40
2.0
 41
0.0
 71
     1
 72
     1
  1
KM
  7
SLDTEXTSTYLE0
 11
-7.044195017643634E-15
 21
1.0
 31
0.0
 73
     1
 44
1.0
  0
MTEXT
  5
134
330
12B
100
AcDbEntity
  8
VERMASSUNG
100
AcDbMText
 10
77.4275447522
 20
110.2767698357
 30
0.0
 40
2.0
 41
0.0
 71
     1
 72
     1
  1
%%c
  7
SLDTEXTSTYLE0
 11
-7.044195017643634E-15
 21
1.0
 31
0.0
 73
     1
 44
1.0
  0
MTEXT
  5
135
330
12B
100
AcDbEntity
  8
VERMASSUNG
100
AcDbMText
 10
77.2275448009
 20
113.88676985
 30
0.0
 40
2.0
 41
0.0
 71
     1
 72
     1
  1
63
  7
SLDTEXTSTYLE0
 11
-7.044195017643634E-15
 21
1.0
 31
0.0
 73
     1
 44
1.0
  0
MTEXT
  5
136
330
12B
100
AcDbEntity
  8
VERMASSUNG
100
AcDbMText
 10
77.2275448009
 20
117.8742697501
 30
0.0
 40
2.0
 41
0.0
 71
     1
 72
     1
  1
XMZ
  7
SLDTEXTSTYLE0
 11
-7.044195017643634E-15
 21
1.0
 31
0.0
 73
     1
 44
1.0
  0
ENDBLK
  5
12D
330
12B
100
AcDbEntity
  8
0
100
AcDbBlockEnd
  0
BLOCK
  5
139
330
138
100
AcDbEntity
  8
0
100
AcDbBlockBegin
  2
_D_3
 70
     0
 10
0.0
 20
0.0
 30
0.0
  3
_D_3
  1

  0
SOLID
  5
13B
330
138
100
AcDbEntity
  8
VERMASSUNG
100
AcDbTrace
 10
147.9557050571
 20
152.990551822
 30
0.0
 11
150.9557050571
 21
152.540551822
 31
0.0
 12
150.9557050571
 22
153.440551822
 32
0.0
 13
150.9557050571
 23
153.440551822
 33
0.0
  0
SOLID
  5
13C
330
138
100
AcDbEntity
  8
VERMASSUNG
100
AcDbTrace
 10
159.9557050571
 20
152.990551822
 30
0.0
 11
156.9557050571
 21
153.440551822
 31
0.0
 12
156.9557050571
 22
152.540551822
 32
0.0
 13
156.9557050571
 23
152.540551822
 33
0.0
  0
LINE
  5
13D
330
138
100
AcDbEntity
  8
VERMASSUNG
100
AcDbLine
 10
147.9557050571
 20
146.4567686418
 30
0.0
 11
147.9557050571
 21
153.990551822
 31
0.0
  0
LINE
  5
13E
330
138
100
AcDbEntity
  8
VERMASSUNG
100
AcDbLine
 10
159.9557050571
 20
138.1817686418
 30
0.0
 11
159.9557050571
 21
153.990551822
 31
0.0
  0
LINE
  5
13F
330
138
100
AcDbEntity
  8
VERMASSUNG
100
AcDbLine
 10
147.9557050571
 20
152.990551822
 30
0.0
 11
159.9557050571
 21
152.990551822
 31
0.0
  0
MTEXT
  5
140
330
138
100
AcDbEntity
  8
VERMASSUNG
100
AcDbMText
 10
152.7557050001
 20
155.568687418
 30
0.0
 40
2.0
 41
0.0
 71
     1
 72
     1
  1
12
  7
SLDTEXTSTYLE0
 73
     1
 44
1.0
  0
ENDBLK
  5
13A
330
138
100
AcDbEntity
  8
0
100
AcDbBlockEnd
  0
BLOCK
  5
143
330
142
100
AcDbEntity
  8
0
100
AcDbBlockBegin
  2
_D_4
 70
     0
 10
0.0
 20
0.0
 30
0.0
  3
_D_4
  1

  0
SOLID
  5
145
330
142
100
AcDbEntity
  8
VERMASSUNG
100
AcDbTrace
 10
159.9557050571
 20
152.990551822
 30
0.0
 11
162.9557050571
 21
152.540551822
 31
0.0
 12
162.9557050571
 22
153.440551822
 32
0.0
 13
162.9557050571
 23
153.440551822
 33
0.0
  0
SOLID
  5
146
330
142
100
AcDbEntity
  8
VERMASSUNG
100
AcDbTrace
 10
178.9557050571
 20
152.990551822
 30
0.0
 11
175.9557050571
 21
153.440551822
 31
0.0
 12
175.9557050571
 22
152.540551822
 32
0.0
 13
175.9557050571
 23
152.540551822
 33
0.0
  0
LINE
  5
147
330
142
100
AcDbEntity
  8
VERMASSUNG
100
AcDbLine
 10
159.9557050571
 20
138.1817686418
 30
0.0
 11
159.9557050571
 21
153.990551822
 31
0.0
  0
LINE
  5
148
330
142
100
AcDbEntity
  8
VERMASSUNG
100
AcDbLine
 10
178.9557050571
 20
122.3770112389
 30
0.0
 11
178.9557050571
 21
153.990551822
 31
0.0
  0
LINE
  5
149
330
142
100
AcDbEntity
  8
VERMASSUNG
100
AcDbLine
 10
159.9557050571
 20
152.990551822
 30
0.0
 11
178.9557050571
 21
152.990551822
 31
0.0
  0
MTEXT
  5
14A
330
142
100
AcDbEntity
  8
VERMASSUNG
100
AcDbMText
 10
168.2557050001
 20
155.568687418
 30
0.0
 40
2.0
 41
0.0
 71
     1
 72
     1
  1
19
  7
SLDTEXTSTYLE0
 73
     1
 44
1.0
  0
ENDBLK
  5
144
330
142
100
AcDbEntity
  8
0
100
AcDbBlockEnd
  0
BLOCK
  5
14D
330
14C
100
AcDbEntity
  8
0
100
AcDbBlockBegin
  2
_D_5
 70
     0
 10
0.0
 20
0.0
 30
0.0
  3
_D_5
  1

  0
SOLID
  5
14F
330
14C
100
AcDbEntity
  8
VERMASSUNG
100
AcDbTrace
 10
129.9557050571
 20
161.2157724087
 30
0.0
 11
132.9557050571
 21
160.7657724087
 31
0.0
 12
132.9557050571
 22
161.6657724087
 32
0.0
 13
132.9557050571
 23
161.6657724087
 33
0.0
  0
SOLID
  5
150
330
14C
100
AcDbEntity
  8
VERMASSUNG
100
AcDbTrace
 10
159.9557050571
 20
161.2157724087
 30
0.0
 11
156.9557050571
 21
161.6657724087
 31
0.0
 12
156.9557050571
 22
160.7657724087
 32
0.0
 13
156.9557050571
 23
160.7657724087
 33
0.0
  0
LINE
  5
151
330
14C
100
AcDbEntity
  8
VERMASSUNG
100
AcDbLine
 10
129.9557050571
 20
146.2567686418
 30
0.0
 11
129.9557050571
 21
162.2157724087
 31
0.0
  0
LINE
  5
152
330
14C
100
AcDbEntity
  8
VERMASSUNG
100
AcDbLine
 10
159.9557050571
 20
138.1817686418
 30
0.0
 11
159.9557050571
 21
162.2157724087
 31
0.0
  0
LINE
  5
153
330
14C
100
AcDbEntity
  8
VERMASSUNG
100
AcDbLine
 10
129.9557050571
 20
161.2157724087
 30
0.0
 11
159.9557050571
 21
161.2157724087
 31
0.0
  0
MTEXT
  5
154
330
14C
100
AcDbEntity
  8
VERMASSUNG
100
AcDbMText
 10
143.555705107
 20
163.7939080046
 30
0.0
 40
2.0
 41
0.0
 71
     1
 72
     1
  1
30
  7
SLDTEXTSTYLE0
 73
     1
 44
1.0
  0
ENDBLK
  5
14E
330
14C
100
AcDbEntity
  8
0
100
AcDbBlockEnd
  0
BLOCK
  5
157
330
156
100
AcDbEntity
  8
0
100
AcDbBlockBegin
  2
_D_6
 70
     0
 10
0.0
 20
0.0
 30
0.0
  3
_D_6
  1

  0
SOLID
  5
159
330
156
100
AcDbEntity
  8
VERMASSUNG
100
AcDbTrace
 10
90.0057050571
 20
169.9043857045
 30
0.0
 11
93.0057050571
 21
169.4543857045
 31
0.0
 12
93.0057050571
 22
170.3543857045
 32
0.0
 13
93.0057050571
 23
170.3543857045
 33
0.0
  0
SOLID
  5
15A
330
156
100
AcDbEntity
  8
VERMASSUNG
100
AcDbTrace
 10
178.9557050571
 20
169.9043857045
 30
0.0
 11
175.9557050571
 21
170.3543857045
 31
0.0
 12
175.9557050571
 22
169.4543857045
 32
0.0
 13
175.9557050571
 23
169.4543857045
 33
0.0
  0
LINE
  5
15B
330
156
100
AcDbEntity
  8
VERMASSUNG
100
AcDbLine
 10
90.0057050571
 20
135.2439943785
 30
0.0
 11
90.0057050571
 21
170.9043857045
 31
0.0
  0
LINE
  5
15C
330
156
100
AcDbEntity
  8
VERMASSUNG
100
AcDbLine
 10
178.9557050571
 20
122.3770112389
 30
0.0
 11
178.9557050571
 21
170.9043857045
 31
0.0
  0
LINE
  5
15D
330
156
100
AcDbEntity
  8
VERMASSUNG
100
AcDbLine
 10
90.0057050571
 20
169.9043857045
 30
0.0
 11
178.9557050571
 21
169.9043857045
 31
0.0
  0
MTEXT
  5
15E
330
156
100
AcDbEntity
  8
VERMASSUNG
100
AcDbMText
 10
131.3807052009
 20
172.4825213004
 30
0.0
 40
2.0
 41
0.0
 71
     1
 72
     1
  1
88.95
  7
SLDTEXTSTYLE0
 73
     1
 44
1.0
  0
ENDBLK
  5
158
330
156
100
AcDbEntity
  8
0
100
AcDbBlockEnd
  0
BLOCK
  5
161
330
160
100
AcDbEntity
  8
0
100
AcDbBlockBegin
  2
_D_7
 70
     0
 10
0.0
 20
0.0
 30
0.0
  3
_D_7
  1

  0
SOLID
  5
163
330
160
100
AcDbEntity
  8
VERMASSUNG
100
AcDbTrace
 10
203.84048982
 20
119.0392686418
 30
0.0
 11
203.39048982
 21
116.0392686418
 31
0.0
 12
204.29048982
 22
116.0392686418
 32
0.0
 13
204.29048982
 23
116.0392686418
 33
0.0
  0
SOLID
  5
164
330
160
100
AcDbEntity
  8
VERMASSUNG
100
AcDbTrace
 10
203.84048982
 20
110.9242686418
 30
0.0
 11
204.29048982
 21
113.9242686418
 31
0.0
 12
203.39048982
 22
113.9242686418
 32
0.0
 13
203.39048982
 23
113.9242686418
 33
0.0
  0
LINE
  5
165
330
160
100
AcDbEntity
  8
VERMASSUNG
100
AcDbLine
 10
191.9557050571
 20
119.0392686418
 30
0.0
 11
204.84048982
 21
119.0392686418
 31
0.0
  0
LINE
  5
166
330
160
100
AcDbEntity
  8
VERMASSUNG
100
AcDbLine
 10
191.9557050571
 20
110.9242686418
 30
0.0
 11
204.84048982
 21
110.9242686418
 31
0.0
  0
LINE
  5
167
330
160
100
AcDbEntity
  8
VERMASSUNG
100
AcDbLine
 10
203.84048982
 20
119.0392686418
 30
0.0
 11
203.84048982
 21
110.9242686418
 31
0.0
  0
MTEXT
  5
168
330
160
100
AcDbEntity
  8
VERMASSUNG
100
AcDbMText
 10
201.2623542241
 20
112.3817686347
 30
0.0
 40
2.0
 41
0.0
 71
     1
 72
     1
  1
SW
  7
SLDTEXTSTYLE0
 11
-7.044195017643634E-15
 21
1.0
 31
0.0
 73
     1
 44
1.0
  0
MTEXT
  5
169
330
160
100
AcDbEntity
  8
VERMASSUNG
100
AcDbMText
 10
201.2623542241
 20
116.1817686988
 30
0.0
 40
2.0
 41
0.0
 71
     1
 72
     1
  1
8
  7
SLDTEXTSTYLE0
 11
-7.044195017643634E-15
 21
1.0
 31
0.0
 73
     1
 44
1.0
  0
ENDBLK
  5
162
330
160
100
AcDbEntity
  8
0
100
AcDbBlockEnd
  0
ENDSEC
  0
SECTION
  2
ENTITIES
  0
MTEXT
  5
78
330
1F
100
AcDbEntity
  8
KOPF_DÜNN
100
AcDbMText
 10
13.8892156294
 20
23.8442973028
 30
0.0
 40
3.0
 41
0.0
 71
     1
 72
     1
  1
KY6.D22.K21.030
  7
SLDTEXTSTYLE0
 73
     1
 44
1.0
  0
MTEXT
  5
79
330
1F
100
AcDbEntity
  8
VERMASSUNG
100
AcDbMText
 10
13.9329988022
 20
28.8834360957
 30
0.0
 40
3.0
 41
0.0
 71
     1
 72
     1
  1
Fräsdorn_Milling arbor
  7
SLDTEXTSTYLE0
 73
     1
 44
1.0
  0
MTEXT
  5
7A
330
1F
100
AcDbEntity
  8
VERMASSUNG
100
AcDbMText
 10
98.8601118557
 20
13.8365368761
 30
0.0
 40
2.0
 41
0.0
 71
     1
 72
     1
  1
Datum: 19.02.2018
  7
SLDTEXTSTYLE0
 73
     1
 44
1.0
  0
MTEXT
  5
7B
330
1F
100
AcDbEntity
  8
VERMASSUNG
100
AcDbMText
 10
13.933048693
 20
18.0482802738
 30
0.0
 40
2.0
 41
0.0
 71
     1
 72
     1
  1
KM63 XMZ / Ø22
  7
SLDTEXTSTYLE0
 73
     1
 44
1.0
  0
MTEXT
  5
7C
330
1F
100
AcDbEntity
  8
VERMASSUNG
100
AcDbMText
 10
13.9808475933
 20
13.9090974274
 30
0.0
 40
2.0
 41
0.0
 71
     1
 72
     1
  1
Gewicht: 848g
  7
SLDTEXTSTYLE0
 73
     1
 44
1.0
  0
ARC
  5
7D
330
1F
100
AcDbEntity
  8
0
  6
Continuous
 62
     7
370
    25
100
AcDbCircle
 10
165.0557050571
 20
127.9817686418
 30
0.0
 40
0.5
100
AcDbArc
 50
270.0
 51
0.0
  0
ARC
  5
7E
330
1F
100
AcDbEntity
  8
0
  6
Continuous
 62
     7
370
    25
100
AcDbCircle
 10
165.0557050571
 20
136.9817686418
 30
0.0
 40
0.5
100
AcDbArc
 50
0.0
 51
90.0
  0
LINE
  5
7F
330
1F
100
AcDbEntity
  8
0
  6
Continuous
 62
     7
370
    25
100
AcDbLine
 10
159.9557050571
 20
127.4817686418
 30
0.0
 11
165.0557050571
 21
127.4817686418
 31
0.0
  0
LINE
  5
80
330
1F
100
AcDbEntity
  8
0
  6
Continuous
 62
     7
370
    25
100
AcDbLine
 10
165.0557050571
 20
137.4817686418
 30
0.0
 11
159.9557050571
 21
137.4817686418
 31
0.0
  0
LINE
  5
81
330
1F
100
AcDbEntity
  8
0
  6
Continuous
 62
     7
370
    25
100
AcDbLine
 10
159.9557050571
 20
92.4817686418
 30
0.0
 11
165.0557050571
 21
92.4817686418
 31
0.0
  0
LINE
  5
82
330
1F
100
AcDbEntity
  8
0
  6
Continuous
 62
     7
370
    25
100
AcDbLine
 10
165.0557050571
 20
102.4817686418
 30
0.0
 11
159.9557050571
 21
102.4817686418
 31
0.0
  0
ARC
  5
83
330
1F
100
AcDbEntity
  8
0
  6
Continuous
 62
     7
370
    25
100
AcDbCircle
 10
165.0557050571
 20
92.9817686418
 30
0.0
 40
0.5
100
AcDbArc
 50
270.0
 51
0.0
  0
ARC
  5
84
330
1F
100
AcDbEntity
  8
0
  6
Continuous
 62
     7
370
    25
100
AcDbCircle
 10
165.0557050571
 20
101.9817686418
 30
0.0
 40
0.5
100
AcDbArc
 50
0.0
 51
90.0
  0
LINE
  5
85
330
1F
100
AcDbEntity
  8
0
  6
Continuous
 62
     7
370
    25
100
AcDbLine
 10
190.4557050571
 20
122.9817686418
 30
0.0
 11
181.9557050571
 21
122.9817686418
 31
0.0
  0
LINE
  5
86
330
1F
100
AcDbEntity
  8
0
  6
Continuous
 62
     7
370
    25
100
AcDbLine
 10
181.9557050571
 20
106.9817686418
 30
0.0
 11
190.4557050571
 21
106.9817686418
 31
0.0
  0
ARC
  5
87
330
1F
100
AcDbEntity
  8
0
  6
Continuous
 62
     7
370
    25
100
AcDbCircle
 10
190.4557050571
 20
121.4817686418
 30
0.0
 40
1.5
100
AcDbArc
 50
0.0
 51
90.0
  0
ARC
  5
88
330
1F
100
AcDbEntity
  8
0
  6
Continuous
 62
     7
370
    25
100
AcDbCircle
 10
190.4557050571
 20
108.4817686418
 30
0.0
 40
1.5
100
AcDbArc
 50
270.0
 51
0.0
  0
ARC
  5
89
330
1F
100
AcDbEntity
  8
0
  6
Continuous
 62
     7
370
    25
100
AcDbCircle
 10
181.5557050571
 20
109.5817686418
 30
0.0
 40
0.4000000000000057
100
AcDbArc
 50
0.0
 51
90.0
  0
ARC
  5
8A
330
1F
100
AcDbEntity
  8
0
  6
Continuous
 62
     7
370
    25
100
AcDbCircle
 10
181.5557050571
 20
120.3817686418
 30
0.0
 40
0.4000000000000057
100
AcDbArc
 50
270.0
 51
0.0
  0
LINE
  5
8B
330
1F
100
AcDbEntity
  8
0
  6
Continuous
 62
     7
370
    25
100
AcDbLine
 10
181.5557050571
 20
119.9817686418
 30
0.0
 11
178.9557050571
 21
119.9817686418
 31
0.0
  0
LINE
  5
8C
330
1F
100
AcDbEntity
  8
0
  6
Continuous
 62
     7
370
    25
100
AcDbLine
 10
178.9557050571
 20
109.9817686418
 30
0.0
 11
181.5557050571
 21
109.9817686418
 31
0.0
  0
ARC
  5
8D
330
1F
100
AcDbEntity
  8
0
  6
Continuous
 62
     7
370
    25
100
AcDbCircle
 10
130.1557050571
 20
83.7067686418
 30
0.0
 40
0.2000000000000028
100
AcDbArc
 50
180.0
 51
270.0
  0
ARC
  5
8E
330
1F
100
AcDbEntity
  8
0
  6
Continuous
 62
     7
370
    25
100
AcDbCircle
 10
130.1557050571
 20
146.2567686418
 30
0.0
 40
0.1999999999999602
100
AcDbArc
 50
90.0
 51
180.0
  0
LINE
  5
8F
330
1F
100
AcDbEntity
  8
0
  6
Continuous
 62
     7
370
    25
100
AcDbLine
 10
136.5215072525
 20
83.5067686418
 30
0.0
 11
137.9807050571
 21
86.0341733776
 31
0.0
  0
LINE
  5
90
330
1F
100
AcDbEntity
  8
0
  6
Continuous
 62
     7
370
    25
100
AcDbLine
 10
130.1557050571
 20
83.5067686418
 30
0.0
 11
136.5215072525
 21
83.5067686418
 31
0.0
  0
LINE
  5
91
330
1F
100
AcDbEntity
  8
0
  6
Continuous
 62
     7
370
    25
100
AcDbLine
 10
135.2775306153
 20
146.4567686418
 30
0.0
 11
130.1557050571
 21
146.4567686418
 31
0.0
  0
LINE
  5
92
330
1F
100
AcDbEntity
  8
0
  6
Continuous
 62
     7
370
    25
100
AcDbLine
 10
143.1899028617
 20
83.5067686418
 30
0.0
 11
147.9557050571
 21
83.5067686418
 31
0.0
  0
LINE
  5
93
330
1F
100
AcDbEntity
  8
0
  6
Continuous
 62
     7
370
    25
100
AcDbLine
 10
147.9557050571
 20
146.4567686418
 30
0.0
 11
146.7375317294
 21
146.4567686418
 31
0.0
  0
ARC
  5
94
330
1F
100
AcDbEntity
  8
0
  6
Continuous
 62
     7
370
    25
100
AcDbCircle
 10
150.9557050571
 20
87.9817686418
 30
0.0
 40
3.0
100
AcDbArc
 50
90.0
 51
180.0
  0
ARC
  5
95
330
1F
100
AcDbEntity
  8
0
  6
Continuous
 62
     7
370
    25
100
AcDbCircle
 10
150.9557050571
 20
141.9817686418
 30
0.0
 40
3.0
100
AcDbArc
 50
180.0
 51
270.0
  0
ARC
  5
96
330
1F
100
AcDbEntity
  8
0
  6
Continuous
 62
     7
370
    25
100
AcDbCircle
 10
129.5267701825
 20
89.4317686418
 30
0.0
 40
0.8000000000000081
100
AcDbArc
 50
57.576802718
 51
107.5
  0
ARC
  5
97
330
1F
100
AcDbEntity
  8
0
  6
Continuous
 62
     7
370
    25
100
AcDbCircle
 10
129.5267701825
 20
140.5317686418
 30
0.0
 40
0.8000000000000181
100
AcDbArc
 50
252.5
 51
302.423197282
  0
LINE
  5
98
330
1F
100
AcDbEntity
  8
0
  6
Continuous
 62
     7
370
    25
100
AcDbLine
 10
141.7307050571
 20
86.0341733776
 30
0.0
 11
143.1899028617
 21
83.5067686418
 31
0.0
  0
LINE
  5
99
330
1F
100
AcDbEntity
  8
0
  6
Continuous
 62
     7
370
    25
100
AcDbLine
 10
128.7955230171
 20
139.9235066873
 30
0.0
 11
112.8506472103
 21
139.1227878378
 31
0.0
  0
LINE
  5
9A
330
1F
100
AcDbEntity
  8
0
  6
Continuous
 62
     7
370
    25
100
AcDbLine
 10
112.8506472103
 20
90.8407494458
 30
0.0
 11
128.7955230171
 21
90.0400305963
 31
0.0
  0
LINE
  5
9B
330
1F
100
AcDbEntity
  8
0
  6
Continuous
 62
     7
370
    25
100
AcDbLine
 10
128.7955230171
 20
90.0400305963
 30
0.0
 11
129.2862055429
 21
90.1947422024
 31
0.0
  0
LINE
  5
9C
330
1F
100
AcDbEntity
  8
0
  6
Continuous
 62
     7
370
    25
100
AcDbLine
 10
129.2862055429
 20
139.7687950812
 30
0.0
 11
128.7955230171
 21
139.9235066873
 31
0.0
  0
LINE
  5
9D
330
1F
100
AcDbEntity
  8
0
  6
Continuous
 62
     7
370
    25
100
AcDbLine
 10
150.9557050571
 20
90.9817686418
 30
0.0
 11
159.1557050571
 21
90.9817686418
 31
0.0
  0
LINE
  5
9E
330
1F
100
AcDbEntity
  8
0
  6
Continuous
 62
     7
370
    25
100
AcDbLine
 10
159.1557050571
 20
138.9817686418
 30
0.0
 11
150.9557050571
 21
138.9817686418
 31
0.0
  0
ARC
  5
9F
330
1F
100
AcDbEntity
  8
0
  6
Continuous
 62
     7
370
    25
100
AcDbCircle
 10
159.1557050571
 20
91.7817686418
 30
0.0
 40
0.8000000000000114
100
AcDbArc
 50
270.0
 51
0.0
  0
ARC
  5
A0
330
1F
100
AcDbEntity
  8
0
  6
Continuous
 62
     7
370
    25
100
AcDbCircle
 10
159.1557050571
 20
138.1817686418
 30
0.0
 40
0.8000000000000114
100
AcDbArc
 50
0.0
 51
90.0
  0
ARC
  5
A1
330
1F
100
AcDbEntity
  8
0
  6
Continuous
 62
     7
370
    25
100
AcDbCircle
 10
138.9807050571
 20
86.1317686418
 30
0.0
 40
1.0
100
AcDbArc
 50
90.0
 51
180.0
  0
ARC
  5
A2
330
1F
100
AcDbEntity
  8
0
  6
Continuous
 62
     7
370
    25
100
AcDbCircle
 10
140.7307050571
 20
86.1317686418
 30
0.0
 40
1.0
100
AcDbArc
 50
0.0
 51
90.0
  0
LINE
  5
A3
330
1F
100
AcDbEntity
  8
0
  6
Continuous
 62
     7
370
    25
100
AcDbLine
 10
138.9807050571
 20
87.1317686418
 30
0.0
 11
140.7307050571
 21
87.1317686418
 31
0.0
  0
ARC
  5
A4
330
1F
100
AcDbEntity
  8
0
  6
Continuous
 62
     7
370
    25
100
AcDbCircle
 10
160.3557050571
 20
103.7317686418
 30
0.0
 40
0.5999999999999801
100
AcDbArc
 50
90.0
 51
131.8103148958
  0
ARC
  5
A5
330
1F
100
AcDbEntity
  8
0
  6
Continuous
 62
     7
370
    25
100
AcDbCircle
 10
160.3557050571
 20
126.2317686418
 30
0.0
 40
0.5999999999999943
100
AcDbArc
 50
228.1896851042
 51
270.0
  0
ARC
  5
A6
330
1F
100
AcDbEntity
  8
0
  6
Continuous
 62
     7
370
    25
100
AcDbCircle
 10
178.1557050571
 20
104.7817686418
 30
0.0
 40
0.799999999999983
100
AcDbArc
 50
270.0
 51
0.0
  0
ARC
  5
A7
330
1F
100
AcDbEntity
  8
0
  6
Continuous
 62
     7
370
    25
100
AcDbCircle
 10
178.1557050571
 20
125.1817686418
 30
0.0
 40
0.7999999999999972
100
AcDbArc
 50
0.0
 51
90.0
  0
LINE
  5
A8
330
1F
100
AcDbEntity
  8
0
  6
Continuous
 62
     7
370
    25
100
AcDbLine
 10
162.4557050571
 20
103.9817686418
 30
0.0
 11
178.1557050571
 21
103.9817686418
 31
0.0
  0
LINE
  5
A9
330
1F
100
AcDbEntity
  8
0
  6
Continuous
 62
     7
370
    25
100
AcDbLine
 10
178.1557050571
 20
125.9817686418
 30
0.0
 11
162.4557050571
 21
125.9817686418
 31
0.0
  0
LINE
  5
AA
330
1F
100
AcDbEntity
  8
0
  6
Continuous
 62
     7
370
    25
100
AcDbLine
 10
162.4557050571
 20
125.9817686418
 30
0.0
 11
161.2257872029
 21
125.652213146
 31
0.0
  0
LINE
  5
AB
330
1F
100
AcDbEntity
  8
0
  6
Continuous
 62
     7
370
    25
100
AcDbLine
 10
161.2257872029
 20
104.3113241376
 30
0.0
 11
162.4557050571
 21
103.9817686418
 31
0.0
  0
ARC
  5
AC
330
1F
100
AcDbEntity
  8
0
  6
Continuous
 62
     7
370
    25
100
AcDbCircle
 10
161.0704957759
 20
103.7317686418
 30
0.0
 40
0.5999999999999943
100
AcDbArc
 50
75.0
 51
90.0
  0
ARC
  5
AD
330
1F
100
AcDbEntity
  8
0
  6
Continuous
 62
     7
370
    25
100
AcDbCircle
 10
161.0704957759
 20
126.2317686418
 30
0.0
 40
0.5999999999999943
100
AcDbArc
 50
270.0
 51
285.0
  0
LINE
  5
AE
330
1F
100
AcDbEntity
  8
0
  6
Continuous
 62
     7
370
    25
100
AcDbLine
 10
160.3557050571
 20
104.3317686418
 30
0.0
 11
161.0704957759
 21
104.3317686418
 31
0.0
  0
LINE
  5
AF
330
1F
100
AcDbEntity
  8
0
  6
Continuous
 62
     7
370
    25
100
AcDbLine
 10
161.0704957759
 20
125.6317686418
 30
0.0
 11
160.3557050571
 21
125.6317686418
 31
0.0
  0
LINE
  5
B0
330
1F
100
AcDbEntity
  8
0
  6
Continuous
 62
     7
370
    25
100
AcDbLine
 10
111.9557050571
 20
91.735691599
 30
0.0
 11
112.8506472103
 21
90.8407494458
 31
0.0
  0
LINE
  5
B1
330
1F
100
AcDbEntity
  8
0
  6
Continuous
 62
     7
370
    25
100
AcDbLine
 10
112.8506472103
 20
139.1227878378
 30
0.0
 11
111.9557050571
 21
138.2278456846
 31
0.0
  0
LINE
  5
B2
330
1F
100
AcDbEntity
  8
0
  6
Continuous
 62
     7
370
    25
100
AcDbLine
 10
165.5557050571
 20
127.9817686418
 30
0.0
 11
165.5557050571
 21
136.9817686418
 31
0.0
  0
LINE
  5
B3
330
1F
100
AcDbEntity
  8
0
  6
Continuous
 62
     7
370
    25
100
AcDbLine
 10
165.5557050571
 20
95.3822265182
 30
0.0
 11
165.5557050571
 21
101.9817686418
 31
0.0
  0
LINE
  5
B4
330
1F
100
AcDbEntity
  8
0
  6
Continuous
 62
     7
370
    25
100
AcDbLine
 10
165.5557050571
 20
92.9817686418
 30
0.0
 11
165.5557050571
 21
95.3822265182
 31
0.0
  0
LINE
  5
B5
330
1F
100
AcDbEntity
  8
0
  6
Continuous
 62
     7
370
    25
100
AcDbLine
 10
181.9557050571
 20
122.9817686418
 30
0.0
 11
181.9557050571
 21
106.9817686418
 31
0.0
  0
LINE
  5
B6
330
1F
100
AcDbEntity
  8
0
  6
Continuous
 62
     7
370
    25
100
AcDbLine
 10
191.9557050571
 20
121.4817686418
 30
0.0
 11
191.9557050571
 21
108.4817687295
 31
0.0
  0
LINE
  5
B7
330
1F
100
AcDbEntity
  8
0
  6
Continuous
 62
     7
370
    25
100
AcDbLine
 10
129.9557050571
 20
83.7067686418
 30
0.0
 11
129.9557050571
 21
146.2567686379
 31
0.0
  0
LINE
  5
B8
330
1F
100
AcDbEntity
  8
0
  6
Continuous
 62
     7
370
    25
100
AcDbLine
 10
136.5215072525
 20
83.5067686418
 30
0.0
 11
136.5215072525
 21
146.2838336153
 31
0.0
  0
SPLINE
  5
B9
330
1F
100
AcDbEntity
  8
0
  6
Continuous
 62
     7
370
    25
100
AcDbSpline
210
0.0
220
0.0
230
1.0
 70
     8
 71
     3
 72
    10
 73
     6
 74
     0
 42
0.000000001
 43
0.00000001
 40
0.0
 40
0.0
 40
0.0
 40
0.0
 40
0.5
 40
0.5
 40
1.0
 40
1.0
 40
1.0
 40
1.0
 10
137.6497232496276
 20
144.4567686417879
 30
0.0
 10
137.4728381032042
 20
144.7469621815305
 30
0.0
 10
137.2872887283268
 20
145.049375567471
 30
0.0
 10
136.9093397882793
 20
145.6614097047713
 30
0.0
 10
136.7165532461001
 20
145.9716865443363
 30
0.0
 10
136.5215072525108
 20
146.2838336153014
 30
0.0
  0
SPLINE
  5
BA
330
1F
100
AcDbEntity
  8
0
  6
Continuous
 62
     7
370
    25
100
AcDbSpline
210
0.0
220
0.0
230
1.0
 70
     8
 71
     3
 72
     8
 73
     4
 74
     0
 42
0.000000001
 43
0.00000001
 40
0.0
 40
0.0
 40
0.0
 40
0.0
 40
1.0
 40
1.0
 40
1.0
 40
1.0
 10
137.980705057081
 20
143.846019720405
 30
0.0
 10
137.862408297651
 20
144.0639049547358
 30
0.0
 10
137.7509798154796
 20
144.2695852457779
 30
0.0
 10
137.6497232496276
 20
144.4567686417879
 30
0.0
  0
LINE
  5
BB
330
1F
100
AcDbEntity
  8
0
  6
Continuous
 62
     7
370
    25
100
AcDbLine
 10
137.9807050571
 20
102.4506194141
 30
0.0
 11
137.9807050571
 21
143.8460197204
 31
0.0
  0
SPLINE
  5
BC
330
1F
100
AcDbEntity
  8
0
  6
Continuous
 62
     7
370
    25
100
AcDbSpline
210
0.0
220
0.0
230
1.0
 70
     8
 71
     3
 72
    26
 73
    22
 74
     0
 42
0.000000001
 43
0.00000001
 40
0.0
 40
0.0
 40
0.0
 40
0.0
 40
0.1250000000000014
 40
0.1250000000000014
 40
0.2500000000000027
 40
0.2500000000000027
 40
0.3125000000000025
 40
0.3125000000000025
 40
0.3750000000000023
 40
0.3750000000000023
 40
0.4375000000000021
 40
0.4375000000000021
 40
0.5000000000000018
 40
0.5000000000000018
 40
0.5625000000000016
 40
0.5625000000000016
 40
0.6250000000000013
 40
0.6250000000000013
 40
0.7500000000000006
 40
0.7500000000000006
 40
1.0
 40
1.0
 40
1.0
 40
1.0
 10
137.980705057081
 20
98.64866679081724
 30
0.0
 10
137.8888001463982
 20
98.67371448315359
 30
0.0
 10
137.8011033701731
 20
98.71172207706793
 30
0.0
 10
137.6368970994059
 20
98.82271832816068
 30
0.0
 10
137.5596266811391
 20
98.8966518394742
 30
0.0
 10
137.4598605748141
 20
99.04194997480457
 30
0.0
 10
137.4292476459117
 20
99.09609178879622
 30
0.0
 10
137.3743787720087
 20
99.21815602806431
 30
0.0
 10
137.3499935510798
 20
99.28672800964847
 30
0.0
 10
137.3103141745814
 20
99.43631217968269
 30
0.0
 10
137.294848095344
 20
99.51747118485544
 30
0.0
 10
137.2737517602616
 20
99.69412719194692
 30
0.0
 10
137.2682386941015
 20
99.79037129866866
 30
0.0
 10
137.2681717364792
 20
99.98960124102973
 30
0.0
 10
137.2734400438287
 20
100.0934491892532
 30
0.0
 10
137.2942825709967
 20
100.3093693854061
 30
0.0
 10
137.309956684207
 20
100.4213385395003
 30
0.0
 10
137.3692756143846
 20
100.7559647556452
 30
0.0
 10
137.4262954498986
 20
100.9840194640142
 30
0.0
 10
137.6251303385424
 20
101.6424024080833
 30
0.0
 10
137.7964005437746
 20
102.0609273965421
 30
0.0
 10
137.9807050570809
 20
102.4506194141412
 30
0.0
  0
LINE
  5
BD
330
1F
100
AcDbEntity
  8
0
  6
Continuous
 62
     7
370
    25
100
AcDbLine
 10
137.9807050571
 20
86.0341733776
 30
0.0
 11
137.9807050571
 21
98.6486667908
 31
0.0
  0
SPLINE
  5
BE
330
1F
100
AcDbEntity
  8
0
  6
Continuous
 62
     7
370
    25
100
AcDbSpline
210
0.0
220
0.0
230
1.0
 70
     8
 71
     3
 72
    17
 73
    13
 74
     0
 42
0.000000001
 43
0.00000001
 40
0.0
 40
0.0
 40
0.0
 40
0.0
 40
0.0500891121512508
 40
0.1676353731505131
 40
0.2350594914164884
 40
0.4056592546735534
 40
0.4661976565260961
 40
0.5878273691822848
 40
0.7114594423906885
 40
0.8371802235419336
 40
0.9004055057937406
 40
1.0
 40
1.0
 40
1.0
 40
1.0
 10
136.5215072525108
 20
146.2838336153014
 30
0.0
 10
136.4826996377112
 20
146.2885910586541
 30
0.0
 10
136.3528205340773
 20
146.3045129977226
 30
0.0
 10
136.1848870212792
 20
146.3261191721635
 30
0.0
 10
135.952065610669
 20
146.3571016491432
 30
0.0
 10
135.7815011316923
 20
146.3808775686251
 30
0.0
 10
135.6115252631218
 20
146.4052754419852
 30
0.0
 10
135.4862561948295
 20
146.4236838538368
 30
0.0
 10
135.3715675588314
 20
146.4409319297913
 30
0.0
 10
135.3102324993388
 20
146.4503040102627
 30
0.0
 10
135.2733132676497
 20
146.4559795039108
 30
0.0
 10
135.2759299988441
 20
146.4555777870553
 30
0.0
 10
135.2775306153383
 20
146.455332062685
 30
0.0
  0
LINE
  5
BF
330
1F
100
AcDbEntity
  8
0
  6
Continuous
 62
     7
370
    25
100
AcDbLine
 10
147.9557050571
 20
83.5067686418
 30
0.0
 11
147.9557050571
 21
146.4567686418
 31
0.0
  0
SPLINE
  5
C0
330
1F
100
AcDbEntity
  8
0
  6
Continuous
 62
     7
370
    25
100
AcDbSpline
210
0.0
220
0.0
230
1.0
 70
     8
 71
     3
 72
    25
 73
    21
 74
     0
 42
0.000000001
 43
0.00000001
 40
0.0
 40
0.0
 40
0.0
 40
0.0
 40
0.1249999999999985
 40
0.1249999999999985
 40
0.2499999999999971
 40
0.2499999999999971
 40
0.3749999999999956
 40
0.3749999999999956
 40
0.4999999999999941
 40
0.4999999999999941
 40
0.562499999999995
 40
0.562499999999995
 40
0.624999999999996
 40
0.6874999999999969
 40
0.6874999999999969
 40
0.7499999999999978
 40
0.7499999999999978
 40
0.8749999999999989
 40
0.8749999999999989
 40
1.0
 40
1.0
 40
1.0
 40
1.0
 10
143.189902861651
 20
101.9440246364759
 30
0.0
 10
143.4311503672064
 20
101.7851502576842
 30
0.0
 10
143.6470794014509
 20
101.6042627226557
 30
0.0
 10
144.0302373132934
 20
101.2013695026929
 30
0.0
 10
144.1976890987787
 20
100.977299428755
 30
0.0
 10
144.4653737551826
 20
100.5109965167168
 30
0.0
 10
144.5690457229034
 20
100.264062863657
 30
0.0
 10
144.7081770941576
 20
99.75747710754408
 30
0.0
 10
144.7429163341482
 20
99.50296639864214
 30
0.0
 10
144.7433467673675
 20
99.11964165348034
 30
0.0
 10
144.734611983778
 20
98.99081730568804
 30
0.0
 10
144.6998185806034
 20
98.73869694115196
 30
0.0
 10
144.6479257188743
 20
98.49114427200075
 30
0.0
 10
144.5625475065806
 20
98.25240795060205
 30
0.0
 10
144.460071753516
 20
98.01806705196273
 30
0.0
 10
144.4000103818649
 20
97.90288469888681
 30
0.0
 10
144.1987005594138
 20
97.57283572654512
 30
0.0
 10
144.035477039334
 20
97.37012459631111
 30
0.0
 10
143.6500988390826
 20
96.99838022276155
 30
0.0
 10
143.4311493532568
 20
96.83302654510453
 30
0.0
 10
143.189902861651
 20
96.69097232362643
 30
0.0
  0
LINE
  5
C1
330
1F
100
AcDbEntity
  8
0
  6
Continuous
 62
     7
370
    25
100
AcDbLine
 10
143.1899028617
 20
101.9440246365
 30
0.0
 11
143.1899028617
 21
146.0746357936
 31
0.0
  0
SPLINE
  5
C2
330
1F
100
AcDbEntity
  8
0
  6
Continuous
 62
     7
370
    25
100
AcDbSpline
210
0.0
220
0.0
230
1.0
 70
     8
 71
     3
 72
    21
 73
    17
 74
     0
 42
0.000000001
 43
0.00000001
 40
0.0
 40
0.0
 40
0.0
 40
0.0
 40
0.0696351338441362
 40
0.11444371707374
 40
0.1556311933812314
 40
0.2389147554146494
 40
0.3235934590354145
 40
0.3662995367438778
 40
0.4086846001099795
 40
0.4943179818765334
 40
0.5812617458238056
 40
0.6250733237498336
 40
0.7627017074563665
 40
0.8562209054005177
 40
0.9033460322942789
 40
0.9999999999999999
 40
0.9999999999999999
 40
0.9999999999999999
 40
0.9999999999999999
 10
146.7375317294023
 20
146.4558951224548
 30
0.0
 10
146.7361517082792
 20
146.4556806898156
 30
0.0
 10
146.7338836757751
 20
146.4553282747784
 30
0.0
 10
146.6907208548512
 20
146.4487036713013
 30
0.0
 10
146.6267358185863
 20
146.4389587715548
 30
0.0
 10
146.510660711411
 20
146.4214895671947
 30
0.0
 10
146.3474396724105
 20
146.3976296928595
 30
0.0
 10
146.1891430918261
 20
146.3752204107601
 30
0.0
 10
146.0126836445399
 20
146.3508160520874
 30
0.0
 10
145.7589232856097
 20
146.3170346037971
 30
0.0
 10
145.4645755208713
 20
146.2803912536424
 30
0.0
 10
145.0671000076909
 20
146.2339655375313
 30
0.0
 10
144.6154013268501
 20
146.1858756165885
 30
0.0
 10
144.1132038779509
 20
146.1408915097982
 30
0.0
 10
143.6663147123603
 20
146.1052945692663
 30
0.0
 10
143.3814201812392
 20
146.0869606056781
 30
0.0
 10
143.189902861651
 20
146.0746357935801
 30
0.0
  0
LINE
  5
C3
330
1F
100
AcDbEntity
  8
0
  6
Continuous
 62
     7
370
    25
100
AcDbLine
 10
143.1899028617
 20
83.5067686418
 30
0.0
 11
143.1899028617
 21
96.6909723236
 31
0.0
  0
SPLINE
  5
C4
330
1F
100
AcDbEntity
  8
0
  6
Continuous
 62
     7
370
    25
100
AcDbSpline
210
0.0
220
0.0
230
1.0
 70
     8
 71
     3
 72
     8
 73
     4
 74
     0
 42
0.000000001
 43
0.00000001
 40
0.0
 40
0.0
 40
0.0
 40
0.0
 40
1.0
 40
1.0
 40
1.0
 40
1.0
 10
142.1585487724169
 20
144.4567686417879
 30
0.0
 10
142.017010684135
 20
144.2043046417325
 30
0.0
 10
141.8744002153982
 20
143.95076095259
 30
0.0
 10
141.7307050570811
 20
143.6962247628685
 30
0.0
  0
SPLINE
  5
C5
330
1F
100
AcDbEntity
  8
0
  6
Continuous
 62
     7
370
    25
100
AcDbSpline
210
0.0
220
0.0
230
1.0
 70
     8
 71
     3
 72
     8
 73
     4
 74
     0
 42
0.000000001
 43
0.00000001
 40
0.0
 40
0.0
 40
0.0
 40
0.0
 40
1.0
 40
1.0
 40
1.0
 40
1.0
 10
143.1899028616506
 20
146.0746357935794
 30
0.0
 10
142.8415014569703
 20
145.5326470479284
 30
0.0
 10
142.4969330717374
 20
144.992427860935
 30
0.0
 10
142.1585487724166
 20
144.4567686417875
 30
0.0
  0
SPLINE
  5
C6
330
1F
100
AcDbEntity
  8
0
  6
Continuous
 62
     7
370
    25
100
AcDbSpline
210
0.0
220
0.0
230
1.0
 70
     8
 71
     3
 72
    10
 73
     6
 74
     0
 42
0.000000001
 43
0.00000001
 40
0.0
 40
0.0
 40
0.0
 40
0.0
 40
0.5
 40
0.5
 40
1.0
 40
1.0
 40
1.0
 40
1.0
 10
141.7307050570809
 20
103.7998296921003
 30
0.0
 10
141.9818979469524
 20
103.5343375435448
 30
0.0
 10
142.2291672586543
 20
103.2486512205023
 30
0.0
 10
142.7157886099651
 20
102.6327785386121
 30
0.0
 10
142.9551719176818
 20
102.3028408113714
 30
0.0
 10
143.1899028616509
 20
101.9440246364761
 30
0.0
  0
LINE
  5
C7
330
1F
100
AcDbEntity
  8
0
  6
Continuous
 62
     7
370
    25
100
AcDbLine
 10
141.7307050571
 20
103.7998296921
 30
0.0
 11
141.7307050571
 21
143.6962247629
 31
0.0
  0
SPLINE
  5
C8
330
1F
100
AcDbEntity
  8
0
  6
Continuous
 62
     7
370
    25
100
AcDbSpline
210
0.0
220
0.0
230
1.0
 70
     8
 71
     3
 72
    10
 73
     6
 74
     0
 42
0.000000001
 43
0.00000001
 40
0.0
 40
0.0
 40
0.0
 40
0.0
 40
0.5
 40
0.5
 40
1.0
 40
1.0
 40
1.0
 40
1.0
 10
143.1899028616509
 20
96.69097232362645
 30
0.0
 10
142.9551719176818
 20
96.75698798068122
 30
0.0
 10
142.7157886099651
 20
96.85839592176562
 30
0.0
 10
142.2291672586542
 20
97.11464171584413
 30
0.0
 10
141.9818979469524
 20
97.26978999753487
 30
0.0
 10
141.7307050570809
 20
97.44925147039487
 30
0.0
  0
LINE
  5
C9
330
1F
100
AcDbEntity
  8
0
  6
Continuous
 62
     7
370
    25
100
AcDbLine
 10
141.7307050571
 20
97.4492514704
 30
0.0
 11
141.7307050571
 21
97.4984466582
 31
0.0
  0
SPLINE
  5
CA
330
1F
100
AcDbEntity
  8
0
  6
Continuous
 62
     7
370
    25
100
AcDbSpline
210
0.0
220
0.0
230
1.0
 70
     8
 71
     3
 72
    14
 73
    10
 74
     0
 42
0.000000001
 43
0.00000001
 40
0.0
 40
0.0
 40
0.0
 40
0.0
 40
0.25
 40
0.25
 40
0.5
 40
0.5
 40
0.75
 40
0.75
 40
1.0
 40
1.0
 40
1.0
 40
1.0
 10
141.7307050570811
 20
97.49844665819093
 30
0.0
 10
141.7307050570811
 20
97.56436393790003
 30
0.0
 10
141.7047756188151
 20
97.62575339669431
 30
0.0
 10
141.6053333615388
 20
97.73317945898366
 30
0.0
 10
141.533050975818
 20
97.77872063308219
 30
0.0
 10
141.3483136390534
 20
97.855357556962
 30
0.0
 10
141.2387670027314
 20
97.88528311078723
 30
0.0
 10
140.9954057577281
 20
97.93092529821385
 30
0.0
 10
140.8638946502823
 20
97.94620454883534
 30
0.0
 10
140.7307050570809
 20
97.9540510325352
 30
0.0
  0
SPLINE
  5
CB
330
1F
100
AcDbEntity
  8
0
  6
Continuous
 62
     7
370
    25
100
AcDbSpline
210
0.0
220
0.0
230
1.0
 70
     8
 71
     3
 72
    10
 73
     6
 74
     0
 42
0.000000001
 43
0.00000001
 40
0.0
 40
0.0
 40
0.0
 40
0.0
 40
0.5
 40
0.5
 40
1.0
 40
1.0
 40
1.0
 40
1.0
 10
140.7307050570809
 20
97.95405103253512
 30
0.0
 10
140.4182411547928
 20
97.97245894907853
 30
0.0
 10
140.115352172795
 20
98.02133176600242
 30
0.0
 10
139.528008987991
 20
98.17863402334284
 30
0.0
 10
139.243541327419
 20
98.2880062386213
 30
0.0
 10
138.9807050570809
 20
98.42511975880875
 30
0.0
  0
SPLINE
  5
CC
330
1F
100
AcDbEntity
  8
0
  6
Continuous
 62
     7
370
    25
100
AcDbSpline
210
0.0
220
0.0
230
1.0
 70
     8
 71
     3
 72
    14
 73
    10
 74
     0
 42
0.000000001
 43
0.00000001
 40
0.0
 40
0.0
 40
0.0
 40
0.0
 40
0.25
 40
0.25
 40
0.5
 40
0.5
 40
0.75
 40
0.75
 40
1.0
 40
1.0
 40
1.0
 40
1.0
 10
138.9807050570809
 20
98.42511975880875
 30
0.0
 10
138.8463543085398
 20
98.49520637223009
 30
0.0
 10
138.7231754057464
 20
98.55640167952566
 30
0.0
 10
138.494424984857
 20
98.66604405285216
 30
0.0
 10
138.3925018928639
 20
98.71275185224033
 30
0.0
 10
138.2130768285186
 20
98.78371736508934
 30
0.0
 10
138.1366355796141
 20
98.80822984348193
 30
0.0
 10
138.0193476051524
 20
98.80671413595606
 30
0.0
 10
137.9807050570809
 20
98.77810709274765
 30
0.0
 10
137.9807050570809
 20
98.69760580253397
 30
0.0
  0
LINE
  5
CD
330
1F
100
AcDbEntity
  8
0
  6
Continuous
 62
     7
370
    25
100
AcDbLine
 10
137.9807050571
 20
98.6976058025
 30
0.0
 11
137.9807050571
 21
98.6486667908
 31
0.0
  0
SPLINE
  5
CE
330
1F
100
AcDbEntity
  8
0
  6
Continuous
 62
     7
370
    25
100
AcDbSpline
210
0.0
220
0.0
230
1.0
 70
     8
 71
     3
 72
    16
 73
    12
 74
     0
 42
0.000000001
 43
0.00000001
 40
0.0
 40
0.0
 40
0.0
 40
0.0
 40
0.1250000000000001
 40
0.1250000000000001
 40
0.2500000000000003
 40
0.2500000000000003
 40
0.5000000000000002
 40
0.5000000000000002
 40
0.7500000000000001
 40
0.7500000000000001
 40
1.0
 40
1.0
 40
1.0
 40
1.0
 10
137.9807050570809
 20
102.499558425858
 30
0.0
 10
137.9807050570809
 20
102.5395874760118
 30
0.0
 10
137.9904776207206
 20
102.5910741310643
 30
0.0
 10
138.0246736661209
 20
102.7051383779703
 30
0.0
 10
138.0488588578318
 20
102.7674829154384
 30
0.0
 10
138.1365755219282
 20
102.9600092117935
 30
0.0
 10
138.2132856877776
 20
103.092270419382
 30
0.0
 10
138.3923677880185
 20
103.3462193590483
 30
0.0
 10
138.4932505576383
 20
103.4661914213298
 30
0.0
 10
138.7220620559013
 20
103.6880717788986
 30
0.0
 10
138.8463596643363
 20
103.7862381516451
 30
0.0
 10
138.9807050570809
 20
103.8661530935715
 30
0.0
  0
SPLINE
  5
CF
330
1F
100
AcDbEntity
  8
0
  6
Continuous
 62
     7
370
    25
100
AcDbSpline
210
0.0
220
0.0
230
1.0
 70
     8
 71
     3
 72
    10
 73
     6
 74
     0
 42
0.000000001
 43
0.00000001
 40
0.0
 40
0.0
 40
0.0
 40
0.0
 40
0.5
 40
0.5
 40
1.0
 40
1.0
 40
1.0
 40
1.0
 10
138.9807050570809
 20
103.8661530935715
 30
0.0
 10
139.2435245714366
 20
104.022490469925
 30
0.0
 10
139.5218774360443
 20
104.1464091419922
 30
0.0
 10
140.1088740234298
 20
104.3298517515939
 30
0.0
 10
140.4182577133081
 20
104.3885237311866
 30
0.0
 10
140.7307050570809
 20
104.4100438880144
 30
0.0
  0
SPLINE
  5
D0
330
1F
100
AcDbEntity
  8
0
  6
Continuous
 62
     7
370
    25
100
AcDbSpline
210
0.0
220
0.0
230
1.0
 70
     8
 71
     3
 72
    14
 73
    10
 74
     0
 42
0.000000001
 43
0.00000001
 40
0.0
 40
0.0
 40
0.0
 40
0.0
 40
0.25
 40
0.25
 40
0.5
 40
0.5
 40
0.75
 40
0.75
 40
1.0
 40
1.0
 40
1.0
 40
1.0
 10
140.7307050570809
 20
104.4100438880144
 30
0.0
 10
140.8639345081043
 20
104.419220214001
 30
0.0
 10
140.9956358707144
 20
104.4078280820346
 30
0.0
 10
141.2387135289315
 20
104.3496674223749
 30
0.0
 10
141.3496194694802
 20
104.3028913004754
 30
0.0
 10
141.5323165425578
 20
104.1899321737443
 30
0.0
 10
141.6057040720394
 20
104.1229784678035
 30
0.0
 10
141.7045383509577
 20
103.9859466190088
 30
0.0
 10
141.7307050570809
 20
103.9151626438855
 30
0.0
 10
141.7307050570809
 20
103.8490248798976
 30
0.0
  0
ARC
  5
D1
330
1F
100
AcDbEntity
  8
0
  6
Continuous
 62
     7
370
    25
100
AcDbCircle
 10
141.0168676433
 20
106.6641878797
 30
0.0
 40
4.206703994696755
100
AcDbArc
 50
269.8479641475
 51
292.0624712375
  0
ARC
  5
D2
330
1F
100
AcDbEntity
  8
0
  6
Continuous
 62
     7
370
    25
100
AcDbCircle
 10
140.9666020534
 20
106.5098529488
 30
0.0
 40
4.052542910580603
100
AcDbArc
 50
230.8348738846
 51
270.5528557979
  0
SPLINE
  5
D3
330
1F
100
AcDbEntity
  8
0
  6
Continuous
 62
     7
370
    25
100
AcDbSpline
210
0.0
220
0.0
230
1.0
 70
     8
 71
     3
 72
    14
 73
    10
 74
     0
 42
0.000000001
 43
0.00000001
 40
0.0
 40
0.0
 40
0.0
 40
0.0
 40
0.25
 40
0.25
 40
0.5
 40
0.5
 40
0.75
 40
0.75
 40
1.0
 40
1.0
 40
1.0
 40
1.0
 10
141.7307050570811
 20
143.5978343872754
 30
0.0
 10
141.7307050570812
 20
143.4659952103065
 30
0.0
 10
141.7047885345101
 20
143.3339462733178
 30
0.0
 10
141.6053436879325
 20
143.0886799816047
 30
0.0
 10
141.5330452955203
 20
142.9770595650169
 30
0.0
 10
141.3483414009964
 20
142.7863202758213
 30
0.0
 10
141.2387641391205
 20
142.7103594089743
 30
0.0
 10
140.9954339609023
 20
142.6065170848049
 30
0.0
 10
140.8638977019822
 20
142.5798838773715
 30
0.0
 10
140.7307050570809
 20
142.5812110048137
 30
0.0
  0
SPLINE
  5
D4
330
1F
100
AcDbEntity
  8
0
  6
Continuous
 62
     7
370
    25
100
AcDbSpline
210
0.0
220
0.0
230
1.0
 70
     8
 71
     3
 72
    14
 73
    10
 74
     0
 42
0.000000001
 43
0.00000001
 40
0.0
 40
0.0
 40
0.0
 40
0.0
 40
0.25
 40
0.25
 40
0.5
 40
0.5
 40
0.75
 40
0.75
 40
1.0
 40
1.0
 40
1.0
 40
1.0
 10
138.9807050570809
 20
142.6540330729833
 30
0.0
 10
138.8463569707245
 20
142.6638643925541
 30
0.0
 10
138.7231802968685
 20
142.6999038059442
 30
0.0
 10
138.4944336919505
 20
142.8117755022635
 30
0.0
 10
138.3925117279832
 20
142.8861302913538
 30
0.0
 10
138.2130883255545
 20
143.0696067582056
 30
0.0
 10
138.1366470373717
 20
143.1768722790656
 30
0.0
 10
138.0193570645216
 20
143.435898768884
 30
0.0
 10
137.9807050570809
 20
143.5871434738602
 30
0.0
 10
137.9807050570809
 20
143.7481416969716
 30
0.0
  0
SPLINE
  5
D5
330
1F
100
AcDbEntity
  8
0
  6
Continuous
 62
     7
370
    25
100
AcDbSpline
210
0.0
220
0.0
230
1.0
 70
     8
 71
     3
 72
    10
 73
     6
 74
     0
 42
0.000000001
 43
0.00000001
 40
0.0
 40
0.0
 40
0.0
 40
0.0
 40
0.5
 40
0.5
 40
1.0
 40
1.0
 40
1.0
 40
1.0
 10
140.7307050570809
 20
142.581211004814
 30
0.0
 10
140.4182411547928
 20
142.5843243855845
 30
0.0
 10
140.115352172795
 20
142.592640367491
 30
0.0
 10
139.528008987991
 20
142.6178156613469
 30
0.0
 10
139.243541327419
 20
142.6347992495729
 30
0.0
 10
138.9807050570809
 20
142.6540330729833
 30
0.0
  0
LINE
  5
D6
330
1F
100
AcDbEntity
  8
0
  6
Continuous
 62
     7
370
    25
100
AcDbLine
 10
141.7307050571
 20
86.0341733776
 30
0.0
 11
141.7307050571
 21
97.4492514704
 31
0.0
  0
LINE
  5
D7
330
1F
100
AcDbEntity
  8
0
  6
Continuous
 62
     7
370
    25
100
AcDbLine
 10
128.7955230171
 20
90.0400305963
 30
0.0
 11
128.7955230171
 21
139.9235066873
 31
0.0
  0
LINE
  5
D8
330
1F
100
AcDbEntity
  8
0
  6
Continuous
 62
     7
370
    25
100
AcDbLine
 10
112.8506472103
 20
91.2404329122
 30
0.0
 11
112.8506472103
 21
90.8407494458
 31
0.0
  0
SPLINE
  5
D9
330
1F
100
AcDbEntity
  8
0
  6
Continuous
 62
     7
370
    25
100
AcDbSpline
210
0.0
220
0.0
230
1.0
 70
     8
 71
     3
 72
    26
 73
    22
 74
     0
 42
0.000000001
 43
0.00000001
 40
0.0
 40
0.0
 40
0.0
 40
0.0
 40
0.0241259796969038
 40
0.048215991228259
 40
0.0723203915136643
 40
0.0964895678725153
 40
0.1207736231978452
 40
0.1452220711257179
 40
0.1698835501670319
 40
0.1948055644482148
 40
0.2200342569523467
 40
0.2456142191612283
 40
0.369097148691835
 40
0.4940698769485373
 40
0.6192566784762581
 40
0.7454656653603327
 40
0.7971495824713788
 40
0.8481710308405456
 40
0.8988013269235281
 40
0.9493179290492212
 40
1.0
 40
1.0
 40
1.0
 40
1.0
 10
107.9107629038795
 20
93.06235572786784
 30
0.0
 10
107.9760119624305
 20
93.05853509838691
 30
0.0
 10
108.1064128031122
 20
93.05089953540238
 30
0.0
 10
108.3013926214119
 20
93.03497928504041
 30
0.0
 10
108.495521758678
 20
93.01582108388939
 30
0.0
 10
108.6887830987737
 20
92.99312667015195
 30
0.0
 10
108.8811782772485
 20
92.96701430356411
 30
0.0
 10
109.072703855749
 20
92.93750249710949
 30
0.0
 10
109.2633593881329
 20
92.90464813651484
 30
0.0
 10
109.4531393872289
 20
92.86851182707453
 30
0.0
 10
109.6420580078814
 20
92.82915753422874
 30
0.0
 10
110.0688024210518
 20
92.73275877137027
 30
0.0
 10
110.7032747482299
 20
92.55612269249957
 30
0.0
 10
111.4429506005777
 20
92.27800345896695
 30
0.0
 10
112.0496978434097
 20
91.98665809924361
 30
0.0
 10
112.4104896596282
 20
91.7591809092248
 30
0.0
 10
112.6126637153925
 20
91.59976967213169
 30
0.0
 10
112.7194871713777
 20
91.49847052742314
 30
0.0
 10
112.795097887676
 20
91.40453718769238
 30
0.0
 10
112.8422605603673
 20
91.31741754368363
 30
0.0
 10
112.8478486146555
 20
91.26612241342062
 30
0.0
 10
112.8506472102824
 20
91.24043291224055
 30
0.0
  0
LINE
  5
DA
330
1F
100
AcDbEntity
  8
0
  6
Continuous
 62
     7
370
    25
100
AcDbLine
 10
105.9958896246
 20
93.1678664463
 30
0.0
 11
107.9107629039
 21
93.0623557279
 31
0.0
  0
SPLINE
  5
DB
330
1F
100
AcDbEntity
  8
0
  6
Continuous
 62
     7
370
    25
100
AcDbSpline
210
0.0
220
0.0
230
1.0
 70
     8
 71
     3
 72
    14
 73
    10
 74
     0
 42
0.000000001
 43
0.00000001
 40
0.0
 40
0.0
 40
0.0
 40
0.0
 40
0.0789261963155847
 40
0.1582328720522156
 40
0.3308475394554963
 40
0.5000195457601538
 40
0.667035788356921
 40
0.8332395193656904
 40
1.0
 40
1.0
 40
1.0
 40
1.0
 10
103.7996773985177
 20
93.06187273264283
 30
0.0
 10
103.8530729215597
 20
93.06990182583469
 30
0.0
 10
103.9601213713784
 20
93.08599871805845
 30
0.0
 10
104.1891920859409
 20
93.11580013167722
 30
0.0
 10
104.4880648241393
 20
93.14759409487039
 30
0.0
 10
104.8602078989404
 20
93.17375108486621
 30
0.0
 10
105.2358376979721
 20
93.1862162991009
 30
0.0
 10
105.6150300100019
 20
93.18583713942719
 30
0.0
 10
105.8687949795496
 20
93.17386335116572
 30
0.0
 10
105.99588962459
 20
93.16786644634628
 30
0.0
  0
SPLINE
  5
DC
330
1F
100
AcDbEntity
  8
0
  6
Continuous
 62
     7
370
    25
100
AcDbSpline
210
0.0
220
0.0
230
1.0
 70
     8
 71
     3
 72
     8
 73
     4
 74
     0
 42
0.000000001
 43
0.00000001
 40
0.0
 40
0.0
 40
0.0
 40
0.0
 40
1.0
 40
1.0
 40
1.0
 40
1.0
 10
98.40738367487329
 20
93.35648211509147
 30
0.0
 10
100.2047203602463
 20
93.25834628503407
 30
0.0
 10
102.0020570456194
 20
93.1601274099925
 30
0.0
 10
103.7993937309924
 20
93.06182872094193
 30
0.0
  0
SPLINE
  5
DD
330
1F
100
AcDbEntity
  8
0
  6
Continuous
 62
     7
370
    25
100
AcDbSpline
210
0.0
220
0.0
230
1.0
 70
     8
 71
     3
 72
    13
 73
     9
 74
     0
 42
0.000000001
 43
0.00000001
 40
0.0
 40
0.0
 40
0.0
 40
0.0
 40
0.1667030582308044
 40
0.3329480818053134
 40
0.4990671507274983
 40
0.6653938523718556
 40
0.8322612710550201
 40
1.0
 40
1.0
 40
1.0
 40
1.0
 10
97.32387951002788
 20
93.47314917943334
 30
0.0
 10
97.38498655277922
 20
93.46946255175962
 30
0.0
 10
97.50703274008242
 20
93.46209942581983
 30
0.0
 10
97.68936768534611
 20
93.44706491823082
 30
0.0
 10
97.87067189821983
 20
93.42916330999785
 30
0.0
 10
98.05087075825647
 20
93.40806273315191
 30
0.0
 10
98.23017473639482
 20
93.38411636211771
 30
0.0
 10
98.34820676196621
 20
93.36570354690501
 30
0.0
 10
98.40737645171784
 20
93.35647316592737
 30
0.0
  0
SPLINE
  5
DE
330
1F
100
AcDbEntity
  8
0
  6
Continuous
 62
     7
370
    25
100
AcDbSpline
210
0.0
220
0.0
230
1.0
 70
     8
 71
     3
 72
     8
 73
     4
 74
     0
 42
0.000000001
 43
0.00000001
 40
0.0
 40
0.0
 40
0.0
 40
0.0
 40
1.0
 40
1.0
 40
1.0
 40
1.0
 10
91.50570505709368
 20
93.79291641152699
 30
0.0
 10
93.44509654140509
 20
93.68643076164366
 30
0.0
 10
95.3844880257165
 20
93.5798401904123
 30
0.0
 10
97.3238795100279
 20
93.47314917943334
 30
0.0
  0
LINE
  5
DF
330
1F
100
AcDbEntity
  8
0
  6
Continuous
 62
     7
370
    25
100
AcDbLine
 10
91.5057050571
 20
93.7929164117
 30
0.0
 11
91.5057050571
 21
136.1707085587
 31
0.0
  0
SPLINE
  5
E0
330
1F
100
AcDbEntity
  8
0
  6
Continuous
 62
     7
370
    25
100
AcDbSpline
210
0.0
220
0.0
230
1.0
 70
     8
 71
     3
 72
     8
 73
     4
 74
     0
 42
0.000000001
 43
0.00000001
 40
0.0
 40
0.0
 40
0.0
 40
0.0
 40
1.0
 40
1.0
 40
1.0
 40
1.0
 10
97.3238795100279
 20
136.4903881041425
 30
0.0
 10
95.38448802571651
 20
136.3836970931636
 30
0.0
 10
93.44509654140509
 20
136.2771065219322
 30
0.0
 10
91.50570505709368
 20
136.1706208720489
 30
0.0
  0
SPLINE
  5
E1
330
1F
100
AcDbEntity
  8
0
  6
Continuous
 62
     7
370
    25
100
AcDbSpline
210
0.0
220
0.0
230
1.0
 70
     8
 71
     3
 72
    13
 73
     9
 74
     0
 42
0.000000001
 43
0.00000001
 40
0.0
 40
0.0
 40
0.0
 40
0.0
 40
0.1686319999748162
 40
0.3360343310905639
 40
0.5025367825908819
 40
0.6684737453788441
 40
0.8341822636915266
 40
1.0
 40
1.0
 40
1.0
 40
1.0
 10
98.40737455949488
 20
136.6070668798845
 30
0.0
 10
98.34788466343514
 20
136.5977923896882
 30
0.0
 10
98.22933867316009
 20
136.5793110391153
 30
0.0
 10
98.0494619775742
 20
136.5552802923812
 30
0.0
 10
97.86907168994615
 20
136.534149184872
 30
0.0
 10
97.68795951791235
 20
136.516270486286
 30
0.0
 10
97.50619868074489
 20
136.5013087251089
 30
0.0
 10
97.38466591285027
 20
136.49402911053
 30
0.0
 10
97.32387951002788
 20
136.4903881041425
 30
0.0
  0
SPLINE
  5
E2
330
1F
100
AcDbEntity
  8
0
  6
Continuous
 62
     7
370
    25
100
AcDbSpline
210
0.0
220
0.0
230
1.0
 70
     8
 71
     3
 72
     8
 73
     4
 74
     0
 42
0.000000001
 43
0.00000001
 40
0.0
 40
0.0
 40
0.0
 40
0.0
 40
1.0
 40
1.0
 40
1.0
 40
1.0
 10
103.7995679759882
 20
136.9017181038295
 30
0.0
 10
102.0021733045502
 20
136.8034162446129
 30
0.0
 10
100.2047786331122
 20
136.7051942044543
 30
0.0
 10
98.40738396167424
 20
136.6070552146388
 30
0.0
  0
SPLINE
  5
E3
330
1F
100
AcDbEntity
  8
0
  6
Continuous
 62
     7
370
    25
100
AcDbSpline
210
0.0
220
0.0
230
1.0
 70
     8
 71
     3
 72
    18
 73
    14
 74
     0
 42
0.000000001
 43
0.00000001
 40
0.0
 40
0.0
 40
0.0
 40
0.0
 40
0.0923325137111259
 40
0.1843692047063178
 40
0.2763458873811051
 40
0.3684982175655905
 40
0.461059898830402
 40
0.5542609546533457
 40
0.6483261285442697
 40
0.7434734636505935
 40
0.8399130993120554
 40
0.9201660718299485
 40
1.0
 40
1.0
 40
1.0
 40
1.0
 10
105.99588962459
 20
136.7956708372296
 30
0.0
 10
105.925559321077
 20
136.7919995299246
 30
0.0
 10
105.785124044225
 20
136.7846686777596
 30
0.0
 10
105.5747615177224
 20
136.779078018515
 30
0.0
 10
105.3653178548061
 20
136.7774734283813
 30
0.0
 10
105.1567681844336
 20
136.7802057023798
 30
0.0
 10
104.9491245671583
 20
136.7871287999679
 30
0.0
 10
104.7423863796187
 20
136.7982114102607
 30
0.0
 10
104.5365642876539
 20
136.8133803511152
 30
0.0
 10
104.3316326088617
 20
136.8325343370761
 30
0.0
 10
104.1401518634661
 20
136.8542370311277
 30
0.0
 10
103.9624287114115
 20
136.8772665543916
 30
0.0
 10
103.8540947168476
 20
136.8935299720338
 30
0.0
 10
103.8000695073944
 20
136.9016403952494
 30
0.0
  0
LINE
  5
E4
330
1F
100
AcDbEntity
  8
0
  6
Continuous
 62
     7
370
    25
100
AcDbLine
 10
107.9107629039
 20
136.9011815557
 30
0.0
 11
105.9958896246
 21
136.7956708372
 31
0.0
  0
SPLINE
  5
E5
330
1F
100
AcDbEntity
  8
0
  6
Continuous
 62
     7
370
    25
100
AcDbSpline
210
0.0
220
0.0
230
1.0
 70
     8
 71
     3
 72
    25
 73
    21
 74
     0
 42
0.000000001
 43
0.00000001
 40
0.0
 40
0.0
 40
0.0
 40
0.0
 40
0.0280105225426479
 40
0.0559601148860778
 40
0.0839014045043132
 40
0.1118870776786396
 40
0.1399695827588963
 40
0.1682008401739896
 40
0.1966319670424239
 40
0.2253130233141486
 40
0.2542927850735853
 40
0.3799486436570562
 40
0.5057850221666559
 40
0.6313085886326678
 40
0.753206823801271
 40
0.8039473267958359
 40
0.8535894438558028
 40
0.9025339722397656
 40
0.9511970353793487
 40
1.0
 40
1.0
 40
1.0
 40
1.0
 10
112.8506472102824
 20
138.7231043713353
 30
0.0
 10
112.8506844320162
 20
138.7091462315134
 30
0.0
 10
112.8507587945169
 20
138.6812603144678
 30
0.0
 10
112.8383427438704
 20
138.6362165195821
 30
0.0
 10
112.8167381835166
 20
138.5889492953869
 30
0.0
 10
112.7850527138566
 20
138.5392501144109
 30
0.0
 10
112.7435265755367
 20
138.4872128654384
 30
0.0
 10
112.6920958198068
 20
138.4328501028026
 30
0.0
 10
112.6307819450955
 20
138.3761988201376
 30
0.0
 10
112.5595716095961
 20
138.3172812584724
 30
0.0
 10
112.3887350023926
 20
138.1884646826494
 30
0.0
 10
112.0510027689557
 20
137.9782612985062
 30
0.0
 10
111.43944810476
 20
137.6873357769144
 30
0.0
 10
110.7032132696114
 20
137.4088089606922
 30
0.0
 10
110.016727197962
 20
137.214512254958
 30
0.0
 10
109.4680230518103
 20
137.093921442505
 30
0.0
 10
109.0859868733045
 20
137.0241442767424
 30
0.0
 10
108.6988207746001
 20
136.9683552728866
 30
0.0
 10
108.3065941058146
 20
136.9256250881434
 30
0.0
 10
108.0428328377004
 20
136.9093371929981
 30
0.0
 10
107.9107629038795
 20
136.901181555708
 30
0.0
  0
LINE
  5
E6
330
1F
100
AcDbEntity
  8
0
  6
Continuous
 62
     7
370
    25
100
AcDbLine
 10
112.8506472103
 20
139.1227878378
 30
0.0
 11
112.8506472103
 21
138.7231043713
 31
0.0
  0
SPLINE
  5
E7
330
1F
100
AcDbEntity
  8
0
  6
Continuous
 62
     7
370
    25
100
AcDbSpline
210
0.0
220
0.0
230
1.0
 70
    11
 71
     3
 72
    39
 73
    35
 74
     0
 42
0.000000001
 43
0.00000001
 40
0.0
 40
0.0
 40
0.0
 40
0.0
 40
0.0310664058347798
 40
0.0621048158425991
 40
0.0931361551792733
 40
0.1235538293503577
 40
0.1538561545807598
 40
0.1850588072749104
 40
0.2160250992947717
 40
0.247186722379756
 40
0.2784462884306427
 40
0.3100516090231226
 40
0.3419834369140484
 40
0.3734259894013217
 40
0.4048604886785525
 40
0.4368740651833295
 40
0.468512068592407
 40
0.4998055358633177
 40
0.5309508213228404
 40
0.561864978443814
 40
0.5930416446592908
 40
0.6233742450133256
 40
0.6540913579073041
 40
0.6849496782718417
 40
0.7158160645167227
 40
0.7471731804043494
 40
0.7784514311866261
 40
0.8101295911560916
 40
0.8419598919689909
 40
0.8735175891922292
 40
0.9050808037889628
 40
0.9370235169792575
 40
0.9687441590033682
 40
0.9999999999999999
 40
0.9999999999999999
 40
0.9999999999999999
 40
0.9999999999999999
 10
101.8681211518079
 20
120.7900217713827
 30
0.0
 10
102.2322503127726
 20
121.1694454292904
 30
0.0
 10
103.0350346494895
 20
121.856927130184
 30
0.0
 10
104.4300731348716
 20
122.6228411046026
 30
0.0
 10
105.9413149745948
 20
123.1117220380334
 30
0.0
 10
107.5129113811173
 20
123.273699911667
 30
0.0
 10
109.0804559981759
 20
123.1122550207086
 30
0.0
 10
110.5761279922846
 20
122.6325306334646
 30
0.0
 10
111.9565442543202
 20
121.879231165271
 30
0.0
 10
113.1535903079048
 20
120.8667452916106
 30
0.0
 10
114.1424980876462
 20
119.6321965042447
 30
0.0
 10
114.8819928819487
 20
118.2072448759627
 30
0.0
 10
115.3582968048382
 20
116.6563143964204
 30
0.0
 10
115.5259629772942
 20
115.0353855291943
 30
0.0
 10
115.3806853765066
 20
113.4103765832729
 30
0.0
 10
114.9217106658748
 20
111.8513506030013
 30
0.0
 10
114.1977247800215
 20
110.4146940043256
 30
0.0
 10
113.2219105246988
 20
109.1679497895251
 30
0.0
 10
112.0375859770497
 20
108.1417526003281
 30
0.0
 10
110.6693797213202
 20
107.3713483806073
 30
0.0
 10
109.181641884188
 20
106.8724991701307
 30
0.0
 10
107.6119920237354
 20
106.6912950902349
 30
0.0
 10
106.0357375054063
 20
106.8277182321533
 30
0.0
 10
104.5164619969314
 20
107.2921499649599
 30
0.0
 10
103.1154439628835
 20
108.0465840393291
 30
0.0
 10
101.8973074659843
 20
109.0699937748636
 30
0.0
 10
100.8896965628558
 20
110.3169360363568
 30
0.0
 10
100.1442226523058
 20
111.7500254426249
 30
0.0
 10
99.668386839682
 20
113.3066876678464
 30
0.0
 10
99.5045757246942
 20
114.930350641552
 30
0.0
 10
99.65038786795955
 20
116.5578996855435
 30
0.0
 10
100.1105321801366
 20
118.122647373879
 30
0.0
 10
100.8399922449578
 20
119.5666734433415
 30
0.0
 10
101.5017716224198
 20
120.4082844830399
 30
0.0
 10
101.8681211518079
 20
120.7900217713826
 30
0.0
  0
SPLINE
  5
E8
330
1F
100
AcDbEntity
  8
0
  6
Continuous
 62
     7
370
    25
100
AcDbSpline
210
0.0
220
0.0
230
1.0
 70
    11
 71
     3
 72
    47
 73
    43
 74
     0
 42
0.000000001
 43
0.00000001
 40
0.0
 40
0.0
 40
0.0
 40
0.0
 40
0.0185565231571564
 40
0.035175779134607
 40
0.0498587703163977
 40
0.0626072874024163
 40
0.0953681049684394
 40
0.1250235944851125
 40
0.1545621306648851
 40
0.187325415667866
 40
0.214037648789779
 40
0.2498478283714602
 40
0.2676842772503708
 40
0.2839032654384537
 40
0.2985082395935219
 40
0.311504112535417
 40
0.3429211892384783
 40
0.3729479206117491
 40
0.4028496296254227
 40
0.4364008870238722
 40
0.4619504140689453
 40
0.4999311490763327
 40
0.5173446591947486
 40
0.5335937024374298
 40
0.5486836298429361
 40
0.5626211828729782
 40
0.5950895091111661
 40
0.6250625446193601
 40
0.6549914305494098
 40
0.6874537010179621
 40
0.7162620319992257
 40
0.7500327075718594
 40
0.7698580256218077
 40
0.7869169820502812
 40
0.8012094712348541
 40
0.8127363282889571
 40
0.8457518306190162
 40
0.8751838152098743
 40
0.9050548231038161
 40
0.9375234850660229
 40
0.9660340097891252
 40
1.0
 40
1.0
 40
1.0
 40
1.0
 10
102.4119340721822
 20
120.0909877655791
 30
0.0
 10
102.2138354445713
 20
119.8916024764666
 30
0.0
 10
101.8608894645802
 20
119.4922734483643
 30
0.0
 10
101.424982468684
 20
118.8736191537893
 30
0.0
 10
101.0950457316764
 20
118.2912585830385
 30
0.0
 10
100.7138299996847
 20
117.4587302780506
 30
0.0
 10
100.3874241811437
 20
116.3494441748852
 30
0.0
 10
100.263071122314
 20
114.9382668462604
 30
0.0
 10
100.4044404902206
 20
113.5287768470902
 30
0.0
 10
100.8059382444495
 20
112.2207092483689
 30
0.0
 10
101.4828876349458
 20
110.9360459474565
 30
0.0
 10
102.2560699926336
 20
109.9825581655452
 30
0.0
 10
103.0513316935976
 20
109.2832541980142
 30
0.0
 10
103.6554718113602
 20
108.8567551580956
 30
0.0
 10
104.2351870059845
 20
108.5266036299864
 30
0.0
 10
105.0529882734215
 20
108.1506429878976
 30
0.0
 10
106.1526507027827
 20
107.8216411536733
 30
0.0
 10
107.5550184314429
 20
107.6880631371693
 30
0.0
 10
108.9824911148471
 20
107.8240630161769
 30
0.0
 10
110.2796680986026
 20
108.2185511660203
 30
0.0
 10
111.5740711217597
 20
108.8903449729698
 30
0.0
 10
112.5260678022206
 20
109.6528989629228
 30
0.0
 10
113.2355405308398
 20
110.454938082851
 30
0.0
 10
113.6611453107792
 20
111.0507336878377
 30
0.0
 10
114.0018079386972
 20
111.6420033081372
 30
0.0
 10
114.3914733255672
 20
112.4865661391816
 30
0.0
 10
114.7231852871241
 20
113.610218044048
 30
0.0
 10
114.8494264486219
 20
115.0281102042007
 30
0.0
 10
114.7050983373518
 20
116.4439353957726
 30
0.0
 10
114.2928199882833
 20
117.7790933711295
 30
0.0
 10
113.6135038073015
 20
119.0480617047125
 30
0.0
 10
112.8271534490657
 20
120.0083841969526
 30
0.0
 10
112.0333057753448
 20
120.703791803819
 30
0.0
 10
111.4035815533067
 20
121.1398656798439
 30
0.0
 10
110.842345633941
 20
121.4527148283153
 30
0.0
 10
110.0387371743882
 20
121.8199168290923
 30
0.0
 10
108.9585887798966
 20
122.1426267670181
 30
0.0
 10
107.5490604598212
 20
122.274570999531
 30
0.0
 10
106.1398555329873
 20
122.1407609785106
 30
0.0
 10
104.7991426831653
 20
121.7360069864057
 30
0.0
 10
103.5148742179841
 20
121.0577516378763
 30
0.0
 10
102.7745351903569
 20
120.4559439979958
 30
0.0
 10
102.4119340721822
 20
120.0909877655792
 30
0.0
  0
LINE
  5
E9
330
1F
100
AcDbEntity
  8
0
  6
Continuous
 62
     7
370
    25
100
AcDbLine
 10
159.9557050571
 20
91.7817686418
 30
0.0
 11
159.9557050571
 21
138.1817686418
 31
0.0
  0
SPLINE
  5
EA
330
1F
100
AcDbEntity
  8
0
  6
Continuous
 62
     7
370
    25
100
AcDbSpline
210
0.0
220
0.0
230
1.0
 70
     8
 71
     3
 72
     8
 73
     4
 74
     0
 42
0.000000001
 43
0.00000001
 40
0.0
 40
0.0
 40
0.0
 40
0.0
 40
1.0
 40
1.0
 40
1.0
 40
1.0
 10
90.59204523550174
 20
94.20348842252741
 30
0.0
 10
90.89659850921116
 20
94.0658116821521
 30
0.0
 10
91.20115178292058
 20
93.92894896123815
 30
0.0
 10
91.50570505662998
 20
93.79291641190699
 30
0.0
  0
SPLINE
  5
EB
330
1F
100
AcDbEntity
  8
0
  6
Continuous
 62
     7
370
    25
100
AcDbSpline
210
0.0
220
0.0
230
1.0
 70
     8
 71
     3
 72
     8
 73
     4
 74
     0
 42
0.000000001
 43
0.00000001
 40
0.0
 40
0.0
 40
0.0
 40
0.0
 40
1.0
 40
1.0
 40
1.0
 40
1.0
 10
90.00570505708093
 20
94.71954290504357
 30
0.0
 10
90.20025218961366
 20
94.54613603672377
 30
0.0
 10
90.3957132098527
 20
94.37413994175706
 30
0.0
 10
90.59204523550986
 20
94.20348842252524
 30
0.0
  0
LINE
  5
EC
330
1F
100
AcDbEntity
  8
0
  6
Continuous
 62
     7
370
    25
100
AcDbLine
 10
90.0057050571
 20
94.719542905
 30
0.0
 11
90.0057050571
 21
135.2439943785
 31
0.0
  0
SPLINE
  5
ED
330
1F
100
AcDbEntity
  8
0
  6
Continuous
 62
     7
370
    25
100
AcDbSpline
210
0.0
220
0.0
230
1.0
 70
     8
 71
     3
 72
     8
 73
     4
 74
     0
 42
0.000000001
 43
0.00000001
 40
0.0
 40
0.0
 40
0.0
 40
0.0
 40
1.0
 40
1.0
 40
1.0
 40
1.0
 10
90.59204523551338
 20
135.7600488610537
 30
0.0
 10
90.39571320985503
 20
135.5893973418208
 30
0.0
 10
90.20025218961483
 20
135.4174012468531
 30
0.0
 10
90.00570505708093
 20
135.2439943785323
 30
0.0
  0
SPLINE
  5
EE
330
1F
100
AcDbEntity
  8
0
  6
Continuous
 62
     7
370
    25
100
AcDbSpline
210
0.0
220
0.0
230
1.0
 70
     8
 71
     3
 72
     8
 73
     4
 74
     0
 42
0.000000001
 43
0.00000001
 40
0.0
 40
0.0
 40
0.0
 40
0.0
 40
1.0
 40
1.0
 40
1.0
 40
1.0
 10
91.50570505662999
 20
136.1706208716689
 30
0.0
 10
91.20115178292446
 20
136.0345883223394
 30
0.0
 10
90.89659850921893
 20
135.8977256014272
 30
0.0
 10
90.59204523551338
 20
135.7600488610537
 30
0.0
  0
SPLINE
  5
EF
330
1F
100
AcDbEntity
  8
0
  6
Continuous
 62
     7
370
    25
100
AcDbSpline
210
0.0
220
0.0
230
1.0
 70
     8
 71
     3
 72
    11
 73
     7
 74
     0
 42
0.000000001
 43
0.00000001
 40
0.0
 40
0.0
 40
0.0
 40
0.0
 40
0.3315298712327509
 40
0.6637140261732375
 40
0.8859515316533679
 40
1.0
 40
1.0
 40
1.0
 40
1.0
 10
105.6304492176096
 20
107.9920697961594
 30
0.0
 10
105.6623222523377
 20
107.9834440197455
 30
0.0
 10
105.726131224142
 20
107.9661754437008
 30
0.0
 10
105.7835788672667
 20
107.951655619424
 30
0.0
 10
105.8122017668376
 20
107.9445297300307
 30
0.0
 10
105.81034623342
 20
107.9449916624451
 30
0.0
 10
105.8097169453714
 20
107.9451483228129
 30
0.0
  0
LINE
  5
F0
330
1F
100
AcDbEntity
  8
0
  6
Continuous
 62
     7
370
    25
100
AcDbLine
 10
178.9557050571
 20
104.7817686418
 30
0.0
 11
178.9557050571
 21
125.1817686418
 31
0.0
  0
LINE
  5
F1
330
1F
100
AcDbEntity
  8
0
  6
Continuous
 62
     7
370
    25
100
AcDbLine
 10
162.4557050571
 20
103.9817686418
 30
0.0
 11
162.4557050571
 21
125.9817686418
 31
0.0
  0
LINE
  5
F2
330
1F
100
AcDbEntity
  8
0
  6
Continuous
 62
     7
370
    25
100
AcDbLine
 10
112.8506472103
 20
138.7231043713
 30
0.0
 11
112.2048367967
 21
138.0879861221
 31
0.0
  0
LINE
  5
F3
330
1F
100
AcDbEntity
  8
0
  6
Continuous
 62
     7
370
    25
100
AcDbLine
 10
112.8506472103
 20
91.2404329122
 30
0.0
 11
112.2073355004
 21
91.8730938268
 31
0.0
  0
LINE
  5
F4
330
1F
100
AcDbEntity
  8
0
  6
Continuous
 62
     7
370
    25
100
AcDbLine
 10
111.9557050571
 20
91.735691599
 30
0.0
 11
111.9557050571
 21
92.120558227
 31
0.0
  0
LINE
  5
F5
330
1F
100
AcDbEntity
  8
0
  6
Continuous
 62
     7
370
    25
100
AcDbLine
 10
111.9557050571
 20
137.8429790566
 30
0.0
 11
111.9557050571
 21
138.2278456846
 31
0.0
  0
SPLINE
  5
F6
330
1F
100
AcDbEntity
  8
0
  6
Continuous
 62
     7
370
    25
100
AcDbSpline
210
0.0
220
0.0
230
1.0
 70
     8
 71
     3
 72
     9
 73
     5
 74
     0
 42
0.000000001
 43
0.00000001
 40
0.0
 40
0.0
 40
0.0
 40
0.0
 40
0.7785870112736287
 40
1.0
 40
1.0
 40
1.0
 40
1.0
 10
102.6014688357658
 20
120.2449113456082
 30
0.0
 10
102.4490735512854
 20
120.1170875541285
 30
0.0
 10
102.2533404061472
 20
119.9529134931323
 30
0.0
 10
102.0978231005702
 20
119.7431533031007
 30
0.0
 10
102.0633895491437
 20
119.69670967251
 30
0.0
  0
SPLINE
  5
F7
330
1F
100
AcDbEntity
  8
0
  6
Continuous
 62
     7
370
    25
100
AcDbSpline
210
0.0
220
0.0
230
1.0
 70
     8
 71
     3
 72
    11
 73
     7
 74
     0
 42
0.000000001
 43
0.00000001
 40
0.0
 40
0.0
 40
0.0
 40
0.0
 40
0.138479995090006
 40
0.4640022358620126
 40
0.7839842262366024
 40
1.0
 40
1.0
 40
1.0
 40
1.0
 10
104.8660394371402
 20
108.2514255932053
 30
0.0
 10
104.9140773805817
 20
108.2317306196276
 30
0.0
 10
105.0750371867153
 20
108.1657390533413
 30
0.0
 10
105.3118776453143
 20
108.0865061351551
 30
0.0
 10
105.5341284681903
 20
108.018336566697
 30
0.0
 10
105.6139983813667
 20
107.9968743015577
 30
0.0
 10
105.6461872490255
 20
107.9882246613521
 30
0.0
  0
LINE
  5
F8
330
1F
100
AcDbEntity
  8
0
  6
HIDDEN
 62
     7
370
    18
100
AcDbLine
 10
181.9557050571
 20
106.9817686418
 30
0.0
 11
181.9557050571
 21
122.9817686418
 31
0.0
  0
LINE
  5
F9
330
1F
100
AcDbEntity
  8
0
  6
HIDDEN
 62
     7
370
    18
100
AcDbLine
 10
191.9557050571
 20
108.4817687295
 30
0.0
 11
191.9557050571
 21
121.4817686418
 31
0.0
  0
LINE
  5
FA
330
1F
100
AcDbEntity
  8
0
  6
HIDDEN
 62
     7
370
    18
100
AcDbLine
 10
181.9557050571
 20
109.5817686418
 30
0.0
 11
181.9557050571
 21
120.3642581057
 31
0.0
  0
LINE
  5
FB
330
1F
100
AcDbEntity
  8
0
  6
HIDDEN
 62
     7
370
    18
100
AcDbLine
 10
164.7837050571
 20
109.9817686418
 30
0.0
 11
164.7837050571
 21
119.9817686418
 31
0.0
  0
LINE
  5
FC
330
1F
100
AcDbEntity
  8
0
  6
HIDDEN
 62
     7
370
    18
100
AcDbLine
 10
163.9557050571
 20
110.8097686418
 30
0.0
 11
163.9557050571
 21
119.1537686418
 31
0.0
  0
LINE
  5
FD
330
1F
100
AcDbEntity
  8
0
  6
HIDDEN
 62
     7
370
    18
100
AcDbLine
 10
191.9557050571
 20
114.9817686418
 30
0.0
 11
191.9557050571
 21
110.9242686418
 31
0.0
  0
LINE
  5
FE
330
1F
100
AcDbEntity
  8
0
  6
HIDDEN
 62
     7
370
    18
100
AcDbLine
 10
186.9557050571
 20
114.9817686418
 30
0.0
 11
186.9557050571
 21
112.9530186418
 31
0.0
  0
LINE
  5
FF
330
1F
100
AcDbEntity
  8
0
  6
HIDDEN
 62
     7
370
    18
100
AcDbLine
 10
186.9557050571
 20
114.9817686418
 30
0.0
 11
186.9557050571
 21
117.0105186418
 31
0.0
  0
LINE
  5
100
330
1F
100
AcDbEntity
  8
0
  6
HIDDEN
 62
     7
370
    18
100
AcDbLine
 10
186.9557050571
 20
114.9817686418
 30
0.0
 11
191.9557050571
 21
114.9817686418
 31
0.0
  0
LINE
  5
101
330
1F
100
AcDbEntity
  8
0
  6
HIDDEN
 62
     7
370
    18
100
AcDbLine
 10
191.9557050571
 20
114.9817686418
 30
0.0
 11
191.9557050571
 21
119.0392686418
 31
0.0
  0
LINE
  5
102
330
1F
100
AcDbEntity
  8
0
  6
HIDDEN
 62
     7
370
    18
100
AcDbLine
 10
186.9557050571
 20
117.0105186418
 30
0.0
 11
186.9557050571
 21
119.0392686418
 31
0.0
  0
LINE
  5
103
330
1F
100
AcDbEntity
  8
0
  6
HIDDEN
 62
     7
370
    18
100
AcDbLine
 10
186.9557050571
 20
112.9530186418
 30
0.0
 11
186.9557050571
 21
117.0105186418
 31
0.0
  0
LINE
  5
104
330
1F
100
AcDbEntity
  8
0
  6
HIDDEN
 62
     7
370
    18
100
AcDbLine
 10
186.9557050571
 20
110.9242686418
 30
0.0
 11
186.9557050571
 21
112.9530186418
 31
0.0
  0
LINE
  5
105
330
1F
100
AcDbEntity
  8
0
  6
HIDDEN
 62
     7
370
    18
100
AcDbLine
 10
186.9557050571
 20
112.9530186418
 30
0.0
 11
186.9557050571
 21
110.9242686418
 31
0.0
  0
LINE
  5
106
330
1F
100
AcDbEntity
  8
0
  6
HIDDEN
 62
     7
370
    18
100
AcDbLine
 10
186.9557050571
 20
119.0392686418
 30
0.0
 11
186.9557050571
 21
117.0105186418
 31
0.0
  0
LINE
  5
107
330
1F
100
AcDbEntity
  8
0
  6
HIDDEN
 62
     7
370
    18
100
AcDbLine
 10
186.9557050571
 20
117.0105186418
 30
0.0
 11
186.9557050571
 21
112.9530186418
 31
0.0
  0
LINE
  5
108
330
1F
100
AcDbEntity
  8
0
  6
HIDDEN
 62
     7
370
    18
100
AcDbLine
 10
186.9557050571
 20
112.9530186418
 30
0.0
 11
186.9557050571
 21
110.9242686418
 31
0.0
  0
LINE
  5
109
330
1F
100
AcDbEntity
  8
0
  6
HIDDEN
 62
     7
370
    18
100
AcDbLine
 10
186.9557050571
 20
117.0105186418
 30
0.0
 11
186.9557050571
 21
119.0392686418
 31
0.0
  0
LINE
  5
10A
330
1F
100
AcDbEntity
  8
0
  6
HIDDEN
 62
     7
370
    18
100
AcDbLine
 10
186.9557050571
 20
119.0392686418
 30
0.0
 11
191.9557050571
 21
119.0392686418
 31
0.0
  0
LINE
  5
10B
330
1F
100
AcDbEntity
  8
0
  6
HIDDEN
 62
     7
370
    18
100
AcDbLine
 10
186.9557050571
 20
110.9242686418
 30
0.0
 11
191.9557050571
 21
110.9242686418
 31
0.0
  0
LINE
  5
10C
330
1F
100
AcDbEntity
  8
0
  6
HIDDEN
 62
     7
370
    18
100
AcDbLine
 10
178.9557050571
 20
119.9817686418
 30
0.0
 11
164.7837050571
 21
119.9817686418
 31
0.0
  0
LINE
  5
10D
330
1F
100
AcDbEntity
  8
0
  6
HIDDEN
 62
     7
370
    18
100
AcDbLine
 10
164.7837050571
 20
109.9817686418
 30
0.0
 11
178.9557050571
 21
109.9817686418
 31
0.0
  0
LINE
  5
10E
330
1F
100
AcDbEntity
  8
0
  6
HIDDEN
 62
     7
370
    18
100
AcDbLine
 10
164.7837050571
 20
119.9817686418
 30
0.0
 11
163.9557050571
 21
119.1537686418
 31
0.0
  0
LINE
  5
10F
330
1F
100
AcDbEntity
  8
0
  6
HIDDEN
 62
     7
370
    18
100
AcDbLine
 10
163.9557050571
 20
110.8097686418
 30
0.0
 11
164.7837050571
 21
109.9817686418
 31
0.0
  0
LINE
  5
110
330
1F
100
AcDbEntity
  8
0
  6
HIDDEN
 62
     7
370
    18
100
AcDbLine
 10
186.9557050571
 20
119.0392686418
 30
0.0
 11
184.6131063398
 21
114.9817686418
 31
0.0
  0
LINE
  5
111
330
1F
100
AcDbEntity
  8
0
  6
HIDDEN
 62
     7
370
    18
100
AcDbLine
 10
184.6131063398
 20
114.9817686418
 30
0.0
 11
186.9557050571
 21
110.9242686418
 31
0.0
  0
DIMENSION
  5
112
330
1F
100
AcDbEntity
  8
VERMASSUNG
100
AcDbDimension
  2
_D
 10
214.9240169388
 20
125.9817686418
 30
0.0
 11
214.9240169388
 21
114.9817686418
 31
0.0
 70
   160
  1
%%c<>
 71
     2
 42
-1.0
  3
SLDDIMSTYLE0
100
AcDbAlignedDimension
 13
178.1557050571
 23
103.9817686418
 33
0.0
 14
178.1557050571
 24
125.9817686418
 34
0.0
 50
90.0
100
AcDbRotatedDimension
  0
DIMENSION
  5
11E
330
1F
100
AcDbEntity
  8
VERMASSUNG
100
AcDbDimension
  2
_D_1
 10
225.9557050571
 20
90.9817686418
 30
0.0
 11
225.9557050571
 21
114.9817686418
 31
0.0
 70
   160
  1
%%c<>
 71
     2
 42
-1.0
  3
SLDDIMSTYLE0
100
AcDbAlignedDimension
 13
159.1557050571
 23
138.9817686418
 33
0.0
 14
159.1557050571
 24
90.9817686418
 34
0.0
 50
90.0
100
AcDbRotatedDimension
  0
DIMENSION
  5
129
330
1F
100
AcDbEntity
  8
VERMASSUNG
100
AcDbDimension
  2
_D_2
 10
80.0056800571
 20
83.5067686418
 30
0.0
 11
80.0056800571
 21
114.9817686418
 31
0.0
 70
   160
  1
KM%%c<> XMZ
 71
     2
 42
-1.0
  3
SLDDIMSTYLE1
100
AcDbAlignedDimension
 13
130.1557050571
 23
146.4567686418
 33
0.0
 14
130.1557050571
 24
83.5067686418
 34
0.0
 50
90.0
100
AcDbRotatedDimension
  0
DIMENSION
  5
137
330
1F
100
AcDbEntity
  8
VERMASSUNG
100
AcDbDimension
  2
_D_3
 10
159.9557050571
 20
152.990551822
 30
0.0
 11
153.9557050571
 21
152.990551822
 31
0.0
 70
   160
  1
<>
 71
     2
 42
-1.0
  3
SLDDIMSTYLE0
100
AcDbAlignedDimension
 13
147.9557050571
 23
146.4567686418
 33
0.0
 14
159.9557050571
 24
138.1817686418
 34
0.0
100
AcDbRotatedDimension
  0
DIMENSION
  5
141
330
1F
100
AcDbEntity
  8
VERMASSUNG
100
AcDbDimension
  2
_D_4
 10
178.9557050571
 20
152.990551822
 30
0.0
 11
169.4557050571
 21
152.990551822
 31
0.0
 70
   160
  1
<>
 71
     2
 42
-1.0
  3
SLDDIMSTYLE0
100
AcDbAlignedDimension
 13
159.9557050571
 23
138.1817686418
 33
0.0
 14
178.9557050571
 24
122.3770112389
 34
0.0
100
AcDbRotatedDimension
  0
DIMENSION
  5
14B
330
1F
100
AcDbEntity
  8
VERMASSUNG
100
AcDbDimension
  2
_D_5
 10
159.9557050571
 20
161.2157724087
 30
0.0
 11
144.9557050571
 21
161.2157724087
 31
0.0
 70
   160
  1
<>
 71
     2
 42
-1.0
  3
SLDDIMSTYLE0
100
AcDbAlignedDimension
 13
129.9557050571
 23
146.2567686418
 33
0.0
 14
159.9557050571
 24
138.1817686418
 34
0.0
100
AcDbRotatedDimension
  0
DIMENSION
  5
155
330
1F
100
AcDbEntity
  8
VERMASSUNG
100
AcDbDimension
  2
_D_6
 10
178.9557050571
 20
169.9043857045
 30
0.0
 11
134.4807050571
 21
169.9043857045
 31
0.0
 70
   160
  1
<>
 71
     2
 42
-1.0
  3
SLDDIMSTYLE0
100
AcDbAlignedDimension
 13
90.0057050571
 23
135.2439943785
 33
0.0
 14
178.9557050571
 24
122.3770112389
 34
0.0
100
AcDbRotatedDimension
  0
DIMENSION
  5
15F
330
1F
100
AcDbEntity
  8
VERMASSUNG
100
AcDbDimension
  2
_D_7
 10
203.84048982
 20
110.9242686418
 30
0.0
 11
203.84048982
 21
114.9817686418
 31
0.0
 70
   160
  1
SW<>
 71
     2
 42
-1.0
  3
SLDDIMSTYLE1
100
AcDbAlignedDimension
 13
191.9557050571
 23
119.0392686418
 33
0.0
 14
191.9557050571
 24
110.9242686418
 34
0.0
 50
90.0
100
AcDbRotatedDimension
  0
LINE
  5
16A
330
1F
100
AcDbEntity
  8
VERMASSUNG
  6
CENTERX2
370
    18
100
AcDbLine
 10
194.9910643712
 20
114.9817686418
 30
0.0
 11
88.0057050571
 21
114.9817686418
 31
0.0
  0
LINE
  5
16B
330
1F
100
AcDbEntity
  8
0
  6
Continuous
 62
     7
370
    25
100
AcDbLine
 10
259.6264250191
 20
42.8444504257
 30
0.0
 11
259.7378976036
 21
42.9813505408
 31
0.0
  0
SPLINE
  5
16C
330
1F
100
AcDbEntity
  8
0
  6
Continuous
 62
     7
370
    25
100
AcDbSpline
210
0.0
220
0.0
230
1.0
 70
     8
 71
     3
 72
    17
 73
    13
 74
     0
 42
0.000000001
 43
0.00000001
 40
0.0
 40
0.0
 40
0.0
 40
0.0
 40
0.0577912706283107
 40
0.1669220430928172
 40
0.2762624466995912
 40
0.3858875881700099
 40
0.4960758408784575
 40
0.6070572608943196
 40
0.7187561765795709
 40
0.829536787346919
 40
0.9367139920123938
 40
1.0
 40
1.0
 40
1.0
 40
1.0
 10
259.7378976035855
 20
42.9813505407829
 30
0.0
 10
259.7877205828681
 20
43.04966191643293
 30
0.0
 10
259.9316273252604
 20
43.24696981892433
 30
0.0
 10
260.1372014920826
 20
43.60322278230694
 30
0.0
 10
260.3297978943199
 20
44.04478501313439
 30
0.0
 10
260.4614632601911
 20
44.49300922007799
 30
0.0
 10
260.5268932666127
 20
44.93182581336188
 30
0.0
 10
260.5209562049411
 20
45.34650466778896
 30
0.0
 10
260.4406498897518
 20
45.72282779059555
 30
0.0
 10
260.282163605902
 20
46.03817279333051
 30
0.0
 10
260.0888470331502
 20
46.26115928649605
 30
0.0
 10
259.9330259974679
 20
46.33713649883183
 30
0.0
 10
259.8751760299861
 20
46.3653437254347
 30
0.0
  0
LINE
  5
16D
330
1F
100
AcDbEntity
  8
0
  6
Continuous
 62
     7
370
    25
100
AcDbLine
 10
259.9300880566
 20
46.3487126806
 30
0.0
 11
258.1269657646
 21
47.3896330232
 31
0.0
  0
SPLINE
  5
16E
330
1F
100
AcDbEntity
  8
0
  6
Continuous
 62
     7
370
    25
100
AcDbSpline
210
0.0
220
0.0
230
1.0
 70
     8
 71
     3
 72
    25
 73
    21
 74
     0
 42
0.000000001
 43
0.00000001
 40
0.0
 40
0.0
 40
0.0
 40
0.0
 40
0.0055623894943909
 40
0.0633055410683685
 40
0.1208395624620688
 40
0.1799581905665269
 40
0.2412129126053887
 40
0.3037587539409907
 40
0.3665545140558648
 40
0.4291981505715026
 40
0.4917109660492096
 40
0.55421237373641
 40
0.6168261542271594
 40
0.6796875582460844
 40
0.7429504660580686
 40
0.8066840293222269
 40
0.8704612604415889
 40
0.9329122762045013
 40
0.992731325199943
 40
1.0
 40
1.0
 40
1.0
 40
1.0
 10
245.0729099958877
 20
34.87014543076226
 30
0.0
 10
245.0807802026548
 20
34.86419175408655
 30
0.0
 10
245.1703510063913
 20
34.79643297457613
 30
0.0
 10
245.3876249014625
 20
34.74499977423482
 30
0.0
 10
245.7050333171034
 20
34.72588648655358
 30
0.0
 10
246.0451142980308
 20
34.79897642198835
 30
0.0
 10
246.3950568258393
 20
34.95259986370537
 30
0.0
 10
246.7455119081791
 20
35.18687099652416
 30
0.0
 10
247.0810927267552
 20
35.49181462327086
 30
0.0
 10
247.3881455107773
 20
35.8544467989482
 30
0.0
 10
247.6553638764117
 20
36.26033637249955
 30
0.0
 10
247.8733042131045
 20
36.69460633839663
 30
0.0
 10
248.0339537548054
 20
37.14189766909231
 30
0.0
 10
248.1307472537615
 20
37.58680790876334
 30
0.0
 10
248.1585533351287
 20
38.01473254082833
 30
0.0
 10
248.1126743767313
 20
38.40992418869597
 30
0.0
 10
247.9919009304866
 20
38.75916484673561
 30
0.0
 10
247.7930190518742
 20
39.03202088136057
 30
0.0
 10
247.6164677433316
 20
39.19151410071223
 30
0.0
 10
247.5032434088235
 20
39.2295926323571
 30
0.0
 10
247.4909760248607
 20
39.23371828229321
 30
0.0
  0
LINE
  5
16F
330
1F
100
AcDbEntity
  8
0
  6
Continuous
 62
     7
370
    25
100
AcDbLine
 10
243.2528002623
 20
35.9158177329
 30
0.0
 11
245.0559225543
 21
34.8748973903
 31
0.0
  0
LINE
  5
170
330
1F
100
AcDbEntity
  8
0
  6
Continuous
 62
     7
370
    25
100
AcDbLine
 10
247.5557193859
 20
39.2051417022
 30
0.0
 11
245.7525970939
 21
40.2460620448
 31
0.0
  0
SPLINE
  5
171
330
1F
100
AcDbEntity
  8
0
  6
Continuous
 62
     7
370
    25
100
AcDbSpline
210
0.0
220
0.0
230
1.0
 70
     8
 71
     3
 72
    23
 73
    19
 74
     0
 42
0.000000001
 43
0.00000001
 40
0.0
 40
0.0
 40
0.0
 40
0.0
 40
0.0339956499188587
 40
0.0942531610537606
 40
0.1547035074304978
 40
0.2168820313119677
 40
0.281662250697136
 40
0.3489286832548822
 40
0.4177250558218554
 40
0.4869132698509208
 40
0.5558973386189946
 40
0.6246265941962542
 40
0.6932237426627217
 40
0.7618772200098516
 40
0.830745052338618
 40
0.900037209106201
 40
0.9699640374802326
 40
1.0
 40
1.0
 40
1.0
 40
1.0
 10
259.5047682340843
 20
31.95932390114458
 30
0.0
 10
259.5718292101602
 20
31.92000265504025
 30
0.0
 10
259.757756203572
 20
31.81098424383907
 30
0.0
 10
260.1066231468329
 20
31.72607230652022
 30
0.0
 10
260.5284713692126
 20
31.69786732762205
 30
0.0
 10
260.9676546760645
 20
31.75727710253179
 30
0.0
 10
261.4185627101292
 20
31.89942327182291
 30
0.0
 10
261.8755039317239
 20
32.12616080723353
 30
0.0
 10
262.3270970371239
 20
32.43362996703011
 30
0.0
 10
262.7603012489253
 20
32.8132844824232
 30
0.0
 10
263.1634769012468
 20
33.25347729180507
 30
0.0
 10
263.5275960445042
 20
33.74239047261726
 30
0.0
 10
263.8453451048036
 20
34.26873571641573
 30
0.0
 10
264.109999874839
 20
34.82117602751423
 30
0.0
 10
264.3157918671102
 20
35.38861531104859
 30
0.0
 10
264.4559379429842
 20
35.95963413631843
 30
0.0
 10
264.5150855431139
 20
36.41596290020845
 30
0.0
 10
264.5199091187386
 20
36.67610995121572
 30
0.0
 10
264.5213584653943
 20
36.75427670710377
 30
0.0
  0
SPLINE
  5
172
330
1F
100
AcDbEntity
  8
0
  6
Continuous
 62
     7
370
    25
100
AcDbSpline
210
0.0
220
0.0
230
1.0
 70
     8
 71
     3
 72
    13
 73
     9
 74
     0
 42
0.000000001
 43
0.00000001
 40
0.0
 40
0.0
 40
0.0
 40
0.0
 40
0.1087046068333788
 40
0.3108818172531707
 40
0.4909620618879799
 40
0.6637561648168319
 40
0.8307467534339021
 40
1.0
 40
1.0
 40
1.0
 40
1.0
 10
264.5213584653943
 20
36.75427670710377
 30
0.0
 10
264.5190630414244
 20
36.85200493474324
 30
0.0
 10
264.5124984109465
 20
37.13149565634681
 30
0.0
 10
264.441711759589
 20
37.55009897482419
 30
0.0
 10
264.2905088224016
 20
37.98804270126001
 30
0.0
 10
264.0783626286232
 20
38.35474175053538
 30
0.0
 10
263.8096896675117
 20
38.6685290678618
 30
0.0
 10
263.5839552608005
 20
38.81624568711804
 30
0.0
 10
263.4703285494684
 20
38.8906010053866
 30
0.0
  0
LINE
  5
173
330
1F
100
AcDbEntity
  8
0
  6
Continuous
 62
     7
370
    25
100
AcDbLine
 10
263.4730988918
 20
38.8918089749
 30
0.0
 11
260.4678950718
 21
40.6266762125
 31
0.0
  0
LINE
  5
174
330
1F
100
AcDbEntity
  8
0
  6
Continuous
 62
     7
370
    25
100
AcDbLine
 10
256.4682201412
 20
33.6982853135
 30
0.0
 11
259.4734239613
 21
31.9634180759
 31
0.0
  0
LINE
  5
175
330
1F
100
AcDbEntity
  8
0
  6
Continuous
 62
     7
370
    25
100
AcDbLine
 10
258.1565796544
 20
40.2289663101
 30
0.0
 11
258.0451656101
 21
40.2932842688
 31
0.0
  0
LINE
  5
176
330
1F
100
AcDbEntity
  8
0
  6
Continuous
 62
     7
370
    25
100
AcDbLine
 10
255.5463273328
 20
35.9624865953
 30
0.0
 11
255.6567828228
 21
35.8987219982
 31
0.0
  0
LINE
  5
177
330
1F
100
AcDbEntity
  8
0
  6
Continuous
 62
     7
370
    25
100
AcDbLine
 10
236.8941662738
 20
31.4452156347
 30
0.0
 11
238.5791317989
 21
30.4725057418
 31
0.0
  0
LINE
  5
178
330
1F
100
AcDbEntity
  8
0
  6
Continuous
 62
     7
370
    25
100
AcDbLine
 10
254.3153528538
 20
57.7313936852
 30
0.0
 11
252.6303873287
 21
58.7041035781
 31
0.0
  0
SPLINE
  5
179
330
1F
100
AcDbEntity
  8
0
  6
Continuous
 62
     7
370
    25
100
AcDbSpline
210
0.0
220
0.0
230
1.0
 70
     8
 71
     3
 72
    18
 73
    14
 74
     0
 42
0.000000001
 43
0.00000001
 40
0.0
 40
0.0
 40
0.0
 40
0.0
 40
0.0455858551803729
 40
0.1419287073298631
 40
0.2389512308587867
 40
0.3366692004515643
 40
0.434965818856878
 40
0.533666255882481
 40
0.6326008380113703
 40
0.7316379016950437
 40
0.8306777373076976
 40
0.9296732164893363
 40
1.0
 40
1.0
 40
1.0
 40
1.0
 10
245.6970849826127
 20
30.94415354742706
 30
0.0
 10
245.7970339529591
 20
30.9204973676908
 30
0.0
 10
246.1082188173007
 20
30.84684533249161
 30
0.0
 10
246.666383917699
 20
30.81549949522845
 30
0.0
 10
247.3643424154818
 20
30.84616743187383
 30
0.0
 10
248.0885953429922
 20
30.96808492907089
 30
0.0
 10
248.8311753033834
 20
31.17471421604563
 30
0.0
 10
249.5865940610641
 20
31.46618890563471
 30
0.0
 10
250.3482409558542
 20
31.83983832407401
 30
0.0
 10
251.1100605401799
 20
32.29172812177293
 30
0.0
 10
251.8649251032718
 20
32.82069976648513
 30
0.0
 10
252.5386410649251
 20
33.35469979907236
 30
0.0
 10
252.9501584448724
 20
33.73894942460516
 30
0.0
 10
253.1210792277054
 20
33.89854474183763
 30
0.0
  0
SPLINE
  5
17A
330
1F
100
AcDbEntity
  8
0
  6
Continuous
 62
     7
370
    25
100
AcDbSpline
210
0.0
220
0.0
230
1.0
 70
     8
 71
     3
 72
    14
 73
    10
 74
     0
 42
0.000000001
 43
0.00000001
 40
0.0
 40
0.0
 40
0.0
 40
0.0
 40
0.1213193451746376
 40
0.2802220106112684
 40
0.4390371412070834
 40
0.5975548692654461
 40
0.7554872396810756
 40
0.9125111600746025
 40
1.0
 40
1.0
 40
1.0
 40
1.0
 10
258.9981212231523
 20
46.88672568168944
 30
0.0
 10
258.9899623185109
 20
47.10669120024182
 30
0.0
 10
258.9711169755882
 20
47.61476499329742
 30
0.0
 10
258.8605099850286
 20
48.36083553523927
 30
0.0
 10
258.6800136938314
 20
49.12485103381121
 30
0.0
 10
258.4305123230707
 20
49.83153114241581
 30
0.0
 10
258.113061202619
 20
50.47153175137568
 30
0.0
 10
257.7969569275447
 20
50.97027720670877
 30
0.0
 10
257.563854018167
 20
51.22463290719119
 30
0.0
 10
257.4804477243684
 20
51.31564363863357
 30
0.0
  0
LINE
  5
17B
330
1F
100
AcDbEntity
  8
0
  6
Continuous
 62
     7
370
    25
100
AcDbLine
 10
241.5083901023
 20
33.0970572811
 30
0.0
 11
244.4075279052
 21
31.4234206518
 31
0.0
  0
LINE
  5
17C
330
1F
100
AcDbEntity
  8
0
  6
Continuous
 62
     7
370
    25
100
AcDbLine
 10
256.4065526968
 20
52.208593349
 30
0.0
 11
253.5074148939
 21
53.8822299782
 31
0.0
  0
SPLINE
  5
17D
330
1F
100
AcDbEntity
  8
0
  6
Continuous
 62
     7
370
    25
100
AcDbSpline
210
0.0
220
0.0
230
1.0
 70
     8
 71
     3
 72
    14
 73
    10
 74
     0
 42
0.000000001
 43
0.00000001
 40
0.0
 40
0.0
 40
0.0
 40
0.0
 40
0.0815520110644068
 40
0.2511055651296485
 40
0.4211533965345577
 40
0.5938776966918059
 40
0.7701041333685693
 40
0.9492707774874906
 40
1.0
 40
1.0
 40
1.0
 40
1.0
 10
254.3965607465573
 20
33.17603831163844
 30
0.0
 10
254.4573040013902
 20
33.13883789886021
 30
0.0
 10
254.6443376395991
 20
33.02429466992187
 30
0.0
 10
255.0049204317176
 20
32.92204020796864
 30
0.0
 10
255.4629969515697
 20
32.86796249413573
 30
0.0
 10
255.9490710089152
 20
32.90249235098285
 30
0.0
 10
256.4545498342495
 20
33.02733337641814
 30
0.0
 10
256.8483845227407
 20
33.17001021017305
 30
0.0
 10
257.0697682587069
 20
33.2951945468145
 30
0.0
 10
257.1186191796348
 20
33.32281794066501
 30
0.0
  0
SPLINE
  5
17E
330
1F
100
AcDbEntity
  8
0
  6
Continuous
 62
     7
370
    25
100
AcDbSpline
210
0.0
220
0.0
230
1.0
 70
     8
 71
     3
 72
    14
 73
    10
 74
     0
 42
0.000000001
 43
0.00000001
 40
0.0
 40
0.0
 40
0.0
 40
0.0
 40
0.0502459534720054
 40
0.2307933503592118
 40
0.4110002448994107
 40
0.5895923557523975
 40
0.7650198338067157
 40
0.9364572516939537
 40
1.0
 40
1.0
 40
1.0
 40
1.0
 10
261.1181831824127
 20
40.25127287694688
 30
0.0
 10
261.1176945358364
 20
40.30761183153086
 30
0.0
 10
261.1154500490128
 20
40.56639199561742
 30
0.0
 10
261.0393965497402
 20
40.98893747712827
 30
0.0
 10
260.886825988294
 20
41.50457237782197
 30
0.0
 10
260.6586896061492
 20
41.957098986996
 30
0.0
 10
260.3628690411053
 20
42.3318062842379
 30
0.0
 10
260.0904483456533
 20
42.58171829558395
 30
0.0
 10
259.9044276684361
 20
42.67486451457788
 30
0.0
 10
259.8541244225765
 20
42.70005288194128
 30
0.0
  0
LINE
  5
17F
330
1F
100
AcDbEntity
  8
0
  6
Continuous
 62
     7
370
    25
100
AcDbLine
 10
248.8239899752
 20
36.3792015651
 30
0.0
 11
254.3747782075
 21
33.1747997262
 31
0.0
  0
LINE
  5
180
330
1F
100
AcDbEntity
  8
0
  6
Continuous
 62
     7
370
    25
100
AcDbLine
 10
259.874331237
 20
42.7013372123
 30
0.0
 11
254.3235430047
 21
45.9057390512
 31
0.0
  0
LINE
  5
181
330
1F
100
AcDbEntity
  8
0
  6
Continuous
 62
     7
370
    25
100
AcDbLine
 10
232.2858814463
 20
34.1055218394
 30
0.0
 11
234.5365323964
 21
32.8062487018
 31
0.0
  0
LINE
  5
182
330
1F
100
AcDbEntity
  8
0
  6
Continuous
 62
     7
370
    25
100
AcDbLine
 10
250.2727534512
 20
60.0651366452
 30
0.0
 11
248.0221025012
 21
61.3644097828
 31
0.0
  0
SPLINE
  5
183
330
1F
100
AcDbEntity
  8
0
  6
Continuous
 62
     7
370
    25
100
AcDbSpline
210
0.0
220
0.0
230
1.0
 70
     8
 71
     3
 72
    25
 73
    21
 74
     0
 42
0.000000001
 43
0.00000001
 40
0.0
 40
0.0
 40
0.0
 40
0.0
 40
0.0214797396389064
 40
0.0839471637845473
 40
0.1508103949810368
 40
0.2106607397746303
 40
0.221518571338203
 40
0.2545187016069745
 40
0.3181065172249509
 40
0.3820953327458798
 40
0.4464432488878936
 40
0.5110318329513863
 40
0.5756990790495199
 40
0.640237013404238
 40
0.7044476622244337
 40
0.7681705580755752
 40
0.8313160610820357
 40
0.8940238841156594
 40
0.956821029712435
 40
1.0
 40
1.0
 40
1.0
 40
1.0
 10
255.6829779509502
 20
35.77622841121602
 30
0.0
 10
255.6656457450316
 20
35.79006467266343
 30
0.0
 10
255.5979079812852
 20
35.84413957885021
 30
0.0
 10
255.5033639178415
 20
36.01735224562479
 30
0.0
 10
255.4139392414204
 20
36.29184848494217
 30
0.0
 10
255.3874108437926
 20
36.54302527931931
 30
0.0
 10
255.3846923104369
 20
36.74644884739105
 30
0.0
 10
255.3932268130841
 20
36.96657331223255
 30
0.0
 10
255.4444459522759
 20
37.3207693493688
 30
0.0
 10
255.5658835081559
 20
37.76558333105407
 30
0.0
 10
255.7451765767254
 20
38.2176788830726
 30
0.0
 10
255.9767379921977
 20
38.65979724940016
 30
0.0
 10
256.2522412347076
 20
39.07504631040253
 30
0.0
 10
256.5608959896682
 20
39.44760046144961
 30
0.0
 10
256.8899205380472
 20
39.763720256466
 30
0.0
 10
257.2247722964834
 20
40.01232942541267
 30
0.0
 10
257.5507287725913
 20
40.18712092602205
 30
0.0
 10
257.8500464688697
 20
40.28327225788158
 30
0.0
 10
258.0878457662693
 20
40.31107971766301
 30
0.0
 10
258.2017709935113
 20
40.28578412874181
 30
0.0
 10
258.2481887543533
 20
40.2754776792808
 30
0.0
  0
LINE
  5
184
330
1F
100
AcDbEntity
  8
0
  6
Continuous
 62
     7
370
    25
100
AcDbLine
 10
253.7526038972
 20
46.1202849244
 30
0.0
 11
253.2524851932
 21
46.2221803651
 31
0.0
  0
LINE
  5
185
330
1F
100
AcDbEntity
  8
0
  6
Continuous
 62
     7
370
    25
100
AcDbLine
 10
248.0143426627
 20
37.1484682094
 30
0.0
 11
248.3526819153
 21
36.7663321746
 31
0.0
  0
LINE
  5
186
330
1F
100
AcDbEntity
  8
0
  6
Continuous
 62
     7
370
    25
100
AcDbLine
 10
248.169020744
 20
36.9593743747
 30
0.0
 11
248.1950879624
 21
36.9443260898
 31
0.0
  0
LINE
  5
187
330
1F
100
AcDbEntity
  8
0
  6
Continuous
 62
     7
370
    25
100
AcDbLine
 10
253.5196552137
 20
46.1677464742
 30
0.0
 11
253.4935879953
 21
46.182794759
 31
0.0
  0
LINE
  5
188
330
1F
100
AcDbEntity
  8
0
  6
Continuous
 62
     7
370
    25
100
AcDbLine
 10
241.2447136283
 20
61.1442918182
 30
0.0
 11
232.0475010718
 21
65.7249444773
 31
0.0
  0
LINE
  5
189
330
1F
100
AcDbEntity
  8
0
  6
Continuous
 62
     7
370
    25
100
AcDbLine
 10
220.5211533601
 20
45.7585612158
 30
0.0
 11
229.0872536723
 21
40.0846716298
 31
0.0
  0
LINE
  5
18A
330
1F
100
AcDbEntity
  8
0
  6
Continuous
 62
     7
370
    25
100
AcDbLine
 10
225.5005909085
 20
46.7050512535
 30
0.0
 11
225.5005909085
 21
46.3397322367
 31
0.0
  0
LINE
  5
18B
330
1F
100
AcDbEntity
  8
0
  6
Continuous
 62
     7
370
    25
100
AcDbLine
 10
229.3985574094
 20
66.101912951
 30
0.0
 11
228.7590069569
 21
66.0147018856
 31
0.0
  0
LINE
  5
18C
330
1F
100
AcDbEntity
  8
0
  6
Continuous
 62
     7
370
    25
100
AcDbLine
 10
259.8890947535
 20
46.3708740837
 30
0.0
 11
259.9300880566
 21
46.3487126806
 31
0.0
  0
LWPOLYLINE
  5
18D
330
1F
100
AcDbEntity
  8
0
  6
Continuous
 62
     7
370
    25
100
AcDbPolyline
 90
       11
 70
   128
 43
0.0
 10
255.3430101334
 20
45.353316218
 10
255.4002388261
 20
45.4939064662
 10
255.6345149637
 20
45.9592037991
 10
255.9230966029
 20
46.3923915254
 10
256.2533713415
 20
46.7745372629
 10
256.6109045883
 20
47.088939409
 10
256.980070425
 20
47.3218570814
 10
257.344734533
 20
47.4631106599
 10
257.6889593409
 20
47.5065266856
 10
257.9977005729
 20
47.4502076697
 10
258.1269657646
 20
47.3896330232
  0
ARC
  5
18E
330
1F
100
AcDbEntity
  8
0
  6
Continuous
 62
     7
370
    25
100
AcDbCircle
 10
259.8436218757
 20
43.5101640267
 30
0.0
 40
1.80646174870708
100
AcDbArc
 50
124.7691922334
 51
160.8321814682
  0
LINE
  5
18F
330
1F
100
AcDbEntity
  8
0
  6
Continuous
 62
     7
370
    25
100
AcDbLine
 10
258.1316774071
 20
44.0958716435
 30
0.0
 11
258.1373086743
 21
44.1032907488
 31
0.0
  0
LINE
  5
190
330
1F
100
AcDbEntity
  8
0
  6
Continuous
 62
     7
370
    25
100
AcDbLine
 10
258.1316774071
 20
44.0958716435
 30
0.0
 11
258.1319877871
 21
44.0883351279
 31
0.0
  0
ARC
  5
191
330
1F
100
AcDbEntity
  8
0
  6
Continuous
 62
     7
370
    25
100
AcDbCircle
 10
259.6035056971
 20
43.5617919779
 30
0.0
 40
1.562885999798184
100
AcDbArc
 50
160.3116155746
 51
172.9678804477
  0
ARC
  5
192
330
1F
100
AcDbEntity
  8
0
  6
Continuous
 62
     7
370
    25
100
AcDbCircle
 10
257.8386548313
 20
44.6705166478
 30
0.0
 40
1.842152537726721
100
AcDbArc
 50
308.0842590751
 51
340.6383484293
  0
LINE
  5
193
330
1F
100
AcDbEntity
  8
0
  6
Continuous
 62
     7
370
    25
100
AcDbLine
 10
259.5822552652
 20
44.0672073779
 30
0.0
 11
259.576623998
 21
44.0597882727
 31
0.0
  0
LINE
  5
194
330
1F
100
AcDbEntity
  8
0
  6
Continuous
 62
     7
370
    25
100
AcDbLine
 10
259.5822552652
 20
44.0672073779
 30
0.0
 11
259.5819448852
 21
44.0747438936
 31
0.0
  0
ARC
  5
195
330
1F
100
AcDbEntity
  8
0
  6
Continuous
 62
     7
370
    25
100
AcDbCircle
 10
258.6912307304
 20
44.4912782538
 30
0.0
 40
0.9832967907680106
100
AcDbArc
 50
334.937286952
 51
29.7793272228
  0
LINE
  5
196
330
1F
100
AcDbEntity
  8
0
  6
Continuous
 62
     7
370
    25
100
AcDbLine
 10
259.5443675975
 20
44.9871797716
 30
0.0
 11
259.5446779774
 21
44.979643256
 31
0.0
  0
LINE
  5
197
330
1F
100
AcDbEntity
  8
0
  6
Continuous
 62
     7
370
    25
100
AcDbLine
 10
259.5443675975
 20
44.9871797716
 30
0.0
 11
259.5384259503
 21
44.9872971821
 31
0.0
  0
ARC
  5
198
330
1F
100
AcDbEntity
  8
0
  6
Continuous
 62
     7
370
    25
100
AcDbCircle
 10
259.1739669596
 20
44.6018385421
 30
0.0
 40
0.5304797065117149
100
AcDbArc
 50
46.6040120639
 51
131.1318864728
  0
LINE
  5
199
330
1F
100
AcDbEntity
  8
0
  6
Continuous
 62
     7
370
    25
100
AcDbLine
 10
258.8190786685
 20
45.0015119044
 30
0.0
 11
258.8250203156
 21
45.001394494
 31
0.0
  0
LINE
  5
19A
330
1F
100
AcDbEntity
  8
0
  6
Continuous
 62
     7
370
    25
100
AcDbLine
 10
258.8190786685
 20
45.0015119044
 30
0.0
 11
258.8134474013
 21
44.9940927992
 31
0.0
  0
SPLINE
  5
19B
330
1F
100
AcDbEntity
  8
0
  6
Continuous
 62
     7
370
    25
100
AcDbSpline
210
0.0
220
0.0
230
1.0
 70
     8
 71
     3
 72
    11
 73
     7
 74
     0
 42
0.000000001
 43
0.00000001
 40
0.0
 40
0.0
 40
0.0
 40
0.0
 40
0.1788055658568531
 40
0.4136896815989557
 40
0.7458973703837896
 40
1.0
 40
1.0
 40
1.0
 40
1.0
 10
258.8421906627499
 20
45.00918096528267
 30
0.0
 10
258.8613897699855
 20
45.01962555712434
 30
0.0
 10
258.9058093747177
 20
45.04379046414335
 30
0.0
 10
259.0421502149298
 20
45.06254365341271
 30
0.0
 10
259.2652030620524
 20
45.04383782408524
 30
0.0
 10
259.4558157828367
 20
45.00439249913031
 30
0.0
 10
259.5384259503017
 20
44.98729718205581
 30
0.0
  0
LINE
  5
19C
330
1F
100
AcDbEntity
  8
0
  6
Continuous
 62
     7
370
    25
100
AcDbLine
 10
258.5873231162
 20
44.6415694819
 30
0.0
 11
258.55913897
 21
44.76862377
 31
0.0
  0
SPLINE
  5
19D
330
1F
100
AcDbEntity
  8
0
  6
Continuous
 62
     7
370
    25
100
AcDbSpline
210
0.0
220
0.0
230
1.0
 70
     8
 71
     3
 72
     9
 73
     5
 74
     0
 42
0.000000001
 43
0.00000001
 40
0.0
 40
0.0
 40
0.0
 40
0.0
 40
0.7905659854006978
 40
0.9999999999999999
 40
0.9999999999999999
 40
0.9999999999999999
 40
0.9999999999999999
 10
258.2019931282634
 20
44.23213006853138
 30
0.0
 10
258.2941499816125
 20
44.34869862465891
 30
0.0
 10
258.4107207107496
 20
44.4961481206911
 30
0.0
 10
258.5567414140631
 20
44.61638730648164
 30
0.0
 10
258.5873231161727
 20
44.64156948187391
 30
0.0
  0
SPLINE
  5
19E
330
1F
100
AcDbEntity
  8
0
  6
Continuous
 62
     7
370
    25
100
AcDbSpline
210
0.0
220
0.0
230
1.0
 70
     8
 71
     3
 72
    11
 73
     7
 74
     0
 42
0.000000001
 43
0.00000001
 40
0.0
 40
0.0
 40
0.0
 40
0.0
 40
0.2167206959453239
 40
0.4407600452913348
 40
0.7576294692110294
 40
1.0
 40
1.0
 40
1.0
 40
1.0
 10
259.5446779774483
 20
44.979643255968
 30
0.0
 10
259.5223253701484
 20
44.9318862385505
 30
0.0
 10
259.4768653084646
 20
44.83475945022926
 30
0.0
 10
259.4444373494286
 20
44.62343848102812
 30
0.0
 10
259.4808055921047
 20
44.35783968071603
 30
0.0
 10
259.5513649656558
 20
44.1603391763624
 30
0.0
 10
259.5819448851978
 20
44.07474389357145
 30
0.0
  0
LINE
  5
19F
330
1F
100
AcDbEntity
  8
0
  6
Continuous
 62
     7
370
    25
100
AcDbLine
 10
258.5873231162
 20
44.6415694819
 30
0.0
 11
259.5822552652
 21
44.0672073779
 31
0.0
  0
SPLINE
  5
1A0
330
1F
100
AcDbEntity
  8
0
  6
Continuous
 62
     7
370
    25
100
AcDbSpline
210
0.0
220
0.0
230
1.0
 70
     8
 71
     3
 72
    11
 73
     7
 74
     0
 42
0.000000001
 43
0.00000001
 40
0.0
 40
0.0
 40
0.0
 40
0.0
 40
0.1405540532985241
 40
0.5238722746334468
 40
0.8902446079068846
 40
1.0
 40
1.0
 40
1.0
 40
1.0
 10
259.5766239979522
 20
44.0597882726505
 30
0.0
 10
259.5338099240032
 20
44.03236313915785
 30
0.0
 10
259.3742335490813
 20
43.93014433630051
 30
0.0
 10
259.1291028196335
 20
43.7079094264107
 30
0.0
 10
258.9793010905101
 20
43.43709491945227
 30
0.0
 10
258.9353424019744
 20
43.28444261316339
 30
0.0
 10
258.925209190151
 20
43.24925370725005
 30
0.0
  0
LWPOLYLINE
  5
1A1
330
1F
100
AcDbEntity
  8
0
  6
Continuous
 62
     7
370
    25
100
AcDbPolyline
 90
        3
 70
   128
 43
0.0
 10
247.5037250947
 20
39.2327583132
 10
247.5379909467
 20
39.2150898621
 10
247.5557193859
 20
39.2051417022
  0
LWPOLYLINE
  5
1A2
330
1F
100
AcDbEntity
  8
0
  6
Continuous
 62
     7
370
    25
100
AcDbPolyline
 90
        8
 70
   128
 43
0.0
 10
243.6779206375
 20
39.4103549077
 10
244.0210278367
 20
39.7669908207
 10
244.385186363
 20
40.0499382174
 10
244.7544807413
 20
40.2468309388
 10
245.1127710353
 20
40.3490638282
 10
245.4443982398
 20
40.3521688179
 10
245.7348686547
 20
40.2560102047
 10
245.7525970939
 20
40.2460620448
  0
LWPOLYLINE
  5
1A3
330
1F
100
AcDbEntity
  8
0
  6
Continuous
 62
     7
370
    25
100
AcDbPolyline
 90
       10
 70
   128
 43
0.0
 10
243.2528002623
 20
35.9158177329
 10
243.0339100271
 20
36.097089196
 10
242.8614844649
 20
36.375012614
 10
242.7607878392
 20
36.7274932398
 10
242.7362210758
 20
37.1391259787
 10
242.7888578601
 20
37.5919205048
 10
242.9163977121
 20
38.0660875246
 10
243.1132665281
 20
38.540903664
 10
243.3708601964
 20
38.9956171792
 10
243.6779206375
 20
39.4103549077
  0
ARC
  5
1A4
330
1F
100
AcDbEntity
  8
0
  6
Continuous
 62
     7
370
    25
100
AcDbCircle
 10
245.5581784987
 20
37.4634398755
 30
0.0
 40
1.730552181318843
100
AcDbArc
 50
301.3039269882
 51
338.4430097699
  0
LINE
  5
1A5
330
1F
100
AcDbEntity
  8
0
  6
Continuous
 62
     7
370
    25
100
AcDbLine
 10
247.1735991701
 20
36.8346082366
 30
0.0
 11
247.1676829869
 21
36.8275891426
 31
0.0
  0
LINE
  5
1A6
330
1F
100
AcDbEntity
  8
0
  6
Continuous
 62
     7
370
    25
100
AcDbLine
 10
247.1735991701
 20
36.8346082366
 30
0.0
 11
247.1738545925
 21
36.8424740696
 31
0.0
  0
ARC
  5
1A7
330
1F
100
AcDbEntity
  8
0
  6
Continuous
 62
     7
370
    25
100
AcDbCircle
 10
246.1877568025
 20
37.3472129855
 30
0.0
 40
1.107768127746033
100
AcDbArc
 50
332.894144075
 51
23.3861009902
  0
LINE
  5
1A8
330
1F
100
AcDbEntity
  8
0
  6
Continuous
 62
     7
370
    25
100
AcDbLine
 10
247.2047782424
 20
37.794779956
 30
0.0
 11
247.20452282
 21
37.786914123
 31
0.0
  0
LINE
  5
1A9
330
1F
100
AcDbEntity
  8
0
  6
Continuous
 62
     7
370
    25
100
AcDbLine
 10
247.2047782424
 20
37.794779956
 30
0.0
 11
247.1991174816
 21
37.795626695
 31
0.0
  0
ARC
  5
1AA
330
1F
100
AcDbEntity
  8
0
  6
Continuous
 62
     7
370
    25
100
AcDbCircle
 10
246.8083213231
 20
37.5057994296
 30
0.0
 40
0.4865403182576115
100
AcDbArc
 50
36.561845554
 51
126.4236483808
  0
LINE
  5
1AB
330
1F
100
AcDbEntity
  8
0
  6
Continuous
 62
     7
370
    25
100
AcDbLine
 10
246.5137767377
 20
37.8981402517
 30
0.0
 11
246.5194374985
 21
37.8972935127
 31
0.0
  0
LINE
  5
1AC
330
1F
100
AcDbEntity
  8
0
  6
Continuous
 62
     7
370
    25
100
AcDbLine
 10
246.5137767377
 20
37.8981402517
 30
0.0
 11
246.5078605545
 21
37.8911211577
 31
0.0
  0
ARC
  5
1AD
330
1F
100
AcDbEntity
  8
0
  6
Continuous
 62
     7
370
    25
100
AcDbCircle
 10
247.4070168321
 20
36.4124971891
 30
0.0
 40
1.730552181318759
100
AcDbArc
 50
121.3039269882
 51
158.4430097699
  0
LINE
  5
1AE
330
1F
100
AcDbEntity
  8
0
  6
Continuous
 62
     7
370
    25
100
AcDbLine
 10
245.7915961606
 20
37.0413288279
 30
0.0
 11
245.7975123439
 21
37.048347922
 31
0.0
  0
LINE
  5
1AF
330
1F
100
AcDbEntity
  8
0
  6
Continuous
 62
     7
370
    25
100
AcDbLine
 10
245.7915961606
 20
37.0413288279
 30
0.0
 11
245.7913407382
 21
37.0334629949
 31
0.0
  0
ARC
  5
1B0
330
1F
100
AcDbEntity
  8
0
  6
Continuous
 62
     7
370
    25
100
AcDbCircle
 10
246.7774385283
 20
36.528724079
 30
0.0
 40
1.107768127746071
100
AcDbArc
 50
152.894144075
 51
203.3861009902
  0
LINE
  5
1B1
330
1F
100
AcDbEntity
  8
0
  6
Continuous
 62
     7
370
    25
100
AcDbLine
 10
245.7604170883
 20
36.0811571085
 30
0.0
 11
245.7606725107
 21
36.0890229415
 31
0.0
  0
LINE
  5
1B2
330
1F
100
AcDbEntity
  8
0
  6
Continuous
 62
     7
370
    25
100
AcDbLine
 10
245.7604170883
 20
36.0811571085
 30
0.0
 11
245.7660778491
 21
36.0803103695
 31
0.0
  0
ARC
  5
1B3
330
1F
100
AcDbEntity
  8
0
  6
Continuous
 62
     7
370
    25
100
AcDbCircle
 10
246.1568740076
 20
36.370137635
 30
0.0
 40
0.4865403182575629
100
AcDbArc
 50
216.561845554
 51
306.4236483808
  0
LINE
  5
1B4
330
1F
100
AcDbEntity
  8
0
  6
Continuous
 62
     7
370
    25
100
AcDbLine
 10
246.4514185931
 20
35.9777968128
 30
0.0
 11
246.4457578323
 21
35.9786435518
 31
0.0
  0
LINE
  5
1B5
330
1F
100
AcDbEntity
  8
0
  6
Continuous
 62
     7
370
    25
100
AcDbLine
 10
246.4514185931
 20
35.9777968128
 30
0.0
 11
246.4573347763
 21
35.9848159068
 31
0.0
  0
SPLINE
  5
1B6
330
1F
100
AcDbEntity
  8
0
  6
Continuous
 62
     7
370
    25
100
AcDbSpline
210
0.0
220
0.0
230
1.0
 70
     8
 71
     3
 72
     9
 73
     5
 74
     0
 42
0.000000001
 43
0.00000001
 40
0.0
 40
0.0
 40
0.0
 40
0.0
 40
0.6000889748104118
 40
1.0
 40
1.0
 40
1.0
 40
1.0
 10
245.7606725107324
 20
36.08902294148303
 30
0.0
 10
245.7365951836762
 20
36.16870471015148
 30
0.0
 10
245.6964722551325
 20
36.30148796732369
 30
0.0
 10
245.6847453929481
 20
36.42791688711102
 30
0.0
 10
245.6800556914697
 20
36.47847720603676
 30
0.0
  0
SPLINE
  5
1B7
330
1F
100
AcDbEntity
  8
0
  6
Continuous
 62
     7
370
    25
100
AcDbSpline
210
0.0
220
0.0
230
1.0
 70
     8
 71
     3
 72
    11
 73
     7
 74
     0
 42
0.000000001
 43
0.00000001
 40
0.0
 40
0.0
 40
0.0
 40
0.0
 40
0.216720695945302
 40
0.4407600452912923
 40
0.7576294692109932
 40
1.0
 40
1.0
 40
1.0
 40
1.0
 10
246.5194374985022
 20
37.89729351273617
 30
0.0
 10
246.541198532737
 20
37.90469339343079
 30
0.0
 10
246.5854554708809
 20
37.91974304863739
 30
0.0
 10
246.7203174124415
 20
37.91759075564148
 30
0.0
 10
246.9345657476539
 20
37.87440193552743
 30
0.0
 10
247.1191290766136
 20
37.81944474281397
 30
0.0
 10
247.19911748164
 20
37.79562669502163
 30
0.0
  0
LINE
  5
1B8
330
1F
100
AcDbEntity
  8
0
  6
Continuous
 62
     7
370
    25
100
AcDbLine
 10
245.6873164116
 20
36.418903613
 30
0.0
 11
246.4514185931
 21
35.9777968128
 31
0.0
  0
SPLINE
  5
1B9
330
1F
100
AcDbEntity
  8
0
  6
Continuous
 62
     7
370
    25
100
AcDbSpline
210
0.0
220
0.0
230
1.0
 70
     8
 71
     3
 72
    11
 73
     7
 74
     0
 42
0.000000001
 43
0.00000001
 40
0.0
 40
0.0
 40
0.0
 40
0.0
 40
0.2167206959453033
 40
0.4407600452912914
 40
0.7576294692109927
 40
1.0
 40
1.0
 40
1.0
 40
1.0
 10
246.4457578322641
 20
35.97864355179162
 30
0.0
 10
246.3741734466029
 20
36.00000607965035
 30
0.0
 10
246.2285872720635
 20
36.04345254748989
 30
0.0
 10
246.0094601646062
 20
36.0942500853148
 30
0.0
 10
245.8473103755355
 20
36.10736305492379
 30
0.0
 10
245.7906388683486
 20
36.08848987045152
 30
0.0
 10
245.7660778491263
 20
36.08031036950616
 30
0.0
  0
LINE
  5
1BA
330
1F
100
AcDbEntity
  8
0
  6
Continuous
 62
     7
370
    25
100
AcDbLine
 10
246.1786670211
 20
37.4089703406
 30
0.0
 11
246.1524105806
 21
37.5852366898
 31
0.0
  0
SPLINE
  5
1BB
330
1F
100
AcDbEntity
  8
0
  6
Continuous
 62
     7
370
    25
100
AcDbSpline
210
0.0
220
0.0
230
1.0
 70
     8
 71
     3
 72
     9
 73
     5
 74
     0
 42
0.000000001
 43
0.00000001
 40
0.0
 40
0.0
 40
0.0
 40
0.0
 40
0.0715684172740429
 40
1.0
 40
1.0
 40
1.0
 40
1.0
 10
245.8206815370835
 20
37.08935632461932
 30
0.0
 10
245.8270562109714
 20
37.09841200799704
 30
0.0
 10
245.9161272583792
 20
37.22494384595904
 30
0.0
 10
246.0522688592074
 20
37.32037191104936
 30
0.0
 10
246.1786670211392
 20
37.40897034055764
 30
0.0
  0
SPLINE
  5
1BC
330
1F
100
AcDbEntity
  8
0
  6
Continuous
 62
     7
370
    25
100
AcDbSpline
210
0.0
220
0.0
230
1.0
 70
     8
 71
     3
 72
    11
 73
     7
 74
     0
 42
0.000000001
 43
0.00000001
 40
0.0
 40
0.0
 40
0.0
 40
0.0
 40
0.2167206959453244
 40
0.4407600452913351
 40
0.7576294692110292
 40
1.0
 40
1.0
 40
1.0
 40
1.0
 10
247.2045228200339
 20
37.78691412304476
 30
0.0
 10
247.1775051984023
 20
37.73644189957277
 30
0.0
 10
247.1225575706177
 20
37.63379300669046
 30
0.0
 10
247.0724387169581
 20
37.41217530080753
 30
0.0
 10
247.0899961529958
 20
37.1356279347587
 30
0.0
 10
247.1484996166885
 20
36.93111045744173
 30
0.0
 10
247.1738545925424
 20
36.8424740695807
 30
0.0
  0
LINE
  5
1BD
330
1F
100
AcDbEntity
  8
0
  6
Continuous
 62
     7
370
    25
100
AcDbLine
 10
246.1786670211
 20
37.4089703406
 30
0.0
 11
247.1735991701
 21
36.8346082366
 31
0.0
  0
SPLINE
  5
1BE
330
1F
100
AcDbEntity
  8
0
  6
Continuous
 62
     7
370
    25
100
AcDbSpline
210
0.0
220
0.0
230
1.0
 70
     8
 71
     3
 72
    11
 73
     7
 74
     0
 42
0.000000001
 43
0.00000001
 40
0.0
 40
0.0
 40
0.0
 40
0.0
 40
0.1784096620104824
 40
0.5165279347308886
 40
0.8702852551650553
 40
0.9999999999999999
 40
0.9999999999999999
 40
0.9999999999999999
 40
0.9999999999999999
 10
247.1676829869149
 20
36.82758914257249
 30
0.0
 10
247.1070450405321
 20
36.79219393601426
 30
0.0
 10
246.9314873220854
 20
36.68971847175484
 30
0.0
 10
246.6697350610895
 20
36.45950257622109
 30
0.0
 10
246.5217348596881
 20
36.18863589047064
 30
0.0
 10
246.4709580966967
 20
36.02793238737257
 30
0.0
 10
246.4573347762856
 20
35.98481590682297
 30
0.0
  0
LWPOLYLINE
  5
1BF
330
1F
100
AcDbEntity
  8
0
  6
Continuous
 62
     7
370
    25
100
AcDbPolyline
 90
       21
 70
   128
 43
0.0
 10
260.4678950718
 20
40.6266762125
 10
260.3836991748
 20
40.6713514985
 10
260.0150606128
 20
40.7898689725
 10
259.6042238415
 20
40.809440752
 10
259.1623954171
 20
40.7295329699
 10
258.7016272672
 20
40.5523253022
 10
258.2344879458
 20
40.2826515121
 10
257.7737197959
 20
39.9278675977
 10
257.3318913715
 20
39.4976511393
 10
256.9210546002
 20
39.0037373203
 10
256.5524160382
 20
38.4595988223
 10
256.2360311845
 20
37.8800783249
 10
255.9805301931
 20
37.2809836367
 10
255.792882465
 20
36.678656499
 10
255.6782065412
 20
36.089526826
 10
255.6396304817
 20
35.5296645394
 10
255.6782065412
 20
35.0143412229
 10
255.792882465
 20
34.5576135533
 10
255.9805301931
 20
34.1719398709
 10
256.2360311845
 20
33.8678403482
 10
256.4682201412
 20
33.6982853135
  0
LINE
  5
1C0
330
1F
100
AcDbEntity
  8
0
  6
Continuous
 62
     7
370
    25
100
AcDbLine
 10
262.0035915124
 20
37.034287942
 30
0.0
 11
260.5690486301
 21
35.2497302343
 31
0.0
  0
LINE
  5
1C1
330
1F
100
AcDbEntity
  8
0
  6
Continuous
 62
     7
370
    25
100
AcDbLine
 10
260.5690486301
 20
35.2497302343
 30
0.0
 11
260.5690486301
 21
33.3369027758
 31
0.0
  0
LINE
  5
1C2
330
1F
100
AcDbEntity
  8
0
  6
Continuous
 62
     7
370
    25
100
AcDbLine
 10
262.0035915124
 20
33.208633025
 30
0.0
 11
260.5690486301
 21
33.3369027758
 31
0.0
  0
LINE
  5
1C3
330
1F
100
AcDbEntity
  8
0
  6
Continuous
 62
     7
370
    25
100
AcDbLine
 10
263.4381343948
 20
34.9931907326
 30
0.0
 11
262.0035915124
 21
33.208633025
 31
0.0
  0
LINE
  5
1C4
330
1F
100
AcDbEntity
  8
0
  6
Continuous
 62
     7
370
    25
100
AcDbLine
 10
263.4381343948
 20
34.9931907326
 30
0.0
 11
263.4381343948
 21
36.9060181911
 31
0.0
  0
LINE
  5
1C5
330
1F
100
AcDbEntity
  8
0
  6
Continuous
 62
     7
370
    25
100
AcDbLine
 10
262.0035915124
 20
37.034287942
 30
0.0
 11
263.4381343948
 21
36.9060181911
 31
0.0
  0
ARC
  5
1C6
330
1F
100
AcDbEntity
  8
0
  6
Continuous
 62
     7
370
    25
100
AcDbCircle
 10
258.4169248274
 20
37.1943827896
 30
0.0
 40
3.275565688289314
100
AcDbArc
 50
320.7388654237
 51
349.071381867
  0
ARC
  5
1C7
330
1F
100
AcDbEntity
  8
0
  6
Continuous
 62
     7
370
    25
100
AcDbCircle
 10
258.6649419605
 20
36.9432194991
 30
0.0
 40
2.924823921446331
100
AcDbArc
 50
310.6182348735
 51
321.4736680657
  0
LINE
  5
1C8
330
1F
100
AcDbEntity
  8
0
  6
Continuous
 62
     7
370
    25
100
AcDbLine
 10
260.5690486301
 20
34.0367770034
 30
0.0
 11
262.0035915124
 21
33.208633025
 31
0.0
  0
LINE
  5
1C9
330
1F
100
AcDbEntity
  8
0
  6
Continuous
 62
     7
370
    25
100
AcDbLine
 10
261.6703674418
 20
36.0137008724
 30
0.0
 11
263.4381343948
 21
34.9931907326
 31
0.0
  0
LINE
  5
1CA
330
1F
100
AcDbEntity
  8
0
  6
Continuous
 62
     7
370
    25
100
AcDbLine
 10
261.6703674418
 20
36.0137008724
 30
0.0
 11
261.6703674418
 21
36.619760366
 31
0.0
  0
LINE
  5
1CB
330
1F
100
AcDbEntity
  8
0
  6
Continuous
 62
     7
370
    25
100
AcDbLine
 10
260.9530960006
 20
35.1214220186
 30
0.0
 11
260.5690486301
 21
34.6436707407
 31
0.0
  0
LINE
  5
1CC
330
1F
100
AcDbEntity
  8
0
  6
Continuous
 62
     7
370
    25
100
AcDbLine
 10
261.6703674418
 20
36.0137008724
 30
0.0
 11
260.9530960006
 21
35.1214220186
 31
0.0
  0
LWPOLYLINE
  5
1CD
330
1F
100
AcDbEntity
  8
0
  6
Continuous
 62
     7
370
    25
100
AcDbPolyline
 90
       39
 70
   128
 43
0.0
 10
235.3191493574
 20
37.6778383836
 10
235.3561771688
 20
38.7466337293
 10
235.4670141888
 20
39.8510678193
 10
235.6509228156
 20
40.9837908269
 10
235.9066791674
 20
42.1372646675
 10
236.2325812279
 20
43.3038131629
 10
236.6264601728
 20
44.4756731253
 10
237.0856948025
 20
45.6450460201
 10
237.6072289865
 20
46.8041498636
 10
238.1875920008
 20
47.945271011
 10
238.8229216253
 20
49.0608154892
 10
239.5089898461
 20
50.1433595338
 10
240.2412309924
 20
51.1856989928
 10
241.0147721202
 20
52.1808972691
 10
241.824465441
 20
53.1223314823
 10
242.6649225792
 20
54.0037365432
 10
243.5305504313
 20
54.8192468463
 10
244.4155883867
 20
55.5634353053
 10
245.3141466639
 20
56.2313494687
 10
246.2202455058
 20
56.8185444779
 10
247.1278549741
 20
57.3211126471
 10
248.0309350775
 20
57.7357094679
 10
248.9234759669
 20
58.059575867
 10
249.79953793
 20
58.2905565668
 10
250.653290919
 20
58.4271144291
 10
251.4790533485
 20
58.4683406836
 10
252.2713299059
 20
58.4139609765
 10
253.0248481213
 20
58.2643371958
 10
253.7345934554
 20
58.020465063
 10
254.39584267
 20
57.6839675069
 10
255.0041952608
 20
57.2570838633
 10
255.5556027416
 20
56.7426549724
 10
256.0463955866
 20
56.1441042736
 10
256.4733076504
 20
55.4654150229
 10
256.8334979037
 20
54.7111037855
 10
257.1245693397
 20
53.8861903781
 10
257.3445849261
 20
52.9961644634
 10
257.4920804954
 20
52.046949017
 10
257.557880607
 20
51.2354401815
  0
LWPOLYLINE
  5
1CE
330
1F
100
AcDbEntity
  8
0
  6
Continuous
 62
     7
370
    25
100
AcDbPolyline
 90
       20
 70
   128
 43
0.0
 10
245.7751889605
 20
30.8871261185
 10
245.3141466639
 20
30.6643055533
 10
244.4155883867
 20
30.2947664126
 10
243.5305504313
 20
30.0171117988
 10
242.6649225792
 20
29.8331894574
 10
241.824465441
 20
29.7442233614
 10
241.0147721202
 20
29.7508055654
 10
240.2412309924
 20
29.8528922659
 10
239.5089898461
 20
30.0498040929
 10
238.8229216253
 20
30.3402306304
 10
238.1875920008
 20
30.722239138
 10
237.6072289865
 20
31.1932874119
 10
237.0856948025
 20
31.7502407037
 10
236.6264601728
 20
32.389392581
 10
236.2325812279
 20
33.1064895937
 10
235.9066791674
 20
33.8967595793
 10
235.6509228156
 20
34.7549434215
 10
235.4670141888
 20
35.6753300484
 10
235.3561771688
 20
36.6517944389
 10
235.3191493574
 20
37.6778383836
  0
SPLINE
  5
1CF
330
1F
100
AcDbEntity
  8
0
  6
Continuous
 62
     7
370
    25
100
AcDbSpline
210
0.0
220
0.0
230
1.0
 70
     8
 71
     3
 72
    25
 73
    21
 74
     0
 42
0.000000001
 43
0.00000001
 40
0.0
 40
0.0
 40
0.0
 40
0.0
 40
0.1249999999999985
 40
0.1249999999999985
 40
0.2499999999999971
 40
0.2499999999999971
 40
0.3749999999999956
 40
0.3749999999999956
 40
0.4999999999999941
 40
0.4999999999999941
 40
0.562499999999995
 40
0.562499999999995
 40
0.624999999999996
 40
0.6874999999999969
 40
0.6874999999999969
 40
0.7499999999999978
 40
0.7499999999999978
 40
0.8749999999999989
 40
0.8749999999999989
 40
1.0
 40
1.0
 40
1.0
 40
1.0
 10
240.1527382024676
 20
54.10965297917367
 30
0.0
 10
240.1818615007286
 20
53.99846745864449
 30
0.0
 10
240.1942505415878
 20
53.88322524621645
 30
0.0
 10
240.1872730564876
 20
53.64412967838066
 30
0.0
 10
240.1672554686355
 20
53.51935570850539
 30
0.0
 10
240.0970333109223
 20
53.27298679929297
 30
0.0
 10
240.0463826563286
 20
53.14877565193184
 30
0.0
 10
239.9164679126734
 20
52.90514715662169
 30
0.0
 10
239.8387669646842
 20
52.78809006156352
 30
0.0
 10
239.703393382458
 20
52.61943354371348
 30
0.0
 10
239.6547588851509
 20
52.56406652244132
 30
0.0
 10
239.5533195497689
 20
52.45834671104431
 30
0.0
 10
239.4474495670282
 20
52.35718575242386
 30
0.0
 10
239.3328577747007
 20
52.26501143074707
 30
0.0
 10
239.2137751054825
 20
52.17747458800694
 30
0.0
 10
239.1518170924251
 20
52.13597611849475
 30
0.0
 10
238.9639533889045
 20
52.02185579675665
 30
0.0
 10
238.8345759525505
 20
51.95824836564206
 30
0.0
 10
238.5668926994884
 20
51.85698006466783
 30
0.0
 10
238.4310210130234
 20
51.82043915644303
 30
0.0
 10
238.2955037462958
 20
51.79927097209296
 30
0.0
  0
LWPOLYLINE
  5
1D0
330
1F
100
AcDbEntity
  8
0
  6
Continuous
 62
     7
370
    25
100
AcDbPolyline
 90
       16
 70
   128
 43
0.0
 10
240.1527382025
 20
54.1096529792
 10
241.0158816817
 20
55.0120975801
 10
241.9052702782
 20
55.8449261324
 10
242.8146734404
 20
56.6023043119
 10
243.737720406
 20
57.2789263572
 10
244.667944832
 20
57.8700522384
 10
245.5988300943
 20
58.3715408631
 10
246.5238549391
 20
58.7798790868
 10
247.4365391677
 20
59.0922063236
 10
248.3304890323
 20
59.3063345863
 10
249.1994420278
 20
59.4207638138
 10
250.0373107628
 20
59.4346923799
 10
250.8382256047
 20
59.348022709
 10
251.5965757988
 20
59.1613619596
 10
252.3070487741
 20
58.876017771
 10
252.6303873287
 20
58.7041035781
  0
LWPOLYLINE
  5
1D1
330
1F
100
AcDbEntity
  8
0
  6
Continuous
 62
     7
370
    25
100
AcDbPolyline
 90
       22
 70
   128
 43
0.0
 10
236.8941662738
 20
31.4452156347
 10
236.3251319778
 20
31.825078031
 10
235.7523086979
 20
32.3314725109
 10
235.241591403
 20
32.9257061684
 10
234.7965004831
 20
33.6036829325
 10
234.4201039634
 20
34.3607294889
 10
234.1149963566
 20
35.1916274924
 10
233.8832807788
 20
36.0906495379
 10
233.7265544524
 20
37.0515986388
 10
233.645897697
 20
38.0678509438
 10
233.6418664819
 20
39.1324013947
 10
233.7144885944
 20
40.2379120128
 10
233.8632634481
 20
41.3767624796
 10
234.0871655334
 20
42.5411026641
 10
234.3846514864
 20
43.722906734
 10
234.7536707273
 20
44.9140284776
 10
235.1916795952
 20
46.1062574565
 10
235.6956588817
 20
47.2913755999
 10
236.2621346421
 20
48.4612138524
 10
236.8872021418
 20
49.6077084831
 10
237.5665527714
 20
50.7229566696
 10
238.2955037463
 20
51.7992709721
  0
ARC
  5
1D2
330
1F
100
AcDbEntity
  8
0
  6
Continuous
 62
     7
370
    25
100
AcDbCircle
 10
254.3556575835
 20
48.6556839499
 30
0.0
 40
4.100696878384942
100
AcDbArc
 50
41.5812328061
 51
77.9953577428
  0
ARC
  5
1D3
330
1F
100
AcDbEntity
  8
0
  6
Continuous
 62
     7
370
    25
100
AcDbCircle
 10
246.4551914577
 20
34.9703152838
 30
0.0
 40
4.094175856897007
100
AcDbArc
 50
222.0361609402
 51
258.1775134622
  0
LWPOLYLINE
  5
1D4
330
1F
100
AcDbEntity
  8
0
  6
Continuous
 62
     7
370
    25
100
AcDbPolyline
 90
       23
 70
   128
 43
0.0
 10
246.2567723388
 20
39.9550078711
 10
246.3414650799
 20
40.4592013242
 10
246.5229825113
 20
41.1952999157
 10
246.7729203337
 20
41.9389094207
 10
247.087174575
 20
42.6778197915
 10
247.4605851893
 20
43.3998981405
 10
247.8870207846
 20
44.093287961
 10
248.3594793002
 20
44.7466038113
 10
248.8702029803
 20
45.3491182633
 10
249.4108057563
 20
45.8909380464
 10
249.9724109454
 20
46.3631664946
 10
250.5457970061
 20
46.7580496298
 10
251.1215489551
 20
47.0691034821
 10
251.6902129612
 20
47.2912205555
 10
252.2424515772
 20
47.4207536941
 10
252.7691970604
 20
47.4555759672
 10
253.2618002643
 20
47.395115594
 10
253.7121726582
 20
47.2403653322
 10
254.1129191396
 20
46.9938661769
 10
254.4574594624
 20
46.6596656373
 10
254.7401362841
 20
46.2432512771
 10
254.9563080591
 20
45.7514606085
 10
255.0341539435
 20
45.4955120882
  0
ARC
  5
1D5
330
1F
100
AcDbEntity
  8
0
  6
Continuous
 62
     7
370
    25
100
AcDbCircle
 10
248.7361517402
 20
38.5170957121
 30
0.0
 40
2.670288799861571
100
AcDbArc
 50
243.7775655172
 51
287.398288745
  0
LWPOLYLINE
  5
1D6
330
1F
100
AcDbEntity
  8
0
  6
Continuous
 62
     7
370
    25
100
AcDbPolyline
 90
       43
 70
   128
 43
0.0
 10
235.6705317472
 20
32.3178453504
 10
234.9637966191
 20
32.5850329042
 10
234.3076148576
 20
32.9463223185
 10
233.7064445841
 20
33.3992589805
 10
233.1643701703
 20
33.9407656229
 10
232.6850744885
 20
34.5671632308
 10
232.27181389
 20
35.2741960373
 10
231.9273960816
 20
36.0570604371
 10
231.6541610498
 20
36.9104376224
 10
231.4539651628
 20
37.8285297193
 10
231.3281685585
 20
38.8050991783
 10
231.2776259032
 20
39.8335111528
 10
231.3026805854
 20
40.9067785763
 10
231.403162383
 20
42.0176096331
 10
231.5783886189
 20
43.1584572985
 10
231.8271688002
 20
44.3215706141
 10
232.1478127057
 20
45.4990473479
 10
232.5381418696
 20
46.6828876824
 10
232.9955043822
 20
47.8650485655
 10
233.5167929067
 20
49.0374983553
 10
234.0984657909
 20
50.1922713875
 10
234.7365711291
 20
51.3215220944
 10
235.4267736118
 20
52.4175783075
 10
236.1643839794
 20
53.4729933832
 10
236.9443908815
 20
54.4805967951
 10
237.7614949245
 20
55.4335428507
 10
238.6101446751
 20
56.3253572018
 10
239.4845743779
 20
57.1499808307
 10
240.3788431271
 20
57.9018112162
 10
241.28687523
 20
58.5757403967
 10
242.2025014852
 20
59.167189674
 10
243.1195010963
 20
59.6721407214
 10
244.0316439363
 20
60.0871628839
 10
244.9327328753
 20
60.4094364868
 10
245.8166458839
 20
60.636771992
 10
246.6773776267
 20
60.7676248742
 10
247.5090802624
 20
60.8011061146
 10
248.3061031748
 20
60.7369882402
 10
249.0630313625
 20
60.5757068704
 10
249.7747222295
 20
60.3183577561
 10
250.4363405233
 20
59.9666893362
 10
251.0433911864
 20
59.523090858
 10
251.3627918084
 20
59.2308344349
  0
LWPOLYLINE
  5
1D7
330
1F
100
AcDbEntity
  8
0
  6
Continuous
 62
     7
370
    25
100
AcDbPolyline
 90
       13
 70
   128
 43
0.0
 10
238.4901169577
 20
54.2339298187
 10
239.3209602515
 20
55.123222649
 10
240.1798506677
 20
55.9425037373
 10
241.0600959372
 20
56.6853894408
 10
241.9548373991
 20
57.3460913718
 10
242.8571034416
 20
57.9194614984
 10
243.7598638231
 20
58.4010322575
 10
244.6560844504
 20
58.7870513648
 10
245.5387821863
 20
59.0745110517
 10
246.4010792608
 20
59.2611715008
 10
247.2362568611
 20
59.3455782985
 10
248.0378074827
 20
59.3270737672
 10
248.2906674629
 20
59.2988162262
  0
SPLINE
  5
1D8
330
1F
100
AcDbEntity
  8
0
  6
Continuous
 62
     7
370
    25
100
AcDbSpline
210
0.0
220
0.0
230
1.0
 70
     8
 71
     3
 72
    26
 73
    22
 74
     0
 42
0.000000001
 43
0.00000001
 40
0.0
 40
0.0
 40
0.0
 40
0.0
 40
0.1250000000000014
 40
0.1250000000000014
 40
0.2500000000000027
 40
0.2500000000000027
 40
0.3125000000000025
 40
0.3125000000000025
 40
0.3750000000000023
 40
0.3750000000000023
 40
0.4375000000000021
 40
0.4375000000000021
 40
0.5000000000000018
 40
0.5000000000000018
 40
0.5625000000000016
 40
0.5625000000000016
 40
0.6250000000000013
 40
0.6250000000000013
 40
0.7500000000000006
 40
0.7500000000000006
 40
1.0
 40
1.0
 40
1.0
 40
1.0
 10
237.14592371684
 20
52.5617662060485
 30
0.0
 10
237.122286120608
 20
52.67134206562148
 30
0.0
 10
237.1047183417262
 20
52.78223132398601
 30
0.0
 10
237.0859057588567
 20
53.00756128384895
 30
0.0
 10
237.0847259840894
 20
53.12323819716732
 30
0.0
 10
237.1008239873247
 20
53.29459370702688
 30
0.0
 10
237.109142704425
 20
53.35139221912105
 30
0.0
 10
237.1328998536819
 20
53.46421843151813
 30
0.0
 10
237.148522232731
 20
53.52067128518429
 30
0.0
 10
237.187379445128
 20
53.62925440159289
 30
0.0
 10
237.2106054018304
 20
53.68163436181842
 30
0.0
 10
237.2656040513088
 20
53.78209113709055
 30
0.0
 10
237.2976823183315
 20
53.83037000486198
 30
0.0
 10
237.3680970668665
 20
53.91806698044572
 30
0.0
 10
237.4066754889932
 20
53.95805610842168
 30
0.0
 10
237.4903837525894
 20
54.03053479253727
 30
0.0
 10
237.5355124625313
 20
54.06287141691389
 30
0.0
 10
237.6747931047214
 20
54.14607118426753
 30
0.0
 10
237.775582176283
 20
54.18489990690363
 30
0.0
 10
238.0786544475157
 20
54.2603161943588
 30
0.0
 10
238.2871785380007
 20
54.26018604798804
 30
0.0
 10
238.4901169576912
 20
54.23392981866183
 30
0.0
  0
LWPOLYLINE
  5
1D9
330
1F
100
AcDbEntity
  8
0
  6
Continuous
 62
     7
370
    25
100
AcDbPolyline
 90
       19
 70
   128
 43
0.0
 10
234.2089453221
 20
34.9059149987
 10
233.9839147457
 20
35.2186852115
 10
233.5839457113
 20
35.9071378494
 10
233.2547338068
 20
36.6731237374
 10
232.9987739538
 20
37.5108378763
 10
232.8180059356
 20
38.413931677
 10
232.7137996968
 20
39.3755610727
 10
232.686944961
 20
40.3884383862
 10
232.737645246
 20
41.4448875601
 10
232.8655163212
 20
42.5369023287
 10
233.0695891198
 20
43.6562068938
 10
233.348317083
 20
44.7943186423
 10
233.6995878798
 20
45.9426124315
 10
234.1207394161
 20
47.0923859544
 10
234.6085800086
 20
48.23492569
 10
235.1594125734
 20
49.3615729381
 10
235.7690626439
 20
50.4637894394
 10
236.4329100069
 20
51.5332220822
 10
237.1459237168
 20
52.561766206
  0
LINE
  5
1DA
330
1F
100
AcDbEntity
  8
0
  6
Continuous
 62
     7
370
    25
100
AcDbLine
 10
235.6705317472
 20
32.3178453504
 30
0.0
 11
235.7839548777
 21
32.3714489268
 31
0.0
  0
ARC
  5
1DB
330
1F
100
AcDbEntity
  8
0
  6
Continuous
 62
     7
370
    25
100
AcDbCircle
 10
249.861303602
 20
38.1261904409
 30
0.0
 40
2.031745479322132
100
AcDbArc
 50
205.4120854947
 51
239.2993322138
  0
LWPOLYLINE
  5
1DC
330
1F
100
AcDbEntity
  8
0
  6
Continuous
 62
     7
370
    25
100
AcDbPolyline
 90
       19
 70
   128
 43
0.0
 10
247.6883436551
 20
39.0943736213
 10
247.6901002852
 20
39.1375186682
 10
247.7552590242
 20
39.7898046165
 10
247.8930211427
 20
40.4678095405
 10
248.1007672938
 20
41.1586421602
 10
248.3745474859
 20
41.8491672955
 10
248.7091561859
 20
42.526255613
 10
249.0982312947
 20
43.1770332605
 10
249.5343751137
 20
43.7891266452
 10
250.0092950009
 20
44.3508976996
 10
250.5139610437
 20
44.851665162
 10
251.0387777494
 20
45.2819076656
 10
251.5737664899
 20
45.6334447735
 10
252.1087552304
 20
45.8995925176
 10
252.6335719362
 20
46.0752904846
 10
253.138237979
 20
46.1571980326
 10
253.6131578662
 20
46.1437578085
 10
254.0493016852
 20
46.0352253586
 10
254.3235430047
 20
45.9057390512
  0
LWPOLYLINE
  5
1DD
330
1F
100
AcDbEntity
  8
0
  6
Continuous
 62
     7
370
    25
100
AcDbPolyline
 90
       18
 70
   128
 43
0.0
 10
255.9595105292
 20
39.2845520552
 10
255.92011732
 20
39.5051599044
 10
255.8072579635
 20
39.6504910099
 10
255.6361747413
 20
39.7009176005
 10
255.4299733904
 20
39.6496292859
 10
255.216502546
 20
39.5035528371
 10
255.0245926284
 20
39.2824166879
 10
254.8801621354
 20
39.0160865006
 10
254.8027172055
 20
38.7405316429
 10
254.8027172055
 20
38.4929673251
 10
254.8801621354
 20
38.3068284803
 10
255.0245926284
 20
38.2072541907
 10
255.216502546
 20
38.207692516
 10
255.4299733904
 20
38.3080842579
 10
255.6361747413
 20
38.4948709554
 10
255.8072579635
 20
38.74282603
 10
255.92011732
 20
39.0184617748
 10
255.9595105292
 20
39.2845520552
  0
LWPOLYLINE
  5
1DE
330
1F
100
AcDbEntity
  8
0
  6
Continuous
 62
     7
370
    25
100
AcDbPolyline
 90
       27
 70
   128
 43
0.0
 10
229.0258990048
 20
41.3924952924
 10
229.0626915322
 20
42.4544992459
 10
229.1728242663
 20
43.5519154862
 10
229.3555642917
 20
44.6774408893
 10
229.6096955038
 20
45.8235852695
 10
229.9335267014
 20
46.9827212248
 10
230.3249028412
 20
48.1471348968
 10
230.7812193796
 20
49.3090773046
 10
231.2994396054
 20
50.4608159131
 10
231.8761148483
 20
51.5946860921
 10
232.5074074299
 20
52.7031421225
 10
233.1891162021
 20
53.7788074122
 10
233.9167045055
 20
54.8145235863
 10
234.6853303601
 20
55.8033981246
 10
235.4898786875
 20
56.7388502301
 10
236.3249953515
 20
57.6146546233
 10
237.1851227883
 20
58.4249829706
 10
238.0645369919
 20
59.1644426705
 10
238.9573856057
 20
59.8281127407
 10
239.8577268695
 20
60.4115765664
 10
240.7595691609
 20
60.9109512921
 10
241.6569108681
 20
61.3229136613
 10
242.5437803301
 20
61.6447221325
 10
243.414275577
 20
61.8742351234
 10
244.2626036065
 20
62.0099252629
 10
245.0831189356
 20
62.0508895555
 10
245.8683328105
 20
61.9971227326
  0
ARC
  5
1DF
330
1F
100
AcDbEntity
  8
0
  6
Continuous
 62
     7
370
    25
100
AcDbCircle
 10
240.6741703971
 20
41.2261179843
 30
0.0
 40
11.6449642329984
100
AcDbArc
 50
181.2383847213
 51
193.6805491951
  0
SPLINE
  5
1E0
330
1F
100
AcDbEntity
  8
0
  6
Continuous
 62
     7
370
    25
100
AcDbSpline
210
0.0
220
0.0
230
1.0
 70
     8
 71
     3
 72
    10
 73
     6
 74
     0
 42
0.000000001
 43
0.00000001
 40
0.0
 40
0.0
 40
0.0
 40
0.0
 40
0.5
 40
0.5
 40
1.0
 40
1.0
 40
1.0
 40
1.0
 10
237.8726117844713
 20
51.09871292522877
 30
0.0
 10
237.768647293687
 20
51.17205129829915
 30
0.0
 10
237.6788390172596
 20
51.25928705609255
 30
0.0
 10
237.526796589261
 20
51.46021759728855
 30
0.0
 10
237.4648910009001
 20
51.57438836348552
 30
0.0
 10
237.4204412963096
 20
51.69740604664562
 30
0.0
  0
SPLINE
  5
1E1
330
1F
100
AcDbEntity
  8
0
  6
Continuous
 62
     7
370
    25
100
AcDbSpline
210
0.0
220
0.0
230
1.0
 70
     8
 71
     3
 72
    14
 73
    10
 74
     0
 42
0.000000001
 43
0.00000001
 40
0.0
 40
0.0
 40
0.0
 40
0.0
 40
0.25
 40
0.25
 40
0.5
 40
0.5
 40
0.75
 40
0.75
 40
1.0
 40
1.0
 40
1.0
 40
1.0
 10
237.4204412963096
 20
51.69740604664561
 30
0.0
 10
237.3977204934444
 20
51.76028746630316
 30
0.0
 10
237.375805983095
 20
51.82933389577658
 30
0.0
 10
237.3336949290322
 20
51.97698641239535
 30
0.0
 10
237.3141733751191
 20
52.05338619925366
 30
0.0
 10
237.2758271329454
 20
52.20771849064925
 30
0.0
 10
237.2574675400616
 20
52.28467108698091
 30
0.0
 10
237.2154640954799
 20
52.43006125449688
 30
0.0
 10
237.1916877744669
 20
52.49665216068991
 30
0.0
 10
237.1632262703647
 20
52.53714777592125
 30
0.0
  0
LINE
  5
1E2
330
1F
100
AcDbEntity
  8
0
  6
Continuous
 62
     7
370
    25
100
AcDbLine
 10
237.1632262704
 20
52.5371477759
 30
0.0
 11
237.1459237168
 21
52.561766206
 31
0.0
  0
LINE
  5
1E3
330
1F
100
AcDbEntity
  8
0
  6
Continuous
 62
     7
370
    25
100
AcDbLine
 10
238.4901169577
 20
54.2339298187
 30
0.0
 11
238.5074195112
 21
54.2093113885
 31
0.0
  0
SPLINE
  5
1E4
330
1F
100
AcDbEntity
  8
0
  6
Continuous
 62
     7
370
    25
100
AcDbSpline
210
0.0
220
0.0
230
1.0
 70
     8
 71
     3
 72
    16
 73
    12
 74
     0
 42
0.000000001
 43
0.00000001
 40
0.0
 40
0.0
 40
0.0
 40
0.0
 40
0.1250000000000001
 40
0.1250000000000001
 40
0.2500000000000003
 40
0.2500000000000003
 40
0.5000000000000002
 40
0.5000000000000002
 40
0.7500000000000001
 40
0.7500000000000001
 40
1.0
 40
1.0
 40
1.0
 40
1.0
 10
238.5074195112159
 20
54.20931138853454
 30
0.0
 10
238.52157191762
 20
54.18917505272175
 30
0.0
 10
238.5432303220937
 20
54.17237763204433
 30
0.0
 10
238.595648251129
 20
54.14553211071284
 30
0.0
 10
238.6262411302673
 20
54.13530662615184
 30
0.0
 10
238.7253219791249
 20
54.11080618571917
 30
0.0
 10
238.7992045167408
 20
54.10254626331767
 30
0.0
 10
238.9523041091321
 20
54.09136029661275
 30
0.0
 10
239.0303880837797
 20
54.08876362486156
 30
0.0
 10
239.1897317175218
 20
54.08673462402786
 30
0.0
 10
239.2683846123534
 20
54.08737221269008
 30
0.0
 10
239.344137080146
 20
54.09046531350511
 30
0.0
  0
SPLINE
  5
1E5
330
1F
100
AcDbEntity
  8
0
  6
Continuous
 62
     7
370
    25
100
AcDbSpline
210
0.0
220
0.0
230
1.0
 70
     8
 71
     3
 72
    10
 73
     6
 74
     0
 42
0.000000001
 43
0.00000001
 40
0.0
 40
0.0
 40
0.0
 40
0.0
 40
0.5
 40
0.5
 40
1.0
 40
1.0
 40
1.0
 40
1.0
 10
239.344137080146
 20
54.09046531350511
 30
0.0
 10
239.4923314200468
 20
54.09651633793888
 30
0.0
 10
239.6345558857773
 20
54.08635410772575
 30
0.0
 10
239.9069472761181
 20
54.03530367178566
 30
0.0
 10
240.0370746059866
 20
53.99394256914112
 30
0.0
 10
240.155149948172
 20
53.93816870118884
 30
0.0
  0
LINE
  5
1E6
330
1F
100
AcDbEntity
  8
0
  6
Continuous
 62
     7
370
    25
100
AcDbLine
 10
253.2524851932
 20
46.2221803651
 30
0.0
 11
253.2887258668
 21
46.2144401046
 31
0.0
  0
LINE
  5
1E7
330
1F
100
AcDbEntity
  8
0
  6
Continuous
 62
     7
370
    25
100
AcDbLine
 10
253.4200200607
 20
46.2229800922
 30
0.0
 11
253.4935879953
 21
46.182794759
 31
0.0
  0
LINE
  5
1E8
330
1F
100
AcDbEntity
  8
0
  6
Continuous
 62
     7
370
    25
100
AcDbLine
 10
248.169020744
 20
36.9593743747
 30
0.0
 11
248.0612686949
 21
37.0268296741
 31
0.0
  0
ARC
  5
1E9
330
1F
100
AcDbEntity
  8
0
  6
Continuous
 62
     7
370
    25
100
AcDbCircle
 10
222.8434408876
 20
49.219710702
 30
0.0
 40
4.168042121426522
100
AcDbArc
 50
211.8182858313
 51
236.1400299393
  0
SPLINE
  5
1EA
330
1F
100
AcDbEntity
  8
0
  6
Continuous
 62
     7
370
    25
100
AcDbSpline
210
0.0
220
0.0
230
1.0
 70
     8
 71
     3
 72
     8
 73
     4
 74
     0
 42
0.000000001
 43
0.00000001
 40
0.0
 40
0.0
 40
0.0
 40
0.0
 40
1.0
 40
1.0
 40
1.0
 40
1.0
 10
220.7321962790352
 20
46.09746428195017
 30
0.0
 10
220.255422987211
 20
46.40555708988281
 30
0.0
 10
219.7786206103661
 20
46.71378653545557
 30
0.0
 10
219.3017881658405
 20
47.02215169167548
 30
0.0
  0
SPLINE
  5
1EB
330
1F
100
AcDbEntity
  8
0
  6
Continuous
 62
     7
370
    25
100
AcDbSpline
210
0.0
220
0.0
230
1.0
 70
     8
 71
     3
 72
    23
 73
    19
 74
     0
 42
0.000000001
 43
0.00000001
 40
0.0
 40
0.0
 40
0.0
 40
0.0
 40
0.0521036415684141
 40
0.1035646240942128
 40
0.1544751946758079
 40
0.2049306267497427
 40
0.2550287880868969
 40
0.3048696389164994
 40
0.3545546704630395
 40
0.4041862979540088
 40
0.4538672252136959
 40
0.5036997999425104
 40
0.590187023076665
 40
0.6742716378260809
 40
0.7565997087257926
 40
0.8378563983752378
 40
0.9187511781386904
 40
1.0
 40
1.0
 40
1.0
 40
1.0
 10
221.6127610825768
 20
45.92273358383007
 30
0.0
 10
221.6074921436367
 20
45.91281212159492
 30
0.0
 10
221.5970192541365
 20
45.89309157086341
 30
0.0
 10
221.577772958374
 20
45.86852374191047
 30
0.0
 10
221.5559772180414
 20
45.84783515965075
 30
0.0
 10
221.5313259268365
 20
45.8313042243535
 30
0.0
 10
221.5038294122976
 20
45.81878672477726
 30
0.0
 10
221.4734183582903
 20
45.810252100955
 30
0.0
 10
221.4400479865177
 20
45.80564222830721
 30
0.0
 10
221.4036720982457
 20
45.80490748517123
 30
0.0
 10
221.3642437266565
 20
45.80800256772316
 30
0.0
 10
221.3113953351053
 20
45.81653834320358
 30
0.0
 10
221.2428563413334
 20
45.83413478205213
 30
0.0
 10
221.1551351093774
 20
45.86577139013902
 30
0.0
 10
221.0604041898829
 20
45.90795104747206
 30
0.0
 10
220.9583699425536
 20
45.96068748319863
 30
0.0
 10
220.8494560293663
 20
46.02300403910827
 30
0.0
 10
220.7713397183818
 20
46.07260809735838
 30
0.0
 10
220.7321962790352
 20
46.09746428195015
 30
0.0
  0
SPLINE
  5
1EC
330
1F
100
AcDbEntity
  8
0
  6
Continuous
 62
     7
370
    25
100
AcDbSpline
210
0.0
220
0.0
230
1.0
 70
     8
 71
     3
 72
     8
 73
     4
 74
     0
 42
0.000000001
 43
0.00000001
 40
0.0
 40
0.0
 40
0.0
 40
0.0
 40
1.0
 40
1.0
 40
1.0
 40
1.0
 10
223.086264109029
 20
44.97541344727492
 30
0.0
 10
222.5948967969882
 20
45.29128806724205
 30
0.0
 10
222.1035105970625
 20
45.60727408853118
 30
0.0
 10
221.612104886919
 20
45.92337096937351
 30
0.0
  0
SPLINE
  5
1ED
330
1F
100
AcDbEntity
  8
0
  6
Continuous
 62
     7
370
    25
100
AcDbSpline
210
0.0
220
0.0
230
1.0
 70
     8
 71
     3
 72
    18
 73
    14
 74
     0
 42
0.000000001
 43
0.00000001
 40
0.0
 40
0.0
 40
0.0
 40
0.0
 40
0.0923824559397059
 40
0.1844689291547896
 40
0.2764953615916986
 40
0.3686975365456813
 40
0.4613092839965452
 40
0.5545607518407201
 40
0.648676805150765
 40
0.7438756050126222
 40
0.840367404429405
 40
0.9203921078117897
 40
1.0
 40
1.0
 40
1.0
 40
1.0
 10
223.8998282282303
 20
44.33110572272953
 30
0.0
 10
223.8762607141075
 20
44.34637969699484
 30
0.0
 10
223.8292011934568
 20
44.37687870947509
 30
0.0
 10
223.7568034054947
 20
44.4265112820855
 30
0.0
 10
223.6833211965997
 20
44.4788408247537
 30
0.0
 10
223.608621748855
 20
44.5341585104614
 30
0.0
 10
223.5327609590869
 20
44.59239682557497
 30
0.0
 10
223.4557496782999
 20
44.65358973721273
 30
0.0
 10
223.3776175462183
 20
44.71775345379461
 30
0.0
 10
223.2983913115737
 20
44.78490241366224
 30
0.0
 10
223.223094827163
 20
44.85075332340885
 30
0.0
 10
223.1522675190404
 20
44.91428491021749
 30
0.0
 10
223.108363148233
 20
44.95494565523111
 30
0.0
 10
223.0864682814275
 20
44.9752229437997
 30
0.0
  0
LINE
  5
1EE
330
1F
100
AcDbEntity
  8
0
  6
Continuous
 62
     7
370
    25
100
AcDbLine
 10
224.5395344964
 20
43.9193517933
 30
0.0
 11
223.8998282282
 21
44.3311057227
 31
0.0
  0
SPLINE
  5
1EF
330
1F
100
AcDbEntity
  8
0
  6
Continuous
 62
     7
370
    25
100
AcDbSpline
210
0.0
220
0.0
230
1.0
 70
     8
 71
     3
 72
    25
 73
    21
 74
     0
 42
0.000000001
 43
0.00000001
 40
0.0
 40
0.0
 40
0.0
 40
0.0
 40
0.0280105225426455
 40
0.0559601148860777
 40
0.0839014045043132
 40
0.1118870776786386
 40
0.1399695827588948
 40
0.1682008401739887
 40
0.196631967042423
 40
0.2253130233141507
 40
0.2542927850735879
 40
0.3799486436587393
 40
0.5057850221667148
 40
0.6313085886345164
 40
0.7532068238012837
 40
0.8039473267959832
 40
0.8535894438560202
 40
0.9025339722399832
 40
0.9511970353794942
 40
1.0
 40
1.0
 40
1.0
 40
1.0
 10
225.6419003532205
 20
44.6352579066066
 30
0.0
 10
225.6468484607511
 20
44.60763404549911
 30
0.0
 10
225.6567339123866
 20
44.55244641239379
 30
0.0
 10
225.6682695619898
 20
44.47328570502388
 30
0.0
 10
225.6773426838026
 20
44.3969823659255
 30
0.0
 10
225.6837114925155
 20
44.32378660495588
 30
0.0
 10
225.6874277313257
 20
44.2536391367425
 30
0.0
 10
225.6884643523085
 20
44.18656285022971
 30
0.0
 10
225.6868158770816
 20
44.12255894100328
 30
0.0
 10
225.6824697252127
 20
44.06163008773644
 30
0.0
 10
225.6676134006451
 20
43.93974196623927
 30
0.0
 10
225.62252514358
 20
43.78484109458408
 30
0.0
 10
225.5091656230871
 20
43.65389797624198
 30
0.0
 10
225.3473414010932
 20
43.59802157543148
 30
0.0
 10
225.1733261819609
 20
43.6178956278147
 30
0.0
 10
225.0219652612742
 20
43.66521343017101
 30
0.0
 10
224.9115650285754
 20
43.71012885390665
 30
0.0
 10
224.7944055331267
 20
43.76750458519781
 30
0.0
 10
224.6708398661933
 20
43.83618164965025
 30
0.0
 10
224.5833448160988
 20
43.89160189560309
 30
0.0
 10
224.5395344964175
 20
43.91935179333315
 30
0.0
  0
ARC
  5
1F0
330
1F
100
AcDbEntity
  8
0
  6
Continuous
 62
     7
370
    25
100
AcDbCircle
 10
236.8348986853
 20
46.4213084428
 30
0.0
 40
11.33460136834133
100
AcDbArc
 50
170.9338278112
 51
189.0661721888
  0
SPLINE
  5
1F1
330
1F
100
AcDbEntity
  8
0
  6
Continuous
 62
     7
370
    25
100
AcDbSpline
210
0.0
220
0.0
230
1.0
 70
     8
 71
     3
 72
    26
 73
    22
 74
     0
 42
0.000000001
 43
0.00000001
 40
0.0
 40
0.0
 40
0.0
 40
0.0
 40
0.0241259796969038
 40
0.048215991228259
 40
0.0723203915136643
 40
0.0964895678725153
 40
0.1207736231978452
 40
0.1452220711257179
 40
0.1698835501670319
 40
0.1948055644482148
 40
0.2200342569523467
 40
0.2456142191612283
 40
0.369097148691835
 40
0.4940698769485373
 40
0.6192566784762581
 40
0.7454656653603327
 40
0.7971495824713788
 40
0.8481710308405456
 40
0.8988013269235281
 40
0.9493179290492212
 40
1.0
 40
1.0
 40
1.0
 40
1.0
 10
224.5395344964175
 20
51.68346218469772
 30
0.0
 10
224.5612527257941
 20
51.66913066130233
 30
0.0
 10
224.604656805971
 20
51.64048898063273
 30
0.0
 10
224.6679639233336
 20
51.59249668270319
 30
0.0
 10
224.7298254910524
 20
51.54089748481702
 30
0.0
 10
224.7901300061894
 20
51.48532269194346
 30
0.0
 10
224.8489198581294
 20
51.42586745131621
 30
0.0
 10
224.906200376559
 20
51.36250314247893
 30
0.0
 10
224.9619915158848
 20
51.29523436451531
 30
0.0
 10
225.0163127633057
 20
51.2240602505557
 30
0.0
 10
225.0691917385136
 20
51.14897111080818
 30
0.0
 10
225.1859865632491
 20
50.96971666210407
 30
0.0
 10
225.3478561211747
 20
50.65941119026103
 30
0.0
 10
225.5110410287076
 20
50.18949740213004
 30
0.0
 10
225.6225524338802
 20
49.69053436822197
 30
0.0
 10
225.6696862719888
 20
49.28165069516502
 30
0.0
 10
225.6848052115213
 20
48.9773787385743
 30
0.0
 10
225.6867583505038
 20
48.77612949687899
 30
0.0
 10
225.6802803248647
 20
48.58046957715639
 30
0.0
 10
225.6661534021776
 20
48.38983328925893
 30
0.0
 10
225.6499935104926
 20
48.26825001552012
 30
0.0
 10
225.6419003532205
 20
48.20735897892123
 30
0.0
  0
LINE
  5
1F2
330
1F
100
AcDbEntity
  8
0
  6
Continuous
 62
     7
370
    25
100
AcDbLine
 10
223.8998282282
 20
52.0964371977
 30
0.0
 11
224.5395344964
 21
51.6834621847
 31
0.0
  0
SPLINE
  5
1F3
330
1F
100
AcDbEntity
  8
0
  6
Continuous
 62
     7
370
    25
100
AcDbSpline
210
0.0
220
0.0
230
1.0
 70
     8
 71
     3
 72
    14
 73
    10
 74
     0
 42
0.000000001
 43
0.00000001
 40
0.0
 40
0.0
 40
0.0
 40
0.0
 40
0.0789261963155847
 40
0.1582328720522156
 40
0.3308475394554963
 40
0.5000195457601538
 40
0.667035788356921
 40
0.8332395193656904
 40
1.0
 40
1.0
 40
1.0
 40
1.0
 10
223.0858755123786
 20
52.30501946798287
 30
0.0
 10
223.107592393714
 20
52.30662263184129
 30
0.0
 10
223.1511308469288
 20
52.30983668792824
 30
0.0
 10
223.2426559655774
 20
52.31065772799601
 30
0.0
 10
223.3595642990107
 20
52.30272174621275
 30
0.0
 10
223.5003846373932
 20
52.27644607733494
 30
0.0
 10
223.6375969452058
 20
52.23348847880269
 30
0.0
 10
223.7715276196226
 20
52.17513135399309
 30
0.0
 10
223.857013711582
 20
52.12269780784305
 30
0.0
 10
223.8998282282303
 20
52.0964371976886
 30
0.0
  0
SPLINE
  5
1F4
330
1F
100
AcDbEntity
  8
0
  6
Continuous
 62
     7
370
    25
100
AcDbSpline
210
0.0
220
0.0
230
1.0
 70
     8
 71
     3
 72
     8
 73
     4
 74
     0
 42
0.000000001
 43
0.00000001
 40
0.0
 40
0.0
 40
0.0
 40
0.0
 40
1.0
 40
1.0
 40
1.0
 40
1.0
 10
221.2835719293746
 20
53.46741087939501
 30
0.0
 10
221.8843301530704
 20
53.08014339623629
 30
0.0
 10
222.4850590159305
 20
52.69267604631316
 30
0.0
 10
223.0857596602771
 20
52.30500915372372
 30
0.0
  0
SPLINE
  5
1F5
330
1F
100
AcDbEntity
  8
0
  6
Continuous
 62
     7
370
    25
100
AcDbSpline
210
0.0
220
0.0
230
1.0
 70
     8
 71
     3
 72
    13
 73
     9
 74
     0
 42
0.000000001
 43
0.00000001
 40
0.0
 40
0.0
 40
0.0
 40
0.0
 40
0.1667030582308044
 40
0.3329480818053134
 40
0.4990671507274983
 40
0.6653938523718556
 40
0.8322612710550201
 40
1.0
 40
1.0
 40
1.0
 40
1.0
 10
220.9417433943402
 20
53.7684756584808
 30
0.0
 10
220.9620445767802
 20
53.75491055180157
 30
0.0
 10
221.0025911619688
 20
53.72781761003872
 30
0.0
 10
221.0617407989564
 20
53.682623037031
 30
0.0
 10
221.1195123438589
 20
53.63421188854804
 30
0.0
 10
221.1757620813186
 20
53.58217677377758
 30
0.0
 10
221.2306892900647
 20
53.52687880656857
 30
0.0
 10
221.2659099996552
 20
53.4872615514082
 30
0.0
 10
221.2835662115962
 20
53.46740134240727
 30
0.0
  0
SPLINE
  5
1F6
330
1F
100
AcDbEntity
  8
0
  6
Continuous
 62
     7
370
    25
100
AcDbSpline
210
0.0
220
0.0
230
1.0
 70
     8
 71
     3
 72
     8
 73
     4
 74
     0
 42
0.000000001
 43
0.00000001
 40
0.0
 40
0.0
 40
0.0
 40
0.0
 40
1.0
 40
1.0
 40
1.0
 40
1.0
 10
218.9977628785495
 20
55.02319751086026
 30
0.0
 10
219.6457929509497
 20
54.6052021949755
 30
0.0
 10
220.2937859280516
 20
54.18696143255788
 30
0.0
 10
220.9417433943402
 20
53.7684756584808
 30
0.0
  0
LWPOLYLINE
  5
1F7
330
1F
100
AcDbEntity
  8
0
  6
Continuous
 62
     7
370
    25
100
AcDbPolyline
 90
       21
 70
   128
 43
0.0
 10
218.9977628786
 20
55.023197511
 10
219.345420751
 20
56.0443779522
 10
219.7602713296
 20
57.0615997751
 10
220.238412602
 20
58.0652951683
 10
220.7753472546
 20
59.0460235475
 10
221.3660249735
 20
59.9945603525
 10
222.0048899469
 20
60.9019838111
 10
222.6859331221
 20
61.7597588561
 10
223.4027487255
 20
62.5598174049
 10
224.1485945143
 20
63.294634246
 10
224.9164551928
 20
63.95729782
 10
225.6991083972
 20
64.5415752287
 10
226.4891926276
 20
65.0419708606
 10
227.2792764894
 20
65.4537780814
 10
228.0619285911
 20
65.773123504
 10
228.8297874434
 20
65.997003421
 10
229.5756306995
 20
66.1233120569
 10
230.2924430877
 20
66.1508613747
 10
230.9734823953
 20
66.0793922502
 10
231.6123428852
 20
65.9095769096
 10
232.0475010718
 20
65.7249444773
  0
SPLINE
  5
1F8
330
1F
100
AcDbEntity
  8
0
  6
Continuous
 62
     7
370
    25
100
AcDbSpline
210
0.0
220
0.0
230
1.0
 70
    11
 71
     3
 72
    39
 73
    35
 74
     0
 42
0.000000001
 43
0.00000001
 40
0.0
 40
0.0
 40
0.0
 40
0.0
 40
0.0310664058347798
 40
0.0621048158425991
 40
0.0931361551792733
 40
0.1235538293503577
 40
0.1538561545807598
 40
0.1850588072749104
 40
0.2160250992947717
 40
0.247186722379756
 40
0.2784462884306427
 40
0.3100516090231226
 40
0.3419834369140484
 40
0.3734259894013217
 40
0.4048604886785525
 40
0.4368740651833295
 40
0.468512068592407
 40
0.4998055358633177
 40
0.5309508213228404
 40
0.561864978443814
 40
0.5930416446592908
 40
0.6233742450133256
 40
0.6540913579073041
 40
0.6849496782718417
 40
0.7158160645167227
 40
0.7471731804043494
 40
0.7784514311866261
 40
0.8101295911560916
 40
0.8419598919689909
 40
0.8735175891922292
 40
0.9050808037889628
 40
0.9370235169792575
 40
0.9687441590033682
 40
0.9999999999999999
 40
0.9999999999999999
 40
0.9999999999999999
 40
0.9999999999999999
 10
232.2063483597548
 20
64.02838788620168
 30
0.0
 10
232.4692339799524
 20
63.99985339891147
 30
0.0
 10
232.9961225904355
 20
63.913910910589
 30
0.0
 10
233.760134659509
 20
63.7135357905188
 30
0.0
 10
234.4672848475604
 20
63.46653368429915
 30
0.0
 10
235.0801959121549
 20
63.18855180614683
 30
0.0
 10
235.5773272378299
 20
62.89441810881695
 30
0.0
 10
235.936518958902
 20
62.5929115806243
 30
0.0
 10
236.1582382276628
 20
62.2859140757211
 30
0.0
 10
236.2234901050435
 20
61.97540881431884
 30
0.0
 10
236.1366428939291
 20
61.65626432957039
 30
0.0
 10
235.8942973061704
 20
61.32694436399756
 30
0.0
 10
235.5143594434441
 20
60.98800364244069
 30
0.0
 10
235.0005534902855
 20
60.65016517803029
 30
0.0
 10
234.3746626793749
 20
60.32426727672129
 30
0.0
 10
233.6611916928864
 20
60.02762038348131
 30
0.0
 10
232.8972892166213
 20
59.77151707504267
 30
0.0
 10
232.1114961337174
 20
59.58248950705291
 30
0.0
 10
231.3299586786754
 20
59.47431358499776
 30
0.0
 10
230.5738456939216
 20
59.46664970162972
 30
0.0
 10
229.8714811075308
 20
59.56457173701734
 30
0.0
 10
229.2524607604871
 20
59.78622017051879
 30
0.0
 10
228.7434034954744
 20
60.12208825742993
 30
0.0
 10
228.3704599020408
 20
60.56189882361122
 30
0.0
 10
228.1418579507931
 20
61.0729734641338
 30
0.0
 10
228.0730116440734
 20
61.62415855189705
 30
0.0
 10
228.1576280572985
 20
62.18183048020853
 30
0.0
 10
228.4007368472341
 20
62.71191062112828
 30
0.0
 10
228.7828666900508
 20
63.18443497024128
 30
0.0
 10
229.2990022644644
 20
63.57055648113502
 30
0.0
 10
229.9259801249656
 20
63.85418066846732
 30
0.0
 10
230.641887557332
 20
64.02391788719375
 30
0.0
 10
231.4103309495155
 20
64.08545672190427
 30
0.0
 10
231.9418597288879
 20
64.05709636964863
 30
0.0
 10
232.2063483597548
 20
64.02838788620168
 30
0.0
  0
LINE
  5
1F9
330
1F
100
AcDbEntity
  8
0
  6
Continuous
 62
     7
370
    25
100
AcDbLine
 10
222.981811372
 20
47.5892608594
 30
0.0
 11
223.2958559791
 21
47.421117075
 31
0.0
  0
LINE
  5
1FA
330
1F
100
AcDbEntity
  8
0
  6
Continuous
 62
     7
370
    25
100
AcDbLine
 10
221.994852333
 20
48.159020185
 30
0.0
 11
222.981811372
 21
47.5892608594
 31
0.0
  0
ARC
  5
1FB
330
1F
100
AcDbEntity
  8
0
  6
Continuous
 62
     7
370
    25
100
AcDbCircle
 10
224.2186735747
 20
51.7303582182
 30
0.0
 40
4.46226719377816
100
AcDbArc
 50
267.6359980982
 51
287.0346845948
  0
SPLINE
  5
1FC
330
1F
100
AcDbEntity
  8
0
  6
Continuous
 62
     7
370
    25
100
AcDbSpline
210
0.0
220
0.0
230
1.0
 70
     8
 71
     3
 72
    25
 73
    21
 74
     0
 42
0.000000001
 43
0.00000001
 40
0.0
 40
0.0
 40
0.0
 40
0.0
 40
0.0702267694832788
 40
0.1409717744236526
 40
0.1974369227586548
 40
0.2542445318892709
 40
0.3122149327653471
 40
0.3706274387881192
 40
0.4271076628135279
 40
0.4840461472053191
 40
0.5424766741303577
 40
0.6014417463354039
 40
0.6530425660852341
 40
0.7050129137214974
 40
0.7581428911731575
 40
0.8116721036912155
 40
0.862683339761375
 40
0.9140429209148524
 40
0.9664950259041842
 40
1.0
 40
1.0
 40
1.0
 40
1.0
 10
233.5448541545821
 20
61.02589225333865
 30
0.0
 10
233.4515478482051
 20
61.07839818849528
 30
0.0
 10
233.2642466855335
 20
61.18379752412277
 30
0.0
 10
232.9782793425004
 20
61.32833571449351
 30
0.0
 10
232.6982951011848
 20
61.4592275841348
 30
0.0
 10
232.4259926435169
 20
61.57642760966348
 30
0.0
 10
232.1400276934726
 20
61.68858810482005
 30
0.0
 10
231.8452847589657
 20
61.79210834414283
 30
0.0
 10
231.5449914009363
 20
61.88461640137277
 30
0.0
 10
231.2394008325238
 20
61.9647908912351
 30
0.0
 10
230.9262149679215
 20
62.03126123024812
 30
0.0
 10
230.6218805435921
 20
62.07903249723958
 30
0.0
 10
230.330812662079
 20
62.10827842438829
 30
0.0
 10
230.0533785228219
 20
62.12034347551314
 30
0.0
 10
229.7775828227134
 20
62.11513352365426
 30
0.0
 10
229.5103917584412
 20
62.09166438381521
 30
0.0
 10
229.2544409134279
 20
62.05059874497813
 30
0.0
 10
229.0104920612316
 20
61.99141440563872
 30
0.0
 10
228.8022589588547
 20
61.92548756927064
 30
0.0
 10
228.6814441379683
 20
61.87156148315635
 30
0.0
 10
228.6343520603026
 20
61.85054178195688
 30
0.0
  0
SPLINE
  5
1FD
330
1F
100
AcDbEntity
  8
0
  6
Continuous
 62
     7
370
    25
100
AcDbSpline
210
0.0
220
0.0
230
1.0
 70
     8
 71
     3
 72
    10
 73
     6
 74
     0
 42
0.000000001
 43
0.00000001
 40
0.0
 40
0.0
 40
0.0
 40
0.0
 40
0.3798174487145151
 40
0.9603712743697138
 40
1.0
 40
1.0
 40
1.0
 40
1.0
 10
234.6847346036278
 20
60.49766523055788
 30
0.0
 10
234.55508194528
 20
60.56799393645763
 30
0.0
 10
234.2272542239779
 20
60.74582059802441
 30
0.0
 10
233.8193258203323
 20
60.91887289852252
 30
0.0
 10
233.5626930217617
 20
61.01807854512167
 30
0.0
 10
233.5462945746574
 20
61.02441763567155
 30
0.0
  0
SPLINE
  5
1FE
330
1F
100
AcDbEntity
  8
0
  6
Continuous
 62
     7
370
    25
100
AcDbSpline
210
0.0
220
0.0
230
1.0
 70
     8
 71
     3
 72
    25
 73
    21
 74
     0
 42
0.000000001
 43
0.00000001
 40
0.0
 40
0.0
 40
0.0
 40
0.0
 40
0.0472533917872839
 40
0.0895736156387427
 40
0.1269632240824352
 40
0.1594267770589636
 40
0.2428507964514117
 40
0.3183672309099122
 40
0.3935858487029421
 40
0.4205144052943567
 40
0.4483683787015603
 40
0.4771558249983511
 40
0.5451773830527882
 40
0.6363664722703767
 40
0.6968940122768833
 40
0.7498726465055047
 40
0.7959807071603484
 40
0.8771243677031718
 40
0.9543028052283193
 40
1.0
 40
1.0
 40
1.0
 40
1.0
 10
232.1514694187098
 20
63.45453002367922
 30
0.0
 10
232.0110653343468
 20
63.46984615082513
 30
0.0
 10
231.7449150960008
 20
63.49887942937192
 30
0.0
 10
231.3721364928387
 20
63.50614608257008
 30
0.0
 10
231.049575883435
 20
63.49275963012504
 30
0.0
 10
230.6204590879466
 20
63.44680183477866
 30
0.0
 10
230.1128416605359
 20
63.3297812391399
 30
0.0
 10
229.5700328968057
 20
63.08719794948614
 30
0.0
 10
229.2296322914802
 20
62.82984759547583
 30
0.0
 10
229.0230064578256
 20
62.61503674587981
 30
0.0
 10
228.9050224381951
 20
62.46853504107202
 30
0.0
 10
228.7528523802322
 20
62.2387828204878
 30
0.0
 10
228.5861708077315
 20
61.86584148801497
 30
0.0
 10
228.5178104963859
 20
61.40328240215145
 30
0.0
 10
228.5681646827821
 20
60.97494853615461
 30
0.0
 10
228.6735945579636
 20
60.65502262407382
 30
0.0
 10
228.8557933179723
 20
60.31455636297765
 30
0.0
 10
229.1566723330135
 20
59.97860849413798
 30
0.0
 10
229.5463570337838
 20
59.70554978233798
 30
0.0
 10
229.8392758794628
 20
59.61159411147712
 30
0.0
 10
229.9482117953403
 20
59.57665219084585
 30
0.0
  0
SPLINE
  5
1FF
330
1F
100
AcDbEntity
  8
0
  6
Continuous
 62
     7
370
    25
100
AcDbSpline
210
0.0
220
0.0
230
1.0
 70
     8
 71
     3
 72
    22
 73
    18
 74
     0
 42
0.000000001
 43
0.00000001
 40
0.0
 40
0.0
 40
0.0
 40
0.0
 40
0.0348562881210341
 40
0.0924900456996265
 40
0.1569277512567935
 40
0.2282085045266422
 40
0.2894089388869588
 40
0.3420696599168041
 40
0.3861903415614684
 40
0.4217735618025292
 40
0.5236918804964841
 40
0.6145479382156366
 40
0.7067592537306702
 40
0.7559111263234152
 40
0.8071360145827184
 40
0.8951475406777035
 40
0.9999999999999999
 40
0.9999999999999999
 40
0.9999999999999999
 40
0.9999999999999999
 10
235.4152138426573
 20
60.93738571806352
 30
0.0
 10
235.452849648043
 20
60.97255909657073
 30
0.0
 10
235.5527150539054
 20
61.06589053146838
 30
0.0
 10
235.6715394263737
 20
61.22123540609432
 30
0.0
 10
235.7679505143647
 20
61.40996393223754
 30
0.0
 10
235.799227166336
 20
61.59594345785511
 30
0.0
 10
235.7698209398107
 20
61.76775467706383
 30
0.0
 10
235.7013264161475
 20
61.91456256658257
 30
0.0
 10
235.6135136711627
 20
62.03577170298942
 30
0.0
 10
235.4592220881557
 20
62.20135659552632
 30
0.0
 10
235.1913959469671
 20
62.41151985933338
 30
0.0
 10
234.7398261255423
 20
62.66696437552469
 30
0.0
 10
234.2922632541181
 20
62.87360010222104
 30
0.0
 10
233.8833697649445
 20
63.03210494684702
 30
0.0
 10
233.4612897989254
 20
63.17462105607382
 30
0.0
 10
232.8829772644455
 20
63.33787852434949
 30
0.0
 10
232.4090984412047
 20
63.41344664785478
 30
0.0
 10
232.1514694187098
 20
63.45453002367922
 30
0.0
  0
LINE
  5
200
330
1F
100
AcDbEntity
  8
0
  6
Continuous
 62
     7
370
    25
100
AcDbLine
 10
225.6419003532
 20
48.2073589789
 30
0.0
 11
225.6366618097
 21
48.5034423978
 31
0.0
  0
LINE
  5
201
330
1F
100
AcDbEntity
  8
0
  6
Continuous
 62
     7
370
    25
100
AcDbLine
 10
225.6366618097
 20
48.5034423978
 30
0.0
 11
225.6797584186
 21
49.1550472827
 31
0.0
  0
LINE
  5
202
330
1F
100
AcDbEntity
  8
0
  6
Continuous
 62
     7
370
    25
100
AcDbLine
 10
225.1571133899
 20
50.9841306526
 30
0.0
 11
224.8456986199
 21
51.312726915
 31
0.0
  0
SPLINE
  5
203
330
1F
100
AcDbEntity
  8
0
  6
Continuous
 62
     7
370
    25
100
AcDbSpline
210
0.0
220
0.0
230
1.0
 70
     8
 71
     3
 72
    41
 73
    37
 74
     0
 42
0.000000001
 43
0.00000001
 40
0.0
 40
0.0
 40
0.0
 40
0.0
 40
0.0207366265830719
 40
0.0513672547292668
 40
0.0822032921106198
 40
0.1136951582963992
 40
0.1454181831427285
 40
0.1762820356624319
 40
0.2073709198938185
 40
0.2391795339830116
 40
0.2712407300755328
 40
0.301163622895573
 40
0.3312985182400707
 40
0.3621015164506271
 40
0.3931346075247996
 40
0.4228130067779782
 40
0.4526929339129319
 40
0.4831993321444759
 40
0.513918152436319
 40
0.5441901201876508
 40
0.5746624744181035
 40
0.6057568317606203
 40
0.6370635740010111
 40
0.6682707789031785
 40
0.6997044199299717
 40
0.7481976567906865
 40
0.7645520451905519
 40
0.7823281617728646
 40
0.8123760562088778
 40
0.8362490215079664
 40
0.8608749830727079
 40
0.8896944569657238
 40
0.919072841550545
 40
0.9392103724348291
 40
0.9594013202875112
 40
1.0
 40
1.0
 40
1.0
 40
1.0
 10
228.5411834765942
 20
61.20816705545438
 30
0.0
 10
228.5411371567876
 20
61.26002382235391
 30
0.0
 10
228.5410224167504
 20
61.38847961259988
 30
0.0
 10
228.5661656310786
 20
61.58671363131857
 30
0.0
 10
228.6139272424623
 20
61.8043202429964
 30
0.0
 10
228.6863635527807
 20
62.01545727475648
 30
0.0
 10
228.7820227449295
 20
62.21654397985194
 30
0.0
 10
228.9000560711415
 20
62.40539451626962
 30
0.0
 10
229.0400943483928
 20
62.58190344367795
 30
0.0
 10
229.2036005043869
 20
62.7465019345545
 30
0.0
 10
229.3857185869218
 20
62.89361475409753
 30
0.0
 10
229.5829167850658
 20
63.02223387715553
 30
0.0
 10
229.7936120042783
 20
63.13305327752479
 30
0.0
 10
230.0219608881108
 20
63.2279425949658
 30
0.0
 10
230.2626619502155
 20
63.30421325627615
 30
0.0
 10
230.5122039099006
 20
63.36153094296755
 30
0.0
 10
230.769518980781
 20
63.40040314049048
 30
0.0
 10
231.0373698781695
 20
63.42086583599982
 30
0.0
 10
231.3120599878927
 20
63.42202366282424
 30
0.0
 10
231.5902597084087
 20
63.40375647479119
 30
0.0
 10
231.8711828187853
 20
63.3659132289203
 30
0.0
 10
232.1547682640542
 20
63.30755671645366
 30
0.0
 10
232.4377761955961
 20
63.22801473118203
 30
0.0
 10
232.7165563752419
 20
63.1268859682043
 30
0.0
 10
233.0365215655636
 20
62.9809953242524
 30
0.0
 10
233.2992575122298
 20
62.82316405226837
 30
0.0
 10
233.5050413910902
 20
62.66178386878833
 30
0.0
 10
233.6546245719316
 20
62.52495911744389
 30
0.0
 10
233.8011557204708
 20
62.35244716620704
 30
0.0
 10
233.9213228764611
 20
62.14334779943428
 30
0.0
 10
233.9974284804051
 20
61.92963594474116
 30
0.0
 10
234.0343604167773
 20
61.7040701594799
 30
0.0
 10
234.0380613850593
 20
61.4995286921225
 30
0.0
 10
234.0262856820826
 20
61.32341399654336
 30
0.0
 10
234.0024153228729
 20
61.12325026156905
 30
0.0
 10
233.9735288225076
 20
60.97776667573004
 30
0.0
 10
233.9542368178792
 20
60.8806046804773
 30
0.0
  0
SPLINE
  5
204
330
1F
100
AcDbEntity
  8
0
  6
Continuous
 62
     7
370
    25
100
AcDbSpline
210
0.0
220
0.0
230
1.0
 70
     8
 71
     3
 72
    10
 73
     6
 74
     0
 42
0.000000001
 43
0.00000001
 40
0.0
 40
0.0
 40
0.0
 40
0.0
 40
0.2949381562334902
 40
0.9797802835649633
 40
1.0
 40
1.0
 40
1.0
 40
1.0
 10
233.9569646928588
 20
60.87936612247285
 30
0.0
 10
234.0397896977546
 20
60.8406010269887
 30
0.0
 10
234.314933164505
 20
60.71182394120599
 30
0.0
 10
234.5900766457859
 20
60.57050544022832
 30
0.0
 10
234.7387163122967
 20
60.47640334274983
 30
0.0
 10
234.742978990719
 20
60.47370468908733
 30
0.0
  0
ARC
  5
205
330
1F
100
AcDbEntity
  8
0
  6
Continuous
 62
     7
370
    25
100
AcDbCircle
 10
237.9669725392
 20
46.6661560526
 30
0.0
 40
12.46644230718002
100
AcDbArc
 50
171.5249591672
 51
179.8212373334
  0
SPLINE
  5
206
330
1F
100
AcDbEntity
  8
0
  6
Continuous
 62
     7
370
    25
100
AcDbSpline
210
0.0
220
0.0
230
1.0
 70
     8
 71
     3
 72
    14
 73
    10
 74
     0
 42
0.000000001
 43
0.00000001
 40
0.0
 40
0.0
 40
0.0
 40
0.0
 40
0.0003951393068452
 40
0.0003951393068452
 40
0.0003951393068452
 40
0.0008163352168296
 40
0.0008163352168296
 40
0.0008163352168296
 40
0.0012378579336484
 40
0.0012378579336484
 40
0.0012378579336484
 40
0.0012378579336484
 10
233.5488868935942
 20
61.02461321748153
 30
0.0
 10
233.594348707824
 20
61.01017635485717
 30
0.0
 10
233.6392363124437
 20
60.99531049429226
 30
0.0
 10
233.6835200051175
 20
60.98002670668748
 30
0.0
 10
233.7307232973514
 20
60.96373526735195
 30
0.0
 10
233.7772491104051
 20
60.94696578927029
 30
0.0
 10
233.8230600196415
 20
60.92973697847733
 30
0.0
 10
233.8689064076254
 20
60.91249482464803
 30
0.0
 10
233.9140456431927
 20
60.89478911844595
 30
0.0
 10
233.9584392012301
 20
60.87664626175766
 30
0.0
  0
LINE
  5
207
330
1F
100
AcDbEntity
  8
0
  6
Continuous
 62
     7
370
    25
100
AcDbLine
 10
224.8456986199
 20
51.312726915
 30
0.0
 11
224.2057624246
 21
51.7249586521
 31
0.0
  0
LINE
  5
208
330
1F
100
AcDbEntity
  8
0
  6
Continuous
 62
     7
370
    25
100
AcDbLine
 10
223.8998282282
 20
52.0964371977
 30
0.0
 11
224.2057624246
 21
51.7249586521
 31
0.0
  0
SPLINE
  5
209
330
1F
100
AcDbEntity
  8
0
  6
Continuous
 62
     7
370
    25
100
AcDbSpline
210
0.0
220
0.0
230
1.0
 70
     8
 71
     3
 72
    13
 73
     9
 74
     0
 42
0.000000001
 43
0.00000001
 40
0.0
 40
0.0
 40
0.0
 40
0.0
 40
0.1618542299052077
 40
0.3254858841874489
 40
0.4910085196967187
 40
0.6585318473110602
 40
0.828161695440384
 40
1.0
 40
1.0
 40
1.0
 40
1.0
 10
224.2057624245723
 20
51.72495865205172
 30
0.0
 10
224.1861850325524
 20
51.73752162908642
 30
0.0
 10
224.1468152567029
 20
51.76278554520749
 30
0.0
 10
224.0852793169283
 20
51.79547924212432
 30
0.0
 10
224.0217226576776
 20
51.82442531583126
 30
0.0
 10
223.9561045550224
 20
51.84893768329547
 30
0.0
 10
223.888677285972
 20
51.86937274664665
 30
0.0
 10
223.842792685777
 20
51.87896940163497
 30
0.0
 10
223.8197020056044
 20
51.88379876246891
 30
0.0
  0
SPLINE
  5
20A
330
1F
100
AcDbEntity
  8
0
  6
Continuous
 62
     7
370
    25
100
AcDbSpline
210
0.0
220
0.0
230
1.0
 70
     8
 71
     3
 72
     9
 73
     5
 74
     0
 42
0.000000001
 43
0.00000001
 40
0.0
 40
0.0
 40
0.0
 40
0.0
 40
0.4907282259505859
 40
1.0
 40
1.0
 40
1.0
 40
1.0
 10
223.8196961783124
 20
51.88377076543789
 30
0.0
 10
223.7956026558346
 20
51.89186629765603
 30
0.0
 10
223.7465051692754
 20
51.9083632745773
 30
0.0
 10
223.6958044754552
 20
51.92315694359353
 30
0.0
 10
223.6699840431679
 20
51.93069094165813
 30
0.0
  0
SPLINE
  5
20B
330
1F
100
AcDbEntity
  8
0
  6
Continuous
 62
     7
370
    25
100
AcDbSpline
210
0.0
220
0.0
230
1.0
 70
     8
 71
     3
 72
    14
 73
    10
 74
     0
 42
0.000000001
 43
0.00000001
 40
0.0
 40
0.0
 40
0.0
 40
0.0
 40
0.0310276388063898
 40
0.0622853718665477
 40
0.1248003166898006
 40
0.2498289731748368
 40
0.4998892603607338
 40
0.7606803622944698
 40
1.0
 40
1.0
 40
1.0
 40
1.0
 10
223.0860433538794
 20
52.30479868430397
 30
0.0
 10
223.0920355932838
 20
52.30096764065045
 30
0.0
 10
223.104064509243
 20
52.29327714315286
 30
0.0
 10
223.128124317292
 20
52.27783925364625
 30
0.0
 10
223.1703579899383
 20
52.2507688007154
 30
0.0
 10
223.2549205644507
 20
52.19655677592003
 30
0.0
 10
223.3782075339441
 20
52.11755359403775
 30
0.0
 10
223.5243392404041
 20
52.02394741936218
 30
0.0
 10
223.622705856942
 20
51.96096434296849
 30
0.0
 10
223.6697775576
 20
51.9308248441947
 30
0.0
  0
LINE
  5
20C
330
1F
100
AcDbEntity
  8
0
  6
Continuous
 62
     7
370
    25
100
AcDbLine
 10
221.2835430872
 20
53.4674294854
 30
0.0
 11
221.5745099217
 21
53.2793510564
 31
0.0
  0
SPLINE
  5
20D
330
1F
100
AcDbEntity
  8
0
  6
Continuous
 62
     7
370
    25
100
AcDbSpline
210
0.0
220
0.0
230
1.0
 70
     8
 71
     3
 72
     8
 73
     4
 74
     0
 42
0.000000001
 43
0.00000001
 40
0.0
 40
0.0
 40
0.0
 40
0.0
 40
1.0
 40
1.0
 40
1.0
 40
1.0
 10
221.6058988561748
 20
53.25912829199282
 30
0.0
 10
221.595456350323
 20
53.26595371689022
 30
0.0
 10
221.5849904174332
 20
53.27269668367674
 30
0.0
 10
221.5745026526166
 20
53.27935577132972
 30
0.0
  0
SPLINE
  5
20E
330
1F
100
AcDbEntity
  8
0
  6
Continuous
 62
     7
370
    25
100
AcDbSpline
210
0.0
220
0.0
230
1.0
 70
     8
 71
     3
 72
     8
 73
     4
 74
     0
 42
0.000000001
 43
0.00000001
 40
0.0
 40
0.0
 40
0.0
 40
0.0
 40
1.0
 40
1.0
 40
1.0
 40
1.0
 10
218.8198944773487
 20
55.13738394380335
 30
0.0
 10
218.8788942415194
 20
55.09864327688388
 30
0.0
 10
218.9381818050307
 20
55.06058129958411
 30
0.0
 10
218.9977628785199
 20
55.02319751112335
 30
0.0
  0
SPLINE
  5
20F
330
1F
100
AcDbEntity
  8
0
  6
Continuous
 62
     7
370
    25
100
AcDbSpline
210
0.0
220
0.0
230
1.0
 70
     8
 71
     3
 72
     8
 73
     4
 74
     0
 42
0.000000001
 43
0.00000001
 40
0.0
 40
0.0
 40
0.0
 40
0.0
 40
1.0
 40
1.0
 40
1.0
 40
1.0
 10
218.7950447312514
 20
55.50059412174021
 30
0.0
 10
218.8025189433419
 20
55.3796362810291
 30
0.0
 10
218.810815047232
 20
55.25856443861917
 30
0.0
 10
218.8198944773508
 20
55.13738394380407
 30
0.0
  0
LWPOLYLINE
  5
210
330
1F
100
AcDbEntity
  8
0
  6
Continuous
 62
     7
370
    25
100
AcDbPolyline
 90
       17
 70
   128
 43
0.0
 10
218.7950447313
 20
55.5005941217
 10
219.1511251644
 20
56.5132084041
 10
219.5751743147
 20
57.519996505
 10
220.0629584343
 20
58.5109065547
 10
220.6096074394
 20
59.4760452115
 10
221.2096635336
 20
60.4057764375
 10
221.8571356986
 20
61.2908177064
 10
222.5455595098
 20
62.1223326805
 10
223.2680616773
 20
62.8920194338
 10
224.0174286695
 20
63.5921933393
 10
224.7861787339
 20
64.2158637931
 10
225.5666365954
 20
64.7568040091
 10
226.3510100874
 20
65.2096131877
 10
227.131467949
 20
65.5697704383
 10
227.9002180134
 20
65.8336799162
 10
228.6495850056
 20
65.9987067235
 10
228.7590069569
 20
66.0147018856
  0
SPLINE
  5
211
330
1F
100
AcDbEntity
  8
0
  6
Continuous
 62
     7
370
    25
100
AcDbSpline
210
0.0
220
0.0
230
1.0
 70
     8
 71
     3
 72
    10
 73
     6
 74
     0
 42
0.000000001
 43
0.00000001
 40
0.0
 40
0.0
 40
0.0
 40
0.0
 40
0.2409820260333511
 40
0.5031431986319155
 40
1.0
 40
1.0
 40
1.0
 40
1.0
 10
224.845698619901
 20
44.60688549735978
 30
0.0
 10
224.9279446480992
 20
44.55520898539094
 30
0.0
 10
225.0996650472658
 20
44.44731427658579
 30
0.0
 10
225.3773852290042
 20
44.31759099591186
 30
0.0
 10
225.4983630163843
 20
44.34036909941135
 30
0.0
 10
225.5775556554731
 20
44.35527975506664
 30
0.0
  0
LINE
  5
212
330
1F
100
AcDbEntity
  8
0
  6
Continuous
 62
     7
370
    25
100
AcDbLine
 10
220.0625251653
 20
54.3359578508
 30
0.0
 11
219.3006457838
 21
54.8265927695
 31
0.0
  0
LINE
  5
213
330
1F
100
AcDbEntity
  8
0
  6
Continuous
 62
     7
370
    25
100
AcDbLine
 10
219.3006457838
 20
54.8265927695
 30
0.0
 11
218.8198944773
 21
55.1373839438
 31
0.0
  0
LINE
  5
214
330
1F
100
AcDbEntity
  8
0
  6
Continuous
 62
     7
370
    25
100
AcDbLine
 10
223.8998282282
 20
44.3311057227
 30
0.0
 11
224.2057624246
 21
45.0191172344
 31
0.0
  0
LINE
  5
215
330
1F
100
AcDbEntity
  8
0
  6
Continuous
 62
     7
370
    25
100
AcDbLine
 10
224.2057624246
 20
45.0191172344
 30
0.0
 11
224.8456986199
 21
44.6068854974
 31
0.0
  0
SPLINE
  5
216
330
1F
100
AcDbEntity
  8
0
  6
Continuous
 62
     7
370
    25
100
AcDbSpline
210
0.0
220
0.0
230
1.0
 70
     8
 71
     3
 72
    13
 73
     9
 74
     0
 42
0.000000001
 43
0.00000001
 40
0.0
 40
0.0
 40
0.0
 40
0.0
 40
0.1722587823584898
 40
0.3421398271275632
 40
0.5097456257942847
 40
0.675182899330312
 40
0.838562619015417
 40
1.0
 40
1.0
 40
1.0
 40
1.0
 10
223.819690493799
 20
45.30042673030501
 30
0.0
 10
223.8428420177519
 20
45.28230713936988
 30
0.0
 10
223.888825498504
 20
45.24631806743236
 30
0.0
 10
223.9563665112189
 20
45.19531808401406
 30
0.0
 10
224.0220261259056
 20
45.14699340382288
 30
0.0
 10
224.0855501971547
 20
45.10156239791522
 30
0.0
 10
224.1469805758727
 20
45.05873683015851
 30
0.0
 10
224.1862467428428
 20
45.03227101298555
 30
0.0
 10
224.2057624245723
 20
45.01911723444
 30
0.0
  0
SPLINE
  5
217
330
1F
100
AcDbEntity
  8
0
  6
Continuous
 62
     7
370
    25
100
AcDbSpline
210
0.0
220
0.0
230
1.0
 70
     8
 71
     3
 72
    11
 73
     7
 74
     0
 42
0.000000001
 43
0.00000001
 40
0.0
 40
0.0
 40
0.0
 40
0.0
 40
0.2392845095215635
 40
0.5001120454085677
 40
0.751501091501476
 40
1.0
 40
1.0
 40
1.0
 40
1.0
 10
223.6703100823229
 20
45.3477407225179
 30
0.0
 10
223.6232408503032
 20
45.3194261997976
 30
0.0
 10
223.524864695707
 20
45.26024796924381
 30
0.0
 10
223.3785674741252
 20
45.16706006878111
 30
0.0
 10
223.2307267305014
 20
45.07168815280846
 30
0.0
 10
223.1344402677791
 20
45.00715289755141
 30
0.0
 10
223.0865753799179
 20
44.97507182749612
 30
0.0
  0
SPLINE
  5
218
330
1F
100
AcDbEntity
  8
0
  6
Continuous
 62
     7
370
    25
100
AcDbSpline
210
0.0
220
0.0
230
1.0
 70
     8
 71
     3
 72
     9
 73
     5
 74
     0
 42
0.000000001
 43
0.00000001
 40
0.0
 40
0.0
 40
0.0
 40
0.0
 40
0.5090669353869889
 40
1.0
 40
1.0
 40
1.0
 40
1.0
 10
223.6708810859071
 20
45.34704176830613
 30
0.0
 10
223.6965296605311
 20
45.33954906014623
 30
0.0
 10
223.7469131618765
 20
45.32483054743398
 30
0.0
 10
223.7957206733718
 20
45.30843818958181
 30
0.0
 10
223.8196818945664
 20
45.30039063910521
 30
0.0
  0
LINE
  5
219
330
1F
100
AcDbEntity
  8
0
  6
Continuous
 62
     7
370
    25
100
AcDbLine
 10
225.5007996602
 20
46.2709200067
 30
0.0
 11
223.8196839994
 21
45.3004325932
 31
0.0
  0
LINE
  5
21A
330
1F
100
AcDbEntity
  8
0
  6
Continuous
 62
     7
370
    25
100
AcDbLine
 10
221.8131962024
 20
46.424253871
 30
0.0
 11
221.61290015
 21
45.9230965896
 31
0.0
  0
SPLINE
  5
21B
330
1F
100
AcDbEntity
  8
0
  6
Continuous
 62
     7
370
    25
100
AcDbSpline
210
0.0
220
0.0
230
1.0
 70
     8
 71
     3
 72
     8
 73
     4
 74
     0
 42
0.000000001
 43
0.00000001
 40
0.0
 40
0.0
 40
0.0
 40
0.0
 40
1.0
 40
1.0
 40
1.0
 40
1.0
 10
221.8127528877669
 20
46.42503780216746
 30
0.0
 10
221.8389282223361
 20
46.44720517914573
 30
0.0
 10
221.8647492623016
 20
46.46983732023735
 30
0.0
 10
221.89020681601
 20
46.49292204032863
 30
0.0
  0
LINE
  5
21C
330
1F
100
AcDbEntity
  8
0
  6
Continuous
 62
     7
370
    25
100
AcDbLine
 10
221.890206816
 20
46.4929220403
 30
0.0
 11
223.6704998063
 21
45.3471507778
 31
0.0
  0
LINE
  5
21D
330
1F
100
AcDbEntity
  8
0
  6
Continuous
 62
     7
370
    25
100
AcDbLine
 10
225.5005909085
 20
46.3689700411
 30
0.0
 11
225.412591886
 21
46.4764611778
 31
0.0
  0
LINE
  5
21E
330
1F
100
AcDbEntity
  8
0
  6
Continuous
 62
     7
370
    25
100
AcDbLine
 10
223.5841832975
 20
47.4708338476
 30
0.0
 11
221.890206816
 21
46.4929220403
 31
0.0
  0
LINE
  5
21F
330
1F
100
AcDbEntity
  8
0
  6
Continuous
 62
     7
370
    25
100
AcDbLine
 10
223.7268773231
 20
47.4495414869
 30
0.0
 11
223.5846036116
 21
47.4703461029
 31
0.0
  0
LINE
  5
220
330
1F
100
AcDbEntity
  8
0
  6
Continuous
 62
     7
370
    25
100
AcDbLine
 10
225.4126648914
 20
46.4763570386
 30
0.0
 11
223.7268773231
 21
47.4495414869
 31
0.0
  0
LINE
  5
221
330
1F
100
AcDbEntity
  8
0
  6
Continuous
 62
     7
370
    25
100
AcDbLine
 10
225.5005909085
 20
46.4255926976
 30
0.0
 11
225.4126184344
 21
46.4763838389
 31
0.0
  0
SPLINE
  5
222
330
1F
100
AcDbEntity
  8
0
  6
Continuous
 62
     7
370
    25
100
AcDbSpline
210
0.0
220
0.0
230
1.0
 70
     8
 71
     3
 72
    19
 73
    15
 74
     0
 42
0.000000001
 43
0.00000001
 40
0.0
 40
0.0
 40
0.0
 40
0.0
 40
0.0637852801455754
 40
0.1289627947799596
 40
0.1955871357543172
 40
0.2637094156879106
 40
0.3333774494036347
 40
0.4046359392270729
 40
0.4775266604302382
 40
0.5520886439076536
 40
0.6283583538762696
 40
0.7063698589894877
 40
0.8377040422874846
 40
1.0
 40
1.0
 40
1.0
 40
1.0
 10
221.0286837818056
 20
46.59352588951933
 30
0.0
 10
221.0493731508096
 20
46.58016674950967
 30
0.0
 10
221.0912034734626
 20
46.55315688096988
 30
0.0
 10
221.1516944470549
 20
46.51563491544443
 30
0.0
 10
221.2111786452325
 20
46.48011517435422
 30
0.0
 10
221.2692598047032
 20
46.44713504543767
 30
0.0
 10
221.3257919217902
 20
46.41692860916682
 30
0.0
 10
221.3805369765443
 20
46.3898151692048
 30
0.0
 10
221.4332593541384
 20
46.36608355145326
 30
0.0
 10
221.4837009870685
 20
46.34604329801073
 30
0.0
 10
221.5315839055461
 20
46.32992343646075
 30
0.0
 10
221.5865480857392
 20
46.31564546011223
 30
0.0
 10
221.6493794494818
 20
46.30550689903261
 30
0.0
 10
221.6878869926482
 20
46.31198117842811
 30
0.0
 10
221.7091709745169
 20
46.31555965770607
 30
0.0
  0
LINE
  5
223
330
1F
100
AcDbEntity
  8
0
  6
Continuous
 62
     7
370
    25
100
AcDbLine
 10
221.7338069055
 20
46.3416298049
 30
0.0
 11
221.8014817106
 21
46.4132443963
 31
0.0
  0
SPLINE
  5
224
330
1F
100
AcDbEntity
  8
0
  6
Continuous
 62
     7
370
    25
100
AcDbSpline
210
0.0
220
0.0
230
1.0
 70
     8
 71
     3
 72
     9
 73
     5
 74
     0
 42
0.000000001
 43
0.00000001
 40
0.0
 40
0.0
 40
0.0
 40
0.0
 40
0.523202776269438
 40
1.0
 40
1.0
 40
1.0
 40
1.0
 10
223.418005943311
 20
47.37490170305452
 30
0.0
 10
223.3489816303221
 20
47.3999438621283
 30
0.0
 10
223.2170551266421
 20
47.44780706203779
 30
0.0
 10
222.9756179742846
 20
47.58540525896561
 30
0.0
 10
222.8605014103351
 20
47.65101169725113
 30
0.0
  0
LINE
  5
225
330
1F
100
AcDbEntity
  8
0
  6
Continuous
 62
     7
370
    25
100
AcDbLine
 10
219.1310002872
 20
47.4169011641
 30
0.0
 11
219.5824704569
 21
47.5291656977
 31
0.0
  0
LINE
  5
226
330
1F
100
AcDbEntity
  8
0
  6
Continuous
 62
     7
370
    25
100
AcDbLine
 10
219.5824704569
 20
47.5291656977
 30
0.0
 11
221.0286837818
 21
46.5935258895
 31
0.0
  0
SPLINE
  5
227
330
1F
100
AcDbEntity
  8
0
  6
Continuous
 62
     7
370
    25
100
AcDbSpline
210
0.0
220
0.0
230
1.0
 70
     8
 71
     3
 72
     8
 73
     4
 74
     0
 42
0.000000001
 43
0.00000001
 40
0.0
 40
0.0
 40
0.0
 40
0.0
 40
1.0
 40
1.0
 40
1.0
 40
1.0
 10
219.3017881658223
 20
47.02215169173601
 30
0.0
 10
219.244662896899
 20
47.15393787552994
 30
0.0
 10
219.1877344051822
 20
47.28552209718903
 30
0.0
 10
219.1310002872335
 20
47.41690116408869
 30
0.0
  0
LINE
  5
228
330
1F
100
AcDbEntity
  8
0
  6
Continuous
 62
     7
370
    25
100
AcDbLine
 10
220.9201716674
 20
48.301404169
 30
0.0
 11
219.5824704569
 21
47.5291656977
 31
0.0
  0
LINE
  5
229
330
1F
100
AcDbEntity
  8
0
  6
Continuous
 62
     7
370
    25
100
AcDbLine
 10
221.9032004642
 20
48.2036506356
 30
0.0
 11
220.9201711935
 21
48.3014042166
 31
0.0
  0
LINE
  5
22A
330
1F
100
AcDbEntity
  8
0
  6
Continuous
 62
     7
370
    25
100
AcDbLine
 10
222.8605014103
 20
47.6510116973
 30
0.0
 11
221.9031997147
 21
48.2036502029
 31
0.0
  0
SPLINE
  5
22B
330
1F
100
AcDbEntity
  8
0
  6
Continuous
 62
     7
370
    25
100
AcDbSpline
210
0.0
220
0.0
230
1.0
 70
     8
 71
     3
 72
     8
 73
     4
 74
     0
 42
0.000000001
 43
0.00000001
 40
0.0
 40
0.0
 40
0.0
 40
0.0
 40
1.0
 40
1.0
 40
1.0
 40
1.0
 10
219.1310002872335
 20
47.41690116408869
 30
0.0
 10
219.1278629494833
 20
47.45211747096121
 30
0.0
 10
219.1258705455854
 20
47.4877617271889
 30
0.0
 10
219.1250891482133
 20
47.52385862918378
 30
0.0
  0
LINE
  5
22C
330
1F
100
AcDbEntity
  8
0
  6
Continuous
 62
     7
370
    25
100
AcDbLine
 10
219.9361746807
 20
47.9920883405
 30
0.0
 11
219.1250891482
 21
47.5238586292
 31
0.0
  0
SPLINE
  5
22D
330
1F
100
AcDbEntity
  8
0
  6
Continuous
 62
     7
370
    25
100
AcDbSpline
210
0.0
220
0.0
230
1.0
 70
     8
 71
     3
 72
     8
 73
     4
 74
     0
 42
0.000000001
 43
0.00000001
 40
0.0000004089325119
 40
0.0000004089325119
 40
0.0000004089325119
 40
0.0000004089325119
 40
0.0015399868451459
 40
0.0015399868451459
 40
0.0015399868451459
 40
0.0015399868451459
 10
219.9361746807021
 20
47.99208834053989
 30
0.0
 10
220.1746512487254
 20
48.08646472635625
 30
0.0
 10
220.413098206394
 20
48.18089333828647
 30
0.0
 10
220.6515069452444
 20
48.27538672124893
 30
0.0
  0
LINE
  5
22E
330
1F
100
AcDbEntity
  8
0
  6
Continuous
 62
     7
370
    25
100
AcDbLine
 10
220.6515069452
 20
48.2753867212
 30
0.0
 11
220.6759031759
 21
48.280380651
 31
0.0
  0
LINE
  5
22F
330
1F
100
AcDbEntity
  8
0
  6
Continuous
 62
     7
370
    25
100
AcDbLine
 10
220.9201714599
 20
48.3014041504
 30
0.0
 11
220.6759037177
 21
48.2803810437
 31
0.0
  0
SPLINE
  5
230
330
1F
100
AcDbEntity
  8
0
  6
Continuous
 62
     7
370
    25
100
AcDbSpline
210
0.0
220
0.0
230
1.0
 70
     8
 71
     3
 72
     8
 73
     4
 74
     0
 42
0.000000001
 43
0.00000001
 40
0.0
 40
0.0
 40
0.0
 40
0.0
 40
1.0
 40
1.0
 40
1.0
 40
1.0
 10
221.9031988597524
 20
48.20365071383588
 30
0.0
 10
221.9338068938756
 20
48.18871070602977
 30
0.0
 10
221.9643583948476
 20
48.1738337486364
 30
0.0
 10
221.9948523329621
 20
48.15902018495547
 30
0.0
  0
ARC
  5
231
330
1F
100
AcDbEntity
  8
0
  6
Continuous
 62
     7
370
    25
100
AcDbCircle
 10
222.7587165527
 20
53.7042751377
 30
0.0
 40
6.625581341074835
100
AcDbArc
 50
283.7327672817
 51
294.8489934469
  0
LINE
  5
232
330
1F
100
AcDbEntity
  8
0
  6
Continuous
 62
     7
370
    18
100
AcDbLine
 10
259.7155400074
 20
43.0304469183
 30
0.0
 11
259.5850678074
 21
42.8683254358
 31
0.0
  0
LWPOLYLINE
  5
233
330
1F
100
AcDbEntity
  8
0
  6
Continuous
 62
     7
370
    18
100
AcDbPolyline
 90
       19
 70
   128
 43
0.0
 10
257.4422391505
 20
44.1053540885
 10
257.6156508253
 20
44.5141419428
 10
257.8586066523
 20
44.9356738066
 10
258.1482446687
 20
45.3172673
 10
258.4710217225
 20
45.6410795353
 10
258.8118451175
 20
45.8919694125
 10
259.1547783305
 20
46.0582055995
 10
259.4837861856
 20
46.1320150772
 10
259.7834846413
 20
46.1099465963
 10
260.0398601308
 20
45.9930320545
 10
260.2409248211
 20
45.7867382458
 10
260.3772771508
 20
45.5007112395
 10
260.4425414366
 20
45.1483253404
 10
260.4336659928
 20
44.7460577216
 10
260.3510658255
 20
44.3127179698
 10
260.1986032267
 20
43.8685685702
 10
259.983407178
 20
43.434377455
 10
259.7155400074
 20
43.0304469183
 10
259.7155400074
 20
43.0304469183
  0
LWPOLYLINE
  5
234
330
1F
100
AcDbEntity
  8
0
  6
Continuous
 62
     7
370
    18
100
AcDbPolyline
 90
       11
 70
   128
 43
0.0
 10
257.134856853
 20
44.2828021118
 10
257.2033611181
 20
44.4529861236
 10
257.4376372557
 20
44.9182834565
 10
257.726218895
 20
45.3514711829
 10
258.0564936335
 20
45.7336169203
 10
258.4140268803
 20
46.0480190665
 10
258.783192717
 20
46.2809367388
 10
259.147856825
 20
46.4221903174
 10
259.4920816329
 20
46.465606343
 10
259.8008228649
 20
46.4092873271
 10
259.8890947535
 20
46.3708740837
  0
LWPOLYLINE
  5
235
330
1F
100
AcDbEntity
  8
0
  6
Continuous
 62
     7
370
    18
100
AcDbPolyline
 90
       30
 70
   128
 43
0.0
 10
245.7402974289
 20
38.1344420493
 10
246.0601605777
 20
38.4653722091
 10
246.3997764153
 20
38.7248826705
 10
246.7432648824
 20
38.9008390129
 10
247.0745648402
 20
38.9850137132
 10
247.3781850708
 20
38.9734708559
 10
247.6399286297
 20
38.8667501723
 10
247.847556679
 20
38.6698418028
 10
247.9913607619
 20
38.3919529641
 10
248.0646167592
 20
38.0460774294
 10
248.063899302
 20
37.6483879541
 10
247.9892419378
 20
37.2174800563
 10
247.8441355619
 20
36.7735025103
 10
247.6353651872
 20
36.3372152127
 10
247.3726926844
 20
35.9290184726
 10
247.0684003278
 20
35.5679991159
 10
246.7367164897
 20
35.2710380066
 10
246.3931503379
 20
35.0520207159
 10
246.0537666436
 20
34.9211882491
 10
245.7344346114
 20
34.8846581868
 10
245.450085852
 20
34.9441386342
 10
245.2140161975
 20
35.0968483516
 10
245.0372640025
 20
35.3356468024
 10
244.9280940031
 20
35.6493680365
 10
244.8916108674
 20
36.0233427975
 10
244.929520506
 20
36.4400844414
 10
245.0400503065
 20
36.880106592
 10
245.2180320182
 20
37.3228343027
 10
245.4551434141
 20
37.7475661176
 10
245.7402974289
 20
38.1344420493
  0
ARC
  5
236
330
1F
100
AcDbEntity
  8
0
  6
Continuous
 62
     7
370
    18
100
AcDbCircle
 10
247.0884165862
 20
37.4046510613
 30
0.0
 40
1.874688582544527
100
AcDbArc
 50
77.2008127056
 51
149.026826889
  0
LWPOLYLINE
  5
237
330
1F
100
AcDbEntity
  8
0
  6
Continuous
 62
     7
370
    18
100
AcDbPolyline
 90
       10
 70
   128
 43
0.0
 10
245.0686162518
 20
34.8677168037
 10
244.8370323192
 20
35.0561688534
 10
244.6646067569
 20
35.3340922714
 10
244.5639101312
 20
35.6865728972
 10
244.5393433678
 20
36.0982056361
 10
244.5919801521
 20
36.5510001622
 10
244.7195200041
 20
37.025167182
 10
244.9163888202
 20
37.4999833214
 10
245.1739824885
 20
37.9546968366
 10
245.4810429295
 20
38.3694345652
  0
LWPOLYLINE
  5
238
330
1F
100
AcDbEntity
  8
0
  6
Continuous
 62
     7
370
    18
100
AcDbPolyline
 90
       36
 70
   128
 43
0.0
 10
264.3016885513
 20
36.4481236652
 10
264.2647571864
 20
36.9006503656
 10
264.1551500963
 20
37.2959924392
 10
263.976390143
 20
37.6214432666
 10
263.7342228185
 20
37.8665425903
 10
263.4364315798
 20
38.0234127165
 10
263.0925876825
 20
38.0870117101
 10
262.7137425522
 20
38.0552954473
 10
262.3120725831
 20
37.9292833148
 10
261.9004877787
 20
37.7130254461
 10
261.492216813
 20
37.4134725473
 10
261.100381851
 20
37.0402524948
 10
260.7375767906
 20
36.6053608883
 10
260.4154624851
 20
36.1227755018
 10
260.1443919533
 20
35.6080070268
 10
259.933077625
 20
35.0776005455
 10
259.7883113167
 20
34.5486037587
 10
259.7147459366
 20
34.0380190584
 10
259.7147459366
 20
33.562257057
 10
259.7883113167
 20
33.1366091366
 10
259.933077625
 20
32.7747559716
 10
260.1443919533
 20
32.4883278205
 10
260.4154624851
 20
32.2865307197
 10
260.7375767906
 20
32.1758505942
 10
261.100381851
 20
32.1598447941
 10
261.492216813
 20
32.2390277592
 10
261.9004877787
 20
32.4108544836
 10
262.3120725831
 20
32.6698023152
 10
262.7137425522
 20
33.0075484575
 10
263.0925876825
 20
33.4132374717
 10
263.4364315798
 20
33.873830179
 10
263.7342228185
 20
34.3745227509
 10
263.976390143
 20
34.8992225161
 10
264.1551500963
 20
35.4310651923
 10
264.2647571864
 20
35.9529569185
 10
264.3016885513
 20
36.4481236652
  0
LWPOLYLINE
  5
239
330
1F
100
AcDbEntity
  8
0
  6
Continuous
 62
     7
370
    18
100
AcDbPolyline
 90
       21
 70
   128
 43
0.0
 10
259.4920965029
 20
31.9528380573
 10
259.2412350045
 20
32.1329731106
 10
258.9857340131
 20
32.4370726333
 10
258.7980862851
 20
32.8227463157
 10
258.6834103612
 20
33.2794739853
 10
258.6448343018
 20
33.7947973017
 10
258.6834103612
 20
34.3546595883
 10
258.7980862851
 20
34.9437892614
 10
258.9857340131
 20
35.5461163991
 10
259.2412350045
 20
36.1452110873
 10
259.5576198583
 20
36.7247315846
 10
259.9262584203
 20
37.2688700827
 10
260.3370951916
 20
37.7627839017
 10
260.778923616
 20
38.1930003601
 10
261.2396917659
 20
38.5477842745
 10
261.7068310872
 20
38.8174580645
 10
262.1675992371
 20
38.9946657322
 10
262.6094276615
 20
39.0745735143
 10
263.0202644328
 20
39.0550017348
 10
263.3889029948
 20
38.9364842609
 10
263.472075162
 20
38.8923993569
  0
LWPOLYLINE
  5
23A
330
1F
100
AcDbEntity
  8
0
  6
Continuous
 62
     7
370
    18
100
AcDbPolyline
 90
       34
 70
   128
 43
0.0
 10
236.9013007803
 20
38.5911949587
 10
236.938655748
 20
39.5870000145
 10
237.050428298
 20
40.6181406732
 10
237.2357436583
 20
41.6765468612
 10
237.4931514852
 20
42.753935115
 10
237.8206372133
 20
43.8418734107
 10
238.2156378228
 20
44.9318471562
 10
238.6750618983
 20
46.0153258289
 10
239.1953138236
 20
47.0838297393
 10
239.772321922
 20
48.1289963955
 10
240.4015703227
 20
49.1426459513
 10
241.0781343039
 20
50.1168452247
 10
241.7967188351
 20
51.0439697854
 10
242.551700018
 20
51.9167636266
 10
243.3371691012
 20
52.7283959533
 10
244.1469787242
 20
53.472514642
 10
244.9747910287
 20
54.1432959551
 10
245.814127261
 20
54.7354901192
 10
246.6584184772
 20
55.2444624122
 10
247.5010569536
 20
55.6662294357
 10
248.3354479017
 20
55.997490291
 10
249.1550610811
 20
56.2356524127
 10
249.9534819074
 20
56.3788518593
 10
250.724461655
 20
56.425967901
 10
251.4619663621
 20
56.3766317908
 10
252.1602240543
 20
56.2312296507
 10
252.8137699187
 20
55.9908994497
 10
253.4174890725
 20
55.6575220973
 10
253.9666565949
 20
55.2337067234
 10
254.4569745055
 20
54.7227702579
 10
254.8846054018
 20
54.1287114714
 10
255.2462024923
 20
53.4561796794
 10
255.5389357893
 20
52.7104383549
 10
255.5393352264
 20
52.7092273383
  0
LWPOLYLINE
  5
23B
330
1F
100
AcDbEntity
  8
0
  6
Continuous
 62
     7
370
    18
100
AcDbPolyline
 90
       16
 70
   128
 43
0.0
 10
243.5403104347
 20
31.9240546412
 10
243.3371691012
 20
31.8846893606
 10
242.551700018
 20
31.7894383873
 10
241.7967188351
 20
31.7905495091
 10
241.0781343039
 20
31.8880140299
 10
240.4015703227
 20
32.0810691577
 10
239.772321922
 20
32.3682039744
 10
239.1953138236
 20
32.7471712607
 10
238.6750618983
 20
33.2150050837
 10
238.2156378228
 20
33.7680440095
 10
237.8206372133
 20
34.4019597587
 10
237.4931514852
 20
35.111791081
 10
237.2357436583
 20
35.891982584
 10
237.050428298
 20
36.7364282112
 10
236.938655748
 20
37.6385190307
 10
236.9013007803
 20
38.5911949587
  0
LWPOLYLINE
  5
23C
330
1F
100
AcDbEntity
  8
0
  6
Continuous
 62
     7
370
    18
100
AcDbPolyline
 90
       34
 70
   128
 43
0.0
 10
242.4874443517
 20
36.9175583295
 10
242.524585629
 20
37.8393583423
 10
242.6356731039
 20
38.7956927975
 10
242.819700751
 20
39.7779009821
 10
243.0750019873
 20
40.7770878669
 10
243.3992647654
 20
41.7842046605
 10
243.7895525114
 20
42.7901307574
 10
244.2423307189
 20
43.785756335
 10
244.7534989585
 20
44.762064854
 10
245.3184280113
 20
45.7102147132
 10
245.9320017924
 20
46.6216193206
 10
246.5886636826
 20
47.4880248551
 10
247.2824668501
 20
48.3015850138
 10
248.0071281061
 20
49.0549320701
 10
248.756084806
 20
49.7412435964
 10
249.5225542818
 20
50.3543042491
 10
250.2995952675
 20
50.8885620561
 10
251.0801707594
 20
51.3391786959
 10
251.857211745
 20
51.7020733145
 10
252.6236812209
 20
51.9739594821
 10
253.3726379208
 20
52.1523749552
 10
254.0972991768
 20
52.2357039759
 10
254.7911023443
 20
52.2231919036
 10
255.4477642345
 20
52.1149520496
 10
256.0613380156
 20
51.9119646507
 10
256.6262670684
 20
51.6160679923
 10
257.137435308
 20
51.2299417603
 10
257.5902135155
 20
50.7570827737
 10
257.9805012614
 20
50.2017733166
 10
258.3047640396
 20
49.5690423576
 10
258.5600652759
 20
48.8646200061
 10
258.744092923
 20
48.0948856201
 10
258.8551803979
 20
47.2668100334
 10
258.8770602427
 20
46.9566126981
  0
LWPOLYLINE
  5
23D
330
1F
100
AcDbEntity
  8
0
  6
Continuous
 62
     7
370
    18
100
AcDbPolyline
 90
       21
 70
   128
 43
0.0
 10
253.0471348251
 20
33.9412319368
 10
252.6236812209
 20
33.5642071597
 10
251.857211745
 20
32.951146507
 10
251.0801707594
 20
32.4168887
 10
250.2995952675
 20
31.9662720601
 10
249.5225542818
 20
31.6033774415
 10
248.756084806
 20
31.331491274
 10
248.0071281061
 20
31.1530758008
 10
247.2824668501
 20
31.0697467801
 10
246.5886636826
 20
31.0822588524
 10
245.9320017924
 20
31.1904987065
 10
245.3184280113
 20
31.3934861054
 10
244.7534989585
 20
31.6893827638
 10
244.2423307189
 20
32.0755089958
 10
243.7895525114
 20
32.5483679824
 10
243.3992647654
 20
33.1036774395
 10
243.0750019873
 20
33.7364083985
 10
242.819700751
 20
34.4408307499
 10
242.6356731039
 20
35.210565136
 10
242.524585629
 20
36.0386407227
 10
242.4874443517
 20
36.9175583295
  0
LWPOLYLINE
  5
23E
330
1F
100
AcDbEntity
  8
0
  6
Continuous
 62
     7
370
    18
100
AcDbPolyline
 90
       25
 70
   128
 43
0.0
 10
241.9217589267
 20
36.9175583295
 10
241.9590434056
 20
37.8566273757
 10
242.070569185
 20
38.8304915924
 10
242.2553561723
 20
39.8305926259
 10
242.5117804528
 20
40.8481415523
 10
242.8375885608
 20
41.874196115
 10
243.2299172828
 20
42.8997393097
 10
243.68531882
 20
43.9157586259
 10
244.1997910872
 20
44.9133252493
 10
244.7688128837
 20
45.8836725286
 10
245.3873836255
 20
46.818273017
 10
246.0500672906
 20
47.7089134117
 10
246.7510401912
 20
48.5477667331
 10
247.4841421522
 20
49.3274611078
 10
248.2429306473
 20
50.0411445538
 10
249.0207374158
 20
50.6825451952
 10
249.8107270639
 20
51.2460263801
 10
250.6059571341
 20
51.7266362157
 10
251.3994391161
 20
52.1201510853
 10
252.1841998616
 20
52.4231127663
 10
252.953342865
 20
52.6328588204
 10
253.7001088699
 20
52.7475459917
 10
254.4179352699
 20
52.7661664054
 10
255.1005137806
 20
52.6885564245
 10
255.2085653912
 20
52.6667016711
  0
ARC
  5
23F
330
1F
100
AcDbEntity
  8
0
  6
Continuous
 62
     7
370
    18
100
AcDbCircle
 10
248.9048440964
 20
36.5586204167
 30
0.0
 40
6.992303977374561
100
AcDbArc
 50
177.057526331
 51
218.2590795708
  0
LWPOLYLINE
  5
240
330
1F
100
AcDbEntity
  8
0
  6
Continuous
 62
     7
370
    18
100
AcDbPolyline
 90
       10
 70
   128
 43
0.0
 10
239.0226211239
 20
38.5911949587
 10
239.0599056028
 20
37.6951736555
 10
239.1714313822
 20
36.8500743629
 10
239.3562183695
 20
36.0633238436
 10
239.61264265
 20
35.3418360897
 10
239.9384507579
 20
34.6919515614
 10
240.3307794799
 20
34.1193814673
 10
240.7861810171
 20
33.629157574
 10
241.3006532843
 20
33.2255879868
 10
241.5083901023
 20
33.0970572811
  0
LWPOLYLINE
  5
241
330
1F
100
AcDbEntity
  8
0
  6
Continuous
 62
     7
370
    18
100
AcDbPolyline
 90
       27
 70
   128
 43
0.0
 10
253.5074148939
 20
53.8822299782
 10
253.4371577085
 20
53.9218497477
 10
252.8427080747
 20
54.1890347175
 10
252.2013759777
 20
54.3621930537
 10
251.518797467
 20
54.4398030346
 10
250.8009710671
 20
54.421182621
 10
250.0542050622
 20
54.3064954496
 10
249.2850620588
 20
54.0967493955
 10
248.5003013133
 20
53.7937877146
 10
247.7068193313
 20
53.4002728449
 10
246.911589261
 20
52.9196630093
 10
246.1215996129
 20
52.3561818244
 10
245.3437928444
 20
51.714781183
 10
244.5850043493
 20
51.001097737
 10
243.8519023883
 20
50.2214033623
 10
243.1509294877
 20
49.382550041
 10
242.4882458226
 20
48.4919096462
 10
241.8696750808
 20
47.5573091579
 10
241.3006532843
 20
46.5869618786
 10
240.7861810171
 20
45.5893952552
 10
240.3307794799
 20
44.5733759389
 10
239.9384507579
 20
43.5478327442
 10
239.61264265
 20
42.5217781815
 10
239.3562183695
 20
41.5042292551
 10
239.1714313822
 20
40.5041282216
 10
239.0599056028
 20
39.5302640049
 10
239.0226211239
 20
38.5911949587
  0
LWPOLYLINE
  5
242
330
1F
100
AcDbEntity
  8
0
  6
Continuous
 62
     7
370
    18
100
AcDbPolyline
 90
       22
 70
   128
 43
0.0
 10
253.8011528507
 20
35.6929461617
 10
253.8395832718
 20
36.3214669798
 10
253.9540554576
 20
36.9809627876
 10
254.1421296321
 20
37.6573775771
 10
254.3997973208
 20
38.3362947413
 10
254.7215667843
 20
39.0032443396
 10
255.1005800652
 20
39.6440114992
 10
255.5287591532
 20
40.2449393806
 10
255.9969781547
 20
40.7932202493
 10
256.4952577943
 20
41.2771684505
 10
257.0129781069
 20
41.6864694685
 10
257.5391047826
 20
42.0123997627
 10
258.0624243448
 20
42.2480126947
 10
258.5717831457
 20
42.3882865839
 10
259.0563250867
 20
42.430231736
 10
259.5057229976
 20
42.3729541628
 10
259.9103987422
 20
42.2176746364
 10
260.2617273594
 20
41.9677026703
 10
260.5522208899
 20
41.6283659829
 10
260.7756879682
 20
41.2068969466
 10
260.9273657818
 20
40.7122784423
 10
260.9892926507
 20
40.3256797971
  0
LWPOLYLINE
  5
243
330
1F
100
AcDbEntity
  8
0
  6
Continuous
 62
     7
370
    18
100
AcDbPolyline
 90
       11
 70
   128
 43
0.0
 10
256.9896177202
 20
33.3972888981
 10
256.4952577943
 20
33.219271231
 10
255.9969781547
 20
33.1279180059
 10
255.5287591532
 20
33.1356047224
 10
255.1005800652
 20
33.2421675516
 10
254.7215667843
 20
33.4453352918
 10
254.3997973208
 20
33.7407777753
 10
254.1421296321
 20
34.1221981585
 10
253.9540554576
 20
34.5814671281
 10
253.8395832718
 20
35.1087961635
 10
253.8011528507
 20
35.6929461617
  0
LWPOLYLINE
  5
244
330
1F
100
AcDbEntity
  8
0
  6
Continuous
 62
     7
370
    18
100
AcDbPolyline
 90
       18
 70
   128
 43
0.0
 10
253.2354674257
 20
35.6929461617
 10
253.2733157559
 20
36.3398183804
 10
253.3861240719
 20
37.017798719
 10
253.5716966881
 20
37.7136910616
 10
253.8264216446
 20
38.4139506551
 10
254.1453410099
 20
39.1049477432
 10
254.5222473813
 20
39.7732328536
 10
254.949804705
 20
40.4057985766
 10
255.4196910641
 20
40.9903327402
 10
255.922760655
 20
41.5154580516
 10
256.4492218004
 20
41.970953544
 10
256.988827533
 20
42.3479535157
 10
257.5310750409
 20
42.6391200913
 10
258.0654100932
 20
42.8387860443
 10
258.5814324659
 20
42.9430651042
 10
259.0690983705
 20
42.9499275978
 10
259.5189159449
 20
42.8592399543
 10
259.8615143354
 20
42.7086676076
  0
ARC
  5
245
330
1F
100
AcDbEntity
  8
0
  6
Continuous
 62
     7
370
    18
100
AcDbCircle
 10
255.9662190342
 20
35.4133748316
 30
0.0
 40
2.745025405295784
100
AcDbArc
 50
174.154487801
 51
234.935187589
  0
LWPOLYLINE
  5
246
330
1F
100
AcDbEntity
  8
0
  6
Continuous
 62
     7
370
    18
100
AcDbPolyline
 90
       30
 70
   128
 43
0.0
 10
229.0258990048
 20
41.3108544812
 10
229.0629268162
 20
42.3796498269
 10
229.1737638363
 20
43.4840839169
 10
229.357672463
 20
44.6168069245
 10
229.6134288148
 20
45.7702807651
 10
229.9393308753
 20
46.9368292605
 10
230.3332098202
 20
48.1086892229
 10
230.79244445
 20
49.2780621178
 10
231.313978634
 20
50.4371659613
 10
231.8943416483
 20
51.5782871086
 10
232.5296712727
 20
52.6938315868
 10
233.2157394935
 20
53.7763756314
 10
233.9479806398
 20
54.8187150904
 10
234.7215217676
 20
55.8139133667
 10
235.5312150884
 20
56.7553475799
 10
236.3716722266
 20
57.6367526408
 10
237.2373000787
 20
58.4522629439
 10
238.1223380341
 20
59.1964514029
 10
239.0208963113
 20
59.8643655663
 10
239.9269951532
 20
60.4515605755
 10
240.8346046215
 20
60.9541287447
 10
241.7376847249
 20
61.3687255655
 10
242.6302256144
 20
61.6925919646
 10
243.5062875775
 20
61.9235726645
 10
244.3600405664
 20
62.0601305267
 10
245.1858029959
 20
62.1013567812
 10
245.9780795533
 20
62.0469770741
 10
246.7315977687
 20
61.8973532934
 10
247.4413431028
 20
61.6534811606
 10
248.0221025012
 20
61.3644097828
  0
LWPOLYLINE
  5
247
330
1F
100
AcDbEntity
  8
0
  6
Continuous
 62
     7
370
    18
100
AcDbPolyline
 90
       11
 70
   128
 43
0.0
 10
232.2858814463
 20
34.1055218394
 10
231.8943416483
 20
34.3552552356
 10
231.313978634
 20
34.8263035095
 10
230.79244445
 20
35.3832568013
 10
230.3332098202
 20
36.0224086787
 10
229.9393308753
 20
36.7395056913
 10
229.6134288148
 20
37.5297756769
 10
229.357672463
 20
38.3879595191
 10
229.1737638363
 20
39.308346146
 10
229.0629268162
 20
40.2848105365
 10
229.0258990048
 20
41.3108544812
  0
LWPOLYLINE
  5
248
330
1F
100
AcDbEntity
  8
0
  6
Continuous
 62
     7
370
    18
100
AcDbPolyline
 90
       13
 70
   128
 43
0.0
 10
255.2683994216
 20
36.5399695778
 10
255.3070539023
 20
37.0297417127
 10
255.4216202706
 20
37.54644172
 10
255.6079577995
 20
38.0713947152
 10
255.8593317652
 20
38.5856275292
 10
256.1666568577
 20
39.0705544483
 10
256.5188255473
 20
39.5086489502
 10
256.9031095401
 20
39.8840771581
 10
257.3056198113
 20
40.1832701185
 10
257.711808591
 20
40.3954142183
 10
258.1069951584
 20
40.5128420168
 10
258.4768964413
 20
40.5313093676
 10
258.6171903736
 20
40.5101932789
  0
ARC
  5
249
330
1F
100
AcDbEntity
  8
0
  6
Continuous
 62
     7
370
    18
100
AcDbCircle
 10
256.9385593882
 20
36.420676065
 30
0.0
 40
1.674414899650871
100
AcDbArc
 50
175.9145070383
 51
219.3410032018
  0
LWPOLYLINE
  5
24A
330
1F
100
AcDbEntity
  8
0
  6
Continuous
 62
     7
370
    18
100
AcDbPolyline
 90
       15
 70
   128
 43
0.0
 10
233.6499801064
 20
37.975217755
 10
233.6427396664
 20
38.0100431102
 10
233.5001553453
 20
38.9139690591
 10
233.4331543938
 20
39.8721801352
 10
233.4422549402
 20
40.8772663498
 10
233.5273866088
 20
41.9214552222
 10
233.6878910636
 20
42.9966718849
 10
233.9225270999
 20
44.0946015277
 10
234.2294802424
 20
45.2067536978
 10
234.6063767769
 20
46.3245279575
 10
235.0503021065
 20
47.4392803924
 10
235.5578232908
 20
48.5423904565
 10
236.1250155931
 20
49.625327636
 10
236.7474928313
 20
50.6797174169
 10
237.4204412963
 20
51.6974060466
  0
LWPOLYLINE
  5
24B
330
1F
100
AcDbEntity
  8
0
  6
Continuous
 62
     7
370
    18
100
AcDbPolyline
 90
       19
 70
   128
 43
0.0
 10
234.1617761808
 20
35.0452902062
 10
234.0129957481
 20
35.2570628775
 10
233.6146575636
 20
35.943158565
 10
233.286799188
 20
36.7064656913
 10
233.0319037148
 20
37.5412032143
 10
232.8519016401
 20
38.441049101
 10
232.7481562418
 20
39.3991882088
 10
232.721453254
 20
40.4083639009
 10
232.7719949164
 20
41.4609330059
 10
232.8993984429
 20
42.5489237047
 10
233.1026989202
 20
43.6640959066
 10
233.3803566161
 20
44.7980036566
 10
233.7302686405
 20
45.942059103
 10
234.1497848728
 20
47.0875975387
 10
234.635728032
 20
48.2259430248
 10
235.1844177415
 20
49.3484740994
 10
235.7916984022
 20
50.4466890743
 10
236.4529706662
 20
51.512270423
 10
237.1632262704
 20
52.5371477759
  0
LWPOLYLINE
  5
24C
330
1F
100
AcDbEntity
  8
0
  6
Continuous
 62
     7
370
    18
100
AcDbPolyline
 90
       21
 70
   128
 43
0.0
 10
246.6261009626
 20
39.7417989949
 10
246.6515594748
 20
40.0307694266
 10
246.7628284545
 20
40.7133281522
 10
246.9459722812
 20
41.4141242769
 10
247.1975793317
 20
42.120103295
 10
247.5129626429
 20
42.818114153
 10
247.8862472204
 20
43.4951542294
 10
248.3104794787
 20
44.1386115485
 10
248.7777567737
 20
44.736499718
 10
249.2793746133
 20
45.2776812125
 10
249.8059888064
 20
45.7520748447
 10
250.3477895269
 20
46.1508435588
 10
250.8946840525
 20
46.4665590483
 10
251.436484773
 20
46.6933401308
 10
251.9630989661
 20
46.8269623039
 10
252.4647168057
 20
46.8649364394
 10
252.9319941007
 20
46.8065551509
 10
253.356226359
 20
46.6529059714
 10
253.7295109365
 20
46.4068510944
 10
254.0448942477
 20
46.0729740567
 10
254.0818874742
 20
46.0226338022
  0
ARC
  5
24D
330
1F
100
AcDbEntity
  8
0
  6
Continuous
 62
     7
370
    18
100
AcDbCircle
 10
248.7777199493
 20
38.5230704539
 30
0.0
 40
2.000796078891925
100
AcDbArc
 50
243.1117100965
 51
264.9590402139
  0
LWPOLYLINE
  5
24E
330
1F
100
AcDbEntity
  8
0
  6
Continuous
 62
     7
370
    18
100
AcDbPolyline
 90
       17
 70
   128
 43
0.0
 10
247.3673023459
 20
39.3139125441
 10
247.3862686176
 20
39.6741797025
 10
247.4768330671
 20
40.3259816533
 10
247.6388626654
 20
40.998616039
 10
247.8691954302
 20
41.6789565045
 10
248.1633364537
 20
42.3537263122
 10
248.5155456197
 20
43.0097574348
 10
248.9189496215
 20
43.6342475274
 10
249.365676093
 20
44.2150097636
 10
249.8470072369
 20
44.7407106591
 10
250.3535499514
 20
45.2010912431
 10
250.8754191344
 20
45.5871672605
 10
251.4024305905
 20
45.8914044983
 10
251.9242997735
 20
46.1078658142
 10
252.430842488
 20
46.2323269995
 10
252.9121736319
 20
46.2623592138
 10
253.2524851932
 20
46.2221803651
  0
LWPOLYLINE
  5
24F
330
1F
100
AcDbEntity
  8
0
  6
Continuous
 62
     7
370
    18
100
AcDbPolyline
 90
       18
 70
   128
 43
0.0
 10
247.0667594676
 20
39.4874122547
 10
247.1042865286
 20
40.0383192413
 10
247.2184836328
 20
40.7104431955
 10
247.4062273487
 20
41.400087326
 10
247.6636957556
 20
42.0932124673
 10
247.9856475393
 20
42.7757085902
 10
248.3655286898
 20
43.4336820418
 10
248.7956059225
 20
44.0537383801
 10
249.2671241051
 20
44.6232550462
 10
249.7704844871
 20
45.1306383231
 10
250.2954401028
 20
45.5655593503
 10
250.8313043697
 20
45.9191643901
 10
251.3671686366
 20
46.1842550636
 10
251.8921242523
 20
46.355434889
 10
252.3954846343
 20
46.4292191387
 10
252.8670028169
 20
46.4041057783
 10
253.2970800496
 20
46.2806060433
 10
253.4200200607
 20
46.2229800922
  0
LINE
  5
250
330
1F
100
AcDbEntity
  8
0
  6
Continuous
 62
     7
370
    18
100
AcDbLine
 10
248.1045851723
 20
37.046544136
 30
0.0
 11
248.0179532732
 21
37.1312897464
 31
0.0
  0
LWPOLYLINE
  5
251
330
1F
100
AcDbEntity
  8
0
  6
Continuous
 62
     7
370
    18
100
AcDbPolyline
 90
       18
 70
   128
 43
0.0
 10
247.3194761498
 20
39.3415220194
 10
247.3331619687
 20
39.6408864168
 10
247.4169628162
 20
40.2952120839
 10
247.5737987597
 20
40.9720430828
 10
247.8005461706
 20
41.6578992846
 10
248.0926890259
 20
42.3391208099
 10
248.4444088522
 20
43.002140086
 10
248.848700609
 20
43.6337520657
 10
249.297512205
 20
44.2213772267
 10
249.7819048681
 20
44.7533121113
 10
250.2922311746
 20
45.2189624196
 10
250.8183271924
 20
45.6090540105
 10
251.3497149114
 20
45.9158176111
 10
251.8758109292
 20
46.133143553
 10
252.3861372357
 20
46.2567034565
 10
252.8705298988
 20
46.2840364364
 10
253.3193414948
 20
46.2145981143
 10
253.3858778357
 20
46.1950026131
  0
ARC
  5
252
330
1F
100
AcDbEntity
  8
0
  6
Continuous
 62
     7
370
    18
100
AcDbCircle
 10
250.3911410236
 20
44.5450078809
 30
0.0
 40
14.59972786471639
100
AcDbArc
 50
110.186167714
 51
139.1704721415
  0
LWPOLYLINE
  5
253
330
1F
100
AcDbEntity
  8
0
  6
Continuous
 62
     7
370
    18
100
AcDbPolyline
 90
       13
 70
   128
 43
0.0
 10
238.5074195112
 20
54.2093113885
 10
239.3353292604
 20
55.095186756
 10
240.1911593856
 20
55.9113057729
 10
241.0682449926
 20
56.6513128005
 10
241.959755657
 20
57.3094449327
 10
242.8587486176
 20
57.8805768756
 10
243.7582228436
 20
58.3602608608
 10
244.6511735562
 20
58.7447612837
 10
245.5306467795
 20
59.0310837946
 10
246.3897934954
 20
59.2169986177
 10
247.2219229812
 20
59.3010579159
 10
248.0205549145
 20
59.2826070658
 10
248.1463831286
 20
59.2699647576
  0
LINE
  5
254
330
1F
100
AcDbEntity
  8
0
  6
Continuous
 62
     7
370
    18
100
AcDbLine
 10
224.5395344964
 20
51.6834621847
 30
0.0
 11
224.8456986199
 21
51.312726915
 31
0.0
  0
LINE
  5
255
330
1F
100
AcDbEntity
  8
0
  6
Continuous
 62
     7
370
    18
100
AcDbLine
 10
224.5395344964
 20
43.9193517933
 30
0.0
 11
224.8456986199
 21
44.6068854974
 31
0.0
  0
LINE
  5
256
330
1F
100
AcDbEntity
  8
0
  6
Continuous
 62
     7
370
    18
100
AcDbLine
 10
225.5816087737
 20
45.0317173863
 30
0.0
 11
224.845705946
 21
44.6068897266
 31
0.0
  0
LINE
  5
257
330
1F
100
AcDbEntity
  8
0
  6
Continuous
 62
     7
370
    18
100
AcDbLine
 10
225.5150333985
 20
45.7749432795
 30
0.0
 11
224.2057624246
 21
45.0191172344
 31
0.0
  0
LINE
  5
258
330
1F
100
AcDbEntity
  8
0
  6
Continuous
 62
     7
370
    18
100
AcDbLine
 10
221.0286837818
 20
46.5935258895
 30
0.0
 11
220.732196279
 21
46.097464282
 31
0.0
  0
LINE
  5
259
330
1F
100
AcDbEntity
  8
0
  6
Continuous
 62
     7
370
    18
100
AcDbLine
 10
222.8605014103
 20
47.6510116973
 30
0.0
 11
221.0287440312
 21
46.5935606708
 31
0.0
  0
LINE
  5
25A
330
1F
100
AcDbEntity
  8
0
  6
Continuous
 62
     7
370
    18
100
AcDbLine
 10
222.8605014103
 20
47.6510116973
 30
0.0
 11
222.981811372
 21
47.5892608594
 31
0.0
  0
OLE2FRAME
  5
25B
330
1F
100
AcDbEntity
  8
0
100
AcDbOle2Frame
 70
     2
  3
Paintbrush-Bild
 10
13.8511154363
 20
38.264191557
 30
0.0
 11
51.6290888628
 21
31.9806341108
 31
0.0
 71
     2
 72
     0
 73
     1
 90
    12928
310
80552BED0767C5B32B40DDAF6807D121434000000000000000006FFBDDFB85D0
310
4940DDAF6807D121434000000000000000006FFBDDFB85D04940416F4BD60AFB
310
3F4000000000000000002BED0767C5B32B40416F4BD60AFB3F40000000000000
310
0000000000000100000000010000010000000100000000000100000000320000
310
D0CF11E0A1B11AE1000000000000000000000000000000003E000300FEFF0900
310
0600000000000000000000000100000001000000000000000010000002000000
310
01000000FEFFFFFF0000000000000000FFFFFFFFFFFFFFFFFFFFFFFFFFFFFFFF
310
FFFFFFFFFFFFFFFFFFFFFFFFFFFFFFFFFFFFFFFFFFFFFFFFFFFFFFFFFFFFFFFF
310
FFFFFFFFFFFFFFFFFFFFFFFFFFFFFFFFFFFFFFFFFFFFFFFFFFFFFFFFFFFFFFFF
310
FFFFFFFFFFFFFFFFFFFFFFFFFFFFFFFFFFFFFFFFFFFFFFFFFFFFFFFFFFFFFFFF
310
FFFFFFFFFFFFFFFFFFFFFFFFFFFFFFFFFFFFFFFFFFFFFFFFFFFFFFFFFFFFFFFF
310
FFFFFFFFFFFFFFFFFFFFFFFFFFFFFFFFFFFFFFFFFFFFFFFFFFFFFFFFFFFFFFFF
310
FFFFFFFFFFFFFFFFFFFFFFFFFFFFFFFFFFFFFFFFFFFFFFFFFFFFFFFFFFFFFFFF
310
FFFFFFFFFFFFFFFFFFFFFFFFFFFFFFFFFFFFFFFFFFFFFFFFFFFFFFFFFFFFFFFF
310
FFFFFFFFFFFFFFFFFFFFFFFFFFFFFFFFFFFFFFFFFFFFFFFFFFFFFFFFFFFFFFFF
310
FFFFFFFFFFFFFFFFFFFFFFFFFFFFFFFFFFFFFFFFFFFFFFFFFFFFFFFFFFFFFFFF
310
FFFFFFFFFFFFFFFFFFFFFFFFFFFFFFFFFFFFFFFFFFFFFFFFFFFFFFFFFFFFFFFF
310
FFFFFFFFFFFFFFFFFFFFFFFFFFFFFFFFFFFFFFFFFFFFFFFFFFFFFFFFFFFFFFFF
310
FFFFFFFFFFFFFFFFFFFFFFFFFFFFFFFFFFFFFFFFFFFFFFFFFFFFFFFFFFFFFFFF
310
FFFFFFFFFFFFFFFFFFFFFFFFFFFFFFFFFFFFFFFFFFFFFFFFFFFFFFFFFFFFFFFF
310
FDFFFFFFFEFFFFFFFEFFFFFFFEFFFFFF05000000060000000700000008000000
310
090000000A0000000B0000000C0000000D0000000E0000000F00000010000000
310
11000000120000001300000014000000150000001600000017000000FEFFFFFF
310
FFFFFFFFFFFFFFFFFFFFFFFFFFFFFFFFFFFFFFFFFFFFFFFFFFFFFFFFFFFFFFFF
310
FFFFFFFFFFFFFFFFFFFFFFFFFFFFFFFFFFFFFFFFFFFFFFFFFFFFFFFFFFFFFFFF
310
FFFFFFFFFFFFFFFFFFFFFFFFFFFFFFFFFFFFFFFFFFFFFFFFFFFFFFFFFFFFFFFF
310
FFFFFFFFFFFFFFFFFFFFFFFFFFFFFFFFFFFFFFFFFFFFFFFFFFFFFFFFFFFFFFFF
310
FFFFFFFFFFFFFFFFFFFFFFFFFFFFFFFFFFFFFFFFFFFFFFFFFFFFFFFFFFFFFFFF
310
FFFFFFFFFFFFFFFFFFFFFFFFFFFFFFFFFFFFFFFFFFFFFFFFFFFFFFFFFFFFFFFF
310
FFFFFFFFFFFFFFFFFFFFFFFFFFFFFFFFFFFFFFFFFFFFFFFFFFFFFFFFFFFFFFFF
310
FFFFFFFFFFFFFFFFFFFFFFFFFFFFFFFFFFFFFFFFFFFFFFFFFFFFFFFFFFFFFFFF
310
FFFFFFFFFFFFFFFFFFFFFFFFFFFFFFFFFFFFFFFFFFFFFFFFFFFFFFFFFFFFFFFF
310
FFFFFFFFFFFFFFFFFFFFFFFFFFFFFFFFFFFFFFFFFFFFFFFFFFFFFFFFFFFFFFFF
310
FFFFFFFFFFFFFFFFFFFFFFFFFFFFFFFFFFFFFFFFFFFFFFFFFFFFFFFFFFFFFFFF
310
FFFFFFFFFFFFFFFFFFFFFFFFFFFFFFFFFFFFFFFFFFFFFFFFFFFFFFFFFFFFFFFF
310
FFFFFFFFFFFFFFFFFFFFFFFFFFFFFFFFFFFFFFFFFFFFFFFFFFFFFFFFFFFFFFFF
310
52006F006F007400200045006E00740072007900000000000000000000000000
310
0000000000000000000000000000000000000000000000000000000000000000
310
16000500FFFFFFFFFFFFFFFF020000000A00030000000000C000000000000046
310
00000000000000000000000000B2164E7EA9D30103000000C000000000000000
310
01004F006C006500000000000000000000000000000000000000000000000000
310
0000000000000000000000000000000000000000000000000000000000000000
310
0A000200FFFFFFFFFFFFFFFFFFFFFFFF00000000000000000000000000000000
310
0000000000000000000000000000000000000000000000001400000000000000
310
010043006F006D0070004F0062006A0000000000000000000000000000000000
310
0000000000000000000000000000000000000000000000000000000000000000
310
120002010100000003000000FFFFFFFF00000000000000000000000000000000
310
0000000000000000000000000000000000000000010000004D00000000000000
310
01004F006C006500310030004E00610074006900760065000000000000000000
310
0000000000000000000000000000000000000000000000000000000000000000
310
1A000200FFFFFFFFFFFFFFFFFFFFFFFF00000000000000000000000000000000
310
0000000000000000000000000000000000000000040000002426000000000000
310
FEFFFFFF02000000FEFFFFFFFFFFFFFFFFFFFFFFFFFFFFFFFFFFFFFFFFFFFFFF
310
FFFFFFFFFFFFFFFFFFFFFFFFFFFFFFFFFFFFFFFFFFFFFFFFFFFFFFFFFFFFFFFF
310
FFFFFFFFFFFFFFFFFFFFFFFFFFFFFFFFFFFFFFFFFFFFFFFFFFFFFFFFFFFFFFFF
310
FFFFFFFFFFFFFFFFFFFFFFFFFFFFFFFFFFFFFFFFFFFFFFFFFFFFFFFFFFFFFFFF
310
FFFFFFFFFFFFFFFFFFFFFFFFFFFFFFFFFFFFFFFFFFFFFFFFFFFFFFFFFFFFFFFF
310
FFFFFFFFFFFFFFFFFFFFFFFFFFFFFFFFFFFFFFFFFFFFFFFFFFFFFFFFFFFFFFFF
310
FFFFFFFFFFFFFFFFFFFFFFFFFFFFFFFFFFFFFFFFFFFFFFFFFFFFFFFFFFFFFFFF
310
FFFFFFFFFFFFFFFFFFFFFFFFFFFFFFFFFFFFFFFFFFFFFFFFFFFFFFFFFFFFFFFF
310
FFFFFFFFFFFFFFFFFFFFFFFFFFFFFFFFFFFFFFFFFFFFFFFFFFFFFFFFFFFFFFFF
310
FFFFFFFFFFFFFFFFFFFFFFFFFFFFFFFFFFFFFFFFFFFFFFFFFFFFFFFFFFFFFFFF
310
FFFFFFFFFFFFFFFFFFFFFFFFFFFFFFFFFFFFFFFFFFFFFFFFFFFFFFFFFFFFFFFF
310
FFFFFFFFFFFFFFFFFFFFFFFFFFFFFFFFFFFFFFFFFFFFFFFFFFFFFFFFFFFFFFFF
310
FFFFFFFFFFFFFFFFFFFFFFFFFFFFFFFFFFFFFFFFFFFFFFFFFFFFFFFFFFFFFFFF
310
FFFFFFFFFFFFFFFFFFFFFFFFFFFFFFFFFFFFFFFFFFFFFFFFFFFFFFFFFFFFFFFF
310
FFFFFFFFFFFFFFFFFFFFFFFFFFFFFFFFFFFFFFFFFFFFFFFFFFFFFFFFFFFFFFFF
310
FFFFFFFFFFFFFFFFFFFFFFFFFFFFFFFFFFFFFFFFFFFFFFFFFFFFFFFFFFFFFFFF
310
0100000200000000000000000000000000000000000000000000000000000000
310
0000000000000000000000000000000000000000000000000000000000000000
310
0100FEFF030A0000FFFFFFFF0A00030000000000C00000000000004607000000
310
5042727573680007000000504272757368000700000050427275736800F439B2
310
7100000000000000000000000000000000000000000000000000000000000000
310
0000000000000000000000000000000000000000000000000000000000000000
310
0000000000000000000000000000000000000000000000000000000000000000
310
0000000000000000000000000000000000000000000000000000000000000000
310
0000000000000000000000000000000000000000000000000000000000000000
310
0000000000000000000000000000000000000000000000000000000000000000
310
0000000000000000000000000000000000000000000000000000000000000000
310
0000000000000000000000000000000000000000000000000000000000000000
310
0000000000000000000000000000000000000000000000000000000000000000
310
0000000000000000000000000000000000000000000000000000000000000000
310
0000000000000000000000000000000000000000000000000000000000000000
310
0000000000000000000000000000000000000000000000000000000000000000
310
20260000424D0E260000000000003E00000028000000B40200006E0000000100
310
01000000000000000000130B0000130B00000200000002000000000000FFFFFF
310
FFFFFFFFFFFFFFFFFFFFFFFFFFFFFFFFFFFFFFFFFFFFFFFFFFFFFFFFFFFFFFFF
310
FFFFFFFFFFFFFFFFFFFFFFFFFFFFFFFFFFFFFFFFFFFFFFFFFFFFFFFFFFFFFFFF
310
FFFFFFFFFFFFFFFFFFFFFFFFFFFFFFFFFFFFFFFFFFFFFFFFF000FFFFFFFFFFFF
310
FFFFFFFFFFFFFFFFFFFFFFFFFFFFFFFFFFFFFFFFFFFFFFFFFFFFFFFFFFFFFFFF
310
FFFFFFFFFFFFFFFFFFFFFFFFFFFFFFFFFFFFFFFFFFFFFFFFFFFFFFFFFFFFFFFF
310
FFFFFFFFFFFFFFFFFFFFFFFFFFFFFFFFF000FFFFFFFFFFFFFFFFFFFFFFFFFFFF
310
FFFFFFFFFFFFFFFFFFFFFFFFFFFFFFFFFFFFFFFFFFFFFFFFFFFFFFFFFFFFFFFF
310
FFFFFFFFFFFFFFFFFFFFFFFFFFFFFFFFFFFFFFFFFFFFFFFFFFFFFFFFFFFFFFFF
310
FFFFFFFFFFFFFFFFF000FFFFFFFFFFFFFFFFFFFFFFFFFFFFFFFFFFFFFFFFFFFF
310
FFFFFFFFFFFFFFFFFFFFFFFFFFFFFFFFFFFFFFFFFFFFFFFFFFFFFFFFFFFFFFFF
310
FFFFFFFFFFFFFFFFFFFFFFFFFFFFFFFFFFFFFFFFFFFFFFFFFFFFFFFFFFFFFFFF
310
F000FFFFFFFFFFFFFFFFFFFFFFFFFFFFFFFFFFFFFFFFFFFFFFFFFFFFFFFFFFFF
310
FFFFFFFFFFFFFFFFFFFFFFFFFFFFFFFFFFFFFFFFFFFFFFFFFFFFFFFFFFFFFFFF
310
FFFFFFFFFFFFFFFFFFFFFFFFFFFFFFFFFFFFFFFFFFFFFFFFF000FFFFFFFFFFFF
310
FFFFFFFFFFFFFFFFFFFFFFFFFFFFFFFFFFFFFFFFFFFFFFFFFFFFFFFFFFFFFFFF
310
FFFFFFFFFFFFFFFFFFFFFFFFFFFFFFFFFFFFFFFFFFFFFFFFFFFFFFFFFFFFFFFF
310
FFFFFFFFFFFFFFFFFFFFFFFFFFFFFFFFF000FFFFFFFFFFFFFFFFFFFFFFFFFFFF
310
FFFFFFFFFFFFFFFFFFFFFFFFFFFFFFFFFFFFFFFFFFFFFFFFFFFFFFFFFFFFFFFF
310
FFFFFFFFFFFFFFFFFFFFFFFFFFFFFFFFFFFFFFFFFFFFFFFFFFFFFFFFFFFFFFFF
310
FFFFFFFFFFFFFFFFF000FFFFFFFFFFFFFFFFFFFFFFFFFFFFFFFFFFFFFFFFFFFF
310
FFFFFFFFFFFFFFFFFFFFFFFFFFFFFFFFFFFFFFFFFFFFFFFFFFFFFFFFFFFFFFFF
310
FFFFFFFFFFFFFFFFFFFFFFFFFFFFFFFFFFFFFFFFFFFFFFFFFFFFFFFFFFFFFFFF
310
F000FFFFFFFFFFFFFFFFFFFFFFFFFFFFFFFFFFFFFFFFFFFFFFFFFFFFFFFFFFFF
310
FFFFFFFFFFFFFFFFFFFFFFFFFFFFFFFFFFFFFFFFFFFFFFFFFFFFFFFFFFFFFFFF
310
FFFFFFFFFFFFFFFFFFFFFFFFFFFFFFFFFFFFFFFFFFFFFFFFF000FFFFFFFFFFFF
310
FFFFFFFFFFFFFFFFFFFFFFFFFFFFFFFFFFFFFFFFFFFFFFFFFFFFFFFFFFFFFFFF
310
FFFFFFFFFFFFFFFFFFFFFFFFFFFFFFFFFFFFFFFFFFFFFFFFFFFFFFFFFFFFFFFF
310
FFFFFFFFFFFFFFFFFFFFFFFFFFFFFFFFF000FFFFFFFFFFFFFFFFFFFFFFFFFFFF
310
FFFFFFFFFFFFFFFFFFFFFFFFFFFFFFFFFFFFFFFFFFFFFFFFFFFFFFFFFFFFFFFF
310
FFFFFFFFFFFFFFFFFFFFFFFFFFFFFFFFFFFFFFFFFFFFFFFFFFFFFFFFFFFFFFFF
310
FFFFFFFFFFFFFFFFF000FFFFFFFFFFFFFFFFFFFFFFFFFFFFFFFFFFFFFFFFFFFF
310
FFFFFFFFFFFFFFFFFFFFFFFFFFFFFFFFFFFFFFFFFFFFFFFFFFFFFFFFFFFFFFFF
310
FFFFFFFFFFFFFFFFFFFFFFFFFFFFFFFFFFFFFFFFFFFFFFFFFFFFFFFFFFFFFFFF
310
F000FFFFFFFFFFFFFFFFFFFFFFFFFFFFFFFFFFFFFFFFFFFFFFFFFFFFFFFFFFFF
310
FFFFFFFFFFFFFFFFFFFFFFFFFFFFFFFFFFFFFFFFFFFFFFFFFFFFFFFFFFFFFFFF
310
FFFFFFFFFFFFFFFFFFFFFFFFFFFFFFFFFFFFFFFFFFFFFFFFF000FFFFFFFFFFFF
310
FFFFFFFFFFFFFFFFFFFFFFFFFFFFFFFFFFFFFFFFFFFFFFFFFFFFFFFFFFFFFFFF
310
FFFFFFFFFFFFFFFFFFFFFFFFFFFFFFFFFFFFFFFFFFFFFFFFFFFFFFFFFFFFFFFF
310
FFFFFFFFFFFFFFFFFFFFFFFFFFFFFFFFF000FFFFFFFFFFFFFFFFFFFFFFFFFFFF
310
FFFFFFFFFFFFFFFFFFFFFFFFFFFFFFFFFFFFFFFFFFFFFFFFFFFFFFFFFFFFFFFF
310
FFFFFFFFFFFFFFFFFFFFFFFFFFFFFFFFFFFFFFFFFFFFFFFFFFFFFFFFFFFFFFFF
310
FFFFFFFFFFFFFFFFF000FFFFFFFFFFFFFFFFFFFFFFFFFFFFFFFFFFFFFFFFFFFF
310
FFFFFFFFFFFFFFFFFFFFFFFFFFFFFFFFFFFFFFFFFFFFFFFFFFFFFFFFFFFFFFFF
310
FFFFFFFFFFFFFFFFFFFFFFFFFFFFFFFFFFFFFFFFFFFFFFFFFFFFFFFFFFFFFFFF
310
F000FFFFFFFFFFFFFFFFFFFFFFFFFFFFFFFFFFFFFFFFFFFFFFFFFFFFFFFFFFFF
310
FFFFFFFFFFFFFFFFFFFFFFFFFFFFFFFFFFFFFFFFFFFFFFFFFFFFFFFFFFFFFFFF
310
FFFFFFFFFFFFFFFFFFFFFFFFFFFFFFFFFFFFFFFFFFFFFFFFF000FFFFFFFFFFFF
310
FFFFFFFFFFFFFFFFFFFFFFFFFFFFFFFFFFFFFFFFFFFFFFFFFFFFFFFFFFFFFFFF
310
FFFFFFFFFFFFFFFFFFFFFFFFFFFFFFFFFFFFFFFFFFFFFFFFFFFFFFFFFFFFFFFF
310
FFFFFFFFFFFFFFFFFFFFFFFFFFFFFFFFF000FFFFFFFFFFFFFFFFFFFFFFFFFFFF
310
FFFFFFFFFFFFFFFFFFFFFFFFFFFFFFFFFFFFFFFFFFFFFFFFFFFFFFFFFFFFFFFF
310
FFFFFFFFFFFFFFFFFFFFFFFFFFFFFFFFFFFFFFFFFFFFFFFFFFFFFFFFFFFFFFFF
310
FFFFFFFFFFFFFFFFF000FFFFF80003FFFFFFFFFFFFFFFFFFFFFFFFFFFFFFFFFF
310
FFFFF00007FFFFFFFFFF00007FFFFFF800000000000000007FFFFFFFFFFFFFFF
310
FFFFFFFC001FFFFFFFFFFFFFFC001FFFFFFFFFFFFFFFFFFFFFFFFFFE0007FFFF
310
F000FFFF8000007FFFFFFFF8000FFFFFC0007FFFFF80007FFFFF0000007FFFFF
310
FFF8000007FFFFF800000000000000007FFFFFF0001FFFFFFFFFFFC00001FFFF
310
FFFFFFFFC00001FFFFFFFF000000000003FFFFE000007FFFF000FFFE0000000F
310
FFFFFFF0000FFFFF80007FFFFF80007FFFFC0000001FFFFFFFC0000001FFFFF8
310
00000000000000007FFFFFF0001FFFFFFFFFFE0000003FFFFFFFFFFE0000003F
310
FFFFFF000000000003FFFF0000000FFFF000FFF800000003FFFFFFF00007FFFF
310
80007FFFFF80007FFFF000000007FFFFFF000000003FFFF80000000000000000
310
7FFFFFF0001FFFFFFFFFF80000000FFFFFFFFFF80000000FFFFFFF0000000000
310
03FFFC00000003FFF000FFE000000000FFFFFFF00007FFFF80003FFFFF80007F
310
FFC000000001FFFFFC000000001FFFF800000000000000007FFFFFF0001FFFFF
310
FFFFE000000003FFFFFFFFE000000003FFFFFF000000000003FFF000000000FF
310
F000FF80000000007FFFFFF00007FFFF80003FFFFF80007FFF8000000000FFFF
310
F80000000007FFF800000000000000007FFFFFF0001FFFFFFFFFC000000001FF
310
FFFFFFC000000001FFFFFF000000000003FFC0000000007FF000FF0000000000
310
3FFFFFE00007FFFF00003FFFFF80007FFE00000000003FFFF00000000003FFF8
310
00000000000000007FFFFFF0001FFFFFFFFF8000000000FFFFFFFF8000000000
310
FFFFFF000000000003FF80000000003FF000FE00000000001FFFFFE00003FFFF
310
00003FFFFF80007FFC00000000001FFFE00000000001FFF8000001FFFE000000
310
7FFFFFF0001FFFFFFFFE00000000003FFFFFFE00000000003FFFFF0000000000
310
03FF00000000001FF000FC00000000000FFFFFE00003FFFF00001FFFFF80007F
310
F800000000001FFFC00000000000FFF8000001FFFE0000007FFFFFF0001FFFFF
310
FFFC00000000001FFFFFFC00000000001FFFFF000000000003FE00000000000F
310
F000F8000000000007FFFFE00003FFFF00001FFFFF80007FF800000000000FFF
310
800000000000FFF8000001FFFE0000007FFFFFF0001FFFFFFFF800000000000F
310
FFFFF800000000000FFFFF000000000003FC000000000007F000F80000000000
310
03FFFFC00003FFFE00001FFFFF80007FF0000000000007FF0000000000007FF8
310
000001FFFE0000007FFFFFF0001FFFFFFFF0000000000007FFFFF00000000000
310
07FFFF000000000003F8000000000003F000F0000000000003FFFFC00001FFFE
310
00001FFFFF80007FE0000000000007FE0000000000003FF8000001FFFE000000
310
7FFFFFF0001FFFFFFFF0000000000007FFFFF0000000000007FFFF0000000000
310
03F800001F800003F000E00001FFF00001FFFFC00001FFFE00000FFFFF80007F
310
E00001FFE00003FE00001FFF00003FF8000001FFFE0000007FFFFFF0001FFFFF
310
FFE000003E000003FFFFE000003E000003FFFF000000000003F00001FFF80001
310
F000E00007FFFC0001FFFFC00001FFFE00000FFFFF80007FC0000FFFFC0003FC
310
0000FFFFC0001FF8000001FFFE0000007FFFFFF0001FFFFFFFC00003FFE00001
310
FFFFC00003FFE00001FFFF0001FFFFFFFFF00007FFFE0001F000E0000FFFFF00
310
00FFFF800001FFFC00000FFFFF80007FC0001FFFFE0001FC0001FFFFE0001FF8
310
000001FFFE0000007FFFFFF0001FFFFFFF80000FFFF80000FFFF80000FFFF800
310
00FFFF0003FFFFFFFFE0000FFFFF8000F000C0003FFFFF8000FFFF800000FFFC
310
000007FFFF80007F80003FFFFF0001FC0003FFFFF0001FF8000001FFFE000000
310
7FFFFFF0001FFFFFFF80003FFFFE0000FFFF80003FFFFE0000FFFF0003FFFFFF
310
FFE0003FFFFF8000F000C0003FFFFF8000FFFF800000FFFC000007FFFF80007F
310
80007FFFFF8001F80007FFFFF8000FF8000001FFFE0000007FFFFFF0001FFFFF
310
FF00007FFFFF00007FFF00007FFFFF00007FFF0003FFFFFFFFE0003FFFFFC000
310
F000C0007FFFFFC000FFFF000000FFFC000007FFFF80007F8000FFFFFF8000F8
310
000FFFFFF8000FF8000001FFFE0000007FFFFFF0001FFFFFFF0000FFFFFF8000
310
7FFF0000FFFFFF80007FFF0003FFFFFFFFC0007FFFFFC00070008000FFFFFFC0
310
00FFFF000000FFF8000007FFFF80007F8000FFFFFF8000F8000FFFFFF8000FF8
310
000001FFFE0000007FFFFFF0001FFFFFFE0001FFFFFFC0003FFE0001FFFFFFC0
310
003FFF0003FFFFFFFFC0007FFFFFE00070008000FFFFFFC0007FFF0000007FF8
310
000003FFFF80007F0001FFFFFF8000F8000FFFFFF8000FF8000001FFFE000000
310
7FFFFFF0001FFFFFFE0001FFFFFFC0003FFE0001FFFFFFC0003FFF0003FFFFFF
310
FFC000FFFFFFE00070008000FFFFFFC0007FFF0000007FF8000003FFFF80007F
310
0001FFFFFF8000F8001FFFFFF8000FF8000001FFFE0000007FFFFFF0001FFFFF
310
FE0003FFFFFFE0003FFE0003FFFFFFE0003FFF0003FFFFFFFFC000FFFFFFE000
310
70008000FFFFFFC0007FFE0000007FF8000003FFFF80007F0001FFFFFF8000F0
310
001FFFFFF8000FF8000001FFFE0000007FFFFFF0001FFFFFFC0003FFFFFFE000
310
1FFC0003FFFFFFE0001FFF0003FFFFFFFFC000FFFFFFC00070008000FFFFFF80
310
007FFE0000007FF0000003FFFF80007F0001FFFFFF0000F0001FFFFFF8000FF8
310
000001FFFE0000007FFFFFF0001FFFFFFC0007FFFFFFF0001FFC0007FFFFFFF0
310
001FFF0003FFFFFFFFC000FFFFFFC00070008001FFFFFF0000FFFE0000003FF0
310
000001FFFF80007F0001FFFFFF0000F8001FFFFFF0000FF8000001FFFE000000
310
7FFFFFF0001FFFFFFC0007FFFFFFF0001FFC0007FFFFFFF0001FFF0003FFFFFF
310
FFC001FFFFFF80007000FFFFFFFFFE0000FFFE0008003FF0008001FFFF80007F
310
FFFFFFFFFC0000FFFFFFFFFFE0000FF8000001FFFE0000007FFFFFF0001FFFFF
310
F8000FFFFFFFF8000FF8000FFFFFFFF8000FFF0003FFFFFFFFFFFFFFFFFF0000
310
7000FFFFFFFFFC0000FFFC0008003FF0008001FFFF80007FFFFFFFFFF80001FF
310
FFFFFFFF80000FF8000001FFFE0000007FFFFFF0001FFFFFF8000FFFFFFFF800
310
0FF8000FFFFFFFF8000FFF0003FFFFFFFFFFFFFFFFFE0000F000FFFFFFFFE000
310
00FFFC000C003FE000C001FFFF80007FFFFFFFFFC00001FFFFFFFFFE00001FF8
310
000001FFFE0000007FFFFFF0001FFFFFF8000FFFFFFFF8000FF8000FFFFFFFF8
310
000FFF0003FFFFFFFFFFFFFFFFF00000F000FFFFFFFE000001FFFC000C001FE0
310
00C000FFFF80007FFFFFFFFE000001FFFFFFFFE000001FF80FFFFFFFFFFFFFC0
310
7FFFFFF0001FFFFFF8000FFFFFFFF8000FF8000FFFFFFFF8000FFF0003FFFFFF
310
FFFFFFFFFF800000F000FFFFFFC0000001FFFC001C001FE001C000FFFF80007F
310
FFFFFF80000003FFFFFFF80000001FF80FFFFFFFFFFFFFC07FFFFFF0001FFFFF
310
F8001FFFFFFFFC000FF8001FFFFFFFFC000FFF0003FFFFFFFFFFFFFFF0000001
310
F000FFFFF800000001FFF8001C001FE001C000FFFF80007FFFFFF800000003FF
310
FFFF800000003FF80FFFFFFFFFFFFFC07FFFFFF0001FFFFFF8001FFFFFFFFC00
310
0FF8001FFFFFFFFC000FFF0003FFFFFFFFFFFFFE00000001F000FFFFC0000000
310
03FFF8001E001FC001E000FFFF80007FFFFF8000000007FFFFFC000000003FF8
310
0FFFFFFFFFFFFFC07FFFFFF0001FFFFFF8001FFFFFFFFC000FF8001FFFFFFFFC
310
000FFF0003FFFFFFFFFFFFE000000003F000FFFE0000000007FFF8001E000FC0
310
01E0007FFF80007FFFFE0000000007FFFFE0000000007FF80FFFFFFFFFFFFFC0
310
7FFFFFF0001FFFFFF0001FFFFFFFFC0007F0001FFFFFFFFC0007FF0003FFFFFF
310
FFFFFF0000000003F000FFF80000000007FFF8001E000FC003E0007FFF80007F
310
FFF0000000000FFFFF8000000000FFF80FFFFFFFFFFFFFC07FFFFFF0001FFFFF
310
F0001FFFFFFFFC0007F0001FFFFFFFFC0007FF0003FFFFFFFFFFFC0000000007
310
F000FFE0000000000FFFF0003E000FC003E0007FFF80007FFFC0000000001FFF
310
FE0000000001FFF80FFFFFFFFFFFFFC07FFFFFF0001FFFFFF0001FFFFFFFFC00
310
07F0001FFFFFFFFC0007FF0003FFFFFFFFFFF0000000000FF000FFC000000000
310
1FFFF0003F000F8003F0003FFF80007FFF80000000003FFFF80000000003FFF8
310
0FFFFFFFFFFFFFC07FFFFFF0001FFFFFF0001FFFFFFFFC0007F0001FFFFFFFFC
310
0007FF0003FFFFFFFFFFE0000000001FF000FF00000000007FFFF0003F000780
310
03F0003FFF80007FFF00000000007FFFF00000000007FFF80FFFFFFFFFFFFFC0
310
7FFFFFF0001FFFFFF0001FFFFFFFFC0007F0001FFFFFFFFC0007FF0003FFFFFF
310
FFFF80000000007FF000FE0000000000FFFFE0003F00078007F0003FFF80007F
310
FE0000000001FFFFE0000000001FFFF80FFFFFFFFFFFFFC07FFFFFF0001FFFFF
310
F0001FFFFFFFFC0007F0001FFFFFFFFC0007FF0003FFFFFFFFFF0000000000FF
310
F000FC0000000003FFFFE0007F00078007F0003FFF80007FFC0000000007FFFF
310
C0000000007FFFF80FFFFFFFFFFFFFC07FFFFFF0001FFFFFF8001FFFFFFFFC00
310
0FF8001FFFFFFFFC000FFF0003FFFFFFFFFE0000000003FFF000FC000000000F
310
FFFFE0007F80070007F8001FFF80007FF8000000001FFFFF8000000001FFFFF8
310
0FFFFFFFFFFFFFC07FFFFFF0001FFFFFF8001FFFFFFFFC000FF8001FFFFFFFFC
310
000FFF0003FFFFFFFFFC000000000FFFF000F8000000007FFFFFE0007F800700
310
07F8001FFF80007FF000000000FFFFFF800000000FFFFFF80FFFFFFFFFFFFFC0
310
7FFFFFF0001FFFFFF8000FFFFFFFF8000FF8000FFFFFFFF8000FFF0003FFFFFF
310
FFFC000000007FFFF000F800000007FFFFFFC0007F8003000FF8001FFF80007F
310
F000000007FFFFFF000000007FFFFFF80FFFFFFFFFFFFFC07FFFFFF0001FFFFF
310
F8000FFFFFFFF8000FF8000FFFFFFFF8000FFF0003FFFFFFFFF80000000FFFFF
310
F000F0000000FFFFFFFFC000FF8003000FF8001FFF80007FE0000000FFFFFFFF
310
0000000FFFFFFFF8000001FFFE0000007FFFFFF0001FFFFFF8000FFFFFFFF800
310
0FF8000FFFFFFFF8000FFF0003FFFFFFFFF8000000FFFFFFF000F000000FFFFF
310
FFFFC000FFC002000FF8000FFF80007FE000001FFFFFFFFE000001FFFFFFFFF8
310
000001FFFE0000007FFFFFF0001FFFFFF8000FFFFFFFF8000FF8000FFFFFFFF8
310
000FFF0003FFFFFFFFF000001FFFFFFFF000E00000FFFFFFFFFFC000FFC00200
310
0FFC000FFF80007FE00001FFFFFFFFFE00001FFFFFFFFFF8000001FFFE000000
310
7FFFFFF0001FFFFFFC000FFFFFFFF8001FFC000FFFFFFFF8001FFF0003FFFFFF
310
FFF00001FFFFFFFFF000E00007FFFFFFFFFF8000FFC000001FFC000FFF80007F
310
C0000FFFFFFFFFFE0000FFFFFFFFFFF8000001FFFE0000007FFFFFF0001FFFFF
310
FC0007FFFFFFF0001FFC0007FFFFFFF0001FFF0003FFFFFFFFF00007FFFFFFFF
310
F000E0001FFFFFFFFFFF8000FFC000001FFC000FFF80007FC0003FFFFFFFFFFE
310
0001FFFFFFFFFFF8000001FFFE0000007FFFFFF0001FFFFFFC0007FFFFFFF000
310
1FFC0007FFFFFFF0001FFF0003FFFFFFFFF0001FFFFFFFFFF000E0003FFFFF00
310
03FF8001FFE000001FFC0007FF80007FC0007FFFFF0007FC0003FFFFF0003FF8
310
000001FFFE0000007FFFFFF0001FFFFFFC0003FFFFFFE0001FFC0003FFFFFFE0
310
001FFF0003FFFFFFFFF0003FFFFFFFFFF000E0003FFFFF0001FF8001FFE00000
310
1FFE0007FF80007FC0007FFFFE0003FC0007FFFFE0003FF8000001FFFE000000
310
7FFFFFF0001FFFFFFE0003FFFFFFE0003FFE0003FFFFFFE0003FFF0003FFFFFF
310
FFF0003FFFFF8001F000E0003FFFFF0001FF0001FFE000001FFE0007FF80007F
310
C0007FFFFE0003FC0007FFFFE0003FF8000001FFFE0000007FFFFFF0001FFFFF
310
FE0001FFFFFFC0003FFE0001FFFFFFC0003FFF0003FFFFFFFFF0003FFFFF0001
310
F000E0003FFFFF0003FF0001FFE000003FFE0007FF80007FC0007FFFFE0003FC
310
0007FFFFE0003FF8000001FFFE0000007FFFFFF0001FFFFFFF0001FFFFFFC000
310
7FFF0001FFFFFFC0007FFF0003FFFFFFFFF0003FFFFF0001F000E0003FFFFE00
310
03FF0003FFF000003FFE0003FF80007FC0007FFFFC0003FE0007FFFFE0003FF8
310
000001FFFE0000007FFFFFF0001FFFFFFF0000FFFFFF80007FFF0000FFFFFF80
310
007FFF0003FFFFFFFFF0003FFFFF0001F000E0003FFFFE0003FF0003FFF00000
310
3FFF0003FF80007FC0007FFFFC0007FE0007FFFFC0003FF8000001FFFE000000
310
7FFFFFF0001FFFFFFF80007FFFFF0000FFFF80007FFFFF0000FFFF0003FFFFFF
310
FFF0003FFFFF0003F000E0003FFFFC0003FE0003FFF000003FFF0003FF80007F
310
E0003FFFF80007FE0003FFFFC0007FF8000001FFFE0000007FFFFFF0001FFFFF
310
FF80003FFFFE0000FFFF80003FFFFE0000FFFF0003FFFFFFFFF0001FFFFE0003
310
F000F0001FFFF80003FE0003FFF000007FFF0001FF80007FE0003FFFF00007FE
310
0001FFFF80007FF8000001FFFE0000007FFFFFF0001FFFFFFFC0000FFFF80001
310
FFFFC0000FFFF80001FFFF0003FFFFFFFFF0001FFFFC0003F000F0000FFFF000
310
07FE0007FFF800007FFF0001FF80007FE0001FFFE00007FF0000FFFE00007FF8
310
000001FFFE0000007FFFFFF0001FFFFFFFC00003FFE00001FFFFC00003FFE000
310
01FFFF0003FFFFFFFFF8000FFFF80003F000F00003FFC00007FC0007FFF80000
310
7FFF8001FF80007FF00007FF80000FFF00007FF80000FFF8000001FFFE000000
310
7F80000000000001FFE000003E000003FFFFE000003E000003FFFF0003FFFFFF
310
FFF80003FFE00007F000F800000000000FFC0007FFF800007FFF8001FF80007F
310
F000000000000FFF000000000000FFF8000001FFFE0000007F80000000000001
310
FFF0000000000007FFFFF0000000000007FFFF0003FFFFFFFFFC00007E000007
310
F000F800000000000FFC0007FFF80000FFFF8000FF80007FF800000000001FFF
310
800000000001FFF8000001FFFE0000007F80000000000001FFF800000000000F
310
FFFFF800000000000FFFFF0003FFFFFFFFFC00000000000FF000FC0000000000
310
1FFC0007FFFC0000FFFF8000FF80007FF800000000003FFFC00000000001FFF8
310
000001FFFE0000007F80000000000001FFF800000000000FFFFFF80000000000
310
0FFFFF0003FFFFFFFFFE00000000001FF000FE00000000003FF8000FFFFC0000
310
FFFF8000FF80007FFC00000000003FFFC00000000003FFF8000001FFFE000000
310
7F80000000000001FFFC00000000001FFFFFFC00000000001FFFFF0003FFFFFF
310
FFFF00000000001FF000FF00000000003FF8000FFFFC0000FFFFC000FF80007F
310
FE00000000007FFFE00000000007FFF8000001FFFE0000007F80000000000001
310
FFFE00000000003FFFFFFE00000000003FFFFF0003FFFFFFFFFF80000000003F
310
F000FF80000000007FF8000FFFFC0001FFFFC0007F80007FFF0000000000FFFF
310
F0000000000FFFF800000000000000007F80000000000001FFFF8000000000FF
310
FFFFFF8000000000FFFFFF0003FFFFFFFFFFC0000000007FF000FFC000000000
310
FFF8000FFFFE0001FFFFC0007F80007FFF8000000001FFFFF8000000001FFFF8
310
00000000000000007F80000000000001FFFFC000000001FFFFFFFFC000000001
310
FFFFFF0003FFFFFFFFFFE000000000FFF000FFE000000003FFF0001FFFFE0001
310
FFFFC0007F80007FFFC000000007FFFFFE000000003FFFF80000000000000000
310
7F80000000000001FFFFE000000003FFFFFFFFE000000003FFFFFF0003FFFFFF
310
FFFFF000000003FFF000FFF80000000FFFF0001FFFFE0001FFFFE0007F80007F
310
FFF00000000FFFFFFF00000000FFFFF800000000000000007F80000000000001
310
FFFFF80000000FFFFFFFFFF80000000FFFFFFF0003FFFFFFFFFFFC0000000FFF
310
F000FFFE0000003FFFF0001FFFFE0003FFFFE0003F80007FFFFC0000003FFFFF
310
FFC0000003FFFFF800000000000000007F80000000000001FFFFFE0000003FFF
310
FFFFFFFE0000003FFFFFFF0003FFFFFFFFFFFF0000003FFFF000FFFF800000FF
310
FFF0001FFFFF0003FFFFE0003F80007FFFFF000001FFFFFFFFF800001FFFFFF8
310
00000000000000007F80000000000001FFFFFFC00001FFFFFFFFFFFFC00001FF
310
FFFFFF0003FFFFFFFFFFFFC00000FFFFF000FFFFF8000FFFFFFFFFFFFFFFFFFF
310
FFFFFFFFFFFFFFFFFFFFF0001FFFFFFFFFFF0000FFFFFFF80000000000000000
310
7FFFFFFFFFFFFFFFFFFFFFFC001FFFFFFFFFFFFFFC001FFFFFFFFFFFFFFFFFFF
310
FFFFFFFC001FFFFFF000FFFFFFFFFFFFFFFFFFFFFFFFFFFFFFFFFFFFFFFFFFFF
310
FFFFFFFFFFFFFFFFFFFFFFFFFFFFFFFFFFFFFFFFFFFFFFFFFFFFFFFFFFFFFFFF
310
FFFFFFFFFFFFFFFFFFFFFFFFFFFFFFFFFFFFFFFFFFFFFFFFFFFFFFFFFFFFFFFF
310
F000FFFFFFFFFFFFFFFFFFFFFFFFFFFFFFFFFFFFFFFFFFFFFFFFFFFFFFFFFFFF
310
FFFFFFFFFFFFFFFFFFFFFFFFFFFFFFFFFFFFFFFFFFFFFFFFFFFFFFFFFFFFFFFF
310
FFFFFFFFFFFFFFFFFFFFFFFFFFFFFFFFFFFFFFFFFFFFFFFFF000FFFFFFFFFFFF
310
FFFFFFFFFFFFFFFFFFFFFFFFFFFFFFFFFFFFFFFFFFFFFFFFFFFFFFFFFFFFFFFF
310
FFFFFFFFFFFFFFFFFFFFFFFFFFFFFFFFFFFFFFFFFFFFFFFFFFFFFFFFFFFFFFFF
310
FFFFFFFFFFFFFFFFFFFFFFFFFFFFFFFFF000FFFFFFFFFFFFFFFFFFFFFFFFFFFF
310
FFFFFFFFFFFFFFFFFFFFFFFFFFFFFFFFFFFFFFFFFFFFFFFFFFFFFFFFFFFFFFFF
310
FFFFFFFFFFFFFFFFFFFFFFFFFFFFFFFFFFFFFFFFFFFFFFFFFFFFFFFFFFFFFFFF
310
FFFFFFFFFFFFFFFFF000FFFFFFFFFFFFFFFFFFFFFFFFFFFFFFFFFFFFFFFFFFFF
310
FFFFFFFFFFFFFFFFFFFFFFFFFFFFFFFFFFFFFFFFFFFFFFFFFFFFFFFFFFFFFFFF
310
FFFFFFFFFFFFFFFFFFFFFFFFFFFFFFFFFFFFFFFFFFFFFFFFFFFFFFFFFFFFFFFF
310
F000FFFFFFFFFFFFFFFFFFFFFFFFFFFFFFFFFFFFFFFFFFFFFFFFFFFFFFFFFFFF
310
FFFFFFFFFFFFFFFFFFFFFFFFFFFFFFFFFFFFFFFFFFFFFFFFFFFFFFFFFFFFFFFF
310
FFFFFFFFFFFFFFFFFFFFFFFFFFFFFFFFFFFFFFFFFFFFFFFFF000FFFFFFFFFFFF
310
FFFFFFFFFFFFFFFFFFFFFFFFFFFFFFFFFFFFFFFFFFFFFFFFFFFFFFFFFFFFFFFF
310
FFFFFFFFFFFFFFFFFFFFFFFFFFFFFFFFFFFFFFFFFFFFFFFFFFFFFFFFFFFFFFFF
310
FFFFFFFFFFFFFFFFFFFFFFFFFFFFFFFFF000FFFFFFFFFFFFFFFFFFFFFFFFFFFF
310
FFFFFFFFFFFFFFFFFFFFFFFFFFFFFFFFFFFFFFFFFFFFFFFFFFFFFFFFFFFFFFFF
310
FFFFFFFFFFFFFFFFFFFFFFFFFFFFFFFFFFFFFFFFFFFFFFFFFFFFFFFFFFFFFFFF
310
FFFFFFFFFFFFFFFFF000FFFFFFFFFFFFFFFFFFFFFFFFFFFFFFFFFFFFFFFFFFFF
310
FFFFFFFFFFFFFFFFFFFFFFFFFFFFFFFFFFFFFFFFFFFFFFFFFFFFFFFFFFFFFFFF
310
FFFFFFFFFFFFFFFFFFFFFFFFFFFFFFFFFFFFFFFFFFFFFFFFFFFFFFFFFFFFFFFF
310
F000FFFFFFFFFFFFFFFFFFFFFFFFFFFFFFFFFFFFFFFFFFFFFFFFFFFFFFFFFFFF
310
FFFFFFFFFFFFFFFFFFFFFFFFFFFFFFFFFFFFFFFFFFFFFFFFFFFFFFFFFFFFFFFF
310
FFFFFFFFFFFFFFFFFFFFFFFFFFFFFFFFFFFFFFFFFFFFFFFFF000FFFFFFFFFFFF
310
FFFFFFFFFFFFFFFFFFFFFFFFFFFFFFFFFFFFFFFFFFFFFFFFFFFFFFFFFFFFFFFF
310
FFFFFFFFFFFFFFFFFFFFFFFFFFFFFFFFFFFFFFFFFFFFFFFFFFFFFFFFFFFFFFFF
310
FFFFFFFFFFFFFFFFFFFFFFFFFFFFFFFFF000FFFFFFFFFFFFFFFFFFFFFFFFFFFF
310
FFFFFFFFFFFFFFFFFFFFFFFFFFFFFFFFFFFFFFFFFFFFFFFFFFFFFFFFFFFFFFFF
310
FFFFFFFFFFFFFFFFFFFFFFFFFFFFFFFFFFFFFFFFFFFFFFFFFFFFFFFFFFFFFFFF
310
FFFFFFFFFFFFFFFFF000FFFFFFFFFFFFFFFFFFFFFFFFFFFFFFFFFFFFFFFFFFFF
310
FFFFFFFFFFFFFFFFFFFFFFFFFFFFFFFFFFFFFFFFFFFFFFFFFFFFFFFFFFFFFFFF
310
FFFFFFFFFFFFFFFFFFFFFFFFFFFFFFFFFFFFFFFFFFFFFFFFFFFFFFFFFFFFFFFF
310
F000FFFFFFFFFFFFFFFFFFFFFFFFFFFFFFFFFFFFFFFFFFFFFFFFFFFFFFFFFFFF
310
FFFFFFFFFFFFFFFFFFFFFFFFFFFFFFFFFFFFFFFFFFFFFFFFFFFFFFFFFFFFFFFF
310
FFFFFFFFFFFFFFFFFFFFFFFFFFFFFFFFFFFFFFFFFFFFFFFFF000FFFFFFFFFFFF
310
FFFFFFFFFFFFFFFFFFFFFFFFFFFFFFFFFFFFFFFFFFFFFFFFFFFFFFFFFFFFFFFF
310
FFFFFFFFFFFFFFFFFFFFFFFFFFFFFFFFFFFFFFFFFFFFFFFFFFFFFFFFFFFFFFFF
310
FFFFFFFFFFFFFFFFFFFFFFFFFFFFFFFFF000FFFFFFFFFFFFFFFFFFFFFFFFFFFF
310
FFFFFFFFFFFFFFFFFFFFFFFFFFFFFFFFFFFFFFFFFFFFFFFFFFFFFFFFFFFFFFFF
310
FFFFFFFFFFFFFFFFFFFFFFFFFFFFFFFFFFFFFFFFFFFFFFFFFFFFFFFFFFFFFFFF
310
FFFFFFFFFFFFFFFFF000FFFFFFFFFFFFFFFFFFFFFFFFFFFFFFFFFFFFFFFFFFFF
310
FFFFFFFFFFFFFFFFFFFFFFFFFFFFFFFFFFFFFFFFFFFFFFFFFFFFFFFFFFFFFFFF
310
FFFFFFFFFFFFFFFFFFFFFFFFFFFFFFFFFFFFFFFFFFFFFFFFFFFFFFFFFFFFFFFF
310
F000FFFFFFFFFFFFFFFFFFFFFFFFFFFFFFFFFFFFFFFFFFFFFFFFFFFFFFFFFFFF
310
FFFFFFFFFFFFFFFFFFFFFFFFFFFFFFFFFFFFFFFFFFFFFFFFFFFFFFFFFFFFFFFF
310
FFFFFFFFFFFFFFFFFFFFFFFFFFFFFFFFFFFFFFFFFFFFFFFFF000FFFFFFFFFFFF
310
FFFFFFFFFFFFFFFFFFFFFFFFFFFFFFFFFFFFFFFFFFFFFFFFFFFFFFFFFFFFFFFF
310
FFFFFFFFFFFFFFFFFFFFFFFFFFFFFFFFFFFFFFFFFFFFFFFFFFFFFFFFFFFFFFFF
310
FFFFFFFFFFFFFFFFFFFFFFFFFFFFFFFFF000FFFFFFFFFFFFFFFFFFFFFFFFFFFF
310
FFFFFFFFFFFFFFFFFFFFFFFFFFFFFFFFFFFFFFFFFFFFFFFFFFFFFFFFFFFFFFFF
310
FFFFFFFFFFFFFFFFFFFFFFFFFFFFFFFFFFFFFFFFFFFFFFFFFFFFFFFFFFFFFFFF
310
FFFFFFFFFFFFFFFFF000FFFFFFFFFFFFFFFFFFFFFFFFFFFFFFFFFFFFFFFFFFFF
310
FFFFFFFFFFFFFFFFFFFFFFFFFFFFFFFFFFFFFFFFFFFFFFFFFFFFFFFFFFFFFFFF
310
FFFFFFFFFFFFFFFFFFFFFFFFFFFFFFFFFFFFFFFFFFFFFFFFFFFFFFFFFFFFFFFF
310
F000FFFFFFFFFFFFFFFFFFFFFFFFFFFFFFFFFFFFFFFFFFFFFFFFFFFFFFFFFFFF
310
FFFFFFFFFFFFFFFFFFFFFFFFFFFFFFFFFFFFFFFFFFFFFFFFFFFFFFFFFFFFFFFF
310
FFFFFFFFFFFFFFFFFFFFFFFFFFFFFFFFFFFFFFFFFFFFFFFFF000FFFFFFFFFFFF
310
FFFFFFFFFFFFFFFFFFFFFFFFFFFFFFFFFFFFFFFFFFFFFFFFFFFFFFFFFFFFFFFF
310
FFFFFFFFFFFFFFFFFFFFFFFFFFFFFFFFFFFFFFFFFFFFFFFFFFFFFFFFFFFFFFFF
310
FFFFFFFFFFFFFFFFFFFFFFFFFFFFFFFFF0000000000000000000000000000000
310
0000000000000000000000000000000000000000000000000000000000000000
310
0000000000000000000000000000000000000000000000000000000000000000
310
0000000000000000000000000000000000000000000000000000000000000000
310
0000000000000000000000000000000000000000000000000000000000000000
310
0000000000000000000000000000000000000000000000000000000000000000
310
0000000000000000000000000000000000000000000000000000000000000000
310
0000000000000000000000000000000000000000000000000000000000000000
310
0000000000000000000000000000000000000000000000000000000000000000
310
0000000000000000000000000000000000000000000000000000000000000000
310
0000000000000000000000000000000000000000000000000000000000000000
310
0000000000000000000000000000000000000000000000000000000000000000
310
0000000000000000000000000000000000000000000000000000000000000000
310
0000000000000000000000000000000000000000000000000000000000000000
310
0000000000000000000000000000000000000000000000000000000000000000
310
0000000000000000000000000000000000000000000000000000000000000000
  1
OLE
  0
ENDSEC
  0
SECTION
  2
OBJECTS
  0
DICTIONARY
  5
C
330
0
100
AcDbDictionary
281
     1
  3
ACAD_GROUP
350
D
  3
ACAD_LAYOUT
350
1A
  3
ACAD_MLINESTYLE
350
17
  3
ACAD_PLOTSETTINGS
350
19
  3
ACAD_PLOTSTYLENAME
350
E
  3
ACAD_SCALELIST
350
47
  0
DICTIONARY
  5
D
102
{ACAD_REACTORS
330
C
102
}
330
C
100
AcDbDictionary
281
     1
  0
DICTIONARY
  5
1A
102
{ACAD_REACTORS
330
C
102
}
330
C
100
AcDbDictionary
281
     1
  3
Layout1
350
1E
  3
Layout2
350
26
  3
Model
350
22
  0
DICTIONARY
  5
17
102
{ACAD_REACTORS
330
C
102
}
330
C
100
AcDbDictionary
281
     1
  3
Standard
350
18
  0
DICTIONARY
  5
19
102
{ACAD_REACTORS
330
C
102
}
330
C
100
AcDbDictionary
281
     1
  0
ACDBDICTIONARYWDFLT
  5
E
102
{ACAD_REACTORS
330
C
102
}
330
C
100
AcDbDictionary
281
     1
  3
Normal
350
F
100
AcDbDictionaryWithDefault
340
F
  0
DICTIONARY
  5
47
102
{ACAD_REACTORS
330
C
102
}
330
C
100
AcDbDictionary
281
     1
  3
A0
350
48
  3
A1
350
49
  3
A2
350
4A
  3
A3
350
4B
  3
A4
350
4C
  3
A5
350
4D
  3
A6
350
4E
  3
A7
350
4F
  3
A8
350
50
  3
A9
350
51
  3
B0
350
52
  3
B1
350
53
  3
B2
350
54
  3
B3
350
55
  3
B4
350
56
  3
B5
350
57
  3
B6
350
58
  3
B7
350
59
  3
B8
350
5A
  3
B9
350
5B
  3
C0
350
5C
  3
C1
350
5D
  3
C2
350
5E
  3
C3
350
5F
  3
C4
350
60
  3
C5
350
61
  3
C6
350
62
  3
C7
350
63
  3
C8
350
64
  3
C9
350
65
  3
D0
350
66
  3
D1
350
67
  3
D2
350
68
  0
LAYOUT
  5
1E
102
{ACAD_REACTORS
330
1A
102
}
330
1A
100
AcDbPlotSettings
  1

  2
none_device
  4

  6

 40
0.0
 41
0.0
 42
0.0
 43
0.0
 44
0.0
 45
0.0
 46
0.0
 47
0.0
 48
0.0
 49
0.0
140
0.0
141
0.0
142
1.0
143
1.0
 70
   688
 72
     1
 73
     0
 74
     5
  7

 75
    16
147
1.0
148
0.0
149
0.0
100
AcDbLayout
  1
Layout1
 70
     1
 71
     1
 10
0.0
 20
0.0
 11
420.0
 21
297.0
 12
0.0
 22
0.0
 32
0.0
 14
1.0000000000E+20
 24
1.0000000000E+20
 34
1.0000000000E+20
 15
-1.0000000000E+20
 25
-1.0000000000E+20
 35
-1.0000000000E+20
146
0.0
 13
0.0
 23
0.0
 33
0.0
 16
1.0
 26
0.0
 36
0.0
 17
0.0
 27
1.0
 37
0.0
 76
     0
330
1B
  0
LAYOUT
  5
26
102
{ACAD_REACTORS
330
1A
102
}
330
1A
100
AcDbPlotSettings
  1

  2
none_device
  4

  6

 40
0.0
 41
0.0
 42
0.0
 43
0.0
 44
0.0
 45
0.0
 46
0.0
 47
0.0
 48
0.0
 49
0.0
140
0.0
141
0.0
142
1.0
143
1.0
 70
   688
 72
     1
 73
     0
 74
     5
  7

 75
    16
147
1.0
148
0.0
149
0.0
100
AcDbLayout
  1
Layout2
 70
     1
 71
     2
 10
0.0
 20
0.0
 11
0.0
 21
0.0
 12
0.0
 22
0.0
 32
0.0
 14
0.0
 24
0.0
 34
0.0
 15
0.0
 25
0.0
 35
0.0
146
0.0
 13
0.0
 23
0.0
 33
0.0
 16
1.0
 26
0.0
 36
0.0
 17
0.0
 27
1.0
 37
0.0
 76
     0
330
23
  0
LAYOUT
  5
22
102
{ACAD_REACTORS
330
1A
102
}
330
1A
100
AcDbPlotSettings
  1

  2
none_device
  4
Letter_(8.50_x_11.00_Inches)
  6

 40
6.35
 41
6.35
 42
6.35000508
 43
6.35000508
 44
215.9
 45
279.4
 46
0.0
 47
0.0
 48
0.0
 49
0.0
140
0.0
141
0.0
142
1.0
143
1.0
 70
  1712
 72
     1
 73
     0
 74
     0
  7

 75
     0
147
1.0
148
0.0
149
0.0
100
AcDbLayout
  1
Model
 70
     1
 71
     0
 10
0.0
 20
0.0
 11
297.0
 21
210.0
 12
0.0
 22
0.0
 32
0.0
 14
0.0
 24
0.0
 34
0.0
 15
297.0
 25
210.0
 35
0.0
146
0.0
 13
0.0
 23
0.0
 33
0.0
 16
1.0
 26
0.0
 36
0.0
 17
0.0
 27
1.0
 37
0.0
 76
     0
330
1F
331
29
  0
MLINESTYLE
  5
18
102
{ACAD_REACTORS
330
17
102
}
330
17
100
AcDbMlineStyle
  2
Standard
 70
     0
  3

 62
   256
 51
90.0
 52
90.0
 71
     2
 49
0.5
 62
   256
  6
BYLAYER
 49
-0.5
 62
   256
  6
BYLAYER
  0
ACDBPLACEHOLDER
  5
F
102
{ACAD_REACTORS
330
E
102
}
330
E
  0
SCALE
  5
48
102
{ACAD_REACTORS
330
47
102
}
330
47
100
AcDbScale
 70
     0
300
1:1
140
1.0
141
1.0
290
     1
  0
SCALE
  5
49
102
{ACAD_REACTORS
330
47
102
}
330
47
100
AcDbScale
 70
     0
300
1:2
140
1.0
141
2.0
290
     0
  0
SCALE
  5
4A
102
{ACAD_REACTORS
330
47
102
}
330
47
100
AcDbScale
 70
     0
300
1:4
140
1.0
141
4.0
290
     0
  0
SCALE
  5
4B
102
{ACAD_REACTORS
330
47
102
}
330
47
100
AcDbScale
 70
     0
300
1:5
140
1.0
141
5.0
290
     0
  0
SCALE
  5
4C
102
{ACAD_REACTORS
330
47
102
}
330
47
100
AcDbScale
 70
     0
300
1:8
140
1.0
141
8.0
290
     0
  0
SCALE
  5
4D
102
{ACAD_REACTORS
330
47
102
}
330
47
100
AcDbScale
 70
     0
300
1:10
140
1.0
141
10.0
290
     0
  0
SCALE
  5
4E
102
{ACAD_REACTORS
330
47
102
}
330
47
100
AcDbScale
 70
     0
300
1:16
140
1.0
141
16.0
290
     0
  0
SCALE
  5
4F
102
{ACAD_REACTORS
330
47
102
}
330
47
100
AcDbScale
 70
     0
300
1:20
140
1.0
141
20.0
290
     0
  0
SCALE
  5
50
102
{ACAD_REACTORS
330
47
102
}
330
47
100
AcDbScale
 70
     0
300
1:30
140
1.0
141
30.0
290
     0
  0
SCALE
  5
51
102
{ACAD_REACTORS
330
47
102
}
330
47
100
AcDbScale
 70
     0
300
1:40
140
1.0
141
40.0
290
     0
  0
SCALE
  5
52
102
{ACAD_REACTORS
330
47
102
}
330
47
100
AcDbScale
 70
     0
300
1:50
140
1.0
141
50.0
290
     0
  0
SCALE
  5
53
102
{ACAD_REACTORS
330
47
102
}
330
47
100
AcDbScale
 70
     0
300
1:100
140
1.0
141
100.0
290
     0
  0
SCALE
  5
54
102
{ACAD_REACTORS
330
47
102
}
330
47
100
AcDbScale
 70
     0
300
2:1
140
2.0
141
1.0
290
     0
  0
SCALE
  5
55
102
{ACAD_REACTORS
330
47
102
}
330
47
100
AcDbScale
 70
     0
300
4:1
140
4.0
141
1.0
290
     0
  0
SCALE
  5
56
102
{ACAD_REACTORS
330
47
102
}
330
47
100
AcDbScale
 70
     0
300
8:1
140
8.0
141
1.0
290
     0
  0
SCALE
  5
57
102
{ACAD_REACTORS
330
47
102
}
330
47
100
AcDbScale
 70
     0
300
10:1
140
10.0
141
1.0
290
     0
  0
SCALE
  5
58
102
{ACAD_REACTORS
330
47
102
}
330
47
100
AcDbScale
 70
     0
300
100:1
140
100.0
141
1.0
290
     0
  0
SCALE
  5
59
102
{ACAD_REACTORS
330
47
102
}
330
47
100
AcDbScale
 70
     0
300
1/128" = 1'-0"
140
0.0078125
141
12.0
290
     0
  0
SCALE
  5
5A
102
{ACAD_REACTORS
330
47
102
}
330
47
100
AcDbScale
 70
     0
300
1/64" = 1'-0"
140
0.015625
141
12.0
290
     0
  0
SCALE
  5
5B
102
{ACAD_REACTORS
330
47
102
}
330
47
100
AcDbScale
 70
     0
300
1/32" = 1'-0"
140
0.03125
141
12.0
290
     0
  0
SCALE
  5
5C
102
{ACAD_REACTORS
330
47
102
}
330
47
100
AcDbScale
 70
     0
300
1/16" = 1'-0"
140
0.0625
141
12.0
290
     0
  0
SCALE
  5
5D
102
{ACAD_REACTORS
330
47
102
}
330
47
100
AcDbScale
 70
     0
300
3/32" = 1'-0"
140
0.09375
141
12.0
290
     0
  0
SCALE
  5
5E
102
{ACAD_REACTORS
330
47
102
}
330
47
100
AcDbScale
 70
     0
300
1/8" = 1'-0"
140
0.125
141
12.0
290
     0
  0
SCALE
  5
5F
102
{ACAD_REACTORS
330
47
102
}
330
47
100
AcDbScale
 70
     0
300
3/16" = 1'-0"
140
0.1875
141
12.0
290
     0
  0
SCALE
  5
60
102
{ACAD_REACTORS
330
47
102
}
330
47
100
AcDbScale
 70
     0
300
1/4" = 1'-0"
140
0.25
141
12.0
290
     0
  0
SCALE
  5
61
102
{ACAD_REACTORS
330
47
102
}
330
47
100
AcDbScale
 70
     0
300
3/8" = 1'-0"
140
0.375
141
12.0
290
     0
  0
SCALE
  5
62
102
{ACAD_REACTORS
330
47
102
}
330
47
100
AcDbScale
 70
     0
300
1/2" = 1'-0"
140
0.5
141
12.0
290
     0
  0
SCALE
  5
63
102
{ACAD_REACTORS
330
47
102
}
330
47
100
AcDbScale
 70
     0
300
3/4" = 1'-0"
140
0.75
141
12.0
290
     0
  0
SCALE
  5
64
102
{ACAD_REACTORS
330
47
102
}
330
47
100
AcDbScale
 70
     0
300
1" = 1'-0"
140
1.0
141
12.0
290
     0
  0
SCALE
  5
65
102
{ACAD_REACTORS
330
47
102
}
330
47
100
AcDbScale
 70
     0
300
1-1/2" = 1'-0"
140
1.5
141
12.0
290
     0
  0
SCALE
  5
66
102
{ACAD_REACTORS
330
47
102
}
330
47
100
AcDbScale
 70
     0
300
3" = 1'-0"
140
3.0
141
12.0
290
     0
  0
SCALE
  5
67
102
{ACAD_REACTORS
330
47
102
}
330
47
100
AcDbScale
 70
     0
300
6" = 1'-0"
140
6.0
141
12.0
290
     0
  0
SCALE
  5
68
102
{ACAD_REACTORS
330
47
102
}
330
47
100
AcDbScale
 70
     0
300
1'-0" = 1'-0"
140
12.0
141
12.0
290
     0
  0
ENDSEC
  0
EOF
