  0
SECTION
  2
HEADER
  9
$ACADVER
  1
AC1015
  9
$ACADMAINTVER
 70
     6
  9
$DWGCODEPAGE
  3
ANSI_1252
  9
$INSBASE
 10
0.0
 20
0.0
 30
0.0
  9
$EXTMIN
 10
0.0
 20
0.0
 30
0.0
  9
$EXTMAX
 10
297.0
 20
210.0
 30
0.0
  9
$LIMMIN
 10
0.0
 20
0.0
  9
$LIMMAX
 10
297.0
 20
210.0
  9
$ORTHOMODE
 70
     0
  9
$REGENMODE
 70
     1
  9
$FILLMODE
 70
     1
  9
$QTEXTMODE
 70
     0
  9
$MIRRTEXT
 70
     1
  9
$LTSCALE
 40
1.0
  9
$ATTMODE
 70
     1
  9
$TEXTSIZE
 40
2.0
  9
$TRACEWID
 40
1.0
  9
$TEXTSTYLE
  7
Standard
  9
$CLAYER
  8
0
  9
$CELTYPE
  6
ByLayer
  9
$CECOLOR
 62
   256
  9
$CELTSCALE
 40
1.0
  9
$DISPSILH
 70
     0
  9
$DIMSCALE
 40
1.0
  9
$DIMASZ
 40
3.0
  9
$DIMEXO
 40
0.0
  9
$DIMDLI
 40
3.75
  9
$DIMRND
 40
0.0
  9
$DIMDLE
 40
0.0
  9
$DIMEXE
 40
1.0
  9
$DIMTP
 40
0.0
  9
$DIMTM
 40
0.0
  9
$DIMTXT
 40
2.0
  9
$DIMCEN
 40
2.5
  9
$DIMTSZ
 40
0.0
  9
$DIMTOL
 70
     0
  9
$DIMLIM
 70
     0
  9
$DIMTIH
 70
     1
  9
$DIMTOH
 70
     1
  9
$DIMSE1
 70
     0
  9
$DIMSE2
 70
     0
  9
$DIMTAD
 70
     1
  9
$DIMZIN
 70
     0
  9
$DIMBLK
  1

  9
$DIMASO
 70
     1
  9
$DIMSHO
 70
     1
  9
$DIMPOST
  1

  9
$DIMAPOST
  1

  9
$DIMALT
 70
     0
  9
$DIMALTD
 70
     3
  9
$DIMALTF
 40
0.0393700787
  9
$DIMLFAC
 40
2.0
  9
$DIMTOFL
 70
     1
  9
$DIMTVP
 40
0.0
  9
$DIMTIX
 70
     0
  9
$DIMSOXD
 70
     0
  9
$DIMSAH
 70
     0
  9
$DIMBLK1
  1

  9
$DIMBLK2
  1

  9
$DIMSTYLE
  2
ISO-25
  9
$DIMCLRD
 70
     0
  9
$DIMCLRE
 70
     0
  9
$DIMCLRT
 70
     0
  9
$DIMTFAC
 40
1.0
  9
$DIMGAP
 40
1.524
  9
$DIMJUST
 70
     0
  9
$DIMSD1
 70
     0
  9
$DIMSD2
 70
     0
  9
$DIMTOLJ
 70
     0
  9
$DIMTZIN
 70
     0
  9
$DIMALTZ
 70
     0
  9
$DIMALTTZ
 70
     0
  9
$DIMUPT
 70
     0
  9
$DIMDEC
 70
     2
  9
$DIMTDEC
 70
     3
  9
$DIMALTU
 70
     2
  9
$DIMALTTD
 70
     3
  9
$DIMTXSTY
  7
Standard
  9
$DIMAUNIT
 70
     0
  9
$DIMADEC
 70
     2
  9
$DIMALTRND
 40
0.0
  9
$DIMAZIN
 70
     0
  9
$DIMDSEP
 70
    44
  9
$DIMATFIT
 70
     3
  9
$DIMFRAC
 70
     0
  9
$DIMLDRBLK
  1

  9
$DIMLUNIT
 70
     2
  9
$DIMLWD
 70
    -2
  9
$DIMLWE
 70
    -2
  9
$DIMTMOVE
 70
     0
  9
$LUNITS
 70
     2
  9
$LUPREC
 70
     2
  9
$SKETCHINC
 40
1.0
  9
$FILLETRAD
 40
10.0
  9
$AUNITS
 70
     0
  9
$AUPREC
 70
     2
  9
$MENU
  1
.
  9
$ELEVATION
 40
0.0
  9
$PELEVATION
 40
0.0
  9
$THICKNESS
 40
0.0
  9
$LIMCHECK
 70
     0
  9
$CHAMFERA
 40
0.0
  9
$CHAMFERB
 40
0.0
  9
$CHAMFERC
 40
0.0
  9
$CHAMFERD
 40
0.0
  9
$SKPOLY
 70
     0
  9
$TDCREATE
 40
2458169.601463252
  9
$TDUCREATE
 40
2458169.559796586
  9
$TDUPDATE
 40
2458169.601465347
  9
$TDUUPDATE
 40
2458169.559798681
  9
$TDINDWG
 40
0.0000000116
  9
$TDUSRTIMER
 40
0.0000000116
  9
$USRTIMER
 70
     1
  9
$ANGBASE
 50
0.0
  9
$ANGDIR
 70
     0
  9
$PDMODE
 70
     0
  9
$PDSIZE
 40
-1.0
  9
$PLINEWID
 40
0.0
  9
$SPLFRAME
 70
     0
  9
$SPLINETYPE
 70
     6
  9
$SPLINESEGS
 70
     8
  9
$HANDSEED
  5
260
  9
$SURFTAB1
 70
     6
  9
$SURFTAB2
 70
     6
  9
$SURFTYPE
 70
     6
  9
$SURFU
 70
     6
  9
$SURFV
 70
     6
  9
$UCSBASE
  2

  9
$UCSNAME
  2

  9
$UCSORG
 10
0.0
 20
0.0
 30
0.0
  9
$UCSXDIR
 10
1.0
 20
0.0
 30
0.0
  9
$UCSYDIR
 10
0.0
 20
1.0
 30
0.0
  9
$UCSORTHOREF
  2

  9
$UCSORTHOVIEW
 70
     0
  9
$UCSORGTOP
 10
0.0
 20
0.0
 30
0.0
  9
$UCSORGBOTTOM
 10
0.0
 20
0.0
 30
0.0
  9
$UCSORGLEFT
 10
0.0
 20
0.0
 30
0.0
  9
$UCSORGRIGHT
 10
0.0
 20
0.0
 30
0.0
  9
$UCSORGFRONT
 10
0.0
 20
0.0
 30
0.0
  9
$UCSORGBACK
 10
0.0
 20
0.0
 30
0.0
  9
$PUCSBASE
  2

  9
$PUCSNAME
  2

  9
$PUCSORG
 10
0.0
 20
0.0
 30
0.0
  9
$PUCSXDIR
 10
1.0
 20
0.0
 30
0.0
  9
$PUCSYDIR
 10
0.0
 20
1.0
 30
0.0
  9
$PUCSORTHOREF
  2

  9
$PUCSORTHOVIEW
 70
     0
  9
$PUCSORGTOP
 10
0.0
 20
0.0
 30
0.0
  9
$PUCSORGBOTTOM
 10
0.0
 20
0.0
 30
0.0
  9
$PUCSORGLEFT
 10
0.0
 20
0.0
 30
0.0
  9
$PUCSORGRIGHT
 10
0.0
 20
0.0
 30
0.0
  9
$PUCSORGFRONT
 10
0.0
 20
0.0
 30
0.0
  9
$PUCSORGBACK
 10
0.0
 20
0.0
 30
0.0
  9
$USERI1
 70
     0
  9
$USERI2
 70
     0
  9
$USERI3
 70
     0
  9
$USERI4
 70
     0
  9
$USERI5
 70
     0
  9
$USERR1
 40
0.0
  9
$USERR2
 40
0.0
  9
$USERR3
 40
0.0
  9
$USERR4
 40
0.0
  9
$USERR5
 40
0.0
  9
$WORLDVIEW
 70
     1
  9
$SHADEDGE
 70
     3
  9
$SHADEDIF
 70
    70
  9
$TILEMODE
 70
     1
  9
$MAXACTVP
 70
    64
  9
$PINSBASE
 10
0.0
 20
0.0
 30
0.0
  9
$PLIMCHECK
 70
     0
  9
$PEXTMIN
 10
1.0000000000E+20
 20
1.0000000000E+20
 30
1.0000000000E+20
  9
$PEXTMAX
 10
-1.0000000000E+20
 20
-1.0000000000E+20
 30
-1.0000000000E+20
  9
$PLIMMIN
 10
0.0
 20
0.0
  9
$PLIMMAX
 10
420.0
 20
297.0
  9
$UNITMODE
 70
     0
  9
$VISRETAIN
 70
     1
  9
$PLINEGEN
 70
     0
  9
$PSLTSCALE
 70
     1
  9
$TREEDEPTH
 70
  3020
  9
$CMLSTYLE
  2
Standard
  9
$CMLJUST
 70
     0
  9
$CMLSCALE
 40
20.0
  9
$PROXYGRAPHICS
 70
     1
  9
$MEASUREMENT
 70
     1
  9
$CELWEIGHT
370
    -1
  9
$ENDCAPS
280
     0
  9
$JOINSTYLE
280
     0
  9
$LWDISPLAY
290
     1
  9
$INSUNITS
 70
     4
  9
$HYPERLINKBASE
  1

  9
$STYLESHEET
  1

  9
$XEDIT
290
     1
  9
$CEPSNTYPE
380
     0
  9
$PSTYLEMODE
290
     1
  9
$FINGERPRINTGUID
  2
{8E8A4C0D-2C22-4CB1-9160-801F52CC8292}
  9
$VERSIONGUID
  2
{FAEB1C32-E019-11D5-929B-00C0DF256EC4}
  9
$EXTNAMES
290
     1
  9
$PSVPSCALE
 40
0.0
  9
$OLESTARTUP
290
     0
  0
ENDSEC
  0
SECTION
  2
CLASSES
  0
CLASS
  1
ACDBDICTIONARYWDFLT
  2
AcDbDictionaryWithDefault
  3
ObjectDBX Classes
 90
        0
280
     0
281
     0
  0
CLASS
  1
VISUALSTYLE
  2
AcDbVisualStyle
  3
ObjectDBX Classes
 90
     4095
280
     0
281
     0
  0
CLASS
  1
MATERIAL
  2
AcDbMaterial
  3
ObjectDBX Classes
 90
     1153
280
     0
281
     0
  0
CLASS
  1
SCALE
  2
AcDbScale
  3
ObjectDBX Classes
 90
     1153
280
     0
281
     0
  0
CLASS
  1
TABLESTYLE
  2
AcDbTableStyle
  3
ObjectDBX Classes
 90
     4095
280
     0
281
     0
  0
CLASS
  1
MLEADERSTYLE
  2
AcDbMLeaderStyle
  3
ACDB_MLEADERSTYLE_CLASS
 90
     4095
280
     0
281
     0
  0
CLASS
  1
SUN
  2
AcDbSun
  3
SCENEOE
 90
     1153
280
     0
281
     0
  0
CLASS
  1
ACDBPLACEHOLDER
  2
AcDbPlaceHolder
  3
ObjectDBX Classes
 90
        0
280
     0
281
     0
  0
CLASS
  1
LAYOUT
  2
AcDbLayout
  3
ObjectDBX Classes
 90
        0
280
     0
281
     0
  0
ENDSEC
  0
SECTION
  2
TABLES
  0
TABLE
  2
VPORT
  5
8
330
0
100
AcDbSymbolTable
 70
     1
  0
VPORT
  5
29
330
8
100
AcDbSymbolTableRecord
100
AcDbViewportTableRecord
  2
*Active
 70
     0
 10
0.0
 20
0.0
 11
1.0
 21
1.0
 12
148.5
 22
105.0
 13
0.0
 23
0.0
 14
10.0
 24
10.0
 15
10.0
 25
10.0
 16
0.0
 26
0.0
 36
1.0
 17
0.0
 27
0.0
 37
0.0
 40
210.0
 41
1.4142857143
 42
50.0
 43
0.0
 44
0.0
 50
0.0
 51
0.0
 71
     0
 72
  2000
 73
     1
 74
     3
 75
     0
 76
     0
 77
     0
 78
     0
281
     0
 65
     1
110
0.0
120
0.0
130
0.0
111
1.0
121
0.0
131
0.0
112
0.0
122
1.0
132
0.0
 79
     0
146
0.0
  0
ENDTAB
  0
TABLE
  2
LTYPE
  5
5
330
0
100
AcDbSymbolTable
 70
     6
  0
LTYPE
  5
14
330
5
100
AcDbSymbolTableRecord
100
AcDbLinetypeTableRecord
  2
ByBlock
 70
     0
  3

 72
    65
 73
     0
 40
0.0
  0
LTYPE
  5
15
330
5
100
AcDbSymbolTableRecord
100
AcDbLinetypeTableRecord
  2
ByLayer
 70
     0
  3

 72
    65
 73
     0
 40
0.0
  0
LTYPE
  5
16
330
5
100
AcDbSymbolTableRecord
100
AcDbLinetypeTableRecord
  2
Continuous
 70
     0
  3
Solid line
 72
    65
 73
     0
 40
0.0
  0
LTYPE
  5
6E
330
5
100
AcDbSymbolTableRecord
100
AcDbLinetypeTableRecord
  2
HIDDEN
 70
     0
  3
Hidden __ __ __ __ __ __ __ __ __ __ __ __ __ __
 72
    65
 73
     2
 40
1.905
 49
1.27
 74
     0
 49
-0.635
 74
     0
  0
LTYPE
  5
6F
330
5
100
AcDbSymbolTableRecord
100
AcDbLinetypeTableRecord
  2
PHANTOM
 70
     0
  3
Phantom ______  __  __  ______  __  __  ______
 72
    65
 73
     6
 40
12.7
 49
6.35
 74
     0
 49
-1.27
 74
     0
 49
1.27
 74
     0
 49
-1.27
 74
     0
 49
1.27
 74
     0
 49
-1.27
 74
     0
  0
LTYPE
  5
70
330
5
100
AcDbSymbolTableRecord
100
AcDbLinetypeTableRecord
  2
CENTER
 70
     0
  3
Center ____ _ ____ _ ____ _ ____ _ ____ _ ____
 72
    65
 73
     4
 40
10.16
 49
6.35
 74
     0
 49
-1.27
 74
     0
 49
1.27
 74
     0
 49
-1.27
 74
     0
  0
LTYPE
  5
71
330
5
100
AcDbSymbolTableRecord
100
AcDbLinetypeTableRecord
  2
CENTERX2
 70
     0
  3
Center (2x) ________  __  ________  __  _____
 72
    65
 73
     4
 40
20.32
 49
12.7
 74
     0
 49
-2.54
 74
     0
 49
2.54
 74
     0
 49
-2.54
 74
     0
  0
LTYPE
  5
72
330
5
100
AcDbSymbolTableRecord
100
AcDbLinetypeTableRecord
  2
DOT2
 70
     0
  3
Dot (.5x) ........................................
 72
    65
 73
     2
 40
0.635
 49
0.0
 74
     0
 49
-0.635
 74
     0
  0
ENDTAB
  0
TABLE
  2
LAYER
  5
2
330
0
100
AcDbSymbolTable
 70
     5
  0
LAYER
  5
10
330
2
100
AcDbSymbolTableRecord
100
AcDbLayerTableRecord
  2
0
 70
     0
 62
     7
  6
Continuous
370
    -3
390
F
  0
LAYER
  5
73
330
2
100
AcDbSymbolTableRecord
100
AcDbLayerTableRecord
  2
FORMAT
 70
     0
 62
     7
  6
Continuous
370
    -3
390
F
  0
LAYER
  5
74
330
2
100
AcDbSymbolTableRecord
100
AcDbLayerTableRecord
  2
VERMASSUNG
 70
     0
 62
     7
  6
Continuous
370
    -3
390
F
  0
LAYER
  5
75
330
2
100
AcDbSymbolTableRecord
100
AcDbLayerTableRecord
  2
KOPF_DÜNN
 70
     0
 62
     7
  6
Continuous
370
    -3
390
F
  0
LAYER
  5
76
330
2
100
AcDbSymbolTableRecord
100
AcDbLayerTableRecord
  2
KOPF_DICK
 70
     0
 62
     7
  6
Continuous
370
    25
390
F
  0
ENDTAB
  0
TABLE
  2
STYLE
  5
3
330
0
100
AcDbSymbolTable
 70
     2
  0
STYLE
  5
11
330
3
100
AcDbSymbolTableRecord
100
AcDbTextStyleTableRecord
  2
Standard
 70
     0
 40
0.0
 41
1.0
 50
0.0
 71
     0
 42
2.0
  3
txt
  4

  0
STYLE
  5
77
330
3
100
AcDbSymbolTableRecord
100
AcDbTextStyleTableRecord
  2
SLDTEXTSTYLE0
 70
     0
 40
0.0
 41
0.7
 50
0.0
 71
     0
 42
2.0
  3
TXT
  4

  0
ENDTAB
  0
TABLE
  2
VIEW
  5
6
330
0
100
AcDbSymbolTable
 70
     0
  0
ENDTAB
  0
TABLE
  2
UCS
  5
7
330
0
100
AcDbSymbolTable
 70
     0
  0
ENDTAB
  0
TABLE
  2
APPID
  5
9
330
0
100
AcDbSymbolTable
 70
     1
  0
APPID
  5
12
330
9
100
AcDbSymbolTableRecord
100
AcDbRegAppTableRecord
  2
ACAD
 70
     0
  0
ENDTAB
  0
TABLE
  2
DIMSTYLE
  5
A
330
0
100
AcDbSymbolTable
 70
     3
100
AcDbDimStyleTable
  0
DIMSTYLE
105
27
330
A
100
AcDbSymbolTableRecord
100
AcDbDimStyleTableRecord
  2
ISO-25
 70
     0
 41
2.5
 42
0.625
 43
3.75
 44
1.25
 73
     0
 74
     0
 77
     1
 78
     8
140
2.5
141
2.5
143
0.0393700787
147
0.625
171
     3
172
     1
178
     0
271
     2
272
     2
274
     3
278
    44
283
     0
284
     8
340
11
  0
DIMSTYLE
105
112
102
{ACAD_REACTORS
330
111
330
11C
330
126
330
130
330
13A
330
145
102
}
330
A
100
AcDbSymbolTableRecord
100
AcDbDimStyleTableRecord
  2
SLDDIMSTYLE0
 70
     0
 41
3.0
 44
0.0
 45
0.000000001
 73
     0
 74
     0
 77
     1
 78
    12
 79
     3
140
2.0
147
0.5
173
     1
178
     0
271
     2
272
     3
276
     2
284
    12
340
77
  0
DIMSTYLE
105
151
102
{ACAD_REACTORS
330
150
330
15E
102
}
330
A
100
AcDbSymbolTableRecord
100
AcDbDimStyleTableRecord
  2
SLDDIMSTYLE1
 70
     0
 41
3.0
 44
0.0
 45
0.000000001
 73
     0
 74
     0
 77
     1
 78
    12
 79
     3
140
2.0
147
0.5
173
     1
178
     0
271
     0
272
     3
276
     2
284
    12
340
77
  0
ENDTAB
  0
TABLE
  2
BLOCK_RECORD
  5
1
330
0
100
AcDbSymbolTable
 70
     9
  0
BLOCK_RECORD
  5
1F
330
1
100
AcDbSymbolTableRecord
100
AcDbBlockTableRecord
  2
*Model_Space
340
22
  0
BLOCK_RECORD
  5
1B
330
1
100
AcDbSymbolTableRecord
100
AcDbBlockTableRecord
  2
*Paper_Space
340
1E
  0
BLOCK_RECORD
  5
23
330
1
100
AcDbSymbolTableRecord
100
AcDbBlockTableRecord
  2
*Paper_Space0
340
26
  0
BLOCK_RECORD
  5
113
330
1
100
AcDbSymbolTableRecord
100
AcDbBlockTableRecord
  2
_D
340
0
  0
BLOCK_RECORD
  5
11D
330
1
100
AcDbSymbolTableRecord
100
AcDbBlockTableRecord
  2
_D_1
340
0
  0
BLOCK_RECORD
  5
127
330
1
100
AcDbSymbolTableRecord
100
AcDbBlockTableRecord
  2
_D_2
340
0
  0
BLOCK_RECORD
  5
131
330
1
100
AcDbSymbolTableRecord
100
AcDbBlockTableRecord
  2
_D_3
340
0
  0
BLOCK_RECORD
  5
13B
330
1
100
AcDbSymbolTableRecord
100
AcDbBlockTableRecord
  2
_D_4
340
0
  0
BLOCK_RECORD
  5
146
330
1
100
AcDbSymbolTableRecord
100
AcDbBlockTableRecord
  2
_D_5
340
0
  0
BLOCK_RECORD
  5
152
330
1
100
AcDbSymbolTableRecord
100
AcDbBlockTableRecord
  2
_D_6
340
0
  0
BLOCK_RECORD
  5
15F
330
1
100
AcDbSymbolTableRecord
100
AcDbBlockTableRecord
  2
_D_7
340
0
  0
ENDTAB
  0
ENDSEC
  0
SECTION
  2
BLOCKS
  0
BLOCK
  5
20
330
1F
100
AcDbEntity
  8
0
100
AcDbBlockBegin
  2
*Model_Space
 70
     0
 10
0.0
 20
0.0
 30
0.0
  3
*Model_Space
  1

  0
ENDBLK
  5
21
330
1F
100
AcDbEntity
  8
0
100
AcDbBlockEnd
  0
BLOCK
  5
1C
330
1B
100
AcDbEntity
 67
     1
  8
0
100
AcDbBlockBegin
  2
*Paper_Space
 70
     0
 10
0.0
 20
0.0
 30
0.0
  3
*Paper_Space
  1

  0
ENDBLK
  5
1D
330
1B
100
AcDbEntity
 67
     1
  8
0
100
AcDbBlockEnd
  0
BLOCK
  5
24
330
23
100
AcDbEntity
  8
0
100
AcDbBlockBegin
  2
*Paper_Space0
 70
     0
 10
0.0
 20
0.0
 30
0.0
  3
*Paper_Space0
  1

  0
ENDBLK
  5
25
330
23
100
AcDbEntity
  8
0
100
AcDbBlockEnd
  0
BLOCK
  5
114
330
113
100
AcDbEntity
  8
0
100
AcDbBlockBegin
  2
_D
 70
     0
 10
0.0
 20
0.0
 30
0.0
  3
_D
  1

  0
SOLID
  5
116
330
113
100
AcDbEntity
  8
VERMASSUNG
100
AcDbTrace
 10
90.3616787068
 20
173.0034058771
 30
0.0
 11
93.3616787068
 21
172.5534058771
 31
0.0
 12
93.3616787068
 22
173.4534058771
 32
0.0
 13
93.3616787068
 23
173.4534058771
 33
0.0
  0
SOLID
  5
117
330
113
100
AcDbEntity
  8
VERMASSUNG
100
AcDbTrace
 10
200.3616787068
 20
173.0034058771
 30
0.0
 11
197.3616787068
 21
173.4534058771
 31
0.0
 12
197.3616787068
 22
172.5534058771
 32
0.0
 13
197.3616787068
 23
172.5534058771
 33
0.0
  0
LINE
  5
118
330
113
100
AcDbEntity
  8
VERMASSUNG
100
AcDbLine
 10
90.3616787068
 20
156.8034058771
 30
0.0
 11
90.3616787068
 21
174.0034058771
 31
0.0
  0
LINE
  5
119
330
113
100
AcDbEntity
  8
VERMASSUNG
100
AcDbLine
 10
200.3616787068
 20
148.7284058771
 30
0.0
 11
200.3616787068
 21
174.0034058771
 31
0.0
  0
LINE
  5
11A
330
113
100
AcDbEntity
  8
VERMASSUNG
100
AcDbLine
 10
90.3616787068
 20
173.0034058771
 30
0.0
 11
200.3616787068
 21
173.0034058771
 31
0.0
  0
MTEXT
  5
11B
330
113
100
AcDbEntity
  8
VERMASSUNG
100
AcDbMText
 10
143.6616786843
 20
175.581541473
 30
0.0
 40
2.0
 41
0.0
 71
     1
 72
     1
  1
110
  7
SLDTEXTSTYLE0
 73
     1
 44
1.0
  0
ENDBLK
  5
115
330
113
100
AcDbEntity
  8
0
100
AcDbBlockEnd
  0
BLOCK
  5
11E
330
11D
100
AcDbEntity
  8
0
100
AcDbBlockBegin
  2
_D_1
 70
     0
 10
0.0
 20
0.0
 30
0.0
  3
_D_1
  1

  0
SOLID
  5
120
330
11D
100
AcDbEntity
  8
VERMASSUNG
100
AcDbTrace
 10
200.3616787068
 20
164.4744360902
 30
0.0
 11
197.3616787068
 21
164.9244360902
 31
0.0
 12
197.3616787068
 22
164.0244360902
 32
0.0
 13
197.3616787068
 23
164.0244360902
 33
0.0
  0
SOLID
  5
121
330
11D
100
AcDbEntity
  8
VERMASSUNG
100
AcDbTrace
 10
108.3616787068
 20
164.4744360902
 30
0.0
 11
111.3616787068
 21
164.0244360902
 31
0.0
 12
111.3616787068
 22
164.9244360902
 32
0.0
 13
111.3616787068
 23
164.9244360902
 33
0.0
  0
LINE
  5
122
330
11D
100
AcDbEntity
  8
VERMASSUNG
100
AcDbLine
 10
200.3616787068
 20
148.7284058771
 30
0.0
 11
200.3616787068
 21
165.4744360902
 31
0.0
  0
LINE
  5
123
330
11D
100
AcDbEntity
  8
VERMASSUNG
100
AcDbLine
 10
108.3616787068
 20
157.0034058771
 30
0.0
 11
108.3616787068
 21
165.4744360902
 31
0.0
  0
LINE
  5
124
330
11D
100
AcDbEntity
  8
VERMASSUNG
100
AcDbLine
 10
200.3616787068
 20
164.4744360902
 30
0.0
 11
108.3616787068
 21
164.4744360902
 31
0.0
  0
MTEXT
  5
125
330
11D
100
AcDbEntity
  8
VERMASSUNG
100
AcDbMText
 10
152.9616787567
 20
167.0525716862
 30
0.0
 40
2.0
 41
0.0
 71
     1
 72
     1
  1
92
  7
SLDTEXTSTYLE0
 73
     1
 44
1.0
  0
ENDBLK
  5
11F
330
11D
100
AcDbEntity
  8
0
100
AcDbBlockEnd
  0
BLOCK
  5
128
330
127
100
AcDbEntity
  8
0
100
AcDbBlockBegin
  2
_D_2
 70
     0
 10
0.0
 20
0.0
 30
0.0
  3
_D_2
  1

  0
SOLID
  5
12A
330
127
100
AcDbEntity
  8
VERMASSUNG
100
AcDbTrace
 10
50.4116787068
 20
182.7719709292
 30
0.0
 11
53.4116787068
 21
182.3219709292
 31
0.0
 12
53.4116787068
 22
183.2219709292
 32
0.0
 13
53.4116787068
 23
183.2219709292
 33
0.0
  0
SOLID
  5
12B
330
127
100
AcDbEntity
  8
VERMASSUNG
100
AcDbTrace
 10
219.3616787068
 20
182.7719709292
 30
0.0
 11
216.3616787068
 21
183.2219709292
 31
0.0
 12
216.3616787068
 22
182.3219709292
 32
0.0
 13
216.3616787068
 23
182.3219709292
 33
0.0
  0
LINE
  5
12C
330
127
100
AcDbEntity
  8
VERMASSUNG
100
AcDbLine
 10
50.4116787068
 20
145.7906316138
 30
0.0
 11
50.4116787068
 21
183.7719709292
 31
0.0
  0
LINE
  5
12D
330
127
100
AcDbEntity
  8
VERMASSUNG
100
AcDbLine
 10
219.3616787068
 20
135.7284058771
 30
0.0
 11
219.3616787068
 21
183.7719709292
 31
0.0
  0
LINE
  5
12E
330
127
100
AcDbEntity
  8
VERMASSUNG
100
AcDbLine
 10
50.4116787068
 20
182.7719709292
 30
0.0
 11
219.3616787068
 21
182.7719709292
 31
0.0
  0
MTEXT
  5
12F
330
127
100
AcDbEntity
  8
VERMASSUNG
100
AcDbMText
 10
131.2866787686
 20
185.3501065251
 30
0.0
 40
2.0
 41
0.0
 71
     1
 72
     1
  1
168.95
  7
SLDTEXTSTYLE0
 73
     1
 44
1.0
  0
ENDBLK
  5
129
330
127
100
AcDbEntity
  8
0
100
AcDbBlockEnd
  0
BLOCK
  5
132
330
131
100
AcDbEntity
  8
0
100
AcDbBlockBegin
  2
_D_3
 70
     0
 10
0.0
 20
0.0
 30
0.0
  3
_D_3
  1

  0
SOLID
  5
134
330
131
100
AcDbEntity
  8
VERMASSUNG
100
AcDbTrace
 10
200.3616787068
 20
164.4744360902
 30
0.0
 11
203.3616787068
 21
164.0244360902
 31
0.0
 12
203.3616787068
 22
164.9244360902
 32
0.0
 13
203.3616787068
 23
164.9244360902
 33
0.0
  0
SOLID
  5
135
330
131
100
AcDbEntity
  8
VERMASSUNG
100
AcDbTrace
 10
219.3616787068
 20
164.4744360902
 30
0.0
 11
216.3616787068
 21
164.9244360902
 31
0.0
 12
216.3616787068
 22
164.0244360902
 32
0.0
 13
216.3616787068
 23
164.0244360902
 33
0.0
  0
LINE
  5
136
330
131
100
AcDbEntity
  8
VERMASSUNG
100
AcDbLine
 10
200.3616787068
 20
148.7284058771
 30
0.0
 11
200.3616787068
 21
165.4744360902
 31
0.0
  0
LINE
  5
137
330
131
100
AcDbEntity
  8
VERMASSUNG
100
AcDbLine
 10
219.3616787068
 20
132.9236484742
 30
0.0
 11
219.3616787068
 21
165.4744360902
 31
0.0
  0
LINE
  5
138
330
131
100
AcDbEntity
  8
VERMASSUNG
100
AcDbLine
 10
200.3616787068
 20
164.4744360902
 30
0.0
 11
219.3616787068
 21
164.4744360902
 31
0.0
  0
MTEXT
  5
139
330
131
100
AcDbEntity
  8
VERMASSUNG
100
AcDbMText
 10
208.6616786498
 20
167.0525716862
 30
0.0
 40
2.0
 41
0.0
 71
     1
 72
     1
  1
19
  7
SLDTEXTSTYLE0
 73
     1
 44
1.0
  0
ENDBLK
  5
133
330
131
100
AcDbEntity
  8
0
100
AcDbBlockEnd
  0
BLOCK
  5
13C
330
13B
100
AcDbEntity
  8
0
100
AcDbBlockBegin
  2
_D_4
 70
     0
 10
0.0
 20
0.0
 30
0.0
  3
_D_4
  1

  0
SOLID
  5
13E
330
13B
100
AcDbEntity
  8
VERMASSUNG
100
AcDbTrace
 10
254.3616787068
 20
114.5284058771
 30
0.0
 11
254.8116787068
 21
117.5284058771
 31
0.0
 12
253.9116787068
 22
117.5284058771
 32
0.0
 13
253.9116787068
 23
117.5284058771
 33
0.0
  0
SOLID
  5
13F
330
13B
100
AcDbEntity
  8
VERMASSUNG
100
AcDbTrace
 10
254.3616787068
 20
136.5284058771
 30
0.0
 11
253.9116787068
 21
133.5284058771
 31
0.0
 12
254.8116787068
 22
133.5284058771
 32
0.0
 13
254.8116787068
 23
133.5284058771
 33
0.0
  0
LINE
  5
140
330
13B
100
AcDbEntity
  8
VERMASSUNG
100
AcDbLine
 10
218.5616787068
 20
114.5284058771
 30
0.0
 11
255.3616787068
 21
114.5284058771
 31
0.0
  0
LINE
  5
141
330
13B
100
AcDbEntity
  8
VERMASSUNG
100
AcDbLine
 10
218.5616787068
 20
136.5284058771
 30
0.0
 11
255.3616787068
 21
136.5284058771
 31
0.0
  0
LINE
  5
142
330
13B
100
AcDbEntity
  8
VERMASSUNG
100
AcDbLine
 10
254.3616787068
 20
114.5284058771
 30
0.0
 11
254.3616787068
 21
136.5284058771
 31
0.0
  0
MTEXT
  5
143
330
13B
100
AcDbEntity
  8
VERMASSUNG
100
AcDbMText
 10
251.7835434019
 20
122.3234059198
 30
0.0
 40
2.0
 41
0.0
 71
     1
 72
     1
  1
%%c
  7
SLDTEXTSTYLE0
 11
6.123233995736766E-17
 21
1.0
 31
0.0
 73
     1
 44
1.0
  0
MTEXT
  5
144
330
13B
100
AcDbEntity
  8
VERMASSUNG
100
AcDbMText
 10
251.5835434506
 20
125.9334059341
 30
0.0
 40
2.0
 41
0.0
 71
     1
 72
     1
  1
22
  7
SLDTEXTSTYLE0
 11
6.123233995736766E-17
 21
1.0
 31
0.0
 73
     1
 44
1.0
  0
ENDBLK
  5
13D
330
13B
100
AcDbEntity
  8
0
100
AcDbBlockEnd
  0
BLOCK
  5
147
330
146
100
AcDbEntity
  8
0
100
AcDbBlockBegin
  2
_D_5
 70
     0
 10
0.0
 20
0.0
 30
0.0
  3
_D_5
  1

  0
SOLID
  5
149
330
146
100
AcDbEntity
  8
VERMASSUNG
100
AcDbTrace
 10
265.1925273464
 20
101.5284058771
 30
0.0
 11
265.6425273464
 21
104.5284058771
 31
0.0
 12
264.7425273464
 22
104.5284058771
 32
0.0
 13
264.7425273464
 23
104.5284058771
 33
0.0
  0
SOLID
  5
14A
330
146
100
AcDbEntity
  8
VERMASSUNG
100
AcDbTrace
 10
265.1925273464
 20
149.5284058771
 30
0.0
 11
264.7425273464
 21
146.5284058771
 31
0.0
 12
265.6425273464
 22
146.5284058771
 32
0.0
 13
265.6425273464
 23
146.5284058771
 33
0.0
  0
LINE
  5
14B
330
146
100
AcDbEntity
  8
VERMASSUNG
100
AcDbLine
 10
199.5616787068
 20
101.5284058771
 30
0.0
 11
266.1925273464
 21
101.5284058771
 31
0.0
  0
LINE
  5
14C
330
146
100
AcDbEntity
  8
VERMASSUNG
100
AcDbLine
 10
199.5616787068
 20
149.5284058771
 30
0.0
 11
266.1925273464
 21
149.5284058771
 31
0.0
  0
LINE
  5
14D
330
146
100
AcDbEntity
  8
VERMASSUNG
100
AcDbLine
 10
265.1925273464
 20
101.5284058771
 30
0.0
 11
265.1925273464
 21
149.5284058771
 31
0.0
  0
MTEXT
  5
14E
330
146
100
AcDbEntity
  8
VERMASSUNG
100
AcDbMText
 10
262.6143920414
 20
122.2234058569
 30
0.0
 40
2.0
 41
0.0
 71
     1
 72
     1
  1
%%c
  7
SLDTEXTSTYLE0
 11
6.123233995736766E-17
 21
1.0
 31
0.0
 73
     1
 44
1.0
  0
MTEXT
  5
14F
330
146
100
AcDbEntity
  8
VERMASSUNG
100
AcDbMText
 10
262.4143920901
 20
125.8334058712
 30
0.0
 40
2.0
 41
0.0
 71
     1
 72
     1
  1
48
  7
SLDTEXTSTYLE0
 11
6.123233995736766E-17
 21
1.0
 31
0.0
 73
     1
 44
1.0
  0
ENDBLK
  5
148
330
146
100
AcDbEntity
  8
0
100
AcDbBlockEnd
  0
BLOCK
  5
153
330
152
100
AcDbEntity
  8
0
100
AcDbBlockBegin
  2
_D_6
 70
     0
 10
0.0
 20
0.0
 30
0.0
  3
_D_6
  1

  0
SOLID
  5
155
330
152
100
AcDbEntity
  8
VERMASSUNG
100
AcDbTrace
 10
40.4116537068
 20
94.0534058771
 30
0.0
 11
40.8616537068
 21
97.0534058771
 31
0.0
 12
39.9616537068
 22
97.0534058771
 32
0.0
 13
39.9616537068
 23
97.0534058771
 33
0.0
  0
SOLID
  5
156
330
152
100
AcDbEntity
  8
VERMASSUNG
100
AcDbTrace
 10
40.4116537068
 20
157.0034058771
 30
0.0
 11
39.9616537068
 21
154.0034058771
 31
0.0
 12
40.8616537068
 22
154.0034058771
 32
0.0
 13
40.8616537068
 23
154.0034058771
 33
0.0
  0
LINE
  5
157
330
152
100
AcDbEntity
  8
VERMASSUNG
100
AcDbLine
 10
90.5616787068
 20
94.0534058771
 30
0.0
 11
39.4116537068
 21
94.0534058771
 31
0.0
  0
LINE
  5
158
330
152
100
AcDbEntity
  8
VERMASSUNG
100
AcDbLine
 10
90.5616787068
 20
157.0034058771
 30
0.0
 11
39.4116537068
 21
157.0034058771
 31
0.0
  0
LINE
  5
159
330
152
100
AcDbEntity
  8
VERMASSUNG
100
AcDbLine
 10
40.4116537068
 20
94.0534058771
 30
0.0
 11
40.4116537068
 21
157.0034058771
 31
0.0
  0
MTEXT
  5
15A
330
152
100
AcDbEntity
  8
VERMASSUNG
100
AcDbMText
 10
37.6335184506
 20
117.4234072587
 30
0.0
 40
2.0
 41
0.0
 71
     1
 72
     1
  1
KM
  7
SLDTEXTSTYLE0
 11
6.123233995736766E-17
 21
1.0
 31
0.0
 73
     1
 44
1.0
  0
MTEXT
  5
15B
330
152
100
AcDbEntity
  8
VERMASSUNG
100
AcDbMText
 10
37.8335184019
 20
120.823407071
 30
0.0
 40
2.0
 41
0.0
 71
     1
 72
     1
  1
%%c
  7
SLDTEXTSTYLE0
 11
6.123233995736766E-17
 21
1.0
 31
0.0
 73
     1
 44
1.0
  0
MTEXT
  5
15C
330
152
100
AcDbEntity
  8
VERMASSUNG
100
AcDbMText
 10
37.6335184506
 20
124.4334070853
 30
0.0
 40
2.0
 41
0.0
 71
     1
 72
     1
  1
63
  7
SLDTEXTSTYLE0
 11
6.123233995736766E-17
 21
1.0
 31
0.0
 73
     1
 44
1.0
  0
MTEXT
  5
15D
330
152
100
AcDbEntity
  8
VERMASSUNG
100
AcDbMText
 10
37.6335184506
 20
128.4209069854
 30
0.0
 40
2.0
 41
0.0
 71
     1
 72
     1
  1
XMZ
  7
SLDTEXTSTYLE0
 11
6.123233995736766E-17
 21
1.0
 31
0.0
 73
     1
 44
1.0
  0
ENDBLK
  5
154
330
152
100
AcDbEntity
  8
0
100
AcDbBlockEnd
  0
BLOCK
  5
160
330
15F
100
AcDbEntity
  8
0
100
AcDbBlockBegin
  2
_D_7
 70
     0
 10
0.0
 20
0.0
 30
0.0
  3
_D_7
  1

  0
SOLID
  5
162
330
15F
100
AcDbEntity
  8
VERMASSUNG
100
AcDbTrace
 10
243.9590160285
 20
129.5859058771
 30
0.0
 11
243.5090160285
 21
126.5859058771
 31
0.0
 12
244.4090160285
 22
126.5859058771
 32
0.0
 13
244.4090160285
 23
126.5859058771
 33
0.0
  0
SOLID
  5
163
330
15F
100
AcDbEntity
  8
VERMASSUNG
100
AcDbTrace
 10
243.9590160285
 20
121.4709058771
 30
0.0
 11
244.4090160285
 21
124.4709058771
 31
0.0
 12
243.5090160285
 22
124.4709058771
 32
0.0
 13
243.5090160285
 23
124.4709058771
 33
0.0
  0
LINE
  5
164
330
15F
100
AcDbEntity
  8
VERMASSUNG
100
AcDbLine
 10
232.3616787068
 20
129.5859058771
 30
0.0
 11
244.9590160285
 21
129.5859058771
 31
0.0
  0
LINE
  5
165
330
15F
100
AcDbEntity
  8
VERMASSUNG
100
AcDbLine
 10
232.3616787068
 20
121.4709058771
 30
0.0
 11
244.9590160285
 21
121.4709058771
 31
0.0
  0
LINE
  5
166
330
15F
100
AcDbEntity
  8
VERMASSUNG
100
AcDbLine
 10
243.9590160285
 20
129.5859058771
 30
0.0
 11
243.9590160285
 21
121.4709058771
 31
0.0
  0
MTEXT
  5
167
330
15F
100
AcDbEntity
  8
VERMASSUNG
100
AcDbMText
 10
241.3808804326
 20
122.92840587
 30
0.0
 40
2.0
 41
0.0
 71
     1
 72
     1
  1
SW
  7
SLDTEXTSTYLE0
 11
-7.044195017643634E-15
 21
1.0
 31
0.0
 73
     1
 44
1.0
  0
MTEXT
  5
168
330
15F
100
AcDbEntity
  8
VERMASSUNG
100
AcDbMText
 10
241.3808804326
 20
126.7284059341
 30
0.0
 40
2.0
 41
0.0
 71
     1
 72
     1
  1
8
  7
SLDTEXTSTYLE0
 11
-7.044195017643634E-15
 21
1.0
 31
0.0
 73
     1
 44
1.0
  0
ENDBLK
  5
161
330
15F
100
AcDbEntity
  8
0
100
AcDbBlockEnd
  0
ENDSEC
  0
SECTION
  2
ENTITIES
  0
MTEXT
  5
78
330
1F
100
AcDbEntity
  8
KOPF_DÜNN
100
AcDbMText
 10
13.8892156294
 20
23.8442973028
 30
0.0
 40
3.0
 41
0.0
 71
     1
 72
     1
  1
KY6.D22.K21.110
  7
SLDTEXTSTYLE0
 73
     1
 44
1.0
  0
MTEXT
  5
79
330
1F
100
AcDbEntity
  8
VERMASSUNG
100
AcDbMText
 10
13.9329988022
 20
28.8834360957
 30
0.0
 40
3.0
 41
0.0
 71
     1
 72
     1
  1
Fräsdorn_Milling arbor
  7
SLDTEXTSTYLE0
 73
     1
 44
1.0
  0
MTEXT
  5
7A
330
1F
100
AcDbEntity
  8
VERMASSUNG
100
AcDbMText
 10
98.8601118557
 20
13.8365368761
 30
0.0
 40
2.0
 41
0.0
 71
     1
 72
     1
  1
Datum: 19.02.2018
  7
SLDTEXTSTYLE0
 73
     1
 44
1.0
  0
MTEXT
  5
7B
330
1F
100
AcDbEntity
  8
VERMASSUNG
100
AcDbMText
 10
13.933048693
 20
18.0482802738
 30
0.0
 40
2.0
 41
0.0
 71
     1
 72
     1
  1
KM63 XMZ / Ø22
  7
SLDTEXTSTYLE0
 73
     1
 44
1.0
  0
MTEXT
  5
7C
330
1F
100
AcDbEntity
  8
VERMASSUNG
100
AcDbMText
 10
13.9808475933
 20
13.9090974274
 30
0.0
 40
2.0
 41
0.0
 71
     1
 72
     1
  1
Gewicht: 1953g
  7
SLDTEXTSTYLE0
 73
     1
 44
1.0
  0
ARC
  5
7D
330
1F
100
AcDbEntity
  8
0
  6
Continuous
 62
     7
370
    25
100
AcDbCircle
 10
205.4616787068
 20
103.5284058771
 30
0.0
 40
0.5
100
AcDbArc
 50
270.0
 51
0.0
  0
ARC
  5
7E
330
1F
100
AcDbEntity
  8
0
  6
Continuous
 62
     7
370
    25
100
AcDbCircle
 10
205.4616787068
 20
112.5284058771
 30
0.0
 40
0.5
100
AcDbArc
 50
0.0
 51
90.0
  0
LINE
  5
7F
330
1F
100
AcDbEntity
  8
0
  6
Continuous
 62
     7
370
    25
100
AcDbLine
 10
200.3616781108
 20
103.028404983
 30
0.0
 11
205.4616750352
 21
103.028404983
 31
0.0
  0
LINE
  5
80
330
1F
100
AcDbEntity
  8
0
  6
Continuous
 62
     7
370
    25
100
AcDbLine
 10
205.4616750352
 20
113.0284056908
 30
0.0
 11
200.3616781108
 21
113.0284056908
 31
0.0
  0
ARC
  5
81
330
1F
100
AcDbEntity
  8
0
  6
Continuous
 62
     7
370
    25
100
AcDbCircle
 10
205.4616787068
 20
138.5284058771
 30
0.0
 40
0.5
100
AcDbArc
 50
270.0
 51
0.0
  0
ARC
  5
82
330
1F
100
AcDbEntity
  8
0
  6
Continuous
 62
     7
370
    25
100
AcDbCircle
 10
205.4616787068
 20
147.5284058771
 30
0.0
 40
0.5
100
AcDbArc
 50
0.0
 51
90.0
  0
LINE
  5
83
330
1F
100
AcDbEntity
  8
0
  6
Continuous
 62
     7
370
    25
100
AcDbLine
 10
200.3616781108
 20
138.0284060633
 30
0.0
 11
205.4616750352
 21
138.0284060633
 31
0.0
  0
LINE
  5
84
330
1F
100
AcDbEntity
  8
0
  6
Continuous
 62
     7
370
    25
100
AcDbLine
 10
205.4616750352
 20
148.0284067711
 30
0.0
 11
200.3616781108
 21
148.0284067711
 31
0.0
  0
LINE
  5
85
330
1F
100
AcDbEntity
  8
0
  6
Continuous
 62
     7
370
    25
100
AcDbLine
 10
230.8616728655
 20
133.5284062571
 30
0.0
 11
222.3616779915
 21
133.5284062571
 31
0.0
  0
LINE
  5
86
330
1F
100
AcDbEntity
  8
0
  6
Continuous
 62
     7
370
    25
100
AcDbLine
 10
222.3616779915
 20
117.5284054971
 30
0.0
 11
230.8616728655
 21
117.5284054971
 31
0.0
  0
ARC
  5
87
330
1F
100
AcDbEntity
  8
0
  6
Continuous
 62
     7
370
    25
100
AcDbCircle
 10
230.8616787068
 20
132.0284058771
 30
0.0
 40
1.5
100
AcDbArc
 50
0.0
 51
90.0
  0
ARC
  5
88
330
1F
100
AcDbEntity
  8
0
  6
Continuous
 62
     7
370
    25
100
AcDbCircle
 10
230.8616787068
 20
119.0284058771
 30
0.0
 40
1.5
100
AcDbArc
 50
270.0
 51
0.0
  0
ARC
  5
89
330
1F
100
AcDbEntity
  8
0
  6
Continuous
 62
     7
370
    25
100
AcDbCircle
 10
221.9616787068
 20
120.1284058771
 30
0.0
 40
0.3999999999999915
100
AcDbArc
 50
0.0
 51
90.0
  0
ARC
  5
8A
330
1F
100
AcDbEntity
  8
0
  6
Continuous
 62
     7
370
    25
100
AcDbCircle
 10
221.9616787068
 20
130.9284058771
 30
0.0
 40
0.4000000000000341
100
AcDbArc
 50
270.0
 51
0.0
  0
LINE
  5
8B
330
1F
100
AcDbEntity
  8
0
  6
Continuous
 62
     7
370
    25
100
AcDbLine
 10
221.9616861216
 20
130.5284057653
 30
0.0
 11
219.3616719119
 21
130.5284057653
 31
0.0
  0
LINE
  5
8C
330
1F
100
AcDbEntity
  8
0
  6
Continuous
 62
     7
370
    25
100
AcDbLine
 10
219.3616719119
 20
120.5284059888
 30
0.0
 11
221.9616861216
 21
120.5284059888
 31
0.0
  0
ARC
  5
8D
330
1F
100
AcDbEntity
  8
0
  6
Continuous
 62
     7
370
    25
100
AcDbCircle
 10
90.5616787068
 20
94.2534058771
 30
0.0
 40
0.2000000000000028
100
AcDbArc
 50
180.0
 51
270.0
  0
ARC
  5
8E
330
1F
100
AcDbEntity
  8
0
  6
Continuous
 62
     7
370
    25
100
AcDbCircle
 10
90.5616787068
 20
156.8034058771
 30
0.0
 40
0.2000000000000028
100
AcDbArc
 50
90.0
 51
180.0
  0
LINE
  5
8F
330
1F
100
AcDbEntity
  8
0
  6
Continuous
 62
     7
370
    25
100
AcDbLine
 10
96.9274809718
 20
94.0534057936
 30
0.0
 11
98.3866785787
 21
96.5808103702
 31
0.0
  0
LINE
  5
90
330
1F
100
AcDbEntity
  8
0
  6
Continuous
 62
     7
370
    25
100
AcDbLine
 10
90.5616787017
 20
94.0534057936
 30
0.0
 11
96.9274809718
 21
94.0534057936
 31
0.0
  0
LINE
  5
91
330
1F
100
AcDbEntity
  8
0
  6
Continuous
 62
     7
370
    25
100
AcDbLine
 10
95.7221763342
 20
157.0034059605
 30
0.0
 11
90.5616787017
 21
157.0034059605
 31
0.0
  0
LINE
  5
92
330
1F
100
AcDbEntity
  8
0
  6
Continuous
 62
     7
370
    25
100
AcDbLine
 10
103.5958768002
 20
94.0534057936
 30
0.0
 11
108.3616779319
 21
94.0534057936
 31
0.0
  0
LINE
  5
93
330
1F
100
AcDbEntity
  8
0
  6
Continuous
 62
     7
370
    25
100
AcDbLine
 10
108.3616779319
 20
157.0034059605
 30
0.0
 11
107.0765254221
 21
157.0034059605
 31
0.0
  0
ARC
  5
94
330
1F
100
AcDbEntity
  8
0
  6
Continuous
 62
     7
370
    25
100
AcDbCircle
 10
111.3616787068
 20
98.5284058771
 30
0.0
 40
3.0
100
AcDbArc
 50
90.0
 51
180.0
  0
ARC
  5
95
330
1F
100
AcDbEntity
  8
0
  6
Continuous
 62
     7
370
    25
100
AcDbCircle
 10
111.3616787068
 20
152.5284058771
 30
0.0
 40
3.0
100
AcDbArc
 50
180.0
 51
270.0
  0
ARC
  5
96
330
1F
100
AcDbEntity
  8
0
  6
Continuous
 62
     7
370
    25
100
AcDbCircle
 10
89.9327438322
 20
99.9784058771
 30
0.0
 40
0.8000000000000038
100
AcDbArc
 50
57.576802718
 51
107.5
  0
ARC
  5
97
330
1F
100
AcDbEntity
  8
0
  6
Continuous
 62
     7
370
    25
100
AcDbCircle
 10
89.9327438322
 20
151.0784058771
 30
0.0
 40
0.7999999999999868
100
AcDbArc
 50
252.5
 51
302.423197282
  0
LINE
  5
98
330
1F
100
AcDbEntity
  8
0
  6
Continuous
 62
     7
370
    25
100
AcDbLine
 10
102.1366787277
 20
96.5808103702
 30
0.0
 11
103.5958768002
 21
94.0534057936
 31
0.0
  0
LINE
  5
99
330
1F
100
AcDbEntity
  8
0
  6
Continuous
 62
     7
370
    25
100
AcDbLine
 10
89.201496648
 20
150.470144572
 30
0.0
 11
73.2566208712
 21
149.6694250873
 31
0.0
  0
LINE
  5
9A
330
1F
100
AcDbEntity
  8
0
  6
Continuous
 62
     7
370
    25
100
AcDbLine
 10
73.2566208712
 20
101.3873866669
 30
0.0
 11
89.201496648
 21
100.5866671822
 31
0.0
  0
LINE
  5
9B
330
1F
100
AcDbEntity
  8
0
  6
Continuous
 62
     7
370
    25
100
AcDbLine
 10
89.201496648
 20
100.5866671822
 30
0.0
 11
89.6921791968
 21
100.7413803509
 31
0.0
  0
LINE
  5
9C
330
1F
100
AcDbEntity
  8
0
  6
Continuous
 62
     7
370
    25
100
AcDbLine
 10
89.6921791968
 20
150.3154314032
 30
0.0
 11
89.201496648
 21
150.470144572
 31
0.0
  0
LINE
  5
9D
330
1F
100
AcDbEntity
  8
0
  6
Continuous
 62
     7
370
    25
100
AcDbLine
 10
111.3616784237
 20
101.5284056685
 30
0.0
 11
199.5616794697
 21
101.5284056685
 31
0.0
  0
LINE
  5
9E
330
1F
100
AcDbEntity
  8
0
  6
Continuous
 62
     7
370
    25
100
AcDbLine
 10
199.5616794697
 20
149.5284060857
 30
0.0
 11
111.3616784237
 21
149.5284060857
 31
0.0
  0
ARC
  5
9F
330
1F
100
AcDbEntity
  8
0
  6
Continuous
 62
     7
370
    25
100
AcDbCircle
 10
199.5616787068
 20
102.3284058771
 30
0.0
 40
0.7999999999999972
100
AcDbArc
 50
270.0
 51
0.0
  0
ARC
  5
A0
330
1F
100
AcDbEntity
  8
0
  6
Continuous
 62
     7
370
    25
100
AcDbCircle
 10
199.5616787068
 20
148.7284058771
 30
0.0
 40
0.8000000000000114
100
AcDbArc
 50
0.0
 51
90.0
  0
ARC
  5
A1
330
1F
100
AcDbEntity
  8
0
  6
Continuous
 62
     7
370
    25
100
AcDbCircle
 10
99.3866787068
 20
96.6784058771
 30
0.0
 40
1.0
100
AcDbArc
 50
90.0
 51
180.0
  0
ARC
  5
A2
330
1F
100
AcDbEntity
  8
0
  6
Continuous
 62
     7
370
    25
100
AcDbCircle
 10
101.1366787068
 20
96.6784058771
 30
0.0
 40
1.0
100
AcDbArc
 50
0.0
 51
90.0
  0
LINE
  5
A3
330
1F
100
AcDbEntity
  8
0
  6
Continuous
 62
     7
370
    25
100
AcDbLine
 10
99.3866787426
 20
97.6784056893
 30
0.0
 11
101.1366785638
 21
97.6784056893
 31
0.0
  0
ARC
  5
A4
330
1F
100
AcDbEntity
  8
0
  6
Continuous
 62
     7
370
    25
100
AcDbCircle
 10
200.7616787068
 20
114.2784058771
 30
0.0
 40
0.5999999999999943
100
AcDbArc
 50
90.0
 51
131.8103148958
  0
ARC
  5
A5
330
1F
100
AcDbEntity
  8
0
  6
Continuous
 62
     7
370
    25
100
AcDbCircle
 10
200.7616787068
 20
136.7784058771
 30
0.0
 40
0.6000000000000243
100
AcDbArc
 50
228.1896851042
 51
270.0
  0
ARC
  5
A6
330
1F
100
AcDbEntity
  8
0
  6
Continuous
 62
     7
370
    25
100
AcDbCircle
 10
218.5616787068
 20
115.3284058771
 30
0.0
 40
0.8000000000000114
100
AcDbArc
 50
270.0
 51
0.0
  0
ARC
  5
A7
330
1F
100
AcDbEntity
  8
0
  6
Continuous
 62
     7
370
    25
100
AcDbCircle
 10
218.5616787068
 20
135.7284058771
 30
0.0
 40
0.8000000000000114
100
AcDbArc
 50
0.0
 51
90.0
  0
LINE
  5
A8
330
1F
100
AcDbEntity
  8
0
  6
Continuous
 62
     7
370
    25
100
AcDbLine
 10
202.8616757266
 20
136.5284058175
 30
0.0
 11
201.631763684
 21
136.1988508052
 31
0.0
  0
LINE
  5
A9
330
1F
100
AcDbEntity
  8
0
  6
Continuous
 62
     7
370
    25
100
AcDbLine
 10
201.631763684
 20
114.857960949
 30
0.0
 11
202.8616757266
 21
114.5284059367
 31
0.0
  0
LINE
  5
AA
330
1F
100
AcDbEntity
  8
0
  6
Continuous
 62
     7
370
    25
100
AcDbLine
 10
202.8616757266
 20
114.5284059367
 30
0.0
 11
218.5616732709
 21
114.5284059367
 31
0.0
  0
LINE
  5
AB
330
1F
100
AcDbEntity
  8
0
  6
Continuous
 62
     7
370
    25
100
AcDbLine
 10
218.5616732709
 20
136.5284058175
 30
0.0
 11
202.8616757266
 21
136.5284058175
 31
0.0
  0
ARC
  5
AC
330
1F
100
AcDbEntity
  8
0
  6
Continuous
 62
     7
370
    25
100
AcDbCircle
 10
201.4764694256
 20
114.2784058771
 30
0.0
 40
0.5999999999999934
100
AcDbArc
 50
75.0
 51
90.0
  0
ARC
  5
AD
330
1F
100
AcDbEntity
  8
0
  6
Continuous
 62
     7
370
    25
100
AcDbCircle
 10
201.4764694256
 20
136.7784058771
 30
0.0
 40
0.6000000000000227
100
AcDbArc
 50
270.0
 51
285.0
  0
LINE
  5
AE
330
1F
100
AcDbEntity
  8
0
  6
Continuous
 62
     7
370
    25
100
AcDbLine
 10
200.7616774313
 20
114.8784062734
 30
0.0
 11
201.4764712326
 21
114.8784062734
 31
0.0
  0
LINE
  5
AF
330
1F
100
AcDbEntity
  8
0
  6
Continuous
 62
     7
370
    25
100
AcDbLine
 10
201.4764712326
 20
136.1784054807
 30
0.0
 11
200.7616774313
 21
136.1784054807
 31
0.0
  0
LINE
  5
B0
330
1F
100
AcDbEntity
  8
0
  6
Continuous
 62
     7
370
    25
100
AcDbLine
 10
72.3616794817
 20
102.2823280564
 30
0.0
 11
73.2566208712
 21
101.3873866669
 31
0.0
  0
LINE
  5
B1
330
1F
100
AcDbEntity
  8
0
  6
Continuous
 62
     7
370
    25
100
AcDbLine
 10
73.2566208712
 20
149.6694250873
 30
0.0
 11
72.3616794817
 21
148.7744836977
 31
0.0
  0
LINE
  5
B2
330
1F
100
AcDbEntity
  8
0
  6
Continuous
 62
     7
370
    25
100
AcDbLine
 10
205.9616760484
 20
103.5284059963
 30
0.0
 11
205.9616760484
 21
112.5284056089
 31
0.0
  0
LINE
  5
B3
330
1F
100
AcDbEntity
  8
0
  6
Continuous
 62
     7
370
    25
100
AcDbLine
 10
205.9616760484
 20
138.5284061453
 30
0.0
 11
205.9616760484
 21
147.5284057579
 31
0.0
  0
LINE
  5
B4
330
1F
100
AcDbEntity
  8
0
  6
Continuous
 62
     7
370
    25
100
AcDbLine
 10
222.3616779915
 20
133.5284062571
 30
0.0
 11
222.3616779915
 21
117.5284054971
 31
0.0
  0
LINE
  5
B5
330
1F
100
AcDbEntity
  8
0
  6
Continuous
 62
     7
370
    25
100
AcDbLine
 10
232.361683356
 20
132.0284060112
 30
0.0
 11
232.361683356
 21
119.0284062086
 31
0.0
  0
LINE
  5
B6
330
1F
100
AcDbEntity
  8
0
  6
Continuous
 62
     7
370
    25
100
AcDbLine
 10
90.3616787068
 20
94.2534054539
 30
0.0
 11
90.3616787068
 21
156.8034063003
 31
0.0
  0
LINE
  5
B7
330
1F
100
AcDbEntity
  8
0
  6
Continuous
 62
     7
370
    25
100
AcDbLine
 10
96.9274809718
 20
94.0534057936
 30
0.0
 11
96.9274809718
 21
156.8304705343
 31
0.0
  0
SPLINE
  5
B8
330
1F
100
AcDbEntity
  8
0
  6
Continuous
 62
     7
370
    25
100
AcDbSpline
210
0.0
220
0.0
230
1.0
 70
     8
 71
     3
 72
    10
 73
     6
 74
     0
 42
0.000000001
 43
0.00000001
 40
0.0
 40
0.0
 40
0.0
 40
0.0
 40
0.5
 40
0.5
 40
1.0
 40
1.0
 40
1.0
 40
1.0
 10
98.05569689934823
 20
155.0034058770779
 30
0.0
 10
97.87881175292485
 20
155.2935994168205
 30
0.0
 10
97.69326237804745
 20
155.596012802761
 30
0.0
 10
97.31531343799986
 20
156.2080469400613
 30
0.0
 10
97.12252689582066
 20
156.5183237796263
 30
0.0
 10
96.9274809022314
 20
156.8304708505914
 30
0.0
  0
SPLINE
  5
B9
330
1F
100
AcDbEntity
  8
0
  6
Continuous
 62
     7
370
    25
100
AcDbSpline
210
0.0
220
0.0
230
1.0
 70
     8
 71
     3
 72
     8
 73
     4
 74
     0
 42
0.000000001
 43
0.00000001
 40
0.0
 40
0.0
 40
0.0
 40
0.0
 40
1.0
 40
1.0
 40
1.0
 40
1.0
 10
98.38667870680156
 20
154.392656955695
 30
0.0
 10
98.26838194737158
 20
154.6105421900258
 30
0.0
 10
98.15695346520022
 20
154.8162224810679
 30
0.0
 10
98.05569689934825
 20
155.0034058770779
 30
0.0
  0
LINE
  5
BA
330
1F
100
AcDbEntity
  8
0
  6
Continuous
 62
     7
370
    25
100
AcDbLine
 10
98.3866785787
 20
112.997256676
 30
0.0
 11
98.3866785787
 21
154.3926573268
 31
0.0
  0
SPLINE
  5
BB
330
1F
100
AcDbEntity
  8
0
  6
Continuous
 62
     7
370
    25
100
AcDbSpline
210
0.0
220
0.0
230
1.0
 70
     8
 71
     3
 72
    26
 73
    22
 74
     0
 42
0.000000001
 43
0.00000001
 40
0.0
 40
0.0
 40
0.0
 40
0.0
 40
0.1250000000000014
 40
0.1250000000000014
 40
0.2500000000000027
 40
0.2500000000000027
 40
0.3125000000000025
 40
0.3125000000000025
 40
0.3750000000000023
 40
0.3750000000000023
 40
0.4375000000000021
 40
0.4375000000000021
 40
0.5000000000000018
 40
0.5000000000000018
 40
0.5625000000000016
 40
0.5625000000000016
 40
0.6250000000000013
 40
0.6250000000000013
 40
0.7500000000000006
 40
0.7500000000000006
 40
1.0
 40
1.0
 40
1.0
 40
1.0
 10
98.38667870680155
 20
109.1953040261073
 30
0.0
 10
98.29477379611875
 20
109.2203517184436
 30
0.0
 10
98.20707701989376
 20
109.2583593123579
 30
0.0
 10
98.04287074912646
 20
109.3693555634507
 30
0.0
 10
97.96560033085973
 20
109.4432890747642
 30
0.0
 10
97.86583422453462
 20
109.5885872100945
 30
0.0
 10
97.83522129563232
 20
109.6427290240862
 30
0.0
 10
97.78035242172928
 20
109.7647932633543
 30
0.0
 10
97.75596720080038
 20
109.8333652449385
 30
0.0
 10
97.71628782430193
 20
109.9829494149727
 30
0.0
 10
97.70082174506462
 20
110.0641084201454
 30
0.0
 10
97.67972540998218
 20
110.2407644272369
 30
0.0
 10
97.67421234382212
 20
110.3370085339587
 30
0.0
 10
97.67414538619981
 20
110.5362384763197
 30
0.0
 10
97.6794136935493
 20
110.6400864245432
 30
0.0
 10
97.70025622071732
 20
110.8560066206961
 30
0.0
 10
97.71593033392757
 20
110.9679757747903
 30
0.0
 10
97.77524926410516
 20
111.3026019909352
 30
0.0
 10
97.83226909961917
 20
111.5306566993042
 30
0.0
 10
98.03110398826303
 20
112.1890396433733
 30
0.0
 10
98.20237419349515
 20
112.6075646318321
 30
0.0
 10
98.38667870680152
 20
112.9972566494312
 30
0.0
  0
LINE
  5
BC
330
1F
100
AcDbEntity
  8
0
  6
Continuous
 62
     7
370
    25
100
AcDbLine
 10
98.3866785787
 20
96.5808103702
 30
0.0
 11
98.3866785787
 21
109.1953045598
 31
0.0
  0
SPLINE
  5
BD
330
1F
100
AcDbEntity
  8
0
  6
Continuous
 62
     7
370
    25
100
AcDbSpline
210
0.0
220
0.0
230
1.0
 70
     8
 71
     3
 72
    10
 73
     6
 74
     0
 42
0.000000001
 43
0.00000001
 40
0.0
 40
0.0
 40
0.0
 40
0.0
 40
0.4058355826442185
 40
0.8996340058832388
 40
1.0
 40
1.0
 40
1.0
 40
1.0
 10
96.92748097176013
 20
156.8304705342892
 30
0.0
 10
96.64564496376151
 20
156.8668619034011
 30
0.0
 10
96.02088639718653
 20
156.9475322895716
 30
0.0
 10
95.62077872767702
 20
157.0116207492417
 30
0.0
 10
95.7075234530498
 20
156.9983338992766
 30
0.0
 10
95.72217633420883
 20
156.9960894903782
 30
0.0
  0
LINE
  5
BE
330
1F
100
AcDbEntity
  8
0
  6
Continuous
 62
     7
370
    25
100
AcDbLine
 10
108.3616779319
 20
94.0534057936
 30
0.0
 11
108.3616779319
 21
157.0034059605
 31
0.0
  0
SPLINE
  5
BF
330
1F
100
AcDbEntity
  8
0
  6
Continuous
 62
     7
370
    25
100
AcDbSpline
210
0.0
220
0.0
230
1.0
 70
     8
 71
     3
 72
    25
 73
    21
 74
     0
 42
0.000000001
 43
0.00000001
 40
0.0
 40
0.0
 40
0.0
 40
0.0
 40
0.1249999999999985
 40
0.1249999999999985
 40
0.2499999999999971
 40
0.2499999999999971
 40
0.3749999999999956
 40
0.3749999999999956
 40
0.4999999999999941
 40
0.4999999999999941
 40
0.562499999999995
 40
0.562499999999995
 40
0.624999999999996
 40
0.6874999999999969
 40
0.6874999999999969
 40
0.7499999999999978
 40
0.7499999999999978
 40
0.8749999999999989
 40
0.8749999999999989
 40
1.0
 40
1.0
 40
1.0
 40
1.0
 10
103.5958765113716
 20
112.4906618717659
 30
0.0
 10
103.837124016927
 20
112.3317874929742
 30
0.0
 10
104.0530530511714
 20
112.1508999579456
 30
0.0
 10
104.436210963014
 20
111.7480067379829
 30
0.0
 10
104.6036627484992
 20
111.523936664045
 30
0.0
 10
104.8713474049031
 20
111.0576337520068
 30
0.0
 10
104.975019372624
 20
110.8107000989471
 30
0.0
 10
105.1141507438782
 20
110.3041143428341
 30
0.0
 10
105.1488899838688
 20
110.0496036339321
 30
0.0
 10
105.1493204170881
 20
109.6662788887703
 30
0.0
 10
105.1405856334986
 20
109.537454540978
 30
0.0
 10
105.105792230324
 20
109.2853341764419
 30
0.0
 10
105.0538993685948
 20
109.0377815072907
 30
0.0
 10
104.9685211563012
 20
108.799045185892
 30
0.0
 10
104.8660454032366
 20
108.5647042872527
 30
0.0
 10
104.8059840315855
 20
108.4495219341768
 30
0.0
 10
104.6046742091344
 20
108.1194729618351
 30
0.0
 10
104.4414506890545
 20
107.9167618316011
 30
0.0
 10
104.0560724888032
 20
107.5450174580515
 30
0.0
 10
103.8371230029773
 20
107.3796637803945
 30
0.0
 10
103.5958765113716
 20
107.2376095589164
 30
0.0
  0
LINE
  5
C0
330
1F
100
AcDbEntity
  8
0
  6
Continuous
 62
     7
370
    25
100
AcDbLine
 10
103.5958768002
 20
112.4906618989
 30
0.0
 11
103.5958768002
 21
156.6212731323
 31
0.0
  0
SPLINE
  5
C1
330
1F
100
AcDbEntity
  8
0
  6
Continuous
 62
     7
370
    25
100
AcDbSpline
210
0.0
220
0.0
230
1.0
 70
     8
 71
     3
 72
    12
 73
     8
 74
     0
 42
0.000000001
 43
0.00000001
 40
0.0
 40
0.0
 40
0.0
 40
0.0
 40
0.1144634680262505
 40
0.3661160526449659
 40
0.6247763889426796
 40
0.9030266255086999
 40
1.0
 40
1.0
 40
1.0
 40
1.0
 10
107.0765254221326
 20
156.9922747931126
 30
0.0
 10
107.0935437347667
 20
156.9948753886445
 30
0.0
 10
107.1479774991084
 20
157.0031934991044
 30
0.0
 10
106.6430712618215
 20
156.9259264205249
 30
0.0
 10
105.6494184354244
 20
156.7952776455653
 30
0.0
 10
104.5261353805351
 20
156.6815536353879
 30
0.0
 10
103.7869206154961
 20
156.6336527195807
 30
0.0
 10
103.5958768002158
 20
156.6212731322888
 30
0.0
  0
LINE
  5
C2
330
1F
100
AcDbEntity
  8
0
  6
Continuous
 62
     7
370
    25
100
AcDbLine
 10
103.5958768002
 20
94.0534057936
 30
0.0
 11
103.5958768002
 21
107.2376086286
 31
0.0
  0
SPLINE
  5
C3
330
1F
100
AcDbEntity
  8
0
  6
Continuous
 62
     7
370
    25
100
AcDbSpline
210
0.0
220
0.0
230
1.0
 70
     8
 71
     3
 72
     8
 73
     4
 74
     0
 42
0.000000001
 43
0.00000001
 40
0.0
 40
0.0
 40
0.0
 40
0.0
 40
1.0
 40
1.0
 40
1.0
 40
1.0
 10
102.5645224221375
 20
155.0034058770779
 30
0.0
 10
102.4229843338556
 20
154.7509418770225
 30
0.0
 10
102.2803738651187
 20
154.49739818788
 30
0.0
 10
102.1366787068017
 20
154.2428619981585
 30
0.0
  0
SPLINE
  5
C4
330
1F
100
AcDbEntity
  8
0
  6
Continuous
 62
     7
370
    25
100
AcDbSpline
210
0.0
220
0.0
230
1.0
 70
     8
 71
     3
 72
     8
 73
     4
 74
     0
 42
0.000000001
 43
0.00000001
 40
0.0
 40
0.0
 40
0.0
 40
0.0
 40
1.0
 40
1.0
 40
1.0
 40
1.0
 10
103.5958765113712
 20
156.6212730288694
 30
0.0
 10
103.2474751066909
 20
156.0792842832184
 30
0.0
 10
102.902906721458
 20
155.539065096225
 30
0.0
 10
102.5645224221372
 20
155.0034058770775
 30
0.0
  0
SPLINE
  5
C5
330
1F
100
AcDbEntity
  8
0
  6
Continuous
 62
     7
370
    25
100
AcDbSpline
210
0.0
220
0.0
230
1.0
 70
     8
 71
     3
 72
    10
 73
     6
 74
     0
 42
0.000000001
 43
0.00000001
 40
0.0
 40
0.0
 40
0.0
 40
0.0
 40
0.5
 40
0.5
 40
1.0
 40
1.0
 40
1.0
 40
1.0
 10
102.1366787068015
 20
114.3464669273903
 30
0.0
 10
102.387871596673
 20
114.0809747788348
 30
0.0
 10
102.6351409083748
 20
113.7952884557923
 30
0.0
 10
103.1217622596857
 20
113.1794157739021
 30
0.0
 10
103.3611455674024
 20
112.8494780466614
 30
0.0
 10
103.5958765113715
 20
112.4906618717661
 30
0.0
  0
LINE
  5
C6
330
1F
100
AcDbEntity
  8
0
  6
Continuous
 62
     7
370
    25
100
AcDbLine
 10
102.1366787277
 20
114.3464664838
 30
0.0
 11
102.1366787277
 21
154.2428615412
 31
0.0
  0
SPLINE
  5
C7
330
1F
100
AcDbEntity
  8
0
  6
Continuous
 62
     7
370
    25
100
AcDbSpline
210
0.0
220
0.0
230
1.0
 70
     8
 71
     3
 72
    10
 73
     6
 74
     0
 42
0.000000001
 43
0.00000001
 40
0.0
 40
0.0
 40
0.0
 40
0.0
 40
0.5
 40
0.5
 40
1.0
 40
1.0
 40
1.0
 40
1.0
 10
103.5958765113715
 20
107.2376095589164
 30
0.0
 10
103.3611455674024
 20
107.3036252159712
 30
0.0
 10
103.1217622596857
 20
107.4050331570556
 30
0.0
 10
102.6351409083748
 20
107.6612789511341
 30
0.0
 10
102.387871596673
 20
107.8164272328249
 30
0.0
 10
102.1366787068015
 20
107.9958887056849
 30
0.0
  0
LINE
  5
C8
330
1F
100
AcDbEntity
  8
0
  6
Continuous
 62
     7
370
    25
100
AcDbLine
 10
102.1366787277
 20
107.9958896062
 30
0.0
 11
102.1366787277
 21
108.0450839272
 31
0.0
  0
SPLINE
  5
C9
330
1F
100
AcDbEntity
  8
0
  6
Continuous
 62
     7
370
    25
100
AcDbSpline
210
0.0
220
0.0
230
1.0
 70
     8
 71
     3
 72
    14
 73
    10
 74
     0
 42
0.000000001
 43
0.00000001
 40
0.0
 40
0.0
 40
0.0
 40
0.0
 40
0.25
 40
0.25
 40
0.5
 40
0.5
 40
0.75
 40
0.75
 40
1.0
 40
1.0
 40
1.0
 40
1.0
 10
102.1366787068017
 20
108.0450838934809
 30
0.0
 10
102.1366787068017
 20
108.11100117319
 30
0.0
 10
102.1107492685357
 20
108.1723906319843
 30
0.0
 10
102.0113070112593
 20
108.2798166942736
 30
0.0
 10
101.9390246255385
 20
108.3253578683722
 30
0.0
 10
101.754287288774
 20
108.401994792252
 30
0.0
 10
101.6447406524519
 20
108.4319203460772
 30
0.0
 10
101.4013794074487
 20
108.4775625335038
 30
0.0
 10
101.2698683000029
 20
108.4928417841253
 30
0.0
 10
101.1366787068015
 20
108.5006882678252
 30
0.0
  0
SPLINE
  5
CA
330
1F
100
AcDbEntity
  8
0
  6
Continuous
 62
     7
370
    25
100
AcDbSpline
210
0.0
220
0.0
230
1.0
 70
     8
 71
     3
 72
    10
 73
     6
 74
     0
 42
0.000000001
 43
0.00000001
 40
0.0
 40
0.0
 40
0.0
 40
0.0
 40
0.5
 40
0.5
 40
1.0
 40
1.0
 40
1.0
 40
1.0
 10
101.1366787068015
 20
108.5006882678251
 30
0.0
 10
100.8242148045134
 20
108.5190961843685
 30
0.0
 10
100.5213258225156
 20
108.5679690012924
 30
0.0
 10
99.93398263771155
 20
108.7252712586328
 30
0.0
 10
99.6495149771396
 20
108.8346434739113
 30
0.0
 10
99.3866787068015
 20
108.9717569940988
 30
0.0
  0
SPLINE
  5
CB
330
1F
100
AcDbEntity
  8
0
  6
Continuous
 62
     7
370
    25
100
AcDbSpline
210
0.0
220
0.0
230
1.0
 70
     8
 71
     3
 72
    14
 73
    10
 74
     0
 42
0.000000001
 43
0.00000001
 40
0.0
 40
0.0
 40
0.0
 40
0.0
 40
0.25
 40
0.25
 40
0.5
 40
0.5
 40
0.75
 40
0.75
 40
1.0
 40
1.0
 40
1.0
 40
1.0
 10
99.38667870680152
 20
108.9717569940987
 30
0.0
 10
99.25232795826038
 20
109.0418436075201
 30
0.0
 10
99.12914905546694
 20
109.1030389148157
 30
0.0
 10
98.90039863457758
 20
109.2126812881422
 30
0.0
 10
98.79847554258444
 20
109.2593890875303
 30
0.0
 10
98.61905047823919
 20
109.3303546003793
 30
0.0
 10
98.54260922933474
 20
109.3548670787719
 30
0.0
 10
98.42532125487303
 20
109.353351371246
 30
0.0
 10
98.38667870680152
 20
109.3247443280376
 30
0.0
 10
98.38667870680152
 20
109.244243037824
 30
0.0
  0
LINE
  5
CC
330
1F
100
AcDbEntity
  8
0
  6
Continuous
 62
     7
370
    25
100
AcDbLine
 10
98.3866785787
 20
109.2442436984
 30
0.0
 11
98.3866785787
 21
109.1953045598
 31
0.0
  0
SPLINE
  5
CD
330
1F
100
AcDbEntity
  8
0
  6
Continuous
 62
     7
370
    25
100
AcDbSpline
210
0.0
220
0.0
230
1.0
 70
     8
 71
     3
 72
    16
 73
    12
 74
     0
 42
0.000000001
 43
0.00000001
 40
0.0
 40
0.0
 40
0.0
 40
0.0
 40
0.1250000000000001
 40
0.1250000000000001
 40
0.2500000000000003
 40
0.2500000000000003
 40
0.5000000000000002
 40
0.5000000000000002
 40
0.7500000000000001
 40
0.7500000000000001
 40
1.0
 40
1.0
 40
1.0
 40
1.0
 10
98.38667870680152
 20
113.0461956611479
 30
0.0
 10
98.38667870680152
 20
113.0862247113018
 30
0.0
 10
98.39645127044113
 20
113.1377113663543
 30
0.0
 10
98.43064731584155
 20
113.2517756132603
 30
0.0
 10
98.45483250755244
 20
113.3141201507284
 30
0.0
 10
98.54254917164876
 20
113.5066464470835
 30
0.0
 10
98.61925933749812
 20
113.638907654672
 30
0.0
 10
98.79834143773908
 20
113.8928565943383
 30
0.0
 10
98.89922420735891
 20
114.0128286566198
 30
0.0
 10
99.12803570562193
 20
114.2347090141886
 30
0.0
 10
99.25233331405684
 20
114.3328753869351
 30
0.0
 10
99.38667870680152
 20
114.4127903288615
 30
0.0
  0
SPLINE
  5
CE
330
1F
100
AcDbEntity
  8
0
  6
Continuous
 62
     7
370
    25
100
AcDbSpline
210
0.0
220
0.0
230
1.0
 70
     8
 71
     3
 72
    10
 73
     6
 74
     0
 42
0.000000001
 43
0.00000001
 40
0.0
 40
0.0
 40
0.0
 40
0.0
 40
0.5
 40
0.5
 40
1.0
 40
1.0
 40
1.0
 40
1.0
 10
99.3866787068015
 20
114.4127903288615
 30
0.0
 10
99.64949822115722
 20
114.569127705215
 30
0.0
 10
99.92785108576491
 20
114.6930463772822
 30
0.0
 10
100.5148476731503
 20
114.8764889868839
 30
0.0
 10
100.8242313630286
 20
114.9351609664766
 30
0.0
 10
101.1366787068015
 20
114.9566811233044
 30
0.0
  0
SPLINE
  5
CF
330
1F
100
AcDbEntity
  8
0
  6
Continuous
 62
     7
370
    25
100
AcDbSpline
210
0.0
220
0.0
230
1.0
 70
     8
 71
     3
 72
    14
 73
    10
 74
     0
 42
0.000000001
 43
0.00000001
 40
0.0
 40
0.0
 40
0.0
 40
0.0
 40
0.25
 40
0.25
 40
0.5
 40
0.5
 40
0.75
 40
0.75
 40
1.0
 40
1.0
 40
1.0
 40
1.0
 10
101.1366787068015
 20
114.9566811233044
 30
0.0
 10
101.2699081578249
 20
114.965857449291
 30
0.0
 10
101.401609520435
 20
114.9544653173246
 30
0.0
 10
101.6446871786521
 20
114.8963046576649
 30
0.0
 10
101.7555931192008
 20
114.8495285357654
 30
0.0
 10
101.9382901922784
 20
114.7365694090343
 30
0.0
 10
102.01167772176
 20
114.6696157030935
 30
0.0
 10
102.1105120006783
 20
114.5325838542988
 30
0.0
 10
102.1366787068015
 20
114.4617998791755
 30
0.0
 10
102.1366787068015
 20
114.3956621151876
 30
0.0
  0
LWPOLYLINE
  5
D0
330
1F
100
AcDbEntity
  8
0
  6
Continuous
 62
     7
370
    25
100
AcDbPolyline
 90
        3
 70
   128
 43
0.0
 10
101.4116785623
 20
113.0041363558
 10
102.3061207629
 20
113.0981906227
 10
103.0036627449
 20
113.3124469689
  0
ARC
  5
D1
330
1F
100
AcDbEntity
  8
0
  6
Continuous
 62
     7
370
    25
100
AcDbCircle
 10
101.3606867378
 20
117.0231353732
 30
0.0
 40
4.019322488651087
100
AcDbArc
 50
230.8434184468
 51
270.7269122395
  0
SPLINE
  5
D2
330
1F
100
AcDbEntity
  8
0
  6
Continuous
 62
     7
370
    25
100
AcDbSpline
210
0.0
220
0.0
230
1.0
 70
     8
 71
     3
 72
    14
 73
    10
 74
     0
 42
0.000000001
 43
0.00000001
 40
0.0
 40
0.0
 40
0.0
 40
0.0
 40
0.25
 40
0.25
 40
0.5
 40
0.5
 40
0.75
 40
0.75
 40
1.0
 40
1.0
 40
1.0
 40
1.0
 10
102.1366787068016
 20
154.1444716225654
 30
0.0
 10
102.1366787068018
 20
154.0126324455965
 30
0.0
 10
102.1107621842307
 20
153.8805835086078
 30
0.0
 10
102.0113173376531
 20
153.6353172168947
 30
0.0
 10
101.9390189452409
 20
153.5236968003069
 30
0.0
 10
101.754315050717
 20
153.3329575111113
 30
0.0
 10
101.6447377888411
 20
153.2569966442643
 30
0.0
 10
101.4014076106229
 20
153.1531543200948
 30
0.0
 10
101.2698713517028
 20
153.1265211126615
 30
0.0
 10
101.1366787068015
 20
153.1278482401037
 30
0.0
  0
SPLINE
  5
D3
330
1F
100
AcDbEntity
  8
0
  6
Continuous
 62
     7
370
    25
100
AcDbSpline
210
0.0
220
0.0
230
1.0
 70
     8
 71
     3
 72
    14
 73
    10
 74
     0
 42
0.000000001
 43
0.00000001
 40
0.0
 40
0.0
 40
0.0
 40
0.0
 40
0.25
 40
0.25
 40
0.5
 40
0.5
 40
0.75
 40
0.75
 40
1.0
 40
1.0
 40
1.0
 40
1.0
 10
99.38667870680152
 20
153.2006703082733
 30
0.0
 10
99.25233062044502
 20
153.2105016278441
 30
0.0
 10
99.12915394658907
 20
153.2465410412342
 30
0.0
 10
98.90040734167104
 20
153.3584127375535
 30
0.0
 10
98.79848537770384
 20
153.4327675266438
 30
0.0
 10
98.61906197527512
 20
153.6162439934956
 30
0.0
 10
98.54262068709234
 20
153.7235095143556
 30
0.0
 10
98.42533071424222
 20
153.982536004174
 30
0.0
 10
98.38667870680152
 20
154.1337807091502
 30
0.0
 10
98.38667870680152
 20
154.2947789322617
 30
0.0
  0
SPLINE
  5
D4
330
1F
100
AcDbEntity
  8
0
  6
Continuous
 62
     7
370
    25
100
AcDbSpline
210
0.0
220
0.0
230
1.0
 70
     8
 71
     3
 72
    10
 73
     6
 74
     0
 42
0.000000001
 43
0.00000001
 40
0.0
 40
0.0
 40
0.0
 40
0.0
 40
0.5
 40
0.5
 40
1.0
 40
1.0
 40
1.0
 40
1.0
 10
101.1366787068015
 20
153.127848240104
 30
0.0
 10
100.8242148045134
 20
153.1309616208745
 30
0.0
 10
100.5213258225156
 20
153.139277602781
 30
0.0
 10
99.93398263771155
 20
153.1644528966369
 30
0.0
 10
99.64951497713962
 20
153.1814364848629
 30
0.0
 10
99.38667870680152
 20
153.2006703082733
 30
0.0
  0
LINE
  5
D5
330
1F
100
AcDbEntity
  8
0
  6
Continuous
 62
     7
370
    25
100
AcDbLine
 10
102.1366787277
 20
96.5808103702
 30
0.0
 11
102.1366787277
 21
107.9958896062
 31
0.0
  0
LINE
  5
D6
330
1F
100
AcDbEntity
  8
0
  6
Continuous
 62
     7
370
    25
100
AcDbLine
 10
89.201496648
 20
100.5866671822
 30
0.0
 11
89.201496648
 21
150.470144572
 31
0.0
  0
LINE
  5
D7
330
1F
100
AcDbEntity
  8
0
  6
Continuous
 62
     7
370
    25
100
AcDbLine
 10
73.2566208712
 20
101.7870693377
 30
0.0
 11
73.2566208712
 21
101.3873866669
 31
0.0
  0
SPLINE
  5
D8
330
1F
100
AcDbEntity
  8
0
  6
Continuous
 62
     7
370
    25
100
AcDbSpline
210
0.0
220
0.0
230
1.0
 70
     8
 71
     3
 72
    26
 73
    22
 74
     0
 42
0.000000001
 43
0.00000001
 40
0.0
 40
0.0
 40
0.0
 40
0.0
 40
0.0241259796969038
 40
0.048215991228259
 40
0.0723203915136643
 40
0.0964895678725153
 40
0.1207736231978452
 40
0.1452220711257179
 40
0.1698835501670319
 40
0.1948055644482148
 40
0.2200342569523467
 40
0.2456142191612283
 40
0.369097148691835
 40
0.4940698769485373
 40
0.6192566784762581
 40
0.7454656653603327
 40
0.7971495824713788
 40
0.8481710308405456
 40
0.8988013269235281
 40
0.9493179290492212
 40
1.0
 40
1.0
 40
1.0
 40
1.0
 10
68.31673655360008
 20
103.6089929631578
 30
0.0
 10
68.38198561215107
 20
103.6051723336769
 30
0.0
 10
68.5123864528328
 20
103.5975367706924
 30
0.0
 10
68.70736627113249
 20
103.5816165203304
 30
0.0
 10
68.90149540839862
 20
103.5624583191794
 30
0.0
 10
69.09475674849426
 20
103.5397639054419
 30
0.0
 10
69.28715192696906
 20
103.5136515388541
 30
0.0
 10
69.47867750546958
 20
103.4841397323995
 30
0.0
 10
69.66933303785353
 20
103.4512853718048
 30
0.0
 10
69.85911303694951
 20
103.4151490623645
 30
0.0
 10
70.04803165760197
 20
103.3757947695187
 30
0.0
 10
70.47477607077235
 20
103.2793960066602
 30
0.0
 10
71.10924839795047
 20
103.1027599277896
 30
0.0
 10
71.84892425029832
 20
102.8246406942569
 30
0.0
 10
72.4556714931303
 20
102.5332953345336
 30
0.0
 10
72.8164633093488
 20
102.3058181445148
 30
0.0
 10
73.0186373651131
 20
102.1464069074217
 30
0.0
 10
73.1254608210983
 20
102.0451077627131
 30
0.0
 10
73.20107153739656
 20
101.9511744229824
 30
0.0
 10
73.24823421008787
 20
101.8640547789736
 30
0.0
 10
73.25382226437611
 20
101.8127596487106
 30
0.0
 10
73.25662086000295
 20
101.7870701475306
 30
0.0
  0
LINE
  5
D9
330
1F
100
AcDbEntity
  8
0
  6
Continuous
 62
     7
370
    25
100
AcDbLine
 10
66.4018632046
 20
103.7145028731
 30
0.0
 11
68.3167369239
 21
103.6089933387
 31
0.0
  0
SPLINE
  5
DA
330
1F
100
AcDbEntity
  8
0
  6
Continuous
 62
     7
370
    25
100
AcDbSpline
210
0.0
220
0.0
230
1.0
 70
     8
 71
     3
 72
    14
 73
    10
 74
     0
 42
0.000000001
 43
0.00000001
 40
0.0
 40
0.0
 40
0.0
 40
0.0
 40
0.0789261963155847
 40
0.1582328720522156
 40
0.3308475394554963
 40
0.5000195457601538
 40
0.667035788356921
 40
0.8332395193656904
 40
1.0
 40
1.0
 40
1.0
 40
1.0
 10
64.20565104823825
 20
103.6085099679328
 30
0.0
 10
64.2590465712803
 20
103.6165390611247
 30
0.0
 10
64.36609502109903
 20
103.6326359533485
 30
0.0
 10
64.59516573566145
 20
103.6624373669672
 30
0.0
 10
64.89403847385987
 20
103.6942313301604
 30
0.0
 10
65.26618154866101
 20
103.7203883201562
 30
0.0
 10
65.64181134769265
 20
103.7328535343909
 30
0.0
 10
66.02100365972244
 20
103.7324743747172
 30
0.0
 10
66.27476862927021
 20
103.7205005864557
 30
0.0
 10
66.40186327431063
 20
103.7145036816363
 30
0.0
  0
SPLINE
  5
DB
330
1F
100
AcDbEntity
  8
0
  6
Continuous
 62
     7
370
    25
100
AcDbSpline
210
0.0
220
0.0
230
1.0
 70
     8
 71
     3
 72
     8
 73
     4
 74
     0
 42
0.000000001
 43
0.00000001
 40
0.0
 40
0.0
 40
0.0
 40
0.0
 40
1.0
 40
1.0
 40
1.0
 40
1.0
 10
58.81335732459386
 20
103.9031193503815
 30
0.0
 10
60.61069400996691
 20
103.8049835203241
 30
0.0
 10
62.40803069533994
 20
103.7067646452825
 30
0.0
 10
64.20536738071297
 20
103.6084659562319
 30
0.0
  0
SPLINE
  5
DC
330
1F
100
AcDbEntity
  8
0
  6
Continuous
 62
     7
370
    25
100
AcDbSpline
210
0.0
220
0.0
230
1.0
 70
     8
 71
     3
 72
    13
 73
     9
 74
     0
 42
0.000000001
 43
0.00000001
 40
0.0
 40
0.0
 40
0.0
 40
0.0
 40
0.1667030582308044
 40
0.3329480818053134
 40
0.4990671507274983
 40
0.6653938523718556
 40
0.8322612710550201
 40
1.0
 40
1.0
 40
1.0
 40
1.0
 10
57.72985315974847
 20
104.0197864147233
 30
0.0
 10
57.79096020249981
 20
104.0160997870496
 30
0.0
 10
57.91300638980302
 20
104.0087366611098
 30
0.0
 10
58.09534133506671
 20
103.9937021535208
 30
0.0
 10
58.2766455479404
 20
103.9758005452878
 30
0.0
 10
58.45684440797705
 20
103.9546999684419
 30
0.0
 10
58.63614838611539
 20
103.9307535974077
 30
0.0
 10
58.75418041168678
 20
103.912340782195
 30
0.0
 10
58.81335010143843
 20
103.9031104012174
 30
0.0
  0
SPLINE
  5
DD
330
1F
100
AcDbEntity
  8
0
  6
Continuous
 62
     7
370
    25
100
AcDbSpline
210
0.0
220
0.0
230
1.0
 70
     8
 71
     3
 72
     8
 73
     4
 74
     0
 42
0.000000001
 43
0.00000001
 40
0.0
 40
0.0
 40
0.0
 40
0.0
 40
1.0
 40
1.0
 40
1.0
 40
1.0
 10
51.91167870681426
 20
104.339553646817
 30
0.0
 10
53.85107019112567
 20
104.2330679969337
 30
0.0
 10
55.79046167543708
 20
104.1264774257023
 30
0.0
 10
57.72985315974849
 20
104.0197864147233
 30
0.0
  0
LINE
  5
DE
330
1F
100
AcDbEntity
  8
0
  6
Continuous
 62
     7
370
    25
100
AcDbLine
 10
51.9116797618
 20
104.3395544312
 30
0.0
 11
51.9116797618
 21
146.7173448673
 31
0.0
  0
SPLINE
  5
DF
330
1F
100
AcDbEntity
  8
0
  6
Continuous
 62
     7
370
    25
100
AcDbSpline
210
0.0
220
0.0
230
1.0
 70
     8
 71
     3
 72
     8
 73
     4
 74
     0
 42
0.000000001
 43
0.00000001
 40
0.0
 40
0.0
 40
0.0
 40
0.0
 40
1.0
 40
1.0
 40
1.0
 40
1.0
 10
57.72985315974849
 20
147.0370253394325
 30
0.0
 10
55.79046167543708
 20
146.9303343284535
 30
0.0
 10
53.85107019112567
 20
146.8237437572222
 30
0.0
 10
51.91167870681428
 20
146.7172581073388
 30
0.0
  0
SPLINE
  5
E0
330
1F
100
AcDbEntity
  8
0
  6
Continuous
 62
     7
370
    25
100
AcDbSpline
210
0.0
220
0.0
230
1.0
 70
     8
 71
     3
 72
    13
 73
     9
 74
     0
 42
0.000000001
 43
0.00000001
 40
0.0
 40
0.0
 40
0.0
 40
0.0
 40
0.1686319999748162
 40
0.3360343310905639
 40
0.5025367825908819
 40
0.6684737453788441
 40
0.8341822636915266
 40
1.0
 40
1.0
 40
1.0
 40
1.0
 10
58.81334820921546
 20
147.1537041151745
 30
0.0
 10
58.75385831315573
 20
147.1444296249782
 30
0.0
 10
58.63531232288067
 20
147.1259482744053
 30
0.0
 10
58.45543562729477
 20
147.1019175276712
 30
0.0
 10
58.27504533966674
 20
147.080786420162
 30
0.0
 10
58.09393316763293
 20
147.062907721576
 30
0.0
 10
57.91217233046547
 20
147.0479459603989
 30
0.0
 10
57.79063956257085
 20
147.0406663458199
 30
0.0
 10
57.72985315974847
 20
147.0370253394325
 30
0.0
  0
SPLINE
  5
E1
330
1F
100
AcDbEntity
  8
0
  6
Continuous
 62
     7
370
    25
100
AcDbSpline
210
0.0
220
0.0
230
1.0
 70
     8
 71
     3
 72
     8
 73
     4
 74
     0
 42
0.000000001
 43
0.00000001
 40
0.0
 40
0.0
 40
0.0
 40
0.0
 40
1.0
 40
1.0
 40
1.0
 40
1.0
 10
64.20554162570875
 20
147.4483553391195
 30
0.0
 10
62.40814695427077
 20
147.350053479903
 30
0.0
 10
60.61075228283281
 20
147.2518314397443
 30
0.0
 10
58.81335761139484
 20
147.1536924499288
 30
0.0
  0
SPLINE
  5
E2
330
1F
100
AcDbEntity
  8
0
  6
Continuous
 62
     7
370
    25
100
AcDbSpline
210
0.0
220
0.0
230
1.0
 70
     8
 71
     3
 72
    18
 73
    14
 74
     0
 42
0.000000001
 43
0.00000001
 40
0.0
 40
0.0
 40
0.0
 40
0.0
 40
0.0923325137111259
 40
0.1843692047063178
 40
0.2763458873811051
 40
0.3684982175655905
 40
0.461059898830402
 40
0.5542609546533457
 40
0.6483261285442697
 40
0.7434734636505935
 40
0.8399130993120554
 40
0.9201660718299485
 40
1.0
 40
1.0
 40
1.0
 40
1.0
 10
66.40186327431063
 20
147.3423080725196
 30
0.0
 10
66.33153297079757
 20
147.3386367652146
 30
0.0
 10
66.19109769394562
 20
147.3313059130496
 30
0.0
 10
65.98073516744302
 20
147.325715253805
 30
0.0
 10
65.77129150452666
 20
147.3241106636713
 30
0.0
 10
65.56274183415415
 20
147.3268429376698
 30
0.0
 10
65.35509821687887
 20
147.3337660352579
 30
0.0
 10
65.14836002933927
 20
147.3448486455507
 30
0.0
 10
64.94253793737444
 20
147.3600175864052
 30
0.0
 10
64.73760625858229
 20
147.3791715723661
 30
0.0
 10
64.54612551318667
 20
147.4008742664177
 30
0.0
 10
64.36840236113211
 20
147.4239037896816
 30
0.0
 10
64.2600683665682
 20
147.4401672073238
 30
0.0
 10
64.20604315711493
 20
147.4482776305394
 30
0.0
  0
LINE
  5
E3
330
1F
100
AcDbEntity
  8
0
  6
Continuous
 62
     7
370
    25
100
AcDbLine
 10
68.3167369239
 20
147.4478184155
 30
0.0
 11
66.4018632046
 21
147.342308881
 31
0.0
  0
SPLINE
  5
E4
330
1F
100
AcDbEntity
  8
0
  6
Continuous
 62
     7
370
    25
100
AcDbSpline
210
0.0
220
0.0
230
1.0
 70
     8
 71
     3
 72
    25
 73
    21
 74
     0
 42
0.000000001
 43
0.00000001
 40
0.0
 40
0.0
 40
0.0
 40
0.0
 40
0.0280105225426479
 40
0.0559601148860778
 40
0.0839014045043132
 40
0.1118870776786396
 40
0.1399695827588963
 40
0.1682008401739896
 40
0.1966319670424239
 40
0.2253130233141486
 40
0.2542927850735853
 40
0.3799486436570562
 40
0.5057850221666559
 40
0.6313085886326678
 40
0.753206823801271
 40
0.8039473267958359
 40
0.8535894438558028
 40
0.9025339722397656
 40
0.9511970353793487
 40
1.0
 40
1.0
 40
1.0
 40
1.0
 10
73.25662086000295
 20
149.2697416066253
 30
0.0
 10
73.25665808173679
 20
149.2557834668034
 30
0.0
 10
73.25673244423744
 20
149.2278975497578
 30
0.0
 10
73.24431639359094
 20
149.1828537548721
 30
0.0
 10
73.22271183323718
 20
149.1355865306769
 30
0.0
 10
73.19102636357718
 20
149.0858873497009
 30
0.0
 10
73.14950022525727
 20
149.0338501007284
 30
0.0
 10
73.09806946952737
 20
148.9794873380926
 30
0.0
 10
73.03675559481614
 20
148.9228360554276
 30
0.0
 10
72.96554525931667
 20
148.8639184937624
 30
0.0
 10
72.79470865211316
 20
148.7351019179394
 30
0.0
 10
72.45697641867625
 20
148.5248985337962
 30
0.0
 10
71.84542175448057
 20
148.2339730122044
 30
0.0
 10
71.10918691933196
 20
147.9554461959822
 30
0.0
 10
70.4227008476826
 20
147.761149490248
 30
0.0
 10
69.87399670153091
 20
147.640558677795
 30
0.0
 10
69.49196052302506
 20
147.5707815120323
 30
0.0
 10
69.10479442432063
 20
147.5149925081766
 30
0.0
 10
68.71256775553513
 20
147.4722623234334
 30
0.0
 10
68.44880648742094
 20
147.4559744282881
 30
0.0
 10
68.31673655360008
 20
147.447818790998
 30
0.0
  0
LINE
  5
E5
330
1F
100
AcDbEntity
  8
0
  6
Continuous
 62
     7
370
    25
100
AcDbLine
 10
73.2566208712
 20
149.6694250873
 30
0.0
 11
73.2566208712
 21
149.2697424165
 31
0.0
  0
SPLINE
  5
E6
330
1F
100
AcDbEntity
  8
0
  6
Continuous
 62
     7
370
    25
100
AcDbSpline
210
0.0
220
0.0
230
1.0
 70
    11
 71
     3
 72
    39
 73
    35
 74
     0
 42
0.000000001
 43
0.00000001
 40
0.0
 40
0.0
 40
0.0
 40
0.0
 40
0.0310664058347798
 40
0.0621048158425991
 40
0.0931361551792733
 40
0.1235538293503577
 40
0.1538561545807598
 40
0.1850588072749104
 40
0.2160250992947717
 40
0.247186722379756
 40
0.2784462884306427
 40
0.3100516090231226
 40
0.3419834369140484
 40
0.3734259894013217
 40
0.4048604886785525
 40
0.4368740651833295
 40
0.468512068592407
 40
0.4998055358633177
 40
0.5309508213228404
 40
0.561864978443814
 40
0.5930416446592908
 40
0.6233742450133256
 40
0.6540913579073041
 40
0.6849496782718417
 40
0.7158160645167227
 40
0.7471731804043494
 40
0.7784514311866261
 40
0.8101295911560916
 40
0.8419598919689909
 40
0.8735175891922292
 40
0.9050808037889628
 40
0.9370235169792575
 40
0.9687441590033682
 40
0.9999999999999999
 40
0.9999999999999999
 40
0.9999999999999999
 40
0.9999999999999999
 10
62.27409480152848
 20
131.3366590066726
 30
0.0
 10
62.6382239624932
 20
131.7160826645804
 30
0.0
 10
63.4410082992101
 20
132.403564365474
 30
0.0
 10
64.83604678459216
 20
133.1694783398926
 30
0.0
 10
66.34728862431544
 20
133.6583592733234
 30
0.0
 10
67.9188850308379
 20
133.820337146957
 30
0.0
 10
69.48642964789651
 20
133.6588922559986
 30
0.0
 10
70.98210164200519
 20
133.1791678687546
 30
0.0
 10
72.36251790404077
 20
132.425868400561
 30
0.0
 10
73.55956395762539
 20
131.4133825269006
 30
0.0
 10
74.54847173736681
 20
130.1788337395347
 30
0.0
 10
75.28796653166931
 20
128.7538821112527
 30
0.0
 10
75.76427045455875
 20
127.2029516317104
 30
0.0
 10
75.93193662701478
 20
125.5820227644843
 30
0.0
 10
75.78665902622723
 20
123.9570138185629
 30
0.0
 10
75.32768431559539
 20
122.3979878382912
 30
0.0
 10
74.60369842974212
 20
120.9613312396156
 30
0.0
 10
73.62788417441939
 20
119.7145870248151
 30
0.0
 10
72.44355962677034
 20
118.6883898356181
 30
0.0
 10
71.07535337104079
 20
117.9179856158973
 30
0.0
 10
69.58761553390855
 20
117.4191364054207
 30
0.0
 10
68.01796567345602
 20
117.2379323255249
 30
0.0
 10
66.44171115512685
 20
117.3743554674433
 30
0.0
 10
64.922435646652
 20
117.8387872002499
 30
0.0
 10
63.52141761260408
 20
118.5932212746191
 30
0.0
 10
62.30328111570492
 20
119.6166310101536
 30
0.0
 10
61.29567021257641
 20
120.8635732716468
 30
0.0
 10
60.55019630202635
 20
122.2966626779149
 30
0.0
 10
60.07436048940259
 20
123.8533249031364
 30
0.0
 10
59.91054937441479
 20
125.476987876842
 30
0.0
 10
60.05636151768012
 20
127.1045369208335
 30
0.0
 10
60.51650582985718
 20
128.669284609169
 30
0.0
 10
61.24596589467843
 20
130.1133106786315
 30
0.0
 10
61.90774527214042
 20
130.9549217183298
 30
0.0
 10
62.27409480152848
 20
131.3366590066726
 30
0.0
  0
SPLINE
  5
E7
330
1F
100
AcDbEntity
  8
0
  6
Continuous
 62
     7
370
    25
100
AcDbSpline
210
0.0
220
0.0
230
1.0
 70
    11
 71
     3
 72
    47
 73
    43
 74
     0
 42
0.000000001
 43
0.00000001
 40
0.0
 40
0.0
 40
0.0
 40
0.0
 40
0.0185565231571564
 40
0.035175779134607
 40
0.0498587703163977
 40
0.0626072874024163
 40
0.0953681049684394
 40
0.1250235944851125
 40
0.1545621306648851
 40
0.187325415667866
 40
0.214037648789779
 40
0.2498478283714602
 40
0.2676842772503708
 40
0.2839032654384537
 40
0.2985082395935219
 40
0.311504112535417
 40
0.3429211892384783
 40
0.3729479206117491
 40
0.4028496296254227
 40
0.4364008870238722
 40
0.4619504140689453
 40
0.4999311490763327
 40
0.5173446591947486
 40
0.5335937024374298
 40
0.5486836298429361
 40
0.5626211828729782
 40
0.5950895091111661
 40
0.6250625446193601
 40
0.6549914305494098
 40
0.6874537010179621
 40
0.7162620319992257
 40
0.7500327075718594
 40
0.7698580256218077
 40
0.7869169820502812
 40
0.8012094712348541
 40
0.8127363282889571
 40
0.8457518306190162
 40
0.8751838152098743
 40
0.9050548231038161
 40
0.9375234850660229
 40
0.9660340097891252
 40
1.0
 40
1.0
 40
1.0
 40
1.0
 10
62.81790772190277
 20
130.6376250008691
 30
0.0
 10
62.61980909429185
 20
130.4382397117566
 30
0.0
 10
62.26686311430083
 20
130.0389106836543
 30
0.0
 10
61.83095611840461
 20
129.4202563890793
 30
0.0
 10
61.50101938139703
 20
128.8378958183285
 30
0.0
 10
61.11980364940526
 20
128.0053675133406
 30
0.0
 10
60.79339783086425
 20
126.8960814101752
 30
0.0
 10
60.66904477203464
 20
125.4849040815504
 30
0.0
 10
60.81041413994115
 20
124.0754140823802
 30
0.0
 10
61.21191189417009
 20
122.7673464836589
 30
0.0
 10
61.88886128466639
 20
121.4826831827465
 30
0.0
 10
62.66204364235414
 20
120.5291954008352
 30
0.0
 10
63.45730534331824
 20
119.8298914333042
 30
0.0
 10
64.06144546108075
 20
119.4033923933855
 30
0.0
 10
64.6411606557051
 20
119.0732408652764
 30
0.0
 10
65.4589619231421
 20
118.6972802231875
 30
0.0
 10
66.55862435250333
 20
118.3682783889633
 30
0.0
 10
67.96099208116347
 20
118.2347003724593
 30
0.0
 10
69.38846476456771
 20
118.3707002514669
 30
0.0
 10
70.68564174832316
 20
118.7651884013103
 30
0.0
 10
71.98004477148027
 20
119.4369822082598
 30
0.0
 10
72.93204145194117
 20
120.1995361982128
 30
0.0
 10
73.64151418056042
 20
121.001575318141
 30
0.0
 10
74.0671189604998
 20
121.5973709231277
 30
0.0
 10
74.40778158841779
 20
122.1886405434272
 30
0.0
 10
74.79744697528777
 20
123.0332033744716
 30
0.0
 10
75.1291589368447
 20
124.156855279338
 30
0.0
 10
75.25540009834248
 20
125.5747474394907
 30
0.0
 10
75.11107198707234
 20
126.9905726310626
 30
0.0
 10
74.69879363800386
 20
128.3257306064195
 30
0.0
 10
74.01947745702205
 20
129.5946989400024
 30
0.0
 10
73.23312709878628
 20
130.5550214322426
 30
0.0
 10
72.43927942506538
 20
131.250429039109
 30
0.0
 10
71.80955520302726
 20
131.6865029151339
 30
0.0
 10
71.24831928366159
 20
131.9993520636053
 30
0.0
 10
70.44471082410881
 20
132.3665540643823
 30
0.0
 10
69.36456242961724
 20
132.6892640023081
 30
0.0
 10
67.95503410954177
 20
132.8212082348211
 30
0.0
 10
66.54582918270788
 20
132.6873982138006
 30
0.0
 10
65.20511633288588
 20
132.2826442216956
 30
0.0
 10
63.92084786770463
 20
131.6043888731663
 30
0.0
 10
63.18050884007751
 20
131.0025812332858
 30
0.0
 10
62.81790772190278
 20
130.6376250008691
 30
0.0
  0
LINE
  5
E8
330
1F
100
AcDbEntity
  8
0
  6
Continuous
 62
     7
370
    25
100
AcDbLine
 10
200.3616781108
 20
102.3284061721
 30
0.0
 11
200.3616781108
 21
148.728405582
 31
0.0
  0
SPLINE
  5
E9
330
1F
100
AcDbEntity
  8
0
  6
Continuous
 62
     7
370
    25
100
AcDbSpline
210
0.0
220
0.0
230
1.0
 70
     8
 71
     3
 72
     8
 73
     4
 74
     0
 42
0.000000001
 43
0.00000001
 40
0.0
 40
0.0
 40
0.0
 40
0.0
 40
1.0
 40
1.0
 40
1.0
 40
1.0
 10
50.99801888522232
 20
104.7501256578174
 30
0.0
 10
51.30257215893175
 20
104.6124489174421
 30
0.0
 10
51.60712543264115
 20
104.4755861965281
 30
0.0
 10
51.91167870635056
 20
104.339553647197
 30
0.0
  0
SPLINE
  5
EA
330
1F
100
AcDbEntity
  8
0
  6
Continuous
 62
     7
370
    25
100
AcDbSpline
210
0.0
220
0.0
230
1.0
 70
     8
 71
     3
 72
     8
 73
     4
 74
     0
 42
0.000000001
 43
0.00000001
 40
0.0
 40
0.0
 40
0.0
 40
0.0
 40
1.0
 40
1.0
 40
1.0
 40
1.0
 10
50.41167870680152
 20
105.2661801403336
 30
0.0
 10
50.60622583933424
 20
105.0927732720138
 30
0.0
 10
50.80168685957329
 20
104.9207771770471
 30
0.0
 10
50.99801888523045
 20
104.7501256578152
 30
0.0
  0
LINE
  5
EB
330
1F
100
AcDbEntity
  8
0
  6
Continuous
 62
     7
370
    25
100
AcDbLine
 10
50.4116804473
 20
105.2661794147
 30
0.0
 11
50.4116804473
 21
145.7906323394
 31
0.0
  0
SPLINE
  5
EC
330
1F
100
AcDbEntity
  8
0
  6
Continuous
 62
     7
370
    25
100
AcDbSpline
210
0.0
220
0.0
230
1.0
 70
     8
 71
     3
 72
     8
 73
     4
 74
     0
 42
0.000000001
 43
0.00000001
 40
0.0
 40
0.0
 40
0.0
 40
0.0
 40
1.0
 40
1.0
 40
1.0
 40
1.0
 10
50.99801888523398
 20
146.3066860963437
 30
0.0
 10
50.80168685957562
 20
146.1360345771108
 30
0.0
 10
50.60622583933541
 20
145.9640384821431
 30
0.0
 10
50.41167870680152
 20
145.7906316138223
 30
0.0
  0
SPLINE
  5
ED
330
1F
100
AcDbEntity
  8
0
  6
Continuous
 62
     7
370
    25
100
AcDbSpline
210
0.0
220
0.0
230
1.0
 70
     8
 71
     3
 72
     8
 73
     4
 74
     0
 42
0.000000001
 43
0.00000001
 40
0.0
 40
0.0
 40
0.0
 40
0.0
 40
1.0
 40
1.0
 40
1.0
 40
1.0
 10
51.91167870635059
 20
146.7172581069589
 30
0.0
 10
51.60712543264505
 20
146.5812255576295
 30
0.0
 10
51.30257215893952
 20
146.4443628367172
 30
0.0
 10
50.99801888523398
 20
146.3066860963437
 30
0.0
  0
SPLINE
  5
EE
330
1F
100
AcDbEntity
  8
0
  6
Continuous
 62
     7
370
    25
100
AcDbSpline
210
0.0
220
0.0
230
1.0
 70
     8
 71
     3
 72
     9
 73
     5
 74
     0
 42
0.000000001
 43
0.00000001
 40
0.0
 40
0.0
 40
0.0
 40
0.0
 40
0.8959546455136717
 40
0.9999999999999999
 40
0.9999999999999999
 40
0.9999999999999999
 40
0.9999999999999999
 10
66.03642340222655
 20
118.5387070200089
 30
0.0
 10
66.14045581412653
 20
118.5116081737799
 30
0.0
 10
66.25656929422388
 20
118.4813623947501
 30
0.0
 10
66.20723328308326
 20
118.4939333179667
 30
0.0
 10
66.20210010031519
 20
118.495241264129
 30
0.0
  0
LINE
  5
EF
330
1F
100
AcDbEntity
  8
0
  6
Continuous
 62
     7
370
    25
100
AcDbLine
 10
219.3616719119
 20
115.328405509
 30
0.0
 11
219.3616719119
 21
135.7284053138
 31
0.0
  0
LINE
  5
F0
330
1F
100
AcDbEntity
  8
0
  6
Continuous
 62
     7
370
    25
100
AcDbLine
 10
202.8616757266
 20
114.5284059367
 30
0.0
 11
202.8616757266
 21
136.5284058175
 31
0.0
  0
LINE
  5
F1
330
1F
100
AcDbEntity
  8
0
  6
Continuous
 62
     7
370
    25
100
AcDbLine
 10
73.2566208712
 20
149.2697424165
 30
0.0
 11
72.610810133
 21
148.6346232614
 31
0.0
  0
LINE
  5
F2
330
1F
100
AcDbEntity
  8
0
  6
Continuous
 62
     7
370
    25
100
AcDbLine
 10
73.2566208712
 20
101.7870693377
 30
0.0
 11
72.6634373091
 21
102.3704330346
 31
0.0
  0
LINE
  5
F3
330
1F
100
AcDbEntity
  8
0
  6
Continuous
 62
     7
370
    25
100
AcDbLine
 10
72.3616794817
 20
102.2823280564
 30
0.0
 11
72.3616794817
 21
102.6671952477
 31
0.0
  0
LINE
  5
F4
330
1F
100
AcDbEntity
  8
0
  6
Continuous
 62
     7
370
    25
100
AcDbLine
 10
72.3616794817
 20
148.3896165064
 30
0.0
 11
72.3616794817
 21
148.7744836977
 31
0.0
  0
SPLINE
  5
F5
330
1F
100
AcDbEntity
  8
0
  6
Continuous
 62
     7
370
    25
100
AcDbSpline
210
0.0
220
0.0
230
1.0
 70
     8
 71
     3
 72
     9
 73
     5
 74
     0
 42
0.000000001
 43
0.00000001
 40
0.0
 40
0.0
 40
0.0
 40
0.0
 40
0.7785869072975132
 40
1.0
 40
1.0
 40
1.0
 40
1.0
 10
63.00744201461134
 20
130.7915486304704
 30
0.0
 10
62.85504753396734
 20
130.6637245655187
 30
0.0
 10
62.65931539511983
 20
130.4995501313565
 30
0.0
 10
62.50379679972562
 20
130.2897905376981
 30
0.0
 10
62.46936294654665
 20
130.2433470173422
 30
0.0
  0
SPLINE
  5
F6
330
1F
100
AcDbEntity
  8
0
  6
Continuous
 62
     7
370
    25
100
AcDbSpline
210
0.0
220
0.0
230
1.0
 70
     8
 71
     3
 72
     9
 73
     5
 74
     0
 42
0.000000001
 43
0.00000001
 40
0.0
 40
0.0
 40
0.0
 40
0.0
 40
0.4260717682333453
 40
1.0
 40
1.0
 40
1.0
 40
1.0
 10
65.32467316309271
 20
118.7828010788802
 30
0.0
 10
65.4641106725897
 20
118.728618467074
 30
0.0
 10
65.7913736359988
 20
118.6014506614461
 30
0.0
 10
65.94950580038658
 20
118.5620422207424
 30
0.0
 10
66.04026231387911
 20
118.5394246040526
 30
0.0
  0
LINE
  5
F7
330
1F
100
AcDbEntity
  8
0
  6
HIDDEN
 62
     7
370
    18
100
AcDbLine
 10
222.3616779915
 20
117.5284054971
 30
0.0
 11
222.3616779915
 21
133.5284062571
 31
0.0
  0
LINE
  5
F8
330
1F
100
AcDbEntity
  8
0
  6
HIDDEN
 62
     7
370
    18
100
AcDbLine
 10
232.361683356
 20
119.0284062086
 30
0.0
 11
232.361683356
 21
132.0284060112
 31
0.0
  0
LINE
  5
F9
330
1F
100
AcDbEntity
  8
0
  6
HIDDEN
 62
     7
370
    18
100
AcDbLine
 10
222.3616779915
 20
120.128405737
 30
0.0
 11
222.3616779915
 21
130.9284060171
 31
0.0
  0
LINE
  5
FA
330
1F
100
AcDbEntity
  8
0
  6
HIDDEN
 62
     7
370
    18
100
AcDbLine
 10
205.1896766893
 20
120.5284059888
 30
0.0
 11
205.1896766893
 21
130.5284057653
 31
0.0
  0
LINE
  5
FB
330
1F
100
AcDbEntity
  8
0
  6
HIDDEN
 62
     7
370
    18
100
AcDbLine
 10
204.3616787664
 20
121.3564057744
 30
0.0
 11
204.3616787664
 21
129.7004059798
 31
0.0
  0
LINE
  5
FC
330
1F
100
AcDbEntity
  8
0
  6
HIDDEN
 62
     7
370
    18
100
AcDbLine
 10
232.361683356
 20
125.5284058771
 30
0.0
 11
232.361683356
 21
121.4709058313
 31
0.0
  0
LINE
  5
FD
330
1F
100
AcDbEntity
  8
0
  6
HIDDEN
 62
     7
370
    18
100
AcDbLine
 10
227.3616732232
 20
125.5284058771
 30
0.0
 11
227.3616732232
 21
123.4996558542
 31
0.0
  0
LINE
  5
FE
330
1F
100
AcDbEntity
  8
0
  6
HIDDEN
 62
     7
370
    18
100
AcDbLine
 10
227.3616732232
 20
125.5284058771
 30
0.0
 11
227.3616732232
 21
127.5571559
 31
0.0
  0
LINE
  5
FF
330
1F
100
AcDbEntity
  8
0
  6
HIDDEN
 62
     7
370
    18
100
AcDbLine
 10
227.3616732232
 20
125.5284058771
 30
0.0
 11
232.361683356
 21
125.5284058771
 31
0.0
  0
LINE
  5
100
330
1F
100
AcDbEntity
  8
0
  6
HIDDEN
 62
     7
370
    18
100
AcDbLine
 10
232.361683356
 20
125.5284058771
 30
0.0
 11
232.361683356
 21
129.5859059228
 31
0.0
  0
LINE
  5
101
330
1F
100
AcDbEntity
  8
0
  6
HIDDEN
 62
     7
370
    18
100
AcDbLine
 10
227.3616732232
 20
127.5571559
 30
0.0
 11
227.3616732232
 21
129.5859059228
 31
0.0
  0
LINE
  5
102
330
1F
100
AcDbEntity
  8
0
  6
HIDDEN
 62
     7
370
    18
100
AcDbLine
 10
227.3616732232
 20
123.4996558542
 30
0.0
 11
227.3616732232
 21
127.5571559
 31
0.0
  0
LINE
  5
103
330
1F
100
AcDbEntity
  8
0
  6
HIDDEN
 62
     7
370
    18
100
AcDbLine
 10
227.3616732232
 20
121.4709058313
 30
0.0
 11
227.3616732232
 21
123.4996558542
 31
0.0
  0
LINE
  5
104
330
1F
100
AcDbEntity
  8
0
  6
HIDDEN
 62
     7
370
    18
100
AcDbLine
 10
227.3616732232
 20
123.4996558542
 30
0.0
 11
227.3616732232
 21
121.4709058313
 31
0.0
  0
LINE
  5
105
330
1F
100
AcDbEntity
  8
0
  6
HIDDEN
 62
     7
370
    18
100
AcDbLine
 10
227.3616732232
 20
129.5859059228
 30
0.0
 11
227.3616732232
 21
127.5571559
 31
0.0
  0
LINE
  5
106
330
1F
100
AcDbEntity
  8
0
  6
HIDDEN
 62
     7
370
    18
100
AcDbLine
 10
227.3616732232
 20
127.5571559
 30
0.0
 11
227.3616732232
 21
123.4996558542
 31
0.0
  0
LINE
  5
107
330
1F
100
AcDbEntity
  8
0
  6
HIDDEN
 62
     7
370
    18
100
AcDbLine
 10
227.3616732232
 20
123.4996558542
 30
0.0
 11
227.3616732232
 21
121.4709058313
 31
0.0
  0
LINE
  5
108
330
1F
100
AcDbEntity
  8
0
  6
HIDDEN
 62
     7
370
    18
100
AcDbLine
 10
227.3616732232
 20
127.5571559
 30
0.0
 11
227.3616732232
 21
129.5859059228
 31
0.0
  0
LINE
  5
109
330
1F
100
AcDbEntity
  8
0
  6
HIDDEN
 62
     7
370
    18
100
AcDbLine
 10
227.3616732232
 20
121.4709058313
 30
0.0
 11
232.361683356
 21
121.4709058313
 31
0.0
  0
LINE
  5
10A
330
1F
100
AcDbEntity
  8
0
  6
HIDDEN
 62
     7
370
    18
100
AcDbLine
 10
227.3616732232
 20
129.5859059228
 30
0.0
 11
232.361683356
 21
129.5859059228
 31
0.0
  0
LINE
  5
10B
330
1F
100
AcDbEntity
  8
0
  6
HIDDEN
 62
     7
370
    18
100
AcDbLine
 10
219.3616719119
 20
130.5284057653
 30
0.0
 11
205.1896766893
 21
130.5284057653
 31
0.0
  0
LINE
  5
10C
330
1F
100
AcDbEntity
  8
0
  6
HIDDEN
 62
     7
370
    18
100
AcDbLine
 10
205.1896766893
 20
120.5284059888
 30
0.0
 11
219.3616719119
 21
120.5284059888
 31
0.0
  0
LINE
  5
10D
330
1F
100
AcDbEntity
  8
0
  6
HIDDEN
 62
     7
370
    18
100
AcDbLine
 10
205.1896766893
 20
130.5284057653
 30
0.0
 11
204.3616787664
 21
129.7004059798
 31
0.0
  0
LINE
  5
10E
330
1F
100
AcDbEntity
  8
0
  6
HIDDEN
 62
     7
370
    18
100
AcDbLine
 10
204.3616787664
 20
121.3564057744
 30
0.0
 11
205.1896766893
 21
120.5284059888
 31
0.0
  0
LINE
  5
10F
330
1F
100
AcDbEntity
  8
0
  6
HIDDEN
 62
     7
370
    18
100
AcDbLine
 10
227.3616732232
 20
129.5859059228
 30
0.0
 11
225.0190765731
 21
125.5284058771
 31
0.0
  0
LINE
  5
110
330
1F
100
AcDbEntity
  8
0
  6
HIDDEN
 62
     7
370
    18
100
AcDbLine
 10
225.0190765731
 20
125.5284058771
 30
0.0
 11
227.3616732232
 21
121.4709058313
 31
0.0
  0
DIMENSION
  5
111
330
1F
100
AcDbEntity
  8
VERMASSUNG
100
AcDbDimension
  2
_D
 10
200.3616787068
 20
173.0034058771
 30
0.0
 11
145.3616787068
 21
173.0034058771
 31
0.0
 70
   160
  1
<>
 71
     2
 42
-1.0
  3
SLDDIMSTYLE0
100
AcDbAlignedDimension
 13
90.3616787068
 23
156.8034058771
 33
0.0
 14
200.3616787068
 24
148.7284058771
 34
0.0
100
AcDbRotatedDimension
  0
DIMENSION
  5
11C
330
1F
100
AcDbEntity
  8
VERMASSUNG
100
AcDbDimension
  2
_D_1
 10
108.3616787068
 20
164.4744360902
 30
0.0
 11
154.3616787068
 21
164.4744360902
 31
0.0
 70
   160
  1
<>
 71
     2
 42
-1.0
  3
SLDDIMSTYLE0
100
AcDbAlignedDimension
 13
200.3616787068
 23
148.7284058771
 33
0.0
 14
108.3616787068
 24
157.0034058771
 34
0.0
100
AcDbRotatedDimension
  0
DIMENSION
  5
126
330
1F
100
AcDbEntity
  8
VERMASSUNG
100
AcDbDimension
  2
_D_2
 10
219.3616787068
 20
182.7719709292
 30
0.0
 11
134.8866787068
 21
182.7719709292
 31
0.0
 70
   160
  1
<>
 71
     2
 42
-1.0
  3
SLDDIMSTYLE0
100
AcDbAlignedDimension
 13
50.4116787068
 23
145.7906316138
 33
0.0
 14
219.3616787068
 24
135.7284058771
 34
0.0
100
AcDbRotatedDimension
  0
DIMENSION
  5
130
330
1F
100
AcDbEntity
  8
VERMASSUNG
100
AcDbDimension
  2
_D_3
 10
219.3616787068
 20
164.4744360902
 30
0.0
 11
209.8616787068
 21
164.4744360902
 31
0.0
 70
   160
  1
<>
 71
     2
 42
-1.0
  3
SLDDIMSTYLE0
100
AcDbAlignedDimension
 13
200.3616787068
 23
148.7284058771
 33
0.0
 14
219.3616787068
 24
132.9236484742
 34
0.0
100
AcDbRotatedDimension
  0
DIMENSION
  5
13A
330
1F
100
AcDbEntity
  8
VERMASSUNG
100
AcDbDimension
  2
_D_4
 10
254.3616787068
 20
136.5284058771
 30
0.0
 11
254.3616787068
 21
125.5284058771
 31
0.0
 70
   160
  1
%%c<>
 71
     2
 42
-1.0
  3
SLDDIMSTYLE0
100
AcDbAlignedDimension
 13
218.5616787068
 23
114.5284058771
 33
0.0
 14
218.5616787068
 24
136.5284058771
 34
0.0
 50
90.0
100
AcDbRotatedDimension
  0
DIMENSION
  5
145
330
1F
100
AcDbEntity
  8
VERMASSUNG
100
AcDbDimension
  2
_D_5
 10
265.1925273464
 20
149.5284058771
 30
0.0
 11
265.1925273464
 21
125.5284058771
 31
0.0
 70
   160
  1
%%c<>
 71
     2
 42
-1.0
  3
SLDDIMSTYLE0
100
AcDbAlignedDimension
 13
199.5616787068
 23
101.5284058771
 33
0.0
 14
199.5616787068
 24
149.5284058771
 34
0.0
 50
90.0
100
AcDbRotatedDimension
  0
DIMENSION
  5
150
330
1F
100
AcDbEntity
  8
VERMASSUNG
100
AcDbDimension
  2
_D_6
 10
40.4116537068
 20
157.0034058771
 30
0.0
 11
40.4116537068
 21
125.5284058771
 31
0.0
 70
   160
  1
KM%%c<> XMZ
 71
     2
 42
-1.0
  3
SLDDIMSTYLE1
100
AcDbAlignedDimension
 13
90.5616787068
 23
94.0534058771
 33
0.0
 14
90.5616787068
 24
157.0034058771
 34
0.0
 50
90.0
100
AcDbRotatedDimension
  0
DIMENSION
  5
15E
330
1F
100
AcDbEntity
  8
VERMASSUNG
100
AcDbDimension
  2
_D_7
 10
243.9590160285
 20
121.4709058771
 30
0.0
 11
243.9590160285
 21
125.5284058771
 31
0.0
 70
   160
  1
SW<>
 71
     2
 42
-1.0
  3
SLDDIMSTYLE1
100
AcDbAlignedDimension
 13
232.3616787068
 23
129.5859058771
 33
0.0
 14
232.3616787068
 24
121.4709058771
 34
0.0
 50
90.0
100
AcDbRotatedDimension
  0
LINE
  5
169
330
1F
100
AcDbEntity
  8
VERMASSUNG
  6
CENTERX2
370
    18
100
AcDbLine
 10
237.2417120784
 20
125.5284058771
 30
0.0
 11
45.5316203352
 21
125.5284058771
 31
0.0
  0
SPLINE
  5
16A
330
1F
100
AcDbEntity
  8
0
  6
Continuous
 62
     7
370
    25
100
AcDbSpline
210
0.0
220
0.0
230
1.0
 70
     8
 71
     3
 72
    15
 73
    11
 74
     0
 42
0.000000001
 43
0.00000001
 40
0.0
 40
0.0
 40
0.0
 40
0.0
 40
0.0750152139735046
 40
0.2021025001790458
 40
0.3325002854049171
 40
0.4684011522891574
 40
0.607197814070574
 40
0.7461018294145231
 40
0.8846618631368807
 40
1.0
 40
1.0
 40
1.0
 40
1.0
 10
254.9211880669208
 20
28.521103715708
 30
0.0
 10
254.985194451043
 20
28.48995638392644
 30
0.0
 10
255.1576374739087
 20
28.40604069144857
 30
0.0
 10
255.4914352191812
 20
28.4033026473598
 30
0.0
 10
255.890453864646
 20
28.49559671794795
 30
0.0
 10
256.3041435018163
 20
28.70701018297203
 30
0.0
 10
256.7112202140715
 20
29.02430364211723
 30
0.0
 10
257.0867140411239
 20
29.4323649497338
 30
0.0
 10
257.3975014573707
 20
29.87909794500615
 30
0.0
 10
257.5492678592365
 20
30.1932536072472
 30
0.0
 10
257.6182106719762
 20
30.33596487091769
 30
0.0
  0
SPLINE
  5
16B
330
1F
100
AcDbEntity
  8
0
  6
Continuous
 62
     7
370
    25
100
AcDbSpline
210
0.0
220
0.0
230
1.0
 70
     8
 71
     3
 72
    14
 73
    10
 74
     0
 42
0.000000001
 43
0.00000001
 40
0.0
 40
0.0
 40
0.0
 40
0.0
 40
0.0875289086991167
 40
0.253738693945388
 40
0.4212785781074629
 40
0.590372122618987
 40
0.7598116426559147
 40
0.9069584191710199
 40
0.9999999999999999
 40
0.9999999999999999
 40
0.9999999999999999
 40
0.9999999999999999
 10
257.6182106719762
 20
30.33596487091769
 30
0.0
 10
257.6562679982093
 20
30.42769588205525
 30
0.0
 10
257.7665928771204
 20
30.69361610551358
 30
0.0
 10
257.8851218555533
 20
31.14167434804319
 30
0.0
 10
257.9345438981618
 20
31.65281553269666
 30
0.0
 10
257.8817710573834
 20
32.12323819606993
 30
0.0
 10
257.7248011638277
 20
32.50443906484248
 30
0.0
 10
257.5178466662915
 20
32.77155711282067
 30
0.0
 10
257.3467901704345
 20
32.85547638335078
 30
0.0
 10
257.2805281460734
 20
32.88798412718346
 30
0.0
  0
LINE
  5
16C
330
1F
100
AcDbEntity
  8
0
  6
Continuous
 62
     7
370
    25
100
AcDbLine
 10
253.0235071149
 20
29.5923382887
 30
0.0
 11
254.8266283196
 21
28.5514185739
 31
0.0
  0
LINE
  5
16D
330
1F
100
AcDbEntity
  8
0
  6
Continuous
 62
     7
370
    25
100
AcDbLine
 10
257.3264250763
 20
32.881662758
 30
0.0
 11
255.5233038716
 21
33.9225824729
 31
0.0
  0
SPLINE
  5
16E
330
1F
100
AcDbEntity
  8
0
  6
Continuous
 62
     7
370
    25
100
AcDbSpline
210
0.0
220
0.0
230
1.0
 70
     8
 71
     3
 72
    16
 73
    12
 74
     0
 42
0.000000001
 43
0.00000001
 40
0.0
 40
0.0
 40
0.0
 40
0.0
 40
0.0980228425642514
 40
0.2234056166193549
 40
0.3489800037051515
 40
0.4750601045797878
 40
0.6020999263045866
 40
0.7303112122171525
 40
0.8579849651817417
 40
0.9684487087775494
 40
1.0
 40
1.0
 40
1.0
 40
1.0
 10
269.3928024115173
 20
36.52347004892327
 30
0.0
 10
269.4850502063339
 20
36.63723278463004
 30
0.0
 10
269.6952938081689
 20
36.89651147369908
 30
0.0
 10
269.9545853253699
 20
37.36819016967586
 30
0.0
 10
270.1633727830655
 20
37.89453043807888
 30
0.0
 10
270.2825220597526
 20
38.42307021930522
 30
0.0
 10
270.3047604029549
 20
38.92546130335577
 30
0.0
 10
270.224697564585
 20
39.38116241531612
 30
0.0
 10
270.0385050945536
 20
39.73711475754312
 30
0.0
 10
269.8430272190118
 20
39.9573722514781
 30
0.0
 10
269.7049133477371
 20
40.01276164046987
 30
0.0
 10
269.6742287728256
 20
40.02506742728285
 30
0.0
  0
LINE
  5
16F
330
1F
100
AcDbEntity
  8
0
  6
Continuous
 62
     7
370
    25
100
AcDbLine
 10
269.7007937997
 20
40.0252337669
 30
0.0
 11
267.8976725951
 21
41.0661534817
 31
0.0
  0
SPLINE
  5
170
330
1F
100
AcDbEntity
  8
0
  6
Continuous
 62
     7
370
    25
100
AcDbSpline
210
0.0
220
0.0
230
1.0
 70
     8
 71
     3
 72
    21
 73
    17
 74
     0
 42
0.000000001
 43
0.00000001
 40
0.0
 40
0.0
 40
0.0
 40
0.0
 40
0.033291406653507
 40
0.1045238623189935
 40
0.1758320880801365
 40
0.2497461126229458
 40
0.3273598493297871
 40
0.4078892720725058
 40
0.4895413577985557
 40
0.5710107969468955
 40
0.6521846740242939
 40
0.7332800086379193
 40
0.8145968818417644
 40
0.8964175620031035
 40
0.9744968333115864
 40
1.0
 40
1.0
 40
1.0
 40
1.0
 10
269.2774996646119
 20
25.64047981198535
 30
0.0
 10
269.3421235314701
 20
25.60022185747966
 30
0.0
 10
269.5450208206209
 20
25.47382536910677
 30
0.0
 10
269.947092874998
 20
25.38843836150516
 30
0.0
 10
270.4487698412697
 20
25.37965581490376
 30
0.0
 10
270.9707321839123
 20
25.49213721443204
 30
0.0
 10
271.503829313541
 20
25.71786151438835
 30
0.0
 10
272.0366412484331
 20
26.05792516964857
 30
0.0
 10
272.5487135841979
 20
26.50130518762554
 30
0.0
 10
273.0200892403099
 20
27.03005737700006
 30
0.0
 10
273.4349972697802
 20
27.62399888008048
 30
0.0
 10
273.7811874119767
 20
28.2641232361721
 30
0.0
 10
274.0483883698674
 20
28.93171886406355
 30
0.0
 10
274.2224504836122
 20
29.59522969677199
 30
0.0
 10
274.2866923446738
 20
30.09526088486499
 30
0.0
 10
274.2910035542849
 20
30.36450613806075
 30
0.0
 10
274.2920650228067
 20
30.4307973617962
 30
0.0
  0
SPLINE
  5
171
330
1F
100
AcDbEntity
  8
0
  6
Continuous
 62
     7
370
    25
100
AcDbSpline
210
0.0
220
0.0
230
1.0
 70
     8
 71
     3
 72
    12
 73
     8
 74
     0
 42
0.000000001
 43
0.00000001
 40
0.0
 40
0.0
 40
0.0
 40
0.0
 40
0.1319672408400208
 40
0.378160777575457
 40
0.5928409778827239
 40
0.7979654867732354
 40
0.9999999999999999
 40
0.9999999999999999
 40
0.9999999999999999
 40
0.9999999999999999
 10
274.2920650228067
 20
30.4307973617962
 30
0.0
 10
274.288850686711
 20
30.54601247870507
 30
0.0
 10
274.2796397959659
 20
30.87616894724502
 30
0.0
 10
274.1813440200158
 20
31.36234605637059
 30
0.0
 10
273.9692217725111
 20
31.85242787969608
 30
0.0
 10
273.6825298411263
 20
32.25544925091873
 30
0.0
 10
273.4232666558958
 20
32.43986573988569
 30
0.0
 10
273.2946188584007
 20
32.53137420109007
 30
0.0
  0
LINE
  5
172
330
1F
100
AcDbEntity
  8
0
  6
Continuous
 62
     7
370
    25
100
AcDbLine
 10
273.2438039178
 20
32.5683305455
 30
0.0
 11
270.2386019101
 21
34.3031967369
 31
0.0
  0
LINE
  5
173
330
1F
100
AcDbEntity
  8
0
  6
Continuous
 62
     7
370
    25
100
AcDbLine
 10
266.2389269018
 20
27.3748058522
 30
0.0
 11
269.2441289095
 21
25.6399396608
 31
0.0
  0
LINE
  5
174
330
1F
100
AcDbEntity
  8
0
  6
Continuous
 62
     7
370
    25
100
AcDbLine
 10
267.927285366
 20
33.9054873841
 30
0.0
 11
267.8072722149
 21
33.9747695015
 31
0.0
  0
LINE
  5
175
330
1F
100
AcDbEntity
  8
0
  6
Continuous
 62
     7
370
    25
100
AcDbLine
 10
265.3127912294
 20
29.641456588
 30
0.0
 11
265.4274886093
 21
29.5752432
 31
0.0
  0
SPLINE
  5
176
330
1F
100
AcDbEntity
  8
0
  6
Continuous
 62
     7
370
    25
100
AcDbSpline
210
0.0
220
0.0
230
1.0
 70
     8
 71
     3
 72
    16
 73
    12
 74
     0
 42
0.000000001
 43
0.00000001
 40
0.0
 40
0.0
 40
0.0
 40
0.0
 40
0.0349304131183258
 40
0.1626001246943184
 40
0.291354144785464
 40
0.420990305772897
 40
0.5511890626803796
 40
0.6816612769576726
 40
0.812195326704672
 40
0.9426718734602605
 40
1.0
 40
1.0
 40
1.0
 40
1.0
 10
256.1685941835908
 20
24.52605578586538
 30
0.0
 10
256.2402200662624
 20
24.51780918434549
 30
0.0
 10
256.5736366054339
 20
24.47942147816821
 30
0.0
 10
257.2086602396583
 20
24.53205476478963
 30
0.0
 10
258.0654698435371
 20
24.68691835572524
 30
0.0
 10
258.9495050391868
 20
24.97053056514693
 30
0.0
 10
259.8465982276052
 20
25.36856411767965
 30
0.0
 10
260.7478631107543
 20
25.87787566284122
 30
0.0
 10
261.64043153073
 20
26.49776189263418
 30
0.0
 10
262.3580309212691
 20
27.06667774869859
 30
0.0
 10
262.7640905517061
 20
27.4578268380336
 30
0.0
 10
262.8880418755358
 20
27.57722665964527
 30
0.0
  0
SPLINE
  5
177
330
1F
100
AcDbEntity
  8
0
  6
Continuous
 62
     7
370
    25
100
AcDbSpline
210
0.0
220
0.0
230
1.0
 70
     8
 71
     3
 72
    13
 73
     9
 74
     0
 42
0.000000001
 43
0.00000001
 40
0.0
 40
0.0
 40
0.0
 40
0.0
 40
0.0592818866816565
 40
0.2821897695640673
 40
0.5050821725380699
 40
0.7275750352297401
 40
0.949120243186782
 40
1.0
 40
1.0
 40
1.0
 40
1.0
 10
268.7655657679886
 20
40.56512981747972
 30
0.0
 10
268.7655239723381
 20
40.65751366683039
 30
0.0
 10
268.7653250194098
 20
41.09727323959331
 30
0.0
 10
268.6686431771251
 20
41.82901913298238
 30
0.0
 10
268.4746934367795
 20
42.74752928261989
 30
0.0
 10
268.1711742319897
 20
43.5748617117701
 30
0.0
 10
267.8985024280564
 20
44.14845406363114
 30
0.0
 10
267.699784724239
 20
44.41132694408439
 30
0.0
 10
267.6626709874225
 20
44.46042269506129
 30
0.0
  0
LINE
  5
178
330
1F
100
AcDbEntity
  8
0
  6
Continuous
 62
     7
370
    25
100
AcDbLine
 10
222.994825855
 20
43.1017398873
 30
0.0
 11
254.1782352752
 21
25.0999408081
 31
0.0
  0
LINE
  5
179
330
1F
100
AcDbEntity
  8
0
  6
Continuous
 62
     7
370
    25
100
AcDbLine
 10
266.1772599709
 20
45.8851136524
 30
0.0
 11
234.9938505507
 21
63.8869127316
 31
0.0
  0
SPLINE
  5
17A
330
1F
100
AcDbEntity
  8
0
  6
Continuous
 62
     7
370
    25
100
AcDbSpline
210
0.0
220
0.0
230
1.0
 70
     8
 71
     3
 72
    13
 73
     9
 74
     0
 42
0.000000001
 43
0.00000001
 40
0.0
 40
0.0
 40
0.0
 40
0.0
 40
0.1041555973442945
 40
0.3008331599007246
 40
0.4981338270384912
 40
0.6993703347745814
 40
0.9052675972115745
 40
1.0
 40
1.0
 40
1.0
 40
1.0
 10
264.1226383137088
 20
26.88419415450903
 30
0.0
 10
264.2006161008796
 20
26.83393201664962
 30
0.0
 10
264.4258397539026
 20
26.68875961937914
 30
0.0
 10
264.8658049308198
 20
26.57666326593733
 30
0.0
 10
265.4162018666864
 20
26.54077827868791
 30
0.0
 10
266.0008436388337
 20
26.63546150643268
 30
0.0
 10
266.4955266621917
 20
26.78927982413551
 30
0.0
 10
266.7909571629394
 20
26.95132200057462
 30
0.0
 10
266.8840512399056
 20
27.00238364386133
 30
0.0
  0
SPLINE
  5
17B
330
1F
100
AcDbEntity
  8
0
  6
Continuous
 62
     7
370
    25
100
AcDbSpline
210
0.0
220
0.0
230
1.0
 70
     8
 71
     3
 72
    13
 73
     9
 74
     0
 42
0.000000001
 43
0.00000001
 40
0.0
 40
0.0
 40
0.0
 40
0.0
 40
0.0045498700562136
 40
0.2114405482664846
 40
0.4182347332183312
 40
0.6229283168490234
 40
0.8230606797306297
 40
0.9999999999999999
 40
0.9999999999999999
 40
0.9999999999999999
 40
0.9999999999999999
 10
270.8953181338676
 20
33.92408270287491
 30
0.0
 10
270.8954388934576
 20
33.92942137132076
 30
0.0
 10
270.9010508062378
 20
34.17751878273212
 30
0.0
 10
270.8203846696924
 20
34.6226190354653
 30
0.0
 10
270.6438776546279
 20
35.23544487424122
 30
0.0
 10
270.3544592365512
 20
35.75190536036765
 30
0.0
 10
269.9948722558094
 20
36.162765706766
 30
0.0
 10
269.6974305108745
 20
36.33727007077262
 30
0.0
 10
269.5578572081839
 20
36.41915551837067
 30
0.0
  0
LINE
  5
17C
330
1F
100
AcDbEntity
  8
0
  6
Continuous
 62
     7
370
    25
100
AcDbLine
 10
258.5946960232
 20
30.0557226044
 30
0.0
 11
264.1454833873
 21
26.8513212667
 31
0.0
  0
LINE
  5
17D
330
1F
100
AcDbEntity
  8
0
  6
Continuous
 62
     7
370
    25
100
AcDbLine
 10
269.645036318
 20
36.3778586619
 30
0.0
 11
264.0942489539
 21
39.5822599996
 31
0.0
  0
SPLINE
  5
17E
330
1F
100
AcDbEntity
  8
0
  6
Continuous
 62
     7
370
    25
100
AcDbSpline
210
0.0
220
0.0
230
1.0
 70
     8
 71
     3
 72
    21
 73
    17
 74
     0
 42
0.000000001
 43
0.00000001
 40
0.0
 40
0.0
 40
0.0
 40
0.0
 40
0.0607445698975366
 40
0.132200832014173
 40
0.2081478078866581
 40
0.2471866781522338
 40
0.3225640916693123
 40
0.3984969751939665
 40
0.4748712868740967
 40
0.5514612551622055
 40
0.6279597796696185
 40
0.7040080897561019
 40
0.7793419584516011
 40
0.8538626993743615
 40
0.9280674209202097
 40
0.9999999999999999
 40
0.9999999999999999
 40
0.9999999999999999
 40
0.9999999999999999
 10
265.4221873259764
 20
29.48460275664404
 30
0.0
 10
265.3785940192176
 20
29.53857330374739
 30
0.0
 10
265.2837201657444
 20
29.65603155957763
 30
0.0
 10
265.1841159372041
 20
29.96052471591592
 30
0.0
 10
265.1490330434032
 20
30.30083847580597
 30
0.0
 10
265.1670110588822
 20
30.69219494013194
 30
0.0
 10
265.238739907902
 20
31.11739838552894
 30
0.0
 10
265.4081534571538
 20
31.64945957861148
 30
0.0
 10
265.6553258977503
 20
32.1806586357883
 30
0.0
 10
265.9686024798844
 20
32.6827362814698
 30
0.0
 10
266.3313194433882
 20
33.12905374945269
 30
0.0
 10
266.7224840443626
 20
33.4962829676867
 30
0.0
 10
267.1186030757588
 20
33.76736585260311
 30
0.0
 10
267.4924772047969
 20
33.93076067341611
 30
0.0
 10
267.8203099595941
 20
33.99300773339527
 30
0.0
 10
267.9811072062282
 20
33.96238806877373
 30
0.0
 10
268.0602557919062
 20
33.94731627370597
 30
0.0
  0
LINE
  5
17F
330
1F
100
AcDbEntity
  8
0
  6
Continuous
 62
     7
370
    25
100
AcDbLine
 10
263.5233099632
 20
39.7968059333
 30
0.0
 11
263.0231933185
 21
39.8987001849
 31
0.0
  0
LINE
  5
180
330
1F
100
AcDbEntity
  8
0
  6
Continuous
 62
     7
370
    25
100
AcDbLine
 10
257.7850506182
 20
30.8249880189
 30
0.0
 11
258.1233880666
 21
30.4428531818
 31
0.0
  0
LINE
  5
181
330
1F
100
AcDbEntity
  8
0
  6
Continuous
 62
     7
370
    25
100
AcDbLine
 10
257.9397274119
 20
30.6358950235
 30
0.0
 11
257.9657952377
 21
30.620846388
 31
0.0
  0
LINE
  5
182
330
1F
100
AcDbEntity
  8
0
  6
Continuous
 62
     7
370
    25
100
AcDbLine
 10
263.2903623559
 20
39.8442667664
 30
0.0
 11
263.2642945301
 21
39.8593154019
 31
0.0
  0
LINE
  5
183
330
1F
100
AcDbEntity
  8
0
  6
Continuous
 62
     7
370
    25
100
AcDbLine
 10
218.3806020509
 20
41.4498979726
 30
0.0
 11
220.0655671999
 21
40.4771882967
 31
0.0
  0
LINE
  5
184
330
1F
100
AcDbEntity
  8
0
  6
Continuous
 62
     7
370
    25
100
AcDbLine
 10
235.8017885145
 20
67.7360766906
 30
0.0
 11
234.1168233655
 21
68.7087863664
 31
0.0
  0
LINE
  5
185
330
1F
100
AcDbEntity
  8
0
  6
Continuous
 62
     7
370
    25
100
AcDbLine
 10
213.7723171195
 20
44.1102042372
 30
0.0
 11
216.022968096
 21
42.8109310844
 31
0.0
  0
LINE
  5
186
330
1F
100
AcDbEntity
  8
0
  6
Continuous
 62
     7
370
    25
100
AcDbLine
 10
231.7591894105
 20
70.0698194782
 30
0.0
 11
229.5085384341
 21
71.369092631
 31
0.0
  0
LINE
  5
187
330
1F
100
AcDbEntity
  8
0
  6
Continuous
 62
     7
370
    25
100
AcDbLine
 10
222.7311492438
 20
71.1489745387
 30
0.0
 11
213.5339370602
 21
75.7296271485
 31
0.0
  0
LINE
  5
188
330
1F
100
AcDbEntity
  8
0
  6
Continuous
 62
     7
370
    25
100
AcDbLine
 10
202.0075892706
 20
55.7632436928
 30
0.0
 11
210.5736892762
 21
50.0893540965
 31
0.0
  0
LINE
  5
189
330
1F
100
AcDbEntity
  8
0
  6
Continuous
 62
     7
370
    25
100
AcDbLine
 10
206.9870267123
 20
56.7097335585
 30
0.0
 11
206.9870267123
 21
56.3444148535
 31
0.0
  0
LINE
  5
18A
330
1F
100
AcDbEntity
  8
0
  6
Continuous
 62
     7
370
    25
100
AcDbLine
 10
210.8849934726
 20
76.1065955252
 30
0.0
 11
210.2454433639
 21
76.0193837698
 31
0.0
  0
LINE
  5
18B
330
1F
100
AcDbEntity
  8
0
  6
Continuous
 62
     7
370
    25
100
AcDbLine
 10
254.8993329503
 20
28.5140679858
 30
0.0
 11
254.8266283196
 21
28.5514185739
 31
0.0
  0
LINE
  5
18C
330
1F
100
AcDbEntity
  8
0
  6
Continuous
 62
     7
370
    25
100
AcDbLine
 10
257.2953177386
 20
32.8987483351
 30
0.0
 11
257.3264250763
 21
32.881662758
 31
0.0
  0
LWPOLYLINE
  5
18D
330
1F
100
AcDbEntity
  8
0
  6
Continuous
 62
     7
370
    25
100
AcDbPolyline
 90
       15
 70
   128
 43
0.0
 10
253.0235071149
 20
29.5923382887
 10
253.019380675
 20
29.5947363204
 10
252.7489197383
 20
29.8439331634
 10
252.5742480516
 20
30.2133639372
 10
252.5063409176
 20
30.6798161813
 10
252.5494650461
 20
31.2139808158
 10
252.7009105266
 20
31.7822941743
 10
252.9511613909
 20
32.3490470123
 10
253.2844935718
 20
32.878628138
 10
253.6799633783
 20
33.337762516
 10
254.1127206333
 20
33.697600516
 10
254.5555746928
 20
33.9355323252
 10
254.980699417
 20
34.0366083333
 10
255.3613816066
 20
33.9944764289
 10
255.5233038716
 20
33.9225824729
  0
ARC
  5
18E
330
1F
100
AcDbEntity
  8
0
  6
Continuous
 62
     7
370
    25
100
AcDbCircle
 10
257.2613542425
 20
30.0359791429
 30
0.0
 40
1.828193796094013
100
AcDbArc
 50
138.2915666812
 51
174.0605300035
  0
LINE
  5
18F
330
1F
100
AcDbEntity
  8
0
  6
Continuous
 62
     7
370
    25
100
AcDbLine
 10
255.4391972013
 20
30.216601512
 30
0.0
 11
255.4429746126
 21
30.2251565136
 31
0.0
  0
LINE
  5
190
330
1F
100
AcDbEntity
  8
0
  6
Continuous
 62
     7
370
    25
100
AcDbLine
 10
255.4391972013
 20
30.216601512
 30
0.0
 11
255.4420888702
 21
30.2113059593
 31
0.0
  0
ARC
  5
191
330
1F
100
AcDbEntity
  8
0
  6
Continuous
 62
     7
370
    25
100
AcDbCircle
 10
255.9787706937
 20
30.091661306
 30
0.0
 40
0.5498565474513877
100
AcDbArc
 50
167.432332619
 51
249.8434095586
  0
LINE
  5
192
330
1F
100
AcDbEntity
  8
0
  6
Continuous
 62
     7
370
    25
100
AcDbLine
 10
255.7921889113
 20
29.5701855549
 30
0.0
 11
255.7892972424
 21
29.5754810719
 31
0.0
  0
LINE
  5
193
330
1F
100
AcDbEntity
  8
0
  6
Continuous
 62
     7
370
    25
100
AcDbLine
 10
255.7921889113
 20
29.5701855549
 30
0.0
 11
255.7988579916
 21
29.573444986
 31
0.0
  0
ARC
  5
194
330
1F
100
AcDbEntity
  8
0
  6
Continuous
 62
     7
370
    25
100
AcDbCircle
 10
255.8355067355
 20
30.5133576326
 30
0.0
 40
0.9406268726778718
100
AcDbArc
 50
267.7670742329
 51
324.3263191796
  0
LINE
  5
195
330
1F
100
AcDbEntity
  8
0
  6
Continuous
 62
     7
370
    25
100
AcDbLine
 10
256.6062954615
 20
29.9680735118
 30
0.0
 11
256.5996263813
 21
29.9648140332
 31
0.0
  0
LINE
  5
196
330
1F
100
AcDbEntity
  8
0
  6
Continuous
 62
     7
370
    25
100
AcDbLine
 10
256.6062954615
 20
29.9680735118
 30
0.0
 11
256.6100735314
 21
29.9766288401
 31
0.0
  0
ARC
  5
197
330
1F
100
AcDbEntity
  8
0
  6
Continuous
 62
     7
370
    25
100
AcDbCircle
 10
255.2452532605
 20
31.1929997474
 30
0.0
 40
1.828193796094319
100
AcDbArc
 50
318.2915666812
 51
354.0605300035
  0
LINE
  5
198
330
1F
100
AcDbEntity
  8
0
  6
Continuous
 62
     7
370
    25
100
AcDbLine
 10
257.0674106309
 20
31.0123775684
 30
0.0
 11
257.0636328904
 21
31.0038223767
 31
0.0
  0
LINE
  5
199
330
1F
100
AcDbEntity
  8
0
  6
Continuous
 62
     7
370
    25
100
AcDbLine
 10
257.0674106309
 20
31.0123775684
 30
0.0
 11
257.0645186327
 21
31.017672931
 31
0.0
  0
ARC
  5
19A
330
1F
100
AcDbEntity
  8
0
  6
Continuous
 62
     7
370
    25
100
AcDbCircle
 10
256.5278374491
 20
31.1373179338
 30
0.0
 40
0.5498559988998488
100
AcDbArc
 50
347.4322825696
 51
69.843459608
  0
LINE
  5
19B
330
1F
100
AcDbEntity
  8
0
  6
Continuous
 62
     7
370
    25
100
AcDbLine
 10
256.7144185916
 20
31.6587933354
 30
0.0
 11
256.7173102605
 21
31.6534978184
 31
0.0
  0
LINE
  5
19C
330
1F
100
AcDbEntity
  8
0
  6
Continuous
 62
     7
370
    25
100
AcDbLine
 10
256.7144185916
 20
31.6587933354
 30
0.0
 11
256.7077495114
 21
31.6555339043
 31
0.0
  0
ARC
  5
19D
330
1F
100
AcDbEntity
  8
0
  6
Continuous
 62
     7
370
    25
100
AcDbCircle
 10
256.6711007675
 20
30.7156212578
 30
0.0
 40
0.9406268726778407
100
AcDbArc
 50
87.7670742329
 51
144.3263191796
  0
LINE
  5
19E
330
1F
100
AcDbEntity
  8
0
  6
Continuous
 62
     7
370
    25
100
AcDbLine
 10
255.9003120414
 20
31.2609053785
 30
0.0
 11
255.9069811216
 21
31.2641648572
 31
0.0
  0
LINE
  5
19F
330
1F
100
AcDbEntity
  8
0
  6
Continuous
 62
     7
370
    25
100
AcDbLine
 10
255.9003120414
 20
31.2609053785
 30
0.0
 11
255.8965339715
 21
31.2523500502
 31
0.0
  0
SPLINE
  5
1A0
330
1F
100
AcDbEntity
  8
0
  6
Continuous
 62
     7
370
    25
100
AcDbSpline
210
0.0
220
0.0
230
1.0
 70
     8
 71
     3
 72
    10
 73
     6
 74
     0
 42
0.000000001
 43
0.00000001
 40
0.0
 40
0.0
 40
0.0
 40
0.0
 40
0.0093395808239832
 40
0.5706548827402949
 40
1.0
 40
1.0
 40
1.0
 40
1.0
 10
256.1502461457816
 20
31.49290918908092
 30
0.0
 10
256.1512271608312
 20
31.49383903306303
 30
0.0
 10
256.2111678625233
 20
31.55065314694856
 30
0.0
 10
256.4195412854062
 20
31.60604866013714
 30
0.0
 10
256.6206084464893
 20
31.64057181620285
 30
0.0
 10
256.7077495113601
 20
31.65553390432336
 30
0.0
  0
SPLINE
  5
1A1
330
1F
100
AcDbEntity
  8
0
  6
Continuous
 62
     7
370
    25
100
AcDbSpline
210
0.0
220
0.0
230
1.0
 70
     8
 71
     3
 72
    10
 73
     6
 74
     0
 42
0.000000001
 43
0.00000001
 40
0.0
 40
0.0
 40
0.0
 40
0.0
 40
0.4780905891322327
 40
0.8234271483642781
 40
1.0
 40
1.0
 40
1.0
 40
1.0
 10
255.7892972424118
 20
29.5754810719392
 30
0.0
 10
255.692910317082
 20
29.69349034834488
 30
0.0
 10
255.5269007513887
 20
29.89674061965354
 30
0.0
 10
255.4437251138423
 20
30.08775816580765
 30
0.0
 10
255.4441888205635
 20
30.15380489382832
 30
0.0
 10
255.4443457022298
 20
30.17614988103296
 30
0.0
  0
SPLINE
  5
1A2
330
1F
100
AcDbEntity
  8
0
  6
Continuous
 62
     7
370
    25
100
AcDbSpline
210
0.0
220
0.0
230
1.0
 70
     8
 71
     3
 72
    10
 73
     6
 74
     0
 42
0.000000001
 43
0.00000001
 40
0.0
 40
0.0
 40
0.0
 40
0.0
 40
0.4395943999852487
 40
0.7571242175541812
 40
1.0
 40
1.0
 40
1.0
 40
1.0
 10
256.7173102605269
 20
31.65349781839591
 30
0.0
 10
256.7201205881331
 20
31.58943462546646
 30
0.0
 10
256.7249608843015
 20
31.47909701692923
 30
0.0
 10
256.8851513739194
 20
31.23180336798669
 30
0.0
 10
257.0102861255717
 20
31.08241624331603
 30
0.0
 10
257.0645186327377
 20
31.01767293098875
 30
0.0
  0
LINE
  5
1A3
330
1F
100
AcDbEntity
  8
0
  6
Continuous
 62
     7
370
    25
100
AcDbLine
 10
256.1938487069
 20
31.5166741329
 30
0.0
 11
257.0674106309
 21
31.0123775684
 31
0.0
  0
SPLINE
  5
1A4
330
1F
100
AcDbEntity
  8
0
  6
Continuous
 62
     7
370
    25
100
AcDbSpline
210
0.0
220
0.0
230
1.0
 70
     8
 71
     3
 72
     9
 73
     5
 74
     0
 42
0.000000001
 43
0.00000001
 40
0.0
 40
0.0
 40
0.0
 40
0.0
 40
0.6963174120373902
 40
1.0
 40
1.0
 40
1.0
 40
1.0
 10
255.6113637847109
 20
30.5424353432165
 30
0.0
 10
255.6387075499932
 20
30.6931730582025
 30
0.0
 10
255.6779766603293
 20
30.90965150952393
 30
0.0
 10
255.7848708845546
 20
31.09248277502673
 30
0.0
 10
255.8173327992056
 20
31.1480054468951
 30
0.0
  0
LINE
  5
1A5
330
1F
100
AcDbEntity
  8
0
  6
Continuous
 62
     7
370
    25
100
AcDbLine
 10
255.5052090442
 20
30.5073006051
 30
0.0
 11
255.6113637847
 21
30.5424353432
 31
0.0
  0
LINE
  5
1A6
330
1F
100
AcDbEntity
  8
0
  6
Continuous
 62
     7
370
    25
100
AcDbLine
 10
255.6113637847
 20
30.5424353432
 30
0.0
 11
256.6062954615
 21
29.9680735118
 31
0.0
  0
SPLINE
  5
1A7
330
1F
100
AcDbEntity
  8
0
  6
Continuous
 62
     7
370
    25
100
AcDbSpline
210
0.0
220
0.0
230
1.0
 70
     8
 71
     3
 72
    10
 73
     6
 74
     0
 42
0.000000001
 43
0.00000001
 40
0.0
 40
0.0
 40
0.0
 40
0.0
 40
0.4395940884868723
 40
0.7571240991017271
 40
1.0
 40
1.0
 40
1.0
 40
1.0
 10
256.5996263813169
 20
29.96481403317904
 30
0.0
 10
256.437799084952
 20
29.93580946799087
 30
0.0
 10
256.1590798091943
 20
29.88585416635448
 30
0.0
 10
255.9110665528559
 20
29.72548599731389
 30
0.0
 10
255.8327847592306
 20
29.61941527566968
 30
0.0
 10
255.7988579915786
 20
29.57344498601175
 30
0.0
  0
SPLINE
  5
1A8
330
1F
100
AcDbEntity
  8
0
  6
Continuous
 62
     7
370
    25
100
AcDbSpline
210
0.0
220
0.0
230
1.0
 70
     8
 71
     3
 72
    11
 73
     7
 74
     0
 42
0.000000001
 43
0.00000001
 40
0.0
 40
0.0
 40
0.0
 40
0.0
 40
0.1297140034311611
 40
0.4834720723563826
 40
0.821590905924567
 40
1.0
 40
1.0
 40
1.0
 40
1.0
 10
257.0636328903745
 20
31.00382237670182
 30
0.0
 10
257.0298950709968
 20
30.97084544972645
 30
0.0
 10
256.9041469403416
 20
30.84793332919211
 30
0.0
 10
256.7211323317939
 20
30.58699251743888
 30
0.0
 10
256.6286370610946
 20
30.24805575685496
 30
0.0
 10
256.6148392906094
 20
30.04631145711855
 30
0.0
 10
256.6100735313915
 20
29.97662884012036
 30
0.0
  0
LWPOLYLINE
  5
1A9
330
1F
100
AcDbEntity
  8
0
  6
Continuous
 62
     7
370
    25
100
AcDbPolyline
 90
        9
 70
   128
 43
0.0
 10
265.1137168466
 20
39.0298366257
 10
265.2036414285
 20
39.2446890879
 10
265.5025630124
 20
39.7949875961
 10
265.8734424377
 20
40.2891155556
 10
266.2929761191
 20
40.6960251679
 10
266.7348028491
 20
40.9901486271
 10
267.1711616841
 20
41.1530054875
 10
267.5746334649
 20
41.1743619212
 10
267.8976725951
 20
41.0661534817
  0
ARC
  5
1AA
330
1F
100
AcDbEntity
  8
0
  6
Continuous
 62
     7
370
    25
100
AcDbCircle
 10
269.1619690314
 20
37.6573593267
 30
0.0
 40
1.165479621384066
100
AcDbArc
 50
99.2772029711
 51
148.0260942111
  0
LINE
  5
1AB
330
1F
100
AcDbEntity
  8
0
  6
Continuous
 62
     7
370
    25
100
AcDbLine
 10
268.1666360016
 20
38.270079605
 30
0.0
 11
268.1733050818
 21
38.274519227
 31
0.0
  0
LINE
  5
1AC
330
1F
100
AcDbEntity
  8
0
  6
Continuous
 62
     7
370
    25
100
AcDbLine
 10
268.1666360016
 20
38.270079605
 30
0.0
 11
268.1637436741
 21
38.2614453906
 31
0.0
  0
ARC
  5
1AD
330
1F
100
AcDbEntity
  8
0
  6
Continuous
 62
     7
370
    25
100
AcDbCircle
 10
269.6350138305
 20
37.1732306496
 30
0.0
 40
1.829985572527352
100
AcDbArc
 50
143.5117763822
 51
171.9451439779
  0
ARC
  5
1AE
330
1F
100
AcDbEntity
  8
0
  6
Continuous
 62
     7
370
    25
100
AcDbCircle
 10
267.7508343001
 20
38.2049046708
 30
0.0
 40
1.643186208031081
100
AcDbArc
 50
307.2584049048
 51
324.1092964196
  0
LINE
  5
1AF
330
1F
100
AcDbEntity
  8
0
  6
Continuous
 62
     7
370
    25
100
AcDbLine
 10
269.0887089482
 20
37.246041303
 30
0.0
 11
269.082039868
 21
37.2416016811
 31
0.0
  0
LINE
  5
1B0
330
1F
100
AcDbEntity
  8
0
  6
Continuous
 62
     7
370
    25
100
AcDbLine
 10
269.0887089482
 20
37.246041303
 30
0.0
 11
269.0916012757
 21
37.2546755174
 31
0.0
  0
ARC
  5
1B1
330
1F
100
AcDbEntity
  8
0
  6
Continuous
 62
     7
370
    25
100
AcDbCircle
 10
267.7491425358
 20
38.2809180867
 30
0.0
 40
1.689783796630512
100
AcDbArc
 50
322.6038960436
 51
0.3547590349
  0
LINE
  5
1B2
330
1F
100
AcDbEntity
  8
0
  6
Continuous
 62
     7
370
    25
100
AcDbLine
 10
269.4417862691
 20
38.300014879
 30
0.0
 11
269.4388939416
 21
38.2913806765
 31
0.0
  0
LINE
  5
1B3
330
1F
100
AcDbEntity
  8
0
  6
Continuous
 62
     7
370
    25
100
AcDbLine
 10
269.4417862691
 20
38.300014879
 30
0.0
 11
269.4380095164
 21
38.3042094595
 31
0.0
  0
ARC
  5
1B4
330
1F
100
AcDbEntity
  8
0
  6
Continuous
 62
     7
370
    25
100
AcDbCircle
 10
268.9675566834
 20
38.3365797103
 30
0.0
 40
0.4715651611633058
100
AcDbArc
 50
356.0638771522
 51
87.9376940594
  0
LINE
  5
1B5
330
1F
100
AcDbEntity
  8
0
  6
Continuous
 62
     7
370
    25
100
AcDbLine
 10
268.9807497958
 20
38.812034024
 30
0.0
 11
268.9845265485
 21
38.8078394316
 31
0.0
  0
LINE
  5
1B6
330
1F
100
AcDbEntity
  8
0
  6
Continuous
 62
     7
370
    25
100
AcDbLine
 10
268.9807497958
 20
38.812034024
 30
0.0
 11
268.9740807156
 21
38.807594402
 31
0.0
  0
SPLINE
  5
1B7
330
1F
100
AcDbEntity
  8
0
  6
Continuous
 62
     7
370
    25
100
AcDbSpline
210
0.0
220
0.0
230
1.0
 70
     8
 71
     3
 72
     9
 73
     5
 74
     0
 42
0.000000001
 43
0.00000001
 40
0.0
 40
0.0
 40
0.0
 40
0.0
 40
0.7016495871544858
 40
1.0
 40
1.0
 40
1.0
 40
1.0
 10
268.5296889546638
 20
38.6328417746768
 30
0.0
 10
268.626293231402
 20
38.68232957845579
 30
0.0
 10
268.7639748868989
 20
38.75286023176905
 30
0.0
 10
268.9258000972377
 20
38.79501693286038
 30
0.0
 10
268.9740807155511
 20
38.80759440203519
 30
0.0
  0
LINE
  5
1B8
330
1F
100
AcDbEntity
  8
0
  6
Continuous
 62
     7
370
    25
100
AcDbLine
 10
268.0937772714
 20
37.8204031344
 30
0.0
 11
268.1848572696
 21
38.2622590134
 31
0.0
  0
SPLINE
  5
1B9
330
1F
100
AcDbEntity
  8
0
  6
Continuous
 62
     7
370
    25
100
AcDbSpline
210
0.0
220
0.0
230
1.0
 70
     8
 71
     3
 72
     9
 73
     5
 74
     0
 42
0.000000001
 43
0.00000001
 40
0.0
 40
0.0
 40
0.0
 40
0.0
 40
0.4929537939151219
 40
1.0
 40
1.0
 40
1.0
 40
1.0
 10
267.9022303816358
 20
37.73015153136011
 30
0.0
 10
267.9307942527348
 20
37.74747312055124
 30
0.0
 10
267.9887385701363
 20
37.78261148322325
 30
0.0
 10
268.0584369648141
 20
37.80768812059956
 30
0.0
 10
268.0937772714058
 20
37.82040313444258
 30
0.0
  0
SPLINE
  5
1BA
330
1F
100
AcDbEntity
  8
0
  6
Continuous
 62
     7
370
    25
100
AcDbSpline
210
0.0
220
0.0
230
1.0
 70
     8
 71
     3
 72
    10
 73
     6
 74
     0
 42
0.000000001
 43
0.00000001
 40
0.0
 40
0.0
 40
0.0
 40
0.0
 40
0.4395945088268223
 40
0.7571243700517856
 40
1.0
 40
1.0
 40
1.0
 40
1.0
 10
268.9845265485367
 20
38.80783943161545
 30
0.0
 10
269.002578314999
 20
38.76273503846549
 30
0.0
 10
269.0336693137185
 20
38.68505063940108
 30
0.0
 10
269.231649768427
 20
38.48476392009646
 30
0.0
 10
269.3756157261175
 20
38.35880090600427
 30
0.0
 10
269.4380095163567
 20
38.30420945948975
 30
0.0
  0
LINE
  5
1BB
330
1F
100
AcDbEntity
  8
0
  6
Continuous
 62
     7
370
    25
100
AcDbLine
 10
268.7190336716
 20
38.7172510724
 30
0.0
 11
269.4417862691
 21
38.300014879
 31
0.0
  0
SPLINE
  5
1BC
330
1F
100
AcDbEntity
  8
0
  6
Continuous
 62
     7
370
    25
100
AcDbSpline
210
0.0
220
0.0
230
1.0
 70
     8
 71
     3
 72
    10
 73
     6
 74
     0
 42
0.000000001
 43
0.00000001
 40
0.0
 40
0.0
 40
0.0
 40
0.0
 40
0.439594409722516
 40
0.7571242175429957
 40
1.0
 40
1.0
 40
1.0
 40
1.0
 10
269.438893941631
 20
38.29138067646481
 30
0.0
 10
269.3421018597608
 20
38.16982491358109
 30
0.0
 10
269.1753944867152
 20
37.96046644626283
 30
0.0
 10
269.0886310289848
 20
37.57062594706024
 30
0.0
 10
269.0907032080906
 20
37.35020456916232
 30
0.0
 10
269.0916012757231
 20
37.2546755174255
 30
0.0
  0
LINE
  5
1BD
330
1F
100
AcDbEntity
  8
0
  6
Continuous
 62
     7
370
    25
100
AcDbLine
 10
268.0937772714
 20
37.8204031344
 30
0.0
 11
269.0887089482
 21
37.246041303
 31
0.0
  0
SPLINE
  5
1BE
330
1F
100
AcDbEntity
  8
0
  6
Continuous
 62
     7
370
    25
100
AcDbSpline
210
0.0
220
0.0
230
1.0
 70
     8
 71
     3
 72
    10
 73
     6
 74
     0
 42
0.000000001
 43
0.00000001
 40
0.0
 40
0.0
 40
0.0
 40
0.0
 40
0.2399914698613624
 40
0.8944972669259703
 40
1.0
 40
1.0
 40
1.0
 40
1.0
 10
269.0820398680117
 20
37.24160168105583
 30
0.0
 10
269.0346283795157
 20
37.2285270913729
 30
0.0
 10
268.8579160700941
 20
37.17979542293353
 30
0.0
 10
268.6532332924989
 20
37.10924703963131
 30
0.0
 10
268.5632300866478
 20
37.0217330256181
 30
0.0
 10
268.5507360371389
 20
37.00958452031253
 30
0.0
  0
LWPOLYLINE
  5
1BF
330
1F
100
AcDbEntity
  8
0
  6
Continuous
 62
     7
370
    25
100
AcDbPolyline
 90
        3
 70
   128
 43
0.0
 10
273.2438039178
 20
32.5683305455
 10
273.2439664137
 20
32.5682367081
 10
273.2828281129
 20
32.5449054822
  0
LWPOLYLINE
  5
1C0
330
1F
100
AcDbEntity
  8
0
  6
Continuous
 62
     7
370
    25
100
AcDbPolyline
 90
       18
 70
   128
 43
0.0
 10
270.2386019101
 20
34.3031967369
 10
269.8101543349
 20
34.4618608483
 10
269.321156638
 20
34.4813944971
 10
268.7905631709
 20
34.3609526227
 10
268.2387644059
 20
34.1051646972
 10
267.686965641
 20
33.7238593296
 10
267.1563721738
 20
33.2316910266
 10
266.6673744769
 20
32.6475726545
 10
266.2387644059
 20
31.9939520512
 10
265.887013229
 20
31.2959473289
 10
265.6256383955
 20
30.5803823576
 10
265.4646848494
 20
29.8747561013
 10
265.4103371468
 20
29.2061849933
 10
265.4646848494
 20
28.6003624072
 10
265.6256383955
 20
28.0805691597
 10
265.887013229
 20
27.6667811476
 10
266.2387644059
 20
27.3748996895
 10
266.2389269018
 20
27.3748058522
  0
LINE
  5
1C1
330
1F
100
AcDbEntity
  8
0
  6
Continuous
 62
     7
370
    25
100
AcDbLine
 10
271.7743002085
 20
30.7108074017
 30
0.0
 11
270.33975731
 21
28.9262496731
 31
0.0
  0
LINE
  5
1C2
330
1F
100
AcDbEntity
  8
0
  6
Continuous
 62
     7
370
    25
100
AcDbLine
 10
270.33975731
 20
28.9262496731
 30
0.0
 11
270.33975731
 21
27.0134221915
 31
0.0
  0
LINE
  5
1C3
330
1F
100
AcDbEntity
  8
0
  6
Continuous
 62
     7
370
    25
100
AcDbLine
 10
271.7743002085
 20
26.8851524384
 30
0.0
 11
270.33975731
 21
27.0134221915
 31
0.0
  0
LINE
  5
1C4
330
1F
100
AcDbEntity
  8
0
  6
Continuous
 62
     7
370
    25
100
AcDbLine
 10
273.208843107
 20
28.669710167
 30
0.0
 11
271.7743002085
 21
26.8851524384
 31
0.0
  0
LINE
  5
1C5
330
1F
100
AcDbEntity
  8
0
  6
Continuous
 62
     7
370
    25
100
AcDbLine
 10
273.208843107
 20
28.669710167
 30
0.0
 11
273.208843107
 21
30.5825376487
 31
0.0
  0
LINE
  5
1C6
330
1F
100
AcDbEntity
  8
0
  6
Continuous
 62
     7
370
    25
100
AcDbLine
 10
271.7743002085
 20
30.7108074017
 30
0.0
 11
273.208843107
 21
30.5825376487
 31
0.0
  0
ARC
  5
1C7
330
1F
100
AcDbEntity
  8
0
  6
Continuous
 62
     7
370
    25
100
AcDbCircle
 10
268.1876287863
 20
30.8709047892
 30
0.0
 40
3.275566879657038
100
AcDbArc
 50
320.7388720638
 51
349.0713768258
  0
ARC
  5
1C8
330
1F
100
AcDbEntity
  8
0
  6
Continuous
 62
     7
370
    25
100
AcDbCircle
 10
268.4356183133
 20
30.6197682877
 30
0.0
 40
2.924863400654242
100
AcDbArc
 50
310.6183139769
 51
321.4736014978
  0
LINE
  5
1C9
330
1F
100
AcDbEntity
  8
0
  6
Continuous
 62
     7
370
    25
100
AcDbLine
 10
270.339753194
 20
27.7132988023
 30
0.0
 11
271.7743002085
 21
26.8851524384
 31
0.0
  0
LINE
  5
1CA
330
1F
100
AcDbEntity
  8
0
  6
Continuous
 62
     7
370
    25
100
AcDbLine
 10
271.4410725715
 20
29.6902223749
 30
0.0
 11
273.208843107
 21
28.669710167
 31
0.0
  0
LINE
  5
1CB
330
1F
100
AcDbEntity
  8
0
  6
Continuous
 62
     7
370
    25
100
AcDbLine
 10
271.4410725715
 20
29.6902223749
 30
0.0
 11
271.4410725715
 21
30.2962818788
 31
0.0
  0
LINE
  5
1CC
330
1F
100
AcDbEntity
  8
0
  6
Continuous
 62
     7
370
    25
100
AcDbLine
 10
270.7238011223
 20
28.7979435582
 30
0.0
 11
270.3397537497
 21
28.3201922501
 31
0.0
  0
LINE
  5
1CD
330
1F
100
AcDbEntity
  8
0
  6
Continuous
 62
     7
370
    25
100
AcDbLine
 10
271.4410725715
 20
29.6902223749
 30
0.0
 11
270.7238011223
 21
28.7979435582
 31
0.0
  0
ARC
  5
1CE
330
1F
100
AcDbEntity
  8
0
  6
Continuous
 62
     7
370
    25
100
AcDbCircle
 10
264.0683555272
 20
42.2317555284
 30
0.0
 40
4.211110459393152
100
AcDbArc
 50
33.3972830431
 51
86.4460511803
  0
ARC
  5
1CF
330
1F
100
AcDbEntity
  8
0
  6
Continuous
 62
     7
370
    25
100
AcDbCircle
 10
256.2879202953
 20
28.754776154
 30
0.0
 40
4.212874637505539
100
AcDbArc
 50
212.963854854
 51
266.8133428631
  0
LINE
  5
1D0
330
1F
100
AcDbEntity
  8
0
  6
Continuous
 62
     7
370
    25
100
AcDbLine
 10
222.994825855
 20
43.1017398873
 30
0.0
 11
223.0353875869
 21
43.0786389221
 31
0.0
  0
LINE
  5
1D1
330
1F
100
AcDbEntity
  8
0
  6
Continuous
 62
     7
370
    25
100
AcDbLine
 10
234.9938505507
 20
63.8869127316
 30
0.0
 11
234.948031658
 21
63.9129628849
 31
0.0
  0
LWPOLYLINE
  5
1D2
330
1F
100
AcDbEntity
  8
0
  6
Continuous
 62
     7
370
    25
100
AcDbPolyline
 90
       19
 70
   128
 43
0.0
 10
256.0274792908
 20
33.6315284497
 10
256.1746518052
 20
34.4213095355
 10
256.4319296687
 20
35.3069752308
 10
256.7836358999
 20
36.1931628686
 10
257.2215268387
 20
37.0591009886
 10
257.7353387396
 20
37.8844928486
 10
258.3130281407
 20
38.6499918819
 10
258.9410545438
 20
39.3376553815
 10
259.604697668
 20
39.9313649117
 10
260.2884021364
 20
40.4172051404
 10
260.976142536
 20
40.7837878926
 10
261.6517988291
 20
41.0225205831
 10
262.2995342345
 20
41.1278076314
 10
262.9041661732
 20
41.0971813343
 10
263.4515228496
 20
40.9313598054
 10
263.9287746644
 20
40.6342291682
 10
264.3247350865
 20
40.2127545064
 10
264.6301232483
 20
39.6768143434
 10
264.8048607895
 20
39.1720326232
  0
ARC
  5
1D3
330
1F
100
AcDbEntity
  8
0
  6
Continuous
 62
     7
370
    25
100
AcDbCircle
 10
258.5066168071
 20
32.1886873569
 30
0.0
 40
2.665658122661752
100
AcDbArc
 50
243.6813948575
 51
287.4349269296
  0
LINE
  5
1D4
330
1F
100
AcDbEntity
  8
0
  6
Continuous
 62
     7
370
    25
100
AcDbLine
 10
269.5709149933
 20
36.4184012358
 30
0.0
 11
269.645036318
 21
36.3778586619
 31
0.0
  0
ARC
  5
1D5
330
1F
100
AcDbEntity
  8
0
  6
Continuous
 62
     7
370
    25
100
AcDbCircle
 10
259.655926029
 20
31.8247424884
 30
0.0
 40
2.062920375454973
100
AcDbArc
 50
205.5230317239
 51
239.0405762049
  0
LWPOLYLINE
  5
1D6
330
1F
100
AcDbEntity
  8
0
  6
Continuous
 62
     7
370
    25
100
AcDbPolyline
 90
       16
 70
   128
 43
0.0
 10
257.4581175143
 20
32.7437602595
 10
257.5070651519
 20
33.333405415
 10
257.6637272927
 20
34.1443306138
 10
257.9210957061
 20
34.9737146321
 10
258.2721292341
 20
35.7988654901
 10
258.7072231697
 20
36.5972064212
 10
259.2144731685
 20
37.3468947211
 10
259.7800010635
 20
38.0274187758
 10
260.3883332815
 20
38.6201587252
 10
261.0228259742
 20
39.1088974774
 10
261.6661190029
 20
39.4802626382
 10
262.3006116957
 20
39.7240935558
 10
262.9089439136
 20
39.833719035
 10
263.4744718086
 20
39.8061395895
 10
263.9817218074
 20
39.6421096722
 10
264.0942489539
 20
39.5822599996
  0
LWPOLYLINE
  5
1D7
330
1F
100
AcDbEntity
  8
0
  6
Continuous
 62
     7
370
    25
100
AcDbPolyline
 90
       17
 70
   128
 43
0.0
 10
265.7302150988
 20
32.9610738704
 10
265.685809278
 20
33.1932320535
 10
265.5593521042
 20
33.3387764595
 10
265.3700954676
 20
33.3755490056
 10
265.1468520075
 20
33.2979516922
 10
264.923608712
 20
33.1177976879
 10
264.7343520754
 20
32.8625140804
 10
264.6078949016
 20
32.5709653293
 10
264.5634889161
 20
32.2875371817
 10
264.6078949016
 20
32.0553789036
 10
264.7343520754
 20
31.9098344975
 10
264.923608712
 20
31.8730619515
 10
265.1468520075
 20
31.9506593599
 10
265.3700954676
 20
32.1308132691
 10
265.5593521042
 20
32.3860968766
 10
265.685809278
 20
32.6776456277
 10
265.7302150988
 20
32.9610738704
  0
LINE
  5
1D8
330
1F
100
AcDbEntity
  8
0
  6
Continuous
 62
     7
370
    25
100
AcDbLine
 10
263.0231933185
 20
39.8987001849
 30
0.0
 11
263.0798592625
 21
39.8862792654
 31
0.0
  0
LINE
  5
1D9
330
1F
100
AcDbEntity
  8
0
  6
Continuous
 62
     7
370
    25
100
AcDbLine
 10
263.2141536098
 20
39.8871910718
 30
0.0
 11
263.2642945301
 21
39.8593154019
 31
0.0
  0
LWPOLYLINE
  5
1DA
330
1F
100
AcDbEntity
  8
0
  6
Continuous
 62
     7
370
    25
100
AcDbPolyline
 90
       33
 70
   128
 43
0.0
 10
216.8055848588
 20
47.6825211467
 10
216.8575348008
 20
48.9527451011
 10
217.0128999383
 20
50.2710896185
 10
217.2702294975
 20
51.6252456974
 10
217.6271204496
 20
53.0025694419
 10
218.0802405594
 20
54.390201357
 10
218.625360654
 20
55.7751865937
 10
219.2573888674
 20
57.1445920571
 10
219.9704259578
 20
58.4856330184
 10
220.7578140402
 20
59.785789081
 10
221.6122004652
 20
61.0329197643
 10
222.5256092711
 20
62.2153817991
 10
223.4895116478
 20
63.3221344448
 10
224.4949079261
 20
64.3428446156
 10
225.5324112127
 20
65.2679823109
 10
226.5923344824
 20
66.0889089158
 10
227.6647814576
 20
66.7979608436
 10
228.7397390515
 20
67.3885173506
 10
229.8071706341
 20
67.8550635037
 10
230.8571100397
 20
68.1932452097
 10
231.879753928
 20
68.3999035224
 10
232.865554556
 20
68.473109188
 10
233.805307447
 20
68.4121790338
 10
234.6902384834
 20
68.2176821389
 10
235.5120855658
 20
67.8914345035
 10
236.2631753335
 20
67.4364817411
 10
236.9364942875
 20
66.8570709345
 10
237.5257566205
 20
66.1586137473
 10
238.0254601932
 20
65.3476297639
 10
238.4309392176
 20
64.4316917313
 10
238.7384083801
 20
63.4193514099
 10
238.9449970849
 20
62.3200610525
 10
239.0244998707
 20
61.5600677967
  0
LWPOLYLINE
  5
1DB
330
1F
100
AcDbEntity
  8
0
  6
Continuous
 62
     7
370
    25
100
AcDbPolyline
 90
       17
 70
   128
 43
0.0
 10
227.0254755866
 20
40.7748947148
 10
226.5923344824
 20
40.5756739755
 10
225.5324112127
 20
40.1728392217
 10
224.4949079261
 20
39.9001011199
 10
223.4895116478
 20
39.7600054561
 10
222.5256092711
 20
39.7538601064
 10
221.6122004652
 20
39.8817227818
 10
220.7578140402
 20
40.142399896
 10
219.9704259578
 20
40.5334570293
 10
219.2573888674
 20
41.0512428896
 10
218.625360654
 20
41.6909241105
 10
218.0802405594
 20
42.4465270826
 10
217.6271204496
 20
43.3109976547
 10
217.2702294975
 20
44.2762638769
 10
217.0128999383
 20
45.3333135708
 10
216.8575348008
 20
46.4722773187
 10
216.8055848588
 20
47.6825211467
  0
SPLINE
  5
1DC
330
1F
100
AcDbEntity
  8
0
  6
Continuous
 62
     7
370
    25
100
AcDbSpline
210
0.0
220
0.0
230
1.0
 70
     8
 71
     3
 72
    25
 73
    21
 74
     0
 42
0.000000001
 43
0.00000001
 40
0.0
 40
0.0
 40
0.0
 40
0.0
 40
0.1249999999999985
 40
0.1249999999999985
 40
0.2499999999999971
 40
0.2499999999999971
 40
0.3749999999999956
 40
0.3749999999999956
 40
0.4999999999999941
 40
0.4999999999999941
 40
0.562499999999995
 40
0.562499999999995
 40
0.624999999999996
 40
0.6874999999999969
 40
0.6874999999999969
 40
0.7499999999999978
 40
0.7499999999999978
 40
0.8749999999999989
 40
0.8749999999999989
 40
1.0
 40
1.0
 40
1.0
 40
1.0
 10
221.6391740073084
 20
64.1143356011602
 30
0.0
 10
221.6682973055695
 20
64.00315008063102
 30
0.0
 10
221.6806863464287
 20
63.88790786820297
 30
0.0
 10
221.6737088613284
 20
63.64881230036719
 30
0.0
 10
221.6536912734764
 20
63.52403833049192
 30
0.0
 10
221.5834691157632
 20
63.27766942127949
 30
0.0
 10
221.5328184611695
 20
63.15345827391838
 30
0.0
 10
221.4029037175143
 20
62.90982977860822
 30
0.0
 10
221.325202769525
 20
62.79277268355005
 30
0.0
 10
221.1898291872989
 20
62.62411616570002
 30
0.0
 10
221.1411946899918
 20
62.56874914442785
 30
0.0
 10
221.0397553546098
 20
62.46302933303084
 30
0.0
 10
220.933885371869
 20
62.36186837441039
 30
0.0
 10
220.8192935795415
 20
62.2696940527336
 30
0.0
 10
220.7002109103233
 20
62.18215720999347
 30
0.0
 10
220.6382528972659
 20
62.14065874048129
 30
0.0
 10
220.4503891937453
 20
62.02653841874319
 30
0.0
 10
220.3210117573913
 20
61.96293098762859
 30
0.0
 10
220.0533285043293
 20
61.86166268665436
 30
0.0
 10
219.9174568178642
 20
61.82512177842955
 30
0.0
 10
219.7819395511366
 20
61.80395359407949
 30
0.0
  0
LWPOLYLINE
  5
1DD
330
1F
100
AcDbEntity
  8
0
  6
Continuous
 62
     7
370
    25
100
AcDbPolyline
 90
       14
 70
   128
 43
0.0
 10
221.639174119
 20
64.1143356337
 10
222.6411604539
 20
65.1530630113
 10
223.6770233061
 20
66.0971938014
 10
224.7370356439
 20
66.9378624899
 10
225.8112431967
 20
67.6671742909
 10
226.8895587914
 20
68.2782793784
 10
227.9618566474
 20
68.7654417705
 10
229.0180672078
 20
69.1240849482
 10
230.0482721749
 20
69.3508413956
 10
231.042797859
 20
69.4435821539
 10
231.9923047821
 20
69.4014366091
 10
232.8878765806
 20
69.2247989472
 10
233.7211033121
 20
68.9153298577
 10
234.1168233655
 20
68.7087863664
  0
LWPOLYLINE
  5
1DE
330
1F
100
AcDbEntity
  8
0
  6
Continuous
 62
     7
370
    25
100
AcDbPolyline
 90
       20
 70
   128
 43
0.0
 10
218.3806020509
 20
41.4498979726
 10
218.3392270166
 20
41.4740366657
 10
217.6241978291
 20
41.9799606325
 10
216.9888584539
 20
42.6069219013
 10
216.4390778398
 20
43.3491251942
 10
215.9799366575
 20
44.1997137009
 10
215.6156772509
 20
45.1508280198
 10
215.3496647824
 20
46.1936799258
 10
215.1843575985
 20
47.3186337433
 10
215.1212835226
 20
48.5152953339
 10
215.1610240495
 20
49.7726070017
 10
215.3032130284
 20
51.0789520806
 10
215.546536663
 20
52.4222601398
 10
215.8887460239
 20
53.7901190199
 10
216.3266800973
 20
55.1698903143
 10
216.8562914688
 20
56.5488248623
 10
217.4726871526
 20
57.9141815672
 10
218.1701720559
 20
59.2533448841
 10
218.9423010036
 20
60.5539415457
 10
219.7819393243
 20
61.8039531057
  0
LWPOLYLINE
  5
1DF
330
1F
100
AcDbEntity
  8
0
  6
Continuous
 62
     7
370
    25
100
AcDbPolyline
 90
       37
 70
   128
 43
0.0
 10
217.1569672507
 20
42.3225276529
 10
216.3344952096
 20
42.6447977458
 10
215.5823748198
 20
43.0955037999
 10
214.9076083849
 20
43.6704515856
 10
214.3164784197
 20
44.3642883755
 10
213.8144883805
 20
45.1705531408
 10
213.4063119577
 20
46.0817408148
 10
213.0957489532
 20
47.0893675071
 10
212.8856910359
 20
48.1840524465
 10
212.7780940829
 20
49.3556044863
 10
212.7739584234
 20
50.5931153579
 10
212.8733242286
 20
51.8850649001
 10
213.0752655849
 20
53.2194242929
 10
213.3779023477
 20
54.5837706959
 10
213.7784172636
 20
55.9654025519
 10
214.2730809952
 20
57.3514560304
 10
214.8572889991
 20
58.7290276489
 10
215.5256023563
 20
60.0852915705
 10
216.2717978212
 20
61.4076208926
 10
217.0889297249
 20
62.6837062742
 10
217.9693892441
 20
63.9016646754
 10
218.9049801338
 20
65.0501583636
 10
219.8869921553
 20
66.1184950975
 10
220.9062817471
 20
67.0967279296
 10
221.9533602708
 20
67.9757502567
 10
223.0184790451
 20
68.7473768481
 10
224.091721645
 20
69.4044267872
 10
225.1630962422
 20
69.9407790594
 10
226.2226284188
 20
70.3514428629
 10
227.260453569
 20
70.6325934602
 10
228.266910104
 20
70.7816145774
 10
229.2326271001
 20
70.7971178231
 10
230.1486141076
 20
70.678959553
 10
231.0063433046
 20
70.4282396262
 10
231.7978295095
 20
70.0472928428
 10
232.5157029508
 20
69.5396640315
 10
232.8492274266
 20
69.2355171618
  0
LWPOLYLINE
  5
1E0
330
1F
100
AcDbEntity
  8
0
  6
Continuous
 62
     7
370
    25
100
AcDbPolyline
 90
       11
 70
   128
 43
0.0
 10
219.9765527266
 20
64.2386121143
 10
220.9413151625
 20
65.2620901904
 10
221.942273674
 20
66.1903213607
 10
222.9689745257
 20
67.0136114647
 10
224.0106941435
 20
67.7233607684
 10
225.0565527546
 20
68.3121577044
 10
226.0956271226
 20
68.7738515569
 10
227.1170648866
 20
69.10362075
 10
228.1101977491
 20
69.298021459
 10
229.0646533049
 20
69.3550225103
 10
229.7771033028
 20
69.3034987473
  0
SPLINE
  5
1E1
330
1F
100
AcDbEntity
  8
0
  6
Continuous
 62
     7
370
    25
100
AcDbSpline
210
0.0
220
0.0
230
1.0
 70
     8
 71
     3
 72
    26
 73
    22
 74
     0
 42
0.000000001
 43
0.00000001
 40
0.0
 40
0.0
 40
0.0
 40
0.0
 40
0.1250000000000014
 40
0.1250000000000014
 40
0.2500000000000027
 40
0.2500000000000027
 40
0.3125000000000025
 40
0.3125000000000025
 40
0.3750000000000023
 40
0.3750000000000023
 40
0.4375000000000021
 40
0.4375000000000021
 40
0.5000000000000018
 40
0.5000000000000018
 40
0.5625000000000016
 40
0.5625000000000016
 40
0.6250000000000013
 40
0.6250000000000013
 40
0.7500000000000006
 40
0.7500000000000006
 40
1.0
 40
1.0
 40
1.0
 40
1.0
 10
218.6323595216808
 20
62.56644882803503
 30
0.0
 10
218.6087219254488
 20
62.67602468760802
 30
0.0
 10
218.5911541465671
 20
62.78691394597254
 30
0.0
 10
218.5723415636976
 20
63.01224390583548
 30
0.0
 10
218.5711617889302
 20
63.12792081915386
 30
0.0
 10
218.5872597921656
 20
63.29927632901342
 30
0.0
 10
218.5955785092658
 20
63.35607484110758
 30
0.0
 10
218.6193356585228
 20
63.46890105350467
 30
0.0
 10
218.6349580375718
 20
63.52535390717082
 30
0.0
 10
218.6738152499688
 20
63.63393702357942
 30
0.0
 10
218.6970412066713
 20
63.68631698380496
 30
0.0
 10
218.7520398561497
 20
63.78677375907707
 30
0.0
 10
218.7841181231723
 20
63.83505262684852
 30
0.0
 10
218.8545328717074
 20
63.92274960243225
 30
0.0
 10
218.893111293834
 20
63.96273873040821
 30
0.0
 10
218.9768195574302
 20
64.03521741452381
 30
0.0
 10
219.0219482673721
 20
64.06755403890043
 30
0.0
 10
219.1612289095622
 20
64.15075380625407
 30
0.0
 10
219.2620179811239
 20
64.18958252889014
 30
0.0
 10
219.5650902523566
 20
64.26499881634534
 30
0.0
 10
219.7736143428416
 20
64.26486866997458
 30
0.0
 10
219.976552762532
 20
64.23861244064835
 30
0.0
  0
LWPOLYLINE
  5
1E2
330
1F
100
AcDbEntity
  8
0
  6
Continuous
 62
     7
370
    25
100
AcDbPolyline
 90
       17
 70
   128
 43
0.0
 10
215.6953808927
 20
44.910597538
 10
215.6349567999
 20
44.9903293768
 10
215.1487988293
 20
45.7602558384
 10
214.7566895754
 20
46.6356496781
 10
214.4626119156
 20
47.607619
 10
214.2695536661
 20
48.6662896735
 10
214.1794753142
 20
49.8009071435
 10
214.1932922365
 20
50.9999456535
 10
214.3108641631
 20
52.2512249776
 10
214.5309964944
 20
53.5420338055
 10
214.8514534716
 20
54.8592598754
 10
215.2689792507
 20
56.1895223878
 10
215.7793328051
 20
57.5193073645
 10
216.377329414
 20
58.8351068095
 10
217.0568946627
 20
60.123553876
 10
217.8111256876
 20
61.3715608849
 10
218.6323596651
 20
62.566448597
  0
LINE
  5
1E3
330
1F
100
AcDbEntity
  8
0
  6
Continuous
 62
     7
370
    25
100
AcDbLine
 10
217.1569672507
 20
42.3225276529
 30
0.0
 11
217.2781272571
 21
42.3797878421
 31
0.0
  0
LWPOLYLINE
  5
1E4
330
1F
100
AcDbEntity
  8
0
  6
Continuous
 62
     7
370
    25
100
AcDbPolyline
 90
       26
 70
   128
 43
0.0
 10
210.5205336575
 20
51.8134729702
 10
210.5642847204
 20
52.5857610416
 10
210.7196498579
 20
53.9041055589
 10
210.9769794171
 20
55.2582616379
 10
211.3338703692
 20
56.6355853824
 10
211.786990479
 20
58.0232172975
 10
212.3321105736
 20
59.4082025341
 10
212.964138787
 20
60.7776079976
 10
213.6771758774
 20
62.1186489589
 10
214.4645639598
 20
63.4188050214
 10
215.3189503848
 20
64.6659357048
 10
216.2323591907
 20
65.8483977396
 10
217.1962615674
 20
66.9551503853
 10
218.2016578457
 20
67.9758605561
 10
219.2391611323
 20
68.9009982514
 10
220.299084402
 20
69.7219248563
 10
221.3715313772
 20
70.430976784
 10
222.4464889711
 20
71.0215332911
 10
223.5139205537
 20
71.4880794442
 10
224.5638599594
 20
71.8262611501
 10
225.5865038476
 20
72.0329194629
 10
226.5723044756
 20
72.1061251285
 10
227.5120573667
 20
72.0451949743
 10
228.3969884031
 20
71.8506980794
 10
229.2188354854
 20
71.524450444
 10
229.5085384341
 20
71.369092631
  0
ARC
  5
1E5
330
1F
100
AcDbEntity
  8
0
  6
Continuous
 62
     7
370
    25
100
AcDbCircle
 10
217.5729239689
 20
49.9071057025
 30
0.0
 40
6.931715445842186
100
AcDbArc
 50
185.7272313507
 51
236.7500573117
  0
LWPOLYLINE
  5
1E6
330
1F
100
AcDbEntity
  8
0
  6
Continuous
 62
     7
370
    25
100
AcDbPolyline
 90
       22
 70
   128
 43
0.0
 10
210.5123346601
 20
51.397177828
 10
210.5639546713
 20
52.6593305454
 10
210.7183326505
 20
53.9692979912
 10
210.9740263852
 20
55.3148492058
 10
211.3286499685
 20
56.6834213759
 10
211.7788915803
 20
58.0622363741
 10
212.3205470723
 20
59.4384207186
 10
212.9485594812
 20
60.799124582
 10
213.6570657854
 20
62.1316442213
 10
214.4394502467
 20
63.423538324
 10
215.2884082893
 20
64.6627451131
 10
216.1960126839
 20
65.8376935588
 10
217.1537902674
 20
66.9374138283
 10
218.1527980055
 20
67.9516374698
 10
219.1837087676
 20
68.8708963599
 10
220.2368969379
 20
69.6866071066
 10
221.3025293358
 20
70.3911539549
 10
222.3706563825
 20
70.9779566262
 10
223.4313052036
 20
71.441539274
 10
224.4745730595
 20
71.7775714922
 10
225.4907187599
 20
71.982916525
 10
226.4506955528
 20
72.0555050266
  0
LWPOLYLINE
  5
1E7
330
1F
100
AcDbEntity
  8
0
  6
Continuous
 62
     7
370
    25
100
AcDbPolyline
 90
        3
 70
   128
 43
0.0
 10
210.5860435712
 20
49.9678635121
 10
210.5639546713
 20
50.194624307
 10
210.5222813163
 20
50.8614534116
  0
SPLINE
  5
1E8
330
1F
100
AcDbEntity
  8
0
  6
Continuous
 62
     7
370
    25
100
AcDbSpline
210
0.0
220
0.0
230
1.0
 70
     8
 71
     3
 72
    10
 73
     6
 74
     0
 42
0.000000001
 43
0.00000001
 40
0.0
 40
0.0
 40
0.0
 40
0.0
 40
0.5
 40
0.5
 40
1.0
 40
1.0
 40
1.0
 40
1.0
 10
219.3590475893122
 20
61.10339554721529
 30
0.0
 10
219.2550830985279
 20
61.17673392028568
 30
0.0
 10
219.1652748221005
 20
61.26396967807908
 30
0.0
 10
219.0132323941019
 20
61.46490021927507
 30
0.0
 10
218.9513268057409
 20
61.57907098547205
 30
0.0
 10
218.9068771011504
 20
61.70208866863215
 30
0.0
  0
SPLINE
  5
1E9
330
1F
100
AcDbEntity
  8
0
  6
Continuous
 62
     7
370
    25
100
AcDbSpline
210
0.0
220
0.0
230
1.0
 70
     8
 71
     3
 72
    14
 73
    10
 74
     0
 42
0.000000001
 43
0.00000001
 40
0.0
 40
0.0
 40
0.0
 40
0.0
 40
0.25
 40
0.25
 40
0.5
 40
0.5
 40
0.75
 40
0.75
 40
1.0
 40
1.0
 40
1.0
 40
1.0
 10
218.9068771011504
 20
61.70208866863214
 30
0.0
 10
218.8841562982853
 20
61.76497008828969
 30
0.0
 10
218.8622417879358
 20
61.8340165177631
 30
0.0
 10
218.8201307338731
 20
61.98166903438187
 30
0.0
 10
218.80060917996
 20
62.05806882124018
 30
0.0
 10
218.7622629377863
 20
62.21240111263578
 30
0.0
 10
218.7439033449024
 20
62.28935370896744
 30
0.0
 10
218.7018999003208
 20
62.43474387648342
 30
0.0
 10
218.6781235793077
 20
62.50133478267644
 30
0.0
 10
218.6496620752056
 20
62.54183039790778
 30
0.0
  0
LINE
  5
1EA
330
1F
100
AcDbEntity
  8
0
  6
Continuous
 62
     7
370
    25
100
AcDbLine
 10
218.6496622635
 20
62.5418307896
 30
0.0
 11
218.6323596651
 21
62.566448597
 31
0.0
  0
LINE
  5
1EB
330
1F
100
AcDbEntity
  8
0
  6
Continuous
 62
     7
370
    25
100
AcDbLine
 10
219.9765527266
 20
64.2386121143
 30
0.0
 11
219.993855325
 21
64.2139943069
 31
0.0
  0
SPLINE
  5
1EC
330
1F
100
AcDbEntity
  8
0
  6
Continuous
 62
     7
370
    25
100
AcDbSpline
210
0.0
220
0.0
230
1.0
 70
     8
 71
     3
 72
    16
 73
    12
 74
     0
 42
0.000000001
 43
0.00000001
 40
0.0
 40
0.0
 40
0.0
 40
0.0
 40
0.1250000000000001
 40
0.1250000000000001
 40
0.2500000000000003
 40
0.2500000000000003
 40
0.5000000000000002
 40
0.5000000000000002
 40
0.7500000000000001
 40
0.7500000000000001
 40
1.0
 40
1.0
 40
1.0
 40
1.0
 10
219.9938553160567
 20
64.21399401052106
 30
0.0
 10
220.0080077224609
 20
64.19385767470828
 30
0.0
 10
220.0296661269346
 20
64.17706025403086
 30
0.0
 10
220.0820840559699
 20
64.15021473269937
 30
0.0
 10
220.1126769351082
 20
64.13998924813838
 30
0.0
 10
220.2117577839657
 20
64.11548880770569
 30
0.0
 10
220.2856403215816
 20
64.10722888530421
 30
0.0
 10
220.4387399139729
 20
64.09604291859927
 30
0.0
 10
220.5168238886205
 20
64.09344624684809
 30
0.0
 10
220.6761675223626
 20
64.09141724601439
 30
0.0
 10
220.7548204171942
 20
64.09205483467662
 30
0.0
 10
220.8305728849869
 20
64.09514793549165
 30
0.0
  0
SPLINE
  5
1ED
330
1F
100
AcDbEntity
  8
0
  6
Continuous
 62
     7
370
    25
100
AcDbSpline
210
0.0
220
0.0
230
1.0
 70
     8
 71
     3
 72
    10
 73
     6
 74
     0
 42
0.000000001
 43
0.00000001
 40
0.0
 40
0.0
 40
0.0
 40
0.0
 40
0.5
 40
0.5
 40
1.0
 40
1.0
 40
1.0
 40
1.0
 10
220.8305728849869
 20
64.09514793549165
 30
0.0
 10
220.9787672248876
 20
64.10119895992541
 30
0.0
 10
221.1209916906182
 20
64.09103672971229
 30
0.0
 10
221.3933830809589
 20
64.03998629377219
 30
0.0
 10
221.5235104108275
 20
63.99862519112764
 30
0.0
 10
221.6415857530128
 20
63.94285132317537
 30
0.0
  0
ARC
  5
1EE
330
1F
100
AcDbEntity
  8
0
  6
Continuous
 62
     7
370
    25
100
AcDbCircle
 10
204.3116257034
 20
59.2067816288
 30
0.0
 40
4.143252031905902
100
AcDbArc
 50
211.7444095219
 51
236.2139194594
  0
SPLINE
  5
1EF
330
1F
100
AcDbEntity
  8
0
  6
Continuous
 62
     7
370
    25
100
AcDbSpline
210
0.0
220
0.0
230
1.0
 70
     8
 71
     3
 72
     8
 73
     4
 74
     0
 42
0.000000001
 43
0.00000001
 40
0.0
 40
0.0
 40
0.0
 40
0.0
 40
1.0
 40
1.0
 40
1.0
 40
1.0
 10
202.218632083876
 20
56.10214690393669
 30
0.0
 10
201.7418587920519
 20
56.41023971186934
 30
0.0
 10
201.265056415207
 20
56.71846915744209
 30
0.0
 10
200.7882239706813
 20
57.02683431366201
 30
0.0
  0
SPLINE
  5
1F0
330
1F
100
AcDbEntity
  8
0
  6
Continuous
 62
     7
370
    25
100
AcDbSpline
210
0.0
220
0.0
230
1.0
 70
     8
 71
     3
 72
    23
 73
    19
 74
     0
 42
0.000000001
 43
0.00000001
 40
0.0
 40
0.0
 40
0.0
 40
0.0
 40
0.0521036415684141
 40
0.1035646240942128
 40
0.1544751946758079
 40
0.2049306267497427
 40
0.2550287880868969
 40
0.3048696389164994
 40
0.3545546704630395
 40
0.4041862979540088
 40
0.4538672252136959
 40
0.5036997999425104
 40
0.590187023076665
 40
0.6742716378260809
 40
0.7565997087257926
 40
0.8378563983752378
 40
0.9187511781386904
 40
1.0
 40
1.0
 40
1.0
 40
1.0
 10
203.0991968874177
 20
55.92741620581659
 30
0.0
 10
203.0939279484776
 20
55.91749474358146
 30
0.0
 10
203.0834550589774
 20
55.89777419284994
 30
0.0
 10
203.0642087632149
 20
55.873206363897
 30
0.0
 10
203.0424130228822
 20
55.85251778163728
 30
0.0
 10
203.0177617316774
 20
55.83598684634003
 30
0.0
 10
202.9902652171385
 20
55.82346934676379
 30
0.0
 10
202.9598541631312
 20
55.81493472294153
 30
0.0
 10
202.9264837913585
 20
55.81032485029375
 30
0.0
 10
202.8901079030866
 20
55.80959010715776
 30
0.0
 10
202.8506795314973
 20
55.8126851897097
 30
0.0
 10
202.7978311399462
 20
55.82122096519011
 30
0.0
 10
202.7292921461742
 20
55.83881740403866
 30
0.0
 10
202.6415709142182
 20
55.87045401212555
 30
0.0
 10
202.5468399947237
 20
55.91263366945859
 30
0.0
 10
202.4448057473945
 20
55.96537010518516
 30
0.0
 10
202.3358918342072
 20
56.0276866610948
 30
0.0
 10
202.2577755232226
 20
56.0772907193449
 30
0.0
 10
202.218632083876
 20
56.10214690393668
 30
0.0
  0
SPLINE
  5
1F1
330
1F
100
AcDbEntity
  8
0
  6
Continuous
 62
     7
370
    25
100
AcDbSpline
210
0.0
220
0.0
230
1.0
 70
     8
 71
     3
 72
     8
 73
     4
 74
     0
 42
0.000000001
 43
0.00000001
 40
0.0
 40
0.0
 40
0.0
 40
0.0
 40
1.0
 40
1.0
 40
1.0
 40
1.0
 10
204.5726999138698
 20
54.98009606926145
 30
0.0
 10
204.081332601829
 20
55.29597068922858
 30
0.0
 10
203.5899464019033
 20
55.61195671051771
 30
0.0
 10
203.0985406917599
 20
55.92805359136004
 30
0.0
  0
SPLINE
  5
1F2
330
1F
100
AcDbEntity
  8
0
  6
Continuous
 62
     7
370
    25
100
AcDbSpline
210
0.0
220
0.0
230
1.0
 70
     8
 71
     3
 72
    18
 73
    14
 74
     0
 42
0.000000001
 43
0.00000001
 40
0.0
 40
0.0
 40
0.0
 40
0.0
 40
0.0923824559397059
 40
0.1844689291547896
 40
0.2764953615916986
 40
0.3686975365456813
 40
0.4613092839965452
 40
0.5545607518407201
 40
0.648676805150765
 40
0.7438756050126222
 40
0.840367404429405
 40
0.9203921078117897
 40
1.0
 40
1.0
 40
1.0
 40
1.0
 10
205.3862640330711
 20
54.33578834471605
 30
0.0
 10
205.3626965189484
 20
54.35106231898137
 30
0.0
 10
205.3156369982976
 20
54.38156133146162
 30
0.0
 10
205.2432392103356
 20
54.43119390407203
 30
0.0
 10
205.1697570014406
 20
54.48352344674024
 30
0.0
 10
205.0950575536959
 20
54.53884113244793
 30
0.0
 10
205.0191967639278
 20
54.59707944756151
 30
0.0
 10
204.9421854831407
 20
54.65827235919927
 30
0.0
 10
204.8640533510592
 20
54.72243607578115
 30
0.0
 10
204.7848271164145
 20
54.78958503564877
 30
0.0
 10
204.7095306320039
 20
54.85543594539539
 30
0.0
 10
204.6387033238812
 20
54.91896753220401
 30
0.0
 10
204.5947989530738
 20
54.95962827721765
 30
0.0
 10
204.5729040862684
 20
54.97990556578623
 30
0.0
  0
LINE
  5
1F3
330
1F
100
AcDbEntity
  8
0
  6
Continuous
 62
     7
370
    25
100
AcDbLine
 10
206.0259705649
 20
53.9240345382
 30
0.0
 11
205.3862637226
 21
54.3357882058
 31
0.0
  0
SPLINE
  5
1F4
330
1F
100
AcDbEntity
  8
0
  6
Continuous
 62
     7
370
    25
100
AcDbSpline
210
0.0
220
0.0
230
1.0
 70
     8
 71
     3
 72
    25
 73
    21
 74
     0
 42
0.000000001
 43
0.00000001
 40
0.0
 40
0.0
 40
0.0
 40
0.0
 40
0.0280105225426455
 40
0.0559601148860777
 40
0.0839014045043132
 40
0.1118870776786386
 40
0.1399695827588948
 40
0.1682008401739887
 40
0.196631967042423
 40
0.2253130233141507
 40
0.2542927850735879
 40
0.3799486436587393
 40
0.5057850221667148
 40
0.6313085886345164
 40
0.7532068238012837
 40
0.8039473267959832
 40
0.8535894438560202
 40
0.9025339722399832
 40
0.9511970353794942
 40
1.0
 40
1.0
 40
1.0
 40
1.0
 10
207.1283361580614
 20
54.63994052859312
 30
0.0
 10
207.133284265592
 20
54.61231666748564
 30
0.0
 10
207.1431697172275
 20
54.55712903438033
 30
0.0
 10
207.1547053668307
 20
54.47796832701041
 30
0.0
 10
207.1637784886435
 20
54.40166498791203
 30
0.0
 10
207.1701472973564
 20
54.32846922694242
 30
0.0
 10
207.1738635361665
 20
54.25832175872903
 30
0.0
 10
207.1749001571494
 20
54.19124547221625
 30
0.0
 10
207.1732516819224
 20
54.12724156298982
 30
0.0
 10
207.1689055300536
 20
54.06631270972297
 30
0.0
 10
207.1540492054859
 20
53.94442458822581
 30
0.0
 10
207.1089609484209
 20
53.78952371657061
 30
0.0
 10
206.9956014279279
 20
53.65858059822851
 30
0.0
 10
206.8337772059341
 20
53.60270419741801
 30
0.0
 10
206.6597619868017
 20
53.62257824980124
 30
0.0
 10
206.5084010661151
 20
53.66989605215755
 30
0.0
 10
206.3980008334163
 20
53.71481147589318
 30
0.0
 10
206.2808413379675
 20
53.77218720718434
 30
0.0
 10
206.1572756710342
 20
53.84086427163678
 30
0.0
 10
206.0697806209397
 20
53.89628451758961
 30
0.0
 10
206.0259703012584
 20
53.92403441531967
 30
0.0
  0
ARC
  5
1F5
330
1F
100
AcDbEntity
  8
0
  6
Continuous
 62
     7
370
    25
100
AcDbCircle
 10
218.3213573225
 20
56.4259908972
 30
0.0
 40
11.33462419218321
100
AcDbArc
 50
170.9338462887
 51
189.0661537113
  0
SPLINE
  5
1F6
330
1F
100
AcDbEntity
  8
0
  6
Continuous
 62
     7
370
    25
100
AcDbSpline
210
0.0
220
0.0
230
1.0
 70
     8
 71
     3
 72
    26
 73
    22
 74
     0
 42
0.000000001
 43
0.00000001
 40
0.0
 40
0.0
 40
0.0
 40
0.0
 40
0.0241259796969038
 40
0.048215991228259
 40
0.0723203915136643
 40
0.0964895678725153
 40
0.1207736231978452
 40
0.1452220711257179
 40
0.1698835501670319
 40
0.1948055644482148
 40
0.2200342569523467
 40
0.2456142191612283
 40
0.369097148691835
 40
0.4940698769485373
 40
0.6192566784762581
 40
0.7454656653603327
 40
0.7971495824713788
 40
0.8481710308405456
 40
0.8988013269235281
 40
0.9493179290492212
 40
1.0
 40
1.0
 40
1.0
 40
1.0
 10
206.0259703012584
 20
61.68814480668425
 30
0.0
 10
206.0476885306349
 20
61.67381328328886
 30
0.0
 10
206.0910926108119
 20
61.64517160261926
 30
0.0
 10
206.1543997281744
 20
61.59717930468972
 30
0.0
 10
206.2162612958932
 20
61.54558010680354
 30
0.0
 10
206.2765658110302
 20
61.49000531392999
 30
0.0
 10
206.3353556629703
 20
61.43055007330274
 30
0.0
 10
206.3926361813999
 20
61.36718576446545
 30
0.0
 10
206.4484273207256
 20
61.29991698650183
 30
0.0
 10
206.5027485681466
 20
61.22874287254223
 30
0.0
 10
206.5556275433545
 20
61.1536537327947
 30
0.0
 10
206.67242236809
 20
60.97439928409059
 30
0.0
 10
206.8342919260156
 20
60.66409381224756
 30
0.0
 10
206.9974768335485
 20
60.19418002411657
 30
0.0
 10
207.108988238721
 20
59.69521699020849
 30
0.0
 10
207.1561220768296
 20
59.28633331715155
 30
0.0
 10
207.1712410163621
 20
58.98206136056083
 30
0.0
 10
207.1731941553447
 20
58.78081211886552
 30
0.0
 10
207.1667161297055
 20
58.58515219914293
 30
0.0
 10
207.1525892070184
 20
58.39451591124546
 30
0.0
 10
207.1364293153334
 20
58.27293263750664
 30
0.0
 10
207.1283361580614
 20
58.21204160090776
 30
0.0
  0
LINE
  5
1F7
330
1F
100
AcDbEntity
  8
0
  6
Continuous
 62
     7
370
    25
100
AcDbLine
 10
205.3862637226
 20
62.101119657
 30
0.0
 11
206.0259705649
 21
61.6881446859
 31
0.0
  0
SPLINE
  5
1F8
330
1F
100
AcDbEntity
  8
0
  6
Continuous
 62
     7
370
    25
100
AcDbSpline
210
0.0
220
0.0
230
1.0
 70
     8
 71
     3
 72
    14
 73
    10
 74
     0
 42
0.000000001
 43
0.00000001
 40
0.0
 40
0.0
 40
0.0
 40
0.0
 40
0.0789261963155847
 40
0.1582328720522156
 40
0.3308475394554963
 40
0.5000195457601538
 40
0.667035788356921
 40
0.8332395193656904
 40
1.0
 40
1.0
 40
1.0
 40
1.0
 10
204.5723113172194
 20
62.30970208996941
 30
0.0
 10
204.5940281985548
 20
62.31130525382783
 30
0.0
 10
204.6375666517697
 20
62.31451930991477
 30
0.0
 10
204.7290917704183
 20
62.31534034998254
 30
0.0
 10
204.8460001038515
 20
62.30740436819929
 30
0.0
 10
204.986820442234
 20
62.28112869932146
 30
0.0
 10
205.1240327500467
 20
62.23817110078922
 30
0.0
 10
205.2579634244635
 20
62.17981397597962
 30
0.0
 10
205.3434495164228
 20
62.12738042982958
 30
0.0
 10
205.3862640330711
 20
62.10111981967513
 30
0.0
  0
SPLINE
  5
1F9
330
1F
100
AcDbEntity
  8
0
  6
Continuous
 62
     7
370
    25
100
AcDbSpline
210
0.0
220
0.0
230
1.0
 70
     8
 71
     3
 72
     8
 73
     4
 74
     0
 42
0.000000001
 43
0.00000001
 40
0.0
 40
0.0
 40
0.0
 40
0.0
 40
1.0
 40
1.0
 40
1.0
 40
1.0
 10
202.7700077342155
 20
63.47209350138154
 30
0.0
 10
203.3707659579113
 20
63.08482601822282
 30
0.0
 10
203.9714948207714
 20
62.69735866829969
 30
0.0
 10
204.5721954651179
 20
62.30969177571025
 30
0.0
  0
SPLINE
  5
1FA
330
1F
100
AcDbEntity
  8
0
  6
Continuous
 62
     7
370
    25
100
AcDbSpline
210
0.0
220
0.0
230
1.0
 70
     8
 71
     3
 72
    13
 73
     9
 74
     0
 42
0.000000001
 43
0.00000001
 40
0.0
 40
0.0
 40
0.0
 40
0.0
 40
0.1667030582308044
 40
0.3329480818053134
 40
0.4990671507274983
 40
0.6653938523718556
 40
0.8322612710550201
 40
1.0
 40
1.0
 40
1.0
 40
1.0
 10
202.428179199181
 20
63.77315828046733
 30
0.0
 10
202.448480381621
 20
63.7595931737881
 30
0.0
 10
202.4890269668097
 20
63.73250023202525
 30
0.0
 10
202.5481766037973
 20
63.68730565901753
 30
0.0
 10
202.6059481486998
 20
63.63889451053458
 30
0.0
 10
202.6621978861594
 20
63.58685939576411
 30
0.0
 10
202.7171250949055
 20
63.53156142855509
 30
0.0
 10
202.7523458044961
 20
63.49194417339474
 30
0.0
 10
202.770002016437
 20
63.4720839643938
 30
0.0
  0
SPLINE
  5
1FB
330
1F
100
AcDbEntity
  8
0
  6
Continuous
 62
     7
370
    25
100
AcDbSpline
210
0.0
220
0.0
230
1.0
 70
     8
 71
     3
 72
     8
 73
     4
 74
     0
 42
0.000000001
 43
0.00000001
 40
0.0
 40
0.0
 40
0.0
 40
0.0
 40
1.0
 40
1.0
 40
1.0
 40
1.0
 10
200.4841986833903
 20
65.0278801328468
 30
0.0
 10
201.1322287557906
 20
64.60988481696204
 30
0.0
 10
201.7802217328924
 20
64.19164405454441
 30
0.0
 10
202.428179199181
 20
63.77315828046731
 30
0.0
  0
LWPOLYLINE
  5
1FC
330
1F
100
AcDbEntity
  8
0
  6
Continuous
 62
     7
370
    25
100
AcDbPolyline
 90
       18
 70
   128
 43
0.0
 10
200.4841993337
 20
65.0278801833
 10
200.9095677194
 20
66.2531288787
 10
201.4306081341
 20
67.4699160519
 10
202.0402655905
 20
68.6617669363
 10
202.7302858918
 20
69.8125441432
 10
203.491326267
 20
70.9066662843
 10
204.3130818117
 20
71.9293189886
 10
205.1844270749
 20
72.8666567917
 10
206.0935637379
 20
73.7059880096
 10
207.0281824513
 20
74.435948014
 10
207.9756288055
 20
75.0466536005
 10
208.9230746319
 20
75.5298353392
 10
209.8576918637
 20
75.8789523909
 10
210.7668258924
 20
76.0892766146
 10
211.6381672044
 20
76.1579604713
 10
212.4599184685
 20
76.0840749269
 10
213.2209532461
 20
75.8686189427
 10
213.5339370602
 20
75.7296271485
  0
SPLINE
  5
1FD
330
1F
100
AcDbEntity
  8
0
  6
Continuous
 62
     7
370
    25
100
AcDbSpline
210
0.0
220
0.0
230
1.0
 70
    11
 71
     3
 72
    39
 73
    35
 74
     0
 42
0.000000001
 43
0.00000001
 40
0.0
 40
0.0
 40
0.0
 40
0.0
 40
0.0310664058347798
 40
0.0621048158425991
 40
0.0931361551792733
 40
0.1235538293503577
 40
0.1538561545807598
 40
0.1850588072749104
 40
0.2160250992947717
 40
0.247186722379756
 40
0.2784462884306427
 40
0.3100516090231226
 40
0.3419834369140484
 40
0.3734259894013217
 40
0.4048604886785525
 40
0.4368740651833295
 40
0.468512068592407
 40
0.4998055358633177
 40
0.5309508213228404
 40
0.561864978443814
 40
0.5930416446592908
 40
0.6233742450133256
 40
0.6540913579073041
 40
0.6849496782718417
 40
0.7158160645167227
 40
0.7471731804043494
 40
0.7784514311866261
 40
0.8101295911560916
 40
0.8419598919689909
 40
0.8735175891922292
 40
0.9050808037889628
 40
0.9370235169792575
 40
0.9687441590033682
 40
0.9999999999999999
 40
0.9999999999999999
 40
0.9999999999999999
 40
0.9999999999999999
 10
213.6927841645957
 20
74.03307050818822
 30
0.0
 10
213.9556697847933
 20
74.004536020898
 30
0.0
 10
214.4825583952764
 20
73.91859353257551
 30
0.0
 10
215.2465704643498
 20
73.71821841250534
 30
0.0
 10
215.9537206524012
 20
73.47121630628568
 30
0.0
 10
216.5666317169957
 20
73.19323442813335
 30
0.0
 10
217.0637630426707
 20
72.89910073080348
 30
0.0
 10
217.4229547637428
 20
72.59759420261084
 30
0.0
 10
217.6446740325036
 20
72.29059669770763
 30
0.0
 10
217.7099259098844
 20
71.98009143630537
 30
0.0
 10
217.62307869877
 20
71.66094695155692
 30
0.0
 10
217.3807331110112
 20
71.3316269859841
 30
0.0
 10
217.000795248285
 20
70.99268626442722
 30
0.0
 10
216.4869892951263
 20
70.65484780001682
 30
0.0
 10
215.8610984842157
 20
70.32894989870782
 30
0.0
 10
215.1476274977272
 20
70.03230300546784
 30
0.0
 10
214.3837250214622
 20
69.7761996970292
 30
0.0
 10
213.5979319385583
 20
69.58717212903944
 30
0.0
 10
212.8163944835162
 20
69.47899620698428
 30
0.0
 10
212.0602814987625
 20
69.47133232361625
 30
0.0
 10
211.3579169123717
 20
69.56925435900388
 30
0.0
 10
210.7388965653279
 20
69.79090279250532
 30
0.0
 10
210.2298393003153
 20
70.12677087941645
 30
0.0
 10
209.8568957068816
 20
70.56658144559775
 30
0.0
 10
209.628293755634
 20
71.07765608612033
 30
0.0
 10
209.5594474489143
 20
71.62884117388357
 30
0.0
 10
209.6440638621394
 20
72.18651310219506
 30
0.0
 10
209.887172652075
 20
72.71659324311481
 30
0.0
 10
210.2693024948917
 20
73.18911759222782
 30
0.0
 10
210.7854380693053
 20
73.57523910312155
 30
0.0
 10
211.4124159298064
 20
73.85886329045385
 30
0.0
 10
212.1283233621729
 20
74.02860050918028
 30
0.0
 10
212.8967667543563
 20
74.0901393438908
 30
0.0
 10
213.4282955337288
 20
74.06177899163517
 30
0.0
 10
213.6927841645957
 20
74.03307050818822
 30
0.0
  0
LINE
  5
1FE
330
1F
100
AcDbEntity
  8
0
  6
Continuous
 62
     7
370
    25
100
AcDbLine
 10
204.4682467516
 20
57.5939438908
 30
0.0
 11
204.7789984291
 21
57.4275631903
 31
0.0
  0
LINE
  5
1FF
330
1F
100
AcDbEntity
  8
0
  6
Continuous
 62
     7
370
    25
100
AcDbLine
 10
203.4812887316
 20
58.1637026281
 30
0.0
 11
204.4682467516
 21
57.5939438908
 31
0.0
  0
ARC
  5
200
330
1F
100
AcDbEntity
  8
0
  6
Continuous
 62
     7
370
    25
100
AcDbCircle
 10
205.6892289941
 20
61.858400212
 30
0.0
 40
4.584914333881236
100
AcDbArc
 50
267.8978691887
 51
286.7728271903
  0
SPLINE
  5
201
330
1F
100
AcDbEntity
  8
0
  6
Continuous
 62
     7
370
    25
100
AcDbSpline
210
0.0
220
0.0
230
1.0
 70
     8
 71
     3
 72
    12
 73
     8
 74
     0
 42
0.000000001
 43
0.00000001
 40
0.0
 40
0.0
 40
0.0
 40
0.0
 40
0.1427340617478052
 40
0.374476004195105
 40
0.607135784882394
 40
0.8192243157844539
 40
1.0
 40
1.0
 40
1.0
 40
1.0
 10
215.031290122895
 20
71.03057479285249
 30
0.0
 10
214.8399875029143
 20
71.13555220985477
 30
0.0
 10
214.3380873969043
 20
71.41097016663645
 30
0.0
 10
213.3432790310207
 20
71.82567258550186
 30
0.0
 10
212.1317532077338
 20
72.1187203300418
 30
0.0
 10
211.0138581193453
 20
72.15807714933348
 30
0.0
 10
210.435663600857
 20
71.95216373081553
 30
0.0
 10
210.1696085475656
 20
71.85741308239976
 30
0.0
  0
SPLINE
  5
202
330
1F
100
AcDbEntity
  8
0
  6
Continuous
 62
     7
370
    25
100
AcDbSpline
210
0.0
220
0.0
230
1.0
 70
     8
 71
     3
 72
    10
 73
     6
 74
     0
 42
0.000000001
 43
0.00000001
 40
0.0
 40
0.0
 40
0.0
 40
0.0
 40
0.3798174073072795
 40
0.9603711649033085
 40
1.0
 40
1.0
 40
1.0
 40
1.0
 10
216.1711702447545
 20
70.502347865334
 30
0.0
 10
216.0415176275062
 20
70.57267642717139
 30
0.0
 10
215.7136900117517
 20
70.75050272359249
 30
0.0
 10
215.3057614667415
 20
70.9235555739949
 30
0.0
 10
215.0491286853096
 20
71.02276100624321
 30
0.0
 10
215.0327301950979
 20
71.0291001001836
 30
0.0
  0
SPLINE
  5
203
330
1F
100
AcDbEntity
  8
0
  6
Continuous
 62
     7
370
    25
100
AcDbSpline
210
0.0
220
0.0
230
1.0
 70
     8
 71
     3
 72
    24
 73
    20
 74
     0
 42
0.000000001
 43
0.00000001
 40
0.0
 40
0.0
 40
0.0
 40
0.0
 40
0.0607457727767553
 40
0.1128928403547249
 40
0.1564470237877851
 40
0.2383384714097953
 40
0.3124676064624768
 40
0.3863043989940059
 40
0.4127382431574145
 40
0.4400805169185205
 40
0.4683390996772612
 40
0.5351110745617028
 40
0.6246249054764821
 40
0.684040531181888
 40
0.7360459019054342
 40
0.781306924269878
 40
0.8609598361714736
 40
0.9367204860053429
 40
0.9999999999999999
 40
0.9999999999999999
 40
0.9999999999999999
 40
0.9999999999999999
 10
213.6379055975934
 20
73.45921260823147
 30
0.0
 10
213.4539488082559
 20
73.47810717319578
 30
0.0
 10
213.1120747402911
 20
73.51322173357724
 30
0.0
 10
212.6478567673302
 20
73.50673118520923
 30
0.0
 10
212.1383951549946
 20
73.45900699233603
 30
0.0
 10
211.5993000560392
 20
73.33439039467673
 30
0.0
 10
211.0564620697403
 20
73.09190010882608
 30
0.0
 10
210.7160690587262
 20
72.83452736362669
 30
0.0
 10
210.5094423429105
 20
72.6197202543303
 30
0.0
 10
210.3914583068962
 20
72.47321692748953
 30
0.0
 10
210.2392877873894
 20
72.24346596362228
 30
0.0
 10
210.0726083544681
 20
71.87052472824118
 30
0.0
 10
210.0042409395302
 20
71.40795861048298
 30
0.0
 10
210.0546116647269
 20
70.97964439397131
 30
0.0
 10
210.1599978323963
 20
70.65966545680241
 30
0.0
 10
210.3423668203579
 20
70.31940540052642
 30
0.0
 10
210.6421621811747
 20
69.98214555852564
 30
0.0
 10
211.0716910506165
 20
69.68881199207074
 30
0.0
 10
211.4110870062179
 20
69.58261380928371
 30
0.0
 10
211.565551806394
 20
69.53428123250276
 30
0.0
  0
SPLINE
  5
204
330
1F
100
AcDbEntity
  8
0
  6
Continuous
 62
     7
370
    25
100
AcDbSpline
210
0.0
220
0.0
230
1.0
 70
     8
 71
     3
 72
    21
 73
    17
 74
     0
 42
0.000000001
 43
0.00000001
 40
0.0
 40
0.0
 40
0.0
 40
0.0
 40
0.0243180980193506
 40
0.0825849344087594
 40
0.1477304547439982
 40
0.2197941818299148
 40
0.3003372292584771
 40
0.3655477519425619
 40
0.415422122604495
 40
0.518459965344687
 40
0.610314060208313
 40
0.7035383027339017
 40
0.7532299934812725
 40
0.8050175956152811
 40
0.8939958303882575
 40
0.9999999999999999
 40
0.9999999999999999
 40
0.9999999999999999
 40
0.9999999999999999
 10
216.9353279227063
 20
70.9746923090361
 30
0.0
 10
216.9610955535937
 20
70.99895292749552
 30
0.0
 10
217.0486031417698
 20
71.08134265972684
 30
0.0
 10
217.1574677647138
 20
71.22587922561053
 30
0.0
 10
217.2545398065867
 20
71.41469345068425
 30
0.0
 10
217.2885686074502
 20
71.61790430091101
 30
0.0
 10
217.2447558481369
 20
71.8181324236449
 30
0.0
 10
217.138155781619
 20
71.99692684390932
 30
0.0
 10
216.9617510034771
 20
72.19335461875191
 30
0.0
 10
216.6778418318704
 20
72.41621158935206
 30
0.0
 10
216.226259107204
 20
72.67164398559319
 30
0.0
 10
215.7786994516918
 20
72.87828338609103
 30
0.0
 10
215.3698052608396
 20
73.0367872200281
 30
0.0
 10
214.9477257667073
 20
73.17930406380552
 30
0.0
 10
214.3694131015267
 20
73.3425605893072
 30
0.0
 10
213.8955345160186
 20
73.41812904681072
 30
0.0
 10
213.6379055975934
 20
73.45921260823145
 30
0.0
  0
LINE
  5
205
330
1F
100
AcDbEntity
  8
0
  6
Continuous
 62
     7
370
    25
100
AcDbLine
 10
207.1283358757
 20
58.2120414201
 30
0.0
 11
207.1230978127
 21
58.5081248431
 31
0.0
  0
LINE
  5
206
330
1F
100
AcDbEntity
  8
0
  6
Continuous
 62
     7
370
    25
100
AcDbLine
 10
207.1230978127
 20
58.5081248431
 30
0.0
 11
207.1661995507
 21
59.1598068815
 31
0.0
  0
LINE
  5
207
330
1F
100
AcDbEntity
  8
0
  6
Continuous
 62
     7
370
    25
100
AcDbLine
 10
206.7360132534
 20
60.8912475465
 30
0.0
 11
206.3321344921
 21
61.31740963
 31
0.0
  0
SPLINE
  5
208
330
1F
100
AcDbEntity
  8
0
  6
Continuous
 62
     7
370
    25
100
AcDbSpline
210
0.0
220
0.0
230
1.0
 70
     8
 71
     3
 72
    19
 73
    15
 74
     0
 42
0.000000001
 43
0.00000001
 40
0.0
 40
0.0
 40
0.0
 40
0.0
 40
0.0210492621018804
 40
0.1455865440207667
 40
0.2712169722633744
 40
0.3929514297049947
 40
0.5136082229787104
 40
0.6366369099308349
 40
0.699422462668311
 40
0.7643939711952468
 40
0.8122544601557282
 40
0.8606584764820763
 40
0.9188817427801165
 40
1.0
 40
1.0
 40
1.0
 40
1.0
 10
210.048661045251
 20
71.20446266077366
 30
0.0
 10
210.0411924702652
 20
71.25922300767905
 30
0.0
 10
209.9895363116935
 20
71.6379711850142
 30
0.0
 10
210.2323072063532
 20
72.24812209382836
 30
0.0
 10
210.8166376737681
 20
72.93749579706792
 30
0.0
 10
211.7227640414083
 20
73.3547953473
 30
0.0
 10
212.7971101698704
 20
73.47522130498862
 30
0.0
 10
213.7510440389661
 20
73.31452176140105
 30
0.0
 10
214.4857065815353
 20
73.01715566255923
 30
0.0
 10
214.9585098210077
 20
72.71949758515453
 30
0.0
 10
215.3154799911271
 20
72.34858578037718
 30
0.0
 10
215.5103281326354
 20
71.9162644850696
 30
0.0
 10
215.5393571628795
 20
71.41332315384444
 30
0.0
 10
215.4769835612592
 20
71.07957814126927
 30
0.0
 10
215.4406725052851
 20
70.8852870707224
 30
0.0
  0
SPLINE
  5
209
330
1F
100
AcDbEntity
  8
0
  6
Continuous
 62
     7
370
    25
100
AcDbSpline
210
0.0
220
0.0
230
1.0
 70
     8
 71
     3
 72
    10
 73
     6
 74
     0
 42
0.000000001
 43
0.00000001
 40
0.0
 40
0.0
 40
0.0
 40
0.0
 40
0.2701434459966792
 40
0.8974120102126962
 40
1.0
 40
1.0
 40
1.0
 40
1.0
 10
215.4434003612733
 20
70.88404851730002
 30
0.0
 10
215.5263507081767
 20
70.84526812824555
 30
0.0
 10
215.8019103734789
 20
70.71644032429941
 30
0.0
 10
216.0981485824855
 20
70.56265866339857
 30
0.0
 10
216.2642816638973
 20
70.45653362369866
 30
0.0
 10
216.2876331824468
 20
70.44161678226016
 30
0.0
  0
ARC
  5
20A
330
1F
100
AcDbEntity
  8
0
  6
Continuous
 62
     7
370
    25
100
AcDbCircle
 10
219.4535089266
 20
56.670829525
 30
0.0
 40
12.46654291791859
100
AcDbArc
 50
171.5249863735
 51
179.8211981812
  0
SPLINE
  5
20B
330
1F
100
AcDbEntity
  8
0
  6
Continuous
 62
     7
370
    25
100
AcDbSpline
210
0.0
220
0.0
230
1.0
 70
     8
 71
     3
 72
    14
 73
    10
 74
     0
 42
0.000000001
 43
0.00000001
 40
0.0
 40
0.0
 40
0.0
 40
0.0
 40
0.0003951393068452
 40
0.0003951393068452
 40
0.0003951393068452
 40
0.0008163352168296
 40
0.0008163352168296
 40
0.0008163352168296
 40
0.0012378579336484
 40
0.0012378579336484
 40
0.0012378579336484
 40
0.0012378579336484
 10
215.035322698435
 20
71.02929583946808
 30
0.0
 10
215.0807845126649
 20
71.0148589768437
 30
0.0
 10
215.1256721172846
 20
70.99999311627879
 30
0.0
 10
215.1699558099584
 20
70.98470932867401
 30
0.0
 10
215.2171591021922
 20
70.96841788933848
 30
0.0
 10
215.263684915246
 20
70.95164841125681
 30
0.0
 10
215.3094958244824
 20
70.93441960046387
 30
0.0
 10
215.3553422124662
 20
70.91717744663455
 30
0.0
 10
215.4004814480335
 20
70.89947174043249
 30
0.0
 10
215.444875006071
 20
70.8813288837442
 30
0.0
  0
LINE
  5
20C
330
1F
100
AcDbEntity
  8
0
  6
Continuous
 62
     7
370
    25
100
AcDbLine
 10
206.3321344921
 20
61.31740963
 30
0.0
 11
205.6921978178
 21
61.7296412701
 31
0.0
  0
LINE
  5
20D
330
1F
100
AcDbEntity
  8
0
  6
Continuous
 62
     7
370
    25
100
AcDbLine
 10
205.3862637226
 20
62.101119657
 30
0.0
 11
205.6921978178
 21
61.7296412701
 31
0.0
  0
SPLINE
  5
20E
330
1F
100
AcDbEntity
  8
0
  6
Continuous
 62
     7
370
    25
100
AcDbSpline
210
0.0
220
0.0
230
1.0
 70
     8
 71
     3
 72
    13
 73
     9
 74
     0
 42
0.000000001
 43
0.00000001
 40
0.0
 40
0.0
 40
0.0
 40
0.0
 40
0.1618542299052077
 40
0.3254858841874489
 40
0.4910085196967187
 40
0.6585318473110602
 40
0.828161695440384
 40
1.0
 40
1.0
 40
1.0
 40
1.0
 10
205.6921982294132
 20
61.72964127403825
 30
0.0
 10
205.6726208373933
 20
61.74220425107295
 30
0.0
 10
205.6332510615437
 20
61.76746816719402
 30
0.0
 10
205.5717151217692
 20
61.80016186411085
 30
0.0
 10
205.5081584625185
 20
61.8291079378178
 30
0.0
 10
205.4425403598632
 20
61.853620305282
 30
0.0
 10
205.3751130908128
 20
61.87405536863318
 30
0.0
 10
205.3292284906179
 20
61.88365202362149
 30
0.0
 10
205.3061378104452
 20
61.88848138445543
 30
0.0
  0
SPLINE
  5
20F
330
1F
100
AcDbEntity
  8
0
  6
Continuous
 62
     7
370
    25
100
AcDbSpline
210
0.0
220
0.0
230
1.0
 70
     8
 71
     3
 72
     9
 73
     5
 74
     0
 42
0.000000001
 43
0.00000001
 40
0.0
 40
0.0
 40
0.0
 40
0.0
 40
0.4907282259505859
 40
1.0
 40
1.0
 40
1.0
 40
1.0
 10
205.3061319831533
 20
61.88845338742442
 30
0.0
 10
205.2820384606754
 20
61.89654891964256
 30
0.0
 10
205.2329409741162
 20
61.91304589656384
 30
0.0
 10
205.182240280296
 20
61.92783956558007
 30
0.0
 10
205.1564198480087
 20
61.93537356364466
 30
0.0
  0
SPLINE
  5
210
330
1F
100
AcDbEntity
  8
0
  6
Continuous
 62
     7
370
    25
100
AcDbSpline
210
0.0
220
0.0
230
1.0
 70
     8
 71
     3
 72
    14
 73
    10
 74
     0
 42
0.000000001
 43
0.00000001
 40
0.0
 40
0.0
 40
0.0
 40
0.0
 40
0.0310276388063898
 40
0.0622853718665477
 40
0.1248003166898006
 40
0.2498289731748368
 40
0.4998892603607338
 40
0.7606803622944698
 40
1.0
 40
1.0
 40
1.0
 40
1.0
 10
204.5724791587203
 20
62.3094813062905
 30
0.0
 10
204.5784713981246
 20
62.30565026263698
 30
0.0
 10
204.5905003140838
 20
62.2979597651394
 30
0.0
 10
204.6145601221328
 20
62.28252187563278
 30
0.0
 10
204.6567937947791
 20
62.25545142270193
 30
0.0
 10
204.7413563692915
 20
62.20123939790655
 30
0.0
 10
204.864643338785
 20
62.12223621602428
 30
0.0
 10
205.0107750452449
 20
62.02863004134871
 30
0.0
 10
205.1091416617828
 20
61.96564696495502
 30
0.0
 10
205.1562133624408
 20
61.93550746618123
 30
0.0
  0
LINE
  5
211
330
1F
100
AcDbEntity
  8
0
  6
Continuous
 62
     7
370
    25
100
AcDbLine
 10
202.7699790035
 20
63.4721119833
 30
0.0
 11
203.0609463576
 21
63.2840334441
 31
0.0
  0
SPLINE
  5
212
330
1F
100
AcDbEntity
  8
0
  6
Continuous
 62
     7
370
    25
100
AcDbSpline
210
0.0
220
0.0
230
1.0
 70
     8
 71
     3
 72
     8
 73
     4
 74
     0
 42
0.000000001
 43
0.00000001
 40
0.0
 40
0.0
 40
0.0
 40
0.0
 40
1.0
 40
1.0
 40
1.0
 40
1.0
 10
203.0923346610157
 20
63.26381091397936
 30
0.0
 10
203.0818921551638
 20
63.27063633887675
 30
0.0
 10
203.071426222274
 20
63.27737930566327
 30
0.0
 10
203.0609384574575
 20
63.28403839331626
 30
0.0
  0
SPLINE
  5
213
330
1F
100
AcDbEntity
  8
0
  6
Continuous
 62
     7
370
    25
100
AcDbSpline
210
0.0
220
0.0
230
1.0
 70
     8
 71
     3
 72
     8
 73
     4
 74
     0
 42
0.000000001
 43
0.00000001
 40
0.0
 40
0.0
 40
0.0
 40
0.0
 40
1.0
 40
1.0
 40
1.0
 40
1.0
 10
200.3063302821895
 20
65.14206656578989
 30
0.0
 10
200.3653300463603
 20
65.10332589887041
 30
0.0
 10
200.4246176098716
 20
65.06526392157063
 30
0.0
 10
200.4841986833607
 20
65.02788013310987
 30
0.0
  0
SPLINE
  5
214
330
1F
100
AcDbEntity
  8
0
  6
Continuous
 62
     7
370
    25
100
AcDbSpline
210
0.0
220
0.0
230
1.0
 70
     8
 71
     3
 72
     8
 73
     4
 74
     0
 42
0.000000001
 43
0.00000001
 40
0.0
 40
0.0
 40
0.0
 40
0.0
 40
1.0
 40
1.0
 40
1.0
 40
1.0
 10
200.2814805360922
 20
65.50527674372675
 30
0.0
 10
200.2889547481828
 20
65.38431890301563
 30
0.0
 10
200.2972508520728
 20
65.26324706060569
 30
0.0
 10
200.3063302821916
 20
65.14206656579061
 30
0.0
  0
LWPOLYLINE
  5
215
330
1F
100
AcDbEntity
  8
0
  6
Continuous
 62
     7
370
    25
100
AcDbPolyline
 90
       15
 70
   128
 43
0.0
 10
200.2814808949
 20
65.5052760783
 10
200.6969322588
 20
66.6695274548
 10
201.2014636213
 20
67.8240730499
 10
201.7884157802
 20
68.9536738121
 10
202.4500409594
 20
70.0434181712
 10
203.177604883
 20
71.0789208902
 10
203.9615036674
 20
72.0465129794
 10
204.7913896025
 20
72.9334222947
 10
205.6563078006
 20
73.7279406368
 10
206.5448408285
 20
74.4195802499
 10
207.4452597616
 20
74.9992112142
 10
208.3456786947
 20
75.4591818216
 10
209.2342117226
 20
75.793420606
 10
210.0991299207
 20
75.9975155593
 10
210.2454433639
 20
76.0193837698
  0
SPLINE
  5
216
330
1F
100
AcDbEntity
  8
0
  6
Continuous
 62
     7
370
    25
100
AcDbSpline
210
0.0
220
0.0
230
1.0
 70
     8
 71
     3
 72
    10
 73
     6
 74
     0
 42
0.000000001
 43
0.00000001
 40
0.0
 40
0.0
 40
0.0
 40
0.0
 40
0.2409818396634726
 40
0.5031433556203718
 40
1.0
 40
1.0
 40
1.0
 40
1.0
 10
206.3321344921309
 20
54.61156800677293
 30
0.0
 10
206.4143803631339
 20
54.55989148485237
 30
0.0
 10
206.5861006204784
 20
54.451996638161
 30
0.0
 10
206.8638219795053
 20
54.32227392769675
 30
0.0
 10
206.9847992265494
 20
54.34505186880174
 30
0.0
 10
207.0639914674649
 20
54.35996240978047
 30
0.0
  0
LINE
  5
217
330
1F
100
AcDbEntity
  8
0
  6
Continuous
 62
     7
370
    25
100
AcDbLine
 10
201.548960436
 20
64.3406407397
 30
0.0
 11
200.7870817336
 21
64.8312751474
 31
0.0
  0
LINE
  5
218
330
1F
100
AcDbEntity
  8
0
  6
Continuous
 62
     7
370
    25
100
AcDbLine
 10
200.7870817336
 20
64.8312751474
 30
0.0
 11
200.3063304134
 21
65.1420665235
 31
0.0
  0
LINE
  5
219
330
1F
100
AcDbEntity
  8
0
  6
Continuous
 62
     7
370
    25
100
AcDbLine
 10
205.3862637226
 20
54.3357882058
 30
0.0
 11
205.6921978178
 21
55.0237996469
 31
0.0
  0
LINE
  5
21A
330
1F
100
AcDbEntity
  8
0
  6
Continuous
 62
     7
370
    25
100
AcDbLine
 10
205.6921978178
 20
55.0237996469
 30
0.0
 11
206.3321344921
 21
54.6115680068
 31
0.0
  0
SPLINE
  5
21B
330
1F
100
AcDbEntity
  8
0
  6
Continuous
 62
     7
370
    25
100
AcDbSpline
210
0.0
220
0.0
230
1.0
 70
     8
 71
     3
 72
    13
 73
     9
 74
     0
 42
0.000000001
 43
0.00000001
 40
0.0
 40
0.0
 40
0.0
 40
0.0
 40
0.1722587823584898
 40
0.3421398271275632
 40
0.5097456257942847
 40
0.675182899330312
 40
0.838562619015417
 40
1.0
 40
1.0
 40
1.0
 40
1.0
 10
205.3061262986399
 20
55.30510935229154
 30
0.0
 10
205.3292778225927
 20
55.2869897613564
 30
0.0
 10
205.3752613033448
 20
55.25100068941889
 30
0.0
 10
205.4428023160598
 20
55.20000070600059
 30
0.0
 10
205.5084619307464
 20
55.15167602580942
 30
0.0
 10
205.5719860019956
 20
55.10624501990175
 30
0.0
 10
205.6334163807136
 20
55.06341945214504
 30
0.0
 10
205.6726825476837
 20
55.03695363497209
 30
0.0
 10
205.6921982294132
 20
55.02379985642654
 30
0.0
  0
SPLINE
  5
21C
330
1F
100
AcDbEntity
  8
0
  6
Continuous
 62
     7
370
    25
100
AcDbSpline
210
0.0
220
0.0
230
1.0
 70
     8
 71
     3
 72
    11
 73
     7
 74
     0
 42
0.000000001
 43
0.00000001
 40
0.0
 40
0.0
 40
0.0
 40
0.0
 40
0.2392845095215635
 40
0.5001120454085677
 40
0.751501091501476
 40
1.0
 40
1.0
 40
1.0
 40
1.0
 10
205.1567458871638
 20
55.35242334450442
 30
0.0
 10
205.1096766551441
 20
55.32410882178413
 30
0.0
 10
205.0113005005479
 20
55.26493059123035
 30
0.0
 10
204.865003278966
 20
55.17174269076764
 30
0.0
 10
204.7171625353423
 20
55.076370774795
 30
0.0
 10
204.6208760726199
 20
55.01183551953795
 30
0.0
 10
204.5730111847587
 20
54.97975444948265
 30
0.0
  0
SPLINE
  5
21D
330
1F
100
AcDbEntity
  8
0
  6
Continuous
 62
     7
370
    25
100
AcDbSpline
210
0.0
220
0.0
230
1.0
 70
     8
 71
     3
 72
     9
 73
     5
 74
     0
 42
0.000000001
 43
0.00000001
 40
0.0
 40
0.0
 40
0.0
 40
0.0
 40
0.5090669353869889
 40
1.0
 40
1.0
 40
1.0
 40
1.0
 10
205.1573168907479
 20
55.35172439029266
 30
0.0
 10
205.1829654653719
 20
55.34423168213277
 30
0.0
 10
205.2333489667174
 20
55.32951316942051
 30
0.0
 10
205.2821564782127
 20
55.31312081156834
 30
0.0
 10
205.3061176994072
 20
55.30507326109174
 30
0.0
  0
LINE
  5
21E
330
1F
100
AcDbEntity
  8
0
  6
Continuous
 62
     7
370
    25
100
AcDbLine
 10
206.9872354709
 20
56.2756029575
 30
0.0
 11
205.3061195145
 21
55.3051153733
 31
0.0
  0
LINE
  5
21F
330
1F
100
AcDbEntity
  8
0
  6
Continuous
 62
     7
370
    25
100
AcDbLine
 10
203.2996318633
 20
56.428936672
 30
0.0
 11
203.0993362097
 21
55.9277792577
 31
0.0
  0
SPLINE
  5
220
330
1F
100
AcDbEntity
  8
0
  6
Continuous
 62
     7
370
    25
100
AcDbSpline
210
0.0
220
0.0
230
1.0
 70
     8
 71
     3
 72
     8
 73
     4
 74
     0
 42
0.000000001
 43
0.00000001
 40
0.0
 40
0.0
 40
0.0
 40
0.0
 40
1.0
 40
1.0
 40
1.0
 40
1.0
 10
203.2991886926078
 20
56.42972042415399
 30
0.0
 10
203.325364027177
 20
56.45188780113226
 30
0.0
 10
203.3511850671424
 20
56.47451994222388
 30
0.0
 10
203.3766426208508
 20
56.49760466231516
 30
0.0
  0
LINE
  5
221
330
1F
100
AcDbEntity
  8
0
  6
Continuous
 62
     7
370
    25
100
AcDbLine
 10
203.3766427166
 20
56.4976045467
 30
0.0
 11
205.1569354759
 21
55.3518336616
 31
0.0
  0
LINE
  5
222
330
1F
100
AcDbEntity
  8
0
  6
Continuous
 62
     7
370
    25
100
AcDbLine
 10
206.9870267123
 20
56.3736528927
 30
0.0
 11
206.8990273853
 21
56.4811439611
 31
0.0
  0
LINE
  5
223
330
1F
100
AcDbEntity
  8
0
  6
Continuous
 62
     7
370
    25
100
AcDbLine
 10
205.0706193886
 20
57.475516464
 30
0.0
 11
203.3766427166
 21
56.4976045467
 31
0.0
  0
LINE
  5
224
330
1F
100
AcDbEntity
  8
0
  6
Continuous
 62
     7
370
    25
100
AcDbLine
 10
205.2133134712
 20
57.4542243023
 30
0.0
 11
205.07103954
 21
57.4750290865
 31
0.0
  0
LINE
  5
225
330
1F
100
AcDbEntity
  8
0
  6
Continuous
 62
     7
370
    25
100
AcDbLine
 10
206.8991011423
 20
56.4810397946
 30
0.0
 11
205.2133134712
 21
57.4542243023
 31
0.0
  0
LINE
  5
226
330
1F
100
AcDbEntity
  8
0
  6
Continuous
 62
     7
370
    25
100
AcDbLine
 10
207.0495798795
 20
56.3941597144
 30
0.0
 11
206.8990543856
 21
56.481066768
 31
0.0
  0
SPLINE
  5
227
330
1F
100
AcDbEntity
  8
0
  6
Continuous
 62
     7
370
    25
100
AcDbSpline
210
0.0
220
0.0
230
1.0
 70
     8
 71
     3
 72
    19
 73
    15
 74
     0
 42
0.000000001
 43
0.00000001
 40
0.0
 40
0.0
 40
0.0
 40
0.0
 40
0.0637853009096226
 40
0.1289628367612685
 40
0.1955871994238738
 40
0.2637095015333396
 40
0.333377557928126
 40
0.4046360709483682
 40
0.4775268158796784
 40
0.5520888236292854
 40
0.6283585584260098
 40
0.7063700889343436
 40
0.837704180588121
 40
1.0
 40
1.0
 40
1.0
 40
1.0
 10
202.5151195866464
 20
56.59820851150586
 30
0.0
 10
202.5358089556505
 20
56.58484937149619
 30
0.0
 10
202.5776392783035
 20
56.55783950295641
 30
0.0
 10
202.6381302518957
 20
56.52031753743096
 30
0.0
 10
202.6976144500733
 20
56.48479779634075
 30
0.0
 10
202.755695609544
 20
56.45181766742419
 30
0.0
 10
202.812227726631
 20
56.4216112311534
 30
0.0
 10
202.8669727813853
 20
56.39449779119118
 30
0.0
 10
202.9196951589787
 20
56.37076617344039
 30
0.0
 10
202.9701367919114
 20
56.35072591999496
 30
0.0
 10
203.0180197103791
 20
56.33460605845614
 30
0.0
 10
203.0729838647549
 20
56.32032808877359
 30
0.0
 10
203.1358151787179
 20
56.31018953152138
 30
0.0
 10
203.1743226943768
 20
56.31666378283578
 30
0.0
 10
203.195606659572
 20
56.32024224634562
 30
0.0
  0
LINE
  5
228
330
1F
100
AcDbEntity
  8
0
  6
Continuous
 62
     7
370
    25
100
AcDbLine
 10
203.2202423472
 20
56.3463127006
 30
0.0
 11
203.2990464172
 21
56.4297043043
 31
0.0
  0
SPLINE
  5
229
330
1F
100
AcDbEntity
  8
0
  6
Continuous
 62
     7
370
    25
100
AcDbSpline
210
0.0
220
0.0
230
1.0
 70
     8
 71
     3
 72
     9
 73
     5
 74
     0
 42
0.000000001
 43
0.00000001
 40
0.0
 40
0.0
 40
0.0
 40
0.0
 40
0.5232016984460688
 40
1.0
 40
1.0
 40
1.0
 40
1.0
 10
204.9044416089608
 20
57.37958424323875
 30
0.0
 10
204.8354174463122
 20
57.40462640835526
 30
0.0
 10
204.7034909582032
 20
57.45248971841497
 30
0.0
 10
204.4620535453846
 20
57.59008784910164
 30
0.0
 10
204.3469365970211
 20
57.65569440411004
 30
0.0
  0
LINE
  5
22A
330
1F
100
AcDbEntity
  8
0
  6
Continuous
 62
     7
370
    25
100
AcDbLine
 10
200.6174354
 20
57.4215839667
 30
0.0
 11
201.0689065144
 21
57.5338479396
 31
0.0
  0
LINE
  5
22B
330
1F
100
AcDbEntity
  8
0
  6
Continuous
 62
     7
370
    25
100
AcDbLine
 10
201.0689065144
 20
57.5338479396
 30
0.0
 11
202.5151189862
 21
56.5982086066
 31
0.0
  0
SPLINE
  5
22C
330
1F
100
AcDbEntity
  8
0
  6
Continuous
 62
     7
370
    25
100
AcDbSpline
210
0.0
220
0.0
230
1.0
 70
     8
 71
     3
 72
     8
 73
     4
 74
     0
 42
0.000000001
 43
0.00000001
 40
0.0
 40
0.0
 40
0.0
 40
0.0
 40
1.0
 40
1.0
 40
1.0
 40
1.0
 10
200.7882239706632
 20
57.02683431372255
 30
0.0
 10
200.7310987017399
 20
57.15862049751647
 30
0.0
 10
200.674170210023
 20
57.29020471917556
 30
0.0
 10
200.6174360920743
 20
57.42158378607522
 30
0.0
  0
LINE
  5
22D
330
1F
100
AcDbEntity
  8
0
  6
Continuous
 62
     7
370
    25
100
AcDbLine
 10
202.4066079734
 20
58.3060865544
 30
0.0
 11
201.0689065144
 21
57.5338479396
 31
0.0
  0
LINE
  5
22E
330
1F
100
AcDbEntity
  8
0
  6
Continuous
 62
     7
370
    25
100
AcDbLine
 10
203.3896364583
 20
58.2083331515
 30
0.0
 11
202.4066079734
 21
58.3060865544
 31
0.0
  0
LINE
  5
22F
330
1F
100
AcDbEntity
  8
0
  6
Continuous
 62
     7
370
    25
100
AcDbLine
 10
204.346936597
 20
57.6556944041
 30
0.0
 11
203.3896354705
 21
58.2083325812
 31
0.0
  0
SPLINE
  5
230
330
1F
100
AcDbEntity
  8
0
  6
Continuous
 62
     7
370
    25
100
AcDbSpline
210
0.0
220
0.0
230
1.0
 70
     8
 71
     3
 72
     8
 73
     4
 74
     0
 42
0.000000001
 43
0.00000001
 40
0.0
 40
0.0
 40
0.0
 40
0.0
 40
1.0
 40
1.0
 40
1.0
 40
1.0
 10
200.6174360920743
 20
57.42158378607522
 30
0.0
 10
200.6142987543242
 20
57.45680009294774
 30
0.0
 10
200.6123063504263
 20
57.49244434917544
 30
0.0
 10
200.6115249530542
 20
57.52854125117031
 30
0.0
  0
LINE
  5
231
330
1F
100
AcDbEntity
  8
0
  6
Continuous
 62
     7
370
    25
100
AcDbLine
 10
201.4226114281
 20
57.9967709658
 30
0.0
 11
200.6115256216
 21
57.5285410963
 31
0.0
  0
SPLINE
  5
232
330
1F
100
AcDbEntity
  8
0
  6
Continuous
 62
     7
370
    25
100
AcDbSpline
210
0.0
220
0.0
230
1.0
 70
     8
 71
     3
 72
     8
 73
     4
 74
     0
 42
0.000000001
 43
0.00000001
 40
0.0000004089325119
 40
0.0000004089325119
 40
0.0000004089325119
 40
0.0000004089325119
 40
0.0015399868451459
 40
0.0015399868451459
 40
0.0015399868451459
 40
0.0015399868451459
 10
201.4226104855429
 20
57.99677096252643
 30
0.0
 10
201.6610870535662
 20
58.09114734834279
 30
0.0
 10
201.8995340112349
 20
58.185575960273
 30
0.0
 10
202.1379427500852
 20
58.28006934323546
 30
0.0
  0
LINE
  5
233
330
1F
100
AcDbEntity
  8
0
  6
Continuous
 62
     7
370
    25
100
AcDbLine
 10
202.137942229
 20
58.2800694903
 30
0.0
 11
202.1623386689
 21
58.2850635168
 31
0.0
  0
LINE
  5
234
330
1F
100
AcDbEntity
  8
0
  6
Continuous
 62
     7
370
    25
100
AcDbLine
 10
202.4066079734
 20
58.3060865544
 30
0.0
 11
202.1623393274
 21
58.2850635167
 31
0.0
  0
SPLINE
  5
235
330
1F
100
AcDbEntity
  8
0
  6
Continuous
 62
     7
370
    25
100
AcDbSpline
210
0.0
220
0.0
230
1.0
 70
     8
 71
     3
 72
     8
 73
     4
 74
     0
 42
0.000000001
 43
0.00000001
 40
0.0
 40
0.0
 40
0.0
 40
0.0
 40
1.0
 40
1.0
 40
1.0
 40
1.0
 10
203.3896346645932
 20
58.20833333582242
 30
0.0
 10
203.4202426987164
 20
58.19339332801631
 30
0.0
 10
203.4507941996884
 20
58.17851637062292
 30
0.0
 10
203.481288137803
 20
58.16370280694201
 30
0.0
  0
LWPOLYLINE
  5
236
330
1F
100
AcDbEntity
  8
0
  6
Continuous
 62
     7
370
    25
100
AcDbPolyline
 90
        3
 70
   128
 43
0.0
 10
207.0294077968
 20
57.6967832652
 10
206.4026010594
 20
57.4438451308
 10
205.8180234474
 20
57.2727786275
  0
LWPOLYLINE
  5
237
330
1F
100
AcDbEntity
  8
0
  6
Continuous
 62
     7
370
    18
100
AcDbPolyline
 90
       25
 70
   128
 43
0.0
 10
257.5662897059
 20
30.3348956558
 10
257.2889999919
 20
29.8177555775
 10
256.9411287946
 20
29.3549112827
 10
256.5463837164
 20
28.977905308
 10
256.1316653125
 20
28.7124295545
 10
255.7252373254
 20
28.5765767745
 10
255.3547955029
 20
28.5796037656
 10
255.0455851488
 20
28.721304735
 10
254.8186796874
 20
28.992023629
 10
254.689541085
 20
29.3733106184
 10
254.6669701305
 20
29.8391817974
 10
254.7525051839
 20
30.3578888721
 10
254.9403174678
 20
30.8940830445
 10
255.217607511
 20
31.4112233128
 10
255.5654790376
 20
31.8740677977
 10
255.9602237865
 20
32.2510735823
 10
256.3749421904
 20
32.5165493359
 10
256.7813708361
 20
32.652402496
 10
257.1518123293
 20
32.6493753148
 10
257.4610220248
 20
32.5076739652
 10
257.6879281449
 20
32.2369554514
 10
257.8170667472
 20
31.855668462
 10
257.8396373724
 20
31.3897970929
 10
257.7541019897
 20
30.8710898281
 10
257.5662897059
 20
30.3348956558
  0
LWPOLYLINE
  5
238
330
1F
100
AcDbEntity
  8
0
  6
Continuous
 62
     7
370
    18
100
AcDbPolyline
 90
       15
 70
   128
 43
0.0
 10
254.8266283196
 20
28.5514185739
 10
254.8225018797
 20
28.5538166055
 10
254.552040943
 20
28.8030134486
 10
254.3773692562
 20
29.1724442223
 10
254.3094621222
 20
29.6388964664
 10
254.3525862507
 20
30.173061101
 10
254.5040317313
 20
30.7413744595
 10
254.7542825956
 20
31.3081272975
 10
255.0876147764
 20
31.8377084232
 10
255.4830845829
 20
32.2968428012
 10
255.915841838
 20
32.6566808011
 10
256.3586958974
 20
32.8946126103
 10
256.7838206217
 20
32.9956886185
 10
257.1645028112
 20
32.9535567141
 10
257.2953177386
 20
32.8987483351
  0
LWPOLYLINE
  5
239
330
1F
100
AcDbEntity
  8
0
  6
Continuous
 62
     7
370
    18
100
AcDbPolyline
 90
       16
 70
   128
 43
0.0
 10
267.2129453453
 20
37.7818750624
 10
267.4200743859
 20
38.2570744959
 10
267.7293163502
 20
38.755758944
 10
268.0997799046
 20
39.1864518847
 10
268.5062184284
 20
39.5198021998
 10
268.9209341981
 20
39.7330930888
 10
269.3156644591
 20
39.8117886744
 10
269.6635089853
 20
39.7505257494
 10
269.9407628086
 20
39.5534796733
 10
270.1285322871
 20
39.2340789994
 10
270.2140199253
 20
38.8140897329
 10
270.1914008971
 20
38.322133986
 10
270.0622168551
 20
37.7917378325
 10
269.8352705639
 20
37.2590464121
 10
269.5260285997
 20
36.7603619641
 10
269.3557737709
 20
36.5448462162
  0
LWPOLYLINE
  5
23A
330
1F
100
AcDbEntity
  8
0
  6
Continuous
 62
     7
370
    18
100
AcDbPolyline
 90
        9
 70
   128
 43
0.0
 10
266.9055624522
 20
37.9593231296
 10
267.0067626331
 20
38.2037693731
 10
267.3056842171
 20
38.7540678813
 10
267.6765636424
 20
39.2481958407
 10
268.0960973237
 20
39.655105453
 10
268.5379240537
 20
39.9492289123
 10
268.9742828887
 20
40.1120857727
 10
269.3777546695
 20
40.1334422063
 10
269.6828510961
 20
40.0352990362
  0
LWPOLYLINE
  5
23B
330
1F
100
AcDbEntity
  8
0
  6
Continuous
 62
     7
370
    18
100
AcDbPolyline
 90
       30
 70
   128
 43
0.0
 10
274.0723972947
 20
30.1246431292
 10
274.0186689532
 20
30.6641058592
 10
273.8599966053
 20
31.116310757
 10
273.6037992487
 20
31.4601128834
 10
273.2620566313
 20
31.6794368774
 10
272.8507482532
 20
31.7640270155
 10
272.3891062893
 20
31.7099280603
 10
271.8987166763
 20
31.5196696625
 10
271.4025094811
 20
31.2021481555
 10
270.9236868319
 20
30.7722103271
 10
270.4846378426
 20
30.2499597172
 10
270.1058921855
 20
29.6598162136
 10
269.8051592748
 20
29.0293740221
 10
269.5965012585
 20
28.3881122603
 10
269.4896746379
 20
27.766015326
 10
269.4896746379
 20
27.192171977
 10
269.5965012585
 20
26.6934144334
 10
269.8051592748
 20
26.2930640894
 10
270.1058921855
 20
26.0098407258
 10
270.4846378426
 20
25.8569876499
 10
270.9236868319
 20
25.841652213
 10
271.4025094811
 20
25.9645512479
 10
271.8987166763
 20
26.2199383738
 10
272.3891062893
 20
26.5958717715
 10
272.8507482532
 20
27.0747732825
 10
273.2620566313
 20
27.6342499657
 10
273.6037992487
 20
28.2481415872
 10
273.8599966053
 20
28.8877428852
 10
274.0186689532
 20
29.5231469764
 10
274.0723972947
 20
30.1246431292
  0
LWPOLYLINE
  5
23C
330
1F
100
AcDbEntity
  8
0
  6
Continuous
 62
     7
370
    18
100
AcDbPolyline
 90
       18
 70
   128
 43
0.0
 10
269.2620294663
 20
25.6297892236
 10
269.2439664136
 20
25.6400334981
 10
268.8922152368
 20
25.9319149562
 10
268.6308404033
 20
26.3457029683
 10
268.4698868572
 20
26.8654962158
 10
268.4155391546
 20
27.4713188019
 10
268.4698868572
 20
28.1398899099
 10
268.6308404033
 20
28.8455161662
 10
268.8922152368
 20
29.5610811375
 10
269.2439664136
 20
30.2590858598
 10
269.6725764847
 20
30.9127064631
 10
270.1615741816
 20
31.4968248352
 10
270.6921676487
 20
31.9889931382
 10
271.2439664136
 20
32.3702985058
 10
271.7957651786
 20
32.6260864313
 10
272.3263586457
 20
32.7465283057
 10
272.8153563426
 20
32.7269946569
 10
273.2438039178
 20
32.5683305455
  0
LWPOLYLINE
  5
23D
330
1F
100
AcDbEntity
  8
0
  6
Continuous
 62
     7
370
    18
100
AcDbPolyline
 90
       29
 70
   128
 43
0.0
 10
252.2581512976
 20
30.5940788969
 10
252.3097265278
 20
31.6843659594
 10
252.4638035521
 20
32.8204896203
 10
252.7184449327
 20
33.9881621995
 10
253.0704481675
 20
35.1726999341
 10
253.5153865203
 20
36.3592057717
 10
254.047664997
 20
37.532759575
 10
254.6605901513
 20
38.6786029083
 10
255.3464530611
 20
39.7823264837
 10
256.0966294276
 20
40.8300496207
 10
256.9016849421
 20
41.8085966641
 10
257.7514961291
 20
42.7056625632
 10
258.6353754699
 20
43.5099657132
 10
259.5422081326
 20
44.2113915271
 10
260.460589855
 20
44.8011191826
 10
261.3789715774
 20
45.2717324937
 10
262.2858042401
 20
45.617313386
 10
263.1696835809
 20
45.8335156009
 10
264.019494768
 20
45.9176208136
 10
264.8245502824
 20
45.8685710823
 10
265.5747266489
 20
45.6869831418
 10
266.2605895587
 20
45.3751400264
 10
266.873514713
 20
44.9369650131
 10
267.4057931897
 20
44.3779668579
 10
267.8507315426
 20
43.7051759077
 10
268.2027347773
 20
42.9270524572
 10
268.4573761579
 20
42.053382558
 10
268.6114531822
 20
41.0951524428
 10
268.647767302
 20
40.6331333229
  0
LWPOLYLINE
  5
23E
330
1F
100
AcDbEntity
  8
0
  6
Continuous
 62
     7
370
    18
100
AcDbPolyline
 90
       18
 70
   128
 43
0.0
 10
262.8178416895
 20
27.6177520812
 10
262.2858042401
 20
27.1485260573
 10
261.3789715774
 20
26.4471002434
 10
260.460589855
 20
25.8573725878
 10
259.5422081326
 20
25.3867592767
 10
258.6353754699
 20
25.0411783844
 10
257.7514961291
 20
24.8249761696
 10
256.9016849421
 20
24.7408709569
 10
256.0966294276
 20
24.7899206882
 10
255.3464530611
 20
24.9715086287
 10
254.6605901513
 20
25.283351744
 10
254.047664997
 20
25.7215267573
 10
253.5153865203
 20
26.2805249126
 10
253.0704481675
 20
26.9533158627
 10
252.7184449327
 20
27.7314393133
 10
252.4638035521
 20
28.6051092125
 10
252.3097265278
 20
29.5633393276
 10
252.2581512976
 20
30.5940788969
  0
LWPOLYLINE
  5
23F
330
1F
100
AcDbEntity
  8
0
  6
Continuous
 62
     7
370
    18
100
AcDbPolyline
 90
       20
 70
   128
 43
0.0
 10
251.692466175
 20
30.5940785167
 10
251.7439663312
 20
31.7017233419
 10
251.8978405238
 20
32.855383106
 10
252.1522224378
 20
34.0410545353
 10
252.5040228409
 20
35.2443447336
 10
252.9489717304
 20
36.4506473204
 10
253.4816683829
 20
37.6453198994
 10
254.0956465499
 20
38.8138606698
 10
254.7834528245
 20
39.942084276
 10
255.5367385089
 20
41.0162968955
 10
256.3463600417
 20
42.023458018
 10
257.2024893048
 20
42.9513426039
 10
258.0947341365
 20
43.7886874617
 10
259.0122640315
 20
44.5253284528
 10
259.9439412736
 20
45.152323341
 10
260.8784565956
 20
45.6620605262
 10
261.8044663213
 20
46.0483541844
 10
262.7107297546
 20
46.3065144549
 10
263.5862462387
 20
46.4334067914
 10
264.3293952767
 20
46.4347674902
  0
ARC
  5
240
330
1F
100
AcDbEntity
  8
0
  6
Continuous
 62
     7
370
    18
100
AcDbCircle
 10
259.1556256385
 20
30.3083027731
 30
0.0
 40
7.468628853650769
100
AcDbArc
 50
177.8071286706
 51
210.9925269681
  0
LWPOLYLINE
  5
241
330
1F
100
AcDbEntity
  8
0
  6
Continuous
 62
     7
370
    18
100
AcDbPolyline
 90
        9
 70
   128
 43
0.0
 10
220.5090567549
 20
48.5958775959
 10
220.560556911
 20
47.5476935853
 10
220.7144311037
 20
46.5716931825
 10
220.9688130177
 20
45.6797248594
 10
221.3206134207
 20
44.8826147608
 10
221.7655623103
 20
44.1900392268
 10
222.2982589628
 20
43.6104051113
 10
222.9122371297
 20
43.1507484435
 10
222.994825855
 20
43.1017398873
  0
LWPOLYLINE
  5
242
330
1F
100
AcDbEntity
  8
0
  6
Continuous
 62
     7
370
    18
100
AcDbPolyline
 90
       23
 70
   128
 43
0.0
 10
234.948031658
 20
63.9129628849
 10
234.7412631705
 20
64.0209383591
 10
234.019620879
 20
64.290641119
 10
233.2369789268
 20
64.429291428
 10
232.4028368185
 20
64.4352058706
 10
231.5273203344
 20
64.3083135341
 10
230.6210569011
 20
64.0501532636
 10
229.6950471754
 20
63.6638596054
 10
228.7605318535
 20
63.1541224202
 10
227.8288546114
 20
62.527127532
 10
226.9113247163
 20
61.7904865409
 10
226.0190798846
 20
60.9531416831
 10
225.1629506215
 20
60.0252570972
 10
224.3533290887
 20
59.0180959747
 10
223.6000434044
 20
57.9438833552
 10
222.9122371297
 20
56.815659749
 10
222.2982589628
 20
55.6471189786
 10
221.7655623103
 20
54.4524463996
 10
221.3206134207
 20
53.2461438128
 10
220.9688130177
 20
52.0428536145
 10
220.7144311037
 20
50.8571821852
 10
220.560556911
 20
49.7035224211
 10
220.5090567549
 20
48.5958775959
  0
LWPOLYLINE
  5
243
330
1F
100
AcDbEntity
  8
0
  6
Continuous
 62
     7
370
    18
100
AcDbPolyline
 90
       19
 70
   128
 43
0.0
 10
263.5718573705
 20
29.369467859
 10
263.6237299335
 20
30.1031931882
 10
263.7778553609
 20
30.8757013706
 10
264.0297996724
 20
31.664768817
 10
264.3723149272
 20
32.4476952019
 10
264.7955474884
 20
33.2019573947
 10
265.2873218559
 20
33.9058567293
 10
265.8334904357
 20
34.5391429785
 10
266.4183410968
 20
35.083598114
 10
267.0250487266
 20
35.5235585831
 10
267.6361594261
 20
35.8463682137
 10
268.2340926089
 20
36.0427395538
 10
268.8016469277
 20
36.1070242632
 10
269.3224947181
 20
36.0373723133
 10
269.781652364
 20
35.8357875513
 10
270.1659106148
 20
35.5080692711
 10
270.4642148133
 20
35.063645398
 10
270.6679836306
 20
34.5153012592
 10
270.7599974449
 20
34.0022016585
  0
LWPOLYLINE
  5
244
330
1F
100
AcDbEntity
  8
0
  6
Continuous
 62
     7
370
    18
100
AcDbPolyline
 90
       10
 70
   128
 43
0.0
 10
266.7603223543
 20
27.0738106312
 10
266.4183410968
 20
26.9418177597
 10
265.8334904357
 20
26.8110186952
 10
265.2873218559
 20
26.8137121247
 10
264.7955474884
 20
26.9498208603
 10
264.3723149272
 20
27.2154291392
 10
264.0297996724
 20
27.6028958286
 10
263.7778553609
 20
28.1010745646
 10
263.6237299335
 20
28.6956333163
 10
263.5718573705
 20
29.369467859
  0
LWPOLYLINE
  5
245
330
1F
100
AcDbEntity
  8
0
  6
Continuous
 62
     7
370
    18
100
AcDbPolyline
 90
       16
 70
   128
 43
0.0
 10
263.0061725772
 20
29.3694676689
 10
263.0592147153
 20
30.139278326
 10
263.2168939781
 20
30.9493316062
 10
263.4749097407
 20
31.777531523
 10
263.8262234794
 20
32.6012865251
 10
264.261252713
 20
33.3981273541
 10
264.7681307988
 20
34.1463176721
 10
265.3330312656
 20
34.825449093
 10
265.9405453243
 20
35.4169969509
 10
266.5741015667
 20
35.9048247564
 10
267.2164181386
 20
36.2756262207
 10
267.849974381
 20
36.5192868825
 10
268.4574884397
 20
36.6291598265
 10
269.0223889065
 20
36.6022486017
 10
269.5292669923
 20
36.4392872646
 10
269.5709149933
 20
36.4184012358
  0
ARC
  5
246
330
1F
100
AcDbEntity
  8
0
  6
Continuous
 62
     7
370
    18
100
AcDbCircle
 10
265.7933671581
 20
29.1101314088
 30
0.0
 40
2.799233632187946
100
AcDbArc
 50
174.6841837011
 51
233.2566194822
  0
LWPOLYLINE
  5
247
330
1F
100
AcDbEntity
  8
0
  6
Continuous
 62
     7
370
    18
100
AcDbPolyline
 90
       11
 70
   128
 43
0.0
 10
265.0391040831
 20
30.2164913568
 10
265.0927331491
 20
30.7970854834
 10
265.2509315096
 20
31.4104851975
 10
265.5057661729
 20
32.0259318505
 10
265.8444586592
 20
32.612564443
 10
266.2500255993
 20
33.1409669174
 10
266.7021302335
 20
33.584642995
 10
267.1781020846
 20
33.9213445618
 10
267.6540739358
 20
34.1341883969
 10
268.10617857
 20
34.2125012191
 10
268.3878950202
 20
34.1867150549
  0
ARC
  5
248
330
1F
100
AcDbEntity
  8
0
  6
Continuous
 62
     7
370
    18
100
AcDbCircle
 10
266.7450441963
 20
30.1085668795
 30
0.0
 40
1.709350567436872
100
AcDbArc
 50
176.3800680042
 51
218.8754320482
  0
LWPOLYLINE
  5
249
330
1F
100
AcDbEntity
  8
0
  6
Continuous
 62
     7
370
    18
100
AcDbPolyline
 90
       18
 70
   128
 43
0.0
 10
256.3968071852
 20
33.4183196701
 10
256.4368341789
 20
33.8278834754
 10
256.591158816
 20
34.6399939798
 10
256.8439220276
 20
35.4709823415
 10
257.1885768935
 20
36.2993258411
 10
257.6161975014
 20
37.1035714221
 10
258.1157084498
 20
37.8628891441
 10
258.6741726318
 20
38.55761351
 10
259.2771261875
 20
39.1697509009
 10
259.9089528451
 20
39.6834477725
 10
260.5532887408
 20
40.0853992589
 10
261.1934458424
 20
40.3651951315
 10
261.8128444892
 20
40.5155892712
 10
262.3954425164
 20
40.5326861793
 10
262.926151023
 20
40.4160429712
 10
263.3912248681
 20
40.1686807349
 10
263.778618614
 20
39.7970059795
 10
263.8525939064
 20
39.6991546506
  0
LWPOLYLINE
  5
24A
330
1F
100
AcDbEntity
  8
0
  6
Continuous
 62
     7
370
    18
100
AcDbPolyline
 90
        3
 70
   128
 43
0.0
 10
258.3726206564
 20
30.2065338692
 10
258.1157084498
 20
30.2467757215
 10
257.6463369433
 20
30.4136855698
  0
LWPOLYLINE
  5
24B
330
1F
100
AcDbEntity
  8
0
  6
Continuous
 62
     7
370
    18
100
AcDbPolyline
 90
       15
 70
   128
 43
0.0
 10
257.1380105535
 20
32.9904324401
 10
257.1457402196
 20
33.1925071305
 10
257.2406121171
 20
33.9656239437
 10
257.437565328
 20
34.7694678763
 10
257.731119445
 20
35.5816734448
 10
258.1131078575
 20
36.3796439754
 10
258.5729021513
 20
37.1411773255
 10
259.0977100991
 20
37.8450859179
 10
259.6729300407
 20
38.4717855436
 10
260.2825581095
 20
39.0038399573
 10
260.9096329158
 20
39.4264457265
 10
261.536707722
 20
39.7278451177
 10
262.1463357909
 20
39.8996522901
 10
262.7215557324
 20
39.9370874725
 10
263.0231933185
 20
39.8987001849
  0
LWPOLYLINE
  5
24C
330
1F
100
AcDbEntity
  8
0
  6
Continuous
 62
     7
370
    18
100
AcDbPolyline
 90
       15
 70
   128
 43
0.0
 10
256.8374659865
 20
33.1639328548
 10
256.8908285066
 20
33.8400142442
 10
257.051753406
 20
34.646603549
 10
257.314812961
 20
35.4704827078
 10
257.672439178
 20
36.2879501807
 10
258.1143436163
 20
37.0754885727
 10
258.6278138973
 20
37.8104421302
 10
259.1980782091
 20
38.4716675688
 10
259.8087311378
 20
39.0401428307
 10
260.4422052577
 20
39.499513475
 10
261.0802766973
 20
39.8365643844
 10
261.7045893209
 20
40.0415995556
 10
262.2971827367
 20
40.1087199155
 10
262.8410091207
 20
40.0359950602
 10
263.2141536098
 20
39.8871910718
  0
LINE
  5
24D
330
1F
100
AcDbEntity
  8
0
  6
Continuous
 62
     7
370
    18
100
AcDbLine
 10
257.9397274119
 20
30.6358950235
 30
0.0
 11
257.7567552656
 21
30.7571526961
 31
0.0
  0
LWPOLYLINE
  5
24E
330
1F
100
AcDbEntity
  8
0
  6
Continuous
 62
     7
370
    18
100
AcDbPolyline
 90
        3
 70
   128
 43
0.0
 10
257.8752929477
 20
30.7230641782
 10
257.7954536458
 20
30.8007636006
 10
257.7631978065
 20
30.8348756694
  0
LWPOLYLINE
  5
24F
330
1F
100
AcDbEntity
  8
0
  6
Continuous
 62
     7
370
    18
100
AcDbPolyline
 90
       15
 70
   128
 43
0.0
 10
257.0901837586
 20
33.0180419904
 10
257.0945594576
 20
33.1588823254
 10
257.1810767301
 20
33.9346674362
 10
257.3719067942
 20
34.7435906948
 10
257.6616301577
 20
35.5626826142
 10
258.0420209414
 20
36.368685684
 10
258.5022775333
 20
37.1387133612
 10
259.0293314472
 20
37.8509007123
 10
259.6082169298
 20
38.4850259616
 10
260.2224968336
 20
39.0230833419
 10
260.854728743
 20
39.4497940098
 10
261.4869606525
 20
39.7530427668
 10
262.1012405563
 20
39.9242178671
 10
262.6801260388
 20
39.9584595693
 10
263.1565854599
 20
39.8715227557
  0
LWPOLYLINE
  5
250
330
1F
100
AcDbEntity
  8
0
  6
Continuous
 62
     7
370
    18
100
AcDbPolyline
 90
       29
 70
   128
 43
0.0
 10
218.3877360636
 20
48.5958775959
 10
218.4400297659
 20
49.7783148226
 10
218.596337939
 20
51.0081740708
 10
218.8549477088
 20
52.2719805742
 10
219.2130260166
 20
53.555887805
 10
219.666649913
 20
54.8458294692
 10
220.2108487038
 20
56.1276720697
 10
220.8396605858
 20
57.3873711768
 10
221.5461965248
 20
58.6111273169
 10
222.3227140131
 20
59.7855300732
 10
223.1607069604
 20
60.8977137821
 10
224.05099361
 20
61.9354934576
 10
224.9838196007
 20
62.8874980529
 10
225.9489649801
 20
63.7432976377
 10
226.9358552523
 20
64.4935161741
 10
227.9336778572
 20
65.12993374
 10
228.9315004621
 20
65.6455776314
 10
229.9183907343
 20
66.0347983496
 10
230.8835361138
 20
66.2933319007
 10
231.8163621044
 20
66.4183452692
 10
232.706648754
 20
66.4084686798
 10
233.5446417013
 20
66.2638110336
 10
234.3211591896
 20
65.9859562856
 10
235.0276951286
 20
65.577949177
 10
235.6565070106
 20
65.0442608152
 10
236.2007058015
 20
64.3907367645
 10
236.6543296978
 20
63.6245381029
 10
237.0124080057
 20
62.7540592863
 10
237.0257705323
 20
62.7139101545
  0
LWPOLYLINE
  5
251
330
1F
100
AcDbEntity
  8
0
  6
Continuous
 62
     7
370
    18
100
AcDbPolyline
 90
       14
 70
   128
 43
0.0
 10
225.0267458366
 20
41.9287373103
 10
224.9838196007
 20
41.9199330866
 10
224.05099361
 20
41.7949197181
 10
223.1607069604
 20
41.8047963074
 10
222.3227140131
 20
41.9494539537
 10
221.5461965248
 20
42.2273087016
 10
220.8396605858
 20
42.6353158103
 10
220.2108487038
 20
43.1690041721
 10
219.666649913
 20
43.8225282228
 10
219.2130260166
 20
44.5887268843
 10
218.8549477088
 20
45.459205701
 10
218.596337939
 20
46.4244277198
 10
218.4400297659
 20
47.4738173927
 10
218.3877360636
 20
48.5958775959
  0
LINE
  5
252
330
1F
100
AcDbEntity
  8
0
  6
Continuous
 62
     7
370
    18
100
AcDbLine
 10
210.5123347784
 20
51.3155370872
 30
0.0
 11
210.5205336575
 21
51.8134729702
 31
0.0
  0
LWPOLYLINE
  5
253
330
1F
100
AcDbEntity
  8
0
  6
Continuous
 62
     7
370
    18
100
AcDbPolyline
 90
        3
 70
   128
 43
0.0
 10
210.6758098914
 20
49.2153713433
 10
210.5642847204
 20
50.1052932592
 10
210.5123347784
 20
51.3155370872
  0
LWPOLYLINE
  5
254
330
1F
100
AcDbEntity
  8
0
  6
Continuous
 62
     7
370
    18
100
AcDbPolyline
 90
       13
 70
   128
 43
0.0
 10
215.1364162169
 20
47.9799004594
 10
215.1002021958
 20
48.1613080977
 10
214.9558215808
 20
49.2323814408
 10
214.9146184266
 20
50.3740244596
 10
214.9770260554
 20
51.5742231185
 10
215.1423872399
 20
52.8203471531
 10
215.408962764
 20
54.0992840293
 10
215.7739472282
 20
55.3975747677
 10
216.2334993422
 20
56.7015574427
 10
216.7827834137
 20
57.9975095747
 10
217.4160187392
 20
59.2717935648
 10
218.1265421652
 20
60.5110000356
 10
218.9068772359
 20
61.7020888906
  0
LWPOLYLINE
  5
255
330
1F
100
AcDbEntity
  8
0
  6
Continuous
 62
     7
370
    18
100
AcDbPolyline
 90
       16
 70
   128
 43
0.0
 10
215.6482119838
 20
45.0499727585
 10
215.1791899998
 20
45.7968000728
 10
214.7886908872
 20
46.6691405029
 10
214.4958368031
 20
47.6376549271
 10
214.3036004172
 20
48.6925108515
 10
214.2139336555
 20
49.8229996348
 10
214.2277466266
 20
51.0176444758
 10
214.3448990604
 20
52.2643173352
 10
214.5642016255
 20
53.5503617508
 10
214.8834284416
 20
54.8627223045
 10
215.2993381525
 20
56.1880758003
 10
215.8077088295
 20
57.5129670042
 10
216.4033788005
 20
58.8239453328
 10
217.0803019686
 20
60.1077028725
 10
217.8316051048
 20
61.351205174
 10
218.6496622635
 20
62.5418307896
  0
ARC
  5
256
330
1F
100
AcDbEntity
  8
0
  6
Continuous
 62
     7
370
    18
100
AcDbCircle
 10
231.6488940085
 20
54.880219137
 30
0.0
 40
14.21094567371845
100
AcDbArc
 50
109.7806436427
 51
139.5760029973
  0
LWPOLYLINE
  5
257
330
1F
100
AcDbEntity
  8
0
  6
Continuous
 62
     7
370
    18
100
AcDbPolyline
 90
       11
 70
   128
 43
0.0
 10
219.993855325
 20
64.2139943069
 10
220.9552084759
 20
65.2335376877
 10
221.9525940542
 20
66.1581830404
 10
222.9756003066
 20
66.9782771705
 10
224.0135482754
 20
67.6852605493
 10
225.0556032569
 20
68.2717529505
 10
226.0908874131
 20
68.7316313871
 10
227.108593864
 20
69.0600967364
 10
228.0980986402
 20
69.2537178362
 10
229.0490731296
 20
69.310475866
 10
229.6328188353
 20
69.274647396
  0
LINE
  5
258
330
1F
100
AcDbEntity
  8
0
  6
Continuous
 62
     7
370
    18
100
AcDbLine
 10
206.0259705649
 20
61.6881446859
 30
0.0
 11
206.3321344921
 21
61.31740963
 31
0.0
  0
LINE
  5
259
330
1F
100
AcDbEntity
  8
0
  6
Continuous
 62
     7
370
    18
100
AcDbLine
 10
206.0259705649
 20
53.9240345382
 30
0.0
 11
206.3321344921
 21
54.6115680068
 31
0.0
  0
LINE
  5
25A
330
1F
100
AcDbEntity
  8
0
  6
Continuous
 62
     7
370
    18
100
AcDbLine
 10
207.0680448089
 20
55.0363999898
 30
0.0
 11
206.3321417361
 21
54.6115721886
 31
0.0
  0
LINE
  5
25B
330
1F
100
AcDbEntity
  8
0
  6
Continuous
 62
     7
370
    18
100
AcDbLine
 10
207.0014692519
 20
55.7796259576
 30
0.0
 11
205.6921978178
 21
55.0237996469
 31
0.0
  0
LINE
  5
25C
330
1F
100
AcDbEntity
  8
0
  6
Continuous
 62
     7
370
    18
100
AcDbLine
 10
202.5151189862
 20
56.5982086066
 30
0.0
 11
202.218631712
 21
56.1021469887
 31
0.0
  0
LINE
  5
25D
330
1F
100
AcDbEntity
  8
0
  6
Continuous
 62
     7
370
    18
100
AcDbLine
 10
204.346936597
 20
57.6556944041
 30
0.0
 11
202.5151795723
 21
56.5982435822
 31
0.0
  0
LINE
  5
25E
330
1F
100
AcDbEntity
  8
0
  6
Continuous
 62
     7
370
    18
100
AcDbLine
 10
204.346936597
 20
57.6556944041
 30
0.0
 11
204.4682467516
 21
57.5939438908
 31
0.0
  0
OLE2FRAME
  5
25F
330
1F
100
AcDbEntity
  8
0
100
AcDbOle2Frame
 70
     2
  3
Paintbrush-Bild
 10
13.8511154363
 20
38.264191557
 30
0.0
 11
51.6290888628
 21
31.9806341108
 31
0.0
 71
     2
 72
     0
 73
     1
 90
    12928
310
80552BED0767C5B32B40DDAF6807D121434000000000000000006FFBDDFB85D0
310
4940DDAF6807D121434000000000000000006FFBDDFB85D04940416F4BD60AFB
310
3F4000000000000000002BED0767C5B32B40416F4BD60AFB3F40000000000000
310
0000000000000100000000010000010000000100000000000100000000320000
310
D0CF11E0A1B11AE1000000000000000000000000000000003E000300FEFF0900
310
0600000000000000000000000100000001000000000000000010000002000000
310
01000000FEFFFFFF0000000000000000FFFFFFFFFFFFFFFFFFFFFFFFFFFFFFFF
310
FFFFFFFFFFFFFFFFFFFFFFFFFFFFFFFFFFFFFFFFFFFFFFFFFFFFFFFFFFFFFFFF
310
FFFFFFFFFFFFFFFFFFFFFFFFFFFFFFFFFFFFFFFFFFFFFFFFFFFFFFFFFFFFFFFF
310
FFFFFFFFFFFFFFFFFFFFFFFFFFFFFFFFFFFFFFFFFFFFFFFFFFFFFFFFFFFFFFFF
310
FFFFFFFFFFFFFFFFFFFFFFFFFFFFFFFFFFFFFFFFFFFFFFFFFFFFFFFFFFFFFFFF
310
FFFFFFFFFFFFFFFFFFFFFFFFFFFFFFFFFFFFFFFFFFFFFFFFFFFFFFFFFFFFFFFF
310
FFFFFFFFFFFFFFFFFFFFFFFFFFFFFFFFFFFFFFFFFFFFFFFFFFFFFFFFFFFFFFFF
310
FFFFFFFFFFFFFFFFFFFFFFFFFFFFFFFFFFFFFFFFFFFFFFFFFFFFFFFFFFFFFFFF
310
FFFFFFFFFFFFFFFFFFFFFFFFFFFFFFFFFFFFFFFFFFFFFFFFFFFFFFFFFFFFFFFF
310
FFFFFFFFFFFFFFFFFFFFFFFFFFFFFFFFFFFFFFFFFFFFFFFFFFFFFFFFFFFFFFFF
310
FFFFFFFFFFFFFFFFFFFFFFFFFFFFFFFFFFFFFFFFFFFFFFFFFFFFFFFFFFFFFFFF
310
FFFFFFFFFFFFFFFFFFFFFFFFFFFFFFFFFFFFFFFFFFFFFFFFFFFFFFFFFFFFFFFF
310
FFFFFFFFFFFFFFFFFFFFFFFFFFFFFFFFFFFFFFFFFFFFFFFFFFFFFFFFFFFFFFFF
310
FFFFFFFFFFFFFFFFFFFFFFFFFFFFFFFFFFFFFFFFFFFFFFFFFFFFFFFFFFFFFFFF
310
FDFFFFFFFEFFFFFFFEFFFFFFFEFFFFFF05000000060000000700000008000000
310
090000000A0000000B0000000C0000000D0000000E0000000F00000010000000
310
11000000120000001300000014000000150000001600000017000000FEFFFFFF
310
FFFFFFFFFFFFFFFFFFFFFFFFFFFFFFFFFFFFFFFFFFFFFFFFFFFFFFFFFFFFFFFF
310
FFFFFFFFFFFFFFFFFFFFFFFFFFFFFFFFFFFFFFFFFFFFFFFFFFFFFFFFFFFFFFFF
310
FFFFFFFFFFFFFFFFFFFFFFFFFFFFFFFFFFFFFFFFFFFFFFFFFFFFFFFFFFFFFFFF
310
FFFFFFFFFFFFFFFFFFFFFFFFFFFFFFFFFFFFFFFFFFFFFFFFFFFFFFFFFFFFFFFF
310
FFFFFFFFFFFFFFFFFFFFFFFFFFFFFFFFFFFFFFFFFFFFFFFFFFFFFFFFFFFFFFFF
310
FFFFFFFFFFFFFFFFFFFFFFFFFFFFFFFFFFFFFFFFFFFFFFFFFFFFFFFFFFFFFFFF
310
FFFFFFFFFFFFFFFFFFFFFFFFFFFFFFFFFFFFFFFFFFFFFFFFFFFFFFFFFFFFFFFF
310
FFFFFFFFFFFFFFFFFFFFFFFFFFFFFFFFFFFFFFFFFFFFFFFFFFFFFFFFFFFFFFFF
310
FFFFFFFFFFFFFFFFFFFFFFFFFFFFFFFFFFFFFFFFFFFFFFFFFFFFFFFFFFFFFFFF
310
FFFFFFFFFFFFFFFFFFFFFFFFFFFFFFFFFFFFFFFFFFFFFFFFFFFFFFFFFFFFFFFF
310
FFFFFFFFFFFFFFFFFFFFFFFFFFFFFFFFFFFFFFFFFFFFFFFFFFFFFFFFFFFFFFFF
310
FFFFFFFFFFFFFFFFFFFFFFFFFFFFFFFFFFFFFFFFFFFFFFFFFFFFFFFFFFFFFFFF
310
FFFFFFFFFFFFFFFFFFFFFFFFFFFFFFFFFFFFFFFFFFFFFFFFFFFFFFFFFFFFFFFF
310
52006F006F007400200045006E00740072007900000000000000000000000000
310
0000000000000000000000000000000000000000000000000000000000000000
310
16000500FFFFFFFFFFFFFFFF020000000A00030000000000C000000000000046
310
000000000000000000000000D07B733285A9D30103000000C000000000000000
310
01004F006C006500000000000000000000000000000000000000000000000000
310
0000000000000000000000000000000000000000000000000000000000000000
310
0A000200FFFFFFFFFFFFFFFFFFFFFFFF00000000000000000000000000000000
310
0000000000000000000000000000000000000000000000001400000000000000
310
010043006F006D0070004F0062006A0000000000000000000000000000000000
310
0000000000000000000000000000000000000000000000000000000000000000
310
120002010100000003000000FFFFFFFF00000000000000000000000000000000
310
0000000000000000000000000000000000000000010000004D00000000000000
310
01004F006C006500310030004E00610074006900760065000000000000000000
310
0000000000000000000000000000000000000000000000000000000000000000
310
1A000200FFFFFFFFFFFFFFFFFFFFFFFF00000000000000000000000000000000
310
0000000000000000000000000000000000000000040000002426000000000000
310
FEFFFFFF02000000FEFFFFFFFFFFFFFFFFFFFFFFFFFFFFFFFFFFFFFFFFFFFFFF
310
FFFFFFFFFFFFFFFFFFFFFFFFFFFFFFFFFFFFFFFFFFFFFFFFFFFFFFFFFFFFFFFF
310
FFFFFFFFFFFFFFFFFFFFFFFFFFFFFFFFFFFFFFFFFFFFFFFFFFFFFFFFFFFFFFFF
310
FFFFFFFFFFFFFFFFFFFFFFFFFFFFFFFFFFFFFFFFFFFFFFFFFFFFFFFFFFFFFFFF
310
FFFFFFFFFFFFFFFFFFFFFFFFFFFFFFFFFFFFFFFFFFFFFFFFFFFFFFFFFFFFFFFF
310
FFFFFFFFFFFFFFFFFFFFFFFFFFFFFFFFFFFFFFFFFFFFFFFFFFFFFFFFFFFFFFFF
310
FFFFFFFFFFFFFFFFFFFFFFFFFFFFFFFFFFFFFFFFFFFFFFFFFFFFFFFFFFFFFFFF
310
FFFFFFFFFFFFFFFFFFFFFFFFFFFFFFFFFFFFFFFFFFFFFFFFFFFFFFFFFFFFFFFF
310
FFFFFFFFFFFFFFFFFFFFFFFFFFFFFFFFFFFFFFFFFFFFFFFFFFFFFFFFFFFFFFFF
310
FFFFFFFFFFFFFFFFFFFFFFFFFFFFFFFFFFFFFFFFFFFFFFFFFFFFFFFFFFFFFFFF
310
FFFFFFFFFFFFFFFFFFFFFFFFFFFFFFFFFFFFFFFFFFFFFFFFFFFFFFFFFFFFFFFF
310
FFFFFFFFFFFFFFFFFFFFFFFFFFFFFFFFFFFFFFFFFFFFFFFFFFFFFFFFFFFFFFFF
310
FFFFFFFFFFFFFFFFFFFFFFFFFFFFFFFFFFFFFFFFFFFFFFFFFFFFFFFFFFFFFFFF
310
FFFFFFFFFFFFFFFFFFFFFFFFFFFFFFFFFFFFFFFFFFFFFFFFFFFFFFFFFFFFFFFF
310
FFFFFFFFFFFFFFFFFFFFFFFFFFFFFFFFFFFFFFFFFFFFFFFFFFFFFFFFFFFFFFFF
310
FFFFFFFFFFFFFFFFFFFFFFFFFFFFFFFFFFFFFFFFFFFFFFFFFFFFFFFFFFFFFFFF
310
0100000200000000000000000000000000000000000000000000000000000000
310
0000000000000000000000000000000000000000000000000000000000000000
310
0100FEFF030A0000FFFFFFFF0A00030000000000C00000000000004607000000
310
5042727573680007000000504272757368000700000050427275736800F439B2
310
7100000000000000000000000000000000000000000000000000000000000000
310
0000000000000000000000000000000000000000000000000000000000000000
310
0000000000000000000000000000000000000000000000000000000000000000
310
0000000000000000000000000000000000000000000000000000000000000000
310
0000000000000000000000000000000000000000000000000000000000000000
310
0000000000000000000000000000000000000000000000000000000000000000
310
0000000000000000000000000000000000000000000000000000000000000000
310
0000000000000000000000000000000000000000000000000000000000000000
310
0000000000000000000000000000000000000000000000000000000000000000
310
0000000000000000000000000000000000000000000000000000000000000000
310
0000000000000000000000000000000000000000000000000000000000000000
310
0000000000000000000000000000000000000000000000000000000000000000
310
20260000424D0E260000000000003E00000028000000B40200006E0000000100
310
01000000000000000000130B0000130B00000200000002000000000000FFFFFF
310
FFFFFFFFFFFFFFFFFFFFFFFFFFFFFFFFFFFFFFFFFFFFFFFFFFFFFFFFFFFFFFFF
310
FFFFFFFFFFFFFFFFFFFFFFFFFFFFFFFFFFFFFFFFFFFFFFFFFFFFFFFFFFFFFFFF
310
FFFFFFFFFFFFFFFFFFFFFFFFFFFFFFFFFFFFFFFFFFFFFFFFF000FFFFFFFFFFFF
310
FFFFFFFFFFFFFFFFFFFFFFFFFFFFFFFFFFFFFFFFFFFFFFFFFFFFFFFFFFFFFFFF
310
FFFFFFFFFFFFFFFFFFFFFFFFFFFFFFFFFFFFFFFFFFFFFFFFFFFFFFFFFFFFFFFF
310
FFFFFFFFFFFFFFFFFFFFFFFFFFFFFFFFF000FFFFFFFFFFFFFFFFFFFFFFFFFFFF
310
FFFFFFFFFFFFFFFFFFFFFFFFFFFFFFFFFFFFFFFFFFFFFFFFFFFFFFFFFFFFFFFF
310
FFFFFFFFFFFFFFFFFFFFFFFFFFFFFFFFFFFFFFFFFFFFFFFFFFFFFFFFFFFFFFFF
310
FFFFFFFFFFFFFFFFF000FFFFFFFFFFFFFFFFFFFFFFFFFFFFFFFFFFFFFFFFFFFF
310
FFFFFFFFFFFFFFFFFFFFFFFFFFFFFFFFFFFFFFFFFFFFFFFFFFFFFFFFFFFFFFFF
310
FFFFFFFFFFFFFFFFFFFFFFFFFFFFFFFFFFFFFFFFFFFFFFFFFFFFFFFFFFFFFFFF
310
F000FFFFFFFFFFFFFFFFFFFFFFFFFFFFFFFFFFFFFFFFFFFFFFFFFFFFFFFFFFFF
310
FFFFFFFFFFFFFFFFFFFFFFFFFFFFFFFFFFFFFFFFFFFFFFFFFFFFFFFFFFFFFFFF
310
FFFFFFFFFFFFFFFFFFFFFFFFFFFFFFFFFFFFFFFFFFFFFFFFF000FFFFFFFFFFFF
310
FFFFFFFFFFFFFFFFFFFFFFFFFFFFFFFFFFFFFFFFFFFFFFFFFFFFFFFFFFFFFFFF
310
FFFFFFFFFFFFFFFFFFFFFFFFFFFFFFFFFFFFFFFFFFFFFFFFFFFFFFFFFFFFFFFF
310
FFFFFFFFFFFFFFFFFFFFFFFFFFFFFFFFF000FFFFFFFFFFFFFFFFFFFFFFFFFFFF
310
FFFFFFFFFFFFFFFFFFFFFFFFFFFFFFFFFFFFFFFFFFFFFFFFFFFFFFFFFFFFFFFF
310
FFFFFFFFFFFFFFFFFFFFFFFFFFFFFFFFFFFFFFFFFFFFFFFFFFFFFFFFFFFFFFFF
310
FFFFFFFFFFFFFFFFF000FFFFFFFFFFFFFFFFFFFFFFFFFFFFFFFFFFFFFFFFFFFF
310
FFFFFFFFFFFFFFFFFFFFFFFFFFFFFFFFFFFFFFFFFFFFFFFFFFFFFFFFFFFFFFFF
310
FFFFFFFFFFFFFFFFFFFFFFFFFFFFFFFFFFFFFFFFFFFFFFFFFFFFFFFFFFFFFFFF
310
F000FFFFFFFFFFFFFFFFFFFFFFFFFFFFFFFFFFFFFFFFFFFFFFFFFFFFFFFFFFFF
310
FFFFFFFFFFFFFFFFFFFFFFFFFFFFFFFFFFFFFFFFFFFFFFFFFFFFFFFFFFFFFFFF
310
FFFFFFFFFFFFFFFFFFFFFFFFFFFFFFFFFFFFFFFFFFFFFFFFF000FFFFFFFFFFFF
310
FFFFFFFFFFFFFFFFFFFFFFFFFFFFFFFFFFFFFFFFFFFFFFFFFFFFFFFFFFFFFFFF
310
FFFFFFFFFFFFFFFFFFFFFFFFFFFFFFFFFFFFFFFFFFFFFFFFFFFFFFFFFFFFFFFF
310
FFFFFFFFFFFFFFFFFFFFFFFFFFFFFFFFF000FFFFFFFFFFFFFFFFFFFFFFFFFFFF
310
FFFFFFFFFFFFFFFFFFFFFFFFFFFFFFFFFFFFFFFFFFFFFFFFFFFFFFFFFFFFFFFF
310
FFFFFFFFFFFFFFFFFFFFFFFFFFFFFFFFFFFFFFFFFFFFFFFFFFFFFFFFFFFFFFFF
310
FFFFFFFFFFFFFFFFF000FFFFFFFFFFFFFFFFFFFFFFFFFFFFFFFFFFFFFFFFFFFF
310
FFFFFFFFFFFFFFFFFFFFFFFFFFFFFFFFFFFFFFFFFFFFFFFFFFFFFFFFFFFFFFFF
310
FFFFFFFFFFFFFFFFFFFFFFFFFFFFFFFFFFFFFFFFFFFFFFFFFFFFFFFFFFFFFFFF
310
F000FFFFFFFFFFFFFFFFFFFFFFFFFFFFFFFFFFFFFFFFFFFFFFFFFFFFFFFFFFFF
310
FFFFFFFFFFFFFFFFFFFFFFFFFFFFFFFFFFFFFFFFFFFFFFFFFFFFFFFFFFFFFFFF
310
FFFFFFFFFFFFFFFFFFFFFFFFFFFFFFFFFFFFFFFFFFFFFFFFF000FFFFFFFFFFFF
310
FFFFFFFFFFFFFFFFFFFFFFFFFFFFFFFFFFFFFFFFFFFFFFFFFFFFFFFFFFFFFFFF
310
FFFFFFFFFFFFFFFFFFFFFFFFFFFFFFFFFFFFFFFFFFFFFFFFFFFFFFFFFFFFFFFF
310
FFFFFFFFFFFFFFFFFFFFFFFFFFFFFFFFF000FFFFFFFFFFFFFFFFFFFFFFFFFFFF
310
FFFFFFFFFFFFFFFFFFFFFFFFFFFFFFFFFFFFFFFFFFFFFFFFFFFFFFFFFFFFFFFF
310
FFFFFFFFFFFFFFFFFFFFFFFFFFFFFFFFFFFFFFFFFFFFFFFFFFFFFFFFFFFFFFFF
310
FFFFFFFFFFFFFFFFF000FFFFFFFFFFFFFFFFFFFFFFFFFFFFFFFFFFFFFFFFFFFF
310
FFFFFFFFFFFFFFFFFFFFFFFFFFFFFFFFFFFFFFFFFFFFFFFFFFFFFFFFFFFFFFFF
310
FFFFFFFFFFFFFFFFFFFFFFFFFFFFFFFFFFFFFFFFFFFFFFFFFFFFFFFFFFFFFFFF
310
F000FFFFFFFFFFFFFFFFFFFFFFFFFFFFFFFFFFFFFFFFFFFFFFFFFFFFFFFFFFFF
310
FFFFFFFFFFFFFFFFFFFFFFFFFFFFFFFFFFFFFFFFFFFFFFFFFFFFFFFFFFFFFFFF
310
FFFFFFFFFFFFFFFFFFFFFFFFFFFFFFFFFFFFFFFFFFFFFFFFF000FFFFFFFFFFFF
310
FFFFFFFFFFFFFFFFFFFFFFFFFFFFFFFFFFFFFFFFFFFFFFFFFFFFFFFFFFFFFFFF
310
FFFFFFFFFFFFFFFFFFFFFFFFFFFFFFFFFFFFFFFFFFFFFFFFFFFFFFFFFFFFFFFF
310
FFFFFFFFFFFFFFFFFFFFFFFFFFFFFFFFF000FFFFFFFFFFFFFFFFFFFFFFFFFFFF
310
FFFFFFFFFFFFFFFFFFFFFFFFFFFFFFFFFFFFFFFFFFFFFFFFFFFFFFFFFFFFFFFF
310
FFFFFFFFFFFFFFFFFFFFFFFFFFFFFFFFFFFFFFFFFFFFFFFFFFFFFFFFFFFFFFFF
310
FFFFFFFFFFFFFFFFF000FFFFF80003FFFFFFFFFFFFFFFFFFFFFFFFFFFFFFFFFF
310
FFFFF00007FFFFFFFFFF00007FFFFFF800000000000000007FFFFFFFFFFFFFFF
310
FFFFFFFC001FFFFFFFFFFFFFFC001FFFFFFFFFFFFFFFFFFFFFFFFFFE0007FFFF
310
F000FFFF8000007FFFFFFFF8000FFFFFC0007FFFFF80007FFFFF0000007FFFFF
310
FFF8000007FFFFF800000000000000007FFFFFF0001FFFFFFFFFFFC00001FFFF
310
FFFFFFFFC00001FFFFFFFF000000000003FFFFE000007FFFF000FFFE0000000F
310
FFFFFFF0000FFFFF80007FFFFF80007FFFFC0000001FFFFFFFC0000001FFFFF8
310
00000000000000007FFFFFF0001FFFFFFFFFFE0000003FFFFFFFFFFE0000003F
310
FFFFFF000000000003FFFF0000000FFFF000FFF800000003FFFFFFF00007FFFF
310
80007FFFFF80007FFFF000000007FFFFFF000000003FFFF80000000000000000
310
7FFFFFF0001FFFFFFFFFF80000000FFFFFFFFFF80000000FFFFFFF0000000000
310
03FFFC00000003FFF000FFE000000000FFFFFFF00007FFFF80003FFFFF80007F
310
FFC000000001FFFFFC000000001FFFF800000000000000007FFFFFF0001FFFFF
310
FFFFE000000003FFFFFFFFE000000003FFFFFF000000000003FFF000000000FF
310
F000FF80000000007FFFFFF00007FFFF80003FFFFF80007FFF8000000000FFFF
310
F80000000007FFF800000000000000007FFFFFF0001FFFFFFFFFC000000001FF
310
FFFFFFC000000001FFFFFF000000000003FFC0000000007FF000FF0000000000
310
3FFFFFE00007FFFF00003FFFFF80007FFE00000000003FFFF00000000003FFF8
310
00000000000000007FFFFFF0001FFFFFFFFF8000000000FFFFFFFF8000000000
310
FFFFFF000000000003FF80000000003FF000FE00000000001FFFFFE00003FFFF
310
00003FFFFF80007FFC00000000001FFFE00000000001FFF8000001FFFE000000
310
7FFFFFF0001FFFFFFFFE00000000003FFFFFFE00000000003FFFFF0000000000
310
03FF00000000001FF000FC00000000000FFFFFE00003FFFF00001FFFFF80007F
310
F800000000001FFFC00000000000FFF8000001FFFE0000007FFFFFF0001FFFFF
310
FFFC00000000001FFFFFFC00000000001FFFFF000000000003FE00000000000F
310
F000F8000000000007FFFFE00003FFFF00001FFFFF80007FF800000000000FFF
310
800000000000FFF8000001FFFE0000007FFFFFF0001FFFFFFFF800000000000F
310
FFFFF800000000000FFFFF000000000003FC000000000007F000F80000000000
310
03FFFFC00003FFFE00001FFFFF80007FF0000000000007FF0000000000007FF8
310
000001FFFE0000007FFFFFF0001FFFFFFFF0000000000007FFFFF00000000000
310
07FFFF000000000003F8000000000003F000F0000000000003FFFFC00001FFFE
310
00001FFFFF80007FE0000000000007FE0000000000003FF8000001FFFE000000
310
7FFFFFF0001FFFFFFFF0000000000007FFFFF0000000000007FFFF0000000000
310
03F800001F800003F000E00001FFF00001FFFFC00001FFFE00000FFFFF80007F
310
E00001FFE00003FE00001FFF00003FF8000001FFFE0000007FFFFFF0001FFFFF
310
FFE000003E000003FFFFE000003E000003FFFF000000000003F00001FFF80001
310
F000E00007FFFC0001FFFFC00001FFFE00000FFFFF80007FC0000FFFFC0003FC
310
0000FFFFC0001FF8000001FFFE0000007FFFFFF0001FFFFFFFC00003FFE00001
310
FFFFC00003FFE00001FFFF0001FFFFFFFFF00007FFFE0001F000E0000FFFFF00
310
00FFFF800001FFFC00000FFFFF80007FC0001FFFFE0001FC0001FFFFE0001FF8
310
000001FFFE0000007FFFFFF0001FFFFFFF80000FFFF80000FFFF80000FFFF800
310
00FFFF0003FFFFFFFFE0000FFFFF8000F000C0003FFFFF8000FFFF800000FFFC
310
000007FFFF80007F80003FFFFF0001FC0003FFFFF0001FF8000001FFFE000000
310
7FFFFFF0001FFFFFFF80003FFFFE0000FFFF80003FFFFE0000FFFF0003FFFFFF
310
FFE0003FFFFF8000F000C0003FFFFF8000FFFF800000FFFC000007FFFF80007F
310
80007FFFFF8001F80007FFFFF8000FF8000001FFFE0000007FFFFFF0001FFFFF
310
FF00007FFFFF00007FFF00007FFFFF00007FFF0003FFFFFFFFE0003FFFFFC000
310
F000C0007FFFFFC000FFFF000000FFFC000007FFFF80007F8000FFFFFF8000F8
310
000FFFFFF8000FF8000001FFFE0000007FFFFFF0001FFFFFFF0000FFFFFF8000
310
7FFF0000FFFFFF80007FFF0003FFFFFFFFC0007FFFFFC00070008000FFFFFFC0
310
00FFFF000000FFF8000007FFFF80007F8000FFFFFF8000F8000FFFFFF8000FF8
310
000001FFFE0000007FFFFFF0001FFFFFFE0001FFFFFFC0003FFE0001FFFFFFC0
310
003FFF0003FFFFFFFFC0007FFFFFE00070008000FFFFFFC0007FFF0000007FF8
310
000003FFFF80007F0001FFFFFF8000F8000FFFFFF8000FF8000001FFFE000000
310
7FFFFFF0001FFFFFFE0001FFFFFFC0003FFE0001FFFFFFC0003FFF0003FFFFFF
310
FFC000FFFFFFE00070008000FFFFFFC0007FFF0000007FF8000003FFFF80007F
310
0001FFFFFF8000F8001FFFFFF8000FF8000001FFFE0000007FFFFFF0001FFFFF
310
FE0003FFFFFFE0003FFE0003FFFFFFE0003FFF0003FFFFFFFFC000FFFFFFE000
310
70008000FFFFFFC0007FFE0000007FF8000003FFFF80007F0001FFFFFF8000F0
310
001FFFFFF8000FF8000001FFFE0000007FFFFFF0001FFFFFFC0003FFFFFFE000
310
1FFC0003FFFFFFE0001FFF0003FFFFFFFFC000FFFFFFC00070008000FFFFFF80
310
007FFE0000007FF0000003FFFF80007F0001FFFFFF0000F0001FFFFFF8000FF8
310
000001FFFE0000007FFFFFF0001FFFFFFC0007FFFFFFF0001FFC0007FFFFFFF0
310
001FFF0003FFFFFFFFC000FFFFFFC00070008001FFFFFF0000FFFE0000003FF0
310
000001FFFF80007F0001FFFFFF0000F8001FFFFFF0000FF8000001FFFE000000
310
7FFFFFF0001FFFFFFC0007FFFFFFF0001FFC0007FFFFFFF0001FFF0003FFFFFF
310
FFC001FFFFFF80007000FFFFFFFFFE0000FFFE0008003FF0008001FFFF80007F
310
FFFFFFFFFC0000FFFFFFFFFFE0000FF8000001FFFE0000007FFFFFF0001FFFFF
310
F8000FFFFFFFF8000FF8000FFFFFFFF8000FFF0003FFFFFFFFFFFFFFFFFF0000
310
7000FFFFFFFFFC0000FFFC0008003FF0008001FFFF80007FFFFFFFFFF80001FF
310
FFFFFFFF80000FF8000001FFFE0000007FFFFFF0001FFFFFF8000FFFFFFFF800
310
0FF8000FFFFFFFF8000FFF0003FFFFFFFFFFFFFFFFFE0000F000FFFFFFFFE000
310
00FFFC000C003FE000C001FFFF80007FFFFFFFFFC00001FFFFFFFFFE00001FF8
310
000001FFFE0000007FFFFFF0001FFFFFF8000FFFFFFFF8000FF8000FFFFFFFF8
310
000FFF0003FFFFFFFFFFFFFFFFF00000F000FFFFFFFE000001FFFC000C001FE0
310
00C000FFFF80007FFFFFFFFE000001FFFFFFFFE000001FF80FFFFFFFFFFFFFC0
310
7FFFFFF0001FFFFFF8000FFFFFFFF8000FF8000FFFFFFFF8000FFF0003FFFFFF
310
FFFFFFFFFF800000F000FFFFFFC0000001FFFC001C001FE001C000FFFF80007F
310
FFFFFF80000003FFFFFFF80000001FF80FFFFFFFFFFFFFC07FFFFFF0001FFFFF
310
F8001FFFFFFFFC000FF8001FFFFFFFFC000FFF0003FFFFFFFFFFFFFFF0000001
310
F000FFFFF800000001FFF8001C001FE001C000FFFF80007FFFFFF800000003FF
310
FFFF800000003FF80FFFFFFFFFFFFFC07FFFFFF0001FFFFFF8001FFFFFFFFC00
310
0FF8001FFFFFFFFC000FFF0003FFFFFFFFFFFFFE00000001F000FFFFC0000000
310
03FFF8001E001FC001E000FFFF80007FFFFF8000000007FFFFFC000000003FF8
310
0FFFFFFFFFFFFFC07FFFFFF0001FFFFFF8001FFFFFFFFC000FF8001FFFFFFFFC
310
000FFF0003FFFFFFFFFFFFE000000003F000FFFE0000000007FFF8001E000FC0
310
01E0007FFF80007FFFFE0000000007FFFFE0000000007FF80FFFFFFFFFFFFFC0
310
7FFFFFF0001FFFFFF0001FFFFFFFFC0007F0001FFFFFFFFC0007FF0003FFFFFF
310
FFFFFF0000000003F000FFF80000000007FFF8001E000FC003E0007FFF80007F
310
FFF0000000000FFFFF8000000000FFF80FFFFFFFFFFFFFC07FFFFFF0001FFFFF
310
F0001FFFFFFFFC0007F0001FFFFFFFFC0007FF0003FFFFFFFFFFFC0000000007
310
F000FFE0000000000FFFF0003E000FC003E0007FFF80007FFFC0000000001FFF
310
FE0000000001FFF80FFFFFFFFFFFFFC07FFFFFF0001FFFFFF0001FFFFFFFFC00
310
07F0001FFFFFFFFC0007FF0003FFFFFFFFFFF0000000000FF000FFC000000000
310
1FFFF0003F000F8003F0003FFF80007FFF80000000003FFFF80000000003FFF8
310
0FFFFFFFFFFFFFC07FFFFFF0001FFFFFF0001FFFFFFFFC0007F0001FFFFFFFFC
310
0007FF0003FFFFFFFFFFE0000000001FF000FF00000000007FFFF0003F000780
310
03F0003FFF80007FFF00000000007FFFF00000000007FFF80FFFFFFFFFFFFFC0
310
7FFFFFF0001FFFFFF0001FFFFFFFFC0007F0001FFFFFFFFC0007FF0003FFFFFF
310
FFFF80000000007FF000FE0000000000FFFFE0003F00078007F0003FFF80007F
310
FE0000000001FFFFE0000000001FFFF80FFFFFFFFFFFFFC07FFFFFF0001FFFFF
310
F0001FFFFFFFFC0007F0001FFFFFFFFC0007FF0003FFFFFFFFFF0000000000FF
310
F000FC0000000003FFFFE0007F00078007F0003FFF80007FFC0000000007FFFF
310
C0000000007FFFF80FFFFFFFFFFFFFC07FFFFFF0001FFFFFF8001FFFFFFFFC00
310
0FF8001FFFFFFFFC000FFF0003FFFFFFFFFE0000000003FFF000FC000000000F
310
FFFFE0007F80070007F8001FFF80007FF8000000001FFFFF8000000001FFFFF8
310
0FFFFFFFFFFFFFC07FFFFFF0001FFFFFF8001FFFFFFFFC000FF8001FFFFFFFFC
310
000FFF0003FFFFFFFFFC000000000FFFF000F8000000007FFFFFE0007F800700
310
07F8001FFF80007FF000000000FFFFFF800000000FFFFFF80FFFFFFFFFFFFFC0
310
7FFFFFF0001FFFFFF8000FFFFFFFF8000FF8000FFFFFFFF8000FFF0003FFFFFF
310
FFFC000000007FFFF000F800000007FFFFFFC0007F8003000FF8001FFF80007F
310
F000000007FFFFFF000000007FFFFFF80FFFFFFFFFFFFFC07FFFFFF0001FFFFF
310
F8000FFFFFFFF8000FF8000FFFFFFFF8000FFF0003FFFFFFFFF80000000FFFFF
310
F000F0000000FFFFFFFFC000FF8003000FF8001FFF80007FE0000000FFFFFFFF
310
0000000FFFFFFFF8000001FFFE0000007FFFFFF0001FFFFFF8000FFFFFFFF800
310
0FF8000FFFFFFFF8000FFF0003FFFFFFFFF8000000FFFFFFF000F000000FFFFF
310
FFFFC000FFC002000FF8000FFF80007FE000001FFFFFFFFE000001FFFFFFFFF8
310
000001FFFE0000007FFFFFF0001FFFFFF8000FFFFFFFF8000FF8000FFFFFFFF8
310
000FFF0003FFFFFFFFF000001FFFFFFFF000E00000FFFFFFFFFFC000FFC00200
310
0FFC000FFF80007FE00001FFFFFFFFFE00001FFFFFFFFFF8000001FFFE000000
310
7FFFFFF0001FFFFFFC000FFFFFFFF8001FFC000FFFFFFFF8001FFF0003FFFFFF
310
FFF00001FFFFFFFFF000E00007FFFFFFFFFF8000FFC000001FFC000FFF80007F
310
C0000FFFFFFFFFFE0000FFFFFFFFFFF8000001FFFE0000007FFFFFF0001FFFFF
310
FC0007FFFFFFF0001FFC0007FFFFFFF0001FFF0003FFFFFFFFF00007FFFFFFFF
310
F000E0001FFFFFFFFFFF8000FFC000001FFC000FFF80007FC0003FFFFFFFFFFE
310
0001FFFFFFFFFFF8000001FFFE0000007FFFFFF0001FFFFFFC0007FFFFFFF000
310
1FFC0007FFFFFFF0001FFF0003FFFFFFFFF0001FFFFFFFFFF000E0003FFFFF00
310
03FF8001FFE000001FFC0007FF80007FC0007FFFFF0007FC0003FFFFF0003FF8
310
000001FFFE0000007FFFFFF0001FFFFFFC0003FFFFFFE0001FFC0003FFFFFFE0
310
001FFF0003FFFFFFFFF0003FFFFFFFFFF000E0003FFFFF0001FF8001FFE00000
310
1FFE0007FF80007FC0007FFFFE0003FC0007FFFFE0003FF8000001FFFE000000
310
7FFFFFF0001FFFFFFE0003FFFFFFE0003FFE0003FFFFFFE0003FFF0003FFFFFF
310
FFF0003FFFFF8001F000E0003FFFFF0001FF0001FFE000001FFE0007FF80007F
310
C0007FFFFE0003FC0007FFFFE0003FF8000001FFFE0000007FFFFFF0001FFFFF
310
FE0001FFFFFFC0003FFE0001FFFFFFC0003FFF0003FFFFFFFFF0003FFFFF0001
310
F000E0003FFFFF0003FF0001FFE000003FFE0007FF80007FC0007FFFFE0003FC
310
0007FFFFE0003FF8000001FFFE0000007FFFFFF0001FFFFFFF0001FFFFFFC000
310
7FFF0001FFFFFFC0007FFF0003FFFFFFFFF0003FFFFF0001F000E0003FFFFE00
310
03FF0003FFF000003FFE0003FF80007FC0007FFFFC0003FE0007FFFFE0003FF8
310
000001FFFE0000007FFFFFF0001FFFFFFF0000FFFFFF80007FFF0000FFFFFF80
310
007FFF0003FFFFFFFFF0003FFFFF0001F000E0003FFFFE0003FF0003FFF00000
310
3FFF0003FF80007FC0007FFFFC0007FE0007FFFFC0003FF8000001FFFE000000
310
7FFFFFF0001FFFFFFF80007FFFFF0000FFFF80007FFFFF0000FFFF0003FFFFFF
310
FFF0003FFFFF0003F000E0003FFFFC0003FE0003FFF000003FFF0003FF80007F
310
E0003FFFF80007FE0003FFFFC0007FF8000001FFFE0000007FFFFFF0001FFFFF
310
FF80003FFFFE0000FFFF80003FFFFE0000FFFF0003FFFFFFFFF0001FFFFE0003
310
F000F0001FFFF80003FE0003FFF000007FFF0001FF80007FE0003FFFF00007FE
310
0001FFFF80007FF8000001FFFE0000007FFFFFF0001FFFFFFFC0000FFFF80001
310
FFFFC0000FFFF80001FFFF0003FFFFFFFFF0001FFFFC0003F000F0000FFFF000
310
07FE0007FFF800007FFF0001FF80007FE0001FFFE00007FF0000FFFE00007FF8
310
000001FFFE0000007FFFFFF0001FFFFFFFC00003FFE00001FFFFC00003FFE000
310
01FFFF0003FFFFFFFFF8000FFFF80003F000F00003FFC00007FC0007FFF80000
310
7FFF8001FF80007FF00007FF80000FFF00007FF80000FFF8000001FFFE000000
310
7F80000000000001FFE000003E000003FFFFE000003E000003FFFF0003FFFFFF
310
FFF80003FFE00007F000F800000000000FFC0007FFF800007FFF8001FF80007F
310
F000000000000FFF000000000000FFF8000001FFFE0000007F80000000000001
310
FFF0000000000007FFFFF0000000000007FFFF0003FFFFFFFFFC00007E000007
310
F000F800000000000FFC0007FFF80000FFFF8000FF80007FF800000000001FFF
310
800000000001FFF8000001FFFE0000007F80000000000001FFF800000000000F
310
FFFFF800000000000FFFFF0003FFFFFFFFFC00000000000FF000FC0000000000
310
1FFC0007FFFC0000FFFF8000FF80007FF800000000003FFFC00000000001FFF8
310
000001FFFE0000007F80000000000001FFF800000000000FFFFFF80000000000
310
0FFFFF0003FFFFFFFFFE00000000001FF000FE00000000003FF8000FFFFC0000
310
FFFF8000FF80007FFC00000000003FFFC00000000003FFF8000001FFFE000000
310
7F80000000000001FFFC00000000001FFFFFFC00000000001FFFFF0003FFFFFF
310
FFFF00000000001FF000FF00000000003FF8000FFFFC0000FFFFC000FF80007F
310
FE00000000007FFFE00000000007FFF8000001FFFE0000007F80000000000001
310
FFFE00000000003FFFFFFE00000000003FFFFF0003FFFFFFFFFF80000000003F
310
F000FF80000000007FF8000FFFFC0001FFFFC0007F80007FFF0000000000FFFF
310
F0000000000FFFF800000000000000007F80000000000001FFFF8000000000FF
310
FFFFFF8000000000FFFFFF0003FFFFFFFFFFC0000000007FF000FFC000000000
310
FFF8000FFFFE0001FFFFC0007F80007FFF8000000001FFFFF8000000001FFFF8
310
00000000000000007F80000000000001FFFFC000000001FFFFFFFFC000000001
310
FFFFFF0003FFFFFFFFFFE000000000FFF000FFE000000003FFF0001FFFFE0001
310
FFFFC0007F80007FFFC000000007FFFFFE000000003FFFF80000000000000000
310
7F80000000000001FFFFE000000003FFFFFFFFE000000003FFFFFF0003FFFFFF
310
FFFFF000000003FFF000FFF80000000FFFF0001FFFFE0001FFFFE0007F80007F
310
FFF00000000FFFFFFF00000000FFFFF800000000000000007F80000000000001
310
FFFFF80000000FFFFFFFFFF80000000FFFFFFF0003FFFFFFFFFFFC0000000FFF
310
F000FFFE0000003FFFF0001FFFFE0003FFFFE0003F80007FFFFC0000003FFFFF
310
FFC0000003FFFFF800000000000000007F80000000000001FFFFFE0000003FFF
310
FFFFFFFE0000003FFFFFFF0003FFFFFFFFFFFF0000003FFFF000FFFF800000FF
310
FFF0001FFFFF0003FFFFE0003F80007FFFFF000001FFFFFFFFF800001FFFFFF8
310
00000000000000007F80000000000001FFFFFFC00001FFFFFFFFFFFFC00001FF
310
FFFFFF0003FFFFFFFFFFFFC00000FFFFF000FFFFF8000FFFFFFFFFFFFFFFFFFF
310
FFFFFFFFFFFFFFFFFFFFF0001FFFFFFFFFFF0000FFFFFFF80000000000000000
310
7FFFFFFFFFFFFFFFFFFFFFFC001FFFFFFFFFFFFFFC001FFFFFFFFFFFFFFFFFFF
310
FFFFFFFC001FFFFFF000FFFFFFFFFFFFFFFFFFFFFFFFFFFFFFFFFFFFFFFFFFFF
310
FFFFFFFFFFFFFFFFFFFFFFFFFFFFFFFFFFFFFFFFFFFFFFFFFFFFFFFFFFFFFFFF
310
FFFFFFFFFFFFFFFFFFFFFFFFFFFFFFFFFFFFFFFFFFFFFFFFFFFFFFFFFFFFFFFF
310
F000FFFFFFFFFFFFFFFFFFFFFFFFFFFFFFFFFFFFFFFFFFFFFFFFFFFFFFFFFFFF
310
FFFFFFFFFFFFFFFFFFFFFFFFFFFFFFFFFFFFFFFFFFFFFFFFFFFFFFFFFFFFFFFF
310
FFFFFFFFFFFFFFFFFFFFFFFFFFFFFFFFFFFFFFFFFFFFFFFFF000FFFFFFFFFFFF
310
FFFFFFFFFFFFFFFFFFFFFFFFFFFFFFFFFFFFFFFFFFFFFFFFFFFFFFFFFFFFFFFF
310
FFFFFFFFFFFFFFFFFFFFFFFFFFFFFFFFFFFFFFFFFFFFFFFFFFFFFFFFFFFFFFFF
310
FFFFFFFFFFFFFFFFFFFFFFFFFFFFFFFFF000FFFFFFFFFFFFFFFFFFFFFFFFFFFF
310
FFFFFFFFFFFFFFFFFFFFFFFFFFFFFFFFFFFFFFFFFFFFFFFFFFFFFFFFFFFFFFFF
310
FFFFFFFFFFFFFFFFFFFFFFFFFFFFFFFFFFFFFFFFFFFFFFFFFFFFFFFFFFFFFFFF
310
FFFFFFFFFFFFFFFFF000FFFFFFFFFFFFFFFFFFFFFFFFFFFFFFFFFFFFFFFFFFFF
310
FFFFFFFFFFFFFFFFFFFFFFFFFFFFFFFFFFFFFFFFFFFFFFFFFFFFFFFFFFFFFFFF
310
FFFFFFFFFFFFFFFFFFFFFFFFFFFFFFFFFFFFFFFFFFFFFFFFFFFFFFFFFFFFFFFF
310
F000FFFFFFFFFFFFFFFFFFFFFFFFFFFFFFFFFFFFFFFFFFFFFFFFFFFFFFFFFFFF
310
FFFFFFFFFFFFFFFFFFFFFFFFFFFFFFFFFFFFFFFFFFFFFFFFFFFFFFFFFFFFFFFF
310
FFFFFFFFFFFFFFFFFFFFFFFFFFFFFFFFFFFFFFFFFFFFFFFFF000FFFFFFFFFFFF
310
FFFFFFFFFFFFFFFFFFFFFFFFFFFFFFFFFFFFFFFFFFFFFFFFFFFFFFFFFFFFFFFF
310
FFFFFFFFFFFFFFFFFFFFFFFFFFFFFFFFFFFFFFFFFFFFFFFFFFFFFFFFFFFFFFFF
310
FFFFFFFFFFFFFFFFFFFFFFFFFFFFFFFFF000FFFFFFFFFFFFFFFFFFFFFFFFFFFF
310
FFFFFFFFFFFFFFFFFFFFFFFFFFFFFFFFFFFFFFFFFFFFFFFFFFFFFFFFFFFFFFFF
310
FFFFFFFFFFFFFFFFFFFFFFFFFFFFFFFFFFFFFFFFFFFFFFFFFFFFFFFFFFFFFFFF
310
FFFFFFFFFFFFFFFFF000FFFFFFFFFFFFFFFFFFFFFFFFFFFFFFFFFFFFFFFFFFFF
310
FFFFFFFFFFFFFFFFFFFFFFFFFFFFFFFFFFFFFFFFFFFFFFFFFFFFFFFFFFFFFFFF
310
FFFFFFFFFFFFFFFFFFFFFFFFFFFFFFFFFFFFFFFFFFFFFFFFFFFFFFFFFFFFFFFF
310
F000FFFFFFFFFFFFFFFFFFFFFFFFFFFFFFFFFFFFFFFFFFFFFFFFFFFFFFFFFFFF
310
FFFFFFFFFFFFFFFFFFFFFFFFFFFFFFFFFFFFFFFFFFFFFFFFFFFFFFFFFFFFFFFF
310
FFFFFFFFFFFFFFFFFFFFFFFFFFFFFFFFFFFFFFFFFFFFFFFFF000FFFFFFFFFFFF
310
FFFFFFFFFFFFFFFFFFFFFFFFFFFFFFFFFFFFFFFFFFFFFFFFFFFFFFFFFFFFFFFF
310
FFFFFFFFFFFFFFFFFFFFFFFFFFFFFFFFFFFFFFFFFFFFFFFFFFFFFFFFFFFFFFFF
310
FFFFFFFFFFFFFFFFFFFFFFFFFFFFFFFFF000FFFFFFFFFFFFFFFFFFFFFFFFFFFF
310
FFFFFFFFFFFFFFFFFFFFFFFFFFFFFFFFFFFFFFFFFFFFFFFFFFFFFFFFFFFFFFFF
310
FFFFFFFFFFFFFFFFFFFFFFFFFFFFFFFFFFFFFFFFFFFFFFFFFFFFFFFFFFFFFFFF
310
FFFFFFFFFFFFFFFFF000FFFFFFFFFFFFFFFFFFFFFFFFFFFFFFFFFFFFFFFFFFFF
310
FFFFFFFFFFFFFFFFFFFFFFFFFFFFFFFFFFFFFFFFFFFFFFFFFFFFFFFFFFFFFFFF
310
FFFFFFFFFFFFFFFFFFFFFFFFFFFFFFFFFFFFFFFFFFFFFFFFFFFFFFFFFFFFFFFF
310
F000FFFFFFFFFFFFFFFFFFFFFFFFFFFFFFFFFFFFFFFFFFFFFFFFFFFFFFFFFFFF
310
FFFFFFFFFFFFFFFFFFFFFFFFFFFFFFFFFFFFFFFFFFFFFFFFFFFFFFFFFFFFFFFF
310
FFFFFFFFFFFFFFFFFFFFFFFFFFFFFFFFFFFFFFFFFFFFFFFFF000FFFFFFFFFFFF
310
FFFFFFFFFFFFFFFFFFFFFFFFFFFFFFFFFFFFFFFFFFFFFFFFFFFFFFFFFFFFFFFF
310
FFFFFFFFFFFFFFFFFFFFFFFFFFFFFFFFFFFFFFFFFFFFFFFFFFFFFFFFFFFFFFFF
310
FFFFFFFFFFFFFFFFFFFFFFFFFFFFFFFFF000FFFFFFFFFFFFFFFFFFFFFFFFFFFF
310
FFFFFFFFFFFFFFFFFFFFFFFFFFFFFFFFFFFFFFFFFFFFFFFFFFFFFFFFFFFFFFFF
310
FFFFFFFFFFFFFFFFFFFFFFFFFFFFFFFFFFFFFFFFFFFFFFFFFFFFFFFFFFFFFFFF
310
FFFFFFFFFFFFFFFFF000FFFFFFFFFFFFFFFFFFFFFFFFFFFFFFFFFFFFFFFFFFFF
310
FFFFFFFFFFFFFFFFFFFFFFFFFFFFFFFFFFFFFFFFFFFFFFFFFFFFFFFFFFFFFFFF
310
FFFFFFFFFFFFFFFFFFFFFFFFFFFFFFFFFFFFFFFFFFFFFFFFFFFFFFFFFFFFFFFF
310
F000FFFFFFFFFFFFFFFFFFFFFFFFFFFFFFFFFFFFFFFFFFFFFFFFFFFFFFFFFFFF
310
FFFFFFFFFFFFFFFFFFFFFFFFFFFFFFFFFFFFFFFFFFFFFFFFFFFFFFFFFFFFFFFF
310
FFFFFFFFFFFFFFFFFFFFFFFFFFFFFFFFFFFFFFFFFFFFFFFFF000FFFFFFFFFFFF
310
FFFFFFFFFFFFFFFFFFFFFFFFFFFFFFFFFFFFFFFFFFFFFFFFFFFFFFFFFFFFFFFF
310
FFFFFFFFFFFFFFFFFFFFFFFFFFFFFFFFFFFFFFFFFFFFFFFFFFFFFFFFFFFFFFFF
310
FFFFFFFFFFFFFFFFFFFFFFFFFFFFFFFFF000FFFFFFFFFFFFFFFFFFFFFFFFFFFF
310
FFFFFFFFFFFFFFFFFFFFFFFFFFFFFFFFFFFFFFFFFFFFFFFFFFFFFFFFFFFFFFFF
310
FFFFFFFFFFFFFFFFFFFFFFFFFFFFFFFFFFFFFFFFFFFFFFFFFFFFFFFFFFFFFFFF
310
FFFFFFFFFFFFFFFFF000FFFFFFFFFFFFFFFFFFFFFFFFFFFFFFFFFFFFFFFFFFFF
310
FFFFFFFFFFFFFFFFFFFFFFFFFFFFFFFFFFFFFFFFFFFFFFFFFFFFFFFFFFFFFFFF
310
FFFFFFFFFFFFFFFFFFFFFFFFFFFFFFFFFFFFFFFFFFFFFFFFFFFFFFFFFFFFFFFF
310
F000FFFFFFFFFFFFFFFFFFFFFFFFFFFFFFFFFFFFFFFFFFFFFFFFFFFFFFFFFFFF
310
FFFFFFFFFFFFFFFFFFFFFFFFFFFFFFFFFFFFFFFFFFFFFFFFFFFFFFFFFFFFFFFF
310
FFFFFFFFFFFFFFFFFFFFFFFFFFFFFFFFFFFFFFFFFFFFFFFFF000FFFFFFFFFFFF
310
FFFFFFFFFFFFFFFFFFFFFFFFFFFFFFFFFFFFFFFFFFFFFFFFFFFFFFFFFFFFFFFF
310
FFFFFFFFFFFFFFFFFFFFFFFFFFFFFFFFFFFFFFFFFFFFFFFFFFFFFFFFFFFFFFFF
310
FFFFFFFFFFFFFFFFFFFFFFFFFFFFFFFFF0000000000000000000000000000000
310
0000000000000000000000000000000000000000000000000000000000000000
310
0000000000000000000000000000000000000000000000000000000000000000
310
0000000000000000000000000000000000000000000000000000000000000000
310
0000000000000000000000000000000000000000000000000000000000000000
310
0000000000000000000000000000000000000000000000000000000000000000
310
0000000000000000000000000000000000000000000000000000000000000000
310
0000000000000000000000000000000000000000000000000000000000000000
310
0000000000000000000000000000000000000000000000000000000000000000
310
0000000000000000000000000000000000000000000000000000000000000000
310
0000000000000000000000000000000000000000000000000000000000000000
310
0000000000000000000000000000000000000000000000000000000000000000
310
0000000000000000000000000000000000000000000000000000000000000000
310
0000000000000000000000000000000000000000000000000000000000000000
310
0000000000000000000000000000000000000000000000000000000000000000
310
0000000000000000000000000000000000000000000000000000000000000000
  1
OLE
  0
ENDSEC
  0
SECTION
  2
OBJECTS
  0
DICTIONARY
  5
C
330
0
100
AcDbDictionary
281
     1
  3
ACAD_GROUP
350
D
  3
ACAD_LAYOUT
350
1A
  3
ACAD_MLINESTYLE
350
17
  3
ACAD_PLOTSETTINGS
350
19
  3
ACAD_PLOTSTYLENAME
350
E
  3
ACAD_SCALELIST
350
47
  0
DICTIONARY
  5
D
102
{ACAD_REACTORS
330
C
102
}
330
C
100
AcDbDictionary
281
     1
  0
DICTIONARY
  5
1A
102
{ACAD_REACTORS
330
C
102
}
330
C
100
AcDbDictionary
281
     1
  3
Layout1
350
1E
  3
Layout2
350
26
  3
Model
350
22
  0
DICTIONARY
  5
17
102
{ACAD_REACTORS
330
C
102
}
330
C
100
AcDbDictionary
281
     1
  3
Standard
350
18
  0
DICTIONARY
  5
19
102
{ACAD_REACTORS
330
C
102
}
330
C
100
AcDbDictionary
281
     1
  0
ACDBDICTIONARYWDFLT
  5
E
102
{ACAD_REACTORS
330
C
102
}
330
C
100
AcDbDictionary
281
     1
  3
Normal
350
F
100
AcDbDictionaryWithDefault
340
F
  0
DICTIONARY
  5
47
102
{ACAD_REACTORS
330
C
102
}
330
C
100
AcDbDictionary
281
     1
  3
A0
350
48
  3
A1
350
49
  3
A2
350
4A
  3
A3
350
4B
  3
A4
350
4C
  3
A5
350
4D
  3
A6
350
4E
  3
A7
350
4F
  3
A8
350
50
  3
A9
350
51
  3
B0
350
52
  3
B1
350
53
  3
B2
350
54
  3
B3
350
55
  3
B4
350
56
  3
B5
350
57
  3
B6
350
58
  3
B7
350
59
  3
B8
350
5A
  3
B9
350
5B
  3
C0
350
5C
  3
C1
350
5D
  3
C2
350
5E
  3
C3
350
5F
  3
C4
350
60
  3
C5
350
61
  3
C6
350
62
  3
C7
350
63
  3
C8
350
64
  3
C9
350
65
  3
D0
350
66
  3
D1
350
67
  3
D2
350
68
  0
LAYOUT
  5
1E
102
{ACAD_REACTORS
330
1A
102
}
330
1A
100
AcDbPlotSettings
  1

  2
none_device
  4

  6

 40
0.0
 41
0.0
 42
0.0
 43
0.0
 44
0.0
 45
0.0
 46
0.0
 47
0.0
 48
0.0
 49
0.0
140
0.0
141
0.0
142
1.0
143
1.0
 70
   688
 72
     1
 73
     0
 74
     5
  7

 75
    16
147
1.0
148
0.0
149
0.0
100
AcDbLayout
  1
Layout1
 70
     1
 71
     1
 10
0.0
 20
0.0
 11
420.0
 21
297.0
 12
0.0
 22
0.0
 32
0.0
 14
1.0000000000E+20
 24
1.0000000000E+20
 34
1.0000000000E+20
 15
-1.0000000000E+20
 25
-1.0000000000E+20
 35
-1.0000000000E+20
146
0.0
 13
0.0
 23
0.0
 33
0.0
 16
1.0
 26
0.0
 36
0.0
 17
0.0
 27
1.0
 37
0.0
 76
     0
330
1B
  0
LAYOUT
  5
26
102
{ACAD_REACTORS
330
1A
102
}
330
1A
100
AcDbPlotSettings
  1

  2
none_device
  4

  6

 40
0.0
 41
0.0
 42
0.0
 43
0.0
 44
0.0
 45
0.0
 46
0.0
 47
0.0
 48
0.0
 49
0.0
140
0.0
141
0.0
142
1.0
143
1.0
 70
   688
 72
     1
 73
     0
 74
     5
  7

 75
    16
147
1.0
148
0.0
149
0.0
100
AcDbLayout
  1
Layout2
 70
     1
 71
     2
 10
0.0
 20
0.0
 11
0.0
 21
0.0
 12
0.0
 22
0.0
 32
0.0
 14
0.0
 24
0.0
 34
0.0
 15
0.0
 25
0.0
 35
0.0
146
0.0
 13
0.0
 23
0.0
 33
0.0
 16
1.0
 26
0.0
 36
0.0
 17
0.0
 27
1.0
 37
0.0
 76
     0
330
23
  0
LAYOUT
  5
22
102
{ACAD_REACTORS
330
1A
102
}
330
1A
100
AcDbPlotSettings
  1

  2
none_device
  4
Letter_(8.50_x_11.00_Inches)
  6

 40
6.35
 41
6.35
 42
6.35000508
 43
6.35000508
 44
215.9
 45
279.4
 46
0.0
 47
0.0
 48
0.0
 49
0.0
140
0.0
141
0.0
142
1.0
143
1.0
 70
  1712
 72
     1
 73
     0
 74
     0
  7

 75
     0
147
1.0
148
0.0
149
0.0
100
AcDbLayout
  1
Model
 70
     1
 71
     0
 10
0.0
 20
0.0
 11
297.0
 21
210.0
 12
0.0
 22
0.0
 32
0.0
 14
0.0
 24
0.0
 34
0.0
 15
297.0
 25
210.0
 35
0.0
146
0.0
 13
0.0
 23
0.0
 33
0.0
 16
1.0
 26
0.0
 36
0.0
 17
0.0
 27
1.0
 37
0.0
 76
     0
330
1F
331
29
  0
MLINESTYLE
  5
18
102
{ACAD_REACTORS
330
17
102
}
330
17
100
AcDbMlineStyle
  2
Standard
 70
     0
  3

 62
   256
 51
90.0
 52
90.0
 71
     2
 49
0.5
 62
   256
  6
BYLAYER
 49
-0.5
 62
   256
  6
BYLAYER
  0
ACDBPLACEHOLDER
  5
F
102
{ACAD_REACTORS
330
E
102
}
330
E
  0
SCALE
  5
48
102
{ACAD_REACTORS
330
47
102
}
330
47
100
AcDbScale
 70
     0
300
1:1
140
1.0
141
1.0
290
     1
  0
SCALE
  5
49
102
{ACAD_REACTORS
330
47
102
}
330
47
100
AcDbScale
 70
     0
300
1:2
140
1.0
141
2.0
290
     0
  0
SCALE
  5
4A
102
{ACAD_REACTORS
330
47
102
}
330
47
100
AcDbScale
 70
     0
300
1:4
140
1.0
141
4.0
290
     0
  0
SCALE
  5
4B
102
{ACAD_REACTORS
330
47
102
}
330
47
100
AcDbScale
 70
     0
300
1:5
140
1.0
141
5.0
290
     0
  0
SCALE
  5
4C
102
{ACAD_REACTORS
330
47
102
}
330
47
100
AcDbScale
 70
     0
300
1:8
140
1.0
141
8.0
290
     0
  0
SCALE
  5
4D
102
{ACAD_REACTORS
330
47
102
}
330
47
100
AcDbScale
 70
     0
300
1:10
140
1.0
141
10.0
290
     0
  0
SCALE
  5
4E
102
{ACAD_REACTORS
330
47
102
}
330
47
100
AcDbScale
 70
     0
300
1:16
140
1.0
141
16.0
290
     0
  0
SCALE
  5
4F
102
{ACAD_REACTORS
330
47
102
}
330
47
100
AcDbScale
 70
     0
300
1:20
140
1.0
141
20.0
290
     0
  0
SCALE
  5
50
102
{ACAD_REACTORS
330
47
102
}
330
47
100
AcDbScale
 70
     0
300
1:30
140
1.0
141
30.0
290
     0
  0
SCALE
  5
51
102
{ACAD_REACTORS
330
47
102
}
330
47
100
AcDbScale
 70
     0
300
1:40
140
1.0
141
40.0
290
     0
  0
SCALE
  5
52
102
{ACAD_REACTORS
330
47
102
}
330
47
100
AcDbScale
 70
     0
300
1:50
140
1.0
141
50.0
290
     0
  0
SCALE
  5
53
102
{ACAD_REACTORS
330
47
102
}
330
47
100
AcDbScale
 70
     0
300
1:100
140
1.0
141
100.0
290
     0
  0
SCALE
  5
54
102
{ACAD_REACTORS
330
47
102
}
330
47
100
AcDbScale
 70
     0
300
2:1
140
2.0
141
1.0
290
     0
  0
SCALE
  5
55
102
{ACAD_REACTORS
330
47
102
}
330
47
100
AcDbScale
 70
     0
300
4:1
140
4.0
141
1.0
290
     0
  0
SCALE
  5
56
102
{ACAD_REACTORS
330
47
102
}
330
47
100
AcDbScale
 70
     0
300
8:1
140
8.0
141
1.0
290
     0
  0
SCALE
  5
57
102
{ACAD_REACTORS
330
47
102
}
330
47
100
AcDbScale
 70
     0
300
10:1
140
10.0
141
1.0
290
     0
  0
SCALE
  5
58
102
{ACAD_REACTORS
330
47
102
}
330
47
100
AcDbScale
 70
     0
300
100:1
140
100.0
141
1.0
290
     0
  0
SCALE
  5
59
102
{ACAD_REACTORS
330
47
102
}
330
47
100
AcDbScale
 70
     0
300
1/128" = 1'-0"
140
0.0078125
141
12.0
290
     0
  0
SCALE
  5
5A
102
{ACAD_REACTORS
330
47
102
}
330
47
100
AcDbScale
 70
     0
300
1/64" = 1'-0"
140
0.015625
141
12.0
290
     0
  0
SCALE
  5
5B
102
{ACAD_REACTORS
330
47
102
}
330
47
100
AcDbScale
 70
     0
300
1/32" = 1'-0"
140
0.03125
141
12.0
290
     0
  0
SCALE
  5
5C
102
{ACAD_REACTORS
330
47
102
}
330
47
100
AcDbScale
 70
     0
300
1/16" = 1'-0"
140
0.0625
141
12.0
290
     0
  0
SCALE
  5
5D
102
{ACAD_REACTORS
330
47
102
}
330
47
100
AcDbScale
 70
     0
300
3/32" = 1'-0"
140
0.09375
141
12.0
290
     0
  0
SCALE
  5
5E
102
{ACAD_REACTORS
330
47
102
}
330
47
100
AcDbScale
 70
     0
300
1/8" = 1'-0"
140
0.125
141
12.0
290
     0
  0
SCALE
  5
5F
102
{ACAD_REACTORS
330
47
102
}
330
47
100
AcDbScale
 70
     0
300
3/16" = 1'-0"
140
0.1875
141
12.0
290
     0
  0
SCALE
  5
60
102
{ACAD_REACTORS
330
47
102
}
330
47
100
AcDbScale
 70
     0
300
1/4" = 1'-0"
140
0.25
141
12.0
290
     0
  0
SCALE
  5
61
102
{ACAD_REACTORS
330
47
102
}
330
47
100
AcDbScale
 70
     0
300
3/8" = 1'-0"
140
0.375
141
12.0
290
     0
  0
SCALE
  5
62
102
{ACAD_REACTORS
330
47
102
}
330
47
100
AcDbScale
 70
     0
300
1/2" = 1'-0"
140
0.5
141
12.0
290
     0
  0
SCALE
  5
63
102
{ACAD_REACTORS
330
47
102
}
330
47
100
AcDbScale
 70
     0
300
3/4" = 1'-0"
140
0.75
141
12.0
290
     0
  0
SCALE
  5
64
102
{ACAD_REACTORS
330
47
102
}
330
47
100
AcDbScale
 70
     0
300
1" = 1'-0"
140
1.0
141
12.0
290
     0
  0
SCALE
  5
65
102
{ACAD_REACTORS
330
47
102
}
330
47
100
AcDbScale
 70
     0
300
1-1/2" = 1'-0"
140
1.5
141
12.0
290
     0
  0
SCALE
  5
66
102
{ACAD_REACTORS
330
47
102
}
330
47
100
AcDbScale
 70
     0
300
3" = 1'-0"
140
3.0
141
12.0
290
     0
  0
SCALE
  5
67
102
{ACAD_REACTORS
330
47
102
}
330
47
100
AcDbScale
 70
     0
300
6" = 1'-0"
140
6.0
141
12.0
290
     0
  0
SCALE
  5
68
102
{ACAD_REACTORS
330
47
102
}
330
47
100
AcDbScale
 70
     0
300
1'-0" = 1'-0"
140
12.0
141
12.0
290
     0
  0
ENDSEC
  0
EOF
