  0
SECTION
  2
HEADER
  9
$ACADVER
  1
AC1015
  9
$ACADMAINTVER
 70
     6
  9
$DWGCODEPAGE
  3
ANSI_1252
  9
$INSBASE
 10
0.0
 20
0.0
 30
0.0
  9
$EXTMIN
 10
0.0
 20
0.0
 30
0.0
  9
$EXTMAX
 10
297.0
 20
210.0
 30
0.0
  9
$LIMMIN
 10
0.0
 20
0.0
  9
$LIMMAX
 10
297.0
 20
210.0
  9
$ORTHOMODE
 70
     0
  9
$REGENMODE
 70
     1
  9
$FILLMODE
 70
     1
  9
$QTEXTMODE
 70
     0
  9
$MIRRTEXT
 70
     1
  9
$LTSCALE
 40
1.0
  9
$ATTMODE
 70
     1
  9
$TEXTSIZE
 40
2.0
  9
$TRACEWID
 40
1.0
  9
$TEXTSTYLE
  7
Standard
  9
$CLAYER
  8
0
  9
$CELTYPE
  6
ByLayer
  9
$CECOLOR
 62
   256
  9
$CELTSCALE
 40
1.0
  9
$DISPSILH
 70
     0
  9
$DIMSCALE
 40
1.0
  9
$DIMASZ
 40
3.0
  9
$DIMEXO
 40
0.0
  9
$DIMDLI
 40
3.75
  9
$DIMRND
 40
0.0
  9
$DIMDLE
 40
0.0
  9
$DIMEXE
 40
1.0
  9
$DIMTP
 40
0.0
  9
$DIMTM
 40
0.0
  9
$DIMTXT
 40
2.0
  9
$DIMCEN
 40
2.5
  9
$DIMTSZ
 40
0.0
  9
$DIMTOL
 70
     0
  9
$DIMLIM
 70
     0
  9
$DIMTIH
 70
     1
  9
$DIMTOH
 70
     1
  9
$DIMSE1
 70
     0
  9
$DIMSE2
 70
     0
  9
$DIMTAD
 70
     1
  9
$DIMZIN
 70
     0
  9
$DIMBLK
  1

  9
$DIMASO
 70
     1
  9
$DIMSHO
 70
     1
  9
$DIMPOST
  1

  9
$DIMAPOST
  1

  9
$DIMALT
 70
     0
  9
$DIMALTD
 70
     3
  9
$DIMALTF
 40
0.0393700787
  9
$DIMLFAC
 40
2.0
  9
$DIMTOFL
 70
     1
  9
$DIMTVP
 40
0.0
  9
$DIMTIX
 70
     0
  9
$DIMSOXD
 70
     0
  9
$DIMSAH
 70
     0
  9
$DIMBLK1
  1

  9
$DIMBLK2
  1

  9
$DIMSTYLE
  2
ISO-25
  9
$DIMCLRD
 70
     0
  9
$DIMCLRE
 70
     0
  9
$DIMCLRT
 70
     0
  9
$DIMTFAC
 40
1.0
  9
$DIMGAP
 40
1.524
  9
$DIMJUST
 70
     0
  9
$DIMSD1
 70
     0
  9
$DIMSD2
 70
     0
  9
$DIMTOLJ
 70
     0
  9
$DIMTZIN
 70
     0
  9
$DIMALTZ
 70
     0
  9
$DIMALTTZ
 70
     0
  9
$DIMUPT
 70
     0
  9
$DIMDEC
 70
     2
  9
$DIMTDEC
 70
     3
  9
$DIMALTU
 70
     2
  9
$DIMALTTD
 70
     3
  9
$DIMTXSTY
  7
Standard
  9
$DIMAUNIT
 70
     0
  9
$DIMADEC
 70
     2
  9
$DIMALTRND
 40
0.0
  9
$DIMAZIN
 70
     0
  9
$DIMDSEP
 70
    44
  9
$DIMATFIT
 70
     3
  9
$DIMFRAC
 70
     0
  9
$DIMLDRBLK
  1

  9
$DIMLUNIT
 70
     2
  9
$DIMLWD
 70
    -2
  9
$DIMLWE
 70
    -2
  9
$DIMTMOVE
 70
     0
  9
$LUNITS
 70
     2
  9
$LUPREC
 70
     2
  9
$SKETCHINC
 40
1.0
  9
$FILLETRAD
 40
10.0
  9
$AUNITS
 70
     0
  9
$AUPREC
 70
     2
  9
$MENU
  1
.
  9
$ELEVATION
 40
0.0
  9
$PELEVATION
 40
0.0
  9
$THICKNESS
 40
0.0
  9
$LIMCHECK
 70
     0
  9
$CHAMFERA
 40
0.0
  9
$CHAMFERB
 40
0.0
  9
$CHAMFERC
 40
0.0
  9
$CHAMFERD
 40
0.0
  9
$SKPOLY
 70
     0
  9
$TDCREATE
 40
2458169.626591736
  9
$TDUCREATE
 40
2458169.584925069
  9
$TDUPDATE
 40
2458169.626593681
  9
$TDUUPDATE
 40
2458169.584927014
  9
$TDINDWG
 40
0.0000000116
  9
$TDUSRTIMER
 40
0.0000000116
  9
$USRTIMER
 70
     1
  9
$ANGBASE
 50
0.0
  9
$ANGDIR
 70
     0
  9
$PDMODE
 70
     0
  9
$PDSIZE
 40
-1.0
  9
$PLINEWID
 40
0.0
  9
$SPLFRAME
 70
     0
  9
$SPLINETYPE
 70
     6
  9
$SPLINESEGS
 70
     8
  9
$HANDSEED
  5
245
  9
$SURFTAB1
 70
     6
  9
$SURFTAB2
 70
     6
  9
$SURFTYPE
 70
     6
  9
$SURFU
 70
     6
  9
$SURFV
 70
     6
  9
$UCSBASE
  2

  9
$UCSNAME
  2

  9
$UCSORG
 10
0.0
 20
0.0
 30
0.0
  9
$UCSXDIR
 10
1.0
 20
0.0
 30
0.0
  9
$UCSYDIR
 10
0.0
 20
1.0
 30
0.0
  9
$UCSORTHOREF
  2

  9
$UCSORTHOVIEW
 70
     0
  9
$UCSORGTOP
 10
0.0
 20
0.0
 30
0.0
  9
$UCSORGBOTTOM
 10
0.0
 20
0.0
 30
0.0
  9
$UCSORGLEFT
 10
0.0
 20
0.0
 30
0.0
  9
$UCSORGRIGHT
 10
0.0
 20
0.0
 30
0.0
  9
$UCSORGFRONT
 10
0.0
 20
0.0
 30
0.0
  9
$UCSORGBACK
 10
0.0
 20
0.0
 30
0.0
  9
$PUCSBASE
  2

  9
$PUCSNAME
  2

  9
$PUCSORG
 10
0.0
 20
0.0
 30
0.0
  9
$PUCSXDIR
 10
1.0
 20
0.0
 30
0.0
  9
$PUCSYDIR
 10
0.0
 20
1.0
 30
0.0
  9
$PUCSORTHOREF
  2

  9
$PUCSORTHOVIEW
 70
     0
  9
$PUCSORGTOP
 10
0.0
 20
0.0
 30
0.0
  9
$PUCSORGBOTTOM
 10
0.0
 20
0.0
 30
0.0
  9
$PUCSORGLEFT
 10
0.0
 20
0.0
 30
0.0
  9
$PUCSORGRIGHT
 10
0.0
 20
0.0
 30
0.0
  9
$PUCSORGFRONT
 10
0.0
 20
0.0
 30
0.0
  9
$PUCSORGBACK
 10
0.0
 20
0.0
 30
0.0
  9
$USERI1
 70
     0
  9
$USERI2
 70
     0
  9
$USERI3
 70
     0
  9
$USERI4
 70
     0
  9
$USERI5
 70
     0
  9
$USERR1
 40
0.0
  9
$USERR2
 40
0.0
  9
$USERR3
 40
0.0
  9
$USERR4
 40
0.0
  9
$USERR5
 40
0.0
  9
$WORLDVIEW
 70
     1
  9
$SHADEDGE
 70
     3
  9
$SHADEDIF
 70
    70
  9
$TILEMODE
 70
     1
  9
$MAXACTVP
 70
    64
  9
$PINSBASE
 10
0.0
 20
0.0
 30
0.0
  9
$PLIMCHECK
 70
     0
  9
$PEXTMIN
 10
1.0000000000E+20
 20
1.0000000000E+20
 30
1.0000000000E+20
  9
$PEXTMAX
 10
-1.0000000000E+20
 20
-1.0000000000E+20
 30
-1.0000000000E+20
  9
$PLIMMIN
 10
0.0
 20
0.0
  9
$PLIMMAX
 10
420.0
 20
297.0
  9
$UNITMODE
 70
     0
  9
$VISRETAIN
 70
     1
  9
$PLINEGEN
 70
     0
  9
$PSLTSCALE
 70
     1
  9
$TREEDEPTH
 70
  3020
  9
$CMLSTYLE
  2
Standard
  9
$CMLJUST
 70
     0
  9
$CMLSCALE
 40
20.0
  9
$PROXYGRAPHICS
 70
     1
  9
$MEASUREMENT
 70
     1
  9
$CELWEIGHT
370
    -1
  9
$ENDCAPS
280
     0
  9
$JOINSTYLE
280
     0
  9
$LWDISPLAY
290
     1
  9
$INSUNITS
 70
     4
  9
$HYPERLINKBASE
  1

  9
$STYLESHEET
  1

  9
$XEDIT
290
     1
  9
$CEPSNTYPE
380
     0
  9
$PSTYLEMODE
290
     1
  9
$FINGERPRINTGUID
  2
{EA4E5875-7700-45A6-8722-CE8C211D1FEC}
  9
$VERSIONGUID
  2
{FAEB1C32-E019-11D5-929B-00C0DF256EC4}
  9
$EXTNAMES
290
     1
  9
$PSVPSCALE
 40
0.0
  9
$OLESTARTUP
290
     0
  0
ENDSEC
  0
SECTION
  2
CLASSES
  0
CLASS
  1
ACDBDICTIONARYWDFLT
  2
AcDbDictionaryWithDefault
  3
ObjectDBX Classes
 90
        0
280
     0
281
     0
  0
CLASS
  1
VISUALSTYLE
  2
AcDbVisualStyle
  3
ObjectDBX Classes
 90
     4095
280
     0
281
     0
  0
CLASS
  1
MATERIAL
  2
AcDbMaterial
  3
ObjectDBX Classes
 90
     1153
280
     0
281
     0
  0
CLASS
  1
SCALE
  2
AcDbScale
  3
ObjectDBX Classes
 90
     1153
280
     0
281
     0
  0
CLASS
  1
TABLESTYLE
  2
AcDbTableStyle
  3
ObjectDBX Classes
 90
     4095
280
     0
281
     0
  0
CLASS
  1
MLEADERSTYLE
  2
AcDbMLeaderStyle
  3
ACDB_MLEADERSTYLE_CLASS
 90
     4095
280
     0
281
     0
  0
CLASS
  1
SUN
  2
AcDbSun
  3
SCENEOE
 90
     1153
280
     0
281
     0
  0
CLASS
  1
ACDBPLACEHOLDER
  2
AcDbPlaceHolder
  3
ObjectDBX Classes
 90
        0
280
     0
281
     0
  0
CLASS
  1
LAYOUT
  2
AcDbLayout
  3
ObjectDBX Classes
 90
        0
280
     0
281
     0
  0
ENDSEC
  0
SECTION
  2
TABLES
  0
TABLE
  2
VPORT
  5
8
330
0
100
AcDbSymbolTable
 70
     1
  0
VPORT
  5
29
330
8
100
AcDbSymbolTableRecord
100
AcDbViewportTableRecord
  2
*Active
 70
     0
 10
0.0
 20
0.0
 11
1.0
 21
1.0
 12
148.5
 22
105.0
 13
0.0
 23
0.0
 14
10.0
 24
10.0
 15
10.0
 25
10.0
 16
0.0
 26
0.0
 36
1.0
 17
0.0
 27
0.0
 37
0.0
 40
210.0
 41
1.4142857143
 42
50.0
 43
0.0
 44
0.0
 50
0.0
 51
0.0
 71
     0
 72
  2000
 73
     1
 74
     3
 75
     0
 76
     0
 77
     0
 78
     0
281
     0
 65
     1
110
0.0
120
0.0
130
0.0
111
1.0
121
0.0
131
0.0
112
0.0
122
1.0
132
0.0
 79
     0
146
0.0
  0
ENDTAB
  0
TABLE
  2
LTYPE
  5
5
330
0
100
AcDbSymbolTable
 70
     6
  0
LTYPE
  5
14
330
5
100
AcDbSymbolTableRecord
100
AcDbLinetypeTableRecord
  2
ByBlock
 70
     0
  3

 72
    65
 73
     0
 40
0.0
  0
LTYPE
  5
15
330
5
100
AcDbSymbolTableRecord
100
AcDbLinetypeTableRecord
  2
ByLayer
 70
     0
  3

 72
    65
 73
     0
 40
0.0
  0
LTYPE
  5
16
330
5
100
AcDbSymbolTableRecord
100
AcDbLinetypeTableRecord
  2
Continuous
 70
     0
  3
Solid line
 72
    65
 73
     0
 40
0.0
  0
LTYPE
  5
6E
330
5
100
AcDbSymbolTableRecord
100
AcDbLinetypeTableRecord
  2
HIDDEN
 70
     0
  3
Hidden __ __ __ __ __ __ __ __ __ __ __ __ __ __
 72
    65
 73
     2
 40
1.905
 49
1.27
 74
     0
 49
-0.635
 74
     0
  0
LTYPE
  5
6F
330
5
100
AcDbSymbolTableRecord
100
AcDbLinetypeTableRecord
  2
PHANTOM
 70
     0
  3
Phantom ______  __  __  ______  __  __  ______
 72
    65
 73
     6
 40
12.7
 49
6.35
 74
     0
 49
-1.27
 74
     0
 49
1.27
 74
     0
 49
-1.27
 74
     0
 49
1.27
 74
     0
 49
-1.27
 74
     0
  0
LTYPE
  5
70
330
5
100
AcDbSymbolTableRecord
100
AcDbLinetypeTableRecord
  2
CENTER
 70
     0
  3
Center ____ _ ____ _ ____ _ ____ _ ____ _ ____
 72
    65
 73
     4
 40
10.16
 49
6.35
 74
     0
 49
-1.27
 74
     0
 49
1.27
 74
     0
 49
-1.27
 74
     0
  0
LTYPE
  5
71
330
5
100
AcDbSymbolTableRecord
100
AcDbLinetypeTableRecord
  2
CENTERX2
 70
     0
  3
Center (2x) ________  __  ________  __  _____
 72
    65
 73
     4
 40
20.32
 49
12.7
 74
     0
 49
-2.54
 74
     0
 49
2.54
 74
     0
 49
-2.54
 74
     0
  0
LTYPE
  5
72
330
5
100
AcDbSymbolTableRecord
100
AcDbLinetypeTableRecord
  2
DOT2
 70
     0
  3
Dot (.5x) ........................................
 72
    65
 73
     2
 40
0.635
 49
0.0
 74
     0
 49
-0.635
 74
     0
  0
ENDTAB
  0
TABLE
  2
LAYER
  5
2
330
0
100
AcDbSymbolTable
 70
     5
  0
LAYER
  5
10
330
2
100
AcDbSymbolTableRecord
100
AcDbLayerTableRecord
  2
0
 70
     0
 62
     7
  6
Continuous
370
    -3
390
F
  0
LAYER
  5
73
330
2
100
AcDbSymbolTableRecord
100
AcDbLayerTableRecord
  2
FORMAT
 70
     0
 62
     7
  6
Continuous
370
    -3
390
F
  0
LAYER
  5
74
330
2
100
AcDbSymbolTableRecord
100
AcDbLayerTableRecord
  2
VERMASSUNG
 70
     0
 62
     7
  6
Continuous
370
    -3
390
F
  0
LAYER
  5
75
330
2
100
AcDbSymbolTableRecord
100
AcDbLayerTableRecord
  2
KOPF_DÜNN
 70
     0
 62
     7
  6
Continuous
370
    -3
390
F
  0
LAYER
  5
76
330
2
100
AcDbSymbolTableRecord
100
AcDbLayerTableRecord
  2
KOPF_DICK
 70
     0
 62
     7
  6
Continuous
370
    25
390
F
  0
ENDTAB
  0
TABLE
  2
STYLE
  5
3
330
0
100
AcDbSymbolTable
 70
     2
  0
STYLE
  5
11
330
3
100
AcDbSymbolTableRecord
100
AcDbTextStyleTableRecord
  2
Standard
 70
     0
 40
0.0
 41
1.0
 50
0.0
 71
     0
 42
2.0
  3
txt
  4

  0
STYLE
  5
77
330
3
100
AcDbSymbolTableRecord
100
AcDbTextStyleTableRecord
  2
SLDTEXTSTYLE0
 70
     0
 40
0.0
 41
0.7
 50
0.0
 71
     0
 42
2.0
  3
TXT
  4

  0
ENDTAB
  0
TABLE
  2
VIEW
  5
6
330
0
100
AcDbSymbolTable
 70
     0
  0
ENDTAB
  0
TABLE
  2
UCS
  5
7
330
0
100
AcDbSymbolTable
 70
     0
  0
ENDTAB
  0
TABLE
  2
APPID
  5
9
330
0
100
AcDbSymbolTable
 70
     1
  0
APPID
  5
12
330
9
100
AcDbSymbolTableRecord
100
AcDbRegAppTableRecord
  2
ACAD
 70
     0
  0
ENDTAB
  0
TABLE
  2
DIMSTYLE
  5
A
330
0
100
AcDbSymbolTable
 70
     3
100
AcDbDimStyleTable
  0
DIMSTYLE
105
27
330
A
100
AcDbSymbolTableRecord
100
AcDbDimStyleTableRecord
  2
ISO-25
 70
     0
 41
2.5
 42
0.625
 43
3.75
 44
1.25
 73
     0
 74
     0
 77
     1
 78
     8
140
2.5
141
2.5
143
0.0393700787
147
0.625
171
     3
172
     1
178
     0
271
     2
272
     2
274
     3
278
    44
283
     0
284
     8
340
11
  0
DIMSTYLE
105
112
102
{ACAD_REACTORS
330
111
330
11D
330
136
330
140
330
14A
330
154
102
}
330
A
100
AcDbSymbolTableRecord
100
AcDbDimStyleTableRecord
  2
SLDDIMSTYLE0
 70
     0
 41
3.0
 44
0.0
 45
0.000000001
 73
     0
 74
     0
 77
     1
 78
    12
 79
     3
140
2.0
147
0.5
173
     1
178
     0
271
     2
272
     3
276
     2
284
    12
340
77
  0
DIMSTYLE
105
129
102
{ACAD_REACTORS
330
128
330
15E
102
}
330
A
100
AcDbSymbolTableRecord
100
AcDbDimStyleTableRecord
  2
SLDDIMSTYLE1
 70
     0
 41
3.0
 44
0.0
 45
0.000000001
 73
     0
 74
     0
 77
     1
 78
    12
 79
     3
140
2.0
147
0.5
173
     1
178
     0
271
     0
272
     3
276
     2
284
    12
340
77
  0
ENDTAB
  0
TABLE
  2
BLOCK_RECORD
  5
1
330
0
100
AcDbSymbolTable
 70
     9
  0
BLOCK_RECORD
  5
1F
330
1
100
AcDbSymbolTableRecord
100
AcDbBlockTableRecord
  2
*Model_Space
340
22
  0
BLOCK_RECORD
  5
1B
330
1
100
AcDbSymbolTableRecord
100
AcDbBlockTableRecord
  2
*Paper_Space
340
1E
  0
BLOCK_RECORD
  5
23
330
1
100
AcDbSymbolTableRecord
100
AcDbBlockTableRecord
  2
*Paper_Space0
340
26
  0
BLOCK_RECORD
  5
113
330
1
100
AcDbSymbolTableRecord
100
AcDbBlockTableRecord
  2
_D
340
0
  0
BLOCK_RECORD
  5
11E
330
1
100
AcDbSymbolTableRecord
100
AcDbBlockTableRecord
  2
_D_1
340
0
  0
BLOCK_RECORD
  5
12A
330
1
100
AcDbSymbolTableRecord
100
AcDbBlockTableRecord
  2
_D_2
340
0
  0
BLOCK_RECORD
  5
137
330
1
100
AcDbSymbolTableRecord
100
AcDbBlockTableRecord
  2
_D_3
340
0
  0
BLOCK_RECORD
  5
141
330
1
100
AcDbSymbolTableRecord
100
AcDbBlockTableRecord
  2
_D_4
340
0
  0
BLOCK_RECORD
  5
14B
330
1
100
AcDbSymbolTableRecord
100
AcDbBlockTableRecord
  2
_D_5
340
0
  0
BLOCK_RECORD
  5
155
330
1
100
AcDbSymbolTableRecord
100
AcDbBlockTableRecord
  2
_D_6
340
0
  0
BLOCK_RECORD
  5
15F
330
1
100
AcDbSymbolTableRecord
100
AcDbBlockTableRecord
  2
_D_7
340
0
  0
ENDTAB
  0
ENDSEC
  0
SECTION
  2
BLOCKS
  0
BLOCK
  5
20
330
1F
100
AcDbEntity
  8
0
100
AcDbBlockBegin
  2
*Model_Space
 70
     0
 10
0.0
 20
0.0
 30
0.0
  3
*Model_Space
  1

  0
ENDBLK
  5
21
330
1F
100
AcDbEntity
  8
0
100
AcDbBlockEnd
  0
BLOCK
  5
1C
330
1B
100
AcDbEntity
 67
     1
  8
0
100
AcDbBlockBegin
  2
*Paper_Space
 70
     0
 10
0.0
 20
0.0
 30
0.0
  3
*Paper_Space
  1

  0
ENDBLK
  5
1D
330
1B
100
AcDbEntity
 67
     1
  8
0
100
AcDbBlockEnd
  0
BLOCK
  5
24
330
23
100
AcDbEntity
  8
0
100
AcDbBlockBegin
  2
*Paper_Space0
 70
     0
 10
0.0
 20
0.0
 30
0.0
  3
*Paper_Space0
  1

  0
ENDBLK
  5
25
330
23
100
AcDbEntity
  8
0
100
AcDbBlockEnd
  0
BLOCK
  5
114
330
113
100
AcDbEntity
  8
0
100
AcDbBlockBegin
  2
_D
 70
     0
 10
0.0
 20
0.0
 30
0.0
  3
_D
  1

  0
SOLID
  5
116
330
113
100
AcDbEntity
  8
VERMASSUNG
100
AcDbTrace
 10
234.1406937419
 20
104.7480858109
 30
0.0
 11
234.5906937419
 21
107.7480858109
 31
0.0
 12
233.6906937419
 22
107.7480858109
 32
0.0
 13
233.6906937419
 23
107.7480858109
 33
0.0
  0
SOLID
  5
117
330
113
100
AcDbEntity
  8
VERMASSUNG
100
AcDbTrace
 10
234.1406937419
 20
131.7480858109
 30
0.0
 11
233.6906937419
 21
128.7480858109
 31
0.0
 12
234.5906937419
 22
128.7480858109
 32
0.0
 13
234.5906937419
 23
128.7480858109
 33
0.0
  0
LINE
  5
118
330
113
100
AcDbEntity
  8
VERMASSUNG
100
AcDbLine
 10
194.5267128518
 20
104.7480858109
 30
0.0
 11
235.1406937419
 21
104.7480858109
 31
0.0
  0
LINE
  5
119
330
113
100
AcDbEntity
  8
VERMASSUNG
100
AcDbLine
 10
194.5267128518
 20
131.7480858109
 30
0.0
 11
235.1406937419
 21
131.7480858109
 31
0.0
  0
LINE
  5
11A
330
113
100
AcDbEntity
  8
VERMASSUNG
100
AcDbLine
 10
234.1406937419
 20
104.7480858109
 30
0.0
 11
234.1406937419
 21
131.7480858109
 31
0.0
  0
MTEXT
  5
11B
330
113
100
AcDbEntity
  8
VERMASSUNG
100
AcDbMText
 10
231.562558437
 20
115.0430858536
 30
0.0
 40
2.0
 41
0.0
 71
     1
 72
     1
  1
%%c
  7
SLDTEXTSTYLE0
 11
6.123233995736766E-17
 21
1.0
 31
0.0
 73
     1
 44
1.0
  0
MTEXT
  5
11C
330
113
100
AcDbEntity
  8
VERMASSUNG
100
AcDbMText
 10
231.3625584857
 20
118.6530858679
 30
0.0
 40
2.0
 41
0.0
 71
     1
 72
     1
  1
27
  7
SLDTEXTSTYLE0
 11
6.123233995736766E-17
 21
1.0
 31
0.0
 73
     1
 44
1.0
  0
ENDBLK
  5
115
330
113
100
AcDbEntity
  8
0
100
AcDbBlockEnd
  0
BLOCK
  5
11F
330
11E
100
AcDbEntity
  8
0
100
AcDbBlockBegin
  2
_D_1
 70
     0
 10
0.0
 20
0.0
 30
0.0
  3
_D_1
  1

  0
SOLID
  5
121
330
11E
100
AcDbEntity
  8
VERMASSUNG
100
AcDbTrace
 10
244.3267128518
 20
147.2480858109
 30
0.0
 11
243.8767128518
 21
144.2480858109
 31
0.0
 12
244.7767128518
 22
144.2480858109
 32
0.0
 13
244.7767128518
 23
144.2480858109
 33
0.0
  0
SOLID
  5
122
330
11E
100
AcDbEntity
  8
VERMASSUNG
100
AcDbTrace
 10
244.3267128518
 20
89.2480858109
 30
0.0
 11
244.7767128518
 21
92.2480858109
 31
0.0
 12
243.8767128518
 22
92.2480858109
 32
0.0
 13
243.8767128518
 23
92.2480858109
 33
0.0
  0
LINE
  5
123
330
11E
100
AcDbEntity
  8
VERMASSUNG
100
AcDbLine
 10
173.5267128518
 20
147.2480858109
 30
0.0
 11
245.3267128518
 21
147.2480858109
 31
0.0
  0
LINE
  5
124
330
11E
100
AcDbEntity
  8
VERMASSUNG
100
AcDbLine
 10
173.5267128518
 20
89.2480858109
 30
0.0
 11
245.3267128518
 21
89.2480858109
 31
0.0
  0
LINE
  5
125
330
11E
100
AcDbEntity
  8
VERMASSUNG
100
AcDbLine
 10
244.3267128518
 20
147.2480858109
 30
0.0
 11
244.3267128518
 21
89.2480858109
 31
0.0
  0
MTEXT
  5
126
330
11E
100
AcDbEntity
  8
VERMASSUNG
100
AcDbMText
 10
241.7485775469
 20
115.0430858536
 30
0.0
 40
2.0
 41
0.0
 71
     1
 72
     1
  1
%%c
  7
SLDTEXTSTYLE0
 11
-7.044195017643634E-15
 21
1.0
 31
0.0
 73
     1
 44
1.0
  0
MTEXT
  5
127
330
11E
100
AcDbEntity
  8
VERMASSUNG
100
AcDbMText
 10
241.5485775956
 20
118.6530858679
 30
0.0
 40
2.0
 41
0.0
 71
     1
 72
     1
  1
58
  7
SLDTEXTSTYLE0
 11
-7.044195017643634E-15
 21
1.0
 31
0.0
 73
     1
 44
1.0
  0
ENDBLK
  5
120
330
11E
100
AcDbEntity
  8
0
100
AcDbBlockEnd
  0
BLOCK
  5
12B
330
12A
100
AcDbEntity
  8
0
100
AcDbBlockBegin
  2
_D_2
 70
     0
 10
0.0
 20
0.0
 30
0.0
  3
_D_2
  1

  0
SOLID
  5
12D
330
12A
100
AcDbEntity
  8
VERMASSUNG
100
AcDbTrace
 10
61.3766878518
 20
149.7230858109
 30
0.0
 11
60.9266878518
 21
146.7230858109
 31
0.0
 12
61.8266878518
 22
146.7230858109
 32
0.0
 13
61.8266878518
 23
146.7230858109
 33
0.0
  0
SOLID
  5
12E
330
12A
100
AcDbEntity
  8
VERMASSUNG
100
AcDbTrace
 10
61.3766878518
 20
86.7730858109
 30
0.0
 11
61.8266878518
 21
89.7730858109
 31
0.0
 12
60.9266878518
 22
89.7730858109
 32
0.0
 13
60.9266878518
 23
89.7730858109
 33
0.0
  0
LINE
  5
12F
330
12A
100
AcDbEntity
  8
VERMASSUNG
100
AcDbLine
 10
111.5267128518
 20
149.7230858109
 30
0.0
 11
60.3766878518
 21
149.7230858109
 31
0.0
  0
LINE
  5
130
330
12A
100
AcDbEntity
  8
VERMASSUNG
100
AcDbLine
 10
111.5267128518
 20
86.7730858109
 30
0.0
 11
60.3766878518
 21
86.7730858109
 31
0.0
  0
LINE
  5
131
330
12A
100
AcDbEntity
  8
VERMASSUNG
100
AcDbLine
 10
61.3766878518
 20
149.7230858109
 30
0.0
 11
61.3766878518
 21
86.7730858109
 31
0.0
  0
MTEXT
  5
132
330
12A
100
AcDbEntity
  8
VERMASSUNG
100
AcDbMText
 10
58.5985525956
 20
110.1430871925
 30
0.0
 40
2.0
 41
0.0
 71
     1
 72
     1
  1
KM
  7
SLDTEXTSTYLE0
 11
-7.044195017643634E-15
 21
1.0
 31
0.0
 73
     1
 44
1.0
  0
MTEXT
  5
133
330
12A
100
AcDbEntity
  8
VERMASSUNG
100
AcDbMText
 10
58.7985525469
 20
113.5430870047
 30
0.0
 40
2.0
 41
0.0
 71
     1
 72
     1
  1
%%c
  7
SLDTEXTSTYLE0
 11
-7.044195017643634E-15
 21
1.0
 31
0.0
 73
     1
 44
1.0
  0
MTEXT
  5
134
330
12A
100
AcDbEntity
  8
VERMASSUNG
100
AcDbMText
 10
58.5985525956
 20
117.153087019
 30
0.0
 40
2.0
 41
0.0
 71
     1
 72
     1
  1
63
  7
SLDTEXTSTYLE0
 11
-7.044195017643634E-15
 21
1.0
 31
0.0
 73
     1
 44
1.0
  0
MTEXT
  5
135
330
12A
100
AcDbEntity
  8
VERMASSUNG
100
AcDbMText
 10
58.5985525956
 20
121.1405869192
 30
0.0
 40
2.0
 41
0.0
 71
     1
 72
     1
  1
XMZ
  7
SLDTEXTSTYLE0
 11
-7.044195017643634E-15
 21
1.0
 31
0.0
 73
     1
 44
1.0
  0
ENDBLK
  5
12C
330
12A
100
AcDbEntity
  8
0
100
AcDbBlockEnd
  0
BLOCK
  5
138
330
137
100
AcDbEntity
  8
0
100
AcDbBlockBegin
  2
_D_3
 70
     0
 10
0.0
 20
0.0
 30
0.0
  3
_D_3
  1

  0
SOLID
  5
13A
330
137
100
AcDbEntity
  8
VERMASSUNG
100
AcDbTrace
 10
129.3267128518
 20
158.1849359787
 30
0.0
 11
132.3267128518
 21
157.7349359787
 31
0.0
 12
132.3267128518
 22
158.6349359787
 32
0.0
 13
132.3267128518
 23
158.6349359787
 33
0.0
  0
SOLID
  5
13B
330
137
100
AcDbEntity
  8
VERMASSUNG
100
AcDbTrace
 10
174.3267128518
 20
158.1849359787
 30
0.0
 11
171.3267128518
 21
158.6349359787
 31
0.0
 12
171.3267128518
 22
157.7349359787
 32
0.0
 13
171.3267128518
 23
157.7349359787
 33
0.0
  0
LINE
  5
13C
330
137
100
AcDbEntity
  8
VERMASSUNG
100
AcDbLine
 10
129.3267128518
 20
149.7230858109
 30
0.0
 11
129.3267128518
 21
159.1849359787
 31
0.0
  0
LINE
  5
13D
330
137
100
AcDbEntity
  8
VERMASSUNG
100
AcDbLine
 10
174.3267128518
 20
146.4480858109
 30
0.0
 11
174.3267128518
 21
159.1849359787
 31
0.0
  0
LINE
  5
13E
330
137
100
AcDbEntity
  8
VERMASSUNG
100
AcDbLine
 10
129.3267128518
 20
158.1849359787
 30
0.0
 11
174.3267128518
 21
158.1849359787
 31
0.0
  0
MTEXT
  5
13F
330
137
100
AcDbEntity
  8
VERMASSUNG
100
AcDbMText
 10
150.3267128388
 20
160.7630715746
 30
0.0
 40
2.0
 41
0.0
 71
     1
 72
     1
  1
45
  7
SLDTEXTSTYLE0
 73
     1
 44
1.0
  0
ENDBLK
  5
139
330
137
100
AcDbEntity
  8
0
100
AcDbBlockEnd
  0
BLOCK
  5
142
330
141
100
AcDbEntity
  8
0
100
AcDbBlockBegin
  2
_D_4
 70
     0
 10
0.0
 20
0.0
 30
0.0
  3
_D_4
  1

  0
SOLID
  5
144
330
141
100
AcDbEntity
  8
VERMASSUNG
100
AcDbTrace
 10
111.3267128518
 20
167.9339396139
 30
0.0
 11
114.3267128518
 21
167.4839396139
 31
0.0
 12
114.3267128518
 22
168.3839396139
 32
0.0
 13
114.3267128518
 23
168.3839396139
 33
0.0
  0
SOLID
  5
145
330
141
100
AcDbEntity
  8
VERMASSUNG
100
AcDbTrace
 10
174.3267128518
 20
167.9339396139
 30
0.0
 11
171.3267128518
 21
168.3839396139
 31
0.0
 12
171.3267128518
 22
167.4839396139
 32
0.0
 13
171.3267128518
 23
167.4839396139
 33
0.0
  0
LINE
  5
146
330
141
100
AcDbEntity
  8
VERMASSUNG
100
AcDbLine
 10
111.3267128518
 20
149.5230858109
 30
0.0
 11
111.3267128518
 21
168.9339396139
 31
0.0
  0
LINE
  5
147
330
141
100
AcDbEntity
  8
VERMASSUNG
100
AcDbLine
 10
174.3267128518
 20
146.4480858109
 30
0.0
 11
174.3267128518
 21
168.9339396139
 31
0.0
  0
LINE
  5
148
330
141
100
AcDbEntity
  8
VERMASSUNG
100
AcDbLine
 10
111.3267128518
 20
167.9339396139
 30
0.0
 11
174.3267128518
 21
167.9339396139
 31
0.0
  0
MTEXT
  5
149
330
141
100
AcDbEntity
  8
VERMASSUNG
100
AcDbMText
 10
141.4267129017
 20
170.5120752099
 30
0.0
 40
2.0
 41
0.0
 71
     1
 72
     1
  1
63
  7
SLDTEXTSTYLE0
 73
     1
 44
1.0
  0
ENDBLK
  5
143
330
141
100
AcDbEntity
  8
0
100
AcDbBlockEnd
  0
BLOCK
  5
14C
330
14B
100
AcDbEntity
  8
0
100
AcDbBlockBegin
  2
_D_5
 70
     0
 10
0.0
 20
0.0
 30
0.0
  3
_D_5
  1

  0
SOLID
  5
14E
330
14B
100
AcDbEntity
  8
VERMASSUNG
100
AcDbTrace
 10
71.3767128518
 20
177.7230858109
 30
0.0
 11
74.3767128518
 21
177.2730858109
 31
0.0
 12
74.3767128518
 22
178.1730858109
 32
0.0
 13
74.3767128518
 23
178.1730858109
 33
0.0
  0
SOLID
  5
14F
330
14B
100
AcDbEntity
  8
VERMASSUNG
100
AcDbTrace
 10
195.3267128518
 20
177.7230858109
 30
0.0
 11
192.3267128518
 21
178.1730858109
 31
0.0
 12
192.3267128518
 22
177.2730858109
 32
0.0
 13
192.3267128518
 23
177.2730858109
 33
0.0
  0
LINE
  5
150
330
14B
100
AcDbEntity
  8
VERMASSUNG
100
AcDbLine
 10
71.3767128518
 20
138.5103115476
 30
0.0
 11
71.3767128518
 21
178.7230858109
 31
0.0
  0
LINE
  5
151
330
14B
100
AcDbEntity
  8
VERMASSUNG
100
AcDbLine
 10
195.3267128518
 20
125.5480858109
 30
0.0
 11
195.3267128518
 21
178.7230858109
 31
0.0
  0
LINE
  5
152
330
14B
100
AcDbEntity
  8
VERMASSUNG
100
AcDbLine
 10
71.3767128518
 20
177.7230858109
 30
0.0
 11
195.3267128518
 21
177.7230858109
 31
0.0
  0
MTEXT
  5
153
330
14B
100
AcDbEntity
  8
VERMASSUNG
100
AcDbMText
 10
129.7517129136
 20
180.3012214068
 30
0.0
 40
2.0
 41
0.0
 71
     1
 72
     1
  1
123.95
  7
SLDTEXTSTYLE0
 73
     1
 44
1.0
  0
ENDBLK
  5
14D
330
14B
100
AcDbEntity
  8
0
100
AcDbBlockEnd
  0
BLOCK
  5
156
330
155
100
AcDbEntity
  8
0
100
AcDbBlockBegin
  2
_D_6
 70
     0
 10
0.0
 20
0.0
 30
0.0
  3
_D_6
  1

  0
SOLID
  5
158
330
155
100
AcDbEntity
  8
VERMASSUNG
100
AcDbTrace
 10
174.3267128518
 20
158.1849359787
 30
0.0
 11
177.3267128518
 21
157.7349359787
 31
0.0
 12
177.3267128518
 22
158.6349359787
 32
0.0
 13
177.3267128518
 23
158.6349359787
 33
0.0
  0
SOLID
  5
159
330
155
100
AcDbEntity
  8
VERMASSUNG
100
AcDbTrace
 10
195.3267128518
 20
158.1849359787
 30
0.0
 11
192.3267128518
 21
158.6349359787
 31
0.0
 12
192.3267128518
 22
157.7349359787
 32
0.0
 13
192.3267128518
 23
157.7349359787
 33
0.0
  0
LINE
  5
15A
330
155
100
AcDbEntity
  8
VERMASSUNG
100
AcDbLine
 10
174.3267128518
 20
146.4480858109
 30
0.0
 11
174.3267128518
 21
159.1849359787
 31
0.0
  0
LINE
  5
15B
330
155
100
AcDbEntity
  8
VERMASSUNG
100
AcDbLine
 10
195.3267128518
 20
130.9480858109
 30
0.0
 11
195.3267128518
 21
159.1849359787
 31
0.0
  0
LINE
  5
15C
330
155
100
AcDbEntity
  8
VERMASSUNG
100
AcDbLine
 10
174.3267128518
 20
158.1849359787
 30
0.0
 11
195.3267128518
 21
158.1849359787
 31
0.0
  0
MTEXT
  5
15D
330
155
100
AcDbEntity
  8
VERMASSUNG
100
AcDbMText
 10
183.6267127948
 20
160.7630715746
 30
0.0
 40
2.0
 41
0.0
 71
     1
 72
     1
  1
21
  7
SLDTEXTSTYLE0
 73
     1
 44
1.0
  0
ENDBLK
  5
157
330
155
100
AcDbEntity
  8
0
100
AcDbBlockEnd
  0
BLOCK
  5
160
330
15F
100
AcDbEntity
  8
0
100
AcDbBlockBegin
  2
_D_7
 70
     0
 10
0.0
 20
0.0
 30
0.0
  3
_D_7
  1

  0
SOLID
  5
162
330
15F
100
AcDbEntity
  8
VERMASSUNG
100
AcDbTrace
 10
223.0536640489
 20
113.1905858109
 30
0.0
 11
223.5036640489
 21
116.1905858109
 31
0.0
 12
222.6036640489
 22
116.1905858109
 32
0.0
 13
222.6036640489
 23
116.1905858109
 33
0.0
  0
SOLID
  5
163
330
15F
100
AcDbEntity
  8
VERMASSUNG
100
AcDbTrace
 10
223.0536640489
 20
123.3055858109
 30
0.0
 11
222.6036640489
 21
120.3055858109
 31
0.0
 12
223.5036640489
 22
120.3055858109
 32
0.0
 13
223.5036640489
 23
120.3055858109
 33
0.0
  0
LINE
  5
164
330
15F
100
AcDbEntity
  8
VERMASSUNG
100
AcDbLine
 10
210.3267128518
 20
113.1905858109
 30
0.0
 11
224.0536640489
 21
113.1905858109
 31
0.0
  0
LINE
  5
165
330
15F
100
AcDbEntity
  8
VERMASSUNG
100
AcDbLine
 10
210.3267128518
 20
123.3055858109
 30
0.0
 11
224.0536640489
 21
123.3055858109
 31
0.0
  0
LINE
  5
166
330
15F
100
AcDbEntity
  8
VERMASSUNG
100
AcDbLine
 10
223.0536640489
 20
113.1905858109
 30
0.0
 11
223.0536640489
 21
123.3055858109
 31
0.0
  0
MTEXT
  5
167
330
15F
100
AcDbEntity
  8
VERMASSUNG
100
AcDbMText
 10
220.475528453
 20
115.1480857218
 30
0.0
 40
2.0
 41
0.0
 71
     1
 72
     1
  1
SW
  7
SLDTEXTSTYLE0
 11
6.123233995736766E-17
 21
1.0
 31
0.0
 73
     1
 44
1.0
  0
MTEXT
  5
168
330
15F
100
AcDbEntity
  8
VERMASSUNG
100
AcDbMText
 10
220.475528453
 20
118.9480857859
 30
0.0
 40
2.0
 41
0.0
 71
     1
 72
     1
  1
10
  7
SLDTEXTSTYLE0
 11
6.123233995736766E-17
 21
1.0
 31
0.0
 73
     1
 44
1.0
  0
ENDBLK
  5
161
330
15F
100
AcDbEntity
  8
0
100
AcDbBlockEnd
  0
ENDSEC
  0
SECTION
  2
ENTITIES
  0
MTEXT
  5
78
330
1F
100
AcDbEntity
  8
KOPF_DÜNN
100
AcDbMText
 10
13.8892156294
 20
23.8442973028
 30
0.0
 40
3.0
 41
0.0
 71
     1
 72
     1
  1
KY6.D27.K21.063
  7
SLDTEXTSTYLE0
 73
     1
 44
1.0
  0
MTEXT
  5
79
330
1F
100
AcDbEntity
  8
VERMASSUNG
100
AcDbMText
 10
13.9329988022
 20
28.8834360957
 30
0.0
 40
3.0
 41
0.0
 71
     1
 72
     1
  1
Fräsdorn_Milling arbor
  7
SLDTEXTSTYLE0
 73
     1
 44
1.0
  0
MTEXT
  5
7A
330
1F
100
AcDbEntity
  8
VERMASSUNG
100
AcDbMText
 10
98.8601118557
 20
13.8365368761
 30
0.0
 40
2.0
 41
0.0
 71
     1
 72
     1
  1
Datum: 19.02.2018
  7
SLDTEXTSTYLE0
 73
     1
 44
1.0
  0
MTEXT
  5
7B
330
1F
100
AcDbEntity
  8
VERMASSUNG
100
AcDbMText
 10
13.933048693
 20
18.0482802738
 30
0.0
 40
2.0
 41
0.0
 71
     1
 72
     1
  1
KM63 XMZ / Ø27
  7
SLDTEXTSTYLE0
 73
     1
 44
1.0
  0
MTEXT
  5
7C
330
1F
100
AcDbEntity
  8
VERMASSUNG
100
AcDbMText
 10
13.9808475933
 20
13.9090974274
 30
0.0
 40
2.0
 41
0.0
 71
     1
 72
     1
  1
Gewicht: 1643g
  7
SLDTEXTSTYLE0
 73
     1
 44
1.0
  0
LINE
  5
7D
330
1F
100
AcDbEntity
  8
0
  6
Continuous
 62
     7
370
    25
100
AcDbLine
 10
174.3267138651
 20
134.2480865708
 30
0.0
 11
180.1267151883
 21
134.2480865708
 31
0.0
  0
LINE
  5
7E
330
1F
100
AcDbEntity
  8
0
  6
Continuous
 62
     7
370
    25
100
AcDbLine
 10
180.1267151883
 20
146.2480866751
 30
0.0
 11
174.3267138651
 21
146.2480866751
 31
0.0
  0
ARC
  5
7F
330
1F
100
AcDbEntity
  8
0
  6
Continuous
 62
     7
370
    25
100
AcDbCircle
 10
180.1267128518
 20
134.7480858109
 30
0.0
 40
0.5
100
AcDbArc
 50
270.0
 51
0.0
  0
ARC
  5
80
330
1F
100
AcDbEntity
  8
0
  6
Continuous
 62
     7
370
    25
100
AcDbCircle
 10
180.1267128518
 20
145.7480858109
 30
0.0
 40
0.5
100
AcDbArc
 50
0.0
 51
90.0
  0
LINE
  5
81
330
1F
100
AcDbEntity
  8
0
  6
Continuous
 62
     7
370
    25
100
AcDbLine
 10
174.3267138651
 20
90.2480849466
 30
0.0
 11
180.1267151883
 21
90.2480849466
 31
0.0
  0
LINE
  5
82
330
1F
100
AcDbEntity
  8
0
  6
Continuous
 62
     7
370
    25
100
AcDbLine
 10
180.1267151883
 20
102.2480850509
 30
0.0
 11
174.3267138651
 21
102.2480850509
 31
0.0
  0
ARC
  5
83
330
1F
100
AcDbEntity
  8
0
  6
Continuous
 62
     7
370
    25
100
AcDbCircle
 10
180.1267128518
 20
90.7480858109
 30
0.0
 40
0.5
100
AcDbArc
 50
270.0
 51
0.0
  0
ARC
  5
84
330
1F
100
AcDbEntity
  8
0
  6
Continuous
 62
     7
370
    25
100
AcDbCircle
 10
180.1267128518
 20
101.7480858109
 30
0.0
 40
0.5
100
AcDbArc
 50
0.0
 51
90.0
  0
ARC
  5
85
330
1F
100
AcDbEntity
  8
0
  6
Continuous
 62
     7
370
    25
100
AcDbCircle
 10
209.7267128518
 20
126.6480858109
 30
0.0
 40
0.5999999999999943
100
AcDbArc
 50
0.0
 51
90.0
  0
ARC
  5
86
330
1F
100
AcDbEntity
  8
0
  6
Continuous
 62
     7
370
    25
100
AcDbCircle
 10
209.7267128518
 20
109.8480858109
 30
0.0
 40
0.6000000000000085
100
AcDbArc
 50
270.0
 51
0.0
  0
LINE
  5
87
330
1F
100
AcDbEntity
  8
0
  6
Continuous
 62
     7
370
    25
100
AcDbLine
 10
209.7267096093
 20
127.2480854234
 30
0.0
 11
198.3267103484
 21
127.2480854234
 31
0.0
  0
LINE
  5
88
330
1F
100
AcDbEntity
  8
0
  6
Continuous
 62
     7
370
    25
100
AcDbLine
 10
198.3267103484
 20
109.2480861983
 30
0.0
 11
209.7267096093
 21
109.2480861983
 31
0.0
  0
ARC
  5
89
330
1F
100
AcDbEntity
  8
0
  6
Continuous
 62
     7
370
    25
100
AcDbCircle
 10
197.7267128518
 20
111.6480858109
 30
0.0
 40
0.5999999999999943
100
AcDbArc
 50
0.0
 51
90.0
  0
ARC
  5
8A
330
1F
100
AcDbEntity
  8
0
  6
Continuous
 62
     7
370
    25
100
AcDbCircle
 10
197.7267128518
 20
124.8480858109
 30
0.0
 40
0.5999999999999943
100
AcDbArc
 50
270.0
 51
0.0
  0
LINE
  5
8B
330
1F
100
AcDbEntity
  8
0
  6
Continuous
 62
     7
370
    25
100
AcDbLine
 10
197.7267150929
 20
124.248085863
 30
0.0
 11
195.3267117193
 21
124.248085863
 31
0.0
  0
LINE
  5
8C
330
1F
100
AcDbEntity
  8
0
  6
Continuous
 62
     7
370
    25
100
AcDbLine
 10
195.3267117193
 20
112.2480857587
 30
0.0
 11
197.7267150929
 21
112.2480857587
 31
0.0
  0
LINE
  5
8D
330
1F
100
AcDbEntity
  8
0
  6
Continuous
 62
     7
370
    25
100
AcDbLine
 10
111.5267128467
 20
86.7730857274
 30
0.0
 11
117.8925151168
 21
86.7730857274
 31
0.0
  0
LINE
  5
8E
330
1F
100
AcDbEntity
  8
0
  6
Continuous
 62
     7
370
    25
100
AcDbLine
 10
116.6872104792
 20
149.7230858943
 30
0.0
 11
111.5267128467
 21
149.7230858943
 31
0.0
  0
LINE
  5
8F
330
1F
100
AcDbEntity
  8
0
  6
Continuous
 62
     7
370
    25
100
AcDbLine
 10
124.5609109452
 20
86.7730857274
 30
0.0
 11
129.3267120769
 21
86.7730857274
 31
0.0
  0
LINE
  5
90
330
1F
100
AcDbEntity
  8
0
  6
Continuous
 62
     7
370
    25
100
AcDbLine
 10
129.3267120769
 20
149.7230858943
 30
0.0
 11
128.0415595671
 21
149.7230858943
 31
0.0
  0
LINE
  5
91
330
1F
100
AcDbEntity
  8
0
  6
Continuous
 62
     7
370
    25
100
AcDbLine
 10
117.8925151168
 20
86.7730857274
 30
0.0
 11
119.3517127236
 21
89.300490304
 31
0.0
  0
ARC
  5
92
330
1F
100
AcDbEntity
  8
0
  6
Continuous
 62
     7
370
    25
100
AcDbCircle
 10
111.5267128518
 20
86.9730858109
 30
0.0
 40
0.2000000000000028
100
AcDbArc
 50
180.0
 51
270.0
  0
ARC
  5
93
330
1F
100
AcDbEntity
  8
0
  6
Continuous
 62
     7
370
    25
100
AcDbCircle
 10
111.5267128518
 20
149.5230858109
 30
0.0
 40
0.1999999999999886
100
AcDbArc
 50
90.0
 51
180.0
  0
ARC
  5
94
330
1F
100
AcDbEntity
  8
0
  6
Continuous
 62
     7
370
    25
100
AcDbCircle
 10
131.3267128518
 20
87.2480858109
 30
0.0
 40
2.0
100
AcDbArc
 50
90.0
 51
180.0
  0
ARC
  5
95
330
1F
100
AcDbEntity
  8
0
  6
Continuous
 62
     7
370
    25
100
AcDbCircle
 10
131.3267128518
 20
149.2480858109
 30
0.0
 40
2.0
100
AcDbArc
 50
180.0
 51
270.0
  0
ARC
  5
96
330
1F
100
AcDbEntity
  8
0
  6
Continuous
 62
     7
370
    25
100
AcDbCircle
 10
173.5267128518
 20
90.0480858109
 30
0.0
 40
0.8000000000000114
100
AcDbArc
 50
270.0
 51
0.0
  0
ARC
  5
97
330
1F
100
AcDbEntity
  8
0
  6
Continuous
 62
     7
370
    25
100
AcDbCircle
 10
173.5267128518
 20
146.4480858109
 30
0.0
 40
0.8000000000000114
100
AcDbArc
 50
0.0
 51
90.0
  0
LINE
  5
98
330
1F
100
AcDbEntity
  8
0
  6
Continuous
 62
     7
370
    25
100
AcDbLine
 10
131.3267124048
 20
89.2480866453
 30
0.0
 11
173.5267114988
 21
89.2480866453
 31
0.0
  0
LINE
  5
99
330
1F
100
AcDbEntity
  8
0
  6
Continuous
 62
     7
370
    25
100
AcDbLine
 10
173.5267114988
 20
147.2480849764
 30
0.0
 11
131.3267124048
 21
147.2480849764
 31
0.0
  0
ARC
  5
9A
330
1F
100
AcDbEntity
  8
0
  6
Continuous
 62
     7
370
    25
100
AcDbCircle
 10
110.8977779772
 20
92.6980858109
 30
0.0
 40
0.8000000000000158
100
AcDbArc
 50
57.576802718
 51
107.5
  0
ARC
  5
9B
330
1F
100
AcDbEntity
  8
0
  6
Continuous
 62
     7
370
    25
100
AcDbCircle
 10
110.8977779772
 20
143.7980858109
 30
0.0
 40
0.8000000000000139
100
AcDbArc
 50
252.5
 51
302.423197282
  0
LINE
  5
9C
330
1F
100
AcDbEntity
  8
0
  6
Continuous
 62
     7
370
    25
100
AcDbLine
 10
123.1017128727
 20
89.300490304
 30
0.0
 11
124.5609109452
 21
86.7730857274
 31
0.0
  0
LINE
  5
9D
330
1F
100
AcDbEntity
  8
0
  6
Continuous
 62
     7
370
    25
100
AcDbLine
 10
110.166530793
 20
93.306347116
 30
0.0
 11
110.6572133418
 21
93.4610602847
 31
0.0
  0
LINE
  5
9E
330
1F
100
AcDbEntity
  8
0
  6
Continuous
 62
     7
370
    25
100
AcDbLine
 10
110.6572133418
 20
143.035111337
 30
0.0
 11
110.166530793
 21
143.1898245058
 31
0.0
  0
LINE
  5
9F
330
1F
100
AcDbEntity
  8
0
  6
Continuous
 62
     7
370
    25
100
AcDbLine
 10
110.166530793
 20
143.1898245058
 30
0.0
 11
94.2216550162
 21
142.3891050211
 31
0.0
  0
LINE
  5
A0
330
1F
100
AcDbEntity
  8
0
  6
Continuous
 62
     7
370
    25
100
AcDbLine
 10
94.2216550162
 20
94.1070666006
 30
0.0
 11
110.166530793
 21
93.306347116
 31
0.0
  0
ARC
  5
A1
330
1F
100
AcDbEntity
  8
0
  6
Continuous
 62
     7
370
    25
100
AcDbCircle
 10
120.3517128518
 20
89.3980858109
 30
0.0
 40
1.0
100
AcDbArc
 50
90.0
 51
180.0
  0
ARC
  5
A2
330
1F
100
AcDbEntity
  8
0
  6
Continuous
 62
     7
370
    25
100
AcDbCircle
 10
122.1017128518
 20
89.3980858109
 30
0.0
 40
1.0
100
AcDbArc
 50
0.0
 51
90.0
  0
LINE
  5
A3
330
1F
100
AcDbEntity
  8
0
  6
Continuous
 62
     7
370
    25
100
AcDbLine
 10
120.3517128876
 20
90.3980856231
 30
0.0
 11
122.1017127087
 21
90.3980856231
 31
0.0
  0
ARC
  5
A4
330
1F
100
AcDbEntity
  8
0
  6
Continuous
 62
     7
370
    25
100
AcDbCircle
 10
174.7267128518
 20
104.4980858109
 30
0.0
 40
0.5999999999999948
100
AcDbArc
 50
90.0
 51
131.8103148958
  0
ARC
  5
A5
330
1F
100
AcDbEntity
  8
0
  6
Continuous
 62
     7
370
    25
100
AcDbCircle
 10
174.7267128518
 20
131.9980858109
 30
0.0
 40
0.6000000000000054
100
AcDbArc
 50
228.1896851042
 51
270.0
  0
LINE
  5
A6
330
1F
100
AcDbEntity
  8
0
  6
Continuous
 62
     7
370
    25
100
AcDbLine
 10
176.8267114809
 20
104.7480854607
 30
0.0
 11
194.5267130783
 21
104.7480854607
 31
0.0
  0
LINE
  5
A7
330
1F
100
AcDbEntity
  8
0
  6
Continuous
 62
     7
370
    25
100
AcDbLine
 10
194.5267130783
 20
131.748086161
 30
0.0
 11
176.8267114809
 21
131.748086161
 31
0.0
  0
LINE
  5
A8
330
1F
100
AcDbEntity
  8
0
  6
Continuous
 62
     7
370
    25
100
AcDbLine
 10
176.8267114809
 20
131.748086161
 30
0.0
 11
175.5967919877
 21
131.4185302174
 31
0.0
  0
LINE
  5
A9
330
1F
100
AcDbEntity
  8
0
  6
Continuous
 62
     7
370
    25
100
AcDbLine
 10
175.5967919877
 20
105.0776414043
 30
0.0
 11
176.8267114809
 21
104.7480854607
 31
0.0
  0
ARC
  5
AA
330
1F
100
AcDbEntity
  8
0
  6
Continuous
 62
     7
370
    25
100
AcDbCircle
 10
194.5267128518
 20
105.5480858109
 30
0.0
 40
0.7999999999999972
100
AcDbArc
 50
270.0
 51
0.0
  0
ARC
  5
AB
330
1F
100
AcDbEntity
  8
0
  6
Continuous
 62
     7
370
    25
100
AcDbCircle
 10
194.5267128518
 20
130.9480858109
 30
0.0
 40
0.799999999999983
100
AcDbArc
 50
0.0
 51
90.0
  0
ARC
  5
AC
330
1F
100
AcDbEntity
  8
0
  6
Continuous
 62
     7
370
    25
100
AcDbCircle
 10
175.4415035706
 20
104.4980858109
 30
0.0
 40
0.5999999999999943
100
AcDbArc
 50
75.0
 51
90.0
  0
ARC
  5
AD
330
1F
100
AcDbEntity
  8
0
  6
Continuous
 62
     7
370
    25
100
AcDbCircle
 10
175.4415035706
 20
131.9980858109
 30
0.0
 40
0.5999999999999943
100
AcDbArc
 50
270.0
 51
285.0
  0
LINE
  5
AE
330
1F
100
AcDbEntity
  8
0
  6
Continuous
 62
     7
370
    25
100
AcDbLine
 10
174.7267131856
 20
105.0980857974
 30
0.0
 11
175.4415069869
 21
105.0980857974
 31
0.0
  0
LINE
  5
AF
330
1F
100
AcDbEntity
  8
0
  6
Continuous
 62
     7
370
    25
100
AcDbLine
 10
175.4415069869
 20
131.3980858243
 30
0.0
 11
174.7267131856
 21
131.3980858243
 31
0.0
  0
LINE
  5
B0
330
1F
100
AcDbEntity
  8
0
  6
Continuous
 62
     7
370
    25
100
AcDbLine
 10
93.3267136267
 20
95.0020079902
 30
0.0
 11
94.2216550162
 21
94.1070666006
 31
0.0
  0
LINE
  5
B1
330
1F
100
AcDbEntity
  8
0
  6
Continuous
 62
     7
370
    25
100
AcDbLine
 10
94.2216550162
 20
142.3891050211
 30
0.0
 11
93.3267136267
 21
141.4941636315
 31
0.0
  0
LINE
  5
B2
330
1F
100
AcDbEntity
  8
0
  6
Continuous
 62
     7
370
    25
100
AcDbLine
 10
180.6267162016
 20
134.7480857215
 30
0.0
 11
180.6267162016
 21
145.7480856618
 31
0.0
  0
LINE
  5
B3
330
1F
100
AcDbEntity
  8
0
  6
Continuous
 62
     7
370
    25
100
AcDbLine
 10
180.6267162016
 20
90.7480859599
 30
0.0
 11
180.6267162016
 21
101.7480859003
 31
0.0
  0
LINE
  5
B4
330
1F
100
AcDbEntity
  8
0
  6
Continuous
 62
     7
370
    25
100
AcDbLine
 10
210.3267123154
 20
126.6480855113
 30
0.0
 11
210.3267123154
 21
109.8480861104
 31
0.0
  0
LINE
  5
B5
330
1F
100
AcDbEntity
  8
0
  6
Continuous
 62
     7
370
    25
100
AcDbLine
 10
198.3267103484
 20
127.2480854234
 30
0.0
 11
198.3267103484
 21
109.2480861983
 31
0.0
  0
SPLINE
  5
B6
330
1F
100
AcDbEntity
  8
0
  6
Continuous
 62
     7
370
    25
100
AcDbSpline
210
0.0
220
0.0
230
1.0
 70
     8
 71
     3
 72
    11
 73
     7
 74
     0
 42
0.000000001
 43
0.00000001
 40
0.0
 40
0.0
 40
0.0
 40
0.0
 40
0.4050049547784818
 40
0.6483458302039385
 40
0.8998394259968291
 40
0.9999999999999999
 40
0.9999999999999999
 40
0.9999999999999999
 40
0.9999999999999999
 10
117.8925151167558
 20
149.5501504680687
 30
0.0
 10
117.5996740486247
 20
149.588050265308
 30
0.0
 10
117.1308840173048
 20
149.6487215613398
 30
0.0
 10
116.7893448291568
 20
149.7001743181983
 30
0.0
 10
116.6157309624957
 20
149.7266280416506
 30
0.0
 10
116.6713645389795
 20
149.718176617318
 30
0.0
 10
116.6872104792045
 20
149.7157694241577
 30
0.0
  0
LINE
  5
B7
330
1F
100
AcDbEntity
  8
0
  6
Continuous
 62
     7
370
    25
100
AcDbLine
 10
117.8925151168
 20
86.7730857274
 30
0.0
 11
117.8925151168
 21
149.5501504681
 31
0.0
  0
LINE
  5
B8
330
1F
100
AcDbEntity
  8
0
  6
Continuous
 62
     7
370
    25
100
AcDbLine
 10
129.3267120769
 20
86.7730857274
 30
0.0
 11
129.3267120769
 21
149.7230858943
 31
0.0
  0
SPLINE
  5
B9
330
1F
100
AcDbEntity
  8
0
  6
Continuous
 62
     7
370
    25
100
AcDbSpline
210
0.0
220
0.0
230
1.0
 70
     8
 71
     3
 72
    25
 73
    21
 74
     0
 42
0.000000001
 43
0.00000001
 40
0.0
 40
0.0
 40
0.0
 40
0.0
 40
0.1249999999999985
 40
0.1249999999999985
 40
0.2499999999999971
 40
0.2499999999999971
 40
0.3749999999999956
 40
0.3749999999999956
 40
0.4999999999999941
 40
0.4999999999999941
 40
0.562499999999995
 40
0.562499999999995
 40
0.624999999999996
 40
0.6874999999999969
 40
0.6874999999999969
 40
0.7499999999999978
 40
0.7499999999999978
 40
0.8749999999999989
 40
0.8749999999999989
 40
1.0
 40
1.0
 40
1.0
 40
1.0
 10
124.5609106563673
 20
105.2103418055454
 30
0.0
 10
124.8021581619227
 20
105.0514674267537
 30
0.0
 10
125.0180871961671
 20
104.8705798917251
 30
0.0
 10
125.4012451080097
 20
104.4676866717623
 30
0.0
 10
125.5686968934949
 20
104.2436165978244
 30
0.0
 10
125.8363815498988
 20
103.7773136857862
 30
0.0
 10
125.9400535176197
 20
103.5303800327265
 30
0.0
 10
126.0791848888739
 20
103.0237942766135
 30
0.0
 10
126.1139241288645
 20
102.7692835677116
 30
0.0
 10
126.1143545620837
 20
102.3859588225498
 30
0.0
 10
126.1056197784943
 20
102.2571344747575
 30
0.0
 10
126.0708263753196
 20
102.0050141102214
 30
0.0
 10
126.0189335135905
 20
101.7574614410702
 30
0.0
 10
125.9335553012969
 20
101.5187251196715
 30
0.0
 10
125.8310795482323
 20
101.2843842210322
 30
0.0
 10
125.7710181765812
 20
101.1692018679562
 30
0.0
 10
125.56970835413
 20
100.8391528956146
 30
0.0
 10
125.4064848340502
 20
100.6364417653806
 30
0.0
 10
125.0211066337988
 20
100.264697391831
 30
0.0
 10
124.802157147973
 20
100.099343714174
 30
0.0
 10
124.5609106563673
 20
99.95728949269588
 30
0.0
  0
LINE
  5
BA
330
1F
100
AcDbEntity
  8
0
  6
Continuous
 62
     7
370
    25
100
AcDbLine
 10
124.5609109452
 20
105.2103418327
 30
0.0
 11
124.5609109452
 21
149.3409530661
 31
0.0
  0
SPLINE
  5
BB
330
1F
100
AcDbEntity
  8
0
  6
Continuous
 62
     7
370
    25
100
AcDbSpline
210
0.0
220
0.0
230
1.0
 70
     8
 71
     3
 72
    12
 73
     8
 74
     0
 42
0.000000001
 43
0.00000001
 40
0.0
 40
0.0
 40
0.0
 40
0.0
 40
0.1144634680262505
 40
0.3661160526449659
 40
0.6247763889426796
 40
0.9030266255086999
 40
1.0
 40
1.0
 40
1.0
 40
1.0
 10
128.0415595671283
 20
149.7119547268921
 30
0.0
 10
128.0585778797624
 20
149.714555322424
 30
0.0
 10
128.1130116441041
 20
149.7228734328839
 30
0.0
 10
127.6081054068172
 20
149.6456063543044
 30
0.0
 10
126.6144525804201
 20
149.5149575793448
 30
0.0
 10
125.4911695255308
 20
149.4012335691673
 30
0.0
 10
124.7519547604918
 20
149.3533326533601
 30
0.0
 10
124.5609109452115
 20
149.3409530660683
 30
0.0
  0
LINE
  5
BC
330
1F
100
AcDbEntity
  8
0
  6
Continuous
 62
     7
370
    25
100
AcDbLine
 10
124.5609109452
 20
86.7730857274
 30
0.0
 11
124.5609109452
 21
99.9572885624
 31
0.0
  0
SPLINE
  5
BD
330
1F
100
AcDbEntity
  8
0
  6
Continuous
 62
     7
370
    25
100
AcDbSpline
210
0.0
220
0.0
230
1.0
 70
     8
 71
     3
 72
    10
 73
     6
 74
     0
 42
0.000000001
 43
0.00000001
 40
0.0
 40
0.0
 40
0.0
 40
0.0
 40
0.5
 40
0.5
 40
1.0
 40
1.0
 40
1.0
 40
1.0
 10
119.0207310443439
 20
147.7230858108574
 30
0.0
 10
118.8438458979205
 20
148.0132793505999
 30
0.0
 10
118.6582965230431
 20
148.3156927365404
 30
0.0
 10
118.2803475829955
 20
148.9277268738408
 30
0.0
 10
118.0875610408164
 20
149.2380037134057
 30
0.0
 10
117.8925150472271
 20
149.5501507843709
 30
0.0
  0
SPLINE
  5
BE
330
1F
100
AcDbEntity
  8
0
  6
Continuous
 62
     7
370
    25
100
AcDbSpline
210
0.0
220
0.0
230
1.0
 70
     8
 71
     3
 72
     8
 73
     4
 74
     0
 42
0.000000001
 43
0.00000001
 40
0.0
 40
0.0
 40
0.0
 40
0.0
 40
1.0
 40
1.0
 40
1.0
 40
1.0
 10
119.3517128517972
 20
147.1123368894744
 30
0.0
 10
119.2334160923673
 20
147.3302221238052
 30
0.0
 10
119.1219876101959
 20
147.5359024148473
 30
0.0
 10
119.0207310443439
 20
147.7230858108574
 30
0.0
  0
LINE
  5
BF
330
1F
100
AcDbEntity
  8
0
  6
Continuous
 62
     7
370
    25
100
AcDbLine
 10
119.3517127236
 20
105.7169366098
 30
0.0
 11
119.3517127236
 21
147.1123372606
 31
0.0
  0
SPLINE
  5
C0
330
1F
100
AcDbEntity
  8
0
  6
Continuous
 62
     7
370
    25
100
AcDbSpline
210
0.0
220
0.0
230
1.0
 70
     8
 71
     3
 72
    26
 73
    22
 74
     0
 42
0.000000001
 43
0.00000001
 40
0.0
 40
0.0
 40
0.0
 40
0.0
 40
0.1250000000000014
 40
0.1250000000000014
 40
0.2500000000000027
 40
0.2500000000000027
 40
0.3125000000000025
 40
0.3125000000000025
 40
0.3750000000000023
 40
0.3750000000000023
 40
0.4375000000000021
 40
0.4375000000000021
 40
0.5000000000000018
 40
0.5000000000000018
 40
0.5625000000000016
 40
0.5625000000000016
 40
0.6250000000000013
 40
0.6250000000000013
 40
0.7500000000000006
 40
0.7500000000000006
 40
1.0
 40
1.0
 40
1.0
 40
1.0
 10
119.3517128517972
 20
101.9149839598867
 30
0.0
 10
119.2598079411144
 20
101.940031652223
 30
0.0
 10
119.1721111648894
 20
101.9780392461374
 30
0.0
 10
119.0079048941221
 20
102.0890354972301
 30
0.0
 10
118.9306344758554
 20
102.1629690085436
 30
0.0
 10
118.8308683695303
 20
102.308267143874
 30
0.0
 10
118.800255440628
 20
102.3624089578657
 30
0.0
 10
118.745386566725
 20
102.4844731971338
 30
0.0
 10
118.7210013457961
 20
102.5530451787179
 30
0.0
 10
118.6813219692976
 20
102.7026293487521
 30
0.0
 10
118.6658558900603
 20
102.7837883539249
 30
0.0
 10
118.6447595549779
 20
102.9604443610164
 30
0.0
 10
118.6392464888178
 20
103.0566884677381
 30
0.0
 10
118.6391795311955
 20
103.2559184100992
 30
0.0
 10
118.644447838545
 20
103.3597663583226
 30
0.0
 10
118.665290365713
 20
103.5756865544756
 30
0.0
 10
118.6809644789233
 20
103.6876557085697
 30
0.0
 10
118.7402834091008
 20
104.0222819247147
 30
0.0
 10
118.7973032446149
 20
104.2503366330836
 30
0.0
 10
118.9961381332587
 20
104.9087195771527
 30
0.0
 10
119.1674083384908
 20
105.3272445656116
 30
0.0
 10
119.3517128517972
 20
105.7169365832107
 30
0.0
  0
LINE
  5
C1
330
1F
100
AcDbEntity
  8
0
  6
Continuous
 62
     7
370
    25
100
AcDbLine
 10
119.3517127236
 20
89.300490304
 30
0.0
 11
119.3517127236
 21
101.9149844936
 31
0.0
  0
LINE
  5
C2
330
1F
100
AcDbEntity
  8
0
  6
Continuous
 62
     7
370
    25
100
AcDbLine
 10
111.3267128518
 20
86.9730853877
 30
0.0
 11
111.3267128518
 21
149.5230862341
 31
0.0
  0
SPLINE
  5
C3
330
1F
100
AcDbEntity
  8
0
  6
Continuous
 62
     7
370
    25
100
AcDbSpline
210
0.0
220
0.0
230
1.0
 70
     8
 71
     3
 72
     8
 73
     4
 74
     0
 42
0.000000001
 43
0.00000001
 40
0.0
 40
0.0
 40
0.0
 40
0.0
 40
1.0
 40
1.0
 40
1.0
 40
1.0
 10
123.5295565671332
 20
147.7230858108574
 30
0.0
 10
123.3880184788513
 20
147.470621810802
 30
0.0
 10
123.2454080101144
 20
147.2170781216595
 30
0.0
 10
123.1017128517974
 20
146.9625419319379
 30
0.0
  0
SPLINE
  5
C4
330
1F
100
AcDbEntity
  8
0
  6
Continuous
 62
     7
370
    25
100
AcDbSpline
210
0.0
220
0.0
230
1.0
 70
     8
 71
     3
 72
     8
 73
     4
 74
     0
 42
0.000000001
 43
0.00000001
 40
0.0
 40
0.0
 40
0.0
 40
0.0
 40
1.0
 40
1.0
 40
1.0
 40
1.0
 10
124.5609106563668
 20
149.3409529626489
 30
0.0
 10
124.2125092516866
 20
148.7989642169979
 30
0.0
 10
123.8679408664537
 20
148.2587450300044
 30
0.0
 10
123.5295565671329
 20
147.7230858108569
 30
0.0
  0
SPLINE
  5
C5
330
1F
100
AcDbEntity
  8
0
  6
Continuous
 62
     7
370
    25
100
AcDbSpline
210
0.0
220
0.0
230
1.0
 70
     8
 71
     3
 72
    10
 73
     6
 74
     0
 42
0.000000001
 43
0.00000001
 40
0.0
 40
0.0
 40
0.0
 40
0.0
 40
0.5
 40
0.5
 40
1.0
 40
1.0
 40
1.0
 40
1.0
 10
123.1017128517972
 20
107.0661468611698
 30
0.0
 10
123.3529057416687
 20
106.8006547126143
 30
0.0
 10
123.6001750533705
 20
106.5149683895718
 30
0.0
 10
124.0867964046813
 20
105.8990957076815
 30
0.0
 10
124.3261797123981
 20
105.5691579804409
 30
0.0
 10
124.5609106563672
 20
105.2103418055456
 30
0.0
  0
LINE
  5
C6
330
1F
100
AcDbEntity
  8
0
  6
Continuous
 62
     7
370
    25
100
AcDbLine
 10
123.1017128727
 20
107.0661464176
 30
0.0
 11
123.1017128727
 21
146.962541475
 31
0.0
  0
LINE
  5
C7
330
1F
100
AcDbEntity
  8
0
  6
Continuous
 62
     7
370
    25
100
AcDbLine
 10
174.3267138651
 20
90.0480852863
 30
0.0
 11
174.3267138651
 21
146.4480863354
 31
0.0
  0
SPLINE
  5
C8
330
1F
100
AcDbEntity
  8
0
  6
Continuous
 62
     7
370
    25
100
AcDbSpline
210
0.0
220
0.0
230
1.0
 70
     8
 71
     3
 72
    10
 73
     6
 74
     0
 42
0.000000001
 43
0.00000001
 40
0.0
 40
0.0
 40
0.0
 40
0.0
 40
0.5
 40
0.5
 40
1.0
 40
1.0
 40
1.0
 40
1.0
 10
124.5609106563672
 20
99.9572894926959
 30
0.0
 10
124.3261797123981
 20
100.0233051497507
 30
0.0
 10
124.0867964046813
 20
100.1247130908351
 30
0.0
 10
123.6001750533705
 20
100.3809588849136
 30
0.0
 10
123.3529057416687
 20
100.5361071666043
 30
0.0
 10
123.1017128517972
 20
100.7155686394643
 30
0.0
  0
LINE
  5
C9
330
1F
100
AcDbEntity
  8
0
  6
Continuous
 62
     7
370
    25
100
AcDbLine
 10
123.1017128727
 20
100.71556954
 30
0.0
 11
123.1017128727
 21
100.764763861
 31
0.0
  0
SPLINE
  5
CA
330
1F
100
AcDbEntity
  8
0
  6
Continuous
 62
     7
370
    25
100
AcDbSpline
210
0.0
220
0.0
230
1.0
 70
     8
 71
     3
 72
    14
 73
    10
 74
     0
 42
0.000000001
 43
0.00000001
 40
0.0
 40
0.0
 40
0.0
 40
0.0
 40
0.25
 40
0.25
 40
0.5
 40
0.5
 40
0.75
 40
0.75
 40
1.0
 40
1.0
 40
1.0
 40
1.0
 10
123.1017128517974
 20
100.7647638272604
 30
0.0
 10
123.1017128517974
 20
100.8306811069695
 30
0.0
 10
123.0757834135314
 20
100.8920705657638
 30
0.0
 10
122.976341156255
 20
100.9994966280531
 30
0.0
 10
122.9040587705342
 20
101.0450378021516
 30
0.0
 10
122.7193214337696
 20
101.1216747260315
 30
0.0
 10
122.6097747974476
 20
101.1516002798567
 30
0.0
 10
122.3664135524444
 20
101.1972424672833
 30
0.0
 10
122.2349024449986
 20
101.2125217179048
 30
0.0
 10
122.1017128517972
 20
101.2203682016047
 30
0.0
  0
SPLINE
  5
CB
330
1F
100
AcDbEntity
  8
0
  6
Continuous
 62
     7
370
    25
100
AcDbSpline
210
0.0
220
0.0
230
1.0
 70
     8
 71
     3
 72
    10
 73
     6
 74
     0
 42
0.000000001
 43
0.00000001
 40
0.0
 40
0.0
 40
0.0
 40
0.0
 40
0.5
 40
0.5
 40
1.0
 40
1.0
 40
1.0
 40
1.0
 10
122.1017128517972
 20
101.2203682016046
 30
0.0
 10
121.7892489495091
 20
101.238776118148
 30
0.0
 10
121.4863599675113
 20
101.2876489350719
 30
0.0
 10
120.8990167827072
 20
101.4449511924123
 30
0.0
 10
120.6145491221353
 20
101.5543234076907
 30
0.0
 10
120.3517128517972
 20
101.6914369278782
 30
0.0
  0
SPLINE
  5
CC
330
1F
100
AcDbEntity
  8
0
  6
Continuous
 62
     7
370
    25
100
AcDbSpline
210
0.0
220
0.0
230
1.0
 70
     8
 71
     3
 72
    14
 73
    10
 74
     0
 42
0.000000001
 43
0.00000001
 40
0.0
 40
0.0
 40
0.0
 40
0.0
 40
0.25
 40
0.25
 40
0.5
 40
0.5
 40
0.75
 40
0.75
 40
1.0
 40
1.0
 40
1.0
 40
1.0
 10
120.3517128517972
 20
101.6914369278782
 30
0.0
 10
120.2173621032561
 20
101.7615235412995
 30
0.0
 10
120.0941832004626
 20
101.8227188485951
 30
0.0
 10
119.8654327795733
 20
101.9323612219216
 30
0.0
 10
119.7635096875801
 20
101.9790690213098
 30
0.0
 10
119.5840846232349
 20
102.0500345341588
 30
0.0
 10
119.5076433743304
 20
102.0745470125514
 30
0.0
 10
119.3903553998687
 20
102.0730313050255
 30
0.0
 10
119.3517128517972
 20
102.0444242618171
 30
0.0
 10
119.3517128517972
 20
101.9639229716034
 30
0.0
  0
LINE
  5
CD
330
1F
100
AcDbEntity
  8
0
  6
Continuous
 62
     7
370
    25
100
AcDbLine
 10
119.3517127236
 20
101.9639236322
 30
0.0
 11
119.3517127236
 21
101.9149844936
 31
0.0
  0
SPLINE
  5
CE
330
1F
100
AcDbEntity
  8
0
  6
Continuous
 62
     7
370
    25
100
AcDbSpline
210
0.0
220
0.0
230
1.0
 70
     8
 71
     3
 72
    16
 73
    12
 74
     0
 42
0.000000001
 43
0.00000001
 40
0.0
 40
0.0
 40
0.0
 40
0.0
 40
0.1250000000000001
 40
0.1250000000000001
 40
0.2500000000000003
 40
0.2500000000000003
 40
0.5000000000000002
 40
0.5000000000000002
 40
0.7500000000000001
 40
0.7500000000000001
 40
1.0
 40
1.0
 40
1.0
 40
1.0
 10
119.3517128517972
 20
105.7658755949274
 30
0.0
 10
119.3517128517972
 20
105.8059046450812
 30
0.0
 10
119.3614854154368
 20
105.8573913001337
 30
0.0
 10
119.3956814608372
 20
105.9714555470397
 30
0.0
 10
119.4198666525481
 20
106.0338000845079
 30
0.0
 10
119.5075833166444
 20
106.226326380863
 30
0.0
 10
119.5842934824938
 20
106.3585875884515
 30
0.0
 10
119.7633755827348
 20
106.6125365281177
 30
0.0
 10
119.8642583523546
 20
106.7325085903992
 30
0.0
 10
120.0930698506176
 20
106.9543889479681
 30
0.0
 10
120.2173674590525
 20
107.0525553207145
 30
0.0
 10
120.3517128517972
 20
107.132470262641
 30
0.0
  0
SPLINE
  5
CF
330
1F
100
AcDbEntity
  8
0
  6
Continuous
 62
     7
370
    25
100
AcDbSpline
210
0.0
220
0.0
230
1.0
 70
     8
 71
     3
 72
    10
 73
     6
 74
     0
 42
0.000000001
 43
0.00000001
 40
0.0
 40
0.0
 40
0.0
 40
0.0
 40
0.5
 40
0.5
 40
1.0
 40
1.0
 40
1.0
 40
1.0
 10
120.3517128517972
 20
107.132470262641
 30
0.0
 10
120.6145323661529
 20
107.2888076389944
 30
0.0
 10
120.8928852307606
 20
107.4127263110617
 30
0.0
 10
121.479881818146
 20
107.5961689206633
 30
0.0
 10
121.7892655080243
 20
107.654840900256
 30
0.0
 10
122.1017128517972
 20
107.6763610570839
 30
0.0
  0
SPLINE
  5
D0
330
1F
100
AcDbEntity
  8
0
  6
Continuous
 62
     7
370
    25
100
AcDbSpline
210
0.0
220
0.0
230
1.0
 70
     8
 71
     3
 72
    14
 73
    10
 74
     0
 42
0.000000001
 43
0.00000001
 40
0.0
 40
0.0
 40
0.0
 40
0.0
 40
0.25
 40
0.25
 40
0.5
 40
0.5
 40
0.75
 40
0.75
 40
1.0
 40
1.0
 40
1.0
 40
1.0
 10
122.1017128517972
 20
107.6763610570839
 30
0.0
 10
122.2349423028205
 20
107.6855373830705
 30
0.0
 10
122.3666436654307
 20
107.674145251104
 30
0.0
 10
122.6097213236478
 20
107.6159845914443
 30
0.0
 10
122.7206272641964
 20
107.5692084695449
 30
0.0
 10
122.9033243372741
 20
107.4562493428137
 30
0.0
 10
122.9767118667557
 20
107.389295636873
 30
0.0
 10
123.075546145674
 20
107.2522637880782
 30
0.0
 10
123.1017128517972
 20
107.1814798129549
 30
0.0
 10
123.1017128517972
 20
107.115342048967
 30
0.0
  0
ARC
  5
D1
330
1F
100
AcDbEntity
  8
0
  6
Continuous
 62
     7
370
    25
100
AcDbCircle
 10
122.3895079263
 20
109.9220653762
 30
0.0
 40
4.198268584828215
100
AcDbArc
 50
269.8253772552
 51
292.0955584615
  0
ARC
  5
D2
330
1F
100
AcDbEntity
  8
0
  6
Continuous
 62
     7
370
    25
100
AcDbCircle
 10
122.3325485733
 20
109.7624054306
 30
0.0
 40
4.038830612962865
100
AcDbArc
 50
230.9437956439
 51
270.6265350425
  0
SPLINE
  5
D3
330
1F
100
AcDbEntity
  8
0
  6
Continuous
 62
     7
370
    25
100
AcDbSpline
210
0.0
220
0.0
230
1.0
 70
     8
 71
     3
 72
    14
 73
    10
 74
     0
 42
0.000000001
 43
0.00000001
 40
0.0
 40
0.0
 40
0.0
 40
0.0
 40
0.25
 40
0.25
 40
0.5
 40
0.5
 40
0.75
 40
0.75
 40
1.0
 40
1.0
 40
1.0
 40
1.0
 10
123.1017128517973
 20
146.8641515563449
 30
0.0
 10
123.1017128517975
 20
146.7323123793759
 30
0.0
 10
123.0757963292263
 20
146.6002634423873
 30
0.0
 10
122.9763514826488
 20
146.3549971506742
 30
0.0
 10
122.9040530902366
 20
146.2433767340864
 30
0.0
 10
122.7193491957127
 20
146.0526374448907
 30
0.0
 10
122.6097719338368
 20
145.9766765780438
 30
0.0
 10
122.3664417556186
 20
145.8728342538743
 30
0.0
 10
122.2349054966985
 20
145.846201046441
 30
0.0
 10
122.1017128517972
 20
145.8475281738831
 30
0.0
  0
SPLINE
  5
D4
330
1F
100
AcDbEntity
  8
0
  6
Continuous
 62
     7
370
    25
100
AcDbSpline
210
0.0
220
0.0
230
1.0
 70
     8
 71
     3
 72
    14
 73
    10
 74
     0
 42
0.000000001
 43
0.00000001
 40
0.0
 40
0.0
 40
0.0
 40
0.0
 40
0.25
 40
0.25
 40
0.5
 40
0.5
 40
0.75
 40
0.75
 40
1.0
 40
1.0
 40
1.0
 40
1.0
 10
120.3517128517972
 20
145.9203502420527
 30
0.0
 10
120.2173647654407
 20
145.9301815616236
 30
0.0
 10
120.0941880915848
 20
145.9662209750137
 30
0.0
 10
119.8654414866668
 20
146.078092671333
 30
0.0
 10
119.7635195226995
 20
146.1524474604233
 30
0.0
 10
119.5840961202708
 20
146.335923927275
 30
0.0
 10
119.507654832088
 20
146.4431894481351
 30
0.0
 10
119.3903648592379
 20
146.7022159379535
 30
0.0
 10
119.3517128517972
 20
146.8534606429297
 30
0.0
 10
119.3517128517972
 20
147.0144588660411
 30
0.0
  0
SPLINE
  5
D5
330
1F
100
AcDbEntity
  8
0
  6
Continuous
 62
     7
370
    25
100
AcDbSpline
210
0.0
220
0.0
230
1.0
 70
     8
 71
     3
 72
    10
 73
     6
 74
     0
 42
0.000000001
 43
0.00000001
 40
0.0
 40
0.0
 40
0.0
 40
0.0
 40
0.5
 40
0.5
 40
1.0
 40
1.0
 40
1.0
 40
1.0
 10
122.1017128517972
 20
145.8475281738835
 30
0.0
 10
121.7892489495091
 20
145.850641554654
 30
0.0
 10
121.4863599675113
 20
145.8589575365604
 30
0.0
 10
120.8990167827072
 20
145.8841328304163
 30
0.0
 10
120.6145491221353
 20
145.9011164186424
 30
0.0
 10
120.3517128517972
 20
145.9203502420527
 30
0.0
  0
LINE
  5
D6
330
1F
100
AcDbEntity
  8
0
  6
Continuous
 62
     7
370
    25
100
AcDbLine
 10
123.1017128727
 20
89.300490304
 30
0.0
 11
123.1017128727
 21
100.71556954
 31
0.0
  0
LINE
  5
D7
330
1F
100
AcDbEntity
  8
0
  6
Continuous
 62
     7
370
    25
100
AcDbLine
 10
110.166530793
 20
93.306347116
 30
0.0
 11
110.166530793
 21
143.1898245058
 31
0.0
  0
LINE
  5
D8
330
1F
100
AcDbEntity
  8
0
  6
Continuous
 62
     7
370
    25
100
AcDbLine
 10
94.2216550162
 20
94.5067492715
 30
0.0
 11
94.2216550162
 21
94.1070666006
 31
0.0
  0
SPLINE
  5
D9
330
1F
100
AcDbEntity
  8
0
  6
Continuous
 62
     7
370
    25
100
AcDbSpline
210
0.0
220
0.0
230
1.0
 70
     8
 71
     3
 72
    26
 73
    22
 74
     0
 42
0.000000001
 43
0.00000001
 40
0.0
 40
0.0
 40
0.0
 40
0.0
 40
0.0241259796969038
 40
0.048215991228259
 40
0.0723203915136643
 40
0.0964895678725153
 40
0.1207736231978452
 40
0.1452220711257179
 40
0.1698835501670319
 40
0.1948055644482148
 40
0.2200342569523467
 40
0.2456142191612283
 40
0.369097148691835
 40
0.4940698769485373
 40
0.6192566784762581
 40
0.7454656653603327
 40
0.7971495824713788
 40
0.8481710308405456
 40
0.8988013269235281
 40
0.9493179290492212
 40
1.0
 40
1.0
 40
1.0
 40
1.0
 10
89.28177069859578
 20
96.32867289693728
 30
0.0
 10
89.34701975714677
 20
96.32485226745635
 30
0.0
 10
89.47742059782848
 20
96.31721670447183
 30
0.0
 10
89.67240041612817
 20
96.30129645410986
 30
0.0
 10
89.8665295533943
 20
96.28213825295884
 30
0.0
 10
90.05979089348995
 20
96.2594438392214
 30
0.0
 10
90.25218607196476
 20
96.23333147263357
 30
0.0
 10
90.44371165046525
 20
96.20381966617894
 30
0.0
 10
90.63436718284923
 20
96.17096530558428
 30
0.0
 10
90.82414718194521
 20
96.13482899614398
 30
0.0
 10
91.01306580259767
 20
96.09547470329818
 30
0.0
 10
91.43981021576803
 20
95.99907594043971
 30
0.0
 10
92.07428254294616
 20
95.82243986156902
 30
0.0
 10
92.81395839529401
 20
95.54432062803639
 30
0.0
 10
93.420705638126
 20
95.25297526831305
 30
0.0
 10
93.7814974543445
 20
95.02549807829425
 30
0.0
 10
93.98367151010878
 20
94.86608684120112
 30
0.0
 10
94.09049496609401
 20
94.76478769649258
 30
0.0
 10
94.16610568239226
 20
94.67085435676182
 30
0.0
 10
94.21326835508356
 20
94.58373471275308
 30
0.0
 10
94.21885640937181
 20
94.53243958249007
 30
0.0
 10
94.22165500499864
 20
94.50675008130999
 30
0.0
  0
LINE
  5
DA
330
1F
100
AcDbEntity
  8
0
  6
Continuous
 62
     7
370
    25
100
AcDbLine
 10
87.3668973496
 20
96.4341828069
 30
0.0
 11
89.2817710688
 21
96.3286732724
 31
0.0
  0
SPLINE
  5
DB
330
1F
100
AcDbEntity
  8
0
  6
Continuous
 62
     7
370
    25
100
AcDbSpline
210
0.0
220
0.0
230
1.0
 70
     8
 71
     3
 72
    14
 73
    10
 74
     0
 42
0.000000001
 43
0.00000001
 40
0.0
 40
0.0
 40
0.0
 40
0.0
 40
0.0789261963155847
 40
0.1582328720522156
 40
0.3308475394554963
 40
0.5000195457601538
 40
0.667035788356921
 40
0.8332395193656904
 40
1.0
 40
1.0
 40
1.0
 40
1.0
 10
85.17068519323394
 20
96.32818990171226
 30
0.0
 10
85.22408071627598
 20
96.33621899490413
 30
0.0
 10
85.33112916609471
 20
96.35231588712789
 30
0.0
 10
85.56019988065715
 20
96.38211730074667
 30
0.0
 10
85.85907261885556
 20
96.41391126393984
 30
0.0
 10
86.23121569365672
 20
96.44006825393565
 30
0.0
 10
86.60684549268835
 20
96.45253346817034
 30
0.0
 10
86.98603780471812
 20
96.45215430849665
 30
0.0
 10
87.23980277426591
 20
96.44018052023516
 30
0.0
 10
87.36689741930631
 20
96.43418361541572
 30
0.0
  0
SPLINE
  5
DC
330
1F
100
AcDbEntity
  8
0
  6
Continuous
 62
     7
370
    25
100
AcDbSpline
210
0.0
220
0.0
230
1.0
 70
     8
 71
     3
 72
     8
 73
     4
 74
     0
 42
0.000000001
 43
0.00000001
 40
0.0
 40
0.0
 40
0.0
 40
0.0
 40
1.0
 40
1.0
 40
1.0
 40
1.0
 10
79.77839146958956
 20
96.62279928416092
 30
0.0
 10
81.5757281549626
 20
96.52466345410352
 30
0.0
 10
83.37306484033563
 20
96.42644457906194
 30
0.0
 10
85.17040152570867
 20
96.32814589001137
 30
0.0
  0
SPLINE
  5
DD
330
1F
100
AcDbEntity
  8
0
  6
Continuous
 62
     7
370
    25
100
AcDbSpline
210
0.0
220
0.0
230
1.0
 70
     8
 71
     3
 72
    13
 73
     9
 74
     0
 42
0.000000001
 43
0.00000001
 40
0.0
 40
0.0
 40
0.0
 40
0.0
 40
0.1667030582308044
 40
0.3329480818053134
 40
0.4990671507274983
 40
0.6653938523718556
 40
0.8322612710550201
 40
1.0
 40
1.0
 40
1.0
 40
1.0
 10
78.69488730474417
 20
96.73946634850277
 30
0.0
 10
78.7559943474955
 20
96.73577972082906
 30
0.0
 10
78.87804053479869
 20
96.72841659488927
 30
0.0
 10
79.06037548006239
 20
96.71338208730026
 30
0.0
 10
79.2416796929361
 20
96.69548047906729
 30
0.0
 10
79.42187855297274
 20
96.67437990222136
 30
0.0
 10
79.60118253111108
 20
96.65043353118716
 30
0.0
 10
79.71921455668247
 20
96.63202071597446
 30
0.0
 10
79.7783842464341
 20
96.62279033499681
 30
0.0
  0
SPLINE
  5
DE
330
1F
100
AcDbEntity
  8
0
  6
Continuous
 62
     7
370
    25
100
AcDbSpline
210
0.0
220
0.0
230
1.0
 70
     8
 71
     3
 72
     8
 73
     4
 74
     0
 42
0.000000001
 43
0.00000001
 40
0.0
 40
0.0
 40
0.0
 40
0.0
 40
1.0
 40
1.0
 40
1.0
 40
1.0
 10
72.87671285180996
 20
97.05923358059643
 30
0.0
 10
74.81610433612136
 20
96.95274793071312
 30
0.0
 10
76.75549582043276
 20
96.84615735948174
 30
0.0
 10
78.69488730474417
 20
96.73946634850277
 30
0.0
  0
LINE
  5
DF
330
1F
100
AcDbEntity
  8
0
  6
Continuous
 62
     7
370
    25
100
AcDbLine
 10
72.8767139068
 20
97.0592343649
 30
0.0
 11
72.8767139068
 21
139.4370248011
 31
0.0
  0
SPLINE
  5
E0
330
1F
100
AcDbEntity
  8
0
  6
Continuous
 62
     7
370
    25
100
AcDbSpline
210
0.0
220
0.0
230
1.0
 70
     8
 71
     3
 72
     8
 73
     4
 74
     0
 42
0.000000001
 43
0.00000001
 40
0.0
 40
0.0
 40
0.0
 40
0.0
 40
1.0
 40
1.0
 40
1.0
 40
1.0
 10
78.69488730474417
 20
139.756705273212
 30
0.0
 10
76.75549582043277
 20
139.650014262233
 30
0.0
 10
74.81610433612137
 20
139.5434236910016
 30
0.0
 10
72.87671285180997
 20
139.4369380411183
 30
0.0
  0
SPLINE
  5
E1
330
1F
100
AcDbEntity
  8
0
  6
Continuous
 62
     7
370
    25
100
AcDbSpline
210
0.0
220
0.0
230
1.0
 70
     8
 71
     3
 72
    13
 73
     9
 74
     0
 42
0.000000001
 43
0.00000001
 40
0.0
 40
0.0
 40
0.0
 40
0.0
 40
0.1686319999748162
 40
0.3360343310905639
 40
0.5025367825908819
 40
0.6684737453788441
 40
0.8341822636915266
 40
1.0
 40
1.0
 40
1.0
 40
1.0
 10
79.77838235421116
 20
139.873384048954
 30
0.0
 10
79.71889245815142
 20
139.8641095587576
 30
0.0
 10
79.60034646787635
 20
139.8456282081847
 30
0.0
 10
79.42046977229047
 20
139.8215974614506
 30
0.0
 10
79.24007948466243
 20
139.8004663539414
 30
0.0
 10
79.05896731262862
 20
139.7825876553555
 30
0.0
 10
78.87720647546116
 20
139.7676258941784
 30
0.0
 10
78.75567370756653
 20
139.7603462795994
 30
0.0
 10
78.69488730474417
 20
139.756705273212
 30
0.0
  0
SPLINE
  5
E2
330
1F
100
AcDbEntity
  8
0
  6
Continuous
 62
     7
370
    25
100
AcDbSpline
210
0.0
220
0.0
230
1.0
 70
     8
 71
     3
 72
     8
 73
     4
 74
     0
 42
0.000000001
 43
0.00000001
 40
0.0
 40
0.0
 40
0.0
 40
0.0
 40
1.0
 40
1.0
 40
1.0
 40
1.0
 10
85.17057577070445
 20
140.168035272899
 30
0.0
 10
83.37318109926647
 20
140.0697334136824
 30
0.0
 10
81.57578642782849
 20
139.9715113735238
 30
0.0
 10
79.7783917563905
 20
139.8733723837082
 30
0.0
  0
SPLINE
  5
E3
330
1F
100
AcDbEntity
  8
0
  6
Continuous
 62
     7
370
    25
100
AcDbSpline
210
0.0
220
0.0
230
1.0
 70
     8
 71
     3
 72
    18
 73
    14
 74
     0
 42
0.000000001
 43
0.00000001
 40
0.0
 40
0.0
 40
0.0
 40
0.0
 40
0.0923325137111259
 40
0.1843692047063178
 40
0.2763458873811051
 40
0.3684982175655905
 40
0.461059898830402
 40
0.5542609546533457
 40
0.6483261285442697
 40
0.7434734636505935
 40
0.8399130993120554
 40
0.9201660718299485
 40
1.0
 40
1.0
 40
1.0
 40
1.0
 10
87.36689741930631
 20
140.061988006299
 30
0.0
 10
87.29656711579325
 20
140.0583166989941
 30
0.0
 10
87.15613183894132
 20
140.050985846829
 30
0.0
 10
86.9457693124387
 20
140.0453951875844
 30
0.0
 10
86.73632564952233
 20
140.0437905974508
 30
0.0
 10
86.52777597914985
 20
140.0465228714492
 30
0.0
 10
86.32013236187457
 20
140.0534459690373
 30
0.0
 10
86.11339417433496
 20
140.0645285793301
 30
0.0
 10
85.90757208237012
 20
140.0796975201847
 30
0.0
 10
85.70264040357797
 20
140.0988515061455
 30
0.0
 10
85.51115965818235
 20
140.1205542001971
 30
0.0
 10
85.3334365061278
 20
140.143583723461
 30
0.0
 10
85.2251025115639
 20
140.1598471411033
 30
0.0
 10
85.17107730211063
 20
140.1679575643188
 30
0.0
  0
LINE
  5
E4
330
1F
100
AcDbEntity
  8
0
  6
Continuous
 62
     7
370
    25
100
AcDbLine
 10
89.2817710688
 20
140.1674983493
 30
0.0
 11
87.3668973496
 21
140.0619888148
 31
0.0
  0
SPLINE
  5
E5
330
1F
100
AcDbEntity
  8
0
  6
Continuous
 62
     7
370
    25
100
AcDbSpline
210
0.0
220
0.0
230
1.0
 70
     8
 71
     3
 72
    25
 73
    21
 74
     0
 42
0.000000001
 43
0.00000001
 40
0.0
 40
0.0
 40
0.0
 40
0.0
 40
0.0280105225426479
 40
0.0559601148860778
 40
0.0839014045043132
 40
0.1118870776786396
 40
0.1399695827588963
 40
0.1682008401739896
 40
0.1966319670424239
 40
0.2253130233141486
 40
0.2542927850735853
 40
0.3799486436570562
 40
0.5057850221666559
 40
0.6313085886326678
 40
0.753206823801271
 40
0.8039473267958359
 40
0.8535894438558028
 40
0.9025339722397656
 40
0.9511970353793487
 40
1.0
 40
1.0
 40
1.0
 40
1.0
 10
94.22165500499864
 20
141.9894215404047
 30
0.0
 10
94.22169222673246
 20
141.9754634005829
 30
0.0
 10
94.22176658923313
 20
141.9475774835373
 30
0.0
 10
94.20935053858663
 20
141.9025336886515
 30
0.0
 10
94.18774597823287
 20
141.8552664644564
 30
0.0
 10
94.15606050857286
 20
141.8055672834804
 30
0.0
 10
94.11453437025297
 20
141.7535300345078
 30
0.0
 10
94.06310361452307
 20
141.699167271872
 30
0.0
 10
94.00178973981183
 20
141.6425159892071
 30
0.0
 10
93.93057940431237
 20
141.5835984275418
 30
0.0
 10
93.75974279710884
 20
141.4547818517189
 30
0.0
 10
93.42201056367195
 20
141.2445784675756
 30
0.0
 10
92.81045589947625
 20
140.9536529459839
 30
0.0
 10
92.07422106432765
 20
140.6751261297617
 30
0.0
 10
91.3877349926783
 20
140.4808294240274
 30
0.0
 10
90.83903084652658
 20
140.3602386115744
 30
0.0
 10
90.45699466802076
 20
140.2904614458118
 30
0.0
 10
90.06982856931631
 20
140.2346724419561
 30
0.0
 10
89.67760190053085
 20
140.1919422572128
 30
0.0
 10
89.41384063241662
 20
140.1756543620675
 30
0.0
 10
89.28177069859578
 20
140.1674987247775
 30
0.0
  0
LINE
  5
E6
330
1F
100
AcDbEntity
  8
0
  6
Continuous
 62
     7
370
    25
100
AcDbLine
 10
94.2216550162
 20
142.3891050211
 30
0.0
 11
94.2216550162
 21
141.9894223502
 31
0.0
  0
SPLINE
  5
E7
330
1F
100
AcDbEntity
  8
0
  6
Continuous
 62
     7
370
    25
100
AcDbSpline
210
0.0
220
0.0
230
1.0
 70
    11
 71
     3
 72
    39
 73
    35
 74
     0
 42
0.000000001
 43
0.00000001
 40
0.0
 40
0.0
 40
0.0
 40
0.0
 40
0.0310664058347798
 40
0.0621048158425991
 40
0.0931361551792733
 40
0.1235538293503577
 40
0.1538561545807598
 40
0.1850588072749104
 40
0.2160250992947717
 40
0.247186722379756
 40
0.2784462884306427
 40
0.3100516090231226
 40
0.3419834369140484
 40
0.3734259894013217
 40
0.4048604886785525
 40
0.4368740651833295
 40
0.468512068592407
 40
0.4998055358633177
 40
0.5309508213228404
 40
0.561864978443814
 40
0.5930416446592908
 40
0.6233742450133256
 40
0.6540913579073041
 40
0.6849496782718417
 40
0.7158160645167227
 40
0.7471731804043494
 40
0.7784514311866261
 40
0.8101295911560916
 40
0.8419598919689909
 40
0.8735175891922292
 40
0.9050808037889628
 40
0.9370235169792575
 40
0.9687441590033682
 40
0.9999999999999999
 40
0.9999999999999999
 40
0.9999999999999999
 40
0.9999999999999999
 10
83.23912894652416
 20
124.0563389404521
 30
0.0
 10
83.6032581074889
 20
124.4357625983599
 30
0.0
 10
84.40604244420577
 20
125.1232442992534
 30
0.0
 10
85.80108092958784
 20
125.8891582736721
 30
0.0
 10
87.31232276931111
 20
126.3780392071028
 30
0.0
 10
88.88391917583358
 20
126.5400170807364
 30
0.0
 10
90.45146379289221
 20
126.3785721897781
 30
0.0
 10
91.94713578700087
 20
125.898847802534
 30
0.0
 10
93.32755204903647
 20
125.1455483343404
 30
0.0
 10
94.52459810262108
 20
124.13306246068
 30
0.0
 10
95.5135058823625
 20
122.8985136733141
 30
0.0
 10
96.25300067666501
 20
121.4735620450321
 30
0.0
 10
96.72930459955445
 20
119.9226315654898
 30
0.0
 10
96.89697077201045
 20
118.3017026982637
 30
0.0
 10
96.75169317122291
 20
116.6766937523423
 30
0.0
 10
96.29271846059109
 20
115.1176677720707
 30
0.0
 10
95.56873257473782
 20
113.681011173395
 30
0.0
 10
94.59291831941508
 20
112.4342669585945
 30
0.0
 10
93.40859377176602
 20
111.4080697693976
 30
0.0
 10
92.04038751603649
 20
110.6376655496768
 30
0.0
 10
90.55264967890423
 20
110.1388163392002
 30
0.0
 10
88.9829998184517
 20
109.9576122593043
 30
0.0
 10
87.40674530012255
 20
110.0940354012227
 30
0.0
 10
85.8874697916477
 20
110.5584671340294
 30
0.0
 10
84.48645175759977
 20
111.3129012083985
 30
0.0
 10
83.2683152607006
 20
112.3363109439331
 30
0.0
 10
82.2607043575721
 20
113.5832532054262
 30
0.0
 10
81.51523044702203
 20
115.0163426116943
 30
0.0
 10
81.03939463439828
 20
116.5730048369159
 30
0.0
 10
80.87558351941047
 20
118.1966678106215
 30
0.0
 10
81.02139566267581
 20
119.824216854613
 30
0.0
 10
81.48153997485286
 20
121.3889645429485
 30
0.0
 10
82.21100003967412
 20
122.832990612411
 30
0.0
 10
82.87277941713612
 20
123.6746016521093
 30
0.0
 10
83.23912894652416
 20
124.0563389404521
 30
0.0
  0
SPLINE
  5
E8
330
1F
100
AcDbEntity
  8
0
  6
Continuous
 62
     7
370
    25
100
AcDbSpline
210
0.0
220
0.0
230
1.0
 70
    11
 71
     3
 72
    47
 73
    43
 74
     0
 42
0.000000001
 43
0.00000001
 40
0.0
 40
0.0
 40
0.0
 40
0.0
 40
0.0185565231571564
 40
0.035175779134607
 40
0.0498587703163977
 40
0.0626072874024163
 40
0.0953681049684394
 40
0.1250235944851125
 40
0.1545621306648851
 40
0.187325415667866
 40
0.214037648789779
 40
0.2498478283714602
 40
0.2676842772503708
 40
0.2839032654384537
 40
0.2985082395935219
 40
0.311504112535417
 40
0.3429211892384783
 40
0.3729479206117491
 40
0.4028496296254227
 40
0.4364008870238722
 40
0.4619504140689453
 40
0.4999311490763327
 40
0.5173446591947486
 40
0.5335937024374298
 40
0.5486836298429361
 40
0.5626211828729782
 40
0.5950895091111661
 40
0.6250625446193601
 40
0.6549914305494098
 40
0.6874537010179621
 40
0.7162620319992257
 40
0.7500327075718594
 40
0.7698580256218077
 40
0.7869169820502812
 40
0.8012094712348541
 40
0.8127363282889571
 40
0.8457518306190162
 40
0.8751838152098743
 40
0.9050548231038161
 40
0.9375234850660229
 40
0.9660340097891252
 40
1.0
 40
1.0
 40
1.0
 40
1.0
 10
83.78294186689845
 20
123.3573049346486
 30
0.0
 10
83.58484323928754
 20
123.1579196455361
 30
0.0
 10
83.2318972592965
 20
122.7585906174337
 30
0.0
 10
82.7959902634003
 20
122.1399363228588
 30
0.0
 10
82.46605352639271
 20
121.5575757521079
 30
0.0
 10
82.08483779440095
 20
120.72504744712
 30
0.0
 10
81.75843197585993
 20
119.6157613439546
 30
0.0
 10
81.63407891703031
 20
118.2045840153299
 30
0.0
 10
81.77544828493684
 20
116.7950940161596
 30
0.0
 10
82.17694603916578
 20
115.4870264174383
 30
0.0
 10
82.85389542966207
 20
114.202363116526
 30
0.0
 10
83.62707778734982
 20
113.2488753346146
 30
0.0
 10
84.42233948831392
 20
112.5495713670836
 30
0.0
 10
85.02647960607644
 20
112.123072327165
 30
0.0
 10
85.60619480070078
 20
111.7929207990559
 30
0.0
 10
86.42399606813778
 20
111.416960156967
 30
0.0
 10
87.52365849749901
 20
111.0879583227428
 30
0.0
 10
88.92602622615915
 20
110.9543803062387
 30
0.0
 10
90.3534989095634
 20
111.0903801852463
 30
0.0
 10
91.65067589331885
 20
111.4848683350898
 30
0.0
 10
92.94507891647595
 20
112.1566621420393
 30
0.0
 10
93.89707559693686
 20
112.9192161319922
 30
0.0
 10
94.6065483255561
 20
113.7212552519205
 30
0.0
 10
95.03215310549548
 20
114.3170508569071
 30
0.0
 10
95.37281573341347
 20
114.9083204772066
 30
0.0
 10
95.76248112028345
 20
115.752883308251
 30
0.0
 10
96.09419308184039
 20
116.8765352131175
 30
0.0
 10
96.22043424333816
 20
118.2944273732701
 30
0.0
 10
96.07610613206805
 20
119.7102525648421
 30
0.0
 10
95.66382778299955
 20
121.045410540199
 30
0.0
 10
94.98451160201773
 20
122.3143788737819
 30
0.0
 10
94.19816124378197
 20
123.2747013660221
 30
0.0
 10
93.40431357006108
 20
123.9701089728885
 30
0.0
 10
92.77458934802294
 20
124.4061828489134
 30
0.0
 10
92.21335342865727
 20
124.7190319973848
 30
0.0
 10
91.40974496910451
 20
125.0862339981618
 30
0.0
 10
90.32959657461292
 20
125.4089439360875
 30
0.0
 10
88.92006825453747
 20
125.5408881686005
 30
0.0
 10
87.51086332770356
 20
125.4070781475801
 30
0.0
 10
86.17015047788156
 20
125.0023241554751
 30
0.0
 10
84.88588201270032
 20
124.3240688069457
 30
0.0
 10
84.1455429850732
 20
123.7222611670653
 30
0.0
 10
83.78294186689848
 20
123.3573049346486
 30
0.0
  0
SPLINE
  5
E9
330
1F
100
AcDbEntity
  8
0
  6
Continuous
 62
     7
370
    25
100
AcDbSpline
210
0.0
220
0.0
230
1.0
 70
     8
 71
     3
 72
     8
 73
     4
 74
     0
 42
0.000000001
 43
0.00000001
 40
0.0
 40
0.0
 40
0.0
 40
0.0
 40
1.0
 40
1.0
 40
1.0
 40
1.0
 10
71.96305303021802
 20
97.46980559159687
 30
0.0
 10
72.26760630392742
 20
97.33212885122154
 30
0.0
 10
72.57215957763684
 20
97.19526613030759
 30
0.0
 10
72.87671285134626
 20
97.05923358097643
 30
0.0
  0
SPLINE
  5
EA
330
1F
100
AcDbEntity
  8
0
  6
Continuous
 62
     7
370
    25
100
AcDbSpline
210
0.0
220
0.0
230
1.0
 70
     8
 71
     3
 72
     8
 73
     4
 74
     0
 42
0.000000001
 43
0.00000001
 40
0.0
 40
0.0
 40
0.0
 40
0.0
 40
1.0
 40
1.0
 40
1.0
 40
1.0
 10
71.3767128517972
 20
97.98586007411302
 30
0.0
 10
71.57125998432994
 20
97.8124532057932
 30
0.0
 10
71.76672100456898
 20
97.64045711082652
 30
0.0
 10
71.96305303022612
 20
97.46980559159468
 30
0.0
  0
LINE
  5
EB
330
1F
100
AcDbEntity
  8
0
  6
Continuous
 62
     7
370
    25
100
AcDbLine
 10
71.3767145923
 20
97.9858593485
 30
0.0
 11
71.3767145923
 21
138.5103122732
 31
0.0
  0
SPLINE
  5
EC
330
1F
100
AcDbEntity
  8
0
  6
Continuous
 62
     7
370
    25
100
AcDbSpline
210
0.0
220
0.0
230
1.0
 70
     8
 71
     3
 72
     8
 73
     4
 74
     0
 42
0.000000001
 43
0.00000001
 40
0.0
 40
0.0
 40
0.0
 40
0.0
 40
1.0
 40
1.0
 40
1.0
 40
1.0
 10
71.96305303022964
 20
139.0263660301231
 30
0.0
 10
71.76672100457132
 20
138.8557145108903
 30
0.0
 10
71.5712599843311
 20
138.6837184159226
 30
0.0
 10
71.3767128517972
 20
138.5103115476017
 30
0.0
  0
SPLINE
  5
ED
330
1F
100
AcDbEntity
  8
0
  6
Continuous
 62
     7
370
    25
100
AcDbSpline
210
0.0
220
0.0
230
1.0
 70
     8
 71
     3
 72
     8
 73
     4
 74
     0
 42
0.000000001
 43
0.00000001
 40
0.0
 40
0.0
 40
0.0
 40
0.0
 40
1.0
 40
1.0
 40
1.0
 40
1.0
 10
72.87671285134628
 20
139.4369380407383
 30
0.0
 10
72.57215957764073
 20
139.3009054914089
 30
0.0
 10
72.2676063039352
 20
139.1640427704967
 30
0.0
 10
71.96305303022964
 20
139.0263660301231
 30
0.0
  0
SPLINE
  5
EE
330
1F
100
AcDbEntity
  8
0
  6
Continuous
 62
     7
370
    25
100
AcDbSpline
210
0.0
220
0.0
230
1.0
 70
     8
 71
     3
 72
     9
 73
     5
 74
     0
 42
0.000000001
 43
0.00000001
 40
0.0
 40
0.0
 40
0.0
 40
0.0
 40
0.8959546455136717
 40
0.9999999999999999
 40
0.9999999999999999
 40
0.9999999999999999
 40
0.9999999999999999
 10
87.00145754722223
 20
111.2583869537884
 30
0.0
 10
87.10548995912222
 20
111.2312881075594
 30
0.0
 10
87.22160343921958
 20
111.2010423285295
 30
0.0
 10
87.17226742807894
 20
111.2136132517462
 30
0.0
 10
87.16713424531088
 20
111.2149211979085
 30
0.0
  0
LINE
  5
EF
330
1F
100
AcDbEntity
  8
0
  6
Continuous
 62
     7
370
    25
100
AcDbLine
 10
176.8267114809
 20
104.7480854607
 30
0.0
 11
176.8267114809
 21
131.748086161
 31
0.0
  0
LINE
  5
F0
330
1F
100
AcDbEntity
  8
0
  6
Continuous
 62
     7
370
    25
100
AcDbLine
 10
195.3267117193
 20
105.5480859643
 30
0.0
 11
195.3267117193
 21
130.9480856574
 31
0.0
  0
LINE
  5
F1
330
1F
100
AcDbEntity
  8
0
  6
Continuous
 62
     7
370
    25
100
AcDbLine
 10
94.2216550162
 20
141.9894223502
 30
0.0
 11
93.575844278
 21
141.3543031952
 31
0.0
  0
LINE
  5
F2
330
1F
100
AcDbEntity
  8
0
  6
Continuous
 62
     7
370
    25
100
AcDbLine
 10
94.2216550162
 20
94.5067492715
 30
0.0
 11
93.5783439478
 21
95.1394115976
 31
0.0
  0
LINE
  5
F3
330
1F
100
AcDbEntity
  8
0
  6
Continuous
 62
     7
370
    25
100
AcDbLine
 10
93.3267136267
 20
95.0020079902
 30
0.0
 11
93.3267136267
 21
95.3868751815
 31
0.0
  0
LINE
  5
F4
330
1F
100
AcDbEntity
  8
0
  6
Continuous
 62
     7
370
    25
100
AcDbLine
 10
93.3267136267
 20
141.1092964402
 30
0.0
 11
93.3267136267
 21
141.4941636315
 31
0.0
  0
SPLINE
  5
F5
330
1F
100
AcDbEntity
  8
0
  6
Continuous
 62
     7
370
    25
100
AcDbSpline
210
0.0
220
0.0
230
1.0
 70
     8
 71
     3
 72
     9
 73
     5
 74
     0
 42
0.000000001
 43
0.00000001
 40
0.0
 40
0.0
 40
0.0
 40
0.0
 40
0.7785869072975132
 40
1.0
 40
1.0
 40
1.0
 40
1.0
 10
83.97247615960703
 20
123.5112285642498
 30
0.0
 10
83.82008167896302
 20
123.3834044992982
 30
0.0
 10
83.62434954011552
 20
123.219230065136
 30
0.0
 10
83.4688309447213
 20
123.0094704714776
 30
0.0
 10
83.43439709154234
 20
122.9630269511216
 30
0.0
  0
SPLINE
  5
F6
330
1F
100
AcDbEntity
  8
0
  6
Continuous
 62
     7
370
    25
100
AcDbSpline
210
0.0
220
0.0
230
1.0
 70
     8
 71
     3
 72
     9
 73
     5
 74
     0
 42
0.000000001
 43
0.00000001
 40
0.0
 40
0.0
 40
0.0
 40
0.0
 40
0.4260717682333453
 40
1.0
 40
1.0
 40
1.0
 40
1.0
 10
86.2897073080884
 20
111.5024810126596
 30
0.0
 10
86.42914481758538
 20
111.4482984008534
 30
0.0
 10
86.75640778099446
 20
111.3211305952256
 30
0.0
 10
86.91453994538227
 20
111.2817221545219
 30
0.0
 10
87.0052964588748
 20
111.2591045378321
 30
0.0
  0
LINE
  5
F7
330
1F
100
AcDbEntity
  8
0
  6
HIDDEN
 62
     7
370
    18
100
AcDbLine
 10
210.3267123154
 20
126.6480855113
 30
0.0
 11
210.3267123154
 21
109.8480861104
 31
0.0
  0
LINE
  5
F8
330
1F
100
AcDbEntity
  8
0
  6
HIDDEN
 62
     7
370
    18
100
AcDbLine
 10
198.3267103484
 20
109.2480861983
 30
0.0
 11
198.3267103484
 21
127.2480854234
 31
0.0
  0
LINE
  5
F9
330
1F
100
AcDbEntity
  8
0
  6
HIDDEN
 62
     7
370
    18
100
AcDbLine
 10
198.3267103484
 20
111.6480858466
 30
0.0
 11
198.3267103484
 21
124.8266839823
 31
0.0
  0
LINE
  5
FA
330
1F
100
AcDbEntity
  8
0
  6
HIDDEN
 62
     7
370
    18
100
AcDbLine
 10
169.2907137027
 20
112.2480857587
 30
0.0
 11
169.2907137027
 21
124.248085863
 31
0.0
  0
LINE
  5
FB
330
1F
100
AcDbEntity
  8
0
  6
HIDDEN
 62
     7
370
    18
100
AcDbLine
 10
168.3267128816
 20
113.2120856485
 30
0.0
 11
168.3267128816
 21
123.2840859732
 31
0.0
  0
LINE
  5
FC
330
1F
100
AcDbEntity
  8
0
  6
HIDDEN
 62
     7
370
    18
100
AcDbLine
 10
210.3267123154
 20
118.2480858109
 30
0.0
 11
210.3267123154
 21
113.1905856012
 31
0.0
  0
LINE
  5
FD
330
1F
100
AcDbEntity
  8
0
  6
HIDDEN
 62
     7
370
    18
100
AcDbLine
 10
204.3267150572
 20
118.2480858109
 30
0.0
 11
204.3267150572
 21
115.719335706
 31
0.0
  0
LINE
  5
FE
330
1F
100
AcDbEntity
  8
0
  6
HIDDEN
 62
     7
370
    18
100
AcDbLine
 10
204.3267150572
 20
118.2480858109
 30
0.0
 11
204.3267150572
 21
120.7768359157
 31
0.0
  0
LINE
  5
FF
330
1F
100
AcDbEntity
  8
0
  6
HIDDEN
 62
     7
370
    18
100
AcDbLine
 10
204.3267150572
 20
118.2480858109
 30
0.0
 11
210.3267123154
 21
118.2480858109
 31
0.0
  0
LINE
  5
100
330
1F
100
AcDbEntity
  8
0
  6
HIDDEN
 62
     7
370
    18
100
AcDbLine
 10
210.3267123154
 20
118.2480858109
 30
0.0
 11
210.3267123154
 21
123.3055860205
 31
0.0
  0
LINE
  5
101
330
1F
100
AcDbEntity
  8
0
  6
HIDDEN
 62
     7
370
    18
100
AcDbLine
 10
204.3267150572
 20
120.7768359157
 30
0.0
 11
204.3267150572
 21
123.3055860205
 31
0.0
  0
LINE
  5
102
330
1F
100
AcDbEntity
  8
0
  6
HIDDEN
 62
     7
370
    18
100
AcDbLine
 10
204.3267150572
 20
115.719335706
 30
0.0
 11
204.3267150572
 21
120.7768359157
 31
0.0
  0
LINE
  5
103
330
1F
100
AcDbEntity
  8
0
  6
HIDDEN
 62
     7
370
    18
100
AcDbLine
 10
204.3267150572
 20
113.1905856012
 30
0.0
 11
204.3267150572
 21
115.719335706
 31
0.0
  0
LINE
  5
104
330
1F
100
AcDbEntity
  8
0
  6
HIDDEN
 62
     7
370
    18
100
AcDbLine
 10
204.3267150572
 20
115.719335706
 30
0.0
 11
204.3267150572
 21
113.1905856012
 31
0.0
  0
LINE
  5
105
330
1F
100
AcDbEntity
  8
0
  6
HIDDEN
 62
     7
370
    18
100
AcDbLine
 10
204.3267150572
 20
123.3055860205
 30
0.0
 11
204.3267150572
 21
120.7768359157
 31
0.0
  0
LINE
  5
106
330
1F
100
AcDbEntity
  8
0
  6
HIDDEN
 62
     7
370
    18
100
AcDbLine
 10
204.3267150572
 20
120.7768359157
 30
0.0
 11
204.3267150572
 21
115.719335706
 31
0.0
  0
LINE
  5
107
330
1F
100
AcDbEntity
  8
0
  6
HIDDEN
 62
     7
370
    18
100
AcDbLine
 10
204.3267150572
 20
115.719335706
 30
0.0
 11
204.3267150572
 21
113.1905856012
 31
0.0
  0
LINE
  5
108
330
1F
100
AcDbEntity
  8
0
  6
HIDDEN
 62
     7
370
    18
100
AcDbLine
 10
204.3267150572
 20
120.7768359157
 30
0.0
 11
204.3267150572
 21
123.3055860205
 31
0.0
  0
LINE
  5
109
330
1F
100
AcDbEntity
  8
0
  6
HIDDEN
 62
     7
370
    18
100
AcDbLine
 10
204.3267150572
 20
113.1905856012
 30
0.0
 11
210.3267123154
 21
113.1905856012
 31
0.0
  0
LINE
  5
10A
330
1F
100
AcDbEntity
  8
0
  6
HIDDEN
 62
     7
370
    18
100
AcDbLine
 10
204.3267150572
 20
123.3055860205
 30
0.0
 11
210.3267123154
 21
123.3055860205
 31
0.0
  0
LINE
  5
10B
330
1F
100
AcDbEntity
  8
0
  6
HIDDEN
 62
     7
370
    18
100
AcDbLine
 10
195.3267117193
 20
124.248085863
 30
0.0
 11
169.2907137027
 21
124.248085863
 31
0.0
  0
LINE
  5
10C
330
1F
100
AcDbEntity
  8
0
  6
HIDDEN
 62
     7
370
    18
100
AcDbLine
 10
169.2907137027
 20
112.2480857587
 30
0.0
 11
195.3267117193
 21
112.2480857587
 31
0.0
  0
LINE
  5
10D
330
1F
100
AcDbEntity
  8
0
  6
HIDDEN
 62
     7
370
    18
100
AcDbLine
 10
169.2907137027
 20
124.248085863
 30
0.0
 11
168.3267128816
 21
123.2840859732
 31
0.0
  0
LINE
  5
10E
330
1F
100
AcDbEntity
  8
0
  6
HIDDEN
 62
     7
370
    18
100
AcDbLine
 10
168.3267128816
 20
113.2120856485
 30
0.0
 11
169.2907137027
 21
112.2480857587
 31
0.0
  0
LINE
  5
10F
330
1F
100
AcDbEntity
  8
0
  6
HIDDEN
 62
     7
370
    18
100
AcDbLine
 10
204.3267150572
 20
123.3055860205
 30
0.0
 11
201.406765466
 21
118.2480858109
 31
0.0
  0
LINE
  5
110
330
1F
100
AcDbEntity
  8
0
  6
HIDDEN
 62
     7
370
    18
100
AcDbLine
 10
201.406765466
 20
118.2480858109
 30
0.0
 11
204.3267150572
 21
113.1905856012
 31
0.0
  0
DIMENSION
  5
111
330
1F
100
AcDbEntity
  8
VERMASSUNG
100
AcDbDimension
  2
_D
 10
234.1406937419
 20
131.7480858109
 30
0.0
 11
234.1406937419
 21
118.2480858109
 31
0.0
 70
   160
  1
%%c<>
 71
     2
 42
-1.0
  3
SLDDIMSTYLE0
100
AcDbAlignedDimension
 13
194.5267128518
 23
104.7480858109
 33
0.0
 14
194.5267128518
 24
131.7480858109
 34
0.0
 50
90.0
100
AcDbRotatedDimension
  0
DIMENSION
  5
11D
330
1F
100
AcDbEntity
  8
VERMASSUNG
100
AcDbDimension
  2
_D_1
 10
244.3267128518
 20
89.2480858109
 30
0.0
 11
244.3267128518
 21
118.2480858109
 31
0.0
 70
   160
  1
%%c<>
 71
     2
 42
-1.0
  3
SLDDIMSTYLE0
100
AcDbAlignedDimension
 13
173.5267128518
 23
147.2480858109
 33
0.0
 14
173.5267128518
 24
89.2480858109
 34
0.0
 50
90.0
100
AcDbRotatedDimension
  0
DIMENSION
  5
128
330
1F
100
AcDbEntity
  8
VERMASSUNG
100
AcDbDimension
  2
_D_2
 10
61.3766878518
 20
86.7730858109
 30
0.0
 11
61.3766878518
 21
118.2480858109
 31
0.0
 70
   160
  1
KM%%c<> XMZ
 71
     2
 42
-1.0
  3
SLDDIMSTYLE1
100
AcDbAlignedDimension
 13
111.5267128518
 23
149.7230858109
 33
0.0
 14
111.5267128518
 24
86.7730858109
 34
0.0
 50
90.0
100
AcDbRotatedDimension
  0
DIMENSION
  5
136
330
1F
100
AcDbEntity
  8
VERMASSUNG
100
AcDbDimension
  2
_D_3
 10
174.3267128518
 20
158.1849359787
 30
0.0
 11
151.8267128518
 21
158.1849359787
 31
0.0
 70
   160
  1
<>
 71
     2
 42
-1.0
  3
SLDDIMSTYLE0
100
AcDbAlignedDimension
 13
129.3267128518
 23
149.7230858109
 33
0.0
 14
174.3267128518
 24
146.4480858109
 34
0.0
100
AcDbRotatedDimension
  0
DIMENSION
  5
140
330
1F
100
AcDbEntity
  8
VERMASSUNG
100
AcDbDimension
  2
_D_4
 10
174.3267128518
 20
167.9339396139
 30
0.0
 11
142.8267128518
 21
167.9339396139
 31
0.0
 70
   160
  1
<>
 71
     2
 42
-1.0
  3
SLDDIMSTYLE0
100
AcDbAlignedDimension
 13
111.3267128518
 23
149.5230858109
 33
0.0
 14
174.3267128518
 24
146.4480858109
 34
0.0
100
AcDbRotatedDimension
  0
DIMENSION
  5
14A
330
1F
100
AcDbEntity
  8
VERMASSUNG
100
AcDbDimension
  2
_D_5
 10
195.3267128518
 20
177.7230858109
 30
0.0
 11
133.3517128518
 21
177.7230858109
 31
0.0
 70
   160
  1
<>
 71
     2
 42
-1.0
  3
SLDDIMSTYLE0
100
AcDbAlignedDimension
 13
71.3767128518
 23
138.5103115476
 33
0.0
 14
195.3267128518
 24
125.5480858109
 34
0.0
100
AcDbRotatedDimension
  0
DIMENSION
  5
154
330
1F
100
AcDbEntity
  8
VERMASSUNG
100
AcDbDimension
  2
_D_6
 10
195.3267128518
 20
158.1849359787
 30
0.0
 11
184.8267128518
 21
158.1849359787
 31
0.0
 70
   160
  1
<>
 71
     2
 42
-1.0
  3
SLDDIMSTYLE0
100
AcDbAlignedDimension
 13
174.3267128518
 23
146.4480858109
 33
0.0
 14
195.3267128518
 24
130.9480858109
 34
0.0
100
AcDbRotatedDimension
  0
DIMENSION
  5
15E
330
1F
100
AcDbEntity
  8
VERMASSUNG
100
AcDbDimension
  2
_D_7
 10
223.0536640489
 20
123.3055858109
 30
0.0
 11
223.0536640489
 21
118.2480858109
 31
0.0
 70
   160
  1
SW<>
 71
     2
 42
-1.0
  3
SLDDIMSTYLE1
100
AcDbAlignedDimension
 13
210.3267128518
 23
113.1905858109
 33
0.0
 14
210.3267128518
 24
123.3055858109
 34
0.0
 50
90.0
100
AcDbRotatedDimension
  0
LINE
  5
169
330
1F
100
AcDbEntity
  8
VERMASSUNG
  6
CENTERX2
370
    18
100
AcDbLine
 10
212.6377226836
 20
118.2480858109
 30
0.0
 11
68.5772014694
 21
118.2480858109
 31
0.0
  0
SPLINE
  5
16A
330
1F
100
AcDbEntity
  8
0
  6
Continuous
 62
     7
370
    25
100
AcDbSpline
210
0.0
220
0.0
230
1.0
 70
     8
 71
     3
 72
    17
 73
    13
 74
     0
 42
0.000000001
 43
0.00000001
 40
0.0
 40
0.0
 40
0.0
 40
0.0
 40
0.086906365771089
 40
0.188483965491576
 40
0.2900411406812649
 40
0.3917420827706614
 40
0.4937635144458372
 40
0.5963088768330564
 40
0.6994818264038739
 40
0.8028149150409498
 40
0.9045425984176879
 40
1.0
 40
1.0
 40
1.0
 40
1.0
 10
269.8374506897929
 20
36.45960356812247
 30
0.0
 10
269.9435885945609
 20
36.57900728147707
 30
0.0
 10
270.1737822403559
 20
36.83797203265274
 30
0.0
 10
270.4752619194434
 20
37.30381581438318
 30
0.0
 10
270.7377580603271
 20
37.82081505888103
 30
0.0
 10
270.9316311046804
 20
38.3549448253087
 30
0.0
 10
271.0504767912416
 20
38.8855580263163
 30
0.0
 10
271.0879107088937
 20
39.3950960627652
 30
0.0
 10
271.0399957946069
 20
39.86653004874574
 30
0.0
 10
270.9024399517204
 20
40.27813719458759
 30
0.0
 10
270.6857140322902
 20
40.6172111755354
 30
0.0
 10
270.4793639027553
 20
40.76160698227472
 30
0.0
 10
270.3794696983551
 20
40.83150906697641
 30
0.0
  0
LINE
  5
16B
330
1F
100
AcDbEntity
  8
0
  6
Continuous
 62
     7
370
    25
100
AcDbLine
 10
270.3791799388
 20
40.8335064267
 30
0.0
 11
268.3285698055
 21
42.0172984589
 31
0.0
  0
SPLINE
  5
16C
330
1F
100
AcDbEntity
  8
0
  6
Continuous
 62
     7
370
    25
100
AcDbSpline
210
0.0
220
0.0
230
1.0
 70
     8
 71
     3
 72
    12
 73
     8
 74
     0
 42
0.000000001
 43
0.00000001
 40
0.0
 40
0.0
 40
0.0
 40
0.0
 40
0.1588071083863511
 40
0.3767057841644318
 40
0.5986874427660824
 40
0.8278280773246445
 40
1.0
 40
1.0
 40
1.0
 40
1.0
 10
251.8817414298075
 20
26.6377259978009
 30
0.0
 10
251.9604982656979
 20
26.59897422273651
 30
0.0
 10
252.1473170795652
 20
26.5070512731801
 30
0.0
 10
252.4922080166312
 20
26.48035834971251
 30
0.0
 10
252.8889232430829
 20
26.53965740980388
 30
0.0
 10
253.2673595929254
 20
26.68249763672284
 30
0.0
 10
253.507084291172
 20
26.83017054738924
 30
0.0
 10
253.6099314646927
 20
26.89352547735144
 30
0.0
  0
SPLINE
  5
16D
330
1F
100
AcDbEntity
  8
0
  6
Continuous
 62
     7
370
    25
100
AcDbSpline
210
0.0
220
0.0
230
1.0
 70
     8
 71
     3
 72
    19
 73
    15
 74
     0
 42
0.000000001
 43
0.00000001
 40
0.0
 40
0.0
 40
0.0
 40
0.0
 40
0.0461461864972637
 40
0.1332239817822759
 40
0.2201350206902103
 40
0.3068915259759499
 40
0.393630586855452
 40
0.480492437738151
 40
0.5676280158650375
 40
0.6552110784541859
 40
0.7433301575564328
 40
0.8315860099806183
 40
0.9184707003539428
 40
1.0
 40
1.0
 40
1.0
 40
1.0
 10
253.6099314646927
 20
26.89352547735144
 30
0.0
 10
253.6835118780967
 20
26.94523345284082
 30
0.0
 10
253.8959384380996
 20
27.09451431237631
 30
0.0
 10
254.2331629263232
 20
27.4054065658969
 30
0.0
 10
254.5997534045316
 20
27.83746509501292
 30
0.0
 10
254.9195128951159
 20
28.32229963789192
 30
0.0
 10
255.1812479475165
 20
28.84060143775568
 30
0.0
 10
255.3753253148745
 20
29.37438151813242
 30
0.0
 10
255.494116004529
 20
29.905088842908
 30
0.0
 10
255.531564766112
 20
30.41460147489691
 30
0.0
 10
255.4836458424091
 20
30.88604232274268
 30
0.0
 10
255.3460910733745
 20
31.29764763075404
 30
0.0
 10
255.1293648789538
 20
31.63672208233088
 30
0.0
 10
254.9230147841376
 20
31.78111782965136
 30
0.0
 10
254.8231205965447
 20
31.85101988558835
 30
0.0
  0
LINE
  5
16E
330
1F
100
AcDbEntity
  8
0
  6
Continuous
 62
     7
370
    25
100
AcDbLine
 10
249.772464859
 20
27.8405162566
 30
0.0
 11
251.8230749923
 21
26.6567242243
 31
0.0
  0
LINE
  5
16F
330
1F
100
AcDbEntity
  8
0
  6
Continuous
 62
     7
370
    25
100
AcDbLine
 10
254.822830837
 20
31.8530172453
 30
0.0
 11
252.7722207037
 21
33.0368092775
 31
0.0
  0
SPLINE
  5
170
330
1F
100
AcDbEntity
  8
0
  6
Continuous
 62
     7
370
    25
100
AcDbSpline
210
0.0
220
0.0
230
1.0
 70
     8
 71
     3
 72
    23
 73
    19
 74
     0
 42
0.000000001
 43
0.00000001
 40
0.0
 40
0.0
 40
0.0
 40
0.0
 40
0.0452226643387152
 40
0.1097930928769266
 40
0.174965665216112
 40
0.2415590170030078
 40
0.3094743340706874
 40
0.3781148680411048
 40
0.4469290832338279
 40
0.5156505390250988
 40
0.5842516644705058
 40
0.6527700384163969
 40
0.7212664854710675
 40
0.7898031485133372
 40
0.8584358632861759
 40
0.9272378113971975
 40
0.9926114614188783
 40
1.0
 40
1.0
 40
1.0
 40
1.0
 10
269.3502507370725
 20
23.80112642364985
 30
0.0
 10
269.4396293867744
 20
23.75239121856594
 30
0.0
 10
269.6566258537326
 20
23.63407026210756
 30
0.0
 10
270.0565379799695
 20
23.56249186535908
 30
0.0
 10
270.5254380203787
 20
23.57122941577133
 30
0.0
 10
271.0206872453376
 20
23.68478110719621
 30
0.0
 10
271.5309297584713
 20
23.89771176993681
 30
0.0
 10
272.0441936297788
 20
24.2072558575744
 30
0.0
 10
272.5461007799652
 20
24.6046691080333
 30
0.0
 10
273.0234679801713
 20
25.07881693808452
 30
0.0
 10
273.4646363458659
 20
25.61707376149429
 30
0.0
 10
273.8592577095477
 20
26.20598631240312
 30
0.0
 10
274.1980242743561
 20
26.83122783137792
 30
0.0
 10
274.4727172274032
 20
27.47777561828007
 30
0.0
 10
274.6765290539093
 20
28.13043624998715
 30
0.0
 10
274.8012126334344
 20
28.76230018689369
 30
0.0
 10
274.8350426459131
 20
29.18669976705397
 30
0.0
 10
274.8360523135358
 20
29.39681696225883
 30
0.0
 10
274.8361548388767
 20
29.41815303025154
 30
0.0
  0
SPLINE
  5
171
330
1F
100
AcDbEntity
  8
0
  6
Continuous
 62
     7
370
    25
100
AcDbSpline
210
0.0
220
0.0
230
1.0
 70
     8
 71
     3
 72
    13
 73
     9
 74
     0
 42
0.000000001
 43
0.00000001
 40
0.0
 40
0.0
 40
0.0
 40
0.0
 40
0.1089648588572428
 40
0.3156338566541951
 40
0.5222342958883048
 40
0.7263774666618206
 40
0.9257940041037535
 40
1.0
 40
1.0
 40
1.0
 40
1.0
 10
274.8361548388767
 20
29.41815303025154
 30
0.0
 10
274.8338056927676
 20
29.52231090376528
 30
0.0
 10
274.8270010214817
 20
29.8240205711096
 30
0.0
 10
274.7503880486943
 20
30.2875747710581
 30
0.0
 10
274.5791012509532
 20
30.77898073378246
 30
0.0
 10
274.3199442162606
 20
31.18509871096805
 30
0.0
 10
274.0655934951703
 20
31.45502170797196
 30
0.0
 10
273.8822857769538
 20
31.54993693023892
 30
0.0
 10
273.8325730152898
 20
31.57567778757295
 30
0.0
  0
LINE
  5
172
330
1F
100
AcDbEntity
  8
0
  6
Continuous
 62
     7
370
    25
100
AcDbLine
 10
273.8161230674
 20
31.6009163925
 30
0.0
 11
269.7856146759
 21
33.9276793604
 31
0.0
  0
LINE
  5
173
330
1F
100
AcDbEntity
  8
0
  6
Continuous
 62
     7
370
    25
100
AcDbLine
 10
265.2859802504
 20
26.1332394487
 30
0.0
 11
269.3164886419
 21
23.8064764809
 31
0.0
  0
LINE
  5
174
330
1F
100
AcDbEntity
  8
0
  6
Continuous
 62
     7
370
    25
100
AcDbLine
 10
267.3584891289
 20
33.596825122
 30
0.0
 11
267.1550647303
 21
33.7142595276
 31
0.0
  0
LINE
  5
175
330
1F
100
AcDbEntity
  8
0
  6
Continuous
 62
     7
370
    25
100
AcDbLine
 10
264.154563084
 20
28.5183966686
 30
0.0
 11
264.3587329549
 21
28.4005319109
 31
0.0
  0
SPLINE
  5
176
330
1F
100
AcDbEntity
  8
0
  6
Continuous
 62
     7
370
    25
100
AcDbSpline
210
0.0
220
0.0
230
1.0
 70
     8
 71
     3
 72
    18
 73
    14
 74
     0
 42
0.000000001
 43
0.00000001
 40
0.0
 40
0.0
 40
0.0
 40
0.0
 40
0.003303934524102
 40
0.1034901116946271
 40
0.2042653661791846
 40
0.3056476937356563
 40
0.407537363997494
 40
0.5097831420907388
 40
0.6122378176953553
 40
0.7147865996074589
 40
0.8173433196144104
 40
0.9198641718932422
 40
1.0
 40
1.0
 40
1.0
 40
1.0
 10
253.34103555901
 20
21.89728922606312
 30
0.0
 10
253.3493630900427
 20
21.89538484603346
 30
0.0
 10
253.6102087909581
 20
21.83573339091501
 30
0.0
 10
254.16130956698
 20
21.81243864741633
 30
0.0
 10
254.9905725706468
 20
21.83601173059985
 30
0.0
 10
255.8543014274421
 20
21.97442267266522
 30
0.0
 10
256.7398911322454
 20
22.21177636073803
 30
0.0
 10
257.6418330877314
 20
22.550501606269
 30
0.0
 10
258.5522128184041
 20
22.98694561755597
 30
0.0
 10
259.4639873284962
 20
23.5169009077419
 30
0.0
 10
260.3689449717809
 20
24.13873210021757
 30
0.0
 10
261.1986567132839
 20
24.78557615206664
 30
0.0
 10
261.7142373744161
 20
25.25891209189891
 30
0.0
 10
261.9404348677049
 20
25.46657582164082
 30
0.0
  0
SPLINE
  5
177
330
1F
100
AcDbEntity
  8
0
  6
Continuous
 62
     7
370
    25
100
AcDbSpline
210
0.0
220
0.0
230
1.0
 70
     8
 71
     3
 72
    14
 73
    10
 74
     0
 42
0.000000001
 43
0.00000001
 40
0.0
 40
0.0
 40
0.0
 40
0.0
 40
0.0295808629455653
 40
0.2079834023630932
 40
0.3863578384181307
 40
0.5645305816113988
 40
0.7422587896874396
 40
0.9192456995816106
 40
1.0
 40
1.0
 40
1.0
 40
1.0
 10
269.1127349711036
 20
41.56461010384037
 30
0.0
 10
269.1114064021471
 20
41.62213971459424
 30
0.0
 10
269.1020652178707
 20
42.02663109820369
 30
0.0
 10
269.0062934788583
 20
42.73114316351567
 30
0.0
 10
268.8203840019663
 20
43.66507702701291
 30
0.0
 10
268.5479065241232
 20
44.53031866329113
 30
0.0
 10
268.1950719713365
 20
45.3187052667575
 30
0.0
 10
267.8557571641981
 20
45.91443281145396
 30
0.0
 10
267.6086843355876
 20
46.21360893298176
 30
0.0
 10
267.5312726038639
 20
46.30734543079119
 30
0.0
  0
LINE
  5
178
330
1F
100
AcDbEntity
  8
0
  6
Continuous
 62
     7
370
    25
100
AcDbLine
 10
236.5983102943
 20
31.1475867239
 30
0.0
 11
251.518263057
 21
22.5344813291
 31
0.0
  0
LINE
  5
179
330
1F
100
AcDbEntity
  8
0
  6
Continuous
 62
     7
370
    25
100
AcDbLine
 10
266.0170845094
 20
47.649897597
 30
0.0
 11
251.0971317467
 21
56.2630029919
 31
0.0
  0
SPLINE
  5
17A
330
1F
100
AcDbEntity
  8
0
  6
Continuous
 62
     7
370
    25
100
AcDbSpline
210
0.0
220
0.0
230
1.0
 70
     8
 71
     3
 72
    15
 73
    11
 74
     0
 42
0.000000001
 43
0.00000001
 40
0.0
 40
0.0
 40
0.0
 40
0.0
 40
0.0306857002071798
 40
0.1851806543784368
 40
0.3399573754188454
 40
0.4967164083593997
 40
0.6561429607051715
 40
0.8178266590027574
 40
0.9808455711211809
 40
1.0
 40
1.0
 40
1.0
 40
1.0
 10
262.9293392159339
 20
24.90947993954487
 30
0.0
 10
262.9591857126169
 20
24.89098116162223
 30
0.0
 10
263.139301980108
 20
24.77934558616561
 30
0.0
 10
263.5221032676943
 20
24.67089077012887
 30
0.0
 10
264.0659280727126
 20
24.59269000912776
 30
0.0
 10
264.6466056118339
 20
24.62573729098595
 30
0.0
 10
265.2519973056144
 20
24.75626849278518
 30
0.0
 10
265.8739913677672
 20
24.997659446128
 30
0.0
 10
266.3193836514462
 20
25.21336280099148
 30
0.0
 10
266.5507416623985
 20
25.3723489026046
 30
0.0
 10
266.5750675628957
 20
25.38906533300765
 30
0.0
  0
SPLINE
  5
17B
330
1F
100
AcDbEntity
  8
0
  6
Continuous
 62
     7
370
    25
100
AcDbSpline
210
0.0
220
0.0
230
1.0
 70
     8
 71
     3
 72
    15
 73
    11
 74
     0
 42
0.000000001
 43
0.00000001
 40
0.0
 40
0.0
 40
0.0
 40
0.0
 40
0.0828443603822094
 40
0.2335800572256941
 40
0.3843755451280043
 40
0.5345196149361944
 40
0.6829964743173735
 40
0.8288695901007047
 40
0.9720701312299316
 40
1.0
 40
1.0
 40
1.0
 40
1.0
 10
271.0688732727096
 20
33.18687001417531
 30
0.0
 10
271.0747230632126
 20
33.32365954861496
 30
0.0
 10
271.0912165745892
 20
33.7093382735744
 30
0.0
 10
271.0262023982622
 20
34.29763194528756
 30
0.0
 10
270.8799038973307
 20
34.94103525073487
 30
0.0
 10
270.6453009893853
 20
35.51387940154564
 30
0.0
 10
270.3328794539545
 20
36.00913375110112
 30
0.0
 10
269.9432200494423
 20
36.40348377958141
 30
0.0
 10
269.6231358811188
 20
36.64538248748094
 30
0.0
 10
269.4227944663127
 20
36.72251308644768
 30
0.0
 10
269.3900971249809
 20
36.73510142482989
 30
0.0
  0
LINE
  5
17C
330
1F
100
AcDbEntity
  8
0
  6
Continuous
 62
     7
370
    25
100
AcDbLine
 10
256.5596741467
 20
28.5728227457
 30
0.0
 11
262.817569725
 21
24.9602165248
 31
0.0
  0
LINE
  5
17D
330
1F
100
AcDbEntity
  8
0
  6
Continuous
 62
     7
370
    25
100
AcDbLine
 10
269.5670213632
 20
36.6518765824
 30
0.0
 11
263.309125785
 21
40.2644828033
 31
0.0
  0
SPLINE
  5
17E
330
1F
100
AcDbEntity
  8
0
  6
Continuous
 62
     7
370
    25
100
AcDbSpline
210
0.0
220
0.0
230
1.0
 70
     8
 71
     3
 72
    24
 73
    20
 74
     0
 42
0.000000001
 43
0.00000001
 40
0.0
 40
0.0
 40
0.0
 40
0.0
 40
0.0621691656605455
 40
0.121767410216971
 40
0.1852188576079056
 40
0.2218575645554887
 40
0.2542256945561379
 40
0.3165290541674538
 40
0.3791510674275567
 40
0.4420505605399083
 40
0.5051397014531425
 40
0.5682932352697377
 40
0.6313503072618565
 40
0.6941538751371562
 40
0.7565761854840528
 40
0.8185410670325368
 40
0.8801436620280063
 40
0.9417775424298719
 40
0.9999999999999999
 40
0.9999999999999999
 40
0.9999999999999999
 40
0.9999999999999999
 10
264.3984687073631
 20
28.12057867122667
 30
0.0
 10
264.3377307800761
 20
28.19089115172167
 30
0.0
 10
264.2187666596942
 20
28.32860843592258
 30
0.0
 10
264.0880988468906
 20
28.64558129710512
 30
0.0
 10
264.0225080593091
 20
28.98393335257582
 30
0.0
 10
264.0077405554318
 20
29.30272556496145
 30
0.0
 10
264.0207183682508
 20
29.63966705593393
 30
0.0
 10
264.0829510291665
 20
30.07250975251539
 30
0.0
 10
264.2298171131287
 20
30.61397380109715
 30
0.0
 10
264.4461330122168
 20
31.16323966935112
 30
0.0
 10
264.7252438488401
 20
31.70029768992965
 30
0.0
 10
265.0575303607562
 20
32.20564893170005
 30
0.0
 10
265.4306847541225
 20
32.66095564851872
 30
0.0
 10
265.8302002100776
 20
33.05011644858248
 30
0.0
 10
266.239745986437
 20
33.35994675763292
 30
0.0
 10
266.6424406180791
 20
33.5820452828202
 30
0.0
 10
267.019287363775
 20
33.71055589299284
 30
0.0
 10
267.3520763501764
 20
33.75416724449807
 30
0.0
 10
267.5268927538304
 20
33.7191021150128
 30
0.0
 10
267.6118130910986
 20
33.70206857262205
 30
0.0
  0
LINE
  5
17F
330
1F
100
AcDbEntity
  8
0
  6
Continuous
 62
     7
370
    25
100
AcDbLine
 10
262.6084276784
 20
40.5277887704
 30
0.0
 11
262.1083083995
 21
40.6296845427
 31
0.0
  0
LINE
  5
180
330
1F
100
AcDbEntity
  8
0
  6
Continuous
 62
     7
370
    25
100
AcDbLine
 10
255.6429110444
 20
29.4300741666
 30
0.0
 11
255.9812507977
 21
29.0479378088
 31
0.0
  0
LINE
  5
181
330
1F
100
AcDbEntity
  8
0
  6
Continuous
 62
     7
370
    25
100
AcDbLine
 10
233.5875383171
 20
31.4567644596
 30
0.0
 11
235.2725034661
 21
30.4840547838
 31
0.0
  0
LINE
  5
182
330
1F
100
AcDbEntity
  8
0
  6
Continuous
 62
     7
370
    25
100
AcDbLine
 10
251.0087247806
 20
57.7429431776
 30
0.0
 11
249.3237596316
 21
58.7156528534
 31
0.0
  0
LINE
  5
183
330
1F
100
AcDbEntity
  8
0
  6
Continuous
 62
     7
370
    25
100
AcDbLine
 10
228.9792533857
 20
34.1170707243
 30
0.0
 11
231.2299043621
 21
32.8177975714
 31
0.0
  0
LINE
  5
184
330
1F
100
AcDbEntity
  8
0
  6
Continuous
 62
     7
370
    25
100
AcDbLine
 10
246.9661256767
 20
60.0766859652
 30
0.0
 11
244.7154747003
 21
61.3759591181
 31
0.0
  0
LINE
  5
185
330
1F
100
AcDbEntity
  8
0
  6
Continuous
 62
     7
370
    25
100
AcDbLine
 10
237.93808551
 20
61.1558410257
 30
0.0
 11
228.7408733264
 21
65.7364936356
 31
0.0
  0
LINE
  5
186
330
1F
100
AcDbEntity
  8
0
  6
Continuous
 62
     7
370
    25
100
AcDbLine
 10
217.2145255367
 20
45.7701101799
 30
0.0
 11
225.7806255424
 21
40.0962205836
 31
0.0
  0
LINE
  5
187
330
1F
100
AcDbEntity
  8
0
  6
Continuous
 62
     7
370
    25
100
AcDbLine
 10
222.1939629784
 20
46.7166000456
 30
0.0
 11
222.1939629784
 21
46.3512813406
 31
0.0
  0
LINE
  5
188
330
1F
100
AcDbEntity
  8
0
  6
Continuous
 62
     7
370
    25
100
AcDbLine
 10
226.0919297388
 20
66.1134620123
 30
0.0
 11
225.45237963
 21
66.0262502568
 31
0.0
  0
LWPOLYLINE
  5
189
330
1F
100
AcDbEntity
  8
0
  6
Continuous
 62
     7
370
    25
100
AcDbPolyline
 90
       12
 70
   128
 43
0.0
 10
264.9055786008
 20
39.3428695675
 10
264.9159664819
 20
39.3742489989
 10
265.1484860353
 20
39.9445556229
 10
265.4544385697
 20
40.4918995483
 10
265.8204529975
 20
40.9923594832
 10
266.2305319553
 20
41.4240624037
 10
266.666753813
 20
41.7681413863
 10
267.11005239
 20
42.009557975
 10
267.541054624
 20
42.1377614244
 10
267.9409235078
 20
42.1471490805
 10
268.2921819287
 20
42.037309652
 10
268.3285698055
 20
42.0172984589
  0
LINE
  5
18A
330
1F
100
AcDbEntity
  8
0
  6
Continuous
 62
     7
370
    25
100
AcDbLine
 10
269.1343490604
 20
36.9979637149
 30
0.0
 11
269.0539223367
 21
36.9480820442
 31
0.0
  0
LWPOLYLINE
  5
18B
330
1F
100
AcDbEntity
  8
0
  6
Continuous
 62
     7
370
    25
100
AcDbPolyline
 90
       18
 70
   128
 43
0.0
 10
268.0307740034
 20
37.5414126793
 10
268.0419811138
 20
37.7224574047
 10
268.1315951919
 20
38.1116056618
 10
268.3033534777
 20
38.5026821594
 10
268.5419948609
 20
38.8609383599
 10
268.8263155253
 20
39.1545418029
 10
269.1310510695
 20
39.3574038525
 10
269.4291247774
 20
39.451499516
 10
269.6940526232
 20
39.4284686583
 10
269.9022929577
 20
39.2903567096
 10
270.035343973
 20
39.0494362351
 10
270.0813828195
 20
38.7271137427
 10
270.0363186189
 20
38.3520288867
 10
269.9041559801
 20
37.9575098605
 10
269.6966387275
 20
37.5786117291
 10
269.4322041315
 20
37.2490004034
 10
269.1343490604
 20
36.9979637149
 10
269.1343490604
 20
36.9979637149
  0
SPLINE
  5
18C
330
1F
100
AcDbEntity
  8
0
  6
Continuous
 62
     7
370
    25
100
AcDbSpline
210
0.0
220
0.0
230
1.0
 70
     8
 71
     3
 72
    10
 73
     6
 74
     0
 42
0.000000001
 43
0.00000001
 40
0.0
 40
0.0
 40
0.0
 40
0.0
 40
0.1951036376169411
 40
0.699711188181264
 40
1.0
 40
1.0
 40
1.0
 40
1.0
 10
269.6276884589321
 20
37.49599007958688
 30
0.0
 10
269.5646412335041
 20
37.47904534753102
 30
0.0
 10
269.33853141026
 20
37.41827549851622
 30
0.0
 10
269.0226312451279
 20
37.29510499780949
 30
0.0
 10
268.8757522409834
 20
37.14031853913838
 30
0.0
 10
268.8209549730407
 20
37.08257117695332
 30
0.0
  0
SPLINE
  5
18D
330
1F
100
AcDbEntity
  8
0
  6
Continuous
 62
     7
370
    25
100
AcDbSpline
210
0.0
220
0.0
230
1.0
 70
     8
 71
     3
 72
    10
 73
     6
 74
     0
 42
0.000000001
 43
0.00000001
 40
0.0
 40
0.0
 40
0.0
 40
0.0
 40
0.4391255190081244
 40
0.7513744014819683
 40
1.0
 40
1.0
 40
1.0
 40
1.0
 10
270.0690351100146
 20
38.81345701236714
 30
0.0
 10
269.9453147030698
 20
38.65979431199617
 30
0.0
 10
269.7336204546252
 20
38.3968667103798
 30
0.0
 10
269.6225079292366
 20
37.90115580164846
 30
0.0
 10
269.6260973382779
 20
37.62043054932413
 30
0.0
 10
269.6276884589321
 20
37.49599007958688
 30
0.0
  0
SPLINE
  5
18E
330
1F
100
AcDbEntity
  8
0
  6
Continuous
 62
     7
370
    25
100
AcDbSpline
210
0.0
220
0.0
230
1.0
 70
     8
 71
     3
 72
    10
 73
     6
 74
     0
 42
0.000000001
 43
0.00000001
 40
0.0
 40
0.0
 40
0.0
 40
0.0
 40
0.4391258124585617
 40
0.7513745103053019
 40
0.9999999999999999
 40
0.9999999999999999
 40
0.9999999999999999
 40
0.9999999999999999
 10
269.4927395183564
 20
39.45348099269329
 30
0.0
 10
269.5147059475294
 20
39.39680186411007
 30
0.0
 10
269.5522920208021
 20
39.29981997127779
 30
0.0
 10
269.8035464238101
 20
39.04533591975399
 30
0.0
 10
269.9874943058955
 20
38.88467508511025
 30
0.0
 10
270.0690351100146
 20
38.81345701236714
 30
0.0
  0
SPLINE
  5
18F
330
1F
100
AcDbEntity
  8
0
  6
Continuous
 62
     7
370
    25
100
AcDbSpline
210
0.0
220
0.0
230
1.0
 70
     8
 71
     3
 72
     9
 73
     5
 74
     0
 42
0.000000001
 43
0.00000001
 40
0.0
 40
0.0
 40
0.0
 40
0.0
 40
0.6910329426549541
 40
1.0
 40
1.0
 40
1.0
 40
1.0
 10
268.9246651963358
 20
39.23194484247315
 30
0.0
 10
269.0461753803766
 20
39.29401589260785
 30
0.0
 10
269.2220138629444
 20
39.38383946874042
 30
0.0
 10
269.4288377504462
 20
39.4370428886142
 30
0.0
 10
269.4927395183564
 20
39.45348099269329
 30
0.0
  0
SPLINE
  5
190
330
1F
100
AcDbEntity
  8
0
  6
Continuous
 62
     7
370
    25
100
AcDbSpline
210
0.0
220
0.0
230
1.0
 70
     8
 71
     3
 72
     9
 73
     5
 74
     0
 42
0.000000001
 43
0.00000001
 40
0.0
 40
0.0
 40
0.0
 40
0.0
 40
0.8744799541542945
 40
1.0
 40
1.0
 40
1.0
 40
1.0
 10
268.477097933831
 20
38.16021185136985
 30
0.0
 10
268.5034739417516
 20
38.4274861485564
 30
0.0
 10
268.5336358771915
 20
38.73312414050449
 30
0.0
 10
268.6641354362641
 20
38.9789816017236
 30
0.0
 10
268.6805157469018
 20
39.00984164152734
 30
0.0
  0
SPLINE
  5
191
330
1F
100
AcDbEntity
  8
0
  6
Continuous
 62
     7
370
    25
100
AcDbSpline
210
0.0
220
0.0
230
1.0
 70
     8
 71
     3
 72
     9
 73
     5
 74
     0
 42
0.000000001
 43
0.00000001
 40
0.0
 40
0.0
 40
0.0
 40
0.0
 40
0.6698660834098443
 40
1.0
 40
1.0
 40
1.0
 40
1.0
 10
268.09193105618
 20
37.9661386039041
 30
0.0
 10
268.1706074889561
 20
38.01570375830848
 30
0.0
 10
268.2880584761378
 20
38.08969639001791
 30
0.0
 10
268.4301790967275
 20
38.14271019597565
 30
0.0
 10
268.477097933831
 20
38.16021185136984
 30
0.0
  0
LINE
  5
192
330
1F
100
AcDbEntity
  8
0
  6
Continuous
 62
     7
370
    25
100
AcDbLine
 10
269.1615765831
 20
39.3373216692
 30
0.0
 11
270.06903511
 21
38.8134570124
 31
0.0
  0
LINE
  5
193
330
1F
100
AcDbEntity
  8
0
  6
Continuous
 62
     7
370
    25
100
AcDbLine
 10
268.4770979338
 20
38.1602118514
 30
0.0
 11
269.6276884589
 21
37.4959900796
 31
0.0
  0
LWPOLYLINE
  5
194
330
1F
100
AcDbEntity
  8
0
  6
Continuous
 62
     7
370
    25
100
AcDbPolyline
 90
        3
 70
   128
 43
0.0
 10
251.8683914155
 20
26.6320980849
 10
251.8594628691
 20
26.6367130313
 10
251.8230749923
 20
26.6567242243
  0
LWPOLYLINE
  5
195
330
1F
100
AcDbEntity
  8
0
  6
Continuous
 62
     7
370
    25
100
AcDbPolyline
 90
       17
 70
   128
 43
0.0
 10
249.772464859
 20
27.8405162566
 10
249.5215554502
 20
28.0447703796
 10
249.3107757681
 20
28.3736601298
 10
249.1857267271
 20
28.7928007484
 10
249.1518722711
 20
29.2838731757
 10
249.210692808
 20
29.8254155663
 10
249.3596167215
 20
30.3937594373
 10
249.5921369335
 20
30.9640664415
 10
249.8980894679
 20
31.5114103669
 10
250.2641038957
 20
32.0118703018
 10
250.6741828535
 20
32.4435732223
 10
251.1104040527
 20
32.7876518248
 10
251.5537032882
 20
33.0290687936
 10
251.9847055222
 20
33.157272243
 10
252.384574406
 20
33.1666598991
 10
252.7358328269
 20
33.0568204706
 10
252.7722207037
 20
33.0368092775
  0
LWPOLYLINE
  5
196
330
1F
100
AcDbEntity
  8
0
  6
Continuous
 62
     7
370
    25
100
AcDbPolyline
 90
       22
 70
   128
 43
0.0
 10
253.5779999586
 20
28.0174745335
 10
253.2731906574
 20
27.8673184628
 10
252.9885104277
 20
27.8313847863
 10
252.749253964
 20
27.9128662153
 10
252.5766810586
 20
28.1045232395
 10
252.4861246033
 20
28.3893256716
 10
252.485632012
 20
28.7419682233
 10
252.5752460901
 20
29.1311164804
 10
252.7470043759
 20
29.522192978
 10
252.9856457591
 20
29.8804491785
 10
253.269965765
 20
30.1740522413
 10
253.5747019677
 20
30.3769146711
 10
253.8727756756
 20
30.4710103346
 10
254.1377028628
 20
30.4479790968
 10
254.3459438559
 20
30.3098675282
 10
254.4789948712
 20
30.0689470538
 10
254.5250337177
 20
29.7466245613
 10
254.479969517
 20
29.3715397053
 10
254.3478068783
 20
28.9770206791
 10
254.1402889671
 20
28.5981221676
 10
253.8758550297
 20
28.2685112221
 10
253.5779999586
 20
28.0174745335
  0
SPLINE
  5
197
330
1F
100
AcDbEntity
  8
0
  6
Continuous
 62
     7
370
    25
100
AcDbSpline
210
0.0
220
0.0
230
1.0
 70
     8
 71
     3
 72
    11
 73
     7
 74
     0
 42
0.000000001
 43
0.00000001
 40
0.0
 40
0.0
 40
0.0
 40
0.0
 40
0.134686274637742
 40
0.4830335933166073
 40
0.8157591200804469
 40
1.0
 40
1.0
 40
1.0
 40
1.0
 10
254.0713393571218
 20
28.51550089819881
 30
0.0
 10
254.0080034229855
 20
28.49866284289885
 30
0.0
 10
253.7808579032641
 20
28.43827549921532
 30
0.0
 10
253.4246265477981
 20
28.2864204922491
 30
0.0
 10
253.1737063022551
 20
28.04795351887227
 30
0.0
 10
253.0852293000768
 20
27.8932074941989
 30
0.0
 10
253.0536971143812
 20
27.83805779127568
 30
0.0
  0
SPLINE
  5
198
330
1F
100
AcDbEntity
  8
0
  6
Continuous
 62
     7
370
    25
100
AcDbSpline
210
0.0
220
0.0
230
1.0
 70
     8
 71
     3
 72
    10
 73
     6
 74
     0
 42
0.000000001
 43
0.00000001
 40
0.0
 40
0.0
 40
0.0
 40
0.0
 40
0.4391255190081244
 40
0.7513744014819683
 40
1.0
 40
1.0
 40
1.0
 40
1.0
 10
254.5126860082042
 20
29.83296783097907
 30
0.0
 10
254.3889656012594
 20
29.6793051306081
 30
0.0
 10
254.1772713528148
 20
29.41637752899173
 30
0.0
 10
254.0661588274263
 20
28.92066662026039
 30
0.0
 10
254.0697482364674
 20
28.63994136793605
 30
0.0
 10
254.0713393571218
 20
28.51550089819881
 30
0.0
  0
SPLINE
  5
199
330
1F
100
AcDbEntity
  8
0
  6
Continuous
 62
     7
370
    25
100
AcDbSpline
210
0.0
220
0.0
230
1.0
 70
     8
 71
     3
 72
    10
 73
     6
 74
     0
 42
0.000000001
 43
0.00000001
 40
0.0
 40
0.0
 40
0.0
 40
0.0
 40
0.4391258124585617
 40
0.7513745103053019
 40
0.9999999999999999
 40
0.9999999999999999
 40
0.9999999999999999
 40
0.9999999999999999
 10
253.936390416546
 20
30.47299181130523
 30
0.0
 10
253.958356845719
 20
30.41631268272201
 30
0.0
 10
253.9959429189917
 20
30.31933078988973
 30
0.0
 10
254.2471973219997
 20
30.06484673836592
 30
0.0
 10
254.4311452040851
 20
29.90418590372218
 30
0.0
 10
254.5126860082042
 20
29.83296783097907
 30
0.0
  0
SPLINE
  5
19A
330
1F
100
AcDbEntity
  8
0
  6
Continuous
 62
     7
370
    25
100
AcDbSpline
210
0.0
220
0.0
230
1.0
 70
     8
 71
     3
 72
     9
 73
     5
 74
     0
 42
0.000000001
 43
0.00000001
 40
0.0
 40
0.0
 40
0.0
 40
0.0
 40
0.6910329426549541
 40
1.0
 40
1.0
 40
1.0
 40
1.0
 10
253.3683160945254
 20
30.25145566108509
 30
0.0
 10
253.4898262785662
 20
30.31352671121977
 30
0.0
 10
253.665664761134
 20
30.40335028735235
 30
0.0
 10
253.8724886486359
 20
30.45655370722613
 30
0.0
 10
253.936390416546
 20
30.47299181130523
 30
0.0
  0
LINE
  5
19B
330
1F
100
AcDbEntity
  8
0
  6
Continuous
 62
     7
370
    25
100
AcDbLine
 10
252.4774015227
 20
28.4780817716
 30
0.0
 11
252.4885895354
 21
28.6029744076
 31
0.0
  0
SPLINE
  5
19C
330
1F
100
AcDbEntity
  8
0
  6
Continuous
 62
     7
370
    25
100
AcDbSpline
210
0.0
220
0.0
230
1.0
 70
     8
 71
     3
 72
    10
 73
     6
 74
     0
 42
0.000000001
 43
0.00000001
 40
0.0
 40
0.0
 40
0.0
 40
0.0
 40
0.4391258124585617
 40
0.7513745103053019
 40
0.9999999999999999
 40
0.9999999999999999
 40
0.9999999999999999
 40
0.9999999999999999
 10
253.0536971143812
 20
27.83805779127569
 30
0.0
 10
252.9106569878889
 20
27.96463127757806
 30
0.0
 10
252.6659054794422
 20
28.18120723050514
 30
0.0
 10
252.5067401555122
 20
28.38252938825998
 30
0.0
 10
252.4864124366854
 20
28.4487343132051
 30
0.0
 10
252.477401522723
 20
28.47808177160184
 30
0.0
  0
SPLINE
  5
19D
330
1F
100
AcDbEntity
  8
0
  6
Continuous
 62
     7
370
    25
100
AcDbSpline
210
0.0
220
0.0
230
1.0
 70
     8
 71
     3
 72
     9
 73
     5
 74
     0
 42
0.000000001
 43
0.00000001
 40
0.0
 40
0.0
 40
0.0
 40
0.0
 40
0.8744803405931183
 40
0.9999999999999999
 40
0.9999999999999999
 40
0.9999999999999999
 40
0.9999999999999999
 10
252.9207488320206
 20
29.17972266998177
 30
0.0
 10
252.9471253273059
 20
29.44699702560183
 30
0.0
 10
252.977287806736
 20
29.75263494930723
 30
0.0
 10
253.1077859091754
 20
29.99849216588238
 30
0.0
 10
253.1241659865469
 20
30.02935207996962
 30
0.0
  0
SPLINE
  5
19E
330
1F
100
AcDbEntity
  8
0
  6
Continuous
 62
     7
370
    25
100
AcDbSpline
210
0.0
220
0.0
230
1.0
 70
     8
 71
     3
 72
     9
 73
     5
 74
     0
 42
0.000000001
 43
0.00000001
 40
0.0
 40
0.0
 40
0.0
 40
0.0
 40
0.6698667167127972
 40
1.0
 40
1.0
 40
1.0
 40
1.0
 10
252.5355812958252
 20
28.98564904234638
 30
0.0
 10
252.6142579285805
 20
29.03521433333915
 30
0.0
 10
252.7317091032583
 20
29.10920709899856
 30
0.0
 10
252.8738299953054
 20
29.16222101261852
 30
0.0
 10
252.9207488320206
 20
29.17972266998178
 30
0.0
  0
LINE
  5
19F
330
1F
100
AcDbEntity
  8
0
  6
Continuous
 62
     7
370
    25
100
AcDbLine
 10
253.6052274813
 20
30.3568324878
 30
0.0
 11
254.5126860082
 21
29.832967831
 31
0.0
  0
LINE
  5
1A0
330
1F
100
AcDbEntity
  8
0
  6
Continuous
 62
     7
370
    25
100
AcDbLine
 10
252.920748832
 20
29.17972267
 30
0.0
 11
254.0713393571
 21
28.5155008982
 31
0.0
  0
LWPOLYLINE
  5
1A1
330
1F
100
AcDbEntity
  8
0
  6
Continuous
 62
     7
370
    25
100
AcDbPolyline
 90
       21
 70
   128
 43
0.0
 10
269.7856146759
 20
33.9276793604
 10
269.6380514799
 20
34.0023604914
 10
269.2041330463
 20
34.1224563395
 10
268.7222194773
 20
34.1248328055
 10
268.2061747812
 20
34.0094220479
 10
267.6708445475
 20
33.779543247
 10
267.1316292304
 20
33.44181045
 10
266.6040411134
 20
33.0059391705
 10
266.1032578571
 20
32.4844688847
 10
265.643686316
 20
31.8924009617
 10
265.2385472651
 20
31.2467686248
 10
264.8994959545
 20
30.5661450864
 10
264.6362862514
 20
29.8701110656
 10
264.4564901005
 20
29.1786897904
 10
264.3652800398
 20
28.5117723933
 10
264.3652800398
 20
27.8885449169
 10
264.4564901005
 20
27.3269364143
 10
264.6362862514
 20
26.8431033562
 10
264.8994959545
 20
26.45096479
 10
265.2385472651
 20
26.1618015625
 10
265.2859802504
 20
26.1332394487
  0
LINE
  5
1A2
330
1F
100
AcDbEntity
  8
0
  6
Continuous
 62
     7
370
    25
100
AcDbLine
 10
271.7784388457
 20
29.9654921071
 30
0.0
 11
269.9903424987
 21
27.7411173382
 31
0.0
  0
LINE
  5
1A3
330
1F
100
AcDbEntity
  8
0
  6
Continuous
 62
     7
370
    25
100
AcDbLine
 10
269.9903424987
 20
27.7411173382
 30
0.0
 11
269.9903424987
 21
25.3568598987
 31
0.0
  0
LINE
  5
1A4
330
1F
100
AcDbEntity
  8
0
  6
Continuous
 62
     7
370
    25
100
AcDbLine
 10
271.7784388457
 20
25.1969772282
 30
0.0
 11
269.9903424987
 21
25.3568598987
 31
0.0
  0
LINE
  5
1A5
330
1F
100
AcDbEntity
  8
0
  6
Continuous
 62
     7
370
    25
100
AcDbLine
 10
273.5665351928
 20
27.4213519971
 30
0.0
 11
271.7784388457
 21
25.1969772282
 31
0.0
  0
LINE
  5
1A6
330
1F
100
AcDbEntity
  8
0
  6
Continuous
 62
     7
370
    25
100
AcDbLine
 10
273.5665351928
 20
27.4213519971
 30
0.0
 11
273.5665351928
 21
29.8056094366
 31
0.0
  0
LINE
  5
1A7
330
1F
100
AcDbEntity
  8
0
  6
Continuous
 62
     7
370
    25
100
AcDbLine
 10
271.7784388457
 20
29.9654921071
 30
0.0
 11
273.5665351928
 21
29.8056094366
 31
0.0
  0
ARC
  5
1A8
330
1F
100
AcDbEntity
  8
0
  6
Continuous
 62
     7
370
    25
100
AcDbCircle
 10
267.4485226309
 20
30.0845656147
 30
0.0
 40
4.016582236068206
100
AcDbArc
 50
320.575219483
 51
352.0264209578
  0
ARC
  5
1A9
330
1F
100
AcDbEntity
  8
0
  6
Continuous
 62
     7
370
    25
100
AcDbCircle
 10
267.7380981081
 20
29.7690803163
 30
0.0
 40
3.593041167564995
100
AcDbArc
 50
308.8170289619
 51
321.5288581364
  0
LINE
  5
1AA
330
1F
100
AcDbEntity
  8
0
  6
Continuous
 62
     7
370
    25
100
AcDbLine
 10
269.9903429926
 20
26.2292229922
 30
0.0
 11
271.7784388457
 21
25.1969772282
 31
0.0
  0
LINE
  5
1AB
330
1F
100
AcDbEntity
  8
0
  6
Continuous
 62
     7
370
    25
100
AcDbLine
 10
271.4452158186
 20
28.6459636052
 30
0.0
 11
273.5665351928
 21
27.4213519971
 31
0.0
  0
LINE
  5
1AC
330
1F
100
AcDbEntity
  8
0
  6
Continuous
 62
     7
370
    25
100
AcDbLine
 10
271.4452158186
 20
28.6459636052
 30
0.0
 11
271.4452158186
 21
29.5509640897
 31
0.0
  0
LINE
  5
1AD
330
1F
100
AcDbEntity
  8
0
  6
Continuous
 62
     7
370
    25
100
AcDbLine
 10
270.5511676451
 20
27.5337761732
 30
0.0
 11
269.9903435482
 21
26.8361162499
 31
0.0
  0
LINE
  5
1AE
330
1F
100
AcDbEntity
  8
0
  6
Continuous
 62
     7
370
    25
100
AcDbLine
 10
271.4452158186
 20
28.6459636052
 30
0.0
 11
270.5511676451
 21
27.5337761732
 31
0.0
  0
ARC
  5
1AF
330
1F
100
AcDbEntity
  8
0
  6
Continuous
 62
     7
370
    25
100
AcDbCircle
 10
263.5107424574
 20
43.3079869229
 30
0.0
 40
5.009206055040188
100
AcDbArc
 50
37.8795025279
 51
81.8412966151
  0
ARC
  5
1B0
330
1F
100
AcDbEntity
  8
0
  6
Continuous
 62
     7
370
    25
100
AcDbCircle
 10
254.0246260133
 20
26.8772692478
 30
0.0
 40
5.009821964476656
100
AcDbArc
 50
217.7498851458
 51
261.1206356723
  0
LINE
  5
1B1
330
1F
100
AcDbEntity
  8
0
  6
Continuous
 62
     7
370
    25
100
AcDbLine
 10
236.4831374453
 20
31.2162209418
 30
0.0
 11
236.5983102943
 21
31.1475867239
 31
0.0
  0
LINE
  5
1B2
330
1F
100
AcDbEntity
  8
0
  6
Continuous
 62
     7
370
    25
100
AcDbLine
 10
251.134940104
 20
56.2409483017
 30
0.0
 11
251.0971317467
 21
56.2630029919
 31
0.0
  0
LWPOLYLINE
  5
1B3
330
1F
100
AcDbEntity
  8
0
  6
Continuous
 62
     7
370
    25
100
AcDbPolyline
 90
       24
 70
   128
 43
0.0
 10
253.7015741892
 20
32.5003050957
 10
253.7153562086
 20
32.6433376992
 10
253.8471233914
 20
33.5007153055
 10
254.0643304679
 20
34.3815440342
 10
254.3634104319
 20
35.2713602158
 10
254.7394525168
 20
36.1555533474
 10
255.1862825387
 20
37.0196054411
 10
255.6965626655
 20
37.8493277082
 10
256.2619148938
 20
38.631096862
 10
256.873056051
 20
39.3520765896
 10
257.5199509066
 20
40.0004276155
 10
258.1919775493
 20
40.5655046935
 10
258.8781014692
 20
41.0380285859
 10
259.5670564306
 20
41.41024143
 10
260.2475298945
 20
41.6760305104
 10
260.908348439
 20
41.831032258
 10
261.5386613086
 20
41.8727009484
 10
262.1281190647
 20
41.8003532786
 10
262.6670425848
 20
41.6151761938
 10
263.1465828417
 20
41.32021076
 10
263.558865948
 20
40.9203005337
 10
263.8971220662
 20
40.4220119869
 10
264.1557970318
 20
39.8335265102
 10
264.1797934059
 20
39.7618569049
  0
ARC
  5
1B4
330
1F
100
AcDbEntity
  8
0
  6
Continuous
 62
     7
370
    25
100
AcDbCircle
 10
256.6789201711
 20
30.890387941
 30
0.0
 40
2.918579963567627
100
AcDbArc
 50
234.8005418012
 51
284.9194819906
  0
LWPOLYLINE
  5
1B5
330
1F
100
AcDbEntity
  8
0
  6
Continuous
 62
     7
370
    25
100
AcDbPolyline
 90
        3
 70
   128
 43
0.0
 10
269.4124089422
 20
36.7333058671
 10
269.4501017249
 20
36.7148502685
 10
269.5670213632
 20
36.6518765824
  0
LINE
  5
1B6
330
1F
100
AcDbEntity
  8
0
  6
Continuous
 62
     7
370
    25
100
AcDbLine
 10
262.9137620041
 20
24.9077648371
 30
0.0
 11
262.817569725
 21
24.9602165248
 31
0.0
  0
ARC
  5
1B7
330
1F
100
AcDbEntity
  8
0
  6
Continuous
 62
     7
370
    25
100
AcDbCircle
 10
257.9523036172
 20
30.8352875788
 30
0.0
 40
2.656720527861001
100
AcDbArc
 50
199.7138464099
 51
238.3861901129
  0
LWPOLYLINE
  5
1B8
330
1F
100
AcDbEntity
  8
0
  6
Continuous
 62
     7
370
    25
100
AcDbPolyline
 90
       20
 70
   128
 43
0.0
 10
255.163630254
 20
31.4971845816
 10
255.1615749366
 20
31.7064132408
 10
255.2106404537
 20
32.4811121878
 10
255.3468291043
 20
33.2915463376
 10
255.5676291997
 20
34.122768499
 10
255.8689679713
 20
34.9594476945
 10
256.245287962
 20
35.7861528473
 10
256.689648442
 20
36.5876361872
 10
257.1938534957
 20
37.349115845
 10
257.7486043099
 20
38.0565472288
 10
258.3436689139
 20
38.6968831813
 10
258.968072252
 20
39.258312605
 10
259.6102982123
 20
39.7304816542
 10
260.2585017193
 20
40.1046815737
 10
260.9007276796
 20
40.374010835
 10
261.5251310177
 20
40.5335021603
 10
262.1201956218
 20
40.5802131754
 10
262.674946436
 20
40.5132834482
 10
263.1791514896
 20
40.3339465541
 10
263.309125785
 20
40.2644828033
  0
LWPOLYLINE
  5
1B9
330
1F
100
AcDbEntity
  8
0
  6
Continuous
 62
     7
370
    25
100
AcDbPolyline
 90
       19
 70
   128
 43
0.0
 10
264.7175998698
 20
32.5150678028
 10
264.672823947
 20
32.7824563652
 10
264.5438967374
 20
32.965896675
 10
264.3463687818
 20
33.043262936
 10
264.1040649033
 20
33.0052243143
 10
263.8462106488
 20
32.8563682216
 10
263.6039067703
 20
32.6146487401
 10
263.4063786501
 20
32.3092214609
 10
263.2774514405
 20
31.9769249634
 10
263.2326756823
 20
31.6578393159
 10
263.2774514405
 20
31.3904508486
 10
263.4063786501
 20
31.2070105388
 10
263.6039067703
 20
31.1296441828
 10
263.8462106488
 20
31.1676831847
 10
264.1040649033
 20
31.3165392774
 10
264.3463687818
 20
31.5582583787
 10
264.5438967374
 20
31.8636857529
 10
264.672823947
 20
32.1959822504
 10
264.7175998698
 20
32.5150678028
  0
LINE
  5
1BA
330
1F
100
AcDbEntity
  8
0
  6
Continuous
 62
     7
370
    25
100
AcDbLine
 10
255.6744230576
 20
29.3951703357
 30
0.0
 11
255.6429110444
 21
29.4300741666
 31
0.0
  0
LINE
  5
1BB
330
1F
100
AcDbEntity
  8
0
  6
Continuous
 62
     7
370
    25
100
AcDbLine
 10
261.9774053917
 20
40.6526992122
 30
0.0
 11
262.1083083995
 21
40.6296845427
 31
0.0
  0
LINE
  5
1BC
330
1F
100
AcDbEntity
  8
0
  6
Continuous
 62
     7
370
    25
100
AcDbLine
 10
262.386220438
 20
40.5922454675
 30
0.0
 11
262.444350491
 21
40.5612178799
 31
0.0
  0
LWPOLYLINE
  5
1BD
330
1F
100
AcDbEntity
  8
0
  6
Continuous
 62
     7
370
    25
100
AcDbPolyline
 90
       32
 70
   128
 43
0.0
 10
232.0125211249
 20
37.6893876338
 10
232.0573192736
 20
38.8671420629
 10
232.1913541544
 20
40.0871373457
 10
232.4135457543
 20
41.3395505892
 10
232.7221054665
 20
42.614297748
 10
233.1145486024
 20
43.9011154679
 10
233.5877161241
 20
45.1896434988
 10
234.1377976931
 20
46.4695068229
 10
234.7603645975
 20
47.730400823
 10
235.4504046551
 20
48.9621741701
 10
236.2023617259
 20
50.1549090482
 10
237.0101811517
 20
51.2990013793
 10
237.8673594762
 20
52.3852404767
 10
238.7669951529
 20
53.4048801437
 10
239.7018441923
 20
54.3497111027
 10
240.6643804184
 20
55.2121269595
 10
241.6468539149
 20
55.9851822783
 10
242.6413541216
 20
56.6626533411
 10
243.6398741251
 20
57.2390866694
 10
244.6343743319
 20
57.7098411046
 10
245.6168478283
 20
58.0711255398
 10
246.5793840545
 20
58.3200303545
 10
247.5142330938
 20
58.4545531216
 10
248.4138687706
 20
58.4736106977
 10
249.271047095
 20
58.3770486279
 10
250.0788665208
 20
58.165644753
 10
250.8308235916
 20
57.8411010288
 10
251.5208636492
 20
57.406030974
 10
252.1434305537
 20
56.8639374216
 10
252.6935121226
 20
56.2191847584
 10
253.1666796443
 20
55.4769643195
 10
253.4488231606
 20
54.9054009325
  0
LWPOLYLINE
  5
1BE
330
1F
100
AcDbEntity
  8
0
  6
Continuous
 62
     7
370
    25
100
AcDbPolyline
 90
       15
 70
   128
 43
0.0
 10
238.9500017082
 20
29.7899835239
 10
238.7669951529
 20
29.7724448398
 10
237.8673594762
 20
29.7533872637
 10
237.0101811517
 20
29.8499493335
 10
236.2023617259
 20
30.0613532084
 10
235.4504046551
 20
30.3858969326
 10
234.7603645975
 20
30.8209669875
 10
234.1377976931
 20
31.3630605398
 10
233.5877161241
 20
32.007813203
 10
233.1145486024
 20
32.7500336419
 10
232.7221054665
 20
33.5837461616
 10
232.4135457543
 20
34.5022378599
 10
232.1913541544
 20
35.4981141427
 10
232.0573192736
 20
36.5633560461
 10
232.0125211249
 20
37.6893876338
  0
SPLINE
  5
1BF
330
1F
100
AcDbEntity
  8
0
  6
Continuous
 62
     7
370
    25
100
AcDbSpline
210
0.0
220
0.0
230
1.0
 70
     8
 71
     3
 72
    25
 73
    21
 74
     0
 42
0.000000001
 43
0.00000001
 40
0.0
 40
0.0
 40
0.0
 40
0.0
 40
0.1249999999999985
 40
0.1249999999999985
 40
0.2499999999999971
 40
0.2499999999999971
 40
0.3749999999999956
 40
0.3749999999999956
 40
0.4999999999999941
 40
0.4999999999999941
 40
0.562499999999995
 40
0.562499999999995
 40
0.624999999999996
 40
0.6874999999999969
 40
0.6874999999999969
 40
0.7499999999999978
 40
0.7499999999999978
 40
0.8749999999999989
 40
0.8749999999999989
 40
1.0
 40
1.0
 40
1.0
 40
1.0
 10
236.8461102734699
 20
54.12120208822745
 30
0.0
 10
236.8752335717309
 20
54.01001656769827
 30
0.0
 10
236.8876226125902
 20
53.89477435527024
 30
0.0
 10
236.8806451274899
 20
53.65567878743443
 30
0.0
 10
236.8606275396379
 20
53.53090481755917
 30
0.0
 10
236.7904053819247
 20
53.28453590834675
 30
0.0
 10
236.739754727331
 20
53.16032476098563
 30
0.0
 10
236.6098399836758
 20
52.91669626567547
 30
0.0
 10
236.5321390356865
 20
52.7996391706173
 30
0.0
 10
236.3967654534604
 20
52.63098265276727
 30
0.0
 10
236.3481309561533
 20
52.5756156314951
 30
0.0
 10
236.2466916207713
 20
52.46989582009809
 30
0.0
 10
236.1408216380305
 20
52.36873486147764
 30
0.0
 10
236.026229845703
 20
52.27656053980084
 30
0.0
 10
235.9071471764848
 20
52.18902369706073
 30
0.0
 10
235.8451891634274
 20
52.14752522754853
 30
0.0
 10
235.6573254599069
 20
52.03340490581043
 30
0.0
 10
235.5279480235529
 20
51.96979747469584
 30
0.0
 10
235.2602647704908
 20
51.86852917372161
 30
0.0
 10
235.1243930840257
 20
51.8319882654968
 30
0.0
 10
234.9888758172981
 20
51.81082008114674
 30
0.0
  0
LWPOLYLINE
  5
1C0
330
1F
100
AcDbEntity
  8
0
  6
Continuous
 62
     7
370
    25
100
AcDbPolyline
 90
       15
 70
   128
 43
0.0
 10
236.8461103852
 20
54.1212021207
 10
237.7971131921
 20
55.1101625564
 10
238.779124061
 20
56.0141648755
 10
239.7838198126
 20
56.8255463894
 10
240.802685343
 20
57.5374301993
 10
241.8270850344
 20
58.1437846723
 10
242.8483365949
 20
58.6394691099
 10
243.8577844037
 20
59.0202814121
 10
244.8468729798
 20
59.2829959278
 10
245.8072188869
 20
59.4253844318
 10
246.7306830088
 20
59.4462411184
 10
247.6094385441
 20
59.345389154
 10
248.4360370251
 20
59.1236830471
 10
249.2034731845
 20
58.7830012281
 10
249.3237596316
 20
58.7156528534
  0
LWPOLYLINE
  5
1C1
330
1F
100
AcDbEntity
  8
0
  6
Continuous
 62
     7
370
    25
100
AcDbPolyline
 90
       21
 70
   128
 43
0.0
 10
233.5875383171
 20
31.4567644596
 10
233.5838906391
 20
31.4588724248
 10
232.8991544989
 20
31.9307019977
 10
232.2857756075
 20
32.5122429399
 10
231.7488695385
 20
33.1986456799
 10
231.2929143945
 20
33.9841854129
 10
230.9217112946
 20
34.8623107748
 10
230.638356715
 20
35.8256991679
 10
230.4452135134
 20
36.86631589
 10
230.343891831
 20
37.9754826251
 10
230.3352385562
 20
39.1439504015
 10
230.4193241531
 20
40.3619736429
 10
230.5954479305
 20
41.6193950549
 10
230.8621406755
 20
42.905727802
 10
231.217179142
 20
44.2102453834
 10
231.6576011965
 20
45.5220675641
 10
232.1797354537
 20
46.8302550498
 10
232.7792263
 20
48.1238986484
 10
233.4510747241
 20
49.3922078607
 10
234.1896778294
 20
50.6246082154
 10
234.9888755905
 20
51.8108195927
  0
LWPOLYLINE
  5
1C2
330
1F
100
AcDbEntity
  8
0
  6
Continuous
 62
     7
370
    25
100
AcDbPolyline
 90
       40
 70
   128
 43
0.0
 10
232.3639035169
 20
32.32939414
 10
231.5953570514
 20
32.6255699724
 10
230.8874664863
 20
33.0334886143
 10
230.245955232
 20
33.5498517812
 10
229.676008668
 20
34.1704855662
 10
229.1822352886
 20
34.8903712423
 10
228.7686271908
 20
35.703689753
 10
228.4385278049
 20
36.6038654423
 10
228.1946055533
 20
37.5836204299
 10
228.0388334354
 20
38.63503469
 10
227.9724705882
 20
39.7496075074
 10
227.996053067
 20
40.9183278696
 10
228.109389894
 20
42.1317470905
 10
228.3115656921
 20
43.3800553323
 10
228.6009452954
 20
44.6531605503
 10
228.9751895539
 20
45.9407700988
 10
229.4312724554
 20
47.2324742852
 10
229.9655074679
 20
48.5178303987
 10
230.5735745393
 20
49.7864467391
 10
231.2505589521
 20
51.0280666441
 10
231.9909862256
 20
52.2326528973
 10
232.7888715075
 20
53.3904660518
 10
233.6377630372
 20
54.4921457949
 10
234.5307987808
 20
55.5287862292
 10
235.4607584565
 20
56.49200621
 10
236.4201239555
 20
57.374017687
 10
237.4011391051
 20
58.1676913828
 10
238.395872807
 20
58.8666099726
 10
239.3962830803
 20
59.4651233062
 10
240.3942819281
 20
59.9583911783
 10
241.3818011103
 20
60.3424273818
 10
242.3508567624
 20
60.6141271253
 10
243.2936142628
 20
60.7712930737
 10
244.2024524405
 20
60.8126549233
 10
245.0700232559
 20
60.73787876
 10
245.8893125513
 20
60.5475679087
 10
246.6536970155
 20
60.243262358
 10
247.3569968668
 20
59.8274212643
 10
247.9935268905
 20
59.3034067872
 10
248.0561636928
 20
59.2423836488
  0
LWPOLYLINE
  5
1C3
330
1F
100
AcDbEntity
  8
0
  6
Continuous
 62
     7
370
    25
100
AcDbPolyline
 90
       12
 70
   128
 43
0.0
 10
235.1834889928
 20
54.2454786013
 10
236.099068032
 20
55.2199604858
 10
237.0477807504
 20
56.1089356655
 10
238.0206837842
 20
56.904025249
 10
239.0086058721
 20
57.597734
 10
240.0022340424
 20
58.1835229068
 10
240.9922017342
 20
58.6558684179
 10
241.9691765487
 20
59.0103191841
 10
242.923949029
 20
59.2435336212
 10
243.8475188473
 20
59.3533129348
 10
244.7311795513
 20
59.3386226668
 10
244.984039569
 20
59.3103652344
  0
SPLINE
  5
1C4
330
1F
100
AcDbEntity
  8
0
  6
Continuous
 62
     7
370
    25
100
AcDbSpline
210
0.0
220
0.0
230
1.0
 70
     8
 71
     3
 72
    26
 73
    22
 74
     0
 42
0.000000001
 43
0.00000001
 40
0.0
 40
0.0
 40
0.0
 40
0.0
 40
0.1250000000000014
 40
0.1250000000000014
 40
0.2500000000000027
 40
0.2500000000000027
 40
0.3125000000000025
 40
0.3125000000000025
 40
0.3750000000000023
 40
0.3750000000000023
 40
0.4375000000000021
 40
0.4375000000000021
 40
0.5000000000000018
 40
0.5000000000000018
 40
0.5625000000000016
 40
0.5625000000000016
 40
0.6250000000000013
 40
0.6250000000000013
 40
0.7500000000000006
 40
0.7500000000000006
 40
1.0
 40
1.0
 40
1.0
 40
1.0
 10
233.8392957878424
 20
52.57331531510227
 30
0.0
 10
233.8156581916103
 20
52.68289117467526
 30
0.0
 10
233.7980904127286
 20
52.79378043303979
 30
0.0
 10
233.7792778298591
 20
53.01911039290273
 30
0.0
 10
233.7780980550917
 20
53.13478730622111
 30
0.0
 10
233.7941960583271
 20
53.30614281608067
 30
0.0
 10
233.8025147754273
 20
53.36294132817483
 30
0.0
 10
233.8262719246843
 20
53.47576754057192
 30
0.0
 10
233.8418943037333
 20
53.53222039423807
 30
0.0
 10
233.8807515161303
 20
53.64080351064666
 30
0.0
 10
233.9039774728328
 20
53.69318347087221
 30
0.0
 10
233.9589761223112
 20
53.79364024614432
 30
0.0
 10
233.9910543893338
 20
53.84191911391576
 30
0.0
 10
234.0614691378689
 20
53.9296160894995
 30
0.0
 10
234.1000475599955
 20
53.96960521747546
 30
0.0
 10
234.1837558235918
 20
54.04208390159106
 30
0.0
 10
234.2288845335336
 20
54.07442052596767
 30
0.0
 10
234.3681651757237
 20
54.15762029332132
 30
0.0
 10
234.4689542472854
 20
54.19644901595741
 30
0.0
 10
234.7720265185181
 20
54.27186530341258
 30
0.0
 10
234.9805506090031
 20
54.27173515704182
 30
0.0
 10
235.1834890286935
 20
54.2454789277156
 30
0.0
  0
LWPOLYLINE
  5
1C5
330
1F
100
AcDbEntity
  8
0
  6
Continuous
 62
     7
370
    25
100
AcDbPolyline
 90
       17
 70
   128
 43
0.0
 10
230.9023171589
 20
34.917464025
 10
230.4686346488
 20
35.5644285992
 10
230.0711279641
 20
36.3693333586
 10
229.7611161614
 20
37.2639090155
 10
229.5414421771
 20
38.2399535206
 10
229.4141198405
 20
39.2885175578
 10
229.3803167509
 20
40.3999873882
 10
229.4403430828
 20
41.5641723521
 10
229.593648293
 20
42.7703983114
 10
229.8388257304
 20
44.0076048932
 10
230.1736290997
 20
45.2644498139
 10
230.5949876079
 20
46.5294083566
 10
231.0990388914
 20
47.7908830641
 10
231.6811599678
 20
49.0373073494
 10
232.3360146509
 20
50.2572538571
 10
233.0575989904
 20
51.4395363612
 10
233.8392959312
 20
52.5733150841
  0
LINE
  5
1C6
330
1F
100
AcDbEntity
  8
0
  6
Continuous
 62
     7
370
    25
100
AcDbLine
 10
232.3639035169
 20
32.32939414
 30
0.0
 11
232.4844308266
 21
32.3863550108
 31
0.0
  0
LWPOLYLINE
  5
1C7
330
1F
100
AcDbEntity
  8
0
  6
Continuous
 62
     7
370
    25
100
AcDbPolyline
 90
       26
 70
   128
 43
0.0
 10
225.7192709262
 20
41.4040443151
 10
225.7637845837
 20
42.5743150556
 10
225.8969679664
 20
43.7865584497
 10
226.1177476469
 20
45.0310133914
 10
226.4243462135
 20
46.2976602835
 10
226.8142960999
 20
47.5763013601
 10
227.2844567074
 20
48.8566417692
 10
227.8310433807
 20
50.1283726508
 10
228.4496544082
 20
51.3812551653
 10
229.135309218
 20
52.6052010991
 10
229.8824885484
 20
53.7903565118
 10
230.6851746197
 20
54.927178919
 10
231.5369064518
 20
56.0065163761
 10
232.4308253037
 20
57.0196770555
 10
233.3597342716
 20
57.9585039569
 10
234.3161542656
 20
58.8154391612
 10
235.2923847602
 20
59.583583236
 10
236.2805657796
 20
60.2567500302
 10
237.2727409537
 20
60.8295205664
 10
238.2609219731
 20
61.2972832919
 10
239.2371524677
 20
61.6562709545
 10
240.1935724617
 20
61.9035947704
 10
241.1224814296
 20
62.0372633346
 10
242.0164002814
 20
62.0561993928
 10
242.8681321136
 20
61.9602505771
 10
243.6201563559
 20
61.7673186383
  0
ARC
  5
1C8
330
1F
100
AcDbEntity
  8
0
  6
Continuous
 62
     7
370
    25
100
AcDbCircle
 10
237.7008466663
 20
41.2794001007
 30
0.0
 40
11.9797989690474
100
AcDbArc
 50
180.8162472812
 51
192.7949483994
  0
SPLINE
  5
1C9
330
1F
100
AcDbEntity
  8
0
  6
Continuous
 62
     7
370
    25
100
AcDbSpline
210
0.0
220
0.0
230
1.0
 70
     8
 71
     3
 72
    10
 73
     6
 74
     0
 42
0.000000001
 43
0.00000001
 40
0.0
 40
0.0
 40
0.0
 40
0.0
 40
0.5
 40
0.5
 40
1.0
 40
1.0
 40
1.0
 40
1.0
 10
234.5659838554737
 20
51.11026203428255
 30
0.0
 10
234.4620193646894
 20
51.18360040735293
 30
0.0
 10
234.372211088262
 20
51.27083616514633
 30
0.0
 10
234.2201686602633
 20
51.47176670634233
 30
0.0
 10
234.1582630719024
 20
51.5859374725393
 30
0.0
 10
234.1138133673119
 20
51.7089551556994
 30
0.0
  0
SPLINE
  5
1CA
330
1F
100
AcDbEntity
  8
0
  6
Continuous
 62
     7
370
    25
100
AcDbSpline
210
0.0
220
0.0
230
1.0
 70
     8
 71
     3
 72
    14
 73
    10
 74
     0
 42
0.000000001
 43
0.00000001
 40
0.0
 40
0.0
 40
0.0
 40
0.0
 40
0.25
 40
0.25
 40
0.5
 40
0.5
 40
0.75
 40
0.75
 40
1.0
 40
1.0
 40
1.0
 40
1.0
 10
234.1138133673119
 20
51.7089551556994
 30
0.0
 10
234.0910925644468
 20
51.77183657535694
 30
0.0
 10
234.0691780540974
 20
51.84088300483035
 30
0.0
 10
234.0270670000345
 20
51.98853552144913
 30
0.0
 10
234.0075454461215
 20
52.06493530830743
 30
0.0
 10
233.9691992039478
 20
52.21926759970304
 30
0.0
 10
233.9508396110639
 20
52.29622019603469
 30
0.0
 10
233.9088361664823
 20
52.44161036355066
 30
0.0
 10
233.8850598454692
 20
52.50820126974369
 30
0.0
 10
233.8565983413671
 20
52.54869688497503
 30
0.0
  0
LINE
  5
1CB
330
1F
100
AcDbEntity
  8
0
  6
Continuous
 62
     7
370
    25
100
AcDbLine
 10
233.8565985296
 20
52.5486972767
 30
0.0
 11
233.8392959312
 21
52.5733150841
 31
0.0
  0
LINE
  5
1CC
330
1F
100
AcDbEntity
  8
0
  6
Continuous
 62
     7
370
    25
100
AcDbLine
 10
235.1834889928
 20
54.2454786013
 30
0.0
 11
235.2007915912
 21
54.220860794
 31
0.0
  0
SPLINE
  5
1CD
330
1F
100
AcDbEntity
  8
0
  6
Continuous
 62
     7
370
    25
100
AcDbSpline
210
0.0
220
0.0
230
1.0
 70
     8
 71
     3
 72
    16
 73
    12
 74
     0
 42
0.000000001
 43
0.00000001
 40
0.0
 40
0.0
 40
0.0
 40
0.0
 40
0.1250000000000001
 40
0.1250000000000001
 40
0.2500000000000003
 40
0.2500000000000003
 40
0.5000000000000002
 40
0.5000000000000002
 40
0.7500000000000001
 40
0.7500000000000001
 40
1.0
 40
1.0
 40
1.0
 40
1.0
 10
235.2007915822183
 20
54.22086049758831
 30
0.0
 10
235.2149439886224
 20
54.20072416177553
 30
0.0
 10
235.2366023930961
 20
54.18392674109811
 30
0.0
 10
235.2890203221313
 20
54.15708121976662
 30
0.0
 10
235.3196132012697
 20
54.14685573520563
 30
0.0
 10
235.4186940501272
 20
54.12235529477294
 30
0.0
 10
235.4925765877431
 20
54.11409537237144
 30
0.0
 10
235.6456761801344
 20
54.10290940566652
 30
0.0
 10
235.723760154782
 20
54.10031273391535
 30
0.0
 10
235.8831037885242
 20
54.09828373308164
 30
0.0
 10
235.9617566833557
 20
54.09892132174386
 30
0.0
 10
236.0375091511484
 20
54.1020144225589
 30
0.0
  0
SPLINE
  5
1CE
330
1F
100
AcDbEntity
  8
0
  6
Continuous
 62
     7
370
    25
100
AcDbSpline
210
0.0
220
0.0
230
1.0
 70
     8
 71
     3
 72
    10
 73
     6
 74
     0
 42
0.000000001
 43
0.00000001
 40
0.0
 40
0.0
 40
0.0
 40
0.0
 40
0.5
 40
0.5
 40
1.0
 40
1.0
 40
1.0
 40
1.0
 10
236.0375091511484
 20
54.1020144225589
 30
0.0
 10
236.1857034910491
 20
54.10806544699266
 30
0.0
 10
236.3279279567797
 20
54.09790321677953
 30
0.0
 10
236.6003193471204
 20
54.04685278083944
 30
0.0
 10
236.730446676989
 20
54.0054916781949
 30
0.0
 10
236.8485220191743
 20
53.94971781024262
 30
0.0
  0
LINE
  5
1CF
330
1F
100
AcDbEntity
  8
0
  6
Continuous
 62
     7
370
    25
100
AcDbLine
 10
237.0037251106
 20
53.9781364178
 30
0.0
 11
236.9863319624
 21
54.0028837024
 31
0.0
  0
ARC
  5
1D0
330
1F
100
AcDbEntity
  8
0
  6
Continuous
 62
     7
370
    25
100
AcDbCircle
 10
219.5250517179
 20
49.2199106338
 30
0.0
 40
4.152066281423854
100
AcDbArc
 50
211.7707829633
 51
236.187546018
  0
SPLINE
  5
1D1
330
1F
100
AcDbEntity
  8
0
  6
Continuous
 62
     7
370
    25
100
AcDbSpline
210
0.0
220
0.0
230
1.0
 70
     8
 71
     3
 72
     8
 73
     4
 74
     0
 42
0.000000001
 43
0.00000001
 40
0.0
 40
0.0
 40
0.0
 40
0.0
 40
1.0
 40
1.0
 40
1.0
 40
1.0
 10
217.4255683500375
 20
46.10901339100395
 30
0.0
 10
216.9487950582134
 20
46.41710619893659
 30
0.0
 10
216.4719926813685
 20
46.72533564450935
 30
0.0
 10
215.9951602368428
 20
47.03370080072926
 30
0.0
  0
SPLINE
  5
1D2
330
1F
100
AcDbEntity
  8
0
  6
Continuous
 62
     7
370
    25
100
AcDbSpline
210
0.0
220
0.0
230
1.0
 70
     8
 71
     3
 72
    23
 73
    19
 74
     0
 42
0.000000001
 43
0.00000001
 40
0.0
 40
0.0
 40
0.0
 40
0.0
 40
0.0521036415684141
 40
0.1035646240942128
 40
0.1544751946758079
 40
0.2049306267497427
 40
0.2550287880868969
 40
0.3048696389164994
 40
0.3545546704630395
 40
0.4041862979540088
 40
0.4538672252136959
 40
0.5036997999425104
 40
0.590187023076665
 40
0.6742716378260809
 40
0.7565997087257926
 40
0.8378563983752378
 40
0.9187511781386904
 40
1.0
 40
1.0
 40
1.0
 40
1.0
 10
218.3061331535792
 20
45.93428269288385
 30
0.0
 10
218.3008642146391
 20
45.92436123064871
 30
0.0
 10
218.2903913251389
 20
45.90464067991719
 30
0.0
 10
218.2711450293763
 20
45.88007285096425
 30
0.0
 10
218.2493492890437
 20
45.85938426870453
 30
0.0
 10
218.2246979978389
 20
45.84285333340728
 30
0.0
 10
218.1972014833
 20
45.83033583383104
 30
0.0
 10
218.1667904292927
 20
45.82180121000878
 30
0.0
 10
218.1334200575201
 20
45.817191337361
 30
0.0
 10
218.0970441692481
 20
45.81645659422502
 30
0.0
 10
218.0576157976589
 20
45.81955167677695
 30
0.0
 10
218.0047674061077
 20
45.82808745225735
 30
0.0
 10
217.9362284123357
 20
45.84568389110591
 30
0.0
 10
217.8485071803797
 20
45.87732049919281
 30
0.0
 10
217.7537762608853
 20
45.91950015652584
 30
0.0
 10
217.651742013556
 20
45.97223659225241
 30
0.0
 10
217.5428281003687
 20
46.03455314816205
 30
0.0
 10
217.4647117893842
 20
46.08415720641216
 30
0.0
 10
217.4255683500375
 20
46.10901339100393
 30
0.0
  0
SPLINE
  5
1D3
330
1F
100
AcDbEntity
  8
0
  6
Continuous
 62
     7
370
    25
100
AcDbSpline
210
0.0
220
0.0
230
1.0
 70
     8
 71
     3
 72
     8
 73
     4
 74
     0
 42
0.000000001
 43
0.00000001
 40
0.0
 40
0.0
 40
0.0
 40
0.0
 40
1.0
 40
1.0
 40
1.0
 40
1.0
 10
219.7796361800314
 20
44.9869625563287
 30
0.0
 10
219.2882688679905
 20
45.30283717629583
 30
0.0
 10
218.7968826680648
 20
45.61882319758496
 30
0.0
 10
218.3054769579214
 20
45.9349200784273
 30
0.0
  0
SPLINE
  5
1D4
330
1F
100
AcDbEntity
  8
0
  6
Continuous
 62
     7
370
    25
100
AcDbSpline
210
0.0
220
0.0
230
1.0
 70
     8
 71
     3
 72
    18
 73
    14
 74
     0
 42
0.000000001
 43
0.00000001
 40
0.0
 40
0.0
 40
0.0
 40
0.0
 40
0.0923824559397059
 40
0.1844689291547896
 40
0.2764953615916986
 40
0.3686975365456813
 40
0.4613092839965452
 40
0.5545607518407201
 40
0.648676805150765
 40
0.7438756050126222
 40
0.840367404429405
 40
0.9203921078117897
 40
1.0
 40
1.0
 40
1.0
 40
1.0
 10
220.5932002992326
 20
44.34265483178331
 30
0.0
 10
220.5696327851099
 20
44.35792880604862
 30
0.0
 10
220.5225732644591
 20
44.38842781852886
 30
0.0
 10
220.4501754764971
 20
44.43806039113928
 30
0.0
 10
220.3766932676021
 20
44.49038993380748
 30
0.0
 10
220.3019938198574
 20
44.54570761951518
 30
0.0
 10
220.2261330300892
 20
44.60394593462875
 30
0.0
 10
220.1491217493023
 20
44.66513884626652
 30
0.0
 10
220.0709896172207
 20
44.72930256284839
 30
0.0
 10
219.9917633825761
 20
44.79645152271602
 30
0.0
 10
219.9164668981654
 20
44.86230243246263
 30
0.0
 10
219.8456395900427
 20
44.92583401927127
 30
0.0
 10
219.8017352192353
 20
44.9664947642849
 30
0.0
 10
219.7798403524299
 20
44.98677205285349
 30
0.0
  0
LINE
  5
1D5
330
1F
100
AcDbEntity
  8
0
  6
Continuous
 62
     7
370
    25
100
AcDbLine
 10
221.2329068311
 20
43.9309010253
 30
0.0
 11
220.5931999888
 21
44.3426546929
 31
0.0
  0
SPLINE
  5
1D6
330
1F
100
AcDbEntity
  8
0
  6
Continuous
 62
     7
370
    25
100
AcDbSpline
210
0.0
220
0.0
230
1.0
 70
     8
 71
     3
 72
    25
 73
    21
 74
     0
 42
0.000000001
 43
0.00000001
 40
0.0
 40
0.0
 40
0.0
 40
0.0
 40
0.0280105225426455
 40
0.0559601148860777
 40
0.0839014045043132
 40
0.1118870776786386
 40
0.1399695827588948
 40
0.1682008401739887
 40
0.196631967042423
 40
0.2253130233141507
 40
0.2542927850735879
 40
0.3799486436587393
 40
0.5057850221667148
 40
0.6313085886345164
 40
0.7532068238012837
 40
0.8039473267959832
 40
0.8535894438560202
 40
0.9025339722399832
 40
0.9511970353794942
 40
1.0
 40
1.0
 40
1.0
 40
1.0
 10
222.3352724242229
 20
44.64680701566038
 30
0.0
 10
222.3402205317535
 20
44.61918315455289
 30
0.0
 10
222.350105983389
 20
44.56399552144757
 30
0.0
 10
222.3616416329922
 20
44.48483481407765
 30
0.0
 10
222.370714754805
 20
44.40853147497927
 30
0.0
 10
222.3770835635179
 20
44.33533571400966
 30
0.0
 10
222.380799802328
 20
44.26518824579627
 30
0.0
 10
222.3818364233109
 20
44.1981119592835
 30
0.0
 10
222.3801879480839
 20
44.13410805005706
 30
0.0
 10
222.3758417962151
 20
44.07317919679022
 30
0.0
 10
222.3609854716474
 20
43.95129107529306
 30
0.0
 10
222.3158972145824
 20
43.79639020363786
 30
0.0
 10
222.2025376940895
 20
43.66544708529576
 30
0.0
 10
222.0407134720956
 20
43.60957068448526
 30
0.0
 10
221.8666982529632
 20
43.62944473686849
 30
0.0
 10
221.7153373322766
 20
43.6767625392248
 30
0.0
 10
221.6049370995778
 20
43.72167796296043
 30
0.0
 10
221.487777604129
 20
43.77905369425159
 30
0.0
 10
221.3642119371957
 20
43.84773075870403
 30
0.0
 10
221.2767168871012
 20
43.90315100465687
 30
0.0
 10
221.2329065674199
 20
43.93090090238693
 30
0.0
  0
ARC
  5
1D7
330
1F
100
AcDbEntity
  8
0
  6
Continuous
 62
     7
370
    25
100
AcDbCircle
 10
233.5282935886
 20
46.4328573842
 30
0.0
 40
11.33462419218318
100
AcDbArc
 50
170.9338462887
 51
189.0661537113
  0
SPLINE
  5
1D8
330
1F
100
AcDbEntity
  8
0
  6
Continuous
 62
     7
370
    25
100
AcDbSpline
210
0.0
220
0.0
230
1.0
 70
     8
 71
     3
 72
    26
 73
    22
 74
     0
 42
0.000000001
 43
0.00000001
 40
0.0
 40
0.0
 40
0.0
 40
0.0
 40
0.0241259796969038
 40
0.048215991228259
 40
0.0723203915136643
 40
0.0964895678725153
 40
0.1207736231978452
 40
0.1452220711257179
 40
0.1698835501670319
 40
0.1948055644482148
 40
0.2200342569523467
 40
0.2456142191612283
 40
0.369097148691835
 40
0.4940698769485373
 40
0.6192566784762581
 40
0.7454656653603327
 40
0.7971495824713788
 40
0.8481710308405456
 40
0.8988013269235281
 40
0.9493179290492212
 40
1.0
 40
1.0
 40
1.0
 40
1.0
 10
221.2329065674199
 20
51.69501129375149
 30
0.0
 10
221.2546247967964
 20
51.68067977035611
 30
0.0
 10
221.2980288769734
 20
51.65203808968652
 30
0.0
 10
221.361335994336
 20
51.60404579175697
 30
0.0
 10
221.4231975620548
 20
51.5524465938708
 30
0.0
 10
221.4835020771918
 20
51.49687180099724
 30
0.0
 10
221.5422919291318
 20
51.43741656037
 30
0.0
 10
221.5995724475614
 20
51.37405225153271
 30
0.0
 10
221.6553635868871
 20
51.30678347356909
 30
0.0
 10
221.7096848343081
 20
51.23560935960948
 30
0.0
 10
221.762563809516
 20
51.16052021986196
 30
0.0
 10
221.8793586342515
 20
50.98126577115785
 30
0.0
 10
222.0412281921771
 20
50.6709602993148
 30
0.0
 10
222.2044130997099
 20
50.20104651118383
 30
0.0
 10
222.3159245048825
 20
49.70208347727575
 30
0.0
 10
222.3630583429911
 20
49.2931998042188
 30
0.0
 10
222.3781772825236
 20
48.98892784762808
 30
0.0
 10
222.3801304215062
 20
48.78767860593276
 30
0.0
 10
222.3736523958671
 20
48.59201868621017
 30
0.0
 10
222.3595254731799
 20
48.40138239831271
 30
0.0
 10
222.343365581495
 20
48.2797991245739
 30
0.0
 10
222.3352724242229
 20
48.21890808797501
 30
0.0
  0
LINE
  5
1D9
330
1F
100
AcDbEntity
  8
0
  6
Continuous
 62
     7
370
    25
100
AcDbLine
 10
220.5931999888
 20
52.107986144
 30
0.0
 11
221.2329068311
 21
51.695011173
 31
0.0
  0
SPLINE
  5
1DA
330
1F
100
AcDbEntity
  8
0
  6
Continuous
 62
     7
370
    25
100
AcDbSpline
210
0.0
220
0.0
230
1.0
 70
     8
 71
     3
 72
    14
 73
    10
 74
     0
 42
0.000000001
 43
0.00000001
 40
0.0
 40
0.0
 40
0.0
 40
0.0
 40
0.0789261963155847
 40
0.1582328720522156
 40
0.3308475394554963
 40
0.5000195457601538
 40
0.667035788356921
 40
0.8332395193656904
 40
1.0
 40
1.0
 40
1.0
 40
1.0
 10
219.7792475833809
 20
52.31656857703666
 30
0.0
 10
219.8009644647163
 20
52.31817174089507
 30
0.0
 10
219.8445029179312
 20
52.32138579698202
 30
0.0
 10
219.9360280365798
 20
52.32220683704978
 30
0.0
 10
220.052936370013
 20
52.31427085526654
 30
0.0
 10
220.1937567083955
 20
52.28799518638872
 30
0.0
 10
220.3309690162082
 20
52.24503758785648
 30
0.0
 10
220.464899690625
 20
52.18668046304686
 30
0.0
 10
220.5503857825844
 20
52.13424691689683
 30
0.0
 10
220.5932002992326
 20
52.10798630674238
 30
0.0
  0
SPLINE
  5
1DB
330
1F
100
AcDbEntity
  8
0
  6
Continuous
 62
     7
370
    25
100
AcDbSpline
210
0.0
220
0.0
230
1.0
 70
     8
 71
     3
 72
     8
 73
     4
 74
     0
 42
0.000000001
 43
0.00000001
 40
0.0
 40
0.0
 40
0.0
 40
0.0
 40
1.0
 40
1.0
 40
1.0
 40
1.0
 10
217.9769440003769
 20
53.47895998844879
 30
0.0
 10
218.5777022240728
 20
53.09169250529007
 30
0.0
 10
219.1784310869329
 20
52.70422515536694
 30
0.0
 10
219.7791317312795
 20
52.3165582627775
 30
0.0
  0
SPLINE
  5
1DC
330
1F
100
AcDbEntity
  8
0
  6
Continuous
 62
     7
370
    25
100
AcDbSpline
210
0.0
220
0.0
230
1.0
 70
     8
 71
     3
 72
    13
 73
     9
 74
     0
 42
0.000000001
 43
0.00000001
 40
0.0
 40
0.0
 40
0.0
 40
0.0
 40
0.1667030582308044
 40
0.3329480818053134
 40
0.4990671507274983
 40
0.6653938523718556
 40
0.8322612710550201
 40
1.0
 40
1.0
 40
1.0
 40
1.0
 10
217.6351154653425
 20
53.78002476753457
 30
0.0
 10
217.6554166477825
 20
53.76645966085535
 30
0.0
 10
217.6959632329712
 20
53.73936671909249
 30
0.0
 10
217.7551128699588
 20
53.69417214608478
 30
0.0
 10
217.8128844148613
 20
53.64576099760183
 30
0.0
 10
217.8691341523209
 20
53.59372588283136
 30
0.0
 10
217.9240613610671
 20
53.53842791562235
 30
0.0
 10
217.9592820706576
 20
53.49881066046198
 30
0.0
 10
217.9769382825985
 20
53.47895045146105
 30
0.0
  0
SPLINE
  5
1DD
330
1F
100
AcDbEntity
  8
0
  6
Continuous
 62
     7
370
    25
100
AcDbSpline
210
0.0
220
0.0
230
1.0
 70
     8
 71
     3
 72
     8
 73
     4
 74
     0
 42
0.000000001
 43
0.00000001
 40
0.0
 40
0.0
 40
0.0
 40
0.0
 40
1.0
 40
1.0
 40
1.0
 40
1.0
 10
215.6911349495518
 20
55.03474661991405
 30
0.0
 10
216.3391650219521
 20
54.61675130402929
 30
0.0
 10
216.987157999054
 20
54.19851054161166
 30
0.0
 10
217.6351154653425
 20
53.78002476753457
 30
0.0
  0
LWPOLYLINE
  5
1DE
330
1F
100
AcDbEntity
  8
0
  6
Continuous
 62
     7
370
    25
100
AcDbPolyline
 90
       20
 70
   128
 43
0.0
 10
215.6911355999
 20
55.0347466704
 10
216.0737842033
 20
56.1487094325
 10
216.5359948615
 20
57.2569236145
 10
217.0725940488
 20
58.3469861718
 10
217.6775751806
 20
59.4066960409
 10
218.3441680903
 20
60.4241942482
 10
219.0649124564
 20
61.3880918509
 10
219.8317411085
 20
62.2876016794
 10
220.6360717301
 20
63.1126551548
 10
221.4689025117
 20
63.8540198665
 10
222.3209121673
 20
64.5033968545
 10
223.1825650716
 20
65.0535200876
 10
224.0442175306
 20
65.4982307394
 10
224.8962259514
 20
65.832552562
 10
225.7290545927
 20
66.0527434421
 10
226.5333824155
 20
66.1563395941
 10
227.3002071164
 20
66.1421806358
 10
228.0209465433
 20
66.0104255489
 10
228.687534514
 20
65.7625494376
 10
228.7408733264
 20
65.7364936356
  0
SPLINE
  5
1DF
330
1F
100
AcDbEntity
  8
0
  6
Continuous
 62
     7
370
    25
100
AcDbSpline
210
0.0
220
0.0
230
1.0
 70
    11
 71
     3
 72
    39
 73
    35
 74
     0
 42
0.000000001
 43
0.00000001
 40
0.0
 40
0.0
 40
0.0
 40
0.0
 40
0.0310664058347798
 40
0.0621048158425991
 40
0.0931361551792733
 40
0.1235538293503577
 40
0.1538561545807598
 40
0.1850588072749104
 40
0.2160250992947717
 40
0.247186722379756
 40
0.2784462884306427
 40
0.3100516090231226
 40
0.3419834369140484
 40
0.3734259894013217
 40
0.4048604886785525
 40
0.4368740651833295
 40
0.468512068592407
 40
0.4998055358633177
 40
0.5309508213228404
 40
0.561864978443814
 40
0.5930416446592908
 40
0.6233742450133256
 40
0.6540913579073041
 40
0.6849496782718417
 40
0.7158160645167227
 40
0.7471731804043494
 40
0.7784514311866261
 40
0.8101295911560916
 40
0.8419598919689909
 40
0.8735175891922292
 40
0.9050808037889628
 40
0.9370235169792575
 40
0.9687441590033682
 40
0.9999999999999999
 40
0.9999999999999999
 40
0.9999999999999999
 40
0.9999999999999999
 10
228.8997204307572
 20
64.03993699525546
 30
0.0
 10
229.1626060509547
 20
64.01140250796524
 30
0.0
 10
229.6894946614379
 20
63.92546001964278
 30
0.0
 10
230.4535067305113
 20
63.72508489957259
 30
0.0
 10
231.1606569185628
 20
63.47808279335293
 30
0.0
 10
231.7735679831572
 20
63.20010091520062
 30
0.0
 10
232.2706993088322
 20
62.90596721787073
 30
0.0
 10
232.6298910299044
 20
62.60446068967808
 30
0.0
 10
232.8516102986652
 20
62.29746318477488
 30
0.0
 10
232.9168621760459
 20
61.98695792337261
 30
0.0
 10
232.8300149649315
 20
61.66781343862418
 30
0.0
 10
232.5876693771727
 20
61.33849347305134
 30
0.0
 10
232.2077315144465
 20
60.99955275149447
 30
0.0
 10
231.6939255612878
 20
60.66171428708407
 30
0.0
 10
231.0680347503773
 20
60.33581638577507
 30
0.0
 10
230.3545637638887
 20
60.03916949253509
 30
0.0
 10
229.5906612876237
 20
59.78306618409645
 30
0.0
 10
228.8048682047198
 20
59.59403861610669
 30
0.0
 10
228.0233307496778
 20
59.48586269405154
 30
0.0
 10
227.267217764924
 20
59.4781988106835
 30
0.0
 10
226.5648531785332
 20
59.57612084607113
 30
0.0
 10
225.9458328314894
 20
59.79776927957258
 30
0.0
 10
225.4367755664768
 20
60.13363736648371
 30
0.0
 10
225.0638319730431
 20
60.573447932665
 30
0.0
 10
224.8352300217955
 20
61.08452257318758
 30
0.0
 10
224.7663837150758
 20
61.63570766095084
 30
0.0
 10
224.8510001283009
 20
62.19337958926231
 30
0.0
 10
225.0941089182365
 20
62.72345973018206
 30
0.0
 10
225.4762387610532
 20
63.19598407929507
 30
0.0
 10
225.9923743354668
 20
63.5821055901888
 30
0.0
 10
226.6193521959679
 20
63.8657297775211
 30
0.0
 10
227.3352596283343
 20
64.03546699624752
 30
0.0
 10
228.1037030205178
 20
64.09700583095805
 30
0.0
 10
228.6352317998903
 20
64.06864547870242
 30
0.0
 10
228.8997204307572
 20
64.03993699525546
 30
0.0
  0
LINE
  5
1E0
330
1F
100
AcDbEntity
  8
0
  6
Continuous
 62
     7
370
    25
100
AcDbLine
 10
219.6751830177
 20
47.6008103779
 30
0.0
 11
219.9892280763
 21
47.4326661507
 31
0.0
  0
LINE
  5
1E1
330
1F
100
AcDbEntity
  8
0
  6
Continuous
 62
     7
370
    25
100
AcDbLine
 10
218.6882249978
 20
48.1705691151
 30
0.0
 11
219.6751830177
 21
47.6008103779
 31
0.0
  0
ARC
  5
1E2
330
1F
100
AcDbEntity
  8
0
  6
Continuous
 62
     7
370
    25
100
AcDbCircle
 10
220.9091949086
 20
51.7640498792
 30
0.0
 40
4.484274790564974
100
AcDbArc
 50
267.6840627222
 51
286.9866336569
  0
SPLINE
  5
1E3
330
1F
100
AcDbEntity
  8
0
  6
Continuous
 62
     7
370
    25
100
AcDbSpline
210
0.0
220
0.0
230
1.0
 70
     8
 71
     3
 72
    13
 73
     9
 74
     0
 42
0.000000001
 43
0.00000001
 40
0.0
 40
0.0
 40
0.0
 40
0.0
 40
0.142593677630432
 40
0.3741076934871868
 40
0.4908300786259419
 40
0.6075221810614941
 40
0.8194021152148097
 40
1.0
 40
1.0
 40
1.0
 40
1.0
 10
230.2382263890566
 20
61.03744127991974
 30
0.0
 10
230.0469749412211
 20
61.14246580491979
 30
0.0
 10
229.5452090900644
 20
61.41800735388794
 30
0.0
 10
228.7389687489936
 20
61.75248342825684
 30
0.0
 10
227.9259987210451
 20
61.9856654922424
 30
0.0
 10
227.1334476441243
 20
62.1313786106733
 30
0.0
 10
226.2203326644336
 20
62.16532719246505
 30
0.0
 10
225.6424543612002
 20
61.95915109094277
 30
0.0
 10
225.3765448137271
 20
61.86427956946702
 30
0.0
  0
SPLINE
  5
1E4
330
1F
100
AcDbEntity
  8
0
  6
Continuous
 62
     7
370
    25
100
AcDbSpline
210
0.0
220
0.0
230
1.0
 70
     8
 71
     3
 72
    10
 73
     6
 74
     0
 42
0.000000001
 43
0.00000001
 40
0.0
 40
0.0
 40
0.0
 40
0.0
 40
0.3798174073072795
 40
0.9603711649033085
 40
1.0
 40
1.0
 40
1.0
 40
1.0
 10
231.378106510916
 20
60.50921435240125
 30
0.0
 10
231.2484538936677
 20
60.57954291423862
 30
0.0
 10
230.9206262779132
 20
60.75736921065975
 30
0.0
 10
230.512697732903
 20
60.93042206106215
 30
0.0
 10
230.2560649514711
 20
61.02962749331046
 30
0.0
 10
230.2396664612594
 20
61.03596658725083
 30
0.0
  0
SPLINE
  5
1E5
330
1F
100
AcDbEntity
  8
0
  6
Continuous
 62
     7
370
    25
100
AcDbSpline
210
0.0
220
0.0
230
1.0
 70
     8
 71
     3
 72
    24
 73
    20
 74
     0
 42
0.000000001
 43
0.00000001
 40
0.0
 40
0.0
 40
0.0
 40
0.0
 40
0.0618858212107145
 40
0.1150115607194259
 40
0.1593831488268445
 40
0.2428114970815824
 40
0.318331853291959
 40
0.3935543804326023
 40
0.4204843226990471
 40
0.4483397435477174
 40
0.4771286702554668
 40
0.5451537905345539
 40
0.6363475754294583
 40
0.6968782859867285
 40
0.7498596693403015
 40
0.7959701295389731
 40
0.8771179302751783
 40
0.9543004207779655
 40
1.0
 40
1.0
 40
1.0
 40
1.0
 10
228.8448418637549
 20
63.4660790952987
 30
0.0
 10
228.6608850744187
 20
63.48497366026465
 30
0.0
 10
228.3190110064565
 20
63.52008822064916
 30
0.0
 10
227.8547930334797
 20
63.51359767226189
 30
0.0
 10
227.3453314212067
 20
63.46587347946458
 30
0.0
 10
226.8062363218321
 20
63.34125688129766
 30
0.0
 10
226.2633983371085
 20
63.09876659735467
 30
0.0
 10
225.9230053216134
 20
62.84139384672876
 30
0.0
 10
225.7163786130624
 20
62.62658674622994
 30
0.0
 10
225.5983945568514
 20
62.48008339493097
 30
0.0
 10
225.4462241526603
 20
62.25033257071051
 30
0.0
 10
225.2795435140807
 20
61.87738987528349
 30
0.0
 10
225.2111819332434
 20
61.41483082259061
 30
0.0
 10
225.2615373968629
 20
60.98649812438877
 30
0.0
 10
225.3669665403781
 20
60.6665712307444
 30
0.0
 10
225.5491658670641
 20
60.32610571555121
 30
0.0
 10
225.8500442921346
 20
59.99015745869612
 30
0.0
 10
226.2397291867331
 20
59.7170981579811
 30
0.0
 10
226.5326481429275
 20
59.6231430870538
 30
0.0
 10
226.6415840769838
 20
59.58820139688884
 30
0.0
  0
SPLINE
  5
1E6
330
1F
100
AcDbEntity
  8
0
  6
Continuous
 62
     7
370
    25
100
AcDbSpline
210
0.0
220
0.0
230
1.0
 70
     8
 71
     3
 72
    22
 73
    18
 74
     0
 42
0.000000001
 43
0.00000001
 40
0.0
 40
0.0
 40
0.0
 40
0.0
 40
0.0218650684208061
 40
0.0802746115134389
 40
0.1455796857735678
 40
0.2178199108050006
 40
0.2798440642220488
 40
0.333213684150563
 40
0.3779282236712065
 40
0.4139903788059598
 40
0.5172805810658363
 40
0.6093596442968543
 40
0.7028122109453192
 40
0.7526256062128529
 40
0.8045400461576365
 40
0.8937362057628156
 40
1.0
 40
1.0
 40
1.0
 40
1.0
 10
232.1499936903941
 20
60.98904637572087
 30
0.0
 10
232.1730556099813
 20
61.01080327426087
 30
0.0
 10
232.257724297039
 20
61.09068075483498
 30
0.0
 10
232.3642641041481
 20
61.23274606827757
 30
0.0
 10
232.4615265194236
 20
61.42152581286054
 30
0.0
 10
232.4925501903303
 20
61.60748970987085
 30
0.0
 10
232.4632036032144
 20
61.77930475810275
 30
0.0
 10
232.3946961254412
 20
61.92611060925443
 30
0.0
 10
232.3068860129489
 20
62.04732168172892
 30
0.0
 10
232.1525941470745
 20
62.21290478653087
 30
0.0
 10
231.8847682454425
 20
62.42306905360127
 30
0.0
 10
231.4331979762834
 20
62.67851285636419
 30
0.0
 10
230.985635370282
 20
62.88514955485896
 30
0.0
 10
230.5767415970496
 20
63.04365377124451
 30
0.0
 10
230.1546619983312
 20
63.18617051924397
 30
0.0
 10
229.5763493804595
 20
63.34942708807019
 30
0.0
 10
229.102470786678
 20
63.42499553799708
 30
0.0
 10
228.8448418637549
 20
63.4660790952987
 30
0.0
  0
LINE
  5
1E7
330
1F
100
AcDbEntity
  8
0
  6
Continuous
 62
     7
370
    25
100
AcDbLine
 10
222.3352721419
 20
48.2189079072
 30
0.0
 11
222.3300340789
 21
48.5149913301
 31
0.0
  0
LINE
  5
1E8
330
1F
100
AcDbEntity
  8
0
  6
Continuous
 62
     7
370
    25
100
AcDbLine
 10
222.3300340789
 20
48.5149913301
 30
0.0
 11
222.3731325242
 21
49.1666334455
 31
0.0
  0
LINE
  5
1E9
330
1F
100
AcDbEntity
  8
0
  6
Continuous
 62
     7
370
    25
100
AcDbLine
 10
221.8504852609
 20
50.9956795476
 30
0.0
 11
221.5390707583
 21
51.3242761171
 31
0.0
  0
SPLINE
  5
1EA
330
1F
100
AcDbEntity
  8
0
  6
Continuous
 62
     7
370
    25
100
AcDbSpline
210
0.0
220
0.0
230
1.0
 70
     8
 71
     3
 72
    19
 73
    15
 74
     0
 42
0.000000001
 43
0.00000001
 40
0.0
 40
0.0
 40
0.0
 40
0.0
 40
0.0210492621018804
 40
0.1455865440207667
 40
0.2712169722633744
 40
0.3929514297049947
 40
0.5136082229787104
 40
0.6366369099308349
 40
0.699422462668311
 40
0.7643939711952468
 40
0.8122544601557282
 40
0.8606584764820763
 40
0.9188817427801165
 40
1.0
 40
1.0
 40
1.0
 40
1.0
 10
225.2555973114126
 20
61.21132914784089
 30
0.0
 10
225.2481287364267
 20
61.2660894947463
 30
0.0
 10
225.196472577855
 20
61.64483767208144
 30
0.0
 10
225.4392434725146
 20
62.25498858089562
 30
0.0
 10
226.0235739399296
 20
62.94436228413517
 30
0.0
 10
226.9297003075698
 20
63.36166183436724
 30
0.0
 10
228.0040464360319
 20
63.48208779205589
 30
0.0
 10
228.9579803051276
 20
63.32138824846828
 30
0.0
 10
229.6926428476968
 20
63.02402214962649
 30
0.0
 10
230.1654460871692
 20
62.72636407222179
 30
0.0
 10
230.5224162572887
 20
62.35545226744443
 30
0.0
 10
230.7172643987969
 20
61.92313097213685
 30
0.0
 10
230.746293429041
 20
61.4201896409117
 30
0.0
 10
230.6839198274207
 20
61.08644462833651
 30
0.0
 10
230.6476087714466
 20
60.89215355778965
 30
0.0
  0
SPLINE
  5
1EB
330
1F
100
AcDbEntity
  8
0
  6
Continuous
 62
     7
370
    25
100
AcDbSpline
210
0.0
220
0.0
230
1.0
 70
     8
 71
     3
 72
    10
 73
     6
 74
     0
 42
0.000000001
 43
0.00000001
 40
0.0
 40
0.0
 40
0.0
 40
0.0
 40
0.2951159131513291
 40
0.980370128506265
 40
1.0
 40
1.0
 40
1.0
 40
1.0
 10
230.6503366274348
 20
60.89091500436727
 30
0.0
 10
230.7331607756037
 20
60.852150006195
 30
0.0
 10
231.0083012108204
 20
60.72337333050215
 30
0.0
 10
231.2833060428965
 20
60.58213695581994
 30
0.0
 10
231.4318331226881
 20
60.48811348707945
 30
0.0
 10
231.4359693594738
 20
60.48549508691521
 30
0.0
  0
ARC
  5
1EC
330
1F
100
AcDbEntity
  8
0
  6
Continuous
 62
     7
370
    25
100
AcDbCircle
 10
234.6604451928
 20
46.677696012
 30
0.0
 40
12.46654291792371
100
AcDbArc
 50
171.5249863735
 51
179.8211981812
  0
SPLINE
  5
1ED
330
1F
100
AcDbEntity
  8
0
  6
Continuous
 62
     7
370
    25
100
AcDbSpline
210
0.0
220
0.0
230
1.0
 70
     8
 71
     3
 72
    14
 73
    10
 74
     0
 42
0.000000001
 43
0.00000001
 40
0.0
 40
0.0
 40
0.0
 40
0.0
 40
0.0003951393068452
 40
0.0003951393068452
 40
0.0003951393068452
 40
0.0008163352168296
 40
0.0008163352168296
 40
0.0008163352168296
 40
0.0012378579336484
 40
0.0012378579336484
 40
0.0012378579336484
 40
0.0012378579336484
 10
230.2422589645965
 20
61.03616232653532
 30
0.0
 10
230.2877207788264
 20
61.02172546391095
 30
0.0
 10
230.3326083834461
 20
61.00685960334604
 30
0.0
 10
230.3768920761199
 20
60.99157581574126
 30
0.0
 10
230.4240953683537
 20
60.97528437640573
 30
0.0
 10
230.4706211814075
 20
60.95851489832407
 30
0.0
 10
230.5164320906439
 20
60.94128608753111
 30
0.0
 10
230.5622784786277
 20
60.92404393370181
 30
0.0
 10
230.607417714195
 20
60.90633822749973
 30
0.0
 10
230.6518112722325
 20
60.88819537081145
 30
0.0
  0
LINE
  5
1EE
330
1F
100
AcDbEntity
  8
0
  6
Continuous
 62
     7
370
    25
100
AcDbLine
 10
221.5390707583
 20
51.3242761171
 30
0.0
 11
220.8991340839
 21
51.7365077572
 31
0.0
  0
LINE
  5
1EF
330
1F
100
AcDbEntity
  8
0
  6
Continuous
 62
     7
370
    25
100
AcDbLine
 10
220.5931999888
 20
52.107986144
 30
0.0
 11
220.8991340839
 21
51.7365077572
 31
0.0
  0
SPLINE
  5
1F0
330
1F
100
AcDbEntity
  8
0
  6
Continuous
 62
     7
370
    25
100
AcDbSpline
210
0.0
220
0.0
230
1.0
 70
     8
 71
     3
 72
    13
 73
     9
 74
     0
 42
0.000000001
 43
0.00000001
 40
0.0
 40
0.0
 40
0.0
 40
0.0
 40
0.1618542299052077
 40
0.3254858841874489
 40
0.4910085196967187
 40
0.6585318473110602
 40
0.828161695440384
 40
1.0
 40
1.0
 40
1.0
 40
1.0
 10
220.8991344955747
 20
51.7365077611055
 30
0.0
 10
220.8795571035548
 20
51.7490707381402
 30
0.0
 10
220.8401873277053
 20
51.77433465426127
 30
0.0
 10
220.7786513879307
 20
51.8070283511781
 30
0.0
 10
220.71509472868
 20
51.83597442488504
 30
0.0
 10
220.6494766260248
 20
51.86048679234926
 30
0.0
 10
220.5820493569744
 20
51.88092185570042
 30
0.0
 10
220.5361647567794
 20
51.89051851068874
 30
0.0
 10
220.5130740766067
 20
51.89534787152269
 30
0.0
  0
SPLINE
  5
1F1
330
1F
100
AcDbEntity
  8
0
  6
Continuous
 62
     7
370
    25
100
AcDbSpline
210
0.0
220
0.0
230
1.0
 70
     8
 71
     3
 72
     9
 73
     5
 74
     0
 42
0.000000001
 43
0.00000001
 40
0.0
 40
0.0
 40
0.0
 40
0.0
 40
0.4907282259505859
 40
1.0
 40
1.0
 40
1.0
 40
1.0
 10
220.5130682493148
 20
51.89531987449168
 30
0.0
 10
220.4889747268369
 20
51.9034154067098
 30
0.0
 10
220.4398772402777
 20
51.91991238363109
 30
0.0
 10
220.3891765464575
 20
51.93470605264731
 30
0.0
 10
220.3633561141702
 20
51.94224005071192
 30
0.0
  0
SPLINE
  5
1F2
330
1F
100
AcDbEntity
  8
0
  6
Continuous
 62
     7
370
    25
100
AcDbSpline
210
0.0
220
0.0
230
1.0
 70
     8
 71
     3
 72
    14
 73
    10
 74
     0
 42
0.000000001
 43
0.00000001
 40
0.0
 40
0.0
 40
0.0
 40
0.0
 40
0.0310276388063898
 40
0.0622853718665477
 40
0.1248003166898006
 40
0.2498289731748368
 40
0.4998892603607338
 40
0.7606803622944698
 40
1.0
 40
1.0
 40
1.0
 40
1.0
 10
219.7794154248818
 20
52.31634779335776
 30
0.0
 10
219.7854076642861
 20
52.31251674970423
 30
0.0
 10
219.7974365802453
 20
52.30482625220665
 30
0.0
 10
219.8214963882943
 20
52.28938836270003
 30
0.0
 10
219.8637300609406
 20
52.26231790976918
 30
0.0
 10
219.948292635453
 20
52.2081058849738
 30
0.0
 10
220.0715796049465
 20
52.12910270309154
 30
0.0
 10
220.2177113114064
 20
52.03549652841595
 30
0.0
 10
220.3160779279443
 20
51.97251345202226
 30
0.0
 10
220.3631496286023
 20
51.94237395324848
 30
0.0
  0
LINE
  5
1F3
330
1F
100
AcDbEntity
  8
0
  6
Continuous
 62
     7
370
    25
100
AcDbLine
 10
217.9769152696
 20
53.4789784704
 30
0.0
 11
218.2678826238
 21
53.2908999312
 31
0.0
  0
SPLINE
  5
1F4
330
1F
100
AcDbEntity
  8
0
  6
Continuous
 62
     7
370
    25
100
AcDbSpline
210
0.0
220
0.0
230
1.0
 70
     8
 71
     3
 72
     8
 73
     4
 74
     0
 42
0.000000001
 43
0.00000001
 40
0.0
 40
0.0
 40
0.0
 40
0.0
 40
1.0
 40
1.0
 40
1.0
 40
1.0
 10
218.2992709271772
 20
53.2706774010466
 30
0.0
 10
218.2888284213253
 20
53.277502825944
 30
0.0
 10
218.2783624884355
 20
53.28424579273052
 30
0.0
 10
218.267874723619
 20
53.2909048803835
 30
0.0
  0
SPLINE
  5
1F5
330
1F
100
AcDbEntity
  8
0
  6
Continuous
 62
     7
370
    25
100
AcDbSpline
210
0.0
220
0.0
230
1.0
 70
     8
 71
     3
 72
     8
 73
     4
 74
     0
 42
0.000000001
 43
0.00000001
 40
0.0
 40
0.0
 40
0.0
 40
0.0
 40
1.0
 40
1.0
 40
1.0
 40
1.0
 10
215.5132665483511
 20
55.14893305285713
 30
0.0
 10
215.5722663125218
 20
55.11019238593767
 30
0.0
 10
215.6315538760331
 20
55.07213040863789
 30
0.0
 10
215.6911349495223
 20
55.03474662017712
 30
0.0
  0
SPLINE
  5
1F6
330
1F
100
AcDbEntity
  8
0
  6
Continuous
 62
     7
370
    25
100
AcDbSpline
210
0.0
220
0.0
230
1.0
 70
     8
 71
     3
 72
     8
 73
     4
 74
     0
 42
0.000000001
 43
0.00000001
 40
0.0
 40
0.0
 40
0.0
 40
0.0
 40
1.0
 40
1.0
 40
1.0
 40
1.0
 10
215.4884168022537
 20
55.512143230794
 30
0.0
 10
215.4958910143443
 20
55.39118539008288
 30
0.0
 10
215.5041871182343
 20
55.27011354767295
 30
0.0
 10
215.5132665483532
 20
55.14893305285786
 30
0.0
  0
LWPOLYLINE
  5
1F7
330
1F
100
AcDbEntity
  8
0
  6
Continuous
 62
     7
370
    25
100
AcDbPolyline
 90
       15
 70
   128
 43
0.0
 10
215.4884171611
 20
55.5121425654
 10
215.8820167011
 20
56.6210514043
 10
216.3566850458
 20
57.7218198658
 10
216.9067382973
 20
58.8012662394
 10
217.5255896936
 20
59.8464647948
 10
218.2058289626
 20
60.8449007193
 10
218.9393112258
 20
61.7846176388
 10
219.7172528165
 20
62.6543638081
 10
220.5303387874
 20
63.4437237559
 10
221.3688325578
 20
64.1432454619
 10
222.2226938348
 20
64.7445525375
 10
223.0816982208
 20
65.2404452142
 10
223.9355594978
 20
65.6249853846
 10
224.7740532682
 20
65.8935679793
 10
225.45237963
 20
66.0262502568
  0
SPLINE
  5
1F8
330
1F
100
AcDbEntity
  8
0
  6
Continuous
 62
     7
370
    25
100
AcDbSpline
210
0.0
220
0.0
230
1.0
 70
     8
 71
     3
 72
    10
 73
     6
 74
     0
 42
0.000000001
 43
0.00000001
 40
0.0
 40
0.0
 40
0.0
 40
0.0
 40
0.2409818396634726
 40
0.5031433556203718
 40
1.0
 40
1.0
 40
1.0
 40
1.0
 10
221.5390707582925
 20
44.61843449384018
 30
0.0
 10
221.6213166292954
 20
44.56675797191963
 30
0.0
 10
221.7930368866399
 20
44.45886312522825
 30
0.0
 10
222.0707582456668
 20
44.329140414764
 30
0.0
 10
222.1917354927109
 20
44.35191835586898
 30
0.0
 10
222.2709277336263
 20
44.36682889684772
 30
0.0
  0
LINE
  5
1F9
330
1F
100
AcDbEntity
  8
0
  6
Continuous
 62
     7
370
    25
100
AcDbLine
 10
216.7558967021
 20
54.3475072268
 30
0.0
 11
215.9940179998
 21
54.8381416345
 31
0.0
  0
LINE
  5
1FA
330
1F
100
AcDbEntity
  8
0
  6
Continuous
 62
     7
370
    25
100
AcDbLine
 10
215.9940179998
 20
54.8381416345
 30
0.0
 11
215.5132666795
 21
55.1489330105
 31
0.0
  0
LINE
  5
1FB
330
1F
100
AcDbEntity
  8
0
  6
Continuous
 62
     7
370
    25
100
AcDbLine
 10
220.5931999888
 20
44.3426546929
 30
0.0
 11
220.8991340839
 21
45.030666134
 31
0.0
  0
LINE
  5
1FC
330
1F
100
AcDbEntity
  8
0
  6
Continuous
 62
     7
370
    25
100
AcDbLine
 10
220.8991340839
 20
45.030666134
 30
0.0
 11
221.5390707583
 21
44.6184344938
 31
0.0
  0
SPLINE
  5
1FD
330
1F
100
AcDbEntity
  8
0
  6
Continuous
 62
     7
370
    25
100
AcDbSpline
210
0.0
220
0.0
230
1.0
 70
     8
 71
     3
 72
    13
 73
     9
 74
     0
 42
0.000000001
 43
0.00000001
 40
0.0
 40
0.0
 40
0.0
 40
0.0
 40
0.1722587823584898
 40
0.3421398271275632
 40
0.5097456257942847
 40
0.675182899330312
 40
0.838562619015417
 40
1.0
 40
1.0
 40
1.0
 40
1.0
 10
220.5130625648014
 20
45.31197583935879
 30
0.0
 10
220.5362140887542
 20
45.29385624842366
 30
0.0
 10
220.5821975695063
 20
45.25786717648613
 30
0.0
 10
220.6497385822213
 20
45.20686719306784
 30
0.0
 10
220.715398196908
 20
45.15854251287666
 30
0.0
 10
220.778922268157
 20
45.113111506969
 30
0.0
 10
220.8403526468751
 20
45.07028593921228
 30
0.0
 10
220.8796188138452
 20
45.04382012203934
 30
0.0
 10
220.8991344955747
 20
45.03066634349378
 30
0.0
  0
SPLINE
  5
1FE
330
1F
100
AcDbEntity
  8
0
  6
Continuous
 62
     7
370
    25
100
AcDbSpline
210
0.0
220
0.0
230
1.0
 70
     8
 71
     3
 72
    11
 73
     7
 74
     0
 42
0.000000001
 43
0.00000001
 40
0.0
 40
0.0
 40
0.0
 40
0.0
 40
0.2392845095215635
 40
0.5001120454085677
 40
0.751501091501476
 40
1.0
 40
1.0
 40
1.0
 40
1.0
 10
220.3636821533253
 20
45.35928983157168
 30
0.0
 10
220.3166129213056
 20
45.33097530885138
 30
0.0
 10
220.2182367667094
 20
45.2717970782976
 30
0.0
 10
220.0719395451275
 20
45.1786091778349
 30
0.0
 10
219.9240988015038
 20
45.08323726186224
 30
0.0
 10
219.8278123387814
 20
45.0187020066052
 30
0.0
 10
219.7799474509202
 20
44.9866209365499
 30
0.0
  0
SPLINE
  5
1FF
330
1F
100
AcDbEntity
  8
0
  6
Continuous
 62
     7
370
    25
100
AcDbSpline
210
0.0
220
0.0
230
1.0
 70
     8
 71
     3
 72
     9
 73
     5
 74
     0
 42
0.000000001
 43
0.00000001
 40
0.0
 40
0.0
 40
0.0
 40
0.0
 40
0.5090669353869889
 40
1.0
 40
1.0
 40
1.0
 40
1.0
 10
220.3642531569094
 20
45.3585908773599
 30
0.0
 10
220.3899017315335
 20
45.35109816920002
 30
0.0
 10
220.4402852328789
 20
45.33637965648776
 30
0.0
 10
220.4890927443742
 20
45.31998729863559
 30
0.0
 10
220.5130539655687
 20
45.31193974815899
 30
0.0
  0
LINE
  5
200
330
1F
100
AcDbEntity
  8
0
  6
Continuous
 62
     7
370
    25
100
AcDbLine
 10
222.194171737
 20
46.2824694446
 30
0.0
 11
220.5130557807
 21
45.3119818604
 31
0.0
  0
LINE
  5
201
330
1F
100
AcDbEntity
  8
0
  6
Continuous
 62
     7
370
    25
100
AcDbLine
 10
218.5065681294
 20
46.4358031591
 30
0.0
 11
218.3062724759
 21
45.9346457448
 31
0.0
  0
SPLINE
  5
202
330
1F
100
AcDbEntity
  8
0
  6
Continuous
 62
     7
370
    25
100
AcDbSpline
210
0.0
220
0.0
230
1.0
 70
     8
 71
     3
 72
     8
 73
     4
 74
     0
 42
0.000000001
 43
0.00000001
 40
0.0
 40
0.0
 40
0.0
 40
0.0
 40
1.0
 40
1.0
 40
1.0
 40
1.0
 10
218.5061249587692
 20
46.43658691122124
 30
0.0
 10
218.5323002933385
 20
46.4587542881995
 30
0.0
 10
218.558121333304
 20
46.48138642929112
 30
0.0
 10
218.5835788870124
 20
46.50447114938241
 30
0.0
  0
LINE
  5
203
330
1F
100
AcDbEntity
  8
0
  6
Continuous
 62
     7
370
    25
100
AcDbLine
 10
218.5835789827
 20
46.5044710338
 30
0.0
 11
220.363871742
 21
45.3587001486
 31
0.0
  0
LINE
  5
204
330
1F
100
AcDbEntity
  8
0
  6
Continuous
 62
     7
370
    25
100
AcDbLine
 10
222.1939629784
 20
46.3805193798
 30
0.0
 11
222.1059636515
 21
46.4880104481
 31
0.0
  0
LINE
  5
205
330
1F
100
AcDbEntity
  8
0
  6
Continuous
 62
     7
370
    25
100
AcDbLine
 10
220.2775556548
 20
47.4823829511
 30
0.0
 11
218.5835789827
 21
46.5044710338
 31
0.0
  0
LINE
  5
206
330
1F
100
AcDbEntity
  8
0
  6
Continuous
 62
     7
370
    25
100
AcDbLine
 10
220.4202497373
 20
47.4610907894
 30
0.0
 11
220.2779758062
 21
47.4818955736
 31
0.0
  0
LINE
  5
207
330
1F
100
AcDbEntity
  8
0
  6
Continuous
 62
     7
370
    25
100
AcDbLine
 10
222.1060374085
 20
46.4879062817
 30
0.0
 11
220.4202497373
 21
47.4610907894
 31
0.0
  0
LINE
  5
208
330
1F
100
AcDbEntity
  8
0
  6
Continuous
 62
     7
370
    25
100
AcDbLine
 10
222.1939629784
 20
46.4371421988
 30
0.0
 11
222.1059906518
 21
46.487933255
 31
0.0
  0
SPLINE
  5
209
330
1F
100
AcDbEntity
  8
0
  6
Continuous
 62
     7
370
    25
100
AcDbSpline
210
0.0
220
0.0
230
1.0
 70
     8
 71
     3
 72
    19
 73
    15
 74
     0
 42
0.000000001
 43
0.00000001
 40
0.0
 40
0.0
 40
0.0
 40
0.0
 40
0.0637853009096226
 40
0.1289628367612685
 40
0.1955871994238738
 40
0.2637095015333396
 40
0.333377557928126
 40
0.4046360709483682
 40
0.4775268158796784
 40
0.5520888236292854
 40
0.6283585584260098
 40
0.7063700889343436
 40
0.837704180588121
 40
1.0
 40
1.0
 40
1.0
 40
1.0
 10
217.7220558528079
 20
46.60507499857312
 30
0.0
 10
217.742745221812
 20
46.59171585856343
 30
0.0
 10
217.784575544465
 20
46.56470599002366
 30
0.0
 10
217.8450665180573
 20
46.52718402449822
 30
0.0
 10
217.9045507162349
 20
46.491664283408
 30
0.0
 10
217.9626318757055
 20
46.45868415449144
 30
0.0
 10
218.0191639927925
 20
46.42847771822065
 30
0.0
 10
218.0739090475468
 20
46.40136427825843
 30
0.0
 10
218.1266314251402
 20
46.37763266050764
 30
0.0
 10
218.1770730580729
 20
46.35759240706221
 30
0.0
 10
218.2249559765407
 20
46.34147254552339
 30
0.0
 10
218.2799201309165
 20
46.32719457584084
 30
0.0
 10
218.3427514448794
 20
46.31705601858862
 30
0.0
 10
218.3812589605383
 20
46.32353026990303
 30
0.0
 10
218.4025429257335
 20
46.32710873341288
 30
0.0
  0
LINE
  5
20A
330
1F
100
AcDbEntity
  8
0
  6
Continuous
 62
     7
370
    25
100
AcDbLine
 10
218.4271786134
 20
46.3531791877
 30
0.0
 11
218.5059826834
 21
46.4365707914
 31
0.0
  0
SPLINE
  5
20B
330
1F
100
AcDbEntity
  8
0
  6
Continuous
 62
     7
370
    25
100
AcDbSpline
210
0.0
220
0.0
230
1.0
 70
     8
 71
     3
 72
     9
 73
     5
 74
     0
 42
0.000000001
 43
0.00000001
 40
0.0
 40
0.0
 40
0.0
 40
0.0
 40
0.5232016984460688
 40
1.0
 40
1.0
 40
1.0
 40
1.0
 10
220.1113778751223
 20
47.386450730306
 30
0.0
 10
220.0423537124737
 20
47.4114928954225
 30
0.0
 10
219.9104272243648
 20
47.45935620548222
 30
0.0
 10
219.6689898115461
 20
47.59695433616889
 30
0.0
 10
219.5538728631826
 20
47.66256089117729
 30
0.0
  0
LINE
  5
20C
330
1F
100
AcDbEntity
  8
0
  6
Continuous
 62
     7
370
    25
100
AcDbLine
 10
215.8243716662
 20
47.4284504538
 30
0.0
 11
216.2758427805
 21
47.5407144267
 31
0.0
  0
LINE
  5
20D
330
1F
100
AcDbEntity
  8
0
  6
Continuous
 62
     7
370
    25
100
AcDbLine
 10
216.2758427805
 20
47.5407144267
 30
0.0
 11
217.7220552523
 21
46.6050750937
 31
0.0
  0
SPLINE
  5
20E
330
1F
100
AcDbEntity
  8
0
  6
Continuous
 62
     7
370
    25
100
AcDbSpline
210
0.0
220
0.0
230
1.0
 70
     8
 71
     3
 72
     8
 73
     4
 74
     0
 42
0.000000001
 43
0.00000001
 40
0.0
 40
0.0
 40
0.0
 40
0.0
 40
1.0
 40
1.0
 40
1.0
 40
1.0
 10
215.9951602368247
 20
47.03370080078979
 30
0.0
 10
215.9380349679014
 20
47.16548698458372
 30
0.0
 10
215.8811064761845
 20
47.29707120624281
 30
0.0
 10
215.8243723582358
 20
47.42845027314247
 30
0.0
  0
LINE
  5
20F
330
1F
100
AcDbEntity
  8
0
  6
Continuous
 62
     7
370
    25
100
AcDbLine
 10
217.6135442396
 20
48.3129530414
 30
0.0
 11
216.2758427805
 21
47.5407144267
 31
0.0
  0
LINE
  5
210
330
1F
100
AcDbEntity
  8
0
  6
Continuous
 62
     7
370
    25
100
AcDbLine
 10
218.5965727244
 20
48.2151996386
 30
0.0
 11
217.6135442396
 21
48.3129530414
 31
0.0
  0
LINE
  5
211
330
1F
100
AcDbEntity
  8
0
  6
Continuous
 62
     7
370
    25
100
AcDbLine
 10
219.5538728632
 20
47.6625608912
 30
0.0
 11
218.5965717366
 21
48.2151990683
 31
0.0
  0
SPLINE
  5
212
330
1F
100
AcDbEntity
  8
0
  6
Continuous
 62
     7
370
    25
100
AcDbSpline
210
0.0
220
0.0
230
1.0
 70
     8
 71
     3
 72
     8
 73
     4
 74
     0
 42
0.000000001
 43
0.00000001
 40
0.0
 40
0.0
 40
0.0
 40
0.0
 40
1.0
 40
1.0
 40
1.0
 40
1.0
 10
215.8243723582358
 20
47.42845027314247
 30
0.0
 10
215.8212350204857
 20
47.46366658001499
 30
0.0
 10
215.8192426165878
 20
47.49931083624269
 30
0.0
 10
215.8184612192157
 20
47.53540773823757
 30
0.0
  0
LINE
  5
213
330
1F
100
AcDbEntity
  8
0
  6
Continuous
 62
     7
370
    25
100
AcDbLine
 10
216.6295476943
 20
48.0036374529
 30
0.0
 11
215.8184618878
 21
47.5354075833
 31
0.0
  0
SPLINE
  5
214
330
1F
100
AcDbEntity
  8
0
  6
Continuous
 62
     7
370
    25
100
AcDbSpline
210
0.0
220
0.0
230
1.0
 70
     8
 71
     3
 72
     8
 73
     4
 74
     0
 42
0.000000001
 43
0.00000001
 40
0.0000004089325119
 40
0.0000004089325119
 40
0.0000004089325119
 40
0.0000004089325119
 40
0.0015399868451459
 40
0.0015399868451459
 40
0.0015399868451459
 40
0.0015399868451459
 10
216.6295467517045
 20
48.00363744959368
 30
0.0
 10
216.8680233197277
 20
48.09801383541004
 30
0.0
 10
217.1064702773964
 20
48.19244244734024
 30
0.0
 10
217.3448790162467
 20
48.2869358303027
 30
0.0
  0
LINE
  5
215
330
1F
100
AcDbEntity
  8
0
  6
Continuous
 62
     7
370
    25
100
AcDbLine
 10
217.3448784952
 20
48.2869359774
 30
0.0
 11
217.369274935
 21
48.2919300038
 31
0.0
  0
LINE
  5
216
330
1F
100
AcDbEntity
  8
0
  6
Continuous
 62
     7
370
    25
100
AcDbLine
 10
217.6135442396
 20
48.3129530414
 30
0.0
 11
217.3692755936
 21
48.2919300038
 31
0.0
  0
SPLINE
  5
217
330
1F
100
AcDbEntity
  8
0
  6
Continuous
 62
     7
370
    25
100
AcDbSpline
210
0.0
220
0.0
230
1.0
 70
     8
 71
     3
 72
     8
 73
     4
 74
     0
 42
0.000000001
 43
0.00000001
 40
0.0
 40
0.0
 40
0.0
 40
0.0
 40
1.0
 40
1.0
 40
1.0
 40
1.0
 10
218.5965709307548
 20
48.21519982288967
 30
0.0
 10
218.627178964878
 20
48.20025981508355
 30
0.0
 10
218.6577304658499
 20
48.18538285769017
 30
0.0
 10
218.6882244039645
 20
48.17056929400925
 30
0.0
  0
LWPOLYLINE
  5
218
330
1F
100
AcDbEntity
  8
0
  6
Continuous
 62
     7
370
    25
100
AcDbPolyline
 90
        3
 70
   128
 43
0.0
 10
222.236344063
 20
47.7036497522
 10
221.7618143831
 20
47.5056874465
 10
221.0249597135
 20
47.2796451146
  0
LWPOLYLINE
  5
219
330
1F
100
AcDbEntity
  8
0
  6
Continuous
 62
     7
370
    18
100
AcDbPolyline
 90
       20
 70
   128
 43
0.0
 10
267.2668386665
 20
37.9797436887
 10
267.3679937371
 20
38.2733789576
 10
267.6149505618
 20
38.8089360158
 10
267.9292922947
 20
39.3129011149
 10
268.296322198
 20
39.761710315
 10
268.6988772849
 20
40.134377116
 10
269.1181343775
 20
40.4134759463
 10
269.5344899231
 20
40.5859568206
 10
269.9284760288
 20
40.6437549557
 10
270.2816692535
 20
40.5841669236
 10
270.5775552765
 20
40.4099795644
 10
270.8022987364
 20
40.129337593
 10
270.9453912384
 20
39.7553637352
 10
271.0001413117
 20
39.3055441977
 10
270.9639898524
 20
38.80091262
 10
270.8386260271
 20
38.2650642545
 10
270.6299121991
 20
37.7230551677
 10
270.347607998
 20
37.2002291987
 10
270.0049132898
 20
36.7210330401
 10
269.7947506639
 20
36.4825685558
  0
LWPOLYLINE
  5
21A
330
1F
100
AcDbEntity
  8
0
  6
Continuous
 62
     7
370
    18
100
AcDbPolyline
 90
       12
 70
   128
 43
0.0
 10
266.9561887341
 20
38.1590775353
 10
266.9665766152
 20
38.1904569667
 10
267.1990961686
 20
38.7607635907
 10
267.505048703
 20
39.3081075161
 10
267.8710631307
 20
39.808567451
 10
268.2811420886
 20
40.2402703715
 10
268.7173639463
 20
40.5843493541
 10
269.1606625233
 20
40.8257659428
 10
269.5916647573
 20
40.9539693921
 10
269.991533641
 20
40.9633570483
 10
270.342792062
 20
40.8535176198
 10
270.3800360466
 20
40.8330118554
  0
LWPOLYLINE
  5
21B
330
1F
100
AcDbEntity
  8
0
  6
Continuous
 62
     7
370
    18
100
AcDbPolyline
 90
       30
 70
   128
 43
0.0
 10
253.6481738028
 20
26.9995794336
 10
253.2279032102
 20
26.7724579568
 10
252.8203438436
 20
26.656639868
 10
252.444551347
 20
26.6575401563
 10
252.1180976635
 20
26.7751168684
 10
251.8562478548
 20
27.0038724214
 10
251.6712449218
 20
27.3331100885
 10
251.5717408223
 20
27.7474358396
 10
251.5623868561
 20
28.2274755072
 10
251.6436209553
 20
28.7507832394
 10
251.8116446353
 20
29.2928897762
 10
252.05860146
 20
29.8284468344
 10
252.3729431929
 20
30.3324119335
 10
252.7399730962
 20
30.7812211336
 10
253.1425281831
 20
31.1538879346
 10
253.5617852757
 20
31.4329867649
 10
253.9781408213
 20
31.6054676393
 10
254.3721262684
 20
31.6632653942
 10
254.7253201517
 20
31.6036777423
 10
255.0212061747
 20
31.429490383
 10
255.2459496346
 20
31.1488484116
 10
255.3890421366
 20
30.7748745539
 10
255.4437922099
 20
30.3250550163
 10
255.407640092
 20
29.8204230584
 10
255.2822769253
 20
29.2845750731
 10
255.0735630973
 20
28.7425659863
 10
254.7912588962
 20
28.2197400173
 10
254.4485635295
 20
27.7405434786
 10
254.0615026778
 20
27.3273838067
 10
253.6481738028
 20
26.9995794336
  0
LWPOLYLINE
  5
21C
330
1F
100
AcDbEntity
  8
0
  6
Continuous
 62
     7
370
    18
100
AcDbPolyline
 90
       17
 70
   128
 43
0.0
 10
251.8230749923
 20
26.6567242243
 10
251.5721655835
 20
26.8609783474
 10
251.3613859014
 20
27.1898680976
 10
251.2363368604
 20
27.6090087162
 10
251.2024824043
 20
28.1000811435
 10
251.2613029412
 20
28.6416235341
 10
251.4102268548
 20
29.2099674051
 10
251.6427470668
 20
29.7802744093
 10
251.9486996012
 20
30.3276183347
 10
252.3147140289
 20
30.8280782696
 10
252.7247929868
 20
31.2597811901
 10
253.1610141859
 20
31.6038597925
 10
253.6043134215
 20
31.8452767614
 10
254.0353156554
 20
31.9734802108
 10
254.4351845392
 20
31.9828678669
 10
254.7864429602
 20
31.8730284384
 10
254.8236869448
 20
31.852522674
  0
LWPOLYLINE
  5
21D
330
1F
100
AcDbEntity
  8
0
  6
Continuous
 62
     7
370
    18
100
AcDbPolyline
 90
       37
 70
   128
 43
0.0
 10
274.7482872208
 20
29.2956916413
 10
274.7031686902
 20
29.8651667525
 10
274.5691835295
 20
30.3652456059
 10
274.3504030255
 20
30.7807336284
 10
274.0534746911
 20
31.0990065598
 10
273.6874205861
 20
31.3103937926
 10
273.2633630333
 20
31.4084724592
 10
272.7941868675
 20
31.3902624748
 10
272.2941476429
 20
31.2563170931
 10
271.7784388457
 20
31.0107059553
 10
271.2627300485
 20
30.6608923898
 10
270.7626908239
 20
30.2175047717
 10
270.2935146582
 20
29.6940154855
 10
269.8694571053
 20
29.1063303899
 10
269.5034030003
 20
28.4723060836
 10
269.2064746659
 20
27.8112069945
 10
268.9876941619
 20
27.1431203788
 10
268.8537090012
 20
26.4883455517
 10
268.8085904706
 20
25.8667776939
 10
268.8537090012
 20
25.2973025828
 10
268.9876941619
 20
24.7972237294
 10
269.2064746659
 20
24.3817357069
 10
269.5034030003
 20
24.0634627755
 10
269.8694571053
 20
23.8520755427
 10
270.2935146582
 20
23.7539968761
 10
270.7626908239
 20
23.7722068605
 10
271.2627300485
 20
23.9061522422
 10
271.7784388457
 20
24.15176338
 10
272.2941476429
 20
24.5015769455
 10
272.7941868675
 20
24.9449645636
 10
273.2633630333
 20
25.4684538498
 10
273.6874205861
 20
26.0561389453
 10
274.0534746911
 20
26.6901632517
 10
274.3504030255
 20
27.3512623407
 10
274.5691835295
 20
28.0193489565
 10
274.7031686902
 20
28.6741237836
 10
274.7482872208
 20
29.2956916413
  0
LWPOLYLINE
  5
21E
330
1F
100
AcDbEntity
  8
0
  6
Continuous
 62
     7
370
    18
100
AcDbPolyline
 90
       21
 70
   128
 43
0.0
 10
269.3406461947
 20
23.792826852
 10
269.2690556566
 20
23.8350385946
 10
268.9300043459
 20
24.1242018222
 10
268.6667946428
 20
24.5163403884
 10
268.486998492
 20
25.0001734465
 10
268.3957884312
 20
25.561781949
 10
268.3957884312
 20
26.1850094255
 10
268.486998492
 20
26.8519268225
 10
268.6667946428
 20
27.5433480978
 10
268.9300043459
 20
28.2393821186
 10
269.2690556566
 20
28.920005657
 10
269.6741947074
 20
29.5656379939
 10
270.1337662485
 20
30.1577059169
 10
270.6345495049
 20
30.6791762026
 10
271.1621376219
 20
31.1150474822
 10
271.7013529389
 20
31.4527802791
 10
272.2366831727
 20
31.6826590801
 10
272.7527278687
 20
31.7980698376
 10
273.2346414377
 20
31.7956933717
 10
273.6685598714
 20
31.6755975236
 10
273.8366978088
 20
31.5888195848
  0
LWPOLYLINE
  5
21F
330
1F
100
AcDbEntity
  8
0
  6
Continuous
 62
     7
370
    18
100
AcDbPolyline
 90
       34
 70
   128
 43
0.0
 10
249.0803115321
 20
29.1732300623
 10
249.1241212055
 20
30.2766364088
 10
249.25516366
 20
31.4209267508
 10
249.4722884185
 20
32.5960455006
 10
249.7735870189
 20
33.7916652757
 10
250.1564114537
 20
34.9972793892
 10
250.6173978777
 20
36.2022930075
 10
251.1524942664
 20
37.3961155441
 10
251.7569992706
 20
38.5682564742
 10
252.4256004117
 20
39.708414686
 10
253.1524208387
 20
40.8065701112
 10
253.9310739867
 20
41.8530723146
 10
254.7547172492
 20
42.8387247099
 10
255.6161119049
 20
43.7548655436
 10
256.5076884786
 20
44.5934436498
 10
257.421611443
 20
45.3470900228
 10
258.3498492718
 20
46.009180311
 10
259.2842446152
 20
46.5738966218
 10
260.2165859582
 20
47.0362764934
 10
261.1386798137
 20
47.3922568521
 10
262.0424229971
 20
47.6387081318
 10
262.9198729679
 20
47.7734657545
 10
263.763318993
 20
47.7953445971
 10
264.5653488248
 20
47.7041531481
 10
265.3189140613
 20
47.5006916954
 10
266.0173920497
 20
47.1867492793
 10
266.6546451552
 20
46.7650846744
 10
267.2250731153
 20
46.2394033815
 10
267.7236624306
 20
45.6143245424
 10
268.1460324631
 20
44.8953425323
 10
268.4884703389
 20
44.0887748648
 10
268.7479671681
 20
43.2017099068
 10
268.9222424111
 20
42.2419431872
 10
268.9849483606
 20
41.6383795797
  0
LWPOLYLINE
  5
220
330
1F
100
AcDbEntity
  8
0
  6
Continuous
 62
     7
370
    18
100
AcDbPolyline
 90
       21
 70
   128
 43
0.0
 10
261.8659531546
 20
25.5095733805
 10
261.1386798137
 20
24.876498946
 10
260.2165859582
 20
24.1678524005
 10
259.2842446152
 20
23.5537738705
 10
258.3498492718
 20
23.0396602814
 10
257.421611443
 20
22.6300299847
 10
256.5076884786
 20
22.3284833634
 10
255.6161119049
 20
22.1376690688
 10
254.7547172492
 20
22.0592648026
 10
253.9310739867
 20
22.0939589287
 10
253.1524208387
 20
22.2414473434
 10
252.4256004117
 20
22.5004337659
 10
251.7569992706
 20
22.8686415314
 10
251.1524942664
 20
23.34283584
 10
250.6173978777
 20
23.9188492366
 10
250.1564114537
 20
24.5916192589
 10
249.7735870189
 20
25.3552336882
 10
249.4722884185
 20
26.202981504
 10
249.25516366
 20
27.1274133436
 10
249.1241212055
 20
28.1204052881
 10
249.0803115321
 20
29.1732300623
  0
LWPOLYLINE
  5
221
330
1F
100
AcDbEntity
  8
0
  6
Continuous
 62
     7
370
    18
100
AcDbPolyline
 90
       24
 70
   128
 43
0.0
 10
248.514625751
 20
29.1732308227
 10
248.5596774393
 20
30.307939036
 10
248.6944380362
 20
31.4846918592
 10
248.9177221614
 20
32.6931472032
 10
249.227568011
 20
33.9226854829
 10
249.6212531618
 20
35.1625015365
 10
250.0953169626
 20
36.4016993963
 10
250.6455934608
 20
37.6293892442
 10
251.2672476225
 20
38.8347824668
 10
251.954815504
 20
40.0072855681
 10
252.7022556181
 20
41.1365940825
 10
253.5029979953
 20
42.2127843955
 10
254.3500070755
 20
43.2263994805
 10
255.2358386715
 20
44.1685296922
 10
256.1527079641
 20
45.0308976473
 10
257.0925578258
 20
45.8059227622
 10
258.0471286269
 20
46.4867965319
 10
259.0080316215
 20
47.067533261
 10
259.9668223345
 20
47.5430299189
 10
260.9150749772
 20
47.9091090993
 10
261.8444559569
 20
48.1625523307
 10
262.7467982516
 20
48.3011323658
 10
263.6141718329
 20
48.3236317823
 10
264.2216264579
 20
48.2664936779
  0
ARC
  5
222
330
1F
100
AcDbEntity
  8
0
  6
Continuous
 62
     7
370
    18
100
AcDbCircle
 10
257.1665428335
 20
28.7666317204
 30
0.0
 40
8.661465928563002
100
AcDbArc
 50
177.3093495326
 51
214.9067118215
  0
LWPOLYLINE
  5
223
330
1F
100
AcDbEntity
  8
0
  6
Continuous
 62
     7
370
    18
100
AcDbPolyline
 90
       10
 70
   128
 43
0.0
 10
233.5946729883
 20
37.7863362175
 10
233.6397246766
 20
36.7036435764
 10
233.7744852735
 20
35.6824820264
 10
233.9977693987
 20
34.731825046
 10
234.3076152483
 20
33.8600271695
 10
234.7013003991
 20
33.0747503159
 10
235.1753641999
 20
32.38289487
 10
235.7256406981
 20
31.7905407433
 10
236.3472948598
 20
31.3028941382
 10
236.4831374453
 20
31.2162209418
  0
LWPOLYLINE
  5
224
330
1F
100
AcDbEntity
  8
0
  6
Continuous
 62
     7
370
    18
100
AcDbPolyline
 90
       27
 70
   128
 43
0.0
 10
251.0971317467
 20
56.2630029919
 10
251.012237457
 20
56.3108767735
 10
250.2939445229
 20
56.6337256892
 10
249.5190016146
 20
56.8429587797
 10
248.6942190701
 20
56.9367371771
 10
247.8268454889
 20
56.9142377606
 10
246.9245031942
 20
56.7756577255
 10
245.9951222145
 20
56.5222144941
 10
245.0468695718
 20
56.1561353137
 10
244.0880788587
 20
55.6806386558
 10
243.1271758641
 20
55.0999019267
 10
242.1726050631
 20
54.419028157
 10
241.2327552014
 20
53.6440030422
 10
240.3158859088
 20
52.781635087
 10
239.4300543128
 20
51.8395048753
 10
238.5830452326
 20
50.8258897903
 10
237.7823028554
 20
49.7496994773
 10
237.0348627413
 20
48.6203909629
 10
236.3472948598
 20
47.4478878616
 10
235.7256406981
 20
46.2424946391
 10
235.1753641999
 20
45.0148047911
 10
234.7013003991
 20
43.7756069313
 10
234.3076152483
 20
42.5357908777
 10
233.9977693987
 20
41.306252598
 10
233.7744852735
 20
40.097797254
 10
233.6397246766
 20
38.9210444308
 10
233.5946729883
 20
37.7863362175
  0
LWPOLYLINE
  5
225
330
1F
100
AcDbEntity
  8
0
  6
Continuous
 62
     7
370
    18
100
AcDbPolyline
 90
       23
 70
   128
 43
0.0
 10
261.9850097698
 20
28.0506694849
 10
262.0307127587
 20
28.8149605355
 10
262.1668915311
 20
29.6164605305
 10
262.3907736148
 20
30.4388529533
 10
262.6978015524
 20
31.2653965457
 10
263.0817254273
 20
32.0792651319
 10
263.534729304
 20
32.8638908601
 10
264.0475912544
 20
33.6033008823
 10
264.609871208
 20
34.2824427203
 10
265.2101225085
 20
34.8874911871
 10
265.8361259452
 20
35.4061294989
 10
266.4751377761
 20
35.8277993014
 10
267.114149607
 20
36.1439168547
 10
267.7401530436
 20
36.3480467262
 10
268.3404043442
 20
36.4360336594
 10
268.9026842977
 20
36.4060864373
 10
269.4155462482
 20
36.258814219
 10
269.8685501249
 20
35.997215634
 10
270.2524739998
 20
35.6266161184
 10
270.5595019374
 20
35.1545594373
 10
270.7833840211
 20
34.5906557662
 10
270.9195627935
 20
33.9463844351
 10
270.9652542578
 20
33.2466879456
  0
LWPOLYLINE
  5
226
330
1F
100
AcDbEntity
  8
0
  6
Continuous
 62
     7
370
    18
100
AcDbPolyline
 90
       12
 70
   128
 43
0.0
 10
266.4656198458
 20
25.4522479386
 10
265.8361259452
 20
25.1416135626
 10
265.2101225085
 20
24.937483691
 10
264.609871208
 20
24.8494967578
 10
264.0475912544
 20
24.87944398
 10
263.534729304
 20
25.0267161982
 10
263.0817254273
 20
25.2883147833
 10
262.6978015524
 20
25.6589142988
 10
262.3907736148
 20
26.13097098
 10
262.1668915311
 20
26.694874651
 10
262.0307127587
 20
27.3391459821
 10
261.9850097698
 20
28.0506694849
  0
LWPOLYLINE
  5
227
330
1F
100
AcDbEntity
  8
0
  6
Continuous
 62
     7
370
    18
100
AcDbPolyline
 90
       18
 70
   128
 43
0.0
 10
261.4193246473
 20
28.0506691047
 10
261.4637803528
 20
28.8268358034
 10
261.5963193498
 20
29.639871459
 10
261.8144727548
 20
30.4746308767
 10
262.1141766896
 20
31.3155636847
 10
262.4898483433
 20
32.1470056316
 10
262.9344893633
 20
32.9534673154
 10
263.4398172353
 20
33.7199271393
 10
263.9964185595
 20
34.4321066798
 10
264.593924882
 20
35.076739684
 10
265.2212059773
 20
35.6418178713
 10
265.8665765081
 20
36.1168144185
 10
266.51801458
 20
36.4928816126
 10
267.1633851109
 20
36.7630140198
 10
267.7906662062
 20
36.9221791692
 10
268.3881725286
 20
36.9674122807
 10
268.9447738529
 20
36.8978709502
 10
269.4124089422
 20
36.7333058671
  0
ARC
  5
228
330
1F
100
AcDbEntity
  8
0
  6
Continuous
 62
     7
370
    18
100
AcDbCircle
 10
264.7910691822
 20
27.7146445268
 30
0.0
 40
3.388447096460547
100
AcDbArc
 50
174.308753793
 51
234.379064757
  0
LWPOLYLINE
  5
229
330
1F
100
AcDbEntity
  8
0
  6
Continuous
 62
     7
370
    18
100
AcDbPolyline
 90
       13
 70
   128
 43
0.0
 10
263.8941979639
 20
29.1528203694
 10
263.9381434621
 20
29.725831831
 10
264.068483085
 20
30.3300682525
 10
264.280778572
 20
30.9449533027
 10
264.5678002567
 20
31.5495476966
 10
264.9197740216
 20
32.1232625332
 10
265.3247139451
 20
32.646560982
 10
265.7688301051
 20
33.101622509
 10
266.2369986977
 20
33.4729506797
 10
266.7132768544
 20
33.7479002071
 10
267.1814454471
 20
33.9171079879
 10
267.6255616071
 20
33.9748120647
 10
267.9911951492
 20
33.9299622046
  0
ARC
  5
22A
330
1F
100
AcDbEntity
  8
0
  6
Continuous
 62
     7
370
    18
100
AcDbCircle
 10
265.8923135486
 20
29.0075894721
 30
0.0
 40
2.003386608523131
100
AcDbArc
 50
175.8428278871
 51
221.2742881881
  0
LWPOLYLINE
  5
22B
330
1F
100
AcDbEntity
  8
0
  6
Continuous
 62
     7
370
    18
100
AcDbPolyline
 90
       20
 70
   128
 43
0.0
 10
254.0922632918
 20
32.2747651407
 10
254.1365425074
 20
32.9404312271
 10
254.2723557876
 20
33.773552159
 10
254.4958983916
 20
34.6289333037
 10
254.8030060131
 20
35.4906405026
 10
255.1879582052
 20
36.3426220616
 10
255.6435837476
 20
37.1690072228
 10
256.1613949893
 20
37.9544014013
 10
256.7317467229
 20
38.6841744814
 10
257.3440139912
 20
39.344732665
 10
257.9867912973
 20
39.9237703562
 10
258.6481050467
 20
40.4105011679
 10
259.3156362588
 20
40.7958587341
 10
259.9769500082
 20
41.0726645251
 10
260.6197273143
 20
41.2357617147
 10
261.2319945826
 20
41.2821122722
 10
261.8023463162
 20
41.2108532868
 10
262.3201575579
 20
41.0233112423
 10
262.7757831003
 20
40.722980135
 10
263.1273250246
 20
40.3586916977
  0
ARC
  5
22C
330
1F
100
AcDbEntity
  8
0
  6
Continuous
 62
     7
370
    18
100
AcDbCircle
 10
256.7151614386
 20
31.0460645442
 30
0.0
 40
2.385572760462626
100
AcDbArc
 50
232.7925725091
 51
262.0975431438
  0
LINE
  5
22D
330
1F
100
AcDbEntity
  8
0
  6
Continuous
 62
     7
370
    18
100
AcDbLine
 10
255.6429110444
 20
29.4300741666
 30
0.0
 11
255.4142268542
 21
29.7310412093
 31
0.0
  0
LWPOLYLINE
  5
22E
330
1F
100
AcDbEntity
  8
0
  6
Continuous
 62
     7
370
    18
100
AcDbPolyline
 90
       18
 70
   128
 43
0.0
 10
254.8457923083
 20
31.80037585
 10
254.8513724852
 20
32.3066682183
 10
254.9331561398
 20
33.0859441553
 10
255.1009885126
 20
33.8950638701
 10
255.3517066142
 20
34.7187804023
 10
255.6805863757
 20
35.5415717216
 10
256.0814295761
 20
36.3479329514
 10
256.5466836977
 20
37.1226699916
 10
257.0675812083
 20
37.8511833476
 10
257.6343065019
 20
38.5197449235
 10
258.2361801269
 20
39.1157564674
 10
258.8618605886
 20
39.6279873631
 10
259.4995577588
 20
40.0467845216
 10
260.1372549291
 20
40.364256844
 10
260.7629353908
 20
40.5744212328
 10
261.3648090158
 20
40.6733181847
 10
261.9315343094
 20
40.659083705
 10
261.9774053917
 20
40.6526992122
  0
LWPOLYLINE
  5
22F
330
1F
100
AcDbEntity
  8
0
  6
Continuous
 62
     7
370
    18
100
AcDbPolyline
 90
       18
 70
   128
 43
0.0
 10
254.5427113572
 20
32.1633250149
 10
254.5879573162
 20
32.9366313484
 10
254.7228143898
 20
33.7471259849
 10
254.9446582782
 20
34.5790337957
 10
255.2491702465
 20
35.416162127
 10
255.6304237234
 20
36.2422175718
 10
256.0809982294
 20
37.0411223593
 10
256.592123598
 20
37.7973258466
 10
257.153851362
 20
38.4961099225
 10
257.7552482008
 20
39.1238731183
 10
258.3846086503
 20
39.6683975095
 10
259.0296827642
 20
40.1190839456
 10
259.6779150311
 20
40.4671603164
 10
260.3166882631
 20
40.7058516242
 10
260.9335695412
 20
40.8305124586
 10
261.5165519938
 20
40.8387163826
 10
262.0542883228
 20
40.7303032901
 10
262.386220438
 20
40.5922454675
  0
LWPOLYLINE
  5
230
330
1F
100
AcDbEntity
  8
0
  6
Continuous
 62
     7
370
    18
100
AcDbPolyline
 90
        3
 70
   128
 43
0.0
 10
255.8702498282
 20
29.1733077002
 10
255.6304237234
 20
29.3402784246
 10
255.3844589961
 20
29.5683071005
  0
LINE
  5
231
330
1F
100
AcDbEntity
  8
0
  6
Continuous
 62
     7
370
    18
100
AcDbLine
 10
254.5445437573
 20
32.0136692037
 30
0.0
 11
254.5427113572
 21
32.1633250149
 31
0.0
  0
LWPOLYLINE
  5
232
330
1F
100
AcDbEntity
  8
0
  6
Continuous
 62
     7
370
    18
100
AcDbPolyline
 90
        3
 70
   128
 43
0.0
 10
255.7479535032
 20
29.3114354843
 10
255.7354424747
 20
29.3232424644
 10
255.4093266245
 20
29.7054948319
  0
LWPOLYLINE
  5
233
330
1F
100
AcDbEntity
  8
0
  6
Continuous
 62
     7
370
    18
100
AcDbPolyline
 90
       18
 70
   128
 43
0.0
 10
254.7972615293
 20
31.8677783393
 10
254.8003402249
 20
32.2669676339
 10
254.8744103477
 20
33.0484176501
 10
255.0361604034
 20
33.8615797009
 10
255.2824876595
 20
34.6908531572
 10
255.6086660714
 20
35.5203286285
 10
256.0084378199
 20
36.3340924948
 10
256.4741334956
 20
37.1165324123
 10
256.9968187899
 20
37.8526379669
 10
257.5664655516
 20
38.5282864977
 10
258.1721453992
 20
39.1305158945
 10
258.8022384383
 20
39.6477720852
 10
259.4446562203
 20
40.0701316645
 10
260.0870740023
 20
40.3894918683
 10
260.7171670414
 20
40.5997256155
 10
261.322846889
 20
40.6967992857
 10
261.8924936507
 20
40.6788509064
 10
262.2635770601
 20
40.5980489388
  0
LWPOLYLINE
  5
234
330
1F
100
AcDbEntity
  8
0
  6
Continuous
 62
     7
370
    18
100
AcDbPolyline
 90
       32
 70
   128
 43
0.0
 10
232.1804591941
 20
37.7863362175
 10
232.2245816761
 20
38.9463169813
 10
232.3565935082
 20
40.1479006967
 10
232.5754317995
 20
41.3814133299
 10
232.8793349434
 20
42.6369227354
 10
233.2658557885
 20
43.9043210701
 10
233.7318820536
 20
45.1734032141
 10
234.2736626691
 20
46.4339519399
 10
234.886834119
 20
47.6758173784
 10
235.5664606123
 20
48.889001807
 10
236.3070689856
 20
50.0637356923
 10
237.1026974355
 20
51.1905620969
 10
237.9469399702
 20
52.2604087293
 10
238.832998764
 20
53.264660753
 10
239.7537398044
 20
54.195233216
 10
240.7017501851
 20
55.0446337826
 10
241.6693967166
 20
55.8060224253
 10
242.6488886116
 20
56.4732704253
 10
243.6323396351
 20
57.0410046166
 10
244.6118315302
 20
57.5046538868
 10
245.5794780617
 20
57.8604861487
 10
246.5274884423
 20
58.1056350694
 10
247.4482294827
 20
58.2381275837
 10
248.3342882766
 20
58.2568972677
 10
249.1785308113
 20
58.1617923179
 10
249.9741592611
 20
57.9535789683
 10
250.7147676344
 20
57.6339333098
 10
251.3943941278
 20
57.205428928
 10
252.0075655777
 20
56.6715161763
 10
252.5493461931
 20
56.0364940345
 10
253.0153724582
 20
55.3054743632
 10
253.1288600918
 20
55.09011127
  0
LWPOLYLINE
  5
235
330
1F
100
AcDbEntity
  8
0
  6
Continuous
 62
     7
370
    18
100
AcDbPolyline
 90
       14
 70
   128
 43
0.0
 10
238.6300386394
 20
29.9746942415
 10
237.9469399702
 20
29.9701006937
 10
237.1026974355
 20
30.0652056435
 10
236.3070689856
 20
30.2734189931
 10
235.5664606123
 20
30.5930646516
 10
234.886834119
 20
31.0215690335
 10
234.2736626691
 20
31.5554817851
 10
233.7318820536
 20
32.190503927
 10
233.2658557885
 20
32.9215235983
 10
232.8793349434
 20
33.7426544642
 10
232.5754317995
 20
34.6472847685
 10
232.3565935082
 20
35.6281320887
 10
232.2245816761
 20
36.6772981871
 10
232.1804591941
 20
37.7863362175
  0
LWPOLYLINE
  5
236
330
1F
100
AcDbEntity
  8
0
  6
Continuous
 62
     7
370
    18
100
AcDbPolyline
 90
       28
 70
   128
 43
0.0
 10
225.7192710446
 20
41.3224035743
 10
225.7640691933
 20
42.5001580034
 10
225.8981040741
 20
43.7201532862
 10
226.120295674
 20
44.9725665297
 10
226.4288553861
 20
46.2473136885
 10
226.821298522
 20
47.5341314084
 10
227.2944660437
 20
48.8226594393
 10
227.8445476127
 20
50.1025227634
 10
228.4671145171
 20
51.3634167635
 10
229.1571545747
 20
52.5951901106
 10
229.9091116455
 20
53.7879249887
 10
230.7169310713
 20
54.9320173198
 10
231.5741093958
 20
56.0182564172
 10
232.4737450725
 20
57.0378960842
 10
233.4085941119
 20
57.9827270432
 10
234.371130338
 20
58.8451429
 10
235.3536038345
 20
59.6181982188
 10
236.3481040412
 20
60.2956692816
 10
237.3466240448
 20
60.8721026099
 10
238.3411242515
 20
61.3428570451
 10
239.3235977479
 20
61.7041414803
 10
240.2861339741
 20
61.953046295
 10
241.2209830134
 20
62.0875690621
 10
242.1206186902
 20
62.1066266382
 10
242.9777970146
 20
62.0100645684
 10
243.7856164404
 20
61.7986606935
 10
244.5375735112
 20
61.4741169693
 10
244.7154747003
 20
61.3759591181
  0
LWPOLYLINE
  5
237
330
1F
100
AcDbEntity
  8
0
  6
Continuous
 62
     7
370
    18
100
AcDbPolyline
 90
       10
 70
   128
 43
0.0
 10
228.9792533857
 20
34.1170707243
 10
228.4671145171
 20
34.453982928
 10
227.8445476127
 20
34.9960764803
 10
227.2944660437
 20
35.6408291435
 10
226.821298522
 20
36.3830495824
 10
226.4288553861
 20
37.2167621021
 10
226.120295674
 20
38.1352538004
 10
225.8981040741
 20
39.1311300832
 10
225.7640691933
 20
40.1963719866
 10
225.7192710446
 20
41.3224035743
  0
LWPOLYLINE
  5
238
330
1F
100
AcDbEntity
  8
0
  6
Continuous
 62
     7
370
    18
100
AcDbPolyline
 90
       13
 70
   128
 43
0.0
 10
230.343352483
 20
37.9867669465
 10
230.211037062
 20
38.7789992787
 10
230.1281579185
 20
39.8320621791
 10
230.1382152103
 20
40.9428672418
 10
230.2411154238
 20
42.1009233671
 10
230.4358858889
 20
43.2952915302
 10
230.7206872909
 20
44.5146906268
 10
231.0928294752
 20
45.7476029383
 10
231.5487971315
 20
46.9823826858
 10
232.0842833785
 20
48.2073662934
 10
232.6942305945
 20
49.4109845534
 10
233.3728771736
 20
50.5818668047
 10
234.1138135021
 20
51.7089553777
  0
LWPOLYLINE
  5
239
330
1F
100
AcDbEntity
  8
0
  6
Continuous
 62
     7
370
    18
100
AcDbPolyline
 90
       17
 70
   128
 43
0.0
 10
230.85514825
 20
35.0568392456
 10
230.4985648381
 20
35.6016694608
 10
230.1026860755
 20
36.4037839292
 10
229.793957776
 20
37.2951972708
 10
229.5752090468
 20
38.2677408982
 10
229.4484444973
 20
39.3125039944
 10
229.4148251417
 20
40.4199129595
 10
229.4746598371
 20
41.5798212645
 10
229.6274000161
 20
42.7816005651
 10
229.8716456131
 20
44.0142387535
 10
230.2051595522
 20
45.2664415495
 10
230.62488487
 20
46.5267348056
 10
231.1269763251
 20
47.7835712536
 10
231.7068326669
 20
49.0254333543
 10
232.3591414169
 20
50.2409427999
 10
233.0779256252
 20
51.4189624117
 10
233.8565985296
 20
52.5486972767
  0
LINE
  5
23A
330
1F
100
AcDbEntity
  8
0
  6
Continuous
 62
     7
370
    18
100
AcDbLine
 10
236.8485219752
 20
53.9497178441
 30
0.0
 11
236.8902098182
 21
53.9934074685
 31
0.0
  0
ARC
  5
23B
330
1F
100
AcDbEntity
  8
0
  6
Continuous
 62
     7
370
    18
100
AcDbCircle
 10
246.9397271348
 20
44.7658251763
 30
0.0
 40
14.35349360837064
100
AcDbArc
 50
109.931969941
 51
139.4246766989
  0
LWPOLYLINE
  5
23C
330
1F
100
AcDbEntity
  8
0
  6
Continuous
 62
     7
370
    18
100
AcDbPolyline
 90
       12
 70
   128
 43
0.0
 10
235.2007915912
 20
54.220860794
 10
236.1131361891
 20
55.1915963714
 10
237.0584646472
 20
56.077138759
 10
238.0278698218
 20
56.8691444232
 10
239.012218318
 20
57.5601513948
 10
240.0022359357
 20
58.1436498885
 10
240.9885949683
 20
58.6141410644
 10
241.9620020355
 20
58.9671922957
 10
242.9132862056
 20
59.1994781547
 10
243.833484276
 20
59.3088091116
 10
244.7139270023
 20
59.2941562181
 10
244.8397551015
 20
59.2815138831
  0
LINE
  5
23D
330
1F
100
AcDbEntity
  8
0
  6
Continuous
 62
     7
370
    18
100
AcDbLine
 10
221.2329068311
 20
51.695011173
 30
0.0
 11
221.5390707583
 21
51.3242761171
 31
0.0
  0
LINE
  5
23E
330
1F
100
AcDbEntity
  8
0
  6
Continuous
 62
     7
370
    18
100
AcDbLine
 10
221.2329068311
 20
43.9309010253
 30
0.0
 11
221.5390707583
 21
44.6184344938
 31
0.0
  0
LINE
  5
23F
330
1F
100
AcDbEntity
  8
0
  6
Continuous
 62
     7
370
    18
100
AcDbLine
 10
222.2749810751
 20
45.0432664769
 30
0.0
 11
221.5390780023
 21
44.6184386757
 31
0.0
  0
LINE
  5
240
330
1F
100
AcDbEntity
  8
0
  6
Continuous
 62
     7
370
    18
100
AcDbLine
 10
222.208405518
 20
45.7864924447
 30
0.0
 11
220.8991340839
 21
45.030666134
 31
0.0
  0
LINE
  5
241
330
1F
100
AcDbEntity
  8
0
  6
Continuous
 62
     7
370
    18
100
AcDbLine
 10
217.7220552523
 20
46.6050750937
 30
0.0
 11
217.4255679781
 21
46.1090134758
 31
0.0
  0
LINE
  5
242
330
1F
100
AcDbEntity
  8
0
  6
Continuous
 62
     7
370
    18
100
AcDbLine
 10
219.5538728632
 20
47.6625608912
 30
0.0
 11
217.7221158384
 21
46.6051100693
 31
0.0
  0
LINE
  5
243
330
1F
100
AcDbEntity
  8
0
  6
Continuous
 62
     7
370
    18
100
AcDbLine
 10
219.5538728632
 20
47.6625608912
 30
0.0
 11
219.6751830177
 21
47.6008103779
 31
0.0
  0
OLE2FRAME
  5
244
330
1F
100
AcDbEntity
  8
0
100
AcDbOle2Frame
 70
     2
  3
Paintbrush-Bild
 10
13.8511154363
 20
38.264191557
 30
0.0
 11
51.6290888628
 21
31.9806341108
 31
0.0
 71
     2
 72
     0
 73
     1
 90
    12928
310
80552BED0767C5B32B40DDAF6807D121434000000000000000006FFBDDFB85D0
310
4940DDAF6807D121434000000000000000006FFBDDFB85D04940416F4BD60AFB
310
3F4000000000000000002BED0767C5B32B40416F4BD60AFB3F40000000000000
310
0000000000000100000000010000010000000100000000000100000000320000
310
D0CF11E0A1B11AE1000000000000000000000000000000003E000300FEFF0900
310
0600000000000000000000000100000001000000000000000010000002000000
310
01000000FEFFFFFF0000000000000000FFFFFFFFFFFFFFFFFFFFFFFFFFFFFFFF
310
FFFFFFFFFFFFFFFFFFFFFFFFFFFFFFFFFFFFFFFFFFFFFFFFFFFFFFFFFFFFFFFF
310
FFFFFFFFFFFFFFFFFFFFFFFFFFFFFFFFFFFFFFFFFFFFFFFFFFFFFFFFFFFFFFFF
310
FFFFFFFFFFFFFFFFFFFFFFFFFFFFFFFFFFFFFFFFFFFFFFFFFFFFFFFFFFFFFFFF
310
FFFFFFFFFFFFFFFFFFFFFFFFFFFFFFFFFFFFFFFFFFFFFFFFFFFFFFFFFFFFFFFF
310
FFFFFFFFFFFFFFFFFFFFFFFFFFFFFFFFFFFFFFFFFFFFFFFFFFFFFFFFFFFFFFFF
310
FFFFFFFFFFFFFFFFFFFFFFFFFFFFFFFFFFFFFFFFFFFFFFFFFFFFFFFFFFFFFFFF
310
FFFFFFFFFFFFFFFFFFFFFFFFFFFFFFFFFFFFFFFFFFFFFFFFFFFFFFFFFFFFFFFF
310
FFFFFFFFFFFFFFFFFFFFFFFFFFFFFFFFFFFFFFFFFFFFFFFFFFFFFFFFFFFFFFFF
310
FFFFFFFFFFFFFFFFFFFFFFFFFFFFFFFFFFFFFFFFFFFFFFFFFFFFFFFFFFFFFFFF
310
FFFFFFFFFFFFFFFFFFFFFFFFFFFFFFFFFFFFFFFFFFFFFFFFFFFFFFFFFFFFFFFF
310
FFFFFFFFFFFFFFFFFFFFFFFFFFFFFFFFFFFFFFFFFFFFFFFFFFFFFFFFFFFFFFFF
310
FFFFFFFFFFFFFFFFFFFFFFFFFFFFFFFFFFFFFFFFFFFFFFFFFFFFFFFFFFFFFFFF
310
FFFFFFFFFFFFFFFFFFFFFFFFFFFFFFFFFFFFFFFFFFFFFFFFFFFFFFFFFFFFFFFF
310
FDFFFFFFFEFFFFFFFEFFFFFFFEFFFFFF05000000060000000700000008000000
310
090000000A0000000B0000000C0000000D0000000E0000000F00000010000000
310
11000000120000001300000014000000150000001600000017000000FEFFFFFF
310
FFFFFFFFFFFFFFFFFFFFFFFFFFFFFFFFFFFFFFFFFFFFFFFFFFFFFFFFFFFFFFFF
310
FFFFFFFFFFFFFFFFFFFFFFFFFFFFFFFFFFFFFFFFFFFFFFFFFFFFFFFFFFFFFFFF
310
FFFFFFFFFFFFFFFFFFFFFFFFFFFFFFFFFFFFFFFFFFFFFFFFFFFFFFFFFFFFFFFF
310
FFFFFFFFFFFFFFFFFFFFFFFFFFFFFFFFFFFFFFFFFFFFFFFFFFFFFFFFFFFFFFFF
310
FFFFFFFFFFFFFFFFFFFFFFFFFFFFFFFFFFFFFFFFFFFFFFFFFFFFFFFFFFFFFFFF
310
FFFFFFFFFFFFFFFFFFFFFFFFFFFFFFFFFFFFFFFFFFFFFFFFFFFFFFFFFFFFFFFF
310
FFFFFFFFFFFFFFFFFFFFFFFFFFFFFFFFFFFFFFFFFFFFFFFFFFFFFFFFFFFFFFFF
310
FFFFFFFFFFFFFFFFFFFFFFFFFFFFFFFFFFFFFFFFFFFFFFFFFFFFFFFFFFFFFFFF
310
FFFFFFFFFFFFFFFFFFFFFFFFFFFFFFFFFFFFFFFFFFFFFFFFFFFFFFFFFFFFFFFF
310
FFFFFFFFFFFFFFFFFFFFFFFFFFFFFFFFFFFFFFFFFFFFFFFFFFFFFFFFFFFFFFFF
310
FFFFFFFFFFFFFFFFFFFFFFFFFFFFFFFFFFFFFFFFFFFFFFFFFFFFFFFFFFFFFFFF
310
FFFFFFFFFFFFFFFFFFFFFFFFFFFFFFFFFFFFFFFFFFFFFFFFFFFFFFFFFFFFFFFF
310
FFFFFFFFFFFFFFFFFFFFFFFFFFFFFFFFFFFFFFFFFFFFFFFFFFFFFFFFFFFFFFFF
310
52006F006F007400200045006E00740072007900000000000000000000000000
310
0000000000000000000000000000000000000000000000000000000000000000
310
16000500FFFFFFFFFFFFFFFF020000000A00030000000000C000000000000046
310
000000000000000000000000C01185408AA9D30103000000C000000000000000
310
01004F006C006500000000000000000000000000000000000000000000000000
310
0000000000000000000000000000000000000000000000000000000000000000
310
0A000200FFFFFFFFFFFFFFFFFFFFFFFF00000000000000000000000000000000
310
0000000000000000000000000000000000000000000000001400000000000000
310
010043006F006D0070004F0062006A0000000000000000000000000000000000
310
0000000000000000000000000000000000000000000000000000000000000000
310
120002010100000003000000FFFFFFFF00000000000000000000000000000000
310
0000000000000000000000000000000000000000010000004D00000000000000
310
01004F006C006500310030004E00610074006900760065000000000000000000
310
0000000000000000000000000000000000000000000000000000000000000000
310
1A000200FFFFFFFFFFFFFFFFFFFFFFFF00000000000000000000000000000000
310
0000000000000000000000000000000000000000040000002426000000000000
310
FEFFFFFF02000000FEFFFFFFFFFFFFFFFFFFFFFFFFFFFFFFFFFFFFFFFFFFFFFF
310
FFFFFFFFFFFFFFFFFFFFFFFFFFFFFFFFFFFFFFFFFFFFFFFFFFFFFFFFFFFFFFFF
310
FFFFFFFFFFFFFFFFFFFFFFFFFFFFFFFFFFFFFFFFFFFFFFFFFFFFFFFFFFFFFFFF
310
FFFFFFFFFFFFFFFFFFFFFFFFFFFFFFFFFFFFFFFFFFFFFFFFFFFFFFFFFFFFFFFF
310
FFFFFFFFFFFFFFFFFFFFFFFFFFFFFFFFFFFFFFFFFFFFFFFFFFFFFFFFFFFFFFFF
310
FFFFFFFFFFFFFFFFFFFFFFFFFFFFFFFFFFFFFFFFFFFFFFFFFFFFFFFFFFFFFFFF
310
FFFFFFFFFFFFFFFFFFFFFFFFFFFFFFFFFFFFFFFFFFFFFFFFFFFFFFFFFFFFFFFF
310
FFFFFFFFFFFFFFFFFFFFFFFFFFFFFFFFFFFFFFFFFFFFFFFFFFFFFFFFFFFFFFFF
310
FFFFFFFFFFFFFFFFFFFFFFFFFFFFFFFFFFFFFFFFFFFFFFFFFFFFFFFFFFFFFFFF
310
FFFFFFFFFFFFFFFFFFFFFFFFFFFFFFFFFFFFFFFFFFFFFFFFFFFFFFFFFFFFFFFF
310
FFFFFFFFFFFFFFFFFFFFFFFFFFFFFFFFFFFFFFFFFFFFFFFFFFFFFFFFFFFFFFFF
310
FFFFFFFFFFFFFFFFFFFFFFFFFFFFFFFFFFFFFFFFFFFFFFFFFFFFFFFFFFFFFFFF
310
FFFFFFFFFFFFFFFFFFFFFFFFFFFFFFFFFFFFFFFFFFFFFFFFFFFFFFFFFFFFFFFF
310
FFFFFFFFFFFFFFFFFFFFFFFFFFFFFFFFFFFFFFFFFFFFFFFFFFFFFFFFFFFFFFFF
310
FFFFFFFFFFFFFFFFFFFFFFFFFFFFFFFFFFFFFFFFFFFFFFFFFFFFFFFFFFFFFFFF
310
FFFFFFFFFFFFFFFFFFFFFFFFFFFFFFFFFFFFFFFFFFFFFFFFFFFFFFFFFFFFFFFF
310
0100000200000000000000000000000000000000000000000000000000000000
310
0000000000000000000000000000000000000000000000000000000000000000
310
0100FEFF030A0000FFFFFFFF0A00030000000000C00000000000004607000000
310
5042727573680007000000504272757368000700000050427275736800F439B2
310
7100000000000000000000000000000000000000000000000000000000000000
310
0000000000000000000000000000000000000000000000000000000000000000
310
0000000000000000000000000000000000000000000000000000000000000000
310
0000000000000000000000000000000000000000000000000000000000000000
310
0000000000000000000000000000000000000000000000000000000000000000
310
0000000000000000000000000000000000000000000000000000000000000000
310
0000000000000000000000000000000000000000000000000000000000000000
310
0000000000000000000000000000000000000000000000000000000000000000
310
0000000000000000000000000000000000000000000000000000000000000000
310
0000000000000000000000000000000000000000000000000000000000000000
310
0000000000000000000000000000000000000000000000000000000000000000
310
0000000000000000000000000000000000000000000000000000000000000000
310
20260000424D0E260000000000003E00000028000000B40200006E0000000100
310
01000000000000000000130B0000130B00000200000002000000000000FFFFFF
310
FFFFFFFFFFFFFFFFFFFFFFFFFFFFFFFFFFFFFFFFFFFFFFFFFFFFFFFFFFFFFFFF
310
FFFFFFFFFFFFFFFFFFFFFFFFFFFFFFFFFFFFFFFFFFFFFFFFFFFFFFFFFFFFFFFF
310
FFFFFFFFFFFFFFFFFFFFFFFFFFFFFFFFFFFFFFFFFFFFFFFFF000FFFFFFFFFFFF
310
FFFFFFFFFFFFFFFFFFFFFFFFFFFFFFFFFFFFFFFFFFFFFFFFFFFFFFFFFFFFFFFF
310
FFFFFFFFFFFFFFFFFFFFFFFFFFFFFFFFFFFFFFFFFFFFFFFFFFFFFFFFFFFFFFFF
310
FFFFFFFFFFFFFFFFFFFFFFFFFFFFFFFFF000FFFFFFFFFFFFFFFFFFFFFFFFFFFF
310
FFFFFFFFFFFFFFFFFFFFFFFFFFFFFFFFFFFFFFFFFFFFFFFFFFFFFFFFFFFFFFFF
310
FFFFFFFFFFFFFFFFFFFFFFFFFFFFFFFFFFFFFFFFFFFFFFFFFFFFFFFFFFFFFFFF
310
FFFFFFFFFFFFFFFFF000FFFFFFFFFFFFFFFFFFFFFFFFFFFFFFFFFFFFFFFFFFFF
310
FFFFFFFFFFFFFFFFFFFFFFFFFFFFFFFFFFFFFFFFFFFFFFFFFFFFFFFFFFFFFFFF
310
FFFFFFFFFFFFFFFFFFFFFFFFFFFFFFFFFFFFFFFFFFFFFFFFFFFFFFFFFFFFFFFF
310
F000FFFFFFFFFFFFFFFFFFFFFFFFFFFFFFFFFFFFFFFFFFFFFFFFFFFFFFFFFFFF
310
FFFFFFFFFFFFFFFFFFFFFFFFFFFFFFFFFFFFFFFFFFFFFFFFFFFFFFFFFFFFFFFF
310
FFFFFFFFFFFFFFFFFFFFFFFFFFFFFFFFFFFFFFFFFFFFFFFFF000FFFFFFFFFFFF
310
FFFFFFFFFFFFFFFFFFFFFFFFFFFFFFFFFFFFFFFFFFFFFFFFFFFFFFFFFFFFFFFF
310
FFFFFFFFFFFFFFFFFFFFFFFFFFFFFFFFFFFFFFFFFFFFFFFFFFFFFFFFFFFFFFFF
310
FFFFFFFFFFFFFFFFFFFFFFFFFFFFFFFFF000FFFFFFFFFFFFFFFFFFFFFFFFFFFF
310
FFFFFFFFFFFFFFFFFFFFFFFFFFFFFFFFFFFFFFFFFFFFFFFFFFFFFFFFFFFFFFFF
310
FFFFFFFFFFFFFFFFFFFFFFFFFFFFFFFFFFFFFFFFFFFFFFFFFFFFFFFFFFFFFFFF
310
FFFFFFFFFFFFFFFFF000FFFFFFFFFFFFFFFFFFFFFFFFFFFFFFFFFFFFFFFFFFFF
310
FFFFFFFFFFFFFFFFFFFFFFFFFFFFFFFFFFFFFFFFFFFFFFFFFFFFFFFFFFFFFFFF
310
FFFFFFFFFFFFFFFFFFFFFFFFFFFFFFFFFFFFFFFFFFFFFFFFFFFFFFFFFFFFFFFF
310
F000FFFFFFFFFFFFFFFFFFFFFFFFFFFFFFFFFFFFFFFFFFFFFFFFFFFFFFFFFFFF
310
FFFFFFFFFFFFFFFFFFFFFFFFFFFFFFFFFFFFFFFFFFFFFFFFFFFFFFFFFFFFFFFF
310
FFFFFFFFFFFFFFFFFFFFFFFFFFFFFFFFFFFFFFFFFFFFFFFFF000FFFFFFFFFFFF
310
FFFFFFFFFFFFFFFFFFFFFFFFFFFFFFFFFFFFFFFFFFFFFFFFFFFFFFFFFFFFFFFF
310
FFFFFFFFFFFFFFFFFFFFFFFFFFFFFFFFFFFFFFFFFFFFFFFFFFFFFFFFFFFFFFFF
310
FFFFFFFFFFFFFFFFFFFFFFFFFFFFFFFFF000FFFFFFFFFFFFFFFFFFFFFFFFFFFF
310
FFFFFFFFFFFFFFFFFFFFFFFFFFFFFFFFFFFFFFFFFFFFFFFFFFFFFFFFFFFFFFFF
310
FFFFFFFFFFFFFFFFFFFFFFFFFFFFFFFFFFFFFFFFFFFFFFFFFFFFFFFFFFFFFFFF
310
FFFFFFFFFFFFFFFFF000FFFFFFFFFFFFFFFFFFFFFFFFFFFFFFFFFFFFFFFFFFFF
310
FFFFFFFFFFFFFFFFFFFFFFFFFFFFFFFFFFFFFFFFFFFFFFFFFFFFFFFFFFFFFFFF
310
FFFFFFFFFFFFFFFFFFFFFFFFFFFFFFFFFFFFFFFFFFFFFFFFFFFFFFFFFFFFFFFF
310
F000FFFFFFFFFFFFFFFFFFFFFFFFFFFFFFFFFFFFFFFFFFFFFFFFFFFFFFFFFFFF
310
FFFFFFFFFFFFFFFFFFFFFFFFFFFFFFFFFFFFFFFFFFFFFFFFFFFFFFFFFFFFFFFF
310
FFFFFFFFFFFFFFFFFFFFFFFFFFFFFFFFFFFFFFFFFFFFFFFFF000FFFFFFFFFFFF
310
FFFFFFFFFFFFFFFFFFFFFFFFFFFFFFFFFFFFFFFFFFFFFFFFFFFFFFFFFFFFFFFF
310
FFFFFFFFFFFFFFFFFFFFFFFFFFFFFFFFFFFFFFFFFFFFFFFFFFFFFFFFFFFFFFFF
310
FFFFFFFFFFFFFFFFFFFFFFFFFFFFFFFFF000FFFFFFFFFFFFFFFFFFFFFFFFFFFF
310
FFFFFFFFFFFFFFFFFFFFFFFFFFFFFFFFFFFFFFFFFFFFFFFFFFFFFFFFFFFFFFFF
310
FFFFFFFFFFFFFFFFFFFFFFFFFFFFFFFFFFFFFFFFFFFFFFFFFFFFFFFFFFFFFFFF
310
FFFFFFFFFFFFFFFFF000FFFFFFFFFFFFFFFFFFFFFFFFFFFFFFFFFFFFFFFFFFFF
310
FFFFFFFFFFFFFFFFFFFFFFFFFFFFFFFFFFFFFFFFFFFFFFFFFFFFFFFFFFFFFFFF
310
FFFFFFFFFFFFFFFFFFFFFFFFFFFFFFFFFFFFFFFFFFFFFFFFFFFFFFFFFFFFFFFF
310
F000FFFFFFFFFFFFFFFFFFFFFFFFFFFFFFFFFFFFFFFFFFFFFFFFFFFFFFFFFFFF
310
FFFFFFFFFFFFFFFFFFFFFFFFFFFFFFFFFFFFFFFFFFFFFFFFFFFFFFFFFFFFFFFF
310
FFFFFFFFFFFFFFFFFFFFFFFFFFFFFFFFFFFFFFFFFFFFFFFFF000FFFFFFFFFFFF
310
FFFFFFFFFFFFFFFFFFFFFFFFFFFFFFFFFFFFFFFFFFFFFFFFFFFFFFFFFFFFFFFF
310
FFFFFFFFFFFFFFFFFFFFFFFFFFFFFFFFFFFFFFFFFFFFFFFFFFFFFFFFFFFFFFFF
310
FFFFFFFFFFFFFFFFFFFFFFFFFFFFFFFFF000FFFFFFFFFFFFFFFFFFFFFFFFFFFF
310
FFFFFFFFFFFFFFFFFFFFFFFFFFFFFFFFFFFFFFFFFFFFFFFFFFFFFFFFFFFFFFFF
310
FFFFFFFFFFFFFFFFFFFFFFFFFFFFFFFFFFFFFFFFFFFFFFFFFFFFFFFFFFFFFFFF
310
FFFFFFFFFFFFFFFFF000FFFFF80003FFFFFFFFFFFFFFFFFFFFFFFFFFFFFFFFFF
310
FFFFF00007FFFFFFFFFF00007FFFFFF800000000000000007FFFFFFFFFFFFFFF
310
FFFFFFFC001FFFFFFFFFFFFFFC001FFFFFFFFFFFFFFFFFFFFFFFFFFE0007FFFF
310
F000FFFF8000007FFFFFFFF8000FFFFFC0007FFFFF80007FFFFF0000007FFFFF
310
FFF8000007FFFFF800000000000000007FFFFFF0001FFFFFFFFFFFC00001FFFF
310
FFFFFFFFC00001FFFFFFFF000000000003FFFFE000007FFFF000FFFE0000000F
310
FFFFFFF0000FFFFF80007FFFFF80007FFFFC0000001FFFFFFFC0000001FFFFF8
310
00000000000000007FFFFFF0001FFFFFFFFFFE0000003FFFFFFFFFFE0000003F
310
FFFFFF000000000003FFFF0000000FFFF000FFF800000003FFFFFFF00007FFFF
310
80007FFFFF80007FFFF000000007FFFFFF000000003FFFF80000000000000000
310
7FFFFFF0001FFFFFFFFFF80000000FFFFFFFFFF80000000FFFFFFF0000000000
310
03FFFC00000003FFF000FFE000000000FFFFFFF00007FFFF80003FFFFF80007F
310
FFC000000001FFFFFC000000001FFFF800000000000000007FFFFFF0001FFFFF
310
FFFFE000000003FFFFFFFFE000000003FFFFFF000000000003FFF000000000FF
310
F000FF80000000007FFFFFF00007FFFF80003FFFFF80007FFF8000000000FFFF
310
F80000000007FFF800000000000000007FFFFFF0001FFFFFFFFFC000000001FF
310
FFFFFFC000000001FFFFFF000000000003FFC0000000007FF000FF0000000000
310
3FFFFFE00007FFFF00003FFFFF80007FFE00000000003FFFF00000000003FFF8
310
00000000000000007FFFFFF0001FFFFFFFFF8000000000FFFFFFFF8000000000
310
FFFFFF000000000003FF80000000003FF000FE00000000001FFFFFE00003FFFF
310
00003FFFFF80007FFC00000000001FFFE00000000001FFF8000001FFFE000000
310
7FFFFFF0001FFFFFFFFE00000000003FFFFFFE00000000003FFFFF0000000000
310
03FF00000000001FF000FC00000000000FFFFFE00003FFFF00001FFFFF80007F
310
F800000000001FFFC00000000000FFF8000001FFFE0000007FFFFFF0001FFFFF
310
FFFC00000000001FFFFFFC00000000001FFFFF000000000003FE00000000000F
310
F000F8000000000007FFFFE00003FFFF00001FFFFF80007FF800000000000FFF
310
800000000000FFF8000001FFFE0000007FFFFFF0001FFFFFFFF800000000000F
310
FFFFF800000000000FFFFF000000000003FC000000000007F000F80000000000
310
03FFFFC00003FFFE00001FFFFF80007FF0000000000007FF0000000000007FF8
310
000001FFFE0000007FFFFFF0001FFFFFFFF0000000000007FFFFF00000000000
310
07FFFF000000000003F8000000000003F000F0000000000003FFFFC00001FFFE
310
00001FFFFF80007FE0000000000007FE0000000000003FF8000001FFFE000000
310
7FFFFFF0001FFFFFFFF0000000000007FFFFF0000000000007FFFF0000000000
310
03F800001F800003F000E00001FFF00001FFFFC00001FFFE00000FFFFF80007F
310
E00001FFE00003FE00001FFF00003FF8000001FFFE0000007FFFFFF0001FFFFF
310
FFE000003E000003FFFFE000003E000003FFFF000000000003F00001FFF80001
310
F000E00007FFFC0001FFFFC00001FFFE00000FFFFF80007FC0000FFFFC0003FC
310
0000FFFFC0001FF8000001FFFE0000007FFFFFF0001FFFFFFFC00003FFE00001
310
FFFFC00003FFE00001FFFF0001FFFFFFFFF00007FFFE0001F000E0000FFFFF00
310
00FFFF800001FFFC00000FFFFF80007FC0001FFFFE0001FC0001FFFFE0001FF8
310
000001FFFE0000007FFFFFF0001FFFFFFF80000FFFF80000FFFF80000FFFF800
310
00FFFF0003FFFFFFFFE0000FFFFF8000F000C0003FFFFF8000FFFF800000FFFC
310
000007FFFF80007F80003FFFFF0001FC0003FFFFF0001FF8000001FFFE000000
310
7FFFFFF0001FFFFFFF80003FFFFE0000FFFF80003FFFFE0000FFFF0003FFFFFF
310
FFE0003FFFFF8000F000C0003FFFFF8000FFFF800000FFFC000007FFFF80007F
310
80007FFFFF8001F80007FFFFF8000FF8000001FFFE0000007FFFFFF0001FFFFF
310
FF00007FFFFF00007FFF00007FFFFF00007FFF0003FFFFFFFFE0003FFFFFC000
310
F000C0007FFFFFC000FFFF000000FFFC000007FFFF80007F8000FFFFFF8000F8
310
000FFFFFF8000FF8000001FFFE0000007FFFFFF0001FFFFFFF0000FFFFFF8000
310
7FFF0000FFFFFF80007FFF0003FFFFFFFFC0007FFFFFC00070008000FFFFFFC0
310
00FFFF000000FFF8000007FFFF80007F8000FFFFFF8000F8000FFFFFF8000FF8
310
000001FFFE0000007FFFFFF0001FFFFFFE0001FFFFFFC0003FFE0001FFFFFFC0
310
003FFF0003FFFFFFFFC0007FFFFFE00070008000FFFFFFC0007FFF0000007FF8
310
000003FFFF80007F0001FFFFFF8000F8000FFFFFF8000FF8000001FFFE000000
310
7FFFFFF0001FFFFFFE0001FFFFFFC0003FFE0001FFFFFFC0003FFF0003FFFFFF
310
FFC000FFFFFFE00070008000FFFFFFC0007FFF0000007FF8000003FFFF80007F
310
0001FFFFFF8000F8001FFFFFF8000FF8000001FFFE0000007FFFFFF0001FFFFF
310
FE0003FFFFFFE0003FFE0003FFFFFFE0003FFF0003FFFFFFFFC000FFFFFFE000
310
70008000FFFFFFC0007FFE0000007FF8000003FFFF80007F0001FFFFFF8000F0
310
001FFFFFF8000FF8000001FFFE0000007FFFFFF0001FFFFFFC0003FFFFFFE000
310
1FFC0003FFFFFFE0001FFF0003FFFFFFFFC000FFFFFFC00070008000FFFFFF80
310
007FFE0000007FF0000003FFFF80007F0001FFFFFF0000F0001FFFFFF8000FF8
310
000001FFFE0000007FFFFFF0001FFFFFFC0007FFFFFFF0001FFC0007FFFFFFF0
310
001FFF0003FFFFFFFFC000FFFFFFC00070008001FFFFFF0000FFFE0000003FF0
310
000001FFFF80007F0001FFFFFF0000F8001FFFFFF0000FF8000001FFFE000000
310
7FFFFFF0001FFFFFFC0007FFFFFFF0001FFC0007FFFFFFF0001FFF0003FFFFFF
310
FFC001FFFFFF80007000FFFFFFFFFE0000FFFE0008003FF0008001FFFF80007F
310
FFFFFFFFFC0000FFFFFFFFFFE0000FF8000001FFFE0000007FFFFFF0001FFFFF
310
F8000FFFFFFFF8000FF8000FFFFFFFF8000FFF0003FFFFFFFFFFFFFFFFFF0000
310
7000FFFFFFFFFC0000FFFC0008003FF0008001FFFF80007FFFFFFFFFF80001FF
310
FFFFFFFF80000FF8000001FFFE0000007FFFFFF0001FFFFFF8000FFFFFFFF800
310
0FF8000FFFFFFFF8000FFF0003FFFFFFFFFFFFFFFFFE0000F000FFFFFFFFE000
310
00FFFC000C003FE000C001FFFF80007FFFFFFFFFC00001FFFFFFFFFE00001FF8
310
000001FFFE0000007FFFFFF0001FFFFFF8000FFFFFFFF8000FF8000FFFFFFFF8
310
000FFF0003FFFFFFFFFFFFFFFFF00000F000FFFFFFFE000001FFFC000C001FE0
310
00C000FFFF80007FFFFFFFFE000001FFFFFFFFE000001FF80FFFFFFFFFFFFFC0
310
7FFFFFF0001FFFFFF8000FFFFFFFF8000FF8000FFFFFFFF8000FFF0003FFFFFF
310
FFFFFFFFFF800000F000FFFFFFC0000001FFFC001C001FE001C000FFFF80007F
310
FFFFFF80000003FFFFFFF80000001FF80FFFFFFFFFFFFFC07FFFFFF0001FFFFF
310
F8001FFFFFFFFC000FF8001FFFFFFFFC000FFF0003FFFFFFFFFFFFFFF0000001
310
F000FFFFF800000001FFF8001C001FE001C000FFFF80007FFFFFF800000003FF
310
FFFF800000003FF80FFFFFFFFFFFFFC07FFFFFF0001FFFFFF8001FFFFFFFFC00
310
0FF8001FFFFFFFFC000FFF0003FFFFFFFFFFFFFE00000001F000FFFFC0000000
310
03FFF8001E001FC001E000FFFF80007FFFFF8000000007FFFFFC000000003FF8
310
0FFFFFFFFFFFFFC07FFFFFF0001FFFFFF8001FFFFFFFFC000FF8001FFFFFFFFC
310
000FFF0003FFFFFFFFFFFFE000000003F000FFFE0000000007FFF8001E000FC0
310
01E0007FFF80007FFFFE0000000007FFFFE0000000007FF80FFFFFFFFFFFFFC0
310
7FFFFFF0001FFFFFF0001FFFFFFFFC0007F0001FFFFFFFFC0007FF0003FFFFFF
310
FFFFFF0000000003F000FFF80000000007FFF8001E000FC003E0007FFF80007F
310
FFF0000000000FFFFF8000000000FFF80FFFFFFFFFFFFFC07FFFFFF0001FFFFF
310
F0001FFFFFFFFC0007F0001FFFFFFFFC0007FF0003FFFFFFFFFFFC0000000007
310
F000FFE0000000000FFFF0003E000FC003E0007FFF80007FFFC0000000001FFF
310
FE0000000001FFF80FFFFFFFFFFFFFC07FFFFFF0001FFFFFF0001FFFFFFFFC00
310
07F0001FFFFFFFFC0007FF0003FFFFFFFFFFF0000000000FF000FFC000000000
310
1FFFF0003F000F8003F0003FFF80007FFF80000000003FFFF80000000003FFF8
310
0FFFFFFFFFFFFFC07FFFFFF0001FFFFFF0001FFFFFFFFC0007F0001FFFFFFFFC
310
0007FF0003FFFFFFFFFFE0000000001FF000FF00000000007FFFF0003F000780
310
03F0003FFF80007FFF00000000007FFFF00000000007FFF80FFFFFFFFFFFFFC0
310
7FFFFFF0001FFFFFF0001FFFFFFFFC0007F0001FFFFFFFFC0007FF0003FFFFFF
310
FFFF80000000007FF000FE0000000000FFFFE0003F00078007F0003FFF80007F
310
FE0000000001FFFFE0000000001FFFF80FFFFFFFFFFFFFC07FFFFFF0001FFFFF
310
F0001FFFFFFFFC0007F0001FFFFFFFFC0007FF0003FFFFFFFFFF0000000000FF
310
F000FC0000000003FFFFE0007F00078007F0003FFF80007FFC0000000007FFFF
310
C0000000007FFFF80FFFFFFFFFFFFFC07FFFFFF0001FFFFFF8001FFFFFFFFC00
310
0FF8001FFFFFFFFC000FFF0003FFFFFFFFFE0000000003FFF000FC000000000F
310
FFFFE0007F80070007F8001FFF80007FF8000000001FFFFF8000000001FFFFF8
310
0FFFFFFFFFFFFFC07FFFFFF0001FFFFFF8001FFFFFFFFC000FF8001FFFFFFFFC
310
000FFF0003FFFFFFFFFC000000000FFFF000F8000000007FFFFFE0007F800700
310
07F8001FFF80007FF000000000FFFFFF800000000FFFFFF80FFFFFFFFFFFFFC0
310
7FFFFFF0001FFFFFF8000FFFFFFFF8000FF8000FFFFFFFF8000FFF0003FFFFFF
310
FFFC000000007FFFF000F800000007FFFFFFC0007F8003000FF8001FFF80007F
310
F000000007FFFFFF000000007FFFFFF80FFFFFFFFFFFFFC07FFFFFF0001FFFFF
310
F8000FFFFFFFF8000FF8000FFFFFFFF8000FFF0003FFFFFFFFF80000000FFFFF
310
F000F0000000FFFFFFFFC000FF8003000FF8001FFF80007FE0000000FFFFFFFF
310
0000000FFFFFFFF8000001FFFE0000007FFFFFF0001FFFFFF8000FFFFFFFF800
310
0FF8000FFFFFFFF8000FFF0003FFFFFFFFF8000000FFFFFFF000F000000FFFFF
310
FFFFC000FFC002000FF8000FFF80007FE000001FFFFFFFFE000001FFFFFFFFF8
310
000001FFFE0000007FFFFFF0001FFFFFF8000FFFFFFFF8000FF8000FFFFFFFF8
310
000FFF0003FFFFFFFFF000001FFFFFFFF000E00000FFFFFFFFFFC000FFC00200
310
0FFC000FFF80007FE00001FFFFFFFFFE00001FFFFFFFFFF8000001FFFE000000
310
7FFFFFF0001FFFFFFC000FFFFFFFF8001FFC000FFFFFFFF8001FFF0003FFFFFF
310
FFF00001FFFFFFFFF000E00007FFFFFFFFFF8000FFC000001FFC000FFF80007F
310
C0000FFFFFFFFFFE0000FFFFFFFFFFF8000001FFFE0000007FFFFFF0001FFFFF
310
FC0007FFFFFFF0001FFC0007FFFFFFF0001FFF0003FFFFFFFFF00007FFFFFFFF
310
F000E0001FFFFFFFFFFF8000FFC000001FFC000FFF80007FC0003FFFFFFFFFFE
310
0001FFFFFFFFFFF8000001FFFE0000007FFFFFF0001FFFFFFC0007FFFFFFF000
310
1FFC0007FFFFFFF0001FFF0003FFFFFFFFF0001FFFFFFFFFF000E0003FFFFF00
310
03FF8001FFE000001FFC0007FF80007FC0007FFFFF0007FC0003FFFFF0003FF8
310
000001FFFE0000007FFFFFF0001FFFFFFC0003FFFFFFE0001FFC0003FFFFFFE0
310
001FFF0003FFFFFFFFF0003FFFFFFFFFF000E0003FFFFF0001FF8001FFE00000
310
1FFE0007FF80007FC0007FFFFE0003FC0007FFFFE0003FF8000001FFFE000000
310
7FFFFFF0001FFFFFFE0003FFFFFFE0003FFE0003FFFFFFE0003FFF0003FFFFFF
310
FFF0003FFFFF8001F000E0003FFFFF0001FF0001FFE000001FFE0007FF80007F
310
C0007FFFFE0003FC0007FFFFE0003FF8000001FFFE0000007FFFFFF0001FFFFF
310
FE0001FFFFFFC0003FFE0001FFFFFFC0003FFF0003FFFFFFFFF0003FFFFF0001
310
F000E0003FFFFF0003FF0001FFE000003FFE0007FF80007FC0007FFFFE0003FC
310
0007FFFFE0003FF8000001FFFE0000007FFFFFF0001FFFFFFF0001FFFFFFC000
310
7FFF0001FFFFFFC0007FFF0003FFFFFFFFF0003FFFFF0001F000E0003FFFFE00
310
03FF0003FFF000003FFE0003FF80007FC0007FFFFC0003FE0007FFFFE0003FF8
310
000001FFFE0000007FFFFFF0001FFFFFFF0000FFFFFF80007FFF0000FFFFFF80
310
007FFF0003FFFFFFFFF0003FFFFF0001F000E0003FFFFE0003FF0003FFF00000
310
3FFF0003FF80007FC0007FFFFC0007FE0007FFFFC0003FF8000001FFFE000000
310
7FFFFFF0001FFFFFFF80007FFFFF0000FFFF80007FFFFF0000FFFF0003FFFFFF
310
FFF0003FFFFF0003F000E0003FFFFC0003FE0003FFF000003FFF0003FF80007F
310
E0003FFFF80007FE0003FFFFC0007FF8000001FFFE0000007FFFFFF0001FFFFF
310
FF80003FFFFE0000FFFF80003FFFFE0000FFFF0003FFFFFFFFF0001FFFFE0003
310
F000F0001FFFF80003FE0003FFF000007FFF0001FF80007FE0003FFFF00007FE
310
0001FFFF80007FF8000001FFFE0000007FFFFFF0001FFFFFFFC0000FFFF80001
310
FFFFC0000FFFF80001FFFF0003FFFFFFFFF0001FFFFC0003F000F0000FFFF000
310
07FE0007FFF800007FFF0001FF80007FE0001FFFE00007FF0000FFFE00007FF8
310
000001FFFE0000007FFFFFF0001FFFFFFFC00003FFE00001FFFFC00003FFE000
310
01FFFF0003FFFFFFFFF8000FFFF80003F000F00003FFC00007FC0007FFF80000
310
7FFF8001FF80007FF00007FF80000FFF00007FF80000FFF8000001FFFE000000
310
7F80000000000001FFE000003E000003FFFFE000003E000003FFFF0003FFFFFF
310
FFF80003FFE00007F000F800000000000FFC0007FFF800007FFF8001FF80007F
310
F000000000000FFF000000000000FFF8000001FFFE0000007F80000000000001
310
FFF0000000000007FFFFF0000000000007FFFF0003FFFFFFFFFC00007E000007
310
F000F800000000000FFC0007FFF80000FFFF8000FF80007FF800000000001FFF
310
800000000001FFF8000001FFFE0000007F80000000000001FFF800000000000F
310
FFFFF800000000000FFFFF0003FFFFFFFFFC00000000000FF000FC0000000000
310
1FFC0007FFFC0000FFFF8000FF80007FF800000000003FFFC00000000001FFF8
310
000001FFFE0000007F80000000000001FFF800000000000FFFFFF80000000000
310
0FFFFF0003FFFFFFFFFE00000000001FF000FE00000000003FF8000FFFFC0000
310
FFFF8000FF80007FFC00000000003FFFC00000000003FFF8000001FFFE000000
310
7F80000000000001FFFC00000000001FFFFFFC00000000001FFFFF0003FFFFFF
310
FFFF00000000001FF000FF00000000003FF8000FFFFC0000FFFFC000FF80007F
310
FE00000000007FFFE00000000007FFF8000001FFFE0000007F80000000000001
310
FFFE00000000003FFFFFFE00000000003FFFFF0003FFFFFFFFFF80000000003F
310
F000FF80000000007FF8000FFFFC0001FFFFC0007F80007FFF0000000000FFFF
310
F0000000000FFFF800000000000000007F80000000000001FFFF8000000000FF
310
FFFFFF8000000000FFFFFF0003FFFFFFFFFFC0000000007FF000FFC000000000
310
FFF8000FFFFE0001FFFFC0007F80007FFF8000000001FFFFF8000000001FFFF8
310
00000000000000007F80000000000001FFFFC000000001FFFFFFFFC000000001
310
FFFFFF0003FFFFFFFFFFE000000000FFF000FFE000000003FFF0001FFFFE0001
310
FFFFC0007F80007FFFC000000007FFFFFE000000003FFFF80000000000000000
310
7F80000000000001FFFFE000000003FFFFFFFFE000000003FFFFFF0003FFFFFF
310
FFFFF000000003FFF000FFF80000000FFFF0001FFFFE0001FFFFE0007F80007F
310
FFF00000000FFFFFFF00000000FFFFF800000000000000007F80000000000001
310
FFFFF80000000FFFFFFFFFF80000000FFFFFFF0003FFFFFFFFFFFC0000000FFF
310
F000FFFE0000003FFFF0001FFFFE0003FFFFE0003F80007FFFFC0000003FFFFF
310
FFC0000003FFFFF800000000000000007F80000000000001FFFFFE0000003FFF
310
FFFFFFFE0000003FFFFFFF0003FFFFFFFFFFFF0000003FFFF000FFFF800000FF
310
FFF0001FFFFF0003FFFFE0003F80007FFFFF000001FFFFFFFFF800001FFFFFF8
310
00000000000000007F80000000000001FFFFFFC00001FFFFFFFFFFFFC00001FF
310
FFFFFF0003FFFFFFFFFFFFC00000FFFFF000FFFFF8000FFFFFFFFFFFFFFFFFFF
310
FFFFFFFFFFFFFFFFFFFFF0001FFFFFFFFFFF0000FFFFFFF80000000000000000
310
7FFFFFFFFFFFFFFFFFFFFFFC001FFFFFFFFFFFFFFC001FFFFFFFFFFFFFFFFFFF
310
FFFFFFFC001FFFFFF000FFFFFFFFFFFFFFFFFFFFFFFFFFFFFFFFFFFFFFFFFFFF
310
FFFFFFFFFFFFFFFFFFFFFFFFFFFFFFFFFFFFFFFFFFFFFFFFFFFFFFFFFFFFFFFF
310
FFFFFFFFFFFFFFFFFFFFFFFFFFFFFFFFFFFFFFFFFFFFFFFFFFFFFFFFFFFFFFFF
310
F000FFFFFFFFFFFFFFFFFFFFFFFFFFFFFFFFFFFFFFFFFFFFFFFFFFFFFFFFFFFF
310
FFFFFFFFFFFFFFFFFFFFFFFFFFFFFFFFFFFFFFFFFFFFFFFFFFFFFFFFFFFFFFFF
310
FFFFFFFFFFFFFFFFFFFFFFFFFFFFFFFFFFFFFFFFFFFFFFFFF000FFFFFFFFFFFF
310
FFFFFFFFFFFFFFFFFFFFFFFFFFFFFFFFFFFFFFFFFFFFFFFFFFFFFFFFFFFFFFFF
310
FFFFFFFFFFFFFFFFFFFFFFFFFFFFFFFFFFFFFFFFFFFFFFFFFFFFFFFFFFFFFFFF
310
FFFFFFFFFFFFFFFFFFFFFFFFFFFFFFFFF000FFFFFFFFFFFFFFFFFFFFFFFFFFFF
310
FFFFFFFFFFFFFFFFFFFFFFFFFFFFFFFFFFFFFFFFFFFFFFFFFFFFFFFFFFFFFFFF
310
FFFFFFFFFFFFFFFFFFFFFFFFFFFFFFFFFFFFFFFFFFFFFFFFFFFFFFFFFFFFFFFF
310
FFFFFFFFFFFFFFFFF000FFFFFFFFFFFFFFFFFFFFFFFFFFFFFFFFFFFFFFFFFFFF
310
FFFFFFFFFFFFFFFFFFFFFFFFFFFFFFFFFFFFFFFFFFFFFFFFFFFFFFFFFFFFFFFF
310
FFFFFFFFFFFFFFFFFFFFFFFFFFFFFFFFFFFFFFFFFFFFFFFFFFFFFFFFFFFFFFFF
310
F000FFFFFFFFFFFFFFFFFFFFFFFFFFFFFFFFFFFFFFFFFFFFFFFFFFFFFFFFFFFF
310
FFFFFFFFFFFFFFFFFFFFFFFFFFFFFFFFFFFFFFFFFFFFFFFFFFFFFFFFFFFFFFFF
310
FFFFFFFFFFFFFFFFFFFFFFFFFFFFFFFFFFFFFFFFFFFFFFFFF000FFFFFFFFFFFF
310
FFFFFFFFFFFFFFFFFFFFFFFFFFFFFFFFFFFFFFFFFFFFFFFFFFFFFFFFFFFFFFFF
310
FFFFFFFFFFFFFFFFFFFFFFFFFFFFFFFFFFFFFFFFFFFFFFFFFFFFFFFFFFFFFFFF
310
FFFFFFFFFFFFFFFFFFFFFFFFFFFFFFFFF000FFFFFFFFFFFFFFFFFFFFFFFFFFFF
310
FFFFFFFFFFFFFFFFFFFFFFFFFFFFFFFFFFFFFFFFFFFFFFFFFFFFFFFFFFFFFFFF
310
FFFFFFFFFFFFFFFFFFFFFFFFFFFFFFFFFFFFFFFFFFFFFFFFFFFFFFFFFFFFFFFF
310
FFFFFFFFFFFFFFFFF000FFFFFFFFFFFFFFFFFFFFFFFFFFFFFFFFFFFFFFFFFFFF
310
FFFFFFFFFFFFFFFFFFFFFFFFFFFFFFFFFFFFFFFFFFFFFFFFFFFFFFFFFFFFFFFF
310
FFFFFFFFFFFFFFFFFFFFFFFFFFFFFFFFFFFFFFFFFFFFFFFFFFFFFFFFFFFFFFFF
310
F000FFFFFFFFFFFFFFFFFFFFFFFFFFFFFFFFFFFFFFFFFFFFFFFFFFFFFFFFFFFF
310
FFFFFFFFFFFFFFFFFFFFFFFFFFFFFFFFFFFFFFFFFFFFFFFFFFFFFFFFFFFFFFFF
310
FFFFFFFFFFFFFFFFFFFFFFFFFFFFFFFFFFFFFFFFFFFFFFFFF000FFFFFFFFFFFF
310
FFFFFFFFFFFFFFFFFFFFFFFFFFFFFFFFFFFFFFFFFFFFFFFFFFFFFFFFFFFFFFFF
310
FFFFFFFFFFFFFFFFFFFFFFFFFFFFFFFFFFFFFFFFFFFFFFFFFFFFFFFFFFFFFFFF
310
FFFFFFFFFFFFFFFFFFFFFFFFFFFFFFFFF000FFFFFFFFFFFFFFFFFFFFFFFFFFFF
310
FFFFFFFFFFFFFFFFFFFFFFFFFFFFFFFFFFFFFFFFFFFFFFFFFFFFFFFFFFFFFFFF
310
FFFFFFFFFFFFFFFFFFFFFFFFFFFFFFFFFFFFFFFFFFFFFFFFFFFFFFFFFFFFFFFF
310
FFFFFFFFFFFFFFFFF000FFFFFFFFFFFFFFFFFFFFFFFFFFFFFFFFFFFFFFFFFFFF
310
FFFFFFFFFFFFFFFFFFFFFFFFFFFFFFFFFFFFFFFFFFFFFFFFFFFFFFFFFFFFFFFF
310
FFFFFFFFFFFFFFFFFFFFFFFFFFFFFFFFFFFFFFFFFFFFFFFFFFFFFFFFFFFFFFFF
310
F000FFFFFFFFFFFFFFFFFFFFFFFFFFFFFFFFFFFFFFFFFFFFFFFFFFFFFFFFFFFF
310
FFFFFFFFFFFFFFFFFFFFFFFFFFFFFFFFFFFFFFFFFFFFFFFFFFFFFFFFFFFFFFFF
310
FFFFFFFFFFFFFFFFFFFFFFFFFFFFFFFFFFFFFFFFFFFFFFFFF000FFFFFFFFFFFF
310
FFFFFFFFFFFFFFFFFFFFFFFFFFFFFFFFFFFFFFFFFFFFFFFFFFFFFFFFFFFFFFFF
310
FFFFFFFFFFFFFFFFFFFFFFFFFFFFFFFFFFFFFFFFFFFFFFFFFFFFFFFFFFFFFFFF
310
FFFFFFFFFFFFFFFFFFFFFFFFFFFFFFFFF000FFFFFFFFFFFFFFFFFFFFFFFFFFFF
310
FFFFFFFFFFFFFFFFFFFFFFFFFFFFFFFFFFFFFFFFFFFFFFFFFFFFFFFFFFFFFFFF
310
FFFFFFFFFFFFFFFFFFFFFFFFFFFFFFFFFFFFFFFFFFFFFFFFFFFFFFFFFFFFFFFF
310
FFFFFFFFFFFFFFFFF000FFFFFFFFFFFFFFFFFFFFFFFFFFFFFFFFFFFFFFFFFFFF
310
FFFFFFFFFFFFFFFFFFFFFFFFFFFFFFFFFFFFFFFFFFFFFFFFFFFFFFFFFFFFFFFF
310
FFFFFFFFFFFFFFFFFFFFFFFFFFFFFFFFFFFFFFFFFFFFFFFFFFFFFFFFFFFFFFFF
310
F000FFFFFFFFFFFFFFFFFFFFFFFFFFFFFFFFFFFFFFFFFFFFFFFFFFFFFFFFFFFF
310
FFFFFFFFFFFFFFFFFFFFFFFFFFFFFFFFFFFFFFFFFFFFFFFFFFFFFFFFFFFFFFFF
310
FFFFFFFFFFFFFFFFFFFFFFFFFFFFFFFFFFFFFFFFFFFFFFFFF000FFFFFFFFFFFF
310
FFFFFFFFFFFFFFFFFFFFFFFFFFFFFFFFFFFFFFFFFFFFFFFFFFFFFFFFFFFFFFFF
310
FFFFFFFFFFFFFFFFFFFFFFFFFFFFFFFFFFFFFFFFFFFFFFFFFFFFFFFFFFFFFFFF
310
FFFFFFFFFFFFFFFFFFFFFFFFFFFFFFFFF000FFFFFFFFFFFFFFFFFFFFFFFFFFFF
310
FFFFFFFFFFFFFFFFFFFFFFFFFFFFFFFFFFFFFFFFFFFFFFFFFFFFFFFFFFFFFFFF
310
FFFFFFFFFFFFFFFFFFFFFFFFFFFFFFFFFFFFFFFFFFFFFFFFFFFFFFFFFFFFFFFF
310
FFFFFFFFFFFFFFFFF000FFFFFFFFFFFFFFFFFFFFFFFFFFFFFFFFFFFFFFFFFFFF
310
FFFFFFFFFFFFFFFFFFFFFFFFFFFFFFFFFFFFFFFFFFFFFFFFFFFFFFFFFFFFFFFF
310
FFFFFFFFFFFFFFFFFFFFFFFFFFFFFFFFFFFFFFFFFFFFFFFFFFFFFFFFFFFFFFFF
310
F000FFFFFFFFFFFFFFFFFFFFFFFFFFFFFFFFFFFFFFFFFFFFFFFFFFFFFFFFFFFF
310
FFFFFFFFFFFFFFFFFFFFFFFFFFFFFFFFFFFFFFFFFFFFFFFFFFFFFFFFFFFFFFFF
310
FFFFFFFFFFFFFFFFFFFFFFFFFFFFFFFFFFFFFFFFFFFFFFFFF000FFFFFFFFFFFF
310
FFFFFFFFFFFFFFFFFFFFFFFFFFFFFFFFFFFFFFFFFFFFFFFFFFFFFFFFFFFFFFFF
310
FFFFFFFFFFFFFFFFFFFFFFFFFFFFFFFFFFFFFFFFFFFFFFFFFFFFFFFFFFFFFFFF
310
FFFFFFFFFFFFFFFFFFFFFFFFFFFFFFFFF0000000000000000000000000000000
310
0000000000000000000000000000000000000000000000000000000000000000
310
0000000000000000000000000000000000000000000000000000000000000000
310
0000000000000000000000000000000000000000000000000000000000000000
310
0000000000000000000000000000000000000000000000000000000000000000
310
0000000000000000000000000000000000000000000000000000000000000000
310
0000000000000000000000000000000000000000000000000000000000000000
310
0000000000000000000000000000000000000000000000000000000000000000
310
0000000000000000000000000000000000000000000000000000000000000000
310
0000000000000000000000000000000000000000000000000000000000000000
310
0000000000000000000000000000000000000000000000000000000000000000
310
0000000000000000000000000000000000000000000000000000000000000000
310
0000000000000000000000000000000000000000000000000000000000000000
310
0000000000000000000000000000000000000000000000000000000000000000
310
0000000000000000000000000000000000000000000000000000000000000000
310
0000000000000000000000000000000000000000000000000000000000000000
  1
OLE
  0
ENDSEC
  0
SECTION
  2
OBJECTS
  0
DICTIONARY
  5
C
330
0
100
AcDbDictionary
281
     1
  3
ACAD_GROUP
350
D
  3
ACAD_LAYOUT
350
1A
  3
ACAD_MLINESTYLE
350
17
  3
ACAD_PLOTSETTINGS
350
19
  3
ACAD_PLOTSTYLENAME
350
E
  3
ACAD_SCALELIST
350
47
  0
DICTIONARY
  5
D
102
{ACAD_REACTORS
330
C
102
}
330
C
100
AcDbDictionary
281
     1
  0
DICTIONARY
  5
1A
102
{ACAD_REACTORS
330
C
102
}
330
C
100
AcDbDictionary
281
     1
  3
Layout1
350
1E
  3
Layout2
350
26
  3
Model
350
22
  0
DICTIONARY
  5
17
102
{ACAD_REACTORS
330
C
102
}
330
C
100
AcDbDictionary
281
     1
  3
Standard
350
18
  0
DICTIONARY
  5
19
102
{ACAD_REACTORS
330
C
102
}
330
C
100
AcDbDictionary
281
     1
  0
ACDBDICTIONARYWDFLT
  5
E
102
{ACAD_REACTORS
330
C
102
}
330
C
100
AcDbDictionary
281
     1
  3
Normal
350
F
100
AcDbDictionaryWithDefault
340
F
  0
DICTIONARY
  5
47
102
{ACAD_REACTORS
330
C
102
}
330
C
100
AcDbDictionary
281
     1
  3
A0
350
48
  3
A1
350
49
  3
A2
350
4A
  3
A3
350
4B
  3
A4
350
4C
  3
A5
350
4D
  3
A6
350
4E
  3
A7
350
4F
  3
A8
350
50
  3
A9
350
51
  3
B0
350
52
  3
B1
350
53
  3
B2
350
54
  3
B3
350
55
  3
B4
350
56
  3
B5
350
57
  3
B6
350
58
  3
B7
350
59
  3
B8
350
5A
  3
B9
350
5B
  3
C0
350
5C
  3
C1
350
5D
  3
C2
350
5E
  3
C3
350
5F
  3
C4
350
60
  3
C5
350
61
  3
C6
350
62
  3
C7
350
63
  3
C8
350
64
  3
C9
350
65
  3
D0
350
66
  3
D1
350
67
  3
D2
350
68
  0
LAYOUT
  5
1E
102
{ACAD_REACTORS
330
1A
102
}
330
1A
100
AcDbPlotSettings
  1

  2
none_device
  4

  6

 40
0.0
 41
0.0
 42
0.0
 43
0.0
 44
0.0
 45
0.0
 46
0.0
 47
0.0
 48
0.0
 49
0.0
140
0.0
141
0.0
142
1.0
143
1.0
 70
   688
 72
     1
 73
     0
 74
     5
  7

 75
    16
147
1.0
148
0.0
149
0.0
100
AcDbLayout
  1
Layout1
 70
     1
 71
     1
 10
0.0
 20
0.0
 11
420.0
 21
297.0
 12
0.0
 22
0.0
 32
0.0
 14
1.0000000000E+20
 24
1.0000000000E+20
 34
1.0000000000E+20
 15
-1.0000000000E+20
 25
-1.0000000000E+20
 35
-1.0000000000E+20
146
0.0
 13
0.0
 23
0.0
 33
0.0
 16
1.0
 26
0.0
 36
0.0
 17
0.0
 27
1.0
 37
0.0
 76
     0
330
1B
  0
LAYOUT
  5
26
102
{ACAD_REACTORS
330
1A
102
}
330
1A
100
AcDbPlotSettings
  1

  2
none_device
  4

  6

 40
0.0
 41
0.0
 42
0.0
 43
0.0
 44
0.0
 45
0.0
 46
0.0
 47
0.0
 48
0.0
 49
0.0
140
0.0
141
0.0
142
1.0
143
1.0
 70
   688
 72
     1
 73
     0
 74
     5
  7

 75
    16
147
1.0
148
0.0
149
0.0
100
AcDbLayout
  1
Layout2
 70
     1
 71
     2
 10
0.0
 20
0.0
 11
0.0
 21
0.0
 12
0.0
 22
0.0
 32
0.0
 14
0.0
 24
0.0
 34
0.0
 15
0.0
 25
0.0
 35
0.0
146
0.0
 13
0.0
 23
0.0
 33
0.0
 16
1.0
 26
0.0
 36
0.0
 17
0.0
 27
1.0
 37
0.0
 76
     0
330
23
  0
LAYOUT
  5
22
102
{ACAD_REACTORS
330
1A
102
}
330
1A
100
AcDbPlotSettings
  1

  2
none_device
  4
Letter_(8.50_x_11.00_Inches)
  6

 40
6.35
 41
6.35
 42
6.35000508
 43
6.35000508
 44
215.9
 45
279.4
 46
0.0
 47
0.0
 48
0.0
 49
0.0
140
0.0
141
0.0
142
1.0
143
1.0
 70
  1712
 72
     1
 73
     0
 74
     0
  7

 75
     0
147
1.0
148
0.0
149
0.0
100
AcDbLayout
  1
Model
 70
     1
 71
     0
 10
0.0
 20
0.0
 11
297.0
 21
210.0
 12
0.0
 22
0.0
 32
0.0
 14
0.0
 24
0.0
 34
0.0
 15
297.0
 25
210.0
 35
0.0
146
0.0
 13
0.0
 23
0.0
 33
0.0
 16
1.0
 26
0.0
 36
0.0
 17
0.0
 27
1.0
 37
0.0
 76
     0
330
1F
331
29
  0
MLINESTYLE
  5
18
102
{ACAD_REACTORS
330
17
102
}
330
17
100
AcDbMlineStyle
  2
Standard
 70
     0
  3

 62
   256
 51
90.0
 52
90.0
 71
     2
 49
0.5
 62
   256
  6
BYLAYER
 49
-0.5
 62
   256
  6
BYLAYER
  0
ACDBPLACEHOLDER
  5
F
102
{ACAD_REACTORS
330
E
102
}
330
E
  0
SCALE
  5
48
102
{ACAD_REACTORS
330
47
102
}
330
47
100
AcDbScale
 70
     0
300
1:1
140
1.0
141
1.0
290
     1
  0
SCALE
  5
49
102
{ACAD_REACTORS
330
47
102
}
330
47
100
AcDbScale
 70
     0
300
1:2
140
1.0
141
2.0
290
     0
  0
SCALE
  5
4A
102
{ACAD_REACTORS
330
47
102
}
330
47
100
AcDbScale
 70
     0
300
1:4
140
1.0
141
4.0
290
     0
  0
SCALE
  5
4B
102
{ACAD_REACTORS
330
47
102
}
330
47
100
AcDbScale
 70
     0
300
1:5
140
1.0
141
5.0
290
     0
  0
SCALE
  5
4C
102
{ACAD_REACTORS
330
47
102
}
330
47
100
AcDbScale
 70
     0
300
1:8
140
1.0
141
8.0
290
     0
  0
SCALE
  5
4D
102
{ACAD_REACTORS
330
47
102
}
330
47
100
AcDbScale
 70
     0
300
1:10
140
1.0
141
10.0
290
     0
  0
SCALE
  5
4E
102
{ACAD_REACTORS
330
47
102
}
330
47
100
AcDbScale
 70
     0
300
1:16
140
1.0
141
16.0
290
     0
  0
SCALE
  5
4F
102
{ACAD_REACTORS
330
47
102
}
330
47
100
AcDbScale
 70
     0
300
1:20
140
1.0
141
20.0
290
     0
  0
SCALE
  5
50
102
{ACAD_REACTORS
330
47
102
}
330
47
100
AcDbScale
 70
     0
300
1:30
140
1.0
141
30.0
290
     0
  0
SCALE
  5
51
102
{ACAD_REACTORS
330
47
102
}
330
47
100
AcDbScale
 70
     0
300
1:40
140
1.0
141
40.0
290
     0
  0
SCALE
  5
52
102
{ACAD_REACTORS
330
47
102
}
330
47
100
AcDbScale
 70
     0
300
1:50
140
1.0
141
50.0
290
     0
  0
SCALE
  5
53
102
{ACAD_REACTORS
330
47
102
}
330
47
100
AcDbScale
 70
     0
300
1:100
140
1.0
141
100.0
290
     0
  0
SCALE
  5
54
102
{ACAD_REACTORS
330
47
102
}
330
47
100
AcDbScale
 70
     0
300
2:1
140
2.0
141
1.0
290
     0
  0
SCALE
  5
55
102
{ACAD_REACTORS
330
47
102
}
330
47
100
AcDbScale
 70
     0
300
4:1
140
4.0
141
1.0
290
     0
  0
SCALE
  5
56
102
{ACAD_REACTORS
330
47
102
}
330
47
100
AcDbScale
 70
     0
300
8:1
140
8.0
141
1.0
290
     0
  0
SCALE
  5
57
102
{ACAD_REACTORS
330
47
102
}
330
47
100
AcDbScale
 70
     0
300
10:1
140
10.0
141
1.0
290
     0
  0
SCALE
  5
58
102
{ACAD_REACTORS
330
47
102
}
330
47
100
AcDbScale
 70
     0
300
100:1
140
100.0
141
1.0
290
     0
  0
SCALE
  5
59
102
{ACAD_REACTORS
330
47
102
}
330
47
100
AcDbScale
 70
     0
300
1/128" = 1'-0"
140
0.0078125
141
12.0
290
     0
  0
SCALE
  5
5A
102
{ACAD_REACTORS
330
47
102
}
330
47
100
AcDbScale
 70
     0
300
1/64" = 1'-0"
140
0.015625
141
12.0
290
     0
  0
SCALE
  5
5B
102
{ACAD_REACTORS
330
47
102
}
330
47
100
AcDbScale
 70
     0
300
1/32" = 1'-0"
140
0.03125
141
12.0
290
     0
  0
SCALE
  5
5C
102
{ACAD_REACTORS
330
47
102
}
330
47
100
AcDbScale
 70
     0
300
1/16" = 1'-0"
140
0.0625
141
12.0
290
     0
  0
SCALE
  5
5D
102
{ACAD_REACTORS
330
47
102
}
330
47
100
AcDbScale
 70
     0
300
3/32" = 1'-0"
140
0.09375
141
12.0
290
     0
  0
SCALE
  5
5E
102
{ACAD_REACTORS
330
47
102
}
330
47
100
AcDbScale
 70
     0
300
1/8" = 1'-0"
140
0.125
141
12.0
290
     0
  0
SCALE
  5
5F
102
{ACAD_REACTORS
330
47
102
}
330
47
100
AcDbScale
 70
     0
300
3/16" = 1'-0"
140
0.1875
141
12.0
290
     0
  0
SCALE
  5
60
102
{ACAD_REACTORS
330
47
102
}
330
47
100
AcDbScale
 70
     0
300
1/4" = 1'-0"
140
0.25
141
12.0
290
     0
  0
SCALE
  5
61
102
{ACAD_REACTORS
330
47
102
}
330
47
100
AcDbScale
 70
     0
300
3/8" = 1'-0"
140
0.375
141
12.0
290
     0
  0
SCALE
  5
62
102
{ACAD_REACTORS
330
47
102
}
330
47
100
AcDbScale
 70
     0
300
1/2" = 1'-0"
140
0.5
141
12.0
290
     0
  0
SCALE
  5
63
102
{ACAD_REACTORS
330
47
102
}
330
47
100
AcDbScale
 70
     0
300
3/4" = 1'-0"
140
0.75
141
12.0
290
     0
  0
SCALE
  5
64
102
{ACAD_REACTORS
330
47
102
}
330
47
100
AcDbScale
 70
     0
300
1" = 1'-0"
140
1.0
141
12.0
290
     0
  0
SCALE
  5
65
102
{ACAD_REACTORS
330
47
102
}
330
47
100
AcDbScale
 70
     0
300
1-1/2" = 1'-0"
140
1.5
141
12.0
290
     0
  0
SCALE
  5
66
102
{ACAD_REACTORS
330
47
102
}
330
47
100
AcDbScale
 70
     0
300
3" = 1'-0"
140
3.0
141
12.0
290
     0
  0
SCALE
  5
67
102
{ACAD_REACTORS
330
47
102
}
330
47
100
AcDbScale
 70
     0
300
6" = 1'-0"
140
6.0
141
12.0
290
     0
  0
SCALE
  5
68
102
{ACAD_REACTORS
330
47
102
}
330
47
100
AcDbScale
 70
     0
300
1'-0" = 1'-0"
140
12.0
141
12.0
290
     0
  0
ENDSEC
  0
EOF
