  0
SECTION
  2
HEADER
  9
$ACADVER
  1
AC1015
  9
$ACADMAINTVER
 70
     6
  9
$DWGCODEPAGE
  3
ANSI_1252
  9
$INSBASE
 10
0.0
 20
0.0
 30
0.0
  9
$EXTMIN
 10
0.0
 20
0.0
 30
0.0
  9
$EXTMAX
 10
297.0
 20
210.0
 30
0.0
  9
$LIMMIN
 10
0.0
 20
0.0
  9
$LIMMAX
 10
297.0
 20
210.0
  9
$ORTHOMODE
 70
     0
  9
$REGENMODE
 70
     1
  9
$FILLMODE
 70
     1
  9
$QTEXTMODE
 70
     0
  9
$MIRRTEXT
 70
     1
  9
$LTSCALE
 40
1.0
  9
$ATTMODE
 70
     1
  9
$TEXTSIZE
 40
2.0
  9
$TRACEWID
 40
1.0
  9
$TEXTSTYLE
  7
Standard
  9
$CLAYER
  8
0
  9
$CELTYPE
  6
ByLayer
  9
$CECOLOR
 62
   256
  9
$CELTSCALE
 40
1.0
  9
$DISPSILH
 70
     0
  9
$DIMSCALE
 40
1.0
  9
$DIMASZ
 40
3.0
  9
$DIMEXO
 40
0.0
  9
$DIMDLI
 40
3.75
  9
$DIMRND
 40
0.0
  9
$DIMDLE
 40
0.0
  9
$DIMEXE
 40
1.0
  9
$DIMTP
 40
0.0
  9
$DIMTM
 40
0.0
  9
$DIMTXT
 40
2.0
  9
$DIMCEN
 40
2.5
  9
$DIMTSZ
 40
0.0
  9
$DIMTOL
 70
     0
  9
$DIMLIM
 70
     0
  9
$DIMTIH
 70
     1
  9
$DIMTOH
 70
     1
  9
$DIMSE1
 70
     0
  9
$DIMSE2
 70
     0
  9
$DIMTAD
 70
     1
  9
$DIMZIN
 70
     0
  9
$DIMBLK
  1

  9
$DIMASO
 70
     1
  9
$DIMSHO
 70
     1
  9
$DIMPOST
  1

  9
$DIMAPOST
  1

  9
$DIMALT
 70
     0
  9
$DIMALTD
 70
     3
  9
$DIMALTF
 40
0.0393700787
  9
$DIMLFAC
 40
2.0
  9
$DIMTOFL
 70
     1
  9
$DIMTVP
 40
0.0
  9
$DIMTIX
 70
     0
  9
$DIMSOXD
 70
     0
  9
$DIMSAH
 70
     0
  9
$DIMBLK1
  1

  9
$DIMBLK2
  1

  9
$DIMSTYLE
  2
ISO-25
  9
$DIMCLRD
 70
     0
  9
$DIMCLRE
 70
     0
  9
$DIMCLRT
 70
     0
  9
$DIMTFAC
 40
1.0
  9
$DIMGAP
 40
1.524
  9
$DIMJUST
 70
     0
  9
$DIMSD1
 70
     0
  9
$DIMSD2
 70
     0
  9
$DIMTOLJ
 70
     0
  9
$DIMTZIN
 70
     0
  9
$DIMALTZ
 70
     0
  9
$DIMALTTZ
 70
     0
  9
$DIMUPT
 70
     0
  9
$DIMDEC
 70
     2
  9
$DIMTDEC
 70
     3
  9
$DIMALTU
 70
     2
  9
$DIMALTTD
 70
     3
  9
$DIMTXSTY
  7
Standard
  9
$DIMAUNIT
 70
     0
  9
$DIMADEC
 70
     2
  9
$DIMALTRND
 40
0.0
  9
$DIMAZIN
 70
     0
  9
$DIMDSEP
 70
    44
  9
$DIMATFIT
 70
     3
  9
$DIMFRAC
 70
     0
  9
$DIMLDRBLK
  1

  9
$DIMLUNIT
 70
     2
  9
$DIMLWD
 70
    -2
  9
$DIMLWE
 70
    -2
  9
$DIMTMOVE
 70
     0
  9
$LUNITS
 70
     2
  9
$LUPREC
 70
     2
  9
$SKETCHINC
 40
1.0
  9
$FILLETRAD
 40
10.0
  9
$AUNITS
 70
     0
  9
$AUPREC
 70
     2
  9
$MENU
  1
.
  9
$ELEVATION
 40
0.0
  9
$PELEVATION
 40
0.0
  9
$THICKNESS
 40
0.0
  9
$LIMCHECK
 70
     0
  9
$CHAMFERA
 40
0.0
  9
$CHAMFERB
 40
0.0
  9
$CHAMFERC
 40
0.0
  9
$CHAMFERD
 40
0.0
  9
$SKPOLY
 70
     0
  9
$TDCREATE
 40
2458169.673399572
  9
$TDUCREATE
 40
2458169.631732905
  9
$TDUPDATE
 40
2458169.673401551
  9
$TDUUPDATE
 40
2458169.631734884
  9
$TDINDWG
 40
0.0000000116
  9
$TDUSRTIMER
 40
0.0000000116
  9
$USRTIMER
 70
     1
  9
$ANGBASE
 50
0.0
  9
$ANGDIR
 70
     0
  9
$PDMODE
 70
     0
  9
$PDSIZE
 40
-1.0
  9
$PLINEWID
 40
0.0
  9
$SPLFRAME
 70
     0
  9
$SPLINETYPE
 70
     6
  9
$SPLINESEGS
 70
     8
  9
$HANDSEED
  5
24B
  9
$SURFTAB1
 70
     6
  9
$SURFTAB2
 70
     6
  9
$SURFTYPE
 70
     6
  9
$SURFU
 70
     6
  9
$SURFV
 70
     6
  9
$UCSBASE
  2

  9
$UCSNAME
  2

  9
$UCSORG
 10
0.0
 20
0.0
 30
0.0
  9
$UCSXDIR
 10
1.0
 20
0.0
 30
0.0
  9
$UCSYDIR
 10
0.0
 20
1.0
 30
0.0
  9
$UCSORTHOREF
  2

  9
$UCSORTHOVIEW
 70
     0
  9
$UCSORGTOP
 10
0.0
 20
0.0
 30
0.0
  9
$UCSORGBOTTOM
 10
0.0
 20
0.0
 30
0.0
  9
$UCSORGLEFT
 10
0.0
 20
0.0
 30
0.0
  9
$UCSORGRIGHT
 10
0.0
 20
0.0
 30
0.0
  9
$UCSORGFRONT
 10
0.0
 20
0.0
 30
0.0
  9
$UCSORGBACK
 10
0.0
 20
0.0
 30
0.0
  9
$PUCSBASE
  2

  9
$PUCSNAME
  2

  9
$PUCSORG
 10
0.0
 20
0.0
 30
0.0
  9
$PUCSXDIR
 10
1.0
 20
0.0
 30
0.0
  9
$PUCSYDIR
 10
0.0
 20
1.0
 30
0.0
  9
$PUCSORTHOREF
  2

  9
$PUCSORTHOVIEW
 70
     0
  9
$PUCSORGTOP
 10
0.0
 20
0.0
 30
0.0
  9
$PUCSORGBOTTOM
 10
0.0
 20
0.0
 30
0.0
  9
$PUCSORGLEFT
 10
0.0
 20
0.0
 30
0.0
  9
$PUCSORGRIGHT
 10
0.0
 20
0.0
 30
0.0
  9
$PUCSORGFRONT
 10
0.0
 20
0.0
 30
0.0
  9
$PUCSORGBACK
 10
0.0
 20
0.0
 30
0.0
  9
$USERI1
 70
     0
  9
$USERI2
 70
     0
  9
$USERI3
 70
     0
  9
$USERI4
 70
     0
  9
$USERI5
 70
     0
  9
$USERR1
 40
0.0
  9
$USERR2
 40
0.0
  9
$USERR3
 40
0.0
  9
$USERR4
 40
0.0
  9
$USERR5
 40
0.0
  9
$WORLDVIEW
 70
     1
  9
$SHADEDGE
 70
     3
  9
$SHADEDIF
 70
    70
  9
$TILEMODE
 70
     1
  9
$MAXACTVP
 70
    64
  9
$PINSBASE
 10
0.0
 20
0.0
 30
0.0
  9
$PLIMCHECK
 70
     0
  9
$PEXTMIN
 10
1.0000000000E+20
 20
1.0000000000E+20
 30
1.0000000000E+20
  9
$PEXTMAX
 10
-1.0000000000E+20
 20
-1.0000000000E+20
 30
-1.0000000000E+20
  9
$PLIMMIN
 10
0.0
 20
0.0
  9
$PLIMMAX
 10
420.0
 20
297.0
  9
$UNITMODE
 70
     0
  9
$VISRETAIN
 70
     1
  9
$PLINEGEN
 70
     0
  9
$PSLTSCALE
 70
     1
  9
$TREEDEPTH
 70
  3020
  9
$CMLSTYLE
  2
Standard
  9
$CMLJUST
 70
     0
  9
$CMLSCALE
 40
20.0
  9
$PROXYGRAPHICS
 70
     1
  9
$MEASUREMENT
 70
     1
  9
$CELWEIGHT
370
    -1
  9
$ENDCAPS
280
     0
  9
$JOINSTYLE
280
     0
  9
$LWDISPLAY
290
     1
  9
$INSUNITS
 70
     4
  9
$HYPERLINKBASE
  1

  9
$STYLESHEET
  1

  9
$XEDIT
290
     1
  9
$CEPSNTYPE
380
     0
  9
$PSTYLEMODE
290
     1
  9
$FINGERPRINTGUID
  2
{FE23E7C3-C71D-4E7A-9D14-E284D6D4AA48}
  9
$VERSIONGUID
  2
{FAEB1C32-E019-11D5-929B-00C0DF256EC4}
  9
$EXTNAMES
290
     1
  9
$PSVPSCALE
 40
0.0
  9
$OLESTARTUP
290
     0
  0
ENDSEC
  0
SECTION
  2
CLASSES
  0
CLASS
  1
ACDBDICTIONARYWDFLT
  2
AcDbDictionaryWithDefault
  3
ObjectDBX Classes
 90
        0
280
     0
281
     0
  0
CLASS
  1
VISUALSTYLE
  2
AcDbVisualStyle
  3
ObjectDBX Classes
 90
     4095
280
     0
281
     0
  0
CLASS
  1
MATERIAL
  2
AcDbMaterial
  3
ObjectDBX Classes
 90
     1153
280
     0
281
     0
  0
CLASS
  1
SCALE
  2
AcDbScale
  3
ObjectDBX Classes
 90
     1153
280
     0
281
     0
  0
CLASS
  1
TABLESTYLE
  2
AcDbTableStyle
  3
ObjectDBX Classes
 90
     4095
280
     0
281
     0
  0
CLASS
  1
MLEADERSTYLE
  2
AcDbMLeaderStyle
  3
ACDB_MLEADERSTYLE_CLASS
 90
     4095
280
     0
281
     0
  0
CLASS
  1
SUN
  2
AcDbSun
  3
SCENEOE
 90
     1153
280
     0
281
     0
  0
CLASS
  1
ACDBPLACEHOLDER
  2
AcDbPlaceHolder
  3
ObjectDBX Classes
 90
        0
280
     0
281
     0
  0
CLASS
  1
LAYOUT
  2
AcDbLayout
  3
ObjectDBX Classes
 90
        0
280
     0
281
     0
  0
ENDSEC
  0
SECTION
  2
TABLES
  0
TABLE
  2
VPORT
  5
8
330
0
100
AcDbSymbolTable
 70
     1
  0
VPORT
  5
29
330
8
100
AcDbSymbolTableRecord
100
AcDbViewportTableRecord
  2
*Active
 70
     0
 10
0.0
 20
0.0
 11
1.0
 21
1.0
 12
148.5
 22
105.0
 13
0.0
 23
0.0
 14
10.0
 24
10.0
 15
10.0
 25
10.0
 16
0.0
 26
0.0
 36
1.0
 17
0.0
 27
0.0
 37
0.0
 40
210.0
 41
1.4142857143
 42
50.0
 43
0.0
 44
0.0
 50
0.0
 51
0.0
 71
     0
 72
  2000
 73
     1
 74
     3
 75
     0
 76
     0
 77
     0
 78
     0
281
     0
 65
     1
110
0.0
120
0.0
130
0.0
111
1.0
121
0.0
131
0.0
112
0.0
122
1.0
132
0.0
 79
     0
146
0.0
  0
ENDTAB
  0
TABLE
  2
LTYPE
  5
5
330
0
100
AcDbSymbolTable
 70
     6
  0
LTYPE
  5
14
330
5
100
AcDbSymbolTableRecord
100
AcDbLinetypeTableRecord
  2
ByBlock
 70
     0
  3

 72
    65
 73
     0
 40
0.0
  0
LTYPE
  5
15
330
5
100
AcDbSymbolTableRecord
100
AcDbLinetypeTableRecord
  2
ByLayer
 70
     0
  3

 72
    65
 73
     0
 40
0.0
  0
LTYPE
  5
16
330
5
100
AcDbSymbolTableRecord
100
AcDbLinetypeTableRecord
  2
Continuous
 70
     0
  3
Solid line
 72
    65
 73
     0
 40
0.0
  0
LTYPE
  5
6E
330
5
100
AcDbSymbolTableRecord
100
AcDbLinetypeTableRecord
  2
HIDDEN
 70
     0
  3
Hidden __ __ __ __ __ __ __ __ __ __ __ __ __ __
 72
    65
 73
     2
 40
1.905
 49
1.27
 74
     0
 49
-0.635
 74
     0
  0
LTYPE
  5
6F
330
5
100
AcDbSymbolTableRecord
100
AcDbLinetypeTableRecord
  2
PHANTOM
 70
     0
  3
Phantom ______  __  __  ______  __  __  ______
 72
    65
 73
     6
 40
12.7
 49
6.35
 74
     0
 49
-1.27
 74
     0
 49
1.27
 74
     0
 49
-1.27
 74
     0
 49
1.27
 74
     0
 49
-1.27
 74
     0
  0
LTYPE
  5
70
330
5
100
AcDbSymbolTableRecord
100
AcDbLinetypeTableRecord
  2
CENTER
 70
     0
  3
Center ____ _ ____ _ ____ _ ____ _ ____ _ ____
 72
    65
 73
     4
 40
10.16
 49
6.35
 74
     0
 49
-1.27
 74
     0
 49
1.27
 74
     0
 49
-1.27
 74
     0
  0
LTYPE
  5
71
330
5
100
AcDbSymbolTableRecord
100
AcDbLinetypeTableRecord
  2
CENTERX2
 70
     0
  3
Center (2x) ________  __  ________  __  _____
 72
    65
 73
     4
 40
20.32
 49
12.7
 74
     0
 49
-2.54
 74
     0
 49
2.54
 74
     0
 49
-2.54
 74
     0
  0
LTYPE
  5
72
330
5
100
AcDbSymbolTableRecord
100
AcDbLinetypeTableRecord
  2
DOT2
 70
     0
  3
Dot (.5x) ........................................
 72
    65
 73
     2
 40
0.635
 49
0.0
 74
     0
 49
-0.635
 74
     0
  0
ENDTAB
  0
TABLE
  2
LAYER
  5
2
330
0
100
AcDbSymbolTable
 70
     5
  0
LAYER
  5
10
330
2
100
AcDbSymbolTableRecord
100
AcDbLayerTableRecord
  2
0
 70
     0
 62
     7
  6
Continuous
370
    -3
390
F
  0
LAYER
  5
73
330
2
100
AcDbSymbolTableRecord
100
AcDbLayerTableRecord
  2
FORMAT
 70
     0
 62
     7
  6
Continuous
370
    -3
390
F
  0
LAYER
  5
74
330
2
100
AcDbSymbolTableRecord
100
AcDbLayerTableRecord
  2
VERMASSUNG
 70
     0
 62
     7
  6
Continuous
370
    -3
390
F
  0
LAYER
  5
75
330
2
100
AcDbSymbolTableRecord
100
AcDbLayerTableRecord
  2
KOPF_DÜNN
 70
     0
 62
     7
  6
Continuous
370
    -3
390
F
  0
LAYER
  5
76
330
2
100
AcDbSymbolTableRecord
100
AcDbLayerTableRecord
  2
KOPF_DICK
 70
     0
 62
     7
  6
Continuous
370
    25
390
F
  0
ENDTAB
  0
TABLE
  2
STYLE
  5
3
330
0
100
AcDbSymbolTable
 70
     2
  0
STYLE
  5
11
330
3
100
AcDbSymbolTableRecord
100
AcDbTextStyleTableRecord
  2
Standard
 70
     0
 40
0.0
 41
1.0
 50
0.0
 71
     0
 42
2.0
  3
txt
  4

  0
STYLE
  5
77
330
3
100
AcDbSymbolTableRecord
100
AcDbTextStyleTableRecord
  2
SLDTEXTSTYLE0
 70
     0
 40
0.0
 41
0.7
 50
0.0
 71
     0
 42
2.0
  3
TXT
  4

  0
ENDTAB
  0
TABLE
  2
VIEW
  5
6
330
0
100
AcDbSymbolTable
 70
     0
  0
ENDTAB
  0
TABLE
  2
UCS
  5
7
330
0
100
AcDbSymbolTable
 70
     0
  0
ENDTAB
  0
TABLE
  2
APPID
  5
9
330
0
100
AcDbSymbolTable
 70
     1
  0
APPID
  5
12
330
9
100
AcDbSymbolTableRecord
100
AcDbRegAppTableRecord
  2
ACAD
 70
     0
  0
ENDTAB
  0
TABLE
  2
DIMSTYLE
  5
A
330
0
100
AcDbSymbolTable
 70
     3
100
AcDbDimStyleTable
  0
DIMSTYLE
105
27
330
A
100
AcDbSymbolTableRecord
100
AcDbDimStyleTableRecord
  2
ISO-25
 70
     0
 41
2.5
 42
0.625
 43
3.75
 44
1.25
 73
     0
 74
     0
 77
     1
 78
     8
140
2.5
141
2.5
143
0.0393700787
147
0.625
171
     3
172
     1
178
     0
271
     2
272
     2
274
     3
278
    44
283
     0
284
     8
340
11
  0
DIMSTYLE
105
115
102
{ACAD_REACTORS
330
114
330
12A
330
134
330
14B
330
156
102
}
330
A
100
AcDbSymbolTableRecord
100
AcDbDimStyleTableRecord
  2
SLDDIMSTYLE0
 70
     0
 41
3.0
 44
0.0
 45
0.000000001
 73
     0
 74
     0
 77
     1
 78
    12
 79
     3
140
2.0
147
0.5
173
     1
178
     0
271
     2
272
     3
276
     2
284
    12
340
77
  0
DIMSTYLE
105
120
102
{ACAD_REACTORS
330
11F
330
13E
330
161
102
}
330
A
100
AcDbSymbolTableRecord
100
AcDbDimStyleTableRecord
  2
SLDDIMSTYLE1
 70
     0
 41
3.0
 44
0.0
 45
0.000000001
 73
     0
 74
     0
 77
     1
 78
    12
 79
     3
140
2.0
147
0.5
173
     1
178
     0
271
     0
272
     3
276
     2
284
    12
340
77
  0
ENDTAB
  0
TABLE
  2
BLOCK_RECORD
  5
1
330
0
100
AcDbSymbolTable
 70
     9
  0
BLOCK_RECORD
  5
1F
330
1
100
AcDbSymbolTableRecord
100
AcDbBlockTableRecord
  2
*Model_Space
340
22
  0
BLOCK_RECORD
  5
1B
330
1
100
AcDbSymbolTableRecord
100
AcDbBlockTableRecord
  2
*Paper_Space
340
1E
  0
BLOCK_RECORD
  5
23
330
1
100
AcDbSymbolTableRecord
100
AcDbBlockTableRecord
  2
*Paper_Space0
340
26
  0
BLOCK_RECORD
  5
116
330
1
100
AcDbSymbolTableRecord
100
AcDbBlockTableRecord
  2
_D
340
0
  0
BLOCK_RECORD
  5
121
330
1
100
AcDbSymbolTableRecord
100
AcDbBlockTableRecord
  2
_D_1
340
0
  0
BLOCK_RECORD
  5
12B
330
1
100
AcDbSymbolTableRecord
100
AcDbBlockTableRecord
  2
_D_2
340
0
  0
BLOCK_RECORD
  5
135
330
1
100
AcDbSymbolTableRecord
100
AcDbBlockTableRecord
  2
_D_3
340
0
  0
BLOCK_RECORD
  5
13F
330
1
100
AcDbSymbolTableRecord
100
AcDbBlockTableRecord
  2
_D_4
340
0
  0
BLOCK_RECORD
  5
14C
330
1
100
AcDbSymbolTableRecord
100
AcDbBlockTableRecord
  2
_D_5
340
0
  0
BLOCK_RECORD
  5
157
330
1
100
AcDbSymbolTableRecord
100
AcDbBlockTableRecord
  2
_D_6
340
0
  0
BLOCK_RECORD
  5
162
330
1
100
AcDbSymbolTableRecord
100
AcDbBlockTableRecord
  2
_D_7
340
0
  0
ENDTAB
  0
ENDSEC
  0
SECTION
  2
BLOCKS
  0
BLOCK
  5
20
330
1F
100
AcDbEntity
  8
0
100
AcDbBlockBegin
  2
*Model_Space
 70
     0
 10
0.0
 20
0.0
 30
0.0
  3
*Model_Space
  1

  0
ENDBLK
  5
21
330
1F
100
AcDbEntity
  8
0
100
AcDbBlockEnd
  0
BLOCK
  5
1C
330
1B
100
AcDbEntity
 67
     1
  8
0
100
AcDbBlockBegin
  2
*Paper_Space
 70
     0
 10
0.0
 20
0.0
 30
0.0
  3
*Paper_Space
  1

  0
ENDBLK
  5
1D
330
1B
100
AcDbEntity
 67
     1
  8
0
100
AcDbBlockEnd
  0
BLOCK
  5
24
330
23
100
AcDbEntity
  8
0
100
AcDbBlockBegin
  2
*Paper_Space0
 70
     0
 10
0.0
 20
0.0
 30
0.0
  3
*Paper_Space0
  1

  0
ENDBLK
  5
25
330
23
100
AcDbEntity
  8
0
100
AcDbBlockEnd
  0
BLOCK
  5
117
330
116
100
AcDbEntity
  8
0
100
AcDbBlockBegin
  2
_D
 70
     0
 10
0.0
 20
0.0
 30
0.0
  3
_D
  1

  0
SOLID
  5
119
330
116
100
AcDbEntity
  8
VERMASSUNG
100
AcDbTrace
 10
172.9195113618
 20
157.076516069
 30
0.0
 11
175.9195113618
 21
156.626516069
 31
0.0
 12
175.9195113618
 22
157.526516069
 32
0.0
 13
175.9195113618
 23
157.526516069
 33
0.0
  0
SOLID
  5
11A
330
116
100
AcDbEntity
  8
VERMASSUNG
100
AcDbTrace
 10
192.9195113618
 20
157.076516069
 30
0.0
 11
189.9195113618
 21
157.526516069
 31
0.0
 12
189.9195113618
 22
156.626516069
 32
0.0
 13
189.9195113618
 23
156.626516069
 33
0.0
  0
LINE
  5
11B
330
116
100
AcDbEntity
  8
VERMASSUNG
100
AcDbLine
 10
172.9195113618
 20
147.5503828378
 30
0.0
 11
172.9195113618
 21
158.076516069
 31
0.0
  0
LINE
  5
11C
330
116
100
AcDbEntity
  8
VERMASSUNG
100
AcDbLine
 10
192.9195113618
 20
123.7124409074
 30
0.0
 11
192.9195113618
 21
158.076516069
 31
0.0
  0
LINE
  5
11D
330
116
100
AcDbEntity
  8
VERMASSUNG
100
AcDbLine
 10
172.9195113618
 20
157.076516069
 30
0.0
 11
192.9195113618
 21
157.076516069
 31
0.0
  0
MTEXT
  5
11E
330
116
100
AcDbEntity
  8
VERMASSUNG
100
AcDbMText
 10
181.5195114118
 20
159.654651665
 30
0.0
 40
2.0
 41
0.0
 71
     1
 72
     1
  1
20
  7
SLDTEXTSTYLE0
 73
     1
 44
1.0
  0
ENDBLK
  5
118
330
116
100
AcDbEntity
  8
0
100
AcDbBlockEnd
  0
BLOCK
  5
122
330
121
100
AcDbEntity
  8
0
100
AcDbBlockBegin
  2
_D_1
 70
     0
 10
0.0
 20
0.0
 30
0.0
  3
_D_1
  1

  0
SOLID
  5
124
330
121
100
AcDbEntity
  8
VERMASSUNG
100
AcDbTrace
 10
172.9195113618
 20
157.076516069
 30
0.0
 11
169.9195113618
 21
157.526516069
 31
0.0
 12
169.9195113618
 22
156.626516069
 32
0.0
 13
169.9195113618
 23
156.626516069
 33
0.0
  0
SOLID
  5
125
330
121
100
AcDbEntity
  8
VERMASSUNG
100
AcDbTrace
 10
150.5052977995
 20
157.076516069
 30
0.0
 11
153.5052977995
 21
156.626516069
 31
0.0
 12
153.5052977995
 22
157.526516069
 32
0.0
 13
153.5052977995
 23
157.526516069
 33
0.0
  0
LINE
  5
126
330
121
100
AcDbEntity
  8
VERMASSUNG
100
AcDbLine
 10
172.9195113618
 20
147.5503828378
 30
0.0
 11
172.9195113618
 21
158.076516069
 31
0.0
  0
LINE
  5
127
330
121
100
AcDbEntity
  8
VERMASSUNG
100
AcDbLine
 10
150.5052977995
 20
144.0253828378
 30
0.0
 11
150.5052977995
 21
158.076516069
 31
0.0
  0
LINE
  5
128
330
121
100
AcDbEntity
  8
VERMASSUNG
100
AcDbLine
 10
172.9195113618
 20
157.076516069
 30
0.0
 11
150.5052977995
 21
157.076516069
 31
0.0
  0
MTEXT
  5
129
330
121
100
AcDbEntity
  8
VERMASSUNG
100
AcDbMText
 10
160.3124046306
 20
159.654651665
 30
0.0
 40
2.0
 41
0.0
 71
     1
 72
     1
  1
22
  7
SLDTEXTSTYLE0
 73
     1
 44
1.0
  0
ENDBLK
  5
123
330
121
100
AcDbEntity
  8
0
100
AcDbBlockEnd
  0
BLOCK
  5
12C
330
12B
100
AcDbEntity
  8
0
100
AcDbBlockBegin
  2
_D_2
 70
     0
 10
0.0
 20
0.0
 30
0.0
  3
_D_2
  1

  0
SOLID
  5
12E
330
12B
100
AcDbEntity
  8
VERMASSUNG
100
AcDbTrace
 10
128.9195113618
 20
166.7838344287
 30
0.0
 11
131.9195113618
 21
166.3338344287
 31
0.0
 12
131.9195113618
 22
167.2338344287
 32
0.0
 13
131.9195113618
 23
167.2338344287
 33
0.0
  0
SOLID
  5
12F
330
12B
100
AcDbEntity
  8
VERMASSUNG
100
AcDbTrace
 10
172.9195113618
 20
166.7838344287
 30
0.0
 11
169.9195113618
 21
167.2338344287
 31
0.0
 12
169.9195113618
 22
166.3338344287
 32
0.0
 13
169.9195113618
 23
166.3338344287
 33
0.0
  0
LINE
  5
130
330
12B
100
AcDbEntity
  8
VERMASSUNG
100
AcDbLine
 10
128.9195113618
 20
143.8253828378
 30
0.0
 11
128.9195113618
 21
167.7838344287
 31
0.0
  0
LINE
  5
131
330
12B
100
AcDbEntity
  8
VERMASSUNG
100
AcDbLine
 10
172.9195113618
 20
147.5503828378
 30
0.0
 11
172.9195113618
 21
167.7838344287
 31
0.0
  0
LINE
  5
132
330
12B
100
AcDbEntity
  8
VERMASSUNG
100
AcDbLine
 10
128.9195113618
 20
166.7838344287
 30
0.0
 11
172.9195113618
 21
166.7838344287
 31
0.0
  0
MTEXT
  5
133
330
12B
100
AcDbEntity
  8
VERMASSUNG
100
AcDbMText
 10
149.3195114023
 20
169.3619700247
 30
0.0
 40
2.0
 41
0.0
 71
     1
 72
     1
  1
44
  7
SLDTEXTSTYLE0
 73
     1
 44
1.0
  0
ENDBLK
  5
12D
330
12B
100
AcDbEntity
  8
0
100
AcDbBlockEnd
  0
BLOCK
  5
136
330
135
100
AcDbEntity
  8
0
100
AcDbBlockBegin
  2
_D_3
 70
     0
 10
0.0
 20
0.0
 30
0.0
  3
_D_3
  1

  0
SOLID
  5
138
330
135
100
AcDbEntity
  8
VERMASSUNG
100
AcDbTrace
 10
88.9695113618
 20
176.5503828378
 30
0.0
 11
91.9695113618
 21
176.1003828378
 31
0.0
 12
91.9695113618
 22
177.0003828378
 32
0.0
 13
91.9695113618
 23
177.0003828378
 33
0.0
  0
SOLID
  5
139
330
135
100
AcDbEntity
  8
VERMASSUNG
100
AcDbTrace
 10
192.9195113618
 20
176.5503828378
 30
0.0
 11
189.9195113618
 21
177.0003828378
 31
0.0
 12
189.9195113618
 22
176.1003828378
 32
0.0
 13
189.9195113618
 23
176.1003828378
 33
0.0
  0
LINE
  5
13A
330
135
100
AcDbEntity
  8
VERMASSUNG
100
AcDbLine
 10
88.9695113618
 20
132.8126085746
 30
0.0
 11
88.9695113618
 21
177.5503828378
 31
0.0
  0
LINE
  5
13B
330
135
100
AcDbEntity
  8
VERMASSUNG
100
AcDbLine
 10
192.9195113618
 20
127.5503828378
 30
0.0
 11
192.9195113618
 21
177.5503828378
 31
0.0
  0
LINE
  5
13C
330
135
100
AcDbEntity
  8
VERMASSUNG
100
AcDbLine
 10
88.9695113618
 20
176.5503828378
 30
0.0
 11
192.9195113618
 21
176.5503828378
 31
0.0
  0
MTEXT
  5
13D
330
135
100
AcDbEntity
  8
VERMASSUNG
100
AcDbMText
 10
137.3445114237
 20
179.1285184338
 30
0.0
 40
2.0
 41
0.0
 71
     1
 72
     1
  1
103.95
  7
SLDTEXTSTYLE0
 73
     1
 44
1.0
  0
ENDBLK
  5
137
330
135
100
AcDbEntity
  8
0
100
AcDbBlockEnd
  0
BLOCK
  5
140
330
13F
100
AcDbEntity
  8
0
100
AcDbBlockBegin
  2
_D_4
 70
     0
 10
0.0
 20
0.0
 30
0.0
  3
_D_4
  1

  0
SOLID
  5
142
330
13F
100
AcDbEntity
  8
VERMASSUNG
100
AcDbTrace
 10
78.9694863618
 20
144.0253828378
 30
0.0
 11
78.5194863618
 21
141.0253828378
 31
0.0
 12
79.4194863618
 22
141.0253828378
 32
0.0
 13
79.4194863618
 23
141.0253828378
 33
0.0
  0
SOLID
  5
143
330
13F
100
AcDbEntity
  8
VERMASSUNG
100
AcDbTrace
 10
78.9694863618
 20
81.0753828378
 30
0.0
 11
79.4194863618
 21
84.0753828378
 31
0.0
 12
78.5194863618
 22
84.0753828378
 32
0.0
 13
78.5194863618
 23
84.0753828378
 33
0.0
  0
LINE
  5
144
330
13F
100
AcDbEntity
  8
VERMASSUNG
100
AcDbLine
 10
129.1195113618
 20
144.0253828378
 30
0.0
 11
77.9694863618
 21
144.0253828378
 31
0.0
  0
LINE
  5
145
330
13F
100
AcDbEntity
  8
VERMASSUNG
100
AcDbLine
 10
129.1195113618
 20
81.0753828378
 30
0.0
 11
77.9694863618
 21
81.0753828378
 31
0.0
  0
LINE
  5
146
330
13F
100
AcDbEntity
  8
VERMASSUNG
100
AcDbLine
 10
78.9694863618
 20
144.0253828378
 30
0.0
 11
78.9694863618
 21
81.0753828378
 31
0.0
  0
MTEXT
  5
147
330
13F
100
AcDbEntity
  8
VERMASSUNG
100
AcDbMText
 10
76.1913511056
 20
104.4453842195
 30
0.0
 40
2.0
 41
0.0
 71
     1
 72
     1
  1
KM
  7
SLDTEXTSTYLE0
 11
-7.044195017643634E-15
 21
1.0
 31
0.0
 73
     1
 44
1.0
  0
MTEXT
  5
148
330
13F
100
AcDbEntity
  8
VERMASSUNG
100
AcDbMText
 10
76.3913510569
 20
107.8453840317
 30
0.0
 40
2.0
 41
0.0
 71
     1
 72
     1
  1
%%c
  7
SLDTEXTSTYLE0
 11
-7.044195017643634E-15
 21
1.0
 31
0.0
 73
     1
 44
1.0
  0
MTEXT
  5
149
330
13F
100
AcDbEntity
  8
VERMASSUNG
100
AcDbMText
 10
76.1913511056
 20
111.455384046
 30
0.0
 40
2.0
 41
0.0
 71
     1
 72
     1
  1
63
  7
SLDTEXTSTYLE0
 11
-7.044195017643634E-15
 21
1.0
 31
0.0
 73
     1
 44
1.0
  0
MTEXT
  5
14A
330
13F
100
AcDbEntity
  8
VERMASSUNG
100
AcDbMText
 10
76.1913511056
 20
115.4428839462
 30
0.0
 40
2.0
 41
0.0
 71
     1
 72
     1
  1
XMZ
  7
SLDTEXTSTYLE0
 11
-7.044195017643634E-15
 21
1.0
 31
0.0
 73
     1
 44
1.0
  0
ENDBLK
  5
141
330
13F
100
AcDbEntity
  8
0
100
AcDbBlockEnd
  0
BLOCK
  5
14D
330
14C
100
AcDbEntity
  8
0
100
AcDbBlockBegin
  2
_D_5
 70
     0
 10
0.0
 20
0.0
 30
0.0
  3
_D_5
  1

  0
SOLID
  5
14F
330
14C
100
AcDbEntity
  8
VERMASSUNG
100
AcDbTrace
 10
235.1557979669
 20
96.5503828378
 30
0.0
 11
235.6057979669
 21
99.5503828378
 31
0.0
 12
234.7057979669
 22
99.5503828378
 32
0.0
 13
234.7057979669
 23
99.5503828378
 33
0.0
  0
SOLID
  5
150
330
14C
100
AcDbEntity
  8
VERMASSUNG
100
AcDbTrace
 10
235.1557979669
 20
128.5503828378
 30
0.0
 11
234.7057979669
 21
125.5503828378
 31
0.0
 12
235.6057979669
 22
125.5503828378
 32
0.0
 13
235.6057979669
 23
125.5503828378
 33
0.0
  0
LINE
  5
151
330
14C
100
AcDbEntity
  8
VERMASSUNG
100
AcDbLine
 10
191.9195113618
 20
96.5503828378
 30
0.0
 11
236.1557979669
 21
96.5503828378
 31
0.0
  0
LINE
  5
152
330
14C
100
AcDbEntity
  8
VERMASSUNG
100
AcDbLine
 10
191.9195113618
 20
128.5503828378
 30
0.0
 11
236.1557979669
 21
128.5503828378
 31
0.0
  0
LINE
  5
153
330
14C
100
AcDbEntity
  8
VERMASSUNG
100
AcDbLine
 10
235.1557979669
 20
96.5503828378
 30
0.0
 11
235.1557979669
 21
128.5503828378
 31
0.0
  0
MTEXT
  5
154
330
14C
100
AcDbEntity
  8
VERMASSUNG
100
AcDbMText
 10
232.577662662
 20
109.3453828806
 30
0.0
 40
2.0
 41
0.0
 71
     1
 72
     1
  1
%%c
  7
SLDTEXTSTYLE0
 11
6.123233995736766E-17
 21
1.0
 31
0.0
 73
     1
 44
1.0
  0
MTEXT
  5
155
330
14C
100
AcDbEntity
  8
VERMASSUNG
100
AcDbMText
 10
232.3776627107
 20
112.9553828949
 30
0.0
 40
2.0
 41
0.0
 71
     1
 72
     1
  1
32
  7
SLDTEXTSTYLE0
 11
6.123233995736766E-17
 21
1.0
 31
0.0
 73
     1
 44
1.0
  0
ENDBLK
  5
14E
330
14C
100
AcDbEntity
  8
0
100
AcDbBlockEnd
  0
BLOCK
  5
158
330
157
100
AcDbEntity
  8
0
100
AcDbBlockBegin
  2
_D_6
 70
     0
 10
0.0
 20
0.0
 30
0.0
  3
_D_6
  1

  0
SOLID
  5
15A
330
157
100
AcDbEntity
  8
VERMASSUNG
100
AcDbTrace
 10
245.9195113618
 20
76.5503828378
 30
0.0
 11
246.3695113618
 21
79.5503828378
 31
0.0
 12
245.4695113618
 22
79.5503828378
 32
0.0
 13
245.4695113618
 23
79.5503828378
 33
0.0
  0
SOLID
  5
15B
330
157
100
AcDbEntity
  8
VERMASSUNG
100
AcDbTrace
 10
245.9195113618
 20
148.5503828378
 30
0.0
 11
245.4695113618
 21
145.5503828378
 31
0.0
 12
246.3695113618
 22
145.5503828378
 32
0.0
 13
246.3695113618
 23
145.5503828378
 33
0.0
  0
LINE
  5
15C
330
157
100
AcDbEntity
  8
VERMASSUNG
100
AcDbLine
 10
171.9195113618
 20
76.5503828378
 30
0.0
 11
246.9195113618
 21
76.5503828378
 31
0.0
  0
LINE
  5
15D
330
157
100
AcDbEntity
  8
VERMASSUNG
100
AcDbLine
 10
171.9195113618
 20
148.5503828378
 30
0.0
 11
246.9195113618
 21
148.5503828378
 31
0.0
  0
LINE
  5
15E
330
157
100
AcDbEntity
  8
VERMASSUNG
100
AcDbLine
 10
245.9195113618
 20
76.5503828378
 30
0.0
 11
245.9195113618
 21
148.5503828378
 31
0.0
  0
MTEXT
  5
15F
330
157
100
AcDbEntity
  8
VERMASSUNG
100
AcDbMText
 10
243.3413760569
 20
109.3453828806
 30
0.0
 40
2.0
 41
0.0
 71
     1
 72
     1
  1
%%c
  7
SLDTEXTSTYLE0
 11
6.123233995736766E-17
 21
1.0
 31
0.0
 73
     1
 44
1.0
  0
MTEXT
  5
160
330
157
100
AcDbEntity
  8
VERMASSUNG
100
AcDbMText
 10
243.1413761056
 20
112.9553828949
 30
0.0
 40
2.0
 41
0.0
 71
     1
 72
     1
  1
72
  7
SLDTEXTSTYLE0
 11
6.123233995736766E-17
 21
1.0
 31
0.0
 73
     1
 44
1.0
  0
ENDBLK
  5
159
330
157
100
AcDbEntity
  8
0
100
AcDbBlockEnd
  0
BLOCK
  5
163
330
162
100
AcDbEntity
  8
0
100
AcDbBlockBegin
  2
_D_7
 70
     0
 10
0.0
 20
0.0
 30
0.0
  3
_D_7
  1

  0
SOLID
  5
165
330
162
100
AcDbEntity
  8
VERMASSUNG
100
AcDbTrace
 10
223.7972417496
 20
105.4793828378
 30
0.0
 11
224.2472417496
 21
108.4793828378
 31
0.0
 12
223.3472417496
 22
108.4793828378
 32
0.0
 13
223.3472417496
 23
108.4793828378
 33
0.0
  0
SOLID
  5
166
330
162
100
AcDbEntity
  8
VERMASSUNG
100
AcDbTrace
 10
223.7972417496
 20
119.6213828378
 30
0.0
 11
223.3472417496
 21
116.6213828378
 31
0.0
 12
224.2472417496
 22
116.6213828378
 32
0.0
 13
224.2472417496
 23
116.6213828378
 33
0.0
  0
LINE
  5
167
330
162
100
AcDbEntity
  8
VERMASSUNG
100
AcDbLine
 10
211.9195113618
 20
105.4793828378
 30
0.0
 11
224.7972417496
 21
105.4793828378
 31
0.0
  0
LINE
  5
168
330
162
100
AcDbEntity
  8
VERMASSUNG
100
AcDbLine
 10
211.9195113618
 20
119.6213828378
 30
0.0
 11
224.7972417496
 21
119.6213828378
 31
0.0
  0
LINE
  5
169
330
162
100
AcDbEntity
  8
VERMASSUNG
100
AcDbLine
 10
223.7972417496
 20
105.4793828378
 30
0.0
 11
223.7972417496
 21
119.6213828378
 31
0.0
  0
MTEXT
  5
16A
330
162
100
AcDbEntity
  8
VERMASSUNG
100
AcDbMText
 10
221.2191061536
 20
109.3503826858
 30
0.0
 40
2.0
 41
0.0
 71
     1
 72
     1
  1
SW
  7
SLDTEXTSTYLE0
 11
6.123233995736766E-17
 21
1.0
 31
0.0
 73
     1
 44
1.0
  0
MTEXT
  5
16B
330
162
100
AcDbEntity
  8
VERMASSUNG
100
AcDbMText
 10
221.2191061536
 20
113.1503827499
 30
0.0
 40
2.0
 41
0.0
 71
     1
 72
     1
  1
14
  7
SLDTEXTSTYLE0
 11
6.123233995736766E-17
 21
1.0
 31
0.0
 73
     1
 44
1.0
  0
ENDBLK
  5
164
330
162
100
AcDbEntity
  8
0
100
AcDbBlockEnd
  0
ENDSEC
  0
SECTION
  2
ENTITIES
  0
MTEXT
  5
78
330
1F
100
AcDbEntity
  8
KOPF_DÜNN
100
AcDbMText
 10
13.8892156294
 20
23.8442973028
 30
0.0
 40
3.0
 41
0.0
 71
     1
 72
     1
  1
KY6.D32.K21.040
  7
SLDTEXTSTYLE0
 73
     1
 44
1.0
  0
MTEXT
  5
79
330
1F
100
AcDbEntity
  8
VERMASSUNG
100
AcDbMText
 10
13.9329988022
 20
28.8834360957
 30
0.0
 40
3.0
 41
0.0
 71
     1
 72
     1
  1
Fräsdorn_Milling arbor
  7
SLDTEXTSTYLE0
 73
     1
 44
1.0
  0
MTEXT
  5
7A
330
1F
100
AcDbEntity
  8
VERMASSUNG
100
AcDbMText
 10
98.8601118557
 20
13.8365368761
 30
0.0
 40
2.0
 41
0.0
 71
     1
 72
     1
  1
Datum: 19.02.2018
  7
SLDTEXTSTYLE0
 73
     1
 44
1.0
  0
MTEXT
  5
7B
330
1F
100
AcDbEntity
  8
VERMASSUNG
100
AcDbMText
 10
13.933048693
 20
18.0482802738
 30
0.0
 40
2.0
 41
0.0
 71
     1
 72
     1
  1
KM63 XMZ / Ø32
  7
SLDTEXTSTYLE0
 73
     1
 44
1.0
  0
MTEXT
  5
7C
330
1F
100
AcDbEntity
  8
VERMASSUNG
100
AcDbMText
 10
13.9808475933
 20
13.9090974274
 30
0.0
 40
2.0
 41
0.0
 71
     1
 72
     1
  1
Gewicht: 1560g
  7
SLDTEXTSTYLE0
 73
     1
 44
1.0
  0
ARC
  5
7D
330
1F
100
AcDbEntity
  8
0
  6
Continuous
 62
     7
370
    25
100
AcDbCircle
 10
179.4195113618
 20
133.0503828378
 30
0.0
 40
0.5
100
AcDbArc
 50
270.0
 51
0.0
  0
ARC
  5
7E
330
1F
100
AcDbEntity
  8
0
  6
Continuous
 62
     7
370
    25
100
AcDbCircle
 10
179.4195113618
 20
146.0503828378
 30
0.0
 40
0.5
100
AcDbArc
 50
0.0
 51
90.0
  0
LINE
  5
7F
330
1F
100
AcDbEntity
  8
0
  6
Continuous
 62
     7
370
    25
100
AcDbLine
 10
172.9195111234
 20
132.5503823908
 30
0.0
 11
179.4195131202
 21
132.5503823908
 31
0.0
  0
LINE
  5
80
330
1F
100
AcDbEntity
  8
0
  6
Continuous
 62
     7
370
    25
100
AcDbLine
 10
179.4195131202
 20
146.5503846856
 30
0.0
 11
172.9195111234
 21
146.5503846856
 31
0.0
  0
LINE
  5
81
330
1F
100
AcDbEntity
  8
0
  6
Continuous
 62
     7
370
    25
100
AcDbLine
 10
172.9195111234
 20
78.5503809901
 30
0.0
 11
179.4195131202
 21
78.5503809901
 31
0.0
  0
LINE
  5
82
330
1F
100
AcDbEntity
  8
0
  6
Continuous
 62
     7
370
    25
100
AcDbLine
 10
179.4195131202
 20
92.5503832849
 30
0.0
 11
172.9195111234
 21
92.5503832849
 31
0.0
  0
ARC
  5
83
330
1F
100
AcDbEntity
  8
0
  6
Continuous
 62
     7
370
    25
100
AcDbCircle
 10
179.4195113618
 20
79.0503828378
 30
0.0
 40
0.5
100
AcDbArc
 50
270.0
 51
0.0
  0
ARC
  5
84
330
1F
100
AcDbEntity
  8
0
  6
Continuous
 62
     7
370
    25
100
AcDbCircle
 10
179.4195113618
 20
92.0503828378
 30
0.0
 40
0.5
100
AcDbArc
 50
0.0
 51
90.0
  0
LINE
  5
85
330
1F
100
AcDbEntity
  8
0
  6
Continuous
 62
     7
370
    25
100
AcDbLine
 10
211.1195095618
 20
124.5503829421
 30
0.0
 11
195.9195130308
 21
124.5503829421
 31
0.0
  0
LINE
  5
86
330
1F
100
AcDbEntity
  8
0
  6
Continuous
 62
     7
370
    25
100
AcDbLine
 10
195.9195130308
 20
100.5503827335
 30
0.0
 11
211.1195095618
 21
100.5503827335
 31
0.0
  0
ARC
  5
87
330
1F
100
AcDbEntity
  8
0
  6
Continuous
 62
     7
370
    25
100
AcDbCircle
 10
211.1195113618
 20
123.7503828378
 30
0.0
 40
0.8000000000000114
100
AcDbArc
 50
0.0
 51
90.0
  0
ARC
  5
88
330
1F
100
AcDbEntity
  8
0
  6
Continuous
 62
     7
370
    25
100
AcDbCircle
 10
211.1195113618
 20
101.3503828378
 30
0.0
 40
0.8000000000000114
100
AcDbArc
 50
270.0
 51
0.0
  0
ARC
  5
89
330
1F
100
AcDbEntity
  8
0
  6
Continuous
 62
     7
370
    25
100
AcDbCircle
 10
195.3195113618
 20
103.9503828378
 30
0.0
 40
0.5999999999999943
100
AcDbArc
 50
0.0
 51
90.0
  0
ARC
  5
8A
330
1F
100
AcDbEntity
  8
0
  6
Continuous
 62
     7
370
    25
100
AcDbCircle
 10
195.3195113618
 20
121.1503828378
 30
0.0
 40
0.6000000000000085
100
AcDbArc
 50
270.0
 51
0.0
  0
LINE
  5
8B
330
1F
100
AcDbEntity
  8
0
  6
Continuous
 62
     7
370
    25
100
AcDbLine
 10
195.3195103247
 20
120.5503832178
 30
0.0
 11
192.9195144017
 21
120.5503832178
 31
0.0
  0
LINE
  5
8C
330
1F
100
AcDbEntity
  8
0
  6
Continuous
 62
     7
370
    25
100
AcDbLine
 10
192.9195144017
 20
104.5503824578
 30
0.0
 11
195.3195103247
 21
104.5503824578
 31
0.0
  0
ARC
  5
8D
330
1F
100
AcDbEntity
  8
0
  6
Continuous
 62
     7
370
    25
100
AcDbCircle
 10
171.9195113618
 20
77.5503828378
 30
0.0
 40
1.000000000000014
100
AcDbArc
 50
270.0
 51
0.0
  0
ARC
  5
8E
330
1F
100
AcDbEntity
  8
0
  6
Continuous
 62
     7
370
    25
100
AcDbCircle
 10
171.9195113618
 20
147.5503828378
 30
0.0
 40
1.000000000000028
100
AcDbArc
 50
0.0
 51
90.0
  0
LINE
  5
8F
330
1F
100
AcDbEntity
  8
0
  6
Continuous
 62
     7
370
    25
100
AcDbLine
 10
155.8587246377
 20
76.5503843875
 30
0.0
 11
171.9195128221
 21
76.5503843875
 31
0.0
  0
LINE
  5
90
330
1F
100
AcDbEntity
  8
0
  6
Continuous
 62
     7
370
    25
100
AcDbLine
 10
171.9195128221
 20
148.5503812881
 30
0.0
 11
155.8587246377
 21
148.5503812881
 31
0.0
  0
ARC
  5
91
330
1F
100
AcDbEntity
  8
0
  6
Continuous
 62
     7
370
    25
100
AcDbCircle
 10
155.8587249242
 20
77.5503828378
 30
0.0
 40
1.0
100
AcDbArc
 50
225.0
 51
270.0
  0
ARC
  5
92
330
1F
100
AcDbEntity
  8
0
  6
Continuous
 62
     7
370
    25
100
AcDbCircle
 10
155.8587249242
 20
147.5503828378
 30
0.0
 40
1.0
100
AcDbArc
 50
90.0
 51
135.0
  0
LINE
  5
93
330
1F
100
AcDbEntity
  8
0
  6
Continuous
 62
     7
370
    25
100
AcDbLine
 10
155.151617973
 20
148.257487789
 30
0.0
 11
151.2124047418
 21
144.3182764204
 31
0.0
  0
LINE
  5
94
330
1F
100
AcDbEntity
  8
0
  6
Continuous
 62
     7
370
    25
100
AcDbLine
 10
151.2124047418
 20
80.7824892552
 30
0.0
 11
155.151617973
 21
76.8432778867
 31
0.0
  0
ARC
  5
95
330
1F
100
AcDbEntity
  8
0
  6
Continuous
 62
     7
370
    25
100
AcDbCircle
 10
150.5052977995
 20
80.0753828378
 30
0.0
 40
1.0
100
AcDbArc
 50
45.0
 51
90.0
  0
ARC
  5
96
330
1F
100
AcDbEntity
  8
0
  6
Continuous
 62
     7
370
    25
100
AcDbCircle
 10
150.5052977995
 20
145.0253828378
 30
0.0
 40
1.000000000000008
100
AcDbArc
 50
270.0
 51
315.0
  0
LINE
  5
97
330
1F
100
AcDbEntity
  8
0
  6
Continuous
 62
     7
370
    25
100
AcDbLine
 10
135.4853136268
 20
81.0753827544
 30
0.0
 11
136.9445112337
 21
83.6027873309
 31
0.0
  0
ARC
  5
98
330
1F
100
AcDbEntity
  8
0
  6
Continuous
 62
     7
370
    25
100
AcDbCircle
 10
129.1195113618
 20
81.2753828378
 30
0.0
 40
0.2000000000000171
100
AcDbArc
 50
180.0
 51
270.0
  0
ARC
  5
99
330
1F
100
AcDbEntity
  8
0
  6
Continuous
 62
     7
370
    25
100
AcDbCircle
 10
129.1195113618
 20
143.8253828378
 30
0.0
 40
0.2000000000000455
100
AcDbArc
 50
90.0
 51
180.0
  0
LINE
  5
9A
330
1F
100
AcDbEntity
  8
0
  6
Continuous
 62
     7
370
    25
100
AcDbLine
 10
129.1195113568
 20
81.0753827544
 30
0.0
 11
135.4853136268
 21
81.0753827544
 31
0.0
  0
LINE
  5
9B
330
1F
100
AcDbEntity
  8
0
  6
Continuous
 62
     7
370
    25
100
AcDbLine
 10
134.2800089892
 20
144.0253829213
 30
0.0
 11
129.1195113568
 21
144.0253829213
 31
0.0
  0
LINE
  5
9C
330
1F
100
AcDbEntity
  8
0
  6
Continuous
 62
     7
370
    25
100
AcDbLine
 10
142.1537094552
 20
81.0753827544
 30
0.0
 11
150.505298077
 21
81.0753827544
 31
0.0
  0
LINE
  5
9D
330
1F
100
AcDbEntity
  8
0
  6
Continuous
 62
     7
370
    25
100
AcDbLine
 10
150.505298077
 20
144.0253829213
 30
0.0
 11
145.6343580772
 21
144.0253829213
 31
0.0
  0
ARC
  5
9E
330
1F
100
AcDbEntity
  8
0
  6
Continuous
 62
     7
370
    25
100
AcDbCircle
 10
128.4905764873
 20
87.0003828378
 30
0.0
 40
0.7999999999999962
100
AcDbArc
 50
57.576802718
 51
107.5
  0
ARC
  5
9F
330
1F
100
AcDbEntity
  8
0
  6
Continuous
 62
     7
370
    25
100
AcDbCircle
 10
128.4905764873
 20
138.1003828378
 30
0.0
 40
0.8000000000000203
100
AcDbArc
 50
252.5
 51
302.423197282
  0
LINE
  5
A0
330
1F
100
AcDbEntity
  8
0
  6
Continuous
 62
     7
370
    25
100
AcDbLine
 10
140.6945113827
 20
83.6027873309
 30
0.0
 11
142.1537094552
 21
81.0753827544
 31
0.0
  0
LINE
  5
A1
330
1F
100
AcDbEntity
  8
0
  6
Continuous
 62
     7
370
    25
100
AcDbLine
 10
127.759329303
 20
87.6086441429
 30
0.0
 11
128.2500118519
 21
87.7633573117
 31
0.0
  0
LINE
  5
A2
330
1F
100
AcDbEntity
  8
0
  6
Continuous
 62
     7
370
    25
100
AcDbLine
 10
128.2500118519
 20
137.337408364
 30
0.0
 11
127.759329303
 21
137.4921215327
 31
0.0
  0
LINE
  5
A3
330
1F
100
AcDbEntity
  8
0
  6
Continuous
 62
     7
370
    25
100
AcDbLine
 10
127.759329303
 20
137.4921215327
 30
0.0
 11
111.8144535263
 21
136.691402048
 31
0.0
  0
LINE
  5
A4
330
1F
100
AcDbEntity
  8
0
  6
Continuous
 62
     7
370
    25
100
AcDbLine
 10
111.8144535263
 20
88.4093636276
 30
0.0
 11
127.759329303
 21
87.6086441429
 31
0.0
  0
ARC
  5
A5
330
1F
100
AcDbEntity
  8
0
  6
Continuous
 62
     7
370
    25
100
AcDbCircle
 10
137.9445113618
 20
83.7003828378
 30
0.0
 40
1.0
100
AcDbArc
 50
90.0
 51
180.0
  0
ARC
  5
A6
330
1F
100
AcDbEntity
  8
0
  6
Continuous
 62
     7
370
    25
100
AcDbCircle
 10
139.6945113618
 20
83.7003828378
 30
0.0
 40
1.0
100
AcDbArc
 50
0.0
 51
90.0
  0
LINE
  5
A7
330
1F
100
AcDbEntity
  8
0
  6
Continuous
 62
     7
370
    25
100
AcDbLine
 10
137.9445113976
 20
84.7003826501
 30
0.0
 11
139.6945112188
 21
84.7003826501
 31
0.0
  0
ARC
  5
A8
330
1F
100
AcDbEntity
  8
0
  6
Continuous
 62
     7
370
    25
100
AcDbCircle
 10
173.3195113618
 20
96.3003828378
 30
0.0
 40
0.6000000000000085
100
AcDbArc
 50
90.0
 51
131.8103148958
  0
ARC
  5
A9
330
1F
100
AcDbEntity
  8
0
  6
Continuous
 62
     7
370
    25
100
AcDbCircle
 10
173.3195113618
 20
128.8003828378
 30
0.0
 40
0.5999999999999943
100
AcDbArc
 50
228.1896851042
 51
270.0
  0
ARC
  5
AA
330
1F
100
AcDbEntity
  8
0
  6
Continuous
 62
     7
370
    25
100
AcDbCircle
 10
191.9195113618
 20
97.5503828378
 30
0.0
 40
1.0
100
AcDbArc
 50
270.0
 51
0.0
  0
ARC
  5
AB
330
1F
100
AcDbEntity
  8
0
  6
Continuous
 62
     7
370
    25
100
AcDbCircle
 10
191.9195113618
 20
127.5503828378
 30
0.0
 40
1.0
100
AcDbArc
 50
0.0
 51
90.0
  0
LINE
  5
AC
330
1F
100
AcDbEntity
  8
0
  6
Continuous
 62
     7
370
    25
100
AcDbLine
 10
175.4195124645
 20
96.5503820779
 30
0.0
 11
191.9195123751
 21
96.5503820779
 31
0.0
  0
LINE
  5
AD
330
1F
100
AcDbEntity
  8
0
  6
Continuous
 62
     7
370
    25
100
AcDbLine
 10
191.9195123751
 20
128.5503835978
 30
0.0
 11
175.4195124645
 21
128.5503835978
 31
0.0
  0
LINE
  5
AE
330
1F
100
AcDbEntity
  8
0
  6
Continuous
 62
     7
370
    25
100
AcDbLine
 10
175.4195124645
 20
128.5503835978
 30
0.0
 11
174.1895929713
 21
128.2208276542
 31
0.0
  0
LINE
  5
AF
330
1F
100
AcDbEntity
  8
0
  6
Continuous
 62
     7
370
    25
100
AcDbLine
 10
174.1895929713
 20
96.8799380215
 30
0.0
 11
175.4195124645
 21
96.5503820779
 31
0.0
  0
ARC
  5
B0
330
1F
100
AcDbEntity
  8
0
  6
Continuous
 62
     7
370
    25
100
AcDbCircle
 10
174.0343020806
 20
96.3003828378
 30
0.0
 40
0.6000000000000085
100
AcDbArc
 50
75.0
 51
90.0
  0
ARC
  5
B1
330
1F
100
AcDbEntity
  8
0
  6
Continuous
 62
     7
370
    25
100
AcDbCircle
 10
174.0343020806
 20
128.8003828378
 30
0.0
 40
0.6000000000000227
100
AcDbArc
 50
270.0
 51
285.0
  0
LINE
  5
B2
330
1F
100
AcDbEntity
  8
0
  6
Continuous
 62
     7
370
    25
100
AcDbLine
 10
173.3195104439
 20
96.9003824146
 30
0.0
 11
174.0343005199
 21
96.9003824146
 31
0.0
  0
LINE
  5
B3
330
1F
100
AcDbEntity
  8
0
  6
Continuous
 62
     7
370
    25
100
AcDbLine
 10
174.0343005199
 20
128.200383261
 30
0.0
 11
173.3195104439
 21
128.200383261
 31
0.0
  0
LINE
  5
B4
330
1F
100
AcDbEntity
  8
0
  6
Continuous
 62
     7
370
    25
100
AcDbLine
 10
111.8144535263
 20
136.691402048
 30
0.0
 11
110.9195121367
 21
135.7964606585
 31
0.0
  0
LINE
  5
B5
330
1F
100
AcDbEntity
  8
0
  6
Continuous
 62
     7
370
    25
100
AcDbLine
 10
110.9195121367
 20
89.3043050172
 30
0.0
 11
111.8144535263
 21
88.4093636276
 31
0.0
  0
LINE
  5
B6
330
1F
100
AcDbEntity
  8
0
  6
Continuous
 62
     7
370
    25
100
AcDbLine
 10
179.9195104082
 20
133.0503834041
 30
0.0
 11
179.9195104082
 21
146.0503836723
 31
0.0
  0
LINE
  5
B7
330
1F
100
AcDbEntity
  8
0
  6
Continuous
 62
     7
370
    25
100
AcDbLine
 10
179.9195104082
 20
79.0503820034
 30
0.0
 11
179.9195104082
 21
92.0503822716
 31
0.0
  0
LINE
  5
B8
330
1F
100
AcDbEntity
  8
0
  6
Continuous
 62
     7
370
    25
100
AcDbLine
 10
195.9195130308
 20
124.5503829421
 30
0.0
 11
195.9195130308
 21
100.5503827335
 31
0.0
  0
LINE
  5
B9
330
1F
100
AcDbEntity
  8
0
  6
Continuous
 62
     7
370
    25
100
AcDbLine
 10
211.9195082028
 20
123.7503824385
 30
0.0
 11
211.9195082028
 21
101.3503832372
 31
0.0
  0
LINE
  5
BA
330
1F
100
AcDbEntity
  8
0
  6
Continuous
 62
     7
370
    25
100
AcDbLine
 10
172.9195111234
 20
77.5503826888
 30
0.0
 11
172.9195111234
 21
147.5503829868
 31
0.0
  0
LINE
  5
BB
330
1F
100
AcDbEntity
  8
0
  6
Continuous
 62
     7
370
    25
100
AcDbLine
 10
135.4853136268
 20
81.0753827544
 30
0.0
 11
135.4853136268
 21
143.852447495
 31
0.0
  0
SPLINE
  5
BC
330
1F
100
AcDbEntity
  8
0
  6
Continuous
 62
     7
370
    25
100
AcDbSpline
210
0.0
220
0.0
230
1.0
 70
     8
 71
     3
 72
    10
 73
     6
 74
     0
 42
0.000000001
 43
0.00000001
 40
0.0
 40
0.0
 40
0.0
 40
0.0
 40
0.5
 40
0.5
 40
1.0
 40
1.0
 40
1.0
 40
1.0
 10
136.6135295543803
 20
142.0253828378285
 30
0.0
 10
136.4366444079569
 20
142.315576377571
 30
0.0
 10
136.2510950330795
 20
142.6179897635115
 30
0.0
 10
135.8731460930319
 20
143.2300239008118
 30
0.0
 10
135.6803595508527
 20
143.5403007403768
 30
0.0
 10
135.4853135572634
 20
143.8524478113419
 30
0.0
  0
SPLINE
  5
BD
330
1F
100
AcDbEntity
  8
0
  6
Continuous
 62
     7
370
    25
100
AcDbSpline
210
0.0
220
0.0
230
1.0
 70
     8
 71
     3
 72
     8
 73
     4
 74
     0
 42
0.000000001
 43
0.00000001
 40
0.0
 40
0.0
 40
0.0
 40
0.0
 40
1.0
 40
1.0
 40
1.0
 40
1.0
 10
136.9445113618336
 20
141.4146339164455
 30
0.0
 10
136.8262146024036
 20
141.6325191507763
 30
0.0
 10
136.7147861202322
 20
141.8381994418184
 30
0.0
 10
136.6135295543803
 20
142.0253828378285
 30
0.0
  0
LINE
  5
BE
330
1F
100
AcDbEntity
  8
0
  6
Continuous
 62
     7
370
    25
100
AcDbLine
 10
136.9445112337
 20
100.0192336367
 30
0.0
 11
136.9445112337
 21
141.4146342875
 31
0.0
  0
SPLINE
  5
BF
330
1F
100
AcDbEntity
  8
0
  6
Continuous
 62
     7
370
    25
100
AcDbSpline
210
0.0
220
0.0
230
1.0
 70
     8
 71
     3
 72
    26
 73
    22
 74
     0
 42
0.000000001
 43
0.00000001
 40
0.0
 40
0.0
 40
0.0
 40
0.0
 40
0.1250000000000014
 40
0.1250000000000014
 40
0.2500000000000027
 40
0.2500000000000027
 40
0.3125000000000025
 40
0.3125000000000025
 40
0.3750000000000023
 40
0.3750000000000023
 40
0.4375000000000021
 40
0.4375000000000021
 40
0.5000000000000018
 40
0.5000000000000018
 40
0.5625000000000016
 40
0.5625000000000016
 40
0.6250000000000013
 40
0.6250000000000013
 40
0.7500000000000006
 40
0.7500000000000006
 40
1.0
 40
1.0
 40
1.0
 40
1.0
 10
136.9445113618336
 20
96.21728098685774
 30
0.0
 10
136.8526064511508
 20
96.24232867919409
 30
0.0
 10
136.7649096749258
 20
96.28033627310845
 30
0.0
 10
136.6007034041585
 20
96.39133252420118
 30
0.0
 10
136.5234329858918
 20
96.46526603551472
 30
0.0
 10
136.4236668795666
 20
96.61056417084507
 30
0.0
 10
136.3930539506644
 20
96.66470598483673
 30
0.0
 10
136.3381850767613
 20
96.78677022410483
 30
0.0
 10
136.3137998558324
 20
96.85534220568897
 30
0.0
 10
136.274120479334
 20
97.00492637572319
 30
0.0
 10
136.2586544000966
 20
97.08608538089594
 30
0.0
 10
136.2375580650142
 20
97.26274138798743
 30
0.0
 10
136.2320449988541
 20
97.35898549470917
 30
0.0
 10
136.2319780412318
 20
97.55821543707025
 30
0.0
 10
136.2372463485813
 20
97.6620633852937
 30
0.0
 10
136.2580888757493
 20
97.87798358144664
 30
0.0
 10
136.2737629889596
 20
97.98995273554078
 30
0.0
 10
136.3330819191372
 20
98.32457895168575
 30
0.0
 10
136.3901017546512
 20
98.55263366005472
 30
0.0
 10
136.5889366432951
 20
99.21101660412377
 30
0.0
 10
136.7602068485272
 20
99.62954159258261
 30
0.0
 10
136.9445113618335
 20
100.0192336101817
 30
0.0
  0
LINE
  5
C0
330
1F
100
AcDbEntity
  8
0
  6
Continuous
 62
     7
370
    25
100
AcDbLine
 10
136.9445112337
 20
83.6027873309
 30
0.0
 11
136.9445112337
 21
96.2172815205
 31
0.0
  0
LINE
  5
C1
330
1F
100
AcDbEntity
  8
0
  6
Continuous
 62
     7
370
    25
100
AcDbLine
 10
128.9195113618
 20
81.2753824146
 30
0.0
 11
128.9195113618
 21
143.825383261
 31
0.0
  0
SPLINE
  5
C2
330
1F
100
AcDbEntity
  8
0
  6
Continuous
 62
     7
370
    25
100
AcDbSpline
210
0.0
220
0.0
230
1.0
 70
     8
 71
     3
 72
    11
 73
     7
 74
     0
 42
0.000000001
 43
0.00000001
 40
0.0
 40
0.0
 40
0.0
 40
0.0
 40
0.4050049547784818
 40
0.6483458302039385
 40
0.8998394259968291
 40
0.9999999999999999
 40
0.9999999999999999
 40
0.9999999999999999
 40
0.9999999999999999
 10
135.4853136267921
 20
143.8524474950397
 30
0.0
 10
135.192472558661
 20
143.8903472922791
 30
0.0
 10
134.7236825273412
 20
143.9510185883109
 30
0.0
 10
134.3821433391931
 20
144.0024713451694
 30
0.0
 10
134.208529472532
 20
144.0289250686217
 30
0.0
 10
134.2641630490158
 20
144.020473644289
 30
0.0
 10
134.2800089892408
 20
144.0180664511287
 30
0.0
  0
SPLINE
  5
C3
330
1F
100
AcDbEntity
  8
0
  6
Continuous
 62
     7
370
    25
100
AcDbSpline
210
0.0
220
0.0
230
1.0
 70
     8
 71
     3
 72
    25
 73
    21
 74
     0
 42
0.000000001
 43
0.00000001
 40
0.0
 40
0.0
 40
0.0
 40
0.0
 40
0.1249999999999985
 40
0.1249999999999985
 40
0.2499999999999971
 40
0.2499999999999971
 40
0.3749999999999956
 40
0.3749999999999956
 40
0.4999999999999941
 40
0.4999999999999941
 40
0.562499999999995
 40
0.562499999999995
 40
0.624999999999996
 40
0.6874999999999969
 40
0.6874999999999969
 40
0.7499999999999978
 40
0.7499999999999978
 40
0.8749999999999989
 40
0.8749999999999989
 40
1.0
 40
1.0
 40
1.0
 40
1.0
 10
142.1537091664036
 20
99.51263883251644
 30
0.0
 10
142.394956671959
 20
99.35376445372472
 30
0.0
 10
142.6108857062035
 20
99.17287691869616
 30
0.0
 10
142.994043618046
 20
98.76998369873338
 30
0.0
 10
143.1614954035313
 20
98.54591362479547
 30
0.0
 10
143.4291800599352
 20
98.0796107127573
 30
0.0
 10
143.532852027656
 20
97.83267705969756
 30
0.0
 10
143.6719833989102
 20
97.32609130358459
 30
0.0
 10
143.7067226389009
 20
97.07158059468266
 30
0.0
 10
143.7071530721201
 20
96.68825584952086
 30
0.0
 10
143.6984182885306
 20
96.55943150172855
 30
0.0
 10
143.663624885356
 20
96.30731113719247
 30
0.0
 10
143.6117320236269
 20
96.05975846804127
 30
0.0
 10
143.5263538113332
 20
95.82102214664255
 30
0.0
 10
143.4238780582686
 20
95.58668124800323
 30
0.0
 10
143.3638166866175
 20
95.47149889492731
 30
0.0
 10
143.1625068641664
 20
95.14144992258564
 30
0.0
 10
142.9992833440865
 20
94.93873879235163
 30
0.0
 10
142.6139051438352
 20
94.56699441880207
 30
0.0
 10
142.3949556580094
 20
94.40164074114504
 30
0.0
 10
142.1537091664036
 20
94.25958651966694
 30
0.0
  0
LINE
  5
C4
330
1F
100
AcDbEntity
  8
0
  6
Continuous
 62
     7
370
    25
100
AcDbLine
 10
142.1537094552
 20
99.5126388596
 30
0.0
 11
142.1537094552
 21
143.643250093
 31
0.0
  0
SPLINE
  5
C5
330
1F
100
AcDbEntity
  8
0
  6
Continuous
 62
     7
370
    25
100
AcDbSpline
210
0.0
220
0.0
230
1.0
 70
     8
 71
     3
 72
    12
 73
     8
 74
     0
 42
0.000000001
 43
0.00000001
 40
0.0
 40
0.0
 40
0.0
 40
0.0
 40
0.1144634680262505
 40
0.3661160526449659
 40
0.6247763889426796
 40
0.9030266255086999
 40
1.0
 40
1.0
 40
1.0
 40
1.0
 10
145.6343580771646
 20
144.0142517538631
 30
0.0
 10
145.6513763897987
 20
144.016852349395
 30
0.0
 10
145.7058101541405
 20
144.025170459855
 30
0.0
 10
145.2009039168535
 20
143.9479033812755
 30
0.0
 10
144.2072510904564
 20
143.8172546063158
 30
0.0
 10
143.0839680355671
 20
143.7035305961384
 30
0.0
 10
142.3447532705281
 20
143.6556296803311
 30
0.0
 10
142.1537094552478
 20
143.6432500930393
 30
0.0
  0
LINE
  5
C6
330
1F
100
AcDbEntity
  8
0
  6
Continuous
 62
     7
370
    25
100
AcDbLine
 10
142.1537094552
 20
81.0753827544
 30
0.0
 11
142.1537094552
 21
94.2595855893
 31
0.0
  0
SPLINE
  5
C7
330
1F
100
AcDbEntity
  8
0
  6
Continuous
 62
     7
370
    25
100
AcDbSpline
210
0.0
220
0.0
230
1.0
 70
     8
 71
     3
 72
     8
 73
     4
 74
     0
 42
0.000000001
 43
0.00000001
 40
0.0
 40
0.0
 40
0.0
 40
0.0
 40
1.0
 40
1.0
 40
1.0
 40
1.0
 10
141.1223550771695
 20
142.0253828378285
 30
0.0
 10
140.9808169888877
 20
141.772918837773
 30
0.0
 10
140.8382065201507
 20
141.5193751486305
 30
0.0
 10
140.6945113618337
 20
141.264838958909
 30
0.0
  0
SPLINE
  5
C8
330
1F
100
AcDbEntity
  8
0
  6
Continuous
 62
     7
370
    25
100
AcDbSpline
210
0.0
220
0.0
230
1.0
 70
     8
 71
     3
 72
     8
 73
     4
 74
     0
 42
0.000000001
 43
0.00000001
 40
0.0
 40
0.0
 40
0.0
 40
0.0
 40
1.0
 40
1.0
 40
1.0
 40
1.0
 10
142.1537091664032
 20
143.6432499896199
 30
0.0
 10
141.8053077617229
 20
143.1012612439689
 30
0.0
 10
141.46073937649
 20
142.5610420569755
 30
0.0
 10
141.1223550771692
 20
142.025382837828
 30
0.0
  0
SPLINE
  5
C9
330
1F
100
AcDbEntity
  8
0
  6
Continuous
 62
     7
370
    25
100
AcDbSpline
210
0.0
220
0.0
230
1.0
 70
     8
 71
     3
 72
    10
 73
     6
 74
     0
 42
0.000000001
 43
0.00000001
 40
0.0
 40
0.0
 40
0.0
 40
0.0
 40
0.5
 40
0.5
 40
1.0
 40
1.0
 40
1.0
 40
1.0
 10
140.6945113618335
 20
101.3684438881409
 30
0.0
 10
140.945704251705
 20
101.1029517395854
 30
0.0
 10
141.1929735634068
 20
100.8172654165428
 30
0.0
 10
141.6795949147177
 20
100.2013927346526
 30
0.0
 10
141.9189782224344
 20
99.87145500741192
 30
0.0
 10
142.1537091664035
 20
99.51263883251663
 30
0.0
  0
LINE
  5
CA
330
1F
100
AcDbEntity
  8
0
  6
Continuous
 62
     7
370
    25
100
AcDbLine
 10
140.6945113827
 20
101.3684434445
 30
0.0
 11
140.6945113827
 21
141.264838502
 31
0.0
  0
SPLINE
  5
CB
330
1F
100
AcDbEntity
  8
0
  6
Continuous
 62
     7
370
    25
100
AcDbSpline
210
0.0
220
0.0
230
1.0
 70
     8
 71
     3
 72
    10
 73
     6
 74
     0
 42
0.000000001
 43
0.00000001
 40
0.0
 40
0.0
 40
0.0
 40
0.0
 40
0.5
 40
0.5
 40
1.0
 40
1.0
 40
1.0
 40
1.0
 10
142.1537091664035
 20
94.25958651966697
 30
0.0
 10
141.9189782224344
 20
94.32560217672173
 30
0.0
 10
141.6795949147177
 20
94.42701011780613
 30
0.0
 10
141.1929735634068
 20
94.68325591188464
 30
0.0
 10
140.945704251705
 20
94.83840419357539
 30
0.0
 10
140.6945113618335
 20
95.01786566643538
 30
0.0
  0
LINE
  5
CC
330
1F
100
AcDbEntity
  8
0
  6
Continuous
 62
     7
370
    25
100
AcDbLine
 10
140.6945113827
 20
95.017866567
 30
0.0
 11
140.6945113827
 21
95.067060888
 31
0.0
  0
SPLINE
  5
CD
330
1F
100
AcDbEntity
  8
0
  6
Continuous
 62
     7
370
    25
100
AcDbSpline
210
0.0
220
0.0
230
1.0
 70
     8
 71
     3
 72
    14
 73
    10
 74
     0
 42
0.000000001
 43
0.00000001
 40
0.0
 40
0.0
 40
0.0
 40
0.0
 40
0.25
 40
0.25
 40
0.5
 40
0.5
 40
0.75
 40
0.75
 40
1.0
 40
1.0
 40
1.0
 40
1.0
 10
140.6945113618337
 20
95.06706085423144
 30
0.0
 10
140.6945113618337
 20
95.13297813394053
 30
0.0
 10
140.6685819235678
 20
95.19436759273482
 30
0.0
 10
140.5691396662914
 20
95.30179365502417
 30
0.0
 10
140.4968572805705
 20
95.34733482912269
 30
0.0
 10
140.312119943806
 20
95.42397175300252
 30
0.0
 10
140.202573307484
 20
95.45389730682774
 30
0.0
 10
139.9592120624807
 20
95.49953949425435
 30
0.0
 10
139.8277009550349
 20
95.51481874487584
 30
0.0
 10
139.6945113618335
 20
95.52266522857572
 30
0.0
  0
SPLINE
  5
CE
330
1F
100
AcDbEntity
  8
0
  6
Continuous
 62
     7
370
    25
100
AcDbSpline
210
0.0
220
0.0
230
1.0
 70
     8
 71
     3
 72
    10
 73
     6
 74
     0
 42
0.000000001
 43
0.00000001
 40
0.0
 40
0.0
 40
0.0
 40
0.0
 40
0.5
 40
0.5
 40
1.0
 40
1.0
 40
1.0
 40
1.0
 10
139.6945113618335
 20
95.52266522857562
 30
0.0
 10
139.3820474595454
 20
95.54107314511903
 30
0.0
 10
139.0791584775476
 20
95.58994596204293
 30
0.0
 10
138.4918152927436
 20
95.74724821938335
 30
0.0
 10
138.2073476321716
 20
95.8566204346618
 30
0.0
 10
137.9445113618335
 20
95.99373395484925
 30
0.0
  0
SPLINE
  5
CF
330
1F
100
AcDbEntity
  8
0
  6
Continuous
 62
     7
370
    25
100
AcDbSpline
210
0.0
220
0.0
230
1.0
 70
     8
 71
     3
 72
    14
 73
    10
 74
     0
 42
0.000000001
 43
0.00000001
 40
0.0
 40
0.0
 40
0.0
 40
0.0
 40
0.25
 40
0.25
 40
0.5
 40
0.5
 40
0.75
 40
0.75
 40
1.0
 40
1.0
 40
1.0
 40
1.0
 10
137.9445113618335
 20
95.99373395484925
 30
0.0
 10
137.8101606132924
 20
96.06382056827059
 30
0.0
 10
137.686981710499
 20
96.12501587556616
 30
0.0
 10
137.4582312896096
 20
96.23465824889267
 30
0.0
 10
137.3563081976165
 20
96.28136604828084
 30
0.0
 10
137.1768831332712
 20
96.35233156112984
 30
0.0
 10
137.1004418843668
 20
96.37684403952242
 30
0.0
 10
136.983153909905
 20
96.37532833199657
 30
0.0
 10
136.9445113618335
 20
96.34672128878816
 30
0.0
 10
136.9445113618335
 20
96.26621999857448
 30
0.0
  0
LINE
  5
D0
330
1F
100
AcDbEntity
  8
0
  6
Continuous
 62
     7
370
    25
100
AcDbLine
 10
136.9445112337
 20
96.2662206592
 30
0.0
 11
136.9445112337
 21
96.2172815205
 31
0.0
  0
SPLINE
  5
D1
330
1F
100
AcDbEntity
  8
0
  6
Continuous
 62
     7
370
    25
100
AcDbSpline
210
0.0
220
0.0
230
1.0
 70
     8
 71
     3
 72
    16
 73
    12
 74
     0
 42
0.000000001
 43
0.00000001
 40
0.0
 40
0.0
 40
0.0
 40
0.0
 40
0.1250000000000001
 40
0.1250000000000001
 40
0.2500000000000003
 40
0.2500000000000003
 40
0.5000000000000002
 40
0.5000000000000002
 40
0.7500000000000001
 40
0.7500000000000001
 40
1.0
 40
1.0
 40
1.0
 40
1.0
 10
136.9445113618335
 20
100.0681726218985
 30
0.0
 10
136.9445113618335
 20
100.1082016720523
 30
0.0
 10
136.9542839254732
 20
100.1596883271048
 30
0.0
 10
136.9884799708736
 20
100.2737525740108
 30
0.0
 10
137.0126651625845
 20
100.3360971114789
 30
0.0
 10
137.1003818266808
 20
100.528623407834
 30
0.0
 10
137.1770919925301
 20
100.6608846154225
 30
0.0
 10
137.3561740927711
 20
100.9148335550888
 30
0.0
 10
137.4570568623909
 20
101.0348056173703
 30
0.0
 10
137.685868360654
 20
101.2566859749391
 30
0.0
 10
137.8101659690889
 20
101.3548523476856
 30
0.0
 10
137.9445113618335
 20
101.434767289612
 30
0.0
  0
SPLINE
  5
D2
330
1F
100
AcDbEntity
  8
0
  6
Continuous
 62
     7
370
    25
100
AcDbSpline
210
0.0
220
0.0
230
1.0
 70
     8
 71
     3
 72
    10
 73
     6
 74
     0
 42
0.000000001
 43
0.00000001
 40
0.0
 40
0.0
 40
0.0
 40
0.0
 40
0.5
 40
0.5
 40
1.0
 40
1.0
 40
1.0
 40
1.0
 10
137.9445113618335
 20
101.434767289612
 30
0.0
 10
138.2073308761892
 20
101.5911046659655
 30
0.0
 10
138.4856837407969
 20
101.7150233380327
 30
0.0
 10
139.0726803281823
 20
101.8984659476344
 30
0.0
 10
139.3820640180607
 20
101.9571379272271
 30
0.0
 10
139.6945113618335
 20
101.9786580840549
 30
0.0
  0
SPLINE
  5
D3
330
1F
100
AcDbEntity
  8
0
  6
Continuous
 62
     7
370
    25
100
AcDbSpline
210
0.0
220
0.0
230
1.0
 70
     8
 71
     3
 72
    14
 73
    10
 74
     0
 42
0.000000001
 43
0.00000001
 40
0.0
 40
0.0
 40
0.0
 40
0.0
 40
0.25
 40
0.25
 40
0.5
 40
0.5
 40
0.75
 40
0.75
 40
1.0
 40
1.0
 40
1.0
 40
1.0
 10
139.6945113618335
 20
101.9786580840549
 30
0.0
 10
139.8277408128569
 20
101.9878344100415
 30
0.0
 10
139.959442175467
 20
101.9764422780751
 30
0.0
 10
140.2025198336841
 20
101.9182816184154
 30
0.0
 10
140.3134257742328
 20
101.8715054965159
 30
0.0
 10
140.4961228473104
 20
101.7585463697848
 30
0.0
 10
140.569510376792
 20
101.691592663844
 30
0.0
 10
140.6683446557103
 20
101.5545608150493
 30
0.0
 10
140.6945113618335
 20
101.483776839926
 30
0.0
 10
140.6945113618335
 20
101.4176390759381
 30
0.0
  0
ARC
  5
D4
330
1F
100
AcDbEntity
  8
0
  6
Continuous
 62
     7
370
    25
100
AcDbCircle
 10
139.9817412646
 20
104.2272807084
 30
0.0
 40
4.201185193262718
100
AcDbArc
 50
269.8332063334
 51
292.0877293833
  0
ARC
  5
D5
330
1F
100
AcDbEntity
  8
0
  6
Continuous
 62
     7
370
    25
100
AcDbCircle
 10
139.9272638438
 20
104.0702020584
 30
0.0
 40
4.044309408552312
100
AcDbArc
 50
230.971800757
 51
270.5985299293
  0
SPLINE
  5
D6
330
1F
100
AcDbEntity
  8
0
  6
Continuous
 62
     7
370
    25
100
AcDbSpline
210
0.0
220
0.0
230
1.0
 70
     8
 71
     3
 72
    14
 73
    10
 74
     0
 42
0.000000001
 43
0.00000001
 40
0.0
 40
0.0
 40
0.0
 40
0.0
 40
0.25
 40
0.25
 40
0.5
 40
0.5
 40
0.75
 40
0.75
 40
1.0
 40
1.0
 40
1.0
 40
1.0
 10
137.9445113618335
 20
140.2226472690238
 30
0.0
 10
137.810163275477
 20
140.2324785885946
 30
0.0
 10
137.6869866016211
 20
140.2685180019847
 30
0.0
 10
137.4582399967031
 20
140.380389698304
 30
0.0
 10
137.3563180327359
 20
140.4547444873944
 30
0.0
 10
137.1768946303071
 20
140.6382209542461
 30
0.0
 10
137.1004533421244
 20
140.7454864751061
 30
0.0
 10
136.9831633692743
 20
141.0045129649245
 30
0.0
 10
136.9445113618335
 20
141.1557576699007
 30
0.0
 10
136.9445113618335
 20
141.3167558930122
 30
0.0
  0
SPLINE
  5
D7
330
1F
100
AcDbEntity
  8
0
  6
Continuous
 62
     7
370
    25
100
AcDbSpline
210
0.0
220
0.0
230
1.0
 70
     8
 71
     3
 72
    14
 73
    10
 74
     0
 42
0.000000001
 43
0.00000001
 40
0.0
 40
0.0
 40
0.0
 40
0.0
 40
0.25
 40
0.25
 40
0.5
 40
0.5
 40
0.75
 40
0.75
 40
1.0
 40
1.0
 40
1.0
 40
1.0
 10
140.6945113618337
 20
141.1664485833159
 30
0.0
 10
140.6945113618338
 20
141.034609406347
 30
0.0
 10
140.6685948392627
 20
140.9025604693584
 30
0.0
 10
140.5691499926851
 20
140.6572941776452
 30
0.0
 10
140.4968516002729
 20
140.5456737610574
 30
0.0
 10
140.312147705749
 20
140.3549344718618
 30
0.0
 10
140.2025704438731
 20
140.2789736050148
 30
0.0
 10
139.9592402656549
 20
140.1751312808454
 30
0.0
 10
139.8277040067348
 20
140.1484980734121
 30
0.0
 10
139.6945113618335
 20
140.1498252008542
 30
0.0
  0
SPLINE
  5
D8
330
1F
100
AcDbEntity
  8
0
  6
Continuous
 62
     7
370
    25
100
AcDbSpline
210
0.0
220
0.0
230
1.0
 70
     8
 71
     3
 72
    10
 73
     6
 74
     0
 42
0.000000001
 43
0.00000001
 40
0.0
 40
0.0
 40
0.0
 40
0.0
 40
0.5
 40
0.5
 40
1.0
 40
1.0
 40
1.0
 40
1.0
 10
139.6945113618335
 20
140.1498252008545
 30
0.0
 10
139.3820474595454
 20
140.152938581625
 30
0.0
 10
139.0791584775477
 20
140.1612545635315
 30
0.0
 10
138.4918152927436
 20
140.1864298573874
 30
0.0
 10
138.2073476321716
 20
140.2034134456134
 30
0.0
 10
137.9445113618335
 20
140.2226472690238
 30
0.0
  0
LINE
  5
D9
330
1F
100
AcDbEntity
  8
0
  6
Continuous
 62
     7
370
    25
100
AcDbLine
 10
140.6945113827
 20
83.6027873309
 30
0.0
 11
140.6945113827
 21
95.017866567
 31
0.0
  0
LINE
  5
DA
330
1F
100
AcDbEntity
  8
0
  6
Continuous
 62
     7
370
    25
100
AcDbLine
 10
127.759329303
 20
87.6086441429
 30
0.0
 11
127.759329303
 21
137.4921215327
 31
0.0
  0
LINE
  5
DB
330
1F
100
AcDbEntity
  8
0
  6
Continuous
 62
     7
370
    25
100
AcDbLine
 10
111.8144535263
 20
88.8090462984
 30
0.0
 11
111.8144535263
 21
88.4093636276
 31
0.0
  0
SPLINE
  5
DC
330
1F
100
AcDbEntity
  8
0
  6
Continuous
 62
     7
370
    25
100
AcDbSpline
210
0.0
220
0.0
230
1.0
 70
     8
 71
     3
 72
    26
 73
    22
 74
     0
 42
0.000000001
 43
0.00000001
 40
0.0
 40
0.0
 40
0.0
 40
0.0
 40
0.0241214275653681
 40
0.048207823354694
 40
0.0723095879205524
 40
0.0964771461125574
 40
0.1207606318213038
 40
0.1452095829268534
 40
0.1698726554210423
 40
0.1947973643378114
 40
0.2200298573584057
 40
0.2456147249583675
 40
0.3690974744022258
 40
0.4940700204039635
 40
0.6192566393629643
 40
0.7454654421861667
 40
0.7971580294162193
 40
0.8481837569733532
 40
0.8988139831114569
 40
0.9493262809205398
 40
1.0
 40
1.0
 40
1.0
 40
1.0
 10
106.8745692086321
 20
90.63096992390831
 30
0.0
 10
106.9398062441544
 20
90.62715229455809
 30
0.0
 10
107.0701855708389
 20
90.61952258023662
 30
0.0
 10
107.2651376221957
 20
90.60360891293742
 30
0.0
 10
107.4592468952466
 20
90.58445546359992
 30
0.0
 10
107.6524963404429
 20
90.56176379711414
 30
0.0
 10
107.8448875736571
 20
90.53565223617963
 30
0.0
 10
108.036417164512
 20
90.50613929795067
 30
0.0
 10
108.2270846605103
 20
90.47328189269831
 30
0.0
 10
108.4168846079215
 20
90.43714067974766
 30
0.0
 10
108.6058310569401
 20
90.39777958037858
 30
0.0
 10
109.0325965954894
 20
90.30137564719892
 30
0.0
 10
109.6670813973557
 20
90.12473709824732
 30
0.0
 10
110.4067565927572
 20
89.84661758771264
 30
0.0
 10
111.013505055874
 20
89.55527235369352
 30
0.0
 10
111.3743038684734
 20
89.3277884186192
 30
0.0
 10
111.5764920120236
 20
89.16836895999936
 30
0.0
 10
111.6833301192153
 20
89.06706256650624
 30
0.0
 10
111.7589417728526
 20
88.97313072709679
 30
0.0
 10
111.8060940738678
 20
88.88601974122395
 30
0.0
 10
111.8116640727205
 20
88.83473192561392
 30
0.0
 10
111.814453515035
 20
88.80904710828106
 30
0.0
  0
LINE
  5
DD
330
1F
100
AcDbEntity
  8
0
  6
Continuous
 62
     7
370
    25
100
AcDbLine
 10
104.9596958597
 20
90.7364798339
 30
0.0
 11
106.8745695789
 21
90.6309702994
 31
0.0
  0
SPLINE
  5
DE
330
1F
100
AcDbEntity
  8
0
  6
Continuous
 62
     7
370
    25
100
AcDbSpline
210
0.0
220
0.0
230
1.0
 70
     8
 71
     3
 72
    14
 73
    10
 74
     0
 42
0.000000001
 43
0.00000001
 40
0.0
 40
0.0
 40
0.0
 40
0.0
 40
0.0789259589567727
 40
0.158232396189637
 40
0.3308776440723308
 40
0.5000645817686393
 40
0.6670803235491236
 40
0.8332687177846481
 40
1.0
 40
1.0
 40
1.0
 40
1.0
 10
102.7634837035286
 20
90.63048692872202
 30
0.0
 10
102.816879215148
 20
90.6385160323904
 30
0.0
 10
102.9239276420658
 20
90.6546129456176
 30
0.0
 10
103.1530201283859
 20
90.68441694016263
 30
0.0
 10
103.451924785309
 20
90.71621551683823
 30
0.0
 10
103.8241001196669
 20
90.74237761149314
 30
0.0
 10
104.1997302378387
 20
90.75484347133691
 30
0.0
 10
104.5788911683074
 20
90.7544612341078
 30
0.0
 10
104.8326230898336
 20
90.74248068513789
 30
0.0
 10
104.9596959293426
 20
90.73648064238678
 30
0.0
  0
SPLINE
  5
DF
330
1F
100
AcDbEntity
  8
0
  6
Continuous
 62
     7
370
    25
100
AcDbSpline
210
0.0
220
0.0
230
1.0
 70
     8
 71
     3
 72
     8
 73
     4
 74
     0
 42
0.000000001
 43
0.00000001
 40
0.0
 40
0.0
 40
0.0
 40
0.0
 40
1.0
 40
1.0
 40
1.0
 40
1.0
 10
97.37118997962585
 20
90.92509631113197
 30
0.0
 10
99.16852666500114
 20
90.82696048107444
 30
0.0
 10
100.9658633503764
 20
90.72874160603276
 30
0.0
 10
102.7632000357517
 20
90.63044291698206
 30
0.0
  0
SPLINE
  5
E0
330
1F
100
AcDbEntity
  8
0
  6
Continuous
 62
     7
370
    25
100
AcDbSpline
210
0.0
220
0.0
230
1.0
 70
     8
 71
     3
 72
    13
 73
     9
 74
     0
 42
0.000000001
 43
0.00000001
 40
0.0
 40
0.0
 40
0.0
 40
0.0
 40
0.1666651380536958
 40
0.3328869540146023
 40
0.4989979369855643
 40
0.6653319948464125
 40
0.8322224399502948
 40
1.0
 40
1.0
 40
1.0
 40
1.0
 10
96.2876858147805
 20
91.04176337547385
 30
0.0
 10
96.34877929435555
 20
91.0380794501682
 30
0.0
 10
96.47080374747988
 20
91.03072139863964
 30
0.0
 10
96.65311453216695
 20
91.0156912021446
 30
0.0
 10
96.83441073078563
 20
90.99779100121607
 30
0.0
 10
97.01461778130668
 20
90.9766886909473
 30
0.0
 10
97.19394612693458
 20
90.95273751280885
 30
0.0
 10
97.3119995706403
 20
90.9343203518963
 30
0.0
 10
97.37118275647043
 20
90.92508736196787
 30
0.0
  0
SPLINE
  5
E1
330
1F
100
AcDbEntity
  8
0
  6
Continuous
 62
     7
370
    25
100
AcDbSpline
210
0.0
220
0.0
230
1.0
 70
     8
 71
     3
 72
     8
 73
     4
 74
     0
 42
0.000000001
 43
0.00000001
 40
0.0
 40
0.0
 40
0.0
 40
0.0
 40
1.0
 40
1.0
 40
1.0
 40
1.0
 10
90.46951136184627
 20
91.36153060756749
 30
0.0
 10
92.40890284615769
 20
91.25504495768418
 30
0.0
 10
94.3482943304691
 20
91.1484543864528
 30
0.0
 10
96.2876858147805
 20
91.04176337547385
 30
0.0
  0
LINE
  5
E2
330
1F
100
AcDbEntity
  8
0
  6
Continuous
 62
     7
370
    25
100
AcDbLine
 10
90.4695124168
 20
91.3615313919
 30
0.0
 11
90.4695124168
 21
133.7393218281
 31
0.0
  0
SPLINE
  5
E3
330
1F
100
AcDbEntity
  8
0
  6
Continuous
 62
     7
370
    25
100
AcDbSpline
210
0.0
220
0.0
230
1.0
 70
     8
 71
     3
 72
     8
 73
     4
 74
     0
 42
0.000000001
 43
0.00000001
 40
0.0
 40
0.0
 40
0.0
 40
0.0
 40
1.0
 40
1.0
 40
1.0
 40
1.0
 10
96.2876858147805
 20
134.059002300183
 30
0.0
 10
94.3482943304691
 20
133.9523112892041
 30
0.0
 10
92.4089028461577
 20
133.8457207179727
 30
0.0
 10
90.4695113618463
 20
133.7392350680894
 30
0.0
  0
SPLINE
  5
E4
330
1F
100
AcDbEntity
  8
0
  6
Continuous
 62
     7
370
    25
100
AcDbSpline
210
0.0
220
0.0
230
1.0
 70
     8
 71
     3
 72
    13
 73
     9
 74
     0
 42
0.000000001
 43
0.00000001
 40
0.0
 40
0.0
 40
0.0
 40
0.0
 40
0.1686717431882183
 40
0.3360976437898808
 40
0.5026076259375014
 40
0.6685363119848858
 40
0.8342210747440109
 40
1.0
 40
1.0
 40
1.0
 40
1.0
 10
97.37118086424748
 20
134.175681075925
 30
0.0
 10
97.31167714758654
 20
134.1664039236809
 30
0.0
 10
97.19310922038981
 20
134.1479181420591
 30
0.0
 10
97.01320757503606
 20
134.12388248895
 30
0.0
 10
96.83280890232868
 20
134.1027496101974
 30
0.0
 10
96.651704937746
 20
134.0848723460068
 30
0.0
 10
96.46996883742487
 20
134.0699149777319
 30
0.0
 10
96.34845832859946
 20
134.0626405482081
 30
0.0
 10
96.2876858147805
 20
134.059002300183
 30
0.0
  0
SPLINE
  5
E5
330
1F
100
AcDbEntity
  8
0
  6
Continuous
 62
     7
370
    25
100
AcDbSpline
210
0.0
220
0.0
230
1.0
 70
     8
 71
     3
 72
     8
 73
     4
 74
     0
 42
0.000000001
 43
0.00000001
 40
0.0
 40
0.0
 40
0.0
 40
0.0
 40
1.0
 40
1.0
 40
1.0
 40
1.0
 10
102.7633742807421
 20
134.4703322998701
 30
0.0
 10
100.9659796093037
 20
134.3720304406535
 30
0.0
 10
99.16858493786528
 20
134.2738084004949
 30
0.0
 10
97.37119026642688
 20
134.1756694106793
 30
0.0
  0
SPLINE
  5
E6
330
1F
100
AcDbEntity
  8
0
  6
Continuous
 62
     7
370
    25
100
AcDbSpline
210
0.0
220
0.0
230
1.0
 70
     8
 71
     3
 72
    18
 73
    14
 74
     0
 42
0.000000001
 43
0.00000001
 40
0.0
 40
0.0
 40
0.0
 40
0.0
 40
0.092314649209579
 40
0.1843375917893046
 40
0.2763048505599807
 40
0.3684522564623057
 40
0.4610136522462774
 40
0.554219163410967
 40
0.6482935985028676
 40
0.7434550301884313
 40
0.8399135943672386
 40
0.9201663187099747
 40
1.0
 40
1.0
 40
1.0
 40
1.0
 10
104.9596959293426
 20
134.3642850332701
 30
0.0
 10
104.889379096856
 20
134.3606118740831
 30
0.0
 10
104.7489676272374
 20
134.3532771625873
 30
0.0
 10
104.5386349921779
 20
134.3476828094987
 30
0.0
 10
104.3292112970184
 20
134.3460757130216
 30
0.0
 10
104.1206715650971
 20
134.3488068729498
 30
0.0
 10
103.9130278874249
 20
134.3557301646487
 30
0.0
 10
103.7062796351961
 20
134.3668142709274
 30
0.0
 10
103.5004374538714
 20
134.3819859456972
 30
0.0
 10
103.2954757181402
 20
134.4011439170617
 30
0.0
 10
103.1039716062888
 20
134.4228496103353
 30
0.0
 10
102.9262349892105
 20
134.4458807253953
 30
0.0
 10
102.8179010126352
 20
134.4621441597429
 30
0.0
 10
102.763875812153
 20
134.4702545912893
 30
0.0
  0
LINE
  5
E7
330
1F
100
AcDbEntity
  8
0
  6
Continuous
 62
     7
370
    25
100
AcDbLine
 10
106.8745695789
 20
134.4697953762
 30
0.0
 11
104.9596958597
 21
134.3642858418
 31
0.0
  0
SPLINE
  5
E8
330
1F
100
AcDbEntity
  8
0
  6
Continuous
 62
     7
370
    25
100
AcDbSpline
210
0.0
220
0.0
230
1.0
 70
     8
 71
     3
 72
    25
 73
    21
 74
     0
 42
0.000000001
 43
0.00000001
 40
0.0
 40
0.0
 40
0.0
 40
0.0
 40
0.0280056024285085
 40
0.0559514328341917
 40
0.0838901607636219
 40
0.1118745076904344
 40
0.1399569498904504
 40
0.168189428271427
 40
0.1966230730099236
 40
0.2253079499152393
 40
0.2542928341276655
 40
0.3799484016846518
 40
0.50578448875015
 40
0.6313077644952549
 40
0.7532057173414176
 40
0.8039627394919335
 40
0.8536129947756297
 40
0.9025574087114512
 40
0.9512124407384406
 40
1.0
 40
1.0
 40
1.0
 40
1.0
 10
111.814453515035
 20
136.2917185673758
 30
0.0
 10
111.8144960701612
 20
136.2777631436065
 30
0.0
 10
111.8145810895887
 20
136.2498820809622
 30
0.0
 10
111.8021760328525
 20
136.2048450771217
 30
0.0
 10
111.7805789783011
 20
136.1575829287304
 30
0.0
 10
111.7488970704668
 20
136.1078868515362
 30
0.0
 10
111.7073707022944
 20
136.0558504666517
 30
0.0
 10
111.655935873073
 20
136.001486063158
 30
0.0
 10
111.5946141686578
 20
135.9448303705096
 30
0.0
 10
111.523391992548
 20
135.8859053818612
 30
0.0
 10
111.3525461532714
 20
135.7570828408093
 30
0.0
 10
111.014809703839
 20
135.5468754137322
 30
0.0
 10
110.4032539963813
 20
135.2559501704667
 30
0.0
 10
109.6670205813377
 20
134.9774224581636
 30
0.0
 10
108.9804925603441
 20
134.7831175070286
 30
0.0
 10
108.4317297574137
 20
134.6625109640248
 30
0.0
 10
108.049634171967
 20
134.5927171737112
 30
0.0
 10
107.6624674731508
 20
134.5369268915042
 30
0.0
 10
107.2702991447153
 20
134.4942090360716
 30
0.0
 10
107.006598736302
 20
134.4779408883787
 30
0.0
 10
106.8745692086321
 20
134.4697957517486
 30
0.0
  0
LINE
  5
E9
330
1F
100
AcDbEntity
  8
0
  6
Continuous
 62
     7
370
    25
100
AcDbLine
 10
111.8144535263
 20
136.691402048
 30
0.0
 11
111.8144535263
 21
136.2917193772
 31
0.0
  0
SPLINE
  5
EA
330
1F
100
AcDbEntity
  8
0
  6
Continuous
 62
     7
370
    25
100
AcDbSpline
210
0.0
220
0.0
230
1.0
 70
    11
 71
     3
 72
    39
 73
    35
 74
     0
 42
0.000000001
 43
0.00000001
 40
0.0
 40
0.0
 40
0.0
 40
0.0
 40
0.0310664058347798
 40
0.0621048158425991
 40
0.0931361551792733
 40
0.1235538293503577
 40
0.1538561545807598
 40
0.1850588072749104
 40
0.2160250992947717
 40
0.247186722379756
 40
0.2784462884306427
 40
0.3100516090231226
 40
0.3419834369140484
 40
0.3734259894013217
 40
0.4048604886785525
 40
0.4368740651833295
 40
0.468512068592407
 40
0.4998055358633177
 40
0.5309508213228404
 40
0.561864978443814
 40
0.5930416446592908
 40
0.6233742450133256
 40
0.6540913579073041
 40
0.6849496782718417
 40
0.7158160645167227
 40
0.7471731804043494
 40
0.7784514311866261
 40
0.8101295911560916
 40
0.8419598919689909
 40
0.8735175891922292
 40
0.9050808037889628
 40
0.9370235169792575
 40
0.9687441590033682
 40
0.9999999999999999
 40
0.9999999999999999
 40
0.9999999999999999
 40
0.9999999999999999
 10
100.8319274565605
 20
118.3586359674231
 30
0.0
 10
101.1960566175252
 20
118.7380596253309
 30
0.0
 10
101.9988409542421
 20
119.4255413262245
 30
0.0
 10
103.3938794396242
 20
120.1914553006431
 30
0.0
 10
104.9051212793475
 20
120.6803362340739
 30
0.0
 10
106.4767176858699
 20
120.8423141077075
 30
0.0
 10
108.0442623029285
 20
120.6808692167491
 30
0.0
 10
109.5399342970372
 20
120.2011448295051
 30
0.0
 10
110.9203505590728
 20
119.4478453613115
 30
0.0
 10
112.1173966126574
 20
118.4353594876511
 30
0.0
 10
113.1063043923988
 20
117.2008107002852
 30
0.0
 10
113.8457991867013
 20
115.7758590720032
 30
0.0
 10
114.3221031095908
 20
114.2249285924609
 30
0.0
 10
114.4897692820468
 20
112.6039997252348
 30
0.0
 10
114.3444916812592
 20
110.9789907793134
 30
0.0
 10
113.8855169706274
 20
109.4199647990418
 30
0.0
 10
113.1615310847741
 20
107.9833082003661
 30
0.0
 10
112.1857168294514
 20
106.7365639855656
 30
0.0
 10
111.0013922818024
 20
105.7103667963686
 30
0.0
 10
109.6331860260728
 20
104.9399625766478
 30
0.0
 10
108.1454481889406
 20
104.4411133661712
 30
0.0
 10
106.575798328488
 20
104.2599092862754
 30
0.0
 10
104.9995438101589
 20
104.3963324281938
 30
0.0
 10
103.480268301684
 20
104.8607641610005
 30
0.0
 10
102.0792502676361
 20
105.6151982353696
 30
0.0
 10
100.8611137707369
 20
106.6386079709041
 30
0.0
 10
99.85350286760843
 20
107.8855502323973
 30
0.0
 10
99.10802895705837
 20
109.3186396386654
 30
0.0
 10
98.63219314443461
 20
110.8753018638869
 30
0.0
 10
98.4683820294468
 20
112.4989648375925
 30
0.0
 10
98.61419417271215
 20
114.1265138815841
 30
0.0
 10
99.0743384848892
 20
115.6912615699196
 30
0.0
 10
99.80379854971045
 20
117.135287639382
 30
0.0
 10
100.4655779271724
 20
117.9768986790804
 30
0.0
 10
100.8319274565605
 20
118.3586359674232
 30
0.0
  0
SPLINE
  5
EB
330
1F
100
AcDbEntity
  8
0
  6
Continuous
 62
     7
370
    25
100
AcDbSpline
210
0.0
220
0.0
230
1.0
 70
    11
 71
     3
 72
    47
 73
    43
 74
     0
 42
0.000000001
 43
0.00000001
 40
0.0
 40
0.0
 40
0.0
 40
0.0
 40
0.018555931476537
 40
0.035174990069533
 40
0.0498581786730641
 40
0.062607288393385
 40
0.0953681058734515
 40
0.1250235953123156
 40
0.154562131414586
 40
0.1873254163316038
 40
0.2140376493834303
 40
0.2498478288711541
 40
0.267684277703266
 40
0.2839032658487942
 40
0.2985082399655423
 40
0.3115041128733393
 40
0.3429211894939697
 40
0.3729479207884575
 40
0.402849629723676
 40
0.4364008870340949
 40
0.4619504140121321
 40
0.4999311489198671
 40
0.5173446589925941
 40
0.5335937021926416
 40
0.5486836295585554
 40
0.5626211825520289
 40
0.5950895087050275
 40
0.6250625441345793
 40
0.6549914299861027
 40
0.6874537003694817
 40
0.716262031275159
 40
0.7500327067591864
 40
0.769858024757118
 40
0.7869169811408327
 40
0.8012094702879055
 40
0.8127363273117648
 40
0.845751829555199
 40
0.8751838140688346
 40
0.9050548218844019
 40
0.9375234837614186
 40
0.9660344858637263
 40
1.0
 40
1.0
 40
1.0
 40
1.0
 10
101.3757403769348
 20
117.6596019616197
 30
0.0
 10
101.1776481223134
 20
117.4602230844713
 30
0.0
 10
100.8247094503451
 20
117.0609038385592
 30
0.0
 10
100.3888049593714
 20
116.4422588376803
 30
0.0
 10
100.0588612063899
 20
115.8598918048937
 30
0.0
 10
99.6776388553969
 20
115.0273531650776
 30
0.0
 10
99.35123049326585
 20
113.9180583889707
 30
0.0
 10
99.22687742518963
 20
112.5068810377049
 30
0.0
 10
99.3682467955399
 20
111.0973910445184
 30
0.0
 10
99.76974454907696
 20
109.789323444103
 30
0.0
 10
100.4466939397417
 20
108.5046601436029
 30
0.0
 10
101.2198762973801
 20
107.5511723615709
 30
0.0
 10
102.0151379983513
 20
106.8518683940572
 30
0.0
 10
102.6192781161125
 20
106.4253693541355
 30
0.0
 10
103.1989933107372
 20
106.0952178260271
 30
0.0
 10
104.0167945781741
 20
105.719257183938
 30
0.0
 10
105.1164570075354
 20
105.3902553497139
 30
0.0
 10
106.5188247361955
 20
105.2566773332098
 30
0.0
 10
107.9462974195997
 20
105.3926772122174
 30
0.0
 10
109.2434744033552
 20
105.7871653620608
 30
0.0
 10
110.5378774265123
 20
106.4589591690103
 30
0.0
 10
111.4898741069732
 20
107.2215131589633
 30
0.0
 10
112.1993468355925
 20
108.0235522788915
 30
0.0
 10
112.6249516155318
 20
108.6193478838782
 30
0.0
 10
112.9656142434498
 20
109.2106175041777
 30
0.0
 10
113.3552796303198
 20
110.0551803352221
 30
0.0
 10
113.6869915918767
 20
111.1788322400886
 30
0.0
 10
113.8132327533745
 20
112.5967244002412
 30
0.0
 10
113.6689046421044
 20
114.0125495918131
 30
0.0
 10
113.256626293036
 20
115.3477075671701
 30
0.0
 10
112.5773101120537
 20
116.6166759007527
 30
0.0
 10
111.7909597538196
 20
117.576998392994
 30
0.0
 10
110.9971120800948
 20
118.2724059998579
 30
0.0
 10
110.3673878580671
 20
118.7084798758895
 30
0.0
 10
109.8061519386714
 20
119.0213290243415
 30
0.0
 10
109.0025434792569
 20
119.3885310252076
 30
0.0
 10
107.922395083313
 20
119.7112409621976
 30
0.0
 10
106.5128667688646
 20
119.8431851983361
 30
0.0
 10
105.1036618208346
 20
119.709375163659
 30
0.0
 10
103.7629420075441
 20
119.3046190975732
 30
0.0
 10
102.4786741437885
 20
118.6263615506316
 30
0.0
 10
101.7383363092996
 20
118.0245529789706
 30
0.0
 10
101.3757403769348
 20
117.6596019616197
 30
0.0
  0
SPLINE
  5
EC
330
1F
100
AcDbEntity
  8
0
  6
Continuous
 62
     7
370
    25
100
AcDbSpline
210
0.0
220
0.0
230
1.0
 70
     8
 71
     3
 72
     8
 73
     4
 74
     0
 42
0.000000001
 43
0.00000001
 40
0.0
 40
0.0
 40
0.0
 40
0.0
 40
1.0
 40
1.0
 40
1.0
 40
1.0
 10
89.55585154025435
 20
91.77210261856793
 30
0.0
 10
89.86040481396377
 20
91.6344258781926
 30
0.0
 10
90.16495808767317
 20
91.49756315727865
 30
0.0
 10
90.46951136138259
 20
91.3615306079475
 30
0.0
  0
SPLINE
  5
ED
330
1F
100
AcDbEntity
  8
0
  6
Continuous
 62
     7
370
    25
100
AcDbSpline
210
0.0
220
0.0
230
1.0
 70
     8
 71
     3
 72
     8
 73
     4
 74
     0
 42
0.000000001
 43
0.00000001
 40
0.0
 40
0.0
 40
0.0
 40
0.0
 40
1.0
 40
1.0
 40
1.0
 40
1.0
 10
88.96951136183354
 20
92.28815710108408
 30
0.0
 10
89.16405849436626
 20
92.11475023276428
 30
0.0
 10
89.3595195146053
 20
91.94275413779758
 30
0.0
 10
89.55585154026247
 20
91.77210261856575
 30
0.0
  0
LINE
  5
EE
330
1F
100
AcDbEntity
  8
0
  6
Continuous
 62
     7
370
    25
100
AcDbLine
 10
88.9695131023
 20
92.2881563755
 30
0.0
 11
88.9695131023
 21
132.8126093002
 31
0.0
  0
SPLINE
  5
EF
330
1F
100
AcDbEntity
  8
0
  6
Continuous
 62
     7
370
    25
100
AcDbSpline
210
0.0
220
0.0
230
1.0
 70
     8
 71
     3
 72
     8
 73
     4
 74
     0
 42
0.000000001
 43
0.00000001
 40
0.0
 40
0.0
 40
0.0
 40
0.0
 40
1.0
 40
1.0
 40
1.0
 40
1.0
 10
89.55585154026599
 20
133.3286630570942
 30
0.0
 10
89.35951951460764
 20
133.1580115378614
 30
0.0
 10
89.16405849436742
 20
132.9860154428936
 30
0.0
 10
88.96951136183354
 20
132.8126085745728
 30
0.0
  0
SPLINE
  5
F0
330
1F
100
AcDbEntity
  8
0
  6
Continuous
 62
     7
370
    25
100
AcDbSpline
210
0.0
220
0.0
230
1.0
 70
     8
 71
     3
 72
     8
 73
     4
 74
     0
 42
0.000000001
 43
0.00000001
 40
0.0
 40
0.0
 40
0.0
 40
0.0
 40
1.0
 40
1.0
 40
1.0
 40
1.0
 10
90.46951136138262
 20
133.7392350677094
 30
0.0
 10
90.16495808767708
 20
133.60320251838
 30
0.0
 10
89.86040481397153
 20
133.4663397974678
 30
0.0
 10
89.55585154026599
 20
133.3286630570942
 30
0.0
  0
SPLINE
  5
F1
330
1F
100
AcDbEntity
  8
0
  6
Continuous
 62
     7
370
    25
100
AcDbSpline
210
0.0
220
0.0
230
1.0
 70
     8
 71
     3
 72
     9
 73
     5
 74
     0
 42
0.000000001
 43
0.00000001
 40
0.0
 40
0.0
 40
0.0
 40
0.0
 40
0.8959546455136717
 40
0.9999999999999999
 40
0.9999999999999999
 40
0.9999999999999999
 40
0.9999999999999999
 10
104.5942560572586
 20
105.5606839807594
 30
0.0
 10
104.6982884691585
 20
105.5335851345304
 30
0.0
 10
104.8144019492559
 20
105.5033393555006
 30
0.0
 10
104.7650659381153
 20
105.5159102787172
 30
0.0
 10
104.7599327553472
 20
105.5172182248795
 30
0.0
  0
LINE
  5
F2
330
1F
100
AcDbEntity
  8
0
  6
Continuous
 62
     7
370
    25
100
AcDbLine
 10
192.9195144017
 20
97.5503831731
 30
0.0
 11
192.9195144017
 21
127.5503825026
 31
0.0
  0
LINE
  5
F3
330
1F
100
AcDbEntity
  8
0
  6
Continuous
 62
     7
370
    25
100
AcDbLine
 10
175.4195124645
 20
96.5503820779
 30
0.0
 11
175.4195124645
 21
128.5503835978
 31
0.0
  0
LINE
  5
F4
330
1F
100
AcDbEntity
  8
0
  6
Continuous
 62
     7
370
    25
100
AcDbLine
 10
111.8144535263
 20
136.2917193772
 30
0.0
 11
111.168642788
 21
135.6566002222
 31
0.0
  0
LINE
  5
F5
330
1F
100
AcDbEntity
  8
0
  6
Continuous
 62
     7
370
    25
100
AcDbLine
 10
111.8144535263
 20
88.8090462984
 30
0.0
 11
111.1711424578
 21
89.4417086245
 31
0.0
  0
LINE
  5
F6
330
1F
100
AcDbEntity
  8
0
  6
Continuous
 62
     7
370
    25
100
AcDbLine
 10
110.9195121367
 20
135.4115934672
 30
0.0
 11
110.9195121367
 21
135.7964606585
 31
0.0
  0
LINE
  5
F7
330
1F
100
AcDbEntity
  8
0
  6
Continuous
 62
     7
370
    25
100
AcDbLine
 10
110.9195121367
 20
89.3043050172
 30
0.0
 11
110.9195121367
 21
89.6891722085
 31
0.0
  0
SPLINE
  5
F8
330
1F
100
AcDbEntity
  8
0
  6
Continuous
 62
     7
370
    25
100
AcDbSpline
210
0.0
220
0.0
230
1.0
 70
     8
 71
     3
 72
     9
 73
     5
 74
     0
 42
0.000000001
 43
0.00000001
 40
0.0
 40
0.0
 40
0.0
 40
0.0
 40
0.7786028962702375
 40
0.9999999999999999
 40
0.9999999999999999
 40
0.9999999999999999
 40
0.9999999999999999
 10
101.5652783949337
 20
117.8135288508499
 30
0.0
 10
101.4128822278531
 20
117.6857041680427
 30
0.0
 10
101.2171519424783
 20
117.521532311735
 30
0.0
 10
101.0616357495105
 20
117.3117748487534
 30
0.0
 10
101.0272049148044
 20
117.2653351539636
 30
0.0
  0
SPLINE
  5
F9
330
1F
100
AcDbEntity
  8
0
  6
Continuous
 62
     7
370
    25
100
AcDbSpline
210
0.0
220
0.0
230
1.0
 70
     8
 71
     3
 72
     9
 73
     5
 74
     0
 42
0.000000001
 43
0.00000001
 40
0.0
 40
0.0
 40
0.0
 40
0.0
 40
0.4260717682333453
 40
1.0
 40
1.0
 40
1.0
 40
1.0
 10
103.8825058181247
 20
105.8047780396307
 30
0.0
 10
104.0219433276217
 20
105.7505954278245
 30
0.0
 10
104.3492062910308
 20
105.6234276221966
 30
0.0
 10
104.5073384554186
 20
105.5840191814929
 30
0.0
 10
104.5980949689111
 20
105.5614015648032
 30
0.0
  0
LINE
  5
FA
330
1F
100
AcDbEntity
  8
0
  6
HIDDEN
 62
     7
370
    18
100
AcDbLine
 10
195.9195130308
 20
100.5503827335
 30
0.0
 11
195.9195130308
 21
124.5503829421
 31
0.0
  0
LINE
  5
FB
330
1F
100
AcDbEntity
  8
0
  6
HIDDEN
 62
     7
370
    18
100
AcDbLine
 10
211.9195082028
 20
123.7503824385
 30
0.0
 11
211.9195082028
 21
101.3503832372
 31
0.0
  0
LINE
  5
FC
330
1F
100
AcDbEntity
  8
0
  6
HIDDEN
 62
     7
370
    18
100
AcDbLine
 10
195.9195130308
 20
103.9503825458
 30
0.0
 11
195.9195130308
 21
121.1503831299
 31
0.0
  0
LINE
  5
FD
330
1F
100
AcDbEntity
  8
0
  6
HIDDEN
 62
     7
370
    18
100
AcDbLine
 10
211.9195082028
 20
112.5503828378
 30
0.0
 11
211.9195082028
 21
105.4793827796
 31
0.0
  0
LINE
  5
FE
330
1F
100
AcDbEntity
  8
0
  6
HIDDEN
 62
     7
370
    18
100
AcDbLine
 10
203.9195143421
 20
112.5503828378
 30
0.0
 11
203.9195143421
 21
109.0148828087
 31
0.0
  0
LINE
  5
FF
330
1F
100
AcDbEntity
  8
0
  6
HIDDEN
 62
     7
370
    18
100
AcDbLine
 10
203.9195143421
 20
112.5503828378
 30
0.0
 11
203.9195143421
 21
116.0858828669
 31
0.0
  0
LINE
  5
100
330
1F
100
AcDbEntity
  8
0
  6
HIDDEN
 62
     7
370
    18
100
AcDbLine
 10
203.9195143421
 20
112.5503828378
 30
0.0
 11
211.9195082028
 21
112.5503828378
 31
0.0
  0
LINE
  5
101
330
1F
100
AcDbEntity
  8
0
  6
HIDDEN
 62
     7
370
    18
100
AcDbLine
 10
211.9195082028
 20
112.5503828378
 30
0.0
 11
211.9195082028
 21
119.621382896
 31
0.0
  0
LINE
  5
102
330
1F
100
AcDbEntity
  8
0
  6
HIDDEN
 62
     7
370
    18
100
AcDbLine
 10
162.0210104425
 20
104.5503824578
 30
0.0
 11
162.0210104425
 21
120.5503832178
 31
0.0
  0
LINE
  5
103
330
1F
100
AcDbEntity
  8
0
  6
HIDDEN
 62
     7
370
    18
100
AcDbLine
 10
160.9195128818
 20
105.6518828126
 30
0.0
 11
160.9195128818
 21
119.4488828631
 31
0.0
  0
LINE
  5
104
330
1F
100
AcDbEntity
  8
0
  6
HIDDEN
 62
     7
370
    18
100
AcDbLine
 10
203.9195143421
 20
116.0858828669
 30
0.0
 11
203.9195143421
 21
119.621382896
 31
0.0
  0
LINE
  5
105
330
1F
100
AcDbEntity
  8
0
  6
HIDDEN
 62
     7
370
    18
100
AcDbLine
 10
203.9195143421
 20
109.0148828087
 30
0.0
 11
203.9195143421
 21
116.0858828669
 31
0.0
  0
LINE
  5
106
330
1F
100
AcDbEntity
  8
0
  6
HIDDEN
 62
     7
370
    18
100
AcDbLine
 10
203.9195143421
 20
105.4793827796
 30
0.0
 11
203.9195143421
 21
109.0148828087
 31
0.0
  0
LINE
  5
107
330
1F
100
AcDbEntity
  8
0
  6
HIDDEN
 62
     7
370
    18
100
AcDbLine
 10
203.9195143421
 20
109.0148828087
 30
0.0
 11
203.9195143421
 21
105.4793827796
 31
0.0
  0
LINE
  5
108
330
1F
100
AcDbEntity
  8
0
  6
HIDDEN
 62
     7
370
    18
100
AcDbLine
 10
203.9195143421
 20
119.621382896
 30
0.0
 11
203.9195143421
 21
116.0858828669
 31
0.0
  0
LINE
  5
109
330
1F
100
AcDbEntity
  8
0
  6
HIDDEN
 62
     7
370
    18
100
AcDbLine
 10
203.9195143421
 20
116.0858828669
 30
0.0
 11
203.9195143421
 21
109.0148828087
 31
0.0
  0
LINE
  5
10A
330
1F
100
AcDbEntity
  8
0
  6
HIDDEN
 62
     7
370
    18
100
AcDbLine
 10
203.9195143421
 20
109.0148828087
 30
0.0
 11
203.9195143421
 21
105.4793827796
 31
0.0
  0
LINE
  5
10B
330
1F
100
AcDbEntity
  8
0
  6
HIDDEN
 62
     7
370
    18
100
AcDbLine
 10
203.9195143421
 20
116.0858828669
 30
0.0
 11
203.9195143421
 21
119.621382896
 31
0.0
  0
LINE
  5
10C
330
1F
100
AcDbEntity
  8
0
  6
HIDDEN
 62
     7
370
    18
100
AcDbLine
 10
203.9195143421
 20
105.4793827796
 30
0.0
 11
211.9195082028
 21
105.4793827796
 31
0.0
  0
LINE
  5
10D
330
1F
100
AcDbEntity
  8
0
  6
HIDDEN
 62
     7
370
    18
100
AcDbLine
 10
203.9195143421
 20
119.621382896
 30
0.0
 11
211.9195082028
 21
119.621382896
 31
0.0
  0
LINE
  5
10E
330
1F
100
AcDbEntity
  8
0
  6
HIDDEN
 62
     7
370
    18
100
AcDbLine
 10
192.9195144017
 20
120.5503832178
 30
0.0
 11
162.0210104425
 21
120.5503832178
 31
0.0
  0
LINE
  5
10F
330
1F
100
AcDbEntity
  8
0
  6
HIDDEN
 62
     7
370
    18
100
AcDbLine
 10
162.0210104425
 20
104.5503824578
 30
0.0
 11
192.9195144017
 21
104.5503824578
 31
0.0
  0
LINE
  5
110
330
1F
100
AcDbEntity
  8
0
  6
HIDDEN
 62
     7
370
    18
100
AcDbLine
 10
162.0210104425
 20
120.5503832178
 30
0.0
 11
160.9195128818
 21
119.4488828631
 31
0.0
  0
LINE
  5
111
330
1F
100
AcDbEntity
  8
0
  6
HIDDEN
 62
     7
370
    18
100
AcDbLine
 10
160.9195128818
 20
105.6518828126
 30
0.0
 11
162.0210104425
 21
104.5503824578
 31
0.0
  0
LINE
  5
112
330
1F
100
AcDbEntity
  8
0
  6
HIDDEN
 62
     7
370
    18
100
AcDbLine
 10
203.9195143421
 20
119.621382896
 30
0.0
 11
199.8370655615
 21
112.5503828378
 31
0.0
  0
LINE
  5
113
330
1F
100
AcDbEntity
  8
0
  6
HIDDEN
 62
     7
370
    18
100
AcDbLine
 10
199.8370655615
 20
112.5503828378
 30
0.0
 11
203.9195143421
 21
105.4793827796
 31
0.0
  0
DIMENSION
  5
114
330
1F
100
AcDbEntity
  8
VERMASSUNG
100
AcDbDimension
  2
_D
 10
192.9195113618
 20
157.076516069
 30
0.0
 11
182.9195113618
 21
157.076516069
 31
0.0
 70
   160
  1
<>
 71
     2
 42
-1.0
  3
SLDDIMSTYLE0
100
AcDbAlignedDimension
 13
172.9195113618
 23
147.5503828378
 33
0.0
 14
192.9195113618
 24
123.7124409074
 34
0.0
100
AcDbRotatedDimension
  0
DIMENSION
  5
11F
330
1F
100
AcDbEntity
  8
VERMASSUNG
100
AcDbDimension
  2
_D_1
 10
150.5052977995
 20
157.076516069
 30
0.0
 11
161.7124045806
 21
157.076516069
 31
0.0
 70
   160
  1
<>
 71
     2
 42
-1.0
  3
SLDDIMSTYLE1
100
AcDbAlignedDimension
 13
172.9195113618
 23
147.5503828378
 33
0.0
 14
150.5052977995
 24
144.0253828378
 34
0.0
100
AcDbRotatedDimension
  0
DIMENSION
  5
12A
330
1F
100
AcDbEntity
  8
VERMASSUNG
100
AcDbDimension
  2
_D_2
 10
172.9195113618
 20
166.7838344287
 30
0.0
 11
150.9195113618
 21
166.7838344287
 31
0.0
 70
   160
  1
<>
 71
     2
 42
-1.0
  3
SLDDIMSTYLE0
100
AcDbAlignedDimension
 13
128.9195113618
 23
143.8253828378
 33
0.0
 14
172.9195113618
 24
147.5503828378
 34
0.0
100
AcDbRotatedDimension
  0
DIMENSION
  5
134
330
1F
100
AcDbEntity
  8
VERMASSUNG
100
AcDbDimension
  2
_D_3
 10
192.9195113618
 20
176.5503828378
 30
0.0
 11
140.9445113618
 21
176.5503828378
 31
0.0
 70
   160
  1
<>
 71
     2
 42
-1.0
  3
SLDDIMSTYLE0
100
AcDbAlignedDimension
 13
88.9695113618
 23
132.8126085746
 33
0.0
 14
192.9195113618
 24
127.5503828378
 34
0.0
100
AcDbRotatedDimension
  0
DIMENSION
  5
13E
330
1F
100
AcDbEntity
  8
VERMASSUNG
100
AcDbDimension
  2
_D_4
 10
78.9694863618
 20
81.0753828378
 30
0.0
 11
78.9694863618
 21
112.5503828378
 31
0.0
 70
   160
  1
KM%%c<> XMZ
 71
     2
 42
-1.0
  3
SLDDIMSTYLE1
100
AcDbAlignedDimension
 13
129.1195113618
 23
144.0253828378
 33
0.0
 14
129.1195113618
 24
81.0753828378
 34
0.0
 50
90.0
100
AcDbRotatedDimension
  0
DIMENSION
  5
14B
330
1F
100
AcDbEntity
  8
VERMASSUNG
100
AcDbDimension
  2
_D_5
 10
235.1557979669
 20
128.5503828378
 30
0.0
 11
235.1557979669
 21
112.5503828378
 31
0.0
 70
   160
  1
%%c<>
 71
     2
 42
-1.0
  3
SLDDIMSTYLE0
100
AcDbAlignedDimension
 13
191.9195113618
 23
96.5503828378
 33
0.0
 14
191.9195113618
 24
128.5503828378
 34
0.0
 50
90.0
100
AcDbRotatedDimension
  0
DIMENSION
  5
156
330
1F
100
AcDbEntity
  8
VERMASSUNG
100
AcDbDimension
  2
_D_6
 10
245.9195113618
 20
148.5503828378
 30
0.0
 11
245.9195113618
 21
112.5503828378
 31
0.0
 70
   160
  1
%%c<>
 71
     2
 42
-1.0
  3
SLDDIMSTYLE0
100
AcDbAlignedDimension
 13
171.9195113618
 23
76.5503828378
 33
0.0
 14
171.9195113618
 24
148.5503828378
 34
0.0
 50
90.0
100
AcDbRotatedDimension
  0
DIMENSION
  5
161
330
1F
100
AcDbEntity
  8
VERMASSUNG
100
AcDbDimension
  2
_D_7
 10
223.7972417496
 20
119.6213828378
 30
0.0
 11
223.7972417496
 21
112.5503828378
 31
0.0
 70
   160
  1
SW<>
 71
     2
 42
-1.0
  3
SLDDIMSTYLE1
100
AcDbAlignedDimension
 13
211.9195113618
 23
105.4793828378
 33
0.0
 14
211.9195113618
 24
119.6213828378
 34
0.0
 50
90.0
100
AcDbRotatedDimension
  0
LINE
  5
16C
330
1F
100
AcDbEntity
  8
VERMASSUNG
  6
CENTERX2
370
    18
100
AcDbLine
 10
213.1195113618
 20
112.5503828378
 30
0.0
 11
86.9695113618
 21
112.5503828378
 31
0.0
  0
SPLINE
  5
16D
330
1F
100
AcDbEntity
  8
0
  6
Continuous
 62
     7
370
    25
100
AcDbSpline
210
0.0
220
0.0
230
1.0
 70
     8
 71
     3
 72
    21
 73
    17
 74
     0
 42
0.000000001
 43
0.00000001
 40
0.0
 40
0.0
 40
0.0
 40
0.0
 40
0.0418087065300023
 40
0.1208070892026078
 40
0.199680539032218
 40
0.2784230656562356
 40
0.3571190133770296
 40
0.4358686231184112
 40
0.5147552222565505
 40
0.5938948744267469
 40
0.6733843759725244
 40
0.7532251028618093
 40
0.8329605745165657
 40
0.911492656238885
 40
0.9877287690257699
 40
1.0
 40
1.0
 40
1.0
 40
1.0
 10
277.1996127285848
 20
32.47638277239239
 30
0.0
 10
277.2782709917512
 20
32.53141118881572
 30
0.0
 10
277.5055556078881
 20
32.69041689272957
 30
0.0
 10
277.8686099917439
 20
33.01685334863061
 30
0.0
 10
278.2686324807567
 20
33.46850598026797
 30
0.0
 10
278.6255063102784
 20
33.97573171824765
 30
0.0
 10
278.9286483155233
 20
34.52116839336473
 30
0.0
 10
279.1687495259613
 20
35.08861037724218
 30
0.0
 10
279.3381467786829
 20
35.66100411237507
 30
0.0
 10
279.430769607438
 20
36.22153015351848
 30
0.0
 10
279.4422167638783
 20
36.75420401951775
 30
0.0
 10
279.3688467904142
 20
37.24188983794915
 30
0.0
 10
279.2113032732948
 20
37.67092376773599
 30
0.0
 10
278.9668229217383
 20
38.01077550289354
 30
0.0
 10
278.7500562531366
 20
38.2149498710373
 30
0.0
 10
278.6070493814448
 20
38.27062547374796
 30
0.0
 10
278.5872219831876
 20
38.27834469965011
 30
0.0
  0
LINE
  5
16E
330
1F
100
AcDbEntity
  8
0
  6
Continuous
 62
     7
370
    25
100
AcDbLine
 10
278.6355025152
 20
38.2603974836
 30
0.0
 11
276.3374047704
 21
39.5870610728
 31
0.0
  0
SPLINE
  5
16F
330
1F
100
AcDbEntity
  8
0
  6
Continuous
 62
     7
370
    25
100
AcDbSpline
210
0.0
220
0.0
230
1.0
 70
     8
 71
     3
 72
    13
 73
     9
 74
     0
 42
0.000000001
 43
0.00000001
 40
0.0
 40
0.0
 40
0.0
 40
0.0
 40
0.0285155346255821
 40
0.2348489366243659
 40
0.4418944468778115
 40
0.6538686448091132
 40
0.871010587781567
 40
1.0
 40
1.0
 40
1.0
 40
1.0
 10
256.1408298931838
 20
21.13314876422984
 30
0.0
 10
256.1557320740598
 20
21.12367209087947
 30
0.0
 10
256.2784638193376
 20
21.04562387301186
 30
0.0
 10
256.559078583745
 20
20.99310493870406
 30
0.0
 10
256.9650433807724
 20
20.98450768388329
 30
0.0
 10
257.3991395118152
 20
21.08585756237667
 30
0.0
 10
257.7842381406399
 20
21.25142156293667
 30
0.0
 10
258.0199058152225
 20
21.39963871118437
 30
0.0
 10
258.1077297998671
 20
21.45487335706792
 30
0.0
  0
SPLINE
  5
170
330
1F
100
AcDbEntity
  8
0
  6
Continuous
 62
     7
370
    25
100
AcDbSpline
210
0.0
220
0.0
230
1.0
 70
     8
 71
     3
 72
    21
 73
    17
 74
     0
 42
0.000000001
 43
0.00000001
 40
0.0
 40
0.0
 40
0.0
 40
0.0
 40
0.0418087050053306
 40
0.1208069713349138
 40
0.1996805242278805
 40
0.278422952922236
 40
0.3571188977731616
 40
0.4358685693540174
 40
0.5147551656153356
 40
0.5938948148994829
 40
0.6733843193650545
 40
0.7532250732999797
 40
0.8329605065109278
 40
0.9114925853693547
 40
0.9877287694732748
 40
1.0
 40
1.0
 40
1.0
 40
1.0
 10
258.1077297998671
 20
21.45487335706792
 30
0.0
 10
258.186388067419
 20
21.50990176117171
 30
0.0
 10
258.4136724827626
 20
21.66890728014976
 30
0.0
 10
258.776726704168
 20
21.99534411521099
 30
0.0
 10
259.1767493526795
 20
22.44699597913215
 30
0.0
 10
259.533622800723
 20
22.95422223450147
 30
0.0
 10
259.836764667741
 20
23.49965875641674
 30
0.0
 10
260.0768666811012
 20
24.06710076657781
 30
0.0
 10
260.2462639085937
 20
24.63949476411037
 30
0.0
 10
260.3388863137972
 20
25.20002052150133
 30
0.0
 10
260.3503352554399
 20
25.732695556719
 30
0.0
 10
260.2769624940568
 20
26.22037934841669
 30
0.0
 10
260.1194206240826
 20
26.64941463945114
 30
0.0
 10
259.8749399739369
 20
26.98926638358749
 30
0.0
 10
259.6581727715025
 20
27.19344000193992
 30
0.0
 10
259.5151657924661
 20
27.24911567496712
 30
0.0
 10
259.4953383959253
 20
27.25683490415598
 30
0.0
  0
LINE
  5
171
330
1F
100
AcDbEntity
  8
0
  6
Continuous
 62
     7
370
    25
100
AcDbLine
 10
253.7458062506
 20
22.5032094195
 30
0.0
 11
256.0439039954
 21
21.1765458302
 31
0.0
  0
LINE
  5
172
330
1F
100
AcDbEntity
  8
0
  6
Continuous
 62
     7
370
    25
100
AcDbLine
 10
259.5436195865
 20
27.2388880682
 30
0.0
 11
257.2455218417
 21
28.5655516575
 31
0.0
  0
SPLINE
  5
173
330
1F
100
AcDbEntity
  8
0
  6
Continuous
 62
     7
370
    25
100
AcDbSpline
210
0.0
220
0.0
230
1.0
 70
     8
 71
     3
 72
    25
 73
    21
 74
     0
 42
0.000000001
 43
0.00000001
 40
0.0
 40
0.0
 40
0.0
 40
0.0
 40
0.0279499681669828
 40
0.0840019609749962
 40
0.1404155887781305
 40
0.1978188419986736
 40
0.2563193161310031
 40
0.3156115503662943
 40
0.3752847571312713
 40
0.4350177297805535
 40
0.4946716445628316
 40
0.5542274909315471
 40
0.6137055403958868
 40
0.6731422465387422
 40
0.7325802454558432
 40
0.7920549761588404
 40
0.8516077090724282
 40
0.9112846803147951
 40
0.9711266497117875
 40
1.0
 40
1.0
 40
1.0
 40
1.0
 10
275.6604417603756
 20
18.0067521491176
 30
0.0
 10
275.7332551209464
 20
17.96670094428984
 30
0.0
 10
275.9520913298676
 20
17.84632943886116
 30
0.0
 10
276.3698078722502
 20
17.75249649080556
 30
0.0
 10
276.8959966663244
 20
17.72133778444054
 30
0.0
 10
277.4531005349535
 20
17.79587617045759
 30
0.0
 10
278.030723555623
 20
17.96951120502431
 30
0.0
 10
278.620025971827
 20
18.24238761513536
 30
0.0
 10
279.208872950489
 20
18.60906935493127
 30
0.0
 10
279.7853323537517
 20
19.06188782185945
 30
0.0
 10
280.3383887218442
 20
19.59127190364887
 30
0.0
 10
280.8582279985281
 20
20.1868195528725
 30
0.0
 10
281.3359029960874
 20
20.83741890567792
 30
0.0
 10
281.7631441736622
 20
21.53127863747318
 30
0.0
 10
282.132472263544
 20
22.2560079310672
 30
0.0
 10
282.4371175549978
 20
22.99875261864566
 30
0.0
 10
282.6717184034055
 20
23.74673690823213
 30
0.0
 10
282.8301977896861
 20
24.4863730927963
 30
0.0
 10
282.8992526097151
 20
25.08260236361773
 30
0.0
 10
282.9052052314665
 20
25.42344879845141
 30
0.0
 10
282.9071425759249
 20
25.53438091865751
 30
0.0
  0
SPLINE
  5
174
330
1F
100
AcDbEntity
  8
0
  6
Continuous
 62
     7
370
    25
100
AcDbSpline
210
0.0
220
0.0
230
1.0
 70
     8
 71
     3
 72
    14
 73
    10
 74
     0
 42
0.000000001
 43
0.00000001
 40
0.0
 40
0.0
 40
0.0
 40
0.0
 40
0.0892105807468523
 40
0.258203154458741
 40
0.427224775316768
 40
0.5949271970541766
 40
0.7598458131190838
 40
0.921135079515961
 40
1.0
 40
1.0
 40
1.0
 40
1.0
 10
282.9071425759249
 20
25.53438091865751
 30
0.0
 10
282.9048136554341
 20
25.65413902374965
 30
0.0
 10
282.8980730355192
 20
26.0007562102753
 30
0.0
 10
282.8227727930487
 20
26.54010112056655
 30
0.0
 10
282.6528385359495
 20
27.12299169115832
 30
0.0
 10
282.399628258188
 20
27.63512517206518
 30
0.0
 10
282.0666323886903
 20
28.05682335431572
 30
0.0
 10
281.7411565316934
 20
28.34608224490309
 30
0.0
 10
281.5109213127752
 20
28.45410786582941
 30
0.0
 10
281.4353137105575
 20
28.48958270853461
 30
0.0
  0
LINE
  5
175
330
1F
100
AcDbEntity
  8
0
  6
Continuous
 62
     7
370
    25
100
AcDbLine
 10
281.547100653
 20
28.444731308
 30
0.0
 11
276.1730903424
 21
31.5470814249
 31
0.0
  0
LINE
  5
176
330
1F
100
AcDbEntity
  8
0
  6
Continuous
 62
     7
370
    25
100
AcDbLine
 10
270.1735779946
 20
21.1544950028
 30
0.0
 11
275.5475883051
 21
18.0521448859
 31
0.0
  0
SPLINE
  5
177
330
1F
100
AcDbEntity
  8
0
  6
Continuous
 62
     7
370
    25
100
AcDbSpline
210
0.0
220
0.0
230
1.0
 70
     8
 71
     3
 72
    20
 73
    16
 74
     0
 42
0.000000001
 43
0.00000001
 40
0.0
 40
0.0
 40
0.0
 40
0.0
 40
0.0151874313354504
 40
0.0959917709340177
 40
0.1771956129576305
 40
0.2588490351621499
 40
0.3409195913659594
 40
0.4233234046169299
 40
0.505959297650095
 40
0.588734303496008
 40
0.6715755561103351
 40
0.7544272394144177
 40
0.837256389410243
 40
0.9200498222876637
 40
1.0
 40
1.0
 40
1.0
 40
1.0
 10
257.483842513706
 20
14.96645204145849
 30
0.0
 10
257.5352776822323
 20
14.95194558041649
 30
0.0
 10
257.8603723480835
 20
14.86025786478837
 30
0.0
 10
258.5004491492787
 20
14.78903389689036
 30
0.0
 10
259.4003063747704
 20
14.75905169644379
 30
0.0
 10
260.3368396081204
 20
14.83964500916602
 30
0.0
 10
261.2997438725855
 20
15.01932625680931
 30
0.0
 10
262.2842448956265
 20
15.30039902641439
 30
0.0
 10
263.283565256299
 20
15.68037092364364
 30
0.0
 10
264.2912645697353
 20
16.1569055294468
 30
0.0
 10
265.3007553933451
 20
16.7268222894614
 30
0.0
 10
266.3058661788993
 20
17.38575072742926
 30
0.0
 10
267.2996820640918
 20
18.13114660939479
 30
0.0
 10
268.2678850857473
 20
18.94197452300961
 30
0.0
 10
268.8901721513277
 20
19.54102929914845
 30
0.0
 10
269.1958797689782
 20
19.83532371499778
 30
0.0
  0
SPLINE
  5
178
330
1F
100
AcDbEntity
  8
0
  6
Continuous
 62
     7
370
    25
100
AcDbSpline
210
0.0
220
0.0
230
1.0
 70
     8
 71
     3
 72
    16
 73
    12
 74
     0
 42
0.000000001
 43
0.00000001
 40
0.0
 40
0.0
 40
0.0
 40
0.0
 40
0.0135166954385037
 40
0.150116383640004
 40
0.2867348111558152
 40
0.4232796865266836
 40
0.5596288770994463
 40
0.6956207065520257
 40
0.8310709350353678
 40
0.9658141904459937
 40
1.0
 40
1.0
 40
1.0
 40
1.0
 10
277.551511913326
 20
38.88617134151991
 30
0.0
 10
277.5515468268762
 20
38.92467060823176
 30
0.0
 10
277.5519345766717
 20
39.35224336208042
 30
0.0
 10
277.4771094635491
 20
40.12630204374005
 30
0.0
 10
277.3210610527748
 20
41.1963912382057
 30
0.0
 10
277.0770141208144
 20
42.20185084962562
 30
0.0
 10
276.75618770246
 20
43.14108168786194
 30
0.0
 10
276.3594833827481
 20
44.00839063997839
 30
0.0
 10
275.8835017866266
 20
44.7889622840726
 30
0.0
 10
275.4871504144521
 20
45.33246153937285
 30
0.0
 10
275.229307488104
 20
45.58560189247418
 30
0.0
 10
275.1771283727053
 20
45.63682935829463
 30
0.0
  0
LINE
  5
179
330
1F
100
AcDbEntity
  8
0
  6
Continuous
 62
     7
370
    25
100
AcDbLine
 10
250.0104377513
 20
18.9383965431
 30
0.0
 11
255.6887838695
 21
15.6603571041
 31
0.0
  0
LINE
  5
17A
330
1F
100
AcDbEntity
  8
0
  6
Continuous
 62
     7
370
    25
100
AcDbLine
 10
273.6873215715
 20
46.8381167507
 30
0.0
 11
268.0089754533
 21
50.1161561897
 31
0.0
  0
SPLINE
  5
17B
330
1F
100
AcDbEntity
  8
0
  6
Continuous
 62
     7
370
    25
100
AcDbSpline
210
0.0
220
0.0
230
1.0
 70
     8
 71
     3
 72
    36
 73
    32
 74
     0
 42
0.000000001
 43
0.00000001
 40
0.0
 40
0.0
 40
0.0
 40
0.0
 40
0.005561028843535
 40
0.041003973650034
 40
0.076622196513828
 40
0.1124376001529317
 40
0.1484359800628677
 40
0.1845804964270472
 40
0.2208268140620034
 40
0.2571341260313915
 40
0.2934704858396116
 40
0.3298114173765257
 40
0.3661424536377285
 40
0.4024578217914123
 40
0.4387555351226264
 40
0.4750359714524395
 40
0.5113009659665697
 40
0.5475532423306173
 40
0.5837959707347387
 40
0.6200325651883974
 40
0.6562665966089303
 40
0.6925016939752137
 40
0.7287403880212413
 40
0.7649863125180258
 40
0.8012431994357437
 40
0.8375146621539183
 40
0.8738041714120066
 40
0.9101148324398255
 40
0.946448968034909
 40
0.9828075407778123
 40
1.0
 40
1.0
 40
1.0
 40
1.0
 10
266.1880333757781
 20
50.81710003569214
 30
0.0
 10
266.1450743323563
 20
50.82915620619507
 30
0.0
 10
265.8283179309674
 20
50.91805178856508
 30
0.0
 10
265.1968665390336
 20
50.98719935760921
 30
0.0
 10
264.2971565257879
 20
51.01753393357672
 30
0.0
 10
263.3605687958544
 20
50.93679814846404
 30
0.0
 10
262.3976682767375
 20
50.75711137725024
 30
0.0
 10
261.4131562320933
 20
50.47599127892961
 30
0.0
 10
260.4138326372385
 20
50.09599358515266
 30
0.0
 10
259.4061389364631
 20
49.61940262126163
 30
0.0
 10
258.3966165410593
 20
49.04953411232539
 30
0.0
 10
257.391628941569
 20
48.39026525778325
 30
0.0
 10
256.3973650272721
 20
47.64599829415054
 30
0.0
 10
255.4198057633771
 20
46.82156679929361
 30
0.0
 10
254.4647538403481
 20
45.92219617574428
 30
0.0
 10
253.5378583355795
 20
44.95350935487242
 30
0.0
 10
252.6446015762291
 20
43.92149000811546
 30
0.0
 10
251.7902712304603
 20
42.83246871951801
 30
0.0
 10
250.979949049047
 20
41.69308277287975
 30
0.0
 10
250.2184643493491
 20
40.51025393234524
 30
0.0
 10
249.5103864213928
 20
39.29113891209419
 30
0.0
 10
248.8599892838432
 20
38.04311032063176
 30
0.0
 10
248.2712257770932
 20
36.77369838885198
 30
0.0
 10
247.747697736457
 20
35.4905427678212
 30
0.0
 10
247.2926517248742
 20
34.2013374597537
 30
0.0
 10
246.9089162254904
 20
32.91377678000133
 30
0.0
 10
246.5990658687776
 20
31.63559343759662
 30
0.0
 10
246.3648296100477
 20
30.37420377695878
 30
0.0
 10
246.2091766470906
 20
29.13785544132412
 30
0.0
 10
246.1427810950348
 20
28.14346709546104
 30
0.0
 10
246.1371473296308
 20
27.56834698091244
 30
0.0
 10
246.1353386197251
 20
27.38370573770199
 30
0.0
  0
SPLINE
  5
17C
330
1F
100
AcDbEntity
  8
0
  6
Continuous
 62
     7
370
    25
100
AcDbSpline
210
0.0
220
0.0
230
1.0
 70
     8
 71
     3
 72
    16
 73
    12
 74
     0
 42
0.000000001
 43
0.00000001
 40
0.0
 40
0.0
 40
0.0
 40
0.0
 40
0.0678693813405744
 40
0.1966279399410732
 40
0.3254423383677202
 40
0.4541874338533834
 40
0.5827481095384548
 40
0.7109718926620373
 40
0.8386850724289574
 40
0.9657316455220742
 40
1.0
 40
1.0
 40
1.0
 40
1.0
 10
246.1353386197251
 20
27.38370573770199
 30
0.0
 10
246.1375741659205
 20
27.17999668374807
 30
0.0
 10
246.1440508839094
 20
26.58982051247423
 30
0.0
 10
246.2161028126842
 20
25.64797377321512
 30
0.0
 10
246.3778350780829
 20
24.5811697402801
 30
0.0
 10
246.6203210430627
 20
23.57483300229794
 30
0.0
 10
246.9415214599015
 20
22.63579538849349
 30
0.0
 10
247.3381219727179
 20
21.76843903703772
 30
0.0
 10
247.8139889433674
 20
20.98770384273089
 30
0.0
 10
248.2134545080288
 20
20.44074156283247
 30
0.0
 10
248.4747061598049
 20
20.18451229685702
 30
0.0
 10
248.5302042116331
 20
20.13008115743132
 30
0.0
  0
LINE
  5
17D
330
1F
100
AcDbEntity
  8
0
  6
Continuous
 62
     7
370
    25
100
AcDbLine
 10
258.7576548286
 20
49.2485680166
 30
0.0
 11
257.3651589909
 21
48.4444366739
 31
0.0
  0
LINE
  5
17E
330
1F
100
AcDbEntity
  8
0
  6
Continuous
 62
     7
370
    25
100
AcDbLine
 10
246.1353379612
 20
28.9917081756
 30
0.0
 11
246.1353386197
 21
27.3837057377
 31
0.0
  0
SPLINE
  5
17F
330
1F
100
AcDbEntity
  8
0
  6
Continuous
 62
     7
370
    25
100
AcDbSpline
210
0.0
220
0.0
230
1.0
 70
     8
 71
     3
 72
    14
 73
    10
 74
     0
 42
0.000000001
 43
0.00000001
 40
0.0
 40
0.0
 40
0.0
 40
0.0
 40
0.1015102106443022
 40
0.2662901652485228
 40
0.4320196625677113
 40
0.6000736105792394
 40
0.7708554224509764
 40
0.9438882791860157
 40
1.0
 40
1.0
 40
1.0
 40
1.0
 10
267.8772935520739
 20
20.18903190358472
 30
0.0
 10
267.9815169601128
 20
20.13337132526944
 30
0.0
 10
268.2549246141141
 20
19.98735779122859
 30
0.0
 10
268.7523669219162
 20
19.86183631175895
 30
0.0
 10
269.3516383524012
 20
19.80342508232626
 30
0.0
 10
269.9843971745414
 20
19.84841230706088
 30
0.0
 10
270.6416427129147
 20
19.99995024631649
 30
0.0
 10
271.1624923833313
 20
20.17576541340554
 30
0.0
 10
271.4609649979928
 20
20.3310774324403
 30
0.0
 10
271.5340534044636
 20
20.36910942405166
 30
0.0
  0
SPLINE
  5
180
330
1F
100
AcDbEntity
  8
0
  6
Continuous
 62
     7
370
    25
100
AcDbSpline
210
0.0
220
0.0
230
1.0
 70
     8
 71
     3
 72
    14
 73
    10
 74
     0
 42
0.000000001
 43
0.00000001
 40
0.0
 40
0.0
 40
0.0
 40
0.0
 40
0.0461376577099101
 40
0.2224426967742663
 40
0.3983717717770996
 40
0.5730300154756783
 40
0.7453329351634113
 40
0.9145728018193053
 40
1.0
 40
1.0
 40
1.0
 40
1.0
 10
277.5345326602767
 20
30.76113711672404
 30
0.0
 10
277.5319104288764
 20
30.82893422179439
 30
0.0
 10
277.5192679096589
 20
31.15580324016026
 30
0.0
 10
277.4132198863803
 20
31.69347732127054
 30
0.0
 10
277.2129416058991
 20
32.35872420751345
 30
0.0
 10
276.9251198344055
 20
32.94913267651434
 30
0.0
 10
276.5589495069133
 20
33.45161945439384
 30
0.0
 10
276.2026784225209
 20
33.81152465481819
 30
0.0
 10
275.9490273056084
 20
33.96418624012002
 30
0.0
 10
275.8639409036932
 20
34.01539604815125
 30
0.0
  0
LINE
  5
181
330
1F
100
AcDbEntity
  8
0
  6
Continuous
 62
     7
370
    25
100
AcDbLine
 10
261.9258144528
 20
23.6064890178
 30
0.0
 11
267.759445366
 21
20.2388055748
 31
0.0
  0
LINE
  5
182
330
1F
100
AcDbEntity
  8
0
  6
Continuous
 62
     7
370
    25
100
AcDbLine
 10
275.7587953826
 20
34.0955873442
 30
0.0
 11
269.9251644695
 21
37.4632707872
 31
0.0
  0
LINE
  5
183
330
1F
100
AcDbEntity
  8
0
  6
Continuous
 62
     7
370
    25
100
AcDbLine
 10
246.2961413591
 20
23.6950535614
 30
0.0
 11
246.6699061972
 21
23.4792837132
 31
0.0
  0
LINE
  5
184
330
1F
100
AcDbEntity
  8
0
  6
Continuous
 62
     7
370
    25
100
AcDbLine
 10
262.4003961989
 20
50.7414807235
 30
0.0
 11
262.0323626737
 21
50.9539419552
 31
0.0
  0
SPLINE
  5
185
330
1F
100
AcDbEntity
  8
0
  6
Continuous
 62
     7
370
    25
100
AcDbSpline
210
0.0
220
0.0
230
1.0
 70
     8
 71
     3
 72
    23
 73
    19
 74
     0
 42
0.000000001
 43
0.00000001
 40
0.0
 40
0.0
 40
0.0
 40
0.0
 40
0.0079100173397086
 40
0.0835725003305702
 40
0.1224470959097345
 40
0.1614005314511168
 40
0.2362711257777829
 40
0.3114611814077811
 40
0.3869478937818082
 40
0.4626687442895215
 40
0.5385212532832147
 40
0.6143904293407606
 40
0.6901215444504878
 40
0.7655915275473473
 40
0.8406896085433748
 40
0.9153414253735094
 40
0.9895801420782231
 40
1.0
 40
1.0
 40
1.0
 40
1.0
 10
268.9942960023622
 20
24.44782088637378
 30
0.0
 10
268.9895545984816
 20
24.46138048807068
 30
0.0
 10
268.9394597680455
 20
24.60464310920405
 30
0.0
 10
268.9116193474025
 20
24.87597459107192
 30
0.0
 10
268.8968252240329
 20
25.22550264036716
 30
0.0
 10
268.9098647868736
 20
25.59606841318248
 30
0.0
 10
268.9711348820013
 20
26.08269325780503
 30
0.0
 10
269.1167151863036
 20
26.69186229736058
 30
0.0
 10
269.3322675761137
 20
27.31471401556779
 30
0.0
 10
269.6132306235837
 20
27.93430020574722
 30
0.0
 10
269.9525985313833
 20
28.53363489342369
 30
0.0
 10
270.341227443114
 20
29.09619104519564
 30
0.0
 10
270.7682262083824
 20
29.606857998149
 30
0.0
 10
271.2206861739823
 20
30.05124068879791
 30
0.0
 10
271.6860748920081
 20
30.42107056952252
 30
0.0
 10
272.145195624347
 20
30.69695247306736
 30
0.0
 10
272.4702466408814
 20
30.85277364332172
 30
0.0
 10
272.6253717433462
 20
30.88997720452732
 30
0.0
 10
272.6444646885667
 20
30.8945562542415
 30
0.0
  0
LINE
  5
186
330
1F
100
AcDbEntity
  8
0
  6
Continuous
 62
     7
370
    25
100
AcDbLine
 10
269.0947075762
 20
37.7753377383
 30
0.0
 11
268.5945881327
 21
37.8772334155
 31
0.0
  0
LINE
  5
187
330
1F
100
AcDbEntity
  8
0
  6
Continuous
 62
     7
370
    25
100
AcDbLine
 10
260.9019357936
 20
24.5517246393
 30
0.0
 11
261.2402755469
 21
24.1695879013
 31
0.0
  0
LINE
  5
188
330
1F
100
AcDbEntity
  8
0
  6
Continuous
 62
     7
370
    25
100
AcDbLine
 10
241.6878564278
 20
26.3553598261
 30
0.0
 11
243.9385074042
 21
25.0560866732
 31
0.0
  0
LINE
  5
189
330
1F
100
AcDbEntity
  8
0
  6
Continuous
 62
     7
370
    25
100
AcDbLine
 10
259.6747287187
 20
52.314975067
 30
0.0
 11
257.4240777423
 21
53.6142482199
 31
0.0
  0
LINE
  5
18A
330
1F
100
AcDbEntity
  8
0
  6
Continuous
 62
     7
370
    25
100
AcDbLine
 10
250.646688552
 20
53.3941301275
 30
0.0
 11
241.4494763684
 21
57.9747827374
 31
0.0
  0
LINE
  5
18B
330
1F
100
AcDbEntity
  8
0
  6
Continuous
 62
     7
370
    25
100
AcDbLine
 10
229.9231285788
 20
38.0083992817
 30
0.0
 11
238.4892285845
 21
32.3345096853
 31
0.0
  0
LINE
  5
18C
330
1F
100
AcDbEntity
  8
0
  6
Continuous
 62
     7
370
    25
100
AcDbLine
 10
234.9025660205
 20
38.9548891474
 30
0.0
 11
234.9025660205
 21
38.5895704424
 31
0.0
  0
LINE
  5
18D
330
1F
100
AcDbEntity
  8
0
  6
Continuous
 62
     7
370
    25
100
AcDbLine
 10
238.8005327808
 20
58.3517511141
 30
0.0
 11
238.1609826721
 21
58.2645393586
 31
0.0
  0
LWPOLYLINE
  5
18E
330
1F
100
AcDbEntity
  8
0
  6
Continuous
 62
     7
370
    25
100
AcDbPolyline
 90
        3
 70
   128
 43
0.0
 10
278.5966615602
 20
38.2818456113
 10
278.6268505575
 20
38.2653435856
 10
278.6355025152
 20
38.2603974836
  0
LWPOLYLINE
  5
18F
330
1F
100
AcDbEntity
  8
0
  6
Continuous
 62
     7
370
    25
100
AcDbPolyline
 90
       13
 70
   128
 43
0.0
 10
272.244671167
 20
36.1242476701
 10
272.3560336774
 20
36.5035030685
 10
272.5988983065
 20
37.1090482869
 10
272.9136384589
 20
37.6946014161
 10
273.2888771195
 20
38.2389977499
 10
273.7110541985
 20
38.7225631045
 10
274.164909244
 20
39.1278187215
 10
274.6340398879
 20
39.440118294
 10
275.1014899262
 20
39.6481741513
 10
275.5503643995
 20
39.7444667106
 10
275.9644407225
 20
39.725516095
 10
276.3287528127
 20
39.5920071748
 10
276.3374047704
 20
39.5870610728
  0
LWPOLYLINE
  5
190
330
1F
100
AcDbEntity
  8
0
  6
Continuous
 62
     7
370
    25
100
AcDbPolyline
 90
       22
 70
   128
 43
0.0
 10
277.1406907758
 20
33.9918311137
 10
276.8358814747
 20
33.841675043
 10
276.5512012449
 20
33.8057413664
 10
276.3119447812
 20
33.8872227954
 10
276.1393718758
 20
34.0788798196
 10
276.0488154205
 20
34.3636822518
 10
276.0483221707
 20
34.7163244233
 10
276.1379362488
 20
35.1054726804
 10
276.3096951932
 20
35.4965495582
 10
276.5483365763
 20
35.8548057587
 10
276.8326565822
 20
36.1484088215
 10
277.1373921264
 20
36.3512708711
 10
277.4354664929
 20
36.4453669148
 10
277.7003936801
 20
36.4223356769
 10
277.9086346731
 20
36.2842241084
 10
278.0416850299
 20
36.0433032537
 10
278.0877238764
 20
35.7209807613
 10
278.0426603343
 20
35.3458962855
 10
277.9104976955
 20
34.9513772593
 10
277.7029797843
 20
34.5724787477
 10
277.4385451884
 20
34.242867422
 10
277.1406907758
 20
33.9918311137
  0
SPLINE
  5
191
330
1F
100
AcDbEntity
  8
0
  6
Continuous
 62
     7
370
    25
100
AcDbSpline
210
0.0
220
0.0
230
1.0
 70
     8
 71
     3
 72
    11
 73
     7
 74
     0
 42
0.000000001
 43
0.00000001
 40
0.0
 40
0.0
 40
0.0
 40
0.0
 40
0.1346867298493624
 40
0.4830331632182515
 40
0.8157582126561475
 40
1.0
 40
1.0
 40
1.0
 40
1.0
 10
277.6340328085323
 20
34.48985595766825
 30
0.0
 10
277.570696645207
 20
34.47301777801778
 30
0.0
 10
277.3435512734887
 20
34.41263024623571
 30
0.0
 10
276.9873206436399
 20
34.26077522661239
 30
0.0
 10
276.7363972450146
 20
34.02230917453994
 30
0.0
 10
276.6479217019854
 20
33.86756259646592
 30
0.0
 10
276.6163899072472
 20
33.81241247057547
 30
0.0
  0
SPLINE
  5
192
330
1F
100
AcDbEntity
  8
0
  6
Continuous
 62
     7
370
    25
100
AcDbSpline
210
0.0
220
0.0
230
1.0
 70
     8
 71
     3
 72
    10
 73
     6
 74
     0
 42
0.000000001
 43
0.00000001
 40
0.0
 40
0.0
 40
0.0
 40
0.0
 40
0.4391256583338976
 40
0.7513742679555836
 40
1.0
 40
1.0
 40
1.0
 40
1.0
 10
278.0753794596147
 20
35.80732289044851
 30
0.0
 10
277.9516577394761
 20
35.6536610655377
 30
0.0
 10
277.7399613488529
 20
35.39073509204041
 30
0.0
 10
277.6288508703353
 20
34.89502209798543
 30
0.0
 10
277.6324412544121
 20
34.61429662358966
 30
0.0
 10
277.6340328085323
 20
34.48985595766825
 30
0.0
  0
SPLINE
  5
193
330
1F
100
AcDbEntity
  8
0
  6
Continuous
 62
     7
370
    25
100
AcDbSpline
210
0.0
220
0.0
230
1.0
 70
     8
 71
     3
 72
    10
 73
     6
 74
     0
 42
0.000000001
 43
0.00000001
 40
0.0
 40
0.0
 40
0.0
 40
0.0
 40
0.4391256106906957
 40
0.751374379947369
 40
1.0
 40
1.0
 40
1.0
 40
1.0
 10
277.4990838679565
 20
36.44734687077467
 30
0.0
 10
277.5210485797879
 20
36.39066825097521
 30
0.0
 10
277.5586317253191
 20
36.29368720097197
 30
0.0
 10
277.8098896353413
 20
36.03920265183334
 30
0.0
 10
277.993838296657
 20
35.87854123360505
 30
0.0
 10
278.0753794596147
 20
35.80732289044851
 30
0.0
  0
SPLINE
  5
194
330
1F
100
AcDbEntity
  8
0
  6
Continuous
 62
     7
370
    25
100
AcDbSpline
210
0.0
220
0.0
230
1.0
 70
     8
 71
     3
 72
     9
 73
     5
 74
     0
 42
0.000000001
 43
0.00000001
 40
0.0
 40
0.0
 40
0.0
 40
0.0
 40
0.6910329426549541
 40
1.0
 40
1.0
 40
1.0
 40
1.0
 10
276.9310095459359
 20
36.22581072055453
 30
0.0
 10
277.0525197299767
 20
36.28788177068922
 30
0.0
 10
277.2283582125445
 20
36.37770534682179
 30
0.0
 10
277.4351821000463
 20
36.43090876669558
 30
0.0
 10
277.4990838679565
 20
36.44734687077467
 30
0.0
  0
LINE
  5
195
330
1F
100
AcDbEntity
  8
0
  6
Continuous
 62
     7
370
    25
100
AcDbLine
 10
276.0400943156
 20
34.4524364509
 30
0.0
 11
276.0512803526
 21
34.5773309877
 31
0.0
  0
SPLINE
  5
196
330
1F
100
AcDbEntity
  8
0
  6
Continuous
 62
     7
370
    25
100
AcDbSpline
210
0.0
220
0.0
230
1.0
 70
     8
 71
     3
 72
    10
 73
     6
 74
     0
 42
0.000000001
 43
0.00000001
 40
0.0
 40
0.0
 40
0.0
 40
0.0
 40
0.4391256207070504
 40
0.751374048844715
 40
1.0
 40
1.0
 40
1.0
 40
1.0
 10
276.6163899072472
 20
33.81241247057547
 30
0.0
 10
276.4733487171599
 20
33.93898684806044
 30
0.0
 10
276.2285954322699
 20
34.15556428742222
 30
0.0
 10
276.069432322079
 20
34.35688556711151
 30
0.0
 10
276.0491050466464
 20
34.42308942228103
 30
0.0
 10
276.0400943155889
 20
34.45243645090163
 30
0.0
  0
SPLINE
  5
197
330
1F
100
AcDbEntity
  8
0
  6
Continuous
 62
     7
370
    25
100
AcDbSpline
210
0.0
220
0.0
230
1.0
 70
     8
 71
     3
 72
     9
 73
     5
 74
     0
 42
0.000000001
 43
0.00000001
 40
0.0
 40
0.0
 40
0.0
 40
0.0
 40
0.8744795506491796
 40
1.0
 40
1.0
 40
1.0
 40
1.0
 10
276.4834396492531
 20
35.15407925012983
 30
0.0
 10
276.5098148246358
 20
35.4213541150192
 30
0.0
 10
276.539975821955
 20
35.72699289718507
 30
0.0
 10
276.6704786627404
 20
35.97284737491898
 30
0.0
 10
276.6868594379574
 20
36.00370713943906
 30
0.0
  0
SPLINE
  5
198
330
1F
100
AcDbEntity
  8
0
  6
Continuous
 62
     7
370
    25
100
AcDbSpline
210
0.0
220
0.0
230
1.0
 70
     8
 71
     3
 72
     9
 73
     5
 74
     0
 42
0.000000001
 43
0.00000001
 40
0.0
 40
0.0
 40
0.0
 40
0.0
 40
0.6698647262682409
 40
1.0
 40
1.0
 40
1.0
 40
1.0
 10
276.0982734301467
 20
34.96000486215513
 30
0.0
 10
276.1769493270842
 20
35.00957033858649
 30
0.0
 10
276.2943997523004
 20
35.08356360093884
 30
0.0
 10
276.4365205581206
 20
35.13657749402443
 30
0.0
 10
276.4834396492531
 20
35.15407925012983
 30
0.0
  0
LINE
  5
199
330
1F
100
AcDbEntity
  8
0
  6
Continuous
 62
     7
370
    25
100
AcDbLine
 10
277.1679182985
 20
36.331189068
 30
0.0
 11
278.0753794596
 21
35.8073228904
 31
0.0
  0
LINE
  5
19A
330
1F
100
AcDbEntity
  8
0
  6
Continuous
 62
     7
370
    25
100
AcDbLine
 10
276.4834396493
 20
35.1540792501
 30
0.0
 11
277.6340328085
 21
34.4898559577
 31
0.0
  0
LINE
  5
19B
330
1F
100
AcDbEntity
  8
0
  6
Continuous
 62
     7
370
    25
100
AcDbLine
 10
256.1262984501
 20
21.1332616767
 30
0.0
 11
256.0439039954
 21
21.1765458302
 31
0.0
  0
LWPOLYLINE
  5
19C
330
1F
100
AcDbEntity
  8
0
  6
Continuous
 62
     7
370
    25
100
AcDbPolyline
 90
        3
 70
   128
 43
0.0
 10
259.5047786314
 20
27.260336196
 10
259.5349669702
 20
27.2438337901
 10
259.5436195865
 20
27.2388880682
  0
LWPOLYLINE
  5
19D
330
1F
100
AcDbEntity
  8
0
  6
Continuous
 62
     7
370
    25
100
AcDbPolyline
 90
       19
 70
   128
 43
0.0
 10
253.7458062506
 20
22.5032094195
 10
253.5951628773
 20
22.6066276866
 10
253.3294928519
 20
22.9016773308
 10
253.1421132318
 20
23.2918793922
 10
253.0397964887
 20
23.7631309975
 10
253.0262423256
 20
24.2984008055
 10
253.1019380655
 20
24.8783413112
 10
253.2641507487
 20
25.4819936532
 10
253.5070153778
 20
26.0875388716
 10
253.8217548716
 20
26.6730916206
 10
254.1969941908
 20
27.2174883346
 10
254.6191706113
 20
27.701053309
 10
255.0730263153
 20
28.1063093062
 10
255.5421563006
 20
28.4186084985
 10
256.0096063389
 20
28.6266643558
 10
256.4584814708
 20
28.7229572953
 10
256.8725577938
 20
28.7040066797
 10
257.2368692254
 20
28.5704973793
 10
257.2455218417
 20
28.5655516575
  0
LWPOLYLINE
  5
19E
330
1F
100
AcDbEntity
  8
0
  6
Continuous
 62
     7
370
    25
100
AcDbPolyline
 90
       22
 70
   128
 43
0.0
 10
258.0488078471
 20
22.9703216984
 10
257.743998546
 20
22.8201656277
 10
257.4593176577
 20
22.7842315709
 10
257.2200618525
 20
22.8657133801
 10
257.0474882885
 20
23.0573700241
 10
256.9569324918
 20
23.3421728365
 10
256.956439242
 20
23.6948150079
 10
257.0460533201
 20
24.083963265
 10
257.2178116059
 20
24.4750397627
 10
257.4564536476
 20
24.8332963434
 10
257.7407736535
 20
25.1268994062
 10
258.0455091977
 20
25.3297614557
 10
258.3435835641
 20
25.4238574995
 10
258.6085107513
 20
25.4008262616
 10
258.8167510858
 20
25.2627143129
 10
258.9498021011
 20
25.0217938384
 10
258.9958409477
 20
24.699471346
 10
258.950776747
 20
24.32438649
 10
258.8186147668
 20
23.9298678439
 10
258.6110968556
 20
23.5509693324
 10
258.3466622597
 20
23.2213580067
 10
258.0488078471
 20
22.9703216984
  0
SPLINE
  5
19F
330
1F
100
AcDbEntity
  8
0
  6
Continuous
 62
     7
370
    25
100
AcDbSpline
210
0.0
220
0.0
230
1.0
 70
     8
 71
     3
 72
    11
 73
     7
 74
     0
 42
0.000000001
 43
0.00000001
 40
0.0
 40
0.0
 40
0.0
 40
0.0
 40
0.1346862363845507
 40
0.483032851890371
 40
0.8157586845706615
 40
1.0
 40
1.0
 40
1.0
 40
1.0
 10
258.54214922127
 20
23.46834616217412
 30
0.0
 10
258.478813270785
 20
23.45150811359412
 30
0.0
 10
258.2516679765723
 20
23.39112086955052
 30
0.0
 10
257.8954376422062
 20
23.23926556570709
 30
0.0
 10
257.6445137113553
 20
23.00079980810529
 30
0.0
 10
257.5560385407764
 20
22.84605306535648
 30
0.0
 10
257.5245069785294
 20
22.790903055251
 30
0.0
  0
SPLINE
  5
1A0
330
1F
100
AcDbEntity
  8
0
  6
Continuous
 62
     7
370
    25
100
AcDbSpline
210
0.0
220
0.0
230
1.0
 70
     8
 71
     3
 72
    10
 73
     6
 74
     0
 42
0.000000001
 43
0.00000001
 40
0.0
 40
0.0
 40
0.0
 40
0.0
 40
0.4391258101122791
 40
0.7513740782661985
 40
1.0
 40
1.0
 40
1.0
 40
1.0
 10
258.9834965308969
 20
24.78581347512403
 30
0.0
 10
258.8597743853401
 20
24.63215152840331
 30
0.0
 10
258.6480773934117
 20
24.36922550373546
 30
0.0
 10
258.5369682893857
 20
23.87351243338496
 30
0.0
 10
258.540557975084
 20
23.59278695741189
 30
0.0
 10
258.54214922127
 20
23.46834616217412
 30
0.0
  0
SPLINE
  5
1A1
330
1F
100
AcDbEntity
  8
0
  6
Continuous
 62
     7
370
    25
100
AcDbSpline
210
0.0
220
0.0
230
1.0
 70
     8
 71
     3
 72
    10
 73
     6
 74
     0
 42
0.000000001
 43
0.00000001
 40
0.0
 40
0.0
 40
0.0
 40
0.0
 40
0.4391256207070504
 40
0.751374048844715
 40
1.0
 40
1.0
 40
1.0
 40
1.0
 10
258.4072009392387
 20
25.4258374554502
 30
0.0
 10
258.4291657357174
 20
25.36915899221907
 30
0.0
 10
258.4667490086671
 20
25.27217825506304
 30
0.0
 10
258.7180060229595
 20
25.017692296178
 30
0.0
 10
258.9019550817142
 20
24.8570315960671
 30
0.0
 10
258.9834965308969
 20
24.78581347512403
 30
0.0
  0
SPLINE
  5
1A2
330
1F
100
AcDbEntity
  8
0
  6
Continuous
 62
     7
370
    25
100
AcDbSpline
210
0.0
220
0.0
230
1.0
 70
     8
 71
     3
 72
     9
 73
     5
 74
     0
 42
0.000000001
 43
0.00000001
 40
0.0
 40
0.0
 40
0.0
 40
0.0
 40
0.691032048774433
 40
1.0
 40
1.0
 40
1.0
 40
1.0
 10
257.8391259586737
 20
25.2043009250604
 30
0.0
 10
257.9606361830138
 20
25.26637192667963
 30
0.0
 10
258.1364749513542
 20
25.35619554879572
 30
0.0
 10
258.3432989516141
 20
25.4093992247064
 30
0.0
 10
258.4072009392387
 20
25.4258374554502
 30
0.0
  0
LINE
  5
1A3
330
1F
100
AcDbEntity
  8
0
  6
Continuous
 62
     7
370
    25
100
AcDbLine
 10
256.9482113869
 20
23.4309270356
 30
0.0
 11
256.9593974239
 21
23.5558215724
 31
0.0
  0
SPLINE
  5
1A4
330
1F
100
AcDbEntity
  8
0
  6
Continuous
 62
     7
370
    25
100
AcDbSpline
210
0.0
220
0.0
230
1.0
 70
     8
 71
     3
 72
    10
 73
     6
 74
     0
 42
0.000000001
 43
0.00000001
 40
0.0
 40
0.0
 40
0.0
 40
0.0
 40
0.4391256106906957
 40
0.751374379947369
 40
1.0
 40
1.0
 40
1.0
 40
1.0
 10
257.5245069785294
 20
22.790903055251
 30
0.0
 10
257.3814659200307
 20
22.91747756220564
 30
0.0
 10
257.1367127468616
 20
23.13405532347672
 30
0.0
 10
256.9775484716849
 20
23.33537534885772
 30
0.0
 10
256.957221826424
 20
23.40157978779094
 30
0.0
 10
256.9482113868712
 20
23.43092703557716
 30
0.0
  0
SPLINE
  5
1A5
330
1F
100
AcDbEntity
  8
0
  6
Continuous
 62
     7
370
    25
100
AcDbSpline
210
0.0
220
0.0
230
1.0
 70
     8
 71
     3
 72
     9
 73
     5
 74
     0
 42
0.000000001
 43
0.00000001
 40
0.0
 40
0.0
 40
0.0
 40
0.0
 40
0.8744796063314776
 40
1.0
 40
1.0
 40
1.0
 40
1.0
 10
257.3915560619907
 20
24.1325694546357
 30
0.0
 10
257.4179315267418
 20
24.39984445445482
 30
0.0
 10
257.4480928530436
 20
24.7054833714564
 30
0.0
 10
257.5785957359965
 20
24.95133795944504
 30
0.0
 10
257.5949765092396
 20
24.98219772411458
 30
0.0
  0
SPLINE
  5
1A6
330
1F
100
AcDbEntity
  8
0
  6
Continuous
 62
     7
370
    25
100
AcDbSpline
210
0.0
220
0.0
230
1.0
 70
     8
 71
     3
 72
     9
 73
     5
 74
     0
 42
0.000000001
 43
0.00000001
 40
0.0
 40
0.0
 40
0.0
 40
0.0
 40
0.6698659701461177
 40
1.0
 40
1.0
 40
1.0
 40
1.0
 10
257.0063905014289
 20
23.93849544683065
 30
0.0
 10
257.0850663647728
 20
23.98806094539558
 30
0.0
 10
257.2025165217449
 20
24.06205410339122
 30
0.0
 10
257.3446371922961
 20
24.11506782205552
 30
0.0
 10
257.3915560619907
 20
24.1325694546357
 30
0.0
  0
LINE
  5
1A7
330
1F
100
AcDbEntity
  8
0
  6
Continuous
 62
     7
370
    25
100
AcDbLine
 10
258.0760353698
 20
25.3096796526
 30
0.0
 11
258.9834965309
 21
24.7858134751
 31
0.0
  0
LINE
  5
1A8
330
1F
100
AcDbEntity
  8
0
  6
Continuous
 62
     7
370
    25
100
AcDbLine
 10
257.391556062
 20
24.1325694546
 30
0.0
 11
258.5421492213
 21
23.4683461622
 31
0.0
  0
LWPOLYLINE
  5
1A9
330
1F
100
AcDbEntity
  8
0
  6
Continuous
 62
     7
370
    25
100
AcDbPolyline
 90
        3
 70
   128
 43
0.0
 10
275.6411539796
 20
18.0013993531
 10
275.6026370284
 20
18.021511127
 10
275.5475883051
 20
18.0521448859
  0
LINE
  5
1AA
330
1F
100
AcDbEntity
  8
0
  6
Continuous
 62
     7
370
    25
100
AcDbLine
 10
281.4544832826
 20
28.4949946184
 30
0.0
 11
281.547100653
 21
28.444731308
 31
0.0
  0
LWPOLYLINE
  5
1AB
330
1F
100
AcDbEntity
  8
0
  6
Continuous
 62
     7
370
    25
100
AcDbPolyline
 90
       23
 70
   128
 43
0.0
 10
276.1730903424
 20
31.5470814249
 10
275.8872369157
 20
31.6832814857
 10
275.3834967944
 20
31.8086494254
 10
274.8326509846
 20
31.8176926361
 10
274.2464396059
 20
31.710218522
 10
273.6373568942
 20
31.4885169954
 10
273.0183843463
 20
31.1573140299
 10
272.4027142756
 20
30.7236679667
 10
271.8034686548
 20
30.1968220347
 10
271.2334192755
 20
29.5880040187
 10
270.7047158722
 20
28.9101909809
 10
270.2286267178
 20
28.1778283299
 10
269.8152988307
 20
27.4065254207
 10
269.4735418899
 20
26.6127214935
 10
269.2106393978
 20
25.8133348335
 10
269.0321949095
 20
25.0254030859
 10
268.9420115197
 20
24.2657195524
 10
268.9420115197
 20
23.5504757333
 10
269.0321949095
 20
22.8949157254
 10
269.2106393978
 20
22.3130115985
 10
269.4735418899
 20
21.8171656948
 10
269.8152988307
 20
21.4179459325
 10
270.1735779946
 20
21.1544950028
  0
LINE
  5
1AC
330
1F
100
AcDbEntity
  8
0
  6
Continuous
 62
     7
370
    25
100
AcDbLine
 10
278.8301867111
 20
26.4186386112
 30
0.0
 11
276.3302106656
 21
23.30869223
 31
0.0
  0
LINE
  5
1AD
330
1F
100
AcDbEntity
  8
0
  6
Continuous
 62
     7
370
    25
100
AcDbLine
 10
276.3302106656
 20
23.30869223
 30
0.0
 11
276.3302106656
 21
19.9752103708
 31
0.0
  0
LINE
  5
1AE
330
1F
100
AcDbEntity
  8
0
  6
Continuous
 62
     7
370
    25
100
AcDbLine
 10
278.8301867111
 20
19.7516748928
 30
0.0
 11
276.3302106656
 21
19.9752103708
 31
0.0
  0
LINE
  5
1AF
330
1F
100
AcDbEntity
  8
0
  6
Continuous
 62
     7
370
    25
100
AcDbLine
 10
281.3301627565
 20
22.8616212739
 30
0.0
 11
278.8301867111
 21
19.7516748928
 31
0.0
  0
LINE
  5
1B0
330
1F
100
AcDbEntity
  8
0
  6
Continuous
 62
     7
370
    25
100
AcDbLine
 10
281.3301627565
 20
22.8616212739
 30
0.0
 11
281.3301627565
 21
26.1951031331
 31
0.0
  0
LINE
  5
1B1
330
1F
100
AcDbEntity
  8
0
  6
Continuous
 62
     7
370
    25
100
AcDbLine
 10
278.8301867111
 20
26.4186386112
 30
0.0
 11
281.3301627565
 21
26.1951031331
 31
0.0
  0
ARC
  5
1B2
330
1F
100
AcDbEntity
  8
0
  6
Continuous
 62
     7
370
    25
100
AcDbCircle
 10
273.0166774523
 20
26.4475295806
 30
0.0
 40
5.499306232542693
100
AcDbArc
 50
320.36379399
 51
355.3911953877
  0
ARC
  5
1B3
330
1F
100
AcDbEntity
  8
0
  6
Continuous
 62
     7
370
    25
100
AcDbCircle
 10
273.3858010497
 20
26.0036958178
 30
0.0
 40
4.933060165471414
100
AcDbArc
 50
306.6462894478
 51
321.5989108827
  0
LINE
  5
1B4
330
1F
100
AcDbEntity
  8
0
  6
Continuous
 62
     7
370
    25
100
AcDbLine
 10
276.3302121473
 20
21.194879489
 30
0.0
 11
278.8301867111
 21
19.7516748928
 31
0.0
  0
LINE
  5
1B5
330
1F
100
AcDbEntity
  8
0
  6
Continuous
 62
     7
370
    25
100
AcDbLine
 10
278.5017378023
 20
24.4944362445
 30
0.0
 11
281.3301627565
 21
22.8616212739
 31
0.0
  0
LINE
  5
1B6
330
1F
100
AcDbEntity
  8
0
  6
Continuous
 62
     7
370
    25
100
AcDbLine
 10
278.5017378023
 20
24.4944362445
 30
0.0
 11
278.5017378023
 21
26.0100474013
 31
0.0
  0
LINE
  5
1B7
330
1F
100
AcDbEntity
  8
0
  6
Continuous
 62
     7
370
    25
100
AcDbLine
 10
277.2517497796
 20
22.9394629589
 30
0.0
 11
276.330212847
 21
21.7930797336
 31
0.0
  0
LINE
  5
1B8
330
1F
100
AcDbEntity
  8
0
  6
Continuous
 62
     7
370
    25
100
AcDbLine
 10
278.5017378023
 20
24.4944362445
 30
0.0
 11
277.2517497796
 21
22.9394629589
 31
0.0
  0
ARC
  5
1B9
330
1F
100
AcDbEntity
  8
0
  6
Continuous
 62
     7
370
    25
100
AcDbCircle
 10
270.6248952779
 20
41.5336094401
 30
0.0
 40
6.123594411206998
100
AcDbArc
 50
42.9381543608
 51
77.3991225478
  0
ARC
  5
1BA
330
1F
100
AcDbEntity
  8
0
  6
Continuous
 62
     7
370
    25
100
AcDbCircle
 10
258.7502317037
 20
20.9632966964
 30
0.0
 40
6.121774606679786
100
AcDbArc
 50
223.0556822612
 51
257.1648232126
  0
ARC
  5
1BB
330
1F
100
AcDbEntity
  8
0
  6
Continuous
 62
     7
370
    25
100
AcDbCircle
 10
264.9366983899
 20
44.7730397328
 30
0.0
 40
6.163422736310957
100
AcDbArc
 50
60.1012182327
 51
77.3880546413
  0
ARC
  5
1BC
330
1F
100
AcDbEntity
  8
0
  6
Continuous
 62
     7
370
    25
100
AcDbCircle
 10
253.0978671604
 20
24.2661896121
 30
0.0
 40
6.157726799876268
100
AcDbArc
 50
223.0596121112
 51
239.9079228586
  0
LWPOLYLINE
  5
1BD
330
1F
100
AcDbEntity
  8
0
  6
Continuous
 62
     7
370
    25
100
AcDbPolyline
 90
       25
 70
   128
 43
0.0
 10
258.782049083
 20
27.6785332943
 10
258.8223572752
 20
28.3102529987
 10
258.9536229764
 20
29.229436323
 10
259.1703506325
 20
30.1741080476
 10
259.4694971094
 20
31.1310067459
 10
259.8468645152
 20
32.0867003754
 10
260.2971542007
 20
33.0277723964
 10
260.814045785
 20
33.9410128307
 10
261.3902830955
 20
34.8136011451
 10
262.0177772299
 20
35.6332889424
 10
262.6877188384
 20
36.3885685841
 10
263.3907040701
 20
37.0688390543
 10
264.1168642238
 20
37.664548867
 10
264.8560057921
 20
38.1673373683
 10
265.5977527683
 20
38.5701454063
 10
266.3316926376
 20
38.8673186212
 10
267.0475225329
 20
39.0546857357
 10
267.735193806
 20
39.1296161586
 10
268.3850527704
 20
39.0910582673
 10
268.9879772678
 20
38.9395536071
 10
269.5355033548
 20
38.6772282757
 10
270.0199448292
 20
38.3077649657
 10
270.4345015605
 20
37.8363506719
 10
270.7733536614
 20
37.2696023479
 10
270.94245933
 20
36.875999215
  0
ARC
  5
1BE
330
1F
100
AcDbEntity
  8
0
  6
Continuous
 62
     7
370
    25
100
AcDbCircle
 10
262.2667413594
 20
26.2671850692
 30
0.0
 40
3.317645213571457
100
AcDbArc
 50
226.3469856188
 51
281.7633512935
  0
LWPOLYLINE
  5
1BF
330
1F
100
AcDbEntity
  8
0
  6
Continuous
 62
     7
370
    25
100
AcDbPolyline
 90
       20
 70
   128
 43
0.0
 10
246.1353386197
 20
27.3837057377
 10
246.1796138841
 20
28.6291339037
 10
246.3121288442
 20
29.9169452234
 10
246.5319562693
 20
31.238107766
 10
246.837551214
 20
32.5833535351
 10
247.2267720917
 20
33.943246718
 10
247.6968885767
 20
35.3082487044
 10
248.2446020196
 20
36.6687851961
 10
248.8660717889
 20
38.0153127439
 10
249.5569376613
 20
39.3383864278
 10
250.3123553835
 20
40.6287267735
 10
251.1270243307
 20
41.8772813481
 10
251.9952316293
 20
43.0752935771
 10
252.9108864012
 20
44.2143597764
 10
253.8675671789
 20
45.2864907453
 10
254.8585620766
 20
46.2841653749
 10
255.8769211451
 20
47.2003859677
 10
256.915500658
 20
48.0287258565
 10
257.9670159607
 20
48.7633766441
 10
258.7576548286
 20
49.2485680166
  0
LWPOLYLINE
  5
1C0
330
1F
100
AcDbEntity
  8
0
  6
Continuous
 62
     7
370
    25
100
AcDbPolyline
 90
       20
 70
   128
 43
0.0
 10
257.3651589909
 20
48.4444366739
 10
257.1185169853
 20
48.2988791027
 10
256.1270781668
 20
47.6504341339
 10
255.145343228
 20
46.9067050467
 10
254.1809955105
 20
46.0735121427
 10
253.2415827577
 20
45.1573761581
 10
252.3344567958
 20
44.1654667128
 10
251.466717393
 20
43.1055478469
 10
250.6451548019
 20
41.9859136722
 10
249.8762006973
 20
40.8153281102
 10
249.165871542
 20
39.6029511322
 10
248.5197267685
 20
38.3582720331
 10
247.9428246574
 20
37.0910330085
 10
247.4396788726
 20
35.8111504513
 10
247.0142281688
 20
34.52864233
 10
246.6698014886
 20
33.2535449215
 10
246.4090942546
 20
31.9958379075
 10
246.2341486133
 20
30.7653652887
 10
246.1463317032
 20
29.5717563931
 10
246.1353379612
 20
28.9917081756
  0
LINE
  5
1C1
330
1F
100
AcDbEntity
  8
0
  6
Continuous
 62
     7
370
    25
100
AcDbLine
 10
275.7587953826
 20
34.0955873442
 30
0.0
 11
275.8588437692
 21
34.0348665916
 31
0.0
  0
LINE
  5
1C2
330
1F
100
AcDbEntity
  8
0
  6
Continuous
 62
     7
370
    25
100
AcDbLine
 10
267.8584581913
 20
20.1844087386
 30
0.0
 11
267.759445366
 21
20.2388055748
 31
0.0
  0
LWPOLYLINE
  5
1C3
330
1F
100
AcDbEntity
  8
0
  6
Continuous
 62
     7
370
    25
100
AcDbPolyline
 90
       27
 70
   128
 43
0.0
 10
261.9258144528
 20
23.6064890178
 10
261.5629933074
 20
23.8579339955
 10
261.1462209032
 20
24.2811881921
 10
260.8047501
 20
24.8029743934
 10
260.5439612065
 20
25.4150720609
 10
260.3679625526
 20
26.1078363336
 10
260.2795279277
 20
26.8703527404
 10
260.2800501535
 20
27.6906068348
 10
260.3695206689
 20
28.5556746935
 10
260.5465305179
 20
29.4519267198
 10
260.8082904353
 20
30.3652416648
 10
261.1506762861
 20
31.2812294859
 10
261.5682932736
 20
32.1854576741
 10
262.0545618798
 20
33.0636797646
 10
262.6018199392
 20
33.9020583332
 10
263.2014454578
 20
34.687384378
 10
263.843990627
 20
35.4072839631
 10
264.5193316419
 20
36.0504145938
 10
265.2168277405
 20
36.6066437202
 10
265.9254894611
 20
37.0672067079
 10
266.6341511818
 20
37.424847127
 10
267.3316472804
 20
37.6739298544
 10
268.0069882953
 20
37.8105313625
 10
268.6495334645
 20
37.8324986386
 10
269.2491589831
 20
37.7394854813
 10
269.7964170425
 20
37.5329576188
 10
269.9251644695
 20
37.4632707872
  0
LWPOLYLINE
  5
1C4
330
1F
100
AcDbEntity
  8
0
  6
Continuous
 62
     7
370
    25
100
AcDbPolyline
 90
       21
 70
   128
 43
0.0
 10
269.9340579484
 20
29.2418674166
 10
269.8907976658
 20
29.5322999537
 10
269.765251259
 20
29.7443556895
 10
269.5697081566
 20
29.8572768265
 10
269.3233094484
 20
29.8600104267
 10
269.0501744917
 20
29.7522885403
 10
268.777039535
 20
29.5446555182
 10
268.5306408268
 20
29.257436025
 10
268.335097889
 20
28.9187457226
 10
268.2095513176
 20
28.5617370959
 10
268.1662908703
 20
28.2213572046
 10
268.2095513176
 20
27.9309247625
 10
268.335097889
 20
27.7188691217
 10
268.5306408268
 20
27.6059476996
 10
268.777039535
 20
27.6032142895
 10
269.0501744917
 20
27.7109363661
 10
269.3233094484
 20
27.918569198
 10
269.5697081566
 20
28.2057885011
 10
269.765251259
 20
28.5444790887
 10
269.8907976658
 20
28.9014876203
 10
269.9340579484
 20
29.2418674166
  0
SPLINE
  5
1C5
330
1F
100
AcDbEntity
  8
0
  6
Continuous
 62
     7
370
    25
100
AcDbSpline
210
0.0
220
0.0
230
1.0
 70
     8
 71
     3
 72
    25
 73
    21
 74
     0
 42
0.000000001
 43
0.00000001
 40
0.0
 40
0.0
 40
0.0
 40
0.0
 40
0.1249999999999985
 40
0.1249999999999985
 40
0.2499999999999971
 40
0.2499999999999971
 40
0.3749999999999956
 40
0.3749999999999956
 40
0.4999999999999941
 40
0.4999999999999941
 40
0.562499999999995
 40
0.562499999999995
 40
0.624999999999996
 40
0.6874999999999969
 40
0.6874999999999969
 40
0.7499999999999978
 40
0.7499999999999978
 40
0.8749999999999989
 40
0.8749999999999989
 40
1.0
 40
1.0
 40
1.0
 40
1.0
 10
249.5547133155242
 20
46.35949119000153
 30
0.0
 10
249.5838366137853
 20
46.24830566947236
 30
0.0
 10
249.5962256546445
 20
46.13306345704432
 30
0.0
 10
249.5892481695442
 20
45.89396788920852
 30
0.0
 10
249.5692305816922
 20
45.76919391933326
 30
0.0
 10
249.4990084239789
 20
45.52282501012084
 30
0.0
 10
249.4483577693853
 20
45.39861386275972
 30
0.0
 10
249.3184430257301
 20
45.15498536744956
 30
0.0
 10
249.2407420777408
 20
45.03792827239138
 30
0.0
 10
249.1053684955147
 20
44.86927175454136
 30
0.0
 10
249.0567339982075
 20
44.81390473326919
 30
0.0
 10
248.9552946628255
 20
44.70818492187217
 30
0.0
 10
248.8494246800848
 20
44.60702396325173
 30
0.0
 10
248.7348328877573
 20
44.51484964157493
 30
0.0
 10
248.6157502185391
 20
44.42731279883481
 30
0.0
 10
248.5537922054817
 20
44.38581432932262
 30
0.0
 10
248.3659285019611
 20
44.27169400758451
 30
0.0
 10
248.2365510656071
 20
44.20808657646993
 30
0.0
 10
247.9688678125451
 20
44.1068182754957
 30
0.0
 10
247.83299612608
 20
44.07027736727089
 30
0.0
 10
247.6974788593524
 20
44.04910918292083
 30
0.0
  0
LWPOLYLINE
  5
1C6
330
1F
100
AcDbEntity
  8
0
  6
Continuous
 62
     7
370
    25
100
AcDbPolyline
 90
       15
 70
   128
 43
0.0
 10
249.5547134272
 20
46.3594912225
 10
250.5057162341
 20
47.3484516582
 10
251.4877271031
 20
48.2524539773
 10
252.4924228547
 20
49.0638354911
 10
253.511288385
 20
49.775719301
 10
254.5356880764
 20
50.3820737741
 10
255.556939637
 20
50.8777582117
 10
256.5663874458
 20
51.2585705139
 10
257.5554760218
 20
51.5212850295
 10
258.5158219289
 20
51.6636735336
 10
259.4392860509
 20
51.6845302202
 10
260.3180415861
 20
51.5836782558
 10
261.1446400671
 20
51.3619721489
 10
261.9120762266
 20
51.0212903299
 10
262.0323626737
 20
50.9539419552
  0
LWPOLYLINE
  5
1C7
330
1F
100
AcDbEntity
  8
0
  6
Continuous
 62
     7
370
    25
100
AcDbPolyline
 90
       21
 70
   128
 43
0.0
 10
246.2961413591
 20
23.6950535614
 10
246.2924936811
 20
23.6971615266
 10
245.607757541
 20
24.1689910995
 10
244.9943786495
 20
24.7505320417
 10
244.4574725805
 20
25.4369347816
 10
244.0015174366
 20
26.2224745147
 10
243.6303143367
 20
27.1005998766
 10
243.3469597571
 20
28.0639882697
 10
243.1538165554
 20
29.1046049918
 10
243.0524948731
 20
30.2137717269
 10
243.0438415982
 20
31.3822395033
 10
243.1279271952
 20
32.6002627447
 10
243.3040509726
 20
33.8576841567
 10
243.5707437176
 20
35.1440169038
 10
243.925782184
 20
36.4485344851
 10
244.3662042386
 20
37.7603566659
 10
244.8883384957
 20
39.0685441515
 10
245.4878293421
 20
40.3621877502
 10
246.1596777662
 20
41.6304969625
 10
246.8982808715
 20
42.8628973172
 10
247.6974786326
 20
44.0491086945
  0
ARC
  5
1C8
330
1F
100
AcDbEntity
  8
0
  6
Continuous
 62
     7
370
    25
100
AcDbCircle
 10
263.4197667624
 20
26.7465926924
 30
0.0
 40
3.340197383131128
100
AcDbArc
 50
201.3653441779
 51
221.0796297018
  0
LWPOLYLINE
  5
1C9
330
1F
100
AcDbEntity
  8
0
  6
Continuous
 62
     7
370
    25
100
AcDbPolyline
 90
       40
 70
   128
 43
0.0
 10
245.0725065589
 20
24.5676832418
 10
244.3039600934
 20
24.8638590742
 10
243.5960695284
 20
25.2717777161
 10
242.9545582741
 20
25.7881408829
 10
242.38461171
 20
26.408774668
 10
241.8908383307
 20
27.128660344
 10
241.4772302328
 20
27.9419788548
 10
241.1471308469
 20
28.8421545441
 10
240.9032085953
 20
29.8219095317
 10
240.7474364774
 20
30.8733237917
 10
240.6810736303
 20
31.9878966092
 10
240.7046561091
 20
33.1566169714
 10
240.817992936
 20
34.3700361923
 10
241.0201687341
 20
35.6183444341
 10
241.3095483375
 20
36.8914496521
 10
241.6837925959
 20
38.1790592006
 10
242.1398754974
 20
39.4707633869
 10
242.6741105099
 20
40.7561195005
 10
243.2821775814
 20
42.0247358409
 10
243.9591619941
 20
43.2663557458
 10
244.6995892677
 20
44.4709419991
 10
245.4974745496
 20
45.6287551536
 10
246.3463660792
 20
46.7304348967
 10
247.2394018229
 20
47.7670753309
 10
248.1693614986
 20
48.7302953118
 10
249.1287269975
 20
49.6123067888
 10
250.1097421472
 20
50.4059804846
 10
251.1044758491
 20
51.1048990743
 10
252.1048861223
 20
51.7034124079
 10
253.1028849702
 20
52.1966802801
 10
254.0904041524
 20
52.5807164835
 10
255.0594598045
 20
52.8524162271
 10
256.0022173049
 20
53.0095821754
 10
256.9110554826
 20
53.0509440251
 10
257.7786262979
 20
52.9761678617
 10
258.5979155934
 20
52.7858570105
 10
259.3623000576
 20
52.4815514598
 10
260.0655999089
 20
52.0657103661
 10
260.7021299325
 20
51.541695889
 10
260.7647667349
 20
51.4806727506
  0
LWPOLYLINE
  5
1CA
330
1F
100
AcDbEntity
  8
0
  6
Continuous
 62
     7
370
    25
100
AcDbPolyline
 90
       12
 70
   128
 43
0.0
 10
247.8920920348
 20
46.4837677031
 10
248.7632512592
 20
47.4137143947
 10
249.6648454473
 20
48.2664801825
 10
250.5891653478
 20
49.0347727606
 10
251.5283071096
 20
49.7120224712
 10
252.4742402659
 20
50.2924382816
 10
253.4188760278
 20
50.771057855
 10
254.3541369045
 20
51.1437869814
 10
255.272025624
 20
51.4074401253
 10
256.1646932412
 20
51.559761492
 10
257.0245064023
 20
51.5994494101
 10
257.692642611
 20
51.5486543361
  0
SPLINE
  5
1CB
330
1F
100
AcDbEntity
  8
0
  6
Continuous
 62
     7
370
    25
100
AcDbSpline
210
0.0
220
0.0
230
1.0
 70
     8
 71
     3
 72
    26
 73
    22
 74
     0
 42
0.000000001
 43
0.00000001
 40
0.0
 40
0.0
 40
0.0
 40
0.0
 40
0.1250000000000014
 40
0.1250000000000014
 40
0.2500000000000027
 40
0.2500000000000027
 40
0.3125000000000025
 40
0.3125000000000025
 40
0.3750000000000023
 40
0.3750000000000023
 40
0.4375000000000021
 40
0.4375000000000021
 40
0.5000000000000018
 40
0.5000000000000018
 40
0.5625000000000016
 40
0.5625000000000016
 40
0.6250000000000013
 40
0.6250000000000013
 40
0.7500000000000006
 40
0.7500000000000006
 40
1.0
 40
1.0
 40
1.0
 40
1.0
 10
246.5478988298966
 20
44.81160441687636
 30
0.0
 10
246.5242612336646
 20
44.92118027644936
 30
0.0
 10
246.5066934547829
 20
45.03206953481388
 30
0.0
 10
246.4878808719134
 20
45.25739949467682
 30
0.0
 10
246.486701097146
 20
45.37307640799519
 30
0.0
 10
246.5027991003814
 20
45.54443191785474
 30
0.0
 10
246.5111178174816
 20
45.60123042994891
 30
0.0
 10
246.5348749667386
 20
45.714056642346
 30
0.0
 10
246.5504973457876
 20
45.77050949601215
 30
0.0
 10
246.5893545581846
 20
45.87909261242076
 30
0.0
 10
246.612580514887
 20
45.9314725726463
 30
0.0
 10
246.6675791643654
 20
46.03192934791841
 30
0.0
 10
246.6996574313881
 20
46.08020821568985
 30
0.0
 10
246.7700721799231
 20
46.1679051912736
 30
0.0
 10
246.8086506020498
 20
46.20789431924955
 30
0.0
 10
246.892358865646
 20
46.28037300336514
 30
0.0
 10
246.9374875755879
 20
46.31270962774176
 30
0.0
 10
247.076768217778
 20
46.39590939509541
 30
0.0
 10
247.1775572893397
 20
46.43473811773149
 30
0.0
 10
247.4806295605723
 20
46.51015440518668
 30
0.0
 10
247.6891536510574
 20
46.51002425881591
 30
0.0
 10
247.8920920707478
 20
46.4837680294897
 30
0.0
  0
LWPOLYLINE
  5
1CC
330
1F
100
AcDbEntity
  8
0
  6
Continuous
 62
     7
370
    25
100
AcDbPolyline
 90
       17
 70
   128
 43
0.0
 10
243.6109202009
 20
27.1557531268
 10
243.1772376908
 20
27.802717701
 10
242.7797310062
 20
28.6076224604
 10
242.4697192034
 20
29.5021981172
 10
242.2500452192
 20
30.4782426224
 10
242.1227228826
 20
31.5268066596
 10
242.088919793
 20
32.6382764899
 10
242.1489461249
 20
33.8024614539
 10
242.3022513351
 20
35.0086874132
 10
242.5474287725
 20
36.2458939949
 10
242.8822321418
 20
37.5027389157
 10
243.30359065
 20
38.7676974584
 10
243.8076419335
 20
40.0291721659
 10
244.3897630098
 20
41.2755964512
 10
245.0446176929
 20
42.4955429589
 10
245.7662020325
 20
43.677825463
 10
246.5478989733
 20
44.8116041858
  0
LINE
  5
1CD
330
1F
100
AcDbEntity
  8
0
  6
Continuous
 62
     7
370
    25
100
AcDbLine
 10
245.0725065589
 20
24.5676832418
 30
0.0
 11
245.1927171088
 21
24.624494691
 31
0.0
  0
LWPOLYLINE
  5
1CE
330
1F
100
AcDbEntity
  8
0
  6
Continuous
 62
     7
370
    25
100
AcDbPolyline
 90
       26
 70
   128
 43
0.0
 10
238.4278739683
 20
33.6423334168
 10
238.4711436352
 20
34.7958077401
 10
238.6006134854
 20
35.990212354
 10
238.8152706776
 20
37.2161996487
 10
239.1134346062
 20
38.464174166
 10
239.4927720478
 20
39.7243693098
 10
239.950314284
 20
40.986922155
 10
240.4824808082
 20
42.2419519629
 10
241.0851056678
 20
43.479635465
 10
241.7534736842
 20
44.6902870877
 10
242.4823527213
 20
45.8644308136
 10
243.2660397836
 20
46.9928785049
 10
244.0983998704
 20
48.0667979607
 10
244.9729199767
 20
49.0777836353
 10
245.8827548615
 20
50.0179248854
 10
246.8207843416
 20
50.8798618589
 10
247.7796669628
 20
51.6568506992
 10
248.7518981165
 20
52.3428085025
 10
249.7298687738
 20
52.9323677563
 10
250.7059250421
 20
53.4209152841
 10
251.6724279288
 20
53.8046259852
 10
252.6218130211
 20
54.0804965272
 10
253.5466505376
 20
54.2463693659
 10
254.4397020863
 20
54.3009457395
 10
255.2939785344
 20
54.2437977831
 10
255.3389709537
 20
54.2375231646
  0
ARC
  5
1CF
330
1F
100
AcDbEntity
  8
0
  6
Continuous
 62
     7
370
    25
100
AcDbCircle
 10
249.8093729457
 20
33.4445836168
 30
0.0
 40
11.37719513203801
100
AcDbArc
 50
181.3300377973
 51
195.1968120502
  0
SPLINE
  5
1D0
330
1F
100
AcDbEntity
  8
0
  6
Continuous
 62
     7
370
    25
100
AcDbSpline
210
0.0
220
0.0
230
1.0
 70
     8
 71
     3
 72
    10
 73
     6
 74
     0
 42
0.000000001
 43
0.00000001
 40
0.0
 40
0.0
 40
0.0
 40
0.0
 40
0.5
 40
0.5
 40
1.0
 40
1.0
 40
1.0
 40
1.0
 10
247.2745868975279
 20
43.34855113605663
 30
0.0
 10
247.1706224067436
 20
43.42188950912701
 30
0.0
 10
247.0808141303163
 20
43.50912526692042
 30
0.0
 10
246.9287717023176
 20
43.71005580811642
 30
0.0
 10
246.8668661139567
 20
43.82422657431339
 30
0.0
 10
246.8224164093662
 20
43.94724425747349
 30
0.0
  0
SPLINE
  5
1D1
330
1F
100
AcDbEntity
  8
0
  6
Continuous
 62
     7
370
    25
100
AcDbSpline
210
0.0
220
0.0
230
1.0
 70
     8
 71
     3
 72
    14
 73
    10
 74
     0
 42
0.000000001
 43
0.00000001
 40
0.0
 40
0.0
 40
0.0
 40
0.0
 40
0.25
 40
0.25
 40
0.5
 40
0.5
 40
0.75
 40
0.75
 40
1.0
 40
1.0
 40
1.0
 40
1.0
 10
246.8224164093662
 20
43.94724425747349
 30
0.0
 10
246.799695606501
 20
44.01012567713103
 30
0.0
 10
246.7777810961516
 20
44.07917210660445
 30
0.0
 10
246.7356700420889
 20
44.22682462322322
 30
0.0
 10
246.7161484881757
 20
44.30322441008152
 30
0.0
 10
246.677802246002
 20
44.45755670147712
 30
0.0
 10
246.6594426531182
 20
44.53450929780877
 30
0.0
 10
246.6174392085366
 20
44.67989946532474
 30
0.0
 10
246.5936628875235
 20
44.74649037151777
 30
0.0
 10
246.5652013834213
 20
44.78698598674912
 30
0.0
  0
LINE
  5
1D2
330
1F
100
AcDbEntity
  8
0
  6
Continuous
 62
     7
370
    25
100
AcDbLine
 10
246.5652015717
 20
44.7869863785
 30
0.0
 11
246.5478989733
 21
44.8116041858
 31
0.0
  0
LINE
  5
1D3
330
1F
100
AcDbEntity
  8
0
  6
Continuous
 62
     7
370
    25
100
AcDbLine
 10
247.8920920348
 20
46.4837677031
 30
0.0
 11
247.9093946332
 21
46.4591498958
 31
0.0
  0
SPLINE
  5
1D4
330
1F
100
AcDbEntity
  8
0
  6
Continuous
 62
     7
370
    25
100
AcDbSpline
210
0.0
220
0.0
230
1.0
 70
     8
 71
     3
 72
    16
 73
    12
 74
     0
 42
0.000000001
 43
0.00000001
 40
0.0
 40
0.0
 40
0.0
 40
0.0
 40
0.1250000000000001
 40
0.1250000000000001
 40
0.2500000000000003
 40
0.2500000000000003
 40
0.5000000000000002
 40
0.5000000000000002
 40
0.7500000000000001
 40
0.7500000000000001
 40
1.0
 40
1.0
 40
1.0
 40
1.0
 10
247.9093946242725
 20
46.45914959936241
 30
0.0
 10
247.9235470306766
 20
46.43901326354961
 30
0.0
 10
247.9452054351503
 20
46.4222158428722
 30
0.0
 10
247.9976233641856
 20
46.3953703215407
 30
0.0
 10
248.028216243324
 20
46.38514483697972
 30
0.0
 10
248.1272970921815
 20
46.36064439654704
 30
0.0
 10
248.2011796297974
 20
46.35238447414554
 30
0.0
 10
248.3542792221887
 20
46.34119850744062
 30
0.0
 10
248.4323631968363
 20
46.33860183568943
 30
0.0
 10
248.5917068305784
 20
46.33657283485572
 30
0.0
 10
248.67035972541
 20
46.33721042351794
 30
0.0
 10
248.7461121932026
 20
46.34030352433299
 30
0.0
  0
SPLINE
  5
1D5
330
1F
100
AcDbEntity
  8
0
  6
Continuous
 62
     7
370
    25
100
AcDbSpline
210
0.0
220
0.0
230
1.0
 70
     8
 71
     3
 72
    10
 73
     6
 74
     0
 42
0.000000001
 43
0.00000001
 40
0.0
 40
0.0
 40
0.0
 40
0.0
 40
0.5
 40
0.5
 40
1.0
 40
1.0
 40
1.0
 40
1.0
 10
248.7461121932026
 20
46.34030352433299
 30
0.0
 10
248.8943065331034
 20
46.34635454876675
 30
0.0
 10
249.036530998834
 20
46.33619231855362
 30
0.0
 10
249.3089223891747
 20
46.28514188261353
 30
0.0
 10
249.4390497190433
 20
46.24378077996899
 30
0.0
 10
249.5571250612286
 20
46.1880069120167
 30
0.0
  0
LINE
  5
1D6
330
1F
100
AcDbEntity
  8
0
  6
Continuous
 62
     7
370
    25
100
AcDbLine
 10
249.7123281527
 20
46.2164255195
 30
0.0
 11
249.6949350044
 21
46.2411728042
 31
0.0
  0
ARC
  5
1D7
330
1F
100
AcDbEntity
  8
0
  6
Continuous
 62
     7
370
    25
100
AcDbCircle
 10
232.2336547599
 20
41.4581997356
 30
0.0
 40
4.152066281423952
100
AcDbArc
 50
211.7707829633
 51
236.187546018
  0
SPLINE
  5
1D8
330
1F
100
AcDbEntity
  8
0
  6
Continuous
 62
     7
370
    25
100
AcDbSpline
210
0.0
220
0.0
230
1.0
 70
     8
 71
     3
 72
     8
 73
     4
 74
     0
 42
0.000000001
 43
0.00000001
 40
0.0
 40
0.0
 40
0.0
 40
0.0
 40
1.0
 40
1.0
 40
1.0
 40
1.0
 10
230.1341713920918
 20
38.34730249277804
 30
0.0
 10
229.6573981002677
 20
38.65539530071068
 30
0.0
 10
229.1805957234228
 20
38.96362474628344
 30
0.0
 10
228.7037632788971
 20
39.27198990250335
 30
0.0
  0
SPLINE
  5
1D9
330
1F
100
AcDbEntity
  8
0
  6
Continuous
 62
     7
370
    25
100
AcDbSpline
210
0.0
220
0.0
230
1.0
 70
     8
 71
     3
 72
    23
 73
    19
 74
     0
 42
0.000000001
 43
0.00000001
 40
0.0
 40
0.0
 40
0.0
 40
0.0
 40
0.0521034701687057
 40
0.1035642834087102
 40
0.1544746865149814
 40
0.2049299526106448
 40
0.2550279491446255
 40
0.3048686360173235
 40
0.354553504119357
 40
0.4041849683413186
 40
0.4538657321696359
 40
0.5036981429680408
 40
0.5902048055392471
 40
0.6743008903317285
 40
0.7566325442019778
 40
0.8378852029881853
 40
0.9187688149217074
 40
1.0
 40
1.0
 40
1.0
 40
1.0
 10
231.0147361956334
 20
38.17257179465794
 30
0.0
 10
231.0094672566936
 20
38.1626503324223
 30
0.0
 10
230.9989943671938
 20
38.14292978168982
 30
0.0
 10
230.9797480714246
 20
38.1183619527438
 30
0.0
 10
230.957952331115
 20
38.09767337045799
 30
0.0
 10
230.9333010398239
 20
38.08114243525685
 30
0.0
 10
230.9058045256028
 20
38.06862493532555
 30
0.0
 10
230.8753934704183
 20
38.06009031281859
 30
0.0
 10
230.8420231030198
 20
38.05548043528364
 30
0.0
 10
230.8056471984461
 20
38.05474571036303
 30
0.0
 10
230.7662188878066
 20
38.05784072481293
 30
0.0
 10
230.7133646078487
 20
38.06637772302788
 30
0.0
 10
230.6448168144199
 20
38.08397569804974
 30
0.0
 10
230.5570858661644
 20
38.11561407001999
 30
0.0
 10
230.462351913739
 20
38.15779420315123
 30
0.0
 10
230.3603212181802
 20
38.21052975521258
 30
0.0
 10
230.2514175588088
 20
38.27284358267152
 30
0.0
 10
230.1733092688979
 20
38.32244740597675
 30
0.0
 10
230.1341713920918
 20
38.34730249277803
 30
0.0
  0
SPLINE
  5
1DA
330
1F
100
AcDbEntity
  8
0
  6
Continuous
 62
     7
370
    25
100
AcDbSpline
210
0.0
220
0.0
230
1.0
 70
     8
 71
     3
 72
     8
 73
     4
 74
     0
 42
0.000000001
 43
0.00000001
 40
0.0
 40
0.0
 40
0.0
 40
0.0
 40
1.0
 40
1.0
 40
1.0
 40
1.0
 10
232.4882392220896
 20
37.22525165810021
 30
0.0
 10
231.9968719100475
 20
37.5411262780682
 30
0.0
 10
231.5054857101204
 20
37.8571122993582
 30
0.0
 10
231.0140799999757
 20
38.1732091802014
 30
0.0
  0
SPLINE
  5
1DB
330
1F
100
AcDbEntity
  8
0
  6
Continuous
 62
     7
370
    25
100
AcDbSpline
210
0.0
220
0.0
230
1.0
 70
     8
 71
     3
 72
    18
 73
    14
 74
     0
 42
0.000000001
 43
0.00000001
 40
0.0
 40
0.0
 40
0.0
 40
0.0
 40
0.0923645816240024
 40
0.184437298835547
 40
0.2764543021187089
 40
0.3686515499736663
 40
0.4612630116345014
 40
0.5545189370737327
 40
0.6486442564353982
 40
0.7438571603401029
 40
0.840367898348629
 40
0.9203923541269499
 40
1.0
 40
1.0
 40
1.0
 40
1.0
 10
233.3018033412869
 20
36.58094393355739
 30
0.0
 10
233.2782412446297
 20
36.5962131119142
 30
0.0
 10
233.2311915055852
 20
36.62670321929141
 30
0.0
 10
233.1588055918136
 20
36.6763254426835
 30
0.0
 10
233.0853313287119
 20
36.72864801241018
 30
0.0
 10
233.010635788623
 20
36.7839622791839
 30
0.0
 10
232.9347749088729
 20
36.84220067175444
 30
0.0
 10
232.8577595407704
 20
36.90339717833683
 30
0.0
 10
232.7796193394438
 20
36.96756800122377
 30
0.0
 10
232.7003810690157
 20
37.03472762384605
 30
0.0
 10
232.6250752629304
 20
37.10058681595687
 30
0.0
 10
232.5542426314231
 20
37.16412310880109
 30
0.0
 10
232.5103382610681
 20
37.20478386198287
 30
0.0
 10
232.4884433944884
 20
37.22506115462476
 30
0.0
  0
LINE
  5
1DC
330
1F
100
AcDbEntity
  8
0
  6
Continuous
 62
     7
370
    25
100
AcDbLine
 10
233.9415098731
 20
36.1691901271
 30
0.0
 11
233.3018030308
 21
36.5809437947
 31
0.0
  0
SPLINE
  5
1DD
330
1F
100
AcDbEntity
  8
0
  6
Continuous
 62
     7
370
    25
100
AcDbSpline
210
0.0
220
0.0
230
1.0
 70
     8
 71
     3
 72
    25
 73
    21
 74
     0
 42
0.000000001
 43
0.00000001
 40
0.0
 40
0.0
 40
0.0
 40
0.0
 40
0.0280056024285556
 40
0.0559514328342784
 40
0.0838901607637317
 40
0.1118745076905564
 40
0.1399569498905731
 40
0.1681894282715383
 40
0.1966230730100115
 40
0.2253079499152918
 40
0.2542928341276725
 40
0.3799484016835161
 40
0.505784488750116
 40
0.6313077644952726
 40
0.7532057173414717
 40
0.8039627394927641
 40
0.8536129947768591
 40
0.9025574087126811
 40
0.9512124407392603
 40
1.0
 40
1.0
 40
1.0
 40
1.0
 10
235.0438754662771
 20
36.88509611743448
 30
0.0
 10
235.0488244991771
 20
36.85747586737143
 30
0.0
 10
235.0587120023152
 20
36.80229431681521
 30
0.0
 10
235.0702491378556
 20
36.72314161963215
 30
0.0
 10
235.0793231188026
 20
36.64684343031609
 30
0.0
 10
235.0856920894585
 20
36.57365009638487
 30
0.0
 10
235.0894079415023
 20
36.50350238968529
 30
0.0
 10
235.0904437024193
 20
36.43642329198862
 30
0.0
 10
235.0887940181386
 20
36.37241405458733
 30
0.0
 10
235.0844463058168
 20
36.31147752734327
 30
0.0
 10
235.0695888262456
 20
36.18958353513452
 30
0.0
 10
235.0245005079919
 20
36.03467905033105
 30
0.0
 10
234.9111405202503
 20
35.90373645676764
 30
0.0
 10
234.749317117154
 20
35.84785897495625
 30
0.0
 10
234.5752899818754
 20
35.86773712066789
 30
0.0
 10
234.4239138844729
 20
35.91505812638256
 30
0.0
 10
234.3134985259142
 20
35.95997659349068
 30
0.0
 10
234.1963392702594
 20
36.0173519316256
 30
0.0
 10
234.0727898706859
 20
36.08602343578984
 30
0.0
 10
233.9853093559671
 20
36.14144269030191
 30
0.0
 10
233.9415096094742
 20
36.16919000416102
 30
0.0
  0
ARC
  5
1DE
330
1F
100
AcDbEntity
  8
0
  6
Continuous
 62
     7
370
    25
100
AcDbCircle
 10
246.2368966307
 20
38.671146486
 30
0.0
 40
11.33462419218045
100
AcDbArc
 50
170.9338462887
 51
189.0661537113
  0
SPLINE
  5
1DF
330
1F
100
AcDbEntity
  8
0
  6
Continuous
 62
     7
370
    25
100
AcDbSpline
210
0.0
220
0.0
230
1.0
 70
     8
 71
     3
 72
    26
 73
    22
 74
     0
 42
0.000000001
 43
0.00000001
 40
0.0
 40
0.0
 40
0.0
 40
0.0
 40
0.0241214275653681
 40
0.048207823354694
 40
0.0723095879205524
 40
0.0964771461125574
 40
0.1207606318213038
 40
0.1452095829268534
 40
0.1698726554210423
 40
0.1947973643378114
 40
0.2200298573584057
 40
0.2456147249583675
 40
0.3690974744022258
 40
0.4940700204039635
 40
0.6192566393629643
 40
0.7454654421861667
 40
0.7971580294162193
 40
0.8481837569733532
 40
0.8988139831114569
 40
0.9493262809205398
 40
1.0
 40
1.0
 40
1.0
 40
1.0
 10
233.9415096094742
 20
43.93330039552557
 30
0.0
 10
233.9632246487745
 20
43.91897414321881
 30
0.0
 10
234.0066231904195
 20
43.8903424447562
 30
0.0
 10
234.0699228181494
 20
43.84236194946413
 30
0.0
 10
234.1317790428273
 20
43.79077128050728
 30
0.0
 10
234.1920803237825
 20
43.73520153278465
 30
0.0
 10
234.2508690657037
 20
43.67574791735154
 30
0.0
 10
234.3081506025721
 20
43.61238179727794
 30
0.0
 10
234.3639448952252
 20
43.54510777117063
 30
0.0
 10
234.418271461788
 20
43.47392499185037
 30
0.0
 10
234.4711578693397
 20
43.39882368298362
 30
0.0
 10
234.58795833504
 20
43.2195599668726
 30
0.0
 10
234.7498314301284
 20
42.90924960382861
 30
0.0
 10
234.9130160074606
 20
42.4393355669287
 30
0.0
 10
235.0245278885122
 20
41.9403725590689
 30
0.0
 10
235.0716618154777
 20
41.53147720594762
 30
0.0
 10
235.086782829046
 20
41.22718782525303
 30
0.0
 10
235.08873858518
 20
41.02592100568055
 30
0.0
 10
235.0822614213839
 20
40.8302609443268
 30
0.0
 10
235.0681338928688
 20
40.63964132494913
 30
0.0
 10
235.0519702037438
 20
40.5180765452668
 30
0.0
 10
235.0438754662771
 20
40.4571971897491
 30
0.0
  0
LINE
  5
1E0
330
1F
100
AcDbEntity
  8
0
  6
Continuous
 62
     7
370
    25
100
AcDbLine
 10
233.3018030308
 20
44.3462752458
 30
0.0
 11
233.9415098731
 21
43.9333002748
 31
0.0
  0
SPLINE
  5
1E1
330
1F
100
AcDbEntity
  8
0
  6
Continuous
 62
     7
370
    25
100
AcDbSpline
210
0.0
220
0.0
230
1.0
 70
     8
 71
     3
 72
    14
 73
    10
 74
     0
 42
0.000000001
 43
0.00000001
 40
0.0
 40
0.0
 40
0.0
 40
0.0
 40
0.0789259589567727
 40
0.158232396189637
 40
0.3308776440723308
 40
0.5000645817686393
 40
0.6670803235491236
 40
0.8332687177846481
 40
1.0
 40
1.0
 40
1.0
 40
1.0
 10
232.4878506255402
 20
44.55485767881845
 30
0.0
 10
232.5095675065411
 20
44.55646085672394
 30
0.0
 10
232.5531059590851
 20
44.55967494097274
 30
0.0
 10
232.6446396877077
 20
44.56049576286765
 30
0.0
 10
232.7615609372266
 20
44.55256028412675
 30
0.0
 10
232.9023944858543
 20
44.52628544214393
 30
0.0
 10
233.0396071347573
 20
44.48332838320032
 30
0.0
 10
233.1735256260366
 20
44.42497246705286
 30
0.0
 10
233.2589976434845
 20
44.37253626371701
 30
0.0
 10
233.3018033412869
 20
44.34627540851645
 30
0.0
  0
SPLINE
  5
1E2
330
1F
100
AcDbEntity
  8
0
  6
Continuous
 62
     7
370
    25
100
AcDbSpline
210
0.0
220
0.0
230
1.0
 70
     8
 71
     3
 72
     8
 73
     4
 74
     0
 42
0.000000001
 43
0.00000001
 40
0.0
 40
0.0
 40
0.0
 40
0.0
 40
1.0
 40
1.0
 40
1.0
 40
1.0
 10
230.6855470424312
 20
45.71724909022287
 30
0.0
 10
231.2863052661278
 20
45.32998160706367
 30
0.0
 10
231.8870341289886
 20
44.94251425714006
 30
0.0
 10
232.487734773336
 20
44.55484736455013
 30
0.0
  0
SPLINE
  5
1E3
330
1F
100
AcDbEntity
  8
0
  6
Continuous
 62
     7
370
    25
100
AcDbSpline
210
0.0
220
0.0
230
1.0
 70
     8
 71
     3
 72
    13
 73
     9
 74
     0
 42
0.000000001
 43
0.00000001
 40
0.0
 40
0.0
 40
0.0
 40
0.0
 40
0.1666651380536958
 40
0.3328869540146023
 40
0.4989979369855643
 40
0.6653319948464125
 40
0.8322224399502948
 40
1.0
 40
1.0
 40
1.0
 40
1.0
 10
230.3437185073968
 20
46.01831386930866
 30
0.0
 10
230.3640158499612
 20
46.00475397340528
 30
0.0
 10
230.4045565450325
 20
45.9776702503379
 30
0.0
 10
230.4636991641682
 20
45.93248439269616
 30
0.0
 10
230.521468373161
 20
45.88407613548166
 30
0.0
 10
230.5777203935366
 20
45.83203778577388
 30
0.0
 10
230.6326545179233
 20
45.77673051340767
 30
0.0
 10
230.6678812635309
 20
45.73710488558955
 30
0.0
 10
230.6855413246528
 20
45.71723955323515
 30
0.0
  0
SPLINE
  5
1E4
330
1F
100
AcDbEntity
  8
0
  6
Continuous
 62
     7
370
    25
100
AcDbSpline
210
0.0
220
0.0
230
1.0
 70
     8
 71
     3
 72
     8
 73
     4
 74
     0
 42
0.000000001
 43
0.00000001
 40
0.0
 40
0.0
 40
0.0
 40
0.0
 40
1.0
 40
1.0
 40
1.0
 40
1.0
 10
228.3997379916061
 20
47.27303572168813
 30
0.0
 10
229.0477680640063
 20
46.85504040580338
 30
0.0
 10
229.6957610411082
 20
46.43679964338575
 30
0.0
 10
230.3437185073968
 20
46.01831386930866
 30
0.0
  0
LWPOLYLINE
  5
1E5
330
1F
100
AcDbEntity
  8
0
  6
Continuous
 62
     7
370
    25
100
AcDbPolyline
 90
       20
 70
   128
 43
0.0
 10
228.3997386419
 20
47.2730357722
 10
228.7823872454
 20
48.3869985343
 10
229.2445979035
 20
49.4952127163
 10
229.7811970908
 20
50.5852752736
 10
230.3861782227
 20
51.6449851427
 10
231.0527711324
 20
52.66248335
 10
231.7735154984
 20
53.6263809527
 10
232.5403441506
 20
54.5258907812
 10
233.3446747722
 20
55.3509442566
 10
234.1775055537
 20
56.0923089682
 10
235.0295152093
 20
56.7416859563
 10
235.8911681137
 20
57.2918091893
 10
236.7528205727
 20
57.7365198411
 10
237.6048289935
 20
58.0708416638
 10
238.4376576348
 20
58.2910325439
 10
239.2419854576
 20
58.3946286959
 10
240.0088101585
 20
58.3804697376
 10
240.7295495854
 20
58.2487146507
 10
241.396137556
 20
58.0008385393
 10
241.4494763684
 20
57.9747827374
  0
SPLINE
  5
1E6
330
1F
100
AcDbEntity
  8
0
  6
Continuous
 62
     7
370
    25
100
AcDbSpline
210
0.0
220
0.0
230
1.0
 70
    11
 71
     3
 72
    39
 73
    35
 74
     0
 42
0.000000001
 43
0.00000001
 40
0.0
 40
0.0
 40
0.0
 40
0.0
 40
0.0310664058347798
 40
0.0621048158425991
 40
0.0931361551792733
 40
0.1235538293503577
 40
0.1538561545807598
 40
0.1850588072749104
 40
0.2160250992947717
 40
0.247186722379756
 40
0.2784462884306427
 40
0.3100516090231226
 40
0.3419834369140484
 40
0.3734259894013217
 40
0.4048604886785525
 40
0.4368740651833295
 40
0.468512068592407
 40
0.4998055358633177
 40
0.5309508213228404
 40
0.561864978443814
 40
0.5930416446592908
 40
0.6233742450133256
 40
0.6540913579073041
 40
0.6849496782718417
 40
0.7158160645167227
 40
0.7471731804043494
 40
0.7784514311866261
 40
0.8101295911560916
 40
0.8419598919689909
 40
0.8735175891922292
 40
0.9050808037889628
 40
0.9370235169792575
 40
0.9687441590033682
 40
0.9999999999999999
 40
0.9999999999999999
 40
0.9999999999999999
 40
0.9999999999999999
 10
241.6083234728114
 20
56.27822609702955
 30
0.0
 10
241.871209093009
 20
56.24969160973934
 30
0.0
 10
242.3980977034922
 20
56.16374912141686
 30
0.0
 10
243.1621097725656
 20
55.96337400134668
 30
0.0
 10
243.869259960617
 20
55.71637189512702
 30
0.0
 10
244.4821710252115
 20
55.4383900169747
 30
0.0
 10
244.9793023508865
 20
55.14425631964481
 30
0.0
 10
245.3384940719586
 20
54.84274979145216
 30
0.0
 10
245.5602133407195
 20
54.53575228654896
 30
0.0
 10
245.6254652181002
 20
54.22524702514671
 30
0.0
 10
245.5386180069858
 20
53.90610254039827
 30
0.0
 10
245.296272419227
 20
53.57678257482544
 30
0.0
 10
244.9163345565008
 20
53.23784185326856
 30
0.0
 10
244.4025286033421
 20
52.90000338885815
 30
0.0
 10
243.7766377924315
 20
52.57410548754915
 30
0.0
 10
243.063166805943
 20
52.27745859430917
 30
0.0
 10
242.2992643296779
 20
52.02135528587054
 30
0.0
 10
241.5134712467741
 20
51.83232771788078
 30
0.0
 10
240.731933791732
 20
51.72415179582563
 30
0.0
 10
239.9758208069783
 20
51.71648791245759
 30
0.0
 10
239.2734562205875
 20
51.81440994784521
 30
0.0
 10
238.6544358735437
 20
52.03605838134666
 30
0.0
 10
238.1453786085311
 20
52.3719264682578
 30
0.0
 10
237.7724350150974
 20
52.81173703443909
 30
0.0
 10
237.5438330638497
 20
53.32281167496167
 30
0.0
 10
237.47498675713
 20
53.87399676272492
 30
0.0
 10
237.5596031703552
 20
54.4316686910364
 30
0.0
 10
237.8027119602907
 20
54.96174883195615
 30
0.0
 10
238.1848418031074
 20
55.43427318106916
 30
0.0
 10
238.700977377521
 20
55.82039469196288
 30
0.0
 10
239.3279552380222
 20
56.10401887929518
 30
0.0
 10
240.0438626703886
 20
56.27375609802161
 30
0.0
 10
240.8123060625721
 20
56.33529493273214
 30
0.0
 10
241.3438348419446
 20
56.30693458047651
 30
0.0
 10
241.6083234728114
 20
56.27822609702955
 30
0.0
  0
LINE
  5
1E7
330
1F
100
AcDbEntity
  8
0
  6
Continuous
 62
     7
370
    25
100
AcDbLine
 10
232.3837860598
 20
39.8390994796
 30
0.0
 11
232.6978327647
 21
39.6709485963
 31
0.0
  0
LINE
  5
1E8
330
1F
100
AcDbEntity
  8
0
  6
Continuous
 62
     7
370
    25
100
AcDbLine
 10
231.3968280398
 20
40.4088582169
 30
0.0
 11
232.3837860598
 21
39.8390994796
 31
0.0
  0
ARC
  5
1E9
330
1F
100
AcDbEntity
  8
0
  6
Continuous
 62
     7
370
    25
100
AcDbCircle
 10
233.6177979507
 20
44.002338981
 30
0.0
 40
4.484274790565995
100
AcDbArc
 50
267.6840627222
 51
286.9866336569
  0
SPLINE
  5
1EA
330
1F
100
AcDbEntity
  8
0
  6
Continuous
 62
     7
370
    25
100
AcDbSpline
210
0.0
220
0.0
230
1.0
 70
     8
 71
     3
 72
    13
 73
     9
 74
     0
 42
0.000000001
 43
0.00000001
 40
0.0
 40
0.0
 40
0.0
 40
0.0
 40
0.142593677630432
 40
0.3741076934871868
 40
0.4908300786259419
 40
0.6075221810614941
 40
0.8194021152148097
 40
1.0
 40
1.0
 40
1.0
 40
1.0
 10
242.9468294311108
 20
53.27573038169383
 30
0.0
 10
242.7555779832754
 20
53.38075490669387
 30
0.0
 10
242.2538121321186
 20
53.65629645566203
 30
0.0
 10
241.4475717910479
 20
53.99077253003093
 30
0.0
 10
240.6346017630993
 20
54.22395459401648
 30
0.0
 10
239.8420506861786
 20
54.36966771244739
 30
0.0
 10
238.9289357064878
 20
54.40361629423914
 30
0.0
 10
238.3510574032545
 20
54.19744019271685
 30
0.0
 10
238.0851478557813
 20
54.10256867124111
 30
0.0
  0
SPLINE
  5
1EB
330
1F
100
AcDbEntity
  8
0
  6
Continuous
 62
     7
370
    25
100
AcDbSpline
210
0.0
220
0.0
230
1.0
 70
     8
 71
     3
 72
    10
 73
     6
 74
     0
 42
0.000000001
 43
0.00000001
 40
0.0
 40
0.0
 40
0.0
 40
0.0
 40
0.3798174073072795
 40
0.9603711649033085
 40
1.0
 40
1.0
 40
1.0
 40
1.0
 10
244.0867095529703
 20
52.74750345417534
 30
0.0
 10
243.9570569357219
 20
52.81783201601272
 30
0.0
 10
243.6292293199674
 20
52.99565831243383
 30
0.0
 10
243.2213007749573
 20
53.16871116283624
 30
0.0
 10
242.9646679935254
 20
53.26791659508455
 30
0.0
 10
242.9482695033137
 20
53.27425568902493
 30
0.0
  0
SPLINE
  5
1EC
330
1F
100
AcDbEntity
  8
0
  6
Continuous
 62
     7
370
    25
100
AcDbSpline
210
0.0
220
0.0
230
1.0
 70
     8
 71
     3
 72
    24
 73
    20
 74
     0
 42
0.000000001
 43
0.00000001
 40
0.0
 40
0.0
 40
0.0
 40
0.0
 40
0.0618840405107654
 40
0.1150097917091882
 40
0.1593831560946264
 40
0.2428115036280618
 40
0.3183318591855066
 40
0.393554385675793
 40
0.4204843277094077
 40
0.4483397483172464
 40
0.4771286747760933
 40
0.5451537944670507
 40
0.6363475785735143
 40
0.6968782886074498
 40
0.7498596715029577
 40
0.7959701313029689
 40
0.8771179313375886
 40
0.9543004211730736
 40
1.0
 40
1.0
 40
1.0
 40
1.0
 10
241.5534449058092
 20
55.70436819707279
 30
0.0
 10
241.3694934597293
 20
55.72326258703821
 30
0.0
 10
241.0276247432776
 20
55.75837729248505
 30
0.0
 10
240.5634062053808
 20
55.75188787938204
 30
0.0
 10
240.0539391897719
 20
55.70416345825453
 30
0.0
 10
239.514839359148
 20
55.57954604675289
 30
0.0
 10
238.972001380411
 20
55.33705568235385
 30
0.0
 10
238.6316083635608
 20
55.0796829499393
 30
0.0
 10
238.4249816551336
 20
54.86487584777698
 30
0.0
 10
238.306997598901
 20
54.71837249676734
 30
0.0
 10
238.1548271947178
 20
54.48862167244108
 30
0.0
 10
237.9881465561334
 20
54.11567897707899
 30
0.0
 10
237.919784975298
 20
53.65311992436057
 30
0.0
 10
237.9701404389171
 20
53.22478722616366
 30
0.0
 10
238.0755695824324
 20
52.90486033251832
 30
0.0
 10
238.2577689091184
 20
52.56439481732537
 30
0.0
 10
238.5586473341889
 20
52.22844656047018
 30
0.0
 10
238.9483322287874
 20
51.95538725975518
 30
0.0
 10
239.2412511849818
 20
51.86143218882789
 30
0.0
 10
239.3501871190381
 20
51.82649049866293
 30
0.0
  0
SPLINE
  5
1ED
330
1F
100
AcDbEntity
  8
0
  6
Continuous
 62
     7
370
    25
100
AcDbSpline
210
0.0
220
0.0
230
1.0
 70
     8
 71
     3
 72
    22
 73
    18
 74
     0
 42
0.000000001
 43
0.00000001
 40
0.0
 40
0.0
 40
0.0
 40
0.0
 40
0.0216819412630219
 40
0.0801024195606473
 40
0.1454197199800008
 40
0.2176734695423169
 40
0.27970923487749
 40
0.3330888464563989
 40
0.3778117572573148
 40
0.4138806638069567
 40
0.5171902036523651
 40
0.609286505563548
 40
0.7027565680340873
 40
0.7525792891696176
 40
0.804503448331721
 40
0.8937178182587084
 40
1.0
 40
1.0
 40
1.0
 40
1.0
 10
244.8591726296206
 20
53.22789335137167
 30
0.0
 10
244.8820332741078
 20
53.249463735136
 30
0.0
 10
244.9664903305094
 20
53.3291540132995
 30
0.0
 10
245.0728564758806
 20
53.47103455869566
 30
0.0
 10
245.1701329255044
 20
53.65981510737668
 30
0.0
 10
245.2011524342389
 20
53.84577876591452
 30
0.0
 10
245.1718068153968
 20
54.01759386962635
 30
0.0
 10
245.1032991323099
 20
54.16439970900664
 30
0.0
 10
245.0154890616036
 20
54.28561078389796
 30
0.0
 10
244.8611971839387
 20
54.45119388791992
 30
0.0
 10
244.5933712893966
 20
54.66135815649342
 30
0.0
 10
244.1418010172208
 20
54.91680195483373
 30
0.0
 10
243.694238414439
 20
55.12343866663465
 30
0.0
 10
243.2853446352327
 20
55.28194285413231
 30
0.0
 10
242.8632617198827
 20
55.42446084722938
 30
0.0
 10
242.2849485861628
 20
55.587716365422
 30
0.0
 10
241.8110701076296
 20
55.6632850795453
 30
0.0
 10
241.5534449058092
 20
55.70436819707279
 30
0.0
  0
LINE
  5
1EE
330
1F
100
AcDbEntity
  8
0
  6
Continuous
 62
     7
370
    25
100
AcDbLine
 10
235.0438751839
 20
40.457197009
 30
0.0
 11
235.0386371209
 21
40.7532804319
 31
0.0
  0
LINE
  5
1EF
330
1F
100
AcDbEntity
  8
0
  6
Continuous
 62
     7
370
    25
100
AcDbLine
 10
235.0386371209
 20
40.7532804319
 30
0.0
 11
235.0817355662
 21
41.4049193154
 31
0.0
  0
LINE
  5
1F0
330
1F
100
AcDbEntity
  8
0
  6
Continuous
 62
     7
370
    25
100
AcDbLine
 10
234.5590764491
 20
43.2339960232
 30
0.0
 11
234.2476738003
 21
43.5625652189
 31
0.0
  0
SPLINE
  5
1F1
330
1F
100
AcDbEntity
  8
0
  6
Continuous
 62
     7
370
    25
100
AcDbSpline
210
0.0
220
0.0
230
1.0
 70
     8
 71
     3
 72
    19
 73
    15
 74
     0
 42
0.000000001
 43
0.00000001
 40
0.0
 40
0.0
 40
0.0
 40
0.0
 40
0.0210492621018804
 40
0.1455865440207667
 40
0.2712169722633744
 40
0.3929514297049947
 40
0.5136082229787104
 40
0.6366369099308349
 40
0.699422462668311
 40
0.7643939711952468
 40
0.8122544601557282
 40
0.8606584764820763
 40
0.9188817427801165
 40
1.0
 40
1.0
 40
1.0
 40
1.0
 10
237.9642003534668
 20
53.44961824961499
 30
0.0
 10
237.956731778481
 20
53.5043785965204
 30
0.0
 10
237.9050756199093
 20
53.88312677385552
 30
0.0
 10
238.1478465145689
 20
54.49327768266971
 30
0.0
 10
238.7321769819839
 20
55.18265138590927
 30
0.0
 10
239.6383033496241
 20
55.59995093614133
 30
0.0
 10
240.7126494780861
 20
55.72037689382997
 30
0.0
 10
241.6665833471819
 20
55.55967735024238
 30
0.0
 10
242.4012458897511
 20
55.26231125140058
 30
0.0
 10
242.8740491292234
 20
54.96465317399588
 30
0.0
 10
243.2310192993429
 20
54.59374136921852
 30
0.0
 10
243.4258674408512
 20
54.16142007391093
 30
0.0
 10
243.4548964710953
 20
53.65847874268579
 30
0.0
 10
243.392522869475
 20
53.32473373011059
 30
0.0
 10
243.3562118135009
 20
53.13044265956373
 30
0.0
  0
SPLINE
  5
1F2
330
1F
100
AcDbEntity
  8
0
  6
Continuous
 62
     7
370
    25
100
AcDbSpline
210
0.0
220
0.0
230
1.0
 70
     8
 71
     3
 72
    10
 73
     6
 74
     0
 42
0.000000001
 43
0.00000001
 40
0.0
 40
0.0
 40
0.0
 40
0.0
 40
0.2951014905235478
 40
0.9803222167779536
 40
1.0
 40
1.0
 40
1.0
 40
1.0
 10
243.3589396694891
 20
53.12920410614136
 30
0.0
 10
243.4417638815176
 20
53.09043917777503
 30
0.0
 10
243.7169045288747
 20
52.96166273397635
 30
0.0
 10
243.9919208611653
 20
52.82041733569952
 30
0.0
 10
244.1404568567347
 20
52.72638965531472
 30
0.0
 10
244.1446033531199
 20
52.72376480040779
 30
0.0
  0
ARC
  5
1F3
330
1F
100
AcDbEntity
  8
0
  6
Continuous
 62
     7
370
    25
100
AcDbCircle
 10
247.3690482348
 20
38.9159851138
 30
0.0
 40
12.46654291792339
100
AcDbArc
 50
171.5249863735
 51
179.8211981812
  0
SPLINE
  5
1F4
330
1F
100
AcDbEntity
  8
0
  6
Continuous
 62
     7
370
    25
100
AcDbSpline
210
0.0
220
0.0
230
1.0
 70
     8
 71
     3
 72
    14
 73
    10
 74
     0
 42
0.000000001
 43
0.00000001
 40
0.0
 40
0.0
 40
0.0
 40
0.0
 40
0.0003951393068452
 40
0.0003951393068452
 40
0.0003951393068452
 40
0.0008163352168296
 40
0.0008163352168296
 40
0.0008163352168296
 40
0.0012378579336484
 40
0.0012378579336484
 40
0.0012378579336484
 40
0.0012378579336484
 10
242.9508620066508
 20
53.2744514283094
 30
0.0
 10
242.9963238208807
 20
53.26001456568504
 30
0.0
 10
243.0412114255004
 20
53.24514870512013
 30
0.0
 10
243.0854951181742
 20
53.22986491751534
 30
0.0
 10
243.132698410408
 20
53.21357347817982
 30
0.0
 10
243.1792242234618
 20
53.19680400009815
 30
0.0
 10
243.2250351326982
 20
53.1795751893052
 30
0.0
 10
243.270881520682
 20
53.16233303547589
 30
0.0
 10
243.3160207562493
 20
53.14462732927382
 30
0.0
 10
243.3604143142867
 20
53.12648447258554
 30
0.0
  0
LINE
  5
1F5
330
1F
100
AcDbEntity
  8
0
  6
Continuous
 62
     7
370
    25
100
AcDbLine
 10
234.2476738003
 20
43.5625652189
 30
0.0
 11
233.607737126
 21
43.974796859
 31
0.0
  0
LINE
  5
1F6
330
1F
100
AcDbEntity
  8
0
  6
Continuous
 62
     7
370
    25
100
AcDbLine
 10
233.3018030308
 20
44.3462752458
 30
0.0
 11
233.607737126
 21
43.974796859
 31
0.0
  0
SPLINE
  5
1F7
330
1F
100
AcDbEntity
  8
0
  6
Continuous
 62
     7
370
    25
100
AcDbSpline
210
0.0
220
0.0
230
1.0
 70
     8
 71
     3
 72
    13
 73
     9
 74
     0
 42
0.000000001
 43
0.00000001
 40
0.0
 40
0.0
 40
0.0
 40
0.0
 40
0.16183221616715
 40
0.3254505981958384
 40
0.4909687654272658
 40
0.6584964712949335
 40
0.8281395683842832
 40
1.0
 40
1.0
 40
1.0
 40
1.0
 10
233.6077375376289
 20
43.97479686287959
 30
0.0
 10
233.5881632721194
 20
43.98735841529135
 30
0.0
 10
233.5487986970663
 20
44.01262016380783
 30
0.0
 10
233.4872681777512
 20
44.04531211737216
 30
0.0
 10
233.4237132514115
 20
44.07425829055229
 30
0.0
 10
233.358093157914
 20
44.0987720469933
 30
0.0
 10
233.2906602551783
 20
44.11920924319075
 30
0.0
 10
233.2447708153994
 20
44.12880695772321
 30
0.0
 10
233.2216771186609
 20
44.13363697329677
 30
0.0
  0
SPLINE
  5
1F8
330
1F
100
AcDbEntity
  8
0
  6
Continuous
 62
     7
370
    25
100
AcDbSpline
210
0.0
220
0.0
230
1.0
 70
     8
 71
     3
 72
     9
 73
     5
 74
     0
 42
0.000000001
 43
0.00000001
 40
0.0
 40
0.0
 40
0.0
 40
0.0
 40
0.4907162487374744
 40
0.9999999999999999
 40
0.9999999999999999
 40
0.9999999999999999
 40
0.9999999999999999
 10
233.221671291369
 20
44.13360897626576
 30
0.0
 10
233.197574253828
 20
44.14170787333738
 30
0.0
 10
233.1484684057885
 20
44.15821210993536
 30
0.0
 10
233.0977569650053
 20
44.17301085143753
 30
0.0
 10
233.0719304522114
 20
44.18054761002372
 30
0.0
  0
SPLINE
  5
1F9
330
1F
100
AcDbEntity
  8
0
  6
Continuous
 62
     7
370
    25
100
AcDbSpline
210
0.0
220
0.0
230
1.0
 70
     8
 71
     3
 72
    14
 73
    10
 74
     0
 42
0.000000001
 43
0.00000001
 40
0.0
 40
0.0
 40
0.0
 40
0.0
 40
0.0310276310583657
 40
0.0622853638093172
 40
0.1248003080251061
 40
0.2498289632720534
 40
0.4998892480136639
 40
0.7606946230169602
 40
0.9999999999999999
 40
0.9999999999999999
 40
0.9999999999999999
 40
0.9999999999999999
 10
232.4880184669364
 20
44.55463689513186
 30
0.0
 10
232.4940105116972
 20
44.55080597629299
 30
0.0
 10
232.5060390383734
 20
44.54311572842475
 30
0.0
 10
232.5300980668846
 20
44.52767833856589
 30
0.0
 10
232.572330375276
 20
44.50060876161051
 30
0.0
 10
232.6568901944443
 20
44.44639848612079
 30
0.0
 10
232.7801760555146
 20
44.36739614751199
 30
0.0
 10
232.9263024433943
 20
44.27379281839837
 30
0.0
 10
233.0246660857958
 20
44.21081194135135
 30
0.0
 10
233.0717335572164
 20
44.18067529169006
 30
0.0
  0
LINE
  5
1FA
330
1F
100
AcDbEntity
  8
0
  6
Continuous
 62
     7
370
    25
100
AcDbLine
 10
230.6855183117
 20
45.7172675721
 30
0.0
 11
230.9764856658
 21
45.529189033
 31
0.0
  0
SPLINE
  5
1FB
330
1F
100
AcDbEntity
  8
0
  6
Continuous
 62
     7
370
    25
100
AcDbSpline
210
0.0
220
0.0
230
1.0
 70
     8
 71
     3
 72
     8
 73
     4
 74
     0
 42
0.000000001
 43
0.00000001
 40
0.0
 40
0.0
 40
0.0
 40
0.0
 40
1.0
 40
1.0
 40
1.0
 40
1.0
 10
231.0078739692314
 20
45.50896650282068
 30
0.0
 10
230.9974314633796
 20
45.51579192771804
 30
0.0
 10
230.9869655304899
 20
45.52253489450454
 30
0.0
 10
230.9764777656734
 20
45.52919398215749
 30
0.0
  0
SPLINE
  5
1FC
330
1F
100
AcDbEntity
  8
0
  6
Continuous
 62
     7
370
    25
100
AcDbSpline
210
0.0
220
0.0
230
1.0
 70
     8
 71
     3
 72
     8
 73
     4
 74
     0
 42
0.000000001
 43
0.00000001
 40
0.0
 40
0.0
 40
0.0
 40
0.0
 40
1.0
 40
1.0
 40
1.0
 40
1.0
 10
228.2218695904053
 20
47.38722215463122
 30
0.0
 10
228.280869354576
 20
47.34848148771176
 30
0.0
 10
228.3401569180873
 20
47.31041951041198
 30
0.0
 10
228.3997379915765
 20
47.27303572195122
 30
0.0
  0
SPLINE
  5
1FD
330
1F
100
AcDbEntity
  8
0
  6
Continuous
 62
     7
370
    25
100
AcDbSpline
210
0.0
220
0.0
230
1.0
 70
     8
 71
     3
 72
     8
 73
     4
 74
     0
 42
0.000000001
 43
0.00000001
 40
0.0
 40
0.0
 40
0.0
 40
0.0
 40
1.0
 40
1.0
 40
1.0
 40
1.0
 10
228.197019844308
 20
47.75043233256809
 30
0.0
 10
228.2044940563985
 20
47.62947449185697
 30
0.0
 10
228.2127901602886
 20
47.50840264944704
 30
0.0
 10
228.2218695904074
 20
47.38722215463194
 30
0.0
  0
LWPOLYLINE
  5
1FE
330
1F
100
AcDbEntity
  8
0
  6
Continuous
 62
     7
370
    25
100
AcDbPolyline
 90
       15
 70
   128
 43
0.0
 10
228.1970202031
 20
47.7504316671
 10
228.5906197432
 20
48.859340506
 10
229.0652880878
 20
49.9601089676
 10
229.6153413394
 20
51.0395553412
 10
230.2341927357
 20
52.0847538966
 10
230.9144320047
 20
53.0831898211
 10
231.6479142679
 20
54.0229067406
 10
232.4258558586
 20
54.8926529099
 10
233.2389418294
 20
55.6820128577
 10
234.0774355999
 20
56.3815345636
 10
234.9312968768
 20
56.9828416393
 10
235.7903012629
 20
57.478734316
 10
236.6441625398
 20
57.8632744864
 10
237.4826563103
 20
58.1318570811
 10
238.1609826721
 20
58.2645393586
  0
SPLINE
  5
1FF
330
1F
100
AcDbEntity
  8
0
  6
Continuous
 62
     7
370
    25
100
AcDbSpline
210
0.0
220
0.0
230
1.0
 70
     8
 71
     3
 72
    10
 73
     6
 74
     0
 42
0.000000001
 43
0.00000001
 40
0.0
 40
0.0
 40
0.0
 40
0.0
 40
0.2409536028783486
 40
0.5031434696391622
 40
1.0
 40
1.0
 40
1.0
 40
1.0
 10
234.2476738003467
 20
36.85672359561427
 30
0.0
 10
234.3299121527909
 20
36.80505360686841
 30
0.0
 10
234.5016368727864
 20
36.69715973392669
 30
0.0
 10
234.7793535399867
 20
36.56742739529773
 30
0.0
 10
234.9003372611122
 20
36.59020695574977
 30
0.0
 10
234.9795307756806
 20
36.60511799862181
 30
0.0
  0
LINE
  5
200
330
1F
100
AcDbEntity
  8
0
  6
Continuous
 62
     7
370
    25
100
AcDbLine
 10
229.4644997442
 20
46.5857963286
 30
0.0
 11
228.7026210418
 21
47.0764307362
 31
0.0
  0
LINE
  5
201
330
1F
100
AcDbEntity
  8
0
  6
Continuous
 62
     7
370
    25
100
AcDbLine
 10
228.7026210418
 20
47.0764307362
 30
0.0
 11
228.2218697216
 21
47.3872221123
 31
0.0
  0
LINE
  5
202
330
1F
100
AcDbEntity
  8
0
  6
Continuous
 62
     7
370
    25
100
AcDbLine
 10
233.3018030308
 20
36.5809437947
 30
0.0
 11
233.607737126
 21
37.2689552357
 31
0.0
  0
LINE
  5
203
330
1F
100
AcDbEntity
  8
0
  6
Continuous
 62
     7
370
    25
100
AcDbLine
 10
233.607737126
 20
37.2689552357
 30
0.0
 11
234.2476738003
 21
36.8567235956
 31
0.0
  0
SPLINE
  5
204
330
1F
100
AcDbEntity
  8
0
  6
Continuous
 62
     7
370
    25
100
AcDbSpline
210
0.0
220
0.0
230
1.0
 70
     8
 71
     3
 72
    13
 73
     9
 74
     0
 42
0.000000001
 43
0.00000001
 40
0.0
 40
0.0
 40
0.0
 40
0.0
 40
0.1722808990503593
 40
0.3421751864003435
 40
0.5097853609077583
 40
0.6752181678241594
 40
0.8385846213644129
 40
1.0
 40
1.0
 40
1.0
 40
1.0
 10
233.2216656068557
 20
37.55026494113288
 30
0.0
 10
233.2448201465775
 20
37.53214307192723
 30
0.0
 10
233.2908084655903
 20
37.49615037623349
 30
0.0
 10
233.3583551106588
 20
37.4451470962476
 30
0.0
 10
233.4240167159427
 20
37.39682192767575
 30
0.0
 10
233.4875390548297
 20
37.35139278071486
 30
0.0
 10
233.5489640158696
 20
37.30857098209577
 30
0.0
 10
233.5882249816998
 20
37.28210763276449
 30
0.0
 10
233.6077375376289
 20
37.26895544526786
 30
0.0
  0
SPLINE
  5
205
330
1F
100
AcDbEntity
  8
0
  6
Continuous
 62
     7
370
    25
100
AcDbSpline
210
0.0
220
0.0
230
1.0
 70
     8
 71
     3
 72
    11
 73
     7
 74
     0
 42
0.000000001
 43
0.00000001
 40
0.0
 40
0.0
 40
0.0
 40
0.0
 40
0.2392702281456497
 40
0.5001120575623568
 40
0.7515010343518018
 40
1.0
 40
1.0
 40
1.0
 40
1.0
 10
233.072266103518
 20
37.59756763128792
 30
0.0
 10
233.0252011036874
 20
37.56925583500317
 30
0.0
 10
232.9268279208352
 20
37.51007976950188
 30
0.0
 10
232.7805360257859
 20
37.4168937853003
 30
0.0
 10
232.63269719164
 20
37.32152327760458
 30
0.0
 10
232.5364138443149
 20
37.25699008912319
 30
0.0
 10
232.4885504929751
 20
37.2249100383234
 30
0.0
  0
SPLINE
  5
206
330
1F
100
AcDbEntity
  8
0
  6
Continuous
 62
     7
370
    25
100
AcDbSpline
210
0.0
220
0.0
230
1.0
 70
     8
 71
     3
 72
     9
 73
     5
 74
     0
 42
0.000000001
 43
0.00000001
 40
0.0
 40
0.0
 40
0.0
 40
0.0
 40
0.5090786773532814
 40
1.0
 40
1.0
 40
1.0
 40
1.0
 10
233.0728275308497
 20
37.59689841011407
 30
0.0
 10
233.0984821528547
 20
37.58940294259539
 30
0.0
 10
233.1488763711677
 20
37.57467934906825
 30
0.0
 10
233.197692251221
 20
37.55827975858431
 30
0.0
 10
233.221657007623
 20
37.55022884993307
 30
0.0
  0
LINE
  5
207
330
1F
100
AcDbEntity
  8
0
  6
Continuous
 62
     7
370
    25
100
AcDbLine
 10
234.9027747791
 20
38.5207585464
 30
0.0
 11
233.2216588227
 21
37.5502709622
 31
0.0
  0
LINE
  5
208
330
1F
100
AcDbEntity
  8
0
  6
Continuous
 62
     7
370
    25
100
AcDbLine
 10
231.2151711715
 20
38.6740922608
 30
0.0
 11
231.0148755179
 21
38.1729348466
 31
0.0
  0
SPLINE
  5
209
330
1F
100
AcDbEntity
  8
0
  6
Continuous
 62
     7
370
    25
100
AcDbSpline
210
0.0
220
0.0
230
1.0
 70
     8
 71
     3
 72
     8
 73
     4
 74
     0
 42
0.000000001
 43
0.00000001
 40
0.0
 40
0.0
 40
0.0
 40
0.0
 40
1.0
 40
1.0
 40
1.0
 40
1.0
 10
231.2147280008236
 20
38.67487601299533
 30
0.0
 10
231.2409033353928
 20
38.69704338997359
 30
0.0
 10
231.2667243753582
 20
38.71967553106521
 30
0.0
 10
231.2921819290666
 20
38.74276025115649
 30
0.0
  0
LINE
  5
20A
330
1F
100
AcDbEntity
  8
0
  6
Continuous
 62
     7
370
    25
100
AcDbLine
 10
231.2921820248
 20
38.7427601355
 30
0.0
 11
233.0724458081
 21
37.5970074986
 31
0.0
  0
LINE
  5
20B
330
1F
100
AcDbEntity
  8
0
  6
Continuous
 62
     7
370
    25
100
AcDbLine
 10
234.9025660205
 20
38.618778068
 30
0.0
 11
234.8144804242
 21
38.7263257816
 31
0.0
  0
LINE
  5
20C
330
1F
100
AcDbEntity
  8
0
  6
Continuous
 62
     7
370
    25
100
AcDbLine
 10
232.9861586969
 20
39.7206720529
 30
0.0
 11
231.2921820248
 21
38.7427601355
 31
0.0
  0
LINE
  5
20D
330
1F
100
AcDbEntity
  8
0
  6
Continuous
 62
     7
370
    25
100
AcDbLine
 10
233.1288527794
 20
39.6993798912
 30
0.0
 11
232.9865788483
 21
39.7201846754
 31
0.0
  0
LINE
  5
20E
330
1F
100
AcDbEntity
  8
0
  6
Continuous
 62
     7
370
    25
100
AcDbLine
 10
234.8145258638
 20
38.726261533
 30
0.0
 11
233.1288527794
 21
39.6993798912
 31
0.0
  0
LINE
  5
20F
330
1F
100
AcDbEntity
  8
0
  6
Continuous
 62
     7
370
    25
100
AcDbLine
 10
234.9025660205
 20
38.6754309212
 30
0.0
 11
234.8144982049
 21
38.7262767286
 31
0.0
  0
SPLINE
  5
210
330
1F
100
AcDbEntity
  8
0
  6
Continuous
 62
     7
370
    25
100
AcDbSpline
210
0.0
220
0.0
230
1.0
 70
     8
 71
     3
 72
    19
 73
    15
 74
     0
 42
0.000000001
 43
0.00000001
 40
0.0
 40
0.0
 40
0.0
 40
0.0
 40
0.0637766826454772
 40
0.1289474638354589
 40
0.19556696593294
 40
0.2636863254141702
 40
0.3333533751451132
 40
0.4046128304587784
 40
0.4775064753088331
 40
0.5520733455852129
 40
0.6283499073842573
 40
0.7063702286264717
 40
0.8377042578124847
 40
1.0
 40
1.0
 40
1.0
 40
1.0
 10
230.4306588948622
 20
38.8433641003472
 30
0.0
 10
230.451346295682
 20
38.83000712467067
 30
0.0
 10
230.4931733045261
 20
38.80300120234047
 30
0.0
 10
230.5536596028441
 20
38.76548308548876
 30
0.0
 10
230.6131405926685
 20
38.72996529793204
 30
0.0
 10
230.6712199452902
 20
38.69698543251011
 30
0.0
 10
230.7277516559492
 20
38.6667779432084
 30
0.0
 10
230.7824976445707
 20
38.63966249664805
 30
0.0
 10
230.8352222101551
 20
38.61592831166968
 30
0.0
 10
230.8856671705839
 20
38.59588534657161
 30
0.0
 10
230.933554371697
 20
38.57976303684842
 30
0.0
 10
230.9885216103306
 20
38.56548387503778
 30
0.0
 10
231.0513545138318
 20
38.55534513699718
 30
0.0
 10
231.0898620121732
 20
38.56181937760023
 30
0.0
 10
231.1111459677948
 20
38.56539783518939
 30
0.0
  0
LINE
  5
211
330
1F
100
AcDbEntity
  8
0
  6
Continuous
 62
     7
370
    25
100
AcDbLine
 10
231.1357816554
 20
38.5914682895
 30
0.0
 11
231.2145857254
 21
38.6748598932
 31
0.0
  0
SPLINE
  5
212
330
1F
100
AcDbEntity
  8
0
  6
Continuous
 62
     7
370
    25
100
AcDbSpline
210
0.0
220
0.0
230
1.0
 70
     8
 71
     3
 72
     9
 73
     5
 74
     0
 42
0.000000001
 43
0.00000001
 40
0.0
 40
0.0
 40
0.0
 40
0.0
 40
0.5232334307013496
 40
1.0
 40
1.0
 40
1.0
 40
1.0
 10
232.8199809171766
 20
39.62474021231154
 30
0.0
 10
232.7509544621473
 20
39.64978546056301
 30
0.0
 10
232.6190315937313
 20
39.697651760348
 30
0.0
 10
232.3775880941918
 20
39.83524847795238
 30
0.0
 10
232.2624759052369
 20
39.90084999295138
 30
0.0
  0
LINE
  5
213
330
1F
100
AcDbEntity
  8
0
  6
Continuous
 62
     7
370
    25
100
AcDbLine
 10
228.5329747082
 20
39.6667395556
 30
0.0
 11
228.9844458226
 21
39.7790035284
 31
0.0
  0
LINE
  5
214
330
1F
100
AcDbEntity
  8
0
  6
Continuous
 62
     7
370
    25
100
AcDbLine
 10
228.9844458226
 20
39.7790035284
 30
0.0
 11
230.4306582944
 21
38.8433641954
 31
0.0
  0
SPLINE
  5
215
330
1F
100
AcDbEntity
  8
0
  6
Continuous
 62
     7
370
    25
100
AcDbSpline
210
0.0
220
0.0
230
1.0
 70
     8
 71
     3
 72
     8
 73
     4
 74
     0
 42
0.000000001
 43
0.00000001
 40
0.0
 40
0.0
 40
0.0
 40
0.0
 40
1.0
 40
1.0
 40
1.0
 40
1.0
 10
228.7037632788789
 20
39.27198990256388
 30
0.0
 10
228.6466380099556
 20
39.40377608635781
 30
0.0
 10
228.5897095182388
 20
39.53536030801691
 30
0.0
 10
228.5329754002901
 20
39.66673937491656
 30
0.0
  0
LINE
  5
216
330
1F
100
AcDbEntity
  8
0
  6
Continuous
 62
     7
370
    25
100
AcDbLine
 10
230.3221472816
 20
40.5512421432
 30
0.0
 11
228.9844458226
 21
39.7790035284
 31
0.0
  0
LINE
  5
217
330
1F
100
AcDbEntity
  8
0
  6
Continuous
 62
     7
370
    25
100
AcDbLine
 10
231.3051757665
 20
40.4534887403
 30
0.0
 11
230.3221472816
 21
40.5512421432
 31
0.0
  0
LINE
  5
218
330
1F
100
AcDbEntity
  8
0
  6
Continuous
 62
     7
370
    25
100
AcDbLine
 10
232.2624759052
 20
39.900849993
 30
0.0
 11
231.3051747787
 21
40.4534881701
 31
0.0
  0
SPLINE
  5
219
330
1F
100
AcDbEntity
  8
0
  6
Continuous
 62
     7
370
    25
100
AcDbSpline
210
0.0
220
0.0
230
1.0
 70
     8
 71
     3
 72
     8
 73
     4
 74
     0
 42
0.000000001
 43
0.00000001
 40
0.0
 40
0.0
 40
0.0
 40
0.0
 40
1.0
 40
1.0
 40
1.0
 40
1.0
 10
228.5329754002901
 20
39.66673937491656
 30
0.0
 10
228.52983806254
 20
39.70195568178907
 30
0.0
 10
228.527845658642
 20
39.73759993801677
 30
0.0
 10
228.5270642612699
 20
39.77369684001165
 30
0.0
  0
LINE
  5
21A
330
1F
100
AcDbEntity
  8
0
  6
Continuous
 62
     7
370
    25
100
AcDbLine
 10
229.3381507364
 20
40.2419265547
 30
0.0
 11
228.5270649298
 21
39.7736966851
 31
0.0
  0
SPLINE
  5
21B
330
1F
100
AcDbEntity
  8
0
  6
Continuous
 62
     7
370
    25
100
AcDbSpline
210
0.0
220
0.0
230
1.0
 70
     8
 71
     3
 72
     8
 73
     4
 74
     0
 42
0.000000001
 43
0.00000001
 40
0.0000004089325119
 40
0.0000004089325119
 40
0.0000004089325119
 40
0.0000004089325119
 40
0.0015399868451459
 40
0.0015399868451459
 40
0.0015399868451459
 40
0.0015399868451459
 10
229.3381497937587
 20
40.24192655136777
 30
0.0
 10
229.576626361782
 20
40.33630293718413
 30
0.0
 10
229.8150733194507
 20
40.43073154911433
 30
0.0
 10
230.053482058301
 20
40.52522493207679
 30
0.0
  0
LINE
  5
21C
330
1F
100
AcDbEntity
  8
0
  6
Continuous
 62
     7
370
    25
100
AcDbLine
 10
230.0534815373
 20
40.5252250792
 30
0.0
 11
230.0778779771
 21
40.5302191056
 31
0.0
  0
LINE
  5
21D
330
1F
100
AcDbEntity
  8
0
  6
Continuous
 62
     7
370
    25
100
AcDbLine
 10
230.3221472816
 20
40.5512421432
 30
0.0
 11
230.0778786356
 21
40.5302191056
 31
0.0
  0
SPLINE
  5
21E
330
1F
100
AcDbEntity
  8
0
  6
Continuous
 62
     7
370
    25
100
AcDbSpline
210
0.0
220
0.0
230
1.0
 70
     8
 71
     3
 72
     8
 73
     4
 74
     0
 42
0.000000001
 43
0.00000001
 40
0.0
 40
0.0
 40
0.0
 40
0.0
 40
1.0
 40
1.0
 40
1.0
 40
1.0
 10
231.305173972809
 20
40.45348892466376
 30
0.0
 10
231.3357820069322
 20
40.43854891685763
 30
0.0
 10
231.3663335079042
 20
40.42367195946426
 30
0.0
 10
231.3968274460188
 20
40.40885839578334
 30
0.0
  0
LWPOLYLINE
  5
21F
330
1F
100
AcDbEntity
  8
0
  6
Continuous
 62
     7
370
    25
100
AcDbPolyline
 90
        3
 70
   128
 43
0.0
 10
234.944947105
 20
39.941938854
 10
234.4704174252
 20
39.7439765483
 10
233.7335627556
 20
39.5179342163
  0
LINE
  5
220
330
1F
100
AcDbEntity
  8
0
  6
Continuous
 62
     7
370
    18
100
AcDbLine
 10
277.2378537496
 20
32.582437489
 30
0.0
 11
277.1091412255
 21
32.5009380207
 31
0.0
  0
LWPOLYLINE
  5
221
330
1F
100
AcDbEntity
  8
0
  6
Continuous
 62
     7
370
    18
100
AcDbPolyline
 90
       25
 70
   128
 43
0.0
 10
274.8601899988
 20
34.6143415324
 10
274.8783157778
 20
34.6917416934
 10
275.059732936
 20
35.2726532047
 10
275.3181122152
 20
35.8479741758
 10
275.6435240812
 20
36.395594985
 10
276.0234640911
 20
36.8944716603
 10
276.4433296789
 20
37.3254316408
 10
276.8869871627
 20
37.6719143193
 10
277.3373861666
 20
37.9206038791
 10
277.7772188238
 20
38.0619436865
 10
278.189581614
 20
38.09050182
 10
278.5586286392
 20
38.0051812779
 10
278.8701774848
 20
37.8092607959
 10
279.1122544947
 20
37.5102686544
 10
279.2755577276
 20
37.1196958451
 10
279.3538112544
 20
36.6525515477
 10
279.3440081609
 20
36.126788054
 10
279.2465251344
 20
35.5626101149
 10
279.0651079763
 20
34.9816986035
 10
278.8067293557
 20
34.4063780125
 10
278.481316831
 20
33.8587568233
 10
278.1013774797
 20
33.3598805281
 10
277.6815112334
 20
32.9289201674
 10
277.2378537496
 20
32.582437489
 10
277.2378537496
 20
32.582437489
  0
LWPOLYLINE
  5
222
330
1F
100
AcDbEntity
  8
0
  6
Continuous
 62
     7
370
    18
100
AcDbPolyline
 90
       12
 70
   128
 43
0.0
 10
274.5427689118
 20
34.7975840809
 10
274.6541314223
 20
35.1768394792
 10
274.8969960514
 20
35.7823846977
 10
275.2117362037
 20
36.3679378268
 10
275.5869748643
 20
36.9123341607
 10
276.0091519433
 20
37.3958995152
 10
276.4630069888
 20
37.8011551322
 10
276.9321376327
 20
38.1134547047
 10
277.399587671
 20
38.321510562
 10
277.8484621443
 20
38.4178031213
 10
278.2625384673
 20
38.3988525057
 10
278.5966615602
 20
38.2818456113
  0
LWPOLYLINE
  5
223
330
1F
100
AcDbEntity
  8
0
  6
Continuous
 62
     7
370
    18
100
AcDbPolyline
 90
       33
 70
   128
 43
0.0
 10
258.1459708209
 20
21.5609280736
 10
257.695571817
 20
21.3122385138
 10
257.2557391598
 20
21.1708987064
 10
256.8433763696
 20
21.1423405729
 10
256.4743293444
 20
21.227661115
 10
256.1627804987
 20
21.423581597
 10
255.9207034889
 20
21.7225737385
 10
255.7574002559
 20
22.1131465478
 10
255.6791467292
 20
22.5802908452
 10
255.6889498227
 20
23.1060543389
 10
255.7864328491
 20
23.670232278
 10
255.9678500073
 20
24.2511437893
 10
256.2262286279
 20
24.8264643803
 10
256.5516411525
 20
25.3740855696
 10
256.9315805039
 20
25.8729618648
 10
257.3514467502
 20
26.3039222255
 10
257.7951042339
 20
26.6504049039
 10
258.2455032378
 20
26.8990944638
 10
258.6853358951
 20
27.0404342711
 10
259.0976986853
 20
27.0689924046
 10
259.4667457105
 20
26.9836718626
 10
259.7782938976
 20
26.7877510004
 10
260.020371566
 20
26.4887592391
 10
260.1836747989
 20
26.0981864298
 10
260.2619283257
 20
25.6310421323
 10
260.2521252322
 20
25.1052786387
 10
260.1546422057
 20
24.5411006995
 10
259.9732250476
 20
23.9601891882
 10
259.7148457684
 20
23.3848682171
 10
259.3894339023
 20
22.8372474079
 10
259.0094938924
 20
22.3383707326
 10
258.5896283047
 20
21.9074107521
 10
258.1459708209
 20
21.5609280736
  0
LWPOLYLINE
  5
224
330
1F
100
AcDbEntity
  8
0
  6
Continuous
 62
     7
370
    18
100
AcDbPolyline
 90
       18
 70
   128
 43
0.0
 10
256.0439039954
 20
21.1765458302
 10
255.8932606221
 20
21.2799640973
 10
255.6275905967
 20
21.5750137415
 10
255.4402109766
 20
21.9652158029
 10
255.3378942335
 20
22.4364674083
 10
255.3243400704
 20
22.9717372163
 10
255.4000358103
 20
23.5516777219
 10
255.5622484935
 20
24.1553300639
 10
255.8051131226
 20
24.7608752824
 10
256.1198526164
 20
25.3464280313
 10
256.4950919356
 20
25.8908247454
 10
256.9172683561
 20
26.3743897197
 10
257.3711240601
 20
26.7796457169
 10
257.8402540454
 20
27.0919449092
 10
258.3077040837
 20
27.3000007665
 10
258.7565792156
 20
27.396293706
 10
259.1706555386
 20
27.3773430904
 10
259.5047786314
 20
27.260336196
  0
LWPOLYLINE
  5
225
330
1F
100
AcDbEntity
  8
0
  6
Continuous
 62
     7
370
    18
100
AcDbPolyline
 90
       43
 70
   128
 43
0.0
 10
282.7899845445
 20
25.3710993836
 10
282.7457570246
 20
26.0270822932
 10
282.6140619525
 20
26.6173473628
 10
282.3978413756
 20
27.1287090783
 10
282.1019253888
 20
27.5497446911
 10
281.7329241324
 20
27.8710486512
 10
281.2990804436
 20
28.0854437919
 10
280.8100856278
 20
28.188140474
 10
280.2768632921
 20
28.176845067
 10
279.7113246957
 20
28.0518101626
 10
279.1261027802
 20
27.8158281834
 10
278.5342706419
 20
27.4741707624
 10
277.9490487264
 20
27.0344699002
 10
277.38351013
 20
26.5065478398
 10
276.8502877943
 20
25.9021978424
 10
276.3612929785
 20
25.2349197635
 10
275.9274492897
 20
24.5196193617
 10
275.5584480333
 20
23.7722756195
 10
275.2625320465
 20
23.0095826807
 10
275.0463114696
 20
22.248578001
 10
274.9146163975
 20
21.5062610375
 10
274.8703888776
 20
20.7992141204
 10
274.9146163975
 20
20.1432312108
 10
275.0463114696
 20
19.5529661411
 10
275.2625320465
 20
19.0416044257
 10
275.5584480333
 20
18.6205688129
 10
275.9274492897
 20
18.2992648528
 10
276.3612929785
 20
18.0848697121
 10
276.8502877943
 20
17.98217303
 10
277.38351013
 20
17.993468437
 10
277.9490487264
 20
18.1185033414
 10
278.5342706419
 20
18.3544853205
 10
279.1261027802
 20
18.6961427416
 10
279.7113246957
 20
19.1358436038
 10
280.2768632921
 20
19.6637656642
 10
280.8100856278
 20
20.2681156616
 10
281.2990804436
 20
20.9353937405
 10
281.7329241324
 20
21.6506941423
 10
282.1019253888
 20
22.3980378845
 10
282.3978413756
 20
23.1607308233
 10
282.6140619525
 20
23.921735503
 10
282.7457570246
 20
24.6640524665
 10
282.7899845445
 20
25.3710993836
  0
LWPOLYLINE
  5
226
330
1F
100
AcDbEntity
  8
0
  6
Continuous
 62
     7
370
    18
100
AcDbPolyline
 90
       23
 70
   128
 43
0.0
 10
275.5475883051
 20
18.0521448859
 10
275.1893091412
 20
18.3155958156
 10
274.8475522004
 20
18.7148155779
 10
274.5846497083
 20
19.2106614816
 10
274.4062052201
 20
19.7925656085
 10
274.3160218302
 20
20.4481256164
 10
274.3160218302
 20
21.1633694355
 10
274.4062052201
 20
21.923052969
 10
274.5846497083
 20
22.7109847166
 10
274.8475522004
 20
23.5103713766
 10
275.1893091412
 20
24.3041753038
 10
275.6026370284
 20
25.075478213
 10
276.0787261828
 20
25.807840864
 10
276.607429586
 20
26.4856539018
 10
277.1774789654
 20
27.0944719178
 10
277.7767245862
 20
27.6213178498
 10
278.3923946568
 20
28.054963913
 10
279.0113672048
 20
28.3861668785
 10
279.6204499165
 20
28.6078684051
 10
280.2066612951
 20
28.7153425192
 10
280.757507105
 20
28.7062993085
 10
281.2612472262
 20
28.5809313688
 10
281.4544832826
 20
28.4949946184
  0
LWPOLYLINE
  5
227
330
1F
100
AcDbEntity
  8
0
  6
Continuous
 62
     7
370
    18
100
AcDbPolyline
 90
       38
 70
   128
 43
0.0
 10
252.6672367871
 20
23.9015642373
 10
252.7106348701
 20
25.122328963
 10
252.840527506
 20
26.3846387859
 10
253.0560006348
 20
27.6796382015
 10
253.3555435555
 20
28.9982436222
 10
253.7370568283
 20
30.3312068757
 10
254.1978634696
 20
31.6691783218
 10
254.7347306844
 20
33.0027718705
 10
255.3438935739
 20
34.3226341813
 10
256.0210788428
 20
35.6195074
 10
256.7615364094
 20
36.8842941743
 10
257.5600729918
 20
38.1081241919
 10
258.4110870104
 20
39.2824123525
 10
259.3086094178
 20
40.3989211216
 10
260.2463448577
 20
41.4498200331
 10
261.2177154584
 20
42.4277383475
 10
262.2159075891
 20
43.3258148572
 10
263.2339202632
 20
44.1377524457
 10
264.2646124708
 20
44.8578545377
 10
265.3007547311
 20
45.4810685476
 10
266.3350792851
 20
46.0030270228
 10
267.3603310096
 20
46.4200648683
 10
268.3693184958
 20
46.7292594802
 10
269.354964695
 20
46.9284417318
 10
270.310355384
 20
47.0162133054
 10
271.2287898722
 20
46.9919599953
 10
272.1038256189
 20
46.8558500884
 10
272.9293249891
 20
46.6088400622
 10
273.699497401
 20
46.2526616539
 10
274.4089414725
 20
45.7898134909
 10
275.0526799243
 20
45.223541696
 10
275.6261984338
 20
44.5578189705
 10
276.125473294
 20
43.797314554
 10
276.5470023652
 20
42.9473622816
 10
276.8878294411
 20
42.0139244598
 10
277.1455640052
 20
41.0035483279
 10
277.3183990113
 20
39.92332195
 10
277.3966630748
 20
38.9755645339
  0
LWPOLYLINE
  5
228
330
1F
100
AcDbEntity
  8
0
  6
Continuous
 62
     7
370
    18
100
AcDbPolyline
 90
       24
 70
   128
 43
0.0
 10
269.0327717945
 20
19.8233866699
 10
268.3693184958
 20
19.2031066436
 10
267.3603310096
 20
18.3473491006
 10
266.3350792851
 20
17.5806565014
 10
265.3007547311
 20
16.908409266
 10
264.2646124708
 20
16.3353188862
 10
263.2339202632
 20
15.8654090854
 10
262.2159075891
 20
15.501974259
 10
261.2177154584
 20
15.247562666
 10
260.2463448577
 20
15.103960357
 10
259.3086094178
 20
15.0721729752
 10
258.4110870104
 20
15.15242443
 10
257.5600729918
 20
15.3441527191
 10
256.7615364094
 20
15.6460120234
 10
256.0210788428
 20
16.0558846886
 10
255.3438935739
 20
16.5708964383
 10
254.7347306844
 20
17.1874342476
 10
254.1978634696
 20
17.901174104
 10
253.7370568283
 20
18.7071095267
 10
253.3555435555
 20
19.5995869315
 10
253.0560006348
 20
20.5723474575
 10
252.840527506
 20
21.618566894
 10
252.7106348701
 20
22.7309058718
 10
252.6672367871
 20
23.9015642373
  0
LWPOLYLINE
  5
229
330
1F
100
AcDbEntity
  8
0
  6
Continuous
 62
     7
370
    18
100
AcDbPolyline
 90
       28
 70
   128
 43
0.0
 10
251.9601312071
 20
23.9015642373
 10
252.0036030471
 20
25.1403892843
 10
252.1337235394
 20
26.4209445868
 10
252.3496023316
 20
27.7344815781
 10
252.6497642842
 20
29.0720274098
 10
253.0321613236
 20
30.4244466432
 10
253.4941790283
 20
31.7824995192
 10
254.0326629699
 20
33.1369102076
 10
254.6439338604
 20
34.4784261213
 10
255.323815869
 20
35.7978829336
 10
256.0676655983
 20
37.0862684543
 10
256.8704010605
 20
38.334780422
 10
257.726539214
 20
39.5348915204
 10
258.6302315248
 20
40.6784033675
 10
259.575304797
 20
41.757503547
 10
260.5553033186
 20
42.7648226384
 10
261.5635326554
 20
43.6934769894
 10
262.5931055843
 20
44.5371256513
 10
263.6369892617
 20
45.2900052128
 10
264.6880527205
 20
45.9469709086
 10
265.7391161793
 20
46.5035372517
 10
266.7829998567
 20
46.9559001297
 10
267.8125727856
 20
47.300971069
 10
268.8208021225
 20
47.5363935321
 10
269.800800644
 20
47.6605566495
 10
270.7458739162
 20
47.6726148441
 10
271.6495662271
 20
47.5724839301
 10
271.9608075324
 20
47.5097074112
  0
LWPOLYLINE
  5
22A
330
1F
100
AcDbEntity
  8
0
  6
Continuous
 62
     7
370
    18
100
AcDbPolyline
 90
        9
 70
   128
 43
0.0
 10
254.2771087644
 20
16.7839073266
 10
254.0326629699
 20
17.0591125062
 10
253.4941790283
 20
17.7918028692
 10
253.0321613236
 20
18.616421458
 10
252.6497642842
 20
19.5273344673
 10
252.3496023316
 20
20.5183206853
 10
252.1337235394
 20
21.5826093284
 10
252.0036030471
 20
22.7129307084
 10
251.9601312071
 20
23.9015642373
  0
LWPOLYLINE
  5
22B
330
1F
100
AcDbEntity
  8
0
  6
Continuous
 62
     7
370
    18
100
AcDbPolyline
 90
       28
 70
   128
 43
0.0
 10
246.2817850889
 20
27.1796036763
 10
246.3252569289
 20
28.4184287233
 10
246.4553774212
 20
29.6989840258
 10
246.6712562134
 20
31.0125210171
 10
246.971418166
 20
32.3500668488
 10
247.3538152054
 20
33.7024860822
 10
247.8158329101
 20
35.0605389582
 10
248.3543168517
 20
36.4149496466
 10
248.9655877422
 20
37.7564655603
 10
249.6454697508
 20
39.0759223726
 10
250.3893194802
 20
40.3643078933
 10
251.1920549423
 20
41.612819861
 10
252.0481930958
 20
42.8129309594
 10
252.9518854066
 20
43.9564428065
 10
253.8969586788
 20
45.035542986
 10
254.8769572004
 20
46.0428620774
 10
255.8851865372
 20
46.9715164285
 10
256.9147594661
 20
47.8151650903
 10
257.9586431435
 20
48.5680446518
 10
259.0097066023
 20
49.2250103476
 10
260.0607700612
 20
49.7815766907
 10
261.1046537385
 20
50.2339395687
 10
262.1342266674
 20
50.579010508
 10
263.1424560043
 20
50.8144329711
 10
264.1224545258
 20
50.9385960885
 10
265.067527798
 20
50.9506542831
 10
265.9712201089
 20
50.8505233691
 10
266.2824614142
 20
50.7877468502
  0
LWPOLYLINE
  5
22C
330
1F
100
AcDbEntity
  8
0
  6
Continuous
 62
     7
370
    18
100
AcDbPolyline
 90
        9
 70
   128
 43
0.0
 10
248.5987626462
 20
20.0619467656
 10
248.3543168517
 20
20.3371519452
 10
247.8158329101
 20
21.0698423082
 10
247.3538152054
 20
21.894460897
 10
246.971418166
 20
22.8053739063
 10
246.6712562134
 20
23.7963601243
 10
246.4553774212
 20
24.8606487674
 10
246.3252569289
 20
25.9909701474
 10
246.2817850889
 20
27.1796036763
  0
LWPOLYLINE
  5
22D
330
1F
100
AcDbEntity
  8
0
  6
Continuous
 62
     7
370
    18
100
AcDbPolyline
 90
       25
 70
   128
 43
0.0
 10
266.8093737411
 20
23.901563667
 10
266.8529137405
 20
24.7098256929
 10
266.9828188887
 20
25.5550863057
 10
267.19695616
 20
26.4234663548
 10
267.491809256
 20
27.3007071582
 10
267.8625368867
 20
28.1724041018
 10
268.3030517961
 20
29.0242447046
 10
268.8061205312
 20
29.8422407403
 10
269.3634828036
 20
30.6129615932
 10
269.9659866557
 20
31.3237516434
 10
270.6037391026
 20
31.9629400443
 10
271.2662682164
 20
32.5200308718
 10
271.9426953256
 20
32.985876677
 10
272.6219134904
 20
33.3528290475
 10
273.2927699407
 20
33.614861797
 10
273.944249254
 20
33.7676729095
 10
274.5656541566
 20
33.8087527918
 10
275.1467813247
 20
33.7374275856
 10
275.6780884483
 20
33.5548677782
 10
276.1508516237
 20
33.2640710774
 10
276.5573079282
 20
32.8698127778
 10
276.8907833425
 20
32.3785659956
 10
277.1458027276
 20
31.7983974743
 10
277.3181780696
 20
31.1388334502
 10
277.3626133603
 20
30.8603841771
  0
LWPOLYLINE
  5
22E
330
1F
100
AcDbEntity
  8
0
  6
Continuous
 62
     7
370
    18
100
AcDbPolyline
 90
       13
 70
   128
 43
0.0
 10
271.3631010948
 20
20.4677978025
 10
271.2662682164
 20
20.4289172916
 10
270.6037391026
 20
20.2210682865
 10
269.9659866557
 20
20.1239233856
 10
269.3634828036
 20
20.1390772951
 10
268.8061205312
 20
20.266281366
 10
268.3030517961
 20
20.5034466035
 10
267.8625368867
 20
20.8466795179
 10
267.491809256
 20
21.29034345
 10
267.19695616
 20
21.827154115
 10
266.9828188887
 20
22.4482965332
 10
266.8529137405
 20
23.1435718545
 10
266.8093737411
 20
23.901563667
  0
LWPOLYLINE
  5
22F
330
1F
100
AcDbEntity
  8
0
  6
Continuous
 62
     7
370
    18
100
AcDbPolyline
 90
       20
 70
   128
 43
0.0
 10
266.1022658561
 20
23.9015638571
 10
266.1468723684
 20
24.7460322292
 10
266.279986604
 20
25.628683313
 10
266.4995104401
 20
26.5355979828
 10
266.8019812497
 20
27.4524732072
 10
267.1826291949
 20
28.364849612
 10
267.6354509841
 20
29.2583380916
 10
268.1533056897
 20
30.1188481288
 10
268.7280263722
 20
30.9328086989
 10
269.3505489895
 20
31.6873833733
 10
270.0110562894
 20
32.3706723993
 10
270.6991315795
 20
32.9718988088
 10
271.4039235691
 20
33.4815819074
 10
272.1143171795
 20
33.8916834094
 10
272.8191091692
 20
34.1957358213
 10
273.5071844593
 20
34.3889442316
 10
274.1676917592
 20
34.4682607016
 10
274.7902143765
 20
34.4324353421
 10
275.3649350589
 20
34.2820331478
 10
275.7587953826
 20
34.0955873442
  0
ARC
  5
230
330
1F
100
AcDbEntity
  8
0
  6
Continuous
 62
     7
370
    18
100
AcDbCircle
 10
270.1535615282
 20
23.5282667953
 30
0.0
 40
4.068457609339857
100
AcDbArc
 50
174.7354813223
 51
233.9523452332
  0
LWPOLYLINE
  5
231
330
1F
100
AcDbEntity
  8
0
  6
Continuous
 62
     7
370
    18
100
AcDbPolyline
 90
       13
 70
   128
 43
0.0
 10
268.7539173788
 20
25.0241248147
 10
268.7974122679
 20
25.6714000827
 10
268.9267708241
 20
26.3521295622
 10
269.1386427023
 20
27.0486827583
 10
269.4275404157
 20
27.743019392
 10
269.7859815816
 20
28.4171560736
 10
270.2046828627
 20
29.0536335411
 10
270.6728001712
 20
29.6359670224
 10
271.1782095381
 20
30.1490743488
 10
271.7078210331
 20
30.5796668755
 10
272.2479179972
 20
30.916591895
 10
272.7845122042
 20
31.15112322
 10
273.1875251441
 20
31.2581974578
  0
ARC
  5
232
330
1F
100
AcDbEntity
  8
0
  6
Continuous
 62
     7
370
    18
100
AcDbCircle
 10
272.049047754
 20
24.9517104852
 30
0.0
 40
3.295925973786584
100
AcDbArc
 50
178.7410611274
 51
198.8946147614
  0
LWPOLYLINE
  5
233
330
1F
100
AcDbEntity
  8
0
  6
Continuous
 62
     7
370
    18
100
AcDbPolyline
 90
       21
 70
   128
 43
0.0
 10
245.988891492
 20
29.195810237
 10
246.0324370891
 20
30.3566604541
 10
246.1627353883
 20
31.5587032697
 10
246.3787649873
 20
32.7925304277
 10
246.6788360607
 20
34.0484862043
 10
247.0605995803
 20
35.316740126
 10
247.5210677298
 20
36.5873665311
 10
248.0566369534
 20
37.8504223254
 10
248.663116274
 20
39.0960207438
 10
249.3357575858
 20
40.3144138579
 10
250.0692984594
 20
41.4960663373
 10
250.8579963869
 20
42.631729971
 10
251.6956798183
 20
43.712517238
 10
252.5757919552
 20
44.7299684137
 10
253.49144541
 20
45.6761211474
 10
254.435473572
 20
46.5435712942
 10
255.4004880658
 20
47.3255281385
 10
256.3789364559
 20
48.0158728015
 10
257.3631611251
 20
48.6092021167
 10
258.3454590989
 20
49.1008738128
 10
258.7728413137
 20
49.283080163
  0
LWPOLYLINE
  5
234
330
1F
100
AcDbEntity
  8
0
  6
Continuous
 62
     7
370
    18
100
AcDbPolyline
 90
        3
 70
   128
 43
0.0
 10
246.1546715108
 20
27.0816751439
 10
246.0324370891
 20
28.0852366961
 10
245.988891492
 20
29.195810237
  0
ARC
  5
235
330
1F
100
AcDbEntity
  8
0
  6
Continuous
 62
     7
370
    18
100
AcDbCircle
 10
262.2937872444
 20
26.4431914155
 30
0.0
 40
2.805636983821778
100
AcDbArc
 50
221.872468623
 51
259.9722095081
  0
LWPOLYLINE
  5
236
330
1F
100
AcDbEntity
  8
0
  6
Continuous
 62
     7
370
    18
100
AcDbPolyline
 90
       23
 70
   128
 43
0.0
 10
259.2048656087
 20
27.4344466272
 10
259.1985778257
 20
27.8282544404
 10
259.2517375141
 20
28.6879629992
 10
259.3938053208
 20
29.5849181202
 10
259.6225724876
 20
30.5051803278
 10
259.9344845205
 20
31.4344492608
 10
260.324694532
 20
32.3582845639
 10
260.787138315
 20
33.2623288865
 10
261.3146298317
 20
34.1325341115
 10
261.8989718494
 20
34.955377126
 10
262.531083204
 20
35.7180709333
 10
263.2011415395
 20
36.4087634051
 10
263.898733621
 20
37.0167206342
 10
264.6130192706
 20
37.5324957182
 10
265.3328983914
 20
37.9480730888
 10
266.047184041
 20
38.2569946618
 10
266.7447761224
 20
38.4544601059
 10
267.414834458
 20
38.5374005211
 10
268.0469458126
 20
38.5045269492
 10
268.6312878303
 20
38.3563508676
 10
269.158779347
 20
38.0951743844
 10
269.62122313
 20
37.7250562886
 10
269.8008556325
 20
37.5307050424
  0
LWPOLYLINE
  5
237
330
1F
100
AcDbEntity
  8
0
  6
Continuous
 62
     7
370
    18
100
AcDbPolyline
 90
       20
 70
   128
 43
0.0
 10
260.0092681763
 20
26.690693078
 10
259.9605645294
 20
27.2043508107
 10
259.9618842526
 20
28.0075809417
 10
260.0501855222
 20
28.8545212809
 10
260.2240788094
 20
29.7318470091
 10
260.4808288494
 20
30.6257561716
 10
260.8163958011
 20
31.5221847665
 10
261.2255007716
 20
32.4070297445
 10
261.701707147
 20
33.2663702954
 10
262.2375233248
 20
34.0866872329
 10
262.8245192769
 20
34.8550740112
 10
263.4534603982
 20
35.5594428936
 10
264.1144514814
 20
36.1887118699
 10
264.797093697
 20
36.7329812119
 10
265.4906472542
 20
37.1836878318
 10
266.1842008114
 20
37.5337411044
 10
266.866843027
 20
37.777633688
 10
267.5278341101
 20
37.9115287719
 10
268.1567752315
 20
37.9333198515
 10
268.5945881327
 20
37.8772334155
  0
ARC
  5
238
330
1F
100
AcDbEntity
  8
0
  6
Continuous
 62
     7
370
    18
100
AcDbCircle
 10
262.7113851389
 20
26.6228345256
 30
0.0
 40
2.831219135528418
100
AcDbArc
 50
211.1685015739
 51
237.063804295
  0
LWPOLYLINE
  5
239
330
1F
100
AcDbEntity
  8
0
  6
Continuous
 62
     7
370
    18
100
AcDbPolyline
 90
       22
 70
   128
 43
0.0
 10
259.6816340518
 20
27.1044493969
 10
259.6633426488
 20
27.3322031902
 10
259.6587489716
 20
28.1352837559
 10
259.7420074366
 20
28.9833411179
 10
259.911793711
 20
29.8628885436
 10
260.1654080913
 20
30.7599390923
 10
260.4988166634
 20
31.6602264785
 10
260.9067181438
 20
32.5494337746
 10
261.3826252107
 20
33.4134202116
 10
261.9189695412
 20
34.2384458857
 10
262.507221667
 20
35.0113901904
 10
263.1380269632
 20
35.7199611207
 10
263.8013536567
 20
36.3528906037
 10
264.4866530171
 20
36.9001132866
 10
265.1830266265
 20
37.3529265994
 10
265.8794002359
 20
37.7041291421
 10
266.5646995963
 20
37.9481362588
 10
267.2280262898
 20
38.0810674745
 10
267.8588315861
 20
38.1008088366
 10
268.4470837118
 20
38.0070459795
 10
268.9834280423
 20
37.8012702883
 10
268.9938416067
 20
37.7958882757
  0
ARC
  5
23A
330
1F
100
AcDbEntity
  8
0
  6
Continuous
 62
     7
370
    18
100
AcDbCircle
 10
263.2748790918
 20
26.7280691313
 30
0.0
 40
3.227918336526669
100
AcDbArc
 50
202.9012797562
 51
225.6992362845
  0
LWPOLYLINE
  5
23B
330
1F
100
AcDbEntity
  8
0
  6
Continuous
 62
     7
370
    18
100
AcDbPolyline
 90
       21
 70
   128
 43
0.0
 10
259.9554973587
 20
26.7728042188
 10
259.9131631543
 20
27.2354686573
 10
259.9139148828
 20
28.0377415613
 10
260.00162906
 20
28.8837940201
 10
260.1749243888
 20
29.7603018315
 10
260.4310721899
 20
30.6534612342
 10
260.7660378904
 20
31.5492054689
 10
261.1745465489
 20
32.433428254
 10
261.6501641854
 20
33.2922030759
 10
262.1854005148
 20
34.1120058047
 10
262.7718260027
 20
34.879925237
 10
263.4002055502
 20
35.5838680277
 10
264.0606424682
 20
36.2127467485
 10
264.7427357046
 20
36.7566584867
 10
265.4357430815
 20
37.2070364954
 10
266.1287504583
 20
37.5567877728
 10
266.8108436947
 20
37.8004041223
 10
267.4712806127
 20
37.9340496362
 10
268.0996601602
 20
37.9556184282
 10
268.6860856481
 20
37.8647714523
 10
268.7697283739
 20
37.8415499037
  0
LWPOLYLINE
  5
23C
330
1F
100
AcDbEntity
  8
0
  6
Continuous
 62
     7
370
    18
100
AcDbPolyline
 90
       28
 70
   128
 43
0.0
 10
238.4278740866
 20
33.560692676
 10
238.4714196837
 20
34.7215428931
 10
238.6017179829
 20
35.9235857087
 10
238.8177475819
 20
37.1574128667
 10
239.1178186553
 20
38.4133686433
 10
239.4995821749
 20
39.681622565
 10
239.9600503243
 20
40.9522489701
 10
240.495619548
 20
42.2153047644
 10
241.1020988686
 20
43.4609031828
 10
241.7747401803
 20
44.679296297
 10
242.508281054
 20
45.8609487763
 10
243.2969789814
 20
46.99661241
 10
244.1346624128
 20
48.077399677
 10
245.0147745498
 20
49.0948508527
 10
245.9304280046
 20
50.0410035864
 10
246.8744561666
 20
50.9084537332
 10
247.8394706603
 20
51.6904105775
 10
248.8179190505
 20
52.3807552405
 10
249.8021437197
 20
52.9740845558
 10
250.7844416935
 20
53.4657562518
 10
251.7571252673
 20
53.8519201491
 10
252.712581646
 20
54.129555631
 10
253.6433335508
 20
54.2964891407
 10
254.5420959975
 20
54.351414031
 10
255.4018350723
 20
54.29390092
 10
256.2158224259
 20
54.1243994926
 10
256.9776879574
 20
53.8442369739
 10
257.4240777423
 20
53.6142482199
  0
LWPOLYLINE
  5
23D
330
1F
100
AcDbEntity
  8
0
  6
Continuous
 62
     7
370
    18
100
AcDbPolyline
 90
       10
 70
   128
 43
0.0
 10
241.6878564278
 20
26.3553598261
 10
241.1020988686
 20
26.7480763813
 10
240.495619548
 20
27.2934486808
 10
239.9600503243
 20
27.9381494115
 10
239.4995821749
 20
28.6771306077
 10
239.1178186553
 20
29.5046097518
 10
238.8177475819
 20
30.4141108415
 10
238.6017179829
 20
31.3985155337
 10
238.4714196837
 20
32.4501191351
 10
238.4278740866
 20
33.560692676
  0
LWPOLYLINE
  5
23E
330
1F
100
AcDbEntity
  8
0
  6
Continuous
 62
     7
370
    18
100
AcDbPolyline
 90
       13
 70
   128
 43
0.0
 10
243.0519555251
 20
30.2250560483
 10
242.919640104
 20
31.0172883805
 10
242.8367609606
 20
32.0703512809
 10
242.8468182523
 20
33.1811563435
 10
242.9497184659
 20
34.3392124688
 10
243.144488931
 20
35.5335806319
 10
243.4292903329
 20
36.7529797285
 10
243.8014325173
 20
37.9858920401
 10
244.2574001735
 20
39.2206717876
 10
244.7928864206
 20
40.4456553952
 10
245.4028336366
 20
41.6492736552
 10
246.0814802157
 20
42.8201559065
 10
246.8224165441
 20
43.9472444795
  0
LWPOLYLINE
  5
23F
330
1F
100
AcDbEntity
  8
0
  6
Continuous
 62
     7
370
    18
100
AcDbPolyline
 90
       17
 70
   128
 43
0.0
 10
243.563751292
 20
27.2951283473
 10
243.2071678802
 20
27.8399585626
 10
242.8112891176
 20
28.6420730309
 10
242.502560818
 20
29.5334863725
 10
242.2838120888
 20
30.5060299999
 10
242.1570475394
 20
31.5507930962
 10
242.1234281837
 20
32.6582020613
 10
242.1832628792
 20
33.8181103662
 10
242.3360030582
 20
35.0198896669
 10
242.5802486551
 20
36.2525278552
 10
242.9137625943
 20
37.5047306513
 10
243.3334879121
 20
38.7650239074
 10
243.8355793671
 20
40.0218603554
 10
244.4154357089
 20
41.263722456
 10
245.067744459
 20
42.4792319016
 10
245.7865286673
 20
43.6572515135
 10
246.5652015717
 20
44.7869863785
  0
LINE
  5
240
330
1F
100
AcDbEntity
  8
0
  6
Continuous
 62
     7
370
    18
100
AcDbLine
 10
249.5571250172
 20
46.1880069459
 30
0.0
 11
249.5990769366
 21
46.2319722133
 31
0.0
  0
ARC
  5
241
330
1F
100
AcDbEntity
  8
0
  6
Continuous
 62
     7
370
    18
100
AcDbCircle
 10
259.6483301769
 20
37.0041142781
 30
0.0
 40
14.35349360837216
100
AcDbArc
 50
109.931969941
 51
139.4246766989
  0
LWPOLYLINE
  5
242
330
1F
100
AcDbEntity
  8
0
  6
Continuous
 62
     7
370
    18
100
AcDbPolyline
 90
       12
 70
   128
 43
0.0
 10
247.9093946332
 20
46.4591498958
 10
248.7774771377
 20
47.38552194
 10
249.67585697
 20
48.2349956053
 10
250.5968564891
 20
49.0003090013
 10
251.5326043594
 20
49.6749234087
 10
252.4751031136
 20
50.2530721677
 10
253.4162979084
 20
50.7298140593
 10
254.348144808
 20
51.1010750047
 10
255.2626798896
 20
51.3636818762
 10
256.152087053
 20
51.515390996
 10
257.0087648837
 20
51.554904682
 10
257.5483581435
 20
51.5198029848
  0
LINE
  5
243
330
1F
100
AcDbEntity
  8
0
  6
Continuous
 62
     7
370
    18
100
AcDbLine
 10
233.9415098731
 20
43.9333002748
 30
0.0
 11
234.2476738003
 21
43.5625652189
 31
0.0
  0
LINE
  5
244
330
1F
100
AcDbEntity
  8
0
  6
Continuous
 62
     7
370
    18
100
AcDbLine
 10
233.9415098731
 20
36.1691901271
 30
0.0
 11
234.2476738003
 21
36.8567235956
 31
0.0
  0
LINE
  5
245
330
1F
100
AcDbEntity
  8
0
  6
Continuous
 62
     7
370
    18
100
AcDbLine
 10
234.9835841171
 20
37.2815555787
 30
0.0
 11
234.2476810443
 21
36.8567277775
 31
0.0
  0
LINE
  5
246
330
1F
100
AcDbEntity
  8
0
  6
Continuous
 62
     7
370
    18
100
AcDbLine
 10
234.9170085601
 20
38.0247815464
 30
0.0
 11
233.607737126
 21
37.2689552357
 31
0.0
  0
LINE
  5
247
330
1F
100
AcDbEntity
  8
0
  6
Continuous
 62
     7
370
    18
100
AcDbLine
 10
230.4306582944
 20
38.8433641954
 30
0.0
 11
230.1341710202
 21
38.3473025776
 31
0.0
  0
LINE
  5
248
330
1F
100
AcDbEntity
  8
0
  6
Continuous
 62
     7
370
    18
100
AcDbLine
 10
232.2624759052
 20
39.900849993
 30
0.0
 11
230.4307188805
 21
38.843399171
 31
0.0
  0
LINE
  5
249
330
1F
100
AcDbEntity
  8
0
  6
Continuous
 62
     7
370
    18
100
AcDbLine
 10
232.2624759052
 20
39.900849993
 30
0.0
 11
232.3837860598
 21
39.8390994796
 31
0.0
  0
OLE2FRAME
  5
24A
330
1F
100
AcDbEntity
  8
0
100
AcDbOle2Frame
 70
     2
  3
Paintbrush-Bild
 10
13.8511154363
 20
38.264191557
 30
0.0
 11
51.6290888628
 21
31.9806341108
 31
0.0
 71
     2
 72
     0
 73
     1
 90
    12928
310
80552BED0767C5B32B40DDAF6807D121434000000000000000006FFBDDFB85D0
310
4940DDAF6807D121434000000000000000006FFBDDFB85D04940416F4BD60AFB
310
3F4000000000000000002BED0767C5B32B40416F4BD60AFB3F40000000000000
310
0000000000000100000000010000010000000100000000000100000000320000
310
D0CF11E0A1B11AE1000000000000000000000000000000003E000300FEFF0900
310
0600000000000000000000000100000001000000000000000010000002000000
310
01000000FEFFFFFF0000000000000000FFFFFFFFFFFFFFFFFFFFFFFFFFFFFFFF
310
FFFFFFFFFFFFFFFFFFFFFFFFFFFFFFFFFFFFFFFFFFFFFFFFFFFFFFFFFFFFFFFF
310
FFFFFFFFFFFFFFFFFFFFFFFFFFFFFFFFFFFFFFFFFFFFFFFFFFFFFFFFFFFFFFFF
310
FFFFFFFFFFFFFFFFFFFFFFFFFFFFFFFFFFFFFFFFFFFFFFFFFFFFFFFFFFFFFFFF
310
FFFFFFFFFFFFFFFFFFFFFFFFFFFFFFFFFFFFFFFFFFFFFFFFFFFFFFFFFFFFFFFF
310
FFFFFFFFFFFFFFFFFFFFFFFFFFFFFFFFFFFFFFFFFFFFFFFFFFFFFFFFFFFFFFFF
310
FFFFFFFFFFFFFFFFFFFFFFFFFFFFFFFFFFFFFFFFFFFFFFFFFFFFFFFFFFFFFFFF
310
FFFFFFFFFFFFFFFFFFFFFFFFFFFFFFFFFFFFFFFFFFFFFFFFFFFFFFFFFFFFFFFF
310
FFFFFFFFFFFFFFFFFFFFFFFFFFFFFFFFFFFFFFFFFFFFFFFFFFFFFFFFFFFFFFFF
310
FFFFFFFFFFFFFFFFFFFFFFFFFFFFFFFFFFFFFFFFFFFFFFFFFFFFFFFFFFFFFFFF
310
FFFFFFFFFFFFFFFFFFFFFFFFFFFFFFFFFFFFFFFFFFFFFFFFFFFFFFFFFFFFFFFF
310
FFFFFFFFFFFFFFFFFFFFFFFFFFFFFFFFFFFFFFFFFFFFFFFFFFFFFFFFFFFFFFFF
310
FFFFFFFFFFFFFFFFFFFFFFFFFFFFFFFFFFFFFFFFFFFFFFFFFFFFFFFFFFFFFFFF
310
FFFFFFFFFFFFFFFFFFFFFFFFFFFFFFFFFFFFFFFFFFFFFFFFFFFFFFFFFFFFFFFF
310
FDFFFFFFFEFFFFFFFEFFFFFFFEFFFFFF05000000060000000700000008000000
310
090000000A0000000B0000000C0000000D0000000E0000000F00000010000000
310
11000000120000001300000014000000150000001600000017000000FEFFFFFF
310
FFFFFFFFFFFFFFFFFFFFFFFFFFFFFFFFFFFFFFFFFFFFFFFFFFFFFFFFFFFFFFFF
310
FFFFFFFFFFFFFFFFFFFFFFFFFFFFFFFFFFFFFFFFFFFFFFFFFFFFFFFFFFFFFFFF
310
FFFFFFFFFFFFFFFFFFFFFFFFFFFFFFFFFFFFFFFFFFFFFFFFFFFFFFFFFFFFFFFF
310
FFFFFFFFFFFFFFFFFFFFFFFFFFFFFFFFFFFFFFFFFFFFFFFFFFFFFFFFFFFFFFFF
310
FFFFFFFFFFFFFFFFFFFFFFFFFFFFFFFFFFFFFFFFFFFFFFFFFFFFFFFFFFFFFFFF
310
FFFFFFFFFFFFFFFFFFFFFFFFFFFFFFFFFFFFFFFFFFFFFFFFFFFFFFFFFFFFFFFF
310
FFFFFFFFFFFFFFFFFFFFFFFFFFFFFFFFFFFFFFFFFFFFFFFFFFFFFFFFFFFFFFFF
310
FFFFFFFFFFFFFFFFFFFFFFFFFFFFFFFFFFFFFFFFFFFFFFFFFFFFFFFFFFFFFFFF
310
FFFFFFFFFFFFFFFFFFFFFFFFFFFFFFFFFFFFFFFFFFFFFFFFFFFFFFFFFFFFFFFF
310
FFFFFFFFFFFFFFFFFFFFFFFFFFFFFFFFFFFFFFFFFFFFFFFFFFFFFFFFFFFFFFFF
310
FFFFFFFFFFFFFFFFFFFFFFFFFFFFFFFFFFFFFFFFFFFFFFFFFFFFFFFFFFFFFFFF
310
FFFFFFFFFFFFFFFFFFFFFFFFFFFFFFFFFFFFFFFFFFFFFFFFFFFFFFFFFFFFFFFF
310
FFFFFFFFFFFFFFFFFFFFFFFFFFFFFFFFFFFFFFFFFFFFFFFFFFFFFFFFFFFFFFFF
310
52006F006F007400200045006E00740072007900000000000000000000000000
310
0000000000000000000000000000000000000000000000000000000000000000
310
16000500FFFFFFFFFFFFFFFF020000000A00030000000000C000000000000046
310
00000000000000000000000040040DAB93A9D30103000000C000000000000000
310
01004F006C006500000000000000000000000000000000000000000000000000
310
0000000000000000000000000000000000000000000000000000000000000000
310
0A000200FFFFFFFFFFFFFFFFFFFFFFFF00000000000000000000000000000000
310
0000000000000000000000000000000000000000000000001400000000000000
310
010043006F006D0070004F0062006A0000000000000000000000000000000000
310
0000000000000000000000000000000000000000000000000000000000000000
310
120002010100000003000000FFFFFFFF00000000000000000000000000000000
310
0000000000000000000000000000000000000000010000004D00000000000000
310
01004F006C006500310030004E00610074006900760065000000000000000000
310
0000000000000000000000000000000000000000000000000000000000000000
310
1A000200FFFFFFFFFFFFFFFFFFFFFFFF00000000000000000000000000000000
310
0000000000000000000000000000000000000000040000002426000000000000
310
FEFFFFFF02000000FEFFFFFFFFFFFFFFFFFFFFFFFFFFFFFFFFFFFFFFFFFFFFFF
310
FFFFFFFFFFFFFFFFFFFFFFFFFFFFFFFFFFFFFFFFFFFFFFFFFFFFFFFFFFFFFFFF
310
FFFFFFFFFFFFFFFFFFFFFFFFFFFFFFFFFFFFFFFFFFFFFFFFFFFFFFFFFFFFFFFF
310
FFFFFFFFFFFFFFFFFFFFFFFFFFFFFFFFFFFFFFFFFFFFFFFFFFFFFFFFFFFFFFFF
310
FFFFFFFFFFFFFFFFFFFFFFFFFFFFFFFFFFFFFFFFFFFFFFFFFFFFFFFFFFFFFFFF
310
FFFFFFFFFFFFFFFFFFFFFFFFFFFFFFFFFFFFFFFFFFFFFFFFFFFFFFFFFFFFFFFF
310
FFFFFFFFFFFFFFFFFFFFFFFFFFFFFFFFFFFFFFFFFFFFFFFFFFFFFFFFFFFFFFFF
310
FFFFFFFFFFFFFFFFFFFFFFFFFFFFFFFFFFFFFFFFFFFFFFFFFFFFFFFFFFFFFFFF
310
FFFFFFFFFFFFFFFFFFFFFFFFFFFFFFFFFFFFFFFFFFFFFFFFFFFFFFFFFFFFFFFF
310
FFFFFFFFFFFFFFFFFFFFFFFFFFFFFFFFFFFFFFFFFFFFFFFFFFFFFFFFFFFFFFFF
310
FFFFFFFFFFFFFFFFFFFFFFFFFFFFFFFFFFFFFFFFFFFFFFFFFFFFFFFFFFFFFFFF
310
FFFFFFFFFFFFFFFFFFFFFFFFFFFFFFFFFFFFFFFFFFFFFFFFFFFFFFFFFFFFFFFF
310
FFFFFFFFFFFFFFFFFFFFFFFFFFFFFFFFFFFFFFFFFFFFFFFFFFFFFFFFFFFFFFFF
310
FFFFFFFFFFFFFFFFFFFFFFFFFFFFFFFFFFFFFFFFFFFFFFFFFFFFFFFFFFFFFFFF
310
FFFFFFFFFFFFFFFFFFFFFFFFFFFFFFFFFFFFFFFFFFFFFFFFFFFFFFFFFFFFFFFF
310
FFFFFFFFFFFFFFFFFFFFFFFFFFFFFFFFFFFFFFFFFFFFFFFFFFFFFFFFFFFFFFFF
310
0100000200000000000000000000000000000000000000000000000000000000
310
0000000000000000000000000000000000000000000000000000000000000000
310
0100FEFF030A0000FFFFFFFF0A00030000000000C00000000000004607000000
310
5042727573680007000000504272757368000700000050427275736800F439B2
310
7100000000000000000000000000000000000000000000000000000000000000
310
0000000000000000000000000000000000000000000000000000000000000000
310
0000000000000000000000000000000000000000000000000000000000000000
310
0000000000000000000000000000000000000000000000000000000000000000
310
0000000000000000000000000000000000000000000000000000000000000000
310
0000000000000000000000000000000000000000000000000000000000000000
310
0000000000000000000000000000000000000000000000000000000000000000
310
0000000000000000000000000000000000000000000000000000000000000000
310
0000000000000000000000000000000000000000000000000000000000000000
310
0000000000000000000000000000000000000000000000000000000000000000
310
0000000000000000000000000000000000000000000000000000000000000000
310
0000000000000000000000000000000000000000000000000000000000000000
310
20260000424D0E260000000000003E00000028000000B40200006E0000000100
310
01000000000000000000130B0000130B00000200000002000000000000FFFFFF
310
FFFFFFFFFFFFFFFFFFFFFFFFFFFFFFFFFFFFFFFFFFFFFFFFFFFFFFFFFFFFFFFF
310
FFFFFFFFFFFFFFFFFFFFFFFFFFFFFFFFFFFFFFFFFFFFFFFFFFFFFFFFFFFFFFFF
310
FFFFFFFFFFFFFFFFFFFFFFFFFFFFFFFFFFFFFFFFFFFFFFFFF000FFFFFFFFFFFF
310
FFFFFFFFFFFFFFFFFFFFFFFFFFFFFFFFFFFFFFFFFFFFFFFFFFFFFFFFFFFFFFFF
310
FFFFFFFFFFFFFFFFFFFFFFFFFFFFFFFFFFFFFFFFFFFFFFFFFFFFFFFFFFFFFFFF
310
FFFFFFFFFFFFFFFFFFFFFFFFFFFFFFFFF000FFFFFFFFFFFFFFFFFFFFFFFFFFFF
310
FFFFFFFFFFFFFFFFFFFFFFFFFFFFFFFFFFFFFFFFFFFFFFFFFFFFFFFFFFFFFFFF
310
FFFFFFFFFFFFFFFFFFFFFFFFFFFFFFFFFFFFFFFFFFFFFFFFFFFFFFFFFFFFFFFF
310
FFFFFFFFFFFFFFFFF000FFFFFFFFFFFFFFFFFFFFFFFFFFFFFFFFFFFFFFFFFFFF
310
FFFFFFFFFFFFFFFFFFFFFFFFFFFFFFFFFFFFFFFFFFFFFFFFFFFFFFFFFFFFFFFF
310
FFFFFFFFFFFFFFFFFFFFFFFFFFFFFFFFFFFFFFFFFFFFFFFFFFFFFFFFFFFFFFFF
310
F000FFFFFFFFFFFFFFFFFFFFFFFFFFFFFFFFFFFFFFFFFFFFFFFFFFFFFFFFFFFF
310
FFFFFFFFFFFFFFFFFFFFFFFFFFFFFFFFFFFFFFFFFFFFFFFFFFFFFFFFFFFFFFFF
310
FFFFFFFFFFFFFFFFFFFFFFFFFFFFFFFFFFFFFFFFFFFFFFFFF000FFFFFFFFFFFF
310
FFFFFFFFFFFFFFFFFFFFFFFFFFFFFFFFFFFFFFFFFFFFFFFFFFFFFFFFFFFFFFFF
310
FFFFFFFFFFFFFFFFFFFFFFFFFFFFFFFFFFFFFFFFFFFFFFFFFFFFFFFFFFFFFFFF
310
FFFFFFFFFFFFFFFFFFFFFFFFFFFFFFFFF000FFFFFFFFFFFFFFFFFFFFFFFFFFFF
310
FFFFFFFFFFFFFFFFFFFFFFFFFFFFFFFFFFFFFFFFFFFFFFFFFFFFFFFFFFFFFFFF
310
FFFFFFFFFFFFFFFFFFFFFFFFFFFFFFFFFFFFFFFFFFFFFFFFFFFFFFFFFFFFFFFF
310
FFFFFFFFFFFFFFFFF000FFFFFFFFFFFFFFFFFFFFFFFFFFFFFFFFFFFFFFFFFFFF
310
FFFFFFFFFFFFFFFFFFFFFFFFFFFFFFFFFFFFFFFFFFFFFFFFFFFFFFFFFFFFFFFF
310
FFFFFFFFFFFFFFFFFFFFFFFFFFFFFFFFFFFFFFFFFFFFFFFFFFFFFFFFFFFFFFFF
310
F000FFFFFFFFFFFFFFFFFFFFFFFFFFFFFFFFFFFFFFFFFFFFFFFFFFFFFFFFFFFF
310
FFFFFFFFFFFFFFFFFFFFFFFFFFFFFFFFFFFFFFFFFFFFFFFFFFFFFFFFFFFFFFFF
310
FFFFFFFFFFFFFFFFFFFFFFFFFFFFFFFFFFFFFFFFFFFFFFFFF000FFFFFFFFFFFF
310
FFFFFFFFFFFFFFFFFFFFFFFFFFFFFFFFFFFFFFFFFFFFFFFFFFFFFFFFFFFFFFFF
310
FFFFFFFFFFFFFFFFFFFFFFFFFFFFFFFFFFFFFFFFFFFFFFFFFFFFFFFFFFFFFFFF
310
FFFFFFFFFFFFFFFFFFFFFFFFFFFFFFFFF000FFFFFFFFFFFFFFFFFFFFFFFFFFFF
310
FFFFFFFFFFFFFFFFFFFFFFFFFFFFFFFFFFFFFFFFFFFFFFFFFFFFFFFFFFFFFFFF
310
FFFFFFFFFFFFFFFFFFFFFFFFFFFFFFFFFFFFFFFFFFFFFFFFFFFFFFFFFFFFFFFF
310
FFFFFFFFFFFFFFFFF000FFFFFFFFFFFFFFFFFFFFFFFFFFFFFFFFFFFFFFFFFFFF
310
FFFFFFFFFFFFFFFFFFFFFFFFFFFFFFFFFFFFFFFFFFFFFFFFFFFFFFFFFFFFFFFF
310
FFFFFFFFFFFFFFFFFFFFFFFFFFFFFFFFFFFFFFFFFFFFFFFFFFFFFFFFFFFFFFFF
310
F000FFFFFFFFFFFFFFFFFFFFFFFFFFFFFFFFFFFFFFFFFFFFFFFFFFFFFFFFFFFF
310
FFFFFFFFFFFFFFFFFFFFFFFFFFFFFFFFFFFFFFFFFFFFFFFFFFFFFFFFFFFFFFFF
310
FFFFFFFFFFFFFFFFFFFFFFFFFFFFFFFFFFFFFFFFFFFFFFFFF000FFFFFFFFFFFF
310
FFFFFFFFFFFFFFFFFFFFFFFFFFFFFFFFFFFFFFFFFFFFFFFFFFFFFFFFFFFFFFFF
310
FFFFFFFFFFFFFFFFFFFFFFFFFFFFFFFFFFFFFFFFFFFFFFFFFFFFFFFFFFFFFFFF
310
FFFFFFFFFFFFFFFFFFFFFFFFFFFFFFFFF000FFFFFFFFFFFFFFFFFFFFFFFFFFFF
310
FFFFFFFFFFFFFFFFFFFFFFFFFFFFFFFFFFFFFFFFFFFFFFFFFFFFFFFFFFFFFFFF
310
FFFFFFFFFFFFFFFFFFFFFFFFFFFFFFFFFFFFFFFFFFFFFFFFFFFFFFFFFFFFFFFF
310
FFFFFFFFFFFFFFFFF000FFFFFFFFFFFFFFFFFFFFFFFFFFFFFFFFFFFFFFFFFFFF
310
FFFFFFFFFFFFFFFFFFFFFFFFFFFFFFFFFFFFFFFFFFFFFFFFFFFFFFFFFFFFFFFF
310
FFFFFFFFFFFFFFFFFFFFFFFFFFFFFFFFFFFFFFFFFFFFFFFFFFFFFFFFFFFFFFFF
310
F000FFFFFFFFFFFFFFFFFFFFFFFFFFFFFFFFFFFFFFFFFFFFFFFFFFFFFFFFFFFF
310
FFFFFFFFFFFFFFFFFFFFFFFFFFFFFFFFFFFFFFFFFFFFFFFFFFFFFFFFFFFFFFFF
310
FFFFFFFFFFFFFFFFFFFFFFFFFFFFFFFFFFFFFFFFFFFFFFFFF000FFFFFFFFFFFF
310
FFFFFFFFFFFFFFFFFFFFFFFFFFFFFFFFFFFFFFFFFFFFFFFFFFFFFFFFFFFFFFFF
310
FFFFFFFFFFFFFFFFFFFFFFFFFFFFFFFFFFFFFFFFFFFFFFFFFFFFFFFFFFFFFFFF
310
FFFFFFFFFFFFFFFFFFFFFFFFFFFFFFFFF000FFFFFFFFFFFFFFFFFFFFFFFFFFFF
310
FFFFFFFFFFFFFFFFFFFFFFFFFFFFFFFFFFFFFFFFFFFFFFFFFFFFFFFFFFFFFFFF
310
FFFFFFFFFFFFFFFFFFFFFFFFFFFFFFFFFFFFFFFFFFFFFFFFFFFFFFFFFFFFFFFF
310
FFFFFFFFFFFFFFFFF000FFFFF80003FFFFFFFFFFFFFFFFFFFFFFFFFFFFFFFFFF
310
FFFFF00007FFFFFFFFFF00007FFFFFF800000000000000007FFFFFFFFFFFFFFF
310
FFFFFFFC001FFFFFFFFFFFFFFC001FFFFFFFFFFFFFFFFFFFFFFFFFFE0007FFFF
310
F000FFFF8000007FFFFFFFF8000FFFFFC0007FFFFF80007FFFFF0000007FFFFF
310
FFF8000007FFFFF800000000000000007FFFFFF0001FFFFFFFFFFFC00001FFFF
310
FFFFFFFFC00001FFFFFFFF000000000003FFFFE000007FFFF000FFFE0000000F
310
FFFFFFF0000FFFFF80007FFFFF80007FFFFC0000001FFFFFFFC0000001FFFFF8
310
00000000000000007FFFFFF0001FFFFFFFFFFE0000003FFFFFFFFFFE0000003F
310
FFFFFF000000000003FFFF0000000FFFF000FFF800000003FFFFFFF00007FFFF
310
80007FFFFF80007FFFF000000007FFFFFF000000003FFFF80000000000000000
310
7FFFFFF0001FFFFFFFFFF80000000FFFFFFFFFF80000000FFFFFFF0000000000
310
03FFFC00000003FFF000FFE000000000FFFFFFF00007FFFF80003FFFFF80007F
310
FFC000000001FFFFFC000000001FFFF800000000000000007FFFFFF0001FFFFF
310
FFFFE000000003FFFFFFFFE000000003FFFFFF000000000003FFF000000000FF
310
F000FF80000000007FFFFFF00007FFFF80003FFFFF80007FFF8000000000FFFF
310
F80000000007FFF800000000000000007FFFFFF0001FFFFFFFFFC000000001FF
310
FFFFFFC000000001FFFFFF000000000003FFC0000000007FF000FF0000000000
310
3FFFFFE00007FFFF00003FFFFF80007FFE00000000003FFFF00000000003FFF8
310
00000000000000007FFFFFF0001FFFFFFFFF8000000000FFFFFFFF8000000000
310
FFFFFF000000000003FF80000000003FF000FE00000000001FFFFFE00003FFFF
310
00003FFFFF80007FFC00000000001FFFE00000000001FFF8000001FFFE000000
310
7FFFFFF0001FFFFFFFFE00000000003FFFFFFE00000000003FFFFF0000000000
310
03FF00000000001FF000FC00000000000FFFFFE00003FFFF00001FFFFF80007F
310
F800000000001FFFC00000000000FFF8000001FFFE0000007FFFFFF0001FFFFF
310
FFFC00000000001FFFFFFC00000000001FFFFF000000000003FE00000000000F
310
F000F8000000000007FFFFE00003FFFF00001FFFFF80007FF800000000000FFF
310
800000000000FFF8000001FFFE0000007FFFFFF0001FFFFFFFF800000000000F
310
FFFFF800000000000FFFFF000000000003FC000000000007F000F80000000000
310
03FFFFC00003FFFE00001FFFFF80007FF0000000000007FF0000000000007FF8
310
000001FFFE0000007FFFFFF0001FFFFFFFF0000000000007FFFFF00000000000
310
07FFFF000000000003F8000000000003F000F0000000000003FFFFC00001FFFE
310
00001FFFFF80007FE0000000000007FE0000000000003FF8000001FFFE000000
310
7FFFFFF0001FFFFFFFF0000000000007FFFFF0000000000007FFFF0000000000
310
03F800001F800003F000E00001FFF00001FFFFC00001FFFE00000FFFFF80007F
310
E00001FFE00003FE00001FFF00003FF8000001FFFE0000007FFFFFF0001FFFFF
310
FFE000003E000003FFFFE000003E000003FFFF000000000003F00001FFF80001
310
F000E00007FFFC0001FFFFC00001FFFE00000FFFFF80007FC0000FFFFC0003FC
310
0000FFFFC0001FF8000001FFFE0000007FFFFFF0001FFFFFFFC00003FFE00001
310
FFFFC00003FFE00001FFFF0001FFFFFFFFF00007FFFE0001F000E0000FFFFF00
310
00FFFF800001FFFC00000FFFFF80007FC0001FFFFE0001FC0001FFFFE0001FF8
310
000001FFFE0000007FFFFFF0001FFFFFFF80000FFFF80000FFFF80000FFFF800
310
00FFFF0003FFFFFFFFE0000FFFFF8000F000C0003FFFFF8000FFFF800000FFFC
310
000007FFFF80007F80003FFFFF0001FC0003FFFFF0001FF8000001FFFE000000
310
7FFFFFF0001FFFFFFF80003FFFFE0000FFFF80003FFFFE0000FFFF0003FFFFFF
310
FFE0003FFFFF8000F000C0003FFFFF8000FFFF800000FFFC000007FFFF80007F
310
80007FFFFF8001F80007FFFFF8000FF8000001FFFE0000007FFFFFF0001FFFFF
310
FF00007FFFFF00007FFF00007FFFFF00007FFF0003FFFFFFFFE0003FFFFFC000
310
F000C0007FFFFFC000FFFF000000FFFC000007FFFF80007F8000FFFFFF8000F8
310
000FFFFFF8000FF8000001FFFE0000007FFFFFF0001FFFFFFF0000FFFFFF8000
310
7FFF0000FFFFFF80007FFF0003FFFFFFFFC0007FFFFFC00070008000FFFFFFC0
310
00FFFF000000FFF8000007FFFF80007F8000FFFFFF8000F8000FFFFFF8000FF8
310
000001FFFE0000007FFFFFF0001FFFFFFE0001FFFFFFC0003FFE0001FFFFFFC0
310
003FFF0003FFFFFFFFC0007FFFFFE00070008000FFFFFFC0007FFF0000007FF8
310
000003FFFF80007F0001FFFFFF8000F8000FFFFFF8000FF8000001FFFE000000
310
7FFFFFF0001FFFFFFE0001FFFFFFC0003FFE0001FFFFFFC0003FFF0003FFFFFF
310
FFC000FFFFFFE00070008000FFFFFFC0007FFF0000007FF8000003FFFF80007F
310
0001FFFFFF8000F8001FFFFFF8000FF8000001FFFE0000007FFFFFF0001FFFFF
310
FE0003FFFFFFE0003FFE0003FFFFFFE0003FFF0003FFFFFFFFC000FFFFFFE000
310
70008000FFFFFFC0007FFE0000007FF8000003FFFF80007F0001FFFFFF8000F0
310
001FFFFFF8000FF8000001FFFE0000007FFFFFF0001FFFFFFC0003FFFFFFE000
310
1FFC0003FFFFFFE0001FFF0003FFFFFFFFC000FFFFFFC00070008000FFFFFF80
310
007FFE0000007FF0000003FFFF80007F0001FFFFFF0000F0001FFFFFF8000FF8
310
000001FFFE0000007FFFFFF0001FFFFFFC0007FFFFFFF0001FFC0007FFFFFFF0
310
001FFF0003FFFFFFFFC000FFFFFFC00070008001FFFFFF0000FFFE0000003FF0
310
000001FFFF80007F0001FFFFFF0000F8001FFFFFF0000FF8000001FFFE000000
310
7FFFFFF0001FFFFFFC0007FFFFFFF0001FFC0007FFFFFFF0001FFF0003FFFFFF
310
FFC001FFFFFF80007000FFFFFFFFFE0000FFFE0008003FF0008001FFFF80007F
310
FFFFFFFFFC0000FFFFFFFFFFE0000FF8000001FFFE0000007FFFFFF0001FFFFF
310
F8000FFFFFFFF8000FF8000FFFFFFFF8000FFF0003FFFFFFFFFFFFFFFFFF0000
310
7000FFFFFFFFFC0000FFFC0008003FF0008001FFFF80007FFFFFFFFFF80001FF
310
FFFFFFFF80000FF8000001FFFE0000007FFFFFF0001FFFFFF8000FFFFFFFF800
310
0FF8000FFFFFFFF8000FFF0003FFFFFFFFFFFFFFFFFE0000F000FFFFFFFFE000
310
00FFFC000C003FE000C001FFFF80007FFFFFFFFFC00001FFFFFFFFFE00001FF8
310
000001FFFE0000007FFFFFF0001FFFFFF8000FFFFFFFF8000FF8000FFFFFFFF8
310
000FFF0003FFFFFFFFFFFFFFFFF00000F000FFFFFFFE000001FFFC000C001FE0
310
00C000FFFF80007FFFFFFFFE000001FFFFFFFFE000001FF80FFFFFFFFFFFFFC0
310
7FFFFFF0001FFFFFF8000FFFFFFFF8000FF8000FFFFFFFF8000FFF0003FFFFFF
310
FFFFFFFFFF800000F000FFFFFFC0000001FFFC001C001FE001C000FFFF80007F
310
FFFFFF80000003FFFFFFF80000001FF80FFFFFFFFFFFFFC07FFFFFF0001FFFFF
310
F8001FFFFFFFFC000FF8001FFFFFFFFC000FFF0003FFFFFFFFFFFFFFF0000001
310
F000FFFFF800000001FFF8001C001FE001C000FFFF80007FFFFFF800000003FF
310
FFFF800000003FF80FFFFFFFFFFFFFC07FFFFFF0001FFFFFF8001FFFFFFFFC00
310
0FF8001FFFFFFFFC000FFF0003FFFFFFFFFFFFFE00000001F000FFFFC0000000
310
03FFF8001E001FC001E000FFFF80007FFFFF8000000007FFFFFC000000003FF8
310
0FFFFFFFFFFFFFC07FFFFFF0001FFFFFF8001FFFFFFFFC000FF8001FFFFFFFFC
310
000FFF0003FFFFFFFFFFFFE000000003F000FFFE0000000007FFF8001E000FC0
310
01E0007FFF80007FFFFE0000000007FFFFE0000000007FF80FFFFFFFFFFFFFC0
310
7FFFFFF0001FFFFFF0001FFFFFFFFC0007F0001FFFFFFFFC0007FF0003FFFFFF
310
FFFFFF0000000003F000FFF80000000007FFF8001E000FC003E0007FFF80007F
310
FFF0000000000FFFFF8000000000FFF80FFFFFFFFFFFFFC07FFFFFF0001FFFFF
310
F0001FFFFFFFFC0007F0001FFFFFFFFC0007FF0003FFFFFFFFFFFC0000000007
310
F000FFE0000000000FFFF0003E000FC003E0007FFF80007FFFC0000000001FFF
310
FE0000000001FFF80FFFFFFFFFFFFFC07FFFFFF0001FFFFFF0001FFFFFFFFC00
310
07F0001FFFFFFFFC0007FF0003FFFFFFFFFFF0000000000FF000FFC000000000
310
1FFFF0003F000F8003F0003FFF80007FFF80000000003FFFF80000000003FFF8
310
0FFFFFFFFFFFFFC07FFFFFF0001FFFFFF0001FFFFFFFFC0007F0001FFFFFFFFC
310
0007FF0003FFFFFFFFFFE0000000001FF000FF00000000007FFFF0003F000780
310
03F0003FFF80007FFF00000000007FFFF00000000007FFF80FFFFFFFFFFFFFC0
310
7FFFFFF0001FFFFFF0001FFFFFFFFC0007F0001FFFFFFFFC0007FF0003FFFFFF
310
FFFF80000000007FF000FE0000000000FFFFE0003F00078007F0003FFF80007F
310
FE0000000001FFFFE0000000001FFFF80FFFFFFFFFFFFFC07FFFFFF0001FFFFF
310
F0001FFFFFFFFC0007F0001FFFFFFFFC0007FF0003FFFFFFFFFF0000000000FF
310
F000FC0000000003FFFFE0007F00078007F0003FFF80007FFC0000000007FFFF
310
C0000000007FFFF80FFFFFFFFFFFFFC07FFFFFF0001FFFFFF8001FFFFFFFFC00
310
0FF8001FFFFFFFFC000FFF0003FFFFFFFFFE0000000003FFF000FC000000000F
310
FFFFE0007F80070007F8001FFF80007FF8000000001FFFFF8000000001FFFFF8
310
0FFFFFFFFFFFFFC07FFFFFF0001FFFFFF8001FFFFFFFFC000FF8001FFFFFFFFC
310
000FFF0003FFFFFFFFFC000000000FFFF000F8000000007FFFFFE0007F800700
310
07F8001FFF80007FF000000000FFFFFF800000000FFFFFF80FFFFFFFFFFFFFC0
310
7FFFFFF0001FFFFFF8000FFFFFFFF8000FF8000FFFFFFFF8000FFF0003FFFFFF
310
FFFC000000007FFFF000F800000007FFFFFFC0007F8003000FF8001FFF80007F
310
F000000007FFFFFF000000007FFFFFF80FFFFFFFFFFFFFC07FFFFFF0001FFFFF
310
F8000FFFFFFFF8000FF8000FFFFFFFF8000FFF0003FFFFFFFFF80000000FFFFF
310
F000F0000000FFFFFFFFC000FF8003000FF8001FFF80007FE0000000FFFFFFFF
310
0000000FFFFFFFF8000001FFFE0000007FFFFFF0001FFFFFF8000FFFFFFFF800
310
0FF8000FFFFFFFF8000FFF0003FFFFFFFFF8000000FFFFFFF000F000000FFFFF
310
FFFFC000FFC002000FF8000FFF80007FE000001FFFFFFFFE000001FFFFFFFFF8
310
000001FFFE0000007FFFFFF0001FFFFFF8000FFFFFFFF8000FF8000FFFFFFFF8
310
000FFF0003FFFFFFFFF000001FFFFFFFF000E00000FFFFFFFFFFC000FFC00200
310
0FFC000FFF80007FE00001FFFFFFFFFE00001FFFFFFFFFF8000001FFFE000000
310
7FFFFFF0001FFFFFFC000FFFFFFFF8001FFC000FFFFFFFF8001FFF0003FFFFFF
310
FFF00001FFFFFFFFF000E00007FFFFFFFFFF8000FFC000001FFC000FFF80007F
310
C0000FFFFFFFFFFE0000FFFFFFFFFFF8000001FFFE0000007FFFFFF0001FFFFF
310
FC0007FFFFFFF0001FFC0007FFFFFFF0001FFF0003FFFFFFFFF00007FFFFFFFF
310
F000E0001FFFFFFFFFFF8000FFC000001FFC000FFF80007FC0003FFFFFFFFFFE
310
0001FFFFFFFFFFF8000001FFFE0000007FFFFFF0001FFFFFFC0007FFFFFFF000
310
1FFC0007FFFFFFF0001FFF0003FFFFFFFFF0001FFFFFFFFFF000E0003FFFFF00
310
03FF8001FFE000001FFC0007FF80007FC0007FFFFF0007FC0003FFFFF0003FF8
310
000001FFFE0000007FFFFFF0001FFFFFFC0003FFFFFFE0001FFC0003FFFFFFE0
310
001FFF0003FFFFFFFFF0003FFFFFFFFFF000E0003FFFFF0001FF8001FFE00000
310
1FFE0007FF80007FC0007FFFFE0003FC0007FFFFE0003FF8000001FFFE000000
310
7FFFFFF0001FFFFFFE0003FFFFFFE0003FFE0003FFFFFFE0003FFF0003FFFFFF
310
FFF0003FFFFF8001F000E0003FFFFF0001FF0001FFE000001FFE0007FF80007F
310
C0007FFFFE0003FC0007FFFFE0003FF8000001FFFE0000007FFFFFF0001FFFFF
310
FE0001FFFFFFC0003FFE0001FFFFFFC0003FFF0003FFFFFFFFF0003FFFFF0001
310
F000E0003FFFFF0003FF0001FFE000003FFE0007FF80007FC0007FFFFE0003FC
310
0007FFFFE0003FF8000001FFFE0000007FFFFFF0001FFFFFFF0001FFFFFFC000
310
7FFF0001FFFFFFC0007FFF0003FFFFFFFFF0003FFFFF0001F000E0003FFFFE00
310
03FF0003FFF000003FFE0003FF80007FC0007FFFFC0003FE0007FFFFE0003FF8
310
000001FFFE0000007FFFFFF0001FFFFFFF0000FFFFFF80007FFF0000FFFFFF80
310
007FFF0003FFFFFFFFF0003FFFFF0001F000E0003FFFFE0003FF0003FFF00000
310
3FFF0003FF80007FC0007FFFFC0007FE0007FFFFC0003FF8000001FFFE000000
310
7FFFFFF0001FFFFFFF80007FFFFF0000FFFF80007FFFFF0000FFFF0003FFFFFF
310
FFF0003FFFFF0003F000E0003FFFFC0003FE0003FFF000003FFF0003FF80007F
310
E0003FFFF80007FE0003FFFFC0007FF8000001FFFE0000007FFFFFF0001FFFFF
310
FF80003FFFFE0000FFFF80003FFFFE0000FFFF0003FFFFFFFFF0001FFFFE0003
310
F000F0001FFFF80003FE0003FFF000007FFF0001FF80007FE0003FFFF00007FE
310
0001FFFF80007FF8000001FFFE0000007FFFFFF0001FFFFFFFC0000FFFF80001
310
FFFFC0000FFFF80001FFFF0003FFFFFFFFF0001FFFFC0003F000F0000FFFF000
310
07FE0007FFF800007FFF0001FF80007FE0001FFFE00007FF0000FFFE00007FF8
310
000001FFFE0000007FFFFFF0001FFFFFFFC00003FFE00001FFFFC00003FFE000
310
01FFFF0003FFFFFFFFF8000FFFF80003F000F00003FFC00007FC0007FFF80000
310
7FFF8001FF80007FF00007FF80000FFF00007FF80000FFF8000001FFFE000000
310
7F80000000000001FFE000003E000003FFFFE000003E000003FFFF0003FFFFFF
310
FFF80003FFE00007F000F800000000000FFC0007FFF800007FFF8001FF80007F
310
F000000000000FFF000000000000FFF8000001FFFE0000007F80000000000001
310
FFF0000000000007FFFFF0000000000007FFFF0003FFFFFFFFFC00007E000007
310
F000F800000000000FFC0007FFF80000FFFF8000FF80007FF800000000001FFF
310
800000000001FFF8000001FFFE0000007F80000000000001FFF800000000000F
310
FFFFF800000000000FFFFF0003FFFFFFFFFC00000000000FF000FC0000000000
310
1FFC0007FFFC0000FFFF8000FF80007FF800000000003FFFC00000000001FFF8
310
000001FFFE0000007F80000000000001FFF800000000000FFFFFF80000000000
310
0FFFFF0003FFFFFFFFFE00000000001FF000FE00000000003FF8000FFFFC0000
310
FFFF8000FF80007FFC00000000003FFFC00000000003FFF8000001FFFE000000
310
7F80000000000001FFFC00000000001FFFFFFC00000000001FFFFF0003FFFFFF
310
FFFF00000000001FF000FF00000000003FF8000FFFFC0000FFFFC000FF80007F
310
FE00000000007FFFE00000000007FFF8000001FFFE0000007F80000000000001
310
FFFE00000000003FFFFFFE00000000003FFFFF0003FFFFFFFFFF80000000003F
310
F000FF80000000007FF8000FFFFC0001FFFFC0007F80007FFF0000000000FFFF
310
F0000000000FFFF800000000000000007F80000000000001FFFF8000000000FF
310
FFFFFF8000000000FFFFFF0003FFFFFFFFFFC0000000007FF000FFC000000000
310
FFF8000FFFFE0001FFFFC0007F80007FFF8000000001FFFFF8000000001FFFF8
310
00000000000000007F80000000000001FFFFC000000001FFFFFFFFC000000001
310
FFFFFF0003FFFFFFFFFFE000000000FFF000FFE000000003FFF0001FFFFE0001
310
FFFFC0007F80007FFFC000000007FFFFFE000000003FFFF80000000000000000
310
7F80000000000001FFFFE000000003FFFFFFFFE000000003FFFFFF0003FFFFFF
310
FFFFF000000003FFF000FFF80000000FFFF0001FFFFE0001FFFFE0007F80007F
310
FFF00000000FFFFFFF00000000FFFFF800000000000000007F80000000000001
310
FFFFF80000000FFFFFFFFFF80000000FFFFFFF0003FFFFFFFFFFFC0000000FFF
310
F000FFFE0000003FFFF0001FFFFE0003FFFFE0003F80007FFFFC0000003FFFFF
310
FFC0000003FFFFF800000000000000007F80000000000001FFFFFE0000003FFF
310
FFFFFFFE0000003FFFFFFF0003FFFFFFFFFFFF0000003FFFF000FFFF800000FF
310
FFF0001FFFFF0003FFFFE0003F80007FFFFF000001FFFFFFFFF800001FFFFFF8
310
00000000000000007F80000000000001FFFFFFC00001FFFFFFFFFFFFC00001FF
310
FFFFFF0003FFFFFFFFFFFFC00000FFFFF000FFFFF8000FFFFFFFFFFFFFFFFFFF
310
FFFFFFFFFFFFFFFFFFFFF0001FFFFFFFFFFF0000FFFFFFF80000000000000000
310
7FFFFFFFFFFFFFFFFFFFFFFC001FFFFFFFFFFFFFFC001FFFFFFFFFFFFFFFFFFF
310
FFFFFFFC001FFFFFF000FFFFFFFFFFFFFFFFFFFFFFFFFFFFFFFFFFFFFFFFFFFF
310
FFFFFFFFFFFFFFFFFFFFFFFFFFFFFFFFFFFFFFFFFFFFFFFFFFFFFFFFFFFFFFFF
310
FFFFFFFFFFFFFFFFFFFFFFFFFFFFFFFFFFFFFFFFFFFFFFFFFFFFFFFFFFFFFFFF
310
F000FFFFFFFFFFFFFFFFFFFFFFFFFFFFFFFFFFFFFFFFFFFFFFFFFFFFFFFFFFFF
310
FFFFFFFFFFFFFFFFFFFFFFFFFFFFFFFFFFFFFFFFFFFFFFFFFFFFFFFFFFFFFFFF
310
FFFFFFFFFFFFFFFFFFFFFFFFFFFFFFFFFFFFFFFFFFFFFFFFF000FFFFFFFFFFFF
310
FFFFFFFFFFFFFFFFFFFFFFFFFFFFFFFFFFFFFFFFFFFFFFFFFFFFFFFFFFFFFFFF
310
FFFFFFFFFFFFFFFFFFFFFFFFFFFFFFFFFFFFFFFFFFFFFFFFFFFFFFFFFFFFFFFF
310
FFFFFFFFFFFFFFFFFFFFFFFFFFFFFFFFF000FFFFFFFFFFFFFFFFFFFFFFFFFFFF
310
FFFFFFFFFFFFFFFFFFFFFFFFFFFFFFFFFFFFFFFFFFFFFFFFFFFFFFFFFFFFFFFF
310
FFFFFFFFFFFFFFFFFFFFFFFFFFFFFFFFFFFFFFFFFFFFFFFFFFFFFFFFFFFFFFFF
310
FFFFFFFFFFFFFFFFF000FFFFFFFFFFFFFFFFFFFFFFFFFFFFFFFFFFFFFFFFFFFF
310
FFFFFFFFFFFFFFFFFFFFFFFFFFFFFFFFFFFFFFFFFFFFFFFFFFFFFFFFFFFFFFFF
310
FFFFFFFFFFFFFFFFFFFFFFFFFFFFFFFFFFFFFFFFFFFFFFFFFFFFFFFFFFFFFFFF
310
F000FFFFFFFFFFFFFFFFFFFFFFFFFFFFFFFFFFFFFFFFFFFFFFFFFFFFFFFFFFFF
310
FFFFFFFFFFFFFFFFFFFFFFFFFFFFFFFFFFFFFFFFFFFFFFFFFFFFFFFFFFFFFFFF
310
FFFFFFFFFFFFFFFFFFFFFFFFFFFFFFFFFFFFFFFFFFFFFFFFF000FFFFFFFFFFFF
310
FFFFFFFFFFFFFFFFFFFFFFFFFFFFFFFFFFFFFFFFFFFFFFFFFFFFFFFFFFFFFFFF
310
FFFFFFFFFFFFFFFFFFFFFFFFFFFFFFFFFFFFFFFFFFFFFFFFFFFFFFFFFFFFFFFF
310
FFFFFFFFFFFFFFFFFFFFFFFFFFFFFFFFF000FFFFFFFFFFFFFFFFFFFFFFFFFFFF
310
FFFFFFFFFFFFFFFFFFFFFFFFFFFFFFFFFFFFFFFFFFFFFFFFFFFFFFFFFFFFFFFF
310
FFFFFFFFFFFFFFFFFFFFFFFFFFFFFFFFFFFFFFFFFFFFFFFFFFFFFFFFFFFFFFFF
310
FFFFFFFFFFFFFFFFF000FFFFFFFFFFFFFFFFFFFFFFFFFFFFFFFFFFFFFFFFFFFF
310
FFFFFFFFFFFFFFFFFFFFFFFFFFFFFFFFFFFFFFFFFFFFFFFFFFFFFFFFFFFFFFFF
310
FFFFFFFFFFFFFFFFFFFFFFFFFFFFFFFFFFFFFFFFFFFFFFFFFFFFFFFFFFFFFFFF
310
F000FFFFFFFFFFFFFFFFFFFFFFFFFFFFFFFFFFFFFFFFFFFFFFFFFFFFFFFFFFFF
310
FFFFFFFFFFFFFFFFFFFFFFFFFFFFFFFFFFFFFFFFFFFFFFFFFFFFFFFFFFFFFFFF
310
FFFFFFFFFFFFFFFFFFFFFFFFFFFFFFFFFFFFFFFFFFFFFFFFF000FFFFFFFFFFFF
310
FFFFFFFFFFFFFFFFFFFFFFFFFFFFFFFFFFFFFFFFFFFFFFFFFFFFFFFFFFFFFFFF
310
FFFFFFFFFFFFFFFFFFFFFFFFFFFFFFFFFFFFFFFFFFFFFFFFFFFFFFFFFFFFFFFF
310
FFFFFFFFFFFFFFFFFFFFFFFFFFFFFFFFF000FFFFFFFFFFFFFFFFFFFFFFFFFFFF
310
FFFFFFFFFFFFFFFFFFFFFFFFFFFFFFFFFFFFFFFFFFFFFFFFFFFFFFFFFFFFFFFF
310
FFFFFFFFFFFFFFFFFFFFFFFFFFFFFFFFFFFFFFFFFFFFFFFFFFFFFFFFFFFFFFFF
310
FFFFFFFFFFFFFFFFF000FFFFFFFFFFFFFFFFFFFFFFFFFFFFFFFFFFFFFFFFFFFF
310
FFFFFFFFFFFFFFFFFFFFFFFFFFFFFFFFFFFFFFFFFFFFFFFFFFFFFFFFFFFFFFFF
310
FFFFFFFFFFFFFFFFFFFFFFFFFFFFFFFFFFFFFFFFFFFFFFFFFFFFFFFFFFFFFFFF
310
F000FFFFFFFFFFFFFFFFFFFFFFFFFFFFFFFFFFFFFFFFFFFFFFFFFFFFFFFFFFFF
310
FFFFFFFFFFFFFFFFFFFFFFFFFFFFFFFFFFFFFFFFFFFFFFFFFFFFFFFFFFFFFFFF
310
FFFFFFFFFFFFFFFFFFFFFFFFFFFFFFFFFFFFFFFFFFFFFFFFF000FFFFFFFFFFFF
310
FFFFFFFFFFFFFFFFFFFFFFFFFFFFFFFFFFFFFFFFFFFFFFFFFFFFFFFFFFFFFFFF
310
FFFFFFFFFFFFFFFFFFFFFFFFFFFFFFFFFFFFFFFFFFFFFFFFFFFFFFFFFFFFFFFF
310
FFFFFFFFFFFFFFFFFFFFFFFFFFFFFFFFF000FFFFFFFFFFFFFFFFFFFFFFFFFFFF
310
FFFFFFFFFFFFFFFFFFFFFFFFFFFFFFFFFFFFFFFFFFFFFFFFFFFFFFFFFFFFFFFF
310
FFFFFFFFFFFFFFFFFFFFFFFFFFFFFFFFFFFFFFFFFFFFFFFFFFFFFFFFFFFFFFFF
310
FFFFFFFFFFFFFFFFF000FFFFFFFFFFFFFFFFFFFFFFFFFFFFFFFFFFFFFFFFFFFF
310
FFFFFFFFFFFFFFFFFFFFFFFFFFFFFFFFFFFFFFFFFFFFFFFFFFFFFFFFFFFFFFFF
310
FFFFFFFFFFFFFFFFFFFFFFFFFFFFFFFFFFFFFFFFFFFFFFFFFFFFFFFFFFFFFFFF
310
F000FFFFFFFFFFFFFFFFFFFFFFFFFFFFFFFFFFFFFFFFFFFFFFFFFFFFFFFFFFFF
310
FFFFFFFFFFFFFFFFFFFFFFFFFFFFFFFFFFFFFFFFFFFFFFFFFFFFFFFFFFFFFFFF
310
FFFFFFFFFFFFFFFFFFFFFFFFFFFFFFFFFFFFFFFFFFFFFFFFF000FFFFFFFFFFFF
310
FFFFFFFFFFFFFFFFFFFFFFFFFFFFFFFFFFFFFFFFFFFFFFFFFFFFFFFFFFFFFFFF
310
FFFFFFFFFFFFFFFFFFFFFFFFFFFFFFFFFFFFFFFFFFFFFFFFFFFFFFFFFFFFFFFF
310
FFFFFFFFFFFFFFFFFFFFFFFFFFFFFFFFF000FFFFFFFFFFFFFFFFFFFFFFFFFFFF
310
FFFFFFFFFFFFFFFFFFFFFFFFFFFFFFFFFFFFFFFFFFFFFFFFFFFFFFFFFFFFFFFF
310
FFFFFFFFFFFFFFFFFFFFFFFFFFFFFFFFFFFFFFFFFFFFFFFFFFFFFFFFFFFFFFFF
310
FFFFFFFFFFFFFFFFF000FFFFFFFFFFFFFFFFFFFFFFFFFFFFFFFFFFFFFFFFFFFF
310
FFFFFFFFFFFFFFFFFFFFFFFFFFFFFFFFFFFFFFFFFFFFFFFFFFFFFFFFFFFFFFFF
310
FFFFFFFFFFFFFFFFFFFFFFFFFFFFFFFFFFFFFFFFFFFFFFFFFFFFFFFFFFFFFFFF
310
F000FFFFFFFFFFFFFFFFFFFFFFFFFFFFFFFFFFFFFFFFFFFFFFFFFFFFFFFFFFFF
310
FFFFFFFFFFFFFFFFFFFFFFFFFFFFFFFFFFFFFFFFFFFFFFFFFFFFFFFFFFFFFFFF
310
FFFFFFFFFFFFFFFFFFFFFFFFFFFFFFFFFFFFFFFFFFFFFFFFF000FFFFFFFFFFFF
310
FFFFFFFFFFFFFFFFFFFFFFFFFFFFFFFFFFFFFFFFFFFFFFFFFFFFFFFFFFFFFFFF
310
FFFFFFFFFFFFFFFFFFFFFFFFFFFFFFFFFFFFFFFFFFFFFFFFFFFFFFFFFFFFFFFF
310
FFFFFFFFFFFFFFFFFFFFFFFFFFFFFFFFF0000000000000000000000000000000
310
0000000000000000000000000000000000000000000000000000000000000000
310
0000000000000000000000000000000000000000000000000000000000000000
310
0000000000000000000000000000000000000000000000000000000000000000
310
0000000000000000000000000000000000000000000000000000000000000000
310
0000000000000000000000000000000000000000000000000000000000000000
310
0000000000000000000000000000000000000000000000000000000000000000
310
0000000000000000000000000000000000000000000000000000000000000000
310
0000000000000000000000000000000000000000000000000000000000000000
310
0000000000000000000000000000000000000000000000000000000000000000
310
0000000000000000000000000000000000000000000000000000000000000000
310
0000000000000000000000000000000000000000000000000000000000000000
310
0000000000000000000000000000000000000000000000000000000000000000
310
0000000000000000000000000000000000000000000000000000000000000000
310
0000000000000000000000000000000000000000000000000000000000000000
310
0000000000000000000000000000000000000000000000000000000000000000
  1
OLE
  0
ENDSEC
  0
SECTION
  2
OBJECTS
  0
DICTIONARY
  5
C
330
0
100
AcDbDictionary
281
     1
  3
ACAD_GROUP
350
D
  3
ACAD_LAYOUT
350
1A
  3
ACAD_MLINESTYLE
350
17
  3
ACAD_PLOTSETTINGS
350
19
  3
ACAD_PLOTSTYLENAME
350
E
  3
ACAD_SCALELIST
350
47
  0
DICTIONARY
  5
D
102
{ACAD_REACTORS
330
C
102
}
330
C
100
AcDbDictionary
281
     1
  0
DICTIONARY
  5
1A
102
{ACAD_REACTORS
330
C
102
}
330
C
100
AcDbDictionary
281
     1
  3
Layout1
350
1E
  3
Layout2
350
26
  3
Model
350
22
  0
DICTIONARY
  5
17
102
{ACAD_REACTORS
330
C
102
}
330
C
100
AcDbDictionary
281
     1
  3
Standard
350
18
  0
DICTIONARY
  5
19
102
{ACAD_REACTORS
330
C
102
}
330
C
100
AcDbDictionary
281
     1
  0
ACDBDICTIONARYWDFLT
  5
E
102
{ACAD_REACTORS
330
C
102
}
330
C
100
AcDbDictionary
281
     1
  3
Normal
350
F
100
AcDbDictionaryWithDefault
340
F
  0
DICTIONARY
  5
47
102
{ACAD_REACTORS
330
C
102
}
330
C
100
AcDbDictionary
281
     1
  3
A0
350
48
  3
A1
350
49
  3
A2
350
4A
  3
A3
350
4B
  3
A4
350
4C
  3
A5
350
4D
  3
A6
350
4E
  3
A7
350
4F
  3
A8
350
50
  3
A9
350
51
  3
B0
350
52
  3
B1
350
53
  3
B2
350
54
  3
B3
350
55
  3
B4
350
56
  3
B5
350
57
  3
B6
350
58
  3
B7
350
59
  3
B8
350
5A
  3
B9
350
5B
  3
C0
350
5C
  3
C1
350
5D
  3
C2
350
5E
  3
C3
350
5F
  3
C4
350
60
  3
C5
350
61
  3
C6
350
62
  3
C7
350
63
  3
C8
350
64
  3
C9
350
65
  3
D0
350
66
  3
D1
350
67
  3
D2
350
68
  0
LAYOUT
  5
1E
102
{ACAD_REACTORS
330
1A
102
}
330
1A
100
AcDbPlotSettings
  1

  2
none_device
  4

  6

 40
0.0
 41
0.0
 42
0.0
 43
0.0
 44
0.0
 45
0.0
 46
0.0
 47
0.0
 48
0.0
 49
0.0
140
0.0
141
0.0
142
1.0
143
1.0
 70
   688
 72
     1
 73
     0
 74
     5
  7

 75
    16
147
1.0
148
0.0
149
0.0
100
AcDbLayout
  1
Layout1
 70
     1
 71
     1
 10
0.0
 20
0.0
 11
420.0
 21
297.0
 12
0.0
 22
0.0
 32
0.0
 14
1.0000000000E+20
 24
1.0000000000E+20
 34
1.0000000000E+20
 15
-1.0000000000E+20
 25
-1.0000000000E+20
 35
-1.0000000000E+20
146
0.0
 13
0.0
 23
0.0
 33
0.0
 16
1.0
 26
0.0
 36
0.0
 17
0.0
 27
1.0
 37
0.0
 76
     0
330
1B
  0
LAYOUT
  5
26
102
{ACAD_REACTORS
330
1A
102
}
330
1A
100
AcDbPlotSettings
  1

  2
none_device
  4

  6

 40
0.0
 41
0.0
 42
0.0
 43
0.0
 44
0.0
 45
0.0
 46
0.0
 47
0.0
 48
0.0
 49
0.0
140
0.0
141
0.0
142
1.0
143
1.0
 70
   688
 72
     1
 73
     0
 74
     5
  7

 75
    16
147
1.0
148
0.0
149
0.0
100
AcDbLayout
  1
Layout2
 70
     1
 71
     2
 10
0.0
 20
0.0
 11
0.0
 21
0.0
 12
0.0
 22
0.0
 32
0.0
 14
0.0
 24
0.0
 34
0.0
 15
0.0
 25
0.0
 35
0.0
146
0.0
 13
0.0
 23
0.0
 33
0.0
 16
1.0
 26
0.0
 36
0.0
 17
0.0
 27
1.0
 37
0.0
 76
     0
330
23
  0
LAYOUT
  5
22
102
{ACAD_REACTORS
330
1A
102
}
330
1A
100
AcDbPlotSettings
  1

  2
none_device
  4
Letter_(8.50_x_11.00_Inches)
  6

 40
6.35
 41
6.35
 42
6.35000508
 43
6.35000508
 44
215.9
 45
279.4
 46
0.0
 47
0.0
 48
0.0
 49
0.0
140
0.0
141
0.0
142
1.0
143
1.0
 70
  1712
 72
     1
 73
     0
 74
     0
  7

 75
     0
147
1.0
148
0.0
149
0.0
100
AcDbLayout
  1
Model
 70
     1
 71
     0
 10
0.0
 20
0.0
 11
297.0
 21
210.0
 12
0.0
 22
0.0
 32
0.0
 14
0.0
 24
0.0
 34
0.0
 15
297.0
 25
210.0
 35
0.0
146
0.0
 13
0.0
 23
0.0
 33
0.0
 16
1.0
 26
0.0
 36
0.0
 17
0.0
 27
1.0
 37
0.0
 76
     0
330
1F
331
29
  0
MLINESTYLE
  5
18
102
{ACAD_REACTORS
330
17
102
}
330
17
100
AcDbMlineStyle
  2
Standard
 70
     0
  3

 62
   256
 51
90.0
 52
90.0
 71
     2
 49
0.5
 62
   256
  6
BYLAYER
 49
-0.5
 62
   256
  6
BYLAYER
  0
ACDBPLACEHOLDER
  5
F
102
{ACAD_REACTORS
330
E
102
}
330
E
  0
SCALE
  5
48
102
{ACAD_REACTORS
330
47
102
}
330
47
100
AcDbScale
 70
     0
300
1:1
140
1.0
141
1.0
290
     1
  0
SCALE
  5
49
102
{ACAD_REACTORS
330
47
102
}
330
47
100
AcDbScale
 70
     0
300
1:2
140
1.0
141
2.0
290
     0
  0
SCALE
  5
4A
102
{ACAD_REACTORS
330
47
102
}
330
47
100
AcDbScale
 70
     0
300
1:4
140
1.0
141
4.0
290
     0
  0
SCALE
  5
4B
102
{ACAD_REACTORS
330
47
102
}
330
47
100
AcDbScale
 70
     0
300
1:5
140
1.0
141
5.0
290
     0
  0
SCALE
  5
4C
102
{ACAD_REACTORS
330
47
102
}
330
47
100
AcDbScale
 70
     0
300
1:8
140
1.0
141
8.0
290
     0
  0
SCALE
  5
4D
102
{ACAD_REACTORS
330
47
102
}
330
47
100
AcDbScale
 70
     0
300
1:10
140
1.0
141
10.0
290
     0
  0
SCALE
  5
4E
102
{ACAD_REACTORS
330
47
102
}
330
47
100
AcDbScale
 70
     0
300
1:16
140
1.0
141
16.0
290
     0
  0
SCALE
  5
4F
102
{ACAD_REACTORS
330
47
102
}
330
47
100
AcDbScale
 70
     0
300
1:20
140
1.0
141
20.0
290
     0
  0
SCALE
  5
50
102
{ACAD_REACTORS
330
47
102
}
330
47
100
AcDbScale
 70
     0
300
1:30
140
1.0
141
30.0
290
     0
  0
SCALE
  5
51
102
{ACAD_REACTORS
330
47
102
}
330
47
100
AcDbScale
 70
     0
300
1:40
140
1.0
141
40.0
290
     0
  0
SCALE
  5
52
102
{ACAD_REACTORS
330
47
102
}
330
47
100
AcDbScale
 70
     0
300
1:50
140
1.0
141
50.0
290
     0
  0
SCALE
  5
53
102
{ACAD_REACTORS
330
47
102
}
330
47
100
AcDbScale
 70
     0
300
1:100
140
1.0
141
100.0
290
     0
  0
SCALE
  5
54
102
{ACAD_REACTORS
330
47
102
}
330
47
100
AcDbScale
 70
     0
300
2:1
140
2.0
141
1.0
290
     0
  0
SCALE
  5
55
102
{ACAD_REACTORS
330
47
102
}
330
47
100
AcDbScale
 70
     0
300
4:1
140
4.0
141
1.0
290
     0
  0
SCALE
  5
56
102
{ACAD_REACTORS
330
47
102
}
330
47
100
AcDbScale
 70
     0
300
8:1
140
8.0
141
1.0
290
     0
  0
SCALE
  5
57
102
{ACAD_REACTORS
330
47
102
}
330
47
100
AcDbScale
 70
     0
300
10:1
140
10.0
141
1.0
290
     0
  0
SCALE
  5
58
102
{ACAD_REACTORS
330
47
102
}
330
47
100
AcDbScale
 70
     0
300
100:1
140
100.0
141
1.0
290
     0
  0
SCALE
  5
59
102
{ACAD_REACTORS
330
47
102
}
330
47
100
AcDbScale
 70
     0
300
1/128" = 1'-0"
140
0.0078125
141
12.0
290
     0
  0
SCALE
  5
5A
102
{ACAD_REACTORS
330
47
102
}
330
47
100
AcDbScale
 70
     0
300
1/64" = 1'-0"
140
0.015625
141
12.0
290
     0
  0
SCALE
  5
5B
102
{ACAD_REACTORS
330
47
102
}
330
47
100
AcDbScale
 70
     0
300
1/32" = 1'-0"
140
0.03125
141
12.0
290
     0
  0
SCALE
  5
5C
102
{ACAD_REACTORS
330
47
102
}
330
47
100
AcDbScale
 70
     0
300
1/16" = 1'-0"
140
0.0625
141
12.0
290
     0
  0
SCALE
  5
5D
102
{ACAD_REACTORS
330
47
102
}
330
47
100
AcDbScale
 70
     0
300
3/32" = 1'-0"
140
0.09375
141
12.0
290
     0
  0
SCALE
  5
5E
102
{ACAD_REACTORS
330
47
102
}
330
47
100
AcDbScale
 70
     0
300
1/8" = 1'-0"
140
0.125
141
12.0
290
     0
  0
SCALE
  5
5F
102
{ACAD_REACTORS
330
47
102
}
330
47
100
AcDbScale
 70
     0
300
3/16" = 1'-0"
140
0.1875
141
12.0
290
     0
  0
SCALE
  5
60
102
{ACAD_REACTORS
330
47
102
}
330
47
100
AcDbScale
 70
     0
300
1/4" = 1'-0"
140
0.25
141
12.0
290
     0
  0
SCALE
  5
61
102
{ACAD_REACTORS
330
47
102
}
330
47
100
AcDbScale
 70
     0
300
3/8" = 1'-0"
140
0.375
141
12.0
290
     0
  0
SCALE
  5
62
102
{ACAD_REACTORS
330
47
102
}
330
47
100
AcDbScale
 70
     0
300
1/2" = 1'-0"
140
0.5
141
12.0
290
     0
  0
SCALE
  5
63
102
{ACAD_REACTORS
330
47
102
}
330
47
100
AcDbScale
 70
     0
300
3/4" = 1'-0"
140
0.75
141
12.0
290
     0
  0
SCALE
  5
64
102
{ACAD_REACTORS
330
47
102
}
330
47
100
AcDbScale
 70
     0
300
1" = 1'-0"
140
1.0
141
12.0
290
     0
  0
SCALE
  5
65
102
{ACAD_REACTORS
330
47
102
}
330
47
100
AcDbScale
 70
     0
300
1-1/2" = 1'-0"
140
1.5
141
12.0
290
     0
  0
SCALE
  5
66
102
{ACAD_REACTORS
330
47
102
}
330
47
100
AcDbScale
 70
     0
300
3" = 1'-0"
140
3.0
141
12.0
290
     0
  0
SCALE
  5
67
102
{ACAD_REACTORS
330
47
102
}
330
47
100
AcDbScale
 70
     0
300
6" = 1'-0"
140
6.0
141
12.0
290
     0
  0
SCALE
  5
68
102
{ACAD_REACTORS
330
47
102
}
330
47
100
AcDbScale
 70
     0
300
1'-0" = 1'-0"
140
12.0
141
12.0
290
     0
  0
ENDSEC
  0
EOF
