  0
SECTION
  2
HEADER
  9
$ACADVER
  1
AC1015
  9
$ACADMAINTVER
 70
     6
  9
$DWGCODEPAGE
  3
ANSI_1252
  9
$INSBASE
 10
0.0
 20
0.0
 30
0.0
  9
$EXTMIN
 10
0.0
 20
0.0
 30
0.0
  9
$EXTMAX
 10
297.0
 20
210.0
 30
0.0
  9
$LIMMIN
 10
0.0
 20
0.0
  9
$LIMMAX
 10
297.0
 20
210.0
  9
$ORTHOMODE
 70
     0
  9
$REGENMODE
 70
     1
  9
$FILLMODE
 70
     1
  9
$QTEXTMODE
 70
     0
  9
$MIRRTEXT
 70
     1
  9
$LTSCALE
 40
1.0
  9
$ATTMODE
 70
     1
  9
$TEXTSIZE
 40
2.0
  9
$TRACEWID
 40
1.0
  9
$TEXTSTYLE
  7
Standard
  9
$CLAYER
  8
0
  9
$CELTYPE
  6
ByLayer
  9
$CECOLOR
 62
   256
  9
$CELTSCALE
 40
1.0
  9
$DISPSILH
 70
     0
  9
$DIMSCALE
 40
1.0
  9
$DIMASZ
 40
3.0
  9
$DIMEXO
 40
0.0
  9
$DIMDLI
 40
3.75
  9
$DIMRND
 40
0.0
  9
$DIMDLE
 40
0.0
  9
$DIMEXE
 40
1.0
  9
$DIMTP
 40
0.0
  9
$DIMTM
 40
0.0
  9
$DIMTXT
 40
2.0
  9
$DIMCEN
 40
2.5
  9
$DIMTSZ
 40
0.0
  9
$DIMTOL
 70
     0
  9
$DIMLIM
 70
     0
  9
$DIMTIH
 70
     1
  9
$DIMTOH
 70
     1
  9
$DIMSE1
 70
     0
  9
$DIMSE2
 70
     0
  9
$DIMTAD
 70
     1
  9
$DIMZIN
 70
     0
  9
$DIMBLK
  1

  9
$DIMASO
 70
     1
  9
$DIMSHO
 70
     1
  9
$DIMPOST
  1

  9
$DIMAPOST
  1

  9
$DIMALT
 70
     0
  9
$DIMALTD
 70
     3
  9
$DIMALTF
 40
0.0393700787
  9
$DIMLFAC
 40
2.0
  9
$DIMTOFL
 70
     1
  9
$DIMTVP
 40
0.0
  9
$DIMTIX
 70
     0
  9
$DIMSOXD
 70
     0
  9
$DIMSAH
 70
     0
  9
$DIMBLK1
  1

  9
$DIMBLK2
  1

  9
$DIMSTYLE
  2
ISO-25
  9
$DIMCLRD
 70
     0
  9
$DIMCLRE
 70
     0
  9
$DIMCLRT
 70
     0
  9
$DIMTFAC
 40
1.0
  9
$DIMGAP
 40
1.524
  9
$DIMJUST
 70
     0
  9
$DIMSD1
 70
     0
  9
$DIMSD2
 70
     0
  9
$DIMTOLJ
 70
     0
  9
$DIMTZIN
 70
     0
  9
$DIMALTZ
 70
     0
  9
$DIMALTTZ
 70
     0
  9
$DIMUPT
 70
     0
  9
$DIMDEC
 70
     2
  9
$DIMTDEC
 70
     3
  9
$DIMALTU
 70
     2
  9
$DIMALTTD
 70
     3
  9
$DIMTXSTY
  7
Standard
  9
$DIMAUNIT
 70
     0
  9
$DIMADEC
 70
     2
  9
$DIMALTRND
 40
0.0
  9
$DIMAZIN
 70
     0
  9
$DIMDSEP
 70
    44
  9
$DIMATFIT
 70
     3
  9
$DIMFRAC
 70
     0
  9
$DIMLDRBLK
  1

  9
$DIMLUNIT
 70
     2
  9
$DIMLWD
 70
    -2
  9
$DIMLWE
 70
    -2
  9
$DIMTMOVE
 70
     0
  9
$LUNITS
 70
     2
  9
$LUPREC
 70
     2
  9
$SKETCHINC
 40
1.0
  9
$FILLETRAD
 40
10.0
  9
$AUNITS
 70
     0
  9
$AUPREC
 70
     2
  9
$MENU
  1
.
  9
$ELEVATION
 40
0.0
  9
$PELEVATION
 40
0.0
  9
$THICKNESS
 40
0.0
  9
$LIMCHECK
 70
     0
  9
$CHAMFERA
 40
0.0
  9
$CHAMFERB
 40
0.0
  9
$CHAMFERC
 40
0.0
  9
$CHAMFERD
 40
0.0
  9
$SKPOLY
 70
     0
  9
$TDCREATE
 40
2458169.643825335
  9
$TDUCREATE
 40
2458169.602158669
  9
$TDUPDATE
 40
2458169.643827408
  9
$TDUUPDATE
 40
2458169.602160741
  9
$TDINDWG
 40
0.0000000116
  9
$TDUSRTIMER
 40
0.0000000116
  9
$USRTIMER
 70
     1
  9
$ANGBASE
 50
0.0
  9
$ANGDIR
 70
     0
  9
$PDMODE
 70
     0
  9
$PDSIZE
 40
-1.0
  9
$PLINEWID
 40
0.0
  9
$SPLFRAME
 70
     0
  9
$SPLINETYPE
 70
     6
  9
$SPLINESEGS
 70
     8
  9
$HANDSEED
  5
24F
  9
$SURFTAB1
 70
     6
  9
$SURFTAB2
 70
     6
  9
$SURFTYPE
 70
     6
  9
$SURFU
 70
     6
  9
$SURFV
 70
     6
  9
$UCSBASE
  2

  9
$UCSNAME
  2

  9
$UCSORG
 10
0.0
 20
0.0
 30
0.0
  9
$UCSXDIR
 10
1.0
 20
0.0
 30
0.0
  9
$UCSYDIR
 10
0.0
 20
1.0
 30
0.0
  9
$UCSORTHOREF
  2

  9
$UCSORTHOVIEW
 70
     0
  9
$UCSORGTOP
 10
0.0
 20
0.0
 30
0.0
  9
$UCSORGBOTTOM
 10
0.0
 20
0.0
 30
0.0
  9
$UCSORGLEFT
 10
0.0
 20
0.0
 30
0.0
  9
$UCSORGRIGHT
 10
0.0
 20
0.0
 30
0.0
  9
$UCSORGFRONT
 10
0.0
 20
0.0
 30
0.0
  9
$UCSORGBACK
 10
0.0
 20
0.0
 30
0.0
  9
$PUCSBASE
  2

  9
$PUCSNAME
  2

  9
$PUCSORG
 10
0.0
 20
0.0
 30
0.0
  9
$PUCSXDIR
 10
1.0
 20
0.0
 30
0.0
  9
$PUCSYDIR
 10
0.0
 20
1.0
 30
0.0
  9
$PUCSORTHOREF
  2

  9
$PUCSORTHOVIEW
 70
     0
  9
$PUCSORGTOP
 10
0.0
 20
0.0
 30
0.0
  9
$PUCSORGBOTTOM
 10
0.0
 20
0.0
 30
0.0
  9
$PUCSORGLEFT
 10
0.0
 20
0.0
 30
0.0
  9
$PUCSORGRIGHT
 10
0.0
 20
0.0
 30
0.0
  9
$PUCSORGFRONT
 10
0.0
 20
0.0
 30
0.0
  9
$PUCSORGBACK
 10
0.0
 20
0.0
 30
0.0
  9
$USERI1
 70
     0
  9
$USERI2
 70
     0
  9
$USERI3
 70
     0
  9
$USERI4
 70
     0
  9
$USERI5
 70
     0
  9
$USERR1
 40
0.0
  9
$USERR2
 40
0.0
  9
$USERR3
 40
0.0
  9
$USERR4
 40
0.0
  9
$USERR5
 40
0.0
  9
$WORLDVIEW
 70
     1
  9
$SHADEDGE
 70
     3
  9
$SHADEDIF
 70
    70
  9
$TILEMODE
 70
     1
  9
$MAXACTVP
 70
    64
  9
$PINSBASE
 10
0.0
 20
0.0
 30
0.0
  9
$PLIMCHECK
 70
     0
  9
$PEXTMIN
 10
1.0000000000E+20
 20
1.0000000000E+20
 30
1.0000000000E+20
  9
$PEXTMAX
 10
-1.0000000000E+20
 20
-1.0000000000E+20
 30
-1.0000000000E+20
  9
$PLIMMIN
 10
0.0
 20
0.0
  9
$PLIMMAX
 10
420.0
 20
297.0
  9
$UNITMODE
 70
     0
  9
$VISRETAIN
 70
     1
  9
$PLINEGEN
 70
     0
  9
$PSLTSCALE
 70
     1
  9
$TREEDEPTH
 70
  3020
  9
$CMLSTYLE
  2
Standard
  9
$CMLJUST
 70
     0
  9
$CMLSCALE
 40
20.0
  9
$PROXYGRAPHICS
 70
     1
  9
$MEASUREMENT
 70
     1
  9
$CELWEIGHT
370
    -1
  9
$ENDCAPS
280
     0
  9
$JOINSTYLE
280
     0
  9
$LWDISPLAY
290
     1
  9
$INSUNITS
 70
     4
  9
$HYPERLINKBASE
  1

  9
$STYLESHEET
  1

  9
$XEDIT
290
     1
  9
$CEPSNTYPE
380
     0
  9
$PSTYLEMODE
290
     1
  9
$FINGERPRINTGUID
  2
{D2F3A383-1ACD-45B2-95E9-CDA1C9617311}
  9
$VERSIONGUID
  2
{FAEB1C32-E019-11D5-929B-00C0DF256EC4}
  9
$EXTNAMES
290
     1
  9
$PSVPSCALE
 40
0.0
  9
$OLESTARTUP
290
     0
  0
ENDSEC
  0
SECTION
  2
CLASSES
  0
CLASS
  1
ACDBDICTIONARYWDFLT
  2
AcDbDictionaryWithDefault
  3
ObjectDBX Classes
 90
        0
280
     0
281
     0
  0
CLASS
  1
VISUALSTYLE
  2
AcDbVisualStyle
  3
ObjectDBX Classes
 90
     4095
280
     0
281
     0
  0
CLASS
  1
MATERIAL
  2
AcDbMaterial
  3
ObjectDBX Classes
 90
     1153
280
     0
281
     0
  0
CLASS
  1
SCALE
  2
AcDbScale
  3
ObjectDBX Classes
 90
     1153
280
     0
281
     0
  0
CLASS
  1
TABLESTYLE
  2
AcDbTableStyle
  3
ObjectDBX Classes
 90
     4095
280
     0
281
     0
  0
CLASS
  1
MLEADERSTYLE
  2
AcDbMLeaderStyle
  3
ACDB_MLEADERSTYLE_CLASS
 90
     4095
280
     0
281
     0
  0
CLASS
  1
SUN
  2
AcDbSun
  3
SCENEOE
 90
     1153
280
     0
281
     0
  0
CLASS
  1
ACDBPLACEHOLDER
  2
AcDbPlaceHolder
  3
ObjectDBX Classes
 90
        0
280
     0
281
     0
  0
CLASS
  1
LAYOUT
  2
AcDbLayout
  3
ObjectDBX Classes
 90
        0
280
     0
281
     0
  0
ENDSEC
  0
SECTION
  2
TABLES
  0
TABLE
  2
VPORT
  5
8
330
0
100
AcDbSymbolTable
 70
     1
  0
VPORT
  5
29
330
8
100
AcDbSymbolTableRecord
100
AcDbViewportTableRecord
  2
*Active
 70
     0
 10
0.0
 20
0.0
 11
1.0
 21
1.0
 12
148.5
 22
105.0
 13
0.0
 23
0.0
 14
10.0
 24
10.0
 15
10.0
 25
10.0
 16
0.0
 26
0.0
 36
1.0
 17
0.0
 27
0.0
 37
0.0
 40
210.0
 41
1.4142857143
 42
50.0
 43
0.0
 44
0.0
 50
0.0
 51
0.0
 71
     0
 72
  2000
 73
     1
 74
     3
 75
     0
 76
     0
 77
     0
 78
     0
281
     0
 65
     1
110
0.0
120
0.0
130
0.0
111
1.0
121
0.0
131
0.0
112
0.0
122
1.0
132
0.0
 79
     0
146
0.0
  0
ENDTAB
  0
TABLE
  2
LTYPE
  5
5
330
0
100
AcDbSymbolTable
 70
     6
  0
LTYPE
  5
14
330
5
100
AcDbSymbolTableRecord
100
AcDbLinetypeTableRecord
  2
ByBlock
 70
     0
  3

 72
    65
 73
     0
 40
0.0
  0
LTYPE
  5
15
330
5
100
AcDbSymbolTableRecord
100
AcDbLinetypeTableRecord
  2
ByLayer
 70
     0
  3

 72
    65
 73
     0
 40
0.0
  0
LTYPE
  5
16
330
5
100
AcDbSymbolTableRecord
100
AcDbLinetypeTableRecord
  2
Continuous
 70
     0
  3
Solid line
 72
    65
 73
     0
 40
0.0
  0
LTYPE
  5
6E
330
5
100
AcDbSymbolTableRecord
100
AcDbLinetypeTableRecord
  2
HIDDEN
 70
     0
  3
Hidden __ __ __ __ __ __ __ __ __ __ __ __ __ __
 72
    65
 73
     2
 40
1.905
 49
1.27
 74
     0
 49
-0.635
 74
     0
  0
LTYPE
  5
6F
330
5
100
AcDbSymbolTableRecord
100
AcDbLinetypeTableRecord
  2
PHANTOM
 70
     0
  3
Phantom ______  __  __  ______  __  __  ______
 72
    65
 73
     6
 40
12.7
 49
6.35
 74
     0
 49
-1.27
 74
     0
 49
1.27
 74
     0
 49
-1.27
 74
     0
 49
1.27
 74
     0
 49
-1.27
 74
     0
  0
LTYPE
  5
70
330
5
100
AcDbSymbolTableRecord
100
AcDbLinetypeTableRecord
  2
CENTER
 70
     0
  3
Center ____ _ ____ _ ____ _ ____ _ ____ _ ____
 72
    65
 73
     4
 40
10.16
 49
6.35
 74
     0
 49
-1.27
 74
     0
 49
1.27
 74
     0
 49
-1.27
 74
     0
  0
LTYPE
  5
71
330
5
100
AcDbSymbolTableRecord
100
AcDbLinetypeTableRecord
  2
CENTERX2
 70
     0
  3
Center (2x) ________  __  ________  __  _____
 72
    65
 73
     4
 40
20.32
 49
12.7
 74
     0
 49
-2.54
 74
     0
 49
2.54
 74
     0
 49
-2.54
 74
     0
  0
LTYPE
  5
72
330
5
100
AcDbSymbolTableRecord
100
AcDbLinetypeTableRecord
  2
DOT2
 70
     0
  3
Dot (.5x) ........................................
 72
    65
 73
     2
 40
0.635
 49
0.0
 74
     0
 49
-0.635
 74
     0
  0
ENDTAB
  0
TABLE
  2
LAYER
  5
2
330
0
100
AcDbSymbolTable
 70
     5
  0
LAYER
  5
10
330
2
100
AcDbSymbolTableRecord
100
AcDbLayerTableRecord
  2
0
 70
     0
 62
     7
  6
Continuous
370
    -3
390
F
  0
LAYER
  5
73
330
2
100
AcDbSymbolTableRecord
100
AcDbLayerTableRecord
  2
FORMAT
 70
     0
 62
     7
  6
Continuous
370
    -3
390
F
  0
LAYER
  5
74
330
2
100
AcDbSymbolTableRecord
100
AcDbLayerTableRecord
  2
VERMASSUNG
 70
     0
 62
     7
  6
Continuous
370
    -3
390
F
  0
LAYER
  5
75
330
2
100
AcDbSymbolTableRecord
100
AcDbLayerTableRecord
  2
KOPF_DÜNN
 70
     0
 62
     7
  6
Continuous
370
    -3
390
F
  0
LAYER
  5
76
330
2
100
AcDbSymbolTableRecord
100
AcDbLayerTableRecord
  2
KOPF_DICK
 70
     0
 62
     7
  6
Continuous
370
    25
390
F
  0
ENDTAB
  0
TABLE
  2
STYLE
  5
3
330
0
100
AcDbSymbolTable
 70
     2
  0
STYLE
  5
11
330
3
100
AcDbSymbolTableRecord
100
AcDbTextStyleTableRecord
  2
Standard
 70
     0
 40
0.0
 41
1.0
 50
0.0
 71
     0
 42
2.0
  3
txt
  4

  0
STYLE
  5
77
330
3
100
AcDbSymbolTableRecord
100
AcDbTextStyleTableRecord
  2
SLDTEXTSTYLE0
 70
     0
 40
0.0
 41
0.7
 50
0.0
 71
     0
 42
2.0
  3
TXT
  4

  0
ENDTAB
  0
TABLE
  2
VIEW
  5
6
330
0
100
AcDbSymbolTable
 70
     0
  0
ENDTAB
  0
TABLE
  2
UCS
  5
7
330
0
100
AcDbSymbolTable
 70
     0
  0
ENDTAB
  0
TABLE
  2
APPID
  5
9
330
0
100
AcDbSymbolTable
 70
     1
  0
APPID
  5
12
330
9
100
AcDbSymbolTableRecord
100
AcDbRegAppTableRecord
  2
ACAD
 70
     0
  0
ENDTAB
  0
TABLE
  2
DIMSTYLE
  5
A
330
0
100
AcDbSymbolTable
 70
     3
100
AcDbDimStyleTable
  0
DIMSTYLE
105
27
330
A
100
AcDbSymbolTableRecord
100
AcDbDimStyleTableRecord
  2
ISO-25
 70
     0
 41
2.5
 42
0.625
 43
3.75
 44
1.25
 73
     0
 74
     0
 77
     1
 78
     8
140
2.5
141
2.5
143
0.0393700787
147
0.625
171
     3
172
     1
178
     0
271
     2
272
     2
274
     3
278
    44
283
     0
284
     8
340
11
  0
DIMSTYLE
105
115
102
{ACAD_REACTORS
330
114
330
120
330
137
330
14B
330
155
102
}
330
A
100
AcDbSymbolTableRecord
100
AcDbDimStyleTableRecord
  2
SLDDIMSTYLE0
 70
     0
 41
3.0
 44
0.0
 45
0.000000001
 73
     0
 74
     0
 77
     1
 78
    12
 79
     3
140
2.0
147
0.5
173
     1
178
     0
271
     2
272
     3
276
     2
284
    12
340
77
  0
DIMSTYLE
105
12C
102
{ACAD_REACTORS
330
12B
330
141
330
15F
102
}
330
A
100
AcDbSymbolTableRecord
100
AcDbDimStyleTableRecord
  2
SLDDIMSTYLE1
 70
     0
 41
3.0
 44
0.0
 45
0.000000001
 73
     0
 74
     0
 77
     1
 78
    12
 79
     3
140
2.0
147
0.5
173
     1
178
     0
271
     0
272
     3
276
     2
284
    12
340
77
  0
ENDTAB
  0
TABLE
  2
BLOCK_RECORD
  5
1
330
0
100
AcDbSymbolTable
 70
     9
  0
BLOCK_RECORD
  5
1F
330
1
100
AcDbSymbolTableRecord
100
AcDbBlockTableRecord
  2
*Model_Space
340
22
  0
BLOCK_RECORD
  5
1B
330
1
100
AcDbSymbolTableRecord
100
AcDbBlockTableRecord
  2
*Paper_Space
340
1E
  0
BLOCK_RECORD
  5
23
330
1
100
AcDbSymbolTableRecord
100
AcDbBlockTableRecord
  2
*Paper_Space0
340
26
  0
BLOCK_RECORD
  5
116
330
1
100
AcDbSymbolTableRecord
100
AcDbBlockTableRecord
  2
_D
340
0
  0
BLOCK_RECORD
  5
121
330
1
100
AcDbSymbolTableRecord
100
AcDbBlockTableRecord
  2
_D_1
340
0
  0
BLOCK_RECORD
  5
12D
330
1
100
AcDbSymbolTableRecord
100
AcDbBlockTableRecord
  2
_D_2
340
0
  0
BLOCK_RECORD
  5
138
330
1
100
AcDbSymbolTableRecord
100
AcDbBlockTableRecord
  2
_D_3
340
0
  0
BLOCK_RECORD
  5
142
330
1
100
AcDbSymbolTableRecord
100
AcDbBlockTableRecord
  2
_D_4
340
0
  0
BLOCK_RECORD
  5
14C
330
1
100
AcDbSymbolTableRecord
100
AcDbBlockTableRecord
  2
_D_5
340
0
  0
BLOCK_RECORD
  5
156
330
1
100
AcDbSymbolTableRecord
100
AcDbBlockTableRecord
  2
_D_6
340
0
  0
BLOCK_RECORD
  5
160
330
1
100
AcDbSymbolTableRecord
100
AcDbBlockTableRecord
  2
_D_7
340
0
  0
ENDTAB
  0
ENDSEC
  0
SECTION
  2
BLOCKS
  0
BLOCK
  5
20
330
1F
100
AcDbEntity
  8
0
100
AcDbBlockBegin
  2
*Model_Space
 70
     0
 10
0.0
 20
0.0
 30
0.0
  3
*Model_Space
  1

  0
ENDBLK
  5
21
330
1F
100
AcDbEntity
  8
0
100
AcDbBlockEnd
  0
BLOCK
  5
1C
330
1B
100
AcDbEntity
 67
     1
  8
0
100
AcDbBlockBegin
  2
*Paper_Space
 70
     0
 10
0.0
 20
0.0
 30
0.0
  3
*Paper_Space
  1

  0
ENDBLK
  5
1D
330
1B
100
AcDbEntity
 67
     1
  8
0
100
AcDbBlockEnd
  0
BLOCK
  5
24
330
23
100
AcDbEntity
  8
0
100
AcDbBlockBegin
  2
*Paper_Space0
 70
     0
 10
0.0
 20
0.0
 30
0.0
  3
*Paper_Space0
  1

  0
ENDBLK
  5
25
330
23
100
AcDbEntity
  8
0
100
AcDbBlockEnd
  0
BLOCK
  5
117
330
116
100
AcDbEntity
  8
0
100
AcDbBlockBegin
  2
_D
 70
     0
 10
0.0
 20
0.0
 30
0.0
  3
_D
  1

  0
SOLID
  5
119
330
116
100
AcDbEntity
  8
VERMASSUNG
100
AcDbTrace
 10
244.2103911566
 20
156.8537283576
 30
0.0
 11
243.7603911566
 21
153.8537283576
 31
0.0
 12
244.6603911566
 22
153.8537283576
 32
0.0
 13
244.6603911566
 23
153.8537283576
 33
0.0
  0
SOLID
  5
11A
330
116
100
AcDbEntity
  8
VERMASSUNG
100
AcDbTrace
 10
244.2103911566
 20
84.8537283576
 30
0.0
 11
244.6603911566
 21
87.8537283576
 31
0.0
 12
243.7603911566
 22
87.8537283576
 32
0.0
 13
243.7603911566
 23
87.8537283576
 33
0.0
  0
LINE
  5
11B
330
116
100
AcDbEntity
  8
VERMASSUNG
100
AcDbLine
 10
168.0726533912
 20
156.8537283576
 30
0.0
 11
245.2103911566
 21
156.8537283576
 31
0.0
  0
LINE
  5
11C
330
116
100
AcDbEntity
  8
VERMASSUNG
100
AcDbLine
 10
168.0726533912
 20
84.8537283576
 30
0.0
 11
245.2103911566
 21
84.8537283576
 31
0.0
  0
LINE
  5
11D
330
116
100
AcDbEntity
  8
VERMASSUNG
100
AcDbLine
 10
244.2103911566
 20
156.8537283576
 30
0.0
 11
244.2103911566
 21
84.8537283576
 31
0.0
  0
MTEXT
  5
11E
330
116
100
AcDbEntity
  8
VERMASSUNG
100
AcDbMText
 10
241.6322558517
 20
117.6487284004
 30
0.0
 40
2.0
 41
0.0
 71
     1
 72
     1
  1
%%c
  7
SLDTEXTSTYLE0
 11
-7.044195017643634E-15
 21
1.0
 31
0.0
 73
     1
 44
1.0
  0
MTEXT
  5
11F
330
116
100
AcDbEntity
  8
VERMASSUNG
100
AcDbMText
 10
241.4322559004
 20
121.2587284147
 30
0.0
 40
2.0
 41
0.0
 71
     1
 72
     1
  1
72
  7
SLDTEXTSTYLE0
 11
-7.044195017643634E-15
 21
1.0
 31
0.0
 73
     1
 44
1.0
  0
ENDBLK
  5
118
330
116
100
AcDbEntity
  8
0
100
AcDbBlockEnd
  0
BLOCK
  5
122
330
121
100
AcDbEntity
  8
0
100
AcDbBlockBegin
  2
_D_1
 70
     0
 10
0.0
 20
0.0
 30
0.0
  3
_D_1
  1

  0
SOLID
  5
124
330
121
100
AcDbEntity
  8
VERMASSUNG
100
AcDbTrace
 10
234.0726533912
 20
104.8537283576
 30
0.0
 11
234.5226533912
 21
107.8537283576
 31
0.0
 12
233.6226533912
 22
107.8537283576
 32
0.0
 13
233.6226533912
 23
107.8537283576
 33
0.0
  0
SOLID
  5
125
330
121
100
AcDbEntity
  8
VERMASSUNG
100
AcDbTrace
 10
234.0726533912
 20
136.8537283576
 30
0.0
 11
233.6226533912
 21
133.8537283576
 31
0.0
 12
234.5226533912
 22
133.8537283576
 32
0.0
 13
234.5226533912
 23
133.8537283576
 33
0.0
  0
LINE
  5
126
330
121
100
AcDbEntity
  8
VERMASSUNG
100
AcDbLine
 10
192.0726533912
 20
104.8537283576
 30
0.0
 11
235.0726533912
 21
104.8537283576
 31
0.0
  0
LINE
  5
127
330
121
100
AcDbEntity
  8
VERMASSUNG
100
AcDbLine
 10
192.0726533912
 20
136.8537283576
 30
0.0
 11
235.0726533912
 21
136.8537283576
 31
0.0
  0
LINE
  5
128
330
121
100
AcDbEntity
  8
VERMASSUNG
100
AcDbLine
 10
234.0726533912
 20
104.8537283576
 30
0.0
 11
234.0726533912
 21
136.8537283576
 31
0.0
  0
MTEXT
  5
129
330
121
100
AcDbEntity
  8
VERMASSUNG
100
AcDbMText
 10
231.4945180863
 20
117.6487284004
 30
0.0
 40
2.0
 41
0.0
 71
     1
 72
     1
  1
%%c
  7
SLDTEXTSTYLE0
 11
6.123233995736766E-17
 21
1.0
 31
0.0
 73
     1
 44
1.0
  0
MTEXT
  5
12A
330
121
100
AcDbEntity
  8
VERMASSUNG
100
AcDbMText
 10
231.294518135
 20
121.2587284147
 30
0.0
 40
2.0
 41
0.0
 71
     1
 72
     1
  1
32
  7
SLDTEXTSTYLE0
 11
6.123233995736766E-17
 21
1.0
 31
0.0
 73
     1
 44
1.0
  0
ENDBLK
  5
123
330
121
100
AcDbEntity
  8
0
100
AcDbBlockEnd
  0
BLOCK
  5
12E
330
12D
100
AcDbEntity
  8
0
100
AcDbBlockBegin
  2
_D_2
 70
     0
 10
0.0
 20
0.0
 30
0.0
  3
_D_2
  1

  0
SOLID
  5
130
330
12D
100
AcDbEntity
  8
VERMASSUNG
100
AcDbTrace
 10
224.3065659949
 20
127.9247283576
 30
0.0
 11
223.8565659949
 21
124.9247283576
 31
0.0
 12
224.7565659949
 22
124.9247283576
 32
0.0
 13
224.7565659949
 23
124.9247283576
 33
0.0
  0
SOLID
  5
131
330
12D
100
AcDbEntity
  8
VERMASSUNG
100
AcDbTrace
 10
224.3065659949
 20
113.7827283576
 30
0.0
 11
224.7565659949
 21
116.7827283576
 31
0.0
 12
223.8565659949
 22
116.7827283576
 32
0.0
 13
223.8565659949
 23
116.7827283576
 33
0.0
  0
LINE
  5
132
330
12D
100
AcDbEntity
  8
VERMASSUNG
100
AcDbLine
 10
212.0726533912
 20
127.9247283576
 30
0.0
 11
225.3065659949
 21
127.9247283576
 31
0.0
  0
LINE
  5
133
330
12D
100
AcDbEntity
  8
VERMASSUNG
100
AcDbLine
 10
212.0726533912
 20
113.7827283576
 30
0.0
 11
225.3065659949
 21
113.7827283576
 31
0.0
  0
LINE
  5
134
330
12D
100
AcDbEntity
  8
VERMASSUNG
100
AcDbLine
 10
224.3065659949
 20
127.9247283576
 30
0.0
 11
224.3065659949
 21
113.7827283576
 31
0.0
  0
MTEXT
  5
135
330
12D
100
AcDbEntity
  8
VERMASSUNG
100
AcDbMText
 10
221.7284303989
 20
117.6537282056
 30
0.0
 40
2.0
 41
0.0
 71
     1
 72
     1
  1
SW
  7
SLDTEXTSTYLE0
 11
-7.044195017643634E-15
 21
1.0
 31
0.0
 73
     1
 44
1.0
  0
MTEXT
  5
136
330
12D
100
AcDbEntity
  8
VERMASSUNG
100
AcDbMText
 10
221.7284303989
 20
121.4537282697
 30
0.0
 40
2.0
 41
0.0
 71
     1
 72
     1
  1
14
  7
SLDTEXTSTYLE0
 11
-7.044195017643634E-15
 21
1.0
 31
0.0
 73
     1
 44
1.0
  0
ENDBLK
  5
12F
330
12D
100
AcDbEntity
  8
0
100
AcDbBlockEnd
  0
BLOCK
  5
139
330
138
100
AcDbEntity
  8
0
100
AcDbBlockBegin
  2
_D_3
 70
     0
 10
0.0
 20
0.0
 30
0.0
  3
_D_3
  1

  0
SOLID
  5
13B
330
138
100
AcDbEntity
  8
VERMASSUNG
100
AcDbTrace
 10
106.0726533912
 20
171.5006156627
 30
0.0
 11
109.0726533912
 21
171.0506156627
 31
0.0
 12
109.0726533912
 22
171.9506156627
 32
0.0
 13
109.0726533912
 23
171.9506156627
 33
0.0
  0
SOLID
  5
13C
330
138
100
AcDbEntity
  8
VERMASSUNG
100
AcDbTrace
 10
169.0726533912
 20
171.5006156627
 30
0.0
 11
166.0726533912
 21
171.9506156627
 31
0.0
 12
166.0726533912
 22
171.0506156627
 32
0.0
 13
166.0726533912
 23
171.0506156627
 33
0.0
  0
LINE
  5
13D
330
138
100
AcDbEntity
  8
VERMASSUNG
100
AcDbLine
 10
106.0726533912
 20
152.1287283576
 30
0.0
 11
106.0726533912
 21
172.5006156627
 31
0.0
  0
LINE
  5
13E
330
138
100
AcDbEntity
  8
VERMASSUNG
100
AcDbLine
 10
169.0726533912
 20
155.8537283576
 30
0.0
 11
169.0726533912
 21
172.5006156627
 31
0.0
  0
LINE
  5
13F
330
138
100
AcDbEntity
  8
VERMASSUNG
100
AcDbLine
 10
106.0726533912
 20
171.5006156627
 30
0.0
 11
169.0726533912
 21
171.5006156627
 31
0.0
  0
MTEXT
  5
140
330
138
100
AcDbEntity
  8
VERMASSUNG
100
AcDbMText
 10
136.1726534411
 20
174.0787512586
 30
0.0
 40
2.0
 41
0.0
 71
     1
 72
     1
  1
63
  7
SLDTEXTSTYLE0
 73
     1
 44
1.0
  0
ENDBLK
  5
13A
330
138
100
AcDbEntity
  8
0
100
AcDbBlockEnd
  0
BLOCK
  5
143
330
142
100
AcDbEntity
  8
0
100
AcDbBlockBegin
  2
_D_4
 70
     0
 10
0.0
 20
0.0
 30
0.0
  3
_D_4
  1

  0
SOLID
  5
145
330
142
100
AcDbEntity
  8
VERMASSUNG
100
AcDbTrace
 10
127.6584398288
 20
164.5832126873
 30
0.0
 11
130.6584398288
 21
164.1332126873
 31
0.0
 12
130.6584398288
 22
165.0332126873
 32
0.0
 13
130.6584398288
 23
165.0332126873
 33
0.0
  0
SOLID
  5
146
330
142
100
AcDbEntity
  8
VERMASSUNG
100
AcDbTrace
 10
169.0726533912
 20
164.5832126873
 30
0.0
 11
166.0726533912
 21
165.0332126873
 31
0.0
 12
166.0726533912
 22
164.1332126873
 32
0.0
 13
166.0726533912
 23
164.1332126873
 33
0.0
  0
LINE
  5
147
330
142
100
AcDbEntity
  8
VERMASSUNG
100
AcDbLine
 10
127.6584398288
 20
152.3287283576
 30
0.0
 11
127.6584398288
 21
165.5832126873
 31
0.0
  0
LINE
  5
148
330
142
100
AcDbEntity
  8
VERMASSUNG
100
AcDbLine
 10
169.0726533912
 20
155.8537283576
 30
0.0
 11
169.0726533912
 21
165.5832126873
 31
0.0
  0
LINE
  5
149
330
142
100
AcDbEntity
  8
VERMASSUNG
100
AcDbLine
 10
127.6584398288
 20
164.5832126873
 30
0.0
 11
169.0726533912
 21
164.5832126873
 31
0.0
  0
MTEXT
  5
14A
330
142
100
AcDbEntity
  8
VERMASSUNG
100
AcDbMText
 10
147.0655466065
 20
167.1613482833
 30
0.0
 40
2.0
 41
0.0
 71
     1
 72
     1
  1
41
  7
SLDTEXTSTYLE0
 73
     1
 44
1.0
  0
ENDBLK
  5
144
330
142
100
AcDbEntity
  8
0
100
AcDbBlockEnd
  0
BLOCK
  5
14D
330
14C
100
AcDbEntity
  8
0
100
AcDbBlockBegin
  2
_D_5
 70
     0
 10
0.0
 20
0.0
 30
0.0
  3
_D_5
  1

  0
SOLID
  5
14F
330
14C
100
AcDbEntity
  8
VERMASSUNG
100
AcDbTrace
 10
193.0726533912
 20
164.5832126873
 30
0.0
 11
190.0726533912
 21
165.0332126873
 31
0.0
 12
190.0726533912
 22
164.1332126873
 32
0.0
 13
190.0726533912
 23
164.1332126873
 33
0.0
  0
SOLID
  5
150
330
14C
100
AcDbEntity
  8
VERMASSUNG
100
AcDbTrace
 10
169.0726533912
 20
164.5832126873
 30
0.0
 11
172.0726533912
 21
164.1332126873
 31
0.0
 12
172.0726533912
 22
165.0332126873
 32
0.0
 13
172.0726533912
 23
165.0332126873
 33
0.0
  0
LINE
  5
151
330
14C
100
AcDbEntity
  8
VERMASSUNG
100
AcDbLine
 10
193.0726533912
 20
132.0157864271
 30
0.0
 11
193.0726533912
 21
165.5832126873
 31
0.0
  0
LINE
  5
152
330
14C
100
AcDbEntity
  8
VERMASSUNG
100
AcDbLine
 10
169.0726533912
 20
155.8537283576
 30
0.0
 11
169.0726533912
 21
165.5832126873
 31
0.0
  0
LINE
  5
153
330
14C
100
AcDbEntity
  8
VERMASSUNG
100
AcDbLine
 10
193.0726533912
 20
164.5832126873
 30
0.0
 11
169.0726533912
 21
164.5832126873
 31
0.0
  0
MTEXT
  5
154
330
14C
100
AcDbEntity
  8
VERMASSUNG
100
AcDbMText
 10
179.5726533782
 20
167.1613482833
 30
0.0
 40
2.0
 41
0.0
 71
     1
 72
     1
  1
24
  7
SLDTEXTSTYLE0
 73
     1
 44
1.0
  0
ENDBLK
  5
14E
330
14C
100
AcDbEntity
  8
0
100
AcDbBlockEnd
  0
BLOCK
  5
157
330
156
100
AcDbEntity
  8
0
100
AcDbBlockBegin
  2
_D_6
 70
     0
 10
0.0
 20
0.0
 30
0.0
  3
_D_6
  1

  0
SOLID
  5
159
330
156
100
AcDbEntity
  8
VERMASSUNG
100
AcDbTrace
 10
66.1226533912
 20
178.8537283576
 30
0.0
 11
69.1226533912
 21
178.4037283576
 31
0.0
 12
69.1226533912
 22
179.3037283576
 32
0.0
 13
69.1226533912
 23
179.3037283576
 33
0.0
  0
SOLID
  5
15A
330
156
100
AcDbEntity
  8
VERMASSUNG
100
AcDbTrace
 10
193.0726533912
 20
178.8537283576
 30
0.0
 11
190.0726533912
 21
179.3037283576
 31
0.0
 12
190.0726533912
 22
178.4037283576
 32
0.0
 13
190.0726533912
 23
178.4037283576
 33
0.0
  0
LINE
  5
15B
330
156
100
AcDbEntity
  8
VERMASSUNG
100
AcDbLine
 10
66.1226533912
 20
141.1159540943
 30
0.0
 11
66.1226533912
 21
179.8537283576
 31
0.0
  0
LINE
  5
15C
330
156
100
AcDbEntity
  8
VERMASSUNG
100
AcDbLine
 10
193.0726533912
 20
135.8537283576
 30
0.0
 11
193.0726533912
 21
179.8537283576
 31
0.0
  0
LINE
  5
15D
330
156
100
AcDbEntity
  8
VERMASSUNG
100
AcDbLine
 10
66.1226533912
 20
178.8537283576
 30
0.0
 11
193.0726533912
 21
178.8537283576
 31
0.0
  0
MTEXT
  5
15E
330
156
100
AcDbEntity
  8
VERMASSUNG
100
AcDbMText
 10
125.9976534531
 20
181.4318639536
 30
0.0
 40
2.0
 41
0.0
 71
     1
 72
     1
  1
126.95
  7
SLDTEXTSTYLE0
 73
     1
 44
1.0
  0
ENDBLK
  5
158
330
156
100
AcDbEntity
  8
0
100
AcDbBlockEnd
  0
BLOCK
  5
161
330
160
100
AcDbEntity
  8
0
100
AcDbBlockBegin
  2
_D_7
 70
     0
 10
0.0
 20
0.0
 30
0.0
  3
_D_7
  1

  0
SOLID
  5
163
330
160
100
AcDbEntity
  8
VERMASSUNG
100
AcDbTrace
 10
56.1226283912
 20
152.3287283576
 30
0.0
 11
55.6726283912
 21
149.3287283576
 31
0.0
 12
56.5726283912
 22
149.3287283576
 32
0.0
 13
56.5726283912
 23
149.3287283576
 33
0.0
  0
SOLID
  5
164
330
160
100
AcDbEntity
  8
VERMASSUNG
100
AcDbTrace
 10
56.1226283912
 20
89.3787283576
 30
0.0
 11
56.5726283912
 21
92.3787283576
 31
0.0
 12
55.6726283912
 22
92.3787283576
 32
0.0
 13
55.6726283912
 23
92.3787283576
 33
0.0
  0
LINE
  5
165
330
160
100
AcDbEntity
  8
VERMASSUNG
100
AcDbLine
 10
106.2726533912
 20
152.3287283576
 30
0.0
 11
55.1226283912
 21
152.3287283576
 31
0.0
  0
LINE
  5
166
330
160
100
AcDbEntity
  8
VERMASSUNG
100
AcDbLine
 10
106.2726533912
 20
89.3787283576
 30
0.0
 11
55.1226283912
 21
89.3787283576
 31
0.0
  0
LINE
  5
167
330
160
100
AcDbEntity
  8
VERMASSUNG
100
AcDbLine
 10
56.1226283912
 20
152.3287283576
 30
0.0
 11
56.1226283912
 21
89.3787283576
 31
0.0
  0
MTEXT
  5
168
330
160
100
AcDbEntity
  8
VERMASSUNG
100
AcDbMText
 10
53.344493135
 20
112.7487297392
 30
0.0
 40
2.0
 41
0.0
 71
     1
 72
     1
  1
KM
  7
SLDTEXTSTYLE0
 11
-7.044195017643634E-15
 21
1.0
 31
0.0
 73
     1
 44
1.0
  0
MTEXT
  5
169
330
160
100
AcDbEntity
  8
VERMASSUNG
100
AcDbMText
 10
53.5444930863
 20
116.1487295515
 30
0.0
 40
2.0
 41
0.0
 71
     1
 72
     1
  1
%%c
  7
SLDTEXTSTYLE0
 11
-7.044195017643634E-15
 21
1.0
 31
0.0
 73
     1
 44
1.0
  0
MTEXT
  5
16A
330
160
100
AcDbEntity
  8
VERMASSUNG
100
AcDbMText
 10
53.344493135
 20
119.7587295658
 30
0.0
 40
2.0
 41
0.0
 71
     1
 72
     1
  1
63
  7
SLDTEXTSTYLE0
 11
-7.044195017643634E-15
 21
1.0
 31
0.0
 73
     1
 44
1.0
  0
MTEXT
  5
16B
330
160
100
AcDbEntity
  8
VERMASSUNG
100
AcDbMText
 10
53.344493135
 20
123.7462294659
 30
0.0
 40
2.0
 41
0.0
 71
     1
 72
     1
  1
XMZ
  7
SLDTEXTSTYLE0
 11
-7.044195017643634E-15
 21
1.0
 31
0.0
 73
     1
 44
1.0
  0
ENDBLK
  5
162
330
160
100
AcDbEntity
  8
0
100
AcDbBlockEnd
  0
ENDSEC
  0
SECTION
  2
ENTITIES
  0
MTEXT
  5
78
330
1F
100
AcDbEntity
  8
KOPF_DÜNN
100
AcDbMText
 10
13.8892156294
 20
23.8442973028
 30
0.0
 40
3.0
 41
0.0
 71
     1
 72
     1
  1
KY6.D32.K21.063
  7
SLDTEXTSTYLE0
 73
     1
 44
1.0
  0
MTEXT
  5
79
330
1F
100
AcDbEntity
  8
VERMASSUNG
100
AcDbMText
 10
13.9329988022
 20
28.8834360957
 30
0.0
 40
3.0
 41
0.0
 71
     1
 72
     1
  1
Fräsdorn_Milling arbor
  7
SLDTEXTSTYLE0
 73
     1
 44
1.0
  0
MTEXT
  5
7A
330
1F
100
AcDbEntity
  8
VERMASSUNG
100
AcDbMText
 10
98.8601118557
 20
13.8365368761
 30
0.0
 40
2.0
 41
0.0
 71
     1
 72
     1
  1
Datum: 19.02.2018
  7
SLDTEXTSTYLE0
 73
     1
 44
1.0
  0
MTEXT
  5
7B
330
1F
100
AcDbEntity
  8
VERMASSUNG
100
AcDbMText
 10
13.933048693
 20
18.0482802738
 30
0.0
 40
2.0
 41
0.0
 71
     1
 72
     1
  1
KM63 XMZ / Ø32
  7
SLDTEXTSTYLE0
 73
     1
 44
1.0
  0
MTEXT
  5
7C
330
1F
100
AcDbEntity
  8
VERMASSUNG
100
AcDbMText
 10
13.9808475933
 20
13.9090974274
 30
0.0
 40
2.0
 41
0.0
 71
     1
 72
     1
  1
Gewicht: 2184g
  7
SLDTEXTSTYLE0
 73
     1
 44
1.0
  0
LINE
  5
7D
330
1F
100
AcDbEntity
  8
0
  6
Continuous
 62
     7
370
    25
100
AcDbLine
 10
169.0726544045
 20
86.8537265098
 30
0.0
 11
175.572652676
 21
86.8537265098
 31
0.0
  0
LINE
  5
7E
330
1F
100
AcDbEntity
  8
0
  6
Continuous
 62
     7
370
    25
100
AcDbLine
 10
175.572652676
 20
100.8537288046
 30
0.0
 11
169.0726544045
 21
100.8537288046
 31
0.0
  0
ARC
  5
7F
330
1F
100
AcDbEntity
  8
0
  6
Continuous
 62
     7
370
    25
100
AcDbCircle
 10
175.5726533912
 20
87.3537283576
 30
0.0
 40
0.5
100
AcDbArc
 50
270.0
 51
0.0
  0
ARC
  5
80
330
1F
100
AcDbEntity
  8
0
  6
Continuous
 62
     7
370
    25
100
AcDbCircle
 10
175.5726533912
 20
100.3537283576
 30
0.0
 40
0.5
100
AcDbArc
 50
0.0
 51
90.0
  0
ARC
  5
81
330
1F
100
AcDbEntity
  8
0
  6
Continuous
 62
     7
370
    25
100
AcDbCircle
 10
175.5726533912
 20
141.3537283576
 30
0.0
 40
0.5
100
AcDbArc
 50
270.0
 51
0.0
  0
ARC
  5
82
330
1F
100
AcDbEntity
  8
0
  6
Continuous
 62
     7
370
    25
100
AcDbCircle
 10
175.5726533912
 20
154.3537283576
 30
0.0
 40
0.5
100
AcDbArc
 50
0.0
 51
90.0
  0
LINE
  5
83
330
1F
100
AcDbEntity
  8
0
  6
Continuous
 62
     7
370
    25
100
AcDbLine
 10
169.0726544045
 20
140.8537279106
 30
0.0
 11
175.572652676
 21
140.8537279106
 31
0.0
  0
LINE
  5
84
330
1F
100
AcDbEntity
  8
0
  6
Continuous
 62
     7
370
    25
100
AcDbLine
 10
175.572652676
 20
154.8537302053
 30
0.0
 11
169.0726544045
 21
154.8537302053
 31
0.0
  0
LINE
  5
85
330
1F
100
AcDbEntity
  8
0
  6
Continuous
 62
     7
370
    25
100
AcDbLine
 10
211.2726534985
 20
132.8537284619
 30
0.0
 11
196.0726569675
 21
132.8537284619
 31
0.0
  0
LINE
  5
86
330
1F
100
AcDbEntity
  8
0
  6
Continuous
 62
     7
370
    25
100
AcDbLine
 10
196.0726569675
 20
108.8537282533
 30
0.0
 11
211.2726534985
 21
108.8537282533
 31
0.0
  0
ARC
  5
87
330
1F
100
AcDbEntity
  8
0
  6
Continuous
 62
     7
370
    25
100
AcDbCircle
 10
211.2726533912
 20
132.0537283576
 30
0.0
 40
0.8000000000000114
100
AcDbArc
 50
0.0
 51
90.0
  0
ARC
  5
88
330
1F
100
AcDbEntity
  8
0
  6
Continuous
 62
     7
370
    25
100
AcDbCircle
 10
211.2726533912
 20
109.6537283576
 30
0.0
 40
0.8000000000000114
100
AcDbArc
 50
270.0
 51
0.0
  0
ARC
  5
89
330
1F
100
AcDbEntity
  8
0
  6
Continuous
 62
     7
370
    25
100
AcDbCircle
 10
195.4726533912
 20
112.2537283576
 30
0.0
 40
0.5999999999999943
100
AcDbArc
 50
0.0
 51
90.0
  0
ARC
  5
8A
330
1F
100
AcDbEntity
  8
0
  6
Continuous
 62
     7
370
    25
100
AcDbCircle
 10
195.4726533912
 20
129.4537283576
 30
0.0
 40
0.6000000000000227
100
AcDbArc
 50
270.0
 51
0.0
  0
LINE
  5
8B
330
1F
100
AcDbEntity
  8
0
  6
Continuous
 62
     7
370
    25
100
AcDbLine
 10
195.4726542614
 20
128.8537287376
 30
0.0
 11
193.0726508878
 21
128.8537287376
 31
0.0
  0
LINE
  5
8C
330
1F
100
AcDbEntity
  8
0
  6
Continuous
 62
     7
370
    25
100
AcDbLine
 10
193.0726508878
 20
112.8537279776
 30
0.0
 11
195.4726542614
 21
112.8537279776
 31
0.0
  0
LINE
  5
8D
330
1F
100
AcDbEntity
  8
0
  6
Continuous
 62
     7
370
    25
100
AcDbLine
 10
133.0118666671
 20
84.8537299073
 30
0.0
 11
168.0726523779
 21
84.8537299073
 31
0.0
  0
LINE
  5
8E
330
1F
100
AcDbEntity
  8
0
  6
Continuous
 62
     7
370
    25
100
AcDbLine
 10
168.0726523779
 20
156.8537268079
 30
0.0
 11
133.0118666671
 21
156.8537268079
 31
0.0
  0
ARC
  5
8F
330
1F
100
AcDbEntity
  8
0
  6
Continuous
 62
     7
370
    25
100
AcDbCircle
 10
168.0726533912
 20
85.8537283576
 30
0.0
 40
1.0
100
AcDbArc
 50
270.0
 51
0.0
  0
ARC
  5
90
330
1F
100
AcDbEntity
  8
0
  6
Continuous
 62
     7
370
    25
100
AcDbCircle
 10
168.0726533912
 20
155.8537283576
 30
0.0
 40
1.0
100
AcDbArc
 50
0.0
 51
90.0
  0
ARC
  5
91
330
1F
100
AcDbEntity
  8
0
  6
Continuous
 62
     7
370
    25
100
AcDbCircle
 10
133.0118669536
 20
85.8537283576
 30
0.0
 40
1.0
100
AcDbArc
 50
225.0
 51
270.0
  0
ARC
  5
92
330
1F
100
AcDbEntity
  8
0
  6
Continuous
 62
     7
370
    25
100
AcDbCircle
 10
133.0118669536
 20
155.8537283576
 30
0.0
 40
1.0
100
AcDbArc
 50
90.0
 51
135.0
  0
LINE
  5
93
330
1F
100
AcDbEntity
  8
0
  6
Continuous
 62
     7
370
    25
100
AcDbLine
 10
132.3047600024
 20
156.5608333087
 30
0.0
 11
128.3655467711
 21
152.6216219402
 31
0.0
  0
LINE
  5
94
330
1F
100
AcDbEntity
  8
0
  6
Continuous
 62
     7
370
    25
100
AcDbLine
 10
128.3655467711
 20
89.085834775
 30
0.0
 11
132.3047600024
 21
85.1466234064
 31
0.0
  0
ARC
  5
95
330
1F
100
AcDbEntity
  8
0
  6
Continuous
 62
     7
370
    25
100
AcDbCircle
 10
127.6584398288
 20
88.3787283576
 30
0.0
 40
1.000000000000018
100
AcDbArc
 50
45.0
 51
90.0
  0
ARC
  5
96
330
1F
100
AcDbEntity
  8
0
  6
Continuous
 62
     7
370
    25
100
AcDbCircle
 10
127.6584398288
 20
153.3287283576
 30
0.0
 40
1.000000000000028
100
AcDbArc
 50
270.0
 51
315.0
  0
ARC
  5
97
330
1F
100
AcDbEntity
  8
0
  6
Continuous
 62
     7
370
    25
100
AcDbCircle
 10
106.2726533912
 20
89.5787283576
 30
0.0
 40
0.2000000000000028
100
AcDbArc
 50
180.0
 51
270.0
  0
ARC
  5
98
330
1F
100
AcDbEntity
  8
0
  6
Continuous
 62
     7
370
    25
100
AcDbCircle
 10
106.2726533912
 20
152.1287283576
 30
0.0
 40
0.2000000000000171
100
AcDbArc
 50
90.0
 51
180.0
  0
LINE
  5
99
330
1F
100
AcDbEntity
  8
0
  6
Continuous
 62
     7
370
    25
100
AcDbLine
 10
106.2726533862
 20
89.3787282741
 30
0.0
 11
112.6384556562
 21
89.3787282741
 31
0.0
  0
LINE
  5
9A
330
1F
100
AcDbEntity
  8
0
  6
Continuous
 62
     7
370
    25
100
AcDbLine
 10
111.4331510186
 20
152.328728441
 30
0.0
 11
106.2726533862
 21
152.328728441
 31
0.0
  0
LINE
  5
9B
330
1F
100
AcDbEntity
  8
0
  6
Continuous
 62
     7
370
    25
100
AcDbLine
 10
119.3068514846
 20
89.3787282741
 30
0.0
 11
127.6584401064
 21
89.3787282741
 31
0.0
  0
LINE
  5
9C
330
1F
100
AcDbEntity
  8
0
  6
Continuous
 62
     7
370
    25
100
AcDbLine
 10
127.6584401064
 20
152.328728441
 30
0.0
 11
122.7875001065
 21
152.328728441
 31
0.0
  0
LINE
  5
9D
330
1F
100
AcDbEntity
  8
0
  6
Continuous
 62
     7
370
    25
100
AcDbLine
 10
112.6384556562
 20
89.3787282741
 30
0.0
 11
114.0976532631
 21
91.9061328507
 31
0.0
  0
ARC
  5
9E
330
1F
100
AcDbEntity
  8
0
  6
Continuous
 62
     7
370
    25
100
AcDbCircle
 10
105.6437185166
 20
95.3037283576
 30
0.0
 40
0.8000000000000004
100
AcDbArc
 50
57.576802718
 51
107.5
  0
ARC
  5
9F
330
1F
100
AcDbEntity
  8
0
  6
Continuous
 62
     7
370
    25
100
AcDbCircle
 10
105.6437185166
 20
146.4037283576
 30
0.0
 40
0.7999999999999868
100
AcDbArc
 50
252.5
 51
302.423197282
  0
LINE
  5
A0
330
1F
100
AcDbEntity
  8
0
  6
Continuous
 62
     7
370
    25
100
AcDbLine
 10
117.8476534121
 20
91.9061328507
 30
0.0
 11
119.3068514846
 21
89.3787282741
 31
0.0
  0
LINE
  5
A1
330
1F
100
AcDbEntity
  8
0
  6
Continuous
 62
     7
370
    25
100
AcDbLine
 10
104.9124713324
 20
95.9119896627
 30
0.0
 11
105.4031538813
 21
96.0667028314
 31
0.0
  0
LINE
  5
A2
330
1F
100
AcDbEntity
  8
0
  6
Continuous
 62
     7
370
    25
100
AcDbLine
 10
105.4031538813
 20
145.6407538838
 30
0.0
 11
104.9124713324
 21
145.7954670525
 31
0.0
  0
LINE
  5
A3
330
1F
100
AcDbEntity
  8
0
  6
Continuous
 62
     7
370
    25
100
AcDbLine
 10
104.9124713324
 20
145.7954670525
 30
0.0
 11
88.9675955556
 21
144.9947475678
 31
0.0
  0
LINE
  5
A4
330
1F
100
AcDbEntity
  8
0
  6
Continuous
 62
     7
370
    25
100
AcDbLine
 10
88.9675955556
 20
96.7127091474
 30
0.0
 11
104.9124713324
 21
95.9119896627
 31
0.0
  0
ARC
  5
A5
330
1F
100
AcDbEntity
  8
0
  6
Continuous
 62
     7
370
    25
100
AcDbCircle
 10
115.0976533912
 20
92.0037283576
 30
0.0
 40
1.0
100
AcDbArc
 50
90.0
 51
180.0
  0
ARC
  5
A6
330
1F
100
AcDbEntity
  8
0
  6
Continuous
 62
     7
370
    25
100
AcDbCircle
 10
116.8476533912
 20
92.0037283576
 30
0.0
 40
1.0
100
AcDbArc
 50
0.0
 51
90.0
  0
LINE
  5
A7
330
1F
100
AcDbEntity
  8
0
  6
Continuous
 62
     7
370
    25
100
AcDbLine
 10
115.097653427
 20
93.0037281698
 30
0.0
 11
116.8476532482
 21
93.0037281698
 31
0.0
  0
ARC
  5
A8
330
1F
100
AcDbEntity
  8
0
  6
Continuous
 62
     7
370
    25
100
AcDbCircle
 10
169.4726533912
 20
104.6037283576
 30
0.0
 40
0.6000000000000085
100
AcDbArc
 50
90.0
 51
131.8103148958
  0
ARC
  5
A9
330
1F
100
AcDbEntity
  8
0
  6
Continuous
 62
     7
370
    25
100
AcDbCircle
 10
169.4726533912
 20
137.1037283576
 30
0.0
 40
0.5999999999999943
100
AcDbArc
 50
228.1896851042
 51
270.0
  0
LINE
  5
AA
330
1F
100
AcDbEntity
  8
0
  6
Continuous
 62
     7
370
    25
100
AcDbLine
 10
171.5726520203
 20
136.8537291176
 30
0.0
 11
170.3427325271
 21
136.5241731739
 31
0.0
  0
LINE
  5
AB
330
1F
100
AcDbEntity
  8
0
  6
Continuous
 62
     7
370
    25
100
AcDbLine
 10
170.3427325271
 20
105.1832835412
 30
0.0
 11
171.5726520203
 21
104.8537275976
 31
0.0
  0
LINE
  5
AC
330
1F
100
AcDbEntity
  8
0
  6
Continuous
 62
     7
370
    25
100
AcDbLine
 10
171.5726520203
 20
104.8537275976
 30
0.0
 11
192.0726563118
 21
104.8537275976
 31
0.0
  0
LINE
  5
AD
330
1F
100
AcDbEntity
  8
0
  6
Continuous
 62
     7
370
    25
100
AcDbLine
 10
192.0726563118
 20
136.8537291176
 30
0.0
 11
171.5726520203
 21
136.8537291176
 31
0.0
  0
ARC
  5
AE
330
1F
100
AcDbEntity
  8
0
  6
Continuous
 62
     7
370
    25
100
AcDbCircle
 10
192.0726533912
 20
105.8537283576
 30
0.0
 40
1.0
100
AcDbArc
 50
270.0
 51
0.0
  0
ARC
  5
AF
330
1F
100
AcDbEntity
  8
0
  6
Continuous
 62
     7
370
    25
100
AcDbCircle
 10
192.0726533912
 20
135.8537283576
 30
0.0
 40
1.0
100
AcDbArc
 50
0.0
 51
90.0
  0
ARC
  5
B0
330
1F
100
AcDbEntity
  8
0
  6
Continuous
 62
     7
370
    25
100
AcDbCircle
 10
170.18744411
 20
104.6037283576
 30
0.0
 40
0.6000000000000085
100
AcDbArc
 50
75.0
 51
90.0
  0
ARC
  5
B1
330
1F
100
AcDbEntity
  8
0
  6
Continuous
 62
     7
370
    25
100
AcDbCircle
 10
170.18744411
 20
137.1037283576
 30
0.0
 40
0.5999999999999943
100
AcDbArc
 50
270.0
 51
285.0
  0
LINE
  5
B2
330
1F
100
AcDbEntity
  8
0
  6
Continuous
 62
     7
370
    25
100
AcDbLine
 10
169.472653725
 20
105.2037279344
 30
0.0
 11
170.1874475263
 21
105.2037279344
 31
0.0
  0
LINE
  5
B3
330
1F
100
AcDbEntity
  8
0
  6
Continuous
 62
     7
370
    25
100
AcDbLine
 10
170.1874475263
 20
136.5037287808
 30
0.0
 11
169.472653725
 21
136.5037287808
 31
0.0
  0
LINE
  5
B4
330
1F
100
AcDbEntity
  8
0
  6
Continuous
 62
     7
370
    25
100
AcDbLine
 10
88.9675955556
 20
144.9947475678
 30
0.0
 11
88.0726541661
 21
144.0998061782
 31
0.0
  0
LINE
  5
B5
330
1F
100
AcDbEntity
  8
0
  6
Continuous
 62
     7
370
    25
100
AcDbLine
 10
88.0726541661
 20
97.6076505369
 30
0.0
 11
88.9675955556
 21
96.7127091474
 31
0.0
  0
LINE
  5
B6
330
1F
100
AcDbEntity
  8
0
  6
Continuous
 62
     7
370
    25
100
AcDbLine
 10
176.0726536892
 20
87.3537275231
 30
0.0
 11
176.0726536892
 21
100.3537277913
 31
0.0
  0
LINE
  5
B7
330
1F
100
AcDbEntity
  8
0
  6
Continuous
 62
     7
370
    25
100
AcDbLine
 10
176.0726536892
 20
141.3537289238
 30
0.0
 11
176.0726536892
 21
154.3537291921
 31
0.0
  0
LINE
  5
B8
330
1F
100
AcDbEntity
  8
0
  6
Continuous
 62
     7
370
    25
100
AcDbLine
 10
196.0726569675
 20
132.8537284619
 30
0.0
 11
196.0726569675
 21
108.8537282533
 31
0.0
  0
LINE
  5
B9
330
1F
100
AcDbEntity
  8
0
  6
Continuous
 62
     7
370
    25
100
AcDbLine
 10
212.0726521395
 20
132.0537279582
 30
0.0
 11
212.0726521395
 21
109.6537287569
 31
0.0
  0
LINE
  5
BA
330
1F
100
AcDbEntity
  8
0
  6
Continuous
 62
     7
370
    25
100
AcDbLine
 10
169.0726544045
 20
85.8537282086
 30
0.0
 11
169.0726544045
 21
155.8537285066
 31
0.0
  0
LINE
  5
BB
330
1F
100
AcDbEntity
  8
0
  6
Continuous
 62
     7
370
    25
100
AcDbLine
 10
106.0726533912
 20
89.5787279344
 30
0.0
 11
106.0726533912
 21
152.1287287808
 31
0.0
  0
SPLINE
  5
BC
330
1F
100
AcDbEntity
  8
0
  6
Continuous
 62
     7
370
    25
100
AcDbSpline
210
0.0
220
0.0
230
1.0
 70
     8
 71
     3
 72
    10
 73
     6
 74
     0
 42
0.000000001
 43
0.00000001
 40
0.0
 40
0.0
 40
0.0
 40
0.0
 40
0.4058355826442185
 40
0.8996340058832388
 40
1.0
 40
1.0
 40
1.0
 40
1.0
 10
112.6384556561775
 20
152.1557930148025
 30
0.0
 10
112.3566196481789
 20
152.1921843839144
 30
0.0
 10
111.7318610816039
 20
152.2728547700849
 30
0.0
 10
111.3317534120944
 20
152.336943229755
 30
0.0
 10
111.4184981374672
 20
152.3236563797899
 30
0.0
 10
111.4331510186262
 20
152.3214119708915
 30
0.0
  0
LINE
  5
BD
330
1F
100
AcDbEntity
  8
0
  6
Continuous
 62
     7
370
    25
100
AcDbLine
 10
112.6384556562
 20
89.3787282741
 30
0.0
 11
112.6384556562
 21
152.1557930148
 31
0.0
  0
SPLINE
  5
BE
330
1F
100
AcDbEntity
  8
0
  6
Continuous
 62
     7
370
    25
100
AcDbSpline
210
0.0
220
0.0
230
1.0
 70
     8
 71
     3
 72
    25
 73
    21
 74
     0
 42
0.000000001
 43
0.00000001
 40
0.0
 40
0.0
 40
0.0
 40
0.0
 40
0.1249999999999985
 40
0.1249999999999985
 40
0.2499999999999971
 40
0.2499999999999971
 40
0.3749999999999956
 40
0.3749999999999956
 40
0.4999999999999941
 40
0.4999999999999941
 40
0.562499999999995
 40
0.562499999999995
 40
0.624999999999996
 40
0.6874999999999969
 40
0.6874999999999969
 40
0.7499999999999978
 40
0.7499999999999978
 40
0.8749999999999989
 40
0.8749999999999989
 40
1.0
 40
1.0
 40
1.0
 40
1.0
 10
119.306851195789
 20
107.8159843522792
 30
0.0
 10
119.5480987013444
 20
107.6571099734875
 30
0.0
 10
119.7640277355888
 20
107.4762224384589
 30
0.0
 10
120.1471856474314
 20
107.0733292184961
 30
0.0
 10
120.3146374329166
 20
106.8492591445582
 30
0.0
 10
120.5823220893205
 20
106.3829562325201
 30
0.0
 10
120.6859940570413
 20
106.1360225794603
 30
0.0
 10
120.8251254282956
 20
105.6294368233474
 30
0.0
 10
120.8598646682862
 20
105.3749261144454
 30
0.0
 10
120.8602951015054
 20
104.9916013692836
 30
0.0
 10
120.851560317916
 20
104.8627770214913
 30
0.0
 10
120.8167669147413
 20
104.6106566569552
 30
0.0
 10
120.7648740530122
 20
104.363103987804
 30
0.0
 10
120.6794958407186
 20
104.1243676664053
 30
0.0
 10
120.577020087654
 20
103.890026767766
 30
0.0
 10
120.5169587160028
 20
103.7748444146901
 30
0.0
 10
120.3156488935517
 20
103.4447954423484
 30
0.0
 10
120.1524253734719
 20
103.2420843121144
 30
0.0
 10
119.7670471732205
 20
102.8703399385648
 30
0.0
 10
119.5480976873947
 20
102.7049862609078
 30
0.0
 10
119.306851195789
 20
102.5629320394297
 30
0.0
  0
LINE
  5
BF
330
1F
100
AcDbEntity
  8
0
  6
Continuous
 62
     7
370
    25
100
AcDbLine
 10
119.3068514846
 20
107.8159843794
 30
0.0
 11
119.3068514846
 21
151.9465956128
 31
0.0
  0
SPLINE
  5
C0
330
1F
100
AcDbEntity
  8
0
  6
Continuous
 62
     7
370
    25
100
AcDbSpline
210
0.0
220
0.0
230
1.0
 70
     8
 71
     3
 72
    12
 73
     8
 74
     0
 42
0.000000001
 43
0.00000001
 40
0.0
 40
0.0
 40
0.0
 40
0.0
 40
0.1144634680262505
 40
0.3661160526449659
 40
0.6247763889426796
 40
0.9030266255086999
 40
1.0
 40
1.0
 40
1.0
 40
1.0
 10
122.78750010655
 20
152.3175972736259
 30
0.0
 10
122.8045184191841
 20
152.3201978691578
 30
0.0
 10
122.8589521835258
 20
152.3285159796177
 30
0.0
 10
122.3540459462389
 20
152.2512489010383
 30
0.0
 10
121.3603931198417
 20
152.1206001260786
 30
0.0
 10
120.2371100649525
 20
152.0068761159012
 30
0.0
 10
119.4978952999135
 20
151.9589752000939
 30
0.0
 10
119.3068514846332
 20
151.9465956128021
 30
0.0
  0
LINE
  5
C1
330
1F
100
AcDbEntity
  8
0
  6
Continuous
 62
     7
370
    25
100
AcDbLine
 10
119.3068514846
 20
89.3787282741
 30
0.0
 11
119.3068514846
 21
102.5629311091
 31
0.0
  0
SPLINE
  5
C2
330
1F
100
AcDbEntity
  8
0
  6
Continuous
 62
     7
370
    25
100
AcDbSpline
210
0.0
220
0.0
230
1.0
 70
     8
 71
     3
 72
    10
 73
     6
 74
     0
 42
0.000000001
 43
0.00000001
 40
0.0
 40
0.0
 40
0.0
 40
0.0
 40
0.5
 40
0.5
 40
1.0
 40
1.0
 40
1.0
 40
1.0
 10
113.7666715837656
 20
150.3287283575912
 30
0.0
 10
113.5897864373422
 20
150.6189218973337
 30
0.0
 10
113.4042370624648
 20
150.9213352832742
 30
0.0
 10
113.0262881224172
 20
151.5333694205746
 30
0.0
 10
112.833501580238
 20
151.8436462601396
 30
0.0
 10
112.6384555866488
 20
152.1557933311047
 30
0.0
  0
SPLINE
  5
C3
330
1F
100
AcDbEntity
  8
0
  6
Continuous
 62
     7
370
    25
100
AcDbSpline
210
0.0
220
0.0
230
1.0
 70
     8
 71
     3
 72
     8
 73
     4
 74
     0
 42
0.000000001
 43
0.00000001
 40
0.0
 40
0.0
 40
0.0
 40
0.0
 40
1.0
 40
1.0
 40
1.0
 40
1.0
 10
114.0976533912189
 20
149.7179794362083
 30
0.0
 10
113.979356631789
 20
149.9358646705391
 30
0.0
 10
113.8679281496176
 20
150.1415449615812
 30
0.0
 10
113.7666715837656
 20
150.3287283575912
 30
0.0
  0
LINE
  5
C4
330
1F
100
AcDbEntity
  8
0
  6
Continuous
 62
     7
370
    25
100
AcDbLine
 10
114.0976532631
 20
108.3225791565
 30
0.0
 11
114.0976532631
 21
149.7179798073
 31
0.0
  0
SPLINE
  5
C5
330
1F
100
AcDbEntity
  8
0
  6
Continuous
 62
     7
370
    25
100
AcDbSpline
210
0.0
220
0.0
230
1.0
 70
     8
 71
     3
 72
    26
 73
    22
 74
     0
 42
0.000000001
 43
0.00000001
 40
0.0
 40
0.0
 40
0.0
 40
0.0
 40
0.1250000000000014
 40
0.1250000000000014
 40
0.2500000000000027
 40
0.2500000000000027
 40
0.3125000000000025
 40
0.3125000000000025
 40
0.3750000000000023
 40
0.3750000000000023
 40
0.4375000000000021
 40
0.4375000000000021
 40
0.5000000000000018
 40
0.5000000000000018
 40
0.5625000000000016
 40
0.5625000000000016
 40
0.6250000000000013
 40
0.6250000000000013
 40
0.7500000000000006
 40
0.7500000000000006
 40
1.0
 40
1.0
 40
1.0
 40
1.0
 10
114.0976533912189
 20
104.5206265066205
 30
0.0
 10
114.0057484805361
 20
104.5456741989569
 30
0.0
 10
113.9180517043111
 20
104.5836817928712
 30
0.0
 10
113.7538454335438
 20
104.694678043964
 30
0.0
 10
113.6765750152771
 20
104.7686115552775
 30
0.0
 10
113.576808908952
 20
104.9139096906078
 30
0.0
 10
113.5461959800497
 20
104.9680515045995
 30
0.0
 10
113.4913271061467
 20
105.0901157438676
 30
0.0
 10
113.4669418852178
 20
105.1586877254517
 30
0.0
 10
113.4272625087193
 20
105.308271895486
 30
0.0
 10
113.411796429482
 20
105.3894309006587
 30
0.0
 10
113.3907000943995
 20
105.5660869077502
 30
0.0
 10
113.3851870282395
 20
105.6623310144719
 30
0.0
 10
113.3851200706172
 20
105.861560956833
 30
0.0
 10
113.3903883779667
 20
105.9654089050565
 30
0.0
 10
113.4112309051347
 20
106.1813291012094
 30
0.0
 10
113.4269050183449
 20
106.2932982553036
 30
0.0
 10
113.4862239485225
 20
106.6279244714485
 30
0.0
 10
113.5432437840365
 20
106.8559791798175
 30
0.0
 10
113.7420786726804
 20
107.5143621238865
 30
0.0
 10
113.9133488779125
 20
107.9328871123454
 30
0.0
 10
114.0976533912189
 20
108.3225791299445
 30
0.0
  0
LINE
  5
C6
330
1F
100
AcDbEntity
  8
0
  6
Continuous
 62
     7
370
    25
100
AcDbLine
 10
114.0976532631
 20
91.9061328507
 30
0.0
 11
114.0976532631
 21
104.5206270403
 31
0.0
  0
SPLINE
  5
C7
330
1F
100
AcDbEntity
  8
0
  6
Continuous
 62
     7
370
    25
100
AcDbSpline
210
0.0
220
0.0
230
1.0
 70
     8
 71
     3
 72
     8
 73
     4
 74
     0
 42
0.000000001
 43
0.00000001
 40
0.0
 40
0.0
 40
0.0
 40
0.0
 40
1.0
 40
1.0
 40
1.0
 40
1.0
 10
118.2754971065549
 20
150.3287283575912
 30
0.0
 10
118.133959018273
 20
150.0762643575358
 30
0.0
 10
117.9913485495361
 20
149.8227206683933
 30
0.0
 10
117.8476533912191
 20
149.5681844786718
 30
0.0
  0
SPLINE
  5
C8
330
1F
100
AcDbEntity
  8
0
  6
Continuous
 62
     7
370
    25
100
AcDbSpline
210
0.0
220
0.0
230
1.0
 70
     8
 71
     3
 72
     8
 73
     4
 74
     0
 42
0.000000001
 43
0.00000001
 40
0.0
 40
0.0
 40
0.0
 40
0.0
 40
1.0
 40
1.0
 40
1.0
 40
1.0
 10
119.3068511957885
 20
151.9465955093827
 30
0.0
 10
118.9584497911083
 20
151.4046067637317
 30
0.0
 10
118.6138814058754
 20
150.8643875767382
 30
0.0
 10
118.2754971065545
 20
150.3287283575908
 30
0.0
  0
SPLINE
  5
C9
330
1F
100
AcDbEntity
  8
0
  6
Continuous
 62
     7
370
    25
100
AcDbSpline
210
0.0
220
0.0
230
1.0
 70
     8
 71
     3
 72
    10
 73
     6
 74
     0
 42
0.000000001
 43
0.00000001
 40
0.0
 40
0.0
 40
0.0
 40
0.0
 40
0.5
 40
0.5
 40
1.0
 40
1.0
 40
1.0
 40
1.0
 10
117.8476533912189
 20
109.6717894079036
 30
0.0
 10
118.0988462810904
 20
109.4062972593481
 30
0.0
 10
118.3461155927922
 20
109.1206109363056
 30
0.0
 10
118.832736944103
 20
108.5047382544153
 30
0.0
 10
119.0721202518197
 20
108.1748005271747
 30
0.0
 10
119.3068511957889
 20
107.8159843522794
 30
0.0
  0
LINE
  5
CA
330
1F
100
AcDbEntity
  8
0
  6
Continuous
 62
     7
370
    25
100
AcDbLine
 10
117.8476534121
 20
109.6717889643
 30
0.0
 11
117.8476534121
 21
149.5681840217
 31
0.0
  0
SPLINE
  5
CB
330
1F
100
AcDbEntity
  8
0
  6
Continuous
 62
     7
370
    25
100
AcDbSpline
210
0.0
220
0.0
230
1.0
 70
     8
 71
     3
 72
    10
 73
     6
 74
     0
 42
0.000000001
 43
0.00000001
 40
0.0
 40
0.0
 40
0.0
 40
0.0
 40
0.5
 40
0.5
 40
1.0
 40
1.0
 40
1.0
 40
1.0
 10
119.3068511957889
 20
102.5629320394297
 30
0.0
 10
119.0721202518197
 20
102.6289476964845
 30
0.0
 10
118.832736944103
 20
102.7303556375689
 30
0.0
 10
118.3461155927922
 20
102.9866014316474
 30
0.0
 10
118.0988462810904
 20
103.1417497133381
 30
0.0
 10
117.8476533912189
 20
103.3212111861982
 30
0.0
  0
LINE
  5
CC
330
1F
100
AcDbEntity
  8
0
  6
Continuous
 62
     7
370
    25
100
AcDbLine
 10
117.8476534121
 20
103.3212120867
 30
0.0
 11
117.8476534121
 21
103.3704064078
 31
0.0
  0
SPLINE
  5
CD
330
1F
100
AcDbEntity
  8
0
  6
Continuous
 62
     7
370
    25
100
AcDbSpline
210
0.0
220
0.0
230
1.0
 70
     8
 71
     3
 72
    14
 73
    10
 74
     0
 42
0.000000001
 43
0.00000001
 40
0.0
 40
0.0
 40
0.0
 40
0.0
 40
0.25
 40
0.25
 40
0.5
 40
0.5
 40
0.75
 40
0.75
 40
1.0
 40
1.0
 40
1.0
 40
1.0
 10
117.847653391219
 20
103.3704063739942
 30
0.0
 10
117.8476533912191
 20
103.4363236537033
 30
0.0
 10
117.8217239529531
 20
103.4977131124976
 30
0.0
 10
117.7222816956767
 20
103.6051391747869
 30
0.0
 10
117.6499993099559
 20
103.6506803488855
 30
0.0
 10
117.4652619731913
 20
103.7273172727653
 30
0.0
 10
117.3557153368693
 20
103.7572428265905
 30
0.0
 10
117.112354091866
 20
103.8028850140171
 30
0.0
 10
116.9808429844203
 20
103.8181642646386
 30
0.0
 10
116.8476533912189
 20
103.8260107483385
 30
0.0
  0
SPLINE
  5
CE
330
1F
100
AcDbEntity
  8
0
  6
Continuous
 62
     7
370
    25
100
AcDbSpline
210
0.0
220
0.0
230
1.0
 70
     8
 71
     3
 72
    10
 73
     6
 74
     0
 42
0.000000001
 43
0.00000001
 40
0.0
 40
0.0
 40
0.0
 40
0.0
 40
0.5
 40
0.5
 40
1.0
 40
1.0
 40
1.0
 40
1.0
 10
116.8476533912189
 20
103.8260107483384
 30
0.0
 10
116.5351894889308
 20
103.8444186648818
 30
0.0
 10
116.232300506933
 20
103.8932914818057
 30
0.0
 10
115.6449573221289
 20
104.0505937391461
 30
0.0
 10
115.360489661557
 20
104.1599659544246
 30
0.0
 10
115.0976533912189
 20
104.297079474612
 30
0.0
  0
SPLINE
  5
CF
330
1F
100
AcDbEntity
  8
0
  6
Continuous
 62
     7
370
    25
100
AcDbSpline
210
0.0
220
0.0
230
1.0
 70
     8
 71
     3
 72
    14
 73
    10
 74
     0
 42
0.000000001
 43
0.00000001
 40
0.0
 40
0.0
 40
0.0
 40
0.0
 40
0.25
 40
0.25
 40
0.5
 40
0.5
 40
0.75
 40
0.75
 40
1.0
 40
1.0
 40
1.0
 40
1.0
 10
115.0976533912189
 20
104.297079474612
 30
0.0
 10
114.9633026426777
 20
104.3671660880334
 30
0.0
 10
114.8401237398843
 20
104.4283613953289
 30
0.0
 10
114.611373318995
 20
104.5380037686554
 30
0.0
 10
114.5094502270018
 20
104.5847115680436
 30
0.0
 10
114.3300251626566
 20
104.6556770808926
 30
0.0
 10
114.2535839137521
 20
104.6801895592852
 30
0.0
 10
114.1362959392904
 20
104.6786738517593
 30
0.0
 10
114.0976533912189
 20
104.6500668085509
 30
0.0
 10
114.0976533912189
 20
104.5695655183373
 30
0.0
  0
LINE
  5
D0
330
1F
100
AcDbEntity
  8
0
  6
Continuous
 62
     7
370
    25
100
AcDbLine
 10
114.0976532631
 20
104.569566179
 30
0.0
 11
114.0976532631
 21
104.5206270403
 31
0.0
  0
SPLINE
  5
D1
330
1F
100
AcDbEntity
  8
0
  6
Continuous
 62
     7
370
    25
100
AcDbSpline
210
0.0
220
0.0
230
1.0
 70
     8
 71
     3
 72
    16
 73
    12
 74
     0
 42
0.000000001
 43
0.00000001
 40
0.0
 40
0.0
 40
0.0
 40
0.0
 40
0.1250000000000001
 40
0.1250000000000001
 40
0.2500000000000003
 40
0.2500000000000003
 40
0.5000000000000002
 40
0.5000000000000002
 40
0.7500000000000001
 40
0.7500000000000001
 40
1.0
 40
1.0
 40
1.0
 40
1.0
 10
114.0976533912189
 20
108.3715181416612
 30
0.0
 10
114.0976533912189
 20
108.411547191815
 30
0.0
 10
114.1074259548585
 20
108.4630338468675
 30
0.0
 10
114.1416220002589
 20
108.5770980937736
 30
0.0
 10
114.1658071919698
 20
108.6394426312417
 30
0.0
 10
114.2535238560661
 20
108.8319689275968
 30
0.0
 10
114.3302340219155
 20
108.9642301351853
 30
0.0
 10
114.5093161221564
 20
109.2181790748515
 30
0.0
 10
114.6101988917763
 20
109.3381511371331
 30
0.0
 10
114.8390103900393
 20
109.5600314947019
 30
0.0
 10
114.9633079984742
 20
109.6581978674484
 30
0.0
 10
115.0976533912189
 20
109.7381128093748
 30
0.0
  0
SPLINE
  5
D2
330
1F
100
AcDbEntity
  8
0
  6
Continuous
 62
     7
370
    25
100
AcDbSpline
210
0.0
220
0.0
230
1.0
 70
     8
 71
     3
 72
    10
 73
     6
 74
     0
 42
0.000000001
 43
0.00000001
 40
0.0
 40
0.0
 40
0.0
 40
0.0
 40
0.5
 40
0.5
 40
1.0
 40
1.0
 40
1.0
 40
1.0
 10
115.0976533912189
 20
109.7381128093748
 30
0.0
 10
115.3604729055746
 20
109.8944501857283
 30
0.0
 10
115.6388257701823
 20
110.0183688577955
 30
0.0
 10
116.2258223575677
 20
110.2018114673971
 30
0.0
 10
116.535206047446
 20
110.2604834469899
 30
0.0
 10
116.8476533912189
 20
110.2820036038177
 30
0.0
  0
SPLINE
  5
D3
330
1F
100
AcDbEntity
  8
0
  6
Continuous
 62
     7
370
    25
100
AcDbSpline
210
0.0
220
0.0
230
1.0
 70
     8
 71
     3
 72
    14
 73
    10
 74
     0
 42
0.000000001
 43
0.00000001
 40
0.0
 40
0.0
 40
0.0
 40
0.0
 40
0.25
 40
0.25
 40
0.5
 40
0.5
 40
0.75
 40
0.75
 40
1.0
 40
1.0
 40
1.0
 40
1.0
 10
116.8476533912189
 20
110.2820036038177
 30
0.0
 10
116.9808828422422
 20
110.2911799298043
 30
0.0
 10
117.1125842048524
 20
110.2797877978379
 30
0.0
 10
117.3556618630695
 20
110.2216271381781
 30
0.0
 10
117.4665678036181
 20
110.1748510162787
 30
0.0
 10
117.6492648766958
 20
110.0618918895476
 30
0.0
 10
117.7226524061774
 20
109.9949381836068
 30
0.0
 10
117.8214866850957
 20
109.857906334812
 30
0.0
 10
117.8476533912189
 20
109.7871223596887
 30
0.0
 10
117.8476533912189
 20
109.7209845957008
 30
0.0
  0
LWPOLYLINE
  5
D4
330
1F
100
AcDbEntity
  8
0
  6
Continuous
 62
     7
370
    25
100
AcDbPolyline
 90
        3
 70
   128
 43
0.0
 10
117.1226532467
 20
108.3294588364
 10
117.9543252371
 20
108.4106105602
 10
118.7146374293
 20
108.6377694494
  0
ARC
  5
D5
330
1F
100
AcDbEntity
  8
0
  6
Continuous
 62
     7
370
    25
100
AcDbCircle
 10
117.0764049249
 20
112.3620679908
 30
0.0
 40
4.032874347125282
100
AcDbArc
 50
230.9132579629
 51
270.6570727235
  0
SPLINE
  5
D6
330
1F
100
AcDbEntity
  8
0
  6
Continuous
 62
     7
370
    25
100
AcDbSpline
210
0.0
220
0.0
230
1.0
 70
     8
 71
     3
 72
    14
 73
    10
 74
     0
 42
0.000000001
 43
0.00000001
 40
0.0
 40
0.0
 40
0.0
 40
0.0
 40
0.25
 40
0.25
 40
0.5
 40
0.5
 40
0.75
 40
0.75
 40
1.0
 40
1.0
 40
1.0
 40
1.0
 10
115.0976533912189
 20
148.5259927887866
 30
0.0
 10
114.9633053048624
 20
148.5358241083574
 30
0.0
 10
114.8401286310064
 20
148.5718635217475
 30
0.0
 10
114.6113820260884
 20
148.6837352180668
 30
0.0
 10
114.5094600621212
 20
148.7580900071571
 30
0.0
 10
114.3300366596925
 20
148.9415664740089
 30
0.0
 10
114.2535953715097
 20
149.0488319948689
 30
0.0
 10
114.1363053986596
 20
149.3078584846873
 30
0.0
 10
114.0976533912189
 20
149.4591031896635
 30
0.0
 10
114.0976533912189
 20
149.6201014127749
 30
0.0
  0
SPLINE
  5
D7
330
1F
100
AcDbEntity
  8
0
  6
Continuous
 62
     7
370
    25
100
AcDbSpline
210
0.0
220
0.0
230
1.0
 70
     8
 71
     3
 72
    14
 73
    10
 74
     0
 42
0.000000001
 43
0.00000001
 40
0.0
 40
0.0
 40
0.0
 40
0.0
 40
0.25
 40
0.25
 40
0.5
 40
0.5
 40
0.75
 40
0.75
 40
1.0
 40
1.0
 40
1.0
 40
1.0
 10
117.847653391219
 20
149.4697941030787
 30
0.0
 10
117.8476533912192
 20
149.3379549261098
 30
0.0
 10
117.821736868648
 20
149.2059059891211
 30
0.0
 10
117.7222920220705
 20
148.960639697408
 30
0.0
 10
117.6499936296583
 20
148.8490192808202
 30
0.0
 10
117.4652897351344
 20
148.6582799916246
 30
0.0
 10
117.3557124732584
 20
148.5823191247776
 30
0.0
 10
117.1123822950403
 20
148.4784768006081
 30
0.0
 10
116.9808460361202
 20
148.4518435931748
 30
0.0
 10
116.8476533912189
 20
148.453170720617
 30
0.0
  0
SPLINE
  5
D8
330
1F
100
AcDbEntity
  8
0
  6
Continuous
 62
     7
370
    25
100
AcDbSpline
210
0.0
220
0.0
230
1.0
 70
     8
 71
     3
 72
    10
 73
     6
 74
     0
 42
0.000000001
 43
0.00000001
 40
0.0
 40
0.0
 40
0.0
 40
0.0
 40
0.5
 40
0.5
 40
1.0
 40
1.0
 40
1.0
 40
1.0
 10
116.8476533912189
 20
148.4531707206173
 30
0.0
 10
116.5351894889308
 20
148.4562841013878
 30
0.0
 10
116.232300506933
 20
148.4646000832942
 30
0.0
 10
115.6449573221289
 20
148.4897753771502
 30
0.0
 10
115.360489661557
 20
148.5067589653762
 30
0.0
 10
115.0976533912189
 20
148.5259927887866
 30
0.0
  0
LINE
  5
D9
330
1F
100
AcDbEntity
  8
0
  6
Continuous
 62
     7
370
    25
100
AcDbLine
 10
117.8476534121
 20
91.9061328507
 30
0.0
 11
117.8476534121
 21
103.3212120867
 31
0.0
  0
LINE
  5
DA
330
1F
100
AcDbEntity
  8
0
  6
Continuous
 62
     7
370
    25
100
AcDbLine
 10
104.9124713324
 20
95.9119896627
 30
0.0
 11
104.9124713324
 21
145.7954670525
 31
0.0
  0
LINE
  5
DB
330
1F
100
AcDbEntity
  8
0
  6
Continuous
 62
     7
370
    25
100
AcDbLine
 10
88.9675955556
 20
97.1123918182
 30
0.0
 11
88.9675955556
 21
96.7127091474
 31
0.0
  0
SPLINE
  5
DC
330
1F
100
AcDbEntity
  8
0
  6
Continuous
 62
     7
370
    25
100
AcDbSpline
210
0.0
220
0.0
230
1.0
 70
     8
 71
     3
 72
    26
 73
    22
 74
     0
 42
0.000000001
 43
0.00000001
 40
0.0
 40
0.0
 40
0.0
 40
0.0
 40
0.0241214275653681
 40
0.048207823354694
 40
0.0723095879205524
 40
0.0964771461125574
 40
0.1207606318213038
 40
0.1452095829268534
 40
0.1698726554210423
 40
0.1947973643378114
 40
0.2200298573584057
 40
0.2456147249583675
 40
0.3690974744022258
 40
0.4940700204039635
 40
0.6192566393629643
 40
0.7454654421861667
 40
0.7971580294162193
 40
0.8481837569733532
 40
0.8988139831114569
 40
0.9493262809205398
 40
1.0
 40
1.0
 40
1.0
 40
1.0
 10
84.02771123801746
 20
98.9343154436711
 30
0.0
 10
84.09294827353975
 20
98.93049781432086
 30
0.0
 10
84.22332760022427
 20
98.92286809999938
 30
0.0
 10
84.41827965158106
 20
98.90695443270019
 30
0.0
 10
84.61238892463194
 20
98.88780098336267
 30
0.0
 10
84.80563836982827
 20
98.86510931687691
 30
0.0
 10
84.99802960304248
 20
98.83899775594239
 30
0.0
 10
85.18955919389734
 20
98.80948481771343
 30
0.0
 10
85.38022668989565
 20
98.77662741246107
 30
0.0
 10
85.5700266373069
 20
98.74048619951043
 30
0.0
 10
85.75897308632544
 20
98.70112510014134
 30
0.0
 10
86.18573862487473
 20
98.6047211669617
 30
0.0
 10
86.82022342674107
 20
98.4280826180101
 30
0.0
 10
87.55989862214253
 20
98.14996310747541
 30
0.0
 10
88.16664708525931
 20
97.85861787345628
 30
0.0
 10
88.5274458978587
 20
97.63113393838198
 30
0.0
 10
88.7296340414089
 20
97.47171447976211
 30
0.0
 10
88.83647214860063
 20
97.37040808626901
 30
0.0
 10
88.912083802238
 20
97.27647624685953
 30
0.0
 10
88.95923610325312
 20
97.18936526098672
 30
0.0
 10
88.96480610210587
 20
97.1380774453767
 30
0.0
 10
88.96759554442029
 20
97.11239262804384
 30
0.0
  0
LINE
  5
DD
330
1F
100
AcDbEntity
  8
0
  6
Continuous
 62
     7
370
    25
100
AcDbLine
 10
82.1128378891
 20
99.0398253537
 30
0.0
 11
84.0277116083
 21
98.9343158192
 31
0.0
  0
SPLINE
  5
DE
330
1F
100
AcDbEntity
  8
0
  6
Continuous
 62
     7
370
    25
100
AcDbSpline
210
0.0
220
0.0
230
1.0
 70
     8
 71
     3
 72
    14
 73
    10
 74
     0
 42
0.000000001
 43
0.00000001
 40
0.0
 40
0.0
 40
0.0
 40
0.0
 40
0.0789259589567727
 40
0.158232396189637
 40
0.3308776440723308
 40
0.5000645817686393
 40
0.6670803235491236
 40
0.8332687177846481
 40
1.0
 40
1.0
 40
1.0
 40
1.0
 10
79.91662573291399
 20
98.9338324484848
 30
0.0
 10
79.97002124453333
 20
98.94186155215314
 30
0.0
 10
80.07706967145111
 20
98.95795846538036
 30
0.0
 10
80.30616215777128
 20
98.98776245992539
 30
0.0
 10
80.60506681469434
 20
99.01956103660099
 30
0.0
 10
80.97724214905227
 20
99.04572313125591
 30
0.0
 10
81.35287226722409
 20
99.0581889910997
 30
0.0
 10
81.73203319769269
 20
99.05780675387055
 30
0.0
 10
81.98576511921897
 20
99.04582620490065
 30
0.0
 10
82.112837958728
 20
99.03982616214954
 30
0.0
  0
SPLINE
  5
DF
330
1F
100
AcDbEntity
  8
0
  6
Continuous
 62
     7
370
    25
100
AcDbSpline
210
0.0
220
0.0
230
1.0
 70
     8
 71
     3
 72
     8
 73
     4
 74
     0
 42
0.000000001
 43
0.00000001
 40
0.0
 40
0.0
 40
0.0
 40
0.0
 40
1.0
 40
1.0
 40
1.0
 40
1.0
 10
74.5243320090112
 20
99.22844183089472
 30
0.0
 10
76.3216686943865
 20
99.13030600083722
 30
0.0
 10
78.11900537976179
 20
99.03208712579551
 30
0.0
 10
79.91634206513706
 20
98.93378843674483
 30
0.0
  0
SPLINE
  5
E0
330
1F
100
AcDbEntity
  8
0
  6
Continuous
 62
     7
370
    25
100
AcDbSpline
210
0.0
220
0.0
230
1.0
 70
     8
 71
     3
 72
    13
 73
     9
 74
     0
 42
0.000000001
 43
0.00000001
 40
0.0
 40
0.0
 40
0.0
 40
0.0
 40
0.1666651380536958
 40
0.3328869540146023
 40
0.4989979369855643
 40
0.6653319948464125
 40
0.8322224399502948
 40
1.0
 40
1.0
 40
1.0
 40
1.0
 10
73.44082784416585
 20
99.34510889523662
 30
0.0
 10
73.50192132374089
 20
99.34142496993097
 30
0.0
 10
73.62394577686523
 20
99.33406691840241
 30
0.0
 10
73.80625656155229
 20
99.31903672190737
 30
0.0
 10
73.98755276017098
 20
99.30113652097884
 30
0.0
 10
74.16775981069205
 20
99.28003421071007
 30
0.0
 10
74.34708815631994
 20
99.25608303257164
 30
0.0
 10
74.46514160002563
 20
99.23766587165906
 30
0.0
 10
74.52432478585577
 20
99.22843288173064
 30
0.0
  0
SPLINE
  5
E1
330
1F
100
AcDbEntity
  8
0
  6
Continuous
 62
     7
370
    25
100
AcDbSpline
210
0.0
220
0.0
230
1.0
 70
     8
 71
     3
 72
     8
 73
     4
 74
     0
 42
0.000000001
 43
0.00000001
 40
0.0
 40
0.0
 40
0.0
 40
0.0
 40
1.0
 40
1.0
 40
1.0
 40
1.0
 10
67.62265339123164
 20
99.66487612733027
 30
0.0
 10
69.56204487554304
 20
99.55839047744693
 30
0.0
 10
71.50143635985445
 20
99.45179990621557
 30
0.0
 10
73.44082784416587
 20
99.3451088952366
 30
0.0
  0
LINE
  5
E2
330
1F
100
AcDbEntity
  8
0
  6
Continuous
 62
     7
370
    25
100
AcDbLine
 10
67.6226544462
 20
99.6648769117
 30
0.0
 11
67.6226544462
 21
142.0426673478
 31
0.0
  0
SPLINE
  5
E3
330
1F
100
AcDbEntity
  8
0
  6
Continuous
 62
     7
370
    25
100
AcDbSpline
210
0.0
220
0.0
230
1.0
 70
     8
 71
     3
 72
     8
 73
     4
 74
     0
 42
0.000000001
 43
0.00000001
 40
0.0
 40
0.0
 40
0.0
 40
0.0
 40
1.0
 40
1.0
 40
1.0
 40
1.0
 10
73.44082784416587
 20
142.3623478199458
 30
0.0
 10
71.50143635985445
 20
142.2556568089668
 30
0.0
 10
69.56204487554304
 20
142.1490662377355
 30
0.0
 10
67.62265339123165
 20
142.0425805878521
 30
0.0
  0
SPLINE
  5
E4
330
1F
100
AcDbEntity
  8
0
  6
Continuous
 62
     7
370
    25
100
AcDbSpline
210
0.0
220
0.0
230
1.0
 70
     8
 71
     3
 72
    13
 73
     9
 74
     0
 42
0.000000001
 43
0.00000001
 40
0.0
 40
0.0
 40
0.0
 40
0.0
 40
0.1686717431882183
 40
0.3360976437898808
 40
0.5026076259375014
 40
0.6685363119848858
 40
0.8342210747440109
 40
1.0
 40
1.0
 40
1.0
 40
1.0
 10
74.52432289363284
 20
142.4790265956878
 30
0.0
 10
74.4648191769719
 20
142.4697494434436
 30
0.0
 10
74.34625124977518
 20
142.4512636618219
 30
0.0
 10
74.16634960442141
 20
142.4272280087127
 30
0.0
 10
73.98595093171402
 20
142.4060951299602
 30
0.0
 10
73.80484696713135
 20
142.3882178657695
 30
0.0
 10
73.62311086681021
 20
142.3732604974946
 30
0.0
 10
73.50160035798481
 20
142.3659860679709
 30
0.0
 10
73.44082784416585
 20
142.3623478199458
 30
0.0
  0
SPLINE
  5
E5
330
1F
100
AcDbEntity
  8
0
  6
Continuous
 62
     7
370
    25
100
AcDbSpline
210
0.0
220
0.0
230
1.0
 70
     8
 71
     3
 72
     8
 73
     4
 74
     0
 42
0.000000001
 43
0.00000001
 40
0.0
 40
0.0
 40
0.0
 40
0.0
 40
1.0
 40
1.0
 40
1.0
 40
1.0
 10
79.91651631012745
 20
142.7736778196329
 30
0.0
 10
78.11912163868904
 20
142.6753759604163
 30
0.0
 10
76.32172696725063
 20
142.5771539202576
 30
0.0
 10
74.52433229581221
 20
142.4790149304421
 30
0.0
  0
SPLINE
  5
E6
330
1F
100
AcDbEntity
  8
0
  6
Continuous
 62
     7
370
    25
100
AcDbSpline
210
0.0
220
0.0
230
1.0
 70
     8
 71
     3
 72
    18
 73
    14
 74
     0
 42
0.000000001
 43
0.00000001
 40
0.0
 40
0.0
 40
0.0
 40
0.0
 40
0.092314649209579
 40
0.1843375917893046
 40
0.2763048505599807
 40
0.3684522564623057
 40
0.4610136522462774
 40
0.554219163410967
 40
0.6482935985028676
 40
0.7434550301884313
 40
0.8399135943672386
 40
0.9201663187099747
 40
1.0
 40
1.0
 40
1.0
 40
1.0
 10
82.112837958728
 20
142.6676305530329
 30
0.0
 10
82.04252112624134
 20
142.6639573938459
 30
0.0
 10
81.90210965662276
 20
142.65662268235
 30
0.0
 10
81.69177702156323
 20
142.6510283292615
 30
0.0
 10
81.4823533264038
 20
142.6494212327843
 30
0.0
 10
81.27381359448239
 20
142.6521523927125
 30
0.0
 10
81.0661699168103
 20
142.6590756844114
 30
0.0
 10
80.85942166458143
 20
142.6701597906901
 30
0.0
 10
80.65357948325676
 20
142.6853314654599
 30
0.0
 10
80.44861774752556
 20
142.7044894368244
 30
0.0
 10
80.25711363567414
 20
142.7261951300981
 30
0.0
 10
80.07937701859588
 20
142.7492262451581
 30
0.0
 10
79.97104304202058
 20
142.7654896795057
 30
0.0
 10
79.91701784153834
 20
142.773600111052
 30
0.0
  0
LINE
  5
E7
330
1F
100
AcDbEntity
  8
0
  6
Continuous
 62
     7
370
    25
100
AcDbLine
 10
84.0277116083
 20
142.773140896
 30
0.0
 11
82.1128378891
 21
142.6676313615
 31
0.0
  0
SPLINE
  5
E8
330
1F
100
AcDbEntity
  8
0
  6
Continuous
 62
     7
370
    25
100
AcDbSpline
210
0.0
220
0.0
230
1.0
 70
     8
 71
     3
 72
    25
 73
    21
 74
     0
 42
0.000000001
 43
0.00000001
 40
0.0
 40
0.0
 40
0.0
 40
0.0
 40
0.0280056024285085
 40
0.0559514328341917
 40
0.0838901607636219
 40
0.1118745076904344
 40
0.1399569498904504
 40
0.168189428271427
 40
0.1966230730099236
 40
0.2253079499152393
 40
0.2542928341276655
 40
0.3799484016846518
 40
0.50578448875015
 40
0.6313077644952549
 40
0.7532057173414176
 40
0.8039627394919335
 40
0.8536129947756297
 40
0.9025574087114512
 40
0.9512124407384406
 40
1.0
 40
1.0
 40
1.0
 40
1.0
 10
88.96759554442029
 20
144.5950640871386
 30
0.0
 10
88.9676380995465
 20
144.5811086633693
 30
0.0
 10
88.96772311897405
 20
144.553227600725
 30
0.0
 10
88.95531806223784
 20
144.5081905968845
 30
0.0
 10
88.93372100768643
 20
144.4609284484932
 30
0.0
 10
88.90203909985213
 20
144.4112323712989
 30
0.0
 10
88.8605127316797
 20
144.3591959864145
 30
0.0
 10
88.80907790245834
 20
144.3048315829207
 30
0.0
 10
88.74775619804312
 20
144.2481758902724
 30
0.0
 10
88.67653402193335
 20
144.189250901624
 30
0.0
 10
88.50568818265673
 20
144.060428360572
 30
0.0
 10
88.16795173322437
 20
143.850220933495
 30
0.0
 10
87.55639602576665
 20
143.5592956902295
 30
0.0
 10
86.82016261072306
 20
143.2807679779263
 30
0.0
 10
86.13363458972947
 20
143.0864630267913
 30
0.0
 10
85.58487178679906
 20
142.9658564837875
 30
0.0
 10
85.20277620135231
 20
142.8960626934739
 30
0.0
 10
84.81560950253619
 20
142.840272411267
 30
0.0
 10
84.42344117410066
 20
142.7975545558344
 30
0.0
 10
84.15974076568739
 20
142.7812864081415
 30
0.0
 10
84.02771123801746
 20
142.7731412715113
 30
0.0
  0
LINE
  5
E9
330
1F
100
AcDbEntity
  8
0
  6
Continuous
 62
     7
370
    25
100
AcDbLine
 10
88.9675955556
 20
144.9947475678
 30
0.0
 11
88.9675955556
 21
144.595064897
 31
0.0
  0
SPLINE
  5
EA
330
1F
100
AcDbEntity
  8
0
  6
Continuous
 62
     7
370
    25
100
AcDbSpline
210
0.0
220
0.0
230
1.0
 70
    11
 71
     3
 72
    39
 73
    35
 74
     0
 42
0.000000001
 43
0.00000001
 40
0.0
 40
0.0
 40
0.0
 40
0.0
 40
0.0310664058347798
 40
0.0621048158425991
 40
0.0931361551792733
 40
0.1235538293503577
 40
0.1538561545807598
 40
0.1850588072749104
 40
0.2160250992947717
 40
0.247186722379756
 40
0.2784462884306427
 40
0.3100516090231226
 40
0.3419834369140484
 40
0.3734259894013217
 40
0.4048604886785525
 40
0.4368740651833295
 40
0.468512068592407
 40
0.4998055358633177
 40
0.5309508213228404
 40
0.561864978443814
 40
0.5930416446592908
 40
0.6233742450133256
 40
0.6540913579073041
 40
0.6849496782718417
 40
0.7158160645167227
 40
0.7471731804043494
 40
0.7784514311866261
 40
0.8101295911560916
 40
0.8419598919689909
 40
0.8735175891922292
 40
0.9050808037889628
 40
0.9370235169792575
 40
0.9687441590033682
 40
0.9999999999999999
 40
0.9999999999999999
 40
0.9999999999999999
 40
0.9999999999999999
 10
77.98506948594584
 20
126.6619814871859
 30
0.0
 10
78.34919864691058
 20
127.0414051450937
 30
0.0
 10
79.15198298362746
 20
127.7288868459872
 30
0.0
 10
80.54702146900952
 20
128.4948008204059
 30
0.0
 10
82.0582633087328
 20
128.9836817538366
 30
0.0
 10
83.62985971525528
 20
129.1456596274703
 30
0.0
 10
85.1974043323139
 20
128.9842147365119
 30
0.0
 10
86.69307632642257
 20
128.5044903492679
 30
0.0
 10
88.07349258845815
 20
127.7511908810743
 30
0.0
 10
89.27053864204277
 20
126.7387050074139
 30
0.0
 10
90.25944642178419
 20
125.504156220048
 30
0.0
 10
90.9989412160867
 20
124.079204591766
 30
0.0
 10
91.47524513897613
 20
122.5282741122236
 30
0.0
 10
91.64291131143216
 20
120.9073452449975
 30
0.0
 10
91.49763371064459
 20
119.2823362990761
 30
0.0
 10
91.03865900001276
 20
117.7233103188045
 30
0.0
 10
90.3146731141595
 20
116.2866537201289
 30
0.0
 10
89.33885885883676
 20
115.0399095053283
 30
0.0
 10
88.1545343111877
 20
114.0137123161314
 30
0.0
 10
86.78632805545816
 20
113.2433080964106
 30
0.0
 10
85.29859021832593
 20
112.744458885934
 30
0.0
 10
83.72894035787338
 20
112.5632548060381
 30
0.0
 10
82.15268583954423
 20
112.6996779479565
 30
0.0
 10
80.63341033106938
 20
113.1641096807632
 30
0.0
 10
79.23239229702145
 20
113.9185437551323
 30
0.0
 10
78.0142558001223
 20
114.9419534906669
 30
0.0
 10
77.00664489699379
 20
116.18889575216
 30
0.0
 10
76.26117098644372
 20
117.6219851584281
 30
0.0
 10
75.78533517381997
 20
119.1786473836497
 30
0.0
 10
75.62152405883215
 20
120.8023103573553
 30
0.0
 10
75.7673362020975
 20
122.4298594013468
 30
0.0
 10
76.22748051427456
 20
123.9946070896823
 30
0.0
 10
76.9569405790958
 20
125.4386331591448
 30
0.0
 10
77.6187199565578
 20
126.2802441988431
 30
0.0
 10
77.98506948594586
 20
126.6619814871859
 30
0.0
  0
SPLINE
  5
EB
330
1F
100
AcDbEntity
  8
0
  6
Continuous
 62
     7
370
    25
100
AcDbSpline
210
0.0
220
0.0
230
1.0
 70
    11
 71
     3
 72
    47
 73
    43
 74
     0
 42
0.000000001
 43
0.00000001
 40
0.0
 40
0.0
 40
0.0
 40
0.0
 40
0.018555931476537
 40
0.035174990069533
 40
0.0498581786730641
 40
0.062607288393385
 40
0.0953681058734515
 40
0.1250235953123156
 40
0.154562131414586
 40
0.1873254163316038
 40
0.2140376493834303
 40
0.2498478288711541
 40
0.267684277703266
 40
0.2839032658487942
 40
0.2985082399655423
 40
0.3115041128733393
 40
0.3429211894939697
 40
0.3729479207884575
 40
0.402849629723676
 40
0.4364008870340949
 40
0.4619504140121321
 40
0.4999311489198671
 40
0.5173446589925941
 40
0.5335937021926416
 40
0.5486836295585554
 40
0.5626211825520289
 40
0.5950895087050275
 40
0.6250625441345793
 40
0.6549914299861027
 40
0.6874537003694817
 40
0.716262031275159
 40
0.7500327067591864
 40
0.769858024757118
 40
0.7869169811408327
 40
0.8012094702879055
 40
0.8127363273117648
 40
0.845751829555199
 40
0.8751838140688346
 40
0.9050548218844019
 40
0.9375234837614186
 40
0.9660344858637263
 40
1.0
 40
1.0
 40
1.0
 40
1.0
 10
78.52888240632018
 20
125.9629474813824
 30
0.0
 10
78.33079015169872
 20
125.7635686042341
 30
0.0
 10
77.9778514797304
 20
125.3642493583219
 30
0.0
 10
77.54194698875679
 20
124.745604357443
 30
0.0
 10
77.21200323577524
 20
124.1632373246565
 30
0.0
 10
76.83078088478226
 20
123.3306986848403
 30
0.0
 10
76.50437252265118
 20
122.2214039087335
 30
0.0
 10
76.38001945457498
 20
120.8102265574677
 30
0.0
 10
76.52138882492525
 20
119.4007365642811
 30
0.0
 10
76.92288657846231
 20
118.0926689638657
 30
0.0
 10
77.59983596912701
 20
116.8080056633657
 30
0.0
 10
78.37301832676545
 20
115.8545178813336
 30
0.0
 10
79.16828002773664
 20
115.15521391382
 30
0.0
 10
79.77242014549788
 20
114.7287148738982
 30
0.0
 10
80.35213534012252
 20
114.3985633457898
 30
0.0
 10
81.16993660755942
 20
114.0226027037007
 30
0.0
 10
82.26959903692071
 20
113.6936008694766
 30
0.0
 10
83.67196676558082
 20
113.5600228529725
 30
0.0
 10
85.0994394489851
 20
113.6960227319802
 30
0.0
 10
86.39661643274052
 20
114.0905108818236
 30
0.0
 10
87.69101945589763
 20
114.7623046887731
 30
0.0
 10
88.64301613635854
 20
115.524858678726
 30
0.0
 10
89.35248886497779
 20
116.3268977986543
 30
0.0
 10
89.77809364491716
 20
116.922693403641
 30
0.0
 10
90.11875627283517
 20
117.5139630239405
 30
0.0
 10
90.50842165970514
 20
118.3585258549849
 30
0.0
 10
90.84013362126205
 20
119.4821777598513
 30
0.0
 10
90.96637478275984
 20
120.900069920004
 30
0.0
 10
90.8220466714897
 20
122.3158951115759
 30
0.0
 10
90.40976832242134
 20
123.6510530869329
 30
0.0
 10
89.73045214143905
 20
124.9200214205155
 30
0.0
 10
88.944101783205
 20
125.8803439127568
 30
0.0
 10
88.15025410948013
 20
126.5757515196206
 30
0.0
 10
87.52052988745247
 20
127.0118253956523
 30
0.0
 10
86.95929396805676
 20
127.3246745441043
 30
0.0
 10
86.15568550864226
 20
127.6918765449704
 30
0.0
 10
85.07553711269831
 20
128.0145864819604
 30
0.0
 10
83.66600879824999
 20
128.1465307180989
 30
0.0
 10
82.25680385021994
 20
128.0127206834218
 30
0.0
 10
80.91608403692946
 20
127.607964617336
 30
0.0
 10
79.63181617317383
 20
126.9297070703944
 30
0.0
 10
78.8914783386849
 20
126.3278984987334
 30
0.0
 10
78.52888240632018
 20
125.9629474813824
 30
0.0
  0
SPLINE
  5
EC
330
1F
100
AcDbEntity
  8
0
  6
Continuous
 62
     7
370
    25
100
AcDbSpline
210
0.0
220
0.0
230
1.0
 70
     8
 71
     3
 72
     8
 73
     4
 74
     0
 42
0.000000001
 43
0.00000001
 40
0.0
 40
0.0
 40
0.0
 40
0.0
 40
1.0
 40
1.0
 40
1.0
 40
1.0
 10
66.70899356963969
 20
100.0754481383307
 30
0.0
 10
67.01354684334912
 20
99.93777139795537
 30
0.0
 10
67.31810011705852
 20
99.80090867704142
 30
0.0
 10
67.62265339076794
 20
99.66487612771027
 30
0.0
  0
SPLINE
  5
ED
330
1F
100
AcDbEntity
  8
0
  6
Continuous
 62
     7
370
    25
100
AcDbSpline
210
0.0
220
0.0
230
1.0
 70
     8
 71
     3
 72
     8
 73
     4
 74
     0
 42
0.000000001
 43
0.00000001
 40
0.0
 40
0.0
 40
0.0
 40
0.0
 40
1.0
 40
1.0
 40
1.0
 40
1.0
 10
66.12265339121889
 20
100.5915026208468
 30
0.0
 10
66.31720052375162
 20
100.418095752527
 30
0.0
 10
66.51266154399066
 20
100.2460996575604
 30
0.0
 10
66.70899356964782
 20
100.0754481383285
 30
0.0
  0
LINE
  5
EE
330
1F
100
AcDbEntity
  8
0
  6
Continuous
 62
     7
370
    25
100
AcDbLine
 10
66.1226551317
 20
100.5915018952
 30
0.0
 11
66.1226551317
 21
141.11595482
 31
0.0
  0
SPLINE
  5
EF
330
1F
100
AcDbEntity
  8
0
  6
Continuous
 62
     7
370
    25
100
AcDbSpline
210
0.0
220
0.0
230
1.0
 70
     8
 71
     3
 72
     8
 73
     4
 74
     0
 42
0.000000001
 43
0.00000001
 40
0.0
 40
0.0
 40
0.0
 40
0.0
 40
1.0
 40
1.0
 40
1.0
 40
1.0
 10
66.70899356965135
 20
141.6320085768569
 30
0.0
 10
66.51266154399299
 20
141.4613570576241
 30
0.0
 10
66.31720052375279
 20
141.2893609626564
 30
0.0
 10
66.12265339121889
 20
141.1159540943356
 30
0.0
  0
SPLINE
  5
F0
330
1F
100
AcDbEntity
  8
0
  6
Continuous
 62
     7
370
    25
100
AcDbSpline
210
0.0
220
0.0
230
1.0
 70
     8
 71
     3
 72
     8
 73
     4
 74
     0
 42
0.000000001
 43
0.00000001
 40
0.0
 40
0.0
 40
0.0
 40
0.0
 40
1.0
 40
1.0
 40
1.0
 40
1.0
 10
67.62265339076797
 20
142.0425805874721
 30
0.0
 10
67.31810011706241
 20
141.9065480381427
 30
0.0
 10
67.01354684335689
 20
141.7696853172305
 30
0.0
 10
66.70899356965135
 20
141.6320085768569
 30
0.0
  0
SPLINE
  5
F1
330
1F
100
AcDbEntity
  8
0
  6
Continuous
 62
     7
370
    25
100
AcDbSpline
210
0.0
220
0.0
230
1.0
 70
     8
 71
     3
 72
     9
 73
     5
 74
     0
 42
0.000000001
 43
0.00000001
 40
0.0
 40
0.0
 40
0.0
 40
0.0
 40
0.8959546455136717
 40
0.9999999999999999
 40
0.9999999999999999
 40
0.9999999999999999
 40
0.9999999999999999
 10
81.74739808664391
 20
113.8640295005222
 30
0.0
 10
81.8514304985439
 20
113.8369306542932
 30
0.0
 10
81.96754397864126
 20
113.8066848752633
 30
0.0
 10
81.91820796750063
 20
113.81925579848
 30
0.0
 10
81.91307478473256
 20
113.8205637446423
 30
0.0
  0
LINE
  5
F2
330
1F
100
AcDbEntity
  8
0
  6
Continuous
 62
     7
370
    25
100
AcDbLine
 10
171.5726520203
 20
104.8537275976
 30
0.0
 11
171.5726520203
 21
136.8537291176
 31
0.0
  0
LINE
  5
F3
330
1F
100
AcDbEntity
  8
0
  6
Continuous
 62
     7
370
    25
100
AcDbLine
 10
193.0726508878
 20
105.8537286929
 30
0.0
 11
193.0726508878
 21
135.8537280223
 31
0.0
  0
LINE
  5
F4
330
1F
100
AcDbEntity
  8
0
  6
Continuous
 62
     7
370
    25
100
AcDbLine
 10
88.9675955556
 20
144.595064897
 30
0.0
 11
88.3217848174
 21
143.9599457419
 31
0.0
  0
LINE
  5
F5
330
1F
100
AcDbEntity
  8
0
  6
Continuous
 62
     7
370
    25
100
AcDbLine
 10
88.9675955556
 20
97.1123918182
 30
0.0
 11
88.3242844872
 21
97.7450541443
 31
0.0
  0
LINE
  5
F6
330
1F
100
AcDbEntity
  8
0
  6
Continuous
 62
     7
370
    25
100
AcDbLine
 10
88.0726541661
 20
143.7149389869
 30
0.0
 11
88.0726541661
 21
144.0998061782
 31
0.0
  0
LINE
  5
F7
330
1F
100
AcDbEntity
  8
0
  6
Continuous
 62
     7
370
    25
100
AcDbLine
 10
88.0726541661
 20
97.6076505369
 30
0.0
 11
88.0726541661
 21
97.9925177282
 31
0.0
  0
SPLINE
  5
F8
330
1F
100
AcDbEntity
  8
0
  6
Continuous
 62
     7
370
    25
100
AcDbSpline
210
0.0
220
0.0
230
1.0
 70
     8
 71
     3
 72
     9
 73
     5
 74
     0
 42
0.000000001
 43
0.00000001
 40
0.0
 40
0.0
 40
0.0
 40
0.0
 40
0.7786028962702375
 40
0.9999999999999999
 40
0.9999999999999999
 40
0.9999999999999999
 40
0.9999999999999999
 10
78.718420424319
 20
126.1168743706127
 30
0.0
 10
78.56602425723842
 20
125.9890496878054
 30
0.0
 10
78.37029397186365
 20
125.8248778314977
 30
0.0
 10
78.21477777889591
 20
125.6151203685162
 30
0.0
 10
78.18034694418976
 20
125.5686806737264
 30
0.0
  0
SPLINE
  5
F9
330
1F
100
AcDbEntity
  8
0
  6
Continuous
 62
     7
370
    25
100
AcDbSpline
210
0.0
220
0.0
230
1.0
 70
     8
 71
     3
 72
     9
 73
     5
 74
     0
 42
0.000000001
 43
0.00000001
 40
0.0
 40
0.0
 40
0.0
 40
0.0
 40
0.4260717682333453
 40
1.0
 40
1.0
 40
1.0
 40
1.0
 10
81.03564784751008
 20
114.1081235593934
 30
0.0
 10
81.17508535700708
 20
114.0539409475873
 30
0.0
 10
81.50234832041617
 20
113.9267731419594
 30
0.0
 10
81.66048048480395
 20
113.8873647012557
 30
0.0
 10
81.75123699829648
 20
113.8647470845659
 30
0.0
  0
LINE
  5
FA
330
1F
100
AcDbEntity
  8
0
  6
HIDDEN
 62
     7
370
    18
100
AcDbLine
 10
196.0726569675
 20
108.8537282533
 30
0.0
 11
196.0726569675
 21
132.8537284619
 31
0.0
  0
LINE
  5
FB
330
1F
100
AcDbEntity
  8
0
  6
HIDDEN
 62
     7
370
    18
100
AcDbLine
 10
212.0726521395
 20
109.6537287569
 30
0.0
 11
212.0726521395
 21
132.0537279582
 31
0.0
  0
LINE
  5
FC
330
1F
100
AcDbEntity
  8
0
  6
HIDDEN
 62
     7
370
    18
100
AcDbLine
 10
196.0726569675
 20
112.2537280655
 30
0.0
 11
196.0726569675
 21
129.4307864494
 31
0.0
  0
LINE
  5
FD
330
1F
100
AcDbEntity
  8
0
  6
HIDDEN
 62
     7
370
    18
100
AcDbLine
 10
212.0726521395
 20
120.8537283576
 30
0.0
 11
212.0726521395
 21
113.7827282994
 31
0.0
  0
LINE
  5
FE
330
1F
100
AcDbEntity
  8
0
  6
HIDDEN
 62
     7
370
    18
100
AcDbLine
 10
204.0726508282
 20
120.8537283576
 30
0.0
 11
204.0726508282
 21
117.3182283285
 31
0.0
  0
LINE
  5
FF
330
1F
100
AcDbEntity
  8
0
  6
HIDDEN
 62
     7
370
    18
100
AcDbLine
 10
204.0726508282
 20
120.8537283576
 30
0.0
 11
204.0726508282
 21
124.3892283867
 31
0.0
  0
LINE
  5
100
330
1F
100
AcDbEntity
  8
0
  6
HIDDEN
 62
     7
370
    18
100
AcDbLine
 10
204.0726508282
 20
120.8537283576
 30
0.0
 11
212.0726521395
 21
120.8537283576
 31
0.0
  0
LINE
  5
101
330
1F
100
AcDbEntity
  8
0
  6
HIDDEN
 62
     7
370
    18
100
AcDbLine
 10
212.0726521395
 20
120.8537283576
 30
0.0
 11
212.0726521395
 21
127.9247284158
 31
0.0
  0
LINE
  5
102
330
1F
100
AcDbEntity
  8
0
  6
HIDDEN
 62
     7
370
    18
100
AcDbLine
 10
162.1741543792
 20
112.8537279776
 30
0.0
 11
162.1741543792
 21
128.8537287376
 31
0.0
  0
LINE
  5
103
330
1F
100
AcDbEntity
  8
0
  6
HIDDEN
 62
     7
370
    18
100
AcDbLine
 10
161.0726530932
 20
113.9552283323
 30
0.0
 11
161.0726530932
 21
127.7522283829
 31
0.0
  0
LINE
  5
104
330
1F
100
AcDbEntity
  8
0
  6
HIDDEN
 62
     7
370
    18
100
AcDbLine
 10
204.0726508282
 20
124.3892283867
 30
0.0
 11
204.0726508282
 21
127.9247284158
 31
0.0
  0
LINE
  5
105
330
1F
100
AcDbEntity
  8
0
  6
HIDDEN
 62
     7
370
    18
100
AcDbLine
 10
204.0726508282
 20
117.3182283285
 30
0.0
 11
204.0726508282
 21
124.3892283867
 31
0.0
  0
LINE
  5
106
330
1F
100
AcDbEntity
  8
0
  6
HIDDEN
 62
     7
370
    18
100
AcDbLine
 10
204.0726508282
 20
113.7827282994
 30
0.0
 11
204.0726508282
 21
117.3182283285
 31
0.0
  0
LINE
  5
107
330
1F
100
AcDbEntity
  8
0
  6
HIDDEN
 62
     7
370
    18
100
AcDbLine
 10
204.0726508282
 20
117.3182283285
 30
0.0
 11
204.0726508282
 21
113.7827282994
 31
0.0
  0
LINE
  5
108
330
1F
100
AcDbEntity
  8
0
  6
HIDDEN
 62
     7
370
    18
100
AcDbLine
 10
204.0726508282
 20
127.9247284158
 30
0.0
 11
204.0726508282
 21
124.3892283867
 31
0.0
  0
LINE
  5
109
330
1F
100
AcDbEntity
  8
0
  6
HIDDEN
 62
     7
370
    18
100
AcDbLine
 10
204.0726508282
 20
124.3892283867
 30
0.0
 11
204.0726508282
 21
117.3182283285
 31
0.0
  0
LINE
  5
10A
330
1F
100
AcDbEntity
  8
0
  6
HIDDEN
 62
     7
370
    18
100
AcDbLine
 10
204.0726508282
 20
117.3182283285
 30
0.0
 11
204.0726508282
 21
113.7827282994
 31
0.0
  0
LINE
  5
10B
330
1F
100
AcDbEntity
  8
0
  6
HIDDEN
 62
     7
370
    18
100
AcDbLine
 10
204.0726508282
 20
124.3892283867
 30
0.0
 11
204.0726508282
 21
127.9247284158
 31
0.0
  0
LINE
  5
10C
330
1F
100
AcDbEntity
  8
0
  6
HIDDEN
 62
     7
370
    18
100
AcDbLine
 10
204.0726508282
 20
113.7827282994
 30
0.0
 11
212.0726521395
 21
113.7827282994
 31
0.0
  0
LINE
  5
10D
330
1F
100
AcDbEntity
  8
0
  6
HIDDEN
 62
     7
370
    18
100
AcDbLine
 10
204.0726508282
 20
127.9247284158
 30
0.0
 11
212.0726521395
 21
127.9247284158
 31
0.0
  0
LINE
  5
10E
330
1F
100
AcDbEntity
  8
0
  6
HIDDEN
 62
     7
370
    18
100
AcDbLine
 10
193.0726508878
 20
128.8537287376
 30
0.0
 11
162.1741543792
 21
128.8537287376
 31
0.0
  0
LINE
  5
10F
330
1F
100
AcDbEntity
  8
0
  6
HIDDEN
 62
     7
370
    18
100
AcDbLine
 10
162.1741543792
 20
112.8537279776
 30
0.0
 11
193.0726508878
 21
112.8537279776
 31
0.0
  0
LINE
  5
110
330
1F
100
AcDbEntity
  8
0
  6
HIDDEN
 62
     7
370
    18
100
AcDbLine
 10
162.1741543792
 20
128.8537287376
 30
0.0
 11
161.0726530932
 21
127.7522283829
 31
0.0
  0
LINE
  5
111
330
1F
100
AcDbEntity
  8
0
  6
HIDDEN
 62
     7
370
    18
100
AcDbLine
 10
161.0726530932
 20
113.9552283323
 30
0.0
 11
162.1741543792
 21
112.8537279776
 31
0.0
  0
LINE
  5
112
330
1F
100
AcDbEntity
  8
0
  6
HIDDEN
 62
     7
370
    18
100
AcDbLine
 10
204.0726508282
 20
127.9247284158
 30
0.0
 11
199.9902094983
 21
120.8537283576
 31
0.0
  0
LINE
  5
113
330
1F
100
AcDbEntity
  8
0
  6
HIDDEN
 62
     7
370
    18
100
AcDbLine
 10
199.9902094983
 20
120.8537283576
 30
0.0
 11
204.0726508282
 21
113.7827282994
 31
0.0
  0
DIMENSION
  5
114
330
1F
100
AcDbEntity
  8
VERMASSUNG
100
AcDbDimension
  2
_D
 10
244.2103911566
 20
84.8537283576
 30
0.0
 11
244.2103911566
 21
120.8537283576
 31
0.0
 70
   160
  1
%%c<>
 71
     2
 42
-1.0
  3
SLDDIMSTYLE0
100
AcDbAlignedDimension
 13
168.0726533912
 23
156.8537283576
 33
0.0
 14
168.0726533912
 24
84.8537283576
 34
0.0
 50
90.0
100
AcDbRotatedDimension
  0
DIMENSION
  5
120
330
1F
100
AcDbEntity
  8
VERMASSUNG
100
AcDbDimension
  2
_D_1
 10
234.0726533912
 20
136.8537283576
 30
0.0
 11
234.0726533912
 21
120.8537283576
 31
0.0
 70
   160
  1
%%c<>
 71
     2
 42
-1.0
  3
SLDDIMSTYLE0
100
AcDbAlignedDimension
 13
192.0726533912
 23
104.8537283576
 33
0.0
 14
192.0726533912
 24
136.8537283576
 34
0.0
 50
90.0
100
AcDbRotatedDimension
  0
DIMENSION
  5
12B
330
1F
100
AcDbEntity
  8
VERMASSUNG
100
AcDbDimension
  2
_D_2
 10
224.3065659949
 20
113.7827283576
 30
0.0
 11
224.3065659949
 21
120.8537283576
 31
0.0
 70
   160
  1
SW<>
 71
     2
 42
-1.0
  3
SLDDIMSTYLE1
100
AcDbAlignedDimension
 13
212.0726533912
 23
127.9247283576
 33
0.0
 14
212.0726533912
 24
113.7827283576
 34
0.0
 50
90.0
100
AcDbRotatedDimension
  0
DIMENSION
  5
137
330
1F
100
AcDbEntity
  8
VERMASSUNG
100
AcDbDimension
  2
_D_3
 10
169.0726533912
 20
171.5006156627
 30
0.0
 11
137.5726533912
 21
171.5006156627
 31
0.0
 70
   160
  1
<>
 71
     2
 42
-1.0
  3
SLDDIMSTYLE0
100
AcDbAlignedDimension
 13
106.0726533912
 23
152.1287283576
 33
0.0
 14
169.0726533912
 24
155.8537283576
 34
0.0
100
AcDbRotatedDimension
  0
DIMENSION
  5
141
330
1F
100
AcDbEntity
  8
VERMASSUNG
100
AcDbDimension
  2
_D_4
 10
169.0726533912
 20
164.5832126873
 30
0.0
 11
148.36554661
 21
164.5832126873
 31
0.0
 70
   160
  1
<>
 71
     2
 42
-1.0
  3
SLDDIMSTYLE1
100
AcDbAlignedDimension
 13
127.6584398288
 23
152.3287283576
 33
0.0
 14
169.0726533912
 24
155.8537283576
 34
0.0
100
AcDbRotatedDimension
  0
DIMENSION
  5
14B
330
1F
100
AcDbEntity
  8
VERMASSUNG
100
AcDbDimension
  2
_D_5
 10
169.0726533912
 20
164.5832126873
 30
0.0
 11
181.0726533912
 21
164.5832126873
 31
0.0
 70
   160
  1
<>
 71
     2
 42
-1.0
  3
SLDDIMSTYLE0
100
AcDbAlignedDimension
 13
193.0726533912
 23
132.0157864271
 33
0.0
 14
169.0726533912
 24
155.8537283576
 34
0.0
100
AcDbRotatedDimension
  0
DIMENSION
  5
155
330
1F
100
AcDbEntity
  8
VERMASSUNG
100
AcDbDimension
  2
_D_6
 10
193.0726533912
 20
178.8537283576
 30
0.0
 11
129.5976533912
 21
178.8537283576
 31
0.0
 70
   160
  1
<>
 71
     2
 42
-1.0
  3
SLDDIMSTYLE0
100
AcDbAlignedDimension
 13
66.1226533912
 23
141.1159540943
 33
0.0
 14
193.0726533912
 24
135.8537283576
 34
0.0
100
AcDbRotatedDimension
  0
DIMENSION
  5
15F
330
1F
100
AcDbEntity
  8
VERMASSUNG
100
AcDbDimension
  2
_D_7
 10
56.1226283912
 20
89.3787283576
 30
0.0
 11
56.1226283912
 21
120.8537283576
 31
0.0
 70
   160
  1
KM%%c<> XMZ
 71
     2
 42
-1.0
  3
SLDDIMSTYLE1
100
AcDbAlignedDimension
 13
106.2726533912
 23
152.3287283576
 33
0.0
 14
106.2726533912
 24
89.3787283576
 34
0.0
 50
90.0
100
AcDbRotatedDimension
  0
LINE
  5
16C
330
1F
100
AcDbEntity
  8
VERMASSUNG
  6
CENTERX2
370
    18
100
AcDbLine
 10
215.6972555894
 20
120.8537283576
 30
0.0
 11
61.2921655267
 21
120.8537283576
 31
0.0
  0
SPLINE
  5
16D
330
1F
100
AcDbEntity
  8
0
  6
Continuous
 62
     7
370
    25
100
AcDbSpline
210
0.0
220
0.0
230
1.0
 70
     8
 71
     3
 72
    12
 73
     8
 74
     0
 42
0.000000001
 43
0.00000001
 40
0.0
 40
0.0
 40
0.0
 40
0.0
 40
0.1347255549126615
 40
0.349668355137161
 40
0.5679302896774634
 40
0.7922618397941701
 40
1.0
 40
1.0
 40
1.0
 40
1.0
 10
250.7321257762384
 20
26.97711855179418
 30
0.0
 10
250.807341744165
 20
26.93929172537135
 30
0.0
 10
251.0025581884545
 20
26.84111551682719
 30
0.0
 10
251.3726543908079
 20
26.8068877097384
 30
0.0
 10
251.8154333278836
 20
26.86216447551173
 30
0.0
 10
252.2670270931803
 20
27.01939387624713
 30
0.0
 10
252.5639755940092
 20
27.19978365906964
 30
0.0
 10
252.7067477758223
 20
27.28651466730325
 30
0.0
  0
SPLINE
  5
16E
330
1F
100
AcDbEntity
  8
0
  6
Continuous
 62
     7
370
    25
100
AcDbSpline
210
0.0
220
0.0
230
1.0
 70
     8
 71
     3
 72
    20
 73
    16
 74
     0
 42
0.000000001
 43
0.00000001
 40
0.0
 40
0.0
 40
0.0
 40
0.0
 40
0.0436450448587224
 40
0.1261399114763665
 40
0.2085069410357056
 40
0.2907415250699897
 40
0.3729444987504502
 40
0.4552255563914163
 40
0.5376899438456734
 40
0.6204701488975974
 40
0.7036586551810904
 40
0.787149140448582
 40
0.870051491288202
 40
0.9509482098657063
 40
1.0
 40
1.0
 40
1.0
 40
1.0
 10
252.7067477758223
 20
27.28651466730325
 30
0.0
 10
252.7892840194765
 20
27.3443942255953
 30
0.0
 10
253.0278246029916
 20
27.51167375029009
 30
0.0
 10
253.4080167833846
 20
27.85813695477405
 30
0.0
 10
253.8242457030728
 20
28.33909692858887
 30
0.0
 10
254.1913390673371
 20
28.87928191795379
 30
0.0
 10
254.4972195426207
 20
29.4584430778809
 30
0.0
 10
254.7314700012531
 20
30.05765432011419
 30
0.0
 10
254.8856620868186
 20
30.65710351407018
 30
0.0
 10
254.9534234045436
 20
31.23766885028736
 30
0.0
 10
254.9298260662162
 20
31.78025798998303
 30
0.0
 10
254.8128818947824
 20
32.26746351964237
 30
0.0
 10
254.5997593907978
 20
32.67271819018805
 30
0.0
 10
254.3458690091578
 20
32.9591565871777
 30
0.0
 10
254.1422982128705
 20
33.05813057103675
 30
0.0
 10
254.0654561461477
 20
33.09549037711022
 30
0.0
  0
LINE
  5
16F
330
1F
100
AcDbEntity
  8
0
  6
Continuous
 62
     7
370
    25
100
AcDbLine
 10
248.3448255436
 20
28.3348499694
 30
0.0
 11
250.6429219714
 21
27.0081871405
 31
0.0
  0
LINE
  5
170
330
1F
100
AcDbEntity
  8
0
  6
Continuous
 62
     7
370
    25
100
AcDbLine
 10
254.1426375625
 20
33.0705293785
 30
0.0
 11
251.8445411348
 21
34.3971922074
 31
0.0
  0
SPLINE
  5
171
330
1F
100
AcDbEntity
  8
0
  6
Continuous
 62
     7
370
    25
100
AcDbSpline
210
0.0
220
0.0
230
1.0
 70
     8
 71
     3
 72
    19
 73
    15
 74
     0
 42
0.000000001
 43
0.00000001
 40
0.0
 40
0.0
 40
0.0
 40
0.0
 40
0.0390318232633569
 40
0.1296093544181158
 40
0.220041339503006
 40
0.310438461377987
 40
0.4009214507706292
 40
0.4916060446397688
 40
0.5826379163863646
 40
0.6741188106218737
 40
0.7659317856787691
 40
0.8570980499403522
 40
0.9460586344699382
 40
0.9999999999999999
 40
0.9999999999999999
 40
0.9999999999999999
 40
0.9999999999999999
 10
272.3011377011678
 20
38.71741069825167
 30
0.0
 10
272.3661543419864
 20
38.77400303751765
 30
0.0
 10
272.5820490693751
 20
38.96192396828702
 30
0.0
 10
272.9150802278385
 20
39.3638494862029
 30
0.0
 10
273.2835032320181
 20
39.89992348843978
 30
0.0
 10
273.5890278730372
 20
40.480185649368
 30
0.0
 10
273.8233737514084
 20
41.07910155128874
 30
0.0
 10
273.9775404475398
 20
41.67863019080544
 30
0.0
 10
274.0453075835889
 20
42.25917369292807
 30
0.0
 10
274.0217085978808
 20
42.80176857875651
 30
0.0
 10
273.9047651299457
 20
43.28897297588171
 30
0.0
 10
273.6916413902615
 20
43.69422668127651
 30
0.0
 10
273.4377519509474
 20
43.98066619912993
 30
0.0
 10
273.234181173378
 20
44.07964002652928
 30
0.0
 10
273.1573390748655
 20
44.1169997924347
 30
0.0
  0
LINE
  5
172
330
1F
100
AcDbEntity
  8
0
  6
Continuous
 62
     7
370
    25
100
AcDbLine
 10
273.2345204912
 20
44.0920387938
 30
0.0
 11
270.9364240635
 21
45.4187016227
 31
0.0
  0
SPLINE
  5
173
330
1F
100
AcDbEntity
  8
0
  6
Continuous
 62
     7
370
    25
100
AcDbSpline
210
0.0
220
0.0
230
1.0
 70
     8
 71
     3
 72
    25
 73
    21
 74
     0
 42
0.000000001
 43
0.00000001
 40
0.0
 40
0.0
 40
0.0
 40
0.0
 40
0.0158145083691742
 40
0.073482493665591
 40
0.1310666575215165
 40
0.1893818661740032
 40
0.2488855231853209
 40
0.3094334003828743
 40
0.3705767882154709
 40
0.4319049677248503
 40
0.4931728594942684
 40
0.5543373006020625
 40
0.615413334125401
 40
0.6764397028559135
 40
0.7374639150551812
 40
0.7985272680603434
 40
0.8596752756920913
 40
0.9209604830081286
 40
0.9824285789891577
 40
0.9999999999999999
 40
0.9999999999999999
 40
0.9999999999999999
 40
0.9999999999999999
 10
271.4963805073447
 20
23.12057739959682
 30
0.0
 10
271.5351344092299
 20
23.09195818406065
 30
0.0
 10
271.7152053468345
 20
22.95897831043711
 30
0.0
 10
272.099485478815
 20
22.82775954082647
 30
0.0
 10
272.6318527092205
 20
22.73581138093458
 30
0.0
 10
273.2032576817062
 20
22.76279131278013
 30
0.0
 10
273.8002694760996
 20
22.8981917658797
 30
0.0
 10
274.4152426983763
 20
23.14411865279216
 30
0.0
 10
275.0348897907948
 20
23.49583676654552
 30
0.0
 10
275.6452954687643
 20
23.94566160300392
 30
0.0
 10
276.2331930269024
 20
24.4830043680185
 30
0.0
 10
276.7867880264378
 20
25.09594654469969
 30
0.0
 10
277.2955020639308
 20
25.77177313996961
 30
0.0
 10
277.7496384159787
 20
26.49691158022598
 30
0.0
 10
278.1404259141422
 20
27.25706029061518
 30
0.0
 10
278.4600177294208
 20
28.03735401645102
 30
0.0
 10
278.7020636664092
 20
28.8229385006773
 30
0.0
 10
278.8601299983633
 20
29.59829123736258
 30
0.0
 10
278.916122782318
 20
30.17117217170912
 30
0.0
 10
278.9196021569491
 20
30.48078305547947
 30
0.0
 10
278.9203756631499
 20
30.54961322291111
 30
0.0
  0
SPLINE
  5
174
330
1F
100
AcDbEntity
  8
0
  6
Continuous
 62
     7
370
    25
100
AcDbSpline
210
0.0
220
0.0
230
1.0
 70
     8
 71
     3
 72
    13
 73
     9
 74
     0
 42
0.000000001
 43
0.00000001
 40
0.0
 40
0.0
 40
0.0
 40
0.0
 40
0.10024384292953
 40
0.2902068144670682
 40
0.4801777290068757
 40
0.6684468825894198
 40
0.8532118239387078
 40
1.0
 40
1.0
 40
1.0
 40
1.0
 10
278.9203756631499
 20
30.54961322291111
 30
0.0
 10
278.9178129032296
 20
30.67528860794033
 30
0.0
 10
278.9103936905281
 20
31.03911996236966
 30
0.0
 10
278.8271750986038
 20
31.60296703452804
 30
0.0
 10
278.6403678873218
 20
32.20940199713286
 30
0.0
 10
278.3591091764269
 20
32.7310272636195
 30
0.0
 10
278.0237861358295
 20
33.14215547341409
 30
0.0
 10
277.7514320428947
 20
33.32521729927026
 30
0.0
 10
277.6308529910164
 20
33.40626407612986
 30
0.0
  0
LINE
  5
175
330
1F
100
AcDbEntity
  8
0
  6
Continuous
 62
     7
370
    25
100
AcDbLine
 10
277.5603337402
 20
33.4599636123
 30
0.0
 11
272.1863234297
 21
36.5623137292
 31
0.0
  0
LINE
  5
176
330
1F
100
AcDbEntity
  8
0
  6
Continuous
 62
     7
370
    25
100
AcDbLine
 10
266.1868110818
 20
26.1697273071
 30
0.0
 11
271.5608213924
 21
23.0673771902
 31
0.0
  0
SPLINE
  5
177
330
1F
100
AcDbEntity
  8
0
  6
Continuous
 62
     7
370
    25
100
AcDbSpline
210
0.0
220
0.0
230
1.0
 70
     8
 71
     3
 72
    19
 73
    15
 74
     0
 42
0.000000001
 43
0.00000001
 40
0.0
 40
0.0
 40
0.0
 40
0.0
 40
0.0468773460576259
 40
0.1360349895779342
 40
0.2257014060882766
 40
0.3158700391547224
 40
0.4064541733055464
 40
0.4973336447860058
 40
0.5883922332979096
 40
0.6795374777003547
 40
0.7706997419431333
 40
0.8618368187756963
 40
0.9529327951531413
 40
1.0
 40
1.0
 40
1.0
 40
1.0
 10
252.3064811311478
 20
20.75694057137541
 30
0.0
 10
252.4620135609538
 20
20.72380960617551
 30
0.0
 10
252.9133584907984
 20
20.62766571398216
 30
0.0
 10
253.7071968503183
 20
20.59026612674356
 30
0.0
 10
254.6781708188855
 20
20.63683089550728
 30
0.0
 10
255.6832278808392
 20
20.80099269511421
 30
0.0
 10
256.7127700383087
 20
21.0749317780697
 30
0.0
 10
257.7601857012338
 20
21.45890681584642
 30
0.0
 10
258.8177559062432
 20
21.94953860229581
 30
0.0
 10
259.8778349185722
 20
22.54366012096683
 30
0.0
 10
260.9335046228074
 20
23.23540309013467
 30
0.0
 10
261.9757359118695
 20
24.02479706518579
 30
0.0
 10
262.8389203573664
 20
24.7483301693485
 30
0.0
 10
263.3416198812653
 20
25.23740958135939
 30
0.0
 10
263.5128714495783
 20
25.40402126956397
 30
0.0
  0
SPLINE
  5
178
330
1F
100
AcDbEntity
  8
0
  6
Continuous
 62
     7
370
    25
100
AcDbSpline
210
0.0
220
0.0
230
1.0
 70
     8
 71
     3
 72
    15
 73
    11
 74
     0
 42
0.000000001
 43
0.00000001
 40
0.0
 40
0.0
 40
0.0
 40
0.0
 40
0.0045284257309183
 40
0.1543125224781493
 40
0.3041246094426999
 40
0.4538535400712406
 40
0.6033507894223827
 40
0.7524176380748838
 40
0.9008311353790859
 40
1.0
 40
1.0
 40
1.0
 40
1.0
 10
272.1528861615308
 20
44.71645250118384
 30
0.0
 10
272.1529550866946
 20
44.7288350824272
 30
0.0
 10
272.1553038093023
 20
45.15078908145333
 30
0.0
 10
272.0785662396431
 20
45.93700142022569
 30
0.0
 10
271.9155621013495
 20
47.0612624506138
 30
0.0
 10
271.6539970039167
 20
48.11302452671241
 30
0.0
 10
271.3094260099755
 20
49.09290253894235
 30
0.0
 10
270.8767642586061
 20
49.98669794421105
 30
0.0
 10
270.4290969613003
 20
50.71628651239593
 30
0.0
 10
270.0931557142031
 20
51.10528385822352
 30
0.0
 10
269.9585947875081
 20
51.26109635159467
 30
0.0
  0
LINE
  5
179
330
1F
100
AcDbEntity
  8
0
  6
Continuous
 62
     7
370
    25
100
AcDbLine
 10
237.8919421805
 20
28.6479758796
 30
0.0
 11
250.2878018454
 21
21.4919984143
 31
0.0
  0
LINE
  5
17A
330
1F
100
AcDbEntity
  8
0
  6
Continuous
 62
     7
370
    25
100
AcDbLine
 10
268.2863395475
 20
52.6697580609
 30
0.0
 11
255.8904798826
 21
59.8257355262
 31
0.0
  0
SPLINE
  5
17B
330
1F
100
AcDbEntity
  8
0
  6
Continuous
 62
     7
370
    25
100
AcDbSpline
210
0.0
220
0.0
230
1.0
 70
     8
 71
     3
 72
    14
 73
    10
 74
     0
 42
0.000000001
 43
0.00000001
 40
0.0
 40
0.0
 40
0.0
 40
0.0
 40
0.0039024291692336
 40
0.1749966841905625
 40
0.3459784322896697
 40
0.5186423172313546
 40
0.6941481031101899
 40
0.8724657211607137
 40
1.0
 40
1.0
 40
1.0
 40
1.0
 10
263.8453254613599
 20
25.21498829572467
 30
0.0
 10
263.849132238061
 20
25.21241059422232
 30
0.0
 10
264.0198395773242
 20
25.09681869077338
 30
0.0
 10
264.4142192720286
 20
24.96535845765101
 30
0.0
 10
265.0173525116263
 20
24.83462054773025
 30
0.0
 10
265.6654830124887
 20
24.82660036458881
 30
0.0
 10
266.3426798992861
 20
24.93000762714072
 30
0.0
 10
266.9745164389742
 20
25.11194166294026
 30
0.0
 10
267.3784275556023
 20
25.30435916654031
 30
0.0
 10
267.5468506175424
 20
25.38459351462587
 30
0.0
  0
SPLINE
  5
17C
330
1F
100
AcDbEntity
  8
0
  6
Continuous
 62
     7
370
    25
100
AcDbSpline
210
0.0
220
0.0
230
1.0
 70
     8
 71
     3
 72
    14
 73
    10
 74
     0
 42
0.000000001
 43
0.00000001
 40
0.0
 40
0.0
 40
0.0
 40
0.0
 40
0.0987253791004351
 40
0.2757479622758426
 40
0.4520972282513858
 40
0.6266590487454443
 40
0.7983105262015024
 40
0.9667224626827737
 40
0.9999999999999999
 40
0.9999999999999999
 40
0.9999999999999999
 40
0.9999999999999999
 10
273.5441299232731
 20
35.77846881210903
 30
0.0
 10
273.5344622448744
 20
35.92816755494181
 30
0.0
 10
273.5074596378175
 20
36.34628824151221
 30
0.0
 10
273.3611727074868
 20
36.97004898616512
 30
0.0
 10
273.1134269305326
 20
37.63825724086905
 30
0.0
 10
272.7742505501251
 20
38.22125104891538
 30
0.0
 10
272.3497478450885
 20
38.69753886030713
 30
0.0
 10
271.9988405646548
 20
38.99667074279072
 30
0.0
 10
271.7766079237463
 20
39.10070211288323
 30
0.0
 10
271.7399408887164
 20
39.11786665665052
 30
0.0
  0
LINE
  5
17D
330
1F
100
AcDbEntity
  8
0
  6
Continuous
 62
     7
370
    25
100
AcDbLine
 10
256.5248324288
 20
29.4381303281
 30
0.0
 11
263.7726784532
 21
25.2540378791
 31
0.0
  0
LINE
  5
17E
330
1F
100
AcDbEntity
  8
0
  6
Continuous
 62
     7
370
    25
100
AcDbLine
 10
271.7720284699
 20
39.1108196485
 30
0.0
 11
264.5241824454
 21
43.2949120975
 31
0.0
  0
SPLINE
  5
17F
330
1F
100
AcDbEntity
  8
0
  6
Continuous
 62
     7
370
    25
100
AcDbSpline
210
0.0
220
0.0
230
1.0
 70
     8
 71
     3
 72
    21
 73
    17
 74
     0
 42
0.000000001
 43
0.00000001
 40
0.0
 40
0.0
 40
0.0
 40
0.0
 40
0.0522060603909401
 40
0.1031520118847317
 40
0.1441458691556889
 40
0.2229698051314069
 40
0.3021472054639606
 40
0.3816453779678218
 40
0.4613860169372336
 40
0.5412472864132756
 40
0.6210874774051577
 40
0.700729015361821
 40
0.7800345942432342
 40
0.8588858154980475
 40
0.9372351772710398
 40
1.0
 40
1.0
 40
1.0
 40
1.0
 10
264.9866449968778
 20
29.58131416527715
 30
0.0
 10
264.9646248482217
 20
29.68333006108569
 30
0.0
 10
264.9211160559691
 20
29.88489947310552
 30
0.0
 10
264.9099364701196
 20
30.21756919038882
 30
0.0
 10
264.9234954042005
 20
30.62934827519886
 30
0.0
 10
264.9918711541524
 20
31.14325538072818
 30
0.0
 10
265.1521429532547
 20
31.78511983216877
 30
0.0
 10
265.3893899874615
 20
32.44009341244718
 30
0.0
 10
265.6975176897594
 20
33.08804134783641
 30
0.0
 10
266.0680002922645
 20
33.70948164703588
 30
0.0
 10
266.4897212566549
 20
34.285647543253
 30
0.0
 10
266.9492640887659
 20
34.79906057345634
 30
0.0
 10
267.4319410281188
 20
35.23585200844867
 30
0.0
 10
267.9198288124537
 20
35.58045158917223
 30
0.0
 10
268.3701971365161
 20
35.82225213684669
 30
0.0
 10
268.6359150438594
 20
35.90110267442503
 30
0.0
 10
268.7541011596575
 20
35.93617384767848
 30
0.0
  0
SPLINE
  5
180
330
1F
100
AcDbEntity
  8
0
  6
Continuous
 62
     7
370
    25
100
AcDbSpline
210
0.0
220
0.0
230
1.0
 70
     8
 71
     3
 72
    11
 73
     7
 74
     0
 42
0.000000001
 43
0.00000001
 40
0.0
 40
0.0
 40
0.0
 40
0.0
 40
0.1594253701718815
 40
0.5051511633371554
 40
0.8528324023923446
 40
1.0
 40
1.0
 40
1.0
 40
1.0
 10
253.8947429704325
 20
60.5562742371477
 30
0.0
 10
253.7589682384423
 20
60.58677056758607
 30
0.0
 10
253.328755884269
 20
60.6834004627016
 30
0.0
 10
252.5565621366645
 20
60.7218486815185
 30
0.0
 10
251.7804745215546
 20
60.70918037863249
 30
0.0
 10
251.3064498899096
 20
60.6301464488215
 30
0.0
 10
251.1654753920882
 20
60.60664182939426
 30
0.0
  0
SPLINE
  5
181
330
1F
100
AcDbEntity
  8
0
  6
Continuous
 62
     7
370
    25
100
AcDbSpline
210
0.0
220
0.0
230
1.0
 70
     8
 71
     3
 72
    10
 73
     6
 74
     0
 42
0.000000001
 43
0.00000001
 40
0.0
 40
0.0
 40
0.0
 40
0.0
 40
0.3767240725363443
 40
0.7753997523459123
 40
1.0
 40
1.0
 40
1.0
 40
1.0
 10
234.9457187603759
 20
32.10016531405993
 30
0.0
 10
235.0781535451792
 20
31.81693287050832
 30
0.0
 10
235.3507400529836
 20
31.23396410743558
 30
0.0
 10
235.7803540309048
 20
30.55912500197739
 30
0.0
 10
236.097578502444
 20
30.19808261956953
 30
0.0
 10
236.2118917491621
 20
30.06797939412905
 30
0.0
  0
LINE
  5
182
330
1F
100
AcDbEntity
  8
0
  6
Continuous
 62
     7
370
    25
100
AcDbLine
 10
263.6937255522
 20
43.6069790485
 30
0.0
 11
263.1936061087
 21
43.7088747257
 31
0.0
  0
LINE
  5
183
330
1F
100
AcDbEntity
  8
0
  6
Continuous
 62
     7
370
    25
100
AcDbLine
 10
255.5009537696
 20
30.3833659495
 30
0.0
 11
255.8392935229
 21
30.0012292116
 31
0.0
  0
LINE
  5
184
330
1F
100
AcDbEntity
  8
0
  6
Continuous
 62
     7
370
    25
100
AcDbLine
 10
246.6391592578
 20
58.9581473531
 30
0.0
 11
245.2466634202
 21
58.1540160105
 31
0.0
  0
LINE
  5
185
330
1F
100
AcDbEntity
  8
0
  6
Continuous
 62
     7
370
    25
100
AcDbLine
 10
234.0168423904
 20
38.7012875121
 30
0.0
 11
234.016843049
 21
37.0932850742
 31
0.0
  0
LINE
  5
186
330
1F
100
AcDbEntity
  8
0
  6
Continuous
 62
     7
370
    25
100
AcDbLine
 10
234.1776457884
 20
33.4046328979
 30
0.0
 11
234.5572963679
 21
33.1854652834
 31
0.0
  0
LINE
  5
187
330
1F
100
AcDbEntity
  8
0
  6
Continuous
 62
     7
370
    25
100
AcDbLine
 10
250.2935176825
 20
60.4443536773
 30
0.0
 11
249.9138671029
 21
60.6635212917
 31
0.0
  0
LINE
  5
188
330
1F
100
AcDbEntity
  8
0
  6
Continuous
 62
     7
370
    25
100
AcDbLine
 10
229.569360857
 20
36.0649391626
 30
0.0
 11
231.8200118334
 21
34.7656660097
 31
0.0
  0
LINE
  5
189
330
1F
100
AcDbEntity
  8
0
  6
Continuous
 62
     7
370
    25
100
AcDbLine
 10
247.5562331479
 20
62.0245544035
 30
0.0
 11
245.3055821715
 21
63.3238275564
 31
0.0
  0
LINE
  5
18A
330
1F
100
AcDbEntity
  8
0
  6
Continuous
 62
     7
370
    25
100
AcDbLine
 10
238.5281929813
 20
63.103709464
 30
0.0
 11
229.3309807977
 21
67.6843620739
 31
0.0
  0
LINE
  5
18B
330
1F
100
AcDbEntity
  8
0
  6
Continuous
 62
     7
370
    25
100
AcDbLine
 10
217.804633008
 20
47.7179786182
 30
0.0
 11
226.3707330137
 21
42.0440890219
 31
0.0
  0
LINE
  5
18C
330
1F
100
AcDbEntity
  8
0
  6
Continuous
 62
     7
370
    25
100
AcDbLine
 10
222.7840704497
 20
48.6644684839
 30
0.0
 11
222.7840704497
 21
48.2991497789
 31
0.0
  0
LINE
  5
18D
330
1F
100
AcDbEntity
  8
0
  6
Continuous
 62
     7
370
    25
100
AcDbLine
 10
226.68203721
 20
68.0613304506
 30
0.0
 11
226.0424871013
 21
67.9741186951
 31
0.0
  0
LINE
  5
18E
330
1F
100
AcDbEntity
  8
0
  6
Continuous
 62
     7
370
    25
100
AcDbLine
 10
250.7145861018
 20
26.9700738106
 30
0.0
 11
250.6429219714
 21
27.0081871405
 31
0.0
  0
LINE
  5
18F
330
1F
100
AcDbEntity
  8
0
  6
Continuous
 62
     7
370
    25
100
AcDbLine
 10
254.0817083661
 20
33.1033350008
 30
0.0
 11
254.1426375625
 21
33.0705293785
 31
0.0
  0
LWPOLYLINE
  5
190
330
1F
100
AcDbEntity
  8
0
  6
Continuous
 62
     7
370
    25
100
AcDbPolyline
 90
       17
 70
   128
 43
0.0
 10
248.3448255436
 20
28.3348499694
 10
248.1004607501
 20
28.5223233894
 10
247.8462533504
 20
28.8737784374
 10
247.684095985
 20
29.32726566
 10
247.6206294166
 20
29.8642204121
 10
247.6584509447
 20
30.4626590776
 10
247.7960116728
 20
31.0980812145
 10
248.0276797282
 20
31.7444726109
 10
248.34397207
 20
32.3753705707
 10
248.7319384203
 20
32.9649455711
 10
249.1756953443
 20
33.4890602042
 10
249.6570762331
 20
33.9262574327
 10
250.1563728253
 20
34.2586385699
 10
250.6531432407
 20
34.4725951494
 10
251.1270509664
 20
34.5593685469
 10
251.5586933056
 20
34.5154059894
 10
251.8445411348
 20
34.3971922074
  0
LWPOLYLINE
  5
191
330
1F
100
AcDbEntity
  8
0
  6
Continuous
 62
     7
370
    25
100
AcDbPolyline
 90
       21
 70
   128
 43
0.0
 10
252.6478271401
 20
28.8019622482
 10
252.3280840252
 20
28.6472276911
 10
252.0319780483
 20
28.6187749996
 10
251.7884943873
 20
28.7193897389
 10
251.6214664267
 20
28.9392225812
 10
251.5472438508
 20
29.2567547363
 10
251.5730923813
 20
29.6409040674
 10
251.6964818901
 20
30.0540674488
 10
251.9053340125
 20
30.4558014426
 10
252.1792055512
 20
30.8067820308
 10
252.4912865008
 20
31.0726518291
 10
252.8110296158
 20
31.2273863863
 10
253.1071349341
 20
31.2558386975
 10
253.3506192536
 20
31.1552243384
 10
253.5176472143
 20
30.9353914962
 10
253.5918697901
 20
30.6178593411
 10
253.5660212596
 20
30.23371001
 10
253.4426310923
 20
29.8205462484
 10
253.2337789699
 20
29.4188122546
 10
252.9599080898
 20
29.0678320466
 10
252.6478271401
 20
28.8019622482
  0
SPLINE
  5
192
330
1F
100
AcDbEntity
  8
0
  6
Continuous
 62
     7
370
    25
100
AcDbSpline
210
0.0
220
0.0
230
1.0
 70
     8
 71
     3
 72
    11
 73
     7
 74
     0
 42
0.000000001
 43
0.00000001
 40
0.0
 40
0.0
 40
0.0
 40
0.0
 40
0.1346861988081621
 40
0.4830327171280477
 40
0.8157582481282801
 40
0.9999999999999999
 40
0.9999999999999999
 40
0.9999999999999999
 40
0.9999999999999999
 10
253.1411685143142
 20
29.29998671207015
 30
0.0
 10
253.0778325473057
 20
29.28314866901969
 30
0.0
 10
252.8506871938339
 20
29.222761444807
 30
0.0
 10
252.4944579273428
 20
29.07090585300139
 30
0.0
 10
252.2435304464572
 20
28.83244119015236
 30
0.0
 10
252.1550572107329
 20
28.6776939196166
 30
0.0
 10
252.1235262715736
 20
28.62254360514703
 30
0.0
  0
SPLINE
  5
193
330
1F
100
AcDbEntity
  8
0
  6
Continuous
 62
     7
370
    25
100
AcDbSpline
210
0.0
220
0.0
230
1.0
 70
     8
 71
     3
 72
    10
 73
     6
 74
     0
 42
0.000000001
 43
0.00000001
 40
0.0
 40
0.0
 40
0.0
 40
0.0
 40
0.4391256683445136
 40
0.7513736985373637
 40
1.0
 40
1.0
 40
1.0
 40
1.0
 10
253.5825158239412
 20
30.61745402502007
 30
0.0
 10
253.4587939940878
 20
30.4637919720269
 30
0.0
 10
253.2470975809922
 20
30.20086581351381
 30
0.0
 10
253.1359854384375
 20
29.70515361001139
 30
0.0
 10
253.1395766082271
 20
29.42442780969128
 30
0.0
 10
253.1411685143142
 20
29.29998671207015
 30
0.0
  0
SPLINE
  5
194
330
1F
100
AcDbEntity
  8
0
  6
Continuous
 62
     7
370
    25
100
AcDbSpline
210
0.0
220
0.0
230
1.0
 70
     8
 71
     3
 72
    10
 73
     6
 74
     0
 42
0.000000001
 43
0.00000001
 40
0.0
 40
0.0
 40
0.0
 40
0.0
 40
0.4391254789393096
 40
0.7513736691158691
 40
1.0
 40
1.0
 40
1.0
 40
1.0
 10
253.0062202322829
 20
31.25747800534622
 30
0.0
 10
253.028185295287
 20
31.20079940310524
 30
0.0
 10
253.0657690174195
 20
31.10381844579654
 30
0.0
 10
253.3170235674628
 20
30.84933373605615
 30
0.0
 10
253.5009737657113
 20
30.68867248220003
 30
0.0
 10
253.5825158239412
 20
30.61745402502007
 30
0.0
  0
SPLINE
  5
195
330
1F
100
AcDbEntity
  8
0
  6
Continuous
 62
     7
370
    25
100
AcDbSpline
210
0.0
220
0.0
230
1.0
 70
     8
 71
     3
 72
     9
 73
     5
 74
     0
 42
0.000000001
 43
0.00000001
 40
0.0
 40
0.0
 40
0.0
 40
0.0
 40
0.691032048774433
 40
1.0
 40
1.0
 40
1.0
 40
1.0
 10
252.4381452517179
 20
31.03594147495643
 30
0.0
 10
252.559655476058
 20
31.09801247657565
 30
0.0
 10
252.7354942443984
 20
31.18783609869176
 30
0.0
 10
252.9423182446583
 20
31.24103977460243
 30
0.0
 10
253.0062202322829
 20
31.25747800534622
 30
0.0
  0
LINE
  5
196
330
1F
100
AcDbEntity
  8
0
  6
Continuous
 62
     7
370
    25
100
AcDbLine
 10
251.5472306799
 20
29.2625675855
 30
0.0
 11
251.5584167169
 21
29.3874621223
 31
0.0
  0
SPLINE
  5
197
330
1F
100
AcDbEntity
  8
0
  6
Continuous
 62
     7
370
    25
100
AcDbSpline
210
0.0
220
0.0
230
1.0
 70
     8
 71
     3
 72
    10
 73
     6
 74
     0
 42
0.000000001
 43
0.00000001
 40
0.0
 40
0.0
 40
0.0
 40
0.0
 40
0.4391254689226297
 40
0.7513740002180104
 40
1.0
 40
1.0
 40
1.0
 40
1.0
 10
252.1235262715736
 20
28.62254360514703
 30
0.0
 10
251.9804855352993
 20
28.74911791123351
 30
0.0
 10
251.7357329581548
 20
28.96569528927164
 30
0.0
 10
251.5765655682957
 20
29.1670172861572
 30
0.0
 10
251.5562404528235
 20
29.2332207378909
 30
0.0
 10
251.5472306799154
 20
29.26256758547319
 30
0.0
  0
SPLINE
  5
198
330
1F
100
AcDbEntity
  8
0
  6
Continuous
 62
     7
370
    25
100
AcDbSpline
210
0.0
220
0.0
230
1.0
 70
     8
 71
     3
 72
     9
 73
     5
 74
     0
 42
0.000000001
 43
0.00000001
 40
0.0
 40
0.0
 40
0.0
 40
0.0
 40
0.8744793350463886
 40
0.9999999999999999
 40
0.9999999999999999
 40
0.9999999999999999
 40
0.9999999999999999
 10
251.990575355035
 20
29.96421000453172
 30
0.0
 10
252.0169489787291
 20
30.23148637062252
 30
0.0
 10
252.04710820907
 20
30.53712694482387
 30
0.0
 10
252.1776145585202
 20
30.78297878726707
 30
0.0
 10
252.1939958022839
 20
30.81383827401061
 30
0.0
  0
SPLINE
  5
199
330
1F
100
AcDbEntity
  8
0
  6
Continuous
 62
     7
370
    25
100
AcDbSpline
210
0.0
220
0.0
230
1.0
 70
     8
 71
     3
 72
     9
 73
     5
 74
     0
 42
0.000000001
 43
0.00000001
 40
0.0
 40
0.0
 40
0.0
 40
0.0
 40
0.6698660834098443
 40
1.0
 40
1.0
 40
1.0
 40
1.0
 10
251.6054084773841
 20
29.77013675706598
 30
0.0
 10
251.6840849101602
 20
29.81970191147036
 30
0.0
 10
251.8015358973419
 20
29.89369454317979
 30
0.0
 10
251.9436565179315
 20
29.94670834913754
 30
0.0
 10
251.990575355035
 20
29.96421000453172
 30
0.0
  0
LINE
  5
19A
330
1F
100
AcDbEntity
  8
0
  6
Continuous
 62
     7
370
    25
100
AcDbLine
 10
252.6750546628
 20
31.1413202025
 30
0.0
 11
253.5825158239
 21
30.617454025
 31
0.0
  0
LINE
  5
19B
330
1F
100
AcDbEntity
  8
0
  6
Continuous
 62
     7
370
    25
100
AcDbLine
 10
251.990575355
 20
29.9642100045
 30
0.0
 11
253.1411685143
 21
29.2999867121
 31
0.0
  0
LINE
  5
19C
330
1F
100
AcDbEntity
  8
0
  6
Continuous
 62
     7
370
    25
100
AcDbLine
 10
273.1735919533
 20
44.1248447963
 30
0.0
 11
273.2345204912
 21
44.0920387938
 31
0.0
  0
LWPOLYLINE
  5
19D
330
1F
100
AcDbEntity
  8
0
  6
Continuous
 62
     7
370
    25
100
AcDbPolyline
 90
       12
 70
   128
 43
0.0
 10
266.84369046
 20
41.95588822
 10
266.8878946016
 20
42.1195906298
 10
267.1195633155
 20
42.7659824064
 10
267.4358549987
 20
43.396879986
 10
267.823821349
 20
43.9864549864
 10
268.267578273
 20
44.5105696195
 10
268.7489591618
 20
44.947766848
 10
269.248255754
 20
45.2801479852
 10
269.7450268279
 20
45.4941049449
 10
270.2189338951
 20
45.5808779623
 10
270.6505762343
 20
45.5369154047
 10
270.9364240635
 20
45.4187016227
  0
LWPOLYLINE
  5
19E
330
1F
100
AcDbEntity
  8
0
  6
Continuous
 62
     7
370
    25
100
AcDbPolyline
 90
       21
 70
   128
 43
0.0
 10
271.7397100689
 20
39.8234716636
 10
271.4199669539
 20
39.6687371064
 10
271.1238616355
 20
39.6402847951
 10
270.880377316
 20
39.7408991542
 10
270.7133493554
 20
39.9607319965
 10
270.6391267795
 20
40.2782641516
 10
270.66497531
 20
40.6624134827
 10
270.7883654774
 20
41.0755772443
 10
270.9972175997
 20
41.4773112381
 10
271.2710884799
 20
41.8282914461
 10
271.5831694295
 20
42.0941612444
 10
271.9029125445
 20
42.2488958016
 10
272.1990185214
 20
42.277348493
 10
272.4425021823
 20
42.1767337538
 10
272.609530143
 20
41.9569009115
 10
272.6837527189
 20
41.6393687564
 10
272.6579041884
 20
41.2552194253
 10
272.5345146795
 20
40.8420560439
 10
272.3256625572
 20
40.44032205
 10
272.0517910185
 20
40.0893414619
 10
271.7397100689
 20
39.8234716636
  0
SPLINE
  5
19F
330
1F
100
AcDbEntity
  8
0
  6
Continuous
 62
     7
370
    25
100
AcDbSpline
210
0.0
220
0.0
230
1.0
 70
     8
 71
     3
 72
    11
 73
     7
 74
     0
 42
0.000000001
 43
0.00000001
 40
0.0
 40
0.0
 40
0.0
 40
0.0
 40
0.1346866922731101
 40
0.4830330284568234
 40
0.815757776215283
 40
1.0
 40
1.0
 40
1.0
 40
1.0
 10
272.2330521015766
 20
40.32149650756428
 30
0.0
 10
272.1697159217276
 20
40.30465833344341
 30
0.0
 10
271.9425704907499
 20
40.24427082149234
 30
0.0
 10
271.5863409287761
 20
40.09241551390654
 30
0.0
 10
271.3354139801197
 20
39.85395055658774
 30
0.0
 10
271.2469403719413
 20
39.69920345072634
 30
0.0
 10
271.2154092002914
 20
39.6440530204715
 30
0.0
  0
SPLINE
  5
1A0
330
1F
100
AcDbEntity
  8
0
  6
Continuous
 62
     7
370
    25
100
AcDbSpline
210
0.0
220
0.0
230
1.0
 70
     8
 71
     3
 72
    10
 73
     6
 74
     0
 42
0.000000001
 43
0.00000001
 40
0.0
 40
0.0
 40
0.0
 40
0.0
 40
0.4391255165658932
 40
0.7513738882262793
 40
1.0
 40
1.0
 40
1.0
 40
1.0
 10
272.6743987526589
 20
41.63896344034454
 30
0.0
 10
272.5506773482234
 20
41.48530150916147
 30
0.0
 10
272.3389815364323
 20
41.22237540181909
 30
0.0
 10
272.2278680193868
 20
40.72666327461128
 30
0.0
 10
272.2314598875553
 20
40.4459374758689
 30
0.0
 10
272.2330521015765
 20
40.32149650756428
 30
0.0
  0
SPLINE
  5
1A1
330
1F
100
AcDbEntity
  8
0
  6
Continuous
 62
     7
370
    25
100
AcDbSpline
210
0.0
220
0.0
230
1.0
 70
     8
 71
     3
 72
    10
 73
     6
 74
     0
 42
0.000000001
 43
0.00000001
 40
0.0
 40
0.0
 40
0.0
 40
0.0
 40
0.4391254689226297
 40
0.7513740002180104
 40
1.0
 40
1.0
 40
1.0
 40
1.0
 10
272.0981031610007
 20
42.2789874206707
 30
0.0
 10
272.1200681393573
 20
42.22230866186154
 30
0.0
 10
272.1576517340712
 20
42.12532739170585
 30
0.0
 10
272.4089071798449
 20
41.87084409171096
 30
0.0
 10
272.5928569806548
 20
41.71018211973796
 30
0.0
 10
272.6743987526589
 20
41.63896344034454
 30
0.0
  0
SPLINE
  5
1A2
330
1F
100
AcDbEntity
  8
0
  6
Continuous
 62
     7
370
    25
100
AcDbSpline
210
0.0
220
0.0
230
1.0
 70
     8
 71
     3
 72
     9
 73
     5
 74
     0
 42
0.000000001
 43
0.00000001
 40
0.0
 40
0.0
 40
0.0
 40
0.0
 40
0.6910329426549541
 40
1.0
 40
1.0
 40
1.0
 40
1.0
 10
271.5300288389801
 20
42.05745127045056
 30
0.0
 10
271.651539023021
 20
42.11952232058525
 30
0.0
 10
271.8273775055887
 20
42.20934589671782
 30
0.0
 10
272.0342013930906
 20
42.2625493165916
 30
0.0
 10
272.0981031610007
 20
42.2789874206707
 30
0.0
  0
LINE
  5
1A3
330
1F
100
AcDbEntity
  8
0
  6
Continuous
 62
     7
370
    25
100
AcDbLine
 10
270.6391136086
 20
40.2840770008
 30
0.0
 11
270.6502996456
 21
40.4089715376
 31
0.0
  0
SPLINE
  5
1A4
330
1F
100
AcDbEntity
  8
0
  6
Continuous
 62
     7
370
    25
100
AcDbSpline
210
0.0
220
0.0
230
1.0
 70
     8
 71
     3
 72
    10
 73
     6
 74
     0
 42
0.000000001
 43
0.00000001
 40
0.0
 40
0.0
 40
0.0
 40
0.0
 40
0.4391254789393096
 40
0.7513736691158691
 40
1.0
 40
1.0
 40
1.0
 40
1.0
 10
271.2154092002914
 20
39.6440530204715
 30
0.0
 10
271.0723683324287
 20
39.77062719708826
 30
0.0
 10
270.8276156435636
 20
39.98720425321712
 30
0.0
 10
270.66844941869
 20
40.18852750441046
 30
0.0
 10
270.6481236730456
 20
40.25473037238152
 30
0.0
 10
270.6391136086332
 20
40.28407700079766
 30
0.0
  0
SPLINE
  5
1A5
330
1F
100
AcDbEntity
  8
0
  6
Continuous
 62
     7
370
    25
100
AcDbSpline
210
0.0
220
0.0
230
1.0
 70
     8
 71
     3
 72
     9
 73
     5
 74
     0
 42
0.000000001
 43
0.00000001
 40
0.0
 40
0.0
 40
0.0
 40
0.0
 40
0.8744792793640266
 40
1.0
 40
1.0
 40
1.0
 40
1.0
 10
271.0824589422973
 20
40.98571980002586
 30
0.0
 10
271.1088322766238
 20
41.25299603118629
 30
0.0
 10
271.1389911779826
 20
41.55863647055128
 30
0.0
 10
271.2694974852641
 20
41.80448820274103
 30
0.0
 10
271.2858787310016
 20
41.83534768933509
 30
0.0
  0
SPLINE
  5
1A6
330
1F
100
AcDbEntity
  8
0
  6
Continuous
 62
     7
370
    25
100
AcDbSpline
210
0.0
220
0.0
230
1.0
 70
     8
 71
     3
 72
     9
 73
     5
 74
     0
 42
0.000000001
 43
0.00000001
 40
0.0
 40
0.0
 40
0.0
 40
0.0
 40
0.6698648395321839
 40
1.0
 40
1.0
 40
1.0
 40
1.0
 10
270.6972914061019
 20
40.79164617239046
 30
0.0
 10
270.7759678724714
 20
40.84121130466142
 30
0.0
 10
270.8934191278983
 20
40.91520404072678
 30
0.0
 10
271.0355398837563
 20
40.96821802110625
 30
0.0
 10
271.0824589422973
 20
40.98571980002585
 30
0.0
  0
LINE
  5
1A7
330
1F
100
AcDbEntity
  8
0
  6
Continuous
 62
     7
370
    25
100
AcDbLine
 10
271.7669375915
 20
42.1628296178
 30
0.0
 11
272.6743987527
 21
41.6389634403
 31
0.0
  0
LINE
  5
1A8
330
1F
100
AcDbEntity
  8
0
  6
Continuous
 62
     7
370
    25
100
AcDbLine
 10
271.0824589423
 20
40.9857198
 30
0.0
 11
272.2330521016
 21
40.3214965076
 31
0.0
  0
LINE
  5
1A9
330
1F
100
AcDbEntity
  8
0
  6
Continuous
 62
     7
370
    25
100
AcDbLine
 10
271.5608213924
 20
23.0673771902
 30
0.0
 11
271.4986162659
 21
23.1048086379
 31
0.0
  0
LWPOLYLINE
  5
1AA
330
1F
100
AcDbEntity
  8
0
  6
Continuous
 62
     7
370
    25
100
AcDbPolyline
 90
        3
 70
   128
 43
0.0
 10
277.5603337402
 20
33.4599636123
 10
277.6174917815
 20
33.4256851371
 10
277.6268371866
 20
33.4198309773
  0
LWPOLYLINE
  5
1AB
330
1F
100
AcDbEntity
  8
0
  6
Continuous
 62
     7
370
    25
100
AcDbPolyline
 90
       22
 70
   128
 43
0.0
 10
272.1863234297
 20
36.5623137292
 10
271.7585638689
 20
36.7471372242
 10
271.2133607976
 20
36.8401101035
 10
270.620651478
 20
36.8047752021
 10
269.994328318
 20
36.6419603589
 10
269.3490719931
 20
36.3554823318
 10
268.7000067086
 20
35.9520550109
 10
268.0623459229
 20
35.4411354694
 10
267.4510359313
 20
34.8346984369
 10
266.8804054688
 20
34.1469583533
 10
266.3638294919
 20
33.3940357292
 10
265.9134160001
 20
32.5935780613
 10
265.5397222848
 20
31.7643473549
 10
265.2515076467
 20
30.9257804096
 10
265.0555274353
 20
30.0975320859
 10
264.9563753278
 20
29.2990162375
 10
264.9563753278
 20
28.5489491592
 10
265.0555274353
 20
27.8649118975
 10
265.2515076467
 20
27.2629375094
 10
265.5397222848
 20
26.7571361022
 10
265.9134160001
 20
26.3593629756
 10
266.1868110818
 20
26.1697273071
  0
LINE
  5
1AC
330
1F
100
AcDbEntity
  8
0
  6
Continuous
 62
     7
370
    25
100
AcDbLine
 10
274.8434197983
 20
31.4338709154
 30
0.0
 11
272.3434437528
 21
28.3239245343
 31
0.0
  0
LINE
  5
1AD
330
1F
100
AcDbEntity
  8
0
  6
Continuous
 62
     7
370
    25
100
AcDbLine
 10
272.3434437528
 20
28.3239245343
 30
0.0
 11
272.3434437528
 21
24.9904426751
 31
0.0
  0
LINE
  5
1AE
330
1F
100
AcDbEntity
  8
0
  6
Continuous
 62
     7
370
    25
100
AcDbLine
 10
274.8434197983
 20
24.766907197
 30
0.0
 11
272.3434437528
 21
24.9904426751
 31
0.0
  0
LINE
  5
1AF
330
1F
100
AcDbEntity
  8
0
  6
Continuous
 62
     7
370
    25
100
AcDbLine
 10
277.3433958437
 20
27.8768535782
 30
0.0
 11
274.8434197983
 21
24.766907197
 31
0.0
  0
LINE
  5
1B0
330
1F
100
AcDbEntity
  8
0
  6
Continuous
 62
     7
370
    25
100
AcDbLine
 10
277.3433958437
 20
27.8768535782
 30
0.0
 11
277.3433958437
 21
31.2103354374
 31
0.0
  0
LINE
  5
1B1
330
1F
100
AcDbEntity
  8
0
  6
Continuous
 62
     7
370
    25
100
AcDbLine
 10
274.8434197983
 20
31.4338709154
 30
0.0
 11
277.3433958437
 21
31.2103354374
 31
0.0
  0
ARC
  5
1B2
330
1F
100
AcDbEntity
  8
0
  6
Continuous
 62
     7
370
    25
100
AcDbCircle
 10
269.0299079054
 20
31.4627634055
 30
0.0
 40
5.499306232542128
100
AcDbArc
 50
320.36379399
 51
355.3911953877
  0
ARC
  5
1B3
330
1F
100
AcDbEntity
  8
0
  6
Continuous
 62
     7
370
    25
100
AcDbCircle
 10
269.3990315027
 20
31.0189296428
 30
0.0
 40
4.933060165471256
100
AcDbArc
 50
306.6462894478
 51
321.5989108827
  0
LINE
  5
1B4
330
1F
100
AcDbEntity
  8
0
  6
Continuous
 62
     7
370
    25
100
AcDbLine
 10
272.3434452345
 20
26.2101117932
 30
0.0
 11
274.8434197983
 21
24.766907197
 31
0.0
  0
LINE
  5
1B5
330
1F
100
AcDbEntity
  8
0
  6
Continuous
 62
     7
370
    25
100
AcDbLine
 10
274.5149682554
 20
29.5096700695
 30
0.0
 11
277.3433958437
 21
27.8768535782
 31
0.0
  0
LINE
  5
1B6
330
1F
100
AcDbEntity
  8
0
  6
Continuous
 62
     7
370
    25
100
AcDbLine
 10
274.5149682554
 20
29.5096700695
 30
0.0
 11
274.5149682554
 21
31.0252812263
 31
0.0
  0
LINE
  5
1B7
330
1F
100
AcDbEntity
  8
0
  6
Continuous
 62
     7
370
    25
100
AcDbLine
 10
273.2649802326
 20
27.9546967838
 30
0.0
 11
272.3434433001
 21
26.8083135585
 31
0.0
  0
LINE
  5
1B8
330
1F
100
AcDbEntity
  8
0
  6
Continuous
 62
     7
370
    25
100
AcDbLine
 10
274.5149682554
 20
29.5096700695
 30
0.0
 11
273.2649802326
 21
27.9546967838
 31
0.0
  0
ARC
  5
1B9
330
1F
100
AcDbEntity
  8
0
  6
Continuous
 62
     7
370
    25
100
AcDbCircle
 10
265.198929479
 20
47.3211211559
 30
0.0
 40
6.172386627765702
100
AcDbArc
 50
40.6398388085
 51
78.8230317849
  0
ARC
  5
1BA
330
1F
100
AcDbEntity
  8
0
  6
Continuous
 62
     7
370
    25
100
AcDbCircle
 10
253.3761632546
 20
26.8422091934
 30
0.0
 40
6.174171377039064
100
AcDbArc
 50
220.5329888417
 51
259.0261619822
  0
ARC
  5
1BB
330
1F
100
AcDbEntity
  8
0
  6
Continuous
 62
     7
370
    25
100
AcDbCircle
 10
252.7882417907
 20
54.4079447165
 30
0.0
 40
6.243103269747106
100
AcDbArc
 50
60.2044594567
 51
78.8125512361
  0
ARC
  5
1BC
330
1F
100
AcDbEntity
  8
0
  6
Continuous
 62
     7
370
    25
100
AcDbCircle
 10
241.0160408609
 20
34.0252182212
 30
0.0
 40
6.218900848592663
100
AcDbArc
 50
220.5082948467
 51
239.8440425169
  0
LWPOLYLINE
  5
1BD
330
1F
100
AcDbEntity
  8
0
  6
Continuous
 62
     7
370
    25
100
AcDbPolyline
 90
       24
 70
   128
 43
0.0
 10
253.381068376
 20
33.5101738442
 10
253.426802975
 20
34.1960882829
 10
253.5741858945
 20
35.1733503531
 10
253.8172401844
 20
36.1774765887
 10
254.1521331157
 20
37.1926311849
 10
254.5735821738
 20
38.2028044222
 10
255.0749419859
 20
39.1920656066
 10
255.6483050788
 20
40.144812873
 10
256.2846296366
 20
41.0460218439
 10
256.9738800993
 20
41.8814785084
 10
257.7051868607
 20
42.6380086767
 10
258.4670165015
 20
43.3036808178
 10
259.2473546592
 20
43.8679964191
 10
260.0338949479
 20
44.3220564628
 10
260.8142331056
 20
44.6587001209
 10
261.5760627464
 20
44.8726177605
 10
262.3073695078
 20
44.9604364064
 10
262.9966199705
 20
44.9207713873
 10
263.6329445283
 20
44.7542471126
 10
264.2063076212
 20
44.4634907825
 10
264.7076674333
 20
44.0530873157
 10
265.1291164914
 20
43.5295088035
 10
265.4640094227
 20
42.9010133555
 10
265.541478623
 20
42.7076397649
  0
ARC
  5
1BE
330
1F
100
AcDbEntity
  8
0
  6
Continuous
 62
     7
370
    25
100
AcDbCircle
 10
256.8543109932
 20
32.05850514
 30
0.0
 40
3.28056332243611
100
AcDbArc
 50
225.9566864459
 51
282.1026908262
  0
LINE
  5
1BF
330
1F
100
AcDbEntity
  8
0
  6
Continuous
 62
     7
370
    25
100
AcDbLine
 10
263.8370116662
 20
25.2180748756
 30
0.0
 11
263.7726784532
 21
25.2540378791
 31
0.0
  0
LWPOLYLINE
  5
1C0
330
1F
100
AcDbEntity
  8
0
  6
Continuous
 62
     7
370
    25
100
AcDbPolyline
 90
       27
 70
   128
 43
0.0
 10
256.5248324288
 20
29.4381303281
 10
256.5208162951
 20
29.4404533487
 10
256.0336224339
 20
29.8018801551
 10
255.6232086062
 20
30.2755419884
 10
255.2965916037
 20
30.8533404012
 10
255.0593558837
 20
31.5253970268
 10
254.9155574221
 20
32.2802220311
 10
254.867654236
 20
33.1049098626
 10
254.9164655549
 20
33.9853610233
 10
255.0611573322
 20
34.9065228578
 10
255.2992554162
 20
35.852646202
 10
255.6266890139
 20
36.8075551565
 10
256.0378598386
 20
37.7549232983
 10
256.525738586
 20
38.6785547584
 10
257.0819838023
 20
39.5626572161
 10
257.6970854462
 20
40.392115843
 10
258.3605272204
 20
41.1527493732
 10
259.0609663544
 20
41.8315530543
 10
259.7864274631
 20
42.416921968
 10
260.5245074371
 20
42.8988480181
 10
261.2625874111
 20
43.2690909671
 10
261.9880485198
 20
43.5213216207
 10
262.6884876538
 20
43.6512277497
 10
263.351929428
 20
43.6565877875
 10
263.9670310719
 20
43.5373104019
 10
264.5232762882
 20
43.2954350007
 10
264.5241824454
 20
43.2949120975
  0
LWPOLYLINE
  5
1C1
330
1F
100
AcDbEntity
  8
0
  6
Continuous
 62
     7
370
    25
100
AcDbPolyline
 90
       20
 70
   128
 43
0.0
 10
265.9472884015
 20
34.2571012415
 10
265.8993972338
 20
34.560867409
 10
265.7609132263
 20
34.7764214425
 10
265.5468434559
 20
34.8804051716
 10
265.2803854819
 20
34.8615499719
 10
264.9904145056
 20
34.7218995395
 10
264.7083529782
 20
34.476586799
 10
264.4647669135
 20
34.1521956157
 10
264.2860527513
 20
33.7838785715
 10
264.1915766391
 20
33.4115480748
 10
264.1915766391
 20
33.0755527555
 10
264.2860527513
 20
32.8123022463
 10
264.4647669135
 20
32.6503239915
 10
264.7083529782
 20
32.607171102
 10
264.9904145056
 20
32.6875198594
 10
265.2803854819
 20
32.8826627899
 10
265.5468434559
 20
33.1714536086
 10
265.7609132263
 20
33.5225970338
 10
265.8993972338
 20
33.8980414891
 10
265.9472884015
 20
34.2571012415
  0
LWPOLYLINE
  5
1C2
330
1F
100
AcDbEntity
  8
0
  6
Continuous
 62
     7
370
    25
100
AcDbPolyline
 90
       24
 70
   128
 43
0.0
 10
234.016843049
 20
37.0932850742
 10
234.0648825537
 20
38.3915875866
 10
234.2086349173
 20
39.7354742904
 10
234.4470069557
 20
41.1147177277
 10
234.7781850375
 20
42.518820924
 10
235.1996469372
 20
43.9370979015
 10
235.7081868601
 20
45.35875419
 10
236.2999338815
 20
46.7729718079
 10
236.9703835571
 20
48.1689849243
 10
237.7144341426
 20
49.536171492
 10
238.5264234722
 20
50.8641251078
 10
239.4001704472
 20
52.1427390393
 10
240.3290270608
 20
53.3622841679
 10
241.3059221914
 20
54.5134768557
 10
242.3234228471
 20
55.587556127
 10
243.3737838859
 20
56.5763488732
 10
244.4490123885
 20
57.4723283072
 10
245.5409248693
 20
58.2686758886
 10
246.6412110727
 20
58.9593318406
 10
247.7414972762
 20
59.5390392987
 10
248.8334097569
 20
60.0033870329
 10
249.9086382595
 20
60.3488400033
 10
250.9589992983
 20
60.5727682991
 10
251.0743687229
 20
60.5901433663
  0
ARC
  5
1C3
330
1F
100
AcDbEntity
  8
0
  6
Continuous
 62
     7
370
    25
100
AcDbCircle
 10
246.3370824274
 20
36.8326168531
 30
0.0
 40
12.32299664300148
100
AcDbArc
 50
178.7879325644
 51
201.7096705089
  0
LWPOLYLINE
  5
1C4
330
1F
100
AcDbEntity
  8
0
  6
Continuous
 62
     7
370
    25
100
AcDbPolyline
 90
        3
 70
   128
 43
0.0
 10
262.9520187266
 20
43.7477522955
 10
263.0708237779
 20
43.7311746537
 10
263.1936061087
 20
43.7088747257
  0
ARC
  5
1C5
330
1F
100
AcDbEntity
  8
0
  6
Continuous
 62
     7
370
    25
100
AcDbCircle
 10
258.0807649026
 20
32.6176729966
 30
0.0
 40
3.412851221889661
100
AcDbArc
 50
200.5629690402
 51
220.894981864
  0
LWPOLYLINE
  5
1C6
330
1F
100
AcDbEntity
  8
0
  6
Continuous
 62
     7
370
    25
100
AcDbPolyline
 90
       18
 70
   128
 43
0.0
 10
245.2466634202
 20
58.1540160105
 10
244.2121633165
 20
57.5014850953
 10
243.1846792084
 20
56.7428209598
 10
242.1748028518
 20
55.8855510347
 10
241.191150396
 20
54.9369900217
 10
240.2421133445
 20
53.9052301699
 10
239.3357891605
 20
52.7990730772
 10
238.479909815
 20
51.6279580244
 10
237.681777579
 20
50.4018747173
 10
236.9482018025
 20
49.1312842049
 10
236.2854412925
 20
47.827027059
 10
235.6991509709
 20
46.5002309826
 10
235.1943311659
 20
45.1622149968
 10
234.7752907344
 20
43.8243951463
 10
234.4456035974
 20
42.4981852635
 10
234.2080823984
 20
41.1948992515
 10
234.0647541375
 20
39.9256568837
 10
234.0168423904
 20
38.7012875121
  0
SPLINE
  5
1C7
330
1F
100
AcDbEntity
  8
0
  6
Continuous
 62
     7
370
    25
100
AcDbSpline
210
0.0
220
0.0
230
1.0
 70
     8
 71
     3
 72
    25
 73
    21
 74
     0
 42
0.000000001
 43
0.00000001
 40
0.0
 40
0.0
 40
0.0
 40
0.0
 40
0.1249999999999985
 40
0.1249999999999985
 40
0.2499999999999971
 40
0.2499999999999971
 40
0.3749999999999956
 40
0.3749999999999956
 40
0.4999999999999941
 40
0.4999999999999941
 40
0.562499999999995
 40
0.562499999999995
 40
0.624999999999996
 40
0.6874999999999969
 40
0.6874999999999969
 40
0.7499999999999978
 40
0.7499999999999978
 40
0.8749999999999989
 40
0.8749999999999989
 40
1.0
 40
1.0
 40
1.0
 40
1.0
 10
237.4362177447543
 20
56.06907052652944
 30
0.0
 10
237.4653410430154
 20
55.95788500600027
 30
0.0
 10
237.4777300838746
 20
55.84264279357223
 30
0.0
 10
237.4707525987743
 20
55.60354722573643
 30
0.0
 10
237.4507350109223
 20
55.47877325586117
 30
0.0
 10
237.380512853209
 20
55.23240434664874
 30
0.0
 10
237.3298621986154
 20
55.10819319928763
 30
0.0
 10
237.1999474549602
 20
54.86456470397746
 30
0.0
 10
237.122246506971
 20
54.7475076089193
 30
0.0
 10
236.9868729247448
 20
54.57885109106926
 30
0.0
 10
236.9382384274377
 20
54.5234840697971
 30
0.0
 10
236.8367990920557
 20
54.41776425840008
 30
0.0
 10
236.7309291093149
 20
54.31660329977964
 30
0.0
 10
236.6163373169875
 20
54.22442897810284
 30
0.0
 10
236.4972546477692
 20
54.13689213536272
 30
0.0
 10
236.4352966347118
 20
54.09539366585053
 30
0.0
 10
236.2474329311913
 20
53.98127334411243
 30
0.0
 10
236.1180554948372
 20
53.91766591299783
 30
0.0
 10
235.8503722417752
 20
53.81639761202361
 30
0.0
 10
235.7145005553101
 20
53.77985670379881
 30
0.0
 10
235.5789832885825
 20
53.75868851944874
 30
0.0
  0
LWPOLYLINE
  5
1C8
330
1F
100
AcDbEntity
  8
0
  6
Continuous
 62
     7
370
    25
100
AcDbPolyline
 90
       14
 70
   128
 43
0.0
 10
237.4362178565
 20
56.069070559
 10
238.4382041913
 20
57.1077979366
 10
239.4740670435
 20
58.0519287268
 10
240.5340793814
 20
58.8925974153
 10
241.6082869342
 20
59.6219092163
 10
242.6866025288
 20
60.2330143038
 10
243.7589003849
 20
60.7201766958
 10
244.8151109453
 20
61.0788198735
 10
245.8453159123
 20
61.3055763209
 10
246.8398415965
 20
61.3983170793
 10
247.7893485195
 20
61.3561715345
 10
248.6849203181
 20
61.1795338726
 10
249.5181470495
 20
60.8700647831
 10
249.9138671029
 20
60.6635212917
  0
LWPOLYLINE
  5
1C9
330
1F
100
AcDbEntity
  8
0
  6
Continuous
 62
     7
370
    25
100
AcDbPolyline
 90
       20
 70
   128
 43
0.0
 10
234.1776457884
 20
33.4046328979
 10
234.136270754
 20
33.4287715911
 10
233.4212415665
 20
33.9346955578
 10
232.7859021913
 20
34.5616568266
 10
232.2361215772
 20
35.3038601195
 10
231.776980395
 20
36.1544486263
 10
231.4127209884
 20
37.1055629452
 10
231.1467085198
 20
38.1484148512
 10
230.981401336
 20
39.2733686687
 10
230.9183272601
 20
40.4700302593
 10
230.958067787
 20
41.7273419271
 10
231.1002567659
 20
43.033687006
 10
231.3435804005
 20
44.3769950652
 10
231.6857897613
 20
45.7448539453
 10
232.1237238348
 20
47.1246252397
 10
232.6533352063
 20
48.5035597877
 10
233.2697308901
 20
49.8689164926
 10
233.9672157934
 20
51.2080798095
 10
234.739344741
 20
52.5086764711
 10
235.5789830618
 20
53.758688031
  0
LWPOLYLINE
  5
1CA
330
1F
100
AcDbEntity
  8
0
  6
Continuous
 62
     7
370
    25
100
AcDbPolyline
 90
       38
 70
   128
 43
0.0
 10
232.9540109882
 20
34.2772625783
 10
232.1503331488
 20
34.5903525008
 10
231.4135324798
 20
35.0259220047
 10
230.7501463526
 20
35.5801069449
 10
230.1660601794
 20
36.2479899963
 10
229.6664573641
 20
37.0236462864
 10
229.2557692526
 20
37.9001935905
 10
228.9376408888
 20
38.8698554532
 10
228.7148934773
 20
39.9240277327
 10
228.5895033102
 20
41.0533577857
 10
228.5625846449
 20
42.2478267418
 10
228.6343738988
 20
43.4968355797
 10
228.8042362351
 20
44.7893038918
 10
229.0706635866
 20
46.1137641818
 10
229.4312924374
 20
47.4584648582
 10
229.882922261
 20
48.8114756993
 10
230.4215471311
 20
50.1607924138
 10
231.0423879904
 20
51.4944434828
 10
231.7399367725
 20
52.8005970007
 10
232.5080038176
 20
54.0676629532
 10
233.3397745071
 20
55.2844008173
 10
234.2278705085
 20
56.4400142332
 10
235.1644110194
 20
57.5242509995
 10
236.1410875132
 20
58.52749185
 10
237.1492343673
 20
59.4408345737
 10
238.179906901
 20
60.2561763271
 10
239.2239608121
 20
60.966283067
 10
240.2721329312
 20
61.5648551799
 10
241.3151235399
 20
62.0465803269
 10
242.343678853
 20
62.4071863828
 10
243.3486734192
 20
62.6434722749
 10
244.3211902166
 20
62.753342814
 10
245.2526009951
 20
62.7358231358
 10
246.1346423382
 20
62.5910676293
 10
246.9594877737
 20
62.320362021
 10
247.7198202135
 20
61.9261066382
 10
248.4088922107
 20
61.4118010036
 10
248.6462711641
 20
61.1902520871
  0
LWPOLYLINE
  5
1CB
330
1F
100
AcDbEntity
  8
0
  6
Continuous
 62
     7
370
    25
100
AcDbPolyline
 90
       12
 70
   128
 43
0.0
 10
235.7735964641
 20
56.1933470396
 10
236.6891755033
 20
57.1678289241
 10
237.6378882217
 20
58.0568041039
 10
238.6107912555
 20
58.8518936873
 10
239.5987133434
 20
59.5456024383
 10
240.5923415137
 20
60.1313913451
 10
241.5823092055
 20
60.6037368562
 10
242.55928402
 20
60.9581876224
 10
243.5140565003
 20
61.1914020595
 10
244.4376263186
 20
61.3011813732
 10
245.3212870226
 20
61.2864911051
 10
245.5741470403
 20
61.2582336727
  0
SPLINE
  5
1CC
330
1F
100
AcDbEntity
  8
0
  6
Continuous
 62
     7
370
    25
100
AcDbSpline
210
0.0
220
0.0
230
1.0
 70
     8
 71
     3
 72
    26
 73
    22
 74
     0
 42
0.000000001
 43
0.00000001
 40
0.0
 40
0.0
 40
0.0
 40
0.0
 40
0.1250000000000014
 40
0.1250000000000014
 40
0.2500000000000027
 40
0.2500000000000027
 40
0.3125000000000025
 40
0.3125000000000025
 40
0.3750000000000023
 40
0.3750000000000023
 40
0.4375000000000021
 40
0.4375000000000021
 40
0.5000000000000018
 40
0.5000000000000018
 40
0.5625000000000016
 40
0.5625000000000016
 40
0.6250000000000013
 40
0.6250000000000013
 40
0.7500000000000006
 40
0.7500000000000006
 40
1.0
 40
1.0
 40
1.0
 40
1.0
 10
234.4294032591268
 20
54.52118375340427
 30
0.0
 10
234.4057656628947
 20
54.63075961297726
 30
0.0
 10
234.388197884013
 20
54.74164887134179
 30
0.0
 10
234.3693853011435
 20
54.96697883120473
 30
0.0
 10
234.3682055263761
 20
55.0826557445231
 30
0.0
 10
234.3843035296115
 20
55.25401125438266
 30
0.0
 10
234.3926222467117
 20
55.31080976647683
 30
0.0
 10
234.4163793959687
 20
55.42363597887391
 30
0.0
 10
234.4320017750177
 20
55.48008883254006
 30
0.0
 10
234.4708589874147
 20
55.58867194894867
 30
0.0
 10
234.4940849441172
 20
55.6410519091742
 30
0.0
 10
234.5490835935956
 20
55.74150868444632
 30
0.0
 10
234.5811618606182
 20
55.78978755221777
 30
0.0
 10
234.6515766091533
 20
55.8774845278015
 30
0.0
 10
234.6901550312799
 20
55.91747365577746
 30
0.0
 10
234.7738632948762
 20
55.98995233989305
 30
0.0
 10
234.818992004818
 20
56.02228896426967
 30
0.0
 10
234.9582726470081
 20
56.10548873162331
 30
0.0
 10
235.0590617185698
 20
56.14431745425941
 30
0.0
 10
235.3621339898025
 20
56.21973374171458
 30
0.0
 10
235.5706580802875
 20
56.21960359534382
 30
0.0
 10
235.7735964999779
 20
56.1933473660176
 30
0.0
  0
LWPOLYLINE
  5
1CD
330
1F
100
AcDbEntity
  8
0
  6
Continuous
 62
     7
370
    25
100
AcDbPolyline
 90
       17
 70
   128
 43
0.0
 10
231.4924246302
 20
36.8653324633
 10
231.4320005374
 20
36.9450643022
 10
230.9458425667
 20
37.7149907638
 10
230.5537333129
 20
38.5903846035
 10
230.259655653
 20
39.5623539254
 10
230.0665974036
 20
40.6210245989
 10
229.9765190516
 20
41.7556420689
 10
229.9903359739
 20
42.9546805789
 10
230.1079079006
 20
44.205959903
 10
230.3280402318
 20
45.4967687309
 10
230.648497209
 20
46.8139948008
 10
231.0660229882
 20
48.1442573132
 10
231.5763765426
 20
49.4740422899
 10
232.1743731514
 20
50.7898417349
 10
232.8539384001
 20
52.0782888014
 10
233.6081694251
 20
53.3262958103
 10
234.4294034025
 20
54.5211835224
  0
LINE
  5
1CE
330
1F
100
AcDbEntity
  8
0
  6
Continuous
 62
     7
370
    25
100
AcDbLine
 10
232.9540109882
 20
34.2772625783
 30
0.0
 11
233.0756533784
 21
34.3347507017
 31
0.0
  0
LWPOLYLINE
  5
1CF
330
1F
100
AcDbEntity
  8
0
  6
Continuous
 62
     7
370
    25
100
AcDbPolyline
 90
       16
 70
   128
 43
0.0
 10
226.7308660987
 20
47.0167437719
 10
226.7468772914
 20
47.0905950034
 10
227.0831669956
 20
48.4250682169
 10
227.5104510873
 20
49.7706961071
 10
228.024973887
 20
51.115653068
 10
228.6222138282
 20
52.4481200293
 10
229.2969229697
 20
53.7563874958
 10
230.0431711181
 20
55.0289574447
 10
230.8544011459
 20
56.2546467438
 10
231.7234829917
 20
57.4226844854
 10
232.6427798439
 20
58.5228057075
 10
233.6042123495
 20
59.5453424529
 10
234.5993317115
 20
60.481308554
 10
235.6193931175
 20
61.322478524
 10
236.6554315541
 20
62.0614602217
 10
237.4127557807
 20
62.5303943919
  0
LWPOLYLINE
  5
1D0
330
1F
100
AcDbEntity
  8
0
  6
Continuous
 62
     7
370
    25
100
AcDbPolyline
 90
       24
 70
   128
 43
0.0
 10
226.3093783975
 20
43.3519127534
 10
226.3579651528
 20
44.5756373792
 10
226.503296706
 20
45.8447038921
 10
226.7440974567
 20
47.1479605087
 10
227.078250184
 20
48.4739540009
 10
227.5028190967
 20
49.8110315011
 10
228.0140722229
 20
51.1474426869
 10
228.6075176306
 20
52.4714430105
 10
229.2779389888
 20
53.7713963583
 10
230.0194456168
 20
55.0358799897
 10
230.8255205582
 20
56.253781872
 10
231.6890805082
 20
57.4143976337
 10
232.6025357415
 20
58.5075282785
 10
233.5578592589
 20
59.5235672515
 10
234.5466556058
 20
60.4535865558
 10
235.5602349582
 20
61.2894114602
 10
236.5896901723
 20
62.0236976796
 10
237.6259743283
 20
62.6499928698
 10
238.6599805789
 20
63.1627918488
 10
239.682621833
 20
63.5575886811
 10
240.6849114277
 20
63.8309141227
 10
241.6580406715
 20
63.9803651769
 10
242.593458364
 20
64.0046304673
 10
243.3497516212
 20
63.9271358244
  0
LWPOLYLINE
  5
1D1
330
1F
100
AcDbEntity
  8
0
  6
Continuous
 62
     7
370
    25
100
AcDbPolyline
 90
        3
 70
   128
 43
0.0
 10
226.450489339
 20
41.3999680784
 10
226.3579651528
 20
42.1842852011
 10
226.3272236366
 20
42.6370783851
  0
SPLINE
  5
1D2
330
1F
100
AcDbEntity
  8
0
  6
Continuous
 62
     7
370
    25
100
AcDbSpline
210
0.0
220
0.0
230
1.0
 70
     8
 71
     3
 72
    10
 73
     6
 74
     0
 42
0.000000001
 43
0.00000001
 40
0.0
 40
0.0
 40
0.0
 40
0.0
 40
0.5
 40
0.5
 40
1.0
 40
1.0
 40
1.0
 40
1.0
 10
235.1560913267581
 20
53.05813047258454
 30
0.0
 10
235.0521268359738
 20
53.13146884565492
 30
0.0
 10
234.9623185595464
 20
53.21870460344832
 30
0.0
 10
234.8102761315478
 20
53.41963514464432
 30
0.0
 10
234.7483705431868
 20
53.53380591084129
 30
0.0
 10
234.7039208385963
 20
53.65682359400139
 30
0.0
  0
SPLINE
  5
1D3
330
1F
100
AcDbEntity
  8
0
  6
Continuous
 62
     7
370
    25
100
AcDbSpline
210
0.0
220
0.0
230
1.0
 70
     8
 71
     3
 72
    14
 73
    10
 74
     0
 42
0.000000001
 43
0.00000001
 40
0.0
 40
0.0
 40
0.0
 40
0.0
 40
0.25
 40
0.25
 40
0.5
 40
0.5
 40
0.75
 40
0.75
 40
1.0
 40
1.0
 40
1.0
 40
1.0
 10
234.7039208385963
 20
53.65682359400139
 30
0.0
 10
234.6812000357312
 20
53.71970501365893
 30
0.0
 10
234.6592855253818
 20
53.78875144313236
 30
0.0
 10
234.617174471319
 20
53.93640395975113
 30
0.0
 10
234.5976529174059
 20
54.01280374660944
 30
0.0
 10
234.5593066752322
 20
54.16713603800503
 30
0.0
 10
234.5409470823483
 20
54.24408863433668
 30
0.0
 10
234.4989436377667
 20
54.38947880185266
 30
0.0
 10
234.4751673167536
 20
54.45606970804569
 30
0.0
 10
234.4467058126515
 20
54.49656532327703
 30
0.0
  0
LINE
  5
1D4
330
1F
100
AcDbEntity
  8
0
  6
Continuous
 62
     7
370
    25
100
AcDbLine
 10
234.4467060009
 20
54.496565715
 30
0.0
 11
234.4294034025
 21
54.5211835224
 31
0.0
  0
LINE
  5
1D5
330
1F
100
AcDbEntity
  8
0
  6
Continuous
 62
     7
370
    25
100
AcDbLine
 10
235.7735964641
 20
56.1933470396
 30
0.0
 11
235.7908990625
 21
56.1687292323
 31
0.0
  0
SPLINE
  5
1D6
330
1F
100
AcDbEntity
  8
0
  6
Continuous
 62
     7
370
    25
100
AcDbSpline
210
0.0
220
0.0
230
1.0
 70
     8
 71
     3
 72
    16
 73
    12
 74
     0
 42
0.000000001
 43
0.00000001
 40
0.0
 40
0.0
 40
0.0
 40
0.0
 40
0.1250000000000001
 40
0.1250000000000001
 40
0.2500000000000003
 40
0.2500000000000003
 40
0.5000000000000002
 40
0.5000000000000002
 40
0.7500000000000001
 40
0.7500000000000001
 40
1.0
 40
1.0
 40
1.0
 40
1.0
 10
235.7908990535026
 20
56.16872893589031
 30
0.0
 10
235.8050514599068
 20
56.14859260007753
 30
0.0
 10
235.8267098643805
 20
56.13179517940011
 30
0.0
 10
235.8791277934157
 20
56.10494965806861
 30
0.0
 10
235.9097206725541
 20
56.09472417350762
 30
0.0
 10
236.0088015214116
 20
56.07022373307495
 30
0.0
 10
236.0826840590275
 20
56.06196381067345
 30
0.0
 10
236.2357836514188
 20
56.05077784396853
 30
0.0
 10
236.3138676260665
 20
56.04818117221734
 30
0.0
 10
236.4732112598086
 20
56.04615217138363
 30
0.0
 10
236.5518641546401
 20
56.04678976004586
 30
0.0
 10
236.6276166224328
 20
56.04988286086089
 30
0.0
  0
SPLINE
  5
1D7
330
1F
100
AcDbEntity
  8
0
  6
Continuous
 62
     7
370
    25
100
AcDbSpline
210
0.0
220
0.0
230
1.0
 70
     8
 71
     3
 72
    10
 73
     6
 74
     0
 42
0.000000001
 43
0.00000001
 40
0.0
 40
0.0
 40
0.0
 40
0.0
 40
0.5
 40
0.5
 40
1.0
 40
1.0
 40
1.0
 40
1.0
 10
236.6276166224328
 20
56.04988286086089
 30
0.0
 10
236.7758109623335
 20
56.05593388529466
 30
0.0
 10
236.9180354280641
 20
56.04577165508152
 30
0.0
 10
237.1904268184049
 20
55.99472121914144
 30
0.0
 10
237.3205541482734
 20
55.9533601164969
 30
0.0
 10
237.4386294904587
 20
55.89758624854461
 30
0.0
  0
ARC
  5
1D8
330
1F
100
AcDbEntity
  8
0
  6
Continuous
 62
     7
370
    25
100
AcDbCircle
 10
220.1086694408
 20
51.1615165542
 30
0.0
 40
4.143252031906353
100
AcDbArc
 50
211.7444095219
 51
236.2139194594
  0
SPLINE
  5
1D9
330
1F
100
AcDbEntity
  8
0
  6
Continuous
 62
     7
370
    25
100
AcDbSpline
210
0.0
220
0.0
230
1.0
 70
     8
 71
     3
 72
     8
 73
     4
 74
     0
 42
0.000000001
 43
0.00000001
 40
0.0
 40
0.0
 40
0.0
 40
0.0
 40
1.0
 40
1.0
 40
1.0
 40
1.0
 10
218.0156758213219
 20
48.05688182930594
 30
0.0
 10
217.5389025294978
 20
48.36497463723859
 30
0.0
 10
217.0621001526529
 20
48.67320408281135
 30
0.0
 10
216.5852677081272
 20
48.98156923903126
 30
0.0
  0
SPLINE
  5
1DA
330
1F
100
AcDbEntity
  8
0
  6
Continuous
 62
     7
370
    25
100
AcDbSpline
210
0.0
220
0.0
230
1.0
 70
     8
 71
     3
 72
    23
 73
    19
 74
     0
 42
0.000000001
 43
0.00000001
 40
0.0
 40
0.0
 40
0.0
 40
0.0
 40
0.0521034701687057
 40
0.1035642834087102
 40
0.1544746865149814
 40
0.2049299526106448
 40
0.2550279491446255
 40
0.3048686360173235
 40
0.354553504119357
 40
0.4041849683413186
 40
0.4538657321696359
 40
0.5036981429680408
 40
0.5902048055392471
 40
0.6743008903317285
 40
0.7566325442019778
 40
0.8378852029881853
 40
0.9187688149217074
 40
1.0
 40
1.0
 40
1.0
 40
1.0
 10
218.8962406248636
 20
47.88215113118585
 30
0.0
 10
218.8909716859237
 20
47.87222966895021
 30
0.0
 10
218.880498796424
 20
47.85250911821773
 30
0.0
 10
218.8612525006547
 20
47.82794128927171
 30
0.0
 10
218.8394567603451
 20
47.8072527069859
 30
0.0
 10
218.8148054690541
 20
47.79072177178476
 30
0.0
 10
218.7873089548329
 20
47.77820427185346
 30
0.0
 10
218.7568978996485
 20
47.7696696493465
 30
0.0
 10
218.72352753225
 20
47.76505977181155
 30
0.0
 10
218.6871516276761
 20
47.76432504689093
 30
0.0
 10
218.6477233170367
 20
47.76742006134084
 30
0.0
 10
218.5948690370788
 20
47.7759570595558
 30
0.0
 10
218.5263212436501
 20
47.79355503457766
 30
0.0
 10
218.4385902953945
 20
47.82519340654791
 30
0.0
 10
218.3438563429691
 20
47.86737353967914
 30
0.0
 10
218.2418256474103
 20
47.92010909174049
 30
0.0
 10
218.1329219880389
 20
47.98242291919943
 30
0.0
 10
218.0548136981281
 20
48.03202674250467
 30
0.0
 10
218.0156758213219
 20
48.05688182930593
 30
0.0
  0
SPLINE
  5
1DB
330
1F
100
AcDbEntity
  8
0
  6
Continuous
 62
     7
370
    25
100
AcDbSpline
210
0.0
220
0.0
230
1.0
 70
     8
 71
     3
 72
     8
 73
     4
 74
     0
 42
0.000000001
 43
0.00000001
 40
0.0
 40
0.0
 40
0.0
 40
0.0
 40
1.0
 40
1.0
 40
1.0
 40
1.0
 10
220.3697436513198
 20
46.93483099462811
 30
0.0
 10
219.8783763392776
 20
47.25070561459611
 30
0.0
 10
219.3869901393506
 20
47.5666916358861
 30
0.0
 10
218.8955844292058
 20
47.8827885167293
 30
0.0
  0
SPLINE
  5
1DC
330
1F
100
AcDbEntity
  8
0
  6
Continuous
 62
     7
370
    25
100
AcDbSpline
210
0.0
220
0.0
230
1.0
 70
     8
 71
     3
 72
    18
 73
    14
 74
     0
 42
0.000000001
 43
0.00000001
 40
0.0
 40
0.0
 40
0.0
 40
0.0
 40
0.0923645816240024
 40
0.184437298835547
 40
0.2764543021187089
 40
0.3686515499736663
 40
0.4612630116345014
 40
0.5545189370737327
 40
0.6486442564353982
 40
0.7438571603401029
 40
0.840367898348629
 40
0.9203923541269499
 40
1.0
 40
1.0
 40
1.0
 40
1.0
 10
221.183307770517
 20
46.29052327008531
 30
0.0
 10
221.1597456738598
 20
46.30579244844211
 30
0.0
 10
221.1126959348153
 20
46.33628255581932
 30
0.0
 10
221.0403100210437
 20
46.3859047792114
 30
0.0
 10
220.966835757942
 20
46.43822734893809
 30
0.0
 10
220.8921402178531
 20
46.49354161571181
 30
0.0
 10
220.816279338103
 20
46.55178000828236
 30
0.0
 10
220.7392639700006
 20
46.61297651486474
 30
0.0
 10
220.6611237686739
 20
46.67714733775168
 30
0.0
 10
220.5818854982459
 20
46.74430696037397
 30
0.0
 10
220.5065796921605
 20
46.81016615248479
 30
0.0
 10
220.4357470606532
 20
46.873702445329
 30
0.0
 10
220.3918426902983
 20
46.91436319851077
 30
0.0
 10
220.3699478237185
 20
46.93464049115266
 30
0.0
  0
LINE
  5
1DD
330
1F
100
AcDbEntity
  8
0
  6
Continuous
 62
     7
370
    25
100
AcDbLine
 10
221.8230143024
 20
45.8787694636
 30
0.0
 11
221.18330746
 21
46.2905231312
 31
0.0
  0
SPLINE
  5
1DE
330
1F
100
AcDbEntity
  8
0
  6
Continuous
 62
     7
370
    25
100
AcDbSpline
210
0.0
220
0.0
230
1.0
 70
     8
 71
     3
 72
    25
 73
    21
 74
     0
 42
0.000000001
 43
0.00000001
 40
0.0
 40
0.0
 40
0.0
 40
0.0
 40
0.0280056024285556
 40
0.0559514328342784
 40
0.0838901607637317
 40
0.1118745076905564
 40
0.1399569498905731
 40
0.1681894282715383
 40
0.1966230730100115
 40
0.2253079499152918
 40
0.2542928341276725
 40
0.3799484016835161
 40
0.505784488750116
 40
0.6313077644952726
 40
0.7532057173414717
 40
0.8039627394927641
 40
0.8536129947768591
 40
0.9025574087126811
 40
0.9512124407392603
 40
1.0
 40
1.0
 40
1.0
 40
1.0
 10
222.9253798955073
 20
46.59467545396238
 30
0.0
 10
222.9303289284072
 20
46.56705520389934
 30
0.0
 10
222.9402164315453
 20
46.51187365334312
 30
0.0
 10
222.9517535670857
 20
46.43272095616006
 30
0.0
 10
222.9608275480328
 20
46.356422766844
 30
0.0
 10
222.9671965186887
 20
46.28322943291278
 30
0.0
 10
222.9709123707324
 20
46.2130817262132
 30
0.0
 10
222.9719481316494
 20
46.14600262851653
 30
0.0
 10
222.9702984473687
 20
46.08199339111524
 30
0.0
 10
222.9659507350469
 20
46.02105686387118
 30
0.0
 10
222.9510932554757
 20
45.89916287166244
 30
0.0
 10
222.9060049372221
 20
45.74425838685897
 30
0.0
 10
222.7926449494805
 20
45.61331579329555
 30
0.0
 10
222.6308215463842
 20
45.55743831148415
 30
0.0
 10
222.4567944111056
 20
45.5773164571958
 30
0.0
 10
222.305418313703
 20
45.62463746291047
 30
0.0
 10
222.1950029551443
 20
45.66955593001859
 30
0.0
 10
222.0778436994895
 20
45.72693126815352
 30
0.0
 10
221.954294299916
 20
45.79560277231775
 30
0.0
 10
221.8668137851973
 20
45.85102202682983
 30
0.0
 10
221.8230140387043
 20
45.87876934068893
 30
0.0
  0
ARC
  5
1DF
330
1F
100
AcDbEntity
  8
0
  6
Continuous
 62
     7
370
    25
100
AcDbCircle
 10
234.1184010599
 20
48.3807258225
 30
0.0
 40
11.3346241921832
100
AcDbArc
 50
170.9338462887
 51
189.0661537113
  0
SPLINE
  5
1E0
330
1F
100
AcDbEntity
  8
0
  6
Continuous
 62
     7
370
    25
100
AcDbSpline
210
0.0
220
0.0
230
1.0
 70
     8
 71
     3
 72
    26
 73
    22
 74
     0
 42
0.000000001
 43
0.00000001
 40
0.0
 40
0.0
 40
0.0
 40
0.0
 40
0.0241214275653681
 40
0.048207823354694
 40
0.0723095879205524
 40
0.0964771461125574
 40
0.1207606318213038
 40
0.1452095829268534
 40
0.1698726554210423
 40
0.1947973643378114
 40
0.2200298573584057
 40
0.2456147249583675
 40
0.3690974744022258
 40
0.4940700204039635
 40
0.6192566393629643
 40
0.7454654421861667
 40
0.7971580294162193
 40
0.8481837569733532
 40
0.8988139831114569
 40
0.9493262809205398
 40
1.0
 40
1.0
 40
1.0
 40
1.0
 10
221.8230140387043
 20
53.64287973205348
 30
0.0
 10
221.8447290780047
 20
53.62855347974671
 30
0.0
 10
221.8881276196496
 20
53.59992178128412
 30
0.0
 10
221.9514272473795
 20
53.55194128599204
 30
0.0
 10
222.0132834720574
 20
53.50035061703519
 30
0.0
 10
222.0735847530126
 20
53.44478086931257
 30
0.0
 10
222.1323734949338
 20
53.38532725387945
 30
0.0
 10
222.1896550318023
 20
53.32196113380586
 30
0.0
 10
222.2454493244553
 20
53.25468710769854
 30
0.0
 10
222.2997758910182
 20
53.18350432837829
 30
0.0
 10
222.3526622985698
 20
53.10840301951153
 30
0.0
 10
222.4694627642701
 20
52.9291393034005
 30
0.0
 10
222.6313358593585
 20
52.61882894035653
 30
0.0
 10
222.7945204366908
 20
52.14891490345662
 30
0.0
 10
222.9060323177423
 20
51.64995189559682
 30
0.0
 10
222.9531662447078
 20
51.24105654247553
 30
0.0
 10
222.9682872582762
 20
50.93676716178093
 30
0.0
 10
222.9702430144101
 20
50.73550034220847
 30
0.0
 10
222.9637658506141
 20
50.53984028085471
 30
0.0
 10
222.949638322099
 20
50.34922066147704
 30
0.0
 10
222.9334746329739
 20
50.22765588179472
 30
0.0
 10
222.9253798955073
 20
50.166776526277
 30
0.0
  0
LINE
  5
1E1
330
1F
100
AcDbEntity
  8
0
  6
Continuous
 62
     7
370
    25
100
AcDbLine
 10
221.18330746
 20
54.0558545823
 30
0.0
 11
221.8230143024
 21
53.6428796113
 31
0.0
  0
SPLINE
  5
1E2
330
1F
100
AcDbEntity
  8
0
  6
Continuous
 62
     7
370
    25
100
AcDbSpline
210
0.0
220
0.0
230
1.0
 70
     8
 71
     3
 72
    14
 73
    10
 74
     0
 42
0.000000001
 43
0.00000001
 40
0.0
 40
0.0
 40
0.0
 40
0.0
 40
0.0789259589567727
 40
0.158232396189637
 40
0.3308776440723308
 40
0.5000645817686393
 40
0.6670803235491236
 40
0.8332687177846481
 40
1.0
 40
1.0
 40
1.0
 40
1.0
 10
220.3693550547704
 20
54.26443701534636
 30
0.0
 10
220.3910719357712
 20
54.26604019325185
 30
0.0
 10
220.4346103883152
 20
54.26925427750065
 30
0.0
 10
220.5261441169378
 20
54.27007509939556
 30
0.0
 10
220.6430653664568
 20
54.26213962065465
 30
0.0
 10
220.7838989150844
 20
54.23586477867184
 30
0.0
 10
220.9211115639875
 20
54.19290771972822
 30
0.0
 10
221.0550300552668
 20
54.13455180358078
 30
0.0
 10
221.1405020727147
 20
54.08211560024492
 30
0.0
 10
221.183307770517
 20
54.05585474504436
 30
0.0
  0
SPLINE
  5
1E3
330
1F
100
AcDbEntity
  8
0
  6
Continuous
 62
     7
370
    25
100
AcDbSpline
210
0.0
220
0.0
230
1.0
 70
     8
 71
     3
 72
     8
 73
     4
 74
     0
 42
0.000000001
 43
0.00000001
 40
0.0
 40
0.0
 40
0.0
 40
0.0
 40
1.0
 40
1.0
 40
1.0
 40
1.0
 10
218.5670514716613
 20
55.42682842675078
 30
0.0
 10
219.1678096953579
 20
55.03956094359158
 30
0.0
 10
219.7685385582188
 20
54.65209359366797
 30
0.0
 10
220.3692392025661
 20
54.26442670107804
 30
0.0
  0
SPLINE
  5
1E4
330
1F
100
AcDbEntity
  8
0
  6
Continuous
 62
     7
370
    25
100
AcDbSpline
210
0.0
220
0.0
230
1.0
 70
     8
 71
     3
 72
    13
 73
     9
 74
     0
 42
0.000000001
 43
0.00000001
 40
0.0
 40
0.0
 40
0.0
 40
0.0
 40
0.1666651380536958
 40
0.3328869540146023
 40
0.4989979369855643
 40
0.6653319948464125
 40
0.8322224399502948
 40
1.0
 40
1.0
 40
1.0
 40
1.0
 10
218.2252229366269
 20
55.72789320583657
 30
0.0
 10
218.2455202791913
 20
55.7143333099332
 30
0.0
 10
218.2860609742627
 20
55.68724958686581
 30
0.0
 10
218.3452035933984
 20
55.64206372922408
 30
0.0
 10
218.4029728023911
 20
55.59365547200957
 30
0.0
 10
218.4592248227668
 20
55.54161712230179
 30
0.0
 10
218.5141589471534
 20
55.48630984993559
 30
0.0
 10
218.5493856927611
 20
55.44668422211746
 30
0.0
 10
218.5670457538829
 20
55.42681888976305
 30
0.0
  0
SPLINE
  5
1E5
330
1F
100
AcDbEntity
  8
0
  6
Continuous
 62
     7
370
    25
100
AcDbSpline
210
0.0
220
0.0
230
1.0
 70
     8
 71
     3
 72
     8
 73
     4
 74
     0
 42
0.000000001
 43
0.00000001
 40
0.0
 40
0.0
 40
0.0
 40
0.0
 40
1.0
 40
1.0
 40
1.0
 40
1.0
 10
216.2812424208362
 20
56.98261505821604
 30
0.0
 10
216.9292724932365
 20
56.56461974233129
 30
0.0
 10
217.5772654703384
 20
56.14637897991366
 30
0.0
 10
218.2252229366269
 20
55.72789320583657
 30
0.0
  0
LWPOLYLINE
  5
1E6
330
1F
100
AcDbEntity
  8
0
  6
Continuous
 62
     7
370
    25
100
AcDbPolyline
 90
       19
 70
   128
 43
0.0
 10
216.2812430711
 20
56.9826151087
 10
216.6841353328
 20
58.1495790941
 10
217.1740904711
 20
59.3095835189
 10
217.7450907063
 20
60.4483809149
 10
218.390121881
 20
61.5519836057
 10
219.1012623632
 20
62.6068382243
 10
219.8697775479
 20
63.5999878728
 10
220.6862285165
 20
64.5192344716
 10
221.5405874473
 20
65.3532886543
 10
222.4223607628
 20
66.0919047382
 10
223.3207184104
 20
66.7260123918
 10
224.2246265593
 20
67.2478221357
 10
225.1229832191
 20
67.650925688
 10
226.0047546413
 20
67.9303724247
 10
226.8591106086
 20
68.0827292307
 10
227.6755579553
 20
68.1061256389
 10
228.4440685301
 20
68.0002737093
 10
229.155203744
 20
67.7664737687
 10
229.3309807977
 20
67.6843620739
  0
SPLINE
  5
1E7
330
1F
100
AcDbEntity
  8
0
  6
Continuous
 62
     7
370
    25
100
AcDbSpline
210
0.0
220
0.0
230
1.0
 70
    11
 71
     3
 72
    39
 73
    35
 74
     0
 42
0.000000001
 43
0.00000001
 40
0.0
 40
0.0
 40
0.0
 40
0.0
 40
0.0310664058347798
 40
0.0621048158425991
 40
0.0931361551792733
 40
0.1235538293503577
 40
0.1538561545807598
 40
0.1850588072749104
 40
0.2160250992947717
 40
0.247186722379756
 40
0.2784462884306427
 40
0.3100516090231226
 40
0.3419834369140484
 40
0.3734259894013217
 40
0.4048604886785525
 40
0.4368740651833295
 40
0.468512068592407
 40
0.4998055358633177
 40
0.5309508213228404
 40
0.561864978443814
 40
0.5930416446592908
 40
0.6233742450133256
 40
0.6540913579073041
 40
0.6849496782718417
 40
0.7158160645167227
 40
0.7471731804043494
 40
0.7784514311866261
 40
0.8101295911560916
 40
0.8419598919689909
 40
0.8735175891922292
 40
0.9050808037889628
 40
0.9370235169792575
 40
0.9687441590033682
 40
0.9999999999999999
 40
0.9999999999999999
 40
0.9999999999999999
 40
0.9999999999999999
 10
229.4898279020416
 20
65.98780543355747
 30
0.0
 10
229.7527135222391
 20
65.95927094626725
 30
0.0
 10
230.2796021327223
 20
65.87332845794478
 30
0.0
 10
231.0436142017957
 20
65.67295333787459
 30
0.0
 10
231.7507643898471
 20
65.42595123165492
 30
0.0
 10
232.3636754544416
 20
65.14796935350262
 30
0.0
 10
232.8608067801166
 20
64.85383565617272
 30
0.0
 10
233.2199985011887
 20
64.55232912798007
 30
0.0
 10
233.4417177699496
 20
64.24533162307686
 30
0.0
 10
233.5069696473303
 20
63.93482636167461
 30
0.0
 10
233.4201224362159
 20
63.61568187692617
 30
0.0
 10
233.1777768484571
 20
63.28636191135334
 30
0.0
 10
232.7978389857309
 20
62.94742118979646
 30
0.0
 10
232.2840330325722
 20
62.60958272538605
 30
0.0
 10
231.6581422216616
 20
62.28368482407706
 30
0.0
 10
230.9446712351732
 20
61.98703793083708
 30
0.0
 10
230.1807687589081
 20
61.73093462239844
 30
0.0
 10
229.3949756760042
 20
61.54190705440869
 30
0.0
 10
228.6134382209621
 20
61.43373113235354
 30
0.0
 10
227.8573252362084
 20
61.4260672489855
 30
0.0
 10
227.1549606498176
 20
61.52398928437312
 30
0.0
 10
226.5359403027738
 20
61.74563771787457
 30
0.0
 10
226.0268830377612
 20
62.08150580478571
 30
0.0
 10
225.6539394443275
 20
62.521316370967
 30
0.0
 10
225.4253374930799
 20
63.03239101148958
 30
0.0
 10
225.3564911863602
 20
63.58357609925283
 30
0.0
 10
225.4411075995853
 20
64.14124802756432
 30
0.0
 10
225.6842163895209
 20
64.67132816848407
 30
0.0
 10
226.0663462323376
 20
65.14385251759707
 30
0.0
 10
226.5824818067512
 20
65.5299740284908
 30
0.0
 10
227.2094596672523
 20
65.81359821582309
 30
0.0
 10
227.9253670996187
 20
65.98333543454952
 30
0.0
 10
228.6938104918022
 20
66.04487426926005
 30
0.0
 10
229.2253392711747
 20
66.01651391700442
 30
0.0
 10
229.4898279020416
 20
65.98780543355747
 30
0.0
  0
LINE
  5
1E8
330
1F
100
AcDbEntity
  8
0
  6
Continuous
 62
     7
370
    25
100
AcDbLine
 10
220.265290489
 20
49.5486788162
 30
0.0
 11
220.5760438129
 21
49.3822914595
 31
0.0
  0
LINE
  5
1E9
330
1F
100
AcDbEntity
  8
0
  6
Continuous
 62
     7
370
    25
100
AcDbLine
 10
219.2783324691
 20
50.1184375534
 30
0.0
 11
220.265290489
 21
49.5486788162
 31
0.0
  0
ARC
  5
1EA
330
1F
100
AcDbEntity
  8
0
  6
Continuous
 62
     7
370
    25
100
AcDbCircle
 10
221.4993023799
 20
53.7119183175
 30
0.0
 40
4.484274790565029
100
AcDbArc
 50
267.6840627222
 51
286.9866336569
  0
SPLINE
  5
1EB
330
1F
100
AcDbEntity
  8
0
  6
Continuous
 62
     7
370
    25
100
AcDbSpline
210
0.0
220
0.0
230
1.0
 70
     8
 71
     3
 72
    12
 73
     8
 74
     0
 42
0.000000001
 43
0.00000001
 40
0.0
 40
0.0
 40
0.0
 40
0.0
 40
0.1427340617478052
 40
0.374476004195105
 40
0.607135784882394
 40
0.8192243157844539
 40
1.0
 40
1.0
 40
1.0
 40
1.0
 10
230.828333860341
 20
62.98530971822175
 30
0.0
 10
230.6370312403602
 20
63.09028713522401
 30
0.0
 10
230.1351311343503
 20
63.36570509200569
 30
0.0
 10
229.1403227684666
 20
63.78040751087111
 30
0.0
 10
227.9287969451797
 20
64.07345525541105
 30
0.0
 10
226.8109018567912
 20
64.11281207470272
 30
0.0
 10
226.2327073383029
 20
63.90689865618478
 30
0.0
 10
225.9666522850115
 20
63.81214800776902
 30
0.0
  0
SPLINE
  5
1EC
330
1F
100
AcDbEntity
  8
0
  6
Continuous
 62
     7
370
    25
100
AcDbSpline
210
0.0
220
0.0
230
1.0
 70
     8
 71
     3
 72
    10
 73
     6
 74
     0
 42
0.000000001
 43
0.00000001
 40
0.0
 40
0.0
 40
0.0
 40
0.0
 40
0.3798174073072795
 40
0.9603711649033085
 40
1.0
 40
1.0
 40
1.0
 40
1.0
 10
231.9682139822004
 20
62.45708279070325
 30
0.0
 10
231.8385613649521
 20
62.52741135254061
 30
0.0
 10
231.5107337491976
 20
62.70523764896174
 30
0.0
 10
231.1028052041874
 20
62.87829049936415
 30
0.0
 10
230.8461724227555
 20
62.97749593161246
 30
0.0
 10
230.8297739325438
 20
62.98383502555283
 30
0.0
  0
SPLINE
  5
1ED
330
1F
100
AcDbEntity
  8
0
  6
Continuous
 62
     7
370
    25
100
AcDbSpline
210
0.0
220
0.0
230
1.0
 70
     8
 71
     3
 72
    24
 73
    20
 74
     0
 42
0.000000001
 43
0.00000001
 40
0.0
 40
0.0
 40
0.0
 40
0.0
 40
0.0618840405107654
 40
0.1150097917091882
 40
0.1593831560946264
 40
0.2428115036280618
 40
0.3183318591855066
 40
0.393554385675793
 40
0.4204843277094077
 40
0.4483397483172464
 40
0.4771286747760933
 40
0.5451537944670507
 40
0.6363475785735143
 40
0.6968782886074498
 40
0.7498596715029577
 40
0.7959701313029689
 40
0.8771179313375886
 40
0.9543004211730736
 40
1.0
 40
1.0
 40
1.0
 40
1.0
 10
229.4349493350393
 20
65.41394753360069
 30
0.0
 10
229.2509978889594
 20
65.43284192356612
 30
0.0
 10
228.9091291725078
 20
65.46795662901295
 30
0.0
 10
228.4449106346109
 20
65.46146721590995
 30
0.0
 10
227.935443619002
 20
65.41374279478245
 30
0.0
 10
227.3963437883781
 20
65.2891253832808
 30
0.0
 10
226.8535058096411
 20
65.04663501888176
 30
0.0
 10
226.5131127927909
 20
64.7892622864672
 30
0.0
 10
226.3064860843637
 20
64.5744551843049
 30
0.0
 10
226.1885020281311
 20
64.42795183329525
 30
0.0
 10
226.036331623948
 20
64.198201008969
 30
0.0
 10
225.8696509853635
 20
63.8252583136069
 30
0.0
 10
225.8012894045281
 20
63.36269926088848
 30
0.0
 10
225.8516448681472
 20
62.93436656269157
 30
0.0
 10
225.9570740116625
 20
62.61443966904623
 30
0.0
 10
226.1392733383485
 20
62.27397415385328
 30
0.0
 10
226.440151763419
 20
61.93802589699809
 30
0.0
 10
226.8298366580175
 20
61.66496659628309
 30
0.0
 10
227.1227556142119
 20
61.57101152535579
 30
0.0
 10
227.2316915482682
 20
61.53606983519084
 30
0.0
  0
SPLINE
  5
1EE
330
1F
100
AcDbEntity
  8
0
  6
Continuous
 62
     7
370
    25
100
AcDbSpline
210
0.0
220
0.0
230
1.0
 70
     8
 71
     3
 72
    22
 73
    18
 74
     0
 42
0.000000001
 43
0.00000001
 40
0.0
 40
0.0
 40
0.0
 40
0.0
 40
0.0231137151316818
 40
0.0814486947374716
 40
0.1466704029278188
 40
0.2188184087295938
 40
0.2807633843804347
 40
0.3340648746037218
 40
0.3787223331782954
 40
0.414738452684493
 40
0.5178967984491902
 40
0.609858316915154
 40
0.7031915854343271
 40
0.752941390742995
 40
0.8047895586121069
 40
0.893873362817211
 40
0.9999999999999999
 40
0.9999999999999999
 40
0.9999999999999999
 40
0.9999999999999999
 10
232.7361689101033
 20
62.93310601816963
 30
0.0
 10
232.7606063498218
 20
62.95613635815187
 30
0.0
 10
232.846719618782
 20
63.0372912534262
 30
0.0
 10
232.954443079631
 20
63.18061879748305
 30
0.0
 10
233.0516114476185
 20
63.36939289837191
 30
0.0
 10
233.0826630101655
 20
63.55535846913396
 30
0.0
 10
233.0533099344355
 20
63.72717312799257
 30
0.0
 10
232.984803832502
 20
63.87397906169925
 30
0.0
 10
232.8969934400287
 20
63.995190117395
 30
0.0
 10
232.7427016529986
 20
64.16077322682393
 30
0.0
 10
232.4748757056026
 20
64.37093749224435
 30
0.0
 10
232.0233054498918
 20
64.6263812915669
 30
0.0
 10
231.5757428432097
 20
64.83301800313515
 30
0.0
 10
231.1668490645554
 20
64.99152219066575
 30
0.0
 10
230.7447661490671
 20
65.13404018375456
 30
0.0
 10
230.1664530154098
 20
65.2972957019509
 30
0.0
 10
229.6925745368657
 20
65.37286441607355
 30
0.0
 10
229.4349493350393
 20
65.41394753360069
 30
0.0
  0
LINE
  5
1EF
330
1F
100
AcDbEntity
  8
0
  6
Continuous
 62
     7
370
    25
100
AcDbLine
 10
222.9253796132
 20
50.1667763455
 30
0.0
 11
222.9201415501
 21
50.4628597684
 31
0.0
  0
LINE
  5
1F0
330
1F
100
AcDbEntity
  8
0
  6
Continuous
 62
     7
370
    25
100
AcDbLine
 10
222.9201415501
 20
50.4628597684
 30
0.0
 11
222.9632413125
 21
51.1145218454
 31
0.0
  0
LINE
  5
1F1
330
1F
100
AcDbEntity
  8
0
  6
Continuous
 62
     7
370
    25
100
AcDbLine
 10
222.5330662105
 20
52.8459923574
 30
0.0
 11
222.1291782296
 21
53.2721445554
 31
0.0
  0
SPLINE
  5
1F2
330
1F
100
AcDbEntity
  8
0
  6
Continuous
 62
     7
370
    25
100
AcDbSpline
210
0.0
220
0.0
230
1.0
 70
     8
 71
     3
 72
    19
 73
    15
 74
     0
 42
0.000000001
 43
0.00000001
 40
0.0
 40
0.0
 40
0.0
 40
0.0
 40
0.0210492621018804
 40
0.1455865440207667
 40
0.2712169722633744
 40
0.3929514297049947
 40
0.5136082229787104
 40
0.6366369099308349
 40
0.699422462668311
 40
0.7643939711952468
 40
0.8122544601557282
 40
0.8606584764820763
 40
0.9188817427801165
 40
1.0
 40
1.0
 40
1.0
 40
1.0
 10
225.845704782697
 20
63.15919758614289
 30
0.0
 10
225.8382362077111
 20
63.21395793304829
 30
0.0
 10
225.7865800491394
 20
63.59270611038344
 30
0.0
 10
226.029350943799
 20
64.20285701919762
 30
0.0
 10
226.613681411214
 20
64.89223072243718
 30
0.0
 10
227.5198077788542
 20
65.30953027266924
 30
0.0
 10
228.5941539073163
 20
65.42995623035789
 30
0.0
 10
229.548087776412
 20
65.26925668677028
 30
0.0
 10
230.2827503189812
 20
64.97189058792848
 30
0.0
 10
230.7555535584536
 20
64.6742325105238
 30
0.0
 10
231.1125237285731
 20
64.30332070574643
 30
0.0
 10
231.3073718700813
 20
63.87099941043885
 30
0.0
 10
231.3364009003255
 20
63.3680580792137
 30
0.0
 10
231.2740272987051
 20
63.03431306663851
 30
0.0
 10
231.237716242731
 20
62.84002199609165
 30
0.0
  0
SPLINE
  5
1F3
330
1F
100
AcDbEntity
  8
0
  6
Continuous
 62
     7
370
    25
100
AcDbSpline
210
0.0
220
0.0
230
1.0
 70
     8
 71
     3
 72
    10
 73
     6
 74
     0
 42
0.000000001
 43
0.00000001
 40
0.0
 40
0.0
 40
0.0
 40
0.0
 40
0.2952143814060783
 40
0.9806972384019376
 40
1.0
 40
1.0
 40
1.0
 40
1.0
 10
231.2404440987192
 20
62.83878344266927
 30
0.0
 10
231.3232676682734
 20
62.80001841662547
 30
0.0
 10
231.5984061813416
 20
62.67124164834385
 30
0.0
 10
231.8733368591193
 20
62.53005322929993
 30
0.0
 10
232.0217991680127
 20
62.43607086867889
 30
0.0
 10
232.025865273335
 20
62.43349686737462
 30
0.0
  0
ARC
  5
1F4
330
1F
100
AcDbEntity
  8
0
  6
Continuous
 62
     7
370
    25
100
AcDbCircle
 10
235.2505526641
 20
48.6255644503
 30
0.0
 40
12.46654291792348
100
AcDbArc
 50
171.5249863735
 51
179.8211981812
  0
SPLINE
  5
1F5
330
1F
100
AcDbEntity
  8
0
  6
Continuous
 62
     7
370
    25
100
AcDbSpline
210
0.0
220
0.0
230
1.0
 70
     8
 71
     3
 72
    14
 73
    10
 74
     0
 42
0.000000001
 43
0.00000001
 40
0.0
 40
0.0
 40
0.0
 40
0.0
 40
0.0003951393068452
 40
0.0003951393068452
 40
0.0003951393068452
 40
0.0008163352168296
 40
0.0008163352168296
 40
0.0008163352168296
 40
0.0012378579336484
 40
0.0012378579336484
 40
0.0012378579336484
 40
0.0012378579336484
 10
230.8323664358809
 20
62.98403076483731
 30
0.0
 10
230.8778282501108
 20
62.96959390221295
 30
0.0
 10
230.9227158547305
 20
62.95472804164803
 30
0.0
 10
230.9669995474043
 20
62.93944425404326
 30
0.0
 10
231.0142028396381
 20
62.92315281470773
 30
0.0
 10
231.0607286526919
 20
62.90638333662607
 30
0.0
 10
231.1065395619283
 20
62.8891545258331
 30
0.0
 10
231.1523859499122
 20
62.87191237200381
 30
0.0
 10
231.1975251854795
 20
62.85420666580173
 30
0.0
 10
231.2419187435169
 20
62.83606380911344
 30
0.0
  0
LINE
  5
1F6
330
1F
100
AcDbEntity
  8
0
  6
Continuous
 62
     7
370
    25
100
AcDbLine
 10
222.1291782296
 20
53.2721445554
 30
0.0
 11
221.4892415552
 21
53.6843761955
 31
0.0
  0
LINE
  5
1F7
330
1F
100
AcDbEntity
  8
0
  6
Continuous
 62
     7
370
    25
100
AcDbLine
 10
221.18330746
 20
54.0558545823
 30
0.0
 11
221.4892415552
 21
53.6843761955
 31
0.0
  0
SPLINE
  5
1F8
330
1F
100
AcDbEntity
  8
0
  6
Continuous
 62
     7
370
    25
100
AcDbSpline
210
0.0
220
0.0
230
1.0
 70
     8
 71
     3
 72
    13
 73
     9
 74
     0
 42
0.000000001
 43
0.00000001
 40
0.0
 40
0.0
 40
0.0
 40
0.0
 40
0.16183221616715
 40
0.3254505981958384
 40
0.4909687654272658
 40
0.6584964712949335
 40
0.8281395683842832
 40
1.0
 40
1.0
 40
1.0
 40
1.0
 10
221.489241966859
 20
53.6843761994075
 30
0.0
 10
221.4696677013495
 20
53.69693775181926
 30
0.0
 10
221.4303031262964
 20
53.72219950033574
 30
0.0
 10
221.3687726069813
 20
53.75489145390008
 30
0.0
 10
221.3052176806416
 20
53.7838376270802
 30
0.0
 10
221.2395975871441
 20
53.80835138352122
 30
0.0
 10
221.1721646844084
 20
53.82878857971866
 30
0.0
 10
221.1262752446295
 20
53.83838629425112
 30
0.0
 10
221.1031815478911
 20
53.84321630982468
 30
0.0
  0
SPLINE
  5
1F9
330
1F
100
AcDbEntity
  8
0
  6
Continuous
 62
     7
370
    25
100
AcDbSpline
210
0.0
220
0.0
230
1.0
 70
     8
 71
     3
 72
     9
 73
     5
 74
     0
 42
0.000000001
 43
0.00000001
 40
0.0
 40
0.0
 40
0.0
 40
0.0
 40
0.4907162487374744
 40
0.9999999999999999
 40
0.9999999999999999
 40
0.9999999999999999
 40
0.9999999999999999
 10
221.1031757205992
 20
53.84318831279366
 30
0.0
 10
221.0790786830582
 20
53.8512872098653
 30
0.0
 10
221.0299728350187
 20
53.86779144646326
 30
0.0
 10
220.9792613942355
 20
53.88259018796543
 30
0.0
 10
220.9534348814415
 20
53.89012694655163
 30
0.0
  0
SPLINE
  5
1FA
330
1F
100
AcDbEntity
  8
0
  6
Continuous
 62
     7
370
    25
100
AcDbSpline
210
0.0
220
0.0
230
1.0
 70
     8
 71
     3
 72
    14
 73
    10
 74
     0
 42
0.000000001
 43
0.00000001
 40
0.0
 40
0.0
 40
0.0
 40
0.0
 40
0.0310276310583657
 40
0.0622853638093172
 40
0.1248003080251061
 40
0.2498289632720534
 40
0.4998892480136639
 40
0.7606946230169602
 40
0.9999999999999999
 40
0.9999999999999999
 40
0.9999999999999999
 40
0.9999999999999999
 10
220.3695228961665
 20
54.26421623165978
 30
0.0
 10
220.3755149409273
 20
54.2603853128209
 30
0.0
 10
220.3875434676036
 20
54.25269506495266
 30
0.0
 10
220.4116024961148
 20
54.2372576750938
 30
0.0
 10
220.4538348045061
 20
54.21018809813842
 30
0.0
 10
220.5383946236744
 20
54.1559778226487
 30
0.0
 10
220.6616804847447
 20
54.0769754840399
 30
0.0
 10
220.8078068726245
 20
53.98337215492628
 30
0.0
 10
220.9061705150259
 20
53.92039127787926
 30
0.0
 10
220.9532379864466
 20
53.89025462821797
 30
0.0
  0
LINE
  5
1FB
330
1F
100
AcDbEntity
  8
0
  6
Continuous
 62
     7
370
    25
100
AcDbLine
 10
218.5670227409
 20
55.4268469087
 30
0.0
 11
218.8579900951
 21
55.2387683695
 31
0.0
  0
SPLINE
  5
1FC
330
1F
100
AcDbEntity
  8
0
  6
Continuous
 62
     7
370
    25
100
AcDbSpline
210
0.0
220
0.0
230
1.0
 70
     8
 71
     3
 72
     8
 73
     4
 74
     0
 42
0.000000001
 43
0.00000001
 40
0.0
 40
0.0
 40
0.0
 40
0.0
 40
1.0
 40
1.0
 40
1.0
 40
1.0
 10
218.8893783984615
 20
55.21854583934859
 30
0.0
 10
218.8789358926097
 20
55.22537126424595
 30
0.0
 10
218.86846995972
 20
55.23211423103244
 30
0.0
 10
218.8579821949035
 20
55.2387733186854
 30
0.0
  0
SPLINE
  5
1FD
330
1F
100
AcDbEntity
  8
0
  6
Continuous
 62
     7
370
    25
100
AcDbSpline
210
0.0
220
0.0
230
1.0
 70
     8
 71
     3
 72
     8
 73
     4
 74
     0
 42
0.000000001
 43
0.00000001
 40
0.0
 40
0.0
 40
0.0
 40
0.0
 40
1.0
 40
1.0
 40
1.0
 40
1.0
 10
216.1033740196355
 20
57.09680149115913
 30
0.0
 10
216.1623737838062
 20
57.05806082423966
 30
0.0
 10
216.2216613473175
 20
57.01999884693989
 30
0.0
 10
216.2812424208066
 20
56.98261505847913
 30
0.0
  0
SPLINE
  5
1FE
330
1F
100
AcDbEntity
  8
0
  6
Continuous
 62
     7
370
    25
100
AcDbSpline
210
0.0
220
0.0
230
1.0
 70
     8
 71
     3
 72
     8
 73
     4
 74
     0
 42
0.000000001
 43
0.00000001
 40
0.0
 40
0.0
 40
0.0
 40
0.0
 40
1.0
 40
1.0
 40
1.0
 40
1.0
 10
216.0785242735382
 20
57.46001166909599
 30
0.0
 10
216.0859984856287
 20
57.33905382838488
 30
0.0
 10
216.0942945895187
 20
57.21798198597495
 30
0.0
 10
216.1033740196376
 20
57.09680149115985
 30
0.0
  0
LWPOLYLINE
  5
1FF
330
1F
100
AcDbEntity
  8
0
  6
Continuous
 62
     7
370
    25
100
AcDbPolyline
 90
       15
 70
   128
 43
0.0
 10
216.0785246323
 20
57.4600110037
 10
216.4939759963
 20
58.6242623802
 10
216.9985073587
 20
59.7788079753
 10
217.5854595176
 20
60.9084087375
 10
218.2470846968
 20
61.9981530966
 10
218.9746486205
 20
63.0336558156
 10
219.7585474048
 20
64.0012479048
 10
220.58843334
 20
64.8881572201
 10
221.4533515381
 20
65.6826755622
 10
222.341884566
 20
66.3743151753
 10
223.2423034991
 20
66.9539461395
 10
224.1427224322
 20
67.4139167469
 10
225.0312554601
 20
67.7481555314
 10
225.8961736582
 20
67.9522504847
 10
226.0424871013
 20
67.9741186951
  0
SPLINE
  5
200
330
1F
100
AcDbEntity
  8
0
  6
Continuous
 62
     7
370
    25
100
AcDbSpline
210
0.0
220
0.0
230
1.0
 70
     8
 71
     3
 72
    10
 73
     6
 74
     0
 42
0.000000001
 43
0.00000001
 40
0.0
 40
0.0
 40
0.0
 40
0.0
 40
0.2409536028783486
 40
0.5031434696391622
 40
1.0
 40
1.0
 40
1.0
 40
1.0
 10
222.1291782295768
 20
46.56630293214217
 30
0.0
 10
222.2114165820211
 20
46.51463294339632
 30
0.0
 10
222.3831413020166
 20
46.40673907045461
 30
0.0
 10
222.6608579692168
 20
46.27700673182564
 30
0.0
 10
222.7818416903423
 20
46.29978629227768
 30
0.0
 10
222.8610352049107
 20
46.31469733514972
 30
0.0
  0
LINE
  5
201
330
1F
100
AcDbEntity
  8
0
  6
Continuous
 62
     7
370
    25
100
AcDbLine
 10
217.3460041734
 20
56.2953756651
 30
0.0
 11
216.5841254711
 21
56.7860100728
 31
0.0
  0
LINE
  5
202
330
1F
100
AcDbEntity
  8
0
  6
Continuous
 62
     7
370
    25
100
AcDbLine
 10
216.5841254711
 20
56.7860100728
 30
0.0
 11
216.1033741508
 21
57.0968014488
 31
0.0
  0
LINE
  5
203
330
1F
100
AcDbEntity
  8
0
  6
Continuous
 62
     7
370
    25
100
AcDbLine
 10
221.18330746
 20
46.2905231312
 30
0.0
 11
221.4892415552
 21
46.9785345723
 31
0.0
  0
LINE
  5
204
330
1F
100
AcDbEntity
  8
0
  6
Continuous
 62
     7
370
    25
100
AcDbLine
 10
221.4892415552
 20
46.9785345723
 30
0.0
 11
222.1291782296
 21
46.5663029321
 31
0.0
  0
SPLINE
  5
205
330
1F
100
AcDbEntity
  8
0
  6
Continuous
 62
     7
370
    25
100
AcDbSpline
210
0.0
220
0.0
230
1.0
 70
     8
 71
     3
 72
    13
 73
     9
 74
     0
 42
0.000000001
 43
0.00000001
 40
0.0
 40
0.0
 40
0.0
 40
0.0
 40
0.1722808990503593
 40
0.3421751864003435
 40
0.5097853609077583
 40
0.6752181678241594
 40
0.8385846213644129
 40
1.0
 40
1.0
 40
1.0
 40
1.0
 10
221.1031700360858
 20
47.25984427766078
 30
0.0
 10
221.1263245758076
 20
47.24172240845515
 30
0.0
 10
221.1723128948205
 20
47.20572971276141
 30
0.0
 10
221.2398595398889
 20
47.15472643277552
 30
0.0
 10
221.3055211451728
 20
47.10640126420366
 30
0.0
 10
221.3690434840599
 20
47.06097211724277
 30
0.0
 10
221.4304684450998
 20
47.01815031862368
 30
0.0
 10
221.46972941093
 20
46.9916869692924
 30
0.0
 10
221.489241966859
 20
46.97853478179577
 30
0.0
  0
SPLINE
  5
206
330
1F
100
AcDbEntity
  8
0
  6
Continuous
 62
     7
370
    25
100
AcDbSpline
210
0.0
220
0.0
230
1.0
 70
     8
 71
     3
 72
    11
 73
     7
 74
     0
 42
0.000000001
 43
0.00000001
 40
0.0
 40
0.0
 40
0.0
 40
0.0
 40
0.2392702281456497
 40
0.5001120575623568
 40
0.7515010343518018
 40
1.0
 40
1.0
 40
1.0
 40
1.0
 10
220.9537705327481
 20
47.30714696781583
 30
0.0
 10
220.9067055329175
 20
47.27883517153107
 30
0.0
 10
220.8083323500653
 20
47.21965910602979
 30
0.0
 10
220.6620404550161
 20
47.12647312182821
 30
0.0
 10
220.5142016208701
 20
47.03110261413249
 30
0.0
 10
220.4179182735451
 20
46.96656942565109
 30
0.0
 10
220.3700549222053
 20
46.93448937485131
 30
0.0
  0
SPLINE
  5
207
330
1F
100
AcDbEntity
  8
0
  6
Continuous
 62
     7
370
    25
100
AcDbSpline
210
0.0
220
0.0
230
1.0
 70
     8
 71
     3
 72
     9
 73
     5
 74
     0
 42
0.000000001
 43
0.00000001
 40
0.0
 40
0.0
 40
0.0
 40
0.0
 40
0.5090786773532814
 40
1.0
 40
1.0
 40
1.0
 40
1.0
 10
220.9543319600798
 20
47.30647774664198
 30
0.0
 10
220.9799865820849
 20
47.29898227912329
 30
0.0
 10
221.0303808003979
 20
47.28425868559616
 30
0.0
 10
221.0791966804512
 20
47.26785909511222
 30
0.0
 10
221.1031614368531
 20
47.25980818646099
 30
0.0
  0
LINE
  5
208
330
1F
100
AcDbEntity
  8
0
  6
Continuous
 62
     7
370
    25
100
AcDbLine
 10
222.7842792083
 20
48.2303378829
 30
0.0
 11
221.103163252
 21
47.2598502987
 31
0.0
  0
LINE
  5
209
330
1F
100
AcDbEntity
  8
0
  6
Continuous
 62
     7
370
    25
100
AcDbLine
 10
219.0966756007
 20
48.3836715974
 30
0.0
 11
218.8963799472
 21
47.8825141831
 31
0.0
  0
SPLINE
  5
20A
330
1F
100
AcDbEntity
  8
0
  6
Continuous
 62
     7
370
    25
100
AcDbSpline
210
0.0
220
0.0
230
1.0
 70
     8
 71
     3
 72
     8
 73
     4
 74
     0
 42
0.000000001
 43
0.00000001
 40
0.0
 40
0.0
 40
0.0
 40
0.0
 40
1.0
 40
1.0
 40
1.0
 40
1.0
 10
219.0962324300537
 20
48.38445534952324
 30
0.0
 10
219.1224077646229
 20
48.40662272650151
 30
0.0
 10
219.1482288045883
 20
48.42925486759312
 30
0.0
 10
219.1736863582967
 20
48.4523395876844
 30
0.0
  0
LINE
  5
20B
330
1F
100
AcDbEntity
  8
0
  6
Continuous
 62
     7
370
    25
100
AcDbLine
 10
219.173686454
 20
48.4523394721
 30
0.0
 11
220.9539502373
 21
47.3065868351
 31
0.0
  0
LINE
  5
20C
330
1F
100
AcDbEntity
  8
0
  6
Continuous
 62
     7
370
    25
100
AcDbLine
 10
222.7840704497
 20
48.3283574045
 30
0.0
 11
222.6959848534
 21
48.4359051182
 31
0.0
  0
LINE
  5
20D
330
1F
100
AcDbEntity
  8
0
  6
Continuous
 62
     7
370
    25
100
AcDbLine
 10
220.8676631261
 20
49.4302513894
 30
0.0
 11
219.173686454
 21
48.4523394721
 31
0.0
  0
LINE
  5
20E
330
1F
100
AcDbEntity
  8
0
  6
Continuous
 62
     7
370
    25
100
AcDbLine
 10
221.0103572086
 20
49.4089592277
 30
0.0
 11
220.8680832775
 21
49.4297640119
 31
0.0
  0
LINE
  5
20F
330
1F
100
AcDbEntity
  8
0
  6
Continuous
 62
     7
370
    25
100
AcDbLine
 10
222.696030293
 20
48.4358408695
 30
0.0
 11
221.0103572086
 21
49.4089592277
 31
0.0
  0
LINE
  5
210
330
1F
100
AcDbEntity
  8
0
  6
Continuous
 62
     7
370
    25
100
AcDbLine
 10
222.7840704497
 20
48.3850102578
 30
0.0
 11
222.6960026341
 21
48.4358560651
 31
0.0
  0
SPLINE
  5
211
330
1F
100
AcDbEntity
  8
0
  6
Continuous
 62
     7
370
    25
100
AcDbSpline
210
0.0
220
0.0
230
1.0
 70
     8
 71
     3
 72
    19
 73
    15
 74
     0
 42
0.000000001
 43
0.00000001
 40
0.0
 40
0.0
 40
0.0
 40
0.0
 40
0.0637766826454772
 40
0.1289474638354589
 40
0.19556696593294
 40
0.2636863254141702
 40
0.3333533751451132
 40
0.4046128304587784
 40
0.4775064753088331
 40
0.5520733455852129
 40
0.6283499073842573
 40
0.7063702286264717
 40
0.8377042578124847
 40
1.0
 40
1.0
 40
1.0
 40
1.0
 10
218.3121633240923
 20
48.55294343687511
 30
0.0
 10
218.3328507249121
 20
48.53958646119857
 30
0.0
 10
218.3746777337562
 20
48.51258053886837
 30
0.0
 10
218.4351640320742
 20
48.47506242201666
 30
0.0
 10
218.4946450218986
 20
48.43954463445995
 30
0.0
 10
218.5527243745204
 20
48.40656476903803
 30
0.0
 10
218.6092560851794
 20
48.3763572797363
 30
0.0
 10
218.6640020738009
 20
48.34924183317595
 30
0.0
 10
218.7167266393852
 20
48.32550764819759
 30
0.0
 10
218.7671715998141
 20
48.30546468309952
 30
0.0
 10
218.8150588009271
 20
48.28934237337633
 30
0.0
 10
218.8700260395607
 20
48.27506321156569
 30
0.0
 10
218.9328589430619
 20
48.26492447352508
 30
0.0
 10
218.9713664414033
 20
48.27139871412815
 30
0.0
 10
218.9926503970249
 20
48.2749771717173
 30
0.0
  0
LINE
  5
212
330
1F
100
AcDbEntity
  8
0
  6
Continuous
 62
     7
370
    25
100
AcDbLine
 10
219.0172860847
 20
48.301047626
 30
0.0
 11
219.0960901547
 21
48.3844392297
 31
0.0
  0
SPLINE
  5
213
330
1F
100
AcDbEntity
  8
0
  6
Continuous
 62
     7
370
    25
100
AcDbSpline
210
0.0
220
0.0
230
1.0
 70
     8
 71
     3
 72
     9
 73
     5
 74
     0
 42
0.000000001
 43
0.00000001
 40
0.0
 40
0.0
 40
0.0
 40
0.0
 40
0.5232334307013496
 40
1.0
 40
1.0
 40
1.0
 40
1.0
 10
220.7014853464067
 20
49.33431954883945
 30
0.0
 10
220.6324588913774
 20
49.35936479709093
 30
0.0
 10
220.5005360229614
 20
49.40723109687591
 30
0.0
 10
220.2590925234219
 20
49.54482781448029
 30
0.0
 10
220.143980334467
 20
49.61042932947929
 30
0.0
  0
LINE
  5
214
330
1F
100
AcDbEntity
  8
0
  6
Continuous
 62
     7
370
    25
100
AcDbLine
 10
216.4144791375
 20
49.3763188921
 30
0.0
 11
216.8659502518
 21
49.488582865
 31
0.0
  0
LINE
  5
215
330
1F
100
AcDbEntity
  8
0
  6
Continuous
 62
     7
370
    25
100
AcDbLine
 10
216.8659502518
 20
49.488582865
 30
0.0
 11
218.3121627236
 21
48.552943532
 31
0.0
  0
SPLINE
  5
216
330
1F
100
AcDbEntity
  8
0
  6
Continuous
 62
     7
370
    25
100
AcDbSpline
210
0.0
220
0.0
230
1.0
 70
     8
 71
     3
 72
     8
 73
     4
 74
     0
 42
0.000000001
 43
0.00000001
 40
0.0
 40
0.0
 40
0.0
 40
0.0
 40
1.0
 40
1.0
 40
1.0
 40
1.0
 10
216.5852677081091
 20
48.98156923909179
 30
0.0
 10
216.5281424391858
 20
49.11335542288572
 30
0.0
 10
216.4712139474689
 20
49.24493964454481
 30
0.0
 10
216.4144798295202
 20
49.37631871144447
 30
0.0
  0
LINE
  5
217
330
1F
100
AcDbEntity
  8
0
  6
Continuous
 62
     7
370
    25
100
AcDbLine
 10
218.2036517109
 20
50.2608214797
 30
0.0
 11
216.8659502518
 21
49.488582865
 31
0.0
  0
LINE
  5
218
330
1F
100
AcDbEntity
  8
0
  6
Continuous
 62
     7
370
    25
100
AcDbLine
 10
219.1866801957
 20
50.1630680769
 30
0.0
 11
218.2036517109
 21
50.2608214797
 31
0.0
  0
LINE
  5
219
330
1F
100
AcDbEntity
  8
0
  6
Continuous
 62
     7
370
    25
100
AcDbLine
 10
220.1439803345
 20
49.6104293295
 30
0.0
 11
219.1866792079
 21
50.1630675066
 31
0.0
  0
SPLINE
  5
21A
330
1F
100
AcDbEntity
  8
0
  6
Continuous
 62
     7
370
    25
100
AcDbSpline
210
0.0
220
0.0
230
1.0
 70
     8
 71
     3
 72
     8
 73
     4
 74
     0
 42
0.000000001
 43
0.00000001
 40
0.0
 40
0.0
 40
0.0
 40
0.0
 40
1.0
 40
1.0
 40
1.0
 40
1.0
 10
216.4144798295202
 20
49.37631871144447
 30
0.0
 10
216.4113424917701
 20
49.41153501831699
 30
0.0
 10
216.4093500878722
 20
49.44717927454468
 30
0.0
 10
216.4085686905001
 20
49.48327617653956
 30
0.0
  0
LINE
  5
21B
330
1F
100
AcDbEntity
  8
0
  6
Continuous
 62
     7
370
    25
100
AcDbLine
 10
217.2196551656
 20
49.9515058912
 30
0.0
 11
216.408569359
 21
49.4832760216
 31
0.0
  0
SPLINE
  5
21C
330
1F
100
AcDbEntity
  8
0
  6
Continuous
 62
     7
370
    25
100
AcDbSpline
210
0.0
220
0.0
230
1.0
 70
     8
 71
     3
 72
     8
 73
     4
 74
     0
 42
0.000000001
 43
0.00000001
 40
0.0000004089325119
 40
0.0000004089325119
 40
0.0000004089325119
 40
0.0000004089325119
 40
0.0015399868451459
 40
0.0015399868451459
 40
0.0015399868451459
 40
0.0015399868451459
 10
217.2196542229889
 20
49.95150588789567
 30
0.0
 10
217.4581307910121
 20
50.04588227371203
 30
0.0
 10
217.6965777486808
 20
50.14031088564224
 30
0.0
 10
217.9349864875311
 20
50.23480426860471
 30
0.0
  0
LINE
  5
21D
330
1F
100
AcDbEntity
  8
0
  6
Continuous
 62
     7
370
    25
100
AcDbLine
 10
217.9349859665
 20
50.2348044157
 30
0.0
 11
217.9593824063
 21
50.2397984421
 31
0.0
  0
LINE
  5
21E
330
1F
100
AcDbEntity
  8
0
  6
Continuous
 62
     7
370
    25
100
AcDbLine
 10
218.2036517109
 20
50.2608214797
 30
0.0
 11
217.9593830649
 21
50.2397984421
 31
0.0
  0
SPLINE
  5
21F
330
1F
100
AcDbEntity
  8
0
  6
Continuous
 62
     7
370
    25
100
AcDbSpline
210
0.0
220
0.0
230
1.0
 70
     8
 71
     3
 72
     8
 73
     4
 74
     0
 42
0.000000001
 43
0.00000001
 40
0.0
 40
0.0
 40
0.0
 40
0.0
 40
1.0
 40
1.0
 40
1.0
 40
1.0
 10
219.1866784020391
 20
50.16306826119167
 30
0.0
 10
219.2172864361624
 20
50.14812825338555
 30
0.0
 10
219.2478379371343
 20
50.13325129599217
 30
0.0
 10
219.2783318752489
 20
50.11843773231125
 30
0.0
  0
ARC
  5
220
330
1F
100
AcDbEntity
  8
0
  6
Continuous
 62
     7
370
    25
100
AcDbCircle
 10
220.0673618823
 20
55.5917882064
 30
0.0
 40
6.549762100193493
100
AcDbArc
 50
283.6682343678
 51
294.9135532271
  0
LWPOLYLINE
  5
221
330
1F
100
AcDbEntity
  8
0
  6
Continuous
 62
     7
370
    18
100
AcDbPolyline
 90
       31
 70
   128
 43
0.0
 10
252.7449901139
 20
27.3925686235
 10
252.2647491657
 20
27.1310336532
 10
251.7978305728
 20
26.9921467889
 10
251.3646393369
 20
26.9819768915
 10
250.9841086126
 20
27.1009691463
 10
250.6728699414
 20
27.3439232784
 10
250.4445262187
 20
27.7002209988
 10
250.3090557109
 20
28.1542896577
 10
250.2723800501
 20
28.6862847591
 10
250.3361021338
 20
29.2729555996
 10
250.4974376358
 20
29.8886622638
 10
250.7493335442
 20
30.5064941942
 10
251.0807822878
 20
31.0994501926
 10
251.477297863
 20
31.6416150429
 10
251.9215500124
 20
32.1092932068
 10
252.394123527
 20
32.4820454538
 10
252.8743638167
 20
32.743580044
 10
253.3412830681
 20
32.8824672884
 10
253.774474304
 20
32.8926371859
 10
254.1550043698
 20
32.7736445509
 10
254.466243041
 20
32.5306904188
 10
254.6945874222
 20
32.1743930786
 10
254.8300572715
 20
31.7203240394
 10
254.8667329322
 20
31.1883289381
 10
254.8030108486
 20
30.6016580976
 10
254.6416760052
 20
29.9859518135
 10
254.3897800967
 20
29.3681198831
 10
254.0583313531
 20
28.7751638847
 10
253.661815778
 20
28.2329990345
 10
253.2175636285
 20
27.7653208705
 10
252.7449901139
 20
27.3925686235
  0
LWPOLYLINE
  5
222
330
1F
100
AcDbEntity
  8
0
  6
Continuous
 62
     7
370
    18
100
AcDbPolyline
 90
       17
 70
   128
 43
0.0
 10
250.6429219714
 20
27.0081871405
 10
250.3985571779
 20
27.1956605605
 10
250.1443497782
 20
27.5471156085
 10
249.9821924127
 20
28.0006028311
 10
249.9187258443
 20
28.5375575831
 10
249.9565473725
 20
29.1359962487
 10
250.0941081006
 20
29.7714183856
 10
250.3257761559
 20
30.417809782
 10
250.6420684977
 20
31.0487077418
 10
251.030034848
 20
31.6382827422
 10
251.473791772
 20
32.1623973753
 10
251.9551726608
 20
32.5995946038
 10
252.454469253
 20
32.931975741
 10
252.9512396684
 20
33.1459323205
 10
253.4251473941
 20
33.232705718
 10
253.8567897333
 20
33.1887431605
 10
254.0817083661
 20
33.1033350008
  0
LWPOLYLINE
  5
223
330
1F
100
AcDbEntity
  8
0
  6
Continuous
 62
     7
370
    18
100
AcDbPolyline
 90
       22
 70
   128
 43
0.0
 10
269.4592092918
 20
40.4459820823
 10
269.5893205645
 20
40.9101716791
 10
269.8412164729
 20
41.5280036096
 10
270.1726652165
 20
42.120959608
 10
270.5691807917
 20
42.6631244582
 10
271.0134329411
 20
43.1308026222
 10
271.4860064557
 20
43.5035548692
 10
271.966247404
 20
43.7650898395
 10
272.4331659969
 20
43.9039767037
 10
272.8663572327
 20
43.9141466012
 10
273.2468879571
 20
43.7951543463
 10
273.5581266282
 20
43.5522002143
 10
273.7864703509
 20
43.1959024939
 10
273.9219408588
 20
42.7418338349
 10
273.9586165195
 20
42.2098387336
 10
273.8948944358
 20
41.623167893
 10
273.7335589339
 20
41.0074612289
 10
273.4816630254
 20
40.3896292984
 10
273.1502142818
 20
39.7966733001
 10
272.7536987067
 20
39.2545084498
 10
272.3094465572
 20
38.7868302858
 10
272.2548571688
 20
38.7376315579
  0
LWPOLYLINE
  5
224
330
1F
100
AcDbEntity
  8
0
  6
Continuous
 62
     7
370
    18
100
AcDbPolyline
 90
       12
 70
   128
 43
0.0
 10
269.1417868877
 20
40.6292253911
 10
269.1859910293
 20
40.7929278009
 10
269.4176597432
 20
41.4393195775
 10
269.7339514264
 20
42.0702171571
 10
270.1219177768
 20
42.6597921575
 10
270.5656747007
 20
43.1839067906
 10
271.0470555895
 20
43.6211040191
 10
271.5463521817
 20
43.9534851563
 10
272.0431232557
 20
44.167442116
 10
272.5170303229
 20
44.2542151333
 10
272.9486726621
 20
44.2102525758
 10
273.1735919533
 20
44.1248447963
  0
LWPOLYLINE
  5
225
330
1F
100
AcDbEntity
  8
0
  6
Continuous
 62
     7
370
    18
100
AcDbPolyline
 90
       41
 70
   128
 43
0.0
 10
278.8032176317
 20
30.3863316878
 10
278.7544662403
 20
31.0735047895
 10
278.609411605
 20
31.6874697505
 10
278.3716256712
 20
32.2131088039
 10
278.046963558
 20
32.6374790822
 10
277.6434196666
 20
32.9501310751
 10
277.1709306104
 20
33.14336654
 10
276.6411304012
 20
33.2124272146
 10
276.0670646413
 20
33.1556125252
 10
275.4628686591
 20
32.974321348
 10
274.8434197983
 20
32.6730174398
 10
274.2239709375
 20
32.2591209168
 10
273.6197749553
 20
31.7428222616
 10
273.0457091953
 20
31.1368347326
 10
272.5159089862
 20
30.4560797569
 10
272.04341993
 20
29.7173200395
 10
271.6398760385
 20
28.9387461869
 10
271.3152139254
 20
28.1395290116
 10
271.0774279915
 20
27.3393481628
 10
270.9323733562
 20
26.5579066847
 10
270.8836219648
 20
25.8144464246
 10
270.9323733562
 20
25.127273323
 10
271.0774279915
 20
24.5133083619
 10
271.3152139254
 20
23.9876693086
 10
271.6398760385
 20
23.5632990303
 10
272.04341993
 20
23.2506470374
 10
272.5159089862
 20
23.0574115725
 10
273.0457091953
 20
22.9883508979
 10
273.6197749553
 20
23.0451655872
 10
274.2239709375
 20
23.2264567645
 10
274.8434197983
 20
23.5277606727
 10
275.4628686591
 20
23.9416571957
 10
276.0670646413
 20
24.4579558509
 10
276.6411304012
 20
25.0639433799
 10
277.1709306104
 20
25.7446983556
 10
277.6434196666
 20
26.483458073
 10
278.046963558
 20
27.2620319256
 10
278.3716256712
 20
28.0612491009
 10
278.609411605
 20
28.8614299496
 10
278.7544662403
 20
29.6428714278
 10
278.8032176317
 20
30.3863316878
  0
LWPOLYLINE
  5
226
330
1F
100
AcDbEntity
  8
0
  6
Continuous
 62
     7
370
    18
100
AcDbPolyline
 90
       22
 70
   128
 43
0.0
 10
271.4986162659
 20
23.1048086379
 10
271.2874263106
 20
23.2570128587
 10
270.9137325954
 20
23.6547859853
 10
270.6255179573
 20
24.1605873925
 10
270.4295377459
 20
24.7625617806
 10
270.3303856384
 20
25.4465990423
 10
270.3303856384
 20
26.1966661206
 10
270.4295377459
 20
26.995181969
 10
270.6255179573
 20
27.8234302927
 10
270.9137325954
 20
28.661997238
 10
271.2874263106
 20
29.4912279444
 10
271.7378398025
 20
30.2916856123
 10
272.2544157793
 20
31.0446082364
 10
272.8250462419
 20
31.73234832
 10
273.4363562334
 20
32.3387853525
 10
274.0740170191
 20
32.849704894
 10
274.7230823037
 20
33.2531322149
 10
275.3683386286
 20
33.539610242
 10
275.9946617885
 20
33.7024250852
 10
276.5873711081
 20
33.7377599866
 10
277.1325741794
 20
33.6447871073
 10
277.5603337402
 20
33.4599636123
  0
LWPOLYLINE
  5
227
330
1F
100
AcDbEntity
  8
0
  6
Continuous
 62
     7
370
    18
100
AcDbPolyline
 90
       36
 70
   128
 43
0.0
 10
247.2662560801
 20
29.7332047872
 10
247.3146788578
 20
31.0240629973
 10
247.4595691862
 20
32.3607268129
 10
247.6997930519
 20
33.7327350324
 10
248.0334696515
 20
35.129349336
 10
248.4579885148
 20
36.5396396453
 10
248.9700266261
 20
37.9525689137
 10
249.5655760835
 20
39.3570781055
 10
250.2399770262
 20
40.7421759272
 10
250.9879499027
 20
42.0970213352
 10
251.8036428866
 20
43.4110117443
 10
252.6806700719
 20
44.6738628734
 10
253.6121681075
 20
45.8756908699
 10
254.5908478937
 20
47.0070900621
 10
255.6090482529
 20
48.0592065291
 10
256.6588014551
 20
49.0238048252
 10
257.7318916637
 20
49.8933359408
 10
258.819920049
 20
50.6609954241
 10
259.9143716716
 20
51.3207741596
 10
261.0066808019
 20
51.8675082437
 10
262.0882987503
 20
52.2969211836
 10
263.1507602152
 20
52.6056500324
 10
264.1857501666
 20
52.7912779163
 10
265.1851685072
 20
52.852354632
 10
266.1411927159
 20
52.7884008715
 10
267.0463417273
 20
52.5999162002
 10
267.8935309194
 20
52.2883773416
 10
268.6761300661
 20
51.8562214407
 10
269.3880133865
 20
51.3068308509
 10
270.0236109111
 20
50.6445057521
 10
270.5779473362
 20
49.8744303063
 10
271.0466841704
 20
49.0026293077
 10
271.426153321
 20
48.0359278747
 10
271.7133840936
 20
46.9818902302
 10
271.9061308515
 20
45.8487674171
 10
271.9956823679
 20
44.8072050838
  0
LWPOLYLINE
  5
228
330
1F
100
AcDbEntity
  8
0
  6
Continuous
 62
     7
370
    18
100
AcDbPolyline
 90
       23
 70
   128
 43
0.0
 10
263.4237733411
 20
25.4554560286
 10
263.1507602152
 20
25.2006176414
 10
262.0882987503
 20
24.2826545938
 10
261.0066808019
 20
23.4632580321
 10
259.9143716716
 20
22.7488388387
 10
258.819920049
 20
22.1449906279
 10
257.7318916637
 20
21.6564392768
 10
256.6588014551
 20
21.2870068096
 10
255.6090482529
 20
21.0395858569
 10
254.5908478937
 20
20.9161132123
 10
253.6121681075
 20
20.9175527752
 10
252.6806700719
 20
21.0438960321
 10
251.8036428866
 20
21.2941531268
 10
250.9879499027
 20
21.6663644631
 10
250.2399770262
 20
22.1576187698
 10
249.5655760835
 20
22.7640698372
 10
248.9700266261
 20
23.4809722615
 10
248.4579885148
 20
24.3027149104
 10
248.0334696515
 20
25.222866173
 10
247.6997930519
 20
26.234225675
 10
247.4595691862
 20
27.328877323
 10
247.3146788578
 20
28.4982543261
 10
247.2662560801
 20
29.7332047872
  0
LWPOLYLINE
  5
229
330
1F
100
AcDbEntity
  8
0
  6
Continuous
 62
     7
370
    18
100
AcDbPolyline
 90
       26
 70
   128
 43
0.0
 10
246.559149183
 20
29.7332055475
 10
246.6075824974
 20
31.0421574503
 10
246.7525149727
 20
32.3970679986
 10
246.9928415713
 20
33.7876244687
 10
247.3267368077
 20
35.2032457613
 10
247.7516560661
 20
36.6331563558
 10
248.2643665513
 20
38.0664735713
 10
248.8609670458
 20
39.4922908346
 10
249.5369168851
 20
40.8997560061
 10
250.287070861
 20
42.2781565474
 10
251.1057200513
 20
43.617002789
 10
251.9866346247
 20
44.9061058731
 10
252.9231099397
 20
46.1356537958
 10
253.9080182399
 20
47.2962883994
 10
254.9338649594
 20
48.379178181
 10
255.9928420653
 20
49.3760825467
 10
257.0768902898
 20
50.2794105517
 10
258.1777592229
 20
51.0822913325
 10
259.2870706965
 20
51.7786122189
 10
260.3963821701
 20
52.3630750977
 10
261.4972511031
 20
52.8312305322
 10
262.5812993277
 20
53.1795179659
 10
263.6402764335
 20
53.4052825414
 10
264.666123153
 20
53.5068101711
 10
265.6510314532
 20
53.4833264859
 10
266.3953849691
 20
53.3764370802
  0
ARC
  5
22A
330
1F
100
AcDbEntity
  8
0
  6
Continuous
 62
     7
370
    18
100
AcDbCircle
 10
257.2334520316
 20
29.2394241407
 30
0.0
 40
10.68571763532678
100
AcDbArc
 50
177.35144893
 51
216.8584400705
  0
LWPOLYLINE
  5
22B
330
1F
100
AcDbEntity
  8
0
  6
Continuous
 62
     7
370
    18
100
AcDbPolyline
 90
       26
 70
   128
 43
0.0
 10
234.1632895181
 20
36.8891830128
 10
234.2117228325
 20
38.1981349156
 10
234.3566553078
 20
39.5530454639
 10
234.5969819064
 20
40.943601934
 10
234.9308771428
 20
42.3592232266
 10
235.3557964011
 20
43.7891338211
 10
235.8685068864
 20
45.2224510366
 10
236.4651073808
 20
46.6482682999
 10
237.1410572202
 20
48.0557334714
 10
237.8912111961
 20
49.4341340127
 10
238.7098603863
 20
50.7729802543
 10
239.5907749598
 20
52.0620833383
 10
240.5272502748
 20
53.2916312611
 10
241.512158575
 20
54.4522658647
 10
242.5380052945
 20
55.5351556463
 10
243.5969824003
 20
56.532060012
 10
244.6810306249
 20
57.435388017
 10
245.7818995579
 20
58.2382687978
 10
246.8912110315
 20
58.9345896842
 10
248.0005225052
 20
59.519052563
 10
249.1013914382
 20
59.9872079975
 10
250.1854396627
 20
60.3354954312
 10
251.2444167686
 20
60.5612600067
 10
252.2702634881
 20
60.6627876364
 10
253.2551717883
 20
60.6393039512
 10
253.9995253042
 20
60.5324145455
  0
ARC
  5
22C
330
1F
100
AcDbEntity
  8
0
  6
Continuous
 62
     7
370
    18
100
AcDbCircle
 10
244.8375923667
 20
36.395401606
 30
0.0
 40
10.68571763532715
100
AcDbArc
 50
177.35144893
 51
216.8584400705
  0
LWPOLYLINE
  5
22D
330
1F
100
AcDbEntity
  8
0
  6
Continuous
 62
     7
370
    18
100
AcDbPolyline
 90
       23
 70
   128
 43
0.0
 10
262.8226041941
 20
28.916797492
 10
262.8719993127
 20
29.7792049244
 10
263.0192650112
 20
30.6825778645
 10
263.2616574639
 20
31.6100880962
 10
263.5946616897
 20
32.5444581363
 10
264.0120745284
 20
33.4682821416
 10
264.5061202159
 20
34.3643509961
 10
265.0675955927
 20
35.2159728325
 10
265.6860416549
 20
36.0072834752
 10
266.3499376602
 20
36.7235423371
 10
267.046916472
 20
37.3514069263
 10
267.7639948854
 20
37.8791810208
 10
268.4878149835
 20
38.2970334693
 10
269.2048933969
 20
38.597180488
 10
269.9018722088
 20
38.7740305061
 10
270.5657682141
 20
38.8242896562
 10
271.1842142762
 20
38.747021638
 10
271.745689653
 20
38.5436654729
 10
272.2397353405
 20
38.2180096276
 10
272.6571481793
 20
37.7761202277
 10
272.990152405
 20
37.2262286828
 10
273.2325448577
 20
36.5785788199
 10
273.3758438133
 20
35.875618002
  0
LWPOLYLINE
  5
22E
330
1F
100
AcDbEntity
  8
0
  6
Continuous
 62
     7
370
    18
100
AcDbPolyline
 90
       12
 70
   128
 43
0.0
 10
267.3763315478
 20
25.4830316274
 10
267.046916472
 20
25.3594751977
 10
266.3499376602
 20
25.1826251796
 10
265.6860416549
 20
25.1323660296
 10
265.0675955927
 20
25.2096340477
 10
264.5061202159
 20
25.4129902129
 10
264.0120745284
 20
25.7386460581
 10
263.5946616897
 20
26.180535458
 10
263.2616574639
 20
26.7304270029
 10
263.0192650112
 20
27.3780768658
 10
262.8719993127
 20
28.1114204496
 10
262.8226041941
 20
28.916797492
  0
LWPOLYLINE
  5
22F
330
1F
100
AcDbEntity
  8
0
  6
Continuous
 62
     7
370
    18
100
AcDbPolyline
 90
       19
 70
   128
 43
0.0
 10
262.1154989434
 20
28.9167961614
 10
262.1638940622
 20
29.7973738077
 10
262.3082519574
 20
30.7187606755
 10
262.5461014408
 20
31.6651908898
 10
262.8733740244
 20
32.6204715356
 10
263.2844691164
 20
33.5682567985
 10
263.7723534615
 20
34.492330277
 10
264.328678691
 20
35.37688083
 10
264.9439262025
 20
36.2067730972
 10
265.6075689974
 20
36.967808228
 10
266.3082517928
 20
37.6469636003
 10
267.0339857859
 20
38.232620086
 10
267.7723534616
 20
38.7147555691
 10
268.5107211372
 20
39.0851212583
 10
269.2364551303
 20
39.3373794056
 10
269.9371379257
 20
39.4672151689
 10
270.6007807206
 20
39.4724056996
 10
271.2160282321
 20
39.352863089
 10
271.748083133
 20
39.1244782879
  0
ARC
  5
230
330
1F
100
AcDbEntity
  8
0
  6
Continuous
 62
     7
370
    18
100
AcDbCircle
 10
266.1399715303
 20
28.5313632544
 30
0.0
 40
4.042887350525415
100
AcDbArc
 50
174.5293382037
 51
234.1584883517
  0
LWPOLYLINE
  5
231
330
1F
100
AcDbEntity
  8
0
  6
Continuous
 62
     7
370
    18
100
AcDbPolyline
 90
       13
 70
   128
 43
0.0
 10
264.7671478318
 20
30.0393586396
 10
264.8154603033
 20
30.7227301575
 10
264.9590085181
 20
31.4422230916
 10
265.1936624142
 20
32.1771387424
 10
265.512671746
 20
32.9063350213
 10
265.9068588724
 20
33.6088340898
 10
266.3648839863
 20
34.2644263799
 10
266.8735705176
 20
34.8542520797
 10
267.418284455
 20
35.3613423577
 10
267.9833552378
 20
35.7711096792
 10
268.5525269419
 20
36.0717654952
 10
269.1094255167
 20
36.2546606967
 10
269.2007555972
 20
36.2734312827
  0
LWPOLYLINE
  5
232
330
1F
100
AcDbEntity
  8
0
  6
Continuous
 62
     7
370
    18
100
AcDbPolyline
 90
        3
 70
   128
 43
0.0
 10
264.9439505686
 20
28.8996295655
 10
264.8154603033
 20
29.411767514
 10
264.7671478318
 20
30.0393586396
  0
LWPOLYLINE
  5
233
330
1F
100
AcDbEntity
  8
0
  6
Continuous
 62
     7
370
    18
100
AcDbPolyline
 90
       21
 70
   128
 43
0.0
 10
253.7972125288
 20
33.5827034623
 10
253.8466165378
 20
34.4816359266
 10
253.9939829936
 20
35.4222278122
 10
254.2367903293
 20
36.3883854897
 10
254.5708844462
 20
37.363577836
 10
254.9905485194
 20
38.3311187404
 10
255.4886021088
 20
39.2744537898
 10
256.0565236485
 20
40.1774418182
 10
256.6845953264
 20
41.0246324622
 10
257.3620710134
 20
41.8015304064
 10
258.0773588443
 20
42.4948422312
 10
258.818219934
 20
43.0927055786
 10
259.571978124
 20
43.5848908457
 10
260.3257363141
 20
43.9629762606
 10
261.0665974038
 20
44.2204929201
 10
261.7818852347
 20
44.3530348461
 10
262.4593609217
 20
44.3583336806
 10
263.0874325996
 20
44.2362991605
 10
263.6553541393
 20
43.9890193847
 10
264.1534077287
 20
43.6207247696
 10
264.3998749255
 20
43.3623455923
  0
ARC
  5
234
330
1F
100
AcDbEntity
  8
0
  6
Continuous
 62
     7
370
    18
100
AcDbCircle
 10
256.8846251581
 20
32.2602179815
 30
0.0
 40
2.789827106902335
100
AcDbArc
 50
221.5596792088
 51
260.0854060269
  0
LINE
  5
235
330
1F
100
AcDbEntity
  8
0
  6
Continuous
 62
     7
370
    18
100
AcDbLine
 10
253.8038849018
 20
33.2660871771
 30
0.0
 11
253.7972125288
 21
33.5827034623
 31
0.0
  0
LWPOLYLINE
  5
236
330
1F
100
AcDbEntity
  8
0
  6
Continuous
 62
     7
370
    18
100
AcDbPolyline
 90
       17
 70
   128
 43
0.0
 10
254.5493263332
 20
33.4191807096
 10
254.598760306
 20
34.3004587398
 10
254.7461791161
 20
35.2230851601
 10
254.988952866
 20
36.1705959103
 10
255.3227489915
 20
37.1260827899
 10
255.7416106282
 20
38.0724944984
 10
256.2380636252
 20
38.9929429969
 10
256.8032485831
 20
39.8710023579
 10
257.4270795638
 20
40.6910039998
 10
258.098424366
 20
41.4383145241
 10
258.8053030774
 20
42.0995986273
 10
259.5351011956
 20
42.6630550613
 10
260.2747955297
 20
43.1186299345
 10
261.0111862342
 20
43.4581924874
 10
261.7311323619
 20
43.6756836224
 10
262.4217863477
 20
43.7672219897
 10
262.9520187266
 20
43.7477522955
  0
LWPOLYLINE
  5
237
330
1F
100
AcDbEntity
  8
0
  6
Continuous
 62
     7
370
    18
100
AcDbPolyline
 90
        3
 70
   128
 43
0.0
 10
254.6102219439
 20
32.5083770509
 10
254.598760306
 20
32.5949779294
 10
254.5493263332
 20
33.4191807096
  0
LWPOLYLINE
  5
238
330
1F
100
AcDbEntity
  8
0
  6
Continuous
 62
     7
370
    18
100
AcDbPolyline
 90
       19
 70
   128
 43
0.0
 10
254.2489352072
 20
33.6009382997
 10
254.2983046426
 20
34.4810666111
 10
254.4455314869
 20
35.4024895218
 10
254.6879881477
 20
36.3487637892
 10
255.0213489753
 20
37.3030039307
 10
255.43966402
 20
38.2481810789
 10
255.9354693385
 20
39.1674286772
 10
256.4999167266
 20
40.0443424701
 10
257.1229339108
 20
40.8632743121
 10
257.7934030135
 20
41.6096101002
 10
258.4993594333
 20
42.2700313547
 10
259.2282053785
 20
42.8327525579
 10
259.9669346774
 20
43.2877330655
 10
260.7023646683
 20
43.6268524181
 10
261.4213714646
 20
43.8440598459
 10
262.1111245615
 20
43.9354792853
 10
262.7593151034
 20
43.8994787973
 10
263.3543762501
 20
43.7367012026
 10
263.5928608997
 20
43.6275288256
  0
ARC
  5
239
330
1F
100
AcDbEntity
  8
0
  6
Continuous
 62
     7
370
    18
100
AcDbCircle
 10
257.330019453
 20
32.472882029
 30
0.0
 40
2.857339730376477
100
AcDbArc
 50
211.7319897129
 51
236.9343780585
  0
LINE
  5
23A
330
1F
100
AcDbEntity
  8
0
  6
Continuous
 62
     7
370
    18
100
AcDbLine
 10
254.2834758666
 20
32.9080598278
 30
0.0
 11
254.2489352072
 21
33.6009382997
 31
0.0
  0
LWPOLYLINE
  5
23B
330
1F
100
AcDbEntity
  8
0
  6
Continuous
 62
     7
370
    18
100
AcDbPolyline
 90
       18
 70
   128
 43
0.0
 10
254.5016529792
 20
33.4550474353
 10
254.5510224146
 20
34.3351757467
 10
254.698249259
 20
35.2565986574
 10
254.9407059197
 20
36.2028729248
 10
255.2740667473
 20
37.1571130663
 10
255.692381792
 20
38.1022902145
 10
256.1881871105
 20
39.0215378128
 10
256.7526344986
 20
39.8984516057
 10
257.3756516829
 20
40.7173834477
 10
258.0461207855
 20
41.4637192358
 10
258.7520772054
 20
42.1241404903
 10
259.4809231506
 20
42.6868616935
 10
260.2196524494
 20
43.141842201
 10
260.9550824403
 20
43.4809615537
 10
261.6740892367
 20
43.6981689815
 10
262.3638423335
 20
43.7895884209
 10
263.0120328755
 20
43.7535879328
 10
263.368748984
 20
43.6731896933
  0
ARC
  5
23C
330
1F
100
AcDbEntity
  8
0
  6
Continuous
 62
     7
370
    18
100
AcDbCircle
 10
257.9241599207
 20
32.5948062811
 30
0.0
 40
3.288159881802842
100
AcDbArc
 50
202.5409256259
 51
225.4995897004
  0
LWPOLYLINE
  5
23D
330
1F
100
AcDbEntity
  8
0
  6
Continuous
 62
     7
370
    18
100
AcDbPolyline
 90
        3
 70
   128
 43
0.0
 10
254.5525617624
 20
32.6196921383
 10
254.5510224146
 20
32.6319198606
 10
254.5016529792
 20
33.4550474353
  0
LWPOLYLINE
  5
23E
330
1F
100
AcDbEntity
  8
0
  6
Continuous
 62
     7
370
    18
100
AcDbPolyline
 90
       20
 70
   128
 43
0.0
 10
233.8703959213
 20
38.9053895735
 10
233.919292851
 20
40.1369394284
 10
234.0655542691
 20
41.4141217992
 10
234.3078946968
 20
42.7257125644
 10
234.6441844011
 20
44.0601857779
 10
235.0714684927
 20
45.4058136681
 10
235.5859912924
 20
46.7507706289
 10
236.1832312336
 20
48.0832375903
 10
236.8579403751
 20
49.3915050568
 10
237.6041885236
 20
50.6640750057
 10
238.4154185514
 20
51.8897643047
 10
239.2845003971
 20
53.0578020464
 10
240.2037972494
 20
54.1579232685
 10
241.1652297549
 20
55.1804600139
 10
242.1603491169
 20
56.116426115
 10
243.1804105229
 20
56.957596085
 10
244.2164489595
 20
57.6965777827
 10
245.259360049
 20
58.3268780893
 10
246.2999785803
 20
58.8429566095
 10
246.8025620504
 20
59.051287357
  0
LWPOLYLINE
  5
23F
330
1F
100
AcDbEntity
  8
0
  6
Continuous
 62
     7
370
    18
100
AcDbPolyline
 90
        3
 70
   128
 43
0.0
 10
234.0179000129
 20
36.9052039549
 10
233.919292851
 20
37.730294912
 10
233.8703959213
 20
38.9053895735
  0
ARC
  5
240
330
1F
100
AcDbEntity
  8
0
  6
Continuous
 62
     7
370
    18
100
AcDbCircle
 10
244.2488895993
 20
43.1489765695
 30
0.0
 40
17.93992113970688
100
AcDbArc
 50
167.549530628
 51
179.6126086699
  0
LWPOLYLINE
  5
241
330
1F
100
AcDbEntity
  8
0
  6
Continuous
 62
     7
370
    18
100
AcDbPolyline
 90
       11
 70
   128
 43
0.0
 10
237.4127557807
 20
62.5303943919
 10
237.6983426435
 20
62.6917605283
 10
238.7389611749
 20
63.2078390485
 10
239.7681421875
 20
63.6051602416
 10
240.7768410666
 20
63.8802335761
 10
241.7561938853
 20
64.0306416592
 10
242.6975931376
 20
64.0550611426
 10
243.5927665167
 20
63.9532793026
 10
244.43384705
 20
63.7261889002
 10
245.2134425752
 20
63.3757872246
 10
245.3055821715
 20
63.3238275564
  0
LWPOLYLINE
  5
242
330
1F
100
AcDbEntity
  8
0
  6
Continuous
 62
     7
370
    18
100
AcDbPolyline
 90
       10
 70
   128
 43
0.0
 10
229.569360857
 20
36.0649391626
 10
229.2969229697
 20
36.2335019343
 10
228.6222138282
 20
36.7627668076
 10
228.024973887
 20
37.4056752106
 10
227.5104510873
 20
38.1565767917
 10
227.0831669956
 20
39.0088729705
 10
226.7468772914
 20
39.955074356
 10
226.5045368637
 20
40.9868648191
 10
226.3582754456
 20
42.095177351
 10
226.3093785158
 20
43.2702720126
  0
LWPOLYLINE
  5
243
330
1F
100
AcDbEntity
  8
0
  6
Continuous
 62
     7
370
    18
100
AcDbPolyline
 90
       13
 70
   128
 43
0.0
 10
230.9334599543
 20
39.9346353848
 10
230.8972459333
 20
40.116043023
 10
230.7528653183
 20
41.1871163662
 10
230.711662164
 20
42.328759385
 10
230.7740697929
 20
43.5289580439
 10
230.9394309774
 20
44.7750820785
 10
231.2060065015
 20
46.0540189547
 10
231.5709909656
 20
47.3523096931
 10
232.0305430796
 20
48.656292368
 10
232.5798271512
 20
49.9522445001
 10
233.2130624766
 20
51.2265284902
 10
233.9235859026
 20
52.4657349609
 10
234.7039209734
 20
53.656823816
  0
LWPOLYLINE
  5
244
330
1F
100
AcDbEntity
  8
0
  6
Continuous
 62
     7
370
    18
100
AcDbPolyline
 90
       16
 70
   128
 43
0.0
 10
231.4452557212
 20
37.0047076839
 10
230.9762337372
 20
37.7515349981
 10
230.5857346247
 20
38.6238754283
 10
230.2928805405
 20
39.5923898524
 10
230.1006441547
 20
40.6472457768
 10
230.010977393
 20
41.7777345602
 10
230.024790364
 20
42.9723794011
 10
230.1419427978
 20
44.2190522606
 10
230.361245363
 20
45.5050966762
 10
230.6804721791
 20
46.8174572298
 10
231.09638189
 20
48.1428107257
 10
231.6047525669
 20
49.4677019296
 10
232.200422538
 20
50.7786802581
 10
232.8773457061
 20
52.0624377979
 10
233.6286488422
 20
53.3059400993
 10
234.4467060009
 20
54.496565715
  0
ARC
  5
245
330
1F
100
AcDbEntity
  8
0
  6
Continuous
 62
     7
370
    18
100
AcDbCircle
 10
247.445937746
 20
46.8349540624
 30
0.0
 40
14.21094567369451
100
AcDbArc
 50
109.7806436426
 51
139.5760029973
  0
LWPOLYLINE
  5
246
330
1F
100
AcDbEntity
  8
0
  6
Continuous
 62
     7
370
    18
100
AcDbPolyline
 90
       12
 70
   128
 43
0.0
 10
235.7908990625
 20
56.1687292323
 10
236.7032436604
 20
57.1394648097
 10
237.6485721185
 20
58.0250071973
 10
238.6179772931
 20
58.8170128615
 10
239.6023257893
 20
59.5080198331
 10
240.592343407
 20
60.0915183268
 10
241.5787024396
 20
60.5620095027
 10
242.5521095068
 20
60.915060734
 10
243.5033936769
 20
61.147346593
 10
244.4235917473
 20
61.2566775499
 10
245.3040344736
 20
61.2420246564
 10
245.4298625727
 20
61.2293823214
  0
LINE
  5
247
330
1F
100
AcDbEntity
  8
0
  6
Continuous
 62
     7
370
    18
100
AcDbLine
 10
221.8230143024
 20
53.6428796113
 30
0.0
 11
222.1291782296
 21
53.2721445554
 31
0.0
  0
LINE
  5
248
330
1F
100
AcDbEntity
  8
0
  6
Continuous
 62
     7
370
    18
100
AcDbLine
 10
221.8230143024
 20
45.8787694636
 30
0.0
 11
222.1291782296
 21
46.5663029321
 31
0.0
  0
LINE
  5
249
330
1F
100
AcDbEntity
  8
0
  6
Continuous
 62
     7
370
    18
100
AcDbLine
 10
222.8650885464
 20
46.9911349152
 30
0.0
 11
222.1291854736
 21
46.566307114
 31
0.0
  0
LINE
  5
24A
330
1F
100
AcDbEntity
  8
0
  6
Continuous
 62
     7
370
    18
100
AcDbLine
 10
222.7985129893
 20
47.734360883
 30
0.0
 11
221.4892415552
 21
46.9785345723
 31
0.0
  0
LINE
  5
24B
330
1F
100
AcDbEntity
  8
0
  6
Continuous
 62
     7
370
    18
100
AcDbLine
 10
218.3121627236
 20
48.552943532
 30
0.0
 11
218.0156754494
 21
48.0568819141
 31
0.0
  0
LINE
  5
24C
330
1F
100
AcDbEntity
  8
0
  6
Continuous
 62
     7
370
    18
100
AcDbLine
 10
220.1439803345
 20
49.6104293295
 30
0.0
 11
218.3122233097
 21
48.5529785076
 31
0.0
  0
LINE
  5
24D
330
1F
100
AcDbEntity
  8
0
  6
Continuous
 62
     7
370
    18
100
AcDbLine
 10
220.1439803345
 20
49.6104293295
 30
0.0
 11
220.265290489
 21
49.5486788162
 31
0.0
  0
OLE2FRAME
  5
24E
330
1F
100
AcDbEntity
  8
0
100
AcDbOle2Frame
 70
     2
  3
Paintbrush-Bild
 10
13.8511154363
 20
38.264191557
 30
0.0
 11
51.6290888628
 21
31.9806341108
 31
0.0
 71
     2
 72
     0
 73
     1
 90
    12928
310
80552BED0767C5B32B40DDAF6807D121434000000000000000006FFBDDFB85D0
310
4940DDAF6807D121434000000000000000006FFBDDFB85D04940416F4BD60AFB
310
3F4000000000000000002BED0767C5B32B40416F4BD60AFB3F40000000000000
310
0000000000000100000000010000010000000100000000000100000000320000
310
D0CF11E0A1B11AE1000000000000000000000000000000003E000300FEFF0900
310
0600000000000000000000000100000001000000000000000010000002000000
310
01000000FEFFFFFF0000000000000000FFFFFFFFFFFFFFFFFFFFFFFFFFFFFFFF
310
FFFFFFFFFFFFFFFFFFFFFFFFFFFFFFFFFFFFFFFFFFFFFFFFFFFFFFFFFFFFFFFF
310
FFFFFFFFFFFFFFFFFFFFFFFFFFFFFFFFFFFFFFFFFFFFFFFFFFFFFFFFFFFFFFFF
310
FFFFFFFFFFFFFFFFFFFFFFFFFFFFFFFFFFFFFFFFFFFFFFFFFFFFFFFFFFFFFFFF
310
FFFFFFFFFFFFFFFFFFFFFFFFFFFFFFFFFFFFFFFFFFFFFFFFFFFFFFFFFFFFFFFF
310
FFFFFFFFFFFFFFFFFFFFFFFFFFFFFFFFFFFFFFFFFFFFFFFFFFFFFFFFFFFFFFFF
310
FFFFFFFFFFFFFFFFFFFFFFFFFFFFFFFFFFFFFFFFFFFFFFFFFFFFFFFFFFFFFFFF
310
FFFFFFFFFFFFFFFFFFFFFFFFFFFFFFFFFFFFFFFFFFFFFFFFFFFFFFFFFFFFFFFF
310
FFFFFFFFFFFFFFFFFFFFFFFFFFFFFFFFFFFFFFFFFFFFFFFFFFFFFFFFFFFFFFFF
310
FFFFFFFFFFFFFFFFFFFFFFFFFFFFFFFFFFFFFFFFFFFFFFFFFFFFFFFFFFFFFFFF
310
FFFFFFFFFFFFFFFFFFFFFFFFFFFFFFFFFFFFFFFFFFFFFFFFFFFFFFFFFFFFFFFF
310
FFFFFFFFFFFFFFFFFFFFFFFFFFFFFFFFFFFFFFFFFFFFFFFFFFFFFFFFFFFFFFFF
310
FFFFFFFFFFFFFFFFFFFFFFFFFFFFFFFFFFFFFFFFFFFFFFFFFFFFFFFFFFFFFFFF
310
FFFFFFFFFFFFFFFFFFFFFFFFFFFFFFFFFFFFFFFFFFFFFFFFFFFFFFFFFFFFFFFF
310
FDFFFFFFFEFFFFFFFEFFFFFFFEFFFFFF05000000060000000700000008000000
310
090000000A0000000B0000000C0000000D0000000E0000000F00000010000000
310
11000000120000001300000014000000150000001600000017000000FEFFFFFF
310
FFFFFFFFFFFFFFFFFFFFFFFFFFFFFFFFFFFFFFFFFFFFFFFFFFFFFFFFFFFFFFFF
310
FFFFFFFFFFFFFFFFFFFFFFFFFFFFFFFFFFFFFFFFFFFFFFFFFFFFFFFFFFFFFFFF
310
FFFFFFFFFFFFFFFFFFFFFFFFFFFFFFFFFFFFFFFFFFFFFFFFFFFFFFFFFFFFFFFF
310
FFFFFFFFFFFFFFFFFFFFFFFFFFFFFFFFFFFFFFFFFFFFFFFFFFFFFFFFFFFFFFFF
310
FFFFFFFFFFFFFFFFFFFFFFFFFFFFFFFFFFFFFFFFFFFFFFFFFFFFFFFFFFFFFFFF
310
FFFFFFFFFFFFFFFFFFFFFFFFFFFFFFFFFFFFFFFFFFFFFFFFFFFFFFFFFFFFFFFF
310
FFFFFFFFFFFFFFFFFFFFFFFFFFFFFFFFFFFFFFFFFFFFFFFFFFFFFFFFFFFFFFFF
310
FFFFFFFFFFFFFFFFFFFFFFFFFFFFFFFFFFFFFFFFFFFFFFFFFFFFFFFFFFFFFFFF
310
FFFFFFFFFFFFFFFFFFFFFFFFFFFFFFFFFFFFFFFFFFFFFFFFFFFFFFFFFFFFFFFF
310
FFFFFFFFFFFFFFFFFFFFFFFFFFFFFFFFFFFFFFFFFFFFFFFFFFFFFFFFFFFFFFFF
310
FFFFFFFFFFFFFFFFFFFFFFFFFFFFFFFFFFFFFFFFFFFFFFFFFFFFFFFFFFFFFFFF
310
FFFFFFFFFFFFFFFFFFFFFFFFFFFFFFFFFFFFFFFFFFFFFFFFFFFFFFFFFFFFFFFF
310
FFFFFFFFFFFFFFFFFFFFFFFFFFFFFFFFFFFFFFFFFFFFFFFFFFFFFFFFFFFFFFFF
310
52006F006F007400200045006E00740072007900000000000000000000000000
310
0000000000000000000000000000000000000000000000000000000000000000
310
16000500FFFFFFFFFFFFFFFF020000000A00030000000000C000000000000046
310
000000000000000000000000E08507B88DA9D30103000000C000000000000000
310
01004F006C006500000000000000000000000000000000000000000000000000
310
0000000000000000000000000000000000000000000000000000000000000000
310
0A000200FFFFFFFFFFFFFFFFFFFFFFFF00000000000000000000000000000000
310
0000000000000000000000000000000000000000000000001400000000000000
310
010043006F006D0070004F0062006A0000000000000000000000000000000000
310
0000000000000000000000000000000000000000000000000000000000000000
310
120002010100000003000000FFFFFFFF00000000000000000000000000000000
310
0000000000000000000000000000000000000000010000004D00000000000000
310
01004F006C006500310030004E00610074006900760065000000000000000000
310
0000000000000000000000000000000000000000000000000000000000000000
310
1A000200FFFFFFFFFFFFFFFFFFFFFFFF00000000000000000000000000000000
310
0000000000000000000000000000000000000000040000002426000000000000
310
FEFFFFFF02000000FEFFFFFFFFFFFFFFFFFFFFFFFFFFFFFFFFFFFFFFFFFFFFFF
310
FFFFFFFFFFFFFFFFFFFFFFFFFFFFFFFFFFFFFFFFFFFFFFFFFFFFFFFFFFFFFFFF
310
FFFFFFFFFFFFFFFFFFFFFFFFFFFFFFFFFFFFFFFFFFFFFFFFFFFFFFFFFFFFFFFF
310
FFFFFFFFFFFFFFFFFFFFFFFFFFFFFFFFFFFFFFFFFFFFFFFFFFFFFFFFFFFFFFFF
310
FFFFFFFFFFFFFFFFFFFFFFFFFFFFFFFFFFFFFFFFFFFFFFFFFFFFFFFFFFFFFFFF
310
FFFFFFFFFFFFFFFFFFFFFFFFFFFFFFFFFFFFFFFFFFFFFFFFFFFFFFFFFFFFFFFF
310
FFFFFFFFFFFFFFFFFFFFFFFFFFFFFFFFFFFFFFFFFFFFFFFFFFFFFFFFFFFFFFFF
310
FFFFFFFFFFFFFFFFFFFFFFFFFFFFFFFFFFFFFFFFFFFFFFFFFFFFFFFFFFFFFFFF
310
FFFFFFFFFFFFFFFFFFFFFFFFFFFFFFFFFFFFFFFFFFFFFFFFFFFFFFFFFFFFFFFF
310
FFFFFFFFFFFFFFFFFFFFFFFFFFFFFFFFFFFFFFFFFFFFFFFFFFFFFFFFFFFFFFFF
310
FFFFFFFFFFFFFFFFFFFFFFFFFFFFFFFFFFFFFFFFFFFFFFFFFFFFFFFFFFFFFFFF
310
FFFFFFFFFFFFFFFFFFFFFFFFFFFFFFFFFFFFFFFFFFFFFFFFFFFFFFFFFFFFFFFF
310
FFFFFFFFFFFFFFFFFFFFFFFFFFFFFFFFFFFFFFFFFFFFFFFFFFFFFFFFFFFFFFFF
310
FFFFFFFFFFFFFFFFFFFFFFFFFFFFFFFFFFFFFFFFFFFFFFFFFFFFFFFFFFFFFFFF
310
FFFFFFFFFFFFFFFFFFFFFFFFFFFFFFFFFFFFFFFFFFFFFFFFFFFFFFFFFFFFFFFF
310
FFFFFFFFFFFFFFFFFFFFFFFFFFFFFFFFFFFFFFFFFFFFFFFFFFFFFFFFFFFFFFFF
310
0100000200000000000000000000000000000000000000000000000000000000
310
0000000000000000000000000000000000000000000000000000000000000000
310
0100FEFF030A0000FFFFFFFF0A00030000000000C00000000000004607000000
310
5042727573680007000000504272757368000700000050427275736800F439B2
310
7100000000000000000000000000000000000000000000000000000000000000
310
0000000000000000000000000000000000000000000000000000000000000000
310
0000000000000000000000000000000000000000000000000000000000000000
310
0000000000000000000000000000000000000000000000000000000000000000
310
0000000000000000000000000000000000000000000000000000000000000000
310
0000000000000000000000000000000000000000000000000000000000000000
310
0000000000000000000000000000000000000000000000000000000000000000
310
0000000000000000000000000000000000000000000000000000000000000000
310
0000000000000000000000000000000000000000000000000000000000000000
310
0000000000000000000000000000000000000000000000000000000000000000
310
0000000000000000000000000000000000000000000000000000000000000000
310
0000000000000000000000000000000000000000000000000000000000000000
310
20260000424D0E260000000000003E00000028000000B40200006E0000000100
310
01000000000000000000130B0000130B00000200000002000000000000FFFFFF
310
FFFFFFFFFFFFFFFFFFFFFFFFFFFFFFFFFFFFFFFFFFFFFFFFFFFFFFFFFFFFFFFF
310
FFFFFFFFFFFFFFFFFFFFFFFFFFFFFFFFFFFFFFFFFFFFFFFFFFFFFFFFFFFFFFFF
310
FFFFFFFFFFFFFFFFFFFFFFFFFFFFFFFFFFFFFFFFFFFFFFFFF000FFFFFFFFFFFF
310
FFFFFFFFFFFFFFFFFFFFFFFFFFFFFFFFFFFFFFFFFFFFFFFFFFFFFFFFFFFFFFFF
310
FFFFFFFFFFFFFFFFFFFFFFFFFFFFFFFFFFFFFFFFFFFFFFFFFFFFFFFFFFFFFFFF
310
FFFFFFFFFFFFFFFFFFFFFFFFFFFFFFFFF000FFFFFFFFFFFFFFFFFFFFFFFFFFFF
310
FFFFFFFFFFFFFFFFFFFFFFFFFFFFFFFFFFFFFFFFFFFFFFFFFFFFFFFFFFFFFFFF
310
FFFFFFFFFFFFFFFFFFFFFFFFFFFFFFFFFFFFFFFFFFFFFFFFFFFFFFFFFFFFFFFF
310
FFFFFFFFFFFFFFFFF000FFFFFFFFFFFFFFFFFFFFFFFFFFFFFFFFFFFFFFFFFFFF
310
FFFFFFFFFFFFFFFFFFFFFFFFFFFFFFFFFFFFFFFFFFFFFFFFFFFFFFFFFFFFFFFF
310
FFFFFFFFFFFFFFFFFFFFFFFFFFFFFFFFFFFFFFFFFFFFFFFFFFFFFFFFFFFFFFFF
310
F000FFFFFFFFFFFFFFFFFFFFFFFFFFFFFFFFFFFFFFFFFFFFFFFFFFFFFFFFFFFF
310
FFFFFFFFFFFFFFFFFFFFFFFFFFFFFFFFFFFFFFFFFFFFFFFFFFFFFFFFFFFFFFFF
310
FFFFFFFFFFFFFFFFFFFFFFFFFFFFFFFFFFFFFFFFFFFFFFFFF000FFFFFFFFFFFF
310
FFFFFFFFFFFFFFFFFFFFFFFFFFFFFFFFFFFFFFFFFFFFFFFFFFFFFFFFFFFFFFFF
310
FFFFFFFFFFFFFFFFFFFFFFFFFFFFFFFFFFFFFFFFFFFFFFFFFFFFFFFFFFFFFFFF
310
FFFFFFFFFFFFFFFFFFFFFFFFFFFFFFFFF000FFFFFFFFFFFFFFFFFFFFFFFFFFFF
310
FFFFFFFFFFFFFFFFFFFFFFFFFFFFFFFFFFFFFFFFFFFFFFFFFFFFFFFFFFFFFFFF
310
FFFFFFFFFFFFFFFFFFFFFFFFFFFFFFFFFFFFFFFFFFFFFFFFFFFFFFFFFFFFFFFF
310
FFFFFFFFFFFFFFFFF000FFFFFFFFFFFFFFFFFFFFFFFFFFFFFFFFFFFFFFFFFFFF
310
FFFFFFFFFFFFFFFFFFFFFFFFFFFFFFFFFFFFFFFFFFFFFFFFFFFFFFFFFFFFFFFF
310
FFFFFFFFFFFFFFFFFFFFFFFFFFFFFFFFFFFFFFFFFFFFFFFFFFFFFFFFFFFFFFFF
310
F000FFFFFFFFFFFFFFFFFFFFFFFFFFFFFFFFFFFFFFFFFFFFFFFFFFFFFFFFFFFF
310
FFFFFFFFFFFFFFFFFFFFFFFFFFFFFFFFFFFFFFFFFFFFFFFFFFFFFFFFFFFFFFFF
310
FFFFFFFFFFFFFFFFFFFFFFFFFFFFFFFFFFFFFFFFFFFFFFFFF000FFFFFFFFFFFF
310
FFFFFFFFFFFFFFFFFFFFFFFFFFFFFFFFFFFFFFFFFFFFFFFFFFFFFFFFFFFFFFFF
310
FFFFFFFFFFFFFFFFFFFFFFFFFFFFFFFFFFFFFFFFFFFFFFFFFFFFFFFFFFFFFFFF
310
FFFFFFFFFFFFFFFFFFFFFFFFFFFFFFFFF000FFFFFFFFFFFFFFFFFFFFFFFFFFFF
310
FFFFFFFFFFFFFFFFFFFFFFFFFFFFFFFFFFFFFFFFFFFFFFFFFFFFFFFFFFFFFFFF
310
FFFFFFFFFFFFFFFFFFFFFFFFFFFFFFFFFFFFFFFFFFFFFFFFFFFFFFFFFFFFFFFF
310
FFFFFFFFFFFFFFFFF000FFFFFFFFFFFFFFFFFFFFFFFFFFFFFFFFFFFFFFFFFFFF
310
FFFFFFFFFFFFFFFFFFFFFFFFFFFFFFFFFFFFFFFFFFFFFFFFFFFFFFFFFFFFFFFF
310
FFFFFFFFFFFFFFFFFFFFFFFFFFFFFFFFFFFFFFFFFFFFFFFFFFFFFFFFFFFFFFFF
310
F000FFFFFFFFFFFFFFFFFFFFFFFFFFFFFFFFFFFFFFFFFFFFFFFFFFFFFFFFFFFF
310
FFFFFFFFFFFFFFFFFFFFFFFFFFFFFFFFFFFFFFFFFFFFFFFFFFFFFFFFFFFFFFFF
310
FFFFFFFFFFFFFFFFFFFFFFFFFFFFFFFFFFFFFFFFFFFFFFFFF000FFFFFFFFFFFF
310
FFFFFFFFFFFFFFFFFFFFFFFFFFFFFFFFFFFFFFFFFFFFFFFFFFFFFFFFFFFFFFFF
310
FFFFFFFFFFFFFFFFFFFFFFFFFFFFFFFFFFFFFFFFFFFFFFFFFFFFFFFFFFFFFFFF
310
FFFFFFFFFFFFFFFFFFFFFFFFFFFFFFFFF000FFFFFFFFFFFFFFFFFFFFFFFFFFFF
310
FFFFFFFFFFFFFFFFFFFFFFFFFFFFFFFFFFFFFFFFFFFFFFFFFFFFFFFFFFFFFFFF
310
FFFFFFFFFFFFFFFFFFFFFFFFFFFFFFFFFFFFFFFFFFFFFFFFFFFFFFFFFFFFFFFF
310
FFFFFFFFFFFFFFFFF000FFFFFFFFFFFFFFFFFFFFFFFFFFFFFFFFFFFFFFFFFFFF
310
FFFFFFFFFFFFFFFFFFFFFFFFFFFFFFFFFFFFFFFFFFFFFFFFFFFFFFFFFFFFFFFF
310
FFFFFFFFFFFFFFFFFFFFFFFFFFFFFFFFFFFFFFFFFFFFFFFFFFFFFFFFFFFFFFFF
310
F000FFFFFFFFFFFFFFFFFFFFFFFFFFFFFFFFFFFFFFFFFFFFFFFFFFFFFFFFFFFF
310
FFFFFFFFFFFFFFFFFFFFFFFFFFFFFFFFFFFFFFFFFFFFFFFFFFFFFFFFFFFFFFFF
310
FFFFFFFFFFFFFFFFFFFFFFFFFFFFFFFFFFFFFFFFFFFFFFFFF000FFFFFFFFFFFF
310
FFFFFFFFFFFFFFFFFFFFFFFFFFFFFFFFFFFFFFFFFFFFFFFFFFFFFFFFFFFFFFFF
310
FFFFFFFFFFFFFFFFFFFFFFFFFFFFFFFFFFFFFFFFFFFFFFFFFFFFFFFFFFFFFFFF
310
FFFFFFFFFFFFFFFFFFFFFFFFFFFFFFFFF000FFFFFFFFFFFFFFFFFFFFFFFFFFFF
310
FFFFFFFFFFFFFFFFFFFFFFFFFFFFFFFFFFFFFFFFFFFFFFFFFFFFFFFFFFFFFFFF
310
FFFFFFFFFFFFFFFFFFFFFFFFFFFFFFFFFFFFFFFFFFFFFFFFFFFFFFFFFFFFFFFF
310
FFFFFFFFFFFFFFFFF000FFFFF80003FFFFFFFFFFFFFFFFFFFFFFFFFFFFFFFFFF
310
FFFFF00007FFFFFFFFFF00007FFFFFF800000000000000007FFFFFFFFFFFFFFF
310
FFFFFFFC001FFFFFFFFFFFFFFC001FFFFFFFFFFFFFFFFFFFFFFFFFFE0007FFFF
310
F000FFFF8000007FFFFFFFF8000FFFFFC0007FFFFF80007FFFFF0000007FFFFF
310
FFF8000007FFFFF800000000000000007FFFFFF0001FFFFFFFFFFFC00001FFFF
310
FFFFFFFFC00001FFFFFFFF000000000003FFFFE000007FFFF000FFFE0000000F
310
FFFFFFF0000FFFFF80007FFFFF80007FFFFC0000001FFFFFFFC0000001FFFFF8
310
00000000000000007FFFFFF0001FFFFFFFFFFE0000003FFFFFFFFFFE0000003F
310
FFFFFF000000000003FFFF0000000FFFF000FFF800000003FFFFFFF00007FFFF
310
80007FFFFF80007FFFF000000007FFFFFF000000003FFFF80000000000000000
310
7FFFFFF0001FFFFFFFFFF80000000FFFFFFFFFF80000000FFFFFFF0000000000
310
03FFFC00000003FFF000FFE000000000FFFFFFF00007FFFF80003FFFFF80007F
310
FFC000000001FFFFFC000000001FFFF800000000000000007FFFFFF0001FFFFF
310
FFFFE000000003FFFFFFFFE000000003FFFFFF000000000003FFF000000000FF
310
F000FF80000000007FFFFFF00007FFFF80003FFFFF80007FFF8000000000FFFF
310
F80000000007FFF800000000000000007FFFFFF0001FFFFFFFFFC000000001FF
310
FFFFFFC000000001FFFFFF000000000003FFC0000000007FF000FF0000000000
310
3FFFFFE00007FFFF00003FFFFF80007FFE00000000003FFFF00000000003FFF8
310
00000000000000007FFFFFF0001FFFFFFFFF8000000000FFFFFFFF8000000000
310
FFFFFF000000000003FF80000000003FF000FE00000000001FFFFFE00003FFFF
310
00003FFFFF80007FFC00000000001FFFE00000000001FFF8000001FFFE000000
310
7FFFFFF0001FFFFFFFFE00000000003FFFFFFE00000000003FFFFF0000000000
310
03FF00000000001FF000FC00000000000FFFFFE00003FFFF00001FFFFF80007F
310
F800000000001FFFC00000000000FFF8000001FFFE0000007FFFFFF0001FFFFF
310
FFFC00000000001FFFFFFC00000000001FFFFF000000000003FE00000000000F
310
F000F8000000000007FFFFE00003FFFF00001FFFFF80007FF800000000000FFF
310
800000000000FFF8000001FFFE0000007FFFFFF0001FFFFFFFF800000000000F
310
FFFFF800000000000FFFFF000000000003FC000000000007F000F80000000000
310
03FFFFC00003FFFE00001FFFFF80007FF0000000000007FF0000000000007FF8
310
000001FFFE0000007FFFFFF0001FFFFFFFF0000000000007FFFFF00000000000
310
07FFFF000000000003F8000000000003F000F0000000000003FFFFC00001FFFE
310
00001FFFFF80007FE0000000000007FE0000000000003FF8000001FFFE000000
310
7FFFFFF0001FFFFFFFF0000000000007FFFFF0000000000007FFFF0000000000
310
03F800001F800003F000E00001FFF00001FFFFC00001FFFE00000FFFFF80007F
310
E00001FFE00003FE00001FFF00003FF8000001FFFE0000007FFFFFF0001FFFFF
310
FFE000003E000003FFFFE000003E000003FFFF000000000003F00001FFF80001
310
F000E00007FFFC0001FFFFC00001FFFE00000FFFFF80007FC0000FFFFC0003FC
310
0000FFFFC0001FF8000001FFFE0000007FFFFFF0001FFFFFFFC00003FFE00001
310
FFFFC00003FFE00001FFFF0001FFFFFFFFF00007FFFE0001F000E0000FFFFF00
310
00FFFF800001FFFC00000FFFFF80007FC0001FFFFE0001FC0001FFFFE0001FF8
310
000001FFFE0000007FFFFFF0001FFFFFFF80000FFFF80000FFFF80000FFFF800
310
00FFFF0003FFFFFFFFE0000FFFFF8000F000C0003FFFFF8000FFFF800000FFFC
310
000007FFFF80007F80003FFFFF0001FC0003FFFFF0001FF8000001FFFE000000
310
7FFFFFF0001FFFFFFF80003FFFFE0000FFFF80003FFFFE0000FFFF0003FFFFFF
310
FFE0003FFFFF8000F000C0003FFFFF8000FFFF800000FFFC000007FFFF80007F
310
80007FFFFF8001F80007FFFFF8000FF8000001FFFE0000007FFFFFF0001FFFFF
310
FF00007FFFFF00007FFF00007FFFFF00007FFF0003FFFFFFFFE0003FFFFFC000
310
F000C0007FFFFFC000FFFF000000FFFC000007FFFF80007F8000FFFFFF8000F8
310
000FFFFFF8000FF8000001FFFE0000007FFFFFF0001FFFFFFF0000FFFFFF8000
310
7FFF0000FFFFFF80007FFF0003FFFFFFFFC0007FFFFFC00070008000FFFFFFC0
310
00FFFF000000FFF8000007FFFF80007F8000FFFFFF8000F8000FFFFFF8000FF8
310
000001FFFE0000007FFFFFF0001FFFFFFE0001FFFFFFC0003FFE0001FFFFFFC0
310
003FFF0003FFFFFFFFC0007FFFFFE00070008000FFFFFFC0007FFF0000007FF8
310
000003FFFF80007F0001FFFFFF8000F8000FFFFFF8000FF8000001FFFE000000
310
7FFFFFF0001FFFFFFE0001FFFFFFC0003FFE0001FFFFFFC0003FFF0003FFFFFF
310
FFC000FFFFFFE00070008000FFFFFFC0007FFF0000007FF8000003FFFF80007F
310
0001FFFFFF8000F8001FFFFFF8000FF8000001FFFE0000007FFFFFF0001FFFFF
310
FE0003FFFFFFE0003FFE0003FFFFFFE0003FFF0003FFFFFFFFC000FFFFFFE000
310
70008000FFFFFFC0007FFE0000007FF8000003FFFF80007F0001FFFFFF8000F0
310
001FFFFFF8000FF8000001FFFE0000007FFFFFF0001FFFFFFC0003FFFFFFE000
310
1FFC0003FFFFFFE0001FFF0003FFFFFFFFC000FFFFFFC00070008000FFFFFF80
310
007FFE0000007FF0000003FFFF80007F0001FFFFFF0000F0001FFFFFF8000FF8
310
000001FFFE0000007FFFFFF0001FFFFFFC0007FFFFFFF0001FFC0007FFFFFFF0
310
001FFF0003FFFFFFFFC000FFFFFFC00070008001FFFFFF0000FFFE0000003FF0
310
000001FFFF80007F0001FFFFFF0000F8001FFFFFF0000FF8000001FFFE000000
310
7FFFFFF0001FFFFFFC0007FFFFFFF0001FFC0007FFFFFFF0001FFF0003FFFFFF
310
FFC001FFFFFF80007000FFFFFFFFFE0000FFFE0008003FF0008001FFFF80007F
310
FFFFFFFFFC0000FFFFFFFFFFE0000FF8000001FFFE0000007FFFFFF0001FFFFF
310
F8000FFFFFFFF8000FF8000FFFFFFFF8000FFF0003FFFFFFFFFFFFFFFFFF0000
310
7000FFFFFFFFFC0000FFFC0008003FF0008001FFFF80007FFFFFFFFFF80001FF
310
FFFFFFFF80000FF8000001FFFE0000007FFFFFF0001FFFFFF8000FFFFFFFF800
310
0FF8000FFFFFFFF8000FFF0003FFFFFFFFFFFFFFFFFE0000F000FFFFFFFFE000
310
00FFFC000C003FE000C001FFFF80007FFFFFFFFFC00001FFFFFFFFFE00001FF8
310
000001FFFE0000007FFFFFF0001FFFFFF8000FFFFFFFF8000FF8000FFFFFFFF8
310
000FFF0003FFFFFFFFFFFFFFFFF00000F000FFFFFFFE000001FFFC000C001FE0
310
00C000FFFF80007FFFFFFFFE000001FFFFFFFFE000001FF80FFFFFFFFFFFFFC0
310
7FFFFFF0001FFFFFF8000FFFFFFFF8000FF8000FFFFFFFF8000FFF0003FFFFFF
310
FFFFFFFFFF800000F000FFFFFFC0000001FFFC001C001FE001C000FFFF80007F
310
FFFFFF80000003FFFFFFF80000001FF80FFFFFFFFFFFFFC07FFFFFF0001FFFFF
310
F8001FFFFFFFFC000FF8001FFFFFFFFC000FFF0003FFFFFFFFFFFFFFF0000001
310
F000FFFFF800000001FFF8001C001FE001C000FFFF80007FFFFFF800000003FF
310
FFFF800000003FF80FFFFFFFFFFFFFC07FFFFFF0001FFFFFF8001FFFFFFFFC00
310
0FF8001FFFFFFFFC000FFF0003FFFFFFFFFFFFFE00000001F000FFFFC0000000
310
03FFF8001E001FC001E000FFFF80007FFFFF8000000007FFFFFC000000003FF8
310
0FFFFFFFFFFFFFC07FFFFFF0001FFFFFF8001FFFFFFFFC000FF8001FFFFFFFFC
310
000FFF0003FFFFFFFFFFFFE000000003F000FFFE0000000007FFF8001E000FC0
310
01E0007FFF80007FFFFE0000000007FFFFE0000000007FF80FFFFFFFFFFFFFC0
310
7FFFFFF0001FFFFFF0001FFFFFFFFC0007F0001FFFFFFFFC0007FF0003FFFFFF
310
FFFFFF0000000003F000FFF80000000007FFF8001E000FC003E0007FFF80007F
310
FFF0000000000FFFFF8000000000FFF80FFFFFFFFFFFFFC07FFFFFF0001FFFFF
310
F0001FFFFFFFFC0007F0001FFFFFFFFC0007FF0003FFFFFFFFFFFC0000000007
310
F000FFE0000000000FFFF0003E000FC003E0007FFF80007FFFC0000000001FFF
310
FE0000000001FFF80FFFFFFFFFFFFFC07FFFFFF0001FFFFFF0001FFFFFFFFC00
310
07F0001FFFFFFFFC0007FF0003FFFFFFFFFFF0000000000FF000FFC000000000
310
1FFFF0003F000F8003F0003FFF80007FFF80000000003FFFF80000000003FFF8
310
0FFFFFFFFFFFFFC07FFFFFF0001FFFFFF0001FFFFFFFFC0007F0001FFFFFFFFC
310
0007FF0003FFFFFFFFFFE0000000001FF000FF00000000007FFFF0003F000780
310
03F0003FFF80007FFF00000000007FFFF00000000007FFF80FFFFFFFFFFFFFC0
310
7FFFFFF0001FFFFFF0001FFFFFFFFC0007F0001FFFFFFFFC0007FF0003FFFFFF
310
FFFF80000000007FF000FE0000000000FFFFE0003F00078007F0003FFF80007F
310
FE0000000001FFFFE0000000001FFFF80FFFFFFFFFFFFFC07FFFFFF0001FFFFF
310
F0001FFFFFFFFC0007F0001FFFFFFFFC0007FF0003FFFFFFFFFF0000000000FF
310
F000FC0000000003FFFFE0007F00078007F0003FFF80007FFC0000000007FFFF
310
C0000000007FFFF80FFFFFFFFFFFFFC07FFFFFF0001FFFFFF8001FFFFFFFFC00
310
0FF8001FFFFFFFFC000FFF0003FFFFFFFFFE0000000003FFF000FC000000000F
310
FFFFE0007F80070007F8001FFF80007FF8000000001FFFFF8000000001FFFFF8
310
0FFFFFFFFFFFFFC07FFFFFF0001FFFFFF8001FFFFFFFFC000FF8001FFFFFFFFC
310
000FFF0003FFFFFFFFFC000000000FFFF000F8000000007FFFFFE0007F800700
310
07F8001FFF80007FF000000000FFFFFF800000000FFFFFF80FFFFFFFFFFFFFC0
310
7FFFFFF0001FFFFFF8000FFFFFFFF8000FF8000FFFFFFFF8000FFF0003FFFFFF
310
FFFC000000007FFFF000F800000007FFFFFFC0007F8003000FF8001FFF80007F
310
F000000007FFFFFF000000007FFFFFF80FFFFFFFFFFFFFC07FFFFFF0001FFFFF
310
F8000FFFFFFFF8000FF8000FFFFFFFF8000FFF0003FFFFFFFFF80000000FFFFF
310
F000F0000000FFFFFFFFC000FF8003000FF8001FFF80007FE0000000FFFFFFFF
310
0000000FFFFFFFF8000001FFFE0000007FFFFFF0001FFFFFF8000FFFFFFFF800
310
0FF8000FFFFFFFF8000FFF0003FFFFFFFFF8000000FFFFFFF000F000000FFFFF
310
FFFFC000FFC002000FF8000FFF80007FE000001FFFFFFFFE000001FFFFFFFFF8
310
000001FFFE0000007FFFFFF0001FFFFFF8000FFFFFFFF8000FF8000FFFFFFFF8
310
000FFF0003FFFFFFFFF000001FFFFFFFF000E00000FFFFFFFFFFC000FFC00200
310
0FFC000FFF80007FE00001FFFFFFFFFE00001FFFFFFFFFF8000001FFFE000000
310
7FFFFFF0001FFFFFFC000FFFFFFFF8001FFC000FFFFFFFF8001FFF0003FFFFFF
310
FFF00001FFFFFFFFF000E00007FFFFFFFFFF8000FFC000001FFC000FFF80007F
310
C0000FFFFFFFFFFE0000FFFFFFFFFFF8000001FFFE0000007FFFFFF0001FFFFF
310
FC0007FFFFFFF0001FFC0007FFFFFFF0001FFF0003FFFFFFFFF00007FFFFFFFF
310
F000E0001FFFFFFFFFFF8000FFC000001FFC000FFF80007FC0003FFFFFFFFFFE
310
0001FFFFFFFFFFF8000001FFFE0000007FFFFFF0001FFFFFFC0007FFFFFFF000
310
1FFC0007FFFFFFF0001FFF0003FFFFFFFFF0001FFFFFFFFFF000E0003FFFFF00
310
03FF8001FFE000001FFC0007FF80007FC0007FFFFF0007FC0003FFFFF0003FF8
310
000001FFFE0000007FFFFFF0001FFFFFFC0003FFFFFFE0001FFC0003FFFFFFE0
310
001FFF0003FFFFFFFFF0003FFFFFFFFFF000E0003FFFFF0001FF8001FFE00000
310
1FFE0007FF80007FC0007FFFFE0003FC0007FFFFE0003FF8000001FFFE000000
310
7FFFFFF0001FFFFFFE0003FFFFFFE0003FFE0003FFFFFFE0003FFF0003FFFFFF
310
FFF0003FFFFF8001F000E0003FFFFF0001FF0001FFE000001FFE0007FF80007F
310
C0007FFFFE0003FC0007FFFFE0003FF8000001FFFE0000007FFFFFF0001FFFFF
310
FE0001FFFFFFC0003FFE0001FFFFFFC0003FFF0003FFFFFFFFF0003FFFFF0001
310
F000E0003FFFFF0003FF0001FFE000003FFE0007FF80007FC0007FFFFE0003FC
310
0007FFFFE0003FF8000001FFFE0000007FFFFFF0001FFFFFFF0001FFFFFFC000
310
7FFF0001FFFFFFC0007FFF0003FFFFFFFFF0003FFFFF0001F000E0003FFFFE00
310
03FF0003FFF000003FFE0003FF80007FC0007FFFFC0003FE0007FFFFE0003FF8
310
000001FFFE0000007FFFFFF0001FFFFFFF0000FFFFFF80007FFF0000FFFFFF80
310
007FFF0003FFFFFFFFF0003FFFFF0001F000E0003FFFFE0003FF0003FFF00000
310
3FFF0003FF80007FC0007FFFFC0007FE0007FFFFC0003FF8000001FFFE000000
310
7FFFFFF0001FFFFFFF80007FFFFF0000FFFF80007FFFFF0000FFFF0003FFFFFF
310
FFF0003FFFFF0003F000E0003FFFFC0003FE0003FFF000003FFF0003FF80007F
310
E0003FFFF80007FE0003FFFFC0007FF8000001FFFE0000007FFFFFF0001FFFFF
310
FF80003FFFFE0000FFFF80003FFFFE0000FFFF0003FFFFFFFFF0001FFFFE0003
310
F000F0001FFFF80003FE0003FFF000007FFF0001FF80007FE0003FFFF00007FE
310
0001FFFF80007FF8000001FFFE0000007FFFFFF0001FFFFFFFC0000FFFF80001
310
FFFFC0000FFFF80001FFFF0003FFFFFFFFF0001FFFFC0003F000F0000FFFF000
310
07FE0007FFF800007FFF0001FF80007FE0001FFFE00007FF0000FFFE00007FF8
310
000001FFFE0000007FFFFFF0001FFFFFFFC00003FFE00001FFFFC00003FFE000
310
01FFFF0003FFFFFFFFF8000FFFF80003F000F00003FFC00007FC0007FFF80000
310
7FFF8001FF80007FF00007FF80000FFF00007FF80000FFF8000001FFFE000000
310
7F80000000000001FFE000003E000003FFFFE000003E000003FFFF0003FFFFFF
310
FFF80003FFE00007F000F800000000000FFC0007FFF800007FFF8001FF80007F
310
F000000000000FFF000000000000FFF8000001FFFE0000007F80000000000001
310
FFF0000000000007FFFFF0000000000007FFFF0003FFFFFFFFFC00007E000007
310
F000F800000000000FFC0007FFF80000FFFF8000FF80007FF800000000001FFF
310
800000000001FFF8000001FFFE0000007F80000000000001FFF800000000000F
310
FFFFF800000000000FFFFF0003FFFFFFFFFC00000000000FF000FC0000000000
310
1FFC0007FFFC0000FFFF8000FF80007FF800000000003FFFC00000000001FFF8
310
000001FFFE0000007F80000000000001FFF800000000000FFFFFF80000000000
310
0FFFFF0003FFFFFFFFFE00000000001FF000FE00000000003FF8000FFFFC0000
310
FFFF8000FF80007FFC00000000003FFFC00000000003FFF8000001FFFE000000
310
7F80000000000001FFFC00000000001FFFFFFC00000000001FFFFF0003FFFFFF
310
FFFF00000000001FF000FF00000000003FF8000FFFFC0000FFFFC000FF80007F
310
FE00000000007FFFE00000000007FFF8000001FFFE0000007F80000000000001
310
FFFE00000000003FFFFFFE00000000003FFFFF0003FFFFFFFFFF80000000003F
310
F000FF80000000007FF8000FFFFC0001FFFFC0007F80007FFF0000000000FFFF
310
F0000000000FFFF800000000000000007F80000000000001FFFF8000000000FF
310
FFFFFF8000000000FFFFFF0003FFFFFFFFFFC0000000007FF000FFC000000000
310
FFF8000FFFFE0001FFFFC0007F80007FFF8000000001FFFFF8000000001FFFF8
310
00000000000000007F80000000000001FFFFC000000001FFFFFFFFC000000001
310
FFFFFF0003FFFFFFFFFFE000000000FFF000FFE000000003FFF0001FFFFE0001
310
FFFFC0007F80007FFFC000000007FFFFFE000000003FFFF80000000000000000
310
7F80000000000001FFFFE000000003FFFFFFFFE000000003FFFFFF0003FFFFFF
310
FFFFF000000003FFF000FFF80000000FFFF0001FFFFE0001FFFFE0007F80007F
310
FFF00000000FFFFFFF00000000FFFFF800000000000000007F80000000000001
310
FFFFF80000000FFFFFFFFFF80000000FFFFFFF0003FFFFFFFFFFFC0000000FFF
310
F000FFFE0000003FFFF0001FFFFE0003FFFFE0003F80007FFFFC0000003FFFFF
310
FFC0000003FFFFF800000000000000007F80000000000001FFFFFE0000003FFF
310
FFFFFFFE0000003FFFFFFF0003FFFFFFFFFFFF0000003FFFF000FFFF800000FF
310
FFF0001FFFFF0003FFFFE0003F80007FFFFF000001FFFFFFFFF800001FFFFFF8
310
00000000000000007F80000000000001FFFFFFC00001FFFFFFFFFFFFC00001FF
310
FFFFFF0003FFFFFFFFFFFFC00000FFFFF000FFFFF8000FFFFFFFFFFFFFFFFFFF
310
FFFFFFFFFFFFFFFFFFFFF0001FFFFFFFFFFF0000FFFFFFF80000000000000000
310
7FFFFFFFFFFFFFFFFFFFFFFC001FFFFFFFFFFFFFFC001FFFFFFFFFFFFFFFFFFF
310
FFFFFFFC001FFFFFF000FFFFFFFFFFFFFFFFFFFFFFFFFFFFFFFFFFFFFFFFFFFF
310
FFFFFFFFFFFFFFFFFFFFFFFFFFFFFFFFFFFFFFFFFFFFFFFFFFFFFFFFFFFFFFFF
310
FFFFFFFFFFFFFFFFFFFFFFFFFFFFFFFFFFFFFFFFFFFFFFFFFFFFFFFFFFFFFFFF
310
F000FFFFFFFFFFFFFFFFFFFFFFFFFFFFFFFFFFFFFFFFFFFFFFFFFFFFFFFFFFFF
310
FFFFFFFFFFFFFFFFFFFFFFFFFFFFFFFFFFFFFFFFFFFFFFFFFFFFFFFFFFFFFFFF
310
FFFFFFFFFFFFFFFFFFFFFFFFFFFFFFFFFFFFFFFFFFFFFFFFF000FFFFFFFFFFFF
310
FFFFFFFFFFFFFFFFFFFFFFFFFFFFFFFFFFFFFFFFFFFFFFFFFFFFFFFFFFFFFFFF
310
FFFFFFFFFFFFFFFFFFFFFFFFFFFFFFFFFFFFFFFFFFFFFFFFFFFFFFFFFFFFFFFF
310
FFFFFFFFFFFFFFFFFFFFFFFFFFFFFFFFF000FFFFFFFFFFFFFFFFFFFFFFFFFFFF
310
FFFFFFFFFFFFFFFFFFFFFFFFFFFFFFFFFFFFFFFFFFFFFFFFFFFFFFFFFFFFFFFF
310
FFFFFFFFFFFFFFFFFFFFFFFFFFFFFFFFFFFFFFFFFFFFFFFFFFFFFFFFFFFFFFFF
310
FFFFFFFFFFFFFFFFF000FFFFFFFFFFFFFFFFFFFFFFFFFFFFFFFFFFFFFFFFFFFF
310
FFFFFFFFFFFFFFFFFFFFFFFFFFFFFFFFFFFFFFFFFFFFFFFFFFFFFFFFFFFFFFFF
310
FFFFFFFFFFFFFFFFFFFFFFFFFFFFFFFFFFFFFFFFFFFFFFFFFFFFFFFFFFFFFFFF
310
F000FFFFFFFFFFFFFFFFFFFFFFFFFFFFFFFFFFFFFFFFFFFFFFFFFFFFFFFFFFFF
310
FFFFFFFFFFFFFFFFFFFFFFFFFFFFFFFFFFFFFFFFFFFFFFFFFFFFFFFFFFFFFFFF
310
FFFFFFFFFFFFFFFFFFFFFFFFFFFFFFFFFFFFFFFFFFFFFFFFF000FFFFFFFFFFFF
310
FFFFFFFFFFFFFFFFFFFFFFFFFFFFFFFFFFFFFFFFFFFFFFFFFFFFFFFFFFFFFFFF
310
FFFFFFFFFFFFFFFFFFFFFFFFFFFFFFFFFFFFFFFFFFFFFFFFFFFFFFFFFFFFFFFF
310
FFFFFFFFFFFFFFFFFFFFFFFFFFFFFFFFF000FFFFFFFFFFFFFFFFFFFFFFFFFFFF
310
FFFFFFFFFFFFFFFFFFFFFFFFFFFFFFFFFFFFFFFFFFFFFFFFFFFFFFFFFFFFFFFF
310
FFFFFFFFFFFFFFFFFFFFFFFFFFFFFFFFFFFFFFFFFFFFFFFFFFFFFFFFFFFFFFFF
310
FFFFFFFFFFFFFFFFF000FFFFFFFFFFFFFFFFFFFFFFFFFFFFFFFFFFFFFFFFFFFF
310
FFFFFFFFFFFFFFFFFFFFFFFFFFFFFFFFFFFFFFFFFFFFFFFFFFFFFFFFFFFFFFFF
310
FFFFFFFFFFFFFFFFFFFFFFFFFFFFFFFFFFFFFFFFFFFFFFFFFFFFFFFFFFFFFFFF
310
F000FFFFFFFFFFFFFFFFFFFFFFFFFFFFFFFFFFFFFFFFFFFFFFFFFFFFFFFFFFFF
310
FFFFFFFFFFFFFFFFFFFFFFFFFFFFFFFFFFFFFFFFFFFFFFFFFFFFFFFFFFFFFFFF
310
FFFFFFFFFFFFFFFFFFFFFFFFFFFFFFFFFFFFFFFFFFFFFFFFF000FFFFFFFFFFFF
310
FFFFFFFFFFFFFFFFFFFFFFFFFFFFFFFFFFFFFFFFFFFFFFFFFFFFFFFFFFFFFFFF
310
FFFFFFFFFFFFFFFFFFFFFFFFFFFFFFFFFFFFFFFFFFFFFFFFFFFFFFFFFFFFFFFF
310
FFFFFFFFFFFFFFFFFFFFFFFFFFFFFFFFF000FFFFFFFFFFFFFFFFFFFFFFFFFFFF
310
FFFFFFFFFFFFFFFFFFFFFFFFFFFFFFFFFFFFFFFFFFFFFFFFFFFFFFFFFFFFFFFF
310
FFFFFFFFFFFFFFFFFFFFFFFFFFFFFFFFFFFFFFFFFFFFFFFFFFFFFFFFFFFFFFFF
310
FFFFFFFFFFFFFFFFF000FFFFFFFFFFFFFFFFFFFFFFFFFFFFFFFFFFFFFFFFFFFF
310
FFFFFFFFFFFFFFFFFFFFFFFFFFFFFFFFFFFFFFFFFFFFFFFFFFFFFFFFFFFFFFFF
310
FFFFFFFFFFFFFFFFFFFFFFFFFFFFFFFFFFFFFFFFFFFFFFFFFFFFFFFFFFFFFFFF
310
F000FFFFFFFFFFFFFFFFFFFFFFFFFFFFFFFFFFFFFFFFFFFFFFFFFFFFFFFFFFFF
310
FFFFFFFFFFFFFFFFFFFFFFFFFFFFFFFFFFFFFFFFFFFFFFFFFFFFFFFFFFFFFFFF
310
FFFFFFFFFFFFFFFFFFFFFFFFFFFFFFFFFFFFFFFFFFFFFFFFF000FFFFFFFFFFFF
310
FFFFFFFFFFFFFFFFFFFFFFFFFFFFFFFFFFFFFFFFFFFFFFFFFFFFFFFFFFFFFFFF
310
FFFFFFFFFFFFFFFFFFFFFFFFFFFFFFFFFFFFFFFFFFFFFFFFFFFFFFFFFFFFFFFF
310
FFFFFFFFFFFFFFFFFFFFFFFFFFFFFFFFF000FFFFFFFFFFFFFFFFFFFFFFFFFFFF
310
FFFFFFFFFFFFFFFFFFFFFFFFFFFFFFFFFFFFFFFFFFFFFFFFFFFFFFFFFFFFFFFF
310
FFFFFFFFFFFFFFFFFFFFFFFFFFFFFFFFFFFFFFFFFFFFFFFFFFFFFFFFFFFFFFFF
310
FFFFFFFFFFFFFFFFF000FFFFFFFFFFFFFFFFFFFFFFFFFFFFFFFFFFFFFFFFFFFF
310
FFFFFFFFFFFFFFFFFFFFFFFFFFFFFFFFFFFFFFFFFFFFFFFFFFFFFFFFFFFFFFFF
310
FFFFFFFFFFFFFFFFFFFFFFFFFFFFFFFFFFFFFFFFFFFFFFFFFFFFFFFFFFFFFFFF
310
F000FFFFFFFFFFFFFFFFFFFFFFFFFFFFFFFFFFFFFFFFFFFFFFFFFFFFFFFFFFFF
310
FFFFFFFFFFFFFFFFFFFFFFFFFFFFFFFFFFFFFFFFFFFFFFFFFFFFFFFFFFFFFFFF
310
FFFFFFFFFFFFFFFFFFFFFFFFFFFFFFFFFFFFFFFFFFFFFFFFF000FFFFFFFFFFFF
310
FFFFFFFFFFFFFFFFFFFFFFFFFFFFFFFFFFFFFFFFFFFFFFFFFFFFFFFFFFFFFFFF
310
FFFFFFFFFFFFFFFFFFFFFFFFFFFFFFFFFFFFFFFFFFFFFFFFFFFFFFFFFFFFFFFF
310
FFFFFFFFFFFFFFFFFFFFFFFFFFFFFFFFF000FFFFFFFFFFFFFFFFFFFFFFFFFFFF
310
FFFFFFFFFFFFFFFFFFFFFFFFFFFFFFFFFFFFFFFFFFFFFFFFFFFFFFFFFFFFFFFF
310
FFFFFFFFFFFFFFFFFFFFFFFFFFFFFFFFFFFFFFFFFFFFFFFFFFFFFFFFFFFFFFFF
310
FFFFFFFFFFFFFFFFF000FFFFFFFFFFFFFFFFFFFFFFFFFFFFFFFFFFFFFFFFFFFF
310
FFFFFFFFFFFFFFFFFFFFFFFFFFFFFFFFFFFFFFFFFFFFFFFFFFFFFFFFFFFFFFFF
310
FFFFFFFFFFFFFFFFFFFFFFFFFFFFFFFFFFFFFFFFFFFFFFFFFFFFFFFFFFFFFFFF
310
F000FFFFFFFFFFFFFFFFFFFFFFFFFFFFFFFFFFFFFFFFFFFFFFFFFFFFFFFFFFFF
310
FFFFFFFFFFFFFFFFFFFFFFFFFFFFFFFFFFFFFFFFFFFFFFFFFFFFFFFFFFFFFFFF
310
FFFFFFFFFFFFFFFFFFFFFFFFFFFFFFFFFFFFFFFFFFFFFFFFF000FFFFFFFFFFFF
310
FFFFFFFFFFFFFFFFFFFFFFFFFFFFFFFFFFFFFFFFFFFFFFFFFFFFFFFFFFFFFFFF
310
FFFFFFFFFFFFFFFFFFFFFFFFFFFFFFFFFFFFFFFFFFFFFFFFFFFFFFFFFFFFFFFF
310
FFFFFFFFFFFFFFFFFFFFFFFFFFFFFFFFF0000000000000000000000000000000
310
0000000000000000000000000000000000000000000000000000000000000000
310
0000000000000000000000000000000000000000000000000000000000000000
310
0000000000000000000000000000000000000000000000000000000000000000
310
0000000000000000000000000000000000000000000000000000000000000000
310
0000000000000000000000000000000000000000000000000000000000000000
310
0000000000000000000000000000000000000000000000000000000000000000
310
0000000000000000000000000000000000000000000000000000000000000000
310
0000000000000000000000000000000000000000000000000000000000000000
310
0000000000000000000000000000000000000000000000000000000000000000
310
0000000000000000000000000000000000000000000000000000000000000000
310
0000000000000000000000000000000000000000000000000000000000000000
310
0000000000000000000000000000000000000000000000000000000000000000
310
0000000000000000000000000000000000000000000000000000000000000000
310
0000000000000000000000000000000000000000000000000000000000000000
310
0000000000000000000000000000000000000000000000000000000000000000
  1
OLE
  0
ENDSEC
  0
SECTION
  2
OBJECTS
  0
DICTIONARY
  5
C
330
0
100
AcDbDictionary
281
     1
  3
ACAD_GROUP
350
D
  3
ACAD_LAYOUT
350
1A
  3
ACAD_MLINESTYLE
350
17
  3
ACAD_PLOTSETTINGS
350
19
  3
ACAD_PLOTSTYLENAME
350
E
  3
ACAD_SCALELIST
350
47
  0
DICTIONARY
  5
D
102
{ACAD_REACTORS
330
C
102
}
330
C
100
AcDbDictionary
281
     1
  0
DICTIONARY
  5
1A
102
{ACAD_REACTORS
330
C
102
}
330
C
100
AcDbDictionary
281
     1
  3
Layout1
350
1E
  3
Layout2
350
26
  3
Model
350
22
  0
DICTIONARY
  5
17
102
{ACAD_REACTORS
330
C
102
}
330
C
100
AcDbDictionary
281
     1
  3
Standard
350
18
  0
DICTIONARY
  5
19
102
{ACAD_REACTORS
330
C
102
}
330
C
100
AcDbDictionary
281
     1
  0
ACDBDICTIONARYWDFLT
  5
E
102
{ACAD_REACTORS
330
C
102
}
330
C
100
AcDbDictionary
281
     1
  3
Normal
350
F
100
AcDbDictionaryWithDefault
340
F
  0
DICTIONARY
  5
47
102
{ACAD_REACTORS
330
C
102
}
330
C
100
AcDbDictionary
281
     1
  3
A0
350
48
  3
A1
350
49
  3
A2
350
4A
  3
A3
350
4B
  3
A4
350
4C
  3
A5
350
4D
  3
A6
350
4E
  3
A7
350
4F
  3
A8
350
50
  3
A9
350
51
  3
B0
350
52
  3
B1
350
53
  3
B2
350
54
  3
B3
350
55
  3
B4
350
56
  3
B5
350
57
  3
B6
350
58
  3
B7
350
59
  3
B8
350
5A
  3
B9
350
5B
  3
C0
350
5C
  3
C1
350
5D
  3
C2
350
5E
  3
C3
350
5F
  3
C4
350
60
  3
C5
350
61
  3
C6
350
62
  3
C7
350
63
  3
C8
350
64
  3
C9
350
65
  3
D0
350
66
  3
D1
350
67
  3
D2
350
68
  0
LAYOUT
  5
1E
102
{ACAD_REACTORS
330
1A
102
}
330
1A
100
AcDbPlotSettings
  1

  2
none_device
  4

  6

 40
0.0
 41
0.0
 42
0.0
 43
0.0
 44
0.0
 45
0.0
 46
0.0
 47
0.0
 48
0.0
 49
0.0
140
0.0
141
0.0
142
1.0
143
1.0
 70
   688
 72
     1
 73
     0
 74
     5
  7

 75
    16
147
1.0
148
0.0
149
0.0
100
AcDbLayout
  1
Layout1
 70
     1
 71
     1
 10
0.0
 20
0.0
 11
420.0
 21
297.0
 12
0.0
 22
0.0
 32
0.0
 14
1.0000000000E+20
 24
1.0000000000E+20
 34
1.0000000000E+20
 15
-1.0000000000E+20
 25
-1.0000000000E+20
 35
-1.0000000000E+20
146
0.0
 13
0.0
 23
0.0
 33
0.0
 16
1.0
 26
0.0
 36
0.0
 17
0.0
 27
1.0
 37
0.0
 76
     0
330
1B
  0
LAYOUT
  5
26
102
{ACAD_REACTORS
330
1A
102
}
330
1A
100
AcDbPlotSettings
  1

  2
none_device
  4

  6

 40
0.0
 41
0.0
 42
0.0
 43
0.0
 44
0.0
 45
0.0
 46
0.0
 47
0.0
 48
0.0
 49
0.0
140
0.0
141
0.0
142
1.0
143
1.0
 70
   688
 72
     1
 73
     0
 74
     5
  7

 75
    16
147
1.0
148
0.0
149
0.0
100
AcDbLayout
  1
Layout2
 70
     1
 71
     2
 10
0.0
 20
0.0
 11
0.0
 21
0.0
 12
0.0
 22
0.0
 32
0.0
 14
0.0
 24
0.0
 34
0.0
 15
0.0
 25
0.0
 35
0.0
146
0.0
 13
0.0
 23
0.0
 33
0.0
 16
1.0
 26
0.0
 36
0.0
 17
0.0
 27
1.0
 37
0.0
 76
     0
330
23
  0
LAYOUT
  5
22
102
{ACAD_REACTORS
330
1A
102
}
330
1A
100
AcDbPlotSettings
  1

  2
none_device
  4
Letter_(8.50_x_11.00_Inches)
  6

 40
6.35
 41
6.35
 42
6.35000508
 43
6.35000508
 44
215.9
 45
279.4
 46
0.0
 47
0.0
 48
0.0
 49
0.0
140
0.0
141
0.0
142
1.0
143
1.0
 70
  1712
 72
     1
 73
     0
 74
     0
  7

 75
     0
147
1.0
148
0.0
149
0.0
100
AcDbLayout
  1
Model
 70
     1
 71
     0
 10
0.0
 20
0.0
 11
297.0
 21
210.0
 12
0.0
 22
0.0
 32
0.0
 14
0.0
 24
0.0
 34
0.0
 15
297.0
 25
210.0
 35
0.0
146
0.0
 13
0.0
 23
0.0
 33
0.0
 16
1.0
 26
0.0
 36
0.0
 17
0.0
 27
1.0
 37
0.0
 76
     0
330
1F
331
29
  0
MLINESTYLE
  5
18
102
{ACAD_REACTORS
330
17
102
}
330
17
100
AcDbMlineStyle
  2
Standard
 70
     0
  3

 62
   256
 51
90.0
 52
90.0
 71
     2
 49
0.5
 62
   256
  6
BYLAYER
 49
-0.5
 62
   256
  6
BYLAYER
  0
ACDBPLACEHOLDER
  5
F
102
{ACAD_REACTORS
330
E
102
}
330
E
  0
SCALE
  5
48
102
{ACAD_REACTORS
330
47
102
}
330
47
100
AcDbScale
 70
     0
300
1:1
140
1.0
141
1.0
290
     1
  0
SCALE
  5
49
102
{ACAD_REACTORS
330
47
102
}
330
47
100
AcDbScale
 70
     0
300
1:2
140
1.0
141
2.0
290
     0
  0
SCALE
  5
4A
102
{ACAD_REACTORS
330
47
102
}
330
47
100
AcDbScale
 70
     0
300
1:4
140
1.0
141
4.0
290
     0
  0
SCALE
  5
4B
102
{ACAD_REACTORS
330
47
102
}
330
47
100
AcDbScale
 70
     0
300
1:5
140
1.0
141
5.0
290
     0
  0
SCALE
  5
4C
102
{ACAD_REACTORS
330
47
102
}
330
47
100
AcDbScale
 70
     0
300
1:8
140
1.0
141
8.0
290
     0
  0
SCALE
  5
4D
102
{ACAD_REACTORS
330
47
102
}
330
47
100
AcDbScale
 70
     0
300
1:10
140
1.0
141
10.0
290
     0
  0
SCALE
  5
4E
102
{ACAD_REACTORS
330
47
102
}
330
47
100
AcDbScale
 70
     0
300
1:16
140
1.0
141
16.0
290
     0
  0
SCALE
  5
4F
102
{ACAD_REACTORS
330
47
102
}
330
47
100
AcDbScale
 70
     0
300
1:20
140
1.0
141
20.0
290
     0
  0
SCALE
  5
50
102
{ACAD_REACTORS
330
47
102
}
330
47
100
AcDbScale
 70
     0
300
1:30
140
1.0
141
30.0
290
     0
  0
SCALE
  5
51
102
{ACAD_REACTORS
330
47
102
}
330
47
100
AcDbScale
 70
     0
300
1:40
140
1.0
141
40.0
290
     0
  0
SCALE
  5
52
102
{ACAD_REACTORS
330
47
102
}
330
47
100
AcDbScale
 70
     0
300
1:50
140
1.0
141
50.0
290
     0
  0
SCALE
  5
53
102
{ACAD_REACTORS
330
47
102
}
330
47
100
AcDbScale
 70
     0
300
1:100
140
1.0
141
100.0
290
     0
  0
SCALE
  5
54
102
{ACAD_REACTORS
330
47
102
}
330
47
100
AcDbScale
 70
     0
300
2:1
140
2.0
141
1.0
290
     0
  0
SCALE
  5
55
102
{ACAD_REACTORS
330
47
102
}
330
47
100
AcDbScale
 70
     0
300
4:1
140
4.0
141
1.0
290
     0
  0
SCALE
  5
56
102
{ACAD_REACTORS
330
47
102
}
330
47
100
AcDbScale
 70
     0
300
8:1
140
8.0
141
1.0
290
     0
  0
SCALE
  5
57
102
{ACAD_REACTORS
330
47
102
}
330
47
100
AcDbScale
 70
     0
300
10:1
140
10.0
141
1.0
290
     0
  0
SCALE
  5
58
102
{ACAD_REACTORS
330
47
102
}
330
47
100
AcDbScale
 70
     0
300
100:1
140
100.0
141
1.0
290
     0
  0
SCALE
  5
59
102
{ACAD_REACTORS
330
47
102
}
330
47
100
AcDbScale
 70
     0
300
1/128" = 1'-0"
140
0.0078125
141
12.0
290
     0
  0
SCALE
  5
5A
102
{ACAD_REACTORS
330
47
102
}
330
47
100
AcDbScale
 70
     0
300
1/64" = 1'-0"
140
0.015625
141
12.0
290
     0
  0
SCALE
  5
5B
102
{ACAD_REACTORS
330
47
102
}
330
47
100
AcDbScale
 70
     0
300
1/32" = 1'-0"
140
0.03125
141
12.0
290
     0
  0
SCALE
  5
5C
102
{ACAD_REACTORS
330
47
102
}
330
47
100
AcDbScale
 70
     0
300
1/16" = 1'-0"
140
0.0625
141
12.0
290
     0
  0
SCALE
  5
5D
102
{ACAD_REACTORS
330
47
102
}
330
47
100
AcDbScale
 70
     0
300
3/32" = 1'-0"
140
0.09375
141
12.0
290
     0
  0
SCALE
  5
5E
102
{ACAD_REACTORS
330
47
102
}
330
47
100
AcDbScale
 70
     0
300
1/8" = 1'-0"
140
0.125
141
12.0
290
     0
  0
SCALE
  5
5F
102
{ACAD_REACTORS
330
47
102
}
330
47
100
AcDbScale
 70
     0
300
3/16" = 1'-0"
140
0.1875
141
12.0
290
     0
  0
SCALE
  5
60
102
{ACAD_REACTORS
330
47
102
}
330
47
100
AcDbScale
 70
     0
300
1/4" = 1'-0"
140
0.25
141
12.0
290
     0
  0
SCALE
  5
61
102
{ACAD_REACTORS
330
47
102
}
330
47
100
AcDbScale
 70
     0
300
3/8" = 1'-0"
140
0.375
141
12.0
290
     0
  0
SCALE
  5
62
102
{ACAD_REACTORS
330
47
102
}
330
47
100
AcDbScale
 70
     0
300
1/2" = 1'-0"
140
0.5
141
12.0
290
     0
  0
SCALE
  5
63
102
{ACAD_REACTORS
330
47
102
}
330
47
100
AcDbScale
 70
     0
300
3/4" = 1'-0"
140
0.75
141
12.0
290
     0
  0
SCALE
  5
64
102
{ACAD_REACTORS
330
47
102
}
330
47
100
AcDbScale
 70
     0
300
1" = 1'-0"
140
1.0
141
12.0
290
     0
  0
SCALE
  5
65
102
{ACAD_REACTORS
330
47
102
}
330
47
100
AcDbScale
 70
     0
300
1-1/2" = 1'-0"
140
1.5
141
12.0
290
     0
  0
SCALE
  5
66
102
{ACAD_REACTORS
330
47
102
}
330
47
100
AcDbScale
 70
     0
300
3" = 1'-0"
140
3.0
141
12.0
290
     0
  0
SCALE
  5
67
102
{ACAD_REACTORS
330
47
102
}
330
47
100
AcDbScale
 70
     0
300
6" = 1'-0"
140
6.0
141
12.0
290
     0
  0
SCALE
  5
68
102
{ACAD_REACTORS
330
47
102
}
330
47
100
AcDbScale
 70
     0
300
1'-0" = 1'-0"
140
12.0
141
12.0
290
     0
  0
ENDSEC
  0
EOF
