  0
SECTION
  2
HEADER
  9
$ACADVER
  1
AC1015
  9
$ACADMAINTVER
 70
     6
  9
$DWGCODEPAGE
  3
ANSI_1252
  9
$INSBASE
 10
0.0
 20
0.0
 30
0.0
  9
$EXTMIN
 10
0.0
 20
0.0
 30
0.0
  9
$EXTMAX
 10
297.0
 20
210.0
 30
0.0
  9
$LIMMIN
 10
0.0
 20
0.0
  9
$LIMMAX
 10
297.0
 20
210.0
  9
$ORTHOMODE
 70
     0
  9
$REGENMODE
 70
     1
  9
$FILLMODE
 70
     1
  9
$QTEXTMODE
 70
     0
  9
$MIRRTEXT
 70
     1
  9
$LTSCALE
 40
1.0
  9
$ATTMODE
 70
     1
  9
$TEXTSIZE
 40
2.0
  9
$TRACEWID
 40
1.0
  9
$TEXTSTYLE
  7
Standard
  9
$CLAYER
  8
0
  9
$CELTYPE
  6
ByLayer
  9
$CECOLOR
 62
   256
  9
$CELTSCALE
 40
1.0
  9
$DISPSILH
 70
     0
  9
$DIMSCALE
 40
1.0
  9
$DIMASZ
 40
3.0
  9
$DIMEXO
 40
0.0
  9
$DIMDLI
 40
3.75
  9
$DIMRND
 40
0.0
  9
$DIMDLE
 40
0.0
  9
$DIMEXE
 40
1.0
  9
$DIMTP
 40
0.0
  9
$DIMTM
 40
0.0
  9
$DIMTXT
 40
2.0
  9
$DIMCEN
 40
2.5
  9
$DIMTSZ
 40
0.0
  9
$DIMTOL
 70
     0
  9
$DIMLIM
 70
     0
  9
$DIMTIH
 70
     1
  9
$DIMTOH
 70
     1
  9
$DIMSE1
 70
     0
  9
$DIMSE2
 70
     0
  9
$DIMTAD
 70
     1
  9
$DIMZIN
 70
     0
  9
$DIMBLK
  1

  9
$DIMASO
 70
     1
  9
$DIMSHO
 70
     1
  9
$DIMPOST
  1

  9
$DIMAPOST
  1

  9
$DIMALT
 70
     0
  9
$DIMALTD
 70
     3
  9
$DIMALTF
 40
0.0393700787
  9
$DIMLFAC
 40
2.0
  9
$DIMTOFL
 70
     1
  9
$DIMTVP
 40
0.0
  9
$DIMTIX
 70
     0
  9
$DIMSOXD
 70
     0
  9
$DIMSAH
 70
     0
  9
$DIMBLK1
  1

  9
$DIMBLK2
  1

  9
$DIMSTYLE
  2
ISO-25
  9
$DIMCLRD
 70
     0
  9
$DIMCLRE
 70
     0
  9
$DIMCLRT
 70
     0
  9
$DIMTFAC
 40
1.0
  9
$DIMGAP
 40
1.524
  9
$DIMJUST
 70
     0
  9
$DIMSD1
 70
     0
  9
$DIMSD2
 70
     0
  9
$DIMTOLJ
 70
     0
  9
$DIMTZIN
 70
     0
  9
$DIMALTZ
 70
     0
  9
$DIMALTTZ
 70
     0
  9
$DIMUPT
 70
     0
  9
$DIMDEC
 70
     2
  9
$DIMTDEC
 70
     3
  9
$DIMALTU
 70
     2
  9
$DIMALTTD
 70
     3
  9
$DIMTXSTY
  7
Standard
  9
$DIMAUNIT
 70
     0
  9
$DIMADEC
 70
     2
  9
$DIMALTRND
 40
0.0
  9
$DIMAZIN
 70
     0
  9
$DIMDSEP
 70
    44
  9
$DIMATFIT
 70
     3
  9
$DIMFRAC
 70
     0
  9
$DIMLDRBLK
  1

  9
$DIMLUNIT
 70
     2
  9
$DIMLWD
 70
    -2
  9
$DIMLWE
 70
    -2
  9
$DIMTMOVE
 70
     0
  9
$LUNITS
 70
     2
  9
$LUPREC
 70
     2
  9
$SKETCHINC
 40
1.0
  9
$FILLETRAD
 40
10.0
  9
$AUNITS
 70
     0
  9
$AUPREC
 70
     2
  9
$MENU
  1
.
  9
$ELEVATION
 40
0.0
  9
$PELEVATION
 40
0.0
  9
$THICKNESS
 40
0.0
  9
$LIMCHECK
 70
     0
  9
$CHAMFERA
 40
0.0
  9
$CHAMFERB
 40
0.0
  9
$CHAMFERC
 40
0.0
  9
$CHAMFERD
 40
0.0
  9
$SKPOLY
 70
     0
  9
$TDCREATE
 40
2458169.657304861
  9
$TDUCREATE
 40
2458169.615638195
  9
$TDUPDATE
 40
2458169.657306968
  9
$TDUUPDATE
 40
2458169.615640301
  9
$TDINDWG
 40
0.0000000116
  9
$TDUSRTIMER
 40
0.0000000116
  9
$USRTIMER
 70
     1
  9
$ANGBASE
 50
0.0
  9
$ANGDIR
 70
     0
  9
$PDMODE
 70
     0
  9
$PDSIZE
 40
-1.0
  9
$PLINEWID
 40
0.0
  9
$SPLFRAME
 70
     0
  9
$SPLINETYPE
 70
     6
  9
$SPLINESEGS
 70
     8
  9
$HANDSEED
  5
24C
  9
$SURFTAB1
 70
     6
  9
$SURFTAB2
 70
     6
  9
$SURFTYPE
 70
     6
  9
$SURFU
 70
     6
  9
$SURFV
 70
     6
  9
$UCSBASE
  2

  9
$UCSNAME
  2

  9
$UCSORG
 10
0.0
 20
0.0
 30
0.0
  9
$UCSXDIR
 10
1.0
 20
0.0
 30
0.0
  9
$UCSYDIR
 10
0.0
 20
1.0
 30
0.0
  9
$UCSORTHOREF
  2

  9
$UCSORTHOVIEW
 70
     0
  9
$UCSORGTOP
 10
0.0
 20
0.0
 30
0.0
  9
$UCSORGBOTTOM
 10
0.0
 20
0.0
 30
0.0
  9
$UCSORGLEFT
 10
0.0
 20
0.0
 30
0.0
  9
$UCSORGRIGHT
 10
0.0
 20
0.0
 30
0.0
  9
$UCSORGFRONT
 10
0.0
 20
0.0
 30
0.0
  9
$UCSORGBACK
 10
0.0
 20
0.0
 30
0.0
  9
$PUCSBASE
  2

  9
$PUCSNAME
  2

  9
$PUCSORG
 10
0.0
 20
0.0
 30
0.0
  9
$PUCSXDIR
 10
1.0
 20
0.0
 30
0.0
  9
$PUCSYDIR
 10
0.0
 20
1.0
 30
0.0
  9
$PUCSORTHOREF
  2

  9
$PUCSORTHOVIEW
 70
     0
  9
$PUCSORGTOP
 10
0.0
 20
0.0
 30
0.0
  9
$PUCSORGBOTTOM
 10
0.0
 20
0.0
 30
0.0
  9
$PUCSORGLEFT
 10
0.0
 20
0.0
 30
0.0
  9
$PUCSORGRIGHT
 10
0.0
 20
0.0
 30
0.0
  9
$PUCSORGFRONT
 10
0.0
 20
0.0
 30
0.0
  9
$PUCSORGBACK
 10
0.0
 20
0.0
 30
0.0
  9
$USERI1
 70
     0
  9
$USERI2
 70
     0
  9
$USERI3
 70
     0
  9
$USERI4
 70
     0
  9
$USERI5
 70
     0
  9
$USERR1
 40
0.0
  9
$USERR2
 40
0.0
  9
$USERR3
 40
0.0
  9
$USERR4
 40
0.0
  9
$USERR5
 40
0.0
  9
$WORLDVIEW
 70
     1
  9
$SHADEDGE
 70
     3
  9
$SHADEDIF
 70
    70
  9
$TILEMODE
 70
     1
  9
$MAXACTVP
 70
    64
  9
$PINSBASE
 10
0.0
 20
0.0
 30
0.0
  9
$PLIMCHECK
 70
     0
  9
$PEXTMIN
 10
1.0000000000E+20
 20
1.0000000000E+20
 30
1.0000000000E+20
  9
$PEXTMAX
 10
-1.0000000000E+20
 20
-1.0000000000E+20
 30
-1.0000000000E+20
  9
$PLIMMIN
 10
0.0
 20
0.0
  9
$PLIMMAX
 10
420.0
 20
297.0
  9
$UNITMODE
 70
     0
  9
$VISRETAIN
 70
     1
  9
$PLINEGEN
 70
     0
  9
$PSLTSCALE
 70
     1
  9
$TREEDEPTH
 70
  3020
  9
$CMLSTYLE
  2
Standard
  9
$CMLJUST
 70
     0
  9
$CMLSCALE
 40
20.0
  9
$PROXYGRAPHICS
 70
     1
  9
$MEASUREMENT
 70
     1
  9
$CELWEIGHT
370
    -1
  9
$ENDCAPS
280
     0
  9
$JOINSTYLE
280
     0
  9
$LWDISPLAY
290
     1
  9
$INSUNITS
 70
     4
  9
$HYPERLINKBASE
  1

  9
$STYLESHEET
  1

  9
$XEDIT
290
     1
  9
$CEPSNTYPE
380
     0
  9
$PSTYLEMODE
290
     1
  9
$FINGERPRINTGUID
  2
{AA7F122D-58BC-491A-946C-E8252C721125}
  9
$VERSIONGUID
  2
{FAEB1C32-E019-11D5-929B-00C0DF256EC4}
  9
$EXTNAMES
290
     1
  9
$PSVPSCALE
 40
0.0
  9
$OLESTARTUP
290
     0
  0
ENDSEC
  0
SECTION
  2
CLASSES
  0
CLASS
  1
ACDBDICTIONARYWDFLT
  2
AcDbDictionaryWithDefault
  3
ObjectDBX Classes
 90
        0
280
     0
281
     0
  0
CLASS
  1
VISUALSTYLE
  2
AcDbVisualStyle
  3
ObjectDBX Classes
 90
     4095
280
     0
281
     0
  0
CLASS
  1
MATERIAL
  2
AcDbMaterial
  3
ObjectDBX Classes
 90
     1153
280
     0
281
     0
  0
CLASS
  1
SCALE
  2
AcDbScale
  3
ObjectDBX Classes
 90
     1153
280
     0
281
     0
  0
CLASS
  1
TABLESTYLE
  2
AcDbTableStyle
  3
ObjectDBX Classes
 90
     4095
280
     0
281
     0
  0
CLASS
  1
MLEADERSTYLE
  2
AcDbMLeaderStyle
  3
ACDB_MLEADERSTYLE_CLASS
 90
     4095
280
     0
281
     0
  0
CLASS
  1
SUN
  2
AcDbSun
  3
SCENEOE
 90
     1153
280
     0
281
     0
  0
CLASS
  1
ACDBPLACEHOLDER
  2
AcDbPlaceHolder
  3
ObjectDBX Classes
 90
        0
280
     0
281
     0
  0
CLASS
  1
LAYOUT
  2
AcDbLayout
  3
ObjectDBX Classes
 90
        0
280
     0
281
     0
  0
ENDSEC
  0
SECTION
  2
TABLES
  0
TABLE
  2
VPORT
  5
8
330
0
100
AcDbSymbolTable
 70
     1
  0
VPORT
  5
29
330
8
100
AcDbSymbolTableRecord
100
AcDbViewportTableRecord
  2
*Active
 70
     0
 10
0.0
 20
0.0
 11
1.0
 21
1.0
 12
148.5
 22
105.0
 13
0.0
 23
0.0
 14
10.0
 24
10.0
 15
10.0
 25
10.0
 16
0.0
 26
0.0
 36
1.0
 17
0.0
 27
0.0
 37
0.0
 40
210.0
 41
1.4142857143
 42
50.0
 43
0.0
 44
0.0
 50
0.0
 51
0.0
 71
     0
 72
  2000
 73
     1
 74
     3
 75
     0
 76
     0
 77
     0
 78
     0
281
     0
 65
     1
110
0.0
120
0.0
130
0.0
111
1.0
121
0.0
131
0.0
112
0.0
122
1.0
132
0.0
 79
     0
146
0.0
  0
ENDTAB
  0
TABLE
  2
LTYPE
  5
5
330
0
100
AcDbSymbolTable
 70
     6
  0
LTYPE
  5
14
330
5
100
AcDbSymbolTableRecord
100
AcDbLinetypeTableRecord
  2
ByBlock
 70
     0
  3

 72
    65
 73
     0
 40
0.0
  0
LTYPE
  5
15
330
5
100
AcDbSymbolTableRecord
100
AcDbLinetypeTableRecord
  2
ByLayer
 70
     0
  3

 72
    65
 73
     0
 40
0.0
  0
LTYPE
  5
16
330
5
100
AcDbSymbolTableRecord
100
AcDbLinetypeTableRecord
  2
Continuous
 70
     0
  3
Solid line
 72
    65
 73
     0
 40
0.0
  0
LTYPE
  5
6E
330
5
100
AcDbSymbolTableRecord
100
AcDbLinetypeTableRecord
  2
HIDDEN
 70
     0
  3
Hidden __ __ __ __ __ __ __ __ __ __ __ __ __ __
 72
    65
 73
     2
 40
1.905
 49
1.27
 74
     0
 49
-0.635
 74
     0
  0
LTYPE
  5
6F
330
5
100
AcDbSymbolTableRecord
100
AcDbLinetypeTableRecord
  2
PHANTOM
 70
     0
  3
Phantom ______  __  __  ______  __  __  ______
 72
    65
 73
     6
 40
12.7
 49
6.35
 74
     0
 49
-1.27
 74
     0
 49
1.27
 74
     0
 49
-1.27
 74
     0
 49
1.27
 74
     0
 49
-1.27
 74
     0
  0
LTYPE
  5
70
330
5
100
AcDbSymbolTableRecord
100
AcDbLinetypeTableRecord
  2
CENTER
 70
     0
  3
Center ____ _ ____ _ ____ _ ____ _ ____ _ ____
 72
    65
 73
     4
 40
10.16
 49
6.35
 74
     0
 49
-1.27
 74
     0
 49
1.27
 74
     0
 49
-1.27
 74
     0
  0
LTYPE
  5
71
330
5
100
AcDbSymbolTableRecord
100
AcDbLinetypeTableRecord
  2
CENTERX2
 70
     0
  3
Center (2x) ________  __  ________  __  _____
 72
    65
 73
     4
 40
20.32
 49
12.7
 74
     0
 49
-2.54
 74
     0
 49
2.54
 74
     0
 49
-2.54
 74
     0
  0
LTYPE
  5
72
330
5
100
AcDbSymbolTableRecord
100
AcDbLinetypeTableRecord
  2
DOT2
 70
     0
  3
Dot (.5x) ........................................
 72
    65
 73
     2
 40
0.635
 49
0.0
 74
     0
 49
-0.635
 74
     0
  0
ENDTAB
  0
TABLE
  2
LAYER
  5
2
330
0
100
AcDbSymbolTable
 70
     5
  0
LAYER
  5
10
330
2
100
AcDbSymbolTableRecord
100
AcDbLayerTableRecord
  2
0
 70
     0
 62
     7
  6
Continuous
370
    -3
390
F
  0
LAYER
  5
73
330
2
100
AcDbSymbolTableRecord
100
AcDbLayerTableRecord
  2
FORMAT
 70
     0
 62
     7
  6
Continuous
370
    -3
390
F
  0
LAYER
  5
74
330
2
100
AcDbSymbolTableRecord
100
AcDbLayerTableRecord
  2
VERMASSUNG
 70
     0
 62
     7
  6
Continuous
370
    -3
390
F
  0
LAYER
  5
75
330
2
100
AcDbSymbolTableRecord
100
AcDbLayerTableRecord
  2
KOPF_DÜNN
 70
     0
 62
     7
  6
Continuous
370
    -3
390
F
  0
LAYER
  5
76
330
2
100
AcDbSymbolTableRecord
100
AcDbLayerTableRecord
  2
KOPF_DICK
 70
     0
 62
     7
  6
Continuous
370
    25
390
F
  0
ENDTAB
  0
TABLE
  2
STYLE
  5
3
330
0
100
AcDbSymbolTable
 70
     2
  0
STYLE
  5
11
330
3
100
AcDbSymbolTableRecord
100
AcDbTextStyleTableRecord
  2
Standard
 70
     0
 40
0.0
 41
1.0
 50
0.0
 71
     0
 42
2.0
  3
txt
  4

  0
STYLE
  5
77
330
3
100
AcDbSymbolTableRecord
100
AcDbTextStyleTableRecord
  2
SLDTEXTSTYLE0
 70
     0
 40
0.0
 41
0.7
 50
0.0
 71
     0
 42
2.0
  3
TXT
  4

  0
ENDTAB
  0
TABLE
  2
VIEW
  5
6
330
0
100
AcDbSymbolTable
 70
     0
  0
ENDTAB
  0
TABLE
  2
UCS
  5
7
330
0
100
AcDbSymbolTable
 70
     0
  0
ENDTAB
  0
TABLE
  2
APPID
  5
9
330
0
100
AcDbSymbolTable
 70
     1
  0
APPID
  5
12
330
9
100
AcDbSymbolTableRecord
100
AcDbRegAppTableRecord
  2
ACAD
 70
     0
  0
ENDTAB
  0
TABLE
  2
DIMSTYLE
  5
A
330
0
100
AcDbSymbolTable
 70
     3
100
AcDbDimStyleTable
  0
DIMSTYLE
105
27
330
A
100
AcDbSymbolTableRecord
100
AcDbDimStyleTableRecord
  2
ISO-25
 70
     0
 41
2.5
 42
0.625
 43
3.75
 44
1.25
 73
     0
 74
     0
 77
     1
 78
     8
140
2.5
141
2.5
143
0.0393700787
147
0.625
171
     3
172
     1
178
     0
271
     2
272
     2
274
     3
278
    44
283
     0
284
     8
340
11
  0
DIMSTYLE
105
113
102
{ACAD_REACTORS
330
112
330
11E
330
134
330
13E
330
148
102
}
330
A
100
AcDbSymbolTableRecord
100
AcDbDimStyleTableRecord
  2
SLDDIMSTYLE0
 70
     0
 41
3.0
 44
0.0
 45
0.000000001
 73
     0
 74
     0
 77
     1
 78
    12
 79
     3
140
2.0
147
0.5
173
     1
178
     0
271
     2
272
     3
276
     2
284
    12
340
77
  0
DIMSTYLE
105
12A
102
{ACAD_REACTORS
330
129
330
152
330
15F
102
}
330
A
100
AcDbSymbolTableRecord
100
AcDbDimStyleTableRecord
  2
SLDDIMSTYLE1
 70
     0
 41
3.0
 44
0.0
 45
0.000000001
 73
     0
 74
     0
 77
     1
 78
    12
 79
     3
140
2.0
147
0.5
173
     1
178
     0
271
     0
272
     3
276
     2
284
    12
340
77
  0
ENDTAB
  0
TABLE
  2
BLOCK_RECORD
  5
1
330
0
100
AcDbSymbolTable
 70
     9
  0
BLOCK_RECORD
  5
1F
330
1
100
AcDbSymbolTableRecord
100
AcDbBlockTableRecord
  2
*Model_Space
340
22
  0
BLOCK_RECORD
  5
1B
330
1
100
AcDbSymbolTableRecord
100
AcDbBlockTableRecord
  2
*Paper_Space
340
1E
  0
BLOCK_RECORD
  5
23
330
1
100
AcDbSymbolTableRecord
100
AcDbBlockTableRecord
  2
*Paper_Space0
340
26
  0
BLOCK_RECORD
  5
114
330
1
100
AcDbSymbolTableRecord
100
AcDbBlockTableRecord
  2
_D
340
0
  0
BLOCK_RECORD
  5
11F
330
1
100
AcDbSymbolTableRecord
100
AcDbBlockTableRecord
  2
_D_1
340
0
  0
BLOCK_RECORD
  5
12B
330
1
100
AcDbSymbolTableRecord
100
AcDbBlockTableRecord
  2
_D_2
340
0
  0
BLOCK_RECORD
  5
135
330
1
100
AcDbSymbolTableRecord
100
AcDbBlockTableRecord
  2
_D_3
340
0
  0
BLOCK_RECORD
  5
13F
330
1
100
AcDbSymbolTableRecord
100
AcDbBlockTableRecord
  2
_D_4
340
0
  0
BLOCK_RECORD
  5
149
330
1
100
AcDbSymbolTableRecord
100
AcDbBlockTableRecord
  2
_D_5
340
0
  0
BLOCK_RECORD
  5
153
330
1
100
AcDbSymbolTableRecord
100
AcDbBlockTableRecord
  2
_D_6
340
0
  0
BLOCK_RECORD
  5
160
330
1
100
AcDbSymbolTableRecord
100
AcDbBlockTableRecord
  2
_D_7
340
0
  0
ENDTAB
  0
ENDSEC
  0
SECTION
  2
BLOCKS
  0
BLOCK
  5
20
330
1F
100
AcDbEntity
  8
0
100
AcDbBlockBegin
  2
*Model_Space
 70
     0
 10
0.0
 20
0.0
 30
0.0
  3
*Model_Space
  1

  0
ENDBLK
  5
21
330
1F
100
AcDbEntity
  8
0
100
AcDbBlockEnd
  0
BLOCK
  5
1C
330
1B
100
AcDbEntity
 67
     1
  8
0
100
AcDbBlockBegin
  2
*Paper_Space
 70
     0
 10
0.0
 20
0.0
 30
0.0
  3
*Paper_Space
  1

  0
ENDBLK
  5
1D
330
1B
100
AcDbEntity
 67
     1
  8
0
100
AcDbBlockEnd
  0
BLOCK
  5
24
330
23
100
AcDbEntity
  8
0
100
AcDbBlockBegin
  2
*Paper_Space0
 70
     0
 10
0.0
 20
0.0
 30
0.0
  3
*Paper_Space0
  1

  0
ENDBLK
  5
25
330
23
100
AcDbEntity
  8
0
100
AcDbBlockEnd
  0
BLOCK
  5
115
330
114
100
AcDbEntity
  8
0
100
AcDbBlockBegin
  2
_D
 70
     0
 10
0.0
 20
0.0
 30
0.0
  3
_D
  1

  0
SOLID
  5
117
330
114
100
AcDbEntity
  8
VERMASSUNG
100
AcDbTrace
 10
256.2759115626
 20
104.7687935444
 30
0.0
 11
256.7259115626
 21
107.7687935444
 31
0.0
 12
255.8259115626
 22
107.7687935444
 32
0.0
 13
255.8259115626
 23
107.7687935444
 33
0.0
  0
SOLID
  5
118
330
114
100
AcDbEntity
  8
VERMASSUNG
100
AcDbTrace
 10
256.2759115626
 20
136.7687935444
 30
0.0
 11
255.8259115626
 21
133.7687935444
 31
0.0
 12
256.7259115626
 22
133.7687935444
 32
0.0
 13
256.7259115626
 23
133.7687935444
 33
0.0
  0
LINE
  5
119
330
114
100
AcDbEntity
  8
VERMASSUNG
100
AcDbLine
 10
212.3248503482
 20
104.7687935444
 30
0.0
 11
257.2759115626
 21
104.7687935444
 31
0.0
  0
LINE
  5
11A
330
114
100
AcDbEntity
  8
VERMASSUNG
100
AcDbLine
 10
212.3248503482
 20
136.7687935444
 30
0.0
 11
257.2759115626
 21
136.7687935444
 31
0.0
  0
LINE
  5
11B
330
114
100
AcDbEntity
  8
VERMASSUNG
100
AcDbLine
 10
256.2759115626
 20
104.7687935444
 30
0.0
 11
256.2759115626
 21
136.7687935444
 31
0.0
  0
MTEXT
  5
11C
330
114
100
AcDbEntity
  8
VERMASSUNG
100
AcDbMText
 10
253.6977762577
 20
117.5637935872
 30
0.0
 40
2.0
 41
0.0
 71
     1
 72
     1
  1
%%c
  7
SLDTEXTSTYLE0
 11
6.123233995736766E-17
 21
1.0
 31
0.0
 73
     1
 44
1.0
  0
MTEXT
  5
11D
330
114
100
AcDbEntity
  8
VERMASSUNG
100
AcDbMText
 10
253.4977763064
 20
121.1737936015
 30
0.0
 40
2.0
 41
0.0
 71
     1
 72
     1
  1
32
  7
SLDTEXTSTYLE0
 11
6.123233995736766E-17
 21
1.0
 31
0.0
 73
     1
 44
1.0
  0
ENDBLK
  5
116
330
114
100
AcDbEntity
  8
0
100
AcDbBlockEnd
  0
BLOCK
  5
120
330
11F
100
AcDbEntity
  8
0
100
AcDbBlockBegin
  2
_D_1
 70
     0
 10
0.0
 20
0.0
 30
0.0
  3
_D_1
  1

  0
SOLID
  5
122
330
11F
100
AcDbEntity
  8
VERMASSUNG
100
AcDbTrace
 10
268.5864907369
 20
156.7687935444
 30
0.0
 11
268.1364907369
 21
153.7687935444
 31
0.0
 12
269.0364907369
 22
153.7687935444
 32
0.0
 13
269.0364907369
 23
153.7687935444
 33
0.0
  0
SOLID
  5
123
330
11F
100
AcDbEntity
  8
VERMASSUNG
100
AcDbTrace
 10
268.5864907369
 20
84.7687935444
 30
0.0
 11
269.0364907369
 21
87.7687935444
 31
0.0
 12
268.1364907369
 22
87.7687935444
 32
0.0
 13
268.1364907369
 23
87.7687935444
 33
0.0
  0
LINE
  5
124
330
11F
100
AcDbEntity
  8
VERMASSUNG
100
AcDbLine
 10
188.3248503482
 20
156.7687935444
 30
0.0
 11
269.5864907369
 21
156.7687935444
 31
0.0
  0
LINE
  5
125
330
11F
100
AcDbEntity
  8
VERMASSUNG
100
AcDbLine
 10
188.3248503482
 20
84.7687935444
 30
0.0
 11
269.5864907369
 21
84.7687935444
 31
0.0
  0
LINE
  5
126
330
11F
100
AcDbEntity
  8
VERMASSUNG
100
AcDbLine
 10
268.5864907369
 20
156.7687935444
 30
0.0
 11
268.5864907369
 21
84.7687935444
 31
0.0
  0
MTEXT
  5
127
330
11F
100
AcDbEntity
  8
VERMASSUNG
100
AcDbMText
 10
266.008355432
 20
117.5637935872
 30
0.0
 40
2.0
 41
0.0
 71
     1
 72
     1
  1
%%c
  7
SLDTEXTSTYLE0
 11
-7.044195017643634E-15
 21
1.0
 31
0.0
 73
     1
 44
1.0
  0
MTEXT
  5
128
330
11F
100
AcDbEntity
  8
VERMASSUNG
100
AcDbMText
 10
265.8083554807
 20
121.1737936015
 30
0.0
 40
2.0
 41
0.0
 71
     1
 72
     1
  1
72
  7
SLDTEXTSTYLE0
 11
-7.044195017643634E-15
 21
1.0
 31
0.0
 73
     1
 44
1.0
  0
ENDBLK
  5
121
330
11F
100
AcDbEntity
  8
0
100
AcDbBlockEnd
  0
BLOCK
  5
12C
330
12B
100
AcDbEntity
  8
0
100
AcDbBlockBegin
  2
_D_2
 70
     0
 10
0.0
 20
0.0
 30
0.0
  3
_D_2
  1

  0
SOLID
  5
12E
330
12B
100
AcDbEntity
  8
VERMASSUNG
100
AcDbTrace
 10
100.9106367858
 20
166.7687935444
 30
0.0
 11
103.9106367858
 21
166.3187935444
 31
0.0
 12
103.9106367858
 22
167.2187935444
 32
0.0
 13
103.9106367858
 23
167.2187935444
 33
0.0
  0
SOLID
  5
12F
330
12B
100
AcDbEntity
  8
VERMASSUNG
100
AcDbTrace
 10
189.3248503482
 20
166.7687935444
 30
0.0
 11
186.3248503482
 21
167.2187935444
 31
0.0
 12
186.3248503482
 22
166.3187935444
 32
0.0
 13
186.3248503482
 23
166.3187935444
 33
0.0
  0
LINE
  5
130
330
12B
100
AcDbEntity
  8
VERMASSUNG
100
AcDbLine
 10
100.9106367858
 20
152.2437935444
 30
0.0
 11
100.9106367858
 21
167.7687935444
 31
0.0
  0
LINE
  5
131
330
12B
100
AcDbEntity
  8
VERMASSUNG
100
AcDbLine
 10
189.3248503482
 20
155.7687935444
 30
0.0
 11
189.3248503482
 21
167.7687935444
 31
0.0
  0
LINE
  5
132
330
12B
100
AcDbEntity
  8
VERMASSUNG
100
AcDbLine
 10
100.9106367858
 20
166.7687935444
 30
0.0
 11
189.3248503482
 21
166.7687935444
 31
0.0
  0
MTEXT
  5
133
330
12B
100
AcDbEntity
  8
VERMASSUNG
100
AcDbMText
 10
143.7177436169
 20
169.3469291404
 30
0.0
 40
2.0
 41
0.0
 71
     1
 72
     1
  1
88
  7
SLDTEXTSTYLE0
 73
     1
 44
1.0
  0
ENDBLK
  5
12D
330
12B
100
AcDbEntity
  8
0
100
AcDbBlockEnd
  0
BLOCK
  5
136
330
135
100
AcDbEntity
  8
0
100
AcDbBlockBegin
  2
_D_3
 70
     0
 10
0.0
 20
0.0
 30
0.0
  3
_D_3
  1

  0
SOLID
  5
138
330
135
100
AcDbEntity
  8
VERMASSUNG
100
AcDbTrace
 10
79.3248503482
 20
176.9307497544
 30
0.0
 11
82.3248503482
 21
176.4807497544
 31
0.0
 12
82.3248503482
 22
177.3807497544
 32
0.0
 13
82.3248503482
 23
177.3807497544
 33
0.0
  0
SOLID
  5
139
330
135
100
AcDbEntity
  8
VERMASSUNG
100
AcDbTrace
 10
189.3248503482
 20
176.9307497544
 30
0.0
 11
186.3248503482
 21
177.3807497544
 31
0.0
 12
186.3248503482
 22
176.4807497544
 32
0.0
 13
186.3248503482
 23
176.4807497544
 33
0.0
  0
LINE
  5
13A
330
135
100
AcDbEntity
  8
VERMASSUNG
100
AcDbLine
 10
79.3248503482
 20
152.0437935444
 30
0.0
 11
79.3248503482
 21
177.9307497544
 31
0.0
  0
LINE
  5
13B
330
135
100
AcDbEntity
  8
VERMASSUNG
100
AcDbLine
 10
189.3248503482
 20
155.7687935444
 30
0.0
 11
189.3248503482
 21
177.9307497544
 31
0.0
  0
LINE
  5
13C
330
135
100
AcDbEntity
  8
VERMASSUNG
100
AcDbLine
 10
79.3248503482
 20
176.9307497544
 30
0.0
 11
189.3248503482
 21
176.9307497544
 31
0.0
  0
MTEXT
  5
13D
330
135
100
AcDbEntity
  8
VERMASSUNG
100
AcDbMText
 10
132.6248503256
 20
179.5088853504
 30
0.0
 40
2.0
 41
0.0
 71
     1
 72
     1
  1
110
  7
SLDTEXTSTYLE0
 73
     1
 44
1.0
  0
ENDBLK
  5
137
330
135
100
AcDbEntity
  8
0
100
AcDbBlockEnd
  0
BLOCK
  5
140
330
13F
100
AcDbEntity
  8
0
100
AcDbBlockBegin
  2
_D_4
 70
     0
 10
0.0
 20
0.0
 30
0.0
  3
_D_4
  1

  0
SOLID
  5
142
330
13F
100
AcDbEntity
  8
VERMASSUNG
100
AcDbTrace
 10
39.3748503482
 20
187.6359186745
 30
0.0
 11
42.3748503482
 21
187.1859186745
 31
0.0
 12
42.3748503482
 22
188.0859186745
 32
0.0
 13
42.3748503482
 23
188.0859186745
 33
0.0
  0
SOLID
  5
143
330
13F
100
AcDbEntity
  8
VERMASSUNG
100
AcDbTrace
 10
213.3248503482
 20
187.6359186745
 30
0.0
 11
210.3248503482
 21
188.0859186745
 31
0.0
 12
210.3248503482
 22
187.1859186745
 32
0.0
 13
210.3248503482
 23
187.1859186745
 33
0.0
  0
LINE
  5
144
330
13F
100
AcDbEntity
  8
VERMASSUNG
100
AcDbLine
 10
39.3748503482
 20
141.0310192811
 30
0.0
 11
39.3748503482
 21
188.6359186745
 31
0.0
  0
LINE
  5
145
330
13F
100
AcDbEntity
  8
VERMASSUNG
100
AcDbLine
 10
213.3248503482
 20
135.7687935444
 30
0.0
 11
213.3248503482
 21
188.6359186745
 31
0.0
  0
LINE
  5
146
330
13F
100
AcDbEntity
  8
VERMASSUNG
100
AcDbLine
 10
39.3748503482
 20
187.6359186745
 30
0.0
 11
213.3248503482
 21
187.6359186745
 31
0.0
  0
MTEXT
  5
147
330
13F
100
AcDbEntity
  8
VERMASSUNG
100
AcDbMText
 10
122.74985041
 20
190.2140542705
 30
0.0
 40
2.0
 41
0.0
 71
     1
 72
     1
  1
173.95
  7
SLDTEXTSTYLE0
 73
     1
 44
1.0
  0
ENDBLK
  5
141
330
13F
100
AcDbEntity
  8
0
100
AcDbBlockEnd
  0
BLOCK
  5
14A
330
149
100
AcDbEntity
  8
0
100
AcDbBlockBegin
  2
_D_5
 70
     0
 10
0.0
 20
0.0
 30
0.0
  3
_D_5
  1

  0
SOLID
  5
14C
330
149
100
AcDbEntity
  8
VERMASSUNG
100
AcDbTrace
 10
189.3248503482
 20
166.7687935444
 30
0.0
 11
192.3248503482
 21
166.3187935444
 31
0.0
 12
192.3248503482
 22
167.2187935444
 32
0.0
 13
192.3248503482
 23
167.2187935444
 33
0.0
  0
SOLID
  5
14D
330
149
100
AcDbEntity
  8
VERMASSUNG
100
AcDbTrace
 10
213.3248503482
 20
166.7687935444
 30
0.0
 11
210.3248503482
 21
167.2187935444
 31
0.0
 12
210.3248503482
 22
166.3187935444
 32
0.0
 13
210.3248503482
 23
166.3187935444
 33
0.0
  0
LINE
  5
14E
330
149
100
AcDbEntity
  8
VERMASSUNG
100
AcDbLine
 10
189.3248503482
 20
155.7687935444
 30
0.0
 11
189.3248503482
 21
167.7687935444
 31
0.0
  0
LINE
  5
14F
330
149
100
AcDbEntity
  8
VERMASSUNG
100
AcDbLine
 10
213.3248503482
 20
135.7687935444
 30
0.0
 11
213.3248503482
 21
167.7687935444
 31
0.0
  0
LINE
  5
150
330
149
100
AcDbEntity
  8
VERMASSUNG
100
AcDbLine
 10
189.3248503482
 20
166.7687935444
 30
0.0
 11
213.3248503482
 21
166.7687935444
 31
0.0
  0
MTEXT
  5
151
330
149
100
AcDbEntity
  8
VERMASSUNG
100
AcDbMText
 10
199.8248503351
 20
169.3469291404
 30
0.0
 40
2.0
 41
0.0
 71
     1
 72
     1
  1
24
  7
SLDTEXTSTYLE0
 73
     1
 44
1.0
  0
ENDBLK
  5
14B
330
149
100
AcDbEntity
  8
0
100
AcDbBlockEnd
  0
BLOCK
  5
154
330
153
100
AcDbEntity
  8
0
100
AcDbBlockBegin
  2
_D_6
 70
     0
 10
0.0
 20
0.0
 30
0.0
  3
_D_6
  1

  0
SOLID
  5
156
330
153
100
AcDbEntity
  8
VERMASSUNG
100
AcDbTrace
 10
29.3748253482
 20
89.2937935444
 30
0.0
 11
29.8248253482
 21
92.2937935444
 31
0.0
 12
28.9248253482
 22
92.2937935444
 32
0.0
 13
28.9248253482
 23
92.2937935444
 33
0.0
  0
SOLID
  5
157
330
153
100
AcDbEntity
  8
VERMASSUNG
100
AcDbTrace
 10
29.3748253482
 20
152.2437935444
 30
0.0
 11
28.9248253482
 21
149.2437935444
 31
0.0
 12
29.8248253482
 22
149.2437935444
 32
0.0
 13
29.8248253482
 23
149.2437935444
 33
0.0
  0
LINE
  5
158
330
153
100
AcDbEntity
  8
VERMASSUNG
100
AcDbLine
 10
79.5248503482
 20
89.2937935444
 30
0.0
 11
28.3748253482
 21
89.2937935444
 31
0.0
  0
LINE
  5
159
330
153
100
AcDbEntity
  8
VERMASSUNG
100
AcDbLine
 10
79.5248503482
 20
152.2437935444
 30
0.0
 11
28.3748253482
 21
152.2437935444
 31
0.0
  0
LINE
  5
15A
330
153
100
AcDbEntity
  8
VERMASSUNG
100
AcDbLine
 10
29.3748253482
 20
89.2937935444
 30
0.0
 11
29.3748253482
 21
152.2437935444
 31
0.0
  0
MTEXT
  5
15B
330
153
100
AcDbEntity
  8
VERMASSUNG
100
AcDbMText
 10
26.596690092
 20
112.663794926
 30
0.0
 40
2.0
 41
0.0
 71
     1
 72
     1
  1
KM
  7
SLDTEXTSTYLE0
 11
6.123233995736766E-17
 21
1.0
 31
0.0
 73
     1
 44
1.0
  0
MTEXT
  5
15C
330
153
100
AcDbEntity
  8
VERMASSUNG
100
AcDbMText
 10
26.7966900433
 20
116.0637947383
 30
0.0
 40
2.0
 41
0.0
 71
     1
 72
     1
  1
%%c
  7
SLDTEXTSTYLE0
 11
6.123233995736766E-17
 21
1.0
 31
0.0
 73
     1
 44
1.0
  0
MTEXT
  5
15D
330
153
100
AcDbEntity
  8
VERMASSUNG
100
AcDbMText
 10
26.596690092
 20
119.6737947526
 30
0.0
 40
2.0
 41
0.0
 71
     1
 72
     1
  1
63
  7
SLDTEXTSTYLE0
 11
6.123233995736766E-17
 21
1.0
 31
0.0
 73
     1
 44
1.0
  0
MTEXT
  5
15E
330
153
100
AcDbEntity
  8
VERMASSUNG
100
AcDbMText
 10
26.596690092
 20
123.6612946528
 30
0.0
 40
2.0
 41
0.0
 71
     1
 72
     1
  1
XMZ
  7
SLDTEXTSTYLE0
 11
6.123233995736766E-17
 21
1.0
 31
0.0
 73
     1
 44
1.0
  0
ENDBLK
  5
155
330
153
100
AcDbEntity
  8
0
100
AcDbBlockEnd
  0
BLOCK
  5
161
330
160
100
AcDbEntity
  8
0
100
AcDbBlockBegin
  2
_D_7
 70
     0
 10
0.0
 20
0.0
 30
0.0
  3
_D_7
  1

  0
SOLID
  5
163
330
160
100
AcDbEntity
  8
VERMASSUNG
100
AcDbTrace
 10
244.653288162
 20
127.8397935444
 30
0.0
 11
244.203288162
 21
124.8397935444
 31
0.0
 12
245.103288162
 22
124.8397935444
 32
0.0
 13
245.103288162
 23
124.8397935444
 33
0.0
  0
SOLID
  5
164
330
160
100
AcDbEntity
  8
VERMASSUNG
100
AcDbTrace
 10
244.653288162
 20
113.6977935444
 30
0.0
 11
245.103288162
 21
116.6977935444
 31
0.0
 12
244.203288162
 22
116.6977935444
 32
0.0
 13
244.203288162
 23
116.6977935444
 33
0.0
  0
LINE
  5
165
330
160
100
AcDbEntity
  8
VERMASSUNG
100
AcDbLine
 10
232.3248503482
 20
127.8397935444
 30
0.0
 11
245.653288162
 21
127.8397935444
 31
0.0
  0
LINE
  5
166
330
160
100
AcDbEntity
  8
VERMASSUNG
100
AcDbLine
 10
232.3248503482
 20
113.6977935444
 30
0.0
 11
245.653288162
 21
113.6977935444
 31
0.0
  0
LINE
  5
167
330
160
100
AcDbEntity
  8
VERMASSUNG
100
AcDbLine
 10
244.653288162
 20
127.8397935444
 30
0.0
 11
244.653288162
 21
113.6977935444
 31
0.0
  0
MTEXT
  5
168
330
160
100
AcDbEntity
  8
VERMASSUNG
100
AcDbMText
 10
242.075152566
 20
117.5687933924
 30
0.0
 40
2.0
 41
0.0
 71
     1
 72
     1
  1
SW
  7
SLDTEXTSTYLE0
 11
-7.044195017643634E-15
 21
1.0
 31
0.0
 73
     1
 44
1.0
  0
MTEXT
  5
169
330
160
100
AcDbEntity
  8
VERMASSUNG
100
AcDbMText
 10
242.075152566
 20
121.3687934565
 30
0.0
 40
2.0
 41
0.0
 71
     1
 72
     1
  1
14
  7
SLDTEXTSTYLE0
 11
-7.044195017643634E-15
 21
1.0
 31
0.0
 73
     1
 44
1.0
  0
ENDBLK
  5
162
330
160
100
AcDbEntity
  8
0
100
AcDbBlockEnd
  0
ENDSEC
  0
SECTION
  2
ENTITIES
  0
MTEXT
  5
78
330
1F
100
AcDbEntity
  8
KOPF_DÜNN
100
AcDbMText
 10
13.8892156294
 20
23.8442973028
 30
0.0
 40
3.0
 41
0.0
 71
     1
 72
     1
  1
KY6.D32.K21.110
  7
SLDTEXTSTYLE0
 73
     1
 44
1.0
  0
MTEXT
  5
79
330
1F
100
AcDbEntity
  8
VERMASSUNG
100
AcDbMText
 10
13.9329988022
 20
28.8834360957
 30
0.0
 40
3.0
 41
0.0
 71
     1
 72
     1
  1
Fräsdorn_Milling arbor
  7
SLDTEXTSTYLE0
 73
     1
 44
1.0
  0
MTEXT
  5
7A
330
1F
100
AcDbEntity
  8
VERMASSUNG
100
AcDbMText
 10
98.8601118557
 20
13.8365368761
 30
0.0
 40
2.0
 41
0.0
 71
     1
 72
     1
  1
Datum: 19.02.2018
  7
SLDTEXTSTYLE0
 73
     1
 44
1.0
  0
MTEXT
  5
7B
330
1F
100
AcDbEntity
  8
VERMASSUNG
100
AcDbMText
 10
13.933048693
 20
18.0482802738
 30
0.0
 40
2.0
 41
0.0
 71
     1
 72
     1
  1
KM63 XMZ / Ø32
  7
SLDTEXTSTYLE0
 73
     1
 44
1.0
  0
MTEXT
  5
7C
330
1F
100
AcDbEntity
  8
VERMASSUNG
100
AcDbMText
 10
13.9808475933
 20
13.9090974274
 30
0.0
 40
2.0
 41
0.0
 71
     1
 72
     1
  1
Gewicht: 3673g
  7
SLDTEXTSTYLE0
 73
     1
 44
1.0
  0
LINE
  5
7D
330
1F
100
AcDbEntity
  8
0
  6
Continuous
 62
     7
370
    25
100
AcDbLine
 10
189.3248497521
 20
86.7687916967
 30
0.0
 11
195.8248480236
 21
86.7687916967
 31
0.0
  0
LINE
  5
7E
330
1F
100
AcDbEntity
  8
0
  6
Continuous
 62
     7
370
    25
100
AcDbLine
 10
195.8248480236
 20
100.7687939914
 30
0.0
 11
189.3248497521
 21
100.7687939914
 31
0.0
  0
ARC
  5
7F
330
1F
100
AcDbEntity
  8
0
  6
Continuous
 62
     7
370
    25
100
AcDbCircle
 10
195.8248503482
 20
87.2687935444
 30
0.0
 40
0.5
100
AcDbArc
 50
270.0
 51
0.0
  0
ARC
  5
80
330
1F
100
AcDbEntity
  8
0
  6
Continuous
 62
     7
370
    25
100
AcDbCircle
 10
195.8248503482
 20
100.2687935444
 30
0.0
 40
0.5
100
AcDbArc
 50
0.0
 51
90.0
  0
ARC
  5
81
330
1F
100
AcDbEntity
  8
0
  6
Continuous
 62
     7
370
    25
100
AcDbCircle
 10
195.8248503482
 20
141.2687935444
 30
0.0
 40
0.5
100
AcDbArc
 50
270.0
 51
0.0
  0
ARC
  5
82
330
1F
100
AcDbEntity
  8
0
  6
Continuous
 62
     7
370
    25
100
AcDbCircle
 10
195.8248503482
 20
154.2687935444
 30
0.0
 40
0.5
100
AcDbArc
 50
0.0
 51
90.0
  0
LINE
  5
83
330
1F
100
AcDbEntity
  8
0
  6
Continuous
 62
     7
370
    25
100
AcDbLine
 10
189.3248497521
 20
140.7687930974
 30
0.0
 11
195.8248480236
 21
140.7687930974
 31
0.0
  0
LINE
  5
84
330
1F
100
AcDbEntity
  8
0
  6
Continuous
 62
     7
370
    25
100
AcDbLine
 10
195.8248480236
 20
154.7687953921
 30
0.0
 11
189.3248497521
 21
154.7687953921
 31
0.0
  0
LINE
  5
85
330
1F
100
AcDbEntity
  8
0
  6
Continuous
 62
     7
370
    25
100
AcDbLine
 10
231.5248488461
 20
132.7687936487
 30
0.0
 11
216.3248448645
 21
132.7687936487
 31
0.0
  0
LINE
  5
86
330
1F
100
AcDbEntity
  8
0
  6
Continuous
 62
     7
370
    25
100
AcDbLine
 10
216.3248448645
 20
108.7687934401
 30
0.0
 11
231.5248488461
 21
108.7687934401
 31
0.0
  0
ARC
  5
87
330
1F
100
AcDbEntity
  8
0
  6
Continuous
 62
     7
370
    25
100
AcDbCircle
 10
231.5248503482
 20
131.9687935444
 30
0.0
 40
0.799999999999983
100
AcDbArc
 50
0.0
 51
90.0
  0
ARC
  5
88
330
1F
100
AcDbEntity
  8
0
  6
Continuous
 62
     7
370
    25
100
AcDbCircle
 10
231.5248503482
 20
109.5687935444
 30
0.0
 40
0.7999999999999972
100
AcDbArc
 50
270.0
 51
0.0
  0
ARC
  5
89
330
1F
100
AcDbEntity
  8
0
  6
Continuous
 62
     7
370
    25
100
AcDbCircle
 10
215.7248503482
 20
112.1687935444
 30
0.0
 40
0.5999999999999943
100
AcDbArc
 50
0.0
 51
90.0
  0
ARC
  5
8A
330
1F
100
AcDbEntity
  8
0
  6
Continuous
 62
     7
370
    25
100
AcDbCircle
 10
215.7248503482
 20
129.3687935444
 30
0.0
 40
0.5999999999999943
100
AcDbArc
 50
270.0
 51
0.0
  0
LINE
  5
8B
330
1F
100
AcDbEntity
  8
0
  6
Continuous
 62
     7
370
    25
100
AcDbLine
 10
215.7248496091
 20
128.7687939244
 30
0.0
 11
213.324853686
 21
128.7687939244
 31
0.0
  0
LINE
  5
8C
330
1F
100
AcDbEntity
  8
0
  6
Continuous
 62
     7
370
    25
100
AcDbLine
 10
213.324853686
 20
112.7687931644
 30
0.0
 11
215.7248496091
 21
112.7687931644
 31
0.0
  0
LINE
  5
8D
330
1F
100
AcDbEntity
  8
0
  6
Continuous
 62
     7
370
    25
100
AcDbLine
 10
106.2640636241
 20
84.7687950941
 30
0.0
 11
188.3248477256
 21
84.7687950941
 31
0.0
  0
LINE
  5
8E
330
1F
100
AcDbEntity
  8
0
  6
Continuous
 62
     7
370
    25
100
AcDbLine
 10
188.3248477256
 20
156.7687919947
 30
0.0
 11
106.2640636241
 21
156.7687919947
 31
0.0
  0
ARC
  5
8F
330
1F
100
AcDbEntity
  8
0
  6
Continuous
 62
     7
370
    25
100
AcDbCircle
 10
188.3248503482
 20
85.7687935444
 30
0.0
 40
1.0
100
AcDbArc
 50
270.0
 51
0.0
  0
ARC
  5
90
330
1F
100
AcDbEntity
  8
0
  6
Continuous
 62
     7
370
    25
100
AcDbCircle
 10
188.3248503482
 20
155.7687935444
 30
0.0
 40
1.0
100
AcDbArc
 50
0.0
 51
90.0
  0
ARC
  5
91
330
1F
100
AcDbEntity
  8
0
  6
Continuous
 62
     7
370
    25
100
AcDbCircle
 10
106.2640639105
 20
85.7687935444
 30
0.0
 40
1.0
100
AcDbArc
 50
225.0
 51
270.0
  0
ARC
  5
92
330
1F
100
AcDbEntity
  8
0
  6
Continuous
 62
     7
370
    25
100
AcDbCircle
 10
106.2640639105
 20
155.7687935444
 30
0.0
 40
1.0
100
AcDbArc
 50
90.0
 51
135.0
  0
LINE
  5
93
330
1F
100
AcDbEntity
  8
0
  6
Continuous
 62
     7
370
    25
100
AcDbLine
 10
105.5569569593
 20
156.4758984955
 30
0.0
 11
101.6177437281
 21
152.536687127
 31
0.0
  0
LINE
  5
94
330
1F
100
AcDbEntity
  8
0
  6
Continuous
 62
     7
370
    25
100
AcDbLine
 10
101.6177437281
 20
89.0008999618
 30
0.0
 11
105.5569569593
 21
85.0616885933
 31
0.0
  0
ARC
  5
95
330
1F
100
AcDbEntity
  8
0
  6
Continuous
 62
     7
370
    25
100
AcDbCircle
 10
100.9106367858
 20
88.2937935444
 30
0.0
 40
1.000000000000008
100
AcDbArc
 50
45.0
 51
90.0
  0
ARC
  5
96
330
1F
100
AcDbEntity
  8
0
  6
Continuous
 62
     7
370
    25
100
AcDbCircle
 10
100.9106367858
 20
153.2437935444
 30
0.0
 40
1.000000000000038
100
AcDbArc
 50
270.0
 51
315.0
  0
ARC
  5
97
330
1F
100
AcDbEntity
  8
0
  6
Continuous
 62
     7
370
    25
100
AcDbCircle
 10
79.5248503482
 20
89.4937935444
 30
0.0
 40
0.2000000000000028
100
AcDbArc
 50
180.0
 51
270.0
  0
ARC
  5
98
330
1F
100
AcDbEntity
  8
0
  6
Continuous
 62
     7
370
    25
100
AcDbCircle
 10
79.5248503482
 20
152.0437935444
 30
0.0
 40
0.2000000000000455
100
AcDbArc
 50
90.0
 51
180.0
  0
LINE
  5
99
330
1F
100
AcDbEntity
  8
0
  6
Continuous
 62
     7
370
    25
100
AcDbLine
 10
79.5248503431
 20
89.293793461
 30
0.0
 11
85.8906526131
 21
89.293793461
 31
0.0
  0
LINE
  5
9A
330
1F
100
AcDbEntity
  8
0
  6
Continuous
 62
     7
370
    25
100
AcDbLine
 10
84.6853479756
 20
152.2437936279
 30
0.0
 11
79.5248503431
 21
152.2437936279
 31
0.0
  0
LINE
  5
9B
330
1F
100
AcDbEntity
  8
0
  6
Continuous
 62
     7
370
    25
100
AcDbLine
 10
92.5590484416
 20
89.293793461
 30
0.0
 11
100.9106370633
 21
89.293793461
 31
0.0
  0
LINE
  5
9C
330
1F
100
AcDbEntity
  8
0
  6
Continuous
 62
     7
370
    25
100
AcDbLine
 10
100.9106370633
 20
152.2437936279
 30
0.0
 11
96.0396970635
 21
152.2437936279
 31
0.0
  0
LINE
  5
9D
330
1F
100
AcDbEntity
  8
0
  6
Continuous
 62
     7
370
    25
100
AcDbLine
 10
85.8906526131
 20
89.293793461
 30
0.0
 11
87.34985022
 21
91.8211980375
 31
0.0
  0
ARC
  5
9E
330
1F
100
AcDbEntity
  8
0
  6
Continuous
 62
     7
370
    25
100
AcDbCircle
 10
78.8959154736
 20
95.2187935444
 30
0.0
 40
0.8000000000000158
100
AcDbArc
 50
57.576802718
 51
107.5
  0
ARC
  5
9F
330
1F
100
AcDbEntity
  8
0
  6
Continuous
 62
     7
370
    25
100
AcDbCircle
 10
78.8959154736
 20
146.3187935444
 30
0.0
 40
0.8000000000000278
100
AcDbArc
 50
252.5
 51
302.423197282
  0
LINE
  5
A0
330
1F
100
AcDbEntity
  8
0
  6
Continuous
 62
     7
370
    25
100
AcDbLine
 10
91.099850369
 20
91.8211980375
 30
0.0
 11
92.5590484416
 21
89.293793461
 31
0.0
  0
LINE
  5
A1
330
1F
100
AcDbEntity
  8
0
  6
Continuous
 62
     7
370
    25
100
AcDbLine
 10
78.1646682894
 20
95.8270548495
 30
0.0
 11
78.6553508382
 21
95.9817680182
 31
0.0
  0
LINE
  5
A2
330
1F
100
AcDbEntity
  8
0
  6
Continuous
 62
     7
370
    25
100
AcDbLine
 10
78.6553508382
 20
145.5558190706
 30
0.0
 11
78.1646682894
 21
145.7105322393
 31
0.0
  0
LINE
  5
A3
330
1F
100
AcDbEntity
  8
0
  6
Continuous
 62
     7
370
    25
100
AcDbLine
 10
78.1646682894
 20
145.7105322393
 30
0.0
 11
62.2197925126
 21
144.9098127546
 31
0.0
  0
LINE
  5
A4
330
1F
100
AcDbEntity
  8
0
  6
Continuous
 62
     7
370
    25
100
AcDbLine
 10
62.2197925126
 20
96.6277743342
 30
0.0
 11
78.1646682894
 21
95.8270548495
 31
0.0
  0
ARC
  5
A5
330
1F
100
AcDbEntity
  8
0
  6
Continuous
 62
     7
370
    25
100
AcDbCircle
 10
88.3498503482
 20
91.9187935444
 30
0.0
 40
1.0
100
AcDbArc
 50
90.0
 51
180.0
  0
ARC
  5
A6
330
1F
100
AcDbEntity
  8
0
  6
Continuous
 62
     7
370
    25
100
AcDbCircle
 10
90.0998503482
 20
91.9187935444
 30
0.0
 40
1.0
100
AcDbArc
 50
0.0
 51
90.0
  0
LINE
  5
A7
330
1F
100
AcDbEntity
  8
0
  6
Continuous
 62
     7
370
    25
100
AcDbLine
 10
88.3498503839
 20
92.9187933567
 30
0.0
 11
90.0998502051
 21
92.9187933567
 31
0.0
  0
ARC
  5
A8
330
1F
100
AcDbEntity
  8
0
  6
Continuous
 62
     7
370
    25
100
AcDbCircle
 10
189.7248503482
 20
104.5187935444
 30
0.0
 40
0.6000000000000085
100
AcDbArc
 50
90.0
 51
131.8103148958
  0
ARC
  5
A9
330
1F
100
AcDbEntity
  8
0
  6
Continuous
 62
     7
370
    25
100
AcDbCircle
 10
189.7248503482
 20
137.0187935444
 30
0.0
 40
0.6000000000000076
100
AcDbArc
 50
228.1896851042
 51
270.0
  0
LINE
  5
AA
330
1F
100
AcDbEntity
  8
0
  6
Continuous
 62
     7
370
    25
100
AcDbLine
 10
191.8248473679
 20
104.7687927844
 30
0.0
 11
212.3248516595
 21
104.7687927844
 31
0.0
  0
LINE
  5
AB
330
1F
100
AcDbEntity
  8
0
  6
Continuous
 62
     7
370
    25
100
AcDbLine
 10
212.3248516595
 20
136.7687943044
 30
0.0
 11
191.8248473679
 21
136.7687943044
 31
0.0
  0
ARC
  5
AC
330
1F
100
AcDbEntity
  8
0
  6
Continuous
 62
     7
370
    25
100
AcDbCircle
 10
212.3248503482
 20
105.7687935444
 30
0.0
 40
1.0
100
AcDbArc
 50
270.0
 51
0.0
  0
ARC
  5
AD
330
1F
100
AcDbEntity
  8
0
  6
Continuous
 62
     7
370
    25
100
AcDbCircle
 10
212.3248503482
 20
135.7687935444
 30
0.0
 40
1.0
100
AcDbArc
 50
0.0
 51
90.0
  0
LINE
  5
AE
330
1F
100
AcDbEntity
  8
0
  6
Continuous
 62
     7
370
    25
100
AcDbLine
 10
191.8248473679
 20
136.7687943044
 30
0.0
 11
190.5949353253
 21
136.4392383608
 31
0.0
  0
LINE
  5
AF
330
1F
100
AcDbEntity
  8
0
  6
Continuous
 62
     7
370
    25
100
AcDbLine
 10
190.5949353253
 20
105.0983487281
 30
0.0
 11
191.8248473679
 21
104.7687927844
 31
0.0
  0
ARC
  5
B0
330
1F
100
AcDbEntity
  8
0
  6
Continuous
 62
     7
370
    25
100
AcDbCircle
 10
190.439641067
 20
104.5187935444
 30
0.0
 40
0.6000000000000085
100
AcDbArc
 50
75.0
 51
90.0
  0
ARC
  5
B1
330
1F
100
AcDbEntity
  8
0
  6
Continuous
 62
     7
370
    25
100
AcDbCircle
 10
190.439641067
 20
137.0187935444
 30
0.0
 40
0.6000000000000227
100
AcDbArc
 50
270.0
 51
285.0
  0
LINE
  5
B2
330
1F
100
AcDbEntity
  8
0
  6
Continuous
 62
     7
370
    25
100
AcDbLine
 10
189.7248490726
 20
105.1187931212
 30
0.0
 11
190.4396428739
 21
105.1187931212
 31
0.0
  0
LINE
  5
B3
330
1F
100
AcDbEntity
  8
0
  6
Continuous
 62
     7
370
    25
100
AcDbLine
 10
190.4396428739
 20
136.4187939676
 30
0.0
 11
189.7248490726
 21
136.4187939676
 31
0.0
  0
LINE
  5
B4
330
1F
100
AcDbEntity
  8
0
  6
Continuous
 62
     7
370
    25
100
AcDbLine
 10
62.2197925126
 20
144.9098127546
 30
0.0
 11
61.324851123
 21
144.0148713651
 31
0.0
  0
LINE
  5
B5
330
1F
100
AcDbEntity
  8
0
  6
Continuous
 62
     7
370
    25
100
AcDbLine
 10
61.324851123
 20
97.5227157237
 30
0.0
 11
62.2197925126
 21
96.6277743342
 31
0.0
  0
LINE
  5
B6
330
1F
100
AcDbEntity
  8
0
  6
Continuous
 62
     7
370
    25
100
AcDbLine
 10
196.3248490369
 20
87.2687927099
 30
0.0
 11
196.3248490369
 21
100.2687929782
 31
0.0
  0
LINE
  5
B7
330
1F
100
AcDbEntity
  8
0
  6
Continuous
 62
     7
370
    25
100
AcDbLine
 10
196.3248490369
 20
141.2687941106
 30
0.0
 11
196.3248490369
 21
154.2687943789
 31
0.0
  0
LINE
  5
B8
330
1F
100
AcDbEntity
  8
0
  6
Continuous
 62
     7
370
    25
100
AcDbLine
 10
216.3248448645
 20
132.7687936487
 30
0.0
 11
216.3248448645
 21
108.7687934401
 31
0.0
  0
LINE
  5
B9
330
1F
100
AcDbEntity
  8
0
  6
Continuous
 62
     7
370
    25
100
AcDbLine
 10
232.3248474871
 20
131.9687931451
 30
0.0
 11
232.3248474871
 21
109.5687939438
 31
0.0
  0
LINE
  5
BA
330
1F
100
AcDbEntity
  8
0
  6
Continuous
 62
     7
370
    25
100
AcDbLine
 10
189.3248497521
 20
85.7687933954
 30
0.0
 11
189.3248497521
 21
155.7687936934
 31
0.0
  0
LINE
  5
BB
330
1F
100
AcDbEntity
  8
0
  6
Continuous
 62
     7
370
    25
100
AcDbLine
 10
79.3248503482
 20
89.4937931212
 30
0.0
 11
79.3248503482
 21
152.0437939676
 31
0.0
  0
SPLINE
  5
BC
330
1F
100
AcDbEntity
  8
0
  6
Continuous
 62
     7
370
    25
100
AcDbSpline
210
0.0
220
0.0
230
1.0
 70
     8
 71
     3
 72
    10
 73
     6
 74
     0
 42
0.000000001
 43
0.00000001
 40
0.0
 40
0.0
 40
0.0
 40
0.0
 40
0.4058355826442185
 40
0.8996340058832388
 40
1.0
 40
1.0
 40
1.0
 40
1.0
 10
85.89065261313145
 20
152.0708582016164
 30
0.0
 10
85.60881660513283
 20
152.1072495707283
 30
0.0
 10
84.98405803855785
 20
152.1879199568988
 30
0.0
 10
84.58395036904834
 20
152.2520084165689
 30
0.0
 10
84.67069509442113
 20
152.2387215666038
 30
0.0
 10
84.68534797558014
 20
152.2364771577055
 30
0.0
  0
LINE
  5
BD
330
1F
100
AcDbEntity
  8
0
  6
Continuous
 62
     7
370
    25
100
AcDbLine
 10
85.8906526131
 20
89.293793461
 30
0.0
 11
85.8906526131
 21
152.0708582016
 31
0.0
  0
SPLINE
  5
BE
330
1F
100
AcDbEntity
  8
0
  6
Continuous
 62
     7
370
    25
100
AcDbSpline
210
0.0
220
0.0
230
1.0
 70
     8
 71
     3
 72
    25
 73
    21
 74
     0
 42
0.000000001
 43
0.00000001
 40
0.0
 40
0.0
 40
0.0
 40
0.0
 40
0.1249999999999985
 40
0.1249999999999985
 40
0.2499999999999971
 40
0.2499999999999971
 40
0.3749999999999956
 40
0.3749999999999956
 40
0.4999999999999941
 40
0.4999999999999941
 40
0.562499999999995
 40
0.562499999999995
 40
0.624999999999996
 40
0.6874999999999969
 40
0.6874999999999969
 40
0.7499999999999978
 40
0.7499999999999978
 40
0.8749999999999989
 40
0.8749999999999989
 40
1.0
 40
1.0
 40
1.0
 40
1.0
 10
92.5590481527429
 20
107.7310495390931
 30
0.0
 10
92.80029565829832
 20
107.5721751603014
 30
0.0
 10
93.01622469254275
 20
107.3912876252729
 30
0.0
 10
93.39938260438535
 20
106.9883944053101
 30
0.0
 10
93.56683438987056
 20
106.7643243313722
 30
0.0
 10
93.83451904627447
 20
106.298021419334
 30
0.0
 10
93.93819101399528
 20
106.0510877662743
 30
0.0
 10
94.07732238524949
 20
105.5445020101613
 30
0.0
 10
94.11206162524014
 20
105.2899913012593
 30
0.0
 10
94.11249205845938
 20
104.9066665560975
 30
0.0
 10
94.10375727486992
 20
104.7778422083052
 30
0.0
 10
94.06896387169527
 20
104.5257218437692
 30
0.0
 10
94.01707100996616
 20
104.278169174618
 30
0.0
 10
93.93169279767251
 20
104.0394328532193
 30
0.0
 10
93.82921704460792
 20
103.8050919545799
 30
0.0
 10
93.7691556729568
 20
103.689909601504
 30
0.0
 10
93.56784585050568
 20
103.3598606291623
 30
0.0
 10
93.40462233042585
 20
103.1571494989283
 30
0.0
 10
93.01924413017449
 20
102.7854051253788
 30
0.0
 10
92.80029464434867
 20
102.6200514477217
 30
0.0
 10
92.5590481527429
 20
102.4779972262436
 30
0.0
  0
LINE
  5
BF
330
1F
100
AcDbEntity
  8
0
  6
Continuous
 62
     7
370
    25
100
AcDbLine
 10
92.5590484416
 20
107.7310495662
 30
0.0
 11
92.5590484416
 21
151.8616607996
 31
0.0
  0
SPLINE
  5
C0
330
1F
100
AcDbEntity
  8
0
  6
Continuous
 62
     7
370
    25
100
AcDbSpline
210
0.0
220
0.0
230
1.0
 70
     8
 71
     3
 72
    12
 73
     8
 74
     0
 42
0.000000001
 43
0.00000001
 40
0.0
 40
0.0
 40
0.0
 40
0.0
 40
0.1144634680262505
 40
0.3661160526449659
 40
0.6247763889426796
 40
0.9030266255086999
 40
1.0
 40
1.0
 40
1.0
 40
1.0
 10
96.03969706350391
 20
152.2326624604399
 30
0.0
 10
96.05671537613803
 20
152.2352630559717
 30
0.0
 10
96.11114914047975
 20
152.2435811664317
 30
0.0
 10
95.60624290319286
 20
152.1663140878522
 30
0.0
 10
94.6125900767957
 20
152.0356653128925
 30
0.0
 10
93.4893070219064
 20
151.9219413027151
 30
0.0
 10
92.75009225686739
 20
151.8740403869079
 30
0.0
 10
92.55904844158714
 20
151.861660799616
 30
0.0
  0
LINE
  5
C1
330
1F
100
AcDbEntity
  8
0
  6
Continuous
 62
     7
370
    25
100
AcDbLine
 10
92.5590484416
 20
89.293793461
 30
0.0
 11
92.5590484416
 21
102.4779962959
 31
0.0
  0
SPLINE
  5
C2
330
1F
100
AcDbEntity
  8
0
  6
Continuous
 62
     7
370
    25
100
AcDbSpline
210
0.0
220
0.0
230
1.0
 70
     8
 71
     3
 72
    10
 73
     6
 74
     0
 42
0.000000001
 43
0.00000001
 40
0.0
 40
0.0
 40
0.0
 40
0.0
 40
0.5
 40
0.5
 40
1.0
 40
1.0
 40
1.0
 40
1.0
 10
87.01886854071955
 20
150.2437935444052
 30
0.0
 10
86.84198339429616
 20
150.5339870841477
 30
0.0
 10
86.65643401941877
 20
150.8364004700882
 30
0.0
 10
86.27848507937118
 20
151.4484346073885
 30
0.0
 10
86.08569853719197
 20
151.7587114469535
 30
0.0
 10
85.89065254360271
 20
152.0708585179186
 30
0.0
  0
SPLINE
  5
C3
330
1F
100
AcDbEntity
  8
0
  6
Continuous
 62
     7
370
    25
100
AcDbSpline
210
0.0
220
0.0
230
1.0
 70
     8
 71
     3
 72
     8
 73
     4
 74
     0
 42
0.000000001
 43
0.00000001
 40
0.0
 40
0.0
 40
0.0
 40
0.0
 40
1.0
 40
1.0
 40
1.0
 40
1.0
 10
87.34985034817288
 20
149.6330446230222
 30
0.0
 10
87.23155358874291
 20
149.850929857353
 30
0.0
 10
87.12012510657154
 20
150.0566101483951
 30
0.0
 10
87.01886854071957
 20
150.2437935444052
 30
0.0
  0
LINE
  5
C4
330
1F
100
AcDbEntity
  8
0
  6
Continuous
 62
     7
370
    25
100
AcDbLine
 10
87.34985022
 20
108.2376443433
 30
0.0
 11
87.34985022
 21
149.6330449941
 31
0.0
  0
SPLINE
  5
C5
330
1F
100
AcDbEntity
  8
0
  6
Continuous
 62
     7
370
    25
100
AcDbSpline
210
0.0
220
0.0
230
1.0
 70
     8
 71
     3
 72
    26
 73
    22
 74
     0
 42
0.000000001
 43
0.00000001
 40
0.0
 40
0.0
 40
0.0
 40
0.0
 40
0.1250000000000014
 40
0.1250000000000014
 40
0.2500000000000027
 40
0.2500000000000027
 40
0.3125000000000025
 40
0.3125000000000025
 40
0.3750000000000023
 40
0.3750000000000023
 40
0.4375000000000021
 40
0.4375000000000021
 40
0.5000000000000018
 40
0.5000000000000018
 40
0.5625000000000016
 40
0.5625000000000016
 40
0.6250000000000013
 40
0.6250000000000013
 40
0.7500000000000006
 40
0.7500000000000006
 40
1.0
 40
1.0
 40
1.0
 40
1.0
 10
87.34985034817288
 20
104.4356916934344
 30
0.0
 10
87.25794543749006
 20
104.4607393857708
 30
0.0
 10
87.17024866126508
 20
104.4987469796851
 30
0.0
 10
87.00604239049778
 20
104.6097432307779
 30
0.0
 10
86.92877197223105
 20
104.6836767420914
 30
0.0
 10
86.82900586590594
 20
104.8289748774218
 30
0.0
 10
86.79839293700364
 20
104.8831166914134
 30
0.0
 10
86.7435240631006
 20
105.0051809306815
 30
0.0
 10
86.7191388421717
 20
105.0737529122657
 30
0.0
 10
86.67945946567325
 20
105.2233370822999
 30
0.0
 10
86.66399338643593
 20
105.3044960874726
 30
0.0
 10
86.6428970513535
 20
105.4811520945641
 30
0.0
 10
86.63738398519344
 20
105.5773962012859
 30
0.0
 10
86.63731702757113
 20
105.7766261436469
 30
0.0
 10
86.64258533492061
 20
105.8804740918704
 30
0.0
 10
86.66342786208864
 20
106.0963942880233
 30
0.0
 10
86.67910197529889
 20
106.2083634421175
 30
0.0
 10
86.73842090547649
 20
106.5429896582624
 30
0.0
 10
86.79544074099049
 20
106.7710443666314
 30
0.0
 10
86.99427562963434
 20
107.4294273107005
 30
0.0
 10
87.16554583486646
 20
107.8479522991593
 30
0.0
 10
87.34985034817284
 20
108.2376443167584
 30
0.0
  0
LINE
  5
C6
330
1F
100
AcDbEntity
  8
0
  6
Continuous
 62
     7
370
    25
100
AcDbLine
 10
87.34985022
 20
91.8211980375
 30
0.0
 11
87.34985022
 21
104.4356922271
 31
0.0
  0
SPLINE
  5
C7
330
1F
100
AcDbEntity
  8
0
  6
Continuous
 62
     7
370
    25
100
AcDbSpline
210
0.0
220
0.0
230
1.0
 70
     8
 71
     3
 72
     8
 73
     4
 74
     0
 42
0.000000001
 43
0.00000001
 40
0.0
 40
0.0
 40
0.0
 40
0.0
 40
1.0
 40
1.0
 40
1.0
 40
1.0
 10
91.5276940635088
 20
150.2437935444052
 30
0.0
 10
91.38615597522696
 20
149.9913295443497
 30
0.0
 10
91.24354550649005
 20
149.7377858552072
 30
0.0
 10
91.09985034817305
 20
149.4832496654857
 30
0.0
  0
SPLINE
  5
C8
330
1F
100
AcDbEntity
  8
0
  6
Continuous
 62
     7
370
    25
100
AcDbSpline
210
0.0
220
0.0
230
1.0
 70
     8
 71
     3
 72
     8
 73
     4
 74
     0
 42
0.000000001
 43
0.00000001
 40
0.0
 40
0.0
 40
0.0
 40
0.0
 40
1.0
 40
1.0
 40
1.0
 40
1.0
 10
92.55904815274248
 20
151.8616606961966
 30
0.0
 10
92.2106467480622
 20
151.3196719505456
 30
0.0
 10
91.86607836282931
 20
150.7794527635521
 30
0.0
 10
91.52769406350848
 20
150.2437935444047
 30
0.0
  0
SPLINE
  5
C9
330
1F
100
AcDbEntity
  8
0
  6
Continuous
 62
     7
370
    25
100
AcDbSpline
210
0.0
220
0.0
230
1.0
 70
     8
 71
     3
 72
    10
 73
     6
 74
     0
 42
0.000000001
 43
0.00000001
 40
0.0
 40
0.0
 40
0.0
 40
0.0
 40
0.5
 40
0.5
 40
1.0
 40
1.0
 40
1.0
 40
1.0
 10
91.09985034817284
 20
109.5868545947176
 30
0.0
 10
91.35104323804433
 20
109.321362446162
 30
0.0
 10
91.59831254974615
 20
109.0356761231195
 30
0.0
 10
92.08493390105698
 20
108.4198034412293
 30
0.0
 10
92.32431720877368
 20
108.0898657139886
 30
0.0
 10
92.55904815274279
 20
107.7310495390933
 30
0.0
  0
LINE
  5
CA
330
1F
100
AcDbEntity
  8
0
  6
Continuous
 62
     7
370
    25
100
AcDbLine
 10
91.099850369
 20
109.5868541511
 30
0.0
 11
91.099850369
 21
149.4832492086
 31
0.0
  0
SPLINE
  5
CB
330
1F
100
AcDbEntity
  8
0
  6
Continuous
 62
     7
370
    25
100
AcDbSpline
210
0.0
220
0.0
230
1.0
 70
     8
 71
     3
 72
    10
 73
     6
 74
     0
 42
0.000000001
 43
0.00000001
 40
0.0
 40
0.0
 40
0.0
 40
0.0
 40
0.5
 40
0.5
 40
1.0
 40
1.0
 40
1.0
 40
1.0
 10
92.55904815274279
 20
102.4779972262437
 30
0.0
 10
92.32431720877368
 20
102.5440128832984
 30
0.0
 10
92.08493390105698
 20
102.6454208243828
 30
0.0
 10
91.59831254974615
 20
102.9016666184613
 30
0.0
 10
91.35104323804433
 20
103.0568149001521
 30
0.0
 10
91.09985034817284
 20
103.2362763730121
 30
0.0
  0
LINE
  5
CC
330
1F
100
AcDbEntity
  8
0
  6
Continuous
 62
     7
370
    25
100
AcDbLine
 10
91.099850369
 20
103.2362772735
 30
0.0
 11
91.099850369
 21
103.2854715946
 31
0.0
  0
SPLINE
  5
CD
330
1F
100
AcDbEntity
  8
0
  6
Continuous
 62
     7
370
    25
100
AcDbSpline
210
0.0
220
0.0
230
1.0
 70
     8
 71
     3
 72
    14
 73
    10
 74
     0
 42
0.000000001
 43
0.00000001
 40
0.0
 40
0.0
 40
0.0
 40
0.0
 40
0.25
 40
0.25
 40
0.5
 40
0.5
 40
0.75
 40
0.75
 40
1.0
 40
1.0
 40
1.0
 40
1.0
 10
91.09985034817299
 20
103.2854715608081
 30
0.0
 10
91.099850348173
 20
103.3513888405172
 30
0.0
 10
91.07392090990705
 20
103.4127782993115
 30
0.0
 10
90.97447865263067
 20
103.5202043616009
 30
0.0
 10
90.90219626690984
 20
103.5657455356994
 30
0.0
 10
90.71745893014527
 20
103.6423824595792
 30
0.0
 10
90.60791229382326
 20
103.6723080134044
 30
0.0
 10
90.36455104881999
 20
103.7179502008311
 30
0.0
 10
90.23303994137422
 20
103.7332294514525
 30
0.0
 10
90.09985034817284
 20
103.7410759351524
 30
0.0
  0
SPLINE
  5
CE
330
1F
100
AcDbEntity
  8
0
  6
Continuous
 62
     7
370
    25
100
AcDbSpline
210
0.0
220
0.0
230
1.0
 70
     8
 71
     3
 72
    10
 73
     6
 74
     0
 42
0.000000001
 43
0.00000001
 40
0.0
 40
0.0
 40
0.0
 40
0.0
 40
0.5
 40
0.5
 40
1.0
 40
1.0
 40
1.0
 40
1.0
 10
90.09985034817282
 20
103.7410759351523
 30
0.0
 10
89.78738644588472
 20
103.7594838516957
 30
0.0
 10
89.48449746388692
 20
103.8083566686196
 30
0.0
 10
88.89715427908287
 20
103.96565892596
 30
0.0
 10
88.61268661851092
 20
104.0750311412385
 30
0.0
 10
88.34985034817282
 20
104.212144661426
 30
0.0
  0
SPLINE
  5
CF
330
1F
100
AcDbEntity
  8
0
  6
Continuous
 62
     7
370
    25
100
AcDbSpline
210
0.0
220
0.0
230
1.0
 70
     8
 71
     3
 72
    14
 73
    10
 74
     0
 42
0.000000001
 43
0.00000001
 40
0.0
 40
0.0
 40
0.0
 40
0.0
 40
0.25
 40
0.25
 40
0.5
 40
0.5
 40
0.75
 40
0.75
 40
1.0
 40
1.0
 40
1.0
 40
1.0
 10
88.34985034817284
 20
104.212144661426
 30
0.0
 10
88.2154995996317
 20
104.2822312748473
 30
0.0
 10
88.09232069683826
 20
104.3434265821429
 30
0.0
 10
87.8635702759489
 20
104.4530689554694
 30
0.0
 10
87.76164718395576
 20
104.4997767548575
 30
0.0
 10
87.5822221196105
 20
104.5707422677065
 30
0.0
 10
87.50578087070606
 20
104.5952547460991
 30
0.0
 10
87.38849289624434
 20
104.5937390385733
 30
0.0
 10
87.34985034817284
 20
104.5651319953649
 30
0.0
 10
87.34985034817284
 20
104.4846307051512
 30
0.0
  0
LINE
  5
D0
330
1F
100
AcDbEntity
  8
0
  6
Continuous
 62
     7
370
    25
100
AcDbLine
 10
87.34985022
 20
104.4846313658
 30
0.0
 11
87.34985022
 21
104.4356922271
 31
0.0
  0
SPLINE
  5
D1
330
1F
100
AcDbEntity
  8
0
  6
Continuous
 62
     7
370
    25
100
AcDbSpline
210
0.0
220
0.0
230
1.0
 70
     8
 71
     3
 72
    16
 73
    12
 74
     0
 42
0.000000001
 43
0.00000001
 40
0.0
 40
0.0
 40
0.0
 40
0.0
 40
0.1250000000000001
 40
0.1250000000000001
 40
0.2500000000000003
 40
0.2500000000000003
 40
0.5000000000000002
 40
0.5000000000000002
 40
0.7500000000000001
 40
0.7500000000000001
 40
1.0
 40
1.0
 40
1.0
 40
1.0
 10
87.34985034817284
 20
108.2865833284752
 30
0.0
 10
87.34985034817284
 20
108.326612378629
 30
0.0
 10
87.35962291181245
 20
108.3780990336815
 30
0.0
 10
87.39381895721287
 20
108.4921632805875
 30
0.0
 10
87.41800414892376
 20
108.5545078180556
 30
0.0
 10
87.50572081302008
 20
108.7470341144107
 30
0.0
 10
87.58243097886945
 20
108.8792953219992
 30
0.0
 10
87.7615130791104
 20
109.1332442616655
 30
0.0
 10
87.86239584873023
 20
109.253216323947
 30
0.0
 10
88.09120734699324
 20
109.4750966815158
 30
0.0
 10
88.21550495542817
 20
109.5732630542623
 30
0.0
 10
88.34985034817284
 20
109.6531779961887
 30
0.0
  0
SPLINE
  5
D2
330
1F
100
AcDbEntity
  8
0
  6
Continuous
 62
     7
370
    25
100
AcDbSpline
210
0.0
220
0.0
230
1.0
 70
     8
 71
     3
 72
    10
 73
     6
 74
     0
 42
0.000000001
 43
0.00000001
 40
0.0
 40
0.0
 40
0.0
 40
0.0
 40
0.5
 40
0.5
 40
1.0
 40
1.0
 40
1.0
 40
1.0
 10
88.34985034817282
 20
109.6531779961887
 30
0.0
 10
88.61266986252853
 20
109.8095153725422
 30
0.0
 10
88.89102272713623
 20
109.9334340446094
 30
0.0
 10
89.47801931452165
 20
110.1168766542111
 30
0.0
 10
89.78740300439996
 20
110.1755486338038
 30
0.0
 10
90.09985034817282
 20
110.1970687906316
 30
0.0
  0
SPLINE
  5
D3
330
1F
100
AcDbEntity
  8
0
  6
Continuous
 62
     7
370
    25
100
AcDbSpline
210
0.0
220
0.0
230
1.0
 70
     8
 71
     3
 72
    14
 73
    10
 74
     0
 42
0.000000001
 43
0.00000001
 40
0.0
 40
0.0
 40
0.0
 40
0.0
 40
0.25
 40
0.25
 40
0.5
 40
0.5
 40
0.75
 40
0.75
 40
1.0
 40
1.0
 40
1.0
 40
1.0
 10
90.09985034817282
 20
110.1970687906316
 30
0.0
 10
90.23307979919618
 20
110.2062451166182
 30
0.0
 10
90.36478116180632
 20
110.1948529846518
 30
0.0
 10
90.60785882002342
 20
110.1366923249921
 30
0.0
 10
90.71876476057207
 20
110.0899162030926
 30
0.0
 10
90.9014618336497
 20
109.9769570763615
 30
0.0
 10
90.97484936313134
 20
109.9100033704207
 30
0.0
 10
91.07368364204963
 20
109.772971521626
 30
0.0
 10
91.09985034817284
 20
109.7021875465027
 30
0.0
 10
91.09985034817284
 20
109.6360497825148
 30
0.0
  0
LWPOLYLINE
  5
D4
330
1F
100
AcDbEntity
  8
0
  6
Continuous
 62
     7
370
    25
100
AcDbPolyline
 90
        3
 70
   128
 43
0.0
 10
90.3748502036
 20
108.2445240232
 10
91.3043287595
 20
108.3462123411
 10
91.9668343862
 20
108.5528346362
  0
ARC
  5
D5
330
1F
100
AcDbEntity
  8
0
  6
Continuous
 62
     7
370
    25
100
AcDbCircle
 10
90.321133881
 20
112.2557058649
 30
0.0
 40
4.011541500574625
100
AcDbArc
 50
230.8030918177
 51
270.7672388686
  0
SPLINE
  5
D6
330
1F
100
AcDbEntity
  8
0
  6
Continuous
 62
     7
370
    25
100
AcDbSpline
210
0.0
220
0.0
230
1.0
 70
     8
 71
     3
 72
    14
 73
    10
 74
     0
 42
0.000000001
 43
0.00000001
 40
0.0
 40
0.0
 40
0.0
 40
0.0
 40
0.25
 40
0.25
 40
0.5
 40
0.5
 40
0.75
 40
0.75
 40
1.0
 40
1.0
 40
1.0
 40
1.0
 10
88.34985034817284
 20
148.4410579756005
 30
0.0
 10
88.21550226181635
 20
148.4508892951713
 30
0.0
 10
88.09232558796039
 20
148.4869287085614
 30
0.0
 10
87.86357898304237
 20
148.5988004048807
 30
0.0
 10
87.76165701907516
 20
148.673155193971
 30
0.0
 10
87.58223361664643
 20
148.8566316608228
 30
0.0
 10
87.50579232846366
 20
148.9638971816828
 30
0.0
 10
87.38850235561354
 20
149.2229236715012
 30
0.0
 10
87.34985034817284
 20
149.3741683764774
 30
0.0
 10
87.34985034817284
 20
149.5351665995888
 30
0.0
  0
SPLINE
  5
D7
330
1F
100
AcDbEntity
  8
0
  6
Continuous
 62
     7
370
    25
100
AcDbSpline
210
0.0
220
0.0
230
1.0
 70
     8
 71
     3
 72
    14
 73
    10
 74
     0
 42
0.000000001
 43
0.00000001
 40
0.0
 40
0.0
 40
0.0
 40
0.0
 40
0.25
 40
0.25
 40
0.5
 40
0.5
 40
0.75
 40
0.75
 40
1.0
 40
1.0
 40
1.0
 40
1.0
 10
91.09985034817296
 20
149.3848592898926
 30
0.0
 10
91.0998503481731
 20
149.2530201129237
 30
0.0
 10
91.07393382560198
 20
149.1209711759351
 30
0.0
 10
90.97448897902443
 20
148.8757048842219
 30
0.0
 10
90.90219058661219
 20
148.7640844676341
 30
0.0
 10
90.71748669208831
 20
148.5733451784385
 30
0.0
 10
90.60790943021237
 20
148.4973843115915
 30
0.0
 10
90.36457925199423
 20
148.3935419874221
 30
0.0
 10
90.23304299307411
 20
148.3669087799888
 30
0.0
 10
90.09985034817284
 20
148.3682359074309
 30
0.0
  0
SPLINE
  5
D8
330
1F
100
AcDbEntity
  8
0
  6
Continuous
 62
     7
370
    25
100
AcDbSpline
210
0.0
220
0.0
230
1.0
 70
     8
 71
     3
 72
    10
 73
     6
 74
     0
 42
0.000000001
 43
0.00000001
 40
0.0
 40
0.0
 40
0.0
 40
0.0
 40
0.5
 40
0.5
 40
1.0
 40
1.0
 40
1.0
 40
1.0
 10
90.09985034817282
 20
148.3682359074312
 30
0.0
 10
89.78738644588472
 20
148.3713492882017
 30
0.0
 10
89.48449746388692
 20
148.3796652701082
 30
0.0
 10
88.89715427908287
 20
148.4048405639641
 30
0.0
 10
88.61268661851093
 20
148.4218241521901
 30
0.0
 10
88.34985034817284
 20
148.4410579756005
 30
0.0
  0
LINE
  5
D9
330
1F
100
AcDbEntity
  8
0
  6
Continuous
 62
     7
370
    25
100
AcDbLine
 10
91.099850369
 20
91.8211980375
 30
0.0
 11
91.099850369
 21
103.2362772735
 31
0.0
  0
LINE
  5
DA
330
1F
100
AcDbEntity
  8
0
  6
Continuous
 62
     7
370
    25
100
AcDbLine
 10
78.1646682894
 20
95.8270548495
 30
0.0
 11
78.1646682894
 21
145.7105322393
 31
0.0
  0
LINE
  5
DB
330
1F
100
AcDbEntity
  8
0
  6
Continuous
 62
     7
370
    25
100
AcDbLine
 10
62.2197925126
 20
97.027457005
 30
0.0
 11
62.2197925126
 21
96.6277743342
 31
0.0
  0
SPLINE
  5
DC
330
1F
100
AcDbEntity
  8
0
  6
Continuous
 62
     7
370
    25
100
AcDbSpline
210
0.0
220
0.0
230
1.0
 70
     8
 71
     3
 72
    26
 73
    22
 74
     0
 42
0.000000001
 43
0.00000001
 40
0.0
 40
0.0
 40
0.0
 40
0.0
 40
0.0241214275653681
 40
0.048207823354694
 40
0.0723095879205524
 40
0.0964771461125574
 40
0.1207606318213038
 40
0.1452095829268534
 40
0.1698726554210423
 40
0.1947973643378114
 40
0.2200298573584057
 40
0.2456147249583675
 40
0.3690974744022258
 40
0.4940700204039635
 40
0.6192566393629643
 40
0.7454654421861667
 40
0.7971580294162193
 40
0.8481837569733532
 40
0.8988139831114569
 40
0.9493262809205398
 40
1.0
 40
1.0
 40
1.0
 40
1.0
 10
57.27990819497141
 20
98.84938063048502
 30
0.0
 10
57.34514523049369
 20
98.84556300113478
 30
0.0
 10
57.4755245571782
 20
98.83793328681331
 30
0.0
 10
57.67047660853501
 20
98.82201961951412
 30
0.0
 10
57.86458588158588
 20
98.80286617017661
 30
0.0
 10
58.05783532678221
 20
98.78017450369084
 30
0.0
 10
58.25022655999643
 20
98.75406294275632
 30
0.0
 10
58.44175615085129
 20
98.72455000452736
 30
0.0
 10
58.63242364684959
 20
98.691692599275
 30
0.0
 10
58.82222359426084
 20
98.65555138632436
 30
0.0
 10
59.01117004327938
 20
98.61619028695527
 30
0.0
 10
59.43793558182868
 20
98.51978635377561
 30
0.0
 10
60.07242038369501
 20
98.34314780482401
 30
0.0
 10
60.81209557909648
 20
98.06502829428935
 30
0.0
 10
61.41884404221326
 20
97.77368306027022
 30
0.0
 10
61.77964285481265
 20
97.54619912519591
 30
0.0
 10
61.98183099836285
 20
97.38677966657605
 30
0.0
 10
62.08866910555458
 20
97.28547327308293
 30
0.0
 10
62.16428075919195
 20
97.19154143367348
 30
0.0
 10
62.21143306020707
 20
97.10443044780065
 30
0.0
 10
62.21700305905982
 20
97.05314263219061
 30
0.0
 10
62.21979250137424
 20
97.02745781485777
 30
0.0
  0
LINE
  5
DD
330
1F
100
AcDbEntity
  8
0
  6
Continuous
 62
     7
370
    25
100
AcDbLine
 10
55.365034846
 20
98.9548905405
 30
0.0
 11
57.2799085652
 21
98.849381006
 31
0.0
  0
SPLINE
  5
DE
330
1F
100
AcDbEntity
  8
0
  6
Continuous
 62
     7
370
    25
100
AcDbSpline
210
0.0
220
0.0
230
1.0
 70
     8
 71
     3
 72
    14
 73
    10
 74
     0
 42
0.000000001
 43
0.00000001
 40
0.0
 40
0.0
 40
0.0
 40
0.0
 40
0.0789259589567727
 40
0.158232396189637
 40
0.3308776440723308
 40
0.5000645817686393
 40
0.6670803235491236
 40
0.8332687177846481
 40
1.0
 40
1.0
 40
1.0
 40
1.0
 10
53.16882268986793
 20
98.84889763529873
 30
0.0
 10
53.22221820148727
 20
98.85692673896709
 30
0.0
 10
53.32926662840507
 20
98.87302365219429
 30
0.0
 10
53.55835911472523
 20
98.90282764673933
 30
0.0
 10
53.85726377164829
 20
98.93462622341492
 30
0.0
 10
54.22943910600623
 20
98.96078831806985
 30
0.0
 10
54.60506922417803
 20
98.97325417791362
 30
0.0
 10
54.98423015464664
 20
98.9728719406845
 30
0.0
 10
55.23796207617292
 20
98.96089139171458
 30
0.0
 10
55.36503491568194
 20
98.95489134896347
 30
0.0
  0
SPLINE
  5
DF
330
1F
100
AcDbEntity
  8
0
  6
Continuous
 62
     7
370
    25
100
AcDbSpline
210
0.0
220
0.0
230
1.0
 70
     8
 71
     3
 72
     8
 73
     4
 74
     0
 42
0.000000001
 43
0.00000001
 40
0.0
 40
0.0
 40
0.0
 40
0.0
 40
1.0
 40
1.0
 40
1.0
 40
1.0
 10
47.77652896596516
 20
99.14350701770866
 30
0.0
 10
49.57386565134045
 20
99.04537118765114
 30
0.0
 10
51.37120233671573
 20
98.94715231260945
 30
0.0
 10
53.16853902209101
 20
98.84885362355877
 30
0.0
  0
SPLINE
  5
E0
330
1F
100
AcDbEntity
  8
0
  6
Continuous
 62
     7
370
    25
100
AcDbSpline
210
0.0
220
0.0
230
1.0
 70
     8
 71
     3
 72
    13
 73
     9
 74
     0
 42
0.000000001
 43
0.00000001
 40
0.0
 40
0.0
 40
0.0
 40
0.0
 40
0.1666651380536958
 40
0.3328869540146023
 40
0.4989979369855643
 40
0.6653319948464125
 40
0.8322224399502948
 40
1.0
 40
1.0
 40
1.0
 40
1.0
 10
46.6930248011198
 20
99.26017408205054
 30
0.0
 10
46.75411828069484
 20
99.2564901567449
 30
0.0
 10
46.87614273381917
 20
99.24913210521633
 30
0.0
 10
47.05845351850624
 20
99.23410190872129
 30
0.0
 10
47.23974971712493
 20
99.21620170779278
 30
0.0
 10
47.41995676764598
 20
99.19509939752399
 30
0.0
 10
47.59928511327388
 20
99.17114821938556
 30
0.0
 10
47.71733855697958
 20
99.152731058473
 30
0.0
 10
47.77652174280972
 20
99.14349806854457
 30
0.0
  0
SPLINE
  5
E1
330
1F
100
AcDbEntity
  8
0
  6
Continuous
 62
     7
370
    25
100
AcDbSpline
210
0.0
220
0.0
230
1.0
 70
     8
 71
     3
 72
     8
 73
     4
 74
     0
 42
0.000000001
 43
0.00000001
 40
0.0
 40
0.0
 40
0.0
 40
0.0
 40
1.0
 40
1.0
 40
1.0
 40
1.0
 10
40.87485034818558
 20
99.5799413141442
 30
0.0
 10
42.81424183249699
 20
99.47345566426087
 30
0.0
 10
44.7536333168084
 20
99.3668650930295
 30
0.0
 10
46.69302480111981
 20
99.26017408205054
 30
0.0
  0
LINE
  5
E2
330
1F
100
AcDbEntity
  8
0
  6
Continuous
 62
     7
370
    25
100
AcDbLine
 10
40.8748514032
 20
99.5799420985
 30
0.0
 11
40.8748514032
 21
141.9577325346
 31
0.0
  0
SPLINE
  5
E3
330
1F
100
AcDbEntity
  8
0
  6
Continuous
 62
     7
370
    25
100
AcDbSpline
210
0.0
220
0.0
230
1.0
 70
     8
 71
     3
 72
     8
 73
     4
 74
     0
 42
0.000000001
 43
0.00000001
 40
0.0
 40
0.0
 40
0.0
 40
0.0
 40
1.0
 40
1.0
 40
1.0
 40
1.0
 10
46.69302480111981
 20
142.2774130067597
 30
0.0
 10
44.7536333168084
 20
142.1707219957808
 30
0.0
 10
42.81424183249699
 20
142.0641314245494
 30
0.0
 10
40.8748503481856
 20
141.9576457746661
 30
0.0
  0
SPLINE
  5
E4
330
1F
100
AcDbEntity
  8
0
  6
Continuous
 62
     7
370
    25
100
AcDbSpline
210
0.0
220
0.0
230
1.0
 70
     8
 71
     3
 72
    13
 73
     9
 74
     0
 42
0.000000001
 43
0.00000001
 40
0.0
 40
0.0
 40
0.0
 40
0.0
 40
0.1686717431882183
 40
0.3360976437898808
 40
0.5026076259375014
 40
0.6685363119848858
 40
0.8342210747440109
 40
1.0
 40
1.0
 40
1.0
 40
1.0
 10
47.77651985058679
 20
142.3940917825017
 30
0.0
 10
47.71701613392585
 20
142.3848146302576
 30
0.0
 10
47.59844820672912
 20
142.3663288486358
 30
0.0
 10
47.41854656137536
 20
142.3422931955267
 30
0.0
 10
47.23814788866797
 20
142.3211603167741
 30
0.0
 10
47.0570439240853
 20
142.3032830525835
 30
0.0
 10
46.87530782376416
 20
142.2883256843085
 30
0.0
 10
46.75379731493876
 20
142.2810512547848
 30
0.0
 10
46.6930248011198
 20
142.2774130067597
 30
0.0
  0
SPLINE
  5
E5
330
1F
100
AcDbEntity
  8
0
  6
Continuous
 62
     7
370
    25
100
AcDbSpline
210
0.0
220
0.0
230
1.0
 70
     8
 71
     3
 72
     8
 73
     4
 74
     0
 42
0.000000001
 43
0.00000001
 40
0.0
 40
0.0
 40
0.0
 40
0.0
 40
1.0
 40
1.0
 40
1.0
 40
1.0
 10
53.16871326708139
 20
142.6887430064468
 30
0.0
 10
51.37131859564298
 20
142.5904411472303
 30
0.0
 10
49.57392392420458
 20
142.4922191070716
 30
0.0
 10
47.77652925276617
 20
142.394080117256
 30
0.0
  0
SPLINE
  5
E6
330
1F
100
AcDbEntity
  8
0
  6
Continuous
 62
     7
370
    25
100
AcDbSpline
210
0.0
220
0.0
230
1.0
 70
     8
 71
     3
 72
    18
 73
    14
 74
     0
 42
0.000000001
 43
0.00000001
 40
0.0
 40
0.0
 40
0.0
 40
0.0
 40
0.092314649209579
 40
0.1843375917893046
 40
0.2763048505599807
 40
0.3684522564623057
 40
0.4610136522462774
 40
0.554219163410967
 40
0.6482935985028676
 40
0.7434550301884313
 40
0.8399135943672386
 40
0.9201663187099747
 40
1.0
 40
1.0
 40
1.0
 40
1.0
 10
55.36503491568194
 20
142.5826957398468
 30
0.0
 10
55.29471808319529
 20
142.5790225806598
 30
0.0
 10
55.1543066135767
 20
142.571687869164
 30
0.0
 10
54.94397397851718
 20
142.5660935160754
 30
0.0
 10
54.73455028335775
 20
142.5644864195983
 30
0.0
 10
54.52601055143634
 20
142.5672175795264
 30
0.0
 10
54.31836687376425
 20
142.5741408712254
 30
0.0
 10
54.11161862153538
 20
142.5852249775041
 30
0.0
 10
53.9057764402107
 20
142.6003966522739
 30
0.0
 10
53.70081470447951
 20
142.6195546236384
 30
0.0
 10
53.50931059262809
 20
142.641260316912
 30
0.0
 10
53.33157397554983
 20
142.664291431972
 30
0.0
 10
53.22323999897453
 20
142.6805548663196
 30
0.0
 10
53.16921479849228
 20
142.688665297866
 30
0.0
  0
LINE
  5
E7
330
1F
100
AcDbEntity
  8
0
  6
Continuous
 62
     7
370
    25
100
AcDbLine
 10
57.2799085652
 20
142.6882060828
 30
0.0
 11
55.365034846
 21
142.5826965483
 31
0.0
  0
SPLINE
  5
E8
330
1F
100
AcDbEntity
  8
0
  6
Continuous
 62
     7
370
    25
100
AcDbSpline
210
0.0
220
0.0
230
1.0
 70
     8
 71
     3
 72
    25
 73
    21
 74
     0
 42
0.000000001
 43
0.00000001
 40
0.0
 40
0.0
 40
0.0
 40
0.0
 40
0.0280056024285085
 40
0.0559514328341917
 40
0.0838901607636219
 40
0.1118745076904344
 40
0.1399569498904504
 40
0.168189428271427
 40
0.1966230730099236
 40
0.2253079499152393
 40
0.2542928341276655
 40
0.3799484016846518
 40
0.50578448875015
 40
0.6313077644952549
 40
0.7532057173414176
 40
0.8039627394919335
 40
0.8536129947756297
 40
0.9025574087114512
 40
0.9512124407384406
 40
1.0
 40
1.0
 40
1.0
 40
1.0
 10
62.21979250137424
 20
144.5101292739525
 30
0.0
 10
62.21983505650046
 20
144.4961738501832
 30
0.0
 10
62.21992007592799
 20
144.4682927875389
 30
0.0
 10
62.20751501919178
 20
144.4232557836984
 30
0.0
 10
62.18591796464037
 20
144.3759936353071
 30
0.0
 10
62.15423605680608
 20
144.3262975581129
 30
0.0
 10
62.11270968863365
 20
144.2742611732284
 30
0.0
 10
62.06127485941229
 20
144.2198967697347
 30
0.0
 10
61.99995315499707
 20
144.1632410770863
 30
0.0
 10
61.92873097888729
 20
144.1043160884379
 30
0.0
 10
61.75788513961067
 20
143.975493547386
 30
0.0
 10
61.42014869017831
 20
143.7652861203089
 30
0.0
 10
60.8085929827206
 20
143.4743608770434
 30
0.0
 10
60.07235956767701
 20
143.1958331647403
 30
0.0
 10
59.38583154668342
 20
143.0015282136053
 30
0.0
 10
58.83706874375299
 20
142.8809216706015
 30
0.0
 10
58.45497315830625
 20
142.8111278802878
 30
0.0
 10
58.06780645949014
 20
142.7553375980809
 30
0.0
 10
57.67563813105461
 20
142.7126197426483
 30
0.0
 10
57.41193772264133
 20
142.6963515949554
 30
0.0
 10
57.27990819497141
 20
142.6882064583253
 30
0.0
  0
LINE
  5
E9
330
1F
100
AcDbEntity
  8
0
  6
Continuous
 62
     7
370
    25
100
AcDbLine
 10
62.2197925126
 20
144.9098127546
 30
0.0
 11
62.2197925126
 21
144.5101300838
 31
0.0
  0
SPLINE
  5
EA
330
1F
100
AcDbEntity
  8
0
  6
Continuous
 62
     7
370
    25
100
AcDbSpline
210
0.0
220
0.0
230
1.0
 70
    11
 71
     3
 72
    39
 73
    35
 74
     0
 42
0.000000001
 43
0.00000001
 40
0.0
 40
0.0
 40
0.0
 40
0.0
 40
0.0310664058347798
 40
0.0621048158425991
 40
0.0931361551792733
 40
0.1235538293503577
 40
0.1538561545807598
 40
0.1850588072749104
 40
0.2160250992947717
 40
0.247186722379756
 40
0.2784462884306427
 40
0.3100516090231226
 40
0.3419834369140484
 40
0.3734259894013217
 40
0.4048604886785525
 40
0.4368740651833295
 40
0.468512068592407
 40
0.4998055358633177
 40
0.5309508213228404
 40
0.561864978443814
 40
0.5930416446592908
 40
0.6233742450133256
 40
0.6540913579073041
 40
0.6849496782718417
 40
0.7158160645167227
 40
0.7471731804043494
 40
0.7784514311866261
 40
0.8101295911560916
 40
0.8419598919689909
 40
0.8735175891922292
 40
0.9050808037889628
 40
0.9370235169792575
 40
0.9687441590033682
 40
0.9999999999999999
 40
0.9999999999999999
 40
0.9999999999999999
 40
0.9999999999999999
 10
51.2372664428998
 20
126.5770466739999
 30
0.0
 10
51.60139560386452
 20
126.9564703319077
 30
0.0
 10
52.40417994058141
 20
127.6439520328012
 30
0.0
 10
53.79921842596347
 20
128.4098660072198
 30
0.0
 10
55.31046026568676
 20
128.8987469406506
 30
0.0
 10
56.88205667220922
 20
129.0607248142842
 30
0.0
 10
58.44960128926783
 20
128.8992799233258
 30
0.0
 10
59.94527328337651
 20
128.4195555360818
 30
0.0
 10
61.3256895454121
 20
127.6662560678882
 30
0.0
 10
62.52273559899671
 20
126.6537701942278
 30
0.0
 10
63.51164337873813
 20
125.4192214068619
 30
0.0
 10
64.25113817304063
 20
123.9942697785799
 30
0.0
 10
64.72744209593007
 20
122.4433392990376
 30
0.0
 10
64.8951082683861
 20
120.8224104318115
 30
0.0
 10
64.74983066759854
 20
119.1974014858901
 30
0.0
 10
64.29085595696671
 20
117.6383755056185
 30
0.0
 10
63.56687007111345
 20
116.2017189069428
 30
0.0
 10
62.5910558157907
 20
114.9549746921423
 30
0.0
 10
61.40673126814166
 20
113.9287775029453
 30
0.0
 10
60.03852501241211
 20
113.1583732832245
 30
0.0
 10
58.55078717527986
 20
112.6595240727479
 30
0.0
 10
56.98113731482733
 20
112.4783199928521
 30
0.0
 10
55.40488279649818
 20
112.6147431347705
 30
0.0
 10
53.88560728802333
 20
113.0791748675772
 30
0.0
 10
52.48458925397539
 20
113.8336089419463
 30
0.0
 10
51.26645275707624
 20
114.8570186774808
 30
0.0
 10
50.25884185394773
 20
116.103960938974
 30
0.0
 10
49.51336794339767
 20
117.5370503452421
 30
0.0
 10
49.03753213077391
 20
119.0937125704636
 30
0.0
 10
48.8737210157861
 20
120.7173755441692
 30
0.0
 10
49.01953315905144
 20
122.3449245881608
 30
0.0
 10
49.4796774712285
 20
123.9096722764963
 30
0.0
 10
50.20913753604975
 20
125.3536983459587
 30
0.0
 10
50.87091691351173
 20
126.1953093856571
 30
0.0
 10
51.23726644289979
 20
126.5770466739999
 30
0.0
  0
SPLINE
  5
EB
330
1F
100
AcDbEntity
  8
0
  6
Continuous
 62
     7
370
    25
100
AcDbSpline
210
0.0
220
0.0
230
1.0
 70
    11
 71
     3
 72
    47
 73
    43
 74
     0
 42
0.000000001
 43
0.00000001
 40
0.0
 40
0.0
 40
0.0
 40
0.0
 40
0.018555931476537
 40
0.035174990069533
 40
0.0498581786730641
 40
0.062607288393385
 40
0.0953681058734515
 40
0.1250235953123156
 40
0.154562131414586
 40
0.1873254163316038
 40
0.2140376493834303
 40
0.2498478288711541
 40
0.267684277703266
 40
0.2839032658487942
 40
0.2985082399655423
 40
0.3115041128733393
 40
0.3429211894939697
 40
0.3729479207884575
 40
0.402849629723676
 40
0.4364008870340949
 40
0.4619504140121321
 40
0.4999311489198671
 40
0.5173446589925941
 40
0.5335937021926416
 40
0.5486836295585554
 40
0.5626211825520289
 40
0.5950895087050275
 40
0.6250625441345793
 40
0.6549914299861027
 40
0.6874537003694817
 40
0.716262031275159
 40
0.7500327067591864
 40
0.769858024757118
 40
0.7869169811408327
 40
0.8012094702879055
 40
0.8127363273117648
 40
0.845751829555199
 40
0.8751838140688346
 40
0.9050548218844019
 40
0.9375234837614186
 40
0.9660344858637263
 40
1.0
 40
1.0
 40
1.0
 40
1.0
 10
51.78107936327412
 20
125.8780126681964
 30
0.0
 10
51.58298710865267
 20
125.678633791048
 30
0.0
 10
51.23004843668436
 20
125.2793145451359
 30
0.0
 10
50.79414394571073
 20
124.6606695442569
 30
0.0
 10
50.46420019272919
 20
124.0783025114704
 30
0.0
 10
50.08297784173621
 20
123.2457638716543
 30
0.0
 10
49.75656947960513
 20
122.1364690955474
 30
0.0
 10
49.63221641152893
 20
120.7252917442816
 30
0.0
 10
49.7735857818792
 20
119.3158017510951
 30
0.0
 10
50.17508353541626
 20
118.0077341506797
 30
0.0
 10
50.85203292608095
 20
116.7230708501797
 30
0.0
 10
51.6252152837194
 20
115.7695830681476
 30
0.0
 10
52.42047698469059
 20
115.0702791006339
 30
0.0
 10
53.02461710245182
 20
114.6437800607122
 30
0.0
 10
53.60433229707647
 20
114.3136285326038
 30
0.0
 10
54.42213356451337
 20
113.9376678905147
 30
0.0
 10
55.52179599387466
 20
113.6086660562906
 30
0.0
 10
56.92416372253476
 20
113.4750880397865
 30
0.0
 10
58.35163640593905
 20
113.6110879187941
 30
0.0
 10
59.64881338969447
 20
114.0055760686375
 30
0.0
 10
60.94321641285158
 20
114.677369875587
 30
0.0
 10
61.89521309331248
 20
115.43992386554
 30
0.0
 10
62.60468582193174
 20
116.2419629854682
 30
0.0
 10
63.03029060187111
 20
116.8377585904549
 30
0.0
 10
63.37095322978911
 20
117.4290282107544
 30
0.0
 10
63.76061861665907
 20
118.2735910417988
 30
0.0
 10
64.09233057821602
 20
119.3972429466652
 30
0.0
 10
64.2185717397138
 20
120.8151351068179
 30
0.0
 10
64.07424362844365
 20
122.2309602983898
 30
0.0
 10
63.66196527937529
 20
123.5661182737468
 30
0.0
 10
62.98264909839299
 20
124.8350866073294
 30
0.0
 10
62.19629874015894
 20
125.7954090995707
 30
0.0
 10
61.40245106643408
 20
126.4908167064345
 30
0.0
 10
60.77272684440642
 20
126.9268905824662
 30
0.0
 10
60.2114909250107
 20
127.2397397309182
 30
0.0
 10
59.40788246559621
 20
127.6069417317843
 30
0.0
 10
58.32773406965227
 20
127.9296516687743
 30
0.0
 10
56.91820575520394
 20
128.0615959049128
 30
0.0
 10
55.50900080717388
 20
127.9277858702357
 30
0.0
 10
54.16828099388341
 20
127.5230298041499
 30
0.0
 10
52.88401313012778
 20
126.8447722572083
 30
0.0
 10
52.14367529563885
 20
126.2429636855473
 30
0.0
 10
51.78107936327412
 20
125.8780126681964
 30
0.0
  0
SPLINE
  5
EC
330
1F
100
AcDbEntity
  8
0
  6
Continuous
 62
     7
370
    25
100
AcDbSpline
210
0.0
220
0.0
230
1.0
 70
     8
 71
     3
 72
     8
 73
     4
 74
     0
 42
0.000000001
 43
0.00000001
 40
0.0
 40
0.0
 40
0.0
 40
0.0
 40
1.0
 40
1.0
 40
1.0
 40
1.0
 10
39.96119052659364
 20
99.99051332514462
 30
0.0
 10
40.26574380030306
 20
99.8528365847693
 30
0.0
 10
40.57029707401247
 20
99.71597386385535
 30
0.0
 10
40.87485034772188
 20
99.57994131452419
 30
0.0
  0
SPLINE
  5
ED
330
1F
100
AcDbEntity
  8
0
  6
Continuous
 62
     7
370
    25
100
AcDbSpline
210
0.0
220
0.0
230
1.0
 70
     8
 71
     3
 72
     8
 73
     4
 74
     0
 42
0.000000001
 43
0.00000001
 40
0.0
 40
0.0
 40
0.0
 40
0.0
 40
1.0
 40
1.0
 40
1.0
 40
1.0
 10
39.37485034817284
 20
100.5065678076608
 30
0.0
 10
39.56939748070557
 20
100.333160939341
 30
0.0
 10
39.76485850094461
 20
100.1611648443743
 30
0.0
 10
39.96119052660177
 20
99.99051332514244
 30
0.0
  0
LINE
  5
EE
330
1F
100
AcDbEntity
  8
0
  6
Continuous
 62
     7
370
    25
100
AcDbLine
 10
39.3748520886
 20
100.506567082
 30
0.0
 11
39.3748520886
 21
141.0310200068
 31
0.0
  0
SPLINE
  5
EF
330
1F
100
AcDbEntity
  8
0
  6
Continuous
 62
     7
370
    25
100
AcDbSpline
210
0.0
220
0.0
230
1.0
 70
     8
 71
     3
 72
     8
 73
     4
 74
     0
 42
0.000000001
 43
0.00000001
 40
0.0
 40
0.0
 40
0.0
 40
0.0
 40
1.0
 40
1.0
 40
1.0
 40
1.0
 10
39.96119052660529
 20
141.5470737636709
 30
0.0
 10
39.76485850094694
 20
141.3764222444381
 30
0.0
 10
39.56939748070673
 20
141.2044261494703
 30
0.0
 10
39.37485034817284
 20
141.0310192811495
 30
0.0
  0
SPLINE
  5
F0
330
1F
100
AcDbEntity
  8
0
  6
Continuous
 62
     7
370
    25
100
AcDbSpline
210
0.0
220
0.0
230
1.0
 70
     8
 71
     3
 72
     8
 73
     4
 74
     0
 42
0.000000001
 43
0.00000001
 40
0.0
 40
0.0
 40
0.0
 40
0.0
 40
1.0
 40
1.0
 40
1.0
 40
1.0
 10
40.87485034772191
 20
141.9576457742861
 30
0.0
 10
40.57029707401637
 20
141.8216132249566
 30
0.0
 10
40.26574380031084
 20
141.6847505040444
 30
0.0
 10
39.96119052660529
 20
141.5470737636709
 30
0.0
  0
SPLINE
  5
F1
330
1F
100
AcDbEntity
  8
0
  6
Continuous
 62
     7
370
    25
100
AcDbSpline
210
0.0
220
0.0
230
1.0
 70
     8
 71
     3
 72
     9
 73
     5
 74
     0
 42
0.000000001
 43
0.00000001
 40
0.0
 40
0.0
 40
0.0
 40
0.0
 40
0.8959546455136717
 40
0.9999999999999999
 40
0.9999999999999999
 40
0.9999999999999999
 40
0.9999999999999999
 10
54.99959504359786
 20
113.7790946873361
 30
0.0
 10
55.10362745549785
 20
113.7519958411071
 30
0.0
 10
55.2197409355952
 20
113.7217500620773
 30
0.0
 10
55.17040492445457
 20
113.7343209852939
 30
0.0
 10
55.1652717416865
 20
113.7356289314562
 30
0.0
  0
LINE
  5
F2
330
1F
100
AcDbEntity
  8
0
  6
Continuous
 62
     7
370
    25
100
AcDbLine
 10
191.8248473679
 20
104.7687927844
 30
0.0
 11
191.8248473679
 21
136.7687943044
 31
0.0
  0
LINE
  5
F3
330
1F
100
AcDbEntity
  8
0
  6
Continuous
 62
     7
370
    25
100
AcDbLine
 10
213.324853686
 20
105.7687938797
 30
0.0
 11
213.324853686
 21
135.7687932091
 31
0.0
  0
LINE
  5
F4
330
1F
100
AcDbEntity
  8
0
  6
Continuous
 62
     7
370
    25
100
AcDbLine
 10
62.2197925126
 20
144.5101300838
 30
0.0
 11
61.6238093948
 21
143.9240133973
 31
0.0
  0
LINE
  5
F5
330
1F
100
AcDbEntity
  8
0
  6
Continuous
 62
     7
370
    25
100
AcDbLine
 10
62.2197925126
 20
97.027457005
 30
0.0
 11
61.6266089504
 21
97.610820702
 31
0.0
  0
SPLINE
  5
F6
330
1F
100
AcDbEntity
  8
0
  6
Continuous
 62
     7
370
    25
100
AcDbSpline
210
0.0
220
0.0
230
1.0
 70
     8
 71
     3
 72
     9
 73
     5
 74
     0
 42
0.000000001
 43
0.00000001
 40
0.0
 40
0.0
 40
0.0
 40
0.0
 40
0.9399686819886633
 40
1.0
 40
1.0
 40
1.0
 40
1.0
 10
53.15076885872904
 20
126.9416610362464
 30
0.0
 10
52.54459172921339
 20
126.5797525205246
 30
0.0
 10
51.89970095664723
 20
126.194730633459
 30
0.0
 10
51.48747631687446
 20
125.5436147378611
 30
0.0
 10
51.46272992843215
 20
125.5045273924703
 30
0.0
  0
SPLINE
  5
F7
330
1F
100
AcDbEntity
  8
0
  6
Continuous
 62
     7
370
    25
100
AcDbSpline
210
0.0
220
0.0
230
1.0
 70
     8
 71
     3
 72
     9
 73
     5
 74
     0
 42
0.000000001
 43
0.00000001
 40
0.0
 40
0.0
 40
0.0
 40
0.0
 40
0.4260717682333453
 40
1.0
 40
1.0
 40
1.0
 40
1.0
 10
54.28784480446402
 20
114.0231887462074
 30
0.0
 10
54.42728231396102
 20
113.9690061344012
 30
0.0
 10
54.75454527737011
 20
113.8418383287733
 30
0.0
 10
54.9126774417579
 20
113.8024298880696
 30
0.0
 10
55.00343395525042
 20
113.7798122713799
 30
0.0
  0
LINE
  5
F8
330
1F
100
AcDbEntity
  8
0
  6
HIDDEN
 62
     7
370
    18
100
AcDbLine
 10
216.3248448645
 20
108.7687934401
 30
0.0
 11
216.3248448645
 21
132.7687936487
 31
0.0
  0
LINE
  5
F9
330
1F
100
AcDbEntity
  8
0
  6
HIDDEN
 62
     7
370
    18
100
AcDbLine
 10
232.3248474871
 20
131.9687931451
 30
0.0
 11
232.3248474871
 21
109.5687939438
 31
0.0
  0
LINE
  5
FA
330
1F
100
AcDbEntity
  8
0
  6
HIDDEN
 62
     7
370
    18
100
AcDbLine
 10
216.3248448645
 20
112.1687932523
 30
0.0
 11
216.3248448645
 21
129.3409063133
 31
0.0
  0
LINE
  5
FB
330
1F
100
AcDbEntity
  8
0
  6
HIDDEN
 62
     7
370
    18
100
AcDbLine
 10
232.3248474871
 20
120.7687935444
 30
0.0
 11
232.3248474871
 21
113.6977934862
 31
0.0
  0
LINE
  5
FC
330
1F
100
AcDbEntity
  8
0
  6
HIDDEN
 62
     7
370
    18
100
AcDbLine
 10
224.3248461758
 20
120.7687935444
 30
0.0
 11
224.3248461758
 21
117.2332935153
 31
0.0
  0
LINE
  5
FD
330
1F
100
AcDbEntity
  8
0
  6
HIDDEN
 62
     7
370
    18
100
AcDbLine
 10
224.3248461758
 20
120.7687935444
 30
0.0
 11
224.3248461758
 21
124.3042935735
 31
0.0
  0
LINE
  5
FE
330
1F
100
AcDbEntity
  8
0
  6
HIDDEN
 62
     7
370
    18
100
AcDbLine
 10
224.3248461758
 20
120.7687935444
 30
0.0
 11
232.3248474871
 21
120.7687935444
 31
0.0
  0
LINE
  5
FF
330
1F
100
AcDbEntity
  8
0
  6
HIDDEN
 62
     7
370
    18
100
AcDbLine
 10
232.3248474871
 20
120.7687935444
 30
0.0
 11
232.3248474871
 21
127.8397936026
 31
0.0
  0
LINE
  5
100
330
1F
100
AcDbEntity
  8
0
  6
HIDDEN
 62
     7
370
    18
100
AcDbLine
 10
182.4263497269
 20
112.7687931644
 30
0.0
 11
182.4263497269
 21
128.7687939244
 31
0.0
  0
LINE
  5
101
330
1F
100
AcDbEntity
  8
0
  6
HIDDEN
 62
     7
370
    18
100
AcDbLine
 10
181.3248484408
 20
113.8702935191
 30
0.0
 11
181.3248484408
 21
127.6672935697
 31
0.0
  0
LINE
  5
102
330
1F
100
AcDbEntity
  8
0
  6
HIDDEN
 62
     7
370
    18
100
AcDbLine
 10
224.3248461758
 20
124.3042935735
 30
0.0
 11
224.3248461758
 21
127.8397936026
 31
0.0
  0
LINE
  5
103
330
1F
100
AcDbEntity
  8
0
  6
HIDDEN
 62
     7
370
    18
100
AcDbLine
 10
224.3248461758
 20
117.2332935153
 30
0.0
 11
224.3248461758
 21
124.3042935735
 31
0.0
  0
LINE
  5
104
330
1F
100
AcDbEntity
  8
0
  6
HIDDEN
 62
     7
370
    18
100
AcDbLine
 10
224.3248461758
 20
113.6977934862
 30
0.0
 11
224.3248461758
 21
117.2332935153
 31
0.0
  0
LINE
  5
105
330
1F
100
AcDbEntity
  8
0
  6
HIDDEN
 62
     7
370
    18
100
AcDbLine
 10
224.3248461758
 20
117.2332935153
 30
0.0
 11
224.3248461758
 21
113.6977934862
 31
0.0
  0
LINE
  5
106
330
1F
100
AcDbEntity
  8
0
  6
HIDDEN
 62
     7
370
    18
100
AcDbLine
 10
224.3248461758
 20
127.8397936026
 30
0.0
 11
224.3248461758
 21
124.3042935735
 31
0.0
  0
LINE
  5
107
330
1F
100
AcDbEntity
  8
0
  6
HIDDEN
 62
     7
370
    18
100
AcDbLine
 10
224.3248461758
 20
124.3042935735
 30
0.0
 11
224.3248461758
 21
117.2332935153
 31
0.0
  0
LINE
  5
108
330
1F
100
AcDbEntity
  8
0
  6
HIDDEN
 62
     7
370
    18
100
AcDbLine
 10
224.3248461758
 20
117.2332935153
 30
0.0
 11
224.3248461758
 21
113.6977934862
 31
0.0
  0
LINE
  5
109
330
1F
100
AcDbEntity
  8
0
  6
HIDDEN
 62
     7
370
    18
100
AcDbLine
 10
224.3248461758
 20
124.3042935735
 30
0.0
 11
224.3248461758
 21
127.8397936026
 31
0.0
  0
LINE
  5
10A
330
1F
100
AcDbEntity
  8
0
  6
HIDDEN
 62
     7
370
    18
100
AcDbLine
 10
224.3248461758
 20
113.6977934862
 30
0.0
 11
232.3248474871
 21
113.6977934862
 31
0.0
  0
LINE
  5
10B
330
1F
100
AcDbEntity
  8
0
  6
HIDDEN
 62
     7
370
    18
100
AcDbLine
 10
224.3248461758
 20
127.8397936026
 30
0.0
 11
232.3248474871
 21
127.8397936026
 31
0.0
  0
LINE
  5
10C
330
1F
100
AcDbEntity
  8
0
  6
HIDDEN
 62
     7
370
    18
100
AcDbLine
 10
213.324853686
 20
128.7687939244
 30
0.0
 11
182.4263497269
 21
128.7687939244
 31
0.0
  0
LINE
  5
10D
330
1F
100
AcDbEntity
  8
0
  6
HIDDEN
 62
     7
370
    18
100
AcDbLine
 10
182.4263497269
 20
112.7687931644
 30
0.0
 11
213.324853686
 21
112.7687931644
 31
0.0
  0
LINE
  5
10E
330
1F
100
AcDbEntity
  8
0
  6
HIDDEN
 62
     7
370
    18
100
AcDbLine
 10
182.4263497269
 20
128.7687939244
 30
0.0
 11
181.3248484408
 21
127.6672935697
 31
0.0
  0
LINE
  5
10F
330
1F
100
AcDbEntity
  8
0
  6
HIDDEN
 62
     7
370
    18
100
AcDbLine
 10
181.3248484408
 20
113.8702935191
 30
0.0
 11
182.4263497269
 21
112.7687931644
 31
0.0
  0
LINE
  5
110
330
1F
100
AcDbEntity
  8
0
  6
HIDDEN
 62
     7
370
    18
100
AcDbLine
 10
224.3248461758
 20
127.8397936026
 30
0.0
 11
220.2424048459
 21
120.7687935444
 31
0.0
  0
LINE
  5
111
330
1F
100
AcDbEntity
  8
0
  6
HIDDEN
 62
     7
370
    18
100
AcDbLine
 10
220.2424048459
 20
120.7687935444
 30
0.0
 11
224.3248461758
 21
113.6977934862
 31
0.0
  0
DIMENSION
  5
112
330
1F
100
AcDbEntity
  8
VERMASSUNG
100
AcDbDimension
  2
_D
 10
256.2759115626
 20
136.7687935444
 30
0.0
 11
256.2759115626
 21
120.7687935444
 31
0.0
 70
   160
  1
%%c<>
 71
     2
 42
-1.0
  3
SLDDIMSTYLE0
100
AcDbAlignedDimension
 13
212.3248503482
 23
104.7687935444
 33
0.0
 14
212.3248503482
 24
136.7687935444
 34
0.0
 50
90.0
100
AcDbRotatedDimension
  0
DIMENSION
  5
11E
330
1F
100
AcDbEntity
  8
VERMASSUNG
100
AcDbDimension
  2
_D_1
 10
268.5864907369
 20
84.7687935444
 30
0.0
 11
268.5864907369
 21
120.7687935444
 31
0.0
 70
   160
  1
%%c<>
 71
     2
 42
-1.0
  3
SLDDIMSTYLE0
100
AcDbAlignedDimension
 13
188.3248503482
 23
156.7687935444
 33
0.0
 14
188.3248503482
 24
84.7687935444
 34
0.0
 50
90.0
100
AcDbRotatedDimension
  0
DIMENSION
  5
129
330
1F
100
AcDbEntity
  8
VERMASSUNG
100
AcDbDimension
  2
_D_2
 10
189.3248503482
 20
166.7687935444
 30
0.0
 11
145.117743567
 21
166.7687935444
 31
0.0
 70
   160
  1
<>
 71
     2
 42
-1.0
  3
SLDDIMSTYLE1
100
AcDbAlignedDimension
 13
100.9106367858
 23
152.2437935444
 33
0.0
 14
189.3248503482
 24
155.7687935444
 34
0.0
100
AcDbRotatedDimension
  0
DIMENSION
  5
134
330
1F
100
AcDbEntity
  8
VERMASSUNG
100
AcDbDimension
  2
_D_3
 10
189.3248503482
 20
176.9307497544
 30
0.0
 11
134.3248503482
 21
176.9307497544
 31
0.0
 70
   160
  1
<>
 71
     2
 42
-1.0
  3
SLDDIMSTYLE0
100
AcDbAlignedDimension
 13
79.3248503482
 23
152.0437935444
 33
0.0
 14
189.3248503482
 24
155.7687935444
 34
0.0
100
AcDbRotatedDimension
  0
DIMENSION
  5
13E
330
1F
100
AcDbEntity
  8
VERMASSUNG
100
AcDbDimension
  2
_D_4
 10
213.3248503482
 20
187.6359186745
 30
0.0
 11
126.3498503482
 21
187.6359186745
 31
0.0
 70
   160
  1
<>
 71
     2
 42
-1.0
  3
SLDDIMSTYLE0
100
AcDbAlignedDimension
 13
39.3748503482
 23
141.0310192811
 33
0.0
 14
213.3248503482
 24
135.7687935444
 34
0.0
100
AcDbRotatedDimension
  0
DIMENSION
  5
148
330
1F
100
AcDbEntity
  8
VERMASSUNG
100
AcDbDimension
  2
_D_5
 10
213.3248503482
 20
166.7687935444
 30
0.0
 11
201.3248503482
 21
166.7687935444
 31
0.0
 70
   160
  1
<>
 71
     2
 42
-1.0
  3
SLDDIMSTYLE0
100
AcDbAlignedDimension
 13
189.3248503482
 23
155.7687935444
 33
0.0
 14
213.3248503482
 24
135.7687935444
 34
0.0
100
AcDbRotatedDimension
  0
DIMENSION
  5
152
330
1F
100
AcDbEntity
  8
VERMASSUNG
100
AcDbDimension
  2
_D_6
 10
29.3748253482
 20
152.2437935444
 30
0.0
 11
29.3748253482
 21
120.7687935444
 31
0.0
 70
   160
  1
KM%%c<> XMZ
 71
     2
 42
-1.0
  3
SLDDIMSTYLE1
100
AcDbAlignedDimension
 13
79.5248503482
 23
89.2937935444
 33
0.0
 14
79.5248503482
 24
152.2437935444
 34
0.0
 50
90.0
100
AcDbRotatedDimension
  0
DIMENSION
  5
15F
330
1F
100
AcDbEntity
  8
VERMASSUNG
100
AcDbDimension
  2
_D_7
 10
244.653288162
 20
113.6977935444
 30
0.0
 11
244.653288162
 21
120.7687935444
 31
0.0
 70
   160
  1
SW<>
 71
     2
 42
-1.0
  3
SLDDIMSTYLE1
100
AcDbAlignedDimension
 13
232.3248503482
 23
127.8397935444
 33
0.0
 14
232.3248503482
 24
113.6977935444
 34
0.0
 50
90.0
100
AcDbRotatedDimension
  0
LINE
  5
16A
330
1F
100
AcDbEntity
  8
VERMASSUNG
  6
CENTERX2
370
    18
100
AcDbLine
 10
233.5248503482
 20
120.7687935444
 30
0.0
 11
37.3748503482
 21
120.7687935444
 31
0.0
  0
SPLINE
  5
16B
330
1F
100
AcDbEntity
  8
0
  6
Continuous
 62
     7
370
    25
100
AcDbSpline
210
0.0
220
0.0
230
1.0
 70
     8
 71
     3
 72
    12
 73
     8
 74
     0
 42
0.000000001
 43
0.00000001
 40
0.0
 40
0.0
 40
0.0
 40
0.0
 40
0.2109074015320455
 40
0.4451296312516049
 40
0.6850284752335669
 40
0.9315950648186325
 40
1.0
 40
1.0
 40
1.0
 40
1.0
 10
256.5098923805815
 20
19.87113304884881
 30
0.0
 10
256.6322651772755
 20
19.82158049739311
 30
0.0
 10
256.8905385117907
 20
19.71699759135553
 30
0.0
 10
257.3453368436473
 20
19.71822505480313
 30
0.0
 10
257.8377319703439
 20
19.83642589211711
 30
0.0
 10
258.223080910659
 20
20.02077934535081
 30
0.0
 10
258.437796020505
 20
20.15928379693511
 30
0.0
 10
258.4844274522904
 20
20.18936393843356
 30
0.0
  0
SPLINE
  5
16C
330
1F
100
AcDbEntity
  8
0
  6
Continuous
 62
     7
370
    25
100
AcDbSpline
210
0.0
220
0.0
230
1.0
 70
     8
 71
     3
 72
    16
 73
    12
 74
     0
 42
0.000000001
 43
0.00000001
 40
0.0
 40
0.0
 40
0.0
 40
0.0
 40
0.0378705215035838
 40
0.1646457983370269
 40
0.2916105653182
 40
0.418982822113682
 40
0.5469888396035115
 40
0.6756774658416772
 40
0.8040535000543129
 40
0.9296671074763834
 40
1.0
 40
1.0
 40
1.0
 40
1.0
 10
259.9437416671003
 20
21.78094343404338
 30
0.0
 10
259.982325790386
 20
21.83976653940677
 30
0.0
 10
260.1500740423052
 20
22.09550574654443
 30
0.0
 10
260.3735446570535
 20
22.59373717551493
 30
0.0
 10
260.5957722744735
 20
23.24458385245007
 30
0.0
 10
260.7146265539869
 20
23.88872921675212
 30
0.0
 10
260.7293450765878
 20
24.49669128854091
 30
0.0
 10
260.6346582060842
 20
25.04788619225137
 30
0.0
 10
260.4254098692131
 20
25.50871917789957
 30
0.0
 10
260.1656626198688
 20
25.83169196246418
 30
0.0
 10
259.9510595787903
 20
25.9397101947377
 30
0.0
 10
259.8740301211188
 20
25.97848217955596
 30
0.0
  0
SPLINE
  5
16D
330
1F
100
AcDbEntity
  8
0
  6
Continuous
 62
     7
370
    25
100
AcDbSpline
210
0.0
220
0.0
230
1.0
 70
     8
 71
     3
 72
    11
 73
     7
 74
     0
 42
0.000000001
 43
0.00000001
 40
0.0
 40
0.0
 40
0.0
 40
0.0
 40
0.1638711962172026
 40
0.473807305510698
 40
0.7832900716961302
 40
1.0
 40
1.0
 40
1.0
 40
1.0
 10
258.4844274522904
 20
20.18936393843356
 30
0.0
 10
258.5739314722789
 20
20.25232912103143
 30
0.0
 10
258.8327180041532
 20
20.43438285711417
 30
0.0
 10
259.2414573419212
 20
20.81877324932159
 30
0.0
 10
259.6481776426715
 20
21.29544868278889
 30
0.0
 10
259.8575235591304
 20
21.63932119512775
 30
0.0
 10
259.9437416671003
 20
21.78094343404338
 30
0.0
  0
LINE
  5
16E
330
1F
100
AcDbEntity
  8
0
  6
Continuous
 62
     7
370
    25
100
AcDbLine
 10
254.1225025859
 20
21.2377007612
 30
0.0
 11
256.4205990137
 21
19.9110379323
 31
0.0
  0
LINE
  5
16F
330
1F
100
AcDbEntity
  8
0
  6
Continuous
 62
     7
370
    25
100
AcDbLine
 10
259.9203146048
 20
25.9733801703
 30
0.0
 11
257.622218177
 21
27.3000429992
 31
0.0
  0
SPLINE
  5
170
330
1F
100
AcDbEntity
  8
0
  6
Continuous
 62
     7
370
    25
100
AcDbSpline
210
0.0
220
0.0
230
1.0
 70
     8
 71
     3
 72
    16
 73
    12
 74
     0
 42
0.000000001
 43
0.00000001
 40
0.0
 40
0.0
 40
0.0
 40
0.0
 40
0.0378705247115693
 40
0.1646458122840578
 40
0.2916105900203278
 40
0.4189828994249968
 40
0.5469889190493671
 40
0.6756775561886565
 40
0.8040536012759367
 40
0.9296672193386484
 40
1.0
 40
1.0
 40
1.0
 40
1.0
 10
279.0356245958181
 20
32.80245284936786
 30
0.0
 10
279.0742087181762
 20
32.86127595443028
 30
0.0
 10
279.2419569660626
 20
33.11701516025945
 30
0.0
 10
279.4654276668288
 20
33.61524661713902
 30
0.0
 10
279.6876549336737
 20
34.26609324383369
 30
0.0
 10
279.8065106007387
 20
34.91023911488414
 30
0.0
 10
279.8212277041799
 20
35.51820058204923
 30
0.0
 10
279.726541203819
 20
36.06939561955092
 30
0.0
 10
279.5172928209182
 20
36.5302286787088
 30
0.0
 10
279.2575455136872
 20
36.85320097831012
 30
0.0
 10
279.04294292202
 20
36.96121981494129
 30
0.0
 10
278.9659137083811
 20
36.99999197505009
 30
0.0
  0
SPLINE
  5
171
330
1F
100
AcDbEntity
  8
0
  6
Continuous
 62
     7
370
    25
100
AcDbSpline
210
0.0
220
0.0
230
1.0
 70
     8
 71
     3
 72
    10
 73
     6
 74
     0
 42
0.000000001
 43
0.00000001
 40
0.0
 40
0.0
 40
0.0
 40
0.0
 40
0.2399258922482906
 40
0.6869676109482147
 40
1.0
 40
1.0
 40
1.0
 40
1.0
 10
278.0683596908492
 20
31.61325591064969
 30
0.0
 10
278.1558074666231
 20
31.6907909421934
 30
0.0
 10
278.4061922377007
 20
31.91279305661818
 30
0.0
 10
278.7394670866043
 20
32.31891241026118
 30
0.0
 10
278.9492334567085
 20
32.66140084818477
 30
0.0
 10
279.0356245958181
 20
32.80245284936786
 30
0.0
  0
LINE
  5
172
330
1F
100
AcDbEntity
  8
0
  6
Continuous
 62
     7
370
    25
100
AcDbLine
 10
279.0121975335
 20
36.9948895856
 30
0.0
 11
276.7141011058
 21
38.3215524145
 31
0.0
  0
SPLINE
  5
173
330
1F
100
AcDbEntity
  8
0
  6
Continuous
 62
     7
370
    25
100
AcDbSpline
210
0.0
220
0.0
230
1.0
 70
     8
 71
     3
 72
    23
 73
    19
 74
     0
 42
0.000000001
 43
0.00000001
 40
0.0
 40
0.0
 40
0.0
 40
0.0
 40
0.0044354603914727
 40
0.0684112427240755
 40
0.1324316664500823
 40
0.197536150602539
 40
0.2640751168266931
 40
0.3316573584084815
 40
0.3996929894613418
 40
0.4677418972810531
 40
0.535677234577014
 40
0.6035036615108907
 40
0.6712678338522946
 40
0.7390311404885443
 40
0.8068470192955285
 40
0.874776152398664
 40
0.9428870343971968
 40
1.0
 40
1.0
 40
1.0
 40
1.0
 10
277.4474984167022
 20
15.91646580359227
 30
0.0
 10
277.4584653766503
 20
15.90916191884712
 30
0.0
 10
277.6276165566255
 20
15.79650893854079
 30
0.0
 10
278.0211765673479
 20
15.69627063735177
 30
0.0
 10
278.6096395624235
 20
15.63082663228786
 30
0.0
 10
279.2423247202594
 20
15.70929580247915
 30
0.0
 10
279.8997322149785
 20
15.91362386989368
 30
0.0
 10
280.5712109921063
 20
16.24630120245216
 30
0.0
 10
281.2386148007642
 20
16.69839963601006
 30
0.0
 10
281.8845977206853
 20
17.25797972559805
 30
0.0
 10
282.4932765628756
 20
17.90998555044258
 30
0.0
 10
283.0507155646121
 20
18.63826732772229
 30
0.0
 10
283.5444173574296
 20
19.42552875466427
 30
0.0
 10
283.9629374339984
 20
20.25335952756829
 30
0.0
 10
284.297072834208
 20
21.10307455680242
 30
0.0
 10
284.5362306988825
 20
21.95425024923814
 30
0.0
 10
284.6746997338154
 20
22.74632204754181
 30
0.0
 10
284.6907397137309
 20
23.23127964937621
 30
0.0
 10
284.698055339618
 20
23.45246249404141
 30
0.0
  0
SPLINE
  5
174
330
1F
100
AcDbEntity
  8
0
  6
Continuous
 62
     7
370
    25
100
AcDbSpline
210
0.0
220
0.0
230
1.0
 70
     8
 71
     3
 72
    13
 73
     9
 74
     0
 42
0.000000001
 43
0.00000001
 40
0.0
 40
0.0
 40
0.0
 40
0.0
 40
0.1074110592049617
 40
0.3110963518593753
 40
0.5147313796041015
 40
0.7160723362265213
 40
0.9129329675896016
 40
1.0
 40
1.0
 40
1.0
 40
1.0
 10
284.698055339618
 20
23.45246249404141
 30
0.0
 10
284.6950397039172
 20
23.58869626723789
 30
0.0
 10
284.6863054704779
 20
23.98327230210026
 30
0.0
 10
284.5881214376886
 20
24.59057107983535
 30
0.0
 10
284.3684009975867
 20
25.23626937235979
 30
0.0
 10
284.0362533993472
 20
25.77456995665587
 30
0.0
 10
283.6985482657542
 20
26.14311903815987
 30
0.0
 10
283.4492181494373
 20
26.27936986795769
 30
0.0
 10
283.3727605298109
 20
26.32115147971151
 30
0.0
  0
LINE
  5
175
330
1F
100
AcDbEntity
  8
0
  6
Continuous
 62
     7
370
    25
100
AcDbLine
 10
283.3380107825
 20
26.3628144041
 30
0.0
 11
277.9639978378
 21
29.4651660417
 31
0.0
  0
LINE
  5
176
330
1F
100
AcDbEntity
  8
0
  6
Continuous
 62
     7
370
    25
100
AcDbLine
 10
271.9644854899
 20
19.0725796195
 30
0.0
 11
277.3384984346
 21
15.970227982
 31
0.0
  0
SPLINE
  5
177
330
1F
100
AcDbEntity
  8
0
  6
Continuous
 62
     7
370
    25
100
AcDbSpline
210
0.0
220
0.0
230
1.0
 70
     8
 71
     3
 72
    18
 73
    14
 74
     0
 42
0.000000001
 43
0.00000001
 40
0.0
 40
0.0
 40
0.0
 40
0.0
 40
0.0003465642776805
 40
0.1016764699161464
 40
0.2036296508576709
 40
0.3061968758191717
 40
0.40925684774718
 40
0.5126478322328724
 40
0.6162218661513033
 40
0.7198688073404345
 40
0.823504846421136
 40
0.927097355274097
 40
1.0
 40
1.0
 40
1.0
 40
1.0
 10
258.538798862503
 20
13.57132545966606
 30
0.0
 10
258.5399009604527
 20
13.57110447154092
 30
0.0
 10
258.8632390429941
 20
13.50627005580588
 30
0.0
 10
259.5552915826862
 20
13.49638283090025
 30
0.0
 10
260.6099790726236
 20
13.5527659028104
 30
0.0
 10
261.7071919015607
 20
13.75717662121931
 30
0.0
 10
262.8302954135242
 20
14.08783424799422
 30
0.0
 10
263.9720160284018
 20
14.54777196141887
 30
0.0
 10
265.1219957845551
 20
15.13186739957645
 30
0.0
 10
266.2711661999935
 20
15.83421847921857
 30
0.0
 10
267.4086008993925
 20
16.65289107245336
 30
0.0
 10
268.4203304021279
 20
17.47490372190377
 30
0.0
 10
269.0362737069048
 20
18.06361640506865
 30
0.0
 10
269.2906937009324
 20
18.30678858694516
 30
0.0
  0
SPLINE
  5
178
330
1F
100
AcDbEntity
  8
0
  6
Continuous
 62
     7
370
    25
100
AcDbSpline
210
0.0
220
0.0
230
1.0
 70
     8
 71
     3
 72
    14
 73
    10
 74
     0
 42
0.000000001
 43
0.00000001
 40
0.0
 40
0.0
 40
0.0
 40
0.0
 40
0.0101828474238299
 40
0.1862308165556217
 40
0.3623110054584694
 40
0.5382641438194341
 40
0.7138709026614891
 40
0.8888418240661272
 40
1.0
 40
1.0
 40
1.0
 40
1.0
 10
277.9289708432005
 20
37.62022335448133
 30
0.0
 10
277.9291542786524
 20
37.64596043878658
 30
0.0
 10
277.9325090705455
 20
38.11665768351889
 30
0.0
 10
277.8423424785182
 20
38.97833532258862
 30
0.0
 10
277.6498405182024
 20
40.18759705741135
 30
0.0
 10
277.34334378634
 20
41.3114287559227
 30
0.0
 10
276.9346310907649
 20
42.34221786852365
 30
0.0
 10
276.5004772500023
 20
43.17600913579195
 30
0.0
 10
276.164415877108
 20
43.61833531671383
 30
0.0
 10
276.033859531877
 20
43.79017443372926
 30
0.0
  0
LINE
  5
179
330
1F
100
AcDbEntity
  8
0
  6
Continuous
 62
     7
370
    25
100
AcDbLine
 10
227.0526104339
 20
31.1436216569
 30
0.0
 11
256.0654788877
 21
14.3948492061
 31
0.0
  0
LINE
  5
17A
330
1F
100
AcDbEntity
  8
0
  6
Continuous
 62
     7
370
    25
100
AcDbLine
 10
274.0640165898
 20
45.5726088527
 30
0.0
 11
245.051148136
 21
62.3213813035
 31
0.0
  0
SPLINE
  5
17B
330
1F
100
AcDbEntity
  8
0
  6
Continuous
 62
     7
370
    25
100
AcDbSpline
210
0.0
220
0.0
230
1.0
 70
     8
 71
     3
 72
    13
 73
     9
 74
     0
 42
0.000000001
 43
0.00000001
 40
0.0
 40
0.0
 40
0.0
 40
0.0
 40
0.0907757272167668
 40
0.2782910110632949
 40
0.4667618888311196
 40
0.6582517795388615
 40
0.8532125783151918
 40
1.0
 40
1.0
 40
1.0
 40
1.0
 10
269.6644101359507
 20
18.11467176017202
 30
0.0
 10
269.756305007039
 20
18.06223834096623
 30
0.0
 10
270.0380269757939
 20
17.90149328618485
 30
0.0
 10
270.5794406781756
 20
17.77032936203691
 30
0.0
 10
271.2663041984468
 20
17.71623711898564
 30
0.0
 10
271.9947400592312
 20
17.80362090631657
 30
0.0
 10
272.68545951905
 20
17.9872750448791
 30
0.0
 10
273.1319135622587
 20
18.19759843360679
 30
0.0
 10
273.3236741449911
 20
18.28793636692415
 30
0.0
  0
SPLINE
  5
17C
330
1F
100
AcDbEntity
  8
0
  6
Continuous
 62
     7
370
    25
100
AcDbSpline
210
0.0
220
0.0
230
1.0
 70
     8
 71
     3
 72
    13
 73
     9
 74
     0
 42
0.000000001
 43
0.00000001
 40
0.0
 40
0.0
 40
0.0
 40
0.0
 40
0.1135051970669278
 40
0.3029990648922221
 40
0.4915869481403881
 40
0.6778113598582582
 40
0.860401734391135
 40
1.0
 40
1.0
 40
1.0
 40
1.0
 10
279.3199663336633
 20
28.68238234979001
 30
0.0
 10
279.3080630134394
 20
28.85662237796157
 30
0.0
 10
279.2762874208658
 20
29.32175143783752
 30
0.0
 10
279.1025354609169
 20
30.00105898533293
 30
0.0
 10
278.8122908656758
 20
30.70907437698055
 30
0.0
 10
278.4120290597372
 20
31.30558582979198
 30
0.0
 10
277.9644497787323
 20
31.7634698919523
 30
0.0
 10
277.618610455399
 20
31.95955419466359
 30
0.0
 10
277.4687647944985
 20
32.04451382750346
 30
0.0
  0
LINE
  5
17D
330
1F
100
AcDbEntity
  8
0
  6
Continuous
 62
     7
370
    25
100
AcDbLine
 10
262.3025094711
 20
22.3409811199
 30
0.0
 11
269.5503554955
 21
18.1568886709
 31
0.0
  0
LINE
  5
17E
330
1F
100
AcDbEntity
  8
0
  6
Continuous
 62
     7
370
    25
100
AcDbLine
 10
277.5497055122
 20
32.0136704403
 30
0.0
 11
270.3018594877
 21
36.1977628893
 31
0.0
  0
SPLINE
  5
17F
330
1F
100
AcDbEntity
  8
0
  6
Continuous
 62
     7
370
    25
100
AcDbSpline
210
0.0
220
0.0
230
1.0
 70
     8
 71
     3
 72
    20
 73
    16
 74
     0
 42
0.000000001
 43
0.00000001
 40
0.0
 40
0.0
 40
0.0
 40
0.0
 40
0.0567005956473616
 40
0.1224801967866559
 40
0.1663661638008823
 40
0.2508140247210315
 40
0.3356731203816011
 40
0.4208891268713111
 40
0.5063518708278483
 40
0.5919022331974734
 40
0.6773369563921922
 40
0.7624533368698413
 40
0.8470867173052302
 40
0.9311331578555452
 40
1.0
 40
1.0
 40
1.0
 40
1.0
 10
270.7937876253608
 20
22.36586745283343
 30
0.0
 10
270.7652985622996
 20
22.47283391833828
 30
0.0
 10
270.7037587140816
 20
22.70389451999559
 30
0.0
 10
270.6859299511423
 20
23.09054369123526
 30
0.0
 10
270.7029554136078
 20
23.56570975645683
 30
0.0
 10
270.7835616640152
 20
24.12727910507084
 30
0.0
 10
270.9722888014056
 20
24.82826742431903
 30
0.0
 10
271.2505285080393
 20
25.53970705396036
 30
0.0
 10
271.6095695217356
 20
26.23587476939002
 30
0.0
 10
272.0374421947803
 20
26.89219365450887
 30
0.0
 10
272.5185159426313
 20
27.48504152816864
 30
0.0
 10
273.0350157811173
 20
27.9949492244973
 30
0.0
 10
273.5648673931648
 20
28.40080152668591
 30
0.0
 10
274.0617002287484
 20
28.68892222321531
 30
0.0
 10
274.3567193590775
 20
28.78369288113475
 30
0.0
 10
274.4895857492295
 20
28.8263743004585
 30
0.0
  0
LINE
  5
180
330
1F
100
AcDbEntity
  8
0
  6
Continuous
 62
     7
370
    25
100
AcDbLine
 10
269.4714025945
 20
36.5098298403
 30
0.0
 11
268.9712857851
 21
36.6117239969
 31
0.0
  0
LINE
  5
181
330
1F
100
AcDbEntity
  8
0
  6
Continuous
 62
     7
370
    25
100
AcDbLine
 10
261.278633446
 20
23.2862152207
 30
0.0
 11
261.6169705652
 21
22.9040800034
 31
0.0
  0
SPLINE
  5
182
330
1F
100
AcDbEntity
  8
0
  6
Continuous
 62
     7
370
    25
100
AcDbSpline
210
0.0
220
0.0
230
1.0
 70
     8
 71
     3
 72
    32
 73
    28
 74
     0
 42
0.000000001
 43
0.00000001
 40
0.0
 40
0.0
 40
0.0
 40
0.0
 40
0.0002186700797917
 40
0.0416571147202801
 40
0.0833476511966077
 40
0.1252921896565455
 40
0.1674441030336566
 40
0.2097376779939991
 40
0.2521112270487944
 40
0.2945181045492355
 40
0.3369230444120588
 40
0.3793109447477876
 40
0.4216765311059732
 40
0.4640194317359575
 40
0.5063421580540376
 40
0.5486487283850361
 40
0.5909439822619715
 40
0.6332331846746401
 40
0.6755217677654423
 40
0.7178143010325395
 40
0.7601155689238945
 40
0.8024311737636992
 40
0.844766693069277
 40
0.8871274060146389
 40
0.9295178038390718
 40
0.9719408443458522
 40
1.0
 40
1.0
 40
1.0
 40
1.0
 10
242.6719881720274
 20
63.13193401980715
 30
0.0
 10
242.670297457817
 20
63.13229682402949
 30
0.0
 10
242.348212809155
 20
63.2014117990875
 30
0.0
 10
241.658351253765
 20
63.21960775241737
 30
0.0
 10
240.60756710428
 20
63.17553762864847
 30
0.0
 10
239.5133745184215
 20
62.98344348777228
 30
0.0
 10
238.3924635618071
 20
62.66494539434933
 30
0.0
 10
237.2520480663327
 20
62.21681566086765
 30
0.0
 10
236.1023846654489
 20
61.64434572290536
 30
0.0
 10
234.9529605162606
 20
60.95218068436504
 30
0.0
 10
233.8132035445888
 20
60.14649474026937
 30
0.0
 10
232.6921633726859
 20
59.23415965208807
 30
0.0
 10
231.59855369355
 20
58.22275806678664
 30
0.0
 10
230.5407952929025
 20
57.12052514791151
 30
0.0
 10
229.5270277394228
 20
55.93631518216383
 30
0.0
 10
228.5650569411
 20
54.67956427194717
 30
0.0
 10
227.6623226364293
 20
53.3602150540103
 30
0.0
 10
226.8258342979415
 20
51.98866480211625
 30
0.0
 10
226.0621307401855
 20
50.57569440557154
 30
0.0
 10
225.3772262070232
 20
49.13238461927773
 30
0.0
 10
224.7765682739313
 20
47.67003312990022
 30
0.0
 10
224.2649384208256
 20
46.20001408717813
 30
0.0
 10
223.8466724447856
 20
44.7338202987168
 30
0.0
 10
223.5247383012403
 20
43.28250281351922
 30
0.0
 10
223.3040513685779
 20
41.85842268349163
 30
0.0
 10
223.1932977867768
 20
40.62557879951736
 30
0.0
 10
223.1820064246025
 20
39.88411115495056
 30
0.0
 10
223.1775113023439
 20
39.58893085148908
 30
0.0
  0
SPLINE
  5
183
330
1F
100
AcDbEntity
  8
0
  6
Continuous
 62
     7
370
    25
100
AcDbSpline
210
0.0
220
0.0
230
1.0
 70
     8
 71
     3
 72
    14
 73
    10
 74
     0
 42
0.000000001
 43
0.00000001
 40
0.0
 40
0.0
 40
0.0
 40
0.0
 40
0.0857796709451534
 40
0.2485659779162846
 40
0.4114301465447167
 40
0.5741610997390164
 40
0.7365489270371763
 40
0.8983215955571959
 40
1.0
 40
1.0
 40
1.0
 40
1.0
 10
223.1775113023439
 20
39.58893085148908
 30
0.0
 10
223.1804154655173
 20
39.35700168831283
 30
0.0
 10
223.1888309344886
 20
38.68493453513999
 30
0.0
 10
223.2823996503819
 20
37.61824095962653
 30
0.0
 10
223.4926854445387
 20
36.42068485501736
 30
0.0
 10
223.8066243368693
 20
35.30367724896897
 30
0.0
 10
224.2252963788522
 20
34.28222666431498
 30
0.0
 10
224.6660285823194
 20
33.45884602530982
 30
0.0
 10
225.0052545247693
 20
33.02407674932284
 30
0.0
 10
225.1361780855885
 20
32.85627843373449
 30
0.0
  0
LINE
  5
184
330
1F
100
AcDbEntity
  8
0
  6
Continuous
 62
     7
370
    25
100
AcDbLine
 10
235.7998275112
 20
61.4537931304
 30
0.0
 11
234.4073316736
 21
60.6496617877
 31
0.0
  0
LINE
  5
185
330
1F
100
AcDbEntity
  8
0
  6
Continuous
 62
     7
370
    25
100
AcDbLine
 10
223.1775106438
 20
41.1969332894
 30
0.0
 11
223.1775113023
 21
39.5889308515
 31
0.0
  0
LINE
  5
186
330
1F
100
AcDbEntity
  8
0
  6
Continuous
 62
     7
370
    25
100
AcDbLine
 10
223.3383140418
 20
35.9002786752
 30
0.0
 11
223.7230706462
 21
35.6781634153
 31
0.0
  0
LINE
  5
187
330
1F
100
AcDbEntity
  8
0
  6
Continuous
 62
     7
370
    25
100
AcDbLine
 10
239.4464855749
 20
62.9444447783
 30
0.0
 11
239.0745353563
 21
63.159167069
 31
0.0
  0
LINE
  5
188
330
1F
100
AcDbEntity
  8
0
  6
Continuous
 62
     7
370
    25
100
AcDbLine
 10
218.7300291104
 20
38.5605849399
 30
0.0
 11
220.9806800868
 21
37.261311787
 31
0.0
  0
LINE
  5
189
330
1F
100
AcDbEntity
  8
0
  6
Continuous
 62
     7
370
    25
100
AcDbLine
 10
236.7169014013
 20
64.5202001808
 30
0.0
 11
234.4662504249
 21
65.8194733337
 31
0.0
  0
LINE
  5
18A
330
1F
100
AcDbEntity
  8
0
  6
Continuous
 62
     7
370
    25
100
AcDbLine
 10
227.6888612347
 20
65.5993552413
 30
0.0
 11
218.491649051
 21
70.1800078512
 31
0.0
  0
LINE
  5
18B
330
1F
100
AcDbEntity
  8
0
  6
Continuous
 62
     7
370
    25
100
AcDbLine
 10
206.9653012614
 20
50.2136243955
 30
0.0
 11
215.5314012671
 21
44.5397347991
 31
0.0
  0
LINE
  5
18C
330
1F
100
AcDbEntity
  8
0
  6
Continuous
 62
     7
370
    25
100
AcDbLine
 10
211.9447387031
 20
51.1601142612
 30
0.0
 11
211.9447387031
 21
50.7947955561
 31
0.0
  0
LINE
  5
18D
330
1F
100
AcDbEntity
  8
0
  6
Continuous
 62
     7
370
    25
100
AcDbLine
 10
215.8427054634
 20
70.5569762279
 30
0.0
 11
215.2031553547
 21
70.4697644724
 31
0.0
  0
LINE
  5
18E
330
1F
100
AcDbEntity
  8
0
  6
Continuous
 62
     7
370
    25
100
AcDbLine
 10
256.4959444079
 20
19.8711358384
 30
0.0
 11
256.4205990137
 21
19.9110379323
 31
0.0
  0
LWPOLYLINE
  5
18F
330
1F
100
AcDbEntity
  8
0
  6
Continuous
 62
     7
370
    25
100
AcDbPolyline
 90
       17
 70
   128
 43
0.0
 10
254.1225025859
 20
21.2377007612
 10
254.1139191168
 20
21.242704652
 10
253.7806560831
 20
21.5338484373
 10
253.5451974455
 20
21.9528779795
 10
253.4185553854
 20
22.4802013905
 10
253.4066502178
 20
23.0911608897
 10
253.5100390713
 20
23.7571888995
 10
253.7238882294
 20
24.4471431835
 10
254.0381970351
 20
25.1287613525
 10
254.4382680921
 20
25.7701714096
 10
254.9053967606
 20
26.3413827386
 10
255.417739778
 20
26.81568613
 10
255.9513399536
 20
27.1709030304
 10
256.4812470116
 20
27.3904240395
 10
256.9826832148
 20
27.4639848531
 10
257.4322024033
 20
27.3881460061
 10
257.622218177
 20
27.3000429992
  0
LWPOLYLINE
  5
190
330
1F
100
AcDbEntity
  8
0
  6
Continuous
 62
     7
370
    25
100
AcDbPolyline
 90
       19
 70
   128
 43
0.0
 10
258.4255041824
 20
21.7048130401
 10
258.0711321631
 20
21.5405200521
 10
257.7500620809
 20
21.5329825277
 10
257.5010196458
 20
21.6831096262
 10
257.3540437069
 20
21.9727941415
 10
257.3268603067
 20
22.367095014
 10
257.4227496554
 20
22.8184546067
 10
257.6301450773
 20
23.2724317299
 10
257.9240324178
 20
23.6742704832
 10
258.2689635431
 20
23.9755026209
 10
258.6233355624
 20
24.1397956089
 10
258.9444056446
 20
24.1473331333
 10
259.1934474212
 20
23.9972056546
 10
259.3404240186
 20
23.7075215194
 10
259.3676067603
 20
23.3132202668
 10
259.2717180701
 20
22.8618610542
 10
259.0643226482
 20
22.4078839311
 10
258.7704353077
 20
22.0060451778
 10
258.4255041824
 20
21.7048130401
  0
SPLINE
  5
191
330
1F
100
AcDbEntity
  8
0
  6
Continuous
 62
     7
370
    25
100
AcDbSpline
210
0.0
220
0.0
230
1.0
 70
     8
 71
     3
 72
    11
 73
     7
 74
     0
 42
0.000000001
 43
0.00000001
 40
0.0
 40
0.0
 40
0.0
 40
0.0
 40
0.1346861988081621
 40
0.4830327171280477
 40
0.8157582481282801
 40
0.9999999999999999
 40
0.9999999999999999
 40
0.9999999999999999
 40
0.9999999999999999
 10
258.9188455566043
 20
22.20283750387907
 30
0.0
 10
258.8555095895958
 20
22.1859994608286
 30
0.0
 10
258.628364236124
 20
22.12561223661591
 30
0.0
 10
258.2721349696329
 20
21.97375664481029
 30
0.0
 10
258.0212074887473
 20
21.73529198196127
 30
0.0
 10
257.9327342530231
 20
21.58054471142552
 30
0.0
 10
257.9012033138637
 20
21.52539439695594
 30
0.0
  0
SPLINE
  5
192
330
1F
100
AcDbEntity
  8
0
  6
Continuous
 62
     7
370
    25
100
AcDbSpline
210
0.0
220
0.0
230
1.0
 70
     8
 71
     3
 72
    10
 73
     6
 74
     0
 42
0.000000001
 43
0.00000001
 40
0.0
 40
0.0
 40
0.0
 40
0.0
 40
0.4391256683445136
 40
0.7513736985373637
 40
1.0
 40
1.0
 40
1.0
 40
1.0
 10
259.3601928662312
 20
23.52030481682898
 30
0.0
 10
259.2364710363778
 20
23.36664276383581
 30
0.0
 10
259.0247746232822
 20
23.10371660532272
 30
0.0
 10
258.9136624807276
 20
22.6080044018203
 30
0.0
 10
258.9172536505171
 20
22.3272786015002
 30
0.0
 10
258.9188455566043
 20
22.20283750387907
 30
0.0
  0
SPLINE
  5
193
330
1F
100
AcDbEntity
  8
0
  6
Continuous
 62
     7
370
    25
100
AcDbSpline
210
0.0
220
0.0
230
1.0
 70
     8
 71
     3
 72
    10
 73
     6
 74
     0
 42
0.000000001
 43
0.00000001
 40
0.0
 40
0.0
 40
0.0
 40
0.0
 40
0.4391254789393096
 40
0.7513736691158691
 40
1.0
 40
1.0
 40
1.0
 40
1.0
 10
258.783897274573
 20
24.16032879715513
 30
0.0
 10
258.8058623375771
 20
24.10365019491414
 30
0.0
 10
258.8434460597095
 20
24.00666923760545
 30
0.0
 10
259.0947006097529
 20
23.75218452786506
 30
0.0
 10
259.2786508080014
 20
23.59152327400894
 30
0.0
 10
259.3601928662312
 20
23.52030481682898
 30
0.0
  0
SPLINE
  5
194
330
1F
100
AcDbEntity
  8
0
  6
Continuous
 62
     7
370
    25
100
AcDbSpline
210
0.0
220
0.0
230
1.0
 70
     8
 71
     3
 72
     9
 73
     5
 74
     0
 42
0.000000001
 43
0.00000001
 40
0.0
 40
0.0
 40
0.0
 40
0.0
 40
0.691032048774433
 40
1.0
 40
1.0
 40
1.0
 40
1.0
 10
258.2158222940079
 20
23.93879226676534
 30
0.0
 10
258.3373325183481
 20
24.00086326838457
 30
0.0
 10
258.5131712866884
 20
24.09068689050067
 30
0.0
 10
258.7199952869484
 20
24.14389056641134
 30
0.0
 10
258.783897274573
 20
24.16032879715513
 30
0.0
  0
LINE
  5
195
330
1F
100
AcDbEntity
  8
0
  6
Continuous
 62
     7
370
    25
100
AcDbLine
 10
257.3249077222
 20
22.1654183773
 30
0.0
 11
257.3360937592
 21
22.2903129141
 31
0.0
  0
SPLINE
  5
196
330
1F
100
AcDbEntity
  8
0
  6
Continuous
 62
     7
370
    25
100
AcDbSpline
210
0.0
220
0.0
230
1.0
 70
     8
 71
     3
 72
    10
 73
     6
 74
     0
 42
0.000000001
 43
0.00000001
 40
0.0
 40
0.0
 40
0.0
 40
0.0
 40
0.4391254689226297
 40
0.7513740002180104
 40
1.0
 40
1.0
 40
1.0
 40
1.0
 10
257.9012033138637
 20
21.52539439695594
 30
0.0
 10
257.7581625775893
 20
21.65196870304243
 30
0.0
 10
257.5134100004449
 20
21.86854608108056
 30
0.0
 10
257.3542426105858
 20
22.06986807796612
 30
0.0
 10
257.3339174951136
 20
22.13607152969982
 30
0.0
 10
257.3249077222055
 20
22.1654183772821
 30
0.0
  0
SPLINE
  5
197
330
1F
100
AcDbEntity
  8
0
  6
Continuous
 62
     7
370
    25
100
AcDbSpline
210
0.0
220
0.0
230
1.0
 70
     8
 71
     3
 72
     9
 73
     5
 74
     0
 42
0.000000001
 43
0.00000001
 40
0.0
 40
0.0
 40
0.0
 40
0.0
 40
0.8744793350463886
 40
0.9999999999999999
 40
0.9999999999999999
 40
0.9999999999999999
 40
0.9999999999999999
 10
257.7682523973251
 20
22.86706079634064
 30
0.0
 10
257.7946260210192
 20
23.13433716243144
 30
0.0
 10
257.8247852513601
 20
23.43997773663279
 30
0.0
 10
257.9552916008103
 20
23.68582957907599
 30
0.0
 10
257.9716728445739
 20
23.71668906581952
 30
0.0
  0
SPLINE
  5
198
330
1F
100
AcDbEntity
  8
0
  6
Continuous
 62
     7
370
    25
100
AcDbSpline
210
0.0
220
0.0
230
1.0
 70
     8
 71
     3
 72
     9
 73
     5
 74
     0
 42
0.000000001
 43
0.00000001
 40
0.0
 40
0.0
 40
0.0
 40
0.0
 40
0.6698660834098443
 40
1.0
 40
1.0
 40
1.0
 40
1.0
 10
257.3830855196742
 20
22.6729875488749
 30
0.0
 10
257.4617619524502
 20
22.72255270327928
 30
0.0
 10
257.5792129396319
 20
22.79654533498871
 30
0.0
 10
257.7213335602216
 20
22.84955914094645
 30
0.0
 10
257.7682523973251
 20
22.86706079634064
 30
0.0
  0
LINE
  5
199
330
1F
100
AcDbEntity
  8
0
  6
Continuous
 62
     7
370
    25
100
AcDbLine
 10
258.4527317051
 20
24.0441709943
 30
0.0
 11
259.3601928662
 21
23.5203048168
 31
0.0
  0
LINE
  5
19A
330
1F
100
AcDbEntity
  8
0
  6
Continuous
 62
     7
370
    25
100
AcDbLine
 10
257.7682523973
 20
22.8670607963
 30
0.0
 11
258.9188455566
 21
22.2028375039
 31
0.0
  0
LWPOLYLINE
  5
19B
330
1F
100
AcDbEntity
  8
0
  6
Continuous
 62
     7
370
    25
100
AcDbPolyline
 90
       11
 70
   128
 43
0.0
 10
272.6213675023
 20
34.8587390118
 10
272.8157711581
 20
35.4686525988
 10
273.1300793053
 20
36.1502703877
 10
273.5301516793
 20
36.7916812051
 10
273.9972796893
 20
37.3628921539
 10
274.5096227067
 20
37.8371955453
 10
275.0432228823
 20
38.1924124457
 10
275.5731299403
 20
38.4119334549
 10
276.0745661435
 20
38.4854942684
 10
276.5240846734
 20
38.4096550413
 10
276.7141011058
 20
38.3215524145
  0
LWPOLYLINE
  5
19C
330
1F
100
AcDbEntity
  8
0
  6
Continuous
 62
     7
370
    25
100
AcDbPolyline
 90
       19
 70
   128
 43
0.0
 10
277.5173871112
 20
32.7263224554
 10
277.1630150918
 20
32.5620294674
 10
276.8419450096
 20
32.554491943
 10
276.5929032331
 20
32.7046194217
 10
276.4459266356
 20
32.9943035569
 10
276.4187438939
 20
33.3886048095
 10
276.5146325841
 20
33.8399640221
 10
276.722028006
 20
34.2939411452
 10
277.0159153465
 20
34.6957798985
 10
277.3608464718
 20
34.9970120362
 10
277.7152184912
 20
35.1613050242
 10
278.0362885733
 20
35.1688425486
 10
278.2853310084
 20
35.0187154501
 10
278.4323069474
 20
34.7290309348
 10
278.4594903476
 20
34.3347300623
 10
278.3636009988
 20
33.8833704696
 10
278.1562055769
 20
33.4293933464
 10
277.8623182365
 20
33.0275545931
 10
277.5173871112
 20
32.7263224554
  0
SPLINE
  5
19D
330
1F
100
AcDbEntity
  8
0
  6
Continuous
 62
     7
370
    25
100
AcDbSpline
210
0.0
220
0.0
230
1.0
 70
     8
 71
     3
 72
    11
 73
     7
 74
     0
 42
0.000000001
 43
0.00000001
 40
0.0
 40
0.0
 40
0.0
 40
0.0
 40
0.1346866922731101
 40
0.4830330284568234
 40
0.815757776215283
 40
1.0
 40
1.0
 40
1.0
 40
1.0
 10
278.0107291438666
 20
33.22434729937319
 30
0.0
 10
277.9473929640176
 20
33.20750912525232
 30
0.0
 10
277.72024753304
 20
33.14712161330124
 30
0.0
 10
277.3640179710662
 20
32.99526630571545
 30
0.0
 10
277.1130910224098
 20
32.75680134839666
 30
0.0
 10
277.0246174142313
 20
32.60205424253525
 30
0.0
 10
276.9930862425815
 20
32.54690381228041
 30
0.0
  0
SPLINE
  5
19E
330
1F
100
AcDbEntity
  8
0
  6
Continuous
 62
     7
370
    25
100
AcDbSpline
210
0.0
220
0.0
230
1.0
 70
     8
 71
     3
 72
    10
 73
     6
 74
     0
 42
0.000000001
 43
0.00000001
 40
0.0
 40
0.0
 40
0.0
 40
0.0
 40
0.4391255165658932
 40
0.7513738882262793
 40
1.0
 40
1.0
 40
1.0
 40
1.0
 10
278.452075794949
 20
34.54181423215346
 30
0.0
 10
278.3283543905134
 20
34.38815230097038
 30
0.0
 10
278.1166585787224
 20
34.125226193628
 30
0.0
 10
278.005545061677
 20
33.62951406642018
 30
0.0
 10
278.0091369298453
 20
33.3487882676778
 30
0.0
 10
278.0107291438666
 20
33.22434729937319
 30
0.0
  0
SPLINE
  5
19F
330
1F
100
AcDbEntity
  8
0
  6
Continuous
 62
     7
370
    25
100
AcDbSpline
210
0.0
220
0.0
230
1.0
 70
     8
 71
     3
 72
    10
 73
     6
 74
     0
 42
0.000000001
 43
0.00000001
 40
0.0
 40
0.0
 40
0.0
 40
0.0
 40
0.4391254689226297
 40
0.7513740002180104
 40
1.0
 40
1.0
 40
1.0
 40
1.0
 10
277.8757802032908
 20
35.18183821247961
 30
0.0
 10
277.8977451816474
 20
35.12515945367046
 30
0.0
 10
277.9353287763613
 20
35.02817818351476
 30
0.0
 10
278.1865842221349
 20
34.77369488351987
 30
0.0
 10
278.3705340229448
 20
34.61303291154687
 30
0.0
 10
278.452075794949
 20
34.54181423215346
 30
0.0
  0
SPLINE
  5
1A0
330
1F
100
AcDbEntity
  8
0
  6
Continuous
 62
     7
370
    25
100
AcDbSpline
210
0.0
220
0.0
230
1.0
 70
     8
 71
     3
 72
     9
 73
     5
 74
     0
 42
0.000000001
 43
0.00000001
 40
0.0
 40
0.0
 40
0.0
 40
0.0
 40
0.6910329426549541
 40
1.0
 40
1.0
 40
1.0
 40
1.0
 10
277.3077058812702
 20
34.96030206225947
 30
0.0
 10
277.429216065311
 20
35.02237311239415
 30
0.0
 10
277.6050545478788
 20
35.11219668852673
 30
0.0
 10
277.8118784353807
 20
35.16540010840052
 30
0.0
 10
277.8757802032908
 20
35.18183821247961
 30
0.0
  0
LINE
  5
1A1
330
1F
100
AcDbEntity
  8
0
  6
Continuous
 62
     7
370
    25
100
AcDbLine
 10
276.4167906509
 20
33.1869277926
 30
0.0
 11
276.4279766879
 21
33.3118223294
 31
0.0
  0
SPLINE
  5
1A2
330
1F
100
AcDbEntity
  8
0
  6
Continuous
 62
     7
370
    25
100
AcDbSpline
210
0.0
220
0.0
230
1.0
 70
     8
 71
     3
 72
    10
 73
     6
 74
     0
 42
0.000000001
 43
0.00000001
 40
0.0
 40
0.0
 40
0.0
 40
0.0
 40
0.4391254789393096
 40
0.7513736691158691
 40
1.0
 40
1.0
 40
1.0
 40
1.0
 10
276.9930862425815
 20
32.54690381228042
 30
0.0
 10
276.8500453747187
 20
32.67347798889716
 30
0.0
 10
276.6052926858537
 20
32.89005504502602
 30
0.0
 10
276.4461264609802
 20
33.09137829621937
 30
0.0
 10
276.4258007153357
 20
33.15758116419043
 30
0.0
 10
276.4167906509232
 20
33.18692779260657
 30
0.0
  0
SPLINE
  5
1A3
330
1F
100
AcDbEntity
  8
0
  6
Continuous
 62
     7
370
    25
100
AcDbSpline
210
0.0
220
0.0
230
1.0
 70
     8
 71
     3
 72
     9
 73
     5
 74
     0
 42
0.000000001
 43
0.00000001
 40
0.0
 40
0.0
 40
0.0
 40
0.0
 40
0.8744792793640266
 40
1.0
 40
1.0
 40
1.0
 40
1.0
 10
276.8601359845874
 20
33.88857059183478
 30
0.0
 10
276.886509318914
 20
34.15584682299519
 30
0.0
 10
276.9166682202726
 20
34.46148726236021
 30
0.0
 10
277.0471745275541
 20
34.70733899454995
 30
0.0
 10
277.0635557732917
 20
34.738198481144
 30
0.0
  0
SPLINE
  5
1A4
330
1F
100
AcDbEntity
  8
0
  6
Continuous
 62
     7
370
    25
100
AcDbSpline
210
0.0
220
0.0
230
1.0
 70
     8
 71
     3
 72
     9
 73
     5
 74
     0
 42
0.000000001
 43
0.00000001
 40
0.0
 40
0.0
 40
0.0
 40
0.0
 40
0.6698648395321839
 40
1.0
 40
1.0
 40
1.0
 40
1.0
 10
276.474968448392
 20
33.69449696419937
 30
0.0
 10
276.5536449147614
 20
33.74406209647034
 30
0.0
 10
276.6710961701884
 20
33.81805483253569
 30
0.0
 10
276.8132169260464
 20
33.87106881291515
 30
0.0
 10
276.8601359845874
 20
33.88857059183477
 30
0.0
  0
LINE
  5
1A5
330
1F
100
AcDbEntity
  8
0
  6
Continuous
 62
     7
370
    25
100
AcDbLine
 10
277.5446146338
 20
35.0656804097
 30
0.0
 11
278.4520757949
 21
34.5418142322
 31
0.0
  0
LINE
  5
1A6
330
1F
100
AcDbEntity
  8
0
  6
Continuous
 62
     7
370
    25
100
AcDbLine
 10
276.8601359846
 20
33.8885705918
 30
0.0
 11
278.0107291439
 21
33.2243472994
 31
0.0
  0
LINE
  5
1A7
330
1F
100
AcDbEntity
  8
0
  6
Continuous
 62
     7
370
    25
100
AcDbLine
 10
277.4331484026
 20
15.9189315821
 30
0.0
 11
277.3384984346
 21
15.970227982
 31
0.0
  0
LWPOLYLINE
  5
1A8
330
1F
100
AcDbEntity
  8
0
  6
Continuous
 62
     7
370
    25
100
AcDbPolyline
 90
       21
 70
   128
 43
0.0
 10
277.9639978378
 20
29.4651660417
 10
277.8377041477
 20
29.5321788555
 10
277.2847462209
 20
29.7099551965
 10
276.6684909717
 20
29.7393126112
 10
276.0057484071
 20
29.6194510362
 10
275.3145961501
 20
29.3536394786
 10
274.6138871776
 20
28.949128799
 10
273.9227349206
 20
28.4169529464
 10
273.259992356
 20
27.7716282437
 10
272.6437371068
 20
27.0307576633
 10
272.09077918
 20
26.2145496894
 10
271.6162020438
 20
25.3452691652
 10
271.2329505429
 20
24.4466271546
 10
270.9514790712
 20
23.5431364832
 10
270.7794649409
 20
22.659441892
 10
270.7216009398
 20
21.8196484739
 10
270.7794649409
 20
21.0466634092
 10
270.9514790712
 20
20.3615721056
 10
271.2329505429
 20
19.7830614779
 10
271.6162020438
 20
19.3269122316
 10
271.9644854899
 20
19.0725796195
  0
LINE
  5
1A9
330
1F
100
AcDbEntity
  8
0
  6
Continuous
 62
     7
370
    25
100
AcDbLine
 10
280.6210968406
 20
24.3367217072
 30
0.0
 11
278.1211207951
 21
21.2267753261
 31
0.0
  0
LINE
  5
1AA
330
1F
100
AcDbEntity
  8
0
  6
Continuous
 62
     7
370
    25
100
AcDbLine
 10
278.1211207951
 20
21.2267753261
 30
0.0
 11
278.1211207951
 21
17.8932934669
 31
0.0
  0
LINE
  5
1AB
330
1F
100
AcDbEntity
  8
0
  6
Continuous
 62
     7
370
    25
100
AcDbLine
 10
280.6210968406
 20
17.6697579889
 30
0.0
 11
278.1211207951
 21
17.8932934669
 31
0.0
  0
LINE
  5
1AC
330
1F
100
AcDbEntity
  8
0
  6
Continuous
 62
     7
370
    25
100
AcDbLine
 10
283.121072886
 20
20.77970437
 30
0.0
 11
280.6210968406
 21
17.6697579889
 31
0.0
  0
LINE
  5
1AD
330
1F
100
AcDbEntity
  8
0
  6
Continuous
 62
     7
370
    25
100
AcDbLine
 10
283.121072886
 20
20.77970437
 30
0.0
 11
283.121072886
 21
24.1131862292
 31
0.0
  0
LINE
  5
1AE
330
1F
100
AcDbEntity
  8
0
  6
Continuous
 62
     7
370
    25
100
AcDbLine
 10
280.6210968406
 20
24.3367217072
 30
0.0
 11
283.121072886
 21
24.1131862292
 31
0.0
  0
ARC
  5
1AF
330
1F
100
AcDbEntity
  8
0
  6
Continuous
 62
     7
370
    25
100
AcDbCircle
 10
274.8075849477
 20
24.3656141973
 30
0.0
 40
5.499306232542692
100
AcDbArc
 50
320.36379399
 51
355.3911953877
  0
ARC
  5
1B0
330
1F
100
AcDbEntity
  8
0
  6
Continuous
 62
     7
370
    25
100
AcDbCircle
 10
275.176708545
 20
23.9217804346
 30
0.0
 40
4.933060165468162
100
AcDbArc
 50
306.6462894478
 51
321.5989108827
  0
LINE
  5
1B1
330
1F
100
AcDbEntity
  8
0
  6
Continuous
 62
     7
370
    25
100
AcDbLine
 10
278.1211196427
 20
19.1129641057
 30
0.0
 11
280.6210968406
 21
17.6697579889
 31
0.0
  0
LINE
  5
1B2
330
1F
100
AcDbEntity
  8
0
  6
Continuous
 62
     7
370
    25
100
AcDbLine
 10
280.2926452977
 20
22.4125208613
 30
0.0
 11
283.121072886
 21
20.77970437
 31
0.0
  0
LINE
  5
1B3
330
1F
100
AcDbEntity
  8
0
  6
Continuous
 62
     7
370
    25
100
AcDbLine
 10
280.2926452977
 20
22.4125208613
 30
0.0
 11
280.2926452977
 21
23.9281320181
 31
0.0
  0
LINE
  5
1B4
330
1F
100
AcDbEntity
  8
0
  6
Continuous
 62
     7
370
    25
100
AcDbLine
 10
279.0426572749
 20
20.8575475757
 30
0.0
 11
278.1211203424
 21
19.7111643503
 31
0.0
  0
LINE
  5
1B5
330
1F
100
AcDbEntity
  8
0
  6
Continuous
 62
     7
370
    25
100
AcDbLine
 10
280.2926452977
 20
22.4125208613
 30
0.0
 11
279.0426572749
 21
20.8575475757
 31
0.0
  0
ARC
  5
1B6
330
1F
100
AcDbEntity
  8
0
  6
Continuous
 62
     7
370
    25
100
AcDbCircle
 10
270.9454996996
 20
40.1686594678
 30
0.0
 40
6.233337297435066
100
AcDbArc
 50
36.6426909035
 51
82.108589343
  0
ARC
  5
1B7
330
1F
100
AcDbEntity
  8
0
  6
Continuous
 62
     7
370
    25
100
AcDbCircle
 10
259.1848443562
 20
19.7977094914
 30
0.0
 40
6.232871607492278
100
AcDbArc
 50
217.3959428034
 51
263.0038572482
  0
ARC
  5
1B8
330
1F
100
AcDbEntity
  8
0
  6
Continuous
 62
     7
370
    25
100
AcDbCircle
 10
241.9314490907
 20
56.8663697095
 30
0.0
 40
6.284080968873196
100
AcDbArc
 50
60.2349355979
 51
82.1618332542
  0
ARC
  5
1B9
330
1F
100
AcDbEntity
  8
0
  6
Continuous
 62
     7
370
    25
100
AcDbCircle
 10
230.2290442362
 20
36.588673452
 30
0.0
 40
6.303833813760741
100
AcDbArc
 50
217.3855872086
 51
239.7423570255
  0
LWPOLYLINE
  5
1BA
330
1F
100
AcDbEntity
  8
0
  6
Continuous
 62
     7
370
    25
100
AcDbPolyline
 90
       22
 70
   128
 43
0.0
 10
259.1587454183
 20
26.413024636
 10
259.2134289786
 20
27.1824580683
 10
259.3873499247
 20
28.2493434282
 10
259.6736159295
 20
29.3447348444
 10
260.0668947584
 20
30.4482276966
 10
260.5598601037
 20
31.5392654593
 10
261.1433288914
 20
32.5975246728
 10
261.806432503
 20
33.6032921169
 10
262.5368182899
 20
34.5378313351
 10
263.3208808872
 20
35.3837344222
 10
264.144014354
 20
36.1252440089
 10
264.9908853456
 20
36.7485463235
 10
265.8457183461
 20
37.2420309106
 10
266.6925893377
 20
37.5965050304
 10
267.5157228045
 20
37.8053651152
 10
268.2997854018
 20
37.8647214339
 10
269.0301711887
 20
37.7734676954
 10
269.6932748003
 20
37.533303385
 10
270.276743588
 20
37.1487028946
 10
270.7697089332
 20
36.6268308045
 10
271.1629877621
 20
35.9774080229
 10
271.3191556653
 20
35.6104905567
  0
ARC
  5
1BB
330
1F
100
AcDbEntity
  8
0
  6
Continuous
 62
     7
370
    25
100
AcDbCircle
 10
262.6222920685
 20
24.9277620735
 30
0.0
 40
3.249791050573667
100
AcDbArc
 50
225.7426869216
 51
282.3940183759
  0
LINE
  5
1BC
330
1F
100
AcDbEntity
  8
0
  6
Continuous
 62
     7
370
    25
100
AcDbLine
 10
277.482968941
 20
32.0509323498
 30
0.0
 11
277.5497055122
 21
32.0136704403
 31
0.0
  0
LINE
  5
1BD
330
1F
100
AcDbEntity
  8
0
  6
Continuous
 62
     7
370
    25
100
AcDbLine
 10
269.6441338798
 20
18.1052320835
 30
0.0
 11
269.5503554955
 21
18.1568886709
 31
0.0
  0
LWPOLYLINE
  5
1BE
330
1F
100
AcDbEntity
  8
0
  6
Continuous
 62
     7
370
    25
100
AcDbPolyline
 90
       24
 70
   128
 43
0.0
 10
262.3025094711
 20
22.3409811199
 10
262.0574189615
 20
22.5009769924
 10
261.566893853
 20
22.9621287434
 10
261.1734549977
 20
23.5525958939
 10
260.8851685783
 20
24.2602720684
 10
260.7079456901
 20
25.070648411
 10
260.6454195233
 20
25.9671096727
 10
260.6988722639
 20
26.9312761947
 10
260.8672077647
 20
27.943379948
 10
261.1469749231
 20
28.9826699649
 10
261.5324374872
 20
30.0278383283
 10
262.015692923
 20
31.0574561254
 10
262.5868327697
 20
32.0504130757
 10
263.2341471182
 20
32.9863513557
 10
263.9443646502
 20
33.8460821195
 10
264.7029236297
 20
34.6119773027
 10
265.4942718696
 20
35.2683351861
 10
266.3021844794
 20
35.8016988099
 10
267.1100970892
 20
36.2011312303
 10
267.901445329
 20
36.4584445766
 10
268.6600043085
 20
36.5683629489
 10
269.3702218406
 20
36.5286318934
 10
270.0175361891
 20
36.3400668519
 10
270.3018594877
 20
36.1977628893
  0
LWPOLYLINE
  5
1BF
330
1F
100
AcDbEntity
  8
0
  6
Continuous
 62
     7
370
    25
100
AcDbPolyline
 90
       18
 70
   128
 43
0.0
 10
271.7249680779
 20
27.1599505126
 10
271.6652813904
 20
27.4942049344
 10
271.4942824063
 20
27.7144035041
 10
271.2350654585
 20
27.7908075793
 10
270.9226391023
 20
27.7130980059
 10
270.59919826
 20
27.4917697751
 10
270.308425835
 20
27.1567150559
 10
270.0895918243
 20
26.7531847397
 10
269.9722510467
 20
26.3356772881
 10
269.9722510467
 20
25.9605797275
 10
270.0895918243
 20
25.6785512439
 10
270.308425835
 20
25.5276811084
 10
270.59919826
 20
25.5283450851
 10
270.9226391023
 20
25.6804538922
 10
271.2350654585
 20
25.9634641115
 10
271.4942824063
 20
26.3391535141
 10
271.6652813904
 20
26.7567834984
 10
271.7249680779
 20
27.1599505126
  0
ARC
  5
1C0
330
1F
100
AcDbEntity
  8
0
  6
Continuous
 62
     7
370
    25
100
AcDbCircle
 10
272.6959809428
 20
25.5621089109
 30
0.0
 40
13.21665113086865
100
AcDbArc
 50
129.2042629154
 51
167.7820579476
  0
ARC
  5
1C1
330
1F
100
AcDbEntity
  8
0
  6
Continuous
 62
     7
370
    25
100
AcDbCircle
 10
268.3108622855
 20
32.5512992889
 30
0.0
 40
4.113782688492097
100
AcDbArc
 50
80.7618036441
 51
117.2111700188
  0
ARC
  5
1C2
330
1F
100
AcDbEntity
  8
0
  6
Continuous
 62
     7
370
    25
100
AcDbCircle
 10
263.805751918
 20
25.4878559188
 30
0.0
 40
3.351648778571667
100
AcDbArc
 50
200.9074619374
 51
221.0625744532
  0
LWPOLYLINE
  5
1C3
330
1F
100
AcDbEntity
  8
0
  6
Continuous
 62
     7
370
    25
100
AcDbPolyline
 90
        3
 70
   128
 43
0.0
 10
260.3954261499
 20
25.359170125
 10
260.3833988222
 20
25.4440859658
 10
260.3270060097
 20
26.3220299807
  0
LINE
  5
1C4
330
1F
100
AcDbEntity
  8
0
  6
Continuous
 62
     7
370
    25
100
AcDbLine
 10
269.2556024983
 20
36.5865865186
 30
0.0
 11
269.370537942
 21
36.5303796174
 31
0.0
  0
LWPOLYLINE
  5
1C5
330
1F
100
AcDbEntity
  8
0
  6
Continuous
 62
     7
370
    25
100
AcDbPolyline
 90
       17
 70
   128
 43
0.0
 10
260.2793300215
 20
26.3578982271
 10
260.3356494063
 20
27.2997216704
 10
260.5034600471
 20
28.2873966482
 10
260.7793464028
 20
29.3008174125
 10
261.1576920764
 20
30.3193533222
 10
261.6307947315
 20
31.3222703187
 10
262.1890238131
 20
32.2891514475
 10
262.8210154773
 20
33.2003139534
 10
263.5139035752
 20
34.0372093576
 10
264.2535834008
 20
34.7828008123
 10
265.0249970044
 20
35.4219099408
 10
265.8124407339
 20
35.9415270767
 10
266.5998844633
 20
36.3310731188
 10
267.371298067
 20
36.5826191789
 10
268.1109778925
 20
36.6910438725
 10
268.8038659905
 20
36.6541400379
 10
269.1464260263
 20
36.5760404851
  0
ARC
  5
1C6
330
1F
100
AcDbEntity
  8
0
  6
Continuous
 62
     7
370
    25
100
AcDbCircle
 10
263.6622208389
 20
25.4708989715
 30
0.0
 40
3.241321201926483
100
AcDbArc
 50
202.3803671681
 51
225.6675339319
  0
LWPOLYLINE
  5
1C7
330
1F
100
AcDbEntity
  8
0
  6
Continuous
 62
     7
370
    25
100
AcDbPolyline
 90
        3
 70
   128
 43
0.0
 10
260.3365009044
 20
25.4747776683
 10
260.3356494063
 20
25.4810997614
 10
260.2793300215
 20
26.3578982271
  0
LWPOLYLINE
  5
1C8
330
1F
100
AcDbEntity
  8
0
  6
Continuous
 62
     7
370
    25
100
AcDbPolyline
 90
       18
 70
   128
 43
0.0
 10
223.1775113023
 20
39.5889308515
 10
223.2346742827
 20
41.007672054
 10
223.4056495592
 20
42.4795661576
 10
223.6888869179
 20
43.9912827735
 10
224.0818206694
 20
45.5291303885
 10
224.5808933565
 20
47.0791829792
 10
225.1815847294
 20
48.6274032052
 10
225.8784552107
 20
50.1597701621
 10
226.6651939682
 20
51.662405614
 10
227.534676209
 20
53.1217028868
 10
228.4790270578
 20
54.5244451139
 10
229.4896953142
 20
55.8579299452
 10
230.5575272095
 20
57.1100790471
 10
231.6728526762
 20
58.2695548253
 10
232.8255716172
 20
59.3258573758
 10
234.0052442909
 20
60.2694177278
 10
235.201187665
 20
61.0916945329
 10
235.7998275112
 20
61.4537931304
  0
LWPOLYLINE
  5
1C9
330
1F
100
AcDbEntity
  8
0
  6
Continuous
 62
     7
370
    25
100
AcDbPolyline
 90
       17
 70
   128
 43
0.0
 10
234.4073316736
 20
60.6496617877
 10
233.8402835838
 20
60.3056653607
 10
232.7083739085
 20
59.519309547
 10
231.5939165681
 20
58.6114755158
 10
230.508347435
 20
57.5914776269
 10
229.4628056249
 20
56.4697836522
 10
228.4680201449
 20
55.2579029515
 10
227.5341994228
 20
53.9682709869
 10
226.6709246225
 20
52.6141215751
 10
225.8870544849
 20
51.2093498235
 10
225.1906324724
 20
49.7683703118
 10
224.5888051102
 20
48.3059695703
 10
224.0877482286
 20
46.8371547548
 10
223.692602426
 20
45.3769962364
 10
223.4074230195
 20
43.940478746
 10
223.2351372395
 20
42.5423425365
 10
223.1775106438
 20
41.1969332894
  0
SPLINE
  5
1CA
330
1F
100
AcDbEntity
  8
0
  6
Continuous
 62
     7
370
    25
100
AcDbSpline
210
0.0
220
0.0
230
1.0
 70
     8
 71
     3
 72
    25
 73
    21
 74
     0
 42
0.000000001
 43
0.00000001
 40
0.0
 40
0.0
 40
0.0
 40
0.0
 40
0.1249999999999985
 40
0.1249999999999985
 40
0.2499999999999971
 40
0.2499999999999971
 40
0.3749999999999956
 40
0.3749999999999956
 40
0.4999999999999941
 40
0.4999999999999941
 40
0.562499999999995
 40
0.562499999999995
 40
0.624999999999996
 40
0.6874999999999969
 40
0.6874999999999969
 40
0.7499999999999978
 40
0.7499999999999978
 40
0.8749999999999989
 40
0.8749999999999989
 40
1.0
 40
1.0
 40
1.0
 40
1.0
 10
226.596885998143
 20
58.56471630378862
 30
0.0
 10
226.626009296404
 20
58.45353078325945
 30
0.0
 10
226.6383983372633
 20
58.33828857083141
 30
0.0
 10
226.631420852163
 20
58.09919300299561
 30
0.0
 10
226.611403264311
 20
57.97441903312035
 30
0.0
 10
226.5411811065978
 20
57.72805012390793
 30
0.0
 10
226.4905304520041
 20
57.6038389765468
 30
0.0
 10
226.3606157083489
 20
57.36021048123664
 30
0.0
 10
226.2829147603596
 20
57.24315338617848
 30
0.0
 10
226.1475411781335
 20
57.07449686832844
 30
0.0
 10
226.0989066808264
 20
57.01912984705628
 30
0.0
 10
225.9974673454444
 20
56.91341003565927
 30
0.0
 10
225.8915973627036
 20
56.81224907703881
 30
0.0
 10
225.7770055703761
 20
56.72007475536202
 30
0.0
 10
225.6579229011579
 20
56.6325379126219
 30
0.0
 10
225.5959648881005
 20
56.59103944310971
 30
0.0
 10
225.4081011845799
 20
56.47691912137161
 30
0.0
 10
225.2787237482259
 20
56.41331169025701
 30
0.0
 10
225.0110404951639
 20
56.31204338928278
 30
0.0
 10
224.8751688086988
 20
56.27550248105798
 30
0.0
 10
224.7396515419712
 20
56.25433429670792
 30
0.0
  0
LWPOLYLINE
  5
1CB
330
1F
100
AcDbEntity
  8
0
  6
Continuous
 62
     7
370
    25
100
AcDbPolyline
 90
       13
 70
   128
 43
0.0
 10
226.5968861098
 20
58.5647163363
 10
227.6556202128
 20
59.6584637728
 10
228.7515023175
 20
60.6462445392
 10
229.8730676581
 20
61.5177260662
 10
231.0085824325
 20
62.2637915879
 10
232.1461669711
 20
62.8766325383
 10
233.2739200781
 20
63.3498416254
 10
234.3800432085
 20
63.6784655049
 10
235.4529643358
 20
63.8590664018
 10
236.4814587335
 20
63.889755334
 10
237.4547661136
 20
63.7702118254
 10
238.3627040609
 20
63.5016855115
 10
239.0745353563
 20
63.159167069
  0
LWPOLYLINE
  5
1CC
330
1F
100
AcDbEntity
  8
0
  6
Continuous
 62
     7
370
    25
100
AcDbPolyline
 90
       19
 70
   128
 43
0.0
 10
223.3383140418
 20
35.9002786752
 10
223.2552333837
 20
35.9492640834
 10
222.5072677512
 20
36.4941237989
 10
221.8488516594
 20
37.1731728574
 10
221.2867628484
 20
37.9794204481
 10
220.8267879488
 20
38.904568237
 10
220.4736618956
 20
39.9390925032
 10
220.231019196
 20
41.0723426228
 10
220.1013583679
 20
42.2926540964
 10
220.0860142808
 20
43.5874646171
 10
220.1851443271
 20
44.9434450618
 10
220.3977284212
 20
46.3466371348
 10
220.7215775611
 20
47.7825956686
 10
221.1533588532
 20
49.2365396688
 10
221.688627122
 20
50.6935013611
 10
222.3218723257
 20
52.1384837939
 10
223.046575532
 20
53.5566106431
 10
223.8552767489
 20
54.9332847633
 10
224.7396513152
 20
56.2543338083
  0
LWPOLYLINE
  5
1CD
330
1F
100
AcDbEntity
  8
0
  6
Continuous
 62
     7
370
    25
100
AcDbPolyline
 90
       35
 70
   128
 43
0.0
 10
222.1146792416
 20
36.7729083556
 10
221.2518627883
 20
37.1151979976
 10
220.4672076656
 20
37.5992176605
 10
219.768786312
 20
38.219987076
 10
219.1637854238
 20
38.9711214835
 10
218.6584295636
 20
39.8448917148
 10
218.2579172818
 20
40.8323074698
 10
217.96636975
 20
41.9232102889
 10
217.7867866383
 20
43.1063760285
 10
217.7210164812
 20
44.3696324035
 10
217.7697342868
 20
45.6999812814
 10
217.9324389027
 20
47.083735375
 10
218.207457626
 20
48.5066584534
 10
218.5919606908
 20
49.9541106355
 10
219.0819909032
 20
51.4111993874
 10
219.6725077635
 20
52.862933797
 10
220.3574355401
 20
54.2943766617
 10
221.1297271482
 20
55.6908018986
 10
221.9814359313
 20
57.0378409269
 10
222.9038006131
 20
58.3216358929
 10
223.8873302504
 20
59.5289776863
 10
224.9219063066
 20
60.647444715
 10
225.9968843976
 20
61.665530083
 10
227.1012044331
 20
62.5727576457
 10
228.223504627
 20
63.3597942149
 10
229.3522380599
 20
64.0185434652
 10
230.4757917933
 20
64.5422261042
 10
231.5826059015
 20
64.9254546715
 10
232.6612932445
 20
65.1642874733
 10
233.7007553717
 20
65.2562650731
 10
234.6902978496
 20
65.2004434093
 10
235.6197392507
 20
64.9973943548
 10
236.4795178382
 20
64.6492095092
 10
237.260786725
 20
64.1594699621
 10
237.8069394175
 20
63.6858978644
  0
LWPOLYLINE
  5
1CE
330
1F
100
AcDbEntity
  8
0
  6
Continuous
 62
     7
370
    25
100
AcDbPolyline
 90
       11
 70
   128
 43
0.0
 10
224.9342647174
 20
58.6889928169
 10
225.9537811779
 20
59.7666327665
 10
227.012986634
 20
60.7375288046
 10
228.0995559316
 20
61.5903839856
 10
229.2008461788
 20
62.3152746054
 10
230.304042974
 20
62.9037665567
 10
231.3963095871
 20
63.3490120952
 10
232.4649368396
 20
63.6458302809
 10
233.4974901763
 20
63.790767545
 10
234.481955276
 20
63.7821368823
 10
234.7348152937
 20
63.7538794499
  0
SPLINE
  5
1CF
330
1F
100
AcDbEntity
  8
0
  6
Continuous
 62
     7
370
    25
100
AcDbSpline
210
0.0
220
0.0
230
1.0
 70
     8
 71
     3
 72
    26
 73
    22
 74
     0
 42
0.000000001
 43
0.00000001
 40
0.0
 40
0.0
 40
0.0
 40
0.0
 40
0.1250000000000014
 40
0.1250000000000014
 40
0.2500000000000027
 40
0.2500000000000027
 40
0.3125000000000025
 40
0.3125000000000025
 40
0.3750000000000023
 40
0.3750000000000023
 40
0.4375000000000021
 40
0.4375000000000021
 40
0.5000000000000018
 40
0.5000000000000018
 40
0.5625000000000016
 40
0.5625000000000016
 40
0.6250000000000013
 40
0.6250000000000013
 40
0.7500000000000006
 40
0.7500000000000006
 40
1.0
 40
1.0
 40
1.0
 40
1.0
 10
223.5900715125154
 20
57.01682953066345
 30
0.0
 10
223.5664339162834
 20
57.12640539023644
 30
0.0
 10
223.5488661374017
 20
57.23729464860097
 30
0.0
 10
223.5300535545322
 20
57.4626246084639
 30
0.0
 10
223.5288737797648
 20
57.57830152178228
 30
0.0
 10
223.5449717830002
 20
57.74965703164184
 30
0.0
 10
223.5532905001004
 20
57.80645554373601
 30
0.0
 10
223.5770476493574
 20
57.91928175613309
 30
0.0
 10
223.5926700284064
 20
57.97573460979924
 30
0.0
 10
223.6315272408034
 20
58.08431772620784
 30
0.0
 10
223.6547531975059
 20
58.13669768643339
 30
0.0
 10
223.7097518469843
 20
58.2371544617055
 30
0.0
 10
223.7418301140069
 20
58.28543332947694
 30
0.0
 10
223.812244862542
 20
58.37313030506068
 30
0.0
 10
223.8508232846686
 20
58.41311943303664
 30
0.0
 10
223.9345315482648
 20
58.48559811715223
 30
0.0
 10
223.9796602582067
 20
58.51793474152885
 30
0.0
 10
224.1189409003968
 20
58.60113450888249
 30
0.0
 10
224.2197299719585
 20
58.63996323151859
 30
0.0
 10
224.5228022431912
 20
58.71537951897376
 30
0.0
 10
224.7313263336762
 20
58.715249372603
 30
0.0
 10
224.9342647533666
 20
58.68899314327678
 30
0.0
  0
LWPOLYLINE
  5
1D0
330
1F
100
AcDbEntity
  8
0
  6
Continuous
 62
     7
370
    25
100
AcDbPolyline
 90
       16
 70
   128
 43
0.0
 10
220.6530928836
 20
39.3609782406
 10
220.4767445425
 20
39.6022721726
 10
219.9879695159
 20
40.4435831512
 10
219.6053149856
 20
41.3997581755
 10
219.3331108816
 20
42.4599756425
 10
219.1744385336
 20
43.6122372499
 10
219.1310924756
 20
44.8435016037
 10
219.2035646401
 20
46.1398348388
 10
219.3910344809
 20
47.4865656591
 10
219.6913795088
 20
48.8684519735
 10
220.1012009757
 20
50.2698549914
 10
220.6158614113
 20
51.6749143635
 10
221.2295359892
 20
53.0677289771
 10
221.9352790406
 20
54.4325343278
 10
222.7251037377
 20
55.7538865438
 10
223.5900716559
 20
57.0168292996
  0
LWPOLYLINE
  5
1D1
330
1F
100
AcDbEntity
  8
0
  6
Continuous
 62
     7
370
    25
100
AcDbPolyline
 90
       25
 70
   128
 43
0.0
 10
215.4732828569
 20
46.0776617626
 10
215.527141261
 20
47.098922131
 10
215.6978392902
 20
48.4841681682
 10
215.9803891284
 20
49.9074413034
 10
216.3718918628
 20
51.3541373088
 10
216.8683290547
 20
52.8094102347
 10
217.4646081794
 20
54.2583277292
 10
218.1546087244
 20
55.6860214161
 10
218.9312519946
 20
57.0778416419
 10
219.7865676259
 20
58.4195065207
 10
220.7117791957
 20
59.6972483152
 10
221.697392797
 20
60.8979558249
 10
222.7332945034
 20
62.0093082186
 10
223.808855077
 20
63.0199016417
 10
224.9130373121
 20
63.9193659368
 10
226.034511115
 20
64.6984713833
 10
227.1617684203
 20
65.3492231741
 10
228.2832422232
 20
65.8649438192
 10
229.3874244583
 20
66.2403411965
 10
230.4629850319
 20
66.471563579
 10
231.4988867383
 20
66.5562378372
 10
232.4845003396
 20
66.4934955693
 10
233.4097119094
 20
66.2839803155
 10
234.2650275407
 20
65.9298418445
 10
234.4662504249
 20
65.8194733337
  0
LWPOLYLINE
  5
1D2
330
1F
100
AcDbEntity
  8
0
  6
Continuous
 62
     7
370
    25
100
AcDbPolyline
 90
        9
 70
   128
 43
0.0
 10
218.7300291104
 20
38.5605849399
 10
218.1546087244
 20
38.9453434217
 10
217.4646081794
 20
39.5763794367
 10
216.8683290547
 20
40.3368477078
 10
216.3718918628
 20
41.2189464522
 10
215.9803891284
 20
42.2136230221
 10
215.6978392902
 20
43.3106710579
 10
215.527141261
 20
44.4988333457
 10
215.5060177873
 20
44.7542985774
  0
LWPOLYLINE
  5
1D3
330
1F
100
AcDbEntity
  8
0
  6
Continuous
 62
     7
370
    25
100
AcDbPolyline
 90
       20
 70
   128
 43
0.0
 10
215.4700466509
 20
45.8475585306
 10
215.5267789432
 20
47.1720929652
 10
215.6963923496
 20
48.5485368413
 10
215.9771463369
 20
49.9627661499
 10
216.3661610901
 20
51.4002691529
 10
216.8594445124
 20
52.8462951459
 10
217.4519337135
 20
54.2860056916
 10
218.1375503277
 20
55.7046270873
 10
218.9092584653
 20
57.0876035927
 10
219.7591391289
 20
58.4207430518
 10
220.6784718718
 20
59.6903655554
 10
221.6578227149
 20
60.8834439286
 10
222.6871422688
 20
61.9877341409
 10
223.7558681383
 20
62.991905906
 10
224.8530342402
 20
63.8856552204
 10
225.9673818506
 20
64.659809534
 10
227.087476332
 20
65.3064263144
 10
228.2018239424
 20
65.8188703658
 10
229.2989900443
 20
66.191882069
 10
229.7062366022
 20
66.295574036
  0
LWPOLYLINE
  5
1D4
330
1F
100
AcDbEntity
  8
0
  6
Continuous
 62
     7
370
    25
100
AcDbPolyline
 90
        3
 70
   128
 43
0.0
 10
215.6861493483
 20
43.460243905
 10
215.5267789432
 20
44.5885258065
 10
215.4768164884
 20
45.4047244792
  0
SPLINE
  5
1D5
330
1F
100
AcDbEntity
  8
0
  6
Continuous
 62
     7
370
    25
100
AcDbSpline
210
0.0
220
0.0
230
1.0
 70
     8
 71
     3
 72
    10
 73
     6
 74
     0
 42
0.000000001
 43
0.00000001
 40
0.0
 40
0.0
 40
0.0
 40
0.0
 40
0.5
 40
0.5
 40
1.0
 40
1.0
 40
1.0
 40
1.0
 10
224.3167595801468
 20
55.55377624984372
 30
0.0
 10
224.2127950893625
 20
55.6271146229141
 30
0.0
 10
224.1229868129351
 20
55.7143503807075
 30
0.0
 10
223.9709443849364
 20
55.9152809219035
 30
0.0
 10
223.9090387965755
 20
56.02945168810047
 30
0.0
 10
223.864589091985
 20
56.15246937126057
 30
0.0
  0
SPLINE
  5
1D6
330
1F
100
AcDbEntity
  8
0
  6
Continuous
 62
     7
370
    25
100
AcDbSpline
210
0.0
220
0.0
230
1.0
 70
     8
 71
     3
 72
    14
 73
    10
 74
     0
 42
0.000000001
 43
0.00000001
 40
0.0
 40
0.0
 40
0.0
 40
0.0
 40
0.25
 40
0.25
 40
0.5
 40
0.5
 40
0.75
 40
0.75
 40
1.0
 40
1.0
 40
1.0
 40
1.0
 10
223.864589091985
 20
56.15246937126057
 30
0.0
 10
223.8418682891199
 20
56.21535079091812
 30
0.0
 10
223.8199537787704
 20
56.28439722039153
 30
0.0
 10
223.7778427247077
 20
56.4320497370103
 30
0.0
 10
223.7583211707946
 20
56.50844952386861
 30
0.0
 10
223.7199749286208
 20
56.66278181526421
 30
0.0
 10
223.701615335737
 20
56.73973441159586
 30
0.0
 10
223.6596118911554
 20
56.88512457911184
 30
0.0
 10
223.6358355701423
 20
56.95171548530487
 30
0.0
 10
223.6073740660402
 20
56.99221110053621
 30
0.0
  0
LINE
  5
1D7
330
1F
100
AcDbEntity
  8
0
  6
Continuous
 62
     7
370
    25
100
AcDbLine
 10
223.6073742543
 20
56.9922114923
 30
0.0
 11
223.5900716559
 21
57.0168292996
 31
0.0
  0
LINE
  5
1D8
330
1F
100
AcDbEntity
  8
0
  6
Continuous
 62
     7
370
    25
100
AcDbLine
 10
224.9342647174
 20
58.6889928169
 30
0.0
 11
224.9515673158
 21
58.6643750095
 31
0.0
  0
SPLINE
  5
1D9
330
1F
100
AcDbEntity
  8
0
  6
Continuous
 62
     7
370
    25
100
AcDbSpline
210
0.0
220
0.0
230
1.0
 70
     8
 71
     3
 72
    16
 73
    12
 74
     0
 42
0.000000001
 43
0.00000001
 40
0.0
 40
0.0
 40
0.0
 40
0.0
 40
0.1250000000000001
 40
0.1250000000000001
 40
0.2500000000000003
 40
0.2500000000000003
 40
0.5000000000000002
 40
0.5000000000000002
 40
0.7500000000000001
 40
0.7500000000000001
 40
1.0
 40
1.0
 40
1.0
 40
1.0
 10
224.9515673068913
 20
58.6643747131495
 30
0.0
 10
224.9657197132955
 20
58.64423837733671
 30
0.0
 10
224.9873781177691
 20
58.62744095665929
 30
0.0
 10
225.0397960468044
 20
58.60059543532779
 30
0.0
 10
225.0703889259428
 20
58.59036995076681
 30
0.0
 10
225.1694697748003
 20
58.56586951033412
 30
0.0
 10
225.2433523124162
 20
58.55760958793263
 30
0.0
 10
225.3964519048075
 20
58.5464236212277
 30
0.0
 10
225.4745358794551
 20
58.54382694947652
 30
0.0
 10
225.6338795131973
 20
58.54179794864281
 30
0.0
 10
225.7125324080288
 20
58.54243553730504
 30
0.0
 10
225.7882848758215
 20
58.54552863812008
 30
0.0
  0
SPLINE
  5
1DA
330
1F
100
AcDbEntity
  8
0
  6
Continuous
 62
     7
370
    25
100
AcDbSpline
210
0.0
220
0.0
230
1.0
 70
     8
 71
     3
 72
    10
 73
     6
 74
     0
 42
0.000000001
 43
0.00000001
 40
0.0
 40
0.0
 40
0.0
 40
0.0
 40
0.5
 40
0.5
 40
1.0
 40
1.0
 40
1.0
 40
1.0
 10
225.7882848758215
 20
58.54552863812008
 30
0.0
 10
225.9364792157222
 20
58.55157966255383
 30
0.0
 10
226.0787036814528
 20
58.5414174323407
 30
0.0
 10
226.3510950717935
 20
58.49036699640062
 30
0.0
 10
226.4812224016621
 20
58.44900589375607
 30
0.0
 10
226.5992977438474
 20
58.39323202580379
 30
0.0
  0
ARC
  5
1DB
330
1F
100
AcDbEntity
  8
0
  6
Continuous
 62
     7
370
    25
100
AcDbCircle
 10
209.2623597958
 20
53.6504287554
 30
0.0
 40
4.133775770228485
100
AcDbArc
 50
211.715926835
 51
236.2424021462
  0
SPLINE
  5
1DC
330
1F
100
AcDbEntity
  8
0
  6
Continuous
 62
     7
370
    25
100
AcDbSpline
210
0.0
220
0.0
230
1.0
 70
     8
 71
     3
 72
     8
 73
     4
 74
     0
 42
0.000000001
 43
0.00000001
 40
0.0
 40
0.0
 40
0.0
 40
0.0
 40
1.0
 40
1.0
 40
1.0
 40
1.0
 10
207.1763440747106
 20
50.55252760656512
 30
0.0
 10
206.6995707828865
 20
50.86062041449777
 30
0.0
 10
206.2227684060416
 20
51.16884986007052
 30
0.0
 10
205.745935961516
 20
51.47721501629044
 30
0.0
  0
SPLINE
  5
1DD
330
1F
100
AcDbEntity
  8
0
  6
Continuous
 62
     7
370
    25
100
AcDbSpline
210
0.0
220
0.0
230
1.0
 70
     8
 71
     3
 72
    23
 73
    19
 74
     0
 42
0.000000001
 43
0.00000001
 40
0.0
 40
0.0
 40
0.0
 40
0.0
 40
0.0521034701687057
 40
0.1035642834087102
 40
0.1544746865149814
 40
0.2049299526106448
 40
0.2550279491446255
 40
0.3048686360173235
 40
0.354553504119357
 40
0.4041849683413186
 40
0.4538657321696359
 40
0.5036981429680408
 40
0.5902048055392471
 40
0.6743008903317285
 40
0.7566325442019778
 40
0.8378852029881853
 40
0.9187688149217074
 40
1.0
 40
1.0
 40
1.0
 40
1.0
 10
208.0569088782523
 20
50.37779690844503
 30
0.0
 10
208.0516399393124
 20
50.36787544620939
 30
0.0
 10
208.0411670498127
 20
50.34815489547691
 30
0.0
 10
208.0219207540434
 20
50.32358706653089
 30
0.0
 10
208.0001250137338
 20
50.30289848424508
 30
0.0
 10
207.9754737224427
 20
50.28636754904394
 30
0.0
 10
207.9479772082216
 20
50.27385004911264
 30
0.0
 10
207.9175661530372
 20
50.26531542660568
 30
0.0
 10
207.8841957856387
 20
50.26070554907073
 30
0.0
 10
207.8478198810649
 20
50.25997082415011
 30
0.0
 10
207.8083915704254
 20
50.26306583860002
 30
0.0
 10
207.7555372904675
 20
50.27160283681498
 30
0.0
 10
207.6869894970387
 20
50.28920081183684
 30
0.0
 10
207.5992585487832
 20
50.32083918380709
 30
0.0
 10
207.5045245963578
 20
50.36301931693833
 30
0.0
 10
207.402493900799
 20
50.41575486899967
 30
0.0
 10
207.2935902414276
 20
50.47806869645861
 30
0.0
 10
207.2154819515167
 20
50.52767251976385
 30
0.0
 10
207.1763440747106
 20
50.55252760656511
 30
0.0
  0
SPLINE
  5
1DE
330
1F
100
AcDbEntity
  8
0
  6
Continuous
 62
     7
370
    25
100
AcDbSpline
210
0.0
220
0.0
230
1.0
 70
     8
 71
     3
 72
     8
 73
     4
 74
     0
 42
0.000000001
 43
0.00000001
 40
0.0
 40
0.0
 40
0.0
 40
0.0
 40
1.0
 40
1.0
 40
1.0
 40
1.0
 10
209.5304119047085
 20
49.43047677188729
 30
0.0
 10
209.0390445926663
 20
49.74635139185529
 30
0.0
 10
208.5476583927393
 20
50.06233741314528
 30
0.0
 10
208.0562526825945
 20
50.37843429398848
 30
0.0
  0
SPLINE
  5
1DF
330
1F
100
AcDbEntity
  8
0
  6
Continuous
 62
     7
370
    25
100
AcDbSpline
210
0.0
220
0.0
230
1.0
 70
     8
 71
     3
 72
    18
 73
    14
 74
     0
 42
0.000000001
 43
0.00000001
 40
0.0
 40
0.0
 40
0.0
 40
0.0
 40
0.0923645816240024
 40
0.184437298835547
 40
0.2764543021187089
 40
0.3686515499736663
 40
0.4612630116345014
 40
0.5545189370737327
 40
0.6486442564353982
 40
0.7438571603401029
 40
0.840367898348629
 40
0.9203923541269499
 40
1.0
 40
1.0
 40
1.0
 40
1.0
 10
210.3439760239057
 20
48.78616904734449
 30
0.0
 10
210.3204139272485
 20
48.8014382257013
 30
0.0
 10
210.273364188204
 20
48.8319283330785
 30
0.0
 10
210.2009782744324
 20
48.88155055647058
 30
0.0
 10
210.1275040113307
 20
48.93387312619727
 30
0.0
 10
210.0528084712418
 20
48.98918739297098
 30
0.0
 10
209.9769475914917
 20
49.04742578554153
 30
0.0
 10
209.8999322233893
 20
49.10862229212392
 30
0.0
 10
209.8217920220626
 20
49.17279311501086
 30
0.0
 10
209.7425537516345
 20
49.23995273763315
 30
0.0
 10
209.6672479455492
 20
49.30581192974397
 30
0.0
 10
209.5964153140419
 20
49.36934822258818
 30
0.0
 10
209.552510943687
 20
49.41000897576995
 30
0.0
 10
209.5306160771073
 20
49.43028626841185
 30
0.0
  0
LINE
  5
1E0
330
1F
100
AcDbEntity
  8
0
  6
Continuous
 62
     7
370
    25
100
AcDbLine
 10
210.9836825558
 20
48.3744152408
 30
0.0
 11
210.3439757134
 21
48.7861689085
 31
0.0
  0
SPLINE
  5
1E1
330
1F
100
AcDbEntity
  8
0
  6
Continuous
 62
     7
370
    25
100
AcDbSpline
210
0.0
220
0.0
230
1.0
 70
     8
 71
     3
 72
    25
 73
    21
 74
     0
 42
0.000000001
 43
0.00000001
 40
0.0
 40
0.0
 40
0.0
 40
0.0
 40
0.0280056024285556
 40
0.0559514328342784
 40
0.0838901607637317
 40
0.1118745076905564
 40
0.1399569498905731
 40
0.1681894282715383
 40
0.1966230730100115
 40
0.2253079499152918
 40
0.2542928341276725
 40
0.3799484016835161
 40
0.505784488750116
 40
0.6313077644952726
 40
0.7532057173414717
 40
0.8039627394927641
 40
0.8536129947768591
 40
0.9025574087126811
 40
0.9512124407392603
 40
1.0
 40
1.0
 40
1.0
 40
1.0
 10
212.0860481488959
 20
49.09032123122156
 30
0.0
 10
212.0909971817959
 20
49.06270098115851
 30
0.0
 10
212.100884684934
 20
49.00751943060229
 30
0.0
 10
212.1124218204744
 20
48.92836673341925
 30
0.0
 10
212.1214958014214
 20
48.85206854410318
 30
0.0
 10
212.1278647720774
 20
48.77887521017195
 30
0.0
 10
212.1315806241211
 20
48.70872750347237
 30
0.0
 10
212.1326163850381
 20
48.64164840577571
 30
0.0
 10
212.1309667007574
 20
48.57763916837442
 30
0.0
 10
212.1266189884356
 20
48.51670264113036
 30
0.0
 10
212.1117615088644
 20
48.39480864892162
 30
0.0
 10
212.0666731906108
 20
48.23990416411814
 30
0.0
 10
211.9533132028692
 20
48.10896157055473
 30
0.0
 10
211.7914897997728
 20
48.05308408874333
 30
0.0
 10
211.6174626644943
 20
48.07296223445498
 30
0.0
 10
211.4660865670917
 20
48.12028324016966
 30
0.0
 10
211.355671208533
 20
48.16520170727777
 30
0.0
 10
211.2385119528782
 20
48.2225770454127
 30
0.0
 10
211.1149625533047
 20
48.29124854957693
 30
0.0
 10
211.027482038586
 20
48.34666780408901
 30
0.0
 10
210.983682292093
 20
48.37441511794811
 30
0.0
  0
ARC
  5
1E2
330
1F
100
AcDbEntity
  8
0
  6
Continuous
 62
     7
370
    25
100
AcDbCircle
 10
223.2790693133
 20
50.8763715998
 30
0.0
 40
11.33462419218393
100
AcDbArc
 50
170.9338462887
 51
189.0661537113
  0
SPLINE
  5
1E3
330
1F
100
AcDbEntity
  8
0
  6
Continuous
 62
     7
370
    25
100
AcDbSpline
210
0.0
220
0.0
230
1.0
 70
     8
 71
     3
 72
    26
 73
    22
 74
     0
 42
0.000000001
 43
0.00000001
 40
0.0
 40
0.0
 40
0.0
 40
0.0
 40
0.0241214275653681
 40
0.048207823354694
 40
0.0723095879205524
 40
0.0964771461125574
 40
0.1207606318213038
 40
0.1452095829268534
 40
0.1698726554210423
 40
0.1947973643378114
 40
0.2200298573584057
 40
0.2456147249583675
 40
0.3690974744022258
 40
0.4940700204039635
 40
0.6192566393629643
 40
0.7454654421861667
 40
0.7971580294162193
 40
0.8481837569733532
 40
0.8988139831114569
 40
0.9493262809205398
 40
1.0
 40
1.0
 40
1.0
 40
1.0
 10
210.983682292093
 20
56.13852550931266
 30
0.0
 10
211.0053973313933
 20
56.1241992570059
 30
0.0
 10
211.0487958730383
 20
56.09556755854329
 30
0.0
 10
211.1120955007682
 20
56.04758706325122
 30
0.0
 10
211.1739517254461
 20
55.99599639429437
 30
0.0
 10
211.2342530064013
 20
55.94042664657174
 30
0.0
 10
211.2930417483225
 20
55.88097303113863
 30
0.0
 10
211.350323285191
 20
55.81760691106503
 30
0.0
 10
211.406117577844
 20
55.75033288495771
 30
0.0
 10
211.4604441444068
 20
55.67915010563747
 30
0.0
 10
211.5133305519585
 20
55.60404879677071
 30
0.0
 10
211.6301310176588
 20
55.42478508065968
 30
0.0
 10
211.7920041127472
 20
55.11447471761571
 30
0.0
 10
211.9551886900795
 20
54.6445606807158
 30
0.0
 10
212.066700571131
 20
54.145597672856
 30
0.0
 10
212.1138344980965
 20
53.73670231973471
 30
0.0
 10
212.1289555116649
 20
53.43241293904011
 30
0.0
 10
212.1309112677988
 20
53.23114611946765
 30
0.0
 10
212.1244341040028
 20
53.03548605811389
 30
0.0
 10
212.1103065754877
 20
52.84486643873622
 30
0.0
 10
212.0941428863626
 20
52.7233016590539
 30
0.0
 10
212.0860481488959
 20
52.66242230353618
 30
0.0
  0
LINE
  5
1E4
330
1F
100
AcDbEntity
  8
0
  6
Continuous
 62
     7
370
    25
100
AcDbLine
 10
210.3439757134
 20
56.5515003596
 30
0.0
 11
210.9836825558
 21
56.1385253886
 31
0.0
  0
SPLINE
  5
1E5
330
1F
100
AcDbEntity
  8
0
  6
Continuous
 62
     7
370
    25
100
AcDbSpline
210
0.0
220
0.0
230
1.0
 70
     8
 71
     3
 72
    14
 73
    10
 74
     0
 42
0.000000001
 43
0.00000001
 40
0.0
 40
0.0
 40
0.0
 40
0.0
 40
0.0789259589567727
 40
0.158232396189637
 40
0.3308776440723308
 40
0.5000645817686393
 40
0.6670803235491236
 40
0.8332687177846481
 40
1.0
 40
1.0
 40
1.0
 40
1.0
 10
209.530023308159
 20
56.76008279260554
 30
0.0
 10
209.5517401891599
 20
56.76168597051103
 30
0.0
 10
209.5952786417039
 20
56.76490005475983
 30
0.0
 10
209.6868123703265
 20
56.76572087665474
 30
0.0
 10
209.8037336198454
 20
56.75778539791384
 30
0.0
 10
209.9445671684732
 20
56.73151055593102
 30
0.0
 10
210.0817798173762
 20
56.6885534969874
 30
0.0
 10
210.2156983086555
 20
56.63019758083995
 30
0.0
 10
210.3011703261033
 20
56.5777613775041
 30
0.0
 10
210.3439760239057
 20
56.55150052230355
 30
0.0
  0
SPLINE
  5
1E6
330
1F
100
AcDbEntity
  8
0
  6
Continuous
 62
     7
370
    25
100
AcDbSpline
210
0.0
220
0.0
230
1.0
 70
     8
 71
     3
 72
     8
 73
     4
 74
     0
 42
0.000000001
 43
0.00000001
 40
0.0
 40
0.0
 40
0.0
 40
0.0
 40
1.0
 40
1.0
 40
1.0
 40
1.0
 10
207.72771972505
 20
57.92247420400996
 30
0.0
 10
208.3284779487466
 20
57.53520672085076
 30
0.0
 10
208.9292068116075
 20
57.14773937092715
 30
0.0
 10
209.5299074559548
 20
56.76007247833723
 30
0.0
  0
SPLINE
  5
1E7
330
1F
100
AcDbEntity
  8
0
  6
Continuous
 62
     7
370
    25
100
AcDbSpline
210
0.0
220
0.0
230
1.0
 70
     8
 71
     3
 72
    13
 73
     9
 74
     0
 42
0.000000001
 43
0.00000001
 40
0.0
 40
0.0
 40
0.0
 40
0.0
 40
0.1666651380536958
 40
0.3328869540146023
 40
0.4989979369855643
 40
0.6653319948464125
 40
0.8322224399502948
 40
1.0
 40
1.0
 40
1.0
 40
1.0
 10
207.3858911900156
 20
58.22353898309575
 30
0.0
 10
207.40618853258
 20
58.20997908719237
 30
0.0
 10
207.4467292276513
 20
58.182895364125
 30
0.0
 10
207.5058718467871
 20
58.13770950648325
 30
0.0
 10
207.5636410557798
 20
58.08930124926875
 30
0.0
 10
207.6198930761555
 20
58.03726289956097
 30
0.0
 10
207.6748272005422
 20
57.98195562719476
 30
0.0
 10
207.7100539461498
 20
57.94232999937664
 30
0.0
 10
207.7277140072716
 20
57.92246466702223
 30
0.0
  0
SPLINE
  5
1E8
330
1F
100
AcDbEntity
  8
0
  6
Continuous
 62
     7
370
    25
100
AcDbSpline
210
0.0
220
0.0
230
1.0
 70
     8
 71
     3
 72
     8
 73
     4
 74
     0
 42
0.000000001
 43
0.00000001
 40
0.0
 40
0.0
 40
0.0
 40
0.0
 40
1.0
 40
1.0
 40
1.0
 40
1.0
 10
205.4419106742249
 20
59.47826083547522
 30
0.0
 10
206.0899407466252
 20
59.06026551959047
 30
0.0
 10
206.7379337237271
 20
58.64202475717284
 30
0.0
 10
207.3858911900156
 20
58.22353898309575
 30
0.0
  0
LWPOLYLINE
  5
1E9
330
1F
100
AcDbEntity
  8
0
  6
Continuous
 62
     7
370
    25
100
AcDbPolyline
 90
       17
 70
   128
 43
0.0
 10
205.4419113245
 20
59.478260886
 10
205.8923742072
 20
60.7679070266
 10
206.4484551167
 20
62.0472123684
 10
207.1018129281
 20
63.296987413
 10
207.8426468529
 20
64.4984836773
 10
208.6598439525
 20
65.6336792336
 10
209.5411454208
 20
66.6855442853
 10
210.4733311416
 20
67.6383009435
 10
211.4424180746
 20
68.4776563842
 10
212.4338692614
 20
69.1910208449
 10
213.432812174
 20
69.7676929902
 10
214.4242621671
 20
70.1990223685
 10
215.3933467952
 20
70.4785381469
 10
216.3255292233
 20
70.6020484259
 10
217.2068260818
 20
70.5676998435
 10
218.0240175837
 20
70.3760076182
 10
218.491649051
 20
70.1800078512
  0
SPLINE
  5
1EA
330
1F
100
AcDbEntity
  8
0
  6
Continuous
 62
     7
370
    25
100
AcDbSpline
210
0.0
220
0.0
230
1.0
 70
    11
 71
     3
 72
    39
 73
    35
 74
     0
 42
0.000000001
 43
0.00000001
 40
0.0
 40
0.0
 40
0.0
 40
0.0
 40
0.0310664058347798
 40
0.0621048158425991
 40
0.0931361551792733
 40
0.1235538293503577
 40
0.1538561545807598
 40
0.1850588072749104
 40
0.2160250992947717
 40
0.247186722379756
 40
0.2784462884306427
 40
0.3100516090231226
 40
0.3419834369140484
 40
0.3734259894013217
 40
0.4048604886785525
 40
0.4368740651833295
 40
0.468512068592407
 40
0.4998055358633177
 40
0.5309508213228404
 40
0.561864978443814
 40
0.5930416446592908
 40
0.6233742450133256
 40
0.6540913579073041
 40
0.6849496782718417
 40
0.7158160645167227
 40
0.7471731804043494
 40
0.7784514311866261
 40
0.8101295911560916
 40
0.8419598919689909
 40
0.8735175891922292
 40
0.9050808037889628
 40
0.9370235169792575
 40
0.9687441590033682
 40
0.9999999999999999
 40
0.9999999999999999
 40
0.9999999999999999
 40
0.9999999999999999
 10
218.6504961554302
 20
68.48345121081664
 30
0.0
 10
218.9133817756278
 20
68.45491672352642
 30
0.0
 10
219.440270386111
 20
68.36897423520395
 30
0.0
 10
220.2042824551844
 20
68.16859911513376
 30
0.0
 10
220.9114326432359
 20
67.92159700891412
 30
0.0
 10
221.5243437078303
 20
67.64361513076179
 30
0.0
 10
222.0214750335053
 20
67.3494814334319
 30
0.0
 10
222.3806667545774
 20
67.04797490523926
 30
0.0
 10
222.6023860233383
 20
66.74097740033605
 30
0.0
 10
222.667637900719
 20
66.4304721389338
 30
0.0
 10
222.5807906896046
 20
66.11132765418536
 30
0.0
 10
222.3384451018458
 20
65.78200768861252
 30
0.0
 10
221.9585072391196
 20
65.44306696705566
 30
0.0
 10
221.4447012859609
 20
65.10522850264525
 30
0.0
 10
220.8188104750503
 20
64.77933060133626
 30
0.0
 10
220.1053394885618
 20
64.48268370809626
 30
0.0
 10
219.3414370122968
 20
64.22658039965762
 30
0.0
 10
218.5556439293929
 20
64.03755283166787
 30
0.0
 10
217.7741064743508
 20
63.92937690961271
 30
0.0
 10
217.0179934895971
 20
63.92171302624469
 30
0.0
 10
216.3156289032063
 20
64.0196350616323
 30
0.0
 10
215.6966085561625
 20
64.24128349513374
 30
0.0
 10
215.1875512911499
 20
64.57715158204488
 30
0.0
 10
214.8146076977162
 20
65.01696214822618
 30
0.0
 10
214.5860057464686
 20
65.52803678874875
 30
0.0
 10
214.5171594397489
 20
66.07922187651201
 30
0.0
 10
214.601775852974
 20
66.63689380482349
 30
0.0
 10
214.8448846429096
 20
67.16697394574324
 30
0.0
 10
215.2270144857263
 20
67.63949829485624
 30
0.0
 10
215.7431500601399
 20
68.02561980574998
 30
0.0
 10
216.370127920641
 20
68.30924399308228
 30
0.0
 10
217.0860353530074
 20
68.4789812118087
 30
0.0
 10
217.8544787451909
 20
68.54052004651922
 30
0.0
 10
218.3860075245634
 20
68.51215969426359
 30
0.0
 10
218.6504961554303
 20
68.48345121081664
 30
0.0
  0
LINE
  5
1EB
330
1F
100
AcDbEntity
  8
0
  6
Continuous
 62
     7
370
    25
100
AcDbLine
 10
209.4259587424
 20
52.0443245934
 30
0.0
 11
209.7367120663
 21
51.8779372368
 31
0.0
  0
LINE
  5
1EC
330
1F
100
AcDbEntity
  8
0
  6
Continuous
 62
     7
370
    25
100
AcDbLine
 10
208.4390007225
 20
52.6140833307
 30
0.0
 11
209.4259587424
 21
52.0443245934
 31
0.0
  0
LWPOLYLINE
  5
1ED
330
1F
100
AcDbEntity
  8
0
  6
Continuous
 62
     7
370
    25
100
AcDbPolyline
 90
        3
 70
   128
 43
0.0
 10
211.9700452515
 20
51.9189250458
 10
211.2648598226
 20
51.764721337
 10
210.4787623228
 20
51.7269520891
  0
SPLINE
  5
1EE
330
1F
100
AcDbEntity
  8
0
  6
Continuous
 62
     7
370
    25
100
AcDbSpline
210
0.0
220
0.0
230
1.0
 70
     8
 71
     3
 72
    12
 73
     8
 74
     0
 42
0.000000001
 43
0.00000001
 40
0.0
 40
0.0
 40
0.0
 40
0.0
 40
0.1427340617478052
 40
0.374476004195105
 40
0.607135784882394
 40
0.8192243157844539
 40
1.0
 40
1.0
 40
1.0
 40
1.0
 10
219.9890021137296
 20
65.48095549548091
 30
0.0
 10
219.7976994937489
 20
65.58593291248319
 30
0.0
 10
219.295799387739
 20
65.86135086926487
 30
0.0
 10
218.3009910218553
 20
66.27605328813029
 30
0.0
 10
217.0894651985684
 20
66.56910103267023
 30
0.0
 10
215.9715701101799
 20
66.6084578519619
 30
0.0
 10
215.3933755916916
 20
66.40254443344395
 30
0.0
 10
215.1273205384002
 20
66.30779378502818
 30
0.0
  0
SPLINE
  5
1EF
330
1F
100
AcDbEntity
  8
0
  6
Continuous
 62
     7
370
    25
100
AcDbSpline
210
0.0
220
0.0
230
1.0
 70
     8
 71
     3
 72
    10
 73
     6
 74
     0
 42
0.000000001
 43
0.00000001
 40
0.0
 40
0.0
 40
0.0
 40
0.0
 40
0.3798174073072795
 40
0.9603711649033085
 40
1.0
 40
1.0
 40
1.0
 40
1.0
 10
221.1288822355891
 20
64.95272856796242
 30
0.0
 10
220.9992296183408
 20
65.02305712979981
 30
0.0
 10
220.6714020025863
 20
65.20088342622093
 30
0.0
 10
220.2634734575761
 20
65.37393627662333
 30
0.0
 10
220.0068406761442
 20
65.47314170887164
 30
0.0
 10
219.9904421859325
 20
65.47948080281202
 30
0.0
  0
SPLINE
  5
1F0
330
1F
100
AcDbEntity
  8
0
  6
Continuous
 62
     7
370
    25
100
AcDbSpline
210
0.0
220
0.0
230
1.0
 70
     8
 71
     3
 72
    23
 73
    19
 74
     0
 42
0.000000001
 43
0.00000001
 40
0.0
 40
0.0
 40
0.0
 40
0.0
 40
0.0607437236665173
 40
0.1128905441349021
 40
0.1564462551410999
 40
0.2383372959764761
 40
0.3124660628009456
 40
0.3863024885564415
 40
0.426283144312716
 40
0.4683153135174991
 40
0.5350869567196014
 40
0.6246003429844076
 40
0.6840156735493184
 40
0.7360207859419848
 40
0.7812815834773473
 40
0.8609340997119854
 40
0.936694373213275
 40
1.0
 40
1.0
 40
1.0
 40
1.0
 10
218.595617588428
 20
67.90959331085989
 30
0.0
 10
218.4116661207714
 20
67.9284876765969
 30
0.0
 10
218.0697973642202
 20
67.9636023370159
 30
0.0
 10
217.6055790805837
 20
67.95711320942158
 30
0.0
 10
217.0961110626437
 20
67.90938766277763
 30
0.0
 10
216.5570179365337
 20
67.78477777976705
 30
0.0
 10
216.0141547619076
 20
67.54225912293265
 30
0.0
 10
215.6473979654631
 20
67.26498094593494
 30
0.0
 10
215.4018847609057
 20
66.99808324464739
 30
0.0
 10
215.2093985945017
 20
66.72161152338198
 30
0.0
 10
215.0303387671867
 20
66.32093654999875
 30
0.0
 10
214.9619493814579
 20
65.85833332097188
 30
0.0
 10
215.012324343609
 20
65.43002625227179
 30
0.0
 10
215.1177096398585
 20
65.11004587010186
 30
0.0
 10
215.3000790492561
 20
64.76978641885955
 30
0.0
 10
215.5998729775083
 20
64.4325248392139
 30
0.0
 10
216.0294587391607
 20
64.13916173072232
 30
0.0
 10
216.368921244431
 20
64.03294614415611
 30
0.0
 10
216.5234514824133
 20
63.98459464843956
 30
0.0
  0
SPLINE
  5
1F1
330
1F
100
AcDbEntity
  8
0
  6
Continuous
 62
     7
370
    25
100
AcDbSpline
210
0.0
220
0.0
230
1.0
 70
     8
 71
     3
 72
    21
 73
    17
 74
     0
 42
0.000000001
 43
0.00000001
 40
0.0
 40
0.0
 40
0.0
 40
0.0
 40
0.0258362482769907
 40
0.0840124218403766
 40
0.1490565761612183
 40
0.2210081725471311
 40
0.3014258955072845
 40
0.3665349510337318
 40
0.4163317174928195
 40
0.519209234006482
 40
0.610920404483988
 40
0.7039995906824282
 40
0.7536139614757362
 40
0.805320982430924
 40
0.8941622726849872
 40
1.0
 40
1.0
 40
1.0
 40
1.0
 10
221.8882342673119
 20
65.42041752101782
 30
0.0
 10
221.9156879501097
 20
65.4462350006321
 30
0.0
 10
222.0049598271853
 20
65.53018639190823
 30
0.0
 10
222.1152612315677
 20
65.67626475207217
 30
0.0
 10
222.2122263175891
 20
65.86507264476435
 30
0.0
 10
222.2462887048268
 20
66.06828548349479
 30
0.0
 10
222.2024660250654
 20
66.26851301886835
 30
0.0
 10
222.0958680908221
 20
66.44730756541789
 30
0.0
 10
221.9194628240006
 20
66.64373531117293
 30
0.0
 10
221.6355538744747
 20
66.86659229604537
 30
0.0
 10
221.1839710837469
 20
67.12202468413857
 30
0.0
 10
220.7364114463884
 20
67.32866409882499
 30
0.0
 10
220.3275172474484
 20
67.48716790374931
 30
0.0
 10
219.9054344372145
 20
67.6296859926562
 30
0.0
 10
219.3271212559457
 20
67.79294146750965
 30
0.0
 10
218.8532427857279
 20
67.868510189212
 30
0.0
 10
218.595617588428
 20
67.90959331085989
 30
0.0
  0
LINE
  5
1F2
330
1F
100
AcDbEntity
  8
0
  6
Continuous
 62
     7
370
    25
100
AcDbLine
 10
212.0860478665
 20
52.6624221227
 30
0.0
 11
212.0808098035
 21
52.9585055457
 31
0.0
  0
LINE
  5
1F3
330
1F
100
AcDbEntity
  8
0
  6
Continuous
 62
     7
370
    25
100
AcDbLine
 10
212.0808098035
 20
52.9585055457
 30
0.0
 11
212.1239128587
 21
53.6102121083
 31
0.0
  0
LINE
  5
1F4
330
1F
100
AcDbEntity
  8
0
  6
Continuous
 62
     7
370
    25
100
AcDbLine
 10
211.6937344639
 20
55.3416381347
 30
0.0
 11
211.289846483
 21
55.7677903326
 31
0.0
  0
SPLINE
  5
1F5
330
1F
100
AcDbEntity
  8
0
  6
Continuous
 62
     7
370
    25
100
AcDbSpline
210
0.0
220
0.0
230
1.0
 70
     8
 71
     3
 72
    19
 73
    15
 74
     0
 42
0.000000001
 43
0.00000001
 40
0.0
 40
0.0
 40
0.0
 40
0.0
 40
0.0210492621018804
 40
0.1455865440207667
 40
0.2712169722633744
 40
0.3929514297049947
 40
0.5136082229787104
 40
0.6366369099308349
 40
0.699422462668311
 40
0.7643939711952468
 40
0.8122544601557282
 40
0.8606584764820763
 40
0.9188817427801165
 40
1.0
 40
1.0
 40
1.0
 40
1.0
 10
215.0063730360857
 20
65.65484336340208
 30
0.0
 10
214.9989044610998
 20
65.70960371030749
 30
0.0
 10
214.9472483025281
 20
66.08835188764262
 30
0.0
 10
215.1900191971878
 20
66.6985027964568
 30
0.0
 10
215.7743496646027
 20
67.38787649969635
 30
0.0
 10
216.6804760322429
 20
67.80517604992842
 30
0.0
 10
217.754822160705
 20
67.92560200761706
 30
0.0
 10
218.7087560298007
 20
67.76490246402948
 30
0.0
 10
219.4434185723699
 20
67.46753636518767
 30
0.0
 10
219.9162218118423
 20
67.16987828778296
 30
0.0
 10
220.2731919819617
 20
66.79896648300561
 30
0.0
 10
220.46804012347
 20
66.36664518769803
 30
0.0
 10
220.4970691537141
 20
65.86370385647288
 30
0.0
 10
220.4346955520938
 20
65.52995884389769
 30
0.0
 10
220.3983844961197
 20
65.33566777335083
 30
0.0
  0
SPLINE
  5
1F6
330
1F
100
AcDbEntity
  8
0
  6
Continuous
 62
     7
370
    25
100
AcDbSpline
210
0.0
220
0.0
230
1.0
 70
     8
 71
     3
 72
    10
 73
     6
 74
     0
 42
0.000000001
 43
0.00000001
 40
0.0
 40
0.0
 40
0.0
 40
0.0
 40
0.2702217719447245
 40
0.8976722077023216
 40
1.0
 40
1.0
 40
1.0
 40
1.0
 10
220.4011123521079
 20
65.33442921992844
 30
0.0
 10
220.4840623280281
 20
65.29564887028117
 30
0.0
 10
220.7596207609305
 20
65.16682119724504
 30
0.0
 10
221.0557854121256
 20
65.01308280366287
 30
0.0
 10
221.2218581516373
 20
64.90699899689089
 30
0.0
 10
221.2451444818426
 20
64.89212417420067
 30
0.0
  0
ARC
  5
1F7
330
1F
100
AcDbEntity
  8
0
  6
Continuous
 62
     7
370
    25
100
AcDbCircle
 10
224.4112209174
 20
51.1212102276
 30
0.0
 40
12.46654291792018
100
AcDbArc
 50
171.5249863735
 51
179.8211981812
  0
SPLINE
  5
1F8
330
1F
100
AcDbEntity
  8
0
  6
Continuous
 62
     7
370
    25
100
AcDbSpline
210
0.0
220
0.0
230
1.0
 70
     8
 71
     3
 72
    14
 73
    10
 74
     0
 42
0.000000001
 43
0.00000001
 40
0.0
 40
0.0
 40
0.0
 40
0.0
 40
0.0003951393068452
 40
0.0003951393068452
 40
0.0003951393068452
 40
0.0008163352168296
 40
0.0008163352168296
 40
0.0008163352168296
 40
0.0012378579336484
 40
0.0012378579336484
 40
0.0012378579336484
 40
0.0012378579336484
 10
219.9930346892696
 20
65.4796765420965
 30
0.0
 10
220.0384965034995
 20
65.46523967947212
 30
0.0
 10
220.0833841081192
 20
65.45037381890722
 30
0.0
 10
220.127667800793
 20
65.43509003130244
 30
0.0
 10
220.1748710930268
 20
65.4187985919669
 30
0.0
 10
220.2213969060806
 20
65.40202911388523
 30
0.0
 10
220.267207815317
 20
65.38480030309229
 30
0.0
 10
220.3130542033009
 20
65.36755814926298
 30
0.0
 10
220.3581934388681
 20
65.34985244306091
 30
0.0
 10
220.4025869969056
 20
65.33170958637263
 30
0.0
  0
LINE
  5
1F9
330
1F
100
AcDbEntity
  8
0
  6
Continuous
 62
     7
370
    25
100
AcDbLine
 10
211.289846483
 20
55.7677903326
 30
0.0
 11
210.6499098086
 21
56.1800219728
 31
0.0
  0
LINE
  5
1FA
330
1F
100
AcDbEntity
  8
0
  6
Continuous
 62
     7
370
    25
100
AcDbLine
 10
210.3439757134
 20
56.5515003596
 30
0.0
 11
210.6499098086
 21
56.1800219728
 31
0.0
  0
SPLINE
  5
1FB
330
1F
100
AcDbEntity
  8
0
  6
Continuous
 62
     7
370
    25
100
AcDbSpline
210
0.0
220
0.0
230
1.0
 70
     8
 71
     3
 72
    13
 73
     9
 74
     0
 42
0.000000001
 43
0.00000001
 40
0.0
 40
0.0
 40
0.0
 40
0.0
 40
0.16183221616715
 40
0.3254505981958384
 40
0.4909687654272658
 40
0.6584964712949335
 40
0.8281395683842832
 40
1.0
 40
1.0
 40
1.0
 40
1.0
 10
210.6499102202477
 20
56.18002197666667
 30
0.0
 10
210.6303359547382
 20
56.19258352907844
 30
0.0
 10
210.5909713796851
 20
56.21784527759492
 30
0.0
 10
210.52944086037
 20
56.25053723115926
 30
0.0
 10
210.4658859340303
 20
56.27948340433937
 30
0.0
 10
210.4002658405329
 20
56.3039971607804
 30
0.0
 10
210.3328329377971
 20
56.32443435697784
 30
0.0
 10
210.2869434980182
 20
56.33403207151029
 30
0.0
 10
210.2638498012798
 20
56.33886208708386
 30
0.0
  0
SPLINE
  5
1FC
330
1F
100
AcDbEntity
  8
0
  6
Continuous
 62
     7
370
    25
100
AcDbSpline
210
0.0
220
0.0
230
1.0
 70
     8
 71
     3
 72
     9
 73
     5
 74
     0
 42
0.000000001
 43
0.00000001
 40
0.0
 40
0.0
 40
0.0
 40
0.0
 40
0.4907162487374744
 40
0.9999999999999999
 40
0.9999999999999999
 40
0.9999999999999999
 40
0.9999999999999999
 10
210.2638439739879
 20
56.33883409005284
 30
0.0
 10
210.2397469364468
 20
56.34693298712448
 30
0.0
 10
210.1906410884073
 20
56.36343722372244
 30
0.0
 10
210.1399296476242
 20
56.37823596522461
 30
0.0
 10
210.1141031348302
 20
56.3857727238108
 30
0.0
  0
SPLINE
  5
1FD
330
1F
100
AcDbEntity
  8
0
  6
Continuous
 62
     7
370
    25
100
AcDbSpline
210
0.0
220
0.0
230
1.0
 70
     8
 71
     3
 72
    14
 73
    10
 74
     0
 42
0.000000001
 43
0.00000001
 40
0.0
 40
0.0
 40
0.0
 40
0.0
 40
0.0310276310583657
 40
0.0622853638093172
 40
0.1248003080251061
 40
0.2498289632720534
 40
0.4998892480136639
 40
0.7606946230169602
 40
0.9999999999999999
 40
0.9999999999999999
 40
0.9999999999999999
 40
0.9999999999999999
 10
209.5301911495552
 20
56.75986200891896
 30
0.0
 10
209.536183194316
 20
56.75603109008008
 30
0.0
 10
209.5482117209922
 20
56.74834084221184
 30
0.0
 10
209.5722707495035
 20
56.73290345235298
 30
0.0
 10
209.6145030578949
 20
56.7058338753976
 30
0.0
 10
209.6990628770631
 20
56.65162359990789
 30
0.0
 10
209.8223487381334
 20
56.57262126129908
 30
0.0
 10
209.9684751260131
 20
56.47901793218546
 30
0.0
 10
210.0668387684146
 20
56.41603705513844
 30
0.0
 10
210.1139062398353
 20
56.38590040547714
 30
0.0
  0
LINE
  5
1FE
330
1F
100
AcDbEntity
  8
0
  6
Continuous
 62
     7
370
    25
100
AcDbLine
 10
207.7276909943
 20
57.9224926859
 30
0.0
 11
208.0186583485
 21
57.7344141468
 31
0.0
  0
SPLINE
  5
1FF
330
1F
100
AcDbEntity
  8
0
  6
Continuous
 62
     7
370
    25
100
AcDbSpline
210
0.0
220
0.0
230
1.0
 70
     8
 71
     3
 72
     8
 73
     4
 74
     0
 42
0.000000001
 43
0.00000001
 40
0.0
 40
0.0
 40
0.0
 40
0.0
 40
1.0
 40
1.0
 40
1.0
 40
1.0
 10
208.0500466518502
 20
57.71419161660777
 30
0.0
 10
208.0396041459984
 20
57.72101704150514
 30
0.0
 10
208.0291382131087
 20
57.72776000829163
 30
0.0
 10
208.0186504482922
 20
57.73441909594457
 30
0.0
  0
SPLINE
  5
200
330
1F
100
AcDbEntity
  8
0
  6
Continuous
 62
     7
370
    25
100
AcDbSpline
210
0.0
220
0.0
230
1.0
 70
     8
 71
     3
 72
     8
 73
     4
 74
     0
 42
0.000000001
 43
0.00000001
 40
0.0
 40
0.0
 40
0.0
 40
0.0
 40
1.0
 40
1.0
 40
1.0
 40
1.0
 10
205.2640422730241
 20
59.59244726841831
 30
0.0
 10
205.3230420371949
 20
59.55370660149885
 30
0.0
 10
205.3823296007062
 20
59.51564462419907
 30
0.0
 10
205.4419106741953
 20
59.4782608357383
 30
0.0
  0
SPLINE
  5
201
330
1F
100
AcDbEntity
  8
0
  6
Continuous
 62
     7
370
    25
100
AcDbSpline
210
0.0
220
0.0
230
1.0
 70
     8
 71
     3
 72
     8
 73
     4
 74
     0
 42
0.000000001
 43
0.00000001
 40
0.0
 40
0.0
 40
0.0
 40
0.0
 40
1.0
 40
1.0
 40
1.0
 40
1.0
 10
205.2391925269268
 20
59.95565744635518
 30
0.0
 10
205.2466667390174
 20
59.83469960564405
 30
0.0
 10
205.2549628429074
 20
59.71362776323413
 30
0.0
 10
205.2640422730262
 20
59.59244726841903
 30
0.0
  0
LWPOLYLINE
  5
202
330
1F
100
AcDbEntity
  8
0
  6
Continuous
 62
     7
370
    25
100
AcDbPolyline
 90
       14
 70
   128
 43
0.0
 10
205.2391928857
 20
59.9556567809
 10
205.6790308113
 20
61.1810497473
 10
206.2172045785
 20
62.3947961228
 10
206.8458432633
 20
63.5791455411
 10
207.5557542429
 20
64.716777041
 10
208.3365545754
 20
65.7910543796
 10
209.1768250989
 20
66.7862644234
 10
210.0642773729
 20
67.6878538262
 10
210.9859324731
 20
68.4826364285
 10
211.9283113927
 20
69.1589898676
 10
212.8776321123
 20
69.7070210538
 10
213.8200110319
 20
70.1187151556
 10
214.741666132
 20
70.3880528814
 10
215.2031553547
 20
70.4697644724
  0
SPLINE
  5
203
330
1F
100
AcDbEntity
  8
0
  6
Continuous
 62
     7
370
    25
100
AcDbSpline
210
0.0
220
0.0
230
1.0
 70
     8
 71
     3
 72
    10
 73
     6
 74
     0
 42
0.000000001
 43
0.00000001
 40
0.0
 40
0.0
 40
0.0
 40
0.0
 40
0.2409536028783486
 40
0.5031434696391622
 40
1.0
 40
1.0
 40
1.0
 40
1.0
 10
211.2898464829656
 20
49.06194870940135
 30
0.0
 10
211.3720848354098
 20
49.0102787206555
 30
0.0
 10
211.5438095554053
 20
48.90238484771378
 30
0.0
 10
211.8215262226055
 20
48.77265250908482
 30
0.0
 10
211.942509943731
 20
48.79543206953687
 30
0.0
 10
212.0217034582994
 20
48.81034311240889
 30
0.0
  0
LINE
  5
204
330
1F
100
AcDbEntity
  8
0
  6
Continuous
 62
     7
370
    25
100
AcDbLine
 10
206.5066724268
 20
58.7910214423
 30
0.0
 11
205.7447937245
 21
59.28165585
 31
0.0
  0
LINE
  5
205
330
1F
100
AcDbEntity
  8
0
  6
Continuous
 62
     7
370
    25
100
AcDbLine
 10
205.7447937245
 20
59.28165585
 30
0.0
 11
205.2640424042
 21
59.5924472261
 31
0.0
  0
LINE
  5
206
330
1F
100
AcDbEntity
  8
0
  6
Continuous
 62
     7
370
    25
100
AcDbLine
 10
210.3439757134
 20
48.7861689085
 30
0.0
 11
210.6499098086
 21
49.4741803495
 31
0.0
  0
LINE
  5
207
330
1F
100
AcDbEntity
  8
0
  6
Continuous
 62
     7
370
    25
100
AcDbLine
 10
210.6499098086
 20
49.4741803495
 30
0.0
 11
211.289846483
 21
49.0619487094
 31
0.0
  0
SPLINE
  5
208
330
1F
100
AcDbEntity
  8
0
  6
Continuous
 62
     7
370
    25
100
AcDbSpline
210
0.0
220
0.0
230
1.0
 70
     8
 71
     3
 72
    13
 73
     9
 74
     0
 42
0.000000001
 43
0.00000001
 40
0.0
 40
0.0
 40
0.0
 40
0.0
 40
0.1722808990503593
 40
0.3421751864003435
 40
0.5097853609077583
 40
0.6752181678241594
 40
0.8385846213644129
 40
1.0
 40
1.0
 40
1.0
 40
1.0
 10
210.2638382894745
 20
49.75549005491997
 30
0.0
 10
210.2869928291963
 20
49.73736818571432
 30
0.0
 10
210.3329811482091
 20
49.70137549002059
 30
0.0
 10
210.4005277932776
 20
49.6503722100347
 30
0.0
 10
210.4661893985615
 20
49.60204704146284
 30
0.0
 10
210.5297117374486
 20
49.55661789450195
 30
0.0
 10
210.5911366984884
 20
49.51379609588285
 30
0.0
 10
210.6303976643187
 20
49.48733274655157
 30
0.0
 10
210.6499102202477
 20
49.47418055905495
 30
0.0
  0
SPLINE
  5
209
330
1F
100
AcDbEntity
  8
0
  6
Continuous
 62
     7
370
    25
100
AcDbSpline
210
0.0
220
0.0
230
1.0
 70
     8
 71
     3
 72
    11
 73
     7
 74
     0
 42
0.000000001
 43
0.00000001
 40
0.0
 40
0.0
 40
0.0
 40
0.0
 40
0.2392702281456497
 40
0.5001120575623568
 40
0.7515010343518018
 40
1.0
 40
1.0
 40
1.0
 40
1.0
 10
210.1144387861368
 20
49.802792745075
 30
0.0
 10
210.0673737863062
 20
49.77448094879025
 30
0.0
 10
209.969000603454
 20
49.71530488328897
 30
0.0
 10
209.8227087084047
 20
49.62211889908739
 30
0.0
 10
209.6748698742588
 20
49.52674839139166
 30
0.0
 10
209.5785865269337
 20
49.46221520291028
 30
0.0
 10
209.5307231755939
 20
49.43013515211049
 30
0.0
  0
SPLINE
  5
20A
330
1F
100
AcDbEntity
  8
0
  6
Continuous
 62
     7
370
    25
100
AcDbSpline
210
0.0
220
0.0
230
1.0
 70
     8
 71
     3
 72
     9
 73
     5
 74
     0
 42
0.000000001
 43
0.00000001
 40
0.0
 40
0.0
 40
0.0
 40
0.0
 40
0.5090786773532814
 40
1.0
 40
1.0
 40
1.0
 40
1.0
 10
210.1150002134685
 20
49.80212352390116
 30
0.0
 10
210.1406548354736
 20
49.79462805638248
 30
0.0
 10
210.1910490537865
 20
49.77990446285533
 30
0.0
 10
210.2398649338399
 20
49.76350487237141
 30
0.0
 10
210.2638296902418
 20
49.75545396372016
 30
0.0
  0
LINE
  5
20B
330
1F
100
AcDbEntity
  8
0
  6
Continuous
 62
     7
370
    25
100
AcDbLine
 10
211.9449474617
 20
50.7259836602
 30
0.0
 11
210.2638315054
 21
49.755496076
 31
0.0
  0
LINE
  5
20C
330
1F
100
AcDbEntity
  8
0
  6
Continuous
 62
     7
370
    25
100
AcDbLine
 10
208.2573438541
 20
50.8793173746
 30
0.0
 11
208.0570482006
 21
50.3781599604
 31
0.0
  0
SPLINE
  5
20D
330
1F
100
AcDbEntity
  8
0
  6
Continuous
 62
     7
370
    25
100
AcDbSpline
210
0.0
220
0.0
230
1.0
 70
     8
 71
     3
 72
     8
 73
     4
 74
     0
 42
0.000000001
 43
0.00000001
 40
0.0
 40
0.0
 40
0.0
 40
0.0
 40
1.0
 40
1.0
 40
1.0
 40
1.0
 10
208.2569006834424
 20
50.88010112678242
 30
0.0
 10
208.2830760180116
 20
50.90226850376069
 30
0.0
 10
208.308897057977
 20
50.9249006448523
 30
0.0
 10
208.3343546116854
 20
50.94798536494358
 30
0.0
  0
LINE
  5
20E
330
1F
100
AcDbEntity
  8
0
  6
Continuous
 62
     7
370
    25
100
AcDbLine
 10
208.3343547074
 20
50.9479852493
 30
0.0
 11
210.1146184907
 21
49.8022326123
 31
0.0
  0
LINE
  5
20F
330
1F
100
AcDbEntity
  8
0
  6
Continuous
 62
     7
370
    25
100
AcDbLine
 10
211.9447387031
 20
50.8240031818
 30
0.0
 11
211.8566531068
 21
50.9315508954
 31
0.0
  0
LINE
  5
210
330
1F
100
AcDbEntity
  8
0
  6
Continuous
 62
     7
370
    25
100
AcDbLine
 10
210.0283313795
 20
51.9258971667
 30
0.0
 11
208.3343547074
 21
50.9479852493
 31
0.0
  0
LINE
  5
211
330
1F
100
AcDbEntity
  8
0
  6
Continuous
 62
     7
370
    25
100
AcDbLine
 10
210.171025462
 20
51.9046050049
 30
0.0
 11
210.0287515309
 21
51.9254097892
 31
0.0
  0
LINE
  5
212
330
1F
100
AcDbEntity
  8
0
  6
Continuous
 62
     7
370
    25
100
AcDbLine
 10
211.8566985464
 20
50.9314866467
 30
0.0
 11
210.171025462
 21
51.9046050049
 31
0.0
  0
LINE
  5
213
330
1F
100
AcDbEntity
  8
0
  6
Continuous
 62
     7
370
    25
100
AcDbLine
 10
211.9447387031
 20
50.880656035
 30
0.0
 11
211.8566708875
 21
50.9315018424
 31
0.0
  0
SPLINE
  5
214
330
1F
100
AcDbEntity
  8
0
  6
Continuous
 62
     7
370
    25
100
AcDbSpline
210
0.0
220
0.0
230
1.0
 70
     8
 71
     3
 72
    23
 73
    19
 74
     0
 42
0.000000001
 43
0.00000001
 40
0.0
 40
0.0
 40
0.0
 40
0.0
 40
0.0449790193581247
 40
0.0909412379486235
 40
0.1379251786331541
 40
0.1859669058236572
 40
0.2351001540342984
 40
0.2853564591140055
 40
0.3367652895328042
 40
0.3893541756666287
 40
0.4431488355237719
 40
0.4981732957796948
 40
0.5575109075983016
 40
0.6265493535013734
 40
0.7053074128458786
 40
0.7937970946255996
 40
0.8920262478603938
 40
1.0
 40
1.0
 40
1.0
 40
1.0
 10
207.472831577481
 20
51.04858921413429
 30
0.0
 10
207.4935189782134
 20
51.03523223858898
 30
0.0
 10
207.5353459868809
 20
51.00822631652412
 30
0.0
 10
207.595832286556
 20
50.97070819763393
 30
0.0
 10
207.6553132710493
 20
50.93519041808478
 30
0.0
 10
207.7133926442711
 20
50.90221052172067
 30
0.0
 10
207.7699242754008
 20
50.87200315187548
 30
0.0
 10
207.8246705710891
 20
50.84488724408716
 30
0.0
 10
207.8773939509564
 20
50.82115484010873
 30
0.0
 10
207.9278434900632
 20
50.80110499763172
 30
0.0
 10
207.9757130112622
 20
50.78500924392989
 30
0.0
 10
208.0216669231715
 20
50.77298515564806
 30
0.0
 10
208.0667060766555
 20
50.76500436063613
 30
0.0
 10
208.1117378880336
 20
50.76272363616494
 30
0.0
 10
208.1563627149938
 20
50.76923165203611
 30
0.0
 10
208.1978675508286
 20
50.78842156471125
 30
0.0
 10
208.2343226380221
 20
50.82289194396803
 30
0.0
 10
208.2490480657609
 20
50.86042923711061
 30
0.0
 10
208.2567587218349
 20
50.880084839821
 30
0.0
  0
SPLINE
  5
215
330
1F
100
AcDbEntity
  8
0
  6
Continuous
 62
     7
370
    25
100
AcDbSpline
210
0.0
220
0.0
230
1.0
 70
     8
 71
     3
 72
     9
 73
     5
 74
     0
 42
0.000000001
 43
0.00000001
 40
0.0
 40
0.0
 40
0.0
 40
0.0
 40
0.5232334307013496
 40
1.0
 40
1.0
 40
1.0
 40
1.0
 10
209.8621535997954
 20
51.82996532609862
 30
0.0
 10
209.7931271447661
 20
51.8550105743501
 30
0.0
 10
209.6612042763501
 20
51.90287687413509
 30
0.0
 10
209.4197607768106
 20
52.04047359173947
 30
0.0
 10
209.3046485878557
 20
52.10607510673847
 30
0.0
  0
LINE
  5
216
330
1F
100
AcDbEntity
  8
0
  6
Continuous
 62
     7
370
    25
100
AcDbLine
 10
205.5751473908
 20
51.8719646694
 30
0.0
 11
206.0266185052
 21
51.9842286422
 31
0.0
  0
LINE
  5
217
330
1F
100
AcDbEntity
  8
0
  6
Continuous
 62
     7
370
    25
100
AcDbLine
 10
206.0266185052
 20
51.9842286422
 30
0.0
 11
207.472830977
 21
51.0485893092
 31
0.0
  0
SPLINE
  5
218
330
1F
100
AcDbEntity
  8
0
  6
Continuous
 62
     7
370
    25
100
AcDbSpline
210
0.0
220
0.0
230
1.0
 70
     8
 71
     3
 72
     8
 73
     4
 74
     0
 42
0.000000001
 43
0.00000001
 40
0.0
 40
0.0
 40
0.0
 40
0.0
 40
1.0
 40
1.0
 40
1.0
 40
1.0
 10
205.7459359614978
 20
51.47721501635097
 30
0.0
 10
205.6888106925744
 20
51.6090012001449
 30
0.0
 10
205.6318822008576
 20
51.74058542180398
 30
0.0
 10
205.5751480829089
 20
51.87196448870365
 30
0.0
  0
LINE
  5
219
330
1F
100
AcDbEntity
  8
0
  6
Continuous
 62
     7
370
    25
100
AcDbLine
 10
207.3643199643
 20
52.756467257
 30
0.0
 11
206.0266185052
 21
51.9842286422
 31
0.0
  0
LINE
  5
21A
330
1F
100
AcDbEntity
  8
0
  6
Continuous
 62
     7
370
    25
100
AcDbLine
 10
208.3473484491
 20
52.6587138541
 30
0.0
 11
207.3643199643
 21
52.756467257
 31
0.0
  0
LINE
  5
21B
330
1F
100
AcDbEntity
  8
0
  6
Continuous
 62
     7
370
    25
100
AcDbLine
 10
209.3046485879
 20
52.1060751067
 30
0.0
 11
208.3473474613
 21
52.6587132839
 31
0.0
  0
SPLINE
  5
21C
330
1F
100
AcDbEntity
  8
0
  6
Continuous
 62
     7
370
    25
100
AcDbSpline
210
0.0
220
0.0
230
1.0
 70
     8
 71
     3
 72
     8
 73
     4
 74
     0
 42
0.000000001
 43
0.00000001
 40
0.0
 40
0.0
 40
0.0
 40
0.0
 40
1.0
 40
1.0
 40
1.0
 40
1.0
 10
205.5751480829089
 20
51.87196448870365
 30
0.0
 10
205.5720107451588
 20
51.90718079557617
 30
0.0
 10
205.5700183412608
 20
51.94282505180387
 30
0.0
 10
205.5692369438888
 20
51.97892195379874
 30
0.0
  0
LINE
  5
21D
330
1F
100
AcDbEntity
  8
0
  6
Continuous
 62
     7
370
    25
100
AcDbLine
 10
206.380323419
 20
52.4471516685
 30
0.0
 11
205.5692376124
 21
51.9789217989
 31
0.0
  0
SPLINE
  5
21E
330
1F
100
AcDbEntity
  8
0
  6
Continuous
 62
     7
370
    25
100
AcDbSpline
210
0.0
220
0.0
230
1.0
 70
     8
 71
     3
 72
     8
 73
     4
 74
     0
 42
0.000000001
 43
0.00000001
 40
0.0000004089325119
 40
0.0000004089325119
 40
0.0000004089325119
 40
0.0000004089325119
 40
0.0015399868451459
 40
0.0015399868451459
 40
0.0015399868451459
 40
0.0015399868451459
 10
206.3803224763776
 20
52.44715166515486
 30
0.0
 10
206.6187990444008
 20
52.54152805097122
 30
0.0
 10
206.8572460020695
 20
52.63595666290143
 30
0.0
 10
207.0956547409198
 20
52.73045004586388
 30
0.0
  0
LINE
  5
21F
330
1F
100
AcDbEntity
  8
0
  6
Continuous
 62
     7
370
    25
100
AcDbLine
 10
207.0956542199
 20
52.730450193
 30
0.0
 11
207.1200506597
 21
52.7354442194
 31
0.0
  0
LINE
  5
220
330
1F
100
AcDbEntity
  8
0
  6
Continuous
 62
     7
370
    25
100
AcDbLine
 10
207.3643199643
 20
52.756467257
 30
0.0
 11
207.1200513183
 21
52.7354442193
 31
0.0
  0
SPLINE
  5
221
330
1F
100
AcDbEntity
  8
0
  6
Continuous
 62
     7
370
    25
100
AcDbSpline
210
0.0
220
0.0
230
1.0
 70
     8
 71
     3
 72
     8
 73
     4
 74
     0
 42
0.000000001
 43
0.00000001
 40
0.0
 40
0.0
 40
0.0
 40
0.0
 40
1.0
 40
1.0
 40
1.0
 40
1.0
 10
208.3473466554278
 20
52.65871403845085
 30
0.0
 10
208.377954689551
 20
52.64377403064473
 30
0.0
 10
208.408506190523
 20
52.62889707325135
 30
0.0
 10
208.4390001286376
 20
52.61408350957043
 30
0.0
  0
LWPOLYLINE
  5
222
330
1F
100
AcDbEntity
  8
0
  6
Continuous
 62
     7
370
    25
100
AcDbPolyline
 90
        3
 70
   128
 43
0.0
 10
211.9871197877
 20
52.1471639678
 10
211.3603130502
 20
51.8942258334
 10
210.7757354382
 20
51.7231593301
  0
LWPOLYLINE
  5
223
330
1F
100
AcDbEntity
  8
0
  6
Continuous
 62
     7
370
    18
100
AcDbPolyline
 90
       29
 70
   128
 43
0.0
 10
258.5226671562
 20
20.2954194153
 10
258.0083860423
 20
20.0197932198
 10
257.5110966939
 20
19.8855921359
 10
257.05573424
 20
19.8995450611
 10
256.6651323945
 20
20.0609521281
 10
256.3588789053
 20
20.3617207441
 10
256.1523303716
 20
20.7867688238
 10
256.0558430645
 20
21.3147821869
 10
256.0742546518
 20
21.9192836521
 10
256.2066444885
 20
22.5699625144
 10
256.4463718115
 20
23.2341897166
 10
256.7814155496
 20
23.8786580883
 10
257.1949762322
 20
24.4710520044
 10
257.6663162929
 20
24.981666023
 10
258.1718005693
 20
25.3848962456
 10
258.6860816832
 20
25.6605224411
 10
259.1833710317
 20
25.7947235251
 10
259.6387334855
 20
25.7807705999
 10
260.0293346724
 20
25.6193631527
 10
260.3355881617
 20
25.3185945367
 10
260.5421373539
 20
24.8935468372
 10
260.638624661
 20
24.3655334741
 10
260.6202124151
 20
23.7610316287
 10
260.4878232371
 20
23.1103531466
 10
260.2480965725
 20
22.4461263245
 10
259.9130521759
 20
21.8016575727
 10
259.4994908347
 20
21.2092632764
 10
259.028150774
 20
20.6986492578
 10
258.5226671562
 20
20.2954194153
  0
LWPOLYLINE
  5
224
330
1F
100
AcDbEntity
  8
0
  6
Continuous
 62
     7
370
    18
100
AcDbPolyline
 90
       17
 70
   128
 43
0.0
 10
256.4205990137
 20
19.9110379323
 10
256.4120155445
 20
19.9160418231
 10
256.0787525108
 20
20.2071856084
 10
255.8432938733
 20
20.6262151506
 10
255.7166518131
 20
21.1535385616
 10
255.7047466455
 20
21.7644980607
 10
255.8081354991
 20
22.4305260706
 10
256.0219846572
 20
23.1204803545
 10
256.3362934628
 20
23.8020985236
 10
256.7363645198
 20
24.4435085807
 10
257.2034931884
 20
25.0147199096
 10
257.7158362058
 20
25.489023301
 10
258.2494363813
 20
25.8442402015
 10
258.7793434393
 20
26.0637612106
 10
259.2807796426
 20
26.1373220242
 10
259.730298831
 20
26.0614831772
 10
259.8862803661
 20
25.9922774446
  0
LWPOLYLINE
  5
225
330
1F
100
AcDbEntity
  8
0
  6
Continuous
 62
     7
370
    18
100
AcDbPolyline
 90
       21
 70
   128
 43
0.0
 10
275.2368863341
 20
33.3488328741
 10
275.2985274172
 20
33.5914719297
 10
275.5382540817
 20
34.2556987518
 10
275.8732984783
 20
34.9001675036
 10
276.2868598195
 20
35.4925617999
 10
276.7581998802
 20
36.0031758185
 10
277.263683498
 20
36.406405661
 10
277.7779646119
 20
36.6820318565
 10
278.2752539604
 20
36.8162329404
 10
278.7306164142
 20
36.8022800152
 10
279.1212182597
 20
36.6408729482
 10
279.427471749
 20
36.3401043322
 10
279.6340202826
 20
35.9150562525
 10
279.7305075898
 20
35.3870428894
 10
279.7120960024
 20
34.7825414242
 10
279.5797061658
 20
34.1318625619
 10
279.3399788427
 20
33.4676353597
 10
279.0049351047
 20
32.823166988
 10
278.591374422
 20
32.2307730719
 10
278.1200343613
 20
31.7201590533
 10
278.0289662169
 20
31.6373246723
  0
LWPOLYLINE
  5
226
330
1F
100
AcDbEntity
  8
0
  6
Continuous
 62
     7
370
    18
100
AcDbPolyline
 90
       11
 70
   128
 43
0.0
 10
274.91946393
 20
33.5320761829
 10
275.1138675859
 20
34.1419897699
 10
275.428175733
 20
34.8236075588
 10
275.8282481071
 20
35.4650183762
 10
276.2953761171
 20
36.036229325
 10
276.8077191345
 20
36.5105327164
 10
277.34131931
 20
36.8657496168
 10
277.871226368
 20
37.085270626
 10
278.3726625713
 20
37.1588314395
 10
278.8221811012
 20
37.0829922124
 10
278.9781639533
 20
37.0137872401
  0
LWPOLYLINE
  5
227
330
1F
100
AcDbEntity
  8
0
  6
Continuous
 62
     7
370
    18
100
AcDbPolyline
 90
       38
 70
   128
 43
0.0
 10
284.580894674
 20
23.2891824796
 10
284.5239368303
 20
24.0290793862
 10
284.3547010991
 20
24.6819282759
 10
284.0780564295
 20
25.2289478725
 10
283.7019613317
 20
25.6544016935
 10
283.2372351982
 20
25.9460498339
 10
282.6972477994
 20
26.0955025631
 10
282.0975332126
 20
26.0984600972
 10
281.4553441514
 20
25.9548376416
 10
280.7891554337
 20
25.6687665846
 10
280.1181319497
 20
25.2484767167
 10
279.4615778513
 20
24.7060592443
 10
278.8383809668
 20
24.0571182996
 10
278.2664696352
 20
23.3203227761
 10
277.762296521
 20
22.5168689859
 10
277.3403660669
 20
21.669870978
 10
277.012816236
 20
20.803695126
 10
276.7890698126
 20
19.9432597739
 10
276.675564069
 20
19.1133182642
 10
276.675564069
 20
18.3377462586
 10
276.7890698126
 20
17.6388556909
 10
277.012816236
 20
17.0367524606
 10
277.3403660669
 20
16.5487575935
 10
277.762296521
 20
16.1889101186
 10
278.2664696352
 20
15.9675622155
 10
278.8383809668
 20
15.8910814604
 10
279.4615778513
 20
15.961668323
 10
280.1181319497
 20
16.1772920772
 10
280.7891554337
 20
16.5317494329
 10
281.4553441514
 20
17.0148434972
 10
282.0975332126
 20
17.6126767494
 10
282.6972477994
 20
18.3080500069
 10
283.2372351982
 20
19.0809589161
 10
283.7019613317
 20
19.9091684293
 10
284.0780564295
 20
20.7688524074
 10
284.3547010991
 20
21.6352791408
 10
284.5239368303
 20
22.4835234465
 10
284.580894674
 20
23.2891824796
  0
LWPOLYLINE
  5
228
330
1F
100
AcDbEntity
  8
0
  6
Continuous
 62
     7
370
    18
100
AcDbPolyline
 90
       21
 70
   128
 43
0.0
 10
277.3384984346
 20
15.970227982
 10
276.9902149885
 20
16.224560594
 10
276.6069634876
 20
16.6807098403
 10
276.325492016
 20
17.259220468
 10
276.1534778856
 20
17.9443117716
 10
276.0956138846
 20
18.7172968363
 10
276.1534778856
 20
19.5570902545
 10
276.325492016
 20
20.4407848456
 10
276.6069634876
 20
21.344275517
 10
276.9902149885
 20
22.2429175276
 10
277.4647921248
 20
23.1121980518
 10
278.0177500515
 20
23.9284060257
 10
278.6340053007
 20
24.6692766062
 10
279.2967478653
 20
25.3146013088
 10
279.9879001223
 20
25.8467771614
 10
280.6886090948
 20
26.2512878411
 10
281.3797613518
 20
26.5170993987
 10
282.0425039164
 20
26.6369609737
 10
282.6587591656
 20
26.6076035589
 10
283.2117170924
 20
26.4298272179
 10
283.3761319484
 20
26.3402410489
  0
LWPOLYLINE
  5
229
330
1F
100
AcDbEntity
  8
0
  6
Continuous
 62
     7
370
    18
100
AcDbPolyline
 90
       33
 70
   128
 43
0.0
 10
253.0439331224
 20
22.636055579
 10
253.1017006466
 20
24.0485363091
 10
253.274465847
 20
25.5145270565
 10
253.5606152896
 20
27.020340306
 10
253.9574752835
 20
28.5519156348
 10
254.4613428331
 20
30.0949536461
 10
255.0675119792
 20
31.6350478122
 10
255.7703238491
 20
33.1578186908
 10
256.563216705
 20
34.6490477626
 10
257.4387865312
 20
36.0948127875
 10
258.3888594733
 20
37.4816140347
 10
259.4045636195
 20
38.7965046955
 10
260.4764172462
 20
40.0272072259
 10
261.5944117938
 20
41.1622296892
 10
262.7481086733
 20
42.1909763948
 10
263.9267365662
 20
43.103842091
 10
265.1192907616
 20
43.8923035325
 10
266.3146367329
 20
44.5489975246
 10
267.5016139823
 20
45.0677945596
 10
268.669139638
 20
45.4438494971
 10
269.8063133065
 20
45.6736529681
 10
270.9025172749
 20
45.755057281
 10
271.9475164443
 20
45.6873036938
 10
272.9315544779
 20
45.4710246863
 10
273.8454430334
 20
45.1082384388
 10
274.6806500082
 20
44.6023336138
 10
275.4293762596
 20
43.9580330377
 10
276.0846319964
 20
43.1813526277
 10
276.6402993398
 20
42.2795439715
 10
277.0911902765
 20
41.2610270209
 10
277.4330934141
 20
40.1353106188
 10
277.6628187632
 20
38.912906753
 10
277.7733594101
 20
37.7100558756
  0
LWPOLYLINE
  5
22A
330
1F
100
AcDbEntity
  8
0
  6
Continuous
 62
     7
370
    18
100
AcDbPolyline
 90
       21
 70
   128
 43
0.0
 10
269.2014503834
 20
18.3583068204
 10
268.669139638
 20
17.8687411014
 10
267.5016139823
 20
16.8967996097
 10
266.3146367329
 20
16.0451418835
 10
265.1192907616
 20
15.3217187937
 10
263.9267365662
 20
14.7332864693
 10
262.7481086733
 20
14.2853373662
 10
261.5944117938
 20
13.9820540077
 10
260.4764172462
 20
13.826267442
 10
259.4045636195
 20
13.8194341167
 10
258.3888594733
 20
13.961617732
 10
257.4387865312
 20
14.2514881092
 10
256.563216705
 20
14.6863417306
 10
255.7703238491
 20
15.2621161969
 10
255.0675119792
 20
15.9734377628
 10
254.4613428331
 20
16.8136639298
 10
253.9574752835
 20
17.7749488513
 10
253.5606152896
 20
18.8483193843
 10
253.274465847
 20
20.0237515199
 10
253.1017006466
 20
21.2902718127
 10
253.0439331224
 20
22.636055579
  0
LWPOLYLINE
  5
22B
330
1F
100
AcDbEntity
  8
0
  6
Continuous
 62
     7
370
    18
100
AcDbPolyline
 90
       24
 70
   128
 43
0.0
 10
252.3368262253
 20
22.6360563393
 10
252.3944580894
 20
24.0664350516
 10
252.5668360656
 20
25.5504027028
 10
252.8523954523
 20
27.0745184483
 10
253.2485534377
 20
28.6249814598
 10
253.7517196374
 20
30.1877489862
 10
254.3573382404
 20
31.7486684802
 10
255.059924888
 20
33.2936045918
 10
255.8531173817
 20
34.8085665416
 10
256.7297316595
 20
36.2798335916
 10
257.6818283088
 20
37.6940816558
 10
258.700786982
 20
39.0385045876
 10
259.7773778486
 20
40.3009246301
 10
260.9018521449
 20
41.4699116098
 10
262.0640264679
 20
42.5348787477
 10
263.25337563
 20
43.4861788485
 10
264.4591288065
 20
44.3152001102
 10
265.670366671
 20
45.0144328458
 10
266.8761198475
 20
45.5775445693
 10
268.0654690097
 20
45.9994377819
 10
269.2276433326
 20
46.2762885559
 10
270.3521176289
 20
46.4055919638
 10
271.4287084955
 20
46.3861772777
 10
271.8013123196
 20
46.3429674147
  0
ARC
  5
22C
330
1F
100
AcDbEntity
  8
0
  6
Continuous
 62
     7
370
    18
100
AcDbCircle
 10
263.0769529162
 20
22.1275145036
 30
0.0
 40
10.75215960331626
100
AcDbArc
 50
177.2890864558
 51
214.6621933966
  0
LWPOLYLINE
  5
22D
330
1F
100
AcDbEntity
  8
0
  6
Continuous
 62
     7
370
    18
100
AcDbPolyline
 90
       24
 70
   128
 43
0.0
 10
223.3239577715
 20
39.3848287901
 10
223.3815896356
 20
40.8152075023
 10
223.5539676118
 20
42.2991751535
 10
223.8395269984
 20
43.823290899
 10
224.2356849839
 20
45.3737539105
 10
224.7388511836
 20
46.9365214369
 10
225.3444697866
 20
48.4974409309
 10
226.0470564342
 20
50.0423770426
 10
226.8402489279
 20
51.5573389924
 10
227.7168632057
 20
53.0286060423
 10
228.668959855
 20
54.4428541065
 10
229.6879185282
 20
55.7872770384
 10
230.7645093948
 20
57.0496970808
 10
231.888983691
 20
58.2186840606
 10
233.051158014
 20
59.2836511984
 10
234.2405071762
 20
60.2349512992
 10
235.4462603527
 20
61.0639725609
 10
236.6574982172
 20
61.7632052965
 10
237.8632513937
 20
62.32631702
 10
239.0526005558
 20
62.7482102326
 10
240.2147748788
 20
63.0250610067
 10
241.3392491751
 20
63.1543644145
 10
242.4158400417
 20
63.1349497285
 10
242.7884438657
 20
63.0917398655
  0
ARC
  5
22E
330
1F
100
AcDbEntity
  8
0
  6
Continuous
 62
     7
370
    18
100
AcDbCircle
 10
234.0640844624
 20
38.8762869544
 30
0.0
 40
10.75215960331607
100
AcDbArc
 50
177.2890864558
 51
214.6621933966
  0
LWPOLYLINE
  5
22F
330
1F
100
AcDbEntity
  8
0
  6
Continuous
 62
     7
370
    18
100
AcDbPolyline
 90
       22
 70
   128
 43
0.0
 10
268.6002838706
 20
21.8196467631
 10
268.6567991724
 20
22.7439420888
 10
268.8251406001
 20
23.7137889149
 10
269.1017200738
 20
24.7085162956
 10
269.480643291
 20
25.7069242192
 10
269.9538335325
 20
26.6877322699
 10
270.511206177
 20
27.6300370295
 10
271.1408814108
 20
28.5137544569
 10
271.8294385909
 20
29.320049811
 10
272.5622027936
 20
30.0317384353
 10
273.3235561832
 20
30.6336514398
 10
274.0972718938
 20
31.1129607678
 10
274.866859477
 20
31.4594504823
 10
275.6159165648
 20
31.6657357464
 10
276.328478186
 20
31.727419612
 10
276.9893575636
 20
31.6431878558
 10
277.5844687596
 20
31.4148355413
 10
278.1011285363
 20
31.0472298707
 10
278.5283250415
 20
30.5482052153
 10
278.8569529097
 20
29.9283976931
 10
279.08000852
 20
29.201017582
 10
279.1535234898
 20
28.7784672732
  0
LWPOLYLINE
  5
230
330
1F
100
AcDbEntity
  8
0
  6
Continuous
 62
     7
370
    18
100
AcDbPolyline
 90
       11
 70
   128
 43
0.0
 10
273.1540112243
 20
18.3858808985
 10
272.5622027936
 20
18.181889312
 10
271.8294385909
 20
18.0475463961
 10
271.1408814108
 20
18.058850552
 10
270.511206177
 20
18.2155604292
 10
269.9538335325
 20
18.5143364313
 10
269.480643291
 20
18.9488106582
 10
269.1017200738
 20
19.5097231477
 10
268.8251406001
 20
20.1851186652
 10
268.6567991724
 20
20.960602616
 10
268.6002838706
 20
21.8196467631
  0
LWPOLYLINE
  5
231
330
1F
100
AcDbEntity
  8
0
  6
Continuous
 62
     7
370
    18
100
AcDbPolyline
 90
       18
 70
   128
 43
0.0
 10
267.8931759857
 20
21.8196469532
 10
267.9507551662
 20
22.7825336745
 10
268.1223185228
 20
23.7922971807
 10
268.404374782
 20
24.828382202
 10
268.7911817647
 20
25.8696971737
 10
269.2748652544
 20
26.8950434106
 10
269.8455786935
 20
27.8835480809
 10
270.4917040399
 20
28.8150881451
 10
271.2000883487
 20
29.6707001288
 10
271.956310483
 20
30.432966032
 10
272.7449762241
 20
31.0863681053
 10
273.5500305038
 20
31.6176063609
 10
274.3550847836
 20
32.0158639917
 10
275.1437505246
 20
32.2730360011
 10
275.899972659
 20
32.3838855894
 10
276.6083569678
 20
32.3461567195
 10
277.2544823141
 20
32.1606171011
 10
277.482968941
 20
32.0509323498
  0
ARC
  5
232
330
1F
100
AcDbEntity
  8
0
  6
Continuous
 62
     7
370
    18
100
AcDbCircle
 10
271.8593944558
 20
21.4078575353
 30
0.0
 40
3.987538022054072
100
AcDbArc
 50
174.0725494964
 51
234.615277059
  0
LWPOLYLINE
  5
233
330
1F
100
AcDbEntity
  8
0
  6
Continuous
 62
     7
370
    18
100
AcDbPolyline
 90
       12
 70
   128
 43
0.0
 10
270.5448275083
 20
22.9422079108
 10
270.6020165012
 20
23.6879075602
 10
270.7716368223
 20
24.474242831
 10
271.0479117192
 20
25.2744355627
 10
271.4214330604
 20
26.0612365434
 10
271.8794812234
 20
26.8078518668
 10
272.4064577583
 20
27.4888568244
 10
272.9844170803
 20
28.0810599803
 10
273.5936775991
 20
28.564295325
 10
274.2134916228
 20
28.9221063447
 10
274.8227521415
 20
29.1423082218
 10
274.9784352736
 20
29.1762805538
  0
LWPOLYLINE
  5
234
330
1F
100
AcDbEntity
  8
0
  6
Continuous
 62
     7
370
    18
100
AcDbPolyline
 90
        3
 70
   128
 43
0.0
 10
270.7216302451
 20
21.8024788367
 10
270.6020165012
 20
22.2625372671
 10
270.5448275083
 20
22.9422079108
  0
LWPOLYLINE
  5
235
330
1F
100
AcDbEntity
  8
0
  6
Continuous
 62
     7
370
    18
100
AcDbPolyline
 90
        3
 70
   128
 43
0.0
 10
259.5748895711
 20
26.4855542541
 10
259.6310891009
 20
27.4460715026
 10
259.7786913156
 20
28.35916018
  0
LWPOLYLINE
  5
236
330
1F
100
AcDbEntity
  8
0
  6
Continuous
 62
     7
370
    18
100
AcDbPolyline
 90
       11
 70
   128
 43
0.0
 10
264.3419081311
 20
35.8036583333
 10
264.3468775902
 20
35.8075415985
 10
265.1481187532
 20
36.3673347499
 10
265.9532825365
 20
36.7996779451
 10
266.7466974125
 20
37.0961546274
 10
267.512920533
 20
37.2509947247
 10
268.237037964
 20
37.2611844724
 10
268.9049558652
 20
37.1265257614
 10
269.5036739095
 20
36.8496392261
 10
270.0215388226
 20
36.4359144099
 10
270.1775519678
 20
36.2651963841
  0
ARC
  5
237
330
1F
100
AcDbEntity
  8
0
  6
Continuous
 62
     7
370
    18
100
AcDbCircle
 10
262.6659980556
 20
25.1698659093
 30
0.0
 40
2.797160174358598
100
AcDbArc
 50
221.1708213472
 51
260.0348049156
  0
LINE
  5
238
330
1F
100
AcDbEntity
  8
0
  6
Continuous
 62
     7
370
    18
100
AcDbLine
 10
259.581561944
 20
26.1689379689
 30
0.0
 11
259.5748895711
 21
26.4855542541
 31
0.0
  0
ARC
  5
239
330
1F
100
AcDbEntity
  8
0
  6
Continuous
 62
     7
370
    18
100
AcDbCircle
 10
272.1211039852
 20
25.869893294
 30
0.0
 40
11.80276131422517
100
AcDbArc
 50
118.8295465422
 51
177.8045930624
  0
LWPOLYLINE
  5
23A
330
1F
100
AcDbEntity
  8
0
  6
Continuous
 62
     7
370
    18
100
AcDbPolyline
 90
       18
 70
   128
 43
0.0
 10
260.0266122494
 20
26.5037890915
 10
260.0829316343
 20
27.4456125348
 10
260.2507422751
 20
28.4332875127
 10
260.5266286307
 20
29.446708277
 10
260.9049743044
 20
30.4652441866
 10
261.3780769595
 20
31.4681611831
 10
261.9363060411
 20
32.4350423119
 10
262.5682977052
 20
33.3462048178
 10
263.2611858032
 20
34.183100222
 10
264.0008656288
 20
34.9286916768
 10
264.7722792324
 20
35.5678008053
 10
265.5597229618
 20
36.0874179411
 10
266.3471666913
 20
36.4769639832
 10
267.1185802949
 20
36.7285100433
 10
267.8582601205
 20
36.8369347369
 10
268.5511482185
 20
36.8000309024
 10
269.1831398826
 20
36.6185504402
 10
269.2556024983
 20
36.5865865186
  0
ARC
  5
23B
330
1F
100
AcDbEntity
  8
0
  6
Continuous
 62
     7
370
    18
100
AcDbCircle
 10
263.08917747
 20
25.3592402916
 30
0.0
 40
2.83342176770605
100
AcDbArc
 50
210.7055231757
 51
237.0662518551
  0
LINE
  5
23C
330
1F
100
AcDbEntity
  8
0
  6
Continuous
 62
     7
370
    18
100
AcDbLine
 10
260.0629504061
 20
25.7936968506
 30
0.0
 11
260.0266122494
 21
26.5037890915
 31
0.0
  0
LWPOLYLINE
  5
23D
330
1F
100
AcDbEntity
  8
0
  6
Continuous
 62
     7
370
    18
100
AcDbPolyline
 90
       18
 70
   128
 43
0.0
 10
223.0310641747
 20
41.4010353508
 10
223.0881586664
 20
42.734039692
 10
223.2588566956
 20
44.1192857292
 10
223.5414065338
 20
45.5425588644
 10
223.9329092682
 20
46.9892548698
 10
224.4293464601
 20
48.4445277957
 10
225.0256255849
 20
49.8934452902
 10
225.7156261298
 20
51.321138977
 10
226.4922694
 20
52.7129592028
 10
227.3475850314
 20
54.0546240817
 10
228.2727966012
 20
55.3323658761
 10
229.2584102025
 20
56.5330733859
 10
230.2943119088
 20
57.6444257796
 10
231.3698724825
 20
58.6550192027
 10
232.4740547175
 20
59.5544834978
 10
233.5955285204
 20
60.3335889443
 10
234.7227858258
 20
60.9843407351
 10
235.6735018365
 20
61.4301293607
  0
LWPOLYLINE
  5
23E
330
1F
100
AcDbEntity
  8
0
  6
Continuous
 62
     7
370
    18
100
AcDbPolyline
 90
        3
 70
   128
 43
0.0
 10
223.2099624001
 20
39.209382953
 10
223.0881586664
 20
40.1339509067
 10
223.0310641747
 20
41.4010353508
  0
LWPOLYLINE
  5
23F
330
1F
100
AcDbEntity
  8
0
  6
Continuous
 62
     7
370
    18
100
AcDbPolyline
 90
        3
 70
   128
 43
0.0
 10
215.5060177873
 20
44.7542985774
 10
215.4700467692
 20
45.7659177898
 10
215.4732828569
 20
46.0776617626
  0
LWPOLYLINE
  5
240
330
1F
100
AcDbEntity
  8
0
  6
Continuous
 62
     7
370
    18
100
AcDbPolyline
 90
       12
 70
   128
 43
0.0
 10
220.0941282077
 20
42.4302811621
 10
219.9860406391
 20
43.0434314306
 10
219.8812392075
 20
44.2119328488
 10
219.8924792452
 20
45.4532993929
 10
220.0196283846
 20
46.7528877445
 10
220.2611858029
 20
48.0953666846
 10
220.6143026364
 20
49.4649004113
 10
221.0748135912
 20
50.8453330911
 10
221.6372856751
 20
52.2203808717
 10
222.2950847107
 20
53.5738229416
 10
223.040449751
 20
54.8896933501
 10
223.8645892268
 20
56.1524695933
  0
LWPOLYLINE
  5
241
330
1F
100
AcDbEntity
  8
0
  6
Continuous
 62
     7
370
    18
100
AcDbPolyline
 90
       16
 70
   128
 43
0.0
 10
220.6059239746
 20
39.5003534611
 10
220.5056276461
 20
39.6408910913
 10
220.0188460337
 20
40.4793216296
 10
219.6377680589
 20
41.4321398228
 10
219.3667038955
 20
42.4885683666
 10
219.208719068
 20
43.6366592458
 10
219.1656008663
 20
44.863427175
 10
219.237837272
 20
46.1549974392
 10
219.4246103726
 20
47.4967614566
 10
219.723808216
 20
48.873544032
 10
220.1320472005
 20
50.2697733891
 10
220.6447089534
 20
51.6696572383
 10
221.2559963075
 20
53.0573636665
 10
221.9589945454
 20
54.4171958474
 10
222.7457537178
 20
55.7337760662
 10
223.6073742543
 20
56.9922114923
  0
ARC
  5
242
330
1F
100
AcDbEntity
  8
0
  6
Continuous
 62
     7
370
    18
100
AcDbCircle
 10
236.9313567825
 20
48.8612208269
 30
0.0
 40
14.76326052080849
100
AcDbArc
 50
110.3501530356
 51
139.0064936043
  0
LWPOLYLINE
  5
243
330
1F
100
AcDbEntity
  8
0
  6
Continuous
 62
     7
370
    18
100
AcDbPolyline
 90
       11
 70
   128
 43
0.0
 10
224.9515673158
 20
58.6643750095
 10
225.9674802207
 20
59.7378707746
 10
227.0229016801
 20
60.7050142834
 10
228.1055572477
 20
61.5545583959
 10
229.202856211
 20
62.2766216981
 10
230.3020372944
 20
62.8628083561
 10
231.3903174906
 20
63.3063001185
 10
232.4550402327
 20
63.6019403333
 10
233.4838234021
 20
63.7462897331
 10
234.464702727
 20
63.7376704336
 10
234.5905308261
 20
63.7250280986
  0
LINE
  5
244
330
1F
100
AcDbEntity
  8
0
  6
Continuous
 62
     7
370
    18
100
AcDbLine
 10
210.9836825558
 20
56.1385253886
 30
0.0
 11
211.289846483
 21
55.7677903326
 31
0.0
  0
LINE
  5
245
330
1F
100
AcDbEntity
  8
0
  6
Continuous
 62
     7
370
    18
100
AcDbLine
 10
210.9836825558
 20
48.3744152408
 30
0.0
 11
211.289846483
 21
49.0619487094
 31
0.0
  0
LINE
  5
246
330
1F
100
AcDbEntity
  8
0
  6
Continuous
 62
     7
370
    18
100
AcDbLine
 10
212.0257567997
 20
49.4867806925
 30
0.0
 11
211.289853727
 21
49.0619528913
 31
0.0
  0
LINE
  5
247
330
1F
100
AcDbEntity
  8
0
  6
Continuous
 62
     7
370
    18
100
AcDbLine
 10
211.9591812427
 20
50.2300066602
 30
0.0
 11
210.6499098086
 21
49.4741803495
 31
0.0
  0
LINE
  5
248
330
1F
100
AcDbEntity
  8
0
  6
Continuous
 62
     7
370
    18
100
AcDbLine
 10
207.472830977
 20
51.0485893092
 30
0.0
 11
207.1763437028
 21
50.5525276914
 31
0.0
  0
LINE
  5
249
330
1F
100
AcDbEntity
  8
0
  6
Continuous
 62
     7
370
    18
100
AcDbLine
 10
209.3046485879
 20
52.1060751067
 30
0.0
 11
207.4728915631
 21
51.0486242848
 31
0.0
  0
LINE
  5
24A
330
1F
100
AcDbEntity
  8
0
  6
Continuous
 62
     7
370
    18
100
AcDbLine
 10
209.3046485879
 20
52.1060751067
 30
0.0
 11
209.4259587424
 21
52.0443245934
 31
0.0
  0
OLE2FRAME
  5
24B
330
1F
100
AcDbEntity
  8
0
100
AcDbOle2Frame
 70
     2
  3
Paintbrush-Bild
 10
13.8511154363
 20
38.264191557
 30
0.0
 11
51.6290888628
 21
31.9806341108
 31
0.0
 71
     2
 72
     0
 73
     1
 90
    12928
310
80552BED0767C5B32B40DDAF6807D121434000000000000000006FFBDDFB85D0
310
4940DDAF6807D121434000000000000000006FFBDDFB85D04940416F4BD60AFB
310
3F4000000000000000002BED0767C5B32B40416F4BD60AFB3F40000000000000
310
0000000000000100000000010000010000000100000000000100000000320000
310
D0CF11E0A1B11AE1000000000000000000000000000000003E000300FEFF0900
310
0600000000000000000000000100000001000000000000000010000002000000
310
01000000FEFFFFFF0000000000000000FFFFFFFFFFFFFFFFFFFFFFFFFFFFFFFF
310
FFFFFFFFFFFFFFFFFFFFFFFFFFFFFFFFFFFFFFFFFFFFFFFFFFFFFFFFFFFFFFFF
310
FFFFFFFFFFFFFFFFFFFFFFFFFFFFFFFFFFFFFFFFFFFFFFFFFFFFFFFFFFFFFFFF
310
FFFFFFFFFFFFFFFFFFFFFFFFFFFFFFFFFFFFFFFFFFFFFFFFFFFFFFFFFFFFFFFF
310
FFFFFFFFFFFFFFFFFFFFFFFFFFFFFFFFFFFFFFFFFFFFFFFFFFFFFFFFFFFFFFFF
310
FFFFFFFFFFFFFFFFFFFFFFFFFFFFFFFFFFFFFFFFFFFFFFFFFFFFFFFFFFFFFFFF
310
FFFFFFFFFFFFFFFFFFFFFFFFFFFFFFFFFFFFFFFFFFFFFFFFFFFFFFFFFFFFFFFF
310
FFFFFFFFFFFFFFFFFFFFFFFFFFFFFFFFFFFFFFFFFFFFFFFFFFFFFFFFFFFFFFFF
310
FFFFFFFFFFFFFFFFFFFFFFFFFFFFFFFFFFFFFFFFFFFFFFFFFFFFFFFFFFFFFFFF
310
FFFFFFFFFFFFFFFFFFFFFFFFFFFFFFFFFFFFFFFFFFFFFFFFFFFFFFFFFFFFFFFF
310
FFFFFFFFFFFFFFFFFFFFFFFFFFFFFFFFFFFFFFFFFFFFFFFFFFFFFFFFFFFFFFFF
310
FFFFFFFFFFFFFFFFFFFFFFFFFFFFFFFFFFFFFFFFFFFFFFFFFFFFFFFFFFFFFFFF
310
FFFFFFFFFFFFFFFFFFFFFFFFFFFFFFFFFFFFFFFFFFFFFFFFFFFFFFFFFFFFFFFF
310
FFFFFFFFFFFFFFFFFFFFFFFFFFFFFFFFFFFFFFFFFFFFFFFFFFFFFFFFFFFFFFFF
310
FDFFFFFFFEFFFFFFFEFFFFFFFEFFFFFF05000000060000000700000008000000
310
090000000A0000000B0000000C0000000D0000000E0000000F00000010000000
310
11000000120000001300000014000000150000001600000017000000FEFFFFFF
310
FFFFFFFFFFFFFFFFFFFFFFFFFFFFFFFFFFFFFFFFFFFFFFFFFFFFFFFFFFFFFFFF
310
FFFFFFFFFFFFFFFFFFFFFFFFFFFFFFFFFFFFFFFFFFFFFFFFFFFFFFFFFFFFFFFF
310
FFFFFFFFFFFFFFFFFFFFFFFFFFFFFFFFFFFFFFFFFFFFFFFFFFFFFFFFFFFFFFFF
310
FFFFFFFFFFFFFFFFFFFFFFFFFFFFFFFFFFFFFFFFFFFFFFFFFFFFFFFFFFFFFFFF
310
FFFFFFFFFFFFFFFFFFFFFFFFFFFFFFFFFFFFFFFFFFFFFFFFFFFFFFFFFFFFFFFF
310
FFFFFFFFFFFFFFFFFFFFFFFFFFFFFFFFFFFFFFFFFFFFFFFFFFFFFFFFFFFFFFFF
310
FFFFFFFFFFFFFFFFFFFFFFFFFFFFFFFFFFFFFFFFFFFFFFFFFFFFFFFFFFFFFFFF
310
FFFFFFFFFFFFFFFFFFFFFFFFFFFFFFFFFFFFFFFFFFFFFFFFFFFFFFFFFFFFFFFF
310
FFFFFFFFFFFFFFFFFFFFFFFFFFFFFFFFFFFFFFFFFFFFFFFFFFFFFFFFFFFFFFFF
310
FFFFFFFFFFFFFFFFFFFFFFFFFFFFFFFFFFFFFFFFFFFFFFFFFFFFFFFFFFFFFFFF
310
FFFFFFFFFFFFFFFFFFFFFFFFFFFFFFFFFFFFFFFFFFFFFFFFFFFFFFFFFFFFFFFF
310
FFFFFFFFFFFFFFFFFFFFFFFFFFFFFFFFFFFFFFFFFFFFFFFFFFFFFFFFFFFFFFFF
310
FFFFFFFFFFFFFFFFFFFFFFFFFFFFFFFFFFFFFFFFFFFFFFFFFFFFFFFFFFFFFFFF
310
52006F006F007400200045006E00740072007900000000000000000000000000
310
0000000000000000000000000000000000000000000000000000000000000000
310
16000500FFFFFFFFFFFFFFFF020000000A00030000000000C000000000000046
310
00000000000000000000000090B8346E90A9D30103000000C000000000000000
310
01004F006C006500000000000000000000000000000000000000000000000000
310
0000000000000000000000000000000000000000000000000000000000000000
310
0A000200FFFFFFFFFFFFFFFFFFFFFFFF00000000000000000000000000000000
310
0000000000000000000000000000000000000000000000001400000000000000
310
010043006F006D0070004F0062006A0000000000000000000000000000000000
310
0000000000000000000000000000000000000000000000000000000000000000
310
120002010100000003000000FFFFFFFF00000000000000000000000000000000
310
0000000000000000000000000000000000000000010000004D00000000000000
310
01004F006C006500310030004E00610074006900760065000000000000000000
310
0000000000000000000000000000000000000000000000000000000000000000
310
1A000200FFFFFFFFFFFFFFFFFFFFFFFF00000000000000000000000000000000
310
0000000000000000000000000000000000000000040000002426000000000000
310
FEFFFFFF02000000FEFFFFFFFFFFFFFFFFFFFFFFFFFFFFFFFFFFFFFFFFFFFFFF
310
FFFFFFFFFFFFFFFFFFFFFFFFFFFFFFFFFFFFFFFFFFFFFFFFFFFFFFFFFFFFFFFF
310
FFFFFFFFFFFFFFFFFFFFFFFFFFFFFFFFFFFFFFFFFFFFFFFFFFFFFFFFFFFFFFFF
310
FFFFFFFFFFFFFFFFFFFFFFFFFFFFFFFFFFFFFFFFFFFFFFFFFFFFFFFFFFFFFFFF
310
FFFFFFFFFFFFFFFFFFFFFFFFFFFFFFFFFFFFFFFFFFFFFFFFFFFFFFFFFFFFFFFF
310
FFFFFFFFFFFFFFFFFFFFFFFFFFFFFFFFFFFFFFFFFFFFFFFFFFFFFFFFFFFFFFFF
310
FFFFFFFFFFFFFFFFFFFFFFFFFFFFFFFFFFFFFFFFFFFFFFFFFFFFFFFFFFFFFFFF
310
FFFFFFFFFFFFFFFFFFFFFFFFFFFFFFFFFFFFFFFFFFFFFFFFFFFFFFFFFFFFFFFF
310
FFFFFFFFFFFFFFFFFFFFFFFFFFFFFFFFFFFFFFFFFFFFFFFFFFFFFFFFFFFFFFFF
310
FFFFFFFFFFFFFFFFFFFFFFFFFFFFFFFFFFFFFFFFFFFFFFFFFFFFFFFFFFFFFFFF
310
FFFFFFFFFFFFFFFFFFFFFFFFFFFFFFFFFFFFFFFFFFFFFFFFFFFFFFFFFFFFFFFF
310
FFFFFFFFFFFFFFFFFFFFFFFFFFFFFFFFFFFFFFFFFFFFFFFFFFFFFFFFFFFFFFFF
310
FFFFFFFFFFFFFFFFFFFFFFFFFFFFFFFFFFFFFFFFFFFFFFFFFFFFFFFFFFFFFFFF
310
FFFFFFFFFFFFFFFFFFFFFFFFFFFFFFFFFFFFFFFFFFFFFFFFFFFFFFFFFFFFFFFF
310
FFFFFFFFFFFFFFFFFFFFFFFFFFFFFFFFFFFFFFFFFFFFFFFFFFFFFFFFFFFFFFFF
310
FFFFFFFFFFFFFFFFFFFFFFFFFFFFFFFFFFFFFFFFFFFFFFFFFFFFFFFFFFFFFFFF
310
0100000200000000000000000000000000000000000000000000000000000000
310
0000000000000000000000000000000000000000000000000000000000000000
310
0100FEFF030A0000FFFFFFFF0A00030000000000C00000000000004607000000
310
5042727573680007000000504272757368000700000050427275736800F439B2
310
7100000000000000000000000000000000000000000000000000000000000000
310
0000000000000000000000000000000000000000000000000000000000000000
310
0000000000000000000000000000000000000000000000000000000000000000
310
0000000000000000000000000000000000000000000000000000000000000000
310
0000000000000000000000000000000000000000000000000000000000000000
310
0000000000000000000000000000000000000000000000000000000000000000
310
0000000000000000000000000000000000000000000000000000000000000000
310
0000000000000000000000000000000000000000000000000000000000000000
310
0000000000000000000000000000000000000000000000000000000000000000
310
0000000000000000000000000000000000000000000000000000000000000000
310
0000000000000000000000000000000000000000000000000000000000000000
310
0000000000000000000000000000000000000000000000000000000000000000
310
20260000424D0E260000000000003E00000028000000B40200006E0000000100
310
01000000000000000000130B0000130B00000200000002000000000000FFFFFF
310
FFFFFFFFFFFFFFFFFFFFFFFFFFFFFFFFFFFFFFFFFFFFFFFFFFFFFFFFFFFFFFFF
310
FFFFFFFFFFFFFFFFFFFFFFFFFFFFFFFFFFFFFFFFFFFFFFFFFFFFFFFFFFFFFFFF
310
FFFFFFFFFFFFFFFFFFFFFFFFFFFFFFFFFFFFFFFFFFFFFFFFF000FFFFFFFFFFFF
310
FFFFFFFFFFFFFFFFFFFFFFFFFFFFFFFFFFFFFFFFFFFFFFFFFFFFFFFFFFFFFFFF
310
FFFFFFFFFFFFFFFFFFFFFFFFFFFFFFFFFFFFFFFFFFFFFFFFFFFFFFFFFFFFFFFF
310
FFFFFFFFFFFFFFFFFFFFFFFFFFFFFFFFF000FFFFFFFFFFFFFFFFFFFFFFFFFFFF
310
FFFFFFFFFFFFFFFFFFFFFFFFFFFFFFFFFFFFFFFFFFFFFFFFFFFFFFFFFFFFFFFF
310
FFFFFFFFFFFFFFFFFFFFFFFFFFFFFFFFFFFFFFFFFFFFFFFFFFFFFFFFFFFFFFFF
310
FFFFFFFFFFFFFFFFF000FFFFFFFFFFFFFFFFFFFFFFFFFFFFFFFFFFFFFFFFFFFF
310
FFFFFFFFFFFFFFFFFFFFFFFFFFFFFFFFFFFFFFFFFFFFFFFFFFFFFFFFFFFFFFFF
310
FFFFFFFFFFFFFFFFFFFFFFFFFFFFFFFFFFFFFFFFFFFFFFFFFFFFFFFFFFFFFFFF
310
F000FFFFFFFFFFFFFFFFFFFFFFFFFFFFFFFFFFFFFFFFFFFFFFFFFFFFFFFFFFFF
310
FFFFFFFFFFFFFFFFFFFFFFFFFFFFFFFFFFFFFFFFFFFFFFFFFFFFFFFFFFFFFFFF
310
FFFFFFFFFFFFFFFFFFFFFFFFFFFFFFFFFFFFFFFFFFFFFFFFF000FFFFFFFFFFFF
310
FFFFFFFFFFFFFFFFFFFFFFFFFFFFFFFFFFFFFFFFFFFFFFFFFFFFFFFFFFFFFFFF
310
FFFFFFFFFFFFFFFFFFFFFFFFFFFFFFFFFFFFFFFFFFFFFFFFFFFFFFFFFFFFFFFF
310
FFFFFFFFFFFFFFFFFFFFFFFFFFFFFFFFF000FFFFFFFFFFFFFFFFFFFFFFFFFFFF
310
FFFFFFFFFFFFFFFFFFFFFFFFFFFFFFFFFFFFFFFFFFFFFFFFFFFFFFFFFFFFFFFF
310
FFFFFFFFFFFFFFFFFFFFFFFFFFFFFFFFFFFFFFFFFFFFFFFFFFFFFFFFFFFFFFFF
310
FFFFFFFFFFFFFFFFF000FFFFFFFFFFFFFFFFFFFFFFFFFFFFFFFFFFFFFFFFFFFF
310
FFFFFFFFFFFFFFFFFFFFFFFFFFFFFFFFFFFFFFFFFFFFFFFFFFFFFFFFFFFFFFFF
310
FFFFFFFFFFFFFFFFFFFFFFFFFFFFFFFFFFFFFFFFFFFFFFFFFFFFFFFFFFFFFFFF
310
F000FFFFFFFFFFFFFFFFFFFFFFFFFFFFFFFFFFFFFFFFFFFFFFFFFFFFFFFFFFFF
310
FFFFFFFFFFFFFFFFFFFFFFFFFFFFFFFFFFFFFFFFFFFFFFFFFFFFFFFFFFFFFFFF
310
FFFFFFFFFFFFFFFFFFFFFFFFFFFFFFFFFFFFFFFFFFFFFFFFF000FFFFFFFFFFFF
310
FFFFFFFFFFFFFFFFFFFFFFFFFFFFFFFFFFFFFFFFFFFFFFFFFFFFFFFFFFFFFFFF
310
FFFFFFFFFFFFFFFFFFFFFFFFFFFFFFFFFFFFFFFFFFFFFFFFFFFFFFFFFFFFFFFF
310
FFFFFFFFFFFFFFFFFFFFFFFFFFFFFFFFF000FFFFFFFFFFFFFFFFFFFFFFFFFFFF
310
FFFFFFFFFFFFFFFFFFFFFFFFFFFFFFFFFFFFFFFFFFFFFFFFFFFFFFFFFFFFFFFF
310
FFFFFFFFFFFFFFFFFFFFFFFFFFFFFFFFFFFFFFFFFFFFFFFFFFFFFFFFFFFFFFFF
310
FFFFFFFFFFFFFFFFF000FFFFFFFFFFFFFFFFFFFFFFFFFFFFFFFFFFFFFFFFFFFF
310
FFFFFFFFFFFFFFFFFFFFFFFFFFFFFFFFFFFFFFFFFFFFFFFFFFFFFFFFFFFFFFFF
310
FFFFFFFFFFFFFFFFFFFFFFFFFFFFFFFFFFFFFFFFFFFFFFFFFFFFFFFFFFFFFFFF
310
F000FFFFFFFFFFFFFFFFFFFFFFFFFFFFFFFFFFFFFFFFFFFFFFFFFFFFFFFFFFFF
310
FFFFFFFFFFFFFFFFFFFFFFFFFFFFFFFFFFFFFFFFFFFFFFFFFFFFFFFFFFFFFFFF
310
FFFFFFFFFFFFFFFFFFFFFFFFFFFFFFFFFFFFFFFFFFFFFFFFF000FFFFFFFFFFFF
310
FFFFFFFFFFFFFFFFFFFFFFFFFFFFFFFFFFFFFFFFFFFFFFFFFFFFFFFFFFFFFFFF
310
FFFFFFFFFFFFFFFFFFFFFFFFFFFFFFFFFFFFFFFFFFFFFFFFFFFFFFFFFFFFFFFF
310
FFFFFFFFFFFFFFFFFFFFFFFFFFFFFFFFF000FFFFFFFFFFFFFFFFFFFFFFFFFFFF
310
FFFFFFFFFFFFFFFFFFFFFFFFFFFFFFFFFFFFFFFFFFFFFFFFFFFFFFFFFFFFFFFF
310
FFFFFFFFFFFFFFFFFFFFFFFFFFFFFFFFFFFFFFFFFFFFFFFFFFFFFFFFFFFFFFFF
310
FFFFFFFFFFFFFFFFF000FFFFFFFFFFFFFFFFFFFFFFFFFFFFFFFFFFFFFFFFFFFF
310
FFFFFFFFFFFFFFFFFFFFFFFFFFFFFFFFFFFFFFFFFFFFFFFFFFFFFFFFFFFFFFFF
310
FFFFFFFFFFFFFFFFFFFFFFFFFFFFFFFFFFFFFFFFFFFFFFFFFFFFFFFFFFFFFFFF
310
F000FFFFFFFFFFFFFFFFFFFFFFFFFFFFFFFFFFFFFFFFFFFFFFFFFFFFFFFFFFFF
310
FFFFFFFFFFFFFFFFFFFFFFFFFFFFFFFFFFFFFFFFFFFFFFFFFFFFFFFFFFFFFFFF
310
FFFFFFFFFFFFFFFFFFFFFFFFFFFFFFFFFFFFFFFFFFFFFFFFF000FFFFFFFFFFFF
310
FFFFFFFFFFFFFFFFFFFFFFFFFFFFFFFFFFFFFFFFFFFFFFFFFFFFFFFFFFFFFFFF
310
FFFFFFFFFFFFFFFFFFFFFFFFFFFFFFFFFFFFFFFFFFFFFFFFFFFFFFFFFFFFFFFF
310
FFFFFFFFFFFFFFFFFFFFFFFFFFFFFFFFF000FFFFFFFFFFFFFFFFFFFFFFFFFFFF
310
FFFFFFFFFFFFFFFFFFFFFFFFFFFFFFFFFFFFFFFFFFFFFFFFFFFFFFFFFFFFFFFF
310
FFFFFFFFFFFFFFFFFFFFFFFFFFFFFFFFFFFFFFFFFFFFFFFFFFFFFFFFFFFFFFFF
310
FFFFFFFFFFFFFFFFF000FFFFF80003FFFFFFFFFFFFFFFFFFFFFFFFFFFFFFFFFF
310
FFFFF00007FFFFFFFFFF00007FFFFFF800000000000000007FFFFFFFFFFFFFFF
310
FFFFFFFC001FFFFFFFFFFFFFFC001FFFFFFFFFFFFFFFFFFFFFFFFFFE0007FFFF
310
F000FFFF8000007FFFFFFFF8000FFFFFC0007FFFFF80007FFFFF0000007FFFFF
310
FFF8000007FFFFF800000000000000007FFFFFF0001FFFFFFFFFFFC00001FFFF
310
FFFFFFFFC00001FFFFFFFF000000000003FFFFE000007FFFF000FFFE0000000F
310
FFFFFFF0000FFFFF80007FFFFF80007FFFFC0000001FFFFFFFC0000001FFFFF8
310
00000000000000007FFFFFF0001FFFFFFFFFFE0000003FFFFFFFFFFE0000003F
310
FFFFFF000000000003FFFF0000000FFFF000FFF800000003FFFFFFF00007FFFF
310
80007FFFFF80007FFFF000000007FFFFFF000000003FFFF80000000000000000
310
7FFFFFF0001FFFFFFFFFF80000000FFFFFFFFFF80000000FFFFFFF0000000000
310
03FFFC00000003FFF000FFE000000000FFFFFFF00007FFFF80003FFFFF80007F
310
FFC000000001FFFFFC000000001FFFF800000000000000007FFFFFF0001FFFFF
310
FFFFE000000003FFFFFFFFE000000003FFFFFF000000000003FFF000000000FF
310
F000FF80000000007FFFFFF00007FFFF80003FFFFF80007FFF8000000000FFFF
310
F80000000007FFF800000000000000007FFFFFF0001FFFFFFFFFC000000001FF
310
FFFFFFC000000001FFFFFF000000000003FFC0000000007FF000FF0000000000
310
3FFFFFE00007FFFF00003FFFFF80007FFE00000000003FFFF00000000003FFF8
310
00000000000000007FFFFFF0001FFFFFFFFF8000000000FFFFFFFF8000000000
310
FFFFFF000000000003FF80000000003FF000FE00000000001FFFFFE00003FFFF
310
00003FFFFF80007FFC00000000001FFFE00000000001FFF8000001FFFE000000
310
7FFFFFF0001FFFFFFFFE00000000003FFFFFFE00000000003FFFFF0000000000
310
03FF00000000001FF000FC00000000000FFFFFE00003FFFF00001FFFFF80007F
310
F800000000001FFFC00000000000FFF8000001FFFE0000007FFFFFF0001FFFFF
310
FFFC00000000001FFFFFFC00000000001FFFFF000000000003FE00000000000F
310
F000F8000000000007FFFFE00003FFFF00001FFFFF80007FF800000000000FFF
310
800000000000FFF8000001FFFE0000007FFFFFF0001FFFFFFFF800000000000F
310
FFFFF800000000000FFFFF000000000003FC000000000007F000F80000000000
310
03FFFFC00003FFFE00001FFFFF80007FF0000000000007FF0000000000007FF8
310
000001FFFE0000007FFFFFF0001FFFFFFFF0000000000007FFFFF00000000000
310
07FFFF000000000003F8000000000003F000F0000000000003FFFFC00001FFFE
310
00001FFFFF80007FE0000000000007FE0000000000003FF8000001FFFE000000
310
7FFFFFF0001FFFFFFFF0000000000007FFFFF0000000000007FFFF0000000000
310
03F800001F800003F000E00001FFF00001FFFFC00001FFFE00000FFFFF80007F
310
E00001FFE00003FE00001FFF00003FF8000001FFFE0000007FFFFFF0001FFFFF
310
FFE000003E000003FFFFE000003E000003FFFF000000000003F00001FFF80001
310
F000E00007FFFC0001FFFFC00001FFFE00000FFFFF80007FC0000FFFFC0003FC
310
0000FFFFC0001FF8000001FFFE0000007FFFFFF0001FFFFFFFC00003FFE00001
310
FFFFC00003FFE00001FFFF0001FFFFFFFFF00007FFFE0001F000E0000FFFFF00
310
00FFFF800001FFFC00000FFFFF80007FC0001FFFFE0001FC0001FFFFE0001FF8
310
000001FFFE0000007FFFFFF0001FFFFFFF80000FFFF80000FFFF80000FFFF800
310
00FFFF0003FFFFFFFFE0000FFFFF8000F000C0003FFFFF8000FFFF800000FFFC
310
000007FFFF80007F80003FFFFF0001FC0003FFFFF0001FF8000001FFFE000000
310
7FFFFFF0001FFFFFFF80003FFFFE0000FFFF80003FFFFE0000FFFF0003FFFFFF
310
FFE0003FFFFF8000F000C0003FFFFF8000FFFF800000FFFC000007FFFF80007F
310
80007FFFFF8001F80007FFFFF8000FF8000001FFFE0000007FFFFFF0001FFFFF
310
FF00007FFFFF00007FFF00007FFFFF00007FFF0003FFFFFFFFE0003FFFFFC000
310
F000C0007FFFFFC000FFFF000000FFFC000007FFFF80007F8000FFFFFF8000F8
310
000FFFFFF8000FF8000001FFFE0000007FFFFFF0001FFFFFFF0000FFFFFF8000
310
7FFF0000FFFFFF80007FFF0003FFFFFFFFC0007FFFFFC00070008000FFFFFFC0
310
00FFFF000000FFF8000007FFFF80007F8000FFFFFF8000F8000FFFFFF8000FF8
310
000001FFFE0000007FFFFFF0001FFFFFFE0001FFFFFFC0003FFE0001FFFFFFC0
310
003FFF0003FFFFFFFFC0007FFFFFE00070008000FFFFFFC0007FFF0000007FF8
310
000003FFFF80007F0001FFFFFF8000F8000FFFFFF8000FF8000001FFFE000000
310
7FFFFFF0001FFFFFFE0001FFFFFFC0003FFE0001FFFFFFC0003FFF0003FFFFFF
310
FFC000FFFFFFE00070008000FFFFFFC0007FFF0000007FF8000003FFFF80007F
310
0001FFFFFF8000F8001FFFFFF8000FF8000001FFFE0000007FFFFFF0001FFFFF
310
FE0003FFFFFFE0003FFE0003FFFFFFE0003FFF0003FFFFFFFFC000FFFFFFE000
310
70008000FFFFFFC0007FFE0000007FF8000003FFFF80007F0001FFFFFF8000F0
310
001FFFFFF8000FF8000001FFFE0000007FFFFFF0001FFFFFFC0003FFFFFFE000
310
1FFC0003FFFFFFE0001FFF0003FFFFFFFFC000FFFFFFC00070008000FFFFFF80
310
007FFE0000007FF0000003FFFF80007F0001FFFFFF0000F0001FFFFFF8000FF8
310
000001FFFE0000007FFFFFF0001FFFFFFC0007FFFFFFF0001FFC0007FFFFFFF0
310
001FFF0003FFFFFFFFC000FFFFFFC00070008001FFFFFF0000FFFE0000003FF0
310
000001FFFF80007F0001FFFFFF0000F8001FFFFFF0000FF8000001FFFE000000
310
7FFFFFF0001FFFFFFC0007FFFFFFF0001FFC0007FFFFFFF0001FFF0003FFFFFF
310
FFC001FFFFFF80007000FFFFFFFFFE0000FFFE0008003FF0008001FFFF80007F
310
FFFFFFFFFC0000FFFFFFFFFFE0000FF8000001FFFE0000007FFFFFF0001FFFFF
310
F8000FFFFFFFF8000FF8000FFFFFFFF8000FFF0003FFFFFFFFFFFFFFFFFF0000
310
7000FFFFFFFFFC0000FFFC0008003FF0008001FFFF80007FFFFFFFFFF80001FF
310
FFFFFFFF80000FF8000001FFFE0000007FFFFFF0001FFFFFF8000FFFFFFFF800
310
0FF8000FFFFFFFF8000FFF0003FFFFFFFFFFFFFFFFFE0000F000FFFFFFFFE000
310
00FFFC000C003FE000C001FFFF80007FFFFFFFFFC00001FFFFFFFFFE00001FF8
310
000001FFFE0000007FFFFFF0001FFFFFF8000FFFFFFFF8000FF8000FFFFFFFF8
310
000FFF0003FFFFFFFFFFFFFFFFF00000F000FFFFFFFE000001FFFC000C001FE0
310
00C000FFFF80007FFFFFFFFE000001FFFFFFFFE000001FF80FFFFFFFFFFFFFC0
310
7FFFFFF0001FFFFFF8000FFFFFFFF8000FF8000FFFFFFFF8000FFF0003FFFFFF
310
FFFFFFFFFF800000F000FFFFFFC0000001FFFC001C001FE001C000FFFF80007F
310
FFFFFF80000003FFFFFFF80000001FF80FFFFFFFFFFFFFC07FFFFFF0001FFFFF
310
F8001FFFFFFFFC000FF8001FFFFFFFFC000FFF0003FFFFFFFFFFFFFFF0000001
310
F000FFFFF800000001FFF8001C001FE001C000FFFF80007FFFFFF800000003FF
310
FFFF800000003FF80FFFFFFFFFFFFFC07FFFFFF0001FFFFFF8001FFFFFFFFC00
310
0FF8001FFFFFFFFC000FFF0003FFFFFFFFFFFFFE00000001F000FFFFC0000000
310
03FFF8001E001FC001E000FFFF80007FFFFF8000000007FFFFFC000000003FF8
310
0FFFFFFFFFFFFFC07FFFFFF0001FFFFFF8001FFFFFFFFC000FF8001FFFFFFFFC
310
000FFF0003FFFFFFFFFFFFE000000003F000FFFE0000000007FFF8001E000FC0
310
01E0007FFF80007FFFFE0000000007FFFFE0000000007FF80FFFFFFFFFFFFFC0
310
7FFFFFF0001FFFFFF0001FFFFFFFFC0007F0001FFFFFFFFC0007FF0003FFFFFF
310
FFFFFF0000000003F000FFF80000000007FFF8001E000FC003E0007FFF80007F
310
FFF0000000000FFFFF8000000000FFF80FFFFFFFFFFFFFC07FFFFFF0001FFFFF
310
F0001FFFFFFFFC0007F0001FFFFFFFFC0007FF0003FFFFFFFFFFFC0000000007
310
F000FFE0000000000FFFF0003E000FC003E0007FFF80007FFFC0000000001FFF
310
FE0000000001FFF80FFFFFFFFFFFFFC07FFFFFF0001FFFFFF0001FFFFFFFFC00
310
07F0001FFFFFFFFC0007FF0003FFFFFFFFFFF0000000000FF000FFC000000000
310
1FFFF0003F000F8003F0003FFF80007FFF80000000003FFFF80000000003FFF8
310
0FFFFFFFFFFFFFC07FFFFFF0001FFFFFF0001FFFFFFFFC0007F0001FFFFFFFFC
310
0007FF0003FFFFFFFFFFE0000000001FF000FF00000000007FFFF0003F000780
310
03F0003FFF80007FFF00000000007FFFF00000000007FFF80FFFFFFFFFFFFFC0
310
7FFFFFF0001FFFFFF0001FFFFFFFFC0007F0001FFFFFFFFC0007FF0003FFFFFF
310
FFFF80000000007FF000FE0000000000FFFFE0003F00078007F0003FFF80007F
310
FE0000000001FFFFE0000000001FFFF80FFFFFFFFFFFFFC07FFFFFF0001FFFFF
310
F0001FFFFFFFFC0007F0001FFFFFFFFC0007FF0003FFFFFFFFFF0000000000FF
310
F000FC0000000003FFFFE0007F00078007F0003FFF80007FFC0000000007FFFF
310
C0000000007FFFF80FFFFFFFFFFFFFC07FFFFFF0001FFFFFF8001FFFFFFFFC00
310
0FF8001FFFFFFFFC000FFF0003FFFFFFFFFE0000000003FFF000FC000000000F
310
FFFFE0007F80070007F8001FFF80007FF8000000001FFFFF8000000001FFFFF8
310
0FFFFFFFFFFFFFC07FFFFFF0001FFFFFF8001FFFFFFFFC000FF8001FFFFFFFFC
310
000FFF0003FFFFFFFFFC000000000FFFF000F8000000007FFFFFE0007F800700
310
07F8001FFF80007FF000000000FFFFFF800000000FFFFFF80FFFFFFFFFFFFFC0
310
7FFFFFF0001FFFFFF8000FFFFFFFF8000FF8000FFFFFFFF8000FFF0003FFFFFF
310
FFFC000000007FFFF000F800000007FFFFFFC0007F8003000FF8001FFF80007F
310
F000000007FFFFFF000000007FFFFFF80FFFFFFFFFFFFFC07FFFFFF0001FFFFF
310
F8000FFFFFFFF8000FF8000FFFFFFFF8000FFF0003FFFFFFFFF80000000FFFFF
310
F000F0000000FFFFFFFFC000FF8003000FF8001FFF80007FE0000000FFFFFFFF
310
0000000FFFFFFFF8000001FFFE0000007FFFFFF0001FFFFFF8000FFFFFFFF800
310
0FF8000FFFFFFFF8000FFF0003FFFFFFFFF8000000FFFFFFF000F000000FFFFF
310
FFFFC000FFC002000FF8000FFF80007FE000001FFFFFFFFE000001FFFFFFFFF8
310
000001FFFE0000007FFFFFF0001FFFFFF8000FFFFFFFF8000FF8000FFFFFFFF8
310
000FFF0003FFFFFFFFF000001FFFFFFFF000E00000FFFFFFFFFFC000FFC00200
310
0FFC000FFF80007FE00001FFFFFFFFFE00001FFFFFFFFFF8000001FFFE000000
310
7FFFFFF0001FFFFFFC000FFFFFFFF8001FFC000FFFFFFFF8001FFF0003FFFFFF
310
FFF00001FFFFFFFFF000E00007FFFFFFFFFF8000FFC000001FFC000FFF80007F
310
C0000FFFFFFFFFFE0000FFFFFFFFFFF8000001FFFE0000007FFFFFF0001FFFFF
310
FC0007FFFFFFF0001FFC0007FFFFFFF0001FFF0003FFFFFFFFF00007FFFFFFFF
310
F000E0001FFFFFFFFFFF8000FFC000001FFC000FFF80007FC0003FFFFFFFFFFE
310
0001FFFFFFFFFFF8000001FFFE0000007FFFFFF0001FFFFFFC0007FFFFFFF000
310
1FFC0007FFFFFFF0001FFF0003FFFFFFFFF0001FFFFFFFFFF000E0003FFFFF00
310
03FF8001FFE000001FFC0007FF80007FC0007FFFFF0007FC0003FFFFF0003FF8
310
000001FFFE0000007FFFFFF0001FFFFFFC0003FFFFFFE0001FFC0003FFFFFFE0
310
001FFF0003FFFFFFFFF0003FFFFFFFFFF000E0003FFFFF0001FF8001FFE00000
310
1FFE0007FF80007FC0007FFFFE0003FC0007FFFFE0003FF8000001FFFE000000
310
7FFFFFF0001FFFFFFE0003FFFFFFE0003FFE0003FFFFFFE0003FFF0003FFFFFF
310
FFF0003FFFFF8001F000E0003FFFFF0001FF0001FFE000001FFE0007FF80007F
310
C0007FFFFE0003FC0007FFFFE0003FF8000001FFFE0000007FFFFFF0001FFFFF
310
FE0001FFFFFFC0003FFE0001FFFFFFC0003FFF0003FFFFFFFFF0003FFFFF0001
310
F000E0003FFFFF0003FF0001FFE000003FFE0007FF80007FC0007FFFFE0003FC
310
0007FFFFE0003FF8000001FFFE0000007FFFFFF0001FFFFFFF0001FFFFFFC000
310
7FFF0001FFFFFFC0007FFF0003FFFFFFFFF0003FFFFF0001F000E0003FFFFE00
310
03FF0003FFF000003FFE0003FF80007FC0007FFFFC0003FE0007FFFFE0003FF8
310
000001FFFE0000007FFFFFF0001FFFFFFF0000FFFFFF80007FFF0000FFFFFF80
310
007FFF0003FFFFFFFFF0003FFFFF0001F000E0003FFFFE0003FF0003FFF00000
310
3FFF0003FF80007FC0007FFFFC0007FE0007FFFFC0003FF8000001FFFE000000
310
7FFFFFF0001FFFFFFF80007FFFFF0000FFFF80007FFFFF0000FFFF0003FFFFFF
310
FFF0003FFFFF0003F000E0003FFFFC0003FE0003FFF000003FFF0003FF80007F
310
E0003FFFF80007FE0003FFFFC0007FF8000001FFFE0000007FFFFFF0001FFFFF
310
FF80003FFFFE0000FFFF80003FFFFE0000FFFF0003FFFFFFFFF0001FFFFE0003
310
F000F0001FFFF80003FE0003FFF000007FFF0001FF80007FE0003FFFF00007FE
310
0001FFFF80007FF8000001FFFE0000007FFFFFF0001FFFFFFFC0000FFFF80001
310
FFFFC0000FFFF80001FFFF0003FFFFFFFFF0001FFFFC0003F000F0000FFFF000
310
07FE0007FFF800007FFF0001FF80007FE0001FFFE00007FF0000FFFE00007FF8
310
000001FFFE0000007FFFFFF0001FFFFFFFC00003FFE00001FFFFC00003FFE000
310
01FFFF0003FFFFFFFFF8000FFFF80003F000F00003FFC00007FC0007FFF80000
310
7FFF8001FF80007FF00007FF80000FFF00007FF80000FFF8000001FFFE000000
310
7F80000000000001FFE000003E000003FFFFE000003E000003FFFF0003FFFFFF
310
FFF80003FFE00007F000F800000000000FFC0007FFF800007FFF8001FF80007F
310
F000000000000FFF000000000000FFF8000001FFFE0000007F80000000000001
310
FFF0000000000007FFFFF0000000000007FFFF0003FFFFFFFFFC00007E000007
310
F000F800000000000FFC0007FFF80000FFFF8000FF80007FF800000000001FFF
310
800000000001FFF8000001FFFE0000007F80000000000001FFF800000000000F
310
FFFFF800000000000FFFFF0003FFFFFFFFFC00000000000FF000FC0000000000
310
1FFC0007FFFC0000FFFF8000FF80007FF800000000003FFFC00000000001FFF8
310
000001FFFE0000007F80000000000001FFF800000000000FFFFFF80000000000
310
0FFFFF0003FFFFFFFFFE00000000001FF000FE00000000003FF8000FFFFC0000
310
FFFF8000FF80007FFC00000000003FFFC00000000003FFF8000001FFFE000000
310
7F80000000000001FFFC00000000001FFFFFFC00000000001FFFFF0003FFFFFF
310
FFFF00000000001FF000FF00000000003FF8000FFFFC0000FFFFC000FF80007F
310
FE00000000007FFFE00000000007FFF8000001FFFE0000007F80000000000001
310
FFFE00000000003FFFFFFE00000000003FFFFF0003FFFFFFFFFF80000000003F
310
F000FF80000000007FF8000FFFFC0001FFFFC0007F80007FFF0000000000FFFF
310
F0000000000FFFF800000000000000007F80000000000001FFFF8000000000FF
310
FFFFFF8000000000FFFFFF0003FFFFFFFFFFC0000000007FF000FFC000000000
310
FFF8000FFFFE0001FFFFC0007F80007FFF8000000001FFFFF8000000001FFFF8
310
00000000000000007F80000000000001FFFFC000000001FFFFFFFFC000000001
310
FFFFFF0003FFFFFFFFFFE000000000FFF000FFE000000003FFF0001FFFFE0001
310
FFFFC0007F80007FFFC000000007FFFFFE000000003FFFF80000000000000000
310
7F80000000000001FFFFE000000003FFFFFFFFE000000003FFFFFF0003FFFFFF
310
FFFFF000000003FFF000FFF80000000FFFF0001FFFFE0001FFFFE0007F80007F
310
FFF00000000FFFFFFF00000000FFFFF800000000000000007F80000000000001
310
FFFFF80000000FFFFFFFFFF80000000FFFFFFF0003FFFFFFFFFFFC0000000FFF
310
F000FFFE0000003FFFF0001FFFFE0003FFFFE0003F80007FFFFC0000003FFFFF
310
FFC0000003FFFFF800000000000000007F80000000000001FFFFFE0000003FFF
310
FFFFFFFE0000003FFFFFFF0003FFFFFFFFFFFF0000003FFFF000FFFF800000FF
310
FFF0001FFFFF0003FFFFE0003F80007FFFFF000001FFFFFFFFF800001FFFFFF8
310
00000000000000007F80000000000001FFFFFFC00001FFFFFFFFFFFFC00001FF
310
FFFFFF0003FFFFFFFFFFFFC00000FFFFF000FFFFF8000FFFFFFFFFFFFFFFFFFF
310
FFFFFFFFFFFFFFFFFFFFF0001FFFFFFFFFFF0000FFFFFFF80000000000000000
310
7FFFFFFFFFFFFFFFFFFFFFFC001FFFFFFFFFFFFFFC001FFFFFFFFFFFFFFFFFFF
310
FFFFFFFC001FFFFFF000FFFFFFFFFFFFFFFFFFFFFFFFFFFFFFFFFFFFFFFFFFFF
310
FFFFFFFFFFFFFFFFFFFFFFFFFFFFFFFFFFFFFFFFFFFFFFFFFFFFFFFFFFFFFFFF
310
FFFFFFFFFFFFFFFFFFFFFFFFFFFFFFFFFFFFFFFFFFFFFFFFFFFFFFFFFFFFFFFF
310
F000FFFFFFFFFFFFFFFFFFFFFFFFFFFFFFFFFFFFFFFFFFFFFFFFFFFFFFFFFFFF
310
FFFFFFFFFFFFFFFFFFFFFFFFFFFFFFFFFFFFFFFFFFFFFFFFFFFFFFFFFFFFFFFF
310
FFFFFFFFFFFFFFFFFFFFFFFFFFFFFFFFFFFFFFFFFFFFFFFFF000FFFFFFFFFFFF
310
FFFFFFFFFFFFFFFFFFFFFFFFFFFFFFFFFFFFFFFFFFFFFFFFFFFFFFFFFFFFFFFF
310
FFFFFFFFFFFFFFFFFFFFFFFFFFFFFFFFFFFFFFFFFFFFFFFFFFFFFFFFFFFFFFFF
310
FFFFFFFFFFFFFFFFFFFFFFFFFFFFFFFFF000FFFFFFFFFFFFFFFFFFFFFFFFFFFF
310
FFFFFFFFFFFFFFFFFFFFFFFFFFFFFFFFFFFFFFFFFFFFFFFFFFFFFFFFFFFFFFFF
310
FFFFFFFFFFFFFFFFFFFFFFFFFFFFFFFFFFFFFFFFFFFFFFFFFFFFFFFFFFFFFFFF
310
FFFFFFFFFFFFFFFFF000FFFFFFFFFFFFFFFFFFFFFFFFFFFFFFFFFFFFFFFFFFFF
310
FFFFFFFFFFFFFFFFFFFFFFFFFFFFFFFFFFFFFFFFFFFFFFFFFFFFFFFFFFFFFFFF
310
FFFFFFFFFFFFFFFFFFFFFFFFFFFFFFFFFFFFFFFFFFFFFFFFFFFFFFFFFFFFFFFF
310
F000FFFFFFFFFFFFFFFFFFFFFFFFFFFFFFFFFFFFFFFFFFFFFFFFFFFFFFFFFFFF
310
FFFFFFFFFFFFFFFFFFFFFFFFFFFFFFFFFFFFFFFFFFFFFFFFFFFFFFFFFFFFFFFF
310
FFFFFFFFFFFFFFFFFFFFFFFFFFFFFFFFFFFFFFFFFFFFFFFFF000FFFFFFFFFFFF
310
FFFFFFFFFFFFFFFFFFFFFFFFFFFFFFFFFFFFFFFFFFFFFFFFFFFFFFFFFFFFFFFF
310
FFFFFFFFFFFFFFFFFFFFFFFFFFFFFFFFFFFFFFFFFFFFFFFFFFFFFFFFFFFFFFFF
310
FFFFFFFFFFFFFFFFFFFFFFFFFFFFFFFFF000FFFFFFFFFFFFFFFFFFFFFFFFFFFF
310
FFFFFFFFFFFFFFFFFFFFFFFFFFFFFFFFFFFFFFFFFFFFFFFFFFFFFFFFFFFFFFFF
310
FFFFFFFFFFFFFFFFFFFFFFFFFFFFFFFFFFFFFFFFFFFFFFFFFFFFFFFFFFFFFFFF
310
FFFFFFFFFFFFFFFFF000FFFFFFFFFFFFFFFFFFFFFFFFFFFFFFFFFFFFFFFFFFFF
310
FFFFFFFFFFFFFFFFFFFFFFFFFFFFFFFFFFFFFFFFFFFFFFFFFFFFFFFFFFFFFFFF
310
FFFFFFFFFFFFFFFFFFFFFFFFFFFFFFFFFFFFFFFFFFFFFFFFFFFFFFFFFFFFFFFF
310
F000FFFFFFFFFFFFFFFFFFFFFFFFFFFFFFFFFFFFFFFFFFFFFFFFFFFFFFFFFFFF
310
FFFFFFFFFFFFFFFFFFFFFFFFFFFFFFFFFFFFFFFFFFFFFFFFFFFFFFFFFFFFFFFF
310
FFFFFFFFFFFFFFFFFFFFFFFFFFFFFFFFFFFFFFFFFFFFFFFFF000FFFFFFFFFFFF
310
FFFFFFFFFFFFFFFFFFFFFFFFFFFFFFFFFFFFFFFFFFFFFFFFFFFFFFFFFFFFFFFF
310
FFFFFFFFFFFFFFFFFFFFFFFFFFFFFFFFFFFFFFFFFFFFFFFFFFFFFFFFFFFFFFFF
310
FFFFFFFFFFFFFFFFFFFFFFFFFFFFFFFFF000FFFFFFFFFFFFFFFFFFFFFFFFFFFF
310
FFFFFFFFFFFFFFFFFFFFFFFFFFFFFFFFFFFFFFFFFFFFFFFFFFFFFFFFFFFFFFFF
310
FFFFFFFFFFFFFFFFFFFFFFFFFFFFFFFFFFFFFFFFFFFFFFFFFFFFFFFFFFFFFFFF
310
FFFFFFFFFFFFFFFFF000FFFFFFFFFFFFFFFFFFFFFFFFFFFFFFFFFFFFFFFFFFFF
310
FFFFFFFFFFFFFFFFFFFFFFFFFFFFFFFFFFFFFFFFFFFFFFFFFFFFFFFFFFFFFFFF
310
FFFFFFFFFFFFFFFFFFFFFFFFFFFFFFFFFFFFFFFFFFFFFFFFFFFFFFFFFFFFFFFF
310
F000FFFFFFFFFFFFFFFFFFFFFFFFFFFFFFFFFFFFFFFFFFFFFFFFFFFFFFFFFFFF
310
FFFFFFFFFFFFFFFFFFFFFFFFFFFFFFFFFFFFFFFFFFFFFFFFFFFFFFFFFFFFFFFF
310
FFFFFFFFFFFFFFFFFFFFFFFFFFFFFFFFFFFFFFFFFFFFFFFFF000FFFFFFFFFFFF
310
FFFFFFFFFFFFFFFFFFFFFFFFFFFFFFFFFFFFFFFFFFFFFFFFFFFFFFFFFFFFFFFF
310
FFFFFFFFFFFFFFFFFFFFFFFFFFFFFFFFFFFFFFFFFFFFFFFFFFFFFFFFFFFFFFFF
310
FFFFFFFFFFFFFFFFFFFFFFFFFFFFFFFFF000FFFFFFFFFFFFFFFFFFFFFFFFFFFF
310
FFFFFFFFFFFFFFFFFFFFFFFFFFFFFFFFFFFFFFFFFFFFFFFFFFFFFFFFFFFFFFFF
310
FFFFFFFFFFFFFFFFFFFFFFFFFFFFFFFFFFFFFFFFFFFFFFFFFFFFFFFFFFFFFFFF
310
FFFFFFFFFFFFFFFFF000FFFFFFFFFFFFFFFFFFFFFFFFFFFFFFFFFFFFFFFFFFFF
310
FFFFFFFFFFFFFFFFFFFFFFFFFFFFFFFFFFFFFFFFFFFFFFFFFFFFFFFFFFFFFFFF
310
FFFFFFFFFFFFFFFFFFFFFFFFFFFFFFFFFFFFFFFFFFFFFFFFFFFFFFFFFFFFFFFF
310
F000FFFFFFFFFFFFFFFFFFFFFFFFFFFFFFFFFFFFFFFFFFFFFFFFFFFFFFFFFFFF
310
FFFFFFFFFFFFFFFFFFFFFFFFFFFFFFFFFFFFFFFFFFFFFFFFFFFFFFFFFFFFFFFF
310
FFFFFFFFFFFFFFFFFFFFFFFFFFFFFFFFFFFFFFFFFFFFFFFFF000FFFFFFFFFFFF
310
FFFFFFFFFFFFFFFFFFFFFFFFFFFFFFFFFFFFFFFFFFFFFFFFFFFFFFFFFFFFFFFF
310
FFFFFFFFFFFFFFFFFFFFFFFFFFFFFFFFFFFFFFFFFFFFFFFFFFFFFFFFFFFFFFFF
310
FFFFFFFFFFFFFFFFFFFFFFFFFFFFFFFFF000FFFFFFFFFFFFFFFFFFFFFFFFFFFF
310
FFFFFFFFFFFFFFFFFFFFFFFFFFFFFFFFFFFFFFFFFFFFFFFFFFFFFFFFFFFFFFFF
310
FFFFFFFFFFFFFFFFFFFFFFFFFFFFFFFFFFFFFFFFFFFFFFFFFFFFFFFFFFFFFFFF
310
FFFFFFFFFFFFFFFFF000FFFFFFFFFFFFFFFFFFFFFFFFFFFFFFFFFFFFFFFFFFFF
310
FFFFFFFFFFFFFFFFFFFFFFFFFFFFFFFFFFFFFFFFFFFFFFFFFFFFFFFFFFFFFFFF
310
FFFFFFFFFFFFFFFFFFFFFFFFFFFFFFFFFFFFFFFFFFFFFFFFFFFFFFFFFFFFFFFF
310
F000FFFFFFFFFFFFFFFFFFFFFFFFFFFFFFFFFFFFFFFFFFFFFFFFFFFFFFFFFFFF
310
FFFFFFFFFFFFFFFFFFFFFFFFFFFFFFFFFFFFFFFFFFFFFFFFFFFFFFFFFFFFFFFF
310
FFFFFFFFFFFFFFFFFFFFFFFFFFFFFFFFFFFFFFFFFFFFFFFFF000FFFFFFFFFFFF
310
FFFFFFFFFFFFFFFFFFFFFFFFFFFFFFFFFFFFFFFFFFFFFFFFFFFFFFFFFFFFFFFF
310
FFFFFFFFFFFFFFFFFFFFFFFFFFFFFFFFFFFFFFFFFFFFFFFFFFFFFFFFFFFFFFFF
310
FFFFFFFFFFFFFFFFFFFFFFFFFFFFFFFFF0000000000000000000000000000000
310
0000000000000000000000000000000000000000000000000000000000000000
310
0000000000000000000000000000000000000000000000000000000000000000
310
0000000000000000000000000000000000000000000000000000000000000000
310
0000000000000000000000000000000000000000000000000000000000000000
310
0000000000000000000000000000000000000000000000000000000000000000
310
0000000000000000000000000000000000000000000000000000000000000000
310
0000000000000000000000000000000000000000000000000000000000000000
310
0000000000000000000000000000000000000000000000000000000000000000
310
0000000000000000000000000000000000000000000000000000000000000000
310
0000000000000000000000000000000000000000000000000000000000000000
310
0000000000000000000000000000000000000000000000000000000000000000
310
0000000000000000000000000000000000000000000000000000000000000000
310
0000000000000000000000000000000000000000000000000000000000000000
310
0000000000000000000000000000000000000000000000000000000000000000
310
0000000000000000000000000000000000000000000000000000000000000000
  1
OLE
  0
ENDSEC
  0
SECTION
  2
OBJECTS
  0
DICTIONARY
  5
C
330
0
100
AcDbDictionary
281
     1
  3
ACAD_GROUP
350
D
  3
ACAD_LAYOUT
350
1A
  3
ACAD_MLINESTYLE
350
17
  3
ACAD_PLOTSETTINGS
350
19
  3
ACAD_PLOTSTYLENAME
350
E
  3
ACAD_SCALELIST
350
47
  0
DICTIONARY
  5
D
102
{ACAD_REACTORS
330
C
102
}
330
C
100
AcDbDictionary
281
     1
  0
DICTIONARY
  5
1A
102
{ACAD_REACTORS
330
C
102
}
330
C
100
AcDbDictionary
281
     1
  3
Layout1
350
1E
  3
Layout2
350
26
  3
Model
350
22
  0
DICTIONARY
  5
17
102
{ACAD_REACTORS
330
C
102
}
330
C
100
AcDbDictionary
281
     1
  3
Standard
350
18
  0
DICTIONARY
  5
19
102
{ACAD_REACTORS
330
C
102
}
330
C
100
AcDbDictionary
281
     1
  0
ACDBDICTIONARYWDFLT
  5
E
102
{ACAD_REACTORS
330
C
102
}
330
C
100
AcDbDictionary
281
     1
  3
Normal
350
F
100
AcDbDictionaryWithDefault
340
F
  0
DICTIONARY
  5
47
102
{ACAD_REACTORS
330
C
102
}
330
C
100
AcDbDictionary
281
     1
  3
A0
350
48
  3
A1
350
49
  3
A2
350
4A
  3
A3
350
4B
  3
A4
350
4C
  3
A5
350
4D
  3
A6
350
4E
  3
A7
350
4F
  3
A8
350
50
  3
A9
350
51
  3
B0
350
52
  3
B1
350
53
  3
B2
350
54
  3
B3
350
55
  3
B4
350
56
  3
B5
350
57
  3
B6
350
58
  3
B7
350
59
  3
B8
350
5A
  3
B9
350
5B
  3
C0
350
5C
  3
C1
350
5D
  3
C2
350
5E
  3
C3
350
5F
  3
C4
350
60
  3
C5
350
61
  3
C6
350
62
  3
C7
350
63
  3
C8
350
64
  3
C9
350
65
  3
D0
350
66
  3
D1
350
67
  3
D2
350
68
  0
LAYOUT
  5
1E
102
{ACAD_REACTORS
330
1A
102
}
330
1A
100
AcDbPlotSettings
  1

  2
none_device
  4

  6

 40
0.0
 41
0.0
 42
0.0
 43
0.0
 44
0.0
 45
0.0
 46
0.0
 47
0.0
 48
0.0
 49
0.0
140
0.0
141
0.0
142
1.0
143
1.0
 70
   688
 72
     1
 73
     0
 74
     5
  7

 75
    16
147
1.0
148
0.0
149
0.0
100
AcDbLayout
  1
Layout1
 70
     1
 71
     1
 10
0.0
 20
0.0
 11
420.0
 21
297.0
 12
0.0
 22
0.0
 32
0.0
 14
1.0000000000E+20
 24
1.0000000000E+20
 34
1.0000000000E+20
 15
-1.0000000000E+20
 25
-1.0000000000E+20
 35
-1.0000000000E+20
146
0.0
 13
0.0
 23
0.0
 33
0.0
 16
1.0
 26
0.0
 36
0.0
 17
0.0
 27
1.0
 37
0.0
 76
     0
330
1B
  0
LAYOUT
  5
26
102
{ACAD_REACTORS
330
1A
102
}
330
1A
100
AcDbPlotSettings
  1

  2
none_device
  4

  6

 40
0.0
 41
0.0
 42
0.0
 43
0.0
 44
0.0
 45
0.0
 46
0.0
 47
0.0
 48
0.0
 49
0.0
140
0.0
141
0.0
142
1.0
143
1.0
 70
   688
 72
     1
 73
     0
 74
     5
  7

 75
    16
147
1.0
148
0.0
149
0.0
100
AcDbLayout
  1
Layout2
 70
     1
 71
     2
 10
0.0
 20
0.0
 11
0.0
 21
0.0
 12
0.0
 22
0.0
 32
0.0
 14
0.0
 24
0.0
 34
0.0
 15
0.0
 25
0.0
 35
0.0
146
0.0
 13
0.0
 23
0.0
 33
0.0
 16
1.0
 26
0.0
 36
0.0
 17
0.0
 27
1.0
 37
0.0
 76
     0
330
23
  0
LAYOUT
  5
22
102
{ACAD_REACTORS
330
1A
102
}
330
1A
100
AcDbPlotSettings
  1

  2
none_device
  4
Letter_(8.50_x_11.00_Inches)
  6

 40
6.35
 41
6.35
 42
6.35000508
 43
6.35000508
 44
215.9
 45
279.4
 46
0.0
 47
0.0
 48
0.0
 49
0.0
140
0.0
141
0.0
142
1.0
143
1.0
 70
  1712
 72
     1
 73
     0
 74
     0
  7

 75
     0
147
1.0
148
0.0
149
0.0
100
AcDbLayout
  1
Model
 70
     1
 71
     0
 10
0.0
 20
0.0
 11
297.0
 21
210.0
 12
0.0
 22
0.0
 32
0.0
 14
0.0
 24
0.0
 34
0.0
 15
297.0
 25
210.0
 35
0.0
146
0.0
 13
0.0
 23
0.0
 33
0.0
 16
1.0
 26
0.0
 36
0.0
 17
0.0
 27
1.0
 37
0.0
 76
     0
330
1F
331
29
  0
MLINESTYLE
  5
18
102
{ACAD_REACTORS
330
17
102
}
330
17
100
AcDbMlineStyle
  2
Standard
 70
     0
  3

 62
   256
 51
90.0
 52
90.0
 71
     2
 49
0.5
 62
   256
  6
BYLAYER
 49
-0.5
 62
   256
  6
BYLAYER
  0
ACDBPLACEHOLDER
  5
F
102
{ACAD_REACTORS
330
E
102
}
330
E
  0
SCALE
  5
48
102
{ACAD_REACTORS
330
47
102
}
330
47
100
AcDbScale
 70
     0
300
1:1
140
1.0
141
1.0
290
     1
  0
SCALE
  5
49
102
{ACAD_REACTORS
330
47
102
}
330
47
100
AcDbScale
 70
     0
300
1:2
140
1.0
141
2.0
290
     0
  0
SCALE
  5
4A
102
{ACAD_REACTORS
330
47
102
}
330
47
100
AcDbScale
 70
     0
300
1:4
140
1.0
141
4.0
290
     0
  0
SCALE
  5
4B
102
{ACAD_REACTORS
330
47
102
}
330
47
100
AcDbScale
 70
     0
300
1:5
140
1.0
141
5.0
290
     0
  0
SCALE
  5
4C
102
{ACAD_REACTORS
330
47
102
}
330
47
100
AcDbScale
 70
     0
300
1:8
140
1.0
141
8.0
290
     0
  0
SCALE
  5
4D
102
{ACAD_REACTORS
330
47
102
}
330
47
100
AcDbScale
 70
     0
300
1:10
140
1.0
141
10.0
290
     0
  0
SCALE
  5
4E
102
{ACAD_REACTORS
330
47
102
}
330
47
100
AcDbScale
 70
     0
300
1:16
140
1.0
141
16.0
290
     0
  0
SCALE
  5
4F
102
{ACAD_REACTORS
330
47
102
}
330
47
100
AcDbScale
 70
     0
300
1:20
140
1.0
141
20.0
290
     0
  0
SCALE
  5
50
102
{ACAD_REACTORS
330
47
102
}
330
47
100
AcDbScale
 70
     0
300
1:30
140
1.0
141
30.0
290
     0
  0
SCALE
  5
51
102
{ACAD_REACTORS
330
47
102
}
330
47
100
AcDbScale
 70
     0
300
1:40
140
1.0
141
40.0
290
     0
  0
SCALE
  5
52
102
{ACAD_REACTORS
330
47
102
}
330
47
100
AcDbScale
 70
     0
300
1:50
140
1.0
141
50.0
290
     0
  0
SCALE
  5
53
102
{ACAD_REACTORS
330
47
102
}
330
47
100
AcDbScale
 70
     0
300
1:100
140
1.0
141
100.0
290
     0
  0
SCALE
  5
54
102
{ACAD_REACTORS
330
47
102
}
330
47
100
AcDbScale
 70
     0
300
2:1
140
2.0
141
1.0
290
     0
  0
SCALE
  5
55
102
{ACAD_REACTORS
330
47
102
}
330
47
100
AcDbScale
 70
     0
300
4:1
140
4.0
141
1.0
290
     0
  0
SCALE
  5
56
102
{ACAD_REACTORS
330
47
102
}
330
47
100
AcDbScale
 70
     0
300
8:1
140
8.0
141
1.0
290
     0
  0
SCALE
  5
57
102
{ACAD_REACTORS
330
47
102
}
330
47
100
AcDbScale
 70
     0
300
10:1
140
10.0
141
1.0
290
     0
  0
SCALE
  5
58
102
{ACAD_REACTORS
330
47
102
}
330
47
100
AcDbScale
 70
     0
300
100:1
140
100.0
141
1.0
290
     0
  0
SCALE
  5
59
102
{ACAD_REACTORS
330
47
102
}
330
47
100
AcDbScale
 70
     0
300
1/128" = 1'-0"
140
0.0078125
141
12.0
290
     0
  0
SCALE
  5
5A
102
{ACAD_REACTORS
330
47
102
}
330
47
100
AcDbScale
 70
     0
300
1/64" = 1'-0"
140
0.015625
141
12.0
290
     0
  0
SCALE
  5
5B
102
{ACAD_REACTORS
330
47
102
}
330
47
100
AcDbScale
 70
     0
300
1/32" = 1'-0"
140
0.03125
141
12.0
290
     0
  0
SCALE
  5
5C
102
{ACAD_REACTORS
330
47
102
}
330
47
100
AcDbScale
 70
     0
300
1/16" = 1'-0"
140
0.0625
141
12.0
290
     0
  0
SCALE
  5
5D
102
{ACAD_REACTORS
330
47
102
}
330
47
100
AcDbScale
 70
     0
300
3/32" = 1'-0"
140
0.09375
141
12.0
290
     0
  0
SCALE
  5
5E
102
{ACAD_REACTORS
330
47
102
}
330
47
100
AcDbScale
 70
     0
300
1/8" = 1'-0"
140
0.125
141
12.0
290
     0
  0
SCALE
  5
5F
102
{ACAD_REACTORS
330
47
102
}
330
47
100
AcDbScale
 70
     0
300
3/16" = 1'-0"
140
0.1875
141
12.0
290
     0
  0
SCALE
  5
60
102
{ACAD_REACTORS
330
47
102
}
330
47
100
AcDbScale
 70
     0
300
1/4" = 1'-0"
140
0.25
141
12.0
290
     0
  0
SCALE
  5
61
102
{ACAD_REACTORS
330
47
102
}
330
47
100
AcDbScale
 70
     0
300
3/8" = 1'-0"
140
0.375
141
12.0
290
     0
  0
SCALE
  5
62
102
{ACAD_REACTORS
330
47
102
}
330
47
100
AcDbScale
 70
     0
300
1/2" = 1'-0"
140
0.5
141
12.0
290
     0
  0
SCALE
  5
63
102
{ACAD_REACTORS
330
47
102
}
330
47
100
AcDbScale
 70
     0
300
3/4" = 1'-0"
140
0.75
141
12.0
290
     0
  0
SCALE
  5
64
102
{ACAD_REACTORS
330
47
102
}
330
47
100
AcDbScale
 70
     0
300
1" = 1'-0"
140
1.0
141
12.0
290
     0
  0
SCALE
  5
65
102
{ACAD_REACTORS
330
47
102
}
330
47
100
AcDbScale
 70
     0
300
1-1/2" = 1'-0"
140
1.5
141
12.0
290
     0
  0
SCALE
  5
66
102
{ACAD_REACTORS
330
47
102
}
330
47
100
AcDbScale
 70
     0
300
3" = 1'-0"
140
3.0
141
12.0
290
     0
  0
SCALE
  5
67
102
{ACAD_REACTORS
330
47
102
}
330
47
100
AcDbScale
 70
     0
300
6" = 1'-0"
140
6.0
141
12.0
290
     0
  0
SCALE
  5
68
102
{ACAD_REACTORS
330
47
102
}
330
47
100
AcDbScale
 70
     0
300
1'-0" = 1'-0"
140
12.0
141
12.0
290
     0
  0
ENDSEC
  0
EOF
