  0
SECTION
  2
HEADER
  9
$ACADVER
  1
AC1015
  9
$ACADMAINTVER
 70
     6
  9
$DWGCODEPAGE
  3
ANSI_1252
  9
$INSBASE
 10
0.0
 20
0.0
 30
0.0
  9
$EXTMIN
 10
0.0
 20
0.0
 30
0.0
  9
$EXTMAX
 10
297.0
 20
210.0
 30
0.0
  9
$LIMMIN
 10
0.0
 20
0.0
  9
$LIMMAX
 10
297.0
 20
210.0
  9
$ORTHOMODE
 70
     0
  9
$REGENMODE
 70
     1
  9
$FILLMODE
 70
     1
  9
$QTEXTMODE
 70
     0
  9
$MIRRTEXT
 70
     1
  9
$LTSCALE
 40
1.0
  9
$ATTMODE
 70
     1
  9
$TEXTSIZE
 40
2.0
  9
$TRACEWID
 40
1.0
  9
$TEXTSTYLE
  7
STANDARD
  9
$CLAYER
  8
0
  9
$CELTYPE
  6
ByLayer
  9
$CECOLOR
 62
   256
  9
$CELTSCALE
 40
1.0
  9
$DISPSILH
 70
     0
  9
$DIMSCALE
 40
1.0
  9
$DIMASZ
 40
3.0
  9
$DIMEXO
 40
0.0
  9
$DIMDLI
 40
3.75
  9
$DIMRND
 40
0.0
  9
$DIMDLE
 40
0.0
  9
$DIMEXE
 40
1.0
  9
$DIMTP
 40
0.0
  9
$DIMTM
 40
0.0
  9
$DIMTXT
 40
2.0
  9
$DIMCEN
 40
2.5
  9
$DIMTSZ
 40
0.0
  9
$DIMTOL
 70
     0
  9
$DIMLIM
 70
     0
  9
$DIMTIH
 70
     1
  9
$DIMTOH
 70
     1
  9
$DIMSE1
 70
     0
  9
$DIMSE2
 70
     0
  9
$DIMTAD
 70
     1
  9
$DIMZIN
 70
     0
  9
$DIMBLK
  1

  9
$DIMASO
 70
     1
  9
$DIMSHO
 70
     1
  9
$DIMPOST
  1

  9
$DIMAPOST
  1

  9
$DIMALT
 70
     0
  9
$DIMALTD
 70
     3
  9
$DIMALTF
 40
0.0393700787
  9
$DIMLFAC
 40
2.0
  9
$DIMTOFL
 70
     1
  9
$DIMTVP
 40
0.0
  9
$DIMTIX
 70
     0
  9
$DIMSOXD
 70
     0
  9
$DIMSAH
 70
     0
  9
$DIMBLK1
  1

  9
$DIMBLK2
  1

  9
$DIMSTYLE
  2
ISO-25
  9
$DIMCLRD
 70
     0
  9
$DIMCLRE
 70
     0
  9
$DIMCLRT
 70
     0
  9
$DIMTFAC
 40
1.0
  9
$DIMGAP
 40
1.524
  9
$DIMJUST
 70
     0
  9
$DIMSD1
 70
     0
  9
$DIMSD2
 70
     0
  9
$DIMTOLJ
 70
     0
  9
$DIMTZIN
 70
     0
  9
$DIMALTZ
 70
     0
  9
$DIMALTTZ
 70
     0
  9
$DIMUPT
 70
     0
  9
$DIMDEC
 70
     2
  9
$DIMTDEC
 70
     3
  9
$DIMALTU
 70
     2
  9
$DIMALTTD
 70
     3
  9
$DIMTXSTY
  7
STANDARD
  9
$DIMAUNIT
 70
     0
  9
$DIMADEC
 70
     2
  9
$DIMALTRND
 40
0.0
  9
$DIMAZIN
 70
     0
  9
$DIMDSEP
 70
    44
  9
$DIMATFIT
 70
     3
  9
$DIMFRAC
 70
     0
  9
$DIMLDRBLK
  1

  9
$DIMLUNIT
 70
     2
  9
$DIMLWD
 70
    -2
  9
$DIMLWE
 70
    -2
  9
$DIMTMOVE
 70
     0
  9
$LUNITS
 70
     2
  9
$LUPREC
 70
     2
  9
$SKETCHINC
 40
1.0
  9
$FILLETRAD
 40
10.0
  9
$AUNITS
 70
     0
  9
$AUPREC
 70
     2
  9
$MENU
  1
.
  9
$ELEVATION
 40
0.0
  9
$PELEVATION
 40
0.0
  9
$THICKNESS
 40
0.0
  9
$LIMCHECK
 70
     0
  9
$CHAMFERA
 40
10.0
  9
$CHAMFERB
 40
10.0
  9
$CHAMFERC
 40
20.0
  9
$CHAMFERD
 40
0.0
  9
$SKPOLY
 70
     0
  9
$TDCREATE
 40
2457149.693410533
  9
$TDUCREATE
 40
2457149.610077199
  9
$TDUPDATE
 40
2457149.69341125
  9
$TDUUPDATE
 40
2457149.610077917
  9
$TDINDWG
 40
0.0000000116
  9
$TDUSRTIMER
 40
0.0000000116
  9
$USRTIMER
 70
     1
  9
$ANGBASE
 50
0.0
  9
$ANGDIR
 70
     0
  9
$PDMODE
 70
     0
  9
$PDSIZE
 40
-1.0
  9
$PLINEWID
 40
0.0
  9
$SPLFRAME
 70
     0
  9
$SPLINETYPE
 70
     6
  9
$SPLINESEGS
 70
     8
  9
$HANDSEED
  5
268
  9
$SURFTAB1
 70
     6
  9
$SURFTAB2
 70
     6
  9
$SURFTYPE
 70
     6
  9
$SURFU
 70
     6
  9
$SURFV
 70
     6
  9
$UCSBASE
  2

  9
$UCSNAME
  2

  9
$UCSORG
 10
0.0
 20
0.0
 30
0.0
  9
$UCSXDIR
 10
1.0
 20
0.0
 30
0.0
  9
$UCSYDIR
 10
0.0
 20
1.0
 30
0.0
  9
$UCSORTHOREF
  2

  9
$UCSORTHOVIEW
 70
     0
  9
$UCSORGTOP
 10
0.0
 20
0.0
 30
0.0
  9
$UCSORGBOTTOM
 10
0.0
 20
0.0
 30
0.0
  9
$UCSORGLEFT
 10
0.0
 20
0.0
 30
0.0
  9
$UCSORGRIGHT
 10
0.0
 20
0.0
 30
0.0
  9
$UCSORGFRONT
 10
0.0
 20
0.0
 30
0.0
  9
$UCSORGBACK
 10
0.0
 20
0.0
 30
0.0
  9
$PUCSBASE
  2

  9
$PUCSNAME
  2

  9
$PUCSORG
 10
0.0
 20
0.0
 30
0.0
  9
$PUCSXDIR
 10
1.0
 20
0.0
 30
0.0
  9
$PUCSYDIR
 10
0.0
 20
1.0
 30
0.0
  9
$PUCSORTHOREF
  2

  9
$PUCSORTHOVIEW
 70
     0
  9
$PUCSORGTOP
 10
0.0
 20
0.0
 30
0.0
  9
$PUCSORGBOTTOM
 10
0.0
 20
0.0
 30
0.0
  9
$PUCSORGLEFT
 10
0.0
 20
0.0
 30
0.0
  9
$PUCSORGRIGHT
 10
0.0
 20
0.0
 30
0.0
  9
$PUCSORGFRONT
 10
0.0
 20
0.0
 30
0.0
  9
$PUCSORGBACK
 10
0.0
 20
0.0
 30
0.0
  9
$USERI1
 70
     0
  9
$USERI2
 70
     0
  9
$USERI3
 70
     0
  9
$USERI4
 70
     0
  9
$USERI5
 70
     0
  9
$USERR1
 40
0.0
  9
$USERR2
 40
0.0
  9
$USERR3
 40
0.0
  9
$USERR4
 40
0.0
  9
$USERR5
 40
0.0
  9
$WORLDVIEW
 70
     1
  9
$SHADEDGE
 70
     3
  9
$SHADEDIF
 70
    70
  9
$TILEMODE
 70
     1
  9
$MAXACTVP
 70
    64
  9
$PINSBASE
 10
0.0
 20
0.0
 30
0.0
  9
$PLIMCHECK
 70
     0
  9
$PEXTMIN
 10
1.0000000000E+20
 20
1.0000000000E+20
 30
1.0000000000E+20
  9
$PEXTMAX
 10
-1.0000000000E+20
 20
-1.0000000000E+20
 30
-1.0000000000E+20
  9
$PLIMMIN
 10
0.0
 20
0.0
  9
$PLIMMAX
 10
420.0
 20
297.0
  9
$UNITMODE
 70
     0
  9
$VISRETAIN
 70
     1
  9
$PLINEGEN
 70
     0
  9
$PSLTSCALE
 70
     1
  9
$TREEDEPTH
 70
  3020
  9
$CMLSTYLE
  2
Standard
  9
$CMLJUST
 70
     0
  9
$CMLSCALE
 40
20.0
  9
$PROXYGRAPHICS
 70
     1
  9
$MEASUREMENT
 70
     1
  9
$CELWEIGHT
370
    -1
  9
$ENDCAPS
280
     0
  9
$JOINSTYLE
280
     0
  9
$LWDISPLAY
290
     1
  9
$INSUNITS
 70
     4
  9
$HYPERLINKBASE
  1

  9
$STYLESHEET
  1

  9
$XEDIT
290
     1
  9
$CEPSNTYPE
380
     0
  9
$PSTYLEMODE
290
     1
  9
$FINGERPRINTGUID
  2
{1F415A10-50FA-4F7C-854B-32245B6E3296}
  9
$VERSIONGUID
  2
{FAEB1C32-E019-11D5-929B-00C0DF256EC4}
  9
$EXTNAMES
290
     1
  9
$PSVPSCALE
 40
0.0
  9
$OLESTARTUP
290
     0
  0
ENDSEC
  0
SECTION
  2
CLASSES
  0
CLASS
  1
ACDBDICTIONARYWDFLT
  2
AcDbDictionaryWithDefault
  3
ObjectDBX Classes
 90
        0
280
     0
281
     0
  0
CLASS
  1
VISUALSTYLE
  2
AcDbVisualStyle
  3
ObjectDBX Classes
 90
     4095
280
     0
281
     0
  0
CLASS
  1
MATERIAL
  2
AcDbMaterial
  3
ObjectDBX Classes
 90
     1153
280
     0
281
     0
  0
CLASS
  1
ACDBPLACEHOLDER
  2
AcDbPlaceHolder
  3
ObjectDBX Classes
 90
        0
280
     0
281
     0
  0
CLASS
  1
LAYOUT
  2
AcDbLayout
  3
ObjectDBX Classes
 90
        0
280
     0
281
     0
  0
ENDSEC
  0
SECTION
  2
TABLES
  0
TABLE
  2
VPORT
  5
8
330
0
100
AcDbSymbolTable
 70
     1
  0
VPORT
  5
29
330
8
100
AcDbSymbolTableRecord
100
AcDbViewportTableRecord
  2
*Active
 70
     0
 10
0.0
 20
0.0
 11
1.0
 21
1.0
 12
148.5
 22
105.0
 13
0.0
 23
0.0
 14
10.0
 24
10.0
 15
10.0
 25
10.0
 16
0.0
 26
0.0
 36
1.0
 17
0.0
 27
0.0
 37
0.0
 40
210.0
 41
1.4142857143
 42
50.0
 43
0.0
 44
0.0
 50
0.0
 51
0.0
 71
     0
 72
  2000
 73
     1
 74
     3
 75
     0
 76
     0
 77
     0
 78
     0
281
     0
 65
     1
110
0.0
120
0.0
130
0.0
111
1.0
121
0.0
131
0.0
112
0.0
122
1.0
132
0.0
 79
     0
146
0.0
  0
ENDTAB
  0
TABLE
  2
LTYPE
  5
5
330
0
100
AcDbSymbolTable
 70
     8
  0
LTYPE
  5
14
330
5
100
AcDbSymbolTableRecord
100
AcDbLinetypeTableRecord
  2
ByBlock
 70
     0
  3

 72
    65
 73
     0
 40
0.0
  0
LTYPE
  5
15
330
5
100
AcDbSymbolTableRecord
100
AcDbLinetypeTableRecord
  2
ByLayer
 70
     0
  3

 72
    65
 73
     0
 40
0.0
  0
LTYPE
  5
16
330
5
100
AcDbSymbolTableRecord
100
AcDbLinetypeTableRecord
  2
Continuous
 70
     0
  3
Solid line
 72
    65
 73
     0
 40
0.0
  0
LTYPE
  5
3F
330
5
100
AcDbSymbolTableRecord
100
AcDbLinetypeTableRecord
  2
SLD-Durchgehend
 70
     0
  3
SolidWorks Line Style
 72
    65
 73
     0
 40
0.0
  0
LTYPE
  5
40
330
5
100
AcDbSymbolTableRecord
100
AcDbLinetypeTableRecord
  2
SLD-Gestrichelt
 70
     0
  3
SolidWorks Line Style
 72
    65
 73
     2
 40
1.905
 49
1.27
 74
     0
 49
-0.635
 74
     0
  0
LTYPE
  5
41
330
5
100
AcDbSymbolTableRecord
100
AcDbLinetypeTableRecord
  2
SLD-Phantom
 70
     0
  3
SolidWorks Line Style
 72
    65
 73
     6
 40
12.7
 49
6.35
 74
     0
 49
-1.27
 74
     0
 49
1.27
 74
     0
 49
-1.27
 74
     0
 49
1.27
 74
     0
 49
-1.27
 74
     0
  0
LTYPE
  5
42
330
5
100
AcDbSymbolTableRecord
100
AcDbLinetypeTableRecord
  2
SLD-Kette
 70
     0
  3
SolidWorks Line Style
 72
    65
 73
     4
 40
10.16
 49
6.35
 74
     0
 49
-1.27
 74
     0
 49
1.27
 74
     0
 49
-1.27
 74
     0
  0
LTYPE
  5
43
330
5
100
AcDbSymbolTableRecord
100
AcDbLinetypeTableRecord
  2
SLD-Punktstrich
 70
     0
  3
SolidWorks Line Style
 72
    65
 73
     4
 40
19.05
 49
15.24
 74
     0
 49
-1.27
 74
     0
 49
1.27
 74
     0
 49
-1.27
 74
     0
  0
LTYPE
  5
44
330
5
100
AcDbSymbolTableRecord
100
AcDbLinetypeTableRecord
  2
SLD-Naht
 70
     0
  3
SolidWorks Line Style
 72
    65
 73
     2
 40
0.635
 49
0.0
 74
     0
 49
-0.635
 74
     0
  0
LTYPE
  5
45
330
5
100
AcDbSymbolTableRecord
100
AcDbLinetypeTableRecord
  2
SLD-Dicke-Dünne-Kette
 70
     0
  3
SolidWorks Line Style
 72
    65
 73
     4
 40
10.16
 49
6.35
 74
     0
 49
-1.27
 74
     0
 49
1.27
 74
     0
 49
-1.27
 74
     0
  0
ENDTAB
  0
TABLE
  2
LAYER
  5
2
330
0
100
AcDbSymbolTable
 70
     5
  0
LAYER
  5
10
330
2
100
AcDbSymbolTableRecord
100
AcDbLayerTableRecord
  2
0
 70
     0
 62
     7
  6
Continuous
370
    -3
390
F
  0
LAYER
  5
46
330
2
100
AcDbSymbolTableRecord
100
AcDbLayerTableRecord
  2
FORMAT
 70
     0
 62
     7
  6
SLD-Durchgehend
370
    -3
390
F
  0
LAYER
  5
47
330
2
100
AcDbSymbolTableRecord
100
AcDbLayerTableRecord
  2
VERMASSUNG
 70
     0
 62
     7
  6
SLD-Durchgehend
370
    -3
390
F
  0
LAYER
  5
48
330
2
100
AcDbSymbolTableRecord
100
AcDbLayerTableRecord
  2
KOPF_DÜNN
 70
     0
 62
     7
  6
SLD-Durchgehend
370
    -3
390
F
  0
LAYER
  5
49
330
2
100
AcDbSymbolTableRecord
100
AcDbLayerTableRecord
  2
KOPF_DICK
 70
     0
 62
     7
  6
SLD-Durchgehend
370
    15
390
F
  0
ENDTAB
  0
TABLE
  2
STYLE
  5
3
330
0
100
AcDbSymbolTable
 70
     2
  0
STYLE
  5
11
330
3
100
AcDbSymbolTableRecord
100
AcDbTextStyleTableRecord
  2
STANDARD
 70
     0
 40
0.0
 41
1.0
 50
0.0
 71
     0
 42
2.0
  3
ISOCPEUR.TTF
  4

1001
ACAD
1000
ISOCPEUR
1071
       34
  0
STYLE
  5
4A
330
3
100
AcDbSymbolTableRecord
100
AcDbTextStyleTableRecord
  2
SLDTEXTSTYLE0
 70
     0
 40
0.0
 41
1.0
 50
0.0
 71
     0
 42
0.2
  3
ISOCPEUR.TTF
  4

1001
ACAD
1000
ISOCPEUR
1071
      290
  0
ENDTAB
  0
TABLE
  2
VIEW
  5
6
330
0
100
AcDbSymbolTable
 70
     0
  0
ENDTAB
  0
TABLE
  2
UCS
  5
7
330
0
100
AcDbSymbolTable
 70
     0
  0
ENDTAB
  0
TABLE
  2
APPID
  5
9
330
0
100
AcDbSymbolTable
 70
     1
  0
APPID
  5
12
330
9
100
AcDbSymbolTableRecord
100
AcDbRegAppTableRecord
  2
ACAD
 70
     0
  0
ENDTAB
  0
TABLE
  2
DIMSTYLE
  5
A
330
0
100
AcDbSymbolTable
 70
     3
100
AcDbDimStyleTable
  0
DIMSTYLE
105
27
330
A
100
AcDbSymbolTableRecord
100
AcDbDimStyleTableRecord
  2
ISO-25
 70
     0
 41
2.5
 42
0.625
 43
3.75
 44
1.25
 73
     0
 74
     0
 77
     1
 78
     8
140
2.5
141
2.5
143
0.0393700787
147
0.625
171
     3
172
     1
178
     0
271
     2
272
     2
274
     3
278
    44
283
     0
284
     8
340
11
  0
DIMSTYLE
105
230
102
{ACAD_REACTORS
330
22F
330
23A
330
252
102
}
330
A
100
AcDbSymbolTableRecord
100
AcDbDimStyleTableRecord
  2
SLDDIMSTYLE0
 70
     0
 41
3.0
 44
0.0
 45
0.000000001
 73
     0
 74
     0
 77
     1
 78
    12
 79
     3
140
2.0
147
0.5
173
     1
178
     0
271
     2
272
     3
276
     2
284
    12
340
4A
  0
DIMSTYLE
105
245
102
{ACAD_REACTORS
330
244
330
25C
102
}
330
A
100
AcDbSymbolTableRecord
100
AcDbDimStyleTableRecord
  2
SLDDIMSTYLE1
 70
     0
 41
3.0
 44
0.0
 45
0.000000001
 73
     0
 74
     0
 77
     1
 78
    12
 79
     3
140
2.0
147
0.5
172
     1
173
     1
178
     0
271
     2
272
     3
276
     2
284
    12
289
     0
340
4A
  0
ENDTAB
  0
TABLE
  2
BLOCK_RECORD
  5
1
330
0
100
AcDbSymbolTable
 70
     6
  0
BLOCK_RECORD
  5
1F
330
1
100
AcDbSymbolTableRecord
100
AcDbBlockTableRecord
  2
*Model_Space
340
22
  0
BLOCK_RECORD
  5
1B
330
1
100
AcDbSymbolTableRecord
100
AcDbBlockTableRecord
  2
*Paper_Space
340
1E
  0
BLOCK_RECORD
  5
23
330
1
100
AcDbSymbolTableRecord
100
AcDbBlockTableRecord
  2
*Paper_Space0
340
26
  0
BLOCK_RECORD
  5
231
330
1
100
AcDbSymbolTableRecord
100
AcDbBlockTableRecord
  2
_D
340
0
  0
BLOCK_RECORD
  5
23B
330
1
100
AcDbSymbolTableRecord
100
AcDbBlockTableRecord
  2
_D_1
340
0
  0
BLOCK_RECORD
  5
246
330
1
100
AcDbSymbolTableRecord
100
AcDbBlockTableRecord
  2
_D_2
340
0
  0
BLOCK_RECORD
  5
253
330
1
100
AcDbSymbolTableRecord
100
AcDbBlockTableRecord
  2
_D_3
340
0
  0
BLOCK_RECORD
  5
25D
330
1
100
AcDbSymbolTableRecord
100
AcDbBlockTableRecord
  2
_D_4
340
0
  0
ENDTAB
  0
ENDSEC
  0
SECTION
  2
BLOCKS
  0
BLOCK
  5
20
330
1F
100
AcDbEntity
  8
0
100
AcDbBlockBegin
  2
*Model_Space
 70
     0
 10
0.0
 20
0.0
 30
0.0
  3
*Model_Space
  1

  0
ENDBLK
  5
21
330
1F
100
AcDbEntity
  8
0
100
AcDbBlockEnd
  0
BLOCK
  5
1C
330
1B
100
AcDbEntity
 67
     1
  8
0
100
AcDbBlockBegin
  2
*Paper_Space
 70
     0
 10
0.0
 20
0.0
 30
0.0
  3
*Paper_Space
  1

  0
ENDBLK
  5
1D
330
1B
100
AcDbEntity
 67
     1
  8
0
100
AcDbBlockEnd
  0
BLOCK
  5
24
330
23
100
AcDbEntity
  8
0
100
AcDbBlockBegin
  2
*Paper_Space0
 70
     0
 10
0.0
 20
0.0
 30
0.0
  3
*Paper_Space0
  1

  0
ENDBLK
  5
25
330
23
100
AcDbEntity
  8
0
100
AcDbBlockEnd
  0
BLOCK
  5
232
330
231
100
AcDbEntity
  8
0
100
AcDbBlockBegin
  2
_D
 70
     0
 10
0.0
 20
0.0
 30
0.0
  3
_D
  1

  0
SOLID
  5
234
330
231
100
AcDbEntity
  8
VERMASSUNG
100
AcDbTrace
 10
149.5188248678
 20
167.0570485052
 30
0.0
 11
152.5188248678
 21
166.6070485052
 31
0.0
 12
152.5188248678
 22
167.5070485052
 32
0.0
 13
152.5188248678
 23
167.5070485052
 33
0.0
  0
SOLID
  5
235
330
231
100
AcDbEntity
  8
VERMASSUNG
100
AcDbTrace
 10
239.5188248678
 20
167.0570485052
 30
0.0
 11
236.5188248678
 21
167.5070485052
 31
0.0
 12
236.5188248678
 22
166.6070485052
 32
0.0
 13
236.5188248678
 23
166.6070485052
 33
0.0
  0
LINE
  5
236
330
231
100
AcDbEntity
  8
VERMASSUNG
100
AcDbLine
 10
149.5188248678
 20
146.4133584573
 30
0.0
 11
149.5188248678
 21
168.0570485052
 31
0.0
  0
LINE
  5
237
330
231
100
AcDbEntity
  8
VERMASSUNG
100
AcDbLine
 10
239.5188248678
 20
122.6383584573
 30
0.0
 11
239.5188248678
 21
168.0570485052
 31
0.0
  0
LINE
  5
238
330
231
100
AcDbEntity
  8
VERMASSUNG
100
AcDbLine
 10
149.5188248678
 20
167.0570485052
 30
0.0
 11
239.5188248678
 21
167.0570485052
 31
0.0
  0
MTEXT
  5
239
330
231
100
AcDbEntity
  8
VERMASSUNG
100
AcDbMText
 10
192.2188248167
 20
169.6570483888
 30
0.1
 40
2.0
 41
0.0
 71
     1
 72
     1
  1
90
  7
SLDTEXTSTYLE0
 73
     1
 44
1.0
  0
ENDBLK
  5
233
330
231
100
AcDbEntity
  8
0
100
AcDbBlockEnd
  0
BLOCK
  5
23C
330
23B
100
AcDbEntity
  8
0
100
AcDbBlockBegin
  2
_D_1
 70
     0
 10
0.0
 20
0.0
 30
0.0
  3
_D_1
  1

  0
SOLID
  5
23E
330
23B
100
AcDbEntity
  8
VERMASSUNG
100
AcDbTrace
 10
99.5687998678
 20
83.6633584573
 30
0.0
 11
100.0187998678
 21
86.6633584573
 31
0.0
 12
99.1187998678
 22
86.6633584573
 32
0.0
 13
99.1187998678
 23
86.6633584573
 33
0.0
  0
SOLID
  5
23F
330
23B
100
AcDbEntity
  8
VERMASSUNG
100
AcDbTrace
 10
99.5687998678
 20
146.6133584573
 30
0.0
 11
99.1187998678
 21
143.6133584573
 31
0.0
 12
100.0187998678
 22
143.6133584573
 32
0.0
 13
100.0187998678
 23
143.6133584573
 33
0.0
  0
LINE
  5
240
330
23B
100
AcDbEntity
  8
VERMASSUNG
100
AcDbLine
 10
149.7188248678
 20
83.6633584573
 30
0.0
 11
98.5687998678
 21
83.6633584573
 31
0.0
  0
LINE
  5
241
330
23B
100
AcDbEntity
  8
VERMASSUNG
100
AcDbLine
 10
149.7188248678
 20
146.6133584573
 30
0.0
 11
98.5687998678
 21
146.6133584573
 31
0.0
  0
LINE
  5
242
330
23B
100
AcDbEntity
  8
VERMASSUNG
100
AcDbLine
 10
99.5687998678
 20
83.6633584573
 30
0.0
 11
99.5687998678
 21
146.6133584573
 31
0.0
  0
MTEXT
  5
243
330
23B
100
AcDbEntity
  8
VERMASSUNG
100
AcDbMText
 10
96.9687999842
 20
108.8383584491
 30
0.1
 40
2.0
 41
0.0
 71
     1
 72
     1
  1
KM63 XMZ
  7
SLDTEXTSTYLE0
 11
6.123233995736766E-17
 21
1.0
 31
0.0
 73
     1
 44
1.0
  0
ENDBLK
  5
23D
330
23B
100
AcDbEntity
  8
0
100
AcDbBlockEnd
  0
BLOCK
  5
247
330
246
100
AcDbEntity
  8
0
100
AcDbBlockBegin
  2
_D_2
 70
     0
 10
0.0
 20
0.0
 30
0.0
  3
_D_2
  1

  0
SOLID
  5
249
330
246
100
AcDbEntity
  8
VERMASSUNG
100
AcDbTrace
 10
248.4517667721
 20
107.1383584573
 30
0.0
 11
248.0017667721
 21
104.1383584573
 31
0.0
 12
248.9017667721
 22
104.1383584573
 32
0.0
 13
248.9017667721
 23
104.1383584573
 33
0.0
  0
SOLID
  5
24A
330
246
100
AcDbEntity
  8
VERMASSUNG
100
AcDbTrace
 10
248.4517667721
 20
123.1383584573
 30
0.0
 11
248.9017667721
 21
126.1383584573
 31
0.0
 12
248.0017667721
 22
126.1383584573
 32
0.0
 13
248.0017667721
 23
126.1383584573
 33
0.0
  0
LINE
  5
24B
330
246
100
AcDbEntity
  8
VERMASSUNG
100
AcDbLine
 10
232.5188248678
 20
107.1383584573
 30
0.0
 11
249.4517667721
 21
107.1383584573
 31
0.0
  0
LINE
  5
24C
330
246
100
AcDbEntity
  8
VERMASSUNG
100
AcDbLine
 10
232.5188248678
 20
123.1383584573
 30
0.0
 11
249.4517667721
 21
123.1383584573
 31
0.0
  0
LINE
  5
24D
330
246
100
AcDbEntity
  8
VERMASSUNG
100
AcDbLine
 10
248.4517667721
 20
107.1383584573
 30
0.0
 11
248.4517667721
 21
101.1383584573
 31
0.0
  0
LINE
  5
24E
330
246
100
AcDbEntity
  8
VERMASSUNG
100
AcDbLine
 10
248.4517667721
 20
107.1383584573
 30
0.0
 11
248.4517667721
 21
123.1383584573
 31
0.0
  0
LINE
  5
24F
330
246
100
AcDbEntity
  8
VERMASSUNG
100
AcDbLine
 10
248.4517667721
 20
123.1383584573
 30
0.0
 11
248.4517667721
 21
129.1383584573
 31
0.0
  0
MTEXT
  5
250
330
246
100
AcDbEntity
  8
VERMASSUNG
100
AcDbMText
 10
245.8517667721
 20
111.2333582922
 30
0.1
 40
2.0
 41
0.0
 71
     1
 72
     1
  1
%%c
  7
SLDTEXTSTYLE0
 11
6.123233995736766E-17
 21
1.0
 31
0.0
 73
     1
 44
1.0
  0
MTEXT
  5
251
330
246
100
AcDbEntity
  8
VERMASSUNG
100
AcDbMText
 10
245.6517667626
 20
114.8433583065
 30
0.1
 40
2.0
 41
0.0
 71
     1
 72
     1
  1
16
  7
SLDTEXTSTYLE0
 11
6.123233995736766E-17
 21
1.0
 31
0.0
 73
     1
 44
1.0
  0
ENDBLK
  5
248
330
246
100
AcDbEntity
  8
0
100
AcDbBlockEnd
  0
BLOCK
  5
254
330
253
100
AcDbEntity
  8
0
100
AcDbBlockBegin
  2
_D_3
 70
     0
 10
0.0
 20
0.0
 30
0.0
  3
_D_3
  1

  0
SOLID
  5
256
330
253
100
AcDbEntity
  8
VERMASSUNG
100
AcDbTrace
 10
167.5188248678
 20
162.6133584573
 30
0.0
 11
170.5188248678
 21
162.1633584573
 31
0.0
 12
170.5188248678
 22
163.0633584573
 32
0.0
 13
170.5188248678
 23
163.0633584573
 33
0.0
  0
SOLID
  5
257
330
253
100
AcDbEntity
  8
VERMASSUNG
100
AcDbTrace
 10
239.5188248678
 20
162.6133584573
 30
0.0
 11
236.5188248678
 21
163.0633584573
 31
0.0
 12
236.5188248678
 22
162.1633584573
 32
0.0
 13
236.5188248678
 23
162.1633584573
 33
0.0
  0
LINE
  5
258
330
253
100
AcDbEntity
  8
VERMASSUNG
100
AcDbLine
 10
167.5188248678
 20
145.6133584573
 30
0.0
 11
167.5188248678
 21
163.6133584573
 31
0.0
  0
LINE
  5
259
330
253
100
AcDbEntity
  8
VERMASSUNG
100
AcDbLine
 10
239.5188248678
 20
120.3704092648
 30
0.0
 11
239.5188248678
 21
163.6133584573
 31
0.0
  0
LINE
  5
25A
330
253
100
AcDbEntity
  8
VERMASSUNG
100
AcDbLine
 10
167.5188248678
 20
162.6133584573
 30
0.0
 11
239.5188248678
 21
162.6133584573
 31
0.0
  0
MTEXT
  5
25B
330
253
100
AcDbEntity
  8
VERMASSUNG
100
AcDbMText
 10
201.2188248167
 20
165.2133583409
 30
0.1
 40
2.0
 41
0.0
 71
     1
 72
     1
  1
72
  7
SLDTEXTSTYLE0
 73
     1
 44
1.0
  0
ENDBLK
  5
255
330
253
100
AcDbEntity
  8
0
100
AcDbBlockEnd
  0
BLOCK
  5
25E
330
25D
100
AcDbEntity
  8
0
100
AcDbBlockBegin
  2
_D_4
 70
     0
 10
0.0
 20
0.0
 30
0.0
  3
_D_4
  1

  0
SOLID
  5
260
330
25D
100
AcDbEntity
  8
VERMASSUNG
100
AcDbTrace
 10
203.5188248678
 20
107.1383584573
 30
0.0
 11
203.0688248678
 21
104.1383584573
 31
0.0
 12
203.9688248678
 22
104.1383584573
 32
0.0
 13
203.9688248678
 23
104.1383584573
 33
0.0
  0
SOLID
  5
261
330
25D
100
AcDbEntity
  8
VERMASSUNG
100
AcDbTrace
 10
203.5188248678
 20
123.1383584573
 30
0.0
 11
203.9688248678
 21
126.1383584573
 31
0.0
 12
203.0688248678
 22
126.1383584573
 32
0.0
 13
203.0688248678
 23
126.1383584573
 33
0.0
  0
LINE
  5
262
330
25D
100
AcDbEntity
  8
VERMASSUNG
100
AcDbLine
 10
203.5188248678
 20
107.1383584573
 30
0.0
 11
203.5188248678
 21
101.1383584573
 31
0.0
  0
LINE
  5
263
330
25D
100
AcDbEntity
  8
VERMASSUNG
100
AcDbLine
 10
203.5188248678
 20
107.1383584573
 30
0.0
 11
203.5188248678
 21
123.1383584573
 31
0.0
  0
LINE
  5
264
330
25D
100
AcDbEntity
  8
VERMASSUNG
100
AcDbLine
 10
203.5188248678
 20
123.1383584573
 30
0.0
 11
203.5188248678
 21
133.1690325102
 31
0.0
  0
MTEXT
  5
265
330
25D
100
AcDbEntity
  8
VERMASSUNG
100
AcDbMText
 10
200.9188248678
 20
125.35903218
 30
0.1
 40
2.0
 41
0.0
 71
     1
 72
     1
  1
%%c
  7
SLDTEXTSTYLE0
 11
-1.608122649676637E-16
 21
1.0
 31
0.0
 73
     1
 44
1.0
  0
MTEXT
  5
266
330
25D
100
AcDbEntity
  8
VERMASSUNG
100
AcDbMText
 10
200.7188248583
 20
128.9690321943
 30
0.1
 40
2.0
 41
0.0
 71
     1
 72
     1
  1
16
  7
SLDTEXTSTYLE0
 11
-1.608122649676637E-16
 21
1.0
 31
0.0
 73
     1
 44
1.0
  0
ENDBLK
  5
25F
330
25D
100
AcDbEntity
  8
0
100
AcDbBlockEnd
  0
ENDSEC
  0
SECTION
  2
ENTITIES
  0
MTEXT
  5
4B
330
1F
100
AcDbEntity
  8
KOPF_DÜNN
100
AcDbMText
 10
13.8892156294
 20
23.8770940835
 30
0.0
 40
3.0
 41
0.0
 71
     1
 72
     1
  1
KY6.E11.K01.090
  7
SLDTEXTSTYLE0
 73
     1
 44
1.0
  0
MTEXT
  5
4C
330
1F
100
AcDbEntity
  8
VERMASSUNG
100
AcDbMText
 10
13.9329988022
 20
28.9162328764
 30
0.0
 40
3.0
 41
0.0
 71
     1
 72
     1
  1
Spannzangenfutter
  7
SLDTEXTSTYLE0
 73
     1
 44
1.0
  0
MTEXT
  5
4D
330
1F
100
AcDbEntity
  8
VERMASSUNG
100
AcDbMText
 10
98.8601118557
 20
13.8584013384
 30
0.0
 40
2.0
 41
0.0
 71
     1
 72
     1
  1
Datum: 06.05.2015
  7
SLDTEXTSTYLE0
 73
     1
 44
1.0
  0
MTEXT
  5
4E
330
1F
100
AcDbEntity
  8
VERMASSUNG
100
AcDbMText
 10
13.933048693
 20
18.0701447943
 30
0.0
 40
2.0
 41
0.0
 71
     1
 72
     1
  1
KM63 XMZ / Spannzangefutter ER
  7
SLDTEXTSTYLE0
 73
     1
 44
1.0
  0
MTEXT
  5
4F
330
1F
100
AcDbEntity
  8
VERMASSUNG
100
AcDbMText
 10
13.9808475933
 20
13.9309618897
 30
0.0
 40
2.0
 41
0.0
 71
     1
 72
     1
  1
Gewicht: 704g
  7
SLDTEXTSTYLE0
 73
     1
 44
1.0
  0
LINE
  5
50
330
1F
100
AcDbEntity
  8
0
  6
SLD-Durchgehend
 62
     7
370
    15
100
AcDbLine
 10
228.3188251181
 20
107.1383580773
 30
0.0
 11
232.5188217087
 21
107.1383580773
 31
0.0
  0
LINE
  5
51
330
1F
100
AcDbEntity
  8
0
  6
SLD-Durchgehend
 62
     7
370
    15
100
AcDbLine
 10
232.5188217087
 20
123.1383588372
 30
0.0
 11
228.3188251181
 21
123.1383588372
 31
0.0
  0
LINE
  5
52
330
1F
100
AcDbEntity
  8
0
  6
SLD-Durchgehend
 62
     7
370
    15
100
AcDbLine
 10
228.3188251181
 20
123.1383588372
 30
0.0
 11
227.5188264771
 21
122.3383583336
 31
0.0
  0
LINE
  5
53
330
1F
100
AcDbEntity
  8
0
  6
SLD-Durchgehend
 62
     7
370
    15
100
AcDbLine
 10
227.5188264771
 20
107.9383585809
 30
0.0
 11
228.3188251181
 21
107.1383580773
 31
0.0
  0
LINE
  5
54
330
1F
100
AcDbEntity
  8
0
  6
SLD-Durchgehend
 62
     7
370
    15
100
AcDbLine
 10
162.7530229612
 20
83.6633583738
 30
0.0
 11
166.5188257916
 21
83.6633583738
 31
0.0
  0
LINE
  5
55
330
1F
100
AcDbEntity
  8
0
  6
SLD-Durchgehend
 62
     7
370
    15
100
AcDbLine
 10
166.5188257916
 20
146.6133585407
 30
0.0
 11
162.7530229612
 21
146.6133585407
 31
0.0
  0
ARC
  5
56
330
1F
100
AcDbEntity
  8
0
  6
SLD-Durchgehend
 62
     7
370
    15
100
AcDbCircle
 10
166.5188248678
 20
84.6633584573
 30
0.0
 40
1.0
100
AcDbArc
 50
270.0
 51
0.0
  0
ARC
  5
57
330
1F
100
AcDbEntity
  8
0
  6
SLD-Durchgehend
 62
     7
370
    15
100
AcDbCircle
 10
166.5188248678
 20
145.6133584573
 30
0.0
 40
1.0
100
AcDbArc
 50
0.0
 51
90.0
  0
ARC
  5
58
330
1F
100
AcDbEntity
  8
0
  6
SLD-Durchgehend
 62
     7
370
    15
100
AcDbCircle
 10
149.7188248678
 20
83.8633584573
 30
0.0
 40
0.2000000000000028
100
AcDbArc
 50
180.0
 51
270.0
  0
ARC
  5
59
330
1F
100
AcDbEntity
  8
0
  6
SLD-Durchgehend
 62
     7
370
    15
100
AcDbCircle
 10
149.7188248678
 20
146.4133584573
 30
0.0
 40
0.1999999999999886
100
AcDbArc
 50
90.0
 51
180.0
  0
LINE
  5
5A
330
1F
100
AcDbEntity
  8
0
  6
SLD-Durchgehend
 62
     7
370
    15
100
AcDbLine
 10
149.7188248627
 20
83.6633583738
 30
0.0
 11
156.0846271327
 21
83.6633583738
 31
0.0
  0
LINE
  5
5B
330
1F
100
AcDbEntity
  8
0
  6
SLD-Durchgehend
 62
     7
370
    15
100
AcDbLine
 10
156.0846271327
 20
146.6133585407
 30
0.0
 11
149.7188248627
 21
146.6133585407
 31
0.0
  0
LINE
  5
5C
330
1F
100
AcDbEntity
  8
0
  6
SLD-Durchgehend
 62
     7
370
    15
100
AcDbLine
 10
157.5438247396
 20
144.0859539642
 30
0.0
 11
156.0846271327
 21
146.6133585407
 31
0.0
  0
ARC
  5
5D
330
1F
100
AcDbEntity
  8
0
  6
SLD-Durchgehend
 62
     7
370
    15
100
AcDbCircle
 10
149.0898899932
 20
89.5883584573
 30
0.0
 40
0.8000000000000181
100
AcDbArc
 50
57.576802718
 51
107.5
  0
ARC
  5
5E
330
1F
100
AcDbEntity
  8
0
  6
SLD-Durchgehend
 62
     7
370
    15
100
AcDbCircle
 10
149.0898899932
 20
140.6883584573
 30
0.0
 40
0.8000000000000181
100
AcDbArc
 50
252.5
 51
302.423197282
  0
LINE
  5
5F
330
1F
100
AcDbEntity
  8
0
  6
SLD-Durchgehend
 62
     7
370
    15
100
AcDbLine
 10
119.1236616446
 20
138.6119751467
 30
0.0
 11
111.0688259228
 21
138.2074794008
 31
0.0
  0
LINE
  5
60
330
1F
100
AcDbEntity
  8
0
  6
SLD-Durchgehend
 62
     7
370
    15
100
AcDbLine
 10
148.358642809
 20
140.0800971522
 30
0.0
 11
135.0323797537
 21
139.4108785524
 31
0.0
  0
LINE
  5
61
330
1F
100
AcDbEntity
  8
0
  6
SLD-Durchgehend
 62
     7
370
    15
100
AcDbLine
 10
135.033336222
 20
90.8657899334
 30
0.0
 11
148.358642809
 21
90.1966197624
 31
0.0
  0
LINE
  5
62
330
1F
100
AcDbEntity
  8
0
  6
SLD-Durchgehend
 62
     7
370
    15
100
AcDbLine
 10
111.0688259228
 20
92.0692375137
 30
0.0
 11
119.1236728205
 21
91.6647399052
 31
0.0
  0
LINE
  5
63
330
1F
100
AcDbEntity
  8
0
  6
SLD-Durchgehend
 62
     7
370
    15
100
AcDbLine
 10
148.358642809
 20
90.1966197624
 30
0.0
 11
148.8493253578
 21
90.3513329311
 31
0.0
  0
LINE
  5
64
330
1F
100
AcDbEntity
  8
0
  6
SLD-Durchgehend
 62
     7
370
    15
100
AcDbLine
 10
148.8493253578
 20
139.9253839834
 30
0.0
 11
148.358642809
 21
140.0800971522
 31
0.0
  0
LINE
  5
65
330
1F
100
AcDbEntity
  8
0
  6
SLD-Durchgehend
 62
     7
370
    15
100
AcDbLine
 10
111.0688259228
 20
138.2074794008
 30
0.0
 11
109.5688266082
 21
137.3414537146
 31
0.0
  0
LINE
  5
66
330
1F
100
AcDbEntity
  8
0
  6
SLD-Durchgehend
 62
     7
370
    15
100
AcDbLine
 10
109.5688266082
 20
92.9352632
 30
0.0
 11
111.0688259228
 21
92.0692375137
 31
0.0
  0
LINE
  5
67
330
1F
100
AcDbEntity
  8
0
  6
SLD-Durchgehend
 62
     7
370
    15
100
AcDbLine
 10
162.7530229612
 20
146.6133585407
 30
0.0
 11
161.2938248886
 21
144.0859539642
 31
0.0
  0
ARC
  5
68
330
1F
100
AcDbEntity
  8
0
  6
SLD-Durchgehend
 62
     7
370
    15
100
AcDbCircle
 10
158.5438248678
 20
143.9883584573
 30
0.0
 40
1.0
100
AcDbArc
 50
180.0
 51
270.0
  0
LINE
  5
69
330
1F
100
AcDbEntity
  8
0
  6
SLD-Durchgehend
 62
     7
370
    15
100
AcDbLine
 10
156.0846271327
 20
83.6633583738
 30
0.0
 11
157.5438247396
 21
86.1907629504
 31
0.0
  0
ARC
  5
6A
330
1F
100
AcDbEntity
  8
0
  6
SLD-Durchgehend
 62
     7
370
    15
100
AcDbCircle
 10
171.5188248678
 20
103.1383584573
 30
0.0
 40
4.0
100
AcDbArc
 50
90.0
 51
180.0
  0
ARC
  5
6B
330
1F
100
AcDbEntity
  8
0
  6
SLD-Durchgehend
 62
     7
370
    15
100
AcDbCircle
 10
171.5188248678
 20
127.1383584573
 30
0.0
 40
4.0
100
AcDbArc
 50
180.0
 51
270.0
  0
ARC
  5
6C
330
1F
100
AcDbEntity
  8
0
  6
SLD-Durchgehend
 62
     7
370
    15
100
AcDbCircle
 10
158.5438248678
 20
86.2883584573
 30
0.0
 40
1.0
100
AcDbArc
 50
90.0
 51
180.0
  0
LINE
  5
6D
330
1F
100
AcDbEntity
  8
0
  6
SLD-Durchgehend
 62
     7
370
    15
100
AcDbLine
 10
160.2938247247
 20
142.988358645
 30
0.0
 11
158.5438249035
 21
142.988358645
 31
0.0
  0
LINE
  5
6E
330
1F
100
AcDbEntity
  8
0
  6
SLD-Durchgehend
 62
     7
370
    15
100
AcDbLine
 10
161.2938248886
 20
86.1907629504
 30
0.0
 11
162.7530229612
 21
83.6633583738
 31
0.0
  0
ARC
  5
6F
330
1F
100
AcDbEntity
  8
0
  6
SLD-Durchgehend
 62
     7
370
    15
100
AcDbCircle
 10
160.2938248678
 20
143.9883584573
 30
0.0
 40
1.0
100
AcDbArc
 50
270.0
 51
0.0
  0
LINE
  5
70
330
1F
100
AcDbEntity
  8
0
  6
SLD-Durchgehend
 62
     7
370
    15
100
AcDbLine
 10
158.5438249035
 20
87.2883582695
 30
0.0
 11
160.2938247247
 21
87.2883582695
 31
0.0
  0
ARC
  5
71
330
1F
100
AcDbEntity
  8
0
  6
SLD-Durchgehend
 62
     7
370
    15
100
AcDbCircle
 10
160.2938248678
 20
86.2883584573
 30
0.0
 40
1.0
100
AcDbArc
 50
0.0
 51
90.0
  0
LINE
  5
72
330
1F
100
AcDbEntity
  8
0
  6
SLD-Durchgehend
 62
     7
370
    15
100
AcDbLine
 10
220.8188248201
 20
123.1383588372
 30
0.0
 11
171.5188247486
 21
123.1383588372
 31
0.0
  0
LINE
  5
73
330
1F
100
AcDbEntity
  8
0
  6
SLD-Durchgehend
 62
     7
370
    15
100
AcDbLine
 10
171.5188247486
 20
107.1383580773
 30
0.0
 11
220.8188248201
 21
107.1383580773
 31
0.0
  0
ARC
  5
74
330
1F
100
AcDbEntity
  8
0
  6
SLD-Durchgehend
 62
     7
370
    15
100
AcDbCircle
 10
220.8188248678
 20
122.6383584573
 30
0.0
 40
0.5
100
AcDbArc
 50
0.0
 51
90.0
  0
ARC
  5
75
330
1F
100
AcDbEntity
  8
0
  6
SLD-Durchgehend
 62
     7
370
    15
100
AcDbCircle
 10
220.8188248678
 20
107.6383584573
 30
0.0
 40
0.5
100
AcDbArc
 50
270.0
 51
0.0
  0
ARC
  5
76
330
1F
100
AcDbEntity
  8
0
  6
SLD-Durchgehend
 62
     7
370
    15
100
AcDbCircle
 10
221.8188248678
 20
122.1383584573
 30
0.0
 40
0.5
100
AcDbArc
 50
180.0
 51
270.0
  0
ARC
  5
77
330
1F
100
AcDbEntity
  8
0
  6
SLD-Durchgehend
 62
     7
370
    15
100
AcDbCircle
 10
221.8188248678
 20
108.1383584573
 30
0.0
 40
0.5
100
AcDbArc
 50
90.0
 51
180.0
  0
LINE
  5
78
330
1F
100
AcDbEntity
  8
0
  6
SLD-Durchgehend
 62
     7
370
    15
100
AcDbLine
 10
227.5188264771
 20
121.6383585914
 30
0.0
 11
221.8188268466
 21
121.6383585914
 31
0.0
  0
LINE
  5
79
330
1F
100
AcDbEntity
  8
0
  6
SLD-Durchgehend
 62
     7
370
    15
100
AcDbLine
 10
221.8188268466
 20
108.6383583232
 30
0.0
 11
227.5188264771
 21
108.6383583232
 31
0.0
  0
LWPOLYLINE
  5
7A
330
1F
100
AcDbEntity
  8
0
  6
SLD-Durchgehend
 62
     7
370
    15
100
AcDbPolyline
 90
        6
 70
   128
 43
0.0
 10
234.2970592304
 20
122.8843252382
 10
233.5968089624
 20
122.9843599929
 10
233.0696878357
 20
123.0596639423
 10
232.7173424287
 20
123.1099982022
 10
232.540897779
 20
123.135205379
 10
232.5188217087
 20
123.1383588372
  0
LINE
  5
7B
330
1F
100
AcDbEntity
  8
0
  6
SLD-Durchgehend
 62
     7
370
    15
100
AcDbLine
 10
239.0188274308
 20
122.8843252382
 30
0.0
 11
234.2970592304
 21
122.8843252382
 31
0.0
  0
LINE
  5
7C
330
1F
100
AcDbEntity
  8
0
  6
SLD-Durchgehend
 62
     7
370
    15
100
AcDbLine
 10
239.0188274308
 20
120.7433925218
 30
0.0
 11
239.0188274308
 21
122.8843252382
 31
0.0
  0
LINE
  5
7D
330
1F
100
AcDbEntity
  8
0
  6
SLD-Durchgehend
 62
     7
370
    15
100
AcDbLine
 10
239.0188274308
 20
120.7433925218
 30
0.0
 11
234.2970592304
 21
120.7433925218
 31
0.0
  0
ELLIPSE
  5
7E
330
1F
100
AcDbEntity
  8
0
  6
SLD-Durchgehend
 62
     7
370
    15
100
AcDbEllipse
 10
288.5188248678
 20
115.1383584573
 30
0.0
 11
55.99776858350032
 21
-4.061688888874741
 31
0.0
210
0.0
220
0.0
230
1.0
 40
0.1230802444
 41
2.897839546686392
 42
3.40320005697066
  0
LINE
  5
7F
330
1F
100
AcDbEntity
  8
0
  6
SLD-Durchgehend
 62
     7
370
    15
100
AcDbLine
 10
239.0188274308
 20
117.2792909409
 30
0.0
 11
234.2970592304
 21
117.2792909409
 31
0.0
  0
LINE
  5
80
330
1F
100
AcDbEntity
  8
0
  6
SLD-Durchgehend
 62
     7
370
    15
100
AcDbLine
 10
239.0188274308
 20
112.9974259737
 30
0.0
 11
239.0188274308
 21
117.2792909409
 31
0.0
  0
LINE
  5
81
330
1F
100
AcDbEntity
  8
0
  6
SLD-Durchgehend
 62
     7
370
    15
100
AcDbLine
 10
239.0188274308
 20
112.9974259737
 30
0.0
 11
234.2970592304
 21
112.9974259737
 31
0.0
  0
ELLIPSE
  5
82
330
1F
100
AcDbEntity
  8
0
  6
SLD-Durchgehend
 62
     7
370
    15
100
AcDbEllipse
 10
288.5188248678
 20
115.1383584573
 30
0.0
 11
55.99776858350032
 21
4.061688888874812
 31
0.0
210
0.0
220
0.0
230
1.0
 40
0.1230802444
 41
2.879985250209027
 42
3.385345760493295
  0
LINE
  5
83
330
1F
100
AcDbEntity
  8
0
  6
SLD-Durchgehend
 62
     7
370
    15
100
AcDbLine
 10
239.0188274308
 20
109.5333243928
 30
0.0
 11
234.2970592304
 21
109.5333243928
 31
0.0
  0
LINE
  5
84
330
1F
100
AcDbEntity
  8
0
  6
SLD-Durchgehend
 62
     7
370
    15
100
AcDbLine
 10
239.0188274308
 20
107.3923916763
 30
0.0
 11
239.0188274308
 21
109.5333243928
 31
0.0
  0
LINE
  5
85
330
1F
100
AcDbEntity
  8
0
  6
SLD-Durchgehend
 62
     7
370
    15
100
AcDbLine
 10
239.0188274308
 20
107.3923916763
 30
0.0
 11
234.2970592304
 21
107.3923916763
 31
0.0
  0
LWPOLYLINE
  5
86
330
1F
100
AcDbEntity
  8
0
  6
SLD-Durchgehend
 62
     7
370
    15
100
AcDbPolyline
 90
        6
 70
   128
 43
0.0
 10
232.5188217087
 20
107.1383580773
 10
232.540897779
 20
107.1415115355
 10
232.7173424287
 20
107.1667187123
 10
233.0696878357
 20
107.2170529722
 10
233.5968089624
 20
107.2923569216
 10
234.2970592304
 20
107.3923916763
  0
LINE
  5
87
330
1F
100
AcDbEntity
  8
0
  6
SLD-Durchgehend
 62
     7
370
    15
100
AcDbLine
 10
228.3188251181
 20
115.1383584573
 30
0.0
 11
228.3188251181
 21
123.1383588372
 31
0.0
  0
LINE
  5
88
330
1F
100
AcDbEntity
  8
0
  6
SLD-Durchgehend
 62
     7
370
    15
100
AcDbLine
 10
228.3188251181
 20
107.1383580773
 30
0.0
 11
228.3188251181
 21
115.1383584573
 31
0.0
  0
LINE
  5
89
330
1F
100
AcDbEntity
  8
0
  6
SLD-Durchgehend
 62
     7
370
    15
100
AcDbLine
 10
239.518828444
 20
117.0205157458
 30
0.0
 11
239.0188274308
 21
117.2792909409
 31
0.0
  0
LINE
  5
8A
330
1F
100
AcDbEntity
  8
0
  6
SLD-Durchgehend
 62
     7
370
    15
100
AcDbLine
 10
239.518828444
 20
113.2562011688
 30
0.0
 11
239.518828444
 21
117.0205157458
 31
0.0
  0
LINE
  5
8B
330
1F
100
AcDbEntity
  8
0
  6
SLD-Durchgehend
 62
     7
370
    15
100
AcDbLine
 10
239.518828444
 20
113.2562011688
 30
0.0
 11
239.0188274308
 21
112.9974259737
 31
0.0
  0
LINE
  5
8C
330
1F
100
AcDbEntity
  8
0
  6
SLD-Durchgehend
 62
     7
370
    15
100
AcDbLine
 10
227.5188264771
 20
115.1383584573
 30
0.0
 11
227.5188264771
 21
122.3383583336
 31
0.0
  0
LINE
  5
8D
330
1F
100
AcDbEntity
  8
0
  6
SLD-Durchgehend
 62
     7
370
    15
100
AcDbLine
 10
227.5188264771
 20
107.9383585809
 30
0.0
 11
227.5188264771
 21
115.1383584573
 31
0.0
  0
LINE
  5
8E
330
1F
100
AcDbEntity
  8
0
  6
SLD-Durchgehend
 62
     7
370
    15
100
AcDbLine
 10
234.2970592304
 20
120.7433925218
 30
0.0
 11
239.518828444
 21
120.3704094722
 31
0.0
  0
LINE
  5
8F
330
1F
100
AcDbEntity
  8
0
  6
SLD-Durchgehend
 62
     7
370
    15
100
AcDbLine
 10
239.518828444
 20
120.3704094722
 30
0.0
 11
239.518828444
 21
117.0205157458
 31
0.0
  0
LINE
  5
90
330
1F
100
AcDbEntity
  8
0
  6
SLD-Durchgehend
 62
     7
370
    15
100
AcDbLine
 10
239.518828444
 20
113.2562011688
 30
0.0
 11
239.518828444
 21
109.9063074424
 31
0.0
  0
LINE
  5
91
330
1F
100
AcDbEntity
  8
0
  6
SLD-Durchgehend
 62
     7
370
    15
100
AcDbLine
 10
234.2970592304
 20
109.5333243928
 30
0.0
 11
239.518828444
 21
109.9063074424
 31
0.0
  0
LINE
  5
92
330
1F
100
AcDbEntity
  8
0
  6
SLD-Durchgehend
 62
     7
370
    15
100
AcDbLine
 10
239.518828444
 20
120.4846175595
 30
0.0
 11
239.0188274308
 21
120.7433925218
 31
0.0
  0
LINE
  5
93
330
1F
100
AcDbEntity
  8
0
  6
SLD-Durchgehend
 62
     7
370
    15
100
AcDbLine
 10
239.518828444
 20
120.3704094722
 30
0.0
 11
239.518828444
 21
120.4846175595
 31
0.0
  0
LWPOLYLINE
  5
94
330
1F
100
AcDbEntity
  8
0
  6
SLD-Durchgehend
 62
     7
370
    15
100
AcDbPolyline
 90
        3
 70
   128
 43
0.0
 10
239.518828444
 20
122.3667743823
 10
239.2647487445
 20
122.6300671904
 10
239.0188274308
 20
122.8843252382
  0
LINE
  5
95
330
1F
100
AcDbEntity
  8
0
  6
SLD-Durchgehend
 62
     7
370
    15
100
AcDbLine
 10
239.518828444
 20
120.4846175595
 30
0.0
 11
239.518828444
 21
122.3667743823
 31
0.0
  0
LINE
  5
96
330
1F
100
AcDbEntity
  8
0
  6
SLD-Durchgehend
 62
     7
370
    15
100
AcDbLine
 10
239.518828444
 20
109.792099355
 30
0.0
 11
239.0188274308
 21
109.5333243928
 31
0.0
  0
LWPOLYLINE
  5
97
330
1F
100
AcDbEntity
  8
0
  6
SLD-Durchgehend
 62
     7
370
    15
100
AcDbPolyline
 90
        3
 70
   128
 43
0.0
 10
239.518828444
 20
107.9099425322
 10
239.1397280021
 20
107.5173225461
 10
239.0188274308
 20
107.3923916763
  0
LINE
  5
98
330
1F
100
AcDbEntity
  8
0
  6
SLD-Durchgehend
 62
     7
370
    15
100
AcDbLine
 10
239.518828444
 20
107.9099425322
 30
0.0
 11
239.518828444
 21
109.792099355
 31
0.0
  0
LINE
  5
99
330
1F
100
AcDbEntity
  8
0
  6
SLD-Durchgehend
 62
     7
370
    15
100
AcDbLine
 10
239.518828444
 20
109.9063074424
 30
0.0
 11
239.518828444
 21
109.792099355
 31
0.0
  0
LWPOLYLINE
  5
9A
330
1F
100
AcDbEntity
  8
0
  6
SLD-Durchgehend
 62
     7
370
    15
100
AcDbPolyline
 90
        7
 70
   128
 43
0.0
 10
162.7530229612
 20
143.7860960348
 10
163.6343735604
 20
143.4025773986
 10
164.1698207109
 20
142.8831583096
 10
164.2981774508
 20
142.2723503991
 10
164.0095708294
 20
141.6374305471
 10
163.3378246202
 20
141.0545325114
 10
162.7530229612
 20
140.7532440706
  0
LINE
  5
9B
330
1F
100
AcDbEntity
  8
0
  6
SLD-Durchgehend
 62
     7
370
    15
100
AcDbLine
 10
162.7530229612
 20
143.7860960348
 30
0.0
 11
162.7530229612
 21
146.6133585407
 31
0.0
  0
LINE
  5
9C
330
1F
100
AcDbEntity
  8
0
  6
SLD-Durchgehend
 62
     7
370
    15
100
AcDbLine
 10
162.7530229612
 20
83.6633583738
 30
0.0
 11
162.7530229612
 21
85.601612015
 31
0.0
  0
ARC
  5
9D
330
1F
100
AcDbEntity
  8
0
  6
SLD-Durchgehend
 62
     7
370
    15
100
AcDbCircle
 10
162.7194722192
 20
91.2643123456
 30
0.0
 40
5.662799721559777
100
AcDbArc
 50
270.3394658576
 51
312.1390382247
  0
ARC
  5
9E
330
1F
100
AcDbEntity
  8
0
  6
SLD-Durchgehend
 62
     7
370
    15
100
AcDbCircle
 10
161.8430902119
 20
85.0320518971
 30
0.0
 40
5.989801162284687
100
AcDbArc
 50
38.6829749428
 51
81.2621564487
  0
LINE
  5
9F
330
1F
100
AcDbEntity
  8
0
  6
SLD-Durchgehend
 62
     7
370
    15
100
AcDbLine
 10
162.7530229612
 20
90.952334015
 30
0.0
 11
162.7530229612
 21
140.7532440706
 31
0.0
  0
LINE
  5
A0
330
1F
100
AcDbEntity
  8
0
  6
SLD-Durchgehend
 62
     7
370
    15
100
AcDbLine
 10
167.5188240929
 20
115.1383584573
 30
0.0
 11
167.5188240929
 21
145.6133583768
 31
0.0
  0
LINE
  5
A1
330
1F
100
AcDbEntity
  8
0
  6
SLD-Durchgehend
 62
     7
370
    15
100
AcDbLine
 10
167.5188240929
 20
84.6633585377
 30
0.0
 11
167.5188240929
 21
115.1383584573
 31
0.0
  0
ARC
  5
A2
330
1F
100
AcDbEntity
  8
0
  6
SLD-Durchgehend
 62
     7
370
    15
100
AcDbCircle
 10
165.2448400969
 20
87.9204906731
 30
0.0
 40
1.534436115258178
100
AcDbArc
 50
326.1257748222
 51
33.8742251778
  0
LINE
  5
A3
330
1F
100
AcDbEntity
  8
0
  6
SLD-Durchgehend
 62
     7
370
    15
100
AcDbLine
 10
149.5188248678
 20
115.1383584573
 30
0.0
 11
149.5188248678
 21
146.4133588805
 31
0.0
  0
LINE
  5
A4
330
1F
100
AcDbEntity
  8
0
  6
SLD-Durchgehend
 62
     7
370
    15
100
AcDbLine
 10
149.5188248678
 20
83.8633580341
 30
0.0
 11
149.5188248678
 21
115.1383584573
 31
0.0
  0
LINE
  5
A5
330
1F
100
AcDbEntity
  8
0
  6
SLD-Durchgehend
 62
     7
370
    15
100
AcDbLine
 10
156.0846271327
 20
90.0806328489
 30
0.0
 11
156.0846271327
 21
146.6133585407
 31
0.0
  0
LWPOLYLINE
  5
A6
330
1F
100
AcDbEntity
  8
0
  6
SLD-Durchgehend
 62
     7
370
    15
100
AcDbPolyline
 90
        9
 70
   128
 43
0.0
 10
156.0846271327
 20
86.114359109
 10
155.1237732506
 20
86.5961024745
 10
154.6863370909
 20
86.9831321968
 10
154.4166954568
 20
87.4225432261
 10
154.3321853837
 20
87.8625745161
 10
154.4043437912
 20
88.3253207638
 10
154.96465772
 20
89.2181424631
 10
156.0400694011
 20
90.0546061083
 10
156.0846271327
 20
90.0806328489
  0
LINE
  5
A7
330
1F
100
AcDbEntity
  8
0
  6
SLD-Durchgehend
 62
     7
370
    15
100
AcDbLine
 10
156.0846271327
 20
83.6633583738
 30
0.0
 11
156.0846271327
 21
86.114359109
 31
0.0
  0
LINE
  5
A8
330
1F
100
AcDbEntity
  8
0
  6
SLD-Durchgehend
 62
     7
370
    15
100
AcDbLine
 10
157.5438247396
 20
141.233061461
 30
0.0
 11
157.5438247396
 21
144.0859539642
 31
0.0
  0
LWPOLYLINE
  5
A9
330
1F
100
AcDbEntity
  8
0
  6
SLD-Durchgehend
 62
     7
370
    15
100
AcDbPolyline
 90
        8
 70
   128
 43
0.0
 10
157.5438247396
 20
139.0380030705
 10
157.1376810184
 20
140.0438631161
 10
156.9221427067
 20
140.7211059912
 10
156.8365890867
 20
141.1688504948
 10
156.8583857602
 20
141.4574431463
 10
156.9692862554
 20
141.5579254015
 10
157.2771349324
 20
141.4466751947
 10
157.5438247396
 20
141.233061461
  0
LINE
  5
AA
330
1F
100
AcDbEntity
  8
0
  6
SLD-Durchgehend
 62
     7
370
    15
100
AcDbLine
 10
157.5438247396
 20
91.6848024561
 30
0.0
 11
157.5438247396
 21
139.0380030705
 31
0.0
  0
LWPOLYLINE
  5
AB
330
1F
100
AcDbEntity
  8
0
  6
SLD-Durchgehend
 62
     7
370
    15
100
AcDbPolyline
 90
        3
 70
   128
 43
0.0
 10
157.1763011029
 20
90.8818254455
 10
157.313127756
 20
91.1879157855
 10
157.5438247396
 20
91.6848024561
  0
LINE
  5
AC
330
1F
100
AcDbEntity
  8
0
  6
SLD-Durchgehend
 62
     7
370
    15
100
AcDbLine
 10
156.0846271327
 20
90.0806328489
 30
0.0
 11
157.1763011029
 21
90.8818254455
 31
0.0
  0
LINE
  5
AD
330
1F
100
AcDbEntity
  8
0
  6
SLD-Durchgehend
 62
     7
370
    15
100
AcDbLine
 10
161.2938248886
 20
92.4186231776
 30
0.0
 11
161.2938248886
 21
138.1725529416
 31
0.0
  0
LWPOLYLINE
  5
AE
330
1F
100
AcDbEntity
  8
0
  6
SLD-Durchgehend
 62
     7
370
    15
100
AcDbPolyline
 90
        3
 70
   128
 43
0.0
 10
162.7530229612
 20
140.7532440706
 10
162.0409560724
 20
139.4411949648
 10
161.2938248886
 20
138.1725529416
  0
LINE
  5
AF
330
1F
100
AcDbEntity
  8
0
  6
SLD-Durchgehend
 62
     7
370
    15
100
AcDbLine
 10
161.759535536
 20
91.6456440671
 30
0.0
 11
162.7530229612
 21
90.952334015
 31
0.0
  0
LINE
  5
B0
330
1F
100
AcDbEntity
  8
0
  6
SLD-Durchgehend
 62
     7
370
    15
100
AcDbLine
 10
161.2938248886
 20
92.4186231776
 30
0.0
 11
161.759535536
 21
91.6456440671
 31
0.0
  0
ARC
  5
B1
330
1F
100
AcDbEntity
  8
0
  6
SLD-Durchgehend
 62
     7
370
    15
100
AcDbCircle
 10
159.1766573529
 20
139.040278982
 30
0.0
 40
1.635150813704121
100
AcDbArc
 50
183.0513043892
 51
247.2309357962
  0
ARC
  5
B2
330
1F
100
AcDbEntity
  8
0
  6
SLD-Durchgehend
 62
     7
370
    15
100
AcDbCircle
 10
159.0406630177
 20
91.6824456616
 30
0.0
 40
1.499383373271258
100
AcDbArc
 50
109.3514415589
 51
176.6611665917
  0
ARC
  5
B3
330
1F
100
AcDbEntity
  8
0
  6
SLD-Durchgehend
 62
     7
370
    15
100
AcDbCircle
 10
160.3492993312
 20
138.1199509547
 30
0.0
 40
0.9450882062459054
100
AcDbArc
 50
266.6349290665
 51
358.0228404851
  0
ARC
  5
B4
330
1F
100
AcDbEntity
  8
0
  6
SLD-Durchgehend
 62
     7
370
    15
100
AcDbCircle
 10
160.3466204643
 20
92.4670090488
 30
0.0
 40
0.9479280243922402
100
AcDbArc
 50
2.2388596643
 51
93.1927942762
  0
LWPOLYLINE
  5
B5
330
1F
100
AcDbEntity
  8
0
  6
SLD-Durchgehend
 62
     7
370
    15
100
AcDbPolyline
 90
        3
 70
   128
 43
0.0
 10
160.2938247247
 20
137.1764922722
 10
159.0804809107
 20
137.359534411
 10
158.5438249035
 20
137.5325517936
  0
LWPOLYLINE
  5
B6
330
1F
100
AcDbEntity
  8
0
  6
SLD-Durchgehend
 62
     7
370
    15
100
AcDbPolyline
 90
        3
 70
   128
 43
0.0
 10
158.5438249035
 20
93.0971196129
 10
159.879874192
 20
93.3834659143
 10
160.2938247247
 20
93.4134656771
  0
LINE
  5
B7
330
1F
100
AcDbEntity
  8
0
  6
SLD-Durchgehend
 62
     7
370
    15
100
AcDbLine
 10
148.358642809
 20
115.1383584573
 30
0.0
 11
148.358642809
 21
140.0800971522
 31
0.0
  0
LINE
  5
B8
330
1F
100
AcDbEntity
  8
0
  6
SLD-Durchgehend
 62
     7
370
    15
100
AcDbLine
 10
148.358642809
 20
90.1966197624
 30
0.0
 11
148.358642809
 21
115.1383584573
 31
0.0
  0
LINE
  5
B9
330
1F
100
AcDbEntity
  8
0
  6
SLD-Durchgehend
 62
     7
370
    15
100
AcDbLine
 10
111.0688259228
 20
104.2335629671
 30
0.0
 11
111.0688259228
 21
92.0692375137
 31
0.0
  0
LINE
  5
BA
330
1F
100
AcDbEntity
  8
0
  6
SLD-Durchgehend
 62
     7
370
    15
100
AcDbLine
 10
115.361071877
 20
104.2374670713
 30
0.0
 11
111.0688259228
 21
104.2333804278
 31
0.0
  0
ARC
  5
BB
330
1F
100
AcDbEntity
  8
0
  6
SLD-Durchgehend
 62
     7
370
    15
100
AcDbCircle
 10
115.3321538412
 20
108.6147726031
 30
0.0
 40
4.377401052139843
100
AcDbArc
 50
270.3785107733
 51
325.8510757911
  0
LINE
  5
BC
330
1F
100
AcDbEntity
  8
0
  6
SLD-Durchgehend
 62
     7
370
    15
100
AcDbLine
 10
123.3637814744
 20
106.1619576274
 30
0.0
 11
118.9532556905
 21
106.158474481
 31
0.0
  0
ARC
  5
BD
330
1F
100
AcDbEntity
  8
0
  6
SLD-Durchgehend
 62
     7
370
    15
100
AcDbCircle
 10
125.5577175171
 20
110.4050954483
 30
0.0
 40
4.776771860993997
100
AcDbArc
 50
242.6652697253
 51
270.0154952903
  0
LINE
  5
BE
330
1F
100
AcDbEntity
  8
0
  6
SLD-Durchgehend
 62
     7
370
    15
100
AcDbLine
 10
127.4738830848
 20
105.6298194661
 30
0.0
 11
125.5590093656
 21
105.628323762
 31
0.0
  0
ARC
  5
BF
330
1F
100
AcDbEntity
  8
0
  6
SLD-Durchgehend
 62
     7
370
    15
100
AcDbCircle
 10
127.3731210541
 20
110.6703229128
 30
0.0
 40
5.041510486277093
100
AcDbArc
 50
271.1452170025
 51
1.0610798139
  0
LINE
  5
C0
330
1F
100
AcDbEntity
  8
0
  6
SLD-Durchgehend
 62
     7
370
    15
100
AcDbLine
 10
132.4137670322
 20
119.51303391
 30
0.0
 11
132.4137670322
 21
110.7636830046
 31
0.0
  0
ARC
  5
C1
330
1F
100
AcDbEntity
  8
0
  6
SLD-Durchgehend
 62
     7
370
    15
100
AcDbCircle
 10
127.3676935246
 20
119.6011715479
 30
0.0
 40
5.046843180319625
100
AcDbArc
 50
358.9993405349
 51
88.7943626487
  0
LINE
  5
C2
330
1F
100
AcDbEntity
  8
0
  6
SLD-Durchgehend
 62
     7
370
    15
100
AcDbLine
 10
125.5590093656
 20
124.6483931525
 30
0.0
 11
127.4738830848
 21
124.6468974485
 31
0.0
  0
ARC
  5
C3
330
1F
100
AcDbEntity
  8
0
  6
SLD-Durchgehend
 62
     7
370
    15
100
AcDbCircle
 10
125.5574799246
 20
119.8718196886
 30
0.0
 40
4.776573708749272
100
AcDbArc
 50
89.9816541063
 51
117.3527724719
  0
LINE
  5
C4
330
1F
100
AcDbEntity
  8
0
  6
SLD-Durchgehend
 62
     7
370
    15
100
AcDbLine
 10
117.9705036207
 20
124.1184687449
 30
0.0
 11
123.362513013
 21
124.1142014249
 31
0.0
  0
LINE
  5
C5
330
1F
100
AcDbEntity
  8
0
  6
SLD-Durchgehend
 62
     7
370
    15
100
AcDbLine
 10
116.8869992121
 20
124.2558956354
 30
0.0
 11
117.9704961701
 21
124.1184454619
 31
0.0
  0
LINE
  5
C6
330
1F
100
AcDbEntity
  8
0
  6
SLD-Durchgehend
 62
     7
370
    15
100
AcDbLine
 10
111.0688259228
 20
124.2606854274
 30
0.0
 11
116.8869992121
 21
124.2558956354
 31
0.0
  0
LINE
  5
C7
330
1F
100
AcDbEntity
  8
0
  6
SLD-Durchgehend
 62
     7
370
    15
100
AcDbLine
 10
111.0688259228
 20
124.2606854274
 30
0.0
 11
111.0688259228
 21
138.2074794008
 31
0.0
  0
LWPOLYLINE
  5
C8
330
1F
100
AcDbEntity
  8
0
  6
SLD-Durchgehend
 62
     7
370
    15
100
AcDbPolyline
 90
       18
 70
   128
 43
0.0
 10
135.0324645041
 20
139.4091891332
 10
134.893361233
 20
139.3543342336
 10
134.4379603265
 20
139.1799105539
 10
133.7145210578
 20
138.9146810605
 10
132.747201003
 20
138.5943861886
 10
131.5666974856
 20
138.2575771047
 10
130.2144599481
 20
137.947396396
 10
128.7165970875
 20
137.6972189381
 10
127.1796838714
 20
137.5505635722
 10
125.6122419013
 20
137.5170098825
 10
124.1010574027
 20
137.5973383172
 10
122.7169332428
 20
137.7649894192
 10
121.4962021782
 20
137.9878791257
 10
120.5008940174
 20
138.2192382796
 10
119.7537218554
 20
138.4228179439
 10
119.2825694902
 20
138.5612758084
 10
119.119124241
 20
138.6116920247
 10
119.1237473263
 20
138.6102801396
  0
LWPOLYLINE
  5
C9
330
1F
100
AcDbEntity
  8
0
  6
SLD-Durchgehend
 62
     7
370
    15
100
AcDbPolyline
 90
       18
 70
   128
 43
0.0
 10
119.1237529142
 20
91.66634178
 10
119.119355209
 20
91.6650062634
 10
119.2821448071
 20
91.7151784732
 10
119.7548636569
 20
91.8537909372
 10
120.5015831961
 20
92.0573426618
 10
121.49465432
 20
92.2884093805
 10
122.7052134796
 20
92.5081959202
 10
124.0972631945
 20
92.675595565
 10
125.6160025819
 20
92.758006437
 10
127.1684092803
 20
92.7266990973
 10
128.7050691767
 20
92.5805429204
 10
130.2062289192
 20
92.3302760555
 10
131.562160082
 20
92.0198792799
 10
132.7449900432
 20
91.6829230471
 10
133.7124628349
 20
91.3629541381
 10
134.4358853398
 20
91.0979146345
 10
134.8911223336
 20
90.9233046903
 10
135.0334014146
 20
90.8670770212
  0
LINE
  5
CA
330
1F
100
AcDbEntity
  8
0
  6
SLD-Durchgehend
 62
     7
370
    15
100
AcDbLine
 10
132.4137670322
 20
110.7636830046
 30
0.0
 11
131.5188256426
 21
110.9258583954
 31
0.0
  0
LINE
  5
CB
330
1F
100
AcDbEntity
  8
0
  6
SLD-Durchgehend
 62
     7
370
    15
100
AcDbLine
 10
131.5188256426
 20
110.9258583954
 30
0.0
 11
131.5188256426
 21
119.3508585191
 31
0.0
  0
LINE
  5
CC
330
1F
100
AcDbEntity
  8
0
  6
SLD-Durchgehend
 62
     7
370
    15
100
AcDbLine
 10
132.4137670322
 20
119.51303391
 30
0.0
 11
131.5188256426
 21
119.3508585191
 31
0.0
  0
LINE
  5
CD
330
1F
100
AcDbEntity
  8
0
  6
SLD-Durchgehend
 62
     7
370
    15
100
AcDbLine
 10
127.4738830848
 20
105.6298194661
 30
0.0
 11
127.518824987
 21
106.9258582054
 31
0.0
  0
ARC
  5
CE
330
1F
100
AcDbEntity
  8
0
  6
SLD-Durchgehend
 62
     7
370
    15
100
AcDbCircle
 10
127.518825302
 20
110.9258585461
 30
0.0
 40
4.000000340633792
100
AcDbArc
 50
269.9999954877
 51
359.9999978422
  0
ARC
  5
CF
330
1F
100
AcDbEntity
  8
0
  6
SLD-Durchgehend
 62
     7
370
    15
100
AcDbCircle
 10
127.5188246649
 20
119.3508577314
 30
0.0
 40
4.000000977739112
100
AcDbArc
 50
0.0000112837
 51
89.9999953864
  0
LINE
  5
D0
330
1F
100
AcDbEntity
  8
0
  6
SLD-Durchgehend
 62
     7
370
    15
100
AcDbLine
 10
127.4738830848
 20
124.6468974485
 30
0.0
 11
127.518824987
 21
123.3508587091
 31
0.0
  0
LINE
  5
D1
330
1F
100
AcDbEntity
  8
0
  6
SLD-Durchgehend
 62
     7
370
    15
100
AcDbLine
 10
125.5590093656
 20
124.6483931525
 30
0.0
 11
125.6039512678
 21
123.3508587091
 31
0.0
  0
LINE
  5
D2
330
1F
100
AcDbEntity
  8
0
  6
SLD-Durchgehend
 62
     7
370
    15
100
AcDbLine
 10
125.6039512678
 20
123.3508587091
 30
0.0
 11
124.5188393964
 21
123.2008626892
 31
0.0
  0
LINE
  5
D3
330
1F
100
AcDbEntity
  8
0
  6
SLD-Durchgehend
 62
     7
370
    15
100
AcDbLine
 10
124.5188971384
 20
123.2008580326
 30
0.0
 11
124.1922282948
 21
123.2008580326
 31
0.0
  0
ARC
  5
D4
330
1F
100
AcDbEntity
  8
0
  6
SLD-Durchgehend
 62
     7
370
    15
100
AcDbCircle
 10
144.3986990588
 20
142.3234326379
 30
0.0
 40
27.82172132157573
100
AcDbArc
 50
220.8811528239
 51
223.420517646
  0
LINE
  5
D5
330
1F
100
AcDbEntity
  8
0
  6
SLD-Durchgehend
 62
     7
370
    15
100
AcDbLine
 10
124.5188431217
 20
107.075853294
 30
0.0
 11
125.6039512678
 21
106.9258582054
 31
0.0
  0
LINE
  5
D6
330
1F
100
AcDbEntity
  8
0
  6
SLD-Durchgehend
 62
     7
370
    15
100
AcDbLine
 10
125.5590093656
 20
105.628323762
 30
0.0
 11
125.6039512678
 21
106.9258582054
 31
0.0
  0
LINE
  5
D7
330
1F
100
AcDbEntity
  8
0
  6
SLD-Durchgehend
 62
     7
370
    15
100
AcDbLine
 10
124.1922562344
 20
107.0764297827
 30
0.0
 11
123.3649232759
 21
106.1618225856
 31
0.0
  0
LINE
  5
D8
330
1F
100
AcDbEntity
  8
0
  6
SLD-Durchgehend
 62
     7
370
    15
100
AcDbLine
 10
124.1942045613
 20
107.075858882
 30
0.0
 11
124.5189250781
 21
107.075858882
 31
0.0
  0
LINE
  5
D9
330
1F
100
AcDbEntity
  8
0
  6
SLD-Durchgehend
 62
     7
370
    15
100
AcDbLine
 10
117.970417939
 20
124.1184687449
 30
0.0
 11
117.9449220522
 21
123.2208823993
 31
0.0
  0
LINE
  5
DA
330
1F
100
AcDbEntity
  8
0
  6
SLD-Durchgehend
 62
     7
370
    15
100
AcDbLine
 10
124.1922264321
 20
123.2008580326
 30
0.0
 11
118.0188243611
 21
123.2008580326
 31
0.0
  0
LINE
  5
DB
330
1F
100
AcDbEntity
  8
0
  6
SLD-Durchgehend
 62
     7
370
    15
100
AcDbLine
 10
118.0188243611
 20
123.2008580326
 30
0.0
 11
117.9449369533
 21
123.2209224461
 31
0.0
  0
LINE
  5
DC
330
1F
100
AcDbEntity
  8
0
  6
SLD-Durchgehend
 62
     7
370
    15
100
AcDbLine
 10
118.7831887378
 20
106.9309357761
 30
0.0
 11
118.9553455784
 21
106.158765985
 31
0.0
  0
LINE
  5
DD
330
1F
100
AcDbEntity
  8
0
  6
SLD-Durchgehend
 62
     7
370
    15
100
AcDbLine
 10
118.7812534495
 20
106.9315467237
 30
0.0
 11
118.8688257112
 21
107.075858882
 31
0.0
  0
LINE
  5
DE
330
1F
100
AcDbEntity
  8
0
  6
SLD-Durchgehend
 62
     7
370
    15
100
AcDbLine
 10
118.8688257112
 20
107.075858882
 30
0.0
 11
124.1933980359
 21
107.075858882
 31
0.0
  0
LINE
  5
DF
330
1F
100
AcDbEntity
  8
0
  6
SLD-Durchgehend
 62
     7
370
    15
100
AcDbLine
 10
127.518824987
 20
123.3508587091
 30
0.0
 11
125.6039512678
 21
123.3508587091
 31
0.0
  0
LINE
  5
E0
330
1F
100
AcDbEntity
  8
0
  6
SLD-Durchgehend
 62
     7
370
    15
100
AcDbLine
 10
125.6039512678
 20
106.9258582054
 30
0.0
 11
127.518824987
 21
106.9258582054
 31
0.0
  0
ARC
  5
E1
330
1F
100
AcDbEntity
  8
0
  6
SLD-Durchgehend
 62
     7
370
    15
100
AcDbCircle
 10
115.4061650523
 20
109.0783615013
 30
0.0
 40
4.000003277407242
100
AcDbArc
 50
270.0000209676
 51
327.5479978883
  0
LINE
  5
E2
330
1F
100
AcDbEntity
  8
0
  6
SLD-Durchgehend
 62
     7
370
    15
100
AcDbLine
 10
115.4061665161
 20
105.0783582239
 30
0.0
 11
115.361071877
 21
104.2374670713
 31
0.0
  0
LINE
  5
E3
330
1F
100
AcDbEntity
  8
0
  6
SLD-Durchgehend
 62
     7
370
    15
100
AcDbLine
 10
117.9449332281
 20
123.2209243088
 30
0.0
 11
116.9336994512
 21
123.3508587091
 31
0.0
  0
LINE
  5
E4
330
1F
100
AcDbEntity
  8
0
  6
SLD-Durchgehend
 62
     7
370
    15
100
AcDbLine
 10
116.8869992121
 20
124.2558956354
 30
0.0
 11
116.9336994512
 21
123.3508587091
 31
0.0
  0
LINE
  5
E5
330
1F
100
AcDbEntity
  8
0
  6
SLD-Durchgehend
 62
     7
370
    15
100
AcDbLine
 10
110.1551649495
 20
123.8783598154
 30
0.0
 11
111.0688259228
 21
124.2606854274
 31
0.0
  0
LINE
  5
E6
330
1F
100
AcDbEntity
  8
0
  6
SLD-Durchgehend
 62
     7
370
    15
100
AcDbLine
 10
116.9336994512
 20
123.3508587091
 30
0.0
 11
111.0688259228
 21
123.3508587091
 31
0.0
  0
LINE
  5
E7
330
1F
100
AcDbEntity
  8
0
  6
SLD-Durchgehend
 62
     7
370
    15
100
AcDbLine
 10
111.0688259228
 20
123.3508587091
 30
0.0
 11
110.1551649495
 21
123.8783598154
 31
0.0
  0
LINE
  5
E8
330
1F
100
AcDbEntity
  8
0
  6
SLD-Durchgehend
 62
     7
370
    15
100
AcDbLine
 10
109.5688266082
 20
124.216883464
 30
0.0
 11
110.1551649495
 21
123.8783598154
 31
0.0
  0
LINE
  5
E9
330
1F
100
AcDbEntity
  8
0
  6
SLD-Durchgehend
 62
     7
370
    15
100
AcDbLine
 10
109.5688266082
 20
124.216883464
 30
0.0
 11
109.5688266082
 21
137.3414537146
 31
0.0
  0
LINE
  5
EA
330
1F
100
AcDbEntity
  8
0
  6
SLD-Durchgehend
 62
     7
370
    15
100
AcDbLine
 10
110.2086899205
 20
104.5817602633
 30
0.0
 11
111.0688259228
 21
105.0783582239
 31
0.0
  0
LINE
  5
EB
330
1F
100
AcDbEntity
  8
0
  6
SLD-Durchgehend
 62
     7
370
    15
100
AcDbLine
 10
111.0688259228
 20
105.0783582239
 30
0.0
 11
115.4061665161
 21
105.0783582239
 31
0.0
  0
LINE
  5
EC
330
1F
100
AcDbEntity
  8
0
  6
SLD-Durchgehend
 62
     7
370
    15
100
AcDbLine
 10
111.0688259228
 20
104.2333804278
 30
0.0
 11
110.2086899205
 21
104.5817602633
 31
0.0
  0
LINE
  5
ED
330
1F
100
AcDbEntity
  8
0
  6
SLD-Durchgehend
 62
     7
370
    15
100
AcDbLine
 10
162.7530229612
 20
85.601612015
 30
0.0
 11
161.759535536
 21
87.5788750334
 31
0.0
  0
LWPOLYLINE
  5
EE
330
1F
100
AcDbEntity
  8
0
  6
SLD-Durchgehend
 62
     7
370
    15
100
AcDbPolyline
 90
       10
 70
   128
 43
0.0
 10
161.759535536
 20
87.5788750334
 10
162.5356448217
 20
87.7355588807
 10
163.2350205778
 20
87.9654595836
 10
163.8303787781
 20
88.2596066429
 10
164.2984922378
 20
88.6065280272
 10
164.621097721
 20
88.992684169
 10
164.7856093346
 20
89.4030137195
 10
164.7856093346
 20
89.821505381
 10
164.621097721
 20
90.2318349316
 10
164.4988402127
 20
90.4046269341
  0
LINE
  5
EF
330
1F
100
AcDbEntity
  8
0
  6
SLD-Durchgehend
 62
     7
370
    15
100
AcDbLine
 10
109.5688266082
 20
92.9352632
 30
0.0
 11
109.5688266082
 21
104.212333469
 31
0.0
  0
LINE
  5
F0
330
1F
100
AcDbEntity
  8
0
  6
SLD-Durchgehend
 62
     7
370
    15
100
AcDbLine
 10
110.2086899205
 20
104.5817602633
 30
0.0
 11
109.5688266082
 21
104.212333469
 31
0.0
  0
ARC
  5
F1
330
1F
100
AcDbEntity
  8
0
  6
SLD-Durchgehend
 62
     7
370
    15
100
AcDbCircle
 10
157.7494088641
 20
89.6055085328
 30
0.0
 40
1.386778252398805
100
AcDbArc
 50
117.5067796727
 51
245.5898588898
  0
LINE
  5
F2
330
1F
100
AcDbEntity
  8
0
  6
SLD-Durchgehend
 62
     7
370
    15
100
AcDbLine
 10
157.1763011029
 20
88.3426936551
 30
0.0
 11
156.0846271327
 21
86.114359109
 31
0.0
  0
LINE
  5
F3
330
1F
100
AcDbEntity
  8
0
  6
SLD-Durchgehend
 62
     7
370
    15
100
AcDbLine
 10
157.5438247396
 20
141.233061461
 30
0.0
 11
157.5438247396
 21
141.1482980682
 31
0.0
  0
LWPOLYLINE
  5
F4
330
1F
100
AcDbEntity
  8
0
  6
SLD-Durchgehend
 62
     7
370
    15
100
AcDbPolyline
 90
        6
 70
   128
 43
0.0
 10
157.5438247396
 20
141.1482980682
 10
157.5586206614
 20
141.0082103892
 10
157.6300791799
 20
140.844649656
 10
157.8218226655
 20
140.6921958758
 10
158.193285331
 20
140.6253325029
 10
158.5438249035
 20
140.6739326401
  0
LWPOLYLINE
  5
F5
330
1F
100
AcDbEntity
  8
0
  6
SLD-Durchgehend
 62
     7
370
    15
100
AcDbPolyline
 90
        3
 70
   128
 43
0.0
 10
158.5438249035
 20
140.6739326401
 10
159.6918038426
 20
140.8676272466
 10
160.2938247247
 20
140.9038612826
  0
ARC
  5
F6
330
1F
100
AcDbEntity
  8
0
  6
SLD-Durchgehend
 62
     7
370
    15
100
AcDbCircle
 10
160.3654477415
 20
141.8328352961
 30
0.0
 40
0.9317309559457265
100
AcDbArc
 50
265.5912714011
 51
355.1371387972
  0
LINE
  5
F7
330
1F
100
AcDbEntity
  8
0
  6
SLD-Durchgehend
 62
     7
370
    15
100
AcDbLine
 10
161.2938248886
 20
141.7538514568
 30
0.0
 11
161.2938248886
 21
141.8390600218
 31
0.0
  0
LWPOLYLINE
  5
F8
330
1F
100
AcDbEntity
  8
0
  6
SLD-Durchgehend
 62
     7
370
    15
100
AcDbPolyline
 90
        3
 70
   128
 43
0.0
 10
161.2938248886
 20
141.8390600218
 10
162.0306658892
 20
142.862784697
 10
162.7530229612
 20
143.7860960348
  0
LINE
  5
F9
330
1F
100
AcDbEntity
  8
0
  6
SLD-Durchgehend
 62
     7
370
    15
100
AcDbLine
 10
161.759535536
 20
87.5788750334
 30
0.0
 11
161.2938248886
 21
88.2436046584
 31
0.0
  0
LINE
  5
FA
330
1F
100
AcDbEntity
  8
0
  6
SLD-Durchgehend
 62
     7
370
    15
100
AcDbLine
 10
161.2938248886
 20
88.2436046584
 30
0.0
 11
161.2938248886
 21
88.3290218397
 31
0.0
  0
ARC
  5
FB
330
1F
100
AcDbEntity
  8
0
  6
SLD-Durchgehend
 62
     7
370
    15
100
AcDbCircle
 10
160.3494592167
 20
88.2377680726
 30
0.0
 40
0.9487643397289524
100
AcDbArc
 50
5.5193377111
 51
93.3616895869
  0
LWPOLYLINE
  5
FC
330
1F
100
AcDbEntity
  8
0
  6
SLD-Durchgehend
 62
     7
370
    15
100
AcDbPolyline
 90
        3
 70
   128
 43
0.0
 10
160.2938247247
 20
89.1848998352
 10
158.9185490607
 20
89.3060947045
 10
158.5438249035
 20
89.3747834696
  0
LWPOLYLINE
  5
FD
330
1F
100
AcDbEntity
  8
0
  6
SLD-Durchgehend
 62
     7
370
    15
100
AcDbPolyline
 90
        6
 70
   128
 43
0.0
 10
158.5438249035
 20
89.3747834696
 10
158.124787487
 20
89.3954383417
 10
157.822589144
 20
89.3005179449
 10
157.632576987
 20
89.1251052006
 10
157.556347303
 20
88.9344653322
 10
157.5438247396
 20
88.8023162468
  0
LINE
  5
FE
330
1F
100
AcDbEntity
  8
0
  6
SLD-Durchgehend
 62
     7
370
    15
100
AcDbLine
 10
157.5438247396
 20
88.8023162468
 30
0.0
 11
157.5438247396
 21
88.717347963
 31
0.0
  0
LINE
  5
FF
330
1F
100
AcDbEntity
  8
0
  6
SLD-Durchgehend
 62
     7
370
    15
100
AcDbLine
 10
157.5438247396
 20
88.717347963
 30
0.0
 11
157.1763011029
 21
88.3426936551
 31
0.0
  0
LINE
  5
100
330
1F
100
AcDbEntity
  8
0
  6
SLD-Durchgehend
 62
     7
370
    15
100
AcDbLine
 10
110.1840210481
 20
123.8616993858
 30
0.0
 11
110.3204896076
 21
123.782909496
 31
0.0
  0
LINE
  5
101
330
1F
100
AcDbEntity
  8
0
  6
SLD-Durchgehend
 62
     7
370
    15
100
AcDbLine
 10
110.3204896076
 20
104.646307437
 30
0.0
 11
110.2452685459
 21
104.6028770714
 31
0.0
  0
LINE
  5
102
330
1F
100
AcDbEntity
  8
0
  6
SLD-Durchgehend
 62
     7
370
    15
100
AcDbLine
 10
161.2938248886
 20
141.8390600218
 30
0.0
 11
161.2938248886
 21
144.0859539642
 31
0.0
  0
LINE
  5
103
330
1F
100
AcDbEntity
  8
0
  6
SLD-Durchgehend
 62
     7
370
    15
100
AcDbLine
 10
157.5438247396
 20
86.1907629504
 30
0.0
 11
157.5438247396
 21
88.717347963
 31
0.0
  0
LINE
  5
104
330
1F
100
AcDbEntity
  8
0
  6
SLD-Durchgehend
 62
     7
370
    15
100
AcDbLine
 10
161.2938248886
 20
86.1907629504
 30
0.0
 11
161.2938248886
 21
88.2436046584
 31
0.0
  0
LINE
  5
105
330
1F
100
AcDbEntity
  8
0
  6
SLD-Durchgehend
 62
     7
370
    15
100
AcDbLine
 10
221.3188258334
 20
122.6383582896
 30
0.0
 11
221.3188258334
 21
107.6383586249
 31
0.0
  0
LINE
  5
106
330
1F
100
AcDbEntity
  8
0
  6
SLD-Durchgehend
 62
     7
370
    15
100
AcDbLine
 10
118.3973976745
 20
106.4853510095
 30
0.0
 11
118.8688257112
 21
107.075858882
 31
0.0
  0
LINE
  5
107
330
1F
100
AcDbEntity
  8
0
  6
SLD-Durchgehend
 62
     7
370
    15
100
AcDbLine
 10
124.0347081198
 20
123.2008580326
 30
0.0
 11
123.8905542864
 21
123.2008580326
 31
0.0
  0
LINE
  5
108
330
1F
100
AcDbEntity
  8
0
  6
SLD-Durchgehend
 62
     7
370
    15
100
AcDbLine
 10
123.8910460247
 20
107.075858882
 30
0.0
 11
124.0366843863
 21
107.075858882
 31
0.0
  0
LINE
  5
109
330
1F
100
AcDbEntity
  8
0
  6
SLD-Gestrichelt
 62
     7
370
     0
100
AcDbLine
 10
162.7530229612
 20
146.6133585407
 30
0.0
 11
162.7530229612
 21
120.0280655383
 31
0.0
  0
ARC
  5
10A
330
1F
100
AcDbEntity
  8
0
  6
SLD-Gestrichelt
 62
     7
370
     0
100
AcDbCircle
 10
161.0845292641
 20
115.1383584573
 30
0.0
 40
5.16653719191451
100
AcDbArc
 50
288.840959808
 51
71.159040192
  0
LINE
  5
10B
330
1F
100
AcDbEntity
  8
0
  6
SLD-Gestrichelt
 62
     7
370
     0
100
AcDbLine
 10
162.7530229612
 20
110.2486513762
 30
0.0
 11
162.7530229612
 21
83.6633583738
 31
0.0
  0
LINE
  5
10C
330
1F
100
AcDbEntity
  8
0
  6
SLD-Gestrichelt
 62
     7
370
     0
100
AcDbLine
 10
167.5188240929
 20
145.6133583768
 30
0.0
 11
167.5188240929
 21
84.6633585377
 31
0.0
  0
LINE
  5
10D
330
1F
100
AcDbEntity
  8
0
  6
SLD-Gestrichelt
 62
     7
370
     0
100
AcDbLine
 10
149.5188248678
 20
146.4133588805
 30
0.0
 11
149.5188248678
 21
83.8633580341
 31
0.0
  0
ARC
  5
10E
330
1F
100
AcDbEntity
  8
0
  6
SLD-Gestrichelt
 62
     7
370
     0
100
AcDbCircle
 10
159.82539998
 20
115.1383584573
 30
0.0
 40
4.984950914878512
100
AcDbArc
 50
138.6261811365
 51
221.3738188635
  0
LINE
  5
10F
330
1F
100
AcDbEntity
  8
0
  6
SLD-Gestrichelt
 62
     7
370
     0
100
AcDbLine
 10
156.0846271327
 20
146.6133585407
 30
0.0
 11
156.0846271327
 21
118.4332566543
 31
0.0
  0
LINE
  5
110
330
1F
100
AcDbEntity
  8
0
  6
SLD-Gestrichelt
 62
     7
370
     0
100
AcDbLine
 10
156.0846271327
 20
111.8434602602
 30
0.0
 11
156.0846271327
 21
83.6633583738
 31
0.0
  0
LINE
  5
111
330
1F
100
AcDbEntity
  8
0
  6
SLD-Gestrichelt
 62
     7
370
     0
100
AcDbLine
 10
157.2128429411
 20
116.7834396682
 30
0.0
 11
156.0846271327
 21
118.4332566543
 31
0.0
  0
LINE
  5
112
330
1F
100
AcDbEntity
  8
0
  6
SLD-Gestrichelt
 62
     7
370
     0
100
AcDbLine
 10
157.5438247396
 20
117.3334168478
 30
0.0
 11
157.2128429411
 21
116.7834396682
 31
0.0
  0
LINE
  5
113
330
1F
100
AcDbEntity
  8
0
  6
SLD-Gestrichelt
 62
     7
370
     0
100
AcDbLine
 10
157.5438247396
 20
144.0859539642
 30
0.0
 11
157.5438247396
 21
117.3334168478
 31
0.0
  0
LINE
  5
114
330
1F
100
AcDbEntity
  8
0
  6
SLD-Gestrichelt
 62
     7
370
     0
100
AcDbLine
 10
157.5438247396
 20
91.7697707399
 30
0.0
 11
157.5438247396
 21
138.9532396777
 31
0.0
  0
LINE
  5
115
330
1F
100
AcDbEntity
  8
0
  6
SLD-Gestrichelt
 62
     7
370
     0
100
AcDbLine
 10
161.2938248886
 20
92.5040403588
 30
0.0
 11
161.2938248886
 21
138.0873443766
 31
0.0
  0
LINE
  5
116
330
1F
100
AcDbEntity
  8
0
  6
SLD-Gestrichelt
 62
     7
370
     0
100
AcDbLine
 10
149.5188248678
 20
88.3080614938
 30
0.0
 11
149.5188248678
 21
141.9686554207
 31
0.0
  0
LINE
  5
117
330
1F
100
AcDbEntity
  8
0
  6
SLD-Gestrichelt
 62
     7
370
     0
100
AcDbLine
 10
148.358642809
 20
140.0800971522
 30
0.0
 11
148.358642809
 21
90.1966197624
 31
0.0
  0
LINE
  5
118
330
1F
100
AcDbEntity
  8
0
  6
SLD-Gestrichelt
 62
     7
370
     0
100
AcDbLine
 10
111.0688259228
 20
104.2333804278
 30
0.0
 11
115.361071877
 21
104.2374670713
 31
0.0
  0
LINE
  5
119
330
1F
100
AcDbEntity
  8
0
  6
SLD-Gestrichelt
 62
     7
370
     0
100
AcDbLine
 10
111.0688259228
 20
104.2333804278
 30
0.0
 11
111.0688259228
 21
92.0692375137
 31
0.0
  0
LINE
  5
11A
330
1F
100
AcDbEntity
  8
0
  6
SLD-Gestrichelt
 62
     7
370
     0
100
AcDbLine
 10
111.0688259228
 20
124.2604814677
 30
0.0
 11
111.0688259228
 21
138.2074794008
 31
0.0
  0
LINE
  5
11B
330
1F
100
AcDbEntity
  8
0
  6
SLD-Gestrichelt
 62
     7
370
     0
100
AcDbLine
 10
116.8869992121
 20
124.2558956354
 30
0.0
 11
111.0688259228
 21
124.2606854274
 31
0.0
  0
LINE
  5
11C
330
1F
100
AcDbEntity
  8
0
  6
SLD-Gestrichelt
 62
     7
370
     0
100
AcDbLine
 10
117.9704961701
 20
124.1184389426
 30
0.0
 11
116.8869992121
 21
124.2558956354
 31
0.0
  0
LINE
  5
11D
330
1F
100
AcDbEntity
  8
0
  6
SLD-Gestrichelt
 62
     7
370
     0
100
AcDbLine
 10
123.3626881017
 20
124.1142004936
 30
0.0
 11
117.9705036207
 21
124.1184687449
 31
0.0
  0
ARC
  5
11E
330
1F
100
AcDbEntity
  8
0
  6
SLD-Gestrichelt
 62
     7
370
     0
100
AcDbCircle
 10
125.5577386678
 20
119.8714752396
 30
0.0
 40
4.77691808192782
100
AcDbArc
 50
89.9847588717
 51
117.3488476899
  0
LINE
  5
11F
330
1F
100
AcDbEntity
  8
0
  6
SLD-Gestrichelt
 62
     7
370
     0
100
AcDbLine
 10
127.4738830848
 20
124.6468974485
 30
0.0
 11
125.5590093656
 21
124.6483931525
 31
0.0
  0
ARC
  5
120
330
1F
100
AcDbEntity
  8
0
  6
SLD-Gestrichelt
 62
     7
370
     0
100
AcDbCircle
 10
127.3731210541
 20
119.6063940018
 30
0.0
 40
5.041510486277093
100
AcDbArc
 50
358.9389201861
 51
88.8547829975
  0
LINE
  5
121
330
1F
100
AcDbEntity
  8
0
  6
SLD-Gestrichelt
 62
     7
370
     0
100
AcDbLine
 10
132.4137670322
 20
110.7636830046
 30
0.0
 11
132.4137670322
 21
119.51303391
 31
0.0
  0
ARC
  5
122
330
1F
100
AcDbEntity
  8
0
  6
SLD-Gestrichelt
 62
     7
370
     0
100
AcDbCircle
 10
127.3676935246
 20
110.6755453667
 30
0.0
 40
5.046843180319638
100
AcDbArc
 50
271.2056373513
 51
1.0006594651
  0
LINE
  5
123
330
1F
100
AcDbEntity
  8
0
  6
SLD-Gestrichelt
 62
     7
370
     0
100
AcDbLine
 10
125.5590093656
 20
105.628323762
 30
0.0
 11
127.4738830848
 21
105.6298194661
 31
0.0
  0
ARC
  5
124
330
1F
100
AcDbEntity
  8
0
  6
SLD-Gestrichelt
 62
     7
370
     0
100
AcDbCircle
 10
125.5639382351
 20
110.4314196617
 30
0.0
 40
4.803098428657849
100
AcDbArc
 50
242.7394669144
 51
269.9412038965
  0
LINE
  5
125
330
1F
100
AcDbEntity
  8
0
  6
SLD-Gestrichelt
 62
     7
370
     0
100
AcDbLine
 10
118.9532556905
 20
106.158474481
 30
0.0
 11
123.3636045231
 21
106.1619576274
 31
0.0
  0
ARC
  5
126
330
1F
100
AcDbEntity
  8
0
  6
SLD-Gestrichelt
 62
     7
370
     0
100
AcDbCircle
 10
115.2565829043
 20
108.7579354191
 30
0.0
 40
4.521675798781411
100
AcDbArc
 50
271.3241352017
 51
324.8877560179
  0
LWPOLYLINE
  5
127
330
1F
100
AcDbEntity
  8
0
  6
SLD-Gestrichelt
 62
     7
370
     0
100
AcDbPolyline
 90
       14
 70
   128
 43
0.0
 10
121.4312405659
 20
138.0016179963
 10
122.6304077877
 20
137.7799874379
 10
124.0144313647
 20
137.6085458531
 10
125.5268247201
 20
137.5203961714
 10
127.0768490954
 20
137.5447912349
 10
128.6151090039
 20
137.6841990485
 10
130.1213984712
 20
137.9290884568
 10
131.4863299354
 20
138.2367080285
 10
132.6796633525
 20
138.5735022112
 10
133.6597574277
 20
138.8958702071
 10
134.3987646847
 20
139.16558495
 10
134.8716390653
 20
139.3463546618
 10
135.0372189058
 20
139.4110648169
 10
135.0324645041
 20
139.4091891332
  0
ARC
  5
128
330
1F
100
AcDbEntity
  8
0
  6
SLD-Gestrichelt
 62
     7
370
     0
100
AcDbCircle
 10
127.4189807778
 20
165.3799716028
 30
0.0
 40
28.02547553648681
100
AcDbArc
 50
252.7831463061
 51
257.6634584212
  0
ARC
  5
129
330
1F
100
AcDbEntity
  8
0
  6
SLD-Gestrichelt
 62
     7
370
     0
100
AcDbCircle
 10
127.617548015
 20
64.1431233621
 30
0.0
 40
28.80402935862713
100
AcDbArc
 50
102.4017285559
 51
107.1504727776
  0
LWPOLYLINE
  5
12A
330
1F
100
AcDbEntity
  8
0
  6
SLD-Gestrichelt
 62
     7
370
     0
100
AcDbPolyline
 90
       14
 70
   128
 43
0.0
 10
135.0334014146
 20
90.8670770212
 10
135.0370484738
 20
90.8656371965
 10
134.8737904205
 20
90.9294663205
 10
134.4014776273
 20
91.1100087895
 10
133.6618994697
 20
91.3800848855
 10
132.6802407725
 20
91.7029371693
 10
131.4867788328
 20
92.0396568461
 10
130.1223558708
 20
92.3471814229
 10
128.6189777179
 20
92.5917020275
 10
127.0810456349
 20
92.7315959914
 10
125.531039886
 20
92.7566001399
 10
124.0165342911
 20
92.668640448
 10
122.6302718146
 20
92.4970312251
 10
121.4314566328
 20
92.2750337257
  0
LINE
  5
12B
330
1F
100
AcDbEntity
  8
0
  6
SLD-Gestrichelt
 62
     7
370
     0
100
AcDbLine
 10
109.5688266082
 20
137.3414537146
 30
0.0
 11
109.5688266082
 21
124.216883464
 31
0.0
  0
LINE
  5
12C
330
1F
100
AcDbEntity
  8
0
  6
SLD-Gestrichelt
 62
     7
370
     0
100
AcDbLine
 10
110.1551649495
 20
123.8783598154
 30
0.0
 11
109.5688266082
 21
124.216883464
 31
0.0
  0
LINE
  5
12D
330
1F
100
AcDbEntity
  8
0
  6
SLD-Gestrichelt
 62
     7
370
     0
100
AcDbLine
 10
111.0688259228
 20
124.2606854274
 30
0.0
 11
110.1551649495
 21
123.8783598154
 31
0.0
  0
ARC
  5
12E
330
1F
100
AcDbEntity
  8
0
  6
SLD-Gestrichelt
 62
     7
370
     0
100
AcDbCircle
 10
161.4368394011
 20
87.2896044075
 30
0.0
 40
4.367975997175336
100
AcDbArc
 50
45.4917977024
 51
85.7632581442
  0
LINE
  5
12F
330
1F
100
AcDbEntity
  8
0
  6
SLD-Gestrichelt
 62
     7
370
     0
100
AcDbLine
 10
109.5688266082
 20
104.212333469
 30
0.0
 11
109.5688266082
 21
92.9352632
 31
0.0
  0
LINE
  5
130
330
1F
100
AcDbEntity
  8
0
  6
SLD-Gestrichelt
 62
     7
370
     0
100
AcDbLine
 10
110.2086899205
 20
104.5817602633
 30
0.0
 11
111.0688259228
 21
104.2333804278
 31
0.0
  0
LINE
  5
131
330
1F
100
AcDbEntity
  8
0
  6
SLD-Gestrichelt
 62
     7
370
     0
100
AcDbLine
 10
109.5688266082
 20
104.212333469
 30
0.0
 11
110.2086899205
 21
104.5817602633
 31
0.0
  0
LINE
  5
132
330
1F
100
AcDbEntity
  8
0
  6
SLD-Gestrichelt
 62
     7
370
     0
100
AcDbLine
 10
157.1763011029
 20
90.8818254455
 30
0.0
 11
157.1089203803
 21
90.8355200871
 31
0.0
  0
LWPOLYLINE
  5
133
330
1F
100
AcDbEntity
  8
0
  6
SLD-Gestrichelt
 62
     7
370
     0
100
AcDbPolyline
 90
       31
 70
   128
 43
0.0
 10
160.5688247232
 20
129.3560303955
 10
161.3458951338
 20
129.3968670278
 10
162.089003004
 20
129.5175925105
 10
162.7656721844
 20
129.7129299699
 10
163.3463285266
 20
129.9743429034
 10
163.8055944218
 20
130.2904049142
 10
164.1233989371
 20
130.6473044886
 10
164.2858504652
 20
131.0294429048
 10
164.2858504652
 20
131.4201178237
 10
164.1233989371
 20
131.8022562398
 10
163.8055944218
 20
132.1591558142
 10
163.3463285266
 20
132.4752187564
 10
162.7656721844
 20
132.7366316898
 10
162.089003004
 20
132.9319691493
 10
161.3458951338
 20
133.0526927694
 10
160.5688247232
 20
133.0935294016
 10
159.791755244
 20
133.0526927694
 10
159.0486464425
 20
132.9319691493
 10
158.3719772621
 20
132.7366316898
 10
157.7913209199
 20
132.4752187564
 10
157.3320550247
 20
132.1591558142
 10
157.014250975
 20
131.8022562398
 10
156.851799447
 20
131.4201178237
 10
156.851799447
 20
131.0294429048
 10
157.014250975
 20
130.6473044886
 10
157.3320550247
 20
130.2904049142
 10
157.7913209199
 20
129.9743429034
 10
158.3719772621
 20
129.7129299699
 10
159.0486464425
 20
129.5175925105
 10
159.791755244
 20
129.3968670278
 10
160.5688247232
 20
129.3560303955
  0
LINE
  5
134
330
1F
100
AcDbEntity
  8
0
  6
SLD-Gestrichelt
 62
     7
370
     0
100
AcDbLine
 10
157.5438247396
 20
138.9532396777
 30
0.0
 11
157.5438247396
 21
139.0380030705
 31
0.0
  0
LINE
  5
135
330
1F
100
AcDbEntity
  8
0
  6
SLD-Gestrichelt
 62
     7
370
     0
100
AcDbLine
 10
161.2938248886
 20
138.1725529416
 30
0.0
 11
161.2938248886
 21
138.0873443766
 31
0.0
  0
LINE
  5
136
330
1F
100
AcDbEntity
  8
0
  6
SLD-Gestrichelt
 62
     7
370
     0
100
AcDbLine
 10
131.5188256426
 20
119.3508585191
 30
0.0
 11
131.5188256426
 21
110.9258583954
 31
0.0
  0
LWPOLYLINE
  5
137
330
1F
100
AcDbEntity
  8
0
  6
SLD-Gestrichelt
 62
     7
370
     0
100
AcDbPolyline
 90
       33
 70
   128
 43
0.0
 10
160.5688247232
 20
94.4217136337
 10
161.3955197258
 20
94.4624236061
 10
162.1904454528
 20
94.5829926266
 10
162.9230535923
 20
94.7787864341
 10
163.565190263
 20
95.0422799422
 10
164.0921772792
 20
95.3633478119
 10
164.4837639628
 20
95.7296518816
 10
164.7249029352
 20
96.1271161421
 10
164.8063247426
 20
96.5404631777
 10
164.7249029352
 20
96.9538102134
 10
164.4837639628
 20
97.3512726112
 10
164.0921772792
 20
97.717576681
 10
163.565190263
 20
98.0386445506
 10
162.9230535923
 20
98.3021399214
 10
162.1904454528
 20
98.4979318662
 10
161.3955197258
 20
98.6185008867
 10
160.5688247232
 20
98.6592127218
 10
159.7421297206
 20
98.6185008867
 10
158.9472039937
 20
98.4979318662
 10
158.2145958541
 20
98.3021399214
 10
157.5724601148
 20
98.0386445506
 10
157.0454721673
 20
97.717576681
 10
156.6538854836
 20
97.3512726112
 10
156.4127474426
 20
96.9538102134
 10
156.3313247039
 20
96.5404631777
 10
156.4127474426
 20
96.1271161421
 10
156.6538854836
 20
95.7296518816
 10
157.0454721673
 20
95.3633478119
 10
157.5724601148
 20
95.0422799422
 10
158.2145958541
 20
94.7787864341
 10
158.9472039937
 20
94.5829926266
 10
159.7421297206
 20
94.4624236061
 10
160.5688247232
 20
94.4217136337
  0
LINE
  5
138
330
1F
100
AcDbEntity
  8
0
  6
SLD-Gestrichelt
 62
     7
370
     0
100
AcDbLine
 10
157.5438247396
 20
91.6848024561
 30
0.0
 11
157.5438247396
 21
91.7697707399
 31
0.0
  0
LINE
  5
139
330
1F
100
AcDbEntity
  8
0
  6
SLD-Gestrichelt
 62
     7
370
     0
100
AcDbLine
 10
161.2938248886
 20
92.5040403588
 30
0.0
 11
161.2938248886
 21
92.4186231776
 31
0.0
  0
LINE
  5
13A
330
1F
100
AcDbEntity
  8
0
  6
SLD-Gestrichelt
 62
     7
370
     0
100
AcDbLine
 10
143.5188248156
 20
97.6883592291
 30
0.0
 11
143.5188248156
 21
132.5883576854
 31
0.0
  0
LINE
  5
13B
330
1F
100
AcDbEntity
  8
0
  6
SLD-Gestrichelt
 62
     7
370
     0
100
AcDbLine
 10
140.0188251732
 20
97.5008579178
 30
0.0
 11
140.0188251732
 21
132.7758589967
 31
0.0
  0
LINE
  5
13C
330
1F
100
AcDbEntity
  8
0
  6
SLD-Gestrichelt
 62
     7
370
     0
100
AcDbLine
 10
109.5688266082
 20
124.216883464
 30
0.0
 11
110.1840210481
 21
123.8616993858
 31
0.0
  0
LINE
  5
13D
330
1F
100
AcDbEntity
  8
0
  6
SLD-Gestrichelt
 62
     7
370
     0
100
AcDbLine
 10
110.3204896076
 20
123.782909496
 30
0.0
 11
110.3204896076
 21
134.0739345385
 31
0.0
  0
LINE
  5
13E
330
1F
100
AcDbEntity
  8
0
  6
SLD-Gestrichelt
 62
     7
370
     0
100
AcDbLine
 10
109.5688266082
 20
124.216883464
 30
0.0
 11
109.5688266082
 21
135.3560714259
 31
0.0
  0
LINE
  5
13F
330
1F
100
AcDbEntity
  8
0
  6
SLD-Gestrichelt
 62
     7
370
     0
100
AcDbLine
 10
110.3204896076
 20
123.782909496
 30
0.0
 11
109.5688266082
 21
124.216883464
 31
0.0
  0
LINE
  5
140
330
1F
100
AcDbEntity
  8
0
  6
SLD-Gestrichelt
 62
     7
370
     0
100
AcDbLine
 10
132.1688254698
 20
111.0755852631
 30
0.0
 11
131.5188256426
 21
110.9258583954
 31
0.0
  0
ARC
  5
141
330
1F
100
AcDbEntity
  8
0
  6
SLD-Gestrichelt
 62
     7
370
     0
100
AcDbCircle
 10
127.5188228859
 20
110.9258609622
 30
0.0
 40
4.000002756715827
100
AcDbArc
 50
270.0000300955
 51
359.9999632344
  0
LINE
  5
142
330
1F
100
AcDbEntity
  8
0
  6
SLD-Gestrichelt
 62
     7
370
     0
100
AcDbLine
 10
132.1688254698
 20
119.2011316514
 30
0.0
 11
131.5188256426
 21
119.3508585191
 31
0.0
  0
ARC
  5
143
330
1F
100
AcDbEntity
  8
0
  6
SLD-Gestrichelt
 62
     7
370
     0
100
AcDbCircle
 10
127.5188225911
 20
119.3508556576
 30
0.0
 40
4.000003051525987
100
AcDbArc
 50
0.0000409884
 51
89.9999656817
  0
LINE
  5
144
330
1F
100
AcDbEntity
  8
0
  6
SLD-Gestrichelt
 62
     7
370
     0
100
AcDbLine
 10
124.6040647252
 20
123.583496569
 30
0.0
 11
118.1559970005
 21
123.583496569
 31
0.0
  0
LINE
  5
145
330
1F
100
AcDbEntity
  8
0
  6
SLD-Gestrichelt
 62
     7
370
     0
100
AcDbLine
 10
125.6039512678
 20
123.6858554392
 30
0.0
 11
124.6096619739
 21
123.5846793486
 31
0.0
  0
LINE
  5
146
330
1F
100
AcDbEntity
  8
0
  6
SLD-Gestrichelt
 62
     7
370
     0
100
AcDbLine
 10
127.518824987
 20
123.6858554392
 30
0.0
 11
125.6039512678
 21
123.6858554392
 31
0.0
  0
LINE
  5
147
330
1F
100
AcDbEntity
  8
0
  6
SLD-Gestrichelt
 62
     7
370
     0
100
AcDbLine
 10
125.6039512678
 20
106.5908614754
 30
0.0
 11
127.518824987
 21
106.5908614754
 31
0.0
  0
LINE
  5
148
330
1F
100
AcDbEntity
  8
0
  6
SLD-Gestrichelt
 62
     7
370
     0
100
AcDbLine
 10
124.6029173358
 20
106.6930564328
 30
0.0
 11
125.6039512678
 21
106.5908614754
 31
0.0
  0
LINE
  5
149
330
1F
100
AcDbEntity
  8
0
  6
SLD-Gestrichelt
 62
     7
370
     0
100
AcDbLine
 10
119.1781551911
 20
106.6932203456
 30
0.0
 11
124.6021443381
 21
106.6932203456
 31
0.0
  0
ARC
  5
14A
330
1F
100
AcDbEntity
  8
0
  6
SLD-Gestrichelt
 62
     7
370
     0
100
AcDbCircle
 10
115.4251203194
 20
109.3607756453
 30
0.0
 40
4.605236066268183
100
AcDbArc
 50
269.7641866817
 51
324.5823697748
  0
LINE
  5
14B
330
1F
100
AcDbEntity
  8
0
  6
SLD-Gestrichelt
 62
     7
370
     0
100
AcDbLine
 10
112.6146276815
 20
104.7555785834
 30
0.0
 11
115.4061665161
 21
104.7555785834
 31
0.0
  0
LINE
  5
14C
330
1F
100
AcDbEntity
  8
0
  6
SLD-Gestrichelt
 62
     7
370
     0
100
AcDbLine
 10
112.568821512
 20
104.6921257137
 30
0.0
 11
112.6146276815
 21
104.7555785834
 31
0.0
  0
LINE
  5
14D
330
1F
100
AcDbEntity
  8
0
  6
SLD-Gestrichelt
 62
     7
370
     0
100
AcDbLine
 10
112.5688252373
 20
104.6921257137
 30
0.0
 11
112.5688252373
 21
97.5008579178
 31
0.0
  0
LINE
  5
14E
330
1F
100
AcDbEntity
  8
0
  6
SLD-Gestrichelt
 62
     7
370
     0
100
AcDbLine
 10
112.6148549242
 20
104.755895233
 30
0.0
 11
112.568821512
 21
104.6921257137
 31
0.0
  0
LINE
  5
14F
330
1F
100
AcDbEntity
  8
0
  6
SLD-Gestrichelt
 62
     7
370
     0
100
AcDbLine
 10
115.4061665161
 20
104.755895233
 30
0.0
 11
112.6148549242
 21
104.755895233
 31
0.0
  0
ARC
  5
150
330
1F
100
AcDbEntity
  8
0
  6
SLD-Gestrichelt
 62
     7
370
     0
100
AcDbCircle
 10
115.4227003117
 20
109.3629179119
 30
0.0
 40
4.608068426958996
100
AcDbArc
 50
269.794375409
 51
324.5744582845
  0
LINE
  5
151
330
1F
100
AcDbEntity
  8
0
  6
SLD-Gestrichelt
 62
     7
370
     0
100
AcDbLine
 10
124.6040647252
 20
106.6932203456
 30
0.0
 11
119.1776746287
 21
106.6932203456
 31
0.0
  0
LINE
  5
152
330
1F
100
AcDbEntity
  8
0
  6
SLD-Gestrichelt
 62
     7
370
     0
100
AcDbLine
 10
125.6039512678
 20
106.5908614754
 30
0.0
 11
124.6096619739
 21
106.6920375659
 31
0.0
  0
ARC
  5
153
330
1F
100
AcDbEntity
  8
0
  6
SLD-Gestrichelt
 62
     7
370
     0
100
AcDbCircle
 10
127.6017862724
 20
111.1578887714
 30
0.0
 40
4.56778074098806
100
AcDbArc
 50
268.9593211331
 51
358.9675732854
  0
LINE
  5
154
330
1F
100
AcDbEntity
  8
0
  6
SLD-Gestrichelt
 62
     7
370
     0
100
AcDbLine
 10
132.1688254698
 20
119.2011316514
 30
0.0
 11
132.1688254698
 21
111.0755852631
 31
0.0
  0
ARC
  5
155
330
1F
100
AcDbEntity
  8
0
  6
SLD-Gestrichelt
 62
     7
370
     0
100
AcDbCircle
 10
127.5967654173
 20
119.1136222531
 30
0.0
 40
4.572897442344316
100
AcDbArc
 50
1.0965094505
 51
90.9765961311
  0
LINE
  5
156
330
1F
100
AcDbEntity
  8
0
  6
SLD-Gestrichelt
 62
     7
370
     0
100
AcDbLine
 10
124.6029173358
 20
123.5836604818
 30
0.0
 11
125.6039512678
 21
123.6858554392
 31
0.0
  0
LINE
  5
157
330
1F
100
AcDbEntity
  8
0
  6
SLD-Gestrichelt
 62
     7
370
     0
100
AcDbLine
 10
118.1559932752
 20
123.583496569
 30
0.0
 11
124.6021443381
 21
123.583496569
 31
0.0
  0
LINE
  5
158
330
1F
100
AcDbEntity
  8
0
  6
SLD-Gestrichelt
 62
     7
370
     0
100
AcDbLine
 10
116.9336994512
 20
123.7442614718
 30
0.0
 11
118.1559932752
 21
123.583464904
 31
0.0
  0
LINE
  5
159
330
1F
100
AcDbEntity
  8
0
  6
SLD-Gestrichelt
 62
     7
370
     0
100
AcDbLine
 10
112.5688252373
 20
123.7442614718
 30
0.0
 11
116.9336994512
 21
123.7442614718
 31
0.0
  0
LINE
  5
15A
330
1F
100
AcDbEntity
  8
0
  6
SLD-Gestrichelt
 62
     7
370
     0
100
AcDbLine
 10
112.5688252373
 20
123.7442614718
 30
0.0
 11
112.5688252373
 21
132.7758589967
 31
0.0
  0
LINE
  5
15B
330
1F
100
AcDbEntity
  8
0
  6
SLD-Gestrichelt
 62
     7
370
     0
100
AcDbLine
 10
118.1559970005
 20
123.5834723546
 30
0.0
 11
116.9336994512
 21
123.7442614718
 31
0.0
  0
LWPOLYLINE
  5
15C
330
1F
100
AcDbEntity
  8
0
  6
SLD-Gestrichelt
 62
     7
370
     0
100
AcDbPolyline
 90
       23
 70
   128
 43
0.0
 10
123.9864544346
 20
98.965690492
 10
122.3370747043
 20
98.9051750137
 10
121.1399452163
 20
98.780811785
 10
119.9822535141
 20
98.5890282525
 10
118.9632878973
 20
98.3570656015
 10
118.0599329396
 20
98.0984838887
 10
117.4124216063
 20
97.880917622
 10
116.9112881048
 20
97.6933771952
 10
116.5964377447
 20
97.5667992814
 10
116.448264323
 20
97.5048551543
 10
116.4580543859
 20
97.5089902266
 10
116.4779772385
 20
97.5174000694
 10
116.6896333321
 20
97.604977919
 10
117.069516085
 20
97.7544272526
 10
117.6335660143
 20
97.9583217039
 10
118.3317859991
 20
98.1817124619
 10
119.1922684534
 20
98.4145747705
 10
120.1377415432
 20
98.6191025211
 10
121.1957556529
 20
98.788228838
 10
122.3390621467
 20
98.9052476569
 10
122.3417145534
 20
98.9055177404
 10
123.5454936846
 20
98.961270435
 10
123.9789908154
 20
98.9656830414
  0
LWPOLYLINE
  5
15D
330
1F
100
AcDbEntity
  8
0
  6
SLD-Gestrichelt
 62
     7
370
     0
100
AcDbPolyline
 90
       25
 70
   128
 43
0.0
 10
123.9878774954
 20
98.9641072436
 10
124.0810805334
 20
98.9809511437
 10
125.5787273271
 20
99.1854993834
 10
125.5851311012
 20
99.1857992693
 10
127.1089666857
 20
99.2568908467
 10
128.6411208435
 20
99.1864418818
 10
130.1444189026
 20
98.9822009786
 10
131.4994690342
 20
98.6928185655
 10
132.6837090178
 20
98.3572295143
 10
133.6516716851
 20
98.0285136237
 10
134.3782029449
 20
97.7507857813
 10
134.8394777028
 20
97.5649887903
 10
134.9947701542
 20
97.5008579178
 10
134.9944181143
 20
97.5010050668
 10
134.8426516502
 20
97.5643852933
 10
134.3816981985
 20
97.750120817
 10
133.6550412102
 20
98.0278318955
 10
132.6862422152
 20
98.3564323022
 10
131.502840422
 20
98.6914793237
 10
130.1497646941
 20
98.9807741924
 10
128.6487949415
 20
99.1854956581
 10
127.1188256665
 20
99.2568927093
 10
125.5883199497
 20
99.1862332656
 10
124.0867187603
 20
98.9815676792
 10
123.9926328285
 20
98.9645971193
  0
LWPOLYLINE
  5
15E
330
1F
100
AcDbEntity
  8
0
  6
SLD-Gestrichelt
 62
     7
370
     0
100
AcDbPolyline
 90
       22
 70
   128
 43
0.0
 10
123.9878737702
 20
131.3110264226
 10
122.3370747043
 20
131.3715419008
 10
121.1399452163
 20
131.4959051295
 10
119.9822535141
 20
131.687688662
 10
118.9632878973
 20
131.919651313
 10
118.0599329396
 20
132.1782330259
 10
117.4124216063
 20
132.3957992925
 10
116.9112881048
 20
132.5833397194
 10
116.5964377447
 20
132.7099176331
 10
116.448264323
 20
132.7718617602
 10
116.4580543859
 20
132.767726688
 10
116.4779772385
 20
132.7593168451
 10
116.6896333321
 20
132.6717389955
 10
117.069516085
 20
132.5222896619
 10
117.6335660143
 20
132.3183952107
 10
118.3317859991
 20
132.0950044526
 10
119.1922684534
 20
131.862142144
 10
120.1377415432
 20
131.6576143934
 10
121.1957556529
 20
131.4884880765
 10
122.3417145534
 20
131.3711991741
 10
123.5454936846
 20
131.3154464795
 10
123.9936870857
 20
131.3110226973
  0
LWPOLYLINE
  5
15F
330
1F
100
AcDbEntity
  8
0
  6
SLD-Gestrichelt
 62
     7
370
     0
100
AcDbPolyline
 90
       24
 70
   128
 43
0.0
 10
123.9989695473
 20
131.3119596078
 10
124.0878847762
 20
131.2959427221
 10
125.5888545288
 20
131.0912212564
 10
127.1188256665
 20
131.0198242052
 10
128.6493295206
 20
131.090483649
 10
130.1509325726
 20
131.2951492353
 10
131.5033619626
 20
131.5846340938
 10
132.6854561789
 20
131.9200368806
 10
133.6524446829
 20
132.2483411266
 10
134.3779691829
 20
132.5252959712
 10
134.8398688583
 20
132.7113555952
 10
134.9947664289
 20
132.775857134
 10
134.9939952938
 20
132.7755311711
 10
134.8433212711
 20
132.7118585094
 10
134.3861638902
 20
132.5261732771
 10
133.6632703765
 20
132.2508370711
 10
132.6863372101
 20
131.9203144147
 10
131.5053587182
 20
131.5849935843
 10
130.1565689369
 20
131.2957657709
 10
128.6589240058
 20
131.0912175311
 10
127.1286827846
 20
131.0198260679
 10
125.5965286268
 20
131.0902750327
 10
124.0932305677
 20
131.294515936
 10
123.9947357549
 20
131.3122390046
  0
ARC
  5
160
330
1F
100
AcDbEntity
  8
0
  6
SLD-Gestrichelt
 62
     7
370
     0
100
AcDbCircle
 10
127.6017862724
 20
119.1188281431
 30
0.0
 40
4.56778074098806
100
AcDbArc
 50
1.0324267146
 51
91.0406788669
  0
ARC
  5
161
330
1F
100
AcDbEntity
  8
0
  6
SLD-Gestrichelt
 62
     7
370
     0
100
AcDbCircle
 10
127.5967654173
 20
111.1630946614
 30
0.0
 40
4.57289744234433
100
AcDbArc
 50
269.0234038689
 51
358.9034905495
  0
LINE
  5
162
330
1F
100
AcDbEntity
  8
0
  6
SLD-Gestrichelt
 62
     7
370
     0
100
AcDbLine
 10
132.1688254698
 20
111.0755852631
 30
0.0
 11
132.1688254698
 21
119.2011316514
 31
0.0
  0
LINE
  5
163
330
1F
100
AcDbEntity
  8
0
  6
SLD-Gestrichelt
 62
     7
370
     0
100
AcDbLine
 10
110.2452685459
 20
104.6028770714
 30
0.0
 11
109.5688266082
 21
104.212333469
 31
0.0
  0
LINE
  5
164
330
1F
100
AcDbEntity
  8
0
  6
SLD-Gestrichelt
 62
     7
370
     0
100
AcDbLine
 10
110.3204896076
 20
104.646307437
 30
0.0
 11
110.3204896076
 21
96.202782376
 31
0.0
  0
LINE
  5
165
330
1F
100
AcDbEntity
  8
0
  6
SLD-Gestrichelt
 62
     7
370
     0
100
AcDbLine
 10
109.5688266082
 20
104.212333469
 30
0.0
 11
109.5688266082
 21
94.9008586093
 31
0.0
  0
LINE
  5
166
330
1F
100
AcDbEntity
  8
0
  6
SLD-Gestrichelt
 62
     7
370
     0
100
AcDbLine
 10
109.5688266082
 20
104.212333469
 30
0.0
 11
110.3204896076
 21
104.646307437
 31
0.0
  0
LINE
  5
167
330
1F
100
AcDbEntity
  8
0
  6
SLD-Gestrichelt
 62
     7
370
     0
100
AcDbLine
 10
111.0688259228
 20
123.3508587091
 30
0.0
 11
112.6104367299
 21
123.3508587091
 31
0.0
  0
LINE
  5
168
330
1F
100
AcDbEntity
  8
0
  6
SLD-Gestrichelt
 62
     7
370
     0
100
AcDbLine
 10
110.5229479595
 20
123.666020131
 30
0.0
 11
111.0688259228
 21
123.3508587091
 31
0.0
  0
LINE
  5
169
330
1F
100
AcDbEntity
  8
0
  6
SLD-Gestrichelt
 62
     7
370
     0
100
AcDbLine
 10
112.510252498
 20
123.6574389248
 30
0.0
 11
112.5688252373
 21
123.7442614718
 31
0.0
  0
LINE
  5
16A
330
1F
100
AcDbEntity
  8
0
  6
SLD-Gestrichelt
 62
     7
370
     0
100
AcDbLine
 10
110.5229479595
 20
123.666020131
 30
0.0
 11
112.510252498
 21
123.6574398561
 31
0.0
  0
LINE
  5
16B
330
1F
100
AcDbEntity
  8
0
  6
SLD-Gestrichelt
 62
     7
370
     0
100
AcDbLine
 10
110.3204896076
 20
123.782909496
 30
0.0
 11
110.5229479595
 21
123.666020131
 31
0.0
  0
LINE
  5
16C
330
1F
100
AcDbEntity
  8
0
  6
SLD-Gestrichelt
 62
     7
370
     0
100
AcDbLine
 10
110.5291617437
 20
123.6624326764
 30
0.0
 11
110.3204896076
 21
123.782909496
 31
0.0
  0
LINE
  5
16D
330
1F
100
AcDbEntity
  8
0
  6
SLD-Gestrichelt
 62
     7
370
     0
100
AcDbLine
 10
125.6039512678
 20
106.9258582054
 30
0.0
 11
124.5188561602
 21
107.0758495687
 31
0.0
  0
LINE
  5
16E
330
1F
100
AcDbEntity
  8
0
  6
SLD-Gestrichelt
 62
     7
370
     0
100
AcDbLine
 10
124.5190033092
 20
107.075858882
 30
0.0
 11
123.8905542864
 21
107.075858882
 31
0.0
  0
LINE
  5
16F
330
1F
100
AcDbEntity
  8
0
  6
SLD-Gestrichelt
 62
     7
370
     0
100
AcDbLine
 10
124.5188524349
 20
123.2008664145
 30
0.0
 11
125.6039512678
 21
123.3508587091
 31
0.0
  0
LINE
  5
170
330
1F
100
AcDbEntity
  8
0
  6
SLD-Gestrichelt
 62
     7
370
     0
100
AcDbLine
 10
123.8910460247
 20
123.2008580326
 30
0.0
 11
124.5189660563
 21
123.2008580326
 31
0.0
  0
ARC
  5
171
330
1F
100
AcDbEntity
  8
0
  6
SLD-Gestrichelt
 62
     7
370
     0
100
AcDbCircle
 10
115.4061683617
 20
109.0783556956
 30
0.0
 40
3.999997471724
100
AcDbArc
 50
269.9999735634
 51
329.9581803573
  0
LINE
  5
172
330
1F
100
AcDbEntity
  8
0
  6
SLD-Gestrichelt
 62
     7
370
     0
100
AcDbLine
 10
119.1227862014
 20
107.075858882
 30
0.0
 11
118.8706138505
 21
107.075858882
 31
0.0
  0
LINE
  5
173
330
1F
100
AcDbEntity
  8
0
  6
SLD-Gestrichelt
 62
     7
370
     0
100
AcDbLine
 10
127.518824987
 20
123.6858554392
 30
0.0
 11
127.518824987
 21
123.3508587091
 31
0.0
  0
LINE
  5
174
330
1F
100
AcDbEntity
  8
0
  6
SLD-Gestrichelt
 62
     7
370
     0
100
AcDbLine
 10
125.6039512678
 20
123.3508587091
 30
0.0
 11
127.518824987
 21
123.3508587091
 31
0.0
  0
LINE
  5
175
330
1F
100
AcDbEntity
  8
0
  6
SLD-Gestrichelt
 62
     7
370
     0
100
AcDbLine
 10
127.518824987
 20
106.9258582054
 30
0.0
 11
125.6039512678
 21
106.9258582054
 31
0.0
  0
LINE
  5
176
330
1F
100
AcDbEntity
  8
0
  6
SLD-Gestrichelt
 62
     7
370
     0
100
AcDbLine
 10
116.9336994512
 20
123.3508587091
 30
0.0
 11
118.0188243611
 21
123.2008589639
 31
0.0
  0
LINE
  5
177
330
1F
100
AcDbEntity
  8
0
  6
SLD-Gestrichelt
 62
     7
370
     0
100
AcDbLine
 10
118.0188169105
 20
123.2008580326
 30
0.0
 11
118.1726117952
 21
123.2008580326
 31
0.0
  0
LINE
  5
178
330
1F
100
AcDbEntity
  8
0
  6
SLD-Gestrichelt
 62
     7
370
     0
100
AcDbLine
 10
119.1227862014
 20
107.075858882
 30
0.0
 11
119.1807107402
 21
106.6924808754
 31
0.0
  0
LINE
  5
179
330
1F
100
AcDbEntity
  8
0
  6
SLD-Gestrichelt
 62
     7
370
     0
100
AcDbLine
 10
124.6051543726
 20
106.6974122285
 30
0.0
 11
123.8905002697
 21
107.0755776225
 31
0.0
  0
LINE
  5
17A
330
1F
100
AcDbEntity
  8
0
  6
SLD-Gestrichelt
 62
     7
370
     0
100
AcDbLine
 10
123.8909137769
 20
107.075858882
 30
0.0
 11
119.1227862014
 21
107.075858882
 31
0.0
  0
LINE
  5
17B
330
1F
100
AcDbEntity
  8
0
  6
SLD-Gestrichelt
 62
     7
370
     0
100
AcDbLine
 10
118.1557772084
 20
123.5834788739
 30
0.0
 11
118.1726117952
 21
123.2008580326
 31
0.0
  0
LINE
  5
17C
330
1F
100
AcDbEntity
  8
0
  6
SLD-Gestrichelt
 62
     7
370
     0
100
AcDbLine
 10
123.8909882827
 20
123.2011486052
 30
0.0
 11
124.6065718456
 21
123.5800013154
 31
0.0
  0
LINE
  5
17D
330
1F
100
AcDbEntity
  8
0
  6
SLD-Gestrichelt
 62
     7
370
     0
100
AcDbLine
 10
118.1726117952
 20
123.2008580326
 30
0.0
 11
123.8914129658
 21
123.2008580326
 31
0.0
  0
LINE
  5
17E
330
1F
100
AcDbEntity
  8
0
  6
SLD-Gestrichelt
 62
     7
370
     0
100
AcDbLine
 10
112.510252498
 20
123.6574398561
 30
0.0
 11
112.6104330047
 21
123.3508587091
 31
0.0
  0
LINE
  5
17F
330
1F
100
AcDbEntity
  8
0
  6
SLD-Gestrichelt
 62
     7
370
     0
100
AcDbLine
 10
112.6104367299
 20
123.3508587091
 30
0.0
 11
116.9336994512
 21
123.3508587091
 31
0.0
  0
LINE
  5
180
330
1F
100
AcDbEntity
  8
0
  6
SLD-Gestrichelt
 62
     7
370
     0
100
AcDbLine
 10
112.6985100432
 20
105.0783582239
 30
0.0
 11
111.0688259228
 21
105.0783582239
 31
0.0
  0
LINE
  5
181
330
1F
100
AcDbEntity
  8
0
  6
SLD-Gestrichelt
 62
     7
370
     0
100
AcDbLine
 10
111.0688259228
 20
105.0783582239
 30
0.0
 11
110.3731875642
 21
104.6767318829
 31
0.0
  0
LINE
  5
182
330
1F
100
AcDbEntity
  8
0
  6
SLD-Gestrichelt
 62
     7
370
     0
100
AcDbLine
 10
110.3731875642
 20
104.6767328142
 30
0.0
 11
110.3204896076
 21
104.646307437
 31
0.0
  0
LINE
  5
183
330
1F
100
AcDbEntity
  8
0
  6
SLD-Gestrichelt
 62
     7
370
     0
100
AcDbLine
 10
112.5688252373
 20
104.6921247824
 30
0.0
 11
110.3731875642
 21
104.6767318829
 31
0.0
  0
LINE
  5
184
330
1F
100
AcDbEntity
  8
0
  6
SLD-Gestrichelt
 62
     7
370
     0
100
AcDbLine
 10
143.5188248156
 20
99.6083170383
 30
0.0
 11
143.5188248156
 21
130.6683998762
 31
0.0
  0
LINE
  5
185
330
1F
100
AcDbEntity
  8
0
  6
SLD-Gestrichelt
 62
     7
370
     0
100
AcDbLine
 10
148.4188248737
 20
100.7883586197
 30
0.0
 11
148.4188248737
 21
129.4883582948
 31
0.0
  0
LINE
  5
186
330
1F
100
AcDbEntity
  8
0
  6
SLD-Gestrichelt
 62
     7
370
     0
100
AcDbLine
 10
112.6985063179
 20
105.0783582239
 30
0.0
 11
112.6146276815
 21
104.7555785834
 31
0.0
  0
LINE
  5
187
330
1F
100
AcDbEntity
  8
0
  6
SLD-Gestrichelt
 62
     7
370
     0
100
AcDbLine
 10
115.4061665161
 20
105.0783582239
 30
0.0
 11
112.6985100432
 21
105.0783582239
 31
0.0
  0
LINE
  5
188
330
1F
100
AcDbEntity
  8
0
  6
SLD-Gestrichelt
 62
     7
370
     0
100
AcDbLine
 10
161.7216688915
 20
118.693616262
 30
0.0
 11
161.2938248886
 21
118.8048664688
 31
0.0
  0
LINE
  5
189
330
1F
100
AcDbEntity
  8
0
  6
SLD-Gestrichelt
 62
     7
370
     0
100
AcDbLine
 10
162.7530229612
 20
120.0280655383
 30
0.0
 11
161.7216688915
 21
118.693616262
 31
0.0
  0
LINE
  5
18A
330
1F
100
AcDbEntity
  8
0
  6
SLD-Gestrichelt
 62
     7
370
     0
100
AcDbLine
 10
161.2938248886
 20
144.0859539642
 30
0.0
 11
161.2938248886
 21
118.8048664688
 31
0.0
  0
ARC
  5
18B
330
1F
100
AcDbEntity
  8
0
  6
SLD-Gestrichelt
 62
     7
370
     0
100
AcDbCircle
 10
160.4163698961
 20
115.299460149
 30
0.0
 40
3.51972946810997
100
AcDbArc
 50
122.1416270236
 51
144.6989191365
  0
LINE
  5
18C
330
1F
100
AcDbEntity
  8
0
  6
SLD-Gestrichelt
 62
     7
370
     0
100
AcDbLine
 10
157.5438247396
 20
117.3334168478
 30
0.0
 11
157.5438247396
 21
143.9883513584
 31
0.0
  0
LINE
  5
18D
330
1F
100
AcDbEntity
  8
0
  6
SLD-Gestrichelt
 62
     7
370
     0
100
AcDbLine
 10
157.5438247396
 20
112.9433000668
 30
0.0
 11
157.5438247396
 21
86.1907629504
 31
0.0
  0
LWPOLYLINE
  5
18E
330
1F
100
AcDbEntity
  8
0
  6
SLD-Gestrichelt
 62
     7
370
     0
100
AcDbPolyline
 90
        3
 70
   128
 43
0.0
 10
157.2128429411
 20
113.4932772464
 10
157.2771349324
 20
113.3681369454
 10
157.5438247396
 20
112.9433000668
  0
LINE
  5
18F
330
1F
100
AcDbEntity
  8
0
  6
SLD-Gestrichelt
 62
     7
370
     0
100
AcDbLine
 10
156.0846271327
 20
111.8434602602
 30
0.0
 11
157.2128429411
 21
113.4932772464
 31
0.0
  0
LINE
  5
190
330
1F
100
AcDbEntity
  8
0
  6
SLD-Gestrichelt
 62
     7
370
     0
100
AcDbLine
 10
167.5188240929
 20
103.1586602538
 30
0.0
 11
167.5188240929
 21
127.1180566608
 31
0.0
  0
ARC
  5
191
330
1F
100
AcDbEntity
  8
0
  6
SLD-Gestrichelt
 62
     7
370
     0
100
AcDbCircle
 10
160.5688380809
 20
115.1383731178
 30
0.0
 40
3.737519419870083
100
AcDbArc
 50
215.9661695598
 51
237.19328428
  0
LINE
  5
192
330
1F
100
AcDbEntity
  8
0
  6
SLD-Gestrichelt
 62
     7
370
     0
100
AcDbLine
 10
157.5438247396
 20
112.9433000668
 30
0.0
 11
157.5438247396
 21
86.3086628004
 31
0.0
  0
LWPOLYLINE
  5
193
330
1F
100
AcDbEntity
  8
0
  6
SLD-Gestrichelt
 62
     7
370
     0
100
AcDbPolyline
 90
        3
 70
   128
 43
0.0
 10
160.2938247247
 20
118.8657277005
 10
159.0804809107
 20
118.5667310118
 10
158.5438249035
 20
118.2797404679
  0
LINE
  5
194
330
1F
100
AcDbEntity
  8
0
  6
SLD-Gestrichelt
 62
     7
370
     0
100
AcDbLine
 10
161.7216688915
 20
111.5831006526
 30
0.0
 11
162.7530229612
 21
110.2486513762
 31
0.0
  0
LINE
  5
195
330
1F
100
AcDbEntity
  8
0
  6
SLD-Gestrichelt
 62
     7
370
     0
100
AcDbLine
 10
161.2938248886
 20
111.4718504457
 30
0.0
 11
161.7216688915
 21
111.5831006526
 31
0.0
  0
LINE
  5
196
330
1F
100
AcDbEntity
  8
0
  6
SLD-Gestrichelt
 62
     7
370
     0
100
AcDbLine
 10
161.2938248886
 20
111.4718504457
 30
0.0
 11
161.2938248886
 21
86.1907629504
 31
0.0
  0
ARC
  5
197
330
1F
100
AcDbEntity
  8
0
  6
SLD-Gestrichelt
 62
     7
370
     0
100
AcDbCircle
 10
160.5688267702
 20
115.1383940343
 30
0.0
 40
3.73746470015578
100
AcDbArc
 50
78.8147821091
 51
94.2196275112
  0
LINE
  5
198
330
1F
100
AcDbEntity
  8
0
  6
SLD-Gestrichelt
 62
     7
370
     0
100
AcDbLine
 10
161.2938248886
 20
118.8048664688
 30
0.0
 11
161.2938248886
 21
143.9859466835
 31
0.0
  0
LWPOLYLINE
  5
199
330
1F
100
AcDbEntity
  8
0
  6
SLD-Gestrichelt
 62
     7
370
     0
100
AcDbPolyline
 90
        3
 70
   128
 43
0.0
 10
158.5438249035
 20
111.9969764466
 10
159.6918038426
 20
111.5052139128
 10
160.2938247247
 20
111.410989214
  0
ARC
  5
19A
330
1F
100
AcDbEntity
  8
0
  6
SLD-Gestrichelt
 62
     7
370
     0
100
AcDbCircle
 10
160.5688254603
 20
115.1383444032
 30
0.0
 40
3.737486068389743
100
AcDbArc
 50
265.7804167929
 51
281.1851735868
  0
LINE
  5
19B
330
1F
100
AcDbEntity
  8
0
  6
SLD-Gestrichelt
 62
     7
370
     0
100
AcDbLine
 10
161.2938248886
 20
111.4718504457
 30
0.0
 11
161.2938248886
 21
86.2883785947
 31
0.0
  0
LWPOLYLINE
  5
19C
330
1F
100
AcDbEntity
  8
0
  6
SLD-Gestrichelt
 62
     7
370
     0
100
AcDbPolyline
 90
       56
 70
   128
 43
0.0
 10
123.1735998167
 20
136.9893728032
 10
121.9750547184
 20
137.2173587068
 10
121.41720926
 20
137.3501988335
 10
120.9822294636
 20
137.462605743
 10
120.6527666523
 20
137.5545757099
 10
120.4108034594
 20
137.6261124595
 10
119.9884766115
 20
137.7597330346
 10
119.8724226429
 20
137.8012346311
 10
119.8689637108
 20
137.8024714275
 10
120.0042420401
 20
137.7544878258
 10
120.1132999136
 20
137.7183618231
 10
120.2587892635
 20
137.6721663608
 10
120.4431669189
 20
137.6159070267
 10
120.7787969484
 20
137.5175761266
 10
121.2922239079
 20
137.3803122177
 10
122.0342235042
 20
137.2041152998
 10
122.8582744821
 20
137.0405247642
 10
123.6600072457
 20
136.9165210261
 10
124.4087105019
 20
136.831092669
 10
125.8132399394
 20
136.7568215563
 10
126.5150287522
 20
136.760250686
 10
127.2004840298
 20
136.7903547569
 10
128.5472733303
 20
136.9295073881
 10
129.0195023044
 20
137.0011167808
 10
129.4989173634
 20
137.0853381439
 10
129.96129667
 20
137.1777365192
 10
130.4186263456
 20
137.2813796832
 10
130.9743893667
 20
137.4210911079
 10
131.6064761354
 20
137.596867068
 10
132.2826889677
 20
137.8087112888
 10
132.9510656519
 20
138.0401021077
 10
133.4597838445
 20
138.2281063332
 10
133.8288297279
 20
138.3727202399
 10
134.2468939124
 20
138.5466875716
 10
134.3641492872
 20
138.5997897221
 10
134.3686745836
 20
138.6018386318
 10
134.2297091483
 20
138.538890539
 10
134.1199714093
 20
138.4918177708
 10
133.9753677471
 20
138.4317008986
 10
133.7942404075
 20
138.3585380598
 10
133.5256842299
 20
138.253056465
 10
133.1803293301
 20
138.122863157
 10
132.7483539803
 20
137.9679562731
 10
132.221173249
 20
137.7883376761
 10
131.6854150368
 20
137.6198260321
 10
131.1700770034
 20
137.4730942978
 10
130.6916565968
 20
137.3481443359
 10
130.2627229466
 20
137.2449724211
 10
129.8925520255
 20
137.1635822787
 10
128.4577508791
 20
136.9173741176
 10
127.1176056339
 20
136.7852753236
 10
125.7514243348
 20
136.7611708327
 10
125.2791934981
 20
136.7769157721
 10
124.8027568086
 20
136.8045499756
 10
124.3251317515
 20
136.8440753056
 10
123.1735998167
 20
136.9893728032
  0
LWPOLYLINE
  5
19D
330
1F
100
AcDbEntity
  8
0
  6
SLD-Gestrichelt
 62
     7
370
     0
100
AcDbPolyline
 90
       56
 70
   128
 43
0.0
 10
120.9831086321
 20
92.814155875
 10
121.9750696196
 20
93.0591924323
 10
122.57220944
 20
93.1836059524
 10
123.1742536052
 20
93.2873422487
 10
123.7639223559
 20
93.3704031839
 10
124.3273259474
 20
93.4327850326
 10
125.7547044529
 20
93.5155702962
 10
127.1214240565
 20
93.4910094573
 10
128.4603939726
 20
93.3586107774
 10
128.812705852
 20
93.3077512516
 10
129.1699109002
 20
93.2497913225
 10
129.5307052656
 20
93.1847272648
 10
129.8936435355
 20
93.1125590785
 10
130.543358378
 20
92.9649165108
 10
131.3390692099
 20
92.7567305251
 10
132.2218605651
 20
92.4880048468
 10
132.9040431751
 20
92.2537828072
 10
133.421830587
 20
92.0634968414
 10
133.7969561441
 20
91.917148812
 10
134.2315857633
 20
91.7369751467
 10
134.3687388449
 20
91.6747516229
 10
134.3654065727
 20
91.6762566401
 10
134.2450443058
 20
91.7306123509
 10
134.1406365259
 20
91.7755058243
 10
134.0015462934
 20
91.8335346712
 10
133.8261493816
 20
91.9047007545
 10
133.5622423662
 20
92.0088468327
 10
133.2226914688
 20
92.1375239475
 10
132.7982337548
 20
92.290732099
 10
132.2808300479
 20
92.4684731497
 10
131.738403566
 20
92.6405051931
 10
131.2201113774
 20
92.7893249525
 10
130.7441869153
 20
92.9149324282
 10
130.3243224843
 20
93.0173294826
 10
129.9704478456
 20
93.0965123906
 10
128.5381910725
 20
93.3481035962
 10
127.8534752651
 20
93.4313116803
 10
127.2010055705
 20
93.486129327
 10
126.5236360355
 20
93.5150804206
 10
125.8297932668
 20
93.5168126805
 10
124.4036329313
 20
93.4399301394
 10
123.6296498551
 20
93.3533078267
 10
122.8307259603
 20
93.2309786065
 10
122.0326477064
 20
93.0721005632
 10
121.4594503267
 20
92.9370587899
 10
121.0165803655
 20
92.8233294024
 10
120.6845005377
 20
92.730916126
 10
120.4432432874
 20
92.6598152353
 10
120.0041824354
 20
92.5217112734
 10
119.8689488097
 20
92.4741132392
 10
119.8717409147
 20
92.4751134797
 10
119.9887913986
 20
92.5170583858
 10
120.0925500466
 20
92.5515061452
 10
120.2325241043
 20
92.596019639
 10
120.4110847189
 20
92.6505988671
 10
120.9831086321
 20
92.814155875
  0
LINE
  5
19E
330
1F
100
AcDbEntity
  8
0
  6
SLD-Gestrichelt
 62
     7
370
     0
100
AcDbLine
 10
221.3188258334
 20
107.6383586249
 30
0.0
 11
221.3188258334
 21
122.6383582896
 31
0.0
  0
ARC
  5
19F
330
1F
100
AcDbEntity
  8
0
  6
SLD-Gestrichelt
 62
     7
370
     0
100
AcDbCircle
 10
159.3971237434
 20
-26.5702061997
 30
0.0
 40
161.8032751011624
100
AcDbArc
 50
102.198977327
 51
102.6368545471
  0
LWPOLYLINE
  5
1A0
330
1F
100
AcDbEntity
  8
0
  6
SLD-Gestrichelt
 62
     7
370
     0
100
AcDbPolyline
 90
       32
 70
   128
 43
0.0
 10
125.1996212973
 20
131.5809646829
 10
125.7690989746
 20
131.5127248152
 10
127.127898611
 20
131.4418846949
 10
128.4828388466
 20
131.5136859401
 10
128.9556284769
 20
131.5693157001
 10
129.4346542432
 20
131.6407947077
 10
129.9167291595
 20
131.7281211002
 10
130.6051069273
 20
131.8812044545
 10
131.3976046963
 20
132.093931569
 10
132.2438565417
 20
132.3663024439
 10
132.7947021796
 20
132.5687216802
 10
133.2286239936
 20
132.739854066
 10
133.561141543
 20
132.8797014638
 10
133.8085883631
 20
132.988262011
 10
134.2350335194
 20
133.1808837338
 10
134.3683048485
 20
133.2443366035
 10
134.3688208012
 20
133.2445824726
 10
134.2369417994
 20
133.178531213
 10
134.1291812582
 20
133.1274872853
 10
133.9861431493
 20
133.0619296266
 10
133.8060365392
 20
132.981858237
 10
133.4419546051
 20
132.825833766
 10
132.9299078657
 20
132.6205535068
 10
132.2430444284
 20
132.3660174592
 10
131.611097358
 20
132.1569876953
 10
130.9972719623
 20
131.9807497992
 10
130.4250692351
 20
131.837303771
 10
129.9119552
 20
131.7266533359
 10
128.4755149259
 20
131.512799321
 10
127.1188256665
 20
131.4418809696
 10
125.7618104442
 20
131.5134791865
 10
125.2006476148
 20
131.5808175339
  0
ARC
  5
1A1
330
1F
100
AcDbEntity
  8
0
  6
SLD-Gestrichelt
 62
     7
370
     0
100
AcDbCircle
 10
160.1624780831
 20
-29.7386996712
 30
0.0
 40
165.0611868495587
100
AcDbArc
 50
102.2254936548
 51
102.6544414908
  0
ARC
  5
1A2
330
1F
100
AcDbEntity
  8
0
  6
SLD-Gestrichelt
 62
     7
370
     0
100
AcDbCircle
 10
158.8536192796
 20
254.2893671738
 30
0.0
 40
159.1890860747509
100
AcDbArc
 50
257.3517234167
 51
257.7964852006
  0
LWPOLYLINE
  5
1A3
330
1F
100
AcDbEntity
  8
0
  6
SLD-Gestrichelt
 62
     7
370
     0
100
AcDbPolyline
 90
       32
 70
   128
 43
0.0
 10
125.1980063839
 20
98.6962234809
 10
125.7621345444
 20
98.7639175935
 10
127.1188256665
 20
98.834835945
 10
128.4758390261
 20
98.7632377281
 10
128.949302934
 20
98.7077942325
 10
129.4289824887
 20
98.6365648194
 10
129.911692567
 20
98.5495457633
 10
130.6112648322
 20
98.3945755495
 10
131.4047088249
 20
98.1815410985
 10
132.2437689974
 20
97.9104442729
 10
132.7769940122
 20
97.7146746798
 10
133.2083211614
 20
97.5466137959
 10
133.5484196766
 20
97.4062616213
 10
133.8091248049
 20
97.2936200185
 10
134.23897022
 20
97.0971109553
 10
134.3679556026
 20
97.0325684382
 10
134.3688245265
 20
97.0321344419
 10
134.2378517015
 20
97.0982453062
 10
134.1303509994
 20
97.1493153109
 10
133.987470284
 20
97.2149009092
 10
133.8073701932
 20
97.2950039639
 10
133.4428076966
 20
97.451153232
 10
132.9298091455
 20
97.6565731897
 10
132.2414369656
 20
97.9112638368
 10
131.6082791759
 20
98.1203196778
 10
130.9933268799
 20
98.2965445353
 10
130.4201704784
 20
98.4399365469
 10
129.906328149
 20
98.550497575
 10
128.4685504957
 20
98.7639920993
 10
127.1097508593
 20
98.8348322197
 10
125.7548106237
 20
98.7630309744
 10
125.1971514298
 20
98.6958416386
  0
ARC
  5
1A4
330
1F
100
AcDbEntity
  8
0
  6
SLD-Gestrichelt
 62
     7
370
     0
100
AcDbCircle
 10
157.4587212111
 20
248.4057880489
 30
0.0
 40
153.1445021958026
100
AcDbArc
 50
257.3779303826
 51
257.840579798
  0
LWPOLYLINE
  5
1A5
330
1F
100
AcDbEntity
  8
0
  6
SLD-Gestrichelt
 62
     7
370
     0
100
AcDbPolyline
 90
       25
 70
   128
 43
0.0
 10
125.1935695632
 20
131.5817991479
 10
125.3728547467
 20
133.0719785972
 10
125.2917440011
 20
134.107940851
 10
124.9996626152
 20
134.8353224083
 10
124.5042884125
 20
135.4235010429
 10
123.4243565573
 20
136.1624570771
 10
122.5500774904
 20
136.597449912
 10
121.7317820861
 20
136.9526339902
 10
121.0405544712
 20
137.2306840702
 10
120.4791606738
 20
137.4467304184
 10
120.0975437982
 20
137.5898393078
 10
119.8947091921
 20
137.6648778303
 10
119.8912148698
 20
137.6661649181
 10
119.8881917967
 20
137.6672769173
 10
120.0683598741
 20
137.60067804
 10
120.4144970848
 20
137.471172048
 10
120.9334970786
 20
137.2724669262
 10
121.5927784665
 20
137.0098544492
 10
122.3937233313
 20
136.6682099386
 10
123.2880854382
 20
136.2359142138
 10
124.2436708285
 20
135.6401080473
 10
124.8694264664
 20
135.0266700818
 10
125.2669745459
 20
134.2075718774
 10
125.3740226252
 20
133.1088906361
 10
125.1935695632
 20
131.5818047358
  0
LWPOLYLINE
  5
1A6
330
1F
100
AcDbEntity
  8
0
  6
SLD-Gestrichelt
 62
     7
370
     0
100
AcDbPolyline
 90
       26
 70
   128
 43
0.0
 10
125.1934931947
 20
98.6953331365
 10
125.3728547467
 20
97.2047364547
 10
125.3715825601
 20
97.1884792878
 10
125.2917440011
 20
96.1687742009
 10
124.9996626152
 20
95.4413945063
 10
124.5042865498
 20
94.8532158716
 10
123.4243546946
 20
94.1142598375
 10
122.5500774904
 20
93.6792670025
 10
121.7317820861
 20
93.3240810617
 10
121.0405544712
 20
93.0460309817
 10
120.4791588111
 20
92.8299846335
 10
120.0975437982
 20
92.6868776067
 10
119.8947091921
 20
92.6118390842
 10
119.8912148698
 20
92.6105519964
 10
119.8881917967
 20
92.6094399973
 10
120.0683617367
 20
92.6760407372
 10
120.4144989474
 20
92.8055448665
 10
120.9334970786
 20
93.0042499884
 10
121.5927784665
 20
93.2668624653
 10
122.3937251939
 20
93.608506976
 10
123.2880873008
 20
94.0408045633
 10
124.2436726911
 20
94.6366088672
 10
124.869428329
 20
95.2500486954
 10
125.2669745459
 20
96.0691450371
 10
125.3740226252
 20
97.167828141
 10
125.1934466286
 20
98.6955901815
  0
LINE
  5
1A7
330
1F
100
AcDbEntity
  8
0
  6
SLD-Gestrichelt
 62
     7
370
     0
100
AcDbLine
 10
221.3188258334
 20
122.1383586733
 30
0.0
 11
221.3188258334
 21
108.1588976293
 31
0.0
  0
LINE
  5
1A8
330
1F
100
AcDbEntity
  8
0
  6
SLD-Gestrichelt
 62
     7
370
     0
100
AcDbLine
 10
233.2188261075
 20
108.6383583232
 30
0.0
 11
233.2188261075
 21
121.6383585914
 31
0.0
  0
LINE
  5
1A9
330
1F
100
AcDbEntity
  8
0
  6
SLD-Gestrichelt
 62
     7
370
     0
100
AcDbLine
 10
233.5188237353
 20
121.3383586353
 30
0.0
 11
233.5188237353
 21
108.9584632053
 31
0.0
  0
LINE
  5
1AA
330
1F
100
AcDbEntity
  8
0
  6
SLD-Gestrichelt
 62
     7
370
     0
100
AcDbLine
 10
233.5188237353
 20
120.9860732986
 30
0.0
 11
233.5188237353
 21
109.2906436159
 31
0.0
  0
LINE
  5
1AB
330
1F
100
AcDbEntity
  8
0
  6
SLD-Gestrichelt
 62
     7
370
     0
100
AcDbLine
 10
153.0688248909
 20
109.3883584461
 30
0.0
 11
153.0688248909
 21
120.8883584684
 31
0.0
  0
LINE
  5
1AC
330
1F
100
AcDbEntity
  8
0
  6
SLD-Gestrichelt
 62
     7
370
     0
100
AcDbLine
 10
152.2438248953
 20
109.3883584461
 30
0.0
 11
152.2438248953
 21
120.8883584684
 31
0.0
  0
LINE
  5
1AD
330
1F
100
AcDbEntity
  8
0
  6
SLD-Gestrichelt
 62
     7
370
     0
100
AcDbLine
 10
221.066929154
 20
111.3883585411
 30
0.0
 11
221.066929154
 21
118.8883583735
 31
0.0
  0
LINE
  5
1AE
330
1F
100
AcDbEntity
  8
0
  6
SLD-Gestrichelt
 62
     7
370
     0
100
AcDbLine
 10
148.8188248927
 20
110.138358569
 30
0.0
 11
148.8188248927
 21
120.1383583455
 31
0.0
  0
LINE
  5
1AF
330
1F
100
AcDbEntity
  8
0
  6
SLD-Gestrichelt
 62
     7
370
     0
100
AcDbLine
 10
148.4188248737
 20
109.9074185102
 30
0.0
 11
148.4188248737
 21
120.3692984043
 31
0.0
  0
LINE
  5
1B0
330
1F
100
AcDbEntity
  8
0
  6
SLD-Gestrichelt
 62
     7
370
     0
100
AcDbLine
 10
152.2438248953
 20
110.1433932989
 30
0.0
 11
152.2438248953
 21
120.1333236157
 31
0.0
  0
LINE
  5
1B1
330
1F
100
AcDbEntity
  8
0
  6
SLD-Gestrichelt
 62
     7
370
     0
100
AcDbLine
 10
197.9359385891
 20
112.6383585131
 30
0.0
 11
197.9359385891
 21
117.6383584014
 31
0.0
  0
LINE
  5
1B2
330
1F
100
AcDbEntity
  8
0
  6
SLD-Gestrichelt
 62
     7
370
     0
100
AcDbLine
 10
198.5188235863
 20
111.3883585411
 30
0.0
 11
198.5188235863
 21
118.8883583735
 31
0.0
  0
LINE
  5
1B3
330
1F
100
AcDbEntity
  8
0
  6
SLD-Gestrichelt
 62
     7
370
     0
100
AcDbLine
 10
153.0688248909
 20
112.6383585131
 30
0.0
 11
153.0688248909
 21
117.6383584014
 31
0.0
  0
LINE
  5
1B4
330
1F
100
AcDbEntity
  8
0
  6
SLD-Gestrichelt
 62
     7
370
     0
100
AcDbLine
 10
110.3731875642
 20
104.6767328142
 30
0.0
 11
111.0688259228
 21
105.0783582239
 31
0.0
  0
LINE
  5
1B5
330
1F
100
AcDbEntity
  8
0
  6
SLD-Gestrichelt
 62
     7
370
     0
100
AcDbLine
 10
111.0688259228
 20
105.0783582239
 30
0.0
 11
112.6985882743
 21
105.0783582239
 31
0.0
  0
LINE
  5
1B6
330
1F
100
AcDbEntity
  8
0
  6
SLD-Gestrichelt
 62
     7
370
     0
100
AcDbLine
 10
112.6148549242
 20
104.755895233
 30
0.0
 11
112.698584549
 21
105.0783582239
 31
0.0
  0
LINE
  5
1B7
330
1F
100
AcDbEntity
  8
0
  6
SLD-Gestrichelt
 62
     7
370
     0
100
AcDbLine
 10
112.6985882743
 20
105.0783582239
 30
0.0
 11
115.4061665161
 21
105.0783582239
 31
0.0
  0
LINE
  5
1B8
330
1F
100
AcDbEntity
  8
0
  6
SLD-Gestrichelt
 62
     7
370
     0
100
AcDbLine
 10
119.1794832571
 20
106.6923616661
 30
0.0
 11
119.1193105056
 21
107.075858882
 31
0.0
  0
ARC
  5
1B9
330
1F
100
AcDbEntity
  8
0
  6
SLD-Gestrichelt
 62
     7
370
     0
100
AcDbCircle
 10
115.5310055992
 20
108.696091188
 30
0.0
 40
3.619886139909724
100
AcDbArc
 50
268.0237064507
 51
322.3583518571
  0
LINE
  5
1BA
330
1F
100
AcDbEntity
  8
0
  6
SLD-Gestrichelt
 62
     7
370
     0
100
AcDbLine
 10
118.8688257112
 20
107.075858882
 30
0.0
 11
119.1193105056
 21
107.075858882
 31
0.0
  0
LINE
  5
1BB
330
1F
100
AcDbEntity
  8
0
  6
SLD-Gestrichelt
 62
     7
370
     0
100
AcDbLine
 10
118.1726378723
 20
123.2008580326
 30
0.0
 11
118.0188131853
 21
123.2008580326
 31
0.0
  0
LINE
  5
1BC
330
1F
100
AcDbEntity
  8
0
  6
SLD-Gestrichelt
 62
     7
370
     0
100
AcDbLine
 10
118.1726378723
 20
123.2008580326
 30
0.0
 11
118.1557511313
 21
123.5834732859
 31
0.0
  0
ARC
  5
1BD
330
1F
100
AcDbEntity
  8
0
  6
SLD-Gestrichelt
 62
     7
370
     0
100
AcDbCircle
 10
127.5188228859
 20
119.3508559524
 30
0.0
 40
4.000002756715827
100
AcDbArc
 50
0.0000367656
 51
89.9999699045
  0
LINE
  5
1BE
330
1F
100
AcDbEntity
  8
0
  6
SLD-Gestrichelt
 62
     7
370
     0
100
AcDbLine
 10
127.518824987
 20
106.5908614754
 30
0.0
 11
127.518824987
 21
106.9258582054
 31
0.0
  0
ARC
  5
1BF
330
1F
100
AcDbEntity
  8
0
  6
SLD-Gestrichelt
 62
     7
370
     0
100
AcDbCircle
 10
127.5188225911
 20
110.925861257
 30
0.0
 40
4.000003051526001
100
AcDbArc
 50
270.0000343183
 51
359.9999590116
  0
LINE
  5
1C0
330
1F
100
AcDbEntity
  8
0
  6
SLD-Gestrichelt
 62
     7
370
     0
100
AcDbLine
 10
125.6039512678
 20
123.3508587091
 30
0.0
 11
124.5188561602
 21
123.2008673458
 31
0.0
  0
LINE
  5
1C1
330
1F
100
AcDbEntity
  8
0
  6
SLD-Gestrichelt
 62
     7
370
     0
100
AcDbLine
 10
124.5190033092
 20
123.2008580326
 30
0.0
 11
124.0347081198
 21
123.2008580326
 31
0.0
  0
LINE
  5
1C2
330
1F
100
AcDbEntity
  8
0
  6
SLD-Gestrichelt
 62
     7
370
     0
100
AcDbLine
 10
124.6051543726
 20
123.5793046861
 30
0.0
 11
123.8905002697
 21
123.201139292
 31
0.0
  0
LINE
  5
1C3
330
1F
100
AcDbEntity
  8
0
  6
SLD-Gestrichelt
 62
     7
370
     0
100
AcDbLine
 10
124.5188524349
 20
107.0758505
 30
0.0
 11
125.6039512678
 21
106.9258582054
 31
0.0
  0
LINE
  5
1C4
330
1F
100
AcDbEntity
  8
0
  6
SLD-Gestrichelt
 62
     7
370
     0
100
AcDbLine
 10
123.8909882827
 20
107.0755683093
 30
0.0
 11
124.6065718456
 21
106.6967155992
 31
0.0
  0
LINE
  5
1C5
330
1F
100
AcDbEntity
  8
0
  6
SLD-Gestrichelt
 62
     7
370
     0
100
AcDbLine
 10
124.0366843863
 20
107.075858882
 30
0.0
 11
124.5189660563
 21
107.075858882
 31
0.0
  0
LINE
  5
1C6
330
1F
100
AcDbEntity
  8
0
  6
SLD-Gestrichelt
 62
     7
370
     0
100
AcDbLine
 10
119.1193105056
 20
107.075858882
 30
0.0
 11
123.8914129658
 21
107.075858882
 31
0.0
  0
LINE
  5
1C7
330
1F
100
AcDbEntity
  8
0
  6
SLD-Gestrichelt
 62
     7
370
     0
100
AcDbLine
 10
123.8909137769
 20
123.2008580326
 30
0.0
 11
118.1726378723
 21
123.2008580326
 31
0.0
  0
LINE
  5
1C8
330
1F
100
AcDbEntity
  8
0
  6
SLD-Gestrichelt
 62
     7
370
     0
100
AcDbLine
 10
131.5188256426
 20
110.9258583954
 30
0.0
 11
131.5188256426
 21
119.3508585191
 31
0.0
  0
CIRCLE
  5
1C9
330
1F
100
AcDbEntity
  8
0
  6
SLD-Gestrichelt
 62
     7
370
     0
100
AcDbCircle
 10
160.5688248678
 20
115.1383584573
 30
0.0
 40
3.737499999999983
  0
LINE
  5
1CA
330
1F
100
AcDbEntity
  8
0
  6
SLD-Gestrichelt
 62
     7
370
     0
100
AcDbLine
 10
111.0688259228
 20
105.0783582239
 30
0.0
 11
110.2086899205
 21
104.5817602633
 31
0.0
  0
LINE
  5
1CB
330
1F
100
AcDbEntity
  8
0
  6
SLD-Gestrichelt
 62
     7
370
     0
100
AcDbLine
 10
115.4061665161
 20
105.0783582239
 30
0.0
 11
111.0688259228
 21
105.0783582239
 31
0.0
  0
LINE
  5
1CC
330
1F
100
AcDbEntity
  8
0
  6
SLD-Gestrichelt
 62
     7
370
     0
100
AcDbLine
 10
115.361071877
 20
104.2374670713
 30
0.0
 11
115.4061665161
 21
105.0783582239
 31
0.0
  0
ARC
  5
1CD
330
1F
100
AcDbEntity
  8
0
  6
SLD-Gestrichelt
 62
     7
370
     0
100
AcDbCircle
 10
115.406167896
 20
109.078358556
 30
0.0
 40
4.00000033204179
100
AcDbArc
 50
269.9999802351
 51
327.5545024762
  0
LINE
  5
1CE
330
1F
100
AcDbEntity
  8
0
  6
SLD-Gestrichelt
 62
     7
370
     0
100
AcDbLine
 10
110.1551649495
 20
123.8783598154
 30
0.0
 11
111.0688259228
 21
123.3508587091
 31
0.0
  0
LINE
  5
1CF
330
1F
100
AcDbEntity
  8
0
  6
SLD-Gestrichelt
 62
     7
370
     0
100
AcDbLine
 10
111.0688259228
 20
123.3508587091
 30
0.0
 11
116.9336994512
 21
123.3508587091
 31
0.0
  0
LINE
  5
1D0
330
1F
100
AcDbEntity
  8
0
  6
SLD-Gestrichelt
 62
     7
370
     0
100
AcDbLine
 10
116.9336994512
 20
123.3508587091
 30
0.0
 11
116.8869992121
 21
124.2558956354
 31
0.0
  0
LINE
  5
1D1
330
1F
100
AcDbEntity
  8
0
  6
SLD-Gestrichelt
 62
     7
370
     0
100
AcDbLine
 10
116.9336994512
 20
123.3508587091
 30
0.0
 11
117.9449816568
 21
123.2209112703
 31
0.0
  0
LINE
  5
1D2
330
1F
100
AcDbEntity
  8
0
  6
SLD-Gestrichelt
 62
     7
370
     0
100
AcDbLine
 10
117.9449742062
 20
123.2209103389
 30
0.0
 11
117.9703881367
 21
124.1184687449
 31
0.0
  0
LINE
  5
1D3
330
1F
100
AcDbEntity
  8
0
  6
SLD-Gestrichelt
 62
     7
370
     0
100
AcDbLine
 10
118.0188243611
 20
123.2008580326
 30
0.0
 11
124.1924983783
 21
123.2008580326
 31
0.0
  0
LINE
  5
1D4
330
1F
100
AcDbEntity
  8
0
  6
SLD-Gestrichelt
 62
     7
370
     0
100
AcDbLine
 10
117.9449853821
 20
123.2209094076
 30
0.0
 11
118.0102487429
 21
123.2032655014
 31
0.0
  0
LINE
  5
1D5
330
1F
100
AcDbEntity
  8
0
  6
SLD-Gestrichelt
 62
     7
370
     0
100
AcDbLine
 10
118.9561968072
 20
106.1588851942
 30
0.0
 11
118.7840846701
 21
106.9309013172
 31
0.0
  0
LINE
  5
1D6
330
1F
100
AcDbEntity
  8
0
  6
SLD-Gestrichelt
 62
     7
370
     0
100
AcDbLine
 10
124.1931260897
 20
107.075858882
 30
0.0
 11
118.8688257112
 21
107.075858882
 31
0.0
  0
LINE
  5
1D7
330
1F
100
AcDbEntity
  8
0
  6
SLD-Gestrichelt
 62
     7
370
     0
100
AcDbLine
 10
118.8688257112
 20
107.075858882
 30
0.0
 11
118.7813838346
 21
106.9317534773
 31
0.0
  0
LINE
  5
1D8
330
1F
100
AcDbEntity
  8
0
  6
SLD-Gestrichelt
 62
     7
370
     0
100
AcDbLine
 10
124.1913528516
 20
123.2002852692
 30
0.0
 11
123.3638336285
 21
124.114334604
 31
0.0
  0
LINE
  5
1D9
330
1F
100
AcDbEntity
  8
0
  6
SLD-Gestrichelt
 62
     7
370
     0
100
AcDbLine
 10
124.5188431217
 20
123.2008636205
 30
0.0
 11
125.6039512678
 21
123.3508587091
 31
0.0
  0
LINE
  5
1DA
330
1F
100
AcDbEntity
  8
0
  6
SLD-Gestrichelt
 62
     7
370
     0
100
AcDbLine
 10
124.1935824378
 20
123.2008580326
 30
0.0
 11
124.5189250781
 21
123.2008580326
 31
0.0
  0
ARC
  5
1DB
330
1F
100
AcDbEntity
  8
0
  6
SLD-Gestrichelt
 62
     7
370
     0
100
AcDbCircle
 10
140.2085724693
 20
91.7591023769
 30
0.0
 40
22.16203885069053
100
AcDbArc
 50
136.2785004772
 51
139.4672599542
  0
LINE
  5
1DC
330
1F
100
AcDbEntity
  8
0
  6
SLD-Gestrichelt
 62
     7
370
     0
100
AcDbLine
 10
125.6039512678
 20
106.9258582054
 30
0.0
 11
124.5188393964
 21
107.0758542253
 31
0.0
  0
LINE
  5
1DD
330
1F
100
AcDbEntity
  8
0
  6
SLD-Gestrichelt
 62
     7
370
     0
100
AcDbLine
 10
124.5188971384
 20
107.075858882
 30
0.0
 11
124.1931279524
 21
107.075858882
 31
0.0
  0
LINE
  5
1DE
330
1F
100
AcDbEntity
  8
0
  6
SLD-Gestrichelt
 62
     7
370
     0
100
AcDbLine
 10
125.5590093656
 20
105.628323762
 30
0.0
 11
125.6039512678
 21
106.9258582054
 31
0.0
  0
LINE
  5
1DF
330
1F
100
AcDbEntity
  8
0
  6
SLD-Gestrichelt
 62
     7
370
     0
100
AcDbLine
 10
125.5590093656
 20
124.6483931525
 30
0.0
 11
125.6039512678
 21
123.3508587091
 31
0.0
  0
LINE
  5
1E0
330
1F
100
AcDbEntity
  8
0
  6
SLD-Gestrichelt
 62
     7
370
     0
100
AcDbLine
 10
127.4738830848
 20
124.6468974485
 30
0.0
 11
127.518824987
 21
123.3508587091
 31
0.0
  0
ARC
  5
1E1
330
1F
100
AcDbEntity
  8
0
  6
SLD-Gestrichelt
 62
     7
370
     0
100
AcDbCircle
 10
127.518825302
 20
119.3508583685
 30
0.0
 40
4.000000340633792
100
AcDbArc
 50
0.0000021578
 51
90.0000045123
  0
LINE
  5
1E2
330
1F
100
AcDbEntity
  8
0
  6
SLD-Gestrichelt
 62
     7
370
     0
100
AcDbLine
 10
127.4738830848
 20
105.6298194661
 30
0.0
 11
127.518824987
 21
106.9258582054
 31
0.0
  0
ARC
  5
1E3
330
1F
100
AcDbEntity
  8
0
  6
SLD-Gestrichelt
 62
     7
370
     0
100
AcDbCircle
 10
127.5188246649
 20
110.9258591832
 30
0.0
 40
4.000000977739118
100
AcDbArc
 50
270.0000046136
 51
359.9999887163
  0
LINE
  5
1E4
330
1F
100
AcDbEntity
  8
0
  6
SLD-Gestrichelt
 62
     7
370
     0
100
AcDbLine
 10
132.4137670322
 20
110.7636830046
 30
0.0
 11
131.5188256426
 21
110.9258583954
 31
0.0
  0
LINE
  5
1E5
330
1F
100
AcDbEntity
  8
0
  6
SLD-Gestrichelt
 62
     7
370
     0
100
AcDbLine
 10
132.4137670322
 20
119.51303391
 30
0.0
 11
131.5188256426
 21
119.3508585191
 31
0.0
  0
LINE
  5
1E6
330
1F
100
AcDbEntity
  8
0
  6
SLD-Gestrichelt
 62
     7
370
     0
100
AcDbLine
 10
131.5188256426
 20
119.3508585191
 30
0.0
 11
131.5188256426
 21
110.9258583954
 31
0.0
  0
ARC
  5
1E7
330
1F
100
AcDbEntity
  8
0
  6
SLD-Gestrichelt
 62
     7
370
     0
100
AcDbCircle
 10
160.5688248678
 20
115.1383584573
 30
0.0
 40
3.737500000000015
100
AcDbArc
 50
287.9660359157
 51
72.0339640844
  0
ARC
  5
1E8
330
1F
100
AcDbEntity
  8
0
  6
SLD-Gestrichelt
 62
     7
370
     0
100
AcDbCircle
 10
160.5688248678
 20
115.1383584573
 30
0.0
 40
3.737500000000008
100
AcDbArc
 50
153.886195556
 51
206.113804444
  0
LINE
  5
1E9
330
1F
100
AcDbEntity
  8
0
  6
SLD-Gestrichelt
 62
     7
370
     0
100
AcDbLine
 10
149.5188248678
 20
88.2883584334
 30
0.0
 11
149.852863558
 21
89.3477937414
 31
0.0
  0
LINE
  5
1EA
330
1F
100
AcDbEntity
  8
0
  6
SLD-Gestrichelt
 62
     7
370
     0
100
AcDbLine
 10
149.852863558
 20
140.9289231731
 30
0.0
 11
149.5188248678
 21
141.9883584811
 31
0.0
  0
ARC
  5
1EB
330
1F
100
AcDbEntity
  8
0
  6
SLD-Gestrichelt
 62
     7
370
     0
100
AcDbCircle
 10
149.0898899932
 20
89.5883584573
 30
0.0
 40
0.7999999999999868
100
AcDbArc
 50
342.5
 51
0.0
  0
ARC
  5
1EC
330
1F
100
AcDbEntity
  8
0
  6
SLD-Gestrichelt
 62
     7
370
     0
100
AcDbCircle
 10
149.0898899932
 20
89.5883584573
 30
0.0
 40
0.8000000000000081
100
AcDbArc
 50
0.0
 51
57.576802718
  0
ARC
  5
1ED
330
1F
100
AcDbEntity
  8
0
  6
SLD-Gestrichelt
 62
     7
370
     0
100
AcDbCircle
 10
149.0898899932
 20
140.6883584573
 30
0.0
 40
0.799999999999991
100
AcDbArc
 50
346.5625
 51
17.5
  0
ARC
  5
1EE
330
1F
100
AcDbEntity
  8
0
  6
SLD-Gestrichelt
 62
     7
370
     0
100
AcDbCircle
 10
149.0898899932
 20
140.6883584573
 30
0.0
 40
0.7999999999999962
100
AcDbArc
 50
302.423197282
 51
346.5625
  0
LINE
  5
1EF
330
1F
100
AcDbEntity
  8
0
  6
SLD-Gestrichelt
 62
     7
370
     0
100
AcDbLine
 10
149.889890004
 20
89.5883580877
 30
0.0
 11
149.889890004
 21
140.6883588268
 31
0.0
  0
LINE
  5
1F0
330
1F
100
AcDbEntity
  8
0
  6
SLD-Gestrichelt
 62
     7
370
     0
100
AcDbLine
 10
149.889890004
 20
89.5883580877
 30
0.0
 11
149.889890004
 21
140.6883588268
 31
0.0
  0
LINE
  5
1F1
330
1F
100
AcDbEntity
  8
0
  6
SLD-Gestrichelt
 62
     7
370
     0
100
AcDbLine
 10
165.4921618624
 20
89.8007182612
 30
0.0
 11
164.0287290661
 21
90.8355200871
 31
0.0
  0
LINE
  5
1F2
330
1F
100
AcDbEntity
  8
0
  6
SLD-Gestrichelt
 62
     7
370
     0
100
AcDbLine
 10
157.1089203803
 20
90.8355200871
 30
0.0
 11
155.6607724501
 21
89.8115253283
 31
0.0
  0
LINE
  5
1F3
330
1F
100
AcDbEntity
  8
0
  6
SLD-Gestrichelt
 62
     7
370
     0
100
AcDbLine
 10
156.8313247858
 20
141.2572907491
 30
0.0
 11
156.8313247858
 21
131.2247803642
 31
0.0
  0
LINE
  5
1F4
330
1F
100
AcDbEntity
  8
0
  6
SLD-Gestrichelt
 62
     7
370
     0
100
AcDbLine
 10
164.3063246606
 20
131.2247803642
 30
0.0
 11
164.3063246606
 21
142.3931466623
 31
0.0
  0
LINE
  5
1F5
330
1F
100
AcDbEntity
  8
0
  6
SLD-Gestrichelt
 62
     7
370
     0
100
AcDbLine
 10
164.8063247426
 20
89.6122595503
 30
0.0
 11
164.8063247426
 21
96.5404631777
 31
0.0
  0
LINE
  5
1F6
330
1F
100
AcDbEntity
  8
0
  6
SLD-Gestrichelt
 62
     7
370
     0
100
AcDbLine
 10
156.3313247039
 20
96.5404631777
 30
0.0
 11
156.3313247039
 21
89.6122595503
 31
0.0
  0
ARC
  5
1F7
330
1F
100
AcDbEntity
  8
0
  6
SLD-Gestrichelt
 62
     7
370
     0
100
AcDbCircle
 10
141.2940653413
 20
97.6883584573
 30
0.0
 40
0.7999999999999972
100
AcDbArc
 50
240.0
 51
270.0
  0
ARC
  5
1F8
330
1F
100
AcDbEntity
  8
0
  6
SLD-Gestrichelt
 62
     7
370
     0
100
AcDbCircle
 10
141.2940653413
 20
132.5883584573
 30
0.0
 40
0.799999999999983
100
AcDbArc
 50
90.0
 51
120.0
  0
ARC
  5
1F9
330
1F
100
AcDbEntity
  8
0
  6
SLD-Gestrichelt
 62
     7
370
     0
100
AcDbCircle
 10
142.7188248678
 20
97.6883584573
 30
0.0
 40
0.8000000000000114
100
AcDbArc
 50
270.0
 51
0.0
  0
ARC
  5
1FA
330
1F
100
AcDbEntity
  8
0
  6
SLD-Gestrichelt
 62
     7
370
     0
100
AcDbCircle
 10
142.7188248678
 20
132.5883584573
 30
0.0
 40
0.8000000000000114
100
AcDbArc
 50
0.0
 51
90.0
  0
LINE
  5
1FB
330
1F
100
AcDbEntity
  8
0
  6
SLD-Gestrichelt
 62
     7
370
     0
100
AcDbLine
 10
141.2940656169
 20
96.8883587255
 30
0.0
 11
142.7188247776
 21
96.8883587255
 31
0.0
  0
LINE
  5
1FC
330
1F
100
AcDbEntity
  8
0
  6
SLD-Gestrichelt
 62
     7
370
     0
100
AcDbLine
 10
142.7188247776
 20
133.388358189
 30
0.0
 11
141.2940656169
 21
133.388358189
 31
0.0
  0
LINE
  5
1FD
330
1F
100
AcDbEntity
  8
0
  6
SLD-Gestrichelt
 62
     7
370
     0
100
AcDbLine
 10
140.8940653651
 20
133.2811778619
 30
0.0
 11
140.0188251732
 21
132.7758589967
 31
0.0
  0
LINE
  5
1FE
330
1F
100
AcDbEntity
  8
0
  6
SLD-Gestrichelt
 62
     7
370
     0
100
AcDbLine
 10
140.0188251732
 20
97.5008579178
 30
0.0
 11
140.8940653651
 21
96.9955390527
 31
0.0
  0
LINE
  5
1FF
330
1F
100
AcDbEntity
  8
0
  6
SLD-Gestrichelt
 62
     7
370
     0
100
AcDbLine
 10
110.3204896076
 20
134.0739345385
 30
0.0
 11
109.5688266082
 21
135.3758583053
 31
0.0
  0
LINE
  5
200
330
1F
100
AcDbEntity
  8
0
  6
SLD-Gestrichelt
 62
     7
370
     0
100
AcDbLine
 10
134.9944181143
 20
97.5008579178
 30
0.0
 11
140.0188251732
 21
97.5008579178
 31
0.0
  0
LINE
  5
201
330
1F
100
AcDbEntity
  8
0
  6
SLD-Gestrichelt
 62
     7
370
     0
100
AcDbLine
 10
112.5688252373
 20
97.5008579178
 30
0.0
 11
116.4580543859
 21
97.5008579178
 31
0.0
  0
LINE
  5
202
330
1F
100
AcDbEntity
  8
0
  6
SLD-Gestrichelt
 62
     7
370
     0
100
AcDbLine
 10
116.4580543859
 20
132.7758589967
 30
0.0
 11
112.5688252373
 21
132.7758589967
 31
0.0
  0
LINE
  5
203
330
1F
100
AcDbEntity
  8
0
  6
SLD-Gestrichelt
 62
     7
370
     0
100
AcDbLine
 10
140.0188251732
 20
132.7758589967
 30
0.0
 11
134.9939952938
 21
132.7758589967
 31
0.0
  0
LINE
  5
204
330
1F
100
AcDbEntity
  8
0
  6
SLD-Gestrichelt
 62
     7
370
     0
100
AcDbLine
 10
109.5688266082
 20
94.9008586093
 30
0.0
 11
110.3204896076
 21
96.202782376
 31
0.0
  0
LINE
  5
205
330
1F
100
AcDbEntity
  8
0
  6
SLD-Gestrichelt
 62
     7
370
     0
100
AcDbLine
 10
112.5688252373
 20
132.7758589967
 30
0.0
 11
110.3204896076
 21
134.0739345385
 31
0.0
  0
LINE
  5
206
330
1F
100
AcDbEntity
  8
0
  6
SLD-Gestrichelt
 62
     7
370
     0
100
AcDbLine
 10
110.3204896076
 20
96.202782376
 30
0.0
 11
112.5688252373
 21
97.5008579178
 31
0.0
  0
LINE
  5
207
330
1F
100
AcDbEntity
  8
0
  6
SLD-Gestrichelt
 62
     7
370
     0
100
AcDbLine
 10
143.5188248156
 20
99.5883587955
 30
0.0
 11
147.2188248167
 21
99.5883587955
 31
0.0
  0
LINE
  5
208
330
1F
100
AcDbEntity
  8
0
  6
SLD-Gestrichelt
 62
     7
370
     0
100
AcDbLine
 10
147.2188248167
 20
130.688358119
 30
0.0
 11
143.5188248156
 21
130.688358119
 31
0.0
  0
ARC
  5
209
330
1F
100
AcDbEntity
  8
0
  6
SLD-Gestrichelt
 62
     7
370
     0
100
AcDbCircle
 10
147.2188248678
 20
100.7883584573
 30
0.0
 40
1.200000000000017
100
AcDbArc
 50
270.0
 51
0.0
  0
ARC
  5
20A
330
1F
100
AcDbEntity
  8
0
  6
SLD-Gestrichelt
 62
     7
370
     0
100
AcDbCircle
 10
147.2188248678
 20
129.4883584573
 30
0.0
 40
1.200000000000017
100
AcDbArc
 50
0.0
 51
90.0
  0
LINE
  5
20B
330
1F
100
AcDbEntity
  8
0
  6
SLD-Gestrichelt
 62
     7
370
     0
100
AcDbLine
 10
161.7425789459
 20
98.5763101115
 30
0.0
 11
160.5688247232
 21
98.7454904451
 31
0.0
  0
LINE
  5
20C
330
1F
100
AcDbEntity
  8
0
  6
SLD-Gestrichelt
 62
     7
370
     0
100
AcDbLine
 10
160.5688247232
 20
98.7454904451
 30
0.0
 11
159.3950714319
 21
98.5763101115
 31
0.0
  0
LINE
  5
20D
330
1F
100
AcDbEntity
  8
0
  6
SLD-Gestrichelt
 62
     7
370
     0
100
AcDbLine
 10
159.5335674806
 20
129.4291503935
 30
0.0
 11
160.5688247232
 21
129.2799329593
 31
0.0
  0
LINE
  5
20E
330
1F
100
AcDbEntity
  8
0
  6
SLD-Gestrichelt
 62
     7
370
     0
100
AcDbLine
 10
160.5688247232
 20
129.2799329593
 30
0.0
 11
161.6040828972
 21
129.4291503935
 31
0.0
  0
LINE
  5
20F
330
1F
100
AcDbEntity
  8
0
  6
SLD-Gestrichelt
 62
     7
370
     0
100
AcDbLine
 10
119.1189845426
 20
138.6117367281
 30
0.0
 11
119.8688351883
 21
137.8025142683
 31
0.0
  0
LINE
  5
210
330
1F
100
AcDbEntity
  8
0
  6
SLD-Gestrichelt
 62
     7
370
     0
100
AcDbLine
 10
134.3688561915
 20
138.6019187256
 30
0.0
 11
135.0374349727
 21
139.4111411853
 31
0.0
  0
LINE
  5
211
330
1F
100
AcDbEntity
  8
0
  6
SLD-Gestrichelt
 62
     7
370
     0
100
AcDbLine
 10
135.0371686144
 20
90.8655943556
 30
0.0
 11
134.3688384964
 21
91.6747069194
 31
0.0
  0
LINE
  5
212
330
1F
100
AcDbEntity
  8
0
  6
SLD-Gestrichelt
 62
     7
370
     0
100
AcDbLine
 10
119.8688482268
 20
92.4740834369
 30
0.0
 11
119.1192583515
 21
91.6649708732
 31
0.0
  0
LINE
  5
213
330
1F
100
AcDbEntity
  8
0
  6
SLD-Gestrichelt
 62
     7
370
     0
100
AcDbLine
 10
134.9947692229
 20
132.7758589967
 30
0.0
 11
134.3688235952
 21
133.2445843353
 31
0.0
  0
LINE
  5
214
330
1F
100
AcDbEntity
  8
0
  6
SLD-Gestrichelt
 62
     7
370
     0
100
AcDbLine
 10
134.3688310458
 20
97.0321307166
 30
0.0
 11
134.9947776048
 21
97.5008560552
 31
0.0
  0
LINE
  5
215
330
1F
100
AcDbEntity
  8
0
  6
SLD-Gestrichelt
 62
     7
370
     0
100
AcDbLine
 10
119.8723183347
 20
137.6793952866
 30
0.0
 11
116.4413278325
 21
132.7794352754
 31
0.0
  0
LINE
  5
216
330
1F
100
AcDbEntity
  8
0
  6
SLD-Gestrichelt
 62
     7
370
     0
100
AcDbLine
 10
116.4413278325
 20
97.4972816392
 30
0.0
 11
119.8723183347
 21
92.5973216279
 31
0.0
  0
LINE
  5
217
330
1F
100
AcDbEntity
  8
0
  6
SLD-Gestrichelt
 62
     7
370
     0
100
AcDbLine
 10
119.8688240124
 20
92.6105519964
 30
0.0
 11
119.8688240124
 21
92.4754468932
 31
0.0
  0
LINE
  5
218
330
1F
100
AcDbEntity
  8
0
  6
SLD-Gestrichelt
 62
     7
370
     0
100
AcDbLine
 10
134.3688245265
 20
91.676178409
 30
0.0
 11
134.3688245265
 21
97.0322890415
 31
0.0
  0
LINE
  5
219
330
1F
100
AcDbEntity
  8
0
  6
SLD-Gestrichelt
 62
     7
370
     0
100
AcDbLine
 10
119.8688240124
 20
137.8010651304
 30
0.0
 11
119.8688240124
 21
137.6661649181
 31
0.0
  0
LINE
  5
21A
330
1F
100
AcDbEntity
  8
0
  6
SLD-Gestrichelt
 62
     7
370
     0
100
AcDbLine
 10
134.3688245265
 20
133.2442527844
 30
0.0
 11
134.3688245265
 21
138.599974124
 31
0.0
  0
LINE
  5
21B
330
1F
100
AcDbEntity
  8
0
  6
SLD-Gestrichelt
 62
     7
370
     0
100
AcDbLine
 10
233.2188261075
 20
121.6383585914
 30
0.0
 11
227.5188264771
 21
121.6383585914
 31
0.0
  0
LINE
  5
21C
330
1F
100
AcDbEntity
  8
0
  6
SLD-Gestrichelt
 62
     7
370
     0
100
AcDbLine
 10
227.5188264771
 20
108.6383583232
 30
0.0
 11
233.2188261075
 21
108.6383583232
 31
0.0
  0
LINE
  5
21D
330
1F
100
AcDbEntity
  8
0
  6
SLD-Gestrichelt
 62
     7
370
     0
100
AcDbLine
 10
233.2188261075
 20
108.6383583232
 30
0.0
 11
233.5188237353
 21
108.9383582792
 31
0.0
  0
LINE
  5
21E
330
1F
100
AcDbEntity
  8
0
  6
SLD-Gestrichelt
 62
     7
370
     0
100
AcDbLine
 10
233.5188237353
 20
121.3383586353
 30
0.0
 11
233.2188261075
 21
121.6383585914
 31
0.0
  0
ARC
  5
21F
330
1F
100
AcDbEntity
  8
0
  6
SLD-Gestrichelt
 62
     7
370
     0
100
AcDbCircle
 10
233.1188248678
 20
120.9860731524
 30
0.0
 40
0.4000000000000057
100
AcDbArc
 50
278.0
 51
0.0
  0
ARC
  5
220
330
1F
100
AcDbEntity
  8
0
  6
SLD-Gestrichelt
 62
     7
370
     0
100
AcDbCircle
 10
233.1188248678
 20
109.2906437621
 30
0.0
 40
0.4000000000000057
100
AcDbArc
 50
0.0
 51
82.0
  0
LINE
  5
221
330
1F
100
AcDbEntity
  8
0
  6
SLD-Gestrichelt
 62
     7
370
     0
100
AcDbLine
 10
152.2438248953
 20
109.3883584461
 30
0.0
 11
153.0688248909
 21
109.3883584461
 31
0.0
  0
LINE
  5
222
330
1F
100
AcDbEntity
  8
0
  6
SLD-Gestrichelt
 62
     7
370
     0
100
AcDbLine
 10
153.0688248909
 20
120.8883584684
 30
0.0
 11
152.2438248953
 21
120.8883584684
 31
0.0
  0
LINE
  5
223
330
1F
100
AcDbEntity
  8
0
  6
SLD-Gestrichelt
 62
     7
370
     0
100
AcDbLine
 10
233.174495153
 20
120.5899659752
 30
0.0
 11
221.066929154
 21
118.8883583735
 31
0.0
  0
LINE
  5
224
330
1F
100
AcDbEntity
  8
0
  6
SLD-Gestrichelt
 62
     7
370
     0
100
AcDbLine
 10
221.066929154
 20
111.3883585411
 30
0.0
 11
233.174495153
 21
109.6867509394
 31
0.0
  0
LINE
  5
225
330
1F
100
AcDbEntity
  8
0
  6
SLD-Gestrichelt
 62
     7
370
     0
100
AcDbLine
 10
148.4188248737
 20
109.9074185102
 30
0.0
 11
148.8188248927
 21
110.138358569
 31
0.0
  0
LINE
  5
226
330
1F
100
AcDbEntity
  8
0
  6
SLD-Gestrichelt
 62
     7
370
     0
100
AcDbLine
 10
148.8188248927
 20
120.1383583455
 30
0.0
 11
148.4188248737
 21
120.3692984043
 31
0.0
  0
LINE
  5
227
330
1F
100
AcDbEntity
  8
0
  6
SLD-Gestrichelt
 62
     7
370
     0
100
AcDbLine
 10
148.8188248927
 20
110.138358569
 30
0.0
 11
152.2438248953
 21
110.138358569
 31
0.0
  0
LINE
  5
228
330
1F
100
AcDbEntity
  8
0
  6
SLD-Gestrichelt
 62
     7
370
     0
100
AcDbLine
 10
152.2438248953
 20
120.1383583455
 30
0.0
 11
148.8188248927
 21
120.1383583455
 31
0.0
  0
LINE
  5
229
330
1F
100
AcDbEntity
  8
0
  6
SLD-Gestrichelt
 62
     7
370
     0
100
AcDbLine
 10
198.5188235863
 20
118.8883583735
 30
0.0
 11
197.9359385891
 21
117.6383584014
 31
0.0
  0
LINE
  5
22A
330
1F
100
AcDbEntity
  8
0
  6
SLD-Gestrichelt
 62
     7
370
     0
100
AcDbLine
 10
197.9359385891
 20
112.6383585131
 30
0.0
 11
198.5188235863
 21
111.3883585411
 31
0.0
  0
LINE
  5
22B
330
1F
100
AcDbEntity
  8
0
  6
SLD-Gestrichelt
 62
     7
370
     0
100
AcDbLine
 10
221.066929154
 20
118.8883583735
 30
0.0
 11
198.5188235863
 21
118.8883583735
 31
0.0
  0
LINE
  5
22C
330
1F
100
AcDbEntity
  8
0
  6
SLD-Gestrichelt
 62
     7
370
     0
100
AcDbLine
 10
198.5188235863
 20
111.3883585411
 30
0.0
 11
221.066929154
 21
111.3883585411
 31
0.0
  0
LINE
  5
22D
330
1F
100
AcDbEntity
  8
0
  6
SLD-Gestrichelt
 62
     7
370
     0
100
AcDbLine
 10
153.0688248909
 20
112.6383585131
 30
0.0
 11
197.9359385891
 21
112.6383585131
 31
0.0
  0
LINE
  5
22E
330
1F
100
AcDbEntity
  8
0
  6
SLD-Gestrichelt
 62
     7
370
     0
100
AcDbLine
 10
197.9359385891
 20
117.6383584014
 30
0.0
 11
153.0688248909
 21
117.6383584014
 31
0.0
  0
DIMENSION
  5
22F
330
1F
100
AcDbEntity
  8
VERMASSUNG
100
AcDbDimension
  2
_D
 10
239.5188248678
 20
167.0570485052
 30
0.0
 11
194.5188248678
 21
167.0570485052
 31
0.0
 70
   160
  1
<>
 71
     2
 42
-1.0
  3
SLDDIMSTYLE0
100
AcDbAlignedDimension
 13
149.5188248678
 23
146.4133584573
 33
0.0
 14
239.5188248678
 24
122.6383584573
 34
0.0
100
AcDbRotatedDimension
  0
DIMENSION
  5
23A
330
1F
100
AcDbEntity
  8
VERMASSUNG
100
AcDbDimension
  2
_D_1
 10
99.5687998678
 20
146.6133584573
 30
0.0
 11
99.5687998678
 21
115.1383584573
 31
0.0
 70
   160
  1
KM63 XMZ
 71
     2
 42
-1.0
  3
SLDDIMSTYLE0
100
AcDbAlignedDimension
 13
149.7188248678
 23
83.6633584573
 33
0.0
 14
149.7188248678
 24
146.6133584573
 34
0.0
 50
90.0
100
AcDbRotatedDimension
  0
DIMENSION
  5
244
330
1F
100
AcDbEntity
  8
VERMASSUNG
100
AcDbDimension
  2
_D_2
 10
248.4517667721
 20
123.1383584573
 30
0.0
 11
248.4517667721
 21
115.1383584573
 31
0.0
 70
   160
  1
%%c<>
 71
     2
 42
-1.0
  3
SLDDIMSTYLE1
100
AcDbAlignedDimension
 13
232.5188248678
 23
107.1383584573
 33
0.0
 14
232.5188248678
 24
123.1383584573
 34
0.0
 50
90.0
100
AcDbRotatedDimension
  0
DIMENSION
  5
252
330
1F
100
AcDbEntity
  8
VERMASSUNG
100
AcDbDimension
  2
_D_3
 10
239.5188248678
 20
162.6133584573
 30
0.0
 11
203.5188248678
 21
162.6133584573
 31
0.0
 70
   160
  1
<>
 71
     2
 42
-1.0
  3
SLDDIMSTYLE0
100
AcDbAlignedDimension
 13
167.5188248678
 23
145.6133584573
 33
0.0
 14
239.5188248678
 24
120.3704092648
 34
0.0
100
AcDbRotatedDimension
  0
DIMENSION
  5
25C
330
1F
100
AcDbEntity
  8
VERMASSUNG
100
AcDbDimension
  2
_D_4
 10
203.5188248678
 20
123.1383584573
 30
0.0
 11
203.5188248678
 21
129.2640323451
 31
0.0
 70
   160
  1
%%c<>
 71
     2
 42
-1.0
  3
SLDDIMSTYLE1
100
AcDbAlignedDimension
 13
220.8188248678
 23
107.1383584573
 33
0.0
 14
220.8188248678
 24
123.1383584573
 34
0.0
 50
90.0
100
AcDbRotatedDimension
  0
OLE2FRAME
  5
267
330
1F
100
AcDbEntity
  8
0
100
AcDbOle2Frame
 70
     2
  3
Paintbrush-Bild
 10
13.8511154363
 20
38.264191557
 30
0.0
 11
51.6290888628
 21
31.9806341108
 31
0.0
 71
     2
 72
     0
 73
     1
 90
    12928
310
80552BED0767C5B32B40DDAF6807D121434000000000000000006FFBDDFB85D0
310
4940DDAF6807D121434000000000000000006FFBDDFB85D04940416F4BD60AFB
310
3F4000000000000000002BED0767C5B32B40416F4BD60AFB3F40000000000000
310
0000000000000100000000010000010000000100000000000100000000320000
310
D0CF11E0A1B11AE1000000000000000000000000000000003E000300FEFF0900
310
0600000000000000000000000100000001000000000000000010000002000000
310
01000000FEFFFFFF0000000000000000FFFFFFFFFFFFFFFFFFFFFFFFFFFFFFFF
310
FFFFFFFFFFFFFFFFFFFFFFFFFFFFFFFFFFFFFFFFFFFFFFFFFFFFFFFFFFFFFFFF
310
FFFFFFFFFFFFFFFFFFFFFFFFFFFFFFFFFFFFFFFFFFFFFFFFFFFFFFFFFFFFFFFF
310
FFFFFFFFFFFFFFFFFFFFFFFFFFFFFFFFFFFFFFFFFFFFFFFFFFFFFFFFFFFFFFFF
310
FFFFFFFFFFFFFFFFFFFFFFFFFFFFFFFFFFFFFFFFFFFFFFFFFFFFFFFFFFFFFFFF
310
FFFFFFFFFFFFFFFFFFFFFFFFFFFFFFFFFFFFFFFFFFFFFFFFFFFFFFFFFFFFFFFF
310
FFFFFFFFFFFFFFFFFFFFFFFFFFFFFFFFFFFFFFFFFFFFFFFFFFFFFFFFFFFFFFFF
310
FFFFFFFFFFFFFFFFFFFFFFFFFFFFFFFFFFFFFFFFFFFFFFFFFFFFFFFFFFFFFFFF
310
FFFFFFFFFFFFFFFFFFFFFFFFFFFFFFFFFFFFFFFFFFFFFFFFFFFFFFFFFFFFFFFF
310
FFFFFFFFFFFFFFFFFFFFFFFFFFFFFFFFFFFFFFFFFFFFFFFFFFFFFFFFFFFFFFFF
310
FFFFFFFFFFFFFFFFFFFFFFFFFFFFFFFFFFFFFFFFFFFFFFFFFFFFFFFFFFFFFFFF
310
FFFFFFFFFFFFFFFFFFFFFFFFFFFFFFFFFFFFFFFFFFFFFFFFFFFFFFFFFFFFFFFF
310
FFFFFFFFFFFFFFFFFFFFFFFFFFFFFFFFFFFFFFFFFFFFFFFFFFFFFFFFFFFFFFFF
310
FFFFFFFFFFFFFFFFFFFFFFFFFFFFFFFFFFFFFFFFFFFFFFFFFFFFFFFFFFFFFFFF
310
FDFFFFFFFEFFFFFFFEFFFFFFFEFFFFFF05000000060000000700000008000000
310
090000000A0000000B0000000C0000000D0000000E0000000F00000010000000
310
11000000120000001300000014000000150000001600000017000000FEFFFFFF
310
FFFFFFFFFFFFFFFFFFFFFFFFFFFFFFFFFFFFFFFFFFFFFFFFFFFFFFFFFFFFFFFF
310
FFFFFFFFFFFFFFFFFFFFFFFFFFFFFFFFFFFFFFFFFFFFFFFFFFFFFFFFFFFFFFFF
310
FFFFFFFFFFFFFFFFFFFFFFFFFFFFFFFFFFFFFFFFFFFFFFFFFFFFFFFFFFFFFFFF
310
FFFFFFFFFFFFFFFFFFFFFFFFFFFFFFFFFFFFFFFFFFFFFFFFFFFFFFFFFFFFFFFF
310
FFFFFFFFFFFFFFFFFFFFFFFFFFFFFFFFFFFFFFFFFFFFFFFFFFFFFFFFFFFFFFFF
310
FFFFFFFFFFFFFFFFFFFFFFFFFFFFFFFFFFFFFFFFFFFFFFFFFFFFFFFFFFFFFFFF
310
FFFFFFFFFFFFFFFFFFFFFFFFFFFFFFFFFFFFFFFFFFFFFFFFFFFFFFFFFFFFFFFF
310
FFFFFFFFFFFFFFFFFFFFFFFFFFFFFFFFFFFFFFFFFFFFFFFFFFFFFFFFFFFFFFFF
310
FFFFFFFFFFFFFFFFFFFFFFFFFFFFFFFFFFFFFFFFFFFFFFFFFFFFFFFFFFFFFFFF
310
FFFFFFFFFFFFFFFFFFFFFFFFFFFFFFFFFFFFFFFFFFFFFFFFFFFFFFFFFFFFFFFF
310
FFFFFFFFFFFFFFFFFFFFFFFFFFFFFFFFFFFFFFFFFFFFFFFFFFFFFFFFFFFFFFFF
310
FFFFFFFFFFFFFFFFFFFFFFFFFFFFFFFFFFFFFFFFFFFFFFFFFFFFFFFFFFFFFFFF
310
FFFFFFFFFFFFFFFFFFFFFFFFFFFFFFFFFFFFFFFFFFFFFFFFFFFFFFFFFFFFFFFF
310
52006F006F007400200045006E00740072007900000000000000000000000000
310
0000000000000000000000000000000000000000000000000000000000000000
310
16000500FFFFFFFFFFFFFFFF020000000A00030000000000C000000000000046
310
000000000000000000000000C0A867520A88D00103000000C000000000000000
310
01004F006C006500000000000000000000000000000000000000000000000000
310
0000000000000000000000000000000000000000000000000000000000000000
310
0A000200FFFFFFFFFFFFFFFFFFFFFFFF00000000000000000000000000000000
310
0000000000000000000000000000000000000000000000001400000000000000
310
010043006F006D0070004F0062006A0000000000000000000000000000000000
310
0000000000000000000000000000000000000000000000000000000000000000
310
120002010100000003000000FFFFFFFF00000000000000000000000000000000
310
0000000000000000000000000000000000000000010000004D00000000000000
310
01004F006C006500310030004E00610074006900760065000000000000000000
310
0000000000000000000000000000000000000000000000000000000000000000
310
1A000200FFFFFFFFFFFFFFFFFFFFFFFF00000000000000000000000000000000
310
0000000000000000000000000000000000000000040000002426000000000000
310
FEFFFFFF02000000FEFFFFFFFFFFFFFFFFFFFFFFFFFFFFFFFFFFFFFFFFFFFFFF
310
FFFFFFFFFFFFFFFFFFFFFFFFFFFFFFFFFFFFFFFFFFFFFFFFFFFFFFFFFFFFFFFF
310
FFFFFFFFFFFFFFFFFFFFFFFFFFFFFFFFFFFFFFFFFFFFFFFFFFFFFFFFFFFFFFFF
310
FFFFFFFFFFFFFFFFFFFFFFFFFFFFFFFFFFFFFFFFFFFFFFFFFFFFFFFFFFFFFFFF
310
FFFFFFFFFFFFFFFFFFFFFFFFFFFFFFFFFFFFFFFFFFFFFFFFFFFFFFFFFFFFFFFF
310
FFFFFFFFFFFFFFFFFFFFFFFFFFFFFFFFFFFFFFFFFFFFFFFFFFFFFFFFFFFFFFFF
310
FFFFFFFFFFFFFFFFFFFFFFFFFFFFFFFFFFFFFFFFFFFFFFFFFFFFFFFFFFFFFFFF
310
FFFFFFFFFFFFFFFFFFFFFFFFFFFFFFFFFFFFFFFFFFFFFFFFFFFFFFFFFFFFFFFF
310
FFFFFFFFFFFFFFFFFFFFFFFFFFFFFFFFFFFFFFFFFFFFFFFFFFFFFFFFFFFFFFFF
310
FFFFFFFFFFFFFFFFFFFFFFFFFFFFFFFFFFFFFFFFFFFFFFFFFFFFFFFFFFFFFFFF
310
FFFFFFFFFFFFFFFFFFFFFFFFFFFFFFFFFFFFFFFFFFFFFFFFFFFFFFFFFFFFFFFF
310
FFFFFFFFFFFFFFFFFFFFFFFFFFFFFFFFFFFFFFFFFFFFFFFFFFFFFFFFFFFFFFFF
310
FFFFFFFFFFFFFFFFFFFFFFFFFFFFFFFFFFFFFFFFFFFFFFFFFFFFFFFFFFFFFFFF
310
FFFFFFFFFFFFFFFFFFFFFFFFFFFFFFFFFFFFFFFFFFFFFFFFFFFFFFFFFFFFFFFF
310
FFFFFFFFFFFFFFFFFFFFFFFFFFFFFFFFFFFFFFFFFFFFFFFFFFFFFFFFFFFFFFFF
310
FFFFFFFFFFFFFFFFFFFFFFFFFFFFFFFFFFFFFFFFFFFFFFFFFFFFFFFFFFFFFFFF
310
0100000200000000000000000000000000000000000000000000000000000000
310
0000000000000000000000000000000000000000000000000000000000000000
310
0100FEFF030A0000FFFFFFFF0A00030000000000C00000000000004607000000
310
5042727573680007000000504272757368000700000050427275736800F439B2
310
7100000000000000000000000000000000000000000000000000000000000000
310
0000000000000000000000000000000000000000000000000000000000000000
310
0000000000000000000000000000000000000000000000000000000000000000
310
0000000000000000000000000000000000000000000000000000000000000000
310
0000000000000000000000000000000000000000000000000000000000000000
310
0000000000000000000000000000000000000000000000000000000000000000
310
0000000000000000000000000000000000000000000000000000000000000000
310
0000000000000000000000000000000000000000000000000000000000000000
310
0000000000000000000000000000000000000000000000000000000000000000
310
0000000000000000000000000000000000000000000000000000000000000000
310
0000000000000000000000000000000000000000000000000000000000000000
310
0000000000000000000000000000000000000000000000000000000000000000
310
20260000424D0E260000000000003E00000028000000B40200006E0000000100
310
01000000000000000000130B0000130B00000200000002000000000000FFFFFF
310
FFFFFFFFFFFFFFFFFFFFFFFFFFFFFFFFFFFFFFFFFFFFFFFFFFFFFFFFFFFFFFFF
310
FFFFFFFFFFFFFFFFFFFFFFFFFFFFFFFFFFFFFFFFFFFFFFFFFFFFFFFFFFFFFFFF
310
FFFFFFFFFFFFFFFFFFFFFFFFFFFFFFFFFFFFFFFFFFFFFFFFF000FFFFFFFFFFFF
310
FFFFFFFFFFFFFFFFFFFFFFFFFFFFFFFFFFFFFFFFFFFFFFFFFFFFFFFFFFFFFFFF
310
FFFFFFFFFFFFFFFFFFFFFFFFFFFFFFFFFFFFFFFFFFFFFFFFFFFFFFFFFFFFFFFF
310
FFFFFFFFFFFFFFFFFFFFFFFFFFFFFFFFF000FFFFFFFFFFFFFFFFFFFFFFFFFFFF
310
FFFFFFFFFFFFFFFFFFFFFFFFFFFFFFFFFFFFFFFFFFFFFFFFFFFFFFFFFFFFFFFF
310
FFFFFFFFFFFFFFFFFFFFFFFFFFFFFFFFFFFFFFFFFFFFFFFFFFFFFFFFFFFFFFFF
310
FFFFFFFFFFFFFFFFF000FFFFFFFFFFFFFFFFFFFFFFFFFFFFFFFFFFFFFFFFFFFF
310
FFFFFFFFFFFFFFFFFFFFFFFFFFFFFFFFFFFFFFFFFFFFFFFFFFFFFFFFFFFFFFFF
310
FFFFFFFFFFFFFFFFFFFFFFFFFFFFFFFFFFFFFFFFFFFFFFFFFFFFFFFFFFFFFFFF
310
F000FFFFFFFFFFFFFFFFFFFFFFFFFFFFFFFFFFFFFFFFFFFFFFFFFFFFFFFFFFFF
310
FFFFFFFFFFFFFFFFFFFFFFFFFFFFFFFFFFFFFFFFFFFFFFFFFFFFFFFFFFFFFFFF
310
FFFFFFFFFFFFFFFFFFFFFFFFFFFFFFFFFFFFFFFFFFFFFFFFF000FFFFFFFFFFFF
310
FFFFFFFFFFFFFFFFFFFFFFFFFFFFFFFFFFFFFFFFFFFFFFFFFFFFFFFFFFFFFFFF
310
FFFFFFFFFFFFFFFFFFFFFFFFFFFFFFFFFFFFFFFFFFFFFFFFFFFFFFFFFFFFFFFF
310
FFFFFFFFFFFFFFFFFFFFFFFFFFFFFFFFF000FFFFFFFFFFFFFFFFFFFFFFFFFFFF
310
FFFFFFFFFFFFFFFFFFFFFFFFFFFFFFFFFFFFFFFFFFFFFFFFFFFFFFFFFFFFFFFF
310
FFFFFFFFFFFFFFFFFFFFFFFFFFFFFFFFFFFFFFFFFFFFFFFFFFFFFFFFFFFFFFFF
310
FFFFFFFFFFFFFFFFF000FFFFFFFFFFFFFFFFFFFFFFFFFFFFFFFFFFFFFFFFFFFF
310
FFFFFFFFFFFFFFFFFFFFFFFFFFFFFFFFFFFFFFFFFFFFFFFFFFFFFFFFFFFFFFFF
310
FFFFFFFFFFFFFFFFFFFFFFFFFFFFFFFFFFFFFFFFFFFFFFFFFFFFFFFFFFFFFFFF
310
F000FFFFFFFFFFFFFFFFFFFFFFFFFFFFFFFFFFFFFFFFFFFFFFFFFFFFFFFFFFFF
310
FFFFFFFFFFFFFFFFFFFFFFFFFFFFFFFFFFFFFFFFFFFFFFFFFFFFFFFFFFFFFFFF
310
FFFFFFFFFFFFFFFFFFFFFFFFFFFFFFFFFFFFFFFFFFFFFFFFF000FFFFFFFFFFFF
310
FFFFFFFFFFFFFFFFFFFFFFFFFFFFFFFFFFFFFFFFFFFFFFFFFFFFFFFFFFFFFFFF
310
FFFFFFFFFFFFFFFFFFFFFFFFFFFFFFFFFFFFFFFFFFFFFFFFFFFFFFFFFFFFFFFF
310
FFFFFFFFFFFFFFFFFFFFFFFFFFFFFFFFF000FFFFFFFFFFFFFFFFFFFFFFFFFFFF
310
FFFFFFFFFFFFFFFFFFFFFFFFFFFFFFFFFFFFFFFFFFFFFFFFFFFFFFFFFFFFFFFF
310
FFFFFFFFFFFFFFFFFFFFFFFFFFFFFFFFFFFFFFFFFFFFFFFFFFFFFFFFFFFFFFFF
310
FFFFFFFFFFFFFFFFF000FFFFFFFFFFFFFFFFFFFFFFFFFFFFFFFFFFFFFFFFFFFF
310
FFFFFFFFFFFFFFFFFFFFFFFFFFFFFFFFFFFFFFFFFFFFFFFFFFFFFFFFFFFFFFFF
310
FFFFFFFFFFFFFFFFFFFFFFFFFFFFFFFFFFFFFFFFFFFFFFFFFFFFFFFFFFFFFFFF
310
F000FFFFFFFFFFFFFFFFFFFFFFFFFFFFFFFFFFFFFFFFFFFFFFFFFFFFFFFFFFFF
310
FFFFFFFFFFFFFFFFFFFFFFFFFFFFFFFFFFFFFFFFFFFFFFFFFFFFFFFFFFFFFFFF
310
FFFFFFFFFFFFFFFFFFFFFFFFFFFFFFFFFFFFFFFFFFFFFFFFF000FFFFFFFFFFFF
310
FFFFFFFFFFFFFFFFFFFFFFFFFFFFFFFFFFFFFFFFFFFFFFFFFFFFFFFFFFFFFFFF
310
FFFFFFFFFFFFFFFFFFFFFFFFFFFFFFFFFFFFFFFFFFFFFFFFFFFFFFFFFFFFFFFF
310
FFFFFFFFFFFFFFFFFFFFFFFFFFFFFFFFF000FFFFFFFFFFFFFFFFFFFFFFFFFFFF
310
FFFFFFFFFFFFFFFFFFFFFFFFFFFFFFFFFFFFFFFFFFFFFFFFFFFFFFFFFFFFFFFF
310
FFFFFFFFFFFFFFFFFFFFFFFFFFFFFFFFFFFFFFFFFFFFFFFFFFFFFFFFFFFFFFFF
310
FFFFFFFFFFFFFFFFF000FFFFFFFFFFFFFFFFFFFFFFFFFFFFFFFFFFFFFFFFFFFF
310
FFFFFFFFFFFFFFFFFFFFFFFFFFFFFFFFFFFFFFFFFFFFFFFFFFFFFFFFFFFFFFFF
310
FFFFFFFFFFFFFFFFFFFFFFFFFFFFFFFFFFFFFFFFFFFFFFFFFFFFFFFFFFFFFFFF
310
F000FFFFFFFFFFFFFFFFFFFFFFFFFFFFFFFFFFFFFFFFFFFFFFFFFFFFFFFFFFFF
310
FFFFFFFFFFFFFFFFFFFFFFFFFFFFFFFFFFFFFFFFFFFFFFFFFFFFFFFFFFFFFFFF
310
FFFFFFFFFFFFFFFFFFFFFFFFFFFFFFFFFFFFFFFFFFFFFFFFF000FFFFFFFFFFFF
310
FFFFFFFFFFFFFFFFFFFFFFFFFFFFFFFFFFFFFFFFFFFFFFFFFFFFFFFFFFFFFFFF
310
FFFFFFFFFFFFFFFFFFFFFFFFFFFFFFFFFFFFFFFFFFFFFFFFFFFFFFFFFFFFFFFF
310
FFFFFFFFFFFFFFFFFFFFFFFFFFFFFFFFF000FFFFFFFFFFFFFFFFFFFFFFFFFFFF
310
FFFFFFFFFFFFFFFFFFFFFFFFFFFFFFFFFFFFFFFFFFFFFFFFFFFFFFFFFFFFFFFF
310
FFFFFFFFFFFFFFFFFFFFFFFFFFFFFFFFFFFFFFFFFFFFFFFFFFFFFFFFFFFFFFFF
310
FFFFFFFFFFFFFFFFF000FFFFF80003FFFFFFFFFFFFFFFFFFFFFFFFFFFFFFFFFF
310
FFFFF00007FFFFFFFFFF00007FFFFFF800000000000000007FFFFFFFFFFFFFFF
310
FFFFFFFC001FFFFFFFFFFFFFFC001FFFFFFFFFFFFFFFFFFFFFFFFFFE0007FFFF
310
F000FFFF8000007FFFFFFFF8000FFFFFC0007FFFFF80007FFFFF0000007FFFFF
310
FFF8000007FFFFF800000000000000007FFFFFF0001FFFFFFFFFFFC00001FFFF
310
FFFFFFFFC00001FFFFFFFF000000000003FFFFE000007FFFF000FFFE0000000F
310
FFFFFFF0000FFFFF80007FFFFF80007FFFFC0000001FFFFFFFC0000001FFFFF8
310
00000000000000007FFFFFF0001FFFFFFFFFFE0000003FFFFFFFFFFE0000003F
310
FFFFFF000000000003FFFF0000000FFFF000FFF800000003FFFFFFF00007FFFF
310
80007FFFFF80007FFFF000000007FFFFFF000000003FFFF80000000000000000
310
7FFFFFF0001FFFFFFFFFF80000000FFFFFFFFFF80000000FFFFFFF0000000000
310
03FFFC00000003FFF000FFE000000000FFFFFFF00007FFFF80003FFFFF80007F
310
FFC000000001FFFFFC000000001FFFF800000000000000007FFFFFF0001FFFFF
310
FFFFE000000003FFFFFFFFE000000003FFFFFF000000000003FFF000000000FF
310
F000FF80000000007FFFFFF00007FFFF80003FFFFF80007FFF8000000000FFFF
310
F80000000007FFF800000000000000007FFFFFF0001FFFFFFFFFC000000001FF
310
FFFFFFC000000001FFFFFF000000000003FFC0000000007FF000FF0000000000
310
3FFFFFE00007FFFF00003FFFFF80007FFE00000000003FFFF00000000003FFF8
310
00000000000000007FFFFFF0001FFFFFFFFF8000000000FFFFFFFF8000000000
310
FFFFFF000000000003FF80000000003FF000FE00000000001FFFFFE00003FFFF
310
00003FFFFF80007FFC00000000001FFFE00000000001FFF8000001FFFE000000
310
7FFFFFF0001FFFFFFFFE00000000003FFFFFFE00000000003FFFFF0000000000
310
03FF00000000001FF000FC00000000000FFFFFE00003FFFF00001FFFFF80007F
310
F800000000001FFFC00000000000FFF8000001FFFE0000007FFFFFF0001FFFFF
310
FFFC00000000001FFFFFFC00000000001FFFFF000000000003FE00000000000F
310
F000F8000000000007FFFFE00003FFFF00001FFFFF80007FF800000000000FFF
310
800000000000FFF8000001FFFE0000007FFFFFF0001FFFFFFFF800000000000F
310
FFFFF800000000000FFFFF000000000003FC000000000007F000F80000000000
310
03FFFFC00003FFFE00001FFFFF80007FF0000000000007FF0000000000007FF8
310
000001FFFE0000007FFFFFF0001FFFFFFFF0000000000007FFFFF00000000000
310
07FFFF000000000003F8000000000003F000F0000000000003FFFFC00001FFFE
310
00001FFFFF80007FE0000000000007FE0000000000003FF8000001FFFE000000
310
7FFFFFF0001FFFFFFFF0000000000007FFFFF0000000000007FFFF0000000000
310
03F800001F800003F000E00001FFF00001FFFFC00001FFFE00000FFFFF80007F
310
E00001FFE00003FE00001FFF00003FF8000001FFFE0000007FFFFFF0001FFFFF
310
FFE000003E000003FFFFE000003E000003FFFF000000000003F00001FFF80001
310
F000E00007FFFC0001FFFFC00001FFFE00000FFFFF80007FC0000FFFFC0003FC
310
0000FFFFC0001FF8000001FFFE0000007FFFFFF0001FFFFFFFC00003FFE00001
310
FFFFC00003FFE00001FFFF0001FFFFFFFFF00007FFFE0001F000E0000FFFFF00
310
00FFFF800001FFFC00000FFFFF80007FC0001FFFFE0001FC0001FFFFE0001FF8
310
000001FFFE0000007FFFFFF0001FFFFFFF80000FFFF80000FFFF80000FFFF800
310
00FFFF0003FFFFFFFFE0000FFFFF8000F000C0003FFFFF8000FFFF800000FFFC
310
000007FFFF80007F80003FFFFF0001FC0003FFFFF0001FF8000001FFFE000000
310
7FFFFFF0001FFFFFFF80003FFFFE0000FFFF80003FFFFE0000FFFF0003FFFFFF
310
FFE0003FFFFF8000F000C0003FFFFF8000FFFF800000FFFC000007FFFF80007F
310
80007FFFFF8001F80007FFFFF8000FF8000001FFFE0000007FFFFFF0001FFFFF
310
FF00007FFFFF00007FFF00007FFFFF00007FFF0003FFFFFFFFE0003FFFFFC000
310
F000C0007FFFFFC000FFFF000000FFFC000007FFFF80007F8000FFFFFF8000F8
310
000FFFFFF8000FF8000001FFFE0000007FFFFFF0001FFFFFFF0000FFFFFF8000
310
7FFF0000FFFFFF80007FFF0003FFFFFFFFC0007FFFFFC00070008000FFFFFFC0
310
00FFFF000000FFF8000007FFFF80007F8000FFFFFF8000F8000FFFFFF8000FF8
310
000001FFFE0000007FFFFFF0001FFFFFFE0001FFFFFFC0003FFE0001FFFFFFC0
310
003FFF0003FFFFFFFFC0007FFFFFE00070008000FFFFFFC0007FFF0000007FF8
310
000003FFFF80007F0001FFFFFF8000F8000FFFFFF8000FF8000001FFFE000000
310
7FFFFFF0001FFFFFFE0001FFFFFFC0003FFE0001FFFFFFC0003FFF0003FFFFFF
310
FFC000FFFFFFE00070008000FFFFFFC0007FFF0000007FF8000003FFFF80007F
310
0001FFFFFF8000F8001FFFFFF8000FF8000001FFFE0000007FFFFFF0001FFFFF
310
FE0003FFFFFFE0003FFE0003FFFFFFE0003FFF0003FFFFFFFFC000FFFFFFE000
310
70008000FFFFFFC0007FFE0000007FF8000003FFFF80007F0001FFFFFF8000F0
310
001FFFFFF8000FF8000001FFFE0000007FFFFFF0001FFFFFFC0003FFFFFFE000
310
1FFC0003FFFFFFE0001FFF0003FFFFFFFFC000FFFFFFC00070008000FFFFFF80
310
007FFE0000007FF0000003FFFF80007F0001FFFFFF0000F0001FFFFFF8000FF8
310
000001FFFE0000007FFFFFF0001FFFFFFC0007FFFFFFF0001FFC0007FFFFFFF0
310
001FFF0003FFFFFFFFC000FFFFFFC00070008001FFFFFF0000FFFE0000003FF0
310
000001FFFF80007F0001FFFFFF0000F8001FFFFFF0000FF8000001FFFE000000
310
7FFFFFF0001FFFFFFC0007FFFFFFF0001FFC0007FFFFFFF0001FFF0003FFFFFF
310
FFC001FFFFFF80007000FFFFFFFFFE0000FFFE0008003FF0008001FFFF80007F
310
FFFFFFFFFC0000FFFFFFFFFFE0000FF8000001FFFE0000007FFFFFF0001FFFFF
310
F8000FFFFFFFF8000FF8000FFFFFFFF8000FFF0003FFFFFFFFFFFFFFFFFF0000
310
7000FFFFFFFFFC0000FFFC0008003FF0008001FFFF80007FFFFFFFFFF80001FF
310
FFFFFFFF80000FF8000001FFFE0000007FFFFFF0001FFFFFF8000FFFFFFFF800
310
0FF8000FFFFFFFF8000FFF0003FFFFFFFFFFFFFFFFFE0000F000FFFFFFFFE000
310
00FFFC000C003FE000C001FFFF80007FFFFFFFFFC00001FFFFFFFFFE00001FF8
310
000001FFFE0000007FFFFFF0001FFFFFF8000FFFFFFFF8000FF8000FFFFFFFF8
310
000FFF0003FFFFFFFFFFFFFFFFF00000F000FFFFFFFE000001FFFC000C001FE0
310
00C000FFFF80007FFFFFFFFE000001FFFFFFFFE000001FF80FFFFFFFFFFFFFC0
310
7FFFFFF0001FFFFFF8000FFFFFFFF8000FF8000FFFFFFFF8000FFF0003FFFFFF
310
FFFFFFFFFF800000F000FFFFFFC0000001FFFC001C001FE001C000FFFF80007F
310
FFFFFF80000003FFFFFFF80000001FF80FFFFFFFFFFFFFC07FFFFFF0001FFFFF
310
F8001FFFFFFFFC000FF8001FFFFFFFFC000FFF0003FFFFFFFFFFFFFFF0000001
310
F000FFFFF800000001FFF8001C001FE001C000FFFF80007FFFFFF800000003FF
310
FFFF800000003FF80FFFFFFFFFFFFFC07FFFFFF0001FFFFFF8001FFFFFFFFC00
310
0FF8001FFFFFFFFC000FFF0003FFFFFFFFFFFFFE00000001F000FFFFC0000000
310
03FFF8001E001FC001E000FFFF80007FFFFF8000000007FFFFFC000000003FF8
310
0FFFFFFFFFFFFFC07FFFFFF0001FFFFFF8001FFFFFFFFC000FF8001FFFFFFFFC
310
000FFF0003FFFFFFFFFFFFE000000003F000FFFE0000000007FFF8001E000FC0
310
01E0007FFF80007FFFFE0000000007FFFFE0000000007FF80FFFFFFFFFFFFFC0
310
7FFFFFF0001FFFFFF0001FFFFFFFFC0007F0001FFFFFFFFC0007FF0003FFFFFF
310
FFFFFF0000000003F000FFF80000000007FFF8001E000FC003E0007FFF80007F
310
FFF0000000000FFFFF8000000000FFF80FFFFFFFFFFFFFC07FFFFFF0001FFFFF
310
F0001FFFFFFFFC0007F0001FFFFFFFFC0007FF0003FFFFFFFFFFFC0000000007
310
F000FFE0000000000FFFF0003E000FC003E0007FFF80007FFFC0000000001FFF
310
FE0000000001FFF80FFFFFFFFFFFFFC07FFFFFF0001FFFFFF0001FFFFFFFFC00
310
07F0001FFFFFFFFC0007FF0003FFFFFFFFFFF0000000000FF000FFC000000000
310
1FFFF0003F000F8003F0003FFF80007FFF80000000003FFFF80000000003FFF8
310
0FFFFFFFFFFFFFC07FFFFFF0001FFFFFF0001FFFFFFFFC0007F0001FFFFFFFFC
310
0007FF0003FFFFFFFFFFE0000000001FF000FF00000000007FFFF0003F000780
310
03F0003FFF80007FFF00000000007FFFF00000000007FFF80FFFFFFFFFFFFFC0
310
7FFFFFF0001FFFFFF0001FFFFFFFFC0007F0001FFFFFFFFC0007FF0003FFFFFF
310
FFFF80000000007FF000FE0000000000FFFFE0003F00078007F0003FFF80007F
310
FE0000000001FFFFE0000000001FFFF80FFFFFFFFFFFFFC07FFFFFF0001FFFFF
310
F0001FFFFFFFFC0007F0001FFFFFFFFC0007FF0003FFFFFFFFFF0000000000FF
310
F000FC0000000003FFFFE0007F00078007F0003FFF80007FFC0000000007FFFF
310
C0000000007FFFF80FFFFFFFFFFFFFC07FFFFFF0001FFFFFF8001FFFFFFFFC00
310
0FF8001FFFFFFFFC000FFF0003FFFFFFFFFE0000000003FFF000FC000000000F
310
FFFFE0007F80070007F8001FFF80007FF8000000001FFFFF8000000001FFFFF8
310
0FFFFFFFFFFFFFC07FFFFFF0001FFFFFF8001FFFFFFFFC000FF8001FFFFFFFFC
310
000FFF0003FFFFFFFFFC000000000FFFF000F8000000007FFFFFE0007F800700
310
07F8001FFF80007FF000000000FFFFFF800000000FFFFFF80FFFFFFFFFFFFFC0
310
7FFFFFF0001FFFFFF8000FFFFFFFF8000FF8000FFFFFFFF8000FFF0003FFFFFF
310
FFFC000000007FFFF000F800000007FFFFFFC0007F8003000FF8001FFF80007F
310
F000000007FFFFFF000000007FFFFFF80FFFFFFFFFFFFFC07FFFFFF0001FFFFF
310
F8000FFFFFFFF8000FF8000FFFFFFFF8000FFF0003FFFFFFFFF80000000FFFFF
310
F000F0000000FFFFFFFFC000FF8003000FF8001FFF80007FE0000000FFFFFFFF
310
0000000FFFFFFFF8000001FFFE0000007FFFFFF0001FFFFFF8000FFFFFFFF800
310
0FF8000FFFFFFFF8000FFF0003FFFFFFFFF8000000FFFFFFF000F000000FFFFF
310
FFFFC000FFC002000FF8000FFF80007FE000001FFFFFFFFE000001FFFFFFFFF8
310
000001FFFE0000007FFFFFF0001FFFFFF8000FFFFFFFF8000FF8000FFFFFFFF8
310
000FFF0003FFFFFFFFF000001FFFFFFFF000E00000FFFFFFFFFFC000FFC00200
310
0FFC000FFF80007FE00001FFFFFFFFFE00001FFFFFFFFFF8000001FFFE000000
310
7FFFFFF0001FFFFFFC000FFFFFFFF8001FFC000FFFFFFFF8001FFF0003FFFFFF
310
FFF00001FFFFFFFFF000E00007FFFFFFFFFF8000FFC000001FFC000FFF80007F
310
C0000FFFFFFFFFFE0000FFFFFFFFFFF8000001FFFE0000007FFFFFF0001FFFFF
310
FC0007FFFFFFF0001FFC0007FFFFFFF0001FFF0003FFFFFFFFF00007FFFFFFFF
310
F000E0001FFFFFFFFFFF8000FFC000001FFC000FFF80007FC0003FFFFFFFFFFE
310
0001FFFFFFFFFFF8000001FFFE0000007FFFFFF0001FFFFFFC0007FFFFFFF000
310
1FFC0007FFFFFFF0001FFF0003FFFFFFFFF0001FFFFFFFFFF000E0003FFFFF00
310
03FF8001FFE000001FFC0007FF80007FC0007FFFFF0007FC0003FFFFF0003FF8
310
000001FFFE0000007FFFFFF0001FFFFFFC0003FFFFFFE0001FFC0003FFFFFFE0
310
001FFF0003FFFFFFFFF0003FFFFFFFFFF000E0003FFFFF0001FF8001FFE00000
310
1FFE0007FF80007FC0007FFFFE0003FC0007FFFFE0003FF8000001FFFE000000
310
7FFFFFF0001FFFFFFE0003FFFFFFE0003FFE0003FFFFFFE0003FFF0003FFFFFF
310
FFF0003FFFFF8001F000E0003FFFFF0001FF0001FFE000001FFE0007FF80007F
310
C0007FFFFE0003FC0007FFFFE0003FF8000001FFFE0000007FFFFFF0001FFFFF
310
FE0001FFFFFFC0003FFE0001FFFFFFC0003FFF0003FFFFFFFFF0003FFFFF0001
310
F000E0003FFFFF0003FF0001FFE000003FFE0007FF80007FC0007FFFFE0003FC
310
0007FFFFE0003FF8000001FFFE0000007FFFFFF0001FFFFFFF0001FFFFFFC000
310
7FFF0001FFFFFFC0007FFF0003FFFFFFFFF0003FFFFF0001F000E0003FFFFE00
310
03FF0003FFF000003FFE0003FF80007FC0007FFFFC0003FE0007FFFFE0003FF8
310
000001FFFE0000007FFFFFF0001FFFFFFF0000FFFFFF80007FFF0000FFFFFF80
310
007FFF0003FFFFFFFFF0003FFFFF0001F000E0003FFFFE0003FF0003FFF00000
310
3FFF0003FF80007FC0007FFFFC0007FE0007FFFFC0003FF8000001FFFE000000
310
7FFFFFF0001FFFFFFF80007FFFFF0000FFFF80007FFFFF0000FFFF0003FFFFFF
310
FFF0003FFFFF0003F000E0003FFFFC0003FE0003FFF000003FFF0003FF80007F
310
E0003FFFF80007FE0003FFFFC0007FF8000001FFFE0000007FFFFFF0001FFFFF
310
FF80003FFFFE0000FFFF80003FFFFE0000FFFF0003FFFFFFFFF0001FFFFE0003
310
F000F0001FFFF80003FE0003FFF000007FFF0001FF80007FE0003FFFF00007FE
310
0001FFFF80007FF8000001FFFE0000007FFFFFF0001FFFFFFFC0000FFFF80001
310
FFFFC0000FFFF80001FFFF0003FFFFFFFFF0001FFFFC0003F000F0000FFFF000
310
07FE0007FFF800007FFF0001FF80007FE0001FFFE00007FF0000FFFE00007FF8
310
000001FFFE0000007FFFFFF0001FFFFFFFC00003FFE00001FFFFC00003FFE000
310
01FFFF0003FFFFFFFFF8000FFFF80003F000F00003FFC00007FC0007FFF80000
310
7FFF8001FF80007FF00007FF80000FFF00007FF80000FFF8000001FFFE000000
310
7F80000000000001FFE000003E000003FFFFE000003E000003FFFF0003FFFFFF
310
FFF80003FFE00007F000F800000000000FFC0007FFF800007FFF8001FF80007F
310
F000000000000FFF000000000000FFF8000001FFFE0000007F80000000000001
310
FFF0000000000007FFFFF0000000000007FFFF0003FFFFFFFFFC00007E000007
310
F000F800000000000FFC0007FFF80000FFFF8000FF80007FF800000000001FFF
310
800000000001FFF8000001FFFE0000007F80000000000001FFF800000000000F
310
FFFFF800000000000FFFFF0003FFFFFFFFFC00000000000FF000FC0000000000
310
1FFC0007FFFC0000FFFF8000FF80007FF800000000003FFFC00000000001FFF8
310
000001FFFE0000007F80000000000001FFF800000000000FFFFFF80000000000
310
0FFFFF0003FFFFFFFFFE00000000001FF000FE00000000003FF8000FFFFC0000
310
FFFF8000FF80007FFC00000000003FFFC00000000003FFF8000001FFFE000000
310
7F80000000000001FFFC00000000001FFFFFFC00000000001FFFFF0003FFFFFF
310
FFFF00000000001FF000FF00000000003FF8000FFFFC0000FFFFC000FF80007F
310
FE00000000007FFFE00000000007FFF8000001FFFE0000007F80000000000001
310
FFFE00000000003FFFFFFE00000000003FFFFF0003FFFFFFFFFF80000000003F
310
F000FF80000000007FF8000FFFFC0001FFFFC0007F80007FFF0000000000FFFF
310
F0000000000FFFF800000000000000007F80000000000001FFFF8000000000FF
310
FFFFFF8000000000FFFFFF0003FFFFFFFFFFC0000000007FF000FFC000000000
310
FFF8000FFFFE0001FFFFC0007F80007FFF8000000001FFFFF8000000001FFFF8
310
00000000000000007F80000000000001FFFFC000000001FFFFFFFFC000000001
310
FFFFFF0003FFFFFFFFFFE000000000FFF000FFE000000003FFF0001FFFFE0001
310
FFFFC0007F80007FFFC000000007FFFFFE000000003FFFF80000000000000000
310
7F80000000000001FFFFE000000003FFFFFFFFE000000003FFFFFF0003FFFFFF
310
FFFFF000000003FFF000FFF80000000FFFF0001FFFFE0001FFFFE0007F80007F
310
FFF00000000FFFFFFF00000000FFFFF800000000000000007F80000000000001
310
FFFFF80000000FFFFFFFFFF80000000FFFFFFF0003FFFFFFFFFFFC0000000FFF
310
F000FFFE0000003FFFF0001FFFFE0003FFFFE0003F80007FFFFC0000003FFFFF
310
FFC0000003FFFFF800000000000000007F80000000000001FFFFFE0000003FFF
310
FFFFFFFE0000003FFFFFFF0003FFFFFFFFFFFF0000003FFFF000FFFF800000FF
310
FFF0001FFFFF0003FFFFE0003F80007FFFFF000001FFFFFFFFF800001FFFFFF8
310
00000000000000007F80000000000001FFFFFFC00001FFFFFFFFFFFFC00001FF
310
FFFFFF0003FFFFFFFFFFFFC00000FFFFF000FFFFF8000FFFFFFFFFFFFFFFFFFF
310
FFFFFFFFFFFFFFFFFFFFF0001FFFFFFFFFFF0000FFFFFFF80000000000000000
310
7FFFFFFFFFFFFFFFFFFFFFFC001FFFFFFFFFFFFFFC001FFFFFFFFFFFFFFFFFFF
310
FFFFFFFC001FFFFFF000FFFFFFFFFFFFFFFFFFFFFFFFFFFFFFFFFFFFFFFFFFFF
310
FFFFFFFFFFFFFFFFFFFFFFFFFFFFFFFFFFFFFFFFFFFFFFFFFFFFFFFFFFFFFFFF
310
FFFFFFFFFFFFFFFFFFFFFFFFFFFFFFFFFFFFFFFFFFFFFFFFFFFFFFFFFFFFFFFF
310
F000FFFFFFFFFFFFFFFFFFFFFFFFFFFFFFFFFFFFFFFFFFFFFFFFFFFFFFFFFFFF
310
FFFFFFFFFFFFFFFFFFFFFFFFFFFFFFFFFFFFFFFFFFFFFFFFFFFFFFFFFFFFFFFF
310
FFFFFFFFFFFFFFFFFFFFFFFFFFFFFFFFFFFFFFFFFFFFFFFFF000FFFFFFFFFFFF
310
FFFFFFFFFFFFFFFFFFFFFFFFFFFFFFFFFFFFFFFFFFFFFFFFFFFFFFFFFFFFFFFF
310
FFFFFFFFFFFFFFFFFFFFFFFFFFFFFFFFFFFFFFFFFFFFFFFFFFFFFFFFFFFFFFFF
310
FFFFFFFFFFFFFFFFFFFFFFFFFFFFFFFFF000FFFFFFFFFFFFFFFFFFFFFFFFFFFF
310
FFFFFFFFFFFFFFFFFFFFFFFFFFFFFFFFFFFFFFFFFFFFFFFFFFFFFFFFFFFFFFFF
310
FFFFFFFFFFFFFFFFFFFFFFFFFFFFFFFFFFFFFFFFFFFFFFFFFFFFFFFFFFFFFFFF
310
FFFFFFFFFFFFFFFFF000FFFFFFFFFFFFFFFFFFFFFFFFFFFFFFFFFFFFFFFFFFFF
310
FFFFFFFFFFFFFFFFFFFFFFFFFFFFFFFFFFFFFFFFFFFFFFFFFFFFFFFFFFFFFFFF
310
FFFFFFFFFFFFFFFFFFFFFFFFFFFFFFFFFFFFFFFFFFFFFFFFFFFFFFFFFFFFFFFF
310
F000FFFFFFFFFFFFFFFFFFFFFFFFFFFFFFFFFFFFFFFFFFFFFFFFFFFFFFFFFFFF
310
FFFFFFFFFFFFFFFFFFFFFFFFFFFFFFFFFFFFFFFFFFFFFFFFFFFFFFFFFFFFFFFF
310
FFFFFFFFFFFFFFFFFFFFFFFFFFFFFFFFFFFFFFFFFFFFFFFFF000FFFFFFFFFFFF
310
FFFFFFFFFFFFFFFFFFFFFFFFFFFFFFFFFFFFFFFFFFFFFFFFFFFFFFFFFFFFFFFF
310
FFFFFFFFFFFFFFFFFFFFFFFFFFFFFFFFFFFFFFFFFFFFFFFFFFFFFFFFFFFFFFFF
310
FFFFFFFFFFFFFFFFFFFFFFFFFFFFFFFFF000FFFFFFFFFFFFFFFFFFFFFFFFFFFF
310
FFFFFFFFFFFFFFFFFFFFFFFFFFFFFFFFFFFFFFFFFFFFFFFFFFFFFFFFFFFFFFFF
310
FFFFFFFFFFFFFFFFFFFFFFFFFFFFFFFFFFFFFFFFFFFFFFFFFFFFFFFFFFFFFFFF
310
FFFFFFFFFFFFFFFFF000FFFFFFFFFFFFFFFFFFFFFFFFFFFFFFFFFFFFFFFFFFFF
310
FFFFFFFFFFFFFFFFFFFFFFFFFFFFFFFFFFFFFFFFFFFFFFFFFFFFFFFFFFFFFFFF
310
FFFFFFFFFFFFFFFFFFFFFFFFFFFFFFFFFFFFFFFFFFFFFFFFFFFFFFFFFFFFFFFF
310
F000FFFFFFFFFFFFFFFFFFFFFFFFFFFFFFFFFFFFFFFFFFFFFFFFFFFFFFFFFFFF
310
FFFFFFFFFFFFFFFFFFFFFFFFFFFFFFFFFFFFFFFFFFFFFFFFFFFFFFFFFFFFFFFF
310
FFFFFFFFFFFFFFFFFFFFFFFFFFFFFFFFFFFFFFFFFFFFFFFFF000FFFFFFFFFFFF
310
FFFFFFFFFFFFFFFFFFFFFFFFFFFFFFFFFFFFFFFFFFFFFFFFFFFFFFFFFFFFFFFF
310
FFFFFFFFFFFFFFFFFFFFFFFFFFFFFFFFFFFFFFFFFFFFFFFFFFFFFFFFFFFFFFFF
310
FFFFFFFFFFFFFFFFFFFFFFFFFFFFFFFFF000FFFFFFFFFFFFFFFFFFFFFFFFFFFF
310
FFFFFFFFFFFFFFFFFFFFFFFFFFFFFFFFFFFFFFFFFFFFFFFFFFFFFFFFFFFFFFFF
310
FFFFFFFFFFFFFFFFFFFFFFFFFFFFFFFFFFFFFFFFFFFFFFFFFFFFFFFFFFFFFFFF
310
FFFFFFFFFFFFFFFFF000FFFFFFFFFFFFFFFFFFFFFFFFFFFFFFFFFFFFFFFFFFFF
310
FFFFFFFFFFFFFFFFFFFFFFFFFFFFFFFFFFFFFFFFFFFFFFFFFFFFFFFFFFFFFFFF
310
FFFFFFFFFFFFFFFFFFFFFFFFFFFFFFFFFFFFFFFFFFFFFFFFFFFFFFFFFFFFFFFF
310
F000FFFFFFFFFFFFFFFFFFFFFFFFFFFFFFFFFFFFFFFFFFFFFFFFFFFFFFFFFFFF
310
FFFFFFFFFFFFFFFFFFFFFFFFFFFFFFFFFFFFFFFFFFFFFFFFFFFFFFFFFFFFFFFF
310
FFFFFFFFFFFFFFFFFFFFFFFFFFFFFFFFFFFFFFFFFFFFFFFFF000FFFFFFFFFFFF
310
FFFFFFFFFFFFFFFFFFFFFFFFFFFFFFFFFFFFFFFFFFFFFFFFFFFFFFFFFFFFFFFF
310
FFFFFFFFFFFFFFFFFFFFFFFFFFFFFFFFFFFFFFFFFFFFFFFFFFFFFFFFFFFFFFFF
310
FFFFFFFFFFFFFFFFFFFFFFFFFFFFFFFFF000FFFFFFFFFFFFFFFFFFFFFFFFFFFF
310
FFFFFFFFFFFFFFFFFFFFFFFFFFFFFFFFFFFFFFFFFFFFFFFFFFFFFFFFFFFFFFFF
310
FFFFFFFFFFFFFFFFFFFFFFFFFFFFFFFFFFFFFFFFFFFFFFFFFFFFFFFFFFFFFFFF
310
FFFFFFFFFFFFFFFFF000FFFFFFFFFFFFFFFFFFFFFFFFFFFFFFFFFFFFFFFFFFFF
310
FFFFFFFFFFFFFFFFFFFFFFFFFFFFFFFFFFFFFFFFFFFFFFFFFFFFFFFFFFFFFFFF
310
FFFFFFFFFFFFFFFFFFFFFFFFFFFFFFFFFFFFFFFFFFFFFFFFFFFFFFFFFFFFFFFF
310
F000FFFFFFFFFFFFFFFFFFFFFFFFFFFFFFFFFFFFFFFFFFFFFFFFFFFFFFFFFFFF
310
FFFFFFFFFFFFFFFFFFFFFFFFFFFFFFFFFFFFFFFFFFFFFFFFFFFFFFFFFFFFFFFF
310
FFFFFFFFFFFFFFFFFFFFFFFFFFFFFFFFFFFFFFFFFFFFFFFFF000FFFFFFFFFFFF
310
FFFFFFFFFFFFFFFFFFFFFFFFFFFFFFFFFFFFFFFFFFFFFFFFFFFFFFFFFFFFFFFF
310
FFFFFFFFFFFFFFFFFFFFFFFFFFFFFFFFFFFFFFFFFFFFFFFFFFFFFFFFFFFFFFFF
310
FFFFFFFFFFFFFFFFFFFFFFFFFFFFFFFFF000FFFFFFFFFFFFFFFFFFFFFFFFFFFF
310
FFFFFFFFFFFFFFFFFFFFFFFFFFFFFFFFFFFFFFFFFFFFFFFFFFFFFFFFFFFFFFFF
310
FFFFFFFFFFFFFFFFFFFFFFFFFFFFFFFFFFFFFFFFFFFFFFFFFFFFFFFFFFFFFFFF
310
FFFFFFFFFFFFFFFFF000FFFFFFFFFFFFFFFFFFFFFFFFFFFFFFFFFFFFFFFFFFFF
310
FFFFFFFFFFFFFFFFFFFFFFFFFFFFFFFFFFFFFFFFFFFFFFFFFFFFFFFFFFFFFFFF
310
FFFFFFFFFFFFFFFFFFFFFFFFFFFFFFFFFFFFFFFFFFFFFFFFFFFFFFFFFFFFFFFF
310
F000FFFFFFFFFFFFFFFFFFFFFFFFFFFFFFFFFFFFFFFFFFFFFFFFFFFFFFFFFFFF
310
FFFFFFFFFFFFFFFFFFFFFFFFFFFFFFFFFFFFFFFFFFFFFFFFFFFFFFFFFFFFFFFF
310
FFFFFFFFFFFFFFFFFFFFFFFFFFFFFFFFFFFFFFFFFFFFFFFFF000FFFFFFFFFFFF
310
FFFFFFFFFFFFFFFFFFFFFFFFFFFFFFFFFFFFFFFFFFFFFFFFFFFFFFFFFFFFFFFF
310
FFFFFFFFFFFFFFFFFFFFFFFFFFFFFFFFFFFFFFFFFFFFFFFFFFFFFFFFFFFFFFFF
310
FFFFFFFFFFFFFFFFFFFFFFFFFFFFFFFFF0000000000000000000000000000000
310
0000000000000000000000000000000000000000000000000000000000000000
310
0000000000000000000000000000000000000000000000000000000000000000
310
0000000000000000000000000000000000000000000000000000000000000000
310
0000000000000000000000000000000000000000000000000000000000000000
310
0000000000000000000000000000000000000000000000000000000000000000
310
0000000000000000000000000000000000000000000000000000000000000000
310
0000000000000000000000000000000000000000000000000000000000000000
310
0000000000000000000000000000000000000000000000000000000000000000
310
0000000000000000000000000000000000000000000000000000000000000000
310
0000000000000000000000000000000000000000000000000000000000000000
310
0000000000000000000000000000000000000000000000000000000000000000
310
0000000000000000000000000000000000000000000000000000000000000000
310
0000000000000000000000000000000000000000000000000000000000000000
310
0000000000000000000000000000000000000000000000000000000000000000
310
0000000000000000000000000000000000000000000000000000000000000000
  1
OLE
  0
ENDSEC
  0
SECTION
  2
OBJECTS
  0
DICTIONARY
  5
C
330
0
100
AcDbDictionary
281
     1
  3
ACAD_GROUP
350
D
  3
ACAD_LAYOUT
350
1A
  3
ACAD_MLINESTYLE
350
17
  3
ACAD_PLOTSETTINGS
350
19
  3
ACAD_PLOTSTYLENAME
350
E
  0
DICTIONARY
  5
D
102
{ACAD_REACTORS
330
C
102
}
330
C
100
AcDbDictionary
281
     1
  0
DICTIONARY
  5
1A
102
{ACAD_REACTORS
330
C
102
}
330
C
100
AcDbDictionary
281
     1
  3
Layout1
350
1E
  3
Layout2
350
26
  3
Model
350
22
  0
DICTIONARY
  5
17
102
{ACAD_REACTORS
330
C
102
}
330
C
100
AcDbDictionary
281
     1
  3
Standard
350
18
  0
DICTIONARY
  5
19
102
{ACAD_REACTORS
330
C
102
}
330
C
100
AcDbDictionary
281
     1
  0
ACDBDICTIONARYWDFLT
  5
E
102
{ACAD_REACTORS
330
C
102
}
330
C
100
AcDbDictionary
281
     1
  3
Normal
350
F
100
AcDbDictionaryWithDefault
340
F
  0
LAYOUT
  5
1E
102
{ACAD_REACTORS
330
1A
102
}
330
1A
100
AcDbPlotSettings
  1

  2
none_device
  4

  6

 40
0.0
 41
0.0
 42
0.0
 43
0.0
 44
0.0
 45
0.0
 46
0.0
 47
0.0
 48
0.0
 49
0.0
140
0.0
141
0.0
142
1.0
143
1.0
 70
   688
 72
     0
 73
     0
 74
     5
  7

 75
    16
147
1.0
148
0.0
149
0.0
100
AcDbLayout
  1
Layout1
 70
     1
 71
     1
 10
0.0
 20
0.0
 11
420.0
 21
297.0
 12
0.0
 22
0.0
 32
0.0
 14
1.0000000000E+20
 24
1.0000000000E+20
 34
1.0000000000E+20
 15
-1.0000000000E+20
 25
-1.0000000000E+20
 35
-1.0000000000E+20
146
0.0
 13
0.0
 23
0.0
 33
0.0
 16
1.0
 26
0.0
 36
0.0
 17
0.0
 27
1.0
 37
0.0
 76
     0
330
1B
  0
LAYOUT
  5
26
102
{ACAD_REACTORS
330
1A
102
}
330
1A
100
AcDbPlotSettings
  1

  2
none_device
  4

  6

 40
0.0
 41
0.0
 42
0.0
 43
0.0
 44
0.0
 45
0.0
 46
0.0
 47
0.0
 48
0.0
 49
0.0
140
0.0
141
0.0
142
1.0
143
1.0
 70
   688
 72
     0
 73
     0
 74
     5
  7

 75
    16
147
1.0
148
0.0
149
0.0
100
AcDbLayout
  1
Layout2
 70
     1
 71
     2
 10
0.0
 20
0.0
 11
0.0
 21
0.0
 12
0.0
 22
0.0
 32
0.0
 14
0.0
 24
0.0
 34
0.0
 15
0.0
 25
0.0
 35
0.0
146
0.0
 13
0.0
 23
0.0
 33
0.0
 16
1.0
 26
0.0
 36
0.0
 17
0.0
 27
1.0
 37
0.0
 76
     0
330
23
  0
LAYOUT
  5
22
102
{ACAD_REACTORS
330
1A
102
}
330
1A
100
AcDbPlotSettings
  1

  2
none_device
  4

  6

 40
0.0
 41
0.0
 42
0.0
 43
0.0
 44
0.0
 45
0.0
 46
0.0
 47
0.0
 48
0.0
 49
0.0
140
0.0
141
0.0
142
1.0
143
1.0
 70
  1712
 72
     0
 73
     0
 74
     0
  7

 75
     0
147
1.0
148
0.0
149
0.0
100
AcDbLayout
  1
Model
 70
     1
 71
     0
 10
0.0
 20
0.0
 11
297.0
 21
210.0
 12
0.0
 22
0.0
 32
0.0
 14
0.0
 24
0.0
 34
0.0
 15
297.0
 25
210.0
 35
0.0
146
0.0
 13
0.0
 23
0.0
 33
0.0
 16
1.0
 26
0.0
 36
0.0
 17
0.0
 27
1.0
 37
0.0
 76
     0
330
1F
331
29
  0
MLINESTYLE
  5
18
102
{ACAD_REACTORS
330
17
102
}
330
17
100
AcDbMlineStyle
  2
Standard
 70
     0
  3

 62
   256
 51
90.0
 52
90.0
 71
     2
 49
0.5
 62
   256
  6
BYLAYER
 49
-0.5
 62
   256
  6
BYLAYER
  0
ACDBPLACEHOLDER
  5
F
102
{ACAD_REACTORS
330
E
102
}
330
E
  0
ENDSEC
  0
EOF
