  0
SECTION
  2
HEADER
  9
$ACADVER
  1
AC1015
  9
$ACADMAINTVER
 70
     6
  9
$DWGCODEPAGE
  3
ANSI_1252
  9
$INSBASE
 10
0.0
 20
0.0
 30
0.0
  9
$EXTMIN
 10
0.0
 20
0.0
 30
0.0
  9
$EXTMAX
 10
297.0
 20
210.0
 30
0.0
  9
$LIMMIN
 10
0.0
 20
0.0
  9
$LIMMAX
 10
297.0
 20
210.0
  9
$ORTHOMODE
 70
     0
  9
$REGENMODE
 70
     1
  9
$FILLMODE
 70
     1
  9
$QTEXTMODE
 70
     0
  9
$MIRRTEXT
 70
     1
  9
$LTSCALE
 40
1.0
  9
$ATTMODE
 70
     1
  9
$TEXTSIZE
 40
2.0
  9
$TRACEWID
 40
1.0
  9
$TEXTSTYLE
  7
Standard
  9
$CLAYER
  8
0
  9
$CELTYPE
  6
ByLayer
  9
$CECOLOR
 62
   256
  9
$CELTSCALE
 40
1.0
  9
$DISPSILH
 70
     0
  9
$DIMSCALE
 40
1.0
  9
$DIMASZ
 40
3.0
  9
$DIMEXO
 40
0.0
  9
$DIMDLI
 40
3.75
  9
$DIMRND
 40
0.0
  9
$DIMDLE
 40
0.0
  9
$DIMEXE
 40
1.0
  9
$DIMTP
 40
0.0
  9
$DIMTM
 40
0.0
  9
$DIMTXT
 40
2.0
  9
$DIMCEN
 40
2.5
  9
$DIMTSZ
 40
0.0
  9
$DIMTOL
 70
     0
  9
$DIMLIM
 70
     0
  9
$DIMTIH
 70
     1
  9
$DIMTOH
 70
     1
  9
$DIMSE1
 70
     0
  9
$DIMSE2
 70
     0
  9
$DIMTAD
 70
     1
  9
$DIMZIN
 70
     0
  9
$DIMBLK
  1

  9
$DIMASO
 70
     1
  9
$DIMSHO
 70
     1
  9
$DIMPOST
  1

  9
$DIMAPOST
  1

  9
$DIMALT
 70
     0
  9
$DIMALTD
 70
     3
  9
$DIMALTF
 40
0.0393700787
  9
$DIMLFAC
 40
2.0
  9
$DIMTOFL
 70
     1
  9
$DIMTVP
 40
0.0
  9
$DIMTIX
 70
     0
  9
$DIMSOXD
 70
     0
  9
$DIMSAH
 70
     0
  9
$DIMBLK1
  1

  9
$DIMBLK2
  1

  9
$DIMSTYLE
  2
ISO-25
  9
$DIMCLRD
 70
     0
  9
$DIMCLRE
 70
     0
  9
$DIMCLRT
 70
     0
  9
$DIMTFAC
 40
1.0
  9
$DIMGAP
 40
1.524
  9
$DIMJUST
 70
     0
  9
$DIMSD1
 70
     0
  9
$DIMSD2
 70
     0
  9
$DIMTOLJ
 70
     0
  9
$DIMTZIN
 70
     0
  9
$DIMALTZ
 70
     0
  9
$DIMALTTZ
 70
     0
  9
$DIMUPT
 70
     0
  9
$DIMDEC
 70
     2
  9
$DIMTDEC
 70
     3
  9
$DIMALTU
 70
     2
  9
$DIMALTTD
 70
     3
  9
$DIMTXSTY
  7
Standard
  9
$DIMAUNIT
 70
     0
  9
$DIMADEC
 70
     2
  9
$DIMALTRND
 40
0.0
  9
$DIMAZIN
 70
     0
  9
$DIMDSEP
 70
    44
  9
$DIMATFIT
 70
     3
  9
$DIMFRAC
 70
     0
  9
$DIMLDRBLK
  1

  9
$DIMLUNIT
 70
     2
  9
$DIMLWD
 70
    -2
  9
$DIMLWE
 70
    -2
  9
$DIMTMOVE
 70
     0
  9
$LUNITS
 70
     2
  9
$LUPREC
 70
     2
  9
$SKETCHINC
 40
1.0
  9
$FILLETRAD
 40
10.0
  9
$AUNITS
 70
     0
  9
$AUPREC
 70
     2
  9
$MENU
  1
.
  9
$ELEVATION
 40
0.0
  9
$PELEVATION
 40
0.0
  9
$THICKNESS
 40
0.0
  9
$LIMCHECK
 70
     0
  9
$CHAMFERA
 40
0.0
  9
$CHAMFERB
 40
0.0
  9
$CHAMFERC
 40
0.0
  9
$CHAMFERD
 40
0.0
  9
$SKPOLY
 70
     0
  9
$TDCREATE
 40
2458166.623305891
  9
$TDUCREATE
 40
2458166.581639225
  9
$TDUPDATE
 40
2458166.623308032
  9
$TDUUPDATE
 40
2458166.581641366
  9
$TDINDWG
 40
0.0000000116
  9
$TDUSRTIMER
 40
0.0000000116
  9
$USRTIMER
 70
     1
  9
$ANGBASE
 50
0.0
  9
$ANGDIR
 70
     0
  9
$PDMODE
 70
     0
  9
$PDSIZE
 40
-1.0
  9
$PLINEWID
 40
0.0
  9
$SPLFRAME
 70
     0
  9
$SPLINETYPE
 70
     6
  9
$SPLINESEGS
 70
     8
  9
$HANDSEED
  5
246
  9
$SURFTAB1
 70
     6
  9
$SURFTAB2
 70
     6
  9
$SURFTYPE
 70
     6
  9
$SURFU
 70
     6
  9
$SURFV
 70
     6
  9
$UCSBASE
  2

  9
$UCSNAME
  2

  9
$UCSORG
 10
0.0
 20
0.0
 30
0.0
  9
$UCSXDIR
 10
1.0
 20
0.0
 30
0.0
  9
$UCSYDIR
 10
0.0
 20
1.0
 30
0.0
  9
$UCSORTHOREF
  2

  9
$UCSORTHOVIEW
 70
     0
  9
$UCSORGTOP
 10
0.0
 20
0.0
 30
0.0
  9
$UCSORGBOTTOM
 10
0.0
 20
0.0
 30
0.0
  9
$UCSORGLEFT
 10
0.0
 20
0.0
 30
0.0
  9
$UCSORGRIGHT
 10
0.0
 20
0.0
 30
0.0
  9
$UCSORGFRONT
 10
0.0
 20
0.0
 30
0.0
  9
$UCSORGBACK
 10
0.0
 20
0.0
 30
0.0
  9
$PUCSBASE
  2

  9
$PUCSNAME
  2

  9
$PUCSORG
 10
0.0
 20
0.0
 30
0.0
  9
$PUCSXDIR
 10
1.0
 20
0.0
 30
0.0
  9
$PUCSYDIR
 10
0.0
 20
1.0
 30
0.0
  9
$PUCSORTHOREF
  2

  9
$PUCSORTHOVIEW
 70
     0
  9
$PUCSORGTOP
 10
0.0
 20
0.0
 30
0.0
  9
$PUCSORGBOTTOM
 10
0.0
 20
0.0
 30
0.0
  9
$PUCSORGLEFT
 10
0.0
 20
0.0
 30
0.0
  9
$PUCSORGRIGHT
 10
0.0
 20
0.0
 30
0.0
  9
$PUCSORGFRONT
 10
0.0
 20
0.0
 30
0.0
  9
$PUCSORGBACK
 10
0.0
 20
0.0
 30
0.0
  9
$USERI1
 70
     0
  9
$USERI2
 70
     0
  9
$USERI3
 70
     0
  9
$USERI4
 70
     0
  9
$USERI5
 70
     0
  9
$USERR1
 40
0.0
  9
$USERR2
 40
0.0
  9
$USERR3
 40
0.0
  9
$USERR4
 40
0.0
  9
$USERR5
 40
0.0
  9
$WORLDVIEW
 70
     1
  9
$SHADEDGE
 70
     3
  9
$SHADEDIF
 70
    70
  9
$TILEMODE
 70
     1
  9
$MAXACTVP
 70
    64
  9
$PINSBASE
 10
0.0
 20
0.0
 30
0.0
  9
$PLIMCHECK
 70
     0
  9
$PEXTMIN
 10
1.0000000000E+20
 20
1.0000000000E+20
 30
1.0000000000E+20
  9
$PEXTMAX
 10
-1.0000000000E+20
 20
-1.0000000000E+20
 30
-1.0000000000E+20
  9
$PLIMMIN
 10
0.0
 20
0.0
  9
$PLIMMAX
 10
420.0
 20
297.0
  9
$UNITMODE
 70
     0
  9
$VISRETAIN
 70
     1
  9
$PLINEGEN
 70
     0
  9
$PSLTSCALE
 70
     1
  9
$TREEDEPTH
 70
  3020
  9
$CMLSTYLE
  2
Standard
  9
$CMLJUST
 70
     0
  9
$CMLSCALE
 40
20.0
  9
$PROXYGRAPHICS
 70
     1
  9
$MEASUREMENT
 70
     1
  9
$CELWEIGHT
370
    -1
  9
$ENDCAPS
280
     0
  9
$JOINSTYLE
280
     0
  9
$LWDISPLAY
290
     1
  9
$INSUNITS
 70
     4
  9
$HYPERLINKBASE
  1

  9
$STYLESHEET
  1

  9
$XEDIT
290
     1
  9
$CEPSNTYPE
380
     0
  9
$PSTYLEMODE
290
     1
  9
$FINGERPRINTGUID
  2
{9249A241-FBA8-485E-8C78-F50CEA0DBF3C}
  9
$VERSIONGUID
  2
{FAEB1C32-E019-11D5-929B-00C0DF256EC4}
  9
$EXTNAMES
290
     1
  9
$PSVPSCALE
 40
0.0
  9
$OLESTARTUP
290
     0
  0
ENDSEC
  0
SECTION
  2
CLASSES
  0
CLASS
  1
ACDBDICTIONARYWDFLT
  2
AcDbDictionaryWithDefault
  3
ObjectDBX Classes
 90
        0
280
     0
281
     0
  0
CLASS
  1
VISUALSTYLE
  2
AcDbVisualStyle
  3
ObjectDBX Classes
 90
     4095
280
     0
281
     0
  0
CLASS
  1
MATERIAL
  2
AcDbMaterial
  3
ObjectDBX Classes
 90
     1153
280
     0
281
     0
  0
CLASS
  1
SCALE
  2
AcDbScale
  3
ObjectDBX Classes
 90
     1153
280
     0
281
     0
  0
CLASS
  1
TABLESTYLE
  2
AcDbTableStyle
  3
ObjectDBX Classes
 90
     4095
280
     0
281
     0
  0
CLASS
  1
MLEADERSTYLE
  2
AcDbMLeaderStyle
  3
ACDB_MLEADERSTYLE_CLASS
 90
     4095
280
     0
281
     0
  0
CLASS
  1
SUN
  2
AcDbSun
  3
SCENEOE
 90
     1153
280
     0
281
     0
  0
CLASS
  1
ACDBPLACEHOLDER
  2
AcDbPlaceHolder
  3
ObjectDBX Classes
 90
        0
280
     0
281
     0
  0
CLASS
  1
LAYOUT
  2
AcDbLayout
  3
ObjectDBX Classes
 90
        0
280
     0
281
     0
  0
ENDSEC
  0
SECTION
  2
TABLES
  0
TABLE
  2
VPORT
  5
8
330
0
100
AcDbSymbolTable
 70
     1
  0
VPORT
  5
29
330
8
100
AcDbSymbolTableRecord
100
AcDbViewportTableRecord
  2
*Active
 70
     0
 10
0.0
 20
0.0
 11
1.0
 21
1.0
 12
148.5
 22
105.0
 13
0.0
 23
0.0
 14
10.0
 24
10.0
 15
10.0
 25
10.0
 16
0.0
 26
0.0
 36
1.0
 17
0.0
 27
0.0
 37
0.0
 40
210.0
 41
1.4142857143
 42
50.0
 43
0.0
 44
0.0
 50
0.0
 51
0.0
 71
     0
 72
  2000
 73
     1
 74
     3
 75
     0
 76
     0
 77
     0
 78
     0
281
     0
 65
     1
110
0.0
120
0.0
130
0.0
111
1.0
121
0.0
131
0.0
112
0.0
122
1.0
132
0.0
 79
     0
146
0.0
  0
ENDTAB
  0
TABLE
  2
LTYPE
  5
5
330
0
100
AcDbSymbolTable
 70
     6
  0
LTYPE
  5
14
330
5
100
AcDbSymbolTableRecord
100
AcDbLinetypeTableRecord
  2
ByBlock
 70
     0
  3

 72
    65
 73
     0
 40
0.0
  0
LTYPE
  5
15
330
5
100
AcDbSymbolTableRecord
100
AcDbLinetypeTableRecord
  2
ByLayer
 70
     0
  3

 72
    65
 73
     0
 40
0.0
  0
LTYPE
  5
16
330
5
100
AcDbSymbolTableRecord
100
AcDbLinetypeTableRecord
  2
Continuous
 70
     0
  3
Solid line
 72
    65
 73
     0
 40
0.0
  0
LTYPE
  5
6E
330
5
100
AcDbSymbolTableRecord
100
AcDbLinetypeTableRecord
  2
HIDDEN
 70
     0
  3
Hidden __ __ __ __ __ __ __ __ __ __ __ __ __ __
 72
    65
 73
     2
 40
1.905
 49
1.27
 74
     0
 49
-0.635
 74
     0
  0
LTYPE
  5
6F
330
5
100
AcDbSymbolTableRecord
100
AcDbLinetypeTableRecord
  2
PHANTOM
 70
     0
  3
Phantom ______  __  __  ______  __  __  ______
 72
    65
 73
     6
 40
12.7
 49
6.35
 74
     0
 49
-1.27
 74
     0
 49
1.27
 74
     0
 49
-1.27
 74
     0
 49
1.27
 74
     0
 49
-1.27
 74
     0
  0
LTYPE
  5
70
330
5
100
AcDbSymbolTableRecord
100
AcDbLinetypeTableRecord
  2
CENTER
 70
     0
  3
Center ____ _ ____ _ ____ _ ____ _ ____ _ ____
 72
    65
 73
     4
 40
10.16
 49
6.35
 74
     0
 49
-1.27
 74
     0
 49
1.27
 74
     0
 49
-1.27
 74
     0
  0
LTYPE
  5
71
330
5
100
AcDbSymbolTableRecord
100
AcDbLinetypeTableRecord
  2
CENTERX2
 70
     0
  3
Center (2x) ________  __  ________  __  _____
 72
    65
 73
     4
 40
20.32
 49
12.7
 74
     0
 49
-2.54
 74
     0
 49
2.54
 74
     0
 49
-2.54
 74
     0
  0
LTYPE
  5
72
330
5
100
AcDbSymbolTableRecord
100
AcDbLinetypeTableRecord
  2
DOT2
 70
     0
  3
Dot (.5x) ........................................
 72
    65
 73
     2
 40
0.635
 49
0.0
 74
     0
 49
-0.635
 74
     0
  0
ENDTAB
  0
TABLE
  2
LAYER
  5
2
330
0
100
AcDbSymbolTable
 70
     5
  0
LAYER
  5
10
330
2
100
AcDbSymbolTableRecord
100
AcDbLayerTableRecord
  2
0
 70
     0
 62
     7
  6
Continuous
370
    -3
390
F
  0
LAYER
  5
73
330
2
100
AcDbSymbolTableRecord
100
AcDbLayerTableRecord
  2
FORMAT
 70
     0
 62
     7
  6
Continuous
370
    -3
390
F
  0
LAYER
  5
74
330
2
100
AcDbSymbolTableRecord
100
AcDbLayerTableRecord
  2
VERMASSUNG
 70
     0
 62
     7
  6
Continuous
370
    -3
390
F
  0
LAYER
  5
75
330
2
100
AcDbSymbolTableRecord
100
AcDbLayerTableRecord
  2
KOPF_DÜNN
 70
     0
 62
     7
  6
Continuous
370
    -3
390
F
  0
LAYER
  5
76
330
2
100
AcDbSymbolTableRecord
100
AcDbLayerTableRecord
  2
KOPF_DICK
 70
     0
 62
     7
  6
Continuous
370
    25
390
F
  0
ENDTAB
  0
TABLE
  2
STYLE
  5
3
330
0
100
AcDbSymbolTable
 70
     2
  0
STYLE
  5
11
330
3
100
AcDbSymbolTableRecord
100
AcDbTextStyleTableRecord
  2
Standard
 70
     0
 40
0.0
 41
1.0
 50
0.0
 71
     0
 42
2.0
  3
txt
  4

  0
STYLE
  5
77
330
3
100
AcDbSymbolTableRecord
100
AcDbTextStyleTableRecord
  2
SLDTEXTSTYLE0
 70
     0
 40
0.0
 41
0.7
 50
0.0
 71
     0
 42
2.0
  3
TXT
  4

  0
ENDTAB
  0
TABLE
  2
VIEW
  5
6
330
0
100
AcDbSymbolTable
 70
     0
  0
ENDTAB
  0
TABLE
  2
UCS
  5
7
330
0
100
AcDbSymbolTable
 70
     0
  0
ENDTAB
  0
TABLE
  2
APPID
  5
9
330
0
100
AcDbSymbolTable
 70
     1
  0
APPID
  5
12
330
9
100
AcDbSymbolTableRecord
100
AcDbRegAppTableRecord
  2
ACAD
 70
     0
  0
ENDTAB
  0
TABLE
  2
DIMSTYLE
  5
A
330
0
100
AcDbSymbolTable
 70
     3
100
AcDbDimStyleTable
  0
DIMSTYLE
105
27
330
A
100
AcDbSymbolTableRecord
100
AcDbDimStyleTableRecord
  2
ISO-25
 70
     0
 41
2.5
 42
0.625
 43
3.75
 44
1.25
 73
     0
 74
     0
 77
     1
 78
     8
140
2.5
141
2.5
143
0.0393700787
147
0.625
171
     3
172
     1
178
     0
271
     2
272
     2
274
     3
278
    44
283
     0
284
     8
340
11
  0
DIMSTYLE
105
134
102
{ACAD_REACTORS
330
133
330
13F
330
149
330
153
330
15D
102
}
330
A
100
AcDbSymbolTableRecord
100
AcDbDimStyleTableRecord
  2
SLDDIMSTYLE0
 70
     0
 41
3.0
 44
0.0
 45
0.000000001
 73
     0
 74
     0
 77
     1
 78
    12
 79
     3
140
2.0
147
0.5
173
     1
178
     0
271
     2
272
     3
276
     2
284
    12
340
77
  0
DIMSTYLE
105
168
102
{ACAD_REACTORS
330
167
102
}
330
A
100
AcDbSymbolTableRecord
100
AcDbDimStyleTableRecord
  2
SLDDIMSTYLE1
 70
     0
 41
3.0
 44
0.0
 45
0.000000001
 73
     0
 74
     0
 77
     1
 78
    12
 79
     3
140
2.0
147
0.5
173
     1
178
     0
271
     1
272
     3
276
     2
284
    12
340
77
  0
ENDTAB
  0
TABLE
  2
BLOCK_RECORD
  5
1
330
0
100
AcDbSymbolTable
 70
     7
  0
BLOCK_RECORD
  5
1F
330
1
100
AcDbSymbolTableRecord
100
AcDbBlockTableRecord
  2
*Model_Space
340
22
  0
BLOCK_RECORD
  5
1B
330
1
100
AcDbSymbolTableRecord
100
AcDbBlockTableRecord
  2
*Paper_Space
340
1E
  0
BLOCK_RECORD
  5
23
330
1
100
AcDbSymbolTableRecord
100
AcDbBlockTableRecord
  2
*Paper_Space0
340
26
  0
BLOCK_RECORD
  5
135
330
1
100
AcDbSymbolTableRecord
100
AcDbBlockTableRecord
  2
_D
340
0
  0
BLOCK_RECORD
  5
140
330
1
100
AcDbSymbolTableRecord
100
AcDbBlockTableRecord
  2
_D_1
340
0
  0
BLOCK_RECORD
  5
14A
330
1
100
AcDbSymbolTableRecord
100
AcDbBlockTableRecord
  2
_D_2
340
0
  0
BLOCK_RECORD
  5
154
330
1
100
AcDbSymbolTableRecord
100
AcDbBlockTableRecord
  2
_D_3
340
0
  0
BLOCK_RECORD
  5
15E
330
1
100
AcDbSymbolTableRecord
100
AcDbBlockTableRecord
  2
_D_4
340
0
  0
BLOCK_RECORD
  5
169
330
1
100
AcDbSymbolTableRecord
100
AcDbBlockTableRecord
  2
_D_5
340
0
  0
ENDTAB
  0
ENDSEC
  0
SECTION
  2
BLOCKS
  0
BLOCK
  5
20
330
1F
100
AcDbEntity
  8
0
100
AcDbBlockBegin
  2
*Model_Space
 70
     0
 10
0.0
 20
0.0
 30
0.0
  3
*Model_Space
  1

  0
ENDBLK
  5
21
330
1F
100
AcDbEntity
  8
0
100
AcDbBlockEnd
  0
BLOCK
  5
1C
330
1B
100
AcDbEntity
 67
     1
  8
0
100
AcDbBlockBegin
  2
*Paper_Space
 70
     0
 10
0.0
 20
0.0
 30
0.0
  3
*Paper_Space
  1

  0
ENDBLK
  5
1D
330
1B
100
AcDbEntity
 67
     1
  8
0
100
AcDbBlockEnd
  0
BLOCK
  5
24
330
23
100
AcDbEntity
  8
0
100
AcDbBlockBegin
  2
*Paper_Space0
 70
     0
 10
0.0
 20
0.0
 30
0.0
  3
*Paper_Space0
  1

  0
ENDBLK
  5
25
330
23
100
AcDbEntity
  8
0
100
AcDbBlockEnd
  0
BLOCK
  5
136
330
135
100
AcDbEntity
  8
0
100
AcDbBlockBegin
  2
_D
 70
     0
 10
0.0
 20
0.0
 30
0.0
  3
_D
  1

  0
SOLID
  5
138
330
135
100
AcDbEntity
  8
VERMASSUNG
100
AcDbTrace
 10
236.8398052157
 20
124.6130440781
 30
0.0
 11
236.3898052157
 21
121.6130440781
 31
0.0
 12
237.2898052157
 22
121.6130440781
 32
0.0
 13
237.2898052157
 23
121.6130440781
 33
0.0
  0
SOLID
  5
139
330
135
100
AcDbEntity
  8
VERMASSUNG
100
AcDbTrace
 10
236.8398052157
 20
102.6130440781
 30
0.0
 11
237.2898052157
 21
105.6130440781
 31
0.0
 12
236.3898052157
 22
105.6130440781
 32
0.0
 13
236.3898052157
 23
105.6130440781
 33
0.0
  0
LINE
  5
13A
330
135
100
AcDbEntity
  8
VERMASSUNG
100
AcDbLine
 10
226.3398052157
 20
124.6130440781
 30
0.0
 11
237.8398052157
 21
124.6130440781
 31
0.0
  0
LINE
  5
13B
330
135
100
AcDbEntity
  8
VERMASSUNG
100
AcDbLine
 10
226.3398052157
 20
102.6130440781
 30
0.0
 11
237.8398052157
 21
102.6130440781
 31
0.0
  0
LINE
  5
13C
330
135
100
AcDbEntity
  8
VERMASSUNG
100
AcDbLine
 10
236.8398052157
 20
124.6130440781
 30
0.0
 11
236.8398052157
 21
102.6130440781
 31
0.0
  0
MTEXT
  5
13D
330
135
100
AcDbEntity
  8
VERMASSUNG
100
AcDbMText
 10
234.2616699108
 20
110.4080441209
 30
0.0
 40
2.0
 41
0.0
 71
     1
 72
     1
  1
%%c
  7
SLDTEXTSTYLE0
 11
-7.044195017643634E-15
 21
1.0
 31
0.0
 73
     1
 44
1.0
  0
MTEXT
  5
13E
330
135
100
AcDbEntity
  8
VERMASSUNG
100
AcDbMText
 10
234.0616699595
 20
114.0180441352
 30
0.0
 40
2.0
 41
0.0
 71
     1
 72
     1
  1
22
  7
SLDTEXTSTYLE0
 11
-7.044195017643634E-15
 21
1.0
 31
0.0
 73
     1
 44
1.0
  0
ENDBLK
  5
137
330
135
100
AcDbEntity
  8
0
100
AcDbBlockEnd
  0
BLOCK
  5
141
330
140
100
AcDbEntity
  8
0
100
AcDbBlockBegin
  2
_D_1
 70
     0
 10
0.0
 20
0.0
 30
0.0
  3
_D_1
  1

  0
SOLID
  5
143
330
140
100
AcDbEntity
  8
VERMASSUNG
100
AcDbTrace
 10
197.8644444873
 20
123.1130440781
 30
0.0
 11
197.4144444873
 21
120.1130440781
 31
0.0
 12
198.3144444873
 22
120.1130440781
 32
0.0
 13
198.3144444873
 23
120.1130440781
 33
0.0
  0
SOLID
  5
144
330
140
100
AcDbEntity
  8
VERMASSUNG
100
AcDbTrace
 10
197.8644444873
 20
104.1130440781
 30
0.0
 11
198.3144444873
 21
107.1130440781
 31
0.0
 12
197.4144444873
 22
107.1130440781
 32
0.0
 13
197.4144444873
 23
107.1130440781
 33
0.0
  0
LINE
  5
145
330
140
100
AcDbEntity
  8
VERMASSUNG
100
AcDbLine
 10
197.8644444873
 20
123.1130440781
 30
0.0
 11
197.8644444873
 21
136.5542850228
 31
0.0
  0
LINE
  5
146
330
140
100
AcDbEntity
  8
VERMASSUNG
100
AcDbLine
 10
197.8644444873
 20
123.1130440781
 30
0.0
 11
197.8644444873
 21
104.1130440781
 31
0.0
  0
MTEXT
  5
147
330
140
100
AcDbEntity
  8
VERMASSUNG
100
AcDbMText
 10
195.2863091824
 20
130.5442848945
 30
0.0
 40
2.0
 41
0.0
 71
     1
 72
     1
  1
%%c
  7
SLDTEXTSTYLE0
 11
-7.044195017643634E-15
 21
1.0
 31
0.0
 73
     1
 44
1.0
  0
MTEXT
  5
148
330
140
100
AcDbEntity
  8
VERMASSUNG
100
AcDbMText
 10
195.0863092311
 20
134.1542849088
 30
0.0
 40
2.0
 41
0.0
 71
     1
 72
     1
  1
19
  7
SLDTEXTSTYLE0
 11
-7.044195017643634E-15
 21
1.0
 31
0.0
 73
     1
 44
1.0
  0
ENDBLK
  5
142
330
140
100
AcDbEntity
  8
0
100
AcDbBlockEnd
  0
BLOCK
  5
14B
330
14A
100
AcDbEntity
  8
0
100
AcDbBlockBegin
  2
_D_2
 70
     0
 10
0.0
 20
0.0
 30
0.0
  3
_D_2
  1

  0
SOLID
  5
14D
330
14A
100
AcDbEntity
  8
VERMASSUNG
100
AcDbTrace
 10
144.8398052157
 20
151.72112332
 30
0.0
 11
147.8398052157
 21
151.27112332
 31
0.0
 12
147.8398052157
 22
152.17112332
 32
0.0
 13
147.8398052157
 23
152.17112332
 33
0.0
  0
SOLID
  5
14E
330
14A
100
AcDbEntity
  8
VERMASSUNG
100
AcDbTrace
 10
226.8398052157
 20
151.72112332
 30
0.0
 11
223.8398052157
 21
152.17112332
 31
0.0
 12
223.8398052157
 22
151.27112332
 32
0.0
 13
223.8398052157
 23
151.27112332
 33
0.0
  0
LINE
  5
14F
330
14A
100
AcDbEntity
  8
VERMASSUNG
100
AcDbLine
 10
144.8398052157
 20
144.0880440781
 30
0.0
 11
144.8398052157
 21
152.72112332
 31
0.0
  0
LINE
  5
150
330
14A
100
AcDbEntity
  8
VERMASSUNG
100
AcDbLine
 10
226.8398052157
 20
119.9630440781
 30
0.0
 11
226.8398052157
 21
152.72112332
 31
0.0
  0
LINE
  5
151
330
14A
100
AcDbEntity
  8
VERMASSUNG
100
AcDbLine
 10
144.8398052157
 20
151.72112332
 30
0.0
 11
226.8398052157
 21
151.72112332
 31
0.0
  0
MTEXT
  5
152
330
14A
100
AcDbEntity
  8
VERMASSUNG
100
AcDbMText
 10
184.4398052657
 20
154.2992589159
 30
0.0
 40
2.0
 41
0.0
 71
     1
 72
     1
  1
82
  7
SLDTEXTSTYLE0
 73
     1
 44
1.0
  0
ENDBLK
  5
14C
330
14A
100
AcDbEntity
  8
0
100
AcDbBlockEnd
  0
BLOCK
  5
155
330
154
100
AcDbEntity
  8
0
100
AcDbBlockBegin
  2
_D_3
 70
     0
 10
0.0
 20
0.0
 30
0.0
  3
_D_3
  1

  0
SOLID
  5
157
330
154
100
AcDbEntity
  8
VERMASSUNG
100
AcDbTrace
 10
126.8398052157
 20
161.0880440781
 30
0.0
 11
129.8398052157
 21
160.6380440781
 31
0.0
 12
129.8398052157
 22
161.5380440781
 32
0.0
 13
129.8398052157
 23
161.5380440781
 33
0.0
  0
SOLID
  5
158
330
154
100
AcDbEntity
  8
VERMASSUNG
100
AcDbTrace
 10
226.8398052157
 20
161.0880440781
 30
0.0
 11
223.8398052157
 21
161.5380440781
 31
0.0
 12
223.8398052157
 22
160.6380440781
 32
0.0
 13
223.8398052157
 23
160.6380440781
 33
0.0
  0
LINE
  5
159
330
154
100
AcDbEntity
  8
VERMASSUNG
100
AcDbLine
 10
126.8398052157
 20
144.8880440781
 30
0.0
 11
126.8398052157
 21
162.0880440781
 31
0.0
  0
LINE
  5
15A
330
154
100
AcDbEntity
  8
VERMASSUNG
100
AcDbLine
 10
226.8398052157
 20
122.0948531578
 30
0.0
 11
226.8398052157
 21
162.0880440781
 31
0.0
  0
LINE
  5
15B
330
154
100
AcDbEntity
  8
VERMASSUNG
100
AcDbLine
 10
126.8398052157
 20
161.0880440781
 30
0.0
 11
226.8398052157
 21
161.0880440781
 31
0.0
  0
MTEXT
  5
15C
330
154
100
AcDbEntity
  8
VERMASSUNG
100
AcDbMText
 10
174.9398051837
 20
163.666179674
 30
0.0
 40
2.0
 41
0.0
 71
     1
 72
     1
  1
100
  7
SLDTEXTSTYLE0
 73
     1
 44
1.0
  0
ENDBLK
  5
156
330
154
100
AcDbEntity
  8
0
100
AcDbBlockEnd
  0
BLOCK
  5
15F
330
15E
100
AcDbEntity
  8
0
100
AcDbBlockBegin
  2
_D_4
 70
     0
 10
0.0
 20
0.0
 30
0.0
  3
_D_4
  1

  0
SOLID
  5
161
330
15E
100
AcDbEntity
  8
VERMASSUNG
100
AcDbTrace
 10
86.8898052157
 20
170.2656032459
 30
0.0
 11
89.8898052157
 21
169.8156032459
 31
0.0
 12
89.8898052157
 22
170.7156032459
 32
0.0
 13
89.8898052157
 23
170.7156032459
 33
0.0
  0
SOLID
  5
162
330
15E
100
AcDbEntity
  8
VERMASSUNG
100
AcDbTrace
 10
226.8398052157
 20
170.2656032459
 30
0.0
 11
223.8398052157
 21
170.7156032459
 31
0.0
 12
223.8398052157
 22
169.8156032459
 32
0.0
 13
223.8398052157
 23
169.8156032459
 33
0.0
  0
LINE
  5
163
330
15E
100
AcDbEntity
  8
VERMASSUNG
100
AcDbLine
 10
86.8898052157
 20
135.8161388019
 30
0.0
 11
86.8898052157
 21
171.2656032459
 31
0.0
  0
LINE
  5
164
330
15E
100
AcDbEntity
  8
VERMASSUNG
100
AcDbLine
 10
226.8398052157
 20
122.0948531578
 30
0.0
 11
226.8398052157
 21
171.2656032459
 31
0.0
  0
LINE
  5
165
330
15E
100
AcDbEntity
  8
VERMASSUNG
100
AcDbLine
 10
86.8898052157
 20
170.2656032459
 30
0.0
 11
226.8398052157
 21
170.2656032459
 31
0.0
  0
MTEXT
  5
166
330
15E
100
AcDbEntity
  8
VERMASSUNG
100
AcDbMText
 10
153.2648052776
 20
172.8437388419
 30
0.0
 40
2.0
 41
0.0
 71
     1
 72
     1
  1
139.95
  7
SLDTEXTSTYLE0
 73
     1
 44
1.0
  0
ENDBLK
  5
160
330
15E
100
AcDbEntity
  8
0
100
AcDbBlockEnd
  0
BLOCK
  5
16A
330
169
100
AcDbEntity
  8
0
100
AcDbBlockBegin
  2
_D_5
 70
     0
 10
0.0
 20
0.0
 30
0.0
  3
_D_5
  1

  0
SOLID
  5
16C
330
169
100
AcDbEntity
  8
VERMASSUNG
100
AcDbTrace
 10
76.8897802157
 20
82.1380440781
 30
0.0
 11
77.3397802157
 21
85.1380440781
 31
0.0
 12
76.4397802157
 22
85.1380440781
 32
0.0
 13
76.4397802157
 23
85.1380440781
 33
0.0
  0
SOLID
  5
16D
330
169
100
AcDbEntity
  8
VERMASSUNG
100
AcDbTrace
 10
76.8897802157
 20
145.0880440781
 30
0.0
 11
76.4397802157
 21
142.0880440781
 31
0.0
 12
77.3397802157
 22
142.0880440781
 32
0.0
 13
77.3397802157
 23
142.0880440781
 33
0.0
  0
LINE
  5
16E
330
169
100
AcDbEntity
  8
VERMASSUNG
100
AcDbLine
 10
127.0398052157
 20
82.1380440781
 30
0.0
 11
75.8897802157
 21
82.1380440781
 31
0.0
  0
LINE
  5
16F
330
169
100
AcDbEntity
  8
VERMASSUNG
100
AcDbLine
 10
127.0398052157
 20
145.0880440781
 30
0.0
 11
75.8897802157
 21
145.0880440781
 31
0.0
  0
LINE
  5
170
330
169
100
AcDbEntity
  8
VERMASSUNG
100
AcDbLine
 10
76.8897802157
 20
82.1380440781
 30
0.0
 11
76.8897802157
 21
145.0880440781
 31
0.0
  0
MTEXT
  5
171
330
169
100
AcDbEntity
  8
VERMASSUNG
100
AcDbMText
 10
74.1116449595
 20
105.5080454597
 30
0.0
 40
2.0
 41
0.0
 71
     1
 72
     1
  1
KM
  7
SLDTEXTSTYLE0
 11
6.123233995736766E-17
 21
1.0
 31
0.0
 73
     1
 44
1.0
  0
MTEXT
  5
172
330
169
100
AcDbEntity
  8
VERMASSUNG
100
AcDbMText
 10
74.3116449108
 20
108.908045272
 30
0.0
 40
2.0
 41
0.0
 71
     1
 72
     1
  1
%%c
  7
SLDTEXTSTYLE0
 11
6.123233995736766E-17
 21
1.0
 31
0.0
 73
     1
 44
1.0
  0
MTEXT
  5
173
330
169
100
AcDbEntity
  8
VERMASSUNG
100
AcDbMText
 10
74.1116449595
 20
112.5180452863
 30
0.0
 40
2.0
 41
0.0
 71
     1
 72
     1
  1
63
  7
SLDTEXTSTYLE0
 11
6.123233995736766E-17
 21
1.0
 31
0.0
 73
     1
 44
1.0
  0
MTEXT
  5
174
330
169
100
AcDbEntity
  8
VERMASSUNG
100
AcDbMText
 10
74.1116449595
 20
116.5055451864
 30
0.0
 40
2.0
 41
0.0
 71
     1
 72
     1
  1
XMZ
  7
SLDTEXTSTYLE0
 11
6.123233995736766E-17
 21
1.0
 31
0.0
 73
     1
 44
1.0
  0
ENDBLK
  5
16B
330
169
100
AcDbEntity
  8
0
100
AcDbBlockEnd
  0
ENDSEC
  0
SECTION
  2
ENTITIES
  0
MTEXT
  5
78
330
1F
100
AcDbEntity
  8
KOPF_DÜNN
100
AcDbMText
 10
13.8892156294
 20
23.8442973028
 30
0.0
 40
3.0
 41
0.0
 71
     1
 72
     1
  1
KY6.E17.K01.100
  7
SLDTEXTSTYLE0
 73
     1
 44
1.0
  0
MTEXT
  5
79
330
1F
100
AcDbEntity
  8
VERMASSUNG
100
AcDbMText
 10
13.9329988022
 20
28.8834360957
 30
0.0
 40
3.0
 41
0.0
 71
     1
 72
     1
  1
Spannzangenfutter ER-MINI_Collet chuck ER-MINI
  7
SLDTEXTSTYLE0
 73
     1
 44
1.0
  0
MTEXT
  5
7A
330
1F
100
AcDbEntity
  8
VERMASSUNG
100
AcDbMText
 10
98.8601118557
 20
13.8365368761
 30
0.0
 40
2.0
 41
0.0
 71
     1
 72
     1
  1
Datum: 16.02.2018
  7
SLDTEXTSTYLE0
 73
     1
 44
1.0
  0
MTEXT
  5
7B
330
1F
100
AcDbEntity
  8
VERMASSUNG
100
AcDbMText
 10
13.933048693
 20
18.0482802738
 30
0.0
 40
2.0
 41
0.0
 71
     1
 72
     1
  1
KM63 XMZ / Ø22 MINI
  7
SLDTEXTSTYLE0
 73
     1
 44
1.0
  0
MTEXT
  5
7C
330
1F
100
AcDbEntity
  8
VERMASSUNG
100
AcDbMText
 10
13.9808475933
 20
13.9090974274
 30
0.0
 40
2.0
 41
0.0
 71
     1
 72
     1
  1
Gewicht: 793g
  7
SLDTEXTSTYLE0
 73
     1
 44
1.0
  0
LINE
  5
7D
330
1F
100
AcDbEntity
  8
0
  6
Continuous
 62
     7
370
    25
100
AcDbLine
 10
209.2398068012
 20
102.6130441377
 30
0.0
 11
226.3398056926
 21
102.6130441377
 31
0.0
  0
LINE
  5
7E
330
1F
100
AcDbEntity
  8
0
  6
Continuous
 62
     7
370
    25
100
AcDbLine
 10
226.3398056926
 20
124.6130440185
 30
0.0
 11
209.2398068012
 21
124.6130440185
 31
0.0
  0
LINE
  5
7F
330
1F
100
AcDbEntity
  8
0
  6
Continuous
 62
     7
370
    25
100
AcDbLine
 10
209.2398068012
 20
124.6130440185
 30
0.0
 11
208.4398081602
 21
123.8130444461
 31
0.0
  0
LINE
  5
80
330
1F
100
AcDbEntity
  8
0
  6
Continuous
 62
     7
370
    25
100
AcDbLine
 10
208.4398081602
 20
103.41304371
 30
0.0
 11
209.2398068012
 21
102.6130441377
 31
0.0
  0
LINE
  5
81
330
1F
100
AcDbEntity
  8
0
  6
Continuous
 62
     7
370
    25
100
AcDbLine
 10
226.3398056926
 20
102.6130441377
 30
0.0
 11
226.8398067059
 21
103.1130442196
 31
0.0
  0
LINE
  5
82
330
1F
100
AcDbEntity
  8
0
  6
Continuous
 62
     7
370
    25
100
AcDbLine
 10
226.8398067059
 20
124.1130439365
 30
0.0
 11
226.3398056926
 21
124.6130440185
 31
0.0
  0
ARC
  5
83
330
1F
100
AcDbEntity
  8
0
  6
Continuous
 62
     7
370
    25
100
AcDbCircle
 10
143.8398052157
 20
83.1380440781
 30
0.0
 40
1.0
100
AcDbArc
 50
270.0
 51
0.0
  0
ARC
  5
84
330
1F
100
AcDbEntity
  8
0
  6
Continuous
 62
     7
370
    25
100
AcDbCircle
 10
143.8398052157
 20
144.0880440781
 30
0.0
 40
1.0
100
AcDbArc
 50
360.0
 51
90.0
  0
LINE
  5
85
330
1F
100
AcDbEntity
  8
0
  6
Continuous
 62
     7
370
    25
100
AcDbLine
 10
140.0740033091
 20
82.1380439946
 30
0.0
 11
143.8398061396
 21
82.1380439946
 31
0.0
  0
LINE
  5
86
330
1F
100
AcDbEntity
  8
0
  6
Continuous
 62
     7
370
    25
100
AcDbLine
 10
143.8398061396
 20
145.0880441615
 30
0.0
 11
140.0740033091
 21
145.0880441615
 31
0.0
  0
LINE
  5
87
330
1F
100
AcDbEntity
  8
0
  6
Continuous
 62
     7
370
    25
100
AcDbLine
 10
127.0398052107
 20
82.1380439946
 30
0.0
 11
133.4056074807
 21
82.1380439946
 31
0.0
  0
LINE
  5
88
330
1F
100
AcDbEntity
  8
0
  6
Continuous
 62
     7
370
    25
100
AcDbLine
 10
133.4056074807
 20
145.0880441615
 30
0.0
 11
127.0398052107
 21
145.0880441615
 31
0.0
  0
LINE
  5
89
330
1F
100
AcDbEntity
  8
0
  6
Continuous
 62
     7
370
    25
100
AcDbLine
 10
134.8648050876
 20
142.560639585
 30
0.0
 11
133.4056074807
 21
145.0880441615
 31
0.0
  0
ARC
  5
8A
330
1F
100
AcDbEntity
  8
0
  6
Continuous
 62
     7
370
    25
100
AcDbCircle
 10
127.0398052157
 20
82.3380440781
 30
0.0
 40
0.2000000000000028
100
AcDbArc
 50
180.0
 51
270.0
  0
ARC
  5
8B
330
1F
100
AcDbEntity
  8
0
  6
Continuous
 62
     7
370
    25
100
AcDbCircle
 10
127.0398052157
 20
144.8880440781
 30
0.0
 40
0.2000000000000028
100
AcDbArc
 50
90.0
 51
180.0
  0
ARC
  5
8C
330
1F
100
AcDbEntity
  8
0
  6
Continuous
 62
     7
370
    25
100
AcDbCircle
 10
126.4108703412
 20
88.0630440781
 30
0.0
 40
0.8000000000000081
100
AcDbArc
 50
57.576802718
 51
107.5
  0
ARC
  5
8D
330
1F
100
AcDbEntity
  8
0
  6
Continuous
 62
     7
370
    25
100
AcDbCircle
 10
126.4108703412
 20
139.1630440781
 30
0.0
 40
0.8000000000000139
100
AcDbArc
 50
252.5
 51
302.423197282
  0
LINE
  5
8E
330
1F
100
AcDbEntity
  8
0
  6
Continuous
 62
     7
370
    25
100
AcDbLine
 10
125.6796231569
 20
88.6713053832
 30
0.0
 11
126.1703057058
 21
88.8260185519
 31
0.0
  0
LINE
  5
8F
330
1F
100
AcDbEntity
  8
0
  6
Continuous
 62
     7
370
    25
100
AcDbLine
 10
126.1703057058
 20
138.4000696043
 30
0.0
 11
125.6796231569
 21
138.554782773
 31
0.0
  0
LINE
  5
90
330
1F
100
AcDbEntity
  8
0
  6
Continuous
 62
     7
370
    25
100
AcDbLine
 10
96.4446419926
 20
137.0866607675
 30
0.0
 11
88.3898062707
 21
136.6821650216
 31
0.0
  0
LINE
  5
91
330
1F
100
AcDbEntity
  8
0
  6
Continuous
 62
     7
370
    25
100
AcDbLine
 10
125.6796231569
 20
138.554782773
 30
0.0
 11
112.3533601017
 21
137.8855641732
 31
0.0
  0
LINE
  5
92
330
1F
100
AcDbEntity
  8
0
  6
Continuous
 62
     7
370
    25
100
AcDbLine
 10
112.35431657
 20
89.3404755542
 30
0.0
 11
125.6796231569
 21
88.6713053832
 31
0.0
  0
LINE
  5
93
330
1F
100
AcDbEntity
  8
0
  6
Continuous
 62
     7
370
    25
100
AcDbLine
 10
88.3898062707
 20
90.5439231345
 30
0.0
 11
96.4446531685
 21
90.139425526
 31
0.0
  0
LINE
  5
94
330
1F
100
AcDbEntity
  8
0
  6
Continuous
 62
     7
370
    25
100
AcDbLine
 10
88.3898062707
 20
136.6821650216
 30
0.0
 11
86.8898069562
 21
135.8161393354
 31
0.0
  0
LINE
  5
95
330
1F
100
AcDbEntity
  8
0
  6
Continuous
 62
     7
370
    25
100
AcDbLine
 10
86.8898069562
 20
91.4099488208
 30
0.0
 11
88.3898062707
 21
90.5439231345
 31
0.0
  0
ARC
  5
96
330
1F
100
AcDbEntity
  8
0
  6
Continuous
 62
     7
370
    25
100
AcDbCircle
 10
147.8398052157
 20
97.5563219612
 30
0.0
 40
2.999999999999973
100
AcDbArc
 50
98.8760294736
 51
180.0
  0
ARC
  5
97
330
1F
100
AcDbEntity
  8
0
  6
Continuous
 62
     7
370
    25
100
AcDbCircle
 10
147.8398052157
 20
129.669766195
 30
0.0
 40
2.999999999999972
100
AcDbArc
 50
180.0
 51
261.1239705264
  0
ARC
  5
98
330
1F
100
AcDbEntity
  8
0
  6
Continuous
 62
     7
370
    25
100
AcDbCircle
 10
193.6660276787
 20
-195.8869559219
 30
0.0
 40
300.0
100
AcDbArc
 50
90.0
 51
98.8760294736
  0
ARC
  5
99
330
1F
100
AcDbEntity
  8
0
  6
Continuous
 62
     7
370
    25
100
AcDbCircle
 10
193.6660276787
 20
423.1130440781
 30
0.0
 40
299.9999999999999
100
AcDbArc
 50
261.1239705264
 51
270.0
  0
LINE
  5
9A
330
1F
100
AcDbEntity
  8
0
  6
Continuous
 62
     7
370
    25
100
AcDbLine
 10
140.0740033091
 20
145.0880441615
 30
0.0
 11
138.6148052366
 21
142.560639585
 31
0.0
  0
ARC
  5
9B
330
1F
100
AcDbEntity
  8
0
  6
Continuous
 62
     7
370
    25
100
AcDbCircle
 10
135.8648052157
 20
142.4630440781
 30
0.0
 40
1.000000000000028
100
AcDbArc
 50
180.0
 51
270.0
  0
LINE
  5
9C
330
1F
100
AcDbEntity
  8
0
  6
Continuous
 62
     7
370
    25
100
AcDbLine
 10
133.4056074807
 20
82.1380439946
 30
0.0
 11
134.8648050876
 21
84.6654485712
 31
0.0
  0
ARC
  5
9D
330
1F
100
AcDbEntity
  8
0
  6
Continuous
 62
     7
370
    25
100
AcDbCircle
 10
135.8648052157
 20
84.7630440781
 30
0.0
 40
1.0
100
AcDbArc
 50
90.0
 51
180.0
  0
LINE
  5
9E
330
1F
100
AcDbEntity
  8
0
  6
Continuous
 62
     7
370
    25
100
AcDbLine
 10
137.6148050727
 20
141.4630442658
 30
0.0
 11
135.8648052515
 21
141.4630442658
 31
0.0
  0
LINE
  5
9F
330
1F
100
AcDbEntity
  8
0
  6
Continuous
 62
     7
370
    25
100
AcDbLine
 10
138.6148052366
 20
84.6654485712
 30
0.0
 11
140.0740033091
 21
82.1380439946
 31
0.0
  0
ARC
  5
A0
330
1F
100
AcDbEntity
  8
0
  6
Continuous
 62
     7
370
    25
100
AcDbCircle
 10
137.6148052157
 20
142.4630440781
 30
0.0
 40
1.000000000000028
100
AcDbArc
 50
270.0
 51
0.0
  0
LINE
  5
A1
330
1F
100
AcDbEntity
  8
0
  6
Continuous
 62
     7
370
    25
100
AcDbLine
 10
135.8648052515
 20
85.7630438903
 30
0.0
 11
137.6148050727
 21
85.7630438903
 31
0.0
  0
ARC
  5
A2
330
1F
100
AcDbEntity
  8
0
  6
Continuous
 62
     7
370
    25
100
AcDbCircle
 10
137.6148052157
 20
84.7630440781
 30
0.0
 40
1.0
100
AcDbArc
 50
0.0
 51
90.0
  0
LINE
  5
A3
330
1F
100
AcDbEntity
  8
0
  6
Continuous
 62
     7
370
    25
100
AcDbLine
 10
193.6660295428
 20
104.1130443836
 30
0.0
 11
208.4398081602
 21
104.1130443836
 31
0.0
  0
LINE
  5
A4
330
1F
100
AcDbEntity
  8
0
  6
Continuous
 62
     7
370
    25
100
AcDbLine
 10
208.4398081602
 20
123.1130437726
 30
0.0
 11
193.6660295428
 21
123.1130437726
 31
0.0
  0
LINE
  5
A5
330
1F
100
AcDbEntity
  8
0
  6
Continuous
 62
     7
370
    25
100
AcDbLine
 10
226.3398056926
 20
124.2547875071
 30
0.0
 11
226.3398056926
 21
124.6130440185
 31
0.0
  0
LINE
  5
A6
330
1F
100
AcDbEntity
  8
0
  6
Continuous
 62
     7
370
    25
100
AcDbLine
 10
226.3398056926
 20
124.2547875071
 30
0.0
 11
220.353174776
 21
124.2547875071
 31
0.0
  0
ELLIPSE
  5
A7
330
1F
100
AcDbEntity
  8
0
  6
Continuous
 62
     7
370
    25
100
AcDbEllipse
 10
250.6398052157
 20
113.6130440781
 30
0.0
 11
30.76849813806254
 21
-10.15920873831725
 31
0.0
210
0.0
220
0.0
230
1.0
 40
0.1370842335
 41
3.003989410696787
 42
3.369659684682701
  0
LINE
  5
A8
330
1F
100
AcDbEntity
  8
0
  6
Continuous
 62
     7
370
    25
100
AcDbLine
 10
226.3398056926
 20
122.5555419723
 30
0.0
 11
220.353174776
 21
122.5555419723
 31
0.0
  0
LINE
  5
A9
330
1F
100
AcDbEntity
  8
0
  6
Continuous
 62
     7
370
    25
100
AcDbLine
 10
226.3398056926
 20
116.5224902132
 30
0.0
 11
226.3398056926
 21
122.5555419723
 31
0.0
  0
LINE
  5
AA
330
1F
100
AcDbEntity
  8
0
  6
Continuous
 62
     7
370
    25
100
AcDbLine
 10
226.3398056926
 20
116.5224902132
 30
0.0
 11
220.353174776
 21
116.5224902132
 31
0.0
  0
ELLIPSE
  5
AB
330
1F
100
AcDbEntity
  8
0
  6
Continuous
 62
     7
370
    25
100
AcDbEllipse
 10
250.6398052157
 20
113.6130440781
 30
0.0
 11
30.79766392078582
 21
-1.067097697014958
 31
0.0
210
0.0
220
0.0
230
1.0
 40
0.3554853609
 41
2.971073984153761
 42
3.336744258139616
  0
LINE
  5
AC
330
1F
100
AcDbEntity
  8
0
  6
Continuous
 62
     7
370
    25
100
AcDbLine
 10
226.3398056926
 20
112.5368790735
 30
0.0
 11
220.353174776
 21
112.5368790735
 31
0.0
  0
LINE
  5
AD
330
1F
100
AcDbEntity
  8
0
  6
Continuous
 62
     7
370
    25
100
AcDbLine
 10
226.3398056926
 20
105.8807467842
 30
0.0
 11
226.3398056926
 21
112.5368790735
 31
0.0
  0
LINE
  5
AE
330
1F
100
AcDbEntity
  8
0
  6
Continuous
 62
     7
370
    25
100
AcDbLine
 10
226.3398056926
 20
105.8807467842
 30
0.0
 11
220.353174776
 21
105.8807467842
 31
0.0
  0
ELLIPSE
  5
AF
330
1F
100
AcDbEntity
  8
0
  6
Continuous
 62
     7
370
    25
100
AcDbEllipse
 10
250.6398052157
 20
113.6130440781
 30
0.0
 11
30.74990564117994
 21
9.369698322831837
 31
0.0
210
0.0
220
0.0
230
1.0
 40
0.1874055718
 41
2.901715754748516
 42
3.267386028734407
  0
LINE
  5
B0
330
1F
100
AcDbEntity
  8
0
  6
Continuous
 62
     7
370
    25
100
AcDbLine
 10
226.3398056926
 20
103.5943815285
 30
0.0
 11
220.353174776
 21
103.5943815285
 31
0.0
  0
LINE
  5
B1
330
1F
100
AcDbEntity
  8
0
  6
Continuous
 62
     7
370
    25
100
AcDbLine
 10
226.3398056926
 20
102.6130441377
 30
0.0
 11
226.3398056926
 21
103.5943815285
 31
0.0
  0
LINE
  5
B2
330
1F
100
AcDbEntity
  8
0
  6
Continuous
 62
     7
370
    25
100
AcDbLine
 10
209.2398068012
 20
119.9005494626
 30
0.0
 11
209.2398068012
 21
124.6130440185
 31
0.0
  0
LINE
  5
B3
330
1F
100
AcDbEntity
  8
0
  6
Continuous
 62
     7
370
    25
100
AcDbLine
 10
209.2398068012
 20
102.6130441377
 30
0.0
 11
209.2398068012
 21
119.9005494626
 31
0.0
  0
LINE
  5
B4
330
1F
100
AcDbEntity
  8
0
  6
Continuous
 62
     7
370
    25
100
AcDbLine
 10
208.4398081602
 20
119.4432761321
 30
0.0
 11
208.4398081602
 21
123.8130444461
 31
0.0
  0
LINE
  5
B5
330
1F
100
AcDbEntity
  8
0
  6
Continuous
 62
     7
370
    25
100
AcDbLine
 10
208.4398081602
 20
103.41304371
 30
0.0
 11
208.4398081602
 21
119.4432761321
 31
0.0
  0
LINE
  5
B6
330
1F
100
AcDbEntity
  8
0
  6
Continuous
 62
     7
370
    25
100
AcDbLine
 10
226.8398067059
 20
112.4937540652
 30
0.0
 11
226.3398056926
 21
112.5368790735
 31
0.0
  0
SPLINE
  5
B7
330
1F
100
AcDbEntity
  8
0
  6
Continuous
 62
     7
370
    25
100
AcDbSpline
210
0.0
220
0.0
230
1.0
 70
     8
 71
     3
 72
     9
 73
     5
 74
     0
 42
0.000000001
 43
0.00000001
 40
0.0
 40
0.0
 40
0.0
 40
0.0
 40
0.6252457831536608
 40
1.0
 40
1.0
 40
1.0
 40
1.0
 10
226.8398067058504
 20
106.2983103828463
 30
0.0
 10
226.7356290168935
 20
106.211259491316
 30
0.0
 10
226.5690102379047
 20
106.0720328161817
 30
0.0
 10
226.402286220968
 20
105.932890830222
 30
0.0
 10
226.3398056925714
 20
105.8807467842433
 30
0.0
  0
LINE
  5
B8
330
1F
100
AcDbEntity
  8
0
  6
Continuous
 62
     7
370
    25
100
AcDbLine
 10
226.8398067059
 20
106.2983103828
 30
0.0
 11
226.8398067059
 21
112.4937540652
 31
0.0
  0
LINE
  5
B9
330
1F
100
AcDbEntity
  8
0
  6
Continuous
 62
     7
370
    25
100
AcDbLine
 10
220.353174776
 20
116.5224902132
 30
0.0
 11
226.8398067059
 21
116.3261690443
 31
0.0
  0
LINE
  5
BA
330
1F
100
AcDbEntity
  8
0
  6
Continuous
 62
     7
370
    25
100
AcDbLine
 10
226.8398067059
 20
116.3261690443
 30
0.0
 11
226.8398067059
 21
112.4937540652
 31
0.0
  0
LINE
  5
BB
330
1F
100
AcDbEntity
  8
0
  6
Continuous
 62
     7
370
    25
100
AcDbLine
 10
226.8398067059
 20
122.0948530162
 30
0.0
 11
226.3398056926
 21
122.5555419723
 31
0.0
  0
LINE
  5
BC
330
1F
100
AcDbEntity
  8
0
  6
Continuous
 62
     7
370
    25
100
AcDbLine
 10
226.8398067059
 20
116.4793653214
 30
0.0
 11
226.3398056926
 21
116.5224902132
 31
0.0
  0
LINE
  5
BD
330
1F
100
AcDbEntity
  8
0
  6
Continuous
 62
     7
370
    25
100
AcDbLine
 10
226.8398067059
 20
116.4793653214
 30
0.0
 11
226.8398067059
 21
122.0948530162
 31
0.0
  0
LINE
  5
BE
330
1F
100
AcDbEntity
  8
0
  6
Continuous
 62
     7
370
    25
100
AcDbLine
 10
226.8398067059
 20
116.3261690443
 30
0.0
 11
226.8398067059
 21
116.4793653214
 31
0.0
  0
LINE
  5
BF
330
1F
100
AcDbEntity
  8
0
  6
Continuous
 62
     7
370
    25
100
AcDbLine
 10
220.353174776
 20
103.5943815285
 30
0.0
 11
226.8398067059
 21
105.4952844778
 31
0.0
  0
LINE
  5
C0
330
1F
100
AcDbEntity
  8
0
  6
Continuous
 62
     7
370
    25
100
AcDbLine
 10
226.8398067059
 20
106.2983103828
 30
0.0
 11
226.8398067059
 21
105.4952844778
 31
0.0
  0
LINE
  5
C1
330
1F
100
AcDbEntity
  8
0
  6
Continuous
 62
     7
370
    25
100
AcDbLine
 10
220.353174776
 20
124.2547875071
 30
0.0
 11
225.6088739337
 21
122.5555419723
 31
0.0
  0
LINE
  5
C2
330
1F
100
AcDbEntity
  8
0
  6
Continuous
 62
     7
370
    25
100
AcDbLine
 10
226.7349472345
 20
122.1914637634
 30
0.0
 11
226.8398067059
 21
122.1575626904
 31
0.0
  0
LINE
  5
C3
330
1F
100
AcDbEntity
  8
0
  6
Continuous
 62
     7
370
    25
100
AcDbLine
 10
226.8398067059
 20
122.1575626904
 30
0.0
 11
226.8398067059
 21
122.0948530162
 31
0.0
  0
SPLINE
  5
C4
330
1F
100
AcDbEntity
  8
0
  6
Continuous
 62
     7
370
    25
100
AcDbSpline
210
0.0
220
0.0
230
1.0
 70
     8
 71
     3
 72
     9
 73
     5
 74
     0
 42
0.000000001
 43
0.00000001
 40
0.0
 40
0.0
 40
0.0
 40
0.0
 40
0.6252460219573287
 40
1.0
 40
1.0
 40
1.0
 40
1.0
 10
226.8398067058504
 20
104.0119446614715
 30
0.0
 10
226.7356290501095
 20
103.9248937166972
 30
0.0
 10
226.5690103878831
 20
103.7856670095814
 30
0.0
 10
226.4022862328907
 20
103.6465254001685
 30
0.0
 10
226.3398056925714
 20
103.5943815285298
 30
0.0
  0
LINE
  5
C5
330
1F
100
AcDbEntity
  8
0
  6
Continuous
 62
     7
370
    25
100
AcDbLine
 10
226.8398067059
 20
105.4952844778
 30
0.0
 11
226.8398067059
 21
104.0119446615
 31
0.0
  0
LINE
  5
C6
330
1F
100
AcDbEntity
  8
0
  6
Continuous
 62
     7
370
    25
100
AcDbLine
 10
226.8398067059
 20
103.1130442196
 30
0.0
 11
226.8398067059
 21
104.0119446615
 31
0.0
  0
LINE
  5
C7
330
1F
100
AcDbEntity
  8
0
  6
Continuous
 62
     7
370
    25
100
AcDbLine
 10
226.8398067059
 20
123.794098551
 30
0.0
 11
226.3398056926
 21
124.2547875071
 31
0.0
  0
LINE
  5
C8
330
1F
100
AcDbEntity
  8
0
  6
Continuous
 62
     7
370
    25
100
AcDbLine
 10
226.8398067059
 20
122.1575626904
 30
0.0
 11
226.8398067059
 21
123.794098551
 31
0.0
  0
LINE
  5
C9
330
1F
100
AcDbEntity
  8
0
  6
Continuous
 62
     7
370
    25
100
AcDbLine
 10
226.8398067059
 20
123.794098551
 30
0.0
 11
226.8398067059
 21
124.1130439365
 31
0.0
  0
LINE
  5
CA
330
1F
100
AcDbEntity
  8
0
  6
Continuous
 62
     7
370
    25
100
AcDbLine
 10
144.8398044409
 20
113.6130440781
 30
0.0
 11
144.8398044409
 21
144.0880439976
 31
0.0
  0
LINE
  5
CB
330
1F
100
AcDbEntity
  8
0
  6
Continuous
 62
     7
370
    25
100
AcDbLine
 10
144.8398044409
 20
83.1380441586
 30
0.0
 11
144.8398044409
 21
113.6130440781
 31
0.0
  0
SPLINE
  5
CC
330
1F
100
AcDbEntity
  8
0
  6
Continuous
 62
     7
370
    25
100
AcDbSpline
210
0.0
220
0.0
230
1.0
 70
     8
 71
     3
 72
    14
 73
    10
 74
     0
 42
0.000000001
 43
0.00000001
 40
0.0
 40
0.0
 40
0.0
 40
0.0
 40
0.25
 40
0.25
 40
0.5
 40
0.5
 40
0.75
 40
0.75
 40
1.0
 40
1.0
 40
1.0
 40
1.0
 10
143.8398052157343
 20
87.25042748721627
 30
0.0
 10
143.934872572442
 20
87.09927035636011
 30
0.0
 10
143.9951776822734
 20
86.95781803692496
 30
0.0
 10
144.07544263046
 20
86.67240982156783
 30
0.0
 10
144.0943593353076
 20
86.52835500763032
 30
0.0
 10
144.0943663169565
 20
86.2385707272062
 30
0.0
 10
144.0757205911565
 20
86.0932780151313
 30
0.0
 10
143.9957619249638
 20
85.80733284009648
 30
0.0
 10
143.9346675705067
 20
85.66476817361959
 30
0.0
 10
143.8398052157345
 20
85.53992415302866
 30
0.0
  0
SPLINE
  5
CD
330
1F
100
AcDbEntity
  8
0
  6
Continuous
 62
     7
370
    25
100
AcDbSpline
210
0.0
220
0.0
230
1.0
 70
     8
 71
     3
 72
    25
 73
    21
 74
     0
 42
0.000000001
 43
0.00000001
 40
0.0
 40
0.0
 40
0.0
 40
0.0
 40
0.1250000000000009
 40
0.1250000000000009
 40
0.2500000000000018
 40
0.2500000000000018
 40
0.3750000000000027
 40
0.3750000000000027
 40
0.5000000000000036
 40
0.5000000000000036
 40
0.5625000000000031
 40
0.5625000000000031
 40
0.6250000000000027
 40
0.6875000000000022
 40
0.6875000000000022
 40
0.7500000000000018
 40
0.7500000000000018
 40
0.8750000000000009
 40
0.8750000000000009
 40
1.0
 40
1.0
 40
1.0
 40
1.0
 10
140.0740030203044
 20
142.2607814451435
 30
0.0
 10
140.3152505258598
 20
142.1884768350743
 30
0.0
 10
140.5311795601042
 20
142.1045835491186
 30
0.0
 10
140.9143374719469
 20
141.9119148261045
 30
0.0
 10
141.081789257432
 20
141.8020279380887
 30
0.0
 10
141.349473913836
 20
141.5655166539163
 30
0.0
 10
141.4531458815568
 20
141.4365535246256
 30
0.0
 10
141.592277252811
 20
141.1626264446784
 30
0.0
 10
141.6270164928016
 20
141.0205132935448
 30
0.0
 10
141.6274469260209
 20
140.7992596675433
 30
0.0
 10
141.6187121424314
 20
140.7236810871885
 30
0.0
 10
141.5839187392567
 20
140.5733813423123
 30
0.0
 10
141.5320258775276
 20
140.4234160393049
 30
0.0
 10
141.446647665234
 20
140.274314807085
 30
0.0
 10
141.3441719121694
 20
140.1258276813242
 30
0.0
 10
141.2841105405183
 20
140.0517391238874
 30
0.0
 10
141.0828007180671
 20
139.8365768224091
 30
0.0
 10
140.9195771979873
 20
139.7005201085389
 30
0.0
 10
140.534198997736
 20
139.4456620753867
 30
0.0
 10
140.3152495119102
 20
139.3293667949283
 30
0.0
 10
140.0740030203044
 20
139.2279302782526
 30
0.0
  0
LINE
  5
CE
330
1F
100
AcDbEntity
  8
0
  6
Continuous
 62
     7
370
    25
100
AcDbLine
 10
140.0740033091
 20
142.2607816556
 30
0.0
 11
140.0740033091
 21
145.0880441615
 31
0.0
  0
LINE
  5
CF
330
1F
100
AcDbEntity
  8
0
  6
Continuous
 62
     7
370
    25
100
AcDbLine
 10
140.0740033091
 20
82.1380439946
 30
0.0
 11
140.0740033091
 21
84.0762976358
 31
0.0
  0
SPLINE
  5
D0
330
1F
100
AcDbEntity
  8
0
  6
Continuous
 62
     7
370
    25
100
AcDbSpline
210
0.0
220
0.0
230
1.0
 70
     8
 71
     3
 72
    18
 73
    14
 74
     0
 42
0.000000001
 43
0.00000001
 40
0.0
 40
0.0
 40
0.0
 40
0.0
 40
0.2499999999999999
 40
0.2499999999999999
 40
0.3749999999999998
 40
0.3749999999999998
 40
0.4999999999999996
 40
0.4999999999999996
 40
0.7499999999999997
 40
0.7499999999999997
 40
0.8749999999999998
 40
0.8749999999999998
 40
1.0
 40
1.0
 40
1.0
 40
1.0
 10
143.8398052157343
 20
85.53992415302875
 30
0.0
 10
143.6932176291876
 20
85.34700691291643
 30
0.0
 10
143.4896523793014
 20
85.167887347461
 30
0.0
 10
143.1206528140508
 20
84.93100226759765
 30
0.0
 10
142.9867300480237
 20
84.85677551865537
 30
0.0
 10
142.6975064280948
 20
84.71694474047348
 30
0.0
 10
142.5412107345022
 20
84.65101852301866
 30
0.0
 10
142.0497383590899
 20
84.46885740045691
 30
0.0
 10
141.6915010562026
 20
84.36718052607736
 30
0.0
 10
141.1104019724567
 20
84.23899450475339
 30
0.0
 10
140.9087597394149
 20
84.2003230462639
 30
0.0
 10
140.4980972067714
 20
84.1320016963476
 30
0.0
 10
140.2882706895599
 20
84.10214581460687
 30
0.0
 10
140.0740030203044
 20
84.07629674511969
 30
0.0
  0
SPLINE
  5
D1
330
1F
100
AcDbEntity
  8
0
  6
Continuous
 62
     7
370
    25
100
AcDbSpline
210
0.0
220
0.0
230
1.0
 70
     8
 71
     3
 72
    18
 73
    14
 74
     0
 42
0.000000001
 43
0.00000001
 40
0.0
 40
0.0
 40
0.0
 40
0.0
 40
0.2500000000000004
 40
0.2500000000000004
 40
0.3750000000000007
 40
0.3750000000000007
 40
0.500000000000001
 40
0.500000000000001
 40
0.6250000000000013
 40
0.6250000000000013
 40
0.7500000000000016
 40
0.7500000000000016
 40
1.0
 40
1.0
 40
1.0
 40
1.0
 10
140.0740030203044
 20
89.42702014779309
 30
0.0
 10
140.502703578126
 20
89.33122594041706
 30
0.0
 10
140.9112716250963
 20
89.20910649427196
 30
0.0
 10
141.4931361244668
 20
88.98813291606719
 30
0.0
 10
141.6830238358731
 20
88.90754562431668
 30
0.0
 10
142.0443508465316
 20
88.73691764130868
 30
0.0
 10
142.2160650779551
 20
88.64690622419226
 30
0.0
 10
142.5416449282689
 20
88.45810985507707
 30
0.0
 10
142.6955128304469
 20
88.35932464048338
 30
0.0
 10
142.984717018864
 20
88.15325016809861
 30
0.0
 10
143.1206816824876
 20
88.04539887809041
 30
0.0
 10
143.4942055602798
 20
87.71277075853284
 30
0.0
 10
143.6928234345956
 20
87.48412857131564
 30
0.0
 10
143.8398052157343
 20
87.25042748721627
 30
0.0
  0
LINE
  5
D2
330
1F
100
AcDbEntity
  8
0
  6
Continuous
 62
     7
370
    25
100
AcDbLine
 10
140.0740033091
 20
89.4270196358
 30
0.0
 11
140.0740033091
 21
139.2279296914
 31
0.0
  0
LINE
  5
D3
330
1F
100
AcDbEntity
  8
0
  6
Continuous
 62
     7
370
    25
100
AcDbLine
 10
133.4056074807
 20
88.5553184697
 30
0.0
 11
133.4056074807
 21
145.0880441615
 31
0.0
  0
SPLINE
  5
D4
330
1F
100
AcDbEntity
  8
0
  6
Continuous
 62
     7
370
    25
100
AcDbSpline
210
0.0
220
0.0
230
1.0
 70
     8
 71
     3
 72
    27
 73
    23
 74
     0
 42
0.000000001
 43
0.00000001
 40
0.0
 40
0.0
 40
0.0
 40
0.0
 40
0.1250000000000005
 40
0.1250000000000005
 40
0.2500000000000009
 40
0.2500000000000009
 40
0.3750000000000014
 40
0.3750000000000014
 40
0.4375000000000017
 40
0.4375000000000017
 40
0.500000000000002
 40
0.5625000000000022
 40
0.5625000000000022
 40
0.6250000000000024
 40
0.6250000000000024
 40
0.750000000000002
 40
0.750000000000002
 40
0.8125000000000016
 40
0.8125000000000016
 40
0.875000000000001
 40
0.875000000000001
 40
1.0
 40
1.0
 40
1.0
 40
1.0
 10
133.4056074111642
 20
84.58904516353688
 30
0.0
 10
133.1356505171969
 20
84.6889242513992
 30
0.0
 10
132.8919934929798
 20
84.80022951155821
 30
0.0
 10
132.4594083607745
 20
85.04971531723429
 30
0.0
 10
132.2708137935783
 20
85.18865783530151
 30
0.0
 10
131.9683740172175
 20
85.4853508704754
 30
0.0
 10
131.8517907699268
 20
85.6443694798397
 30
0.0
 10
131.7325320975019
 20
85.90140000373394
 30
0.0
 10
131.7023154304702
 20
85.99015281213903
 30
0.0
 10
131.6624188337576
 20
86.16942856902962
 30
0.0
 10
131.6424573903095
 20
86.35159717227216
 30
0.0
 10
131.6618926918975
 20
86.53955989336055
 30
0.0
 10
131.7013455695808
 20
86.73042847032508
 30
0.0
 10
131.731374253004
 20
86.82787765077062
 30
0.0
 10
131.8498492411362
 20
87.11821449756785
 30
0.0
 10
131.966190056245
 20
87.31030070524378
 30
0.0
 10
132.1942264677425
 20
87.59510465482518
 30
0.0
 10
132.2797603871731
 20
87.68997564338851
 30
0.0
 10
132.4660739373087
 20
87.8753367112441
 30
0.0
 10
132.566702625881
 20
87.96581496317651
 30
0.0
 10
132.8899641102169
 20
88.23049541868845
 30
0.0
 10
133.1342447959398
 20
88.39827900814285
 30
0.0
 10
133.4056074111642
 20
88.55531875645082
 30
0.0
  0
LINE
  5
D5
330
1F
100
AcDbEntity
  8
0
  6
Continuous
 62
     7
370
    25
100
AcDbLine
 10
133.4056074807
 20
82.1380439946
 30
0.0
 11
133.4056074807
 21
84.5890447298
 31
0.0
  0
LINE
  5
D6
330
1F
100
AcDbEntity
  8
0
  6
Continuous
 62
     7
370
    25
100
AcDbLine
 10
134.8648050876
 20
139.7077470818
 30
0.0
 11
134.8648050876
 21
142.560639585
 31
0.0
  0
SPLINE
  5
D7
330
1F
100
AcDbEntity
  8
0
  6
Continuous
 62
     7
370
    25
100
AcDbSpline
210
0.0
220
0.0
230
1.0
 70
     8
 71
     3
 72
    26
 73
    22
 74
     0
 42
0.000000001
 43
0.00000001
 40
0.0
 40
0.0
 40
0.0
 40
0.0
 40
0.1250000000000009
 40
0.1250000000000009
 40
0.2500000000000019
 40
0.2500000000000019
 40
0.3125000000000011
 40
0.3125000000000011
 40
0.3750000000000004
 40
0.3750000000000004
 40
0.4375000000000002
 40
0.4375000000000002
 40
0.5000000000000001
 40
0.5000000000000001
 40
0.5625
 40
0.5625
 40
0.6249999999999999
 40
0.6249999999999999
 40
0.7500000000000001
 40
0.7500000000000001
 40
1.0
 40
1.0
 40
1.0
 40
1.0
 10
134.8648052157343
 20
137.5126895881186
 30
0.0
 10
134.7729003050515
 20
137.7226131948129
 30
0.0
 10
134.6852035288265
 20
137.9313786116924
 30
0.0
 10
134.5209972580593
 20
138.3457132403856
 30
0.0
 10
134.4437268397925
 20
138.5534576260222
 30
0.0
 10
134.3439607334674
 20
138.850656245839
 30
0.0
 10
134.3133478045651
 20
138.9474055977774
 30
0.0
 10
134.2584789306621
 20
139.1353050978874
 30
0.0
 10
134.2340937097332
 20
139.2271072456174
 30
0.0
 10
134.1944143332347
 20
139.3984496738829
 30
0.0
 10
134.1789482539974
 20
139.4784422084156
 30
0.0
 10
134.157851918915
 20
139.6256366176274
 30
0.0
 10
134.1523388527549
 20
139.6930184852004
 30
0.0
 10
134.1522718951326
 20
139.8081874356005
 30
0.0
 10
134.1575402024821
 20
139.8568532783097
 30
0.0
 10
134.1783827296501
 20
139.9368564717605
 30
0.0
 10
134.1940568428604
 20
139.9679207151285
 30
0.0
 10
134.253375773038
 20
140.0340753802318
 30
0.0
 10
134.310395608552
 20
140.0436772474702
 30
0.0
 10
134.5092304971958
 20
139.9986619773633
 30
0.0
 10
134.6805007024279
 20
139.8747359021136
 30
0.0
 10
134.8648052157343
 20
139.707747958641
 30
0.0
  0
LINE
  5
D8
330
1F
100
AcDbEntity
  8
0
  6
Continuous
 62
     7
370
    25
100
AcDbLine
 10
134.8648050876
 20
90.1594880769
 30
0.0
 11
134.8648050876
 21
137.5126886914
 31
0.0
  0
SPLINE
  5
D9
330
1F
100
AcDbEntity
  8
0
  6
Continuous
 62
     7
370
    25
100
AcDbSpline
210
0.0
220
0.0
230
1.0
 70
     8
 71
     3
 72
     8
 73
     4
 74
     0
 42
0.000000001
 43
0.00000001
 40
0.0
 40
0.0
 40
0.0
 40
0.0
 40
1.0
 40
1.0
 40
1.0
 40
1.0
 10
134.497281549586
 20
89.35651111556912
 30
0.0
 10
134.6150160544156
 20
89.62415479518522
 30
0.0
 10
134.738482167374
 20
89.89312009751772
 30
0.0
 10
134.8648052157343
 20
90.15948722202823
 30
0.0
  0
SPLINE
  5
DA
330
1F
100
AcDbEntity
  8
0
  6
Continuous
 62
     7
370
    25
100
AcDbSpline
210
0.0
220
0.0
230
1.0
 70
     8
 71
     3
 72
     8
 73
     4
 74
     0
 42
0.000000001
 43
0.00000001
 40
0.0
 40
0.0
 40
0.0
 40
0.0
 40
1.0
 40
1.0
 40
1.0
 40
1.0
 10
133.4056074111642
 20
88.55531875645082
 30
0.0
 10
133.7754947918939
 20
88.82971057538283
 30
0.0
 10
134.1408282846553
 20
89.10013688347932
 30
0.0
 10
134.4972815495863
 20
89.35651111556973
 30
0.0
  0
LINE
  5
DB
330
1F
100
AcDbEntity
  8
0
  6
Continuous
 62
     7
370
    25
100
AcDbLine
 10
126.8398052157
 20
113.6130440781
 30
0.0
 11
126.8398052157
 21
144.8880445013
 31
0.0
  0
LINE
  5
DC
330
1F
100
AcDbEntity
  8
0
  6
Continuous
 62
     7
370
    25
100
AcDbLine
 10
126.8398052157
 20
82.3380436549
 30
0.0
 11
126.8398052157
 21
113.6130440781
 31
0.0
  0
SPLINE
  5
DD
330
1F
100
AcDbEntity
  8
0
  6
Continuous
 62
     7
370
    25
100
AcDbSpline
210
0.0
220
0.0
230
1.0
 70
     8
 71
     3
 72
    10
 73
     6
 74
     0
 42
0.000000001
 43
0.00000001
 40
0.0
 40
0.0
 40
0.0
 40
0.0
 40
0.5
 40
0.5
 40
1.0
 40
1.0
 40
1.0
 40
1.0
 10
140.0740030203043
 20
139.2279302782524
 30
0.0
 10
139.8392720763352
 20
138.7754908905503
 30
0.0
 10
139.5998887686185
 20
138.3359637171909
 30
0.0
 10
139.1132674173076
 20
137.4768716216491
 30
0.0
 10
138.8659981056058
 20
137.0574145684259
 30
0.0
 10
138.6148052157343
 20
136.6472385118885
 30
0.0
  0
SPLINE
  5
DE
330
1F
100
AcDbEntity
  8
0
  6
Continuous
 62
     7
370
    25
100
AcDbSpline
210
0.0
220
0.0
230
1.0
 70
     8
 71
     3
 72
     8
 73
     4
 74
     0
 42
0.000000001
 43
0.00000001
 40
0.0
 40
0.0
 40
0.0
 40
0.0
 40
1.0
 40
1.0
 40
1.0
 40
1.0
 10
139.0805163407868
 20
90.1203299962457
 30
0.0
 10
139.4067751769991
 20
89.89650626691599
 30
0.0
 10
139.738613586042
 20
89.6639404196126
 30
0.0
 10
140.0740030203044
 20
89.42702014779309
 30
0.0
  0
SPLINE
  5
DF
330
1F
100
AcDbEntity
  8
0
  6
Continuous
 62
     7
370
    25
100
AcDbSpline
210
0.0
220
0.0
230
1.0
 70
     8
 71
     3
 72
     8
 73
     4
 74
     0
 42
0.000000001
 43
0.00000001
 40
0.0
 40
0.0
 40
0.0
 40
0.0
 40
1.0
 40
1.0
 40
1.0
 40
1.0
 10
138.6148052157343
 20
90.89330917492008
 30
0.0
 10
138.7712875792355
 20
90.63908891724456
 30
0.0
 10
138.9265138677129
 20
90.38145513089715
 30
0.0
 10
139.0805163407869
 20
90.1203299962457
 30
0.0
  0
LINE
  5
E0
330
1F
100
AcDbEntity
  8
0
  6
Continuous
 62
     7
370
    25
100
AcDbLine
 10
138.6148052366
 20
90.8933087984
 30
0.0
 11
138.6148052366
 21
136.6472385624
 31
0.0
  0
SPLINE
  5
E1
330
1F
100
AcDbEntity
  8
0
  6
Continuous
 62
     7
370
    25
100
AcDbSpline
210
0.0
220
0.0
230
1.0
 70
     8
 71
     3
 72
    14
 73
    10
 74
     0
 42
0.000000001
 43
0.00000001
 40
0.0
 40
0.0
 40
0.0
 40
0.0
 40
0.25
 40
0.25
 40
0.5
 40
0.5
 40
0.75
 40
0.75
 40
1.0
 40
1.0
 40
1.0
 40
1.0
 10
138.6148052157345
 20
136.5620299471356
 30
0.0
 10
138.6148052157345
 20
136.4478578695828
 30
0.0
 10
138.5888757774685
 20
136.3307698649079
 30
0.0
 10
138.4894335201921
 20
136.1096148528898
 30
0.0
 10
138.4171511344713
 20
136.0070405123907
 30
0.0
 10
138.2324137977068
 20
135.8310071069028
 30
0.0
 10
138.1228671613847
 20
135.7606012999224
 30
0.0
 10
137.8795059163815
 20
135.6670354390833
 30
0.0
 10
137.7479948089357
 20
135.6451151191139
 30
0.0
 10
137.6148052157343
 20
135.6511776882511
 30
0.0
  0
SPLINE
  5
E2
330
1F
100
AcDbEntity
  8
0
  6
Continuous
 62
     7
370
    25
100
AcDbSpline
210
0.0
220
0.0
230
1.0
 70
     8
 71
     3
 72
    14
 73
    10
 74
     0
 42
0.000000001
 43
0.00000001
 40
0.0
 40
0.0
 40
0.0
 40
0.0
 40
0.25
 40
0.25
 40
0.5
 40
0.5
 40
0.75
 40
0.75
 40
1.0
 40
1.0
 40
1.0
 40
1.0
 10
137.6148052157343
 20
91.88815220720575
 30
0.0
 10
137.7482335229674
 20
91.89364527037608
 30
0.0
 10
137.880008194763
 20
91.87139325131125
 30
0.0
 10
138.1232040816244
 20
91.77795499160489
 30
0.0
 10
138.2341249433373
 20
91.70665952642418
 30
0.0
 10
138.4167712922031
 20
91.53315212951192
 30
0.0
 10
138.4900870315431
 20
91.4295937672657
 30
0.0
 10
138.5887251423785
 20
91.21035565449174
 30
0.0
 10
138.6148052157343
 20
91.0933501787834
 30
0.0
 10
138.6148052157343
 20
90.97872524421761
 30
0.0
  0
SPLINE
  5
E3
330
1F
100
AcDbEntity
  8
0
  6
Continuous
 62
     7
370
    25
100
AcDbSpline
210
0.0
220
0.0
230
1.0
 70
     8
 71
     3
 72
    14
 73
    10
 74
     0
 42
0.000000001
 43
0.00000001
 40
0.0
 40
0.0
 40
0.0
 40
0.0
 40
0.25
 40
0.25
 40
0.5
 40
0.5
 40
0.75
 40
0.75
 40
1.0
 40
1.0
 40
1.0
 40
1.0
 10
135.8648052157343
 20
136.0072370254933
 30
0.0
 10
135.7304544671932
 20
136.059054005571
 30
0.0
 10
135.6072755643997
 20
136.1360012416044
 30
0.0
 10
135.3785251435104
 20
136.3284860750134
 30
0.0
 10
135.2766020515172
 20
136.4413130637934
 30
0.0
 10
135.097176987172
 20
136.694153008366
 30
0.0
 10
135.0207357382675
 20
136.8321687328477
 30
0.0
 10
134.9034477638058
 20
137.1304044395778
 30
0.0
 10
134.8648052157343
 20
137.2884924086283
 30
0.0
 10
134.8648052157343
 20
137.4279247333532
 30
0.0
  0
SPLINE
  5
E4
330
1F
100
AcDbEntity
  8
0
  6
Continuous
 62
     7
370
    25
100
AcDbSpline
210
0.0
220
0.0
230
1.0
 70
     8
 71
     3
 72
    14
 73
    10
 74
     0
 42
0.000000001
 43
0.00000001
 40
0.0
 40
0.0
 40
0.0
 40
0.0
 40
0.25
 40
0.25
 40
0.5
 40
0.5
 40
0.75
 40
0.75
 40
1.0
 40
1.0
 40
1.0
 40
1.0
 10
134.8648052157343
 20
90.24445634878009
 30
0.0
 10
134.8648052157343
 20
90.37519617015109
 30
0.0
 10
134.9002262926666
 20
90.52389388386511
 30
0.0
 10
135.0127519638567
 20
90.80082369941165
 30
0.0
 10
135.0904321501311
 20
90.93413426650058
 30
0.0
 10
135.2704973818534
 20
91.17147426226246
 30
0.0
 10
135.3757774345087
 20
91.27915786225252
 30
0.0
 10
135.6047609688712
 20
91.45572980623307
 30
0.0
 10
135.7313741608701
 20
91.52703295870396
 30
0.0
 10
135.8648052157341
 20
91.5718052525009
 30
0.0
  0
SPLINE
  5
E5
330
1F
100
AcDbEntity
  8
0
  6
Continuous
 62
     7
370
    25
100
AcDbSpline
210
0.0
220
0.0
230
1.0
 70
     8
 71
     3
 72
    10
 73
     6
 74
     0
 42
0.000000001
 43
0.00000001
 40
0.0
 40
0.0
 40
0.0
 40
0.0
 40
0.5
 40
0.5
 40
1.0
 40
1.0
 40
1.0
 40
1.0
 10
137.6148052157343
 20
135.6511776882514
 30
0.0
 10
137.3023413134462
 20
135.6654005262749
 30
0.0
 10
136.9994523314484
 20
135.7032197290664
 30
0.0
 10
136.4121091466444
 20
135.8231081550554
 30
0.0
 10
136.1276414860724
 20
135.9058651914564
 30
0.0
 10
135.8648052157343
 20
136.0072370254933
 30
0.0
  0
SPLINE
  5
E6
330
1F
100
AcDbEntity
  8
0
  6
Continuous
 62
     7
370
    25
100
AcDbSpline
210
0.0
220
0.0
230
1.0
 70
     8
 71
     3
 72
    10
 73
     6
 74
     0
 42
0.000000001
 43
0.00000001
 40
0.0
 40
0.0
 40
0.0
 40
0.0
 40
0.5
 40
0.5
 40
1.0
 40
1.0
 40
1.0
 40
1.0
 10
135.8648052157343
 20
91.5718052525002
 30
0.0
 10
136.1353239358496
 20
91.6625768020987
 30
0.0
 10
136.4168991004988
 20
91.73475382759086
 30
0.0
 10
137.0014926715181
 20
91.84124273964429
 30
0.0
 10
137.3068412059386
 20
91.8754737449283
 30
0.0
 10
137.6148052157343
 20
91.88815220720575
 30
0.0
  0
LINE
  5
E7
330
1F
100
AcDbEntity
  8
0
  6
Continuous
 62
     7
370
    25
100
AcDbLine
 10
125.6796231569
 20
113.6130440781
 30
0.0
 11
125.6796231569
 21
138.554782773
 31
0.0
  0
LINE
  5
E8
330
1F
100
AcDbEntity
  8
0
  6
Continuous
 62
     7
370
    25
100
AcDbLine
 10
125.6796231569
 20
88.6713053832
 30
0.0
 11
125.6796231569
 21
113.6130440781
 31
0.0
  0
LINE
  5
E9
330
1F
100
AcDbEntity
  8
0
  6
Continuous
 62
     7
370
    25
100
AcDbLine
 10
88.3898062707
 20
90.5439231345
 30
0.0
 11
88.3898062707
 21
102.7082485879
 31
0.0
  0
SPLINE
  5
EA
330
1F
100
AcDbEntity
  8
0
  6
Continuous
 62
     7
370
    25
100
AcDbSpline
210
0.0
220
0.0
230
1.0
 70
     8
 71
     3
 72
     8
 73
     4
 74
     0
 42
0.000000001
 43
0.00000001
 40
0.0
 40
0.0
 40
0.0
 40
0.0
 40
1.0
 40
1.0
 40
1.0
 40
1.0
 10
92.68205331084522
 20
102.7121530442124
 30
0.0
 10
91.25130394581157
 20
102.7104151689324
 30
0.0
 10
89.82055458077795
 20
102.7090530937667
 30
0.0
 10
88.38980521574432
 20
102.7080659376438
 30
0.0
  0
SPLINE
  5
EB
330
1F
100
AcDbEntity
  8
0
  6
Continuous
 62
     7
370
    25
100
AcDbSpline
210
0.0
220
0.0
230
1.0
 70
     8
 71
     3
 72
    23
 73
    19
 74
     0
 42
0.000000001
 43
0.00000001
 40
0.0
 40
0.0
 40
0.0
 40
0.0
 40
0.0521036415646655
 40
0.1035646240875231
 40
0.1544751946670016
 40
0.2049306267396564
 40
0.2550287880763705
 40
0.3048696389063719
 40
0.3545546704541477
 40
0.4041862979471803
 40
0.4538672252097395
 40
0.5036997999422159
 40
0.5901870230737664
 40
0.6742716378215413
 40
0.7565997087206644
 40
0.8378563983706444
 40
0.9187511781358022
 40
1.0
 40
1.0
 40
1.0
 40
1.0
 10
96.27578913023466
 20
104.6322226525853
 30
0.0
 10
96.23429761052172
 20
104.5738868662646
 30
0.0
 10
96.15182633763465
 20
104.4579348214608
 30
0.0
 10
96.01896758020861
 20
104.2921362194424
 30
0.0
 10
95.88043600744189
 20
104.1337722574112
 30
0.0
 10
95.73553646380783
 20
103.9832626238096
 30
0.0
 10
95.58445280363597
 20
103.8404233152949
 30
0.0
 10
95.42713762547099
 20
103.7052300977309
 30
0.0
 10
95.2636044672607
 20
103.5776174547995
 30
0.0
 10
95.09385453026817
 20
103.4575303706572
 30
0.0
 10
94.91788050012315
 20
103.3449169771985
 30
0.0
 10
94.6913998021803
 20
103.2141070135468
 30
0.0
 10
94.41221929167024
 20
103.0749848578719
 30
0.0
 10
94.07712009555074
 20
102.9414658645431
 30
0.0
 10
93.73635559964671
 20
102.8380177683475
 30
0.0
 10
93.38995755389031
 20
102.7651211442439
 30
0.0
 10
93.03806757536503
 20
102.7199263504776
 30
0.0
 10
92.80089735349823
 20
102.7147479153549
 30
0.0
 10
92.68205331084522
 20
102.7121530442124
 30
0.0
  0
SPLINE
  5
EC
330
1F
100
AcDbEntity
  8
0
  6
Continuous
 62
     7
370
    25
100
AcDbSpline
210
0.0
220
0.0
230
1.0
 70
     8
 71
     3
 72
     8
 73
     4
 74
     0
 42
0.000000001
 43
0.00000001
 40
0.0
 40
0.0
 40
0.0
 40
0.0
 40
1.0
 40
1.0
 40
1.0
 40
1.0
 10
100.6847609383846
 20
104.636643367405
 30
0.0
 10
99.21458627760495
 20
104.6351827469699
 30
0.0
 10
97.74441161682525
 20
104.6340216953109
 30
0.0
 10
96.27423695604556
 20
104.6331597654114
 30
0.0
  0
SPLINE
  5
ED
330
1F
100
AcDbEntity
  8
0
  6
Continuous
 62
     7
370
    25
100
AcDbSpline
210
0.0
220
0.0
230
1.0
 70
     8
 71
     3
 72
    18
 73
    14
 74
     0
 42
0.000000001
 43
0.00000001
 40
0.0
 40
0.0
 40
0.0
 40
0.0
 40
0.0923824559439675
 40
0.1844689291622743
 40
0.2764953616013771
 40
0.3686975365565255
 40
0.4613092840075443
 40
0.5545607518508886
 40
0.6486768051591462
 40
0.7438756050182965
 40
0.8403674044314907
 40
0.9203921078129265
 40
1.0
 40
1.0
 40
1.0
 40
1.0
 10
102.8799897832434
 20
104.1030093536412
 30
0.0
 10
102.8096594797274
 20
104.1034259780717
 30
0.0
 10
102.66922420287
 20
104.1042578921159
 30
0.0
 10
102.4588616763813
 20
104.1178667390481
 30
0.0
 10
102.2494180133947
 20
104.1405334963524
 30
0.0
 10
102.0408683432741
 20
104.1731342864055
 30
0.0
 10
101.8332247250471
 20
104.2154367640772
 30
0.0
 10
101.6264865410987
 20
104.2675081663101
 30
0.0
 10
101.4206644355475
 20
104.3293569256126
 30
0.0
 10
101.2157328083675
 20
104.400954988502
 30
0.0
 10
101.0244431415066
 20
104.4774568035651
 30
0.0
 10
100.8470905439229
 20
104.5558932303546
 30
0.0
 10
100.7391102003947
 20
104.6096031840536
 30
0.0
 10
100.685261000516
 20
104.6363880407942
 30
0.0
  0
LINE
  5
EE
330
1F
100
AcDbEntity
  8
0
  6
Continuous
 62
     7
370
    25
100
AcDbLine
 10
104.7948634328
 20
104.1045050869
 30
0.0
 11
102.8799897136
 21
104.1030093828
 31
0.0
  0
SPLINE
  5
EF
330
1F
100
AcDbEntity
  8
0
  6
Continuous
 62
     7
370
    25
100
AcDbSpline
210
0.0
220
0.0
230
1.0
 70
     8
 71
     3
 72
    25
 73
    21
 74
     0
 42
0.000000001
 43
0.00000001
 40
0.0
 40
0.0
 40
0.0
 40
0.0
 40
0.0280105225417313
 40
0.0559601148844757
 40
0.0839014045022582
 40
0.1118870776763573
 40
0.1399695827566157
 40
0.1682008401719331
 40
0.1966319670408087
 40
0.2253130233131858
 40
0.2542927850734805
 40
0.3799486436539752
 40
0.5057850221666156
 40
0.6313085886319871
 40
0.7532068238012583
 40
0.803947326795781
 40
0.8535894438557279
 40
0.9025339722396917
 40
0.9511970353793002
 40
1.0
 40
1.0
 40
1.0
 40
1.0
 10
109.7347473689357
 20
109.2383685930164
 30
0.0
 10
109.7347845906695
 20
109.1637485660054
 30
0.0
 10
109.7348589531701
 20
109.0146708300224
 30
0.0
 10
109.7224429025235
 20
108.7920527390615
 30
0.0
 10
109.7008383421696
 20
108.5707283210362
 30
0.0
 10
109.6691528725096
 20
108.3507600551494
 30
0.0
 10
109.6276267341896
 20
108.1321697679203
 30
0.0
 10
109.5761959784597
 20
107.9149878295142
 30
0.0
 10
109.5148821037485
 20
107.6992464096258
 30
0.0
 10
109.443671768249
 20
107.4849565181705
 30
0.0
 10
109.272835161053
 20
107.0366067451519
 30
0.0
 10
108.935102927616
 20
106.3832759170783
 30
0.0
 10
108.3235482634194
 20
105.6113827064409
 30
0.0
 10
107.5873134282672
 20
104.9672230810457
 30
0.0
 10
106.900827356617
 20
104.5755819129862
 30
0.0
 10
106.352123210464
 20
104.3568870120179
 30
0.0
 10
105.9700870319584
 20
104.2410309631872
 30
0.0
 10
105.5829209332539
 20
104.1601230576572
 30
0.0
 10
105.1906942644682
 20
104.1108946268592
 30
0.0
 10
104.9269329963539
 20
104.1066367718438
 30
0.0
 10
104.7948630625329
 20
104.104504788501
 30
0.0
  0
LINE
  5
F0
330
1F
100
AcDbEntity
  8
0
  6
Continuous
 62
     7
370
    25
100
AcDbLine
 10
109.7347473802
 20
117.9877195308
 30
0.0
 11
109.7347473802
 21
109.2383686254
 31
0.0
  0
SPLINE
  5
F1
330
1F
100
AcDbEntity
  8
0
  6
Continuous
 62
     7
370
    25
100
AcDbSpline
210
0.0
220
0.0
230
1.0
 70
     8
 71
     3
 72
    26
 73
    22
 74
     0
 42
0.000000001
 43
0.00000001
 40
0.0
 40
0.0
 40
0.0
 40
0.0
 40
0.0241259796962589
 40
0.048215991227113
 40
0.072320391512163
 40
0.0964895678708021
 40
0.1207736231960618
 40
0.145222071124006
 40
0.1698835501655259
 40
0.1948055644470482
 40
0.2200342569516483
 40
0.2456142191611198
 40
0.3690971486898422
 40
0.4940698769485101
 40
0.6192566784753765
 40
0.7454656653602848
 40
0.7971495824708195
 40
0.848171030839727
 40
0.8988013269227114
 40
0.9493179290486773
 40
1.0
 40
1.0
 40
1.0
 40
1.0
 10
104.7948630625329
 20
123.1215833676692
 30
0.0
 10
104.8601121210821
 20
123.1210095812904
 30
0.0
 10
104.9905129617607
 20
123.1198628639608
 30
0.0
 10
105.1854927800564
 20
123.107745487468
 30
0.0
 10
105.3796219173196
 20
123.0879869660063
 30
0.0
 10
105.5728832574135
 20
123.0598247837855
 30
0.0
 10
105.7652784358877
 20
123.0234336877372
 30
0.0
 10
105.9568040143887
 20
122.9787326022598
 30
0.0
 10
106.1474595467744
 20
122.9257041308757
 30
0.0
 10
106.3372395458733
 20
122.8643131094491
 30
0.0
 10
106.5261581665298
 20
122.7945109029693
 30
0.0
 10
106.9529025797005
 20
122.6169818327547
 30
0.0
 10
107.5873749068816
 20
122.2624212298571
 30
0.0
 10
108.3270507592259
 20
121.6202494161683
 30
0.0
 10
108.9337980020606
 20
120.847084112386
 30
0.0
 10
109.2945898182793
 20
120.1396687041281
 30
0.0
 10
109.4967638740463
 20
119.5751613049033
 30
0.0
 10
109.6035873300313
 20
119.1862744433568
 30
0.0
 10
109.6791980463295
 20
118.7917916894885
 30
0.0
 10
109.7263607190207
 20
118.3919855992961
 30
0.0
 10
109.7319487733089
 20
118.1226217198295
 30
0.0
 10
109.7347473689357
 20
117.9877195631537
 30
0.0
  0
LINE
  5
F2
330
1F
100
AcDbEntity
  8
0
  6
Continuous
 62
     7
370
    25
100
AcDbLine
 10
102.8799897136
 20
123.1230787734
 30
0.0
 11
104.7948634328
 21
123.1215830693
 31
0.0
  0
SPLINE
  5
F3
330
1F
100
AcDbEntity
  8
0
  6
Continuous
 62
     7
370
    25
100
AcDbSpline
210
0.0
220
0.0
230
1.0
 70
     8
 71
     3
 72
    14
 73
    10
 74
     0
 42
0.000000001
 43
0.00000001
 40
0.0
 40
0.0
 40
0.0
 40
0.0
 40
0.0789261963166635
 40
0.1582328720536201
 40
0.3308475394596663
 40
0.5000195457656536
 40
0.6670357883622092
 40
0.8332395193691549
 40
0.9999999999999999
 40
0.9999999999999999
 40
0.9999999999999999
 40
0.9999999999999999
 10
100.6837775571688
 20
122.5890318479208
 30
0.0
 10
100.7371730802117
 20
122.6156380971957
 30
0.0
 10
100.8442215300314
 20
122.6689788564596
 30
0.0
 10
101.0732922445978
 20
122.770608335098
 30
0.0
 10
101.3721649828005
 20
122.8846879674711
 30
0.0
 10
101.7443080576048
 20
122.9932944009278
 30
0.0
 10
102.119937856636
 20
123.069628686374
 30
0.0
 10
102.4991301686618
 20
123.1164461437283
 30
0.0
 10
102.7528951382056
 20
123.1208654530856
 30
0.0
 10
102.8799897832434
 20
123.123078802529
 30
0.0
  0
SPLINE
  5
F4
330
1F
100
AcDbEntity
  8
0
  6
Continuous
 62
     7
370
    25
100
AcDbSpline
210
0.0
220
0.0
230
1.0
 70
     8
 71
     3
 72
     8
 73
     4
 74
     0
 42
0.000000001
 43
0.00000001
 40
0.0
 40
0.0
 40
0.0
 40
0.0
 40
1.0
 40
1.0
 40
1.0
 40
1.0
 10
95.29148383352667
 20
122.5931540048205
 30
0.0
 10
97.08882051889853
 20
122.5921798983967
 30
0.0
 10
98.88615720427038
 20
122.5907577626469
 30
0.0
 10
100.6834938896422
 20
122.5888867761783
 30
0.0
  0
SPLINE
  5
F5
330
1F
100
AcDbEntity
  8
0
  6
Continuous
 62
     7
370
    25
100
AcDbSpline
210
0.0
220
0.0
230
1.0
 70
     8
 71
     3
 72
    13
 73
     9
 74
     0
 42
0.000000001
 43
0.00000001
 40
0.0
 40
0.0
 40
0.0
 40
0.0
 40
0.1667030582307895
 40
0.3329480818052965
 40
0.4990671507274738
 40
0.6653938523718336
 40
0.8322612710550047
 40
1.0
 40
1.0
 40
1.0
 40
1.0
 10
94.20797966868128
 20
122.7305810543884
 30
0.0
 10
94.2690867114326
 20
122.7297468348569
 30
0.0
 10
94.39113289873576
 20
122.7280806879021
 30
0.0
 10
94.57346784399951
 20
122.7160517302493
 30
0.0
 10
94.7547720568732
 20
122.6970622656649
 30
0.0
 10
94.93497091690983
 20
122.6702430514456
 30
0.0
 10
95.11427489504817
 20
122.6364072441984
 30
0.0
 10
95.23230692061959
 20
122.6075817739195
 30
0.0
 10
95.29147661037123
 20
122.5931315081964
 30
0.0
  0
SPLINE
  5
F6
330
1F
100
AcDbEntity
  8
0
  6
Continuous
 62
     7
370
    25
100
AcDbSpline
210
0.0
220
0.0
230
1.0
 70
     8
 71
     3
 72
     8
 73
     4
 74
     0
 42
0.000000001
 43
0.00000001
 40
0.0
 40
0.0
 40
0.0
 40
0.0
 40
1.0
 40
1.0
 40
1.0
 40
1.0
 10
88.38980521574707
 20
122.7353707892385
 30
0.0
 10
90.32919670005849
 20
122.7343233367628
 30
0.0
 10
92.26858818436988
 20
122.732727150238
 30
0.0
 10
94.20797966868129
 20
122.7305810543884
 30
0.0
  0
LINE
  5
F7
330
1F
100
AcDbEntity
  8
0
  6
Continuous
 62
     7
370
    25
100
AcDbLine
 10
88.3898062707
 20
122.7353710482
 30
0.0
 11
88.3898062707
 21
136.6821650216
 31
0.0
  0
SPLINE
  5
F8
330
1F
100
AcDbEntity
  8
0
  6
Continuous
 62
     7
370
    25
100
AcDbSpline
210
0.0
220
0.0
230
1.0
 70
     8
 71
     3
 72
    24
 73
    20
 74
     0
 42
0.000000001
 43
0.00000001
 40
0.0
 40
0.0
 40
0.0
 40
0.0
 40
0.0607845451296407
 40
0.1248046360965166
 40
0.1880736642923821
 40
0.2506536944642078
 40
0.3129374270624571
 40
0.3747588850641116
 40
0.4371053349657547
 40
0.4977639019418345
 40
0.5591913128303959
 40
0.6209011577381788
 40
0.6826271159280655
 40
0.7453344255371981
 40
0.8078840402472991
 40
0.8712333803613398
 40
0.9348869687710366
 40
0.9979954054018167
 40
1.0
 40
1.0
 40
1.0
 40
1.0
 10
112.3534448520721
 20
137.8838747540447
 30
0.0
 10
112.327733038533
 20
137.8734716639642
 30
0.0
 10
112.2749407781768
 20
137.8521117299709
 30
0.0
 10
111.8017100289231
 20
137.6697050564825
 30
0.0
 10
111.0829048872045
 20
137.4007590039539
 30
0.0
 10
110.1057241429234
 20
137.0726628488867
 30
0.0
 10
108.9217617818608
 20
136.7287924151409
 30
0.0
 10
107.5534594939618
 20
136.411131622868
 30
0.0
 10
106.065748228092
 20
136.1566231744683
 30
0.0
 10
104.4960886477771
 20
136.0054087934901
 30
0.0
 10
102.9198461527984
 20
135.9718671468651
 30
0.0
 10
101.4005319964691
 20
136.057439342529
 30
0.0
 10
99.99965778116963
 20
136.2316471611994
 30
0.0
 10
98.78097798676058
 20
136.4612728258699
 30
0.0
 10
97.77540515785978
 20
136.6994903282624
 30
0.0
 10
97.02222382142067
 20
136.9111110878912
 30
0.0
 10
96.57528026036915
 20
137.043530845623
 30
0.0
 10
96.3916034724248
 20
137.101198331866
 30
0.0
 10
96.4431410196894
 20
137.0854505768318
 30
0.0
 10
96.44472767426377
 20
137.0849657604429
 30
0.0
  0
SPLINE
  5
F9
330
1F
100
AcDbEntity
  8
0
  6
Continuous
 62
     7
370
    25
100
AcDbSpline
210
0.0
220
0.0
230
1.0
 70
     8
 71
     3
 72
    24
 73
    20
 74
     0
 42
0.000000001
 43
0.00000001
 40
0.0
 40
0.0
 40
0.0
 40
0.0
 40
0.0018911184661179
 40
0.0649665885217893
 40
0.1287875560009952
 40
0.1921372900365662
 40
0.2545996475903032
 40
0.3167128323446347
 40
0.3787563804671794
 40
0.440851011115251
 40
0.501718739255822
 40
0.5623721854420992
 40
0.6248484186975057
 40
0.6868048398220544
 40
0.7491642775858319
 40
0.8116886268192671
 40
0.8748496752066125
 40
0.9387002417378669
 40
1.0
 40
1.0
 40
1.0
 40
1.0
 10
96.44473326219922
 20
90.14102740082471
 30
0.0
 10
96.44322658033093
 20
90.14056958298546
 30
0.0
 10
96.39146674469708
 20
90.12484192566932
 30
0.0
 10
96.57507745931072
 20
90.18241814077449
 30
0.0
 10
97.02295118434341
 20
90.31467454379789
 30
0.0
 10
97.77597673185738
 20
90.52628295352046
 30
0.0
 10
98.77592223213796
 20
90.76399995855611
 30
0.0
 10
99.99448144593767
 20
90.99204043223787
 30
0.0
 10
101.3979917531465
 20
91.16422498046651
 30
0.0
 10
102.9152396373592
 20
91.25234843775898
 30
0.0
 10
104.4894890456897
 20
91.2212870443102
 30
0.0
 10
106.0553225377125
 20
91.07026595278231
 30
0.0
 10
107.5451749551385
 20
90.81592986274282
 30
0.0
 10
108.9168626354663
 20
90.49819020363297
 30
0.0
 10
110.1027598289128
 20
90.15428393294093
 30
0.0
 10
111.0804535853536
 20
89.82640526783052
 30
0.0
 10
111.7996070051339
 20
89.55762084773785
 30
0.0
 10
112.2735462656882
 20
89.37451878270946
 30
0.0
 10
112.3278052315482
 20
89.35253197754605
 30
0.0
 10
112.3543817625821
 20
89.34176264199941
 30
0.0
  0
LINE
  5
FA
330
1F
100
AcDbEntity
  8
0
  6
Continuous
 62
     7
370
    25
100
AcDbLine
 10
109.7347473802
 20
109.2383686254
 30
0.0
 11
108.8398059906
 21
109.4005440162
 31
0.0
  0
LINE
  5
FB
330
1F
100
AcDbEntity
  8
0
  6
Continuous
 62
     7
370
    25
100
AcDbLine
 10
108.8398059906
 20
109.4005440162
 30
0.0
 11
108.8398059906
 21
117.8255441399
 31
0.0
  0
LINE
  5
FC
330
1F
100
AcDbEntity
  8
0
  6
Continuous
 62
     7
370
    25
100
AcDbLine
 10
109.7347473802
 20
117.9877195308
 30
0.0
 11
108.8398059906
 21
117.8255441399
 31
0.0
  0
SPLINE
  5
FD
330
1F
100
AcDbEntity
  8
0
  6
Continuous
 62
     7
370
    25
100
AcDbSpline
210
0.0
220
0.0
230
1.0
 70
     8
 71
     3
 72
    25
 73
    21
 74
     0
 42
0.000000001
 43
0.00000001
 40
0.0
 40
0.0
 40
0.0
 40
0.0
 40
0.028882175310577
 40
0.0583636594005718
 40
0.0884647204305489
 40
0.1192044006616744
 40
0.1506005800085673
 40
0.1826700399669862
 40
0.2154285269576229
 40
0.2488908143379845
 40
0.3610594471224489
 40
0.4984670131067704
 40
0.5822693905007543
 40
0.6661127642783263
 40
0.7499972937224442
 40
0.8007709755049041
 40
0.8511237700832893
 40
0.9010896024531703
 40
0.9507031914125739
 40
1.0
 40
1.0
 40
1.0
 40
1.0
 10
104.8398052157343
 20
105.4005440780851
 30
0.0
 10
104.9026056689707
 20
105.4014005620369
 30
0.0
 10
105.0295096927666
 20
105.4031313020904
 30
0.0
 10
105.220864100476
 20
105.4172811674934
 30
0.0
 10
105.4147689131517
 20
105.4404182498138
 30
0.0
 10
105.6106696338792
 20
105.4738294020383
 30
0.0
 10
105.8080073018845
 20
105.5177032240705
 30
0.0
 10
106.0061606436728
 20
105.5724984950399
 30
0.0
 10
106.2044763876859
 20
105.6385674564046
 30
0.0
 10
106.5557973751942
 20
105.7765487886595
 30
0.0
 10
107.0809091455192
 20
106.0566007275025
 30
0.0
 10
107.6179009740037
 20
106.4951913299109
 30
0.0
 10
108.0299607040406
 20
106.9690514514558
 30
0.0
 10
108.3168792920932
 20
107.4007351992756
 30
0.0
 10
108.5153059793021
 20
107.8038584410392
 30
0.0
 10
108.6473918533519
 20
108.1615946018235
 30
0.0
 10
108.7330257331501
 20
108.4643470041113
 30
0.0
 10
108.7941079445019
 20
108.7728353143572
 30
0.0
 10
108.8326088878657
 20
109.0851470245084
 30
0.0
 10
108.8374115669589
 20
109.2956364384044
 30
0.0
 10
108.8398052157343
 20
109.4005440780851
 30
0.0
  0
SPLINE
  5
FE
330
1F
100
AcDbEntity
  8
0
  6
Continuous
 62
     7
370
    25
100
AcDbSpline
210
0.0
220
0.0
230
1.0
 70
     8
 71
     3
 72
    25
 73
    21
 74
     0
 42
0.000000001
 43
0.00000001
 40
0.0
 40
0.0
 40
0.0
 40
0.0
 40
0.0274788704224102
 40
0.0560416006852145
 40
0.0856947086354159
 40
0.1164440166540399
 40
0.1482947438683113
 40
0.1812515840471578
 40
0.215318771674954
 40
0.2505001382254747
 40
0.3330514552585835
 40
0.5015081958163852
 40
0.577166306614078
 40
0.6488981303019673
 40
0.7167477700055849
 40
0.7807674423480572
 40
0.8410194131333233
 40
0.8975784849918899
 40
0.9505352047784991
 40
1.0
 40
1.0
 40
1.0
 40
1.0
 10
108.8398052157343
 20
117.8255440780851
 30
0.0
 10
108.8390637641262
 20
117.8839084871203
 30
0.0
 10
108.837551615544
 20
118.0029393954181
 30
0.0
 10
108.8250554744732
 20
118.1837203895359
 30
0.0
 10
108.8041358705085
 20
118.3699836077785
 30
0.0
 10
108.7732151289635
 20
118.5611556963284
 30
0.0
 10
108.7316904843136
 20
118.7566626355548
 30
0.0
 10
108.6786902984962
 20
118.9558239876694
 30
0.0
 10
108.6134611186797
 20
119.1578422668261
 30
0.0
 10
108.5008710919392
 20
119.4513758813427
 30
0.0
 10
108.2408507009583
 20
119.9799087071704
 30
0.0
 10
107.829771307802
 20
120.5198479668233
 30
0.0
 10
107.3454367395418
 20
120.9546673162446
 30
0.0
 10
106.9802820348637
 20
121.214074457705
 30
0.0
 10
106.6074469657466
 20
121.4218246123547
 30
0.0
 10
106.2341994034212
 20
121.581545879992
 30
0.0
 10
105.8669100930871
 20
121.6975831322937
 30
0.0
 10
105.5107172902633
 20
121.773790249599
 30
0.0
 10
105.169878589116
 20
121.817795311589
 30
0.0
 10
104.9473001690169
 20
121.8230205382916
 30
0.0
 10
104.8398052157343
 20
121.8255440780851
 30
0.0
  0
LINE
  5
FF
330
1F
100
AcDbEntity
  8
0
  6
Continuous
 62
     7
370
    25
100
AcDbLine
 10
102.8799897136
 20
123.1230787734
 30
0.0
 11
102.9249316157
 21
121.8255443299
 31
0.0
  0
SPLINE
  5
100
330
1F
100
AcDbEntity
  8
0
  6
Continuous
 62
     7
370
    25
100
AcDbSpline
210
0.0
220
0.0
230
1.0
 70
     8
 71
     3
 72
    13
 73
     9
 74
     0
 42
0.000000001
 43
0.00000001
 40
0.0
 40
0.0
 40
0.0
 40
0.0
 40
0.1618542299043787
 40
0.3254858841861265
 40
0.4910085196952338
 40
0.6585318473097415
 40
0.8281616954395596
 40
0.9999999999999999
 40
0.9999999999999999
 40
0.9999999999999999
 40
0.9999999999999999
 10
102.9249319364448
 20
121.8255440780851
 30
0.0
 10
102.8657101056296
 20
121.8247852019813
 30
0.0
 10
102.7466160913587
 20
121.8232591160719
 30
0.0
 10
102.5670036153937
 20
121.8107651848272
 30
0.0
 10
102.3859745744756
 20
121.7905329159517
 30
0.0
 10
102.2039685806901
 20
121.7613789707413
 30
0.0
 10
102.0211843367298
 20
121.724018260081
 30
0.0
 10
101.9005353058691
 20
121.6917745493135
 30
0.0
 10
101.8398206396649
 20
121.6755484253035
 30
0.0
  0
SPLINE
  5
101
330
1F
100
AcDbEntity
  8
0
  6
Continuous
 62
     7
370
    25
100
AcDbSpline
210
0.0
220
0.0
230
1.0
 70
    24
 71
     3
 72
     9
 73
     5
 74
     0
 42
0.000000001
 43
0.00000001
 40
0.0
 40
0.0
 40
0.0
 40
0.0
 40
0.4907282259506014
 40
1.0
 40
1.0
 40
1.0
 40
1.0
 10
101.8398766365764
 20
121.6755440780851
 30
0.0
 10
101.7859711783459
 20
121.6755440780851
 30
0.0
 10
101.676123292327
 20
121.6755440780851
 30
0.0
 10
101.568180816218
 20
121.6755440780851
 30
0.0
 10
101.5132087599147
 20
121.6755440780851
 30
0.0
  0
SPLINE
  5
102
330
1F
100
AcDbEntity
  8
0
  6
Continuous
 62
     7
370
    25
100
AcDbSpline
210
0.0
220
0.0
230
1.0
 70
     8
 71
     3
 72
    14
 73
    10
 74
     0
 42
0.000000001
 43
0.00000001
 40
0.0
 40
0.0
 40
0.0
 40
0.0
 40
0.0310276388052914
 40
0.0622853718654813
 40
0.1248003166888005
 40
0.2498289731739683
 40
0.4998892603601401
 40
0.7606803622467934
 40
1.0
 40
1.0
 40
1.0
 40
1.0
 10
100.6845443643976
 20
122.5890204273155
 30
0.0
 10
100.6928343899366
 20
122.5794525827601
 30
0.0
 10
100.7094759180501
 20
122.5602459405846
 30
0.0
 10
100.7427257744276
 20
122.5216573125892
 30
0.0
 10
100.8012283200283
 20
122.4541274196819
 30
0.0
 10
100.9187646138785
 20
122.3192899019583
 30
0.0
 10
101.0916921376486
 20
122.1243565521976
 30
0.0
 10
101.2993396598137
 20
121.8960675284128
 30
0.0
 10
101.4431502433184
 20
121.7464979023946
 30
0.0
 10
101.5119683950225
 20
121.6749238571274
 30
0.0
  0
SPLINE
  5
103
330
1F
100
AcDbEntity
  8
0
  6
Continuous
 62
     7
370
    25
100
AcDbSpline
210
0.0
220
0.0
230
1.0
 70
     8
 71
     3
 72
    13
 73
     9
 74
     0
 42
0.000000001
 43
0.00000001
 40
0.0
 40
0.0
 40
0.0
 40
0.0
 40
0.1722587823568594
 40
0.3421398271249483
 40
0.5097456257913412
 40
0.6751828993276895
 40
0.8385626190137785
 40
1.0
 40
1.0
 40
1.0
 40
1.0
 10
101.8398235846445
 20
105.5505389008349
 30
0.0
 10
101.9006869743132
 20
105.5342751731364
 30
0.0
 10
102.0215736387523
 20
105.5019722106572
 30
0.0
 10
102.2046347967174
 20
105.4645845559643
 30
0.0
 10
102.3867374796555
 20
105.4354516210537
 30
0.0
 10
102.5676789279745
 20
105.4152649054471
 30
0.0
 10
102.747017931678
 20
105.4028181011452
 30
0.0
 10
102.8658641600979
 20
105.4012990579176
 30
0.0
 10
102.9249319364448
 20
105.4005440780851
 30
0.0
  0
LINE
  5
104
330
1F
100
AcDbEntity
  8
0
  6
Continuous
 62
     7
370
    25
100
AcDbLine
 10
102.8799897136
 20
104.1030093828
 30
0.0
 11
102.9249316157
 21
105.4005438263
 31
0.0
  0
SPLINE
  5
105
330
1F
100
AcDbEntity
  8
0
  6
Continuous
 62
     7
370
    25
100
AcDbSpline
210
0.0
220
0.0
230
1.0
 70
     8
 71
     3
 72
    11
 73
     7
 74
     0
 42
0.000000001
 43
0.00000001
 40
0.0
 40
0.0
 40
0.0
 40
0.0
 40
0.2392845094072487
 40
0.5001120454065696
 40
0.7515010915046029
 40
1.0
 40
1.0
 40
1.0
 40
1.0
 10
101.5132369267153
 20
105.5511156504784
 30
0.0
 10
101.4444272937256
 20
105.4795199523659
 30
0.0
 10
101.3006130268369
 20
105.3298827229687
 30
0.0
 10
101.0929112940271
 20
105.1008261944605
 30
0.0
 10
100.8849709823156
 20
104.8683642071072
 30
0.0
 10
100.7520027726757
 20
104.7134952157198
 30
0.0
 10
100.685903050415
 20
104.6365084130455
 30
0.0
  0
SPLINE
  5
106
330
1F
100
AcDbEntity
  8
0
  6
Continuous
 62
     7
370
    25
100
AcDbSpline
210
0.0
220
0.0
230
1.0
 70
    24
 71
     3
 72
     9
 73
     5
 74
     0
 42
0.000000001
 43
0.00000001
 40
0.0
 40
0.0
 40
0.0
 40
0.0
 40
0.5090669353869909
 40
1.0
 40
1.0
 40
1.0
 40
1.0
 10
101.5151850491309
 20
105.5505440780851
 30
0.0
 10
101.569812911838
 20
105.5505440780851
 30
0.0
 10
101.6771226955026
 20
105.5505440780851
 30
0.0
 10
101.786304203747
 20
105.5505440780851
 30
0.0
 10
101.8399050161885
 20
105.5505440780851
 30
0.0
  0
LINE
  5
107
330
1F
100
AcDbEntity
  8
0
  6
Continuous
 62
     7
370
    25
100
AcDbLine
 10
95.291398287
 20
122.5931543658
 30
0.0
 11
95.2659024002
 21
121.6955680201
 31
0.0
  0
LINE
  5
108
330
1F
100
AcDbEntity
  8
0
  6
Continuous
 62
     7
370
    25
100
AcDbLine
 10
101.5132067801
 20
121.6755436534
 30
0.0
 11
95.3398047091
 21
121.6755436534
 31
0.0
  0
SPLINE
  5
109
330
1F
100
AcDbEntity
  8
0
  6
Continuous
 62
     7
370
    25
100
AcDbSpline
210
0.0
220
0.0
230
1.0
 70
     8
 71
     3
 72
     8
 73
     4
 74
     0
 42
0.000000001
 43
0.00000001
 40
0.0
 40
0.0
 40
0.0
 40
0.0
 40
1.0
 40
1.0
 40
1.0
 40
1.0
 10
95.3398052157885
 20
121.6755440780698
 30
0.0
 10
95.31524118635987
 20
121.6824674766939
 30
0.0
 10
95.29061089526165
 20
121.6891557805117
 30
0.0
 10
95.26591885414958
 20
121.6956077643925
 30
0.0
  0
LINE
  5
10A
330
1F
100
AcDbEntity
  8
0
  6
Continuous
 62
     7
370
    25
100
AcDbLine
 10
96.1041690858
 20
105.4056213969
 30
0.0
 11
96.2763259263
 21
104.6334516058
 31
0.0
  0
SPLINE
  5
10B
330
1F
100
AcDbEntity
  8
0
  6
Continuous
 62
     7
370
    25
100
AcDbSpline
210
0.0
220
0.0
230
1.0
 70
     8
 71
     3
 72
     8
 73
     4
 74
     0
 42
0.000000001
 43
0.00000001
 40
0.0
 40
0.0
 40
0.0
 40
0.0
 40
1.0
 40
1.0
 40
1.0
 40
1.0
 10
96.10223305909885
 20
105.4062320099078
 30
0.0
 10
96.1324345404186
 20
105.4537129070261
 30
0.0
 10
96.16163392527099
 20
105.5018312105993
 30
0.0
 10
96.18980521573434
 20
105.5505440780851
 30
0.0
  0
LINE
  5
10C
330
1F
100
AcDbEntity
  8
0
  6
Continuous
 62
     7
370
    25
100
AcDbLine
 10
96.1898060591
 20
105.5505445028
 30
0.0
 11
101.5143783839
 21
105.5505445028
 31
0.0
  0
LINE
  5
10D
330
1F
100
AcDbEntity
  8
0
  6
Continuous
 62
     7
370
    25
100
AcDbLine
 10
104.8398053349
 20
121.8255443299
 30
0.0
 11
102.9249316157
 21
121.8255443299
 31
0.0
  0
LINE
  5
10E
330
1F
100
AcDbEntity
  8
0
  6
Continuous
 62
     7
370
    25
100
AcDbLine
 10
102.9249316157
 20
105.4005438263
 30
0.0
 11
104.8398053349
 21
105.4005438263
 31
0.0
  0
SPLINE
  5
10F
330
1F
100
AcDbEntity
  8
0
  6
Continuous
 62
     7
370
    25
100
AcDbSpline
210
0.0
220
0.0
230
1.0
 70
     8
 71
     3
 72
    23
 73
    19
 74
     0
 42
0.000000001
 43
0.00000001
 40
0.0
 40
0.0
 40
0.0
 40
0.0
 40
0.0449850911475702
 40
0.0909520670695521
 40
0.1379394291160224
 40
0.185983224880271
 40
0.2351171761576849
 40
0.2853728096294421
 40
0.336779587648219
 40
0.3893650370719876
 40
0.4431548745883502
 40
0.4981731273940964
 40
0.5575107590985258
 40
0.6265492281523468
 40
0.7053073139188342
 40
0.7937970253957892
 40
0.8920262116056945
 40
1.0
 40
1.0
 40
1.0
 40
1.0
 10
92.72714817958419
 20
103.5530440780851
 30
0.0
 10
92.78999193055034
 20
103.5539018814041
 30
0.0
 10
92.91705111631539
 20
103.5556362112234
 30
0.0
 10
93.10870734904245
 20
103.5698233464232
 30
0.0
 10
93.30307460963435
 20
103.5930488295785
 30
0.0
 10
93.49959131790267
 20
103.6266275699206
 30
0.0
 10
93.69768892161817
 20
103.6707715431473
 30
0.0
 10
93.89673689358274
 20
103.7259664906721
 30
0.0
 10
94.09605589946777
 20
103.7925833530904
 30
0.0
 10
94.29492159631361
 20
103.8709840299056
 30
0.0
 10
94.49253673571693
 20
103.9614681208565
 30
0.0
 10
94.69178320286406
 20
104.0662599856481
 30
0.0
 10
94.90061168254404
 20
104.1918249221066
 30
0.0
 10
95.12542277869882
 20
104.3473389206473
 30
0.0
 10
95.36718950763456
 20
104.5419080358172
 30
0.0
 10
95.61840421638549
 20
104.7813977032536
 30
0.0
 10
95.87340270060912
 20
105.0692381130415
 30
0.0
 10
96.02377482949782
 20
105.2907065228029
 30
0.0
 10
96.10251398666175
 20
105.4066737306353
 30
0.0
  0
SPLINE
  5
110
330
1F
100
AcDbEntity
  8
0
  6
Continuous
 62
     7
370
    25
100
AcDbSpline
210
0.0
220
0.0
230
1.0
 70
     8
 71
     3
 72
    13
 73
     9
 74
     0
 42
0.000000001
 43
0.00000001
 40
0.0
 40
0.0
 40
0.0
 40
0.0
 40
0.1706320847264856
 40
0.3395984166307211
 40
0.5069574112797959
 40
0.6727691831482615
 40
0.8370955448535085
 40
1.0
 40
1.0
 40
1.0
 40
1.0
 10
95.26591197787468
 20
121.6956095611437
 30
0.0
 10
95.20985804763099
 20
121.7095123073124
 30
0.0
 10
95.09829739954303
 20
121.7371820775863
 30
0.0
 10
94.92905166714141
 20
121.7694375945046
 30
0.0
 10
94.75990657821261
 20
121.7947750548192
 30
0.0
 10
94.59097131624212
 20
121.8124879304898
 30
0.0
 10
94.42264308402096
 20
121.8235119874418
 30
0.0
 10
94.3105042668417
 20
121.8248686796023
 30
0.0
 10
94.25467849502377
 20
121.8255440780851
 30
0.0
  0
SPLINE
  5
111
330
1F
100
AcDbEntity
  8
0
  6
Continuous
 62
     7
370
    25
100
AcDbSpline
210
0.0
220
0.0
230
1.0
 70
     8
 71
     3
 72
     8
 73
     4
 74
     0
 42
0.000000001
 43
0.00000001
 40
0.0
 40
0.0
 40
0.0
 40
0.0
 40
1.0
 40
1.0
 40
1.0
 40
1.0
 10
87.4761453941546
 20
122.3530458220098
 30
0.0
 10
87.78069866786419
 20
122.4792351686492
 30
0.0
 10
88.08525194157377
 20
122.6066799249126
 30
0.0
 10
88.38980521528336
 20
122.7353707894611
 30
0.0
  0
LINE
  5
112
330
1F
100
AcDbEntity
  8
0
  6
Continuous
 62
     7
370
    25
100
AcDbLine
 10
94.2546797992
 20
121.8255443299
 30
0.0
 11
88.3898062707
 21
121.8255443299
 31
0.0
  0
LINE
  5
113
330
1F
100
AcDbEntity
  8
0
  6
Continuous
 62
     7
370
    25
100
AcDbLine
 10
88.3898062707
 20
121.8255443299
 30
0.0
 11
87.4761452974
 21
122.3530454362
 31
0.0
  0
SPLINE
  5
114
330
1F
100
AcDbEntity
  8
0
  6
Continuous
 62
     7
370
    25
100
AcDbSpline
210
0.0
220
0.0
230
1.0
 70
    24
 71
     3
 72
     8
 73
     4
 74
     0
 42
0.000000001
 43
0.00000001
 40
0.0
 40
0.0
 40
0.0
 40
0.0
 40
1.0
 40
1.0
 40
1.0
 40
1.0
 10
86.8898052157343
 20
122.6915694818695
 30
0.0
 10
87.08435234826698
 20
122.5792476425317
 30
0.0
 10
87.27981336850596
 20
122.4663981698807
 30
0.0
 10
87.47614539416307
 20
122.353045822017
 30
0.0
  0
LINE
  5
115
330
1F
100
AcDbEntity
  8
0
  6
Continuous
 62
     7
370
    25
100
AcDbLine
 10
86.8898069562
 20
122.6915690849
 30
0.0
 11
86.8898069562
 21
135.8161393354
 31
0.0
  0
LINE
  5
116
330
1F
100
AcDbEntity
  8
0
  6
Continuous
 62
     7
370
    25
100
AcDbLine
 10
87.5296702684
 20
103.0564458841
 30
0.0
 11
88.3898062707
 21
103.5530438447
 31
0.0
  0
LINE
  5
117
330
1F
100
AcDbEntity
  8
0
  6
Continuous
 62
     7
370
    25
100
AcDbLine
 10
88.3898062707
 20
103.5530438447
 30
0.0
 11
92.7271468641
 21
103.5530438447
 31
0.0
  0
SPLINE
  5
118
330
1F
100
AcDbEntity
  8
0
  6
Continuous
 62
     7
370
    25
100
AcDbSpline
210
0.0
220
0.0
230
1.0
 70
     8
 71
     3
 72
     8
 73
     4
 74
     0
 42
0.000000001
 43
0.00000001
 40
0.0
 40
0.0
 40
0.0
 40
0.0
 40
1.0
 40
1.0
 40
1.0
 40
1.0
 10
88.38980521549406
 20
102.7080659375675
 30
0.0
 10
88.10309393862528
 20
102.8249668757811
 30
0.0
 10
87.81638266175648
 20
102.9410948968458
 30
0.0
 10
87.52967138488768
 20
103.0564455793067
 30
0.0
  0
SPLINE
  5
119
330
1F
100
AcDbEntity
  8
0
  6
Continuous
 62
     7
370
    25
100
AcDbSpline
210
0.0
220
0.0
230
1.0
 70
     8
 71
     3
 72
     8
 73
     4
 74
     0
 42
0.000000001
 43
0.00000001
 40
0.0
 40
0.0
 40
0.0
 40
0.0
 40
1.0
 40
1.0
 40
1.0
 40
1.0
 10
140.0740030203044
 20
84.07629674511969
 30
0.0
 10
139.7385923948805
 20
84.7345637974291
 30
0.0
 10
139.4067500757706
 20
85.39362023541068
 30
0.0
 10
139.0805163407866
 20
86.05356060683211
 30
0.0
  0
LWPOLYLINE
  5
11A
330
1F
100
AcDbEntity
  8
0
  6
Continuous
 62
     7
370
    25
100
AcDbPolyline
 90
        9
 70
   128
 43
0.0
 10
139.080515884
 20
86.0535606543
 10
139.9182358833
 20
86.2267121473
 10
140.6631337555
 20
86.4849883864
 10
141.2811212318
 20
86.8165727505
 10
141.7439187021
 20
87.2062902698
 10
142.0303497539
 20
87.6363061169
 10
142.1273050906
 20
88.0869451711
 10
142.0303497539
 20
88.5375842253
 10
141.836613238
 20
88.8581640819
  0
LINE
  5
11B
330
1F
100
AcDbEntity
  8
0
  6
Continuous
 62
     7
370
    25
100
AcDbLine
 10
86.8898069562
 20
91.4099488208
 30
0.0
 11
86.8898069562
 21
102.6870190898
 31
0.0
  0
SPLINE
  5
11C
330
1F
100
AcDbEntity
  8
0
  6
Continuous
 62
     7
370
    25
100
AcDbSpline
210
0.0
220
0.0
230
1.0
 70
    24
 71
     3
 72
     8
 73
     4
 74
     0
 42
0.000000001
 43
0.00000001
 40
0.0
 40
0.0
 40
0.0
 40
0.0
 40
1.0
 40
1.0
 40
1.0
 40
1.0
 10
87.52967138488768
 20
103.0564455793067
 30
0.0
 10
87.31500582604794
 20
102.9325083611248
 30
0.0
 10
87.10169111770975
 20
102.8093510568437
 30
0.0
 10
86.8898052157343
 20
102.6870186743007
 30
0.0
  0
ARC
  5
11D
330
1F
100
AcDbEntity
  8
0
  6
Continuous
 62
     7
370
    25
100
AcDbCircle
 10
135.070389212
 20
88.0801941536
 30
0.0
 40
1.386778252398801
100
AcDbArc
 50
117.5067796727
 51
245.5898588898
  0
SPLINE
  5
11E
330
1F
100
AcDbEntity
  8
0
  6
Continuous
 62
     7
370
    25
100
AcDbSpline
210
0.0
220
0.0
230
1.0
 70
     8
 71
     3
 72
     8
 73
     4
 74
     0
 42
0.000000001
 43
0.00000001
 40
0.0
 40
0.0
 40
0.0
 40
0.0
 40
1.0
 40
1.0
 40
1.0
 40
1.0
 10
134.4972815495863
 20
86.8173794875076
 30
0.0
 10
134.1408282846553
 20
86.07321551432305
 30
0.0
 10
133.7754947918938
 20
85.33047628843346
 30
0.0
 10
133.4056074111642
 20
84.58904516353688
 30
0.0
  0
LINE
  5
11F
330
1F
100
AcDbEntity
  8
0
  6
Continuous
 62
     7
370
    25
100
AcDbLine
 10
134.8648050876
 20
139.7077470818
 30
0.0
 11
134.8648050876
 21
139.622983689
 31
0.0
  0
SPLINE
  5
120
330
1F
100
AcDbEntity
  8
0
  6
Continuous
 62
     7
370
    25
100
AcDbSpline
210
0.0
220
0.0
230
1.0
 70
     8
 71
     3
 72
    16
 73
    12
 74
     0
 42
0.000000001
 43
0.00000001
 40
0.0
 40
0.0
 40
0.0
 40
0.0
 40
0.1250000000000001
 40
0.1250000000000001
 40
0.2500000000000003
 40
0.2500000000000003
 40
0.5000000000000002
 40
0.5000000000000002
 40
0.7500000000000001
 40
0.7500000000000001
 40
1.0
 40
1.0
 40
1.0
 40
1.0
 10
134.8648052157343
 20
139.6229831038755
 30
0.0
 10
134.8648052157343
 20
139.5536507552304
 30
0.0
 10
134.8745777793739
 20
139.4916542182277
 30
0.0
 10
134.9087738247743
 20
139.3859723402373
 30
0.0
 10
134.9329590164852
 20
139.3418499053184
 30
0.0
 10
135.0206756805815
 20
139.2294432790777
 30
0.0
 10
135.0973858464309
 20
139.1814407729194
 30
0.0
 10
135.2764679466719
 20
139.1166150102067
 30
0.0
 10
135.3773507162917
 20
139.1007117387446
 30
0.0
 10
135.6061622145547
 20
139.0992069983739
 30
0.0
 10
135.7304598229896
 20
139.1138321751497
 30
0.0
 10
135.8648052157343
 20
139.1486190859883
 30
0.0
  0
SPLINE
  5
121
330
1F
100
AcDbEntity
  8
0
  6
Continuous
 62
     7
370
    25
100
AcDbSpline
210
0.0
220
0.0
230
1.0
 70
     8
 71
     3
 72
    10
 73
     6
 74
     0
 42
0.000000001
 43
0.00000001
 40
0.0
 40
0.0
 40
0.0
 40
0.0
 40
0.5
 40
0.5
 40
1.0
 40
1.0
 40
1.0
 40
1.0
 10
135.8648052157343
 20
139.1486190859883
 30
0.0
 10
136.12762473009
 20
139.216672621921
 30
0.0
 10
136.4059775946977
 20
139.2689862389728
 30
0.0
 10
136.9929741820831
 20
139.3456896905561
 30
0.0
 10
137.3023578719614
 20
139.3697170648507
 30
0.0
 10
137.6148052157343
 20
139.3785469012487
 30
0.0
  0
SPLINE
  5
122
330
1F
100
AcDbEntity
  8
0
  6
Continuous
 62
     7
370
    25
100
AcDbSpline
210
0.0
220
0.0
230
1.0
 70
     8
 71
     3
 72
    14
 73
    10
 74
     0
 42
0.000000001
 43
0.00000001
 40
0.0
 40
0.0
 40
0.0
 40
0.0
 40
0.25
 40
0.25
 40
0.5
 40
0.5
 40
0.75
 40
0.75
 40
1.0
 40
1.0
 40
1.0
 40
1.0
 10
137.6148052157343
 20
139.3785469012487
 30
0.0
 10
137.7480346667576
 20
139.3823119972861
 30
0.0
 10
137.8797360293678
 20
139.4065740141238
 30
0.0
 10
138.1228136875849
 20
139.4928053647673
 30
0.0
 10
138.2337196281335
 20
139.5549615249392
 30
0.0
 10
138.4164167012112
 20
139.7077677519267
 30
0.0
 10
138.4898042306928
 20
139.7997534599849
 30
0.0
 10
138.5886385096111
 20
140.0022227970636
 30
0.0
 10
138.6148052157343
 20
140.1139840254218
 30
0.0
 10
138.6148052157343
 20
140.2285379929478
 30
0.0
  0
LINE
  5
123
330
1F
100
AcDbEntity
  8
0
  6
Continuous
 62
     7
370
    25
100
AcDbLine
 10
138.6148052366
 20
140.2285370776
 30
0.0
 11
138.6148052366
 21
140.3137456426
 31
0.0
  0
SPLINE
  5
124
330
1F
100
AcDbEntity
  8
0
  6
Continuous
 62
     7
370
    25
100
AcDbSpline
210
0.0
220
0.0
230
1.0
 70
     8
 71
     3
 72
    10
 73
     6
 74
     0
 42
0.000000001
 43
0.00000001
 40
0.0
 40
0.0
 40
0.0
 40
0.0
 40
0.5
 40
0.5
 40
1.0
 40
1.0
 40
1.0
 40
1.0
 10
138.6148052157343
 20
140.3137465577
 30
0.0
 10
138.8659981056058
 20
140.674252780466
 30
0.0
 10
139.1132674173076
 20
141.0183436603753
 30
0.0
 10
139.5998887686185
 20
141.669805075431
 30
0.0
 10
139.8392720763352
 20
141.9773905152353
 30
0.0
 10
140.0740030203043
 20
142.2607814451433
 30
0.0
  0
SPLINE
  5
125
330
1F
100
AcDbEntity
  8
0
  6
Continuous
 62
     7
370
    25
100
AcDbSpline
210
0.0
220
0.0
230
1.0
 70
     8
 71
     3
 72
     8
 73
     4
 74
     0
 42
0.000000001
 43
0.00000001
 40
0.0
 40
0.0
 40
0.0
 40
0.0
 40
1.0
 40
1.0
 40
1.0
 40
1.0
 10
139.0805163407863
 20
86.05356060683238
 30
0.0
 10
138.9264338735625
 20
86.26970750823007
 30
0.0
 10
138.7712072517182
 20
86.49136021754907
 30
0.0
 10
138.6148052157343
 20
86.71829046238723
 30
0.0
  0
LINE
  5
126
330
1F
100
AcDbEntity
  8
0
  6
Continuous
 62
     7
370
    25
100
AcDbLine
 10
138.6148052366
 20
86.7182902792
 30
0.0
 11
138.6148052366
 21
86.8037074605
 31
0.0
  0
SPLINE
  5
127
330
1F
100
AcDbEntity
  8
0
  6
Continuous
 62
     7
370
    25
100
AcDbSpline
210
0.0
220
0.0
230
1.0
 70
     8
 71
     3
 72
    14
 73
    10
 74
     0
 42
0.000000001
 43
0.00000001
 40
0.0
 40
0.0
 40
0.0
 40
0.0
 40
0.25
 40
0.25
 40
0.5
 40
0.5
 40
0.75
 40
0.75
 40
1.0
 40
1.0
 40
1.0
 40
1.0
 10
138.6148052157343
 20
86.80370653168464
 30
0.0
 10
138.6148052157343
 20
86.91783243588199
 30
0.0
 10
138.5887650589773
 20
87.03053984946573
 30
0.0
 10
138.489973875776
 20
87.23473561328129
 30
0.0
 10
138.417266228359
 20
87.3271398044833
 30
0.0
 10
138.2334944504924
 20
87.4826925327883
 30
0.0
 10
138.1244244198002
 20
87.54470199942078
 30
0.0
 10
137.8788000713415
 20
87.63259210814608
 30
0.0
 10
137.7482449457541
 20
87.6564003605681
 30
0.0
 10
137.6148052157343
 20
87.65958492619919
 30
0.0
  0
SPLINE
  5
128
330
1F
100
AcDbEntity
  8
0
  6
Continuous
 62
     7
370
    25
100
AcDbSpline
210
0.0
220
0.0
230
1.0
 70
     8
 71
     3
 72
    10
 73
     6
 74
     0
 42
0.000000001
 43
0.00000001
 40
0.0
 40
0.0
 40
0.0
 40
0.0
 40
0.5
 40
0.5
 40
1.0
 40
1.0
 40
1.0
 40
1.0
 10
137.6148052157343
 20
87.65958492619916
 30
0.0
 10
137.3068253571064
 20
87.66693492662789
 30
0.0
 10
137.006805346983
 20
87.68631776339053
 30
0.0
 10
136.4219940029886
 20
87.74913121882147
 30
0.0
 10
136.1353421966407
 20
87.79307175694233
 30
0.0
 10
135.8648052157343
 20
87.84946979609657
 30
0.0
  0
SPLINE
  5
129
330
1F
100
AcDbEntity
  8
0
  6
Continuous
 62
     7
370
    25
100
AcDbSpline
210
0.0
220
0.0
230
1.0
 70
     8
 71
     3
 72
    16
 73
    12
 74
     0
 42
0.000000001
 43
0.00000001
 40
0.0
 40
0.0
 40
0.0
 40
0.0
 40
0.2499999999999992
 40
0.2499999999999992
 40
0.4999999999999984
 40
0.4999999999999984
 40
0.7499999999999977
 40
0.7499999999999977
 40
0.8749999999999988
 40
0.8749999999999988
 40
1.0
 40
1.0
 40
1.0
 40
1.0
 10
135.8648052157343
 20
87.84946979609657
 30
0.0
 10
135.7310280469889
 20
87.87735792427618
 30
0.0
 10
135.6074495571507
 20
87.88446803753165
 30
0.0
 10
135.3763896098606
 20
87.86538635710392
 30
0.0
 10
135.2720722868194
 20
87.83904495714599
 30
0.0
 10
135.0902450836499
 20
87.75083373876554
 30
0.0
 10
135.0134803172536
 20
87.68984479177728
 30
0.0
 10
134.9279746751237
 20
87.56141603971457
 30
0.0
 10
134.9052240252235
 20
87.51327878607792
 30
0.0
 10
134.8734937509976
 20
87.40391386116549
 30
0.0
 10
134.8648052157343
 20
87.34248000861774
 30
0.0
 10
134.8648052157343
 20
87.27700268444048
 30
0.0
  0
LINE
  5
12A
330
1F
100
AcDbEntity
  8
0
  6
Continuous
 62
     7
370
    25
100
AcDbLine
 10
134.8648050876
 20
87.2770018676
 30
0.0
 11
134.8648050876
 21
87.1920335839
 31
0.0
  0
SPLINE
  5
12B
330
1F
100
AcDbEntity
  8
0
  6
Continuous
 62
     7
370
    25
100
AcDbSpline
210
0.0
220
0.0
230
1.0
 70
     8
 71
     3
 72
     8
 73
     4
 74
     0
 42
0.000000001
 43
0.00000001
 40
0.0
 40
0.0
 40
0.0
 40
0.0
 40
1.0
 40
1.0
 40
1.0
 40
1.0
 10
134.8648052157344
 20
87.19203355768899
 30
0.0
 10
134.7380452027052
 20
87.05396324754193
 30
0.0
 10
134.6151927889735
 20
86.92788419670835
 30
0.0
 10
134.4972815495863
 20
86.8173794875076
 30
0.0
  0
LINE
  5
12C
330
1F
100
AcDbEntity
  8
0
  6
Continuous
 62
     7
370
    25
100
AcDbLine
 10
87.5050013961
 20
122.3363850066
 30
0.0
 11
87.6414699556
 21
122.2575951168
 31
0.0
  0
LINE
  5
12D
330
1F
100
AcDbEntity
  8
0
  6
Continuous
 62
     7
370
    25
100
AcDbLine
 10
138.6148052366
 20
140.3137456426
 30
0.0
 11
138.6148052366
 21
142.560639585
 31
0.0
  0
LINE
  5
12E
330
1F
100
AcDbEntity
  8
0
  6
Continuous
 62
     7
370
    25
100
AcDbLine
 10
134.8648050876
 20
84.6654485712
 30
0.0
 11
134.8648050876
 21
87.1920335839
 31
0.0
  0
LINE
  5
12F
330
1F
100
AcDbEntity
  8
0
  6
Continuous
 62
     7
370
    25
100
AcDbLine
 10
138.6148052366
 20
84.6654485712
 30
0.0
 11
138.6148052366
 21
86.7182902792
 31
0.0
  0
LINE
  5
130
330
1F
100
AcDbEntity
  8
0
  6
Continuous
 62
     7
370
    25
100
AcDbLine
 10
95.7183780225
 20
104.9600366304
 30
0.0
 11
96.1898060591
 21
105.5505445028
 31
0.0
  0
LINE
  5
131
330
1F
100
AcDbEntity
  8
0
  6
Continuous
 62
     7
370
    25
100
AcDbLine
 10
101.3473438175
 20
121.6755436534
 30
0.0
 11
101.2115346344
 21
121.6755436534
 31
0.0
  0
LINE
  5
132
330
1F
100
AcDbEntity
  8
0
  6
Continuous
 62
     7
370
    25
100
AcDbLine
 10
101.2120263727
 20
105.5505445028
 30
0.0
 11
101.349320084
 21
105.5505445028
 31
0.0
  0
DIMENSION
  5
133
330
1F
100
AcDbEntity
  8
VERMASSUNG
100
AcDbDimension
  2
_D
 10
236.8398052157
 20
102.6130440781
 30
0.0
 11
236.8398052157
 21
113.6130440781
 31
0.0
 70
   160
  1
%%c<>
 71
     2
 42
-1.0
  3
SLDDIMSTYLE0
100
AcDbAlignedDimension
 13
226.3398052157
 23
124.6130440781
 33
0.0
 14
226.3398052157
 24
102.6130440781
 34
0.0
 50
90.0
100
AcDbRotatedDimension
  0
DIMENSION
  5
13F
330
1F
100
AcDbEntity
  8
VERMASSUNG
100
AcDbDimension
  2
_D_1
 10
197.8644444873
 20
104.1130440781
 30
0.0
 11
197.8644444873
 21
133.5492849586
 31
0.0
 70
   160
  1
%%c<>
 71
     2
 42
-1.0
  3
SLDDIMSTYLE0
100
AcDbAlignedDimension
 13
193.6660276787
 23
123.1130440781
 33
0.0
 14
193.6660276787
 24
104.1130440781
 34
0.0
 50
90.0
100
AcDbRotatedDimension
  0
DIMENSION
  5
149
330
1F
100
AcDbEntity
  8
VERMASSUNG
100
AcDbDimension
  2
_D_2
 10
226.8398052157
 20
151.72112332
 30
0.0
 11
185.8398052157
 21
151.72112332
 31
0.0
 70
   160
  1
<>
 71
     2
 42
-1.0
  3
SLDDIMSTYLE0
100
AcDbAlignedDimension
 13
144.8398052157
 23
144.0880440781
 33
0.0
 14
226.8398052157
 24
119.9630440781
 34
0.0
100
AcDbRotatedDimension
  0
DIMENSION
  5
153
330
1F
100
AcDbEntity
  8
VERMASSUNG
100
AcDbDimension
  2
_D_3
 10
226.8398052157
 20
161.0880440781
 30
0.0
 11
176.8398052157
 21
161.0880440781
 31
0.0
 70
   160
  1
<>
 71
     2
 42
-1.0
  3
SLDDIMSTYLE0
100
AcDbAlignedDimension
 13
126.8398052157
 23
144.8880440781
 33
0.0
 14
226.8398052157
 24
122.0948531578
 34
0.0
100
AcDbRotatedDimension
  0
DIMENSION
  5
15D
330
1F
100
AcDbEntity
  8
VERMASSUNG
100
AcDbDimension
  2
_D_4
 10
226.8398052157
 20
170.2656032459
 30
0.0
 11
156.8648052157
 21
170.2656032459
 31
0.0
 70
   160
  1
<>
 71
     2
 42
-1.0
  3
SLDDIMSTYLE0
100
AcDbAlignedDimension
 13
86.8898052157
 23
135.8161388019
 33
0.0
 14
226.8398052157
 24
122.0948531578
 34
0.0
100
AcDbRotatedDimension
  0
DIMENSION
  5
167
330
1F
100
AcDbEntity
  8
VERMASSUNG
100
AcDbDimension
  2
_D_5
 10
76.8897802157
 20
145.0880440781
 30
0.0
 11
76.8897802157
 21
113.6130440781
 31
0.0
 70
   160
  1
KM%%c<> XMZ
 71
     2
 42
-1.0
  3
SLDDIMSTYLE1
100
AcDbAlignedDimension
 13
127.0398052157
 23
82.1380440781
 33
0.0
 14
127.0398052157
 24
145.0880440781
 34
0.0
 50
90.0
100
AcDbRotatedDimension
  0
LINE
  5
175
330
1F
100
AcDbEntity
  8
VERMASSUNG
  6
CENTERX2
370
    18
100
AcDbLine
 10
163.6465413542
 20
113.6130440781
 30
0.0
 11
84.8898052157
 21
113.6130440781
 31
0.0
  0
LINE
  5
176
330
1F
100
AcDbEntity
  8
VERMASSUNG
  6
CENTERX2
370
    18
100
AcDbLine
 10
228.8398052157
 20
113.6130440781
 30
0.0
 11
167.9543542083
 21
113.6130440781
 31
0.0
  0
LINE
  5
177
330
1F
100
AcDbEntity
  8
0
  6
Continuous
 62
     7
370
    25
100
AcDbLine
 10
241.5728505049
 20
37.8950050141
 30
0.0
 11
245.4904053423
 21
35.633448745
 31
0.0
  0
LINE
  5
178
330
1F
100
AcDbEntity
  8
0
  6
Continuous
 62
     7
370
    25
100
AcDbLine
 10
250.989958273
 20
45.1599861402
 30
0.0
 11
247.0724034355
 21
47.4215424093
 31
0.0
  0
LINE
  5
179
330
1F
100
AcDbEntity
  8
0
  6
Continuous
 62
     7
370
    25
100
AcDbLine
 10
244.3219948841
 20
47.1488832572
 30
0.0
 11
244.039198622
 21
46.9855746097
 31
0.0
  0
LINE
  5
17A
330
1F
100
AcDbEntity
  8
0
  6
Continuous
 62
     7
370
    25
100
AcDbLine
 10
240.433540024
 20
40.7397142964
 30
0.0
 11
240.4335396947
 21
40.4131514164
 31
0.0
  0
LINE
  5
17B
330
1F
100
AcDbEntity
  8
0
  6
Continuous
 62
     7
370
    25
100
AcDbLine
 10
250.3690216434
 20
34.6775197144
 30
0.0
 11
250.5457699658
 21
34.7795871439
 31
0.0
  0
LINE
  5
17C
330
1F
100
AcDbEntity
  8
0
  6
Continuous
 62
     7
370
    25
100
AcDbLine
 10
236.4416582314
 20
41.723181068
 30
0.0
 11
240.561388867
 21
39.344911195
 31
0.0
  0
LINE
  5
17D
330
1F
100
AcDbEntity
  8
0
  6
Continuous
 62
     7
370
    25
100
AcDbLine
 10
245.3110028364
 20
47.5723755251
 30
0.0
 11
241.1912722009
 21
49.9506453981
 31
0.0
  0
SPLINE
  5
17E
330
1F
100
AcDbEntity
  8
0
  6
Continuous
 62
     7
370
    25
100
AcDbSpline
210
0.0
220
0.0
230
1.0
 70
     8
 71
     3
 72
    14
 73
    10
 74
     0
 42
0.000000001
 43
0.00000001
 40
0.0
 40
0.0
 40
0.0
 40
0.0
 40
0.0094518668956645
 40
0.1872866574503483
 40
0.3655087389873879
 40
0.5439666569944611
 40
0.7225229290558017
 40
0.9010513378495871
 40
1.0
 40
1.0
 40
1.0
 40
1.0
 10
219.5666939367251
 20
49.43570434433925
 30
0.0
 10
219.6216661918692
 20
49.41763123500416
 30
0.0
 10
220.7109293006391
 20
49.05951656046761
 30
0.0
 10
222.8184943930403
 20
48.25818979222169
 30
0.0
 10
225.8801589018167
 20
47.02366950226379
 30
0.0
 10
228.909772656372
 20
45.66891150201209
 30
0.0
 10
231.8978175157651
 20
44.20695026061108
 30
0.0
 10
234.410352354982
 20
42.88882419605066
 30
0.0
 10
235.9026471545292
 20
42.02066312200162
 30
0.0
 10
236.4348013013449
 20
41.71107582343348
 30
0.0
  0
SPLINE
  5
17F
330
1F
100
AcDbEntity
  8
0
  6
Continuous
 62
     7
370
    25
100
AcDbSpline
210
0.0
220
0.0
230
1.0
 70
     8
 71
     3
 72
    14
 73
    10
 74
     0
 42
0.000000001
 43
0.00000001
 40
0.0
 40
0.0
 40
0.0
 40
0.0
 40
0.0054964256302941
 40
0.1836833848831975
 40
0.3615292257344085
 40
0.5389081241808488
 40
0.7157095460075467
 40
0.8918187551550304
 40
0.9999999999999999
 40
0.9999999999999999
 40
0.9999999999999999
 40
0.9999999999999999
 10
241.1917137549694
 20
49.95233370124065
 30
0.0
 10
241.1618167521773
 20
49.9689477800186
 30
0.0
 10
240.1626978629047
 20
50.52416865116617
 30
0.0
 10
238.2469766448552
 20
51.70712191507161
 30
0.0
 10
235.4586732622829
 20
53.50316162376238
 30
0.0
 10
232.7499117968926
 20
55.3946196975127
 30
0.0
 10
230.1234988008695
 20
57.36471305950895
 30
0.0
 10
227.8950327350564
 20
59.13810962588023
 30
0.0
 10
226.5775317376629
 20
60.28254528825059
 30
0.0
 10
226.0761821637293
 20
60.7180381894772
 30
0.0
  0
SPLINE
  5
180
330
1F
100
AcDbEntity
  8
0
  6
Continuous
 62
     7
370
    25
100
AcDbSpline
210
0.0
220
0.0
230
1.0
 70
     8
 71
     3
 72
    20
 73
    16
 74
     0
 42
0.000000001
 43
0.00000001
 40
0.0
 40
0.0
 40
0.0
 40
0.0
 40
0.0126983792262757
 40
0.0997025953600578
 40
0.187291539306607
 40
0.2754231045106319
 40
0.3639784111205133
 40
0.4528158062015797
 40
0.5418093454928957
 40
0.6308651984176126
 40
0.7199102053332782
 40
0.8089152560489261
 40
0.8978691384060024
 40
0.986770784828294
 40
0.9999999999999999
 40
0.9999999999999999
 40
0.9999999999999999
 40
0.9999999999999999
 10
215.6824598050241
 20
41.63833276111672
 30
0.0
 10
215.7222807714347
 20
41.63209272601136
 30
0.0
 10
216.0349390745245
 20
41.58309846587343
 30
0.0
 10
216.6561334806316
 20
41.59061731186618
 30
0.0
 10
217.5420494816927
 20
41.6675667961093
 30
0.0
 10
218.458465018445
 20
41.85809966451755
 30
0.0
 10
219.39418634505
 20
42.14850071255763
 30
0.0
 10
220.343259312592
 20
42.54016622914325
 30
0.0
 10
221.2980582204581
 20
43.02913675027646
 30
0.0
 10
222.2515380506324
 20
43.6115721275905
 30
0.0
 10
223.1963859961565
 20
44.28331411046625
 30
0.0
 10
224.1270372105895
 20
45.03711286321487
 30
0.0
 10
225.0327210843571
 20
45.87497665584995
 30
0.0
 10
225.6707757879323
 20
46.51060691771004
 30
0.0
 10
225.9940225922061
 20
46.88335045800593
 30
0.0
 10
226.0358933985477
 20
46.93163267575555
 30
0.0
  0
SPLINE
  5
181
330
1F
100
AcDbEntity
  8
0
  6
Continuous
 62
     7
370
    25
100
AcDbSpline
210
0.0
220
0.0
230
1.0
 70
     8
 71
     3
 72
    20
 73
    16
 74
     0
 42
0.000000001
 43
0.00000001
 40
0.0
 40
0.0
 40
0.0
 40
0.0
 40
0.0402333651780259
 40
0.1232167035915754
 40
0.2062573049109965
 40
0.2893633629926182
 40
0.3725391022329458
 40
0.4557819465259684
 40
0.5390776042060289
 40
0.622385059797904
 40
0.7056267007397247
 40
0.7886970757550099
 40
0.8714585572600008
 40
0.9537639037382372
 40
1.0
 40
1.0
 40
1.0
 40
1.0
 10
231.4770775538122
 20
56.3708523361333
 30
0.0
 10
231.5420073744787
 20
56.56768698645106
 30
0.0
 10
231.7408582146187
 20
57.17050299891827
 30
0.0
 10
231.9939356562443
 20
58.17402581641009
 30
0.0
 10
232.2372300377265
 20
59.37119088133528
 30
0.0
 10
232.3976414278397
 20
60.54525776280717
 30
0.0
 10
232.4786301646316
 20
61.68827665848507
 30
0.0
 10
232.4777679259002
 20
62.79223291851246
 30
0.0
 10
232.3947773000433
 20
63.84926177497872
 30
0.0
 10
232.2295604073544
 20
64.85167628547444
 30
0.0
 10
231.9824014256141
 20
65.79138899611421
 30
0.0
 10
231.6558129785629
 20
66.66227192240932
 30
0.0
 10
231.2478660052137
 20
67.45168510859429
 30
0.0
 10
230.8455010095231
 20
68.06897724239917
 30
0.0
 10
230.5518044156797
 20
68.38580162617399
 30
0.0
 10
230.4461623465132
 20
68.49976271447385
 30
0.0
  0
SPLINE
  5
182
330
1F
100
AcDbEntity
  8
0
  6
Continuous
 62
     7
370
    25
100
AcDbSpline
210
0.0
220
0.0
230
1.0
 70
     8
 71
     3
 72
     9
 73
     5
 74
     0
 42
0.000000001
 43
0.00000001
 40
0.0
 40
0.0
 40
0.0
 40
0.0
 40
0.0119656868247331
 40
1.0
 40
1.0
 40
1.0
 40
1.0
 10
214.978426993697
 20
41.74445644527717
 30
0.0
 10
214.9810963371347
 20
41.74368172746883
 30
0.0
 10
215.2041795146303
 20
41.67893677636965
 30
0.0
 10
215.4447590092718
 20
41.65851257393822
 30
0.0
 10
215.6824598050241
 20
41.63833276111672
 30
0.0
  0
LINE
  5
183
330
1F
100
AcDbEntity
  8
0
  6
Continuous
 62
     7
370
    25
100
AcDbLine
 10
212.0007119752
 20
43.1457102727
 30
0.0
 11
213.3321243342
 21
42.3771022781
 31
0.0
  0
LINE
  5
184
330
1F
100
AcDbEntity
  8
0
  6
Continuous
 62
     7
370
    25
100
AcDbLine
 10
229.0683456487
 20
69.6359906719
 30
0.0
 11
227.7369332897
 21
70.4045986665
 31
0.0
  0
LINE
  5
185
330
1F
100
AcDbEntity
  8
0
  6
Continuous
 62
     7
370
    25
100
AcDbLine
 10
207.3924270438
 20
45.8060165374
 30
0.0
 11
209.6430780202
 21
44.5067433845
 31
0.0
  0
LINE
  5
186
330
1F
100
AcDbEntity
  8
0
  6
Continuous
 62
     7
370
    25
100
AcDbLine
 10
225.3792993348
 20
71.7656317783
 30
0.0
 11
223.1286483584
 21
73.0649049312
 31
0.0
  0
LINE
  5
187
330
1F
100
AcDbEntity
  8
0
  6
Continuous
 62
     7
370
    25
100
AcDbLine
 10
216.3512591681
 20
72.8447868388
 30
0.0
 11
207.1540469845
 21
77.4254394487
 31
0.0
  0
LINE
  5
188
330
1F
100
AcDbEntity
  8
0
  6
Continuous
 62
     7
370
    25
100
AcDbLine
 10
195.6276991948
 20
57.459055993
 30
0.0
 11
204.1937992005
 21
51.7851663966
 31
0.0
  0
LINE
  5
189
330
1F
100
AcDbEntity
  8
0
  6
Continuous
 62
     7
370
    25
100
AcDbLine
 10
200.6071366365
 20
58.4055458587
 30
0.0
 11
200.6071366365
 21
58.0402271537
 31
0.0
  0
LINE
  5
18A
330
1F
100
AcDbEntity
  8
0
  6
Continuous
 62
     7
370
    25
100
AcDbLine
 10
204.5051033969
 20
77.8024078254
 30
0.0
 11
203.8655532881
 21
77.7151960699
 31
0.0
  0
ARC
  5
18B
330
1F
100
AcDbEntity
  8
0
  6
Continuous
 62
     7
370
    25
100
AcDbCircle
 10
251.6683216005
 20
41.8102748781
 30
0.0
 40
2.570692559521953
100
AcDbArc
 50
0.7037143879
 51
55.2254060532
  0
LINE
  5
18C
330
1F
100
AcDbEntity
  8
0
  6
Continuous
 62
     7
370
    25
100
AcDbLine
 10
253.1345145547
 20
43.921847386
 30
0.0
 11
251.0179208959
 21
45.1437308967
 31
0.0
  0
ELLIPSE
  5
18D
330
1F
100
AcDbEntity
  8
0
  6
Continuous
 62
     7
370
    25
100
AcDbEllipse
 10
258.9597367802
 20
34.2084500779
 30
0.0
 11
-9.096703821521601
 21
11.2034451414406
 31
0.0
210
0.0
220
0.0
230
1.0
 40
0.1422875476
 41
5.921018261252193
 42
6.28668853523793
  0
LINE
  5
18E
330
1F
100
AcDbEntity
  8
0
  6
Continuous
 62
     7
370
    25
100
AcDbLine
 10
251.9740980517
 20
44.185408469
 30
0.0
 11
249.8575043929
 21
45.4072919797
 31
0.0
  0
ARC
  5
18F
330
1F
100
AcDbEntity
  8
0
  6
Continuous
 62
     7
370
    25
100
AcDbCircle
 10
252.5199486169
 20
39.7222847785
 30
0.0
 40
4.49637920071144
100
AcDbArc
 50
96.9727807355
 51
134.223123986
  0
LINE
  5
190
330
1F
100
AcDbEntity
  8
0
  6
Continuous
 62
     7
370
    25
100
AcDbLine
 10
249.3839292321
 20
42.9445213208
 30
0.0
 11
247.2673355733
 21
44.1664048315
 31
0.0
  0
ELLIPSE
  5
191
330
1F
100
AcDbEntity
  8
0
  6
Continuous
 62
     7
370
    25
100
AcDbEllipse
 10
258.9597367802
 20
34.2084500779
 30
0.0
 11
12.64990456530279
 21
-9.264434800649102
 31
0.0
210
0.0
220
0.0
230
1.0
 40
0.3355941499
 41
2.926080317663634
 42
3.291750591649494
  0
LINE
  5
192
330
1F
100
AcDbEntity
  8
0
  6
Continuous
 62
     7
370
    25
100
AcDbLine
 10
248.1036673421
 20
41.5116901992
 30
0.0
 11
245.9870736833
 21
42.7335737099
 31
0.0
  0
ARC
  5
193
330
1F
100
AcDbEntity
  8
0
  6
Continuous
 62
     7
370
    25
100
AcDbCircle
 10
255.432207608
 20
36.2398309973
 30
0.0
 40
9.02773514634365
100
AcDbArc
 50
144.2702675815
 51
167.519419608
  0
LINE
  5
194
330
1F
100
AcDbEntity
  8
0
  6
Continuous
 62
     7
370
    25
100
AcDbLine
 10
246.6178040701
 20
38.1908030997
 30
0.0
 11
244.5012104113
 21
39.4126866104
 31
0.0
  0
ELLIPSE
  5
195
330
1F
100
AcDbEntity
  8
0
  6
Continuous
 62
     7
370
    25
100
AcDbEllipse
 10
258.9597367802
 20
34.2084500779
 30
0.0
 11
14.70157946333472
 21
-4.75709986787054
 31
0.0
210
0.0
220
0.0
230
1.0
 40
0.2945880084
 41
3.031474080555985
 42
3.397144354541846
  0
LINE
  5
196
330
1F
100
AcDbEntity
  8
0
  6
Continuous
 62
     7
370
    25
100
AcDbLine
 10
246.4979588478
 20
36.4944108475
 30
0.0
 11
244.381365189
 21
37.7162943582
 31
0.0
  0
ARC
  5
197
330
1F
100
AcDbEntity
  8
0
  6
Continuous
 62
     7
370
    25
100
AcDbCircle
 10
249.0684575143
 20
36.5259836418
 30
0.0
 40
2.570692559522171
100
AcDbArc
 50
180.7037143879
 51
235.2254060532
  0
LINE
  5
198
330
1F
100
AcDbEntity
  8
0
  6
Continuous
 62
     7
370
    25
100
AcDbLine
 10
247.60226456
 20
34.4144111338
 30
0.0
 11
245.4856709012
 21
35.6362946445
 31
0.0
  0
ELLIPSE
  5
199
330
1F
100
AcDbEntity
  8
0
  6
Continuous
 62
     7
370
    25
100
AcDbEllipse
 10
258.9597367802
 20
34.2084500779
 30
0.0
 11
13.49507481009408
 21
-1.453250875982526
 31
0.0
210
0.0
220
0.0
230
1.0
 40
0.0287563541
 41
3.200581581844635
 42
3.212506040199874
  0
LINE
  5
19A
330
1F
100
AcDbEntity
  8
0
  6
Continuous
 62
     7
370
    25
100
AcDbLine
 10
248.7626810631
 20
34.1508500509
 30
0.0
 11
247.9235267725
 21
34.6352835114
 31
0.0
  0
ARC
  5
19B
330
1F
100
AcDbEntity
  8
0
  6
Continuous
 62
     7
370
    25
100
AcDbCircle
 10
248.4638012319
 20
37.7754337908
 30
0.0
 40
3.636885541422144
100
AcDbArc
 50
274.7138923855
 51
301.5915593749
  0
LINE
  5
19C
330
1F
100
AcDbEntity
  8
0
  6
Continuous
 62
     7
370
    25
100
AcDbLine
 10
252.6331117726
 20
36.8245683207
 30
0.0
 11
252.194028539
 21
37.078045676
 31
0.0
  0
LINE
  5
19D
330
1F
100
AcDbEntity
  8
0
  6
Continuous
 62
     7
370
    25
100
AcDbLine
 10
254.1189750446
 20
40.1454554202
 30
0.0
 11
253.5381572278
 21
40.4807544088
 31
0.0
  0
LWPOLYLINE
  5
19E
330
1F
100
AcDbEntity
  8
0
  6
Continuous
 62
     7
370
    25
100
AcDbPolyline
 90
       13
 70
   128
 43
0.0
 10
241.1314812986
 20
43.3830669037
 10
241.5082148553
 20
44.1329816157
 10
241.9509158032
 20
44.8483301413
 10
242.449207621
 20
45.5123459126
 10
242.9914107751
 20
46.1094647287
 10
243.5648165088
 20
46.6256902267
 10
244.1559847108
 20
47.0489228734
 10
244.7510588638
 20
47.3692425422
 10
245.3360909127
 20
47.5791413037
 10
245.8973682322
 20
47.6736988712
 10
246.4217349552
 20
47.6506988982
 10
246.8969003363
 20
47.5106811357
 10
247.0724034355
 20
47.4215424093
  0
LWPOLYLINE
  5
19F
330
1F
100
AcDbEntity
  8
0
  6
Continuous
 62
     7
370
    25
100
AcDbPolyline
 90
       11
 70
   128
 43
0.0
 10
241.5728505049
 20
37.8950050141
 10
241.5327541993
 20
37.9188370256
 10
241.1518408606
 20
38.2273908518
 10
240.845248221
 20
38.6398009655
 10
240.6201623179
 20
39.1464006387
 10
240.4818587516
 20
39.7353154137
 10
240.433579866
 20
40.3927421036
 10
240.4764570403
 20
41.1032709802
 10
240.6094850066
 20
41.8502476976
 10
240.8295458857
 20
42.6161638467
 10
241.1314812986
 20
43.3830669037
  0
ARC
  5
1A0
330
1F
100
AcDbEntity
  8
0
  6
Continuous
 62
     7
370
    25
100
AcDbCircle
 10
245.7031917326
 20
41.8669508756
 30
0.0
 40
8.62724412537451
100
AcDbArc
 50
324.576602925
 51
347.2130829281
  0
LINE
  5
1A1
330
1F
100
AcDbEntity
  8
0
  6
Continuous
 62
     7
370
    25
100
AcDbLine
 10
252.4619423902
 20
37.3778867252
 30
0.0
 11
252.7334568335
 21
36.8664795168
 31
0.0
  0
LINE
  5
1A2
330
1F
100
AcDbEntity
  8
0
  6
Continuous
 62
     7
370
    25
100
AcDbLine
 10
251.1816805414
 20
35.9450556273
 30
0.0
 11
252.4619423902
 21
37.3778867252
 31
0.0
  0
LINE
  5
1A3
330
1F
100
AcDbEntity
  8
0
  6
Continuous
 62
     7
370
    25
100
AcDbLine
 10
251.1816805414
 20
35.9450556273
 30
0.0
 11
251.4531950258
 21
35.4336484427
 31
0.0
  0
ARC
  5
1A4
330
1F
100
AcDbEntity
  8
0
  6
Continuous
 62
     7
370
    25
100
AcDbCircle
 10
248.4846241616
 20
38.5364048493
 30
0.0
 40
4.294125090718655
100
AcDbArc
 50
277.4620336848
 51
313.7338824892
  0
LINE
  5
1A5
330
1F
100
AcDbEntity
  8
0
  6
Continuous
 62
     7
370
    25
100
AcDbLine
 10
249.4076262977
 20
35.095148987
 30
0.0
 11
249.0422987319
 21
34.2786461234
 31
0.0
  0
LINE
  5
1A6
330
1F
100
AcDbEntity
  8
0
  6
Continuous
 62
     7
370
    25
100
AcDbLine
 10
248.2472097946
 20
35.35871026
 30
0.0
 11
249.4076262977
 21
35.095148987
 31
0.0
  0
LINE
  5
1A7
330
1F
100
AcDbEntity
  8
0
  6
Continuous
 62
     7
370
    25
100
AcDbLine
 10
248.2472097946
 20
35.35871026
 30
0.0
 11
247.8818822288
 21
34.5422073965
 31
0.0
  0
ARC
  5
1A8
330
1F
100
AcDbEntity
  8
0
  6
Continuous
 62
     7
370
    25
100
AcDbCircle
 10
249.3038734908
 20
36.5380417971
 30
0.0
 40
2.450594642988891
100
AcDbArc
 50
181.3982131244
 51
234.5309037423
  0
LINE
  5
1A9
330
1F
100
AcDbEntity
  8
0
  6
Continuous
 62
     7
370
    25
100
AcDbLine
 10
247.4908503538
 20
36.7833403484
 30
0.0
 11
246.8540085093
 21
36.4782448358
 31
0.0
  0
LINE
  5
1AA
330
1F
100
AcDbEntity
  8
0
  6
Continuous
 62
     7
370
    25
100
AcDbLine
 10
247.6106959053
 20
38.4797327907
 30
0.0
 11
247.4908503538
 21
36.7833403484
 31
0.0
  0
LINE
  5
1AB
330
1F
100
AcDbEntity
  8
0
  6
Continuous
 62
     7
370
    25
100
AcDbLine
 10
247.6106959053
 20
38.4797327907
 30
0.0
 11
246.9738537316
 21
38.1746371355
 31
0.0
  0
ARC
  5
1AC
330
1F
100
AcDbEntity
  8
0
  6
Continuous
 62
     7
370
    25
100
AcDbCircle
 10
255.3871414893
 20
36.2652052027
 30
0.0
 40
8.627244125374531
100
AcDbArc
 50
144.576602925
 51
167.2130829281
  0
LINE
  5
1AD
330
1F
100
AcDbEntity
  8
0
  6
Continuous
 62
     7
370
    25
100
AcDbLine
 10
248.6283908316
 20
40.7542693531
 30
0.0
 11
248.3568763884
 21
41.2656765615
 31
0.0
  0
LINE
  5
1AE
330
1F
100
AcDbEntity
  8
0
  6
Continuous
 62
     7
370
    25
100
AcDbLine
 10
249.9086526805
 20
42.187100451
 30
0.0
 11
248.6283908316
 21
40.7542693531
 31
0.0
  0
LINE
  5
1AF
330
1F
100
AcDbEntity
  8
0
  6
Continuous
 62
     7
370
    25
100
AcDbLine
 10
249.9086526805
 20
42.187100451
 30
0.0
 11
249.637138196
 21
42.6985076356
 31
0.0
  0
ARC
  5
1B0
330
1F
100
AcDbEntity
  8
0
  6
Continuous
 62
     7
370
    25
100
AcDbCircle
 10
252.6057090602
 20
39.595751229
 30
0.0
 40
4.294125090718641
100
AcDbArc
 50
97.4620336848
 51
133.7338824892
  0
LINE
  5
1B1
330
1F
100
AcDbEntity
  8
0
  6
Continuous
 62
     7
370
    25
100
AcDbLine
 10
251.6827069241
 20
43.0370070913
 30
0.0
 11
252.0480344899
 21
43.8535099549
 31
0.0
  0
LINE
  5
1B2
330
1F
100
AcDbEntity
  8
0
  6
Continuous
 62
     7
370
    25
100
AcDbLine
 10
252.8431234272
 20
42.7734458182
 30
0.0
 11
251.6827069241
 21
43.0370070913
 31
0.0
  0
LINE
  5
1B3
330
1F
100
AcDbEntity
  8
0
  6
Continuous
 62
     7
370
    25
100
AcDbLine
 10
252.8431234272
 20
42.7734458182
 30
0.0
 11
253.208450993
 21
43.5899486818
 31
0.0
  0
ARC
  5
1B4
330
1F
100
AcDbEntity
  8
0
  6
Continuous
 62
     7
370
    25
100
AcDbCircle
 10
251.786459731
 20
41.5941142811
 30
0.0
 40
2.450594642988628
100
AcDbArc
 50
1.3982131244
 51
54.5309037423
  0
LINE
  5
1B5
330
1F
100
AcDbEntity
  8
0
  6
Continuous
 62
     7
370
    25
100
AcDbLine
 10
253.599482868
 20
41.3488157298
 30
0.0
 11
254.2363247125
 21
41.6539112425
 31
0.0
  0
LINE
  5
1B6
330
1F
100
AcDbEntity
  8
0
  6
Continuous
 62
     7
370
    25
100
AcDbLine
 10
253.4796373165
 20
39.6524232876
 30
0.0
 11
253.599482868
 21
41.3488157298
 31
0.0
  0
LINE
  5
1B7
330
1F
100
AcDbEntity
  8
0
  6
Continuous
 62
     7
370
    25
100
AcDbLine
 10
253.4796373165
 20
39.6524232876
 30
0.0
 11
254.1164794902
 21
39.9575189428
 31
0.0
  0
LWPOLYLINE
  5
1B8
330
1F
100
AcDbEntity
  8
0
  6
Continuous
 62
     7
370
    25
100
AcDbPolyline
 90
       32
 70
   128
 43
0.0
 10
248.7030054061
 20
39.4844814354
 10
248.999032687
 20
40.0532548056
 10
249.3583589367
 20
40.5816131393
 10
249.7662731764
 20
41.0479252619
 10
250.2060754995
 20
41.43310025
 10
250.659760198
 20
41.7213692483
 10
251.108753446
 20
41.9009301482
 10
251.5346733627
 20
41.9644319905
 10
251.9200827494
 20
41.9092747193
 10
252.2492028796
 20
41.7377166789
 10
252.5085596035
 20
41.4567815332
 10
252.6875348786
 20
41.0779707588
 10
252.7788012448
 20
40.6167927589
 10
252.7786222854
 20
40.0921282767
 10
252.6870055734
 20
39.5254572987
 10
252.50770152
 20
38.9399791045
 10
252.2480510853
 20
38.3596634373
 10
251.9186844948
 20
37.8082687268
 10
251.5330858589
 20
37.3083685717
 10
251.107041683
 20
36.8804294681
 10
250.6579942594
 20
36.5419708918
 10
250.2043276606
 20
36.3068496868
 10
249.7646150437
 20
36.1846915109
 10
249.3568583607
 20
36.1804977484
 10
248.9977511594
 20
36.2944398978
 10
248.7019951988
 20
36.5218532783
 10
248.4816990547
 20
36.853427595
 10
248.3458813292
 20
37.2755878815
 10
248.3001027724
 20
37.7710512068
 10
248.3462372726
 20
38.3195330065
 10
248.4823962887
 20
38.8985785011
 10
248.7030054061
 20
39.4844814354
  0
LINE
  5
1B9
330
1F
100
AcDbEntity
  8
0
  6
Continuous
 62
     7
370
    25
100
AcDbLine
 10
248.3568763884
 20
41.2656765615
 30
0.0
 11
248.1036673421
 21
41.5116901992
 31
0.0
  0
LINE
  5
1BA
330
1F
100
AcDbEntity
  8
0
  6
Continuous
 62
     7
370
    25
100
AcDbLine
 10
246.9738537316
 20
38.1746371355
 30
0.0
 11
246.6178040701
 21
38.1908030997
 31
0.0
  0
LINE
  5
1BB
330
1F
100
AcDbEntity
  8
0
  6
Continuous
 62
     7
370
    25
100
AcDbLine
 10
247.2673355733
 20
44.1664048315
 30
0.0
 11
249.9086526805
 21
42.187100451
 31
0.0
  0
LINE
  5
1BC
330
1F
100
AcDbEntity
  8
0
  6
Continuous
 62
     7
370
    25
100
AcDbLine
 10
252.0480344899
 20
43.8535099549
 30
0.0
 11
251.9740980517
 21
44.185408469
 31
0.0
  0
LINE
  5
1BD
330
1F
100
AcDbEntity
  8
0
  6
Continuous
 62
     7
370
    25
100
AcDbLine
 10
249.637138196
 20
42.6985076356
 30
0.0
 11
249.3839292321
 21
42.9445213208
 31
0.0
  0
LINE
  5
1BE
330
1F
100
AcDbEntity
  8
0
  6
Continuous
 62
     7
370
    25
100
AcDbLine
 10
244.381365189
 20
37.7162943582
 30
0.0
 11
247.4908503538
 21
36.7833403484
 31
0.0
  0
ARC
  5
1BF
330
1F
100
AcDbEntity
  8
0
  6
Continuous
 62
     7
370
    25
100
AcDbCircle
 10
245.4078056296
 20
42.0318134268
 30
0.0
 40
6.395942792925152
100
AcDbArc
 50
300.8313968782
 51
359.1739794663
  0
LWPOLYLINE
  5
1C0
330
1F
100
AcDbEntity
  8
0
  6
Continuous
 62
     7
370
    25
100
AcDbPolyline
 90
       16
 70
   128
 43
0.0
 10
251.9056594722
 20
41.9137437562
 10
252.0833927324
 20
41.7022251434
 10
252.2623680075
 20
41.323414369
 10
252.3536343738
 20
40.8622363692
 10
252.3534554143
 20
40.3375718869
 10
252.2618387024
 20
39.7709009089
 10
252.0825346489
 20
39.1854227147
 10
251.8228842142
 20
38.6051070475
 10
251.4935176237
 20
38.0537123371
 10
251.1079189878
 20
37.5538121819
 10
250.681874812
 20
37.1258730783
 10
250.2328273884
 20
36.7874145021
 10
249.7791607895
 20
36.552293297
 10
249.3394481726
 20
36.4301351211
 10
248.9316914896
 20
36.4259413587
 10
248.7595063846
 20
36.4638562767
  0
LINE
  5
1C1
330
1F
100
AcDbEntity
  8
0
  6
Continuous
 62
     7
370
    25
100
AcDbLine
 10
246.8540085093
 20
36.4782448358
 30
0.0
 11
246.4979588478
 21
36.4944108475
 31
0.0
  0
SPLINE
  5
1C2
330
1F
100
AcDbEntity
  8
0
  6
Continuous
 62
     7
370
    25
100
AcDbSpline
210
0.0
220
0.0
230
1.0
 70
     8
 71
     3
 72
     9
 73
     5
 74
     0
 42
0.000000001
 43
0.00000001
 40
0.0
 40
0.0
 40
0.0
 40
0.0
 40
0.6252457831536608
 40
1.0
 40
1.0
 40
1.0
 40
1.0
 10
247.8818822288172
 20
34.54220739645046
 30
0.0
 10
247.8236102885735
 20
34.5155531737333
 30
0.0
 10
247.7304118347592
 20
34.47292318176
 30
0.0
 10
247.6371971544994
 20
34.43036135709997
 30
0.0
 10
247.60226456
 20
34.41441113383193
 30
0.0
  0
ARC
  5
1C3
330
1F
100
AcDbEntity
  8
0
  6
Continuous
 62
     7
370
    25
100
AcDbCircle
 10
242.5902141055
 20
43.6583741665
 30
0.0
 40
8.23889197119207
100
AcDbArc
 50
313.8754656935
 51
346.129912686
  0
SPLINE
  5
1C4
330
1F
100
AcDbEntity
  8
0
  6
Continuous
 62
     7
370
    25
100
AcDbSpline
210
0.0
220
0.0
230
1.0
 70
     8
 71
     3
 72
    12
 73
     8
 74
     0
 42
0.000000001
 43
0.00000001
 40
0.0
 40
0.0
 40
0.0
 40
0.0
 40
0.1001324056596304
 40
0.3601268551284502
 40
0.6220821259612068
 40
0.8842932031496548
 40
1.0
 40
1.0
 40
1.0
 40
1.0
 10
251.2282942561054
 20
40.38925208092589
 30
0.0
 10
251.1864250479521
 20
40.23925562816925
 30
0.0
 10
251.0358421656212
 20
39.69979239989839
 30
0.0
 10
250.6159096219818
 20
38.74291515192422
 30
0.0
 10
249.8866931459309
 20
37.69230615035408
 30
0.0
 10
249.1548583470758
 20
36.9858012118484
 30
0.0
 10
248.7028232158952
 20
36.79738472149803
 30
0.0
 10
248.5644240009182
 20
36.73969740351214
 30
0.0
  0
ARC
  5
1C5
330
1F
100
AcDbEntity
  8
0
  6
Continuous
 62
     7
370
    25
100
AcDbCircle
 10
247.2707206066
 20
41.4797057677
 30
0.0
 40
4.105055229127935
100
AcDbArc
 50
344.5952057138
 51
6.5886559841
  0
LINE
  5
1C6
330
1F
100
AcDbEntity
  8
0
  6
Continuous
 62
     7
370
    25
100
AcDbLine
 10
251.0179208959
 20
45.1437308967
 30
0.0
 11
251.5812127031
 21
44.4122163831
 31
0.0
  0
LINE
  5
1C7
330
1F
100
AcDbEntity
  8
0
  6
Continuous
 62
     7
370
    25
100
AcDbLine
 10
252.0345840476
 20
43.8234490083
 30
0.0
 11
252.8431234272
 21
42.7734458182
 31
0.0
  0
LINE
  5
1C8
330
1F
100
AcDbEntity
  8
0
  6
Continuous
 62
     7
370
    25
100
AcDbLine
 10
248.184302989
 20
35.2181153496
 30
0.0
 11
249.4076262977
 21
35.095148987
 31
0.0
  0
ARC
  5
1C9
330
1F
100
AcDbEntity
  8
0
  6
Continuous
 62
     7
370
    25
100
AcDbCircle
 10
247.9555619236
 20
40.6682887078
 30
0.0
 40
7.432765479658249
100
AcDbArc
 50
121.7965938672
 51
157.6588460058
  0
ARC
  5
1CA
330
1F
100
AcDbEntity
  8
0
  6
Continuous
 62
     7
370
    25
100
AcDbCircle
 10
247.3042998843
 20
40.5780643909
 30
0.0
 40
6.87266118399581
100
AcDbArc
 50
154.898225129
 51
178.6522380064
  0
LINE
  5
1CB
330
1F
100
AcDbEntity
  8
0
  6
Continuous
 62
     7
370
    25
100
AcDbLine
 10
253.208450993
 20
43.5899486818
 30
0.0
 11
253.1345145547
 21
43.921847386
 31
0.0
  0
LINE
  5
1CC
330
1F
100
AcDbEntity
  8
0
  6
Continuous
 62
     7
370
    25
100
AcDbLine
 10
254.2363247125
 20
41.6539112425
 30
0.0
 11
254.2388202669
 21
41.8418476723
 31
0.0
  0
ARC
  5
1CD
330
1F
100
AcDbEntity
  8
0
  6
Continuous
 62
     7
370
    25
100
AcDbCircle
 10
245.3044815359
 20
41.8544851514
 30
0.0
 40
5.767039672806571
100
AcDbArc
 50
302.7058092867
 51
0.3544674551
  0
SPLINE
  5
1CE
330
1F
100
AcDbEntity
  8
0
  6
Continuous
 62
     7
370
    25
100
AcDbSpline
210
0.0
220
0.0
230
1.0
 70
     8
 71
     3
 72
     9
 73
     5
 74
     0
 42
0.000000001
 43
0.00000001
 40
0.0
 40
0.0
 40
0.0
 40
0.0
 40
0.6252460219573287
 40
1.0
 40
1.0
 40
1.0
 40
1.0
 10
249.0422987318859
 20
34.27864612337375
 30
0.0
 10
248.984026810212
 20
34.25199187607983
 30
0.0
 10
248.8908284216937
 20
34.20936186108113
 30
0.0
 10
248.7976136642376
 20
34.16680020194448
 30
0.0
 10
248.7626810630687
 20
34.15085005087093
 30
0.0
  0
LINE
  5
1CF
330
1F
100
AcDbEntity
  8
0
  6
Continuous
 62
     7
370
    25
100
AcDbLine
 10
254.1164794902
 20
39.9575189428
 30
0.0
 11
254.1189750446
 21
40.1454554202
 31
0.0
  0
LINE
  5
1D0
330
1F
100
AcDbEntity
  8
0
  6
Continuous
 62
     7
370
    25
100
AcDbLine
 10
252.7334568335
 20
36.8664795168
 30
0.0
 11
252.6331117726
 21
36.8245683207
 31
0.0
  0
ARC
  5
1D1
330
1F
100
AcDbEntity
  8
0
  6
Continuous
 62
     7
370
    25
100
AcDbCircle
 10
216.0163479699
 20
47.0269859737
 30
0.0
 40
5.367305333429842
100
AcDbArc
 50
221.9985941539
 51
257.8226521913
  0
ARC
  5
1D2
330
1F
100
AcDbEntity
  8
0
  6
Continuous
 62
     7
370
    25
100
AcDbCircle
 10
226.3852556035
 20
64.9878434745
 30
0.0
 40
5.365311139675853
100
AcDbArc
 50
41.9586599461
 51
77.6137843305
  0
SPLINE
  5
1D3
330
1F
100
AcDbEntity
  8
0
  6
Continuous
 62
     7
370
    25
100
AcDbSpline
210
0.0
220
0.0
230
1.0
 70
     8
 71
     3
 72
    25
 73
    21
 74
     0
 42
0.000000001
 43
0.00000001
 40
0.0
 40
0.0
 40
0.0
 40
0.0
 40
0.1250000000000009
 40
0.1250000000000009
 40
0.2500000000000018
 40
0.2500000000000018
 40
0.3750000000000027
 40
0.3750000000000027
 40
0.5000000000000036
 40
0.5000000000000036
 40
0.5625000000000031
 40
0.5625000000000031
 40
0.6250000000000027
 40
0.6875000000000022
 40
0.6875000000000022
 40
0.7500000000000018
 40
0.7500000000000018
 40
0.8750000000000009
 40
0.8750000000000009
 40
1.0
 40
1.0
 40
1.0
 40
1.0
 10
215.2592839315716
 20
65.81014790130904
 30
0.0
 10
215.2884072298327
 20
65.69896238077985
 30
0.0
 10
215.300796270692
 20
65.58372016835182
 30
0.0
 10
215.2938187855917
 20
65.34462460051603
 30
0.0
 10
215.2738011977396
 20
65.21985063064076
 30
0.0
 10
215.2035790400264
 20
64.97348172142833
 30
0.0
 10
215.1529283854327
 20
64.84927057406722
 30
0.0
 10
215.0230136417775
 20
64.60564207875706
 30
0.0
 10
214.9453126937883
 20
64.4885849836989
 30
0.0
 10
214.8099391115621
 20
64.31992846584886
 30
0.0
 10
214.761304614255
 20
64.2645614445767
 30
0.0
 10
214.659865278873
 20
64.15884163317968
 30
0.0
 10
214.5539952961323
 20
64.05768067455924
 30
0.0
 10
214.4394035038048
 20
63.96550635288244
 30
0.0
 10
214.3203208345866
 20
63.87796951014232
 30
0.0
 10
214.2583628215291
 20
63.83647104063013
 30
0.0
 10
214.0704991180086
 20
63.72235071889202
 30
0.0
 10
213.9411216816546
 20
63.65874328777743
 30
0.0
 10
213.6734384285925
 20
63.55747498680321
 30
0.0
 10
213.5375667421275
 20
63.52093407857841
 30
0.0
 10
213.4020494753999
 20
63.49976589422835
 30
0.0
  0
LWPOLYLINE
  5
1D4
330
1F
100
AcDbEntity
  8
0
  6
Continuous
 62
     7
370
    25
100
AcDbPolyline
 90
       15
 70
   128
 43
0.0
 10
215.2592840433
 20
65.8101479338
 10
216.2102868502
 20
66.7991083695
 10
217.1922977191
 20
67.7031106886
 10
218.1969934707
 20
68.5144922025
 10
219.2158590011
 20
69.2263760124
 10
220.2402586925
 20
69.8327304854
 10
221.261510253
 20
70.328414923
 10
222.2709580618
 20
70.7092272252
 10
223.2600466379
 20
70.9719417409
 10
224.220392545
 20
71.1143302449
 10
225.1438566669
 20
71.1351869315
 10
226.0226122022
 20
71.0343349671
 10
226.8492106832
 20
70.8126288602
 10
227.6166468426
 20
70.4719470412
 10
227.7369332897
 20
70.4045986665
  0
LWPOLYLINE
  5
1D5
330
1F
100
AcDbEntity
  8
0
  6
Continuous
 62
     7
370
    25
100
AcDbPolyline
 90
       21
 70
   128
 43
0.0
 10
212.0007119752
 20
43.1457102727
 10
211.9970642972
 20
43.1478182379
 10
211.312328157
 20
43.6196478108
 10
210.6989492656
 20
44.201188753
 10
210.1620431966
 20
44.8875914929
 10
209.7060880527
 20
45.673131226
 10
209.3348849527
 20
46.5512565879
 10
209.0515303731
 20
47.514644981
 10
208.8583871715
 20
48.5552617031
 10
208.7570654891
 20
49.6644284382
 10
208.7484122143
 20
50.8328962146
 10
208.8324978112
 20
52.050919456
 10
209.0086215886
 20
53.308340868
 10
209.2753143336
 20
54.5946736151
 10
209.6303528001
 20
55.8991911964
 10
210.0707748546
 20
57.2110133772
 10
210.5929091118
 20
58.5192008628
 10
211.1923999581
 20
59.8128444615
 10
211.8642483822
 20
61.0811536738
 10
212.6028514875
 20
62.3135540285
 10
213.4020492486
 20
63.4997654058
  0
LWPOLYLINE
  5
1D6
330
1F
100
AcDbEntity
  8
0
  6
Continuous
 62
     7
370
    25
100
AcDbPolyline
 90
       40
 70
   128
 43
0.0
 10
210.777077175
 20
44.0183399531
 10
210.0085307095
 20
44.3145157855
 10
209.3006401444
 20
44.7224344274
 10
208.6591288901
 20
45.2387975943
 10
208.0891823261
 20
45.8594313793
 10
207.5954089467
 20
46.5793170553
 10
207.1818008489
 20
47.3926355661
 10
206.851701463
 20
48.2928112554
 10
206.6077792114
 20
49.272566243
 10
206.4520070935
 20
50.323980503
 10
206.3856442463
 20
51.4385533205
 10
206.4092267251
 20
52.6072736827
 10
206.5225635521
 20
53.8206929036
 10
206.7247393502
 20
55.0690011454
 10
207.0141189535
 20
56.3421063634
 10
207.388363212
 20
57.6297159119
 10
207.8444461135
 20
58.9214200982
 10
208.378681126
 20
60.2067762118
 10
208.9867481974
 20
61.4753925522
 10
209.6637326102
 20
62.7170124571
 10
210.4041598837
 20
63.9215987104
 10
211.2020451656
 20
65.0794118649
 10
212.0509366953
 20
66.181091608
 10
212.9439724389
 20
67.2177320422
 10
213.8739321146
 20
68.1809520231
 10
214.8332976136
 20
69.0629635001
 10
215.8143127632
 20
69.8566371959
 10
216.8090464651
 20
70.5555557857
 10
217.8094567384
 20
71.1540691192
 10
218.8074555862
 20
71.6473369914
 10
219.7949747684
 20
72.0313731948
 10
220.7640304205
 20
72.3030729384
 10
221.7067879209
 20
72.4602388868
 10
222.6156260986
 20
72.5016007364
 10
223.483196914
 20
72.426824573
 10
224.3024862094
 20
72.2365137218
 10
225.0668706737
 20
71.9322081711
 10
225.7701705249
 20
71.5163670774
 10
226.4067005486
 20
70.9923526003
 10
226.4693373509
 20
70.9313294619
  0
LWPOLYLINE
  5
1D7
330
1F
100
AcDbEntity
  8
0
  6
Continuous
 62
     7
370
    25
100
AcDbPolyline
 90
       12
 70
   128
 43
0.0
 10
213.5966626509
 20
65.9344244144
 10
214.5122416901
 20
66.9089062989
 10
215.4609544085
 20
67.7978814786
 10
216.4338574423
 20
68.592971062
 10
217.4217795302
 20
69.2866798131
 10
218.4154077005
 20
69.8724687198
 10
219.4053753923
 20
70.344814231
 10
220.3823502068
 20
70.6992649972
 10
221.3371226871
 20
70.9324794343
 10
222.2606925054
 20
71.0422587479
 10
223.1443532094
 20
71.0275684798
 10
223.3972132271
 20
70.9993110474
  0
SPLINE
  5
1D8
330
1F
100
AcDbEntity
  8
0
  6
Continuous
 62
     7
370
    25
100
AcDbSpline
210
0.0
220
0.0
230
1.0
 70
     8
 71
     3
 72
    26
 73
    22
 74
     0
 42
0.000000001
 43
0.00000001
 40
0.0
 40
0.0
 40
0.0
 40
0.0
 40
0.1250000000000009
 40
0.1250000000000009
 40
0.2500000000000019
 40
0.2500000000000019
 40
0.3125000000000011
 40
0.3125000000000011
 40
0.3750000000000004
 40
0.3750000000000004
 40
0.4375000000000002
 40
0.4375000000000002
 40
0.5000000000000001
 40
0.5000000000000001
 40
0.5625
 40
0.5625
 40
0.6249999999999999
 40
0.6249999999999999
 40
0.7500000000000001
 40
0.7500000000000001
 40
1.0
 40
1.0
 40
1.0
 40
1.0
 10
212.2524694459441
 20
64.26226112818387
 30
0.0
 10
212.2288318497121
 20
64.37183698775685
 30
0.0
 10
212.2112640708303
 20
64.48272624612139
 30
0.0
 10
212.1924514879609
 20
64.70805620598432
 30
0.0
 10
212.1912717131935
 20
64.8237331193027
 30
0.0
 10
212.2073697164288
 20
64.99508862916225
 30
0.0
 10
212.2156884335291
 20
65.05188714125643
 30
0.0
 10
212.239445582786
 20
65.16471335365351
 30
0.0
 10
212.255067961835
 20
65.22116620731965
 30
0.0
 10
212.2939251742321
 20
65.32974932372827
 30
0.0
 10
212.3171511309345
 20
65.3821292839538
 30
0.0
 10
212.3721497804129
 20
65.48258605922592
 30
0.0
 10
212.4042280474356
 20
65.53086492699737
 30
0.0
 10
212.4746427959706
 20
65.61856190258109
 30
0.0
 10
212.5132212180973
 20
65.65855103055706
 30
0.0
 10
212.5969294816935
 20
65.73102971467264
 30
0.0
 10
212.6420581916354
 20
65.76336633904927
 30
0.0
 10
212.7813388338255
 20
65.8465661064029
 30
0.0
 10
212.8821279053871
 20
65.885394829039
 30
0.0
 10
213.1852001766198
 20
65.96081111649418
 30
0.0
 10
213.3937242671049
 20
65.96068097012342
 30
0.0
 10
213.5966626867953
 20
65.93442474079721
 30
0.0
  0
LWPOLYLINE
  5
1D9
330
1F
100
AcDbEntity
  8
0
  6
Continuous
 62
     7
370
    25
100
AcDbPolyline
 90
       17
 70
   128
 43
0.0
 10
209.315490817
 20
46.6064098381
 10
208.8818083069
 20
47.2533744123
 10
208.4843016222
 20
48.0582791717
 10
208.1742898195
 20
48.9528548285
 10
207.9546158352
 20
49.9288993337
 10
207.8272934986
 20
50.9774633709
 10
207.793490409
 20
52.0889332012
 10
207.8535167409
 20
53.2531181652
 10
208.0068219511
 20
54.4593441245
 10
208.2519993885
 20
55.6965507062
 10
208.5868027578
 20
56.953395627
 10
209.008161266
 20
58.2183541697
 10
209.5122125495
 20
59.4798288772
 10
210.0943336259
 20
60.7262531625
 10
210.749188309
 20
61.9461996702
 10
211.4707726485
 20
63.1284821743
 10
212.2524695893
 20
64.2622608971
  0
LINE
  5
1DA
330
1F
100
AcDbEntity
  8
0
  6
Continuous
 62
     7
370
    25
100
AcDbLine
 10
210.777077175
 20
44.0183399531
 30
0.0
 11
210.8977544683
 21
44.0753716375
 31
0.0
  0
LWPOLYLINE
  5
1DB
330
1F
100
AcDbEntity
  8
0
  6
Continuous
 62
     7
370
    25
100
AcDbPolyline
 90
       26
 70
   128
 43
0.0
 10
204.1324445843
 20
53.0929901282
 10
204.1769582418
 20
54.2632608687
 10
204.3101416245
 20
55.4755042628
 10
204.530921305
 20
56.7199592045
 10
204.8375198716
 20
57.9866060966
 10
205.227469758
 20
59.2652471732
 10
205.6976303655
 20
60.5455875823
 10
206.2442170388
 20
61.8173184639
 10
206.8628280663
 20
63.0702009784
 10
207.5484828761
 20
64.2941469122
 10
208.2956622065
 20
65.4793023248
 10
209.0983482778
 20
66.6161247321
 10
209.9500801099
 20
67.6954621892
 10
210.8439989618
 20
68.7086228686
 10
211.7729079297
 20
69.64744977
 10
212.7293279237
 20
70.5043849743
 10
213.7055584183
 20
71.272529049
 10
214.6937394377
 20
71.9456958432
 10
215.6859146118
 20
72.5184663795
 10
216.6740956312
 20
72.986229105
 10
217.6503261258
 20
73.3452167676
 10
218.6067461198
 20
73.5925405835
 10
219.5356550877
 20
73.7262091477
 10
220.4295739396
 20
73.7451452059
 10
221.2813057717
 20
73.6491963902
 10
222.0308947164
 20
73.4570745728
  0
ARC
  5
1DC
330
1F
100
AcDbEntity
  8
0
  6
Continuous
 62
     7
370
    25
100
AcDbCircle
 10
216.2905693292
 20
52.985188398
 30
0.0
 40
12.15705588547289
100
AcDbArc
 50
180.4744575757
 51
191.6440468376
  0
SPLINE
  5
1DD
330
1F
100
AcDbEntity
  8
0
  6
Continuous
 62
     7
370
    25
100
AcDbSpline
210
0.0
220
0.0
230
1.0
 70
     8
 71
     3
 72
    10
 73
     6
 74
     0
 42
0.000000001
 43
0.00000001
 40
0.0
 40
0.0
 40
0.0
 40
0.0
 40
0.5
 40
0.5
 40
1.0
 40
1.0
 40
1.0
 40
1.0
 10
212.9791575135754
 20
62.79920784736414
 30
0.0
 10
212.8751930227911
 20
62.87254622043452
 30
0.0
 10
212.7853847463637
 20
62.95978197822792
 30
0.0
 10
212.6333423183651
 20
63.16071251942393
 30
0.0
 10
212.5714367300041
 20
63.27488328562089
 30
0.0
 10
212.5269870254137
 20
63.39790096878099
 30
0.0
  0
SPLINE
  5
1DE
330
1F
100
AcDbEntity
  8
0
  6
Continuous
 62
     7
370
    25
100
AcDbSpline
210
0.0
220
0.0
230
1.0
 70
     8
 71
     3
 72
    14
 73
    10
 74
     0
 42
0.000000001
 43
0.00000001
 40
0.0
 40
0.0
 40
0.0
 40
0.0
 40
0.25
 40
0.25
 40
0.5
 40
0.5
 40
0.75
 40
0.75
 40
1.0
 40
1.0
 40
1.0
 40
1.0
 10
212.5269870254137
 20
63.39790096878099
 30
0.0
 10
212.5042662225485
 20
63.46078238843854
 30
0.0
 10
212.4823517121991
 20
63.52982881791194
 30
0.0
 10
212.4402406581363
 20
63.67748133453072
 30
0.0
 10
212.4207191042232
 20
63.75388112138904
 30
0.0
 10
212.3823728620495
 20
63.90821341278463
 30
0.0
 10
212.3640132691657
 20
63.98516600911627
 30
0.0
 10
212.322009824584
 20
64.13055617663227
 30
0.0
 10
212.298233503571
 20
64.19714708282528
 30
0.0
 10
212.2697719994688
 20
64.23764269805663
 30
0.0
  0
LINE
  5
1DF
330
1F
100
AcDbEntity
  8
0
  6
Continuous
 62
     7
370
    25
100
AcDbLine
 10
212.2697721877
 20
64.2376430898
 30
0.0
 11
212.2524695893
 21
64.2622608971
 31
0.0
  0
LINE
  5
1E0
330
1F
100
AcDbEntity
  8
0
  6
Continuous
 62
     7
370
    25
100
AcDbLine
 10
213.5966626509
 20
65.9344244144
 30
0.0
 11
213.6139652493
 21
65.9098066071
 31
0.0
  0
SPLINE
  5
1E1
330
1F
100
AcDbEntity
  8
0
  6
Continuous
 62
     7
370
    25
100
AcDbSpline
210
0.0
220
0.0
230
1.0
 70
     8
 71
     3
 72
    16
 73
    12
 74
     0
 42
0.000000001
 43
0.00000001
 40
0.0
 40
0.0
 40
0.0
 40
0.0
 40
0.1250000000000001
 40
0.1250000000000001
 40
0.2500000000000003
 40
0.2500000000000003
 40
0.5000000000000002
 40
0.5000000000000002
 40
0.7500000000000001
 40
0.7500000000000001
 40
1.0
 40
1.0
 40
1.0
 40
1.0
 10
213.61396524032
 20
65.90980631066992
 30
0.0
 10
213.6281176467241
 20
65.88966997485713
 30
0.0
 10
213.6497760511978
 20
65.87287255417971
 30
0.0
 10
213.7021939802331
 20
65.84602703284821
 30
0.0
 10
213.7327868593714
 20
65.83580154828722
 30
0.0
 10
213.831867708229
 20
65.81130110785455
 30
0.0
 10
213.9057502458448
 20
65.80304118545305
 30
0.0
 10
214.0588498382362
 20
65.79185521874813
 30
0.0
 10
214.1369338128838
 20
65.78925854699693
 30
0.0
 10
214.2962774466259
 20
65.78722954616323
 30
0.0
 10
214.3749303414575
 20
65.78786713482546
 30
0.0
 10
214.4506828092501
 20
65.79096023564048
 30
0.0
  0
SPLINE
  5
1E2
330
1F
100
AcDbEntity
  8
0
  6
Continuous
 62
     7
370
    25
100
AcDbSpline
210
0.0
220
0.0
230
1.0
 70
     8
 71
     3
 72
    10
 73
     6
 74
     0
 42
0.000000001
 43
0.00000001
 40
0.0
 40
0.0
 40
0.0
 40
0.0
 40
0.5
 40
0.5
 40
1.0
 40
1.0
 40
1.0
 40
1.0
 10
214.4506828092501
 20
65.79096023564048
 30
0.0
 10
214.5988771491509
 20
65.79701126007426
 30
0.0
 10
214.7411016148814
 20
65.78684902986112
 30
0.0
 10
215.0134930052222
 20
65.73579859392105
 30
0.0
 10
215.1436203350907
 20
65.6944374912765
 30
0.0
 10
215.2616956772761
 20
65.6386636233242
 30
0.0
  0
LINE
  5
1E3
330
1F
100
AcDbEntity
  8
0
  6
Continuous
 62
     7
370
    25
100
AcDbLine
 10
215.4168987687
 20
65.6670822308
 30
0.0
 11
215.3995056205
 21
65.6918295155
 31
0.0
  0
ARC
  5
1E4
330
1F
100
AcDbEntity
  8
0
  6
Continuous
 62
     7
370
    25
100
AcDbCircle
 10
197.938225376
 20
60.9088564469
 30
0.0
 40
4.152066281424752
100
AcDbArc
 50
211.7707829633
 51
236.187546018
  0
SPLINE
  5
1E5
330
1F
100
AcDbEntity
  8
0
  6
Continuous
 62
     7
370
    25
100
AcDbSpline
210
0.0
220
0.0
230
1.0
 70
     8
 71
     3
 72
     8
 73
     4
 74
     0
 42
0.000000001
 43
0.00000001
 40
0.0
 40
0.0
 40
0.0
 40
0.0
 40
1.0
 40
1.0
 40
1.0
 40
1.0
 10
195.8387420081393
 20
57.79795920408555
 30
0.0
 10
195.3619687163151
 20
58.10605201201819
 30
0.0
 10
194.8851663394703
 20
58.41428145759095
 30
0.0
 10
194.4083338949446
 20
58.72264661381086
 30
0.0
  0
SPLINE
  5
1E6
330
1F
100
AcDbEntity
  8
0
  6
Continuous
 62
     7
370
    25
100
AcDbSpline
210
0.0
220
0.0
230
1.0
 70
     8
 71
     3
 72
    23
 73
    19
 74
     0
 42
0.000000001
 43
0.00000001
 40
0.0
 40
0.0
 40
0.0
 40
0.0
 40
0.0521036415646655
 40
0.1035646240875231
 40
0.1544751946670016
 40
0.2049306267396564
 40
0.2550287880763705
 40
0.3048696389063719
 40
0.3545546704541477
 40
0.4041862979471803
 40
0.4538672252097395
 40
0.5036997999422159
 40
0.5901870230737664
 40
0.6742716378215413
 40
0.7565997087206644
 40
0.8378563983706444
 40
0.9187511781358022
 40
1.0
 40
1.0
 40
1.0
 40
1.0
 10
196.7193068116809
 20
57.62322850596545
 30
0.0
 10
196.7140378727416
 20
57.61330704373066
 30
0.0
 10
196.7035649832428
 20
57.59358649299968
 30
0.0
 10
196.6843186874818
 20
57.56901866404754
 30
0.0
 10
196.6625229471503
 20
57.54833008178834
 30
0.0
 10
196.6378716559461
 20
57.53179914649136
 30
0.0
 10
196.6103751414073
 20
57.51928164691515
 30
0.0
 10
196.5799640873997
 20
57.51074702309275
 30
0.0
 10
196.5465937156263
 20
57.50613715044463
 30
0.0
 10
196.5102178273532
 20
57.50540240730813
 30
0.0
 10
196.4707894557623
 20
57.50849748985946
 30
0.0
 10
196.4179410642116
 20
57.51703326533821
 30
0.0
 10
196.3494020704416
 20
57.53462970418467
 30
0.0
 10
196.261680838488
 20
57.56626631227003
 30
0.0
 10
196.1669499189944
 20
57.60844596960258
 30
0.0
 10
196.0649156716641
 20
57.6611824053298
 30
0.0
 10
195.9560017584742
 20
57.7234989612412
 30
0.0
 10
195.8778854474874
 20
57.77310301949282
 30
0.0
 10
195.8387420081393
 20
57.79795920408554
 30
0.0
  0
SPLINE
  5
1E7
330
1F
100
AcDbEntity
  8
0
  6
Continuous
 62
     7
370
    25
100
AcDbSpline
210
0.0
220
0.0
230
1.0
 70
     8
 71
     3
 72
     8
 73
     4
 74
     0
 42
0.000000001
 43
0.00000001
 40
0.0
 40
0.0
 40
0.0
 40
0.0
 40
1.0
 40
1.0
 40
1.0
 40
1.0
 10
198.192809838137
 20
56.67590836940777
 30
0.0
 10
197.7014425260949
 20
56.99178298937575
 30
0.0
 10
197.2100563261679
 20
57.30776901066572
 30
0.0
 10
196.7186506160232
 20
57.6238658915089
 30
0.0
  0
SPLINE
  5
1E8
330
1F
100
AcDbEntity
  8
0
  6
Continuous
 62
     7
370
    25
100
AcDbSpline
210
0.0
220
0.0
230
1.0
 70
     8
 71
     3
 72
    18
 73
    14
 74
     0
 42
0.000000001
 43
0.00000001
 40
0.0
 40
0.0
 40
0.0
 40
0.0
 40
0.0923824559439675
 40
0.1844689291622743
 40
0.2764953616013771
 40
0.3686975365565255
 40
0.4613092840075443
 40
0.5545607518508886
 40
0.6486768051591462
 40
0.7438756050182965
 40
0.8403674044314907
 40
0.9203921078129265
 40
1.0
 40
1.0
 40
1.0
 40
1.0
 10
199.0063739573344
 20
56.03160064486489
 30
0.0
 10
198.9828064432106
 20
56.04687461913088
 30
0.0
 10
198.935746922558
 20
56.07737363161228
 30
0.0
 10
198.8633491345936
 20
56.12700620422417
 30
0.0
 10
198.7898669256971
 20
56.17933574689336
 30
0.0
 10
198.7151674779516
 20
56.23465343260154
 30
0.0
 10
198.6393066881835
 20
56.29289174771512
 30
0.0
 10
198.5622954073972
 20
56.35408465935236
 30
0.0
 10
198.4841632753173
 20
56.41824837593325
 30
0.0
 10
198.404937040675
 20
56.48539733579938
 30
0.0
 10
198.3296405562664
 20
56.55124824554485
 30
0.0
 10
198.2588132481455
 20
56.61477983235265
 30
0.0
 10
198.2149088773388
 20
56.65544057736591
 30
0.0
 10
198.1930140105337
 20
56.67571786593427
 30
0.0
  0
LINE
  5
1E9
330
1F
100
AcDbEntity
  8
0
  6
Continuous
 62
     7
370
    25
100
AcDbLine
 10
199.6460804892
 20
55.6198468384
 30
0.0
 11
199.0063736469
 21
56.031600506
 31
0.0
  0
SPLINE
  5
1EA
330
1F
100
AcDbEntity
  8
0
  6
Continuous
 62
     7
370
    25
100
AcDbSpline
210
0.0
220
0.0
230
1.0
 70
     8
 71
     3
 72
    25
 73
    21
 74
     0
 42
0.000000001
 43
0.00000001
 40
0.0
 40
0.0
 40
0.0
 40
0.0
 40
0.0280105225417313
 40
0.0559601148844757
 40
0.0839014045022582
 40
0.1118870776763573
 40
0.1399695827566157
 40
0.1682008401719331
 40
0.1966319670408087
 40
0.2253130233131858
 40
0.2542927850734805
 40
0.3799486436539752
 40
0.5057850221666156
 40
0.6313085886319871
 40
0.7532068238012583
 40
0.803947326795781
 40
0.8535894438557279
 40
0.9025339722396917
 40
0.9511970353793002
 40
1.0
 40
1.0
 40
1.0
 40
1.0
 10
200.7484460823246
 20
56.33575282874198
 30
0.0
 10
200.753394189855
 20
56.30812896763541
 30
0.0
 10
200.7632796414902
 20
56.25294133453168
 30
0.0
 10
200.774815291093
 20
56.17378062716378
 30
0.0
 10
200.7838884129054
 20
56.09747728806671
 30
0.0
 10
200.7902572216181
 20
56.02428152709772
 30
0.0
 10
200.7939734604282
 20
55.9541340588843
 30
0.0
 10
200.7950100814111
 20
55.88705777237084
 30
0.0
 10
200.7933616061845
 20
55.82305386314306
 30
0.0
 10
200.789015454316
 20
55.76212500987432
 30
0.0
 10
200.774159129751
 20
55.640236888377
 30
0.0
 10
200.7290708726849
 20
55.48533601672183
 30
0.0
 10
200.6157113521936
 20
55.35439289837934
 30
0.0
 10
200.4538871302002
 20
55.29851649756498
 30
0.0
 10
200.2798719110665
 20
55.31839054994992
 30
0.0
 10
200.1285109903789
 20
55.36570835230602
 30
0.0
 10
200.0181107576803
 20
55.41062377604155
 30
0.0
 10
199.9009512622315
 20
55.46799950733271
 30
0.0
 10
199.7773855952979
 20
55.53667657178534
 30
0.0
 10
199.6898905452031
 20
55.59209681773835
 30
0.0
 10
199.6460802255217
 20
55.61984671546853
 30
0.0
  0
ARC
  5
1EB
330
1F
100
AcDbEntity
  8
0
  6
Continuous
 62
     7
370
    25
100
AcDbCircle
 10
211.9414672467
 20
58.1218031973
 30
0.0
 40
11.33462419218043
100
AcDbArc
 50
170.9338462887
 51
189.0661537113
  0
SPLINE
  5
1EC
330
1F
100
AcDbEntity
  8
0
  6
Continuous
 62
     7
370
    25
100
AcDbSpline
210
0.0
220
0.0
230
1.0
 70
     8
 71
     3
 72
    26
 73
    22
 74
     0
 42
0.000000001
 43
0.00000001
 40
0.0
 40
0.0
 40
0.0
 40
0.0
 40
0.0241259796962589
 40
0.048215991227113
 40
0.072320391512163
 40
0.0964895678708021
 40
0.1207736231960618
 40
0.145222071124006
 40
0.1698835501655259
 40
0.1948055644470482
 40
0.2200342569516483
 40
0.2456142191611198
 40
0.3690971486898422
 40
0.4940698769485101
 40
0.6192566784753765
 40
0.7454656653602848
 40
0.7971495824708195
 40
0.848171030839727
 40
0.8988013269227114
 40
0.9493179290486773
 40
1.0
 40
1.0
 40
1.0
 40
1.0
 10
199.6460802255217
 20
63.38395710683309
 30
0.0
 10
199.6677984548976
 20
63.36962558343806
 30
0.0
 10
199.7112025350735
 20
63.34098390276911
 30
0.0
 10
199.7745096524347
 20
63.29299160484045
 30
0.0
 10
199.8363712201525
 20
63.24139240695487
 30
0.0
 10
199.8966757352889
 20
63.18581761408168
 30
0.0
 10
199.9554655872287
 20
63.12636237345458
 30
0.0
 10
200.0127461056586
 20
63.06299806461714
 30
0.0
 10
200.0685372449849
 20
62.99572928665316
 30
0.0
 10
200.1228584924068
 20
62.92455517269293
 30
0.0
 10
200.175737467616
 20
62.8494660329445
 30
0.0
 10
200.2925322923525
 20
62.6702115842431
 30
0.0
 10
200.4544018502791
 20
62.35990611239962
 30
0.0
 10
200.6175867578106
 20
61.88999232426895
 30
0.0
 10
200.7290981629836
 20
61.39102929035843
 30
0.0
 10
200.7762320010924
 20
60.98214561730225
 30
0.0
 10
200.7913509406258
 20
60.67787366071132
 30
0.0
 10
200.7933040796085
 20
60.47662441901696
 30
0.0
 10
200.7868260539693
 20
60.28096449929435
 30
0.0
 10
200.772699131282
 20
60.09032821139591
 30
0.0
 10
200.7565392395968
 20
59.96874493765614
 30
0.0
 10
200.7484460823246
 20
59.90785390105661
 30
0.0
  0
LINE
  5
1ED
330
1F
100
AcDbEntity
  8
0
  6
Continuous
 62
     7
370
    25
100
AcDbLine
 10
199.0063736469
 20
63.7969319571
 30
0.0
 11
199.6460804892
 21
63.3839569861
 31
0.0
  0
SPLINE
  5
1EE
330
1F
100
AcDbEntity
  8
0
  6
Continuous
 62
     7
370
    25
100
AcDbSpline
210
0.0
220
0.0
230
1.0
 70
     8
 71
     3
 72
    14
 73
    10
 74
     0
 42
0.000000001
 43
0.00000001
 40
0.0
 40
0.0
 40
0.0
 40
0.0
 40
0.0789261963166635
 40
0.1582328720536201
 40
0.3308475394596663
 40
0.5000195457656536
 40
0.6670357883622092
 40
0.8332395193691549
 40
0.9999999999999999
 40
0.9999999999999999
 40
0.9999999999999999
 40
0.9999999999999999
 10
198.192421241482
 20
64.00551439011907
 30
0.0
 10
198.2141381228177
 20
64.00711755397748
 30
0.0
 10
198.257676576033
 20
64.0103316100644
 30
0.0
 10
198.3492016946828
 20
64.01115265013105
 30
0.0
 10
198.4661100281174
 20
64.00321666834633
 30
0.0
 10
198.6069303665009
 20
63.97694099946779
 30
0.0
 10
198.7441426743134
 20
63.93398340093563
 30
0.0
 10
198.8780733487289
 20
63.87562627612697
 30
0.0
 10
198.9635594406869
 20
63.82319272997784
 30
0.0
 10
199.0063739573344
 20
63.79693211982399
 30
0.0
  0
SPLINE
  5
1EF
330
1F
100
AcDbEntity
  8
0
  6
Continuous
 62
     7
370
    25
100
AcDbSpline
210
0.0
220
0.0
230
1.0
 70
     8
 71
     3
 72
     8
 73
     4
 74
     0
 42
0.000000001
 43
0.00000001
 40
0.0
 40
0.0
 40
0.0
 40
0.0
 40
1.0
 40
1.0
 40
1.0
 40
1.0
 10
196.3901176584787
 20
65.16790580153038
 30
0.0
 10
196.9908758821741
 20
64.78063831837191
 30
0.0
 10
197.5916047450338
 20
64.39317096844904
 30
0.0
 10
198.19230538938
 20
64.00550407585986
 30
0.0
  0
SPLINE
  5
1F0
330
1F
100
AcDbEntity
  8
0
  6
Continuous
 62
     7
370
    25
100
AcDbSpline
210
0.0
220
0.0
230
1.0
 70
     8
 71
     3
 72
    13
 73
     9
 74
     0
 42
0.000000001
 43
0.00000001
 40
0.0
 40
0.0
 40
0.0
 40
0.0
 40
0.1667030582307895
 40
0.3329480818052965
 40
0.4990671507274738
 40
0.6653938523718336
 40
0.8322612710550047
 40
1.0
 40
1.0
 40
1.0
 40
1.0
 10
196.0482891234443
 20
65.46897058061619
 30
0.0
 10
196.0685903058842
 20
65.45540547393693
 30
0.0
 10
196.1091368910729
 20
65.4283125321741
 30
0.0
 10
196.1682865280605
 20
65.38311795916637
 30
0.0
 10
196.226058072963
 20
65.33470681068343
 30
0.0
 10
196.2823078104227
 20
65.28267169591297
 30
0.0
 10
196.3372350191688
 20
65.22737372870395
 30
0.0
 10
196.3724557287593
 20
65.18775647354357
 30
0.0
 10
196.3901119407003
 20
65.16789626454263
 30
0.0
  0
SPLINE
  5
1F1
330
1F
100
AcDbEntity
  8
0
  6
Continuous
 62
     7
370
    25
100
AcDbSpline
210
0.0
220
0.0
230
1.0
 70
     8
 71
     3
 72
     8
 73
     4
 74
     0
 42
0.000000001
 43
0.00000001
 40
0.0
 40
0.0
 40
0.0
 40
0.0
 40
1.0
 40
1.0
 40
1.0
 40
1.0
 10
194.1043086076536
 20
66.72369243299563
 30
0.0
 10
194.7523386800538
 20
66.30569711711088
 30
0.0
 10
195.4003316571557
 20
65.88745635469326
 30
0.0
 10
196.0482891234443
 20
65.46897058061617
 30
0.0
  0
LWPOLYLINE
  5
1F2
330
1F
100
AcDbEntity
  8
0
  6
Continuous
 62
     7
370
    25
100
AcDbPolyline
 90
       20
 70
   128
 43
0.0
 10
194.104309258
 20
66.7236924835
 10
194.4869578614
 20
67.8376552456
 10
194.9491685196
 20
68.9458694276
 10
195.4857677069
 20
70.0359319849
 10
196.0907488387
 20
71.095641854
 10
196.7573417484
 20
72.1131400613
 10
197.4780861145
 20
73.077037664
 10
198.2449147666
 20
73.9765474925
 10
199.0492453882
 20
74.8016009679
 10
199.8820761698
 20
75.5429656795
 10
200.7340858254
 20
76.1923426676
 10
201.5957387297
 20
76.7424659006
 10
202.4573911887
 20
77.1871765524
 10
203.3093996095
 20
77.5214983751
 10
204.1422282508
 20
77.7416892552
 10
204.9465560736
 20
77.8452854072
 10
205.7133807745
 20
77.8311264489
 10
206.4341202015
 20
77.699371362
 10
207.1007081721
 20
77.4514952507
 10
207.1540469845
 20
77.4254394487
  0
SPLINE
  5
1F3
330
1F
100
AcDbEntity
  8
0
  6
Continuous
 62
     7
370
    25
100
AcDbSpline
210
0.0
220
0.0
230
1.0
 70
    11
 71
     3
 72
    39
 73
    35
 74
     0
 42
0.000000001
 43
0.00000001
 40
0.0
 40
0.0
 40
0.0
 40
0.0
 40
0.0310664058345684
 40
0.0621048158426028
 40
0.0931361551794319
 40
0.123553829350374
 40
0.1538561545809018
 40
0.1850588072749134
 40
0.2160250992946899
 40
0.2471867223797622
 40
0.2784462884306489
 40
0.3100516090231287
 40
0.3419834369140543
 40
0.3734259894013276
 40
0.404860488678635
 40
0.4368740651833383
 40
0.4685120685924916
 40
0.4998055358633239
 40
0.5309508213228468
 40
0.5618649784438202
 40
0.593041644659302
 40
0.6233742450133318
 40
0.6540913579074815
 40
0.6849496782718557
 40
0.715816064516634
 40
0.7471731804043451
 40
0.7784514311861095
 40
0.8101295911560887
 40
0.8419598919685959
 40
0.8735175891922303
 40
0.9050808037884179
 40
0.9370235169792495
 40
0.9687441590028177
 40
1.0
 40
1.0
 40
1.0
 40
1.0
 10
207.3128940888589
 20
75.72888280833705
 30
0.0
 10
207.5757797090548
 20
75.70034832104697
 30
0.0
 10
208.102668319538
 20
75.61440583272515
 30
0.0
 10
208.8666803886124
 20
75.41403071265421
 30
0.0
 10
209.5738305766668
 20
75.16702860643454
 30
0.0
 10
210.1867416412607
 20
74.8890467282813
 30
0.0
 10
210.6838729669326
 20
74.59491303095184
 30
0.0
 10
211.0430646880065
 20
74.2934065027595
 30
0.0
 10
211.2647839567673
 20
73.98640899785669
 30
0.0
 10
211.3300358341476
 20
73.67590373645453
 30
0.0
 10
211.2431886230333
 20
73.35675925170577
 30
0.0
 10
211.0008430352744
 20
73.02743928613293
 30
0.0
 10
210.6209051725483
 20
72.68849856457604
 30
0.0
 10
210.1070992193891
 20
72.35066010016546
 30
0.0
 10
209.4812084084788
 20
72.02476219885614
 30
0.0
 10
208.7677374219893
 20
71.72811530561624
 30
0.0
 10
208.0038349457246
 20
71.4720119971782
 30
0.0
 10
207.2180418628209
 20
71.28298442918809
 30
0.0
 10
206.4365044077795
 20
71.17480850713315
 30
0.0
 10
205.6803914230257
 20
71.16714462376511
 30
0.0
 10
204.9780268366348
 20
71.26506665915262
 30
0.0
 10
204.3590064895902
 20
71.4867150926548
 30
0.0
 10
203.8499492245768
 20
71.82258317956521
 30
0.0
 10
203.4770056311442
 20
72.26239374574686
 30
0.0
 10
203.2484036799011
 20
72.77346838626974
 30
0.0
 10
203.1795573731769
 20
73.32465347402864
 30
0.0
 10
203.2641737864017
 20
73.88232540234088
 30
0.0
 10
203.5072825763353
 20
74.41240554325887
 30
0.0
 10
203.8894124191525
 20
74.88492989237494
 30
0.0
 10
204.4055479935628
 20
75.27105140326715
 30
0.0
 10
205.0325258540668
 20
75.55467559060061
 30
0.0
 10
205.7484332864276
 20
75.72441280932779
 30
0.0
 10
206.5168766786145
 20
75.78595164404042
 30
0.0
 10
207.0484054579873
 20
75.75759129178458
 30
0.0
 10
207.3128940888589
 20
75.72888280833706
 30
0.0
  0
LINE
  5
1F4
330
1F
100
AcDbEntity
  8
0
  6
Continuous
 62
     7
370
    25
100
AcDbLine
 10
198.0883566758
 20
59.2897561909
 30
0.0
 11
198.4024017344
 21
59.1216119638
 31
0.0
  0
LINE
  5
1F5
330
1F
100
AcDbEntity
  8
0
  6
Continuous
 62
     7
370
    25
100
AcDbLine
 10
197.1013986559
 20
59.8595149282
 30
0.0
 11
198.0883566758
 21
59.2897561909
 31
0.0
  0
ARC
  5
1F6
330
1F
100
AcDbEntity
  8
0
  6
Continuous
 62
     7
370
    25
100
AcDbCircle
 10
199.3223685667
 20
63.4529956923
 30
0.0
 40
4.484274790565337
100
AcDbArc
 50
267.6840627222
 51
286.9866336569
  0
SPLINE
  5
1F7
330
1F
100
AcDbEntity
  8
0
  6
Continuous
 62
     7
370
    25
100
AcDbSpline
210
0.0
220
0.0
230
1.0
 70
     8
 71
     3
 72
    12
 73
     8
 74
     0
 42
0.000000001
 43
0.00000001
 40
0.0
 40
0.0
 40
0.0
 40
0.0
 40
0.1523598330305601
 40
0.3826801306822303
 40
0.6138741683107227
 40
0.8254372814239916
 40
1.0
 40
1.0
 40
1.0
 40
1.0
 10
208.6514000471583
 20
72.72638709300134
 30
0.0
 10
208.4464327087765
 20
72.83853349273409
 30
0.0
 10
207.9316190188599
 20
73.12021008722512
 30
0.0
 10
206.9185436915706
 20
73.53637605969223
 30
0.0
 10
205.7111649106115
 20
73.81961768763972
 30
0.0
 10
204.6088344252606
 20
73.85056453038051
 30
0.0
 10
204.0438953927296
 20
73.64283715305884
 30
0.0
 10
203.7884934349874
 20
73.54892617189165
 30
0.0
  0
SPLINE
  5
1F8
330
1F
100
AcDbEntity
  8
0
  6
Continuous
 62
     7
370
    25
100
AcDbSpline
210
0.0
220
0.0
230
1.0
 70
     8
 71
     3
 72
    10
 73
     6
 74
     0
 42
0.000000001
 43
0.00000001
 40
0.0
 40
0.0
 40
0.0
 40
0.0
 40
0.3798174073072795
 40
0.9603711649033085
 40
1.0
 40
1.0
 40
1.0
 40
1.0
 10
209.7912801690178
 20
72.19816016548285
 30
0.0
 10
209.6616275517694
 20
72.26848872732022
 30
0.0
 10
209.3337999360149
 20
72.44631502374133
 30
0.0
 10
208.9258713910048
 20
72.61936787414375
 30
0.0
 10
208.6692386095729
 20
72.71857330639206
 30
0.0
 10
208.6528401193611
 20
72.72491240033244
 30
0.0
  0
SPLINE
  5
1F9
330
1F
100
AcDbEntity
  8
0
  6
Continuous
 62
     7
370
    25
100
AcDbSpline
210
0.0
220
0.0
230
1.0
 70
     8
 71
     3
 72
    24
 73
    20
 74
     0
 42
0.000000001
 43
0.00000001
 40
0.0
 40
0.0
 40
0.0
 40
0.0
 40
0.0618858212107145
 40
0.1150115607194259
 40
0.1593831488268445
 40
0.2428114970815824
 40
0.318331853291959
 40
0.3935543804326023
 40
0.4204843226990471
 40
0.4483397435477174
 40
0.4771286702554668
 40
0.5451537905345539
 40
0.6363475754294583
 40
0.6968782859867285
 40
0.7498596693403015
 40
0.7959701295389731
 40
0.8771179302751783
 40
0.9543004207779655
 40
1.0
 40
1.0
 40
1.0
 40
1.0
 10
207.2580155218567
 20
75.1550249083803
 30
0.0
 10
207.0740587325204
 20
75.17391947334626
 30
0.0
 10
206.7321846645582
 20
75.20903403373075
 30
0.0
 10
206.2679666915814
 20
75.20254348534348
 30
0.0
 10
205.7585050793085
 20
75.15481929254618
 30
0.0
 10
205.2194099799339
 20
75.03020269437927
 30
0.0
 10
204.6765719952103
 20
74.78771241043627
 30
0.0
 10
204.3361789797152
 20
74.53033965981037
 30
0.0
 10
204.1295522711642
 20
74.31553255931154
 30
0.0
 10
204.0115682149531
 20
74.16902920801256
 30
0.0
 10
203.8593978107621
 20
73.9392783837921
 30
0.0
 10
203.6927171721824
 20
73.56633568836509
 30
0.0
 10
203.6243555913452
 20
73.1037766356722
 30
0.0
 10
203.6747110549647
 20
72.67544393747038
 30
0.0
 10
203.7801401984799
 20
72.355517043826
 30
0.0
 10
203.9623395251659
 20
72.0150515286328
 30
0.0
 10
204.2632179502363
 20
71.67910327177772
 30
0.0
 10
204.6529028448348
 20
71.40604397106269
 30
0.0
 10
204.9458218010292
 20
71.3120889001354
 30
0.0
 10
205.0547577350855
 20
71.27714720997044
 30
0.0
  0
SPLINE
  5
1FA
330
1F
100
AcDbEntity
  8
0
  6
Continuous
 62
     7
370
    25
100
AcDbSpline
210
0.0
220
0.0
230
1.0
 70
     8
 71
     3
 72
    22
 73
    18
 74
     0
 42
0.000000001
 43
0.00000001
 40
0.0
 40
0.0
 40
0.0
 40
0.0
 40
0.0219614557264319
 40
0.0803652430298583
 40
0.1456638820018195
 40
0.2178969883419309
 40
0.2799150297790891
 40
0.3332793905621611
 40
0.3779895238257051
 40
0.4140481253260299
 40
0.5173281491698496
 40
0.6093981387521071
 40
0.7028414964041317
 40
0.7526499829634711
 40
0.804559307159059
 40
0.89374667720237
 40
1.0
 40
1.0
 40
1.0
 40
1.0
 10
210.562864171068
 20
72.67769856849101
 30
0.0
 10
210.5860320682611
 20
72.69955362995186
 30
0.0
 10
210.6708121352845
 20
72.77952953626755
 30
0.0
 10
210.7774433671137
 20
72.92169223291329
 30
0.0
 10
210.874698410483
 20
73.11047151510788
 30
0.0
 10
210.9057242676788
 20
73.29643554924887
 30
0.0
 10
210.8763771719521
 20
73.46825056557918
 30
0.0
 10
210.8078698020244
 20
73.61505642349523
 30
0.0
 10
210.7200596675854
 20
73.73626749459318
 30
0.0
 10
210.5657678078929
 20
73.90185059978285
 30
0.0
 10
210.2979419026559
 20
74.11201486662716
 30
0.0
 10
209.8463716346198
 20
74.36745866946052
 30
0.0
 10
209.3988090283524
 20
74.57409536793858
 30
0.0
 10
208.9899152551577
 20
74.73259958432651
 30
0.0
 10
208.5678356564299
 20
74.87511633232536
 30
0.0
 10
207.9895230385624
 20
75.03837290115186
 30
0.0
 10
207.5156444447802
 20
75.11394135107871
 30
0.0
 10
207.2580155218567
 20
75.1550249083803
 30
0.0
  0
LINE
  5
1FB
330
1F
100
AcDbEntity
  8
0
  6
Continuous
 62
     7
370
    25
100
AcDbLine
 10
200.7484458
 20
59.9078537203
 30
0.0
 11
200.743207737
 21
60.2039371432
 31
0.0
  0
LINE
  5
1FC
330
1F
100
AcDbEntity
  8
0
  6
Continuous
 62
     7
370
    25
100
AcDbLine
 10
200.743207737
 20
60.2039371432
 30
0.0
 11
200.7863068408
 21
60.8555807795
 31
0.0
  0
LINE
  5
1FD
330
1F
100
AcDbEntity
  8
0
  6
Continuous
 62
     7
370
    25
100
AcDbLine
 10
200.263658919
 20
62.6846253607
 30
0.0
 11
199.9522444164
 21
63.0132219302
 31
0.0
  0
SPLINE
  5
1FE
330
1F
100
AcDbEntity
  8
0
  6
Continuous
 62
     7
370
    25
100
AcDbSpline
210
0.0
220
0.0
230
1.0
 70
     8
 71
     3
 72
    19
 73
    15
 74
     0
 42
0.000000001
 43
0.00000001
 40
0.0
 40
0.0
 40
0.0
 40
0.0
 40
0.0210492621018804
 40
0.1455865440207667
 40
0.2712169722633744
 40
0.3929514297049947
 40
0.5136082229787104
 40
0.6366369099308349
 40
0.699422462668311
 40
0.7643939711952468
 40
0.8122544601557282
 40
0.8606584764820763
 40
0.9188817427801165
 40
1.0
 40
1.0
 40
1.0
 40
1.0
 10
203.6687709695143
 20
72.9002749609225
 30
0.0
 10
203.6613023945285
 20
72.9550353078279
 30
0.0
 10
203.6096462359567
 20
73.33378348516304
 30
0.0
 10
203.8524171306164
 20
73.94393439397722
 30
0.0
 10
204.4367475980313
 20
74.63330809721677
 30
0.0
 10
205.3428739656716
 20
75.05060764744884
 30
0.0
 10
206.4172200941336
 20
75.17103360513748
 30
0.0
 10
207.3711539632293
 20
75.01033406154988
 30
0.0
 10
208.1058165057986
 20
74.71296796270809
 30
0.0
 10
208.5786197452709
 20
74.41530988530339
 30
0.0
 10
208.9355899153904
 20
74.04439808052602
 30
0.0
 10
209.1304380568986
 20
73.61207678521845
 30
0.0
 10
209.1594670871428
 20
73.1091354539933
 30
0.0
 10
209.0970934855224
 20
72.77539044141811
 30
0.0
 10
209.0607824295484
 20
72.58109937087124
 30
0.0
  0
SPLINE
  5
1FF
330
1F
100
AcDbEntity
  8
0
  6
Continuous
 62
     7
370
    25
100
AcDbSpline
210
0.0
220
0.0
230
1.0
 70
     8
 71
     3
 72
    10
 73
     6
 74
     0
 42
0.000000001
 43
0.00000001
 40
0.0
 40
0.0
 40
0.0
 40
0.0
 40
0.295123680313337
 40
0.9803959308885715
 40
1.0
 40
1.0
 40
1.0
 40
1.0
 10
209.0635102855366
 20
72.57986081744886
 30
0.0
 10
209.1463343438494
 20
72.54109561949906
 30
0.0
 10
209.4214744805656
 20
72.4123182801486
 30
0.0
 10
209.6964748048302
 20
72.27109169187568
 30
0.0
 10
209.8449955552741
 20
72.17706602268109
 30
0.0
 10
209.8491262246906
 20
72.17445097424542
 30
0.0
  0
ARC
  5
200
330
1F
100
AcDbEntity
  8
0
  6
Continuous
 62
     7
370
    25
100
AcDbCircle
 10
213.0736188509
 20
58.3666418251
 30
0.0
 40
12.46654291792342
100
AcDbArc
 50
171.5249863735
 51
179.8211981812
  0
SPLINE
  5
201
330
1F
100
AcDbEntity
  8
0
  6
Continuous
 62
     7
370
    25
100
AcDbSpline
210
0.0
220
0.0
230
1.0
 70
     8
 71
     3
 72
    14
 73
    10
 74
     0
 42
0.000000001
 43
0.00000001
 40
0.0
 40
0.0
 40
0.0
 40
0.0
 40
0.0003951393068452
 40
0.0003951393068452
 40
0.0003951393068452
 40
0.0008163352168664
 40
0.0008163352168664
 40
0.0008163352168664
 40
0.001237857933722
 40
0.001237857933722
 40
0.001237857933722
 40
0.001237857933722
 10
208.655432622698
 20
72.72510813961702
 30
0.0
 10
208.7008944369292
 20
72.71067127699199
 30
0.0
 10
208.7457820415503
 20
72.69580541642637
 30
0.0
 10
208.7900657342254
 20
72.68052162882091
 30
0.0
 10
208.8372690264648
 20
72.66423018948322
 30
0.0
 10
208.8837948395239
 20
72.6474607113993
 30
0.0
 10
208.9296057487655
 20
72.63023190060402
 30
0.0
 10
208.9754521367547
 20
72.61298974677236
 30
0.0
 10
209.0205913723271
 20
72.59528404056786
 30
0.0
 10
209.0649849303694
 20
72.57714118387707
 30
0.0
  0
LINE
  5
202
330
1F
100
AcDbEntity
  8
0
  6
Continuous
 62
     7
370
    25
100
AcDbLine
 10
199.9522444164
 20
63.0132219302
 30
0.0
 11
199.312307742
 21
63.4254535703
 31
0.0
  0
LINE
  5
203
330
1F
100
AcDbEntity
  8
0
  6
Continuous
 62
     7
370
    25
100
AcDbLine
 10
199.0063736469
 20
63.7969319571
 30
0.0
 11
199.312307742
 21
63.4254535703
 31
0.0
  0
SPLINE
  5
204
330
1F
100
AcDbEntity
  8
0
  6
Continuous
 62
     7
370
    25
100
AcDbSpline
210
0.0
220
0.0
230
1.0
 70
     8
 71
     3
 72
    13
 73
     9
 74
     0
 42
0.000000001
 43
0.00000001
 40
0.0
 40
0.0
 40
0.0
 40
0.0
 40
0.1618542299043787
 40
0.3254858841861265
 40
0.4910085196952338
 40
0.6585318473097415
 40
0.8281616954395596
 40
0.9999999999999999
 40
0.9999999999999999
 40
0.9999999999999999
 40
0.9999999999999999
 10
199.3123081536764
 20
63.4254535741871
 30
0.0
 10
199.2927307616567
 20
63.43801655122174
 30
0.0
 10
199.2533609858073
 20
63.46328046734271
 30
0.0
 10
199.1918250460329
 20
63.49597416425945
 30
0.0
 10
199.1282683867822
 20
63.5249202379664
 30
0.0
 10
199.0626502841269
 20
63.54943260543065
 30
0.0
 10
198.9952230150763
 20
63.56986766878192
 30
0.0
 10
198.9493384148812
 20
63.5794643237703
 30
0.0
 10
198.9262477347085
 20
63.58429368460428
 30
0.0
  0
SPLINE
  5
205
330
1F
100
AcDbEntity
  8
0
  6
Continuous
 62
     7
370
    25
100
AcDbSpline
210
0.0
220
0.0
230
1.0
 70
     8
 71
     3
 72
     9
 73
     5
 74
     0
 42
0.000000001
 43
0.00000001
 40
0.0
 40
0.0
 40
0.0
 40
0.0
 40
0.4907282259506014
 40
1.0
 40
1.0
 40
1.0
 40
1.0
 10
198.9262419074165
 20
63.58426568757326
 30
0.0
 10
198.9021483849387
 20
63.59236121979139
 30
0.0
 10
198.8530508983795
 20
63.60885819671267
 30
0.0
 10
198.8023502045593
 20
63.6236518657289
 30
0.0
 10
198.776529772272
 20
63.6311858637935
 30
0.0
  0
SPLINE
  5
206
330
1F
100
AcDbEntity
  8
0
  6
Continuous
 62
     7
370
    25
100
AcDbSpline
210
0.0
220
0.0
230
1.0
 70
     8
 71
     3
 72
    14
 73
    10
 74
     0
 42
0.000000001
 43
0.00000001
 40
0.0
 40
0.0
 40
0.0
 40
0.0
 40
0.0310276388052914
 40
0.0622853718654813
 40
0.1248003166888005
 40
0.2498289731739683
 40
0.4998892603601401
 40
0.7606803622467934
 40
1.0
 40
1.0
 40
1.0
 40
1.0
 10
198.1925890829833
 20
64.00529360643934
 30
0.0
 10
198.1985813223876
 20
64.00146256278596
 30
0.0
 10
198.2106102383466
 20
63.99377206528855
 30
0.0
 10
198.2346700463954
 20
63.97833417578202
 30
0.0
 10
198.2769037190418
 20
63.95126372285116
 30
0.0
 10
198.3614662935542
 20
63.89705169805569
 30
0.0
 10
198.4847532630392
 20
63.8180485161794
 30
0.0
 10
198.6308849694971
 20
63.72444234150299
 30
0.0
 10
198.7292515860362
 20
63.66145926510966
 30
0.0
 10
198.7763232867041
 20
63.63131976633007
 30
0.0
  0
LINE
  5
207
330
1F
100
AcDbEntity
  8
0
  6
Continuous
 62
     7
370
    25
100
AcDbLine
 10
196.3900889278
 20
65.1679242834
 30
0.0
 11
196.6810562819
 21
64.9798457443
 31
0.0
  0
SPLINE
  5
208
330
1F
100
AcDbEntity
  8
0
  6
Continuous
 62
     7
370
    25
100
AcDbSpline
210
0.0
220
0.0
230
1.0
 70
     8
 71
     3
 72
     8
 73
     4
 74
     0
 42
0.000000001
 43
0.00000001
 40
0.0
 40
0.0
 40
0.0
 40
0.0
 40
1.0
 40
1.0
 40
1.0
 40
1.0
 10
196.7124445852789
 20
64.9596232141282
 30
0.0
 10
196.7020020794271
 20
64.9664486390256
 30
0.0
 10
196.6915361465373
 20
64.97319160581213
 30
0.0
 10
196.6810483817207
 20
64.97985069346512
 30
0.0
  0
SPLINE
  5
209
330
1F
100
AcDbEntity
  8
0
  6
Continuous
 62
     7
370
    25
100
AcDbSpline
210
0.0
220
0.0
230
1.0
 70
     8
 71
     3
 72
     8
 73
     4
 74
     0
 42
0.000000001
 43
0.00000001
 40
0.0
 40
0.0
 40
0.0
 40
0.0
 40
1.0
 40
1.0
 40
1.0
 40
1.0
 10
193.9264402064527
 20
66.83787886593879
 30
0.0
 10
193.9854399706234
 20
66.79913819901931
 30
0.0
 10
194.0447275341348
 20
66.76107622171952
 30
0.0
 10
194.104308607624
 20
66.72369243325873
 30
0.0
  0
SPLINE
  5
20A
330
1F
100
AcDbEntity
  8
0
  6
Continuous
 62
     7
370
    25
100
AcDbSpline
210
0.0
220
0.0
230
1.0
 70
     8
 71
     3
 72
     8
 73
     4
 74
     0
 42
0.000000001
 43
0.00000001
 40
0.0
 40
0.0
 40
0.0
 40
0.0
 40
1.0
 40
1.0
 40
1.0
 40
1.0
 10
193.9015904603555
 20
67.20108904387558
 30
0.0
 10
193.909064672446
 20
67.08013120316451
 30
0.0
 10
193.9173607763361
 20
66.95905936075461
 30
0.0
 10
193.9264402064549
 20
66.83787886593954
 30
0.0
  0
LWPOLYLINE
  5
20B
330
1F
100
AcDbEntity
  8
0
  6
Continuous
 62
     7
370
    25
100
AcDbPolyline
 90
       15
 70
   128
 43
0.0
 10
193.9015908192
 20
67.2010883785
 10
194.2951903592
 20
68.3099972173
 10
194.7698587039
 20
69.4107656789
 10
195.3199119554
 20
70.4902120525
 10
195.9387633517
 20
71.5354106079
 10
196.6190026207
 20
72.5338465324
 10
197.3524848839
 20
73.4735634519
 10
198.1304264746
 20
74.3433096212
 10
198.9435124455
 20
75.132669569
 10
199.7820062159
 20
75.8321912749
 10
200.6358674929
 20
76.4334983506
 10
201.4948718789
 20
76.9293910273
 10
202.3487331559
 20
77.3139311977
 10
203.1872269263
 20
77.5825137924
 10
203.8655532881
 20
77.7151960699
  0
SPLINE
  5
20C
330
1F
100
AcDbEntity
  8
0
  6
Continuous
 62
     7
370
    25
100
AcDbSpline
210
0.0
220
0.0
230
1.0
 70
     8
 71
     3
 72
    10
 73
     6
 74
     0
 42
0.000000001
 43
0.00000001
 40
0.0
 40
0.0
 40
0.0
 40
0.0
 40
0.2409818396634726
 40
0.5031433556203718
 40
1.0
 40
1.0
 40
1.0
 40
1.0
 10
199.9522444163942
 20
56.30738030692177
 30
0.0
 10
200.0344902873972
 20
56.25570378500122
 30
0.0
 10
200.2062105447417
 20
56.14780893830984
 30
0.0
 10
200.4839319037686
 20
56.01808622784559
 30
0.0
 10
200.6049091508126
 20
56.04086416895058
 30
0.0
 10
200.6841013917281
 20
56.05577470992931
 30
0.0
  0
LINE
  5
20D
330
1F
100
AcDbEntity
  8
0
  6
Continuous
 62
     7
370
    25
100
AcDbLine
 10
195.1690703602
 20
66.0364530399
 30
0.0
 11
194.4071916579
 21
66.5270874476
 31
0.0
  0
LINE
  5
20E
330
1F
100
AcDbEntity
  8
0
  6
Continuous
 62
     7
370
    25
100
AcDbLine
 10
194.4071916579
 20
66.5270874476
 30
0.0
 11
193.9264403376
 21
66.8378788236
 31
0.0
  0
LINE
  5
20F
330
1F
100
AcDbEntity
  8
0
  6
Continuous
 62
     7
370
    25
100
AcDbLine
 10
199.0063736469
 20
56.031600506
 30
0.0
 11
199.312307742
 21
56.719611947
 31
0.0
  0
LINE
  5
210
330
1F
100
AcDbEntity
  8
0
  6
Continuous
 62
     7
370
    25
100
AcDbLine
 10
199.312307742
 20
56.719611947
 30
0.0
 11
199.9522444164
 21
56.3073803069
 31
0.0
  0
SPLINE
  5
211
330
1F
100
AcDbEntity
  8
0
  6
Continuous
 62
     7
370
    25
100
AcDbSpline
210
0.0
220
0.0
230
1.0
 70
     8
 71
     3
 72
    13
 73
     9
 74
     0
 42
0.000000001
 43
0.00000001
 40
0.0
 40
0.0
 40
0.0
 40
0.0
 40
0.1722587823568594
 40
0.3421398271249483
 40
0.5097456257913412
 40
0.6751828993276895
 40
0.8385626190137785
 40
1.0
 40
1.0
 40
1.0
 40
1.0
 10
198.9262362229031
 20
57.00092165244039
 30
0.0
 10
198.9493877468558
 20
56.98280206150544
 30
0.0
 10
198.9953712276076
 20
56.94681298956822
 30
0.0
 10
199.0629122403222
 20
56.89581300615022
 30
0.0
 10
199.1285718550087
 20
56.84748832595908
 30
0.0
 10
199.1920959262579
 20
56.80205732005128
 30
0.0
 10
199.2535263049763
 20
56.75923175229424
 30
0.0
 10
199.2927924719467
 20
56.73276593512107
 30
0.0
 10
199.3123081536764
 20
56.71961215657537
 30
0.0
  0
SPLINE
  5
212
330
1F
100
AcDbEntity
  8
0
  6
Continuous
 62
     7
370
    25
100
AcDbSpline
210
0.0
220
0.0
230
1.0
 70
     8
 71
     3
 72
    11
 73
     7
 74
     0
 42
0.000000001
 43
0.00000001
 40
0.0
 40
0.0
 40
0.0
 40
0.0
 40
0.2392845094072487
 40
0.5001120454065696
 40
0.7515010915046029
 40
1.0
 40
1.0
 40
1.0
 40
1.0
 10
198.776855811427
 20
57.04823564465326
 30
0.0
 10
198.7297865794309
 20
57.01992112194463
 30
0.0
 10
198.6314104248373
 20
56.9607428913872
 30
0.0
 10
198.4851132032525
 20
56.86755499092888
 30
0.0
 10
198.3372724595976
 20
56.77218307495648
 30
0.0
 10
198.2409859968804
 20
56.70764781969026
 30
0.0
 10
198.1931211090226
 20
56.67556674963093
 30
0.0
  0
SPLINE
  5
213
330
1F
100
AcDbEntity
  8
0
  6
Continuous
 62
     7
370
    25
100
AcDbSpline
210
0.0
220
0.0
230
1.0
 70
     8
 71
     3
 72
     9
 73
     5
 74
     0
 42
0.000000001
 43
0.00000001
 40
0.0
 40
0.0
 40
0.0
 40
0.0
 40
0.5090669353869909
 40
1.0
 40
1.0
 40
1.0
 40
1.0
 10
198.7774268150112
 20
57.04753669044149
 30
0.0
 10
198.8030753896352
 20
57.04004398228161
 30
0.0
 10
198.8534588909806
 20
57.02532546956935
 30
0.0
 10
198.902266402476
 20
57.00893311171718
 30
0.0
 10
198.9262276236705
 20
57.00088556124058
 30
0.0
  0
LINE
  5
214
330
1F
100
AcDbEntity
  8
0
  6
Continuous
 62
     7
370
    25
100
AcDbLine
 10
200.6073453951
 20
57.9714152577
 30
0.0
 11
198.9262294388
 21
57.0009276735
 31
0.0
  0
LINE
  5
215
330
1F
100
AcDbEntity
  8
0
  6
Continuous
 62
     7
370
    25
100
AcDbLine
 10
196.9197417875
 20
58.1247489721
 30
0.0
 11
196.719446134
 21
57.6235915579
 31
0.0
  0
SPLINE
  5
216
330
1F
100
AcDbEntity
  8
0
  6
Continuous
 62
     7
370
    25
100
AcDbSpline
210
0.0
220
0.0
230
1.0
 70
     8
 71
     3
 72
     8
 73
     4
 74
     0
 42
0.000000001
 43
0.00000001
 40
0.0
 40
0.0
 40
0.0
 40
0.0
 40
1.0
 40
1.0
 40
1.0
 40
1.0
 10
196.919298616871
 20
58.12553272430284
 30
0.0
 10
196.9454739514402
 20
58.14770010128111
 30
0.0
 10
196.9712949914057
 20
58.17033224237272
 30
0.0
 10
196.9967525451141
 20
58.19341696246401
 30
0.0
  0
LINE
  5
217
330
1F
100
AcDbEntity
  8
0
  6
Continuous
 62
     7
370
    25
100
AcDbLine
 10
196.9967526409
 20
58.1934168468
 30
0.0
 11
198.7770454001
 21
57.0476459617
 31
0.0
  0
LINE
  5
218
330
1F
100
AcDbEntity
  8
0
  6
Continuous
 62
     7
370
    25
100
AcDbLine
 10
200.6071366365
 20
58.0694651929
 30
0.0
 11
200.5191373096
 21
58.1769562612
 31
0.0
  0
LINE
  5
219
330
1F
100
AcDbEntity
  8
0
  6
Continuous
 62
     7
370
    25
100
AcDbLine
 10
198.6907293129
 20
59.1713287642
 30
0.0
 11
196.9967526409
 21
58.1934168468
 31
0.0
  0
LINE
  5
21A
330
1F
100
AcDbEntity
  8
0
  6
Continuous
 62
     7
370
    25
100
AcDbLine
 10
198.8334233954
 20
59.1500366025
 30
0.0
 11
198.6911494643
 21
59.1708413867
 31
0.0
  0
LINE
  5
21B
330
1F
100
AcDbEntity
  8
0
  6
Continuous
 62
     7
370
    25
100
AcDbLine
 10
200.5192110666
 20
58.1768520947
 30
0.0
 11
198.8334233954
 21
59.1500366025
 31
0.0
  0
LINE
  5
21C
330
1F
100
AcDbEntity
  8
0
  6
Continuous
 62
     7
370
    25
100
AcDbLine
 10
200.6071366365
 20
58.1260880119
 30
0.0
 11
200.5191643099
 21
58.1768790681
 31
0.0
  0
SPLINE
  5
21D
330
1F
100
AcDbEntity
  8
0
  6
Continuous
 62
     7
370
    25
100
AcDbSpline
210
0.0
220
0.0
230
1.0
 70
     8
 71
     3
 72
    19
 73
    15
 74
     0
 42
0.000000001
 43
0.00000001
 40
0.0
 40
0.0
 40
0.0
 40
0.0
 40
0.0637853009079321
 40
0.1289628367584881
 40
0.1955871994206041
 40
0.2637095015301855
 40
0.333377557925683
 40
0.4046360709472339
 40
0.4775268158804485
 40
0.5520888236325457
 40
0.6283585584323447
 40
0.7063700889443321
 40
0.8377041805868246
 40
1.0
 40
1.0
 40
1.0
 40
1.0
 10
196.1352295109097
 20
58.29402081165472
 30
0.0
 10
196.1559188799129
 20
58.28066167164556
 30
0.0
 10
196.1977492025643
 20
58.25365180310672
 30
0.0
 10
196.2582401761546
 20
58.21612983758214
 30
0.0
 10
196.3177243743309
 20
58.18061009649233
 30
0.0
 10
196.3758055338007
 20
58.1476299675757
 30
0.0
 10
196.4323376508875
 20
58.11742353130455
 30
0.0
 10
196.4870827056421
 20
58.09031009134176
 30
0.0
 10
196.5398050832364
 20
58.0665784735903
 30
0.0
 10
196.5902467161706
 20
58.04653822014427
 30
0.0
 10
196.6381296346402
 20
58.03041835860498
 30
0.0
 10
196.6930937890156
 20
58.0161403889233
 30
0.0
 10
196.7559251029772
 20
58.00600183167097
 30
0.0
 10
196.7944326186346
 20
58.01247608298382
 30
0.0
 10
196.8157165838298
 20
58.01605454649295
 30
0.0
  0
LINE
  5
21E
330
1F
100
AcDbEntity
  8
0
  6
Continuous
 62
     7
370
    25
100
AcDbLine
 10
196.8403522715
 20
58.0421250008
 30
0.0
 11
196.9191563415
 21
58.1255166045
 31
0.0
  0
SPLINE
  5
21F
330
1F
100
AcDbEntity
  8
0
  6
Continuous
 62
     7
370
    25
100
AcDbSpline
210
0.0
220
0.0
230
1.0
 70
     8
 71
     3
 72
     9
 73
     5
 74
     0
 42
0.000000001
 43
0.00000001
 40
0.0
 40
0.0
 40
0.0
 40
0.0
 40
0.5232016984460688
 40
1.0
 40
1.0
 40
1.0
 40
1.0
 10
198.524551533224
 20
59.0753965433876
 30
0.0
 10
198.4555273705754
 20
59.10043870850409
 30
0.0
 10
198.3236008824665
 20
59.14830201856383
 30
0.0
 10
198.0821634696479
 20
59.28590014925049
 30
0.0
 10
197.9670465212843
 20
59.35150670425889
 30
0.0
  0
LINE
  5
220
330
1F
100
AcDbEntity
  8
0
  6
Continuous
 62
     7
370
    25
100
AcDbLine
 10
194.2375453243
 20
59.1173962669
 30
0.0
 11
194.6890164386
 21
59.2296602398
 31
0.0
  0
LINE
  5
221
330
1F
100
AcDbEntity
  8
0
  6
Continuous
 62
     7
370
    25
100
AcDbLine
 10
194.6890164386
 20
59.2296602398
 30
0.0
 11
196.1352289104
 21
58.2940209067
 31
0.0
  0
SPLINE
  5
222
330
1F
100
AcDbEntity
  8
0
  6
Continuous
 62
     7
370
    25
100
AcDbSpline
210
0.0
220
0.0
230
1.0
 70
     8
 71
     3
 72
     8
 73
     4
 74
     0
 42
0.000000001
 43
0.00000001
 40
0.0
 40
0.0
 40
0.0
 40
0.0
 40
1.0
 40
1.0
 40
1.0
 40
1.0
 10
194.4083338949264
 20
58.72264661387139
 30
0.0
 10
194.3512086260031
 20
58.85443279766532
 30
0.0
 10
194.2942801342863
 20
58.98601701932441
 30
0.0
 10
194.2375460163376
 20
59.11739608622407
 30
0.0
  0
LINE
  5
223
330
1F
100
AcDbEntity
  8
0
  6
Continuous
 62
     7
370
    25
100
AcDbLine
 10
196.0267178977
 20
60.0018988545
 30
0.0
 11
194.6890164386
 21
59.2296602398
 31
0.0
  0
LINE
  5
224
330
1F
100
AcDbEntity
  8
0
  6
Continuous
 62
     7
370
    25
100
AcDbLine
 10
197.0097463825
 20
59.9041454516
 30
0.0
 11
196.0267178977
 21
60.0018988545
 31
0.0
  0
LINE
  5
225
330
1F
100
AcDbEntity
  8
0
  6
Continuous
 62
     7
370
    25
100
AcDbLine
 10
197.9670465213
 20
59.3515067043
 30
0.0
 11
197.0097453947
 21
59.9041448814
 31
0.0
  0
SPLINE
  5
226
330
1F
100
AcDbEntity
  8
0
  6
Continuous
 62
     7
370
    25
100
AcDbSpline
210
0.0
220
0.0
230
1.0
 70
     8
 71
     3
 72
     8
 73
     4
 74
     0
 42
0.000000001
 43
0.00000001
 40
0.0
 40
0.0
 40
0.0
 40
0.0
 40
1.0
 40
1.0
 40
1.0
 40
1.0
 10
194.2375460163376
 20
59.11739608622407
 30
0.0
 10
194.2344086785874
 20
59.15261239309659
 30
0.0
 10
194.2324162746895
 20
59.18825664932428
 30
0.0
 10
194.2316348773174
 20
59.22435355131916
 30
0.0
  0
LINE
  5
227
330
1F
100
AcDbEntity
  8
0
  6
Continuous
 62
     7
370
    25
100
AcDbLine
 10
195.0427213524
 20
59.692583266
 30
0.0
 11
194.2316355459
 21
59.2243533964
 31
0.0
  0
SPLINE
  5
228
330
1F
100
AcDbEntity
  8
0
  6
Continuous
 62
     7
370
    25
100
AcDbSpline
210
0.0
220
0.0
230
1.0
 70
     8
 71
     3
 72
     8
 73
     4
 74
     0
 42
0.000000001
 43
0.00000001
 40
0.0000004089325119
 40
0.0000004089325119
 40
0.0000004089325119
 40
0.0000004089325119
 40
0.0015399868451459
 40
0.0015399868451459
 40
0.0015399868451459
 40
0.0015399868451459
 10
195.0427204098062
 20
59.69258326267528
 30
0.0
 10
195.2811969778294
 20
59.78695964849164
 30
0.0
 10
195.5196439354982
 20
59.88138826042184
 30
0.0
 10
195.7580526743484
 20
59.9758816433843
 30
0.0
  0
LINE
  5
229
330
1F
100
AcDbEntity
  8
0
  6
Continuous
 62
     7
370
    25
100
AcDbLine
 10
195.7580521533
 20
59.9758817905
 30
0.0
 11
195.7824485931
 21
59.9808758169
 31
0.0
  0
LINE
  5
22A
330
1F
100
AcDbEntity
  8
0
  6
Continuous
 62
     7
370
    25
100
AcDbLine
 10
196.0267178977
 20
60.0018988545
 30
0.0
 11
195.7824492517
 21
59.9808758169
 31
0.0
  0
SPLINE
  5
22B
330
1F
100
AcDbEntity
  8
0
  6
Continuous
 62
     7
370
    25
100
AcDbSpline
210
0.0
220
0.0
230
1.0
 70
     8
 71
     3
 72
     8
 73
     4
 74
     0
 42
0.000000001
 43
0.00000001
 40
0.0
 40
0.0
 40
0.0
 40
0.0
 40
1.0
 40
1.0
 40
1.0
 40
1.0
 10
197.0097445888565
 20
59.90414563597127
 30
0.0
 10
197.0403526229797
 20
59.88920562816514
 30
0.0
 10
197.0709041239516
 20
59.87432867077177
 30
0.0
 10
197.1013980620662
 20
59.85951510709085
 30
0.0
  0
LWPOLYLINE
  5
22C
330
1F
100
AcDbEntity
  8
0
  6
Continuous
 62
     7
370
    25
100
AcDbPolyline
 90
        3
 70
   128
 43
0.0
 10
200.6495177211
 20
59.3925955653
 10
200.1749880412
 20
59.1946332596
 10
199.4381333716
 20
58.9685909276
  0
ARC
  5
22D
330
1F
100
AcDbEntity
  8
0
  6
Continuous
 62
     7
370
    18
100
AcDbCircle
 10
246.6354994411
 20
41.8977457043
 30
0.0
 40
4.834182167121025
100
AcDbArc
 50
341.8173446801
 51
0.764679149
  0
LWPOLYLINE
  5
22E
330
1F
100
AcDbEntity
  8
0
  6
Continuous
 62
     7
370
    18
100
AcDbPolyline
 90
       16
 70
   128
 43
0.0
 10
235.4577081135
 20
43.8979440298
 10
235.503517128
 20
44.5627804502
 10
235.6396945834
 20
45.2623718115
 10
235.8625262885
 20
45.9776353587
 10
236.1659338777
 20
46.6890604184
 10
236.5416409281
 20
47.3772409443
 10
236.9793991702
 20
48.0234053011
 10
237.4672677926
 20
48.6099279827
 10
237.9919390924
 20
49.1208100032
 10
238.5391012513
 20
49.5421158925
 10
239.093829181
 20
49.8623535099
 10
239.6409913399
 20
50.0727876023
 10
240.1656626397
 20
50.1676781703
 10
240.6535312621
 20
50.1444366104
 10
241.0912895041
 20
50.0036971615
 10
241.1912722009
 20
49.9506453981
  0
ARC
  5
22F
330
1F
100
AcDbEntity
  8
0
  6
Continuous
 62
     7
370
    18
100
AcDbCircle
 10
237.8539219239
 20
43.6721166479
 30
0.0
 40
2.406831658293307
100
AcDbArc
 50
174.6161517314
 51
234.0716607881
  0
LWPOLYLINE
  5
230
330
1F
100
AcDbEntity
  8
0
  6
Continuous
 62
     7
370
    18
100
AcDbPolyline
 90
       19
 70
   128
 43
0.0
 10
217.8218410794
 20
52.6123796537
 10
217.866889475
 20
53.3823132102
 10
218.0011587977
 20
54.1892732228
 10
218.2220346257
 20
55.0175525758
 10
218.525218639
 20
55.8510300494
 10
218.9048096203
 20
56.6734829572
 10
219.3534190295
 20
57.4689031079
 10
219.8623150603
 20
58.2218085817
 10
220.4215930387
 20
58.9175453325
 10
221.0203668946
 20
59.5425707277
 10
221.6469824484
 20
60.0847200232
 10
222.2892432189
 20
60.5334409029
 10
222.9346483131
 20
60.8799992511
 10
223.5706356549
 20
61.117649604
 10
224.1848265317
 20
61.2417668173
 10
224.765266344
 20
61.2499348579
 10
225.3006577606
 20
61.1419947082
 10
225.7805793148
 20
60.9200473645
 10
226.067404424
 20
60.7087463689
  0
LWPOLYLINE
  5
231
330
1F
100
AcDbEntity
  8
0
  6
Continuous
 62
     7
370
    18
100
AcDbPolyline
 90
        8
 70
   128
 43
0.0
 10
219.5596300591
 20
49.4410924189
 10
219.3534190295
 20
49.5241784608
 10
218.9048096203
 20
49.8016452126
 10
218.525218639
 20
50.1858317022
 10
218.2220346257
 20
50.669260365
 10
218.0011587977
 20
51.2425219152
 10
217.866889475
 20
51.8944578677
 10
217.8218410794
 20
52.6123796537
  0
LWPOLYLINE
  5
232
330
1F
100
AcDbEntity
  8
0
  6
Continuous
 62
     7
370
    18
100
AcDbPolyline
 90
       41
 70
   128
 43
0.0
 10
210.7792482316
 20
49.5824355083
 10
210.8238889882
 20
50.7396213322
 10
210.9574404973
 20
51.9387588742
 10
211.1787970628
 20
53.1699125054
 10
211.4861246381
 20
54.4228805028
 10
211.8768753146
 20
55.6872795552
 10
212.3478123461
 20
56.9526326888
 10
212.8950325392
 20
58.2084553878
 10
213.514001815
 20
59.4443407626
 10
214.1995920873
 20
60.6500485209
 10
214.9461207758
 20
61.8155878543
 10
215.7474028302
 20
62.9312999435
 10
216.596798805
 20
63.9879397036
 10
217.4872698471
 20
64.9767523958
 10
218.4114369652
 20
65.889543584
 10
219.3616429333
 20
66.718750613
 10
220.3300135345
 20
67.4575007778
 10
221.308524795
 20
68.0996744715
 10
222.2890683651
 20
68.6399482523
 10
223.2635191431
 20
69.0738475703
 10
224.2238026531
 20
69.3977750173
 10
225.1619613725
 20
69.6090478566
 10
226.0702216774
 20
69.705914616
 10
226.9410575564
 20
69.6875728579
 10
227.7672526789
 20
69.5541745916
 10
228.5419611453
 20
69.3068248416
 10
229.2587631347
 20
68.9475734676
 10
229.9117198925
 20
68.4793982393
 10
230.4954195001
 20
67.9061772646
 10
231.005026265
 20
67.2326608485
 10
231.4363169415
 20
66.4644300443
 10
231.7857182669
 20
65.6078510221
 10
232.0503346211
 20
64.6700212636
 10
232.2279723923
 20
63.6587113845
 10
232.3171617092
 20
62.5823027744
 10
232.3171617092
 20
61.4497138313
 10
232.2279723923
 20
60.2703294278
 10
232.0503346211
 20
59.0539233437
 10
231.7857182669
 20
57.8105740458
 10
231.4363169415
 20
56.5505848401
 10
231.4063511907
 20
56.4543697043
  0
LWPOLYLINE
  5
233
330
1F
100
AcDbEntity
  8
0
  6
Continuous
 62
     7
370
    18
100
AcDbPolyline
 90
       23
 70
   128
 43
0.0
 10
225.9292523229
 20
46.9584143086
 10
225.1619613725
 20
46.1617502854
 10
224.2238026531
 20
45.2898481232
 10
223.2635191431
 20
44.5050558294
 10
222.2890683651
 20
43.813878227
 10
221.308524795
 20
43.2220404994
 10
220.3300135345
 20
42.7344491394
 10
219.3616429333
 20
42.3551424066
 10
218.4114369652
 20
42.0872649771
 10
217.4872698471
 20
41.9330355228
 10
216.596798805
 20
41.8937322338
 10
215.7474028302
 20
41.9696802761
 10
214.9461207758
 20
42.1602517974
 10
214.1995920873
 20
42.4638674537
 10
213.514001815
 20
42.8780095325
 10
212.8950325392
 20
43.3992481932
 10
212.3478123461
 20
44.0232639055
 10
211.8768753146
 20
44.7448847163
 10
211.4861246381
 20
45.5581326406
 10
211.1787970628
 20
46.4562677724
 10
210.9574404973
 20
47.4318485531
 10
210.8238889882
 20
48.4767908048
 10
210.7792482316
 20
49.5824355083
  0
LWPOLYLINE
  5
234
330
1F
100
AcDbEntity
  8
0
  6
Continuous
 62
     7
370
    18
100
AcDbPolyline
 90
       33
 70
   128
 43
0.0
 10
212.0275746642
 20
43.4356555714
 10
211.6866224648
 20
43.8481976175
 10
211.2087957407
 20
44.5807906531
 10
210.8109229053
 20
45.4048150049
 10
210.4961867043
 20
46.31367564
 10
210.2671060703
 20
47.3001005858
 10
210.1255143912
 20
48.3561958753
 10
210.0725437052
 20
49.4735101644
 10
210.1086187733
 20
50.6431029124
 10
210.2334511532
 20
51.8556150581
 10
210.4460411742
 20
53.1013435931
 10
210.7446884744
 20
54.3703201489
 10
211.1270025372
 20
55.6523897284
 10
211.5899244235
 20
56.9372939744
 10
212.1297491617
 20
58.2147494947
 10
212.7421580171
 20
59.4745353128
 10
213.4222494428
 20
60.7065692915
 10
214.1645812271
 20
61.90099254
 10
214.963213957
 20
63.0482477378
 10
215.8117564581
 20
64.1391547963
 10
216.7034181486
 20
65.1649821475
 10
217.6310640282
 20
66.1175233552
 10
218.5872713123
 20
66.9891541447
 10
219.5643877139
 20
67.7729002682
 10
220.5545945396
 20
68.4624899002
 10
221.5499678941
 20
69.0524056991
 10
222.5425425578
 20
69.5379270071
 10
223.5243758667
 20
69.9151667268
 10
224.4876111378
 20
70.1811079359
 10
225.42454019
 20
70.3336217291
 10
226.3276658233
 20
70.3714880767
 10
227.1897605118
 20
70.294403852
 10
227.5361167275
 20
70.2282711574
  0
LWPOLYLINE
  5
235
330
1F
100
AcDbEntity
  8
0
  6
Continuous
 62
     7
370
    18
100
AcDbPolyline
 90
       26
 70
   128
 43
0.0
 10
215.8768792659
 20
52.5252352651
 10
215.9216431703
 20
53.3726969945
 10
216.0552299116
 20
54.2584775289
 10
216.275531818
 20
55.1686073628
 10
216.5790747381
 20
56.0887328951
 10
216.9610723703
 20
57.0043438022
 10
217.4154996909
 20
57.9009998393
 10
217.9351900894
 20
58.7645604913
 10
218.5119479793
 20
59.5814066367
 10
219.1366777085
 20
60.3386566026
 10
219.7995266281
 20
61.0243677683
 10
220.490041167
 20
61.6277255265
 10
221.1973317569
 20
62.1392160584
 10
221.9102438061
 20
62.5507714242
 10
222.6175343959
 20
62.8559012251
 10
223.3080489349
 20
63.0497945836
 10
223.9708978544
 20
63.1293924903
 10
224.5956275836
 20
63.0934401166
 10
225.1723854735
 20
62.9425044565
 10
225.692075872
 20
62.6789655668
 10
226.1465031927
 20
62.3069801461
 10
226.5285008249
 20
61.8324143173
 10
226.8320437449
 20
61.2627519807
 10
227.0523456514
 20
60.6069773138
 10
227.1859323926
 20
59.8754327479
 10
227.1952936028
 20
59.7901968597
  0
LWPOLYLINE
  5
236
330
1F
100
AcDbEntity
  8
0
  6
Continuous
 62
     7
370
    18
100
AcDbPolyline
 90
       13
 70
   128
 43
0.0
 10
220.8829295202
 20
48.9056163817
 10
220.490041167
 20
48.7489883625
 10
219.7995266281
 20
48.5550950039
 10
219.1366777085
 20
48.4754970973
 10
218.5119479793
 20
48.511449471
 10
217.9351900894
 20
48.6623851311
 10
217.4154996909
 20
48.9259240208
 10
216.9610723703
 20
49.2979094415
 10
216.5790747381
 20
49.7724752703
 10
216.275531818
 20
50.3421376069
 10
216.0552299116
 20
50.9979122738
 10
215.9216431703
 20
51.7294568397
 10
215.8768792659
 20
52.5252352651
  0
LWPOLYLINE
  5
237
330
1F
100
AcDbEntity
  8
0
  6
Continuous
 62
     7
370
    18
100
AcDbPolyline
 90
       28
 70
   128
 43
0.0
 10
204.1324447027
 20
53.0113493873
 10
204.1772428514
 20
54.1891038165
 10
204.3112777322
 20
55.4090990993
 10
204.5334693321
 20
56.6615123428
 10
204.8420290442
 20
57.9362595016
 10
205.2344721801
 20
59.2230772215
 10
205.7076397018
 20
60.5116052524
 10
206.2577212708
 20
61.7914685764
 10
206.8802881752
 20
63.0523625765
 10
207.5703282328
 20
64.2841359236
 10
208.3222853036
 20
65.4768708018
 10
209.1301047294
 20
66.6209631329
 10
209.9872830539
 20
67.7072022302
 10
210.8869187306
 20
68.7268418972
 10
211.82176777
 20
69.6716728563
 10
212.7843039961
 20
70.5340887131
 10
213.7667774926
 20
71.3071440318
 10
214.7612776993
 20
71.9846150947
 10
215.7597977029
 20
72.561048423
 10
216.7542979096
 20
73.0318028582
 10
217.736771406
 20
73.3930872933
 10
218.6993076322
 20
73.6419921081
 10
219.6341566715
 20
73.7765148752
 10
220.5337923483
 20
73.7955724513
 10
221.3909706727
 20
73.6990103815
 10
222.1987900985
 20
73.4876065066
 10
222.9507471693
 20
73.1630627824
 10
223.1286483584
 20
73.0649049312
  0
LWPOLYLINE
  5
238
330
1F
100
AcDbEntity
  8
0
  6
Continuous
 62
     7
370
    18
100
AcDbPolyline
 90
       10
 70
   128
 43
0.0
 10
207.3924270438
 20
45.8060165374
 10
206.8802881752
 20
46.142928741
 10
206.2577212708
 20
46.6850222934
 10
205.7076397018
 20
47.3297749566
 10
205.2344721801
 20
48.0719953955
 10
204.8420290442
 20
48.9057079152
 10
204.5334693321
 20
49.8241996135
 10
204.3112777322
 20
50.8200758963
 10
204.1772428514
 20
51.8853177997
 10
204.1324447027
 20
53.0113493873
  0
LWPOLYLINE
  5
239
330
1F
100
AcDbEntity
  8
0
  6
Continuous
 62
     7
370
    18
100
AcDbPolyline
 90
       13
 70
   128
 43
0.0
 10
208.7565261411
 20
49.6757127596
 10
208.6242107201
 20
50.4679450918
 10
208.5413315766
 20
51.5210079922
 10
208.5513888684
 20
52.6318130549
 10
208.6542890819
 20
53.7898691802
 10
208.8490595471
 20
54.9842373432
 10
209.133860949
 20
56.2036364398
 10
209.5060031333
 20
57.4365487514
 10
209.9619707896
 20
58.6713284989
 10
210.4974570366
 20
59.8963121065
 10
211.1074042526
 20
61.0999303665
 10
211.7860508317
 20
62.2708126178
 10
212.5269871602
 20
63.3979011908
  0
LWPOLYLINE
  5
23A
330
1F
100
AcDbEntity
  8
0
  6
Continuous
 62
     7
370
    18
100
AcDbPolyline
 90
       17
 70
   128
 43
0.0
 10
209.2683219081
 20
46.7457850586
 10
208.9117384962
 20
47.2906152739
 10
208.5158597336
 20
48.0927297422
 10
208.2071314341
 20
48.9841430838
 10
207.9883827049
 20
49.9566867113
 10
207.8616181554
 20
51.0014498075
 10
207.8279987998
 20
52.1088587726
 10
207.8878334952
 20
53.2687670775
 10
208.0405736742
 20
54.4705463782
 10
208.2848192712
 20
55.7031845665
 10
208.6183332103
 20
56.9553873626
 10
209.0380585281
 20
58.2156806187
 10
209.5401499832
 20
59.4725170667
 10
210.120006325
 20
60.7143791673
 10
210.772315075
 20
61.9298886129
 10
211.4910992833
 20
63.1079082248
 10
212.2697721877
 20
64.2376430898
  0
LINE
  5
23B
330
1F
100
AcDbEntity
  8
0
  6
Continuous
 62
     7
370
    18
100
AcDbLine
 10
215.2616956333
 20
65.6386636572
 30
0.0
 11
215.3032445234
 21
65.682207666
 31
0.0
  0
ARC
  5
23C
330
1F
100
AcDbEntity
  8
0
  6
Continuous
 62
     7
370
    18
100
AcDbCircle
 10
225.3529007929
 20
56.4547709894
 30
0.0
 40
14.35349360837143
100
AcDbArc
 50
109.931969941
 51
139.4246766989
  0
LWPOLYLINE
  5
23D
330
1F
100
AcDbEntity
  8
0
  6
Continuous
 62
     7
370
    18
100
AcDbPolyline
 90
       12
 70
   128
 43
0.0
 10
213.6139652493
 20
65.9098066071
 10
214.5263098472
 20
66.8805421845
 10
215.4716383053
 20
67.7660845721
 10
216.4410434799
 20
68.5580902363
 10
217.4253919761
 20
69.2490972079
 10
218.4154095938
 20
69.8325957016
 10
219.4017686264
 20
70.3030868774
 10
220.3751756936
 20
70.6561381088
 10
221.3264598637
 20
70.8884239678
 10
222.2466579341
 20
70.9977549247
 10
223.1271006604
 20
70.9831020311
 10
223.2529287596
 20
70.9704596961
  0
LINE
  5
23E
330
1F
100
AcDbEntity
  8
0
  6
Continuous
 62
     7
370
    18
100
AcDbLine
 10
199.6460804892
 20
63.3839569861
 30
0.0
 11
199.9522444164
 21
63.0132219302
 31
0.0
  0
LINE
  5
23F
330
1F
100
AcDbEntity
  8
0
  6
Continuous
 62
     7
370
    18
100
AcDbLine
 10
199.6460804892
 20
55.6198468384
 30
0.0
 11
199.9522444164
 21
56.3073803069
 31
0.0
  0
LINE
  5
240
330
1F
100
AcDbEntity
  8
0
  6
Continuous
 62
     7
370
    18
100
AcDbLine
 10
200.6881547332
 20
56.73221229
 30
0.0
 11
199.9522516604
 21
56.3073844888
 31
0.0
  0
LINE
  5
241
330
1F
100
AcDbEntity
  8
0
  6
Continuous
 62
     7
370
    18
100
AcDbLine
 10
200.6215791761
 20
57.4754382577
 30
0.0
 11
199.312307742
 21
56.719611947
 31
0.0
  0
LINE
  5
242
330
1F
100
AcDbEntity
  8
0
  6
Continuous
 62
     7
370
    18
100
AcDbLine
 10
196.1352289104
 20
58.2940209067
 30
0.0
 11
195.8387416362
 21
57.7979592889
 31
0.0
  0
LINE
  5
243
330
1F
100
AcDbEntity
  8
0
  6
Continuous
 62
     7
370
    18
100
AcDbLine
 10
197.9670465213
 20
59.3515067043
 30
0.0
 11
196.1352894965
 21
58.2940558823
 31
0.0
  0
LINE
  5
244
330
1F
100
AcDbEntity
  8
0
  6
Continuous
 62
     7
370
    18
100
AcDbLine
 10
197.9670465213
 20
59.3515067043
 30
0.0
 11
198.0883566758
 21
59.2897561909
 31
0.0
  0
OLE2FRAME
  5
245
330
1F
100
AcDbEntity
  8
0
100
AcDbOle2Frame
 70
     2
  3
Paintbrush-Bild
 10
13.8511154363
 20
38.264191557
 30
0.0
 11
51.6290888628
 21
31.9806341108
 31
0.0
 71
     2
 72
     0
 73
     1
 90
    12928
310
80552BED0767C5B32B40DDAF6807D121434000000000000000006FFBDDFB85D0
310
4940DDAF6807D121434000000000000000006FFBDDFB85D04940416F4BD60AFB
310
3F4000000000000000002BED0767C5B32B40416F4BD60AFB3F40000000000000
310
0000000000000100000000010000010000000100000000000100000000320000
310
D0CF11E0A1B11AE1000000000000000000000000000000003E000300FEFF0900
310
0600000000000000000000000100000001000000000000000010000002000000
310
01000000FEFFFFFF0000000000000000FFFFFFFFFFFFFFFFFFFFFFFFFFFFFFFF
310
FFFFFFFFFFFFFFFFFFFFFFFFFFFFFFFFFFFFFFFFFFFFFFFFFFFFFFFFFFFFFFFF
310
FFFFFFFFFFFFFFFFFFFFFFFFFFFFFFFFFFFFFFFFFFFFFFFFFFFFFFFFFFFFFFFF
310
FFFFFFFFFFFFFFFFFFFFFFFFFFFFFFFFFFFFFFFFFFFFFFFFFFFFFFFFFFFFFFFF
310
FFFFFFFFFFFFFFFFFFFFFFFFFFFFFFFFFFFFFFFFFFFFFFFFFFFFFFFFFFFFFFFF
310
FFFFFFFFFFFFFFFFFFFFFFFFFFFFFFFFFFFFFFFFFFFFFFFFFFFFFFFFFFFFFFFF
310
FFFFFFFFFFFFFFFFFFFFFFFFFFFFFFFFFFFFFFFFFFFFFFFFFFFFFFFFFFFFFFFF
310
FFFFFFFFFFFFFFFFFFFFFFFFFFFFFFFFFFFFFFFFFFFFFFFFFFFFFFFFFFFFFFFF
310
FFFFFFFFFFFFFFFFFFFFFFFFFFFFFFFFFFFFFFFFFFFFFFFFFFFFFFFFFFFFFFFF
310
FFFFFFFFFFFFFFFFFFFFFFFFFFFFFFFFFFFFFFFFFFFFFFFFFFFFFFFFFFFFFFFF
310
FFFFFFFFFFFFFFFFFFFFFFFFFFFFFFFFFFFFFFFFFFFFFFFFFFFFFFFFFFFFFFFF
310
FFFFFFFFFFFFFFFFFFFFFFFFFFFFFFFFFFFFFFFFFFFFFFFFFFFFFFFFFFFFFFFF
310
FFFFFFFFFFFFFFFFFFFFFFFFFFFFFFFFFFFFFFFFFFFFFFFFFFFFFFFFFFFFFFFF
310
FFFFFFFFFFFFFFFFFFFFFFFFFFFFFFFFFFFFFFFFFFFFFFFFFFFFFFFFFFFFFFFF
310
FDFFFFFFFEFFFFFFFEFFFFFFFEFFFFFF05000000060000000700000008000000
310
090000000A0000000B0000000C0000000D0000000E0000000F00000010000000
310
11000000120000001300000014000000150000001600000017000000FEFFFFFF
310
FFFFFFFFFFFFFFFFFFFFFFFFFFFFFFFFFFFFFFFFFFFFFFFFFFFFFFFFFFFFFFFF
310
FFFFFFFFFFFFFFFFFFFFFFFFFFFFFFFFFFFFFFFFFFFFFFFFFFFFFFFFFFFFFFFF
310
FFFFFFFFFFFFFFFFFFFFFFFFFFFFFFFFFFFFFFFFFFFFFFFFFFFFFFFFFFFFFFFF
310
FFFFFFFFFFFFFFFFFFFFFFFFFFFFFFFFFFFFFFFFFFFFFFFFFFFFFFFFFFFFFFFF
310
FFFFFFFFFFFFFFFFFFFFFFFFFFFFFFFFFFFFFFFFFFFFFFFFFFFFFFFFFFFFFFFF
310
FFFFFFFFFFFFFFFFFFFFFFFFFFFFFFFFFFFFFFFFFFFFFFFFFFFFFFFFFFFFFFFF
310
FFFFFFFFFFFFFFFFFFFFFFFFFFFFFFFFFFFFFFFFFFFFFFFFFFFFFFFFFFFFFFFF
310
FFFFFFFFFFFFFFFFFFFFFFFFFFFFFFFFFFFFFFFFFFFFFFFFFFFFFFFFFFFFFFFF
310
FFFFFFFFFFFFFFFFFFFFFFFFFFFFFFFFFFFFFFFFFFFFFFFFFFFFFFFFFFFFFFFF
310
FFFFFFFFFFFFFFFFFFFFFFFFFFFFFFFFFFFFFFFFFFFFFFFFFFFFFFFFFFFFFFFF
310
FFFFFFFFFFFFFFFFFFFFFFFFFFFFFFFFFFFFFFFFFFFFFFFFFFFFFFFFFFFFFFFF
310
FFFFFFFFFFFFFFFFFFFFFFFFFFFFFFFFFFFFFFFFFFFFFFFFFFFFFFFFFFFFFFFF
310
FFFFFFFFFFFFFFFFFFFFFFFFFFFFFFFFFFFFFFFFFFFFFFFFFFFFFFFFFFFFFFFF
310
52006F006F007400200045006E00740072007900000000000000000000000000
310
0000000000000000000000000000000000000000000000000000000000000000
310
16000500FFFFFFFFFFFFFFFF020000000A00030000000000C000000000000046
310
000000000000000000000000505213182EA7D30103000000C000000000000000
310
01004F006C006500000000000000000000000000000000000000000000000000
310
0000000000000000000000000000000000000000000000000000000000000000
310
0A000200FFFFFFFFFFFFFFFFFFFFFFFF00000000000000000000000000000000
310
0000000000000000000000000000000000000000000000001400000000000000
310
010043006F006D0070004F0062006A0000000000000000000000000000000000
310
0000000000000000000000000000000000000000000000000000000000000000
310
120002010100000003000000FFFFFFFF00000000000000000000000000000000
310
0000000000000000000000000000000000000000010000004D00000000000000
310
01004F006C006500310030004E00610074006900760065000000000000000000
310
0000000000000000000000000000000000000000000000000000000000000000
310
1A000200FFFFFFFFFFFFFFFFFFFFFFFF00000000000000000000000000000000
310
0000000000000000000000000000000000000000040000002426000000000000
310
FEFFFFFF02000000FEFFFFFFFFFFFFFFFFFFFFFFFFFFFFFFFFFFFFFFFFFFFFFF
310
FFFFFFFFFFFFFFFFFFFFFFFFFFFFFFFFFFFFFFFFFFFFFFFFFFFFFFFFFFFFFFFF
310
FFFFFFFFFFFFFFFFFFFFFFFFFFFFFFFFFFFFFFFFFFFFFFFFFFFFFFFFFFFFFFFF
310
FFFFFFFFFFFFFFFFFFFFFFFFFFFFFFFFFFFFFFFFFFFFFFFFFFFFFFFFFFFFFFFF
310
FFFFFFFFFFFFFFFFFFFFFFFFFFFFFFFFFFFFFFFFFFFFFFFFFFFFFFFFFFFFFFFF
310
FFFFFFFFFFFFFFFFFFFFFFFFFFFFFFFFFFFFFFFFFFFFFFFFFFFFFFFFFFFFFFFF
310
FFFFFFFFFFFFFFFFFFFFFFFFFFFFFFFFFFFFFFFFFFFFFFFFFFFFFFFFFFFFFFFF
310
FFFFFFFFFFFFFFFFFFFFFFFFFFFFFFFFFFFFFFFFFFFFFFFFFFFFFFFFFFFFFFFF
310
FFFFFFFFFFFFFFFFFFFFFFFFFFFFFFFFFFFFFFFFFFFFFFFFFFFFFFFFFFFFFFFF
310
FFFFFFFFFFFFFFFFFFFFFFFFFFFFFFFFFFFFFFFFFFFFFFFFFFFFFFFFFFFFFFFF
310
FFFFFFFFFFFFFFFFFFFFFFFFFFFFFFFFFFFFFFFFFFFFFFFFFFFFFFFFFFFFFFFF
310
FFFFFFFFFFFFFFFFFFFFFFFFFFFFFFFFFFFFFFFFFFFFFFFFFFFFFFFFFFFFFFFF
310
FFFFFFFFFFFFFFFFFFFFFFFFFFFFFFFFFFFFFFFFFFFFFFFFFFFFFFFFFFFFFFFF
310
FFFFFFFFFFFFFFFFFFFFFFFFFFFFFFFFFFFFFFFFFFFFFFFFFFFFFFFFFFFFFFFF
310
FFFFFFFFFFFFFFFFFFFFFFFFFFFFFFFFFFFFFFFFFFFFFFFFFFFFFFFFFFFFFFFF
310
FFFFFFFFFFFFFFFFFFFFFFFFFFFFFFFFFFFFFFFFFFFFFFFFFFFFFFFFFFFFFFFF
310
0100000200000000000000000000000000000000000000000000000000000000
310
0000000000000000000000000000000000000000000000000000000000000000
310
0100FEFF030A0000FFFFFFFF0A00030000000000C00000000000004607000000
310
5042727573680007000000504272757368000700000050427275736800F439B2
310
7100000000000000000000000000000000000000000000000000000000000000
310
0000000000000000000000000000000000000000000000000000000000000000
310
0000000000000000000000000000000000000000000000000000000000000000
310
0000000000000000000000000000000000000000000000000000000000000000
310
0000000000000000000000000000000000000000000000000000000000000000
310
0000000000000000000000000000000000000000000000000000000000000000
310
0000000000000000000000000000000000000000000000000000000000000000
310
0000000000000000000000000000000000000000000000000000000000000000
310
0000000000000000000000000000000000000000000000000000000000000000
310
0000000000000000000000000000000000000000000000000000000000000000
310
0000000000000000000000000000000000000000000000000000000000000000
310
0000000000000000000000000000000000000000000000000000000000000000
310
20260000424D0E260000000000003E00000028000000B40200006E0000000100
310
01000000000000000000130B0000130B00000200000002000000000000FFFFFF
310
FFFFFFFFFFFFFFFFFFFFFFFFFFFFFFFFFFFFFFFFFFFFFFFFFFFFFFFFFFFFFFFF
310
FFFFFFFFFFFFFFFFFFFFFFFFFFFFFFFFFFFFFFFFFFFFFFFFFFFFFFFFFFFFFFFF
310
FFFFFFFFFFFFFFFFFFFFFFFFFFFFFFFFFFFFFFFFFFFFFFFFF000FFFFFFFFFFFF
310
FFFFFFFFFFFFFFFFFFFFFFFFFFFFFFFFFFFFFFFFFFFFFFFFFFFFFFFFFFFFFFFF
310
FFFFFFFFFFFFFFFFFFFFFFFFFFFFFFFFFFFFFFFFFFFFFFFFFFFFFFFFFFFFFFFF
310
FFFFFFFFFFFFFFFFFFFFFFFFFFFFFFFFF000FFFFFFFFFFFFFFFFFFFFFFFFFFFF
310
FFFFFFFFFFFFFFFFFFFFFFFFFFFFFFFFFFFFFFFFFFFFFFFFFFFFFFFFFFFFFFFF
310
FFFFFFFFFFFFFFFFFFFFFFFFFFFFFFFFFFFFFFFFFFFFFFFFFFFFFFFFFFFFFFFF
310
FFFFFFFFFFFFFFFFF000FFFFFFFFFFFFFFFFFFFFFFFFFFFFFFFFFFFFFFFFFFFF
310
FFFFFFFFFFFFFFFFFFFFFFFFFFFFFFFFFFFFFFFFFFFFFFFFFFFFFFFFFFFFFFFF
310
FFFFFFFFFFFFFFFFFFFFFFFFFFFFFFFFFFFFFFFFFFFFFFFFFFFFFFFFFFFFFFFF
310
F000FFFFFFFFFFFFFFFFFFFFFFFFFFFFFFFFFFFFFFFFFFFFFFFFFFFFFFFFFFFF
310
FFFFFFFFFFFFFFFFFFFFFFFFFFFFFFFFFFFFFFFFFFFFFFFFFFFFFFFFFFFFFFFF
310
FFFFFFFFFFFFFFFFFFFFFFFFFFFFFFFFFFFFFFFFFFFFFFFFF000FFFFFFFFFFFF
310
FFFFFFFFFFFFFFFFFFFFFFFFFFFFFFFFFFFFFFFFFFFFFFFFFFFFFFFFFFFFFFFF
310
FFFFFFFFFFFFFFFFFFFFFFFFFFFFFFFFFFFFFFFFFFFFFFFFFFFFFFFFFFFFFFFF
310
FFFFFFFFFFFFFFFFFFFFFFFFFFFFFFFFF000FFFFFFFFFFFFFFFFFFFFFFFFFFFF
310
FFFFFFFFFFFFFFFFFFFFFFFFFFFFFFFFFFFFFFFFFFFFFFFFFFFFFFFFFFFFFFFF
310
FFFFFFFFFFFFFFFFFFFFFFFFFFFFFFFFFFFFFFFFFFFFFFFFFFFFFFFFFFFFFFFF
310
FFFFFFFFFFFFFFFFF000FFFFFFFFFFFFFFFFFFFFFFFFFFFFFFFFFFFFFFFFFFFF
310
FFFFFFFFFFFFFFFFFFFFFFFFFFFFFFFFFFFFFFFFFFFFFFFFFFFFFFFFFFFFFFFF
310
FFFFFFFFFFFFFFFFFFFFFFFFFFFFFFFFFFFFFFFFFFFFFFFFFFFFFFFFFFFFFFFF
310
F000FFFFFFFFFFFFFFFFFFFFFFFFFFFFFFFFFFFFFFFFFFFFFFFFFFFFFFFFFFFF
310
FFFFFFFFFFFFFFFFFFFFFFFFFFFFFFFFFFFFFFFFFFFFFFFFFFFFFFFFFFFFFFFF
310
FFFFFFFFFFFFFFFFFFFFFFFFFFFFFFFFFFFFFFFFFFFFFFFFF000FFFFFFFFFFFF
310
FFFFFFFFFFFFFFFFFFFFFFFFFFFFFFFFFFFFFFFFFFFFFFFFFFFFFFFFFFFFFFFF
310
FFFFFFFFFFFFFFFFFFFFFFFFFFFFFFFFFFFFFFFFFFFFFFFFFFFFFFFFFFFFFFFF
310
FFFFFFFFFFFFFFFFFFFFFFFFFFFFFFFFF000FFFFFFFFFFFFFFFFFFFFFFFFFFFF
310
FFFFFFFFFFFFFFFFFFFFFFFFFFFFFFFFFFFFFFFFFFFFFFFFFFFFFFFFFFFFFFFF
310
FFFFFFFFFFFFFFFFFFFFFFFFFFFFFFFFFFFFFFFFFFFFFFFFFFFFFFFFFFFFFFFF
310
FFFFFFFFFFFFFFFFF000FFFFFFFFFFFFFFFFFFFFFFFFFFFFFFFFFFFFFFFFFFFF
310
FFFFFFFFFFFFFFFFFFFFFFFFFFFFFFFFFFFFFFFFFFFFFFFFFFFFFFFFFFFFFFFF
310
FFFFFFFFFFFFFFFFFFFFFFFFFFFFFFFFFFFFFFFFFFFFFFFFFFFFFFFFFFFFFFFF
310
F000FFFFFFFFFFFFFFFFFFFFFFFFFFFFFFFFFFFFFFFFFFFFFFFFFFFFFFFFFFFF
310
FFFFFFFFFFFFFFFFFFFFFFFFFFFFFFFFFFFFFFFFFFFFFFFFFFFFFFFFFFFFFFFF
310
FFFFFFFFFFFFFFFFFFFFFFFFFFFFFFFFFFFFFFFFFFFFFFFFF000FFFFFFFFFFFF
310
FFFFFFFFFFFFFFFFFFFFFFFFFFFFFFFFFFFFFFFFFFFFFFFFFFFFFFFFFFFFFFFF
310
FFFFFFFFFFFFFFFFFFFFFFFFFFFFFFFFFFFFFFFFFFFFFFFFFFFFFFFFFFFFFFFF
310
FFFFFFFFFFFFFFFFFFFFFFFFFFFFFFFFF000FFFFFFFFFFFFFFFFFFFFFFFFFFFF
310
FFFFFFFFFFFFFFFFFFFFFFFFFFFFFFFFFFFFFFFFFFFFFFFFFFFFFFFFFFFFFFFF
310
FFFFFFFFFFFFFFFFFFFFFFFFFFFFFFFFFFFFFFFFFFFFFFFFFFFFFFFFFFFFFFFF
310
FFFFFFFFFFFFFFFFF000FFFFFFFFFFFFFFFFFFFFFFFFFFFFFFFFFFFFFFFFFFFF
310
FFFFFFFFFFFFFFFFFFFFFFFFFFFFFFFFFFFFFFFFFFFFFFFFFFFFFFFFFFFFFFFF
310
FFFFFFFFFFFFFFFFFFFFFFFFFFFFFFFFFFFFFFFFFFFFFFFFFFFFFFFFFFFFFFFF
310
F000FFFFFFFFFFFFFFFFFFFFFFFFFFFFFFFFFFFFFFFFFFFFFFFFFFFFFFFFFFFF
310
FFFFFFFFFFFFFFFFFFFFFFFFFFFFFFFFFFFFFFFFFFFFFFFFFFFFFFFFFFFFFFFF
310
FFFFFFFFFFFFFFFFFFFFFFFFFFFFFFFFFFFFFFFFFFFFFFFFF000FFFFFFFFFFFF
310
FFFFFFFFFFFFFFFFFFFFFFFFFFFFFFFFFFFFFFFFFFFFFFFFFFFFFFFFFFFFFFFF
310
FFFFFFFFFFFFFFFFFFFFFFFFFFFFFFFFFFFFFFFFFFFFFFFFFFFFFFFFFFFFFFFF
310
FFFFFFFFFFFFFFFFFFFFFFFFFFFFFFFFF000FFFFFFFFFFFFFFFFFFFFFFFFFFFF
310
FFFFFFFFFFFFFFFFFFFFFFFFFFFFFFFFFFFFFFFFFFFFFFFFFFFFFFFFFFFFFFFF
310
FFFFFFFFFFFFFFFFFFFFFFFFFFFFFFFFFFFFFFFFFFFFFFFFFFFFFFFFFFFFFFFF
310
FFFFFFFFFFFFFFFFF000FFFFF80003FFFFFFFFFFFFFFFFFFFFFFFFFFFFFFFFFF
310
FFFFF00007FFFFFFFFFF00007FFFFFF800000000000000007FFFFFFFFFFFFFFF
310
FFFFFFFC001FFFFFFFFFFFFFFC001FFFFFFFFFFFFFFFFFFFFFFFFFFE0007FFFF
310
F000FFFF8000007FFFFFFFF8000FFFFFC0007FFFFF80007FFFFF0000007FFFFF
310
FFF8000007FFFFF800000000000000007FFFFFF0001FFFFFFFFFFFC00001FFFF
310
FFFFFFFFC00001FFFFFFFF000000000003FFFFE000007FFFF000FFFE0000000F
310
FFFFFFF0000FFFFF80007FFFFF80007FFFFC0000001FFFFFFFC0000001FFFFF8
310
00000000000000007FFFFFF0001FFFFFFFFFFE0000003FFFFFFFFFFE0000003F
310
FFFFFF000000000003FFFF0000000FFFF000FFF800000003FFFFFFF00007FFFF
310
80007FFFFF80007FFFF000000007FFFFFF000000003FFFF80000000000000000
310
7FFFFFF0001FFFFFFFFFF80000000FFFFFFFFFF80000000FFFFFFF0000000000
310
03FFFC00000003FFF000FFE000000000FFFFFFF00007FFFF80003FFFFF80007F
310
FFC000000001FFFFFC000000001FFFF800000000000000007FFFFFF0001FFFFF
310
FFFFE000000003FFFFFFFFE000000003FFFFFF000000000003FFF000000000FF
310
F000FF80000000007FFFFFF00007FFFF80003FFFFF80007FFF8000000000FFFF
310
F80000000007FFF800000000000000007FFFFFF0001FFFFFFFFFC000000001FF
310
FFFFFFC000000001FFFFFF000000000003FFC0000000007FF000FF0000000000
310
3FFFFFE00007FFFF00003FFFFF80007FFE00000000003FFFF00000000003FFF8
310
00000000000000007FFFFFF0001FFFFFFFFF8000000000FFFFFFFF8000000000
310
FFFFFF000000000003FF80000000003FF000FE00000000001FFFFFE00003FFFF
310
00003FFFFF80007FFC00000000001FFFE00000000001FFF8000001FFFE000000
310
7FFFFFF0001FFFFFFFFE00000000003FFFFFFE00000000003FFFFF0000000000
310
03FF00000000001FF000FC00000000000FFFFFE00003FFFF00001FFFFF80007F
310
F800000000001FFFC00000000000FFF8000001FFFE0000007FFFFFF0001FFFFF
310
FFFC00000000001FFFFFFC00000000001FFFFF000000000003FE00000000000F
310
F000F8000000000007FFFFE00003FFFF00001FFFFF80007FF800000000000FFF
310
800000000000FFF8000001FFFE0000007FFFFFF0001FFFFFFFF800000000000F
310
FFFFF800000000000FFFFF000000000003FC000000000007F000F80000000000
310
03FFFFC00003FFFE00001FFFFF80007FF0000000000007FF0000000000007FF8
310
000001FFFE0000007FFFFFF0001FFFFFFFF0000000000007FFFFF00000000000
310
07FFFF000000000003F8000000000003F000F0000000000003FFFFC00001FFFE
310
00001FFFFF80007FE0000000000007FE0000000000003FF8000001FFFE000000
310
7FFFFFF0001FFFFFFFF0000000000007FFFFF0000000000007FFFF0000000000
310
03F800001F800003F000E00001FFF00001FFFFC00001FFFE00000FFFFF80007F
310
E00001FFE00003FE00001FFF00003FF8000001FFFE0000007FFFFFF0001FFFFF
310
FFE000003E000003FFFFE000003E000003FFFF000000000003F00001FFF80001
310
F000E00007FFFC0001FFFFC00001FFFE00000FFFFF80007FC0000FFFFC0003FC
310
0000FFFFC0001FF8000001FFFE0000007FFFFFF0001FFFFFFFC00003FFE00001
310
FFFFC00003FFE00001FFFF0001FFFFFFFFF00007FFFE0001F000E0000FFFFF00
310
00FFFF800001FFFC00000FFFFF80007FC0001FFFFE0001FC0001FFFFE0001FF8
310
000001FFFE0000007FFFFFF0001FFFFFFF80000FFFF80000FFFF80000FFFF800
310
00FFFF0003FFFFFFFFE0000FFFFF8000F000C0003FFFFF8000FFFF800000FFFC
310
000007FFFF80007F80003FFFFF0001FC0003FFFFF0001FF8000001FFFE000000
310
7FFFFFF0001FFFFFFF80003FFFFE0000FFFF80003FFFFE0000FFFF0003FFFFFF
310
FFE0003FFFFF8000F000C0003FFFFF8000FFFF800000FFFC000007FFFF80007F
310
80007FFFFF8001F80007FFFFF8000FF8000001FFFE0000007FFFFFF0001FFFFF
310
FF00007FFFFF00007FFF00007FFFFF00007FFF0003FFFFFFFFE0003FFFFFC000
310
F000C0007FFFFFC000FFFF000000FFFC000007FFFF80007F8000FFFFFF8000F8
310
000FFFFFF8000FF8000001FFFE0000007FFFFFF0001FFFFFFF0000FFFFFF8000
310
7FFF0000FFFFFF80007FFF0003FFFFFFFFC0007FFFFFC00070008000FFFFFFC0
310
00FFFF000000FFF8000007FFFF80007F8000FFFFFF8000F8000FFFFFF8000FF8
310
000001FFFE0000007FFFFFF0001FFFFFFE0001FFFFFFC0003FFE0001FFFFFFC0
310
003FFF0003FFFFFFFFC0007FFFFFE00070008000FFFFFFC0007FFF0000007FF8
310
000003FFFF80007F0001FFFFFF8000F8000FFFFFF8000FF8000001FFFE000000
310
7FFFFFF0001FFFFFFE0001FFFFFFC0003FFE0001FFFFFFC0003FFF0003FFFFFF
310
FFC000FFFFFFE00070008000FFFFFFC0007FFF0000007FF8000003FFFF80007F
310
0001FFFFFF8000F8001FFFFFF8000FF8000001FFFE0000007FFFFFF0001FFFFF
310
FE0003FFFFFFE0003FFE0003FFFFFFE0003FFF0003FFFFFFFFC000FFFFFFE000
310
70008000FFFFFFC0007FFE0000007FF8000003FFFF80007F0001FFFFFF8000F0
310
001FFFFFF8000FF8000001FFFE0000007FFFFFF0001FFFFFFC0003FFFFFFE000
310
1FFC0003FFFFFFE0001FFF0003FFFFFFFFC000FFFFFFC00070008000FFFFFF80
310
007FFE0000007FF0000003FFFF80007F0001FFFFFF0000F0001FFFFFF8000FF8
310
000001FFFE0000007FFFFFF0001FFFFFFC0007FFFFFFF0001FFC0007FFFFFFF0
310
001FFF0003FFFFFFFFC000FFFFFFC00070008001FFFFFF0000FFFE0000003FF0
310
000001FFFF80007F0001FFFFFF0000F8001FFFFFF0000FF8000001FFFE000000
310
7FFFFFF0001FFFFFFC0007FFFFFFF0001FFC0007FFFFFFF0001FFF0003FFFFFF
310
FFC001FFFFFF80007000FFFFFFFFFE0000FFFE0008003FF0008001FFFF80007F
310
FFFFFFFFFC0000FFFFFFFFFFE0000FF8000001FFFE0000007FFFFFF0001FFFFF
310
F8000FFFFFFFF8000FF8000FFFFFFFF8000FFF0003FFFFFFFFFFFFFFFFFF0000
310
7000FFFFFFFFFC0000FFFC0008003FF0008001FFFF80007FFFFFFFFFF80001FF
310
FFFFFFFF80000FF8000001FFFE0000007FFFFFF0001FFFFFF8000FFFFFFFF800
310
0FF8000FFFFFFFF8000FFF0003FFFFFFFFFFFFFFFFFE0000F000FFFFFFFFE000
310
00FFFC000C003FE000C001FFFF80007FFFFFFFFFC00001FFFFFFFFFE00001FF8
310
000001FFFE0000007FFFFFF0001FFFFFF8000FFFFFFFF8000FF8000FFFFFFFF8
310
000FFF0003FFFFFFFFFFFFFFFFF00000F000FFFFFFFE000001FFFC000C001FE0
310
00C000FFFF80007FFFFFFFFE000001FFFFFFFFE000001FF80FFFFFFFFFFFFFC0
310
7FFFFFF0001FFFFFF8000FFFFFFFF8000FF8000FFFFFFFF8000FFF0003FFFFFF
310
FFFFFFFFFF800000F000FFFFFFC0000001FFFC001C001FE001C000FFFF80007F
310
FFFFFF80000003FFFFFFF80000001FF80FFFFFFFFFFFFFC07FFFFFF0001FFFFF
310
F8001FFFFFFFFC000FF8001FFFFFFFFC000FFF0003FFFFFFFFFFFFFFF0000001
310
F000FFFFF800000001FFF8001C001FE001C000FFFF80007FFFFFF800000003FF
310
FFFF800000003FF80FFFFFFFFFFFFFC07FFFFFF0001FFFFFF8001FFFFFFFFC00
310
0FF8001FFFFFFFFC000FFF0003FFFFFFFFFFFFFE00000001F000FFFFC0000000
310
03FFF8001E001FC001E000FFFF80007FFFFF8000000007FFFFFC000000003FF8
310
0FFFFFFFFFFFFFC07FFFFFF0001FFFFFF8001FFFFFFFFC000FF8001FFFFFFFFC
310
000FFF0003FFFFFFFFFFFFE000000003F000FFFE0000000007FFF8001E000FC0
310
01E0007FFF80007FFFFE0000000007FFFFE0000000007FF80FFFFFFFFFFFFFC0
310
7FFFFFF0001FFFFFF0001FFFFFFFFC0007F0001FFFFFFFFC0007FF0003FFFFFF
310
FFFFFF0000000003F000FFF80000000007FFF8001E000FC003E0007FFF80007F
310
FFF0000000000FFFFF8000000000FFF80FFFFFFFFFFFFFC07FFFFFF0001FFFFF
310
F0001FFFFFFFFC0007F0001FFFFFFFFC0007FF0003FFFFFFFFFFFC0000000007
310
F000FFE0000000000FFFF0003E000FC003E0007FFF80007FFFC0000000001FFF
310
FE0000000001FFF80FFFFFFFFFFFFFC07FFFFFF0001FFFFFF0001FFFFFFFFC00
310
07F0001FFFFFFFFC0007FF0003FFFFFFFFFFF0000000000FF000FFC000000000
310
1FFFF0003F000F8003F0003FFF80007FFF80000000003FFFF80000000003FFF8
310
0FFFFFFFFFFFFFC07FFFFFF0001FFFFFF0001FFFFFFFFC0007F0001FFFFFFFFC
310
0007FF0003FFFFFFFFFFE0000000001FF000FF00000000007FFFF0003F000780
310
03F0003FFF80007FFF00000000007FFFF00000000007FFF80FFFFFFFFFFFFFC0
310
7FFFFFF0001FFFFFF0001FFFFFFFFC0007F0001FFFFFFFFC0007FF0003FFFFFF
310
FFFF80000000007FF000FE0000000000FFFFE0003F00078007F0003FFF80007F
310
FE0000000001FFFFE0000000001FFFF80FFFFFFFFFFFFFC07FFFFFF0001FFFFF
310
F0001FFFFFFFFC0007F0001FFFFFFFFC0007FF0003FFFFFFFFFF0000000000FF
310
F000FC0000000003FFFFE0007F00078007F0003FFF80007FFC0000000007FFFF
310
C0000000007FFFF80FFFFFFFFFFFFFC07FFFFFF0001FFFFFF8001FFFFFFFFC00
310
0FF8001FFFFFFFFC000FFF0003FFFFFFFFFE0000000003FFF000FC000000000F
310
FFFFE0007F80070007F8001FFF80007FF8000000001FFFFF8000000001FFFFF8
310
0FFFFFFFFFFFFFC07FFFFFF0001FFFFFF8001FFFFFFFFC000FF8001FFFFFFFFC
310
000FFF0003FFFFFFFFFC000000000FFFF000F8000000007FFFFFE0007F800700
310
07F8001FFF80007FF000000000FFFFFF800000000FFFFFF80FFFFFFFFFFFFFC0
310
7FFFFFF0001FFFFFF8000FFFFFFFF8000FF8000FFFFFFFF8000FFF0003FFFFFF
310
FFFC000000007FFFF000F800000007FFFFFFC0007F8003000FF8001FFF80007F
310
F000000007FFFFFF000000007FFFFFF80FFFFFFFFFFFFFC07FFFFFF0001FFFFF
310
F8000FFFFFFFF8000FF8000FFFFFFFF8000FFF0003FFFFFFFFF80000000FFFFF
310
F000F0000000FFFFFFFFC000FF8003000FF8001FFF80007FE0000000FFFFFFFF
310
0000000FFFFFFFF8000001FFFE0000007FFFFFF0001FFFFFF8000FFFFFFFF800
310
0FF8000FFFFFFFF8000FFF0003FFFFFFFFF8000000FFFFFFF000F000000FFFFF
310
FFFFC000FFC002000FF8000FFF80007FE000001FFFFFFFFE000001FFFFFFFFF8
310
000001FFFE0000007FFFFFF0001FFFFFF8000FFFFFFFF8000FF8000FFFFFFFF8
310
000FFF0003FFFFFFFFF000001FFFFFFFF000E00000FFFFFFFFFFC000FFC00200
310
0FFC000FFF80007FE00001FFFFFFFFFE00001FFFFFFFFFF8000001FFFE000000
310
7FFFFFF0001FFFFFFC000FFFFFFFF8001FFC000FFFFFFFF8001FFF0003FFFFFF
310
FFF00001FFFFFFFFF000E00007FFFFFFFFFF8000FFC000001FFC000FFF80007F
310
C0000FFFFFFFFFFE0000FFFFFFFFFFF8000001FFFE0000007FFFFFF0001FFFFF
310
FC0007FFFFFFF0001FFC0007FFFFFFF0001FFF0003FFFFFFFFF00007FFFFFFFF
310
F000E0001FFFFFFFFFFF8000FFC000001FFC000FFF80007FC0003FFFFFFFFFFE
310
0001FFFFFFFFFFF8000001FFFE0000007FFFFFF0001FFFFFFC0007FFFFFFF000
310
1FFC0007FFFFFFF0001FFF0003FFFFFFFFF0001FFFFFFFFFF000E0003FFFFF00
310
03FF8001FFE000001FFC0007FF80007FC0007FFFFF0007FC0003FFFFF0003FF8
310
000001FFFE0000007FFFFFF0001FFFFFFC0003FFFFFFE0001FFC0003FFFFFFE0
310
001FFF0003FFFFFFFFF0003FFFFFFFFFF000E0003FFFFF0001FF8001FFE00000
310
1FFE0007FF80007FC0007FFFFE0003FC0007FFFFE0003FF8000001FFFE000000
310
7FFFFFF0001FFFFFFE0003FFFFFFE0003FFE0003FFFFFFE0003FFF0003FFFFFF
310
FFF0003FFFFF8001F000E0003FFFFF0001FF0001FFE000001FFE0007FF80007F
310
C0007FFFFE0003FC0007FFFFE0003FF8000001FFFE0000007FFFFFF0001FFFFF
310
FE0001FFFFFFC0003FFE0001FFFFFFC0003FFF0003FFFFFFFFF0003FFFFF0001
310
F000E0003FFFFF0003FF0001FFE000003FFE0007FF80007FC0007FFFFE0003FC
310
0007FFFFE0003FF8000001FFFE0000007FFFFFF0001FFFFFFF0001FFFFFFC000
310
7FFF0001FFFFFFC0007FFF0003FFFFFFFFF0003FFFFF0001F000E0003FFFFE00
310
03FF0003FFF000003FFE0003FF80007FC0007FFFFC0003FE0007FFFFE0003FF8
310
000001FFFE0000007FFFFFF0001FFFFFFF0000FFFFFF80007FFF0000FFFFFF80
310
007FFF0003FFFFFFFFF0003FFFFF0001F000E0003FFFFE0003FF0003FFF00000
310
3FFF0003FF80007FC0007FFFFC0007FE0007FFFFC0003FF8000001FFFE000000
310
7FFFFFF0001FFFFFFF80007FFFFF0000FFFF80007FFFFF0000FFFF0003FFFFFF
310
FFF0003FFFFF0003F000E0003FFFFC0003FE0003FFF000003FFF0003FF80007F
310
E0003FFFF80007FE0003FFFFC0007FF8000001FFFE0000007FFFFFF0001FFFFF
310
FF80003FFFFE0000FFFF80003FFFFE0000FFFF0003FFFFFFFFF0001FFFFE0003
310
F000F0001FFFF80003FE0003FFF000007FFF0001FF80007FE0003FFFF00007FE
310
0001FFFF80007FF8000001FFFE0000007FFFFFF0001FFFFFFFC0000FFFF80001
310
FFFFC0000FFFF80001FFFF0003FFFFFFFFF0001FFFFC0003F000F0000FFFF000
310
07FE0007FFF800007FFF0001FF80007FE0001FFFE00007FF0000FFFE00007FF8
310
000001FFFE0000007FFFFFF0001FFFFFFFC00003FFE00001FFFFC00003FFE000
310
01FFFF0003FFFFFFFFF8000FFFF80003F000F00003FFC00007FC0007FFF80000
310
7FFF8001FF80007FF00007FF80000FFF00007FF80000FFF8000001FFFE000000
310
7F80000000000001FFE000003E000003FFFFE000003E000003FFFF0003FFFFFF
310
FFF80003FFE00007F000F800000000000FFC0007FFF800007FFF8001FF80007F
310
F000000000000FFF000000000000FFF8000001FFFE0000007F80000000000001
310
FFF0000000000007FFFFF0000000000007FFFF0003FFFFFFFFFC00007E000007
310
F000F800000000000FFC0007FFF80000FFFF8000FF80007FF800000000001FFF
310
800000000001FFF8000001FFFE0000007F80000000000001FFF800000000000F
310
FFFFF800000000000FFFFF0003FFFFFFFFFC00000000000FF000FC0000000000
310
1FFC0007FFFC0000FFFF8000FF80007FF800000000003FFFC00000000001FFF8
310
000001FFFE0000007F80000000000001FFF800000000000FFFFFF80000000000
310
0FFFFF0003FFFFFFFFFE00000000001FF000FE00000000003FF8000FFFFC0000
310
FFFF8000FF80007FFC00000000003FFFC00000000003FFF8000001FFFE000000
310
7F80000000000001FFFC00000000001FFFFFFC00000000001FFFFF0003FFFFFF
310
FFFF00000000001FF000FF00000000003FF8000FFFFC0000FFFFC000FF80007F
310
FE00000000007FFFE00000000007FFF8000001FFFE0000007F80000000000001
310
FFFE00000000003FFFFFFE00000000003FFFFF0003FFFFFFFFFF80000000003F
310
F000FF80000000007FF8000FFFFC0001FFFFC0007F80007FFF0000000000FFFF
310
F0000000000FFFF800000000000000007F80000000000001FFFF8000000000FF
310
FFFFFF8000000000FFFFFF0003FFFFFFFFFFC0000000007FF000FFC000000000
310
FFF8000FFFFE0001FFFFC0007F80007FFF8000000001FFFFF8000000001FFFF8
310
00000000000000007F80000000000001FFFFC000000001FFFFFFFFC000000001
310
FFFFFF0003FFFFFFFFFFE000000000FFF000FFE000000003FFF0001FFFFE0001
310
FFFFC0007F80007FFFC000000007FFFFFE000000003FFFF80000000000000000
310
7F80000000000001FFFFE000000003FFFFFFFFE000000003FFFFFF0003FFFFFF
310
FFFFF000000003FFF000FFF80000000FFFF0001FFFFE0001FFFFE0007F80007F
310
FFF00000000FFFFFFF00000000FFFFF800000000000000007F80000000000001
310
FFFFF80000000FFFFFFFFFF80000000FFFFFFF0003FFFFFFFFFFFC0000000FFF
310
F000FFFE0000003FFFF0001FFFFE0003FFFFE0003F80007FFFFC0000003FFFFF
310
FFC0000003FFFFF800000000000000007F80000000000001FFFFFE0000003FFF
310
FFFFFFFE0000003FFFFFFF0003FFFFFFFFFFFF0000003FFFF000FFFF800000FF
310
FFF0001FFFFF0003FFFFE0003F80007FFFFF000001FFFFFFFFF800001FFFFFF8
310
00000000000000007F80000000000001FFFFFFC00001FFFFFFFFFFFFC00001FF
310
FFFFFF0003FFFFFFFFFFFFC00000FFFFF000FFFFF8000FFFFFFFFFFFFFFFFFFF
310
FFFFFFFFFFFFFFFFFFFFF0001FFFFFFFFFFF0000FFFFFFF80000000000000000
310
7FFFFFFFFFFFFFFFFFFFFFFC001FFFFFFFFFFFFFFC001FFFFFFFFFFFFFFFFFFF
310
FFFFFFFC001FFFFFF000FFFFFFFFFFFFFFFFFFFFFFFFFFFFFFFFFFFFFFFFFFFF
310
FFFFFFFFFFFFFFFFFFFFFFFFFFFFFFFFFFFFFFFFFFFFFFFFFFFFFFFFFFFFFFFF
310
FFFFFFFFFFFFFFFFFFFFFFFFFFFFFFFFFFFFFFFFFFFFFFFFFFFFFFFFFFFFFFFF
310
F000FFFFFFFFFFFFFFFFFFFFFFFFFFFFFFFFFFFFFFFFFFFFFFFFFFFFFFFFFFFF
310
FFFFFFFFFFFFFFFFFFFFFFFFFFFFFFFFFFFFFFFFFFFFFFFFFFFFFFFFFFFFFFFF
310
FFFFFFFFFFFFFFFFFFFFFFFFFFFFFFFFFFFFFFFFFFFFFFFFF000FFFFFFFFFFFF
310
FFFFFFFFFFFFFFFFFFFFFFFFFFFFFFFFFFFFFFFFFFFFFFFFFFFFFFFFFFFFFFFF
310
FFFFFFFFFFFFFFFFFFFFFFFFFFFFFFFFFFFFFFFFFFFFFFFFFFFFFFFFFFFFFFFF
310
FFFFFFFFFFFFFFFFFFFFFFFFFFFFFFFFF000FFFFFFFFFFFFFFFFFFFFFFFFFFFF
310
FFFFFFFFFFFFFFFFFFFFFFFFFFFFFFFFFFFFFFFFFFFFFFFFFFFFFFFFFFFFFFFF
310
FFFFFFFFFFFFFFFFFFFFFFFFFFFFFFFFFFFFFFFFFFFFFFFFFFFFFFFFFFFFFFFF
310
FFFFFFFFFFFFFFFFF000FFFFFFFFFFFFFFFFFFFFFFFFFFFFFFFFFFFFFFFFFFFF
310
FFFFFFFFFFFFFFFFFFFFFFFFFFFFFFFFFFFFFFFFFFFFFFFFFFFFFFFFFFFFFFFF
310
FFFFFFFFFFFFFFFFFFFFFFFFFFFFFFFFFFFFFFFFFFFFFFFFFFFFFFFFFFFFFFFF
310
F000FFFFFFFFFFFFFFFFFFFFFFFFFFFFFFFFFFFFFFFFFFFFFFFFFFFFFFFFFFFF
310
FFFFFFFFFFFFFFFFFFFFFFFFFFFFFFFFFFFFFFFFFFFFFFFFFFFFFFFFFFFFFFFF
310
FFFFFFFFFFFFFFFFFFFFFFFFFFFFFFFFFFFFFFFFFFFFFFFFF000FFFFFFFFFFFF
310
FFFFFFFFFFFFFFFFFFFFFFFFFFFFFFFFFFFFFFFFFFFFFFFFFFFFFFFFFFFFFFFF
310
FFFFFFFFFFFFFFFFFFFFFFFFFFFFFFFFFFFFFFFFFFFFFFFFFFFFFFFFFFFFFFFF
310
FFFFFFFFFFFFFFFFFFFFFFFFFFFFFFFFF000FFFFFFFFFFFFFFFFFFFFFFFFFFFF
310
FFFFFFFFFFFFFFFFFFFFFFFFFFFFFFFFFFFFFFFFFFFFFFFFFFFFFFFFFFFFFFFF
310
FFFFFFFFFFFFFFFFFFFFFFFFFFFFFFFFFFFFFFFFFFFFFFFFFFFFFFFFFFFFFFFF
310
FFFFFFFFFFFFFFFFF000FFFFFFFFFFFFFFFFFFFFFFFFFFFFFFFFFFFFFFFFFFFF
310
FFFFFFFFFFFFFFFFFFFFFFFFFFFFFFFFFFFFFFFFFFFFFFFFFFFFFFFFFFFFFFFF
310
FFFFFFFFFFFFFFFFFFFFFFFFFFFFFFFFFFFFFFFFFFFFFFFFFFFFFFFFFFFFFFFF
310
F000FFFFFFFFFFFFFFFFFFFFFFFFFFFFFFFFFFFFFFFFFFFFFFFFFFFFFFFFFFFF
310
FFFFFFFFFFFFFFFFFFFFFFFFFFFFFFFFFFFFFFFFFFFFFFFFFFFFFFFFFFFFFFFF
310
FFFFFFFFFFFFFFFFFFFFFFFFFFFFFFFFFFFFFFFFFFFFFFFFF000FFFFFFFFFFFF
310
FFFFFFFFFFFFFFFFFFFFFFFFFFFFFFFFFFFFFFFFFFFFFFFFFFFFFFFFFFFFFFFF
310
FFFFFFFFFFFFFFFFFFFFFFFFFFFFFFFFFFFFFFFFFFFFFFFFFFFFFFFFFFFFFFFF
310
FFFFFFFFFFFFFFFFFFFFFFFFFFFFFFFFF000FFFFFFFFFFFFFFFFFFFFFFFFFFFF
310
FFFFFFFFFFFFFFFFFFFFFFFFFFFFFFFFFFFFFFFFFFFFFFFFFFFFFFFFFFFFFFFF
310
FFFFFFFFFFFFFFFFFFFFFFFFFFFFFFFFFFFFFFFFFFFFFFFFFFFFFFFFFFFFFFFF
310
FFFFFFFFFFFFFFFFF000FFFFFFFFFFFFFFFFFFFFFFFFFFFFFFFFFFFFFFFFFFFF
310
FFFFFFFFFFFFFFFFFFFFFFFFFFFFFFFFFFFFFFFFFFFFFFFFFFFFFFFFFFFFFFFF
310
FFFFFFFFFFFFFFFFFFFFFFFFFFFFFFFFFFFFFFFFFFFFFFFFFFFFFFFFFFFFFFFF
310
F000FFFFFFFFFFFFFFFFFFFFFFFFFFFFFFFFFFFFFFFFFFFFFFFFFFFFFFFFFFFF
310
FFFFFFFFFFFFFFFFFFFFFFFFFFFFFFFFFFFFFFFFFFFFFFFFFFFFFFFFFFFFFFFF
310
FFFFFFFFFFFFFFFFFFFFFFFFFFFFFFFFFFFFFFFFFFFFFFFFF000FFFFFFFFFFFF
310
FFFFFFFFFFFFFFFFFFFFFFFFFFFFFFFFFFFFFFFFFFFFFFFFFFFFFFFFFFFFFFFF
310
FFFFFFFFFFFFFFFFFFFFFFFFFFFFFFFFFFFFFFFFFFFFFFFFFFFFFFFFFFFFFFFF
310
FFFFFFFFFFFFFFFFFFFFFFFFFFFFFFFFF000FFFFFFFFFFFFFFFFFFFFFFFFFFFF
310
FFFFFFFFFFFFFFFFFFFFFFFFFFFFFFFFFFFFFFFFFFFFFFFFFFFFFFFFFFFFFFFF
310
FFFFFFFFFFFFFFFFFFFFFFFFFFFFFFFFFFFFFFFFFFFFFFFFFFFFFFFFFFFFFFFF
310
FFFFFFFFFFFFFFFFF000FFFFFFFFFFFFFFFFFFFFFFFFFFFFFFFFFFFFFFFFFFFF
310
FFFFFFFFFFFFFFFFFFFFFFFFFFFFFFFFFFFFFFFFFFFFFFFFFFFFFFFFFFFFFFFF
310
FFFFFFFFFFFFFFFFFFFFFFFFFFFFFFFFFFFFFFFFFFFFFFFFFFFFFFFFFFFFFFFF
310
F000FFFFFFFFFFFFFFFFFFFFFFFFFFFFFFFFFFFFFFFFFFFFFFFFFFFFFFFFFFFF
310
FFFFFFFFFFFFFFFFFFFFFFFFFFFFFFFFFFFFFFFFFFFFFFFFFFFFFFFFFFFFFFFF
310
FFFFFFFFFFFFFFFFFFFFFFFFFFFFFFFFFFFFFFFFFFFFFFFFF000FFFFFFFFFFFF
310
FFFFFFFFFFFFFFFFFFFFFFFFFFFFFFFFFFFFFFFFFFFFFFFFFFFFFFFFFFFFFFFF
310
FFFFFFFFFFFFFFFFFFFFFFFFFFFFFFFFFFFFFFFFFFFFFFFFFFFFFFFFFFFFFFFF
310
FFFFFFFFFFFFFFFFFFFFFFFFFFFFFFFFF000FFFFFFFFFFFFFFFFFFFFFFFFFFFF
310
FFFFFFFFFFFFFFFFFFFFFFFFFFFFFFFFFFFFFFFFFFFFFFFFFFFFFFFFFFFFFFFF
310
FFFFFFFFFFFFFFFFFFFFFFFFFFFFFFFFFFFFFFFFFFFFFFFFFFFFFFFFFFFFFFFF
310
FFFFFFFFFFFFFFFFF000FFFFFFFFFFFFFFFFFFFFFFFFFFFFFFFFFFFFFFFFFFFF
310
FFFFFFFFFFFFFFFFFFFFFFFFFFFFFFFFFFFFFFFFFFFFFFFFFFFFFFFFFFFFFFFF
310
FFFFFFFFFFFFFFFFFFFFFFFFFFFFFFFFFFFFFFFFFFFFFFFFFFFFFFFFFFFFFFFF
310
F000FFFFFFFFFFFFFFFFFFFFFFFFFFFFFFFFFFFFFFFFFFFFFFFFFFFFFFFFFFFF
310
FFFFFFFFFFFFFFFFFFFFFFFFFFFFFFFFFFFFFFFFFFFFFFFFFFFFFFFFFFFFFFFF
310
FFFFFFFFFFFFFFFFFFFFFFFFFFFFFFFFFFFFFFFFFFFFFFFFF000FFFFFFFFFFFF
310
FFFFFFFFFFFFFFFFFFFFFFFFFFFFFFFFFFFFFFFFFFFFFFFFFFFFFFFFFFFFFFFF
310
FFFFFFFFFFFFFFFFFFFFFFFFFFFFFFFFFFFFFFFFFFFFFFFFFFFFFFFFFFFFFFFF
310
FFFFFFFFFFFFFFFFFFFFFFFFFFFFFFFFF0000000000000000000000000000000
310
0000000000000000000000000000000000000000000000000000000000000000
310
0000000000000000000000000000000000000000000000000000000000000000
310
0000000000000000000000000000000000000000000000000000000000000000
310
0000000000000000000000000000000000000000000000000000000000000000
310
0000000000000000000000000000000000000000000000000000000000000000
310
0000000000000000000000000000000000000000000000000000000000000000
310
0000000000000000000000000000000000000000000000000000000000000000
310
0000000000000000000000000000000000000000000000000000000000000000
310
0000000000000000000000000000000000000000000000000000000000000000
310
0000000000000000000000000000000000000000000000000000000000000000
310
0000000000000000000000000000000000000000000000000000000000000000
310
0000000000000000000000000000000000000000000000000000000000000000
310
0000000000000000000000000000000000000000000000000000000000000000
310
0000000000000000000000000000000000000000000000000000000000000000
310
0000000000000000000000000000000000000000000000000000000000000000
  1
OLE
  0
ENDSEC
  0
SECTION
  2
OBJECTS
  0
DICTIONARY
  5
C
330
0
100
AcDbDictionary
281
     1
  3
ACAD_GROUP
350
D
  3
ACAD_LAYOUT
350
1A
  3
ACAD_MLINESTYLE
350
17
  3
ACAD_PLOTSETTINGS
350
19
  3
ACAD_PLOTSTYLENAME
350
E
  3
ACAD_SCALELIST
350
47
  0
DICTIONARY
  5
D
102
{ACAD_REACTORS
330
C
102
}
330
C
100
AcDbDictionary
281
     1
  0
DICTIONARY
  5
1A
102
{ACAD_REACTORS
330
C
102
}
330
C
100
AcDbDictionary
281
     1
  3
Layout1
350
1E
  3
Layout2
350
26
  3
Model
350
22
  0
DICTIONARY
  5
17
102
{ACAD_REACTORS
330
C
102
}
330
C
100
AcDbDictionary
281
     1
  3
Standard
350
18
  0
DICTIONARY
  5
19
102
{ACAD_REACTORS
330
C
102
}
330
C
100
AcDbDictionary
281
     1
  0
ACDBDICTIONARYWDFLT
  5
E
102
{ACAD_REACTORS
330
C
102
}
330
C
100
AcDbDictionary
281
     1
  3
Normal
350
F
100
AcDbDictionaryWithDefault
340
F
  0
DICTIONARY
  5
47
102
{ACAD_REACTORS
330
C
102
}
330
C
100
AcDbDictionary
281
     1
  3
A0
350
48
  3
A1
350
49
  3
A2
350
4A
  3
A3
350
4B
  3
A4
350
4C
  3
A5
350
4D
  3
A6
350
4E
  3
A7
350
4F
  3
A8
350
50
  3
A9
350
51
  3
B0
350
52
  3
B1
350
53
  3
B2
350
54
  3
B3
350
55
  3
B4
350
56
  3
B5
350
57
  3
B6
350
58
  3
B7
350
59
  3
B8
350
5A
  3
B9
350
5B
  3
C0
350
5C
  3
C1
350
5D
  3
C2
350
5E
  3
C3
350
5F
  3
C4
350
60
  3
C5
350
61
  3
C6
350
62
  3
C7
350
63
  3
C8
350
64
  3
C9
350
65
  3
D0
350
66
  3
D1
350
67
  3
D2
350
68
  0
LAYOUT
  5
1E
102
{ACAD_REACTORS
330
1A
102
}
330
1A
100
AcDbPlotSettings
  1

  2
none_device
  4

  6

 40
0.0
 41
0.0
 42
0.0
 43
0.0
 44
0.0
 45
0.0
 46
0.0
 47
0.0
 48
0.0
 49
0.0
140
0.0
141
0.0
142
1.0
143
1.0
 70
   688
 72
     1
 73
     0
 74
     5
  7

 75
    16
147
1.0
148
0.0
149
0.0
100
AcDbLayout
  1
Layout1
 70
     1
 71
     1
 10
0.0
 20
0.0
 11
420.0
 21
297.0
 12
0.0
 22
0.0
 32
0.0
 14
1.0000000000E+20
 24
1.0000000000E+20
 34
1.0000000000E+20
 15
-1.0000000000E+20
 25
-1.0000000000E+20
 35
-1.0000000000E+20
146
0.0
 13
0.0
 23
0.0
 33
0.0
 16
1.0
 26
0.0
 36
0.0
 17
0.0
 27
1.0
 37
0.0
 76
     0
330
1B
  0
LAYOUT
  5
26
102
{ACAD_REACTORS
330
1A
102
}
330
1A
100
AcDbPlotSettings
  1

  2
none_device
  4

  6

 40
0.0
 41
0.0
 42
0.0
 43
0.0
 44
0.0
 45
0.0
 46
0.0
 47
0.0
 48
0.0
 49
0.0
140
0.0
141
0.0
142
1.0
143
1.0
 70
   688
 72
     1
 73
     0
 74
     5
  7

 75
    16
147
1.0
148
0.0
149
0.0
100
AcDbLayout
  1
Layout2
 70
     1
 71
     2
 10
0.0
 20
0.0
 11
0.0
 21
0.0
 12
0.0
 22
0.0
 32
0.0
 14
0.0
 24
0.0
 34
0.0
 15
0.0
 25
0.0
 35
0.0
146
0.0
 13
0.0
 23
0.0
 33
0.0
 16
1.0
 26
0.0
 36
0.0
 17
0.0
 27
1.0
 37
0.0
 76
     0
330
23
  0
LAYOUT
  5
22
102
{ACAD_REACTORS
330
1A
102
}
330
1A
100
AcDbPlotSettings
  1

  2
none_device
  4
Letter_(8.50_x_11.00_Inches)
  6

 40
6.35
 41
6.35
 42
6.35000508
 43
6.35000508
 44
215.9
 45
279.4
 46
0.0
 47
0.0
 48
0.0
 49
0.0
140
0.0
141
0.0
142
1.0
143
1.0
 70
  1712
 72
     1
 73
     0
 74
     0
  7

 75
     0
147
1.0
148
0.0
149
0.0
100
AcDbLayout
  1
Model
 70
     1
 71
     0
 10
0.0
 20
0.0
 11
297.0
 21
210.0
 12
0.0
 22
0.0
 32
0.0
 14
0.0
 24
0.0
 34
0.0
 15
297.0
 25
210.0
 35
0.0
146
0.0
 13
0.0
 23
0.0
 33
0.0
 16
1.0
 26
0.0
 36
0.0
 17
0.0
 27
1.0
 37
0.0
 76
     0
330
1F
331
29
  0
MLINESTYLE
  5
18
102
{ACAD_REACTORS
330
17
102
}
330
17
100
AcDbMlineStyle
  2
Standard
 70
     0
  3

 62
   256
 51
90.0
 52
90.0
 71
     2
 49
0.5
 62
   256
  6
BYLAYER
 49
-0.5
 62
   256
  6
BYLAYER
  0
ACDBPLACEHOLDER
  5
F
102
{ACAD_REACTORS
330
E
102
}
330
E
  0
SCALE
  5
48
102
{ACAD_REACTORS
330
47
102
}
330
47
100
AcDbScale
 70
     0
300
1:1
140
1.0
141
1.0
290
     1
  0
SCALE
  5
49
102
{ACAD_REACTORS
330
47
102
}
330
47
100
AcDbScale
 70
     0
300
1:2
140
1.0
141
2.0
290
     0
  0
SCALE
  5
4A
102
{ACAD_REACTORS
330
47
102
}
330
47
100
AcDbScale
 70
     0
300
1:4
140
1.0
141
4.0
290
     0
  0
SCALE
  5
4B
102
{ACAD_REACTORS
330
47
102
}
330
47
100
AcDbScale
 70
     0
300
1:5
140
1.0
141
5.0
290
     0
  0
SCALE
  5
4C
102
{ACAD_REACTORS
330
47
102
}
330
47
100
AcDbScale
 70
     0
300
1:8
140
1.0
141
8.0
290
     0
  0
SCALE
  5
4D
102
{ACAD_REACTORS
330
47
102
}
330
47
100
AcDbScale
 70
     0
300
1:10
140
1.0
141
10.0
290
     0
  0
SCALE
  5
4E
102
{ACAD_REACTORS
330
47
102
}
330
47
100
AcDbScale
 70
     0
300
1:16
140
1.0
141
16.0
290
     0
  0
SCALE
  5
4F
102
{ACAD_REACTORS
330
47
102
}
330
47
100
AcDbScale
 70
     0
300
1:20
140
1.0
141
20.0
290
     0
  0
SCALE
  5
50
102
{ACAD_REACTORS
330
47
102
}
330
47
100
AcDbScale
 70
     0
300
1:30
140
1.0
141
30.0
290
     0
  0
SCALE
  5
51
102
{ACAD_REACTORS
330
47
102
}
330
47
100
AcDbScale
 70
     0
300
1:40
140
1.0
141
40.0
290
     0
  0
SCALE
  5
52
102
{ACAD_REACTORS
330
47
102
}
330
47
100
AcDbScale
 70
     0
300
1:50
140
1.0
141
50.0
290
     0
  0
SCALE
  5
53
102
{ACAD_REACTORS
330
47
102
}
330
47
100
AcDbScale
 70
     0
300
1:100
140
1.0
141
100.0
290
     0
  0
SCALE
  5
54
102
{ACAD_REACTORS
330
47
102
}
330
47
100
AcDbScale
 70
     0
300
2:1
140
2.0
141
1.0
290
     0
  0
SCALE
  5
55
102
{ACAD_REACTORS
330
47
102
}
330
47
100
AcDbScale
 70
     0
300
4:1
140
4.0
141
1.0
290
     0
  0
SCALE
  5
56
102
{ACAD_REACTORS
330
47
102
}
330
47
100
AcDbScale
 70
     0
300
8:1
140
8.0
141
1.0
290
     0
  0
SCALE
  5
57
102
{ACAD_REACTORS
330
47
102
}
330
47
100
AcDbScale
 70
     0
300
10:1
140
10.0
141
1.0
290
     0
  0
SCALE
  5
58
102
{ACAD_REACTORS
330
47
102
}
330
47
100
AcDbScale
 70
     0
300
100:1
140
100.0
141
1.0
290
     0
  0
SCALE
  5
59
102
{ACAD_REACTORS
330
47
102
}
330
47
100
AcDbScale
 70
     0
300
1/128" = 1'-0"
140
0.0078125
141
12.0
290
     0
  0
SCALE
  5
5A
102
{ACAD_REACTORS
330
47
102
}
330
47
100
AcDbScale
 70
     0
300
1/64" = 1'-0"
140
0.015625
141
12.0
290
     0
  0
SCALE
  5
5B
102
{ACAD_REACTORS
330
47
102
}
330
47
100
AcDbScale
 70
     0
300
1/32" = 1'-0"
140
0.03125
141
12.0
290
     0
  0
SCALE
  5
5C
102
{ACAD_REACTORS
330
47
102
}
330
47
100
AcDbScale
 70
     0
300
1/16" = 1'-0"
140
0.0625
141
12.0
290
     0
  0
SCALE
  5
5D
102
{ACAD_REACTORS
330
47
102
}
330
47
100
AcDbScale
 70
     0
300
3/32" = 1'-0"
140
0.09375
141
12.0
290
     0
  0
SCALE
  5
5E
102
{ACAD_REACTORS
330
47
102
}
330
47
100
AcDbScale
 70
     0
300
1/8" = 1'-0"
140
0.125
141
12.0
290
     0
  0
SCALE
  5
5F
102
{ACAD_REACTORS
330
47
102
}
330
47
100
AcDbScale
 70
     0
300
3/16" = 1'-0"
140
0.1875
141
12.0
290
     0
  0
SCALE
  5
60
102
{ACAD_REACTORS
330
47
102
}
330
47
100
AcDbScale
 70
     0
300
1/4" = 1'-0"
140
0.25
141
12.0
290
     0
  0
SCALE
  5
61
102
{ACAD_REACTORS
330
47
102
}
330
47
100
AcDbScale
 70
     0
300
3/8" = 1'-0"
140
0.375
141
12.0
290
     0
  0
SCALE
  5
62
102
{ACAD_REACTORS
330
47
102
}
330
47
100
AcDbScale
 70
     0
300
1/2" = 1'-0"
140
0.5
141
12.0
290
     0
  0
SCALE
  5
63
102
{ACAD_REACTORS
330
47
102
}
330
47
100
AcDbScale
 70
     0
300
3/4" = 1'-0"
140
0.75
141
12.0
290
     0
  0
SCALE
  5
64
102
{ACAD_REACTORS
330
47
102
}
330
47
100
AcDbScale
 70
     0
300
1" = 1'-0"
140
1.0
141
12.0
290
     0
  0
SCALE
  5
65
102
{ACAD_REACTORS
330
47
102
}
330
47
100
AcDbScale
 70
     0
300
1-1/2" = 1'-0"
140
1.5
141
12.0
290
     0
  0
SCALE
  5
66
102
{ACAD_REACTORS
330
47
102
}
330
47
100
AcDbScale
 70
     0
300
3" = 1'-0"
140
3.0
141
12.0
290
     0
  0
SCALE
  5
67
102
{ACAD_REACTORS
330
47
102
}
330
47
100
AcDbScale
 70
     0
300
6" = 1'-0"
140
6.0
141
12.0
290
     0
  0
SCALE
  5
68
102
{ACAD_REACTORS
330
47
102
}
330
47
100
AcDbScale
 70
     0
300
1'-0" = 1'-0"
140
12.0
141
12.0
290
     0
  0
ENDSEC
  0
EOF
