  0
SECTION
  2
HEADER
  9
$ACADVER
  1
AC1015
  9
$ACADMAINTVER
 70
     6
  9
$DWGCODEPAGE
  3
ANSI_1252
  9
$INSBASE
 10
0.0
 20
0.0
 30
0.0
  9
$EXTMIN
 10
0.0
 20
0.0
 30
0.0
  9
$EXTMAX
 10
297.0
 20
210.0
 30
0.0
  9
$LIMMIN
 10
0.0
 20
0.0
  9
$LIMMAX
 10
297.0
 20
210.0
  9
$ORTHOMODE
 70
     0
  9
$REGENMODE
 70
     1
  9
$FILLMODE
 70
     1
  9
$QTEXTMODE
 70
     0
  9
$MIRRTEXT
 70
     1
  9
$LTSCALE
 40
1.0
  9
$ATTMODE
 70
     1
  9
$TEXTSIZE
 40
2.0
  9
$TRACEWID
 40
1.0
  9
$TEXTSTYLE
  7
Standard
  9
$CLAYER
  8
0
  9
$CELTYPE
  6
ByLayer
  9
$CECOLOR
 62
   256
  9
$CELTSCALE
 40
1.0
  9
$DISPSILH
 70
     0
  9
$DIMSCALE
 40
1.0
  9
$DIMASZ
 40
3.0
  9
$DIMEXO
 40
0.0
  9
$DIMDLI
 40
3.75
  9
$DIMRND
 40
0.0
  9
$DIMDLE
 40
0.0
  9
$DIMEXE
 40
1.0
  9
$DIMTP
 40
0.0
  9
$DIMTM
 40
0.0
  9
$DIMTXT
 40
2.0
  9
$DIMCEN
 40
2.5
  9
$DIMTSZ
 40
0.0
  9
$DIMTOL
 70
     0
  9
$DIMLIM
 70
     0
  9
$DIMTIH
 70
     1
  9
$DIMTOH
 70
     1
  9
$DIMSE1
 70
     0
  9
$DIMSE2
 70
     0
  9
$DIMTAD
 70
     1
  9
$DIMZIN
 70
     0
  9
$DIMBLK
  1

  9
$DIMASO
 70
     1
  9
$DIMSHO
 70
     1
  9
$DIMPOST
  1

  9
$DIMAPOST
  1

  9
$DIMALT
 70
     0
  9
$DIMALTD
 70
     3
  9
$DIMALTF
 40
0.0393700787
  9
$DIMLFAC
 40
2.0
  9
$DIMTOFL
 70
     1
  9
$DIMTVP
 40
0.0
  9
$DIMTIX
 70
     0
  9
$DIMSOXD
 70
     0
  9
$DIMSAH
 70
     0
  9
$DIMBLK1
  1

  9
$DIMBLK2
  1

  9
$DIMSTYLE
  2
ISO-25
  9
$DIMCLRD
 70
     0
  9
$DIMCLRE
 70
     0
  9
$DIMCLRT
 70
     0
  9
$DIMTFAC
 40
1.0
  9
$DIMGAP
 40
1.524
  9
$DIMJUST
 70
     0
  9
$DIMSD1
 70
     0
  9
$DIMSD2
 70
     0
  9
$DIMTOLJ
 70
     0
  9
$DIMTZIN
 70
     0
  9
$DIMALTZ
 70
     0
  9
$DIMALTTZ
 70
     0
  9
$DIMUPT
 70
     0
  9
$DIMDEC
 70
     2
  9
$DIMTDEC
 70
     3
  9
$DIMALTU
 70
     2
  9
$DIMALTTD
 70
     3
  9
$DIMTXSTY
  7
Standard
  9
$DIMAUNIT
 70
     0
  9
$DIMADEC
 70
     2
  9
$DIMALTRND
 40
0.0
  9
$DIMAZIN
 70
     0
  9
$DIMDSEP
 70
    44
  9
$DIMATFIT
 70
     3
  9
$DIMFRAC
 70
     0
  9
$DIMLDRBLK
  1

  9
$DIMLUNIT
 70
     2
  9
$DIMLWD
 70
    -2
  9
$DIMLWE
 70
    -2
  9
$DIMTMOVE
 70
     0
  9
$LUNITS
 70
     2
  9
$LUPREC
 70
     2
  9
$SKETCHINC
 40
1.0
  9
$FILLETRAD
 40
10.0
  9
$AUNITS
 70
     0
  9
$AUPREC
 70
     2
  9
$MENU
  1
.
  9
$ELEVATION
 40
0.0
  9
$PELEVATION
 40
0.0
  9
$THICKNESS
 40
0.0
  9
$LIMCHECK
 70
     0
  9
$CHAMFERA
 40
0.0
  9
$CHAMFERB
 40
0.0
  9
$CHAMFERC
 40
0.0
  9
$CHAMFERD
 40
0.0
  9
$SKPOLY
 70
     0
  9
$TDCREATE
 40
2458166.634529803
  9
$TDUCREATE
 40
2458166.592863136
  9
$TDUPDATE
 40
2458166.634532315
  9
$TDUUPDATE
 40
2458166.592865648
  9
$TDINDWG
 40
0.0000000116
  9
$TDUSRTIMER
 40
0.0000000116
  9
$USRTIMER
 70
     1
  9
$ANGBASE
 50
0.0
  9
$ANGDIR
 70
     0
  9
$PDMODE
 70
     0
  9
$PDSIZE
 40
-1.0
  9
$PLINEWID
 40
0.0
  9
$SPLFRAME
 70
     0
  9
$SPLINETYPE
 70
     6
  9
$SPLINESEGS
 70
     8
  9
$HANDSEED
  5
255
  9
$SURFTAB1
 70
     6
  9
$SURFTAB2
 70
     6
  9
$SURFTYPE
 70
     6
  9
$SURFU
 70
     6
  9
$SURFV
 70
     6
  9
$UCSBASE
  2

  9
$UCSNAME
  2

  9
$UCSORG
 10
0.0
 20
0.0
 30
0.0
  9
$UCSXDIR
 10
1.0
 20
0.0
 30
0.0
  9
$UCSYDIR
 10
0.0
 20
1.0
 30
0.0
  9
$UCSORTHOREF
  2

  9
$UCSORTHOVIEW
 70
     0
  9
$UCSORGTOP
 10
0.0
 20
0.0
 30
0.0
  9
$UCSORGBOTTOM
 10
0.0
 20
0.0
 30
0.0
  9
$UCSORGLEFT
 10
0.0
 20
0.0
 30
0.0
  9
$UCSORGRIGHT
 10
0.0
 20
0.0
 30
0.0
  9
$UCSORGFRONT
 10
0.0
 20
0.0
 30
0.0
  9
$UCSORGBACK
 10
0.0
 20
0.0
 30
0.0
  9
$PUCSBASE
  2

  9
$PUCSNAME
  2

  9
$PUCSORG
 10
0.0
 20
0.0
 30
0.0
  9
$PUCSXDIR
 10
1.0
 20
0.0
 30
0.0
  9
$PUCSYDIR
 10
0.0
 20
1.0
 30
0.0
  9
$PUCSORTHOREF
  2

  9
$PUCSORTHOVIEW
 70
     0
  9
$PUCSORGTOP
 10
0.0
 20
0.0
 30
0.0
  9
$PUCSORGBOTTOM
 10
0.0
 20
0.0
 30
0.0
  9
$PUCSORGLEFT
 10
0.0
 20
0.0
 30
0.0
  9
$PUCSORGRIGHT
 10
0.0
 20
0.0
 30
0.0
  9
$PUCSORGFRONT
 10
0.0
 20
0.0
 30
0.0
  9
$PUCSORGBACK
 10
0.0
 20
0.0
 30
0.0
  9
$USERI1
 70
     0
  9
$USERI2
 70
     0
  9
$USERI3
 70
     0
  9
$USERI4
 70
     0
  9
$USERI5
 70
     0
  9
$USERR1
 40
0.0
  9
$USERR2
 40
0.0
  9
$USERR3
 40
0.0
  9
$USERR4
 40
0.0
  9
$USERR5
 40
0.0
  9
$WORLDVIEW
 70
     1
  9
$SHADEDGE
 70
     3
  9
$SHADEDIF
 70
    70
  9
$TILEMODE
 70
     1
  9
$MAXACTVP
 70
    64
  9
$PINSBASE
 10
0.0
 20
0.0
 30
0.0
  9
$PLIMCHECK
 70
     0
  9
$PEXTMIN
 10
1.0000000000E+20
 20
1.0000000000E+20
 30
1.0000000000E+20
  9
$PEXTMAX
 10
-1.0000000000E+20
 20
-1.0000000000E+20
 30
-1.0000000000E+20
  9
$PLIMMIN
 10
0.0
 20
0.0
  9
$PLIMMAX
 10
420.0
 20
297.0
  9
$UNITMODE
 70
     0
  9
$VISRETAIN
 70
     1
  9
$PLINEGEN
 70
     0
  9
$PSLTSCALE
 70
     1
  9
$TREEDEPTH
 70
  3020
  9
$CMLSTYLE
  2
Standard
  9
$CMLJUST
 70
     0
  9
$CMLSCALE
 40
20.0
  9
$PROXYGRAPHICS
 70
     1
  9
$MEASUREMENT
 70
     1
  9
$CELWEIGHT
370
    -1
  9
$ENDCAPS
280
     0
  9
$JOINSTYLE
280
     0
  9
$LWDISPLAY
290
     1
  9
$INSUNITS
 70
     4
  9
$HYPERLINKBASE
  1

  9
$STYLESHEET
  1

  9
$XEDIT
290
     1
  9
$CEPSNTYPE
380
     0
  9
$PSTYLEMODE
290
     1
  9
$FINGERPRINTGUID
  2
{527E6386-5A25-4E9E-AA49-F3EE51F9FDE1}
  9
$VERSIONGUID
  2
{FAEB1C32-E019-11D5-929B-00C0DF256EC4}
  9
$EXTNAMES
290
     1
  9
$PSVPSCALE
 40
0.0
  9
$OLESTARTUP
290
     0
  0
ENDSEC
  0
SECTION
  2
CLASSES
  0
CLASS
  1
ACDBDICTIONARYWDFLT
  2
AcDbDictionaryWithDefault
  3
ObjectDBX Classes
 90
        0
280
     0
281
     0
  0
CLASS
  1
VISUALSTYLE
  2
AcDbVisualStyle
  3
ObjectDBX Classes
 90
     4095
280
     0
281
     0
  0
CLASS
  1
MATERIAL
  2
AcDbMaterial
  3
ObjectDBX Classes
 90
     1153
280
     0
281
     0
  0
CLASS
  1
SCALE
  2
AcDbScale
  3
ObjectDBX Classes
 90
     1153
280
     0
281
     0
  0
CLASS
  1
TABLESTYLE
  2
AcDbTableStyle
  3
ObjectDBX Classes
 90
     4095
280
     0
281
     0
  0
CLASS
  1
MLEADERSTYLE
  2
AcDbMLeaderStyle
  3
ACDB_MLEADERSTYLE_CLASS
 90
     4095
280
     0
281
     0
  0
CLASS
  1
SUN
  2
AcDbSun
  3
SCENEOE
 90
     1153
280
     0
281
     0
  0
CLASS
  1
ACDBPLACEHOLDER
  2
AcDbPlaceHolder
  3
ObjectDBX Classes
 90
        0
280
     0
281
     0
  0
CLASS
  1
LAYOUT
  2
AcDbLayout
  3
ObjectDBX Classes
 90
        0
280
     0
281
     0
  0
ENDSEC
  0
SECTION
  2
TABLES
  0
TABLE
  2
VPORT
  5
8
330
0
100
AcDbSymbolTable
 70
     1
  0
VPORT
  5
29
330
8
100
AcDbSymbolTableRecord
100
AcDbViewportTableRecord
  2
*Active
 70
     0
 10
0.0
 20
0.0
 11
1.0
 21
1.0
 12
148.5
 22
105.0
 13
0.0
 23
0.0
 14
10.0
 24
10.0
 15
10.0
 25
10.0
 16
0.0
 26
0.0
 36
1.0
 17
0.0
 27
0.0
 37
0.0
 40
210.0
 41
1.4142857143
 42
50.0
 43
0.0
 44
0.0
 50
0.0
 51
0.0
 71
     0
 72
  2000
 73
     1
 74
     3
 75
     0
 76
     0
 77
     0
 78
     0
281
     0
 65
     1
110
0.0
120
0.0
130
0.0
111
1.0
121
0.0
131
0.0
112
0.0
122
1.0
132
0.0
 79
     0
146
0.0
  0
ENDTAB
  0
TABLE
  2
LTYPE
  5
5
330
0
100
AcDbSymbolTable
 70
     6
  0
LTYPE
  5
14
330
5
100
AcDbSymbolTableRecord
100
AcDbLinetypeTableRecord
  2
ByBlock
 70
     0
  3

 72
    65
 73
     0
 40
0.0
  0
LTYPE
  5
15
330
5
100
AcDbSymbolTableRecord
100
AcDbLinetypeTableRecord
  2
ByLayer
 70
     0
  3

 72
    65
 73
     0
 40
0.0
  0
LTYPE
  5
16
330
5
100
AcDbSymbolTableRecord
100
AcDbLinetypeTableRecord
  2
Continuous
 70
     0
  3
Solid line
 72
    65
 73
     0
 40
0.0
  0
LTYPE
  5
6E
330
5
100
AcDbSymbolTableRecord
100
AcDbLinetypeTableRecord
  2
HIDDEN
 70
     0
  3
Hidden __ __ __ __ __ __ __ __ __ __ __ __ __ __
 72
    65
 73
     2
 40
1.905
 49
1.27
 74
     0
 49
-0.635
 74
     0
  0
LTYPE
  5
6F
330
5
100
AcDbSymbolTableRecord
100
AcDbLinetypeTableRecord
  2
PHANTOM
 70
     0
  3
Phantom ______  __  __  ______  __  __  ______
 72
    65
 73
     6
 40
12.7
 49
6.35
 74
     0
 49
-1.27
 74
     0
 49
1.27
 74
     0
 49
-1.27
 74
     0
 49
1.27
 74
     0
 49
-1.27
 74
     0
  0
LTYPE
  5
70
330
5
100
AcDbSymbolTableRecord
100
AcDbLinetypeTableRecord
  2
CENTER
 70
     0
  3
Center ____ _ ____ _ ____ _ ____ _ ____ _ ____
 72
    65
 73
     4
 40
10.16
 49
6.35
 74
     0
 49
-1.27
 74
     0
 49
1.27
 74
     0
 49
-1.27
 74
     0
  0
LTYPE
  5
71
330
5
100
AcDbSymbolTableRecord
100
AcDbLinetypeTableRecord
  2
CENTERX2
 70
     0
  3
Center (2x) ________  __  ________  __  _____
 72
    65
 73
     4
 40
20.32
 49
12.7
 74
     0
 49
-2.54
 74
     0
 49
2.54
 74
     0
 49
-2.54
 74
     0
  0
LTYPE
  5
72
330
5
100
AcDbSymbolTableRecord
100
AcDbLinetypeTableRecord
  2
DOT2
 70
     0
  3
Dot (.5x) ........................................
 72
    65
 73
     2
 40
0.635
 49
0.0
 74
     0
 49
-0.635
 74
     0
  0
ENDTAB
  0
TABLE
  2
LAYER
  5
2
330
0
100
AcDbSymbolTable
 70
     5
  0
LAYER
  5
10
330
2
100
AcDbSymbolTableRecord
100
AcDbLayerTableRecord
  2
0
 70
     0
 62
     7
  6
Continuous
370
    -3
390
F
  0
LAYER
  5
73
330
2
100
AcDbSymbolTableRecord
100
AcDbLayerTableRecord
  2
FORMAT
 70
     0
 62
     7
  6
Continuous
370
    -3
390
F
  0
LAYER
  5
74
330
2
100
AcDbSymbolTableRecord
100
AcDbLayerTableRecord
  2
VERMASSUNG
 70
     0
 62
     7
  6
Continuous
370
    -3
390
F
  0
LAYER
  5
75
330
2
100
AcDbSymbolTableRecord
100
AcDbLayerTableRecord
  2
KOPF_DÜNN
 70
     0
 62
     7
  6
Continuous
370
    -3
390
F
  0
LAYER
  5
76
330
2
100
AcDbSymbolTableRecord
100
AcDbLayerTableRecord
  2
KOPF_DICK
 70
     0
 62
     7
  6
Continuous
370
    25
390
F
  0
ENDTAB
  0
TABLE
  2
STYLE
  5
3
330
0
100
AcDbSymbolTable
 70
     2
  0
STYLE
  5
11
330
3
100
AcDbSymbolTableRecord
100
AcDbTextStyleTableRecord
  2
Standard
 70
     0
 40
0.0
 41
1.0
 50
0.0
 71
     0
 42
2.0
  3
txt
  4

  0
STYLE
  5
77
330
3
100
AcDbSymbolTableRecord
100
AcDbTextStyleTableRecord
  2
SLDTEXTSTYLE0
 70
     0
 40
0.0
 41
0.7
 50
0.0
 71
     0
 42
2.0
  3
TXT
  4

  0
ENDTAB
  0
TABLE
  2
VIEW
  5
6
330
0
100
AcDbSymbolTable
 70
     0
  0
ENDTAB
  0
TABLE
  2
UCS
  5
7
330
0
100
AcDbSymbolTable
 70
     0
  0
ENDTAB
  0
TABLE
  2
APPID
  5
9
330
0
100
AcDbSymbolTable
 70
     1
  0
APPID
  5
12
330
9
100
AcDbSymbolTableRecord
100
AcDbRegAppTableRecord
  2
ACAD
 70
     0
  0
ENDTAB
  0
TABLE
  2
DIMSTYLE
  5
A
330
0
100
AcDbSymbolTable
 70
     3
100
AcDbDimStyleTable
  0
DIMSTYLE
105
27
330
A
100
AcDbSymbolTableRecord
100
AcDbDimStyleTableRecord
  2
ISO-25
 70
     0
 41
2.5
 42
0.625
 43
3.75
 44
1.25
 73
     0
 74
     0
 77
     1
 78
     8
140
2.5
141
2.5
143
0.0393700787
147
0.625
171
     3
172
     1
178
     0
271
     2
272
     2
274
     3
278
    44
283
     0
284
     8
340
11
  0
DIMSTYLE
105
138
102
{ACAD_REACTORS
330
137
330
143
330
14D
330
157
330
161
102
}
330
A
100
AcDbSymbolTableRecord
100
AcDbDimStyleTableRecord
  2
SLDDIMSTYLE0
 70
     0
 41
3.0
 44
0.0
 45
0.000000001
 73
     0
 74
     0
 77
     1
 78
    12
 79
     3
140
2.0
147
0.5
173
     1
178
     0
271
     2
272
     3
276
     2
284
    12
340
77
  0
DIMSTYLE
105
16C
102
{ACAD_REACTORS
330
16B
102
}
330
A
100
AcDbSymbolTableRecord
100
AcDbDimStyleTableRecord
  2
SLDDIMSTYLE1
 70
     0
 41
3.0
 44
0.0
 45
0.000000001
 73
     0
 74
     0
 77
     1
 78
    12
 79
     3
140
2.0
147
0.5
173
     1
178
     0
271
     1
272
     3
276
     2
284
    12
340
77
  0
ENDTAB
  0
TABLE
  2
BLOCK_RECORD
  5
1
330
0
100
AcDbSymbolTable
 70
     7
  0
BLOCK_RECORD
  5
1F
330
1
100
AcDbSymbolTableRecord
100
AcDbBlockTableRecord
  2
*Model_Space
340
22
  0
BLOCK_RECORD
  5
1B
330
1
100
AcDbSymbolTableRecord
100
AcDbBlockTableRecord
  2
*Paper_Space
340
1E
  0
BLOCK_RECORD
  5
23
330
1
100
AcDbSymbolTableRecord
100
AcDbBlockTableRecord
  2
*Paper_Space0
340
26
  0
BLOCK_RECORD
  5
139
330
1
100
AcDbSymbolTableRecord
100
AcDbBlockTableRecord
  2
_D
340
0
  0
BLOCK_RECORD
  5
144
330
1
100
AcDbSymbolTableRecord
100
AcDbBlockTableRecord
  2
_D_1
340
0
  0
BLOCK_RECORD
  5
14E
330
1
100
AcDbSymbolTableRecord
100
AcDbBlockTableRecord
  2
_D_2
340
0
  0
BLOCK_RECORD
  5
158
330
1
100
AcDbSymbolTableRecord
100
AcDbBlockTableRecord
  2
_D_3
340
0
  0
BLOCK_RECORD
  5
162
330
1
100
AcDbSymbolTableRecord
100
AcDbBlockTableRecord
  2
_D_4
340
0
  0
BLOCK_RECORD
  5
16D
330
1
100
AcDbSymbolTableRecord
100
AcDbBlockTableRecord
  2
_D_5
340
0
  0
ENDTAB
  0
ENDSEC
  0
SECTION
  2
BLOCKS
  0
BLOCK
  5
20
330
1F
100
AcDbEntity
  8
0
100
AcDbBlockBegin
  2
*Model_Space
 70
     0
 10
0.0
 20
0.0
 30
0.0
  3
*Model_Space
  1

  0
ENDBLK
  5
21
330
1F
100
AcDbEntity
  8
0
100
AcDbBlockEnd
  0
BLOCK
  5
1C
330
1B
100
AcDbEntity
 67
     1
  8
0
100
AcDbBlockBegin
  2
*Paper_Space
 70
     0
 10
0.0
 20
0.0
 30
0.0
  3
*Paper_Space
  1

  0
ENDBLK
  5
1D
330
1B
100
AcDbEntity
 67
     1
  8
0
100
AcDbBlockEnd
  0
BLOCK
  5
24
330
23
100
AcDbEntity
  8
0
100
AcDbBlockBegin
  2
*Paper_Space0
 70
     0
 10
0.0
 20
0.0
 30
0.0
  3
*Paper_Space0
  1

  0
ENDBLK
  5
25
330
23
100
AcDbEntity
  8
0
100
AcDbBlockEnd
  0
BLOCK
  5
13A
330
139
100
AcDbEntity
  8
0
100
AcDbBlockBegin
  2
_D
 70
     0
 10
0.0
 20
0.0
 30
0.0
  3
_D
  1

  0
SOLID
  5
13C
330
139
100
AcDbEntity
  8
VERMASSUNG
100
AcDbTrace
 10
248.1392802414
 20
132.2669724771
 30
0.0
 11
247.6892802414
 21
129.2669724771
 31
0.0
 12
248.5892802414
 22
129.2669724771
 32
0.0
 13
248.5892802414
 23
129.2669724771
 33
0.0
  0
SOLID
  5
13D
330
139
100
AcDbEntity
  8
VERMASSUNG
100
AcDbTrace
 10
248.1392802414
 20
110.2669724771
 30
0.0
 11
248.5892802414
 21
113.2669724771
 31
0.0
 12
247.6892802414
 22
113.2669724771
 32
0.0
 13
247.6892802414
 23
113.2669724771
 33
0.0
  0
LINE
  5
13E
330
139
100
AcDbEntity
  8
VERMASSUNG
100
AcDbLine
 10
234.9621684633
 20
132.2669724771
 30
0.0
 11
249.1392802414
 21
132.2669724771
 31
0.0
  0
LINE
  5
13F
330
139
100
AcDbEntity
  8
VERMASSUNG
100
AcDbLine
 10
234.9621684633
 20
110.2669724771
 30
0.0
 11
249.1392802414
 21
110.2669724771
 31
0.0
  0
LINE
  5
140
330
139
100
AcDbEntity
  8
VERMASSUNG
100
AcDbLine
 10
248.1392802414
 20
132.2669724771
 30
0.0
 11
248.1392802414
 21
110.2669724771
 31
0.0
  0
MTEXT
  5
141
330
139
100
AcDbEntity
  8
VERMASSUNG
100
AcDbMText
 10
245.5611449364
 20
118.0619725198
 30
0.0
 40
2.0
 41
0.0
 71
     1
 72
     1
  1
%%c
  7
SLDTEXTSTYLE0
 11
-7.044195017643634E-15
 21
1.0
 31
0.0
 73
     1
 44
1.0
  0
MTEXT
  5
142
330
139
100
AcDbEntity
  8
VERMASSUNG
100
AcDbMText
 10
245.3611449851
 20
121.6719725341
 30
0.0
 40
2.0
 41
0.0
 71
     1
 72
     1
  1
22
  7
SLDTEXTSTYLE0
 11
-7.044195017643634E-15
 21
1.0
 31
0.0
 73
     1
 44
1.0
  0
ENDBLK
  5
13B
330
139
100
AcDbEntity
  8
0
100
AcDbBlockEnd
  0
BLOCK
  5
145
330
144
100
AcDbEntity
  8
0
100
AcDbBlockBegin
  2
_D_1
 70
     0
 10
0.0
 20
0.0
 30
0.0
  3
_D_1
  1

  0
SOLID
  5
147
330
144
100
AcDbEntity
  8
VERMASSUNG
100
AcDbTrace
 10
181.9303342542
 20
132.2669724771
 30
0.0
 11
181.4803342542
 21
129.2669724771
 31
0.0
 12
182.3803342542
 22
129.2669724771
 32
0.0
 13
182.3803342542
 23
129.2669724771
 33
0.0
  0
SOLID
  5
148
330
144
100
AcDbEntity
  8
VERMASSUNG
100
AcDbTrace
 10
181.9303342542
 20
110.2669724771
 30
0.0
 11
182.3803342542
 21
113.2669724771
 31
0.0
 12
181.4803342542
 22
113.2669724771
 32
0.0
 13
181.4803342542
 23
113.2669724771
 33
0.0
  0
LINE
  5
149
330
144
100
AcDbEntity
  8
VERMASSUNG
100
AcDbLine
 10
181.9303342542
 20
132.2669724771
 30
0.0
 11
181.9303342542
 21
148.5650484761
 31
0.0
  0
LINE
  5
14A
330
144
100
AcDbEntity
  8
VERMASSUNG
100
AcDbLine
 10
181.9303342542
 20
132.2669724771
 30
0.0
 11
181.9303342542
 21
110.2669724771
 31
0.0
  0
MTEXT
  5
14B
330
144
100
AcDbEntity
  8
VERMASSUNG
100
AcDbMText
 10
179.3521989493
 20
142.1550485617
 30
0.0
 40
2.0
 41
0.0
 71
     1
 72
     1
  1
%%c
  7
SLDTEXTSTYLE0
 11
-7.044195017643634E-15
 21
1.0
 31
0.0
 73
     1
 44
1.0
  0
MTEXT
  5
14C
330
144
100
AcDbEntity
  8
VERMASSUNG
100
AcDbMText
 10
179.152198998
 20
145.765048576
 30
0.0
 40
2.0
 41
0.0
 71
     1
 72
     1
  1
22
  7
SLDTEXTSTYLE0
 11
-7.044195017643634E-15
 21
1.0
 31
0.0
 73
     1
 44
1.0
  0
ENDBLK
  5
146
330
144
100
AcDbEntity
  8
0
100
AcDbBlockEnd
  0
BLOCK
  5
14F
330
14E
100
AcDbEntity
  8
0
100
AcDbBlockBegin
  2
_D_2
 70
     0
 10
0.0
 20
0.0
 30
0.0
  3
_D_2
  1

  0
SOLID
  5
151
330
14E
100
AcDbEntity
  8
VERMASSUNG
100
AcDbTrace
 10
133.4621684633
 20
162.7419724771
 30
0.0
 11
136.4621684633
 21
162.2919724771
 31
0.0
 12
136.4621684633
 22
163.1919724771
 32
0.0
 13
136.4621684633
 23
163.1919724771
 33
0.0
  0
SOLID
  5
152
330
14E
100
AcDbEntity
  8
VERMASSUNG
100
AcDbTrace
 10
234.9621684633
 20
162.7419724771
 30
0.0
 11
231.9621684633
 21
163.1919724771
 31
0.0
 12
231.9621684633
 22
162.2919724771
 32
0.0
 13
231.9621684633
 23
162.2919724771
 33
0.0
  0
LINE
  5
153
330
14E
100
AcDbEntity
  8
VERMASSUNG
100
AcDbLine
 10
133.4621684633
 20
151.7419724771
 30
0.0
 11
133.4621684633
 21
163.7419724771
 31
0.0
  0
LINE
  5
154
330
14E
100
AcDbEntity
  8
VERMASSUNG
100
AcDbLine
 10
234.9621684633
 20
130.2094702317
 30
0.0
 11
234.9621684633
 21
163.7419724771
 31
0.0
  0
LINE
  5
155
330
14E
100
AcDbEntity
  8
VERMASSUNG
100
AcDbLine
 10
133.4621684633
 20
162.7419724771
 30
0.0
 11
234.9621684633
 21
162.7419724771
 31
0.0
  0
MTEXT
  5
156
330
14E
100
AcDbEntity
  8
VERMASSUNG
100
AcDbMText
 10
181.5121683933
 20
165.320108073
 30
0.0
 40
2.0
 41
0.0
 71
     1
 72
     1
  1
101.5
  7
SLDTEXTSTYLE0
 73
     1
 44
1.0
  0
ENDBLK
  5
150
330
14E
100
AcDbEntity
  8
0
100
AcDbBlockEnd
  0
BLOCK
  5
159
330
158
100
AcDbEntity
  8
0
100
AcDbBlockBegin
  2
_D_3
 70
     0
 10
0.0
 20
0.0
 30
0.0
  3
_D_3
  1

  0
SOLID
  5
15B
330
158
100
AcDbEntity
  8
VERMASSUNG
100
AcDbTrace
 10
115.4621684633
 20
171.2507418773
 30
0.0
 11
118.4621684633
 21
170.8007418773
 31
0.0
 12
118.4621684633
 22
171.7007418773
 32
0.0
 13
118.4621684633
 23
171.7007418773
 33
0.0
  0
SOLID
  5
15C
330
158
100
AcDbEntity
  8
VERMASSUNG
100
AcDbTrace
 10
235.4621684633
 20
171.2507418773
 30
0.0
 11
232.4621684633
 21
171.7007418773
 31
0.0
 12
232.4621684633
 22
170.8007418773
 32
0.0
 13
232.4621684633
 23
170.8007418773
 33
0.0
  0
LINE
  5
15D
330
158
100
AcDbEntity
  8
VERMASSUNG
100
AcDbLine
 10
115.4621684633
 20
152.5419724771
 30
0.0
 11
115.4621684633
 21
172.2507418773
 31
0.0
  0
LINE
  5
15E
330
158
100
AcDbEntity
  8
VERMASSUNG
100
AcDbLine
 10
235.4621684633
 20
127.6169724771
 30
0.0
 11
235.4621684633
 21
172.2507418773
 31
0.0
  0
LINE
  5
15F
330
158
100
AcDbEntity
  8
VERMASSUNG
100
AcDbLine
 10
115.4621684633
 20
171.2507418773
 30
0.0
 11
235.4621684633
 21
171.2507418773
 31
0.0
  0
MTEXT
  5
160
330
158
100
AcDbEntity
  8
VERMASSUNG
100
AcDbMText
 10
173.5621684313
 20
173.8288774733
 30
0.0
 40
2.0
 41
0.0
 71
     1
 72
     1
  1
120
  7
SLDTEXTSTYLE0
 73
     1
 44
1.0
  0
ENDBLK
  5
15A
330
158
100
AcDbEntity
  8
0
100
AcDbBlockEnd
  0
BLOCK
  5
163
330
162
100
AcDbEntity
  8
0
100
AcDbBlockBegin
  2
_D_4
 70
     0
 10
0.0
 20
0.0
 30
0.0
  3
_D_4
  1

  0
SOLID
  5
165
330
162
100
AcDbEntity
  8
VERMASSUNG
100
AcDbTrace
 10
75.5121684633
 20
180.7419724771
 30
0.0
 11
78.5121684633
 21
180.2919724771
 31
0.0
 12
78.5121684633
 22
181.1919724771
 32
0.0
 13
78.5121684633
 23
181.1919724771
 33
0.0
  0
SOLID
  5
166
330
162
100
AcDbEntity
  8
VERMASSUNG
100
AcDbTrace
 10
235.4621684633
 20
180.7419724771
 30
0.0
 11
232.4621684633
 21
181.1919724771
 31
0.0
 12
232.4621684633
 22
180.2919724771
 32
0.0
 13
232.4621684633
 23
180.2919724771
 33
0.0
  0
LINE
  5
167
330
162
100
AcDbEntity
  8
VERMASSUNG
100
AcDbLine
 10
75.5121684633
 20
143.4700672009
 30
0.0
 11
75.5121684633
 21
181.7419724771
 31
0.0
  0
LINE
  5
168
330
162
100
AcDbEntity
  8
VERMASSUNG
100
AcDbLine
 10
235.4621684633
 20
127.6169724771
 30
0.0
 11
235.4621684633
 21
181.7419724771
 31
0.0
  0
LINE
  5
169
330
162
100
AcDbEntity
  8
VERMASSUNG
100
AcDbLine
 10
75.5121684633
 20
180.7419724771
 30
0.0
 11
235.4621684633
 21
180.7419724771
 31
0.0
  0
MTEXT
  5
16A
330
162
100
AcDbEntity
  8
VERMASSUNG
100
AcDbMText
 10
151.8871685251
 20
183.320108073
 30
0.0
 40
2.0
 41
0.0
 71
     1
 72
     1
  1
159.95
  7
SLDTEXTSTYLE0
 73
     1
 44
1.0
  0
ENDBLK
  5
164
330
162
100
AcDbEntity
  8
0
100
AcDbBlockEnd
  0
BLOCK
  5
16E
330
16D
100
AcDbEntity
  8
0
100
AcDbBlockBegin
  2
_D_5
 70
     0
 10
0.0
 20
0.0
 30
0.0
  3
_D_5
  1

  0
SOLID
  5
170
330
16D
100
AcDbEntity
  8
VERMASSUNG
100
AcDbTrace
 10
63.2622736679
 20
89.7919724771
 30
0.0
 11
63.7122736679
 21
92.7919724771
 31
0.0
 12
62.8122736679
 22
92.7919724771
 32
0.0
 13
62.8122736679
 23
92.7919724771
 33
0.0
  0
SOLID
  5
171
330
16D
100
AcDbEntity
  8
VERMASSUNG
100
AcDbTrace
 10
63.2622736679
 20
152.7419724771
 30
0.0
 11
62.8122736679
 21
149.7419724771
 31
0.0
 12
63.7122736679
 22
149.7419724771
 32
0.0
 13
63.7122736679
 23
149.7419724771
 33
0.0
  0
LINE
  5
172
330
16D
100
AcDbEntity
  8
VERMASSUNG
100
AcDbLine
 10
115.6621684633
 20
89.7919724771
 30
0.0
 11
62.2622736679
 21
89.7919724771
 31
0.0
  0
LINE
  5
173
330
16D
100
AcDbEntity
  8
VERMASSUNG
100
AcDbLine
 10
115.6621684633
 20
152.7419724771
 30
0.0
 11
62.2622736679
 21
152.7419724771
 31
0.0
  0
LINE
  5
174
330
16D
100
AcDbEntity
  8
VERMASSUNG
100
AcDbLine
 10
63.2622736679
 20
89.7919724771
 30
0.0
 11
63.2622736679
 21
152.7419724771
 31
0.0
  0
MTEXT
  5
175
330
16D
100
AcDbEntity
  8
VERMASSUNG
100
AcDbMText
 10
60.4841384117
 20
113.1619738587
 30
0.0
 40
2.0
 41
0.0
 71
     1
 72
     1
  1
KM
  7
SLDTEXTSTYLE0
 11
6.123233995736766E-17
 21
1.0
 31
0.0
 73
     1
 44
1.0
  0
MTEXT
  5
176
330
16D
100
AcDbEntity
  8
VERMASSUNG
100
AcDbMText
 10
60.684138363
 20
116.5619736709
 30
0.0
 40
2.0
 41
0.0
 71
     1
 72
     1
  1
%%c
  7
SLDTEXTSTYLE0
 11
6.123233995736766E-17
 21
1.0
 31
0.0
 73
     1
 44
1.0
  0
MTEXT
  5
177
330
16D
100
AcDbEntity
  8
VERMASSUNG
100
AcDbMText
 10
60.4841384117
 20
120.1719736853
 30
0.0
 40
2.0
 41
0.0
 71
     1
 72
     1
  1
63
  7
SLDTEXTSTYLE0
 11
6.123233995736766E-17
 21
1.0
 31
0.0
 73
     1
 44
1.0
  0
MTEXT
  5
178
330
16D
100
AcDbEntity
  8
VERMASSUNG
100
AcDbMText
 10
60.4841384117
 20
124.1594735854
 30
0.0
 40
2.0
 41
0.0
 71
     1
 72
     1
  1
XMZ
  7
SLDTEXTSTYLE0
 11
6.123233995736766E-17
 21
1.0
 31
0.0
 73
     1
 44
1.0
  0
ENDBLK
  5
16F
330
16D
100
AcDbEntity
  8
0
100
AcDbBlockEnd
  0
ENDSEC
  0
SECTION
  2
ENTITIES
  0
MTEXT
  5
78
330
1F
100
AcDbEntity
  8
KOPF_DÜNN
100
AcDbMText
 10
13.8892156294
 20
23.8442973028
 30
0.0
 40
3.0
 41
0.0
 71
     1
 72
     1
  1
KY6.E17.K01.120
  7
SLDTEXTSTYLE0
 73
     1
 44
1.0
  0
MTEXT
  5
79
330
1F
100
AcDbEntity
  8
VERMASSUNG
100
AcDbMText
 10
13.9329988022
 20
28.8834360957
 30
0.0
 40
3.0
 41
0.0
 71
     1
 72
     1
  1
Spannzangenfutter ER-MINI_Collet chuck ER-MINI
  7
SLDTEXTSTYLE0
 73
     1
 44
1.0
  0
MTEXT
  5
7A
330
1F
100
AcDbEntity
  8
VERMASSUNG
100
AcDbMText
 10
98.8601118557
 20
13.8365368761
 30
0.0
 40
2.0
 41
0.0
 71
     1
 72
     1
  1
Datum: 16.02.2018
  7
SLDTEXTSTYLE0
 73
     1
 44
1.0
  0
MTEXT
  5
7B
330
1F
100
AcDbEntity
  8
VERMASSUNG
100
AcDbMText
 10
13.933048693
 20
18.0482802738
 30
0.0
 40
2.0
 41
0.0
 71
     1
 72
     1
  1
KM63 XMZ / Ø22 MINI
  7
SLDTEXTSTYLE0
 73
     1
 44
1.0
  0
MTEXT
  5
7C
330
1F
100
AcDbEntity
  8
VERMASSUNG
100
AcDbMText
 10
13.9808475933
 20
13.9090974274
 30
0.0
 40
2.0
 41
0.0
 71
     1
 72
     1
  1
Gewicht: 847g
  7
SLDTEXTSTYLE0
 73
     1
 44
1.0
  0
LINE
  5
7D
330
1F
100
AcDbEntity
  8
0
  6
Continuous
 62
     7
370
    25
100
AcDbLine
 10
217.8621658765
 20
110.2669725367
 30
0.0
 11
234.9621647678
 21
110.2669725367
 31
0.0
  0
LINE
  5
7E
330
1F
100
AcDbEntity
  8
0
  6
Continuous
 62
     7
370
    25
100
AcDbLine
 10
234.9621647678
 20
132.2669724175
 30
0.0
 11
217.8621658765
 21
132.2669724175
 31
0.0
  0
LINE
  5
7F
330
1F
100
AcDbEntity
  8
0
  6
Continuous
 62
     7
370
    25
100
AcDbLine
 10
217.8621658765
 20
132.2669724175
 30
0.0
 11
217.0621672354
 21
131.4669728451
 31
0.0
  0
LINE
  5
80
330
1F
100
AcDbEntity
  8
0
  6
Continuous
 62
     7
370
    25
100
AcDbLine
 10
217.0621672354
 20
111.066972109
 30
0.0
 11
217.8621658765
 21
110.2669725367
 31
0.0
  0
LINE
  5
81
330
1F
100
AcDbEntity
  8
0
  6
Continuous
 62
     7
370
    25
100
AcDbLine
 10
234.9621647678
 20
110.2669725367
 30
0.0
 11
235.4621657811
 21
110.7669726186
 31
0.0
  0
LINE
  5
82
330
1F
100
AcDbEntity
  8
0
  6
Continuous
 62
     7
370
    25
100
AcDbLine
 10
235.4621657811
 20
131.7669723355
 30
0.0
 11
234.9621647678
 21
132.2669724175
 31
0.0
  0
LINE
  5
83
330
1F
100
AcDbEntity
  8
0
  6
Continuous
 62
     7
370
    25
100
AcDbLine
 10
115.6621684583
 20
89.7919723936
 30
0.0
 11
122.0279707283
 21
89.7919723936
 31
0.0
  0
LINE
  5
84
330
1F
100
AcDbEntity
  8
0
  6
Continuous
 62
     7
370
    25
100
AcDbLine
 10
122.0279707283
 20
152.7419725605
 30
0.0
 11
115.6621684583
 21
152.7419725605
 31
0.0
  0
ARC
  5
85
330
1F
100
AcDbEntity
  8
0
  6
Continuous
 62
     7
370
    25
100
AcDbCircle
 10
132.4621684633
 20
90.7919724771
 30
0.0
 40
1.0
100
AcDbArc
 50
270.0
 51
0.0
  0
ARC
  5
86
330
1F
100
AcDbEntity
  8
0
  6
Continuous
 62
     7
370
    25
100
AcDbCircle
 10
132.4621684633
 20
151.7419724771
 30
0.0
 40
1.0
100
AcDbArc
 50
360.0
 51
90.0
  0
LINE
  5
87
330
1F
100
AcDbEntity
  8
0
  6
Continuous
 62
     7
370
    25
100
AcDbLine
 10
128.6963665567
 20
89.7919723936
 30
0.0
 11
132.4621693872
 21
89.7919723936
 31
0.0
  0
LINE
  5
88
330
1F
100
AcDbEntity
  8
0
  6
Continuous
 62
     7
370
    25
100
AcDbLine
 10
132.4621693872
 20
152.7419725605
 30
0.0
 11
128.6963665567
 21
152.7419725605
 31
0.0
  0
LINE
  5
89
330
1F
100
AcDbEntity
  8
0
  6
Continuous
 62
     7
370
    25
100
AcDbLine
 10
123.4871683352
 20
150.214567984
 30
0.0
 11
122.0279707283
 21
152.7419725605
 31
0.0
  0
ARC
  5
8A
330
1F
100
AcDbEntity
  8
0
  6
Continuous
 62
     7
370
    25
100
AcDbCircle
 10
115.6621684633
 20
89.9919724771
 30
0.0
 40
0.1999999999999886
100
AcDbArc
 50
180.0
 51
270.0
  0
ARC
  5
8B
330
1F
100
AcDbEntity
  8
0
  6
Continuous
 62
     7
370
    25
100
AcDbCircle
 10
115.6621684633
 20
152.5419724771
 30
0.0
 40
0.2000000000000171
100
AcDbArc
 50
90.0
 51
180.0
  0
ARC
  5
8C
330
1F
100
AcDbEntity
  8
0
  6
Continuous
 62
     7
370
    25
100
AcDbCircle
 10
115.0332335887
 20
95.7169724771
 30
0.0
 40
0.8000000000000158
100
AcDbArc
 50
57.576802718
 51
107.5
  0
ARC
  5
8D
330
1F
100
AcDbEntity
  8
0
  6
Continuous
 62
     7
370
    25
100
AcDbCircle
 10
115.0332335887
 20
146.8169724771
 30
0.0
 40
0.8000000000000139
100
AcDbArc
 50
252.5
 51
302.423197282
  0
LINE
  5
8E
330
1F
100
AcDbEntity
  8
0
  6
Continuous
 62
     7
370
    25
100
AcDbLine
 10
85.0670052402
 20
144.7405891665
 30
0.0
 11
77.0121695183
 21
144.3360934206
 31
0.0
  0
LINE
  5
8F
330
1F
100
AcDbEntity
  8
0
  6
Continuous
 62
     7
370
    25
100
AcDbLine
 10
114.3019864045
 20
146.208711172
 30
0.0
 11
100.9757233493
 21
145.5394925722
 31
0.0
  0
LINE
  5
90
330
1F
100
AcDbEntity
  8
0
  6
Continuous
 62
     7
370
    25
100
AcDbLine
 10
100.9766798176
 20
96.9944039532
 30
0.0
 11
114.3019864045
 21
96.3252337822
 31
0.0
  0
LINE
  5
91
330
1F
100
AcDbEntity
  8
0
  6
Continuous
 62
     7
370
    25
100
AcDbLine
 10
77.0121695183
 20
98.1978515335
 30
0.0
 11
85.067016416
 21
97.793353925
 31
0.0
  0
LINE
  5
92
330
1F
100
AcDbEntity
  8
0
  6
Continuous
 62
     7
370
    25
100
AcDbLine
 10
114.3019864045
 20
96.3252337822
 30
0.0
 11
114.7926689533
 21
96.4799469509
 31
0.0
  0
LINE
  5
93
330
1F
100
AcDbEntity
  8
0
  6
Continuous
 62
     7
370
    25
100
AcDbLine
 10
114.7926689533
 20
146.0539980032
 30
0.0
 11
114.3019864045
 21
146.208711172
 31
0.0
  0
LINE
  5
94
330
1F
100
AcDbEntity
  8
0
  6
Continuous
 62
     7
370
    25
100
AcDbLine
 10
77.0121695183
 20
144.3360934206
 30
0.0
 11
75.5121702038
 21
143.4700677343
 31
0.0
  0
LINE
  5
95
330
1F
100
AcDbEntity
  8
0
  6
Continuous
 62
     7
370
    25
100
AcDbLine
 10
75.5121702038
 20
99.0638772198
 30
0.0
 11
77.0121695183
 21
98.1978515335
 31
0.0
  0
ARC
  5
96
330
1F
100
AcDbEntity
  8
0
  6
Continuous
 62
     7
370
    25
100
AcDbCircle
 10
137.4621684633
 20
106.2669724771
 30
0.0
 40
4.0
100
AcDbArc
 50
90.0
 51
180.0
  0
ARC
  5
97
330
1F
100
AcDbEntity
  8
0
  6
Continuous
 62
     7
370
    25
100
AcDbCircle
 10
137.4621684633
 20
136.2669724771
 30
0.0
 40
4.0
100
AcDbArc
 50
180.0
 51
270.0
  0
LINE
  5
98
330
1F
100
AcDbEntity
  8
0
  6
Continuous
 62
     7
370
    25
100
AcDbLine
 10
128.6963665567
 20
152.7419725605
 30
0.0
 11
127.2371684842
 21
150.214567984
 31
0.0
  0
ARC
  5
99
330
1F
100
AcDbEntity
  8
0
  6
Continuous
 62
     7
370
    25
100
AcDbCircle
 10
124.4871684633
 20
150.1169724771
 30
0.0
 40
1.0
100
AcDbArc
 50
180.0
 51
270.0
  0
LINE
  5
9A
330
1F
100
AcDbEntity
  8
0
  6
Continuous
 62
     7
370
    25
100
AcDbLine
 10
122.0279707283
 20
89.7919723936
 30
0.0
 11
123.4871683352
 21
92.3193769702
 31
0.0
  0
ARC
  5
9B
330
1F
100
AcDbEntity
  8
0
  6
Continuous
 62
     7
370
    25
100
AcDbCircle
 10
124.4871684633
 20
92.4169724771
 30
0.0
 40
1.0
100
AcDbArc
 50
90.0
 51
180.0
  0
LINE
  5
9C
330
1F
100
AcDbEntity
  8
0
  6
Continuous
 62
     7
370
    25
100
AcDbLine
 10
126.2371683203
 20
149.1169726648
 30
0.0
 11
124.4871684991
 21
149.1169726648
 31
0.0
  0
LINE
  5
9D
330
1F
100
AcDbEntity
  8
0
  6
Continuous
 62
     7
370
    25
100
AcDbLine
 10
127.2371684842
 20
92.3193769702
 30
0.0
 11
128.6963665567
 21
89.7919723936
 31
0.0
  0
ARC
  5
9E
330
1F
100
AcDbEntity
  8
0
  6
Continuous
 62
     7
370
    25
100
AcDbCircle
 10
126.2371684633
 20
150.1169724771
 30
0.0
 40
1.0
100
AcDbArc
 50
270.0
 51
0.0
  0
LINE
  5
9F
330
1F
100
AcDbEntity
  8
0
  6
Continuous
 62
     7
370
    25
100
AcDbLine
 10
137.4621683441
 20
110.2669725367
 30
0.0
 11
208.4621706687
 21
110.2669725367
 31
0.0
  0
LINE
  5
A0
330
1F
100
AcDbEntity
  8
0
  6
Continuous
 62
     7
370
    25
100
AcDbLine
 10
208.4621706687
 20
132.2669724175
 30
0.0
 11
137.4621683441
 21
132.2669724175
 31
0.0
  0
ARC
  5
A1
330
1F
100
AcDbEntity
  8
0
  6
Continuous
 62
     7
370
    25
100
AcDbCircle
 10
208.4621684633
 20
131.7669724771
 30
0.0
 40
0.5
100
AcDbArc
 50
0.0
 51
90.0
  0
ARC
  5
A2
330
1F
100
AcDbEntity
  8
0
  6
Continuous
 62
     7
370
    25
100
AcDbCircle
 10
208.4621684633
 20
110.7669724771
 30
0.0
 40
0.5
100
AcDbArc
 50
270.0
 51
0.0
  0
LINE
  5
A3
330
1F
100
AcDbEntity
  8
0
  6
Continuous
 62
     7
370
    25
100
AcDbLine
 10
124.4871684991
 20
93.4169722893
 30
0.0
 11
126.2371683203
 21
93.4169722893
 31
0.0
  0
ARC
  5
A4
330
1F
100
AcDbEntity
  8
0
  6
Continuous
 62
     7
370
    25
100
AcDbCircle
 10
126.2371684633
 20
92.4169724771
 30
0.0
 40
1.0
100
AcDbArc
 50
0.0
 51
90.0
  0
ARC
  5
A5
330
1F
100
AcDbEntity
  8
0
  6
Continuous
 62
     7
370
    25
100
AcDbCircle
 10
209.4621684633
 20
131.2669724771
 30
0.0
 40
0.5
100
AcDbArc
 50
180.0
 51
270.0
  0
ARC
  5
A6
330
1F
100
AcDbEntity
  8
0
  6
Continuous
 62
     7
370
    25
100
AcDbCircle
 10
209.4621684633
 20
111.2669724771
 30
0.0
 40
0.5
100
AcDbArc
 50
90.0
 51
180.0
  0
LINE
  5
A7
330
1F
100
AcDbEntity
  8
0
  6
Continuous
 62
     7
370
    25
100
AcDbLine
 10
217.0621672354
 20
130.7669721716
 30
0.0
 11
209.4621652447
 21
130.7669721716
 31
0.0
  0
LINE
  5
A8
330
1F
100
AcDbEntity
  8
0
  6
Continuous
 62
     7
370
    25
100
AcDbLine
 10
209.4621652447
 20
111.7669727825
 30
0.0
 11
217.0621672354
 21
111.7669727825
 31
0.0
  0
LINE
  5
A9
330
1F
100
AcDbEntity
  8
0
  6
Continuous
 62
     7
370
    25
100
AcDbLine
 10
234.9621647678
 20
131.9087159061
 30
0.0
 11
234.9621647678
 21
132.2669724175
 31
0.0
  0
LINE
  5
AA
330
1F
100
AcDbEntity
  8
0
  6
Continuous
 62
     7
370
    25
100
AcDbLine
 10
234.9621647678
 20
131.9087159061
 30
0.0
 11
228.9755413018
 21
131.9087159061
 31
0.0
  0
ELLIPSE
  5
AB
330
1F
100
AcDbEntity
  8
0
  6
Continuous
 62
     7
370
    25
100
AcDbEllipse
 10
259.2621684633
 20
121.2669724771
 30
0.0
 11
30.76849813806251
 21
-10.15920873831726
 31
0.0
210
0.0
220
0.0
230
1.0
 40
0.1370842335
 41
3.003989410696791
 42
3.369659684682706
  0
LINE
  5
AC
330
1F
100
AcDbEntity
  8
0
  6
Continuous
 62
     7
370
    25
100
AcDbLine
 10
234.9621647678
 20
130.2094703712
 30
0.0
 11
228.9755413018
 21
130.2094703712
 31
0.0
  0
LINE
  5
AD
330
1F
100
AcDbEntity
  8
0
  6
Continuous
 62
     7
370
    25
100
AcDbLine
 10
234.9621647678
 20
124.1764186122
 30
0.0
 11
234.9621647678
 21
130.2094703712
 31
0.0
  0
LINE
  5
AE
330
1F
100
AcDbEntity
  8
0
  6
Continuous
 62
     7
370
    25
100
AcDbLine
 10
234.9621647678
 20
124.1764186122
 30
0.0
 11
228.9755413018
 21
124.1764186122
 31
0.0
  0
ELLIPSE
  5
AF
330
1F
100
AcDbEntity
  8
0
  6
Continuous
 62
     7
370
    25
100
AcDbEllipse
 10
259.2621684633
 20
121.2669724771
 30
0.0
 11
30.79766392078585
 21
-1.067097697014958
 31
0.0
210
0.0
220
0.0
230
1.0
 40
0.3554853609
 41
2.971073984153759
 42
3.336744258139616
  0
LINE
  5
B0
330
1F
100
AcDbEntity
  8
0
  6
Continuous
 62
     7
370
    25
100
AcDbLine
 10
234.9621647678
 20
120.1908074724
 30
0.0
 11
228.9755413018
 21
120.1908074724
 31
0.0
  0
LINE
  5
B1
330
1F
100
AcDbEntity
  8
0
  6
Continuous
 62
     7
370
    25
100
AcDbLine
 10
234.9621647678
 20
113.5346751832
 30
0.0
 11
234.9621647678
 21
120.1908074724
 31
0.0
  0
LINE
  5
B2
330
1F
100
AcDbEntity
  8
0
  6
Continuous
 62
     7
370
    25
100
AcDbLine
 10
234.9621647678
 20
113.5346751832
 30
0.0
 11
228.9755413018
 21
113.5346751832
 31
0.0
  0
ELLIPSE
  5
B3
330
1F
100
AcDbEntity
  8
0
  6
Continuous
 62
     7
370
    25
100
AcDbEllipse
 10
259.2621684633
 20
121.2669724771
 30
0.0
 11
30.74990564117991
 21
9.369698322831837
 31
0.0
210
0.0
220
0.0
230
1.0
 40
0.1874055718
 41
2.901715754748515
 42
3.267386028734407
  0
LINE
  5
B4
330
1F
100
AcDbEntity
  8
0
  6
Continuous
 62
     7
370
    25
100
AcDbLine
 10
234.9621647678
 20
111.2483099275
 30
0.0
 11
228.9755413018
 21
111.2483099275
 31
0.0
  0
LINE
  5
B5
330
1F
100
AcDbEntity
  8
0
  6
Continuous
 62
     7
370
    25
100
AcDbLine
 10
234.9621647678
 20
110.2669725367
 30
0.0
 11
234.9621647678
 21
111.2483099275
 31
0.0
  0
LINE
  5
B6
330
1F
100
AcDbEntity
  8
0
  6
Continuous
 62
     7
370
    25
100
AcDbLine
 10
217.8621658765
 20
127.5544778616
 30
0.0
 11
217.8621658765
 21
132.2669724175
 31
0.0
  0
LINE
  5
B7
330
1F
100
AcDbEntity
  8
0
  6
Continuous
 62
     7
370
    25
100
AcDbLine
 10
217.8621658765
 20
110.2669725367
 30
0.0
 11
217.8621658765
 21
127.5544778616
 31
0.0
  0
LINE
  5
B8
330
1F
100
AcDbEntity
  8
0
  6
Continuous
 62
     7
370
    25
100
AcDbLine
 10
217.0621672354
 20
127.0972045311
 30
0.0
 11
217.0621672354
 21
131.4669728451
 31
0.0
  0
LINE
  5
B9
330
1F
100
AcDbEntity
  8
0
  6
Continuous
 62
     7
370
    25
100
AcDbLine
 10
217.0621672354
 20
111.066972109
 30
0.0
 11
217.0621672354
 21
127.0972045311
 31
0.0
  0
LINE
  5
BA
330
1F
100
AcDbEntity
  8
0
  6
Continuous
 62
     7
370
    25
100
AcDbLine
 10
235.4621657811
 20
120.1476824642
 30
0.0
 11
234.9621647678
 21
120.1908074724
 31
0.0
  0
SPLINE
  5
BB
330
1F
100
AcDbEntity
  8
0
  6
Continuous
 62
     7
370
    25
100
AcDbSpline
210
0.0
220
0.0
230
1.0
 70
     8
 71
     3
 72
     9
 73
     5
 74
     0
 42
0.000000001
 43
0.00000001
 40
0.0
 40
0.0
 40
0.0
 40
0.0
 40
0.6252457831536608
 40
1.0
 40
1.0
 40
1.0
 40
1.0
 10
235.4621657810937
 20
113.9522387818254
 30
0.0
 10
235.3579880921368
 20
113.8651878902951
 30
0.0
 10
235.191369313148
 20
113.7259612151608
 30
0.0
 10
235.0246452962112
 20
113.5868192292011
 30
0.0
 10
234.9621647678147
 20
113.5346751832224
 30
0.0
  0
LINE
  5
BC
330
1F
100
AcDbEntity
  8
0
  6
Continuous
 62
     7
370
    25
100
AcDbLine
 10
235.4621657811
 20
113.9522387818
 30
0.0
 11
235.4621657811
 21
120.1476824642
 31
0.0
  0
LINE
  5
BD
330
1F
100
AcDbEntity
  8
0
  6
Continuous
 62
     7
370
    25
100
AcDbLine
 10
228.9755413018
 20
124.1764186122
 30
0.0
 11
235.4621657811
 21
123.9800974433
 31
0.0
  0
LINE
  5
BE
330
1F
100
AcDbEntity
  8
0
  6
Continuous
 62
     7
370
    25
100
AcDbLine
 10
235.4621657811
 20
123.9800974433
 30
0.0
 11
235.4621657811
 21
120.1476824642
 31
0.0
  0
LINE
  5
BF
330
1F
100
AcDbEntity
  8
0
  6
Continuous
 62
     7
370
    25
100
AcDbLine
 10
235.4621657811
 20
129.7487814152
 30
0.0
 11
234.9621647678
 21
130.2094703712
 31
0.0
  0
LINE
  5
C0
330
1F
100
AcDbEntity
  8
0
  6
Continuous
 62
     7
370
    25
100
AcDbLine
 10
235.4621657811
 20
124.1332937204
 30
0.0
 11
234.9621647678
 21
124.1764186122
 31
0.0
  0
LINE
  5
C1
330
1F
100
AcDbEntity
  8
0
  6
Continuous
 62
     7
370
    25
100
AcDbLine
 10
235.4621657811
 20
124.1332937204
 30
0.0
 11
235.4621657811
 21
129.7487814152
 31
0.0
  0
LINE
  5
C2
330
1F
100
AcDbEntity
  8
0
  6
Continuous
 62
     7
370
    25
100
AcDbLine
 10
235.4621657811
 20
123.9800974433
 30
0.0
 11
235.4621657811
 21
124.1332937204
 31
0.0
  0
LINE
  5
C3
330
1F
100
AcDbEntity
  8
0
  6
Continuous
 62
     7
370
    25
100
AcDbLine
 10
228.9755413018
 20
111.2483099275
 30
0.0
 11
235.4621657811
 21
113.1492128768
 31
0.0
  0
LINE
  5
C4
330
1F
100
AcDbEntity
  8
0
  6
Continuous
 62
     7
370
    25
100
AcDbLine
 10
235.4621657811
 20
113.9522387818
 30
0.0
 11
235.4621657811
 21
113.1492128768
 31
0.0
  0
LINE
  5
C5
330
1F
100
AcDbEntity
  8
0
  6
Continuous
 62
     7
370
    25
100
AcDbLine
 10
228.9755413018
 20
131.9087159061
 30
0.0
 11
234.2312330089
 21
130.2094703712
 31
0.0
  0
LINE
  5
C6
330
1F
100
AcDbEntity
  8
0
  6
Continuous
 62
     7
370
    25
100
AcDbLine
 10
235.3573137604
 20
129.8453921624
 30
0.0
 11
235.4621657811
 21
129.8114910894
 31
0.0
  0
LINE
  5
C7
330
1F
100
AcDbEntity
  8
0
  6
Continuous
 62
     7
370
    25
100
AcDbLine
 10
235.4621657811
 20
129.8114910894
 30
0.0
 11
235.4621657811
 21
129.7487814152
 31
0.0
  0
SPLINE
  5
C8
330
1F
100
AcDbEntity
  8
0
  6
Continuous
 62
     7
370
    25
100
AcDbSpline
210
0.0
220
0.0
230
1.0
 70
     8
 71
     3
 72
     9
 73
     5
 74
     0
 42
0.000000001
 43
0.00000001
 40
0.0
 40
0.0
 40
0.0
 40
0.0
 40
0.6252460219573287
 40
1.0
 40
1.0
 40
1.0
 40
1.0
 10
235.4621657810937
 20
111.6658730604506
 30
0.0
 10
235.3579881253528
 20
111.5788221156763
 30
0.0
 10
235.1913694631264
 20
111.4395954085605
 30
0.0
 10
235.0246453081339
 20
111.3004537991476
 30
0.0
 10
234.9621647678147
 20
111.2483099275089
 30
0.0
  0
LINE
  5
C9
330
1F
100
AcDbEntity
  8
0
  6
Continuous
 62
     7
370
    25
100
AcDbLine
 10
235.4621657811
 20
113.1492128768
 30
0.0
 11
235.4621657811
 21
111.6658730605
 31
0.0
  0
LINE
  5
CA
330
1F
100
AcDbEntity
  8
0
  6
Continuous
 62
     7
370
    25
100
AcDbLine
 10
235.4621657811
 20
110.7669726186
 30
0.0
 11
235.4621657811
 21
111.6658730605
 31
0.0
  0
LINE
  5
CB
330
1F
100
AcDbEntity
  8
0
  6
Continuous
 62
     7
370
    25
100
AcDbLine
 10
235.4621657811
 20
131.44802695
 30
0.0
 11
234.9621647678
 21
131.9087159061
 31
0.0
  0
LINE
  5
CC
330
1F
100
AcDbEntity
  8
0
  6
Continuous
 62
     7
370
    25
100
AcDbLine
 10
235.4621657811
 20
129.8114910894
 30
0.0
 11
235.4621657811
 21
131.44802695
 31
0.0
  0
LINE
  5
CD
330
1F
100
AcDbEntity
  8
0
  6
Continuous
 62
     7
370
    25
100
AcDbLine
 10
235.4621657811
 20
131.44802695
 30
0.0
 11
235.4621657811
 21
131.7669723355
 31
0.0
  0
LINE
  5
CE
330
1F
100
AcDbEntity
  8
0
  6
Continuous
 62
     7
370
    25
100
AcDbLine
 10
122.0279707283
 20
96.2092468687
 30
0.0
 11
122.0279707283
 21
152.7419725605
 31
0.0
  0
SPLINE
  5
CF
330
1F
100
AcDbEntity
  8
0
  6
Continuous
 62
     7
370
    25
100
AcDbSpline
210
0.0
220
0.0
230
1.0
 70
     8
 71
     3
 72
    27
 73
    23
 74
     0
 42
0.000000001
 43
0.00000001
 40
0.0
 40
0.0
 40
0.0
 40
0.0
 40
0.1250000000000005
 40
0.1250000000000005
 40
0.2500000000000011
 40
0.2500000000000011
 40
0.3750000000000016
 40
0.3750000000000016
 40
0.4375000000000018
 40
0.4375000000000018
 40
0.500000000000002
 40
0.5625000000000022
 40
0.5625000000000022
 40
0.6250000000000026
 40
0.6250000000000026
 40
0.750000000000002
 40
0.750000000000002
 40
0.8125000000000016
 40
0.8125000000000016
 40
0.875000000000001
 40
0.875000000000001
 40
1.0
 40
1.0
 40
1.0
 40
1.0
 10
122.0279706587326
 20
92.24297356251599
 30
0.0
 10
121.7580137647653
 20
92.3428526503783
 30
0.0
 10
121.5143567405481
 20
92.45415791053732
 30
0.0
 10
121.0817716083429
 20
92.70364371621339
 30
0.0
 10
120.8931770411467
 20
92.84258623428063
 30
0.0
 10
120.5907372647859
 20
93.1392792694545
 30
0.0
 10
120.4741540174951
 20
93.2982978788188
 30
0.0
 10
120.3548953450703
 20
93.55532840271304
 30
0.0
 10
120.3246786780386
 20
93.64408121111813
 30
0.0
 10
120.284782081326
 20
93.82335696800874
 30
0.0
 10
120.2648206378779
 20
94.00552557125127
 30
0.0
 10
120.2842559394659
 20
94.19348829233965
 30
0.0
 10
120.3237088171492
 20
94.38435686930418
 30
0.0
 10
120.3537375005724
 20
94.48180604974971
 30
0.0
 10
120.4722124887046
 20
94.77214289654697
 30
0.0
 10
120.5885533038134
 20
94.9642291042229
 30
0.0
 10
120.8165897153109
 20
95.24903305380428
 30
0.0
 10
120.9021236347415
 20
95.34390404236763
 30
0.0
 10
121.0884371848771
 20
95.5292651102232
 30
0.0
 10
121.1890658734494
 20
95.61974336215562
 30
0.0
 10
121.5123273577853
 20
95.88442381766754
 30
0.0
 10
121.7566080435082
 20
96.05220740712195
 30
0.0
 10
122.0279706587326
 20
96.20924715542992
 30
0.0
  0
LINE
  5
D0
330
1F
100
AcDbEntity
  8
0
  6
Continuous
 62
     7
370
    25
100
AcDbLine
 10
122.0279707283
 20
89.7919723936
 30
0.0
 11
122.0279707283
 21
92.2429731288
 31
0.0
  0
LINE
  5
D1
330
1F
100
AcDbEntity
  8
0
  6
Continuous
 62
     7
370
    25
100
AcDbLine
 10
133.4621676884
 20
121.2669724771
 30
0.0
 11
133.4621676884
 21
151.7419723966
 31
0.0
  0
LINE
  5
D2
330
1F
100
AcDbEntity
  8
0
  6
Continuous
 62
     7
370
    25
100
AcDbLine
 10
133.4621676884
 20
90.7919725575
 30
0.0
 11
133.4621676884
 21
121.2669724771
 31
0.0
  0
SPLINE
  5
D3
330
1F
100
AcDbEntity
  8
0
  6
Continuous
 62
     7
370
    25
100
AcDbSpline
210
0.0
220
0.0
230
1.0
 70
     8
 71
     3
 72
    14
 73
    10
 74
     0
 42
0.000000001
 43
0.00000001
 40
0.0
 40
0.0
 40
0.0
 40
0.0
 40
0.2500000000000013
 40
0.2500000000000013
 40
0.5000000000000026
 40
0.5000000000000026
 40
0.7500000000000012
 40
0.7500000000000012
 40
1.0
 40
1.0
 40
1.0
 40
1.0
 10
132.4621684633027
 20
94.90435588619538
 30
0.0
 10
132.5572358200104
 20
94.7531987553392
 30
0.0
 10
132.6175409298417
 20
94.61174643590405
 30
0.0
 10
132.6978058780284
 20
94.32633822054693
 30
0.0
 10
132.716722582876
 20
94.18228340660943
 30
0.0
 10
132.7167295645249
 20
93.8924991261853
 30
0.0
 10
132.6980838387249
 20
93.74720641411041
 30
0.0
 10
132.6181251725322
 20
93.46126123907558
 30
0.0
 10
132.557030818075
 20
93.3186965725987
 30
0.0
 10
132.4621684633028
 20
93.19385255200777
 30
0.0
  0
SPLINE
  5
D4
330
1F
100
AcDbEntity
  8
0
  6
Continuous
 62
     7
370
    25
100
AcDbSpline
210
0.0
220
0.0
230
1.0
 70
     8
 71
     3
 72
    25
 73
    21
 74
     0
 42
0.000000001
 43
0.00000001
 40
0.0
 40
0.0
 40
0.0
 40
0.0
 40
0.1249999999999995
 40
0.1249999999999995
 40
0.2499999999999989
 40
0.2499999999999989
 40
0.3749999999999984
 40
0.3749999999999984
 40
0.4999999999999979
 40
0.4999999999999979
 40
0.562499999999998
 40
0.562499999999998
 40
0.624999999999998
 40
0.6874999999999981
 40
0.6874999999999981
 40
0.7499999999999981
 40
0.7499999999999981
 40
0.8749999999999991
 40
0.8749999999999991
 40
1.0
 40
1.0
 40
1.0
 40
1.0
 10
128.6963662678728
 20
149.9147098441226
 30
0.0
 10
128.9376137734282
 20
149.8424052340534
 30
0.0
 10
129.1535428076726
 20
149.7585119480977
 30
0.0
 10
129.5367007195152
 20
149.5658432250836
 30
0.0
 10
129.7041525050004
 20
149.4559563370678
 30
0.0
 10
129.9718371614043
 20
149.2194450528954
 30
0.0
 10
130.0755091291252
 20
149.0904819236047
 30
0.0
 10
130.2146405003793
 20
148.8165548436575
 30
0.0
 10
130.24937974037
 20
148.6744416925239
 30
0.0
 10
130.2498101735893
 20
148.4531880665224
 30
0.0
 10
130.2410753899998
 20
148.3776094861676
 30
0.0
 10
130.2062819868251
 20
148.2273097412914
 30
0.0
 10
130.154389125096
 20
148.077344438284
 30
0.0
 10
130.0690109128024
 20
147.9282432060641
 30
0.0
 10
129.9665351597378
 20
147.7797560803033
 30
0.0
 10
129.9064737880867
 20
147.7056675228665
 30
0.0
 10
129.7051639656355
 20
147.4905052213881
 30
0.0
 10
129.5419404455557
 20
147.354448507518
 30
0.0
 10
129.1565622453044
 20
147.0995904743658
 30
0.0
 10
128.9376127594786
 20
146.9832951939075
 30
0.0
 10
128.6963662678728
 20
146.8818586772317
 30
0.0
  0
LINE
  5
D5
330
1F
100
AcDbEntity
  8
0
  6
Continuous
 62
     7
370
    25
100
AcDbLine
 10
128.6963665567
 20
149.9147100546
 30
0.0
 11
128.6963665567
 21
152.7419725605
 31
0.0
  0
LINE
  5
D6
330
1F
100
AcDbEntity
  8
0
  6
Continuous
 62
     7
370
    25
100
AcDbLine
 10
128.6963665567
 20
89.7919723936
 30
0.0
 11
128.6963665567
 21
91.7302260347
 31
0.0
  0
SPLINE
  5
D7
330
1F
100
AcDbEntity
  8
0
  6
Continuous
 62
     7
370
    25
100
AcDbSpline
210
0.0
220
0.0
230
1.0
 70
     8
 71
     3
 72
    18
 73
    14
 74
     0
 42
0.000000001
 43
0.00000001
 40
0.0
 40
0.0
 40
0.0
 40
0.0
 40
0.25
 40
0.25
 40
0.3750000000000006
 40
0.3750000000000006
 40
0.5000000000000011
 40
0.5000000000000011
 40
0.7500000000000003
 40
0.7500000000000003
 40
0.8750000000000002
 40
0.8750000000000002
 40
1.0
 40
1.0
 40
1.0
 40
1.0
 10
132.4621684633027
 20
93.19385255200784
 30
0.0
 10
132.315580876756
 20
93.00093531189555
 30
0.0
 10
132.1120156268698
 20
92.82181574644011
 30
0.0
 10
131.7430160616192
 20
92.58493066657675
 30
0.0
 10
131.6090932955921
 20
92.51070391763446
 30
0.0
 10
131.3198696756631
 20
92.37087313945258
 30
0.0
 10
131.1635739820706
 20
92.30494692199777
 30
0.0
 10
130.6721016066583
 20
92.12278579943602
 30
0.0
 10
130.313864303771
 20
92.02110892505648
 30
0.0
 10
129.7327652200251
 20
91.8929229037325
 30
0.0
 10
129.5311229869833
 20
91.854251445243
 30
0.0
 10
129.1204604543398
 20
91.7859300953267
 30
0.0
 10
128.9106339371283
 20
91.75607421358598
 30
0.0
 10
128.6963662678728
 20
91.73022514409878
 30
0.0
  0
SPLINE
  5
D8
330
1F
100
AcDbEntity
  8
0
  6
Continuous
 62
     7
370
    25
100
AcDbSpline
210
0.0
220
0.0
230
1.0
 70
     8
 71
     3
 72
    18
 73
    14
 74
     0
 42
0.000000001
 43
0.00000001
 40
0.0
 40
0.0
 40
0.0
 40
0.0
 40
0.2500000000000004
 40
0.2500000000000004
 40
0.3750000000000007
 40
0.3750000000000007
 40
0.500000000000001
 40
0.500000000000001
 40
0.6250000000000013
 40
0.6250000000000013
 40
0.7500000000000016
 40
0.7500000000000016
 40
1.0
 40
1.0
 40
1.0
 40
1.0
 10
128.6963662678728
 20
97.08094854677219
 30
0.0
 10
129.1250668256944
 20
96.98515433939616
 30
0.0
 10
129.5336348726647
 20
96.86303489325107
 30
0.0
 10
130.1154993720352
 20
96.64206131504629
 30
0.0
 10
130.3053870834415
 20
96.56147402329579
 30
0.0
 10
130.6667140941
 20
96.39084604028778
 30
0.0
 10
130.8384283255234
 20
96.30083462317137
 30
0.0
 10
131.1640081758373
 20
96.11203825405617
 30
0.0
 10
131.3178760780153
 20
96.01325303946248
 30
0.0
 10
131.6070802664324
 20
95.80717856707773
 30
0.0
 10
131.743044930056
 20
95.69932727706951
 30
0.0
 10
132.1165688078481
 20
95.36669915751195
 30
0.0
 10
132.315186682164
 20
95.13805697029474
 30
0.0
 10
132.4621684633027
 20
94.90435588619538
 30
0.0
  0
LINE
  5
D9
330
1F
100
AcDbEntity
  8
0
  6
Continuous
 62
     7
370
    25
100
AcDbLine
 10
128.6963665567
 20
97.0809480347
 30
0.0
 11
128.6963665567
 21
146.8818580904
 31
0.0
  0
LINE
  5
DA
330
1F
100
AcDbEntity
  8
0
  6
Continuous
 62
     7
370
    25
100
AcDbLine
 10
123.4871683352
 20
147.3616754808
 30
0.0
 11
123.4871683352
 21
150.214567984
 31
0.0
  0
SPLINE
  5
DB
330
1F
100
AcDbEntity
  8
0
  6
Continuous
 62
     7
370
    25
100
AcDbSpline
210
0.0
220
0.0
230
1.0
 70
     8
 71
     3
 72
    26
 73
    22
 74
     0
 42
0.000000001
 43
0.00000001
 40
0.0
 40
0.0
 40
0.0
 40
0.0
 40
0.1250000000000009
 40
0.1250000000000009
 40
0.2500000000000019
 40
0.2500000000000019
 40
0.3125000000000011
 40
0.3125000000000011
 40
0.3750000000000004
 40
0.3750000000000004
 40
0.4375000000000002
 40
0.4375000000000002
 40
0.5000000000000001
 40
0.5000000000000001
 40
0.5625
 40
0.5625
 40
0.6249999999999999
 40
0.6249999999999999
 40
0.7500000000000001
 40
0.7500000000000001
 40
1.0
 40
1.0
 40
1.0
 40
1.0
 10
123.4871684633027
 20
145.1666179870977
 30
0.0
 10
123.3952635526199
 20
145.376541593792
 30
0.0
 10
123.3075667763949
 20
145.5853070106715
 30
0.0
 10
123.1433605056276
 20
145.9996416393647
 30
0.0
 10
123.0660900873609
 20
146.2073860250013
 30
0.0
 10
122.9663239810358
 20
146.5045846448181
 30
0.0
 10
122.9357110521335
 20
146.6013339967566
 30
0.0
 10
122.8808421782305
 20
146.7892334968665
 30
0.0
 10
122.8564569573016
 20
146.8810356445965
 30
0.0
 10
122.8167775808031
 20
147.052378072862
 30
0.0
 10
122.8013115015658
 20
147.1323706073947
 30
0.0
 10
122.7802151664834
 20
147.2795650166065
 30
0.0
 10
122.7747021003233
 20
147.3469468841795
 30
0.0
 10
122.774635142701
 20
147.4621158345796
 30
0.0
 10
122.7799034500505
 20
147.5107816772888
 30
0.0
 10
122.8007459772185
 20
147.5907848707396
 30
0.0
 10
122.8164200904288
 20
147.6218491141076
 30
0.0
 10
122.8757390206063
 20
147.6880037792109
 30
0.0
 10
122.9327588561203
 20
147.6976056464493
 30
0.0
 10
123.1315937447642
 20
147.6525903763424
 30
0.0
 10
123.3028639499963
 20
147.5286643010927
 30
0.0
 10
123.4871684633027
 20
147.3616763576201
 30
0.0
  0
LINE
  5
DC
330
1F
100
AcDbEntity
  8
0
  6
Continuous
 62
     7
370
    25
100
AcDbLine
 10
123.4871683352
 20
97.8134164759
 30
0.0
 11
123.4871683352
 21
145.1666170903
 31
0.0
  0
SPLINE
  5
DD
330
1F
100
AcDbEntity
  8
0
  6
Continuous
 62
     7
370
    25
100
AcDbSpline
210
0.0
220
0.0
230
1.0
 70
     8
 71
     3
 72
     8
 73
     4
 74
     0
 42
0.000000001
 43
0.00000001
 40
0.0
 40
0.0
 40
0.0
 40
0.0
 40
1.0
 40
1.0
 40
1.0
 40
1.0
 10
123.1196447971544
 20
97.01043951454822
 30
0.0
 10
123.237379301984
 20
97.27808319416432
 30
0.0
 10
123.3608454149424
 20
97.54704849649683
 30
0.0
 10
123.4871684633027
 20
97.81341562100734
 30
0.0
  0
SPLINE
  5
DE
330
1F
100
AcDbEntity
  8
0
  6
Continuous
 62
     7
370
    25
100
AcDbSpline
210
0.0
220
0.0
230
1.0
 70
     8
 71
     3
 72
     8
 73
     4
 74
     0
 42
0.000000001
 43
0.00000001
 40
0.0
 40
0.0
 40
0.0
 40
0.0
 40
1.0
 40
1.0
 40
1.0
 40
1.0
 10
122.0279706587326
 20
96.2092471554299
 30
0.0
 10
122.3978580394622
 20
96.48363897436194
 30
0.0
 10
122.7631915322237
 20
96.75406528245843
 30
0.0
 10
123.1196447971547
 20
97.01043951454884
 30
0.0
  0
LINE
  5
DF
330
1F
100
AcDbEntity
  8
0
  6
Continuous
 62
     7
370
    25
100
AcDbLine
 10
115.4621684633
 20
121.2669724771
 30
0.0
 11
115.4621684633
 21
152.5419729003
 31
0.0
  0
LINE
  5
E0
330
1F
100
AcDbEntity
  8
0
  6
Continuous
 62
     7
370
    25
100
AcDbLine
 10
115.4621684633
 20
89.9919720539
 30
0.0
 11
115.4621684633
 21
121.2669724771
 31
0.0
  0
SPLINE
  5
E1
330
1F
100
AcDbEntity
  8
0
  6
Continuous
 62
     7
370
    25
100
AcDbSpline
210
0.0
220
0.0
230
1.0
 70
     8
 71
     3
 72
    10
 73
     6
 74
     0
 42
0.000000001
 43
0.00000001
 40
0.0
 40
0.0
 40
0.0
 40
0.0
 40
0.5
 40
0.5
 40
1.0
 40
1.0
 40
1.0
 40
1.0
 10
128.6963662678727
 20
146.8818586772315
 30
0.0
 10
128.4616353239036
 20
146.4294192895294
 30
0.0
 10
128.2222520161868
 20
145.98989211617
 30
0.0
 10
127.735630664876
 20
145.1308000206282
 30
0.0
 10
127.4883613531742
 20
144.711342967405
 30
0.0
 10
127.2371684633027
 20
144.3011669108676
 30
0.0
  0
SPLINE
  5
E2
330
1F
100
AcDbEntity
  8
0
  6
Continuous
 62
     7
370
    25
100
AcDbSpline
210
0.0
220
0.0
230
1.0
 70
     8
 71
     3
 72
     8
 73
     4
 74
     0
 42
0.000000001
 43
0.00000001
 40
0.0
 40
0.0
 40
0.0
 40
0.0
 40
1.0
 40
1.0
 40
1.0
 40
1.0
 10
127.7028795883552
 20
97.7742583952248
 30
0.0
 10
128.0291384245675
 20
97.5504346658951
 30
0.0
 10
128.3609768336104
 20
97.3178688185917
 30
0.0
 10
128.6963662678728
 20
97.08094854677219
 30
0.0
  0
SPLINE
  5
E3
330
1F
100
AcDbEntity
  8
0
  6
Continuous
 62
     7
370
    25
100
AcDbSpline
210
0.0
220
0.0
230
1.0
 70
     8
 71
     3
 72
     8
 73
     4
 74
     0
 42
0.000000001
 43
0.00000001
 40
0.0
 40
0.0
 40
0.0
 40
0.0
 40
1.0
 40
1.0
 40
1.0
 40
1.0
 10
127.2371684633027
 20
98.54723757389917
 30
0.0
 10
127.3936508268038
 20
98.29301731622367
 30
0.0
 10
127.5488771152813
 20
98.03538352987626
 30
0.0
 10
127.7028795883552
 20
97.7742583952248
 30
0.0
  0
LINE
  5
E4
330
1F
100
AcDbEntity
  8
0
  6
Continuous
 62
     7
370
    25
100
AcDbLine
 10
127.2371684842
 20
98.5472371974
 30
0.0
 11
127.2371684842
 21
144.3011669614
 31
0.0
  0
SPLINE
  5
E5
330
1F
100
AcDbEntity
  8
0
  6
Continuous
 62
     7
370
    25
100
AcDbSpline
210
0.0
220
0.0
230
1.0
 70
     8
 71
     3
 72
    14
 73
    10
 74
     0
 42
0.000000001
 43
0.00000001
 40
0.0
 40
0.0
 40
0.0
 40
0.0
 40
0.25
 40
0.25
 40
0.5
 40
0.5
 40
0.75
 40
0.75
 40
1.0
 40
1.0
 40
1.0
 40
1.0
 10
124.4871684633027
 20
143.6611654244724
 30
0.0
 10
124.3528177147616
 20
143.7129824045501
 30
0.0
 10
124.2296388119681
 20
143.7899296405835
 30
0.0
 10
124.0008883910788
 20
143.9824144739925
 30
0.0
 10
123.8989652990856
 20
144.0952414627725
 30
0.0
 10
123.7195402347404
 20
144.3480814073451
 30
0.0
 10
123.6430989858359
 20
144.4860971318268
 30
0.0
 10
123.5258110113742
 20
144.7843328385569
 30
0.0
 10
123.4871684633027
 20
144.9424208076073
 30
0.0
 10
123.4871684633027
 20
145.0818531323323
 30
0.0
  0
SPLINE
  5
E6
330
1F
100
AcDbEntity
  8
0
  6
Continuous
 62
     7
370
    25
100
AcDbSpline
210
0.0
220
0.0
230
1.0
 70
     8
 71
     3
 72
    14
 73
    10
 74
     0
 42
0.000000001
 43
0.00000001
 40
0.0
 40
0.0
 40
0.0
 40
0.0
 40
0.25
 40
0.25
 40
0.5
 40
0.5
 40
0.75
 40
0.75
 40
1.0
 40
1.0
 40
1.0
 40
1.0
 10
123.4871684633027
 20
97.8983847477592
 30
0.0
 10
123.4871684633027
 20
98.02912456913019
 30
0.0
 10
123.522589540235
 20
98.17782228284422
 30
0.0
 10
123.6351152114251
 20
98.45475209839076
 30
0.0
 10
123.7127953976995
 20
98.58806266547968
 30
0.0
 10
123.8928606294218
 20
98.82540266124158
 30
0.0
 10
123.9981406820771
 20
98.93308626123162
 30
0.0
 10
124.2271242164396
 20
99.10965820521218
 30
0.0
 10
124.3537374084385
 20
99.18096135768306
 30
0.0
 10
124.4871684633025
 20
99.22573365147998
 30
0.0
  0
SPLINE
  5
E7
330
1F
100
AcDbEntity
  8
0
  6
Continuous
 62
     7
370
    25
100
AcDbSpline
210
0.0
220
0.0
230
1.0
 70
     8
 71
     3
 72
    14
 73
    10
 74
     0
 42
0.000000001
 43
0.00000001
 40
0.0
 40
0.0
 40
0.0
 40
0.0
 40
0.25
 40
0.25
 40
0.5
 40
0.5
 40
0.75
 40
0.75
 40
1.0
 40
1.0
 40
1.0
 40
1.0
 10
127.2371684633029
 20
144.2159583461147
 30
0.0
 10
127.2371684633029
 20
144.1017862685619
 30
0.0
 10
127.2112390250369
 20
143.984698263887
 30
0.0
 10
127.1117967677605
 20
143.7635432518689
 30
0.0
 10
127.0395143820397
 20
143.6609689113698
 30
0.0
 10
126.8547770452751
 20
143.4849355058819
 30
0.0
 10
126.7452304089531
 20
143.4145296989015
 30
0.0
 10
126.5018691639499
 20
143.3209638380624
 30
0.0
 10
126.3703580565041
 20
143.299043518093
 30
0.0
 10
126.2371684633027
 20
143.3051060872302
 30
0.0
  0
SPLINE
  5
E8
330
1F
100
AcDbEntity
  8
0
  6
Continuous
 62
     7
370
    25
100
AcDbSpline
210
0.0
220
0.0
230
1.0
 70
     8
 71
     3
 72
    14
 73
    10
 74
     0
 42
0.000000001
 43
0.00000001
 40
0.0
 40
0.0
 40
0.0
 40
0.0
 40
0.25
 40
0.25
 40
0.5
 40
0.5
 40
0.75
 40
0.75
 40
1.0
 40
1.0
 40
1.0
 40
1.0
 10
126.2371684633027
 20
99.54208060618485
 30
0.0
 10
126.3705967705358
 20
99.54757366935519
 30
0.0
 10
126.5023714423314
 20
99.52532165029035
 30
0.0
 10
126.7455673291928
 20
99.43188339058399
 30
0.0
 10
126.8564881909056
 20
99.36058792540328
 30
0.0
 10
127.0391345397715
 20
99.18708052849102
 30
0.0
 10
127.1124502791116
 20
99.0835221662448
 30
0.0
 10
127.2110883899469
 20
98.86428405347084
 30
0.0
 10
127.2371684633027
 20
98.7472785777625
 30
0.0
 10
127.2371684633027
 20
98.63265364319672
 30
0.0
  0
SPLINE
  5
E9
330
1F
100
AcDbEntity
  8
0
  6
Continuous
 62
     7
370
    25
100
AcDbSpline
210
0.0
220
0.0
230
1.0
 70
     8
 71
     3
 72
    10
 73
     6
 74
     0
 42
0.000000001
 43
0.00000001
 40
0.0
 40
0.0
 40
0.0
 40
0.0
 40
0.5
 40
0.5
 40
1.0
 40
1.0
 40
1.0
 40
1.0
 10
126.2371684633027
 20
143.3051060872305
 30
0.0
 10
125.9247045610146
 20
143.319328925254
 30
0.0
 10
125.6218155790168
 20
143.3571481280455
 30
0.0
 10
125.0344723942127
 20
143.4770365540345
 30
0.0
 10
124.7500047336408
 20
143.5597935904355
 30
0.0
 10
124.4871684633027
 20
143.6611654244724
 30
0.0
  0
SPLINE
  5
EA
330
1F
100
AcDbEntity
  8
0
  6
Continuous
 62
     7
370
    25
100
AcDbSpline
210
0.0
220
0.0
230
1.0
 70
     8
 71
     3
 72
    10
 73
     6
 74
     0
 42
0.000000001
 43
0.00000001
 40
0.0
 40
0.0
 40
0.0
 40
0.0
 40
0.5
 40
0.5
 40
1.0
 40
1.0
 40
1.0
 40
1.0
 10
124.4871684633027
 20
99.2257336514793
 30
0.0
 10
124.757687183418
 20
99.3165052010778
 30
0.0
 10
125.0392623480672
 20
99.38868222656997
 30
0.0
 10
125.6238559190865
 20
99.49517113862339
 30
0.0
 10
125.929204453507
 20
99.5294021439074
 30
0.0
 10
126.2371684633027
 20
99.54208060618485
 30
0.0
  0
LINE
  5
EB
330
1F
100
AcDbEntity
  8
0
  6
Continuous
 62
     7
370
    25
100
AcDbLine
 10
114.3019864045
 20
121.2669724771
 30
0.0
 11
114.3019864045
 21
146.208711172
 31
0.0
  0
LINE
  5
EC
330
1F
100
AcDbEntity
  8
0
  6
Continuous
 62
     7
370
    25
100
AcDbLine
 10
114.3019864045
 20
96.3252337822
 30
0.0
 11
114.3019864045
 21
121.2669724771
 31
0.0
  0
LINE
  5
ED
330
1F
100
AcDbEntity
  8
0
  6
Continuous
 62
     7
370
    25
100
AcDbLine
 10
77.0121695183
 20
110.3621769869
 30
0.0
 11
77.0121695183
 21
98.1978515335
 31
0.0
  0
SPLINE
  5
EE
330
1F
100
AcDbEntity
  8
0
  6
Continuous
 62
     7
370
    25
100
AcDbSpline
210
0.0
220
0.0
230
1.0
 70
     8
 71
     3
 72
     8
 73
     4
 74
     0
 42
0.000000001
 43
0.00000001
 40
0.0
 40
0.0
 40
0.0
 40
0.0
 40
1.0
 40
1.0
 40
1.0
 40
1.0
 10
81.3044165584136
 20
110.3660814431915
 30
0.0
 10
79.87366719337999
 20
110.3643435679115
 30
0.0
 10
78.44291782834635
 20
110.3629814927458
 30
0.0
 10
77.01216846331272
 20
110.3619943366229
 30
0.0
  0
SPLINE
  5
EF
330
1F
100
AcDbEntity
  8
0
  6
Continuous
 62
     7
370
    25
100
AcDbSpline
210
0.0
220
0.0
230
1.0
 70
     8
 71
     3
 72
    23
 73
    19
 74
     0
 42
0.000000001
 43
0.00000001
 40
0.0
 40
0.0
 40
0.0
 40
0.0
 40
0.0521036415657496
 40
0.1035646240894647
 40
0.1544751946695722
 40
0.2049306267426104
 40
0.2550287880794624
 40
0.3048696389093463
 40
0.3545546704567462
 40
0.4041862979491372
 40
0.4538672252107995
 40
0.5036997999421131
 40
0.5901870230736833
 40
0.6742716378214739
 40
0.7565997087206143
 40
0.8378563983706104
 40
0.9187511781357851
 40
1.0
 40
1.0
 40
1.0
 40
1.0
 10
84.89815237780304
 20
112.2861510515644
 30
0.0
 10
84.85666085808865
 20
112.2278152652429
 30
0.0
 10
84.77418958519881
 20
112.1118632204377
 30
0.0
 10
84.64133082776941
 20
111.9460646184174
 30
0.0
 10
84.50279925500031
 20
111.7877006563849
 30
0.0
 10
84.35789971136481
 20
111.6371910227825
 30
0.0
 10
84.20681605119249
 20
111.4943517142676
 30
0.0
 10
84.04950087302804
 20
111.3591584967038
 30
0.0
 10
83.88596771481923
 20
111.2315458537732
 30
0.0
 10
83.7162177778291
 20
111.1114587696323
 30
0.0
 10
83.54024374768748
 20
110.9988453761754
 30
0.0
 10
83.31376304974725
 20
110.8680354125251
 30
0.0
 10
83.03458253923861
 20
110.728913256851
 30
0.0
 10
82.69948334311911
 20
110.5953942635222
 30
0.0
 10
82.3587188472151
 20
110.4919461673266
 30
0.0
 10
82.01232080145869
 20
110.419049543223
 30
0.0
 10
81.66043082293342
 20
110.3738547494567
 30
0.0
 10
81.42326060106662
 20
110.368676314334
 30
0.0
 10
81.3044165584136
 20
110.3660814431915
 30
0.0
  0
SPLINE
  5
F0
330
1F
100
AcDbEntity
  8
0
  6
Continuous
 62
     7
370
    25
100
AcDbSpline
210
0.0
220
0.0
230
1.0
 70
     8
 71
     3
 72
     8
 73
     4
 74
     0
 42
0.000000001
 43
0.00000001
 40
0.0
 40
0.0
 40
0.0
 40
0.0
 40
1.0
 40
1.0
 40
1.0
 40
1.0
 10
89.30712418594132
 20
112.2905717663841
 30
0.0
 10
87.83694952516554
 20
112.289111145949
 30
0.0
 10
86.36677486438974
 20
112.28795009429
 30
0.0
 10
84.89660020361394
 20
112.2870881643905
 30
0.0
  0
SPLINE
  5
F1
330
1F
100
AcDbEntity
  8
0
  6
Continuous
 62
     7
370
    25
100
AcDbSpline
210
0.0
220
0.0
230
1.0
 70
     8
 71
     3
 72
    18
 73
    14
 74
     0
 42
0.000000001
 43
0.00000001
 40
0.0
 40
0.0
 40
0.0
 40
0.0
 40
0.0923824559397063
 40
0.1844689291547905
 40
0.2764953615917009
 40
0.3686975365456862
 40
0.4613092839965496
 40
0.5545607518407292
 40
0.6486768051507776
 40
0.7438756050126394
 40
0.8403674044294275
 40
0.9203921078117997
 40
1.0
 40
1.0
 40
1.0
 40
1.0
 10
91.5023530308118
 20
111.7569377526203
 30
0.0
 10
91.43202272729893
 20
111.7573543770508
 30
0.0
 10
91.29158745044703
 20
111.7581862910951
 30
0.0
 10
91.08122492396527
 20
111.7717951380274
 30
0.0
 10
90.87178126098341
 20
111.7944618953318
 30
0.0
 10
90.6632315908652
 20
111.827062685385
 30
0.0
 10
90.4555879726382
 20
111.8693651630567
 30
0.0
 10
90.24884978868758
 20
111.9214365652897
 30
0.0
 10
90.04302768313163
 20
111.9832853245921
 30
0.0
 10
89.83809605594476
 20
112.0548833874815
 30
0.0
 10
89.64680638907693
 20
112.1313852025436
 30
0.0
 10
89.46945379148755
 20
112.2098216293318
 30
0.0
 10
89.36147344795708
 20
112.2635315830305
 30
0.0
 10
89.30762424807726
 20
112.290316439771
 30
0.0
  0
LINE
  5
F2
330
1F
100
AcDbEntity
  8
0
  6
Continuous
 62
     7
370
    25
100
AcDbLine
 10
93.4172266804
 20
111.7584334859
 30
0.0
 11
91.5023529611
 21
111.7569377818
 31
0.0
  0
SPLINE
  5
F3
330
1F
100
AcDbEntity
  8
0
  6
Continuous
 62
     7
370
    25
100
AcDbSpline
210
0.0
220
0.0
230
1.0
 70
     8
 71
     3
 72
    25
 73
    21
 74
     0
 42
0.000000001
 43
0.00000001
 40
0.0
 40
0.0
 40
0.0
 40
0.0
 40
0.0280105225420187
 40
0.0559601148849777
 40
0.0839014045028994
 40
0.1118870776770715
 40
0.1399695827573283
 40
0.1682008401725729
 40
0.1966319670413114
 40
0.2253130233134836
 40
0.2542927850735084
 40
0.3799486436547419
 40
0.5057850221666126
 40
0.6313085886313086
 40
0.7532068238012242
 40
0.8039473267953926
 40
0.8535894438551538
 40
0.9025339722391175
 40
0.9511970353789154
 40
1.0
 40
1.0
 40
1.0
 40
1.0
 10
98.35711061650412
 20
116.8922969919957
 30
0.0
 10
98.35714783823792
 20
116.8176769649838
 30
0.0
 10
98.35722220073853
 20
116.6685992289996
 30
0.0
 10
98.34480615009194
 20
116.4459811380369
 30
0.0
 10
98.32320158973812
 20
116.2246567200105
 30
0.0
 10
98.29151612007809
 20
116.0046884541231
 30
0.0
 10
98.24998998175816
 20
115.786098166894
 30
0.0
 10
98.19855922602821
 20
115.5689162284885
 30
0.0
 10
98.13724535131705
 20
115.3531748086012
 30
0.0
 10
98.06603501581752
 20
115.1388849171476
 30
0.0
 10
97.89519840861944
 20
114.690535144129
 30
0.0
 10
97.55746617518206
 20
114.0372043160567
 30
0.0
 10
96.945911510988
 20
113.2653111054197
 30
0.0
 10
96.20967667583608
 20
112.621151480027
 30
0.0
 10
95.5231906041875
 20
112.2295103119671
 30
0.0
 10
94.97448645803522
 20
112.0108154109967
 30
0.0
 10
94.59245027953101
 20
111.8949593621661
 30
0.0
 10
94.20528418082652
 20
111.8140514566362
 30
0.0
 10
93.81305751203925
 20
111.7648230258382
 30
0.0
 10
93.54929624392331
 20
111.7605651708229
 30
0.0
 10
93.41722631010127
 20
111.7584331874801
 30
0.0
  0
LINE
  5
F4
330
1F
100
AcDbEntity
  8
0
  6
Continuous
 62
     7
370
    25
100
AcDbLine
 10
98.3571106277
 20
125.6416479298
 30
0.0
 11
98.3571106277
 21
116.8922970244
 31
0.0
  0
SPLINE
  5
F5
330
1F
100
AcDbEntity
  8
0
  6
Continuous
 62
     7
370
    25
100
AcDbSpline
210
0.0
220
0.0
230
1.0
 70
     8
 71
     3
 72
    26
 73
    22
 74
     0
 42
0.000000001
 43
0.00000001
 40
0.0
 40
0.0
 40
0.0
 40
0.0
 40
0.0241259796962594
 40
0.0482159912271135
 40
0.0723203915121642
 40
0.0964895678708031
 40
0.1207736231960634
 40
0.1452220711240066
 40
0.1698835501655269
 40
0.1948055644470485
 40
0.2200342569516493
 40
0.2456142191611198
 40
0.3690971486898425
 40
0.494069876948511
 40
0.6192566784753775
 40
0.7454656653602862
 40
0.7971495824708209
 40
0.8481710308397283
 40
0.8988013269227126
 40
0.9493179290486775
 40
1.0
 40
1.0
 40
1.0
 40
1.0
 10
93.41722631010127
 20
130.7755117666483
 30
0.0
 10
93.48247536865051
 20
130.7749379802695
 30
0.0
 10
93.61287620932913
 20
130.7737912629399
 30
0.0
 10
93.80785602762475
 20
130.7616738864471
 30
0.0
 10
94.00198516488796
 20
130.7419153649854
 30
0.0
 10
94.19524650498184
 20
130.7137531827646
 30
0.0
 10
94.38764168345604
 20
130.6773620867162
 30
0.0
 10
94.57916726195711
 20
130.6326610012389
 30
0.0
 10
94.7698227943428
 20
130.5796325298547
 30
0.0
 10
94.95960279344168
 20
130.5182415084282
 30
0.0
 10
95.14852141409813
 20
130.4484393019484
 30
0.0
 10
95.57526582726888
 20
130.2709102317339
 30
0.0
 10
96.20973815444997
 20
129.9163496288362
 30
0.0
 10
96.94941400679426
 20
129.2741778151474
 30
0.0
 10
97.55616124962894
 20
128.5010125113651
 30
0.0
 10
97.91695306584774
 20
127.7935971031072
 30
0.0
 10
98.11912712161464
 20
127.2290897038824
 30
0.0
 10
98.22595057759969
 20
126.8402028423359
 30
0.0
 10
98.30156129389792
 20
126.4457200884676
 30
0.0
 10
98.34872396658912
 20
126.0459139982752
 30
0.0
 10
98.3543120208773
 20
125.7765501188086
 30
0.0
 10
98.35711061650412
 20
125.6416479621328
 30
0.0
  0
LINE
  5
F6
330
1F
100
AcDbEntity
  8
0
  6
Continuous
 62
     7
370
    25
100
AcDbLine
 10
91.5023529611
 20
130.7770071723
 30
0.0
 11
93.4172266804
 21
130.7755114683
 31
0.0
  0
SPLINE
  5
F7
330
1F
100
AcDbEntity
  8
0
  6
Continuous
 62
     7
370
    25
100
AcDbSpline
210
0.0
220
0.0
230
1.0
 70
     8
 71
     3
 72
    14
 73
    10
 74
     0
 42
0.000000001
 43
0.00000001
 40
0.0
 40
0.0
 40
0.0
 40
0.0
 40
0.0789261963139331
 40
0.1582328720497685
 40
0.330847539445164
 40
0.5000195457459038
 40
0.6670357883429843
 40
0.833239519356477
 40
1.0
 40
1.0
 40
1.0
 40
1.0
 10
89.30614080474784
 20
130.2429602468966
 30
0.0
 10
89.35953632778836
 20
130.2695664961711
 30
0.0
 10
89.46658477760465
 20
130.3229072554347
 30
0.0
 10
89.6956554921568
 20
130.4245367340755
 30
0.0
 10
89.99452823034326
 20
130.5386163664521
 30
0.0
 10
90.36667130513472
 20
130.6472227999085
 30
0.0
 10
90.7423011041666
 20
130.7235570853545
 30
0.0
 10
91.1214934162067
 20
130.770374542708
 30
0.0
 10
91.37525838576462
 20
130.7747938520649
 30
0.0
 10
91.5023530308118
 20
130.7770072015081
 30
0.0
  0
SPLINE
  5
F8
330
1F
100
AcDbEntity
  8
0
  6
Continuous
 62
     7
370
    25
100
AcDbSpline
210
0.0
220
0.0
230
1.0
 70
     8
 71
     3
 72
     8
 73
     4
 74
     0
 42
0.000000001
 43
0.00000001
 40
0.0
 40
0.0
 40
0.0
 40
0.0
 40
1.0
 40
1.0
 40
1.0
 40
1.0
 10
83.91384708109506
 20
130.2470824037997
 30
0.0
 10
85.71118376647263
 20
130.2461082973758
 30
0.0
 10
87.5085204518502
 20
130.244686161626
 30
0.0
 10
89.30585713722778
 20
130.2428151751574
 30
0.0
  0
SPLINE
  5
F9
330
1F
100
AcDbEntity
  8
0
  6
Continuous
 62
     7
370
    25
100
AcDbSpline
210
0.0
220
0.0
230
1.0
 70
     8
 71
     3
 72
    13
 73
     9
 74
     0
 42
0.000000001
 43
0.00000001
 40
0.0
 40
0.0
 40
0.0
 40
0.0
 40
0.1667030582307787
 40
0.3329480818052815
 40
0.4990671507274536
 40
0.6653938523718171
 40
0.8322612710549965
 40
1.0
 40
1.0
 40
1.0
 40
1.0
 10
82.83034291624966
 20
130.3845094533675
 30
0.0
 10
82.89144995900097
 20
130.383675233836
 30
0.0
 10
83.01349614630415
 20
130.3820090868812
 30
0.0
 10
83.19583109156787
 20
130.3699801292284
 30
0.0
 10
83.37713530444155
 20
130.350990664644
 30
0.0
 10
83.5573341644782
 20
130.3241714504247
 30
0.0
 10
83.73663814261654
 20
130.2903356431775
 30
0.0
 10
83.85467016818795
 20
130.2615101728986
 30
0.0
 10
83.91383985793959
 20
130.2470599071755
 30
0.0
  0
SPLINE
  5
FA
330
1F
100
AcDbEntity
  8
0
  6
Continuous
 62
     7
370
    25
100
AcDbSpline
210
0.0
220
0.0
230
1.0
 70
     8
 71
     3
 72
     8
 73
     4
 74
     0
 42
0.000000001
 43
0.00000001
 40
0.0
 40
0.0
 40
0.0
 40
0.0
 40
1.0
 40
1.0
 40
1.0
 40
1.0
 10
77.01216846331545
 20
130.3892991882176
 30
0.0
 10
78.95155994762686
 20
130.3882517357419
 30
0.0
 10
80.89095143193825
 20
130.3866555492171
 30
0.0
 10
82.83034291624966
 20
130.3845094533675
 30
0.0
  0
LINE
  5
FB
330
1F
100
AcDbEntity
  8
0
  6
Continuous
 62
     7
370
    25
100
AcDbLine
 10
77.0121695183
 20
130.3892994472
 30
0.0
 11
77.0121695183
 21
144.3360934206
 31
0.0
  0
SPLINE
  5
FC
330
1F
100
AcDbEntity
  8
0
  6
Continuous
 62
     7
370
    25
100
AcDbSpline
210
0.0
220
0.0
230
1.0
 70
     8
 71
     3
 72
    24
 73
    20
 74
     0
 42
0.000000001
 43
0.00000001
 40
0.0
 40
0.0
 40
0.0
 40
0.0
 40
0.0607845451296407
 40
0.1248046360965166
 40
0.1880736642923821
 40
0.2506536944642078
 40
0.3129374270624571
 40
0.3747588850641116
 40
0.4371053349657547
 40
0.4977639019418345
 40
0.5591913128303959
 40
0.6209011577381788
 40
0.6826271159280655
 40
0.7453344255371981
 40
0.8078840402472991
 40
0.8712333803613398
 40
0.9348869687710366
 40
0.9979954054018167
 40
1.0
 40
1.0
 40
1.0
 40
1.0
 10
100.9758080996404
 20
145.5378031530238
 30
0.0
 10
100.9500962861014
 20
145.5274000629433
 30
0.0
 10
100.8973040257452
 20
145.50604012895
 30
0.0
 10
100.4240732764915
 20
145.3236334554616
 30
0.0
 10
99.70526813477288
 20
145.054687402933
 30
0.0
 10
98.72808739049178
 20
144.7265912478658
 30
0.0
 10
97.54412502942921
 20
144.38272081412
 30
0.0
 10
96.17582274153021
 20
144.0650600218471
 30
0.0
 10
94.68811147566038
 20
143.8105515734474
 30
0.0
 10
93.11845189534546
 20
143.6593371924692
 30
0.0
 10
91.54220940036683
 20
143.6257955458442
 30
0.0
 10
90.0228952440375
 20
143.7113677415081
 30
0.0
 10
88.62202102873802
 20
143.8855755601785
 30
0.0
 10
87.40334123432896
 20
144.115201224849
 30
0.0
 10
86.39776840542817
 20
144.3534187272415
 30
0.0
 10
85.64458706898905
 20
144.5650394868703
 30
0.0
 10
85.19764350793754
 20
144.6974592446021
 30
0.0
 10
85.01396671999319
 20
144.7551267308451
 30
0.0
 10
85.0655042672578
 20
144.739378975811
 30
0.0
 10
85.06709092183216
 20
144.738894159422
 30
0.0
  0
SPLINE
  5
FD
330
1F
100
AcDbEntity
  8
0
  6
Continuous
 62
     7
370
    25
100
AcDbSpline
210
0.0
220
0.0
230
1.0
 70
     8
 71
     3
 72
    24
 73
    20
 74
     0
 42
0.000000001
 43
0.00000001
 40
0.0
 40
0.0
 40
0.0
 40
0.0
 40
0.0018911184661179
 40
0.0649665885217893
 40
0.1287875560009952
 40
0.1921372900365662
 40
0.2545996475903032
 40
0.3167128323446347
 40
0.3787563804671794
 40
0.440851011115251
 40
0.501718739255822
 40
0.5623721854420992
 40
0.6248484186975057
 40
0.6868048398220544
 40
0.7491642775858319
 40
0.8116886268192671
 40
0.8748496752066125
 40
0.9387002417378669
 40
1.0
 40
1.0
 40
1.0
 40
1.0
 10
85.06709650976761
 20
97.79495579980382
 30
0.0
 10
85.06558982789932
 20
97.79449798196457
 30
0.0
 10
85.01382999226547
 20
97.77877032464842
 30
0.0
 10
85.1974407068791
 20
97.83634653975359
 30
0.0
 10
85.6453144319118
 20
97.968602942777
 30
0.0
 10
86.39833997942577
 20
98.18021135249957
 30
0.0
 10
87.39828547970635
 20
98.41792835753522
 30
0.0
 10
88.61684469350605
 20
98.64596883121698
 30
0.0
 10
90.02035500071487
 20
98.81815337944562
 30
0.0
 10
91.53760288492755
 20
98.90627683673809
 30
0.0
 10
93.11185229325807
 20
98.8752154432893
 30
0.0
 10
94.67768578528087
 20
98.72419435176141
 30
0.0
 10
96.16753820270691
 20
98.46985826172192
 30
0.0
 10
97.53922588303473
 20
98.15211860261208
 30
0.0
 10
98.72512307648115
 20
97.80821233192002
 30
0.0
 10
99.70281683292198
 20
97.48033366680963
 30
0.0
 10
100.4219702527023
 20
97.21154924671696
 30
0.0
 10
100.8959095132566
 20
97.02844718168856
 30
0.0
 10
100.9501684791166
 20
97.00646037652515
 30
0.0
 10
100.9767450101505
 20
96.99569104097851
 30
0.0
  0
LINE
  5
FE
330
1F
100
AcDbEntity
  8
0
  6
Continuous
 62
     7
370
    25
100
AcDbLine
 10
98.3571106277
 20
116.8922970244
 30
0.0
 11
97.4621692382
 21
117.0544724152
 31
0.0
  0
LINE
  5
FF
330
1F
100
AcDbEntity
  8
0
  6
Continuous
 62
     7
370
    25
100
AcDbLine
 10
97.4621692382
 20
117.0544724152
 30
0.0
 11
97.4621692382
 21
125.4794725389
 31
0.0
  0
LINE
  5
100
330
1F
100
AcDbEntity
  8
0
  6
Continuous
 62
     7
370
    25
100
AcDbLine
 10
98.3571106277
 20
125.6416479298
 30
0.0
 11
97.4621692382
 21
125.4794725389
 31
0.0
  0
SPLINE
  5
101
330
1F
100
AcDbEntity
  8
0
  6
Continuous
 62
     7
370
    25
100
AcDbSpline
210
0.0
220
0.0
230
1.0
 70
     8
 71
     3
 72
    25
 73
    21
 74
     0
 42
0.000000001
 43
0.00000001
 40
0.0
 40
0.0
 40
0.0
 40
0.0
 40
0.0288821753087376
 40
0.0583636593974201
 40
0.0884647204266117
 40
0.1192044006574769
 40
0.1506005800046333
 40
0.1826700399638367
 40
0.2154285269557742
 40
0.2488908143379501
 40
0.3610594471155513
 40
0.4984670131067528
 40
0.5822693905007419
 40
0.6661127642783199
 40
0.7499972937224436
 40
0.8007709755049096
 40
0.8511237700832984
 40
0.9010896024531808
 40
0.9507031914125801
 40
0.9999999999999999
 40
0.9999999999999999
 40
0.9999999999999999
 40
0.9999999999999999
 10
93.46216846330269
 20
113.0544724770642
 30
0.0
 10
93.52496891653507
 20
113.0553289610159
 30
0.0
 10
93.65187294032407
 20
113.0570597010692
 30
0.0
 10
93.84322734802501
 20
113.0712095664707
 30
0.0
 10
94.0371321606957
 20
113.0943466487894
 30
0.0
 10
94.23303288142175
 20
113.1277578010123
 30
0.0
 10
94.43037054942899
 20
113.1716316230435
 30
0.0
 10
94.62852389122253
 20
113.2264268940132
 30
0.0
 10
94.826839635244
 20
113.2924958553798
 30
0.0
 10
95.17816062274628
 20
113.4304771876317
 30
0.0
 10
95.70327239307586
 20
113.7105291264737
 30
0.0
 10
96.24026422156278
 20
114.1491197288793
 30
0.0
 10
96.65232395160909
 20
114.6229798504349
 30
0.0
 10
96.9392425396616
 20
115.0546635982547
 30
0.0
 10
97.13766922687056
 20
115.4577868400184
 30
0.0
 10
97.26975510092029
 20
115.8155230008027
 30
0.0
 10
97.35538898071853
 20
116.1182754030905
 30
0.0
 10
97.4164711920703
 20
116.4267637133364
 30
0.0
 10
97.45497213543408
 20
116.7390754234875
 30
0.0
 10
97.45977481452728
 20
116.9495648373836
 30
0.0
 10
97.46216846330269
 20
117.0544724770642
 30
0.0
  0
SPLINE
  5
102
330
1F
100
AcDbEntity
  8
0
  6
Continuous
 62
     7
370
    25
100
AcDbSpline
210
0.0
220
0.0
230
1.0
 70
     8
 71
     3
 72
    25
 73
    21
 74
     0
 42
0.000000001
 43
0.00000001
 40
0.0
 40
0.0
 40
0.0
 40
0.0
 40
0.0274788704195524
 40
0.0560416006803164
 40
0.0856947086292951
 40
0.1164440166475135
 40
0.148294743862195
 40
0.1812515840422657
 40
0.2153187716721001
 40
0.2505001382254695
 40
0.3330514552491746
 40
0.5015081958163465
 40
0.5771663066140458
 40
0.6488981303019414
 40
0.7167477700055647
 40
0.780767442348042
 40
0.8410194131333126
 40
0.8975784849918832
 40
0.9505352047784963
 40
1.0
 40
1.0
 40
1.0
 40
1.0
 10
97.46216846330269
 20
125.4794724770642
 30
0.0
 10
97.46142701169472
 20
125.5378368860933
 30
0.0
 10
97.4599148631128
 20
125.6568677943807
 30
0.0
 10
97.44741872204413
 20
125.8376487884855
 30
0.0
 10
97.42649911808194
 20
126.0239120067205
 30
0.0
 10
97.39557837653922
 20
126.2150840952681
 30
0.0
 10
97.35405373189083
 20
126.4105910344975
 30
0.0
 10
97.30105354607315
 20
126.6097523866202
 30
0.0
 10
97.23582436625387
 20
126.8117706657896
 30
0.0
 10
97.12323433951698
 20
127.1053042802988
 30
0.0
 10
96.86321394853772
 20
127.6338371061327
 30
0.0
 10
96.45213455538475
 20
128.1737763657896
 30
0.0
 10
95.96779998711018
 20
128.6085957152237
 30
0.0
 10
95.60264528243214
 20
128.8680028566841
 30
0.0
 10
95.22981021331499
 20
129.0757530113337
 30
0.0
 10
94.85656265098957
 20
129.2354742789711
 30
0.0
 10
94.48927334065543
 20
129.3515115312728
 30
0.0
 10
94.13308053783166
 20
129.4277186485781
 30
0.0
 10
93.7922418366844
 20
129.4717237105681
 30
0.0
 10
93.56966341658527
 20
129.4769489372707
 30
0.0
 10
93.46216846330269
 20
129.4794724770642
 30
0.0
  0
LINE
  5
103
330
1F
100
AcDbEntity
  8
0
  6
Continuous
 62
     7
370
    25
100
AcDbLine
 10
91.5023529611
 20
130.7770071723
 30
0.0
 11
91.5472948633
 21
129.4794727289
 31
0.0
  0
SPLINE
  5
104
330
1F
100
AcDbEntity
  8
0
  6
Continuous
 62
     7
370
    25
100
AcDbSpline
210
0.0
220
0.0
230
1.0
 70
     8
 71
     3
 72
    13
 73
     9
 74
     0
 42
0.000000001
 43
0.00000001
 40
0.0
 40
0.0
 40
0.0
 40
0.0
 40
0.1618542298835031
 40
0.325485884152754
 40
0.4910085196577332
 40
0.6585318472764572
 40
0.8281616954187944
 40
1.0
 40
1.0
 40
1.0
 40
1.0
 10
91.54729518401324
 20
129.4794724770642
 30
0.0
 10
91.48807335320562
 20
129.4787136009606
 30
0.0
 10
91.36897933894703
 20
129.4771875150515
 30
0.0
 10
91.1893668629956
 20
129.4646935838092
 30
0.0
 10
91.0083378220819
 20
129.4444613149359
 30
0.0
 10
90.82633182829163
 20
129.4153073697266
 30
0.0
 10
90.64354758431755
 20
129.3779466590649
 30
0.0
 10
90.52289855344496
 20
129.3457029482945
 30
0.0
 10
90.46218388723334
 20
129.3294768242826
 30
0.0
  0
SPLINE
  5
105
330
1F
100
AcDbEntity
  8
0
  6
Continuous
 62
     7
370
    25
100
AcDbSpline
210
0.0
220
0.0
230
1.0
 70
    24
 71
     3
 72
     9
 73
     5
 74
     0
 42
0.000000001
 43
0.00000001
 40
0.0
 40
0.0
 40
0.0
 40
0.0
 40
0.4907282259506008
 40
1.0
 40
1.0
 40
1.0
 40
1.0
 10
90.46223988414475
 20
129.3294724770642
 30
0.0
 10
90.40833442591428
 20
129.3294724770642
 30
0.0
 10
90.29848653989539
 20
129.3294724770642
 30
0.0
 10
90.19054406378633
 20
129.3294724770642
 30
0.0
 10
90.135572007483
 20
129.3294724770642
 30
0.0
  0
SPLINE
  5
106
330
1F
100
AcDbEntity
  8
0
  6
Continuous
 62
     7
370
    25
100
AcDbSpline
210
0.0
220
0.0
230
1.0
 70
     8
 71
     3
 72
    14
 73
    10
 74
     0
 42
0.000000001
 43
0.00000001
 40
0.0
 40
0.0
 40
0.0
 40
0.0
 40
0.031027638810549
 40
0.0622853718705394
 40
0.1248003166935317
 40
0.2498289731780103
 40
0.4998892603627759
 40
0.7606803621034616
 40
1.0
 40
1.0
 40
1.0
 40
1.0
 10
89.30690761196811
 20
130.2429488262957
 30
0.0
 10
89.31519763750781
 20
130.2333809817381
 30
0.0
 10
89.33183916562116
 20
130.2141743395597
 30
0.0
 10
89.36508902200057
 20
130.1755857115635
 30
0.0
 10
89.42359156760055
 20
130.1080558186562
 30
0.0
 10
89.54112786144985
 20
129.9732183009332
 30
0.0
 10
89.71405538518434
 20
129.7782849512219
 30
0.0
 10
89.921702907327
 20
129.5499959274211
 30
0.0
 10
90.06551349084079
 20
129.4004263014124
 30
0.0
 10
90.13433164259088
 20
129.3288522561066
 30
0.0
  0
SPLINE
  5
107
330
1F
100
AcDbEntity
  8
0
  6
Continuous
 62
     7
370
    25
100
AcDbSpline
210
0.0
220
0.0
230
1.0
 70
     8
 71
     3
 72
    13
 73
     9
 74
     0
 42
0.000000001
 43
0.00000001
 40
0.0
 40
0.0
 40
0.0
 40
0.0
 40
0.1722587823560499
 40
0.3421398271236467
 40
0.5097456257898753
 40
0.675182899326387
 40
0.8385626190129613
 40
1.0
 40
1.0
 40
1.0
 40
1.0
 10
90.46218683221294
 20
113.204467299814
 30
0.0
 10
90.52305022188126
 20
113.1882035721156
 30
0.0
 10
90.6439368863199
 20
113.1559006096365
 30
0.0
 10
90.82699804428451
 20
113.1185129549437
 30
0.0
 10
91.00910072722246
 20
113.089380020033
 30
0.0
 10
91.19004217554156
 20
113.0691933044263
 30
0.0
 10
91.36938117924564
 20
113.0567465001243
 30
0.0
 10
91.48822740766593
 20
113.0552274568967
 30
0.0
 10
91.54729518401324
 20
113.0544724770642
 30
0.0
  0
LINE
  5
108
330
1F
100
AcDbEntity
  8
0
  6
Continuous
 62
     7
370
    25
100
AcDbLine
 10
91.5023529611
 20
111.7569377818
 30
0.0
 11
91.5472948633
 21
113.0544722252
 31
0.0
  0
SPLINE
  5
109
330
1F
100
AcDbEntity
  8
0
  6
Continuous
 62
     7
370
    25
100
AcDbSpline
210
0.0
220
0.0
230
1.0
 70
     8
 71
     3
 72
    11
 73
     7
 74
     0
 42
0.000000001
 43
0.00000001
 40
0.0
 40
0.0
 40
0.0
 40
0.0
 40
0.2392845093888849
 40
0.50011204540841
 40
0.7515010915061239
 40
1.0
 40
1.0
 40
1.0
 40
1.0
 10
90.13560017428372
 20
113.2050440494575
 30
0.0
 10
90.06679054129974
 20
113.1334483513499
 30
0.0
 10
89.92297627441171
 20
112.9838111219511
 30
0.0
 10
89.71527454160008
 20
112.7547545934435
 30
0.0
 10
89.50733422987886
 20
112.5222926060885
 30
0.0
 10
89.37436602024134
 20
112.3674236147
 30
0.0
 10
89.30826629798194
 20
112.2904368120254
 30
0.0
  0
SPLINE
  5
10A
330
1F
100
AcDbEntity
  8
0
  6
Continuous
 62
     7
370
    25
100
AcDbSpline
210
0.0
220
0.0
230
1.0
 70
    24
 71
     3
 72
     9
 73
     5
 74
     0
 42
0.000000001
 43
0.00000001
 40
0.0
 40
0.0
 40
0.0
 40
0.0
 40
0.5090669353869823
 40
1.0
 40
1.0
 40
1.0
 40
1.0
 10
90.1375482966992
 20
113.2044724770642
 30
0.0
 10
90.19217615940636
 20
113.2044724770642
 30
0.0
 10
90.29948594307093
 20
113.2044724770642
 30
0.0
 10
90.40866745131534
 20
113.2044724770642
 30
0.0
 10
90.46226826375684
 20
113.2044724770642
 30
0.0
  0
LINE
  5
10B
330
1F
100
AcDbEntity
  8
0
  6
Continuous
 62
     7
370
    25
100
AcDbLine
 10
83.9137615345
 20
130.2470827647
 30
0.0
 11
83.8882656477
 21
129.3494964191
 31
0.0
  0
LINE
  5
10C
330
1F
100
AcDbEntity
  8
0
  6
Continuous
 62
     7
370
    25
100
AcDbLine
 10
90.1355700277
 20
129.3294720524
 30
0.0
 11
83.9621679567
 21
129.3294720524
 31
0.0
  0
SPLINE
  5
10D
330
1F
100
AcDbEntity
  8
0
  6
Continuous
 62
     7
370
    25
100
AcDbSpline
210
0.0
220
0.0
230
1.0
 70
     8
 71
     3
 72
     8
 73
     4
 74
     0
 42
0.000000001
 43
0.00000001
 40
0.0
 40
0.0
 40
0.0
 40
0.0
 40
1.0
 40
1.0
 40
1.0
 40
1.0
 10
83.96216846335687
 20
129.3294724770489
 30
0.0
 10
83.93760443392826
 20
129.336395875673
 30
0.0
 10
83.91297414283008
 20
129.3430841794908
 30
0.0
 10
83.88828210171802
 20
129.3495361633716
 30
0.0
  0
LINE
  5
10E
330
1F
100
AcDbEntity
  8
0
  6
Continuous
 62
     7
370
    25
100
AcDbLine
 10
84.7265323333
 20
113.0595497959
 30
0.0
 11
84.8986891739
 21
112.2873800047
 31
0.0
  0
SPLINE
  5
10F
330
1F
100
AcDbEntity
  8
0
  6
Continuous
 62
     7
370
    25
100
AcDbSpline
210
0.0
220
0.0
230
1.0
 70
     8
 71
     3
 72
     8
 73
     4
 74
     0
 42
0.000000001
 43
0.00000001
 40
0.0
 40
0.0
 40
0.0
 40
0.0
 40
1.0
 40
1.0
 40
1.0
 40
1.0
 10
84.72459630666724
 20
113.0601604088869
 30
0.0
 10
84.75479778798699
 20
113.1076413060052
 30
0.0
 10
84.78399717283938
 20
113.1557596095784
 30
0.0
 10
84.81216846330273
 20
113.2044724770642
 30
0.0
  0
LINE
  5
110
330
1F
100
AcDbEntity
  8
0
  6
Continuous
 62
     7
370
    25
100
AcDbLine
 10
84.8121693067
 20
113.2044729017
 30
0.0
 11
90.1367416315
 21
113.2044729017
 31
0.0
  0
LINE
  5
111
330
1F
100
AcDbEntity
  8
0
  6
Continuous
 62
     7
370
    25
100
AcDbLine
 10
93.4621685825
 20
129.4794727289
 30
0.0
 11
91.5472948633
 21
129.4794727289
 31
0.0
  0
LINE
  5
112
330
1F
100
AcDbEntity
  8
0
  6
Continuous
 62
     7
370
    25
100
AcDbLine
 10
91.5472948633
 20
113.0544722252
 30
0.0
 11
93.4621685825
 21
113.0544722252
 31
0.0
  0
SPLINE
  5
113
330
1F
100
AcDbEntity
  8
0
  6
Continuous
 62
     7
370
    25
100
AcDbSpline
210
0.0
220
0.0
230
1.0
 70
     8
 71
     3
 72
    23
 73
    19
 74
     0
 42
0.000000001
 43
0.00000001
 40
0.0
 40
0.0
 40
0.0
 40
0.0
 40
0.0449850911489558
 40
0.0909520670720126
 40
0.1379394291192489
 40
0.1859832248839505
 40
0.2351171761615135
 40
0.2853728096331118
 40
0.3367795876514276
 40
0.3893650370744309
 40
0.4431548745897321
 40
0.4981731273941202
 40
0.5575107591115667
 40
0.6265492281731928
 40
0.7053073139422741
 40
0.7937970254166153
 40
0.8920262116187061
 40
1.0
 40
1.0
 40
1.0
 40
1.0
 10
81.34951142715258
 20
111.2069724770642
 30
0.0
 10
81.41235517812068
 20
111.2078302803832
 30
0.0
 10
81.53941436388916
 20
111.2095646102027
 30
0.0
 10
81.73107059662075
 20
111.2237517454032
 30
0.0
 10
81.92543785721578
 20
111.2469772285594
 30
0.0
 10
82.12195456548591
 20
111.2805559689026
 30
0.0
 10
82.32005216920187
 20
111.3246999421303
 30
0.0
 10
82.51910014116562
 20
111.3798948896557
 30
0.0
 10
82.71841914704855
 20
111.4465117520741
 30
0.0
 10
82.91728484389115
 20
111.5249124288887
 30
0.0
 10
83.11489998329019
 20
111.6153965198381
 30
0.0
 10
83.31414645044933
 20
111.7201883846362
 30
0.0
 10
83.52297493015057
 20
111.8457533211093
 30
0.0
 10
83.74778602632834
 20
112.0012673196715
 30
0.0
 10
83.98955275526795
 20
112.1958364348533
 30
0.0
 10
84.24076746400613
 20
112.4353261022881
 30
0.0
 10
84.49576594820407
 20
112.723166512057
 30
0.0
 10
84.64613807707634
 20
112.944634921796
 30
0.0
 10
84.72487723423012
 20
113.0606021296144
 30
0.0
  0
SPLINE
  5
114
330
1F
100
AcDbEntity
  8
0
  6
Continuous
 62
     7
370
    25
100
AcDbSpline
210
0.0
220
0.0
230
1.0
 70
     8
 71
     3
 72
    13
 73
     9
 74
     0
 42
0.000000001
 43
0.00000001
 40
0.0
 40
0.0
 40
0.0
 40
0.0
 40
0.1706320846627627
 40
0.3395984165286663
 40
0.5069574111648896
 40
0.6727691830460574
 40
0.8370955447896007
 40
0.9999999999999999
 40
0.9999999999999999
 40
0.9999999999999999
 40
0.9999999999999999
 10
83.88827522544308
 20
129.3495379601227
 30
0.0
 10
83.83222129522079
 20
129.3634407062865
 30
0.0
 10
83.72066064716726
 20
129.3911104765524
 30
0.0
 10
83.55141491480505
 20
129.423365993467
 30
0.0
 10
83.38226982588998
 20
129.4487034537844
 30
0.0
 10
83.2133345639068
 20
129.4664163294611
 30
0.0
 10
83.0450063316464
 20
129.4774403864194
 30
0.0
 10
82.93286751443203
 20
129.4787970785809
 30
0.0
 10
82.87704174259216
 20
129.4794724770642
 30
0.0
  0
SPLINE
  5
115
330
1F
100
AcDbEntity
  8
0
  6
Continuous
 62
     7
370
    25
100
AcDbSpline
210
0.0
220
0.0
230
1.0
 70
     8
 71
     3
 72
     8
 73
     4
 74
     0
 42
0.000000001
 43
0.00000001
 40
0.0
 40
0.0
 40
0.0
 40
0.0
 40
1.0
 40
1.0
 40
1.0
 40
1.0
 10
76.09850864172516
 20
130.0069742209898
 30
0.0
 10
76.40306191543402
 20
130.1331635676289
 30
0.0
 10
76.7076151891429
 20
130.260608323892
 30
0.0
 10
77.01216846285176
 20
130.3892991884402
 30
0.0
  0
LINE
  5
116
330
1F
100
AcDbEntity
  8
0
  6
Continuous
 62
     7
370
    25
100
AcDbLine
 10
82.8770430468
 20
129.4794727289
 30
0.0
 11
77.0121695183
 21
129.4794727289
 31
0.0
  0
LINE
  5
117
330
1F
100
AcDbEntity
  8
0
  6
Continuous
 62
     7
370
    25
100
AcDbLine
 10
77.0121695183
 20
129.4794727289
 30
0.0
 11
76.098508545
 21
130.0069738352
 31
0.0
  0
SPLINE
  5
118
330
1F
100
AcDbEntity
  8
0
  6
Continuous
 62
     7
370
    25
100
AcDbSpline
210
0.0
220
0.0
230
1.0
 70
    24
 71
     3
 72
     8
 73
     4
 74
     0
 42
0.000000001
 43
0.00000001
 40
0.0
 40
0.0
 40
0.0
 40
0.0
 40
1.0
 40
1.0
 40
1.0
 40
1.0
 10
75.51216846330269
 20
130.3454978808487
 30
0.0
 10
75.70671559583559
 20
130.2331760415107
 30
0.0
 10
75.9021766160748
 20
130.1203265688595
 30
0.0
 10
76.09850864173212
 20
130.0069742209957
 30
0.0
  0
LINE
  5
119
330
1F
100
AcDbEntity
  8
0
  6
Continuous
 62
     7
370
    25
100
AcDbLine
 10
75.5121702038
 20
130.3454974838
 30
0.0
 11
75.5121702038
 21
143.4700677343
 31
0.0
  0
LINE
  5
11A
330
1F
100
AcDbEntity
  8
0
  6
Continuous
 62
     7
370
    25
100
AcDbLine
 10
76.152033516
 20
110.7103742831
 30
0.0
 11
77.0121695183
 21
111.2069722437
 31
0.0
  0
LINE
  5
11B
330
1F
100
AcDbEntity
  8
0
  6
Continuous
 62
     7
370
    25
100
AcDbLine
 10
77.0121695183
 20
111.2069722437
 30
0.0
 11
81.3495101116
 21
111.2069722437
 31
0.0
  0
SPLINE
  5
11C
330
1F
100
AcDbEntity
  8
0
  6
Continuous
 62
     7
370
    25
100
AcDbSpline
210
0.0
220
0.0
230
1.0
 70
     8
 71
     3
 72
     8
 73
     4
 74
     0
 42
0.000000001
 43
0.00000001
 40
0.0
 40
0.0
 40
0.0
 40
0.0
 40
1.0
 40
1.0
 40
1.0
 40
1.0
 10
77.01216846306244
 20
110.3619943365466
 30
0.0
 10
76.72545718619365
 20
110.4788952747602
 30
0.0
 10
76.43874590932487
 20
110.5950232958249
 30
0.0
 10
76.15203463245606
 20
110.7103739782858
 30
0.0
  0
SPLINE
  5
11D
330
1F
100
AcDbEntity
  8
0
  6
Continuous
 62
     7
370
    25
100
AcDbSpline
210
0.0
220
0.0
230
1.0
 70
     8
 71
     3
 72
     8
 73
     4
 74
     0
 42
0.000000001
 43
0.00000001
 40
0.0
 40
0.0
 40
0.0
 40
0.0
 40
1.0
 40
1.0
 40
1.0
 40
1.0
 10
128.6963662678728
 20
91.73022514409878
 30
0.0
 10
128.3609556424489
 20
92.3884921964082
 30
0.0
 10
128.0291133233389
 20
93.04754863438978
 30
0.0
 10
127.702879588355
 20
93.70748900581121
 30
0.0
  0
LWPOLYLINE
  5
11E
330
1F
100
AcDbEntity
  8
0
  6
Continuous
 62
     7
370
    25
100
AcDbPolyline
 90
        9
 70
   128
 43
0.0
 10
127.7028791316
 20
93.7074890532
 10
128.5405991308
 20
93.8806405463
 10
129.285497003
 20
94.1389167853
 10
129.9034844793
 20
94.4705011495
 10
130.3662819497
 20
94.8602186688
 10
130.6527130015
 20
95.2902345159
 10
130.7496683381
 20
95.7408735701
 10
130.6527130015
 20
96.1915126242
 10
130.4714962549
 20
96.4958781549
  0
LINE
  5
11F
330
1F
100
AcDbEntity
  8
0
  6
Continuous
 62
     7
370
    25
100
AcDbLine
 10
75.5121702038
 20
99.0638772198
 30
0.0
 11
75.5121702038
 21
110.3409474888
 31
0.0
  0
SPLINE
  5
120
330
1F
100
AcDbEntity
  8
0
  6
Continuous
 62
     7
370
    25
100
AcDbSpline
210
0.0
220
0.0
230
1.0
 70
    24
 71
     3
 72
     8
 73
     4
 74
     0
 42
0.000000001
 43
0.00000001
 40
0.0
 40
0.0
 40
0.0
 40
0.0
 40
1.0
 40
1.0
 40
1.0
 40
1.0
 10
76.15203463245606
 20
110.7103739782858
 30
0.0
 10
75.93736907361632
 20
110.586436760104
 30
0.0
 10
75.72405436527814
 20
110.4632794558228
 30
0.0
 10
75.51216846330269
 20
110.3409470732798
 30
0.0
  0
ARC
  5
121
330
1F
100
AcDbEntity
  8
0
  6
Continuous
 62
     7
370
    25
100
AcDbCircle
 10
123.6927524596
 20
95.7341225526
 30
0.0
 40
1.386778252398814
100
AcDbArc
 50
117.5067796727
 51
245.5898588898
  0
SPLINE
  5
122
330
1F
100
AcDbEntity
  8
0
  6
Continuous
 62
     7
370
    25
100
AcDbSpline
210
0.0
220
0.0
230
1.0
 70
     8
 71
     3
 72
     8
 73
     4
 74
     0
 42
0.000000001
 43
0.00000001
 40
0.0
 40
0.0
 40
0.0
 40
0.0
 40
1.0
 40
1.0
 40
1.0
 40
1.0
 10
123.1196447971546
 20
94.4713078864867
 30
0.0
 10
122.7631915322236
 20
93.72714391330216
 30
0.0
 10
122.3978580394622
 20
92.98440468741258
 30
0.0
 10
122.0279706587326
 20
92.24297356251599
 30
0.0
  0
LINE
  5
123
330
1F
100
AcDbEntity
  8
0
  6
Continuous
 62
     7
370
    25
100
AcDbLine
 10
123.4871683352
 20
147.3616754808
 30
0.0
 11
123.4871683352
 21
147.276912088
 31
0.0
  0
SPLINE
  5
124
330
1F
100
AcDbEntity
  8
0
  6
Continuous
 62
     7
370
    25
100
AcDbSpline
210
0.0
220
0.0
230
1.0
 70
     8
 71
     3
 72
    16
 73
    12
 74
     0
 42
0.000000001
 43
0.00000001
 40
0.0
 40
0.0
 40
0.0
 40
0.0
 40
0.1250000000000001
 40
0.1250000000000001
 40
0.2500000000000003
 40
0.2500000000000003
 40
0.5000000000000002
 40
0.5000000000000002
 40
0.7500000000000001
 40
0.7500000000000001
 40
1.0
 40
1.0
 40
1.0
 40
1.0
 10
123.4871684633027
 20
147.2769115028546
 30
0.0
 10
123.4871684633027
 20
147.2075791542095
 30
0.0
 10
123.4969410269423
 20
147.1455826172068
 30
0.0
 10
123.5311370723427
 20
147.0399007392164
 30
0.0
 10
123.5553222640536
 20
146.9957783042975
 30
0.0
 10
123.6430389281499
 20
146.8833716780568
 30
0.0
 10
123.7197490939993
 20
146.8353691718985
 30
0.0
 10
123.8988311942403
 20
146.7705434091858
 30
0.0
 10
123.9997139638601
 20
146.7546401377237
 30
0.0
 10
124.2285254621231
 20
146.753135397353
 30
0.0
 10
124.352823070558
 20
146.7677605741288
 30
0.0
 10
124.4871684633027
 20
146.8025474849674
 30
0.0
  0
SPLINE
  5
125
330
1F
100
AcDbEntity
  8
0
  6
Continuous
 62
     7
370
    25
100
AcDbSpline
210
0.0
220
0.0
230
1.0
 70
     8
 71
     3
 72
    10
 73
     6
 74
     0
 42
0.000000001
 43
0.00000001
 40
0.0
 40
0.0
 40
0.0
 40
0.0
 40
0.5
 40
0.5
 40
1.0
 40
1.0
 40
1.0
 40
1.0
 10
124.4871684633027
 20
146.8025474849674
 30
0.0
 10
124.7499879776584
 20
146.8706010209001
 30
0.0
 10
125.0283408422661
 20
146.9229146379519
 30
0.0
 10
125.6153374296515
 20
146.9996180895352
 30
0.0
 10
125.9247211195298
 20
147.0236454638298
 30
0.0
 10
126.2371684633027
 20
147.0324753002278
 30
0.0
  0
SPLINE
  5
126
330
1F
100
AcDbEntity
  8
0
  6
Continuous
 62
     7
370
    25
100
AcDbSpline
210
0.0
220
0.0
230
1.0
 70
     8
 71
     3
 72
    14
 73
    10
 74
     0
 42
0.000000001
 43
0.00000001
 40
0.0
 40
0.0
 40
0.0
 40
0.0
 40
0.25
 40
0.25
 40
0.5
 40
0.5
 40
0.75
 40
0.75
 40
1.0
 40
1.0
 40
1.0
 40
1.0
 10
126.2371684633027
 20
147.0324753002278
 30
0.0
 10
126.370397914326
 20
147.0362403962652
 30
0.0
 10
126.5020992769362
 20
147.0605024131029
 30
0.0
 10
126.7451769351533
 20
147.1467337637464
 30
0.0
 10
126.8560828757019
 20
147.2088899239183
 30
0.0
 10
127.0387799487796
 20
147.3616961509058
 30
0.0
 10
127.1121674782612
 20
147.4536818589639
 30
0.0
 10
127.2110017571795
 20
147.6561511960427
 30
0.0
 10
127.2371684633027
 20
147.7679124244009
 30
0.0
 10
127.2371684633027
 20
147.8824663919269
 30
0.0
  0
LINE
  5
127
330
1F
100
AcDbEntity
  8
0
  6
Continuous
 62
     7
370
    25
100
AcDbLine
 10
127.2371684842
 20
147.8824654766
 30
0.0
 11
127.2371684842
 21
147.9676740416
 31
0.0
  0
SPLINE
  5
128
330
1F
100
AcDbEntity
  8
0
  6
Continuous
 62
     7
370
    25
100
AcDbSpline
210
0.0
220
0.0
230
1.0
 70
     8
 71
     3
 72
    10
 73
     6
 74
     0
 42
0.000000001
 43
0.00000001
 40
0.0
 40
0.0
 40
0.0
 40
0.0
 40
0.5
 40
0.5
 40
1.0
 40
1.0
 40
1.0
 40
1.0
 10
127.2371684633027
 20
147.9676749566791
 30
0.0
 10
127.4883613531742
 20
148.3281811794451
 30
0.0
 10
127.735630664876
 20
148.6722720593544
 30
0.0
 10
128.2222520161868
 20
149.3237334744101
 30
0.0
 10
128.4616353239036
 20
149.6313189142144
 30
0.0
 10
128.6963662678727
 20
149.9147098441224
 30
0.0
  0
SPLINE
  5
129
330
1F
100
AcDbEntity
  8
0
  6
Continuous
 62
     7
370
    25
100
AcDbSpline
210
0.0
220
0.0
230
1.0
 70
     8
 71
     3
 72
     8
 73
     4
 74
     0
 42
0.000000001
 43
0.00000001
 40
0.0
 40
0.0
 40
0.0
 40
0.0
 40
1.0
 40
1.0
 40
1.0
 40
1.0
 10
127.7028795883547
 20
93.70748900581148
 30
0.0
 10
127.5487971211308
 20
93.92363590720917
 30
0.0
 10
127.3935704992866
 20
94.14528861652818
 30
0.0
 10
127.2371684633027
 20
94.37221886136633
 30
0.0
  0
LINE
  5
12A
330
1F
100
AcDbEntity
  8
0
  6
Continuous
 62
     7
370
    25
100
AcDbLine
 10
127.2371684842
 20
94.3722186782
 30
0.0
 11
127.2371684842
 21
94.4576358595
 31
0.0
  0
SPLINE
  5
12B
330
1F
100
AcDbEntity
  8
0
  6
Continuous
 62
     7
370
    25
100
AcDbSpline
210
0.0
220
0.0
230
1.0
 70
     8
 71
     3
 72
    14
 73
    10
 74
     0
 42
0.000000001
 43
0.00000001
 40
0.0
 40
0.0
 40
0.0
 40
0.0
 40
0.25
 40
0.25
 40
0.5
 40
0.5
 40
0.75
 40
0.75
 40
1.0
 40
1.0
 40
1.0
 40
1.0
 10
127.2371684633027
 20
94.45763493066374
 30
0.0
 10
127.2371684633027
 20
94.5717608348611
 30
0.0
 10
127.2111283065457
 20
94.68446824844483
 30
0.0
 10
127.1123371233444
 20
94.88866401226039
 30
0.0
 10
127.0396294759274
 20
94.9810682034624
 30
0.0
 10
126.8558576980608
 20
95.13662093176741
 30
0.0
 10
126.7467876673686
 20
95.19863039839989
 30
0.0
 10
126.5011633189099
 20
95.28652050712519
 30
0.0
 10
126.3706081933225
 20
95.3103287595472
 30
0.0
 10
126.2371684633027
 20
95.31351332517829
 30
0.0
  0
SPLINE
  5
12C
330
1F
100
AcDbEntity
  8
0
  6
Continuous
 62
     7
370
    25
100
AcDbSpline
210
0.0
220
0.0
230
1.0
 70
     8
 71
     3
 72
    10
 73
     6
 74
     0
 42
0.000000001
 43
0.00000001
 40
0.0
 40
0.0
 40
0.0
 40
0.0
 40
0.5
 40
0.5
 40
1.0
 40
1.0
 40
1.0
 40
1.0
 10
126.2371684633027
 20
95.31351332517826
 30
0.0
 10
125.9291886046748
 20
95.320863325607
 30
0.0
 10
125.6291685945514
 20
95.34024616236964
 30
0.0
 10
125.044357250557
 20
95.40305961780058
 30
0.0
 10
124.7577054442091
 20
95.44700015592143
 30
0.0
 10
124.4871684633027
 20
95.50339819507568
 30
0.0
  0
SPLINE
  5
12D
330
1F
100
AcDbEntity
  8
0
  6
Continuous
 62
     7
370
    25
100
AcDbSpline
210
0.0
220
0.0
230
1.0
 70
     8
 71
     3
 72
    16
 73
    12
 74
     0
 42
0.000000001
 43
0.00000001
 40
0.0
 40
0.0
 40
0.0
 40
0.0
 40
0.2499999999999992
 40
0.2499999999999992
 40
0.4999999999999984
 40
0.4999999999999984
 40
0.7499999999999977
 40
0.7499999999999977
 40
0.8749999999999988
 40
0.8749999999999988
 40
1.0
 40
1.0
 40
1.0
 40
1.0
 10
124.4871684633027
 20
95.50339819507568
 30
0.0
 10
124.3533912945573
 20
95.53128632325529
 30
0.0
 10
124.2298128047191
 20
95.53839643651075
 30
0.0
 10
123.998752857429
 20
95.51931475608302
 30
0.0
 10
123.8944355343878
 20
95.49297335612509
 30
0.0
 10
123.7126083312182
 20
95.40476213774464
 30
0.0
 10
123.635843564822
 20
95.34377319075638
 30
0.0
 10
123.5503379226921
 20
95.21534443869368
 30
0.0
 10
123.5275872727919
 20
95.16720718505702
 30
0.0
 10
123.495856998566
 20
95.0578422601446
 30
0.0
 10
123.4871684633027
 20
94.99640840759685
 30
0.0
 10
123.4871684633027
 20
94.93093108341958
 30
0.0
  0
LINE
  5
12E
330
1F
100
AcDbEntity
  8
0
  6
Continuous
 62
     7
370
    25
100
AcDbLine
 10
123.4871683352
 20
94.9309302666
 30
0.0
 11
123.4871683352
 21
94.8459619828
 31
0.0
  0
SPLINE
  5
12F
330
1F
100
AcDbEntity
  8
0
  6
Continuous
 62
     7
370
    25
100
AcDbSpline
210
0.0
220
0.0
230
1.0
 70
     8
 71
     3
 72
     8
 73
     4
 74
     0
 42
0.000000001
 43
0.00000001
 40
0.0
 40
0.0
 40
0.0
 40
0.0
 40
1.0
 40
1.0
 40
1.0
 40
1.0
 10
123.4871684633028
 20
94.84596195666809
 30
0.0
 10
123.3604084502736
 20
94.70789164652103
 30
0.0
 10
123.2375560365419
 20
94.58181259568745
 30
0.0
 10
123.1196447971546
 20
94.4713078864867
 30
0.0
  0
LINE
  5
130
330
1F
100
AcDbEntity
  8
0
  6
Continuous
 62
     7
370
    25
100
AcDbLine
 10
76.1273646436
 20
129.9903134056
 30
0.0
 11
76.2638332031
 21
129.9115235158
 31
0.0
  0
LINE
  5
131
330
1F
100
AcDbEntity
  8
0
  6
Continuous
 62
     7
370
    25
100
AcDbLine
 10
127.2371684842
 20
147.9676740416
 30
0.0
 11
127.2371684842
 21
150.214567984
 31
0.0
  0
LINE
  5
132
330
1F
100
AcDbEntity
  8
0
  6
Continuous
 62
     7
370
    25
100
AcDbLine
 10
123.4871683352
 20
92.3193769702
 30
0.0
 11
123.4871683352
 21
94.8459619828
 31
0.0
  0
LINE
  5
133
330
1F
100
AcDbEntity
  8
0
  6
Continuous
 62
     7
370
    25
100
AcDbLine
 10
127.2371684842
 20
92.3193769702
 30
0.0
 11
127.2371684842
 21
94.3722186782
 31
0.0
  0
LINE
  5
134
330
1F
100
AcDbEntity
  8
0
  6
Continuous
 62
     7
370
    25
100
AcDbLine
 10
208.962171682
 20
131.7669723355
 30
0.0
 11
208.962171682
 21
110.7669726186
 31
0.0
  0
LINE
  5
135
330
1F
100
AcDbEntity
  8
0
  6
Continuous
 62
     7
370
    25
100
AcDbLine
 10
89.952516713
 20
129.3294720524
 30
0.0
 11
89.8338978819
 21
129.3294720524
 31
0.0
  0
LINE
  5
136
330
1F
100
AcDbEntity
  8
0
  6
Continuous
 62
     7
370
    25
100
AcDbLine
 10
89.8343896203
 20
113.2044729017
 30
0.0
 11
89.9544929795
 21
113.2044729017
 31
0.0
  0
DIMENSION
  5
137
330
1F
100
AcDbEntity
  8
VERMASSUNG
100
AcDbDimension
  2
_D
 10
248.1392802414
 20
110.2669724771
 30
0.0
 11
248.1392802414
 21
121.2669724771
 31
0.0
 70
   160
  1
%%c<>
 71
     2
 42
-1.0
  3
SLDDIMSTYLE0
100
AcDbAlignedDimension
 13
234.9621684633
 23
132.2669724771
 33
0.0
 14
234.9621684633
 24
110.2669724771
 34
0.0
 50
90.0
100
AcDbRotatedDimension
  0
DIMENSION
  5
143
330
1F
100
AcDbEntity
  8
VERMASSUNG
100
AcDbDimension
  2
_D_1
 10
181.9303342542
 20
110.2669724771
 30
0.0
 11
181.9303342542
 21
145.3600485189
 31
0.0
 70
   160
  1
%%c<>
 71
     2
 42
-1.0
  3
SLDDIMSTYLE0
100
AcDbAlignedDimension
 13
208.4621684633
 23
132.2669724771
 33
0.0
 14
208.4621684633
 24
110.2669724771
 34
0.0
 50
90.0
100
AcDbRotatedDimension
  0
DIMENSION
  5
14D
330
1F
100
AcDbEntity
  8
VERMASSUNG
100
AcDbDimension
  2
_D_2
 10
234.9621684633
 20
162.7419724771
 30
0.0
 11
184.2121684633
 21
162.7419724771
 31
0.0
 70
   160
  1
<>
 71
     2
 42
-1.0
  3
SLDDIMSTYLE0
100
AcDbAlignedDimension
 13
133.4621684633
 23
151.7419724771
 33
0.0
 14
234.9621684633
 24
130.2094702317
 34
0.0
100
AcDbRotatedDimension
  0
DIMENSION
  5
157
330
1F
100
AcDbEntity
  8
VERMASSUNG
100
AcDbDimension
  2
_D_3
 10
235.4621684633
 20
171.2507418773
 30
0.0
 11
175.4621684633
 21
171.2507418773
 31
0.0
 70
   160
  1
<>
 71
     2
 42
-1.0
  3
SLDDIMSTYLE0
100
AcDbAlignedDimension
 13
115.4621684633
 23
152.5419724771
 33
0.0
 14
235.4621684633
 24
127.6169724771
 34
0.0
100
AcDbRotatedDimension
  0
DIMENSION
  5
161
330
1F
100
AcDbEntity
  8
VERMASSUNG
100
AcDbDimension
  2
_D_4
 10
235.4621684633
 20
180.7419724771
 30
0.0
 11
155.4871684633
 21
180.7419724771
 31
0.0
 70
   160
  1
<>
 71
     2
 42
-1.0
  3
SLDDIMSTYLE0
100
AcDbAlignedDimension
 13
75.5121684633
 23
143.4700672009
 33
0.0
 14
235.4621684633
 24
127.6169724771
 34
0.0
100
AcDbRotatedDimension
  0
DIMENSION
  5
16B
330
1F
100
AcDbEntity
  8
VERMASSUNG
100
AcDbDimension
  2
_D_5
 10
63.2622736679
 20
152.7419724771
 30
0.0
 11
63.2622736679
 21
121.2669724771
 31
0.0
 70
   160
  1
KM%%c<> XMZ
 71
     2
 42
-1.0
  3
SLDDIMSTYLE1
100
AcDbAlignedDimension
 13
115.6621684633
 23
89.7919724771
 33
0.0
 14
115.6621684633
 24
152.7419724771
 34
0.0
 50
90.0
100
AcDbRotatedDimension
  0
LINE
  5
179
330
1F
100
AcDbEntity
  8
VERMASSUNG
  6
CENTERX2
370
    18
100
AcDbLine
 10
237.4621684633
 20
121.2669724771
 30
0.0
 11
73.5121684633
 21
121.2669724771
 31
0.0
  0
LINE
  5
17A
330
1F
100
AcDbEntity
  8
0
  6
Continuous
 62
     7
370
    25
100
AcDbLine
 10
248.5595107552
 20
40.2254141575
 30
0.0
 11
252.4770655927
 21
37.9638578885
 31
0.0
  0
LINE
  5
17B
330
1F
100
AcDbEntity
  8
0
  6
Continuous
 62
     7
370
    25
100
AcDbLine
 10
257.9766185233
 20
47.4903952837
 30
0.0
 11
254.0590636858
 21
49.7519515528
 31
0.0
  0
LINE
  5
17C
330
1F
100
AcDbEntity
  8
0
  6
Continuous
 62
     7
370
    25
100
AcDbLine
 10
251.3086551345
 20
49.4792924007
 30
0.0
 11
251.0258588724
 21
49.3159837531
 31
0.0
  0
LINE
  5
17D
330
1F
100
AcDbEntity
  8
0
  6
Continuous
 62
     7
370
    25
100
AcDbLine
 10
247.4202002743
 20
43.0701234399
 30
0.0
 11
247.4201999451
 21
42.7435605598
 31
0.0
  0
LINE
  5
17E
330
1F
100
AcDbEntity
  8
0
  6
Continuous
 62
     7
370
    25
100
AcDbLine
 10
257.3556818938
 20
37.0079288579
 30
0.0
 11
257.5324302161
 21
37.1099962873
 31
0.0
  0
LINE
  5
17F
330
1F
100
AcDbEntity
  8
0
  6
Continuous
 62
     7
370
    25
100
AcDbLine
 10
252.297665721
 20
49.9027831479
 30
0.0
 11
250.7142455009
 21
50.816872184
 31
0.0
  0
LINE
  5
180
330
1F
100
AcDbEntity
  8
0
  6
Continuous
 62
     7
370
    25
100
AcDbLine
 10
245.9646315314
 20
42.5894078539
 30
0.0
 11
247.5480517515
 21
41.6753188178
 31
0.0
  0
SPLINE
  5
181
330
1F
100
AcDbEntity
  8
0
  6
Continuous
 62
     7
370
    25
100
AcDbSpline
210
0.0
220
0.0
230
1.0
 70
     8
 71
     3
 72
    11
 73
     7
 74
     0
 42
0.000000001
 43
0.00000001
 40
0.0
 40
0.0
 40
0.0
 40
0.0
 40
0.0926253756451282
 40
0.430671790658092
 40
0.7714829641536413
 40
1.0
 40
1.0
 40
1.0
 40
1.0
 10
245.5146151418986
 20
42.02351419881676
 30
0.0
 10
245.5551379204931
 20
42.00382714082018
 30
0.0
 10
245.743553001114
 20
41.91229001655887
 30
0.0
 10
246.1324006605981
 20
41.86140743927579
 30
0.0
 10
246.6030895213705
 20
41.85770712317336
 30
0.0
 10
246.9144678576878
 20
41.93707326447939
 30
0.0
 10
247.0394489376245
 20
41.96892925731484
 30
0.0
  0
SPLINE
  5
182
330
1F
100
AcDbEntity
  8
0
  6
Continuous
 62
     7
370
    25
100
AcDbSpline
210
0.0
220
0.0
230
1.0
 70
     8
 71
     3
 72
    12
 73
     8
 74
     0
 42
0.000000001
 43
0.00000001
 40
0.0
 40
0.0
 40
0.0
 40
0.0
 40
0.0778314560233856
 40
0.32978851447131
 40
0.5789146299083358
 40
0.8237585739596228
 40
0.9999999999999999
 40
0.9999999999999999
 40
0.9999999999999999
 40
0.9999999999999999
 10
251.7891142735748
 20
50.19636345762866
 30
0.0
 10
251.7749811526787
 20
50.25766576963232
 30
0.0
 10
251.7150960987003
 20
50.51741676803676
 30
0.0
 10
251.5194797405713
 20
50.90221329357104
 30
0.0
 10
251.2035600892109
 20
51.32689775117585
 30
0.0
 10
250.849268910589
 20
51.62881044532683
 30
0.0
 10
250.5823691883152
 20
51.73942565614557
 30
0.0
 10
250.4706607533889
 20
51.78572263980046
 30
0.0
  0
LINE
  5
183
330
1F
100
AcDbEntity
  8
0
  6
Continuous
 62
     7
370
    25
100
AcDbLine
 10
220.133819024
 20
56.6352167015
 30
0.0
 11
245.2361105779
 21
42.1439722422
 31
0.0
  0
LINE
  5
184
330
1F
100
AcDbEntity
  8
0
  6
Continuous
 62
     7
370
    25
100
AcDbLine
 10
250.7356635086
 20
51.6705096374
 30
0.0
 11
225.6333719546
 21
66.1617540967
 31
0.0
  0
SPLINE
  5
185
330
1F
100
AcDbEntity
  8
0
  6
Continuous
 62
     7
370
    25
100
AcDbSpline
210
0.0
220
0.0
230
1.0
 70
     8
 71
     3
 72
    19
 73
    15
 74
     0
 42
0.000000001
 43
0.00000001
 40
0.0
 40
0.0
 40
0.0
 40
0.0
 40
0.0514550905235024
 40
0.1428421966889921
 40
0.2348566914417841
 40
0.3274006438029403
 40
0.4203198643436382
 40
0.5134613199591136
 40
0.6067042948965388
 40
0.6999579335057837
 40
0.793174866258496
 40
0.8863383763359378
 40
0.9794450981204545
 40
1.0
 40
1.0
 40
1.0
 40
1.0
 10
215.6374781441551
 20
48.05427778497224
 30
0.0
 10
215.8001553032722
 20
48.03653339239876
 30
0.0
 10
216.2517561560351
 20
47.98727397047723
 30
0.0
 10
217.0327444402425
 20
48.03037073178323
 30
0.0
 10
217.970255572541
 20
48.17282860323567
 30
0.0
 10
218.9346541761279
 20
48.4318109298494
 30
0.0
 10
219.9158840353967
 20
48.79881342868296
 30
0.0
 10
220.9063948892261
 20
49.27270262363429
 30
0.0
 10
221.8979628354608
 20
49.84875817397405
 30
0.0
 10
222.8824156020637
 20
50.52266747730083
 30
0.0
 10
223.8531986139608
 20
51.28672881521173
 30
0.0
 10
224.7989448921046
 20
52.14210533823402
 30
0.0
 10
225.4866634881971
 20
52.81765052991877
 30
0.0
 10
225.8447915378327
 20
53.22693758022285
 30
0.0
 10
225.9095564662516
 20
53.30095425259094
 30
0.0
  0
SPLINE
  5
186
330
1F
100
AcDbEntity
  8
0
  6
Continuous
 62
     7
370
    25
100
AcDbSpline
210
0.0
220
0.0
230
1.0
 70
     8
 71
     3
 72
    19
 73
    15
 74
     0
 42
0.000000001
 43
0.00000001
 40
0.0
 40
0.0
 40
0.0
 40
0.0
 40
0.0564227096746192
 40
0.1442017820836849
 40
0.2320463809269939
 40
0.31996495565831
 40
0.4079606718473529
 40
0.49602705728515
 40
0.5841413720996637
 40
0.6722352514435979
 40
0.7602087194628374
 40
0.8479220950083174
 40
0.935207658471996
 40
1.0
 40
1.0
 40
1.0
 40
1.0
 10
231.4072134472536
 20
62.82858612475205
 30
0.0
 10
231.4939177699091
 20
63.09963149251123
 30
0.0
 10
231.7155114848048
 20
63.7923530098187
 30
0.0
 10
231.9806810293607
 20
64.89852268648323
 30
0.0
 10
232.2100957319631
 20
66.13634848949178
 30
0.0
 10
232.3505548626708
 20
67.34661871613937
 30
0.0
 10
232.4045991445298
 20
68.52048529074507
 30
0.0
 10
232.3700703159185
 20
69.64900535862996
 30
0.0
 10
232.2468605806613
 20
70.72350074597588
 30
0.0
 10
232.0348436937767
 20
71.73499539272014
 30
0.0
 10
231.7359759852994
 20
72.6760090184882
 30
0.0
 10
231.348939881631
 20
73.53412840726001
 30
0.0
 10
230.9279712676863
 20
74.25105947583893
 30
0.0
 10
230.6013007283803
 20
74.6373995855415
 30
0.0
 10
230.462123711502
 20
74.80199864636617
 30
0.0
  0
SPLINE
  5
187
330
1F
100
AcDbEntity
  8
0
  6
Continuous
 62
     7
370
    25
100
AcDbSpline
210
0.0
220
0.0
230
1.0
 70
     8
 71
     3
 72
     9
 73
     5
 74
     0
 42
0.000000001
 43
0.00000001
 40
0.0
 40
0.0
 40
0.0
 40
0.0
 40
0.3662526493452264
 40
0.9999999999999999
 40
0.9999999999999999
 40
0.9999999999999999
 40
0.9999999999999999
 10
215.0553379699886
 20
48.13449809108062
 30
0.0
 10
215.1236541847394
 20
48.11712679283515
 30
0.0
 10
215.3101817494491
 20
48.06969697007065
 30
0.0
 10
215.510516516373
 20
48.06025904498864
 30
0.0
 10
215.6374781441551
 20
48.05427778497224
 30
0.0
  0
LINE
  5
188
330
1F
100
AcDbEntity
  8
0
  6
Continuous
 62
     7
370
    25
100
AcDbLine
 10
211.9163058888
 20
49.5581591237
 30
0.0
 11
213.2477182478
 21
48.7895511291
 31
0.0
  0
LINE
  5
189
330
1F
100
AcDbEntity
  8
0
  6
Continuous
 62
     7
370
    25
100
AcDbLine
 10
228.9839395624
 20
76.0484395229
 30
0.0
 11
227.6525272033
 21
76.8170475175
 31
0.0
  0
LINE
  5
18A
330
1F
100
AcDbEntity
  8
0
  6
Continuous
 62
     7
370
    25
100
AcDbLine
 10
207.3080209574
 20
52.2184653884
 30
0.0
 11
209.5586719338
 21
50.9191922355
 31
0.0
  0
LINE
  5
18B
330
1F
100
AcDbEntity
  8
0
  6
Continuous
 62
     7
370
    25
100
AcDbLine
 10
225.2948932484
 20
78.1780806293
 30
0.0
 11
223.044242272
 21
79.4773537822
 31
0.0
  0
LINE
  5
18C
330
1F
100
AcDbEntity
  8
0
  6
Continuous
 62
     7
370
    25
100
AcDbLine
 10
216.2668530817
 20
79.2572356898
 30
0.0
 11
207.0696408981
 21
83.8378882997
 31
0.0
  0
LINE
  5
18D
330
1F
100
AcDbEntity
  8
0
  6
Continuous
 62
     7
370
    25
100
AcDbLine
 10
195.5432931085
 20
63.871504844
 30
0.0
 11
204.1093931141
 21
58.1976152476
 31
0.0
  0
LINE
  5
18E
330
1F
100
AcDbEntity
  8
0
  6
Continuous
 62
     7
370
    25
100
AcDbLine
 10
200.5227305502
 20
64.8179947097
 30
0.0
 11
200.5227305502
 21
64.4526760046
 31
0.0
  0
LINE
  5
18F
330
1F
100
AcDbEntity
  8
0
  6
Continuous
 62
     7
370
    25
100
AcDbLine
 10
204.4206973105
 20
84.2148566764
 30
0.0
 11
203.7811472017
 21
84.1276449209
 31
0.0
  0
ARC
  5
190
330
1F
100
AcDbEntity
  8
0
  6
Continuous
 62
     7
370
    25
100
AcDbCircle
 10
258.6549818508
 20
44.1406840215
 30
0.0
 40
2.570692559522208
100
AcDbArc
 50
0.7037143879
 51
55.2254060532
  0
LINE
  5
191
330
1F
100
AcDbEntity
  8
0
  6
Continuous
 62
     7
370
    25
100
AcDbLine
 10
260.1211748051
 20
46.2522565295
 30
0.0
 11
258.0045837805
 21
47.4741385195
 31
0.0
  0
ELLIPSE
  5
192
330
1F
100
AcDbEntity
  8
0
  6
Continuous
 62
     7
370
    25
100
AcDbEllipse
 10
265.9463985057
 20
36.5388583698
 30
0.0
 11
-9.096703821521599
 21
11.2034451414406
 31
0.0
210
0.0
220
0.0
230
1.0
 40
0.1422875476
 41
5.921018261252209
 42
6.286688535237924
  0
LINE
  5
193
330
1F
100
AcDbEntity
  8
0
  6
Continuous
 62
     7
370
    25
100
AcDbLine
 10
258.960758302
 20
46.5158176124
 30
0.0
 11
256.8441672774
 21
47.7376996025
 31
0.0
  0
ARC
  5
194
330
1F
100
AcDbEntity
  8
0
  6
Continuous
 62
     7
370
    25
100
AcDbCircle
 10
259.5066088672
 20
42.0526939219
 30
0.0
 40
4.496379200711442
100
AcDbArc
 50
96.9727807355
 51
134.223123986
  0
LINE
  5
195
330
1F
100
AcDbEntity
  8
0
  6
Continuous
 62
     7
370
    25
100
AcDbLine
 10
256.3705894825
 20
45.2749304643
 30
0.0
 11
254.2539984578
 21
46.4968124543
 31
0.0
  0
ELLIPSE
  5
196
330
1F
100
AcDbEntity
  8
0
  6
Continuous
 62
     7
370
    25
100
AcDbEllipse
 10
265.9463985057
 20
36.5388583698
 30
0.0
 11
12.64990456530273
 21
-9.264434800649095
 31
0.0
210
0.0
220
0.0
230
1.0
 40
0.3355941499
 41
2.926080317663646
 42
3.291750591649498
  0
LINE
  5
197
330
1F
100
AcDbEntity
  8
0
  6
Continuous
 62
     7
370
    25
100
AcDbLine
 10
255.0903275925
 20
43.8420993426
 30
0.0
 11
252.9737365679
 21
45.0639813327
 31
0.0
  0
ARC
  5
198
330
1F
100
AcDbEntity
  8
0
  6
Continuous
 62
     7
370
    25
100
AcDbCircle
 10
262.4188678583
 20
38.5702401408
 30
0.0
 40
9.027735146342769
100
AcDbArc
 50
144.2702675815
 51
167.519419608
  0
LINE
  5
199
330
1F
100
AcDbEntity
  8
0
  6
Continuous
 62
     7
370
    25
100
AcDbLine
 10
253.6044643205
 20
40.5212122431
 30
0.0
 11
251.4878732958
 21
41.7430942332
 31
0.0
  0
ELLIPSE
  5
19A
330
1F
100
AcDbEntity
  8
0
  6
Continuous
 62
     7
370
    25
100
AcDbEllipse
 10
265.9463985057
 20
36.5388583698
 30
0.0
 11
14.70157946333472
 21
-4.75709986787053
 31
0.0
210
0.0
220
0.0
230
1.0
 40
0.2945880084
 41
3.031474080555983
 42
3.397144354541841
  0
LINE
  5
19B
330
1F
100
AcDbEntity
  8
0
  6
Continuous
 62
     7
370
    25
100
AcDbLine
 10
253.4846190982
 20
38.824819991
 30
0.0
 11
251.3680280736
 21
40.046701981
 31
0.0
  0
ARC
  5
19C
330
1F
100
AcDbEntity
  8
0
  6
Continuous
 62
     7
370
    25
100
AcDbCircle
 10
256.0551177646
 20
38.8563927853
 30
0.0
 40
2.570692559522202
100
AcDbArc
 50
180.7037143879
 51
235.2254060532
  0
LINE
  5
19D
330
1F
100
AcDbEntity
  8
0
  6
Continuous
 62
     7
370
    25
100
AcDbLine
 10
254.5889248103
 20
36.7448202773
 30
0.0
 11
252.4723337857
 21
37.9667022673
 31
0.0
  0
ELLIPSE
  5
19E
330
1F
100
AcDbEntity
  8
0
  6
Continuous
 62
     7
370
    25
100
AcDbEllipse
 10
265.9463985057
 20
36.5388583698
 30
0.0
 11
13.49507481009414
 21
-1.453250875982533
 31
0.0
210
0.0
220
0.0
230
1.0
 40
0.0287563541
 41
3.200581581844636
 42
3.212506040199861
  0
LINE
  5
19F
330
1F
100
AcDbEntity
  8
0
  6
Continuous
 62
     7
370
    25
100
AcDbLine
 10
255.7493413134
 20
36.4812591943
 30
0.0
 11
254.9101870228
 21
36.9656926548
 31
0.0
  0
ARC
  5
1A0
330
1F
100
AcDbEntity
  8
0
  6
Continuous
 62
     7
370
    25
100
AcDbCircle
 10
255.4504614822
 20
40.1058429343
 30
0.0
 40
3.636885541422421
100
AcDbArc
 50
274.7138923855
 51
301.5915593749
  0
LINE
  5
1A1
330
1F
100
AcDbEntity
  8
0
  6
Continuous
 62
     7
370
    25
100
AcDbLine
 10
259.619772023
 20
39.1549774641
 30
0.0
 11
259.1806887893
 21
39.4084548195
 31
0.0
  0
LINE
  5
1A2
330
1F
100
AcDbEntity
  8
0
  6
Continuous
 62
     7
370
    25
100
AcDbLine
 10
261.105635295
 20
42.4758645636
 30
0.0
 11
260.5248174782
 21
42.8111635522
 31
0.0
  0
LWPOLYLINE
  5
1A3
330
1F
100
AcDbEntity
  8
0
  6
Continuous
 62
     7
370
    25
100
AcDbPolyline
 90
       13
 70
   128
 43
0.0
 10
248.118141549
 20
45.7134760472
 10
248.5051790223
 20
46.4817675188
 10
248.9612625824
 20
47.2132943971
 10
249.475162399
 20
47.8900437006
 10
250.0342245394
 20
48.4953520232
 10
250.6246829128
 20
49.0143145143
 10
251.2319984923
 20
49.4341523831
 10
251.8412171626
 20
49.744528225
 10
252.4373379897
 20
49.9377996843
 10
253.0056823973
 20
50.0092071002
 10
253.5322560676
 20
49.9569926925
 10
254.0040926709
 20
49.7824415769
 10
254.0590636858
 20
49.7519515528
  0
LWPOLYLINE
  5
1A4
330
1F
100
AcDbEntity
  8
0
  6
Continuous
 62
     7
370
    25
100
AcDbPolyline
 90
       10
 70
   128
 43
0.0
 10
248.5595107552
 20
40.2254141575
 10
248.2089999469
 20
40.4875129207
 10
247.8798577555
 20
40.8909357184
 10
247.6351594092
 20
41.395258695
 10
247.4809302611
 20
41.9880636388
 10
247.4209681372
 20
42.654753857
 10
247.4567491653
 20
43.3789130393
 10
247.5873922126
 20
44.1427099937
 10
247.8096809478
 20
44.9273376936
 10
248.118141549
 20
45.7134760472
  0
ARC
  5
1A5
330
1F
100
AcDbEntity
  8
0
  6
Continuous
 62
     7
370
    25
100
AcDbCircle
 10
252.6898519829
 20
44.197360019
 30
0.0
 40
8.627244125374817
100
AcDbArc
 50
324.576602925
 51
347.2130829281
  0
LINE
  5
1A6
330
1F
100
AcDbEntity
  8
0
  6
Continuous
 62
     7
370
    25
100
AcDbLine
 10
259.4486026405
 20
39.7082958687
 30
0.0
 11
259.7201170838
 21
39.1968886603
 31
0.0
  0
LINE
  5
1A7
330
1F
100
AcDbEntity
  8
0
  6
Continuous
 62
     7
370
    25
100
AcDbLine
 10
258.1683407917
 20
38.2754647708
 30
0.0
 11
259.4486026405
 21
39.7082958687
 31
0.0
  0
LINE
  5
1A8
330
1F
100
AcDbEntity
  8
0
  6
Continuous
 62
     7
370
    25
100
AcDbLine
 10
258.1683407917
 20
38.2754647708
 30
0.0
 11
258.4398552761
 21
37.7640575861
 31
0.0
  0
ARC
  5
1A9
330
1F
100
AcDbEntity
  8
0
  6
Continuous
 62
     7
370
    25
100
AcDbCircle
 10
255.4712844119
 20
40.8668139928
 30
0.0
 40
4.294125090718381
100
AcDbArc
 50
277.4620336848
 51
313.7338824892
  0
LINE
  5
1AA
330
1F
100
AcDbEntity
  8
0
  6
Continuous
 62
     7
370
    25
100
AcDbLine
 10
256.394286548
 20
37.4255581304
 30
0.0
 11
256.0289589822
 21
36.6090552668
 31
0.0
  0
LINE
  5
1AB
330
1F
100
AcDbEntity
  8
0
  6
Continuous
 62
     7
370
    25
100
AcDbLine
 10
255.233870045
 20
37.6891194035
 30
0.0
 11
256.394286548
 21
37.4255581304
 31
0.0
  0
LINE
  5
1AC
330
1F
100
AcDbEntity
  8
0
  6
Continuous
 62
     7
370
    25
100
AcDbLine
 10
255.233870045
 20
37.6891194035
 30
0.0
 11
254.8685424792
 21
36.8726165399
 31
0.0
  0
ARC
  5
1AD
330
1F
100
AcDbEntity
  8
0
  6
Continuous
 62
     7
370
    25
100
AcDbCircle
 10
256.2905337412
 20
38.8684509406
 30
0.0
 40
2.450594642988813
100
AcDbArc
 50
181.3982131244
 51
234.5309037423
  0
LINE
  5
1AE
330
1F
100
AcDbEntity
  8
0
  6
Continuous
 62
     7
370
    25
100
AcDbLine
 10
254.4775106041
 20
39.1137494919
 30
0.0
 11
253.8406687597
 21
38.8086539793
 31
0.0
  0
LINE
  5
1AF
330
1F
100
AcDbEntity
  8
0
  6
Continuous
 62
     7
370
    25
100
AcDbLine
 10
254.5973561557
 20
40.8101419341
 30
0.0
 11
254.4775106041
 21
39.1137494919
 31
0.0
  0
LINE
  5
1B0
330
1F
100
AcDbEntity
  8
0
  6
Continuous
 62
     7
370
    25
100
AcDbLine
 10
254.5973561557
 20
40.8101419341
 30
0.0
 11
253.960513982
 21
40.5050462789
 31
0.0
  0
ARC
  5
1B1
330
1F
100
AcDbEntity
  8
0
  6
Continuous
 62
     7
370
    25
100
AcDbCircle
 10
262.3738017396
 20
38.5956143461
 30
0.0
 40
8.627244125372739
100
AcDbArc
 50
144.576602925
 51
167.2130829281
  0
LINE
  5
1B2
330
1F
100
AcDbEntity
  8
0
  6
Continuous
 62
     7
370
    25
100
AcDbLine
 10
255.615051082
 20
43.0846784965
 30
0.0
 11
255.3435366387
 21
43.5960857049
 31
0.0
  0
LINE
  5
1B3
330
1F
100
AcDbEntity
  8
0
  6
Continuous
 62
     7
370
    25
100
AcDbLine
 10
256.8953129308
 20
44.5175095944
 30
0.0
 11
255.615051082
 21
43.0846784965
 31
0.0
  0
LINE
  5
1B4
330
1F
100
AcDbEntity
  8
0
  6
Continuous
 62
     7
370
    25
100
AcDbLine
 10
256.8953129308
 20
44.5175095944
 30
0.0
 11
256.6237984464
 21
45.028916779
 31
0.0
  0
ARC
  5
1B5
330
1F
100
AcDbEntity
  8
0
  6
Continuous
 62
     7
370
    25
100
AcDbCircle
 10
259.5923693106
 20
41.9261603724
 30
0.0
 40
4.294125090718056
100
AcDbArc
 50
97.4620336848
 51
133.7338824892
  0
LINE
  5
1B6
330
1F
100
AcDbEntity
  8
0
  6
Continuous
 62
     7
370
    25
100
AcDbLine
 10
258.6693671745
 20
45.3674162348
 30
0.0
 11
259.0346947403
 21
46.1839190984
 31
0.0
  0
LINE
  5
1B7
330
1F
100
AcDbEntity
  8
0
  6
Continuous
 62
     7
370
    25
100
AcDbLine
 10
259.8297836775
 20
45.1038549617
 30
0.0
 11
258.6693671745
 21
45.3674162348
 31
0.0
  0
LINE
  5
1B8
330
1F
100
AcDbEntity
  8
0
  6
Continuous
 62
     7
370
    25
100
AcDbLine
 10
259.8297836775
 20
45.1038549617
 30
0.0
 11
260.1951112433
 21
45.9203578253
 31
0.0
  0
ARC
  5
1B9
330
1F
100
AcDbEntity
  8
0
  6
Continuous
 62
     7
370
    25
100
AcDbCircle
 10
258.7731199813
 20
43.9245234246
 30
0.0
 40
2.450594642988659
100
AcDbArc
 50
1.3982131244
 51
54.5309037423
  0
LINE
  5
1BA
330
1F
100
AcDbEntity
  8
0
  6
Continuous
 62
     7
370
    25
100
AcDbLine
 10
260.5861431184
 20
43.6792248733
 30
0.0
 11
261.2229849628
 21
43.9843203859
 31
0.0
  0
LINE
  5
1BB
330
1F
100
AcDbEntity
  8
0
  6
Continuous
 62
     7
370
    25
100
AcDbLine
 10
260.4662975668
 20
41.9828324311
 30
0.0
 11
260.5861431184
 21
43.6792248733
 31
0.0
  0
LINE
  5
1BC
330
1F
100
AcDbEntity
  8
0
  6
Continuous
 62
     7
370
    25
100
AcDbLine
 10
260.4662975668
 20
41.9828324311
 30
0.0
 11
261.1031397406
 21
42.2879280862
 31
0.0
  0
LWPOLYLINE
  5
1BD
330
1F
100
AcDbEntity
  8
0
  6
Continuous
 62
     7
370
    25
100
AcDbPolyline
 90
       31
 70
   128
 43
0.0
 10
255.6896656565
 20
41.8148905788
 10
255.9967258627
 20
42.4020526175
 10
256.3708773487
 20
42.9452667712
 10
256.7957679604
 20
43.4207916871
 10
257.2528278538
 20
43.8078447775
 10
257.7220813574
 20
44.0895100653
 10
258.1830197899
 20
44.2534772241
 10
258.6154979868
 20
44.2925802349
 10
259.0006145681
 20
44.2051101149
 10
259.3215381241
 20
43.9948897695
 10
259.5642425622
 20
43.671106669
 10
259.7181208708
 20
43.2479118366
 10
259.7764474993
 20
42.7438007829
 10
259.7366735513
 20
42.180805753
 10
259.6005370903
 20
41.5835321509
 10
259.373988066
 20
40.9780837863
 10
259.0669278598
 20
40.3909217477
 10
258.6927763738
 20
39.847707594
 10
258.2678857621
 20
39.3721826781
 10
257.8108258687
 20
38.9851295877
 10
257.3415723651
 20
38.7034642999
 10
256.8806339326
 20
38.5394971411
 10
256.4481557357
 20
38.5003941303
 10
256.0630391544
 20
38.5878642503
 10
255.7421155984
 20
38.7980845956
 10
255.4994111603
 20
39.1218676962
 10
255.3455328517
 20
39.5450625285
 10
255.2872062232
 20
40.0491735823
 10
255.3269801712
 20
40.6121686122
 10
255.4631166322
 20
41.2094422143
 10
255.6896656565
 20
41.8148905788
  0
LINE
  5
1BE
330
1F
100
AcDbEntity
  8
0
  6
Continuous
 62
     7
370
    25
100
AcDbLine
 10
255.3435366387
 20
43.5960857049
 30
0.0
 11
255.0903275925
 21
43.8420993426
 31
0.0
  0
LINE
  5
1BF
330
1F
100
AcDbEntity
  8
0
  6
Continuous
 62
     7
370
    25
100
AcDbLine
 10
253.960513982
 20
40.5050462789
 30
0.0
 11
253.6044643205
 21
40.5212122431
 31
0.0
  0
LINE
  5
1C0
330
1F
100
AcDbEntity
  8
0
  6
Continuous
 62
     7
370
    25
100
AcDbLine
 10
254.2539984578
 20
46.4968124543
 30
0.0
 11
256.8953129308
 21
44.5175095944
 31
0.0
  0
LINE
  5
1C1
330
1F
100
AcDbEntity
  8
0
  6
Continuous
 62
     7
370
    25
100
AcDbLine
 10
259.0346947403
 20
46.1839190984
 30
0.0
 11
258.960758302
 21
46.5158176124
 31
0.0
  0
LINE
  5
1C2
330
1F
100
AcDbEntity
  8
0
  6
Continuous
 62
     7
370
    25
100
AcDbLine
 10
256.6237984464
 20
45.028916779
 30
0.0
 11
256.3705894825
 21
45.2749304643
 31
0.0
  0
LINE
  5
1C3
330
1F
100
AcDbEntity
  8
0
  6
Continuous
 62
     7
370
    25
100
AcDbLine
 10
251.3680280736
 20
40.046701981
 30
0.0
 11
254.4775106041
 21
39.1137494919
 31
0.0
  0
ARC
  5
1C4
330
1F
100
AcDbEntity
  8
0
  6
Continuous
 62
     7
370
    25
100
AcDbCircle
 10
252.4134368554
 20
44.3512708592
 30
0.0
 40
6.376827497976621
100
AcDbArc
 50
300.7354765975
 51
359.269899747
  0
LWPOLYLINE
  5
1C5
330
1F
100
AcDbEntity
  8
0
  6
Continuous
 62
     7
370
    25
100
AcDbPolyline
 90
       16
 70
   128
 43
0.0
 10
258.8923223567
 20
44.244151379
 10
258.8963738872
 20
44.2403318591
 10
259.1390783253
 20
43.9165487586
 10
259.2929566339
 20
43.4933539262
 10
259.3512832624
 20
42.9892428724
 10
259.3115093144
 20
42.4262478425
 10
259.1753728534
 20
41.8289742404
 10
258.9488238292
 20
41.2235258759
 10
258.6417636229
 20
40.6363638372
 10
258.2676121369
 20
40.0931496835
 10
257.8427215253
 20
39.6176247677
 10
257.3856616318
 20
39.2305716772
 10
256.9164081282
 20
38.9489063895
 10
256.4554696957
 20
38.7849392307
 10
256.0229914989
 20
38.7458362199
 10
255.7461692692
 20
38.7942638995
  0
LINE
  5
1C6
330
1F
100
AcDbEntity
  8
0
  6
Continuous
 62
     7
370
    25
100
AcDbLine
 10
253.8406687597
 20
38.8086539793
 30
0.0
 11
253.4846190982
 21
38.824819991
 31
0.0
  0
SPLINE
  5
1C7
330
1F
100
AcDbEntity
  8
0
  6
Continuous
 62
     7
370
    25
100
AcDbSpline
210
0.0
220
0.0
230
1.0
 70
     8
 71
     3
 72
     9
 73
     5
 74
     0
 42
0.000000001
 43
0.00000001
 40
0.0
 40
0.0
 40
0.0
 40
0.0
 40
0.6252457831536608
 40
1.0
 40
1.0
 40
1.0
 40
1.0
 10
254.8685424791591
 20
36.8726165399023
 30
0.0
 10
254.8102705389154
 20
36.84596231718513
 30
0.0
 10
254.7170720851011
 20
36.80333232521183
 30
0.0
 10
254.6238574048413
 20
36.7607705005518
 30
0.0
 10
254.588924810342
 20
36.74482027728376
 30
0.0
  0
ARC
  5
1C8
330
1F
100
AcDbEntity
  8
0
  6
Continuous
 62
     7
370
    25
100
AcDbCircle
 10
249.57650579
 20
45.9889960784
 30
0.0
 40
8.239303718156746
100
AcDbArc
 50
313.8762936066
 51
346.1290847729
  0
SPLINE
  5
1C9
330
1F
100
AcDbEntity
  8
0
  6
Continuous
 62
     7
370
    25
100
AcDbSpline
210
0.0
220
0.0
230
1.0
 70
     8
 71
     3
 72
    12
 73
     8
 74
     0
 42
0.000000001
 43
0.00000001
 40
0.0
 40
0.0
 40
0.0
 40
0.0
 40
0.098906008059166
 40
0.3557161396329782
 40
0.6144630590019122
 40
0.8734626516851861
 40
1.0
 40
1.0
 40
1.0
 40
1.0
 10
258.2149571406254
 20
42.71965970369912
 30
0.0
 10
258.1730872822685
 20
42.56965887156517
 30
0.0
 10
258.0225020481261
 20
42.03017984500794
 30
0.0
 10
257.6025501466111
 20
41.07360284841533
 30
0.0
 10
256.873444375947
 20
40.0216823981131
 30
0.0
 10
256.1270800710876
 20
39.30553249813341
 30
0.0
 10
255.6600679339574
 20
39.11258762820151
 30
0.0
 10
255.5067895546915
 20
39.04926105786321
 30
0.0
  0
ARC
  5
1CA
330
1F
100
AcDbEntity
  8
0
  6
Continuous
 62
     7
370
    25
100
AcDbCircle
 10
254.2573834911
 20
43.8101133905
 30
0.0
 40
4.105055229127144
100
AcDbArc
 50
344.5952057138
 51
6.5886559841
  0
LINE
  5
1CB
330
1F
100
AcDbEntity
  8
0
  6
Continuous
 62
     7
370
    25
100
AcDbLine
 10
258.0045837805
 20
47.4741385195
 30
0.0
 11
258.5678729535
 21
46.7426255266
 31
0.0
  0
LINE
  5
1CC
330
1F
100
AcDbEntity
  8
0
  6
Continuous
 62
     7
370
    25
100
AcDbLine
 10
259.021244298
 20
46.1538581517
 30
0.0
 11
259.8297836775
 21
45.1038549617
 31
0.0
  0
LINE
  5
1CD
330
1F
100
AcDbEntity
  8
0
  6
Continuous
 62
     7
370
    25
100
AcDbLine
 10
255.1709632394
 20
37.548524493
 30
0.0
 11
256.394286548
 21
37.4255581304
 31
0.0
  0
ARC
  5
1CE
330
1F
100
AcDbEntity
  8
0
  6
Continuous
 62
     7
370
    25
100
AcDbCircle
 10
255.1132439932
 20
42.8538029919
 30
0.0
 40
7.646338817842516
100
AcDbArc
 50
122.3137063805
 51
157.1417334925
  0
ARC
  5
1CF
330
1F
100
AcDbEntity
  8
0
  6
Continuous
 62
     7
370
    25
100
AcDbCircle
 10
254.253519492
 20
42.9172722352
 30
0.0
 40
6.835028531100726
100
AcDbArc
 50
154.8318709605
 51
178.7185921749
  0
LINE
  5
1D0
330
1F
100
AcDbEntity
  8
0
  6
Continuous
 62
     7
370
    25
100
AcDbLine
 10
260.1951112433
 20
45.9203578253
 30
0.0
 11
260.1211748051
 21
46.2522565295
 31
0.0
  0
LINE
  5
1D1
330
1F
100
AcDbEntity
  8
0
  6
Continuous
 62
     7
370
    25
100
AcDbLine
 10
261.2229849628
 20
43.9843203859
 30
0.0
 11
261.2254805173
 21
44.1722568158
 31
0.0
  0
ARC
  5
1D2
330
1F
100
AcDbEntity
  8
0
  6
Continuous
 62
     7
370
    25
100
AcDbCircle
 10
252.2440729571
 20
44.2104184431
 30
0.0
 40
5.81400963616913
100
AcDbArc
 50
302.960224958
 51
0.1000517838
  0
SPLINE
  5
1D3
330
1F
100
AcDbEntity
  8
0
  6
Continuous
 62
     7
370
    25
100
AcDbSpline
210
0.0
220
0.0
230
1.0
 70
     8
 71
     3
 72
     9
 73
     5
 74
     0
 42
0.000000001
 43
0.00000001
 40
0.0
 40
0.0
 40
0.0
 40
0.0
 40
0.6252460219573287
 40
1.0
 40
1.0
 40
1.0
 40
1.0
 10
256.0289589822278
 20
36.60905526682558
 30
0.0
 10
255.9706870605539
 20
36.58240101953166
 30
0.0
 10
255.8774886720356
 20
36.53977100453297
 30
0.0
 10
255.7842739145796
 20
36.49720934539631
 30
0.0
 10
255.7493413134106
 20
36.48125919432275
 30
0.0
  0
LINE
  5
1D4
330
1F
100
AcDbEntity
  8
0
  6
Continuous
 62
     7
370
    25
100
AcDbLine
 10
261.1031397406
 20
42.2879280862
 30
0.0
 11
261.105635295
 21
42.4758645636
 31
0.0
  0
LINE
  5
1D5
330
1F
100
AcDbEntity
  8
0
  6
Continuous
 62
     7
370
    25
100
AcDbLine
 10
259.7201170838
 20
39.1968886603
 30
0.0
 11
259.619772023
 21
39.1549774641
 31
0.0
  0
ARC
  5
1D6
330
1F
100
AcDbEntity
  8
0
  6
Continuous
 62
     7
370
    25
100
AcDbCircle
 10
252.6378512825
 20
44.2231165142
 30
0.0
 40
8.216666529280536
100
AcDbArc
 50
126.6663985008
 51
173.6613630867
  0
LINE
  5
1D7
330
1F
100
AcDbEntity
  8
0
  6
Continuous
 62
     7
370
    25
100
AcDbLine
 10
245.2361105779
 20
42.1439722422
 30
0.0
 11
245.4868421797
 21
42.0235001387
 31
0.0
  0
LINE
  5
1D8
330
1F
100
AcDbEntity
  8
0
  6
Continuous
 62
     7
370
    25
100
AcDbLine
 10
250.7356635086
 20
51.6705096374
 30
0.0
 11
250.4973998007
 21
51.7860537221
 31
0.0
  0
ARC
  5
1D9
330
1F
100
AcDbEntity
  8
0
  6
Continuous
 62
     7
370
    25
100
AcDbCircle
 10
215.9419851064
 20
53.4566494465
 30
0.0
 40
5.386664939910227
100
AcDbArc
 50
220.6505974364
 51
259.3680023668
  0
ARC
  5
1DA
330
1F
100
AcDbEntity
  8
0
  6
Continuous
 62
     7
370
    25
100
AcDbCircle
 10
226.2918022204
 20
71.3847605944
 30
0.0
 40
5.382877532673244
100
AcDbArc
 50
40.492819469
 51
79.2929753141
  0
SPLINE
  5
1DB
330
1F
100
AcDbEntity
  8
0
  6
Continuous
 62
     7
370
    25
100
AcDbSpline
210
0.0
220
0.0
230
1.0
 70
     8
 71
     3
 72
    25
 73
    21
 74
     0
 42
0.000000001
 43
0.00000001
 40
0.0
 40
0.0
 40
0.0
 40
0.0
 40
0.1249999999999995
 40
0.1249999999999995
 40
0.2499999999999989
 40
0.2499999999999989
 40
0.3749999999999984
 40
0.3749999999999984
 40
0.4999999999999979
 40
0.4999999999999979
 40
0.562499999999998
 40
0.562499999999998
 40
0.624999999999998
 40
0.6874999999999981
 40
0.6874999999999981
 40
0.7499999999999981
 40
0.7499999999999981
 40
0.8749999999999991
 40
0.8749999999999991
 40
1.0
 40
1.0
 40
1.0
 40
1.0
 10
215.1748778451878
 20
72.2225967522944
 30
0.0
 10
215.2040011434488
 20
72.11141123176522
 30
0.0
 10
215.2163901843081
 20
71.99616901933719
 30
0.0
 10
215.2094126992078
 20
71.75707345150138
 30
0.0
 10
215.1893951113558
 20
71.63229948162612
 30
0.0
 10
215.1191729536425
 20
71.3859305724137
 30
0.0
 10
215.0685222990489
 20
71.26171942505258
 30
0.0
 10
214.9386075553937
 20
71.01809092974243
 30
0.0
 10
214.8609066074044
 20
70.90103383468426
 30
0.0
 10
214.7255330251782
 20
70.73237731683423
 30
0.0
 10
214.6768985278712
 20
70.67701029556206
 30
0.0
 10
214.5754591924891
 20
70.57129048416503
 30
0.0
 10
214.4695892097484
 20
70.4701295255446
 30
0.0
 10
214.3549974174209
 20
70.3779552038678
 30
0.0
 10
214.2359147482027
 20
70.29041836112768
 30
0.0
 10
214.1739567351453
 20
70.2489198916155
 30
0.0
 10
213.9860930316247
 20
70.13479956987739
 30
0.0
 10
213.8567155952707
 20
70.0711921387628
 30
0.0
 10
213.5890323422087
 20
69.96992383778857
 30
0.0
 10
213.4531606557436
 20
69.93338292956376
 30
0.0
 10
213.317643389016
 20
69.9122147452137
 30
0.0
  0
LWPOLYLINE
  5
1DC
330
1F
100
AcDbEntity
  8
0
  6
Continuous
 62
     7
370
    25
100
AcDbPolyline
 90
       14
 70
   128
 43
0.0
 10
215.1748779569
 20
72.2225967848
 10
216.1768642918
 20
73.2613241624
 10
217.212727144
 20
74.2054549526
 10
218.2727394818
 20
75.0461236411
 10
219.3469470346
 20
75.7754354421
 10
220.4252626292
 20
76.3865405296
 10
221.4975604853
 20
76.8737029216
 10
222.5537710457
 20
77.2323460993
 10
223.5839760128
 20
77.4591025467
 10
224.5785016969
 20
77.551843305
 10
225.5280086199
 20
77.5096977602
 10
226.4235804185
 20
77.3330600983
 10
227.25680715
 20
77.0235910089
 10
227.6525272033
 20
76.8170475175
  0
LWPOLYLINE
  5
1DD
330
1F
100
AcDbEntity
  8
0
  6
Continuous
 62
     7
370
    25
100
AcDbPolyline
 90
       20
 70
   128
 43
0.0
 10
211.9163058888
 20
49.5581591237
 10
211.8749308545
 20
49.5822978168
 10
211.1599016669
 20
50.0882217836
 10
210.5245622918
 20
50.7151830524
 10
209.9747816776
 20
51.4573863453
 10
209.5156404954
 20
52.3079748521
 10
209.1513810888
 20
53.2590891709
 10
208.8853686202
 20
54.301941077
 10
208.7200614364
 20
55.4268948944
 10
208.6569873605
 20
56.623556485
 10
208.6967278874
 20
57.8808681528
 10
208.8389168663
 20
59.1872132318
 10
209.0822405009
 20
60.5305212909
 10
209.4244498618
 20
61.898380171
 10
209.8623839352
 20
63.2781514655
 10
210.3919953067
 20
64.6570860135
 10
211.0083909905
 20
66.0224427184
 10
211.7058758938
 20
67.3616060352
 10
212.4780048414
 20
68.6622026969
 10
213.3176431622
 20
69.9122142568
  0
LWPOLYLINE
  5
1DE
330
1F
100
AcDbEntity
  8
0
  6
Continuous
 62
     7
370
    25
100
AcDbPolyline
 90
       38
 70
   128
 43
0.0
 10
210.6926710886
 20
50.4307888041
 10
209.8889932492
 20
50.7438787265
 10
209.1521925803
 20
51.1794482304
 10
208.4888064531
 20
51.7336331707
 10
207.9047202799
 20
52.4015162221
 10
207.4051174645
 20
53.1771725122
 10
206.994429353
 20
54.0537198163
 10
206.6763009892
 20
55.023381679
 10
206.4535535777
 20
56.0775539585
 10
206.3281634107
 20
57.2068840115
 10
206.3012447454
 20
58.4013529675
 10
206.3730339993
 20
59.6503618054
 10
206.5428963355
 20
60.9428301175
 10
206.8093236871
 20
62.2672904076
 10
207.1699525378
 20
63.611991084
 10
207.6215823614
 20
64.9650019251
 10
208.1602072316
 20
66.3143186396
 10
208.7810480908
 20
67.6479697085
 10
209.4785968729
 20
68.9541232264
 10
210.246663918
 20
70.221189179
 10
211.0784346076
 20
71.4379270431
 10
211.9665306089
 20
72.593540459
 10
212.9030711198
 20
73.6777772253
 10
213.8797476136
 20
74.6810180758
 10
214.8878944678
 20
75.5943607994
 10
215.9185670014
 20
76.4097025529
 10
216.9626209125
 20
77.1198092928
 10
218.0107930317
 20
77.7183814057
 10
219.0537836403
 20
78.2001065527
 10
220.0823389534
 20
78.5607126086
 10
221.0873335196
 20
78.7969985006
 10
222.059850317
 20
78.9068690397
 10
222.9912610955
 20
78.8893493616
 10
223.8733024386
 20
78.7445938551
 10
224.6981478741
 20
78.4738882468
 10
225.458480314
 20
78.0796328639
 10
226.1475523112
 20
77.5653272294
 10
226.3849312645
 20
77.3437783129
  0
LWPOLYLINE
  5
1DF
330
1F
100
AcDbEntity
  8
0
  6
Continuous
 62
     7
370
    25
100
AcDbPolyline
 90
       12
 70
   128
 43
0.0
 10
213.5122565645
 20
72.3468732654
 10
214.4278356038
 20
73.3213551499
 10
215.3765483221
 20
74.2103303296
 10
216.3494513559
 20
75.005419913
 10
217.3373734438
 20
75.6991286641
 10
218.3310016141
 20
76.2849175708
 10
219.3209693059
 20
76.757263082
 10
220.2979441204
 20
77.1117138482
 10
221.2527166007
 20
77.3449282853
 10
222.176286419
 20
77.4547075989
 10
223.0599471231
 20
77.4400173308
 10
223.3128071407
 20
77.4117598984
  0
SPLINE
  5
1E0
330
1F
100
AcDbEntity
  8
0
  6
Continuous
 62
     7
370
    25
100
AcDbSpline
210
0.0
220
0.0
230
1.0
 70
     8
 71
     3
 72
    26
 73
    22
 74
     0
 42
0.000000001
 43
0.00000001
 40
0.0
 40
0.0
 40
0.0
 40
0.0
 40
0.1250000000000009
 40
0.1250000000000009
 40
0.2500000000000019
 40
0.2500000000000019
 40
0.3125000000000011
 40
0.3125000000000011
 40
0.3750000000000004
 40
0.3750000000000004
 40
0.4375000000000002
 40
0.4375000000000002
 40
0.5000000000000001
 40
0.5000000000000001
 40
0.5625
 40
0.5625
 40
0.6249999999999999
 40
0.6249999999999999
 40
0.7500000000000001
 40
0.7500000000000001
 40
1.0
 40
1.0
 40
1.0
 40
1.0
 10
212.1680633595602
 20
70.67470997916922
 30
0.0
 10
212.1444257633282
 20
70.78428583874222
 30
0.0
 10
212.1268579844465
 20
70.89517509710674
 30
0.0
 10
212.108045401577
 20
71.12050505696968
 30
0.0
 10
212.1068656268096
 20
71.23618197028806
 30
0.0
 10
212.122963630045
 20
71.40753748014762
 30
0.0
 10
212.1312823471452
 20
71.46433599224179
 30
0.0
 10
212.1550394964022
 20
71.57716220463887
 30
0.0
 10
212.1706618754512
 20
71.63361505830503
 30
0.0
 10
212.2095190878482
 20
71.74219817471362
 30
0.0
 10
212.2327450445507
 20
71.79457813493917
 30
0.0
 10
212.287743694029
 20
71.89503491021128
 30
0.0
 10
212.3198219610517
 20
71.94331377798271
 30
0.0
 10
212.3902367095868
 20
72.03101075356646
 30
0.0
 10
212.4288151317134
 20
72.07099988154242
 30
0.0
 10
212.5125233953096
 20
72.14347856565801
 30
0.0
 10
212.5576521052515
 20
72.17581519003463
 30
0.0
 10
212.6969327474416
 20
72.25901495738827
 30
0.0
 10
212.7977218190033
 20
72.29784368002437
 30
0.0
 10
213.100794090236
 20
72.37325996747954
 30
0.0
 10
213.309318180721
 20
72.37312982110879
 30
0.0
 10
213.5122566004114
 20
72.34687359178255
 30
0.0
  0
LWPOLYLINE
  5
1E1
330
1F
100
AcDbEntity
  8
0
  6
Continuous
 62
     7
370
    25
100
AcDbPolyline
 90
       17
 70
   128
 43
0.0
 10
209.2310847306
 20
53.0188586891
 10
209.1706606378
 20
53.0985905279
 10
208.6845026671
 20
53.8685169895
 10
208.2923934133
 20
54.7439108292
 10
207.9983157534
 20
55.7158801511
 10
207.805257504
 20
56.7745508246
 10
207.715179152
 20
57.9091682947
 10
207.7289960744
 20
59.1082068047
 10
207.846568001
 20
60.3594861288
 10
208.0667003322
 20
61.6502949566
 10
208.3871573094
 20
62.9675210265
 10
208.8046830886
 20
64.2977835389
 10
209.315036643
 20
65.6275685157
 10
209.9130332519
 20
66.9433679606
 10
210.5925985005
 20
68.2318150271
 10
211.3468295255
 20
69.479822036
 10
212.1680635029
 20
70.6747097481
  0
LINE
  5
1E2
330
1F
100
AcDbEntity
  8
0
  6
Continuous
 62
     7
370
    25
100
AcDbLine
 10
210.6926710886
 20
50.4307888041
 30
0.0
 11
210.8143063995
 21
50.4882734106
 31
0.0
  0
LWPOLYLINE
  5
1E3
330
1F
100
AcDbEntity
  8
0
  6
Continuous
 62
     7
370
    25
100
AcDbPolyline
 90
       16
 70
   128
 43
0.0
 10
204.4762242554
 20
63.201319069
 10
204.4855373918
 20
63.2441212292
 10
204.8218270961
 20
64.5785944427
 10
205.2491111877
 20
65.9242223328
 10
205.7636339874
 20
67.2691792937
 10
206.3608739286
 20
68.6016462551
 10
207.0355830701
 20
69.9099137216
 10
207.7818312186
 20
71.1824836705
 10
208.5930612464
 20
72.4081729695
 10
209.4621430921
 20
73.5762107112
 10
210.3814399444
 20
74.6763319333
 10
211.3428724499
 20
75.6988686786
 10
212.3379918119
 20
76.6348347797
 10
213.3580532179
 20
77.4760047498
 10
214.3940916545
 20
78.2149864474
 10
215.1179483328
 20
78.6644557253
  0
LWPOLYLINE
  5
1E4
330
1F
100
AcDbEntity
  8
0
  6
Continuous
 62
     7
370
    25
100
AcDbPolyline
 90
       24
 70
   128
 43
0.0
 10
204.0480384979
 20
59.5054389791
 10
204.0966252532
 20
60.7291636049
 10
204.2419568065
 20
61.9982301178
 10
204.4827575571
 20
63.3014867344
 10
204.8169102844
 20
64.6274802267
 10
205.2414791971
 20
65.9645577269
 10
205.7527323233
 20
67.3009689126
 10
206.3461777311
 20
68.6249692362
 10
207.0165990892
 20
69.924922584
 10
207.7581057173
 20
71.1894062154
 10
208.5641806586
 20
72.4073080977
 10
209.4277406087
 20
73.5679238595
 10
210.3411958419
 20
74.6610545042
 10
211.2965193593
 20
75.6770934773
 10
212.2853157062
 20
76.6071127816
 10
213.2988950586
 20
77.442937686
 10
214.3283502727
 20
78.1772239053
 10
215.3646344288
 20
78.8035190955
 10
216.3986406794
 20
79.3163180746
 10
217.4212819335
 20
79.7111149069
 10
218.4235715281
 20
79.9844403484
 10
219.3967007719
 20
80.1338914026
 10
220.3321184645
 20
80.1581566931
 10
221.097369244
 20
80.0791714629
  0
LWPOLYLINE
  5
1E5
330
1F
100
AcDbEntity
  8
0
  6
Continuous
 62
     7
370
    25
100
AcDbPolyline
 90
        3
 70
   128
 43
0.0
 10
204.2004303069
 20
57.4808348187
 10
204.0966252532
 20
58.3378114269
 10
204.0672054358
 20
58.7650146254
  0
SPLINE
  5
1E6
330
1F
100
AcDbEntity
  8
0
  6
Continuous
 62
     7
370
    25
100
AcDbSpline
210
0.0
220
0.0
230
1.0
 70
     8
 71
     3
 72
    10
 73
     6
 74
     0
 42
0.000000001
 43
0.00000001
 40
0.0
 40
0.0
 40
0.0
 40
0.0
 40
0.5
 40
0.5
 40
1.0
 40
1.0
 40
1.0
 40
1.0
 10
212.8947514271916
 20
69.2116566983495
 30
0.0
 10
212.7907869364073
 20
69.28499507141989
 30
0.0
 10
212.7009786599799
 20
69.3722308292133
 30
0.0
 10
212.5489362319812
 20
69.57316137040928
 30
0.0
 10
212.4870306436203
 20
69.68733213660626
 30
0.0
 10
212.4425809390298
 20
69.81034981976636
 30
0.0
  0
SPLINE
  5
1E7
330
1F
100
AcDbEntity
  8
0
  6
Continuous
 62
     7
370
    25
100
AcDbSpline
210
0.0
220
0.0
230
1.0
 70
     8
 71
     3
 72
    14
 73
    10
 74
     0
 42
0.000000001
 43
0.00000001
 40
0.0
 40
0.0
 40
0.0
 40
0.0
 40
0.25
 40
0.25
 40
0.5
 40
0.5
 40
0.75
 40
0.75
 40
1.0
 40
1.0
 40
1.0
 40
1.0
 10
212.4425809390298
 20
69.81034981976634
 30
0.0
 10
212.4198601361647
 20
69.87323123942389
 30
0.0
 10
212.3979456258152
 20
69.9422776688973
 30
0.0
 10
212.3558345717524
 20
70.08993018551608
 30
0.0
 10
212.3363130178394
 20
70.16632997237438
 30
0.0
 10
212.2979667756657
 20
70.32066226376999
 30
0.0
 10
212.2796071827818
 20
70.39761486010164
 30
0.0
 10
212.2376037382002
 20
70.54300502761762
 30
0.0
 10
212.2138274171871
 20
70.60959593381065
 30
0.0
 10
212.185365913085
 20
70.65009154904199
 30
0.0
  0
LINE
  5
1E8
330
1F
100
AcDbEntity
  8
0
  6
Continuous
 62
     7
370
    25
100
AcDbLine
 10
212.1853661013
 20
70.6500919408
 30
0.0
 11
212.1680635029
 21
70.6747097481
 31
0.0
  0
LINE
  5
1E9
330
1F
100
AcDbEntity
  8
0
  6
Continuous
 62
     7
370
    25
100
AcDbLine
 10
213.5122565645
 20
72.3468732654
 30
0.0
 11
213.5295591629
 21
72.322255458
 31
0.0
  0
SPLINE
  5
1EA
330
1F
100
AcDbEntity
  8
0
  6
Continuous
 62
     7
370
    25
100
AcDbSpline
210
0.0
220
0.0
230
1.0
 70
     8
 71
     3
 72
    16
 73
    12
 74
     0
 42
0.000000001
 43
0.00000001
 40
0.0
 40
0.0
 40
0.0
 40
0.0
 40
0.1250000000000001
 40
0.1250000000000001
 40
0.2500000000000003
 40
0.2500000000000003
 40
0.5000000000000002
 40
0.5000000000000002
 40
0.7500000000000001
 40
0.7500000000000001
 40
1.0
 40
1.0
 40
1.0
 40
1.0
 10
213.5295591539361
 20
72.32225516165528
 30
0.0
 10
213.5437115603403
 20
72.30211882584247
 30
0.0
 10
213.565369964814
 20
72.28532140516505
 30
0.0
 10
213.6177878938492
 20
72.25847588383358
 30
0.0
 10
213.6483807729876
 20
72.24825039927259
 30
0.0
 10
213.7474616218451
 20
72.2237499588399
 30
0.0
 10
213.821344159461
 20
72.2154900364384
 30
0.0
 10
213.9744437518523
 20
72.20430406973348
 30
0.0
 10
214.0525277264999
 20
72.20170739798229
 30
0.0
 10
214.211871360242
 20
72.19967839714857
 30
0.0
 10
214.2905242550736
 20
72.20031598581082
 30
0.0
 10
214.3662767228662
 20
72.20340908662585
 30
0.0
  0
SPLINE
  5
1EB
330
1F
100
AcDbEntity
  8
0
  6
Continuous
 62
     7
370
    25
100
AcDbSpline
210
0.0
220
0.0
230
1.0
 70
     8
 71
     3
 72
    10
 73
     6
 74
     0
 42
0.000000001
 43
0.00000001
 40
0.0
 40
0.0
 40
0.0
 40
0.0
 40
0.5
 40
0.5
 40
1.0
 40
1.0
 40
1.0
 40
1.0
 10
214.3662767228662
 20
72.20340908662585
 30
0.0
 10
214.514471062767
 20
72.20946011105961
 30
0.0
 10
214.6566955284976
 20
72.19929788084649
 30
0.0
 10
214.9290869188383
 20
72.1482474449064
 30
0.0
 10
215.0592142487069
 20
72.10688634226186
 30
0.0
 10
215.1772895908922
 20
72.05111247430956
 30
0.0
  0
ARC
  5
1EC
330
1F
100
AcDbEntity
  8
0
  6
Continuous
 62
     7
370
    25
100
AcDbCircle
 10
197.8473295413
 20
67.3150427799
 30
0.0
 40
4.143252031906655
100
AcDbArc
 50
211.7444095219
 51
236.2139194594
  0
SPLINE
  5
1ED
330
1F
100
AcDbEntity
  8
0
  6
Continuous
 62
     7
370
    25
100
AcDbSpline
210
0.0
220
0.0
230
1.0
 70
     8
 71
     3
 72
     8
 73
     4
 74
     0
 42
0.000000001
 43
0.00000001
 40
0.0
 40
0.0
 40
0.0
 40
0.0
 40
1.0
 40
1.0
 40
1.0
 40
1.0
 10
195.7543359217554
 20
64.2104080550709
 30
0.0
 10
195.2775626299313
 20
64.51850086300355
 30
0.0
 10
194.8007602530864
 20
64.8267303085763
 30
0.0
 10
194.3239278085607
 20
65.13509546479621
 30
0.0
  0
SPLINE
  5
1EE
330
1F
100
AcDbEntity
  8
0
  6
Continuous
 62
     7
370
    25
100
AcDbSpline
210
0.0
220
0.0
230
1.0
 70
     8
 71
     3
 72
    23
 73
    19
 74
     0
 42
0.000000001
 43
0.00000001
 40
0.0
 40
0.0
 40
0.0
 40
0.0
 40
0.0521036415657496
 40
0.1035646240894647
 40
0.1544751946695722
 40
0.2049306267426104
 40
0.2550287880794624
 40
0.3048696389093463
 40
0.3545546704567462
 40
0.4041862979491372
 40
0.4538672252107995
 40
0.5036997999421131
 40
0.5901870230736833
 40
0.6742716378214739
 40
0.7565997087206143
 40
0.8378563983706104
 40
0.9187511781357851
 40
1.0
 40
1.0
 40
1.0
 40
1.0
 10
196.6349007252971
 20
64.03567735695081
 30
0.0
 10
196.6296317863574
 20
64.02575589471607
 30
0.0
 10
196.6191588968578
 20
64.00603534398525
 30
0.0
 10
196.599912601096
 20
63.98146751503322
 30
0.0
 10
196.578116860764
 20
63.96077893277412
 30
0.0
 10
196.5534655695594
 20
63.94424799747721
 30
0.0
 10
196.5259690550206
 20
63.93173049790103
 30
0.0
 10
196.495558001013
 20
63.9231958740786
 30
0.0
 10
196.46218762924
 20
63.91858600143044
 30
0.0
 10
196.4258117409675
 20
63.91785125829384
 30
0.0
 10
196.3863833693775
 20
63.92094634084501
 30
0.0
 10
196.3335349778274
 20
63.92948211632364
 30
0.0
 10
196.2649959840577
 20
63.94707855517002
 30
0.0
 10
196.1772747521042
 20
63.9787151632554
 30
0.0
 10
196.0825438326105
 20
64.02089482058794
 30
0.0
 10
195.9805095852802
 20
64.07363125631515
 30
0.0
 10
195.8715956720903
 20
64.13594781222656
 30
0.0
 10
195.7934793611035
 20
64.18555187047818
 30
0.0
 10
195.7543359217554
 20
64.2104080550709
 30
0.0
  0
SPLINE
  5
1EF
330
1F
100
AcDbEntity
  8
0
  6
Continuous
 62
     7
370
    25
100
AcDbSpline
210
0.0
220
0.0
230
1.0
 70
     8
 71
     3
 72
     8
 73
     4
 74
     0
 42
0.000000001
 43
0.00000001
 40
0.0
 40
0.0
 40
0.0
 40
0.0
 40
1.0
 40
1.0
 40
1.0
 40
1.0
 10
198.1084037517493
 20
63.08835722039564
 30
0.0
 10
197.6170364397084
 20
63.40423184036278
 30
0.0
 10
197.1256502397827
 20
63.72021786165192
 30
0.0
 10
196.6342445296393
 20
64.03631474249426
 30
0.0
  0
SPLINE
  5
1F0
330
1F
100
AcDbEntity
  8
0
  6
Continuous
 62
     7
370
    25
100
AcDbSpline
210
0.0
220
0.0
230
1.0
 70
     8
 71
     3
 72
    18
 73
    14
 74
     0
 42
0.000000001
 43
0.00000001
 40
0.0
 40
0.0
 40
0.0
 40
0.0
 40
0.0923824559397063
 40
0.1844689291547905
 40
0.2764953615917009
 40
0.3686975365456862
 40
0.4613092839965496
 40
0.5545607518407292
 40
0.6486768051507776
 40
0.7438756050126394
 40
0.8403674044294275
 40
0.9203921078117997
 40
1.0
 40
1.0
 40
1.0
 40
1.0
 10
198.9219678709505
 20
62.44404949585027
 30
0.0
 10
198.8984003568278
 20
62.45932347011559
 30
0.0
 10
198.851340836177
 20
62.48982248259583
 30
0.0
 10
198.778943048215
 20
62.53945505520625
 30
0.0
 10
198.70546083932
 20
62.59178459787443
 30
0.0
 10
198.6307613915752
 20
62.64710228358214
 30
0.0
 10
198.5549006018071
 20
62.70534059869571
 30
0.0
 10
198.4778893210201
 20
62.76653351033347
 30
0.0
 10
198.3997571889386
 20
62.83069722691535
 30
0.0
 10
198.320530954294
 20
62.89784618678299
 30
0.0
 10
198.2452344698833
 20
62.96369709652959
 30
0.0
 10
198.1744071617606
 20
63.02722868333821
 30
0.0
 10
198.1305027909532
 20
63.06788942835184
 30
0.0
 10
198.1086079241478
 20
63.08816671692043
 30
0.0
  0
LINE
  5
1F1
330
1F
100
AcDbEntity
  8
0
  6
Continuous
 62
     7
370
    25
100
AcDbLine
 10
199.5616744028
 20
62.0322956893
 30
0.0
 11
198.9219675605
 21
62.444049357
 31
0.0
  0
SPLINE
  5
1F2
330
1F
100
AcDbEntity
  8
0
  6
Continuous
 62
     7
370
    25
100
AcDbSpline
210
0.0
220
0.0
230
1.0
 70
     8
 71
     3
 72
    25
 73
    21
 74
     0
 42
0.000000001
 43
0.00000001
 40
0.0
 40
0.0
 40
0.0
 40
0.0
 40
0.0280105225420187
 40
0.0559601148849777
 40
0.0839014045028994
 40
0.1118870776770715
 40
0.1399695827573283
 40
0.1682008401725729
 40
0.1966319670413114
 40
0.2253130233134836
 40
0.2542927850735084
 40
0.3799486436547419
 40
0.5057850221666126
 40
0.6313085886313086
 40
0.7532068238012242
 40
0.8039473267953926
 40
0.8535894438551538
 40
0.9025339722391175
 40
0.9511970353789154
 40
1.0
 40
1.0
 40
1.0
 40
1.0
 10
200.6640399959407
 20
62.74820167972739
 30
0.0
 10
200.6689881034712
 20
62.72057781862053
 30
0.0
 10
200.6788735551065
 20
62.6653901855163
 30
0.0
 10
200.6904092047094
 20
62.58622947814776
 30
0.0
 10
200.6994823265219
 20
62.50992613905028
 30
0.0
 10
200.7058511352347
 20
62.43673037808109
 30
0.0
 10
200.7095673740448
 20
62.36658290986769
 30
0.0
 10
200.7106039950277
 20
62.29950662335443
 30
0.0
 10
200.708955519801
 20
62.23550271412707
 30
0.0
 10
200.7046093679324
 20
62.17457386085893
 30
0.0
 10
200.6897530433666
 20
62.0526857393621
 30
0.0
 10
200.6446647863004
 20
61.89778486770745
 30
0.0
 10
200.5313052658099
 20
61.76684174936454
 30
0.0
 10
200.3694810438162
 20
61.71096534855096
 30
0.0
 10
200.1954658246831
 20
61.73083940093541
 30
0.0
 10
200.044104903996
 20
61.77815720329068
 30
0.0
 10
199.9337046712978
 20
61.82307262702594
 30
0.0
 10
199.8165451758491
 20
61.8804483583171
 30
0.0
 10
199.6929795089149
 20
61.94912542277012
 30
0.0
 10
199.6054844588196
 20
62.00454566872348
 30
0.0
 10
199.5616741391378
 20
62.03229556645389
 30
0.0
  0
ARC
  5
1F3
330
1F
100
AcDbEntity
  8
0
  6
Continuous
 62
     7
370
    25
100
AcDbCircle
 10
211.8570611603
 20
64.5342520483
 30
0.0
 40
11.33462419218323
100
AcDbArc
 50
170.9338462887
 51
189.0661537113
  0
SPLINE
  5
1F4
330
1F
100
AcDbEntity
  8
0
  6
Continuous
 62
     7
370
    25
100
AcDbSpline
210
0.0
220
0.0
230
1.0
 70
     8
 71
     3
 72
    26
 73
    22
 74
     0
 42
0.000000001
 43
0.00000001
 40
0.0
 40
0.0
 40
0.0
 40
0.0
 40
0.0241259796962594
 40
0.0482159912271135
 40
0.0723203915121642
 40
0.0964895678708031
 40
0.1207736231960634
 40
0.1452220711240066
 40
0.1698835501655269
 40
0.1948055644470485
 40
0.2200342569516493
 40
0.2456142191611198
 40
0.3690971486898425
 40
0.494069876948511
 40
0.6192566784753775
 40
0.7454656653602862
 40
0.7971495824708209
 40
0.8481710308397283
 40
0.8988013269227126
 40
0.9493179290486775
 40
1.0
 40
1.0
 40
1.0
 40
1.0
 10
199.5616741391378
 20
69.79640595781844
 30
0.0
 10
199.5833923685138
 20
69.78207443442341
 30
0.0
 10
199.6267964486897
 20
69.75343275375448
 30
0.0
 10
199.6901035660509
 20
69.70544045582581
 30
0.0
 10
199.7519651337686
 20
69.65384125794021
 30
0.0
 10
199.8122696489051
 20
69.59826646506706
 30
0.0
 10
199.8710595008449
 20
69.53881122443991
 30
0.0
 10
199.9283400192747
 20
69.4754469156025
 30
0.0
 10
199.984131158601
 20
69.40817813763852
 30
0.0
 10
200.038452406023
 20
69.33700402367829
 30
0.0
 10
200.0913313812322
 20
69.26191488392985
 30
0.0
 10
200.2081262059686
 20
69.08266043522845
 30
0.0
 10
200.3699957638952
 20
68.77235496338497
 30
0.0
 10
200.5331806714267
 20
68.3024411752543
 30
0.0
 10
200.6446920765997
 20
67.80347814134379
 30
0.0
 10
200.6918259147085
 20
67.39459446828761
 30
0.0
 10
200.706944854242
 20
67.09032251169668
 30
0.0
 10
200.7088979932246
 20
66.88907327000231
 30
0.0
 10
200.7024199675855
 20
66.6934133502797
 30
0.0
 10
200.6882930448981
 20
66.50277706238127
 30
0.0
 10
200.6721331532129
 20
66.38119378864151
 30
0.0
 10
200.6640399959407
 20
66.32030275204197
 30
0.0
  0
LINE
  5
1F5
330
1F
100
AcDbEntity
  8
0
  6
Continuous
 62
     7
370
    25
100
AcDbLine
 10
198.9219675605
 20
70.2093808081
 30
0.0
 11
199.5616744028
 21
69.7964058371
 31
0.0
  0
SPLINE
  5
1F6
330
1F
100
AcDbEntity
  8
0
  6
Continuous
 62
     7
370
    25
100
AcDbSpline
210
0.0
220
0.0
230
1.0
 70
     8
 71
     3
 72
    14
 73
    10
 74
     0
 42
0.000000001
 43
0.00000001
 40
0.0
 40
0.0
 40
0.0
 40
0.0
 40
0.0789261963139331
 40
0.1582328720497685
 40
0.330847539445164
 40
0.5000195457459038
 40
0.6670357883429843
 40
0.833239519356477
 40
1.0
 40
1.0
 40
1.0
 40
1.0
 10
198.1080151551012
 20
70.4179632411005
 30
0.0
 10
198.1297320364361
 20
70.4195664049592
 30
0.0
 10
198.1732704896502
 20
70.42278046104673
 30
0.0
 10
198.2647956082956
 20
70.42360150111764
 30
0.0
 10
198.3817039417252
 20
70.41566551933818
 30
0.0
 10
198.5225242801044
 20
70.38938985046224
 30
0.0
 10
198.6597365879171
 20
70.34643225192983
 30
0.0
 10
198.7936672623373
 20
70.28807512711768
 30
0.0
 10
198.8791533542999
 20
70.23564158096531
 30
0.0
 10
198.9219678709505
 20
70.20938097080933
 30
0.0
  0
SPLINE
  5
1F7
330
1F
100
AcDbEntity
  8
0
  6
Continuous
 62
     7
370
    25
100
AcDbSpline
210
0.0
220
0.0
230
1.0
 70
     8
 71
     3
 72
     8
 73
     4
 74
     0
 42
0.000000001
 43
0.00000001
 40
0.0
 40
0.0
 40
0.0
 40
0.0
 40
1.0
 40
1.0
 40
1.0
 40
1.0
 10
196.3057115720948
 20
71.58035465251575
 30
0.0
 10
196.9064697957922
 20
71.19308716935605
 30
0.0
 10
197.5071986586538
 20
70.80561981943194
 30
0.0
 10
198.1078993030019
 20
70.41795292684152
 30
0.0
  0
SPLINE
  5
1F8
330
1F
100
AcDbEntity
  8
0
  6
Continuous
 62
     7
370
    25
100
AcDbSpline
210
0.0
220
0.0
230
1.0
 70
     8
 71
     3
 72
    13
 73
     9
 74
     0
 42
0.000000001
 43
0.00000001
 40
0.0
 40
0.0
 40
0.0
 40
0.0
 40
0.1667030582307787
 40
0.3329480818052815
 40
0.4990671507274536
 40
0.6653938523718171
 40
0.8322612710549965
 40
1.0
 40
1.0
 40
1.0
 40
1.0
 10
195.9638830370604
 20
71.88141943160153
 30
0.0
 10
195.9841842195004
 20
71.8678543249223
 30
0.0
 10
196.024730804689
 20
71.84076138315946
 30
0.0
 10
196.0838804416767
 20
71.79556681015174
 30
0.0
 10
196.1416519865791
 20
71.7471556616688
 30
0.0
 10
196.1979017240388
 20
71.69512054689834
 30
0.0
 10
196.2528289327849
 20
71.63982257968932
 30
0.0
 10
196.2880496423755
 20
71.60020532452893
 30
0.0
 10
196.3057058543164
 20
71.580345115528
 30
0.0
  0
SPLINE
  5
1F9
330
1F
100
AcDbEntity
  8
0
  6
Continuous
 62
     7
370
    25
100
AcDbSpline
210
0.0
220
0.0
230
1.0
 70
     8
 71
     3
 72
     8
 73
     4
 74
     0
 42
0.000000001
 43
0.00000001
 40
0.0
 40
0.0
 40
0.0
 40
0.0
 40
1.0
 40
1.0
 40
1.0
 40
1.0
 10
194.0199025212697
 20
73.13614128398099
 30
0.0
 10
194.66793259367
 20
72.71814596809625
 30
0.0
 10
195.3159255707718
 20
72.29990520567861
 30
0.0
 10
195.9638830370604
 20
71.88141943160153
 30
0.0
  0
LWPOLYLINE
  5
1FA
330
1F
100
AcDbEntity
  8
0
  6
Continuous
 62
     7
370
    25
100
AcDbPolyline
 90
       19
 70
   128
 43
0.0
 10
194.0199031716
 20
73.1361413345
 10
194.4227954332
 20
74.3031053199
 10
194.9127505715
 20
75.4631097447
 10
195.4837508068
 20
76.6019071407
 10
196.1287819815
 20
77.7055098315
 10
196.8399224637
 20
78.76036445
 10
197.6084376483
 20
79.7535140986
 10
198.424888617
 20
80.6727606974
 10
199.2792475478
 20
81.50681488
 10
200.1610208632
 20
82.245430964
 10
201.0593785109
 20
82.8795386175
 10
201.9632866597
 20
83.4013483615
 10
202.8616433195
 20
83.8044519137
 10
203.7434147417
 20
84.0838986505
 10
204.5977707091
 20
84.2362554565
 10
205.4142180557
 20
84.2596518647
 10
206.1827286305
 20
84.1537999351
 10
206.8938638444
 20
83.9199999944
 10
207.0696408981
 20
83.8378882997
  0
SPLINE
  5
1FB
330
1F
100
AcDbEntity
  8
0
  6
Continuous
 62
     7
370
    25
100
AcDbSpline
210
0.0
220
0.0
230
1.0
 70
    11
 71
     3
 72
    39
 73
    35
 74
     0
 42
0.000000001
 43
0.00000001
 40
0.0
 40
0.0
 40
0.0
 40
0.0
 40
0.0310664058351138
 40
0.0621048158426128
 40
0.0931361551798068
 40
0.1235538293503658
 40
0.1538561545811087
 40
0.1850588072749145
 40
0.2160250992947247
 40
0.2471867223797483
 40
0.2784462884303736
 40
0.3100516090231184
 40
0.3419834369138907
 40
0.3734259894013173
 40
0.4048604886784725
 40
0.4368740651833282
 40
0.4685120685924569
 40
0.4998055358633181
 40
0.5309508213225923
 40
0.561864978443802
 40
0.5930416446592409
 40
0.6233742450133358
 40
0.6540913579076673
 40
0.6849496782718484
 40
0.7158160645167636
 40
0.7471731804043453
 40
0.7784514311865116
 40
0.8101295911560921
 40
0.8419598919688329
 40
0.8735175891922246
 40
0.9050808037885637
 40
0.9370235169792489
 40
0.9687441590031279
 40
0.9999999999999999
 40
0.9999999999999999
 40
0.9999999999999999
 40
0.9999999999999999
 10
207.228488002475
 20
82.14133165932242
 30
0.0
 10
207.4913736226755
 20
82.11279717203192
 30
0.0
 10
208.018262233159
 20
82.02685468371014
 30
0.0
 10
208.7822743022359
 20
81.82647956363736
 30
0.0
 10
209.489424490284
 20
81.5794774574182
 30
0.0
 10
210.1023355548806
 20
81.3014955792649
 30
0.0
 10
210.5994668805509
 20
81.0073618819365
 30
0.0
 10
210.9586586016237
 20
80.70585535374404
 30
0.0
 10
211.1803778703804
 20
80.39885784884218
 30
0.0
 10
211.2456297477641
 20
80.08835258744053
 30
0.0
 10
211.1587825366505
 20
79.76920810269192
 30
0.0
 10
210.9164369488919
 20
79.43988813711981
 30
0.0
 10
210.5364990861652
 20
79.10094741556195
 30
0.0
 10
210.022693133007
 20
78.76310895115189
 30
0.0
 10
209.3968023220961
 20
78.43721104984199
 30
0.0
 10
208.6833313356067
 20
78.1405641566022
 30
0.0
 10
207.9194288593413
 20
77.88446084816314
 30
0.0
 10
207.1336357764393
 20
77.69543328017367
 30
0.0
 10
206.352098321398
 20
77.58725735812045
 30
0.0
 10
205.5959853366443
 20
77.57959347475055
 30
0.0
 10
204.8936207502493
 20
77.6775155101348
 30
0.0
 10
204.2746004032057
 20
77.89916394364084
 30
0.0
 10
203.7655431381934
 20
78.23503203055249
 30
0.0
 10
203.3925995447593
 20
78.6748425967338
 30
0.0
 10
203.1639975935154
 20
79.18591723725548
 30
0.0
 10
203.0951512867934
 20
79.73710232501723
 30
0.0
 10
203.1797677000179
 20
80.2947742533286
 30
0.0
 10
203.4228764899534
 20
80.82485439424764
 30
0.0
 10
203.8050063327714
 20
81.29737874336092
 30
0.0
 10
204.3211419071812
 20
81.68350025425387
 30
0.0
 10
204.9481197676834
 20
81.96712444158682
 30
0.0
 10
205.6640272000474
 20
82.13686166031364
 30
0.0
 10
206.4324705922332
 20
82.19840049502594
 30
0.0
 10
206.963999371606
 20
82.17004014276957
 30
0.0
 10
207.228488002475
 20
82.14133165932243
 30
0.0
  0
LINE
  5
1FC
330
1F
100
AcDbEntity
  8
0
  6
Continuous
 62
     7
370
    25
100
AcDbLine
 10
198.0039505894
 20
65.7022050419
 30
0.0
 11
198.314702267
 21
65.5358243414
 31
0.0
  0
LINE
  5
1FD
330
1F
100
AcDbEntity
  8
0
  6
Continuous
 62
     7
370
    25
100
AcDbLine
 10
197.0169925695
 20
66.2719637792
 30
0.0
 11
198.0039505894
 21
65.7022050419
 31
0.0
  0
ARC
  5
1FE
330
1F
100
AcDbEntity
  8
0
  6
Continuous
 62
     7
370
    25
100
AcDbCircle
 10
199.2379624803
 20
69.8654445432
 30
0.0
 40
4.484274790566221
100
AcDbArc
 50
267.6840627222
 51
286.9866336569
  0
SPLINE
  5
1FF
330
1F
100
AcDbEntity
  8
0
  6
Continuous
 62
     7
370
    25
100
AcDbSpline
210
0.0
220
0.0
230
1.0
 70
     8
 71
     3
 72
    12
 73
     8
 74
     0
 42
0.000000001
 43
0.00000001
 40
0.0
 40
0.0
 40
0.0
 40
0.0
 40
0.1523598330305601
 40
0.3826801306822303
 40
0.6138741683107227
 40
0.8254372814239916
 40
1.0
 40
1.0
 40
1.0
 40
1.0
 10
208.5669939607744
 20
79.1388359439867
 30
0.0
 10
208.3620266223926
 20
79.25098234371944
 30
0.0
 10
207.847212932476
 20
79.53265893821049
 30
0.0
 10
206.8341376051868
 20
79.94882491067757
 30
0.0
 10
205.6267588242277
 20
80.23206653862509
 30
0.0
 10
204.5244283388767
 20
80.26301338136588
 30
0.0
 10
203.9594893063458
 20
80.0552860040442
 30
0.0
 10
203.7040873486035
 20
79.96137502287701
 30
0.0
  0
SPLINE
  5
200
330
1F
100
AcDbEntity
  8
0
  6
Continuous
 62
     7
370
    25
100
AcDbSpline
210
0.0
220
0.0
230
1.0
 70
     8
 71
     3
 72
    10
 73
     6
 74
     0
 42
0.000000001
 43
0.00000001
 40
0.0
 40
0.0
 40
0.0
 40
0.0
 40
0.3798174073072795
 40
0.9603711649033085
 40
1.0
 40
1.0
 40
1.0
 40
1.0
 10
209.7068740826339
 20
78.61060901646822
 30
0.0
 10
209.5772214653855
 20
78.68093757830557
 30
0.0
 10
209.2493938496311
 20
78.85876387472669
 30
0.0
 10
208.8414653046209
 20
79.0318167251291
 30
0.0
 10
208.584832523189
 20
79.13102215737742
 30
0.0
 10
208.5684340329773
 20
79.13736125131778
 30
0.0
  0
SPLINE
  5
201
330
1F
100
AcDbEntity
  8
0
  6
Continuous
 62
     7
370
    25
100
AcDbSpline
210
0.0
220
0.0
230
1.0
 70
     8
 71
     3
 72
    24
 73
    20
 74
     0
 42
0.000000001
 43
0.00000001
 40
0.0
 40
0.0
 40
0.0
 40
0.0
 40
0.0618858212107145
 40
0.1150115607194259
 40
0.1593831488268445
 40
0.2428114970815824
 40
0.318331853291959
 40
0.3935543804326023
 40
0.4204843226990471
 40
0.4483397435477174
 40
0.4771286702554668
 40
0.5451537905345539
 40
0.6363475754294583
 40
0.6968782859867285
 40
0.7498596693403015
 40
0.7959701295389731
 40
0.8771179302751783
 40
0.9543004207779655
 40
1.0
 40
1.0
 40
1.0
 40
1.0
 10
207.1736094354728
 20
81.56747375936565
 30
0.0
 10
206.9896526461366
 20
81.58636832433162
 30
0.0
 10
206.6477785781744
 20
81.62148288471612
 30
0.0
 10
206.1835606051976
 20
81.61499233632885
 30
0.0
 10
205.6740989929246
 20
81.56726814353155
 30
0.0
 10
205.13500389355
 20
81.44265154536463
 30
0.0
 10
204.5921659088264
 20
81.20016126142163
 30
0.0
 10
204.2517728933313
 20
80.94278851079572
 30
0.0
 10
204.0451461847803
 20
80.72798141029689
 30
0.0
 10
203.9271621285693
 20
80.58147805899792
 30
0.0
 10
203.7749917243782
 20
80.35172723477746
 30
0.0
 10
203.6083110857986
 20
79.97878453935046
 30
0.0
 10
203.5399495049613
 20
79.51622548665758
 30
0.0
 10
203.5903049685808
 20
79.08789278845573
 30
0.0
 10
203.695734112096
 20
78.76796589481135
 30
0.0
 10
203.877933438782
 20
78.42750037961815
 30
0.0
 10
204.1788118638525
 20
78.09155212276308
 30
0.0
 10
204.5684967584509
 20
77.81849282204806
 30
0.0
 10
204.8614157146454
 20
77.72453775112076
 30
0.0
 10
204.9703516487017
 20
77.6895960609558
 30
0.0
  0
SPLINE
  5
202
330
1F
100
AcDbEntity
  8
0
  6
Continuous
 62
     7
370
    25
100
AcDbSpline
210
0.0
220
0.0
230
1.0
 70
     8
 71
     3
 72
    22
 73
    18
 74
     0
 42
0.000000001
 43
0.00000001
 40
0.0
 40
0.0
 40
0.0
 40
0.0
 40
0.0230829230551597
 40
0.0814197416897967
 40
0.1466435060153073
 40
0.2187937863059883
 40
0.2807407147919538
 40
0.334043885361729
 40
0.3787027517769348
 40
0.4147200067027929
 40
0.517881604567259
 40
0.6098460221494381
 40
0.7031822330296847
 40
0.7529336067168404
 40
0.8047834091159894
 40
0.8938685125132421
 40
1.0
 40
1.0
 40
1.0
 40
1.0
 10
210.4749262281697
 20
79.08672561877991
 30
0.0
 10
210.4993296312563
 20
79.10972477220729
 30
0.0
 10
210.5854070648166
 20
79.19084903565803
 30
0.0
 10
210.6931014820147
 20
79.33414471764308
 30
0.0
 10
210.7902720833952
 20
79.52291922048461
 30
0.0
 10
210.8213229835841
 20
79.70888467204021
 30
0.0
 10
210.7919700619423
 20
79.88069935862808
 30
0.0
 10
210.7234639273375
 20
80.02750528646249
 30
0.0
 10
210.6356535415085
 20
80.14871634333194
 30
0.0
 10
210.4813617526272
 20
80.31429945252948
 30
0.0
 10
210.2135358060965
 20
80.52446371703658
 30
0.0
 10
209.7619655509242
 20
80.77990752059802
 30
0.0
 10
209.3144029416096
 20
80.98654421890365
 30
0.0
 10
208.9055091688462
 20
81.14504843531597
 30
0.0
 10
208.4834295700103
 20
81.28756518330871
 30
0.0
 10
207.9051169521917
 20
81.45082175213795
 30
0.0
 10
207.4312383584009
 20
81.52639020206433
 30
0.0
 10
207.1736094354728
 20
81.56747375936565
 30
0.0
  0
LINE
  5
203
330
1F
100
AcDbEntity
  8
0
  6
Continuous
 62
     7
370
    25
100
AcDbLine
 10
200.6640397136
 20
66.3203025713
 30
0.0
 11
200.6588016506
 21
66.6163859942
 31
0.0
  0
LINE
  5
204
330
1F
100
AcDbEntity
  8
0
  6
Continuous
 62
     7
370
    25
100
AcDbLine
 10
200.6588016506
 20
66.6163859942
 30
0.0
 11
200.701901413
 21
67.2680476909
 31
0.0
  0
LINE
  5
205
330
1F
100
AcDbEntity
  8
0
  6
Continuous
 62
     7
370
    25
100
AcDbLine
 10
200.2717170913
 20
68.9995086977
 30
0.0
 11
199.86783833
 21
69.4256707811
 31
0.0
  0
SPLINE
  5
206
330
1F
100
AcDbEntity
  8
0
  6
Continuous
 62
     7
370
    25
100
AcDbSpline
210
0.0
220
0.0
230
1.0
 70
     8
 71
     3
 72
    19
 73
    15
 74
     0
 42
0.000000001
 43
0.00000001
 40
0.0
 40
0.0
 40
0.0
 40
0.0
 40
0.0210492621018804
 40
0.1455865440207667
 40
0.2712169722633744
 40
0.3929514297049947
 40
0.5136082229787104
 40
0.6366369099308349
 40
0.699422462668311
 40
0.7643939711952468
 40
0.8122544601557282
 40
0.8606584764820763
 40
0.9188817427801165
 40
1.0
 40
1.0
 40
1.0
 40
1.0
 10
203.5843648831304
 20
79.31272381190784
 30
0.0
 10
203.5768963081446
 20
79.36748415881326
 30
0.0
 10
203.5252401495729
 20
79.74623233614838
 30
0.0
 10
203.7680110442325
 20
80.35638324496259
 30
0.0
 10
204.3523415116475
 20
81.04575694820214
 30
0.0
 10
205.2584678792877
 20
81.46305649843418
 30
0.0
 10
206.3328140077498
 20
81.58348245612285
 30
0.0
 10
207.2867478768455
 20
81.42278291253524
 30
0.0
 10
208.0214104194147
 20
81.12541681369345
 30
0.0
 10
208.4942136588871
 20
80.82775873628874
 30
0.0
 10
208.8511838290065
 20
80.4568469315114
 30
0.0
 10
209.0460319705147
 20
80.02452563620379
 30
0.0
 10
209.0750610007589
 20
79.52158430497866
 30
0.0
 10
209.0126873991386
 20
79.18783929240347
 30
0.0
 10
208.9763763431645
 20
78.99354822185661
 30
0.0
  0
SPLINE
  5
207
330
1F
100
AcDbEntity
  8
0
  6
Continuous
 62
     7
370
    25
100
AcDbSpline
210
0.0
220
0.0
230
1.0
 70
     8
 71
     3
 72
    10
 73
     6
 74
     0
 42
0.000000001
 43
0.00000001
 40
0.0
 40
0.0
 40
0.0
 40
0.0
 40
0.2952118939789638
 40
0.9806889752106586
 40
1.0
 40
1.0
 40
1.0
 40
1.0
 10
208.9791041991527
 20
78.99230966843422
 30
0.0
 10
209.0619278240295
 20
78.95354449064077
 30
0.0
 10
209.3370665208783
 20
78.8247672182493
 30
0.0
 10
209.6119978349809
 20
78.68358221838992
 30
0.0
 10
209.7604628996553
 20
78.58959462399272
 30
0.0
 10
209.7645308067607
 20
78.58701938648547
 30
0.0
  0
ARC
  5
208
330
1F
100
AcDbEntity
  8
0
  6
Continuous
 62
     7
370
    25
100
AcDbCircle
 10
212.9892127645
 20
64.7790906761
 30
0.0
 40
12.46654291791881
100
AcDbArc
 50
171.5249863735
 51
179.8211981812
  0
SPLINE
  5
209
330
1F
100
AcDbEntity
  8
0
  6
Continuous
 62
     7
370
    25
100
AcDbSpline
210
0.0
220
0.0
230
1.0
 70
     8
 71
     3
 72
    14
 73
    10
 74
     0
 42
0.000000001
 43
0.00000001
 40
0.0
 40
0.0
 40
0.0
 40
0.0
 40
0.0003951393068452
 40
0.0003951393068452
 40
0.0003951393068452
 40
0.0008163352168663
 40
0.0008163352168663
 40
0.0008163352168663
 40
0.0012378579337219
 40
0.0012378579337219
 40
0.0012378579337219
 40
0.0012378579337219
 10
208.5710265363141
 20
79.13755699060236
 30
0.0
 10
208.6164883505454
 20
79.12312012797733
 30
0.0
 10
208.6613759551664
 20
79.10825426741172
 30
0.0
 10
208.7056596478415
 20
79.09297047980625
 30
0.0
 10
208.7528629400809
 20
79.07667904046856
 30
0.0
 10
208.7993887531401
 20
79.05990956238465
 30
0.0
 10
208.8451996623817
 20
79.04268075158936
 30
0.0
 10
208.8910460503708
 20
79.02543859775771
 30
0.0
 10
208.9361852859432
 20
79.00773289155322
 30
0.0
 10
208.9805788439856
 20
78.98959003486243
 30
0.0
  0
LINE
  5
20A
330
1F
100
AcDbEntity
  8
0
  6
Continuous
 62
     7
370
    25
100
AcDbLine
 10
199.86783833
 20
69.4256707811
 30
0.0
 11
199.2279016556
 21
69.8379024213
 31
0.0
  0
LINE
  5
20B
330
1F
100
AcDbEntity
  8
0
  6
Continuous
 62
     7
370
    25
100
AcDbLine
 10
198.9219675605
 20
70.2093808081
 30
0.0
 11
199.2279016556
 21
69.8379024213
 31
0.0
  0
SPLINE
  5
20C
330
1F
100
AcDbEntity
  8
0
  6
Continuous
 62
     7
370
    25
100
AcDbSpline
210
0.0
220
0.0
230
1.0
 70
     8
 71
     3
 72
    13
 73
     9
 74
     0
 42
0.000000001
 43
0.00000001
 40
0.0
 40
0.0
 40
0.0
 40
0.0
 40
0.1618542298835031
 40
0.325485884152754
 40
0.4910085196577332
 40
0.6585318472764572
 40
0.8281616954187944
 40
1.0
 40
1.0
 40
1.0
 40
1.0
 10
199.2279020672925
 20
69.83790242517246
 30
0.0
 10
199.2083246752753
 20
69.85046540220549
 30
0.0
 10
199.1689548994299
 20
69.87572931832389
 30
0.0
 10
199.1074189596599
 20
69.90842301523858
 30
0.0
 10
199.0438623004107
 20
69.93736908894546
 30
0.0
 10
198.9782441977537
 20
69.96188145641119
 30
0.0
 10
198.9108169286986
 20
69.9823165197649
 30
0.0
 10
198.8649323284998
 20
69.99191317475479
 30
0.0
 10
198.8418416483246
 20
69.99674253558965
 30
0.0
  0
SPLINE
  5
20D
330
1F
100
AcDbEntity
  8
0
  6
Continuous
 62
     7
370
    25
100
AcDbSpline
210
0.0
220
0.0
230
1.0
 70
     8
 71
     3
 72
     9
 73
     5
 74
     0
 42
0.000000001
 43
0.00000001
 40
0.0
 40
0.0
 40
0.0
 40
0.0
 40
0.4907282259506008
 40
1.0
 40
1.0
 40
1.0
 40
1.0
 10
198.8418358210326
 20
69.99671453855863
 30
0.0
 10
198.8177422985548
 20
70.00481007077676
 30
0.0
 10
198.7686448119956
 20
70.02130704769804
 30
0.0
 10
198.7179441181754
 20
70.03610071671427
 30
0.0
 10
198.6921236858881
 20
70.04363471477888
 30
0.0
  0
SPLINE
  5
20E
330
1F
100
AcDbEntity
  8
0
  6
Continuous
 62
     7
370
    25
100
AcDbSpline
210
0.0
220
0.0
230
1.0
 70
     8
 71
     3
 72
    14
 73
    10
 74
     0
 42
0.000000001
 43
0.00000001
 40
0.0
 40
0.0
 40
0.0
 40
0.0
 40
0.031027638810549
 40
0.0622853718705394
 40
0.1248003166935317
 40
0.2498289731780103
 40
0.4998892603627759
 40
0.7606803621034616
 40
1.0
 40
1.0
 40
1.0
 40
1.0
 10
198.1081829966004
 20
70.41774245742477
 30
0.0
 10
198.1141752360053
 20
70.41391141377065
 30
0.0
 10
198.1262041519649
 20
70.40622091627242
 30
0.0
 10
198.1502639600148
 20
70.3907830267654
 30
0.0
 10
198.1924976326608
 20
70.36371257383465
 30
0.0
 10
198.2770602071726
 20
70.30950054903948
 30
0.0
 10
198.4003471766304
 20
70.23049736718211
 30
0.0
 10
198.5464788830808
 20
70.13689119250404
 30
0.0
 10
198.6448454996226
 20
70.07390811611242
 30
0.0
 10
198.6919172003203
 20
70.04376861731542
 30
0.0
  0
LINE
  5
20F
330
1F
100
AcDbEntity
  8
0
  6
Continuous
 62
     7
370
    25
100
AcDbLine
 10
196.3056828414
 20
71.5803731344
 30
0.0
 11
196.5966501955
 21
71.3922945953
 31
0.0
  0
SPLINE
  5
210
330
1F
100
AcDbEntity
  8
0
  6
Continuous
 62
     7
370
    25
100
AcDbSpline
210
0.0
220
0.0
230
1.0
 70
     8
 71
     3
 72
     8
 73
     4
 74
     0
 42
0.000000001
 43
0.00000001
 40
0.0
 40
0.0
 40
0.0
 40
0.0
 40
1.0
 40
1.0
 40
1.0
 40
1.0
 10
196.6280384988951
 20
71.37207206511356
 30
0.0
 10
196.6175959930432
 20
71.37889749001096
 30
0.0
 10
196.6071300601534
 20
71.38564045679749
 30
0.0
 10
196.5966422953369
 20
71.39229954445047
 30
0.0
  0
SPLINE
  5
211
330
1F
100
AcDbEntity
  8
0
  6
Continuous
 62
     7
370
    25
100
AcDbSpline
210
0.0
220
0.0
230
1.0
 70
     8
 71
     3
 72
     8
 73
     4
 74
     0
 42
0.000000001
 43
0.00000001
 40
0.0
 40
0.0
 40
0.0
 40
0.0
 40
1.0
 40
1.0
 40
1.0
 40
1.0
 10
193.8420341200693
 20
73.25032771692389
 30
0.0
 10
193.9010338842399
 20
73.2115870500045
 30
0.0
 10
193.9603214477511
 20
73.17352507270478
 30
0.0
 10
194.0199025212401
 20
73.13614128424409
 30
0.0
  0
SPLINE
  5
212
330
1F
100
AcDbEntity
  8
0
  6
Continuous
 62
     7
370
    25
100
AcDbSpline
210
0.0
220
0.0
230
1.0
 70
     8
 71
     3
 72
     8
 73
     4
 74
     0
 42
0.000000001
 43
0.00000001
 40
0.0
 40
0.0
 40
0.0
 40
0.0
 40
1.0
 40
1.0
 40
1.0
 40
1.0
 10
193.8171843739716
 20
73.61353789486095
 30
0.0
 10
193.8246585860622
 20
73.49258005414974
 30
0.0
 10
193.8329546899522
 20
73.37150821173971
 30
0.0
 10
193.842034120071
 20
73.2503277169245
 30
0.0
  0
LWPOLYLINE
  5
213
330
1F
100
AcDbEntity
  8
0
  6
Continuous
 62
     7
370
    25
100
AcDbPolyline
 90
       15
 70
   128
 43
0.0
 10
193.8171847328
 20
73.6135372294
 10
194.2326360967
 20
74.777788606
 10
194.7371674592
 20
75.9323342011
 10
195.324119618
 20
77.0619349632
 10
195.9857447972
 20
78.1516793224
 10
196.7133087209
 20
79.1871820414
 10
197.4972075053
 20
80.1547741305
 10
198.3270934404
 20
81.0416834459
 10
199.1920116385
 20
81.8362017879
 10
200.0805446664
 20
82.5278414011
 10
200.9809635995
 20
83.1074723653
 10
201.8813825326
 20
83.5674429727
 10
202.7699155605
 20
83.9016817571
 10
203.6348337586
 20
84.1057767105
 10
203.7811472017
 20
84.1276449209
  0
SPLINE
  5
214
330
1F
100
AcDbEntity
  8
0
  6
Continuous
 62
     7
370
    25
100
AcDbSpline
210
0.0
220
0.0
230
1.0
 70
     8
 71
     3
 72
    10
 73
     6
 74
     0
 42
0.000000001
 43
0.00000001
 40
0.0
 40
0.0
 40
0.0
 40
0.0
 40
0.2409818396634726
 40
0.5031433556203718
 40
1.0
 40
1.0
 40
1.0
 40
1.0
 10
199.8678383300103
 20
62.71982915790714
 30
0.0
 10
199.9500842010133
 20
62.66815263598657
 30
0.0
 10
200.1218044583578
 20
62.56025778929519
 30
0.0
 10
200.3995258173847
 20
62.43053507883095
 30
0.0
 10
200.5205030644288
 20
62.45331301993594
 30
0.0
 10
200.5996953053442
 20
62.46822356091467
 30
0.0
  0
LINE
  5
215
330
1F
100
AcDbEntity
  8
0
  6
Continuous
 62
     7
370
    25
100
AcDbLine
 10
195.0846642739
 20
72.4489018909
 30
0.0
 11
194.3227855715
 21
72.9395362985
 31
0.0
  0
LINE
  5
216
330
1F
100
AcDbEntity
  8
0
  6
Continuous
 62
     7
370
    25
100
AcDbLine
 10
194.3227855715
 20
72.9395362985
 30
0.0
 11
193.8420342512
 21
73.2503276746
 31
0.0
  0
LINE
  5
217
330
1F
100
AcDbEntity
  8
0
  6
Continuous
 62
     7
370
    25
100
AcDbLine
 10
198.9219675605
 20
62.444049357
 30
0.0
 11
199.2279016556
 21
63.132060798
 31
0.0
  0
LINE
  5
218
330
1F
100
AcDbEntity
  8
0
  6
Continuous
 62
     7
370
    25
100
AcDbLine
 10
199.2279016556
 20
63.132060798
 30
0.0
 11
199.86783833
 21
62.7198291579
 31
0.0
  0
SPLINE
  5
219
330
1F
100
AcDbEntity
  8
0
  6
Continuous
 62
     7
370
    25
100
AcDbSpline
210
0.0
220
0.0
230
1.0
 70
     8
 71
     3
 72
    13
 73
     9
 74
     0
 42
0.000000001
 43
0.00000001
 40
0.0
 40
0.0
 40
0.0
 40
0.0
 40
0.1722587823560499
 40
0.3421398271236467
 40
0.5097456257898753
 40
0.675182899326387
 40
0.8385626190129613
 40
1.0
 40
1.0
 40
1.0
 40
1.0
 10
198.8418301365193
 20
63.41337050342574
 30
0.0
 10
198.8649816604718
 20
63.39525091249089
 30
0.0
 10
198.9109651412235
 20
63.35926184055383
 30
0.0
 10
198.9785061539379
 20
63.30826185713597
 30
0.0
 10
199.0441657686244
 20
63.25993717694485
 30
0.0
 10
199.1076898398736
 20
63.21450617103697
 30
0.0
 10
199.1691202185922
 20
63.17168060327978
 30
0.0
 10
199.2083863855628
 20
63.14521478610649
 30
0.0
 10
199.2279020672925
 20
63.13206100756074
 30
0.0
  0
SPLINE
  5
21A
330
1F
100
AcDbEntity
  8
0
  6
Continuous
 62
     7
370
    25
100
AcDbSpline
210
0.0
220
0.0
230
1.0
 70
     8
 71
     3
 72
    11
 73
     7
 74
     0
 42
0.000000001
 43
0.00000001
 40
0.0
 40
0.0
 40
0.0
 40
0.0
 40
0.2392845093888849
 40
0.50011204540841
 40
0.7515010915061239
 40
1.0
 40
1.0
 40
1.0
 40
1.0
 10
198.6924497250432
 20
63.46068449563863
 30
0.0
 10
198.6453804930508
 20
63.43236997293184
 30
0.0
 10
198.5470043384572
 20
63.37319174237351
 30
0.0
 10
198.4007071168716
 20
63.28000384191574
 30
0.0
 10
198.2528663732116
 20
63.18463192594356
 30
0.0
 10
198.1565799104954
 20
63.1200966706765
 30
0.0
 10
198.1087150226382
 20
63.08801560061684
 30
0.0
  0
SPLINE
  5
21B
330
1F
100
AcDbEntity
  8
0
  6
Continuous
 62
     7
370
    25
100
AcDbSpline
210
0.0
220
0.0
230
1.0
 70
     8
 71
     3
 72
     9
 73
     5
 74
     0
 42
0.000000001
 43
0.00000001
 40
0.0
 40
0.0
 40
0.0
 40
0.0
 40
0.5090669353869823
 40
1.0
 40
1.0
 40
1.0
 40
1.0
 10
198.6930207286273
 20
63.45998554142686
 30
0.0
 10
198.7186693032513
 20
63.45249283326698
 30
0.0
 10
198.7690528045968
 20
63.43777432055471
 30
0.0
 10
198.8178603160921
 20
63.42138196270254
 30
0.0
 10
198.8418215372866
 20
63.41333441222595
 30
0.0
  0
LINE
  5
21C
330
1F
100
AcDbEntity
  8
0
  6
Continuous
 62
     7
370
    25
100
AcDbLine
 10
200.5229393088
 20
64.3838641087
 30
0.0
 11
198.8418233524
 21
63.4133765245
 31
0.0
  0
LINE
  5
21D
330
1F
100
AcDbEntity
  8
0
  6
Continuous
 62
     7
370
    25
100
AcDbLine
 10
196.8353357012
 20
64.5371978231
 30
0.0
 11
196.6350400476
 21
64.0360404089
 31
0.0
  0
SPLINE
  5
21E
330
1F
100
AcDbEntity
  8
0
  6
Continuous
 62
     7
370
    25
100
AcDbSpline
210
0.0
220
0.0
230
1.0
 70
     8
 71
     3
 72
     8
 73
     4
 74
     0
 42
0.000000001
 43
0.00000001
 40
0.0
 40
0.0
 40
0.0
 40
0.0
 40
1.0
 40
1.0
 40
1.0
 40
1.0
 10
196.8348925304871
 20
64.5379815752882
 30
0.0
 10
196.8610678650564
 20
64.56014895226647
 30
0.0
 10
196.8868889050218
 20
64.5827810933581
 30
0.0
 10
196.9123464587302
 20
64.60586581344937
 30
0.0
  0
LINE
  5
21F
330
1F
100
AcDbEntity
  8
0
  6
Continuous
 62
     7
370
    25
100
AcDbLine
 10
196.9123465545
 20
64.6058656978
 30
0.0
 11
198.6926393137
 21
63.4600948127
 31
0.0
  0
LINE
  5
220
330
1F
100
AcDbEntity
  8
0
  6
Continuous
 62
     7
370
    25
100
AcDbLine
 10
200.5227305502
 20
64.4819140439
 30
0.0
 11
200.4347312232
 21
64.5894051122
 31
0.0
  0
LINE
  5
221
330
1F
100
AcDbEntity
  8
0
  6
Continuous
 62
     7
370
    25
100
AcDbLine
 10
198.6063232265
 20
65.5837776152
 30
0.0
 11
196.9123465545
 21
64.6058656978
 31
0.0
  0
LINE
  5
222
330
1F
100
AcDbEntity
  8
0
  6
Continuous
 62
     7
370
    25
100
AcDbLine
 10
198.7490173091
 20
65.5624854534
 30
0.0
 11
198.6067433779
 21
65.5832902377
 31
0.0
  0
LINE
  5
223
330
1F
100
AcDbEntity
  8
0
  6
Continuous
 62
     7
370
    25
100
AcDbLine
 10
200.4348049802
 20
64.5893009457
 30
0.0
 11
198.7490173091
 21
65.5624854534
 31
0.0
  0
LINE
  5
224
330
1F
100
AcDbEntity
  8
0
  6
Continuous
 62
     7
370
    25
100
AcDbLine
 10
200.5227305502
 20
64.5385368629
 30
0.0
 11
200.4347582235
 21
64.5893279191
 31
0.0
  0
SPLINE
  5
225
330
1F
100
AcDbEntity
  8
0
  6
Continuous
 62
     7
370
    25
100
AcDbSpline
210
0.0
220
0.0
230
1.0
 70
     8
 71
     3
 72
    19
 73
    15
 74
     0
 42
0.000000001
 43
0.00000001
 40
0.0
 40
0.0
 40
0.0
 40
0.0
 40
0.06378530090899
 40
0.1289628367601434
 40
0.1955871994223984
 40
0.2637095015316536
 40
0.3333775579263722
 40
0.4046360709466846
 40
0.4775268158782093
 40
0.5520888236281613
 40
0.628358558425371
 40
0.7063700889343235
 40
0.8377041805920054
 40
1.0
 40
1.0
 40
1.0
 40
1.0
 10
196.0508234245258
 20
64.70646966264007
 30
0.0
 10
196.0715127935296
 20
64.69311052263052
 30
0.0
 10
196.1133431161823
 20
64.66610065409098
 30
0.0
 10
196.1738340897741
 20
64.62857868856574
 30
0.0
 10
196.2333182879513
 20
64.59305894747564
 30
0.0
 10
196.2913994474218
 20
64.56007881855905
 30
0.0
 10
196.3479315645087
 20
64.52987238228818
 30
0.0
 10
196.4026766192631
 20
64.50275894232581
 30
0.0
 10
196.4553989968567
 20
64.47902732457486
 30
0.0
 10
196.5058406297898
 20
64.45898707112927
 30
0.0
 10
196.553723548258
 20
64.44286720959036
 30
0.0
 10
196.608687702635
 20
64.42858923990761
 30
0.0
 10
196.6715190165986
 20
64.41845068265592
 30
0.0
 10
196.7100265322577
 20
64.42492493397053
 30
0.0
 10
196.7313104974525
 20
64.42850339748044
 30
0.0
  0
LINE
  5
226
330
1F
100
AcDbEntity
  8
0
  6
Continuous
 62
     7
370
    25
100
AcDbLine
 10
196.7559461851
 20
64.4545738517
 30
0.0
 11
196.8347502551
 21
64.5379654555
 31
0.0
  0
SPLINE
  5
227
330
1F
100
AcDbEntity
  8
0
  6
Continuous
 62
     7
370
    25
100
AcDbSpline
210
0.0
220
0.0
230
1.0
 70
     8
 71
     3
 72
     9
 73
     5
 74
     0
 42
0.000000001
 43
0.00000001
 40
0.0
 40
0.0
 40
0.0
 40
0.0
 40
0.5232016984460688
 40
1.0
 40
1.0
 40
1.0
 40
1.0
 10
198.4401454468402
 20
65.48784539437295
 30
0.0
 10
198.3711212841916
 20
65.51288755948946
 30
0.0
 10
198.2391947960826
 20
65.56075086954918
 30
0.0
 10
197.997757383264
 20
65.69834900023584
 30
0.0
 10
197.8826404349005
 20
65.76395555524425
 30
0.0
  0
LINE
  5
228
330
1F
100
AcDbEntity
  8
0
  6
Continuous
 62
     7
370
    25
100
AcDbLine
 10
194.1531392379
 20
65.5298451179
 30
0.0
 11
194.6046103522
 21
65.6421090907
 31
0.0
  0
LINE
  5
229
330
1F
100
AcDbEntity
  8
0
  6
Continuous
 62
     7
370
    25
100
AcDbLine
 10
194.6046103522
 20
65.6421090907
 30
0.0
 11
196.0508228241
 21
64.7064697577
 31
0.0
  0
SPLINE
  5
22A
330
1F
100
AcDbEntity
  8
0
  6
Continuous
 62
     7
370
    25
100
AcDbSpline
210
0.0
220
0.0
230
1.0
 70
     8
 71
     3
 72
     8
 73
     4
 74
     0
 42
0.000000001
 43
0.00000001
 40
0.0
 40
0.0
 40
0.0
 40
0.0
 40
1.0
 40
1.0
 40
1.0
 40
1.0
 10
194.3239278085426
 20
65.13509546485676
 30
0.0
 10
194.2668025396192
 20
65.26688164865068
 30
0.0
 10
194.2098740479024
 20
65.39846587030978
 30
0.0
 10
194.1531399299537
 20
65.52984493720943
 30
0.0
  0
LINE
  5
22B
330
1F
100
AcDbEntity
  8
0
  6
Continuous
 62
     7
370
    25
100
AcDbLine
 10
195.9423118113
 20
66.4143477055
 30
0.0
 11
194.6046103522
 21
65.6421090907
 31
0.0
  0
LINE
  5
22C
330
1F
100
AcDbEntity
  8
0
  6
Continuous
 62
     7
370
    25
100
AcDbLine
 10
196.9253402962
 20
66.3165943026
 30
0.0
 11
195.9423118113
 21
66.4143477055
 31
0.0
  0
LINE
  5
22D
330
1F
100
AcDbEntity
  8
0
  6
Continuous
 62
     7
370
    25
100
AcDbLine
 10
197.8826404349
 20
65.7639555552
 30
0.0
 11
196.9253393083
 21
66.3165937324
 31
0.0
  0
SPLINE
  5
22E
330
1F
100
AcDbEntity
  8
0
  6
Continuous
 62
     7
370
    25
100
AcDbSpline
210
0.0
220
0.0
230
1.0
 70
     8
 71
     3
 72
     8
 73
     4
 74
     0
 42
0.000000001
 43
0.00000001
 40
0.0
 40
0.0
 40
0.0
 40
0.0
 40
1.0
 40
1.0
 40
1.0
 40
1.0
 10
194.1531399299537
 20
65.52984493720943
 30
0.0
 10
194.1500025922036
 20
65.56506124408196
 30
0.0
 10
194.1480101883056
 20
65.60070550030964
 30
0.0
 10
194.1472287909336
 20
65.63680240230451
 30
0.0
  0
LINE
  5
22F
330
1F
100
AcDbEntity
  8
0
  6
Continuous
 62
     7
370
    25
100
AcDbLine
 10
194.958315266
 20
66.105032117
 30
0.0
 11
194.1472294595
 21
65.6368022474
 31
0.0
  0
SPLINE
  5
230
330
1F
100
AcDbEntity
  8
0
  6
Continuous
 62
     7
370
    25
100
AcDbSpline
210
0.0
220
0.0
230
1.0
 70
     8
 71
     3
 72
     8
 73
     4
 74
     0
 42
0.000000001
 43
0.00000001
 40
0.0000004089325119
 40
0.0000004089325119
 40
0.0000004089325119
 40
0.0000004089325119
 40
0.0015399868451459
 40
0.0015399868451459
 40
0.0015399868451459
 40
0.0015399868451459
 10
194.9583143234223
 20
66.10503211366063
 30
0.0
 10
195.1967908914456
 20
66.19940849947699
 30
0.0
 10
195.4352378491143
 20
66.2938371114072
 30
0.0
 10
195.6736465879646
 20
66.38833049436965
 30
0.0
  0
LINE
  5
231
330
1F
100
AcDbEntity
  8
0
  6
Continuous
 62
     7
370
    25
100
AcDbLine
 10
195.6736460669
 20
66.3883306415
 30
0.0
 11
195.6980425068
 21
66.3933246679
 31
0.0
  0
LINE
  5
232
330
1F
100
AcDbEntity
  8
0
  6
Continuous
 62
     7
370
    25
100
AcDbLine
 10
195.9423118113
 20
66.4143477055
 30
0.0
 11
195.6980431653
 21
66.3933246679
 31
0.0
  0
SPLINE
  5
233
330
1F
100
AcDbEntity
  8
0
  6
Continuous
 62
     7
370
    25
100
AcDbSpline
210
0.0
220
0.0
230
1.0
 70
     8
 71
     3
 72
     8
 73
     4
 74
     0
 42
0.000000001
 43
0.00000001
 40
0.0
 40
0.0
 40
0.0
 40
0.0
 40
1.0
 40
1.0
 40
1.0
 40
1.0
 10
196.9253385024726
 20
66.31659448695662
 30
0.0
 10
196.9559465365959
 20
66.3016544791505
 30
0.0
 10
196.9864980375678
 20
66.28677752175713
 30
0.0
 10
197.0169919756823
 20
66.2719639580762
 30
0.0
  0
ARC
  5
234
330
1F
100
AcDbEntity
  8
0
  6
Continuous
 62
     7
370
    25
100
AcDbCircle
 10
197.8060219827
 20
71.7453144322
 30
0.0
 40
6.54976210019893
100
AcDbArc
 50
283.6682343678
 51
294.913553227
  0
ARC
  5
235
330
1F
100
AcDbEntity
  8
0
  6
Continuous
 62
     7
370
    18
100
AcDbCircle
 10
253.6221623256
 20
44.2281533271
 30
0.0
 40
4.834182167118217
100
AcDbArc
 50
341.8173446801
 51
0.764679149
  0
LWPOLYLINE
  5
236
330
1F
100
AcDbEntity
  8
0
  6
Continuous
 62
     7
370
    18
100
AcDbPolyline
 90
       15
 70
   128
 43
0.0
 10
248.3394385162
 20
50.5817087507
 10
247.7718057894
 20
50.1982318937
 10
247.2205028262
 20
49.7142072873
 10
246.7013895596
 20
49.143559919
 10
246.2294000094
 20
48.5027059496
 10
245.8181124578
 20
47.8100819556
 10
245.4793589738
 20
47.0856132359
 10
245.2228845347
 20
46.3501412627
 10
245.0560679668
 20
45.6248245583
 10
244.9837077548
 20
44.9305290136
 10
245.0078858872
 20
44.2872282763
 10
245.1279066116
 20
43.7134288464
 10
245.3403175084
 20
43.2256381308
 10
245.6390072847
 20
42.837888479
 10
245.9646315314
 20
42.5894078539
  0
ARC
  5
237
330
1F
100
AcDbEntity
  8
0
  6
Continuous
 62
     7
370
    18
100
AcDbCircle
 10
249.7316419584
 20
48.6311102892
 30
0.0
 40
2.396469232541039
100
AcDbArc
 50
65.7938242129
 51
125.5166434847
  0
LINE
  5
238
330
1F
100
AcDbEntity
  8
0
  6
Continuous
 62
     7
370
    18
100
AcDbLine
 10
248.1626640968
 20
51.0920289236
 30
0.0
 11
247.7312291168
 21
50.8139182694
 31
0.0
  0
LWPOLYLINE
  5
239
330
1F
100
AcDbEntity
  8
0
  6
Continuous
 62
     7
370
    18
100
AcDbPolyline
 90
       10
 70
   128
 43
0.0
 10
244.4714154453
 20
45.1302739265
 10
244.4533640818
 20
44.49124279
 10
244.5253769116
 20
43.8479505277
 10
244.6915935454
 20
43.2812492014
 10
244.9477087486
 20
42.8058158993
 10
245.28708999
 20
42.4339644688
 10
245.7009468531
 20
42.1753251911
 10
246.1785608673
 20
42.0365974192
 10
246.7075622619
 20
42.0213734098
 10
246.9059819691
 20
42.045977962
  0
LWPOLYLINE
  5
23A
330
1F
100
AcDbEntity
  8
0
  6
Continuous
 62
     7
370
    18
100
AcDbPolyline
 90
        9
 70
   128
 43
0.0
 10
251.6555960209
 20
50.2734421495
 10
251.5165525799
 20
50.5790844718
 10
251.2178358033
 20
51.0041049829
 10
250.8399916113
 20
51.3203758886
 10
250.3928059753
 20
51.5197058954
 10
249.8878608823
 20
51.5969321795
 10
249.3382340383
 20
51.5500550173
 10
248.7581605826
 20
51.3802883166
 10
248.1626640968
 20
51.0920289236
  0
LWPOLYLINE
  5
23B
330
1F
100
AcDbEntity
  8
0
  6
Continuous
 62
     7
370
    18
100
AcDbPolyline
 90
       17
 70
   128
 43
0.0
 10
247.9858870433
 20
51.3982153809
 10
247.3774997545
 20
50.9917095192
 10
246.784092954
 20
50.4846306068
 10
246.2202783448
 20
49.8894644059
 10
245.6999389507
 20
49.2208657776
 10
245.2358870021
 20
48.495298254
 10
244.8395493986
 20
47.7306273633
 10
244.520684782
 20
46.9456820116
 10
244.2871451431
 20
46.1597901473
 10
244.1446808926
 20
45.3923030152
 10
244.0967997678
 20
44.6621186445
 10
244.1446808926
 20
43.9872166438
 10
244.2871451431
 20
43.3842152341
 10
244.520684782
 20
42.8679624974
 10
244.8395493986
 20
42.4511703956
 10
245.2358870021
 20
42.1441011617
 10
245.2361105779
 20
42.1439722422
  0
ARC
  5
23C
330
1F
100
AcDbEntity
  8
0
  6
Continuous
 62
     7
370
    18
100
AcDbCircle
 10
249.6432066938
 20
48.9917436855
 30
0.0
 40
2.921953874535574
100
AcDbArc
 50
73.0021228077
 51
124.5549034417
  0
LWPOLYLINE
  5
23D
330
1F
100
AcDbEntity
  8
0
  6
Continuous
 62
     7
370
    18
100
AcDbPolyline
 90
       16
 70
   128
 43
0.0
 10
218.9945082138
 20
59.1533631038
 10
219.0423893386
 20
59.8835474745
 10
219.1848535891
 20
60.6510346066
 10
219.418393228
 20
61.4369264709
 10
219.7372578446
 20
62.2218718226
 10
220.1335954481
 20
62.9865427133
 10
220.5976473967
 20
63.7121102369
 10
221.1179867908
 20
64.3807088652
 10
221.6818014
 20
64.9758750661
 10
222.2752082006
 20
65.4829539785
 10
222.8835954893
 20
65.8894598402
 10
223.491982778
 20
66.1853829905
 10
224.0853895785
 20
66.3634369865
 10
224.6492041877
 20
66.4192372772
 10
225.1695435818
 20
66.3514097255
 10
225.6333719546
 20
66.1617540967
  0
ARC
  5
23E
330
1F
100
AcDbEntity
  8
0
  6
Continuous
 62
     7
370
    18
100
AcDbCircle
 10
221.6760099096
 20
58.8497741852
 30
0.0
 40
2.698632538172944
100
AcDbArc
 50
173.5407049609
 51
235.1471162864
  0
LWPOLYLINE
  5
23F
330
1F
100
AcDbEntity
  8
0
  6
Continuous
 62
     7
370
    18
100
AcDbPolyline
 90
       18
 70
   128
 43
0.0
 10
248.1626640968
 20
50.8878936872
 10
247.5807343276
 20
50.4962701683
 10
247.0146781152
 20
50.0039632953
 10
246.4799360235
 20
49.4244023445
 10
245.9910941547
 20
48.7733963509
 10
245.5614872119
 20
48.068702488
 10
245.2028335008
 20
47.3295433024
 10
244.9249165231
 20
46.5760814546
 10
244.7353166202
 20
45.8288686936
 10
244.6392056713
 20
45.1082875062
 10
244.6392056713
 20
44.4339934257
 10
244.7353166202
 20
43.8243795779
 10
244.9249165231
 20
43.2960742052
 10
245.2028335008
 20
42.8634884698
 10
245.5614872119
 20
42.5384220449
 10
245.9910941547
 20
42.3297418001
 10
246.4799360235
 20
42.2431406146
 10
246.5685453273
 20
42.2407761009
  0
LWPOLYLINE
  5
240
330
1F
100
AcDbEntity
  8
0
  6
Continuous
 62
     7
370
    18
100
AcDbPolyline
 90
        8
 70
   128
 43
0.0
 10
251.3181591321
 20
50.4682399557
 10
251.1224946928
 20
50.7468909683
 10
250.7638409817
 20
51.0719573932
 10
250.3342340389
 20
51.280637638
 10
249.8453921701
 20
51.3672388235
 10
249.3106500784
 20
51.3293996969
 10
248.744593866
 20
51.1681519784
 10
248.1626640968
 20
50.8878936872
  0
LWPOLYLINE
  5
241
330
1F
100
AcDbEntity
  8
0
  6
Continuous
 62
     7
370
    18
100
AcDbPolyline
 90
       39
 70
   128
 43
0.0
 10
210.6948421452
 20
55.9948843593
 10
210.7436297565
 20
57.2057400329
 10
210.8895520243
 20
58.4619596105
 10
211.131286591
 20
59.7521662161
 10
211.4666444548
 20
61.0646758277
 10
211.8925890669
 20
62.3876021251
 10
212.4052620151
 20
63.7089639973
 10
213.0000212191
 20
65.0167948554
 10
213.6714804434
 20
66.299252136
 10
214.4135586881
 20
67.5447203392
 10
215.2195355063
 20
68.7419212901
 10
216.0821119201
 20
69.8800124234
 10
216.9934762746
 20
70.9486863976
 10
217.9453750312
 20
71.9382667165
 10
218.929187678
 20
72.8397897575
 10
219.9360047661
 20
73.6450924073
 10
220.9567084588
 20
74.3468813751
 10
221.9820549314
 20
74.9388012944
 10
223.0027586241
 20
75.4154917255
 10
224.0095757122
 20
75.7726353423
 10
224.9933883589
 20
76.0069982052
 10
225.9452871156
 20
76.116456797
 10
226.85665147
 20
76.1000217089
 10
227.7192278838
 20
75.9578401045
 10
228.5252047021
 20
75.6912001804
 10
229.2672829467
 20
75.3025172813
 10
229.9387421711
 20
74.7953103194
 10
230.5335013751
 20
74.1741738215
 10
231.0461743233
 20
73.444731536
 10
231.4721189354
 20
72.6135904199
 10
231.8074767992
 20
71.688276756
 10
232.0492113659
 20
70.6771709404
 10
232.1951336336
 20
69.5894296269
 10
232.243921245
 20
68.4349029303
 10
232.1951336336
 20
67.2240472566
 10
232.0492113659
 20
65.967827679
 10
231.8074767992
 20
64.6776210735
 10
231.4721189354
 20
63.3651114618
 10
231.3248644322
 20
62.8761259669
  0
LWPOLYLINE
  5
242
330
1F
100
AcDbEntity
  8
0
  6
Continuous
 62
     7
370
    18
100
AcDbPolyline
 90
       22
 70
   128
 43
0.0
 10
225.8253111723
 20
53.3495880014
 10
224.9933883589
 20
52.4915205731
 10
224.0095757122
 20
51.589997532
 10
223.0027586241
 20
50.7846948823
 10
221.9820549314
 20
50.0829059145
 10
220.9567084588
 20
49.4909859952
 10
219.9360047661
 20
49.0142955641
 10
218.929187678
 20
48.6571519472
 10
217.9453750312
 20
48.4227890844
 10
216.9934762746
 20
48.3133304925
 10
216.0821119201
 20
48.3297655806
 10
215.2195355063
 20
48.4719471851
 10
214.4135586881
 20
48.7385871092
 10
213.6714804434
 20
49.1272700083
 10
213.0000212191
 20
49.6344769702
 10
212.4052620151
 20
50.255613468
 10
211.8925890669
 20
50.9850557535
 10
211.4666444548
 20
51.8161968697
 10
211.131286591
 20
52.7415105335
 10
210.8895520243
 20
53.7526163491
 10
210.7436297565
 20
54.8403576626
 10
210.6948421452
 20
55.9948843593
  0
LWPOLYLINE
  5
243
330
1F
100
AcDbEntity
  8
0
  6
Continuous
 62
     7
370
    18
100
AcDbPolyline
 90
       31
 70
   128
 43
0.0
 10
211.8551422505
 20
49.947536361
 10
211.4867873556
 20
50.4188005008
 10
211.0078042274
 20
51.2091705735
 10
210.6172214797
 20
52.0975776912
 10
210.3184563
 20
53.0762524543
 10
210.1141211345
 20
54.1366352274
 10
210.0060026142
 20
55.2694525684
 10
209.9950457507
 20
56.4647966028
 10
210.0813473499
 20
57.7122139035
 10
210.2641527199
 20
59.0007952259
 10
210.5418629145
 20
60.3192711352
 10
210.9120485632
 20
61.65611001
 10
211.3714729196
 20
62.9996207975
 10
211.9161175451
 20
64.3380539627
 10
212.5412191873
 20
65.6597030065
 10
213.2413119268
 20
66.9530109268
 10
214.0102712998
 20
68.2066656522
 10
214.8413735666
 20
69.4097034599
 10
215.7273503717
 20
70.5516036473
 10
216.6604522925
 20
71.6223784518
 10
217.632519304
 20
72.6126639186
 10
218.6350500906
 20
73.513800219
 10
219.6592767906
 20
74.3179044566
 10
220.6962419228
 20
75.017946256
 10
221.7368766296
 20
75.6078020564
 10
222.7720798672
 20
76.0823129949
 10
223.7927981713
 20
76.4373301938
 10
224.7901048889
 20
76.6697483325
 10
225.755277598
 20
76.777535132
 10
226.6798754043
 20
76.7597470794
 10
227.2918713523
 20
76.6739223676
  0
LWPOLYLINE
  5
244
330
1F
100
AcDbEntity
  8
0
  6
Continuous
 62
     7
370
    18
100
AcDbPolyline
 90
       24
 70
   128
 43
0.0
 10
216.1660809547
 20
59.1533632939
 10
216.2154760734
 20
60.0157707263
 10
216.3627417719
 20
60.9191436664
 10
216.6051342246
 20
61.8466538981
 10
216.9381384503
 20
62.7810239382
 10
217.355551289
 20
63.7048479435
 10
217.8495969766
 20
64.600916798
 10
218.4110723533
 20
65.4525386344
 10
219.0295184155
 20
66.2438492771
 10
219.6934144208
 20
66.960108139
 10
220.3903932326
 20
67.5879727282
 10
221.107471646
 20
68.1157468227
 10
221.8312917442
 20
68.5335992712
 10
222.5483701576
 20
68.8337462899
 10
223.2453489694
 20
69.010596308
 10
223.9092449747
 20
69.0608554581
 10
224.5276910368
 20
68.9835874399
 10
225.0891664136
 20
68.7802312748
 10
225.5832121011
 20
68.4545754295
 10
226.0006249399
 20
68.0126860296
 10
226.3336291656
 20
67.4627944847
 10
226.5760216183
 20
66.8151446218
 10
226.7232873168
 20
66.0818010381
 10
226.7688750604
 20
65.5062420847
  0
LWPOLYLINE
  5
245
330
1F
100
AcDbEntity
  8
0
  6
Continuous
 62
     7
370
    18
100
AcDbPolyline
 90
       13
 70
   128
 43
0.0
 10
221.2693221092
 20
55.9797047252
 10
221.107471646
 20
55.8961880184
 10
220.3903932326
 20
55.5960409997
 10
219.6934144208
 20
55.4191909815
 10
219.0295184155
 20
55.3689318315
 10
218.4110723533
 20
55.4461998496
 10
217.8495969766
 20
55.6495560148
 10
217.355551289
 20
55.97521186
 10
216.9381384503
 20
56.4171012599
 10
216.6051342246
 20
56.9669928049
 10
216.3627417719
 20
57.6146426677
 10
216.2154760734
 20
58.3479862515
 10
216.1660809547
 20
59.1533632939
  0
ARC
  5
246
330
1F
100
AcDbEntity
  8
0
  6
Continuous
 62
     7
370
    18
100
AcDbCircle
 10
222.0033494071
 20
59.3015744406
 30
0.0
 40
17.95572678149955
100
AcDbArc
 50
167.4561534803
 51
179.6099872796
  0
LWPOLYLINE
  5
247
330
1F
100
AcDbEntity
  8
0
  6
Continuous
 62
     7
370
    18
100
AcDbPolyline
 90
       11
 70
   128
 43
0.0
 10
215.1179483328
 20
78.6644557253
 10
215.437002744
 20
78.8452867541
 10
216.4776212753
 20
79.3613652743
 10
217.506802288
 20
79.7586864674
 10
218.515501167
 20
80.0337598019
 10
219.4948539857
 20
80.184167885
 10
220.436253238
 20
80.2085873684
 10
221.3314266172
 20
80.1068055283
 10
222.1725071504
 20
79.879715126
 10
222.9521026757
 20
79.5293134503
 10
223.044242272
 20
79.4773537822
  0
LWPOLYLINE
  5
248
330
1F
100
AcDbEntity
  8
0
  6
Continuous
 62
     7
370
    18
100
AcDbPolyline
 90
       10
 70
   128
 43
0.0
 10
207.3080209574
 20
52.2184653884
 10
207.0355830701
 20
52.3870281601
 10
206.3608739286
 20
52.9162930334
 10
205.7636339874
 20
53.5592014363
 10
205.2491111877
 20
54.3101030175
 10
204.8218270961
 20
55.1623991963
 10
204.4855373918
 20
56.1086005818
 10
204.2431969641
 20
57.1403910449
 10
204.096935546
 20
58.2487035768
 10
204.0480386163
 20
59.4237982383
  0
LWPOLYLINE
  5
249
330
1F
100
AcDbEntity
  8
0
  6
Continuous
 62
     7
370
    18
100
AcDbPolyline
 90
       13
 70
   128
 43
0.0
 10
208.6721200548
 20
56.0881616106
 10
208.6359060337
 20
56.2695692488
 10
208.4915254187
 20
57.340642592
 10
208.4503222645
 20
58.4822856107
 10
208.5127298933
 20
59.6824842697
 10
208.6780910778
 20
60.9286083043
 10
208.9446666019
 20
62.2075451805
 10
209.309651066
 20
63.5058359189
 10
209.76920318
 20
64.8098185938
 10
210.3184872516
 20
66.1057707258
 10
210.9517225771
 20
67.3800547159
 10
211.6622460031
 20
68.6192611867
 10
212.4425810738
 20
69.8103500418
  0
LWPOLYLINE
  5
24A
330
1F
100
AcDbEntity
  8
0
  6
Continuous
 62
     7
370
    18
100
AcDbPolyline
 90
       16
 70
   128
 43
0.0
 10
209.1839158217
 20
53.1582339096
 10
208.7148938376
 20
53.9050612239
 10
208.3243947251
 20
54.777401654
 10
208.031540641
 20
55.7459160782
 10
207.8393042551
 20
56.8007720026
 10
207.7496374934
 20
57.9312607859
 10
207.7634504645
 20
59.1259056269
 10
207.8806028983
 20
60.3725784864
 10
208.0999054634
 20
61.658622902
 10
208.4191322795
 20
62.9709834556
 10
208.8350419904
 20
64.2963369515
 10
209.3434126673
 20
65.6212281553
 10
209.9390826384
 20
66.9322064839
 10
210.6160058065
 20
68.2159640236
 10
211.3673089426
 20
69.4594663251
 10
212.1853661013
 20
70.6500919408
  0
ARC
  5
24B
330
1F
100
AcDbEntity
  8
0
  6
Continuous
 62
     7
370
    18
100
AcDbCircle
 10
225.2684947066
 20
62.8672198404
 30
0.0
 40
14.35349360837126
100
AcDbArc
 50
109.931969941
 51
139.4246766989
  0
LWPOLYLINE
  5
24C
330
1F
100
AcDbEntity
  8
0
  6
Continuous
 62
     7
370
    18
100
AcDbPolyline
 90
       12
 70
   128
 43
0.0
 10
213.5295591629
 20
72.322255458
 10
214.4419037608
 20
73.2929910355
 10
215.3872322189
 20
74.1785334231
 10
216.3566373936
 20
74.9705390873
 10
217.3409858897
 20
75.6615460589
 10
218.3310035074
 20
76.2450445526
 10
219.31736254
 20
76.7155357284
 10
220.2907696073
 20
77.0685869598
 10
221.2420537773
 20
77.3008728188
 10
222.1622518477
 20
77.4102037757
 10
223.042694574
 20
77.3955508821
 10
223.1685226732
 20
77.3829085471
  0
LINE
  5
24D
330
1F
100
AcDbEntity
  8
0
  6
Continuous
 62
     7
370
    18
100
AcDbLine
 10
199.5616744028
 20
69.7964058371
 30
0.0
 11
199.86783833
 21
69.4256707811
 31
0.0
  0
LINE
  5
24E
330
1F
100
AcDbEntity
  8
0
  6
Continuous
 62
     7
370
    18
100
AcDbLine
 10
199.5616744028
 20
62.0322956893
 30
0.0
 11
199.86783833
 21
62.7198291579
 31
0.0
  0
LINE
  5
24F
330
1F
100
AcDbEntity
  8
0
  6
Continuous
 62
     7
370
    18
100
AcDbLine
 10
200.6037486468
 20
63.144661141
 30
0.0
 11
199.867845574
 21
62.7198333398
 31
0.0
  0
LINE
  5
250
330
1F
100
AcDbEntity
  8
0
  6
Continuous
 62
     7
370
    18
100
AcDbLine
 10
200.5371730898
 20
63.8878871087
 30
0.0
 11
199.2279016556
 21
63.132060798
 31
0.0
  0
LINE
  5
251
330
1F
100
AcDbEntity
  8
0
  6
Continuous
 62
     7
370
    18
100
AcDbLine
 10
196.0508228241
 20
64.7064697577
 30
0.0
 11
195.7543355498
 21
64.2104081399
 31
0.0
  0
LINE
  5
252
330
1F
100
AcDbEntity
  8
0
  6
Continuous
 62
     7
370
    18
100
AcDbLine
 10
197.8826404349
 20
65.7639555552
 30
0.0
 11
196.0508834102
 21
64.7065047333
 31
0.0
  0
LINE
  5
253
330
1F
100
AcDbEntity
  8
0
  6
Continuous
 62
     7
370
    18
100
AcDbLine
 10
197.8826404349
 20
65.7639555552
 30
0.0
 11
198.0039505894
 21
65.7022050419
 31
0.0
  0
OLE2FRAME
  5
254
330
1F
100
AcDbEntity
  8
0
100
AcDbOle2Frame
 70
     2
  3
Paintbrush-Bild
 10
13.8511154363
 20
38.264191557
 30
0.0
 11
51.6290888628
 21
31.9806341108
 31
0.0
 71
     2
 72
     0
 73
     1
 90
    12928
310
80552BED0767C5B32B40DDAF6807D121434000000000000000006FFBDDFB85D0
310
4940DDAF6807D121434000000000000000006FFBDDFB85D04940416F4BD60AFB
310
3F4000000000000000002BED0767C5B32B40416F4BD60AFB3F40000000000000
310
0000000000000100000000010000010000000100000000000100000000320000
310
D0CF11E0A1B11AE1000000000000000000000000000000003E000300FEFF0900
310
0600000000000000000000000100000001000000000000000010000002000000
310
01000000FEFFFFFF0000000000000000FFFFFFFFFFFFFFFFFFFFFFFFFFFFFFFF
310
FFFFFFFFFFFFFFFFFFFFFFFFFFFFFFFFFFFFFFFFFFFFFFFFFFFFFFFFFFFFFFFF
310
FFFFFFFFFFFFFFFFFFFFFFFFFFFFFFFFFFFFFFFFFFFFFFFFFFFFFFFFFFFFFFFF
310
FFFFFFFFFFFFFFFFFFFFFFFFFFFFFFFFFFFFFFFFFFFFFFFFFFFFFFFFFFFFFFFF
310
FFFFFFFFFFFFFFFFFFFFFFFFFFFFFFFFFFFFFFFFFFFFFFFFFFFFFFFFFFFFFFFF
310
FFFFFFFFFFFFFFFFFFFFFFFFFFFFFFFFFFFFFFFFFFFFFFFFFFFFFFFFFFFFFFFF
310
FFFFFFFFFFFFFFFFFFFFFFFFFFFFFFFFFFFFFFFFFFFFFFFFFFFFFFFFFFFFFFFF
310
FFFFFFFFFFFFFFFFFFFFFFFFFFFFFFFFFFFFFFFFFFFFFFFFFFFFFFFFFFFFFFFF
310
FFFFFFFFFFFFFFFFFFFFFFFFFFFFFFFFFFFFFFFFFFFFFFFFFFFFFFFFFFFFFFFF
310
FFFFFFFFFFFFFFFFFFFFFFFFFFFFFFFFFFFFFFFFFFFFFFFFFFFFFFFFFFFFFFFF
310
FFFFFFFFFFFFFFFFFFFFFFFFFFFFFFFFFFFFFFFFFFFFFFFFFFFFFFFFFFFFFFFF
310
FFFFFFFFFFFFFFFFFFFFFFFFFFFFFFFFFFFFFFFFFFFFFFFFFFFFFFFFFFFFFFFF
310
FFFFFFFFFFFFFFFFFFFFFFFFFFFFFFFFFFFFFFFFFFFFFFFFFFFFFFFFFFFFFFFF
310
FFFFFFFFFFFFFFFFFFFFFFFFFFFFFFFFFFFFFFFFFFFFFFFFFFFFFFFFFFFFFFFF
310
FDFFFFFFFEFFFFFFFEFFFFFFFEFFFFFF05000000060000000700000008000000
310
090000000A0000000B0000000C0000000D0000000E0000000F00000010000000
310
11000000120000001300000014000000150000001600000017000000FEFFFFFF
310
FFFFFFFFFFFFFFFFFFFFFFFFFFFFFFFFFFFFFFFFFFFFFFFFFFFFFFFFFFFFFFFF
310
FFFFFFFFFFFFFFFFFFFFFFFFFFFFFFFFFFFFFFFFFFFFFFFFFFFFFFFFFFFFFFFF
310
FFFFFFFFFFFFFFFFFFFFFFFFFFFFFFFFFFFFFFFFFFFFFFFFFFFFFFFFFFFFFFFF
310
FFFFFFFFFFFFFFFFFFFFFFFFFFFFFFFFFFFFFFFFFFFFFFFFFFFFFFFFFFFFFFFF
310
FFFFFFFFFFFFFFFFFFFFFFFFFFFFFFFFFFFFFFFFFFFFFFFFFFFFFFFFFFFFFFFF
310
FFFFFFFFFFFFFFFFFFFFFFFFFFFFFFFFFFFFFFFFFFFFFFFFFFFFFFFFFFFFFFFF
310
FFFFFFFFFFFFFFFFFFFFFFFFFFFFFFFFFFFFFFFFFFFFFFFFFFFFFFFFFFFFFFFF
310
FFFFFFFFFFFFFFFFFFFFFFFFFFFFFFFFFFFFFFFFFFFFFFFFFFFFFFFFFFFFFFFF
310
FFFFFFFFFFFFFFFFFFFFFFFFFFFFFFFFFFFFFFFFFFFFFFFFFFFFFFFFFFFFFFFF
310
FFFFFFFFFFFFFFFFFFFFFFFFFFFFFFFFFFFFFFFFFFFFFFFFFFFFFFFFFFFFFFFF
310
FFFFFFFFFFFFFFFFFFFFFFFFFFFFFFFFFFFFFFFFFFFFFFFFFFFFFFFFFFFFFFFF
310
FFFFFFFFFFFFFFFFFFFFFFFFFFFFFFFFFFFFFFFFFFFFFFFFFFFFFFFFFFFFFFFF
310
FFFFFFFFFFFFFFFFFFFFFFFFFFFFFFFFFFFFFFFFFFFFFFFFFFFFFFFFFFFFFFFF
310
52006F006F007400200045006E00740072007900000000000000000000000000
310
0000000000000000000000000000000000000000000000000000000000000000
310
16000500FFFFFFFFFFFFFFFF020000000A00030000000000C000000000000046
310
00000000000000000000000070B31B5A30A7D30103000000C000000000000000
310
01004F006C006500000000000000000000000000000000000000000000000000
310
0000000000000000000000000000000000000000000000000000000000000000
310
0A000200FFFFFFFFFFFFFFFFFFFFFFFF00000000000000000000000000000000
310
0000000000000000000000000000000000000000000000001400000000000000
310
010043006F006D0070004F0062006A0000000000000000000000000000000000
310
0000000000000000000000000000000000000000000000000000000000000000
310
120002010100000003000000FFFFFFFF00000000000000000000000000000000
310
0000000000000000000000000000000000000000010000004D00000000000000
310
01004F006C006500310030004E00610074006900760065000000000000000000
310
0000000000000000000000000000000000000000000000000000000000000000
310
1A000200FFFFFFFFFFFFFFFFFFFFFFFF00000000000000000000000000000000
310
0000000000000000000000000000000000000000040000002426000000000000
310
FEFFFFFF02000000FEFFFFFFFFFFFFFFFFFFFFFFFFFFFFFFFFFFFFFFFFFFFFFF
310
FFFFFFFFFFFFFFFFFFFFFFFFFFFFFFFFFFFFFFFFFFFFFFFFFFFFFFFFFFFFFFFF
310
FFFFFFFFFFFFFFFFFFFFFFFFFFFFFFFFFFFFFFFFFFFFFFFFFFFFFFFFFFFFFFFF
310
FFFFFFFFFFFFFFFFFFFFFFFFFFFFFFFFFFFFFFFFFFFFFFFFFFFFFFFFFFFFFFFF
310
FFFFFFFFFFFFFFFFFFFFFFFFFFFFFFFFFFFFFFFFFFFFFFFFFFFFFFFFFFFFFFFF
310
FFFFFFFFFFFFFFFFFFFFFFFFFFFFFFFFFFFFFFFFFFFFFFFFFFFFFFFFFFFFFFFF
310
FFFFFFFFFFFFFFFFFFFFFFFFFFFFFFFFFFFFFFFFFFFFFFFFFFFFFFFFFFFFFFFF
310
FFFFFFFFFFFFFFFFFFFFFFFFFFFFFFFFFFFFFFFFFFFFFFFFFFFFFFFFFFFFFFFF
310
FFFFFFFFFFFFFFFFFFFFFFFFFFFFFFFFFFFFFFFFFFFFFFFFFFFFFFFFFFFFFFFF
310
FFFFFFFFFFFFFFFFFFFFFFFFFFFFFFFFFFFFFFFFFFFFFFFFFFFFFFFFFFFFFFFF
310
FFFFFFFFFFFFFFFFFFFFFFFFFFFFFFFFFFFFFFFFFFFFFFFFFFFFFFFFFFFFFFFF
310
FFFFFFFFFFFFFFFFFFFFFFFFFFFFFFFFFFFFFFFFFFFFFFFFFFFFFFFFFFFFFFFF
310
FFFFFFFFFFFFFFFFFFFFFFFFFFFFFFFFFFFFFFFFFFFFFFFFFFFFFFFFFFFFFFFF
310
FFFFFFFFFFFFFFFFFFFFFFFFFFFFFFFFFFFFFFFFFFFFFFFFFFFFFFFFFFFFFFFF
310
FFFFFFFFFFFFFFFFFFFFFFFFFFFFFFFFFFFFFFFFFFFFFFFFFFFFFFFFFFFFFFFF
310
FFFFFFFFFFFFFFFFFFFFFFFFFFFFFFFFFFFFFFFFFFFFFFFFFFFFFFFFFFFFFFFF
310
0100000200000000000000000000000000000000000000000000000000000000
310
0000000000000000000000000000000000000000000000000000000000000000
310
0100FEFF030A0000FFFFFFFF0A00030000000000C00000000000004607000000
310
5042727573680007000000504272757368000700000050427275736800F439B2
310
7100000000000000000000000000000000000000000000000000000000000000
310
0000000000000000000000000000000000000000000000000000000000000000
310
0000000000000000000000000000000000000000000000000000000000000000
310
0000000000000000000000000000000000000000000000000000000000000000
310
0000000000000000000000000000000000000000000000000000000000000000
310
0000000000000000000000000000000000000000000000000000000000000000
310
0000000000000000000000000000000000000000000000000000000000000000
310
0000000000000000000000000000000000000000000000000000000000000000
310
0000000000000000000000000000000000000000000000000000000000000000
310
0000000000000000000000000000000000000000000000000000000000000000
310
0000000000000000000000000000000000000000000000000000000000000000
310
0000000000000000000000000000000000000000000000000000000000000000
310
20260000424D0E260000000000003E00000028000000B40200006E0000000100
310
01000000000000000000130B0000130B00000200000002000000000000FFFFFF
310
FFFFFFFFFFFFFFFFFFFFFFFFFFFFFFFFFFFFFFFFFFFFFFFFFFFFFFFFFFFFFFFF
310
FFFFFFFFFFFFFFFFFFFFFFFFFFFFFFFFFFFFFFFFFFFFFFFFFFFFFFFFFFFFFFFF
310
FFFFFFFFFFFFFFFFFFFFFFFFFFFFFFFFFFFFFFFFFFFFFFFFF000FFFFFFFFFFFF
310
FFFFFFFFFFFFFFFFFFFFFFFFFFFFFFFFFFFFFFFFFFFFFFFFFFFFFFFFFFFFFFFF
310
FFFFFFFFFFFFFFFFFFFFFFFFFFFFFFFFFFFFFFFFFFFFFFFFFFFFFFFFFFFFFFFF
310
FFFFFFFFFFFFFFFFFFFFFFFFFFFFFFFFF000FFFFFFFFFFFFFFFFFFFFFFFFFFFF
310
FFFFFFFFFFFFFFFFFFFFFFFFFFFFFFFFFFFFFFFFFFFFFFFFFFFFFFFFFFFFFFFF
310
FFFFFFFFFFFFFFFFFFFFFFFFFFFFFFFFFFFFFFFFFFFFFFFFFFFFFFFFFFFFFFFF
310
FFFFFFFFFFFFFFFFF000FFFFFFFFFFFFFFFFFFFFFFFFFFFFFFFFFFFFFFFFFFFF
310
FFFFFFFFFFFFFFFFFFFFFFFFFFFFFFFFFFFFFFFFFFFFFFFFFFFFFFFFFFFFFFFF
310
FFFFFFFFFFFFFFFFFFFFFFFFFFFFFFFFFFFFFFFFFFFFFFFFFFFFFFFFFFFFFFFF
310
F000FFFFFFFFFFFFFFFFFFFFFFFFFFFFFFFFFFFFFFFFFFFFFFFFFFFFFFFFFFFF
310
FFFFFFFFFFFFFFFFFFFFFFFFFFFFFFFFFFFFFFFFFFFFFFFFFFFFFFFFFFFFFFFF
310
FFFFFFFFFFFFFFFFFFFFFFFFFFFFFFFFFFFFFFFFFFFFFFFFF000FFFFFFFFFFFF
310
FFFFFFFFFFFFFFFFFFFFFFFFFFFFFFFFFFFFFFFFFFFFFFFFFFFFFFFFFFFFFFFF
310
FFFFFFFFFFFFFFFFFFFFFFFFFFFFFFFFFFFFFFFFFFFFFFFFFFFFFFFFFFFFFFFF
310
FFFFFFFFFFFFFFFFFFFFFFFFFFFFFFFFF000FFFFFFFFFFFFFFFFFFFFFFFFFFFF
310
FFFFFFFFFFFFFFFFFFFFFFFFFFFFFFFFFFFFFFFFFFFFFFFFFFFFFFFFFFFFFFFF
310
FFFFFFFFFFFFFFFFFFFFFFFFFFFFFFFFFFFFFFFFFFFFFFFFFFFFFFFFFFFFFFFF
310
FFFFFFFFFFFFFFFFF000FFFFFFFFFFFFFFFFFFFFFFFFFFFFFFFFFFFFFFFFFFFF
310
FFFFFFFFFFFFFFFFFFFFFFFFFFFFFFFFFFFFFFFFFFFFFFFFFFFFFFFFFFFFFFFF
310
FFFFFFFFFFFFFFFFFFFFFFFFFFFFFFFFFFFFFFFFFFFFFFFFFFFFFFFFFFFFFFFF
310
F000FFFFFFFFFFFFFFFFFFFFFFFFFFFFFFFFFFFFFFFFFFFFFFFFFFFFFFFFFFFF
310
FFFFFFFFFFFFFFFFFFFFFFFFFFFFFFFFFFFFFFFFFFFFFFFFFFFFFFFFFFFFFFFF
310
FFFFFFFFFFFFFFFFFFFFFFFFFFFFFFFFFFFFFFFFFFFFFFFFF000FFFFFFFFFFFF
310
FFFFFFFFFFFFFFFFFFFFFFFFFFFFFFFFFFFFFFFFFFFFFFFFFFFFFFFFFFFFFFFF
310
FFFFFFFFFFFFFFFFFFFFFFFFFFFFFFFFFFFFFFFFFFFFFFFFFFFFFFFFFFFFFFFF
310
FFFFFFFFFFFFFFFFFFFFFFFFFFFFFFFFF000FFFFFFFFFFFFFFFFFFFFFFFFFFFF
310
FFFFFFFFFFFFFFFFFFFFFFFFFFFFFFFFFFFFFFFFFFFFFFFFFFFFFFFFFFFFFFFF
310
FFFFFFFFFFFFFFFFFFFFFFFFFFFFFFFFFFFFFFFFFFFFFFFFFFFFFFFFFFFFFFFF
310
FFFFFFFFFFFFFFFFF000FFFFFFFFFFFFFFFFFFFFFFFFFFFFFFFFFFFFFFFFFFFF
310
FFFFFFFFFFFFFFFFFFFFFFFFFFFFFFFFFFFFFFFFFFFFFFFFFFFFFFFFFFFFFFFF
310
FFFFFFFFFFFFFFFFFFFFFFFFFFFFFFFFFFFFFFFFFFFFFFFFFFFFFFFFFFFFFFFF
310
F000FFFFFFFFFFFFFFFFFFFFFFFFFFFFFFFFFFFFFFFFFFFFFFFFFFFFFFFFFFFF
310
FFFFFFFFFFFFFFFFFFFFFFFFFFFFFFFFFFFFFFFFFFFFFFFFFFFFFFFFFFFFFFFF
310
FFFFFFFFFFFFFFFFFFFFFFFFFFFFFFFFFFFFFFFFFFFFFFFFF000FFFFFFFFFFFF
310
FFFFFFFFFFFFFFFFFFFFFFFFFFFFFFFFFFFFFFFFFFFFFFFFFFFFFFFFFFFFFFFF
310
FFFFFFFFFFFFFFFFFFFFFFFFFFFFFFFFFFFFFFFFFFFFFFFFFFFFFFFFFFFFFFFF
310
FFFFFFFFFFFFFFFFFFFFFFFFFFFFFFFFF000FFFFFFFFFFFFFFFFFFFFFFFFFFFF
310
FFFFFFFFFFFFFFFFFFFFFFFFFFFFFFFFFFFFFFFFFFFFFFFFFFFFFFFFFFFFFFFF
310
FFFFFFFFFFFFFFFFFFFFFFFFFFFFFFFFFFFFFFFFFFFFFFFFFFFFFFFFFFFFFFFF
310
FFFFFFFFFFFFFFFFF000FFFFFFFFFFFFFFFFFFFFFFFFFFFFFFFFFFFFFFFFFFFF
310
FFFFFFFFFFFFFFFFFFFFFFFFFFFFFFFFFFFFFFFFFFFFFFFFFFFFFFFFFFFFFFFF
310
FFFFFFFFFFFFFFFFFFFFFFFFFFFFFFFFFFFFFFFFFFFFFFFFFFFFFFFFFFFFFFFF
310
F000FFFFFFFFFFFFFFFFFFFFFFFFFFFFFFFFFFFFFFFFFFFFFFFFFFFFFFFFFFFF
310
FFFFFFFFFFFFFFFFFFFFFFFFFFFFFFFFFFFFFFFFFFFFFFFFFFFFFFFFFFFFFFFF
310
FFFFFFFFFFFFFFFFFFFFFFFFFFFFFFFFFFFFFFFFFFFFFFFFF000FFFFFFFFFFFF
310
FFFFFFFFFFFFFFFFFFFFFFFFFFFFFFFFFFFFFFFFFFFFFFFFFFFFFFFFFFFFFFFF
310
FFFFFFFFFFFFFFFFFFFFFFFFFFFFFFFFFFFFFFFFFFFFFFFFFFFFFFFFFFFFFFFF
310
FFFFFFFFFFFFFFFFFFFFFFFFFFFFFFFFF000FFFFFFFFFFFFFFFFFFFFFFFFFFFF
310
FFFFFFFFFFFFFFFFFFFFFFFFFFFFFFFFFFFFFFFFFFFFFFFFFFFFFFFFFFFFFFFF
310
FFFFFFFFFFFFFFFFFFFFFFFFFFFFFFFFFFFFFFFFFFFFFFFFFFFFFFFFFFFFFFFF
310
FFFFFFFFFFFFFFFFF000FFFFF80003FFFFFFFFFFFFFFFFFFFFFFFFFFFFFFFFFF
310
FFFFF00007FFFFFFFFFF00007FFFFFF800000000000000007FFFFFFFFFFFFFFF
310
FFFFFFFC001FFFFFFFFFFFFFFC001FFFFFFFFFFFFFFFFFFFFFFFFFFE0007FFFF
310
F000FFFF8000007FFFFFFFF8000FFFFFC0007FFFFF80007FFFFF0000007FFFFF
310
FFF8000007FFFFF800000000000000007FFFFFF0001FFFFFFFFFFFC00001FFFF
310
FFFFFFFFC00001FFFFFFFF000000000003FFFFE000007FFFF000FFFE0000000F
310
FFFFFFF0000FFFFF80007FFFFF80007FFFFC0000001FFFFFFFC0000001FFFFF8
310
00000000000000007FFFFFF0001FFFFFFFFFFE0000003FFFFFFFFFFE0000003F
310
FFFFFF000000000003FFFF0000000FFFF000FFF800000003FFFFFFF00007FFFF
310
80007FFFFF80007FFFF000000007FFFFFF000000003FFFF80000000000000000
310
7FFFFFF0001FFFFFFFFFF80000000FFFFFFFFFF80000000FFFFFFF0000000000
310
03FFFC00000003FFF000FFE000000000FFFFFFF00007FFFF80003FFFFF80007F
310
FFC000000001FFFFFC000000001FFFF800000000000000007FFFFFF0001FFFFF
310
FFFFE000000003FFFFFFFFE000000003FFFFFF000000000003FFF000000000FF
310
F000FF80000000007FFFFFF00007FFFF80003FFFFF80007FFF8000000000FFFF
310
F80000000007FFF800000000000000007FFFFFF0001FFFFFFFFFC000000001FF
310
FFFFFFC000000001FFFFFF000000000003FFC0000000007FF000FF0000000000
310
3FFFFFE00007FFFF00003FFFFF80007FFE00000000003FFFF00000000003FFF8
310
00000000000000007FFFFFF0001FFFFFFFFF8000000000FFFFFFFF8000000000
310
FFFFFF000000000003FF80000000003FF000FE00000000001FFFFFE00003FFFF
310
00003FFFFF80007FFC00000000001FFFE00000000001FFF8000001FFFE000000
310
7FFFFFF0001FFFFFFFFE00000000003FFFFFFE00000000003FFFFF0000000000
310
03FF00000000001FF000FC00000000000FFFFFE00003FFFF00001FFFFF80007F
310
F800000000001FFFC00000000000FFF8000001FFFE0000007FFFFFF0001FFFFF
310
FFFC00000000001FFFFFFC00000000001FFFFF000000000003FE00000000000F
310
F000F8000000000007FFFFE00003FFFF00001FFFFF80007FF800000000000FFF
310
800000000000FFF8000001FFFE0000007FFFFFF0001FFFFFFFF800000000000F
310
FFFFF800000000000FFFFF000000000003FC000000000007F000F80000000000
310
03FFFFC00003FFFE00001FFFFF80007FF0000000000007FF0000000000007FF8
310
000001FFFE0000007FFFFFF0001FFFFFFFF0000000000007FFFFF00000000000
310
07FFFF000000000003F8000000000003F000F0000000000003FFFFC00001FFFE
310
00001FFFFF80007FE0000000000007FE0000000000003FF8000001FFFE000000
310
7FFFFFF0001FFFFFFFF0000000000007FFFFF0000000000007FFFF0000000000
310
03F800001F800003F000E00001FFF00001FFFFC00001FFFE00000FFFFF80007F
310
E00001FFE00003FE00001FFF00003FF8000001FFFE0000007FFFFFF0001FFFFF
310
FFE000003E000003FFFFE000003E000003FFFF000000000003F00001FFF80001
310
F000E00007FFFC0001FFFFC00001FFFE00000FFFFF80007FC0000FFFFC0003FC
310
0000FFFFC0001FF8000001FFFE0000007FFFFFF0001FFFFFFFC00003FFE00001
310
FFFFC00003FFE00001FFFF0001FFFFFFFFF00007FFFE0001F000E0000FFFFF00
310
00FFFF800001FFFC00000FFFFF80007FC0001FFFFE0001FC0001FFFFE0001FF8
310
000001FFFE0000007FFFFFF0001FFFFFFF80000FFFF80000FFFF80000FFFF800
310
00FFFF0003FFFFFFFFE0000FFFFF8000F000C0003FFFFF8000FFFF800000FFFC
310
000007FFFF80007F80003FFFFF0001FC0003FFFFF0001FF8000001FFFE000000
310
7FFFFFF0001FFFFFFF80003FFFFE0000FFFF80003FFFFE0000FFFF0003FFFFFF
310
FFE0003FFFFF8000F000C0003FFFFF8000FFFF800000FFFC000007FFFF80007F
310
80007FFFFF8001F80007FFFFF8000FF8000001FFFE0000007FFFFFF0001FFFFF
310
FF00007FFFFF00007FFF00007FFFFF00007FFF0003FFFFFFFFE0003FFFFFC000
310
F000C0007FFFFFC000FFFF000000FFFC000007FFFF80007F8000FFFFFF8000F8
310
000FFFFFF8000FF8000001FFFE0000007FFFFFF0001FFFFFFF0000FFFFFF8000
310
7FFF0000FFFFFF80007FFF0003FFFFFFFFC0007FFFFFC00070008000FFFFFFC0
310
00FFFF000000FFF8000007FFFF80007F8000FFFFFF8000F8000FFFFFF8000FF8
310
000001FFFE0000007FFFFFF0001FFFFFFE0001FFFFFFC0003FFE0001FFFFFFC0
310
003FFF0003FFFFFFFFC0007FFFFFE00070008000FFFFFFC0007FFF0000007FF8
310
000003FFFF80007F0001FFFFFF8000F8000FFFFFF8000FF8000001FFFE000000
310
7FFFFFF0001FFFFFFE0001FFFFFFC0003FFE0001FFFFFFC0003FFF0003FFFFFF
310
FFC000FFFFFFE00070008000FFFFFFC0007FFF0000007FF8000003FFFF80007F
310
0001FFFFFF8000F8001FFFFFF8000FF8000001FFFE0000007FFFFFF0001FFFFF
310
FE0003FFFFFFE0003FFE0003FFFFFFE0003FFF0003FFFFFFFFC000FFFFFFE000
310
70008000FFFFFFC0007FFE0000007FF8000003FFFF80007F0001FFFFFF8000F0
310
001FFFFFF8000FF8000001FFFE0000007FFFFFF0001FFFFFFC0003FFFFFFE000
310
1FFC0003FFFFFFE0001FFF0003FFFFFFFFC000FFFFFFC00070008000FFFFFF80
310
007FFE0000007FF0000003FFFF80007F0001FFFFFF0000F0001FFFFFF8000FF8
310
000001FFFE0000007FFFFFF0001FFFFFFC0007FFFFFFF0001FFC0007FFFFFFF0
310
001FFF0003FFFFFFFFC000FFFFFFC00070008001FFFFFF0000FFFE0000003FF0
310
000001FFFF80007F0001FFFFFF0000F8001FFFFFF0000FF8000001FFFE000000
310
7FFFFFF0001FFFFFFC0007FFFFFFF0001FFC0007FFFFFFF0001FFF0003FFFFFF
310
FFC001FFFFFF80007000FFFFFFFFFE0000FFFE0008003FF0008001FFFF80007F
310
FFFFFFFFFC0000FFFFFFFFFFE0000FF8000001FFFE0000007FFFFFF0001FFFFF
310
F8000FFFFFFFF8000FF8000FFFFFFFF8000FFF0003FFFFFFFFFFFFFFFFFF0000
310
7000FFFFFFFFFC0000FFFC0008003FF0008001FFFF80007FFFFFFFFFF80001FF
310
FFFFFFFF80000FF8000001FFFE0000007FFFFFF0001FFFFFF8000FFFFFFFF800
310
0FF8000FFFFFFFF8000FFF0003FFFFFFFFFFFFFFFFFE0000F000FFFFFFFFE000
310
00FFFC000C003FE000C001FFFF80007FFFFFFFFFC00001FFFFFFFFFE00001FF8
310
000001FFFE0000007FFFFFF0001FFFFFF8000FFFFFFFF8000FF8000FFFFFFFF8
310
000FFF0003FFFFFFFFFFFFFFFFF00000F000FFFFFFFE000001FFFC000C001FE0
310
00C000FFFF80007FFFFFFFFE000001FFFFFFFFE000001FF80FFFFFFFFFFFFFC0
310
7FFFFFF0001FFFFFF8000FFFFFFFF8000FF8000FFFFFFFF8000FFF0003FFFFFF
310
FFFFFFFFFF800000F000FFFFFFC0000001FFFC001C001FE001C000FFFF80007F
310
FFFFFF80000003FFFFFFF80000001FF80FFFFFFFFFFFFFC07FFFFFF0001FFFFF
310
F8001FFFFFFFFC000FF8001FFFFFFFFC000FFF0003FFFFFFFFFFFFFFF0000001
310
F000FFFFF800000001FFF8001C001FE001C000FFFF80007FFFFFF800000003FF
310
FFFF800000003FF80FFFFFFFFFFFFFC07FFFFFF0001FFFFFF8001FFFFFFFFC00
310
0FF8001FFFFFFFFC000FFF0003FFFFFFFFFFFFFE00000001F000FFFFC0000000
310
03FFF8001E001FC001E000FFFF80007FFFFF8000000007FFFFFC000000003FF8
310
0FFFFFFFFFFFFFC07FFFFFF0001FFFFFF8001FFFFFFFFC000FF8001FFFFFFFFC
310
000FFF0003FFFFFFFFFFFFE000000003F000FFFE0000000007FFF8001E000FC0
310
01E0007FFF80007FFFFE0000000007FFFFE0000000007FF80FFFFFFFFFFFFFC0
310
7FFFFFF0001FFFFFF0001FFFFFFFFC0007F0001FFFFFFFFC0007FF0003FFFFFF
310
FFFFFF0000000003F000FFF80000000007FFF8001E000FC003E0007FFF80007F
310
FFF0000000000FFFFF8000000000FFF80FFFFFFFFFFFFFC07FFFFFF0001FFFFF
310
F0001FFFFFFFFC0007F0001FFFFFFFFC0007FF0003FFFFFFFFFFFC0000000007
310
F000FFE0000000000FFFF0003E000FC003E0007FFF80007FFFC0000000001FFF
310
FE0000000001FFF80FFFFFFFFFFFFFC07FFFFFF0001FFFFFF0001FFFFFFFFC00
310
07F0001FFFFFFFFC0007FF0003FFFFFFFFFFF0000000000FF000FFC000000000
310
1FFFF0003F000F8003F0003FFF80007FFF80000000003FFFF80000000003FFF8
310
0FFFFFFFFFFFFFC07FFFFFF0001FFFFFF0001FFFFFFFFC0007F0001FFFFFFFFC
310
0007FF0003FFFFFFFFFFE0000000001FF000FF00000000007FFFF0003F000780
310
03F0003FFF80007FFF00000000007FFFF00000000007FFF80FFFFFFFFFFFFFC0
310
7FFFFFF0001FFFFFF0001FFFFFFFFC0007F0001FFFFFFFFC0007FF0003FFFFFF
310
FFFF80000000007FF000FE0000000000FFFFE0003F00078007F0003FFF80007F
310
FE0000000001FFFFE0000000001FFFF80FFFFFFFFFFFFFC07FFFFFF0001FFFFF
310
F0001FFFFFFFFC0007F0001FFFFFFFFC0007FF0003FFFFFFFFFF0000000000FF
310
F000FC0000000003FFFFE0007F00078007F0003FFF80007FFC0000000007FFFF
310
C0000000007FFFF80FFFFFFFFFFFFFC07FFFFFF0001FFFFFF8001FFFFFFFFC00
310
0FF8001FFFFFFFFC000FFF0003FFFFFFFFFE0000000003FFF000FC000000000F
310
FFFFE0007F80070007F8001FFF80007FF8000000001FFFFF8000000001FFFFF8
310
0FFFFFFFFFFFFFC07FFFFFF0001FFFFFF8001FFFFFFFFC000FF8001FFFFFFFFC
310
000FFF0003FFFFFFFFFC000000000FFFF000F8000000007FFFFFE0007F800700
310
07F8001FFF80007FF000000000FFFFFF800000000FFFFFF80FFFFFFFFFFFFFC0
310
7FFFFFF0001FFFFFF8000FFFFFFFF8000FF8000FFFFFFFF8000FFF0003FFFFFF
310
FFFC000000007FFFF000F800000007FFFFFFC0007F8003000FF8001FFF80007F
310
F000000007FFFFFF000000007FFFFFF80FFFFFFFFFFFFFC07FFFFFF0001FFFFF
310
F8000FFFFFFFF8000FF8000FFFFFFFF8000FFF0003FFFFFFFFF80000000FFFFF
310
F000F0000000FFFFFFFFC000FF8003000FF8001FFF80007FE0000000FFFFFFFF
310
0000000FFFFFFFF8000001FFFE0000007FFFFFF0001FFFFFF8000FFFFFFFF800
310
0FF8000FFFFFFFF8000FFF0003FFFFFFFFF8000000FFFFFFF000F000000FFFFF
310
FFFFC000FFC002000FF8000FFF80007FE000001FFFFFFFFE000001FFFFFFFFF8
310
000001FFFE0000007FFFFFF0001FFFFFF8000FFFFFFFF8000FF8000FFFFFFFF8
310
000FFF0003FFFFFFFFF000001FFFFFFFF000E00000FFFFFFFFFFC000FFC00200
310
0FFC000FFF80007FE00001FFFFFFFFFE00001FFFFFFFFFF8000001FFFE000000
310
7FFFFFF0001FFFFFFC000FFFFFFFF8001FFC000FFFFFFFF8001FFF0003FFFFFF
310
FFF00001FFFFFFFFF000E00007FFFFFFFFFF8000FFC000001FFC000FFF80007F
310
C0000FFFFFFFFFFE0000FFFFFFFFFFF8000001FFFE0000007FFFFFF0001FFFFF
310
FC0007FFFFFFF0001FFC0007FFFFFFF0001FFF0003FFFFFFFFF00007FFFFFFFF
310
F000E0001FFFFFFFFFFF8000FFC000001FFC000FFF80007FC0003FFFFFFFFFFE
310
0001FFFFFFFFFFF8000001FFFE0000007FFFFFF0001FFFFFFC0007FFFFFFF000
310
1FFC0007FFFFFFF0001FFF0003FFFFFFFFF0001FFFFFFFFFF000E0003FFFFF00
310
03FF8001FFE000001FFC0007FF80007FC0007FFFFF0007FC0003FFFFF0003FF8
310
000001FFFE0000007FFFFFF0001FFFFFFC0003FFFFFFE0001FFC0003FFFFFFE0
310
001FFF0003FFFFFFFFF0003FFFFFFFFFF000E0003FFFFF0001FF8001FFE00000
310
1FFE0007FF80007FC0007FFFFE0003FC0007FFFFE0003FF8000001FFFE000000
310
7FFFFFF0001FFFFFFE0003FFFFFFE0003FFE0003FFFFFFE0003FFF0003FFFFFF
310
FFF0003FFFFF8001F000E0003FFFFF0001FF0001FFE000001FFE0007FF80007F
310
C0007FFFFE0003FC0007FFFFE0003FF8000001FFFE0000007FFFFFF0001FFFFF
310
FE0001FFFFFFC0003FFE0001FFFFFFC0003FFF0003FFFFFFFFF0003FFFFF0001
310
F000E0003FFFFF0003FF0001FFE000003FFE0007FF80007FC0007FFFFE0003FC
310
0007FFFFE0003FF8000001FFFE0000007FFFFFF0001FFFFFFF0001FFFFFFC000
310
7FFF0001FFFFFFC0007FFF0003FFFFFFFFF0003FFFFF0001F000E0003FFFFE00
310
03FF0003FFF000003FFE0003FF80007FC0007FFFFC0003FE0007FFFFE0003FF8
310
000001FFFE0000007FFFFFF0001FFFFFFF0000FFFFFF80007FFF0000FFFFFF80
310
007FFF0003FFFFFFFFF0003FFFFF0001F000E0003FFFFE0003FF0003FFF00000
310
3FFF0003FF80007FC0007FFFFC0007FE0007FFFFC0003FF8000001FFFE000000
310
7FFFFFF0001FFFFFFF80007FFFFF0000FFFF80007FFFFF0000FFFF0003FFFFFF
310
FFF0003FFFFF0003F000E0003FFFFC0003FE0003FFF000003FFF0003FF80007F
310
E0003FFFF80007FE0003FFFFC0007FF8000001FFFE0000007FFFFFF0001FFFFF
310
FF80003FFFFE0000FFFF80003FFFFE0000FFFF0003FFFFFFFFF0001FFFFE0003
310
F000F0001FFFF80003FE0003FFF000007FFF0001FF80007FE0003FFFF00007FE
310
0001FFFF80007FF8000001FFFE0000007FFFFFF0001FFFFFFFC0000FFFF80001
310
FFFFC0000FFFF80001FFFF0003FFFFFFFFF0001FFFFC0003F000F0000FFFF000
310
07FE0007FFF800007FFF0001FF80007FE0001FFFE00007FF0000FFFE00007FF8
310
000001FFFE0000007FFFFFF0001FFFFFFFC00003FFE00001FFFFC00003FFE000
310
01FFFF0003FFFFFFFFF8000FFFF80003F000F00003FFC00007FC0007FFF80000
310
7FFF8001FF80007FF00007FF80000FFF00007FF80000FFF8000001FFFE000000
310
7F80000000000001FFE000003E000003FFFFE000003E000003FFFF0003FFFFFF
310
FFF80003FFE00007F000F800000000000FFC0007FFF800007FFF8001FF80007F
310
F000000000000FFF000000000000FFF8000001FFFE0000007F80000000000001
310
FFF0000000000007FFFFF0000000000007FFFF0003FFFFFFFFFC00007E000007
310
F000F800000000000FFC0007FFF80000FFFF8000FF80007FF800000000001FFF
310
800000000001FFF8000001FFFE0000007F80000000000001FFF800000000000F
310
FFFFF800000000000FFFFF0003FFFFFFFFFC00000000000FF000FC0000000000
310
1FFC0007FFFC0000FFFF8000FF80007FF800000000003FFFC00000000001FFF8
310
000001FFFE0000007F80000000000001FFF800000000000FFFFFF80000000000
310
0FFFFF0003FFFFFFFFFE00000000001FF000FE00000000003FF8000FFFFC0000
310
FFFF8000FF80007FFC00000000003FFFC00000000003FFF8000001FFFE000000
310
7F80000000000001FFFC00000000001FFFFFFC00000000001FFFFF0003FFFFFF
310
FFFF00000000001FF000FF00000000003FF8000FFFFC0000FFFFC000FF80007F
310
FE00000000007FFFE00000000007FFF8000001FFFE0000007F80000000000001
310
FFFE00000000003FFFFFFE00000000003FFFFF0003FFFFFFFFFF80000000003F
310
F000FF80000000007FF8000FFFFC0001FFFFC0007F80007FFF0000000000FFFF
310
F0000000000FFFF800000000000000007F80000000000001FFFF8000000000FF
310
FFFFFF8000000000FFFFFF0003FFFFFFFFFFC0000000007FF000FFC000000000
310
FFF8000FFFFE0001FFFFC0007F80007FFF8000000001FFFFF8000000001FFFF8
310
00000000000000007F80000000000001FFFFC000000001FFFFFFFFC000000001
310
FFFFFF0003FFFFFFFFFFE000000000FFF000FFE000000003FFF0001FFFFE0001
310
FFFFC0007F80007FFFC000000007FFFFFE000000003FFFF80000000000000000
310
7F80000000000001FFFFE000000003FFFFFFFFE000000003FFFFFF0003FFFFFF
310
FFFFF000000003FFF000FFF80000000FFFF0001FFFFE0001FFFFE0007F80007F
310
FFF00000000FFFFFFF00000000FFFFF800000000000000007F80000000000001
310
FFFFF80000000FFFFFFFFFF80000000FFFFFFF0003FFFFFFFFFFFC0000000FFF
310
F000FFFE0000003FFFF0001FFFFE0003FFFFE0003F80007FFFFC0000003FFFFF
310
FFC0000003FFFFF800000000000000007F80000000000001FFFFFE0000003FFF
310
FFFFFFFE0000003FFFFFFF0003FFFFFFFFFFFF0000003FFFF000FFFF800000FF
310
FFF0001FFFFF0003FFFFE0003F80007FFFFF000001FFFFFFFFF800001FFFFFF8
310
00000000000000007F80000000000001FFFFFFC00001FFFFFFFFFFFFC00001FF
310
FFFFFF0003FFFFFFFFFFFFC00000FFFFF000FFFFF8000FFFFFFFFFFFFFFFFFFF
310
FFFFFFFFFFFFFFFFFFFFF0001FFFFFFFFFFF0000FFFFFFF80000000000000000
310
7FFFFFFFFFFFFFFFFFFFFFFC001FFFFFFFFFFFFFFC001FFFFFFFFFFFFFFFFFFF
310
FFFFFFFC001FFFFFF000FFFFFFFFFFFFFFFFFFFFFFFFFFFFFFFFFFFFFFFFFFFF
310
FFFFFFFFFFFFFFFFFFFFFFFFFFFFFFFFFFFFFFFFFFFFFFFFFFFFFFFFFFFFFFFF
310
FFFFFFFFFFFFFFFFFFFFFFFFFFFFFFFFFFFFFFFFFFFFFFFFFFFFFFFFFFFFFFFF
310
F000FFFFFFFFFFFFFFFFFFFFFFFFFFFFFFFFFFFFFFFFFFFFFFFFFFFFFFFFFFFF
310
FFFFFFFFFFFFFFFFFFFFFFFFFFFFFFFFFFFFFFFFFFFFFFFFFFFFFFFFFFFFFFFF
310
FFFFFFFFFFFFFFFFFFFFFFFFFFFFFFFFFFFFFFFFFFFFFFFFF000FFFFFFFFFFFF
310
FFFFFFFFFFFFFFFFFFFFFFFFFFFFFFFFFFFFFFFFFFFFFFFFFFFFFFFFFFFFFFFF
310
FFFFFFFFFFFFFFFFFFFFFFFFFFFFFFFFFFFFFFFFFFFFFFFFFFFFFFFFFFFFFFFF
310
FFFFFFFFFFFFFFFFFFFFFFFFFFFFFFFFF000FFFFFFFFFFFFFFFFFFFFFFFFFFFF
310
FFFFFFFFFFFFFFFFFFFFFFFFFFFFFFFFFFFFFFFFFFFFFFFFFFFFFFFFFFFFFFFF
310
FFFFFFFFFFFFFFFFFFFFFFFFFFFFFFFFFFFFFFFFFFFFFFFFFFFFFFFFFFFFFFFF
310
FFFFFFFFFFFFFFFFF000FFFFFFFFFFFFFFFFFFFFFFFFFFFFFFFFFFFFFFFFFFFF
310
FFFFFFFFFFFFFFFFFFFFFFFFFFFFFFFFFFFFFFFFFFFFFFFFFFFFFFFFFFFFFFFF
310
FFFFFFFFFFFFFFFFFFFFFFFFFFFFFFFFFFFFFFFFFFFFFFFFFFFFFFFFFFFFFFFF
310
F000FFFFFFFFFFFFFFFFFFFFFFFFFFFFFFFFFFFFFFFFFFFFFFFFFFFFFFFFFFFF
310
FFFFFFFFFFFFFFFFFFFFFFFFFFFFFFFFFFFFFFFFFFFFFFFFFFFFFFFFFFFFFFFF
310
FFFFFFFFFFFFFFFFFFFFFFFFFFFFFFFFFFFFFFFFFFFFFFFFF000FFFFFFFFFFFF
310
FFFFFFFFFFFFFFFFFFFFFFFFFFFFFFFFFFFFFFFFFFFFFFFFFFFFFFFFFFFFFFFF
310
FFFFFFFFFFFFFFFFFFFFFFFFFFFFFFFFFFFFFFFFFFFFFFFFFFFFFFFFFFFFFFFF
310
FFFFFFFFFFFFFFFFFFFFFFFFFFFFFFFFF000FFFFFFFFFFFFFFFFFFFFFFFFFFFF
310
FFFFFFFFFFFFFFFFFFFFFFFFFFFFFFFFFFFFFFFFFFFFFFFFFFFFFFFFFFFFFFFF
310
FFFFFFFFFFFFFFFFFFFFFFFFFFFFFFFFFFFFFFFFFFFFFFFFFFFFFFFFFFFFFFFF
310
FFFFFFFFFFFFFFFFF000FFFFFFFFFFFFFFFFFFFFFFFFFFFFFFFFFFFFFFFFFFFF
310
FFFFFFFFFFFFFFFFFFFFFFFFFFFFFFFFFFFFFFFFFFFFFFFFFFFFFFFFFFFFFFFF
310
FFFFFFFFFFFFFFFFFFFFFFFFFFFFFFFFFFFFFFFFFFFFFFFFFFFFFFFFFFFFFFFF
310
F000FFFFFFFFFFFFFFFFFFFFFFFFFFFFFFFFFFFFFFFFFFFFFFFFFFFFFFFFFFFF
310
FFFFFFFFFFFFFFFFFFFFFFFFFFFFFFFFFFFFFFFFFFFFFFFFFFFFFFFFFFFFFFFF
310
FFFFFFFFFFFFFFFFFFFFFFFFFFFFFFFFFFFFFFFFFFFFFFFFF000FFFFFFFFFFFF
310
FFFFFFFFFFFFFFFFFFFFFFFFFFFFFFFFFFFFFFFFFFFFFFFFFFFFFFFFFFFFFFFF
310
FFFFFFFFFFFFFFFFFFFFFFFFFFFFFFFFFFFFFFFFFFFFFFFFFFFFFFFFFFFFFFFF
310
FFFFFFFFFFFFFFFFFFFFFFFFFFFFFFFFF000FFFFFFFFFFFFFFFFFFFFFFFFFFFF
310
FFFFFFFFFFFFFFFFFFFFFFFFFFFFFFFFFFFFFFFFFFFFFFFFFFFFFFFFFFFFFFFF
310
FFFFFFFFFFFFFFFFFFFFFFFFFFFFFFFFFFFFFFFFFFFFFFFFFFFFFFFFFFFFFFFF
310
FFFFFFFFFFFFFFFFF000FFFFFFFFFFFFFFFFFFFFFFFFFFFFFFFFFFFFFFFFFFFF
310
FFFFFFFFFFFFFFFFFFFFFFFFFFFFFFFFFFFFFFFFFFFFFFFFFFFFFFFFFFFFFFFF
310
FFFFFFFFFFFFFFFFFFFFFFFFFFFFFFFFFFFFFFFFFFFFFFFFFFFFFFFFFFFFFFFF
310
F000FFFFFFFFFFFFFFFFFFFFFFFFFFFFFFFFFFFFFFFFFFFFFFFFFFFFFFFFFFFF
310
FFFFFFFFFFFFFFFFFFFFFFFFFFFFFFFFFFFFFFFFFFFFFFFFFFFFFFFFFFFFFFFF
310
FFFFFFFFFFFFFFFFFFFFFFFFFFFFFFFFFFFFFFFFFFFFFFFFF000FFFFFFFFFFFF
310
FFFFFFFFFFFFFFFFFFFFFFFFFFFFFFFFFFFFFFFFFFFFFFFFFFFFFFFFFFFFFFFF
310
FFFFFFFFFFFFFFFFFFFFFFFFFFFFFFFFFFFFFFFFFFFFFFFFFFFFFFFFFFFFFFFF
310
FFFFFFFFFFFFFFFFFFFFFFFFFFFFFFFFF000FFFFFFFFFFFFFFFFFFFFFFFFFFFF
310
FFFFFFFFFFFFFFFFFFFFFFFFFFFFFFFFFFFFFFFFFFFFFFFFFFFFFFFFFFFFFFFF
310
FFFFFFFFFFFFFFFFFFFFFFFFFFFFFFFFFFFFFFFFFFFFFFFFFFFFFFFFFFFFFFFF
310
FFFFFFFFFFFFFFFFF000FFFFFFFFFFFFFFFFFFFFFFFFFFFFFFFFFFFFFFFFFFFF
310
FFFFFFFFFFFFFFFFFFFFFFFFFFFFFFFFFFFFFFFFFFFFFFFFFFFFFFFFFFFFFFFF
310
FFFFFFFFFFFFFFFFFFFFFFFFFFFFFFFFFFFFFFFFFFFFFFFFFFFFFFFFFFFFFFFF
310
F000FFFFFFFFFFFFFFFFFFFFFFFFFFFFFFFFFFFFFFFFFFFFFFFFFFFFFFFFFFFF
310
FFFFFFFFFFFFFFFFFFFFFFFFFFFFFFFFFFFFFFFFFFFFFFFFFFFFFFFFFFFFFFFF
310
FFFFFFFFFFFFFFFFFFFFFFFFFFFFFFFFFFFFFFFFFFFFFFFFF000FFFFFFFFFFFF
310
FFFFFFFFFFFFFFFFFFFFFFFFFFFFFFFFFFFFFFFFFFFFFFFFFFFFFFFFFFFFFFFF
310
FFFFFFFFFFFFFFFFFFFFFFFFFFFFFFFFFFFFFFFFFFFFFFFFFFFFFFFFFFFFFFFF
310
FFFFFFFFFFFFFFFFFFFFFFFFFFFFFFFFF000FFFFFFFFFFFFFFFFFFFFFFFFFFFF
310
FFFFFFFFFFFFFFFFFFFFFFFFFFFFFFFFFFFFFFFFFFFFFFFFFFFFFFFFFFFFFFFF
310
FFFFFFFFFFFFFFFFFFFFFFFFFFFFFFFFFFFFFFFFFFFFFFFFFFFFFFFFFFFFFFFF
310
FFFFFFFFFFFFFFFFF000FFFFFFFFFFFFFFFFFFFFFFFFFFFFFFFFFFFFFFFFFFFF
310
FFFFFFFFFFFFFFFFFFFFFFFFFFFFFFFFFFFFFFFFFFFFFFFFFFFFFFFFFFFFFFFF
310
FFFFFFFFFFFFFFFFFFFFFFFFFFFFFFFFFFFFFFFFFFFFFFFFFFFFFFFFFFFFFFFF
310
F000FFFFFFFFFFFFFFFFFFFFFFFFFFFFFFFFFFFFFFFFFFFFFFFFFFFFFFFFFFFF
310
FFFFFFFFFFFFFFFFFFFFFFFFFFFFFFFFFFFFFFFFFFFFFFFFFFFFFFFFFFFFFFFF
310
FFFFFFFFFFFFFFFFFFFFFFFFFFFFFFFFFFFFFFFFFFFFFFFFF000FFFFFFFFFFFF
310
FFFFFFFFFFFFFFFFFFFFFFFFFFFFFFFFFFFFFFFFFFFFFFFFFFFFFFFFFFFFFFFF
310
FFFFFFFFFFFFFFFFFFFFFFFFFFFFFFFFFFFFFFFFFFFFFFFFFFFFFFFFFFFFFFFF
310
FFFFFFFFFFFFFFFFFFFFFFFFFFFFFFFFF0000000000000000000000000000000
310
0000000000000000000000000000000000000000000000000000000000000000
310
0000000000000000000000000000000000000000000000000000000000000000
310
0000000000000000000000000000000000000000000000000000000000000000
310
0000000000000000000000000000000000000000000000000000000000000000
310
0000000000000000000000000000000000000000000000000000000000000000
310
0000000000000000000000000000000000000000000000000000000000000000
310
0000000000000000000000000000000000000000000000000000000000000000
310
0000000000000000000000000000000000000000000000000000000000000000
310
0000000000000000000000000000000000000000000000000000000000000000
310
0000000000000000000000000000000000000000000000000000000000000000
310
0000000000000000000000000000000000000000000000000000000000000000
310
0000000000000000000000000000000000000000000000000000000000000000
310
0000000000000000000000000000000000000000000000000000000000000000
310
0000000000000000000000000000000000000000000000000000000000000000
310
0000000000000000000000000000000000000000000000000000000000000000
  1
OLE
  0
ENDSEC
  0
SECTION
  2
OBJECTS
  0
DICTIONARY
  5
C
330
0
100
AcDbDictionary
281
     1
  3
ACAD_GROUP
350
D
  3
ACAD_LAYOUT
350
1A
  3
ACAD_MLINESTYLE
350
17
  3
ACAD_PLOTSETTINGS
350
19
  3
ACAD_PLOTSTYLENAME
350
E
  3
ACAD_SCALELIST
350
47
  0
DICTIONARY
  5
D
102
{ACAD_REACTORS
330
C
102
}
330
C
100
AcDbDictionary
281
     1
  0
DICTIONARY
  5
1A
102
{ACAD_REACTORS
330
C
102
}
330
C
100
AcDbDictionary
281
     1
  3
Layout1
350
1E
  3
Layout2
350
26
  3
Model
350
22
  0
DICTIONARY
  5
17
102
{ACAD_REACTORS
330
C
102
}
330
C
100
AcDbDictionary
281
     1
  3
Standard
350
18
  0
DICTIONARY
  5
19
102
{ACAD_REACTORS
330
C
102
}
330
C
100
AcDbDictionary
281
     1
  0
ACDBDICTIONARYWDFLT
  5
E
102
{ACAD_REACTORS
330
C
102
}
330
C
100
AcDbDictionary
281
     1
  3
Normal
350
F
100
AcDbDictionaryWithDefault
340
F
  0
DICTIONARY
  5
47
102
{ACAD_REACTORS
330
C
102
}
330
C
100
AcDbDictionary
281
     1
  3
A0
350
48
  3
A1
350
49
  3
A2
350
4A
  3
A3
350
4B
  3
A4
350
4C
  3
A5
350
4D
  3
A6
350
4E
  3
A7
350
4F
  3
A8
350
50
  3
A9
350
51
  3
B0
350
52
  3
B1
350
53
  3
B2
350
54
  3
B3
350
55
  3
B4
350
56
  3
B5
350
57
  3
B6
350
58
  3
B7
350
59
  3
B8
350
5A
  3
B9
350
5B
  3
C0
350
5C
  3
C1
350
5D
  3
C2
350
5E
  3
C3
350
5F
  3
C4
350
60
  3
C5
350
61
  3
C6
350
62
  3
C7
350
63
  3
C8
350
64
  3
C9
350
65
  3
D0
350
66
  3
D1
350
67
  3
D2
350
68
  0
LAYOUT
  5
1E
102
{ACAD_REACTORS
330
1A
102
}
330
1A
100
AcDbPlotSettings
  1

  2
none_device
  4

  6

 40
0.0
 41
0.0
 42
0.0
 43
0.0
 44
0.0
 45
0.0
 46
0.0
 47
0.0
 48
0.0
 49
0.0
140
0.0
141
0.0
142
1.0
143
1.0
 70
   688
 72
     1
 73
     0
 74
     5
  7

 75
    16
147
1.0
148
0.0
149
0.0
100
AcDbLayout
  1
Layout1
 70
     1
 71
     1
 10
0.0
 20
0.0
 11
420.0
 21
297.0
 12
0.0
 22
0.0
 32
0.0
 14
1.0000000000E+20
 24
1.0000000000E+20
 34
1.0000000000E+20
 15
-1.0000000000E+20
 25
-1.0000000000E+20
 35
-1.0000000000E+20
146
0.0
 13
0.0
 23
0.0
 33
0.0
 16
1.0
 26
0.0
 36
0.0
 17
0.0
 27
1.0
 37
0.0
 76
     0
330
1B
  0
LAYOUT
  5
26
102
{ACAD_REACTORS
330
1A
102
}
330
1A
100
AcDbPlotSettings
  1

  2
none_device
  4

  6

 40
0.0
 41
0.0
 42
0.0
 43
0.0
 44
0.0
 45
0.0
 46
0.0
 47
0.0
 48
0.0
 49
0.0
140
0.0
141
0.0
142
1.0
143
1.0
 70
   688
 72
     1
 73
     0
 74
     5
  7

 75
    16
147
1.0
148
0.0
149
0.0
100
AcDbLayout
  1
Layout2
 70
     1
 71
     2
 10
0.0
 20
0.0
 11
0.0
 21
0.0
 12
0.0
 22
0.0
 32
0.0
 14
0.0
 24
0.0
 34
0.0
 15
0.0
 25
0.0
 35
0.0
146
0.0
 13
0.0
 23
0.0
 33
0.0
 16
1.0
 26
0.0
 36
0.0
 17
0.0
 27
1.0
 37
0.0
 76
     0
330
23
  0
LAYOUT
  5
22
102
{ACAD_REACTORS
330
1A
102
}
330
1A
100
AcDbPlotSettings
  1

  2
none_device
  4
Letter_(8.50_x_11.00_Inches)
  6

 40
6.35
 41
6.35
 42
6.35000508
 43
6.35000508
 44
215.9
 45
279.4
 46
0.0
 47
0.0
 48
0.0
 49
0.0
140
0.0
141
0.0
142
1.0
143
1.0
 70
  1712
 72
     1
 73
     0
 74
     0
  7

 75
     0
147
1.0
148
0.0
149
0.0
100
AcDbLayout
  1
Model
 70
     1
 71
     0
 10
0.0
 20
0.0
 11
297.0
 21
210.0
 12
0.0
 22
0.0
 32
0.0
 14
0.0
 24
0.0
 34
0.0
 15
297.0
 25
210.0
 35
0.0
146
0.0
 13
0.0
 23
0.0
 33
0.0
 16
1.0
 26
0.0
 36
0.0
 17
0.0
 27
1.0
 37
0.0
 76
     0
330
1F
331
29
  0
MLINESTYLE
  5
18
102
{ACAD_REACTORS
330
17
102
}
330
17
100
AcDbMlineStyle
  2
Standard
 70
     0
  3

 62
   256
 51
90.0
 52
90.0
 71
     2
 49
0.5
 62
   256
  6
BYLAYER
 49
-0.5
 62
   256
  6
BYLAYER
  0
ACDBPLACEHOLDER
  5
F
102
{ACAD_REACTORS
330
E
102
}
330
E
  0
SCALE
  5
48
102
{ACAD_REACTORS
330
47
102
}
330
47
100
AcDbScale
 70
     0
300
1:1
140
1.0
141
1.0
290
     1
  0
SCALE
  5
49
102
{ACAD_REACTORS
330
47
102
}
330
47
100
AcDbScale
 70
     0
300
1:2
140
1.0
141
2.0
290
     0
  0
SCALE
  5
4A
102
{ACAD_REACTORS
330
47
102
}
330
47
100
AcDbScale
 70
     0
300
1:4
140
1.0
141
4.0
290
     0
  0
SCALE
  5
4B
102
{ACAD_REACTORS
330
47
102
}
330
47
100
AcDbScale
 70
     0
300
1:5
140
1.0
141
5.0
290
     0
  0
SCALE
  5
4C
102
{ACAD_REACTORS
330
47
102
}
330
47
100
AcDbScale
 70
     0
300
1:8
140
1.0
141
8.0
290
     0
  0
SCALE
  5
4D
102
{ACAD_REACTORS
330
47
102
}
330
47
100
AcDbScale
 70
     0
300
1:10
140
1.0
141
10.0
290
     0
  0
SCALE
  5
4E
102
{ACAD_REACTORS
330
47
102
}
330
47
100
AcDbScale
 70
     0
300
1:16
140
1.0
141
16.0
290
     0
  0
SCALE
  5
4F
102
{ACAD_REACTORS
330
47
102
}
330
47
100
AcDbScale
 70
     0
300
1:20
140
1.0
141
20.0
290
     0
  0
SCALE
  5
50
102
{ACAD_REACTORS
330
47
102
}
330
47
100
AcDbScale
 70
     0
300
1:30
140
1.0
141
30.0
290
     0
  0
SCALE
  5
51
102
{ACAD_REACTORS
330
47
102
}
330
47
100
AcDbScale
 70
     0
300
1:40
140
1.0
141
40.0
290
     0
  0
SCALE
  5
52
102
{ACAD_REACTORS
330
47
102
}
330
47
100
AcDbScale
 70
     0
300
1:50
140
1.0
141
50.0
290
     0
  0
SCALE
  5
53
102
{ACAD_REACTORS
330
47
102
}
330
47
100
AcDbScale
 70
     0
300
1:100
140
1.0
141
100.0
290
     0
  0
SCALE
  5
54
102
{ACAD_REACTORS
330
47
102
}
330
47
100
AcDbScale
 70
     0
300
2:1
140
2.0
141
1.0
290
     0
  0
SCALE
  5
55
102
{ACAD_REACTORS
330
47
102
}
330
47
100
AcDbScale
 70
     0
300
4:1
140
4.0
141
1.0
290
     0
  0
SCALE
  5
56
102
{ACAD_REACTORS
330
47
102
}
330
47
100
AcDbScale
 70
     0
300
8:1
140
8.0
141
1.0
290
     0
  0
SCALE
  5
57
102
{ACAD_REACTORS
330
47
102
}
330
47
100
AcDbScale
 70
     0
300
10:1
140
10.0
141
1.0
290
     0
  0
SCALE
  5
58
102
{ACAD_REACTORS
330
47
102
}
330
47
100
AcDbScale
 70
     0
300
100:1
140
100.0
141
1.0
290
     0
  0
SCALE
  5
59
102
{ACAD_REACTORS
330
47
102
}
330
47
100
AcDbScale
 70
     0
300
1/128" = 1'-0"
140
0.0078125
141
12.0
290
     0
  0
SCALE
  5
5A
102
{ACAD_REACTORS
330
47
102
}
330
47
100
AcDbScale
 70
     0
300
1/64" = 1'-0"
140
0.015625
141
12.0
290
     0
  0
SCALE
  5
5B
102
{ACAD_REACTORS
330
47
102
}
330
47
100
AcDbScale
 70
     0
300
1/32" = 1'-0"
140
0.03125
141
12.0
290
     0
  0
SCALE
  5
5C
102
{ACAD_REACTORS
330
47
102
}
330
47
100
AcDbScale
 70
     0
300
1/16" = 1'-0"
140
0.0625
141
12.0
290
     0
  0
SCALE
  5
5D
102
{ACAD_REACTORS
330
47
102
}
330
47
100
AcDbScale
 70
     0
300
3/32" = 1'-0"
140
0.09375
141
12.0
290
     0
  0
SCALE
  5
5E
102
{ACAD_REACTORS
330
47
102
}
330
47
100
AcDbScale
 70
     0
300
1/8" = 1'-0"
140
0.125
141
12.0
290
     0
  0
SCALE
  5
5F
102
{ACAD_REACTORS
330
47
102
}
330
47
100
AcDbScale
 70
     0
300
3/16" = 1'-0"
140
0.1875
141
12.0
290
     0
  0
SCALE
  5
60
102
{ACAD_REACTORS
330
47
102
}
330
47
100
AcDbScale
 70
     0
300
1/4" = 1'-0"
140
0.25
141
12.0
290
     0
  0
SCALE
  5
61
102
{ACAD_REACTORS
330
47
102
}
330
47
100
AcDbScale
 70
     0
300
3/8" = 1'-0"
140
0.375
141
12.0
290
     0
  0
SCALE
  5
62
102
{ACAD_REACTORS
330
47
102
}
330
47
100
AcDbScale
 70
     0
300
1/2" = 1'-0"
140
0.5
141
12.0
290
     0
  0
SCALE
  5
63
102
{ACAD_REACTORS
330
47
102
}
330
47
100
AcDbScale
 70
     0
300
3/4" = 1'-0"
140
0.75
141
12.0
290
     0
  0
SCALE
  5
64
102
{ACAD_REACTORS
330
47
102
}
330
47
100
AcDbScale
 70
     0
300
1" = 1'-0"
140
1.0
141
12.0
290
     0
  0
SCALE
  5
65
102
{ACAD_REACTORS
330
47
102
}
330
47
100
AcDbScale
 70
     0
300
1-1/2" = 1'-0"
140
1.5
141
12.0
290
     0
  0
SCALE
  5
66
102
{ACAD_REACTORS
330
47
102
}
330
47
100
AcDbScale
 70
     0
300
3" = 1'-0"
140
3.0
141
12.0
290
     0
  0
SCALE
  5
67
102
{ACAD_REACTORS
330
47
102
}
330
47
100
AcDbScale
 70
     0
300
6" = 1'-0"
140
6.0
141
12.0
290
     0
  0
SCALE
  5
68
102
{ACAD_REACTORS
330
47
102
}
330
47
100
AcDbScale
 70
     0
300
1'-0" = 1'-0"
140
12.0
141
12.0
290
     0
  0
ENDSEC
  0
EOF
