  0
SECTION
  2
HEADER
  9
$ACADVER
  1
AC1015
  9
$ACADMAINTVER
 70
     6
  9
$DWGCODEPAGE
  3
ANSI_1252
  9
$INSBASE
 10
0.0
 20
0.0
 30
0.0
  9
$EXTMIN
 10
0.0
 20
0.0
 30
0.0
  9
$EXTMAX
 10
297.0
 20
210.0
 30
0.0
  9
$LIMMIN
 10
0.0
 20
0.0
  9
$LIMMAX
 10
297.0
 20
210.0
  9
$ORTHOMODE
 70
     0
  9
$REGENMODE
 70
     1
  9
$FILLMODE
 70
     1
  9
$QTEXTMODE
 70
     0
  9
$MIRRTEXT
 70
     1
  9
$LTSCALE
 40
1.0
  9
$ATTMODE
 70
     1
  9
$TEXTSIZE
 40
2.0
  9
$TRACEWID
 40
1.0
  9
$TEXTSTYLE
  7
Standard
  9
$CLAYER
  8
0
  9
$CELTYPE
  6
ByLayer
  9
$CECOLOR
 62
   256
  9
$CELTSCALE
 40
1.0
  9
$DISPSILH
 70
     0
  9
$DIMSCALE
 40
1.0
  9
$DIMASZ
 40
3.0
  9
$DIMEXO
 40
0.0
  9
$DIMDLI
 40
3.75
  9
$DIMRND
 40
0.0
  9
$DIMDLE
 40
0.0
  9
$DIMEXE
 40
1.0
  9
$DIMTP
 40
0.0
  9
$DIMTM
 40
0.0
  9
$DIMTXT
 40
2.0
  9
$DIMCEN
 40
2.5
  9
$DIMTSZ
 40
0.0
  9
$DIMTOL
 70
     0
  9
$DIMLIM
 70
     0
  9
$DIMTIH
 70
     1
  9
$DIMTOH
 70
     1
  9
$DIMSE1
 70
     0
  9
$DIMSE2
 70
     0
  9
$DIMTAD
 70
     1
  9
$DIMZIN
 70
     0
  9
$DIMBLK
  1

  9
$DIMASO
 70
     1
  9
$DIMSHO
 70
     1
  9
$DIMPOST
  1

  9
$DIMAPOST
  1

  9
$DIMALT
 70
     0
  9
$DIMALTD
 70
     3
  9
$DIMALTF
 40
0.0393700787
  9
$DIMLFAC
 40
2.0
  9
$DIMTOFL
 70
     1
  9
$DIMTVP
 40
0.0
  9
$DIMTIX
 70
     0
  9
$DIMSOXD
 70
     0
  9
$DIMSAH
 70
     0
  9
$DIMBLK1
  1

  9
$DIMBLK2
  1

  9
$DIMSTYLE
  2
ISO-25
  9
$DIMCLRD
 70
     0
  9
$DIMCLRE
 70
     0
  9
$DIMCLRT
 70
     0
  9
$DIMTFAC
 40
1.0
  9
$DIMGAP
 40
1.524
  9
$DIMJUST
 70
     0
  9
$DIMSD1
 70
     0
  9
$DIMSD2
 70
     0
  9
$DIMTOLJ
 70
     0
  9
$DIMTZIN
 70
     0
  9
$DIMALTZ
 70
     0
  9
$DIMALTTZ
 70
     0
  9
$DIMUPT
 70
     0
  9
$DIMDEC
 70
     2
  9
$DIMTDEC
 70
     3
  9
$DIMALTU
 70
     2
  9
$DIMALTTD
 70
     3
  9
$DIMTXSTY
  7
Standard
  9
$DIMAUNIT
 70
     0
  9
$DIMADEC
 70
     2
  9
$DIMALTRND
 40
0.0
  9
$DIMAZIN
 70
     0
  9
$DIMDSEP
 70
    44
  9
$DIMATFIT
 70
     3
  9
$DIMFRAC
 70
     0
  9
$DIMLDRBLK
  1

  9
$DIMLUNIT
 70
     2
  9
$DIMLWD
 70
    -2
  9
$DIMLWE
 70
    -2
  9
$DIMTMOVE
 70
     0
  9
$LUNITS
 70
     2
  9
$LUPREC
 70
     2
  9
$SKETCHINC
 40
1.0
  9
$FILLETRAD
 40
10.0
  9
$AUNITS
 70
     0
  9
$AUPREC
 70
     2
  9
$MENU
  1
.
  9
$ELEVATION
 40
0.0
  9
$PELEVATION
 40
0.0
  9
$THICKNESS
 40
0.0
  9
$LIMCHECK
 70
     0
  9
$CHAMFERA
 40
0.0
  9
$CHAMFERB
 40
0.0
  9
$CHAMFERC
 40
0.0
  9
$CHAMFERD
 40
0.0
  9
$SKPOLY
 70
     0
  9
$TDCREATE
 40
2458166.575494375
  9
$TDUCREATE
 40
2458166.533827708
  9
$TDUPDATE
 40
2458166.575496366
  9
$TDUUPDATE
 40
2458166.533829699
  9
$TDINDWG
 40
0.0000000116
  9
$TDUSRTIMER
 40
0.0000000116
  9
$USRTIMER
 70
     1
  9
$ANGBASE
 50
0.0
  9
$ANGDIR
 70
     0
  9
$PDMODE
 70
     0
  9
$PDSIZE
 40
-1.0
  9
$PLINEWID
 40
0.0
  9
$SPLFRAME
 70
     0
  9
$SPLINETYPE
 70
     6
  9
$SPLINESEGS
 70
     8
  9
$HANDSEED
  5
1EE
  9
$SURFTAB1
 70
     6
  9
$SURFTAB2
 70
     6
  9
$SURFTYPE
 70
     6
  9
$SURFU
 70
     6
  9
$SURFV
 70
     6
  9
$UCSBASE
  2

  9
$UCSNAME
  2

  9
$UCSORG
 10
0.0
 20
0.0
 30
0.0
  9
$UCSXDIR
 10
1.0
 20
0.0
 30
0.0
  9
$UCSYDIR
 10
0.0
 20
1.0
 30
0.0
  9
$UCSORTHOREF
  2

  9
$UCSORTHOVIEW
 70
     0
  9
$UCSORGTOP
 10
0.0
 20
0.0
 30
0.0
  9
$UCSORGBOTTOM
 10
0.0
 20
0.0
 30
0.0
  9
$UCSORGLEFT
 10
0.0
 20
0.0
 30
0.0
  9
$UCSORGRIGHT
 10
0.0
 20
0.0
 30
0.0
  9
$UCSORGFRONT
 10
0.0
 20
0.0
 30
0.0
  9
$UCSORGBACK
 10
0.0
 20
0.0
 30
0.0
  9
$PUCSBASE
  2

  9
$PUCSNAME
  2

  9
$PUCSORG
 10
0.0
 20
0.0
 30
0.0
  9
$PUCSXDIR
 10
1.0
 20
0.0
 30
0.0
  9
$PUCSYDIR
 10
0.0
 20
1.0
 30
0.0
  9
$PUCSORTHOREF
  2

  9
$PUCSORTHOVIEW
 70
     0
  9
$PUCSORGTOP
 10
0.0
 20
0.0
 30
0.0
  9
$PUCSORGBOTTOM
 10
0.0
 20
0.0
 30
0.0
  9
$PUCSORGLEFT
 10
0.0
 20
0.0
 30
0.0
  9
$PUCSORGRIGHT
 10
0.0
 20
0.0
 30
0.0
  9
$PUCSORGFRONT
 10
0.0
 20
0.0
 30
0.0
  9
$PUCSORGBACK
 10
0.0
 20
0.0
 30
0.0
  9
$USERI1
 70
     0
  9
$USERI2
 70
     0
  9
$USERI3
 70
     0
  9
$USERI4
 70
     0
  9
$USERI5
 70
     0
  9
$USERR1
 40
0.0
  9
$USERR2
 40
0.0
  9
$USERR3
 40
0.0
  9
$USERR4
 40
0.0
  9
$USERR5
 40
0.0
  9
$WORLDVIEW
 70
     1
  9
$SHADEDGE
 70
     3
  9
$SHADEDIF
 70
    70
  9
$TILEMODE
 70
     1
  9
$MAXACTVP
 70
    64
  9
$PINSBASE
 10
0.0
 20
0.0
 30
0.0
  9
$PLIMCHECK
 70
     0
  9
$PEXTMIN
 10
1.0000000000E+20
 20
1.0000000000E+20
 30
1.0000000000E+20
  9
$PEXTMAX
 10
-1.0000000000E+20
 20
-1.0000000000E+20
 30
-1.0000000000E+20
  9
$PLIMMIN
 10
0.0
 20
0.0
  9
$PLIMMAX
 10
420.0
 20
297.0
  9
$UNITMODE
 70
     0
  9
$VISRETAIN
 70
     1
  9
$PLINEGEN
 70
     0
  9
$PSLTSCALE
 70
     1
  9
$TREEDEPTH
 70
  3020
  9
$CMLSTYLE
  2
Standard
  9
$CMLJUST
 70
     0
  9
$CMLSCALE
 40
20.0
  9
$PROXYGRAPHICS
 70
     1
  9
$MEASUREMENT
 70
     1
  9
$CELWEIGHT
370
    -1
  9
$ENDCAPS
280
     0
  9
$JOINSTYLE
280
     0
  9
$LWDISPLAY
290
     1
  9
$INSUNITS
 70
     4
  9
$HYPERLINKBASE
  1

  9
$STYLESHEET
  1

  9
$XEDIT
290
     1
  9
$CEPSNTYPE
380
     0
  9
$PSTYLEMODE
290
     1
  9
$FINGERPRINTGUID
  2
{077659BA-6BE3-4418-B285-77AF6682CAC0}
  9
$VERSIONGUID
  2
{FAEB1C32-E019-11D5-929B-00C0DF256EC4}
  9
$EXTNAMES
290
     1
  9
$PSVPSCALE
 40
0.0
  9
$OLESTARTUP
290
     0
  0
ENDSEC
  0
SECTION
  2
CLASSES
  0
CLASS
  1
ACDBDICTIONARYWDFLT
  2
AcDbDictionaryWithDefault
  3
ObjectDBX Classes
 90
        0
280
     0
281
     0
  0
CLASS
  1
VISUALSTYLE
  2
AcDbVisualStyle
  3
ObjectDBX Classes
 90
     4095
280
     0
281
     0
  0
CLASS
  1
MATERIAL
  2
AcDbMaterial
  3
ObjectDBX Classes
 90
     1153
280
     0
281
     0
  0
CLASS
  1
SCALE
  2
AcDbScale
  3
ObjectDBX Classes
 90
     1153
280
     0
281
     0
  0
CLASS
  1
TABLESTYLE
  2
AcDbTableStyle
  3
ObjectDBX Classes
 90
     4095
280
     0
281
     0
  0
CLASS
  1
MLEADERSTYLE
  2
AcDbMLeaderStyle
  3
ACDB_MLEADERSTYLE_CLASS
 90
     4095
280
     0
281
     0
  0
CLASS
  1
SUN
  2
AcDbSun
  3
SCENEOE
 90
     1153
280
     0
281
     0
  0
CLASS
  1
ACDBPLACEHOLDER
  2
AcDbPlaceHolder
  3
ObjectDBX Classes
 90
        0
280
     0
281
     0
  0
CLASS
  1
LAYOUT
  2
AcDbLayout
  3
ObjectDBX Classes
 90
        0
280
     0
281
     0
  0
ENDSEC
  0
SECTION
  2
TABLES
  0
TABLE
  2
VPORT
  5
8
330
0
100
AcDbSymbolTable
 70
     1
  0
VPORT
  5
29
330
8
100
AcDbSymbolTableRecord
100
AcDbViewportTableRecord
  2
*Active
 70
     0
 10
0.0
 20
0.0
 11
1.0
 21
1.0
 12
148.5
 22
105.0
 13
0.0
 23
0.0
 14
10.0
 24
10.0
 15
10.0
 25
10.0
 16
0.0
 26
0.0
 36
1.0
 17
0.0
 27
0.0
 37
0.0
 40
210.0
 41
1.4142857143
 42
50.0
 43
0.0
 44
0.0
 50
0.0
 51
0.0
 71
     0
 72
  2000
 73
     1
 74
     3
 75
     0
 76
     0
 77
     0
 78
     0
281
     0
 65
     1
110
0.0
120
0.0
130
0.0
111
1.0
121
0.0
131
0.0
112
0.0
122
1.0
132
0.0
 79
     0
146
0.0
  0
ENDTAB
  0
TABLE
  2
LTYPE
  5
5
330
0
100
AcDbSymbolTable
 70
     6
  0
LTYPE
  5
14
330
5
100
AcDbSymbolTableRecord
100
AcDbLinetypeTableRecord
  2
ByBlock
 70
     0
  3

 72
    65
 73
     0
 40
0.0
  0
LTYPE
  5
15
330
5
100
AcDbSymbolTableRecord
100
AcDbLinetypeTableRecord
  2
ByLayer
 70
     0
  3

 72
    65
 73
     0
 40
0.0
  0
LTYPE
  5
16
330
5
100
AcDbSymbolTableRecord
100
AcDbLinetypeTableRecord
  2
Continuous
 70
     0
  3
Solid line
 72
    65
 73
     0
 40
0.0
  0
LTYPE
  5
6E
330
5
100
AcDbSymbolTableRecord
100
AcDbLinetypeTableRecord
  2
HIDDEN
 70
     0
  3
Hidden __ __ __ __ __ __ __ __ __ __ __ __ __ __
 72
    65
 73
     2
 40
1.905
 49
1.27
 74
     0
 49
-0.635
 74
     0
  0
LTYPE
  5
6F
330
5
100
AcDbSymbolTableRecord
100
AcDbLinetypeTableRecord
  2
PHANTOM
 70
     0
  3
Phantom ______  __  __  ______  __  __  ______
 72
    65
 73
     6
 40
12.7
 49
6.35
 74
     0
 49
-1.27
 74
     0
 49
1.27
 74
     0
 49
-1.27
 74
     0
 49
1.27
 74
     0
 49
-1.27
 74
     0
  0
LTYPE
  5
70
330
5
100
AcDbSymbolTableRecord
100
AcDbLinetypeTableRecord
  2
CENTER
 70
     0
  3
Center ____ _ ____ _ ____ _ ____ _ ____ _ ____
 72
    65
 73
     4
 40
10.16
 49
6.35
 74
     0
 49
-1.27
 74
     0
 49
1.27
 74
     0
 49
-1.27
 74
     0
  0
LTYPE
  5
71
330
5
100
AcDbSymbolTableRecord
100
AcDbLinetypeTableRecord
  2
CENTERX2
 70
     0
  3
Center (2x) ________  __  ________  __  _____
 72
    65
 73
     4
 40
20.32
 49
12.7
 74
     0
 49
-2.54
 74
     0
 49
2.54
 74
     0
 49
-2.54
 74
     0
  0
LTYPE
  5
72
330
5
100
AcDbSymbolTableRecord
100
AcDbLinetypeTableRecord
  2
DOT2
 70
     0
  3
Dot (.5x) ........................................
 72
    65
 73
     2
 40
0.635
 49
0.0
 74
     0
 49
-0.635
 74
     0
  0
ENDTAB
  0
TABLE
  2
LAYER
  5
2
330
0
100
AcDbSymbolTable
 70
     5
  0
LAYER
  5
10
330
2
100
AcDbSymbolTableRecord
100
AcDbLayerTableRecord
  2
0
 70
     0
 62
     7
  6
Continuous
370
    -3
390
F
  0
LAYER
  5
73
330
2
100
AcDbSymbolTableRecord
100
AcDbLayerTableRecord
  2
FORMAT
 70
     0
 62
     7
  6
Continuous
370
    -3
390
F
  0
LAYER
  5
74
330
2
100
AcDbSymbolTableRecord
100
AcDbLayerTableRecord
  2
VERMASSUNG
 70
     0
 62
     7
  6
Continuous
370
    -3
390
F
  0
LAYER
  5
75
330
2
100
AcDbSymbolTableRecord
100
AcDbLayerTableRecord
  2
KOPF_DÜNN
 70
     0
 62
     7
  6
Continuous
370
    -3
390
F
  0
LAYER
  5
76
330
2
100
AcDbSymbolTableRecord
100
AcDbLayerTableRecord
  2
KOPF_DICK
 70
     0
 62
     7
  6
Continuous
370
    25
390
F
  0
ENDTAB
  0
TABLE
  2
STYLE
  5
3
330
0
100
AcDbSymbolTable
 70
     2
  0
STYLE
  5
11
330
3
100
AcDbSymbolTableRecord
100
AcDbTextStyleTableRecord
  2
Standard
 70
     0
 40
0.0
 41
1.0
 50
0.0
 71
     0
 42
2.0
  3
txt
  4

  0
STYLE
  5
77
330
3
100
AcDbSymbolTableRecord
100
AcDbTextStyleTableRecord
  2
SLDTEXTSTYLE0
 70
     0
 40
0.0
 41
0.7
 50
0.0
 71
     0
 42
2.0
  3
TXT
  4

  0
ENDTAB
  0
TABLE
  2
VIEW
  5
6
330
0
100
AcDbSymbolTable
 70
     0
  0
ENDTAB
  0
TABLE
  2
UCS
  5
7
330
0
100
AcDbSymbolTable
 70
     0
  0
ENDTAB
  0
TABLE
  2
APPID
  5
9
330
0
100
AcDbSymbolTable
 70
     1
  0
APPID
  5
12
330
9
100
AcDbSymbolTableRecord
100
AcDbRegAppTableRecord
  2
ACAD
 70
     0
  0
ENDTAB
  0
TABLE
  2
DIMSTYLE
  5
A
330
0
100
AcDbSymbolTable
 70
     3
100
AcDbDimStyleTable
  0
DIMSTYLE
105
27
330
A
100
AcDbSymbolTableRecord
100
AcDbDimStyleTableRecord
  2
ISO-25
 70
     0
 41
2.5
 42
0.625
 43
3.75
 44
1.25
 73
     0
 74
     0
 77
     1
 78
     8
140
2.5
141
2.5
143
0.0393700787
147
0.625
171
     3
172
     1
178
     0
271
     2
272
     2
274
     3
278
    44
283
     0
284
     8
340
11
  0
DIMSTYLE
105
F9
102
{ACAD_REACTORS
330
F8
330
104
330
10E
330
118
102
}
330
A
100
AcDbSymbolTableRecord
100
AcDbDimStyleTableRecord
  2
SLDDIMSTYLE0
 70
     0
 41
3.0
 44
0.0
 45
0.000000001
 73
     0
 74
     0
 77
     1
 78
    12
 79
     3
140
2.0
147
0.5
173
     1
178
     0
271
     2
272
     3
276
     2
284
    12
340
77
  0
DIMSTYLE
105
123
102
{ACAD_REACTORS
330
122
102
}
330
A
100
AcDbSymbolTableRecord
100
AcDbDimStyleTableRecord
  2
SLDDIMSTYLE1
 70
     0
 41
3.0
 44
0.0
 45
0.000000001
 73
     0
 74
     0
 77
     1
 78
    12
 79
     3
140
2.0
147
0.5
173
     1
178
     0
271
     1
272
     3
276
     2
284
    12
340
77
  0
ENDTAB
  0
TABLE
  2
BLOCK_RECORD
  5
1
330
0
100
AcDbSymbolTable
 70
     6
  0
BLOCK_RECORD
  5
1F
330
1
100
AcDbSymbolTableRecord
100
AcDbBlockTableRecord
  2
*Model_Space
340
22
  0
BLOCK_RECORD
  5
1B
330
1
100
AcDbSymbolTableRecord
100
AcDbBlockTableRecord
  2
*Paper_Space
340
1E
  0
BLOCK_RECORD
  5
23
330
1
100
AcDbSymbolTableRecord
100
AcDbBlockTableRecord
  2
*Paper_Space0
340
26
  0
BLOCK_RECORD
  5
FA
330
1
100
AcDbSymbolTableRecord
100
AcDbBlockTableRecord
  2
_D
340
0
  0
BLOCK_RECORD
  5
105
330
1
100
AcDbSymbolTableRecord
100
AcDbBlockTableRecord
  2
_D_1
340
0
  0
BLOCK_RECORD
  5
10F
330
1
100
AcDbSymbolTableRecord
100
AcDbBlockTableRecord
  2
_D_2
340
0
  0
BLOCK_RECORD
  5
119
330
1
100
AcDbSymbolTableRecord
100
AcDbBlockTableRecord
  2
_D_3
340
0
  0
BLOCK_RECORD
  5
124
330
1
100
AcDbSymbolTableRecord
100
AcDbBlockTableRecord
  2
_D_4
340
0
  0
ENDTAB
  0
ENDSEC
  0
SECTION
  2
BLOCKS
  0
BLOCK
  5
20
330
1F
100
AcDbEntity
  8
0
100
AcDbBlockBegin
  2
*Model_Space
 70
     0
 10
0.0
 20
0.0
 30
0.0
  3
*Model_Space
  1

  0
ENDBLK
  5
21
330
1F
100
AcDbEntity
  8
0
100
AcDbBlockEnd
  0
BLOCK
  5
1C
330
1B
100
AcDbEntity
 67
     1
  8
0
100
AcDbBlockBegin
  2
*Paper_Space
 70
     0
 10
0.0
 20
0.0
 30
0.0
  3
*Paper_Space
  1

  0
ENDBLK
  5
1D
330
1B
100
AcDbEntity
 67
     1
  8
0
100
AcDbBlockEnd
  0
BLOCK
  5
24
330
23
100
AcDbEntity
  8
0
100
AcDbBlockBegin
  2
*Paper_Space0
 70
     0
 10
0.0
 20
0.0
 30
0.0
  3
*Paper_Space0
  1

  0
ENDBLK
  5
25
330
23
100
AcDbEntity
  8
0
100
AcDbBlockEnd
  0
BLOCK
  5
FB
330
FA
100
AcDbEntity
  8
0
100
AcDbBlockBegin
  2
_D
 70
     0
 10
0.0
 20
0.0
 30
0.0
  3
_D
  1

  0
SOLID
  5
FD
330
FA
100
AcDbEntity
  8
VERMASSUNG
100
AcDbTrace
 10
251.2385168913
 20
105.3587155963
 30
0.0
 11
251.6885168913
 21
108.3587155963
 31
0.0
 12
250.7885168913
 22
108.3587155963
 32
0.0
 13
250.7885168913
 23
108.3587155963
 33
0.0
  0
SOLID
  5
FE
330
FA
100
AcDbEntity
  8
VERMASSUNG
100
AcDbTrace
 10
251.2385168913
 20
139.3587155963
 30
0.0
 11
250.7885168913
 21
136.3587155963
 31
0.0
 12
251.6885168913
 22
136.3587155963
 32
0.0
 13
251.6885168913
 23
136.3587155963
 33
0.0
  0
LINE
  5
FF
330
FA
100
AcDbEntity
  8
VERMASSUNG
100
AcDbLine
 10
209.0823519495
 20
105.3587155963
 30
0.0
 11
252.2385168913
 21
105.3587155963
 31
0.0
  0
LINE
  5
100
330
FA
100
AcDbEntity
  8
VERMASSUNG
100
AcDbLine
 10
209.0823519495
 20
139.3587155963
 30
0.0
 11
252.2385168913
 21
139.3587155963
 31
0.0
  0
LINE
  5
101
330
FA
100
AcDbEntity
  8
VERMASSUNG
100
AcDbLine
 10
251.2385168913
 20
105.3587155963
 30
0.0
 11
251.2385168913
 21
139.3587155963
 31
0.0
  0
MTEXT
  5
102
330
FA
100
AcDbEntity
  8
VERMASSUNG
100
AcDbMText
 10
248.6603815864
 20
119.0537155761
 30
0.0
 40
2.0
 41
0.0
 71
     1
 72
     1
  1
%%c
  7
SLDTEXTSTYLE0
 11
6.123233995736766E-17
 21
1.0
 31
0.0
 73
     1
 44
1.0
  0
MTEXT
  5
103
330
FA
100
AcDbEntity
  8
VERMASSUNG
100
AcDbMText
 10
248.4603816351
 20
122.6637155904
 30
0.0
 40
2.0
 41
0.0
 71
     1
 72
     1
  1
34
  7
SLDTEXTSTYLE0
 11
6.123233995736766E-17
 21
1.0
 31
0.0
 73
     1
 44
1.0
  0
ENDBLK
  5
FC
330
FA
100
AcDbEntity
  8
0
100
AcDbBlockEnd
  0
BLOCK
  5
106
330
105
100
AcDbEntity
  8
0
100
AcDbBlockBegin
  2
_D_1
 70
     0
 10
0.0
 20
0.0
 30
0.0
  3
_D_1
  1

  0
SOLID
  5
108
330
105
100
AcDbEntity
  8
VERMASSUNG
100
AcDbTrace
 10
238.0823519495
 20
169.8337155963
 30
0.0
 11
235.0823519495
 21
170.2837155963
 31
0.0
 12
235.0823519495
 22
169.3837155963
 32
0.0
 13
235.0823519495
 23
169.3837155963
 33
0.0
  0
SOLID
  5
109
330
105
100
AcDbEntity
  8
VERMASSUNG
100
AcDbTrace
 10
118.0823519495
 20
169.8337155963
 30
0.0
 11
121.0823519495
 21
169.3837155963
 31
0.0
 12
121.0823519495
 22
170.2837155963
 32
0.0
 13
121.0823519495
 23
170.2837155963
 33
0.0
  0
LINE
  5
10A
330
105
100
AcDbEntity
  8
VERMASSUNG
100
AcDbLine
 10
238.0823519495
 20
133.3587155963
 30
0.0
 11
238.0823519495
 21
170.8337155963
 31
0.0
  0
LINE
  5
10B
330
105
100
AcDbEntity
  8
VERMASSUNG
100
AcDbLine
 10
118.0823519495
 20
153.6337155963
 30
0.0
 11
118.0823519495
 21
170.8337155963
 31
0.0
  0
LINE
  5
10C
330
105
100
AcDbEntity
  8
VERMASSUNG
100
AcDbLine
 10
238.0823519495
 20
169.8337155963
 30
0.0
 11
118.0823519495
 21
169.8337155963
 31
0.0
  0
MTEXT
  5
10D
330
105
100
AcDbEntity
  8
VERMASSUNG
100
AcDbMText
 10
176.1823519175
 20
172.4118511923
 30
0.0
 40
2.0
 41
0.0
 71
     1
 72
     1
  1
120
  7
SLDTEXTSTYLE0
 73
     1
 44
1.0
  0
ENDBLK
  5
107
330
105
100
AcDbEntity
  8
0
100
AcDbBlockEnd
  0
BLOCK
  5
110
330
10F
100
AcDbEntity
  8
0
100
AcDbBlockBegin
  2
_D_2
 70
     0
 10
0.0
 20
0.0
 30
0.0
  3
_D_2
  1

  0
SOLID
  5
112
330
10F
100
AcDbEntity
  8
VERMASSUNG
100
AcDbTrace
 10
136.0823519495
 20
160.1755257169
 30
0.0
 11
139.0823519495
 21
159.7255257169
 31
0.0
 12
139.0823519495
 22
160.6255257169
 32
0.0
 13
139.0823519495
 23
160.6255257169
 33
0.0
  0
SOLID
  5
113
330
10F
100
AcDbEntity
  8
VERMASSUNG
100
AcDbTrace
 10
238.0823519495
 20
160.1755257169
 30
0.0
 11
235.0823519495
 21
160.6255257169
 31
0.0
 12
235.0823519495
 22
159.7255257169
 32
0.0
 13
235.0823519495
 23
159.7255257169
 33
0.0
  0
LINE
  5
114
330
10F
100
AcDbEntity
  8
VERMASSUNG
100
AcDbLine
 10
136.0823519495
 20
152.8337155963
 30
0.0
 11
136.0823519495
 21
161.1755257169
 31
0.0
  0
LINE
  5
115
330
10F
100
AcDbEntity
  8
VERMASSUNG
100
AcDbLine
 10
238.0823519495
 20
133.3587155963
 30
0.0
 11
238.0823519495
 21
161.1755257169
 31
0.0
  0
LINE
  5
116
330
10F
100
AcDbEntity
  8
VERMASSUNG
100
AcDbLine
 10
136.0823519495
 20
160.1755257169
 30
0.0
 11
238.0823519495
 21
160.1755257169
 31
0.0
  0
MTEXT
  5
117
330
10F
100
AcDbEntity
  8
VERMASSUNG
100
AcDbMText
 10
185.1823519175
 20
162.7536613128
 30
0.0
 40
2.0
 41
0.0
 71
     1
 72
     1
  1
102
  7
SLDTEXTSTYLE0
 73
     1
 44
1.0
  0
ENDBLK
  5
111
330
10F
100
AcDbEntity
  8
0
100
AcDbBlockEnd
  0
BLOCK
  5
11A
330
119
100
AcDbEntity
  8
0
100
AcDbBlockBegin
  2
_D_3
 70
     0
 10
0.0
 20
0.0
 30
0.0
  3
_D_3
  1

  0
SOLID
  5
11C
330
119
100
AcDbEntity
  8
VERMASSUNG
100
AcDbTrace
 10
78.1323519495
 20
179.4183647864
 30
0.0
 11
81.1323519495
 21
178.9683647864
 31
0.0
 12
81.1323519495
 22
179.8683647864
 32
0.0
 13
81.1323519495
 23
179.8683647864
 33
0.0
  0
SOLID
  5
11D
330
119
100
AcDbEntity
  8
VERMASSUNG
100
AcDbTrace
 10
238.0823519495
 20
179.4183647864
 30
0.0
 11
235.0823519495
 21
179.8683647864
 31
0.0
 12
235.0823519495
 22
178.9683647864
 32
0.0
 13
235.0823519495
 23
178.9683647864
 33
0.0
  0
LINE
  5
11E
330
119
100
AcDbEntity
  8
VERMASSUNG
100
AcDbLine
 10
78.1323519495
 20
142.6209413331
 30
0.0
 11
78.1323519495
 21
180.4183647864
 31
0.0
  0
LINE
  5
11F
330
119
100
AcDbEntity
  8
VERMASSUNG
100
AcDbLine
 10
238.0823519495
 20
133.3587155963
 30
0.0
 11
238.0823519495
 21
180.4183647864
 31
0.0
  0
LINE
  5
120
330
119
100
AcDbEntity
  8
VERMASSUNG
100
AcDbLine
 10
78.1323519495
 20
179.4183647864
 30
0.0
 11
238.0823519495
 21
179.4183647864
 31
0.0
  0
MTEXT
  5
121
330
119
100
AcDbEntity
  8
VERMASSUNG
100
AcDbMText
 10
154.5073520114
 20
181.9965003824
 30
0.0
 40
2.0
 41
0.0
 71
     1
 72
     1
  1
159.95
  7
SLDTEXTSTYLE0
 73
     1
 44
1.0
  0
ENDBLK
  5
11B
330
119
100
AcDbEntity
  8
0
100
AcDbBlockEnd
  0
BLOCK
  5
125
330
124
100
AcDbEntity
  8
0
100
AcDbBlockBegin
  2
_D_4
 70
     0
 10
0.0
 20
0.0
 30
0.0
  3
_D_4
  1

  0
SOLID
  5
127
330
124
100
AcDbEntity
  8
VERMASSUNG
100
AcDbTrace
 10
64.4772646523
 20
90.8837155963
 30
0.0
 11
64.9272646523
 21
93.8837155963
 31
0.0
 12
64.0272646523
 22
93.8837155963
 32
0.0
 13
64.0272646523
 23
93.8837155963
 33
0.0
  0
SOLID
  5
128
330
124
100
AcDbEntity
  8
VERMASSUNG
100
AcDbTrace
 10
64.4772646523
 20
153.8337155963
 30
0.0
 11
64.0272646523
 21
150.8337155963
 31
0.0
 12
64.9272646523
 22
150.8337155963
 32
0.0
 13
64.9272646523
 23
150.8337155963
 33
0.0
  0
LINE
  5
129
330
124
100
AcDbEntity
  8
VERMASSUNG
100
AcDbLine
 10
118.2823519495
 20
90.8837155963
 30
0.0
 11
63.4772646523
 21
90.8837155963
 31
0.0
  0
LINE
  5
12A
330
124
100
AcDbEntity
  8
VERMASSUNG
100
AcDbLine
 10
118.2823519495
 20
153.8337155963
 30
0.0
 11
63.4772646523
 21
153.8337155963
 31
0.0
  0
LINE
  5
12B
330
124
100
AcDbEntity
  8
VERMASSUNG
100
AcDbLine
 10
64.4772646523
 20
90.8837155963
 30
0.0
 11
64.4772646523
 21
153.8337155963
 31
0.0
  0
MTEXT
  5
12C
330
124
100
AcDbEntity
  8
VERMASSUNG
100
AcDbMText
 10
61.6991293961
 20
114.253716978
 30
0.0
 40
2.0
 41
0.0
 71
     1
 72
     1
  1
KM
  7
SLDTEXTSTYLE0
 11
6.123233995736766E-17
 21
1.0
 31
0.0
 73
     1
 44
1.0
  0
MTEXT
  5
12D
330
124
100
AcDbEntity
  8
VERMASSUNG
100
AcDbMText
 10
61.8991293474
 20
117.6537167902
 30
0.0
 40
2.0
 41
0.0
 71
     1
 72
     1
  1
%%c
  7
SLDTEXTSTYLE0
 11
6.123233995736766E-17
 21
1.0
 31
0.0
 73
     1
 44
1.0
  0
MTEXT
  5
12E
330
124
100
AcDbEntity
  8
VERMASSUNG
100
AcDbMText
 10
61.6991293961
 20
121.2637168045
 30
0.0
 40
2.0
 41
0.0
 71
     1
 72
     1
  1
63
  7
SLDTEXTSTYLE0
 11
6.123233995736766E-17
 21
1.0
 31
0.0
 73
     1
 44
1.0
  0
MTEXT
  5
12F
330
124
100
AcDbEntity
  8
VERMASSUNG
100
AcDbMText
 10
61.6991293961
 20
125.2512167047
 30
0.0
 40
2.0
 41
0.0
 71
     1
 72
     1
  1
XMZ
  7
SLDTEXTSTYLE0
 11
6.123233995736766E-17
 21
1.0
 31
0.0
 73
     1
 44
1.0
  0
ENDBLK
  5
126
330
124
100
AcDbEntity
  8
0
100
AcDbBlockEnd
  0
ENDSEC
  0
SECTION
  2
ENTITIES
  0
MTEXT
  5
78
330
1F
100
AcDbEntity
  8
KOPF_DÜNN
100
AcDbMText
 10
13.8892156294
 20
23.8442973028
 30
0.0
 40
3.0
 41
0.0
 71
     1
 72
     1
  1
KY6.E20.K01.120
  7
SLDTEXTSTYLE0
 73
     1
 44
1.0
  0
MTEXT
  5
79
330
1F
100
AcDbEntity
  8
VERMASSUNG
100
AcDbMText
 10
13.9329988022
 20
28.8834360957
 30
0.0
 40
3.0
 41
0.0
 71
     1
 72
     1
  1
Spanzangenfutter ER_Collet chuck ER
  7
SLDTEXTSTYLE0
 73
     1
 44
1.0
  0
MTEXT
  5
7A
330
1F
100
AcDbEntity
  8
VERMASSUNG
100
AcDbMText
 10
98.8601118557
 20
13.8365368761
 30
0.0
 40
2.0
 41
0.0
 71
     1
 72
     1
  1
Datum: 16.02.2018
  7
SLDTEXTSTYLE0
 73
     1
 44
1.0
  0
MTEXT
  5
7B
330
1F
100
AcDbEntity
  8
VERMASSUNG
100
AcDbMText
 10
13.933048693
 20
18.0482802738
 30
0.0
 40
2.0
 41
0.0
 71
     1
 72
     1
  1
KM63 XMZ / Ø34
  7
SLDTEXTSTYLE0
 73
     1
 44
1.0
  0
MTEXT
  5
7C
330
1F
100
AcDbEntity
  8
VERMASSUNG
100
AcDbMText
 10
13.9808475933
 20
13.9090974274
 30
0.0
 40
2.0
 41
0.0
 71
     1
 72
     1
  1
Gewicht: 1198g
  7
SLDTEXTSTYLE0
 73
     1
 44
1.0
  0
LINE
  5
7D
330
1F
100
AcDbEntity
  8
0
  6
Continuous
 62
     7
370
    25
100
AcDbLine
 10
219.382353094
 20
139.3587165202
 30
0.0
 11
218.5823544529
 21
138.5587160165
 31
0.0
  0
LINE
  5
7E
330
1F
100
AcDbEntity
  8
0
  6
Continuous
 62
     7
370
    25
100
AcDbLine
 10
218.5823544529
 20
106.1587151761
 30
0.0
 11
219.382353094
 21
105.3587146725
 31
0.0
  0
LINE
  5
7F
330
1F
100
AcDbEntity
  8
0
  6
Continuous
 62
     7
370
    25
100
AcDbLine
 10
219.382353094
 20
105.3587146725
 30
0.0
 11
236.4746555355
 21
105.3587146725
 31
0.0
  0
LINE
  5
80
330
1F
100
AcDbEntity
  8
0
  6
Continuous
 62
     7
370
    25
100
AcDbLine
 10
236.4746555355
 20
139.3587165202
 30
0.0
 11
219.382353094
 21
139.3587165202
 31
0.0
  0
LINE
  5
81
330
1F
100
AcDbEntity
  8
0
  6
Continuous
 62
     7
370
    25
100
AcDbLine
 10
236.4746555355
 20
105.3587146725
 30
0.0
 11
238.0823492673
 21
111.3587156559
 31
0.0
  0
LINE
  5
82
330
1F
100
AcDbEntity
  8
0
  6
Continuous
 62
     7
370
    25
100
AcDbLine
 10
238.0823492673
 20
133.3587155367
 30
0.0
 11
236.4746555355
 21
139.3587165202
 31
0.0
  0
LINE
  5
83
330
1F
100
AcDbEntity
  8
0
  6
Continuous
 62
     7
370
    25
100
AcDbLine
 10
118.2823519445
 20
90.8837155129
 30
0.0
 11
124.6481542145
 21
90.8837155129
 31
0.0
  0
LINE
  5
84
330
1F
100
AcDbEntity
  8
0
  6
Continuous
 62
     7
370
    25
100
AcDbLine
 10
123.4428495769
 20
153.8337156798
 30
0.0
 11
118.2823519445
 21
153.8337156798
 31
0.0
  0
LINE
  5
85
330
1F
100
AcDbEntity
  8
0
  6
Continuous
 62
     7
370
    25
100
AcDbLine
 10
131.316550043
 20
90.8837155129
 30
0.0
 11
135.0823528734
 21
90.8837155129
 31
0.0
  0
LINE
  5
86
330
1F
100
AcDbEntity
  8
0
  6
Continuous
 62
     7
370
    25
100
AcDbLine
 10
135.0823528734
 20
153.8337156798
 30
0.0
 11
134.7971986649
 21
153.8337156798
 31
0.0
  0
LINE
  5
87
330
1F
100
AcDbEntity
  8
0
  6
Continuous
 62
     7
370
    25
100
AcDbLine
 10
124.6481542145
 20
90.8837155129
 30
0.0
 11
126.1073518214
 21
93.4111200894
 31
0.0
  0
ARC
  5
88
330
1F
100
AcDbEntity
  8
0
  6
Continuous
 62
     7
370
    25
100
AcDbCircle
 10
135.0823519495
 20
91.8837155963
 30
0.0
 40
1.0
100
AcDbArc
 50
270.0
 51
0.0
  0
ARC
  5
89
330
1F
100
AcDbEntity
  8
0
  6
Continuous
 62
     7
370
    25
100
AcDbCircle
 10
135.0823519495
 20
152.8337155963
 30
0.0
 40
1.0
100
AcDbArc
 50
0.0
 51
90.0
  0
ARC
  5
8A
330
1F
100
AcDbEntity
  8
0
  6
Continuous
 62
     7
370
    25
100
AcDbCircle
 10
118.2823519495
 20
91.0837155963
 30
0.0
 40
0.2000000000000171
100
AcDbArc
 50
180.0
 51
270.0
  0
ARC
  5
8B
330
1F
100
AcDbEntity
  8
0
  6
Continuous
 62
     7
370
    25
100
AcDbCircle
 10
118.2823519495
 20
153.6337155963
 30
0.0
 40
0.2000000000000171
100
AcDbArc
 50
90.0
 51
180.0
  0
ARC
  5
8C
330
1F
100
AcDbEntity
  8
0
  6
Continuous
 62
     7
370
    25
100
AcDbCircle
 10
117.653417075
 20
96.8087155963
 30
0.0
 40
0.8000000000000004
100
AcDbArc
 50
57.576802718
 51
107.5
  0
ARC
  5
8D
330
1F
100
AcDbEntity
  8
0
  6
Continuous
 62
     7
370
    25
100
AcDbCircle
 10
117.653417075
 20
147.9087155963
 30
0.0
 40
0.8000000000000038
100
AcDbArc
 50
252.5
 51
302.423197282
  0
LINE
  5
8E
330
1F
100
AcDbEntity
  8
0
  6
Continuous
 62
     7
370
    25
100
AcDbLine
 10
129.8573519704
 20
93.4111200894
 30
0.0
 11
131.316550043
 21
90.8837155129
 31
0.0
  0
LINE
  5
8F
330
1F
100
AcDbEntity
  8
0
  6
Continuous
 62
     7
370
    25
100
AcDbLine
 10
116.9221698907
 20
97.4169769014
 30
0.0
 11
117.4128524396
 21
97.5716900702
 31
0.0
  0
LINE
  5
90
330
1F
100
AcDbEntity
  8
0
  6
Continuous
 62
     7
370
    25
100
AcDbLine
 10
117.4128524396
 20
147.1457411225
 30
0.0
 11
116.9221698907
 21
147.3004542912
 31
0.0
  0
LINE
  5
91
330
1F
100
AcDbEntity
  8
0
  6
Continuous
 62
     7
370
    25
100
AcDbLine
 10
116.9221698907
 20
147.3004542912
 30
0.0
 11
100.977294114
 21
146.4997348065
 31
0.0
  0
LINE
  5
92
330
1F
100
AcDbEntity
  8
0
  6
Continuous
 62
     7
370
    25
100
AcDbLine
 10
100.977294114
 20
98.2176963861
 30
0.0
 11
116.9221698907
 21
97.4169769014
 31
0.0
  0
ARC
  5
93
330
1F
100
AcDbEntity
  8
0
  6
Continuous
 62
     7
370
    25
100
AcDbCircle
 10
127.1073519495
 20
93.5087155963
 30
0.0
 40
1.000000000000014
100
AcDbArc
 50
90.0
 51
180.0
  0
ARC
  5
94
330
1F
100
AcDbEntity
  8
0
  6
Continuous
 62
     7
370
    25
100
AcDbCircle
 10
128.8573519495
 20
93.5087155963
 30
0.0
 40
1.000000000000014
100
AcDbArc
 50
0.0
 51
90.0
  0
LINE
  5
95
330
1F
100
AcDbEntity
  8
0
  6
Continuous
 62
     7
370
    25
100
AcDbLine
 10
127.1073519853
 20
94.5087154086
 30
0.0
 11
128.8573518065
 21
94.5087154086
 31
0.0
  0
ARC
  5
96
330
1F
100
AcDbEntity
  8
0
  6
Continuous
 62
     7
370
    25
100
AcDbCircle
 10
140.0823519495
 20
101.3587155963
 30
0.0
 40
4.0
100
AcDbArc
 50
90.0
 51
180.0
  0
ARC
  5
97
330
1F
100
AcDbEntity
  8
0
  6
Continuous
 62
     7
370
    25
100
AcDbCircle
 10
140.0823519495
 20
143.3587155963
 30
0.0
 40
4.0
100
AcDbArc
 50
180.0
 51
270.0
  0
LINE
  5
98
330
1F
100
AcDbEntity
  8
0
  6
Continuous
 62
     7
370
    25
100
AcDbLine
 10
209.0823501018
 20
139.3587165202
 30
0.0
 11
140.0823518303
 21
139.3587165202
 31
0.0
  0
LINE
  5
99
330
1F
100
AcDbEntity
  8
0
  6
Continuous
 62
     7
370
    25
100
AcDbLine
 10
140.0823518303
 20
105.3587146725
 30
0.0
 11
209.0823501018
 21
105.3587146725
 31
0.0
  0
ARC
  5
9A
330
1F
100
AcDbEntity
  8
0
  6
Continuous
 62
     7
370
    25
100
AcDbCircle
 10
209.0823519495
 20
138.3587155963
 30
0.0
 40
1.0
100
AcDbArc
 50
0.0
 51
90.0
  0
ARC
  5
9B
330
1F
100
AcDbEntity
  8
0
  6
Continuous
 62
     7
370
    25
100
AcDbCircle
 10
209.0823519495
 20
106.3587155963
 30
0.0
 40
1.0
100
AcDbArc
 50
270.0
 51
0.0
  0
ARC
  5
9C
330
1F
100
AcDbEntity
  8
0
  6
Continuous
 62
     7
370
    25
100
AcDbCircle
 10
211.0823519495
 20
135.8587155963
 30
0.0
 40
1.0
100
AcDbArc
 50
180.0
 51
270.0
  0
ARC
  5
9D
330
1F
100
AcDbEntity
  8
0
  6
Continuous
 62
     7
370
    25
100
AcDbCircle
 10
211.0823519495
 20
108.8587155963
 30
0.0
 40
1.0
100
AcDbArc
 50
90.0
 51
180.0
  0
LINE
  5
9E
330
1F
100
AcDbEntity
  8
0
  6
Continuous
 62
     7
370
    25
100
AcDbLine
 10
218.5823544529
 20
134.8587157826
 30
0.0
 11
211.0823541549
 21
134.8587157826
 31
0.0
  0
LINE
  5
9F
330
1F
100
AcDbEntity
  8
0
  6
Continuous
 62
     7
370
    25
100
AcDbLine
 10
211.0823541549
 20
109.8587154101
 30
0.0
 11
218.5823544529
 21
109.8587154101
 31
0.0
  0
LINE
  5
A0
330
1F
100
AcDbEntity
  8
0
  6
Continuous
 62
     7
370
    25
100
AcDbLine
 10
100.977294114
 20
146.4997348065
 30
0.0
 11
100.0823527244
 21
145.604793417
 31
0.0
  0
LINE
  5
A1
330
1F
100
AcDbEntity
  8
0
  6
Continuous
 62
     7
370
    25
100
AcDbLine
 10
100.0823527244
 20
99.1126377757
 30
0.0
 11
100.977294114
 21
98.2176963861
 31
0.0
  0
LINE
  5
A2
330
1F
100
AcDbEntity
  8
0
  6
Continuous
 62
     7
370
    25
100
AcDbLine
 10
219.382353094
 20
105.3587146725
 30
0.0
 11
219.382353094
 21
139.3587165202
 31
0.0
  0
LINE
  5
A3
330
1F
100
AcDbEntity
  8
0
  6
Continuous
 62
     7
370
    25
100
AcDbLine
 10
218.5823544529
 20
106.1587151761
 30
0.0
 11
218.5823544529
 21
138.5587160165
 31
0.0
  0
LINE
  5
A4
330
1F
100
AcDbEntity
  8
0
  6
Continuous
 62
     7
370
    25
100
AcDbLine
 10
228.0823513535
 20
130.7596922542
 30
0.0
 11
236.4746555355
 21
130.7596922542
 31
0.0
  0
ELLIPSE
  5
A5
330
1F
100
AcDbEntity
  8
0
  6
Continuous
 62
     7
370
    25
100
AcDbEllipse
 10
243.0823519495
 20
122.3587155963
 30
0.0
 11
-12.18157134519907
 21
12.18157134519912
 31
0.0
210
0.0
220
0.0
230
1.0
 40
0.9734277891
 41
0.2819766479013312
 42
1.261891300408787
  0
LINE
  5
A6
330
1F
100
AcDbEntity
  8
0
  6
Continuous
 62
     7
370
    25
100
AcDbLine
 10
236.4746555355
 20
114.7654927026
 30
0.0
 11
228.0823513535
 21
114.7654927026
 31
0.0
  0
LINE
  5
A7
330
1F
100
AcDbEntity
  8
0
  6
Continuous
 62
     7
370
    25
100
AcDbLine
 10
236.4746555355
 20
113.7600750352
 30
0.0
 11
236.4746555355
 21
114.7654927026
 31
0.0
  0
LINE
  5
A8
330
1F
100
AcDbEntity
  8
0
  6
Continuous
 62
     7
370
    25
100
AcDbLine
 10
228.0823513535
 20
113.7600750352
 30
0.0
 11
236.4746555355
 21
113.7600750352
 31
0.0
  0
ELLIPSE
  5
A9
330
1F
100
AcDbEntity
  8
0
  6
Continuous
 62
     7
370
    25
100
AcDbEllipse
 10
243.0823519495
 20
122.3587155963
 30
0.0
 11
16.36001104121266
 21
16.36001104121267
 31
0.0
210
0.0
220
0.0
230
1.0
 40
0.2824331964
 41
2.376371750294519
 42
3.356286402802023
  0
LINE
  5
AA
330
1F
100
AcDbEntity
  8
0
  6
Continuous
 62
     7
370
    25
100
AcDbLine
 10
236.4746555355
 20
105.3898897643
 30
0.0
 11
228.0823513535
 21
105.3898897643
 31
0.0
  0
LINE
  5
AB
330
1F
100
AcDbEntity
  8
0
  6
Continuous
 62
     7
370
    25
100
AcDbLine
 10
236.4746555355
 20
105.3587146725
 30
0.0
 11
236.4746555355
 21
105.3898897643
 31
0.0
  0
LINE
  5
AC
330
1F
100
AcDbEntity
  8
0
  6
Continuous
 62
     7
370
    25
100
AcDbLine
 10
236.4746555355
 20
139.3583328153
 30
0.0
 11
236.4746555355
 21
139.3587165202
 31
0.0
  0
LINE
  5
AD
330
1F
100
AcDbEntity
  8
0
  6
Continuous
 62
     7
370
    25
100
AcDbLine
 10
228.0823513535
 20
139.3583328153
 30
0.0
 11
236.4746555355
 21
139.3583328153
 31
0.0
  0
ELLIPSE
  5
AE
330
1F
100
AcDbEntity
  8
0
  6
Continuous
 62
     7
370
    25
100
AcDbEllipse
 10
243.0823519495
 20
122.3587155963
 30
0.0
 11
-16.47849027389276
 21
16.47849027389275
 31
0.0
210
0.0
220
0.0
230
1.0
 40
0.2535693274
 41
6.041563179482666
 42
7.021477831990075
  0
LINE
  5
AF
330
1F
100
AcDbEntity
  8
0
  6
Continuous
 62
     7
370
    25
100
AcDbLine
 10
236.4746555355
 20
131.7343185346
 30
0.0
 11
228.0823513535
 21
131.7343185346
 31
0.0
  0
LINE
  5
B0
330
1F
100
AcDbEntity
  8
0
  6
Continuous
 62
     7
370
    25
100
AcDbLine
 10
236.4746555355
 20
130.7596922542
 30
0.0
 11
236.4746555355
 21
131.7343185346
 31
0.0
  0
LINE
  5
B1
330
1F
100
AcDbEntity
  8
0
  6
Continuous
 62
     7
370
    25
100
AcDbLine
 10
228.0823513535
 20
130.7596922542
 30
0.0
 11
228.0823513535
 21
114.7654927026
 31
0.0
  0
LINE
  5
B2
330
1F
100
AcDbEntity
  8
0
  6
Continuous
 62
     7
370
    25
100
AcDbLine
 10
238.0823492673
 20
111.3587156559
 30
0.0
 11
238.0823492673
 21
133.3587155367
 31
0.0
  0
SPLINE
  5
B3
330
1F
100
AcDbEntity
  8
0
  6
Continuous
 62
     7
370
    25
100
AcDbSpline
210
0.0
220
0.0
230
1.0
 70
     8
 71
     3
 72
    11
 73
     7
 74
     0
 42
0.000000001
 43
0.00000001
 40
0.0
 40
0.0
 40
0.0
 40
0.0
 40
0.2479272973451086
 40
0.4957911036841377
 40
0.74786200064919
 40
1.0
 40
1.0
 40
1.0
 40
1.0
 10
236.4746555355474
 20
113.7600750352264
 30
0.0
 10
236.6217865671424
 20
113.0705343375406
 30
0.0
 10
236.9160109519593
 20
111.6916295247118
 30
0.0
 10
237.0562007237627
 20
109.5985929158061
 30
0.0
 10
236.9224198087457
 20
107.4935426093135
 30
0.0
 10
236.623923535022
 20
106.0911695906863
 30
0.0
 10
236.4746555355474
 20
105.389889764321
 30
0.0
  0
SPLINE
  5
B4
330
1F
100
AcDbEntity
  8
0
  6
Continuous
 62
     7
370
    25
100
AcDbSpline
210
0.0
220
0.0
230
1.0
 70
     8
 71
     3
 72
    12
 73
     8
 74
     0
 42
0.000000001
 43
0.00000001
 40
0.0
 40
0.0
 40
0.0
 40
0.0
 40
0.03690427359065
 40
0.2757880070427022
 40
0.5146199374544667
 40
0.7572803697261361
 40
1.0
 40
1.0
 40
1.0
 40
1.0
 10
236.4746555355474
 20
130.7596922541977
 30
0.0
 10
236.498908017828
 20
130.5638965852886
 30
0.0
 10
236.6801483757384
 20
129.1007029748412
 30
0.0
 10
236.934225436265
 20
126.3595159438026
 30
0.0
 10
237.0545458594195
 20
122.5077581352753
 30
0.0
 10
236.907474492749
 20
118.6347702805537
 30
0.0
 10
236.618940251368
 20
116.055356758839
 30
0.0
 10
236.4746555355474
 20
114.7654927025558
 30
0.0
  0
SPLINE
  5
B5
330
1F
100
AcDbEntity
  8
0
  6
Continuous
 62
     7
370
    25
100
AcDbSpline
210
0.0
220
0.0
230
1.0
 70
     8
 71
     3
 72
    11
 73
     7
 74
     0
 42
0.000000001
 43
0.00000001
 40
0.0
 40
0.0
 40
0.0
 40
0.0
 40
0.2479273125029124
 40
0.4957911265968894
 40
0.7478620098104833
 40
1.0
 40
1.0
 40
1.0
 40
1.0
 10
236.4746555355474
 20
139.3583328153015
 30
0.0
 10
236.6217865664668
 20
138.730262084319
 30
0.0
 10
236.9160109455417
 20
137.4742814819692
 30
0.0
 10
237.0562007252113
 20
135.5678314897862
 30
0.0
 10
236.9224198062369
 20
133.6504384010442
 30
0.0
 10
236.623923535092
 20
132.3730818260547
 30
0.0
 10
236.4746555355474
 20
131.7343185345651
 30
0.0
  0
LINE
  5
B6
330
1F
100
AcDbEntity
  8
0
  6
Continuous
 62
     7
370
    25
100
AcDbLine
 10
228.0823513535
 20
113.7600750352
 30
0.0
 11
228.0823513535
 21
105.3898897643
 31
0.0
  0
LINE
  5
B7
330
1F
100
AcDbEntity
  8
0
  6
Continuous
 62
     7
370
    25
100
AcDbLine
 10
228.0823513535
 20
139.3583328153
 30
0.0
 11
228.0823513535
 21
131.7343185346
 31
0.0
  0
SPLINE
  5
B8
330
1F
100
AcDbEntity
  8
0
  6
Continuous
 62
     7
370
    25
100
AcDbSpline
210
0.0
220
0.0
230
1.0
 70
     8
 71
     3
 72
    10
 73
     6
 74
     0
 42
0.000000001
 43
0.00000001
 40
0.0
 40
0.0
 40
0.0
 40
0.0
 40
0.4058355826442185
 40
0.8996340058832388
 40
1.0
 40
1.0
 40
1.0
 40
1.0
 10
124.6481542144999
 20
153.6607802535416
 30
0.0
 10
124.3663182065013
 20
153.6971716226534
 30
0.0
 10
123.7415596399263
 20
153.7778420088239
 30
0.0
 10
123.3414519704168
 20
153.8419304684941
 30
0.0
 10
123.4281966957895
 20
153.828643618529
 30
0.0
 10
123.4428495769485
 20
153.8263992096306
 30
0.0
  0
LINE
  5
B9
330
1F
100
AcDbEntity
  8
0
  6
Continuous
 62
     7
370
    25
100
AcDbLine
 10
124.6481542145
 20
90.8837155129
 30
0.0
 11
124.6481542145
 21
153.6607802535
 31
0.0
  0
SPLINE
  5
BA
330
1F
100
AcDbEntity
  8
0
  6
Continuous
 62
     7
370
    25
100
AcDbSpline
210
0.0
220
0.0
230
1.0
 70
     8
 71
     3
 72
    25
 73
    21
 74
     0
 42
0.000000001
 43
0.00000001
 40
0.0
 40
0.0
 40
0.0
 40
0.0
 40
0.1250000000000009
 40
0.1250000000000009
 40
0.2500000000000018
 40
0.2500000000000018
 40
0.3750000000000027
 40
0.3750000000000027
 40
0.5000000000000036
 40
0.5000000000000036
 40
0.5625000000000031
 40
0.5625000000000031
 40
0.6250000000000027
 40
0.6875000000000022
 40
0.6875000000000022
 40
0.7500000000000018
 40
0.7500000000000018
 40
0.8750000000000009
 40
0.8750000000000009
 40
1.0
 40
1.0
 40
1.0
 40
1.0
 10
131.3165497541113
 20
109.3209715910183
 30
0.0
 10
131.5577972596667
 20
109.1620972122266
 30
0.0
 10
131.7737262939112
 20
108.981209677198
 30
0.0
 10
132.1568842057538
 20
108.5783164572352
 30
0.0
 10
132.324335991239
 20
108.3542463832973
 30
0.0
 10
132.5920206476429
 20
107.8879434712591
 30
0.0
 10
132.6956926153637
 20
107.6410098181994
 30
0.0
 10
132.8348239866179
 20
107.1344240620864
 30
0.0
 10
132.8695632266086
 20
106.8799133531845
 30
0.0
 10
132.8699936598278
 20
106.4965886080227
 30
0.0
 10
132.8612588762383
 20
106.3677642602304
 30
0.0
 10
132.8264654730637
 20
106.1156438956943
 30
0.0
 10
132.7745726113346
 20
105.8680912265431
 30
0.0
 10
132.6891943990409
 20
105.6293549051444
 30
0.0
 10
132.5867186459763
 20
105.3950140065051
 30
0.0
 10
132.5266572743252
 20
105.2798316534292
 30
0.0
 10
132.3253474518741
 20
104.9497826810875
 30
0.0
 10
132.1621239317943
 20
104.7470715508534
 30
0.0
 10
131.7767457315429
 20
104.3753271773039
 30
0.0
 10
131.5577962457171
 20
104.2099734996469
 30
0.0
 10
131.3165497541113
 20
104.0679192781688
 30
0.0
  0
LINE
  5
BB
330
1F
100
AcDbEntity
  8
0
  6
Continuous
 62
     7
370
    25
100
AcDbLine
 10
131.316550043
 20
109.3209716181
 30
0.0
 11
131.316550043
 21
153.4515828515
 31
0.0
  0
SPLINE
  5
BC
330
1F
100
AcDbEntity
  8
0
  6
Continuous
 62
     7
370
    25
100
AcDbSpline
210
0.0
220
0.0
230
1.0
 70
     8
 71
     3
 72
    12
 73
     8
 74
     0
 42
0.000000001
 43
0.00000001
 40
0.0
 40
0.0
 40
0.0
 40
0.0
 40
0.1144634680262505
 40
0.3661160526449659
 40
0.6247763889426796
 40
0.9030266255086999
 40
1.0
 40
1.0
 40
1.0
 40
1.0
 10
134.7971986648723
 20
153.822584512365
 30
0.0
 10
134.8142169775064
 20
153.8251851078969
 30
0.0
 10
134.8686507418482
 20
153.8335032183568
 30
0.0
 10
134.3637445045613
 20
153.7562361397773
 30
0.0
 10
133.3700916781641
 20
153.6255873648177
 30
0.0
 10
132.2468086232748
 20
153.5118633546402
 30
0.0
 10
131.5075938582358
 20
153.463962438833
 30
0.0
 10
131.3165500429556
 20
153.4515828515411
 30
0.0
  0
LINE
  5
BD
330
1F
100
AcDbEntity
  8
0
  6
Continuous
 62
     7
370
    25
100
AcDbLine
 10
131.316550043
 20
90.8837155129
 30
0.0
 11
131.316550043
 21
104.0679183478
 31
0.0
  0
SPLINE
  5
BE
330
1F
100
AcDbEntity
  8
0
  6
Continuous
 62
     7
370
    25
100
AcDbSpline
210
0.0
220
0.0
230
1.0
 70
     8
 71
     3
 72
    10
 73
     6
 74
     0
 42
0.000000001
 43
0.00000001
 40
0.0
 40
0.0
 40
0.0
 40
0.0
 40
0.5
 40
0.5
 40
1.0
 40
1.0
 40
1.0
 40
1.0
 10
125.776370142088
 20
151.8337155963303
 30
0.0
 10
125.5994849956646
 20
152.1239091360728
 30
0.0
 10
125.4139356207872
 20
152.4263225220133
 30
0.0
 10
125.0359866807396
 20
153.0383566593136
 30
0.0
 10
124.8432001385604
 20
153.3486334988786
 30
0.0
 10
124.6481541449711
 20
153.6607805698438
 30
0.0
  0
SPLINE
  5
BF
330
1F
100
AcDbEntity
  8
0
  6
Continuous
 62
     7
370
    25
100
AcDbSpline
210
0.0
220
0.0
230
1.0
 70
     8
 71
     3
 72
     8
 73
     4
 74
     0
 42
0.000000001
 43
0.00000001
 40
0.0
 40
0.0
 40
0.0
 40
0.0
 40
1.0
 40
1.0
 40
1.0
 40
1.0
 10
126.1073519495413
 20
151.2229666749473
 30
0.0
 10
125.9890551901113
 20
151.4408519092782
 30
0.0
 10
125.87762670794
 20
151.6465322003202
 30
0.0
 10
125.776370142088
 20
151.8337155963303
 30
0.0
  0
LINE
  5
C0
330
1F
100
AcDbEntity
  8
0
  6
Continuous
 62
     7
370
    25
100
AcDbLine
 10
126.1073518214
 20
109.8275663952
 30
0.0
 11
126.1073518214
 21
151.222967046
 31
0.0
  0
SPLINE
  5
C1
330
1F
100
AcDbEntity
  8
0
  6
Continuous
 62
     7
370
    25
100
AcDbSpline
210
0.0
220
0.0
230
1.0
 70
     8
 71
     3
 72
    26
 73
    22
 74
     0
 42
0.000000001
 43
0.00000001
 40
0.0
 40
0.0
 40
0.0
 40
0.0
 40
0.1250000000000009
 40
0.1250000000000009
 40
0.2500000000000019
 40
0.2500000000000019
 40
0.3125000000000011
 40
0.3125000000000011
 40
0.3750000000000004
 40
0.3750000000000004
 40
0.4375000000000002
 40
0.4375000000000002
 40
0.5000000000000001
 40
0.5000000000000001
 40
0.5625
 40
0.5625
 40
0.6249999999999999
 40
0.6249999999999999
 40
0.7500000000000001
 40
0.7500000000000001
 40
1.0
 40
1.0
 40
1.0
 40
1.0
 10
126.1073519495413
 20
106.0256137453596
 30
0.0
 10
126.0154470388585
 20
106.0506614376959
 30
0.0
 10
125.9277502626335
 20
106.0886690316103
 30
0.0
 10
125.7635439918662
 20
106.199665282703
 30
0.0
 10
125.6862735735995
 20
106.2735987940166
 30
0.0
 10
125.5865074672743
 20
106.4188969293469
 30
0.0
 10
125.555894538372
 20
106.4730387433386
 30
0.0
 10
125.501025664469
 20
106.5951029826066
 30
0.0
 10
125.4766404435401
 20
106.6636749641908
 30
0.0
 10
125.4369610670417
 20
106.813259134225
 30
0.0
 10
125.4214949878044
 20
106.8944181393978
 30
0.0
 10
125.4003986527219
 20
107.0710741464893
 30
0.0
 10
125.3948855865618
 20
107.167318253211
 30
0.0
 10
125.3948186289395
 20
107.3665481955721
 30
0.0
 10
125.400086936289
 20
107.4703961437955
 30
0.0
 10
125.420929463457
 20
107.6863163399485
 30
0.0
 10
125.4366035766673
 20
107.7982854940426
 30
0.0
 10
125.4959225068449
 20
108.1329117101876
 30
0.0
 10
125.5529423423589
 20
108.3609664185565
 30
0.0
 10
125.7517772310027
 20
109.0193493626256
 30
0.0
 10
125.9230474362349
 20
109.4378743510845
 30
0.0
 10
126.1073519495413
 20
109.8275663686836
 30
0.0
  0
LINE
  5
C2
330
1F
100
AcDbEntity
  8
0
  6
Continuous
 62
     7
370
    25
100
AcDbLine
 10
126.1073518214
 20
93.4111200894
 30
0.0
 11
126.1073518214
 21
106.025614279
 31
0.0
  0
LINE
  5
C3
330
1F
100
AcDbEntity
  8
0
  6
Continuous
 62
     7
370
    25
100
AcDbLine
 10
136.0823511747
 20
91.8837156768
 30
0.0
 11
136.0823511747
 21
152.8337155159
 31
0.0
  0
LINE
  5
C4
330
1F
100
AcDbEntity
  8
0
  6
Continuous
 62
     7
370
    25
100
AcDbLine
 10
118.0823519495
 20
91.0837151731
 30
0.0
 11
118.0823519495
 21
153.6337160195
 31
0.0
  0
SPLINE
  5
C5
330
1F
100
AcDbEntity
  8
0
  6
Continuous
 62
     7
370
    25
100
AcDbSpline
210
0.0
220
0.0
230
1.0
 70
     8
 71
     3
 72
     8
 73
     4
 74
     0
 42
0.000000001
 43
0.00000001
 40
0.0
 40
0.0
 40
0.0
 40
0.0
 40
1.0
 40
1.0
 40
1.0
 40
1.0
 10
130.2851956648772
 20
151.8337155963303
 30
0.0
 10
130.1436575765954
 20
151.5812515962748
 30
0.0
 10
130.0010471078585
 20
151.3277079071323
 30
0.0
 10
129.8573519495415
 20
151.0731717174108
 30
0.0
  0
SPLINE
  5
C6
330
1F
100
AcDbEntity
  8
0
  6
Continuous
 62
     7
370
    25
100
AcDbSpline
210
0.0
220
0.0
230
1.0
 70
     8
 71
     3
 72
     8
 73
     4
 74
     0
 42
0.000000001
 43
0.00000001
 40
0.0
 40
0.0
 40
0.0
 40
0.0
 40
1.0
 40
1.0
 40
1.0
 40
1.0
 10
131.3165497541109
 20
153.4515827481218
 30
0.0
 10
130.9681483494306
 20
152.9095940024708
 30
0.0
 10
130.6235799641977
 20
152.3693748154773
 30
0.0
 10
130.2851956648769
 20
151.8337155963298
 30
0.0
  0
SPLINE
  5
C7
330
1F
100
AcDbEntity
  8
0
  6
Continuous
 62
     7
370
    25
100
AcDbSpline
210
0.0
220
0.0
230
1.0
 70
     8
 71
     3
 72
    10
 73
     6
 74
     0
 42
0.000000001
 43
0.00000001
 40
0.0
 40
0.0
 40
0.0
 40
0.0
 40
0.5
 40
0.5
 40
1.0
 40
1.0
 40
1.0
 40
1.0
 10
129.8573519495412
 20
111.1767766466427
 30
0.0
 10
130.1085448394128
 20
110.9112844980872
 30
0.0
 10
130.3558141511145
 20
110.6255981750447
 30
0.0
 10
130.8424355024254
 20
110.0097254931544
 30
0.0
 10
131.0818188101421
 20
109.6797877659138
 30
0.0
 10
131.3165497541112
 20
109.3209715910184
 30
0.0
  0
LINE
  5
C8
330
1F
100
AcDbEntity
  8
0
  6
Continuous
 62
     7
370
    25
100
AcDbLine
 10
129.8573519704
 20
111.176776203
 30
0.0
 11
129.8573519704
 21
151.0731712605
 31
0.0
  0
SPLINE
  5
C9
330
1F
100
AcDbEntity
  8
0
  6
Continuous
 62
     7
370
    25
100
AcDbSpline
210
0.0
220
0.0
230
1.0
 70
     8
 71
     3
 72
    10
 73
     6
 74
     0
 42
0.000000001
 43
0.00000001
 40
0.0
 40
0.0
 40
0.0
 40
0.0
 40
0.5
 40
0.5
 40
1.0
 40
1.0
 40
1.0
 40
1.0
 10
131.3165497541112
 20
104.0679192781688
 30
0.0
 10
131.0818188101421
 20
104.1339349352236
 30
0.0
 10
130.8424355024254
 20
104.235342876308
 30
0.0
 10
130.3558141511145
 20
104.4915886703865
 30
0.0
 10
130.1085448394128
 20
104.6467369520772
 30
0.0
 10
129.8573519495412
 20
104.8261984249372
 30
0.0
  0
LINE
  5
CA
330
1F
100
AcDbEntity
  8
0
  6
Continuous
 62
     7
370
    25
100
AcDbLine
 10
129.8573519704
 20
104.8261993255
 30
0.0
 11
129.8573519704
 21
104.8753936465
 31
0.0
  0
SPLINE
  5
CB
330
1F
100
AcDbEntity
  8
0
  6
Continuous
 62
     7
370
    25
100
AcDbSpline
210
0.0
220
0.0
230
1.0
 70
     8
 71
     3
 72
    14
 73
    10
 74
     0
 42
0.000000001
 43
0.00000001
 40
0.0
 40
0.0
 40
0.0
 40
0.0
 40
0.25
 40
0.25
 40
0.5
 40
0.5
 40
0.75
 40
0.75
 40
1.0
 40
1.0
 40
1.0
 40
1.0
 10
129.8573519495414
 20
104.8753936127333
 30
0.0
 10
129.8573519495414
 20
104.9413108924424
 30
0.0
 10
129.8314225112755
 20
105.0027003512367
 30
0.0
 10
129.7319802539991
 20
105.110126413526
 30
0.0
 10
129.6596978682782
 20
105.1556675876245
 30
0.0
 10
129.4749605315137
 20
105.2323045115044
 30
0.0
 10
129.3654138951917
 20
105.2622300653296
 30
0.0
 10
129.1220526501884
 20
105.3078722527562
 30
0.0
 10
128.9905415427426
 20
105.3231515033777
 30
0.0
 10
128.8573519495412
 20
105.3309979870776
 30
0.0
  0
SPLINE
  5
CC
330
1F
100
AcDbEntity
  8
0
  6
Continuous
 62
     7
370
    25
100
AcDbSpline
210
0.0
220
0.0
230
1.0
 70
     8
 71
     3
 72
    10
 73
     6
 74
     0
 42
0.000000001
 43
0.00000001
 40
0.0
 40
0.0
 40
0.0
 40
0.0
 40
0.5
 40
0.5
 40
1.0
 40
1.0
 40
1.0
 40
1.0
 10
128.8573519495412
 20
105.3309979870775
 30
0.0
 10
128.5448880472531
 20
105.3494059036209
 30
0.0
 10
128.2419990652554
 20
105.3982787205448
 30
0.0
 10
127.6546558804513
 20
105.5555809778852
 30
0.0
 10
127.3701882198793
 20
105.6649531931636
 30
0.0
 10
127.1073519495412
 20
105.8020667133511
 30
0.0
  0
SPLINE
  5
CD
330
1F
100
AcDbEntity
  8
0
  6
Continuous
 62
     7
370
    25
100
AcDbSpline
210
0.0
220
0.0
230
1.0
 70
     8
 71
     3
 72
    14
 73
    10
 74
     0
 42
0.000000001
 43
0.00000001
 40
0.0
 40
0.0
 40
0.0
 40
0.0
 40
0.25
 40
0.25
 40
0.5
 40
0.5
 40
0.75
 40
0.75
 40
1.0
 40
1.0
 40
1.0
 40
1.0
 10
127.1073519495412
 20
105.8020667133511
 30
0.0
 10
126.9730012010001
 20
105.8721533267724
 30
0.0
 10
126.8498222982067
 20
105.933348634068
 30
0.0
 10
126.6210718773173
 20
106.0429910073945
 30
0.0
 10
126.5191487853242
 20
106.0896988067827
 30
0.0
 10
126.3397237209789
 20
106.1606643196317
 30
0.0
 10
126.2632824720745
 20
106.1851767980243
 30
0.0
 10
126.1459944976128
 20
106.1836610904984
 30
0.0
 10
126.1073519495412
 20
106.15505404729
 30
0.0
 10
126.1073519495412
 20
106.0745527570763
 30
0.0
  0
LINE
  5
CE
330
1F
100
AcDbEntity
  8
0
  6
Continuous
 62
     7
370
    25
100
AcDbLine
 10
126.1073518214
 20
106.0745534177
 30
0.0
 11
126.1073518214
 21
106.025614279
 31
0.0
  0
SPLINE
  5
CF
330
1F
100
AcDbEntity
  8
0
  6
Continuous
 62
     7
370
    25
100
AcDbSpline
210
0.0
220
0.0
230
1.0
 70
     8
 71
     3
 72
    16
 73
    12
 74
     0
 42
0.000000001
 43
0.00000001
 40
0.0
 40
0.0
 40
0.0
 40
0.0
 40
0.1250000000000001
 40
0.1250000000000001
 40
0.2500000000000003
 40
0.2500000000000003
 40
0.5000000000000002
 40
0.5000000000000002
 40
0.7500000000000001
 40
0.7500000000000001
 40
1.0
 40
1.0
 40
1.0
 40
1.0
 10
126.1073519495412
 20
109.8765053804003
 30
0.0
 10
126.1073519495412
 20
109.9165344305541
 30
0.0
 10
126.1171245131809
 20
109.9680210856066
 30
0.0
 10
126.1513205585813
 20
110.0820853325126
 30
0.0
 10
126.1755057502922
 20
110.1444298699808
 30
0.0
 10
126.2632224143885
 20
110.3369561663359
 30
0.0
 10
126.3399325802378
 20
110.4692173739244
 30
0.0
 10
126.5190146804788
 20
110.7231663135906
 30
0.0
 10
126.6198974500986
 20
110.8431383758721
 30
0.0
 10
126.8487089483616
 20
111.065018733441
 30
0.0
 10
126.9730065567966
 20
111.1631851061874
 30
0.0
 10
127.1073519495412
 20
111.2431000481139
 30
0.0
  0
SPLINE
  5
D0
330
1F
100
AcDbEntity
  8
0
  6
Continuous
 62
     7
370
    25
100
AcDbSpline
210
0.0
220
0.0
230
1.0
 70
     8
 71
     3
 72
    10
 73
     6
 74
     0
 42
0.000000001
 43
0.00000001
 40
0.0
 40
0.0
 40
0.0
 40
0.0
 40
0.5
 40
0.5
 40
1.0
 40
1.0
 40
1.0
 40
1.0
 10
127.1073519495412
 20
111.2431000481139
 30
0.0
 10
127.370171463897
 20
111.3994374244673
 30
0.0
 10
127.6485243285046
 20
111.5233560965346
 30
0.0
 10
128.2355209158901
 20
111.7067987061362
 30
0.0
 10
128.5449046057684
 20
111.7654706857289
 30
0.0
 10
128.8573519495412
 20
111.7869908425568
 30
0.0
  0
SPLINE
  5
D1
330
1F
100
AcDbEntity
  8
0
  6
Continuous
 62
     7
370
    25
100
AcDbSpline
210
0.0
220
0.0
230
1.0
 70
     8
 71
     3
 72
    14
 73
    10
 74
     0
 42
0.000000001
 43
0.00000001
 40
0.0
 40
0.0
 40
0.0
 40
0.0
 40
0.25
 40
0.25
 40
0.5
 40
0.5
 40
0.75
 40
0.75
 40
1.0
 40
1.0
 40
1.0
 40
1.0
 10
128.8573519495412
 20
111.7869908425568
 30
0.0
 10
128.9905814005646
 20
111.7961671685434
 30
0.0
 10
129.1222827631748
 20
111.7847750365769
 30
0.0
 10
129.3653604213918
 20
111.7266143769172
 30
0.0
 10
129.4762663619405
 20
111.6798382550178
 30
0.0
 10
129.6589634350181
 20
111.5668791282866
 30
0.0
 10
129.7323509644997
 20
111.4999254223459
 30
0.0
 10
129.831185243418
 20
111.3628935735511
 30
0.0
 10
129.8573519495412
 20
111.2921095984278
 30
0.0
 10
129.8573519495412
 20
111.2259718344399
 30
0.0
  0
LWPOLYLINE
  5
D2
330
1F
100
AcDbEntity
  8
0
  6
Continuous
 62
     7
370
    25
100
AcDbPolyline
 90
        3
 70
   128
 43
0.0
 10
129.132351805
 20
109.8344460751
 10
129.9640237955
 20
109.915597799
 10
130.7243359876
 20
110.1427566881
  0
ARC
  5
D3
330
1F
100
AcDbEntity
  8
0
  6
Continuous
 62
     7
370
    25
100
AcDbCircle
 10
129.0861034832
 20
113.8670552295
 30
0.0
 40
4.03287434712529
100
AcDbArc
 50
230.9132579629
 51
270.6570727235
  0
SPLINE
  5
D4
330
1F
100
AcDbEntity
  8
0
  6
Continuous
 62
     7
370
    25
100
AcDbSpline
210
0.0
220
0.0
230
1.0
 70
     8
 71
     3
 72
    14
 73
    10
 74
     0
 42
0.000000001
 43
0.00000001
 40
0.0
 40
0.0
 40
0.0
 40
0.0
 40
0.25
 40
0.25
 40
0.5
 40
0.5
 40
0.75
 40
0.75
 40
1.0
 40
1.0
 40
1.0
 40
1.0
 10
127.1073519495412
 20
150.0309800275256
 30
0.0
 10
126.9730038631848
 20
150.0408113470965
 30
0.0
 10
126.8498271893288
 20
150.0768507604866
 30
0.0
 10
126.6210805844108
 20
150.1887224568058
 30
0.0
 10
126.5191586204436
 20
150.2630772458962
 30
0.0
 10
126.3397352180148
 20
150.4465537127479
 30
0.0
 10
126.2632939298321
 20
150.553819233608
 30
0.0
 10
126.1460039569819
 20
150.8128457234263
 30
0.0
 10
126.1073519495412
 20
150.9640904284026
 30
0.0
 10
126.1073519495412
 20
151.125088651514
 30
0.0
  0
SPLINE
  5
D5
330
1F
100
AcDbEntity
  8
0
  6
Continuous
 62
     7
370
    25
100
AcDbSpline
210
0.0
220
0.0
230
1.0
 70
     8
 71
     3
 72
    14
 73
    10
 74
     0
 42
0.000000001
 43
0.00000001
 40
0.0
 40
0.0
 40
0.0
 40
0.0
 40
0.25
 40
0.25
 40
0.5
 40
0.5
 40
0.75
 40
0.75
 40
1.0
 40
1.0
 40
1.0
 40
1.0
 10
129.8573519495414
 20
150.9747813418178
 30
0.0
 10
129.8573519495415
 20
150.8429421648488
 30
0.0
 10
129.8314354269704
 20
150.7108932278602
 30
0.0
 10
129.7319905803928
 20
150.4656269361471
 30
0.0
 10
129.6596921879806
 20
150.3540065195592
 30
0.0
 10
129.4749882934567
 20
150.1632672303636
 30
0.0
 10
129.3654110315808
 20
150.0873063635167
 30
0.0
 10
129.1220808533627
 20
149.9834640393472
 30
0.0
 10
128.9905445944425
 20
149.9568308319139
 30
0.0
 10
128.8573519495412
 20
149.958157959356
 30
0.0
  0
SPLINE
  5
D6
330
1F
100
AcDbEntity
  8
0
  6
Continuous
 62
     7
370
    25
100
AcDbSpline
210
0.0
220
0.0
230
1.0
 70
     8
 71
     3
 72
    10
 73
     6
 74
     0
 42
0.000000001
 43
0.00000001
 40
0.0
 40
0.0
 40
0.0
 40
0.0
 40
0.5
 40
0.5
 40
1.0
 40
1.0
 40
1.0
 40
1.0
 10
128.8573519495412
 20
149.9581579593564
 30
0.0
 10
128.5448880472531
 20
149.9612713401268
 30
0.0
 10
128.2419990652554
 20
149.9695873220333
 30
0.0
 10
127.6546558804513
 20
149.9947626158893
 30
0.0
 10
127.3701882198793
 20
150.0117462041152
 30
0.0
 10
127.1073519495412
 20
150.0309800275256
 30
0.0
  0
LINE
  5
D7
330
1F
100
AcDbEntity
  8
0
  6
Continuous
 62
     7
370
    25
100
AcDbLine
 10
129.8573519704
 20
93.4111200894
 30
0.0
 11
129.8573519704
 21
104.8261993255
 31
0.0
  0
LINE
  5
D8
330
1F
100
AcDbEntity
  8
0
  6
Continuous
 62
     7
370
    25
100
AcDbLine
 10
116.9221698907
 20
97.4169769014
 30
0.0
 11
116.9221698907
 21
147.3004542912
 31
0.0
  0
LINE
  5
D9
330
1F
100
AcDbEntity
  8
0
  6
Continuous
 62
     7
370
    25
100
AcDbLine
 10
100.977294114
 20
98.6173790569
 30
0.0
 11
100.977294114
 21
98.2176963861
 31
0.0
  0
SPLINE
  5
DA
330
1F
100
AcDbEntity
  8
0
  6
Continuous
 62
     7
370
    25
100
AcDbSpline
210
0.0
220
0.0
230
1.0
 70
     8
 71
     3
 72
    26
 73
    22
 74
     0
 42
0.000000001
 43
0.00000001
 40
0.0
 40
0.0
 40
0.0
 40
0.0
 40
0.0241259796962595
 40
0.0482159912271144
 40
0.0723203915121648
 40
0.096489567870804
 40
0.1207736231960649
 40
0.1452220711240086
 40
0.1698835501655288
 40
0.1948055644470517
 40
0.2200342569516512
 40
0.2456142191611229
 40
0.3690971486898461
 40
0.4940698769485154
 40
0.6192566784762414
 40
0.7454656653603214
 40
0.7971495824713699
 40
0.8481710308405389
 40
0.8988013269235238
 40
0.949317929049219
 40
1.0
 40
1.0
 40
1.0
 40
1.0
 10
96.03740979633982
 20
100.4393026824102
 30
0.0
 10
96.10265885488906
 20
100.4354820529293
 30
0.0
 10
96.23305969556769
 20
100.427846489945
 30
0.0
 10
96.42803951386331
 20
100.4119262395832
 30
0.0
 10
96.62216865112651
 20
100.3927680384324
 30
0.0
 10
96.8154299912204
 20
100.370073624695
 30
0.0
 10
97.00782516969458
 20
100.3439612581072
 30
0.0
 10
97.19935074819566
 20
100.3144494516525
 30
0.0
 10
97.39000628058136
 20
100.2815950910578
 30
0.0
 10
97.57978627968022
 20
100.2454587816173
 30
0.0
 10
97.7687049003367
 20
100.2061044887713
 30
0.0
 10
98.19544931350744
 20
100.1097057259151
 30
0.0
 10
98.82992164068864
 20
99.9330696470443
 30
0.0
 10
99.56959749303412
 20
99.65495041351058
 30
0.0
 10
100.1763447358702
 20
99.36360505378605
 30
0.0
 10
100.5371365520885
 20
99.13612786376714
 30
0.0
 10
100.7393106078528
 20
98.97671662667405
 30
0.0
 10
100.846134063838
 20
98.87541748196548
 30
0.0
 10
100.9217447801363
 20
98.78148414223476
 30
0.0
 10
100.9689074528276
 20
98.694364498226
 30
0.0
 10
100.9744955071158
 20
98.64306936796298
 30
0.0
 10
100.9772941027427
 20
98.61737986678291
 30
0.0
  0
LINE
  5
DB
330
1F
100
AcDbEntity
  8
0
  6
Continuous
 62
     7
370
    25
100
AcDbLine
 10
94.1225364474
 20
100.5448125924
 30
0.0
 11
96.0374101666
 21
100.4393030579
 31
0.0
  0
SPLINE
  5
DC
330
1F
100
AcDbEntity
  8
0
  6
Continuous
 62
     7
370
    25
100
AcDbSpline
210
0.0
220
0.0
230
1.0
 70
     8
 71
     3
 72
    14
 73
    10
 74
     0
 42
0.000000001
 43
0.00000001
 40
0.0
 40
0.0
 40
0.0
 40
0.0
 40
0.0789261963153939
 40
0.1582328720518368
 40
0.3308475394530129
 40
0.5000195457566009
 40
0.6670357883533988
 40
0.8332395193633474
 40
1.0
 40
1.0
 40
1.0
 40
1.0
 10
91.92632429098057
 20
100.4388196871847
 30
0.0
 10
91.97971981402233
 20
100.4468487803766
 30
0.0
 10
92.08676826384051
 20
100.4629456726005
 30
0.0
 10
92.31583897840038
 20
100.4927470862197
 30
0.0
 10
92.61471171659564
 20
100.5245410494132
 30
0.0
 10
92.98685479139408
 20
100.5506980394091
 30
0.0
 10
93.36248459042565
 20
100.5631632536438
 30
0.0
 10
93.74167690245794
 20
100.5627840939699
 30
0.0
 10
93.99544187200823
 20
100.5508103057082
 30
0.0
 10
94.12253651705035
 20
100.5448134008886
 30
0.0
  0
SPLINE
  5
DD
330
1F
100
AcDbEntity
  8
0
  6
Continuous
 62
     7
370
    25
100
AcDbSpline
210
0.0
220
0.0
230
1.0
 70
     8
 71
     3
 72
     8
 73
     4
 74
     0
 42
0.000000001
 43
0.00000001
 40
0.0
 40
0.0
 40
0.0
 40
0.0
 40
1.0
 40
1.0
 40
1.0
 40
1.0
 10
86.5340305673336
 20
100.7334290696338
 30
0.0
 10
88.33136725270805
 20
100.6352932395764
 30
0.0
 10
90.1287039380825
 20
100.5370743645347
 30
0.0
 10
91.92604062345694
 20
100.4387756754841
 30
0.0
  0
SPLINE
  5
DE
330
1F
100
AcDbEntity
  8
0
  6
Continuous
 62
     7
370
    25
100
AcDbSpline
210
0.0
220
0.0
230
1.0
 70
     8
 71
     3
 72
    13
 73
     9
 74
     0
 42
0.000000001
 43
0.00000001
 40
0.0
 40
0.0
 40
0.0
 40
0.0
 40
0.1667030582307938
 40
0.3329480818052925
 40
0.4990671507274732
 40
0.665393852371831
 40
0.8322612710550088
 40
1.0
 40
1.0
 40
1.0
 40
1.0
 10
85.45052640248821
 20
100.8500961339757
 30
0.0
 10
85.51163344523954
 20
100.846409506302
 30
0.0
 10
85.63367963254272
 20
100.8390463803622
 30
0.0
 10
85.81601457780643
 20
100.8240118727732
 30
0.0
 10
85.9973187906801
 20
100.8061102645402
 30
0.0
 10
86.17751765071677
 20
100.7850096876943
 30
0.0
 10
86.35682162885507
 20
100.7610633166601
 30
0.0
 10
86.4748536544265
 20
100.7426505014474
 30
0.0
 10
86.53402334417815
 20
100.7334201204697
 30
0.0
  0
SPLINE
  5
DF
330
1F
100
AcDbEntity
  8
0
  6
Continuous
 62
     7
370
    25
100
AcDbSpline
210
0.0
220
0.0
230
1.0
 70
     8
 71
     3
 72
     8
 73
     4
 74
     0
 42
0.000000001
 43
0.00000001
 40
0.0
 40
0.0
 40
0.0
 40
0.0
 40
1.0
 40
1.0
 40
1.0
 40
1.0
 10
79.632351949554
 20
101.1698633660694
 30
0.0
 10
81.57174343386542
 20
101.063377716186
 30
0.0
 10
83.51113491817681
 20
100.9567871449546
 30
0.0
 10
85.45052640248822
 20
100.8500961339757
 30
0.0
  0
LINE
  5
E0
330
1F
100
AcDbEntity
  8
0
  6
Continuous
 62
     7
370
    25
100
AcDbLine
 10
79.6323530045
 20
101.1698641504
 30
0.0
 11
79.6323530045
 21
143.5476545866
 31
0.0
  0
SPLINE
  5
E1
330
1F
100
AcDbEntity
  8
0
  6
Continuous
 62
     7
370
    25
100
AcDbSpline
210
0.0
220
0.0
230
1.0
 70
     8
 71
     3
 72
     8
 73
     4
 74
     0
 42
0.000000001
 43
0.00000001
 40
0.0
 40
0.0
 40
0.0
 40
0.0
 40
1.0
 40
1.0
 40
1.0
 40
1.0
 10
85.45052640248821
 20
143.8673350586849
 30
0.0
 10
83.5111349181768
 20
143.7606440477059
 30
0.0
 10
81.5717434338654
 20
143.6540534764745
 30
0.0
 10
79.63235194955399
 20
143.5475678265912
 30
0.0
  0
SPLINE
  5
E2
330
1F
100
AcDbEntity
  8
0
  6
Continuous
 62
     7
370
    25
100
AcDbSpline
210
0.0
220
0.0
230
1.0
 70
     8
 71
     3
 72
    13
 73
     9
 74
     0
 42
0.000000001
 43
0.00000001
 40
0.0
 40
0.0
 40
0.0
 40
0.0
 40
0.1686319999748177
 40
0.3360343310905609
 40
0.5025367825908793
 40
0.6684737453788491
 40
0.8341822636915196
 40
1.0
 40
1.0
 40
1.0
 40
1.0
 10
86.53402145195524
 20
143.9840138344269
 30
0.0
 10
86.4745315558955
 20
143.9747393442305
 30
0.0
 10
86.35598556562041
 20
143.9562579936576
 30
0.0
 10
86.17610887003451
 20
143.9322272469235
 30
0.0
 10
85.9957185824065
 20
143.9110961394143
 30
0.0
 10
85.81460641037266
 20
143.8932174408283
 30
0.0
 10
85.63284557320522
 20
143.8782556796513
 30
0.0
 10
85.51131280531058
 20
143.8709760650723
 30
0.0
 10
85.45052640248821
 20
143.8673350586849
 30
0.0
  0
SPLINE
  5
E3
330
1F
100
AcDbEntity
  8
0
  6
Continuous
 62
     7
370
    25
100
AcDbSpline
210
0.0
220
0.0
230
1.0
 70
     8
 71
     3
 72
     8
 73
     4
 74
     0
 42
0.000000001
 43
0.00000001
 40
0.0
 40
0.0
 40
0.0
 40
0.0
 40
1.0
 40
1.0
 40
1.0
 40
1.0
 10
91.92621486844854
 20
144.2786650583719
 30
0.0
 10
90.12882019701054
 20
144.1803631991553
 30
0.0
 10
88.33142552557257
 20
144.0821411589966
 30
0.0
 10
86.53403085413458
 20
143.9840021691811
 30
0.0
  0
SPLINE
  5
E4
330
1F
100
AcDbEntity
  8
0
  6
Continuous
 62
     7
370
    25
100
AcDbSpline
210
0.0
220
0.0
230
1.0
 70
     8
 71
     3
 72
    18
 73
    14
 74
     0
 42
0.000000001
 43
0.00000001
 40
0.0
 40
0.0
 40
0.0
 40
0.0
 40
0.0923325137117184
 40
0.18436920470735
 40
0.27634588738243
 40
0.3684982175670546
 40
0.4610598988318586
 40
0.5542609546546505
 40
0.6483261285452815
 40
0.7434734636511763
 40
0.8399130993120807
 40
0.920166071830239
 40
0.9999999999999999
 40
0.9999999999999999
 40
0.9999999999999999
 40
0.9999999999999999
 10
94.12253651705035
 20
144.1726177917719
 30
0.0
 10
94.05220621353683
 20
144.1689464844669
 30
0.0
 10
93.9117709366841
 20
144.1616156323018
 30
0.0
 10
93.70140841018046
 20
144.1560249730572
 30
0.0
 10
93.49196474726341
 20
144.1544203829235
 30
0.0
 10
93.28341507689058
 20
144.1571526569219
 30
0.0
 10
93.0757714596153
 20
144.16407575451
 30
0.0
 10
92.86903327207602
 20
144.1751583648028
 30
0.0
 10
92.66321118011186
 20
144.1903273056574
 30
0.0
 10
92.45827950132075
 20
144.2094812916183
 30
0.0
 10
92.26679875592583
 20
144.2311839856701
 30
0.0
 10
92.08907560387183
 20
144.2542135089341
 30
0.0
 10
91.98074160930783
 20
144.2704769265762
 30
0.0
 10
91.92671639985471
 20
144.2785873497917
 30
0.0
  0
LINE
  5
E5
330
1F
100
AcDbEntity
  8
0
  6
Continuous
 62
     7
370
    25
100
AcDbLine
 10
96.0374101666
 20
144.2781281347
 30
0.0
 11
94.1225364474
 21
144.1726186003
 31
0.0
  0
SPLINE
  5
E6
330
1F
100
AcDbEntity
  8
0
  6
Continuous
 62
     7
370
    25
100
AcDbSpline
210
0.0
220
0.0
230
1.0
 70
     8
 71
     3
 72
    25
 73
    21
 74
     0
 42
0.000000001
 43
0.00000001
 40
0.0
 40
0.0
 40
0.0
 40
0.0
 40
0.0280105225425191
 40
0.0559601148858519
 40
0.0839014045040227
 40
0.111887077678317
 40
0.1399695827585732
 40
0.1682008401736977
 40
0.1966319670421934
 40
0.2253130233140088
 40
0.2542927850735655
 40
0.3799486436567163
 40
0.505785022166643
 40
0.6313085886318132
 40
0.753206823801224
 40
0.8039473267953399
 40
0.8535894438550743
 40
0.9025339722390368
 40
0.9511970353788614
 40
1.0
 40
1.0
 40
1.0
 40
1.0
 10
100.9772941027427
 20
146.1000513258776
 30
0.0
 10
100.9773313244765
 20
146.0860931860558
 30
0.0
 10
100.9774056869772
 20
146.0582072690103
 30
0.0
 10
100.9649896363306
 20
146.0131634741247
 30
0.0
 10
100.9433850759769
 20
145.9658962499297
 30
0.0
 10
100.9116996063169
 20
145.9161970689538
 30
0.0
 10
100.8701734679969
 20
145.8641598199813
 30
0.0
 10
100.818742712267
 20
145.8097970573455
 30
0.0
 10
100.7574288375558
 20
145.7531457746803
 30
0.0
 10
100.6862185020563
 20
145.694228213015
 30
0.0
 10
100.5153818948538
 20
145.565411637192
 30
0.0
 10
100.1776496614169
 20
145.3552082530487
 30
0.0
 10
99.56609499722249
 20
145.0642827314576
 30
0.0
 10
98.82986016207235
 20
144.7857559152356
 30
0.0
 10
98.14337409042497
 20
144.5914592095014
 30
0.0
 10
97.59466994427417
 20
144.4708683970473
 30
0.0
 10
97.21263376577015
 20
144.4010912312849
 30
0.0
 10
96.8254676670657
 20
144.3453022274291
 30
0.0
 10
96.43324099827817
 20
144.3025720426859
 30
0.0
 10
96.16947973016198
 20
144.2862841475405
 30
0.0
 10
96.03740979633982
 20
144.2781285102504
 30
0.0
  0
LINE
  5
E7
330
1F
100
AcDbEntity
  8
0
  6
Continuous
 62
     7
370
    25
100
AcDbLine
 10
100.977294114
 20
146.4997348065
 30
0.0
 11
100.977294114
 21
146.1000521357
 31
0.0
  0
SPLINE
  5
E8
330
1F
100
AcDbEntity
  8
0
  6
Continuous
 62
     7
370
    25
100
AcDbSpline
210
0.0
220
0.0
230
1.0
 70
    11
 71
     3
 72
    39
 73
    35
 74
     0
 42
0.000000001
 43
0.00000001
 40
0.0
 40
0.0
 40
0.0
 40
0.0
 40
0.0310664058345684
 40
0.0621048158426028
 40
0.0931361551794319
 40
0.123553829350374
 40
0.1538561545809018
 40
0.1850588072749134
 40
0.2160250992946899
 40
0.2471867223797622
 40
0.2784462884306489
 40
0.3100516090231287
 40
0.3419834369140543
 40
0.3734259894013276
 40
0.404860488678635
 40
0.4368740651833383
 40
0.4685120685924916
 40
0.4998055358633239
 40
0.5309508213228468
 40
0.5618649784438202
 40
0.593041644659302
 40
0.6233742450133318
 40
0.6540913579074815
 40
0.6849496782718557
 40
0.715816064516634
 40
0.7471731804043451
 40
0.7784514311861095
 40
0.8101295911560887
 40
0.8419598919685959
 40
0.8735175891922303
 40
0.9050808037884179
 40
0.9370235169792495
 40
0.9687441590028177
 40
1.0
 40
1.0
 40
1.0
 40
1.0
 10
89.99476804426818
 20
128.166968725925
 30
0.0
 10
90.3588972052307
 20
128.5463923838301
 30
0.0
 10
91.16168154194544
 20
129.233874084726
 30
0.0
 10
92.55672002733134
 20
129.9997880591436
 30
0.0
 10
94.06796186705662
 20
130.4886689925807
 30
0.0
 10
95.63955827358261
 20
130.6506468662093
 30
0.0
 10
97.2071028906373
 20
130.4892019752459
 30
0.0
 10
98.7027748847458
 20
130.0094775880071
 30
0.0
 10
100.08319114678
 20
129.256178119815
 30
0.0
 10
101.280237200364
 20
128.2436922461539
 30
0.0
 10
102.2691449801066
 20
127.0091434587871
 30
0.0
 10
103.008639774409
 20
125.584191830505
 30
0.0
 10
103.4849436972986
 20
124.0332613509627
 30
0.0
 10
103.6526098697543
 20
122.4123324837354
 30
0.0
 10
103.5073322689679
 20
120.7873235378137
 30
0.0
 10
103.0483575583342
 20
119.2282975575412
 30
0.0
 10
102.3243716724802
 20
117.7916409588675
 30
0.0
 10
101.3485574171584
 20
116.5448967440664
 30
0.0
 10
100.16423286951
 20
115.5186995548705
 30
0.0
 10
98.79602661378047
 20
114.7482953351497
 30
0.0
 10
97.30828877664823
 20
114.2494461246728
 30
0.0
 10
95.7386389161928
 20
114.0682420447775
 30
0.0
 10
94.16238439786338
 20
114.2046651866937
 30
0.0
 10
92.6431088893901
 20
114.6690969195021
 30
0.0
 10
91.24209085534962
 20
115.4235309938765
 30
0.0
 10
90.02395435845106
 20
116.4469407293978
 30
0.0
 10
89.01634345532088
 20
117.6938829908917
 30
0.0
 10
88.27086954477205
 20
119.126972397153
 30
0.0
 10
87.79503373214256
 20
120.6836346223816
 30
0.0
 10
87.63122261715424
 20
122.3072975960785
 30
0.0
 10
87.77703476042164
 20
123.9348466400759
 30
0.0
 10
88.23717907259012
 20
125.4995943284042
 30
0.0
 10
88.9666391374099
 20
126.9436203978779
 30
0.0
 10
89.62841851487343
 20
127.7852314375755
 30
0.0
 10
89.99476804426818
 20
128.166968725925
 30
0.0
  0
SPLINE
  5
E9
330
1F
100
AcDbEntity
  8
0
  6
Continuous
 62
     7
370
    25
100
AcDbSpline
210
0.0
220
0.0
230
1.0
 70
    11
 71
     3
 72
    47
 73
    43
 74
     0
 42
0.000000001
 43
0.00000001
 40
0.0
 40
0.0
 40
0.0
 40
0.0
 40
0.018556523157158
 40
0.035175779134609
 40
0.0498587703163985
 40
0.0626072874024145
 40
0.0953681049684361
 40
0.1250235944851088
 40
0.154562130663758
 40
0.1873254156678563
 40
0.2140376487913347
 40
0.2498478283714565
 40
0.2676842772498727
 40
0.2839032654377902
 40
0.2985082395930238
 40
0.3115041125354172
 40
0.342921189239198
 40
0.372947920611742
 40
0.4028496296252287
 40
0.4364008870238635
 40
0.4619504140776508
 40
0.4999311490763584
 40
0.5173446591921409
 40
0.533593702433943
 40
0.5486836298403289
 40
0.5626211828730121
 40
0.5950895091105277
 40
0.6250625446193889
 40
0.6549914305487304
 40
0.6874537010179932
 40
0.716262031995674
 40
0.7500327075718783
 40
0.7698580256291105
 40
0.7869169820600129
 40
0.8012094712421542
 40
0.812736328288961
 40
0.8457518306192902
 40
0.8751838152098684
 40
0.905054823103841
 40
0.9375234850660237
 40
0.9660340097902952
 40
1.0
 40
1.0
 40
1.0
 40
1.0
 10
90.53858096464248
 20
127.4679347201215
 30
0.0
 10
90.34048233703155
 20
127.2685494310089
 30
0.0
 10
89.98753635704048
 20
126.8692204029065
 30
0.0
 10
89.55162936114426
 20
126.2505661083316
 30
0.0
 10
89.22169262413672
 20
125.6682055375807
 30
0.0
 10
88.84047689214498
 20
124.8356772325929
 30
0.0
 10
88.51407107360399
 20
123.7263911294276
 30
0.0
 10
88.38971801477588
 20
122.3152138008199
 30
0.0
 10
88.53108738267726
 20
120.9057238016502
 30
0.0
 10
88.93258513690871
 20
119.5976562029035
 30
0.0
 10
89.60953452742059
 20
118.3129929019775
 30
0.0
 10
90.38271688510716
 20
117.3595051200777
 30
0.0
 10
91.17797858604396
 20
116.6602011525683
 30
0.0
 10
91.7821187037986
 20
116.2337021126518
 30
0.0
 10
92.36183389842847
 20
115.9035505845367
 30
0.0
 10
93.1796351658847
 20
115.5275899424374
 30
0.0
 10
94.27929759525443
 20
115.1985881082135
 30
0.0
 10
95.6816653239113
 20
115.0650100917129
 30
0.0
 10
97.10913800730498
 20
115.2010099707189
 30
0.0
 10
98.40631499118585
 20
115.5954981205991
 30
0.0
 10
99.70071801433485
 20
116.2672919275897
 30
0.0
 10
100.6527146947362
 20
117.0298459175383
 30
0.0
 10
101.3621874232392
 20
117.8318850373214
 30
0.0
 10
101.7877922031669
 20
118.4276806422673
 30
0.0
 10
102.1284548311165
 20
119.0189502625952
 30
0.0
 10
102.5181202180119
 20
119.8635130936762
 30
0.0
 10
102.8498321795824
 20
120.9871649985801
 30
0.0
 10
102.9760733410823
 20
122.405057158722
 30
0.0
 10
102.8317452298144
 20
123.8208823503041
 30
0.0
 10
102.4194668807644
 20
125.1560403256106
 30
0.0
 10
101.7401506997941
 20
126.425008659207
 30
0.0
 10
100.9538003414976
 20
127.3853311515441
 30
0.0
 10
100.1599526676076
 20
128.0807387585266
 30
0.0
 10
99.530228445456
 20
128.5168126345807
 30
0.0
 10
98.96899252617017
 20
128.8296617829686
 30
0.0
 10
98.16538406673902
 20
129.196863783668
 30
0.0
 10
97.08523567235116
 20
129.5195737215616
 30
0.0
 10
95.67570735227707
 20
129.6515179540729
 30
0.0
 10
94.26650242544689
 20
129.5177079330529
 30
0.0
 10
92.92578957560809
 20
129.1129539409426
 30
0.0
 10
91.64152111042934
 20
128.4346985924085
 30
0.0
 10
90.90118208280475
 20
127.8328909525256
 30
0.0
 10
90.53858096464248
 20
127.4679347201215
 30
0.0
  0
SPLINE
  5
EA
330
1F
100
AcDbEntity
  8
0
  6
Continuous
 62
     7
370
    25
100
AcDbSpline
210
0.0
220
0.0
230
1.0
 70
     8
 71
     3
 72
     8
 73
     4
 74
     0
 42
0.000000001
 43
0.00000001
 40
0.0
 40
0.0
 40
0.0
 40
0.0
 40
1.0
 40
1.0
 40
1.0
 40
1.0
 10
78.71869212795575
 20
101.5804353770726
 30
0.0
 10
79.02324540166727
 20
101.4427586366963
 30
0.0
 10
79.32779867537877
 20
101.3058959157814
 30
0.0
 10
79.63235194909028
 20
101.1698633664494
 30
0.0
  0
SPLINE
  5
EB
330
1F
100
AcDbEntity
  8
0
  6
Continuous
 62
     7
370
    25
100
AcDbSpline
210
0.0
220
0.0
230
1.0
 70
     8
 71
     3
 72
     8
 73
     4
 74
     0
 42
0.000000001
 43
0.00000001
 40
0.0
 40
0.0
 40
0.0
 40
0.0
 40
1.0
 40
1.0
 40
1.0
 40
1.0
 10
78.13235194954125
 20
102.0964898595859
 30
0.0
 10
78.32689908207334
 20
101.9230829912667
 30
0.0
 10
78.52236010231174
 20
101.7510868963005
 30
0.0
 10
78.71869212796825
 20
101.5804353770693
 30
0.0
  0
LINE
  5
EC
330
1F
100
AcDbEntity
  8
0
  6
Continuous
 62
     7
370
    25
100
AcDbLine
 10
78.13235369
 20
102.096489134
 30
0.0
 11
78.13235369
 21
142.6209420587
 31
0.0
  0
SPLINE
  5
ED
330
1F
100
AcDbEntity
  8
0
  6
Continuous
 62
     7
370
    25
100
AcDbSpline
210
0.0
220
0.0
230
1.0
 70
     8
 71
     3
 72
     8
 73
     4
 74
     0
 42
0.000000001
 43
0.00000001
 40
0.0
 40
0.0
 40
0.0
 40
0.0
 40
1.0
 40
1.0
 40
1.0
 40
1.0
 10
78.7186921279737
 20
143.136995815596
 30
0.0
 10
78.52236010231535
 20
142.9663442963632
 30
0.0
 10
78.32689908207513
 20
142.7943482013955
 30
0.0
 10
78.13235194954125
 20
142.6209413330746
 30
0.0
  0
SPLINE
  5
EE
330
1F
100
AcDbEntity
  8
0
  6
Continuous
 62
     7
370
    25
100
AcDbSpline
210
0.0
220
0.0
230
1.0
 70
     8
 71
     3
 72
     8
 73
     4
 74
     0
 42
0.000000001
 43
0.00000001
 40
0.0
 40
0.0
 40
0.0
 40
0.0
 40
1.0
 40
1.0
 40
1.0
 40
1.0
 10
79.63235194909029
 20
143.5475678262112
 30
0.0
 10
79.32779867538476
 20
143.4115352768818
 30
0.0
 10
79.02324540167922
 20
143.2746725559696
 30
0.0
 10
78.7186921279737
 20
143.136995815596
 30
0.0
  0
SPLINE
  5
EF
330
1F
100
AcDbEntity
  8
0
  6
Continuous
 62
     7
370
    25
100
AcDbSpline
210
0.0
220
0.0
230
1.0
 70
     8
 71
     3
 72
     9
 73
     5
 74
     0
 42
0.000000001
 43
0.00000001
 40
0.0
 40
0.0
 40
0.0
 40
0.0
 40
0.8959546455136717
 40
0.9999999999999999
 40
0.9999999999999999
 40
0.9999999999999999
 40
0.9999999999999999
 10
93.75709664496627
 20
115.3690167392613
 30
0.0
 10
93.86112905686626
 20
115.3419178930323
 30
0.0
 10
93.97724253696362
 20
115.3116721140024
 30
0.0
 10
93.92790652582299
 20
115.3242430372191
 30
0.0
 10
93.92277334305491
 20
115.3255509833814
 30
0.0
  0
LINE
  5
F0
330
1F
100
AcDbEntity
  8
0
  6
Continuous
 62
     7
370
    25
100
AcDbLine
 10
210.0823521284
 20
122.3587155963
 30
0.0
 11
210.0823521284
 21
106.3587148364
 31
0.0
  0
LINE
  5
F1
330
1F
100
AcDbEntity
  8
0
  6
Continuous
 62
     7
370
    25
100
AcDbLine
 10
210.0823521284
 20
138.3587163563
 30
0.0
 11
210.0823521284
 21
122.3587155963
 31
0.0
  0
LINE
  5
F2
330
1F
100
AcDbEntity
  8
0
  6
Continuous
 62
     7
370
    25
100
AcDbLine
 10
100.977294114
 20
146.1000521357
 30
0.0
 11
100.3314833758
 21
145.4649329807
 31
0.0
  0
LINE
  5
F3
330
1F
100
AcDbEntity
  8
0
  6
Continuous
 62
     7
370
    25
100
AcDbLine
 10
100.977294114
 20
98.6173790569
 30
0.0
 11
100.3339830455
 21
99.250041383
 31
0.0
  0
LINE
  5
F4
330
1F
100
AcDbEntity
  8
0
  6
Continuous
 62
     7
370
    25
100
AcDbLine
 10
100.0823527244
 20
145.2199262257
 30
0.0
 11
100.0823527244
 21
145.604793417
 31
0.0
  0
LINE
  5
F5
330
1F
100
AcDbEntity
  8
0
  6
Continuous
 62
     7
370
    25
100
AcDbLine
 10
100.0823527244
 20
99.1126377757
 30
0.0
 11
100.0823527244
 21
99.497504967
 31
0.0
  0
SPLINE
  5
F6
330
1F
100
AcDbEntity
  8
0
  6
Continuous
 62
     7
370
    25
100
AcDbSpline
210
0.0
220
0.0
230
1.0
 70
     8
 71
     3
 72
     9
 73
     5
 74
     0
 42
0.000000001
 43
0.00000001
 40
0.0
 40
0.0
 40
0.0
 40
0.0
 40
0.7785869072975132
 40
1.0
 40
1.0
 40
1.0
 40
1.0
 10
90.72811525735106
 20
127.6218583497227
 30
0.0
 10
90.57572077670706
 20
127.4940342847711
 30
0.0
 10
90.37998863785957
 20
127.3298598506089
 30
0.0
 10
90.22447004246536
 20
127.1201002569505
 30
0.0
 10
90.19003618928637
 20
127.0736567365945
 30
0.0
  0
SPLINE
  5
F7
330
1F
100
AcDbEntity
  8
0
  6
Continuous
 62
     7
370
    25
100
AcDbSpline
210
0.0
220
0.0
230
1.0
 70
     8
 71
     3
 72
     9
 73
     5
 74
     0
 42
0.000000001
 43
0.00000001
 40
0.0
 40
0.0
 40
0.0
 40
0.0
 40
0.4260717682333453
 40
1.0
 40
1.0
 40
1.0
 40
1.0
 10
93.04534640583243
 20
115.6131107981325
 30
0.0
 10
93.18478391532943
 20
115.5589281863263
 30
0.0
 10
93.51204687873852
 20
115.4317603806985
 30
0.0
 10
93.67017904312631
 20
115.3923519399948
 30
0.0
 10
93.76093555661883
 20
115.369734323305
 30
0.0
  0
DIMENSION
  5
F8
330
1F
100
AcDbEntity
  8
VERMASSUNG
100
AcDbDimension
  2
_D
 10
251.2385168913
 20
139.3587155963
 30
0.0
 11
251.2385168913
 21
122.3587155963
 31
0.0
 70
   160
  1
%%c<>
 71
     2
 42
-1.0
  3
SLDDIMSTYLE0
100
AcDbAlignedDimension
 13
209.0823519495
 23
105.3587155963
 33
0.0
 14
209.0823519495
 24
139.3587155963
 34
0.0
 50
90.0
100
AcDbRotatedDimension
  0
DIMENSION
  5
104
330
1F
100
AcDbEntity
  8
VERMASSUNG
100
AcDbDimension
  2
_D_1
 10
118.0823519495
 20
169.8337155963
 30
0.0
 11
178.0823519495
 21
169.8337155963
 31
0.0
 70
   160
  1
<>
 71
     2
 42
-1.0
  3
SLDDIMSTYLE0
100
AcDbAlignedDimension
 13
238.0823519495
 23
133.3587155963
 33
0.0
 14
118.0823519495
 24
153.6337155963
 34
0.0
100
AcDbRotatedDimension
  0
DIMENSION
  5
10E
330
1F
100
AcDbEntity
  8
VERMASSUNG
100
AcDbDimension
  2
_D_2
 10
238.0823519495
 20
160.1755257169
 30
0.0
 11
187.0823519495
 21
160.1755257169
 31
0.0
 70
   160
  1
<>
 71
     2
 42
-1.0
  3
SLDDIMSTYLE0
100
AcDbAlignedDimension
 13
136.0823519495
 23
152.8337155963
 33
0.0
 14
238.0823519495
 24
133.3587155963
 34
0.0
100
AcDbRotatedDimension
  0
DIMENSION
  5
118
330
1F
100
AcDbEntity
  8
VERMASSUNG
100
AcDbDimension
  2
_D_3
 10
238.0823519495
 20
179.4183647864
 30
0.0
 11
158.1073519495
 21
179.4183647864
 31
0.0
 70
   160
  1
<>
 71
     2
 42
-1.0
  3
SLDDIMSTYLE0
100
AcDbAlignedDimension
 13
78.1323519495
 23
142.6209413331
 33
0.0
 14
238.0823519495
 24
133.3587155963
 34
0.0
100
AcDbRotatedDimension
  0
DIMENSION
  5
122
330
1F
100
AcDbEntity
  8
VERMASSUNG
100
AcDbDimension
  2
_D_4
 10
64.4772646523
 20
153.8337155963
 30
0.0
 11
64.4772646523
 21
122.3587155963
 31
0.0
 70
   160
  1
KM%%c<> XMZ
 71
     2
 42
-1.0
  3
SLDDIMSTYLE1
100
AcDbAlignedDimension
 13
118.2823519495
 23
90.8837155963
 33
0.0
 14
118.2823519495
 24
153.8337155963
 34
0.0
 50
90.0
100
AcDbRotatedDimension
  0
LINE
  5
130
330
1F
100
AcDbEntity
  8
VERMASSUNG
  6
CENTERX2
370
    18
100
AcDbLine
 10
76.1323519495
 20
122.3587155963
 30
0.0
 11
240.0823519495
 21
122.3587155963
 31
0.0
  0
LINE
  5
131
330
1F
100
AcDbEntity
  8
0
  6
Continuous
 62
     7
370
    25
100
AcDbLine
 10
248.0511763856
 20
33.4803504498
 30
0.0
 11
250.6689118783
 21
31.9691639164
 31
0.0
  0
LINE
  5
132
330
1F
100
AcDbEntity
  8
0
  6
Continuous
 62
     7
370
    25
100
AcDbLine
 10
259.1682209828
 20
46.6919945227
 30
0.0
 11
256.5504854902
 21
48.2031810561
 31
0.0
  0
LINE
  5
133
330
1F
100
AcDbEntity
  8
0
  6
Continuous
 62
     7
370
    25
100
AcDbLine
 10
252.2998540776
 20
47.7817983412
 30
0.0
 11
252.0170578155
 21
47.6184904542
 31
0.0
  0
LINE
  5
134
330
1F
100
AcDbEntity
  8
0
  6
Continuous
 62
     7
370
    25
100
AcDbLine
 10
246.2904236297
 20
37.6985941593
 30
0.0
 11
246.2904229712
 21
37.3720310891
 31
0.0
  0
LINE
  5
135
330
1F
100
AcDbEntity
  8
0
  6
Continuous
 62
     7
370
    25
100
AcDbLine
 10
252.5449135451
 20
47.9175427213
 30
0.0
 11
252.491084117
 21
47.9486177887
 31
0.0
  0
LINE
  5
136
330
1F
100
AcDbEntity
  8
0
  6
Continuous
 62
     7
370
    25
100
AcDbLine
 10
246.2415922252
 20
37.1230069481
 30
0.0
 11
246.2954216533
 21
37.0919318807
 31
0.0
  0
SPLINE
  5
137
330
1F
100
AcDbEntity
  8
0
  6
Continuous
 62
     7
370
    25
100
AcDbSpline
210
0.0
220
0.0
230
1.0
 70
     8
 71
     3
 72
    11
 73
     7
 74
     0
 42
0.000000001
 43
0.00000001
 40
0.0
 40
0.0
 40
0.0
 40
0.0
 40
0.2262197768194503
 40
0.5262470202762831
 40
0.8289044131952795
 40
1.0
 40
1.0
 40
1.0
 40
1.0
 10
244.624897726758
 20
35.48155864279659
 30
0.0
 10
244.7665523457508
 20
35.41559213039655
 30
0.0
 10
245.0960784473209
 20
35.26213657900044
 30
0.0
 10
245.6731997172979
 20
35.15434796340905
 30
0.0
 10
246.2317779808889
 20
35.12089147899453
 30
0.0
 10
246.5892059714548
 20
35.17580392921827
 30
0.0
 10
246.7182908625346
 20
35.19563552563248
 30
0.0
  0
SPLINE
  5
138
330
1F
100
AcDbEntity
  8
0
  6
Continuous
 62
     7
370
    25
100
AcDbSpline
210
0.0
220
0.0
230
1.0
 70
     8
 71
     3
 72
    12
 73
     8
 74
     0
 42
0.000000001
 43
0.00000001
 40
0.0
 40
0.0
 40
0.0
 40
0.0
 40
0.1647234236549942
 40
0.4319891996888874
 40
0.6948841254538922
 40
0.9533244832476099
 40
1.0
 40
1.0
 40
1.0
 40
1.0
 10
254.3983129765197
 20
48.49909567088759
 30
0.0
 10
254.3438716258632
 20
48.63600537749999
 30
0.0
 10
254.2010985157722
 20
48.99505276297083
 30
0.0
 10
253.8722286764807
 20
49.48623165192449
 30
0.0
 10
253.4242530184858
 20
49.9546080194291
 30
0.0
 10
253.0583438530613
 20
50.24347669124032
 30
0.0
 10
252.8312572582126
 20
50.34200012472582
 30
0.0
 10
252.7965183768684
 20
50.35707188124126
 30
0.0
  0
LINE
  5
139
330
1F
100
AcDbEntity
  8
0
  6
Continuous
 62
     7
370
    25
100
AcDbLine
 10
252.9088845092
 20
50.3054325547
 30
0.0
 11
228.5137011694
 21
64.3884721308
 31
0.0
  0
LINE
  5
13A
330
1F
100
AcDbEntity
  8
0
  6
Continuous
 62
     7
370
    25
100
AcDbLine
 10
220.0143920648
 20
49.6656415246
 30
0.0
 11
244.4095754046
 21
35.5826019484
 31
0.0
  0
SPLINE
  5
13B
330
1F
100
AcDbEntity
  8
0
  6
Continuous
 62
     7
370
    25
100
AcDbSpline
210
0.0
220
0.0
230
1.0
 70
     8
 71
     3
 72
    16
 73
    12
 74
     0
 42
0.000000001
 43
0.00000001
 40
0.0
 40
0.0
 40
0.0
 40
0.0
 40
0.0665010386400771
 40
0.1846105865290308
 40
0.3035309772765251
 40
0.4231356439724995
 40
0.5432253107618408
 40
0.6636021962334271
 40
0.7841102862230311
 40
0.9046321580414984
 40
1.0
 40
1.0
 40
1.0
 40
1.0
 10
217.0179292719747
 20
43.68284921354365
 30
0.0
 10
217.1806064124192
 20
43.66510490119485
 30
0.0
 10
217.6322072133462
 20
43.61584570198148
 30
0.0
 10
218.4131961221115
 20
43.65893977993376
 30
0.0
 10
219.3507046409299
 20
43.80140887995479
 30
0.0
 10
220.3151130427131
 20
44.06034910955043
 30
0.0
 10
221.2963061301635
 20
44.42750959500298
 30
0.0
 10
222.2869546916006
 20
44.90080714232084
 30
0.0
 10
223.2780079094028
 20
45.47907417439352
 30
0.0
 10
224.1958780356136
 20
46.09849870401182
 30
0.0
 10
224.7729102630746
 20
46.56526539796585
 30
0.0
 10
225.0278104031078
 20
46.77145647359296
 30
0.0
  0
SPLINE
  5
13C
330
1F
100
AcDbEntity
  8
0
  6
Continuous
 62
     7
370
    25
100
AcDbSpline
210
0.0
220
0.0
230
1.0
 70
     8
 71
     3
 72
    17
 73
    13
 74
     0
 42
0.000000001
 43
0.00000001
 40
0.0
 40
0.0
 40
0.0
 40
0.0
 40
0.0239760838432872
 40
0.1357154252318433
 40
0.2475528088794611
 40
0.3594800089889169
 40
0.4714681245193045
 40
0.5834302677676062
 40
0.6952393752989594
 40
0.8067179205821546
 40
0.9176527418524819
 40
1.0
 40
1.0
 40
1.0
 40
1.0
 10
233.5269960305726
 20
61.4943589565533
 30
0.0
 10
233.5436907633638
 20
61.58299283861864
 30
0.0
 10
233.6381904645947
 20
62.08470050168282
 30
0.0
 10
233.7266260940435
 20
62.9738799359228
 30
0.0
 10
233.7862253264006
 20
64.14940822674664
 30
0.0
 10
233.7502062876168
 20
65.2774825109269
 30
0.0
 10
233.6273961565993
 20
66.35209743648406
 30
0.0
 10
233.4152722273423
 20
67.36356006241256
 30
0.0
 10
233.116433147027
 20
68.30458225205192
 30
0.0
 10
232.7293893952038
 20
69.16269935294322
 30
0.0
 10
232.3084226797042
 20
69.87963098942588
 30
0.0
 10
231.9817519411072
 20
70.26597103951222
 30
0.0
 10
231.8425748393215
 20
70.43057007493759
 30
0.0
  0
SPLINE
  5
13D
330
1F
100
AcDbEntity
  8
0
  6
Continuous
 62
     7
370
    25
100
AcDbSpline
210
0.0
220
0.0
230
1.0
 70
     8
 71
     3
 72
     9
 73
     5
 74
     0
 42
0.000000001
 43
0.00000001
 40
0.0
 40
0.0
 40
0.0
 40
0.0
 40
0.3662526493452264
 40
0.9999999999999999
 40
0.9999999999999999
 40
0.9999999999999999
 40
0.9999999999999999
 10
216.4357890978081
 20
43.76306951965203
 30
0.0
 10
216.5041053125589
 20
43.74569822140656
 30
0.0
 10
216.6906328772687
 20
43.69826839864207
 30
0.0
 10
216.8909676441926
 20
43.68883047356006
 30
0.0
 10
217.0179292719747
 20
43.68284921354365
 30
0.0
  0
LINE
  5
13E
330
1F
100
AcDbEntity
  8
0
  6
Continuous
 62
     7
370
    25
100
AcDbLine
 10
213.2967570166
 20
45.1867305523
 30
0.0
 11
214.6281693756
 21
44.4181225577
 31
0.0
  0
LINE
  5
13F
330
1F
100
AcDbEntity
  8
0
  6
Continuous
 62
     7
370
    25
100
AcDbLine
 10
230.3643906902
 20
71.6770109515
 30
0.0
 11
229.0329783312
 21
72.4456189461
 31
0.0
  0
LINE
  5
140
330
1F
100
AcDbEntity
  8
0
  6
Continuous
 62
     7
370
    25
100
AcDbLine
 10
208.6884720852
 20
47.8470368169
 30
0.0
 11
210.9391230617
 21
46.5477636641
 31
0.0
  0
LINE
  5
141
330
1F
100
AcDbEntity
  8
0
  6
Continuous
 62
     7
370
    25
100
AcDbLine
 10
226.6753443762
 20
73.8066520579
 30
0.0
 11
224.4246933998
 21
75.1059252107
 31
0.0
  0
LINE
  5
142
330
1F
100
AcDbEntity
  8
0
  6
Continuous
 62
     7
370
    25
100
AcDbLine
 10
217.6473042095
 20
74.8858071184
 30
0.0
 11
208.4500920259
 21
79.4664597282
 31
0.0
  0
LINE
  5
143
330
1F
100
AcDbEntity
  8
0
  6
Continuous
 62
     7
370
    25
100
AcDbLine
 10
196.9237442363
 20
59.5000762726
 30
0.0
 11
205.4898442419
 21
53.8261866762
 31
0.0
  0
LINE
  5
144
330
1F
100
AcDbEntity
  8
0
  6
Continuous
 62
     7
370
    25
100
AcDbLine
 10
201.903181678
 20
60.4465661382
 30
0.0
 11
201.903181678
 21
60.0812474332
 31
0.0
  0
LINE
  5
145
330
1F
100
AcDbEntity
  8
0
  6
Continuous
 62
     7
370
    25
100
AcDbLine
 10
205.8011484383
 20
79.8434281049
 30
0.0
 11
205.1615983296
 21
79.7562163495
 31
0.0
  0
LWPOLYLINE
  5
146
330
1F
100
AcDbEntity
  8
0
  6
Continuous
 62
     7
370
    25
100
AcDbPolyline
 90
       20
 70
   128
 43
0.0
 10
246.2926020949
 20
37.5601655065
 10
246.3626244739
 20
38.4862764057
 10
246.5301516113
 20
39.4510641387
 10
246.792433096
 20
40.4386869057
 10
247.1451623761
 20
41.4329284296
 10
247.5825475527
 20
42.4174630663
 10
248.0974068686
 20
43.3761249992
 10
248.6812862588
 20
44.293172489
 10
249.3245986323
 20
45.1535481295
 10
250.0167804413
 20
45.9431243669
 10
250.7464663601
 20
46.6489366604
 10
251.5016749121
 20
47.2593952065
 10
252.2700055602
 20
47.7644759034
 10
253.0388424232
 20
48.1558866234
 10
253.7955611824
 20
48.4271995862
 10
254.5277363994
 20
48.573959633
 10
255.2233460972
 20
48.5937578426
 10
255.870967986
 20
48.4862680026
 10
256.4599682183
 20
48.2532559548
 10
256.5504854902
 20
48.2031810561
  0
LWPOLYLINE
  5
147
330
1F
100
AcDbEntity
  8
0
  6
Continuous
 62
     7
370
    25
100
AcDbPolyline
 90
        8
 70
   128
 43
0.0
 10
248.0511763856
 20
33.4803504498
 10
247.8722409524
 20
33.5927360884
 10
247.3889618091
 20
34.006230471
 10
246.9863355994
 20
34.53196408
 10
246.6709734518
 20
35.1613042806
 10
246.4480528431
 20
35.8839175125
 10
246.3212356102
 20
36.6879389751
 10
246.2926020949
 20
37.5601655065
  0
LINE
  5
148
330
1F
100
AcDbEntity
  8
0
  6
Continuous
 62
     7
370
    25
100
AcDbLine
 10
258.3469386024
 20
46.8146287886
 30
0.0
 11
261.3140662008
 21
45.1017424858
 31
0.0
  0
ELLIPSE
  5
149
330
1F
100
AcDbEntity
  8
0
  6
Continuous
 62
     7
370
    25
100
AcDbEllipse
 10
260.6800458903
 20
36.0045479239
 30
0.0
 11
-5.890208131055488
 21
10.47816864633272
 31
0.0
210
0.0
220
0.0
230
1.0
 40
0.5695098777
 41
5.786275323136153
 42
6.766189975643581
  0
LINE
  5
14A
330
1F
100
AcDbEntity
  8
0
  6
Continuous
 62
     7
370
    25
100
AcDbLine
 10
255.6592627195
 20
42.0131775816
 30
0.0
 11
252.6921351211
 21
43.7260638843
 31
0.0
  0
ARC
  5
14B
330
1F
100
AcDbEntity
  8
0
  6
Continuous
 62
     7
370
    25
100
AcDbCircle
 10
265.8931319798
 20
33.1457463346
 30
0.0
 40
13.54117487355737
100
AcDbArc
 50
139.0917627172
 51
141.4450059264
  0
LINE
  5
14C
330
1F
100
AcDbEntity
  8
0
  6
Continuous
 62
     7
370
    25
100
AcDbLine
 10
252.3366662958
 20
43.2983800191
 30
0.0
 11
255.3037938943
 21
41.5854937163
 31
0.0
  0
ELLIPSE
  5
14D
330
1F
100
AcDbEntity
  8
0
  6
Continuous
 62
     7
370
    25
100
AcDbEllipse
 10
260.6800458903
 20
36.0045479239
 30
0.0
 11
11.25367793184302
 21
-3.819129152097788
 31
0.0
210
0.0
220
0.0
230
1.0
 40
0.7015994118
 41
2.610119273709324
 42
3.590033926216801
  0
LINE
  5
14E
330
1F
100
AcDbEntity
  8
0
  6
Continuous
 62
     7
370
    25
100
AcDbLine
 10
252.3444865119
 20
34.3099541393
 30
0.0
 11
249.3773589134
 21
36.0228404421
 31
0.0
  0
ARC
  5
14F
330
1F
100
AcDbEntity
  8
0
  6
Continuous
 62
     7
370
    25
100
AcDbCircle
 10
260.6726747387
 20
33.8816492405
 30
0.0
 40
8.339194459149068
100
AcDbArc
 50
177.0559668538
 51
180.3071598571
  0
LINE
  5
150
330
1F
100
AcDbEntity
  8
0
  6
Continuous
 62
     7
370
    25
100
AcDbLine
 10
249.3664725142
 20
35.5498297459
 30
0.0
 11
252.3336001126
 21
33.8369434431
 31
0.0
  0
ELLIPSE
  5
151
330
1F
100
AcDbEntity
  8
0
  6
Continuous
 62
     7
370
    25
100
AcDbEllipse
 10
260.6800458903
 20
36.0045479239
 30
0.0
 11
11.61934617901727
 21
2.077156773792112
 31
0.0
210
0.0
220
0.0
230
1.0
 40
0.4200064198
 41
2.82502781682565
 42
3.804942469333131
  0
LINE
  5
152
330
1F
100
AcDbEntity
  8
0
  6
Continuous
 62
     7
370
    25
100
AcDbLine
 10
255.0290962115
 20
29.6499686724
 30
0.0
 11
252.061968613
 21
31.3628549752
 31
0.0
  0
ARC
  5
153
330
1F
100
AcDbEntity
  8
0
  6
Continuous
 62
     7
370
    25
100
AcDbCircle
 10
255.6321370647
 20
32.9019384784
 30
0.0
 40
3.307410753128318
100
AcDbArc
 50
259.4944833128
 51
265.5180376409
  0
ARC
  5
154
330
1F
100
AcDbEntity
  8
0
  6
Continuous
 62
     7
370
    25
100
AcDbCircle
 10
250.7946128585
 20
41.5606379897
 30
0.0
 40
13.54117487359689
100
AcDbArc
 50
319.0917627172
 51
321.4450059264
  0
ARC
  5
155
330
1F
100
AcDbEntity
  8
0
  6
Continuous
 62
     7
370
    25
100
AcDbCircle
 10
256.0150700996
 20
40.8247350838
 30
0.0
 40
8.339194459163254
100
AcDbArc
 50
357.0559668538
 51
0.3071598571
  0
ELLIPSE
  5
156
330
1F
100
AcDbEntity
  8
0
  6
Continuous
 62
     7
370
    25
100
AcDbEllipse
 10
260.6800458903
 20
36.0045479239
 30
0.0
 11
-1.927112369003055
 21
10.7800171965035
 31
0.0
210
0.0
220
0.0
230
1.0
 40
0.207757026
 41
5.908644521782379
 42
6.310941113597712
  0
LINE
  5
157
330
1F
100
AcDbEntity
  8
0
  6
Continuous
 62
     7
370
    25
100
AcDbLine
 10
261.6586486268
 20
45.0564156519
 30
0.0
 11
258.6915210284
 21
46.7693019547
 31
0.0
  0
ARC
  5
158
330
1F
100
AcDbEntity
  8
0
  6
Continuous
 62
     7
370
    25
100
AcDbCircle
 10
261.0556077736
 20
41.8044458459
 30
0.0
 40
3.307410753134898
100
AcDbArc
 50
79.4944833128
 51
85.5180376409
  0
LWPOLYLINE
  5
159
330
1F
100
AcDbEntity
  8
0
  6
Continuous
 62
     7
370
    25
100
AcDbPolyline
 90
       41
 70
   128
 43
0.0
 10
255.0246006574
 20
34.9016702989
 10
255.0888452962
 20
35.6395576926
 10
255.2472354578
 20
36.4115606701
 10
255.4958712417
 20
37.1986700448
 10
255.8286304888
 20
37.9815047588
 10
256.2373190946
 20
38.7407881319
 10
256.7118741696
 20
39.457825128
 10
257.2406105
 20
40.1149588954
 10
257.8105087434
 20
40.6960091934
 10
258.4075362217
 20
41.1866686118
 10
259.0169921429
 20
41.5748550954
 10
259.6238696566
 20
41.8510106892
 10
260.2132254206
 20
42.0083354174
 10
260.7705475218
 20
42.0429551919
 10
261.2821129628
 20
41.9540175382
 10
261.7353249395
 20
41.743712726
 10
262.11902458
 20
41.4172191286
 10
262.4237630876
 20
40.9825757255
 10
262.6420373355
 20
40.45048531
 10
262.7684726127
 20
39.834049546
 10
262.7999553207
 20
39.1484469234
 10
262.735710682
 20
38.4105595297
 10
262.5773205204
 20
37.6385565523
 10
262.3286847365
 20
36.8514471775
 10
261.9959254893
 20
36.0686124635
 10
261.5872368836
 20
35.3093290904
 10
261.1126818086
 20
34.5922920943
 10
260.5839454781
 20
33.935158327
 10
260.0140472348
 20
33.3541080289
 10
259.4170197565
 20
32.8634486105
 10
258.8075638353
 20
32.4752621269
 10
258.2006863216
 20
32.1991065331
 10
257.6113305575
 20
32.041781805
 10
257.0540084563
 20
32.0071620305
 10
256.5424430154
 20
32.0960996841
 10
256.0892310386
 20
32.3064044963
 10
255.7055313981
 20
32.6328980937
 10
255.4007928905
 20
33.0675414968
 10
255.1825186426
 20
33.5996319124
 10
255.0560833654
 20
34.2160676763
 10
255.0246006574
 20
34.9016702989
  0
SPLINE
  5
15A
330
1F
100
AcDbEntity
  8
0
  6
Continuous
 62
     7
370
    25
100
AcDbSpline
210
0.0
220
0.0
230
1.0
 70
     8
 71
     3
 72
    11
 73
     7
 74
     0
 42
0.000000001
 43
0.00000001
 40
0.0
 40
0.0
 40
0.0
 40
0.0
 40
0.2479272973451086
 40
0.4957911036841377
 40
0.74786200064919
 40
1.0
 40
1.0
 40
1.0
 40
1.0
 10
261.3839509440364
 20
33.12089060803451
 30
0.0
 10
261.6797590707372
 20
33.69022409266408
 30
0.0
 10
262.2712995714654
 20
34.82874526290826
 30
0.0
 10
263.0608643303275
 20
36.61944265140882
 30
0.0
 10
263.7578133074564
 20
38.4765019223482
 30
0.0
 10
264.1480926734142
 20
39.75639731937162
 30
0.0
 10
264.343258326459
 20
40.39643018499888
 30
0.0
  0
SPLINE
  5
15B
330
1F
100
AcDbEntity
  8
0
  6
Continuous
 62
     7
370
    25
100
AcDbSpline
210
0.0
220
0.0
230
1.0
 70
     8
 71
     3
 72
    10
 73
     6
 74
     0
 42
0.000000001
 43
0.00000001
 40
0.0
 40
0.0
 40
0.0
 40
0.0
 40
0.4475998104152466
 40
0.9013910211137915
 40
1.0
 40
1.0
 40
1.0
 40
1.0
 10
255.3736786374813
 20
29.6046418385225
 30
0.0
 10
256.3005667306436
 20
30.01610097180237
 30
0.0
 10
258.1671640466224
 20
30.84471072467435
 30
0.0
 10
259.9537122596442
 20
31.94175235554366
 30
0.0
 10
260.8656857044214
 20
32.57938323089844
 30
0.0
 10
261.0284821187898
 20
32.69320674274827
 30
0.0
  0
SPLINE
  5
15C
330
1F
100
AcDbEntity
  8
0
  6
Continuous
 62
     7
370
    25
100
AcDbSpline
210
0.0
220
0.0
230
1.0
 70
     8
 71
     3
 72
    11
 73
     7
 74
     0
 42
0.000000001
 43
0.00000001
 40
0.0
 40
0.0
 40
0.0
 40
0.0
 40
0.2479273125029124
 40
0.4957911265968894
 40
0.7478620098104833
 40
1.0
 40
1.0
 40
1.0
 40
1.0
 10
252.3336001126102
 20
33.83694344314189
 30
0.0
 10
252.6076753239245
 20
33.46198820500922
 30
0.0
 10
253.1557555512218
 20
32.71217376116891
 30
0.0
 10
253.8793519818833
 20
31.6365723433318
 30
0.0
 10
254.509954112008
 20
30.61087825855968
 30
0.0
 10
254.8560334913496
 20
29.97030028671337
 30
0.0
 10
255.0290962114962
 20
29.64996867237489
 30
0.0
  0
SPLINE
  5
15D
330
1F
100
AcDbEntity
  8
0
  6
Continuous
 62
     7
370
    25
100
AcDbSpline
210
0.0
220
0.0
230
1.0
 70
     8
 71
     3
 72
    11
 73
     7
 74
     0
 42
0.000000001
 43
0.00000001
 40
0.0
 40
0.0
 40
0.0
 40
0.0
 40
0.2479272973451086
 40
0.4957911036841377
 40
0.74786200064919
 40
1.0
 40
1.0
 40
1.0
 40
1.0
 10
255.3037938942942
 20
41.58549371627433
 30
0.0
 10
255.1120231177572
 20
40.95610074779725
 30
0.0
 10
254.7285306747235
 20
39.6974759903228
 30
0.0
 10
254.0380950541566
 20
37.84955256837478
 30
0.0
 10
253.2465486848258
 20
36.04710320954887
 30
0.0
 10
252.6452005795591
 20
34.8890552021339
 30
0.0
 10
252.3444865118717
 20
34.30995413930997
 30
0.0
  0
SPLINE
  5
15E
330
1F
100
AcDbEntity
  8
0
  6
Continuous
 62
     7
370
    25
100
AcDbSpline
210
0.0
220
0.0
230
1.0
 70
     8
 71
     3
 72
    12
 73
     8
 74
     0
 42
0.000000001
 43
0.00000001
 40
0.0
 40
0.0
 40
0.0
 40
0.0
 40
0.03690427359065
 40
0.2757880070427022
 40
0.5146199374544667
 40
0.7572803697261361
 40
1.0
 40
1.0
 40
1.0
 40
1.0
 10
261.3140662008493
 20
45.10174248578633
 30
0.0
 10
261.2534165255836
 20
45.05898333493375
 30
0.0
 10
260.8001776065671
 20
44.73944145403193
 30
0.0
 10
259.9208514437142
 20
44.15824583353017
 30
0.0
 10
258.6015891043292
 20
43.38989371874919
 30
0.0
 10
257.1802835362203
 20
42.67201633850804
 30
0.0
 10
256.1663108805333
 20
42.2328083561282
 30
0.0
 10
255.6592627195409
 20
42.01317758156057
 30
0.0
  0
SPLINE
  5
15F
330
1F
100
AcDbEntity
  8
0
  6
Continuous
 62
     7
370
    25
100
AcDbSpline
210
0.0
220
0.0
230
1.0
 70
     8
 71
     3
 72
    11
 73
     7
 74
     0
 42
0.000000001
 43
0.00000001
 40
0.0
 40
0.0
 40
0.0
 40
0.0
 40
0.2479273125029124
 40
0.4957911265968894
 40
0.7478620098104833
 40
1.0
 40
1.0
 40
1.0
 40
1.0
 10
264.3541447257204
 20
40.86944088116694
 30
0.0
 10
264.1841068640921
 20
41.18433663572789
 30
0.0
 10
263.8440746904291
 20
41.81404749468184
 30
0.0
 10
263.219607403625
 20
42.83242287586049
 30
0.0
 10
262.4944078785002
 20
43.91272687436152
 30
0.0
 10
261.9372597616733
 20
44.67515223476358
 30
0.0
 10
261.6586486268345
 20
45.05641565193395
 30
0.0
  0
LINE
  5
160
330
1F
100
AcDbEntity
  8
0
  6
Continuous
 62
     7
370
    25
100
AcDbLine
 10
252.3366662958
 20
43.2983800191
 30
0.0
 11
249.3773589134
 21
36.0228404421
 31
0.0
  0
LWPOLYLINE
  5
161
330
1F
100
AcDbEntity
  8
0
  6
Continuous
 62
     7
370
    25
100
AcDbPolyline
 90
       37
 70
   128
 43
0.0
 10
255.7491224347
 20
35.2973927242
 10
255.8119726055
 20
35.9664645478
 10
255.9690239461
 20
36.6677012555
 10
256.2155044785
 20
37.3797960163
 10
256.5439252344
 20
38.0811121771
 10
256.9443071244
 20
38.7503408881
 10
257.4044848557
 20
39.3671477528
 10
257.910476129
 20
39.9127912868
 10
258.4469066465
 20
40.3706924179
 10
258.9974772362
 20
40.726938373
 10
259.5454590669
 20
40.9707044929
 10
260.0742020652
 20
41.0945842371
 10
260.5676405746
 20
41.0948136041
 10
261.0107815949
 20
40.9713853027
 10
261.3901608541
 20
40.7280500587
 10
261.69425086
 20
40.3722012233
 10
261.9138119039
 20
39.9146510695
 10
262.0421727652
 20
39.3693020553
 10
262.0754335434
 20
38.7527244981
 10
262.0125833726
 20
38.0836526746
 10
261.855532032
 20
37.3824159668
 10
261.6090514997
 20
36.6703212061
 10
261.2806307437
 20
35.9690050453
 10
260.8802488538
 20
35.2997763342
 10
260.4200711225
 20
34.6829694696
 10
259.9140798492
 20
34.1373259355
 10
259.3776493316
 20
33.6794248045
 10
258.8270787419
 20
33.3231788494
 10
258.2790969112
 20
33.0794127295
 10
257.750353913
 20
32.9555329852
 10
257.2569154035
 20
32.9553036183
 10
256.8137743833
 20
33.0787319197
 10
256.434395124
 20
33.3220671637
 10
256.1303051181
 20
33.677915999
 10
255.9107440743
 20
34.1354661528
 10
255.7823832129
 20
34.6808151671
 10
255.7491224347
 20
35.2973927242
  0
LINE
  5
162
330
1F
100
AcDbEntity
  8
0
  6
Continuous
 62
     7
370
    25
100
AcDbLine
 10
258.3469386024
 20
46.8146287886
 30
0.0
 11
252.6921351211
 21
43.7260638843
 31
0.0
  0
ARC
  5
163
330
1F
100
AcDbEntity
  8
0
  6
Continuous
 62
     7
370
    25
100
AcDbCircle
 10
251.5191969264
 20
41.2929932542
 30
0.0
 40
8.46606855445608
100
AcDbArc
 50
303.0015389511
 51
357.0038390669
  0
LWPOLYLINE
  5
164
330
1F
100
AcDbEntity
  8
0
  6
Continuous
 62
     7
370
    25
100
AcDbPolyline
 90
       17
 70
   128
 43
0.0
 10
260.2279043777
 20
40.8041951646
 10
260.395447814
 20
40.6067299117
 10
260.6140608831
 20
40.1897714548
 10
260.7425220078
 20
39.6836308997
 10
260.7764571356
 20
39.1055444887
 10
260.7147098622
 20
38.4751978511
 10
260.559383579
 20
37.8140570528
 10
260.3157672213
 20
37.144636159
 10
259.9921572976
 20
36.4897316426
 10
259.5995737271
 20
35.8716457057
 10
259.1513854571
 20
35.3114260412
 10
258.6628550799
 20
34.8281507556
 10
258.1506188907
 20
34.4382766891
 10
257.6321204578
 20
34.1550810516
 10
257.1250165941
 20
33.9882074698
 10
256.6465762712
 20
33.9433385694
 10
256.2975471057
 20
33.9958790487
  0
LWPOLYLINE
  5
165
330
1F
100
AcDbEntity
  8
0
  6
Continuous
 62
     7
370
    25
100
AcDbPolyline
 90
       27
 70
   128
 43
0.0
 10
258.7297800874
 20
40.567640552
 10
258.893332672
 20
40.6449922818
 10
259.4004365356
 20
40.8118658637
 10
259.8788768586
 20
40.856734764
 10
260.3123612291
 20
40.7780708286
 10
260.6861275489
 20
40.5785531275
 10
260.9874477166
 20
40.2649756424
 10
261.2060607856
 20
39.8480171855
 10
261.3345219104
 20
39.3418766304
 10
261.3684570381
 20
38.7637902194
 10
261.3067097648
 20
38.1334435819
 10
261.1513834815
 20
37.4723027836
 10
260.9077671238
 20
36.8028818897
 10
260.5841572002
 20
36.1479773733
 10
260.1915736296
 20
35.5298914364
 10
259.7433853597
 20
34.9696717719
 10
259.2548549824
 20
34.4863964863
 10
258.7426187933
 20
34.0965224198
 10
258.2241203603
 20
33.8133267823
 10
257.7170164967
 20
33.6464532005
 10
257.2385761737
 20
33.6015843001
 10
256.8050918032
 20
33.6802482355
 10
256.4313254834
 20
33.8797659366
 10
256.1300053157
 20
34.1933434218
 10
255.9113922467
 20
34.6103018786
 10
255.782931122
 20
35.1164424338
 10
255.7532146303
 20
35.4115190945
  0
LINE
  5
166
330
1F
100
AcDbEntity
  8
0
  6
Continuous
 62
     7
370
    25
100
AcDbLine
 10
249.3664725142
 20
35.5498297459
 30
0.0
 11
252.061968613
 21
31.3628549752
 31
0.0
  0
ARC
  5
167
330
1F
100
AcDbEntity
  8
0
  6
Continuous
 62
     7
370
    25
100
AcDbCircle
 10
258.6507427028
 20
37.1760398101
 30
0.0
 40
12.37136009649816
100
AcDbArc
 50
122.4262157923
 51
177.5791611771
  0
ARC
  5
168
330
1F
100
AcDbEntity
  8
0
  6
Continuous
 62
     7
370
    25
100
AcDbCircle
 10
251.4367590879
 20
41.3405838372
 30
0.0
 40
8.21598443454611
100
AcDbArc
 50
303.4345408006
 51
356.570835608
  0
ARC
  5
169
330
1F
100
AcDbEntity
  8
0
  6
Continuous
 62
     7
370
    25
100
AcDbCircle
 10
252.3012445087
 20
41.2080004084
 30
0.0
 40
7.273518872063292
100
AcDbArc
 50
301.3070187275
 51
357.1058259932
  0
LINE
  5
16A
330
1F
100
AcDbEntity
  8
0
  6
Continuous
 62
     7
370
    25
100
AcDbLine
 10
256.0807378724
 20
34.9935409229
 30
0.0
 11
255.834127392
 21
34.8588461319
 31
0.0
  0
ARC
  5
16B
330
1F
100
AcDbEntity
  8
0
  6
Continuous
 62
     7
370
    25
100
AcDbCircle
 10
251.9105121695
 20
41.4448198695
 30
0.0
 40
7.374638783013889
100
AcDbArc
 50
301.6501718388
 51
354.7936205264
  0
LINE
  5
16C
330
1F
100
AcDbEntity
  8
0
  6
Continuous
 62
     7
370
    25
100
AcDbLine
 10
255.7802176716
 20
35.1670275421
 30
0.0
 11
255.7761005749
 21
35.1647789307
 31
0.0
  0
ARC
  5
16D
330
1F
100
AcDbEntity
  8
0
  6
Continuous
 62
     7
370
    25
100
AcDbCircle
 10
249.5670431017
 20
42.4199478837
 30
0.0
 40
9.49716576014381
100
AcDbArc
 50
310.7665083669
 51
349.2388683387
  0
LINE
  5
16E
330
1F
100
AcDbEntity
  8
0
  6
Continuous
 62
     7
370
    25
100
AcDbLine
 10
252.491084117
 20
47.9486177887
 30
0.0
 11
252.4488819507
 21
47.9723314607
 31
0.0
  0
LINE
  5
16F
330
1F
100
AcDbEntity
  8
0
  6
Continuous
 62
     7
370
    25
100
AcDbLine
 10
244.4095754046
 20
35.5826019484
 30
0.0
 11
244.5977354
 21
35.4831971161
 31
0.0
  0
LWPOLYLINE
  5
170
330
1F
100
AcDbEntity
  8
0
  6
Continuous
 62
     7
370
    25
100
AcDbPolyline
 90
        3
 70
   128
 43
0.0
 10
252.9088845092
 20
50.3054325547
 10
252.8405657848
 20
50.3436244686
 10
252.8123583479
 20
50.3586808586
  0
ARC
  5
171
330
1F
100
AcDbEntity
  8
0
  6
Continuous
 62
     7
370
    25
100
AcDbCircle
 10
217.3224362342
 20
49.085220875
 30
0.0
 40
5.38666493991006
100
AcDbArc
 50
220.6505974364
 51
259.3680023668
  0
ARC
  5
172
330
1F
100
AcDbEntity
  8
0
  6
Continuous
 62
     7
370
    25
100
AcDbCircle
 10
227.6722533482
 20
67.013332023
 30
0.0
 40
5.382877532673069
100
AcDbArc
 50
40.492819469
 51
79.2929753141
  0
SPLINE
  5
173
330
1F
100
AcDbEntity
  8
0
  6
Continuous
 62
     7
370
    25
100
AcDbSpline
210
0.0
220
0.0
230
1.0
 70
     8
 71
     3
 72
    25
 73
    21
 74
     0
 42
0.000000001
 43
0.00000001
 40
0.0
 40
0.0
 40
0.0
 40
0.0
 40
0.1250000000000009
 40
0.1250000000000009
 40
0.2500000000000018
 40
0.2500000000000018
 40
0.3750000000000027
 40
0.3750000000000027
 40
0.5000000000000036
 40
0.5000000000000036
 40
0.5625000000000031
 40
0.5625000000000031
 40
0.6250000000000027
 40
0.6875000000000022
 40
0.6875000000000022
 40
0.7500000000000018
 40
0.7500000000000018
 40
0.8750000000000009
 40
0.8750000000000009
 40
1.0
 40
1.0
 40
1.0
 40
1.0
 10
216.5553289730073
 20
67.85116818086581
 30
0.0
 10
216.5844522712684
 20
67.73998266033664
 30
0.0
 10
216.5968413121277
 20
67.62474044790861
 30
0.0
 10
216.5898638270273
 20
67.3856448800728
 30
0.0
 10
216.5698462391753
 20
67.26087091019754
 30
0.0
 10
216.4996240814621
 20
67.01450200098512
 30
0.0
 10
216.4489734268684
 20
66.890290853624
 30
0.0
 10
216.3190586832132
 20
66.64666235831385
 30
0.0
 10
216.241357735224
 20
66.52960526325568
 30
0.0
 10
216.1059841529978
 20
66.36094874540564
 30
0.0
 10
216.0573496556907
 20
66.30558172413348
 30
0.0
 10
215.9559103203087
 20
66.19986191273647
 30
0.0
 10
215.8500403375679
 20
66.09870095411601
 30
0.0
 10
215.7354485452405
 20
66.00652663243922
 30
0.0
 10
215.6163658760223
 20
65.9189897896991
 30
0.0
 10
215.5544078629648
 20
65.87749132018692
 30
0.0
 10
215.3665441594443
 20
65.7633709984488
 30
0.0
 10
215.2371667230903
 20
65.69976356733422
 30
0.0
 10
214.9694834700282
 20
65.59849526635998
 30
0.0
 10
214.8336117835632
 20
65.56195435813518
 30
0.0
 10
214.6980945168355
 20
65.54078617378511
 30
0.0
  0
LWPOLYLINE
  5
174
330
1F
100
AcDbEntity
  8
0
  6
Continuous
 62
     7
370
    25
100
AcDbPolyline
 90
       14
 70
   128
 43
0.0
 10
216.5553290847
 20
67.8511682134
 10
217.5573154196
 20
68.889895591
 10
218.5931782718
 20
69.8340263811
 10
219.6531906096
 20
70.6746950696
 10
220.7273981624
 20
71.4040068706
 10
221.8057137571
 20
72.0151119581
 10
222.8780116131
 20
72.5022743502
 10
223.9342221735
 20
72.8609175279
 10
224.9644271406
 20
73.0876739753
 10
225.9589528247
 20
73.1804147336
 10
226.9084597478
 20
73.1382691888
 10
227.8040315463
 20
72.9616315269
 10
228.6372582778
 20
72.6521624374
 10
229.0329783312
 20
72.4456189461
  0
LWPOLYLINE
  5
175
330
1F
100
AcDbEntity
  8
0
  6
Continuous
 62
     7
370
    25
100
AcDbPolyline
 90
       20
 70
   128
 43
0.0
 10
213.2967570166
 20
45.1867305523
 10
213.2553819823
 20
45.2108692454
 10
212.5403527948
 20
45.7167932122
 10
211.9050134196
 20
46.343754481
 10
211.3552328055
 20
47.0859577739
 10
210.8960916232
 20
47.9365462806
 10
210.5318322166
 20
48.8876605995
 10
210.2658197481
 20
49.9305125056
 10
210.1005125642
 20
51.055466323
 10
210.0374384883
 20
52.2521279136
 10
210.0771790152
 20
53.5094395814
 10
210.2193679941
 20
54.8157846603
 10
210.4626916287
 20
56.1590927195
 10
210.8049009896
 20
57.5269515996
 10
211.242835063
 20
58.906722894
 10
211.7724464345
 20
60.285657442
 10
212.3888421183
 20
61.6510141469
 10
213.0863270216
 20
62.9901774638
 10
213.8584559693
 20
64.2907741254
 10
214.69809429
 20
65.5407856854
  0
LWPOLYLINE
  5
176
330
1F
100
AcDbEntity
  8
0
  6
Continuous
 62
     7
370
    25
100
AcDbPolyline
 90
       38
 70
   128
 43
0.0
 10
212.0731222164
 20
46.0593602326
 10
211.269444377
 20
46.3724501551
 10
210.5326437081
 20
46.808019659
 10
209.8692575809
 20
47.3622045992
 10
209.2851714077
 20
48.0300876507
 10
208.7855685924
 20
48.8057439408
 10
208.3748804808
 20
49.6822912449
 10
208.056752117
 20
50.6519531076
 10
207.8340047055
 20
51.7061253871
 10
207.7086145385
 20
52.8354554401
 10
207.6816958732
 20
54.0299243961
 10
207.7534851271
 20
55.278933234
 10
207.9233474633
 20
56.5714015461
 10
208.1897748149
 20
57.8958618361
 10
208.5504036656
 20
59.2405625126
 10
209.0020334892
 20
60.5935733537
 10
209.5406583594
 20
61.9428900681
 10
210.1614992186
 20
63.2765411371
 10
210.8590480008
 20
64.582694655
 10
211.6271150459
 20
65.8497606075
 10
212.4588857354
 20
67.0664984717
 10
213.3469817367
 20
68.2221118876
 10
214.2835222477
 20
69.3063486538
 10
215.2601987415
 20
70.3095895043
 10
216.2683455956
 20
71.222932228
 10
217.2990181292
 20
72.0382739814
 10
218.3430720403
 20
72.7483807213
 10
219.3912441595
 20
73.3469528343
 10
220.4342347682
 20
73.8286779813
 10
221.4627900812
 20
74.1892840372
 10
222.4677846474
 20
74.4255699292
 10
223.4403014448
 20
74.5354404683
 10
224.3717122233
 20
74.5179207902
 10
225.2537535664
 20
74.3731652837
 10
226.0785990019
 20
74.1024596754
 10
226.8389314418
 20
73.7082042925
 10
227.528003439
 20
73.193898658
 10
227.7653823923
 20
72.9723497415
  0
LWPOLYLINE
  5
177
330
1F
100
AcDbEntity
  8
0
  6
Continuous
 62
     7
370
    25
100
AcDbPolyline
 90
       12
 70
   128
 43
0.0
 10
214.8927076923
 20
67.975444694
 10
215.8082867316
 20
68.9499265785
 10
216.7569994499
 20
69.8389017582
 10
217.7299024837
 20
70.6339913416
 10
218.7178245716
 20
71.3277000926
 10
219.7114527419
 20
71.9134889994
 10
220.7014204338
 20
72.3858345106
 10
221.6783952482
 20
72.7402852768
 10
222.6331677285
 20
72.9734997139
 10
223.5567375468
 20
73.0832790275
 10
224.4403982509
 20
73.0685887594
 10
224.6932582685
 20
73.040331327
  0
SPLINE
  5
178
330
1F
100
AcDbEntity
  8
0
  6
Continuous
 62
     7
370
    25
100
AcDbSpline
210
0.0
220
0.0
230
1.0
 70
     8
 71
     3
 72
    26
 73
    22
 74
     0
 42
0.000000001
 43
0.00000001
 40
0.0
 40
0.0
 40
0.0
 40
0.0
 40
0.1250000000000009
 40
0.1250000000000009
 40
0.2500000000000019
 40
0.2500000000000019
 40
0.3125000000000011
 40
0.3125000000000011
 40
0.3750000000000004
 40
0.3750000000000004
 40
0.4375000000000002
 40
0.4375000000000002
 40
0.5000000000000001
 40
0.5000000000000001
 40
0.5625
 40
0.5625
 40
0.6249999999999999
 40
0.6249999999999999
 40
0.7500000000000001
 40
0.7500000000000001
 40
1.0
 40
1.0
 40
1.0
 40
1.0
 10
213.5485144873798
 20
66.30328140774064
 30
0.0
 10
213.5248768911478
 20
66.41285726731364
 30
0.0
 10
213.507309112266
 20
66.52374652567816
 30
0.0
 10
213.4884965293965
 20
66.7490764855411
 30
0.0
 10
213.4873167546291
 20
66.86475339885948
 30
0.0
 10
213.5034147578645
 20
67.03610890871904
 30
0.0
 10
213.5117334749648
 20
67.09290742081319
 30
0.0
 10
213.5354906242217
 20
67.20573363321029
 30
0.0
 10
213.5511130032707
 20
67.26218648687644
 30
0.0
 10
213.5899702156677
 20
67.37076960328504
 30
0.0
 10
213.6131961723702
 20
67.42314956351059
 30
0.0
 10
213.6681948218486
 20
67.5236063387827
 30
0.0
 10
213.7002730888712
 20
67.57188520655413
 30
0.0
 10
213.7706878374063
 20
67.65958218213788
 30
0.0
 10
213.809266259533
 20
67.69957131011384
 30
0.0
 10
213.8929745231292
 20
67.77204999422943
 30
0.0
 10
213.938103233071
 20
67.80438661860605
 30
0.0
 10
214.0773838752611
 20
67.8875863859597
 30
0.0
 10
214.1781729468228
 20
67.92641510859579
 30
0.0
 10
214.4812452180555
 20
68.00183139605096
 30
0.0
 10
214.6897693085405
 20
68.00170124968021
 30
0.0
 10
214.8927077282309
 20
67.97544502035397
 30
0.0
  0
LWPOLYLINE
  5
179
330
1F
100
AcDbEntity
  8
0
  6
Continuous
 62
     7
370
    25
100
AcDbPolyline
 90
       17
 70
   128
 43
0.0
 10
210.6115358584
 20
48.6474301177
 10
210.5511117656
 20
48.7271619565
 10
210.064953795
 20
49.4970884181
 10
209.6728445411
 20
50.3724822578
 10
209.3787668813
 20
51.3444515797
 10
209.1857086318
 20
52.4031222532
 10
209.0956302799
 20
53.5377397232
 10
209.1094472022
 20
54.7367782332
 10
209.2270191288
 20
55.9880575573
 10
209.4471514601
 20
57.2788663852
 10
209.7676084373
 20
58.5960924551
 10
210.1851342164
 20
59.9263549675
 10
210.6954877708
 20
61.2561399442
 10
211.2934843797
 20
62.5719393892
 10
211.9730496284
 20
63.8603864557
 10
212.7272806533
 20
65.1083934646
 10
213.5485146308
 20
66.3032811767
  0
LINE
  5
17A
330
1F
100
AcDbEntity
  8
0
  6
Continuous
 62
     7
370
    25
100
AcDbLine
 10
212.0731222164
 20
46.0593602326
 30
0.0
 11
212.1947575273
 21
46.1168448391
 31
0.0
  0
LWPOLYLINE
  5
17B
330
1F
100
AcDbEntity
  8
0
  6
Continuous
 62
     7
370
    25
100
AcDbPolyline
 90
       16
 70
   128
 43
0.0
 10
205.8566753832
 20
58.8298904976
 10
205.8659885196
 20
58.8726926578
 10
206.2022782239
 20
60.2071658712
 10
206.6295623155
 20
61.5527937614
 10
207.1440851153
 20
62.8977507223
 10
207.7413250565
 20
64.2302176837
 10
208.4160341979
 20
65.5384851502
 10
209.1622823464
 20
66.811055099
 10
209.9735123742
 20
68.0367443981
 10
210.8425942199
 20
69.2047821397
 10
211.7618910722
 20
70.3049033618
 10
212.7233235777
 20
71.3274401072
 10
213.7184429398
 20
72.2634062083
 10
214.7385043457
 20
73.1045761784
 10
215.7745427824
 20
73.843557876
 10
216.4983994606
 20
74.2930271539
  0
LWPOLYLINE
  5
17C
330
1F
100
AcDbEntity
  8
0
  6
Continuous
 62
     7
370
    25
100
AcDbPolyline
 90
       24
 70
   128
 43
0.0
 10
205.4284896258
 20
55.1340104077
 10
205.477076381
 20
56.3577350335
 10
205.6224079343
 20
57.6268015464
 10
205.8632086849
 20
58.930058163
 10
206.1973614123
 20
60.2560516553
 10
206.6219303249
 20
61.5931291555
 10
207.1331834511
 20
62.9295403412
 10
207.7266288589
 20
64.2535406648
 10
208.3970502171
 20
65.5534940126
 10
209.1385568451
 20
66.817977644
 10
209.9446317865
 20
68.0358795263
 10
210.8081917365
 20
69.196495288
 10
211.7216469697
 20
70.2896259328
 10
212.6769704871
 20
71.3056649059
 10
213.665766834
 20
72.2356842101
 10
214.6793461864
 20
73.0715091145
 10
215.7088014006
 20
73.8057953339
 10
216.7450855566
 20
74.4320905241
 10
217.7790918072
 20
74.9448895031
 10
218.8017330613
 20
75.3396863354
 10
219.8040226559
 20
75.613011777
 10
220.7771518997
 20
75.7624628312
 10
221.7125695923
 20
75.7867281217
 10
222.4778203718
 20
75.7077428915
  0
LWPOLYLINE
  5
17D
330
1F
100
AcDbEntity
  8
0
  6
Continuous
 62
     7
370
    25
100
AcDbPolyline
 90
        3
 70
   128
 43
0.0
 10
205.5808814347
 20
53.1094062473
 10
205.477076381
 20
53.9663828555
 10
205.4476565637
 20
54.393586054
  0
SPLINE
  5
17E
330
1F
100
AcDbEntity
  8
0
  6
Continuous
 62
     7
370
    25
100
AcDbSpline
210
0.0
220
0.0
230
1.0
 70
     8
 71
     3
 72
    10
 73
     6
 74
     0
 42
0.000000001
 43
0.00000001
 40
0.0
 40
0.0
 40
0.0
 40
0.0
 40
0.5
 40
0.5
 40
1.0
 40
1.0
 40
1.0
 40
1.0
 10
214.2752025550111
 20
64.84022812692092
 30
0.0
 10
214.1712380642268
 20
64.9135664999913
 30
0.0
 10
214.0814297877994
 20
65.00080225778471
 30
0.0
 10
213.9293873598008
 20
65.2017327989807
 30
0.0
 10
213.8674817714398
 20
65.31590356517768
 30
0.0
 10
213.8230320668494
 20
65.43892124833778
 30
0.0
  0
SPLINE
  5
17F
330
1F
100
AcDbEntity
  8
0
  6
Continuous
 62
     7
370
    25
100
AcDbSpline
210
0.0
220
0.0
230
1.0
 70
     8
 71
     3
 72
    14
 73
    10
 74
     0
 42
0.000000001
 43
0.00000001
 40
0.0
 40
0.0
 40
0.0
 40
0.0
 40
0.25
 40
0.25
 40
0.5
 40
0.5
 40
0.75
 40
0.75
 40
1.0
 40
1.0
 40
1.0
 40
1.0
 10
213.8230320668494
 20
65.43892124833776
 30
0.0
 10
213.8003112639842
 20
65.5018026679953
 30
0.0
 10
213.7783967536348
 20
65.57084909746872
 30
0.0
 10
213.736285699572
 20
65.7185016140875
 30
0.0
 10
213.7167641456589
 20
65.7949014009458
 30
0.0
 10
213.6784179034852
 20
65.94923369234141
 30
0.0
 10
213.6600583106014
 20
66.02618628867306
 30
0.0
 10
213.6180548660197
 20
66.17157645618904
 30
0.0
 10
213.5942785450067
 20
66.23816736238207
 30
0.0
 10
213.5658170409045
 20
66.27866297761341
 30
0.0
  0
LINE
  5
180
330
1F
100
AcDbEntity
  8
0
  6
Continuous
 62
     7
370
    25
100
AcDbLine
 10
213.5658172292
 20
66.2786633694
 30
0.0
 11
213.5485146308
 21
66.3032811767
 31
0.0
  0
LINE
  5
181
330
1F
100
AcDbEntity
  8
0
  6
Continuous
 62
     7
370
    25
100
AcDbLine
 10
214.8927076923
 20
67.975444694
 30
0.0
 11
214.9100102907
 21
67.9508268866
 31
0.0
  0
SPLINE
  5
182
330
1F
100
AcDbEntity
  8
0
  6
Continuous
 62
     7
370
    25
100
AcDbSpline
210
0.0
220
0.0
230
1.0
 70
     8
 71
     3
 72
    16
 73
    12
 74
     0
 42
0.000000001
 43
0.00000001
 40
0.0
 40
0.0
 40
0.0
 40
0.0
 40
0.1250000000000001
 40
0.1250000000000001
 40
0.2500000000000003
 40
0.2500000000000003
 40
0.5000000000000002
 40
0.5000000000000002
 40
0.7500000000000001
 40
0.7500000000000001
 40
1.0
 40
1.0
 40
1.0
 40
1.0
 10
214.9100102817557
 20
67.9508265902267
 30
0.0
 10
214.9241626881598
 20
67.93069025441389
 30
0.0
 10
214.9458210926335
 20
67.91389283373647
 30
0.0
 10
214.9982390216688
 20
67.887047312405
 30
0.0
 10
215.0288319008071
 20
67.87682182784401
 30
0.0
 10
215.1279127496646
 20
67.85232138741132
 30
0.0
 10
215.2017952872805
 20
67.84406146500982
 30
0.0
 10
215.3548948796719
 20
67.8328754983049
 30
0.0
 10
215.4329788543195
 20
67.83027882655371
 30
0.0
 10
215.5923224880616
 20
67.82824982572001
 30
0.0
 10
215.6709753828931
 20
67.82888741438222
 30
0.0
 10
215.7467278506858
 20
67.83198051519727
 30
0.0
  0
SPLINE
  5
183
330
1F
100
AcDbEntity
  8
0
  6
Continuous
 62
     7
370
    25
100
AcDbSpline
210
0.0
220
0.0
230
1.0
 70
     8
 71
     3
 72
    10
 73
     6
 74
     0
 42
0.000000001
 43
0.00000001
 40
0.0
 40
0.0
 40
0.0
 40
0.0
 40
0.5
 40
0.5
 40
1.0
 40
1.0
 40
1.0
 40
1.0
 10
215.7467278506858
 20
67.83198051519727
 30
0.0
 10
215.8949221905865
 20
67.83803153963103
 30
0.0
 10
216.0371466563171
 20
67.8278693094179
 30
0.0
 10
216.3095380466579
 20
67.77681887347782
 30
0.0
 10
216.4396653765264
 20
67.73545777083326
 30
0.0
 10
216.5577407187118
 20
67.67968390288098
 30
0.0
  0
ARC
  5
184
330
1F
100
AcDbEntity
  8
0
  6
Continuous
 62
     7
370
    25
100
AcDbCircle
 10
199.2277806691
 20
62.9436142085
 30
0.0
 40
4.143252031906421
100
AcDbArc
 50
211.7444095219
 51
236.2139194594
  0
SPLINE
  5
185
330
1F
100
AcDbEntity
  8
0
  6
Continuous
 62
     7
370
    25
100
AcDbSpline
210
0.0
220
0.0
230
1.0
 70
     8
 71
     3
 72
     8
 73
     4
 74
     0
 42
0.000000001
 43
0.00000001
 40
0.0
 40
0.0
 40
0.0
 40
0.0
 40
1.0
 40
1.0
 40
1.0
 40
1.0
 10
197.134787049575
 20
59.83897948364233
 30
0.0
 10
196.6580137577508
 20
60.14707229157497
 30
0.0
 10
196.1812113809059
 20
60.45530173714772
 30
0.0
 10
195.7043789363803
 20
60.76366689336763
 30
0.0
  0
SPLINE
  5
186
330
1F
100
AcDbEntity
  8
0
  6
Continuous
 62
     7
370
    25
100
AcDbSpline
210
0.0
220
0.0
230
1.0
 70
     8
 71
     3
 72
    23
 73
    19
 74
     0
 42
0.000000001
 43
0.00000001
 40
0.0
 40
0.0
 40
0.0
 40
0.0
 40
0.0521036415667759
 40
0.103564624091304
 40
0.1544751946720037
 40
0.2049306267454063
 40
0.2550287880823876
 40
0.304869638912157
 40
0.3545546704592022
 40
0.4041862979509915
 40
0.4538672252117982
 40
0.5036997999420117
 40
0.5901870230735979
 40
0.6742716378214074
 40
0.7565997087205644
 40
0.8378563983705778
 40
0.9187511781357689
 40
1.0
 40
1.0
 40
1.0
 40
1.0
 10
198.0153518531166
 20
59.66424878552223
 30
0.0
 10
198.0100829141765
 20
59.65432732328754
 30
0.0
 10
197.9996100246763
 20
59.63460677255686
 30
0.0
 10
197.9803637289138
 20
59.61003894360493
 30
0.0
 10
197.9585679885812
 20
59.58935036134592
 30
0.0
 10
197.9339166973762
 20
59.57281942604908
 30
0.0
 10
197.9064201828373
 20
59.56030192647294
 30
0.0
 10
197.87600912883
 20
59.55176730265051
 30
0.0
 10
197.8426387570573
 20
59.54715743000229
 30
0.0
 10
197.8062628687853
 20
59.54642268686559
 30
0.0
 10
197.7668344971961
 20
59.54951776941661
 30
0.0
 10
197.7139861056466
 20
59.55805354489512
 30
0.0
 10
197.6454471118772
 20
59.57564998374146
 30
0.0
 10
197.5577258799237
 20
59.60728659182681
 30
0.0
 10
197.46299496043
 20
59.64946624915936
 30
0.0
 10
197.3609607130998
 20
59.70220268488658
 30
0.0
 10
197.2520467999098
 20
59.76451924079797
 30
0.0
 10
197.173930488923
 20
59.8141232990496
 30
0.0
 10
197.134787049575
 20
59.83897948364232
 30
0.0
  0
SPLINE
  5
187
330
1F
100
AcDbEntity
  8
0
  6
Continuous
 62
     7
370
    25
100
AcDbSpline
210
0.0
220
0.0
230
1.0
 70
     8
 71
     3
 72
     8
 73
     4
 74
     0
 42
0.000000001
 43
0.00000001
 40
0.0
 40
0.0
 40
0.0
 40
0.0
 40
1.0
 40
1.0
 40
1.0
 40
1.0
 10
199.4888548795748
 20
58.71692864896323
 30
0.0
 10
198.9974875675319
 20
59.03280326893165
 30
0.0
 10
198.5061013676042
 20
59.34878929022205
 30
0.0
 10
198.0146956574588
 20
59.66488617106567
 30
0.0
  0
SPLINE
  5
188
330
1F
100
AcDbEntity
  8
0
  6
Continuous
 62
     7
370
    25
100
AcDbSpline
210
0.0
220
0.0
230
1.0
 70
     8
 71
     3
 72
    18
 73
    14
 74
     0
 42
0.000000001
 43
0.00000001
 40
0.0
 40
0.0
 40
0.0
 40
0.0
 40
0.0923824559468141
 40
0.1844689291672693
 40
0.2764953616078188
 40
0.3686975365637228
 40
0.4613092840148142
 40
0.5545607518575648
 40
0.6486768051645809
 40
0.743875605021867
 40
0.8403674044326023
 40
0.9203921078138143
 40
1.0
 40
1.0
 40
1.0
 40
1.0
 10
200.30241899877
 20
58.07262092442168
 30
0.0
 10
200.2788514846456
 20
58.08789489868811
 30
0.0
 10
200.2317919639918
 20
58.11839391117028
 30
0.0
 10
200.1593941760258
 20
58.16802648378318
 30
0.0
 10
200.0859119671282
 20
58.22035602645302
 30
0.0
 10
200.0112125193822
 20
58.27567371216154
 30
0.0
 10
199.9353517296141
 20
58.3339120272751
 30
0.0
 10
199.8583404488284
 20
58.39510493891201
 30
0.0
 10
199.7802083167494
 20
58.45926865549224
 30
0.0
 10
199.7009820821087
 20
58.52641761535734
 30
0.0
 10
199.6256855977014
 20
58.59226852510217
 30
0.0
 10
199.5548582895816
 20
58.65580011190945
 30
0.0
 10
199.5109539187753
 20
58.69646085692246
 30
0.0
 10
199.4890590519705
 20
58.71673814549064
 30
0.0
  0
LINE
  5
189
330
1F
100
AcDbEntity
  8
0
  6
Continuous
 62
     7
370
    25
100
AcDbLine
 10
200.9421255306
 20
57.6608671179
 30
0.0
 11
200.3024186883
 21
58.0726207855
 31
0.0
  0
SPLINE
  5
18A
330
1F
100
AcDbEntity
  8
0
  6
Continuous
 62
     7
370
    25
100
AcDbSpline
210
0.0
220
0.0
230
1.0
 70
     8
 71
     3
 72
    25
 73
    21
 74
     0
 42
0.000000001
 43
0.00000001
 40
0.0
 40
0.0
 40
0.0
 40
0.0
 40
0.028010522542358
 40
0.0559601148855765
 40
0.0839014045036692
 40
0.1118870776779238
 40
0.1399695827581798
 40
0.1682008401733438
 40
0.196631967041917
 40
0.2253130233138459
 40
0.2542927850735499
 40
0.3799486436567298
 40
0.5057850221666594
 40
0.6313085886326596
 40
0.7532068238012457
 40
0.8039473267955902
 40
0.8535894438554431
 40
0.9025339722394061
 40
0.9511970353791082
 40
1.0
 40
1.0
 40
1.0
 40
1.0
 10
202.0444911237603
 20
58.37677310829876
 30
0.0
 10
202.0494392312908
 20
58.34914924719155
 30
0.0
 10
202.0593246829262
 20
58.29396161408673
 30
0.0
 10
202.0708603325293
 20
58.21480090671745
 30
0.0
 10
202.079933454342
 20
58.13849756761948
 30
0.0
 10
202.0863022630548
 20
58.06530180665006
 30
0.0
 10
202.090018501865
 20
57.99515433843666
 30
0.0
 10
202.0910551228478
 20
57.92807805192367
 30
0.0
 10
202.089406647621
 20
57.86407414269681
 30
0.0
 10
202.0850604957522
 20
57.80314528942938
 30
0.0
 10
202.0702041711855
 20
57.68125716793249
 30
0.0
 10
202.0251159141197
 20
57.52635629627768
 30
0.0
 10
201.9117563936283
 20
57.39541317793508
 30
0.0
 10
201.7499321716344
 20
57.33953677712308
 30
0.0
 10
201.5759169525018
 20
57.35941082950686
 30
0.0
 10
201.424556031815
 20
57.40672863186246
 30
0.0
 10
201.3141557991166
 20
57.45164405559783
 30
0.0
 10
201.1969963036679
 20
57.509019786889
 30
0.0
 10
201.073430636734
 20
57.57769685134183
 30
0.0
 10
200.985935586639
 20
57.63311709729501
 30
0.0
 10
200.9421252669573
 20
57.66086699502531
 30
0.0
  0
ARC
  5
18B
330
1F
100
AcDbEntity
  8
0
  6
Continuous
 62
     7
370
    25
100
AcDbCircle
 10
213.2375122882
 20
60.1628234769
 30
0.0
 40
11.33462419218321
100
AcDbArc
 50
170.9338462887
 51
189.0661537113
  0
SPLINE
  5
18C
330
1F
100
AcDbEntity
  8
0
  6
Continuous
 62
     7
370
    25
100
AcDbSpline
210
0.0
220
0.0
230
1.0
 70
     8
 71
     3
 72
    26
 73
    22
 74
     0
 42
0.000000001
 43
0.00000001
 40
0.0
 40
0.0
 40
0.0
 40
0.0
 40
0.0241259796962595
 40
0.0482159912271144
 40
0.0723203915121648
 40
0.096489567870804
 40
0.1207736231960649
 40
0.1452220711240086
 40
0.1698835501655288
 40
0.1948055644470517
 40
0.2200342569516512
 40
0.2456142191611229
 40
0.3690971486898461
 40
0.4940698769485154
 40
0.6192566784762414
 40
0.7454656653603214
 40
0.7971495824713699
 40
0.8481710308405389
 40
0.8988013269235238
 40
0.949317929049219
 40
1.0
 40
1.0
 40
1.0
 40
1.0
 10
200.9421252669573
 20
65.42497738638987
 30
0.0
 10
200.9638434963333
 20
65.41064586299484
 30
0.0
 10
201.0072475765092
 20
65.38200418232591
 30
0.0
 10
201.0705546938704
 20
65.33401188439723
 30
0.0
 10
201.1324162615882
 20
65.28241268651163
 30
0.0
 10
201.1927207767246
 20
65.22683789363847
 30
0.0
 10
201.2515106286644
 20
65.16738265301134
 30
0.0
 10
201.3087911470942
 20
65.10401834417391
 30
0.0
 10
201.3645822864205
 20
65.03674956620993
 30
0.0
 10
201.4189035338425
 20
64.96557545224971
 30
0.0
 10
201.4717825090517
 20
64.89048631250127
 30
0.0
 10
201.5885773337882
 20
64.71123186379987
 30
0.0
 10
201.7504468917148
 20
64.4009263919564
 30
0.0
 10
201.9136317992464
 20
63.9310126038246
 30
0.0
 10
202.0251432044201
 20
63.43204956991418
 30
0.0
 10
202.0722770425285
 20
63.02316589685717
 30
0.0
 10
202.0873959820611
 20
62.71889394026646
 30
0.0
 10
202.0893491210436
 20
62.51764469857114
 30
0.0
 10
202.0828710954045
 20
62.32198477884855
 30
0.0
 10
202.0687441727174
 20
62.13134849095109
 30
0.0
 10
202.0525842810324
 20
62.00976521721227
 30
0.0
 10
202.0444911237603
 20
61.94887418061339
 30
0.0
  0
LINE
  5
18D
330
1F
100
AcDbEntity
  8
0
  6
Continuous
 62
     7
370
    25
100
AcDbLine
 10
200.3024186883
 20
65.8379522367
 30
0.0
 11
200.9421255306
 21
65.4249772656
 31
0.0
  0
SPLINE
  5
18E
330
1F
100
AcDbEntity
  8
0
  6
Continuous
 62
     7
370
    25
100
AcDbSpline
210
0.0
220
0.0
230
1.0
 70
     8
 71
     3
 72
    14
 73
    10
 74
     0
 42
0.000000001
 43
0.00000001
 40
0.0
 40
0.0
 40
0.0
 40
0.0
 40
0.0789261963153939
 40
0.1582328720518368
 40
0.3308475394530129
 40
0.5000195457566009
 40
0.6670357883533988
 40
0.8332395193633474
 40
1.0
 40
1.0
 40
1.0
 40
1.0
 10
199.4884662829191
 20
66.04653466967407
 30
0.0
 10
199.5101831642544
 20
66.0481378335326
 30
0.0
 10
199.5537216174691
 20
66.0513518896198
 30
0.0
 10
199.6452467361169
 20
66.0521729296884
 30
0.0
 10
199.7621550695493
 20
66.04423694790609
 30
0.0
 10
199.9029754079308
 20
66.01796127902875
 30
0.0
 10
200.0401877157434
 20
65.97500368049646
 30
0.0
 10
200.174118390161
 20
65.91664655568621
 30
0.0
 10
200.2596044821212
 20
65.86421300953559
 30
0.0
 10
200.30241899877
 20
65.83795239938075
 30
0.0
  0
SPLINE
  5
18F
330
1F
100
AcDbEntity
  8
0
  6
Continuous
 62
     7
370
    25
100
AcDbSpline
210
0.0
220
0.0
230
1.0
 70
     8
 71
     3
 72
     8
 73
     4
 74
     0
 42
0.000000001
 43
0.00000001
 40
0.0
 40
0.0
 40
0.0
 40
0.0
 40
1.0
 40
1.0
 40
1.0
 40
1.0
 10
197.6861626999143
 20
67.20892608108717
 30
0.0
 10
198.2869209236107
 20
66.82165859792815
 30
0.0
 10
198.8876497864713
 20
66.43419124800471
 30
0.0
 10
199.4883504308183
 20
66.04652435541497
 30
0.0
  0
SPLINE
  5
190
330
1F
100
AcDbEntity
  8
0
  6
Continuous
 62
     7
370
    25
100
AcDbSpline
210
0.0
220
0.0
230
1.0
 70
     8
 71
     3
 72
    13
 73
     9
 74
     0
 42
0.000000001
 43
0.00000001
 40
0.0
 40
0.0
 40
0.0
 40
0.0
 40
0.1667030582307938
 40
0.3329480818052925
 40
0.4990671507274732
 40
0.665393852371831
 40
0.8322612710550088
 40
1.0
 40
1.0
 40
1.0
 40
1.0
 10
197.34433416488
 20
67.50999086017295
 30
0.0
 10
197.3646353473199
 20
67.49642575349372
 30
0.0
 10
197.4051819325086
 20
67.46933281173088
 30
0.0
 10
197.4643315694962
 20
67.42413823872316
 30
0.0
 10
197.5221031143987
 20
67.37572709024022
 30
0.0
 10
197.5783528518583
 20
67.32369197546976
 30
0.0
 10
197.6332800606044
 20
67.26839400826071
 30
0.0
 10
197.668500770195
 20
67.22877675310035
 30
0.0
 10
197.6861569821359
 20
67.20891654409944
 30
0.0
  0
SPLINE
  5
191
330
1F
100
AcDbEntity
  8
0
  6
Continuous
 62
     7
370
    25
100
AcDbSpline
210
0.0
220
0.0
230
1.0
 70
     8
 71
     3
 72
     8
 73
     4
 74
     0
 42
0.000000001
 43
0.00000001
 40
0.0
 40
0.0
 40
0.0
 40
0.0
 40
1.0
 40
1.0
 40
1.0
 40
1.0
 10
195.4003536490893
 20
68.76471271255242
 30
0.0
 10
196.0483837214895
 20
68.34671739666767
 30
0.0
 10
196.6963766985914
 20
67.92847663425003
 30
0.0
 10
197.34433416488
 20
67.50999086017295
 30
0.0
  0
LWPOLYLINE
  5
192
330
1F
100
AcDbEntity
  8
0
  6
Continuous
 62
     7
370
    25
100
AcDbPolyline
 90
       19
 70
   128
 43
0.0
 10
195.4003542994
 20
68.764712763
 10
195.803246561
 20
69.9316767485
 10
196.2932016993
 20
71.0916811732
 10
196.8642019346
 20
72.2304785692
 10
197.5092331093
 20
73.3340812601
 10
198.2203735915
 20
74.3889358786
 10
198.9888887761
 20
75.3820855272
 10
199.8053397448
 20
76.301332126
 10
200.6596986756
 20
77.1353863086
 10
201.5414719911
 20
77.8740023925
 10
202.4398296387
 20
78.5081100461
 10
203.3437377875
 20
79.0299197901
 10
204.2420944473
 20
79.4330233423
 10
205.1238658695
 20
79.7124700791
 10
205.9782218369
 20
79.8648268851
 10
206.7946691835
 20
79.8882232932
 10
207.5631797584
 20
79.7823713637
 10
208.2743149722
 20
79.548571423
 10
208.4500920259
 20
79.4664597282
  0
SPLINE
  5
193
330
1F
100
AcDbEntity
  8
0
  6
Continuous
 62
     7
370
    25
100
AcDbSpline
210
0.0
220
0.0
230
1.0
 70
    11
 71
     3
 72
    39
 73
    35
 74
     0
 42
0.000000001
 43
0.00000001
 40
0.0
 40
0.0
 40
0.0
 40
0.0
 40
0.0310664058345684
 40
0.0621048158426028
 40
0.0931361551794319
 40
0.123553829350374
 40
0.1538561545809018
 40
0.1850588072749134
 40
0.2160250992946899
 40
0.2471867223797622
 40
0.2784462884306489
 40
0.3100516090231287
 40
0.3419834369140543
 40
0.3734259894013276
 40
0.404860488678635
 40
0.4368740651833383
 40
0.4685120685924916
 40
0.4998055358633239
 40
0.5309508213228468
 40
0.5618649784438202
 40
0.593041644659302
 40
0.6233742450133318
 40
0.6540913579074815
 40
0.6849496782718557
 40
0.715816064516634
 40
0.7471731804043451
 40
0.7784514311861095
 40
0.8101295911560887
 40
0.8419598919685959
 40
0.8735175891922303
 40
0.9050808037884179
 40
0.9370235169792495
 40
0.9687441590028177
 40
1.0
 40
1.0
 40
1.0
 40
1.0
 10
208.6089391302945
 20
77.76990308789384
 30
0.0
 10
208.8718247504904
 20
77.74136860060375
 30
0.0
 10
209.3987133609737
 20
77.65542611228193
 30
0.0
 10
210.1627254300481
 20
77.45505099221097
 30
0.0
 10
210.8698756181024
 20
77.2080488859913
 30
0.0
 10
211.4827866826964
 20
76.93006700783806
 30
0.0
 10
211.9799180083682
 20
76.6359333105086
 30
0.0
 10
212.3391097294422
 20
76.33442678231629
 30
0.0
 10
212.560828998203
 20
76.02742927741346
 30
0.0
 10
212.6260808755832
 20
75.71692401601129
 30
0.0
 10
212.539233664469
 20
75.39777953126253
 30
0.0
 10
212.2968880767101
 20
75.06845956568972
 30
0.0
 10
211.916950213984
 20
74.72951884413281
 30
0.0
 10
211.4031442608247
 20
74.39168037972223
 30
0.0
 10
210.7772534499144
 20
74.06578247841291
 30
0.0
 10
210.063782463425
 20
73.769135585173
 30
0.0
 10
209.2998799871603
 20
73.51303227673499
 30
0.0
 10
208.5140869042566
 20
73.32400470874488
 30
0.0
 10
207.7325494492152
 20
73.21582878668991
 30
0.0
 10
206.9764364644614
 20
73.2081649033219
 30
0.0
 10
206.2740718780705
 20
73.3060869387094
 30
0.0
 10
205.6550515310259
 20
73.5277353722116
 30
0.0
 10
205.1459942660125
 20
73.863603459122
 30
0.0
 10
204.7730506725799
 20
74.30341402530364
 30
0.0
 10
204.5444487213367
 20
74.81448866582653
 30
0.0
 10
204.4756024146126
 20
75.36567375358541
 30
0.0
 10
204.5602188278373
 20
75.92334568189766
 30
0.0
 10
204.803327617771
 20
76.45342582281566
 30
0.0
 10
205.1854574605882
 20
76.92595017193172
 30
0.0
 10
205.7015930349985
 20
77.31207168282393
 30
0.0
 10
206.3285708955025
 20
77.59569587015739
 30
0.0
 10
207.0444783278633
 20
77.76543308888458
 30
0.0
 10
207.8129217200502
 20
77.82697192359721
 30
0.0
 10
208.344450499423
 20
77.79861157134135
 30
0.0
 10
208.6089391302946
 20
77.76990308789385
 30
0.0
  0
LINE
  5
194
330
1F
100
AcDbEntity
  8
0
  6
Continuous
 62
     7
370
    25
100
AcDbLine
 10
199.3844017173
 20
61.3307764705
 30
0.0
 11
199.6951533948
 21
61.16439577
 31
0.0
  0
LINE
  5
195
330
1F
100
AcDbEntity
  8
0
  6
Continuous
 62
     7
370
    25
100
AcDbLine
 10
198.3974436973
 20
61.9005352078
 30
0.0
 11
199.3844017173
 21
61.3307764705
 31
0.0
  0
ARC
  5
196
330
1F
100
AcDbEntity
  8
0
  6
Continuous
 62
     7
370
    25
100
AcDbCircle
 10
200.6184136081
 20
65.4940159718
 30
0.0
 40
4.484274790565291
100
AcDbArc
 50
267.6840627222
 51
286.9866336569
  0
SPLINE
  5
197
330
1F
100
AcDbEntity
  8
0
  6
Continuous
 62
     7
370
    25
100
AcDbSpline
210
0.0
220
0.0
230
1.0
 70
     8
 71
     3
 72
    12
 73
     8
 74
     0
 42
0.000000001
 43
0.00000001
 40
0.0
 40
0.0
 40
0.0
 40
0.0
 40
0.1523598330305601
 40
0.3826801306822303
 40
0.6138741683107227
 40
0.8254372814239916
 40
1.0
 40
1.0
 40
1.0
 40
1.0
 10
209.947445088594
 20
74.76740737255811
 30
0.0
 10
209.7424777502121
 20
74.87955377229086
 30
0.0
 10
209.2276640602956
 20
75.16123036678191
 30
0.0
 10
208.2145887330063
 20
75.57739633924899
 30
0.0
 10
207.0072099520472
 20
75.86063796719651
 30
0.0
 10
205.9048794666963
 20
75.8915848099373
 30
0.0
 10
205.3399404341653
 20
75.68385743261561
 30
0.0
 10
205.084538476423
 20
75.58994645144843
 30
0.0
  0
SPLINE
  5
198
330
1F
100
AcDbEntity
  8
0
  6
Continuous
 62
     7
370
    25
100
AcDbSpline
210
0.0
220
0.0
230
1.0
 70
     8
 71
     3
 72
    10
 73
     6
 74
     0
 42
0.000000001
 43
0.00000001
 40
0.0
 40
0.0
 40
0.0
 40
0.0
 40
0.3798174073072795
 40
0.9603711649033085
 40
1.0
 40
1.0
 40
1.0
 40
1.0
 10
211.0873252104535
 20
74.23918044503964
 30
0.0
 10
210.9576725932051
 20
74.309509006877
 30
0.0
 10
210.6298449774506
 20
74.48733530329811
 30
0.0
 10
210.2219164324404
 20
74.66038815370052
 30
0.0
 10
209.9652836510085
 20
74.75959358594883
 30
0.0
 10
209.9488851607968
 20
74.7659326798892
 30
0.0
  0
SPLINE
  5
199
330
1F
100
AcDbEntity
  8
0
  6
Continuous
 62
     7
370
    25
100
AcDbSpline
210
0.0
220
0.0
230
1.0
 70
     8
 71
     3
 72
    24
 73
    20
 74
     0
 42
0.000000001
 43
0.00000001
 40
0.0
 40
0.0
 40
0.0
 40
0.0
 40
0.0618858212107145
 40
0.1150115607194259
 40
0.1593831488268445
 40
0.2428114970815824
 40
0.318331853291959
 40
0.3935543804326023
 40
0.4204843226990471
 40
0.4483397435477174
 40
0.4771286702554668
 40
0.5451537905345539
 40
0.6363475754294583
 40
0.6968782859867285
 40
0.7498596693403015
 40
0.7959701295389731
 40
0.8771179302751783
 40
0.9543004207779655
 40
1.0
 40
1.0
 40
1.0
 40
1.0
 10
208.5540605632923
 20
77.19604518793707
 30
0.0
 10
208.3701037739561
 20
77.21493975290302
 30
0.0
 10
208.0282297059939
 20
77.25005431328754
 30
0.0
 10
207.5640117330171
 20
77.24356376490027
 30
0.0
 10
207.0545501207442
 20
77.19583957210297
 30
0.0
 10
206.5154550213695
 20
77.07122297393603
 30
0.0
 10
205.972617036646
 20
76.82873268999305
 30
0.0
 10
205.6322240211508
 20
76.57135993936714
 30
0.0
 10
205.4255973125998
 20
76.35655283886831
 30
0.0
 10
205.3076132563888
 20
76.21004948756934
 30
0.0
 10
205.1554428521978
 20
75.98029866334888
 30
0.0
 10
204.9887622136181
 20
75.60735596792186
 30
0.0
 10
204.9204006327809
 20
75.144796915229
 30
0.0
 10
204.9707560964003
 20
74.71646421702715
 30
0.0
 10
205.0761852399156
 20
74.39653732338277
 30
0.0
 10
205.2583845666016
 20
74.05607180818957
 30
0.0
 10
205.559262991672
 20
73.7201235513345
 30
0.0
 10
205.9489478862705
 20
73.44706425061948
 30
0.0
 10
206.2418668424649
 20
73.35310917969218
 30
0.0
 10
206.3508027765212
 20
73.31816748952721
 30
0.0
  0
SPLINE
  5
19A
330
1F
100
AcDbEntity
  8
0
  6
Continuous
 62
     7
370
    25
100
AcDbSpline
210
0.0
220
0.0
230
1.0
 70
     8
 71
     3
 72
    22
 73
    18
 74
     0
 42
0.000000001
 43
0.00000001
 40
0.0
 40
0.0
 40
0.0
 40
0.0
 40
0.0230829230551597
 40
0.0814197416897967
 40
0.1466435060153073
 40
0.2187937863059883
 40
0.2807407147919538
 40
0.334043885361729
 40
0.3787027517769348
 40
0.4147200067027929
 40
0.517881604567259
 40
0.6098460221494381
 40
0.7031822330296847
 40
0.7529336067168404
 40
0.8047834091159894
 40
0.8938685125132421
 40
1.0
 40
1.0
 40
1.0
 40
1.0
 10
211.8553773559893
 20
74.71529704735133
 30
0.0
 10
211.8797807590758
 20
74.7382962007787
 30
0.0
 10
211.9658581926361
 20
74.81942046422945
 30
0.0
 10
212.0735526098343
 20
74.9627161462145
 30
0.0
 10
212.1707232112148
 20
75.15149064905603
 30
0.0
 10
212.2017741114036
 20
75.33745610061163
 30
0.0
 10
212.1724211897618
 20
75.50927078719948
 30
0.0
 10
212.1039150551571
 20
75.6560767150339
 30
0.0
 10
212.0161046693281
 20
75.77728777190336
 30
0.0
 10
211.8618128804467
 20
75.9428708811009
 30
0.0
 10
211.5939869339161
 20
76.153035145608
 30
0.0
 10
211.1424166787437
 20
76.40847894916944
 30
0.0
 10
210.6948540694291
 20
76.61511564747505
 30
0.0
 10
210.2859602966657
 20
76.77361986388739
 30
0.0
 10
209.8638806978299
 20
76.91613661188012
 30
0.0
 10
209.2855680800113
 20
77.07939318070937
 30
0.0
 10
208.8116894862205
 20
77.15496163063574
 30
0.0
 10
208.5540605632924
 20
77.19604518793707
 30
0.0
  0
LINE
  5
19B
330
1F
100
AcDbEntity
  8
0
  6
Continuous
 62
     7
370
    25
100
AcDbLine
 10
202.0444908414
 20
61.9488739998
 30
0.0
 11
202.0392527784
 21
62.2449574228
 31
0.0
  0
LINE
  5
19C
330
1F
100
AcDbEntity
  8
0
  6
Continuous
 62
     7
370
    25
100
AcDbLine
 10
202.0392527784
 20
62.2449574228
 30
0.0
 11
202.0823525408
 21
62.8966191195
 31
0.0
  0
LINE
  5
19D
330
1F
100
AcDbEntity
  8
0
  6
Continuous
 62
     7
370
    25
100
AcDbLine
 10
201.6521682191
 20
64.6280801262
 30
0.0
 11
201.2482894578
 21
65.0542422097
 31
0.0
  0
SPLINE
  5
19E
330
1F
100
AcDbEntity
  8
0
  6
Continuous
 62
     7
370
    25
100
AcDbSpline
210
0.0
220
0.0
230
1.0
 70
     8
 71
     3
 72
    19
 73
    15
 74
     0
 42
0.000000001
 43
0.00000001
 40
0.0
 40
0.0
 40
0.0
 40
0.0
 40
0.0210492621018804
 40
0.1455865440207667
 40
0.2712169722633744
 40
0.3929514297049947
 40
0.5136082229787104
 40
0.6366369099308349
 40
0.699422462668311
 40
0.7643939711952468
 40
0.8122544601557282
 40
0.8606584764820763
 40
0.9188817427801165
 40
1.0
 40
1.0
 40
1.0
 40
1.0
 10
204.96481601095
 20
74.94129524047926
 30
0.0
 10
204.9573474359641
 20
74.99605558738467
 30
0.0
 10
204.9056912773924
 20
75.3748037647198
 30
0.0
 10
205.1484621720521
 20
75.984954673534
 30
0.0
 10
205.732792639467
 20
76.67432837677356
 30
0.0
 10
206.6389190071072
 20
77.0916279270056
 30
0.0
 10
207.7132651355693
 20
77.21205388469427
 30
0.0
 10
208.667199004665
 20
77.05135434110666
 30
0.0
 10
209.4018615472343
 20
76.75398824226487
 30
0.0
 10
209.8746647867066
 20
76.45633016486016
 30
0.0
 10
210.2316349568261
 20
76.08541836008281
 30
0.0
 10
210.4264830983343
 20
75.65309706477521
 30
0.0
 10
210.4555121285785
 20
75.15015573355008
 30
0.0
 10
210.3931385269581
 20
74.81641072097489
 30
0.0
 10
210.356827470984
 20
74.62211965042803
 30
0.0
  0
SPLINE
  5
19F
330
1F
100
AcDbEntity
  8
0
  6
Continuous
 62
     7
370
    25
100
AcDbSpline
210
0.0
220
0.0
230
1.0
 70
     8
 71
     3
 72
    10
 73
     6
 74
     0
 42
0.000000001
 43
0.00000001
 40
0.0
 40
0.0
 40
0.0
 40
0.0
 40
0.2952118939789638
 40
0.9806889752106586
 40
1.0
 40
1.0
 40
1.0
 40
1.0
 10
210.3595553269722
 20
74.62088109700564
 30
0.0
 10
210.442378951849
 20
74.58211591921219
 30
0.0
 10
210.7175176486979
 20
74.45333864682073
 30
0.0
 10
210.9924489628005
 20
74.31215364696133
 30
0.0
 10
211.1409140274748
 20
74.21816605256413
 30
0.0
 10
211.1449819345802
 20
74.21559081505688
 30
0.0
  0
ARC
  5
1A0
330
1F
100
AcDbEntity
  8
0
  6
Continuous
 62
     7
370
    25
100
AcDbCircle
 10
214.3696638923
 20
60.4076621047
 30
0.0
 40
12.46654291792353
100
AcDbArc
 50
171.5249863735
 51
179.8211981812
  0
SPLINE
  5
1A1
330
1F
100
AcDbEntity
  8
0
  6
Continuous
 62
     7
370
    25
100
AcDbSpline
210
0.0
220
0.0
230
1.0
 70
     8
 71
     3
 72
    14
 73
    10
 74
     0
 42
0.000000001
 43
0.00000001
 40
0.0
 40
0.0
 40
0.0
 40
0.0
 40
0.0003951393068452
 40
0.0003951393068452
 40
0.0003951393068452
 40
0.0008163352168664
 40
0.0008163352168664
 40
0.0008163352168664
 40
0.0012378579337219
 40
0.0012378579337219
 40
0.0012378579337219
 40
0.0012378579337219
 10
209.9514776641336
 20
74.7661284191738
 30
0.0
 10
209.9969394783649
 20
74.75169155654875
 30
0.0
 10
210.041827082986
 20
74.73682569598314
 30
0.0
 10
210.0861107756611
 20
74.72154190837767
 30
0.0
 10
210.1333140679004
 20
74.70525046903998
 30
0.0
 10
210.1798398809596
 20
74.68848099095607
 30
0.0
 10
210.2256507902012
 20
74.67125218016076
 30
0.0
 10
210.2714971781903
 20
74.65401002632913
 30
0.0
 10
210.3166364137628
 20
74.63630432012464
 30
0.0
 10
210.3610299718051
 20
74.61816146343386
 30
0.0
  0
LINE
  5
1A2
330
1F
100
AcDbEntity
  8
0
  6
Continuous
 62
     7
370
    25
100
AcDbLine
 10
201.2482894578
 20
65.0542422097
 30
0.0
 11
200.6083527835
 21
65.4664738498
 31
0.0
  0
LINE
  5
1A3
330
1F
100
AcDbEntity
  8
0
  6
Continuous
 62
     7
370
    25
100
AcDbLine
 10
200.3024186883
 20
65.8379522367
 30
0.0
 11
200.6083527835
 21
65.4664738498
 31
0.0
  0
SPLINE
  5
1A4
330
1F
100
AcDbEntity
  8
0
  6
Continuous
 62
     7
370
    25
100
AcDbSpline
210
0.0
220
0.0
230
1.0
 70
     8
 71
     3
 72
    13
 73
     9
 74
     0
 42
0.000000001
 43
0.00000001
 40
0.0
 40
0.0
 40
0.0
 40
0.0
 40
0.1618542298851472
 40
0.3254858841553847
 40
0.4910085196606878
 40
0.6585318472790798
 40
0.8281616954204313
 40
1.0
 40
1.0
 40
1.0
 40
1.0
 10
200.6083531951121
 20
65.46647385374388
 30
0.0
 10
200.5887758030946
 20
65.47903683077703
 30
0.0
 10
200.5494060272489
 20
65.50430074689564
 30
0.0
 10
200.4878700874786
 20
65.5369944438105
 30
0.0
 10
200.4243134282292
 20
65.56594051751738
 30
0.0
 10
200.3586953255724
 20
65.59045288498298
 30
0.0
 10
200.2912680565176
 20
65.6108879483365
 30
0.0
 10
200.2453834563191
 20
65.62048460332628
 30
0.0
 10
200.2222927761441
 20
65.62531396416107
 30
0.0
  0
SPLINE
  5
1A5
330
1F
100
AcDbEntity
  8
0
  6
Continuous
 62
     7
370
    25
100
AcDbSpline
210
0.0
220
0.0
230
1.0
 70
     8
 71
     3
 72
     9
 73
     5
 74
     0
 42
0.000000001
 43
0.00000001
 40
0.0
 40
0.0
 40
0.0
 40
0.0
 40
0.4907282259506009
 40
1.0
 40
1.0
 40
1.0
 40
1.0
 10
200.2222869488522
 20
65.62528596713005
 30
0.0
 10
200.1981934263744
 20
65.63338149934818
 30
0.0
 10
200.1490959398151
 20
65.64987847626945
 30
0.0
 10
200.098395245995
 20
65.66467214528568
 30
0.0
 10
200.0725748137077
 20
65.67220614335028
 30
0.0
  0
SPLINE
  5
1A6
330
1F
100
AcDbEntity
  8
0
  6
Continuous
 62
     7
370
    25
100
AcDbSpline
210
0.0
220
0.0
230
1.0
 70
     8
 71
     3
 72
    14
 73
    10
 74
     0
 42
0.000000001
 43
0.00000001
 40
0.0
 40
0.0
 40
0.0
 40
0.0
 40
0.0310276388076957
 40
0.0622853718677893
 40
0.1248003166909654
 40
0.2498289731758144
 40
0.4998892603613412
 40
0.7606803621630155
 40
1.0
 40
1.0
 40
1.0
 40
1.0
 10
199.4886341244194
 20
66.04631388599614
 30
0.0
 10
199.494626363824
 20
66.04248284234244
 30
0.0
 10
199.5066552797832
 20
66.03479234484465
 30
0.0
 10
199.5307150878325
 20
66.0193544553379
 30
0.0
 10
199.5729487604788
 20
65.99228400240709
 30
0.0
 10
199.6575113349909
 20
65.93807197761174
 30
0.0
 10
199.7807983044601
 20
65.85906879574644
 30
0.0
 10
199.9269300109137
 20
65.76546262106899
 30
0.0
 10
200.0252966274545
 20
65.7024795446766
 30
0.0
 10
200.0723683281398
 20
65.67234004588684
 30
0.0
  0
LINE
  5
1A7
330
1F
100
AcDbEntity
  8
0
  6
Continuous
 62
     7
370
    25
100
AcDbLine
 10
197.6861339692
 20
67.208944563
 30
0.0
 11
197.9771013233
 21
67.0208660239
 31
0.0
  0
SPLINE
  5
1A8
330
1F
100
AcDbEntity
  8
0
  6
Continuous
 62
     7
370
    25
100
AcDbSpline
210
0.0
220
0.0
230
1.0
 70
     8
 71
     3
 72
     8
 73
     4
 74
     0
 42
0.000000001
 43
0.00000001
 40
0.0
 40
0.0
 40
0.0
 40
0.0
 40
1.0
 40
1.0
 40
1.0
 40
1.0
 10
198.0084896267146
 20
67.00064349368498
 30
0.0
 10
197.9980471208627
 20
67.00746891858239
 30
0.0
 10
197.9875811879729
 20
67.01421188536891
 30
0.0
 10
197.9770934231564
 20
67.0208709730219
 30
0.0
  0
SPLINE
  5
1A9
330
1F
100
AcDbEntity
  8
0
  6
Continuous
 62
     7
370
    25
100
AcDbSpline
210
0.0
220
0.0
230
1.0
 70
     8
 71
     3
 72
     8
 73
     4
 74
     0
 42
0.000000001
 43
0.00000001
 40
0.0
 40
0.0
 40
0.0
 40
0.0
 40
1.0
 40
1.0
 40
1.0
 40
1.0
 10
195.2224852478872
 20
68.87889914549629
 30
0.0
 10
195.2814850120584
 20
68.84015847857656
 30
0.0
 10
195.3407725755701
 20
68.80209650127652
 30
0.0
 10
195.4003536490597
 20
68.76471271281551
 30
0.0
  0
SPLINE
  5
1AA
330
1F
100
AcDbEntity
  8
0
  6
Continuous
 62
     7
370
    25
100
AcDbSpline
210
0.0
220
0.0
230
1.0
 70
     8
 71
     3
 72
     8
 73
     4
 74
     0
 42
0.000000001
 43
0.00000001
 40
0.0
 40
0.0
 40
0.0
 40
0.0
 40
1.0
 40
1.0
 40
1.0
 40
1.0
 10
195.1976355017912
 20
69.24210932343237
 30
0.0
 10
195.2051097138817
 20
69.12115148272166
 30
0.0
 10
195.2134058177717
 20
69.00007964031211
 30
0.0
 10
195.2224852478905
 20
68.87889914549741
 30
0.0
  0
LWPOLYLINE
  5
1AB
330
1F
100
AcDbEntity
  8
0
  6
Continuous
 62
     7
370
    25
100
AcDbPolyline
 90
       15
 70
   128
 43
0.0
 10
195.1976358606
 20
69.242108658
 10
195.6130872245
 20
70.4063600345
 10
196.117618587
 20
71.5609056296
 10
196.7045707459
 20
72.6905063918
 10
197.3661959251
 20
73.780250751
 10
198.0937598487
 20
74.8157534699
 10
198.8776586331
 20
75.7833455591
 10
199.7075445682
 20
76.6702548744
 10
200.5724627663
 20
77.4647732165
 10
201.4609957942
 20
78.1564128296
 10
202.3614147273
 20
78.7360437939
 10
203.2618336604
 20
79.1960144013
 10
204.1503666883
 20
79.5302531857
 10
205.0152848864
 20
79.7343481391
 10
205.1615983296
 20
79.7562163495
  0
SPLINE
  5
1AC
330
1F
100
AcDbEntity
  8
0
  6
Continuous
 62
     7
370
    25
100
AcDbSpline
210
0.0
220
0.0
230
1.0
 70
     8
 71
     3
 72
    10
 73
     6
 74
     0
 42
0.000000001
 43
0.00000001
 40
0.0
 40
0.0
 40
0.0
 40
0.0
 40
0.2409818396634726
 40
0.5031433556203718
 40
1.0
 40
1.0
 40
1.0
 40
1.0
 10
201.2482894578299
 20
58.34840058647855
 30
0.0
 10
201.3305353288329
 20
58.296724064558
 30
0.0
 10
201.5022555861773
 20
58.18882921786662
 30
0.0
 10
201.7799769452042
 20
58.05910650740237
 30
0.0
 10
201.9009541922483
 20
58.08188444850736
 30
0.0
 10
201.9801464331638
 20
58.09679498948609
 30
0.0
  0
LINE
  5
1AD
330
1F
100
AcDbEntity
  8
0
  6
Continuous
 62
     7
370
    25
100
AcDbLine
 10
196.4651154017
 20
68.0774733194
 30
0.0
 11
195.7032366993
 21
68.5681077271
 31
0.0
  0
LINE
  5
1AE
330
1F
100
AcDbEntity
  8
0
  6
Continuous
 62
     7
370
    25
100
AcDbLine
 10
195.7032366993
 20
68.5681077271
 30
0.0
 11
195.2224853791
 21
68.8788991032
 31
0.0
  0
LINE
  5
1AF
330
1F
100
AcDbEntity
  8
0
  6
Continuous
 62
     7
370
    25
100
AcDbLine
 10
200.3024186883
 20
58.0726207855
 30
0.0
 11
200.6083527835
 21
58.7606322266
 31
0.0
  0
LINE
  5
1B0
330
1F
100
AcDbEntity
  8
0
  6
Continuous
 62
     7
370
    25
100
AcDbLine
 10
200.6083527835
 20
58.7606322266
 30
0.0
 11
201.2482894578
 21
58.3484005865
 31
0.0
  0
SPLINE
  5
1B1
330
1F
100
AcDbEntity
  8
0
  6
Continuous
 62
     7
370
    25
100
AcDbSpline
210
0.0
220
0.0
230
1.0
 70
     8
 71
     3
 72
    13
 73
     9
 74
     0
 42
0.000000001
 43
0.00000001
 40
0.0
 40
0.0
 40
0.0
 40
0.0
 40
0.172258782378417
 40
0.3421398271595076
 40
0.5097456258302755
 40
0.6751828993623394
 40
0.8385626190354527
 40
1.0
 40
1.0
 40
1.0
 40
1.0
 10
200.2222812643388
 20
59.04194193199717
 30
0.0
 10
200.245432788294
 20
59.02382234105972
 30
0.0
 10
200.2914162690496
 20
58.9878332691184
 30
0.0
 10
200.3589572817689
 20
58.93683328569673
 30
0.0
 10
200.4246168964571
 20
58.88850860550497
 30
0.0
 10
200.4881409677049
 20
58.84307759959914
 30
0.0
 10
200.5495713464187
 20
58.80025203184624
 30
0.0
 10
200.588837513385
 20
58.77378621467602
 30
0.0
 10
200.6083531951121
 20
58.76063243613216
 30
0.0
  0
SPLINE
  5
1B2
330
1F
100
AcDbEntity
  8
0
  6
Continuous
 62
     7
370
    25
100
AcDbSpline
210
0.0
220
0.0
230
1.0
 70
     8
 71
     3
 72
    11
 73
     7
 74
     0
 42
0.000000001
 43
0.00000001
 40
0.0
 40
0.0
 40
0.0
 40
0.0
 40
0.2392845095100661
 40
0.5001120454057306
 40
0.7515010915005497
 40
1.0
 40
1.0
 40
1.0
 40
1.0
 10
200.0729008528627
 20
59.08925592421004
 30
0.0
 10
200.0258316208454
 20
59.06094140149095
 30
0.0
 10
199.92745546625
 20
59.00176317093718
 30
0.0
 10
199.7811582446681
 20
58.90857527047513
 30
0.0
 10
199.6333175010415
 20
58.81320335450226
 30
0.0
 10
199.5370310383195
 20
58.7486680992435
 30
0.0
 10
199.4891661504586
 20
58.71658702918742
 30
0.0
  0
SPLINE
  5
1B3
330
1F
100
AcDbEntity
  8
0
  6
Continuous
 62
     7
370
    25
100
AcDbSpline
210
0.0
220
0.0
230
1.0
 70
     8
 71
     3
 72
     9
 73
     5
 74
     0
 42
0.000000001
 43
0.00000001
 40
0.0
 40
0.0
 40
0.0
 40
0.0
 40
0.5090669353869849
 40
0.9999999999999999
 40
0.9999999999999999
 40
0.9999999999999999
 40
0.9999999999999999
 10
200.0734718564469
 20
59.08855696999826
 30
0.0
 10
200.0991204310709
 20
59.08106426183837
 30
0.0
 10
200.1495039324164
 20
59.06634574912612
 30
0.0
 10
200.1983114439116
 20
59.04995339127396
 30
0.0
 10
200.2222726651061
 20
59.04190584079737
 30
0.0
  0
LINE
  5
1B4
330
1F
100
AcDbEntity
  8
0
  6
Continuous
 62
     7
370
    25
100
AcDbLine
 10
201.9033904366
 20
60.0124355372
 30
0.0
 11
200.2222744802
 21
59.041947953
 31
0.0
  0
LINE
  5
1B5
330
1F
100
AcDbEntity
  8
0
  6
Continuous
 62
     7
370
    25
100
AcDbLine
 10
198.215786829
 20
60.1657692517
 30
0.0
 11
198.0154911754
 21
59.6646118375
 31
0.0
  0
SPLINE
  5
1B6
330
1F
100
AcDbEntity
  8
0
  6
Continuous
 62
     7
370
    25
100
AcDbSpline
210
0.0
220
0.0
230
1.0
 70
     8
 71
     3
 72
     8
 73
     4
 74
     0
 42
0.000000001
 43
0.00000001
 40
0.0
 40
0.0
 40
0.0
 40
0.0
 40
1.0
 40
1.0
 40
1.0
 40
1.0
 10
198.2153436583067
 20
60.16655300385962
 30
0.0
 10
198.2415189928759
 20
60.18872038083789
 30
0.0
 10
198.2673400328414
 20
60.21135252192951
 30
0.0
 10
198.2927975865498
 20
60.23443724202079
 30
0.0
  0
LINE
  5
1B7
330
1F
100
AcDbEntity
  8
0
  6
Continuous
 62
     7
370
    25
100
AcDbLine
 10
198.2927976823
 20
60.2344371264
 30
0.0
 11
200.0730904416
 21
59.0886662413
 31
0.0
  0
LINE
  5
1B8
330
1F
100
AcDbEntity
  8
0
  6
Continuous
 62
     7
370
    25
100
AcDbLine
 10
201.903181678
 20
60.1104854724
 30
0.0
 11
201.815182351
 21
60.2179765408
 31
0.0
  0
LINE
  5
1B9
330
1F
100
AcDbEntity
  8
0
  6
Continuous
 62
     7
370
    25
100
AcDbLine
 10
199.9867743543
 20
61.2123490437
 30
0.0
 11
198.2927976823
 21
60.2344371264
 31
0.0
  0
LINE
  5
1BA
330
1F
100
AcDbEntity
  8
0
  6
Continuous
 62
     7
370
    25
100
AcDbLine
 10
200.1294684369
 20
61.191056882
 30
0.0
 11
199.9871945057
 21
61.2118616662
 31
0.0
  0
LINE
  5
1BB
330
1F
100
AcDbEntity
  8
0
  6
Continuous
 62
     7
370
    25
100
AcDbLine
 10
201.815256108
 20
60.2178723743
 30
0.0
 11
200.1294684369
 21
61.191056882
 31
0.0
  0
LINE
  5
1BC
330
1F
100
AcDbEntity
  8
0
  6
Continuous
 62
     7
370
    25
100
AcDbLine
 10
201.903181678
 20
60.1671082915
 30
0.0
 11
201.8152093513
 21
60.2178993477
 31
0.0
  0
SPLINE
  5
1BD
330
1F
100
AcDbEntity
  8
0
  6
Continuous
 62
     7
370
    25
100
AcDbSpline
210
0.0
220
0.0
230
1.0
 70
     8
 71
     3
 72
    19
 73
    15
 74
     0
 42
0.000000001
 43
0.00000001
 40
0.0
 40
0.0
 40
0.0
 40
0.0
 40
0.063785300910882
 40
0.1289628367635036
 40
0.1955871994268031
 40
0.2637095015366804
 40
0.3333775579315986
 40
0.4046360709516952
 40
0.477526815882585
 40
0.5520888236314936
 40
0.6283585584272511
 40
0.7063700889343487
 40
0.8377041805981109
 40
1.0
 40
1.0
 40
1.0
 40
1.0
 10
197.4312745523453
 20
60.33504109121149
 30
0.0
 10
197.4519639213498
 20
60.32168195120156
 30
0.0
 10
197.4937942440035
 20
60.29467208266134
 30
0.0
 10
197.5542852175968
 20
60.25715011713545
 30
0.0
 10
197.6137694157751
 20
60.22163037604507
 30
0.0
 10
197.6718505752461
 20
60.18865024712851
 30
0.0
 10
197.7283826923332
 20
60.15844381085792
 30
0.0
 10
197.7831277470873
 20
60.13133037089597
 30
0.0
 10
197.8358501246803
 20
60.1075987531455
 30
0.0
 10
197.8862917576123
 20
60.08755849970036
 30
0.0
 10
197.9341746760792
 20
60.07143863816178
 30
0.0
 10
197.9891388304558
 20
60.05716066847856
 30
0.0
 10
198.0519701444188
 20
60.04702211122716
 30
0.0
 10
198.0904776600781
 20
60.05349636254207
 30
0.0
 10
198.1117616252722
 20
60.05707482605198
 30
0.0
  0
LINE
  5
1BE
330
1F
100
AcDbEntity
  8
0
  6
Continuous
 62
     7
370
    25
100
AcDbLine
 10
198.1363973129
 20
60.0831452803
 30
0.0
 11
198.2152013829
 21
60.1665368841
 31
0.0
  0
SPLINE
  5
1BF
330
1F
100
AcDbEntity
  8
0
  6
Continuous
 62
     7
370
    25
100
AcDbSpline
210
0.0
220
0.0
230
1.0
 70
     8
 71
     3
 72
     9
 73
     5
 74
     0
 42
0.000000001
 43
0.00000001
 40
0.0
 40
0.0
 40
0.0
 40
0.0
 40
0.5232016984460688
 40
1.0
 40
1.0
 40
1.0
 40
1.0
 10
199.8205965746597
 20
61.11641682294437
 30
0.0
 10
199.7515724120111
 20
61.14145898806087
 30
0.0
 10
199.6196459239022
 20
61.1893222981206
 30
0.0
 10
199.3782085110835
 20
61.32692042880726
 30
0.0
 10
199.26309156272
 20
61.39252698381566
 30
0.0
  0
LINE
  5
1C0
330
1F
100
AcDbEntity
  8
0
  6
Continuous
 62
     7
370
    25
100
AcDbLine
 10
195.5335903657
 20
61.1584165465
 30
0.0
 11
195.9850614801
 21
61.2706805193
 31
0.0
  0
LINE
  5
1C1
330
1F
100
AcDbEntity
  8
0
  6
Continuous
 62
     7
370
    25
100
AcDbLine
 10
195.9850614801
 20
61.2706805193
 30
0.0
 11
197.4312739519
 21
60.3350411863
 31
0.0
  0
SPLINE
  5
1C2
330
1F
100
AcDbEntity
  8
0
  6
Continuous
 62
     7
370
    25
100
AcDbSpline
210
0.0
220
0.0
230
1.0
 70
     8
 71
     3
 72
     8
 73
     4
 74
     0
 42
0.000000001
 43
0.00000001
 40
0.0
 40
0.0
 40
0.0
 40
0.0
 40
1.0
 40
1.0
 40
1.0
 40
1.0
 10
195.7043789363621
 20
60.76366689342817
 30
0.0
 10
195.647253667438
 20
60.89545307722404
 30
0.0
 10
195.5903251757203
 20
61.02703729888507
 30
0.0
 10
195.5335910577707
 20
61.15841636578666
 30
0.0
  0
LINE
  5
1C3
330
1F
100
AcDbEntity
  8
0
  6
Continuous
 62
     7
370
    25
100
AcDbLine
 10
197.3227629391
 20
62.0429191341
 30
0.0
 11
195.9850614801
 21
61.2706805193
 31
0.0
  0
LINE
  5
1C4
330
1F
100
AcDbEntity
  8
0
  6
Continuous
 62
     7
370
    25
100
AcDbLine
 10
198.305791424
 20
61.9451657312
 30
0.0
 11
197.3227629391
 21
62.0429191341
 31
0.0
  0
LINE
  5
1C5
330
1F
100
AcDbEntity
  8
0
  6
Continuous
 62
     7
370
    25
100
AcDbLine
 10
199.2630915627
 20
61.3925269838
 30
0.0
 11
198.3057904362
 21
61.9451651609
 31
0.0
  0
SPLINE
  5
1C6
330
1F
100
AcDbEntity
  8
0
  6
Continuous
 62
     7
370
    25
100
AcDbSpline
210
0.0
220
0.0
230
1.0
 70
     8
 71
     3
 72
     8
 73
     4
 74
     0
 42
0.000000001
 43
0.00000001
 40
0.0
 40
0.0
 40
0.0
 40
0.0
 40
1.0
 40
1.0
 40
1.0
 40
1.0
 10
195.5335910577732
 20
61.15841636578085
 30
0.0
 10
195.5304537200231
 20
61.19363267265337
 30
0.0
 10
195.5284613161252
 20
61.22927692888106
 30
0.0
 10
195.5276799187531
 20
61.26537383087594
 30
0.0
  0
LINE
  5
1C7
330
1F
100
AcDbEntity
  8
0
  6
Continuous
 62
     7
370
    25
100
AcDbLine
 10
196.3387663938
 20
61.7336035456
 30
0.0
 11
195.5276805873
 21
61.265373676
 31
0.0
  0
SPLINE
  5
1C8
330
1F
100
AcDbEntity
  8
0
  6
Continuous
 62
     7
370
    25
100
AcDbSpline
210
0.0
220
0.0
230
1.0
 70
     8
 71
     3
 72
     8
 73
     4
 74
     0
 42
0.000000001
 43
0.00000001
 40
0.0000004089325119
 40
0.0000004089325119
 40
0.0000004089325119
 40
0.0000004089325119
 40
0.0015399868451459
 40
0.0015399868451459
 40
0.0015399868451459
 40
0.0015399868451459
 10
196.3387654512419
 20
61.73360354223205
 30
0.0
 10
196.5772420192651
 20
61.82797992804841
 30
0.0
 10
196.8156889769338
 20
61.92240853997862
 30
0.0
 10
197.0540977157841
 20
62.01690192294107
 30
0.0
  0
LINE
  5
1C9
330
1F
100
AcDbEntity
  8
0
  6
Continuous
 62
     7
370
    25
100
AcDbLine
 10
197.0540971947
 20
62.0169020701
 30
0.0
 11
197.0784936346
 21
62.0218960965
 31
0.0
  0
LINE
  5
1CA
330
1F
100
AcDbEntity
  8
0
  6
Continuous
 62
     7
370
    25
100
AcDbLine
 10
197.3227629391
 20
62.0429191341
 30
0.0
 11
197.0784942931
 21
62.0218960964
 31
0.0
  0
SPLINE
  5
1CB
330
1F
100
AcDbEntity
  8
0
  6
Continuous
 62
     7
370
    25
100
AcDbSpline
210
0.0
220
0.0
230
1.0
 70
     8
 71
     3
 72
     8
 73
     4
 74
     0
 42
0.000000001
 43
0.00000001
 40
0.0
 40
0.0
 40
0.0
 40
0.0
 40
1.0
 40
1.0
 40
1.0
 40
1.0
 10
198.3057896302922
 20
61.94516591552804
 30
0.0
 10
198.3363976644154
 20
61.93022590772193
 30
0.0
 10
198.3669491653873
 20
61.91534895032855
 30
0.0
 10
198.3974431035019
 20
61.90053538664763
 30
0.0
  0
ARC
  5
1CC
330
1F
100
AcDbEntity
  8
0
  6
Continuous
 62
     7
370
    25
100
AcDbCircle
 10
199.1864731106
 20
67.3738858607
 30
0.0
 40
6.549762100192504
100
AcDbArc
 50
283.6682343678
 51
294.9135532271
  0
LINE
  5
1CD
330
1F
100
AcDbEntity
  8
0
  6
Continuous
 62
     7
370
    18
100
AcDbLine
 10
256.0807378724
 20
34.9935409229
 30
0.0
 11
255.7802176716
 21
35.1670275421
 31
0.0
  0
LWPOLYLINE
  5
1CE
330
1F
100
AcDbEntity
  8
0
  6
Continuous
 62
     7
370
    18
100
AcDbPolyline
 90
       17
 70
   128
 43
0.0
 10
249.3663381711
 20
47.6391925187
 10
248.7076582087
 20
47.2019441743
 10
248.063692024
 20
46.6604619357
 10
247.448824822
 20
46.0268418731
 10
246.8767916596
 20
45.3152382153
 10
246.3603709346
 20
44.5415468598
 10
245.9110983711
 20
43.7230503347
 10
245.5390105167
 20
42.8780332186
 10
245.2524185322
 20
42.0253711315
 10
245.0577247875
 20
41.1841117373
 10
244.9592783105
 20
40.3730469255
 10
244.9592783105
 20
39.6102948034
 10
245.0577247875
 20
38.9128938746
 10
245.2524185322
 20
38.2964230933
 10
245.5390105167
 20
37.7746530682
 10
245.9110983711
 20
37.3592394444
 10
246.2415922252
 20
37.1230069481
  0
ARC
  5
1CF
330
1F
100
AcDbEntity
  8
0
  6
Continuous
 62
     7
370
    18
100
AcDbCircle
 10
251.1972161522
 20
45.1260288727
 30
0.0
 40
3.109357762231882
100
AcDbArc
 50
66.2624357933
 51
126.0739079293
  0
ARC
  5
1D0
330
1F
100
AcDbEntity
  8
0
  6
Continuous
 62
     7
370
    18
100
AcDbCircle
 10
249.9814103642
 20
42.1807390733
 30
0.0
 40
8.711198878108364
100
AcDbArc
 50
311.6725674876
 51
348.3328070167
  0
ARC
  5
1D1
330
1F
100
AcDbEntity
  8
0
  6
Continuous
 62
     7
370
    18
100
AcDbCircle
 10
249.934134948
 20
42.2080308086
 30
0.0
 40
8.25271078192307
100
AcDbArc
 50
316.6422626554
 51
343.3631093495
  0
LWPOLYLINE
  5
1D2
330
1F
100
AcDbEntity
  8
0
  6
Continuous
 62
     7
370
    18
100
AcDbPolyline
 90
       22
 70
   128
 43
0.0
 10
249.012784064
 20
49.2722416153
 10
248.2744163884
 20
48.7901061323
 10
247.5486823952
 20
48.2044496466
 10
246.8479995998
 20
47.5252942742
 10
246.1843568049
 20
46.7642591434
 10
245.5691092934
 20
45.9343668763
 10
245.012784064
 20
45.0498163233
 10
244.5248997189
 20
44.1257428447
 10
244.1138046268
 20
43.1779575818
 10
243.7865320432
 20
42.222676936
 10
243.5486825598
 20
41.2762467217
 10
243.4043246646
 20
40.3548598539
 10
243.3559295458
 20
39.4742822076
 10
243.4043246646
 20
38.6495803761
 10
243.5486825598
 20
37.8948655864
 10
243.7865320432
 20
37.2230505403
 10
244.1138046268
 20
36.6456307765
 10
244.5248997189
 20
36.1724858039
 10
245.012784064
 20
35.8117116
 10
245.5691092934
 20
35.5694804848
 10
246.1843568049
 20
35.4499378741
 10
246.5710943112
 20
35.4378794275
  0
LWPOLYLINE
  5
1D3
330
1F
100
AcDbEntity
  8
0
  6
Continuous
 62
     7
370
    18
100
AcDbPolyline
 90
       10
 70
   128
 43
0.0
 10
254.1151464113
 20
48.5059769035
 10
253.9117635011
 20
48.8341988435
 10
253.5006684091
 20
49.3073438161
 10
253.012784064
 20
49.66811802
 10
252.4564588346
 20
49.9103491352
 10
251.8412113231
 20
50.0298917458
 10
251.1775685281
 20
50.0247012151
 10
250.4768857327
 20
49.8948654518
 10
249.7511517396
 20
49.6426073045
 10
249.012784064
 20
49.2722416153
  0
LWPOLYLINE
  5
1D4
330
1F
100
AcDbEntity
  8
0
  6
Continuous
 62
     7
370
    18
100
AcDbPolyline
 90
       20
 70
   128
 43
0.0
 10
248.6592299569
 20
49.8846145298
 10
247.8906360762
 20
49.383932482
 10
247.1346625424
 20
48.7775068849
 10
246.403722261
 20
48.0752959762
 10
245.709817535
 20
47.2888297184
 10
245.0643418428
 20
46.4310216036
 10
244.477894129
 20
45.5159568815
 10
243.9601039607
 20
44.5586608249
 10
243.5194734767
 20
43.5748527348
 10
243.1632374471
 20
42.5806862554
 10
242.8972453935
 20
41.5924856947
 10
242.7258651122
 20
40.6264772099
 10
242.6519105639
 20
39.6985226523
 10
242.6765954463
 20
38.8238587325
 10
242.7995160714
 20
38.0168483509
 10
243.0186520248
 20
37.2907412423
 10
243.3304066656
 20
36.6574612318
 10
243.7296604688
 20
36.1274062287
 10
244.2098572946
 20
35.7092795854
 10
244.4095754046
 20
35.5826019484
  0
ARC
  5
1D5
330
1F
100
AcDbEntity
  8
0
  6
Continuous
 62
     7
370
    18
100
AcDbCircle
 10
251.1688521454
 20
46.3277789121
 30
0.0
 40
4.353077433273872
100
AcDbArc
 50
67.817967813
 51
125.2059226268
  0
LWPOLYLINE
  5
1D6
330
1F
100
AcDbEntity
  8
0
  6
Continuous
 62
     7
370
    18
100
AcDbPolyline
 90
        8
 70
   128
 43
0.0
 10
218.2536386504
 20
53.5573221639
 10
218.3029840489
 20
52.6982648112
 10
218.4502102347
 20
51.910286345
 10
218.6928990324
 20
51.2063247476
 10
219.0270659185
 20
50.5979396188
 10
219.4472239
 20
50.0951201535
 10
219.9464740648
 20
49.7061229646
 10
220.0143920648
 20
49.6656415246
  0
LWPOLYLINE
  5
1D7
330
1F
100
AcDbEntity
  8
0
  6
Continuous
 62
     7
370
    18
100
AcDbPolyline
 90
       20
 70
   128
 43
0.0
 10
228.5137011694
 20
64.3884721308
 10
228.304849047
 20
64.4977337433
 10
227.7027009736
 20
64.7046346302
 10
227.0440902819
 20
64.7854703265
 10
226.3398314252
 20
64.7389130949
 10
225.6014881157
 20
64.5657266858
 10
224.8411841579
 20
64.2687567544
 10
224.07140358
 20
63.8528770768
 10
223.304786156
 20
63.3249182754
 10
222.5539197995
 20
62.6935487311
 10
221.8311337809
 20
61.9691354382
 10
221.1482960599
 20
61.163573394
 10
220.5166188507
 20
60.2900900839
 10
219.9464740648
 20
59.3630275299
 10
219.4472239
 20
58.3976083702
 10
219.0270659185
 20
57.4096848252
 10
218.6928990324
 20
56.4154788222
 10
218.4502102347
 20
55.4313147032
 10
218.3029840489
 20
54.4733525011
 10
218.2536386504
 20
53.5573221639
  0
LWPOLYLINE
  5
1D8
330
1F
100
AcDbEntity
  8
0
  6
Continuous
 62
     7
370
    18
100
AcDbPolyline
 90
       19
 70
   128
 43
0.0
 10
249.012784064
 20
48.2515654332
 10
248.333519482
 20
47.8033334684
 10
247.6680827707
 20
47.252025022
 10
247.030020314
 20
46.6088633266
 10
246.4323212027
 20
45.8869407896
 10
245.8871530343
 20
45.1009539257
 10
245.4056134362
 20
44.2669028785
 10
244.9975055021
 20
43.401767104
 10
244.6711371001
 20
42.523157763
 10
244.4331522858
 20
41.6489610797
 10
244.2883953126
 20
40.7969729046
 10
244.2398131672
 20
39.9845373611
 10
244.2883953126
 20
39.2281935688
 10
244.4331522858
 20
38.5433382375
 10
244.6711371001
 20
37.9439129721
 10
244.9975055021
 20
37.4421205672
 10
245.4056134362
 20
37.0481761839
 10
245.8871530343
 20
36.7700989223
 10
246.3265242165
 20
36.6333029876
  0
LWPOLYLINE
  5
1D9
330
1F
100
AcDbEntity
  8
0
  6
Continuous
 62
     7
370
    18
100
AcDbPolyline
 90
        8
 70
   128
 43
0.0
 10
252.9576303029
 20
48.1199602937
 10
252.6199546917
 20
48.4316534361
 10
252.1384150937
 20
48.7097306977
 10
251.5932469253
 20
48.8662797923
 10
250.995547814
 20
48.8981136242
 10
250.3574853573
 20
48.8045840881
 10
249.6920486459
 20
48.5875956612
 10
249.012784064
 20
48.2515654332
  0
LWPOLYLINE
  5
1DA
330
1F
100
AcDbEntity
  8
0
  6
Continuous
 62
     7
370
    18
100
AcDbPolyline
 90
       37
 70
   128
 43
0.0
 10
212.075293273
 20
51.6234557878
 10
212.1240808844
 20
52.8343114615
 10
212.2700031521
 20
54.0905310391
 10
212.5117377188
 20
55.3807376446
 10
212.8470955826
 20
56.6932472563
 10
213.2730401947
 20
58.0161735537
 10
213.7857131429
 20
59.3375354258
 10
214.3804723469
 20
60.6453662839
 10
215.0519315713
 20
61.9278235646
 10
215.7940098159
 20
63.1732917678
 10
216.5999866342
 20
64.3704927187
 10
217.462563048
 20
65.508583852
 10
218.3739274024
 20
66.5772578261
 10
219.3258261591
 20
67.5668381451
 10
220.3096388058
 20
68.4683611861
 10
221.3164558939
 20
69.2736638358
 10
222.3371595866
 20
69.9754528037
 10
223.3625060592
 20
70.5673727229
 10
224.3832097519
 20
71.044063154
 10
225.39002684
 20
71.4012067709
 10
226.3738394867
 20
71.6355696338
 10
227.3257382434
 20
71.7450282256
 10
228.2371025978
 20
71.7285931375
 10
229.0996790117
 20
71.5864115331
 10
229.9056558299
 20
71.319771609
 10
230.6477340746
 20
70.9310887099
 10
231.3191932989
 20
70.4238817479
 10
231.9139525029
 20
69.8027452501
 10
232.4266254511
 20
69.0733029646
 10
232.8525700632
 20
68.2421618484
 10
233.187927927
 20
67.3168481846
 10
233.4296624937
 20
66.305742369
 10
233.5755847615
 20
65.2180010555
 10
233.6243723728
 20
64.0634743589
 10
233.5755847615
 20
62.8526186852
 10
233.4296624937
 20
61.5963991076
 10
233.423200855
 20
61.5542784348
  0
LWPOLYLINE
  5
1DB
330
1F
100
AcDbEntity
  8
0
  6
Continuous
 62
     7
370
    18
100
AcDbPolyline
 90
       20
 70
   128
 43
0.0
 10
224.9238915858
 20
46.8314479236
 10
224.3832097519
 20
46.4132663109
 10
223.3625060592
 20
45.711477343
 10
222.3371595866
 20
45.1195574238
 10
221.3164558939
 20
44.6428669927
 10
220.3096388058
 20
44.2857233758
 10
219.3258261591
 20
44.0513605129
 10
218.3739274024
 20
43.9419019211
 10
217.462563048
 20
43.9583370092
 10
216.5999866342
 20
44.1005186136
 10
215.7940098159
 20
44.3671585377
 10
215.0519315713
 20
44.7558414368
 10
214.3804723469
 20
45.2630483988
 10
213.7857131429
 20
45.8841848966
 10
213.2730401947
 20
46.6136271821
 10
212.8470955826
 20
47.4447682983
 10
212.5117377188
 20
48.3700819621
 10
212.2700031521
 20
49.3811877777
 10
212.1240808844
 20
50.4689290912
 10
212.075293273
 20
51.6234557878
  0
LWPOLYLINE
  5
1DC
330
1F
100
AcDbEntity
  8
0
  6
Continuous
 62
     7
370
    18
100
AcDbPolyline
 90
       31
 70
   128
 43
0.0
 10
213.2355933784
 20
45.5761077896
 10
212.8672384834
 20
46.0473719294
 10
212.3882553552
 20
46.8377420021
 10
211.9976726075
 20
47.7261491198
 10
211.6989074278
 20
48.7048238828
 10
211.4945722623
 20
49.765206656
 10
211.386453742
 20
50.898023997
 10
211.3754968785
 20
52.0933680314
 10
211.4617984777
 20
53.3407853321
 10
211.6446038477
 20
54.6293666545
 10
211.9223140424
 20
55.9478425638
 10
212.292499691
 20
57.2846814386
 10
212.7519240474
 20
58.6281922261
 10
213.2965686729
 20
59.9666253912
 10
213.9216703151
 20
61.288274435
 10
214.6217630547
 20
62.5815823553
 10
215.3907224276
 20
63.8352370808
 10
216.2218246944
 20
65.0382748884
 10
217.1078014995
 20
66.1801750759
 10
218.0409034203
 20
67.2509498803
 10
219.0129704318
 20
68.2412353472
 10
220.0155012184
 20
69.1423716475
 10
221.0397279184
 20
69.9464758852
 10
222.0766930506
 20
70.6465176846
 10
223.1173277575
 20
71.236373485
 10
224.152530995
 20
71.7108844235
 10
225.1732492992
 20
72.0659016224
 10
226.1705560168
 20
72.2983197611
 10
227.1357287258
 20
72.4061065605
 10
228.0603265321
 20
72.3883185079
 10
228.6723224801
 20
72.3024937962
  0
LWPOLYLINE
  5
1DD
330
1F
100
AcDbEntity
  8
0
  6
Continuous
 62
     7
370
    18
100
AcDbPolyline
 90
       28
 70
   128
 43
0.0
 10
215.4252117205
 20
53.5573225441
 10
215.4736074979
 20
54.5625865415
 10
215.6181632858
 20
55.610621546
 10
215.8569949883
 20
56.6877651631
 10
216.1869896656
 20
57.7799756423
 10
216.6038437293
 20
58.8730129596
 10
217.1021248459
 20
59.9526292115
 10
217.6753354858
 20
61.0047490299
 10
218.3160034738
 20
62.0156564566
 10
219.0157771485
 20
62.9721734533
 10
219.7655336929
 20
63.8618292846
 10
220.55549866
 20
64.6730268581
 10
221.3753738954
 20
65.3951907172
 10
222.2144708103
 20
66.0189063362
 10
223.0618506922
 20
66.5360421849
 10
223.9064665805
 20
66.9398574874
 10
224.7373076521
 20
67.2250870953
 10
225.5435426198
 20
67.3880136226
 10
226.3146610309
 20
67.4265117539
 10
227.0406098742
 20
67.3400799566
 10
227.7119258651
 20
67.1298453642
 10
228.3198566178
 20
66.7985489358
 10
228.8564778663
 20
66.3505093234
 10
229.3147925752
 20
65.7915667781
 10
229.6888267579
 20
65.1290088058
 10
229.973704551
 20
64.3714730116
 10
230.1657117634
 20
63.5288345448
 10
230.1819448855
 20
63.4254155817
  0
LWPOLYLINE
  5
1DE
330
1F
100
AcDbEntity
  8
0
  6
Continuous
 62
     7
370
    18
100
AcDbPolyline
 90
       14
 70
   128
 43
0.0
 10
221.6826356986
 20
48.702585118
 10
221.3753738954
 20
48.5893653879
 10
220.55549866
 20
48.3649214492
 10
219.7655336929
 20
48.2640448857
 10
219.0157771485
 20
48.2880502369
 10
218.3160034738
 20
48.4366257463
 10
217.6753354858
 20
48.7078336589
 10
217.1021248459
 20
49.0981385596
 10
216.6038437293
 20
49.6024516801
 10
216.1869896656
 20
50.2141995399
 10
215.8569949883
 20
50.9254062746
 10
215.6181632858
 20
51.7268006773
 10
215.4736074979
 20
52.6079351218
 10
215.4252117205
 20
53.5573225441
  0
ARC
  5
1DF
330
1F
100
AcDbEntity
  8
0
  6
Continuous
 62
     7
370
    18
100
AcDbCircle
 10
223.3838005349
 20
54.9301458691
 30
0.0
 40
17.95572678150228
100
AcDbArc
 50
167.4561534803
 51
179.6099872796
  0
LWPOLYLINE
  5
1E0
330
1F
100
AcDbEntity
  8
0
  6
Continuous
 62
     7
370
    18
100
AcDbPolyline
 90
       11
 70
   128
 43
0.0
 10
216.4983994606
 20
74.2930271539
 10
216.8174538718
 20
74.4738581827
 10
217.8580724031
 20
74.9899367029
 10
218.8872534158
 20
75.387257896
 10
219.8959522948
 20
75.6623312304
 10
220.8753051135
 20
75.8127393135
 10
221.8167043659
 20
75.8371587969
 10
222.711877745
 20
75.7353769569
 10
223.5529582782
 20
75.5082865546
 10
224.3325538035
 20
75.1578848789
 10
224.4246933998
 20
75.1059252107
  0
LWPOLYLINE
  5
1E1
330
1F
100
AcDbEntity
  8
0
  6
Continuous
 62
     7
370
    18
100
AcDbPolyline
 90
       10
 70
   128
 43
0.0
 10
208.6884720852
 20
47.8470368169
 10
208.4160341979
 20
48.0155995887
 10
207.7413250565
 20
48.5448644619
 10
207.1440851153
 20
49.1877728649
 10
206.6295623155
 20
49.938674446
 10
206.2022782239
 20
50.7909706249
 10
205.8659885196
 20
51.7371720104
 10
205.6236480919
 20
52.7689624735
 10
205.4773866738
 20
53.8772750054
 10
205.4284897441
 20
55.0523696669
  0
LWPOLYLINE
  5
1E2
330
1F
100
AcDbEntity
  8
0
  6
Continuous
 62
     7
370
    18
100
AcDbPolyline
 90
       13
 70
   128
 43
0.0
 10
210.0525711826
 20
51.7167330392
 10
210.0163571615
 20
51.8981406774
 10
209.8719765465
 20
52.9692140206
 10
209.8307733923
 20
54.1108570393
 10
209.8931810211
 20
55.3110556982
 10
210.0585422056
 20
56.5571797328
 10
210.3251177297
 20
57.836116609
 10
210.6901021939
 20
59.1344073474
 10
211.1496543079
 20
60.4383900224
 10
211.6989383794
 20
61.7343421544
 10
212.3321737049
 20
63.0086261445
 10
213.0426971309
 20
64.2478326153
 10
213.8230322016
 20
65.4389214703
  0
LWPOLYLINE
  5
1E3
330
1F
100
AcDbEntity
  8
0
  6
Continuous
 62
     7
370
    18
100
AcDbPolyline
 90
       16
 70
   128
 43
0.0
 10
210.5643669495
 20
48.7868053382
 10
210.0953449655
 20
49.5336326525
 10
209.7048458529
 20
50.4059730826
 10
209.4119917688
 20
51.3744875068
 10
209.2197553829
 20
52.4293434312
 10
209.1300886212
 20
53.5598322145
 10
209.1439015923
 20
54.7544770555
 10
209.2610540261
 20
56.001149915
 10
209.4803565912
 20
57.2871943305
 10
209.7995834073
 20
58.5995548842
 10
210.2154931182
 20
59.9249083801
 10
210.7238637951
 20
61.2497995839
 10
211.3195337662
 20
62.5607779125
 10
211.9964569343
 20
63.8445354522
 10
212.7477600705
 20
65.0880377537
 10
213.5658172292
 20
66.2786633694
  0
ARC
  5
1E4
330
1F
100
AcDbEntity
  8
0
  6
Continuous
 62
     7
370
    18
100
AcDbCircle
 10
226.6489458344
 20
58.495791269
 30
0.0
 40
14.35349360837113
100
AcDbArc
 50
109.931969941
 51
139.4246766989
  0
LWPOLYLINE
  5
1E5
330
1F
100
AcDbEntity
  8
0
  6
Continuous
 62
     7
370
    18
100
AcDbPolyline
 90
       12
 70
   128
 43
0.0
 10
214.9100102907
 20
67.9508268866
 10
215.8223548886
 20
68.9215624641
 10
216.7676833468
 20
69.8071048516
 10
217.7370885214
 20
70.5991105159
 10
218.7214370175
 20
71.2901174875
 10
219.7114546353
 20
71.8736159812
 10
220.6978136678
 20
72.344107157
 10
221.6712207351
 20
72.6971583884
 10
222.6225049051
 20
72.9294442474
 10
223.5427029756
 20
73.0387752043
 10
224.4231457019
 20
73.0241223107
 10
224.548973801
 20
73.0114799757
  0
LINE
  5
1E6
330
1F
100
AcDbEntity
  8
0
  6
Continuous
 62
     7
370
    18
100
AcDbLine
 10
200.9421255306
 20
65.4249772656
 30
0.0
 11
201.2482894578
 21
65.0542422097
 31
0.0
  0
LINE
  5
1E7
330
1F
100
AcDbEntity
  8
0
  6
Continuous
 62
     7
370
    18
100
AcDbLine
 10
200.9421255306
 20
57.6608671179
 30
0.0
 11
201.2482894578
 21
58.3484005865
 31
0.0
  0
LINE
  5
1E8
330
1F
100
AcDbEntity
  8
0
  6
Continuous
 62
     7
370
    18
100
AcDbLine
 10
201.9841997746
 20
58.7732325696
 30
0.0
 11
201.2482967018
 21
58.3484047683
 31
0.0
  0
LINE
  5
1E9
330
1F
100
AcDbEntity
  8
0
  6
Continuous
 62
     7
370
    18
100
AcDbLine
 10
201.9176242176
 20
59.5164585373
 30
0.0
 11
200.6083527835
 21
58.7606322266
 31
0.0
  0
LINE
  5
1EA
330
1F
100
AcDbEntity
  8
0
  6
Continuous
 62
     7
370
    18
100
AcDbLine
 10
197.4312739519
 20
60.3350411863
 30
0.0
 11
197.1347866777
 21
59.8389795684
 31
0.0
  0
LINE
  5
1EB
330
1F
100
AcDbEntity
  8
0
  6
Continuous
 62
     7
370
    18
100
AcDbLine
 10
199.2630915627
 20
61.3925269838
 30
0.0
 11
197.431334538
 21
60.3350761619
 31
0.0
  0
LINE
  5
1EC
330
1F
100
AcDbEntity
  8
0
  6
Continuous
 62
     7
370
    18
100
AcDbLine
 10
199.2630915627
 20
61.3925269838
 30
0.0
 11
199.3844017173
 21
61.3307764705
 31
0.0
  0
OLE2FRAME
  5
1ED
330
1F
100
AcDbEntity
  8
0
100
AcDbOle2Frame
 70
     2
  3
Paintbrush-Bild
 10
13.8511154363
 20
38.264191557
 30
0.0
 11
51.6290888628
 21
31.9806341108
 31
0.0
 71
     2
 72
     0
 73
     1
 90
    12928
310
80552BED0767C5B32B40DDAF6807D121434000000000000000006FFBDDFB85D0
310
4940DDAF6807D121434000000000000000006FFBDDFB85D04940416F4BD60AFB
310
3F4000000000000000002BED0767C5B32B40416F4BD60AFB3F40000000000000
310
0000000000000100000000010000010000000100000000000100000000320000
310
D0CF11E0A1B11AE1000000000000000000000000000000003E000300FEFF0900
310
0600000000000000000000000100000001000000000000000010000002000000
310
01000000FEFFFFFF0000000000000000FFFFFFFFFFFFFFFFFFFFFFFFFFFFFFFF
310
FFFFFFFFFFFFFFFFFFFFFFFFFFFFFFFFFFFFFFFFFFFFFFFFFFFFFFFFFFFFFFFF
310
FFFFFFFFFFFFFFFFFFFFFFFFFFFFFFFFFFFFFFFFFFFFFFFFFFFFFFFFFFFFFFFF
310
FFFFFFFFFFFFFFFFFFFFFFFFFFFFFFFFFFFFFFFFFFFFFFFFFFFFFFFFFFFFFFFF
310
FFFFFFFFFFFFFFFFFFFFFFFFFFFFFFFFFFFFFFFFFFFFFFFFFFFFFFFFFFFFFFFF
310
FFFFFFFFFFFFFFFFFFFFFFFFFFFFFFFFFFFFFFFFFFFFFFFFFFFFFFFFFFFFFFFF
310
FFFFFFFFFFFFFFFFFFFFFFFFFFFFFFFFFFFFFFFFFFFFFFFFFFFFFFFFFFFFFFFF
310
FFFFFFFFFFFFFFFFFFFFFFFFFFFFFFFFFFFFFFFFFFFFFFFFFFFFFFFFFFFFFFFF
310
FFFFFFFFFFFFFFFFFFFFFFFFFFFFFFFFFFFFFFFFFFFFFFFFFFFFFFFFFFFFFFFF
310
FFFFFFFFFFFFFFFFFFFFFFFFFFFFFFFFFFFFFFFFFFFFFFFFFFFFFFFFFFFFFFFF
310
FFFFFFFFFFFFFFFFFFFFFFFFFFFFFFFFFFFFFFFFFFFFFFFFFFFFFFFFFFFFFFFF
310
FFFFFFFFFFFFFFFFFFFFFFFFFFFFFFFFFFFFFFFFFFFFFFFFFFFFFFFFFFFFFFFF
310
FFFFFFFFFFFFFFFFFFFFFFFFFFFFFFFFFFFFFFFFFFFFFFFFFFFFFFFFFFFFFFFF
310
FFFFFFFFFFFFFFFFFFFFFFFFFFFFFFFFFFFFFFFFFFFFFFFFFFFFFFFFFFFFFFFF
310
FDFFFFFFFEFFFFFFFEFFFFFFFEFFFFFF05000000060000000700000008000000
310
090000000A0000000B0000000C0000000D0000000E0000000F00000010000000
310
11000000120000001300000014000000150000001600000017000000FEFFFFFF
310
FFFFFFFFFFFFFFFFFFFFFFFFFFFFFFFFFFFFFFFFFFFFFFFFFFFFFFFFFFFFFFFF
310
FFFFFFFFFFFFFFFFFFFFFFFFFFFFFFFFFFFFFFFFFFFFFFFFFFFFFFFFFFFFFFFF
310
FFFFFFFFFFFFFFFFFFFFFFFFFFFFFFFFFFFFFFFFFFFFFFFFFFFFFFFFFFFFFFFF
310
FFFFFFFFFFFFFFFFFFFFFFFFFFFFFFFFFFFFFFFFFFFFFFFFFFFFFFFFFFFFFFFF
310
FFFFFFFFFFFFFFFFFFFFFFFFFFFFFFFFFFFFFFFFFFFFFFFFFFFFFFFFFFFFFFFF
310
FFFFFFFFFFFFFFFFFFFFFFFFFFFFFFFFFFFFFFFFFFFFFFFFFFFFFFFFFFFFFFFF
310
FFFFFFFFFFFFFFFFFFFFFFFFFFFFFFFFFFFFFFFFFFFFFFFFFFFFFFFFFFFFFFFF
310
FFFFFFFFFFFFFFFFFFFFFFFFFFFFFFFFFFFFFFFFFFFFFFFFFFFFFFFFFFFFFFFF
310
FFFFFFFFFFFFFFFFFFFFFFFFFFFFFFFFFFFFFFFFFFFFFFFFFFFFFFFFFFFFFFFF
310
FFFFFFFFFFFFFFFFFFFFFFFFFFFFFFFFFFFFFFFFFFFFFFFFFFFFFFFFFFFFFFFF
310
FFFFFFFFFFFFFFFFFFFFFFFFFFFFFFFFFFFFFFFFFFFFFFFFFFFFFFFFFFFFFFFF
310
FFFFFFFFFFFFFFFFFFFFFFFFFFFFFFFFFFFFFFFFFFFFFFFFFFFFFFFFFFFFFFFF
310
FFFFFFFFFFFFFFFFFFFFFFFFFFFFFFFFFFFFFFFFFFFFFFFFFFFFFFFFFFFFFFFF
310
52006F006F007400200045006E00740072007900000000000000000000000000
310
0000000000000000000000000000000000000000000000000000000000000000
310
16000500FFFFFFFFFFFFFFFF020000000A00030000000000C000000000000046
310
0000000000000000000000004094D97924A7D30103000000C000000000000000
310
01004F006C006500000000000000000000000000000000000000000000000000
310
0000000000000000000000000000000000000000000000000000000000000000
310
0A000200FFFFFFFFFFFFFFFFFFFFFFFF00000000000000000000000000000000
310
0000000000000000000000000000000000000000000000001400000000000000
310
010043006F006D0070004F0062006A0000000000000000000000000000000000
310
0000000000000000000000000000000000000000000000000000000000000000
310
120002010100000003000000FFFFFFFF00000000000000000000000000000000
310
0000000000000000000000000000000000000000010000004D00000000000000
310
01004F006C006500310030004E00610074006900760065000000000000000000
310
0000000000000000000000000000000000000000000000000000000000000000
310
1A000200FFFFFFFFFFFFFFFFFFFFFFFF00000000000000000000000000000000
310
0000000000000000000000000000000000000000040000002426000000000000
310
FEFFFFFF02000000FEFFFFFFFFFFFFFFFFFFFFFFFFFFFFFFFFFFFFFFFFFFFFFF
310
FFFFFFFFFFFFFFFFFFFFFFFFFFFFFFFFFFFFFFFFFFFFFFFFFFFFFFFFFFFFFFFF
310
FFFFFFFFFFFFFFFFFFFFFFFFFFFFFFFFFFFFFFFFFFFFFFFFFFFFFFFFFFFFFFFF
310
FFFFFFFFFFFFFFFFFFFFFFFFFFFFFFFFFFFFFFFFFFFFFFFFFFFFFFFFFFFFFFFF
310
FFFFFFFFFFFFFFFFFFFFFFFFFFFFFFFFFFFFFFFFFFFFFFFFFFFFFFFFFFFFFFFF
310
FFFFFFFFFFFFFFFFFFFFFFFFFFFFFFFFFFFFFFFFFFFFFFFFFFFFFFFFFFFFFFFF
310
FFFFFFFFFFFFFFFFFFFFFFFFFFFFFFFFFFFFFFFFFFFFFFFFFFFFFFFFFFFFFFFF
310
FFFFFFFFFFFFFFFFFFFFFFFFFFFFFFFFFFFFFFFFFFFFFFFFFFFFFFFFFFFFFFFF
310
FFFFFFFFFFFFFFFFFFFFFFFFFFFFFFFFFFFFFFFFFFFFFFFFFFFFFFFFFFFFFFFF
310
FFFFFFFFFFFFFFFFFFFFFFFFFFFFFFFFFFFFFFFFFFFFFFFFFFFFFFFFFFFFFFFF
310
FFFFFFFFFFFFFFFFFFFFFFFFFFFFFFFFFFFFFFFFFFFFFFFFFFFFFFFFFFFFFFFF
310
FFFFFFFFFFFFFFFFFFFFFFFFFFFFFFFFFFFFFFFFFFFFFFFFFFFFFFFFFFFFFFFF
310
FFFFFFFFFFFFFFFFFFFFFFFFFFFFFFFFFFFFFFFFFFFFFFFFFFFFFFFFFFFFFFFF
310
FFFFFFFFFFFFFFFFFFFFFFFFFFFFFFFFFFFFFFFFFFFFFFFFFFFFFFFFFFFFFFFF
310
FFFFFFFFFFFFFFFFFFFFFFFFFFFFFFFFFFFFFFFFFFFFFFFFFFFFFFFFFFFFFFFF
310
FFFFFFFFFFFFFFFFFFFFFFFFFFFFFFFFFFFFFFFFFFFFFFFFFFFFFFFFFFFFFFFF
310
0100000200000000000000000000000000000000000000000000000000000000
310
0000000000000000000000000000000000000000000000000000000000000000
310
0100FEFF030A0000FFFFFFFF0A00030000000000C00000000000004607000000
310
5042727573680007000000504272757368000700000050427275736800F439B2
310
7100000000000000000000000000000000000000000000000000000000000000
310
0000000000000000000000000000000000000000000000000000000000000000
310
0000000000000000000000000000000000000000000000000000000000000000
310
0000000000000000000000000000000000000000000000000000000000000000
310
0000000000000000000000000000000000000000000000000000000000000000
310
0000000000000000000000000000000000000000000000000000000000000000
310
0000000000000000000000000000000000000000000000000000000000000000
310
0000000000000000000000000000000000000000000000000000000000000000
310
0000000000000000000000000000000000000000000000000000000000000000
310
0000000000000000000000000000000000000000000000000000000000000000
310
0000000000000000000000000000000000000000000000000000000000000000
310
0000000000000000000000000000000000000000000000000000000000000000
310
20260000424D0E260000000000003E00000028000000B40200006E0000000100
310
01000000000000000000130B0000130B00000200000002000000000000FFFFFF
310
FFFFFFFFFFFFFFFFFFFFFFFFFFFFFFFFFFFFFFFFFFFFFFFFFFFFFFFFFFFFFFFF
310
FFFFFFFFFFFFFFFFFFFFFFFFFFFFFFFFFFFFFFFFFFFFFFFFFFFFFFFFFFFFFFFF
310
FFFFFFFFFFFFFFFFFFFFFFFFFFFFFFFFFFFFFFFFFFFFFFFFF000FFFFFFFFFFFF
310
FFFFFFFFFFFFFFFFFFFFFFFFFFFFFFFFFFFFFFFFFFFFFFFFFFFFFFFFFFFFFFFF
310
FFFFFFFFFFFFFFFFFFFFFFFFFFFFFFFFFFFFFFFFFFFFFFFFFFFFFFFFFFFFFFFF
310
FFFFFFFFFFFFFFFFFFFFFFFFFFFFFFFFF000FFFFFFFFFFFFFFFFFFFFFFFFFFFF
310
FFFFFFFFFFFFFFFFFFFFFFFFFFFFFFFFFFFFFFFFFFFFFFFFFFFFFFFFFFFFFFFF
310
FFFFFFFFFFFFFFFFFFFFFFFFFFFFFFFFFFFFFFFFFFFFFFFFFFFFFFFFFFFFFFFF
310
FFFFFFFFFFFFFFFFF000FFFFFFFFFFFFFFFFFFFFFFFFFFFFFFFFFFFFFFFFFFFF
310
FFFFFFFFFFFFFFFFFFFFFFFFFFFFFFFFFFFFFFFFFFFFFFFFFFFFFFFFFFFFFFFF
310
FFFFFFFFFFFFFFFFFFFFFFFFFFFFFFFFFFFFFFFFFFFFFFFFFFFFFFFFFFFFFFFF
310
F000FFFFFFFFFFFFFFFFFFFFFFFFFFFFFFFFFFFFFFFFFFFFFFFFFFFFFFFFFFFF
310
FFFFFFFFFFFFFFFFFFFFFFFFFFFFFFFFFFFFFFFFFFFFFFFFFFFFFFFFFFFFFFFF
310
FFFFFFFFFFFFFFFFFFFFFFFFFFFFFFFFFFFFFFFFFFFFFFFFF000FFFFFFFFFFFF
310
FFFFFFFFFFFFFFFFFFFFFFFFFFFFFFFFFFFFFFFFFFFFFFFFFFFFFFFFFFFFFFFF
310
FFFFFFFFFFFFFFFFFFFFFFFFFFFFFFFFFFFFFFFFFFFFFFFFFFFFFFFFFFFFFFFF
310
FFFFFFFFFFFFFFFFFFFFFFFFFFFFFFFFF000FFFFFFFFFFFFFFFFFFFFFFFFFFFF
310
FFFFFFFFFFFFFFFFFFFFFFFFFFFFFFFFFFFFFFFFFFFFFFFFFFFFFFFFFFFFFFFF
310
FFFFFFFFFFFFFFFFFFFFFFFFFFFFFFFFFFFFFFFFFFFFFFFFFFFFFFFFFFFFFFFF
310
FFFFFFFFFFFFFFFFF000FFFFFFFFFFFFFFFFFFFFFFFFFFFFFFFFFFFFFFFFFFFF
310
FFFFFFFFFFFFFFFFFFFFFFFFFFFFFFFFFFFFFFFFFFFFFFFFFFFFFFFFFFFFFFFF
310
FFFFFFFFFFFFFFFFFFFFFFFFFFFFFFFFFFFFFFFFFFFFFFFFFFFFFFFFFFFFFFFF
310
F000FFFFFFFFFFFFFFFFFFFFFFFFFFFFFFFFFFFFFFFFFFFFFFFFFFFFFFFFFFFF
310
FFFFFFFFFFFFFFFFFFFFFFFFFFFFFFFFFFFFFFFFFFFFFFFFFFFFFFFFFFFFFFFF
310
FFFFFFFFFFFFFFFFFFFFFFFFFFFFFFFFFFFFFFFFFFFFFFFFF000FFFFFFFFFFFF
310
FFFFFFFFFFFFFFFFFFFFFFFFFFFFFFFFFFFFFFFFFFFFFFFFFFFFFFFFFFFFFFFF
310
FFFFFFFFFFFFFFFFFFFFFFFFFFFFFFFFFFFFFFFFFFFFFFFFFFFFFFFFFFFFFFFF
310
FFFFFFFFFFFFFFFFFFFFFFFFFFFFFFFFF000FFFFFFFFFFFFFFFFFFFFFFFFFFFF
310
FFFFFFFFFFFFFFFFFFFFFFFFFFFFFFFFFFFFFFFFFFFFFFFFFFFFFFFFFFFFFFFF
310
FFFFFFFFFFFFFFFFFFFFFFFFFFFFFFFFFFFFFFFFFFFFFFFFFFFFFFFFFFFFFFFF
310
FFFFFFFFFFFFFFFFF000FFFFFFFFFFFFFFFFFFFFFFFFFFFFFFFFFFFFFFFFFFFF
310
FFFFFFFFFFFFFFFFFFFFFFFFFFFFFFFFFFFFFFFFFFFFFFFFFFFFFFFFFFFFFFFF
310
FFFFFFFFFFFFFFFFFFFFFFFFFFFFFFFFFFFFFFFFFFFFFFFFFFFFFFFFFFFFFFFF
310
F000FFFFFFFFFFFFFFFFFFFFFFFFFFFFFFFFFFFFFFFFFFFFFFFFFFFFFFFFFFFF
310
FFFFFFFFFFFFFFFFFFFFFFFFFFFFFFFFFFFFFFFFFFFFFFFFFFFFFFFFFFFFFFFF
310
FFFFFFFFFFFFFFFFFFFFFFFFFFFFFFFFFFFFFFFFFFFFFFFFF000FFFFFFFFFFFF
310
FFFFFFFFFFFFFFFFFFFFFFFFFFFFFFFFFFFFFFFFFFFFFFFFFFFFFFFFFFFFFFFF
310
FFFFFFFFFFFFFFFFFFFFFFFFFFFFFFFFFFFFFFFFFFFFFFFFFFFFFFFFFFFFFFFF
310
FFFFFFFFFFFFFFFFFFFFFFFFFFFFFFFFF000FFFFFFFFFFFFFFFFFFFFFFFFFFFF
310
FFFFFFFFFFFFFFFFFFFFFFFFFFFFFFFFFFFFFFFFFFFFFFFFFFFFFFFFFFFFFFFF
310
FFFFFFFFFFFFFFFFFFFFFFFFFFFFFFFFFFFFFFFFFFFFFFFFFFFFFFFFFFFFFFFF
310
FFFFFFFFFFFFFFFFF000FFFFFFFFFFFFFFFFFFFFFFFFFFFFFFFFFFFFFFFFFFFF
310
FFFFFFFFFFFFFFFFFFFFFFFFFFFFFFFFFFFFFFFFFFFFFFFFFFFFFFFFFFFFFFFF
310
FFFFFFFFFFFFFFFFFFFFFFFFFFFFFFFFFFFFFFFFFFFFFFFFFFFFFFFFFFFFFFFF
310
F000FFFFFFFFFFFFFFFFFFFFFFFFFFFFFFFFFFFFFFFFFFFFFFFFFFFFFFFFFFFF
310
FFFFFFFFFFFFFFFFFFFFFFFFFFFFFFFFFFFFFFFFFFFFFFFFFFFFFFFFFFFFFFFF
310
FFFFFFFFFFFFFFFFFFFFFFFFFFFFFFFFFFFFFFFFFFFFFFFFF000FFFFFFFFFFFF
310
FFFFFFFFFFFFFFFFFFFFFFFFFFFFFFFFFFFFFFFFFFFFFFFFFFFFFFFFFFFFFFFF
310
FFFFFFFFFFFFFFFFFFFFFFFFFFFFFFFFFFFFFFFFFFFFFFFFFFFFFFFFFFFFFFFF
310
FFFFFFFFFFFFFFFFFFFFFFFFFFFFFFFFF000FFFFFFFFFFFFFFFFFFFFFFFFFFFF
310
FFFFFFFFFFFFFFFFFFFFFFFFFFFFFFFFFFFFFFFFFFFFFFFFFFFFFFFFFFFFFFFF
310
FFFFFFFFFFFFFFFFFFFFFFFFFFFFFFFFFFFFFFFFFFFFFFFFFFFFFFFFFFFFFFFF
310
FFFFFFFFFFFFFFFFF000FFFFF80003FFFFFFFFFFFFFFFFFFFFFFFFFFFFFFFFFF
310
FFFFF00007FFFFFFFFFF00007FFFFFF800000000000000007FFFFFFFFFFFFFFF
310
FFFFFFFC001FFFFFFFFFFFFFFC001FFFFFFFFFFFFFFFFFFFFFFFFFFE0007FFFF
310
F000FFFF8000007FFFFFFFF8000FFFFFC0007FFFFF80007FFFFF0000007FFFFF
310
FFF8000007FFFFF800000000000000007FFFFFF0001FFFFFFFFFFFC00001FFFF
310
FFFFFFFFC00001FFFFFFFF000000000003FFFFE000007FFFF000FFFE0000000F
310
FFFFFFF0000FFFFF80007FFFFF80007FFFFC0000001FFFFFFFC0000001FFFFF8
310
00000000000000007FFFFFF0001FFFFFFFFFFE0000003FFFFFFFFFFE0000003F
310
FFFFFF000000000003FFFF0000000FFFF000FFF800000003FFFFFFF00007FFFF
310
80007FFFFF80007FFFF000000007FFFFFF000000003FFFF80000000000000000
310
7FFFFFF0001FFFFFFFFFF80000000FFFFFFFFFF80000000FFFFFFF0000000000
310
03FFFC00000003FFF000FFE000000000FFFFFFF00007FFFF80003FFFFF80007F
310
FFC000000001FFFFFC000000001FFFF800000000000000007FFFFFF0001FFFFF
310
FFFFE000000003FFFFFFFFE000000003FFFFFF000000000003FFF000000000FF
310
F000FF80000000007FFFFFF00007FFFF80003FFFFF80007FFF8000000000FFFF
310
F80000000007FFF800000000000000007FFFFFF0001FFFFFFFFFC000000001FF
310
FFFFFFC000000001FFFFFF000000000003FFC0000000007FF000FF0000000000
310
3FFFFFE00007FFFF00003FFFFF80007FFE00000000003FFFF00000000003FFF8
310
00000000000000007FFFFFF0001FFFFFFFFF8000000000FFFFFFFF8000000000
310
FFFFFF000000000003FF80000000003FF000FE00000000001FFFFFE00003FFFF
310
00003FFFFF80007FFC00000000001FFFE00000000001FFF8000001FFFE000000
310
7FFFFFF0001FFFFFFFFE00000000003FFFFFFE00000000003FFFFF0000000000
310
03FF00000000001FF000FC00000000000FFFFFE00003FFFF00001FFFFF80007F
310
F800000000001FFFC00000000000FFF8000001FFFE0000007FFFFFF0001FFFFF
310
FFFC00000000001FFFFFFC00000000001FFFFF000000000003FE00000000000F
310
F000F8000000000007FFFFE00003FFFF00001FFFFF80007FF800000000000FFF
310
800000000000FFF8000001FFFE0000007FFFFFF0001FFFFFFFF800000000000F
310
FFFFF800000000000FFFFF000000000003FC000000000007F000F80000000000
310
03FFFFC00003FFFE00001FFFFF80007FF0000000000007FF0000000000007FF8
310
000001FFFE0000007FFFFFF0001FFFFFFFF0000000000007FFFFF00000000000
310
07FFFF000000000003F8000000000003F000F0000000000003FFFFC00001FFFE
310
00001FFFFF80007FE0000000000007FE0000000000003FF8000001FFFE000000
310
7FFFFFF0001FFFFFFFF0000000000007FFFFF0000000000007FFFF0000000000
310
03F800001F800003F000E00001FFF00001FFFFC00001FFFE00000FFFFF80007F
310
E00001FFE00003FE00001FFF00003FF8000001FFFE0000007FFFFFF0001FFFFF
310
FFE000003E000003FFFFE000003E000003FFFF000000000003F00001FFF80001
310
F000E00007FFFC0001FFFFC00001FFFE00000FFFFF80007FC0000FFFFC0003FC
310
0000FFFFC0001FF8000001FFFE0000007FFFFFF0001FFFFFFFC00003FFE00001
310
FFFFC00003FFE00001FFFF0001FFFFFFFFF00007FFFE0001F000E0000FFFFF00
310
00FFFF800001FFFC00000FFFFF80007FC0001FFFFE0001FC0001FFFFE0001FF8
310
000001FFFE0000007FFFFFF0001FFFFFFF80000FFFF80000FFFF80000FFFF800
310
00FFFF0003FFFFFFFFE0000FFFFF8000F000C0003FFFFF8000FFFF800000FFFC
310
000007FFFF80007F80003FFFFF0001FC0003FFFFF0001FF8000001FFFE000000
310
7FFFFFF0001FFFFFFF80003FFFFE0000FFFF80003FFFFE0000FFFF0003FFFFFF
310
FFE0003FFFFF8000F000C0003FFFFF8000FFFF800000FFFC000007FFFF80007F
310
80007FFFFF8001F80007FFFFF8000FF8000001FFFE0000007FFFFFF0001FFFFF
310
FF00007FFFFF00007FFF00007FFFFF00007FFF0003FFFFFFFFE0003FFFFFC000
310
F000C0007FFFFFC000FFFF000000FFFC000007FFFF80007F8000FFFFFF8000F8
310
000FFFFFF8000FF8000001FFFE0000007FFFFFF0001FFFFFFF0000FFFFFF8000
310
7FFF0000FFFFFF80007FFF0003FFFFFFFFC0007FFFFFC00070008000FFFFFFC0
310
00FFFF000000FFF8000007FFFF80007F8000FFFFFF8000F8000FFFFFF8000FF8
310
000001FFFE0000007FFFFFF0001FFFFFFE0001FFFFFFC0003FFE0001FFFFFFC0
310
003FFF0003FFFFFFFFC0007FFFFFE00070008000FFFFFFC0007FFF0000007FF8
310
000003FFFF80007F0001FFFFFF8000F8000FFFFFF8000FF8000001FFFE000000
310
7FFFFFF0001FFFFFFE0001FFFFFFC0003FFE0001FFFFFFC0003FFF0003FFFFFF
310
FFC000FFFFFFE00070008000FFFFFFC0007FFF0000007FF8000003FFFF80007F
310
0001FFFFFF8000F8001FFFFFF8000FF8000001FFFE0000007FFFFFF0001FFFFF
310
FE0003FFFFFFE0003FFE0003FFFFFFE0003FFF0003FFFFFFFFC000FFFFFFE000
310
70008000FFFFFFC0007FFE0000007FF8000003FFFF80007F0001FFFFFF8000F0
310
001FFFFFF8000FF8000001FFFE0000007FFFFFF0001FFFFFFC0003FFFFFFE000
310
1FFC0003FFFFFFE0001FFF0003FFFFFFFFC000FFFFFFC00070008000FFFFFF80
310
007FFE0000007FF0000003FFFF80007F0001FFFFFF0000F0001FFFFFF8000FF8
310
000001FFFE0000007FFFFFF0001FFFFFFC0007FFFFFFF0001FFC0007FFFFFFF0
310
001FFF0003FFFFFFFFC000FFFFFFC00070008001FFFFFF0000FFFE0000003FF0
310
000001FFFF80007F0001FFFFFF0000F8001FFFFFF0000FF8000001FFFE000000
310
7FFFFFF0001FFFFFFC0007FFFFFFF0001FFC0007FFFFFFF0001FFF0003FFFFFF
310
FFC001FFFFFF80007000FFFFFFFFFE0000FFFE0008003FF0008001FFFF80007F
310
FFFFFFFFFC0000FFFFFFFFFFE0000FF8000001FFFE0000007FFFFFF0001FFFFF
310
F8000FFFFFFFF8000FF8000FFFFFFFF8000FFF0003FFFFFFFFFFFFFFFFFF0000
310
7000FFFFFFFFFC0000FFFC0008003FF0008001FFFF80007FFFFFFFFFF80001FF
310
FFFFFFFF80000FF8000001FFFE0000007FFFFFF0001FFFFFF8000FFFFFFFF800
310
0FF8000FFFFFFFF8000FFF0003FFFFFFFFFFFFFFFFFE0000F000FFFFFFFFE000
310
00FFFC000C003FE000C001FFFF80007FFFFFFFFFC00001FFFFFFFFFE00001FF8
310
000001FFFE0000007FFFFFF0001FFFFFF8000FFFFFFFF8000FF8000FFFFFFFF8
310
000FFF0003FFFFFFFFFFFFFFFFF00000F000FFFFFFFE000001FFFC000C001FE0
310
00C000FFFF80007FFFFFFFFE000001FFFFFFFFE000001FF80FFFFFFFFFFFFFC0
310
7FFFFFF0001FFFFFF8000FFFFFFFF8000FF8000FFFFFFFF8000FFF0003FFFFFF
310
FFFFFFFFFF800000F000FFFFFFC0000001FFFC001C001FE001C000FFFF80007F
310
FFFFFF80000003FFFFFFF80000001FF80FFFFFFFFFFFFFC07FFFFFF0001FFFFF
310
F8001FFFFFFFFC000FF8001FFFFFFFFC000FFF0003FFFFFFFFFFFFFFF0000001
310
F000FFFFF800000001FFF8001C001FE001C000FFFF80007FFFFFF800000003FF
310
FFFF800000003FF80FFFFFFFFFFFFFC07FFFFFF0001FFFFFF8001FFFFFFFFC00
310
0FF8001FFFFFFFFC000FFF0003FFFFFFFFFFFFFE00000001F000FFFFC0000000
310
03FFF8001E001FC001E000FFFF80007FFFFF8000000007FFFFFC000000003FF8
310
0FFFFFFFFFFFFFC07FFFFFF0001FFFFFF8001FFFFFFFFC000FF8001FFFFFFFFC
310
000FFF0003FFFFFFFFFFFFE000000003F000FFFE0000000007FFF8001E000FC0
310
01E0007FFF80007FFFFE0000000007FFFFE0000000007FF80FFFFFFFFFFFFFC0
310
7FFFFFF0001FFFFFF0001FFFFFFFFC0007F0001FFFFFFFFC0007FF0003FFFFFF
310
FFFFFF0000000003F000FFF80000000007FFF8001E000FC003E0007FFF80007F
310
FFF0000000000FFFFF8000000000FFF80FFFFFFFFFFFFFC07FFFFFF0001FFFFF
310
F0001FFFFFFFFC0007F0001FFFFFFFFC0007FF0003FFFFFFFFFFFC0000000007
310
F000FFE0000000000FFFF0003E000FC003E0007FFF80007FFFC0000000001FFF
310
FE0000000001FFF80FFFFFFFFFFFFFC07FFFFFF0001FFFFFF0001FFFFFFFFC00
310
07F0001FFFFFFFFC0007FF0003FFFFFFFFFFF0000000000FF000FFC000000000
310
1FFFF0003F000F8003F0003FFF80007FFF80000000003FFFF80000000003FFF8
310
0FFFFFFFFFFFFFC07FFFFFF0001FFFFFF0001FFFFFFFFC0007F0001FFFFFFFFC
310
0007FF0003FFFFFFFFFFE0000000001FF000FF00000000007FFFF0003F000780
310
03F0003FFF80007FFF00000000007FFFF00000000007FFF80FFFFFFFFFFFFFC0
310
7FFFFFF0001FFFFFF0001FFFFFFFFC0007F0001FFFFFFFFC0007FF0003FFFFFF
310
FFFF80000000007FF000FE0000000000FFFFE0003F00078007F0003FFF80007F
310
FE0000000001FFFFE0000000001FFFF80FFFFFFFFFFFFFC07FFFFFF0001FFFFF
310
F0001FFFFFFFFC0007F0001FFFFFFFFC0007FF0003FFFFFFFFFF0000000000FF
310
F000FC0000000003FFFFE0007F00078007F0003FFF80007FFC0000000007FFFF
310
C0000000007FFFF80FFFFFFFFFFFFFC07FFFFFF0001FFFFFF8001FFFFFFFFC00
310
0FF8001FFFFFFFFC000FFF0003FFFFFFFFFE0000000003FFF000FC000000000F
310
FFFFE0007F80070007F8001FFF80007FF8000000001FFFFF8000000001FFFFF8
310
0FFFFFFFFFFFFFC07FFFFFF0001FFFFFF8001FFFFFFFFC000FF8001FFFFFFFFC
310
000FFF0003FFFFFFFFFC000000000FFFF000F8000000007FFFFFE0007F800700
310
07F8001FFF80007FF000000000FFFFFF800000000FFFFFF80FFFFFFFFFFFFFC0
310
7FFFFFF0001FFFFFF8000FFFFFFFF8000FF8000FFFFFFFF8000FFF0003FFFFFF
310
FFFC000000007FFFF000F800000007FFFFFFC0007F8003000FF8001FFF80007F
310
F000000007FFFFFF000000007FFFFFF80FFFFFFFFFFFFFC07FFFFFF0001FFFFF
310
F8000FFFFFFFF8000FF8000FFFFFFFF8000FFF0003FFFFFFFFF80000000FFFFF
310
F000F0000000FFFFFFFFC000FF8003000FF8001FFF80007FE0000000FFFFFFFF
310
0000000FFFFFFFF8000001FFFE0000007FFFFFF0001FFFFFF8000FFFFFFFF800
310
0FF8000FFFFFFFF8000FFF0003FFFFFFFFF8000000FFFFFFF000F000000FFFFF
310
FFFFC000FFC002000FF8000FFF80007FE000001FFFFFFFFE000001FFFFFFFFF8
310
000001FFFE0000007FFFFFF0001FFFFFF8000FFFFFFFF8000FF8000FFFFFFFF8
310
000FFF0003FFFFFFFFF000001FFFFFFFF000E00000FFFFFFFFFFC000FFC00200
310
0FFC000FFF80007FE00001FFFFFFFFFE00001FFFFFFFFFF8000001FFFE000000
310
7FFFFFF0001FFFFFFC000FFFFFFFF8001FFC000FFFFFFFF8001FFF0003FFFFFF
310
FFF00001FFFFFFFFF000E00007FFFFFFFFFF8000FFC000001FFC000FFF80007F
310
C0000FFFFFFFFFFE0000FFFFFFFFFFF8000001FFFE0000007FFFFFF0001FFFFF
310
FC0007FFFFFFF0001FFC0007FFFFFFF0001FFF0003FFFFFFFFF00007FFFFFFFF
310
F000E0001FFFFFFFFFFF8000FFC000001FFC000FFF80007FC0003FFFFFFFFFFE
310
0001FFFFFFFFFFF8000001FFFE0000007FFFFFF0001FFFFFFC0007FFFFFFF000
310
1FFC0007FFFFFFF0001FFF0003FFFFFFFFF0001FFFFFFFFFF000E0003FFFFF00
310
03FF8001FFE000001FFC0007FF80007FC0007FFFFF0007FC0003FFFFF0003FF8
310
000001FFFE0000007FFFFFF0001FFFFFFC0003FFFFFFE0001FFC0003FFFFFFE0
310
001FFF0003FFFFFFFFF0003FFFFFFFFFF000E0003FFFFF0001FF8001FFE00000
310
1FFE0007FF80007FC0007FFFFE0003FC0007FFFFE0003FF8000001FFFE000000
310
7FFFFFF0001FFFFFFE0003FFFFFFE0003FFE0003FFFFFFE0003FFF0003FFFFFF
310
FFF0003FFFFF8001F000E0003FFFFF0001FF0001FFE000001FFE0007FF80007F
310
C0007FFFFE0003FC0007FFFFE0003FF8000001FFFE0000007FFFFFF0001FFFFF
310
FE0001FFFFFFC0003FFE0001FFFFFFC0003FFF0003FFFFFFFFF0003FFFFF0001
310
F000E0003FFFFF0003FF0001FFE000003FFE0007FF80007FC0007FFFFE0003FC
310
0007FFFFE0003FF8000001FFFE0000007FFFFFF0001FFFFFFF0001FFFFFFC000
310
7FFF0001FFFFFFC0007FFF0003FFFFFFFFF0003FFFFF0001F000E0003FFFFE00
310
03FF0003FFF000003FFE0003FF80007FC0007FFFFC0003FE0007FFFFE0003FF8
310
000001FFFE0000007FFFFFF0001FFFFFFF0000FFFFFF80007FFF0000FFFFFF80
310
007FFF0003FFFFFFFFF0003FFFFF0001F000E0003FFFFE0003FF0003FFF00000
310
3FFF0003FF80007FC0007FFFFC0007FE0007FFFFC0003FF8000001FFFE000000
310
7FFFFFF0001FFFFFFF80007FFFFF0000FFFF80007FFFFF0000FFFF0003FFFFFF
310
FFF0003FFFFF0003F000E0003FFFFC0003FE0003FFF000003FFF0003FF80007F
310
E0003FFFF80007FE0003FFFFC0007FF8000001FFFE0000007FFFFFF0001FFFFF
310
FF80003FFFFE0000FFFF80003FFFFE0000FFFF0003FFFFFFFFF0001FFFFE0003
310
F000F0001FFFF80003FE0003FFF000007FFF0001FF80007FE0003FFFF00007FE
310
0001FFFF80007FF8000001FFFE0000007FFFFFF0001FFFFFFFC0000FFFF80001
310
FFFFC0000FFFF80001FFFF0003FFFFFFFFF0001FFFFC0003F000F0000FFFF000
310
07FE0007FFF800007FFF0001FF80007FE0001FFFE00007FF0000FFFE00007FF8
310
000001FFFE0000007FFFFFF0001FFFFFFFC00003FFE00001FFFFC00003FFE000
310
01FFFF0003FFFFFFFFF8000FFFF80003F000F00003FFC00007FC0007FFF80000
310
7FFF8001FF80007FF00007FF80000FFF00007FF80000FFF8000001FFFE000000
310
7F80000000000001FFE000003E000003FFFFE000003E000003FFFF0003FFFFFF
310
FFF80003FFE00007F000F800000000000FFC0007FFF800007FFF8001FF80007F
310
F000000000000FFF000000000000FFF8000001FFFE0000007F80000000000001
310
FFF0000000000007FFFFF0000000000007FFFF0003FFFFFFFFFC00007E000007
310
F000F800000000000FFC0007FFF80000FFFF8000FF80007FF800000000001FFF
310
800000000001FFF8000001FFFE0000007F80000000000001FFF800000000000F
310
FFFFF800000000000FFFFF0003FFFFFFFFFC00000000000FF000FC0000000000
310
1FFC0007FFFC0000FFFF8000FF80007FF800000000003FFFC00000000001FFF8
310
000001FFFE0000007F80000000000001FFF800000000000FFFFFF80000000000
310
0FFFFF0003FFFFFFFFFE00000000001FF000FE00000000003FF8000FFFFC0000
310
FFFF8000FF80007FFC00000000003FFFC00000000003FFF8000001FFFE000000
310
7F80000000000001FFFC00000000001FFFFFFC00000000001FFFFF0003FFFFFF
310
FFFF00000000001FF000FF00000000003FF8000FFFFC0000FFFFC000FF80007F
310
FE00000000007FFFE00000000007FFF8000001FFFE0000007F80000000000001
310
FFFE00000000003FFFFFFE00000000003FFFFF0003FFFFFFFFFF80000000003F
310
F000FF80000000007FF8000FFFFC0001FFFFC0007F80007FFF0000000000FFFF
310
F0000000000FFFF800000000000000007F80000000000001FFFF8000000000FF
310
FFFFFF8000000000FFFFFF0003FFFFFFFFFFC0000000007FF000FFC000000000
310
FFF8000FFFFE0001FFFFC0007F80007FFF8000000001FFFFF8000000001FFFF8
310
00000000000000007F80000000000001FFFFC000000001FFFFFFFFC000000001
310
FFFFFF0003FFFFFFFFFFE000000000FFF000FFE000000003FFF0001FFFFE0001
310
FFFFC0007F80007FFFC000000007FFFFFE000000003FFFF80000000000000000
310
7F80000000000001FFFFE000000003FFFFFFFFE000000003FFFFFF0003FFFFFF
310
FFFFF000000003FFF000FFF80000000FFFF0001FFFFE0001FFFFE0007F80007F
310
FFF00000000FFFFFFF00000000FFFFF800000000000000007F80000000000001
310
FFFFF80000000FFFFFFFFFF80000000FFFFFFF0003FFFFFFFFFFFC0000000FFF
310
F000FFFE0000003FFFF0001FFFFE0003FFFFE0003F80007FFFFC0000003FFFFF
310
FFC0000003FFFFF800000000000000007F80000000000001FFFFFE0000003FFF
310
FFFFFFFE0000003FFFFFFF0003FFFFFFFFFFFF0000003FFFF000FFFF800000FF
310
FFF0001FFFFF0003FFFFE0003F80007FFFFF000001FFFFFFFFF800001FFFFFF8
310
00000000000000007F80000000000001FFFFFFC00001FFFFFFFFFFFFC00001FF
310
FFFFFF0003FFFFFFFFFFFFC00000FFFFF000FFFFF8000FFFFFFFFFFFFFFFFFFF
310
FFFFFFFFFFFFFFFFFFFFF0001FFFFFFFFFFF0000FFFFFFF80000000000000000
310
7FFFFFFFFFFFFFFFFFFFFFFC001FFFFFFFFFFFFFFC001FFFFFFFFFFFFFFFFFFF
310
FFFFFFFC001FFFFFF000FFFFFFFFFFFFFFFFFFFFFFFFFFFFFFFFFFFFFFFFFFFF
310
FFFFFFFFFFFFFFFFFFFFFFFFFFFFFFFFFFFFFFFFFFFFFFFFFFFFFFFFFFFFFFFF
310
FFFFFFFFFFFFFFFFFFFFFFFFFFFFFFFFFFFFFFFFFFFFFFFFFFFFFFFFFFFFFFFF
310
F000FFFFFFFFFFFFFFFFFFFFFFFFFFFFFFFFFFFFFFFFFFFFFFFFFFFFFFFFFFFF
310
FFFFFFFFFFFFFFFFFFFFFFFFFFFFFFFFFFFFFFFFFFFFFFFFFFFFFFFFFFFFFFFF
310
FFFFFFFFFFFFFFFFFFFFFFFFFFFFFFFFFFFFFFFFFFFFFFFFF000FFFFFFFFFFFF
310
FFFFFFFFFFFFFFFFFFFFFFFFFFFFFFFFFFFFFFFFFFFFFFFFFFFFFFFFFFFFFFFF
310
FFFFFFFFFFFFFFFFFFFFFFFFFFFFFFFFFFFFFFFFFFFFFFFFFFFFFFFFFFFFFFFF
310
FFFFFFFFFFFFFFFFFFFFFFFFFFFFFFFFF000FFFFFFFFFFFFFFFFFFFFFFFFFFFF
310
FFFFFFFFFFFFFFFFFFFFFFFFFFFFFFFFFFFFFFFFFFFFFFFFFFFFFFFFFFFFFFFF
310
FFFFFFFFFFFFFFFFFFFFFFFFFFFFFFFFFFFFFFFFFFFFFFFFFFFFFFFFFFFFFFFF
310
FFFFFFFFFFFFFFFFF000FFFFFFFFFFFFFFFFFFFFFFFFFFFFFFFFFFFFFFFFFFFF
310
FFFFFFFFFFFFFFFFFFFFFFFFFFFFFFFFFFFFFFFFFFFFFFFFFFFFFFFFFFFFFFFF
310
FFFFFFFFFFFFFFFFFFFFFFFFFFFFFFFFFFFFFFFFFFFFFFFFFFFFFFFFFFFFFFFF
310
F000FFFFFFFFFFFFFFFFFFFFFFFFFFFFFFFFFFFFFFFFFFFFFFFFFFFFFFFFFFFF
310
FFFFFFFFFFFFFFFFFFFFFFFFFFFFFFFFFFFFFFFFFFFFFFFFFFFFFFFFFFFFFFFF
310
FFFFFFFFFFFFFFFFFFFFFFFFFFFFFFFFFFFFFFFFFFFFFFFFF000FFFFFFFFFFFF
310
FFFFFFFFFFFFFFFFFFFFFFFFFFFFFFFFFFFFFFFFFFFFFFFFFFFFFFFFFFFFFFFF
310
FFFFFFFFFFFFFFFFFFFFFFFFFFFFFFFFFFFFFFFFFFFFFFFFFFFFFFFFFFFFFFFF
310
FFFFFFFFFFFFFFFFFFFFFFFFFFFFFFFFF000FFFFFFFFFFFFFFFFFFFFFFFFFFFF
310
FFFFFFFFFFFFFFFFFFFFFFFFFFFFFFFFFFFFFFFFFFFFFFFFFFFFFFFFFFFFFFFF
310
FFFFFFFFFFFFFFFFFFFFFFFFFFFFFFFFFFFFFFFFFFFFFFFFFFFFFFFFFFFFFFFF
310
FFFFFFFFFFFFFFFFF000FFFFFFFFFFFFFFFFFFFFFFFFFFFFFFFFFFFFFFFFFFFF
310
FFFFFFFFFFFFFFFFFFFFFFFFFFFFFFFFFFFFFFFFFFFFFFFFFFFFFFFFFFFFFFFF
310
FFFFFFFFFFFFFFFFFFFFFFFFFFFFFFFFFFFFFFFFFFFFFFFFFFFFFFFFFFFFFFFF
310
F000FFFFFFFFFFFFFFFFFFFFFFFFFFFFFFFFFFFFFFFFFFFFFFFFFFFFFFFFFFFF
310
FFFFFFFFFFFFFFFFFFFFFFFFFFFFFFFFFFFFFFFFFFFFFFFFFFFFFFFFFFFFFFFF
310
FFFFFFFFFFFFFFFFFFFFFFFFFFFFFFFFFFFFFFFFFFFFFFFFF000FFFFFFFFFFFF
310
FFFFFFFFFFFFFFFFFFFFFFFFFFFFFFFFFFFFFFFFFFFFFFFFFFFFFFFFFFFFFFFF
310
FFFFFFFFFFFFFFFFFFFFFFFFFFFFFFFFFFFFFFFFFFFFFFFFFFFFFFFFFFFFFFFF
310
FFFFFFFFFFFFFFFFFFFFFFFFFFFFFFFFF000FFFFFFFFFFFFFFFFFFFFFFFFFFFF
310
FFFFFFFFFFFFFFFFFFFFFFFFFFFFFFFFFFFFFFFFFFFFFFFFFFFFFFFFFFFFFFFF
310
FFFFFFFFFFFFFFFFFFFFFFFFFFFFFFFFFFFFFFFFFFFFFFFFFFFFFFFFFFFFFFFF
310
FFFFFFFFFFFFFFFFF000FFFFFFFFFFFFFFFFFFFFFFFFFFFFFFFFFFFFFFFFFFFF
310
FFFFFFFFFFFFFFFFFFFFFFFFFFFFFFFFFFFFFFFFFFFFFFFFFFFFFFFFFFFFFFFF
310
FFFFFFFFFFFFFFFFFFFFFFFFFFFFFFFFFFFFFFFFFFFFFFFFFFFFFFFFFFFFFFFF
310
F000FFFFFFFFFFFFFFFFFFFFFFFFFFFFFFFFFFFFFFFFFFFFFFFFFFFFFFFFFFFF
310
FFFFFFFFFFFFFFFFFFFFFFFFFFFFFFFFFFFFFFFFFFFFFFFFFFFFFFFFFFFFFFFF
310
FFFFFFFFFFFFFFFFFFFFFFFFFFFFFFFFFFFFFFFFFFFFFFFFF000FFFFFFFFFFFF
310
FFFFFFFFFFFFFFFFFFFFFFFFFFFFFFFFFFFFFFFFFFFFFFFFFFFFFFFFFFFFFFFF
310
FFFFFFFFFFFFFFFFFFFFFFFFFFFFFFFFFFFFFFFFFFFFFFFFFFFFFFFFFFFFFFFF
310
FFFFFFFFFFFFFFFFFFFFFFFFFFFFFFFFF000FFFFFFFFFFFFFFFFFFFFFFFFFFFF
310
FFFFFFFFFFFFFFFFFFFFFFFFFFFFFFFFFFFFFFFFFFFFFFFFFFFFFFFFFFFFFFFF
310
FFFFFFFFFFFFFFFFFFFFFFFFFFFFFFFFFFFFFFFFFFFFFFFFFFFFFFFFFFFFFFFF
310
FFFFFFFFFFFFFFFFF000FFFFFFFFFFFFFFFFFFFFFFFFFFFFFFFFFFFFFFFFFFFF
310
FFFFFFFFFFFFFFFFFFFFFFFFFFFFFFFFFFFFFFFFFFFFFFFFFFFFFFFFFFFFFFFF
310
FFFFFFFFFFFFFFFFFFFFFFFFFFFFFFFFFFFFFFFFFFFFFFFFFFFFFFFFFFFFFFFF
310
F000FFFFFFFFFFFFFFFFFFFFFFFFFFFFFFFFFFFFFFFFFFFFFFFFFFFFFFFFFFFF
310
FFFFFFFFFFFFFFFFFFFFFFFFFFFFFFFFFFFFFFFFFFFFFFFFFFFFFFFFFFFFFFFF
310
FFFFFFFFFFFFFFFFFFFFFFFFFFFFFFFFFFFFFFFFFFFFFFFFF000FFFFFFFFFFFF
310
FFFFFFFFFFFFFFFFFFFFFFFFFFFFFFFFFFFFFFFFFFFFFFFFFFFFFFFFFFFFFFFF
310
FFFFFFFFFFFFFFFFFFFFFFFFFFFFFFFFFFFFFFFFFFFFFFFFFFFFFFFFFFFFFFFF
310
FFFFFFFFFFFFFFFFFFFFFFFFFFFFFFFFF000FFFFFFFFFFFFFFFFFFFFFFFFFFFF
310
FFFFFFFFFFFFFFFFFFFFFFFFFFFFFFFFFFFFFFFFFFFFFFFFFFFFFFFFFFFFFFFF
310
FFFFFFFFFFFFFFFFFFFFFFFFFFFFFFFFFFFFFFFFFFFFFFFFFFFFFFFFFFFFFFFF
310
FFFFFFFFFFFFFFFFF000FFFFFFFFFFFFFFFFFFFFFFFFFFFFFFFFFFFFFFFFFFFF
310
FFFFFFFFFFFFFFFFFFFFFFFFFFFFFFFFFFFFFFFFFFFFFFFFFFFFFFFFFFFFFFFF
310
FFFFFFFFFFFFFFFFFFFFFFFFFFFFFFFFFFFFFFFFFFFFFFFFFFFFFFFFFFFFFFFF
310
F000FFFFFFFFFFFFFFFFFFFFFFFFFFFFFFFFFFFFFFFFFFFFFFFFFFFFFFFFFFFF
310
FFFFFFFFFFFFFFFFFFFFFFFFFFFFFFFFFFFFFFFFFFFFFFFFFFFFFFFFFFFFFFFF
310
FFFFFFFFFFFFFFFFFFFFFFFFFFFFFFFFFFFFFFFFFFFFFFFFF000FFFFFFFFFFFF
310
FFFFFFFFFFFFFFFFFFFFFFFFFFFFFFFFFFFFFFFFFFFFFFFFFFFFFFFFFFFFFFFF
310
FFFFFFFFFFFFFFFFFFFFFFFFFFFFFFFFFFFFFFFFFFFFFFFFFFFFFFFFFFFFFFFF
310
FFFFFFFFFFFFFFFFFFFFFFFFFFFFFFFFF0000000000000000000000000000000
310
0000000000000000000000000000000000000000000000000000000000000000
310
0000000000000000000000000000000000000000000000000000000000000000
310
0000000000000000000000000000000000000000000000000000000000000000
310
0000000000000000000000000000000000000000000000000000000000000000
310
0000000000000000000000000000000000000000000000000000000000000000
310
0000000000000000000000000000000000000000000000000000000000000000
310
0000000000000000000000000000000000000000000000000000000000000000
310
0000000000000000000000000000000000000000000000000000000000000000
310
0000000000000000000000000000000000000000000000000000000000000000
310
0000000000000000000000000000000000000000000000000000000000000000
310
0000000000000000000000000000000000000000000000000000000000000000
310
0000000000000000000000000000000000000000000000000000000000000000
310
0000000000000000000000000000000000000000000000000000000000000000
310
0000000000000000000000000000000000000000000000000000000000000000
310
0000000000000000000000000000000000000000000000000000000000000000
  1
OLE
  0
ENDSEC
  0
SECTION
  2
OBJECTS
  0
DICTIONARY
  5
C
330
0
100
AcDbDictionary
281
     1
  3
ACAD_GROUP
350
D
  3
ACAD_LAYOUT
350
1A
  3
ACAD_MLINESTYLE
350
17
  3
ACAD_PLOTSETTINGS
350
19
  3
ACAD_PLOTSTYLENAME
350
E
  3
ACAD_SCALELIST
350
47
  0
DICTIONARY
  5
D
102
{ACAD_REACTORS
330
C
102
}
330
C
100
AcDbDictionary
281
     1
  0
DICTIONARY
  5
1A
102
{ACAD_REACTORS
330
C
102
}
330
C
100
AcDbDictionary
281
     1
  3
Layout1
350
1E
  3
Layout2
350
26
  3
Model
350
22
  0
DICTIONARY
  5
17
102
{ACAD_REACTORS
330
C
102
}
330
C
100
AcDbDictionary
281
     1
  3
Standard
350
18
  0
DICTIONARY
  5
19
102
{ACAD_REACTORS
330
C
102
}
330
C
100
AcDbDictionary
281
     1
  0
ACDBDICTIONARYWDFLT
  5
E
102
{ACAD_REACTORS
330
C
102
}
330
C
100
AcDbDictionary
281
     1
  3
Normal
350
F
100
AcDbDictionaryWithDefault
340
F
  0
DICTIONARY
  5
47
102
{ACAD_REACTORS
330
C
102
}
330
C
100
AcDbDictionary
281
     1
  3
A0
350
48
  3
A1
350
49
  3
A2
350
4A
  3
A3
350
4B
  3
A4
350
4C
  3
A5
350
4D
  3
A6
350
4E
  3
A7
350
4F
  3
A8
350
50
  3
A9
350
51
  3
B0
350
52
  3
B1
350
53
  3
B2
350
54
  3
B3
350
55
  3
B4
350
56
  3
B5
350
57
  3
B6
350
58
  3
B7
350
59
  3
B8
350
5A
  3
B9
350
5B
  3
C0
350
5C
  3
C1
350
5D
  3
C2
350
5E
  3
C3
350
5F
  3
C4
350
60
  3
C5
350
61
  3
C6
350
62
  3
C7
350
63
  3
C8
350
64
  3
C9
350
65
  3
D0
350
66
  3
D1
350
67
  3
D2
350
68
  0
LAYOUT
  5
1E
102
{ACAD_REACTORS
330
1A
102
}
330
1A
100
AcDbPlotSettings
  1

  2
none_device
  4

  6

 40
0.0
 41
0.0
 42
0.0
 43
0.0
 44
0.0
 45
0.0
 46
0.0
 47
0.0
 48
0.0
 49
0.0
140
0.0
141
0.0
142
1.0
143
1.0
 70
   688
 72
     1
 73
     0
 74
     5
  7

 75
    16
147
1.0
148
0.0
149
0.0
100
AcDbLayout
  1
Layout1
 70
     1
 71
     1
 10
0.0
 20
0.0
 11
420.0
 21
297.0
 12
0.0
 22
0.0
 32
0.0
 14
1.0000000000E+20
 24
1.0000000000E+20
 34
1.0000000000E+20
 15
-1.0000000000E+20
 25
-1.0000000000E+20
 35
-1.0000000000E+20
146
0.0
 13
0.0
 23
0.0
 33
0.0
 16
1.0
 26
0.0
 36
0.0
 17
0.0
 27
1.0
 37
0.0
 76
     0
330
1B
  0
LAYOUT
  5
26
102
{ACAD_REACTORS
330
1A
102
}
330
1A
100
AcDbPlotSettings
  1

  2
none_device
  4

  6

 40
0.0
 41
0.0
 42
0.0
 43
0.0
 44
0.0
 45
0.0
 46
0.0
 47
0.0
 48
0.0
 49
0.0
140
0.0
141
0.0
142
1.0
143
1.0
 70
   688
 72
     1
 73
     0
 74
     5
  7

 75
    16
147
1.0
148
0.0
149
0.0
100
AcDbLayout
  1
Layout2
 70
     1
 71
     2
 10
0.0
 20
0.0
 11
0.0
 21
0.0
 12
0.0
 22
0.0
 32
0.0
 14
0.0
 24
0.0
 34
0.0
 15
0.0
 25
0.0
 35
0.0
146
0.0
 13
0.0
 23
0.0
 33
0.0
 16
1.0
 26
0.0
 36
0.0
 17
0.0
 27
1.0
 37
0.0
 76
     0
330
23
  0
LAYOUT
  5
22
102
{ACAD_REACTORS
330
1A
102
}
330
1A
100
AcDbPlotSettings
  1

  2
none_device
  4
Letter_(8.50_x_11.00_Inches)
  6

 40
6.35
 41
6.35
 42
6.35000508
 43
6.35000508
 44
215.9
 45
279.4
 46
0.0
 47
0.0
 48
0.0
 49
0.0
140
0.0
141
0.0
142
1.0
143
1.0
 70
  1712
 72
     1
 73
     0
 74
     0
  7

 75
     0
147
1.0
148
0.0
149
0.0
100
AcDbLayout
  1
Model
 70
     1
 71
     0
 10
0.0
 20
0.0
 11
297.0
 21
210.0
 12
0.0
 22
0.0
 32
0.0
 14
0.0
 24
0.0
 34
0.0
 15
297.0
 25
210.0
 35
0.0
146
0.0
 13
0.0
 23
0.0
 33
0.0
 16
1.0
 26
0.0
 36
0.0
 17
0.0
 27
1.0
 37
0.0
 76
     0
330
1F
331
29
  0
MLINESTYLE
  5
18
102
{ACAD_REACTORS
330
17
102
}
330
17
100
AcDbMlineStyle
  2
Standard
 70
     0
  3

 62
   256
 51
90.0
 52
90.0
 71
     2
 49
0.5
 62
   256
  6
BYLAYER
 49
-0.5
 62
   256
  6
BYLAYER
  0
ACDBPLACEHOLDER
  5
F
102
{ACAD_REACTORS
330
E
102
}
330
E
  0
SCALE
  5
48
102
{ACAD_REACTORS
330
47
102
}
330
47
100
AcDbScale
 70
     0
300
1:1
140
1.0
141
1.0
290
     1
  0
SCALE
  5
49
102
{ACAD_REACTORS
330
47
102
}
330
47
100
AcDbScale
 70
     0
300
1:2
140
1.0
141
2.0
290
     0
  0
SCALE
  5
4A
102
{ACAD_REACTORS
330
47
102
}
330
47
100
AcDbScale
 70
     0
300
1:4
140
1.0
141
4.0
290
     0
  0
SCALE
  5
4B
102
{ACAD_REACTORS
330
47
102
}
330
47
100
AcDbScale
 70
     0
300
1:5
140
1.0
141
5.0
290
     0
  0
SCALE
  5
4C
102
{ACAD_REACTORS
330
47
102
}
330
47
100
AcDbScale
 70
     0
300
1:8
140
1.0
141
8.0
290
     0
  0
SCALE
  5
4D
102
{ACAD_REACTORS
330
47
102
}
330
47
100
AcDbScale
 70
     0
300
1:10
140
1.0
141
10.0
290
     0
  0
SCALE
  5
4E
102
{ACAD_REACTORS
330
47
102
}
330
47
100
AcDbScale
 70
     0
300
1:16
140
1.0
141
16.0
290
     0
  0
SCALE
  5
4F
102
{ACAD_REACTORS
330
47
102
}
330
47
100
AcDbScale
 70
     0
300
1:20
140
1.0
141
20.0
290
     0
  0
SCALE
  5
50
102
{ACAD_REACTORS
330
47
102
}
330
47
100
AcDbScale
 70
     0
300
1:30
140
1.0
141
30.0
290
     0
  0
SCALE
  5
51
102
{ACAD_REACTORS
330
47
102
}
330
47
100
AcDbScale
 70
     0
300
1:40
140
1.0
141
40.0
290
     0
  0
SCALE
  5
52
102
{ACAD_REACTORS
330
47
102
}
330
47
100
AcDbScale
 70
     0
300
1:50
140
1.0
141
50.0
290
     0
  0
SCALE
  5
53
102
{ACAD_REACTORS
330
47
102
}
330
47
100
AcDbScale
 70
     0
300
1:100
140
1.0
141
100.0
290
     0
  0
SCALE
  5
54
102
{ACAD_REACTORS
330
47
102
}
330
47
100
AcDbScale
 70
     0
300
2:1
140
2.0
141
1.0
290
     0
  0
SCALE
  5
55
102
{ACAD_REACTORS
330
47
102
}
330
47
100
AcDbScale
 70
     0
300
4:1
140
4.0
141
1.0
290
     0
  0
SCALE
  5
56
102
{ACAD_REACTORS
330
47
102
}
330
47
100
AcDbScale
 70
     0
300
8:1
140
8.0
141
1.0
290
     0
  0
SCALE
  5
57
102
{ACAD_REACTORS
330
47
102
}
330
47
100
AcDbScale
 70
     0
300
10:1
140
10.0
141
1.0
290
     0
  0
SCALE
  5
58
102
{ACAD_REACTORS
330
47
102
}
330
47
100
AcDbScale
 70
     0
300
100:1
140
100.0
141
1.0
290
     0
  0
SCALE
  5
59
102
{ACAD_REACTORS
330
47
102
}
330
47
100
AcDbScale
 70
     0
300
1/128" = 1'-0"
140
0.0078125
141
12.0
290
     0
  0
SCALE
  5
5A
102
{ACAD_REACTORS
330
47
102
}
330
47
100
AcDbScale
 70
     0
300
1/64" = 1'-0"
140
0.015625
141
12.0
290
     0
  0
SCALE
  5
5B
102
{ACAD_REACTORS
330
47
102
}
330
47
100
AcDbScale
 70
     0
300
1/32" = 1'-0"
140
0.03125
141
12.0
290
     0
  0
SCALE
  5
5C
102
{ACAD_REACTORS
330
47
102
}
330
47
100
AcDbScale
 70
     0
300
1/16" = 1'-0"
140
0.0625
141
12.0
290
     0
  0
SCALE
  5
5D
102
{ACAD_REACTORS
330
47
102
}
330
47
100
AcDbScale
 70
     0
300
3/32" = 1'-0"
140
0.09375
141
12.0
290
     0
  0
SCALE
  5
5E
102
{ACAD_REACTORS
330
47
102
}
330
47
100
AcDbScale
 70
     0
300
1/8" = 1'-0"
140
0.125
141
12.0
290
     0
  0
SCALE
  5
5F
102
{ACAD_REACTORS
330
47
102
}
330
47
100
AcDbScale
 70
     0
300
3/16" = 1'-0"
140
0.1875
141
12.0
290
     0
  0
SCALE
  5
60
102
{ACAD_REACTORS
330
47
102
}
330
47
100
AcDbScale
 70
     0
300
1/4" = 1'-0"
140
0.25
141
12.0
290
     0
  0
SCALE
  5
61
102
{ACAD_REACTORS
330
47
102
}
330
47
100
AcDbScale
 70
     0
300
3/8" = 1'-0"
140
0.375
141
12.0
290
     0
  0
SCALE
  5
62
102
{ACAD_REACTORS
330
47
102
}
330
47
100
AcDbScale
 70
     0
300
1/2" = 1'-0"
140
0.5
141
12.0
290
     0
  0
SCALE
  5
63
102
{ACAD_REACTORS
330
47
102
}
330
47
100
AcDbScale
 70
     0
300
3/4" = 1'-0"
140
0.75
141
12.0
290
     0
  0
SCALE
  5
64
102
{ACAD_REACTORS
330
47
102
}
330
47
100
AcDbScale
 70
     0
300
1" = 1'-0"
140
1.0
141
12.0
290
     0
  0
SCALE
  5
65
102
{ACAD_REACTORS
330
47
102
}
330
47
100
AcDbScale
 70
     0
300
1-1/2" = 1'-0"
140
1.5
141
12.0
290
     0
  0
SCALE
  5
66
102
{ACAD_REACTORS
330
47
102
}
330
47
100
AcDbScale
 70
     0
300
3" = 1'-0"
140
3.0
141
12.0
290
     0
  0
SCALE
  5
67
102
{ACAD_REACTORS
330
47
102
}
330
47
100
AcDbScale
 70
     0
300
6" = 1'-0"
140
6.0
141
12.0
290
     0
  0
SCALE
  5
68
102
{ACAD_REACTORS
330
47
102
}
330
47
100
AcDbScale
 70
     0
300
1'-0" = 1'-0"
140
12.0
141
12.0
290
     0
  0
ENDSEC
  0
EOF
