  0
SECTION
  2
HEADER
  9
$ACADVER
  1
AC1015
  9
$ACADMAINTVER
 70
     6
  9
$DWGCODEPAGE
  3
ANSI_1252
  9
$INSBASE
 10
0.0
 20
0.0
 30
0.0
  9
$EXTMIN
 10
0.0
 20
0.0
 30
0.0
  9
$EXTMAX
 10
297.0
 20
210.0
 30
0.0
  9
$LIMMIN
 10
0.0
 20
0.0
  9
$LIMMAX
 10
297.0
 20
210.0
  9
$ORTHOMODE
 70
     0
  9
$REGENMODE
 70
     1
  9
$FILLMODE
 70
     1
  9
$QTEXTMODE
 70
     0
  9
$MIRRTEXT
 70
     1
  9
$LTSCALE
 40
1.0
  9
$ATTMODE
 70
     1
  9
$TEXTSIZE
 40
2.0
  9
$TRACEWID
 40
1.0
  9
$TEXTSTYLE
  7
Standard
  9
$CLAYER
  8
0
  9
$CELTYPE
  6
ByLayer
  9
$CECOLOR
 62
   256
  9
$CELTSCALE
 40
1.0
  9
$DISPSILH
 70
     0
  9
$DIMSCALE
 40
1.0
  9
$DIMASZ
 40
3.0
  9
$DIMEXO
 40
0.0
  9
$DIMDLI
 40
3.75
  9
$DIMRND
 40
0.0
  9
$DIMDLE
 40
0.0
  9
$DIMEXE
 40
1.0
  9
$DIMTP
 40
0.0
  9
$DIMTM
 40
0.0
  9
$DIMTXT
 40
2.0
  9
$DIMCEN
 40
2.5
  9
$DIMTSZ
 40
0.0
  9
$DIMTOL
 70
     0
  9
$DIMLIM
 70
     0
  9
$DIMTIH
 70
     1
  9
$DIMTOH
 70
     1
  9
$DIMSE1
 70
     0
  9
$DIMSE2
 70
     0
  9
$DIMTAD
 70
     1
  9
$DIMZIN
 70
     0
  9
$DIMBLK
  1

  9
$DIMASO
 70
     1
  9
$DIMSHO
 70
     1
  9
$DIMPOST
  1

  9
$DIMAPOST
  1

  9
$DIMALT
 70
     0
  9
$DIMALTD
 70
     3
  9
$DIMALTF
 40
0.0393700787
  9
$DIMLFAC
 40
2.0
  9
$DIMTOFL
 70
     1
  9
$DIMTVP
 40
0.0
  9
$DIMTIX
 70
     0
  9
$DIMSOXD
 70
     0
  9
$DIMSAH
 70
     0
  9
$DIMBLK1
  1

  9
$DIMBLK2
  1

  9
$DIMSTYLE
  2
ISO-25
  9
$DIMCLRD
 70
     0
  9
$DIMCLRE
 70
     0
  9
$DIMCLRT
 70
     0
  9
$DIMTFAC
 40
1.0
  9
$DIMGAP
 40
1.524
  9
$DIMJUST
 70
     0
  9
$DIMSD1
 70
     0
  9
$DIMSD2
 70
     0
  9
$DIMTOLJ
 70
     0
  9
$DIMTZIN
 70
     0
  9
$DIMALTZ
 70
     0
  9
$DIMALTTZ
 70
     0
  9
$DIMUPT
 70
     0
  9
$DIMDEC
 70
     2
  9
$DIMTDEC
 70
     3
  9
$DIMALTU
 70
     2
  9
$DIMALTTD
 70
     3
  9
$DIMTXSTY
  7
Standard
  9
$DIMAUNIT
 70
     0
  9
$DIMADEC
 70
     2
  9
$DIMALTRND
 40
0.0
  9
$DIMAZIN
 70
     0
  9
$DIMDSEP
 70
    44
  9
$DIMATFIT
 70
     3
  9
$DIMFRAC
 70
     0
  9
$DIMLDRBLK
  1

  9
$DIMLUNIT
 70
     2
  9
$DIMLWD
 70
    -2
  9
$DIMLWE
 70
    -2
  9
$DIMTMOVE
 70
     0
  9
$LUNITS
 70
     2
  9
$LUPREC
 70
     2
  9
$SKETCHINC
 40
1.0
  9
$FILLETRAD
 40
10.0
  9
$AUNITS
 70
     0
  9
$AUPREC
 70
     2
  9
$MENU
  1
.
  9
$ELEVATION
 40
0.0
  9
$PELEVATION
 40
0.0
  9
$THICKNESS
 40
0.0
  9
$LIMCHECK
 70
     0
  9
$CHAMFERA
 40
0.0
  9
$CHAMFERB
 40
0.0
  9
$CHAMFERC
 40
0.0
  9
$CHAMFERD
 40
0.0
  9
$SKPOLY
 70
     0
  9
$TDCREATE
 40
2458166.58451603
  9
$TDUCREATE
 40
2458166.542849363
  9
$TDUPDATE
 40
2458166.584518437
  9
$TDUUPDATE
 40
2458166.542851771
  9
$TDINDWG
 40
0.0000000116
  9
$TDUSRTIMER
 40
0.0000000116
  9
$USRTIMER
 70
     1
  9
$ANGBASE
 50
0.0
  9
$ANGDIR
 70
     0
  9
$PDMODE
 70
     0
  9
$PDSIZE
 40
-1.0
  9
$PLINEWID
 40
0.0
  9
$SPLFRAME
 70
     0
  9
$SPLINETYPE
 70
     6
  9
$SPLINESEGS
 70
     8
  9
$HANDSEED
  5
298
  9
$SURFTAB1
 70
     6
  9
$SURFTAB2
 70
     6
  9
$SURFTYPE
 70
     6
  9
$SURFU
 70
     6
  9
$SURFV
 70
     6
  9
$UCSBASE
  2

  9
$UCSNAME
  2

  9
$UCSORG
 10
0.0
 20
0.0
 30
0.0
  9
$UCSXDIR
 10
1.0
 20
0.0
 30
0.0
  9
$UCSYDIR
 10
0.0
 20
1.0
 30
0.0
  9
$UCSORTHOREF
  2

  9
$UCSORTHOVIEW
 70
     0
  9
$UCSORGTOP
 10
0.0
 20
0.0
 30
0.0
  9
$UCSORGBOTTOM
 10
0.0
 20
0.0
 30
0.0
  9
$UCSORGLEFT
 10
0.0
 20
0.0
 30
0.0
  9
$UCSORGRIGHT
 10
0.0
 20
0.0
 30
0.0
  9
$UCSORGFRONT
 10
0.0
 20
0.0
 30
0.0
  9
$UCSORGBACK
 10
0.0
 20
0.0
 30
0.0
  9
$PUCSBASE
  2

  9
$PUCSNAME
  2

  9
$PUCSORG
 10
0.0
 20
0.0
 30
0.0
  9
$PUCSXDIR
 10
1.0
 20
0.0
 30
0.0
  9
$PUCSYDIR
 10
0.0
 20
1.0
 30
0.0
  9
$PUCSORTHOREF
  2

  9
$PUCSORTHOVIEW
 70
     0
  9
$PUCSORGTOP
 10
0.0
 20
0.0
 30
0.0
  9
$PUCSORGBOTTOM
 10
0.0
 20
0.0
 30
0.0
  9
$PUCSORGLEFT
 10
0.0
 20
0.0
 30
0.0
  9
$PUCSORGRIGHT
 10
0.0
 20
0.0
 30
0.0
  9
$PUCSORGFRONT
 10
0.0
 20
0.0
 30
0.0
  9
$PUCSORGBACK
 10
0.0
 20
0.0
 30
0.0
  9
$USERI1
 70
     0
  9
$USERI2
 70
     0
  9
$USERI3
 70
     0
  9
$USERI4
 70
     0
  9
$USERI5
 70
     0
  9
$USERR1
 40
0.0
  9
$USERR2
 40
0.0
  9
$USERR3
 40
0.0
  9
$USERR4
 40
0.0
  9
$USERR5
 40
0.0
  9
$WORLDVIEW
 70
     1
  9
$SHADEDGE
 70
     3
  9
$SHADEDIF
 70
    70
  9
$TILEMODE
 70
     1
  9
$MAXACTVP
 70
    64
  9
$PINSBASE
 10
0.0
 20
0.0
 30
0.0
  9
$PLIMCHECK
 70
     0
  9
$PEXTMIN
 10
1.0000000000E+20
 20
1.0000000000E+20
 30
1.0000000000E+20
  9
$PEXTMAX
 10
-1.0000000000E+20
 20
-1.0000000000E+20
 30
-1.0000000000E+20
  9
$PLIMMIN
 10
0.0
 20
0.0
  9
$PLIMMAX
 10
420.0
 20
297.0
  9
$UNITMODE
 70
     0
  9
$VISRETAIN
 70
     1
  9
$PLINEGEN
 70
     0
  9
$PSLTSCALE
 70
     1
  9
$TREEDEPTH
 70
  3020
  9
$CMLSTYLE
  2
Standard
  9
$CMLJUST
 70
     0
  9
$CMLSCALE
 40
20.0
  9
$PROXYGRAPHICS
 70
     1
  9
$MEASUREMENT
 70
     1
  9
$CELWEIGHT
370
    -1
  9
$ENDCAPS
280
     0
  9
$JOINSTYLE
280
     0
  9
$LWDISPLAY
290
     1
  9
$INSUNITS
 70
     4
  9
$HYPERLINKBASE
  1

  9
$STYLESHEET
  1

  9
$XEDIT
290
     1
  9
$CEPSNTYPE
380
     0
  9
$PSTYLEMODE
290
     1
  9
$FINGERPRINTGUID
  2
{B06DB667-7110-4FFF-BF9E-184B4D18D773}
  9
$VERSIONGUID
  2
{FAEB1C32-E019-11D5-929B-00C0DF256EC4}
  9
$EXTNAMES
290
     1
  9
$PSVPSCALE
 40
0.0
  9
$OLESTARTUP
290
     0
  0
ENDSEC
  0
SECTION
  2
CLASSES
  0
CLASS
  1
ACDBDICTIONARYWDFLT
  2
AcDbDictionaryWithDefault
  3
ObjectDBX Classes
 90
        0
280
     0
281
     0
  0
CLASS
  1
VISUALSTYLE
  2
AcDbVisualStyle
  3
ObjectDBX Classes
 90
     4095
280
     0
281
     0
  0
CLASS
  1
MATERIAL
  2
AcDbMaterial
  3
ObjectDBX Classes
 90
     1153
280
     0
281
     0
  0
CLASS
  1
SCALE
  2
AcDbScale
  3
ObjectDBX Classes
 90
     1153
280
     0
281
     0
  0
CLASS
  1
TABLESTYLE
  2
AcDbTableStyle
  3
ObjectDBX Classes
 90
     4095
280
     0
281
     0
  0
CLASS
  1
MLEADERSTYLE
  2
AcDbMLeaderStyle
  3
ACDB_MLEADERSTYLE_CLASS
 90
     4095
280
     0
281
     0
  0
CLASS
  1
SUN
  2
AcDbSun
  3
SCENEOE
 90
     1153
280
     0
281
     0
  0
CLASS
  1
ACDBPLACEHOLDER
  2
AcDbPlaceHolder
  3
ObjectDBX Classes
 90
        0
280
     0
281
     0
  0
CLASS
  1
LAYOUT
  2
AcDbLayout
  3
ObjectDBX Classes
 90
        0
280
     0
281
     0
  0
ENDSEC
  0
SECTION
  2
TABLES
  0
TABLE
  2
VPORT
  5
8
330
0
100
AcDbSymbolTable
 70
     1
  0
VPORT
  5
29
330
8
100
AcDbSymbolTableRecord
100
AcDbViewportTableRecord
  2
*Active
 70
     0
 10
0.0
 20
0.0
 11
1.0
 21
1.0
 12
148.5
 22
105.0
 13
0.0
 23
0.0
 14
10.0
 24
10.0
 15
10.0
 25
10.0
 16
0.0
 26
0.0
 36
1.0
 17
0.0
 27
0.0
 37
0.0
 40
210.0
 41
1.4142857143
 42
50.0
 43
0.0
 44
0.0
 50
0.0
 51
0.0
 71
     0
 72
  2000
 73
     1
 74
     3
 75
     0
 76
     0
 77
     0
 78
     0
281
     0
 65
     1
110
0.0
120
0.0
130
0.0
111
1.0
121
0.0
131
0.0
112
0.0
122
1.0
132
0.0
 79
     0
146
0.0
  0
ENDTAB
  0
TABLE
  2
LTYPE
  5
5
330
0
100
AcDbSymbolTable
 70
     6
  0
LTYPE
  5
14
330
5
100
AcDbSymbolTableRecord
100
AcDbLinetypeTableRecord
  2
ByBlock
 70
     0
  3

 72
    65
 73
     0
 40
0.0
  0
LTYPE
  5
15
330
5
100
AcDbSymbolTableRecord
100
AcDbLinetypeTableRecord
  2
ByLayer
 70
     0
  3

 72
    65
 73
     0
 40
0.0
  0
LTYPE
  5
16
330
5
100
AcDbSymbolTableRecord
100
AcDbLinetypeTableRecord
  2
Continuous
 70
     0
  3
Solid line
 72
    65
 73
     0
 40
0.0
  0
LTYPE
  5
6E
330
5
100
AcDbSymbolTableRecord
100
AcDbLinetypeTableRecord
  2
HIDDEN
 70
     0
  3
Hidden __ __ __ __ __ __ __ __ __ __ __ __ __ __
 72
    65
 73
     2
 40
1.905
 49
1.27
 74
     0
 49
-0.635
 74
     0
  0
LTYPE
  5
6F
330
5
100
AcDbSymbolTableRecord
100
AcDbLinetypeTableRecord
  2
PHANTOM
 70
     0
  3
Phantom ______  __  __  ______  __  __  ______
 72
    65
 73
     6
 40
12.7
 49
6.35
 74
     0
 49
-1.27
 74
     0
 49
1.27
 74
     0
 49
-1.27
 74
     0
 49
1.27
 74
     0
 49
-1.27
 74
     0
  0
LTYPE
  5
70
330
5
100
AcDbSymbolTableRecord
100
AcDbLinetypeTableRecord
  2
CENTER
 70
     0
  3
Center ____ _ ____ _ ____ _ ____ _ ____ _ ____
 72
    65
 73
     4
 40
10.16
 49
6.35
 74
     0
 49
-1.27
 74
     0
 49
1.27
 74
     0
 49
-1.27
 74
     0
  0
LTYPE
  5
71
330
5
100
AcDbSymbolTableRecord
100
AcDbLinetypeTableRecord
  2
CENTERX2
 70
     0
  3
Center (2x) ________  __  ________  __  _____
 72
    65
 73
     4
 40
20.32
 49
12.7
 74
     0
 49
-2.54
 74
     0
 49
2.54
 74
     0
 49
-2.54
 74
     0
  0
LTYPE
  5
72
330
5
100
AcDbSymbolTableRecord
100
AcDbLinetypeTableRecord
  2
DOT2
 70
     0
  3
Dot (.5x) ........................................
 72
    65
 73
     2
 40
0.635
 49
0.0
 74
     0
 49
-0.635
 74
     0
  0
ENDTAB
  0
TABLE
  2
LAYER
  5
2
330
0
100
AcDbSymbolTable
 70
     5
  0
LAYER
  5
10
330
2
100
AcDbSymbolTableRecord
100
AcDbLayerTableRecord
  2
0
 70
     0
 62
     7
  6
Continuous
370
    -3
390
F
  0
LAYER
  5
73
330
2
100
AcDbSymbolTableRecord
100
AcDbLayerTableRecord
  2
FORMAT
 70
     0
 62
     7
  6
Continuous
370
    -3
390
F
  0
LAYER
  5
74
330
2
100
AcDbSymbolTableRecord
100
AcDbLayerTableRecord
  2
VERMASSUNG
 70
     0
 62
     7
  6
Continuous
370
    -3
390
F
  0
LAYER
  5
75
330
2
100
AcDbSymbolTableRecord
100
AcDbLayerTableRecord
  2
KOPF_DÜNN
 70
     0
 62
     7
  6
Continuous
370
    -3
390
F
  0
LAYER
  5
76
330
2
100
AcDbSymbolTableRecord
100
AcDbLayerTableRecord
  2
KOPF_DICK
 70
     0
 62
     7
  6
Continuous
370
    25
390
F
  0
ENDTAB
  0
TABLE
  2
STYLE
  5
3
330
0
100
AcDbSymbolTable
 70
     2
  0
STYLE
  5
11
330
3
100
AcDbSymbolTableRecord
100
AcDbTextStyleTableRecord
  2
Standard
 70
     0
 40
0.0
 41
1.0
 50
0.0
 71
     0
 42
2.0
  3
txt
  4

  0
STYLE
  5
77
330
3
100
AcDbSymbolTableRecord
100
AcDbTextStyleTableRecord
  2
SLDTEXTSTYLE0
 70
     0
 40
0.0
 41
0.7
 50
0.0
 71
     0
 42
2.0
  3
TXT
  4

  0
ENDTAB
  0
TABLE
  2
VIEW
  5
6
330
0
100
AcDbSymbolTable
 70
     0
  0
ENDTAB
  0
TABLE
  2
UCS
  5
7
330
0
100
AcDbSymbolTable
 70
     0
  0
ENDTAB
  0
TABLE
  2
APPID
  5
9
330
0
100
AcDbSymbolTable
 70
     1
  0
APPID
  5
12
330
9
100
AcDbSymbolTableRecord
100
AcDbRegAppTableRecord
  2
ACAD
 70
     0
  0
ENDTAB
  0
TABLE
  2
DIMSTYLE
  5
A
330
0
100
AcDbSymbolTable
 70
     3
100
AcDbDimStyleTable
  0
DIMSTYLE
105
27
330
A
100
AcDbSymbolTableRecord
100
AcDbDimStyleTableRecord
  2
ISO-25
 70
     0
 41
2.5
 42
0.625
 43
3.75
 44
1.25
 73
     0
 74
     0
 77
     1
 78
     8
140
2.5
141
2.5
143
0.0393700787
147
0.625
171
     3
172
     1
178
     0
271
     2
272
     2
274
     3
278
    44
283
     0
284
     8
340
11
  0
DIMSTYLE
105
154
102
{ACAD_REACTORS
330
153
330
15F
330
169
330
173
330
18B
102
}
330
A
100
AcDbSymbolTableRecord
100
AcDbDimStyleTableRecord
  2
SLDDIMSTYLE0
 70
     0
 41
3.0
 44
0.0
 45
0.000000001
 73
     0
 74
     0
 77
     1
 78
    12
 79
     3
140
2.0
147
0.5
173
     1
178
     0
271
     2
272
     3
276
     2
284
    12
340
77
  0
DIMSTYLE
105
17E
102
{ACAD_REACTORS
330
17D
102
}
330
A
100
AcDbSymbolTableRecord
100
AcDbDimStyleTableRecord
  2
SLDDIMSTYLE1
 70
     0
 41
3.0
 44
0.0
 45
0.000000001
 73
     0
 74
     0
 77
     1
 78
    12
 79
     3
140
2.0
147
0.5
173
     1
178
     0
271
     1
272
     3
276
     2
284
    12
340
77
  0
ENDTAB
  0
TABLE
  2
BLOCK_RECORD
  5
1
330
0
100
AcDbSymbolTable
 70
     7
  0
BLOCK_RECORD
  5
1F
330
1
100
AcDbSymbolTableRecord
100
AcDbBlockTableRecord
  2
*Model_Space
340
22
  0
BLOCK_RECORD
  5
1B
330
1
100
AcDbSymbolTableRecord
100
AcDbBlockTableRecord
  2
*Paper_Space
340
1E
  0
BLOCK_RECORD
  5
23
330
1
100
AcDbSymbolTableRecord
100
AcDbBlockTableRecord
  2
*Paper_Space0
340
26
  0
BLOCK_RECORD
  5
155
330
1
100
AcDbSymbolTableRecord
100
AcDbBlockTableRecord
  2
_D
340
0
  0
BLOCK_RECORD
  5
160
330
1
100
AcDbSymbolTableRecord
100
AcDbBlockTableRecord
  2
_D_1
340
0
  0
BLOCK_RECORD
  5
16A
330
1
100
AcDbSymbolTableRecord
100
AcDbBlockTableRecord
  2
_D_2
340
0
  0
BLOCK_RECORD
  5
174
330
1
100
AcDbSymbolTableRecord
100
AcDbBlockTableRecord
  2
_D_3
340
0
  0
BLOCK_RECORD
  5
17F
330
1
100
AcDbSymbolTableRecord
100
AcDbBlockTableRecord
  2
_D_4
340
0
  0
BLOCK_RECORD
  5
18C
330
1
100
AcDbSymbolTableRecord
100
AcDbBlockTableRecord
  2
_D_5
340
0
  0
ENDTAB
  0
ENDSEC
  0
SECTION
  2
BLOCKS
  0
BLOCK
  5
20
330
1F
100
AcDbEntity
  8
0
100
AcDbBlockBegin
  2
*Model_Space
 70
     0
 10
0.0
 20
0.0
 30
0.0
  3
*Model_Space
  1

  0
ENDBLK
  5
21
330
1F
100
AcDbEntity
  8
0
100
AcDbBlockEnd
  0
BLOCK
  5
1C
330
1B
100
AcDbEntity
 67
     1
  8
0
100
AcDbBlockBegin
  2
*Paper_Space
 70
     0
 10
0.0
 20
0.0
 30
0.0
  3
*Paper_Space
  1

  0
ENDBLK
  5
1D
330
1B
100
AcDbEntity
 67
     1
  8
0
100
AcDbBlockEnd
  0
BLOCK
  5
24
330
23
100
AcDbEntity
  8
0
100
AcDbBlockBegin
  2
*Paper_Space0
 70
     0
 10
0.0
 20
0.0
 30
0.0
  3
*Paper_Space0
  1

  0
ENDBLK
  5
25
330
23
100
AcDbEntity
  8
0
100
AcDbBlockEnd
  0
BLOCK
  5
156
330
155
100
AcDbEntity
  8
0
100
AcDbBlockBegin
  2
_D
 70
     0
 10
0.0
 20
0.0
 30
0.0
  3
_D
  1

  0
SOLID
  5
158
330
155
100
AcDbEntity
  8
VERMASSUNG
100
AcDbTrace
 10
253.4249485128
 20
139.7224080844
 30
0.0
 11
252.9749485128
 21
136.7224080844
 31
0.0
 12
253.8749485128
 22
136.7224080844
 32
0.0
 13
253.8749485128
 23
136.7224080844
 33
0.0
  0
SOLID
  5
159
330
155
100
AcDbEntity
  8
VERMASSUNG
100
AcDbTrace
 10
253.4249485128
 20
98.0224080844
 30
0.0
 11
253.8749485128
 21
101.0224080844
 31
0.0
 12
252.9749485128
 22
101.0224080844
 32
0.0
 13
252.9749485128
 23
101.0224080844
 33
0.0
  0
LINE
  5
15A
330
155
100
AcDbEntity
  8
VERMASSUNG
100
AcDbLine
 10
219.8621359028
 20
139.7224080844
 30
0.0
 11
254.4249485128
 21
139.7224080844
 31
0.0
  0
LINE
  5
15B
330
155
100
AcDbEntity
  8
VERMASSUNG
100
AcDbLine
 10
219.8656972958
 20
98.0224080844
 30
0.0
 11
254.4249485128
 21
98.0224080844
 31
0.0
  0
LINE
  5
15C
330
155
100
AcDbEntity
  8
VERMASSUNG
100
AcDbLine
 10
253.4249485128
 20
139.7224080844
 30
0.0
 11
253.4249485128
 21
98.0224080844
 31
0.0
  0
MTEXT
  5
15D
330
155
100
AcDbEntity
  8
VERMASSUNG
100
AcDbMText
 10
250.8468132078
 20
114.7674082591
 30
0.0
 40
2.0
 41
0.0
 71
     1
 72
     1
  1
%%c
  7
SLDTEXTSTYLE0
 11
-7.044195017643634E-15
 21
1.0
 31
0.0
 73
     1
 44
1.0
  0
MTEXT
  5
15E
330
155
100
AcDbEntity
  8
VERMASSUNG
100
AcDbMText
 10
250.6468132565
 20
118.3774082734
 30
0.0
 40
2.0
 41
0.0
 71
     1
 72
     1
  1
41.7
  7
SLDTEXTSTYLE0
 11
-7.044195017643634E-15
 21
1.0
 31
0.0
 73
     1
 44
1.0
  0
ENDBLK
  5
157
330
155
100
AcDbEntity
  8
0
100
AcDbBlockEnd
  0
BLOCK
  5
161
330
160
100
AcDbEntity
  8
0
100
AcDbBlockBegin
  2
_D_1
 70
     0
 10
0.0
 20
0.0
 30
0.0
  3
_D_1
  1

  0
SOLID
  5
163
330
160
100
AcDbEntity
  8
VERMASSUNG
100
AcDbTrace
 10
175.127409688
 20
139.8724080844
 30
0.0
 11
174.677409688
 21
136.8724080844
 31
0.0
 12
175.577409688
 22
136.8724080844
 32
0.0
 13
175.577409688
 23
136.8724080844
 33
0.0
  0
SOLID
  5
164
330
160
100
AcDbEntity
  8
VERMASSUNG
100
AcDbTrace
 10
175.127409688
 20
97.8724080844
 30
0.0
 11
175.577409688
 21
100.8724080844
 31
0.0
 12
174.677409688
 22
100.8724080844
 32
0.0
 13
174.677409688
 23
100.8724080844
 33
0.0
  0
LINE
  5
165
330
160
100
AcDbEntity
  8
VERMASSUNG
100
AcDbLine
 10
175.127409688
 20
139.8724080844
 30
0.0
 11
175.127409688
 21
152.3188933811
 31
0.0
  0
LINE
  5
166
330
160
100
AcDbEntity
  8
VERMASSUNG
100
AcDbLine
 10
175.127409688
 20
139.8724080844
 30
0.0
 11
175.127409688
 21
97.8724080844
 31
0.0
  0
MTEXT
  5
167
330
160
100
AcDbEntity
  8
VERMASSUNG
100
AcDbMText
 10
172.5492743831
 20
145.7088933407
 30
0.0
 40
2.0
 41
0.0
 71
     1
 72
     1
  1
%%c
  7
SLDTEXTSTYLE0
 11
-7.044195017643634E-15
 21
1.0
 31
0.0
 73
     1
 44
1.0
  0
MTEXT
  5
168
330
160
100
AcDbEntity
  8
VERMASSUNG
100
AcDbMText
 10
172.3492744318
 20
149.318893355
 30
0.0
 40
2.0
 41
0.0
 71
     1
 72
     1
  1
42
  7
SLDTEXTSTYLE0
 11
-7.044195017643634E-15
 21
1.0
 31
0.0
 73
     1
 44
1.0
  0
ENDBLK
  5
162
330
160
100
AcDbEntity
  8
0
100
AcDbBlockEnd
  0
BLOCK
  5
16B
330
16A
100
AcDbEntity
  8
0
100
AcDbBlockBegin
  2
_D_2
 70
     0
 10
0.0
 20
0.0
 30
0.0
  3
_D_2
  1

  0
SOLID
  5
16D
330
16A
100
AcDbEntity
  8
VERMASSUNG
100
AcDbTrace
 10
114.4508695739
 20
172.3474080844
 30
0.0
 11
117.4508695739
 21
171.8974080844
 31
0.0
 12
117.4508695739
 22
172.7974080844
 32
0.0
 13
117.4508695739
 23
172.7974080844
 33
0.0
  0
SOLID
  5
16E
330
16A
100
AcDbEntity
  8
VERMASSUNG
100
AcDbTrace
 10
234.4508695739
 20
172.3474080844
 30
0.0
 11
231.4508695739
 21
172.7974080844
 31
0.0
 12
231.4508695739
 22
171.8974080844
 32
0.0
 13
231.4508695739
 23
171.8974080844
 33
0.0
  0
LINE
  5
16F
330
16A
100
AcDbEntity
  8
VERMASSUNG
100
AcDbLine
 10
114.4508695739
 20
150.1474080844
 30
0.0
 11
114.4508695739
 21
173.3474080844
 31
0.0
  0
LINE
  5
170
330
16A
100
AcDbEntity
  8
VERMASSUNG
100
AcDbLine
 10
234.4508695739
 20
133.8724080844
 30
0.0
 11
234.4508695739
 21
173.3474080844
 31
0.0
  0
LINE
  5
171
330
16A
100
AcDbEntity
  8
VERMASSUNG
100
AcDbLine
 10
114.4508695739
 20
172.3474080844
 30
0.0
 11
234.4508695739
 21
172.3474080844
 31
0.0
  0
MTEXT
  5
172
330
16A
100
AcDbEntity
  8
VERMASSUNG
100
AcDbMText
 10
172.5508695418
 20
174.9255436804
 30
0.0
 40
2.0
 41
0.0
 71
     1
 72
     1
  1
120
  7
SLDTEXTSTYLE0
 73
     1
 44
1.0
  0
ENDBLK
  5
16C
330
16A
100
AcDbEntity
  8
0
100
AcDbBlockEnd
  0
BLOCK
  5
175
330
174
100
AcDbEntity
  8
0
100
AcDbBlockBegin
  2
_D_3
 70
     0
 10
0.0
 20
0.0
 30
0.0
  3
_D_3
  1

  0
SOLID
  5
177
330
174
100
AcDbEntity
  8
VERMASSUNG
100
AcDbTrace
 10
74.5008695739
 20
182.0170177165
 30
0.0
 11
77.5008695739
 21
181.5670177165
 31
0.0
 12
77.5008695739
 22
182.4670177165
 32
0.0
 13
77.5008695739
 23
182.4670177165
 33
0.0
  0
SOLID
  5
178
330
174
100
AcDbEntity
  8
VERMASSUNG
100
AcDbTrace
 10
234.4508695739
 20
182.0170177165
 30
0.0
 11
231.4508695739
 21
182.4670177165
 31
0.0
 12
231.4508695739
 22
181.5670177165
 32
0.0
 13
231.4508695739
 23
181.5670177165
 33
0.0
  0
LINE
  5
179
330
174
100
AcDbEntity
  8
VERMASSUNG
100
AcDbLine
 10
74.5008695739
 20
141.0755028082
 30
0.0
 11
74.5008695739
 21
183.0170177165
 31
0.0
  0
LINE
  5
17A
330
174
100
AcDbEntity
  8
VERMASSUNG
100
AcDbLine
 10
234.4508695739
 20
133.8724080844
 30
0.0
 11
234.4508695739
 21
183.0170177165
 31
0.0
  0
LINE
  5
17B
330
174
100
AcDbEntity
  8
VERMASSUNG
100
AcDbLine
 10
74.5008695739
 20
182.0170177165
 30
0.0
 11
234.4508695739
 21
182.0170177165
 31
0.0
  0
MTEXT
  5
17C
330
174
100
AcDbEntity
  8
VERMASSUNG
100
AcDbMText
 10
150.8758696357
 20
184.5951533124
 30
0.0
 40
2.0
 41
0.0
 71
     1
 72
     1
  1
159.95
  7
SLDTEXTSTYLE0
 73
     1
 44
1.0
  0
ENDBLK
  5
176
330
174
100
AcDbEntity
  8
0
100
AcDbBlockEnd
  0
BLOCK
  5
180
330
17F
100
AcDbEntity
  8
0
100
AcDbBlockBegin
  2
_D_4
 70
     0
 10
0.0
 20
0.0
 30
0.0
  3
_D_4
  1

  0
SOLID
  5
182
330
17F
100
AcDbEntity
  8
VERMASSUNG
100
AcDbTrace
 10
58.5008445739
 20
87.3974080844
 30
0.0
 11
58.9508445739
 21
90.3974080844
 31
0.0
 12
58.0508445739
 22
90.3974080844
 32
0.0
 13
58.0508445739
 23
90.3974080844
 33
0.0
  0
SOLID
  5
183
330
17F
100
AcDbEntity
  8
VERMASSUNG
100
AcDbTrace
 10
58.5008445739
 20
150.3474080844
 30
0.0
 11
58.0508445739
 21
147.3474080844
 31
0.0
 12
58.9508445739
 22
147.3474080844
 32
0.0
 13
58.9508445739
 23
147.3474080844
 33
0.0
  0
LINE
  5
184
330
17F
100
AcDbEntity
  8
VERMASSUNG
100
AcDbLine
 10
114.6508695739
 20
87.3974080844
 30
0.0
 11
57.5008445739
 21
87.3974080844
 31
0.0
  0
LINE
  5
185
330
17F
100
AcDbEntity
  8
VERMASSUNG
100
AcDbLine
 10
114.6508695739
 20
150.3474080844
 30
0.0
 11
57.5008445739
 21
150.3474080844
 31
0.0
  0
LINE
  5
186
330
17F
100
AcDbEntity
  8
VERMASSUNG
100
AcDbLine
 10
58.5008445739
 20
87.3974080844
 30
0.0
 11
58.5008445739
 21
150.3474080844
 31
0.0
  0
MTEXT
  5
187
330
17F
100
AcDbEntity
  8
VERMASSUNG
100
AcDbMText
 10
55.7227093177
 20
110.7674094661
 30
0.0
 40
2.0
 41
0.0
 71
     1
 72
     1
  1
KM
  7
SLDTEXTSTYLE0
 11
6.123233995736766E-17
 21
1.0
 31
0.0
 73
     1
 44
1.0
  0
MTEXT
  5
188
330
17F
100
AcDbEntity
  8
VERMASSUNG
100
AcDbMText
 10
55.922709269
 20
114.1674092783
 30
0.0
 40
2.0
 41
0.0
 71
     1
 72
     1
  1
%%c
  7
SLDTEXTSTYLE0
 11
6.123233995736766E-17
 21
1.0
 31
0.0
 73
     1
 44
1.0
  0
MTEXT
  5
189
330
17F
100
AcDbEntity
  8
VERMASSUNG
100
AcDbMText
 10
55.7227093177
 20
117.7774092926
 30
0.0
 40
2.0
 41
0.0
 71
     1
 72
     1
  1
63
  7
SLDTEXTSTYLE0
 11
6.123233995736766E-17
 21
1.0
 31
0.0
 73
     1
 44
1.0
  0
MTEXT
  5
18A
330
17F
100
AcDbEntity
  8
VERMASSUNG
100
AcDbMText
 10
55.7227093177
 20
121.7649091928
 30
0.0
 40
2.0
 41
0.0
 71
     1
 72
     1
  1
XMZ
  7
SLDTEXTSTYLE0
 11
6.123233995736766E-17
 21
1.0
 31
0.0
 73
     1
 44
1.0
  0
ENDBLK
  5
181
330
17F
100
AcDbEntity
  8
0
100
AcDbBlockEnd
  0
BLOCK
  5
18D
330
18C
100
AcDbEntity
  8
0
100
AcDbBlockBegin
  2
_D_5
 70
     0
 10
0.0
 20
0.0
 30
0.0
  3
_D_5
  1

  0
SOLID
  5
18F
330
18C
100
AcDbEntity
  8
VERMASSUNG
100
AcDbTrace
 10
132.4508695739
 20
162.4439271808
 30
0.0
 11
135.4508695739
 21
161.9939271808
 31
0.0
 12
135.4508695739
 22
162.8939271808
 32
0.0
 13
135.4508695739
 23
162.8939271808
 33
0.0
  0
SOLID
  5
190
330
18C
100
AcDbEntity
  8
VERMASSUNG
100
AcDbTrace
 10
234.4508695739
 20
162.4439271808
 30
0.0
 11
231.4508695739
 21
162.8939271808
 31
0.0
 12
231.4508695739
 22
161.9939271808
 32
0.0
 13
231.4508695739
 23
161.9939271808
 33
0.0
  0
LINE
  5
191
330
18C
100
AcDbEntity
  8
VERMASSUNG
100
AcDbLine
 10
132.4508695739
 20
149.3474080844
 30
0.0
 11
132.4508695739
 21
163.4439271808
 31
0.0
  0
LINE
  5
192
330
18C
100
AcDbEntity
  8
VERMASSUNG
100
AcDbLine
 10
234.4508695739
 20
133.8724080844
 30
0.0
 11
234.4508695739
 21
163.4439271808
 31
0.0
  0
LINE
  5
193
330
18C
100
AcDbEntity
  8
VERMASSUNG
100
AcDbLine
 10
132.4508695739
 20
162.4439271808
 30
0.0
 11
234.4508695739
 21
162.4439271808
 31
0.0
  0
MTEXT
  5
194
330
18C
100
AcDbEntity
  8
VERMASSUNG
100
AcDbMText
 10
181.5508695418
 20
165.0220627768
 30
0.0
 40
2.0
 41
0.0
 71
     1
 72
     1
  1
102
  7
SLDTEXTSTYLE0
 73
     1
 44
1.0
  0
ENDBLK
  5
18E
330
18C
100
AcDbEntity
  8
0
100
AcDbBlockEnd
  0
ENDSEC
  0
SECTION
  2
ENTITIES
  0
MTEXT
  5
78
330
1F
100
AcDbEntity
  8
KOPF_DÜNN
100
AcDbMText
 10
13.8892156294
 20
23.8442973028
 30
0.0
 40
3.0
 41
0.0
 71
     1
 72
     1
  1
KY6.E25.K01.120
  7
SLDTEXTSTYLE0
 73
     1
 44
1.0
  0
MTEXT
  5
79
330
1F
100
AcDbEntity
  8
VERMASSUNG
100
AcDbMText
 10
13.9329988022
 20
28.8834360957
 30
0.0
 40
3.0
 41
0.0
 71
     1
 72
     1
  1
Spannzangenfutter ER_Collet chuck ER
  7
SLDTEXTSTYLE0
 73
     1
 44
1.0
  0
MTEXT
  5
7A
330
1F
100
AcDbEntity
  8
VERMASSUNG
100
AcDbMText
 10
98.8601118557
 20
13.8365368761
 30
0.0
 40
2.0
 41
0.0
 71
     1
 72
     1
  1
Datum: 16.02.2018
  7
SLDTEXTSTYLE0
 73
     1
 44
1.0
  0
MTEXT
  5
7B
330
1F
100
AcDbEntity
  8
VERMASSUNG
100
AcDbMText
 10
13.933048693
 20
18.0482802738
 30
0.0
 40
2.0
 41
0.0
 71
     1
 72
     1
  1
KM63 XMZ / Ø42
  7
SLDTEXTSTYLE0
 73
     1
 44
1.0
  0
MTEXT
  5
7C
330
1F
100
AcDbEntity
  8
VERMASSUNG
100
AcDbMText
 10
13.9808475933
 20
13.9090974274
 30
0.0
 40
2.0
 41
0.0
 71
     1
 72
     1
  1
Gewicht: 1458g
  7
SLDTEXTSTYLE0
 73
     1
 44
1.0
  0
LINE
  5
7D
330
1F
100
AcDbEntity
  8
0
  6
Continuous
 62
     7
370
    25
100
AcDbLine
 10
215.250869705
 20
98.0224071814
 30
0.0
 11
219.8899364608
 21
98.0224071814
 31
0.0
  0
LINE
  5
7E
330
1F
100
AcDbEntity
  8
0
  6
Continuous
 62
     7
370
    25
100
AcDbLine
 10
219.9020958083
 20
139.7224089874
 30
0.0
 11
215.250869705
 21
139.7224089874
 31
0.0
  0
LINE
  5
7F
330
1F
100
AcDbEntity
  8
0
  6
Continuous
 62
     7
370
    25
100
AcDbLine
 10
215.250869705
 20
139.7224089874
 30
0.0
 11
214.450871064
 21
138.9224084838
 31
0.0
  0
LINE
  5
80
330
1F
100
AcDbEntity
  8
0
  6
Continuous
 62
     7
370
    25
100
AcDbLine
 10
214.450871064
 20
98.8224076851
 30
0.0
 11
215.250869705
 21
98.0224071814
 31
0.0
  0
LINE
  5
81
330
1F
100
AcDbEntity
  8
0
  6
Continuous
 62
     7
370
    25
100
AcDbLine
 10
232.6167872684
 20
100.6956792249
 30
0.0
 11
234.4508668917
 21
103.8724084197
 31
0.0
  0
LINE
  5
82
330
1F
100
AcDbEntity
  8
0
  6
Continuous
 62
     7
370
    25
100
AcDbLine
 10
234.4508668917
 20
133.8724077492
 30
0.0
 11
232.6171076434
 21
137.0485818757
 31
0.0
  0
ARC
  5
83
330
1F
100
AcDbEntity
  8
0
  6
Continuous
 62
     7
370
    25
100
AcDbCircle
 10
131.4508695739
 20
88.3974080844
 30
0.0
 40
1.0
100
AcDbArc
 50
270.0
 51
0.0
  0
ARC
  5
84
330
1F
100
AcDbEntity
  8
0
  6
Continuous
 62
     7
370
    25
100
AcDbCircle
 10
131.4508695739
 20
149.3474080844
 30
0.0
 40
1.0
100
AcDbArc
 50
0.0
 51
90.0
  0
LINE
  5
85
330
1F
100
AcDbEntity
  8
0
  6
Continuous
 62
     7
370
    25
100
AcDbLine
 10
127.6850676673
 20
87.397408001
 30
0.0
 11
131.4508704977
 21
87.397408001
 31
0.0
  0
LINE
  5
86
330
1F
100
AcDbEntity
  8
0
  6
Continuous
 62
     7
370
    25
100
AcDbLine
 10
131.4508704977
 20
150.3474081679
 30
0.0
 11
127.6850676673
 21
150.3474081679
 31
0.0
  0
LINE
  5
87
330
1F
100
AcDbEntity
  8
0
  6
Continuous
 62
     7
370
    25
100
AcDbLine
 10
114.6508695688
 20
87.397408001
 30
0.0
 11
121.0166718388
 21
87.397408001
 31
0.0
  0
LINE
  5
88
330
1F
100
AcDbEntity
  8
0
  6
Continuous
 62
     7
370
    25
100
AcDbLine
 10
121.0166718388
 20
150.3474081679
 30
0.0
 11
114.6508695688
 21
150.3474081679
 31
0.0
  0
ARC
  5
89
330
1F
100
AcDbEntity
  8
0
  6
Continuous
 62
     7
370
    25
100
AcDbCircle
 10
114.6508695739
 20
87.5974080844
 30
0.0
 40
0.2000000000000028
100
AcDbArc
 50
180.0
 51
270.0
  0
ARC
  5
8A
330
1F
100
AcDbEntity
  8
0
  6
Continuous
 62
     7
370
    25
100
AcDbCircle
 10
114.6508695739
 20
150.1474080844
 30
0.0
 40
0.2000000000000171
100
AcDbArc
 50
90.0
 51
180.0
  0
LINE
  5
8B
330
1F
100
AcDbEntity
  8
0
  6
Continuous
 62
     7
370
    25
100
AcDbLine
 10
122.4758694457
 20
147.8200035913
 30
0.0
 11
121.0166718388
 21
150.3474081679
 31
0.0
  0
ARC
  5
8C
330
1F
100
AcDbEntity
  8
0
  6
Continuous
 62
     7
370
    25
100
AcDbCircle
 10
114.0219346993
 20
93.3224080844
 30
0.0
 40
0.8000000000000081
100
AcDbArc
 50
57.576802718
 51
107.5
  0
ARC
  5
8D
330
1F
100
AcDbEntity
  8
0
  6
Continuous
 62
     7
370
    25
100
AcDbCircle
 10
114.0219346993
 20
144.4224080844
 30
0.0
 40
0.7999999999999962
100
AcDbArc
 50
252.5
 51
302.423197282
  0
ARC
  5
8E
330
1F
100
AcDbEntity
  8
0
  6
Continuous
 62
     7
370
    25
100
AcDbCircle
 10
136.4508695739
 20
93.8724080844
 30
0.0
 40
4.0
100
AcDbArc
 50
90.0
 51
180.0
  0
ARC
  5
8F
330
1F
100
AcDbEntity
  8
0
  6
Continuous
 62
     7
370
    25
100
AcDbCircle
 10
136.4508695739
 20
143.8724080844
 30
0.0
 40
4.0
100
AcDbArc
 50
180.0
 51
270.0
  0
LINE
  5
90
330
1F
100
AcDbEntity
  8
0
  6
Continuous
 62
     7
370
    25
100
AcDbLine
 10
113.2906875151
 20
93.9306693895
 30
0.0
 11
113.7813700639
 21
94.0853825583
 31
0.0
  0
LINE
  5
91
330
1F
100
AcDbEntity
  8
0
  6
Continuous
 62
     7
370
    25
100
AcDbLine
 10
113.7813700639
 20
143.6594336106
 30
0.0
 11
113.2906875151
 21
143.8141467793
 31
0.0
  0
LINE
  5
92
330
1F
100
AcDbEntity
  8
0
  6
Continuous
 62
     7
370
    25
100
AcDbLine
 10
84.0557063507
 20
142.3460247739
 30
0.0
 11
76.0008706289
 21
141.941529028
 31
0.0
  0
LINE
  5
93
330
1F
100
AcDbEntity
  8
0
  6
Continuous
 62
     7
370
    25
100
AcDbLine
 10
113.2906875151
 20
143.8141467793
 30
0.0
 11
99.9644244599
 21
143.1449281795
 31
0.0
  0
LINE
  5
94
330
1F
100
AcDbEntity
  8
0
  6
Continuous
 62
     7
370
    25
100
AcDbLine
 10
99.9653809281
 20
94.5998395605
 30
0.0
 11
113.2906875151
 21
93.9306693895
 31
0.0
  0
LINE
  5
95
330
1F
100
AcDbEntity
  8
0
  6
Continuous
 62
     7
370
    25
100
AcDbLine
 10
76.0008706289
 20
95.8032871409
 30
0.0
 11
84.0557175266
 21
95.3987895323
 31
0.0
  0
LINE
  5
96
330
1F
100
AcDbEntity
  8
0
  6
Continuous
 62
     7
370
    25
100
AcDbLine
 10
76.0008706289
 20
141.941529028
 30
0.0
 11
74.5008713143
 21
141.0755033417
 31
0.0
  0
LINE
  5
97
330
1F
100
AcDbEntity
  8
0
  6
Continuous
 62
     7
370
    25
100
AcDbLine
 10
203.9508721369
 20
139.8724078013
 30
0.0
 11
136.4508694547
 21
139.8724078013
 31
0.0
  0
LINE
  5
98
330
1F
100
AcDbEntity
  8
0
  6
Continuous
 62
     7
370
    25
100
AcDbLine
 10
136.4508694547
 20
97.8724083676
 30
0.0
 11
203.9508721369
 21
97.8724083676
 31
0.0
  0
ARC
  5
99
330
1F
100
AcDbEntity
  8
0
  6
Continuous
 62
     7
370
    25
100
AcDbCircle
 10
203.9508695739
 20
137.8724080844
 30
0.0
 40
2.000000000000028
100
AcDbArc
 50
0.0
 51
90.0
  0
ARC
  5
9A
330
1F
100
AcDbEntity
  8
0
  6
Continuous
 62
     7
370
    25
100
AcDbCircle
 10
203.9508695739
 20
99.8724080844
 30
0.0
 40
2.000000000000028
100
AcDbArc
 50
270.0
 51
0.0
  0
LINE
  5
9B
330
1F
100
AcDbEntity
  8
0
  6
Continuous
 62
     7
370
    25
100
AcDbLine
 10
74.5008713143
 20
96.6693128271
 30
0.0
 11
76.0008706289
 21
95.8032871409
 31
0.0
  0
ARC
  5
9C
330
1F
100
AcDbEntity
  8
0
  6
Continuous
 62
     7
370
    25
100
AcDbCircle
 10
206.9508695739
 20
135.8724080844
 30
0.0
 40
1.0
100
AcDbArc
 50
180.0
 51
270.0
  0
ARC
  5
9D
330
1F
100
AcDbEntity
  8
0
  6
Continuous
 62
     7
370
    25
100
AcDbCircle
 10
206.9508695739
 20
101.8724080844
 30
0.0
 40
1.0
100
AcDbArc
 50
90.0
 51
180.0
  0
LINE
  5
9E
330
1F
100
AcDbEntity
  8
0
  6
Continuous
 62
     7
370
    25
100
AcDbLine
 10
214.450871064
 20
134.8724088444
 30
0.0
 11
206.950870766
 21
134.8724088444
 31
0.0
  0
LINE
  5
9F
330
1F
100
AcDbEntity
  8
0
  6
Continuous
 62
     7
370
    25
100
AcDbLine
 10
206.950870766
 20
102.8724073245
 30
0.0
 11
214.450871064
 21
102.8724073245
 31
0.0
  0
LINE
  5
A0
330
1F
100
AcDbEntity
  8
0
  6
Continuous
 62
     7
370
    25
100
AcDbLine
 10
127.6850676673
 20
150.3474081679
 30
0.0
 11
126.2258695947
 21
147.8200035913
 31
0.0
  0
ARC
  5
A1
330
1F
100
AcDbEntity
  8
0
  6
Continuous
 62
     7
370
    25
100
AcDbCircle
 10
123.4758695739
 20
147.7224080844
 30
0.0
 40
1.000000000000014
100
AcDbArc
 50
180.0
 51
270.0
  0
LINE
  5
A2
330
1F
100
AcDbEntity
  8
0
  6
Continuous
 62
     7
370
    25
100
AcDbLine
 10
121.0166718388
 20
87.397408001
 30
0.0
 11
122.4758694457
 21
89.9248125775
 31
0.0
  0
ARC
  5
A3
330
1F
100
AcDbEntity
  8
0
  6
Continuous
 62
     7
370
    25
100
AcDbCircle
 10
123.4758695739
 20
90.0224080844
 30
0.0
 40
1.000000000000014
100
AcDbArc
 50
90.0
 51
180.0
  0
LINE
  5
A4
330
1F
100
AcDbEntity
  8
0
  6
Continuous
 62
     7
370
    25
100
AcDbLine
 10
125.2258694308
 20
146.7224082722
 30
0.0
 11
123.4758696096
 21
146.7224082722
 31
0.0
  0
LINE
  5
A5
330
1F
100
AcDbEntity
  8
0
  6
Continuous
 62
     7
370
    25
100
AcDbLine
 10
126.2258695947
 20
89.9248125775
 30
0.0
 11
127.6850676673
 21
87.397408001
 31
0.0
  0
ARC
  5
A6
330
1F
100
AcDbEntity
  8
0
  6
Continuous
 62
     7
370
    25
100
AcDbCircle
 10
125.2258695739
 20
147.7224080844
 30
0.0
 40
1.0
100
AcDbArc
 50
270.0
 51
0.0
  0
LINE
  5
A7
330
1F
100
AcDbEntity
  8
0
  6
Continuous
 62
     7
370
    25
100
AcDbLine
 10
123.4758696096
 20
91.0224078967
 30
0.0
 11
125.2258694308
 21
91.0224078967
 31
0.0
  0
ARC
  5
A8
330
1F
100
AcDbEntity
  8
0
  6
Continuous
 62
     7
370
    25
100
AcDbCircle
 10
125.2258695739
 20
90.0224080844
 30
0.0
 40
1.0
100
AcDbArc
 50
0.0
 51
90.0
  0
LINE
  5
A9
330
1F
100
AcDbEntity
  8
0
  6
Continuous
 62
     7
370
    25
100
AcDbLine
 10
223.3211597937
 20
139.4852029903
 30
0.0
 11
231.0733696955
 21
139.4852029903
 31
0.0
  0
SPLINE
  5
AA
330
1F
100
AcDbEntity
  8
0
  6
Continuous
 62
     7
370
    25
100
AcDbSpline
210
0.0
220
0.0
230
1.0
 70
     8
 71
     3
 72
    11
 73
     7
 74
     0
 42
0.000000001
 43
0.00000001
 40
0.0
 40
0.0
 40
0.0
 40
0.0
 40
0.1992810305630478
 40
0.4754499861448289
 40
0.7457030097323076
 40
0.9999999999999999
 40
0.9999999999999999
 40
0.9999999999999999
 40
0.9999999999999999
 10
223.3211597936612
 20
139.4852029903322
 30
0.0
 10
223.0235746258155
 20
139.4884895750181
 30
0.0
 10
222.3135880127928
 20
139.4963307962269
 30
0.0
 10
221.2818238031513
 20
139.5629328485126
 30
0.0
 10
220.373954152005
 20
139.6575442456207
 30
0.0
 10
220.0889317647204
 20
139.6937486242188
 30
0.0
 10
219.9507555501919
 20
139.7113001717716
 30
0.0
  0
SPLINE
  5
AB
330
1F
100
AcDbEntity
  8
0
  6
Continuous
 62
     7
370
    25
100
AcDbSpline
210
0.0
220
0.0
230
1.0
 70
     8
 71
     3
 72
    13
 73
     9
 74
     0
 42
0.000000001
 43
0.00000001
 40
0.0
 40
0.0
 40
0.0
 40
0.0
 40
0.0636760425844605
 40
0.2608834665947876
 40
0.4545547851537551
 40
0.6614897415190627
 40
0.8835833834707212
 40
1.0
 40
1.0
 40
1.0
 40
1.0
 10
219.8949358003598
 20
139.715949334064
 30
0.0
 10
219.8826507085694
 20
139.717228345051
 30
0.0
 10
219.8323181627071
 20
139.7224685077016
 30
0.0
 10
220.1280560150843
 20
139.6772315182761
 30
0.0
 10
220.7207020049077
 20
139.6005516998005
 30
0.0
 10
221.6115113147399
 20
139.5148855171586
 30
0.0
 10
222.5277807277992
 20
139.4652408444791
 30
0.0
 10
223.118132644582
 20
139.460557713654
 30
0.0
 10
223.3211597936612
 20
139.4589471443086
 30
0.0
  0
LINE
  5
AC
330
1F
100
AcDbEntity
  8
0
  6
Continuous
 62
     7
370
    25
100
AcDbLine
 10
223.3211597937
 20
139.4589471443
 30
0.0
 11
231.0733696955
 21
139.4589471443
 31
0.0
  0
LINE
  5
AD
330
1F
100
AcDbEntity
  8
0
  6
Continuous
 62
     7
370
    25
100
AcDbLine
 10
231.0733696955
 20
131.8947600944
 30
0.0
 11
231.0733696955
 21
139.4589471443
 31
0.0
  0
LINE
  5
AE
330
1F
100
AcDbEntity
  8
0
  6
Continuous
 62
     7
370
    25
100
AcDbLine
 10
223.3211597937
 20
131.8947600944
 30
0.0
 11
231.0733696955
 21
131.8947600944
 31
0.0
  0
SPLINE
  5
AF
330
1F
100
AcDbEntity
  8
0
  6
Continuous
 62
     7
370
    25
100
AcDbSpline
210
0.0
220
0.0
230
1.0
 70
     8
 71
     3
 72
    17
 73
    13
 74
     0
 42
0.000000001
 43
0.00000001
 40
0.0
 40
0.0
 40
0.0
 40
0.0
 40
0.0849598870998341
 40
0.2026995531655726
 40
0.3179171162448141
 40
0.4263320453702614
 40
0.5329713508880026
 40
0.6313697947822435
 40
0.7280136520145233
 40
0.8312797282097599
 40
0.9421083258356515
 40
1.0
 40
1.0
 40
1.0
 40
1.0
 10
223.3211597936612
 20
126.3042607157021
 30
0.0
 10
223.0238659990022
 20
126.3241808225662
 30
0.0
 10
222.3145745746214
 20
126.3717067421288
 30
0.0
 10
221.276096692695
 20
126.8112215153248
 30
0.0
 10
220.3941772868669
 20
127.5781268083264
 30
0.0
 10
219.8829549119874
 20
128.5350683291682
 30
0.0
 10
219.8023734609077
 20
129.5123740421132
 30
0.0
 10
220.1117582644623
 20
130.3827815437268
 30
0.0
 10
220.7268833584506
 20
131.091069022799
 30
0.0
 10
221.6117720708138
 20
131.6138752901464
 30
0.0
 10
222.5292963892258
 20
131.8640617156173
 30
0.0
 10
223.1188655236078
 20
131.8869176987701
 30
0.0
 10
223.3211597936612
 20
131.8947600944429
 30
0.0
  0
LINE
  5
B0
330
1F
100
AcDbEntity
  8
0
  6
Continuous
 62
     7
370
    25
100
AcDbLine
 10
223.3211597937
 20
126.3042607157
 30
0.0
 11
231.0733696955
 21
126.3042607157
 31
0.0
  0
LINE
  5
B1
330
1F
100
AcDbEntity
  8
0
  6
Continuous
 62
     7
370
    25
100
AcDbLine
 10
231.0733696955
 20
111.2819665855
 30
0.0
 11
231.0733696955
 21
126.3042607157
 31
0.0
  0
LINE
  5
B2
330
1F
100
AcDbEntity
  8
0
  6
Continuous
 62
     7
370
    25
100
AcDbLine
 10
223.3211597937
 20
111.2819665855
 30
0.0
 11
231.0733696955
 21
111.2819665855
 31
0.0
  0
SPLINE
  5
B3
330
1F
100
AcDbEntity
  8
0
  6
Continuous
 62
     7
370
    25
100
AcDbSpline
210
0.0
220
0.0
230
1.0
 70
     8
 71
     3
 72
    17
 73
    13
 74
     0
 42
0.000000001
 43
0.00000001
 40
0.0
 40
0.0
 40
0.0
 40
0.0
 40
0.0849661540309714
 40
0.2027145038353644
 40
0.3179405422822193
 40
0.4263634823425194
 40
0.5376352266184736
 40
0.6360088158613784
 40
0.7328947431846804
 40
0.8365481417481639
 40
0.9477167693335683
 40
1.0
 40
1.0
 40
1.0
 40
1.0
 10
223.3211597936612
 20
105.7177225871473
 30
0.0
 10
223.0238663960764
 20
105.7342251952201
 30
0.0
 10
222.3145759230377
 20
105.7735975552573
 30
0.0
 10
221.2760889720677
 20
106.1417691643396
 30
0.0
 10
220.3942048748002
 20
106.8109116217267
 30
0.0
 10
219.8756993266704
 20
107.7055112442767
 30
0.0
 10
219.8032209349927
 20
108.6841395727508
 30
0.0
 10
220.134587734419
 20
109.6053240066906
 30
0.0
 10
220.7641170359417
 20
110.3799196797843
 30
0.0
 10
221.6616961946388
 20
110.9720391926042
 30
0.0
 10
222.5675203463715
 20
111.2503159937997
 30
0.0
 10
223.1385158609586
 20
111.2742960892878
 30
0.0
 10
223.3211597936612
 20
111.2819665855258
 30
0.0
  0
LINE
  5
B4
330
1F
100
AcDbEntity
  8
0
  6
Continuous
 62
     7
370
    25
100
AcDbLine
 10
223.3211597937
 20
105.7177225871
 30
0.0
 11
231.0733696955
 21
105.7177225871
 31
0.0
  0
LINE
  5
B5
330
1F
100
AcDbEntity
  8
0
  6
Continuous
 62
     7
370
    25
100
AcDbLine
 10
231.0733696955
 20
98.2596131785
 30
0.0
 11
231.0733696955
 21
105.7177225871
 31
0.0
  0
LINE
  5
B6
330
1F
100
AcDbEntity
  8
0
  6
Continuous
 62
     7
370
    25
100
AcDbLine
 10
223.3211597937
 20
98.2596131785
 30
0.0
 11
231.0733696955
 21
98.2596131785
 31
0.0
  0
SPLINE
  5
B7
330
1F
100
AcDbEntity
  8
0
  6
Continuous
 62
     7
370
    25
100
AcDbSpline
210
0.0
220
0.0
230
1.0
 70
     8
 71
     3
 72
    13
 73
     9
 74
     0
 42
0.000000001
 43
0.00000001
 40
0.0
 40
0.0
 40
0.0
 40
0.0
 40
0.050963035387726
 40
0.2508480649880116
 40
0.447148933649269
 40
0.6568935994685271
 40
0.8820027300910357
 40
1.0
 40
1.0
 40
1.0
 40
1.0
 10
219.8899364607792
 20
98.02775669828945
 30
0.0
 10
219.8807980273181
 20
98.02611286824786
 30
0.0
 10
219.8358172224407
 20
98.01802167858534
 30
0.0
 10
220.1300518997755
 20
98.05681699794629
 30
0.0
 10
220.7201314614389
 20
98.12612457999442
 30
0.0
 10
221.6116838592303
 20
98.20660120221108
 30
0.0
 10
222.5277598323266
 20
98.25363492374477
 30
0.0
 10
223.1181272970993
 20
98.25808333223164
 30
0.0
 10
223.3211597936612
 20
98.25961317853027
 30
0.0
  0
LINE
  5
B8
330
1F
100
AcDbEntity
  8
0
  6
Continuous
 62
     7
370
    25
100
AcDbLine
 10
215.250869705
 20
118.7874060839
 30
0.0
 11
215.250869705
 21
139.7224089874
 31
0.0
  0
LINE
  5
B9
330
1F
100
AcDbEntity
  8
0
  6
Continuous
 62
     7
370
    25
100
AcDbLine
 10
215.250869705
 20
98.0224071814
 30
0.0
 11
215.250869705
 21
118.7874060839
 31
0.0
  0
LINE
  5
BA
330
1F
100
AcDbEntity
  8
0
  6
Continuous
 62
     7
370
    25
100
AcDbLine
 10
214.450871064
 20
118.7906675537
 30
0.0
 11
214.450871064
 21
138.9224084838
 31
0.0
  0
LINE
  5
BB
330
1F
100
AcDbEntity
  8
0
  6
Continuous
 62
     7
370
    25
100
AcDbLine
 10
214.450871064
 20
98.8224076851
 30
0.0
 11
214.450871064
 21
118.7906675537
 31
0.0
  0
LINE
  5
BC
330
1F
100
AcDbEntity
  8
0
  6
Continuous
 62
     7
370
    25
100
AcDbLine
 10
232.5707501309
 20
100.7222591712
 30
0.0
 11
232.5517958539
 21
100.7133743538
 31
0.0
  0
LINE
  5
BD
330
1F
100
AcDbEntity
  8
0
  6
Continuous
 62
     7
370
    25
100
AcDbLine
 10
232.3575219648
 20
100.4121529682
 30
0.0
 11
232.5517958539
 21
100.7133743538
 31
0.0
  0
LINE
  5
BE
330
1F
100
AcDbEntity
  8
0
  6
Continuous
 62
     7
370
    25
100
AcDbLine
 10
231.3029220837
 20
98.6108745261
 30
0.0
 11
232.3575219648
 21
100.4121529682
 31
0.0
  0
LINE
  5
BF
330
1F
100
AcDbEntity
  8
0
  6
Continuous
 62
     7
370
    25
100
AcDbLine
 10
231.0733696955
 20
98.2596131785
 30
0.0
 11
231.3029220837
 21
98.6108745261
 31
0.0
  0
LINE
  5
C0
330
1F
100
AcDbEntity
  8
0
  6
Continuous
 62
     7
370
    25
100
AcDbLine
 10
231.0733696955
 20
105.7177225871
 30
0.0
 11
231.3029220837
 21
106.1961271612
 31
0.0
  0
LINE
  5
C1
330
1F
100
AcDbEntity
  8
0
  6
Continuous
 62
     7
370
    25
100
AcDbLine
 10
231.3029220837
 20
106.1961271612
 30
0.0
 11
232.3575219648
 21
107.3766921459
 31
0.0
  0
LINE
  5
C2
330
1F
100
AcDbEntity
  8
0
  6
Continuous
 62
     7
370
    25
100
AcDbLine
 10
232.3575219648
 20
107.3766921459
 30
0.0
 11
232.5517958539
 21
107.7869434653
 31
0.0
  0
SPLINE
  5
C3
330
1F
100
AcDbEntity
  8
0
  6
Continuous
 62
     7
370
    25
100
AcDbSpline
210
0.0
220
0.0
230
1.0
 70
     8
 71
     3
 72
     9
 73
     5
 74
     0
 42
0.000000001
 43
0.00000001
 40
0.0
 40
0.0
 40
0.0
 40
0.0
 40
0.5000512347871114
 40
1.0
 40
1.0
 40
1.0
 40
1.0
 10
232.5517958538991
 20
107.7869434653311
 30
0.0
 10
232.5920093845834
 20
108.4358298714077
 30
0.0
 10
232.6724282054697
 20
109.7334697149585
 30
0.0
 10
232.5920038907409
 20
111.0311079953688
 30
0.0
 10
232.5517958538991
 20
111.6798606513529
 30
0.0
  0
LINE
  5
C4
330
1F
100
AcDbEntity
  8
0
  6
Continuous
 62
     7
370
    25
100
AcDbLine
 10
232.3575219648
 20
111.7879969812
 30
0.0
 11
232.5517958539
 21
111.6798606514
 31
0.0
  0
LINE
  5
C5
330
1F
100
AcDbEntity
  8
0
  6
Continuous
 62
     7
370
    25
100
AcDbLine
 10
231.3029220837
 20
111.1558664402
 30
0.0
 11
232.3575219648
 21
111.7879969812
 31
0.0
  0
LINE
  5
C6
330
1F
100
AcDbEntity
  8
0
  6
Continuous
 62
     7
370
    25
100
AcDbLine
 10
231.0733696955
 20
111.2819665855
 30
0.0
 11
231.3029220837
 21
111.1558664402
 31
0.0
  0
LINE
  5
C7
330
1F
100
AcDbEntity
  8
0
  6
Continuous
 62
     7
370
    25
100
AcDbLine
 10
231.0733696955
 20
126.3042607157
 30
0.0
 11
231.3029220837
 21
126.434257049
 31
0.0
  0
LINE
  5
C8
330
1F
100
AcDbEntity
  8
0
  6
Continuous
 62
     7
370
    25
100
AcDbLine
 10
231.3029220837
 20
126.434257049
 30
0.0
 11
232.3575219648
 21
125.8161308056
 31
0.0
  0
LINE
  5
C9
330
1F
100
AcDbEntity
  8
0
  6
Continuous
 62
     7
370
    25
100
AcDbLine
 10
232.3575219648
 20
125.8161308056
 30
0.0
 11
232.5517958539
 21
125.9276082552
 31
0.0
  0
SPLINE
  5
CA
330
1F
100
AcDbEntity
  8
0
  6
Continuous
 62
     7
370
    25
100
AcDbSpline
210
0.0
220
0.0
230
1.0
 70
     8
 71
     3
 72
     9
 73
     5
 74
     0
 42
0.000000001
 43
0.00000001
 40
0.0
 40
0.0
 40
0.0
 40
0.0
 40
0.5000512668860702
 40
1.0
 40
1.0
 40
1.0
 40
1.0
 10
232.5517958538991
 20
125.9276082551568
 30
0.0
 10
232.5920093863047
 20
126.5795563228207
 30
0.0
 10
232.6724282054712
 20
127.8833187784658
 30
0.0
 10
232.5920038890202
 20
129.1870804073406
 30
0.0
 10
232.5517958538991
 20
129.838894381979
 30
0.0
  0
LINE
  5
CB
330
1F
100
AcDbEntity
  8
0
  6
Continuous
 62
     7
370
    25
100
AcDbLine
 10
232.3575219648
 20
130.2482516317
 30
0.0
 11
232.5517958539
 21
129.838894382
 31
0.0
  0
LINE
  5
CC
330
1F
100
AcDbEntity
  8
0
  6
Continuous
 62
     7
370
    25
100
AcDbLine
 10
231.3029220837
 20
131.417399533
 30
0.0
 11
232.3575219648
 21
130.2482516317
 31
0.0
  0
LINE
  5
CD
330
1F
100
AcDbEntity
  8
0
  6
Continuous
 62
     7
370
    25
100
AcDbLine
 10
231.0733696955
 20
131.8947600944
 30
0.0
 11
231.3029220837
 21
131.417399533
 31
0.0
  0
LINE
  5
CE
330
1F
100
AcDbEntity
  8
0
  6
Continuous
 62
     7
370
    25
100
AcDbLine
 10
231.0733696955
 20
139.4589471443
 30
0.0
 11
231.3029220837
 21
139.1105375065
 31
0.0
  0
LINE
  5
CF
330
1F
100
AcDbEntity
  8
0
  6
Continuous
 62
     7
370
    25
100
AcDbLine
 10
231.3029220837
 20
139.1105375065
 30
0.0
 11
232.3575219648
 21
137.3118462785
 31
0.0
  0
LINE
  5
D0
330
1F
100
AcDbEntity
  8
0
  6
Continuous
 62
     7
370
    25
100
AcDbLine
 10
232.3575219648
 20
137.3118462785
 30
0.0
 11
232.5517958539
 21
137.0130724086
 31
0.0
  0
LINE
  5
D1
330
1F
100
AcDbEntity
  8
0
  6
Continuous
 62
     7
370
    25
100
AcDbLine
 10
232.5720390814
 20
137.022560723
 30
0.0
 11
232.5517958539
 21
137.0130724086
 31
0.0
  0
LINE
  5
D2
330
1F
100
AcDbEntity
  8
0
  6
Continuous
 62
     7
370
    25
100
AcDbLine
 10
232.3575219648
 20
137.3326632007
 30
0.0
 11
232.5517958539
 21
137.0314418151
 31
0.0
  0
LINE
  5
D3
330
1F
100
AcDbEntity
  8
0
  6
Continuous
 62
     7
370
    25
100
AcDbLine
 10
231.3029220837
 20
139.1339416428
 30
0.0
 11
232.3575219648
 21
137.3326632007
 31
0.0
  0
LINE
  5
D4
330
1F
100
AcDbEntity
  8
0
  6
Continuous
 62
     7
370
    25
100
AcDbLine
 10
231.0733696955
 20
139.4852029903
 30
0.0
 11
231.3029220837
 21
139.1339416428
 31
0.0
  0
LINE
  5
D5
330
1F
100
AcDbEntity
  8
0
  6
Continuous
 62
     7
370
    25
100
AcDbLine
 10
234.4508668917
 20
118.811255567
 30
0.0
 11
234.4508668917
 21
133.8724077492
 31
0.0
  0
LINE
  5
D6
330
1F
100
AcDbEntity
  8
0
  6
Continuous
 62
     7
370
    25
100
AcDbLine
 10
234.4508668917
 20
103.8724084197
 30
0.0
 11
234.4508668917
 21
118.811255567
 31
0.0
  0
LWPOLYLINE
  5
D7
330
1F
100
AcDbEntity
  8
0
  6
Continuous
 62
     7
370
    25
100
AcDbPolyline
 90
       13
 70
   128
 43
0.0
 10
223.3211597937
 20
126.434257049
 10
222.5782698529
 20
126.5191554836
 10
221.8860140579
 20
126.7680640145
 10
221.2915545838
 20
127.164021395
 10
220.8354151385
 20
127.6800430192
 10
220.5486720937
 20
128.2809621467
 10
220.4508683222
 20
128.9258285238
 10
220.5486720937
 20
129.5706949009
 10
220.8354151385
 20
130.1716140284
 10
221.2915545838
 20
130.6876356526
 10
221.8860140579
 20
131.0835921018
 10
222.5782698529
 20
131.3325010984
 10
223.3211597937
 20
131.417399533
  0
LWPOLYLINE
  5
D8
330
1F
100
AcDbEntity
  8
0
  6
Continuous
 62
     7
370
    25
100
AcDbPolyline
 90
       13
 70
   128
 43
0.0
 10
223.3211597937
 20
106.1961271612
 10
222.5782698529
 20
106.2806269898
 10
221.8860140579
 20
106.5283662452
 10
221.2915545838
 20
106.9224637745
 10
220.8354151385
 20
107.4360620974
 10
220.5486720937
 20
108.0341593175
 10
220.4508683222
 20
108.6759970336
 10
220.5486720937
 20
109.3178338184
 10
220.8354151385
 20
109.9159319697
 10
221.2915545838
 20
110.4295293613
 10
221.8860140579
 20
110.8236268906
 10
222.5782698529
 20
111.0713670774
 10
223.3211597937
 20
111.1558664402
  0
LINE
  5
D9
330
1F
100
AcDbEntity
  8
0
  6
Continuous
 62
     7
370
    25
100
AcDbLine
 10
223.3211597937
 20
126.434257049
 30
0.0
 11
231.3029220837
 21
126.434257049
 31
0.0
  0
LINE
  5
DA
330
1F
100
AcDbEntity
  8
0
  6
Continuous
 62
     7
370
    25
100
AcDbLine
 10
223.3211597937
 20
111.1558664402
 30
0.0
 11
231.3029220837
 21
111.1558664402
 31
0.0
  0
ARC
  5
DB
330
1F
100
AcDbEntity
  8
0
  6
Continuous
 62
     7
370
    25
100
AcDbCircle
 10
223.1368014607
 20
127.9025007762
 30
0.0
 40
2.352984290411686
100
AcDbArc
 50
85.5062208395
 51
183.6350187173
  0
ARC
  5
DC
330
1F
100
AcDbEntity
  8
0
  6
Continuous
 62
     7
370
    25
100
AcDbCircle
 10
223.1325273979
 20
109.7191823155
 30
0.0
 40
2.350072844698144
100
AcDbArc
 50
177.1024883749
 51
274.6038910183
  0
ARC
  5
DD
330
1F
100
AcDbEntity
  8
0
  6
Continuous
 62
     7
370
    25
100
AcDbCircle
 10
223.1278821495
 20
127.8252681532
 30
0.0
 40
2.022880826212262
100
AcDbArc
 50
84.5172687402
 51
196.1820133581
  0
LINE
  5
DE
330
1F
100
AcDbEntity
  8
0
  6
Continuous
 62
     7
370
    25
100
AcDbLine
 10
232.1673309939
 20
125.9276082552
 30
0.0
 11
232.5517958539
 21
125.9276082552
 31
0.0
  0
ARC
  5
DF
330
1F
100
AcDbEntity
  8
0
  6
Continuous
 62
     7
370
    25
100
AcDbCircle
 10
223.1235925092
 20
109.7967117106
 30
0.0
 40
2.019455677105445
100
AcDbArc
 50
164.9485576797
 51
275.6143380668
  0
LINE
  5
E0
330
1F
100
AcDbEntity
  8
0
  6
Continuous
 62
     7
370
    25
100
AcDbLine
 10
232.1771136063
 20
111.6798606514
 30
0.0
 11
232.5517958539
 21
111.6798606514
 31
0.0
  0
LINE
  5
E1
330
1F
100
AcDbEntity
  8
0
  6
Continuous
 62
     7
370
    25
100
AcDbLine
 10
223.3211597937
 20
129.838894382
 30
0.0
 11
232.5517958539
 21
129.838894382
 31
0.0
  0
LINE
  5
E2
330
1F
100
AcDbEntity
  8
0
  6
Continuous
 62
     7
370
    25
100
AcDbLine
 10
223.3211597937
 20
107.7869434653
 30
0.0
 11
232.5517958539
 21
107.7869434653
 31
0.0
  0
LINE
  5
E3
330
1F
100
AcDbEntity
  8
0
  6
Continuous
 62
     7
370
    25
100
AcDbLine
 10
223.3211597937
 20
131.417399533
 30
0.0
 11
231.3029220837
 21
131.417399533
 31
0.0
  0
LINE
  5
E4
330
1F
100
AcDbEntity
  8
0
  6
Continuous
 62
     7
370
    25
100
AcDbLine
 10
223.3211597937
 20
106.1961271612
 30
0.0
 11
231.3029220837
 21
106.1961271612
 31
0.0
  0
LINE
  5
E5
330
1F
100
AcDbEntity
  8
0
  6
Continuous
 62
     7
370
    25
100
AcDbLine
 10
223.3211597937
 20
130.2482516317
 30
0.0
 11
232.3575219648
 21
130.2482516317
 31
0.0
  0
LINE
  5
E6
330
1F
100
AcDbEntity
  8
0
  6
Continuous
 62
     7
370
    25
100
AcDbLine
 10
223.3211597937
 20
107.3766921459
 30
0.0
 11
232.3575219648
 21
107.3766921459
 31
0.0
  0
LINE
  5
E7
330
1F
100
AcDbEntity
  8
0
  6
Continuous
 62
     7
370
    25
100
AcDbLine
 10
232.5398525732
 20
137.0314418151
 30
0.0
 11
232.5517958539
 21
137.0314418151
 31
0.0
  0
LINE
  5
E8
330
1F
100
AcDbEntity
  8
0
  6
Continuous
 62
     7
370
    25
100
AcDbLine
 10
232.3453179138
 20
137.3326632007
 30
0.0
 11
232.3575219648
 21
137.3326632007
 31
0.0
  0
LINE
  5
E9
330
1F
100
AcDbEntity
  8
0
  6
Continuous
 62
     7
370
    25
100
AcDbLine
 10
231.2874993818
 20
139.1339416428
 30
0.0
 11
231.3029220837
 21
139.1339416428
 31
0.0
  0
SPLINE
  5
EA
330
1F
100
AcDbEntity
  8
0
  6
Continuous
 62
     7
370
    25
100
AcDbSpline
210
0.0
220
0.0
230
1.0
 70
     8
 71
     3
 72
    14
 73
    10
 74
     0
 42
0.000000001
 43
0.00000001
 40
0.0
 40
0.0
 40
0.0
 40
0.0
 40
0.25
 40
0.25
 40
0.5
 40
0.5
 40
0.75
 40
0.75
 40
1.0
 40
1.0
 40
1.0
 40
1.0
 10
131.4508695738774
 20
90.79928815937487
 30
0.0
 10
131.545940061543
 20
90.92440609417848
 30
0.0
 10
131.6062443747626
 20
91.06520162654967
 30
0.0
 10
131.686507958745
 20
91.35107192524659
 30
0.0
 10
131.7054241256562
 20
91.4978574624138
 30
0.0
 10
131.7054302431146
 20
91.78764833677094
 30
0.0
 10
131.6867832341487
 20
91.93023352281627
 30
0.0
 10
131.606824930417
 20
92.21566145853546
 30
0.0
 10
131.545734523014
 20
92.35895619081602
 30
0.0
 10
131.4508695738774
 20
92.50979149356237
 30
0.0
  0
LINE
  5
EB
330
1F
100
AcDbEntity
  8
0
  6
Continuous
 62
     7
370
    25
100
AcDbLine
 10
132.450868799
 20
118.8724080844
 30
0.0
 11
132.450868799
 21
88.3974081649
 31
0.0
  0
LINE
  5
EC
330
1F
100
AcDbEntity
  8
0
  6
Continuous
 62
     7
370
    25
100
AcDbLine
 10
132.450868799
 20
149.347408004
 30
0.0
 11
132.450868799
 21
118.8724080844
 31
0.0
  0
LINE
  5
ED
330
1F
100
AcDbEntity
  8
0
  6
Continuous
 62
     7
370
    25
100
AcDbLine
 10
127.6850676673
 20
94.6863836421
 30
0.0
 11
127.6850676673
 21
144.4872936978
 31
0.0
  0
SPLINE
  5
EE
330
1F
100
AcDbEntity
  8
0
  6
Continuous
 62
     7
370
    25
100
AcDbSpline
210
0.0
220
0.0
230
1.0
 70
     8
 71
     3
 72
    25
 73
    21
 74
     0
 42
0.000000001
 43
0.00000001
 40
0.0
 40
0.0
 40
0.0
 40
0.0
 40
0.1249999999999998
 40
0.1249999999999998
 40
0.2499999999999997
 40
0.2499999999999997
 40
0.3749999999999995
 40
0.3749999999999995
 40
0.4999999999999993
 40
0.4999999999999993
 40
0.5624999999999996
 40
0.5624999999999996
 40
0.6249999999999998
 40
0.6875000000000001
 40
0.6875000000000001
 40
0.7500000000000003
 40
0.7500000000000003
 40
0.8750000000000001
 40
0.8750000000000001
 40
1.0
 40
1.0
 40
1.0
 40
1.0
 10
127.6850673784475
 20
147.5201454514896
 30
0.0
 10
127.9263148840029
 20
147.4478408414204
 30
0.0
 10
128.1422439182473
 20
147.3639475554648
 30
0.0
 10
128.5254018300899
 20
147.1712788324506
 30
0.0
 10
128.6928536155751
 20
147.0613919444348
 30
0.0
 10
128.960538271979
 20
146.8248806602624
 30
0.0
 10
129.0642102396998
 20
146.6959175309717
 30
0.0
 10
129.203341610954
 20
146.4219904510245
 30
0.0
 10
129.2380808509447
 20
146.279877299891
 30
0.0
 10
129.2385112841639
 20
146.0586236738894
 30
0.0
 10
129.2297765005745
 20
145.9830450935346
 30
0.0
 10
129.1949830973998
 20
145.8327453486584
 30
0.0
 10
129.1430902356707
 20
145.682780045651
 30
0.0
 10
129.057712023377
 20
145.5336788134311
 30
0.0
 10
128.9552362703125
 20
145.3851916876703
 30
0.0
 10
128.8951748986613
 20
145.3111031302334
 30
0.0
 10
128.6938650762102
 20
145.0959408287551
 30
0.0
 10
128.5306415561304
 20
144.9598841148851
 30
0.0
 10
128.145263355879
 20
144.7050260817328
 30
0.0
 10
127.9263138700532
 20
144.5887308012745
 30
0.0
 10
127.6850673784475
 20
144.4872942845987
 30
0.0
  0
LINE
  5
EF
330
1F
100
AcDbEntity
  8
0
  6
Continuous
 62
     7
370
    25
100
AcDbLine
 10
127.6850676673
 20
147.520145662
 30
0.0
 11
127.6850676673
 21
150.3474081679
 31
0.0
  0
LINE
  5
F0
330
1F
100
AcDbEntity
  8
0
  6
Continuous
 62
     7
370
    25
100
AcDbLine
 10
127.6850676673
 20
87.397408001
 30
0.0
 11
127.6850676673
 21
89.3356616421
 31
0.0
  0
SPLINE
  5
F1
330
1F
100
AcDbEntity
  8
0
  6
Continuous
 62
     7
370
    25
100
AcDbSpline
210
0.0
220
0.0
230
1.0
 70
     8
 71
     3
 72
    18
 73
    14
 74
     0
 42
0.000000001
 43
0.00000001
 40
0.0
 40
0.0
 40
0.0
 40
0.0
 40
0.2499999999999992
 40
0.2499999999999992
 40
0.3749999999999994
 40
0.3749999999999994
 40
0.4999999999999996
 40
0.4999999999999996
 40
0.75
 40
0.75
 40
0.875
 40
0.875
 40
1.0
 40
1.0
 40
1.0
 40
1.0
 10
131.4508695738774
 20
90.79928815937487
 30
0.0
 10
131.304253347337
 20
90.60633322747249
 30
0.0
 10
131.1006668746846
 20
90.42721518487889
 30
0.0
 10
130.7316932704704
 20
90.19035300964124
 30
0.0
 10
130.5977516827537
 20
90.11611433032863
 30
0.0
 10
130.3084064639624
 20
89.9762338444811
 30
0.0
 10
130.1520470563128
 20
89.91029254098054
 30
0.0
 10
129.6607472342313
 20
89.72821178724935
 30
0.0
 10
129.302502411348
 20
89.62652018186742
 30
0.0
 10
128.721101896935
 20
89.49828335144393
 30
0.0
 10
128.5194626007965
 20
89.45962236114946
 30
0.0
 10
128.108969941421
 20
89.39133837844761
 30
0.0
 10
127.8992355197231
 20
89.36149781398208
 30
0.0
 10
127.6850673784475
 20
89.33566075146581
 30
0.0
  0
SPLINE
  5
F2
330
1F
100
AcDbEntity
  8
0
  6
Continuous
 62
     7
370
    25
100
AcDbSpline
210
0.0
220
0.0
230
1.0
 70
     8
 71
     3
 72
    18
 73
    14
 74
     0
 42
0.000000001
 43
0.00000001
 40
0.0
 40
0.0
 40
0.0
 40
0.0
 40
0.2499999999999998
 40
0.2499999999999998
 40
0.3749999999999998
 40
0.3749999999999998
 40
0.4999999999999998
 40
0.4999999999999998
 40
0.6249999999999998
 40
0.6249999999999998
 40
0.7499999999999998
 40
0.7499999999999998
 40
1.0
 40
1.0
 40
1.0
 40
1.0
 10
127.6850673784475
 20
94.68638415413922
 30
0.0
 10
128.1135698046103
 20
94.59063421977581
 30
0.0
 10
128.522159585837
 20
94.46853823004056
 30
0.0
 10
129.1043079867551
 20
94.24745572609177
 30
0.0
 10
129.2942855070223
 20
94.16681921786468
 30
0.0
 10
129.6553853325211
 20
93.99629298925915
 30
0.0
 10
129.8270436707316
 20
93.906316121456
 30
0.0
 10
130.1525994920597
 20
93.7175413688426
 30
0.0
 10
130.3064994390014
 20
93.61874331964192
 30
0.0
 10
130.5958301403214
 20
93.41258015593237
 30
0.0
 10
130.7319990078173
 20
93.30454782097611
 30
0.0
 10
131.105199829338
 20
92.97217674772143
 30
0.0
 10
131.3038285804512
 20
92.74358672521979
 30
0.0
 10
131.4508695738774
 20
92.50979149356237
 30
0.0
  0
LINE
  5
F3
330
1F
100
AcDbEntity
  8
0
  6
Continuous
 62
     7
370
    25
100
AcDbLine
 10
121.0166718388
 20
93.8146824761
 30
0.0
 11
121.0166718388
 21
150.3474081679
 31
0.0
  0
SPLINE
  5
F4
330
1F
100
AcDbEntity
  8
0
  6
Continuous
 62
     7
370
    25
100
AcDbSpline
210
0.0
220
0.0
230
1.0
 70
     8
 71
     3
 72
    27
 73
    23
 74
     0
 42
0.000000001
 43
0.00000001
 40
0.0
 40
0.0
 40
0.0
 40
0.0
 40
0.1250000000000002
 40
0.1250000000000002
 40
0.2500000000000003
 40
0.2500000000000003
 40
0.3750000000000005
 40
0.3750000000000005
 40
0.4375000000000003
 40
0.4375000000000003
 40
0.5000000000000002
 40
0.5625000000000001
 40
0.5625000000000001
 40
0.6249999999999999
 40
0.6249999999999999
 40
0.7499999999999997
 40
0.7499999999999997
 40
0.8124999999999998
 40
0.8124999999999998
 40
0.8749999999999998
 40
0.8749999999999998
 40
1.0
 40
1.0
 40
1.0
 40
1.0
 10
121.0166717693073
 20
89.84840916988301
 30
0.0
 10
120.74671487534
 20
89.94828825774533
 30
0.0
 10
120.5030578511228
 20
90.05959351790435
 30
0.0
 10
120.0704727189176
 20
90.30907932358042
 30
0.0
 10
119.8818781517214
 20
90.44802184164763
 30
0.0
 10
119.5794383753606
 20
90.7447148768215
 30
0.0
 10
119.4628551280698
 20
90.9037334861858
 30
0.0
 10
119.3435964556449
 20
91.16076401008007
 30
0.0
 10
119.3133797886133
 20
91.24951681848516
 30
0.0
 10
119.2734831919007
 20
91.42879257537575
 30
0.0
 10
119.2535217484526
 20
91.61096117861831
 30
0.0
 10
119.2729570500406
 20
91.79892389970668
 30
0.0
 10
119.3124099277238
 20
91.9897924766712
 30
0.0
 10
119.3424386111471
 20
92.08724165711673
 30
0.0
 10
119.4609135992793
 20
92.37757850391398
 30
0.0
 10
119.5772544143881
 20
92.56966471158991
 30
0.0
 10
119.8052908258856
 20
92.8544686611713
 30
0.0
 10
119.8908247453162
 20
92.94933964973464
 30
0.0
 10
120.0771382954518
 20
93.13470071759023
 30
0.0
 10
120.1777669840241
 20
93.22517896952263
 30
0.0
 10
120.50102846836
 20
93.48985942503455
 30
0.0
 10
120.7453091540828
 20
93.65764301448895
 30
0.0
 10
121.0166717693073
 20
93.81468276279692
 30
0.0
  0
LINE
  5
F5
330
1F
100
AcDbEntity
  8
0
  6
Continuous
 62
     7
370
    25
100
AcDbLine
 10
121.0166718388
 20
87.397408001
 30
0.0
 11
121.0166718388
 21
89.8484087361
 31
0.0
  0
LINE
  5
F6
330
1F
100
AcDbEntity
  8
0
  6
Continuous
 62
     7
370
    25
100
AcDbLine
 10
114.4508695739
 20
118.8724080844
 30
0.0
 11
114.4508695739
 21
150.1474085076
 31
0.0
  0
LINE
  5
F7
330
1F
100
AcDbEntity
  8
0
  6
Continuous
 62
     7
370
    25
100
AcDbLine
 10
114.4508695739
 20
87.5974076612
 30
0.0
 11
114.4508695739
 21
118.8724080844
 31
0.0
  0
LINE
  5
F8
330
1F
100
AcDbEntity
  8
0
  6
Continuous
 62
     7
370
    25
100
AcDbLine
 10
122.4758694457
 20
144.9671110882
 30
0.0
 11
122.4758694457
 21
147.8200035913
 31
0.0
  0
SPLINE
  5
F9
330
1F
100
AcDbEntity
  8
0
  6
Continuous
 62
     7
370
    25
100
AcDbSpline
210
0.0
220
0.0
230
1.0
 70
     8
 71
     3
 72
    26
 73
    22
 74
     0
 42
0.000000001
 43
0.00000001
 40
0.0
 40
0.0
 40
0.0
 40
0.0
 40
0.1250000000000009
 40
0.1250000000000009
 40
0.2500000000000019
 40
0.2500000000000019
 40
0.3125000000000011
 40
0.3125000000000011
 40
0.3750000000000004
 40
0.3750000000000004
 40
0.4375000000000002
 40
0.4375000000000002
 40
0.5000000000000001
 40
0.5000000000000001
 40
0.5625
 40
0.5625
 40
0.6249999999999999
 40
0.6249999999999999
 40
0.7500000000000001
 40
0.7500000000000001
 40
1.0
 40
1.0
 40
1.0
 40
1.0
 10
122.4758695738774
 20
142.7720535944647
 30
0.0
 10
122.3839646631946
 20
142.9819772011591
 30
0.0
 10
122.2962678869696
 20
143.1907426180385
 30
0.0
 10
122.1320616162023
 20
143.6050772467318
 30
0.0
 10
122.0547911979356
 20
143.8128216323683
 30
0.0
 10
121.9550250916105
 20
144.1100202521851
 30
0.0
 10
121.9244121627082
 20
144.2067696041235
 30
0.0
 10
121.8695432888051
 20
144.3946691042335
 30
0.0
 10
121.8451580678763
 20
144.4864712519635
 30
0.0
 10
121.8054786913778
 20
144.657813680229
 30
0.0
 10
121.7900126121405
 20
144.7378062147617
 30
0.0
 10
121.7689162770581
 20
144.8850006239735
 30
0.0
 10
121.763403210898
 20
144.9523824915466
 30
0.0
 10
121.7633362532757
 20
145.0675514419466
 30
0.0
 10
121.7686045606251
 20
145.1162172846558
 30
0.0
 10
121.7894470877932
 20
145.1962204781067
 30
0.0
 10
121.8051212010034
 20
145.2272847214746
 30
0.0
 10
121.864440131181
 20
145.2934393865779
 30
0.0
 10
121.921459966695
 20
145.3030412538164
 30
0.0
 10
122.1202948553389
 20
145.2580259837094
 30
0.0
 10
122.291565060571
 20
145.1340999084598
 30
0.0
 10
122.4758695738774
 20
144.9671119649872
 30
0.0
  0
LINE
  5
FA
330
1F
100
AcDbEntity
  8
0
  6
Continuous
 62
     7
370
    25
100
AcDbLine
 10
122.4758694457
 20
95.4188520832
 30
0.0
 11
122.4758694457
 21
142.7720526977
 31
0.0
  0
SPLINE
  5
FB
330
1F
100
AcDbEntity
  8
0
  6
Continuous
 62
     7
370
    25
100
AcDbSpline
210
0.0
220
0.0
230
1.0
 70
     8
 71
     3
 72
     8
 73
     4
 74
     0
 42
0.000000001
 43
0.00000001
 40
0.0
 40
0.0
 40
0.0
 40
0.0
 40
1.0
 40
1.0
 40
1.0
 40
1.0
 10
122.1083459077293
 20
94.61587512191579
 30
0.0
 10
122.2260804125588
 20
94.88351880153171
 30
0.0
 10
122.3495465255172
 20
95.15248410386403
 30
0.0
 10
122.4758695738774
 20
95.41885122837438
 30
0.0
  0
SPLINE
  5
FC
330
1F
100
AcDbEntity
  8
0
  6
Continuous
 62
     7
370
    25
100
AcDbSpline
210
0.0
220
0.0
230
1.0
 70
     8
 71
     3
 72
     8
 73
     4
 74
     0
 42
0.000000001
 43
0.00000001
 40
0.0
 40
0.0
 40
0.0
 40
0.0
 40
1.0
 40
1.0
 40
1.0
 40
1.0
 10
121.0166717693073
 20
93.81468276279692
 30
0.0
 10
121.3865591500369
 20
94.08907458172892
 30
0.0
 10
121.7518926427983
 20
94.3595008898254
 30
0.0
 10
122.1083459077293
 20
94.61587512191579
 30
0.0
  0
LINE
  5
FD
330
1F
100
AcDbEntity
  8
0
  6
Continuous
 62
     7
370
    25
100
AcDbLine
 10
126.2258695947
 20
96.1526728048
 30
0.0
 11
126.2258695947
 21
141.9066025688
 31
0.0
  0
SPLINE
  5
FE
330
1F
100
AcDbEntity
  8
0
  6
Continuous
 62
     7
370
    25
100
AcDbSpline
210
0.0
220
0.0
230
1.0
 70
     8
 71
     3
 72
    10
 73
     6
 74
     0
 42
0.000000001
 43
0.00000001
 40
0.0
 40
0.0
 40
0.0
 40
0.0
 40
0.5
 40
0.5
 40
1.0
 40
1.0
 40
1.0
 40
1.0
 10
127.6850673784473
 20
144.4872942845985
 30
0.0
 10
127.4503364344782
 20
144.0348548968964
 30
0.0
 10
127.2109531267615
 20
143.595327723537
 30
0.0
 10
126.7243317754507
 20
142.7362356279953
 30
0.0
 10
126.4770624637489
 20
142.316778574772
 30
0.0
 10
126.2258695738774
 20
141.9066025182346
 30
0.0
  0
SPLINE
  5
FF
330
1F
100
AcDbEntity
  8
0
  6
Continuous
 62
     7
370
    25
100
AcDbSpline
210
0.0
220
0.0
230
1.0
 70
     8
 71
     3
 72
     8
 73
     4
 74
     0
 42
0.000000001
 43
0.00000001
 40
0.0
 40
0.0
 40
0.0
 40
0.0
 40
1.0
 40
1.0
 40
1.0
 40
1.0
 10
126.6915806989299
 20
95.37969400259182
 30
0.0
 10
127.0178395351422
 20
95.1558702732621
 30
0.0
 10
127.3496779441851
 20
94.92330442595873
 30
0.0
 10
127.6850673784475
 20
94.68638415413922
 30
0.0
  0
SPLINE
  5
100
330
1F
100
AcDbEntity
  8
0
  6
Continuous
 62
     7
370
    25
100
AcDbSpline
210
0.0
220
0.0
230
1.0
 70
     8
 71
     3
 72
     8
 73
     4
 74
     0
 42
0.000000001
 43
0.00000001
 40
0.0
 40
0.0
 40
0.0
 40
0.0
 40
1.0
 40
1.0
 40
1.0
 40
1.0
 10
126.2258695738774
 20
96.1526731812662
 30
0.0
 10
126.3823519373785
 20
95.89845292359067
 30
0.0
 10
126.537578225856
 20
95.64081913724327
 30
0.0
 10
126.6915806989299
 20
95.3796940025918
 30
0.0
  0
SPLINE
  5
101
330
1F
100
AcDbEntity
  8
0
  6
Continuous
 62
     7
370
    25
100
AcDbSpline
210
0.0
220
0.0
230
1.0
 70
     8
 71
     3
 72
    14
 73
    10
 74
     0
 42
0.000000001
 43
0.00000001
 40
0.0
 40
0.0
 40
0.0
 40
0.0
 40
0.25
 40
0.25
 40
0.5
 40
0.5
 40
0.75
 40
0.75
 40
1.0
 40
1.0
 40
1.0
 40
1.0
 10
123.4758695738774
 20
141.2666010318393
 30
0.0
 10
123.3415188253362
 20
141.3184180119172
 30
0.0
 10
123.2183399225428
 20
141.3953652479505
 30
0.0
 10
122.9895895016535
 20
141.5878500813595
 30
0.0
 10
122.8876664096603
 20
141.7006770701395
 30
0.0
 10
122.708241345315
 20
141.9535170147122
 30
0.0
 10
122.6318000964106
 20
142.0915327391938
 30
0.0
 10
122.5145121219489
 20
142.3897684459239
 30
0.0
 10
122.4758695738774
 20
142.5478564149743
 30
0.0
 10
122.4758695738774
 20
142.6872887396993
 30
0.0
  0
SPLINE
  5
102
330
1F
100
AcDbEntity
  8
0
  6
Continuous
 62
     7
370
    25
100
AcDbSpline
210
0.0
220
0.0
230
1.0
 70
     8
 71
     3
 72
    14
 73
    10
 74
     0
 42
0.000000001
 43
0.00000001
 40
0.0
 40
0.0
 40
0.0
 40
0.0
 40
0.25
 40
0.25
 40
0.5
 40
0.5
 40
0.75
 40
0.75
 40
1.0
 40
1.0
 40
1.0
 40
1.0
 10
122.4758695738774
 20
95.50382035512621
 30
0.0
 10
122.4758695738773
 20
95.6345601764972
 30
0.0
 10
122.5112906508097
 20
95.78325789021123
 30
0.0
 10
122.6238163219998
 20
96.06018770575778
 30
0.0
 10
122.7014965082742
 20
96.19349827284671
 30
0.0
 10
122.8815617399965
 20
96.43083826860858
 30
0.0
 10
122.9868417926518
 20
96.53852186859864
 30
0.0
 10
123.2158253270142
 20
96.71509381257918
 30
0.0
 10
123.3424385190132
 20
96.78639696505006
 30
0.0
 10
123.4758695738772
 20
96.83116925884701
 30
0.0
  0
SPLINE
  5
103
330
1F
100
AcDbEntity
  8
0
  6
Continuous
 62
     7
370
    25
100
AcDbSpline
210
0.0
220
0.0
230
1.0
 70
     8
 71
     3
 72
    14
 73
    10
 74
     0
 42
0.000000001
 43
0.00000001
 40
0.0
 40
0.0
 40
0.0
 40
0.0
 40
0.25
 40
0.25
 40
0.5
 40
0.5
 40
0.75
 40
0.75
 40
1.0
 40
1.0
 40
1.0
 40
1.0
 10
126.2258695738775
 20
141.8213939534818
 30
0.0
 10
126.2258695738775
 20
141.7072218759289
 30
0.0
 10
126.1999401356116
 20
141.590133871254
 30
0.0
 10
126.1004978783352
 20
141.3689788592359
 30
0.0
 10
126.0282154926144
 20
141.2664045187368
 30
0.0
 10
125.8434781558498
 20
141.0903711132489
 30
0.0
 10
125.7339315195278
 20
141.0199653062685
 30
0.0
 10
125.4905702745245
 20
140.9263994454294
 30
0.0
 10
125.3590591670788
 20
140.90447912546
 30
0.0
 10
125.2258695738774
 20
140.9105416945972
 30
0.0
  0
SPLINE
  5
104
330
1F
100
AcDbEntity
  8
0
  6
Continuous
 62
     7
370
    25
100
AcDbSpline
210
0.0
220
0.0
230
1.0
 70
     8
 71
     3
 72
    14
 73
    10
 74
     0
 42
0.000000001
 43
0.00000001
 40
0.0
 40
0.0
 40
0.0
 40
0.0
 40
0.25
 40
0.25
 40
0.5
 40
0.5
 40
0.75
 40
0.75
 40
1.0
 40
1.0
 40
1.0
 40
1.0
 10
125.2258695738774
 20
97.14751621355187
 30
0.0
 10
125.3592978811105
 20
97.15300927672222
 30
0.0
 10
125.4910725529061
 20
97.13075725765736
 30
0.0
 10
125.7342684397675
 20
97.037318997951
 30
0.0
 10
125.8451893014803
 20
96.9660235327703
 30
0.0
 10
126.0278356503462
 20
96.79251613585805
 30
0.0
 10
126.1011513896862
 20
96.68895777361182
 30
0.0
 10
126.1997895005216
 20
96.46971966083785
 30
0.0
 10
126.2258695738774
 20
96.3527141851295
 30
0.0
 10
126.2258695738774
 20
96.23808925056373
 30
0.0
  0
SPLINE
  5
105
330
1F
100
AcDbEntity
  8
0
  6
Continuous
 62
     7
370
    25
100
AcDbSpline
210
0.0
220
0.0
230
1.0
 70
     8
 71
     3
 72
    10
 73
     6
 74
     0
 42
0.000000001
 43
0.00000001
 40
0.0
 40
0.0
 40
0.0
 40
0.0
 40
0.5
 40
0.5
 40
1.0
 40
1.0
 40
1.0
 40
1.0
 10
125.2258695738774
 20
140.9105416945976
 30
0.0
 10
124.9134056715893
 20
140.924764532621
 30
0.0
 10
124.6105166895915
 20
140.9625837354126
 30
0.0
 10
124.0231735047874
 20
141.0824721614015
 30
0.0
 10
123.7387058442155
 20
141.1652291978025
 30
0.0
 10
123.4758695738774
 20
141.2666010318393
 30
0.0
  0
SPLINE
  5
106
330
1F
100
AcDbEntity
  8
0
  6
Continuous
 62
     7
370
    25
100
AcDbSpline
210
0.0
220
0.0
230
1.0
 70
     8
 71
     3
 72
    10
 73
     6
 74
     0
 42
0.000000001
 43
0.00000001
 40
0.0
 40
0.0
 40
0.0
 40
0.0
 40
0.5
 40
0.5
 40
1.0
 40
1.0
 40
1.0
 40
1.0
 10
123.4758695738774
 20
96.83116925884632
 30
0.0
 10
123.7463882939927
 20
96.92194080844482
 30
0.0
 10
124.0279634586419
 20
96.99411783393698
 30
0.0
 10
124.6125570296612
 20
97.1006067459904
 30
0.0
 10
124.9179055640817
 20
97.13483775127442
 30
0.0
 10
125.2258695738773
 20
97.14751621355187
 30
0.0
  0
LINE
  5
107
330
1F
100
AcDbEntity
  8
0
  6
Continuous
 62
     7
370
    25
100
AcDbLine
 10
113.2906875151
 20
118.8724080844
 30
0.0
 11
113.2906875151
 21
143.8141467793
 31
0.0
  0
LINE
  5
108
330
1F
100
AcDbEntity
  8
0
  6
Continuous
 62
     7
370
    25
100
AcDbLine
 10
113.2906875151
 20
93.9306693895
 30
0.0
 11
113.2906875151
 21
118.8724080844
 31
0.0
  0
LINE
  5
109
330
1F
100
AcDbEntity
  8
0
  6
Continuous
 62
     7
370
    25
100
AcDbLine
 10
76.0008706289
 20
107.9676125942
 30
0.0
 11
76.0008706289
 21
95.8032871409
 31
0.0
  0
SPLINE
  5
10A
330
1F
100
AcDbEntity
  8
0
  6
Continuous
 62
     7
370
    25
100
AcDbSpline
210
0.0
220
0.0
230
1.0
 70
     8
 71
     3
 72
     8
 73
     4
 74
     0
 42
0.000000001
 43
0.00000001
 40
0.0
 40
0.0
 40
0.0
 40
0.0
 40
1.0
 40
1.0
 40
1.0
 40
1.0
 10
80.29311766898827
 20
107.9715170505585
 30
0.0
 10
78.86236830395465
 20
107.9697791752786
 30
0.0
 10
77.43161893892102
 20
107.9684171001128
 30
0.0
 10
76.00086957388739
 20
107.9674299439899
 30
0.0
  0
SPLINE
  5
10B
330
1F
100
AcDbEntity
  8
0
  6
Continuous
 62
     7
370
    25
100
AcDbSpline
210
0.0
220
0.0
230
1.0
 70
     8
 71
     3
 72
    23
 73
    19
 74
     0
 42
0.000000001
 43
0.00000001
 40
0.0
 40
0.0
 40
0.0
 40
0.0
 40
0.0521036415683759
 40
0.1035646240941235
 40
0.1544751946756683
 40
0.2049306267495642
 40
0.2550287880866983
 40
0.3048696389163111
 40
0.354554670462894
 40
0.4041862979539558
 40
0.453867225213789
 40
0.5036997999428097
 40
0.590187023078111
 40
0.6742716378282376
 40
0.7565997087281883
 40
0.8378563983773627
 40
0.9187511781400207
 40
0.9999999999999999
 40
0.9999999999999999
 40
0.9999999999999999
 40
0.9999999999999999
 10
83.88685348837774
 20
109.8915866589314
 30
0.0
 10
83.8453619686616
 20
109.8332508726068
 30
0.0
 10
83.7628906957688
 20
109.7172988277959
 30
0.0
 10
83.63003193833536
 20
109.5515002257683
 30
0.0
 10
83.49150036556337
 20
109.3931362637306
 30
0.0
 10
83.34660082192619
 20
109.2426266301252
 30
0.0
 10
83.19551716175327
 20
109.0997873216092
 30
0.0
 10
83.03820198358943
 20
108.9645941040465
 30
0.0
 10
82.87466882538234
 20
108.8369814611191
 30
0.0
 10
82.70491888839514
 20
108.7168943769832
 30
0.0
 10
82.52894485825765
 20
108.6042809835333
 30
0.0
 10
82.30246416031356
 20
108.4734710198892
 30
0.0
 10
82.02328364979606
 20
108.3343488642194
 30
0.0
 10
81.68818445366585
 20
108.2008298708903
 30
0.0
 10
81.3474199577584
 20
108.0973817746946
 30
0.0
 10
81.00102191200595
 20
108.0244851505906
 30
0.0
 10
80.64913193349199
 20
107.979290356824
 30
0.0
 10
80.41196171163506
 20
107.9741119217011
 30
0.0
 10
80.29311766898829
 20
107.9715170505585
 30
0.0
  0
SPLINE
  5
10C
330
1F
100
AcDbEntity
  8
0
  6
Continuous
 62
     7
370
    25
100
AcDbSpline
210
0.0
220
0.0
230
1.0
 70
     8
 71
     3
 72
     8
 73
     4
 74
     0
 42
0.000000001
 43
0.00000001
 40
0.0
 40
0.0
 40
0.0
 40
0.0
 40
1.0
 40
1.0
 40
1.0
 40
1.0
 10
88.29582529653285
 20
109.8960073737511
 30
0.0
 10
86.82565063575144
 20
109.894546753316
 30
0.0
 10
85.35547597497003
 20
109.893385701657
 30
0.0
 10
83.88530131418862
 20
109.8925237717575
 30
0.0
  0
SPLINE
  5
10D
330
1F
100
AcDbEntity
  8
0
  6
Continuous
 62
     7
370
    25
100
AcDbSpline
210
0.0
220
0.0
230
1.0
 70
     8
 71
     3
 72
    18
 73
    14
 74
     0
 42
0.000000001
 43
0.00000001
 40
0.0
 40
0.0
 40
0.0
 40
0.0
 40
0.0923824559461122
 40
0.1844689291660427
 40
0.2764953616062392
 40
0.3686975365619641
 40
0.4613092840130473
 40
0.5545607518559533
 40
0.6486768051632873
 40
0.7438756050210469
 40
0.8403674044324065
 40
0.9203921078135461
 40
1.0
 40
1.0
 40
1.0
 40
1.0
 10
90.49105414138648
 20
109.3623733599874
 30
0.0
 10
90.4207238378689
 20
109.3627899844178
 30
0.0
 10
90.28028856100876
 20
109.363621898462
 30
0.0
 10
90.06992603451639
 20
109.3772307453941
 30
0.0
 10
89.86048237152747
 20
109.3998975026983
 30
0.0
 10
89.65193270140566
 20
109.4324982927514
 30
0.0
 10
89.44428908317862
 20
109.4748007704231
 30
0.0
 10
89.23755089923144
 20
109.526872172656
 30
0.0
 10
89.03172879368252
 20
109.5887209319584
 30
0.0
 10
88.8267971665061
 20
109.6603189948478
 30
0.0
 10
88.63550749964847
 20
109.7368208099115
 30
0.0
 10
88.45815490206768
 20
109.8152572367017
 30
0.0
 10
88.35017455854036
 20
109.8689671904007
 30
0.0
 10
88.29632535866224
 20
109.8957520471414
 30
0.0
  0
LINE
  5
10E
330
1F
100
AcDbEntity
  8
0
  6
Continuous
 62
     7
370
    25
100
AcDbLine
 10
92.4059277909
 20
109.3638690932
 30
0.0
 11
90.4910540717
 21
109.3623733892
 31
0.0
  0
SPLINE
  5
10F
330
1F
100
AcDbEntity
  8
0
  6
Continuous
 62
     7
370
    25
100
AcDbSpline
210
0.0
220
0.0
230
1.0
 70
     8
 71
     3
 72
    25
 73
    21
 74
     0
 42
0.000000001
 43
0.00000001
 40
0.0
 40
0.0
 40
0.0
 40
0.0
 40
0.0280105225426455
 40
0.0559601148860774
 40
0.0839014045043129
 40
0.1118870776786379
 40
0.1399695827588941
 40
0.1682008401739877
 40
0.1966319670424218
 40
0.2253130233141493
 40
0.2542927850735863
 40
0.3799486436570518
 40
0.505785022166658
 40
0.6313085886329272
 40
0.7532068238012843
 40
0.8039473267959846
 40
0.8535894438560211
 40
0.902533972239985
 40
0.9511970353794947
 40
1.0
 40
1.0
 40
1.0
 40
1.0
 10
97.34581172707883
 20
114.4977325993625
 30
0.0
 10
97.34584894881264
 20
114.4231125723491
 30
0.0
 10
97.34592331131331
 20
114.2740348363618
 30
0.0
 10
97.3335072606668
 20
114.0514167453955
 30
0.0
 10
97.31190270031304
 20
113.8300923273665
 30
0.0
 10
97.28021723065304
 20
113.6101240614779
 30
0.0
 10
97.23869109233311
 20
113.3915337742489
 30
0.0
 10
97.18726033660322
 20
113.1743518358446
 30
0.0
 10
97.12594646189197
 20
112.9586104159598
 30
0.0
 10
97.05473612639251
 20
112.7443205245098
 30
0.0
 10
96.88389951918899
 20
112.29597075149
 30
0.0
 10
96.5461672857521
 20
111.6426399234196
 30
0.0
 10
95.93461262155587
 20
110.8707467127793
 30
0.0
 10
95.19837778640758
 20
110.2265870873912
 30
0.0
 10
94.51189171475764
 20
109.8349459193307
 30
0.0
 10
93.96318756860568
 20
109.6162510183641
 30
0.0
 10
93.5811513900993
 20
109.5003949695334
 30
0.0
 10
93.19398529139487
 20
109.4194870640034
 30
0.0
 10
92.80175862261001
 20
109.3702586332053
 30
0.0
 10
92.5379973544964
 20
109.3660007781899
 30
0.0
 10
92.40592742067595
 20
109.3638687948471
 30
0.0
  0
LINE
  5
110
330
1F
100
AcDbEntity
  8
0
  6
Continuous
 62
     7
370
    25
100
AcDbLine
 10
97.3458117383
 20
123.2470835371
 30
0.0
 11
97.3458117383
 21
114.4977326317
 31
0.0
  0
SPLINE
  5
111
330
1F
100
AcDbEntity
  8
0
  6
Continuous
 62
     7
370
    25
100
AcDbSpline
210
0.0
220
0.0
230
1.0
 70
     8
 71
     3
 72
    26
 73
    22
 74
     0
 42
0.000000001
 43
0.00000001
 40
0.0
 40
0.0
 40
0.0
 40
0.0
 40
0.0241259796963637
 40
0.048215991227299
 40
0.0723203915124064
 40
0.0964895678710793
 40
0.120773623196351
 40
0.1452220711242841
 40
0.1698835501657706
 40
0.1948055644472381
 40
0.2200342569517629
 40
0.2456142191611394
 40
0.3690971486901671
 40
0.4940698769485191
 40
0.6192566784762444
 40
0.7454656653603234
 40
0.7971495824713715
 40
0.8481710308405401
 40
0.8988013269235245
 40
0.9493179290492194
 40
1.0
 40
1.0
 40
1.0
 40
1.0
 10
92.40592742067595
 20
128.3809473740153
 30
0.0
 10
92.47117647922548
 20
128.3803735876365
 30
0.0
 10
92.60157731990459
 20
128.379226870307
 30
0.0
 10
92.79655713820088
 20
128.3671094938141
 30
0.0
 10
92.99068627546454
 20
128.3473509723524
 30
0.0
 10
93.18394761555872
 20
128.3191887901316
 30
0.0
 10
93.37634279403301
 20
128.2827976940833
 30
0.0
 10
93.567868372534
 20
128.2380966086059
 30
0.0
 10
93.75852390491941
 20
128.1850681372218
 30
0.0
 10
93.94830390401782
 20
128.1236771157952
 30
0.0
 10
94.13722252467363
 20
128.0538749093155
 30
0.0
 10
94.56396693784433
 20
127.8763458391
 30
0.0
 10
95.19843926502503
 20
127.5217852362023
 30
0.0
 10
95.9381151173709
 20
126.8796134225121
 30
0.0
 10
96.54486236020635
 20
126.1064481187312
 30
0.0
 10
96.90565417642468
 20
125.3990327104713
 30
0.0
 10
97.10782823218895
 20
124.8345253112457
 30
0.0
 10
97.21465168817417
 20
124.4456384496971
 30
0.0
 10
97.29026240447243
 20
124.0511556958289
 30
0.0
 10
97.33742507716374
 20
123.6513496056386
 30
0.0
 10
97.34301313145198
 20
123.3819857261742
 30
0.0
 10
97.34581172707883
 20
123.2470835694998
 30
0.0
  0
LINE
  5
112
330
1F
100
AcDbEntity
  8
0
  6
Continuous
 62
     7
370
    25
100
AcDbLine
 10
90.4910540717
 20
128.3824427797
 30
0.0
 11
92.4059277909
 21
128.3809470756
 31
0.0
  0
SPLINE
  5
113
330
1F
100
AcDbEntity
  8
0
  6
Continuous
 62
     7
370
    25
100
AcDbSpline
210
0.0
220
0.0
230
1.0
 70
     8
 71
     3
 72
    14
 73
    10
 74
     0
 42
0.000000001
 43
0.00000001
 40
0.0
 40
0.0
 40
0.0
 40
0.0
 40
0.0789261963152472
 40
0.1582328720511064
 40
0.3308475394503796
 40
0.5000195457530386
 40
0.6670357883499396
 40
0.8332395193610692
 40
1.0
 40
1.0
 40
1.0
 40
1.0
 10
88.29484191532
 20
127.8483958542644
 30
0.0
 10
88.34823743836141
 20
127.8750021035393
 30
0.0
 10
88.45528588817862
 20
127.9283428628034
 30
0.0
 10
88.68435660273572
 20
128.0299723414436
 30
0.0
 10
88.98322934092774
 20
128.1440519738186
 30
0.0
 10
89.35537241572376
 20
128.2526584072751
 30
0.0
 10
89.73100221475529
 20
128.328992692721
 30
0.0
 10
90.11019452679004
 20
128.3758101500748
 30
0.0
 10
90.36395949634274
 20
128.3802294594319
 30
0.0
 10
90.49105414138648
 20
128.3824428088751
 30
0.0
  0
SPLINE
  5
114
330
1F
100
AcDbEntity
  8
0
  6
Continuous
 62
     7
370
    25
100
AcDbSpline
210
0.0
220
0.0
230
1.0
 70
     8
 71
     3
 72
     8
 73
     4
 74
     0
 42
0.000000001
 43
0.00000001
 40
0.0
 40
0.0
 40
0.0
 40
0.0
 40
1.0
 40
1.0
 40
1.0
 40
1.0
 10
82.90254819166972
 20
127.8525180111667
 30
0.0
 10
84.69988487704595
 20
127.8515439047428
 30
0.0
 10
86.49722156242218
 20
127.850121768993
 30
0.0
 10
88.2945582477984
 20
127.8482507825244
 30
0.0
  0
SPLINE
  5
115
330
1F
100
AcDbEntity
  8
0
  6
Continuous
 62
     7
370
    25
100
AcDbSpline
210
0.0
220
0.0
230
1.0
 70
     8
 71
     3
 72
    13
 73
     9
 74
     0
 42
0.000000001
 43
0.00000001
 40
0.0
 40
0.0
 40
0.0
 40
0.0
 40
0.1667030582307959
 40
0.3329480818053031
 40
0.4990671507274871
 40
0.6653938523718408
 40
0.8322612710550125
 40
1.0
 40
1.0
 40
1.0
 40
1.0
 10
81.81904402682434
 20
127.9899450607346
 30
0.0
 10
81.88015106957566
 20
127.989110841203
 30
0.0
 10
82.00219725687884
 20
127.9874446942482
 30
0.0
 10
82.18453220214256
 20
127.9754157365954
 30
0.0
 10
82.36583641501626
 20
127.956426272011
 30
0.0
 10
82.54603527505289
 20
127.9296070577917
 30
0.0
 10
82.7253392531912
 20
127.8957712505446
 30
0.0
 10
82.84337127876262
 20
127.8669457802657
 30
0.0
 10
82.90254096851426
 20
127.8524955145425
 30
0.0
  0
SPLINE
  5
116
330
1F
100
AcDbEntity
  8
0
  6
Continuous
 62
     7
370
    25
100
AcDbSpline
210
0.0
220
0.0
230
1.0
 70
     8
 71
     3
 72
     8
 73
     4
 74
     0
 42
0.000000001
 43
0.00000001
 40
0.0
 40
0.0
 40
0.0
 40
0.0
 40
1.0
 40
1.0
 40
1.0
 40
1.0
 10
76.00086957389013
 20
127.9947347955846
 30
0.0
 10
77.94026105820154
 20
127.9936873431089
 30
0.0
 10
79.87965254251294
 20
127.9920911565842
 30
0.0
 10
81.81904402682436
 20
127.9899450607346
 30
0.0
  0
LINE
  5
117
330
1F
100
AcDbEntity
  8
0
  6
Continuous
 62
     7
370
    25
100
AcDbLine
 10
76.0008706289
 20
127.9947350545
 30
0.0
 11
76.0008706289
 21
141.941529028
 31
0.0
  0
SPLINE
  5
118
330
1F
100
AcDbEntity
  8
0
  6
Continuous
 62
     7
370
    25
100
AcDbSpline
210
0.0
220
0.0
230
1.0
 70
     8
 71
     3
 72
    24
 73
    20
 74
     0
 42
0.000000001
 43
0.00000001
 40
0.0
 40
0.0
 40
0.0
 40
0.0
 40
0.0607845451296407
 40
0.1248046360965166
 40
0.1880736642923821
 40
0.2506536944642078
 40
0.3129374270624571
 40
0.3747588850641116
 40
0.4371053349657547
 40
0.4977639019418345
 40
0.5591913128303959
 40
0.6209011577381788
 40
0.6826271159280655
 40
0.7453344255371981
 40
0.8078840402472991
 40
0.8712333803613398
 40
0.9348869687710366
 40
0.9979954054018167
 40
1.0
 40
1.0
 40
1.0
 40
1.0
 10
99.96450921021513
 20
143.1432387603908
 30
0.0
 10
99.93879739667611
 20
143.1328356703103
 30
0.0
 10
99.88600513631984
 20
143.1114757363171
 30
0.0
 10
99.41277438706621
 20
142.9290690628287
 30
0.0
 10
98.69396924534755
 20
142.6601230103
 30
0.0
 10
97.71678850106646
 20
142.3320268552328
 30
0.0
 10
96.53282614000389
 20
141.9881564214871
 30
0.0
 10
95.16452385210489
 20
141.6704956292141
 30
0.0
 10
93.67681258623506
 20
141.4159871808145
 30
0.0
 10
92.10715300592013
 20
141.2647727998363
 30
0.0
 10
90.53091051094151
 20
141.2312311532112
 30
0.0
 10
89.01159635461218
 20
141.3168033488751
 30
0.0
 10
87.6107221393127
 20
141.4910111675455
 30
0.0
 10
86.39204234490366
 20
141.720636832216
 30
0.0
 10
85.38646951600285
 20
141.9588543346086
 30
0.0
 10
84.63328817956372
 20
142.1704750942373
 30
0.0
 10
84.18634461851222
 20
142.3028948519691
 30
0.0
 10
84.00266783056787
 20
142.3605623382122
 30
0.0
 10
84.05420537783247
 20
142.344814583178
 30
0.0
 10
84.05579203240684
 20
142.344329766789
 30
0.0
  0
SPLINE
  5
119
330
1F
100
AcDbEntity
  8
0
  6
Continuous
 62
     7
370
    25
100
AcDbSpline
210
0.0
220
0.0
230
1.0
 70
     8
 71
     3
 72
    24
 73
    20
 74
     0
 42
0.000000001
 43
0.00000001
 40
0.0
 40
0.0
 40
0.0
 40
0.0
 40
0.0018911184661179
 40
0.0649665885217893
 40
0.1287875560009952
 40
0.1921372900365662
 40
0.2545996475903032
 40
0.3167128323446347
 40
0.3787563804671794
 40
0.440851011115251
 40
0.501718739255822
 40
0.5623721854420992
 40
0.6248484186975057
 40
0.6868048398220544
 40
0.7491642775858319
 40
0.8116886268192671
 40
0.8748496752066125
 40
0.9387002417378669
 40
1.0
 40
1.0
 40
1.0
 40
1.0
 10
84.05579762034229
 20
95.40039140717083
 30
0.0
 10
84.054290938474
 20
95.3999335893316
 30
0.0
 10
84.00253110284014
 20
95.38420593201543
 30
0.0
 10
84.18614181745379
 20
95.4417821471206
 30
0.0
 10
84.63401554248648
 20
95.57403855014401
 30
0.0
 10
85.38704109000045
 20
95.78564695986658
 30
0.0
 10
86.38698659028103
 20
96.02336396490223
 30
0.0
 10
87.60554580408073
 20
96.25140443858399
 30
0.0
 10
89.00905611128955
 20
96.42358898681263
 30
0.0
 10
90.52630399550223
 20
96.5117124441051
 30
0.0
 10
92.10055340383275
 20
96.48065105065633
 30
0.0
 10
93.66638689585555
 20
96.32962995912844
 30
0.0
 10
95.1562393132816
 20
96.07529386908895
 30
0.0
 10
96.52792699360941
 20
95.75755420997909
 30
0.0
 10
97.71382418705583
 20
95.41364793928706
 30
0.0
 10
98.69151794349665
 20
95.08576927417664
 30
0.0
 10
99.41067136327698
 20
94.81698485408398
 30
0.0
 10
99.8846106238313
 20
94.63388278905558
 30
0.0
 10
99.93886958969131
 20
94.61189598389218
 30
0.0
 10
99.96544612072519
 20
94.60112664834553
 30
0.0
  0
LINE
  5
11A
330
1F
100
AcDbEntity
  8
0
  6
Continuous
 62
     7
370
    25
100
AcDbLine
 10
97.3458117383
 20
114.4977326317
 30
0.0
 11
96.4508703487
 21
114.6599080226
 31
0.0
  0
LINE
  5
11B
330
1F
100
AcDbEntity
  8
0
  6
Continuous
 62
     7
370
    25
100
AcDbLine
 10
96.4508703487
 20
114.6599080226
 30
0.0
 11
96.4508703487
 21
123.0849081463
 31
0.0
  0
LINE
  5
11C
330
1F
100
AcDbEntity
  8
0
  6
Continuous
 62
     7
370
    25
100
AcDbLine
 10
97.3458117383
 20
123.2470835371
 30
0.0
 11
96.4508703487
 21
123.0849081463
 31
0.0
  0
SPLINE
  5
11D
330
1F
100
AcDbEntity
  8
0
  6
Continuous
 62
     7
370
    25
100
AcDbSpline
210
0.0
220
0.0
230
1.0
 70
     8
 71
     3
 72
    25
 73
    21
 74
     0
 42
0.000000001
 43
0.00000001
 40
0.0
 40
0.0
 40
0.0
 40
0.0
 40
0.0288821753105771
 40
0.058363659400572
 40
0.088464720430548
 40
0.1192044006616737
 40
0.1506005800085666
 40
0.1826700399669859
 40
0.2154285269576224
 40
0.2488908143379852
 40
0.3610594471136693
 40
0.4984670131067402
 40
0.5822693905005265
 40
0.6661127642780991
 40
0.7499972937224167
 40
0.8007709755018199
 40
0.8511237700786715
 40
0.9010896024485537
 40
0.9507031914094952
 40
1.0
 40
1.0
 40
1.0
 40
1.0
 10
92.45086957387737
 20
110.6599080844312
 30
0.0
 10
92.51367002711375
 20
110.660764568383
 30
0.0
 10
92.6405740509096
 20
110.6624953084365
 30
0.0
 10
92.83192845861907
 20
110.6766451738395
 30
0.0
 10
93.02583327129476
 20
110.6997822561599
 30
0.0
 10
93.22173399202228
 20
110.7331934083844
 30
0.0
 10
93.41907166002758
 20
110.7770672304166
 30
0.0
 10
93.61722500181584
 20
110.831862501386
 30
0.0
 10
93.81554074582893
 20
110.8979314627507
 30
0.0
 10
94.16686173332009
 20
111.0359127949989
 30
0.0
 10
94.69197350364547
 20
111.3159647338373
 30
0.0
 10
95.22896533213445
 20
111.7545553362428
 30
0.0
 10
95.64102506218414
 20
112.2284154578024
 30
0.0
 10
95.92794365023657
 20
112.6600992056222
 30
0.0
 10
96.12637033744231
 20
113.0632224473795
 30
0.0
 10
96.25845621148943
 20
113.4209586081539
 30
0.0
 10
96.34409009128689
 20
113.7237110104317
 30
0.0
 10
96.40517230264096
 20
114.0321993206773
 30
0.0
 10
96.44367324600795
 20
114.3445110308381
 30
0.0
 10
96.44847592510165
 20
114.555000444744
 30
0.0
 10
96.45086957387737
 20
114.6599080844312
 30
0.0
  0
SPLINE
  5
11E
330
1F
100
AcDbEntity
  8
0
  6
Continuous
 62
     7
370
    25
100
AcDbSpline
210
0.0
220
0.0
230
1.0
 70
     8
 71
     3
 72
    25
 73
    21
 74
     0
 42
0.000000001
 43
0.00000001
 40
0.0
 40
0.0
 40
0.0
 40
0.0
 40
0.0274788704220519
 40
0.0560416006846
 40
0.0856947086346483
 40
0.1164440166532229
 40
0.1482947438675477
 40
0.1812515840465501
 40
0.2153187716746058
 40
0.2505001382254875
 40
0.3330514552513183
 40
0.5015081958163713
 40
0.5771663066143402
 40
0.6488981303024295
 40
0.7167477700061697
 40
0.7807674423486859
 40
0.8410194131339161
 40
0.897578484992366
 40
0.9505352047787778
 40
1.0
 40
1.0
 40
1.0
 40
1.0
 10
96.45086957387737
 20
123.0849080844312
 30
0.0
 10
96.45012812226928
 20
123.1432724934656
 30
0.0
 10
96.4486159736871
 20
123.2623034017621
 30
0.0
 10
96.43611983261664
 20
123.4430843958783
 30
0.0
 10
96.41520022865224
 20
123.6293476141199
 30
0.0
 10
96.38427948710748
 20
123.8205197026695
 30
0.0
 10
96.34275484245782
 20
124.0160266418963
 30
0.0
 10
96.28975465664037
 20
124.215187994012
 30
0.0
 10
96.22452547682346
 20
124.4172062731703
 30
0.0
 10
96.11193545008796
 20
124.7107398876742
 30
0.0
 10
95.85191505911008
 20
125.2392727135033
 30
0.0
 10
95.44083566595592
 20
125.77921197316
 30
0.0
 10
94.95650109768359
 20
126.2140313225919
 30
0.0
 10
94.59134639300429
 20
126.4734384640528
 30
0.0
 10
94.21851132388629
 20
126.6811886187025
 30
0.0
 10
93.84526376156046
 20
126.8409098863395
 30
0.0
 10
93.47797445122646
 20
126.9569471386408
 30
0.0
 10
93.1217816484034
 20
127.0331542559456
 30
0.0
 10
92.78094294725742
 20
127.0771593179352
 30
0.0
 10
92.55836452715934
 20
127.0823845446378
 30
0.0
 10
92.45086957387738
 20
127.0849080844312
 30
0.0
  0
LINE
  5
11F
330
1F
100
AcDbEntity
  8
0
  6
Continuous
 62
     7
370
    25
100
AcDbLine
 10
90.4910540717
 20
128.3824427797
 30
0.0
 11
90.5359959739
 21
127.0849083363
 31
0.0
  0
SPLINE
  5
120
330
1F
100
AcDbEntity
  8
0
  6
Continuous
 62
     7
370
    25
100
AcDbSpline
210
0.0
220
0.0
230
1.0
 70
     8
 71
     3
 72
    13
 73
     9
 74
     0
 42
0.000000001
 43
0.00000001
 40
0.0
 40
0.0
 40
0.0
 40
0.0
 40
0.1618542298650875
 40
0.3254858841233149
 40
0.4910085196246548
 40
0.6585318472470939
 40
0.8281616954004768
 40
1.0
 40
1.0
 40
1.0
 40
1.0
 10
90.53599629458792
 20
127.0849080844312
 30
0.0
 10
90.47677446378705
 20
127.0841492083278
 30
0.0
 10
90.35768044953923
 20
127.082623122419
 30
0.0
 10
90.17806797359987
 20
127.0701291911787
 30
0.0
 10
89.99703893269003
 20
127.0498969223075
 30
0.0
 10
89.81503293889553
 20
127.0207429770991
 30
0.0
 10
89.63224869490932
 20
126.9833822664362
 30
0.0
 10
89.51159966402619
 20
126.9511385556632
 30
0.0
 10
89.45088499780802
 20
126.9349124316496
 30
0.0
  0
SPLINE
  5
121
330
1F
100
AcDbEntity
  8
0
  6
Continuous
 62
     7
370
    25
100
AcDbSpline
210
0.0
220
0.0
230
1.0
 70
    24
 71
     3
 72
     9
 73
     5
 74
     0
 42
0.000000001
 43
0.00000001
 40
0.0
 40
0.0
 40
0.0
 40
0.0
 40
0.4907282259506041
 40
1.0
 40
1.0
 40
1.0
 40
1.0
 10
89.45094099471943
 20
126.9349080844312
 30
0.0
 10
89.39703553648896
 20
126.9349080844312
 30
0.0
 10
89.28718765047009
 20
126.9349080844312
 30
0.0
 10
89.17924517436103
 20
126.9349080844312
 30
0.0
 10
89.12427311805769
 20
126.9349080844312
 30
0.0
  0
SPLINE
  5
122
330
1F
100
AcDbEntity
  8
0
  6
Continuous
 62
     7
370
    25
100
AcDbSpline
210
0.0
220
0.0
230
1.0
 70
     8
 71
     3
 72
    14
 73
    10
 74
     0
 42
0.000000001
 43
0.00000001
 40
0.0
 40
0.0
 40
0.0
 40
0.0
 40
0.0310276388093398
 40
0.0622853718693698
 40
0.1248003166924349
 40
0.2498289731770658
 40
0.4998892603621822
 40
0.7606803621577949
 40
1.0
 40
1.0
 40
1.0
 40
1.0
 10
88.29560872254227
 20
127.8483844336625
 30
0.0
 10
88.30389874808185
 20
127.8388165891053
 30
0.0
 10
88.32054027619529
 20
127.8196099469275
 30
0.0
 10
88.3537901325744
 20
127.7810213189314
 30
0.0
 10
88.41229267817474
 20
127.7134914260238
 30
0.0
 10
88.52982897202477
 20
127.5786539083002
 30
0.0
 10
88.70275649577329
 20
127.3837205585697
 30
0.0
 10
88.91040401792507
 20
127.1554315347742
 30
0.0
 10
89.05421460143593
 20
127.0058619087615
 30
0.0
 10
89.12303275316893
 20
126.9342878634701
 30
0.0
  0
SPLINE
  5
123
330
1F
100
AcDbEntity
  8
0
  6
Continuous
 62
     7
370
    25
100
AcDbSpline
210
0.0
220
0.0
230
1.0
 70
     8
 71
     3
 72
    13
 73
     9
 74
     0
 42
0.000000001
 43
0.00000001
 40
0.0
 40
0.0
 40
0.0
 40
0.0
 40
0.1722587823402174
 40
0.3421398270982735
 40
0.5097456257612809
 40
0.6751828993009421
 40
0.8385626189970466
 40
1.0
 40
1.0
 40
1.0
 40
1.0
 10
89.4508879427876
 20
110.809902907181
 30
0.0
 10
89.51175133245027
 20
110.793639179484
 30
0.0
 10
89.6326379968798
 20
110.7613362170073
 30
0.0
 10
89.81569915483394
 20
110.7239485623154
 30
0.0
 10
89.9978018377682
 20
110.6948156274039
 30
0.0
 10
90.17874328609068
 20
110.6746289117955
 30
0.0
 10
90.35808228980514
 20
110.6621821074917
 30
0.0
 10
90.4769285182348
 20
110.6606630642639
 30
0.0
 10
90.53599629458792
 20
110.6599080844312
 30
0.0
  0
LINE
  5
124
330
1F
100
AcDbEntity
  8
0
  6
Continuous
 62
     7
370
    25
100
AcDbLine
 10
90.4910540717
 20
109.3623733892
 30
0.0
 11
90.5359959739
 21
110.6599078326
 31
0.0
  0
SPLINE
  5
125
330
1F
100
AcDbEntity
  8
0
  6
Continuous
 62
     7
370
    25
100
AcDbSpline
210
0.0
220
0.0
230
1.0
 70
     8
 71
     3
 72
    11
 73
     7
 74
     0
 42
0.000000001
 43
0.00000001
 40
0.0
 40
0.0
 40
0.0
 40
0.0
 40
0.239284509383631
 40
0.5001120454057238
 40
0.7515010915050501
 40
1.0
 40
1.0
 40
1.0
 40
1.0
 10
89.12430128485838
 20
110.8104796568245
 30
0.0
 10
89.05549165187604
 20
110.7388839587185
 30
0.0
 10
88.91167738498909
 20
110.5892467293203
 30
0.0
 10
88.70397565217743
 20
110.3601902008134
 30
0.0
 10
88.49603534045411
 20
110.1277282134575
 30
0.0
 10
88.36306713081751
 20
109.9728592220669
 30
0.0
 10
88.29696740855867
 20
109.8958724193913
 30
0.0
  0
SPLINE
  5
126
330
1F
100
AcDbEntity
  8
0
  6
Continuous
 62
     7
370
    25
100
AcDbSpline
210
0.0
220
0.0
230
1.0
 70
    24
 71
     3
 72
     9
 73
     5
 74
     0
 42
0.000000001
 43
0.00000001
 40
0.0
 40
0.0
 40
0.0
 40
0.0
 40
0.509066935386983
 40
0.9999999999999999
 40
0.9999999999999999
 40
0.9999999999999999
 40
0.9999999999999999
 10
89.12624940727393
 20
110.8099080844312
 30
0.0
 10
89.18087726998107
 20
110.8099080844312
 30
0.0
 10
89.28818705364561
 20
110.8099080844312
 30
0.0
 10
89.39736856188999
 20
110.8099080844312
 30
0.0
 10
89.45096937433148
 20
110.8099080844312
 30
0.0
  0
LINE
  5
127
330
1F
100
AcDbEntity
  8
0
  6
Continuous
 62
     7
370
    25
100
AcDbLine
 10
82.9024626451
 20
127.8525183721
 30
0.0
 11
82.8769667583
 21
126.9549320264
 31
0.0
  0
LINE
  5
128
330
1F
100
AcDbEntity
  8
0
  6
Continuous
 62
     7
370
    25
100
AcDbLine
 10
89.1242711382
 20
126.9349076597
 30
0.0
 11
82.9508690672
 21
126.9349076597
 31
0.0
  0
SPLINE
  5
129
330
1F
100
AcDbEntity
  8
0
  6
Continuous
 62
     7
370
    25
100
AcDbSpline
210
0.0
220
0.0
230
1.0
 70
     8
 71
     3
 72
     8
 73
     4
 74
     0
 42
0.000000001
 43
0.00000001
 40
0.0
 40
0.0
 40
0.0
 40
0.0
 40
1.0
 40
1.0
 40
1.0
 40
1.0
 10
82.95086957393156
 20
126.934908084416
 30
0.0
 10
82.92630554450295
 20
126.9418314830401
 30
0.0
 10
82.90167525340475
 20
126.9485197868578
 30
0.0
 10
82.87698321229267
 20
126.9549717707386
 30
0.0
  0
LINE
  5
12A
330
1F
100
AcDbEntity
  8
0
  6
Continuous
 62
     7
370
    25
100
AcDbLine
 10
83.7152334439
 20
110.6649854033
 30
0.0
 11
83.8873902845
 21
109.8928156121
 31
0.0
  0
SPLINE
  5
12B
330
1F
100
AcDbEntity
  8
0
  6
Continuous
 62
     7
370
    25
100
AcDbSpline
210
0.0
220
0.0
230
1.0
 70
     8
 71
     3
 72
     8
 73
     4
 74
     0
 42
0.000000001
 43
0.00000001
 40
0.0
 40
0.0
 40
0.0
 40
0.0
 40
1.0
 40
1.0
 40
1.0
 40
1.0
 10
83.7132974172419
 20
110.665596016254
 30
0.0
 10
83.74349889856167
 20
110.7130769133722
 30
0.0
 10
83.77269828341406
 20
110.7611952169455
 30
0.0
 10
83.8008695738774
 20
110.8099080844313
 30
0.0
  0
LINE
  5
12C
330
1F
100
AcDbEntity
  8
0
  6
Continuous
 62
     7
370
    25
100
AcDbLine
 10
83.8008704173
 20
110.8099085091
 30
0.0
 11
89.125442742
 21
110.8099085091
 31
0.0
  0
LINE
  5
12D
330
1F
100
AcDbEntity
  8
0
  6
Continuous
 62
     7
370
    25
100
AcDbLine
 10
92.4508696931
 20
127.0849083363
 30
0.0
 11
90.5359959739
 21
127.0849083363
 31
0.0
  0
LINE
  5
12E
330
1F
100
AcDbEntity
  8
0
  6
Continuous
 62
     7
370
    25
100
AcDbLine
 10
90.5359959739
 20
110.6599078326
 30
0.0
 11
92.4508696931
 21
110.6599078326
 31
0.0
  0
SPLINE
  5
12F
330
1F
100
AcDbEntity
  8
0
  6
Continuous
 62
     7
370
    25
100
AcDbSpline
210
0.0
220
0.0
230
1.0
 70
     8
 71
     3
 72
    23
 73
    19
 74
     0
 42
0.000000001
 43
0.00000001
 40
0.0
 40
0.0
 40
0.0
 40
0.0
 40
0.0449850911547964
 40
0.0909520670823883
 40
0.1379394291328525
 40
0.1859832248994781
 40
0.235117176177667
 40
0.2853728096486027
 40
0.3367795876649756
 40
0.3893650370847659
 40
0.4431548745955978
 40
0.4981731273942729
 40
0.5575107591414307
 40
0.6265492282208773
 40
0.7053073139958764
 40
0.7937970254642376
 40
0.8920262116484563
 40
1.0
 40
1.0
 40
1.0
 40
1.0
 10
80.33821253772724
 20
108.8124080844312
 30
0.0
 10
80.40105628870354
 20
108.8132658877505
 30
0.0
 10
80.5281154744866
 20
108.8150002175703
 30
0.0
 10
80.71977170723716
 20
108.829187352774
 30
0.0
 10
80.91413896784546
 20
108.8524128359343
 30
0.0
 10
81.11065567612319
 20
108.8859915762818
 30
0.0
 10
81.30875327984111
 20
108.9301355495134
 30
0.0
 10
81.50780125180133
 20
108.9853304970414
 30
0.0
 10
81.70712025767551
 20
109.0519473594603
 30
0.0
 10
81.9059859545044
 20
109.1303480362724
 30
0.0
 10
82.10360109388537
 20
109.2208321272156
 30
0.0
 10
82.30284756106549
 20
109.3256239920256
 30
0.0
 10
82.5116760408115
 20
109.4511889285298
 30
0.0
 10
82.73648713704159
 20
109.6067029271408
 30
0.0
 10
82.97825386598984
 20
109.8012720423494
 30
0.0
 10
83.22946857469921
 20
110.0407617097805
 30
0.0
 10
83.48446705883886
 20
110.3286021195066
 30
0.0
 10
83.63483918767399
 20
110.5500705291948
 30
0.0
 10
83.7135783448048
 20
110.6660377369815
 30
0.0
  0
SPLINE
  5
130
330
1F
100
AcDbEntity
  8
0
  6
Continuous
 62
     7
370
    25
100
AcDbSpline
210
0.0
220
0.0
230
1.0
 70
     8
 71
     3
 72
    13
 73
     9
 74
     0
 42
0.000000001
 43
0.00000001
 40
0.0
 40
0.0
 40
0.0
 40
0.0
 40
0.1706320847381217
 40
0.3395984166493647
 40
0.5069574113007884
 40
0.672769183166934
 40
0.8370955448651839
 40
1.0
 40
1.0
 40
1.0
 40
1.0
 10
82.87697633601776
 20
126.9549735674898
 30
0.0
 10
82.82092240577016
 20
126.9688763136595
 30
0.0
 10
82.7093617576759
 20
126.9965460839348
 30
0.0
 10
82.5401160252671
 20
127.0288016008537
 30
0.0
 10
82.37097093633578
 20
127.0541390611679
 30
0.0
 10
82.2020356743676
 20
127.0718519368373
 30
0.0
 10
82.0337074421536
 20
127.0828759937882
 30
0.0
 10
81.92156862498076
 20
127.0842326859485
 30
0.0
 10
81.86574285316684
 20
127.0849080844312
 30
0.0
  0
SPLINE
  5
131
330
1F
100
AcDbEntity
  8
0
  6
Continuous
 62
     7
370
    25
100
AcDbSpline
210
0.0
220
0.0
230
1.0
 70
     8
 71
     3
 72
     8
 73
     4
 74
     0
 42
0.000000001
 43
0.00000001
 40
0.0
 40
0.0
 40
0.0
 40
0.0
 40
1.0
 40
1.0
 40
1.0
 40
1.0
 10
75.08720975229977
 20
127.6124098283568
 30
0.0
 10
75.39176302600866
 20
127.7385991749959
 30
0.0
 10
75.69631629971754
 20
127.866043931259
 30
0.0
 10
76.00086957342641
 20
127.9947347958072
 30
0.0
  0
LINE
  5
132
330
1F
100
AcDbEntity
  8
0
  6
Continuous
 62
     7
370
    25
100
AcDbLine
 10
81.8657441574
 20
127.0849083363
 30
0.0
 11
76.0008706289
 21
127.0849083363
 31
0.0
  0
LINE
  5
133
330
1F
100
AcDbEntity
  8
0
  6
Continuous
 62
     7
370
    25
100
AcDbLine
 10
76.0008706289
 20
127.0849083363
 30
0.0
 11
75.0872096556
 21
127.6124094425
 31
0.0
  0
SPLINE
  5
134
330
1F
100
AcDbEntity
  8
0
  6
Continuous
 62
     7
370
    25
100
AcDbSpline
210
0.0
220
0.0
230
1.0
 70
    24
 71
     3
 72
     8
 73
     4
 74
     0
 42
0.000000001
 43
0.00000001
 40
0.0
 40
0.0
 40
0.0
 40
0.0
 40
1.0
 40
1.0
 40
1.0
 40
1.0
 10
74.50086957387738
 20
127.9509334882157
 30
0.0
 10
74.69541670641028
 20
127.8386116488777
 30
0.0
 10
74.89087772664946
 20
127.7257621762266
 30
0.0
 10
75.08720975230678
 20
127.6124098283627
 30
0.0
  0
LINE
  5
135
330
1F
100
AcDbEntity
  8
0
  6
Continuous
 62
     7
370
    25
100
AcDbLine
 10
74.5008713143
 20
127.9509330912
 30
0.0
 11
74.5008713143
 21
141.0755033417
 31
0.0
  0
LINE
  5
136
330
1F
100
AcDbEntity
  8
0
  6
Continuous
 62
     7
370
    25
100
AcDbLine
 10
205.9508687394
 20
137.8724074735
 30
0.0
 11
205.9508687394
 21
99.8724086954
 31
0.0
  0
LINE
  5
137
330
1F
100
AcDbEntity
  8
0
  6
Continuous
 62
     7
370
    25
100
AcDbLine
 10
75.1407346266
 20
108.3158098905
 30
0.0
 11
76.0008706289
 21
108.8124078511
 31
0.0
  0
LINE
  5
138
330
1F
100
AcDbEntity
  8
0
  6
Continuous
 62
     7
370
    25
100
AcDbLine
 10
76.0008706289
 20
108.8124078511
 30
0.0
 11
80.3382112222
 21
108.8124078511
 31
0.0
  0
SPLINE
  5
139
330
1F
100
AcDbEntity
  8
0
  6
Continuous
 62
     7
370
    25
100
AcDbSpline
210
0.0
220
0.0
230
1.0
 70
     8
 71
     3
 72
     8
 73
     4
 74
     0
 42
0.000000001
 43
0.00000001
 40
0.0
 40
0.0
 40
0.0
 40
0.0
 40
1.0
 40
1.0
 40
1.0
 40
1.0
 10
76.0008695736371
 20
107.9674299439136
 30
0.0
 10
75.71415829676833
 20
108.0843308821273
 30
0.0
 10
75.42744701989953
 20
108.2004589031919
 30
0.0
 10
75.14073574303076
 20
108.3158095856528
 30
0.0
  0
SPLINE
  5
13A
330
1F
100
AcDbEntity
  8
0
  6
Continuous
 62
     7
370
    25
100
AcDbSpline
210
0.0
220
0.0
230
1.0
 70
     8
 71
     3
 72
     8
 73
     4
 74
     0
 42
0.000000001
 43
0.00000001
 40
0.0
 40
0.0
 40
0.0
 40
0.0
 40
1.0
 40
1.0
 40
1.0
 40
1.0
 10
127.6850673784475
 20
89.33566075146582
 30
0.0
 10
127.3496567530237
 20
89.99392780377505
 30
0.0
 10
127.0178144339138
 20
90.65298424175644
 30
0.0
 10
126.6915806989299
 20
91.3129246131777
 30
0.0
  0
LWPOLYLINE
  5
13B
330
1F
100
AcDbEntity
  8
0
  6
Continuous
 62
     7
370
    25
100
AcDbPolyline
 90
        9
 70
   128
 43
0.0
 10
126.6915802421
 20
91.3129246606
 10
127.5293002414
 20
91.4860761537
 10
128.2741981136
 20
91.7443523927
 10
128.8921855899
 20
92.0759367569
 10
129.3549830603
 20
92.4656542762
 10
129.6414141121
 20
92.8956701233
 10
129.7383694487
 20
93.3463091774
 10
129.6414141121
 20
93.7969482316
 10
129.462401806
 20
94.098417349
  0
LINE
  5
13C
330
1F
100
AcDbEntity
  8
0
  6
Continuous
 62
     7
370
    25
100
AcDbLine
 10
74.5008713143
 20
96.6693128271
 30
0.0
 11
74.5008713143
 21
107.9463830961
 31
0.0
  0
SPLINE
  5
13D
330
1F
100
AcDbEntity
  8
0
  6
Continuous
 62
     7
370
    25
100
AcDbSpline
210
0.0
220
0.0
230
1.0
 70
    24
 71
     3
 72
     8
 73
     4
 74
     0
 42
0.000000001
 43
0.00000001
 40
0.0
 40
0.0
 40
0.0
 40
0.0
 40
1.0
 40
1.0
 40
1.0
 40
1.0
 10
75.14073574303076
 20
108.3158095856528
 30
0.0
 10
74.926070184191
 20
108.191872367471
 30
0.0
 10
74.71275547585282
 20
108.0687150631898
 30
0.0
 10
74.50086957387737
 20
107.9463826806468
 30
0.0
  0
ARC
  5
13E
330
1F
100
AcDbEntity
  8
0
  6
Continuous
 62
     7
370
    25
100
AcDbCircle
 10
122.6814535702
 20
93.33955816
 30
0.0
 40
1.386778252398802
100
AcDbArc
 50
117.5067796727
 51
245.5898588898
  0
SPLINE
  5
13F
330
1F
100
AcDbEntity
  8
0
  6
Continuous
 62
     7
370
    25
100
AcDbSpline
210
0.0
220
0.0
230
1.0
 70
     8
 71
     3
 72
     8
 73
     4
 74
     0
 42
0.000000001
 43
0.00000001
 40
0.0
 40
0.0
 40
0.0
 40
0.0
 40
1.0
 40
1.0
 40
1.0
 40
1.0
 10
122.1083459077293
 20
92.0767434938537
 30
0.0
 10
121.7518926427983
 20
91.33257952066917
 30
0.0
 10
121.3865591500369
 20
90.58984029477959
 30
0.0
 10
121.0166717693073
 20
89.84840916988301
 30
0.0
  0
LINE
  5
140
330
1F
100
AcDbEntity
  8
0
  6
Continuous
 62
     7
370
    25
100
AcDbLine
 10
122.4758694457
 20
144.9671110882
 30
0.0
 11
122.4758694457
 21
144.8823476954
 31
0.0
  0
SPLINE
  5
141
330
1F
100
AcDbEntity
  8
0
  6
Continuous
 62
     7
370
    25
100
AcDbSpline
210
0.0
220
0.0
230
1.0
 70
     8
 71
     3
 72
    16
 73
    12
 74
     0
 42
0.000000001
 43
0.00000001
 40
0.0
 40
0.0
 40
0.0
 40
0.0
 40
0.1250000000000001
 40
0.1250000000000001
 40
0.2500000000000003
 40
0.2500000000000003
 40
0.5000000000000002
 40
0.5000000000000002
 40
0.7500000000000001
 40
0.7500000000000001
 40
1.0
 40
1.0
 40
1.0
 40
1.0
 10
122.4758695738774
 20
144.8823471102216
 30
0.0
 10
122.4758695738774
 20
144.8130147615765
 30
0.0
 10
122.485642137517
 20
144.7510182245738
 30
0.0
 10
122.5198381829174
 20
144.6453363465834
 30
0.0
 10
122.5440233746283
 20
144.6012139116646
 30
0.0
 10
122.6317400387246
 20
144.4888072854238
 30
0.0
 10
122.708450204574
 20
144.4408047792655
 30
0.0
 10
122.8875323048149
 20
144.3759790165529
 30
0.0
 10
122.9884150744348
 20
144.3600757450907
 30
0.0
 10
123.2172265726978
 20
144.3585710047201
 30
0.0
 10
123.3415241811327
 20
144.3731961814958
 30
0.0
 10
123.4758695738774
 20
144.4079830923344
 30
0.0
  0
SPLINE
  5
142
330
1F
100
AcDbEntity
  8
0
  6
Continuous
 62
     7
370
    25
100
AcDbSpline
210
0.0
220
0.0
230
1.0
 70
     8
 71
     3
 72
    10
 73
     6
 74
     0
 42
0.000000001
 43
0.00000001
 40
0.0
 40
0.0
 40
0.0
 40
0.0
 40
0.5
 40
0.5
 40
1.0
 40
1.0
 40
1.0
 40
1.0
 10
123.4758695738774
 20
144.4079830923344
 30
0.0
 10
123.7386890882331
 20
144.4760366282671
 30
0.0
 10
124.0170419528408
 20
144.5283502453189
 30
0.0
 10
124.6040385402262
 20
144.6050536969022
 30
0.0
 10
124.9134222301045
 20
144.6290810711968
 30
0.0
 10
125.2258695738774
 20
144.6379109075948
 30
0.0
  0
SPLINE
  5
143
330
1F
100
AcDbEntity
  8
0
  6
Continuous
 62
     7
370
    25
100
AcDbSpline
210
0.0
220
0.0
230
1.0
 70
     8
 71
     3
 72
    14
 73
    10
 74
     0
 42
0.000000001
 43
0.00000001
 40
0.0
 40
0.0
 40
0.0
 40
0.0
 40
0.25
 40
0.25
 40
0.5
 40
0.5
 40
0.75
 40
0.75
 40
1.0
 40
1.0
 40
1.0
 40
1.0
 10
125.2258695738774
 20
144.6379109075948
 30
0.0
 10
125.3590990249007
 20
144.6416760036322
 30
0.0
 10
125.4908003875109
 20
144.6659380204699
 30
0.0
 10
125.733878045728
 20
144.7521693711134
 30
0.0
 10
125.8447839862766
 20
144.8143255312853
 30
0.0
 10
126.0274810593542
 20
144.9671317582728
 30
0.0
 10
126.1008685888359
 20
145.059117466331
 30
0.0
 10
126.1997028677542
 20
145.2615868034098
 30
0.0
 10
126.2258695738774
 20
145.3733480317679
 30
0.0
 10
126.2258695738774
 20
145.4879019992939
 30
0.0
  0
LINE
  5
144
330
1F
100
AcDbEntity
  8
0
  6
Continuous
 62
     7
370
    25
100
AcDbLine
 10
126.2258695947
 20
145.487901084
 30
0.0
 11
126.2258695947
 21
145.573109649
 31
0.0
  0
SPLINE
  5
145
330
1F
100
AcDbEntity
  8
0
  6
Continuous
 62
     7
370
    25
100
AcDbSpline
210
0.0
220
0.0
230
1.0
 70
     8
 71
     3
 72
    10
 73
     6
 74
     0
 42
0.000000001
 43
0.00000001
 40
0.0
 40
0.0
 40
0.0
 40
0.0
 40
0.5
 40
0.5
 40
1.0
 40
1.0
 40
1.0
 40
1.0
 10
126.2258695738774
 20
145.5731105640461
 30
0.0
 10
126.4770624637489
 20
145.9336167868121
 30
0.0
 10
126.7243317754507
 20
146.2777076667214
 30
0.0
 10
127.2109531267615
 20
146.9291690817772
 30
0.0
 10
127.4503364344782
 20
147.2367545215814
 30
0.0
 10
127.6850673784473
 20
147.5201454514894
 30
0.0
  0
SPLINE
  5
146
330
1F
100
AcDbEntity
  8
0
  6
Continuous
 62
     7
370
    25
100
AcDbSpline
210
0.0
220
0.0
230
1.0
 70
     8
 71
     3
 72
     8
 73
     4
 74
     0
 42
0.000000001
 43
0.00000001
 40
0.0
 40
0.0
 40
0.0
 40
0.0
 40
1.0
 40
1.0
 40
1.0
 40
1.0
 10
126.6915806989299
 20
91.3129246131777
 30
0.0
 10
126.5374982317059
 20
91.52907151457563
 30
0.0
 10
126.3822716098615
 20
91.7507242238949
 30
0.0
 10
126.2258695738774
 20
91.97765446873335
 30
0.0
  0
LINE
  5
147
330
1F
100
AcDbEntity
  8
0
  6
Continuous
 62
     7
370
    25
100
AcDbLine
 10
126.2258695947
 20
91.9776542856
 30
0.0
 11
126.2258695947
 21
92.0630714668
 31
0.0
  0
SPLINE
  5
148
330
1F
100
AcDbEntity
  8
0
  6
Continuous
 62
     7
370
    25
100
AcDbSpline
210
0.0
220
0.0
230
1.0
 70
     8
 71
     3
 72
    14
 73
    10
 74
     0
 42
0.000000001
 43
0.00000001
 40
0.0
 40
0.0
 40
0.0
 40
0.0
 40
0.25
 40
0.25
 40
0.5
 40
0.5
 40
0.75
 40
0.75
 40
1.0
 40
1.0
 40
1.0
 40
1.0
 10
126.2258695738774
 20
92.06307053803076
 30
0.0
 10
126.2258695738774
 20
92.17719644222812
 30
0.0
 10
126.1998294171203
 20
92.28990385581184
 30
0.0
 10
126.1010382339191
 20
92.49409961962742
 30
0.0
 10
126.028330586502
 20
92.58650381082941
 30
0.0
 10
125.8445588086355
 20
92.74205653913442
 30
0.0
 10
125.7354887779433
 20
92.8040660057669
 30
0.0
 10
125.4898644294846
 20
92.8919561144922
 30
0.0
 10
125.3593093038972
 20
92.91576436691422
 30
0.0
 10
125.2258695738773
 20
92.9189489325453
 30
0.0
  0
SPLINE
  5
149
330
1F
100
AcDbEntity
  8
0
  6
Continuous
 62
     7
370
    25
100
AcDbSpline
210
0.0
220
0.0
230
1.0
 70
     8
 71
     3
 72
    10
 73
     6
 74
     0
 42
0.000000001
 43
0.00000001
 40
0.0
 40
0.0
 40
0.0
 40
0.0
 40
0.5
 40
0.5
 40
1.0
 40
1.0
 40
1.0
 40
1.0
 10
125.2258695738773
 20
92.91894893254529
 30
0.0
 10
124.9178897152495
 20
92.92629893297399
 30
0.0
 10
124.617869705126
 20
92.94568176973665
 30
0.0
 10
124.0330583611317
 20
93.0084952251676
 30
0.0
 10
123.7464065547838
 20
93.05243576328844
 30
0.0
 10
123.4758695738774
 20
93.1088338024427
 30
0.0
  0
SPLINE
  5
14A
330
1F
100
AcDbEntity
  8
0
  6
Continuous
 62
     7
370
    25
100
AcDbSpline
210
0.0
220
0.0
230
1.0
 70
     8
 71
     3
 72
    16
 73
    12
 74
     0
 42
0.000000001
 43
0.00000001
 40
0.0
 40
0.0
 40
0.0
 40
0.0
 40
0.2499999999999992
 40
0.2499999999999992
 40
0.4999999999999984
 40
0.4999999999999984
 40
0.7499999999999977
 40
0.7499999999999977
 40
0.8749999999999988
 40
0.8749999999999988
 40
1.0
 40
1.0
 40
1.0
 40
1.0
 10
123.4758695738774
 20
93.1088338024427
 30
0.0
 10
123.342092405132
 20
93.1367219306223
 30
0.0
 10
123.2185139152938
 20
93.14383204387778
 30
0.0
 10
122.9874539680037
 20
93.12475036345005
 30
0.0
 10
122.8831366449624
 20
93.09840896349212
 30
0.0
 10
122.7013094417929
 20
93.01019774511165
 30
0.0
 10
122.6245446753967
 20
92.94920879812338
 30
0.0
 10
122.5390390332667
 20
92.82078004606069
 30
0.0
 10
122.5162883833666
 20
92.77264279242405
 30
0.0
 10
122.4845581091407
 20
92.66327786751161
 30
0.0
 10
122.4758695738773
 20
92.60184401496386
 30
0.0
 10
122.4758695738773
 20
92.53636669078658
 30
0.0
  0
LINE
  5
14B
330
1F
100
AcDbEntity
  8
0
  6
Continuous
 62
     7
370
    25
100
AcDbLine
 10
122.4758694457
 20
92.536365874
 30
0.0
 11
122.4758694457
 21
92.4513975902
 31
0.0
  0
SPLINE
  5
14C
330
1F
100
AcDbEntity
  8
0
  6
Continuous
 62
     7
370
    25
100
AcDbSpline
210
0.0
220
0.0
230
1.0
 70
     8
 71
     3
 72
     8
 73
     4
 74
     0
 42
0.000000001
 43
0.00000001
 40
0.0
 40
0.0
 40
0.0
 40
0.0
 40
1.0
 40
1.0
 40
1.0
 40
1.0
 10
122.4758695738775
 20
92.45139756403512
 30
0.0
 10
122.3491095608482
 20
92.31332725388805
 30
0.0
 10
122.2262571471166
 20
92.18724820305448
 30
0.0
 10
122.1083459077293
 20
92.0767434938537
 30
0.0
  0
LINE
  5
14D
330
1F
100
AcDbEntity
  8
0
  6
Continuous
 62
     7
370
    25
100
AcDbLine
 10
75.1160657542
 20
127.595749013
 30
0.0
 11
75.2525343137
 21
127.5169591232
 31
0.0
  0
LINE
  5
14E
330
1F
100
AcDbEntity
  8
0
  6
Continuous
 62
     7
370
    25
100
AcDbLine
 10
126.2258695947
 20
145.573109649
 30
0.0
 11
126.2258695947
 21
147.8200035913
 31
0.0
  0
LINE
  5
14F
330
1F
100
AcDbEntity
  8
0
  6
Continuous
 62
     7
370
    25
100
AcDbLine
 10
122.4758694457
 20
89.9248125775
 30
0.0
 11
122.4758694457
 21
92.4513975902
 31
0.0
  0
LINE
  5
150
330
1F
100
AcDbEntity
  8
0
  6
Continuous
 62
     7
370
    25
100
AcDbLine
 10
126.2258695947
 20
89.9248125775
 30
0.0
 11
126.2258695947
 21
91.9776542856
 31
0.0
  0
LINE
  5
151
330
1F
100
AcDbEntity
  8
0
  6
Continuous
 62
     7
370
    25
100
AcDbLine
 10
88.9412178236
 20
126.9349076597
 30
0.0
 11
88.8225989925
 21
126.9349076597
 31
0.0
  0
LINE
  5
152
330
1F
100
AcDbEntity
  8
0
  6
Continuous
 62
     7
370
    25
100
AcDbLine
 10
88.8230907308
 20
110.8099085091
 30
0.0
 11
88.9431940901
 21
110.8099085091
 31
0.0
  0
DIMENSION
  5
153
330
1F
100
AcDbEntity
  8
VERMASSUNG
100
AcDbDimension
  2
_D
 10
253.4249485128
 20
98.0224080844
 30
0.0
 11
253.4249485128
 21
118.8724080844
 31
0.0
 70
   160
  1
%%c<>
 71
     2
 42
-1.0
  3
SLDDIMSTYLE0
100
AcDbAlignedDimension
 13
219.8621359028
 23
139.7224080844
 33
0.0
 14
219.8656972958
 24
98.0224080844
 34
0.0
 50
90.0
100
AcDbRotatedDimension
  0
DIMENSION
  5
15F
330
1F
100
AcDbEntity
  8
VERMASSUNG
100
AcDbDimension
  2
_D_1
 10
175.127409688
 20
97.8724080844
 30
0.0
 11
175.127409688
 21
149.0138933609
 31
0.0
 70
   160
  1
%%c<>
 71
     2
 42
-1.0
  3
SLDDIMSTYLE0
100
AcDbAlignedDimension
 13
203.9508695739
 23
139.8724080844
 33
0.0
 14
203.9508695739
 24
97.8724080844
 34
0.0
 50
90.0
100
AcDbRotatedDimension
  0
DIMENSION
  5
169
330
1F
100
AcDbEntity
  8
VERMASSUNG
100
AcDbDimension
  2
_D_2
 10
234.4508695739
 20
172.3474080844
 30
0.0
 11
174.4508695739
 21
172.3474080844
 31
0.0
 70
   160
  1
<>
 71
     2
 42
-1.0
  3
SLDDIMSTYLE0
100
AcDbAlignedDimension
 13
114.4508695739
 23
150.1474080844
 33
0.0
 14
234.4508695739
 24
133.8724080844
 34
0.0
100
AcDbRotatedDimension
  0
DIMENSION
  5
173
330
1F
100
AcDbEntity
  8
VERMASSUNG
100
AcDbDimension
  2
_D_3
 10
234.4508695739
 20
182.0170177165
 30
0.0
 11
154.4758695739
 21
182.0170177165
 31
0.0
 70
   160
  1
<>
 71
     2
 42
-1.0
  3
SLDDIMSTYLE0
100
AcDbAlignedDimension
 13
74.5008695739
 23
141.0755028082
 33
0.0
 14
234.4508695739
 24
133.8724080844
 34
0.0
100
AcDbRotatedDimension
  0
DIMENSION
  5
17D
330
1F
100
AcDbEntity
  8
VERMASSUNG
100
AcDbDimension
  2
_D_4
 10
58.5008445739
 20
150.3474080844
 30
0.0
 11
58.5008445739
 21
118.8724080844
 31
0.0
 70
   160
  1
KM%%c<> XMZ
 71
     2
 42
-1.0
  3
SLDDIMSTYLE1
100
AcDbAlignedDimension
 13
114.6508695739
 23
87.3974080844
 33
0.0
 14
114.6508695739
 24
150.3474080844
 34
0.0
 50
90.0
100
AcDbRotatedDimension
  0
DIMENSION
  5
18B
330
1F
100
AcDbEntity
  8
VERMASSUNG
100
AcDbDimension
  2
_D_5
 10
234.4508695739
 20
162.4439271808
 30
0.0
 11
183.4508695739
 21
162.4439271808
 31
0.0
 70
   160
  1
<>
 71
     2
 42
-1.0
  3
SLDDIMSTYLE0
100
AcDbAlignedDimension
 13
132.4508695739
 23
149.3474080844
 33
0.0
 14
234.4508695739
 24
133.8724080844
 34
0.0
100
AcDbRotatedDimension
  0
LINE
  5
195
330
1F
100
AcDbEntity
  8
VERMASSUNG
  6
CENTERX2
370
    18
100
AcDbLine
 10
64.9827067669
 20
118.8724080844
 30
0.0
 11
241.9105263158
 21
118.8724080844
 31
0.0
  0
LINE
  5
196
330
1F
100
AcDbEntity
  8
0
  6
Continuous
 62
     7
370
    25
100
AcDbLine
 10
239.0894209724
 20
30.074656194
 30
0.0
 11
244.6835194917
 21
26.8452518586
 31
0.0
  0
LINE
  5
197
330
1F
100
AcDbEntity
  8
0
  6
Continuous
 62
     7
370
    25
100
AcDbLine
 10
255.1076725336
 20
44.9023704105
 30
0.0
 11
249.5135740143
 21
48.1317747459
 31
0.0
  0
LINE
  5
198
330
1F
100
AcDbEntity
  8
0
  6
Continuous
 62
     7
370
    25
100
AcDbLine
 10
244.300299403
 20
47.6149613992
 30
0.0
 11
244.0175031409
 21
47.4516535121
 31
0.0
  0
LINE
  5
199
330
1F
100
AcDbEntity
  8
0
  6
Continuous
 62
     7
370
    25
100
AcDbLine
 10
236.9299096388
 20
35.1742510729
 30
0.0
 11
236.9299089802
 21
34.8476880028
 31
0.0
  0
SPLINE
  5
19A
330
1F
100
AcDbEntity
  8
0
  6
Continuous
 62
     7
370
    25
100
AcDbSpline
210
0.0
220
0.0
230
1.0
 70
     8
 71
     3
 72
    12
 73
     8
 74
     0
 42
0.000000001
 43
0.00000001
 40
0.0
 40
0.0
 40
0.0
 40
0.0
 40
0.0846886843712334
 40
0.3473172650024332
 40
0.6096404685922003
 40
0.8743644287169897
 40
1.0
 40
1.0
 40
1.0
 40
1.0
 10
234.9696465436513
 20
32.38354850348556
 30
0.0
 10
235.0328591603014
 20
32.34037713203097
 30
0.0
 10
235.2921007967908
 20
32.16332676489709
 30
0.0
 10
235.8098212151127
 20
31.95898481259398
 30
0.0
 10
236.5087893224805
 20
31.78403670786666
 30
0.0
 10
237.1134805269465
 20
31.71943416304716
 30
0.0
 10
237.4867332748795
 20
31.74979455605422
 30
0.0
 10
237.606863099942
 20
31.75956592068841
 30
0.0
  0
SPLINE
  5
19B
330
1F
100
AcDbEntity
  8
0
  6
Continuous
 62
     7
370
    25
100
AcDbSpline
210
0.0
220
0.0
230
1.0
 70
     8
 71
     3
 72
    11
 73
     7
 74
     0
 42
0.000000001
 43
0.00000001
 40
0.0
 40
0.0
 40
0.0
 40
0.0
 40
0.2246853186755171
 40
0.5241330804628539
 40
0.8167548805279465
 40
1.0
 40
1.0
 40
1.0
 40
1.0
 10
247.3158117814561
 20
48.57167733794304
 30
0.0
 10
247.2256302551078
 20
48.74786016778447
 30
0.0
 10
247.0152599403742
 20
49.15884941209203
 30
0.0
 10
246.57682672874
 20
49.70066287852159
 30
0.0
 10
246.1055318704514
 20
50.1561923812959
 30
0.0
 10
245.7651617550229
 20
50.36116637482128
 30
0.0
 10
245.6340932568657
 20
50.44009702200464
 30
0.0
  0
LINE
  5
19C
330
1F
100
AcDbEntity
  8
0
  6
Continuous
 62
     7
370
    25
100
AcDbLine
 10
245.5559184261
 20
50.5030808663
 30
0.0
 11
221.6910636128
 21
64.2799683007
 31
0.0
  0
LINE
  5
19D
330
1F
100
AcDbEntity
  8
0
  6
Continuous
 62
     7
370
    25
100
AcDbLine
 10
211.1919168394
 20
46.0929423472
 30
0.0
 11
235.0567716528
 21
32.3160549127
 31
0.0
  0
SPLINE
  5
19E
330
1F
100
AcDbEntity
  8
0
  6
Continuous
 62
     7
370
    25
100
AcDbSpline
210
0.0
220
0.0
230
1.0
 70
     8
 71
     3
 72
    14
 73
    10
 74
     0
 42
0.000000001
 43
0.00000001
 40
0.0
 40
0.0
 40
0.0
 40
0.0
 40
0.0948526013762102
 40
0.2442842425604094
 40
0.3947417582929398
 40
0.5460650167180121
 40
0.6980018949665591
 40
0.8503021609329812
 40
1.0
 40
1.0
 40
1.0
 40
1.0
 10
209.1328295919851
 20
41.84778015827082
 30
0.0
 10
209.3161416229339
 20
41.82750628531949
 30
0.0
 10
209.7882450759001
 20
41.77529277060481
 30
0.0
 10
210.5905173407298
 20
41.81791911606876
 30
0.0
 10
211.5281774082479
 20
41.96099276904561
 30
0.0
 10
212.4925635942616
 20
42.21942657098312
 30
0.0
 10
213.4736923085853
 20
42.58801131678126
 30
0.0
 10
214.4586149220744
 20
43.05326582555281
 30
0.0
 10
215.112484004709
 20
43.44724556103789
 30
0.0
 10
215.4366012328364
 20
43.64253789584172
 30
0.0
  0
SPLINE
  5
19F
330
1F
100
AcDbEntity
  8
0
  6
Continuous
 62
     7
370
    25
100
AcDbSpline
210
0.0
220
0.0
230
1.0
 70
     8
 71
     3
 72
    15
 73
    11
 74
     0
 42
0.000000001
 43
0.00000001
 40
0.0
 40
0.0
 40
0.0
 40
0.0
 40
0.0557218662611683
 40
0.1961840925558486
 40
0.3367227642152962
 40
0.4772288421481057
 40
0.6175428690201885
 40
0.7574420592014596
 40
0.8966589068845475
 40
1.0
 40
1.0
 40
1.0
 40
1.0
 10
225.9263981147438
 20
61.8349621219655
 30
0.0
 10
225.9349526597453
 20
61.99085051406421
 30
0.0
 10
225.9650712785381
 20
62.53969829673775
 30
0.0
 10
225.9245417923509
 20
63.43532657374178
 30
0.0
 10
225.8056726022438
 20
64.51191245320243
 30
0.0
 10
225.5924930093505
 20
65.52284711781107
 30
0.0
 10
225.2939362631132
 20
66.46401050912426
 30
0.0
 10
224.9068170843472
 20
67.3220898872913
 30
0.0
 10
224.4858690915224
 20
68.0390308874081
 30
0.0
 10
224.1591963874954
 20
68.42536995453837
 30
0.0
 10
224.0200184483441
 20
68.5899685711782
 30
0.0
  0
SPLINE
  5
1A0
330
1F
100
AcDbEntity
  8
0
  6
Continuous
 62
     7
370
    25
100
AcDbSpline
210
0.0
220
0.0
230
1.0
 70
     8
 71
     3
 72
     9
 73
     5
 74
     0
 42
0.000000001
 43
0.00000001
 40
0.0
 40
0.0
 40
0.0
 40
0.0
 40
0.409496311611535
 40
1.0
 40
1.0
 40
1.0
 40
1.0
 10
208.6132327068307
 20
41.92246801589264
 30
0.0
 10
208.6814760297996
 20
41.90489615171672
 30
0.0
 10
208.8481278921823
 20
41.8619852299876
 30
0.0
 10
209.0271288601658
 20
41.85305405188315
 30
0.0
 10
209.1328295919851
 20
41.84778015827082
 30
0.0
  0
LINE
  5
1A1
330
1F
100
AcDbEntity
  8
0
  6
Continuous
 62
     7
370
    25
100
AcDbLine
 10
205.4742006256
 20
43.3461290485
 30
0.0
 11
206.8056129847
 21
42.5775210539
 31
0.0
  0
LINE
  5
1A2
330
1F
100
AcDbEntity
  8
0
  6
Continuous
 62
     7
370
    25
100
AcDbLine
 10
222.5418342992
 20
69.8364094477
 30
0.0
 11
221.2104219402
 21
70.6050174423
 31
0.0
  0
LINE
  5
1A3
330
1F
100
AcDbEntity
  8
0
  6
Continuous
 62
     7
370
    25
100
AcDbLine
 10
200.8659156943
 20
46.0064353132
 30
0.0
 11
203.1165666707
 21
44.7071621603
 31
0.0
  0
LINE
  5
1A4
330
1F
100
AcDbEntity
  8
0
  6
Continuous
 62
     7
370
    25
100
AcDbLine
 10
218.8527879852
 20
71.9660505541
 30
0.0
 11
216.6021370088
 21
73.265323707
 31
0.0
  0
LINE
  5
1A5
330
1F
100
AcDbEntity
  8
0
  6
Continuous
 62
     7
370
    25
100
AcDbLine
 10
209.8247478185
 20
73.0452056146
 30
0.0
 11
200.6275356349
 21
77.6258582245
 31
0.0
  0
LINE
  5
1A6
330
1F
100
AcDbEntity
  8
0
  6
Continuous
 62
     7
370
    25
100
AcDbLine
 10
189.1011878453
 20
57.6594747688
 30
0.0
 11
197.667287851
 21
51.9855851724
 31
0.0
  0
LINE
  5
1A7
330
1F
100
AcDbEntity
  8
0
  6
Continuous
 62
     7
370
    25
100
AcDbLine
 10
194.080625287
 20
58.6059646345
 30
0.0
 11
194.080625287
 21
58.2406459295
 31
0.0
  0
LINE
  5
1A8
330
1F
100
AcDbEntity
  8
0
  6
Continuous
 62
     7
370
    25
100
AcDbLine
 10
197.9785920473
 20
78.0028266012
 30
0.0
 11
197.3390419386
 21
77.9156148457
 31
0.0
  0
LINE
  5
1A9
330
1F
100
AcDbEntity
  8
0
  6
Continuous
 62
     7
370
    25
100
AcDbLine
 10
256.7829942861
 20
36.8156160354
 30
0.0
 11
256.6953808662
 21
36.618260013
 31
0.0
  0
LINE
  5
1AA
330
1F
100
AcDbEntity
  8
0
  6
Continuous
 62
     7
370
    25
100
AcDbLine
 10
256.6953808662
 20
36.618260013
 30
0.0
 11
256.4601000357
 21
36.3043059841
 31
0.0
  0
LINE
  5
1AB
330
1F
100
AcDbEntity
  8
0
  6
Continuous
 62
     7
370
    25
100
AcDbLine
 10
256.4601000357
 20
36.3043059841
 30
0.0
 11
256.3840572428
 21
36.1355910811
 31
0.0
  0
SPLINE
  5
1AC
330
1F
100
AcDbEntity
  8
0
  6
Continuous
 62
     7
370
    25
100
AcDbSpline
210
0.0
220
0.0
230
1.0
 70
     8
 71
     3
 72
     9
 73
     5
 74
     0
 42
0.000000001
 43
0.00000001
 40
0.0
 40
0.0
 40
0.0
 40
0.0
 40
0.5000512668860702
 40
1.0
 40
1.0
 40
1.0
 40
1.0
 10
256.3840572427977
 20
36.13559108111971
 30
0.0
 10
256.2664465635157
 20
35.78510945189088
 30
0.0
 10
256.0312493206123
 20
35.08421805847164
 30
0.0
 10
255.7391853499093
 20
34.41615535973768
 30
0.0
 10
255.5931683377682
 20
34.08215825986496
 30
0.0
  0
LINE
  5
1AD
330
1F
100
AcDbEntity
  8
0
  6
Continuous
 62
     7
370
    25
100
AcDbLine
 10
255.5638953758
 20
33.9774342776
 30
0.0
 11
255.5931683378
 21
34.0821582599
 31
0.0
  0
LINE
  5
1AE
330
1F
100
AcDbEntity
  8
0
  6
Continuous
 62
     7
370
    25
100
AcDbLine
 10
255.687755744
 20
34.0021008068
 30
0.0
 11
255.5638953758
 21
33.9774342776
 31
0.0
  0
LINE
  5
1AF
330
1F
100
AcDbEntity
  8
0
  6
Continuous
 62
     7
370
    25
100
AcDbLine
 10
255.6525571986
 20
33.8805931447
 30
0.0
 11
255.687755744
 21
34.0021008068
 31
0.0
  0
ARC
  5
1B0
330
1F
100
AcDbEntity
  8
0
  6
Continuous
 62
     7
370
    25
100
AcDbCircle
 10
240.8268367948
 20
41.0347433044
 30
0.0
 40
16.46158710451819
100
AcDbArc
 50
308.452645287
 51
334.2403708666
  0
LINE
  5
1B1
330
1F
100
AcDbEntity
  8
0
  6
Continuous
 62
     7
370
    25
100
AcDbLine
 10
251.0637644901
 20
28.1433057833
 30
0.0
 11
251.0207341218
 21
28.1670060088
 31
0.0
  0
LINE
  5
1B2
330
1F
100
AcDbEntity
  8
0
  6
Continuous
 62
     7
370
    25
100
AcDbLine
 10
251.0207341218
 20
28.1670060088
 30
0.0
 11
251.2787841287
 21
28.6198355559
 31
0.0
  0
LINE
  5
1B3
330
1F
100
AcDbEntity
  8
0
  6
Continuous
 62
     7
370
    25
100
AcDbLine
 10
251.2787841287
 20
28.6198355559
 30
0.0
 11
251.2409727256
 21
28.6406846372
 31
0.0
  0
SPLINE
  5
1B4
330
1F
100
AcDbEntity
  8
0
  6
Continuous
 62
     7
370
    25
100
AcDbSpline
210
0.0
220
0.0
230
1.0
 70
     8
 71
     3
 72
     9
 73
     5
 74
     0
 42
0.000000001
 43
0.00000001
 40
0.0
 40
0.0
 40
0.0
 40
0.0
 40
0.122280276676713
 40
1.0
 40
1.0
 40
1.0
 40
1.0
 10
251.2409727256489
 20
28.64068463716266
 30
0.0
 10
251.1804938159578
 20
28.60045904763653
 30
0.0
 10
250.6859013000203
 20
28.27149684196147
 30
0.0
 10
250.1331272061859
 20
27.97435645477427
 30
0.0
 10
249.6479464814852
 20
27.71355047634414
 30
0.0
  0
LINE
  5
1B5
330
1F
100
AcDbEntity
  8
0
  6
Continuous
 62
     7
370
    25
100
AcDbLine
 10
249.4736275276
 20
27.5692418984
 30
0.0
 11
249.6479464815
 21
27.7135504763
 31
0.0
  0
LINE
  5
1B6
330
1F
100
AcDbEntity
  8
0
  6
Continuous
 62
     7
370
    25
100
AcDbLine
 10
248.9911518086
 20
26.9857978625
 30
0.0
 11
249.4736275276
 21
27.5692418984
 31
0.0
  0
LINE
  5
1B7
330
1F
100
AcDbEntity
  8
0
  6
Continuous
 62
     7
370
    25
100
AcDbLine
 10
248.7868118686
 20
26.818129529
 30
0.0
 11
248.9911518086
 21
26.9857978625
 31
0.0
  0
ARC
  5
1B8
330
1F
100
AcDbEntity
  8
0
  6
Continuous
 62
     7
370
    25
100
AcDbCircle
 10
246.7929332162
 20
30.7540553834
 30
0.0
 40
4.412149636205545
100
AcDbArc
 50
233.6271941149
 51
296.8660624471
  0
LINE
  5
1B9
330
1F
100
AcDbEntity
  8
0
  6
Continuous
 62
     7
370
    25
100
AcDbLine
 10
244.1763661343
 20
27.2015012152
 30
0.0
 11
244.3021079641
 21
27.3757046422
 31
0.0
  0
LINE
  5
1BA
330
1F
100
AcDbEntity
  8
0
  6
Continuous
 62
     7
370
    25
100
AcDbLine
 10
244.3021079641
 20
27.3757046422
 30
0.0
 11
245.1682961653
 21
27.9272422438
 31
0.0
  0
LINE
  5
1BB
330
1F
100
AcDbEntity
  8
0
  6
Continuous
 62
     7
370
    25
100
AcDbLine
 10
245.1682961653
 20
27.9272422438
 30
0.0
 11
245.2752141589
 21
28.0771547709
 31
0.0
  0
SPLINE
  5
1BC
330
1F
100
AcDbEntity
  8
0
  6
Continuous
 62
     7
370
    25
100
AcDbSpline
210
0.0
220
0.0
230
1.0
 70
     8
 71
     3
 72
     9
 73
     5
 74
     0
 42
0.000000001
 43
0.00000001
 40
0.0
 40
0.0
 40
0.0
 40
0.0
 40
0.5000512347871114
 40
1.0
 40
1.0
 40
1.0
 40
1.0
 10
245.2752141588844
 20
28.07715477089515
 30
0.0
 10
245.1557286397307
 20
28.25668303900734
 30
0.0
 10
244.9167820861747
 20
28.61570278663104
 30
0.0
 10
244.6209683614988
 20
29.00754999728575
 30
0.0
 10
244.4730766551141
 20
29.20345352640469
 30
0.0
  0
LINE
  5
1BD
330
1F
100
AcDbEntity
  8
0
  6
Continuous
 62
     7
370
    25
100
AcDbLine
 10
244.259344718
 20
29.2035209581
 30
0.0
 11
244.4730766551
 21
29.2034535264
 31
0.0
  0
LINE
  5
1BE
330
1F
100
AcDbEntity
  8
0
  6
Continuous
 62
     7
370
    25
100
AcDbLine
 10
243.2801509378
 20
28.8106561774
 30
0.0
 11
244.259344718
 21
29.2035209581
 31
0.0
  0
LINE
  5
1BF
330
1F
100
AcDbEntity
  8
0
  6
Continuous
 62
     7
370
    25
100
AcDbLine
 10
243.0298506826
 20
28.8113480892
 30
0.0
 11
243.2801509378
 21
28.8106561774
 31
0.0
  0
ARC
  5
1C0
330
1F
100
AcDbEntity
  8
0
  6
Continuous
 62
     7
370
    25
100
AcDbCircle
 10
252.130593747
 20
31.9039109989
 30
0.0
 40
9.611840077438998
100
AcDbArc
 50
161.6368899019
 51
198.7684969266
  0
LINE
  5
1C1
330
1F
100
AcDbEntity
  8
0
  6
Continuous
 62
     7
370
    25
100
AcDbLine
 10
243.0081977392
 20
34.9320062337
 30
0.0
 11
243.2581292094
 21
35.0356580402
 31
0.0
  0
LINE
  5
1C2
330
1F
100
AcDbEntity
  8
0
  6
Continuous
 62
     7
370
    25
100
AcDbLine
 10
243.2581292094
 20
35.0356580402
 30
0.0
 11
244.2391247674
 21
34.9191201203
 31
0.0
  0
LINE
  5
1C3
330
1F
100
AcDbEntity
  8
0
  6
Continuous
 62
     7
370
    25
100
AcDbLine
 10
244.2391247674
 20
34.9191201203
 30
0.0
 11
244.4525399446
 21
35.0085316338
 31
0.0
  0
SPLINE
  5
1C4
330
1F
100
AcDbEntity
  8
0
  6
Continuous
 62
     7
370
    25
100
AcDbSpline
210
0.0
220
0.0
230
1.0
 70
     8
 71
     3
 72
     9
 73
     5
 74
     0
 42
0.000000001
 43
0.00000001
 40
0.0
 40
0.0
 40
0.0
 40
0.0
 40
0.5000512668860702
 40
1.0
 40
1.0
 40
1.0
 40
1.0
 10
244.4525399446327
 20
35.00853163377372
 30
0.0
 10
244.5985858853741
 20
35.34259793597204
 30
0.0
 10
244.8906478206452
 20
36.01066204123593
 30
0.0
 10
245.1258432118134
 20
36.71155427213906
 30
0.0
 10
245.2434288496621
 20
37.06196445502847
 30
0.0
  0
LINE
  5
1C5
330
1F
100
AcDbEntity
  8
0
  6
Continuous
 62
     7
370
    25
100
AcDbLine
 10
245.1353294272
 20
37.2459918268
 30
0.0
 11
245.2434288497
 21
37.061964455
 31
0.0
  0
LINE
  5
1C6
330
1F
100
AcDbEntity
  8
0
  6
Continuous
 62
     7
370
    25
100
AcDbLine
 10
244.2657543317
 20
37.6518172465
 30
0.0
 11
245.1353294272
 21
37.2459918268
 31
0.0
  0
LINE
  5
1C7
330
1F
100
AcDbEntity
  8
0
  6
Continuous
 62
     7
370
    25
100
AcDbLine
 10
244.1386348267
 20
37.8670291244
 30
0.0
 11
244.2657543317
 21
37.6518172465
 31
0.0
  0
ARC
  5
1C8
330
1F
100
AcDbEntity
  8
0
  6
Continuous
 62
     7
370
    25
100
AcDbCircle
 10
258.9643552305
 20
30.7128789647
 30
0.0
 40
16.46158710451843
100
AcDbArc
 50
128.452645287
 51
154.2403708666
  0
LINE
  5
1C9
330
1F
100
AcDbEntity
  8
0
  6
Continuous
 62
     7
370
    25
100
AcDbLine
 10
248.7274275352
 20
43.6043164858
 30
0.0
 11
248.9327759538
 21
43.4869120444
 31
0.0
  0
LINE
  5
1CA
330
1F
100
AcDbEntity
  8
0
  6
Continuous
 62
     7
370
    25
100
AcDbLine
 10
248.9327759538
 20
43.4869120444
 30
0.0
 11
249.4204406744
 21
42.6035905485
 31
0.0
  0
LINE
  5
1CB
330
1F
100
AcDbEntity
  8
0
  6
Continuous
 62
     7
370
    25
100
AcDbLine
 10
249.4204406744
 20
42.6035905485
 30
0.0
 11
249.5956244618
 21
42.5034380777
 31
0.0
  0
SPLINE
  5
1CC
330
1F
100
AcDbEntity
  8
0
  6
Continuous
 62
     7
370
    25
100
AcDbSpline
210
0.0
220
0.0
230
1.0
 70
     8
 71
     3
 72
     9
 73
     5
 74
     0
 42
0.000000001
 43
0.00000001
 40
0.0
 40
0.0
 40
0.0
 40
0.0
 40
0.1222803024619492
 40
1.0
 40
1.0
 40
1.0
 40
1.0
 10
251.1886507059452
 20
43.4305722385493
 30
0.0
 10
251.1281717826022
 20
43.39034664106825
 30
0.0
 10
250.6335792593148
 20
43.06138443970664
 30
0.0
 10
250.0808051690743
 20
42.76424405037834
 30
0.0
 10
249.5956244617815
 20
42.50343807773078
 30
0.0
  0
LINE
  5
1CD
330
1F
100
AcDbEntity
  8
0
  6
Continuous
 62
     7
370
    25
100
AcDbLine
 10
251.2255972754
 20
43.654184206
 30
0.0
 11
251.1886507059
 21
43.4305722385
 31
0.0
  0
LINE
  5
1CE
330
1F
100
AcDbEntity
  8
0
  6
Continuous
 62
     7
370
    25
100
AcDbLine
 10
250.9623582671
 20
44.6681201907
 30
0.0
 11
251.2255972754
 21
43.654184206
 31
0.0
  0
LINE
  5
1CF
330
1F
100
AcDbEntity
  8
0
  6
Continuous
 62
     7
370
    25
100
AcDbLine
 10
251.0043801568
 20
44.9294927402
 30
0.0
 11
250.9623582671
 21
44.6681201907
 31
0.0
  0
ARC
  5
1D0
330
1F
100
AcDbEntity
  8
0
  6
Continuous
 62
     7
370
    25
100
AcDbCircle
 10
252.9982588091
 20
40.9935668857
 30
0.0
 40
4.412149636205562
100
AcDbArc
 50
53.6271941149
 51
116.8660624471
  0
LINE
  5
1D1
330
1F
100
AcDbEntity
  8
0
  6
Continuous
 62
     7
370
    25
100
AcDbLine
 10
255.614825891
 20
44.546121054
 30
0.0
 11
255.6514021115
 21
44.278213411
 31
0.0
  0
LINE
  5
1D2
330
1F
100
AcDbEntity
  8
0
  6
Continuous
 62
     7
370
    25
100
AcDbLine
 10
255.6514021115
 20
44.278213411
 30
0.0
 11
255.5309286378
 21
43.2961838606
 31
0.0
  0
LINE
  5
1D3
330
1F
100
AcDbEntity
  8
0
  6
Continuous
 62
     7
370
    25
100
AcDbLine
 10
255.5309286378
 20
43.2961838606
 30
0.0
 11
255.5613830285
 21
43.066967944
 31
0.0
  0
SPLINE
  5
1D4
330
1F
100
AcDbEntity
  8
0
  6
Continuous
 62
     7
370
    25
100
AcDbSpline
210
0.0
220
0.0
230
1.0
 70
     8
 71
     3
 72
     9
 73
     5
 74
     0
 42
0.000000001
 43
0.00000001
 40
0.0
 40
0.0
 40
0.0
 40
0.0
 40
0.5000512347871114
 40
1.0
 40
1.0
 40
1.0
 40
1.0
 10
255.5613830285459
 20
43.06696794399829
 30
0.0
 10
255.709303807942
 20
42.87102434955824
 30
0.0
 10
256.0051150550818
 20
42.47917731307712
 30
0.0
 10
256.2440602014405
 20
42.12015963388863
 30
0.0
 10
256.3635205323163
 20
41.94066918848875
 30
0.0
  0
LINE
  5
1D5
330
1F
100
AcDbEntity
  8
0
  6
Continuous
 62
     7
370
    25
100
AcDbLine
 10
256.4398800851
 20
42.0199051462
 30
0.0
 11
256.3635205323
 21
41.9406691885
 31
0.0
  0
LINE
  5
1D6
330
1F
100
AcDbEntity
  8
0
  6
Continuous
 62
     7
370
    25
100
AcDbLine
 10
256.6733591379
 20
42.8432618758
 30
0.0
 11
256.4398800851
 21
42.0199051462
 31
0.0
  0
LINE
  5
1D7
330
1F
100
AcDbEntity
  8
0
  6
Continuous
 62
     7
370
    25
100
AcDbLine
 10
256.7613413427
 20
42.9362741799
 30
0.0
 11
256.6733591379
 21
42.8432618758
 31
0.0
  0
ARC
  5
1D8
330
1F
100
AcDbEntity
  8
0
  6
Continuous
 62
     7
370
    25
100
AcDbCircle
 10
247.6605982783
 20
39.8437112702
 30
0.0
 40
9.611840077439282
100
AcDbArc
 50
341.6368899019
 51
18.7684969266
  0
LWPOLYLINE
  5
1D9
330
1F
100
AcDbEntity
  8
0
  6
Continuous
 62
     7
370
    25
100
AcDbPolyline
 90
       47
 70
   128
 43
0.0
 10
245.7864646509
 20
32.0979852747
 10
245.8329157464
 20
32.9589187369
 10
245.9772907638
 20
33.8613095252
 10
246.2169008659
 20
34.7883481508
 10
246.5472824381
 20
35.7227655857
 10
246.9622807234
 20
36.6471552217
 10
247.4541657264
 20
37.5442972921
 10
248.0137744588
 20
38.3974807241
 10
248.6306818317
 20
39.1908111105
 10
249.2933967374
 20
39.9095105987
 10
249.989573689
 20
40.5401917801
 10
250.7062442987
 20
41.0711053889
 10
251.4300583671
 20
41.4923619906
 10
252.1475325863
 20
41.7961139584
 10
252.8453018162
 20
41.9767035737
 10
253.5103678904
 20
42.0307663543
 10
254.1303421051
 20
41.9572957543
 10
254.6936749067
 20
41.7576594092
 10
255.1898733762
 20
41.4355771573
 10
255.6096931951
 20
40.9970482072
 10
255.945314806
 20
40.4502416146
 10
256.1904859872
 20
39.8053434161
 10
256.3406394034
 20
39.0743668823
 10
256.3929785452
 20
38.2709289402
 10
256.3465274498
 20
37.4099954779
 10
256.2021524324
 20
36.5076046896
 10
255.9625423303
 20
35.580566064
 10
255.6321607581
 20
34.6461486291
 10
255.2171624728
 20
33.7217589931
 10
254.7252774698
 20
32.8246169227
 10
254.1656687374
 20
31.9714334907
 10
253.5487613645
 20
31.1781031043
 10
252.8860464588
 20
30.4594036161
 10
252.1898695072
 20
29.8287224348
 10
251.4731988975
 20
29.2978088259
 10
250.7493848291
 20
28.8765522242
 10
250.0319106099
 20
28.5728002564
 10
249.33414138
 20
28.3922106411
 10
248.6690753058
 20
28.3381478605
 10
248.0491010911
 20
28.4116184605
 10
247.4857682895
 20
28.6112548056
 10
246.98956982
 20
28.9333370575
 10
246.5697500011
 20
29.3718660076
 10
246.2341283902
 20
29.9186726002
 10
245.988957209
 20
30.5635707987
 10
245.8388037928
 20
31.2945473325
 10
245.7864646509
 20
32.0979852747
  0
LINE
  5
1DA
330
1F
100
AcDbEntity
  8
0
  6
Continuous
 62
     7
370
    25
100
AcDbLine
 10
248.2635600614
 20
46.5117345023
 30
0.0
 11
251.0043801568
 21
44.9294927402
 31
0.0
  0
SPLINE
  5
1DB
330
1F
100
AcDbEntity
  8
0
  6
Continuous
 62
     7
370
    25
100
AcDbSpline
210
0.0
220
0.0
230
1.0
 70
     8
 71
     3
 72
    17
 73
    13
 74
     0
 42
0.000000001
 43
0.00000001
 40
0.0
 40
0.0
 40
0.0
 40
0.0
 40
0.0849596970650896
 40
0.2026991062738707
 40
0.3179163698038909
 40
0.4263310804096345
 40
0.5328080718328305
 40
0.6312074729616606
 40
0.7278424848415141
 40
0.831095574227746
 40
0.9419123017025677
 40
1.0
 40
1.0
 40
1.0
 40
1.0
 10
248.2635600613864
 20
46.51173450225624
 30
0.0
 10
248.1510066710713
 20
46.56944098470598
 30
0.0
 10
247.8824737970959
 20
46.70711864626604
 30
0.0
 10
247.3502435106886
 20
46.8513438461511
 30
0.0
 10
246.7450505888682
 20
46.89916266592117
 30
0.0
 10
246.1888952211864
 20
46.81351189667784
 30
0.0
 10
245.7648963144819
 20
46.60476624228932
 30
0.0
 10
245.5107727961071
 20
46.31237076693004
 30
0.0
 10
245.4241705036174
 20
45.97892776277286
 30
0.0
 10
245.5073123026482
 20
45.63127818626344
 30
0.0
 10
245.719960342209
 20
45.35897298135105
 30
0.0
 10
245.9183719615418
 20
45.23067949248233
 30
0.0
 10
245.9866074398592
 20
45.18655824793318
 30
0.0
  0
LINE
  5
1DC
330
1F
100
AcDbEntity
  8
0
  6
Continuous
 62
     7
370
    25
100
AcDbLine
 10
245.9866074399
 20
45.1865582479
 30
0.0
 11
248.7274275352
 21
43.6043164858
 31
0.0
  0
LINE
  5
1DD
330
1F
100
AcDbEntity
  8
0
  6
Continuous
 62
     7
370
    25
100
AcDbLine
 10
241.3978147314
 20
39.4492708865
 30
0.0
 11
244.1386348267
 21
37.8670291244
 31
0.0
  0
SPLINE
  5
1DE
330
1F
100
AcDbEntity
  8
0
  6
Continuous
 62
     7
370
    25
100
AcDbSpline
210
0.0
220
0.0
230
1.0
 70
     8
 71
     3
 72
    17
 73
    13
 74
     0
 42
0.000000001
 43
0.00000001
 40
0.0
 40
0.0
 40
0.0
 40
0.0
 40
0.0849598870998341
 40
0.2026995531655726
 40
0.3179171162448141
 40
0.4263320453702614
 40
0.5329713508880026
 40
0.6313697947822435
 40
0.7280136520145233
 40
0.8312797282097599
 40
0.9421083258356515
 40
1.0
 40
1.0
 40
1.0
 40
1.0
 10
240.2673776438361
 20
36.51424799583715
 30
0.0
 10
240.1649389432268
 20
36.58460071562628
 30
0.0
 10
239.920537972967
 20
36.75245010140151
 30
0.0
 10
239.6139789545985
 20
37.17882910531559
 30
0.0
 10
239.4187729354866
 20
37.73924688289663
 30
0.0
 10
239.4029841258495
 20
38.32950614718079
 30
0.0
 10
239.5672613700702
 20
38.85624005696094
 30
0.0
 10
239.8706451275179
 20
39.26044926455305
 30
0.0
 10
240.2624193249988
 20
39.52469195301712
 30
0.0
 10
240.7144345981724
 20
39.6378659814778
 30
0.0
 10
241.1091643682655
 20
39.59334519266226
 30
0.0
 10
241.324074343591
 20
39.48607699024742
 30
0.0
 10
241.3978147313595
 20
39.44927088653206
 30
0.0
  0
LINE
  5
1DF
330
1F
100
AcDbEntity
  8
0
  6
Continuous
 62
     7
370
    25
100
AcDbLine
 10
240.2673776438
 20
36.5142479958
 30
0.0
 11
243.0081977392
 21
34.9320062337
 31
0.0
  0
LINE
  5
1E0
330
1F
100
AcDbEntity
  8
0
  6
Continuous
 62
     7
370
    25
100
AcDbLine
 10
240.2890305873
 20
30.3935898513
 30
0.0
 11
243.0298506826
 21
28.8113480892
 31
0.0
  0
SPLINE
  5
1E1
330
1F
100
AcDbEntity
  8
0
  6
Continuous
 62
     7
370
    25
100
AcDbSpline
210
0.0
220
0.0
230
1.0
 70
     8
 71
     3
 72
    17
 73
    13
 74
     0
 42
0.000000001
 43
0.00000001
 40
0.0
 40
0.0
 40
0.0
 40
0.0
 40
0.0849661540309714
 40
0.2027145038353644
 40
0.3179405422822193
 40
0.4263634823425194
 40
0.5376352266184736
 40
0.6360088158613784
 40
0.7328947431846804
 40
0.8365481417481639
 40
0.9477167693335683
 40
1.0
 40
1.0
 40
1.0
 40
1.0
 10
241.4355460389444
 20
28.78374297727629
 30
0.0
 10
241.3256728615391
 20
28.84840843925918
 30
0.0
 10
241.0635345207309
 20
29.00268901357311
 30
0.0
 10
240.5921027419526
 20
29.30476539829144
 30
0.0
 10
240.1037820554792
 20
29.65604359449254
 30
0.0
 10
239.70703109076
 20
30.003898756616
 30
0.0
 10
239.4753636510131
 20
30.29929094874186
 30
0.0
 10
239.4220023268449
 20
30.50931318327164
 30
0.0
 10
239.5166008246235
 20
30.62319180931994
 30
0.0
 10
239.7453728718914
 20
30.63060852186037
 30
0.0
 10
240.0269546449773
 20
30.53701330931894
 30
0.0
 10
240.2255166868953
 20
30.42834841456266
 30
0.0
 10
240.2890305872586
 20
30.39358985128508
 30
0.0
  0
LINE
  5
1E2
330
1F
100
AcDbEntity
  8
0
  6
Continuous
 62
     7
370
    25
100
AcDbLine
 10
241.4355460389
 20
28.7837429773
 30
0.0
 11
244.1763661343
 21
27.2015012152
 31
0.0
  0
LINE
  5
1E3
330
1F
100
AcDbEntity
  8
0
  6
Continuous
 62
     7
370
    25
100
AcDbLine
 10
255.5710695597
 20
43.6234034543
 30
0.0
 11
256.7613413427
 21
42.9362741799
 31
0.0
  0
LWPOLYLINE
  5
1E4
330
1F
100
AcDbEntity
  8
0
  6
Continuous
 62
     7
370
    25
100
AcDbPolyline
 90
       22
 70
   128
 43
0.0
 10
236.9299708834
 20
34.8130199374
 10
236.9745945178
 20
35.8093436039
 10
237.1147354233
 20
36.8486078437
 10
237.3485674559
 20
37.9172645936
 10
237.6730408961
 20
39.0013817943
 10
238.083926571
 20
40.0868268298
 10
238.5758678795
 20
41.1594485587
 10
239.142451586
 20
42.2052643814
 10
239.7762914553
 20
43.2106406516
 10
240.4691240709
 20
44.1624700458
 10
241.2119174949
 20
45.0483441782
 10
241.9949884888
 20
45.856714047
 10
242.8081282957
 20
46.5770428757
 10
243.6407365304
 20
47.1999381601
 10
244.4819587124
 20
47.7172804938
 10
245.3208283265
 20
48.1223253505
 10
246.1464094386
 20
48.4097922585
 10
246.9479392704
 20
48.5759334188
 10
247.7149684494
 20
48.6185834908
 10
248.4374981296
 20
48.5371862787
 10
249.1061088196
 20
48.3328029416
 10
249.5135740143
 20
48.1317747459
  0
LWPOLYLINE
  5
1E5
330
1F
100
AcDbEntity
  8
0
  6
Continuous
 62
     7
370
    25
100
AcDbPolyline
 90
        8
 70
   128
 43
0.0
 10
239.0894209724
 20
30.074656194
 10
238.6139152884
 20
30.4045441767
 10
238.1164224497
 20
30.9013198953
 10
237.6995604834
 20
31.5050190166
 10
237.3687656745
 20
32.2077730912
 10
237.1283495139
 20
33.0004196578
 10
236.9814460149
 20
33.8726253475
 10
236.9299708834
 20
34.8130199374
  0
LWPOLYLINE
  5
1E6
330
1F
100
AcDbEntity
  8
0
  6
Continuous
 62
     7
370
    25
100
AcDbPolyline
 90
       40
 70
   128
 43
0.0
 10
247.3951193087
 20
33.034215094
 10
247.4405473553
 20
33.7450425055
 10
247.5804870754
 20
34.4931500481
 10
247.8113138402
 20
35.2591617658
 10
248.1270500411
 20
36.0232389786
 10
248.5195175431
 20
36.7655920724
 10
248.9785522058
 20
37.4669947424
 10
249.4922649958
 20
38.1092806457
 10
250.0473510091
 20
38.6758153348
 10
250.629433931
 20
39.1519257199
 10
251.2234380418
 20
39.5252806049
 10
251.8139789698
 20
39.7862105613
 10
252.3857620499
 20
39.9279572875
 10
252.9239782932
 20
39.9468501058
 10
253.4146882881
 20
39.8423994452
 10
253.8451827842
 20
39.6173103241
 10
254.2043124584
 20
39.2774128319
 10
254.4827756987
 20
38.8315098191
 10
254.6733607842
 20
38.2911500666
 10
254.7711312653
 20
37.6703285749
 10
254.7735553677
 20
36.9851244048
 10
254.6805702002
 20
36.2532839383
 10
254.494583731
 20
35.4937612254
 10
254.2204132131
 20
34.7262279912
 10
253.8651594026
 20
33.9705623543
 10
253.4380231542
 20
33.2463360553
 10
252.9500671924
 20
32.5723062992
 10
252.4139292332
 20
31.965929419
 10
251.843495017
 20
31.4429109025
 10
251.2535384237
 20
31.0167966829
 10
250.6593390957
 20
30.6986223582
 10
250.0762864669
 20
30.4966290881
 10
249.5194813232
 20
30.4160480287
 10
249.0033444309
 20
30.458966034
 10
248.5412437496
 20
30.6242720492
 10
248.1451471734
 20
30.9076844007
 10
247.8253135086
 20
31.3018628985
 10
247.5900264219
 20
31.7965984066
 10
247.4453797549
 20
32.3790779318
 10
247.3951193087
 20
33.034215094
  0
LINE
  5
1E7
330
1F
100
AcDbEntity
  8
0
  6
Continuous
 62
     7
370
    25
100
AcDbLine
 10
241.4437752111
 20
39.2809111165
 30
0.0
 11
244.2657543317
 21
37.6518172465
 31
0.0
  0
LINE
  5
1E8
330
1F
100
AcDbEntity
  8
0
  6
Continuous
 62
     7
370
    25
100
AcDbLine
 10
241.1890172682
 20
36.892523173
 30
0.0
 11
244.4525399446
 21
35.0085316338
 31
0.0
  0
LWPOLYLINE
  5
1E9
330
1F
100
AcDbEntity
  8
0
  6
Continuous
 62
     7
370
    25
100
AcDbPolyline
 90
       10
 70
   128
 43
0.0
 10
241.1890172682
 20
36.892523173
 10
240.940439107
 20
37.1117105881
 10
240.7695389046
 20
37.4282973483
 10
240.696932397
 20
37.804098587
 10
240.7313722991
 20
38.1937889754
 10
240.8687084635
 20
38.5503639826
 10
241.0923768495
 20
38.8308147124
 10
241.3753949129
 20
39.001318066
 10
241.6836312796
 20
39.0413059327
 10
241.9799061732
 20
38.9459559942
  0
LINE
  5
1EA
330
1F
100
AcDbEntity
  8
0
  6
Continuous
 62
     7
370
    25
100
AcDbLine
 10
241.9799061732
 20
38.9459559942
 30
0.0
 11
245.2434288497
 21
37.061964455
 31
0.0
  0
ARC
  5
1EB
330
1F
100
AcDbEntity
  8
0
  6
Continuous
 62
     7
370
    25
100
AcDbCircle
 10
246.6786202134
 20
38.8543232305
 30
0.0
 40
7.212316292949921
100
AcDbArc
 50
342.1859423696
 51
5.5041546543
  0
ARC
  5
1EC
330
1F
100
AcDbEntity
  8
0
  6
Continuous
 62
     7
370
    25
100
AcDbCircle
 10
245.5574233687
 20
37.4168702441
 30
0.0
 40
7.499332501319791
100
AcDbArc
 50
294.7477640413
 51
321.2079336517
  0
ARC
  5
1ED
330
1F
100
AcDbEntity
  8
0
  6
Continuous
 62
     7
370
    25
100
AcDbCircle
 10
243.0153967568
 20
39.8406855966
 30
0.0
 40
11.00315986705367
100
AcDbArc
 50
319.6632231663
 51
343.131694783
  0
LWPOLYLINE
  5
1EE
330
1F
100
AcDbEntity
  8
0
  6
Continuous
 62
     7
370
    25
100
AcDbPolyline
 90
       21
 70
   128
 43
0.0
 10
253.5900718615
 20
39.7688681948
 10
253.6259085365
 20
39.7438946529
 10
253.9850382107
 20
39.4039971607
 10
254.263501451
 20
38.9580941479
 10
254.4540865365
 20
38.4177343954
 10
254.5518570176
 20
37.7969129037
 10
254.5542811199
 20
37.1117087336
 10
254.4612959525
 20
36.3798682671
 10
254.2753094833
 20
35.6203455542
 10
254.0011389654
 20
34.8528123199
 10
253.6458851549
 20
34.0971466831
 10
253.2187489065
 20
33.3729203841
 10
252.7307929447
 20
32.698890628
 10
252.1946549855
 20
32.0925137478
 10
251.6242207692
 20
31.5694952313
 10
251.034264176
 20
31.1433810117
 10
250.440064848
 20
30.825206687
 10
249.8570122192
 20
30.6232134169
 10
249.3002070754
 20
30.5426323575
 10
248.7840701831
 20
30.5855503628
 10
248.3700985687
 20
30.7266294077
  0
ARC
  5
1EF
330
1F
100
AcDbEntity
  8
0
  6
Continuous
 62
     7
370
    25
100
AcDbCircle
 10
240.2184061139
 20
41.4603343022
 30
0.0
 40
12.83355415832747
100
AcDbArc
 50
306.7939045654
 51
353.2114701076
  0
LINE
  5
1F0
330
1F
100
AcDbEntity
  8
0
  6
Continuous
 62
     7
370
    25
100
AcDbLine
 10
240.4361500889
 20
36.6647519103
 30
0.0
 11
243.2581292094
 21
35.0356580402
 31
0.0
  0
LINE
  5
1F1
330
1F
100
AcDbEntity
  8
0
  6
Continuous
 62
     7
370
    25
100
AcDbLine
 10
241.0442882831
 20
36.7634599648
 30
0.0
 11
244.2391247674
 21
34.9191201203
 31
0.0
  0
ARC
  5
1F2
330
1F
100
AcDbEntity
  8
0
  6
Continuous
 62
     7
370
    25
100
AcDbCircle
 10
252.2119792358
 20
34.5383469203
 30
0.0
 40
15.29388523571574
100
AcDbArc
 50
122.3982366753
 51
177.7420103683
  0
LWPOLYLINE
  5
1F3
330
1F
100
AcDbEntity
  8
0
  6
Continuous
 62
     7
370
    25
100
AcDbPolyline
 90
       11
 70
   128
 43
0.0
 10
240.4361500889
 20
36.6647519103
 10
240.1472169787
 20
36.9098059542
 10
239.9358834607
 20
37.2589166072
 10
239.8228370519
 20
37.6779096414
 10
239.8191419587
 20
38.1257723863
 10
239.925161039
 20
38.5586637285
 10
240.1305156315
 20
38.9342102803
 10
240.4151043235
 20
39.2156495781
 10
240.7510693653
 20
39.3754341995
 10
241.1055256784
 20
39.3979215254
 10
241.4437752111
 20
39.2809111165
  0
SPLINE
  5
1F4
330
1F
100
AcDbEntity
  8
0
  6
Continuous
 62
     7
370
    25
100
AcDbSpline
210
0.0
220
0.0
230
1.0
 70
     8
 71
     3
 72
    34
 73
    30
 74
     0
 42
0.000000001
 43
0.00000001
 40
0.0
 40
0.0
 40
0.0
 40
0.0
 40
0.1111471478039862
 40
0.2588733609891989
 40
0.4108320514249137
 40
0.5170067824889415
 40
0.5492890008670285
 40
0.6638162852376004
 40
0.7257325146133546
 40
0.7520392067974419
 40
0.7639589150969599
 40
0.7698378660189994
 40
0.771797937096822
 40
0.7731309794953526
 40
0.774033458937344
 40
0.7746466578682606
 40
0.7750662561108924
 40
0.7754438896203775
 40
0.7756659665489082
 40
0.7758000599703431
 40
0.7759004668582524
 40
0.776001511821458
 40
0.7761125056282983
 40
0.7762960517443434
 40
0.7768502058553916
 40
0.7793646347538282
 40
0.7893386469391132
 40
0.8291708977975708
 40
0.9999999999999999
 40
0.9999999999999999
 40
0.9999999999999999
 40
0.9999999999999999
 10
253.5020208387638
 20
39.7485866562466
 30
0.0
 10
253.542285266544
 20
39.56882189372899
 30
0.0
 10
253.6360653405602
 20
39.15013091353015
 30
0.0
 10
253.614291630254
 20
38.36726247300531
 30
0.0
 10
253.6881200552063
 20
37.59035432747221
 30
0.0
 10
253.2576429646044
 20
36.91200873749698
 30
0.0
 10
253.7315535822263
 20
36.52373271739947
 30
0.0
 10
253.1714000927374
 20
36.14181639218273
 30
0.0
 10
253.1079580800326
 20
35.70259850295372
 30
0.0
 10
253.0259254451402
 20
35.49179853482489
 30
0.0
 10
252.9934282270601
 20
35.39801982867953
 30
0.0
 10
252.9794332869415
 20
35.35564616012238
 30
0.0
 10
252.9735912908429
 20
35.33574239181846
 30
0.0
 10
252.9711755910733
 20
35.32655803405768
 30
0.0
 10
252.9697562509671
 20
35.32026591733001
 30
0.0
 10
252.968995448478
 20
35.31595289868334
 30
0.0
 10
252.968622775318
 20
35.31279187632829
 30
0.0
 10
252.968552324515
 20
35.31050210570242
 30
0.0
 10
252.9687533925944
 20
35.30889432379654
 30
0.0
 10
252.9690850947752
 20
35.30798398679716
 30
0.0
 10
252.9694985999953
 20
35.3074569174063
 30
0.0
 10
252.9700248564176
 20
35.30719129402043
 30
0.0
 10
252.9707667667967
 20
35.30719528856949
 30
0.0
 10
252.9723125560551
 20
35.3078380153778
 30
0.0
 10
252.9774232418673
 20
35.31245728006085
 30
0.0
 10
252.9937482413339
 20
35.33599726817213
 30
0.0
 10
253.0510137519791
 20
35.43648368372937
 30
0.0
 10
253.2688713101743
 20
35.87539217998646
 30
0.0
 10
253.4214271244386
 20
36.30195760343796
 30
0.0
 10
253.5451373940627
 20
36.64786722216977
 30
0.0
  0
LINE
  5
1F5
330
1F
100
AcDbEntity
  8
0
  6
Continuous
 62
     7
370
    25
100
AcDbLine
 10
246.1107968333
 20
45.1160059145
 30
0.0
 11
245.9866074399
 21
45.1865582479
 31
0.0
  0
LINE
  5
1F6
330
1F
100
AcDbEntity
  8
0
  6
Continuous
 62
     7
370
    25
100
AcDbLine
 10
246.1107968333
 20
45.1160059145
 30
0.0
 11
248.9327759538
 21
43.4869120444
 31
0.0
  0
LWPOLYLINE
  5
1F7
330
1F
100
AcDbEntity
  8
0
  6
Continuous
 62
     7
370
    25
100
AcDbPolyline
 90
        9
 70
   128
 43
0.0
 10
241.0442882831
 20
36.7634599648
 10
240.7626070651
 20
37.0118348065
 10
240.5689515158
 20
37.3705785385
 10
240.4866755992
 20
37.7964223036
 10
240.5257035809
 20
38.2380031248
 10
240.6813281848
 20
38.6420604793
 10
240.9347782584
 20
38.9598580618
 10
241.2554844947
 20
39.1530657521
 10
241.5839131531
 20
39.2000111275
  0
SPLINE
  5
1F8
330
1F
100
AcDbEntity
  8
0
  6
Continuous
 62
     7
370
    25
100
AcDbSpline
210
0.0
220
0.0
230
1.0
 70
     8
 71
     3
 72
     9
 73
     5
 74
     0
 42
0.000000001
 43
0.00000001
 40
0.0
 40
0.0
 40
0.0
 40
0.0
 40
0.624605021663082
 40
1.0
 40
1.0
 40
1.0
 40
1.0
 10
248.859946919905
 20
30.98845401062951
 30
0.0
 10
248.7673176856057
 20
30.93350119466039
 30
0.0
 10
248.6190171899538
 20
30.84552108873233
 30
0.0
 10
248.4731649625864
 20
30.77722448906143
 30
0.0
 10
248.4184127688535
 20
30.75158628850749
 30
0.0
  0
LINE
  5
1F9
330
1F
100
AcDbEntity
  8
0
  6
Continuous
 62
     7
370
    25
100
AcDbLine
 10
248.4459173536
 20
31.2274681917
 30
0.0
 11
248.0413893291
 21
31.0140347461
 31
0.0
  0
LINE
  5
1FA
330
1F
100
AcDbEntity
  8
0
  6
Continuous
 62
     7
370
    25
100
AcDbLine
 10
249.4196481984
 20
42.6050270122
 30
0.0
 11
249.5956244618
 21
42.5034380777
 31
0.0
  0
ARC
  5
1FB
330
1F
100
AcDbEntity
  8
0
  6
Continuous
 62
     7
370
    25
100
AcDbCircle
 10
247.1443849042
 20
44.0027760122
 30
0.0
 40
1.526547401701189
100
AcDbArc
 50
59.2399549648
 51
132.9609501781
  0
LINE
  5
1FC
330
1F
100
AcDbEntity
  8
0
  6
Continuous
 62
     7
370
    25
100
AcDbLine
 10
247.9251280295
 20
45.3145637778
 30
0.0
 11
251.1886507059
 21
43.4305722385
 31
0.0
  0
LINE
  5
1FD
330
1F
100
AcDbEntity
  8
0
  6
Continuous
 62
     7
370
    25
100
AcDbLine
 10
248.0307607912
 20
45.4985240504
 30
0.0
 11
251.2255972754
 21
43.654184206
 31
0.0
  0
LINE
  5
1FE
330
1F
100
AcDbEntity
  8
0
  6
Continuous
 62
     7
370
    25
100
AcDbLine
 10
248.1403791465
 20
46.2972140608
 30
0.0
 11
250.9623582671
 21
44.6681201907
 31
0.0
  0
LWPOLYLINE
  5
1FF
330
1F
100
AcDbEntity
  8
0
  6
Continuous
 62
     7
370
    25
100
AcDbPolyline
 90
       11
 70
   128
 43
0.0
 10
248.1403791465
 20
46.2972140608
 10
247.7771207276
 20
46.4493396694
 10
247.3500854011
 20
46.5287626071
 10
246.901075638
 20
46.5277065378
 10
246.474041855
 20
46.4462766787
 10
246.1107867185
 20
46.292442684
 10
245.8468664355
 20
46.0812631384
 10
245.7081171169
 20
45.8334102241
 10
245.7081188456
 20
45.5731453856
 10
245.8468732679
 20
45.3259447586
 10
246.1107968333
 20
45.1160059145
  0
ARC
  5
200
330
1F
100
AcDbEntity
  8
0
  6
Continuous
 62
     7
370
    25
100
AcDbCircle
 10
247.1495625163
 20
44.0432352529
 30
0.0
 40
1.701286537911728
100
AcDbArc
 50
58.8044924016
 51
135.4309627373
  0
LINE
  5
201
330
1F
100
AcDbEntity
  8
0
  6
Continuous
 62
     7
370
    25
100
AcDbLine
 10
243.7075647627
 20
28.9821395042
 30
0.0
 11
245.2752141589
 21
28.0771547709
 31
0.0
  0
SPLINE
  5
202
330
1F
100
AcDbEntity
  8
0
  6
Continuous
 62
     7
370
    25
100
AcDbSpline
210
0.0
220
0.0
230
1.0
 70
     8
 71
     3
 72
    31
 73
    27
 74
     0
 42
0.000000001
 43
0.00000001
 40
0.0
 40
0.0
 40
0.0
 40
0.0
 40
0.069088053770437
 40
0.2282965149314113
 40
0.2463917488657824
 40
0.2551962948904352
 40
0.2595962779977699
 40
0.2610930392709417
 40
0.2621066798361153
 40
0.2627957220159641
 40
0.263268019503513
 40
0.2637107679334675
 40
0.2639336163241628
 40
0.2640986067665562
 40
0.2642129117393321
 40
0.2643276880298912
 40
0.2644619057390568
 40
0.2646888629419338
 40
0.2653923670223399
 40
0.2686227438184964
 40
0.2814411260489558
 40
0.3326425004568624
 40
0.5265180526317308
 40
0.7045379984072476
 40
0.8825558603614183
 40
1.0
 40
1.0
 40
1.0
 40
1.0
 10
251.4025885205767
 20
32.71856924136512
 30
0.0
 10
251.4817027278192
 20
32.81841218099566
 30
0.0
 10
251.7431299472779
 20
33.14833600883857
 30
0.0
 10
252.0055693134235
 20
33.53629929496785
 30
0.0
 10
252.1812601550043
 20
33.84360278360074
 30
0.0
 10
252.2091106820978
 20
33.89617117809073
 30
0.0
 10
252.2212298326666
 20
33.92127205805289
 30
0.0
 10
252.2263238471545
 20
33.9332667313707
 30
0.0
 10
252.2284401146716
 20
33.93888267238972
 30
0.0
 10
252.2296749035484
 20
33.94274220703283
 30
0.0
 10
252.2303808515773
 20
33.94560917895544
 30
0.0
 10
252.2306799523822
 20
33.94765585312006
 30
0.0
 10
252.2306153849857
 20
33.94910715090487
 30
0.0
 10
252.2303667236222
 20
33.94991285916358
 30
0.0
 10
252.2299657740886
 20
33.95040174075199
 30
0.0
 10
252.2294313028904
 20
33.95064476426008
 30
0.0
 10
252.2286191166447
 20
33.9506455882371
 30
0.0
 10
252.2267885606105
 20
33.95001949580494
 30
0.0
 10
252.2203448273497
 20
33.9453507943851
 30
0.0
 10
252.1984821366073
 20
33.92162729978603
 30
0.0
 10
252.1181737991234
 20
33.82051706861921
 30
0.0
 10
251.8194768570217
 20
33.42643252873693
 30
0.0
 10
251.2973865708069
 20
32.81153973563895
 30
0.0
 10
250.5669432887796
 20
32.11695338087495
 30
0.0
 10
249.913077465349
 20
31.60919943766023
 30
0.0
 10
249.503557101201
 20
31.3652590204645
 30
0.0
 10
249.3407755368287
 20
31.26829436082575
 30
0.0
  0
LWPOLYLINE
  5
203
330
1F
100
AcDbEntity
  8
0
  6
Continuous
 62
     7
370
    25
100
AcDbPolyline
 90
       13
 70
   128
 43
0.0
 10
253.119429858
 20
39.9211282845
 10
253.198571432
 20
39.3334946541
 10
253.2011930977
 20
38.5923987838
 10
253.1079389148
 20
37.8037981053
 10
252.9208918597
 20
36.9853084389
 10
252.6442303972
 20
36.1552136772
 10
252.2841346382
 20
35.3320566526
 10
251.848648704
 20
34.5342257438
 10
251.3475002847
 20
33.7795426264
 10
250.7918843076
 20
33.0848659024
 10
250.1942123613
 20
32.4657131735
 10
249.5678355299
 20
31.9359158643
 10
248.9267459705
 20
31.5073085419
  0
LINE
  5
204
330
1F
100
AcDbEntity
  8
0
  6
Continuous
 62
     7
370
    25
100
AcDbLine
 10
241.4801288436
 20
29.0047985122
 30
0.0
 11
244.3021079641
 21
27.3757046422
 31
0.0
  0
LINE
  5
205
330
1F
100
AcDbEntity
  8
0
  6
Continuous
 62
     7
370
    25
100
AcDbLine
 10
243.4912783314
 20
28.8953640322
 30
0.0
 11
245.1682961653
 21
27.9272422438
 31
0.0
  0
LWPOLYLINE
  5
206
330
1F
100
AcDbEntity
  8
0
  6
Continuous
 62
     7
370
    25
100
AcDbPolyline
 90
        9
 70
   128
 43
0.0
 10
241.4801288436
 20
29.0047985122
 10
241.1415289652
 20
29.2209466988
 10
240.7860545423
 20
29.4861680556
 10
240.4485043839
 20
29.7745007904
 10
240.1619176678
 20
30.0577221071
 10
239.9543490487
 20
30.3081066851
 10
239.8461152832
 20
30.5011464727
 10
239.8478130109
 20
30.6179443421
 10
239.8561831116
 20
30.6268030646
  0
SPLINE
  5
207
330
1F
100
AcDbEntity
  8
0
  6
Continuous
 62
     7
370
    25
100
AcDbSpline
210
0.0
220
0.0
230
1.0
 70
     8
 71
     3
 72
     9
 73
     5
 74
     0
 42
0.000000001
 43
0.00000001
 40
0.0
 40
0.0
 40
0.0
 40
0.0
 40
0.4999999839513282
 40
1.0
 40
1.0
 40
1.0
 40
1.0
 10
249.3407755368287
 20
31.26829436082575
 30
0.0
 10
249.2596417173059
 20
31.22222912044076
 30
0.0
 10
249.0973740730518
 20
31.13009863671365
 30
0.0
 10
248.9390893059808
 20
31.0356688870012
 30
0.0
 10
248.859946919905
 20
30.98845401062951
 30
0.0
  0
LINE
  5
208
330
1F
100
AcDbEntity
  8
0
  6
Continuous
 62
     7
370
    25
100
AcDbLine
 10
256.2249495969
 20
42.143981876
 30
0.0
 11
256.4398800851
 21
42.0199051462
 31
0.0
  0
LINE
  5
209
330
1F
100
AcDbEntity
  8
0
  6
Continuous
 62
     7
370
    25
100
AcDbLine
 10
255.5545973859
 20
43.489109288
 30
0.0
 11
256.6733591379
 21
42.8432618758
 31
0.0
  0
LINE
  5
20A
330
1F
100
AcDbEntity
  8
0
  6
Continuous
 62
     7
370
    25
100
AcDbLine
 10
248.9267459705
 20
31.5073085419
 30
0.0
 11
248.4459173536
 21
31.2274681917
 31
0.0
  0
LINE
  5
20B
330
1F
100
AcDbEntity
  8
0
  6
Continuous
 62
     7
370
    25
100
AcDbLine
 10
250.7320519171
 20
28.3336586983
 30
0.0
 11
251.0207341218
 21
28.1670060088
 31
0.0
  0
LINE
  5
20C
330
1F
100
AcDbEntity
  8
0
  6
Continuous
 62
     7
370
    25
100
AcDbLine
 10
255.5870432153
 20
34.060240912
 30
0.0
 11
255.687755744
 21
34.0021008068
 31
0.0
  0
ARC
  5
20D
330
1F
100
AcDbEntity
  8
0
  6
Continuous
 62
     7
370
    25
100
AcDbCircle
 10
240.219523471
 20
41.4596887859
 30
0.0
 40
12.07370455429468
100
AcDbArc
 50
307.4624711711
 51
352.5429059791
  0
LINE
  5
20E
330
1F
100
AcDbEntity
  8
0
  6
Continuous
 62
     7
370
    25
100
AcDbLine
 10
234.9775816757
 20
32.3631707381
 30
0.0
 11
235.0567716528
 21
32.3160549127
 31
0.0
  0
LINE
  5
20F
330
1F
100
AcDbEntity
  8
0
  6
Continuous
 62
     7
370
    25
100
AcDbLine
 10
245.6278252302
 20
50.4604169037
 30
0.0
 11
245.5559184261
 21
50.5030808663
 31
0.0
  0
ARC
  5
210
330
1F
100
AcDbEntity
  8
0
  6
Continuous
 62
     7
370
    25
100
AcDbCircle
 10
209.4998798433
 20
47.2446193713
 30
0.0
 40
5.386664939909866
100
AcDbArc
 50
220.6505974364
 51
259.3680023668
  0
ARC
  5
211
330
1F
100
AcDbEntity
  8
0
  6
Continuous
 62
     7
370
    25
100
AcDbCircle
 10
219.8496969572
 20
65.1727305192
 30
0.0
 40
5.382877532672689
100
AcDbArc
 50
40.492819469
 51
79.2929753141
  0
LWPOLYLINE
  5
212
330
1F
100
AcDbEntity
  8
0
  6
Continuous
 62
     7
370
    25
100
AcDbPolyline
 90
       20
 70
   128
 43
0.0
 10
205.4742006256
 20
43.3461290485
 10
205.4328255913
 20
43.3702677416
 10
204.7177964038
 20
43.8761917084
 10
204.0824570286
 20
44.5031529772
 10
203.5326764145
 20
45.2453562701
 10
203.0735352323
 20
46.0959447769
 10
202.7092758256
 20
47.0470590958
 10
202.4432633571
 20
48.0899110018
 10
202.2779561732
 20
49.2148648192
 10
202.2148820974
 20
50.4115264098
 10
202.2546226242
 20
51.6688380776
 10
202.3968116031
 20
52.9751831566
 10
202.6401352378
 20
54.3184912158
 10
202.9823445986
 20
55.6863500958
 10
203.420278672
 20
57.0661213903
 10
203.9498900435
 20
58.4450559383
 10
204.5662857274
 20
59.8104126432
 10
205.2637706307
 20
61.14957596
 10
206.0358995783
 20
62.4501726217
 10
206.8755378991
 20
63.7001841816
  0
SPLINE
  5
213
330
1F
100
AcDbEntity
  8
0
  6
Continuous
 62
     7
370
    25
100
AcDbSpline
210
0.0
220
0.0
230
1.0
 70
     8
 71
     3
 72
    25
 73
    21
 74
     0
 42
0.000000001
 43
0.00000001
 40
0.0
 40
0.0
 40
0.0
 40
0.0
 40
0.1249999999999998
 40
0.1249999999999998
 40
0.2499999999999997
 40
0.2499999999999997
 40
0.3749999999999995
 40
0.3749999999999995
 40
0.4999999999999993
 40
0.4999999999999993
 40
0.5624999999999996
 40
0.5624999999999996
 40
0.6249999999999998
 40
0.6875000000000001
 40
0.6875000000000001
 40
0.7500000000000003
 40
0.7500000000000003
 40
0.8750000000000001
 40
0.8750000000000001
 40
1.0
 40
1.0
 40
1.0
 40
1.0
 10
208.7327725820299
 20
66.01056667710643
 30
0.0
 10
208.761895880291
 20
65.89938115657725
 30
0.0
 10
208.7742849211502
 20
65.7841389441492
 30
0.0
 10
208.7673074360499
 20
65.5450433763134
 30
0.0
 10
208.7472898481979
 20
65.42026940643815
 30
0.0
 10
208.6770676904847
 20
65.17390049722573
 30
0.0
 10
208.626417035891
 20
65.04968934986461
 30
0.0
 10
208.4965022922358
 20
64.80606085455445
 30
0.0
 10
208.4188013442466
 20
64.68900375949627
 30
0.0
 10
208.2834277620204
 20
64.52034724164623
 30
0.0
 10
208.2347932647133
 20
64.46498022037409
 30
0.0
 10
208.1333539293313
 20
64.35926040897706
 30
0.0
 10
208.0274839465906
 20
64.25809945035662
 30
0.0
 10
207.9128921542631
 20
64.16592512867982
 30
0.0
 10
207.7938094850449
 20
64.0783882859397
 30
0.0
 10
207.7318514719875
 20
64.03688981642752
 30
0.0
 10
207.5439877684669
 20
63.92276949468942
 30
0.0
 10
207.4146103321129
 20
63.85916206357481
 30
0.0
 10
207.1469270790508
 20
63.75789376260059
 30
0.0
 10
207.0110553925858
 20
63.72135285437579
 30
0.0
 10
206.8755381258581
 20
63.70018467002572
 30
0.0
  0
LWPOLYLINE
  5
214
330
1F
100
AcDbEntity
  8
0
  6
Continuous
 62
     7
370
    25
100
AcDbPolyline
 90
       14
 70
   128
 43
0.0
 10
208.7327726937
 20
66.0105667096
 10
209.7347590286
 20
67.0492940872
 10
210.7706218808
 20
67.9934248774
 10
211.8306342186
 20
68.8340935659
 10
212.9048417715
 20
69.5634053669
 10
213.9831573661
 20
70.1745104544
 10
215.0554552222
 20
70.6616728464
 10
216.1116657826
 20
71.0203160241
 10
217.1418707496
 20
71.2470724715
 10
218.1363964337
 20
71.3398132299
 10
219.0859033568
 20
71.297667685
 10
219.9814751553
 20
71.1210300232
 10
220.8147018868
 20
70.8115609337
 10
221.2104219402
 20
70.6050174423
  0
LWPOLYLINE
  5
215
330
1F
100
AcDbEntity
  8
0
  6
Continuous
 62
     7
370
    25
100
AcDbPolyline
 90
       12
 70
   128
 43
0.0
 10
207.0701513013
 20
66.1348431902
 10
207.9857303406
 20
67.1093250747
 10
208.934443059
 20
67.9983002544
 10
209.9073460927
 20
68.7933898378
 10
210.8952681807
 20
69.4870985889
 10
211.888896351
 20
70.0728874956
 10
212.8788640428
 20
70.5452330068
 10
213.8558388572
 20
70.899683773
 10
214.8106113375
 20
71.1328982101
 10
215.7341811559
 20
71.2426775237
 10
216.6178418599
 20
71.2279872556
 10
216.8707018775
 20
71.1997298232
  0
SPLINE
  5
216
330
1F
100
AcDbEntity
  8
0
  6
Continuous
 62
     7
370
    25
100
AcDbSpline
210
0.0
220
0.0
230
1.0
 70
     8
 71
     3
 72
    26
 73
    22
 74
     0
 42
0.000000001
 43
0.00000001
 40
0.0
 40
0.0
 40
0.0
 40
0.0
 40
0.1250000000000009
 40
0.1250000000000009
 40
0.2500000000000019
 40
0.2500000000000019
 40
0.3125000000000011
 40
0.3125000000000011
 40
0.3750000000000004
 40
0.3750000000000004
 40
0.4375000000000002
 40
0.4375000000000002
 40
0.5000000000000001
 40
0.5000000000000001
 40
0.5625
 40
0.5625
 40
0.6249999999999999
 40
0.6249999999999999
 40
0.7500000000000001
 40
0.7500000000000001
 40
1.0
 40
1.0
 40
1.0
 40
1.0
 10
205.7259580964024
 20
64.46267990398124
 30
0.0
 10
205.7023205001703
 20
64.57225576355424
 30
0.0
 10
205.6847527212886
 20
64.68314502191878
 30
0.0
 10
205.6659401384191
 20
64.90847498178171
 30
0.0
 10
205.6647603636517
 20
65.02415189510008
 30
0.0
 10
205.6808583668871
 20
65.19550740495964
 30
0.0
 10
205.6891770839874
 20
65.2523059170538
 30
0.0
 10
205.7129342332443
 20
65.36513212945088
 30
0.0
 10
205.7285566122933
 20
65.42158498311704
 30
0.0
 10
205.7674138246904
 20
65.53016809952564
 30
0.0
 10
205.7906397813928
 20
65.58254805975119
 30
0.0
 10
205.8456384308712
 20
65.6830048350233
 30
0.0
 10
205.8777166978938
 20
65.73128370279474
 30
0.0
 10
205.9481314464289
 20
65.81898067837848
 30
0.0
 10
205.9867098685556
 20
65.85896980635445
 30
0.0
 10
206.0704181321518
 20
65.93144849047003
 30
0.0
 10
206.1155468420937
 20
65.96378511484666
 30
0.0
 10
206.2548274842838
 20
66.04698488220029
 30
0.0
 10
206.3556165558454
 20
66.0858136048364
 30
0.0
 10
206.6586888270781
 20
66.16122989229156
 30
0.0
 10
206.8672129175631
 20
66.1610997459208
 30
0.0
 10
207.0701513372535
 20
66.13484351659459
 30
0.0
  0
LWPOLYLINE
  5
217
330
1F
100
AcDbEntity
  8
0
  6
Continuous
 62
     7
370
    25
100
AcDbPolyline
 90
       17
 70
   128
 43
0.0
 10
202.7889794674
 20
46.8068286139
 10
202.7285553747
 20
46.8865604527
 10
202.242397404
 20
47.6564869143
 10
201.8502881501
 20
48.5318807541
 10
201.5562104903
 20
49.5038500759
 10
201.3631522409
 20
50.5625207494
 10
201.2730738889
 20
51.6971382195
 10
201.2868908112
 20
52.8961767295
 10
201.4044627379
 20
54.1474560536
 10
201.6245950691
 20
55.4382648814
 10
201.9450520463
 20
56.7554909513
 10
202.3625778254
 20
58.0857534638
 10
202.8729313799
 20
59.4155384405
 10
203.4709279887
 20
60.7313378855
 10
204.1504932374
 20
62.0197849519
 10
204.9047242624
 20
63.2677919608
 10
205.7259582398
 20
64.4626796729
  0
LINE
  5
218
330
1F
100
AcDbEntity
  8
0
  6
Continuous
 62
     7
370
    25
100
AcDbLine
 10
204.2505658254
 20
44.2187587289
 30
0.0
 11
204.3722011363
 21
44.2762433354
 31
0.0
  0
LWPOLYLINE
  5
219
330
1F
100
AcDbEntity
  8
0
  6
Continuous
 62
     7
370
    25
100
AcDbPolyline
 90
       38
 70
   128
 43
0.0
 10
204.2505658254
 20
44.2187587289
 10
203.4468879861
 20
44.5318486513
 10
202.7100873171
 20
44.9674181553
 10
202.0467011899
 20
45.5216030955
 10
201.4626150167
 20
46.1894861469
 10
200.9630122014
 20
46.965142437
 10
200.5523240899
 20
47.8416897411
 10
200.234195726
 20
48.8113516038
 10
200.0114483146
 20
49.8655238833
 10
199.8860581475
 20
50.9948539363
 10
199.8591394822
 20
52.1893228924
 10
199.9309287361
 20
53.4383317302
 10
200.1007910723
 20
54.7308000423
 10
200.3672184239
 20
56.0552603324
 10
200.7278472747
 20
57.3999610088
 10
201.1794770982
 20
58.7529718499
 10
201.7181019684
 20
60.1022885644
 10
202.3389428277
 20
61.4359396333
 10
203.0364916098
 20
62.7420931513
 10
203.8045586549
 20
64.0091591038
 10
204.6363293444
 20
65.2258969679
 10
205.5244253457
 20
66.3815103838
 10
206.4609658567
 20
67.4657471501
 10
207.4376423505
 20
68.4689880006
 10
208.4457892046
 20
69.3823307242
 10
209.4764617382
 20
70.1976724777
 10
210.5205156493
 20
70.9077792176
 10
211.5686877685
 20
71.5063513305
 10
212.6116783772
 20
71.9880764775
 10
213.6402336902
 20
72.3486825334
 10
214.6452282564
 20
72.5849684255
 10
215.6177450539
 20
72.6948389646
 10
216.5491558324
 20
72.6773192864
 10
217.4311971755
 20
72.5325637799
 10
218.256042611
 20
72.2618581716
 10
219.0163750508
 20
71.8676027888
 10
219.705447048
 20
71.3532971542
 10
219.9428260014
 20
71.1317482377
  0
LWPOLYLINE
  5
21A
330
1F
100
AcDbEntity
  8
0
  6
Continuous
 62
     7
370
    25
100
AcDbPolyline
 90
       16
 70
   128
 43
0.0
 10
198.0341189922
 20
56.9892889938
 10
198.0434321286
 20
57.032091154
 10
198.3797218329
 20
58.3665643675
 10
198.8070059246
 20
59.7121922576
 10
199.3215287243
 20
61.0571492185
 10
199.9187686655
 20
62.3896161799
 10
200.5934778069
 20
63.6978836464
 10
201.3397259554
 20
64.9704535953
 10
202.1509559832
 20
66.1961428943
 10
203.0200378289
 20
67.364180636
 10
203.9393346812
 20
68.4643018581
 10
204.9007671868
 20
69.4868386035
 10
205.8958865488
 20
70.4228047046
 10
206.9159479548
 20
71.2639746746
 10
207.9519863914
 20
72.0029563723
 10
208.6758430696
 20
72.4524256501
  0
LWPOLYLINE
  5
21B
330
1F
100
AcDbEntity
  8
0
  6
Continuous
 62
     7
370
    25
100
AcDbPolyline
 90
       24
 70
   128
 43
0.0
 10
197.6059332348
 20
53.293408904
 10
197.65451999
 20
54.5171335297
 10
197.7998515433
 20
55.7862000427
 10
198.0406522939
 20
57.0894566592
 10
198.3748050213
 20
58.4154501515
 10
198.7993739339
 20
59.7525276517
 10
199.3106270602
 20
61.0889388374
 10
199.9040724679
 20
62.412939161
 10
200.5744938261
 20
63.7128925088
 10
201.3160004541
 20
64.9773761403
 10
202.1220753955
 20
66.1952780226
 10
202.9856353455
 20
67.3558937843
 10
203.8990905787
 20
68.449024429
 10
204.8544140961
 20
69.4650634021
 10
205.8432104431
 20
70.3950827064
 10
206.8567897955
 20
71.2309076108
 10
207.8862450096
 20
71.9651938301
 10
208.9225291656
 20
72.5914890203
 10
209.9565354162
 20
73.1042879994
 10
210.9791766703
 20
73.4990848317
 10
211.9814662649
 20
73.7724102732
 10
212.9545955087
 20
73.9218613274
 10
213.8900132013
 20
73.9461266179
 10
214.6552639808
 20
73.8671413877
  0
LWPOLYLINE
  5
21C
330
1F
100
AcDbEntity
  8
0
  6
Continuous
 62
     7
370
    25
100
AcDbPolyline
 90
        3
 70
   128
 43
0.0
 10
197.7583250437
 20
51.2688047435
 10
197.65451999
 20
52.1257813517
 10
197.6251001727
 20
52.5529845502
  0
SPLINE
  5
21D
330
1F
100
AcDbEntity
  8
0
  6
Continuous
 62
     7
370
    25
100
AcDbSpline
210
0.0
220
0.0
230
1.0
 70
     8
 71
     3
 72
    10
 73
     6
 74
     0
 42
0.000000001
 43
0.00000001
 40
0.0
 40
0.0
 40
0.0
 40
0.0
 40
0.5
 40
0.5
 40
1.0
 40
1.0
 40
1.0
 40
1.0
 10
206.4526461640337
 20
62.99962662316153
 30
0.0
 10
206.3486816732494
 20
63.0729649962319
 30
0.0
 10
206.258873396822
 20
63.16020075402531
 30
0.0
 10
206.1068309688234
 20
63.36113129522131
 30
0.0
 10
206.0449253804624
 20
63.47530206141827
 30
0.0
 10
206.000475675872
 20
63.59831974457837
 30
0.0
  0
SPLINE
  5
21E
330
1F
100
AcDbEntity
  8
0
  6
Continuous
 62
     7
370
    25
100
AcDbSpline
210
0.0
220
0.0
230
1.0
 70
     8
 71
     3
 72
    14
 73
    10
 74
     0
 42
0.000000001
 43
0.00000001
 40
0.0
 40
0.0
 40
0.0
 40
0.0
 40
0.25
 40
0.25
 40
0.5
 40
0.5
 40
0.75
 40
0.75
 40
1.0
 40
1.0
 40
1.0
 40
1.0
 10
206.000475675872
 20
63.59831974457837
 30
0.0
 10
205.9777548730068
 20
63.66120116423592
 30
0.0
 10
205.9558403626574
 20
63.73024759370934
 30
0.0
 10
205.9137293085946
 20
63.87790011032811
 30
0.0
 10
205.8942077546815
 20
63.95429989718642
 30
0.0
 10
205.8558615125078
 20
64.108632188582
 30
0.0
 10
205.837501919624
 20
64.18558478491367
 30
0.0
 10
205.7954984750423
 20
64.33097495242964
 30
0.0
 10
205.7717221540293
 20
64.39756585862267
 30
0.0
 10
205.7432606499271
 20
64.43806147385402
 30
0.0
  0
LINE
  5
21F
330
1F
100
AcDbEntity
  8
0
  6
Continuous
 62
     7
370
    25
100
AcDbLine
 10
205.7432608382
 20
64.4380618656
 30
0.0
 11
205.7259582398
 21
64.4626796729
 31
0.0
  0
LINE
  5
220
330
1F
100
AcDbEntity
  8
0
  6
Continuous
 62
     7
370
    25
100
AcDbLine
 10
207.0701513013
 20
66.1348431902
 30
0.0
 11
207.0874538997
 21
66.1102253829
 31
0.0
  0
SPLINE
  5
221
330
1F
100
AcDbEntity
  8
0
  6
Continuous
 62
     7
370
    25
100
AcDbSpline
210
0.0
220
0.0
230
1.0
 70
     8
 71
     3
 72
    16
 73
    12
 74
     0
 42
0.000000001
 43
0.00000001
 40
0.0
 40
0.0
 40
0.0
 40
0.0
 40
0.1250000000000001
 40
0.1250000000000001
 40
0.2500000000000003
 40
0.2500000000000003
 40
0.5000000000000002
 40
0.5000000000000002
 40
0.7500000000000001
 40
0.7500000000000001
 40
1.0
 40
1.0
 40
1.0
 40
1.0
 10
207.0874538907782
 20
66.1102250864673
 30
0.0
 10
207.1016062971824
 20
66.0900887506545
 30
0.0
 10
207.1232647016561
 20
66.07329132997708
 30
0.0
 10
207.1756826306914
 20
66.04644580864559
 30
0.0
 10
207.2062755098297
 20
66.03622032408461
 30
0.0
 10
207.3053563586872
 20
66.01171988365192
 30
0.0
 10
207.3792388963031
 20
66.00345996125043
 30
0.0
 10
207.5323384886944
 20
65.9922739945455
 30
0.0
 10
207.6104224633421
 20
65.98967732279432
 30
0.0
 10
207.7697660970842
 20
65.9876483219606
 30
0.0
 10
207.8484189919158
 20
65.98828591062284
 30
0.0
 10
207.9241714597084
 20
65.99137901143789
 30
0.0
  0
SPLINE
  5
222
330
1F
100
AcDbEntity
  8
0
  6
Continuous
 62
     7
370
    25
100
AcDbSpline
210
0.0
220
0.0
230
1.0
 70
     8
 71
     3
 72
    10
 73
     6
 74
     0
 42
0.000000001
 43
0.00000001
 40
0.0
 40
0.0
 40
0.0
 40
0.0
 40
0.5
 40
0.5
 40
1.0
 40
1.0
 40
1.0
 40
1.0
 10
207.9241714597084
 20
65.99137901143789
 30
0.0
 10
208.0723657996091
 20
65.99743003587163
 30
0.0
 10
208.2145902653397
 20
65.9872678056585
 30
0.0
 10
208.4869816556805
 20
65.93621736971843
 30
0.0
 10
208.617108985549
 20
65.89485626707388
 30
0.0
 10
208.7351843277343
 20
65.8390823991216
 30
0.0
  0
ARC
  5
223
330
1F
100
AcDbEntity
  8
0
  6
Continuous
 62
     7
370
    25
100
AcDbCircle
 10
191.4052242781
 20
61.1030127047
 30
0.0
 40
4.143252031906384
100
AcDbArc
 50
211.7444095219
 51
236.2139194594
  0
SPLINE
  5
224
330
1F
100
AcDbEntity
  8
0
  6
Continuous
 62
     7
370
    25
100
AcDbSpline
210
0.0
220
0.0
230
1.0
 70
     8
 71
     3
 72
     8
 73
     4
 74
     0
 42
0.000000001
 43
0.00000001
 40
0.0
 40
0.0
 40
0.0
 40
0.0
 40
1.0
 40
1.0
 40
1.0
 40
1.0
 10
189.3122306585976
 20
57.99837797988293
 30
0.0
 10
188.8354573667734
 20
58.30647078781557
 30
0.0
 10
188.3586549899285
 20
58.61470023338833
 30
0.0
 10
187.8818225454029
 20
58.92306538960824
 30
0.0
  0
SPLINE
  5
225
330
1F
100
AcDbEntity
  8
0
  6
Continuous
 62
     7
370
    25
100
AcDbSpline
210
0.0
220
0.0
230
1.0
 70
     8
 71
     3
 72
    23
 73
    19
 74
     0
 42
0.000000001
 43
0.00000001
 40
0.0
 40
0.0
 40
0.0
 40
0.0
 40
0.0521036415683759
 40
0.1035646240941235
 40
0.1544751946756683
 40
0.2049306267495642
 40
0.2550287880866983
 40
0.3048696389163111
 40
0.354554670462894
 40
0.4041862979539558
 40
0.453867225213789
 40
0.5036997999428097
 40
0.590187023078111
 40
0.6742716378282376
 40
0.7565997087281883
 40
0.8378563983773627
 40
0.9187511781400207
 40
0.9999999999999999
 40
0.9999999999999999
 40
0.9999999999999999
 40
0.9999999999999999
 10
190.1927954621392
 20
57.82364728176282
 30
0.0
 10
190.1875265231994
 20
57.81372581952744
 30
0.0
 10
190.1770536336997
 20
57.79400526879542
 30
0.0
 10
190.1578073379378
 20
57.76943743984196
 30
0.0
 10
190.1360115976056
 20
57.74874885758186
 30
0.0
 10
190.111360306401
 20
57.73221792228438
 30
0.0
 10
190.0838637918622
 20
57.71970042270806
 30
0.0
 10
190.0534527378548
 20
57.71116579888587
 30
0.0
 10
190.0200823660819
 20
57.70655592623835
 30
0.0
 10
189.9837064778095
 20
57.70582118310274
 30
0.0
 10
189.9442781062197
 20
57.70891626565521
 30
0.0
 10
189.8914297146673
 20
57.71745204113657
 30
0.0
 10
189.8228907208939
 20
57.73504847998616
 30
0.0
 10
189.7351694889368
 20
57.76668508807377
 30
0.0
 10
189.640438569442
 20
57.80886474540701
 30
0.0
 10
189.5384043221131
 20
57.8616011811333
 30
0.0
 10
189.429490408927
 20
57.92391773704214
 30
0.0
 10
189.3513740979436
 20
57.97352179529157
 30
0.0
 10
189.3122306585976
 20
57.99837797988292
 30
0.0
  0
SPLINE
  5
226
330
1F
100
AcDbEntity
  8
0
  6
Continuous
 62
     7
370
    25
100
AcDbSpline
210
0.0
220
0.0
230
1.0
 70
     8
 71
     3
 72
     8
 73
     4
 74
     0
 42
0.000000001
 43
0.00000001
 40
0.0
 40
0.0
 40
0.0
 40
0.0
 40
1.0
 40
1.0
 40
1.0
 40
1.0
 10
191.6662984885971
 20
56.87632714520404
 30
0.0
 10
191.1749311765543
 20
57.1922017651724
 30
0.0
 10
190.6835449766267
 20
57.50818778646273
 30
0.0
 10
190.1921392664814
 20
57.82428466730627
 30
0.0
  0
SPLINE
  5
227
330
1F
100
AcDbEntity
  8
0
  6
Continuous
 62
     7
370
    25
100
AcDbSpline
210
0.0
220
0.0
230
1.0
 70
     8
 71
     3
 72
    18
 73
    14
 74
     0
 42
0.000000001
 43
0.00000001
 40
0.0
 40
0.0
 40
0.0
 40
0.0
 40
0.0923824559461122
 40
0.1844689291660427
 40
0.2764953616062392
 40
0.3686975365619641
 40
0.4613092840130473
 40
0.5545607518559533
 40
0.6486768051632873
 40
0.7438756050210469
 40
0.8403674044324065
 40
0.9203921078135461
 40
1.0
 40
1.0
 40
1.0
 40
1.0
 10
192.4798626077927
 20
56.23201942066228
 30
0.0
 10
192.4562950936684
 20
56.2472933949286
 30
0.0
 10
192.4092355730149
 20
56.27779240741059
 30
0.0
 10
192.3368377850493
 20
56.32742498002322
 30
0.0
 10
192.2633555761519
 20
56.3797545226929
 30
0.0
 10
192.1886561284061
 20
56.43507220840134
 30
0.0
 10
192.112795338638
 20
56.4933105235149
 30
0.0
 10
192.0357840578521
 20
56.5545034351519
 30
0.0
 10
191.9576519257729
 20
56.61866715173228
 30
0.0
 10
191.8784256911318
 20
56.68581611159764
 30
0.0
 10
191.8031292067242
 20
56.75166702134261
 30
0.0
 10
191.7323018986042
 20
56.81519860814999
 30
0.0
 10
191.6883975277978
 20
56.85585935316306
 30
0.0
 10
191.6665026609929
 20
56.87613664173131
 30
0.0
  0
LINE
  5
228
330
1F
100
AcDbEntity
  8
0
  6
Continuous
 62
     7
370
    25
100
AcDbLine
 10
193.1195691396
 20
55.8202656142
 30
0.0
 11
192.4798622973
 21
56.2320192818
 31
0.0
  0
SPLINE
  5
229
330
1F
100
AcDbEntity
  8
0
  6
Continuous
 62
     7
370
    25
100
AcDbSpline
210
0.0
220
0.0
230
1.0
 70
     8
 71
     3
 72
    25
 73
    21
 74
     0
 42
0.000000001
 43
0.00000001
 40
0.0
 40
0.0
 40
0.0
 40
0.0
 40
0.0280105225426455
 40
0.0559601148860774
 40
0.0839014045043129
 40
0.1118870776786379
 40
0.1399695827588941
 40
0.1682008401739877
 40
0.1966319670424218
 40
0.2253130233141493
 40
0.2542927850735863
 40
0.3799486436570518
 40
0.505785022166658
 40
0.6313085886329272
 40
0.7532068238012843
 40
0.8039473267959846
 40
0.8535894438560211
 40
0.902533972239985
 40
0.9511970353794947
 40
1.0
 40
1.0
 40
1.0
 40
1.0
 10
194.2219347327829
 20
56.53617160453936
 30
0.0
 10
194.2268828403135
 20
56.50854774343187
 30
0.0
 10
194.236768291949
 20
56.45336011032656
 30
0.0
 10
194.2483039415522
 20
56.37419940295664
 30
0.0
 10
194.257377063365
 20
56.29789606385826
 30
0.0
 10
194.2637458720779
 20
56.22470030288864
 30
0.0
 10
194.2674621108881
 20
56.15455283467526
 30
0.0
 10
194.2684987318709
 20
56.08747654816247
 30
0.0
 10
194.266850256644
 20
56.02347263893603
 30
0.0
 10
194.2625041047751
 20
55.9625437856692
 30
0.0
 10
194.2476477802076
 20
55.84065566417308
 30
0.0
 10
194.2025595231414
 20
55.68575479251904
 30
0.0
 10
194.0892000026506
 20
55.55481167417555
 30
0.0
 10
193.9273757806577
 20
55.49893527336274
 30
0.0
 10
193.7533605615242
 20
55.51880932574729
 30
0.0
 10
193.6019996408366
 20
55.56612712810375
 30
0.0
 10
193.4915994081378
 20
55.61104255183942
 30
0.0
 10
193.3744399126891
 20
55.66841828313056
 30
0.0
 10
193.2508742457557
 20
55.73709534758301
 30
0.0
 10
193.1633791956612
 20
55.79251559353584
 30
0.0
 10
193.1195688759799
 20
55.82026549126591
 30
0.0
  0
ARC
  5
22A
330
1F
100
AcDbEntity
  8
0
  6
Continuous
 62
     7
370
    25
100
AcDbCircle
 10
205.4149558972
 20
58.3222219731
 30
0.0
 40
11.33462419218121
100
AcDbArc
 50
170.9338462887
 51
189.0661537113
  0
SPLINE
  5
22B
330
1F
100
AcDbEntity
  8
0
  6
Continuous
 62
     7
370
    25
100
AcDbSpline
210
0.0
220
0.0
230
1.0
 70
     8
 71
     3
 72
    26
 73
    22
 74
     0
 42
0.000000001
 43
0.00000001
 40
0.0
 40
0.0
 40
0.0
 40
0.0
 40
0.0241259796963637
 40
0.048215991227299
 40
0.0723203915124064
 40
0.0964895678710793
 40
0.120773623196351
 40
0.1452220711242841
 40
0.1698835501657706
 40
0.1948055644472381
 40
0.2200342569517629
 40
0.2456142191611394
 40
0.3690971486901671
 40
0.4940698769485191
 40
0.6192566784762444
 40
0.7454656653603234
 40
0.7971495824713715
 40
0.8481710308405401
 40
0.8988013269235245
 40
0.9493179290492194
 40
1.0
 40
1.0
 40
1.0
 40
1.0
 10
193.1195688759799
 20
63.58437588263047
 30
0.0
 10
193.141287105356
 20
63.57004435923538
 30
0.0
 10
193.1846911855321
 20
63.54140267856634
 30
0.0
 10
193.2479983028935
 20
63.49341038063753
 30
0.0
 10
193.3098598706114
 20
63.44181118275186
 30
0.0
 10
193.370164385748
 20
63.38623638987861
 30
0.0
 10
193.4289542376878
 20
63.32678114925147
 30
0.0
 10
193.4862347561176
 20
63.26341684041406
 30
0.0
 10
193.5420258954438
 20
63.19614806245013
 30
0.0
 10
193.5963471428656
 20
63.12497394849001
 30
0.0
 10
193.6492261180746
 20
63.04988480874174
 30
0.0
 10
193.7660209428109
 20
62.87063036003988
 30
0.0
 10
193.9278905007374
 20
62.5603248881965
 30
0.0
 10
194.0910754082692
 20
62.09041110006481
 30
0.0
 10
194.2025868134427
 20
61.59144806615477
 30
0.0
 10
194.2497206515511
 20
61.18256439309777
 30
0.0
 10
194.2648395910836
 20
60.87829243650706
 30
0.0
 10
194.2667927300662
 20
60.67704319481174
 30
0.0
 10
194.2603147044271
 20
60.48138327508915
 30
0.0
 10
194.24618778174
 20
60.29074698719168
 30
0.0
 10
194.230027890055
 20
60.16916371345287
 30
0.0
 10
194.2219347327829
 20
60.10827267685399
 30
0.0
  0
LINE
  5
22C
330
1F
100
AcDbEntity
  8
0
  6
Continuous
 62
     7
370
    25
100
AcDbLine
 10
192.4798622973
 20
63.9973507329
 30
0.0
 11
193.1195691396
 21
63.5843757619
 31
0.0
  0
SPLINE
  5
22D
330
1F
100
AcDbEntity
  8
0
  6
Continuous
 62
     7
370
    25
100
AcDbSpline
210
0.0
220
0.0
230
1.0
 70
     8
 71
     3
 72
    14
 73
    10
 74
     0
 42
0.000000001
 43
0.00000001
 40
0.0
 40
0.0
 40
0.0
 40
0.0
 40
0.0789261963152472
 40
0.1582328720511064
 40
0.3308475394503796
 40
0.5000195457530386
 40
0.6670357883499396
 40
0.8332395193610692
 40
1.0
 40
1.0
 40
1.0
 40
1.0
 10
191.6659098919426
 20
64.20593316591344
 30
0.0
 10
191.6876267732779
 20
64.2075363297722
 30
0.0
 10
191.7311652264924
 20
64.21075038585977
 30
0.0
 10
191.8226903451393
 20
64.21157142592928
 30
0.0
 10
191.9395986785706
 20
64.20363544414779
 30
0.0
 10
192.0804190169513
 20
64.17735977527094
 30
0.0
 10
192.2176313247639
 20
64.1344021767386
 30
0.0
 10
192.3515619991823
 20
64.07604505192774
 30
0.0
 10
192.4370480911433
 20
64.02361150577656
 30
0.0
 10
192.4798626077927
 20
63.99735089562137
 30
0.0
  0
SPLINE
  5
22E
330
1F
100
AcDbEntity
  8
0
  6
Continuous
 62
     7
370
    25
100
AcDbSpline
210
0.0
220
0.0
230
1.0
 70
     8
 71
     3
 72
     8
 73
     4
 74
     0
 42
0.000000001
 43
0.00000001
 40
0.0
 40
0.0
 40
0.0
 40
0.0
 40
1.0
 40
1.0
 40
1.0
 40
1.0
 10
189.8636063089369
 20
65.36832457732777
 30
0.0
 10
190.4643645326339
 20
64.98105709416836
 30
0.0
 10
191.065093395495
 20
64.59358974424455
 30
0.0
 10
191.6657940398427
 20
64.2059228516544
 30
0.0
  0
SPLINE
  5
22F
330
1F
100
AcDbEntity
  8
0
  6
Continuous
 62
     7
370
    25
100
AcDbSpline
210
0.0
220
0.0
230
1.0
 70
     8
 71
     3
 72
    13
 73
     9
 74
     0
 42
0.000000001
 43
0.00000001
 40
0.0
 40
0.0
 40
0.0
 40
0.0
 40
0.1667030582307959
 40
0.3329480818053031
 40
0.4990671507274871
 40
0.6653938523718408
 40
0.8322612710550125
 40
1.0
 40
1.0
 40
1.0
 40
1.0
 10
189.5217777739026
 20
65.66938935641356
 30
0.0
 10
189.5420789563425
 20
65.65582424973432
 30
0.0
 10
189.5826255415312
 20
65.62873130797148
 30
0.0
 10
189.6417751785188
 20
65.58353673496377
 30
0.0
 10
189.6995467234213
 20
65.5351255864808
 30
0.0
 10
189.755796460881
 20
65.48309047171036
 30
0.0
 10
189.8107236696271
 20
65.42779250450134
 30
0.0
 10
189.8459443792176
 20
65.38817524934096
 30
0.0
 10
189.8636005911585
 20
65.36831504034005
 30
0.0
  0
SPLINE
  5
230
330
1F
100
AcDbEntity
  8
0
  6
Continuous
 62
     7
370
    25
100
AcDbSpline
210
0.0
220
0.0
230
1.0
 70
     8
 71
     3
 72
     8
 73
     4
 74
     0
 42
0.000000001
 43
0.00000001
 40
0.0
 40
0.0
 40
0.0
 40
0.0
 40
1.0
 40
1.0
 40
1.0
 40
1.0
 10
187.5777972581118
 20
66.92411120879302
 30
0.0
 10
188.2258273305121
 20
66.50611589290827
 30
0.0
 10
188.873820307614
 20
66.08787513049063
 30
0.0
 10
189.5217777739026
 20
65.66938935641356
 30
0.0
  0
LWPOLYLINE
  5
231
330
1F
100
AcDbEntity
  8
0
  6
Continuous
 62
     7
370
    25
100
AcDbPolyline
 90
       19
 70
   128
 43
0.0
 10
187.5777979084
 20
66.9241112593
 10
187.98069017
 20
68.0910752447
 10
188.4706453083
 20
69.2510796695
 10
189.0416455436
 20
70.3898770655
 10
189.6866767183
 20
71.4934797563
 10
190.3978172005
 20
72.5483343748
 10
191.1663323851
 20
73.5414840234
 10
191.9827833538
 20
74.4607306222
 10
192.8371422846
 20
75.2947848048
 10
193.7189156001
 20
76.0334008888
 10
194.6172732477
 20
76.6675085423
 10
195.5211813966
 20
77.1893182863
 10
196.4195380564
 20
77.5924218385
 10
197.3013094785
 20
77.8718685753
 10
198.1556654459
 20
78.0242253813
 10
198.9721127925
 20
78.0476217895
 10
199.7406233674
 20
77.9417698599
 10
200.4517585812
 20
77.7079699193
 10
200.6275356349
 20
77.6258582245
  0
SPLINE
  5
232
330
1F
100
AcDbEntity
  8
0
  6
Continuous
 62
     7
370
    25
100
AcDbSpline
210
0.0
220
0.0
230
1.0
 70
    11
 71
     3
 72
    39
 73
    35
 74
     0
 42
0.000000001
 43
0.00000001
 40
0.0
 40
0.0
 40
0.0
 40
0.0
 40
0.0310664058350965
 40
0.0621048158425859
 40
0.093136155179263
 40
0.1235538293503448
 40
0.1538561545806855
 40
0.1850588072748946
 40
0.2160250992945718
 40
0.2471867223797388
 40
0.2784462884305076
 40
0.3100516090231096
 40
0.3419834369141944
 40
0.3734259894013148
 40
0.4048604886786042
 40
0.4368740651833136
 40
0.4685120685925458
 40
0.4998055358633138
 40
0.5309508213230685
 40
0.5618649784438015
 40
0.5930416446594986
 40
0.6233742450133227
 40
0.6540913579075065
 40
0.6849496782718291
 40
0.71581606451649
 40
0.7471731804043279
 40
0.7784514311862922
 40
0.8101295911560753
 40
0.8419598919688862
 40
0.8735175891922173
 40
0.9050808037887091
 40
0.9370235169792366
 40
0.968744159003463
 40
1.0
 40
1.0
 40
1.0
 40
1.0
 10
200.7863827393172
 20
75.92930158413446
 30
0.0
 10
201.0492683595176
 20
75.90076709684345
 30
0.0
 10
201.5761569700003
 20
75.8148246085203
 30
0.0
 10
202.340169039074
 20
75.61444948845089
 30
0.0
 10
203.0473192271227
 20
75.36744738223184
 30
0.0
 10
203.660230291717
 20
75.08946550407978
 30
0.0
 10
204.1573616173914
 20
74.79533180674989
 30
0.0
 10
204.5165533384638
 20
74.49382527855785
 30
0.0
 10
204.7382726072246
 20
74.18682777365449
 30
0.0
 10
204.8035244846058
 20
73.87632251225263
 30
0.0
 10
204.7166772734927
 20
73.55717802750338
 30
0.0
 10
204.4743316857323
 20
73.22785806193033
 30
0.0
 10
204.0943938230068
 20
72.88891734037253
 30
0.0
 10
203.5805878698466
 20
72.5510788759622
 30
0.0
 10
202.9546970589357
 20
72.22518097465462
 30
0.0
 10
202.2412260724471
 20
71.92853408141356
 30
0.0
 10
201.477323596183
 20
71.67243077297354
 30
0.0
 10
200.6915305132765
 20
71.48340320498511
 30
0.0
 10
199.909993058236
 20
71.37522728293158
 30
0.0
 10
199.1538800734805
 20
71.36756339956273
 30
0.0
 10
198.4515154870908
 20
71.46548543494922
 30
0.0
 10
197.8324951400468
 20
71.6871338684528
 30
0.0
 10
197.3234378750375
 20
72.02300195536476
 30
0.0
 10
196.9504942816026
 20
72.46281252154365
 30
0.0
 10
196.7218923303578
 20
72.97388716206594
 30
0.0
 10
196.6530460236356
 20
73.52507224982658
 30
0.0
 10
196.7376624368594
 20
74.08274417813944
 30
0.0
 10
196.9807712267954
 20
74.61282431905892
 30
0.0
 10
197.3629010696121
 20
75.0853486681738
 30
0.0
 10
197.8790366440248
 20
75.47147017906664
 30
0.0
 10
198.5060145045273
 20
75.7550943663988
 30
0.0
 10
199.2219219368935
 20
75.92483158512623
 30
0.0
 10
199.9903653290777
 20
75.98637041983905
 30
0.0
 10
200.521894108451
 20
75.95801006758177
 30
0.0
 10
200.7863827393172
 20
75.92930158413446
 30
0.0
  0
LINE
  5
233
330
1F
100
AcDbEntity
  8
0
  6
Continuous
 62
     7
370
    25
100
AcDbLine
 10
191.5618453263
 20
59.4901749667
 30
0.0
 11
191.8725970038
 21
59.3237942663
 31
0.0
  0
LINE
  5
234
330
1F
100
AcDbEntity
  8
0
  6
Continuous
 62
     7
370
    25
100
AcDbLine
 10
190.5748873064
 20
60.059933704
 30
0.0
 11
191.5618453263
 21
59.4901749667
 31
0.0
  0
ARC
  5
235
330
1F
100
AcDbEntity
  8
0
  6
Continuous
 62
     7
370
    25
100
AcDbCircle
 10
192.7958572172
 20
63.6534144681
 30
0.0
 40
4.484274790565594
100
AcDbArc
 50
267.6840627222
 51
286.9866336569
  0
SPLINE
  5
236
330
1F
100
AcDbEntity
  8
0
  6
Continuous
 62
     7
370
    25
100
AcDbSpline
210
0.0
220
0.0
230
1.0
 70
     8
 71
     3
 72
    12
 73
     8
 74
     0
 42
0.000000001
 43
0.00000001
 40
0.0
 40
0.0
 40
0.0
 40
0.0
 40
0.1523598330305601
 40
0.3826801306822303
 40
0.6138741683107227
 40
0.8254372814239916
 40
1.0
 40
1.0
 40
1.0
 40
1.0
 10
202.1248886976166
 20
72.92680586879871
 30
0.0
 10
201.9199213592348
 20
73.03895226853146
 30
0.0
 10
201.4051076693182
 20
73.32062886302252
 30
0.0
 10
200.3920323420289
 20
73.7367948354896
 30
0.0
 10
199.1846535610698
 20
74.02003646343712
 30
0.0
 10
198.0823230757189
 20
74.0509833061779
 30
0.0
 10
197.5173840431879
 20
73.84325592885621
 30
0.0
 10
197.2619820854457
 20
73.74934494768904
 30
0.0
  0
SPLINE
  5
237
330
1F
100
AcDbEntity
  8
0
  6
Continuous
 62
     7
370
    25
100
AcDbSpline
210
0.0
220
0.0
230
1.0
 70
     8
 71
     3
 72
    10
 73
     6
 74
     0
 42
0.000000001
 43
0.00000001
 40
0.0
 40
0.0
 40
0.0
 40
0.0
 40
0.3798174073072795
 40
0.9603711649033085
 40
1.0
 40
1.0
 40
1.0
 40
1.0
 10
203.264768819476
 20
72.39857894128023
 30
0.0
 10
203.1351162022277
 20
72.4689075031176
 30
0.0
 10
202.8072885864732
 20
72.64673379953872
 30
0.0
 10
202.399360041463
 20
72.81978664994112
 30
0.0
 10
202.1427272600312
 20
72.91899208218943
 30
0.0
 10
202.1263287698194
 20
72.92533117612982
 30
0.0
  0
SPLINE
  5
238
330
1F
100
AcDbEntity
  8
0
  6
Continuous
 62
     7
370
    25
100
AcDbSpline
210
0.0
220
0.0
230
1.0
 70
     8
 71
     3
 72
    24
 73
    20
 74
     0
 42
0.000000001
 43
0.00000001
 40
0.0
 40
0.0
 40
0.0
 40
0.0
 40
0.0618858212107145
 40
0.1150115607194259
 40
0.1593831488268445
 40
0.2428114970815824
 40
0.318331853291959
 40
0.3935543804326023
 40
0.4204843226990471
 40
0.4483397435477174
 40
0.4771286702554668
 40
0.5451537905345539
 40
0.6363475754294583
 40
0.6968782859867285
 40
0.7498596693403015
 40
0.7959701295389731
 40
0.8771179302751783
 40
0.9543004207779655
 40
1.0
 40
1.0
 40
1.0
 40
1.0
 10
200.7315041723149
 20
75.35544368417769
 30
0.0
 10
200.5475473829787
 20
75.37433824914363
 30
0.0
 10
200.2056733150165
 20
75.40945280952813
 30
0.0
 10
199.7414553420397
 20
75.40296226114086
 30
0.0
 10
199.2319937297667
 20
75.35523806834355
 30
0.0
 10
198.6928986303922
 20
75.23062147017664
 30
0.0
 10
198.1500606456686
 20
74.98813118623366
 30
0.0
 10
197.8096676301734
 20
74.73075843560775
 30
0.0
 10
197.6030409216225
 20
74.51595133510891
 30
0.0
 10
197.4850568654114
 20
74.36944798380995
 30
0.0
 10
197.3328864612203
 20
74.13969715958949
 30
0.0
 10
197.1662058226407
 20
73.76675446416246
 30
0.0
 10
197.0978442418035
 20
73.30419541146958
 30
0.0
 10
197.1481997054229
 20
72.87586271326776
 30
0.0
 10
197.2536288489381
 20
72.55593581962337
 30
0.0
 10
197.4358281756242
 20
72.21547030443018
 30
0.0
 10
197.7367066006946
 20
71.8795220475751
 30
0.0
 10
198.1263914952931
 20
71.60646274686009
 30
0.0
 10
198.4193104514875
 20
71.51250767593278
 30
0.0
 10
198.5282463855438
 20
71.47756598576782
 30
0.0
  0
SPLINE
  5
239
330
1F
100
AcDbEntity
  8
0
  6
Continuous
 62
     7
370
    25
100
AcDbSpline
210
0.0
220
0.0
230
1.0
 70
     8
 71
     3
 72
    22
 73
    18
 74
     0
 42
0.000000001
 43
0.00000001
 40
0.0
 40
0.0
 40
0.0
 40
0.0
 40
0.0230829230551597
 40
0.0814197416897967
 40
0.1466435060153073
 40
0.2187937863059883
 40
0.2807407147919538
 40
0.334043885361729
 40
0.3787027517769348
 40
0.4147200067027929
 40
0.517881604567259
 40
0.6098460221494381
 40
0.7031822330296847
 40
0.7529336067168404
 40
0.8047834091159894
 40
0.8938685125132421
 40
1.0
 40
1.0
 40
1.0
 40
1.0
 10
204.0328209650119
 20
72.87469554359194
 30
0.0
 10
204.0572243680984
 20
72.8976946970193
 30
0.0
 10
204.1433018016587
 20
72.97881896047006
 30
0.0
 10
204.2509962188569
 20
73.1221146424551
 30
0.0
 10
204.3481668202374
 20
73.31088914529663
 30
0.0
 10
204.3792177204263
 20
73.49685459685222
 30
0.0
 10
204.3498647987844
 20
73.6686692834401
 30
0.0
 10
204.2813586641797
 20
73.81547521127452
 30
0.0
 10
204.1935482783507
 20
73.93668626814397
 30
0.0
 10
204.0392564894693
 20
74.1022693773415
 30
0.0
 10
203.7714305429387
 20
74.31243364184861
 30
0.0
 10
203.3198602877663
 20
74.56787744541005
 30
0.0
 10
202.8722976784517
 20
74.77451414371566
 30
0.0
 10
202.4634039056884
 20
74.933018360128
 30
0.0
 10
202.0413243068525
 20
75.07553510812073
 30
0.0
 10
201.4630116890339
 20
75.23879167694999
 30
0.0
 10
200.9891330952431
 20
75.31436012687634
 30
0.0
 10
200.7315041723149
 20
75.35544368417769
 30
0.0
  0
LINE
  5
23A
330
1F
100
AcDbEntity
  8
0
  6
Continuous
 62
     7
370
    25
100
AcDbLine
 10
194.2219344504
 20
60.1082724961
 30
0.0
 11
194.2166963874
 21
60.404355919
 31
0.0
  0
LINE
  5
23B
330
1F
100
AcDbEntity
  8
0
  6
Continuous
 62
     7
370
    25
100
AcDbLine
 10
194.2166963874
 20
60.404355919
 30
0.0
 11
194.2597961498
 21
61.0560176157
 31
0.0
  0
LINE
  5
23C
330
1F
100
AcDbEntity
  8
0
  6
Continuous
 62
     7
370
    25
100
AcDbLine
 10
193.8296118282
 20
62.7874786225
 30
0.0
 11
193.4257330669
 21
63.213640706
 31
0.0
  0
SPLINE
  5
23D
330
1F
100
AcDbEntity
  8
0
  6
Continuous
 62
     7
370
    25
100
AcDbSpline
210
0.0
220
0.0
230
1.0
 70
     8
 71
     3
 72
    19
 73
    15
 74
     0
 42
0.000000001
 43
0.00000001
 40
0.0
 40
0.0
 40
0.0
 40
0.0
 40
0.0210492621018804
 40
0.1455865440207667
 40
0.2712169722633744
 40
0.3929514297049947
 40
0.5136082229787104
 40
0.6366369099308349
 40
0.699422462668311
 40
0.7643939711952468
 40
0.8122544601557282
 40
0.8606584764820763
 40
0.9188817427801165
 40
1.0
 40
1.0
 40
1.0
 40
1.0
 10
197.1422596199726
 20
73.10069373671988
 30
0.0
 10
197.1347910449867
 20
73.15545408362529
 30
0.0
 10
197.0831348864151
 20
73.53420226096041
 30
0.0
 10
197.3259057810747
 20
74.14435316977459
 30
0.0
 10
197.9102362484896
 20
74.83372687301414
 30
0.0
 10
198.8163626161299
 20
75.25102642324622
 30
0.0
 10
199.8907087445919
 20
75.37145238093485
 30
0.0
 10
200.8446426136877
 20
75.21075283734727
 30
0.0
 10
201.5793051562569
 20
74.91338673850547
 30
0.0
 10
202.0521083957292
 20
74.61572866110076
 30
0.0
 10
202.4090785658487
 20
74.24481685632341
 30
0.0
 10
202.6039267073569
 20
73.81249556101582
 30
0.0
 10
202.6329557376011
 20
73.30955422979069
 30
0.0
 10
202.5705821359807
 20
72.9758092172155
 30
0.0
 10
202.5342710800066
 20
72.78151814666865
 30
0.0
  0
SPLINE
  5
23E
330
1F
100
AcDbEntity
  8
0
  6
Continuous
 62
     7
370
    25
100
AcDbSpline
210
0.0
220
0.0
230
1.0
 70
     8
 71
     3
 72
    10
 73
     6
 74
     0
 42
0.000000001
 43
0.00000001
 40
0.0
 40
0.0
 40
0.0
 40
0.0
 40
0.2952118939789638
 40
0.9806889752106586
 40
1.0
 40
1.0
 40
1.0
 40
1.0
 10
202.5369989359948
 20
72.78027959324625
 30
0.0
 10
202.6198225608716
 20
72.74151441545278
 30
0.0
 10
202.8949612577205
 20
72.61273714306132
 30
0.0
 10
203.1698925718231
 20
72.47155214320195
 30
0.0
 10
203.3183576364974
 20
72.37756454880474
 30
0.0
 10
203.3224255436028
 20
72.37498931129748
 30
0.0
  0
ARC
  5
23F
330
1F
100
AcDbEntity
  8
0
  6
Continuous
 62
     7
370
    25
100
AcDbCircle
 10
206.5471075013
 20
58.5670606009
 30
0.0
 40
12.46654291791407
100
AcDbArc
 50
171.5249863735
 51
179.8211981812
  0
SPLINE
  5
240
330
1F
100
AcDbEntity
  8
0
  6
Continuous
 62
     7
370
    25
100
AcDbSpline
210
0.0
220
0.0
230
1.0
 70
     8
 71
     3
 72
    14
 73
    10
 74
     0
 42
0.000000001
 43
0.00000001
 40
0.0
 40
0.0
 40
0.0
 40
0.0
 40
0.0003951393068452
 40
0.0003951393068452
 40
0.0003951393068452
 40
0.0008163352168664
 40
0.0008163352168664
 40
0.0008163352168664
 40
0.0012378579337219
 40
0.0012378579337219
 40
0.0012378579337219
 40
0.0012378579337219
 10
202.1289212731563
 20
72.9255269154144
 30
0.0
 10
202.1743830873875
 20
72.91109005278935
 30
0.0
 10
202.2192706920086
 20
72.89622419222374
 30
0.0
 10
202.2635543846837
 20
72.88094040461826
 30
0.0
 10
202.310757676923
 20
72.86464896528058
 30
0.0
 10
202.3572834899822
 20
72.84787948719668
 30
0.0
 10
202.4030943992238
 20
72.83065067640138
 30
0.0
 10
202.448940787213
 20
72.81340852256973
 30
0.0
 10
202.4940800227853
 20
72.79570281636525
 30
0.0
 10
202.5384735808277
 20
72.77755995967446
 30
0.0
  0
LINE
  5
241
330
1F
100
AcDbEntity
  8
0
  6
Continuous
 62
     7
370
    25
100
AcDbLine
 10
193.4257330669
 20
63.213640706
 30
0.0
 11
192.7857963925
 21
63.6258723461
 31
0.0
  0
LINE
  5
242
330
1F
100
AcDbEntity
  8
0
  6
Continuous
 62
     7
370
    25
100
AcDbLine
 10
192.4798622973
 20
63.9973507329
 30
0.0
 11
192.7857963925
 21
63.6258723461
 31
0.0
  0
SPLINE
  5
243
330
1F
100
AcDbEntity
  8
0
  6
Continuous
 62
     7
370
    25
100
AcDbSpline
210
0.0
220
0.0
230
1.0
 70
     8
 71
     3
 72
    13
 73
     9
 74
     0
 42
0.000000001
 43
0.00000001
 40
0.0
 40
0.0
 40
0.0
 40
0.0
 40
0.1618542298650875
 40
0.3254858841233149
 40
0.4910085196246548
 40
0.6585318472470939
 40
0.8281616954004768
 40
1.0
 40
1.0
 40
1.0
 40
1.0
 10
192.7857968041347
 20
63.62587234998448
 30
0.0
 10
192.7662194121196
 20
63.6384353270161
 30
0.0
 10
192.7268496362777
 20
63.66369924313226
 30
0.0
 10
192.6653136965117
 20
63.69639294004513
 30
0.0
 10
192.6017570372636
 20
63.72533901375195
 30
0.0
 10
192.5361389346053
 20
63.74985138121895
 30
0.0
 10
192.4687116655461
 20
63.77028644457479
 30
0.0
 10
192.422827065344
 20
63.77988309956603
 30
0.0
 10
192.3997363851667
 20
63.78471246040167
 30
0.0
  0
SPLINE
  5
244
330
1F
100
AcDbEntity
  8
0
  6
Continuous
 62
     7
370
    25
100
AcDbSpline
210
0.0
220
0.0
230
1.0
 70
     8
 71
     3
 72
     9
 73
     5
 74
     0
 42
0.000000001
 43
0.00000001
 40
0.0
 40
0.0
 40
0.0
 40
0.0
 40
0.4907282259506041
 40
1.0
 40
1.0
 40
1.0
 40
1.0
 10
192.3997305578748
 20
63.78468446337065
 30
0.0
 10
192.3756370353969
 20
63.79277999558877
 30
0.0
 10
192.3265395488378
 20
63.80927697251006
 30
0.0
 10
192.2758388550176
 20
63.82407064152629
 30
0.0
 10
192.2500184227302
 20
63.83160463959088
 30
0.0
  0
SPLINE
  5
245
330
1F
100
AcDbEntity
  8
0
  6
Continuous
 62
     7
370
    25
100
AcDbSpline
210
0.0
220
0.0
230
1.0
 70
     8
 71
     3
 72
    14
 73
    10
 74
     0
 42
0.000000001
 43
0.00000001
 40
0.0
 40
0.0
 40
0.0
 40
0.0
 40
0.0310276388093398
 40
0.0622853718693698
 40
0.1248003166924349
 40
0.2498289731770658
 40
0.4998892603621822
 40
0.7606803621577949
 40
1.0
 40
1.0
 40
1.0
 40
1.0
 10
191.6660777334423
 20
64.20571238223677
 30
0.0
 10
191.6720699728471
 20
64.20188133858282
 30
0.0
 10
191.6840988888066
 20
64.19419084108475
 30
0.0
 10
191.7081586968563
 20
64.17875295157779
 30
0.0
 10
191.7503923695026
 20
64.1516824986469
 30
0.0
 10
191.8349549440149
 20
64.09747047385146
 30
0.0
 10
191.9582419134833
 20
64.01846729198671
 30
0.0
 10
192.104373619937
 20
63.92486111730896
 30
0.0
 10
192.2027402364781
 20
63.8618780409165
 30
0.0
 10
192.2498119371647
 20
63.831738542126
 30
0.0
  0
LINE
  5
246
330
1F
100
AcDbEntity
  8
0
  6
Continuous
 62
     7
370
    25
100
AcDbLine
 10
189.8635775782
 20
65.3683430592
 30
0.0
 11
190.1545449323
 21
65.1802645201
 31
0.0
  0
SPLINE
  5
247
330
1F
100
AcDbEntity
  8
0
  6
Continuous
 62
     7
370
    25
100
AcDbSpline
210
0.0
220
0.0
230
1.0
 70
     8
 71
     3
 72
     8
 73
     4
 74
     0
 42
0.000000001
 43
0.00000001
 40
0.0
 40
0.0
 40
0.0
 40
0.0
 40
1.0
 40
1.0
 40
1.0
 40
1.0
 10
190.1859332357372
 20
65.16004198992557
 30
0.0
 10
190.1754907298854
 20
65.16686741482299
 30
0.0
 10
190.1650247969956
 20
65.17361038160952
 30
0.0
 10
190.154537032179
 20
65.18026946926248
 30
0.0
  0
SPLINE
  5
248
330
1F
100
AcDbEntity
  8
0
  6
Continuous
 62
     7
370
    25
100
AcDbSpline
210
0.0
220
0.0
230
1.0
 70
     8
 71
     3
 72
     8
 73
     4
 74
     0
 42
0.000000001
 43
0.00000001
 40
0.0
 40
0.0
 40
0.0
 40
0.0
 40
1.0
 40
1.0
 40
1.0
 40
1.0
 10
187.3999288569114
 20
67.03829764173591
 30
0.0
 10
187.458928621082
 20
66.99955697481653
 30
0.0
 10
187.5182161845932
 20
66.96149499751681
 30
0.0
 10
187.5777972580823
 20
66.92411120905611
 30
0.0
  0
SPLINE
  5
249
330
1F
100
AcDbEntity
  8
0
  6
Continuous
 62
     7
370
    25
100
AcDbSpline
210
0.0
220
0.0
230
1.0
 70
     8
 71
     3
 72
     8
 73
     4
 74
     0
 42
0.000000001
 43
0.00000001
 40
0.0
 40
0.0
 40
0.0
 40
0.0
 40
1.0
 40
1.0
 40
1.0
 40
1.0
 10
187.3750791108138
 20
67.40150781967299
 30
0.0
 10
187.3825533229043
 20
67.28054997896177
 30
0.0
 10
187.3908494267944
 20
67.15947813655174
 30
0.0
 10
187.3999288569132
 20
67.03829764173653
 30
0.0
  0
LWPOLYLINE
  5
24A
330
1F
100
AcDbEntity
  8
0
  6
Continuous
 62
     7
370
    25
100
AcDbPolyline
 90
       15
 70
   128
 43
0.0
 10
187.3750794696
 20
67.4015071543
 10
187.7905308336
 20
68.5657585308
 10
188.295062196
 20
69.7203041259
 10
188.8820143549
 20
70.849904888
 10
189.5436395341
 20
71.9396492472
 10
190.2712034578
 20
72.9751519662
 10
191.0551022421
 20
73.9427440553
 10
191.8849881773
 20
74.8296533707
 10
192.7499063753
 20
75.6241717128
 10
193.6384394033
 20
76.3158113259
 10
194.5388583364
 20
76.8954422901
 10
195.4392772694
 20
77.3554128975
 10
196.3278102974
 20
77.6896516819
 10
197.1927284954
 20
77.8937466353
 10
197.3390419386
 20
77.9156148457
  0
SPLINE
  5
24B
330
1F
100
AcDbEntity
  8
0
  6
Continuous
 62
     7
370
    25
100
AcDbSpline
210
0.0
220
0.0
230
1.0
 70
     8
 71
     3
 72
    10
 73
     6
 74
     0
 42
0.000000001
 43
0.00000001
 40
0.0
 40
0.0
 40
0.0
 40
0.0
 40
0.2409818396634726
 40
0.5031433556203718
 40
1.0
 40
1.0
 40
1.0
 40
1.0
 10
193.4257330668525
 20
56.50779908271915
 30
0.0
 10
193.5079789378555
 20
56.4561225607986
 30
0.0
 10
193.6796991952
 20
56.34822771410722
 30
0.0
 10
193.9574205542268
 20
56.21850500364297
 30
0.0
 10
194.0783978012709
 20
56.24128294474797
 30
0.0
 10
194.1575900421864
 20
56.2561934857267
 30
0.0
  0
LINE
  5
24C
330
1F
100
AcDbEntity
  8
0
  6
Continuous
 62
     7
370
    25
100
AcDbLine
 10
188.6425590107
 20
66.2368718157
 30
0.0
 11
187.8806803083
 21
66.7275062234
 31
0.0
  0
LINE
  5
24D
330
1F
100
AcDbEntity
  8
0
  6
Continuous
 62
     7
370
    25
100
AcDbLine
 10
187.8806803083
 20
66.7275062234
 30
0.0
 11
187.3999289881
 21
67.0382975994
 31
0.0
  0
LINE
  5
24E
330
1F
100
AcDbEntity
  8
0
  6
Continuous
 62
     7
370
    25
100
AcDbLine
 10
192.4798622973
 20
56.2320192818
 30
0.0
 11
192.7857963925
 21
56.9200307228
 31
0.0
  0
LINE
  5
24F
330
1F
100
AcDbEntity
  8
0
  6
Continuous
 62
     7
370
    25
100
AcDbLine
 10
192.7857963925
 20
56.9200307228
 30
0.0
 11
193.4257330669
 21
56.5077990827
 31
0.0
  0
SPLINE
  5
250
330
1F
100
AcDbEntity
  8
0
  6
Continuous
 62
     7
370
    25
100
AcDbSpline
210
0.0
220
0.0
230
1.0
 70
     8
 71
     3
 72
    13
 73
     9
 74
     0
 42
0.000000001
 43
0.00000001
 40
0.0
 40
0.0
 40
0.0
 40
0.0
 40
0.1722587823402174
 40
0.3421398270982735
 40
0.5097456257612809
 40
0.6751828993009421
 40
0.8385626189970466
 40
1.0
 40
1.0
 40
1.0
 40
1.0
 10
192.3997248733614
 20
57.20134042823777
 30
0.0
 10
192.4228763973121
 20
57.18322083730476
 30
0.0
 10
192.468859878061
 20
57.14723176537072
 30
0.0
 10
192.5364008907719
 20
57.09623178195554
 30
0.0
 10
192.6020605054571
 20
57.04790710176487
 30
0.0
 10
192.6655845767075
 20
57.00247609585553
 30
0.0
 10
192.7270149554294
 20
56.95965052809531
 30
0.0
 10
192.766281122403
 20
56.93318471091986
 30
0.0
 10
192.7857968041347
 20
56.92003093237276
 30
0.0
  0
SPLINE
  5
251
330
1F
100
AcDbEntity
  8
0
  6
Continuous
 62
     7
370
    25
100
AcDbSpline
210
0.0
220
0.0
230
1.0
 70
     8
 71
     3
 72
    11
 73
     7
 74
     0
 42
0.000000001
 43
0.00000001
 40
0.0
 40
0.0
 40
0.0
 40
0.0
 40
0.239284509383631
 40
0.5001120454057238
 40
0.7515010915050501
 40
1.0
 40
1.0
 40
1.0
 40
1.0
 10
192.2503444618853
 20
57.24865442045064
 30
0.0
 10
192.203275229894
 20
57.22033989774443
 30
0.0
 10
192.1048990753011
 20
57.1611616671863
 30
0.0
 10
191.9586018537157
 20
57.06797376672893
 30
0.0
 10
191.8107611100544
 20
56.97260185075655
 30
0.0
 10
191.7144746473382
 20
56.9080665954883
 30
0.0
 10
191.6666097594811
 20
56.87598552542806
 30
0.0
  0
SPLINE
  5
252
330
1F
100
AcDbEntity
  8
0
  6
Continuous
 62
     7
370
    25
100
AcDbSpline
210
0.0
220
0.0
230
1.0
 70
     8
 71
     3
 72
     9
 73
     5
 74
     0
 42
0.000000001
 43
0.00000001
 40
0.0
 40
0.0
 40
0.0
 40
0.0
 40
0.509066935386983
 40
0.9999999999999999
 40
0.9999999999999999
 40
0.9999999999999999
 40
0.9999999999999999
 10
192.2509154654695
 20
57.24795546623888
 30
0.0
 10
192.2765640400935
 20
57.240462758079
 30
0.0
 10
192.3269475414389
 20
57.22574424536673
 30
0.0
 10
192.3757550529342
 20
57.20935188751456
 30
0.0
 10
192.3997162741287
 20
57.20130433703797
 30
0.0
  0
LINE
  5
253
330
1F
100
AcDbEntity
  8
0
  6
Continuous
 62
     7
370
    25
100
AcDbLine
 10
194.0808340456
 20
58.1718340335
 30
0.0
 11
192.3997180892
 21
57.2013464493
 31
0.0
  0
LINE
  5
254
330
1F
100
AcDbEntity
  8
0
  6
Continuous
 62
     7
370
    25
100
AcDbLine
 10
190.393230438
 20
58.3251677479
 30
0.0
 11
190.1929347844
 21
57.8240103337
 31
0.0
  0
SPLINE
  5
255
330
1F
100
AcDbEntity
  8
0
  6
Continuous
 62
     7
370
    25
100
AcDbSpline
210
0.0
220
0.0
230
1.0
 70
     8
 71
     3
 72
     8
 73
     4
 74
     0
 42
0.000000001
 43
0.00000001
 40
0.0
 40
0.0
 40
0.0
 40
0.0
 40
1.0
 40
1.0
 40
1.0
 40
1.0
 10
190.3927872673293
 20
58.32595150010022
 30
0.0
 10
190.4189626018985
 20
58.34811887707849
 30
0.0
 10
190.444783641864
 20
58.37075101817011
 30
0.0
 10
190.4702411955724
 20
58.39383573826139
 30
0.0
  0
LINE
  5
256
330
1F
100
AcDbEntity
  8
0
  6
Continuous
 62
     7
370
    25
100
AcDbLine
 10
190.4702412913
 20
58.3938356226
 30
0.0
 11
192.2505340506
 21
57.2480647375
 31
0.0
  0
LINE
  5
257
330
1F
100
AcDbEntity
  8
0
  6
Continuous
 62
     7
370
    25
100
AcDbLine
 10
194.080625287
 20
58.2698839687
 30
0.0
 11
193.99262596
 21
58.377375037
 31
0.0
  0
LINE
  5
258
330
1F
100
AcDbEntity
  8
0
  6
Continuous
 62
     7
370
    25
100
AcDbLine
 10
192.1642179634
 20
59.37174754
 30
0.0
 11
190.4702412913
 21
58.3938356226
 31
0.0
  0
LINE
  5
259
330
1F
100
AcDbEntity
  8
0
  6
Continuous
 62
     7
370
    25
100
AcDbLine
 10
192.3069120459
 20
59.3504553783
 30
0.0
 11
192.1646381148
 21
59.3712601625
 31
0.0
  0
LINE
  5
25A
330
1F
100
AcDbEntity
  8
0
  6
Continuous
 62
     7
370
    25
100
AcDbLine
 10
193.992699717
 20
58.3772708705
 30
0.0
 11
192.3069120459
 21
59.3504553783
 31
0.0
  0
LINE
  5
25B
330
1F
100
AcDbEntity
  8
0
  6
Continuous
 62
     7
370
    25
100
AcDbLine
 10
194.080625287
 20
58.3265067877
 30
0.0
 11
193.9926529604
 21
58.3772978439
 31
0.0
  0
SPLINE
  5
25C
330
1F
100
AcDbEntity
  8
0
  6
Continuous
 62
     7
370
    25
100
AcDbSpline
210
0.0
220
0.0
230
1.0
 70
     8
 71
     3
 72
    19
 73
    15
 74
     0
 42
0.000000001
 43
0.00000001
 40
0.0
 40
0.0
 40
0.0
 40
0.0
 40
0.0637853009172641
 40
0.1289628367748405
 40
0.1955871994416645
 40
0.2637095015536399
 40
0.333377557949238
 40
0.4046360709686026
 40
0.4775268158973639
 40
0.5520888236427515
 40
0.6283585584336152
 40
0.7063700889344581
 40
0.8377041806176546
 40
0.9999999999999999
 40
0.9999999999999999
 40
0.9999999999999999
 40
0.9999999999999999
 10
189.608718161368
 20
58.4944395874521
 30
0.0
 10
189.6294075303746
 20
58.48108044744087
 30
0.0
 10
189.671237853032
 20
58.45407057889836
 30
0.0
 10
189.7317288266301
 20
58.4165486133703
 30
0.0
 10
189.7912130248118
 20
58.38102887227899
 30
0.0
 10
189.8492941842849
 20
58.34804874336257
 30
0.0
 10
189.9058263013725
 20
58.31784230709287
 30
0.0
 10
189.9605713561256
 20
58.29072886713234
 30
0.0
 10
190.0132937337163
 20
58.26699724938349
 30
0.0
 10
190.0637353666448
 20
58.24695699593984
 30
0.0
 10
190.1116182851072
 20
58.23083713440239
 30
0.0
 10
190.1665824394823
 20
58.21655916471765
 30
0.0
 10
190.2294137534435
 20
58.20642060746714
 30
0.0
 10
190.2679212691035
 20
58.21289485878294
 30
0.0
 10
190.2892052342954
 20
58.21647332229291
 30
0.0
  0
LINE
  5
25D
330
1F
100
AcDbEntity
  8
0
  6
Continuous
 62
     7
370
    25
100
AcDbLine
 10
190.3138409219
 20
58.2425437766
 30
0.0
 11
190.3926449919
 21
58.3259353803
 31
0.0
  0
SPLINE
  5
25E
330
1F
100
AcDbEntity
  8
0
  6
Continuous
 62
     7
370
    25
100
AcDbSpline
210
0.0
220
0.0
230
1.0
 70
     8
 71
     3
 72
     9
 73
     5
 74
     0
 42
0.000000001
 43
0.00000001
 40
0.0
 40
0.0
 40
0.0
 40
0.0
 40
0.5232016984460688
 40
1.0
 40
1.0
 40
1.0
 40
1.0
 10
191.9980401836823
 20
59.27581531918498
 30
0.0
 10
191.9290160210337
 20
59.30085748430148
 30
0.0
 10
191.7970895329248
 20
59.3487207943612
 30
0.0
 10
191.5556521201061
 20
59.48631892504787
 30
0.0
 10
191.4405351717427
 20
59.55192548005626
 30
0.0
  0
LINE
  5
25F
330
1F
100
AcDbEntity
  8
0
  6
Continuous
 62
     7
370
    25
100
AcDbLine
 10
187.7110339747
 20
59.3178150427
 30
0.0
 11
188.1625050891
 21
59.4300790156
 31
0.0
  0
LINE
  5
260
330
1F
100
AcDbEntity
  8
0
  6
Continuous
 62
     7
370
    25
100
AcDbLine
 10
188.1625050891
 20
59.4300790156
 30
0.0
 11
189.6087175609
 21
58.4944396825
 31
0.0
  0
SPLINE
  5
261
330
1F
100
AcDbEntity
  8
0
  6
Continuous
 62
     7
370
    25
100
AcDbSpline
210
0.0
220
0.0
230
1.0
 70
     8
 71
     3
 72
     8
 73
     4
 74
     0
 42
0.000000001
 43
0.00000001
 40
0.0
 40
0.0
 40
0.0
 40
0.0
 40
1.0
 40
1.0
 40
1.0
 40
1.0
 10
187.8818225453847
 20
58.92306538966878
 30
0.0
 10
187.8246972764614
 20
59.05485157346271
 30
0.0
 10
187.7677687847446
 20
59.1864357951218
 30
0.0
 10
187.7110346667959
 20
59.31781486202146
 30
0.0
  0
LINE
  5
262
330
1F
100
AcDbEntity
  8
0
  6
Continuous
 62
     7
370
    25
100
AcDbLine
 10
189.5002065481
 20
60.2023176303
 30
0.0
 11
188.1625050891
 21
59.4300790156
 31
0.0
  0
LINE
  5
263
330
1F
100
AcDbEntity
  8
0
  6
Continuous
 62
     7
370
    25
100
AcDbLine
 10
190.483235033
 20
60.1045642274
 30
0.0
 11
189.5002065481
 21
60.2023176303
 31
0.0
  0
LINE
  5
264
330
1F
100
AcDbEntity
  8
0
  6
Continuous
 62
     7
370
    25
100
AcDbLine
 10
191.4405351717
 20
59.5519254801
 30
0.0
 11
190.4832340452
 21
60.1045636572
 31
0.0
  0
SPLINE
  5
265
330
1F
100
AcDbEntity
  8
0
  6
Continuous
 62
     7
370
    25
100
AcDbSpline
210
0.0
220
0.0
230
1.0
 70
     8
 71
     3
 72
     8
 73
     4
 74
     0
 42
0.000000001
 43
0.00000001
 40
0.0
 40
0.0
 40
0.0
 40
0.0
 40
1.0
 40
1.0
 40
1.0
 40
1.0
 10
187.7110346667959
 20
59.31781486202146
 30
0.0
 10
187.7078973290457
 20
59.35303116889397
 30
0.0
 10
187.7059049251478
 20
59.38867542512166
 30
0.0
 10
187.7051235277758
 20
59.42477232711654
 30
0.0
  0
LINE
  5
266
330
1F
100
AcDbEntity
  8
0
  6
Continuous
 62
     7
370
    25
100
AcDbLine
 10
188.5162100029
 20
59.8930020418
 30
0.0
 11
187.7051241963
 21
59.4247721722
 31
0.0
  0
SPLINE
  5
267
330
1F
100
AcDbEntity
  8
0
  6
Continuous
 62
     7
370
    25
100
AcDbSpline
210
0.0
220
0.0
230
1.0
 70
     8
 71
     3
 72
     8
 73
     4
 74
     0
 42
0.000000001
 43
0.00000001
 40
0.0000004089325119
 40
0.0000004089325119
 40
0.0000004089325119
 40
0.0000004089325119
 40
0.0015399868451459
 40
0.0015399868451459
 40
0.0015399868451459
 40
0.0015399868451459
 10
188.5162090602645
 20
59.89300203847266
 30
0.0
 10
188.7546856282877
 20
59.98737842428901
 30
0.0
 10
188.9931325859564
 20
60.08180703621922
 30
0.0
 10
189.2315413248067
 20
60.17630041918168
 30
0.0
  0
LINE
  5
268
330
1F
100
AcDbEntity
  8
0
  6
Continuous
 62
     7
370
    25
100
AcDbLine
 10
189.2315408038
 20
60.1763005663
 30
0.0
 11
189.2559372436
 21
60.1812945927
 31
0.0
  0
LINE
  5
269
330
1F
100
AcDbEntity
  8
0
  6
Continuous
 62
     7
370
    25
100
AcDbLine
 10
189.5002065481
 20
60.2023176303
 30
0.0
 11
189.2559379021
 21
60.1812945927
 31
0.0
  0
SPLINE
  5
26A
330
1F
100
AcDbEntity
  8
0
  6
Continuous
 62
     7
370
    25
100
AcDbSpline
210
0.0
220
0.0
230
1.0
 70
     8
 71
     3
 72
     8
 73
     4
 74
     0
 42
0.000000001
 43
0.00000001
 40
0.0
 40
0.0
 40
0.0
 40
0.0
 40
1.0
 40
1.0
 40
1.0
 40
1.0
 10
190.4832332393148
 20
60.10456441176865
 30
0.0
 10
190.513841273438
 20
60.08962440396253
 30
0.0
 10
190.5443927744099
 20
60.07474744656916
 30
0.0
 10
190.5748867125245
 20
60.05993388288823
 30
0.0
  0
ARC
  5
26B
330
1F
100
AcDbEntity
  8
0
  6
Continuous
 62
     7
370
    25
100
AcDbCircle
 10
191.3639167196
 20
65.533284357
 30
0.0
 40
6.549762100194445
100
AcDbArc
 50
283.6682343678
 51
294.9135532271
  0
LINE
  5
26C
330
1F
100
AcDbEntity
  8
0
  6
Continuous
 62
     7
370
    18
100
AcDbLine
 10
241.4437752111
 20
39.2809111165
 30
0.0
 11
241.3978147314
 21
39.4492708865
 31
0.0
  0
LINE
  5
26D
330
1F
100
AcDbEntity
  8
0
  6
Continuous
 62
     7
370
    18
100
AcDbLine
 10
241.0442882831
 20
36.7634599648
 30
0.0
 11
240.4361500889
 21
36.6647519103
 31
0.0
  0
LINE
  5
26E
330
1F
100
AcDbEntity
  8
0
  6
Continuous
 62
     7
370
    18
100
AcDbLine
 10
241.9799061732
 20
38.9459559942
 30
0.0
 11
241.971657574
 21
38.9761712897
 31
0.0
  0
LINE
  5
26F
330
1F
100
AcDbEntity
  8
0
  6
Continuous
 62
     7
370
    18
100
AcDbLine
 10
240.4361500889
 20
36.6647519103
 30
0.0
 11
240.2673776438
 21
36.5142479958
 31
0.0
  0
LINE
  5
270
330
1F
100
AcDbEntity
  8
0
  6
Continuous
 62
     7
370
    18
100
AcDbLine
 10
241.1890172682
 20
36.892523173
 30
0.0
 11
241.0442882831
 21
36.7634599648
 31
0.0
  0
LINE
  5
271
330
1F
100
AcDbEntity
  8
0
  6
Continuous
 62
     7
370
    18
100
AcDbLine
 10
248.8599469199
 20
30.9884540106
 30
0.0
 11
248.4459173536
 21
31.2274681917
 31
0.0
  0
LINE
  5
272
330
1F
100
AcDbEntity
  8
0
  6
Continuous
 62
     7
370
    18
100
AcDbLine
 10
248.0307607912
 20
45.4985240504
 30
0.0
 11
248.1403791465
 21
46.2972140608
 31
0.0
  0
LINE
  5
273
330
1F
100
AcDbEntity
  8
0
  6
Continuous
 62
     7
370
    18
100
AcDbLine
 10
248.1403791465
 20
46.2972140608
 30
0.0
 11
248.2635600614
 21
46.5117345023
 31
0.0
  0
LINE
  5
274
330
1F
100
AcDbEntity
  8
0
  6
Continuous
 62
     7
370
    18
100
AcDbLine
 10
247.9251280295
 20
45.3145637778
 30
0.0
 11
248.0307607912
 21
45.4985240504
 31
0.0
  0
LINE
  5
275
330
1F
100
AcDbEntity
  8
0
  6
Continuous
 62
     7
370
    18
100
AcDbLine
 10
249.3407755368
 20
31.2682943608
 30
0.0
 11
248.9267459705
 21
31.5073085419
 31
0.0
  0
LINE
  5
276
330
1F
100
AcDbEntity
  8
0
  6
Continuous
 62
     7
370
    18
100
AcDbLine
 10
241.8090784108
 20
29.5160846428
 30
0.0
 11
241.4801288436
 21
29.0047985122
 31
0.0
  0
LINE
  5
277
330
1F
100
AcDbEntity
  8
0
  6
Continuous
 62
     7
370
    18
100
AcDbLine
 10
241.4801288436
 20
29.0047985122
 30
0.0
 11
241.4355460389
 21
28.7837429773
 31
0.0
  0
LWPOLYLINE
  5
278
330
1F
100
AcDbEntity
  8
0
  6
Continuous
 62
     7
370
    18
100
AcDbPolyline
 90
       19
 70
   128
 43
0.0
 10
241.3670047266
 20
47.3295888908
 10
240.6286370509
 20
46.8474534077
 10
239.9029030578
 20
46.261796922
 10
239.2022202624
 20
45.5826415496
 10
238.5385774675
 20
44.8216064189
 10
237.923329956
 20
43.9917141517
 10
237.3670047265
 20
43.1071635987
 10
236.8791203814
 20
42.1830901201
 10
236.4680252894
 20
41.2353048573
 10
236.1407527058
 20
40.2800242115
 10
235.9029032224
 20
39.3335939972
 10
235.7585453272
 20
38.4122071294
 10
235.7101502084
 20
37.531629483
 10
235.7585453272
 20
36.7069276515
 10
235.9029032224
 20
35.9522128618
 10
236.1407527058
 20
35.2803978157
 10
236.4680252894
 20
34.7029780519
 10
236.8791203814
 20
34.2298330793
 10
236.954877366
 20
34.1620839365
  0
ARC
  5
279
330
1F
100
AcDbEntity
  8
0
  6
Continuous
 62
     7
370
    18
100
AcDbCircle
 10
243.7886406682
 20
43.8292064146
 30
0.0
 40
4.256406713815443
100
AcDbArc
 50
74.7737806923
 51
124.676274748
  0
ARC
  5
27A
330
1F
100
AcDbEntity
  8
0
  6
Continuous
 62
     7
370
    18
100
AcDbCircle
 10
241.0812049483
 20
40.9622508493
 30
0.0
 40
10.53606923144454
100
AcDbArc
 50
307.0039780712
 51
353.001398007
  0
ARC
  5
27B
330
1F
100
AcDbEntity
  8
0
  6
Continuous
 62
     7
370
    18
100
AcDbCircle
 10
241.022870631
 20
40.9959265286
 30
0.0
 40
9.957777695625447
100
AcDbArc
 50
309.8522192876
 51
350.153156609
  0
LWPOLYLINE
  5
27C
330
1F
100
AcDbEntity
  8
0
  6
Continuous
 62
     7
370
    18
100
AcDbPolyline
 90
       23
 70
   128
 43
0.0
 10
241.0134506195
 20
48.7585019905
 10
240.2037437228
 20
48.2345102421
 10
239.4058441999
 20
47.6050425135
 10
238.6313871328
 20
46.8792779735
 10
237.8916661482
 20
46.0678009683
 10
237.197467382
 20
45.1824435734
 10
236.5589146389
 20
44.2361167384
 10
235.9853187505
 20
43.2426195195
 10
235.485044549
 20
42.2164402313
 10
235.0653870613
 20
41.1725420078
 10
234.7324658122
 20
40.1261481714
 10
234.4911349333
 20
39.0925163842
 10
234.3449143449
 20
38.0867201164
 10
234.2959364142
 20
37.1234261206
 10
234.3449143449
 20
36.2166808398
 10
234.4911349333
 20
35.3797072698
 10
234.7324658122
 20
34.6247101846
 10
235.0653870613
 20
33.9626990406
 10
235.485044549
 20
33.403327039
 10
235.9853187505
 20
32.9547520492
 10
236.5589146389
 20
32.6235145465
 10
237.197467382
 20
32.4144450156
 10
237.301650111
 20
32.3931991235
  0
LWPOLYLINE
  5
27D
330
1F
100
AcDbEntity
  8
0
  6
Continuous
 62
     7
370
    18
100
AcDbPolyline
 90
       10
 70
   128
 43
0.0
 10
246.6117341891
 20
48.5204856461
 10
246.5418566899
 20
48.5994020151
 10
246.0415824884
 20
49.0479770049
 10
245.4679866
 20
49.3792145076
 10
244.8294338569
 20
49.5882840384
 10
244.1352350907
 20
49.6721365984
 10
243.3955141061
 20
49.6295499341
 10
242.621057039
 20
49.4611453773
 10
241.8231575161
 20
49.1693779257
 10
241.0134506195
 20
48.7585019905
  0
LWPOLYLINE
  5
27E
330
1F
100
AcDbEntity
  8
0
  6
Continuous
 62
     7
370
    18
100
AcDbPolyline
 90
       22
 70
   128
 43
0.0
 10
240.3063450395
 20
49.9832462987
 10
239.4600019947
 20
49.4387772014
 10
238.6246923693
 20
48.7896355305
 10
237.8113056083
 20
48.0442833133
 10
237.0304453483
 20
47.2124366069
 10
236.2922916996
 20
46.304941889
 10
235.6064673147
 20
45.333627257
 10
234.9819129229
 20
44.3111571911
 10
234.4267707687
 20
43.2508607012
 10
233.9482775975
 20
42.166559662
 10
233.5526721309
 20
41.0723903031
 10
233.2451107722
 20
39.9826165233
 10
233.0296033991
 20
38.9114451043
 10
232.9089593623
 20
37.8728406377
 10
232.8847519248
 20
36.8803429703
 10
232.9572958707
 20
35.9468904455
 10
233.1256461887
 20
35.0846524119
 10
233.3876072914
 20
34.3048689547
 10
233.7397652842
 20
33.6177063572
 10
234.1775287946
 20
33.0321229228
 10
234.695190876
 20
32.5557519531
 10
234.9775816757
 20
32.3631707381
  0
LWPOLYLINE
  5
27F
330
1F
100
AcDbEntity
  8
0
  6
Continuous
 62
     7
370
    18
100
AcDbPolyline
 90
        8
 70
   128
 43
0.0
 10
245.5559184261
 20
50.5030808663
 10
245.0062227642
 20
50.7599905746
 10
244.3203983793
 20
50.9394692265
 10
243.5822447306
 20
50.9947098824
 10
242.8013844707
 20
50.9249945229
 10
241.9879977096
 20
50.7312303754
 10
241.1526880842
 20
50.4159440812
 10
240.3063450395
 20
49.9832462987
  0
LWPOLYLINE
  5
280
330
1F
100
AcDbEntity
  8
0
  6
Continuous
 62
     7
370
    18
100
AcDbPolyline
 90
        8
 70
   128
 43
0.0
 10
209.0168691238
 20
50.9003127947
 10
209.0652649011
 20
49.9509253724
 10
209.209820689
 20
49.0697909279
 10
209.4486523915
 20
48.2683965252
 10
209.7786470688
 20
47.5571897905
 10
210.1955011325
 20
46.9454419307
 10
210.6937822491
 20
46.4411288102
 10
211.1919168394
 20
46.0929423472
  0
LWPOLYLINE
  5
281
330
1F
100
AcDbEntity
  8
0
  6
Continuous
 62
     7
370
    18
100
AcDbPolyline
 90
       22
 70
   128
 43
0.0
 10
221.6910636128
 20
64.2799683007
 10
221.3035832683
 20
64.4728356148
 10
220.6322672774
 20
64.6830702072
 10
219.9063184341
 20
64.7695020045
 10
219.135200023
 20
64.7310038732
 10
218.3289650553
 20
64.5680773459
 10
217.4981239837
 20
64.282847738
 10
216.6535080954
 20
63.8790324355
 10
215.8061282135
 20
63.3618965868
 10
214.9670312986
 20
62.7381809678
 10
214.1471560632
 20
62.0160171087
 10
213.3571910961
 20
61.2048195352
 10
212.6074345517
 20
60.3151637039
 10
211.907660877
 20
59.3586467072
 10
211.266992889
 20
58.3477392805
 10
210.6937822491
 20
57.2956194621
 10
210.1955011325
 20
56.2160032101
 10
209.7786470688
 20
55.1229658929
 10
209.4486523915
 20
54.0307554137
 10
209.209820689
 20
52.9536117966
 10
209.0652649011
 20
51.9055767921
 10
209.0168691238
 20
50.9003127947
  0
LWPOLYLINE
  5
282
330
1F
100
AcDbEntity
  8
0
  6
Continuous
 62
     7
370
    18
100
AcDbPolyline
 90
       20
 70
   128
 43
0.0
 10
241.0134506195
 20
47.9419618052
 10
240.2448567388
 20
47.4412797574
 10
239.488883205
 20
46.8348541604
 10
238.7579429236
 20
46.1326432516
 10
238.0640381975
 20
45.3461769938
 10
237.4185625053
 20
44.4883688791
 10
236.8321147915
 20
43.573304157
 10
236.3143246232
 20
42.6160081004
 10
235.8736941393
 20
41.6322000102
 10
235.5174581097
 20
40.6380335308
 10
235.251466056
 20
39.6498329702
 10
235.0800857747
 20
38.6838244854
 10
235.0061312265
 20
37.7558699277
 10
235.0308161088
 20
36.8812060079
 10
235.153736734
 20
36.0741956264
 10
235.3728726873
 20
35.3480885178
 10
235.6846273282
 20
34.7148085072
 10
236.0838811314
 20
34.1847535041
 10
236.5640779572
 20
33.7666268609
 10
237.0305168004
 20
33.5041901258
  0
LWPOLYLINE
  5
283
330
1F
100
AcDbEntity
  8
0
  6
Continuous
 62
     7
370
    18
100
AcDbPolyline
 90
        8
 70
   128
 43
0.0
 10
245.5140517883
 20
48.1996961189
 10
245.1947864474
 20
48.4009717441
 10
244.6083387336
 20
48.6389383483
 10
243.9628630414
 20
48.7514960919
 10
243.2689583153
 20
48.7367970063
 10
242.5380180339
 20
48.5950822296
 10
241.7820445002
 20
48.3286793633
 10
241.0134506195
 20
47.9419618052
  0
LWPOLYLINE
  5
284
330
1F
100
AcDbEntity
  8
0
  6
Continuous
 62
     7
370
    18
100
AcDbPolyline
 90
       31
 70
   128
 43
0.0
 10
205.4130369874
 20
43.7355062858
 10
205.0446820925
 20
44.2067704256
 10
204.5656989642
 20
44.9971404983
 10
204.1751162165
 20
45.885547616
 10
203.8763510369
 20
46.8642223791
 10
203.6720158713
 20
47.9246051522
 10
203.5638973511
 20
49.0574224933
 10
203.5529404875
 20
50.2527665276
 10
203.6392420868
 20
51.5001838283
 10
203.8220474567
 20
52.7887651507
 10
204.0997576514
 20
54.10724106
 10
204.4699433
 20
55.4440799348
 10
204.9293676564
 20
56.7875907223
 10
205.4740122819
 20
58.1260238875
 10
206.0991139242
 20
59.4476729313
 10
206.7992066637
 20
60.7409808516
 10
207.5681660366
 20
61.9946355771
 10
208.3992683035
 20
63.1976733847
 10
209.2852451085
 20
64.3395735721
 10
210.2183470293
 20
65.4103483766
 10
211.1904140409
 20
66.4006338435
 10
212.1929448274
 20
67.3017701438
 10
213.2171715274
 20
68.1058743814
 10
214.2541366596
 20
68.8059161808
 10
215.2947713665
 20
69.3957719813
 10
216.329974604
 20
69.8702829198
 10
217.3506929082
 20
70.2253001186
 10
218.3479996258
 20
70.4577182574
 10
219.3131723348
 20
70.5655050568
 10
220.2377701411
 20
70.5477170042
 10
220.8497660891
 20
70.4618922924
  0
LWPOLYLINE
  5
285
330
1F
100
AcDbEntity
  8
0
  6
Continuous
 62
     7
370
    18
100
AcDbPolyline
 90
       18
 70
   128
 43
0.0
 10
204.2527368821
 20
49.7828542841
 10
204.3015244934
 20
48.6283275874
 10
204.4474467611
 20
47.540586274
 10
204.6891813278
 20
46.5294804583
 10
205.0245391916
 20
45.6041667945
 10
205.4504838037
 20
44.7730256783
 10
205.9631567519
 20
44.0435833928
 10
206.557915956
 20
43.422446895
 10
207.2293751803
 20
42.9152399331
 10
207.9714534249
 20
42.526557034
 10
208.7774302432
 20
42.2599171099
 10
209.640006657
 20
42.1177355054
 10
210.5513710114
 20
42.1013004174
 10
211.5032697681
 20
42.2107590092
 10
212.4870824148
 20
42.4451218721
 10
213.4938995029
 20
42.8022654889
 10
214.5146031956
 20
43.27895592
 10
215.2992794741
 20
43.7218120487
  0
LWPOLYLINE
  5
286
330
1F
100
AcDbEntity
  8
0
  6
Continuous
 62
     7
370
    18
100
AcDbPolyline
 90
       36
 70
   128
 43
0.0
 10
225.7984264532
 20
61.9088385726
 10
225.8018159818
 20
62.2228728551
 10
225.7530283705
 20
63.3773995517
 10
225.6071061028
 20
64.4651408652
 10
225.365371536
 20
65.4762466808
 10
225.0300136723
 20
66.4015603447
 10
224.6040690601
 20
67.2327014609
 10
224.0913961119
 20
67.9621437463
 10
223.4966369079
 20
68.5832802442
 10
222.8251776836
 20
69.0904872061
 10
222.0830994389
 20
69.4791701052
 10
221.2771226207
 20
69.7458100293
 10
220.4145462069
 20
69.8879916337
 10
219.5031818525
 20
69.9044267218
 10
218.5512830958
 20
69.79496813
 10
217.567470449
 20
69.5606052671
 10
216.5606533609
 20
69.2034616503
 10
215.5399496682
 20
68.7267712192
 10
214.5146031956
 20
68.1348512999
 10
213.4938995029
 20
67.4330623321
 10
212.4870824148
 20
66.6277596823
 10
211.5032697681
 20
65.7262366413
 10
210.5513710114
 20
64.7366563224
 10
209.640006657
 20
63.6679823482
 10
208.7774302432
 20
62.5298912149
 10
207.9714534249
 20
61.332690264
 10
207.2293751803
 20
60.0872220608
 10
206.557915956
 20
58.8047647802
 10
205.9631567519
 20
57.4969339221
 10
205.4504838037
 20
56.17557205
 10
205.0245391916
 20
54.8526457525
 10
204.6891813278
 20
53.5401361409
 10
204.4474467611
 20
52.2499295354
 10
204.3015244934
 20
50.9937099577
 10
204.2527368821
 20
49.7828542841
 10
204.2527368821
 20
49.7828542841
  0
LWPOLYLINE
  5
287
330
1F
100
AcDbEntity
  8
0
  6
Continuous
 62
     7
370
    18
100
AcDbPolyline
 90
       29
 70
   128
 43
0.0
 10
206.1884415354
 20
50.9003127947
 10
206.2368616789
 20
51.9951620751
 10
206.3815913225
 20
53.1339205714
 10
206.6210453496
 20
54.304112088
 10
206.9525988018
 20
55.4929148965
 10
207.3726211231
 20
56.6873052699
 10
207.8765090876
 20
57.874196454
 10
208.4587421165
 20
59.0405850513
 10
209.1129415478
 20
60.1736917013
 10
209.8319397831
 20
61.2611017594
 10
210.6078589837
 20
62.2909016025
 10
211.4321983277
 20
63.2518088502
 10
212.2959262066
 20
64.1332940304
 10
213.1895793357
 20
64.925701673
 10
214.10336664
 20
65.6203483058
 10
215.0272764319
 20
66.2096238703
 10
215.9511862239
 20
66.6870718457
 10
216.8649735281
 20
67.0474615774
 10
217.7586266573
 20
67.2868438754
 10
218.6223545362
 20
67.4025976774
 10
219.4466938802
 20
67.3934523774
 10
220.2226130807
 20
67.2595097744
 10
220.941611316
 20
67.0022374088
 10
221.5958107473
 20
66.6244533447
 10
222.1780437763
 20
66.1302966937
 10
222.6819317407
 20
65.52518217
 10
223.1019540621
 20
64.8157392464
 10
223.4335075143
 20
64.0097399056
 10
223.6682904852
 20
63.138539762
  0
LWPOLYLINE
  5
288
330
1F
100
AcDbEntity
  8
0
  6
Continuous
 62
     7
370
    18
100
AcDbPolyline
 90
       14
 70
   128
 43
0.0
 10
213.1691437118
 20
44.9515132381
 10
212.2959262066
 20
44.7188832638
 10
211.4321983277
 20
44.6031294618
 10
210.6078589837
 20
44.6122747618
 10
209.8319397831
 20
44.7462173648
 10
209.1129415478
 20
45.0034897304
 10
208.4587421165
 20
45.3812737945
 10
207.8765090876
 20
45.8754304455
 10
207.3726211231
 20
46.4805449692
 10
206.9525988018
 20
47.1899878928
 10
206.6210453496
 20
47.9959872336
 10
206.3815913225
 20
48.8897110153
 10
206.2368616789
 20
49.861368222
 10
206.1884415354
 20
50.9003127947
  0
ARC
  5
289
330
1F
100
AcDbEntity
  8
0
  6
Continuous
 62
     7
370
    18
100
AcDbCircle
 10
215.5612441439
 20
53.0895443654
 30
0.0
 40
17.95572678149935
100
AcDbArc
 50
167.4561534803
 51
179.6099872796
  0
LWPOLYLINE
  5
28A
330
1F
100
AcDbEntity
  8
0
  6
Continuous
 62
     7
370
    18
100
AcDbPolyline
 90
       11
 70
   128
 43
0.0
 10
208.6758430696
 20
72.4524256501
 10
208.9948974808
 20
72.6332566789
 10
210.0355160122
 20
73.1493351991
 10
211.0646970248
 20
73.5466563922
 10
212.0733959039
 20
73.8217297267
 10
213.0527487225
 20
73.9721378098
 10
213.9941479749
 20
73.9965572932
 10
214.889321354
 20
73.8947754531
 10
215.7304018873
 20
73.6676850508
 10
216.5099974125
 20
73.3172833751
 10
216.6021370088
 20
73.265323707
  0
LWPOLYLINE
  5
28B
330
1F
100
AcDbEntity
  8
0
  6
Continuous
 62
     7
370
    18
100
AcDbPolyline
 90
       10
 70
   128
 43
0.0
 10
200.8659156943
 20
46.0064353132
 10
200.5934778069
 20
46.1749980849
 10
199.9187686655
 20
46.7042629582
 10
199.3215287243
 20
47.3471713611
 10
198.8070059246
 20
48.0980729423
 10
198.3797218329
 20
48.9503691211
 10
198.0434321286
 20
49.8965705066
 10
197.801091701
 20
50.9283609697
 10
197.6548302828
 20
52.0366735016
 10
197.6059333531
 20
53.2117681631
  0
LWPOLYLINE
  5
28C
330
1F
100
AcDbEntity
  8
0
  6
Continuous
 62
     7
370
    18
100
AcDbPolyline
 90
       13
 70
   128
 43
0.0
 10
202.2300147916
 20
49.8761315354
 10
202.1938007706
 20
50.0575391736
 10
202.0494201555
 20
51.1286125168
 10
202.0082170013
 20
52.2702555356
 10
202.0706246302
 20
53.4704541945
 10
202.2359858147
 20
54.7165782291
 10
202.5025613388
 20
55.9955151053
 10
202.8675458029
 20
57.2938058437
 10
203.3270979169
 20
58.5977885186
 10
203.8763819885
 20
59.8937406506
 10
204.5096173139
 20
61.1680246407
 10
205.2201407399
 20
62.4072311115
 10
206.0004758107
 20
63.5983199666
  0
LWPOLYLINE
  5
28D
330
1F
100
AcDbEntity
  8
0
  6
Continuous
 62
     7
370
    18
100
AcDbPolyline
 90
       16
 70
   128
 43
0.0
 10
202.7418105585
 20
46.9462038344
 10
202.2727885745
 20
47.6930311487
 10
201.882289462
 20
48.5653715789
 10
201.5894353778
 20
49.533886003
 10
201.3971989919
 20
50.5887419274
 10
201.3075322303
 20
51.7192307107
 10
201.3213452013
 20
52.9138755517
 10
201.4384976351
 20
54.1605484112
 10
201.6578002003
 20
55.4465928268
 10
201.9770270163
 20
56.7589533804
 10
202.3929367272
 20
58.0843068763
 10
202.9013074042
 20
59.4091980801
 10
203.4969773753
 20
60.7201764087
 10
204.1739005434
 20
62.0039339484
 10
204.9252036795
 20
63.2474362499
 10
205.7432608382
 20
64.4380618656
  0
ARC
  5
28E
330
1F
100
AcDbEntity
  8
0
  6
Continuous
 62
     7
370
    18
100
AcDbCircle
 10
218.8263894434
 20
56.6551897652
 30
0.0
 40
14.3534936083723
100
AcDbArc
 50
109.931969941
 51
139.4246766989
  0
LWPOLYLINE
  5
28F
330
1F
100
AcDbEntity
  8
0
  6
Continuous
 62
     7
370
    18
100
AcDbPolyline
 90
       12
 70
   128
 43
0.0
 10
207.0874538997
 20
66.1102253829
 10
207.9997984976
 20
67.0809609603
 10
208.9451269558
 20
67.9665033479
 10
209.9145321304
 20
68.7585090121
 10
210.8988806266
 20
69.4495159837
 10
211.8888982443
 20
70.0330144774
 10
212.8752572768
 20
70.5035056532
 10
213.8486643441
 20
70.8565568846
 10
214.7999485141
 20
71.0888427436
 10
215.7201465846
 20
71.1981737005
 10
216.6005893109
 20
71.1835208069
 10
216.72641741
 20
71.1708784719
  0
LINE
  5
290
330
1F
100
AcDbEntity
  8
0
  6
Continuous
 62
     7
370
    18
100
AcDbLine
 10
193.1195691396
 20
63.5843757619
 30
0.0
 11
193.4257330669
 21
63.213640706
 31
0.0
  0
LINE
  5
291
330
1F
100
AcDbEntity
  8
0
  6
Continuous
 62
     7
370
    18
100
AcDbLine
 10
193.1195691396
 20
55.8202656142
 30
0.0
 11
193.4257330669
 21
56.5077990827
 31
0.0
  0
LINE
  5
292
330
1F
100
AcDbEntity
  8
0
  6
Continuous
 62
     7
370
    18
100
AcDbLine
 10
194.1616433836
 20
56.9326310658
 30
0.0
 11
193.4257403108
 21
56.5078032646
 31
0.0
  0
LINE
  5
293
330
1F
100
AcDbEntity
  8
0
  6
Continuous
 62
     7
370
    18
100
AcDbLine
 10
194.0950678266
 20
57.6758570335
 30
0.0
 11
192.7857963925
 21
56.9200307228
 31
0.0
  0
LINE
  5
294
330
1F
100
AcDbEntity
  8
0
  6
Continuous
 62
     7
370
    18
100
AcDbLine
 10
189.6087175609
 20
58.4944396825
 30
0.0
 11
189.3122302867
 21
57.9983780647
 31
0.0
  0
LINE
  5
295
330
1F
100
AcDbEntity
  8
0
  6
Continuous
 62
     7
370
    18
100
AcDbLine
 10
191.4405351717
 20
59.5519254801
 30
0.0
 11
189.608778147
 21
58.4944746581
 31
0.0
  0
LINE
  5
296
330
1F
100
AcDbEntity
  8
0
  6
Continuous
 62
     7
370
    18
100
AcDbLine
 10
191.4405351717
 20
59.5519254801
 30
0.0
 11
191.5618453263
 21
59.4901749667
 31
0.0
  0
OLE2FRAME
  5
297
330
1F
100
AcDbEntity
  8
0
100
AcDbOle2Frame
 70
     2
  3
Paintbrush-Bild
 10
13.8511154363
 20
38.264191557
 30
0.0
 11
51.6290888628
 21
31.9806341108
 31
0.0
 71
     2
 72
     0
 73
     1
 90
    12928
310
80552BED0767C5B32B40DDAF6807D121434000000000000000006FFBDDFB85D0
310
4940DDAF6807D121434000000000000000006FFBDDFB85D04940416F4BD60AFB
310
3F4000000000000000002BED0767C5B32B40416F4BD60AFB3F40000000000000
310
0000000000000100000000010000010000000100000000000100000000320000
310
D0CF11E0A1B11AE1000000000000000000000000000000003E000300FEFF0900
310
0600000000000000000000000100000001000000000000000010000002000000
310
01000000FEFFFFFF0000000000000000FFFFFFFFFFFFFFFFFFFFFFFFFFFFFFFF
310
FFFFFFFFFFFFFFFFFFFFFFFFFFFFFFFFFFFFFFFFFFFFFFFFFFFFFFFFFFFFFFFF
310
FFFFFFFFFFFFFFFFFFFFFFFFFFFFFFFFFFFFFFFFFFFFFFFFFFFFFFFFFFFFFFFF
310
FFFFFFFFFFFFFFFFFFFFFFFFFFFFFFFFFFFFFFFFFFFFFFFFFFFFFFFFFFFFFFFF
310
FFFFFFFFFFFFFFFFFFFFFFFFFFFFFFFFFFFFFFFFFFFFFFFFFFFFFFFFFFFFFFFF
310
FFFFFFFFFFFFFFFFFFFFFFFFFFFFFFFFFFFFFFFFFFFFFFFFFFFFFFFFFFFFFFFF
310
FFFFFFFFFFFFFFFFFFFFFFFFFFFFFFFFFFFFFFFFFFFFFFFFFFFFFFFFFFFFFFFF
310
FFFFFFFFFFFFFFFFFFFFFFFFFFFFFFFFFFFFFFFFFFFFFFFFFFFFFFFFFFFFFFFF
310
FFFFFFFFFFFFFFFFFFFFFFFFFFFFFFFFFFFFFFFFFFFFFFFFFFFFFFFFFFFFFFFF
310
FFFFFFFFFFFFFFFFFFFFFFFFFFFFFFFFFFFFFFFFFFFFFFFFFFFFFFFFFFFFFFFF
310
FFFFFFFFFFFFFFFFFFFFFFFFFFFFFFFFFFFFFFFFFFFFFFFFFFFFFFFFFFFFFFFF
310
FFFFFFFFFFFFFFFFFFFFFFFFFFFFFFFFFFFFFFFFFFFFFFFFFFFFFFFFFFFFFFFF
310
FFFFFFFFFFFFFFFFFFFFFFFFFFFFFFFFFFFFFFFFFFFFFFFFFFFFFFFFFFFFFFFF
310
FFFFFFFFFFFFFFFFFFFFFFFFFFFFFFFFFFFFFFFFFFFFFFFFFFFFFFFFFFFFFFFF
310
FDFFFFFFFEFFFFFFFEFFFFFFFEFFFFFF05000000060000000700000008000000
310
090000000A0000000B0000000C0000000D0000000E0000000F00000010000000
310
11000000120000001300000014000000150000001600000017000000FEFFFFFF
310
FFFFFFFFFFFFFFFFFFFFFFFFFFFFFFFFFFFFFFFFFFFFFFFFFFFFFFFFFFFFFFFF
310
FFFFFFFFFFFFFFFFFFFFFFFFFFFFFFFFFFFFFFFFFFFFFFFFFFFFFFFFFFFFFFFF
310
FFFFFFFFFFFFFFFFFFFFFFFFFFFFFFFFFFFFFFFFFFFFFFFFFFFFFFFFFFFFFFFF
310
FFFFFFFFFFFFFFFFFFFFFFFFFFFFFFFFFFFFFFFFFFFFFFFFFFFFFFFFFFFFFFFF
310
FFFFFFFFFFFFFFFFFFFFFFFFFFFFFFFFFFFFFFFFFFFFFFFFFFFFFFFFFFFFFFFF
310
FFFFFFFFFFFFFFFFFFFFFFFFFFFFFFFFFFFFFFFFFFFFFFFFFFFFFFFFFFFFFFFF
310
FFFFFFFFFFFFFFFFFFFFFFFFFFFFFFFFFFFFFFFFFFFFFFFFFFFFFFFFFFFFFFFF
310
FFFFFFFFFFFFFFFFFFFFFFFFFFFFFFFFFFFFFFFFFFFFFFFFFFFFFFFFFFFFFFFF
310
FFFFFFFFFFFFFFFFFFFFFFFFFFFFFFFFFFFFFFFFFFFFFFFFFFFFFFFFFFFFFFFF
310
FFFFFFFFFFFFFFFFFFFFFFFFFFFFFFFFFFFFFFFFFFFFFFFFFFFFFFFFFFFFFFFF
310
FFFFFFFFFFFFFFFFFFFFFFFFFFFFFFFFFFFFFFFFFFFFFFFFFFFFFFFFFFFFFFFF
310
FFFFFFFFFFFFFFFFFFFFFFFFFFFFFFFFFFFFFFFFFFFFFFFFFFFFFFFFFFFFFFFF
310
FFFFFFFFFFFFFFFFFFFFFFFFFFFFFFFFFFFFFFFFFFFFFFFFFFFFFFFFFFFFFFFF
310
52006F006F007400200045006E00740072007900000000000000000000000000
310
0000000000000000000000000000000000000000000000000000000000000000
310
16000500FFFFFFFFFFFFFFFF020000000A00030000000000C000000000000046
310
000000000000000000000000800F794A26A7D30103000000C000000000000000
310
01004F006C006500000000000000000000000000000000000000000000000000
310
0000000000000000000000000000000000000000000000000000000000000000
310
0A000200FFFFFFFFFFFFFFFFFFFFFFFF00000000000000000000000000000000
310
0000000000000000000000000000000000000000000000001400000000000000
310
010043006F006D0070004F0062006A0000000000000000000000000000000000
310
0000000000000000000000000000000000000000000000000000000000000000
310
120002010100000003000000FFFFFFFF00000000000000000000000000000000
310
0000000000000000000000000000000000000000010000004D00000000000000
310
01004F006C006500310030004E00610074006900760065000000000000000000
310
0000000000000000000000000000000000000000000000000000000000000000
310
1A000200FFFFFFFFFFFFFFFFFFFFFFFF00000000000000000000000000000000
310
0000000000000000000000000000000000000000040000002426000000000000
310
FEFFFFFF02000000FEFFFFFFFFFFFFFFFFFFFFFFFFFFFFFFFFFFFFFFFFFFFFFF
310
FFFFFFFFFFFFFFFFFFFFFFFFFFFFFFFFFFFFFFFFFFFFFFFFFFFFFFFFFFFFFFFF
310
FFFFFFFFFFFFFFFFFFFFFFFFFFFFFFFFFFFFFFFFFFFFFFFFFFFFFFFFFFFFFFFF
310
FFFFFFFFFFFFFFFFFFFFFFFFFFFFFFFFFFFFFFFFFFFFFFFFFFFFFFFFFFFFFFFF
310
FFFFFFFFFFFFFFFFFFFFFFFFFFFFFFFFFFFFFFFFFFFFFFFFFFFFFFFFFFFFFFFF
310
FFFFFFFFFFFFFFFFFFFFFFFFFFFFFFFFFFFFFFFFFFFFFFFFFFFFFFFFFFFFFFFF
310
FFFFFFFFFFFFFFFFFFFFFFFFFFFFFFFFFFFFFFFFFFFFFFFFFFFFFFFFFFFFFFFF
310
FFFFFFFFFFFFFFFFFFFFFFFFFFFFFFFFFFFFFFFFFFFFFFFFFFFFFFFFFFFFFFFF
310
FFFFFFFFFFFFFFFFFFFFFFFFFFFFFFFFFFFFFFFFFFFFFFFFFFFFFFFFFFFFFFFF
310
FFFFFFFFFFFFFFFFFFFFFFFFFFFFFFFFFFFFFFFFFFFFFFFFFFFFFFFFFFFFFFFF
310
FFFFFFFFFFFFFFFFFFFFFFFFFFFFFFFFFFFFFFFFFFFFFFFFFFFFFFFFFFFFFFFF
310
FFFFFFFFFFFFFFFFFFFFFFFFFFFFFFFFFFFFFFFFFFFFFFFFFFFFFFFFFFFFFFFF
310
FFFFFFFFFFFFFFFFFFFFFFFFFFFFFFFFFFFFFFFFFFFFFFFFFFFFFFFFFFFFFFFF
310
FFFFFFFFFFFFFFFFFFFFFFFFFFFFFFFFFFFFFFFFFFFFFFFFFFFFFFFFFFFFFFFF
310
FFFFFFFFFFFFFFFFFFFFFFFFFFFFFFFFFFFFFFFFFFFFFFFFFFFFFFFFFFFFFFFF
310
FFFFFFFFFFFFFFFFFFFFFFFFFFFFFFFFFFFFFFFFFFFFFFFFFFFFFFFFFFFFFFFF
310
0100000200000000000000000000000000000000000000000000000000000000
310
0000000000000000000000000000000000000000000000000000000000000000
310
0100FEFF030A0000FFFFFFFF0A00030000000000C00000000000004607000000
310
5042727573680007000000504272757368000700000050427275736800F439B2
310
7100000000000000000000000000000000000000000000000000000000000000
310
0000000000000000000000000000000000000000000000000000000000000000
310
0000000000000000000000000000000000000000000000000000000000000000
310
0000000000000000000000000000000000000000000000000000000000000000
310
0000000000000000000000000000000000000000000000000000000000000000
310
0000000000000000000000000000000000000000000000000000000000000000
310
0000000000000000000000000000000000000000000000000000000000000000
310
0000000000000000000000000000000000000000000000000000000000000000
310
0000000000000000000000000000000000000000000000000000000000000000
310
0000000000000000000000000000000000000000000000000000000000000000
310
0000000000000000000000000000000000000000000000000000000000000000
310
0000000000000000000000000000000000000000000000000000000000000000
310
20260000424D0E260000000000003E00000028000000B40200006E0000000100
310
01000000000000000000130B0000130B00000200000002000000000000FFFFFF
310
FFFFFFFFFFFFFFFFFFFFFFFFFFFFFFFFFFFFFFFFFFFFFFFFFFFFFFFFFFFFFFFF
310
FFFFFFFFFFFFFFFFFFFFFFFFFFFFFFFFFFFFFFFFFFFFFFFFFFFFFFFFFFFFFFFF
310
FFFFFFFFFFFFFFFFFFFFFFFFFFFFFFFFFFFFFFFFFFFFFFFFF000FFFFFFFFFFFF
310
FFFFFFFFFFFFFFFFFFFFFFFFFFFFFFFFFFFFFFFFFFFFFFFFFFFFFFFFFFFFFFFF
310
FFFFFFFFFFFFFFFFFFFFFFFFFFFFFFFFFFFFFFFFFFFFFFFFFFFFFFFFFFFFFFFF
310
FFFFFFFFFFFFFFFFFFFFFFFFFFFFFFFFF000FFFFFFFFFFFFFFFFFFFFFFFFFFFF
310
FFFFFFFFFFFFFFFFFFFFFFFFFFFFFFFFFFFFFFFFFFFFFFFFFFFFFFFFFFFFFFFF
310
FFFFFFFFFFFFFFFFFFFFFFFFFFFFFFFFFFFFFFFFFFFFFFFFFFFFFFFFFFFFFFFF
310
FFFFFFFFFFFFFFFFF000FFFFFFFFFFFFFFFFFFFFFFFFFFFFFFFFFFFFFFFFFFFF
310
FFFFFFFFFFFFFFFFFFFFFFFFFFFFFFFFFFFFFFFFFFFFFFFFFFFFFFFFFFFFFFFF
310
FFFFFFFFFFFFFFFFFFFFFFFFFFFFFFFFFFFFFFFFFFFFFFFFFFFFFFFFFFFFFFFF
310
F000FFFFFFFFFFFFFFFFFFFFFFFFFFFFFFFFFFFFFFFFFFFFFFFFFFFFFFFFFFFF
310
FFFFFFFFFFFFFFFFFFFFFFFFFFFFFFFFFFFFFFFFFFFFFFFFFFFFFFFFFFFFFFFF
310
FFFFFFFFFFFFFFFFFFFFFFFFFFFFFFFFFFFFFFFFFFFFFFFFF000FFFFFFFFFFFF
310
FFFFFFFFFFFFFFFFFFFFFFFFFFFFFFFFFFFFFFFFFFFFFFFFFFFFFFFFFFFFFFFF
310
FFFFFFFFFFFFFFFFFFFFFFFFFFFFFFFFFFFFFFFFFFFFFFFFFFFFFFFFFFFFFFFF
310
FFFFFFFFFFFFFFFFFFFFFFFFFFFFFFFFF000FFFFFFFFFFFFFFFFFFFFFFFFFFFF
310
FFFFFFFFFFFFFFFFFFFFFFFFFFFFFFFFFFFFFFFFFFFFFFFFFFFFFFFFFFFFFFFF
310
FFFFFFFFFFFFFFFFFFFFFFFFFFFFFFFFFFFFFFFFFFFFFFFFFFFFFFFFFFFFFFFF
310
FFFFFFFFFFFFFFFFF000FFFFFFFFFFFFFFFFFFFFFFFFFFFFFFFFFFFFFFFFFFFF
310
FFFFFFFFFFFFFFFFFFFFFFFFFFFFFFFFFFFFFFFFFFFFFFFFFFFFFFFFFFFFFFFF
310
FFFFFFFFFFFFFFFFFFFFFFFFFFFFFFFFFFFFFFFFFFFFFFFFFFFFFFFFFFFFFFFF
310
F000FFFFFFFFFFFFFFFFFFFFFFFFFFFFFFFFFFFFFFFFFFFFFFFFFFFFFFFFFFFF
310
FFFFFFFFFFFFFFFFFFFFFFFFFFFFFFFFFFFFFFFFFFFFFFFFFFFFFFFFFFFFFFFF
310
FFFFFFFFFFFFFFFFFFFFFFFFFFFFFFFFFFFFFFFFFFFFFFFFF000FFFFFFFFFFFF
310
FFFFFFFFFFFFFFFFFFFFFFFFFFFFFFFFFFFFFFFFFFFFFFFFFFFFFFFFFFFFFFFF
310
FFFFFFFFFFFFFFFFFFFFFFFFFFFFFFFFFFFFFFFFFFFFFFFFFFFFFFFFFFFFFFFF
310
FFFFFFFFFFFFFFFFFFFFFFFFFFFFFFFFF000FFFFFFFFFFFFFFFFFFFFFFFFFFFF
310
FFFFFFFFFFFFFFFFFFFFFFFFFFFFFFFFFFFFFFFFFFFFFFFFFFFFFFFFFFFFFFFF
310
FFFFFFFFFFFFFFFFFFFFFFFFFFFFFFFFFFFFFFFFFFFFFFFFFFFFFFFFFFFFFFFF
310
FFFFFFFFFFFFFFFFF000FFFFFFFFFFFFFFFFFFFFFFFFFFFFFFFFFFFFFFFFFFFF
310
FFFFFFFFFFFFFFFFFFFFFFFFFFFFFFFFFFFFFFFFFFFFFFFFFFFFFFFFFFFFFFFF
310
FFFFFFFFFFFFFFFFFFFFFFFFFFFFFFFFFFFFFFFFFFFFFFFFFFFFFFFFFFFFFFFF
310
F000FFFFFFFFFFFFFFFFFFFFFFFFFFFFFFFFFFFFFFFFFFFFFFFFFFFFFFFFFFFF
310
FFFFFFFFFFFFFFFFFFFFFFFFFFFFFFFFFFFFFFFFFFFFFFFFFFFFFFFFFFFFFFFF
310
FFFFFFFFFFFFFFFFFFFFFFFFFFFFFFFFFFFFFFFFFFFFFFFFF000FFFFFFFFFFFF
310
FFFFFFFFFFFFFFFFFFFFFFFFFFFFFFFFFFFFFFFFFFFFFFFFFFFFFFFFFFFFFFFF
310
FFFFFFFFFFFFFFFFFFFFFFFFFFFFFFFFFFFFFFFFFFFFFFFFFFFFFFFFFFFFFFFF
310
FFFFFFFFFFFFFFFFFFFFFFFFFFFFFFFFF000FFFFFFFFFFFFFFFFFFFFFFFFFFFF
310
FFFFFFFFFFFFFFFFFFFFFFFFFFFFFFFFFFFFFFFFFFFFFFFFFFFFFFFFFFFFFFFF
310
FFFFFFFFFFFFFFFFFFFFFFFFFFFFFFFFFFFFFFFFFFFFFFFFFFFFFFFFFFFFFFFF
310
FFFFFFFFFFFFFFFFF000FFFFFFFFFFFFFFFFFFFFFFFFFFFFFFFFFFFFFFFFFFFF
310
FFFFFFFFFFFFFFFFFFFFFFFFFFFFFFFFFFFFFFFFFFFFFFFFFFFFFFFFFFFFFFFF
310
FFFFFFFFFFFFFFFFFFFFFFFFFFFFFFFFFFFFFFFFFFFFFFFFFFFFFFFFFFFFFFFF
310
F000FFFFFFFFFFFFFFFFFFFFFFFFFFFFFFFFFFFFFFFFFFFFFFFFFFFFFFFFFFFF
310
FFFFFFFFFFFFFFFFFFFFFFFFFFFFFFFFFFFFFFFFFFFFFFFFFFFFFFFFFFFFFFFF
310
FFFFFFFFFFFFFFFFFFFFFFFFFFFFFFFFFFFFFFFFFFFFFFFFF000FFFFFFFFFFFF
310
FFFFFFFFFFFFFFFFFFFFFFFFFFFFFFFFFFFFFFFFFFFFFFFFFFFFFFFFFFFFFFFF
310
FFFFFFFFFFFFFFFFFFFFFFFFFFFFFFFFFFFFFFFFFFFFFFFFFFFFFFFFFFFFFFFF
310
FFFFFFFFFFFFFFFFFFFFFFFFFFFFFFFFF000FFFFFFFFFFFFFFFFFFFFFFFFFFFF
310
FFFFFFFFFFFFFFFFFFFFFFFFFFFFFFFFFFFFFFFFFFFFFFFFFFFFFFFFFFFFFFFF
310
FFFFFFFFFFFFFFFFFFFFFFFFFFFFFFFFFFFFFFFFFFFFFFFFFFFFFFFFFFFFFFFF
310
FFFFFFFFFFFFFFFFF000FFFFF80003FFFFFFFFFFFFFFFFFFFFFFFFFFFFFFFFFF
310
FFFFF00007FFFFFFFFFF00007FFFFFF800000000000000007FFFFFFFFFFFFFFF
310
FFFFFFFC001FFFFFFFFFFFFFFC001FFFFFFFFFFFFFFFFFFFFFFFFFFE0007FFFF
310
F000FFFF8000007FFFFFFFF8000FFFFFC0007FFFFF80007FFFFF0000007FFFFF
310
FFF8000007FFFFF800000000000000007FFFFFF0001FFFFFFFFFFFC00001FFFF
310
FFFFFFFFC00001FFFFFFFF000000000003FFFFE000007FFFF000FFFE0000000F
310
FFFFFFF0000FFFFF80007FFFFF80007FFFFC0000001FFFFFFFC0000001FFFFF8
310
00000000000000007FFFFFF0001FFFFFFFFFFE0000003FFFFFFFFFFE0000003F
310
FFFFFF000000000003FFFF0000000FFFF000FFF800000003FFFFFFF00007FFFF
310
80007FFFFF80007FFFF000000007FFFFFF000000003FFFF80000000000000000
310
7FFFFFF0001FFFFFFFFFF80000000FFFFFFFFFF80000000FFFFFFF0000000000
310
03FFFC00000003FFF000FFE000000000FFFFFFF00007FFFF80003FFFFF80007F
310
FFC000000001FFFFFC000000001FFFF800000000000000007FFFFFF0001FFFFF
310
FFFFE000000003FFFFFFFFE000000003FFFFFF000000000003FFF000000000FF
310
F000FF80000000007FFFFFF00007FFFF80003FFFFF80007FFF8000000000FFFF
310
F80000000007FFF800000000000000007FFFFFF0001FFFFFFFFFC000000001FF
310
FFFFFFC000000001FFFFFF000000000003FFC0000000007FF000FF0000000000
310
3FFFFFE00007FFFF00003FFFFF80007FFE00000000003FFFF00000000003FFF8
310
00000000000000007FFFFFF0001FFFFFFFFF8000000000FFFFFFFF8000000000
310
FFFFFF000000000003FF80000000003FF000FE00000000001FFFFFE00003FFFF
310
00003FFFFF80007FFC00000000001FFFE00000000001FFF8000001FFFE000000
310
7FFFFFF0001FFFFFFFFE00000000003FFFFFFE00000000003FFFFF0000000000
310
03FF00000000001FF000FC00000000000FFFFFE00003FFFF00001FFFFF80007F
310
F800000000001FFFC00000000000FFF8000001FFFE0000007FFFFFF0001FFFFF
310
FFFC00000000001FFFFFFC00000000001FFFFF000000000003FE00000000000F
310
F000F8000000000007FFFFE00003FFFF00001FFFFF80007FF800000000000FFF
310
800000000000FFF8000001FFFE0000007FFFFFF0001FFFFFFFF800000000000F
310
FFFFF800000000000FFFFF000000000003FC000000000007F000F80000000000
310
03FFFFC00003FFFE00001FFFFF80007FF0000000000007FF0000000000007FF8
310
000001FFFE0000007FFFFFF0001FFFFFFFF0000000000007FFFFF00000000000
310
07FFFF000000000003F8000000000003F000F0000000000003FFFFC00001FFFE
310
00001FFFFF80007FE0000000000007FE0000000000003FF8000001FFFE000000
310
7FFFFFF0001FFFFFFFF0000000000007FFFFF0000000000007FFFF0000000000
310
03F800001F800003F000E00001FFF00001FFFFC00001FFFE00000FFFFF80007F
310
E00001FFE00003FE00001FFF00003FF8000001FFFE0000007FFFFFF0001FFFFF
310
FFE000003E000003FFFFE000003E000003FFFF000000000003F00001FFF80001
310
F000E00007FFFC0001FFFFC00001FFFE00000FFFFF80007FC0000FFFFC0003FC
310
0000FFFFC0001FF8000001FFFE0000007FFFFFF0001FFFFFFFC00003FFE00001
310
FFFFC00003FFE00001FFFF0001FFFFFFFFF00007FFFE0001F000E0000FFFFF00
310
00FFFF800001FFFC00000FFFFF80007FC0001FFFFE0001FC0001FFFFE0001FF8
310
000001FFFE0000007FFFFFF0001FFFFFFF80000FFFF80000FFFF80000FFFF800
310
00FFFF0003FFFFFFFFE0000FFFFF8000F000C0003FFFFF8000FFFF800000FFFC
310
000007FFFF80007F80003FFFFF0001FC0003FFFFF0001FF8000001FFFE000000
310
7FFFFFF0001FFFFFFF80003FFFFE0000FFFF80003FFFFE0000FFFF0003FFFFFF
310
FFE0003FFFFF8000F000C0003FFFFF8000FFFF800000FFFC000007FFFF80007F
310
80007FFFFF8001F80007FFFFF8000FF8000001FFFE0000007FFFFFF0001FFFFF
310
FF00007FFFFF00007FFF00007FFFFF00007FFF0003FFFFFFFFE0003FFFFFC000
310
F000C0007FFFFFC000FFFF000000FFFC000007FFFF80007F8000FFFFFF8000F8
310
000FFFFFF8000FF8000001FFFE0000007FFFFFF0001FFFFFFF0000FFFFFF8000
310
7FFF0000FFFFFF80007FFF0003FFFFFFFFC0007FFFFFC00070008000FFFFFFC0
310
00FFFF000000FFF8000007FFFF80007F8000FFFFFF8000F8000FFFFFF8000FF8
310
000001FFFE0000007FFFFFF0001FFFFFFE0001FFFFFFC0003FFE0001FFFFFFC0
310
003FFF0003FFFFFFFFC0007FFFFFE00070008000FFFFFFC0007FFF0000007FF8
310
000003FFFF80007F0001FFFFFF8000F8000FFFFFF8000FF8000001FFFE000000
310
7FFFFFF0001FFFFFFE0001FFFFFFC0003FFE0001FFFFFFC0003FFF0003FFFFFF
310
FFC000FFFFFFE00070008000FFFFFFC0007FFF0000007FF8000003FFFF80007F
310
0001FFFFFF8000F8001FFFFFF8000FF8000001FFFE0000007FFFFFF0001FFFFF
310
FE0003FFFFFFE0003FFE0003FFFFFFE0003FFF0003FFFFFFFFC000FFFFFFE000
310
70008000FFFFFFC0007FFE0000007FF8000003FFFF80007F0001FFFFFF8000F0
310
001FFFFFF8000FF8000001FFFE0000007FFFFFF0001FFFFFFC0003FFFFFFE000
310
1FFC0003FFFFFFE0001FFF0003FFFFFFFFC000FFFFFFC00070008000FFFFFF80
310
007FFE0000007FF0000003FFFF80007F0001FFFFFF0000F0001FFFFFF8000FF8
310
000001FFFE0000007FFFFFF0001FFFFFFC0007FFFFFFF0001FFC0007FFFFFFF0
310
001FFF0003FFFFFFFFC000FFFFFFC00070008001FFFFFF0000FFFE0000003FF0
310
000001FFFF80007F0001FFFFFF0000F8001FFFFFF0000FF8000001FFFE000000
310
7FFFFFF0001FFFFFFC0007FFFFFFF0001FFC0007FFFFFFF0001FFF0003FFFFFF
310
FFC001FFFFFF80007000FFFFFFFFFE0000FFFE0008003FF0008001FFFF80007F
310
FFFFFFFFFC0000FFFFFFFFFFE0000FF8000001FFFE0000007FFFFFF0001FFFFF
310
F8000FFFFFFFF8000FF8000FFFFFFFF8000FFF0003FFFFFFFFFFFFFFFFFF0000
310
7000FFFFFFFFFC0000FFFC0008003FF0008001FFFF80007FFFFFFFFFF80001FF
310
FFFFFFFF80000FF8000001FFFE0000007FFFFFF0001FFFFFF8000FFFFFFFF800
310
0FF8000FFFFFFFF8000FFF0003FFFFFFFFFFFFFFFFFE0000F000FFFFFFFFE000
310
00FFFC000C003FE000C001FFFF80007FFFFFFFFFC00001FFFFFFFFFE00001FF8
310
000001FFFE0000007FFFFFF0001FFFFFF8000FFFFFFFF8000FF8000FFFFFFFF8
310
000FFF0003FFFFFFFFFFFFFFFFF00000F000FFFFFFFE000001FFFC000C001FE0
310
00C000FFFF80007FFFFFFFFE000001FFFFFFFFE000001FF80FFFFFFFFFFFFFC0
310
7FFFFFF0001FFFFFF8000FFFFFFFF8000FF8000FFFFFFFF8000FFF0003FFFFFF
310
FFFFFFFFFF800000F000FFFFFFC0000001FFFC001C001FE001C000FFFF80007F
310
FFFFFF80000003FFFFFFF80000001FF80FFFFFFFFFFFFFC07FFFFFF0001FFFFF
310
F8001FFFFFFFFC000FF8001FFFFFFFFC000FFF0003FFFFFFFFFFFFFFF0000001
310
F000FFFFF800000001FFF8001C001FE001C000FFFF80007FFFFFF800000003FF
310
FFFF800000003FF80FFFFFFFFFFFFFC07FFFFFF0001FFFFFF8001FFFFFFFFC00
310
0FF8001FFFFFFFFC000FFF0003FFFFFFFFFFFFFE00000001F000FFFFC0000000
310
03FFF8001E001FC001E000FFFF80007FFFFF8000000007FFFFFC000000003FF8
310
0FFFFFFFFFFFFFC07FFFFFF0001FFFFFF8001FFFFFFFFC000FF8001FFFFFFFFC
310
000FFF0003FFFFFFFFFFFFE000000003F000FFFE0000000007FFF8001E000FC0
310
01E0007FFF80007FFFFE0000000007FFFFE0000000007FF80FFFFFFFFFFFFFC0
310
7FFFFFF0001FFFFFF0001FFFFFFFFC0007F0001FFFFFFFFC0007FF0003FFFFFF
310
FFFFFF0000000003F000FFF80000000007FFF8001E000FC003E0007FFF80007F
310
FFF0000000000FFFFF8000000000FFF80FFFFFFFFFFFFFC07FFFFFF0001FFFFF
310
F0001FFFFFFFFC0007F0001FFFFFFFFC0007FF0003FFFFFFFFFFFC0000000007
310
F000FFE0000000000FFFF0003E000FC003E0007FFF80007FFFC0000000001FFF
310
FE0000000001FFF80FFFFFFFFFFFFFC07FFFFFF0001FFFFFF0001FFFFFFFFC00
310
07F0001FFFFFFFFC0007FF0003FFFFFFFFFFF0000000000FF000FFC000000000
310
1FFFF0003F000F8003F0003FFF80007FFF80000000003FFFF80000000003FFF8
310
0FFFFFFFFFFFFFC07FFFFFF0001FFFFFF0001FFFFFFFFC0007F0001FFFFFFFFC
310
0007FF0003FFFFFFFFFFE0000000001FF000FF00000000007FFFF0003F000780
310
03F0003FFF80007FFF00000000007FFFF00000000007FFF80FFFFFFFFFFFFFC0
310
7FFFFFF0001FFFFFF0001FFFFFFFFC0007F0001FFFFFFFFC0007FF0003FFFFFF
310
FFFF80000000007FF000FE0000000000FFFFE0003F00078007F0003FFF80007F
310
FE0000000001FFFFE0000000001FFFF80FFFFFFFFFFFFFC07FFFFFF0001FFFFF
310
F0001FFFFFFFFC0007F0001FFFFFFFFC0007FF0003FFFFFFFFFF0000000000FF
310
F000FC0000000003FFFFE0007F00078007F0003FFF80007FFC0000000007FFFF
310
C0000000007FFFF80FFFFFFFFFFFFFC07FFFFFF0001FFFFFF8001FFFFFFFFC00
310
0FF8001FFFFFFFFC000FFF0003FFFFFFFFFE0000000003FFF000FC000000000F
310
FFFFE0007F80070007F8001FFF80007FF8000000001FFFFF8000000001FFFFF8
310
0FFFFFFFFFFFFFC07FFFFFF0001FFFFFF8001FFFFFFFFC000FF8001FFFFFFFFC
310
000FFF0003FFFFFFFFFC000000000FFFF000F8000000007FFFFFE0007F800700
310
07F8001FFF80007FF000000000FFFFFF800000000FFFFFF80FFFFFFFFFFFFFC0
310
7FFFFFF0001FFFFFF8000FFFFFFFF8000FF8000FFFFFFFF8000FFF0003FFFFFF
310
FFFC000000007FFFF000F800000007FFFFFFC0007F8003000FF8001FFF80007F
310
F000000007FFFFFF000000007FFFFFF80FFFFFFFFFFFFFC07FFFFFF0001FFFFF
310
F8000FFFFFFFF8000FF8000FFFFFFFF8000FFF0003FFFFFFFFF80000000FFFFF
310
F000F0000000FFFFFFFFC000FF8003000FF8001FFF80007FE0000000FFFFFFFF
310
0000000FFFFFFFF8000001FFFE0000007FFFFFF0001FFFFFF8000FFFFFFFF800
310
0FF8000FFFFFFFF8000FFF0003FFFFFFFFF8000000FFFFFFF000F000000FFFFF
310
FFFFC000FFC002000FF8000FFF80007FE000001FFFFFFFFE000001FFFFFFFFF8
310
000001FFFE0000007FFFFFF0001FFFFFF8000FFFFFFFF8000FF8000FFFFFFFF8
310
000FFF0003FFFFFFFFF000001FFFFFFFF000E00000FFFFFFFFFFC000FFC00200
310
0FFC000FFF80007FE00001FFFFFFFFFE00001FFFFFFFFFF8000001FFFE000000
310
7FFFFFF0001FFFFFFC000FFFFFFFF8001FFC000FFFFFFFF8001FFF0003FFFFFF
310
FFF00001FFFFFFFFF000E00007FFFFFFFFFF8000FFC000001FFC000FFF80007F
310
C0000FFFFFFFFFFE0000FFFFFFFFFFF8000001FFFE0000007FFFFFF0001FFFFF
310
FC0007FFFFFFF0001FFC0007FFFFFFF0001FFF0003FFFFFFFFF00007FFFFFFFF
310
F000E0001FFFFFFFFFFF8000FFC000001FFC000FFF80007FC0003FFFFFFFFFFE
310
0001FFFFFFFFFFF8000001FFFE0000007FFFFFF0001FFFFFFC0007FFFFFFF000
310
1FFC0007FFFFFFF0001FFF0003FFFFFFFFF0001FFFFFFFFFF000E0003FFFFF00
310
03FF8001FFE000001FFC0007FF80007FC0007FFFFF0007FC0003FFFFF0003FF8
310
000001FFFE0000007FFFFFF0001FFFFFFC0003FFFFFFE0001FFC0003FFFFFFE0
310
001FFF0003FFFFFFFFF0003FFFFFFFFFF000E0003FFFFF0001FF8001FFE00000
310
1FFE0007FF80007FC0007FFFFE0003FC0007FFFFE0003FF8000001FFFE000000
310
7FFFFFF0001FFFFFFE0003FFFFFFE0003FFE0003FFFFFFE0003FFF0003FFFFFF
310
FFF0003FFFFF8001F000E0003FFFFF0001FF0001FFE000001FFE0007FF80007F
310
C0007FFFFE0003FC0007FFFFE0003FF8000001FFFE0000007FFFFFF0001FFFFF
310
FE0001FFFFFFC0003FFE0001FFFFFFC0003FFF0003FFFFFFFFF0003FFFFF0001
310
F000E0003FFFFF0003FF0001FFE000003FFE0007FF80007FC0007FFFFE0003FC
310
0007FFFFE0003FF8000001FFFE0000007FFFFFF0001FFFFFFF0001FFFFFFC000
310
7FFF0001FFFFFFC0007FFF0003FFFFFFFFF0003FFFFF0001F000E0003FFFFE00
310
03FF0003FFF000003FFE0003FF80007FC0007FFFFC0003FE0007FFFFE0003FF8
310
000001FFFE0000007FFFFFF0001FFFFFFF0000FFFFFF80007FFF0000FFFFFF80
310
007FFF0003FFFFFFFFF0003FFFFF0001F000E0003FFFFE0003FF0003FFF00000
310
3FFF0003FF80007FC0007FFFFC0007FE0007FFFFC0003FF8000001FFFE000000
310
7FFFFFF0001FFFFFFF80007FFFFF0000FFFF80007FFFFF0000FFFF0003FFFFFF
310
FFF0003FFFFF0003F000E0003FFFFC0003FE0003FFF000003FFF0003FF80007F
310
E0003FFFF80007FE0003FFFFC0007FF8000001FFFE0000007FFFFFF0001FFFFF
310
FF80003FFFFE0000FFFF80003FFFFE0000FFFF0003FFFFFFFFF0001FFFFE0003
310
F000F0001FFFF80003FE0003FFF000007FFF0001FF80007FE0003FFFF00007FE
310
0001FFFF80007FF8000001FFFE0000007FFFFFF0001FFFFFFFC0000FFFF80001
310
FFFFC0000FFFF80001FFFF0003FFFFFFFFF0001FFFFC0003F000F0000FFFF000
310
07FE0007FFF800007FFF0001FF80007FE0001FFFE00007FF0000FFFE00007FF8
310
000001FFFE0000007FFFFFF0001FFFFFFFC00003FFE00001FFFFC00003FFE000
310
01FFFF0003FFFFFFFFF8000FFFF80003F000F00003FFC00007FC0007FFF80000
310
7FFF8001FF80007FF00007FF80000FFF00007FF80000FFF8000001FFFE000000
310
7F80000000000001FFE000003E000003FFFFE000003E000003FFFF0003FFFFFF
310
FFF80003FFE00007F000F800000000000FFC0007FFF800007FFF8001FF80007F
310
F000000000000FFF000000000000FFF8000001FFFE0000007F80000000000001
310
FFF0000000000007FFFFF0000000000007FFFF0003FFFFFFFFFC00007E000007
310
F000F800000000000FFC0007FFF80000FFFF8000FF80007FF800000000001FFF
310
800000000001FFF8000001FFFE0000007F80000000000001FFF800000000000F
310
FFFFF800000000000FFFFF0003FFFFFFFFFC00000000000FF000FC0000000000
310
1FFC0007FFFC0000FFFF8000FF80007FF800000000003FFFC00000000001FFF8
310
000001FFFE0000007F80000000000001FFF800000000000FFFFFF80000000000
310
0FFFFF0003FFFFFFFFFE00000000001FF000FE00000000003FF8000FFFFC0000
310
FFFF8000FF80007FFC00000000003FFFC00000000003FFF8000001FFFE000000
310
7F80000000000001FFFC00000000001FFFFFFC00000000001FFFFF0003FFFFFF
310
FFFF00000000001FF000FF00000000003FF8000FFFFC0000FFFFC000FF80007F
310
FE00000000007FFFE00000000007FFF8000001FFFE0000007F80000000000001
310
FFFE00000000003FFFFFFE00000000003FFFFF0003FFFFFFFFFF80000000003F
310
F000FF80000000007FF8000FFFFC0001FFFFC0007F80007FFF0000000000FFFF
310
F0000000000FFFF800000000000000007F80000000000001FFFF8000000000FF
310
FFFFFF8000000000FFFFFF0003FFFFFFFFFFC0000000007FF000FFC000000000
310
FFF8000FFFFE0001FFFFC0007F80007FFF8000000001FFFFF8000000001FFFF8
310
00000000000000007F80000000000001FFFFC000000001FFFFFFFFC000000001
310
FFFFFF0003FFFFFFFFFFE000000000FFF000FFE000000003FFF0001FFFFE0001
310
FFFFC0007F80007FFFC000000007FFFFFE000000003FFFF80000000000000000
310
7F80000000000001FFFFE000000003FFFFFFFFE000000003FFFFFF0003FFFFFF
310
FFFFF000000003FFF000FFF80000000FFFF0001FFFFE0001FFFFE0007F80007F
310
FFF00000000FFFFFFF00000000FFFFF800000000000000007F80000000000001
310
FFFFF80000000FFFFFFFFFF80000000FFFFFFF0003FFFFFFFFFFFC0000000FFF
310
F000FFFE0000003FFFF0001FFFFE0003FFFFE0003F80007FFFFC0000003FFFFF
310
FFC0000003FFFFF800000000000000007F80000000000001FFFFFE0000003FFF
310
FFFFFFFE0000003FFFFFFF0003FFFFFFFFFFFF0000003FFFF000FFFF800000FF
310
FFF0001FFFFF0003FFFFE0003F80007FFFFF000001FFFFFFFFF800001FFFFFF8
310
00000000000000007F80000000000001FFFFFFC00001FFFFFFFFFFFFC00001FF
310
FFFFFF0003FFFFFFFFFFFFC00000FFFFF000FFFFF8000FFFFFFFFFFFFFFFFFFF
310
FFFFFFFFFFFFFFFFFFFFF0001FFFFFFFFFFF0000FFFFFFF80000000000000000
310
7FFFFFFFFFFFFFFFFFFFFFFC001FFFFFFFFFFFFFFC001FFFFFFFFFFFFFFFFFFF
310
FFFFFFFC001FFFFFF000FFFFFFFFFFFFFFFFFFFFFFFFFFFFFFFFFFFFFFFFFFFF
310
FFFFFFFFFFFFFFFFFFFFFFFFFFFFFFFFFFFFFFFFFFFFFFFFFFFFFFFFFFFFFFFF
310
FFFFFFFFFFFFFFFFFFFFFFFFFFFFFFFFFFFFFFFFFFFFFFFFFFFFFFFFFFFFFFFF
310
F000FFFFFFFFFFFFFFFFFFFFFFFFFFFFFFFFFFFFFFFFFFFFFFFFFFFFFFFFFFFF
310
FFFFFFFFFFFFFFFFFFFFFFFFFFFFFFFFFFFFFFFFFFFFFFFFFFFFFFFFFFFFFFFF
310
FFFFFFFFFFFFFFFFFFFFFFFFFFFFFFFFFFFFFFFFFFFFFFFFF000FFFFFFFFFFFF
310
FFFFFFFFFFFFFFFFFFFFFFFFFFFFFFFFFFFFFFFFFFFFFFFFFFFFFFFFFFFFFFFF
310
FFFFFFFFFFFFFFFFFFFFFFFFFFFFFFFFFFFFFFFFFFFFFFFFFFFFFFFFFFFFFFFF
310
FFFFFFFFFFFFFFFFFFFFFFFFFFFFFFFFF000FFFFFFFFFFFFFFFFFFFFFFFFFFFF
310
FFFFFFFFFFFFFFFFFFFFFFFFFFFFFFFFFFFFFFFFFFFFFFFFFFFFFFFFFFFFFFFF
310
FFFFFFFFFFFFFFFFFFFFFFFFFFFFFFFFFFFFFFFFFFFFFFFFFFFFFFFFFFFFFFFF
310
FFFFFFFFFFFFFFFFF000FFFFFFFFFFFFFFFFFFFFFFFFFFFFFFFFFFFFFFFFFFFF
310
FFFFFFFFFFFFFFFFFFFFFFFFFFFFFFFFFFFFFFFFFFFFFFFFFFFFFFFFFFFFFFFF
310
FFFFFFFFFFFFFFFFFFFFFFFFFFFFFFFFFFFFFFFFFFFFFFFFFFFFFFFFFFFFFFFF
310
F000FFFFFFFFFFFFFFFFFFFFFFFFFFFFFFFFFFFFFFFFFFFFFFFFFFFFFFFFFFFF
310
FFFFFFFFFFFFFFFFFFFFFFFFFFFFFFFFFFFFFFFFFFFFFFFFFFFFFFFFFFFFFFFF
310
FFFFFFFFFFFFFFFFFFFFFFFFFFFFFFFFFFFFFFFFFFFFFFFFF000FFFFFFFFFFFF
310
FFFFFFFFFFFFFFFFFFFFFFFFFFFFFFFFFFFFFFFFFFFFFFFFFFFFFFFFFFFFFFFF
310
FFFFFFFFFFFFFFFFFFFFFFFFFFFFFFFFFFFFFFFFFFFFFFFFFFFFFFFFFFFFFFFF
310
FFFFFFFFFFFFFFFFFFFFFFFFFFFFFFFFF000FFFFFFFFFFFFFFFFFFFFFFFFFFFF
310
FFFFFFFFFFFFFFFFFFFFFFFFFFFFFFFFFFFFFFFFFFFFFFFFFFFFFFFFFFFFFFFF
310
FFFFFFFFFFFFFFFFFFFFFFFFFFFFFFFFFFFFFFFFFFFFFFFFFFFFFFFFFFFFFFFF
310
FFFFFFFFFFFFFFFFF000FFFFFFFFFFFFFFFFFFFFFFFFFFFFFFFFFFFFFFFFFFFF
310
FFFFFFFFFFFFFFFFFFFFFFFFFFFFFFFFFFFFFFFFFFFFFFFFFFFFFFFFFFFFFFFF
310
FFFFFFFFFFFFFFFFFFFFFFFFFFFFFFFFFFFFFFFFFFFFFFFFFFFFFFFFFFFFFFFF
310
F000FFFFFFFFFFFFFFFFFFFFFFFFFFFFFFFFFFFFFFFFFFFFFFFFFFFFFFFFFFFF
310
FFFFFFFFFFFFFFFFFFFFFFFFFFFFFFFFFFFFFFFFFFFFFFFFFFFFFFFFFFFFFFFF
310
FFFFFFFFFFFFFFFFFFFFFFFFFFFFFFFFFFFFFFFFFFFFFFFFF000FFFFFFFFFFFF
310
FFFFFFFFFFFFFFFFFFFFFFFFFFFFFFFFFFFFFFFFFFFFFFFFFFFFFFFFFFFFFFFF
310
FFFFFFFFFFFFFFFFFFFFFFFFFFFFFFFFFFFFFFFFFFFFFFFFFFFFFFFFFFFFFFFF
310
FFFFFFFFFFFFFFFFFFFFFFFFFFFFFFFFF000FFFFFFFFFFFFFFFFFFFFFFFFFFFF
310
FFFFFFFFFFFFFFFFFFFFFFFFFFFFFFFFFFFFFFFFFFFFFFFFFFFFFFFFFFFFFFFF
310
FFFFFFFFFFFFFFFFFFFFFFFFFFFFFFFFFFFFFFFFFFFFFFFFFFFFFFFFFFFFFFFF
310
FFFFFFFFFFFFFFFFF000FFFFFFFFFFFFFFFFFFFFFFFFFFFFFFFFFFFFFFFFFFFF
310
FFFFFFFFFFFFFFFFFFFFFFFFFFFFFFFFFFFFFFFFFFFFFFFFFFFFFFFFFFFFFFFF
310
FFFFFFFFFFFFFFFFFFFFFFFFFFFFFFFFFFFFFFFFFFFFFFFFFFFFFFFFFFFFFFFF
310
F000FFFFFFFFFFFFFFFFFFFFFFFFFFFFFFFFFFFFFFFFFFFFFFFFFFFFFFFFFFFF
310
FFFFFFFFFFFFFFFFFFFFFFFFFFFFFFFFFFFFFFFFFFFFFFFFFFFFFFFFFFFFFFFF
310
FFFFFFFFFFFFFFFFFFFFFFFFFFFFFFFFFFFFFFFFFFFFFFFFF000FFFFFFFFFFFF
310
FFFFFFFFFFFFFFFFFFFFFFFFFFFFFFFFFFFFFFFFFFFFFFFFFFFFFFFFFFFFFFFF
310
FFFFFFFFFFFFFFFFFFFFFFFFFFFFFFFFFFFFFFFFFFFFFFFFFFFFFFFFFFFFFFFF
310
FFFFFFFFFFFFFFFFFFFFFFFFFFFFFFFFF000FFFFFFFFFFFFFFFFFFFFFFFFFFFF
310
FFFFFFFFFFFFFFFFFFFFFFFFFFFFFFFFFFFFFFFFFFFFFFFFFFFFFFFFFFFFFFFF
310
FFFFFFFFFFFFFFFFFFFFFFFFFFFFFFFFFFFFFFFFFFFFFFFFFFFFFFFFFFFFFFFF
310
FFFFFFFFFFFFFFFFF000FFFFFFFFFFFFFFFFFFFFFFFFFFFFFFFFFFFFFFFFFFFF
310
FFFFFFFFFFFFFFFFFFFFFFFFFFFFFFFFFFFFFFFFFFFFFFFFFFFFFFFFFFFFFFFF
310
FFFFFFFFFFFFFFFFFFFFFFFFFFFFFFFFFFFFFFFFFFFFFFFFFFFFFFFFFFFFFFFF
310
F000FFFFFFFFFFFFFFFFFFFFFFFFFFFFFFFFFFFFFFFFFFFFFFFFFFFFFFFFFFFF
310
FFFFFFFFFFFFFFFFFFFFFFFFFFFFFFFFFFFFFFFFFFFFFFFFFFFFFFFFFFFFFFFF
310
FFFFFFFFFFFFFFFFFFFFFFFFFFFFFFFFFFFFFFFFFFFFFFFFF000FFFFFFFFFFFF
310
FFFFFFFFFFFFFFFFFFFFFFFFFFFFFFFFFFFFFFFFFFFFFFFFFFFFFFFFFFFFFFFF
310
FFFFFFFFFFFFFFFFFFFFFFFFFFFFFFFFFFFFFFFFFFFFFFFFFFFFFFFFFFFFFFFF
310
FFFFFFFFFFFFFFFFFFFFFFFFFFFFFFFFF000FFFFFFFFFFFFFFFFFFFFFFFFFFFF
310
FFFFFFFFFFFFFFFFFFFFFFFFFFFFFFFFFFFFFFFFFFFFFFFFFFFFFFFFFFFFFFFF
310
FFFFFFFFFFFFFFFFFFFFFFFFFFFFFFFFFFFFFFFFFFFFFFFFFFFFFFFFFFFFFFFF
310
FFFFFFFFFFFFFFFFF000FFFFFFFFFFFFFFFFFFFFFFFFFFFFFFFFFFFFFFFFFFFF
310
FFFFFFFFFFFFFFFFFFFFFFFFFFFFFFFFFFFFFFFFFFFFFFFFFFFFFFFFFFFFFFFF
310
FFFFFFFFFFFFFFFFFFFFFFFFFFFFFFFFFFFFFFFFFFFFFFFFFFFFFFFFFFFFFFFF
310
F000FFFFFFFFFFFFFFFFFFFFFFFFFFFFFFFFFFFFFFFFFFFFFFFFFFFFFFFFFFFF
310
FFFFFFFFFFFFFFFFFFFFFFFFFFFFFFFFFFFFFFFFFFFFFFFFFFFFFFFFFFFFFFFF
310
FFFFFFFFFFFFFFFFFFFFFFFFFFFFFFFFFFFFFFFFFFFFFFFFF000FFFFFFFFFFFF
310
FFFFFFFFFFFFFFFFFFFFFFFFFFFFFFFFFFFFFFFFFFFFFFFFFFFFFFFFFFFFFFFF
310
FFFFFFFFFFFFFFFFFFFFFFFFFFFFFFFFFFFFFFFFFFFFFFFFFFFFFFFFFFFFFFFF
310
FFFFFFFFFFFFFFFFFFFFFFFFFFFFFFFFF0000000000000000000000000000000
310
0000000000000000000000000000000000000000000000000000000000000000
310
0000000000000000000000000000000000000000000000000000000000000000
310
0000000000000000000000000000000000000000000000000000000000000000
310
0000000000000000000000000000000000000000000000000000000000000000
310
0000000000000000000000000000000000000000000000000000000000000000
310
0000000000000000000000000000000000000000000000000000000000000000
310
0000000000000000000000000000000000000000000000000000000000000000
310
0000000000000000000000000000000000000000000000000000000000000000
310
0000000000000000000000000000000000000000000000000000000000000000
310
0000000000000000000000000000000000000000000000000000000000000000
310
0000000000000000000000000000000000000000000000000000000000000000
310
0000000000000000000000000000000000000000000000000000000000000000
310
0000000000000000000000000000000000000000000000000000000000000000
310
0000000000000000000000000000000000000000000000000000000000000000
310
0000000000000000000000000000000000000000000000000000000000000000
  1
OLE
  0
ENDSEC
  0
SECTION
  2
OBJECTS
  0
DICTIONARY
  5
C
330
0
100
AcDbDictionary
281
     1
  3
ACAD_GROUP
350
D
  3
ACAD_LAYOUT
350
1A
  3
ACAD_MLINESTYLE
350
17
  3
ACAD_PLOTSETTINGS
350
19
  3
ACAD_PLOTSTYLENAME
350
E
  3
ACAD_SCALELIST
350
47
  0
DICTIONARY
  5
D
102
{ACAD_REACTORS
330
C
102
}
330
C
100
AcDbDictionary
281
     1
  0
DICTIONARY
  5
1A
102
{ACAD_REACTORS
330
C
102
}
330
C
100
AcDbDictionary
281
     1
  3
Layout1
350
1E
  3
Layout2
350
26
  3
Model
350
22
  0
DICTIONARY
  5
17
102
{ACAD_REACTORS
330
C
102
}
330
C
100
AcDbDictionary
281
     1
  3
Standard
350
18
  0
DICTIONARY
  5
19
102
{ACAD_REACTORS
330
C
102
}
330
C
100
AcDbDictionary
281
     1
  0
ACDBDICTIONARYWDFLT
  5
E
102
{ACAD_REACTORS
330
C
102
}
330
C
100
AcDbDictionary
281
     1
  3
Normal
350
F
100
AcDbDictionaryWithDefault
340
F
  0
DICTIONARY
  5
47
102
{ACAD_REACTORS
330
C
102
}
330
C
100
AcDbDictionary
281
     1
  3
A0
350
48
  3
A1
350
49
  3
A2
350
4A
  3
A3
350
4B
  3
A4
350
4C
  3
A5
350
4D
  3
A6
350
4E
  3
A7
350
4F
  3
A8
350
50
  3
A9
350
51
  3
B0
350
52
  3
B1
350
53
  3
B2
350
54
  3
B3
350
55
  3
B4
350
56
  3
B5
350
57
  3
B6
350
58
  3
B7
350
59
  3
B8
350
5A
  3
B9
350
5B
  3
C0
350
5C
  3
C1
350
5D
  3
C2
350
5E
  3
C3
350
5F
  3
C4
350
60
  3
C5
350
61
  3
C6
350
62
  3
C7
350
63
  3
C8
350
64
  3
C9
350
65
  3
D0
350
66
  3
D1
350
67
  3
D2
350
68
  0
LAYOUT
  5
1E
102
{ACAD_REACTORS
330
1A
102
}
330
1A
100
AcDbPlotSettings
  1

  2
none_device
  4

  6

 40
0.0
 41
0.0
 42
0.0
 43
0.0
 44
0.0
 45
0.0
 46
0.0
 47
0.0
 48
0.0
 49
0.0
140
0.0
141
0.0
142
1.0
143
1.0
 70
   688
 72
     1
 73
     0
 74
     5
  7

 75
    16
147
1.0
148
0.0
149
0.0
100
AcDbLayout
  1
Layout1
 70
     1
 71
     1
 10
0.0
 20
0.0
 11
420.0
 21
297.0
 12
0.0
 22
0.0
 32
0.0
 14
1.0000000000E+20
 24
1.0000000000E+20
 34
1.0000000000E+20
 15
-1.0000000000E+20
 25
-1.0000000000E+20
 35
-1.0000000000E+20
146
0.0
 13
0.0
 23
0.0
 33
0.0
 16
1.0
 26
0.0
 36
0.0
 17
0.0
 27
1.0
 37
0.0
 76
     0
330
1B
  0
LAYOUT
  5
26
102
{ACAD_REACTORS
330
1A
102
}
330
1A
100
AcDbPlotSettings
  1

  2
none_device
  4

  6

 40
0.0
 41
0.0
 42
0.0
 43
0.0
 44
0.0
 45
0.0
 46
0.0
 47
0.0
 48
0.0
 49
0.0
140
0.0
141
0.0
142
1.0
143
1.0
 70
   688
 72
     1
 73
     0
 74
     5
  7

 75
    16
147
1.0
148
0.0
149
0.0
100
AcDbLayout
  1
Layout2
 70
     1
 71
     2
 10
0.0
 20
0.0
 11
0.0
 21
0.0
 12
0.0
 22
0.0
 32
0.0
 14
0.0
 24
0.0
 34
0.0
 15
0.0
 25
0.0
 35
0.0
146
0.0
 13
0.0
 23
0.0
 33
0.0
 16
1.0
 26
0.0
 36
0.0
 17
0.0
 27
1.0
 37
0.0
 76
     0
330
23
  0
LAYOUT
  5
22
102
{ACAD_REACTORS
330
1A
102
}
330
1A
100
AcDbPlotSettings
  1

  2
none_device
  4
Letter_(8.50_x_11.00_Inches)
  6

 40
6.35
 41
6.35
 42
6.35000508
 43
6.35000508
 44
215.9
 45
279.4
 46
0.0
 47
0.0
 48
0.0
 49
0.0
140
0.0
141
0.0
142
1.0
143
1.0
 70
  1712
 72
     1
 73
     0
 74
     0
  7

 75
     0
147
1.0
148
0.0
149
0.0
100
AcDbLayout
  1
Model
 70
     1
 71
     0
 10
0.0
 20
0.0
 11
297.0
 21
210.0
 12
0.0
 22
0.0
 32
0.0
 14
0.0
 24
0.0
 34
0.0
 15
297.0
 25
210.0
 35
0.0
146
0.0
 13
0.0
 23
0.0
 33
0.0
 16
1.0
 26
0.0
 36
0.0
 17
0.0
 27
1.0
 37
0.0
 76
     0
330
1F
331
29
  0
MLINESTYLE
  5
18
102
{ACAD_REACTORS
330
17
102
}
330
17
100
AcDbMlineStyle
  2
Standard
 70
     0
  3

 62
   256
 51
90.0
 52
90.0
 71
     2
 49
0.5
 62
   256
  6
BYLAYER
 49
-0.5
 62
   256
  6
BYLAYER
  0
ACDBPLACEHOLDER
  5
F
102
{ACAD_REACTORS
330
E
102
}
330
E
  0
SCALE
  5
48
102
{ACAD_REACTORS
330
47
102
}
330
47
100
AcDbScale
 70
     0
300
1:1
140
1.0
141
1.0
290
     1
  0
SCALE
  5
49
102
{ACAD_REACTORS
330
47
102
}
330
47
100
AcDbScale
 70
     0
300
1:2
140
1.0
141
2.0
290
     0
  0
SCALE
  5
4A
102
{ACAD_REACTORS
330
47
102
}
330
47
100
AcDbScale
 70
     0
300
1:4
140
1.0
141
4.0
290
     0
  0
SCALE
  5
4B
102
{ACAD_REACTORS
330
47
102
}
330
47
100
AcDbScale
 70
     0
300
1:5
140
1.0
141
5.0
290
     0
  0
SCALE
  5
4C
102
{ACAD_REACTORS
330
47
102
}
330
47
100
AcDbScale
 70
     0
300
1:8
140
1.0
141
8.0
290
     0
  0
SCALE
  5
4D
102
{ACAD_REACTORS
330
47
102
}
330
47
100
AcDbScale
 70
     0
300
1:10
140
1.0
141
10.0
290
     0
  0
SCALE
  5
4E
102
{ACAD_REACTORS
330
47
102
}
330
47
100
AcDbScale
 70
     0
300
1:16
140
1.0
141
16.0
290
     0
  0
SCALE
  5
4F
102
{ACAD_REACTORS
330
47
102
}
330
47
100
AcDbScale
 70
     0
300
1:20
140
1.0
141
20.0
290
     0
  0
SCALE
  5
50
102
{ACAD_REACTORS
330
47
102
}
330
47
100
AcDbScale
 70
     0
300
1:30
140
1.0
141
30.0
290
     0
  0
SCALE
  5
51
102
{ACAD_REACTORS
330
47
102
}
330
47
100
AcDbScale
 70
     0
300
1:40
140
1.0
141
40.0
290
     0
  0
SCALE
  5
52
102
{ACAD_REACTORS
330
47
102
}
330
47
100
AcDbScale
 70
     0
300
1:50
140
1.0
141
50.0
290
     0
  0
SCALE
  5
53
102
{ACAD_REACTORS
330
47
102
}
330
47
100
AcDbScale
 70
     0
300
1:100
140
1.0
141
100.0
290
     0
  0
SCALE
  5
54
102
{ACAD_REACTORS
330
47
102
}
330
47
100
AcDbScale
 70
     0
300
2:1
140
2.0
141
1.0
290
     0
  0
SCALE
  5
55
102
{ACAD_REACTORS
330
47
102
}
330
47
100
AcDbScale
 70
     0
300
4:1
140
4.0
141
1.0
290
     0
  0
SCALE
  5
56
102
{ACAD_REACTORS
330
47
102
}
330
47
100
AcDbScale
 70
     0
300
8:1
140
8.0
141
1.0
290
     0
  0
SCALE
  5
57
102
{ACAD_REACTORS
330
47
102
}
330
47
100
AcDbScale
 70
     0
300
10:1
140
10.0
141
1.0
290
     0
  0
SCALE
  5
58
102
{ACAD_REACTORS
330
47
102
}
330
47
100
AcDbScale
 70
     0
300
100:1
140
100.0
141
1.0
290
     0
  0
SCALE
  5
59
102
{ACAD_REACTORS
330
47
102
}
330
47
100
AcDbScale
 70
     0
300
1/128" = 1'-0"
140
0.0078125
141
12.0
290
     0
  0
SCALE
  5
5A
102
{ACAD_REACTORS
330
47
102
}
330
47
100
AcDbScale
 70
     0
300
1/64" = 1'-0"
140
0.015625
141
12.0
290
     0
  0
SCALE
  5
5B
102
{ACAD_REACTORS
330
47
102
}
330
47
100
AcDbScale
 70
     0
300
1/32" = 1'-0"
140
0.03125
141
12.0
290
     0
  0
SCALE
  5
5C
102
{ACAD_REACTORS
330
47
102
}
330
47
100
AcDbScale
 70
     0
300
1/16" = 1'-0"
140
0.0625
141
12.0
290
     0
  0
SCALE
  5
5D
102
{ACAD_REACTORS
330
47
102
}
330
47
100
AcDbScale
 70
     0
300
3/32" = 1'-0"
140
0.09375
141
12.0
290
     0
  0
SCALE
  5
5E
102
{ACAD_REACTORS
330
47
102
}
330
47
100
AcDbScale
 70
     0
300
1/8" = 1'-0"
140
0.125
141
12.0
290
     0
  0
SCALE
  5
5F
102
{ACAD_REACTORS
330
47
102
}
330
47
100
AcDbScale
 70
     0
300
3/16" = 1'-0"
140
0.1875
141
12.0
290
     0
  0
SCALE
  5
60
102
{ACAD_REACTORS
330
47
102
}
330
47
100
AcDbScale
 70
     0
300
1/4" = 1'-0"
140
0.25
141
12.0
290
     0
  0
SCALE
  5
61
102
{ACAD_REACTORS
330
47
102
}
330
47
100
AcDbScale
 70
     0
300
3/8" = 1'-0"
140
0.375
141
12.0
290
     0
  0
SCALE
  5
62
102
{ACAD_REACTORS
330
47
102
}
330
47
100
AcDbScale
 70
     0
300
1/2" = 1'-0"
140
0.5
141
12.0
290
     0
  0
SCALE
  5
63
102
{ACAD_REACTORS
330
47
102
}
330
47
100
AcDbScale
 70
     0
300
3/4" = 1'-0"
140
0.75
141
12.0
290
     0
  0
SCALE
  5
64
102
{ACAD_REACTORS
330
47
102
}
330
47
100
AcDbScale
 70
     0
300
1" = 1'-0"
140
1.0
141
12.0
290
     0
  0
SCALE
  5
65
102
{ACAD_REACTORS
330
47
102
}
330
47
100
AcDbScale
 70
     0
300
1-1/2" = 1'-0"
140
1.5
141
12.0
290
     0
  0
SCALE
  5
66
102
{ACAD_REACTORS
330
47
102
}
330
47
100
AcDbScale
 70
     0
300
3" = 1'-0"
140
3.0
141
12.0
290
     0
  0
SCALE
  5
67
102
{ACAD_REACTORS
330
47
102
}
330
47
100
AcDbScale
 70
     0
300
6" = 1'-0"
140
6.0
141
12.0
290
     0
  0
SCALE
  5
68
102
{ACAD_REACTORS
330
47
102
}
330
47
100
AcDbScale
 70
     0
300
1'-0" = 1'-0"
140
12.0
141
12.0
290
     0
  0
ENDSEC
  0
EOF
