  0
SECTION
  2
HEADER
  9
$ACADVER
  1
AC1015
  9
$ACADMAINTVER
 70
     6
  9
$DWGCODEPAGE
  3
ANSI_1252
  9
$INSBASE
 10
0.0
 20
0.0
 30
0.0
  9
$EXTMIN
 10
0.0
 20
0.0
 30
0.0
  9
$EXTMAX
 10
297.0
 20
210.0
 30
0.0
  9
$LIMMIN
 10
0.0
 20
0.0
  9
$LIMMAX
 10
297.0
 20
210.0
  9
$ORTHOMODE
 70
     0
  9
$REGENMODE
 70
     1
  9
$FILLMODE
 70
     1
  9
$QTEXTMODE
 70
     0
  9
$MIRRTEXT
 70
     1
  9
$LTSCALE
 40
1.0
  9
$ATTMODE
 70
     1
  9
$TEXTSIZE
 40
2.0
  9
$TRACEWID
 40
1.0
  9
$TEXTSTYLE
  7
Standard
  9
$CLAYER
  8
0
  9
$CELTYPE
  6
ByLayer
  9
$CECOLOR
 62
   256
  9
$CELTSCALE
 40
1.0
  9
$DISPSILH
 70
     0
  9
$DIMSCALE
 40
1.0
  9
$DIMASZ
 40
3.0
  9
$DIMEXO
 40
0.0
  9
$DIMDLI
 40
3.75
  9
$DIMRND
 40
0.0
  9
$DIMDLE
 40
0.0
  9
$DIMEXE
 40
1.0
  9
$DIMTP
 40
0.0
  9
$DIMTM
 40
0.0
  9
$DIMTXT
 40
2.0
  9
$DIMCEN
 40
2.5
  9
$DIMTSZ
 40
0.0
  9
$DIMTOL
 70
     0
  9
$DIMLIM
 70
     0
  9
$DIMTIH
 70
     1
  9
$DIMTOH
 70
     1
  9
$DIMSE1
 70
     0
  9
$DIMSE2
 70
     0
  9
$DIMTAD
 70
     1
  9
$DIMZIN
 70
     0
  9
$DIMBLK
  1

  9
$DIMASO
 70
     1
  9
$DIMSHO
 70
     1
  9
$DIMPOST
  1

  9
$DIMAPOST
  1

  9
$DIMALT
 70
     0
  9
$DIMALTD
 70
     3
  9
$DIMALTF
 40
0.0393700787
  9
$DIMLFAC
 40
1.0
  9
$DIMTOFL
 70
     1
  9
$DIMTVP
 40
0.0
  9
$DIMTIX
 70
     0
  9
$DIMSOXD
 70
     0
  9
$DIMSAH
 70
     0
  9
$DIMBLK1
  1

  9
$DIMBLK2
  1

  9
$DIMSTYLE
  2
ISO-25
  9
$DIMCLRD
 70
     0
  9
$DIMCLRE
 70
     0
  9
$DIMCLRT
 70
     0
  9
$DIMTFAC
 40
1.0
  9
$DIMGAP
 40
1.524
  9
$DIMJUST
 70
     0
  9
$DIMSD1
 70
     0
  9
$DIMSD2
 70
     0
  9
$DIMTOLJ
 70
     0
  9
$DIMTZIN
 70
     0
  9
$DIMALTZ
 70
     0
  9
$DIMALTTZ
 70
     0
  9
$DIMUPT
 70
     0
  9
$DIMDEC
 70
     2
  9
$DIMTDEC
 70
     3
  9
$DIMALTU
 70
     2
  9
$DIMALTTD
 70
     3
  9
$DIMTXSTY
  7
Standard
  9
$DIMAUNIT
 70
     0
  9
$DIMADEC
 70
     2
  9
$DIMALTRND
 40
0.0
  9
$DIMAZIN
 70
     0
  9
$DIMDSEP
 70
    44
  9
$DIMATFIT
 70
     3
  9
$DIMFRAC
 70
     0
  9
$DIMLDRBLK
  1

  9
$DIMLUNIT
 70
     2
  9
$DIMLWD
 70
    -2
  9
$DIMLWE
 70
    -2
  9
$DIMTMOVE
 70
     0
  9
$LUNITS
 70
     2
  9
$LUPREC
 70
     2
  9
$SKETCHINC
 40
1.0
  9
$FILLETRAD
 40
10.0
  9
$AUNITS
 70
     0
  9
$AUPREC
 70
     2
  9
$MENU
  1
.
  9
$ELEVATION
 40
0.0
  9
$PELEVATION
 40
0.0
  9
$THICKNESS
 40
0.0
  9
$LIMCHECK
 70
     0
  9
$CHAMFERA
 40
0.0
  9
$CHAMFERB
 40
0.0
  9
$CHAMFERC
 40
0.0
  9
$CHAMFERD
 40
0.0
  9
$SKPOLY
 70
     0
  9
$TDCREATE
 40
2457577.685378611
  9
$TDUCREATE
 40
2457577.602045278
  9
$TDUPDATE
 40
2457577.685380324
  9
$TDUUPDATE
 40
2457577.602046991
  9
$TDINDWG
 40
0.0000000116
  9
$TDUSRTIMER
 40
0.0000000116
  9
$USRTIMER
 70
     1
  9
$ANGBASE
 50
0.0
  9
$ANGDIR
 70
     0
  9
$PDMODE
 70
     0
  9
$PDSIZE
 40
-1.0
  9
$PLINEWID
 40
0.0
  9
$SPLFRAME
 70
     0
  9
$SPLINETYPE
 70
     6
  9
$SPLINESEGS
 70
     8
  9
$HANDSEED
  5
2D8
  9
$SURFTAB1
 70
     6
  9
$SURFTAB2
 70
     6
  9
$SURFTYPE
 70
     6
  9
$SURFU
 70
     6
  9
$SURFV
 70
     6
  9
$UCSBASE
  2

  9
$UCSNAME
  2

  9
$UCSORG
 10
0.0
 20
0.0
 30
0.0
  9
$UCSXDIR
 10
1.0
 20
0.0
 30
0.0
  9
$UCSYDIR
 10
0.0
 20
1.0
 30
0.0
  9
$UCSORTHOREF
  2

  9
$UCSORTHOVIEW
 70
     0
  9
$UCSORGTOP
 10
0.0
 20
0.0
 30
0.0
  9
$UCSORGBOTTOM
 10
0.0
 20
0.0
 30
0.0
  9
$UCSORGLEFT
 10
0.0
 20
0.0
 30
0.0
  9
$UCSORGRIGHT
 10
0.0
 20
0.0
 30
0.0
  9
$UCSORGFRONT
 10
0.0
 20
0.0
 30
0.0
  9
$UCSORGBACK
 10
0.0
 20
0.0
 30
0.0
  9
$PUCSBASE
  2

  9
$PUCSNAME
  2

  9
$PUCSORG
 10
0.0
 20
0.0
 30
0.0
  9
$PUCSXDIR
 10
1.0
 20
0.0
 30
0.0
  9
$PUCSYDIR
 10
0.0
 20
1.0
 30
0.0
  9
$PUCSORTHOREF
  2

  9
$PUCSORTHOVIEW
 70
     0
  9
$PUCSORGTOP
 10
0.0
 20
0.0
 30
0.0
  9
$PUCSORGBOTTOM
 10
0.0
 20
0.0
 30
0.0
  9
$PUCSORGLEFT
 10
0.0
 20
0.0
 30
0.0
  9
$PUCSORGRIGHT
 10
0.0
 20
0.0
 30
0.0
  9
$PUCSORGFRONT
 10
0.0
 20
0.0
 30
0.0
  9
$PUCSORGBACK
 10
0.0
 20
0.0
 30
0.0
  9
$USERI1
 70
     0
  9
$USERI2
 70
     0
  9
$USERI3
 70
     0
  9
$USERI4
 70
     0
  9
$USERI5
 70
     0
  9
$USERR1
 40
0.0
  9
$USERR2
 40
0.0
  9
$USERR3
 40
0.0
  9
$USERR4
 40
0.0
  9
$USERR5
 40
0.0
  9
$WORLDVIEW
 70
     1
  9
$SHADEDGE
 70
     3
  9
$SHADEDIF
 70
    70
  9
$TILEMODE
 70
     1
  9
$MAXACTVP
 70
    64
  9
$PINSBASE
 10
0.0
 20
0.0
 30
0.0
  9
$PLIMCHECK
 70
     0
  9
$PEXTMIN
 10
1.0000000000E+20
 20
1.0000000000E+20
 30
1.0000000000E+20
  9
$PEXTMAX
 10
-1.0000000000E+20
 20
-1.0000000000E+20
 30
-1.0000000000E+20
  9
$PLIMMIN
 10
0.0
 20
0.0
  9
$PLIMMAX
 10
420.0
 20
297.0
  9
$UNITMODE
 70
     0
  9
$VISRETAIN
 70
     1
  9
$PLINEGEN
 70
     0
  9
$PSLTSCALE
 70
     1
  9
$TREEDEPTH
 70
  3020
  9
$CMLSTYLE
  2
Standard
  9
$CMLJUST
 70
     0
  9
$CMLSCALE
 40
20.0
  9
$PROXYGRAPHICS
 70
     1
  9
$MEASUREMENT
 70
     1
  9
$CELWEIGHT
370
    -1
  9
$ENDCAPS
280
     0
  9
$JOINSTYLE
280
     0
  9
$LWDISPLAY
290
     1
  9
$INSUNITS
 70
     4
  9
$HYPERLINKBASE
  1

  9
$STYLESHEET
  1

  9
$XEDIT
290
     1
  9
$CEPSNTYPE
380
     0
  9
$PSTYLEMODE
290
     1
  9
$FINGERPRINTGUID
  2
{4C41889B-DC0C-47B8-B6C9-583130779EE1}
  9
$VERSIONGUID
  2
{FAEB1C32-E019-11D5-929B-00C0DF256EC4}
  9
$EXTNAMES
290
     1
  9
$PSVPSCALE
 40
0.0
  9
$OLESTARTUP
290
     0
  0
ENDSEC
  0
SECTION
  2
CLASSES
  0
CLASS
  1
ACDBDICTIONARYWDFLT
  2
AcDbDictionaryWithDefault
  3
ObjectDBX Classes
 90
        0
280
     0
281
     0
  0
CLASS
  1
VISUALSTYLE
  2
AcDbVisualStyle
  3
ObjectDBX Classes
 90
     4095
280
     0
281
     0
  0
CLASS
  1
MATERIAL
  2
AcDbMaterial
  3
ObjectDBX Classes
 90
     1153
280
     0
281
     0
  0
CLASS
  1
SCALE
  2
AcDbScale
  3
ObjectDBX Classes
 90
     1153
280
     0
281
     0
  0
CLASS
  1
TABLESTYLE
  2
AcDbTableStyle
  3
ObjectDBX Classes
 90
     4095
280
     0
281
     0
  0
CLASS
  1
MLEADERSTYLE
  2
AcDbMLeaderStyle
  3
ACDB_MLEADERSTYLE_CLASS
 90
     4095
280
     0
281
     0
  0
CLASS
  1
SUN
  2
AcDbSun
  3
SCENEOE
 90
     1153
280
     0
281
     0
  0
CLASS
  1
ACDBPLACEHOLDER
  2
AcDbPlaceHolder
  3
ObjectDBX Classes
 90
        0
280
     0
281
     0
  0
CLASS
  1
LAYOUT
  2
AcDbLayout
  3
ObjectDBX Classes
 90
        0
280
     0
281
     0
  0
ENDSEC
  0
SECTION
  2
TABLES
  0
TABLE
  2
VPORT
  5
8
330
0
100
AcDbSymbolTable
 70
     1
  0
VPORT
  5
29
330
8
100
AcDbSymbolTableRecord
100
AcDbViewportTableRecord
  2
*Active
 70
     0
 10
0.0
 20
0.0
 11
1.0
 21
1.0
 12
148.5
 22
105.0
 13
0.0
 23
0.0
 14
10.0
 24
10.0
 15
10.0
 25
10.0
 16
0.0
 26
0.0
 36
1.0
 17
0.0
 27
0.0
 37
0.0
 40
210.0
 41
1.4142857143
 42
50.0
 43
0.0
 44
0.0
 50
0.0
 51
0.0
 71
     0
 72
  2000
 73
     1
 74
     3
 75
     0
 76
     0
 77
     0
 78
     0
281
     0
 65
     1
110
0.0
120
0.0
130
0.0
111
1.0
121
0.0
131
0.0
112
0.0
122
1.0
132
0.0
 79
     0
146
0.0
  0
ENDTAB
  0
TABLE
  2
LTYPE
  5
5
330
0
100
AcDbSymbolTable
 70
     6
  0
LTYPE
  5
14
330
5
100
AcDbSymbolTableRecord
100
AcDbLinetypeTableRecord
  2
ByBlock
 70
     0
  3

 72
    65
 73
     0
 40
0.0
  0
LTYPE
  5
15
330
5
100
AcDbSymbolTableRecord
100
AcDbLinetypeTableRecord
  2
ByLayer
 70
     0
  3

 72
    65
 73
     0
 40
0.0
  0
LTYPE
  5
16
330
5
100
AcDbSymbolTableRecord
100
AcDbLinetypeTableRecord
  2
Continuous
 70
     0
  3
Solid line
 72
    65
 73
     0
 40
0.0
  0
LTYPE
  5
6E
330
5
100
AcDbSymbolTableRecord
100
AcDbLinetypeTableRecord
  2
HIDDEN
 70
     0
  3
Hidden __ __ __ __ __ __ __ __ __ __ __ __ __ __
 72
    65
 73
     2
 40
1.905
 49
1.27
 74
     0
 49
-0.635
 74
     0
  0
LTYPE
  5
6F
330
5
100
AcDbSymbolTableRecord
100
AcDbLinetypeTableRecord
  2
PHANTOM
 70
     0
  3
Phantom ______  __  __  ______  __  __  ______
 72
    65
 73
     6
 40
12.7
 49
6.35
 74
     0
 49
-1.27
 74
     0
 49
1.27
 74
     0
 49
-1.27
 74
     0
 49
1.27
 74
     0
 49
-1.27
 74
     0
  0
LTYPE
  5
70
330
5
100
AcDbSymbolTableRecord
100
AcDbLinetypeTableRecord
  2
CENTER
 70
     0
  3
Center ____ _ ____ _ ____ _ ____ _ ____ _ ____
 72
    65
 73
     4
 40
10.16
 49
6.35
 74
     0
 49
-1.27
 74
     0
 49
1.27
 74
     0
 49
-1.27
 74
     0
  0
LTYPE
  5
71
330
5
100
AcDbSymbolTableRecord
100
AcDbLinetypeTableRecord
  2
CENTERX2
 70
     0
  3
Center (2x) ________  __  ________  __  _____
 72
    65
 73
     4
 40
20.32
 49
12.7
 74
     0
 49
-2.54
 74
     0
 49
2.54
 74
     0
 49
-2.54
 74
     0
  0
LTYPE
  5
72
330
5
100
AcDbSymbolTableRecord
100
AcDbLinetypeTableRecord
  2
DOT2
 70
     0
  3
Dot (.5x) ........................................
 72
    65
 73
     2
 40
0.635
 49
0.0
 74
     0
 49
-0.635
 74
     0
  0
ENDTAB
  0
TABLE
  2
LAYER
  5
2
330
0
100
AcDbSymbolTable
 70
     5
  0
LAYER
  5
10
330
2
100
AcDbSymbolTableRecord
100
AcDbLayerTableRecord
  2
0
 70
     0
 62
     7
  6
Continuous
370
    -3
390
F
  0
LAYER
  5
73
330
2
100
AcDbSymbolTableRecord
100
AcDbLayerTableRecord
  2
FORMAT
 70
     0
 62
     7
  6
Continuous
370
    -3
390
F
  0
LAYER
  5
74
330
2
100
AcDbSymbolTableRecord
100
AcDbLayerTableRecord
  2
VERMASSUNG
 70
     0
 62
     7
  6
Continuous
370
    -3
390
F
  0
LAYER
  5
75
330
2
100
AcDbSymbolTableRecord
100
AcDbLayerTableRecord
  2
KOPF_DÜNN
 70
     0
 62
     7
  6
Continuous
370
    -3
390
F
  0
LAYER
  5
76
330
2
100
AcDbSymbolTableRecord
100
AcDbLayerTableRecord
  2
KOPF_DICK
 70
     0
 62
     7
  6
Continuous
370
    15
390
F
  0
ENDTAB
  0
TABLE
  2
STYLE
  5
3
330
0
100
AcDbSymbolTable
 70
     2
  0
STYLE
  5
11
330
3
100
AcDbSymbolTableRecord
100
AcDbTextStyleTableRecord
  2
Standard
 70
     0
 40
0.0
 41
1.0
 50
0.0
 71
     0
 42
2.0
  3
txt
  4

  0
STYLE
  5
77
330
3
100
AcDbSymbolTableRecord
100
AcDbTextStyleTableRecord
  2
SLDTEXTSTYLE0
 70
     0
 40
0.0
 41
0.7
 50
0.0
 71
     0
 42
2.0
  3
TXT
  4

  0
ENDTAB
  0
TABLE
  2
VIEW
  5
6
330
0
100
AcDbSymbolTable
 70
     0
  0
ENDTAB
  0
TABLE
  2
UCS
  5
7
330
0
100
AcDbSymbolTable
 70
     0
  0
ENDTAB
  0
TABLE
  2
APPID
  5
9
330
0
100
AcDbSymbolTable
 70
     1
  0
APPID
  5
12
330
9
100
AcDbSymbolTableRecord
100
AcDbRegAppTableRecord
  2
ACAD
 70
     0
  0
ENDTAB
  0
TABLE
  2
DIMSTYLE
  5
A
330
0
100
AcDbSymbolTable
 70
     3
100
AcDbDimStyleTable
  0
DIMSTYLE
105
27
330
A
100
AcDbSymbolTableRecord
100
AcDbDimStyleTableRecord
  2
ISO-25
 70
     0
 41
2.5
 42
0.625
 43
3.75
 44
1.25
 73
     0
 74
     0
 77
     1
 78
     8
140
2.5
141
2.5
143
0.0393700787
147
0.625
171
     3
172
     1
178
     0
271
     2
272
     2
274
     3
278
    44
283
     0
284
     8
340
11
  0
DIMSTYLE
105
1E8
102
{ACAD_REACTORS
330
1E7
330
1F3
330
1FE
330
209
330
213
330
21D
330
227
330
23A
330
244
102
}
330
A
100
AcDbSymbolTableRecord
100
AcDbDimStyleTableRecord
  2
SLDDIMSTYLE0
 70
     0
 41
3.0
 44
0.0
 45
0.000000001
 73
     0
 74
     0
 77
     1
 78
    12
 79
     3
140
2.0
147
0.5
173
     1
178
     0
271
     2
272
     3
276
     2
284
    12
340
77
  0
DIMSTYLE
105
232
102
{ACAD_REACTORS
330
231
102
}
330
A
100
AcDbSymbolTableRecord
100
AcDbDimStyleTableRecord
  2
SLDDIMSTYLE1
 70
     0
 41
3.0
 44
0.0
 45
0.000000001
 73
     0
 74
     0
 77
     1
 78
    12
 79
     3
140
2.0
141
0.0
147
0.5
173
     1
178
     0
271
     2
272
     3
276
     2
279
     1
284
    12
340
77
  0
ENDTAB
  0
TABLE
  2
BLOCK_RECORD
  5
1
330
0
100
AcDbSymbolTable
 70
    11
  0
BLOCK_RECORD
  5
1F
330
1
100
AcDbSymbolTableRecord
100
AcDbBlockTableRecord
  2
*Model_Space
340
22
  0
BLOCK_RECORD
  5
1B
330
1
100
AcDbSymbolTableRecord
100
AcDbBlockTableRecord
  2
*Paper_Space
340
1E
  0
BLOCK_RECORD
  5
23
330
1
100
AcDbSymbolTableRecord
100
AcDbBlockTableRecord
  2
*Paper_Space0
340
26
  0
BLOCK_RECORD
  5
1E9
330
1
100
AcDbSymbolTableRecord
100
AcDbBlockTableRecord
  2
_D
340
0
  0
BLOCK_RECORD
  5
1F4
330
1
100
AcDbSymbolTableRecord
100
AcDbBlockTableRecord
  2
_D_1
340
0
  0
BLOCK_RECORD
  5
1FF
330
1
100
AcDbSymbolTableRecord
100
AcDbBlockTableRecord
  2
_D_2
340
0
  0
BLOCK_RECORD
  5
20A
330
1
100
AcDbSymbolTableRecord
100
AcDbBlockTableRecord
  2
_D_3
340
0
  0
BLOCK_RECORD
  5
214
330
1
100
AcDbSymbolTableRecord
100
AcDbBlockTableRecord
  2
_D_4
340
0
  0
BLOCK_RECORD
  5
21E
330
1
100
AcDbSymbolTableRecord
100
AcDbBlockTableRecord
  2
_D_5
340
0
  0
BLOCK_RECORD
  5
228
330
1
100
AcDbSymbolTableRecord
100
AcDbBlockTableRecord
  2
_D_6
340
0
  0
BLOCK_RECORD
  5
233
330
1
100
AcDbSymbolTableRecord
100
AcDbBlockTableRecord
  2
_D_7
340
0
  0
BLOCK_RECORD
  5
23B
330
1
100
AcDbSymbolTableRecord
100
AcDbBlockTableRecord
  2
_D_8
340
0
  0
BLOCK_RECORD
  5
245
330
1
100
AcDbSymbolTableRecord
100
AcDbBlockTableRecord
  2
_D_9
340
0
  0
ENDTAB
  0
ENDSEC
  0
SECTION
  2
BLOCKS
  0
BLOCK
  5
20
330
1F
100
AcDbEntity
  8
0
100
AcDbBlockBegin
  2
*Model_Space
 70
     0
 10
0.0
 20
0.0
 30
0.0
  3
*Model_Space
  1

  0
ENDBLK
  5
21
330
1F
100
AcDbEntity
  8
0
100
AcDbBlockEnd
  0
BLOCK
  5
1C
330
1B
100
AcDbEntity
 67
     1
  8
0
100
AcDbBlockBegin
  2
*Paper_Space
 70
     0
 10
0.0
 20
0.0
 30
0.0
  3
*Paper_Space
  1

  0
ENDBLK
  5
1D
330
1B
100
AcDbEntity
 67
     1
  8
0
100
AcDbBlockEnd
  0
BLOCK
  5
24
330
23
100
AcDbEntity
  8
0
100
AcDbBlockBegin
  2
*Paper_Space0
 70
     0
 10
0.0
 20
0.0
 30
0.0
  3
*Paper_Space0
  1

  0
ENDBLK
  5
25
330
23
100
AcDbEntity
  8
0
100
AcDbBlockEnd
  0
BLOCK
  5
1EA
330
1E9
100
AcDbEntity
  8
0
100
AcDbBlockBegin
  2
_D
 70
     0
 10
0.0
 20
0.0
 30
0.0
  3
_D
  1

  0
SOLID
  5
1EC
330
1E9
100
AcDbEntity
  8
VERMASSUNG
100
AcDbTrace
 10
221.6196911839
 20
117.5494685731
 30
0.0
 11
221.1696911839
 21
114.5494685731
 31
0.0
 12
222.0696911839
 22
114.5494685731
 32
0.0
 13
222.0696911839
 23
114.5494685731
 33
0.0
  0
SOLID
  5
1ED
330
1E9
100
AcDbEntity
  8
VERMASSUNG
100
AcDbTrace
 10
221.6196911839
 20
109.5494685731
 30
0.0
 11
222.0696911839
 21
112.5494685731
 31
0.0
 12
221.1696911839
 22
112.5494685731
 32
0.0
 13
221.1696911839
 23
112.5494685731
 33
0.0
  0
LINE
  5
1EE
330
1E9
100
AcDbEntity
  8
VERMASSUNG
100
AcDbLine
 10
211.9744424092
 20
117.5494685731
 30
0.0
 11
222.6196911839
 21
117.5494685731
 31
0.0
  0
LINE
  5
1EF
330
1E9
100
AcDbEntity
  8
VERMASSUNG
100
AcDbLine
 10
211.9744424092
 20
109.5494685731
 30
0.0
 11
222.6196911839
 21
109.5494685731
 31
0.0
  0
LINE
  5
1F0
330
1E9
100
AcDbEntity
  8
VERMASSUNG
100
AcDbLine
 10
221.6196911839
 20
117.5494685731
 30
0.0
 11
221.6196911839
 21
109.5494685731
 31
0.0
  0
MTEXT
  5
1F1
330
1E9
100
AcDbEntity
  8
VERMASSUNG
100
AcDbMText
 10
219.0415556461
 20
111.0455283252
 30
0.0
 40
2.0
 41
0.0
 71
     1
 72
     1
  1
%%c
  7
SLDTEXTSTYLE0
 11
-2.125504973284564E-14
 21
1.0
 31
0.0
 73
     1
 44
1.0
  0
MTEXT
  5
1F2
330
1E9
100
AcDbEntity
  8
VERMASSUNG
100
AcDbMText
 10
219.0415555879
 20
114.6550436872
 30
0.0
 40
2.0
 41
0.0
 71
     1
 72
     1
  1
8
  7
SLDTEXTSTYLE0
 11
-2.125504973284564E-14
 21
1.0
 31
0.0
 73
     1
 44
1.0
  0
ENDBLK
  5
1EB
330
1E9
100
AcDbEntity
  8
0
100
AcDbBlockEnd
  0
BLOCK
  5
1F5
330
1F4
100
AcDbEntity
  8
0
100
AcDbBlockBegin
  2
_D_1
 70
     0
 10
0.0
 20
0.0
 30
0.0
  3
_D_1
  1

  0
SOLID
  5
1F7
330
1F4
100
AcDbEntity
  8
VERMASSUNG
100
AcDbTrace
 10
227.6196911839
 20
124.0494685731
 30
0.0
 11
227.1696911839
 21
121.0494685731
 31
0.0
 12
228.0696911839
 22
121.0494685731
 32
0.0
 13
228.0696911839
 23
121.0494685731
 33
0.0
  0
SOLID
  5
1F8
330
1F4
100
AcDbEntity
  8
VERMASSUNG
100
AcDbTrace
 10
227.6196911839
 20
103.0494685731
 30
0.0
 11
228.0696911839
 21
106.0494685731
 31
0.0
 12
227.1696911839
 22
106.0494685731
 32
0.0
 13
227.1696911839
 23
106.0494685731
 33
0.0
  0
LINE
  5
1F9
330
1F4
100
AcDbEntity
  8
VERMASSUNG
100
AcDbLine
 10
215.4744424092
 20
124.0494685731
 30
0.0
 11
228.6196911839
 21
124.0494685731
 31
0.0
  0
LINE
  5
1FA
330
1F4
100
AcDbEntity
  8
VERMASSUNG
100
AcDbLine
 10
215.4744424092
 20
103.0494685731
 30
0.0
 11
228.6196911839
 21
103.0494685731
 31
0.0
  0
LINE
  5
1FB
330
1F4
100
AcDbEntity
  8
VERMASSUNG
100
AcDbLine
 10
227.6196911839
 20
124.0494685731
 30
0.0
 11
227.6196911839
 21
103.0494685731
 31
0.0
  0
MTEXT
  5
1FC
330
1F4
100
AcDbEntity
  8
VERMASSUNG
100
AcDbMText
 10
225.0415556461
 20
110.5454429717
 30
0.0
 40
2.0
 41
0.0
 71
     1
 72
     1
  1
%%c
  7
SLDTEXTSTYLE0
 11
-1.947869289344539E-14
 21
1.0
 31
0.0
 73
     1
 44
1.0
  0
MTEXT
  5
1FD
330
1F4
100
AcDbEntity
  8
VERMASSUNG
100
AcDbMText
 10
225.0415555879
 20
114.1549583336
 30
0.0
 40
2.0
 41
0.0
 71
     1
 72
     1
  1
21
  7
SLDTEXTSTYLE0
 11
-1.947869289344539E-14
 21
1.0
 31
0.0
 73
     1
 44
1.0
  0
ENDBLK
  5
1F6
330
1F4
100
AcDbEntity
  8
0
100
AcDbBlockEnd
  0
BLOCK
  5
200
330
1FF
100
AcDbEntity
  8
0
100
AcDbBlockBegin
  2
_D_2
 70
     0
 10
0.0
 20
0.0
 30
0.0
  3
_D_2
  1

  0
SOLID
  5
202
330
1FF
100
AcDbEntity
  8
VERMASSUNG
100
AcDbTrace
 10
233.6196911839
 20
127.0494685731
 30
0.0
 11
233.1696911839
 21
124.0494685731
 31
0.0
 12
234.0696911839
 22
124.0494685731
 32
0.0
 13
234.0696911839
 23
124.0494685731
 33
0.0
  0
SOLID
  5
203
330
1FF
100
AcDbEntity
  8
VERMASSUNG
100
AcDbTrace
 10
233.6196911839
 20
100.0494685731
 30
0.0
 11
234.0696911839
 21
103.0494685731
 31
0.0
 12
233.1696911839
 22
103.0494685731
 32
0.0
 13
233.1696911839
 23
103.0494685731
 33
0.0
  0
LINE
  5
204
330
1FF
100
AcDbEntity
  8
VERMASSUNG
100
AcDbLine
 10
177.3558282007
 20
127.0494685731
 30
0.0
 11
234.6196911839
 21
127.0494685731
 31
0.0
  0
LINE
  5
205
330
1FF
100
AcDbEntity
  8
VERMASSUNG
100
AcDbLine
 10
177.3558282007
 20
100.0494685731
 30
0.0
 11
234.6196911839
 21
100.0494685731
 31
0.0
  0
LINE
  5
206
330
1FF
100
AcDbEntity
  8
VERMASSUNG
100
AcDbLine
 10
233.6196911839
 20
127.0494685731
 30
0.0
 11
233.6196911839
 21
100.0494685731
 31
0.0
  0
MTEXT
  5
207
330
1FF
100
AcDbEntity
  8
VERMASSUNG
100
AcDbMText
 10
231.0415556461
 20
110.3451745983
 30
0.0
 40
2.0
 41
0.0
 71
     1
 72
     1
  1
%%c
  7
SLDTEXTSTYLE0
 11
-1.414962237524464E-14
 21
1.0
 31
0.0
 73
     1
 44
1.0
  0
MTEXT
  5
208
330
1FF
100
AcDbEntity
  8
VERMASSUNG
100
AcDbMText
 10
231.0415555879
 20
113.9546899602
 30
0.0
 40
2.0
 41
0.0
 71
     1
 72
     1
  1
27
  7
SLDTEXTSTYLE0
 11
-1.414962237524464E-14
 21
1.0
 31
0.0
 73
     1
 44
1.0
  0
ENDBLK
  5
201
330
1FF
100
AcDbEntity
  8
0
100
AcDbBlockEnd
  0
BLOCK
  5
20B
330
20A
100
AcDbEntity
  8
0
100
AcDbBlockBegin
  2
_D_3
 70
     0
 10
0.0
 20
0.0
 30
0.0
  3
_D_3
  1

  0
SOLID
  5
20D
330
20A
100
AcDbEntity
  8
VERMASSUNG
100
AcDbTrace
 10
177.3558282007
 20
145.4809820866
 30
0.0
 11
180.3558282007
 21
145.0309820866
 31
0.0
 12
180.3558282007
 22
145.9309820866
 32
0.0
 13
180.3558282007
 23
145.9309820866
 33
0.0
  0
SOLID
  5
20E
330
20A
100
AcDbEntity
  8
VERMASSUNG
100
AcDbTrace
 10
215.4744424092
 20
145.4809820866
 30
0.0
 11
212.4744424092
 21
145.9309820866
 31
0.0
 12
212.4744424092
 22
145.0309820866
 32
0.0
 13
212.4744424092
 23
145.0309820866
 33
0.0
  0
LINE
  5
20F
330
20A
100
AcDbEntity
  8
VERMASSUNG
100
AcDbLine
 10
177.3558282007
 20
127.0494685731
 30
0.0
 11
177.3558282007
 21
146.4809820866
 31
0.0
  0
LINE
  5
210
330
20A
100
AcDbEntity
  8
VERMASSUNG
100
AcDbLine
 10
215.4744424092
 20
122.2006875897
 30
0.0
 11
215.4744424092
 21
146.4809820866
 31
0.0
  0
LINE
  5
211
330
20A
100
AcDbEntity
  8
VERMASSUNG
100
AcDbLine
 10
177.3558282007
 20
145.4809820866
 30
0.0
 11
215.4744424092
 21
145.4809820866
 31
0.0
  0
MTEXT
  5
212
330
20A
100
AcDbEntity
  8
VERMASSUNG
100
AcDbMText
 10
193.5153429506
 20
148.0591176825
 30
0.0
 40
2.0
 41
0.0
 71
     1
 72
     1
  1
38.12
  7
SLDTEXTSTYLE0
 73
     1
 44
1.0
  0
ENDBLK
  5
20C
330
20A
100
AcDbEntity
  8
0
100
AcDbBlockEnd
  0
BLOCK
  5
215
330
214
100
AcDbEntity
  8
0
100
AcDbBlockBegin
  2
_D_4
 70
     0
 10
0.0
 20
0.0
 30
0.0
  3
_D_4
  1

  0
SOLID
  5
217
330
214
100
AcDbEntity
  8
VERMASSUNG
100
AcDbTrace
 10
153.4744424092
 20
151.4809820866
 30
0.0
 11
156.4744424092
 21
151.0309820866
 31
0.0
 12
156.4744424092
 22
151.9309820866
 32
0.0
 13
156.4744424092
 23
151.9309820866
 33
0.0
  0
SOLID
  5
218
330
214
100
AcDbEntity
  8
VERMASSUNG
100
AcDbTrace
 10
215.4744424092
 20
151.4809820866
 30
0.0
 11
212.4744424092
 21
151.9309820866
 31
0.0
 12
212.4744424092
 22
151.0309820866
 32
0.0
 13
212.4744424092
 23
151.0309820866
 33
0.0
  0
LINE
  5
219
330
214
100
AcDbEntity
  8
VERMASSUNG
100
AcDbLine
 10
153.4744424092
 20
145.0244685731
 30
0.0
 11
153.4744424092
 21
152.4809820866
 31
0.0
  0
LINE
  5
21A
330
214
100
AcDbEntity
  8
VERMASSUNG
100
AcDbLine
 10
215.4744424092
 20
122.2006875897
 30
0.0
 11
215.4744424092
 21
152.4809820866
 31
0.0
  0
LINE
  5
21B
330
214
100
AcDbEntity
  8
VERMASSUNG
100
AcDbLine
 10
153.4744424092
 20
151.4809820866
 30
0.0
 11
215.4744424092
 21
151.4809820866
 31
0.0
  0
MTEXT
  5
21C
330
214
100
AcDbEntity
  8
VERMASSUNG
100
AcDbMText
 10
183.0749061154
 20
154.0591176825
 30
0.0
 40
2.0
 41
0.0
 71
     1
 72
     1
  1
62
  7
SLDTEXTSTYLE0
 73
     1
 44
1.0
  0
ENDBLK
  5
216
330
214
100
AcDbEntity
  8
0
100
AcDbBlockEnd
  0
BLOCK
  5
21F
330
21E
100
AcDbEntity
  8
0
100
AcDbBlockBegin
  2
_D_5
 70
     0
 10
0.0
 20
0.0
 30
0.0
  3
_D_5
  1

  0
SOLID
  5
221
330
21E
100
AcDbEntity
  8
VERMASSUNG
100
AcDbTrace
 10
135.4744424092
 20
157.4809820866
 30
0.0
 11
138.4744424092
 21
157.0309820866
 31
0.0
 12
138.4744424092
 22
157.9309820866
 32
0.0
 13
138.4744424092
 23
157.9309820866
 33
0.0
  0
SOLID
  5
222
330
21E
100
AcDbEntity
  8
VERMASSUNG
100
AcDbTrace
 10
215.4744424092
 20
157.4809820866
 30
0.0
 11
212.4744424092
 21
157.9309820866
 31
0.0
 12
212.4744424092
 22
157.0309820866
 32
0.0
 13
212.4744424092
 23
157.0309820866
 33
0.0
  0
LINE
  5
223
330
21E
100
AcDbEntity
  8
VERMASSUNG
100
AcDbLine
 10
135.4744424092
 20
144.8244685731
 30
0.0
 11
135.4744424092
 21
158.4809820866
 31
0.0
  0
LINE
  5
224
330
21E
100
AcDbEntity
  8
VERMASSUNG
100
AcDbLine
 10
215.4744424092
 20
122.2006875897
 30
0.0
 11
215.4744424092
 21
158.4809820866
 31
0.0
  0
LINE
  5
225
330
21E
100
AcDbEntity
  8
VERMASSUNG
100
AcDbLine
 10
135.4744424092
 20
157.4809820866
 30
0.0
 11
215.4744424092
 21
157.4809820866
 31
0.0
  0
MTEXT
  5
226
330
21E
100
AcDbEntity
  8
VERMASSUNG
100
AcDbMText
 10
174.0749061154
 20
160.0591176825
 30
0.0
 40
2.0
 41
0.0
 71
     1
 72
     1
  1
80
  7
SLDTEXTSTYLE0
 73
     1
 44
1.0
  0
ENDBLK
  5
220
330
21E
100
AcDbEntity
  8
0
100
AcDbBlockEnd
  0
BLOCK
  5
229
330
228
100
AcDbEntity
  8
0
100
AcDbBlockBegin
  2
_D_6
 70
     0
 10
0.0
 20
0.0
 30
0.0
  3
_D_6
  1

  0
SOLID
  5
22B
330
228
100
AcDbEntity
  8
VERMASSUNG
100
AcDbTrace
 10
95.5244424092
 20
163.4809820866
 30
0.0
 11
98.5244424092
 21
163.0309820866
 31
0.0
 12
98.5244424092
 22
163.9309820866
 32
0.0
 13
98.5244424092
 23
163.9309820866
 33
0.0
  0
SOLID
  5
22C
330
228
100
AcDbEntity
  8
VERMASSUNG
100
AcDbTrace
 10
215.4744424092
 20
163.4809820866
 30
0.0
 11
212.4744424092
 21
163.9309820866
 31
0.0
 12
212.4744424092
 22
163.0309820866
 32
0.0
 13
212.4744424092
 23
163.0309820866
 33
0.0
  0
LINE
  5
22D
330
228
100
AcDbEntity
  8
VERMASSUNG
100
AcDbLine
 10
95.5244424092
 20
135.7525632968
 30
0.0
 11
95.5244424092
 21
164.4809820866
 31
0.0
  0
LINE
  5
22E
330
228
100
AcDbEntity
  8
VERMASSUNG
100
AcDbLine
 10
215.4744424092
 20
122.2006875897
 30
0.0
 11
215.4744424092
 21
164.4809820866
 31
0.0
  0
LINE
  5
22F
330
228
100
AcDbEntity
  8
VERMASSUNG
100
AcDbLine
 10
95.5244424092
 20
163.4809820866
 30
0.0
 11
215.4744424092
 21
163.4809820866
 31
0.0
  0
MTEXT
  5
230
330
228
100
AcDbEntity
  8
VERMASSUNG
100
AcDbMText
 10
152.0995647013
 20
166.0591176825
 30
0.0
 40
2.0
 41
0.0
 71
     1
 72
     1
  1
119.95
  7
SLDTEXTSTYLE0
 73
     1
 44
1.0
  0
ENDBLK
  5
22A
330
228
100
AcDbEntity
  8
0
100
AcDbBlockEnd
  0
BLOCK
  5
234
330
233
100
AcDbEntity
  8
0
100
AcDbBlockBegin
  2
_D_7
 70
     0
 10
0.0
 20
0.0
 30
0.0
  3
_D_7
  1

  0
SOLID
  5
236
330
233
100
AcDbEntity
  8
VERMASSUNG
100
AcDbTrace
 10
154.1333072222
 20
128.1735458571
 30
0.0
 11
156.7558308166
 21
129.698298295
 31
0.0
 12
156.1930540018
 22
130.4006388511
 32
0.0
 13
156.1930540018
 23
130.4006388511
 33
0.0
  0
LINE
  5
237
330
233
100
AcDbEntity
  8
VERMASSUNG
100
AcDbLine
 10
154.1333072222
 20
128.1735458571
 30
0.0
 11
160.0537141754
 21
132.9174948409
 31
0.0
  0
MTEXT
  5
238
330
233
100
AcDbEntity
  8
VERMASSUNG
100
AcDbMText
 10
154.8630288234
 20
132.0619621119
 30
0.0
 40
2.0
 41
0.0
 71
     1
 72
     1
  1
R
  7
SLDTEXTSTYLE0
 11
0.7803783956637736
 21
0.6253075719845672
 31
0.0
 73
     1
 44
1.0
  0
MTEXT
  5
239
330
233
100
AcDbEntity
  8
VERMASSUNG
100
AcDbMText
 10
156.111481823
 20
133.062332084
 30
0.0
 40
2.0
 41
0.0
 71
     1
 72
     1
  1
3
  7
SLDTEXTSTYLE0
 11
0.7803783956637736
 21
0.6253075719845672
 31
0.0
 73
     1
 44
1.0
  0
ENDBLK
  5
235
330
233
100
AcDbEntity
  8
0
100
AcDbBlockEnd
  0
BLOCK
  5
23C
330
23B
100
AcDbEntity
  8
0
100
AcDbBlockBegin
  2
_D_8
 70
     0
 10
0.0
 20
0.0
 30
0.0
  3
_D_8
  1

  0
SOLID
  5
23E
330
23B
100
AcDbEntity
  8
VERMASSUNG
100
AcDbTrace
 10
178.9744424092
 20
94.4454984603
 30
0.0
 11
181.9744424092
 21
93.9954984603
 31
0.0
 12
181.9744424092
 22
94.8954984603
 32
0.0
 13
181.9744424092
 23
94.8954984603
 33
0.0
  0
SOLID
  5
23F
330
23B
100
AcDbEntity
  8
VERMASSUNG
100
AcDbTrace
 10
215.4744424092
 20
94.4454984603
 30
0.0
 11
212.4744424092
 21
94.8954984603
 31
0.0
 12
212.4744424092
 22
93.9954984603
 32
0.0
 13
212.4744424092
 23
93.9954984603
 33
0.0
  0
LINE
  5
240
330
23B
100
AcDbEntity
  8
VERMASSUNG
100
AcDbLine
 10
178.9744424092
 20
109.6494685731
 30
0.0
 11
178.9744424092
 21
93.4454984603
 31
0.0
  0
LINE
  5
241
330
23B
100
AcDbEntity
  8
VERMASSUNG
100
AcDbLine
 10
215.4744424092
 20
104.8982495564
 30
0.0
 11
215.4744424092
 21
93.4454984603
 31
0.0
  0
LINE
  5
242
330
23B
100
AcDbEntity
  8
VERMASSUNG
100
AcDbLine
 10
178.9744424092
 20
94.4454984603
 30
0.0
 11
215.4744424092
 21
94.4454984603
 31
0.0
  0
MTEXT
  5
243
330
23B
100
AcDbEntity
  8
VERMASSUNG
100
AcDbMText
 10
194.8247354084
 20
97.0236340563
 30
0.0
 40
2.0
 41
0.0
 71
     1
 72
     1
  1
36.5
  7
SLDTEXTSTYLE0
 73
     1
 44
1.0
  0
ENDBLK
  5
23D
330
23B
100
AcDbEntity
  8
0
100
AcDbBlockEnd
  0
BLOCK
  5
246
330
245
100
AcDbEntity
  8
0
100
AcDbBlockBegin
  2
_D_9
 70
     0
 10
0.0
 20
0.0
 30
0.0
  3
_D_9
  1

  0
SOLID
  5
248
330
245
100
AcDbEntity
  8
VERMASSUNG
100
AcDbTrace
 10
90.4104404641
 20
145.0244685731
 30
0.0
 11
89.9604404641
 21
142.0244685731
 31
0.0
 12
90.8604404641
 22
142.0244685731
 32
0.0
 13
90.8604404641
 23
142.0244685731
 33
0.0
  0
SOLID
  5
249
330
245
100
AcDbEntity
  8
VERMASSUNG
100
AcDbTrace
 10
90.4104404641
 20
82.0744685731
 30
0.0
 11
90.8604404641
 21
85.0744685731
 31
0.0
 12
89.9604404641
 22
85.0744685731
 32
0.0
 13
89.9604404641
 23
85.0744685731
 33
0.0
  0
LINE
  5
24A
330
245
100
AcDbEntity
  8
VERMASSUNG
100
AcDbLine
 10
135.6744424092
 20
145.0244685731
 30
0.0
 11
89.4104404641
 21
145.0244685731
 31
0.0
  0
LINE
  5
24B
330
245
100
AcDbEntity
  8
VERMASSUNG
100
AcDbLine
 10
135.6744424092
 20
82.0744685731
 30
0.0
 11
89.4104404641
 21
82.0744685731
 31
0.0
  0
LINE
  5
24C
330
245
100
AcDbEntity
  8
VERMASSUNG
100
AcDbLine
 10
90.4104404641
 20
145.0244685731
 30
0.0
 11
90.4104404641
 21
82.0744685731
 31
0.0
  0
MTEXT
  5
24D
330
245
100
AcDbEntity
  8
VERMASSUNG
100
AcDbMText
 10
87.6323052079
 20
103.1460535957
 30
0.0
 40
2.0
 41
0.0
 71
     1
 72
     1
  1
KM XMZ
  7
SLDTEXTSTYLE0
 11
-1.414962237524464E-14
 21
1.0
 31
0.0
 73
     1
 44
1.0
  0
MTEXT
  5
24E
330
245
100
AcDbEntity
  8
VERMASSUNG
100
AcDbMText
 10
87.8323051592
 20
114.1460535361
 30
0.0
 40
2.0
 41
0.0
 71
     1
 72
     1
  1
%%c
  7
SLDTEXTSTYLE0
 11
-1.414962237524464E-14
 21
1.0
 31
0.0
 73
     1
 44
1.0
  0
MTEXT
  5
24F
330
245
100
AcDbEntity
  8
VERMASSUNG
100
AcDbMText
 10
87.8323048681
 20
117.7551044149
 30
0.0
 40
2.0
 41
0.0
 71
     1
 72
     1
  1
62.95
  7
SLDTEXTSTYLE0
 11
-1.414962237524464E-14
 21
1.0
 31
0.0
 73
     1
 44
1.0
  0
ENDBLK
  5
247
330
245
100
AcDbEntity
  8
0
100
AcDbBlockEnd
  0
ENDSEC
  0
SECTION
  2
ENTITIES
  0
MTEXT
  5
78
330
1F
100
AcDbEntity
  8
KOPF_DÜNN
100
AcDbMText
 10
13.8892156294
 20
23.8442973028
 30
0.0
 40
3.0
 41
0.0
 71
     1
 72
     1
  1
KY6.S08.K01.080
  7
SLDTEXTSTYLE0
 73
     1
 44
1.0
  0
MTEXT
  5
79
330
1F
100
AcDbEntity
  8
VERMASSUNG
100
AcDbMText
 10
13.9329988022
 20
28.8834360957
 30
0.0
 40
3.0
 41
0.0
 71
     1
 72
     1
  1
Schrumpffutter
  7
SLDTEXTSTYLE0
 73
     1
 44
1.0
  0
MTEXT
  5
7A
330
1F
100
AcDbEntity
  8
VERMASSUNG
100
AcDbMText
 10
98.8601118557
 20
13.8365368761
 30
0.0
 40
2.0
 41
0.0
 71
     1
 72
     1
  1
Datum: 07.07.2016
  7
SLDTEXTSTYLE0
 73
     1
 44
1.0
  0
MTEXT
  5
7B
330
1F
100
AcDbEntity
  8
VERMASSUNG
100
AcDbMText
 10
13.933048693
 20
18.0482802738
 30
0.0
 40
2.0
 41
0.0
 71
     1
 72
     1
  1
KM 63 XMZ/Ø8x80
  7
SLDTEXTSTYLE0
 73
     1
 44
1.0
  0
MTEXT
  5
7C
330
1F
100
AcDbEntity
  8
VERMASSUNG
100
AcDbMText
 10
13.9808475933
 20
13.9090974274
 30
0.0
 40
2.0
 41
0.0
 71
     1
 72
     1
  1
Gewicht: 841g
  7
SLDTEXTSTYLE0
 73
     1
 44
1.0
  0
ARC
  5
7D
330
1F
100
AcDbEntity
  8
0
  6
Continuous
 62
     7
370
    15
100
AcDbCircle
 10
135.6744424092
 20
82.2744685731
 30
0.0
 40
0.2000000000000028
100
AcDbArc
 50
180.0
 51
270.0
  0
ARC
  5
7E
330
1F
100
AcDbEntity
  8
0
  6
Continuous
 62
     7
370
    15
100
AcDbCircle
 10
135.6744424092
 20
144.8244685731
 30
0.0
 40
0.2000000000000455
100
AcDbArc
 50
90.0
 51
180.0
  0
LINE
  5
7F
330
1F
100
AcDbEntity
  8
0
  6
Continuous
 62
     7
370
    15
100
AcDbLine
 10
148.7086405026
 20
82.0744684896
 30
0.0
 11
153.4744416344
 21
82.0744684896
 31
0.0
  0
LINE
  5
80
330
1F
100
AcDbEntity
  8
0
  6
Continuous
 62
     7
370
    15
100
AcDbLine
 10
153.4744416344
 20
145.0244686565
 30
0.0
 11
148.7086405026
 21
145.0244686565
 31
0.0
  0
LINE
  5
81
330
1F
100
AcDbEntity
  8
0
  6
Continuous
 62
     7
370
    15
100
AcDbLine
 10
135.6744424042
 20
82.0744684896
 30
0.0
 11
142.0402446742
 21
82.0744684896
 31
0.0
  0
LINE
  5
82
330
1F
100
AcDbEntity
  8
0
  6
Continuous
 62
     7
370
    15
100
AcDbLine
 10
142.0402446742
 20
145.0244686565
 30
0.0
 11
135.6744424042
 21
145.0244686565
 31
0.0
  0
LINE
  5
83
330
1F
100
AcDbEntity
  8
0
  6
Continuous
 62
     7
370
    15
100
AcDbLine
 10
142.0402446742
 20
82.0744684896
 30
0.0
 11
143.4994422811
 21
84.6018730661
 31
0.0
  0
LINE
  5
84
330
1F
100
AcDbEntity
  8
0
  6
Continuous
 62
     7
370
    15
100
AcDbLine
 10
143.4994422811
 20
142.49706408
 30
0.0
 11
142.0402446742
 21
145.0244686565
 31
0.0
  0
LINE
  5
85
330
1F
100
AcDbEntity
  8
0
  6
Continuous
 62
     7
370
    15
100
AcDbLine
 10
148.7086405026
 20
145.0244686565
 30
0.0
 11
147.2494424301
 21
142.49706408
 31
0.0
  0
LINE
  5
86
330
1F
100
AcDbEntity
  8
0
  6
Continuous
 62
     7
370
    15
100
AcDbLine
 10
147.2494424301
 20
84.6018730661
 30
0.0
 11
148.7086405026
 21
82.0744684896
 31
0.0
  0
ARC
  5
87
330
1F
100
AcDbEntity
  8
0
  6
Continuous
 62
     7
370
    15
100
AcDbCircle
 10
144.4994424092
 20
142.3994685731
 30
0.0
 40
1.0
100
AcDbArc
 50
180.0
 51
270.0
  0
ARC
  5
88
330
1F
100
AcDbEntity
  8
0
  6
Continuous
 62
     7
370
    15
100
AcDbCircle
 10
144.4994424092
 20
84.6994685731
 30
0.0
 40
1.0
100
AcDbArc
 50
90.0
 51
180.0
  0
ARC
  5
89
330
1F
100
AcDbEntity
  8
0
  6
Continuous
 62
     7
370
    15
100
AcDbCircle
 10
146.2494424092
 20
84.6994685731
 30
0.0
 40
1.0
100
AcDbArc
 50
0.0
 51
90.0
  0
ARC
  5
8A
330
1F
100
AcDbEntity
  8
0
  6
Continuous
 62
     7
370
    15
100
AcDbCircle
 10
146.2494424092
 20
142.3994685731
 30
0.0
 40
1.0
100
AcDbArc
 50
270.0
 51
0.0
  0
LINE
  5
8B
330
1F
100
AcDbEntity
  8
0
  6
Continuous
 62
     7
370
    15
100
AcDbLine
 10
144.499442445
 20
85.6994683853
 30
0.0
 11
146.2494422662
 21
85.6994683853
 31
0.0
  0
LINE
  5
8C
330
1F
100
AcDbEntity
  8
0
  6
Continuous
 62
     7
370
    15
100
AcDbLine
 10
146.2494422662
 20
141.3994687608
 30
0.0
 11
144.499442445
 21
141.3994687608
 31
0.0
  0
ARC
  5
8D
330
1F
100
AcDbEntity
  8
0
  6
Continuous
 62
     7
370
    15
100
AcDbCircle
 10
135.0455075347
 20
87.9994685731
 30
0.0
 40
0.8000000000000081
100
AcDbArc
 50
57.576802718
 51
107.5
  0
ARC
  5
8E
330
1F
100
AcDbEntity
  8
0
  6
Continuous
 62
     7
370
    15
100
AcDbCircle
 10
135.0455075347
 20
139.0994685731
 30
0.0
 40
0.8000000000000203
100
AcDbArc
 50
252.5
 51
302.423197282
  0
LINE
  5
8F
330
1F
100
AcDbEntity
  8
0
  6
Continuous
 62
     7
370
    15
100
AcDbLine
 10
105.0792903619
 20
137.0230871251
 30
0.0
 11
97.0244434642
 21
136.6185895166
 31
0.0
  0
LINE
  5
90
330
1F
100
AcDbEntity
  8
0
  6
Continuous
 62
     7
370
    15
100
AcDbLine
 10
134.3142603504
 20
138.491207268
 30
0.0
 11
120.9889537635
 21
137.8220370969
 31
0.0
  0
LINE
  5
91
330
1F
100
AcDbEntity
  8
0
  6
Continuous
 62
     7
370
    15
100
AcDbLine
 10
120.9879972952
 20
89.2769484779
 30
0.0
 11
134.3142603504
 21
88.6077298781
 31
0.0
  0
LINE
  5
92
330
1F
100
AcDbEntity
  8
0
  6
Continuous
 62
     7
370
    15
100
AcDbLine
 10
97.0244434642
 20
90.4803476295
 30
0.0
 11
105.0792791861
 21
90.0758518836
 31
0.0
  0
LINE
  5
93
330
1F
100
AcDbEntity
  8
0
  6
Continuous
 62
     7
370
    15
100
AcDbLine
 10
134.3142603504
 20
88.6077298781
 30
0.0
 11
134.8049428993
 21
88.7624430469
 31
0.0
  0
LINE
  5
94
330
1F
100
AcDbEntity
  8
0
  6
Continuous
 62
     7
370
    15
100
AcDbLine
 10
134.8049428993
 20
138.3364940992
 30
0.0
 11
134.3142603504
 21
138.491207268
 31
0.0
  0
LINE
  5
95
330
1F
100
AcDbEntity
  8
0
  6
Continuous
 62
     7
370
    15
100
AcDbLine
 10
95.5244441497
 20
91.3463733158
 30
0.0
 11
97.0244434642
 21
90.4803476295
 31
0.0
  0
LINE
  5
96
330
1F
100
AcDbEntity
  8
0
  6
Continuous
 62
     7
370
    15
100
AcDbLine
 10
97.0244434642
 20
136.6185895166
 30
0.0
 11
95.5244441497
 21
135.7525638303
 31
0.0
  0
ARC
  5
97
330
1F
100
AcDbEntity
  8
0
  6
Continuous
 62
     7
370
    15
100
AcDbCircle
 10
156.4744424092
 20
97.0494685731
 30
0.0
 40
3.000000000000028
100
AcDbArc
 50
90.0
 51
180.0
  0
ARC
  5
98
330
1F
100
AcDbEntity
  8
0
  6
Continuous
 62
     7
370
    15
100
AcDbCircle
 10
156.4744424092
 20
130.0494685731
 30
0.0
 40
3.000000000000028
100
AcDbArc
 50
180.0
 51
270.0
  0
LINE
  5
99
330
1F
100
AcDbEntity
  8
0
  6
Continuous
 62
     7
370
    15
100
AcDbLine
 10
177.3558285999
 20
100.0494682229
 30
0.0
 11
213.6313606965
 21
102.9044152236
 31
0.0
  0
LINE
  5
9A
330
1F
100
AcDbEntity
  8
0
  6
Continuous
 62
     7
370
    15
100
AcDbLine
 10
213.6313606965
 20
124.1945219225
 30
0.0
 11
177.3558285999
 21
127.0494689232
 31
0.0
  0
LINE
  5
9B
330
1F
100
AcDbEntity
  8
0
  6
Continuous
 62
     7
370
    15
100
AcDbLine
 10
156.4744421261
 20
100.0494682229
 30
0.0
 11
177.3558285999
 21
100.0494682229
 31
0.0
  0
LINE
  5
9C
330
1F
100
AcDbEntity
  8
0
  6
Continuous
 62
     7
370
    15
100
AcDbLine
 10
177.3558285999
 20
127.0494689232
 30
0.0
 11
156.4744421261
 21
127.0494689232
 31
0.0
  0
ARC
  5
9D
330
1F
100
AcDbEntity
  8
0
  6
Continuous
 62
     7
370
    15
100
AcDbCircle
 10
213.4744424092
 20
104.8982495564
 30
0.0
 40
2.000000000000019
100
AcDbArc
 50
274.5
 51
0.0
  0
ARC
  5
9E
330
1F
100
AcDbEntity
  8
0
  6
Continuous
 62
     7
370
    15
100
AcDbCircle
 10
213.4744424092
 20
122.2006875897
 30
0.0
 40
2.000000000000004
100
AcDbArc
 50
0.0
 51
85.5
  0
LINE
  5
9F
330
1F
100
AcDbEntity
  8
0
  6
Continuous
 62
     7
370
    15
100
AcDbLine
 10
135.4744424092
 20
82.2744681499
 30
0.0
 11
135.4744424092
 21
144.8244689962
 31
0.0
  0
SPLINE
  5
A0
330
1F
100
AcDbEntity
  8
0
  6
Continuous
 62
     7
370
    15
100
AcDbSpline
210
0.0
220
0.0
230
1.0
 70
     8
 71
     3
 72
     8
 73
     4
 74
     0
 42
0.000000001
 43
0.00000001
 40
0.0
 40
0.0
 40
0.0
 40
0.0
 40
1.0
 40
1.0
 40
1.0
 40
1.0
 10
147.6772861245585
 20
117.1047263158913
 30
0.0
 10
148.0156704238793
 20
117.5581173877398
 30
0.0
 10
148.3602388091121
 20
118.0012005263245
 30
0.0
 10
148.7086402137923
 20
118.4391758527383
 30
0.0
  0
SPLINE
  5
A1
330
1F
100
AcDbEntity
  8
0
  6
Continuous
 62
     7
370
    15
100
AcDbSpline
210
0.0
220
0.0
230
1.0
 70
     8
 71
     3
 72
    32
 73
    28
 74
     0
 42
0.000000001
 43
0.00000001
 40
0.0
 40
0.0
 40
0.0
 40
0.0
 40
0.1249999999999995
 40
0.1249999999999995
 40
0.2499999999999989
 40
0.2499999999999989
 40
0.3124999999999989
 40
0.3124999999999989
 40
0.3749999999999989
 40
0.3749999999999989
 40
0.4374999999999989
 40
0.4374999999999989
 40
0.4999999999999989
 40
0.4999999999999989
 40
0.5624999999999989
 40
0.5624999999999989
 40
0.6249999999999988
 40
0.6249999999999988
 40
0.6874999999999988
 40
0.6874999999999988
 40
0.7499999999999988
 40
0.7499999999999988
 40
0.8749999999999992
 40
0.8749999999999992
 40
0.9374999999999996
 40
0.9374999999999996
 40
1.0
 40
1.0
 40
1.0
 40
1.0
 10
148.7086402137927
 20
118.4391758527372
 30
0.0
 10
149.2092372415362
 20
118.2484183409409
 30
0.0
 10
149.6774824607607
 20
117.9950843507813
 30
0.0
 10
150.5448289448861
 20
117.3532951553782
 30
0.0
 10
150.9236323390984
 20
116.9796902609623
 30
0.0
 10
151.4044208537501
 20
116.338469816478
 30
0.0
 10
151.5507578981999
 20
116.1089707619256
 30
0.0
 10
151.802039026941
 20
115.63679369167
 30
0.0
 10
151.9083528276136
 20
115.3927907737305
 30
0.0
 10
152.0815889829077
 20
114.8885965660056
 30
0.0
 10
152.1488579749132
 20
114.6262379219819
 30
0.0
 10
152.2388020595258
 20
114.0940986225343
 30
0.0
 10
152.2613287558314
 20
113.827503290207
 30
0.0
 10
152.2625314656156
 20
113.2932848207156
 30
0.0
 10
152.241042374242
 20
113.0246692748079
 30
0.0
 10
152.1529147794778
 20
112.4905728796471
 30
0.0
 10
152.0873789772567
 20
112.2306881668647
 30
0.0
 10
151.9157447507984
 20
111.7244210852947
 30
0.0
 10
151.8092812363021
 20
111.4773773613107
 30
0.0
 10
151.5567624512187
 20
110.9997070489418
 30
0.0
 10
151.4133108377702
 20
110.7737154562164
 30
0.0
 10
150.934832336924
 20
110.1315232412188
 30
0.0
 10
150.5464174090685
 20
109.7478116371762
 30
0.0
 10
149.9037413598846
 20
109.2707866862058
 30
0.0
 10
149.6786080623754
 20
109.1268699573478
 30
0.0
 10
149.2065690190451
 20
108.8689966029827
 30
0.0
 10
148.9604597790024
 20
108.7557196611135
 30
0.0
 10
148.7086402137927
 20
108.659761293367
 30
0.0
  0
SPLINE
  5
A2
330
1F
100
AcDbEntity
  8
0
  6
Continuous
 62
     7
370
    15
100
AcDbSpline
210
0.0
220
0.0
230
1.0
 70
     8
 71
     3
 72
     8
 73
     4
 74
     0
 42
0.000000001
 43
0.00000001
 40
0.0
 40
0.0
 40
0.0
 40
0.0
 40
1.0
 40
1.0
 40
1.0
 40
1.0
 10
148.7086402137923
 20
108.6597612933659
 30
0.0
 10
148.360238809112
 20
109.0977366197798
 30
0.0
 10
148.0156704238791
 20
109.5408197583646
 30
0.0
 10
147.6772861245583
 20
109.9942108302132
 30
0.0
  0
ARC
  5
A3
330
1F
100
AcDbEntity
  8
0
  6
Continuous
 62
     7
370
    15
100
AcDbCircle
 10
146.5244424092
 20
113.5494685731
 30
0.0
 40
3.737500000000006
100
AcDbArc
 50
287.9660359156
 51
72.0339640843
  0
LINE
  5
A4
330
1F
100
AcDbEntity
  8
0
  6
Continuous
 62
     7
370
    15
100
AcDbLine
 10
148.7086405026
 20
82.0744684896
 30
0.0
 11
148.7086405026
 21
108.659761492
 31
0.0
  0
LINE
  5
A5
330
1F
100
AcDbEntity
  8
0
  6
Continuous
 62
     7
370
    15
100
AcDbLine
 10
148.7086405026
 20
118.4391756541
 30
0.0
 11
148.7086405026
 21
145.0244686565
 31
0.0
  0
LINE
  5
A6
330
1F
100
AcDbEntity
  8
0
  6
Continuous
 62
     7
370
    15
100
AcDbLine
 10
153.4744416344
 20
82.0744684896
 30
0.0
 11
153.4744416344
 21
145.0244686565
 31
0.0
  0
SPLINE
  5
A7
330
1F
100
AcDbEntity
  8
0
  6
Continuous
 62
     7
370
    15
100
AcDbSpline
210
0.0
220
0.0
230
1.0
 70
     8
 71
     3
 72
    22
 73
    18
 74
     0
 42
0.000000001
 43
0.00000001
 40
0.0
 40
0.0
 40
0.0
 40
0.0
 40
0.125
 40
0.125
 40
0.25
 40
0.25
 40
0.375
 40
0.375
 40
0.5
 40
0.5
 40
0.625
 40
0.625
 40
0.75
 40
0.75
 40
0.875
 40
0.875
 40
1.0
 40
1.0
 40
1.0
 40
1.0
 10
142.0402446046526
 20
110.2545704875353
 30
0.0
 10
141.8435066826312
 20
110.4819076340935
 30
0.0
 10
141.6675074419813
 20
110.7233153912233
 30
0.0
 10
141.3579281789565
 20
111.235072843397
 30
0.0
 10
141.2234165309215
 20
111.5083821756761
 30
0.0
 10
141.0081786331967
 20
112.0680557684424
 30
0.0
 10
140.9265023988257
 20
112.3548031007937
 30
0.0
 10
140.8158335627971
 20
112.9423703801813
 30
0.0
 10
140.7870995112191
 20
113.2465715227363
 30
0.0
 10
140.7867866236764
 20
113.8473104971912
 30
0.0
 10
140.8143206724109
 20
114.1449399958612
 30
0.0
 10
140.9240893385234
 20
114.7347914317614
 30
0.0
 10
141.0074492819961
 20
115.0285238802884
 30
0.0
 10
141.2221674061557
 20
115.587763698977
 30
0.0
 10
141.3537538131499
 20
115.8561540310369
 30
0.0
 10
141.6642822452286
 20
116.3710809560568
 30
0.0
 10
141.8429280955713
 20
116.6163609356127
 30
0.0
 10
142.0402446046526
 20
116.8443666585688
 30
0.0
  0
LINE
  5
A8
330
1F
100
AcDbEntity
  8
0
  6
Continuous
 62
     7
370
    15
100
AcDbLine
 10
142.0402446742
 20
82.0744684896
 30
0.0
 11
142.0402446742
 21
110.254570376
 31
0.0
  0
LINE
  5
A9
330
1F
100
AcDbEntity
  8
0
  6
Continuous
 62
     7
370
    15
100
AcDbLine
 10
142.0402446742
 20
116.8443667701
 30
0.0
 11
142.0402446742
 21
145.0244686565
 31
0.0
  0
SPLINE
  5
AA
330
1F
100
AcDbEntity
  8
0
  6
Continuous
 62
     7
370
    15
100
AcDbSpline
210
0.0
220
0.0
230
1.0
 70
     8
 71
     3
 72
    10
 73
     6
 74
     0
 42
0.000000001
 43
0.00000001
 40
0.0
 40
0.0
 40
0.0
 40
0.0
 40
0.5
 40
0.5
 40
1.0
 40
1.0
 40
1.0
 40
1.0
 10
143.1684606017694
 20
111.9043873112165
 30
0.0
 10
142.991575455346
 20
111.6059369958599
 30
0.0
 10
142.8060260804686
 20
111.3269442917325
 30
0.0
 10
142.428077140421
 20
110.7816249976068
 30
0.0
 10
142.2352905982418
 20
110.5162896117853
 30
0.0
 10
142.0402446046525
 20
110.2545704875354
 30
0.0
  0
SPLINE
  5
AB
330
1F
100
AcDbEntity
  8
0
  6
Continuous
 62
     7
370
    15
100
AcDbSpline
210
0.0
220
0.0
230
1.0
 70
     8
 71
     3
 72
    10
 73
     6
 74
     0
 42
0.000000001
 43
0.00000001
 40
0.0
 40
0.0
 40
0.0
 40
0.0
 40
0.5
 40
0.5
 40
1.0
 40
1.0
 40
1.0
 40
1.0
 10
142.0402446046526
 20
116.8443666585688
 30
0.0
 10
142.2352905982418
 20
116.5826475343189
 30
0.0
 10
142.428077140421
 20
116.3173121484974
 30
0.0
 10
142.8060260804686
 20
115.7719928543717
 30
0.0
 10
142.991575455346
 20
115.4930001502443
 30
0.0
 10
143.1684606017694
 20
115.1945498348877
 30
0.0
  0
ARC
  5
AC
330
1F
100
AcDbEntity
  8
0
  6
Continuous
 62
     7
370
    15
100
AcDbCircle
 10
146.5244424092
 20
113.5494685731
 30
0.0
 40
3.737500000000008
100
AcDbArc
 50
153.886195556
 51
206.113804444
  0
SPLINE
  5
AD
330
1F
100
AcDbEntity
  8
0
  6
Continuous
 62
     7
370
    15
100
AcDbSpline
210
0.0
220
0.0
230
1.0
 70
     8
 71
     3
 72
     8
 73
     4
 74
     0
 42
0.000000001
 43
0.00000001
 40
0.0
 40
0.0
 40
0.0
 40
0.0
 40
1.0
 40
1.0
 40
1.0
 40
1.0
 10
143.4994424092227
 20
111.3544102025297
 30
0.0
 10
143.3811456497927
 20
111.5174344309882
 30
0.0
 10
143.2697171676213
 20
111.6978229300106
 30
0.0
 10
143.1684606017694
 20
111.9043873112165
 30
0.0
  0
LINE
  5
AE
330
1F
100
AcDbEntity
  8
0
  6
Continuous
 62
     7
370
    15
100
AcDbLine
 10
143.4994422811
 20
84.6018730661
 30
0.0
 11
143.4994422811
 21
111.3544101826
 31
0.0
  0
LINE
  5
AF
330
1F
100
AcDbEntity
  8
0
  6
Continuous
 62
     7
370
    15
100
AcDbLine
 10
143.4994422811
 20
115.7445269636
 30
0.0
 11
143.4994422811
 21
142.49706408
 31
0.0
  0
SPLINE
  5
B0
330
1F
100
AcDbEntity
  8
0
  6
Continuous
 62
     7
370
    15
100
AcDbSpline
210
0.0
220
0.0
230
1.0
 70
     8
 71
     3
 72
     8
 73
     4
 74
     0
 42
0.000000001
 43
0.00000001
 40
0.0
 40
0.0
 40
0.0
 40
0.0
 40
1.0
 40
1.0
 40
1.0
 40
1.0
 10
143.1684606017694
 20
115.1945498348877
 30
0.0
 10
143.2692036133813
 20
115.4000665604388
 30
0.0
 10
143.3814935814815
 20
115.5819821982008
 30
0.0
 10
143.4994424092227
 20
115.7445269435745
 30
0.0
  0
SPLINE
  5
B1
330
1F
100
AcDbEntity
  8
0
  6
Continuous
 62
     7
370
    15
100
AcDbSpline
210
0.0
220
0.0
230
1.0
 70
     8
 71
     3
 72
     8
 73
     4
 74
     0
 42
0.000000001
 43
0.00000001
 40
0.0
 40
0.0
 40
0.0
 40
0.0
 40
1.0
 40
1.0
 40
1.0
 40
1.0
 10
147.2494424092229
 20
117.2159766188652
 30
0.0
 10
147.39313756754
 20
117.1875629379246
 30
0.0
 10
147.5357480362771
 20
117.1506220869872
 30
0.0
 10
147.6772861245591
 20
117.1047263158901
 30
0.0
  0
LINE
  5
B2
330
1F
100
AcDbEntity
  8
0
  6
Continuous
 62
     7
370
    15
100
AcDbLine
 10
147.2494424301
 20
117.2159765846
 30
0.0
 11
147.2494424301
 21
142.49706408
 31
0.0
  0
SPLINE
  5
B3
330
1F
100
AcDbEntity
  8
0
  6
Continuous
 62
     7
370
    15
100
AcDbSpline
210
0.0
220
0.0
230
1.0
 70
     8
 71
     3
 72
     8
 73
     4
 74
     0
 42
0.000000001
 43
0.00000001
 40
0.0
 40
0.0
 40
0.0
 40
0.0
 40
1.0
 40
1.0
 40
1.0
 40
1.0
 10
147.6772861245586
 20
109.994210830214
 30
0.0
 10
147.5357480362767
 20
109.9483150591169
 30
0.0
 10
147.3931375675399
 20
109.9113742081796
 30
0.0
 10
147.2494424092229
 20
109.882960527239
 30
0.0
  0
LINE
  5
B4
330
1F
100
AcDbEntity
  8
0
  6
Continuous
 62
     7
370
    15
100
AcDbLine
 10
147.2494424301
 20
84.6018730661
 30
0.0
 11
147.2494424301
 21
109.8829605615
 31
0.0
  0
SPLINE
  5
B5
330
1F
100
AcDbEntity
  8
0
  6
Continuous
 62
     7
370
    15
100
AcDbSpline
210
0.0
220
0.0
230
1.0
 70
     8
 71
     3
 72
    16
 73
    12
 74
     0
 42
0.000000001
 43
0.00000001
 40
0.0
 40
0.0
 40
0.0
 40
0.0
 40
0.1249999999999996
 40
0.1249999999999996
 40
0.2499999999999992
 40
0.2499999999999992
 40
0.4999999999999994
 40
0.4999999999999994
 40
0.7499999999999997
 40
0.7499999999999997
 40
1.0
 40
1.0
 40
1.0
 40
1.0
 10
143.4994424092226
 20
115.7445269435744
 30
0.0
 10
143.4994424092226
 20
115.7445269435744
 30
0.0
 10
143.5091192842476
 20
115.7579861999952
 30
0.0
 10
143.5432586611367
 20
115.8038569860536
 30
0.0
 10
143.5677042532854
 20
115.836125557119
 30
0.0
 10
143.6550649894006
 20
115.9462074438597
 30
0.0
 10
143.7324557111284
 20
116.0375225933543
 30
0.0
 10
143.910952240213
 20
116.2244025286418
 30
0.0
 10
144.0130714722318
 20
116.3214929431793
 30
0.0
 10
144.2416889928053
 20
116.5125986632736
 30
0.0
 10
144.3648878612779
 20
116.6041139824996
 30
0.0
 10
144.4994424092226
 20
116.6908506335471
 30
0.0
  0
SPLINE
  5
B6
330
1F
100
AcDbEntity
  8
0
  6
Continuous
 62
     7
370
    15
100
AcDbSpline
210
0.0
220
0.0
230
1.0
 70
     8
 71
     3
 72
    14
 73
    10
 74
     0
 42
0.000000001
 43
0.00000001
 40
0.0
 40
0.0
 40
0.0
 40
0.0
 40
0.25
 40
0.25
 40
0.5
 40
0.5
 40
0.75
 40
0.75
 40
1.0
 40
1.0
 40
1.0
 40
1.0
 10
144.4994424092226
 20
110.4080865125571
 30
0.0
 10
144.3650943228662
 20
110.4946900741847
 30
0.0
 10
144.2419176490102
 20
110.5861584715081
 30
0.0
 10
144.0131710440922
 20
110.777349858139
 30
0.0
 10
143.911249080125
 20
110.8742117102799
 30
0.0
 10
143.7318256776962
 20
111.0620863250152
 30
0.0
 10
143.6553843895135
 20
111.1523216763665
 30
0.0
 10
143.5380944166633
 20
111.3001280403439
 30
0.0
 10
143.4994424092226
 20
111.3544102025298
 30
0.0
 10
143.4994424092226
 20
111.3544102025298
 30
0.0
  0
SPLINE
  5
B7
330
1F
100
AcDbEntity
  8
0
  6
Continuous
 62
     7
370
    15
100
AcDbSpline
210
0.0
220
0.0
230
1.0
 70
     8
 71
     3
 72
    14
 73
    10
 74
     0
 42
0.000000001
 43
0.00000001
 40
0.0
 40
0.0
 40
0.0
 40
0.0
 40
0.25
 40
0.25
 40
0.5
 40
0.5
 40
0.75
 40
0.75
 40
1.0
 40
1.0
 40
1.0
 40
1.0
 10
147.2494424092228
 20
109.8829605272396
 30
0.0
 10
147.2494424092229
 20
109.8829605272396
 30
0.0
 10
147.2235258866518
 20
109.8775837962512
 30
0.0
 10
147.1240810400742
 20
109.8600392086508
 30
0.0
 10
147.051782647662
 20
109.8481898050045
 30
0.0
 10
146.8670787531381
 20
109.8265459870042
 30
0.0
 10
146.7575014912622
 20
109.8172567263198
 30
0.0
 10
146.514171313044
 20
109.8100011899622
 30
0.0
 10
146.3826350541239
 20
109.8122725961216
 30
0.0
 10
146.2494424092226
 20
109.8220993600547
 30
0.0
  0
SPLINE
  5
B8
330
1F
100
AcDbEntity
  8
0
  6
Continuous
 62
     7
370
    15
100
AcDbSpline
210
0.0
220
0.0
230
1.0
 70
     8
 71
     3
 72
    14
 73
    10
 74
     0
 42
0.000000001
 43
0.00000001
 40
0.0
 40
0.0
 40
0.0
 40
0.0
 40
0.25
 40
0.25
 40
0.5
 40
0.5
 40
0.75
 40
0.75
 40
1.0
 40
1.0
 40
1.0
 40
1.0
 10
146.2494424092226
 20
117.2768377860494
 30
0.0
 10
146.382671860246
 20
117.2866672654859
 30
0.0
 10
146.5143732228561
 20
117.2889323982185
 30
0.0
 10
146.7574508810732
 20
117.2816794647741
 30
0.0
 10
146.8683568216219
 20
117.2722482350046
 30
0.0
 10
147.0510538946995
 20
117.2508258751599
 30
0.0
 10
147.1244414241812
 20
117.2388351189668
 30
0.0
 10
147.2232757030994
 20
117.2213967253224
 30
0.0
 10
147.2494424092226
 20
117.2159766188638
 30
0.0
 10
147.2494424092226
 20
117.2159766188638
 30
0.0
  0
SPLINE
  5
B9
330
1F
100
AcDbEntity
  8
0
  6
Continuous
 62
     7
370
    15
100
AcDbSpline
210
0.0
220
0.0
230
1.0
 70
     8
 71
     3
 72
    10
 73
     6
 74
     0
 42
0.000000001
 43
0.00000001
 40
0.0
 40
0.0
 40
0.0
 40
0.0
 40
0.5
 40
0.5
 40
1.0
 40
1.0
 40
1.0
 40
1.0
 10
146.2494424092226
 20
109.8220993600548
 30
0.0
 10
145.9369785069345
 20
109.8451525024239
 30
0.0
 10
145.6340895249367
 20
109.9063872048303
 30
0.0
 10
145.0467463401327
 20
110.1025591687542
 30
0.0
 10
144.7622786795607
 20
110.238656803854
 30
0.0
 10
144.4994424092226
 20
110.4080865125571
 30
0.0
  0
SPLINE
  5
BA
330
1F
100
AcDbEntity
  8
0
  6
Continuous
 62
     7
370
    15
100
AcDbSpline
210
0.0
220
0.0
230
1.0
 70
     8
 71
     3
 72
    10
 73
     6
 74
     0
 42
0.000000001
 43
0.00000001
 40
0.0
 40
0.0
 40
0.0
 40
0.0
 40
0.5
 40
0.5
 40
1.0
 40
1.0
 40
1.0
 40
1.0
 10
144.4994424092226
 20
116.6908506335471
 30
0.0
 10
144.7622619235784
 20
116.8602695409966
 30
0.0
 10
145.040614788186
 20
116.9937430675359
 30
0.0
 10
145.6276113755715
 20
117.1909607533791
 30
0.0
 10
145.9369950654498
 20
117.253785865344
 30
0.0
 10
146.2494424092226
 20
117.2768377860494
 30
0.0
  0
LINE
  5
BB
330
1F
100
AcDbEntity
  8
0
  6
Continuous
 62
     7
370
    15
100
AcDbLine
 10
134.3142603504
 20
88.6077298781
 30
0.0
 11
134.3142603504
 21
138.491207268
 31
0.0
  0
SPLINE
  5
BC
330
1F
100
AcDbEntity
  8
0
  6
Continuous
 62
     7
370
    15
100
AcDbSpline
210
0.0
220
0.0
230
1.0
 70
     8
 71
     3
 72
     8
 73
     4
 74
     0
 42
0.000000001
 43
0.00000001
 40
0.0
 40
0.0
 40
0.0
 40
0.0
 40
1.0
 40
1.0
 40
1.0
 40
1.0
 10
97.02444240923266
 20
124.4544467134935
 30
0.0
 10
98.4551917742663
 20
124.4534595573706
 30
0.0
 10
99.88594113929993
 20
124.4520974822048
 30
0.0
 10
101.3166905043336
 20
124.4503596069249
 30
0.0
  0
LINE
  5
BD
330
1F
100
AcDbEntity
  8
0
  6
Continuous
 62
     7
370
    15
100
AcDbLine
 10
97.0244434642
 20
124.4544466025
 30
0.0
 11
97.0244434642
 21
136.6185895166
 31
0.0
  0
LINE
  5
BE
330
1F
100
AcDbEntity
  8
0
  6
Continuous
 62
     7
370
    15
100
AcDbLine
 10
97.0244434642
 20
104.4273455626
 30
0.0
 11
97.0244434642
 21
90.4803476295
 31
0.0
  0
SPLINE
  5
BF
330
1F
100
AcDbEntity
  8
0
  6
Continuous
 62
     7
370
    15
100
AcDbSpline
210
0.0
220
0.0
230
1.0
 70
     8
 71
     3
 72
     8
 73
     4
 74
     0
 42
0.000000001
 43
0.00000001
 40
0.0
 40
0.0
 40
0.0
 40
0.0
 40
1.0
 40
1.0
 40
1.0
 40
1.0
 10
102.8426168621696
 20
104.4319315967488
 30
0.0
 10
100.9032253778582
 20
104.4297855008992
 30
0.0
 10
98.96383389354679
 20
104.4281893143744
 30
0.0
 10
97.02444240923539
 20
104.4271418618987
 30
0.0
  0
SPLINE
  5
C0
330
1F
100
AcDbEntity
  8
0
  6
Continuous
 62
     7
370
    15
100
AcDbSpline
210
0.0
220
0.0
230
1.0
 70
     8
 71
     3
 72
    13
 73
     9
 74
     0
 42
0.000000001
 43
0.00000001
 40
0.0
 40
0.0
 40
0.0
 40
0.0
 40
0.1686319999748108
 40
0.3360343310905541
 40
0.5025367825908723
 40
0.6684737453788424
 40
0.8341822636915195
 40
1.0
 40
1.0
 40
1.0
 40
1.0
 10
103.9261119116366
 20
104.5693880425664
 30
0.0
 10
103.8666220155769
 20
104.5548737225276
 30
0.0
 10
103.7480760253018
 20
104.525950921243
 30
0.0
 10
103.5681993297159
 20
104.4919895278348
 30
0.0
 10
103.3878090420879
 20
104.4651239654758
 30
0.0
 10
103.2066968700541
 20
104.4461650283678
 30
0.0
 10
103.0249360328866
 20
104.4342345769721
 30
0.0
 10
102.903403264992
 20
104.4326994254033
 30
0.0
 10
102.8426168621696
 20
104.4319315967488
 30
0.0
  0
SPLINE
  5
C1
330
1F
100
AcDbEntity
  8
0
  6
Continuous
 62
     7
370
    15
100
AcDbSpline
210
0.0
220
0.0
230
1.0
 70
     8
 71
     3
 72
     8
 73
     4
 74
     0
 42
0.000000001
 43
0.00000001
 40
0.0
 40
0.0
 40
0.0
 40
0.0
 40
1.0
 40
1.0
 40
1.0
 40
1.0
 10
109.3183053281368
 20
104.5736260844519
 30
0.0
 10
107.5209106566966
 20
104.5717550239279
 30
0.0
 10
105.7235159852563
 20
104.5703328429038
 30
0.0
 10
103.926121313816
 20
104.5693587199078
 30
0.0
  0
SPLINE
  5
C2
330
1F
100
AcDbEntity
  8
0
  6
Continuous
 62
     7
370
    15
100
AcDbSpline
210
0.0
220
0.0
230
1.0
 70
     8
 71
     3
 72
    18
 73
    14
 74
     0
 42
0.000000001
 43
0.00000001
 40
0.0
 40
0.0
 40
0.0
 40
0.0
 40
0.0923325137151694
 40
0.1843692047134009
 40
0.2763458873902312
 40
0.368498217575762
 40
0.4610598988406411
 40
0.5542609546627003
 40
0.6483261285518087
 40
0.743473463655427
 40
0.8399130993133287
 40
0.9201660718313618
 40
1.0
 40
1.0
 40
1.0
 40
1.0
 10
111.5146269767318
 20
104.0394338486082
 30
0.0
 10
111.4442966732157
 20
104.0398504730398
 30
0.0
 10
111.3038613963585
 20
104.0406823870864
 30
0.0
 10
111.093498869849
 20
104.0542912340008
 30
0.0
 10
110.8840552069281
 20
104.0769579913724
 30
0.0
 10
110.6755055365533
 20
104.1095587811731
 30
0.0
 10
110.467861919278
 20
104.1518612597933
 30
0.0
 10
110.2611237317406
 20
104.2039326584484
 30
0.0
 10
110.0553016397803
 20
104.2657814312938
 30
0.0
 10
109.8503699609949
 20
104.33737944275
 30
0.0
 10
109.6588892156051
 20
104.4139579329788
 30
0.0
 10
109.4811660635554
 20
104.492569181813
 30
0.0
 10
109.3728320689926
 20
104.5464833376001
 30
0.0
 10
109.3188068595403
 20
104.5733698524987
 30
0.0
  0
LINE
  5
C3
330
1F
100
AcDbEntity
  8
0
  6
Continuous
 62
     7
370
    15
100
AcDbLine
 10
113.4295006263
 20
104.0409295818
 30
0.0
 11
111.5146269071
 21
104.0394338778
 31
0.0
  0
SPLINE
  5
C4
330
1F
100
AcDbEntity
  8
0
  6
Continuous
 62
     7
370
    15
100
AcDbSpline
210
0.0
220
0.0
230
1.0
 70
     8
 71
     3
 72
    25
 73
    21
 74
     0
 42
0.000000001
 43
0.00000001
 40
0.0
 40
0.0
 40
0.0
 40
0.0
 40
0.0280105225425618
 40
0.0559601148859273
 40
0.0839014045041196
 40
0.1118870776784247
 40
0.1399695827586811
 40
0.1682008401737953
 40
0.1966319670422708
 40
0.2253130233140565
 40
0.2542927850735732
 40
0.3799486436574536
 40
0.5057850221666685
 40
0.6313085886327393
 40
0.7532068238012419
 40
0.803947326795536
 40
0.8535894438553622
 40
0.9025339722393254
 40
0.951197035379054
 40
1.0
 40
1.0
 40
1.0
 40
1.0
 10
118.3693845624241
 20
109.1747930879835
 30
0.0
 10
118.3694217841579
 20
109.1001730609703
 30
0.0
 10
118.3694961466586
 20
108.9510953249835
 30
0.0
 10
118.3570800960121
 20
108.7284772340176
 30
0.0
 10
118.3354755356583
 20
108.507152815989
 30
0.0
 10
118.3037900659983
 20
108.2871845501006
 30
0.0
 10
118.2622639276784
 20
108.0685942628715
 30
0.0
 10
118.2108331719484
 20
107.851412324467
 30
0.0
 10
118.1495192972372
 20
107.6356709045819
 30
0.0
 10
118.0783089617377
 20
107.4213810131314
 30
0.0
 10
117.9074723545342
 20
106.97303124011
 30
0.0
 10
117.5697401210984
 20
106.3197004120387
 30
0.0
 10
116.9581854569009
 20
105.5478072013996
 30
0.0
 10
116.2219506217513
 20
104.9036475760147
 30
0.0
 10
115.535464550104
 20
104.5120064079529
 30
0.0
 10
114.9867604039541
 20
104.2933115069847
 30
0.0
 10
114.6047242254494
 20
104.177455458154
 30
0.0
 10
114.217558126745
 20
104.0965475526241
 30
0.0
 10
113.8253314579583
 20
104.0473191218261
 30
0.0
 10
113.5615701898429
 20
104.0430612668108
 30
0.0
 10
113.4295002560212
 20
104.040929283468
 30
0.0
  0
LINE
  5
C5
330
1F
100
AcDbEntity
  8
0
  6
Continuous
 62
     7
370
    15
100
AcDbLine
 10
118.3693845736
 20
117.9241440258
 30
0.0
 11
118.3693845736
 21
109.1747931203
 31
0.0
  0
SPLINE
  5
C6
330
1F
100
AcDbEntity
  8
0
  6
Continuous
 62
     7
370
    15
100
AcDbSpline
210
0.0
220
0.0
230
1.0
 70
     8
 71
     3
 72
    26
 73
    22
 74
     0
 42
0.000000001
 43
0.00000001
 40
0.0
 40
0.0
 40
0.0
 40
0.0
 40
0.0241259796962594
 40
0.0482159912271147
 40
0.0723203915121655
 40
0.0964895678708044
 40
0.1207736231960655
 40
0.1452220711240092
 40
0.1698835501655297
 40
0.1948055644470513
 40
0.2200342569516523
 40
0.2456142191611222
 40
0.3690971486898452
 40
0.4940698769485167
 40
0.6192566784763793
 40
0.7454656653603262
 40
0.7971495824714568
 40
0.8481710308406679
 40
0.8988013269236526
 40
0.9493179290493045
 40
1.0
 40
1.0
 40
1.0
 40
1.0
 10
113.4295002560212
 20
123.0580078626362
 30
0.0
 10
113.4947493145705
 20
123.0574340762574
 30
0.0
 10
113.6251501552491
 20
123.0562873589279
 30
0.0
 10
113.8201299735447
 20
123.044169982435
 30
0.0
 10
114.0142591108079
 20
123.0244114609733
 30
0.0
 10
114.2075204509018
 20
122.9962492787525
 30
0.0
 10
114.399915629376
 20
122.9598581827042
 30
0.0
 10
114.5914412078771
 20
122.9151570972268
 30
0.0
 10
114.7820967402628
 20
122.8621286258427
 30
0.0
 10
114.9718767393617
 20
122.8007376044161
 30
0.0
 10
115.1607953600181
 20
122.7309353979363
 30
0.0
 10
115.5875397731889
 20
122.5534063277218
 30
0.0
 10
116.2220121003701
 20
122.1988457248242
 30
0.0
 10
116.9616879527157
 20
121.5566739111333
 30
0.0
 10
117.5684351955521
 20
120.7835086073519
 30
0.0
 10
117.9292270117703
 20
120.0760931990917
 30
0.0
 10
118.1314010675342
 20
119.511585799866
 30
0.0
 10
118.2382245235194
 20
119.1226989383171
 30
0.0
 10
118.3138352398177
 20
118.7282161844489
 30
0.0
 10
118.360997912509
 20
118.328410094259
 30
0.0
 10
118.3665859667972
 20
118.0590462147948
 30
0.0
 10
118.3693845624241
 20
117.9241440581207
 30
0.0
  0
LINE
  5
C7
330
1F
100
AcDbEntity
  8
0
  6
Continuous
 62
     7
370
    15
100
AcDbLine
 10
111.5146269071
 20
123.0595032683
 30
0.0
 11
113.4295006263
 21
123.0580075643
 31
0.0
  0
SPLINE
  5
C8
330
1F
100
AcDbEntity
  8
0
  6
Continuous
 62
     7
370
    15
100
AcDbSpline
210
0.0
220
0.0
230
1.0
 70
     8
 71
     3
 72
    14
 73
    10
 74
     0
 42
0.000000001
 43
0.00000001
 40
0.0
 40
0.0
 40
0.0
 40
0.0
 40
0.0786889129230217
 40
0.1577561817120102
 40
0.3304686003102582
 40
0.4997364082417218
 40
0.666847231663544
 40
0.833145083375537
 40
1.0
 40
1.0
 40
1.0
 40
1.0
 10
109.3195570032658
 20
122.5260402790606
 30
0.0
 10
109.372768171252
 20
122.5525400880923
 30
0.0
 10
109.4794463597557
 20
122.6056671238288
 30
0.0
 10
109.7081307625569
 20
122.7071101793666
 30
0.0
 10
110.0068022978318
 20
122.8211123374147
 30
0.0
 10
110.3789452192473
 20
122.9297189286328
 30
0.0
 10
110.7545750585019
 20
123.0060531727073
 30
0.0
 10
111.1337673600367
 20
123.0528706408582
 30
0.0
 10
111.387532330988
 20
123.0572899487744
 30
0.0
 10
111.5146269767318
 20
123.059503297496
 30
0.0
  0
SPLINE
  5
C9
330
1F
100
AcDbEntity
  8
0
  6
Continuous
 62
     7
370
    15
100
AcDbSpline
210
0.0
220
0.0
230
1.0
 70
     8
 71
     3
 72
     8
 73
     4
 74
     0
 42
0.000000001
 43
0.00000001
 40
0.0
 40
0.0
 40
0.0
 40
0.0
 40
1.0
 40
1.0
 40
1.0
 40
1.0
 10
104.9088740990267
 20
122.5293529589916
 30
0.0
 10
106.3789903493914
 20
122.528491051097
 30
0.0
 10
107.8491065997561
 20
122.527330045072
 30
0.0
 10
109.3192228501207
 20
122.5258694939529
 30
0.0
  0
SPLINE
  5
CA
330
1F
100
AcDbEntity
  8
0
  6
Continuous
 62
     7
370
    15
100
AcDbSpline
210
0.0
220
0.0
230
1.0
 70
     8
 71
     3
 72
    23
 73
    19
 74
     0
 42
0.000000001
 43
0.00000001
 40
0.0
 40
0.0
 40
0.0
 40
0.0
 40
0.0441308420115403
 40
0.0880968635201137
 40
0.1320155028394797
 40
0.1760048571417636
 40
0.220182730577585
 40
0.2646656976919496
 40
0.3095682184552906
 40
0.3550018365579412
 40
0.4010744854732484
 40
0.4478899182331895
 40
0.4955472680210786
 40
0.5953670562466713
 40
0.6949121173423626
 40
0.7950007649006683
 40
0.896438625518418
 40
1.0
 40
1.0
 40
1.0
 40
1.0
 10
101.3166905043336
 20
124.4503596069249
 30
0.0
 10
101.3812515031449
 20
124.449793892465
 30
0.0
 10
101.5101323774213
 20
124.4486645763839
 30
0.0
 10
101.7024825870618
 20
124.4358258700264
 30
0.0
 10
101.8933981579306
 20
124.4147833710131
 30
0.0
 10
102.082855792153
 20
124.3847202983937
 30
0.0
 10
102.2708566863381
 20
124.3458158082688
 30
0.0
 10
102.4573959982735
 20
124.2979758523646
 30
0.0
 10
102.6424710489601
 20
124.2411736709369
 30
0.0
 10
102.8260800280008
 20
124.1753581913357
 30
0.0
 10
103.0082194884517
 20
124.1004782260232
 30
0.0
 10
103.1888961797517
 20
124.0164780827634
 30
0.0
 10
103.4322400521963
 20
123.889923865717
 30
0.0
 10
103.7289338647735
 20
123.7098061409902
 30
0.0
 10
104.0644603534995
 20
123.4611139018558
 30
0.0
 10
104.3741134357431
 20
123.1816877458948
 30
0.0
 10
104.6605723567392
 20
122.8730157154389
 30
0.0
 10
104.8269841056638
 20
122.6455704069837
 30
0.0
 10
104.9110518800639
 20
122.5306697403953
 30
0.0
  0
SPLINE
  5
CB
330
1F
100
AcDbEntity
  8
0
  6
Continuous
 62
     7
370
    15
100
AcDbSpline
210
0.0
220
0.0
230
1.0
 70
     8
 71
     3
 72
    20
 73
    16
 74
     0
 42
0.000000001
 43
0.00000001
 40
0.0
 40
0.0
 40
0.0
 40
0.0
 40
0.0829621397148167
 40
0.165849559923019
 40
0.2487180185793436
 40
0.3299477342032863
 40
0.4108694252377165
 40
0.4941953572191267
 40
0.5768901805470451
 40
0.6601065719146163
 40
0.7435845579415131
 40
0.8279858393428777
 40
0.9132590659659428
 40
0.9972257017231292
 40
1.0
 40
1.0
 40
1.0
 40
1.0
 10
107.3868581073933
 20
90.68620903404397
 30
0.0
 10
107.7726039764131
 20
90.76312731351524
 30
0.0
 10
108.5437482940378
 20
90.91689459632879
 30
0.0
 10
109.9514971477528
 20
91.09280930040798
 30
0.0
 10
111.4593482915036
 20
91.18680655263316
 30
0.0
 10
113.0318370944453
 20
91.16295952248066
 30
0.0
 10
114.5991342015777
 20
91.01905757067668
 30
0.0
 10
116.0949097007461
 20
90.76999758103898
 30
0.0
 10
117.4751640814871
 20
90.45531777731505
 30
0.0
 10
118.6727574095191
 20
90.11105657507684
 30
0.0
 10
119.659620730054
 20
89.78201119372767
 30
0.0
 10
120.4068580864375
 20
89.5035466821031
 30
0.0
 10
120.8540587291063
 20
89.33169671641639
 30
0.0
 10
121.0408154023796
 20
89.25783274630383
 30
0.0
 10
120.9897163826132
 20
89.27799309405182
 30
0.0
 10
120.9880820455604
 20
89.27863789709252
 30
0.0
  0
SPLINE
  5
CC
330
1F
100
AcDbEntity
  8
0
  6
Continuous
 62
     7
370
    15
100
AcDbSpline
210
0.0
220
0.0
230
1.0
 70
     8
 71
     3
 72
    11
 73
     7
 74
     0
 42
0.000000001
 43
0.00000001
 40
0.0
 40
0.0
 40
0.0
 40
0.0
 40
0.2435511920983711
 40
0.4981153938030212
 40
0.750909785993258
 40
1.0
 40
1.0
 40
1.0
 40
1.0
 10
105.0793648677521
 20
90.07754689069432
 30
0.0
 10
105.1053152793464
 20
90.08578166727035
 30
0.0
 10
105.1583895401589
 20
90.1026235843298
 30
0.0
 10
105.6360853931524
 20
90.24352826112035
 30
0.0
 10
106.347425064274
 20
90.44881603549133
 30
0.0
 10
107.0420894251544
 20
90.60746834764234
 30
0.0
 10
107.3868581073933
 20
90.68620903404397
 30
0.0
  0
SPLINE
  5
CD
330
1F
100
AcDbEntity
  8
0
  6
Continuous
 62
     7
370
    15
100
AcDbSpline
210
0.0
220
0.0
230
1.0
 70
     8
 71
     3
 72
    11
 73
     7
 74
     0
 42
0.000000001
 43
0.00000001
 40
0.0
 40
0.0
 40
0.0
 40
0.0
 40
0.249162618138769
 40
0.5017504786054421
 40
0.7560491028276796
 40
0.9999999999999999
 40
0.9999999999999999
 40
0.9999999999999999
 40
0.9999999999999999
 10
107.3870741742306
 20
136.4127933046404
 30
0.0
 10
107.0426620543738
 20
136.4916286274296
 30
0.0
 10
106.3491031759732
 20
136.6503830233977
 30
0.0
 10
105.6377238618116
 20
136.8554055544874
 30
0.0
 10
105.1597406405969
 20
136.9962966395245
 30
0.0
 10
105.1057870114103
 20
137.0132061062342
 30
0.0
 10
105.0793704556876
 20
137.0214852503125
 30
0.0
  0
SPLINE
  5
CE
330
1F
100
AcDbEntity
  8
0
  6
Continuous
 62
     7
370
    15
100
AcDbSpline
210
0.0
220
0.0
230
1.0
 70
     8
 71
     3
 72
    20
 73
    16
 74
     0
 42
0.000000001
 43
0.00000001
 40
0.0
 40
0.0
 40
0.0
 40
0.0
 40
0.0020978605889371
 40
0.0861225778994255
 40
0.1715950183645697
 40
0.2561988430343052
 40
0.3398275250694439
 40
0.423045877256469
 40
0.5057166369421945
 40
0.588890314891012
 40
0.6698064533383425
 40
0.7510282954465385
 40
0.8339975043603477
 40
0.9170076327053538
 40
1.0
 40
1.0
 40
1.0
 40
1.0
 10
120.9890189560705
 20
137.8207500091378
 30
0.0
 10
120.9902631419484
 20
137.8212412242357
 30
0.0
 10
121.0413401752656
 20
137.8414068685859
 30
0.0
 10
120.8560130228564
 20
137.7680195767308
 30
0.0
 10
120.4097387286504
 20
137.5966468228126
 30
0.0
 10
119.6622381873381
 20
137.3177927083988
 30
0.0
 10
118.6740593461162
 20
136.9883522101736
 30
0.0
 10
117.4756793179781
 20
136.6440343426298
 30
0.0
 10
116.0966067118123
 20
136.3295272888292
 30
0.0
 10
114.6020333434188
 20
136.0806998035784
 30
0.0
 10
113.0361428558433
 20
135.93633443659
 30
0.0
 10
111.4628713276298
 20
135.911764736583
 30
0.0
 10
109.953498113483
 20
136.0056491262785
 30
0.0
 10
108.5437932294541
 20
136.181564915209
 30
0.0
 10
107.7726196893329
 20
136.3357226727467
 30
0.0
 10
107.3870741742306
 20
136.4127933046404
 30
0.0
  0
LINE
  5
CF
330
1F
100
AcDbEntity
  8
0
  6
Continuous
 62
     7
370
    15
100
AcDbLine
 10
118.3693845736
 20
109.1747931203
 30
0.0
 11
117.4744431841
 21
109.3369685112
 31
0.0
  0
LINE
  5
D0
330
1F
100
AcDbEntity
  8
0
  6
Continuous
 62
     7
370
    15
100
AcDbLine
 10
117.4744431841
 20
109.3369685112
 30
0.0
 11
117.4744431841
 21
117.7619686349
 31
0.0
  0
LINE
  5
D1
330
1F
100
AcDbEntity
  8
0
  6
Continuous
 62
     7
370
    15
100
AcDbLine
 10
118.3693845736
 20
117.9241440258
 30
0.0
 11
117.4744431841
 21
117.7619686349
 31
0.0
  0
SPLINE
  5
D2
330
1F
100
AcDbEntity
  8
0
  6
Continuous
 62
     7
370
    15
100
AcDbSpline
210
0.0
220
0.0
230
1.0
 70
     8
 71
     3
 72
    25
 73
    21
 74
     0
 42
0.000000001
 43
0.00000001
 40
0.0
 40
0.0
 40
0.0
 40
0.0
 40
0.0288821753094393
 40
0.0583636593986225
 40
0.0884647204281144
 40
0.1192044006590791
 40
0.1506005800061348
 40
0.1826700399650394
 40
0.2154285269564808
 40
0.2488908143379647
 40
0.361059447113401
 40
0.4984670131067465
 40
0.5822693905006262
 40
0.6661127642782027
 40
0.7499972937224338
 40
0.8007709755032364
 40
0.8511237700807901
 40
0.9010896024506709
 40
0.9507031914109064
 40
1.0
 40
1.0
 40
1.0
 40
1.0
 10
113.4744424092226
 20
105.3369685730521
 30
0.0
 10
113.5372428624566
 20
105.3378250570038
 30
0.0
 10
113.6641468862482
 20
105.3395557970572
 30
0.0
 10
113.8555012939524
 20
105.3537056624593
 30
0.0
 10
114.049406106625
 20
105.3768427447786
 30
0.0
 10
114.2453068273516
 20
105.4102538970021
 30
0.0
 10
114.4426444953581
 20
105.4541277190337
 30
0.0
 10
114.6407978371496
 20
105.5089229900033
 30
0.0
 10
114.8391135811679
 20
105.5749919513692
 30
0.0
 10
115.1904345686631
 20
105.7129732836186
 30
0.0
 10
115.7155463389912
 20
105.9930252224585
 30
0.0
 10
116.2525381674796
 20
106.4316158248635
 30
0.0
 10
116.6645978975292
 20
106.9054759464231
 30
0.0
 10
116.9515164855817
 20
107.3371596942429
 30
0.0
 10
117.1499431727889
 20
107.7402829360031
 30
0.0
 10
117.2820290468372
 20
108.0980190967821
 30
0.0
 10
117.367662926635
 20
108.4007714990644
 30
0.0
 10
117.4287451379881
 20
108.7092598093101
 30
0.0
 10
117.4672460813536
 20
109.0215715194665
 30
0.0
 10
117.4720487604471
 20
109.2320609333679
 30
0.0
 10
117.4744424092226
 20
109.3369685730521
 30
0.0
  0
SPLINE
  5
D3
330
1F
100
AcDbEntity
  8
0
  6
Continuous
 62
     7
370
    15
100
AcDbSpline
210
0.0
220
0.0
230
1.0
 70
     8
 71
     3
 72
    25
 73
    21
 74
     0
 42
0.000000001
 43
0.00000001
 40
0.0
 40
0.0
 40
0.0
 40
0.0
 40
0.0274788704238406
 40
0.0560416006876649
 40
0.0856947086384779
 40
0.1164440166573039
 40
0.1482947438713698
 40
0.1812515840496028
 40
0.2153187716763797
 40
0.2505001382254737
 40
0.3330514552645295
 40
0.5015081958164058
 40
0.5771663066140428
 40
0.648898130301891
 40
0.716747770005482
 40
0.7807674423479443
 40
0.8410194131332148
 40
0.8975784849918017
 40
0.9505352047784471
 40
0.9999999999999999
 40
0.9999999999999999
 40
0.9999999999999999
 40
0.9999999999999999
 10
117.4744424092226
 20
117.7619685730521
 30
0.0
 10
117.4737009576144
 20
117.8203329820903
 30
0.0
 10
117.4721888090321
 20
117.9393638903934
 30
0.0
 10
117.4596926679603
 20
118.1201448845176
 30
0.0
 10
117.4387730639944
 20
118.306408102764
 30
0.0
 10
117.4078523224481
 20
118.4975801913151
 30
0.0
 10
117.3663276777976
 20
118.69308713054
 30
0.0
 10
117.3133274919803
 20
118.8922484826506
 30
0.0
 10
117.2480983121651
 20
119.0942667618009
 30
0.0
 10
117.1355082854219
 20
119.3878003763236
 30
0.0
 10
116.8754878944396
 20
119.9163332021481
 30
0.0
 10
116.4644085012814
 20
120.4562724617984
 30
0.0
 10
115.9800739330304
 20
120.8910918112114
 30
0.0
 10
115.6149192283526
 20
121.1504989526717
 30
0.0
 10
115.2420841592356
 20
121.3582491073213
 30
0.0
 10
114.8688365969102
 20
121.5179703749587
 30
0.0
 10
114.5015472865761
 20
121.6340076272605
 30
0.0
 10
114.1453544837522
 20
121.7102147445659
 30
0.0
 10
113.8045157826047
 20
121.7542198065559
 30
0.0
 10
113.5819373625054
 20
121.7594450332586
 30
0.0
 10
113.4744424092226
 20
121.7619685730521
 30
0.0
  0
SPLINE
  5
D4
330
1F
100
AcDbEntity
  8
0
  6
Continuous
 62
     7
370
    15
100
AcDbSpline
210
0.0
220
0.0
230
1.0
 70
     8
 71
     3
 72
    13
 73
     9
 74
     0
 42
0.000000001
 43
0.00000001
 40
0.0
 40
0.0
 40
0.0
 40
0.0
 40
0.1722587823387897
 40
0.3421398270959865
 40
0.5097456257587107
 40
0.6751828992986529
 40
0.838562618995617
 40
1.0
 40
1.0
 40
1.0
 40
1.0
 10
110.4744607781329
 20
105.4869633958019
 30
0.0
 10
110.535324167795
 20
105.470699668105
 30
0.0
 10
110.6562108322237
 20
105.4383967056285
 30
0.0
 10
110.8392719901769
 20
105.4010090509367
 30
0.0
 10
111.0213746731109
 20
105.3718761160251
 30
0.0
 10
111.2023161214336
 20
105.3516894004166
 30
0.0
 10
111.381655125149
 20
105.3392425961127
 30
0.0
 10
111.5005013535795
 20
105.3377235528848
 30
0.0
 10
111.5595691299332
 20
105.3369685730521
 30
0.0
  0
LINE
  5
D5
330
1F
100
AcDbEntity
  8
0
  6
Continuous
 62
     7
370
    15
100
AcDbLine
 10
111.5146269071
 20
104.0394338778
 30
0.0
 11
111.5595688092
 21
105.3369683212
 31
0.0
  0
SPLINE
  5
D6
330
1F
100
AcDbEntity
  8
0
  6
Continuous
 62
     7
370
    15
100
AcDbSpline
210
0.0
220
0.0
230
1.0
 70
     8
 71
     3
 72
    11
 73
     7
 74
     0
 42
0.000000001
 43
0.00000001
 40
0.0
 40
0.0
 40
0.0
 40
0.0
 40
0.2392913840897591
 40
0.5001130134987114
 40
0.7515028526612877
 40
1.0
 40
1.0
 40
1.0
 40
1.0
 10
110.1469699170767
 20
105.4875421780752
 30
0.0
 10
110.0781449812381
 20
105.4159887410146
 30
0.0
 10
109.9343025850857
 20
105.2664438454859
 30
0.0
 10
109.7265537866906
 20
105.0375264188566
 30
0.0
 10
109.5185675818967
 20
104.8052080465793
 30
0.0
 10
109.3855666581731
 20
104.6504321639482
 30
0.0
 10
109.3194510139751
 20
104.5734920427824
 30
0.0
  0
SPLINE
  5
D7
330
1F
100
AcDbEntity
  8
0
  6
Continuous
 62
     7
370
    15
100
AcDbSpline
210
0.0
220
0.0
230
1.0
 70
    24
 71
     3
 72
     9
 73
     5
 74
     0
 42
0.000000001
 43
0.00000001
 40
0.0
 40
0.0
 40
0.0
 40
0.0
 40
0.5090839669866044
 40
1.0
 40
1.0
 40
1.0
 40
1.0
 10
110.1492001853961
 20
105.4869685730521
 30
0.0
 10
110.2039335855085
 20
105.4869685730521
 30
0.0
 10
110.3114470875273
 20
105.4869685730521
 30
0.0
 10
110.4208396478983
 20
105.4869685730521
 30
0.0
 10
110.4745422096768
 20
105.4869685730521
 30
0.0
  0
LINE
  5
D8
330
1F
100
AcDbEntity
  8
0
  6
Continuous
 62
     7
370
    15
100
AcDbLine
 10
111.5146269071
 20
123.0595032683
 30
0.0
 11
111.5595688092
 21
121.7619688249
 31
0.0
  0
SPLINE
  5
D9
330
1F
100
AcDbEntity
  8
0
  6
Continuous
 62
     7
370
    15
100
AcDbSpline
210
0.0
220
0.0
230
1.0
 70
     8
 71
     3
 72
    13
 73
     9
 74
     0
 42
0.000000001
 43
0.00000001
 40
0.0
 40
0.0
 40
0.0
 40
0.0
 40
0.1618542298857686
 40
0.3254858841563705
 40
0.4910085196618037
 40
0.6585318472800669
 40
0.8281616954210487
 40
1.0
 40
1.0
 40
1.0
 40
1.0
 10
111.5595691299332
 20
121.7619685730521
 30
0.0
 10
111.5003472991247
 20
121.7612096969485
 30
0.0
 10
111.3812532848648
 20
121.7596836110393
 30
0.0
 10
111.2016408089119
 20
121.7471896797968
 30
0.0
 10
111.0206117679977
 20
121.7269574109233
 30
0.0
 10
110.838605774208
 20
121.6978034657139
 30
0.0
 10
110.6558215302354
 20
121.6604427550523
 30
0.0
 10
110.5351724993641
 20
121.6281990442822
 30
0.0
 10
110.4744578331533
 20
121.6119729202705
 30
0.0
  0
SPLINE
  5
DA
330
1F
100
AcDbEntity
  8
0
  6
Continuous
 62
     7
370
    15
100
AcDbSpline
210
0.0
220
0.0
230
1.0
 70
    24
 71
     3
 72
     9
 73
     5
 74
     0
 42
0.000000001
 43
0.00000001
 40
0.0
 40
0.0
 40
0.0
 40
0.0
 40
0.4907532435227647
 40
0.9999999999999999
 40
0.9999999999999999
 40
0.9999999999999999
 40
0.9999999999999999
 10
110.4745138300647
 20
121.6119685730521
 30
0.0
 10
110.4207555249691
 20
121.6119685730521
 30
0.0
 10
110.3112130903441
 20
121.6119685730521
 30
0.0
 10
110.2035653572676
 20
121.6119685730521
 30
0.0
 10
110.1487460983562
 20
121.6119685730521
 30
0.0
  0
SPLINE
  5
DB
330
1F
100
AcDbEntity
  8
0
  6
Continuous
 62
     7
370
    15
100
AcDbSpline
210
0.0
220
0.0
230
1.0
 70
     8
 71
     3
 72
    14
 73
    10
 74
     0
 42
0.000000001
 43
0.00000001
 40
0.0
 40
0.0
 40
0.0
 40
0.0
 40
0.0310294147488059
 40
0.0622870907567357
 40
0.1248019217230938
 40
0.2498303511435398
 40
0.4998901825558308
 40
0.7606872171869626
 40
1.0
 40
1.0
 40
1.0
 40
1.0
 10
109.3202699458234
 20
122.526004021539
 30
0.0
 10
109.328558183167
 20
122.5164296483988
 30
0.0
 10
109.3451956285011
 20
122.4972104702883
 30
0.0
 10
109.3784381176219
 20
122.4585984828764
 30
0.0
 10
109.43692631157
 20
122.3910280515728
 30
0.0
 10
109.5544344497046
 20
122.2561097896788
 30
0.0
 10
109.7273231738438
 20
122.061056778215
 30
0.0
 10
109.9349241291928
 20
121.8326287646829
 30
0.0
 10
110.0787067268398
 20
121.6829668444656
 30
0.0
 10
110.1475096424451
 20
121.6113505526852
 30
0.0
  0
LINE
  5
DC
330
1F
100
AcDbEntity
  8
0
  6
Continuous
 62
     7
370
    15
100
AcDbLine
 10
104.9118143486
 20
122.5289418361
 30
0.0
 11
104.7397022116
 21
121.7569257131
 31
0.0
  0
LINE
  5
DD
330
1F
100
AcDbEntity
  8
0
  6
Continuous
 62
     7
370
    15
100
AcDbLine
 10
110.1487436312
 20
121.6119681484
 30
0.0
 11
104.8244432526
 21
121.6119681484
 31
0.0
  0
SPLINE
  5
DE
330
1F
100
AcDbEntity
  8
0
  6
Continuous
 62
     7
370
    15
100
AcDbSpline
210
0.0
220
0.0
230
1.0
 70
     8
 71
     3
 72
     8
 73
     4
 74
     0
 42
0.000000001
 43
0.00000001
 40
0.0
 40
0.0
 40
0.0
 40
0.0
 40
1.0
 40
1.0
 40
1.0
 40
1.0
 10
104.8244424092228
 20
121.6119685730519
 30
0.0
 10
104.7963120836217
 20
121.6606106054472
 30
0.0
 10
104.7671566518695
 20
121.7086598020921
 30
0.0
 10
104.7370019973336
 20
121.7560735062691
 30
0.0
  0
LINE
  5
DF
330
1F
100
AcDbEntity
  8
0
  6
Continuous
 62
     7
370
    15
100
AcDbLine
 10
103.9005917477
 20
105.4669166914
 30
0.0
 11
103.9260056781
 21
104.5693582854
 31
0.0
  0
SPLINE
  5
E0
330
1F
100
AcDbEntity
  8
0
  6
Continuous
 62
     7
370
    15
100
AcDbSpline
210
0.0
220
0.0
230
1.0
 70
     8
 71
     3
 72
     8
 73
     4
 74
     0
 42
0.000000001
 43
0.00000001
 40
0.0
 40
0.0
 40
0.0
 40
0.0
 40
1.0
 40
1.0
 40
1.0
 40
1.0
 10
103.9006035119509
 20
105.4669172893913
 30
0.0
 10
103.9224063684329
 20
105.472614620424
 30
0.0
 10
103.9441610778304
 20
105.478496203219
 30
0.0
 10
103.9658645331485
 20
105.4845611977721
 30
0.0
  0
LINE
  5
E1
330
1F
100
AcDbEntity
  8
0
  6
Continuous
 62
     7
370
    15
100
AcDbLine
 10
103.9744419026
 20
105.4869689977
 30
0.0
 11
110.1481159198
 21
105.4869689977
 31
0.0
  0
LINE
  5
E2
330
1F
100
AcDbEntity
  8
0
  6
Continuous
 62
     7
370
    15
100
AcDbLine
 10
113.4744425284
 20
121.7619688249
 30
0.0
 11
111.5595688092
 21
121.7619688249
 31
0.0
  0
LINE
  5
E3
330
1F
100
AcDbEntity
  8
0
  6
Continuous
 62
     7
370
    15
100
AcDbLine
 10
111.5595688092
 20
105.3369683212
 30
0.0
 11
113.4744425284
 21
105.3369683212
 31
0.0
  0
SPLINE
  5
E4
330
1F
100
AcDbEntity
  8
0
  6
Continuous
 62
     7
370
    15
100
AcDbSpline
210
0.0
220
0.0
230
1.0
 70
     8
 71
     3
 72
    26
 73
    22
 74
     0
 42
0.000000001
 43
0.00000001
 40
0.0
 40
0.0
 40
0.0
 40
0.0
 40
0.0509383868710681
 40
0.0998291548374484
 40
0.1466728126632442
 40
0.1914699456539526
 40
0.2342212299963317
 40
0.2749274506887306
 40
0.3135895241945819
 40
0.3502085273905902
 40
0.384785735024819
 40
0.4173226688625226
 40
0.4478211631676295
 40
0.476283453466084
 40
0.5027122992247393
 40
0.5939067005067384
 40
0.681601599325777
 40
0.7659159552126487
 40
0.8469836289730962
 40
0.9249552229482289
 40
1.0
 40
1.0
 40
1.0
 40
1.0
 10
104.7373937178136
 20
121.7554574600024
 30
0.0
 10
104.7011593970879
 20
121.8106990223372
 30
0.0
 10
104.6301473011746
 20
121.918961549255
 30
0.0
 10
104.5159570170496
 20
122.0715776234193
 30
0.0
 10
104.4002194996904
 20
122.2130819826129
 30
0.0
 10
104.2832920392678
 20
122.3434256359957
 30
0.0
 10
104.166330285846
 20
122.4631421265024
 30
0.0
 10
104.0501881790857
 20
122.5726724455854
 30
0.0
 10
103.9356961698579
 20
122.6725212282071
 30
0.0
 10
103.823595090178
 20
122.7632056893929
 30
0.0
 10
103.714556479433
 20
122.8452575672681
 30
0.0
 10
103.6091829069844
 20
122.9192123371543
 30
0.0
 10
103.5080103833997
 20
122.9856045691116
 30
0.0
 10
103.4115216150123
 20
123.0449560336357
 30
0.0
 10
103.2431202200033
 20
123.1422966837309
 30
0.0
 10
102.9966896124987
 20
123.2660873195688
 30
0.0
 10
102.6646004515021
 20
123.3967685344182
 30
0.0
 10
102.3323985215359
 20
123.4950053170003
 30
0.0
 10
102.0033551587338
 20
123.5619578940215
 30
0.0
 10
101.6803966836035
 20
123.6021927584943
 30
0.0
 10
101.4666261798754
 20
123.607074426193
 30
0.0
 10
101.3617853730725
 20
123.6094685730521
 30
0.0
  0
SPLINE
  5
E5
330
1F
100
AcDbEntity
  8
0
  6
Continuous
 62
     7
370
    15
100
AcDbSpline
210
0.0
220
0.0
230
1.0
 70
     8
 71
     3
 72
    13
 73
     9
 74
     0
 42
0.000000001
 43
0.00000001
 40
0.0
 40
0.0
 40
0.0
 40
0.0
 40
0.1621004456877203
 40
0.32594345520649
 40
0.4915935308810087
 40
0.6591130874452793
 40
0.8285624736348074
 40
1.0
 40
1.0
 40
1.0
 40
1.0
 10
102.8893156885121
 20
105.3369685730521
 30
0.0
 10
102.9448706465881
 20
105.3376375392536
 30
0.0
 10
103.0565777730697
 20
105.3389826629774
 30
0.0
 10
103.2244254624822
 20
105.3499292317718
 30
0.0
 10
103.3932118813567
 20
105.3675681610953
 30
0.0
 10
103.562536237882
 20
105.3928736750846
 30
0.0
 10
103.7322828860405
 20
105.4251776778758
 30
0.0
 10
103.8442757846816
 20
105.452949277758
 30
0.0
 10
103.9005988197011
 20
105.4669160632568
 30
0.0
  0
LINE
  5
E6
330
1F
100
AcDbEntity
  8
0
  6
Continuous
 62
     7
370
    15
100
AcDbLine
 10
96.1107824909
 20
104.809467215
 30
0.0
 11
97.0244434642
 21
105.3369683212
 31
0.0
  0
LINE
  5
E7
330
1F
100
AcDbEntity
  8
0
  6
Continuous
 62
     7
370
    15
100
AcDbLine
 10
97.0244434642
 20
105.3369683212
 30
0.0
 11
102.8893169927
 21
105.3369683212
 31
0.0
  0
SPLINE
  5
E8
330
1F
100
AcDbEntity
  8
0
  6
Continuous
 62
     7
370
    15
100
AcDbSpline
210
0.0
220
0.0
230
1.0
 70
     8
 71
     3
 72
     8
 73
     4
 74
     0
 42
0.000000001
 43
0.00000001
 40
0.0
 40
0.0
 40
0.0
 40
0.0
 40
1.0
 40
1.0
 40
1.0
 40
1.0
 10
97.02444240877168
 20
104.4271418616761
 30
0.0
 10
96.71988913506615
 20
104.5558327262229
 30
0.0
 10
96.41533586136062
 20
104.6832774824846
 30
0.0
 10
96.1107825876551
 20
104.8094668291223
 30
0.0
  0
LINE
  5
E9
330
1F
100
AcDbEntity
  8
0
  6
Continuous
 62
     7
370
    15
100
AcDbLine
 10
95.5244441497
 20
91.3463733158
 30
0.0
 11
95.5244441497
 21
104.4709435663
 31
0.0
  0
SPLINE
  5
EA
330
1F
100
AcDbEntity
  8
0
  6
Continuous
 62
     7
370
    15
100
AcDbSpline
210
0.0
220
0.0
230
1.0
 70
    24
 71
     3
 72
     8
 73
     4
 74
     0
 42
0.000000001
 43
0.00000001
 40
0.0
 40
0.0
 40
0.0
 40
0.0
 40
1.0
 40
1.0
 40
1.0
 40
1.0
 10
96.1107825876551
 20
104.8094668291223
 30
0.0
 10
95.91445056199674
 20
104.696114481258
 30
0.0
 10
95.71898954175653
 20
104.5832650086062
 30
0.0
 10
95.52444240922264
 20
104.4709431692677
 30
0.0
  0
SPLINE
  5
EB
330
1F
100
AcDbEntity
  8
0
  6
Continuous
 62
     7
370
    15
100
AcDbSpline
210
0.0
220
0.0
230
1.0
 70
     8
 71
     3
 72
     8
 73
     4
 74
     0
 42
0.000000001
 43
0.00000001
 40
0.0
 40
0.0
 40
0.0
 40
0.0
 40
1.0
 40
1.0
 40
1.0
 40
1.0
 10
96.16430857836669
 20
124.1060670718267
 30
0.0
 10
96.4510198552386
 20
124.2214177542889
 30
0.0
 10
96.73773113211048
 20
124.3375457753548
 30
0.0
 10
97.0244424089824
 20
124.4544467135697
 30
0.0
  0
LINE
  5
EC
330
1F
100
AcDbEntity
  8
0
  6
Continuous
 62
     7
370
    15
100
AcDbLine
 10
101.3617840576
 20
123.6094688064
 30
0.0
 11
97.0244434642
 21
123.6094688064
 31
0.0
  0
LINE
  5
ED
330
1F
100
AcDbEntity
  8
0
  6
Continuous
 62
     7
370
    15
100
AcDbLine
 10
97.0244434642
 20
123.6094688064
 30
0.0
 11
96.1643074619
 21
124.106066767
 31
0.0
  0
LINE
  5
EE
330
1F
100
AcDbEntity
  8
0
  6
Continuous
 62
     7
370
    15
100
AcDbLine
 10
95.5244441497
 20
124.4754935613
 30
0.0
 11
95.5244441497
 21
135.7525638303
 31
0.0
  0
SPLINE
  5
EF
330
1F
100
AcDbEntity
  8
0
  6
Continuous
 62
     7
370
    15
100
AcDbSpline
210
0.0
220
0.0
230
1.0
 70
    24
 71
     3
 72
     8
 73
     4
 74
     0
 42
0.000000001
 43
0.00000001
 40
0.0
 40
0.0
 40
0.0
 40
0.0
 40
1.0
 40
1.0
 40
1.0
 40
1.0
 10
95.52444240922264
 20
124.4754939768365
 30
0.0
 10
95.73632831119733
 20
124.353161594294
 30
0.0
 10
95.94964301953476
 20
124.2300042900132
 30
0.0
 10
96.16430857837373
 20
124.1060670718318
 30
0.0
  0
LINE
  5
F0
330
1F
100
AcDbEntity
  8
0
  6
Continuous
 62
     7
370
    15
100
AcDbLine
 10
96.2761071491
 20
104.9049175343
 30
0.0
 11
96.1396385896
 21
104.8261276445
 31
0.0
  0
LINE
  5
F1
330
1F
100
AcDbEntity
  8
0
  6
Continuous
 62
     7
370
    15
100
AcDbLine
 10
96.2008860874
 20
124.0849499589
 30
0.0
 11
96.2761071491
 21
124.0415195933
 31
0.0
  0
LINE
  5
F2
330
1F
100
AcDbEntity
  8
0
  6
Continuous
 62
     7
370
    15
100
AcDbLine
 10
177.3558285999
 20
100.0494682229
 30
0.0
 11
177.3558285999
 21
127.0494689232
 31
0.0
  0
LINE
  5
F3
330
1F
100
AcDbEntity
  8
0
  6
Continuous
 62
     7
370
    15
100
AcDbLine
 10
215.4744406211
 20
104.8982492647
 30
0.0
 11
215.4744406211
 21
122.2006878814
 31
0.0
  0
LINE
  5
F4
330
1F
100
AcDbEntity
  8
0
  6
Continuous
 62
     7
370
    15
100
AcDbLine
 10
104.8244246262
 20
121.6119979507
 30
0.0
 11
104.3442905861
 21
122.2127242944
 31
0.0
  0
LINE
  5
F5
330
1F
100
AcDbEntity
  8
0
  6
Continuous
 62
     7
370
    15
100
AcDbLine
 10
109.9993688034
 20
121.6119681484
 30
0.0
 11
109.8461718279
 21
121.6119681484
 31
0.0
  0
LINE
  5
F6
330
1F
100
AcDbEntity
  8
0
  6
Continuous
 62
     7
370
    15
100
AcDbLine
 10
109.8466635662
 20
105.4869689977
 30
0.0
 11
109.9998232889
 21
105.4869689977
 31
0.0
  0
LINE
  5
F7
330
1F
100
AcDbEntity
  8
0
  6
HIDDEN
 62
     7
370
     0
100
AcDbLine
 10
166.4744419026
 20
110.549468547
 30
0.0
 11
166.4744419026
 21
116.5494685991
 31
0.0
  0
LINE
  5
F8
330
1F
100
AcDbEntity
  8
0
  6
HIDDEN
 62
     7
370
     0
100
AcDbLine
 10
179.4744421708
 20
111.0494686289
 30
0.0
 11
179.4744421708
 21
116.0494685172
 31
0.0
  0
LINE
  5
F9
330
1F
100
AcDbEntity
  8
0
  6
HIDDEN
 62
     7
370
     0
100
AcDbLine
 10
165.9744427519
 20
111.0494686289
 30
0.0
 11
165.9744427519
 21
116.0494685172
 31
0.0
  0
LINE
  5
FA
330
1F
100
AcDbEntity
  8
0
  6
HIDDEN
 62
     7
370
     0
100
AcDbLine
 10
181.9744435119
 20
111.1279507166
 30
0.0
 11
179.9744431841
 21
111.1279507166
 31
0.0
  0
LINE
  5
FB
330
1F
100
AcDbEntity
  8
0
  6
HIDDEN
 62
     7
370
     0
100
AcDbLine
 10
179.9744431841
 20
115.6517856287
 30
0.0
 11
181.9744435119
 21
115.6517856287
 31
0.0
  0
LINE
  5
FC
330
1F
100
AcDbEntity
  8
0
  6
HIDDEN
 62
     7
370
     0
100
AcDbLine
 10
179.9744431841
 20
115.9709864295
 30
0.0
 11
179.9744431841
 21
116.0494685172
 31
0.0
  0
LINE
  5
FD
330
1F
100
AcDbEntity
  8
0
  6
HIDDEN
 62
     7
370
     0
100
AcDbLine
 10
181.9744435119
 20
115.9709864295
 30
0.0
 11
179.9744431841
 21
115.9709864295
 31
0.0
  0
LINE
  5
FE
330
1F
100
AcDbEntity
  8
0
  6
HIDDEN
 62
     7
370
     0
100
AcDbLine
 10
181.9744435119
 20
111.4471515174
 30
0.0
 11
181.9744435119
 21
115.9709864295
 31
0.0
  0
LINE
  5
FF
330
1F
100
AcDbEntity
  8
0
  6
HIDDEN
 62
     7
370
     0
100
AcDbLine
 10
179.9744431841
 20
111.4471515174
 30
0.0
 11
181.9744435119
 21
111.4471515174
 31
0.0
  0
LINE
  5
100
330
1F
100
AcDbEntity
  8
0
  6
HIDDEN
 62
     7
370
     0
100
AcDbLine
 10
179.9744431841
 20
111.0494686289
 30
0.0
 11
179.9744431841
 21
111.4471515174
 31
0.0
  0
LINE
  5
101
330
1F
100
AcDbEntity
  8
0
  6
HIDDEN
 62
     7
370
     0
100
AcDbLine
 10
177.474441843
 20
112.9339446778
 30
0.0
 11
177.474441843
 21
112.3867821878
 31
0.0
  0
LINE
  5
102
330
1F
100
AcDbEntity
  8
0
  6
HIDDEN
 62
     7
370
     0
100
AcDbLine
 10
170.4744425582
 20
112.3867821878
 30
0.0
 11
170.4744425582
 21
112.9339446778
 31
0.0
  0
LINE
  5
103
330
1F
100
AcDbEntity
  8
0
  6
HIDDEN
 62
     7
370
     0
100
AcDbLine
 10
177.474441843
 20
113.7888691299
 30
0.0
 11
177.474441843
 21
112.9339446778
 31
0.0
  0
LINE
  5
104
330
1F
100
AcDbEntity
  8
0
  6
HIDDEN
 62
     7
370
     0
100
AcDbLine
 10
177.474441843
 20
112.9339446778
 30
0.0
 11
181.9744435119
 21
112.9339446778
 31
0.0
  0
LINE
  5
105
330
1F
100
AcDbEntity
  8
0
  6
HIDDEN
 62
     7
370
     0
100
AcDbLine
 10
170.4744425582
 20
112.9339446778
 30
0.0
 11
170.4744425582
 21
113.7888691299
 31
0.0
  0
LINE
  5
106
330
1F
100
AcDbEntity
  8
0
  6
HIDDEN
 62
     7
370
     0
100
AcDbLine
 10
170.4744425582
 20
112.9339446778
 30
0.0
 11
165.9744427519
 21
112.9339446778
 31
0.0
  0
LINE
  5
107
330
1F
100
AcDbEntity
  8
0
  6
HIDDEN
 62
     7
370
     0
100
AcDbLine
 10
177.474441843
 20
114.643793553
 30
0.0
 11
177.474441843
 21
113.7888691299
 31
0.0
  0
LINE
  5
108
330
1F
100
AcDbEntity
  8
0
  6
HIDDEN
 62
     7
370
     0
100
AcDbLine
 10
170.4744425582
 20
113.7888691299
 30
0.0
 11
170.4744425582
 21
114.643793553
 31
0.0
  0
LINE
  5
109
330
1F
100
AcDbEntity
  8
0
  6
HIDDEN
 62
     7
370
     0
100
AcDbLine
 10
179.9744431841
 20
112.5691697233
 30
0.0
 11
179.9744431841
 21
111.4471515174
 31
0.0
  0
LINE
  5
10A
330
1F
100
AcDbEntity
  8
0
  6
HIDDEN
 62
     7
370
     0
100
AcDbLine
 10
181.9744435119
 20
112.5691697233
 30
0.0
 11
179.9744431841
 21
112.5691697233
 31
0.0
  0
LINE
  5
10B
330
1F
100
AcDbEntity
  8
0
  6
HIDDEN
 62
     7
370
     0
100
AcDbLine
 10
177.474441843
 20
114.9515555006
 30
0.0
 11
177.474441843
 21
114.643793553
 31
0.0
  0
LINE
  5
10C
330
1F
100
AcDbEntity
  8
0
  6
HIDDEN
 62
     7
370
     0
100
AcDbLine
 10
177.474441843
 20
114.643793553
 30
0.0
 11
181.9744435119
 21
114.643793553
 31
0.0
  0
LINE
  5
10D
330
1F
100
AcDbEntity
  8
0
  6
HIDDEN
 62
     7
370
     0
100
AcDbLine
 10
170.4744425582
 20
114.643793553
 30
0.0
 11
170.4744425582
 21
114.9515555006
 31
0.0
  0
LINE
  5
10E
330
1F
100
AcDbEntity
  8
0
  6
HIDDEN
 62
     7
370
     0
100
AcDbLine
 10
170.4744425582
 20
114.643793553
 30
0.0
 11
165.9744427519
 21
114.643793553
 31
0.0
  0
LINE
  5
10F
330
1F
100
AcDbEntity
  8
0
  6
HIDDEN
 62
     7
370
     0
100
AcDbLine
 10
170.4744425582
 20
111.8396196979
 30
0.0
 11
170.4744425582
 21
112.3867821878
 31
0.0
  0
LINE
  5
110
330
1F
100
AcDbEntity
  8
0
  6
HIDDEN
 62
     7
370
     0
100
AcDbLine
 10
177.474441843
 20
112.3867821878
 30
0.0
 11
177.474441843
 21
111.8396196979
 31
0.0
  0
LINE
  5
111
330
1F
100
AcDbEntity
  8
0
  6
HIDDEN
 62
     7
370
     0
100
AcDbLine
 10
179.9744431841
 20
115.9709864295
 30
0.0
 11
179.9744431841
 21
114.8489682235
 31
0.0
  0
LINE
  5
112
330
1F
100
AcDbEntity
  8
0
  6
HIDDEN
 62
     7
370
     0
100
AcDbLine
 10
179.9744431841
 20
114.8489682235
 30
0.0
 11
181.9744435119
 21
114.8489682235
 31
0.0
  0
LINE
  5
113
330
1F
100
AcDbEntity
  8
0
  6
HIDDEN
 62
     7
370
     0
100
AcDbLine
 10
170.4744425582
 20
114.9515555006
 30
0.0
 11
170.4744425582
 21
115.2593174482
 31
0.0
  0
LINE
  5
114
330
1F
100
AcDbEntity
  8
0
  6
HIDDEN
 62
     7
370
     0
100
AcDbLine
 10
177.474441843
 20
115.2593174482
 30
0.0
 11
177.474441843
 21
114.9515555006
 31
0.0
  0
LINE
  5
115
330
1F
100
AcDbEntity
  8
0
  6
HIDDEN
 62
     7
370
     0
100
AcDbLine
 10
170.4744425582
 20
112.4551435931
 30
0.0
 11
165.9744427519
 21
112.4551435931
 31
0.0
  0
LINE
  5
116
330
1F
100
AcDbEntity
  8
0
  6
HIDDEN
 62
     7
370
     0
100
AcDbLine
 10
170.4744425582
 20
111.8396196979
 30
0.0
 11
165.9744427519
 21
111.8396196979
 31
0.0
  0
LINE
  5
117
330
1F
100
AcDbEntity
  8
0
  6
HIDDEN
 62
     7
370
     0
100
AcDbLine
 10
177.474441843
 20
112.4551435931
 30
0.0
 11
181.9744435119
 21
112.4551435931
 31
0.0
  0
LINE
  5
118
330
1F
100
AcDbEntity
  8
0
  6
HIDDEN
 62
     7
370
     0
100
AcDbLine
 10
179.9744431841
 20
112.2499689226
 30
0.0
 11
181.9744435119
 21
112.2499689226
 31
0.0
  0
LINE
  5
119
330
1F
100
AcDbEntity
  8
0
  6
HIDDEN
 62
     7
370
     0
100
AcDbLine
 10
177.474441843
 20
111.8396196979
 30
0.0
 11
179.9744431841
 21
111.8396196979
 31
0.0
  0
LINE
  5
11A
330
1F
100
AcDbEntity
  8
0
  6
HIDDEN
 62
     7
370
     0
100
AcDbLine
 10
170.4744425582
 20
114.1649924683
 30
0.0
 11
165.9744427519
 21
114.1649924683
 31
0.0
  0
LINE
  5
11B
330
1F
100
AcDbEntity
  8
0
  6
HIDDEN
 62
     7
370
     0
100
AcDbLine
 10
170.4744425582
 20
115.2593174482
 30
0.0
 11
165.9744427519
 21
115.2593174482
 31
0.0
  0
LINE
  5
11C
330
1F
100
AcDbEntity
  8
0
  6
HIDDEN
 62
     7
370
     0
100
AcDbLine
 10
177.474441843
 20
114.1649924683
 30
0.0
 11
181.9744435119
 21
114.1649924683
 31
0.0
  0
LINE
  5
11D
330
1F
100
AcDbEntity
  8
0
  6
HIDDEN
 62
     7
370
     0
100
AcDbLine
 10
181.9744435119
 20
114.5297674228
 30
0.0
 11
179.9744431841
 21
114.5297674228
 31
0.0
  0
LINE
  5
11E
330
1F
100
AcDbEntity
  8
0
  6
HIDDEN
 62
     7
370
     0
100
AcDbLine
 10
179.9744431841
 20
114.5297674228
 30
0.0
 11
179.9744431841
 21
114.8489682235
 31
0.0
  0
LINE
  5
11F
330
1F
100
AcDbEntity
  8
0
  6
HIDDEN
 62
     7
370
     0
100
AcDbLine
 10
177.474441843
 20
115.2593174482
 30
0.0
 11
179.9744431841
 21
115.2593174482
 31
0.0
  0
LINE
  5
120
330
1F
100
AcDbEntity
  8
0
  6
HIDDEN
 62
     7
370
     0
100
AcDbLine
 10
181.9744435119
 20
111.4471515174
 30
0.0
 11
181.9744435119
 21
111.1279507166
 31
0.0
  0
SPLINE
  5
121
330
1F
100
AcDbEntity
  8
0
  6
HIDDEN
 62
     7
370
     0
100
AcDbSpline
210
0.0
220
0.0
230
1.0
 70
     8
 71
     3
 72
    25
 73
    21
 74
     0
 42
0.000000001
 43
0.00000001
 40
0.0
 40
0.0
 40
0.0
 40
0.0
 40
0.1249999999999998
 40
0.1249999999999998
 40
0.2499999999999997
 40
0.2499999999999997
 40
0.3749999999999995
 40
0.3749999999999995
 40
0.4999999999999993
 40
0.4999999999999993
 40
0.5624999999999996
 40
0.5624999999999996
 40
0.6249999999999998
 40
0.6875000000000001
 40
0.6875000000000001
 40
0.7500000000000003
 40
0.7500000000000003
 40
0.8750000000000001
 40
0.8750000000000001
 40
1.0
 40
1.0
 40
1.0
 40
1.0
 10
148.7086402137927
 20
84.90173120599376
 30
0.0
 10
148.9498877193481
 20
84.97403581606294
 30
0.0
 10
149.1658167535926
 20
85.05792910201859
 30
0.0
 10
149.5489746654351
 20
85.25059782503271
 30
0.0
 10
149.7164264509204
 20
85.36048471304855
 30
0.0
 10
149.9841111073243
 20
85.59699599722094
 30
0.0
 10
150.0877830750451
 20
85.72595912651158
 30
0.0
 10
150.2269144462993
 20
85.99988620645883
 30
0.0
 10
150.2616536862899
 20
86.14199935759237
 30
0.0
 10
150.2620841195092
 20
86.3632529835939
 30
0.0
 10
150.2533493359197
 20
86.43883156394871
 30
0.0
 10
150.2185559327451
 20
86.58913130882488
 30
0.0
 10
150.166663071016
 20
86.73909661183228
 30
0.0
 10
150.0812848587223
 20
86.88819784405219
 30
0.0
 10
149.9788091056577
 20
87.03668496981298
 30
0.0
 10
149.9187477340066
 20
87.11077352724986
 30
0.0
 10
149.7174379115555
 20
87.32593582872816
 30
0.0
 10
149.5542143914757
 20
87.46199254259828
 30
0.0
 10
149.1688361912243
 20
87.7168505757505
 30
0.0
 10
148.9498867053985
 20
87.83314585620886
 30
0.0
 10
148.7086402137927
 20
87.93458237288462
 30
0.0
  0
SPLINE
  5
122
330
1F
100
AcDbEntity
  8
0
  6
HIDDEN
 62
     7
370
     0
100
AcDbSpline
210
0.0
220
0.0
230
1.0
 70
     8
 71
     3
 72
    34
 73
    30
 74
     0
 42
0.000000001
 43
0.00000001
 40
0.0
 40
0.0
 40
0.0
 40
0.0
 40
0.0625000000000002
 40
0.0625000000000002
 40
0.1250000000000004
 40
0.1250000000000004
 40
0.2500000000000008
 40
0.2500000000000008
 40
0.3750000000000011
 40
0.3750000000000011
 40
0.4375000000000015
 40
0.4375000000000015
 40
0.5000000000000019
 40
0.5000000000000019
 40
0.5625000000000017
 40
0.5625000000000017
 40
0.6250000000000014
 40
0.6250000000000014
 40
0.6875000000000012
 40
0.6875000000000012
 40
0.7500000000000009
 40
0.7500000000000009
 40
0.8125000000000007
 40
0.8125000000000007
 40
0.8750000000000004
 40
0.8750000000000004
 40
0.9375000000000002
 40
0.9375000000000002
 40
1.0
 40
1.0
 40
1.0
 40
1.0
 10
148.7086402137927
 20
137.7354925033441
 30
0.0
 10
148.9897300752512
 20
137.7983027329754
 30
0.0
 10
149.2633857124055
 20
137.8727824165705
 30
0.0
 10
149.7954109288881
 20
138.0447669690265
 30
0.0
 10
150.0554138559398
 20
138.1431405366015
 30
0.0
 10
150.7881489249032
 20
138.4636388293173
 30
0.0
 10
151.221341480712
 20
138.71204600541
 30
0.0
 10
151.9637258724114
 20
139.2732676641208
 30
0.0
 10
152.2524426617286
 20
139.5703934090354
 30
0.0
 10
152.5546653133714
 20
140.0348290161313
 30
0.0
 10
152.6323293772168
 20
140.1925259531194
 30
0.0
 10
152.7350735493661
 20
140.5006395647998
 30
0.0
 10
152.761353210724
 20
140.6526989945091
 30
0.0
 10
152.7625121338149
 20
140.9524658661703
 30
0.0
 10
152.7366466724635
 20
141.1004686126804
 30
0.0
 10
152.6350599407009
 20
141.3805013466889
 30
0.0
 10
152.5595549435609
 20
141.514116102877
 30
0.0
 10
152.3597279574155
 20
141.7694446529623
 30
0.0
 10
152.2349345628732
 20
141.8909079408839
 30
0.0
 10
151.9464531934499
 20
142.1148455010704
 30
0.0
 10
151.781937829313
 20
142.2185379199058
 30
0.0
 10
151.4133775345777
 20
142.4112193862973
 30
0.0
 10
151.2094839369928
 20
142.4998047252953
 30
0.0
 10
150.7759405951716
 20
142.6588669816287
 30
0.0
 10
150.5448643841533
 20
142.7301294410922
 30
0.0
 10
150.0547174073425
 20
142.8580297477481
 30
0.0
 10
149.7948075170913
 20
142.9146516036284
 30
0.0
 10
149.2632251422173
 20
143.0115198866982
 30
0.0
 10
148.9897017751932
 20
143.0523088781581
 30
0.0
 10
148.7086402137927
 20
143.0862159060175
 30
0.0
  0
LINE
  5
123
330
1F
100
AcDbEntity
  8
0
  6
HIDDEN
 62
     7
370
     0
100
AcDbLine
 10
148.7086405026
 20
118.4391756541
 30
0.0
 11
148.7086405026
 21
108.659761492
 31
0.0
  0
LINE
  5
124
330
1F
100
AcDbEntity
  8
0
  6
HIDDEN
 62
     7
370
     0
100
AcDbLine
 10
142.0402446742
 20
116.8443667701
 30
0.0
 11
142.0402446742
 21
110.254570376
 31
0.0
  0
SPLINE
  5
125
330
1F
100
AcDbEntity
  8
0
  6
HIDDEN
 62
     7
370
     0
100
AcDbSpline
210
0.0
220
0.0
230
1.0
 70
     8
 71
     3
 72
    24
 73
    20
 74
     0
 42
0.000000001
 43
0.00000001
 40
0.0
 40
0.0
 40
0.0
 40
0.0
 40
0.1250000000000005
 40
0.1250000000000005
 40
0.2500000000000011
 40
0.2500000000000011
 40
0.3125000000000012
 40
0.3125000000000012
 40
0.3750000000000012
 40
0.3750000000000012
 40
0.500000000000001
 40
0.500000000000001
 40
0.6250000000000008
 40
0.6250000000000008
 40
0.7500000000000004
 40
0.7500000000000004
 40
0.8750000000000002
 40
0.8750000000000002
 40
1.0
 40
1.0
 40
1.0
 40
1.0
 10
142.0402446046526
 20
142.5734674876003
 30
0.0
 10
141.7716991589156
 20
142.4741106096351
 30
0.0
 10
141.5265618009724
 20
142.3623670116435
 30
0.0
 10
141.0914050403595
 20
142.1111500920436
 30
0.0
 10
140.9069250377793
 20
141.9750039107279
 30
0.0
 10
140.6801202661795
 20
141.7529519526123
 30
0.0
 10
140.6128935945055
 20
141.6759493336909
 30
0.0
 10
140.4959667911625
 20
141.5154390520462
 30
0.0
 10
140.446110083248
 20
141.4314104576676
 30
0.0
 10
140.3272951596051
 20
141.1748483112018
 30
0.0
 10
140.2874459985843
 20
140.9966925454666
 30
0.0
 10
140.2864482182729
 20
140.6255371798925
 30
0.0
 10
140.3267618888697
 20
140.4311306693434
 30
0.0
 10
140.4834600939954
 20
140.0465048411226
 30
0.0
 10
140.5993780583284
 20
139.8540520759466
 30
0.0
 10
140.9060365379626
 20
139.4709935040016
 30
0.0
 10
141.0917131451632
 20
139.2866544053637
 30
0.0
 10
141.5225786930364
 20
138.9334786280309
 30
0.0
 10
141.7700493435462
 20
138.7635580856899
 30
0.0
 10
142.0402446046526
 20
138.6071938946864
 30
0.0
  0
SPLINE
  5
126
330
1F
100
AcDbEntity
  8
0
  6
HIDDEN
 62
     7
370
     0
100
AcDbSpline
210
0.0
220
0.0
230
1.0
 70
     8
 71
     3
 72
    26
 73
    22
 74
     0
 42
0.000000001
 43
0.00000001
 40
0.0
 40
0.0
 40
0.0
 40
0.0
 40
0.1250000000000011
 40
0.1250000000000011
 40
0.2500000000000023
 40
0.2500000000000023
 40
0.3125000000000019
 40
0.3125000000000019
 40
0.3750000000000016
 40
0.3750000000000016
 40
0.4375000000000013
 40
0.4375000000000013
 40
0.500000000000001
 40
0.500000000000001
 40
0.5625000000000007
 40
0.5625000000000007
 40
0.6250000000000003
 40
0.6250000000000003
 40
0.7500000000000002
 40
0.7500000000000002
 40
1.0
 40
1.0
 40
1.0
 40
1.0
 10
143.4994424092227
 20
89.64982306301859
 30
0.0
 10
143.4075374985399
 20
89.43989945632426
 30
0.0
 10
143.3198407223149
 20
89.23113403944484
 30
0.0
 10
143.1556344515476
 20
88.81679941075154
 30
0.0
 10
143.0783640332809
 20
88.60905502511504
 30
0.0
 10
142.9785979269558
 20
88.31185640529826
 30
0.0
 10
142.9479849980534
 20
88.21510705335974
 30
0.0
 10
142.8931161241504
 20
88.02720755324982
 30
0.0
 10
142.8687309032215
 20
87.93540540551983
 30
0.0
 10
142.8290515267231
 20
87.76406297725433
 30
0.0
 10
142.8135854474857
 20
87.68407044272163
 30
0.0
 10
142.7924891124033
 20
87.5368760335098
 30
0.0
 10
142.7869760462432
 20
87.46949416593678
 30
0.0
 10
142.7869090886209
 20
87.35432521553672
 30
0.0
 10
142.7921773959704
 20
87.30565937282752
 30
0.0
 10
142.8130199231384
 20
87.22565617937667
 30
0.0
 10
142.8286940363487
 20
87.1945919360087
 30
0.0
 10
142.8880129665263
 20
87.12843727090544
 30
0.0
 10
142.9450328020403
 20
87.11883540366698
 30
0.0
 10
143.1438676906841
 20
87.16385067377394
 30
0.0
 10
143.3151378959163
 20
87.28777674902356
 30
0.0
 10
143.4994424092226
 20
87.45476469249617
 30
0.0
  0
SPLINE
  5
127
330
1F
100
AcDbEntity
  8
0
  6
HIDDEN
 62
     7
370
     0
100
AcDbSpline
210
0.0
220
0.0
230
1.0
 70
     8
 71
     3
 72
     8
 73
     4
 74
     0
 42
0.000000001
 43
0.00000001
 40
0.0
 40
0.0
 40
0.0
 40
0.0
 40
1.0
 40
1.0
 40
1.0
 40
1.0
 10
143.1319187430746
 20
137.8060015355675
 30
0.0
 10
143.2497113873646
 20
137.5382256885877
 30
0.0
 10
143.3732519993394
 20
137.269112869665
 30
0.0
 10
143.4994424092226
 20
137.0030254291092
 30
0.0
  0
SPLINE
  5
128
330
1F
100
AcDbEntity
  8
0
  6
HIDDEN
 62
     7
370
     0
100
AcDbSpline
210
0.0
220
0.0
230
1.0
 70
     8
 71
     3
 72
     8
 73
     4
 74
     0
 42
0.000000001
 43
0.00000001
 40
0.0
 40
0.0
 40
0.0
 40
0.0
 40
1.0
 40
1.0
 40
1.0
 40
1.0
 10
142.0402446046526
 20
138.6071938946864
 30
0.0
 10
142.410154276358
 20
138.3327855397444
 30
0.0
 10
142.7754950529274
 20
138.0623544963912
 30
0.0
 10
143.1319187430746
 20
137.8060015355675
 30
0.0
  0
SPLINE
  5
129
330
1F
100
AcDbEntity
  8
0
  6
HIDDEN
 62
     7
370
     0
100
AcDbSpline
210
0.0
220
0.0
230
1.0
 70
     8
 71
     3
 72
     8
 73
     4
 74
     0
 42
0.000000001
 43
0.00000001
 40
0.0
 40
0.0
 40
0.0
 40
0.0
 40
1.0
 40
1.0
 40
1.0
 40
1.0
 10
143.1319187430746
 20
140.3451331636296
 30
0.0
 10
142.7754950529274
 20
141.0892353938292
 30
0.0
 10
142.410154276358
 20
141.8319916809326
 30
0.0
 10
142.0402446046525
 20
142.5734674876003
 30
0.0
  0
SPLINE
  5
12A
330
1F
100
AcDbEntity
  8
0
  6
HIDDEN
 62
     7
370
     0
100
AcDbSpline
210
0.0
220
0.0
230
1.0
 70
     8
 71
     3
 72
     8
 73
     4
 74
     0
 42
0.000000001
 43
0.00000001
 40
0.0
 40
0.0
 40
0.0
 40
0.0
 40
1.0
 40
1.0
 40
1.0
 40
1.0
 10
143.4994424092226
 20
139.9704790934483
 30
0.0
 10
143.3728394889649
 20
140.1083782940541
 30
0.0
 10
143.2499895701197
 20
140.2344788911826
 30
0.0
 10
143.1319187430746
 20
140.3451331636296
 30
0.0
  0
SPLINE
  5
12B
330
1F
100
AcDbEntity
  8
0
  6
HIDDEN
 62
     7
370
     0
100
AcDbSpline
210
0.0
220
0.0
230
1.0
 70
     8
 71
     3
 72
     8
 73
     4
 74
     0
 42
0.000000001
 43
0.00000001
 40
0.0
 40
0.0
 40
0.0
 40
0.0
 40
1.0
 40
1.0
 40
1.0
 40
1.0
 10
147.7151535342752
 20
141.1089520443056
 30
0.0
 10
147.5610710670512
 20
140.8928051429077
 30
0.0
 10
147.4058444452068
 20
140.6711524335884
 30
0.0
 10
147.2494424092226
 20
140.44422218875
 30
0.0
  0
SPLINE
  5
12C
330
1F
100
AcDbEntity
  8
0
  6
HIDDEN
 62
     7
370
     0
100
AcDbSpline
210
0.0
220
0.0
230
1.0
 70
     8
 71
     3
 72
     8
 73
     4
 74
     0
 42
0.000000001
 43
0.00000001
 40
0.0
 40
0.0
 40
0.0
 40
0.0
 40
1.0
 40
1.0
 40
1.0
 40
1.0
 10
148.7086402137927
 20
143.0862159060175
 30
0.0
 10
148.3732295883689
 20
142.4279488537083
 30
0.0
 10
148.0413872692591
 20
141.7688924157269
 30
0.0
 10
147.7151535342752
 20
141.1089520443056
 30
0.0
  0
SPLINE
  5
12D
330
1F
100
AcDbEntity
  8
0
  6
HIDDEN
 62
     7
370
     0
100
AcDbSpline
210
0.0
220
0.0
230
1.0
 70
     8
 71
     3
 72
    10
 73
     6
 74
     0
 42
0.000000001
 43
0.00000001
 40
0.0
 40
0.0
 40
0.0
 40
0.0
 40
0.5
 40
0.5
 40
1.0
 40
1.0
 40
1.0
 40
1.0
 10
147.2494424092226
 20
86.84876609343723
 30
0.0
 10
147.5006352990941
 20
86.48825987067121
 30
0.0
 10
147.747904610796
 20
86.14416899076191
 30
0.0
 10
148.2345259621068
 20
85.49270757570615
 30
0.0
 10
148.4739092698235
 20
85.18512213590189
 30
0.0
 10
148.7086402137926
 20
84.9017312059939
 30
0.0
  0
SPLINE
  5
12E
330
1F
100
AcDbEntity
  8
0
  6
HIDDEN
 62
     7
370
     0
100
AcDbSpline
210
0.0
220
0.0
230
1.0
 70
     8
 71
     3
 72
    16
 73
    12
 74
     0
 42
0.000000001
 43
0.00000001
 40
0.0
 40
0.0
 40
0.0
 40
0.0
 40
0.25
 40
0.25
 40
0.5
 40
0.5
 40
0.75
 40
0.75
 40
0.875
 40
0.875
 40
1.0
 40
1.0
 40
1.0
 40
1.0
 10
144.4994424092223
 20
139.3130428550398
 30
0.0
 10
144.3674026892083
 20
139.2855169276257
 30
0.0
 10
144.2422515849705
 20
139.2780026168325
 30
0.0
 10
144.0103240228967
 20
139.2972127820513
 30
0.0
 10
143.9058194668163
 20
139.3237647842083
 30
0.0
 10
143.7242906982801
 20
139.4121017015826
 30
0.0
 10
143.6484917174787
 20
139.4722268656259
 30
0.0
 10
143.562698292515
 20
139.6009065617953
 30
0.0
 10
143.5399176456881
 20
139.6490150889915
 30
0.0
 10
143.5080369751461
 20
139.7589469921414
 30
0.0
 10
143.4994424092226
 20
139.820229637808
 30
0.0
 10
143.4994424092226
 20
139.8855099666967
 30
0.0
  0
SPLINE
  5
12F
330
1F
100
AcDbEntity
  8
0
  6
HIDDEN
 62
     7
370
     0
100
AcDbSpline
210
0.0
220
0.0
230
1.0
 70
     8
 71
     3
 72
    16
 73
    12
 74
     0
 42
0.000000001
 43
0.00000001
 40
0.0
 40
0.0
 40
0.0
 40
0.0
 40
0.1250000000000001
 40
0.1250000000000001
 40
0.2500000000000003
 40
0.2500000000000003
 40
0.5000000000000002
 40
0.5000000000000002
 40
0.7500000000000001
 40
0.7500000000000001
 40
1.0
 40
1.0
 40
1.0
 40
1.0
 10
143.4994424092226
 20
87.53952954726172
 30
0.0
 10
143.4994424092226
 20
87.60886189590686
 30
0.0
 10
143.5092149728623
 20
87.6708584329095
 30
0.0
 10
143.5434110182627
 20
87.77654031089992
 30
0.0
 10
143.5675962099735
 20
87.82066274581877
 30
0.0
 10
143.6553128740699
 20
87.93306937205953
 30
0.0
 10
143.7320230399193
 20
87.9810718782178
 30
0.0
 10
143.9111051401602
 20
88.04589764093045
 30
0.0
 10
144.01198790978
 20
88.0618009123926
 30
0.0
 10
144.240799408043
 20
88.06330565276329
 30
0.0
 10
144.365097016478
 20
88.04868047598752
 30
0.0
 10
144.4994424092226
 20
88.01389356514892
 30
0.0
  0
SPLINE
  5
130
330
1F
100
AcDbEntity
  8
0
  6
HIDDEN
 62
     7
370
     0
100
AcDbSpline
210
0.0
220
0.0
230
1.0
 70
     8
 71
     3
 72
    14
 73
    10
 74
     0
 42
0.000000001
 43
0.00000001
 40
0.0
 40
0.0
 40
0.0
 40
0.0
 40
0.25
 40
0.25
 40
0.5
 40
0.5
 40
0.75
 40
0.75
 40
1.0
 40
1.0
 40
1.0
 40
1.0
 10
146.2494424092226
 20
87.7839657498885
 30
0.0
 10
146.382671860246
 20
87.78020065385108
 30
0.0
 10
146.5143732228561
 20
87.7559386370134
 30
0.0
 10
146.7574508810732
 20
87.6697072863699
 30
0.0
 10
146.8683568216219
 20
87.60755112619806
 30
0.0
 10
147.0510538946995
 20
87.45474489921048
 30
0.0
 10
147.1244414241812
 20
87.36275919115236
 30
0.0
 10
147.2232757030994
 20
87.16028985407355
 30
0.0
 10
147.2494424092226
 20
87.04852862571546
 30
0.0
 10
147.2494424092226
 20
86.93397465818943
 30
0.0
  0
SPLINE
  5
131
330
1F
100
AcDbEntity
  8
0
  6
HIDDEN
 62
     7
370
     0
100
AcDbSpline
210
0.0
220
0.0
230
1.0
 70
     8
 71
     3
 72
    14
 73
    10
 74
     0
 42
0.000000001
 43
0.00000001
 40
0.0
 40
0.0
 40
0.0
 40
0.0
 40
0.25
 40
0.25
 40
0.5
 40
0.5
 40
0.75
 40
0.75
 40
1.0
 40
1.0
 40
1.0
 40
1.0
 10
147.2494424092226
 20
140.3588061194526
 30
0.0
 10
147.2494424092226
 20
140.2446747252525
 30
0.0
 10
147.2233997979802
 20
140.1319621902227
 30
0.0
 10
147.1245992664306
 20
139.9277581810352
 30
0.0
 10
147.0518853371069
 20
139.8353516325849
 30
0.0
 10
146.8680966857446
 20
139.6797964361531
 30
0.0
 10
146.7590162029784
 20
139.617787676202
 30
0.0
 10
146.5133763329671
 20
139.5299054697138
 30
0.0
 10
146.3825772156912
 20
139.5061050135081
 30
0.0
 10
146.2494424092226
 20
139.502927724938
 30
0.0
  0
SPLINE
  5
132
330
1F
100
AcDbEntity
  8
0
  6
HIDDEN
 62
     7
370
     0
100
AcDbSpline
210
0.0
220
0.0
230
1.0
 70
     8
 71
     3
 72
    10
 73
     6
 74
     0
 42
0.000000001
 43
0.00000001
 40
0.0
 40
0.0
 40
0.0
 40
0.0
 40
0.5
 40
0.5
 40
1.0
 40
1.0
 40
1.0
 40
1.0
 10
144.4994424092226
 20
88.01389356514892
 30
0.0
 10
144.7622619235784
 20
87.94584002921624
 30
0.0
 10
145.040614788186
 20
87.89352641216445
 30
0.0
 10
145.6276113755715
 20
87.81682296058108
 30
0.0
 10
145.9369950654498
 20
87.79279558628653
 30
0.0
 10
146.2494424092226
 20
87.7839657498885
 30
0.0
  0
SPLINE
  5
133
330
1F
100
AcDbEntity
  8
0
  6
HIDDEN
 62
     7
370
     0
100
AcDbSpline
210
0.0
220
0.0
230
1.0
 70
     8
 71
     3
 72
    10
 73
     6
 74
     0
 42
0.000000001
 43
0.00000001
 40
0.0
 40
0.0
 40
0.0
 40
0.0
 40
0.5
 40
0.5
 40
1.0
 40
1.0
 40
1.0
 40
1.0
 10
146.2494424092226
 20
139.502927724938
 30
0.0
 10
145.9414625505947
 20
139.4955777245093
 30
0.0
 10
145.6414425404711
 20
139.4761948877467
 30
0.0
 10
145.0566311964766
 20
139.4133814323157
 30
0.0
 10
144.7699793901292
 20
139.3694408941949
 30
0.0
 10
144.4994424092226
 20
139.3130428550406
 30
0.0
  0
SPLINE
  5
134
330
1F
100
AcDbEntity
  8
0
  6
HIDDEN
 62
     7
370
     0
100
AcDbSpline
210
0.0
220
0.0
230
1.0
 70
     8
 71
     3
 72
     8
 73
     4
 74
     0
 42
0.000000001
 43
0.00000001
 40
0.0
 40
0.0
 40
0.0
 40
0.0
 40
1.0
 40
1.0
 40
1.0
 40
1.0
 10
109.3193981318781
 20
122.5258692837322
 30
0.0
 10
107.8492234710967
 20
122.5273299041673
 30
0.0
 10
106.3790488103153
 20
122.5284909558263
 30
0.0
 10
104.9088741495339
 20
122.5293528857258
 30
0.0
  0
SPLINE
  5
135
330
1F
100
AcDbEntity
  8
0
  6
HIDDEN
 62
     7
370
     0
100
AcDbSpline
210
0.0
220
0.0
230
1.0
 70
     8
 71
     3
 72
     8
 73
     4
 74
     0
 42
0.000000001
 43
0.00000001
 40
0.0
 40
0.0
 40
0.0
 40
0.0
 40
1.0
 40
1.0
 40
1.0
 40
1.0
 10
103.926121027015
 20
104.5693586463166
 30
0.0
 10
105.7234577123912
 20
104.5703327527406
 30
0.0
 10
107.5207943977674
 20
104.5717548884903
 30
0.0
 10
109.3181310831437
 20
104.5736258749589
 30
0.0
  0
LINE
  5
136
330
1F
100
AcDbEntity
  8
0
  6
HIDDEN
 62
     7
370
     0
100
AcDbLine
 10
107.4154273587
 20
90.6914877704
 30
0.0
 11
106.9453720915
 21
90.5822250059
 31
0.0
  0
SPLINE
  5
137
330
1F
100
AcDbEntity
  8
0
  6
HIDDEN
 62
     7
370
     0
100
AcDbSpline
210
0.0
220
0.0
230
1.0
 70
     8
 71
     3
 72
    11
 73
     7
 74
     0
 42
0.000000001
 43
0.00000001
 40
0.0
 40
0.0
 40
0.0
 40
0.0
 40
0.2714324099521598
 40
0.6315874069202267
 40
0.9886579094836873
 40
1.0
 40
1.0
 40
1.0
 40
1.0
 10
106.275153251236
 20
90.41917463751477
 30
0.0
 10
106.0727223253766
 20
90.36459362041667
 30
0.0
 10
105.6016922683302
 20
90.23759079469612
 30
0.0
 10
105.2159106032929
 20
90.11995878498266
 30
0.0
 10
105.0262081003136
 20
90.06130901055619
 30
0.0
 10
105.0777772405446
 20
90.07706191575056
 30
0.0
 10
105.0793648677521
 20
90.07754689069432
 30
0.0
  0
LINE
  5
138
330
1F
100
AcDbEntity
  8
0
  6
HIDDEN
 62
     7
370
     0
100
AcDbLine
 10
106.9812131094
 20
136.5085574797
 30
0.0
 11
107.4150492417
 21
136.4076114258
 31
0.0
  0
LINE
  5
139
330
1F
100
AcDbEntity
  8
0
  6
HIDDEN
 62
     7
370
     0
100
AcDbLine
 10
129.4744423571
 20
96.0994693449
 30
0.0
 11
129.4744423571
 21
130.9994678012
 31
0.0
  0
LINE
  5
13A
330
1F
100
AcDbEntity
  8
0
  6
HIDDEN
 62
     7
370
     0
100
AcDbLine
 10
125.9744427147
 20
95.9119680336
 30
0.0
 11
125.9744427147
 21
131.1869691125
 31
0.0
  0
LINE
  5
13B
330
1F
100
AcDbEntity
  8
0
  6
HIDDEN
 62
     7
370
     0
100
AcDbLine
 10
96.2761071491
 20
94.6138924918
 30
0.0
 11
96.2761071491
 21
104.9049175343
 31
0.0
  0
LINE
  5
13C
330
1F
100
AcDbEntity
  8
0
  6
HIDDEN
 62
     7
370
     0
100
AcDbLine
 10
118.1244430112
 20
117.6122417672
 30
0.0
 11
117.4744431841
 21
117.7619686349
 31
0.0
  0
LINE
  5
13D
330
1F
100
AcDbEntity
  8
0
  6
HIDDEN
 62
     7
370
     0
100
AcDbLine
 10
118.1244430112
 20
109.4866953789
 30
0.0
 11
117.4744431841
 21
109.3369685112
 31
0.0
  0
LINE
  5
13E
330
1F
100
AcDbEntity
  8
0
  6
HIDDEN
 62
     7
370
     0
100
AcDbLine
 10
98.570245223
 20
123.932248447
 30
0.0
 11
101.3617840576
 21
123.932248447
 31
0.0
  0
LINE
  5
13F
330
1F
100
AcDbEntity
  8
0
  6
HIDDEN
 62
     7
370
     0
100
AcDbLine
 10
98.5244427788
 20
123.9957013166
 30
0.0
 11
98.5244427788
 21
131.1869691125
 31
0.0
  0
SPLINE
  5
140
330
1F
100
AcDbEntity
  8
0
  6
HIDDEN
 62
     7
370
     0
100
AcDbSpline
210
0.0
220
0.0
230
1.0
 70
     8
 71
     3
 72
     8
 73
     4
 74
     0
 42
0.000000001
 43
0.00000001
 40
0.0
 40
0.0
 40
0.0
 40
0.0
 40
1.0
 40
1.0
 40
1.0
 40
1.0
 10
98.57047380562905
 20
123.9319317071174
 30
0.0
 10
98.55512906524358
 20
123.9532230604625
 30
0.0
 10
98.53978432485809
 20
123.9744796848509
 30
0.0
 10
98.5244395844726
 20
123.9957013669758
 30
0.0
  0
LINE
  5
141
330
1F
100
AcDbEntity
  8
0
  6
HIDDEN
 62
     7
370
     0
100
AcDbLine
 10
101.3617840576
 20
123.9319317973
 30
0.0
 11
98.5704724657
 21
123.9319317973
 31
0.0
  0
SPLINE
  5
142
330
1F
100
AcDbEntity
  8
0
  6
HIDDEN
 62
     7
370
     0
100
AcDbSpline
210
0.0
220
0.0
230
1.0
 70
     8
 71
     3
 72
    23
 73
    19
 74
     0
 42
0.000000001
 43
0.00000001
 40
0.0
 40
0.0
 40
0.0
 40
0.0
 40
0.0511129009857237
 40
0.1016896331838987
 40
0.1518293139104701
 40
0.2016336701894375
 40
0.2512064936754073
 40
0.3006530343006341
 40
0.3500793489716446
 40
0.3995916247932064
 40
0.4492954981442684
 40
0.4992953912354717
 40
0.5872572780521592
 40
0.6724255494349295
 40
0.7555067762540847
 40
0.83726167352717
 40
0.9184882400167593
 40
1.0
 40
1.0
 40
1.0
 40
1.0
 10
105.1332917735252
 20
121.9959506582078
 30
0.0
 10
105.0914873567427
 20
122.0542078626696
 30
0.0
 10
105.0083170469756
 20
122.1701111598373
 30
0.0
 10
104.8733741725862
 20
122.3356268302738
 30
0.0
 10
104.7318758942995
 20
122.4938045472422
 30
0.0
 10
104.5830582411095
 20
122.6442385231106
 30
0.0
 10
104.4271245121559
 20
122.7871646332019
 30
0.0
 10
104.2640227817884
 20
122.9226474415786
 30
0.0
 10
104.093768368183
 20
123.0507944650685
 30
0.0
 10
103.9163637226285
 20
123.171701663211
 30
0.0
 10
103.7317982496574
 20
123.2854566730675
 30
0.0
 10
103.4921629679842
 20
123.4188856191885
 30
0.0
 10
103.1955263203271
 20
123.5615261869175
 30
0.0
 10
102.8386460118963
 20
123.6986866918356
 30
0.0
 10
102.4765890631147
 20
123.8047193479199
 30
0.0
 10
102.1094136370711
 20
123.879264660175
 30
0.0
 10
101.7371966879664
 20
123.925339459335
 30
0.0
 10
101.4870654336341
 20
123.9304089098655
 30
0.0
 10
101.3617806331243
 20
123.9329480771522
 30
0.0
  0
LINE
  5
143
330
1F
100
AcDbEntity
  8
0
  6
HIDDEN
 62
     7
370
     0
100
AcDbLine
 10
110.5596822667
 20
121.9946066848
 30
0.0
 11
105.1332921701
 21
121.9946066848
 31
0.0
  0
SPLINE
  5
144
330
1F
100
AcDbEntity
  8
0
  6
HIDDEN
 62
     7
370
     0
100
AcDbSpline
210
0.0
220
0.0
230
1.0
 70
     8
 71
     3
 72
    12
 73
     8
 74
     0
 42
0.000000001
 43
0.00000001
 40
0.0
 40
0.0
 40
0.0
 40
0.0
 40
0.2015596330131396
 40
0.401885501786122
 40
0.6014292028569511
 40
0.8006476517351764
 40
1.0
 40
1.0
 40
1.0
 40
1.0
 10
111.5595691299332
 20
122.0969651554171
 30
0.0
 10
111.4921556771628
 20
122.0963315493233
 30
0.0
 10
111.3577414152952
 20
122.0950682154943
 30
0.0
 10
111.1569874762362
 20
122.0827168344038
 30
0.0
 10
110.9579345664433
 20
122.0624888866073
 30
0.0
 10
110.7603801292654
 20
122.0343759994136
 30
0.0
 10
110.630328114865
 20
122.0086547596248
 30
0.0
 10
110.5652802622548
 20
121.9957898192204
 30
0.0
  0
LINE
  5
145
330
1F
100
AcDbEntity
  8
0
  6
HIDDEN
 62
     7
370
     0
100
AcDbLine
 10
113.4744425284
 20
122.096965555
 30
0.0
 11
111.5595688092
 21
122.096965555
 31
0.0
  0
LINE
  5
146
330
1F
100
AcDbEntity
  8
0
  6
HIDDEN
 62
     7
370
     0
100
AcDbLine
 10
111.5595688092
 20
105.0019715911
 30
0.0
 11
113.4744425284
 21
105.0019715911
 31
0.0
  0
SPLINE
  5
147
330
1F
100
AcDbEntity
  8
0
  6
HIDDEN
 62
     7
370
     0
100
AcDbSpline
210
0.0
220
0.0
230
1.0
 70
     8
 71
     3
 72
    12
 73
     8
 74
     0
 42
0.000000001
 43
0.00000001
 40
0.0
 40
0.0
 40
0.0
 40
0.0
 40
0.1992838848988201
 40
0.3984605265816151
 40
0.5979968004991016
 40
0.7983570684846223
 40
1.0
 40
1.0
 40
1.0
 40
1.0
 10
110.5585352876032
 20
105.1041663034107
 30
0.0
 10
110.6239885649035
 20
105.091143950646
 30
0.0
 10
110.7548598962849
 20
105.0651062530039
 30
0.0
 10
110.9537093479075
 20
105.0366756940298
 30
0.0
 10
111.1541158637768
 20
105.0162445330482
 30
0.0
 10
111.3562867811916
 20
105.0038054559776
 30
0.0
 10
111.4916643648408
 20
105.002584444403
 30
0.0
 10
111.5595691299332
 20
105.0019719906871
 30
0.0
  0
LINE
  5
148
330
1F
100
AcDbEntity
  8
0
  6
HIDDEN
 62
     7
370
     0
100
AcDbLine
 10
104.1116108167
 20
105.1043304613
 30
0.0
 11
110.5577618795
 21
105.1043304613
 31
0.0
  0
SPLINE
  5
149
330
1F
100
AcDbEntity
  8
0
  6
HIDDEN
 62
     7
370
     0
100
AcDbSpline
210
0.0
220
0.0
230
1.0
 70
     8
 71
     3
 72
    13
 73
     9
 74
     0
 42
0.000000001
 43
0.00000001
 40
0.0
 40
0.0
 40
0.0
 40
0.0
 40
0.1669629733016842
 40
0.333268261715708
 40
0.4993197351340666
 40
0.6655231134850657
 40
0.8322830075705294
 40
1.0
 40
1.0
 40
1.0
 40
1.0
 10
102.8893156885121
 20
104.9435656101542
 30
0.0
 10
102.9583556256333
 20
104.9445019532478
 30
0.0
 10
103.0961635442296
 20
104.9463709510799
 30
0.0
 10
103.3021171643477
 20
104.9603827333616
 30
0.0
 10
103.5067586286077
 20
104.9825779217532
 30
0.0
 10
103.7100130829998
 20
105.0139751300014
 30
0.0
 10
103.9121400553413
 20
105.053626483342
 30
0.0
 10
104.0449945056019
 20
105.087418008248
 30
0.0
 10
104.1116118107938
 20
105.1043621175581
 30
0.0
  0
LINE
  5
14A
330
1F
100
AcDbEntity
  8
0
  6
HIDDEN
 62
     7
370
     0
100
AcDbLine
 10
98.5244427788
 20
104.9435655585
 30
0.0
 11
102.8893169927
 21
104.9435655585
 31
0.0
  0
LINE
  5
14B
330
1F
100
AcDbEntity
  8
0
  6
HIDDEN
 62
     7
370
     0
100
AcDbLine
 10
98.5244427788
 20
95.9119680336
 30
0.0
 11
98.5244427788
 21
104.9435655585
 31
0.0
  0
LINE
  5
14C
330
1F
100
AcDbEntity
  8
0
  6
HIDDEN
 62
     7
370
     0
100
AcDbLine
 10
109.942071976
 20
129.7221365383
 30
0.0
 11
108.2946796882
 21
129.7825793734
 31
0.0
  0
SPLINE
  5
14D
330
1F
100
AcDbEntity
  8
0
  6
HIDDEN
 62
     7
370
     0
100
AcDbSpline
210
0.0
220
0.0
230
1.0
 70
     8
 71
     3
 72
    18
 73
    14
 74
     0
 42
0.000000001
 43
0.00000001
 40
0.0
 40
0.0
 40
0.0
 40
0.0
 40
0.0655027064047215
 40
0.1660182943543524
 40
0.2639027086095322
 40
0.3646727655861262
 40
0.4616940673116442
 40
0.5615652378376927
 40
0.6581233864011348
 40
0.7572384556078554
 40
0.8589229888985123
 40
0.9628259266644453
 40
1.0
 40
1.0
 40
1.0
 40
1.0
 10
102.4136719273978
 20
131.1788368037526
 30
0.0
 10
102.4136578614293
 20
131.1788289762763
 30
0.0
 10
102.4136222108702
 20
131.1788091373362
 30
0.0
 10
102.6174347873941
 20
131.0931419057314
 30
0.0
 10
102.9999603586372
 20
130.9405760106898
 30
0.0
 10
103.5549585325641
 20
130.7367777858669
 30
0.0
 10
104.2713208869692
 20
130.504426370002
 30
0.0
 10
105.1183609663022
 20
130.2720704436264
 30
0.0
 10
106.0876306844425
 20
130.0602035767706
 30
0.0
 10
107.1509292648367
 20
129.8887742239391
 30
0.0
 10
108.3004803528874
 20
129.7712980244935
 30
0.0
 10
109.2415483935934
 20
129.7267244869575
 30
0.0
 10
109.7900714415511
 20
129.7230992468995
 30
0.0
 10
109.9346083568983
 20
129.7221439889256
 30
0.0
  0
SPLINE
  5
14E
330
1F
100
AcDbEntity
  8
0
  6
HIDDEN
 62
     7
370
     0
100
AcDbSpline
210
0.0
220
0.0
230
1.0
 70
     8
 71
     3
 72
    19
 73
    15
 74
     0
 42
0.000000001
 43
0.00000001
 40
0.0
 40
0.0
 40
0.0
 40
0.0
 40
0.0065696153931978
 40
0.1078719389425235
 40
0.206737723502515
 40
0.3057106455619902
 40
0.4073394882209083
 40
0.5070960092063284
 40
0.6067607685863162
 40
0.7054590988465905
 40
0.8040494308260876
 40
0.9028740897733368
 40
0.9997762822843956
 40
1.0
 40
1.0
 40
1.0
 40
1.0
 10
109.9434950369053
 20
129.7237197867219
 30
0.0
 10
109.9745307933534
 20
129.7180840415527
 30
0.0
 10
110.4841325012513
 20
129.6255460888117
 30
0.0
 10
111.5102743954747
 20
129.4809222699276
 30
0.0
 10
113.0649424980721
 20
129.4065008366125
 30
0.0
 10
114.6225109397635
 20
129.4799476778515
 30
0.0
 10
116.1111544767826
 20
129.6894802397397
 30
0.0
 10
117.4834939966545
 20
129.9866031886493
 30
0.0
 10
118.67026427198
 20
130.3305075686739
 30
0.0
 10
119.646112168897
 20
130.6669888166658
 30
0.0
 10
120.3842463163374
 20
130.9557541358372
 30
0.0
 10
120.8199691662278
 20
131.1322756294207
 30
0.0
 10
121.0012068732718
 20
131.2082110596478
 30
0.0
 10
120.9501532515475
 20
131.1868711174675
 30
0.0
 10
120.9500356557422
 20
131.1868219635073
 30
0.0
  0
SPLINE
  5
14F
330
1F
100
AcDbEntity
  8
0
  6
HIDDEN
 62
     7
370
     0
100
AcDbSpline
210
0.0
220
0.0
230
1.0
 70
     8
 71
     3
 72
    17
 73
    13
 74
     0
 42
0.000000001
 43
0.00000001
 40
0.0
 40
0.0
 40
0.0
 40
0.0
 40
0.1420378192593038
 40
0.2483151787860668
 40
0.3574992104620722
 40
0.4638832172100893
 40
0.5739559297037606
 40
0.6714843242229078
 40
0.7719043931481386
 40
0.868494822476475
 40
0.9678260524186079
 40
1.0
 40
1.0
 40
1.0
 40
1.0
 10
109.943491311615
 20
97.37680060775918
 30
0.0
 10
109.3898213343926
 20
97.36546792009045
 30
0.0
 10
108.4218773030112
 20
97.34565574345145
 30
0.0
 10
107.0732585146165
 20
97.20045078615014
 30
0.0
 10
105.9287564545942
 20
97.01011560083265
 30
0.0
 10
104.8830614154337
 20
96.76853569612193
 30
0.0
 10
104.0189129319574
 20
96.51700764789412
 30
0.0
 10
103.335644235493
 20
96.28416621897331
 30
0.0
 10
102.8415325874415
 20
96.09630575865526
 30
0.0
 10
102.5284886361326
 20
95.96880391484102
 30
0.0
 10
102.3865521440497
 20
95.9086314887523
 30
0.0
 10
102.4083410674772
 20
95.91784594189409
 30
0.0
 10
102.4136719273978
 20
95.92010034235162
 30
0.0
  0
SPLINE
  5
150
330
1F
100
AcDbEntity
  8
0
  6
HIDDEN
 62
     7
370
     0
100
AcDbSpline
210
0.0
220
0.0
230
1.0
 70
     8
 71
     3
 72
    18
 73
    14
 74
     0
 42
0.000000001
 43
0.00000001
 40
0.0
 40
0.0
 40
0.0
 40
0.0
 40
0.0970177805586703
 40
0.195793205539397
 40
0.293763429812344
 40
0.3932558262833811
 40
0.4927700028008831
 40
0.5921966394725431
 40
0.6935227660344659
 40
0.7924120109747281
 40
0.8914082997340846
 40
0.9930611361340814
 40
1.0
 40
1.0
 40
1.0
 40
1.0
 10
120.9496128352933
 20
95.91229585917634
 30
0.0
 10
120.9206900555831
 20
95.92485979373791
 30
0.0
 10
120.8623205101249
 20
95.95021528020476
 30
0.0
 10
120.3842342424203
 20
96.14701989997334
 30
0.0
 10
119.656345704915
 20
96.42967909813134
 30
0.0
 10
118.6749353937851
 20
96.76658399482021
 30
0.0
 10
117.4904039293673
 20
97.11086087457952
 30
0.0
 10
116.1231821923618
 20
97.40822254886855
 30
0.0
 10
114.6392681081149
 20
97.61807082360828
 30
0.0
 10
113.0836246985972
 20
97.69243518141711
 30
0.0
 10
111.527004533159
 20
97.61893797340151
 30
0.0
 10
110.4964062855553
 20
97.47433903871625
 30
0.0
 10
109.9831497029423
 20
97.38151909552873
 30
0.0
 10
109.9503532963448
 20
97.37558802576703
 30
0.0
  0
SPLINE
  5
151
330
1F
100
AcDbEntity
  8
0
  6
HIDDEN
 62
     7
370
     0
100
AcDbSpline
210
0.0
220
0.0
230
1.0
 70
     8
 71
     3
 72
    25
 73
    21
 74
     0
 42
0.000000001
 43
0.00000001
 40
0.0
 40
0.0
 40
0.0
 40
0.0
 40
0.0278144320057639
 40
0.0555680196235574
 40
0.0833316253664654
 40
0.1111760352153096
 40
0.1391714221517776
 40
0.1673868326271671
 40
0.1958897140424394
 40
0.2247454979312721
 40
0.2540172492220529
 40
0.3796724409982623
 40
0.5056484635001489
 40
0.62975272906517
 40
0.7535891720570678
 40
0.803856480607963
 40
0.8533396843413759
 40
0.902326439833779
 40
0.9511131859205574
 40
0.9999999999999999
 40
0.9999999999999999
 40
0.9999999999999999
 40
0.9999999999999999
 10
113.4744424092226
 20
105.0019719906871
 30
0.0
 10
113.5430977631835
 20
105.0025050757942
 30
0.0
 10
113.6802582867337
 20
105.0035700798787
 30
0.0
 10
113.8855008693162
 20
105.0166649772709
 30
0.0
 10
114.0898218858111
 20
105.0382034638434
 30
0.0
 10
114.293222937899
 20
105.0690249356921
 30
0.0
 10
114.4956985687449
 20
105.1089376881996
 30
0.0
 10
114.6972474329936
 20
105.1580378811406
 30
0.0
 10
114.8978614537984
 20
105.2163511286524
 30
0.0
 10
115.0975592181339
 20
105.2839430715193
 30
0.0
 10
115.5131240388097
 20
105.4447565876292
 30
0.0
 10
116.1159004553523
 20
105.7587334869727
 30
0.0
 10
116.8099570108524
 20
106.3223049624583
 30
0.0
 10
117.3767306402564
 20
106.9980491817168
 30
0.0
 10
117.7143084459256
 20
107.6154110091905
 30
0.0
 10
117.902770855223
 20
108.1074724487027
 30
0.0
 10
118.0020320727469
 20
108.4451242312445
 30
0.0
 10
118.0723766614537
 20
108.7877553732679
 30
0.0
 10
118.1163752599721
 20
109.1351200737145
 30
0.0
 10
118.1217515234522
 20
109.3694234503263
 30
0.0
 10
118.1244424092226
 20
109.4866951622524
 30
0.0
  0
SPLINE
  5
152
330
1F
100
AcDbEntity
  8
0
  6
HIDDEN
 62
     7
370
     0
100
AcDbSpline
210
0.0
220
0.0
230
1.0
 70
     8
 71
     3
 72
    25
 73
    21
 74
     0
 42
0.000000001
 43
0.00000001
 40
0.0
 40
0.0
 40
0.0
 40
0.0
 40
0.0269872354796777
 40
0.0539362690258112
 40
0.0809037148827113
 40
0.1079460716543244
 40
0.1351193706853722
 40
0.1624788388353834
 40
0.1900785854181031
 40
0.2179713214289676
 40
0.2462081170984545
 40
0.3700050494704972
 40
0.494754261165924
 40
0.6210439034708732
 40
0.7446557472315732
 40
0.7967060293745816
 40
0.8478613449339824
 40
0.8985210412000849
 40
0.9490962115264745
 40
0.9999999999999999
 40
0.9999999999999999
 40
0.9999999999999999
 40
0.9999999999999999
 10
118.1244424092226
 20
117.6122419838518
 30
0.0
 10
118.124423301618
 20
117.677034793907
 30
0.0
 10
118.1243851134566
 20
117.8065286961893
 30
0.0
 10
118.1127364798644
 20
117.9998217690462
 30
0.0
 10
118.0925893961445
 20
118.1920099460285
 30
0.0
 10
118.0631165866645
 20
118.3830344874618
 30
0.0
 10
118.0245415192727
 20
118.5728839422471
 30
0.0
 10
117.9768049824822
 20
118.7615362545186
 30
0.0
 10
117.9199276903071
 20
118.9489689434175
 30
0.0
 10
117.8538964742071
 20
119.1351771111985
 30
0.0
 10
117.6943879058767
 20
119.5277075954249
 30
0.0
 10
117.3782429008395
 20
120.0998538266321
 30
0.0
 10
116.8059356523681
 20
120.7744336186203
 30
0.0
 10
116.1151018866162
 20
121.3374519722686
 30
0.0
 10
115.4700905995167
 20
121.6794338326252
 30
0.0
 10
114.95344186887
 20
121.8712594693867
 30
0.0
 10
114.5912786185814
 20
121.9736938762962
 30
0.0
 10
114.2237275110464
 20
122.0456594644664
 30
0.0
 10
113.8507955761465
 20
122.0899992411105
 30
0.0
 10
113.6001640039781
 20
122.0946381765777
 30
0.0
 10
113.4744424092226
 20
122.0969651554171
 30
0.0
  0
LINE
  5
153
330
1F
100
AcDbEntity
  8
0
  6
HIDDEN
 62
     7
370
     0
100
AcDbLine
 10
118.1244430112
 20
109.4866953789
 30
0.0
 11
118.1244430112
 21
117.6122417672
 31
0.0
  0
LINE
  5
154
330
1F
100
AcDbEntity
  8
0
  6
HIDDEN
 62
     7
370
     0
100
AcDbLine
 10
96.2761071491
 20
124.0415195933
 30
0.0
 11
96.2761071491
 21
132.4850446543
 31
0.0
  0
SPLINE
  5
155
330
1F
100
AcDbEntity
  8
0
  6
HIDDEN
 62
     7
370
     0
100
AcDbSpline
210
0.0
220
0.0
230
1.0
 70
     8
 71
     3
 72
     8
 73
     4
 74
     0
 42
0.000000001
 43
0.00000001
 40
0.0
 40
0.0
 40
0.0
 40
0.0
 40
0.000136040218399
 40
0.000136040218399
 40
0.000136040218399
 40
0.000136040218399
 10
98.46586949304083
 20
105.0303877113498
 30
0.0
 10
98.48557860477163
 20
105.0015097119816
 30
0.0
 10
98.50510446993603
 20
104.9725688072571
 30
0.0
 10
98.52444240922264
 20
104.9435656101542
 30
0.0
  0
SPLINE
  5
156
330
1F
100
AcDbEntity
  8
0
  6
HIDDEN
 62
     7
370
     0
100
AcDbSpline
210
0.0
220
0.0
230
1.0
 70
     8
 71
     3
 72
     9
 73
     5
 74
     0
 42
0.000000001
 43
0.00000001
 40
0.0
 40
0.0
 40
0.0
 40
0.0
 40
0.4913551252639729
 40
1.0
 40
1.0
 40
1.0
 40
1.0
 10
98.4658687156886
 20
105.0303869417698
 30
0.0
 10
98.14098642031718
 20
105.0289160011122
 30
0.0
 10
97.47978990751623
 20
105.0259223605008
 30
0.0
 10
96.81613203928205
 20
105.0231941347921
 30
0.0
 10
96.47856586602649
 20
105.0218064367683
 30
0.0
  0
SPLINE
  5
157
330
1F
100
AcDbEntity
  8
0
  6
HIDDEN
 62
     7
370
     0
100
AcDbSpline
210
0.0
220
0.0
230
1.0
 70
     8
 71
     3
 72
     9
 73
     5
 74
     0
 42
0.000000001
 43
0.00000001
 40
0.0
 40
0.0
 40
0.0
 40
0.0
 40
0.5086448740972567
 40
1.0
 40
1.0
 40
1.0
 40
1.0
 10
96.47856597518549
 20
105.0218064997795
 30
0.0
 10
96.81613212235987
 20
105.0231941974695
 30
0.0
 10
97.47978994015168
 20
105.0259224225253
 30
0.0
 10
98.14098640290331
 20
105.028916062401
 30
0.0
 10
98.4658686741051
 20
105.030387002699
 30
0.0
  0
SPLINE
  5
158
330
1F
100
AcDbEntity
  8
0
  6
HIDDEN
 62
     7
370
     0
100
AcDbSpline
210
0.0
220
0.0
230
1.0
 70
     8
 71
     3
 72
    10
 73
     6
 74
     0
 42
0.000000001
 43
0.00000001
 40
0.0
 40
0.0
 40
0.0
 40
0.0
 40
0.294086771106153
 40
0.6276647931922208
 40
1.0
 40
1.0
 40
1.0
 40
1.0
 10
104.1282555755262
 20
105.4869685730521
 30
0.0
 10
104.1248211815898
 20
105.4495178917551
 30
0.0
 10
104.1174912083589
 20
105.3695874887561
 30
0.0
 10
104.1129378183035
 20
105.2419477094544
 30
0.0
 10
104.1119093535717
 20
105.1518667501843
 30
0.0
 10
104.1113668879925
 20
105.1043533856143
 30
0.0
  0
SPLINE
  5
159
330
1F
100
AcDbEntity
  8
0
  6
HIDDEN
 62
     7
370
     0
100
AcDbSpline
210
0.0
220
0.0
230
1.0
 70
     8
 71
     3
 72
     8
 73
     4
 74
     0
 42
0.000000001
 43
0.00000001
 40
0.0
 40
0.0
 40
0.0
 40
0.0
 40
1.0
 40
1.0
 40
1.0
 40
1.0
 10
110.5607725256288
 20
105.1085222238665
 30
0.0
 10
110.2914761955693
 20
105.20521160906
 30
0.0
 10
110.0553155101531
 20
105.3332107784378
 30
0.0
 10
109.8461179939672
 20
105.4866873760839
 30
0.0
  0
SPLINE
  5
15A
330
1F
100
AcDbEntity
  8
0
  6
HIDDEN
 62
     7
370
     0
100
AcDbSpline
210
0.0
220
0.0
230
1.0
 70
     8
 71
     3
 72
     8
 73
     4
 74
     0
 42
0.000000001
 43
0.00000001
 40
0.0
 40
0.0
 40
0.0
 40
0.0
 40
1.0
 40
1.0
 40
1.0
 40
1.0
 10
105.1351001761747
 20
121.9954652260175
 30
0.0
 10
105.1256807470604
 20
121.864127670324
 30
0.0
 10
105.1040652237452
 20
121.7354430750034
 30
0.0
 10
105.0749275658824
 20
121.6119685730521
 30
0.0
  0
SPLINE
  5
15B
330
1F
100
AcDbEntity
  8
0
  6
HIDDEN
 62
     7
370
     0
100
AcDbSpline
210
0.0
220
0.0
230
1.0
 70
     8
 71
     3
 72
     8
 73
     4
 74
     0
 42
0.000000001
 43
0.00000001
 40
0.0
 40
0.0
 40
0.0
 40
0.0
 40
1.0
 40
1.0
 40
1.0
 40
1.0
 10
109.8466050093751
 20
121.612258971054
 30
0.0
 10
110.0560701594434
 20
121.7659902872215
 30
0.0
 10
110.2923701776593
 20
121.8943784879034
 30
0.0
 10
110.5621888584683
 20
121.9911113313708
 30
0.0
  0
SPLINE
  5
15C
330
1F
100
AcDbEntity
  8
0
  6
HIDDEN
 62
     7
370
     0
100
AcDbSpline
210
0.0
220
0.0
230
1.0
 70
     8
 71
     3
 72
     8
 73
     4
 74
     0
 42
0.000000001
 43
0.00000001
 40
0.0
 40
0.0
 40
0.0
 40
0.0
 40
1.0
 40
1.0
 40
1.0
 40
1.0
 10
98.56605182054356
 20
105.3369683782691
 30
0.0
 10
98.53265989002533
 20
105.2346661991585
 30
0.0
 10
98.49926538703558
 20
105.1324722754165
 30
0.0
 10
98.46586828324635
 20
105.0303873121756
 30
0.0
  0
SPLINE
  5
15D
330
1F
100
AcDbEntity
  8
0
  6
HIDDEN
 62
     7
370
     0
100
AcDbSpline
210
0.0
220
0.0
230
1.0
 70
     8
 71
     3
 72
     9
 73
     5
 74
     0
 42
0.000000001
 43
0.00000001
 40
0.0
 40
0.0
 40
0.0
 40
0.0
 40
0.5102121239851032
 40
1.0
 40
1.0
 40
1.0
 40
1.0
 10
96.32880580589375
 20
124.0110950897039
 30
0.0
 10
96.7036678628725
 20
124.0086051723222
 30
0.0
 10
97.43838591318227
 20
124.0037250111802
 30
0.0
 10
98.16738650363902
 20
123.9983401197939
 30
0.0
 10
98.52444215445244
 20
123.9957026652792
 30
0.0
  0
SPLINE
  5
15E
330
1F
100
AcDbEntity
  8
0
  6
HIDDEN
 62
     7
370
     0
100
AcDbSpline
210
0.0
220
0.0
230
1.0
 70
     8
 71
     3
 72
     9
 73
     5
 74
     0
 42
0.000000001
 43
0.00000001
 40
0.0
 40
0.0
 40
0.0
 40
0.0
 40
0.4897878789203671
 40
1.0
 40
1.0
 40
1.0
 40
1.0
 10
98.5244421544535
 20
123.9957023055276
 30
0.0
 10
98.16738660731417
 20
123.9983397570341
 30
0.0
 10
97.43838623285329
 20
124.0037246422468
 30
0.0
 10
96.70366840206238
 20
124.0086047979188
 30
0.0
 10
96.3288064592195
 20
124.0110947124954
 30
0.0
  0
LINE
  5
15F
330
1F
100
AcDbEntity
  8
0
  6
HIDDEN
 62
     7
370
     0
100
AcDbLine
 10
134.3744424152
 20
99.1994687355
 30
0.0
 11
134.3744424152
 21
127.8994684106
 31
0.0
  0
SPLINE
  5
160
330
1F
100
AcDbEntity
  8
0
  6
HIDDEN
 62
     7
370
     0
100
AcDbSpline
210
0.0
220
0.0
230
1.0
 70
     8
 71
     3
 72
     8
 73
     4
 74
     0
 42
0.000000001
 43
0.00000001
 40
0.0
 40
0.0
 40
0.0
 40
0.0
 40
1.0
 40
1.0
 40
1.0
 40
1.0
 10
98.57047380562905
 20
123.9319317071174
 30
0.0
 10
98.59839585970529
 20
123.8246678062858
 30
0.0
 10
98.62630582265439
 20
123.7171796335559
 30
0.0
 10
98.65420392555428
 20
123.6094692510555
 30
0.0
  0
SPLINE
  5
161
330
1F
100
AcDbEntity
  8
0
  6
HIDDEN
 62
     7
370
     0
100
AcDbSpline
210
0.0
220
0.0
230
1.0
 70
     8
 71
     3
 72
    28
 73
    24
 74
     0
 42
0.000000001
 43
0.00000001
 40
0.0
 40
0.0
 40
0.0
 40
0.0
 40
0.0470503157114138
 40
0.090463530102061
 40
0.1302502197199251
 40
0.1664245664955203
 40
0.2527897848259297
 40
0.332222941905399
 40
0.4103980100400229
 40
0.4314484512706663
 40
0.4531006324285118
 40
0.4753593420445619
 40
0.4982289166635511
 40
0.5406868805101024
 40
0.5962260591862434
 40
0.6648432286419994
 40
0.7115146141879285
 40
0.7548791171494322
 40
0.7949496178182215
 40
0.8317427554459483
 40
0.918188545268888
 40
0.9978450688668652
 40
1.0
 40
1.0
 40
1.0
 40
1.0
 10
107.9306871610337
 20
135.6286345979754
 30
0.0
 10
108.1255458688714
 20
135.5863244979336
 30
0.0
 10
108.5002002429302
 20
135.5049749692243
 30
0.0
 10
109.1065030522457
 20
135.4012430806786
 30
0.0
 10
109.6963638218181
 20
135.317396801649
 30
0.0
 10
110.5399524384153
 20
135.2233560910836
 30
0.0
 10
111.6619511669202
 20
135.1556871276491
 30
0.0
 10
113.0707537361389
 20
135.17639952266
 30
0.0
 10
114.0980425913383
 20
135.2822102732807
 30
0.0
 10
114.7724865808262
 20
135.3796552961957
 30
0.0
 10
115.1298979371292
 20
135.437692640618
 30
0.0
 10
115.4908602774855
 20
135.5028904597362
 30
0.0
 10
115.9544246633039
 20
135.5948286679003
 30
0.0
 10
116.5716540759717
 20
135.7368125675221
 30
0.0
 10
117.3692772231272
 20
135.9458028407063
 30
0.0
 10
118.1046776529404
 20
136.1717524075726
 30
0.0
 10
118.7034659313364
 20
136.3778796686263
 30
0.0
 10
119.1371437207914
 20
136.5331095344075
 30
0.0
 10
119.4830349980111
 20
136.6639623920484
 30
0.0
 10
119.8841876915316
 20
136.8222144342501
 30
0.0
 10
120.2043836298731
 20
136.9556339276809
 30
0.0
 10
120.3655921144452
 20
137.0316949387949
 30
0.0
 10
120.3221524905929
 20
137.012081426341
 30
0.0
 10
120.3210082816534
 20
137.0115648022477
 30
0.0
  0
LINE
  5
162
330
1F
100
AcDbEntity
  8
0
  6
HIDDEN
 62
     7
370
     0
100
AcDbLine
 10
107.9547823387
 20
135.6236147693
 30
0.0
 11
107.8732338714
 21
135.6428260914
 31
0.0
  0
SPLINE
  5
163
330
1F
100
AcDbEntity
  8
0
  6
HIDDEN
 62
     7
370
     0
100
AcDbSpline
210
0.0
220
0.0
230
1.0
 70
     8
 71
     3
 72
    15
 73
    11
 74
     0
 42
0.000000001
 43
0.00000001
 40
0.0
 40
0.0
 40
0.0
 40
0.0
 40
0.1747122676795847
 40
0.3327232085298214
 40
0.4910060596170176
 40
0.5475119443848367
 40
0.6058854556758965
 40
0.6661438800358991
 40
0.8126115365782719
 40
1.0
 40
1.0
 40
1.0
 40
1.0
 10
106.398072929924
 20
136.0282595268075
 30
0.0
 10
106.2305671687085
 20
136.080134186278
 30
0.0
 10
105.9115680791821
 20
136.1789246339648
 30
0.0
 10
105.7846561988594
 20
136.2296170735532
 30
0.0
 10
105.8764499094377
 20
136.1931315357645
 30
0.0
 10
106.0441736471764
 20
136.137353245583
 30
0.0
 10
106.1841029222426
 20
136.0926826592432
 30
0.0
 10
106.447083618852
 20
136.0125509249476
 30
0.0
 10
106.9533523538518
 20
135.8624293963649
 30
0.0
 10
107.5793333559221
 20
135.7126842925384
 30
0.0
 10
107.9306871610337
 20
135.6286345979754
 30
0.0
  0
SPLINE
  5
164
330
1F
100
AcDbEntity
  8
0
  6
HIDDEN
 62
     7
370
     0
100
AcDbSpline
210
0.0
220
0.0
230
1.0
 70
     8
 71
     3
 72
    14
 73
    10
 74
     0
 42
0.000000001
 43
0.00000001
 40
0.0
 40
0.0
 40
0.0
 40
0.0
 40
0.1212077770527531
 40
0.2297616649466792
 40
0.32566823067191
 40
0.4089391398250514
 40
0.6229266713357373
 40
0.8166307892085063
 40
1.0
 40
1.0
 40
1.0
 40
1.0
 10
107.9306722598725
 20
91.47046832354707
 30
0.0
 10
107.7393916012779
 20
91.42567758026118
 30
0.0
 10
107.3767996648575
 20
91.34077217235914
 30
0.0
 10
106.9443291668694
 20
91.22822908196027
 30
0.0
 10
106.6137221793719
 20
91.13559971984796
 30
0.0
 10
106.2322826878031
 20
91.02219665245916
 30
0.0
 10
105.9100305705591
 20
90.91877544209275
 30
0.0
 10
105.7713955281888
 20
90.86579167370053
 30
0.0
 10
105.8936813690005
 20
90.90963696093355
 30
0.0
 10
105.9531484710627
 20
90.93095874400777
 30
0.0
  0
LINE
  5
165
330
1F
100
AcDbEntity
  8
0
  6
HIDDEN
 62
     7
370
     0
100
AcDbLine
 10
107.3520825225
 20
91.3322675041
 30
0.0
 11
107.9477787929
 21
91.4737223646
 31
0.0
  0
SPLINE
  5
166
330
1F
100
AcDbEntity
  8
0
  6
HIDDEN
 62
     7
370
     0
100
AcDbSpline
210
0.0
220
0.0
230
1.0
 70
     8
 71
     3
 72
    29
 73
    25
 74
     0
 42
0.000000001
 43
0.00000001
 40
0.0
 40
0.0
 40
0.0
 40
0.0
 40
0.0029701109389542
 40
0.0825150343398731
 40
0.1105502392285742
 40
0.1393536145428887
 40
0.1689405220455705
 40
0.2056178869649184
 40
0.2455869836592466
 40
0.2888643119238513
 40
0.3354628495296378
 40
0.3782136529667344
 40
0.4162564191371761
 40
0.4495910764708091
 40
0.4782187830744573
 40
0.5021414755742187
 40
0.5898900185229347
 40
0.6681143172253018
 40
0.7475054538365815
 40
0.775529005797012
 40
0.8043391233422228
 40
0.833950115507198
 40
0.9097252894417344
 40
1.0
 40
1.0
 40
1.0
 40
1.0
 10
120.3197519275003
 20
90.08804475875539
 30
0.0
 10
120.3213207049505
 20
90.08733358911702
 30
0.0
 10
120.3649041696225
 20
90.06757601495991
 30
0.0
 10
120.2515014784414
 20
90.12088229660912
 30
0.0
 10
120.0806750434676
 20
90.1941041036875
 30
0.0
 10
119.9346218396771
 20
90.25498911350968
 30
0.0
 10
119.7407724892219
 20
90.33326333861503
 30
0.0
 10
119.4809524147111
 20
90.43571702150258
 30
0.0
 10
119.1350266544959
 20
90.56659868344177
 30
0.0
 10
118.70214141602
 20
90.72167599145669
 30
0.0
 10
118.2011609389212
 20
90.89383128043069
 30
0.0
 10
117.6683949112048
 20
91.06267011433333
 30
0.0
 10
117.1523882865875
 20
91.20934407012622
 30
0.0
 10
116.6735678363654
 20
91.33460212780385
 30
0.0
 10
116.2443610270212
 20
91.43827161177451
 30
0.0
 10
115.5206658954432
 20
91.59776014540789
 30
0.0
 10
114.477215475633
 20
91.77806923796824
 30
0.0
 10
113.0680839802531
 20
91.92293423586177
 30
0.0
 10
111.9944856302353
 20
91.9383676246464
 30
0.0
 10
111.2290147419067
 20
91.91259017624587
 30
0.0
 10
110.7518782254155
 20
91.88479801603644
 30
0.0
 10
110.0307790839989
 20
91.82485548460865
 30
0.0
 10
109.024285557831
 20
91.6969080668174
 30
0.0
 10
108.3158308667405
 20
91.55021791713774
 30
0.0
 10
107.9306722598725
 20
91.47046832354707
 30
0.0
  0
SPLINE
  5
167
330
1F
100
AcDbEntity
  8
0
  6
HIDDEN
 62
     7
370
     0
100
AcDbSpline
210
0.0
220
0.0
230
1.0
 70
     8
 71
     3
 72
    14
 73
    10
 74
     0
 42
0.000000001
 43
0.00000001
 40
0.0
 40
0.0
 40
0.0
 40
0.0
 40
0.0003951393068452
 40
0.0003951393068452
 40
0.0003951393068452
 40
0.0008163352168664
 40
0.0008163352168664
 40
0.0008163352168664
 40
0.0012378579337219
 40
0.0012378579337219
 40
0.0012378579337219
 40
0.0012378579337219
 10
109.9548862836219
 20
97.37424209731229
 30
0.0
 10
110.0834008432506
 20
97.34539172030043
 30
0.0
 10
110.2119691714518
 20
97.31672642954017
 30
0.0
 10
110.3405235906104
 20
97.28824477643963
 30
0.0
 10
110.4775535320997
 20
97.25788534357507
 30
0.0
 10
110.6145930331799
 20
97.22772929571066
 30
0.0
 10
110.7515556947343
 20
97.19776428233496
 30
0.0
 10
110.8886244284835
 20
97.16777606223489
 30
0.0
 10
111.0256428709669
 20
97.13797362849019
 30
0.0
 10
111.1625190885417
 20
97.10832975827266
 30
0.0
  0
SPLINE
  5
168
330
1F
100
AcDbEntity
  8
0
  6
HIDDEN
 62
     7
370
     0
100
AcDbSpline
210
0.0
220
0.0
230
1.0
 70
     8
 71
     3
 72
    22
 73
    18
 74
     0
 42
0.000000001
 43
0.00000001
 40
0.0
 40
0.0
 40
0.0
 40
0.0
 40
0.043602979156481
 40
0.1448483676208117
 40
0.245832124057754
 40
0.2819834034113936
 40
0.3194041604922783
 40
0.3581209851370406
 40
0.4158565097978001
 40
0.4872031677480818
 40
0.5721814568352287
 40
0.6352841317078879
 40
0.6920496412223777
 40
0.7424918091886176
 40
0.7866309752535098
 40
0.8965705320321692
 40
1.0
 40
1.0
 40
1.0
 40
1.0
 10
111.1552388387375
 20
97.10686234744233
 30
0.0
 10
111.344262539458
 20
97.13095078085723
 30
0.0
 10
111.9721961123624
 20
97.21097215385034
 30
0.0
 10
113.0829786529189
 20
97.27138867763384
 30
0.0
 10
114.1570591632435
 20
97.21000037801805
 30
0.0
 10
114.9183960238909
 20
97.12006478747784
 30
0.0
 10
115.3979547199809
 20
97.04825641919318
 30
0.0
 10
115.9540612721707
 20
96.94770188723142
 30
0.0
 10
116.6218223800819
 20
96.79703436090736
 30
0.0
 10
117.4162210643355
 20
96.58300041111995
 30
0.0
 10
118.1469074948854
 20
96.34517052064884
 30
0.0
 10
118.7438574430233
 20
96.12341462048255
 30
0.0
 10
119.1786165154271
 20
95.9521242880401
 30
0.0
 10
119.5120104062045
 20
95.81102667673431
 30
0.0
 10
119.8930832581961
 20
95.64297375967912
 30
0.0
 10
120.2450938272694
 20
95.482776732592
 30
0.0
 10
120.2981798954882
 20
95.45632051944374
 30
0.0
 10
120.3239130767637
 20
95.44349601479215
 30
0.0
  0
SPLINE
  5
169
330
1F
100
AcDbEntity
  8
0
  6
HIDDEN
 62
     7
370
     0
100
AcDbSpline
210
0.0
220
0.0
230
1.0
 70
     8
 71
     3
 72
    14
 73
    10
 74
     0
 42
0.000000001
 43
0.00000001
 40
0.0
 40
0.0
 40
0.0
 40
0.0
 40
0.0003951407686718
 40
0.0003951407686718
 40
0.0003951407686718
 40
0.0008159291550368
 40
0.0008159291550368
 40
0.0008159291550368
 40
0.0012370378119314
 40
0.0012370378119314
 40
0.0012370378119314
 40
0.0012370378119314
 10
111.1647930194873
 20
97.10863644901328
 30
0.0
 10
111.0364954803616
 20
97.1364807722368
 30
0.0
 10
110.9080733662727
 20
97.1644632243971
 30
0.0
 10
110.779602222477
 20
97.1926056790794
 30
0.0
 10
110.6427937356846
 20
97.2225744839484
 30
0.0
 10
110.5059040066977
 20
97.25273024900237
 30
0.0
 10
110.3690190877003
 20
97.28308493009958
 30
0.0
 10
110.2320298310573
 20
97.3134627484129
 30
0.0
 10
110.0950193200623
 20
97.3440453131299
 30
0.0
 10
109.9580691999398
 20
97.37483352278134
 30
0.0
  0
SPLINE
  5
16A
330
1F
100
AcDbEntity
  8
0
  6
HIDDEN
 62
     7
370
     0
100
AcDbSpline
210
0.0
220
0.0
230
1.0
 70
     8
 71
     3
 72
    14
 73
    10
 74
     0
 42
0.000000001
 43
0.00000001
 40
0.0
 40
0.0
 40
0.0
 40
0.0
 40
0.0003951392850831
 40
0.0003951392850831
 40
0.0003951392850831
 40
0.0008159035679249
 40
0.0008159035679249
 40
0.0008159035679249
 40
0.0012369936130996
 40
0.0012369936130996
 40
0.0012369936130996
 40
0.0012369936130996
 10
109.9523263589542
 20
129.7244415700524
 30
0.0
 10
110.0808355970609
 20
129.7533155377658
 30
0.0
 10
110.2093991047899
 20
129.7820037512421
 30
0.0
 10
110.3379494830733
 20
129.8105065952796
 30
0.0
 10
110.4748347307369
 20
129.8408574889703
 30
0.0
 10
110.6117303766367
 20
129.8710034539993
 30
0.0
 10
110.7485506379857
 20
129.9009552735678
 30
0.0
 10
110.8854766269307
 20
129.9309302383477
 30
0.0
 10
111.0223536988948
 20
129.9607162877929
 30
0.0
 10
111.159090548082
 20
129.9903387609617
 30
0.0
  0
SPLINE
  5
16B
330
1F
100
AcDbEntity
  8
0
  6
HIDDEN
 62
     7
370
     0
100
AcDbSpline
210
0.0
220
0.0
230
1.0
 70
     8
 71
     3
 72
    23
 73
    19
 74
     0
 42
0.000000001
 43
0.00000001
 40
0.0
 40
0.0
 40
0.0
 40
0.0
 40
0.0006894497195475
 40
0.1026207611131107
 40
0.1386936003499365
 40
0.1758319475275904
 40
0.2140597061012217
 40
0.2767523879367075
 40
0.3481448291830762
 40
0.4282807873528675
 40
0.4928746525803763
 40
0.550169136016605
 40
0.600172857224661
 40
0.642900614453227
 40
0.7551672104042185
 40
0.8563674899626212
 40
0.9573062540612607
 40
1.0
 40
1.0
 40
1.0
 40
1.0
 10
120.3235638307982
 20
131.655253004152
 30
0.0
 10
120.3238584632135
 20
131.6554005054193
 30
0.0
 10
120.3677128616628
 20
131.6773552497458
 30
0.0
 10
120.2575071160997
 20
131.6196092314536
 30
0.0
 10
120.0911053766043
 20
131.5406230283898
 30
0.0
 10
119.9466739039577
 20
131.474115726399
 30
0.0
 10
119.7300370552348
 20
131.3778425524848
 30
0.0
 10
119.3949294523682
 20
131.232934534511
 30
0.0
 10
118.8802213840476
 20
131.0266430153108
 30
0.0
 10
118.2594092263308
 20
130.7940466838115
 30
0.0
 10
117.5984582388499
 20
130.5731776511747
 30
0.0
 10
116.9824564019285
 20
130.3968511228278
 30
0.0
 10
116.4086034561833
 20
130.2523221549348
 30
0.0
 10
115.5865832966443
 20
130.074432942732
 30
0.0
 10
114.4835609289098
 20
129.9076560006999
 30
0.0
 10
113.0673589261731
 20
129.8274987251184
 30
0.0
 10
111.9606128131491
 20
129.8886065717692
 30
0.0
 10
111.3378737465612
 20
129.9682977527722
 30
0.0
 10
111.1527689712696
 20
129.9919853916947
 30
0.0
  0
SPLINE
  5
16C
330
1F
100
AcDbEntity
  8
0
  6
HIDDEN
 62
     7
370
     0
100
AcDbSpline
210
0.0
220
0.0
230
1.0
 70
     8
 71
     3
 72
    14
 73
    10
 74
     0
 42
0.000000001
 43
0.00000001
 40
0.0
 40
0.0
 40
0.0
 40
0.0
 40
0.0003951409592557
 40
0.0003951409592557
 40
0.0003951409592557
 40
0.0008163452836685
 40
0.0008163452836685
 40
0.0008163452836685
 40
0.00123787248147
 40
0.00123787248147
 40
0.00123787248147
 40
0.00123787248147
 10
111.1571304642157
 20
129.9907940966127
 30
0.0
 10
111.0287963233271
 20
129.9630912379156
 30
0.0
 10
110.9003395224231
 20
129.935243314468
 30
0.0
 10
110.7718366833952
 20
129.9072252027292
 30
0.0
 10
110.6348592780217
 20
129.8773593392316
 30
0.0
 10
110.4978037137765
 20
129.8472945577427
 30
0.0
 10
110.3607574138042
 20
129.8170158223828
 30
0.0
 10
110.2236059025707
 20
129.7867138418573
 30
0.0
 10
110.0864373847197
 20
129.7561920342713
 30
0.0
 10
109.9493346220597
 20
129.7254472629853
 30
0.0
  0
SPLINE
  5
16D
330
1F
100
AcDbEntity
  8
0
  6
HIDDEN
 62
     7
370
     0
100
AcDbSpline
210
0.0
220
0.0
230
1.0
 70
     8
 71
     3
 72
    19
 73
    15
 74
     0
 42
0.000000001
 43
0.00000001
 40
0.0
 40
0.0
 40
0.0
 40
0.0
 40
0.0400090059236297
 40
0.1288324127177051
 40
0.2143912480214769
 40
0.3023428764884581
 40
0.3896073408741914
 40
0.4792493962782291
 40
0.5692299567331235
 40
0.662343300423799
 40
0.7309341375279357
 40
0.8003039260766466
 40
0.883746086009805
 40
0.9999999999999999
 40
0.9999999999999999
 40
0.9999999999999999
 40
0.9999999999999999
 10
105.8468324112349
 20
91.02166211219472
 30
0.0
 10
105.8420262559697
 20
91.01989310641417
 30
0.0
 10
105.8265500259457
 20
91.01419675686593
 30
0.0
 10
105.9974241580707
 20
91.07710273055775
 30
0.0
 10
106.3453868593798
 20
91.20677315649812
 30
0.0
 10
106.8637427281836
 20
91.40406360436698
 30
0.0
 10
107.5342337640318
 20
91.66909527164654
 30
0.0
 10
108.3349855205278
 20
92.00594801916391
 30
0.0
 10
109.2469949248946
 20
92.43612100818484
 30
0.0
 10
110.1294981147626
 20
92.95109458238143
 30
0.0
 10
110.8699359896722
 20
93.62407720502245
 30
0.0
 10
111.304132146973
 20
94.52435916708043
 30
0.0
 10
111.3709012672246
 20
95.73053509155567
 30
0.0
 10
111.2307669121256
 20
96.5999112734309
 30
0.0
 10
111.1491871046477
 20
97.10602229448003
 30
0.0
  0
SPLINE
  5
16E
330
1F
100
AcDbEntity
  8
0
  6
HIDDEN
 62
     7
370
     0
100
AcDbSpline
210
0.0
220
0.0
230
1.0
 70
     8
 71
     3
 72
    19
 73
    15
 74
     0
 42
0.000000001
 43
0.00000001
 40
0.0
 40
0.0
 40
0.0
 40
0.0
 40
0.1134929552671108
 40
0.1920222198141889
 40
0.2515744206064418
 40
0.3111001505878006
 40
0.4176056018753149
 40
0.5045509169884903
 40
0.5939482057867486
 40
0.6822382468740441
 40
0.7730322171990555
 40
0.8620139161701299
 40
0.9537417990621442
 40
1.0
 40
1.0
 40
1.0
 40
1.0
 10
111.1491107361965
 20
129.9924938938205
 30
0.0
 10
111.2290204863468
 20
130.4869012623412
 30
0.0
 10
111.3642222490688
 20
131.32340428733
 30
0.0
 10
111.3149500260528
 20
132.4469912934649
 30
0.0
 10
110.9936400635521
 20
133.2733817153161
 30
0.0
 10
110.3366171288653
 20
134.0118082879261
 30
0.0
 10
109.4392634187373
 20
134.5623652754577
 30
0.0
 10
108.4846314771892
 20
135.0266266982165
 30
0.0
 10
107.6704201542301
 20
135.3743057353705
 30
0.0
 10
106.9660583929147
 20
135.6553233825941
 30
0.0
 10
106.4077859510215
 20
135.8687384791841
 30
0.0
 10
106.0245101379666
 20
136.0118324477129
 30
0.0
 10
105.8324405030266
 20
136.0825758003764
 30
0.0
 10
105.8432190357502
 20
136.0786058970115
 30
0.0
 10
105.8468324112349
 20
136.0772750339095
 30
0.0
  0
LINE
  5
16F
330
1F
100
AcDbEntity
  8
0
  6
HIDDEN
 62
     7
370
     0
100
AcDbLine
 10
111.3272001016
 20
131.4993477425
 30
0.0
 11
111.1490641701
 21
129.9922368488
 31
0.0
  0
LINE
  5
170
330
1F
100
AcDbEntity
  8
0
  6
HIDDEN
 62
     7
370
     0
100
AcDbLine
 10
138.1994424368
 20
107.7994685619
 30
0.0
 11
138.1994424368
 21
119.2994685842
 31
0.0
  0
LINE
  5
171
330
1F
100
AcDbEntity
  8
0
  6
HIDDEN
 62
     7
370
     0
100
AcDbLine
 10
139.0244424323
 20
107.7994685619
 30
0.0
 11
139.0244424323
 21
119.2994685842
 31
0.0
  0
LINE
  5
172
330
1F
100
AcDbEntity
  8
0
  6
HIDDEN
 62
     7
370
     0
100
AcDbLine
 10
134.7744424342
 20
108.5494686848
 30
0.0
 11
134.7744424342
 21
118.5494684613
 31
0.0
  0
LINE
  5
173
330
1F
100
AcDbEntity
  8
0
  6
HIDDEN
 62
     7
370
     0
100
AcDbLine
 10
211.9744409787
 20
109.5494683831
 30
0.0
 11
211.9744409787
 21
117.549468763
 31
0.0
  0
LINE
  5
174
330
1F
100
AcDbEntity
  8
0
  6
HIDDEN
 62
     7
370
     0
100
AcDbLine
 10
178.9744411575
 20
109.6494686789
 30
0.0
 11
178.9744411575
 21
117.4494684673
 31
0.0
  0
LINE
  5
175
330
1F
100
AcDbEntity
  8
0
  6
HIDDEN
 62
     7
370
     0
100
AcDbLine
 10
189.4744438099
 20
109.5494683831
 30
0.0
 11
189.4744438099
 21
117.549468763
 31
0.0
  0
LINE
  5
176
330
1F
100
AcDbEntity
  8
0
  6
HIDDEN
 62
     7
370
     0
100
AcDbLine
 10
155.4744419622
 20
109.5494683831
 30
0.0
 11
155.4744419622
 21
117.549468763
 31
0.0
  0
LINE
  5
177
330
1F
100
AcDbEntity
  8
0
  6
HIDDEN
 62
     7
370
     0
100
AcDbLine
 10
156.3757331091
 20
111.0494686289
 30
0.0
 11
156.3757331091
 21
116.0494685172
 31
0.0
  0
LINE
  5
178
330
1F
100
AcDbEntity
  8
0
  6
HIDDEN
 62
     7
370
     0
100
AcDbLine
 10
178.4744438695
 20
111.0494686289
 30
0.0
 11
178.4744438695
 21
116.0494685172
 31
0.0
  0
LWPOLYLINE
  5
179
330
1F
100
AcDbEntity
  8
0
  6
HIDDEN
 62
     7
370
     0
100
AcDbPolyline
 90
       32
 70
   128
 43
0.0
 10
146.5244422647
 20
99.3317966348
 10
147.2767953741
 20
99.2935434914
 10
147.9983477833
 20
99.180348683
 10
148.659557009
 20
98.9968483335
 10
149.2333550918
 20
98.7505535594
 10
149.696250351
 20
98.4515477902
 10
150.0292913037
 20
98.1120732612
 10
150.218842456
 20
97.7460271678
 10
150.2571449595
 20
97.3683963528
 10
150.1426304671
 20
96.9946398398
 10
149.8799872565
 20
96.6400592587
 10
149.4799665155
 20
96.3191739282
 10
148.9589474144
 20
96.0451173595
 10
148.3382581713
 20
95.8291119895
 10
147.6433117854
 20
95.6799997947
 10
146.90255923
 20
95.6038846633
 10
146.1463262307
 20
95.6038846633
 10
145.405572744
 20
95.6799997947
 10
144.710626358
 20
95.8291119895
 10
144.0899380463
 20
96.0451173595
 10
143.5689180138
 20
96.3191739282
 10
143.1688977386
 20
96.6400592587
 10
142.9062540623
 20
96.9946398398
 10
142.7917395698
 20
97.3683963528
 10
142.8300420734
 20
97.7460271678
 10
143.0195936913
 20
98.1120732612
 10
143.3526341783
 20
98.4515477902
 10
143.8155294376
 20
98.7505535594
 10
144.3893275204
 20
98.9968483335
 10
145.0505376774
 20
99.180348683
 10
145.7720891553
 20
99.2935434914
 10
146.5244422647
 20
99.3317966348
  0
SPLINE
  5
17A
330
1F
100
AcDbEntity
  8
0
  6
HIDDEN
 62
     7
370
     0
100
AcDbSpline
210
0.0
220
0.0
230
1.0
 70
     8
 71
     3
 72
    10
 73
     6
 74
     0
 42
0.000000001
 43
0.00000001
 40
0.0
 40
0.0
 40
0.0
 40
0.0
 40
0.5
 40
0.5
 40
1.0
 40
1.0
 40
1.0
 40
1.0
 10
148.7086402137926
 20
87.93458237288486
 30
0.0
 10
148.4739092698235
 20
88.38702176058696
 30
0.0
 10
148.2345259621068
 20
88.82654893394637
 30
0.0
 10
147.747904610796
 20
89.68564102948808
 30
0.0
 10
147.5006352990941
 20
90.10509808271131
 30
0.0
 10
147.2494424092226
 20
90.5152741392487
 30
0.0
  0
SPLINE
  5
17B
330
1F
100
AcDbEntity
  8
0
  6
HIDDEN
 62
     7
370
     0
100
AcDbSpline
210
0.0
220
0.0
230
1.0
 70
     8
 71
     3
 72
    14
 73
    10
 74
     0
 42
0.000000001
 43
0.00000001
 40
0.0
 40
0.0
 40
0.0
 40
0.0
 40
0.25
 40
0.25
 40
0.5
 40
0.5
 40
0.75
 40
0.75
 40
1.0
 40
1.0
 40
1.0
 40
1.0
 10
147.2494424092228
 20
90.60048270400156
 30
0.0
 10
147.2494424092228
 20
90.71465478155442
 30
0.0
 10
147.2235129709568
 20
90.83174278622933
 30
0.0
 10
147.1240707136805
 20
91.05289779824737
 30
0.0
 10
147.0517883279597
 20
91.15547213874652
 30
0.0
 10
146.8670509911951
 20
91.33150554423445
 30
0.0
 10
146.757504354873
 20
91.40191135121482
 30
0.0
 10
146.5141431098698
 20
91.49547721205396
 30
0.0
 10
146.382632002424
 20
91.51739753202334
 30
0.0
 10
146.2494424092226
 20
91.51133496288614
 30
0.0
  0
SPLINE
  5
17C
330
1F
100
AcDbEntity
  8
0
  6
HIDDEN
 62
     7
370
     0
100
AcDbSpline
210
0.0
220
0.0
230
1.0
 70
     8
 71
     3
 72
    10
 73
     6
 74
     0
 42
0.000000001
 43
0.00000001
 40
0.0
 40
0.0
 40
0.0
 40
0.0
 40
0.5
 40
0.5
 40
1.0
 40
1.0
 40
1.0
 40
1.0
 10
146.2494424092226
 20
91.5113349628858
 30
0.0
 10
145.9369785069345
 20
91.49711212486237
 30
0.0
 10
145.6340895249367
 20
91.45929292207079
 30
0.0
 10
145.0467463401327
 20
91.33940449608185
 30
0.0
 10
144.7622786795607
 20
91.25664745968079
 30
0.0
 10
144.4994424092226
 20
91.15527562564398
 30
0.0
  0
SPLINE
  5
17D
330
1F
100
AcDbEntity
  8
0
  6
HIDDEN
 62
     7
370
     0
100
AcDbSpline
210
0.0
220
0.0
230
1.0
 70
     8
 71
     3
 72
    14
 73
    10
 74
     0
 42
0.000000001
 43
0.00000001
 40
0.0
 40
0.0
 40
0.0
 40
0.0
 40
0.25
 40
0.25
 40
0.5
 40
0.5
 40
0.75
 40
0.75
 40
1.0
 40
1.0
 40
1.0
 40
1.0
 10
144.4994424092226
 20
91.15527562564398
 30
0.0
 10
144.3650916606815
 20
91.10345864556618
 30
0.0
 10
144.2419127578881
 20
91.02651140953283
 30
0.0
 10
144.0131623369987
 20
90.83402657612385
 30
0.0
 10
143.9112392450056
 20
90.72119958734386
 30
0.0
 10
143.7318141806603
 20
90.46835964277118
 30
0.0
 10
143.6553729317559
 20
90.33034391828949
 30
0.0
 10
143.5380849572941
 20
90.0321082115594
 30
0.0
 10
143.4994424092226
 20
89.87402024250898
 30
0.0
 10
143.4994424092226
 20
89.73458791778405
 30
0.0
  0
ARC
  5
17E
330
1F
100
AcDbEntity
  8
0
  6
HIDDEN
 62
     7
370
     0
100
AcDbCircle
 10
143.717380352
 20
139.07556748
 30
0.0
 40
1.398056856270778
100
AcDbArc
 50
114.7568411517
 51
245.2431588483
  0
SPLINE
  5
17F
330
1F
100
AcDbEntity
  8
0
  6
HIDDEN
 62
     7
370
     0
100
AcDbSpline
210
0.0
220
0.0
230
1.0
 70
     8
 71
     3
 72
    14
 73
    10
 74
     0
 42
0.000000001
 43
0.00000001
 40
0.0
 40
0.0
 40
0.0
 40
0.0
 40
0.25
 40
0.25
 40
0.5
 40
0.5
 40
0.75
 40
0.75
 40
1.0
 40
1.0
 40
1.0
 40
1.0
 10
143.4994424092226
 20
136.9180563023576
 30
0.0
 10
143.4994424092226
 20
136.7858337967756
 30
0.0
 10
143.534720652229
 20
136.6389998706597
 30
0.0
 10
143.6474462254552
 20
136.3615189436626
 30
0.0
 10
143.7248271813937
 20
136.2286677288694
 30
0.0
 10
143.905637614298
 20
135.9904052318918
 30
0.0
 10
144.0105071712367
 20
135.8831910578114
 30
0.0
 10
144.2405129703404
 20
135.7060160592033
 30
0.0
 10
144.3673373027684
 20
135.6350347753804
 30
0.0
 10
144.4994424092224
 20
135.590707398637
 30
0.0
  0
SPLINE
  5
180
330
1F
100
AcDbEntity
  8
0
  6
HIDDEN
 62
     7
370
     0
100
AcDbSpline
210
0.0
220
0.0
230
1.0
 70
     8
 71
     3
 72
    10
 73
     6
 74
     0
 42
0.000000001
 43
0.00000001
 40
0.0
 40
0.0
 40
0.0
 40
0.0
 40
0.5
 40
0.5
 40
1.0
 40
1.0
 40
1.0
 40
1.0
 10
144.4994424092226
 20
135.590707398637
 30
0.0
 10
144.7699611293378
 20
135.4999358490385
 30
0.0
 10
145.0515362939875
 20
135.4277588235463
 30
0.0
 10
145.6361298650067
 20
135.3212699114929
 30
0.0
 10
145.9414783994271
 20
135.2870389062089
 30
0.0
 10
146.2494424092226
 20
135.2743604439315
 30
0.0
  0
SPLINE
  5
181
330
1F
100
AcDbEntity
  8
0
  6
HIDDEN
 62
     7
370
     0
100
AcDbSpline
210
0.0
220
0.0
230
1.0
 70
     8
 71
     3
 72
    14
 73
    10
 74
     0
 42
0.000000001
 43
0.00000001
 40
0.0
 40
0.0
 40
0.0
 40
0.0
 40
0.25
 40
0.25
 40
0.5
 40
0.5
 40
0.75
 40
0.75
 40
1.0
 40
1.0
 40
1.0
 40
1.0
 10
146.2494424092226
 20
135.2743604439315
 30
0.0
 10
146.381649405112
 20
135.2689176604994
 30
0.0
 10
146.5145966154064
 20
135.2911680744852
 30
0.0
 10
146.7570131278457
 20
135.3841723069562
 30
0.0
 10
146.8681764936061
 20
135.455386858424
 30
0.0
 10
147.0512564598575
 20
135.6291263913949
 30
0.0
 10
147.1242606971613
 20
135.7319887569381
 30
0.0
 10
147.2235735677743
 20
135.9525266118211
 30
0.0
 10
147.2494424092226
 20
136.0680909525033
 30
0.0
 10
147.2494424092226
 20
136.1837874069197
 30
0.0
  0
SPLINE
  5
182
330
1F
100
AcDbEntity
  8
0
  6
HIDDEN
 62
     7
370
     0
100
AcDbSpline
210
0.0
220
0.0
230
1.0
 70
     8
 71
     3
 72
     8
 73
     4
 74
     0
 42
0.000000001
 43
0.00000001
 40
0.0
 40
0.0
 40
0.0
 40
0.0
 40
1.0
 40
1.0
 40
1.0
 40
1.0
 10
147.2494424092226
 20
136.2692034762171
 30
0.0
 10
147.4059247727238
 20
136.5234237338927
 30
0.0
 10
147.5611510612012
 20
136.7810575202401
 30
0.0
 10
147.7151535342752
 20
137.0421826548915
 30
0.0
  0
LWPOLYLINE
  5
183
330
1F
100
AcDbEntity
  8
0
  6
HIDDEN
 62
     7
370
     0
100
AcDbPolyline
 90
       14
 70
   128
 43
0.0
 10
147.7151530775
 20
141.1089519969
 10
148.4912623631
 20
140.9522681496
 10
149.1906381192
 20
140.7223674467
 10
149.7859963196
 20
140.4282203874
 10
150.2541097792
 20
140.0812990031
 10
150.5767152625
 20
139.6951428613
 10
150.741226876
 20
139.2848133108
 10
150.741226876
 20
138.8663216493
 10
150.5767152625
 20
138.4559920988
 10
150.2541097792
 20
138.0698340944
 10
149.7859963196
 20
137.7229145727
 10
149.1906381192
 20
137.4287675134
 10
148.4912623631
 20
137.1988668105
 10
147.7151530775
 20
137.0421829632
  0
LWPOLYLINE
  5
184
330
1F
100
AcDbEntity
  8
0
  6
HIDDEN
 62
     7
370
     0
100
AcDbPolyline
 90
       34
 70
   128
 43
0.0
 10
146.5244422647
 20
134.2661133966
 10
147.3263948205
 20
134.2278248629
 10
148.0993618237
 20
134.1143432072
 10
148.8154082539
 20
133.9297699741
 10
149.4486526566
 20
133.6807752958
 10
149.9762077796
 20
133.3763594738
 10
150.3790075871
 20
133.0275251529
 10
150.6424936446
 20
132.6468787155
 10
150.7571431788
 20
132.2481776586
 10
150.718810873
 20
131.8458351305
 10
150.5288834664
 20
131.4543890765
 10
150.1942248064
 20
131.0879900119
 10
149.7269309106
 20
130.7598776183
 10
149.1438913139
 20
130.48191322
 10
148.4661771896
 20
130.264143925
 10
147.718284184
 20
130.1144375465
 10
146.9272420722
 20
130.0382087937
 10
146.1216424572
 20
130.0382087937
 10
145.3306003454
 20
130.1144375465
 10
144.5827073398
 20
130.264143925
 10
143.9049941468
 20
130.48191322
 10
143.3219536188
 20
130.7598776183
 10
142.854659723
 20
131.0879900119
 10
142.5200015287
 20
131.4543890765
 10
142.330074122
 20
131.8458351305
 10
142.2917422819
 20
132.2481776586
 10
142.4063908848
 20
132.6468787155
 10
142.6698769423
 20
133.0275251529
 10
143.0726767498
 20
133.3763594738
 10
143.6002328041
 20
133.6807752958
 10
144.2334772068
 20
133.9297699741
 10
144.9495227056
 20
134.1143432072
 10
145.7224906402
 20
134.2278248629
 10
146.5244422647
 20
134.2661133966
  0
SPLINE
  5
185
330
1F
100
AcDbEntity
  8
0
  6
HIDDEN
 62
     7
370
     0
100
AcDbSpline
210
0.0
220
0.0
230
1.0
 70
     8
 71
     3
 72
     8
 73
     4
 74
     0
 42
0.000000001
 43
0.00000001
 40
0.0
 40
0.0
 40
0.0
 40
0.0
 40
1.0
 40
1.0
 40
1.0
 40
1.0
 10
147.7151535342752
 20
137.0421826548915
 30
0.0
 10
148.0414123704874
 20
137.2660063842212
 30
0.0
 10
148.3732507795304
 20
137.4985722315246
 30
0.0
 10
148.7086402137927
 20
137.7354925033441
 30
0.0
  0
SPLINE
  5
186
330
1F
100
AcDbEntity
  8
0
  6
HIDDEN
 62
     7
370
     0
100
AcDbSpline
210
0.0
220
0.0
230
1.0
 70
     8
 71
     3
 72
     8
 73
     4
 74
     0
 42
0.000000001
 43
0.00000001
 40
0.0
 40
0.0
 40
0.0
 40
0.0
 40
1.0
 40
1.0
 40
1.0
 40
1.0
 10
98.65412415197939
 20
123.6094692507886
 30
0.0
 10
98.62617593185986
 20
123.7172856047641
 30
0.0
 10
98.59821584369116
 20
123.8248794549304
 30
0.0
 10
98.57024365615693
 20
123.932248735715
 30
0.0
  0
SPLINE
  5
187
330
1F
100
AcDbEntity
  8
0
  6
HIDDEN
 62
     7
370
     0
100
AcDbSpline
210
0.0
220
0.0
230
1.0
 70
     8
 71
     3
 72
     8
 73
     4
 74
     0
 42
0.000000001
 43
0.00000001
 40
0.0
 40
0.0
 40
0.0
 40
0.0
 40
1.0
 40
1.0
 40
1.0
 40
1.0
 10
105.0784033064551
 20
121.611968573052
 30
0.0
 10
105.1074080128827
 20
121.7359062999142
 30
0.0
 10
105.1264405325641
 20
121.8638584301476
 30
0.0
 10
105.1346921247558
 20
121.994927742839
 30
0.0
  0
SPLINE
  5
188
330
1F
100
AcDbEntity
  8
0
  6
HIDDEN
 62
     7
370
     0
100
AcDbSpline
210
0.0
220
0.0
230
1.0
 70
     8
 71
     3
 72
     8
 73
     4
 74
     0
 42
0.000000001
 43
0.00000001
 40
0.0
 40
0.0
 40
0.0
 40
0.0
 40
1.0
 40
1.0
 40
1.0
 40
1.0
 10
98.4658683248297
 20
105.0303872512466
 30
0.0
 10
98.49926542844968
 20
105.1324722347346
 30
0.0
 10
98.53265993126897
 20
105.2346661787866
 30
0.0
 10
98.5660518616156
 20
105.336968378269
 30
0.0
  0
SPLINE
  5
189
330
1F
100
AcDbEntity
  8
0
  6
HIDDEN
 62
     7
370
     0
100
AcDbSpline
210
0.0
220
0.0
230
1.0
 70
     8
 71
     3
 72
     8
 73
     4
 74
     0
 42
0.000000001
 43
0.00000001
 40
0.0
 40
0.0
 40
0.0
 40
0.0
 40
1.0
 40
1.0
 40
1.0
 40
1.0
 10
110.5607725256642
 20
121.9904149222505
 30
0.0
 10
110.2914761955902
 20
121.8937255370556
 30
0.0
 10
110.0553155101625
 20
121.7657263676733
 30
0.0
 10
109.8461179939671
 20
121.6122497700203
 30
0.0
  0
SPLINE
  5
18A
330
1F
100
AcDbEntity
  8
0
  6
HIDDEN
 62
     7
370
     0
100
AcDbSpline
210
0.0
220
0.0
230
1.0
 70
     8
 71
     3
 72
     8
 73
     4
 74
     0
 42
0.000000001
 43
0.00000001
 40
0.0
 40
0.0
 40
0.0
 40
0.0
 40
1.0
 40
1.0
 40
1.0
 40
1.0
 10
109.8466050093751
 20
105.4866781750502
 30
0.0
 10
110.0560701594444
 20
105.332946858882
 30
0.0
 10
110.2923701776615
 20
105.2045586581997
 30
0.0
 10
110.5621888584719
 20
105.1078258147321
 30
0.0
  0
LINE
  5
18B
330
1F
100
AcDbEntity
  8
0
  6
HIDDEN
 62
     7
370
     0
100
AcDbLine
 10
143.4994422811
 20
115.7445269636
 30
0.0
 11
143.4994422811
 21
111.3544101826
 31
0.0
  0
LINE
  5
18C
330
1F
100
AcDbEntity
  8
0
  6
HIDDEN
 62
     7
370
     0
100
AcDbLine
 10
147.2494424301
 20
117.2159765846
 30
0.0
 11
147.2494424301
 21
109.8829605615
 31
0.0
  0
LINE
  5
18D
330
1F
100
AcDbEntity
  8
0
  6
HIDDEN
 62
     7
370
     0
100
AcDbLine
 10
104.7388062792
 20
121.7568912542
 30
0.0
 11
104.9109631198
 21
122.5290610454
 31
0.0
  0
SPLINE
  5
18E
330
1F
100
AcDbEntity
  8
0
  6
HIDDEN
 62
     7
370
     0
100
AcDbSpline
210
0.0
220
0.0
230
1.0
 70
     8
 71
     3
 72
    11
 73
     7
 74
     0
 42
0.000000001
 43
0.00000001
 40
0.0
 40
0.0
 40
0.0
 40
0.0
 40
0.2392845096574327
 40
0.5001120454060707
 40
0.7515010914954734
 40
1.0
 40
1.0
 40
1.0
 40
1.0
 10
110.1478741202036
 20
121.6113970006588
 30
0.0
 10
110.0790644871348
 20
121.68299269884
 30
0.0
 10
109.9352502202315
 20
121.8326299282239
 30
0.0
 10
109.7275484874428
 20
122.0616864567436
 30
0.0
 10
109.5196081758577
 20
122.2941484440696
 30
0.0
 10
109.3866399661839
 20
122.4490174354289
 30
0.0
 10
109.3205402439039
 20
122.526004238092
 30
0.0
  0
SPLINE
  5
18F
330
1F
100
AcDbEntity
  8
0
  6
HIDDEN
 62
     7
370
     0
100
AcDbSpline
210
0.0
220
0.0
230
1.0
 70
     8
 71
     3
 72
    14
 73
    10
 74
     0
 42
0.000000001
 43
0.00000001
 40
0.0
 40
0.0
 40
0.0
 40
0.0
 40
0.0310276388093398
 40
0.0622853718693698
 40
0.1248003166924349
 40
0.2498289731770658
 40
0.4998892603621822
 40
0.7606803621577949
 40
1.0
 40
1.0
 40
1.0
 40
1.0
 10
109.3191815578875
 20
104.5734922238208
 30
0.0
 10
109.3274715834271
 20
104.583060068378
 30
0.0
 10
109.3441131115406
 20
104.6022667105558
 30
0.0
 10
109.3773629679197
 20
104.640855338552
 30
0.0
 10
109.43586551352
 20
104.7083852314595
 30
0.0
 10
109.55340180737
 20
104.8432227491831
 30
0.0
 10
109.7263293311186
 20
105.0381560989136
 30
0.0
 10
109.9339768532703
 20
105.2664451227091
 30
0.0
 10
110.0777874367812
 20
105.4160147487218
 30
0.0
 10
110.1466055885142
 20
105.4875887940132
 30
0.0
  0
LINE
  5
190
330
1F
100
AcDbEntity
  8
0
  6
HIDDEN
 62
     7
370
     0
100
AcDbLine
 10
166.4744419026
 20
110.549468547
 30
0.0
 11
178.9744411575
 21
110.549468547
 31
0.0
  0
LINE
  5
191
330
1F
100
AcDbEntity
  8
0
  6
HIDDEN
 62
     7
370
     0
100
AcDbLine
 10
178.9744411575
 20
116.5494685991
 30
0.0
 11
166.4744419026
 21
116.5494685991
 31
0.0
  0
LINE
  5
192
330
1F
100
AcDbEntity
  8
0
  6
HIDDEN
 62
     7
370
     0
100
AcDbLine
 10
178.9744411575
 20
110.549468547
 30
0.0
 11
179.4744421708
 21
111.0494686289
 31
0.0
  0
LINE
  5
193
330
1F
100
AcDbEntity
  8
0
  6
HIDDEN
 62
     7
370
     0
100
AcDbLine
 10
179.4744421708
 20
116.0494685172
 30
0.0
 11
178.9744411575
 21
116.5494685991
 31
0.0
  0
LINE
  5
194
330
1F
100
AcDbEntity
  8
0
  6
HIDDEN
 62
     7
370
     0
100
AcDbLine
 10
166.4744419026
 20
116.5494685991
 30
0.0
 11
165.9744427519
 21
116.0494685172
 31
0.0
  0
LINE
  5
195
330
1F
100
AcDbEntity
  8
0
  6
HIDDEN
 62
     7
370
     0
100
AcDbLine
 10
165.9744427519
 20
111.0494686289
 30
0.0
 11
166.4744419026
 21
110.549468547
 31
0.0
  0
LINE
  5
196
330
1F
100
AcDbEntity
  8
0
  6
HIDDEN
 62
     7
370
     0
100
AcDbLine
 10
179.4744421708
 20
111.0494686289
 30
0.0
 11
179.9744431841
 21
111.0494686289
 31
0.0
  0
LINE
  5
197
330
1F
100
AcDbEntity
  8
0
  6
HIDDEN
 62
     7
370
     0
100
AcDbLine
 10
179.9744431841
 20
116.0494685172
 30
0.0
 11
179.4744421708
 21
116.0494685172
 31
0.0
  0
LINE
  5
198
330
1F
100
AcDbEntity
  8
0
  6
HIDDEN
 62
     7
370
     0
100
AcDbLine
 10
170.4744425582
 20
112.04946856
 30
0.0
 11
177.474441843
 21
112.04946856
 31
0.0
  0
LINE
  5
199
330
1F
100
AcDbEntity
  8
0
  6
HIDDEN
 62
     7
370
     0
100
AcDbLine
 10
177.474441843
 20
115.0494685861
 30
0.0
 11
170.4744425582
 21
115.0494685861
 31
0.0
  0
LINE
  5
19A
330
1F
100
AcDbEntity
  8
0
  6
HIDDEN
 62
     7
370
     0
100
AcDbLine
 10
135.4744424092
 20
86.6994685492
 30
0.0
 11
135.8084810994
 21
87.7589038572
 31
0.0
  0
LINE
  5
19B
330
1F
100
AcDbEntity
  8
0
  6
HIDDEN
 62
     7
370
     0
100
AcDbLine
 10
135.8084810994
 20
139.3400332889
 30
0.0
 11
135.4744424092
 21
140.3994685969
 31
0.0
  0
ARC
  5
19C
330
1F
100
AcDbEntity
  8
0
  6
HIDDEN
 62
     7
370
     0
100
AcDbCircle
 10
135.0455075347
 20
87.9994685731
 30
0.0
 40
0.7999999999999868
100
AcDbArc
 50
342.5
 51
0.0
  0
ARC
  5
19D
330
1F
100
AcDbEntity
  8
0
  6
HIDDEN
 62
     7
370
     0
100
AcDbCircle
 10
135.0455075347
 20
87.9994685731
 30
0.0
 40
0.8000000000000081
100
AcDbArc
 50
0.0
 51
57.576802718
  0
ARC
  5
19E
330
1F
100
AcDbEntity
  8
0
  6
HIDDEN
 62
     7
370
     0
100
AcDbCircle
 10
135.0455075347
 20
139.0994685731
 30
0.0
 40
0.8000000000000193
100
AcDbArc
 50
346.5625
 51
17.5
  0
ARC
  5
19F
330
1F
100
AcDbEntity
  8
0
  6
HIDDEN
 62
     7
370
     0
100
AcDbCircle
 10
135.0455075347
 20
139.0994685731
 30
0.0
 40
0.8000000000000203
100
AcDbArc
 50
302.423197282
 51
346.5625
  0
LINE
  5
1A0
330
1F
100
AcDbEntity
  8
0
  6
HIDDEN
 62
     7
370
     0
100
AcDbLine
 10
135.8455075455
 20
87.9994682035
 30
0.0
 11
135.8455075455
 21
139.0994689426
 31
0.0
  0
ARC
  5
1A1
330
1F
100
AcDbEntity
  8
0
  6
HIDDEN
 62
     7
370
     0
100
AcDbCircle
 10
128.6744424092
 20
96.0994685731
 30
0.0
 40
0.8000000000000114
100
AcDbArc
 50
270.0
 51
0.0
  0
ARC
  5
1A2
330
1F
100
AcDbEntity
  8
0
  6
HIDDEN
 62
     7
370
     0
100
AcDbCircle
 10
128.6744424092
 20
130.9994685731
 30
0.0
 40
0.8000000000000114
100
AcDbArc
 50
0.0
 51
90.0
  0
LINE
  5
1A3
330
1F
100
AcDbEntity
  8
0
  6
HIDDEN
 62
     7
370
     0
100
AcDbLine
 10
127.2496831583
 20
95.2994688413
 30
0.0
 11
128.6744423191
 21
95.2994688413
 31
0.0
  0
LINE
  5
1A4
330
1F
100
AcDbEntity
  8
0
  6
HIDDEN
 62
     7
370
     0
100
AcDbLine
 10
128.6744423191
 20
131.7994683048
 30
0.0
 11
127.2496831583
 21
131.7994683048
 31
0.0
  0
ARC
  5
1A5
330
1F
100
AcDbEntity
  8
0
  6
HIDDEN
 62
     7
370
     0
100
AcDbCircle
 10
127.2496828828
 20
96.0994685731
 30
0.0
 40
0.799999999999975
100
AcDbArc
 50
240.0
 51
270.0
  0
ARC
  5
1A6
330
1F
100
AcDbEntity
  8
0
  6
HIDDEN
 62
     7
370
     0
100
AcDbCircle
 10
127.2496828828
 20
130.9994685731
 30
0.0
 40
0.799999999999983
100
AcDbArc
 50
90.0
 51
120.0
  0
LINE
  5
1A7
330
1F
100
AcDbEntity
  8
0
  6
HIDDEN
 62
     7
370
     0
100
AcDbLine
 10
126.8496829065
 20
131.6922879777
 30
0.0
 11
125.9744427147
 21
131.1869691125
 31
0.0
  0
LINE
  5
1A8
330
1F
100
AcDbEntity
  8
0
  6
HIDDEN
 62
     7
370
     0
100
AcDbLine
 10
125.9744427147
 20
95.9119680336
 30
0.0
 11
126.8496829065
 21
95.4066491685
 31
0.0
  0
LINE
  5
1A9
330
1F
100
AcDbEntity
  8
0
  6
HIDDEN
 62
     7
370
     0
100
AcDbLine
 10
95.5244441497
 20
93.311968725
 30
0.0
 11
96.2761071491
 21
94.6138924918
 31
0.0
  0
LINE
  5
1AA
330
1F
100
AcDbEntity
  8
0
  6
HIDDEN
 62
     7
370
     0
100
AcDbLine
 10
120.9496128353
 20
95.9119680336
 30
0.0
 11
125.9744427147
 21
95.9119680336
 31
0.0
  0
LINE
  5
1AB
330
1F
100
AcDbEntity
  8
0
  6
HIDDEN
 62
     7
370
     0
100
AcDbLine
 10
98.5244427788
 20
95.9119680336
 30
0.0
 11
102.4136719274
 21
95.9119680336
 31
0.0
  0
LINE
  5
1AC
330
1F
100
AcDbEntity
  8
0
  6
HIDDEN
 62
     7
370
     0
100
AcDbLine
 10
102.4136719274
 20
131.1869691125
 30
0.0
 11
98.5244427788
 21
131.1869691125
 31
0.0
  0
LINE
  5
1AD
330
1F
100
AcDbEntity
  8
0
  6
HIDDEN
 62
     7
370
     0
100
AcDbLine
 10
125.9744427147
 20
131.1869691125
 30
0.0
 11
120.9500356557
 21
131.1869691125
 31
0.0
  0
LINE
  5
1AE
330
1F
100
AcDbEntity
  8
0
  6
HIDDEN
 62
     7
370
     0
100
AcDbLine
 10
96.2761071491
 20
132.4850446543
 30
0.0
 11
95.5244441497
 21
133.7869684211
 31
0.0
  0
LINE
  5
1AF
330
1F
100
AcDbEntity
  8
0
  6
HIDDEN
 62
     7
370
     0
100
AcDbLine
 10
96.2761071491
 20
94.6138924918
 30
0.0
 11
98.5244427788
 21
95.9119680336
 31
0.0
  0
LINE
  5
1B0
330
1F
100
AcDbEntity
  8
0
  6
HIDDEN
 62
     7
370
     0
100
AcDbLine
 10
98.5244427788
 20
131.1869691125
 30
0.0
 11
96.2761071491
 21
132.4850446543
 31
0.0
  0
ARC
  5
1B1
330
1F
100
AcDbEntity
  8
0
  6
HIDDEN
 62
     7
370
     0
100
AcDbCircle
 10
133.1744424092
 20
99.1994685731
 30
0.0
 40
1.200000000000017
100
AcDbArc
 50
270.0
 51
0.0
  0
ARC
  5
1B2
330
1F
100
AcDbEntity
  8
0
  6
HIDDEN
 62
     7
370
     0
100
AcDbCircle
 10
133.1744424092
 20
127.8994685731
 30
0.0
 40
1.200000000000017
100
AcDbArc
 50
0.0
 51
90.0
  0
LINE
  5
1B3
330
1F
100
AcDbEntity
  8
0
  6
HIDDEN
 62
     7
370
     0
100
AcDbLine
 10
129.4744423571
 20
97.9994689113
 30
0.0
 11
133.1744423582
 21
97.9994689113
 31
0.0
  0
LINE
  5
1B4
330
1F
100
AcDbEntity
  8
0
  6
HIDDEN
 62
     7
370
     0
100
AcDbLine
 10
133.1744423582
 20
129.0994682348
 30
0.0
 11
129.4744423571
 21
129.0994682348
 31
0.0
  0
LINE
  5
1B5
330
1F
100
AcDbEntity
  8
0
  6
HIDDEN
 62
     7
370
     0
100
AcDbLine
 10
105.0748758929
 20
137.0228561571
 30
0.0
 11
105.8244657683
 21
136.2137435934
 31
0.0
  0
LINE
  5
1B6
330
1F
100
AcDbEntity
  8
0
  6
HIDDEN
 62
     7
370
     0
100
AcDbLine
 10
120.3244560378
 20
137.0131201109
 30
0.0
 11
120.9927861559
 21
137.8222326747
 31
0.0
  0
LINE
  5
1B7
330
1F
100
AcDbEntity
  8
0
  6
HIDDEN
 62
     7
370
     0
100
AcDbLine
 10
120.9930525141
 20
89.276685845
 30
0.0
 11
120.324473733
 21
90.0859083048
 31
0.0
  0
LINE
  5
1B8
330
1F
100
AcDbEntity
  8
0
  6
HIDDEN
 62
     7
370
     0
100
AcDbLine
 10
105.8244527298
 20
90.885312762
 30
0.0
 11
105.0746020841
 21
90.0760903022
 31
0.0
  0
LINE
  5
1B9
330
1F
100
AcDbEntity
  8
0
  6
HIDDEN
 62
     7
370
     0
100
AcDbLine
 10
120.3244411367
 20
95.4432426951
 30
0.0
 11
120.9503867644
 21
95.9119680336
 31
0.0
  0
LINE
  5
1BA
330
1F
100
AcDbEntity
  8
0
  6
HIDDEN
 62
     7
370
     0
100
AcDbLine
 10
120.9503951463
 20
131.1869709751
 30
0.0
 11
120.3244485872
 21
131.6556963137
 31
0.0
  0
LINE
  5
1BB
330
1F
100
AcDbEntity
  8
0
  6
HIDDEN
 62
     7
370
     0
100
AcDbLine
 10
102.396945374
 20
95.9083917549
 30
0.0
 11
105.8279358762
 21
91.0084317437
 31
0.0
  0
LINE
  5
1BC
330
1F
100
AcDbEntity
  8
0
  6
HIDDEN
 62
     7
370
     0
100
AcDbLine
 10
105.8279358762
 20
136.0905054024
 30
0.0
 11
102.396945374
 21
131.1905453912
 31
0.0
  0
LINE
  5
1BD
330
1F
100
AcDbEntity
  8
0
  6
HIDDEN
 62
     7
370
     0
100
AcDbLine
 10
120.324442068
 20
131.6555379889
 30
0.0
 11
120.324442068
 21
137.0116486213
 31
0.0
  0
LINE
  5
1BE
330
1F
100
AcDbEntity
  8
0
  6
HIDDEN
 62
     7
370
     0
100
AcDbLine
 10
105.8244415539
 20
136.2123801372
 30
0.0
 11
105.8244415539
 21
136.0772750339
 31
0.0
  0
LINE
  5
1BF
330
1F
100
AcDbEntity
  8
0
  6
HIDDEN
 62
     7
370
     0
100
AcDbLine
 10
120.324442068
 20
90.0878529063
 30
0.0
 11
120.324442068
 21
95.4435742459
 31
0.0
  0
LINE
  5
1C0
330
1F
100
AcDbEntity
  8
0
  6
HIDDEN
 62
     7
370
     0
100
AcDbLine
 10
105.8244415539
 20
91.0216621122
 30
0.0
 11
105.8244415539
 21
90.8867618999
 31
0.0
  0
LINE
  5
1C1
330
1F
100
AcDbEntity
  8
0
  6
HIDDEN
 62
     7
370
     0
100
AcDbLine
 10
138.1994424368
 20
107.7994685619
 30
0.0
 11
139.0244424323
 21
107.7994685619
 31
0.0
  0
LINE
  5
1C2
330
1F
100
AcDbEntity
  8
0
  6
HIDDEN
 62
     7
370
     0
100
AcDbLine
 10
139.0244424323
 20
119.2994685842
 30
0.0
 11
138.1994424368
 21
119.2994685842
 31
0.0
  0
LINE
  5
1C3
330
1F
100
AcDbEntity
  8
0
  6
HIDDEN
 62
     7
370
     0
100
AcDbLine
 10
134.3744424152
 20
108.318528626
 30
0.0
 11
134.7744424342
 21
108.5494686848
 31
0.0
  0
LINE
  5
1C4
330
1F
100
AcDbEntity
  8
0
  6
HIDDEN
 62
     7
370
     0
100
AcDbLine
 10
134.7744424342
 20
118.5494684613
 30
0.0
 11
134.3744424152
 21
118.7804085201
 31
0.0
  0
ARC
  5
1C5
330
1F
100
AcDbEntity
  8
0
  6
HIDDEN
 62
     7
370
     0
100
AcDbCircle
 10
214.9744424092
 20
108.512774325
 30
0.0
 40
0.5
100
AcDbArc
 50
0.0
 51
80.0
  0
ARC
  5
1C6
330
1F
100
AcDbEntity
  8
0
  6
HIDDEN
 62
     7
370
     0
100
AcDbCircle
 10
214.9744424092
 20
118.5861628211
 30
0.0
 40
0.5000000000000105
100
AcDbArc
 50
280.0
 51
0.0
  0
LINE
  5
1C7
330
1F
100
AcDbEntity
  8
0
  6
HIDDEN
 62
     7
370
     0
100
AcDbLine
 10
134.7744424342
 20
108.5494686848
 30
0.0
 11
138.1994424368
 21
108.5494686848
 31
0.0
  0
LINE
  5
1C8
330
1F
100
AcDbEntity
  8
0
  6
HIDDEN
 62
     7
370
     0
100
AcDbLine
 10
138.1994424368
 20
118.5494684613
 30
0.0
 11
134.7744424342
 21
118.5494684613
 31
0.0
  0
LINE
  5
1C9
330
1F
100
AcDbEntity
  8
0
  6
HIDDEN
 62
     7
370
     0
100
AcDbLine
 10
215.0612686741
 20
118.0937588214
 30
0.0
 11
211.9744409787
 21
117.549468763
 31
0.0
  0
LINE
  5
1CA
330
1F
100
AcDbEntity
  8
0
  6
HIDDEN
 62
     7
370
     0
100
AcDbLine
 10
211.9744409787
 20
109.5494683831
 30
0.0
 11
215.0612686741
 21
109.0051783247
 31
0.0
  0
ARC
  5
1CB
330
1F
100
AcDbEntity
  8
0
  6
HIDDEN
 62
     7
370
     0
100
AcDbCircle
 10
179.3744424092
 20
109.6494685731
 30
0.0
 40
0.3999999999999915
100
AcDbArc
 50
180.0
 51
270.0
  0
ARC
  5
1CC
330
1F
100
AcDbEntity
  8
0
  6
HIDDEN
 62
     7
370
     0
100
AcDbCircle
 10
179.3744424092
 20
117.4494685731
 30
0.0
 40
0.4000000000000057
100
AcDbArc
 50
90.0
 51
180.0
  0
LINE
  5
1CD
330
1F
100
AcDbEntity
  8
0
  6
HIDDEN
 62
     7
370
     0
100
AcDbLine
 10
179.3744442033
 20
109.249468427
 30
0.0
 11
188.5796700584
 21
109.249468427
 31
0.0
  0
LINE
  5
1CE
330
1F
100
AcDbEntity
  8
0
  6
HIDDEN
 62
     7
370
     0
100
AcDbLine
 10
188.5796700584
 20
117.8494687191
 30
0.0
 11
179.3744442033
 21
117.8494687191
 31
0.0
  0
ARC
  5
1CF
330
1F
100
AcDbEntity
  8
0
  6
HIDDEN
 62
     7
370
     0
100
AcDbCircle
 10
188.5796683911
 20
109.6494685731
 30
0.0
 40
0.4000000000000074
100
AcDbArc
 50
270.0
 51
290.0
  0
ARC
  5
1D0
330
1F
100
AcDbEntity
  8
0
  6
HIDDEN
 62
     7
370
     0
100
AcDbCircle
 10
188.5796683911
 20
117.4494685731
 30
0.0
 40
0.4000000000000074
100
AcDbArc
 50
70.0
 51
90.0
  0
LINE
  5
1D1
330
1F
100
AcDbEntity
  8
0
  6
HIDDEN
 62
     7
370
     0
100
AcDbLine
 10
188.7164776194
 20
109.2735915443
 30
0.0
 11
189.4744438099
 21
109.5494683831
 31
0.0
  0
LINE
  5
1D2
330
1F
100
AcDbEntity
  8
0
  6
HIDDEN
 62
     7
370
     0
100
AcDbLine
 10
189.4744438099
 20
117.549468763
 30
0.0
 11
188.7164776194
 21
117.8253456018
 31
0.0
  0
LINE
  5
1D3
330
1F
100
AcDbEntity
  8
0
  6
HIDDEN
 62
     7
370
     0
100
AcDbLine
 10
155.4744419622
 20
109.5494683831
 30
0.0
 11
156.3757331091
 21
111.0494686289
 31
0.0
  0
LINE
  5
1D4
330
1F
100
AcDbEntity
  8
0
  6
HIDDEN
 62
     7
370
     0
100
AcDbLine
 10
156.3757331091
 20
116.0494685172
 30
0.0
 11
155.4744419622
 21
117.549468763
 31
0.0
  0
LINE
  5
1D5
330
1F
100
AcDbEntity
  8
0
  6
HIDDEN
 62
     7
370
     0
100
AcDbLine
 10
189.4744438099
 20
109.5494683831
 30
0.0
 11
211.9744409787
 21
109.5494683831
 31
0.0
  0
LINE
  5
1D6
330
1F
100
AcDbEntity
  8
0
  6
HIDDEN
 62
     7
370
     0
100
AcDbLine
 10
211.9744409787
 20
117.549468763
 30
0.0
 11
189.4744438099
 21
117.549468763
 31
0.0
  0
LINE
  5
1D7
330
1F
100
AcDbEntity
  8
0
  6
HIDDEN
 62
     7
370
     0
100
AcDbLine
 10
139.0244424323
 20
109.5494683831
 30
0.0
 11
155.4744419622
 21
109.5494683831
 31
0.0
  0
LINE
  5
1D8
330
1F
100
AcDbEntity
  8
0
  6
HIDDEN
 62
     7
370
     0
100
AcDbLine
 10
155.4744419622
 20
117.549468763
 30
0.0
 11
139.0244424323
 21
117.549468763
 31
0.0
  0
LINE
  5
1D9
330
1F
100
AcDbEntity
  8
0
  6
HIDDEN
 62
     7
370
     0
100
AcDbLine
 10
178.9744411575
 20
116.5494685991
 30
0.0
 11
178.4744438695
 21
116.0494685172
 31
0.0
  0
LINE
  5
1DA
330
1F
100
AcDbEntity
  8
0
  6
HIDDEN
 62
     7
370
     0
100
AcDbLine
 10
178.4744438695
 20
111.0494686289
 30
0.0
 11
178.9744411575
 21
110.549468547
 31
0.0
  0
LINE
  5
1DB
330
1F
100
AcDbEntity
  8
0
  6
HIDDEN
 62
     7
370
     0
100
AcDbLine
 10
156.3757331091
 20
111.0494686289
 30
0.0
 11
178.4744438695
 21
111.0494686289
 31
0.0
  0
LINE
  5
1DC
330
1F
100
AcDbEntity
  8
0
  6
HIDDEN
 62
     7
370
     0
100
AcDbLine
 10
178.4744438695
 20
116.0494685172
 30
0.0
 11
156.3757331091
 21
116.0494685172
 31
0.0
  0
LINE
  5
1DD
330
1F
100
AcDbEntity
  8
0
  6
HIDDEN
 62
     7
370
     0
100
AcDbLine
 10
147.5597004386
 20
99.2586766368
 30
0.0
 11
146.5244422647
 21
99.4078940711
 31
0.0
  0
LINE
  5
1DE
330
1F
100
AcDbEntity
  8
0
  6
HIDDEN
 62
     7
370
     0
100
AcDbLine
 10
146.5244422647
 20
99.4078940711
 30
0.0
 11
145.4891850221
 21
99.2586766368
 31
0.0
  0
LINE
  5
1DF
330
1F
100
AcDbEntity
  8
0
  6
HIDDEN
 62
     7
370
     0
100
AcDbLine
 10
150.2619422021
 20
86.294680368
 30
0.0
 11
150.2619422021
 21
97.4630466661
 31
0.0
  0
LINE
  5
1E0
330
1F
100
AcDbEntity
  8
0
  6
HIDDEN
 62
     7
370
     0
100
AcDbLine
 10
142.7869423273
 20
97.4630466661
 30
0.0
 11
142.7869423273
 21
87.4305362812
 31
0.0
  0
LINE
  5
1E1
330
1F
100
AcDbEntity
  8
0
  6
HIDDEN
 62
     7
370
     0
100
AcDbLine
 10
142.2869422453
 20
139.07556748
 30
0.0
 11
142.2869422453
 21
132.1473638526
 31
0.0
  0
LINE
  5
1E2
330
1F
100
AcDbEntity
  8
0
  6
HIDDEN
 62
     7
370
     0
100
AcDbLine
 10
150.7619422841
 20
132.1473638526
 30
0.0
 11
150.7619422841
 21
139.07556748
 31
0.0
  0
LINE
  5
1E3
330
1F
100
AcDbEntity
  8
0
  6
HIDDEN
 62
     7
370
     0
100
AcDbLine
 10
145.3506889733
 20
130.1115169189
 30
0.0
 11
146.5244422647
 21
129.9423365852
 31
0.0
  0
LINE
  5
1E4
330
1F
100
AcDbEntity
  8
0
  6
HIDDEN
 62
     7
370
     0
100
AcDbLine
 10
146.5244422647
 20
129.9423365852
 30
0.0
 11
147.6981964874
 21
130.1115169189
 31
0.0
  0
LINE
  5
1E5
330
1F
100
AcDbEntity
  8
0
  6
HIDDEN
 62
     7
370
     0
100
AcDbLine
 10
149.9843466076
 20
137.8523069433
 30
0.0
 11
151.4523670989
 21
138.890353497
 31
0.0
  0
LINE
  5
1E6
330
1F
100
AcDbEntity
  8
0
  6
HIDDEN
 62
     7
370
     0
100
AcDbLine
 10
141.6010599563
 20
138.8871422967
 30
0.0
 11
143.0645379218
 21
137.8523069433
 31
0.0
  0
DIMENSION
  5
1E7
330
1F
100
AcDbEntity
  8
VERMASSUNG
100
AcDbDimension
  2
_D
 10
221.6196911839
 20
109.5494685731
 30
0.0
 11
221.6196911839
 21
113.5494685731
 31
0.0
 70
   160
  1
%%c<>
 71
     1
 42
-1.0
  3
SLDDIMSTYLE0
100
AcDbAlignedDimension
 13
211.9744424092
 23
117.5494685731
 33
0.0
 14
211.9744424092
 24
109.5494685731
 34
0.0
 50
90.0
100
AcDbRotatedDimension
  0
DIMENSION
  5
1F3
330
1F
100
AcDbEntity
  8
VERMASSUNG
100
AcDbDimension
  2
_D_1
 10
227.6196911839
 20
103.0494685731
 30
0.0
 11
227.6196911839
 21
113.5494685731
 31
0.0
 70
   160
  1
%%c<>
 71
     1
 42
-1.0
  3
SLDDIMSTYLE0
100
AcDbAlignedDimension
 13
215.4744424092
 23
124.0494685731
 33
0.0
 14
215.4744424092
 24
103.0494685731
 34
0.0
 50
90.0
100
AcDbRotatedDimension
  0
DIMENSION
  5
1FE
330
1F
100
AcDbEntity
  8
VERMASSUNG
100
AcDbDimension
  2
_D_2
 10
233.6196911839
 20
100.0494685731
 30
0.0
 11
233.6196911839
 21
113.5494685731
 31
0.0
 70
   160
  1
%%c<>
 71
     2
 42
-1.0
  3
SLDDIMSTYLE0
100
AcDbAlignedDimension
 13
177.3558282007
 23
127.0494685731
 33
0.0
 14
177.3558282007
 24
100.0494685731
 34
0.0
 50
90.0
100
AcDbRotatedDimension
  0
DIMENSION
  5
209
330
1F
100
AcDbEntity
  8
VERMASSUNG
100
AcDbDimension
  2
_D_3
 10
215.4744424092
 20
145.4809820866
 30
0.0
 11
196.415135305
 21
145.4809820866
 31
0.0
 70
   160
  1
<>
 71
     2
 42
-1.0
  3
SLDDIMSTYLE0
100
AcDbAlignedDimension
 13
177.3558282007
 23
127.0494685731
 33
0.0
 14
215.4744424092
 24
122.2006875897
 34
0.0
 50
0.0
100
AcDbRotatedDimension
  0
DIMENSION
  5
213
330
1F
100
AcDbEntity
  8
VERMASSUNG
100
AcDbDimension
  2
_D_4
 10
215.4744424092
 20
151.4809820866
 30
0.0
 11
184.4744424092
 21
151.4809820866
 31
0.0
 70
   160
  1
<>
 71
     2
 42
-1.0
  3
SLDDIMSTYLE0
100
AcDbAlignedDimension
 13
153.4744424092
 23
145.0244685731
 33
0.0
 14
215.4744424092
 24
122.2006875897
 34
0.0
 50
0.0
100
AcDbRotatedDimension
  0
DIMENSION
  5
21D
330
1F
100
AcDbEntity
  8
VERMASSUNG
100
AcDbDimension
  2
_D_5
 10
215.4744424092
 20
157.4809820866
 30
0.0
 11
175.4744424092
 21
157.4809820866
 31
0.0
 70
   160
  1
<>
 71
     2
 42
-1.0
  3
SLDDIMSTYLE0
100
AcDbAlignedDimension
 13
135.4744424092
 23
144.8244685731
 33
0.0
 14
215.4744424092
 24
122.2006875897
 34
0.0
 50
0.0
100
AcDbRotatedDimension
  0
DIMENSION
  5
227
330
1F
100
AcDbEntity
  8
VERMASSUNG
100
AcDbDimension
  2
_D_6
 10
215.4744424092
 20
163.4809820866
 30
0.0
 11
155.4994424092
 21
163.4809820866
 31
0.0
 70
   160
  1
<>
 71
     2
 42
-1.0
  3
SLDDIMSTYLE0
100
AcDbAlignedDimension
 13
95.5244424092
 23
135.7525632968
 33
0.0
 14
215.4744424092
 24
122.2006875897
 34
0.0
 50
0.0
100
AcDbRotatedDimension
  0
DIMENSION
  5
231
330
1F
100
AcDbEntity
  8
VERMASSUNG
100
AcDbDimension
  2
_D_7
 10
156.4744424092
 20
130.0494685731
 30
0.0
 11
157.6450200027
 21
130.987439931
 31
0.0
 70
   164
  1
<>
 71
     1
 42
-1.0
  3
SLDDIMSTYLE1
100
AcDbRadialDimension
 15
154.1333072222
 25
128.1735458571
 35
0.0
 40
0.0
  0
DIMENSION
  5
23A
330
1F
100
AcDbEntity
  8
VERMASSUNG
100
AcDbDimension
  2
_D_8
 10
215.4744424092
 20
94.4454984603
 30
0.0
 11
197.2244424092
 21
94.4454984603
 31
0.0
 70
   160
  1
<>
 71
     2
 42
-1.0
  3
SLDDIMSTYLE0
100
AcDbAlignedDimension
 13
178.9744424092
 23
109.6494685731
 33
0.0
 14
215.4744424092
 24
104.8982495564
 34
0.0
 50
0.0
100
AcDbRotatedDimension
  0
DIMENSION
  5
244
330
1F
100
AcDbEntity
  8
VERMASSUNG
100
AcDbDimension
  2
_D_9
 10
90.4104404641
 20
82.0744685731
 30
0.0
 11
90.4104404641
 21
113.5494685731
 31
0.0
 70
   160
  1
KM XMZ %%c<>
 71
     2
 42
-1.0
  3
SLDDIMSTYLE0
100
AcDbAlignedDimension
 13
135.6744424092
 23
145.0244685731
 33
0.0
 14
135.6744424092
 24
82.0744685731
 34
0.0
 50
90.0
100
AcDbRotatedDimension
  0
LINE
  5
250
330
1F
100
AcDbEntity
  8
VERMASSUNG
  6
CENTERX2
370
     0
100
AcDbLine
 10
94.9114299092
 20
113.5494685731
 30
0.0
 11
217.4744424092
 21
113.5494685731
 31
0.0
  0
LINE
  5
251
330
1F
100
AcDbEntity
  8
0
  6
Continuous
 62
     7
370
    15
100
AcDbLine
 10
211.5762330351
 20
21.6305787335
 30
0.0
 11
225.0744166871
 21
15.4839477669
 31
0.0
  0
LINE
  5
252
330
1F
100
AcDbEntity
  8
0
  6
Continuous
 62
     7
370
    15
100
AcDbLine
 10
230.3882618775
 20
24.6887953205
 30
0.0
 11
218.3152233646
 21
33.3041169914
 31
0.0
  0
SPLINE
  5
253
330
1F
100
AcDbEntity
  8
0
  6
Continuous
 62
     7
370
    15
100
AcDbSpline
210
0.0
220
0.0
230
1.0
 70
     8
 71
     3
 72
    30
 73
    26
 74
     0
 42
0.000000001
 43
0.00000001
 40
0.0
 40
0.0
 40
0.0
 40
0.0
 40
0.0091278694002916
 40
0.0511157681012336
 40
0.0932174722951638
 40
0.1363305838269454
 40
0.1810382482851939
 40
0.2274217374574252
 40
0.2750398928662184
 40
0.3232315502610646
 40
0.3714105305770768
 40
0.4194161044944131
 40
0.4672610888421573
 40
0.5150292364804849
 40
0.562832444811894
 40
0.6107609929024482
 40
0.6589359839121439
 40
0.7074801115813839
 40
0.7564782446892494
 40
0.8058949029842378
 40
0.8552522273734567
 40
0.8985069204798292
 40
0.9401880998343257
 40
0.9849686411650187
 40
0.9999999999999999
 40
0.9999999999999999
 40
0.9999999999999999
 40
0.9999999999999999
 10
225.0619558725753
 20
15.49944794447436
 30
0.0
 10
225.0936211969804
 20
15.48171606560305
 30
0.0
 10
225.2709459710498
 20
15.38241812775611
 30
0.0
 10
225.6376109879882
 20
15.29329481526336
 30
0.0
 10
226.1445766689775
 20
15.23833896173868
 30
0.0
 10
226.6744484323038
 20
15.28450301036052
 30
0.0
 10
227.2190257456292
 20
15.42168644331287
 30
0.0
 10
227.7740358844817
 20
15.65365566010914
 30
0.0
 10
228.328987811843
 20
15.97782790939275
 30
0.0
 10
228.8707258172472
 20
16.38762946895908
 30
0.0
 10
229.3864125618999
 20
16.87230558144064
 30
0.0
 10
229.8655267217949
 20
17.41983959034337
 30
0.0
 10
230.2998889669472
 20
18.01877338393566
 30
0.0
 10
230.6823915062716
 20
18.65787442988329
 30
0.0
 10
231.0064254097348
 20
19.32584689842963
 30
0.0
 10
231.2658715082275
 20
20.01143807100706
 30
0.0
 10
231.455030772621
 20
20.70360485148575
 30
0.0
 10
231.5683863811897
 20
21.3917633923042
 30
0.0
 10
231.6001800628406
 20
22.0652321493513
 30
0.0
 10
231.5445299828737
 20
22.71163332884054
 30
0.0
 10
231.4013872487131
 20
23.29325216223678
 30
0.0
 10
231.1832113794607
 20
23.79980043798073
 30
0.0
 10
230.8914925006101
 20
24.23193538291845
 30
0.0
 10
230.6148452353779
 20
24.53571572291915
 30
0.0
 10
230.4125723087768
 20
24.6610275331448
 30
0.0
 10
230.361738997447
 20
24.69251970745369
 30
0.0
  0
SPLINE
  5
254
330
1F
100
AcDbEntity
  8
0
  6
Continuous
 62
     7
370
    15
100
AcDbSpline
210
0.0
220
0.0
230
1.0
 70
     8
 71
     3
 72
    11
 73
     7
 74
     0
 42
0.000000001
 43
0.00000001
 40
0.0
 40
0.0
 40
0.0
 40
0.0
 40
0.1357656636590041
 40
0.4451639435053391
 40
0.7753958296906615
 40
1.0
 40
1.0
 40
1.0
 40
1.0
 10
226.8175247307438
 20
18.02706073667478
 30
0.0
 10
226.7931423684805
 20
18.04588106335644
 30
0.0
 10
226.713194698027
 20
18.10759129713621
 30
0.0
 10
226.6146417590673
 20
18.30128834412562
 30
0.0
 10
226.538465717954
 20
18.57035981814591
 30
0.0
 10
226.5305365441626
 20
18.78348189911136
 30
0.0
 10
226.5273267212252
 20
18.86975622755401
 30
0.0
  0
SPLINE
  5
255
330
1F
100
AcDbEntity
  8
0
  6
Continuous
 62
     7
370
    15
100
AcDbSpline
210
0.0
220
0.0
230
1.0
 70
     8
 71
     3
 72
    19
 73
    15
 74
     0
 42
0.000000001
 43
0.00000001
 40
0.0
 40
0.0
 40
0.0
 40
0.0
 40
0.0467956489382912
 40
0.136965004979466
 40
0.2276178554058192
 40
0.3186405226720164
 40
0.4098584671012653
 40
0.5010296954229078
 40
0.5918493758985158
 40
0.6820893917474193
 40
0.7716250262214706
 40
0.8607371710830733
 40
0.9503113267658174
 40
0.9999999999999999
 40
0.9999999999999999
 40
0.9999999999999999
 40
0.9999999999999999
 10
226.5273267212252
 20
18.86975622755401
 30
0.0
 10
226.5291376831573
 20
18.93630518500007
 30
0.0
 10
226.534438141975
 20
19.13108565059417
 30
0.0
 10
226.5950240082633
 20
19.48652301578969
 30
0.0
 10
226.731198734447
 20
19.92653280175499
 30
0.0
 10
226.9308155643312
 20
20.36658392122151
 30
0.0
 10
227.1840226755594
 20
20.78466293814365
 30
0.0
 10
227.4790395003
 20
21.16094331181182
 30
0.0
 10
227.8009026678651
 20
21.47764647831696
 30
0.0
 10
228.1323389705151
 20
21.7202523587896
 30
0.0
 10
228.4558170609812
 20
21.88063640701538
 30
0.0
 10
228.7502247693309
 20
21.95147684034143
 30
0.0
 10
228.9697585443895
 20
21.95309208011149
 30
0.0
 10
229.0710294813434
 20
21.90778002545191
 30
0.0
 10
229.1071627304922
 20
21.89161278330223
 30
0.0
  0
LINE
  5
256
330
1F
100
AcDbEntity
  8
0
  6
Continuous
 62
     7
370
    15
100
AcDbLine
 10
196.7614560865
 20
19.7932968018
 30
0.0
 11
198.4464212355
 21
18.820587126
 31
0.0
  0
LINE
  5
257
330
1F
100
AcDbEntity
  8
0
  6
Continuous
 62
     7
370
    15
100
AcDbLine
 10
214.18264255
 20
46.0794755198
 30
0.0
 11
212.497677401
 21
47.0521851956
 31
0.0
  0
LINE
  5
258
330
1F
100
AcDbEntity
  8
0
  6
Continuous
 62
     7
370
    15
100
AcDbLine
 10
192.1531711551
 20
22.4536030665
 30
0.0
 11
194.4038221315
 21
21.1543299136
 31
0.0
  0
LINE
  5
259
330
1F
100
AcDbEntity
  8
0
  6
Continuous
 62
     7
370
    15
100
AcDbLine
 10
210.140043446
 20
48.4132183074
 30
0.0
 11
207.8893924696
 21
49.7124914603
 31
0.0
  0
LINE
  5
25A
330
1F
100
AcDbEntity
  8
0
  6
Continuous
 62
     7
370
    15
100
AcDbLine
 10
204.0004664192
 20
25.9918951099
 30
0.0
 11
211.3831514073
 21
21.7299617841
 31
0.0
  0
LINE
  5
25B
330
1F
100
AcDbEntity
  8
0
  6
Continuous
 62
     7
370
    15
100
AcDbLine
 10
218.1326030456
 20
33.4216218417
 30
0.0
 11
210.7499180575
 21
37.6835551675
 31
0.0
  0
LINE
  5
25C
330
1F
100
AcDbEntity
  8
0
  6
Continuous
 62
     7
370
    15
100
AcDbLine
 10
201.1120032794
 20
49.4923733679
 30
0.0
 11
191.9147910958
 21
54.0730259778
 31
0.0
  0
LINE
  5
25D
330
1F
100
AcDbEntity
  8
0
  6
Continuous
 62
     7
370
    15
100
AcDbLine
 10
180.3884433061
 20
34.1066425221
 30
0.0
 11
188.9545433118
 21
28.4327529258
 31
0.0
  0
LINE
  5
25E
330
1F
100
AcDbEntity
  8
0
  6
Continuous
 62
     7
370
    15
100
AcDbLine
 10
185.3678807478
 20
35.0531323878
 30
0.0
 11
185.3678807478
 21
34.6878136828
 31
0.0
  0
LINE
  5
25F
330
1F
100
AcDbEntity
  8
0
  6
Continuous
 62
     7
370
    15
100
AcDbLine
 10
189.2658475081
 20
54.4499943545
 30
0.0
 11
188.6262973994
 21
54.362782599
 31
0.0
  0
LWPOLYLINE
  5
260
330
1F
100
AcDbEntity
  8
0
  6
Continuous
 62
     7
370
    15
100
AcDbPolyline
 90
       20
 70
   128
 43
0.0
 10
209.9849063297
 20
24.820414364
 10
210.0257400404
 20
25.5634019313
 10
210.1475414692
 20
26.3408217446
 10
210.3482273103
 20
27.1393725052
 10
210.6243632544
 20
27.9453903006
 10
210.9712249029
 20
28.7450841042
 10
211.3828771236
 20
29.5247712741
 10
211.8522767829
 20
30.27111072
 10
212.3713917781
 20
30.9713324571
 10
212.9313403194
 20
31.6134554655
 10
213.5225414898
 20
32.1864932387
 10
214.1348795105
 20
32.6806402479
 10
214.7578772265
 20
33.0874424361
 10
215.3808749425
 20
33.3999381001
 10
215.9932129632
 20
33.6127815208
 10
216.5844141335
 20
33.7223300897
 10
217.1443626749
 20
33.726709906
 10
217.6634776701
 20
33.6258455847
 10
218.1328773294
 20
33.4214634495
 10
218.3152233646
 20
33.3041169914
  0
ARC
  5
261
330
1F
100
AcDbEntity
  8
0
  6
Continuous
 62
     7
370
    15
100
AcDbCircle
 10
213.2970500969
 20
24.480903708
 30
0.0
 40
3.32949903445751
100
AcDbArc
 50
174.147348482
 51
238.8795018673
  0
LINE
  5
262
330
1F
100
AcDbEntity
  8
0
  6
Continuous
 62
     7
370
    15
100
AcDbLine
 10
229.0742071054
 20
21.9142509482
 30
0.0
 11
229.1232396952
 21
21.8967768036
 31
0.0
  0
ARC
  5
263
330
1F
100
AcDbEntity
  8
0
  6
Continuous
 62
     7
370
    15
100
AcDbCircle
 10
225.7302806966
 20
21.243122904
 30
0.0
 40
2.666645625968704
100
AcDbArc
 50
287.4050606264
 51
12.2591384467
  0
LWPOLYLINE
  5
264
330
1F
100
AcDbEntity
  8
0
  6
Continuous
 62
     7
370
    15
100
AcDbPolyline
 90
       42
 70
   128
 43
0.0
 10
195.1864388943
 20
26.025919976
 10
195.2276334875
 20
27.15437555
 10
195.3509110437
 20
28.3220378317
 10
195.555359479
 20
29.5202625346
 10
195.8394654579
 20
30.740178431
 10
196.2011249308
 20
31.9727533202
 10
196.6376602557
 20
33.2088615186
 10
197.1458399547
 20
34.4393519189
 10
197.7219017631
 20
35.6551145288
 10
198.361580288
 20
36.8471470084
 10
199.0601392773
 20
38.0066253909
 10
199.8124071812
 20
39.1249641553
 10
200.6128153471
 20
40.1938846646
 10
201.4554365452
 20
41.2054716265
 10
202.3340327127
 20
42.1522371583
 10
203.2420990762
 20
43.0271705925
 10
204.1729127195
 20
43.8237938914
 10
205.1195823035
 20
44.5362108824
 10
206.0750987539
 20
45.1591456443
 10
207.0323878826
 20
45.6879865741
 10
207.9843623719
 20
46.1188186778
 10
208.9239738405
 20
46.4484513461
 10
209.8442659182
 20
46.674444431
 10
210.7384251388
 20
46.7951254585
 10
211.5998316483
 20
46.8096006502
 10
212.4221074431
 20
46.7177622387
 10
213.1991649378
 20
46.5202906491
 10
213.9252510876
 20
46.2186472703
 10
214.5949895351
 20
45.8150660864
 10
215.2034227573
 20
45.3125354213
 10
215.7460463098
 20
44.7147751215
 10
216.2188417538
 20
44.0262106978
 10
216.6183089255
 20
43.2519398613
 10
216.9414909598
 20
42.3976963995
 10
217.1859940477
 20
41.4698030254
 10
217.3500091672
 20
40.4751308811
 10
217.4323213038
 20
39.4210435953
 10
217.4323213038
 20
38.3153454756
 10
217.3500091672
 20
37.1662226198
 10
217.1859940477
 20
35.9821826493
 10
216.9414909598
 20
34.7719920189
 10
216.7980421853
 20
34.1920475807
  0
LWPOLYLINE
  5
265
330
1F
100
AcDbEntity
  8
0
  6
Continuous
 62
     7
370
    15
100
AcDbPolyline
 90
       24
 70
   128
 43
0.0
 10
210.048590547
 20
22.5003879034
 10
209.8442659182
 20
22.3009623745
 10
208.9239738405
 20
21.4644088434
 10
207.9843623719
 20
20.7091892018
 10
207.0323878826
 20
20.0408949557
 10
206.0750987539
 20
19.4644733837
 10
205.1195823035
 20
18.9841923346
 10
204.1729127195
 20
18.603607889
 10
203.2420990762
 20
18.325536631
 10
202.3340327127
 20
18.1520389583
 10
201.4554365452
 20
18.0843989473
 10
200.6128153471
 20
18.123116182
 10
199.8124071812
 20
18.2679050936
 10
199.0601392773
 20
18.5176938239
 10
198.361580288
 20
18.8706331649
 10
197.7219017631
 20
19.3241085403
 10
197.1458399547
 20
19.8747643434
 10
196.6376602557
 20
20.5185229522
 10
196.2011249308
 20
21.2506181926
 10
195.8394654579
 20
22.0656299425
 10
195.555359479
 20
22.9575240578
 10
195.3509110437
 20
23.919697622
 10
195.2276334875
 20
24.9450266668
 10
195.1864388943
 20
26.025919976
  0
SPLINE
  5
266
330
1F
100
AcDbEntity
  8
0
  6
Continuous
 62
     7
370
    15
100
AcDbSpline
210
0.0
220
0.0
230
1.0
 70
     8
 71
     3
 72
    25
 73
    21
 74
     0
 42
0.000000001
 43
0.00000001
 40
0.0
 40
0.0
 40
0.0
 40
0.0
 40
0.1249999999999998
 40
0.1249999999999998
 40
0.2499999999999997
 40
0.2499999999999997
 40
0.3749999999999995
 40
0.3749999999999995
 40
0.4999999999999993
 40
0.4999999999999993
 40
0.5624999999999996
 40
0.5624999999999996
 40
0.6249999999999998
 40
0.6875000000000001
 40
0.6875000000000001
 40
0.7500000000000003
 40
0.7500000000000003
 40
0.8750000000000001
 40
0.8750000000000001
 40
1.0
 40
1.0
 40
1.0
 40
1.0
 10
200.0200280428458
 20
42.45773443043122
 30
0.0
 10
200.0491513411068
 20
42.34654890990203
 30
0.0
 10
200.0615403819661
 20
42.231306697474
 30
0.0
 10
200.0545628968658
 20
41.99221112963821
 30
0.0
 10
200.0345453090137
 20
41.86743715976293
 30
0.0
 10
199.9643231513005
 20
41.62106825055051
 30
0.0
 10
199.9136724967069
 20
41.49685710318939
 30
0.0
 10
199.7837577530516
 20
41.25322860787923
 30
0.0
 10
199.7060568050624
 20
41.13617151282106
 30
0.0
 10
199.5706832228362
 20
40.96751499497103
 30
0.0
 10
199.5220487255292
 20
40.91214797369886
 30
0.0
 10
199.4206093901471
 20
40.80642816230185
 30
0.0
 10
199.3147394074064
 20
40.70526720368141
 30
0.0
 10
199.2001476150789
 20
40.61309288200462
 30
0.0
 10
199.0810649458607
 20
40.52555603926449
 30
0.0
 10
199.0191069328033
 20
40.4840575697523
 30
0.0
 10
198.8312432292827
 20
40.3699372480142
 30
0.0
 10
198.7018657929287
 20
40.30632981689961
 30
0.0
 10
198.4341825398667
 20
40.20506151592537
 30
0.0
 10
198.2983108534016
 20
40.16852060770058
 30
0.0
 10
198.162793586674
 20
40.14735242335051
 30
0.0
  0
LWPOLYLINE
  5
267
330
1F
100
AcDbEntity
  8
0
  6
Continuous
 62
     7
370
    15
100
AcDbPolyline
 90
       15
 70
   128
 43
0.0
 10
200.0200281546
 20
42.457734463
 10
200.9249769684
 20
43.4014642256
 10
201.8584071736
 20
44.26847696
 10
202.8131419522
 20
45.0521071218
 10
203.7818415787
 20
45.74633049
 10
204.7570585527
 20
46.3458074007
 10
205.7312954066
 20
46.8459328498
 10
206.6970621228
 20
47.2428597521
 10
207.6469337149
 20
47.5335359856
 10
208.5736075827
 20
47.7157276152
 10
209.4699594273
 20
47.7880344419
 10
210.3290982388
 20
47.7498996928
 10
211.1444184865
 20
47.6016165759
 10
211.9096524731
 20
47.3443258033
 10
212.497677401
 20
47.0521851956
  0
LWPOLYLINE
  5
268
330
1F
100
AcDbEntity
  8
0
  6
Continuous
 62
     7
370
    15
100
AcDbPolyline
 90
       21
 70
   128
 43
0.0
 10
196.7614560865
 20
19.7932968018
 10
196.1352961632
 20
20.2175029735
 10
195.5427496687
 20
20.7591556823
 10
195.01894205
 20
21.3966042957
 10
194.5678364278
 20
22.1250282478
 10
194.1928447214
 20
22.9389157636
 10
193.8968039403
 20
23.8321106298
 10
193.6819531361
 20
24.7978553533
 10
193.5499175964
 20
25.8288448699
 10
193.5016976504
 20
26.9172807646
 10
193.5376554977
 20
28.054927844
 10
193.6575217934
 20
29.2331816025
 10
193.8603877461
 20
30.4431278487
 10
194.1447196058
 20
31.6756137953
 10
194.508366566
 20
32.9213167491
 10
194.9485772278
 20
34.1708125518
 10
195.4620219902
 20
35.4146493423
 10
196.0448167576
 20
36.6434182777
 10
196.6925525746
 20
37.8478231128
 10
197.4003292114
 20
39.0187535817
 10
198.1627933599
 20
40.1473519349
  0
LWPOLYLINE
  5
269
330
1F
100
AcDbEntity
  8
0
  6
Continuous
 62
     7
370
    15
100
AcDbPolyline
 90
       12
 70
   128
 43
0.0
 10
198.3574067621
 20
42.5820109435
 10
199.2285659865
 20
43.5119576351
 10
200.1301601746
 20
44.3647234229
 10
201.0544800751
 20
45.133016001
 10
201.9936218369
 20
45.8102657116
 10
202.9395549932
 20
46.390681522
 10
203.8841907551
 20
46.8693010954
 10
204.8194516318
 20
47.2420302219
 10
205.7373403513
 20
47.5056833657
 10
206.6300079686
 20
47.6580047324
 10
207.4898211296
 20
47.6976926505
 10
208.1579573384
 20
47.6468975766
  0
SPLINE
  5
26A
330
1F
100
AcDbEntity
  8
0
  6
Continuous
 62
     7
370
    15
100
AcDbSpline
210
0.0
220
0.0
230
1.0
 70
     8
 71
     3
 72
    26
 73
    22
 74
     0
 42
0.000000001
 43
0.00000001
 40
0.0
 40
0.0
 40
0.0
 40
0.0
 40
0.1250000000000011
 40
0.1250000000000011
 40
0.2500000000000023
 40
0.2500000000000023
 40
0.3125000000000019
 40
0.3125000000000019
 40
0.3750000000000016
 40
0.3750000000000016
 40
0.4375000000000013
 40
0.4375000000000013
 40
0.500000000000001
 40
0.500000000000001
 40
0.5625000000000007
 40
0.5625000000000007
 40
0.6250000000000003
 40
0.6250000000000003
 40
0.7500000000000002
 40
0.7500000000000002
 40
1.0
 40
1.0
 40
1.0
 40
1.0
 10
197.0132135572182
 20
40.90984765730605
 30
0.0
 10
196.9895759609862
 20
41.01942351687903
 30
0.0
 10
196.9720081821044
 20
41.13031277524356
 30
0.0
 10
196.953195599235
 20
41.3556427351065
 30
0.0
 10
196.9520158244676
 20
41.47131964842487
 30
0.0
 10
196.968113827703
 20
41.64267515828443
 30
0.0
 10
196.9764325448032
 20
41.6994736703786
 30
0.0
 10
197.0001896940602
 20
41.81229988277568
 30
0.0
 10
197.0158120731092
 20
41.86875273644183
 30
0.0
 10
197.0546692855062
 20
41.97733585285043
 30
0.0
 10
197.0778952422087
 20
42.02971581307597
 30
0.0
 10
197.132893891687
 20
42.1301725883481
 30
0.0
 10
197.1649721587097
 20
42.17845145611954
 30
0.0
 10
197.2353869072447
 20
42.26614843170327
 30
0.0
 10
197.2739653293714
 20
42.30613755967923
 30
0.0
 10
197.3576735929676
 20
42.37861624379482
 30
0.0
 10
197.4028023029095
 20
42.41095286817145
 30
0.0
 10
197.5420829450996
 20
42.49415263552508
 30
0.0
 10
197.6428720166612
 20
42.53298135816118
 30
0.0
 10
197.9459442878939
 20
42.60839764561635
 30
0.0
 10
198.154468378379
 20
42.60826749924559
 30
0.0
 10
198.3574067980694
 20
42.58201126991937
 30
0.0
  0
LWPOLYLINE
  5
26B
330
1F
100
AcDbEntity
  8
0
  6
Continuous
 62
     7
370
    15
100
AcDbPolyline
 90
       18
 70
   128
 43
0.0
 10
194.0762349283
 20
23.2539963672
 10
193.7497088049
 20
23.7233634097
 10
193.3498353113
 20
24.4664039745
 10
193.0284570303
 20
25.2927763021
 10
192.7882463356
 20
26.1956068881
 10
192.6312012511
 20
27.1673875898
 10
192.5586283292
 20
28.2000362989
 10
192.5711301382
 20
29.2849639821
 10
192.6686032864
 20
30.4131477807
 10
192.8502377643
 20
31.575204918
 10
193.1145215535
 20
32.7614701001
 10
193.4592570911
 20
33.9620774779
 10
193.8815783913
 20
35.1670422523
 10
194.3779714607
 20
36.3663426126
 10
194.9443085423
 20
37.5500028138
 10
195.5758797258
 20
38.7081806265
 10
196.2674318016
 20
39.8312426196
 10
197.0132137006
 20
40.9098474263
  0
LINE
  5
26C
330
1F
100
AcDbEntity
  8
0
  6
Continuous
 62
     7
370
    15
100
AcDbLine
 10
195.5378212863
 20
20.6659264822
 30
0.0
 11
195.6560245925
 21
20.7217889337
 31
0.0
  0
LWPOLYLINE
  5
26D
330
1F
100
AcDbEntity
  8
0
  6
Continuous
 62
     7
370
    15
100
AcDbPolyline
 90
       41
 70
   128
 43
0.0
 10
195.5378212863
 20
20.6659264822
 10
194.8014723788
 20
20.9468816705
 10
194.1203839167
 20
21.3301911195
 10
193.4995950825
 20
21.8130216319
 10
192.9436972484
 20
22.3918001223
 10
192.4568036835
 20
23.0622455591
 10
192.0425153092
 20
23.8193990061
 10
191.7038969915
 20
24.6576586062
 10
191.4434531753
 20
25.5708242604
 10
191.2631114204
 20
26.5521409763
 10
191.1642046207
 20
27.5943492026
 10
191.1474657364
 20
28.6897401768
 10
191.2130159396
 20
29.8302094684
 10
191.3603738344
 20
31.0073227096
 10
191.5884468953
 20
32.2123709206
 10
191.8955492484
 20
33.4364405889
 10
192.2794089152
 20
34.670477286
 10
192.7371855932
 20
35.9053515414
 10
193.2654937051
 20
37.1319293726
 10
193.8604254478
 20
38.341137303
 10
194.5175791098
 20
39.5240304209
 10
195.2320939741
 20
40.6718581554
 10
195.9986852209
 20
41.7761308146
 10
196.8116808065
 20
42.8286781371
 10
197.665067561
 20
43.8217154484
 10
198.552533006
 20
44.7478959384
 10
199.4675114526
 20
45.600369213
 10
200.4032353684
 20
46.3728291984
 10
201.352782545
 20
47.059561903
 10
202.3091288514
 20
47.6554865181
 10
203.2652000767
 20
48.1561944707
 10
204.2139237433
 20
48.5579838986
 10
205.1482820024
 20
48.85788182
 10
206.0613631824
 20
49.0536685697
 10
206.9464124275
 20
49.1438971451
 10
207.7968834762
 20
49.1278995237
 10
208.6064849234
 20
49.0057943575
 10
209.3692276362
 20
48.7784846879
 10
210.0794698636
 20
48.4476520475
 10
210.7319570792
 20
48.0157437187
 10
211.2300814622
 20
47.578915991
  0
LWPOLYLINE
  5
26E
330
1F
100
AcDbEntity
  8
0
  6
Continuous
 62
     7
370
    15
100
AcDbPolyline
 90
       27
 70
   128
 43
0.0
 10
188.8931886956
 20
29.7405766573
 10
188.934121188
 20
30.8618614711
 10
189.0566157349
 20
32.0221045601
 10
189.2597655203
 20
33.2127154404
 10
189.5420657702
 20
34.4248793475
 10
189.9014269228
 20
35.6496220648
 10
190.3351891167
 20
36.8778764626
 10
190.8401393135
 20
38.1005477063
 10
191.4125402729
 20
39.3085847369
 10
192.0481542612
 20
40.4930426271
 10
192.7422746605
 20
41.6451533012
 10
193.4897628483
 20
42.7563859883
 10
194.2850844164
 20
43.8185145203
 10
195.1223516477
 20
44.8236737918
 10
195.9953650042
 20
45.7644232551
 10
196.8976612007
 20
46.6337967261
 10
197.8225604557
 20
47.4253585588
 10
198.7632145649
 20
48.1332488885
 10
199.7126594202
 20
48.7522245968
 10
200.6638657173
 20
49.2777060753
 10
201.6097909814
 20
49.7057996543
 10
202.5434320855
 20
50.033338568
 10
203.4578764526
 20
50.2578957823
 10
204.3463540804
 20
50.3778094655
 10
205.202286768
 20
50.3921923944
 10
206.0193373414
 20
50.3009375581
 10
206.7136869143
 20
50.1298975333
  0
LWPOLYLINE
  5
26F
330
1F
100
AcDbEntity
  8
0
  6
Continuous
 62
     7
370
    15
100
AcDbPolyline
 90
        3
 70
   128
 43
0.0
 10
188.9673842711
 20
28.3067083587
 10
188.934121188
 20
28.6665514933
 10
188.903137986
 20
29.2047839891
  0
SPLINE
  5
270
330
1F
100
AcDbEntity
  8
0
  6
Continuous
 62
     7
370
    15
100
AcDbSpline
210
0.0
220
0.0
230
1.0
 70
     8
 71
     3
 72
    10
 73
     6
 74
     0
 42
0.000000001
 43
0.00000001
 40
0.0
 40
0.0
 40
0.0
 40
0.0
 40
0.5
 40
0.5
 40
1.0
 40
1.0
 40
1.0
 40
1.0
 10
197.7399016248495
 20
39.44679437648631
 30
0.0
 10
197.6359371340652
 20
39.52013274955669
 30
0.0
 10
197.5461288576379
 20
39.6073685073501
 30
0.0
 10
197.3940864296392
 20
39.80829904854609
 30
0.0
 10
197.3321808412783
 20
39.92246981474307
 30
0.0
 10
197.2877311366878
 20
40.04548749790317
 30
0.0
  0
SPLINE
  5
271
330
1F
100
AcDbEntity
  8
0
  6
Continuous
 62
     7
370
    15
100
AcDbSpline
210
0.0
220
0.0
230
1.0
 70
     8
 71
     3
 72
    14
 73
    10
 74
     0
 42
0.000000001
 43
0.00000001
 40
0.0
 40
0.0
 40
0.0
 40
0.0
 40
0.25
 40
0.25
 40
0.5
 40
0.5
 40
0.75
 40
0.75
 40
1.0
 40
1.0
 40
1.0
 40
1.0
 10
197.2877311366878
 20
40.04548749790316
 30
0.0
 10
197.2650103338227
 20
40.1083689175607
 30
0.0
 10
197.2430958234733
 20
40.17741534703412
 30
0.0
 10
197.2009847694104
 20
40.32506786365289
 30
0.0
 10
197.1814632154973
 20
40.40146765051119
 30
0.0
 10
197.1431169733236
 20
40.5557999419068
 30
0.0
 10
197.1247573804398
 20
40.63275253823845
 30
0.0
 10
197.0827539358581
 20
40.77814270575443
 30
0.0
 10
197.0589776148451
 20
40.84473361194746
 30
0.0
 10
197.0305161107429
 20
40.8852292271788
 30
0.0
  0
LINE
  5
272
330
1F
100
AcDbEntity
  8
0
  6
Continuous
 62
     7
370
    15
100
AcDbLine
 10
197.030516299
 20
40.8852296189
 30
0.0
 11
197.0132137006
 21
40.9098474263
 31
0.0
  0
LINE
  5
273
330
1F
100
AcDbEntity
  8
0
  6
Continuous
 62
     7
370
    15
100
AcDbLine
 10
198.3574067621
 20
42.5820109435
 30
0.0
 11
198.3747093606
 21
42.5573931362
 31
0.0
  0
SPLINE
  5
274
330
1F
100
AcDbEntity
  8
0
  6
Continuous
 62
     7
370
    15
100
AcDbSpline
210
0.0
220
0.0
230
1.0
 70
     8
 71
     3
 72
    16
 73
    12
 74
     0
 42
0.000000001
 43
0.00000001
 40
0.0
 40
0.0
 40
0.0
 40
0.0
 40
0.1250000000000001
 40
0.1250000000000001
 40
0.2500000000000003
 40
0.2500000000000003
 40
0.5000000000000002
 40
0.5000000000000002
 40
0.7500000000000001
 40
0.7500000000000001
 40
1.0
 40
1.0
 40
1.0
 40
1.0
 10
198.3747093515941
 20
42.55739283979208
 30
0.0
 10
198.3888617579982
 20
42.5372565039793
 30
0.0
 10
198.4105201624719
 20
42.52045908330187
 30
0.0
 10
198.4629380915072
 20
42.49361356197038
 30
0.0
 10
198.4935309706456
 20
42.48338807740939
 30
0.0
 10
198.5926118195031
 20
42.4588876369767
 30
0.0
 10
198.666494357119
 20
42.45062771457521
 30
0.0
 10
198.8195939495103
 20
42.4394417478703
 30
0.0
 10
198.8976779241579
 20
42.43684507611911
 30
0.0
 10
199.0570215579
 20
42.4348160752854
 30
0.0
 10
199.1356744527316
 20
42.43545366394763
 30
0.0
 10
199.2114269205242
 20
42.43854676476266
 30
0.0
  0
SPLINE
  5
275
330
1F
100
AcDbEntity
  8
0
  6
Continuous
 62
     7
370
    15
100
AcDbSpline
210
0.0
220
0.0
230
1.0
 70
     8
 71
     3
 72
    10
 73
     6
 74
     0
 42
0.000000001
 43
0.00000001
 40
0.0
 40
0.0
 40
0.0
 40
0.0
 40
0.5
 40
0.5
 40
1.0
 40
1.0
 40
1.0
 40
1.0
 10
199.2114269205242
 20
42.43854676476266
 30
0.0
 10
199.359621260425
 20
42.44459778919643
 30
0.0
 10
199.5018457261556
 20
42.4344355589833
 30
0.0
 10
199.7742371164963
 20
42.38338512304322
 30
0.0
 10
199.9043644463649
 20
42.34202402039866
 30
0.0
 10
200.0224397885502
 20
42.28625015244639
 30
0.0
  0
LINE
  5
276
330
1F
100
AcDbEntity
  8
0
  6
Continuous
 62
     7
370
    15
100
AcDbLine
 10
200.17764288
 20
42.31466876
 30
0.0
 11
200.1602497317
 21
42.3394160446
 31
0.0
  0
ARC
  5
277
330
1F
100
AcDbEntity
  8
0
  6
Continuous
 62
     7
370
    15
100
AcDbCircle
 10
182.7050607772
 20
37.5623209871
 30
0.0
 40
4.160340149629609
100
AcDbArc
 50
211.7954354499
 51
236.1628935314
  0
SPLINE
  5
278
330
1F
100
AcDbEntity
  8
0
  6
Continuous
 62
     7
370
    15
100
AcDbSpline
210
0.0
220
0.0
230
1.0
 70
     8
 71
     3
 72
     8
 73
     4
 74
     0
 42
0.000000001
 43
0.00000001
 40
0.0
 40
0.0
 40
0.0
 40
0.0
 40
1.0
 40
1.0
 40
1.0
 40
1.0
 10
180.5994861194134
 20
34.44554573320772
 30
0.0
 10
180.1227128275893
 20
34.75363854114036
 30
0.0
 10
179.6459104507444
 20
35.06186798671312
 30
0.0
 10
179.1690780062187
 20
35.37023314293302
 30
0.0
  0
SPLINE
  5
279
330
1F
100
AcDbEntity
  8
0
  6
Continuous
 62
     7
370
    15
100
AcDbSpline
210
0.0
220
0.0
230
1.0
 70
     8
 71
     3
 72
    23
 73
    19
 74
     0
 42
0.000000001
 43
0.00000001
 40
0.0
 40
0.0
 40
0.0
 40
0.0
 40
0.0521036415683759
 40
0.1035646240941235
 40
0.1544751946756683
 40
0.2049306267495642
 40
0.2550287880866983
 40
0.3048696389163111
 40
0.354554670462894
 40
0.4041862979539558
 40
0.453867225213789
 40
0.5036997999428097
 40
0.590187023078111
 40
0.6742716378282376
 40
0.7565997087281883
 40
0.8378563983773627
 40
0.9187511781400207
 40
0.9999999999999999
 40
0.9999999999999999
 40
0.9999999999999999
 40
0.9999999999999999
 10
181.4800509229551
 20
34.27081503508762
 30
0.0
 10
181.4747819840152
 20
34.26089357285223
 30
0.0
 10
181.4643090945156
 20
34.24117302212021
 30
0.0
 10
181.4450627987536
 20
34.21660519316675
 30
0.0
 10
181.4232670584214
 20
34.19591661090664
 30
0.0
 10
181.3986157672168
 20
34.17938567560918
 30
0.0
 10
181.371119252678
 20
34.16686817603285
 30
0.0
 10
181.3407081986706
 20
34.15833355221066
 30
0.0
 10
181.3073378268977
 20
34.15372367956314
 30
0.0
 10
181.2709619386253
 20
34.15298893642753
 30
0.0
 10
181.2315335670355
 20
34.15608401898
 30
0.0
 10
181.1786851754831
 20
34.16461979446136
 30
0.0
 10
181.1101461817098
 20
34.18221623331095
 30
0.0
 10
181.0224249497527
 20
34.21385284139856
 30
0.0
 10
180.9276940302578
 20
34.2560324987318
 30
0.0
 10
180.8256597829289
 20
34.30876893445809
 30
0.0
 10
180.7167458697429
 20
34.37108549036693
 30
0.0
 10
180.6386295587594
 20
34.42068954861635
 30
0.0
 10
180.5994861194134
 20
34.44554573320771
 30
0.0
  0
SPLINE
  5
27A
330
1F
100
AcDbEntity
  8
0
  6
Continuous
 62
     7
370
    15
100
AcDbSpline
210
0.0
220
0.0
230
1.0
 70
     8
 71
     3
 72
     8
 73
     4
 74
     0
 42
0.000000001
 43
0.00000001
 40
0.0
 40
0.0
 40
0.0
 40
0.0
 40
1.0
 40
1.0
 40
1.0
 40
1.0
 10
182.9535539494129
 20
33.32349489852884
 30
0.0
 10
182.4621866373702
 20
33.63936951849718
 30
0.0
 10
181.9708004374426
 20
33.95535553978752
 30
0.0
 10
181.4793947272973
 20
34.27145242063106
 30
0.0
  0
SPLINE
  5
27B
330
1F
100
AcDbEntity
  8
0
  6
Continuous
 62
     7
370
    15
100
AcDbSpline
210
0.0
220
0.0
230
1.0
 70
     8
 71
     3
 72
    18
 73
    14
 74
     0
 42
0.000000001
 43
0.00000001
 40
0.0
 40
0.0
 40
0.0
 40
0.0
 40
0.0923824559461122
 40
0.1844689291660427
 40
0.2764953616062392
 40
0.3686975365619641
 40
0.4613092840130473
 40
0.5545607518559533
 40
0.6486768051632873
 40
0.7438756050210469
 40
0.8403674044324065
 40
0.9203921078135461
 40
1.0
 40
1.0
 40
1.0
 40
1.0
 10
183.7671180686085
 20
32.67918717398707
 30
0.0
 10
183.7435505544842
 20
32.69446114825339
 30
0.0
 10
183.6964910338307
 20
32.72496016073536
 30
0.0
 10
183.6240932458651
 20
32.77459273334801
 30
0.0
 10
183.5506110369678
 20
32.82692227601769
 30
0.0
 10
183.4759115892219
 20
32.88223996172612
 30
0.0
 10
183.4000507994538
 20
32.94047827683969
 30
0.0
 10
183.3230395186679
 20
33.00167118847669
 30
0.0
 10
183.2449073865887
 20
33.06583490505707
 30
0.0
 10
183.1656811519476
 20
33.13298386492243
 30
0.0
 10
183.0903846675401
 20
33.1988347746674
 30
0.0
 10
183.01955735942
 20
33.26236636147478
 30
0.0
 10
182.9756529886136
 20
33.30302710648785
 30
0.0
 10
182.9537581218088
 20
33.3233043950561
 30
0.0
  0
LINE
  5
27C
330
1F
100
AcDbEntity
  8
0
  6
Continuous
 62
     7
370
    15
100
AcDbLine
 10
184.4068246005
 20
32.2674333675
 30
0.0
 11
183.7671177581
 21
32.6791870351
 31
0.0
  0
SPLINE
  5
27D
330
1F
100
AcDbEntity
  8
0
  6
Continuous
 62
     7
370
    15
100
AcDbSpline
210
0.0
220
0.0
230
1.0
 70
     8
 71
     3
 72
    25
 73
    21
 74
     0
 42
0.000000001
 43
0.00000001
 40
0.0
 40
0.0
 40
0.0
 40
0.0
 40
0.0280105225426455
 40
0.0559601148860774
 40
0.0839014045043129
 40
0.1118870776786379
 40
0.1399695827588941
 40
0.1682008401739877
 40
0.1966319670424218
 40
0.2253130233141493
 40
0.2542927850735863
 40
0.3799486436570518
 40
0.505785022166658
 40
0.6313085886329272
 40
0.7532068238012843
 40
0.8039473267959846
 40
0.8535894438560211
 40
0.902533972239985
 40
0.9511970353794947
 40
1.0
 40
1.0
 40
1.0
 40
1.0
 10
185.5091901935987
 20
32.98333935786415
 30
0.0
 10
185.5141383011293
 20
32.95571549675666
 30
0.0
 10
185.5240237527649
 20
32.90052786365134
 30
0.0
 10
185.5355594023681
 20
32.82136715628143
 30
0.0
 10
185.5446325241808
 20
32.74506381718304
 30
0.0
 10
185.5510013328937
 20
32.67186805621343
 30
0.0
 10
185.5547175717039
 20
32.60172058800004
 30
0.0
 10
185.5557541926867
 20
32.53464430148726
 30
0.0
 10
185.5541057174598
 20
32.47064039226083
 30
0.0
 10
185.5497595655909
 20
32.409711538994
 30
0.0
 10
185.5349032410235
 20
32.28782341749787
 30
0.0
 10
185.4898149839573
 20
32.13292254584383
 30
0.0
 10
185.3764554634665
 20
32.00197942750033
 30
0.0
 10
185.2146312414735
 20
31.94610302668753
 30
0.0
 10
185.0406160223401
 20
31.96597707907208
 30
0.0
 10
184.8892551016525
 20
32.01329488142854
 30
0.0
 10
184.7788548689536
 20
32.05821030516421
 30
0.0
 10
184.6616953735049
 20
32.11558603645535
 30
0.0
 10
184.5381297065716
 20
32.18426310090779
 30
0.0
 10
184.4506346564771
 20
32.23968334686063
 30
0.0
 10
184.4068243367958
 20
32.26743324459069
 30
0.0
  0
ARC
  5
27E
330
1F
100
AcDbEntity
  8
0
  6
Continuous
 62
     7
370
    15
100
AcDbCircle
 10
196.702211358
 20
34.7693897264
 30
0.0
 40
11.33462419218396
100
AcDbArc
 50
170.9338462887
 51
189.0661537113
  0
SPLINE
  5
27F
330
1F
100
AcDbEntity
  8
0
  6
Continuous
 62
     7
370
    15
100
AcDbSpline
210
0.0
220
0.0
230
1.0
 70
     8
 71
     3
 72
    26
 73
    22
 74
     0
 42
0.000000001
 43
0.00000001
 40
0.0
 40
0.0
 40
0.0
 40
0.0
 40
0.0241259796963637
 40
0.048215991227299
 40
0.0723203915124064
 40
0.0964895678710793
 40
0.120773623196351
 40
0.1452220711242841
 40
0.1698835501657706
 40
0.1948055644472381
 40
0.2200342569517629
 40
0.2456142191611394
 40
0.3690971486901671
 40
0.4940698769485191
 40
0.6192566784762444
 40
0.7454656653603234
 40
0.7971495824713715
 40
0.8481710308405401
 40
0.8988013269235245
 40
0.9493179290492194
 40
1.0
 40
1.0
 40
1.0
 40
1.0
 10
184.4068243367958
 20
40.03154363595527
 30
0.0
 10
184.4285425661718
 20
40.01721211256018
 30
0.0
 10
184.4719466463479
 20
39.98857043189113
 30
0.0
 10
184.5352537637093
 20
39.94057813396232
 30
0.0
 10
184.5971153314273
 20
39.88897893607664
 30
0.0
 10
184.6574198465638
 20
39.83340414320341
 30
0.0
 10
184.7162096985036
 20
39.77394890257626
 30
0.0
 10
184.7734902169334
 20
39.71058459373885
 30
0.0
 10
184.8292813562596
 20
39.64331581577493
 30
0.0
 10
184.8836026036815
 20
39.57214170181481
 30
0.0
 10
184.9364815788904
 20
39.49705256206652
 30
0.0
 10
185.0532764036267
 20
39.31779811336467
 30
0.0
 10
185.2151459615532
 20
39.00749264152129
 30
0.0
 10
185.3783308690851
 20
38.5375788533896
 30
0.0
 10
185.4898422742585
 20
38.03861581947956
 30
0.0
 10
185.536976112367
 20
37.62973214642256
 30
0.0
 10
185.5520950518995
 20
37.32546018983185
 30
0.0
 10
185.5540481908821
 20
37.12421094813653
 30
0.0
 10
185.5475701652429
 20
36.92855102841394
 30
0.0
 10
185.5334432425558
 20
36.73791474051647
 30
0.0
 10
185.5172833508708
 20
36.61633146677766
 30
0.0
 10
185.5091901935987
 20
36.55544043017878
 30
0.0
  0
LINE
  5
280
330
1F
100
AcDbEntity
  8
0
  6
Continuous
 62
     7
370
    15
100
AcDbLine
 10
183.7671177581
 20
40.4445184862
 30
0.0
 11
184.4068246005
 21
40.0315435152
 31
0.0
  0
SPLINE
  5
281
330
1F
100
AcDbEntity
  8
0
  6
Continuous
 62
     7
370
    15
100
AcDbSpline
210
0.0
220
0.0
230
1.0
 70
     8
 71
     3
 72
    14
 73
    10
 74
     0
 42
0.000000001
 43
0.00000001
 40
0.0
 40
0.0
 40
0.0
 40
0.0
 40
0.0789261963152472
 40
0.1582328720511064
 40
0.3308475394503796
 40
0.5000195457530386
 40
0.6670357883499396
 40
0.8332395193610692
 40
1.0
 40
1.0
 40
1.0
 40
1.0
 10
182.9531653527585
 20
40.65310091923823
 30
0.0
 10
182.9748822340937
 20
40.65470408309697
 30
0.0
 10
183.0184206873082
 20
40.65791813918457
 30
0.0
 10
183.1099458059552
 20
40.65873917925407
 30
0.0
 10
183.2268541393864
 20
40.65080319747258
 30
0.0
 10
183.3676744777672
 20
40.62452752859573
 30
0.0
 10
183.5048867855797
 20
40.58156993006339
 30
0.0
 10
183.6388174599982
 20
40.52321280525253
 30
0.0
 10
183.7243035519591
 20
40.47077925910134
 30
0.0
 10
183.7671180686085
 20
40.44451864894614
 30
0.0
  0
SPLINE
  5
282
330
1F
100
AcDbEntity
  8
0
  6
Continuous
 62
     7
370
    15
100
AcDbSpline
210
0.0
220
0.0
230
1.0
 70
     8
 71
     3
 72
     8
 73
     4
 74
     0
 42
0.000000001
 43
0.00000001
 40
0.0
 40
0.0
 40
0.0
 40
0.0
 40
1.0
 40
1.0
 40
1.0
 40
1.0
 10
181.1508617697528
 20
41.81549233065255
 30
0.0
 10
181.7516199934497
 20
41.42822484749315
 30
0.0
 10
182.3523488563109
 20
41.04075749756934
 30
0.0
 10
182.9530495006586
 20
40.65309060497921
 30
0.0
  0
SPLINE
  5
283
330
1F
100
AcDbEntity
  8
0
  6
Continuous
 62
     7
370
    15
100
AcDbSpline
210
0.0
220
0.0
230
1.0
 70
     8
 71
     3
 72
    13
 73
     9
 74
     0
 42
0.000000001
 43
0.00000001
 40
0.0
 40
0.0
 40
0.0
 40
0.0
 40
0.1667030582307959
 40
0.3329480818053031
 40
0.4990671507274871
 40
0.6653938523718408
 40
0.8322612710550125
 40
1.0
 40
1.0
 40
1.0
 40
1.0
 10
180.8090332347184
 20
42.11655710973834
 30
0.0
 10
180.8293344171584
 20
42.10299200305911
 30
0.0
 10
180.869881002347
 20
42.07589906129628
 30
0.0
 10
180.9290306393347
 20
42.03070448828855
 30
0.0
 10
180.9868021842371
 20
41.98229333980559
 30
0.0
 10
181.0430519216968
 20
41.93025822503514
 30
0.0
 10
181.0979791304429
 20
41.87496025782612
 30
0.0
 10
181.1331998400335
 20
41.83534300266575
 30
0.0
 10
181.1508560519744
 20
41.81548279366483
 30
0.0
  0
SPLINE
  5
284
330
1F
100
AcDbEntity
  8
0
  6
Continuous
 62
     7
370
    15
100
AcDbSpline
210
0.0
220
0.0
230
1.0
 70
     8
 71
     3
 72
     8
 73
     4
 74
     0
 42
0.000000001
 43
0.00000001
 40
0.0
 40
0.0
 40
0.0
 40
0.0
 40
1.0
 40
1.0
 40
1.0
 40
1.0
 10
178.8650527189277
 20
43.37127896211781
 30
0.0
 10
179.5130827913279
 20
42.95328364623306
 30
0.0
 10
180.1610757684298
 20
42.53504288381544
 30
0.0
 10
180.8090332347184
 20
42.11655710973834
 30
0.0
  0
LWPOLYLINE
  5
285
330
1F
100
AcDbEntity
  8
0
  6
Continuous
 62
     7
370
    15
100
AcDbPolyline
 90
       20
 70
   128
 43
0.0
 10
178.8650533692
 20
43.3712790126
 10
179.2293766547
 20
44.4368377498
 10
179.6666870865
 20
45.4976325629
 10
180.1725059034
 20
46.5427995188
 10
180.741653653
 20
47.5616352083
 10
181.3683005699
 20
48.5437056768
 10
182.046030455
 20
49.478954785
 10
182.76790192
 20
50.357803443
 10
183.526523132
 20
51.1712528364
 10
184.3141250767
 20
51.9109715876
 10
185.1226419834
 20
52.5693847695
 10
185.9437938897
 20
53.1397497069
 10
186.7691716762
 20
53.616225598
 10
187.5903228416
 20
53.9939329179
 10
188.398838102
 20
54.2690034106
 10
189.1864375772
 20
54.4386199577
 10
189.9450554964
 20
54.5010464664
 10
190.6669236687
 20
54.4556425953
 10
191.3446486147
 20
54.3028740612
 10
191.9147910958
 20
54.0730259778
  0
SPLINE
  5
286
330
1F
100
AcDbEntity
  8
0
  6
Continuous
 62
     7
370
    15
100
AcDbSpline
210
0.0
220
0.0
230
1.0
 70
    11
 71
     3
 72
    39
 73
    35
 74
     0
 42
0.000000001
 43
0.00000001
 40
0.0
 40
0.0
 40
0.0
 40
0.0
 40
0.0310664058350965
 40
0.0621048158425859
 40
0.093136155179263
 40
0.1235538293503448
 40
0.1538561545806855
 40
0.1850588072748946
 40
0.2160250992945718
 40
0.2471867223797388
 40
0.2784462884305076
 40
0.3100516090231096
 40
0.3419834369141944
 40
0.3734259894013148
 40
0.4048604886786042
 40
0.4368740651833136
 40
0.4685120685925458
 40
0.4998055358633138
 40
0.5309508213230685
 40
0.5618649784438015
 40
0.5930416446594986
 40
0.6233742450133227
 40
0.6540913579075065
 40
0.6849496782718291
 40
0.71581606451649
 40
0.7471731804043279
 40
0.7784514311862922
 40
0.8101295911560753
 40
0.8419598919688862
 40
0.8735175891922173
 40
0.9050808037887091
 40
0.9370235169792366
 40
0.968744159003463
 40
1.0
 40
1.0
 40
1.0
 40
1.0
 10
192.0736382001331
 20
52.37646933745925
 30
0.0
 10
192.3365238203334
 20
52.34793485016824
 30
0.0
 10
192.8634124308161
 20
52.26199236184507
 30
0.0
 10
193.6274244998899
 20
52.06161724177567
 30
0.0
 10
194.3345746879386
 20
51.81461513555663
 30
0.0
 10
194.9474857525329
 20
51.53663325740457
 30
0.0
 10
195.4446170782073
 20
51.24249956007467
 30
0.0
 10
195.8038087992796
 20
50.94099303188263
 30
0.0
 10
196.0255280680404
 20
50.63399552697927
 30
0.0
 10
196.0907799454217
 20
50.32349026557742
 30
0.0
 10
196.0039327343086
 20
50.00434578082817
 30
0.0
 10
195.7615871465482
 20
49.67502581525511
 30
0.0
 10
195.3816492838227
 20
49.33608509369732
 30
0.0
 10
194.8678433306624
 20
48.998246629287
 30
0.0
 10
194.2419525197516
 20
48.67234872797941
 30
0.0
 10
193.528481533263
 20
48.37570183473835
 30
0.0
 10
192.7645790569989
 20
48.11959852629833
 30
0.0
 10
191.9787859740924
 20
47.93057095830989
 30
0.0
 10
191.1972485190518
 20
47.82239503625636
 30
0.0
 10
190.4411355342963
 20
47.81473115288751
 30
0.0
 10
189.7387709479066
 20
47.91265318827399
 30
0.0
 10
189.1197506008626
 20
48.1343016217776
 30
0.0
 10
188.6106933358533
 20
48.47016970868956
 30
0.0
 10
188.2377497424185
 20
48.90998027486844
 30
0.0
 10
188.0091477911736
 20
49.42105491539073
 30
0.0
 10
187.9403014844515
 20
49.97224000315136
 30
0.0
 10
188.0249178976752
 20
50.52991193146422
 30
0.0
 10
188.2680266876112
 20
51.05999207238371
 30
0.0
 10
188.650156530428
 20
51.53251642149858
 30
0.0
 10
189.1662921048406
 20
51.91863793239143
 30
0.0
 10
189.7932699653431
 20
52.20226211972358
 30
0.0
 10
190.5091773977094
 20
52.37199933845102
 30
0.0
 10
191.2776207898935
 20
52.43353817316385
 30
0.0
 10
191.8091495692669
 20
52.40517782090657
 30
0.0
 10
192.0736382001331
 20
52.37646933745923
 30
0.0
  0
LINE
  5
287
330
1F
100
AcDbEntity
  8
0
  6
Continuous
 62
     7
370
    15
100
AcDbLine
 10
182.8491007871
 20
35.9373427201
 30
0.0
 11
183.1631458457
 21
35.7691984929
 31
0.0
  0
LINE
  5
288
330
1F
100
AcDbEntity
  8
0
  6
Continuous
 62
     7
370
    15
100
AcDbLine
 10
181.8621427672
 20
36.5071014573
 30
0.0
 11
182.8491007871
 21
35.9373427201
 31
0.0
  0
ARC
  5
289
330
1F
100
AcDbEntity
  8
0
  6
Continuous
 62
     7
370
    15
100
AcDbCircle
 10
184.0941277647
 20
40.0150149047
 30
0.0
 40
4.399246259573226
100
AcDbArc
 50
267.4956853267
 51
287.1750110524
  0
SPLINE
  5
28A
330
1F
100
AcDbEntity
  8
0
  6
Continuous
 62
     7
370
    15
100
AcDbSpline
210
0.0
220
0.0
230
1.0
 70
     8
 71
     3
 72
    14
 73
    10
 74
     0
 42
0.000000001
 43
0.00000001
 40
0.0
 40
0.0
 40
0.0
 40
0.0
 40
0.1520927654964334
 40
0.2674857265629534
 40
0.3827932169674477
 40
0.4986859355030901
 40
0.6145509981003119
 40
0.825743267810779
 40
1.0
 40
1.0
 40
1.0
 40
1.0
 10
193.4121441584325
 20
49.37397362212351
 30
0.0
 10
193.2073492171401
 20
49.48635452235393
 30
0.0
 10
192.8471761116724
 20
49.6839989445052
 30
0.0
 10
192.2475529434706
 20
49.94812181130731
 30
0.0
 10
191.668380309088
 20
50.16123820584021
 30
0.0
 10
191.057488493594
 20
50.3320263569261
 30
0.0
 10
190.2683528038178
 20
50.4714051121453
 30
0.0
 10
189.3690794788948
 20
50.49853902682224
 30
0.0
 10
188.8044841292269
 20
50.29054447050455
 30
0.0
 10
188.5492375462615
 20
50.19651270101382
 30
0.0
  0
SPLINE
  5
28B
330
1F
100
AcDbEntity
  8
0
  6
Continuous
 62
     7
370
    15
100
AcDbSpline
210
0.0
220
0.0
230
1.0
 70
     8
 71
     3
 72
    10
 73
     6
 74
     0
 42
0.000000001
 43
0.00000001
 40
0.0
 40
0.0
 40
0.0
 40
0.0
 40
0.3798174073072795
 40
0.9603711649033085
 40
1.0
 40
1.0
 40
1.0
 40
1.0
 10
194.5520242802919
 20
48.84574669460502
 30
0.0
 10
194.4223716630435
 20
48.91607525644238
 30
0.0
 10
194.094544047289
 20
49.09390155286351
 30
0.0
 10
193.6866155022789
 20
49.26695440326591
 30
0.0
 10
193.429982720847
 20
49.36615983551422
 30
0.0
 10
193.4135842306353
 20
49.3724989294546
 30
0.0
  0
SPLINE
  5
28C
330
1F
100
AcDbEntity
  8
0
  6
Continuous
 62
     7
370
    15
100
AcDbSpline
210
0.0
220
0.0
230
1.0
 70
     8
 71
     3
 72
    24
 73
    20
 74
     0
 42
0.000000001
 43
0.00000001
 40
0.0
 40
0.0
 40
0.0
 40
0.0
 40
0.0618858212107145
 40
0.1150115607194259
 40
0.1593831488268445
 40
0.2428114970815824
 40
0.318331853291959
 40
0.3935543804326023
 40
0.4204843226990471
 40
0.4483397435477174
 40
0.4771286702554668
 40
0.5451537905345539
 40
0.6363475754294583
 40
0.6968782859867285
 40
0.7498596693403015
 40
0.7959701295389731
 40
0.8771179302751783
 40
0.9543004207779655
 40
1.0
 40
1.0
 40
1.0
 40
1.0
 10
192.0187596331308
 20
51.80261143750246
 30
0.0
 10
191.8348028437946
 20
51.82150600246842
 30
0.0
 10
191.4929287758323
 20
51.85662056285292
 30
0.0
 10
191.0287108028555
 20
51.85013001446566
 30
0.0
 10
190.5192491905826
 20
51.80240582166834
 30
0.0
 10
189.980154091208
 20
51.67778922350143
 30
0.0
 10
189.4373161064844
 20
51.43529893955844
 30
0.0
 10
189.0969230909893
 20
51.17792618893254
 30
0.0
 10
188.8902963824383
 20
50.96311908843371
 30
0.0
 10
188.7723123262273
 20
50.81661573713473
 30
0.0
 10
188.6201419220362
 20
50.58686491291427
 30
0.0
 10
188.4534612834566
 20
50.21392221748726
 30
0.0
 10
188.3850997026193
 20
49.75136316479437
 30
0.0
 10
188.4354551662388
 20
49.32303046659255
 30
0.0
 10
188.540884309754
 20
49.00310357294817
 30
0.0
 10
188.72308363644
 20
48.66263805775497
 30
0.0
 10
189.0239620615104
 20
48.32668980089989
 30
0.0
 10
189.4136469561089
 20
48.05363050018487
 30
0.0
 10
189.7065659123034
 20
47.95967542925757
 30
0.0
 10
189.8155018463596
 20
47.9247337390926
 30
0.0
  0
SPLINE
  5
28D
330
1F
100
AcDbEntity
  8
0
  6
Continuous
 62
     7
370
    15
100
AcDbSpline
210
0.0
220
0.0
230
1.0
 70
     8
 71
     3
 72
    22
 73
    18
 74
     0
 42
0.000000001
 43
0.00000001
 40
0.0
 40
0.0
 40
0.0
 40
0.0
 40
0.0348562931077237
 40
0.0924900623539491
 40
0.1569277788850789
 40
0.2282085360920659
 40
0.2894089077515647
 40
0.3420696922203051
 40
0.3861903498429299
 40
0.4217735408338573
 40
0.5236918810098915
 40
0.6145479843395962
 40
0.7067593487247504
 40
0.7559111409869668
 40
0.8071360726317764
 40
0.8951475619903156
 40
1.0
 40
1.0
 40
1.0
 40
1.0
 10
195.2825035805151
 20
49.28546734973274
 30
0.0
 10
195.3201394703907
 20
49.32064057214433
 30
0.0
 10
195.4200051041396
 20
49.41397159630066
 30
0.0
 10
195.5388291528747
 20
49.56931683590098
 30
0.0
 10
195.6352402213929
 20
49.7580460407033
 30
0.0
 10
195.6665163765349
 20
49.9440249263158
 30
0.0
 10
195.6371110523614
 20
50.11583648765124
 30
0.0
 10
195.5686160291532
 20
50.26264307816201
 30
0.0
 10
195.4808033821388
 20
50.38385400017586
 30
0.0
 10
195.3265122301846
 20
50.54943714735931
 30
0.0
 10
195.0586859122286
 20
50.75960138971485
 30
0.0
 10
194.6071157727621
 20
51.0150452001769
 30
0.0
 10
194.1595531360388
 20
51.22168189684788
 30
0.0
 10
193.7506593671549
 20
51.38018611349159
 30
0.0
 10
193.3285797673475
 20
51.52270286142639
 30
0.0
 10
192.7502671499684
 20
51.68595943028184
 30
0.0
 10
192.2763885561007
 20
51.76152788020364
 30
0.0
 10
192.0187596331308
 20
51.80261143750246
 30
0.0
  0
LINE
  5
28E
330
1F
100
AcDbEntity
  8
0
  6
Continuous
 62
     7
370
    15
100
AcDbLine
 10
185.5091899112
 20
36.5554402494
 30
0.0
 11
185.5039518482
 21
36.8515236723
 31
0.0
  0
LINE
  5
28F
330
1F
100
AcDbEntity
  8
0
  6
Continuous
 62
     7
370
    15
100
AcDbLine
 10
185.5039518482
 20
36.8515236723
 30
0.0
 11
185.547049635
 21
37.503148868
 31
0.0
  0
LINE
  5
290
330
1F
100
AcDbEntity
  8
0
  6
Continuous
 62
     7
370
    15
100
AcDbLine
 10
185.0244030302
 20
39.3322118898
 30
0.0
 11
184.7129885277
 21
39.6608084593
 31
0.0
  0
SPLINE
  5
291
330
1F
100
AcDbEntity
  8
0
  6
Continuous
 62
     7
370
    15
100
AcDbSpline
210
0.0
220
0.0
230
1.0
 70
     8
 71
     3
 72
    19
 73
    15
 74
     0
 42
0.000000001
 43
0.00000001
 40
0.0
 40
0.0
 40
0.0
 40
0.0
 40
0.0210492621018804
 40
0.1455865440207667
 40
0.2712169722633744
 40
0.3929514297049947
 40
0.5136082229787104
 40
0.6366369099308349
 40
0.699422462668311
 40
0.7643939711952468
 40
0.8122544601557282
 40
0.8606584764820763
 40
0.9188817427801165
 40
1.0
 40
1.0
 40
1.0
 40
1.0
 10
188.4295150807884
 20
49.54786149004465
 30
0.0
 10
188.4220465058026
 20
49.60262183695006
 30
0.0
 10
188.3703903472309
 20
49.98137001428521
 30
0.0
 10
188.6131612418905
 20
50.59152092309938
 30
0.0
 10
189.1974917093054
 20
51.28089462633895
 30
0.0
 10
190.1036180769457
 20
51.698194176571
 30
0.0
 10
191.1779642054077
 20
51.81862013425965
 30
0.0
 10
192.1318980745035
 20
51.65792059067205
 30
0.0
 10
192.8665606170727
 20
51.36055449183025
 30
0.0
 10
193.339363856545
 20
51.06289641442555
 30
0.0
 10
193.6963340266645
 20
50.69198460964819
 30
0.0
 10
193.8911821681727
 20
50.25966331434062
 30
0.0
 10
193.9202111984169
 20
49.75672198311547
 30
0.0
 10
193.8578375967966
 20
49.42297697054028
 30
0.0
 10
193.8215265408225
 20
49.22868589999342
 30
0.0
  0
SPLINE
  5
292
330
1F
100
AcDbEntity
  8
0
  6
Continuous
 62
     7
370
    15
100
AcDbSpline
210
0.0
220
0.0
230
1.0
 70
     8
 71
     3
 72
    10
 73
     6
 74
     0
 42
0.000000001
 43
0.00000001
 40
0.0
 40
0.0
 40
0.0
 40
0.0
 40
0.2950355258923527
 40
0.9801030833761959
 40
1.0
 40
1.0
 40
1.0
 40
1.0
 10
193.8242543968107
 20
49.22744734657103
 30
0.0
 10
193.9070789670712
 20
49.18868216488226
 30
0.0
 10
194.1822208044688
 20
49.05990487955065
 30
0.0
 10
194.4572877390089
 20
48.9186355996608
 30
0.0
 10
194.6058663495881
 20
48.82457286372194
 30
0.0
 10
194.6100598321469
 20
48.82191803715532
 30
0.0
  0
ARC
  5
293
330
1F
100
AcDbEntity
  8
0
  6
Continuous
 62
     7
370
    15
100
AcDbCircle
 10
197.8343629621
 20
35.0142283542
 30
0.0
 40
12.46654291791196
100
AcDbArc
 50
171.5249863735
 51
179.8211981812
  0
SPLINE
  5
294
330
1F
100
AcDbEntity
  8
0
  6
Continuous
 62
     7
370
    15
100
AcDbSpline
210
0.0
220
0.0
230
1.0
 70
     8
 71
     3
 72
    14
 73
    10
 74
     0
 42
0.000000001
 43
0.00000001
 40
0.0
 40
0.0
 40
0.0
 40
0.0
 40
0.0003951393068452
 40
0.0003951393068452
 40
0.0003951393068452
 40
0.0008163352168664
 40
0.0008163352168664
 40
0.0008163352168664
 40
0.0012378579337219
 40
0.0012378579337219
 40
0.0012378579337219
 40
0.0012378579337219
 10
193.4161767339721
 20
49.37269466873918
 30
0.0
 10
193.4616385482034
 20
49.35825780611414
 30
0.0
 10
193.5065261528244
 20
49.34339194554853
 30
0.0
 10
193.5508098454995
 20
49.32810815794306
 30
0.0
 10
193.5980131377389
 20
49.31181671860538
 30
0.0
 10
193.6445389507981
 20
49.29504724052146
 30
0.0
 10
193.6903498600397
 20
49.27781842972617
 30
0.0
 10
193.7361962480288
 20
49.26057627589453
 30
0.0
 10
193.7813354836012
 20
49.24287056969003
 30
0.0
 10
193.8257290416435
 20
49.22472771299925
 30
0.0
  0
LINE
  5
295
330
1F
100
AcDbEntity
  8
0
  6
Continuous
 62
     7
370
    15
100
AcDbLine
 10
184.7129885277
 20
39.6608084593
 30
0.0
 11
184.0730518533
 21
40.0730400994
 31
0.0
  0
LINE
  5
296
330
1F
100
AcDbEntity
  8
0
  6
Continuous
 62
     7
370
    15
100
AcDbLine
 10
183.7671177581
 20
40.4445184862
 30
0.0
 11
184.0730518533
 21
40.0730400994
 31
0.0
  0
SPLINE
  5
297
330
1F
100
AcDbEntity
  8
0
  6
Continuous
 62
     7
370
    15
100
AcDbSpline
210
0.0
220
0.0
230
1.0
 70
     8
 71
     3
 72
    13
 73
     9
 74
     0
 42
0.000000001
 43
0.00000001
 40
0.0
 40
0.0
 40
0.0
 40
0.0
 40
0.1618542298650875
 40
0.3254858841233149
 40
0.4910085196246548
 40
0.6585318472470939
 40
0.8281616954004768
 40
1.0
 40
1.0
 40
1.0
 40
1.0
 10
184.0730522649505
 20
40.07304010330927
 30
0.0
 10
184.0534748729355
 20
40.08560308034088
 30
0.0
 10
184.0141050970936
 20
40.11086699645704
 30
0.0
 10
183.9525691573275
 20
40.14356069336991
 30
0.0
 10
183.8890124980795
 20
40.17250676707673
 30
0.0
 10
183.8233943954211
 20
40.19701913454374
 30
0.0
 10
183.755967126362
 20
40.21745419789958
 30
0.0
 10
183.7100825261599
 20
40.22705085289082
 30
0.0
 10
183.6869918459826
 20
40.23188021372645
 30
0.0
  0
SPLINE
  5
298
330
1F
100
AcDbEntity
  8
0
  6
Continuous
 62
     7
370
    15
100
AcDbSpline
210
0.0
220
0.0
230
1.0
 70
     8
 71
     3
 72
     9
 73
     5
 74
     0
 42
0.000000001
 43
0.00000001
 40
0.0
 40
0.0
 40
0.0
 40
0.0
 40
0.4907282259506041
 40
1.0
 40
1.0
 40
1.0
 40
1.0
 10
183.6869860186906
 20
40.23185221669544
 30
0.0
 10
183.6628924962128
 20
40.23994774891356
 30
0.0
 10
183.6137950096536
 20
40.25644472583484
 30
0.0
 10
183.5630943158334
 20
40.27123839485107
 30
0.0
 10
183.5372738835461
 20
40.27877239291568
 30
0.0
  0
SPLINE
  5
299
330
1F
100
AcDbEntity
  8
0
  6
Continuous
 62
     7
370
    15
100
AcDbSpline
210
0.0
220
0.0
230
1.0
 70
     8
 71
     3
 72
    14
 73
    10
 74
     0
 42
0.000000001
 43
0.00000001
 40
0.0
 40
0.0
 40
0.0
 40
0.0
 40
0.0310276388093398
 40
0.0622853718693698
 40
0.1248003166924349
 40
0.2498289731770658
 40
0.4998892603621822
 40
0.7606803621577949
 40
1.0
 40
1.0
 40
1.0
 40
1.0
 10
182.9533331942581
 20
40.65288013556157
 30
0.0
 10
182.9593254336629
 20
40.64904909190761
 30
0.0
 10
182.9713543496224
 20
40.64135859440952
 30
0.0
 10
182.9954141576721
 20
40.62592070490258
 30
0.0
 10
183.0376478303184
 20
40.59885025197168
 30
0.0
 10
183.1222104048307
 20
40.54463822717624
 30
0.0
 10
183.2454973742991
 20
40.46563504531149
 30
0.0
 10
183.3916290807529
 20
40.37202887063375
 30
0.0
 10
183.4899956972939
 20
40.30904579424129
 30
0.0
 10
183.5370673979805
 20
40.27890629545078
 30
0.0
  0
LINE
  5
29A
330
1F
100
AcDbEntity
  8
0
  6
Continuous
 62
     7
370
    15
100
AcDbLine
 10
181.150833039
 20
41.8155108126
 30
0.0
 11
181.4418003932
 21
41.6274322734
 31
0.0
  0
SPLINE
  5
29B
330
1F
100
AcDbEntity
  8
0
  6
Continuous
 62
     7
370
    15
100
AcDbSpline
210
0.0
220
0.0
230
1.0
 70
     8
 71
     3
 72
     8
 73
     4
 74
     0
 42
0.000000001
 43
0.00000001
 40
0.0
 40
0.0
 40
0.0
 40
0.0
 40
1.0
 40
1.0
 40
1.0
 40
1.0
 10
181.473188696553
 20
41.60720974325037
 30
0.0
 10
181.4627461907012
 20
41.61403516814777
 30
0.0
 10
181.4522802578114
 20
41.6207781349343
 30
0.0
 10
181.4417924929949
 20
41.62743722258728
 30
0.0
  0
SPLINE
  5
29C
330
1F
100
AcDbEntity
  8
0
  6
Continuous
 62
     7
370
    15
100
AcDbSpline
210
0.0
220
0.0
230
1.0
 70
     8
 71
     3
 72
     8
 73
     4
 74
     0
 42
0.000000001
 43
0.00000001
 40
0.0
 40
0.0
 40
0.0
 40
0.0
 40
1.0
 40
1.0
 40
1.0
 40
1.0
 10
178.6871843177292
 20
43.48546539505944
 30
0.0
 10
178.7461840818991
 20
43.44672472814048
 30
0.0
 10
178.8054716454097
 20
43.4086627508412
 30
0.0
 10
178.8650527188981
 20
43.37127896238091
 30
0.0
  0
SPLINE
  5
29D
330
1F
100
AcDbEntity
  8
0
  6
Continuous
 62
     7
370
    15
100
AcDbSpline
210
0.0
220
0.0
230
1.0
 70
     8
 71
     3
 72
     8
 73
     4
 74
     0
 42
0.000000001
 43
0.00000001
 40
0.0
 40
0.0
 40
0.0
 40
0.0
 40
1.0
 40
1.0
 40
1.0
 40
1.0
 10
178.6623345716296
 20
43.84867557299777
 30
0.0
 10
178.6698087837202
 20
43.72771773228592
 30
0.0
 10
178.6781048876103
 20
43.60664588987527
 30
0.0
 10
178.6871843177292
 20
43.48546539505945
 30
0.0
  0
LWPOLYLINE
  5
29E
330
1F
100
AcDbEntity
  8
0
  6
Continuous
 62
     7
370
    15
100
AcDbPolyline
 90
       16
 70
   128
 43
0.0
 10
178.6623349304
 20
43.8486749076
 10
179.0362453068
 20
44.907255118
 10
179.484243916
 20
45.9589667198
 10
180.0014417235
 20
46.9923332658
 10
180.5821953322
 20
47.9960793319
 10
181.2201682268
 20
48.9592529459
 10
181.9083989334
 20
49.8713432627
 10
182.6393780689
 20
50.7223999497
 10
183.4051293423
 20
51.5031354617
 10
184.1972971407
 20
52.2050303564
 10
185.007237903
 20
52.8204271084
 10
185.8261137972
 20
53.3426100434
 10
186.6449896913
 20
53.7658810912
 10
187.4549304536
 20
54.0856220384
 10
188.2470982521
 20
54.2983446156
 10
188.6262973994
 20
54.362782599
  0
SPLINE
  5
29F
330
1F
100
AcDbEntity
  8
0
  6
Continuous
 62
     7
370
    15
100
AcDbSpline
210
0.0
220
0.0
230
1.0
 70
     8
 71
     3
 72
    10
 73
     6
 74
     0
 42
0.000000001
 43
0.00000001
 40
0.0
 40
0.0
 40
0.0
 40
0.0
 40
0.2409818396634726
 40
0.5031433556203718
 40
1.0
 40
1.0
 40
1.0
 40
1.0
 10
184.7129885276683
 20
32.95496683604394
 30
0.0
 10
184.7952343986713
 20
32.90329031412339
 30
0.0
 10
184.9669546560158
 20
32.79539546743201
 30
0.0
 10
185.2446760150427
 20
32.66567275696777
 30
0.0
 10
185.3656532620867
 20
32.68845069807276
 30
0.0
 10
185.4448455030022
 20
32.70336123905149
 30
0.0
  0
LINE
  5
2A0
330
1F
100
AcDbEntity
  8
0
  6
Continuous
 62
     7
370
    15
100
AcDbLine
 10
179.9298144715
 20
42.684039569
 30
0.0
 11
179.1679357692
 21
43.1746739767
 31
0.0
  0
LINE
  5
2A1
330
1F
100
AcDbEntity
  8
0
  6
Continuous
 62
     7
370
    15
100
AcDbLine
 10
179.1679357692
 20
43.1746739767
 30
0.0
 11
178.6871844489
 21
43.4854653527
 31
0.0
  0
LINE
  5
2A2
330
1F
100
AcDbEntity
  8
0
  6
Continuous
 62
     7
370
    15
100
AcDbLine
 10
183.7671177581
 20
32.6791870351
 30
0.0
 11
184.0730518533
 21
33.3671984762
 31
0.0
  0
LINE
  5
2A3
330
1F
100
AcDbEntity
  8
0
  6
Continuous
 62
     7
370
    15
100
AcDbLine
 10
184.0730518533
 20
33.3671984762
 30
0.0
 11
184.7129885277
 21
32.954966836
 31
0.0
  0
SPLINE
  5
2A4
330
1F
100
AcDbEntity
  8
0
  6
Continuous
 62
     7
370
    15
100
AcDbSpline
210
0.0
220
0.0
230
1.0
 70
     8
 71
     3
 72
    13
 73
     9
 74
     0
 42
0.000000001
 43
0.00000001
 40
0.0
 40
0.0
 40
0.0
 40
0.0
 40
0.1722587823402174
 40
0.3421398270982735
 40
0.5097456257612809
 40
0.6751828993009421
 40
0.8385626189970466
 40
1.0
 40
1.0
 40
1.0
 40
1.0
 10
183.6869803341772
 20
33.64850818156255
 30
0.0
 10
183.710131858128
 20
33.63038859062955
 30
0.0
 10
183.7561153388768
 20
33.59439951869551
 30
0.0
 10
183.8236563515877
 20
33.54339953528032
 30
0.0
 10
183.889315966273
 20
33.49507485508966
 30
0.0
 10
183.9528400375233
 20
33.44964384918033
 30
0.0
 10
184.0142704162452
 20
33.4068182814201
 30
0.0
 10
184.0535365832189
 20
33.38035246424465
 30
0.0
 10
184.0730522649505
 20
33.36719868569755
 30
0.0
  0
SPLINE
  5
2A5
330
1F
100
AcDbEntity
  8
0
  6
Continuous
 62
     7
370
    15
100
AcDbSpline
210
0.0
220
0.0
230
1.0
 70
     8
 71
     3
 72
    11
 73
     7
 74
     0
 42
0.000000001
 43
0.00000001
 40
0.0
 40
0.0
 40
0.0
 40
0.0
 40
0.2392845096574327
 40
0.5001120454060707
 40
0.7515010914954734
 40
1.0
 40
1.0
 40
1.0
 40
1.0
 10
183.5375999227012
 20
33.69582217377543
 30
0.0
 10
183.4905306906535
 20
33.66750765104133
 30
0.0
 10
183.3921545360552
 20
33.60832942049259
 30
0.0
 10
183.2458573144774
 20
33.51514152002505
 30
0.0
 10
183.098016570891
 20
33.41976960405168
 30
0.0
 10
183.0017301081623
 20
33.35523434880408
 30
0.0
 10
182.953865220297
 20
33.32315327875286
 30
0.0
  0
SPLINE
  5
2A6
330
1F
100
AcDbEntity
  8
0
  6
Continuous
 62
     7
370
    15
100
AcDbSpline
210
0.0
220
0.0
230
1.0
 70
     8
 71
     3
 72
     9
 73
     5
 74
     0
 42
0.000000001
 43
0.00000001
 40
0.0
 40
0.0
 40
0.0
 40
0.0
 40
0.509066935386983
 40
0.9999999999999999
 40
0.9999999999999999
 40
0.9999999999999999
 40
0.9999999999999999
 10
183.5381709262853
 20
33.69512321956367
 30
0.0
 10
183.5638195009093
 20
33.68763051140378
 30
0.0
 10
183.6142030022548
 20
33.67291199869153
 30
0.0
 10
183.6630105137501
 20
33.65651964083936
 30
0.0
 10
183.6869717349446
 20
33.64847209036277
 30
0.0
  0
LINE
  5
2A7
330
1F
100
AcDbEntity
  8
0
  6
Continuous
 62
     7
370
    15
100
AcDbLine
 10
185.3680895064
 20
34.6190017868
 30
0.0
 11
183.6869735501
 21
33.6485142026
 31
0.0
  0
LINE
  5
2A8
330
1F
100
AcDbEntity
  8
0
  6
Continuous
 62
     7
370
    15
100
AcDbLine
 10
181.6804858988
 20
34.7723355013
 30
0.0
 11
181.4801902453
 21
34.271178087
 31
0.0
  0
SPLINE
  5
2A9
330
1F
100
AcDbEntity
  8
0
  6
Continuous
 62
     7
370
    15
100
AcDbSpline
210
0.0
220
0.0
230
1.0
 70
     8
 71
     3
 72
     8
 73
     4
 74
     0
 42
0.000000001
 43
0.00000001
 40
0.0
 40
0.0
 40
0.0
 40
0.0
 40
1.0
 40
1.0
 40
1.0
 40
1.0
 10
181.6800427281451
 20
34.77311925342502
 30
0.0
 10
181.7062180627144
 20
34.79528663040328
 30
0.0
 10
181.7320391026798
 20
34.8179187714949
 30
0.0
 10
181.7574966563882
 20
34.84100349158618
 30
0.0
  0
LINE
  5
2AA
330
1F
100
AcDbEntity
  8
0
  6
Continuous
 62
     7
370
    15
100
AcDbLine
 10
181.7574967521
 20
34.841003376
 30
0.0
 11
183.5377895114
 21
33.6952324908
 31
0.0
  0
LINE
  5
2AB
330
1F
100
AcDbEntity
  8
0
  6
Continuous
 62
     7
370
    15
100
AcDbLine
 10
185.3678807478
 20
34.717051722
 30
0.0
 11
185.2798814208
 21
34.8245427904
 31
0.0
  0
LINE
  5
2AC
330
1F
100
AcDbEntity
  8
0
  6
Continuous
 62
     7
370
    15
100
AcDbLine
 10
183.4514734242
 20
35.8189152933
 30
0.0
 11
181.7574967521
 21
34.841003376
 31
0.0
  0
LINE
  5
2AD
330
1F
100
AcDbEntity
  8
0
  6
Continuous
 62
     7
370
    15
100
AcDbLine
 10
183.5941675067
 20
35.7976231316
 30
0.0
 11
183.4518935756
 21
35.8184279158
 31
0.0
  0
LINE
  5
2AE
330
1F
100
AcDbEntity
  8
0
  6
Continuous
 62
     7
370
    15
100
AcDbLine
 10
185.2799551778
 20
34.8244386239
 30
0.0
 11
183.5941675067
 21
35.7976231316
 31
0.0
  0
LINE
  5
2AF
330
1F
100
AcDbEntity
  8
0
  6
Continuous
 62
     7
370
    15
100
AcDbLine
 10
185.3678807478
 20
34.773674541
 30
0.0
 11
185.2799084212
 21
34.8244655973
 31
0.0
  0
SPLINE
  5
2B0
330
1F
100
AcDbEntity
  8
0
  6
Continuous
 62
     7
370
    15
100
AcDbSpline
210
0.0
220
0.0
230
1.0
 70
     8
 71
     3
 72
    19
 73
    15
 74
     0
 42
0.000000001
 43
0.00000001
 40
0.0
 40
0.0
 40
0.0
 40
0.0
 40
0.0637853009172641
 40
0.1289628367748405
 40
0.1955871994416645
 40
0.2637095015536399
 40
0.333377557949238
 40
0.4046360709686026
 40
0.4775268158973639
 40
0.5520888236427515
 40
0.6283585584336152
 40
0.7063700889344581
 40
0.8377041806176546
 40
0.9999999999999999
 40
0.9999999999999999
 40
0.9999999999999999
 40
0.9999999999999999
 10
180.8959736221838
 20
34.94160734077688
 30
0.0
 10
180.9166629911904
 20
34.92824820076567
 30
0.0
 10
180.9584933138478
 20
34.90123833222314
 30
0.0
 10
181.018984287446
 20
34.86371636669509
 30
0.0
 10
181.0784684856277
 20
34.82819662560377
 30
0.0
 10
181.1365496451007
 20
34.79521649668735
 30
0.0
 10
181.1930817621883
 20
34.76501006041767
 30
0.0
 10
181.2478268169415
 20
34.73789662045713
 30
0.0
 10
181.3005491945322
 20
34.71416500270828
 30
0.0
 10
181.3509908274607
 20
34.69412474926463
 30
0.0
 10
181.3988737459231
 20
34.67800488772718
 30
0.0
 10
181.4538379002982
 20
34.66372691804244
 30
0.0
 10
181.5166692142594
 20
34.65358836079194
 30
0.0
 10
181.5551767299194
 20
34.66006261210773
 30
0.0
 10
181.5764606951113
 20
34.6636410756177
 30
0.0
  0
LINE
  5
2B1
330
1F
100
AcDbEntity
  8
0
  6
Continuous
 62
     7
370
    15
100
AcDbLine
 10
181.6010963827
 20
34.6897115299
 30
0.0
 11
181.6688092461
 21
34.7613660502
 31
0.0
  0
SPLINE
  5
2B2
330
1F
100
AcDbEntity
  8
0
  6
Continuous
 62
     7
370
    15
100
AcDbSpline
210
0.0
220
0.0
230
1.0
 70
     8
 71
     3
 72
     9
 73
     5
 74
     0
 42
0.000000001
 43
0.00000001
 40
0.0
 40
0.0
 40
0.0
 40
0.0
 40
0.5232016984460688
 40
1.0
 40
1.0
 40
1.0
 40
1.0
 10
183.2852956444982
 20
35.72298307250977
 30
0.0
 10
183.2162714818496
 20
35.74802523762627
 30
0.0
 10
183.0843449937406
 20
35.79588854768599
 30
0.0
 10
182.842907580922
 20
35.93348667837266
 30
0.0
 10
182.7277906325585
 20
35.99909323338105
 30
0.0
  0
LINE
  5
2B3
330
1F
100
AcDbEntity
  8
0
  6
Continuous
 62
     7
370
    15
100
AcDbLine
 10
178.9982894355
 20
35.764982796
 30
0.0
 11
179.4497605499
 21
35.8772467689
 31
0.0
  0
LINE
  5
2B4
330
1F
100
AcDbEntity
  8
0
  6
Continuous
 62
     7
370
    15
100
AcDbLine
 10
179.4497605499
 20
35.8772467689
 30
0.0
 11
180.8959730217
 21
34.9416074359
 31
0.0
  0
SPLINE
  5
2B5
330
1F
100
AcDbEntity
  8
0
  6
Continuous
 62
     7
370
    15
100
AcDbSpline
210
0.0
220
0.0
230
1.0
 70
     8
 71
     3
 72
     8
 73
     4
 74
     0
 42
0.000000001
 43
0.00000001
 40
0.0
 40
0.0
 40
0.0
 40
0.0
 40
1.0
 40
1.0
 40
1.0
 40
1.0
 10
179.1690780062006
 20
35.37023314299357
 30
0.0
 10
179.1119527372765
 20
35.50201932678912
 30
0.0
 10
179.055024245559
 20
35.63360354844984
 30
0.0
 10
178.9982901276096
 20
35.76498261535112
 30
0.0
  0
LINE
  5
2B6
330
1F
100
AcDbEntity
  8
0
  6
Continuous
 62
     7
370
    15
100
AcDbLine
 10
180.787462009
 20
36.6494853836
 30
0.0
 11
179.4497605499
 21
35.8772467689
 31
0.0
  0
LINE
  5
2B7
330
1F
100
AcDbEntity
  8
0
  6
Continuous
 62
     7
370
    15
100
AcDbLine
 10
181.7704904938
 20
36.5517319808
 30
0.0
 11
180.787462009
 21
36.6494853836
 31
0.0
  0
LINE
  5
2B8
330
1F
100
AcDbEntity
  8
0
  6
Continuous
 62
     7
370
    15
100
AcDbLine
 10
182.7277906326
 20
35.9990932334
 30
0.0
 11
181.770489506
 21
36.5517314105
 31
0.0
  0
SPLINE
  5
2B9
330
1F
100
AcDbEntity
  8
0
  6
Continuous
 62
     7
370
    15
100
AcDbSpline
210
0.0
220
0.0
230
1.0
 70
     8
 71
     3
 72
     8
 73
     4
 74
     0
 42
0.000000001
 43
0.00000001
 40
0.0
 40
0.0
 40
0.0
 40
0.0
 40
1.0
 40
1.0
 40
1.0
 40
1.0
 10
178.9982901276117
 20
35.76498261534625
 30
0.0
 10
178.9951527898616
 20
35.80019892221875
 30
0.0
 10
178.9931603859636
 20
35.83584317844646
 30
0.0
 10
178.9923789885916
 20
35.87194008044133
 30
0.0
  0
LINE
  5
2BA
330
1F
100
AcDbEntity
  8
0
  6
Continuous
 62
     7
370
    15
100
AcDbLine
 10
179.8034654637
 20
36.3401697951
 30
0.0
 11
178.9923796571
 21
35.8719399256
 31
0.0
  0
SPLINE
  5
2BB
330
1F
100
AcDbEntity
  8
0
  6
Continuous
 62
     7
370
    15
100
AcDbSpline
210
0.0
220
0.0
230
1.0
 70
     8
 71
     3
 72
     8
 73
     4
 74
     0
 42
0.000000001
 43
0.00000001
 40
0.0000004089325119
 40
0.0000004089325119
 40
0.0000004089325119
 40
0.0000004089325119
 40
0.0015399868451459
 40
0.0015399868451459
 40
0.0015399868451459
 40
0.0015399868451459
 10
179.8034645210803
 20
36.34016979179744
 30
0.0
 10
180.0419410891036
 20
36.4345461776138
 30
0.0
 10
180.2803880467723
 20
36.52897478954402
 30
0.0
 10
180.5187967856226
 20
36.62346817250646
 30
0.0
  0
LINE
  5
2BC
330
1F
100
AcDbEntity
  8
0
  6
Continuous
 62
     7
370
    15
100
AcDbLine
 10
180.5187962646
 20
36.6234683196
 30
0.0
 11
180.5431927044
 21
36.6284623461
 31
0.0
  0
LINE
  5
2BD
330
1F
100
AcDbEntity
  8
0
  6
Continuous
 62
     7
370
    15
100
AcDbLine
 10
180.787462009
 20
36.6494853836
 30
0.0
 11
180.543193363
 21
36.628462346
 31
0.0
  0
SPLINE
  5
2BE
330
1F
100
AcDbEntity
  8
0
  6
Continuous
 62
     7
370
    15
100
AcDbSpline
210
0.0
220
0.0
230
1.0
 70
     8
 71
     3
 72
     8
 73
     4
 74
     0
 42
0.000000001
 43
0.00000001
 40
0.0
 40
0.0
 40
0.0
 40
0.0
 40
1.0
 40
1.0
 40
1.0
 40
1.0
 10
181.7704887001306
 20
36.55173216509343
 30
0.0
 10
181.8010967342539
 20
36.53679215728732
 30
0.0
 10
181.8316482352258
 20
36.52191519989394
 30
0.0
 10
181.8621421733403
 20
36.50710163621302
 30
0.0
  0
LWPOLYLINE
  5
2BF
330
1F
100
AcDbEntity
  8
0
  6
Continuous
 62
     7
370
    15
100
AcDbPolyline
 90
        3
 70
   128
 43
0.0
 10
185.4102618324
 20
36.0401820944
 10
184.9357321525
 20
35.8422197887
 10
184.1988774829
 20
35.6161774568
  0
LWPOLYLINE
  5
2C0
330
1F
100
AcDbEntity
  8
0
  6
Continuous
 62
     7
370
     0
100
AcDbPolyline
 90
       18
 70
   128
 43
0.0
 10
223.8196198901
 20
17.9992051705
 10
223.8616561031
 20
18.6712188609
 10
223.9868256577
 20
19.3767547954
 10
224.1923327033
 20
20.1000525477
 10
224.4735865259
 20
20.8249550885
 10
224.8243044464
 20
21.5352689503
 10
225.2366515962
 20
22.2151271444
 10
225.7014172424
 20
22.8493421901
 10
226.2082190194
 20
23.4237477805
 10
226.7457359707
 20
23.9255114537
 10
227.3019607927
 20
24.3434258381
 10
227.8644683969
 20
24.6681545659
 10
228.4206932189
 20
24.8924436913
 10
228.9582101702
 20
25.0112838802
 10
229.4650119472
 20
25.0220191664
 10
229.9297775934
 20
24.9244111139
 10
230.3421247432
 20
24.7206388051
 10
230.3882618775
 20
24.6887953205
  0
ARC
  5
2C1
330
1F
100
AcDbEntity
  8
0
  6
Continuous
 62
     7
370
     0
100
AcDbCircle
 10
226.3757163034
 20
17.7037539731
 30
0.0
 40
2.573114899130862
100
AcDbArc
 50
173.406619228
 51
239.6202226006
  0
LWPOLYLINE
  5
2C2
330
1F
100
AcDbEntity
  8
0
  6
Continuous
 62
     7
370
     0
100
AcDbPolyline
 90
       39
 70
   128
 43
0.0
 10
225.176173832
 20
18.0299743913
 10
225.2178903217
 20
18.635410964
 10
225.341900838
 20
19.2724970295
 10
225.5448237549
 20
19.9238551397
 10
225.8211230179
 20
20.5717175511
 10
226.1632624084
 20
21.1984122886
 10
226.5619090336
 20
21.7868450222
 10
227.0061889242
 20
22.3209644936
 10
227.483983215
 20
22.7862015612
 10
227.9822589603
 20
23.1698656906
 10
228.4874245423
 20
23.4614915736
 10
228.9857002875
 20
23.6531243742
 10
229.4634945783
 20
23.7395368525
 10
229.907774469
 20
23.7183720243
 10
230.3064210941
 20
23.5902068871
 10
230.6485604846
 20
23.3585378815
 10
230.9248597477
 20
23.0296838089
 10
231.1277826646
 20
22.6126155115
 10
231.2517931808
 20
22.1187089405
 10
231.2935096705
 20
21.5614372016
 10
231.2517931808
 20
20.9560006289
 10
231.1277826646
 20
20.3189145635
 10
230.9248597477
 20
19.6675564533
 10
230.6485604846
 20
19.0196940418
 10
230.3064210941
 20
18.3929993043
 10
229.907774469
 20
17.8045665708
 10
229.4634945783
 20
17.2704470994
 10
228.9857002875
 20
16.8052100318
 10
228.4874245423
 20
16.4215459024
 10
227.9822589603
 20
16.1299200193
 10
227.483983215
 20
15.9382872188
 10
227.0061889242
 20
15.8518747404
 10
226.5619090336
 20
15.8730395687
 10
226.1632624084
 20
16.0012047058
 10
225.8211230179
 20
16.2328737115
 10
225.5448237549
 20
16.5617277841
 10
225.341900838
 20
16.9787960814
 10
225.2178903217
 20
17.4727026524
 10
225.176173832
 20
18.0299743913
  0
LWPOLYLINE
  5
2C3
330
1F
100
AcDbEntity
  8
0
  6
Continuous
 62
     7
370
     0
100
AcDbPolyline
 90
       30
 70
   128
 43
0.0
 10
226.4541013464
 20
18.7677062423
 10
226.4957342009
 20
19.23379123
 10
226.618685613
 20
19.7261506602
 10
226.8172066537
 20
20.2217622958
 10
227.0820148914
 20
20.6974521865
 10
227.4007279604
 20
21.1309772416
 10
227.7584432456
 20
21.5020665823
 10
228.1384344161
 20
21.793368514
 10
228.5229334679
 20
21.9912616885
 10
228.8939617037
 20
22.0864932802
 10
229.2341702005
 20
22.0746101849
 10
229.5276512191
 20
21.9561680231
 10
229.760681803
 20
21.736704989
 10
229.9223660043
 20
21.4264831734
 10
230.0051432379
 20
21.0400078084
 10
230.0051432379
 20
20.5953503744
 10
229.9223660043
 20
20.1133024497
 10
229.760681803
 20
19.6164040289
 10
229.5276512191
 20
19.1278896095
 10
229.2341702005
 20
18.6706014762
 10
228.8939617037
 20
18.2659220114
 10
228.5229334679
 20
17.9327735204
 10
228.1384344161
 20
17.6867335391
 10
227.7584432456
 20
17.5393070039
 10
227.4007279604
 20
17.4973870675
 10
227.0820148914
 20
17.5629338457
 10
226.8172066537
 20
17.7328826531
 10
226.618685613
 20
17.9992867739
 10
226.4957342009
 20
18.3496895253
 10
226.4541013464
 20
18.7677062423
  0
LWPOLYLINE
  5
2C4
330
1F
100
AcDbEntity
  8
0
  6
Continuous
 62
     7
370
     0
100
AcDbPolyline
 90
       17
 70
   128
 43
0.0
 10
229.1232396952
 20
21.8967768036
 10
229.1913130294
 20
21.8660191504
 10
229.4310992922
 20
21.6744526834
 10
229.5985198277
 20
21.3861485811
 10
229.6845491188
 20
21.0166496033
 10
229.6845491188
 20
20.5858754175
 10
229.5985198277
 20
20.1170491345
 10
229.4310992922
 20
19.6354453965
 10
229.1913130294
 20
19.1670276033
 10
228.8920880211
 20
18.7370482315
 10
228.549555603
 20
18.368687409
 10
228.1821817542
 20
18.081803878
 10
227.8097716863
 20
17.8918634882
 10
227.4524021369
 20
17.8091059016
 10
227.1293389698
 20
17.8379925504
 10
226.8579986293
 20
17.9769662259
 10
226.8095006952
 20
18.0190879206
  0
LWPOLYLINE
  5
2C5
330
1F
100
AcDbEntity
  8
0
  6
Continuous
 62
     7
370
     0
100
AcDbPolyline
 90
       27
 70
   128
 43
0.0
 10
200.4809009796
 20
29.0823478799
 10
200.5218466429
 20
29.9027279828
 10
200.6441087235
 20
30.7588665462
 10
200.845971713
 20
31.6387457558
 10
201.1246009065
 20
32.5300132986
 10
201.4760852082
 20
33.4201582161
 10
201.8954908027
 20
34.2966844745
 10
202.3769303019
 20
35.1472877664
 10
202.9136447345
 20
35.9600277475
 10
203.4981003511
 20
36.7234947594
 10
204.1220925105
 20
37.4269720832
 10
204.7768615828
 20
38.0605838389
 10
205.4532163447
 20
38.6154358021
 10
206.1416620043
 20
39.0837391215
 10
206.8325343593
 20
39.4589193258
 10
207.5161351688
 20
39.7357108225
 10
208.1828681015
 20
39.9102262534
 10
208.8233735936
 20
39.9800179963
 10
209.4286604548
 20
39.9441047097
 10
209.9902319791
 20
39.8029909022
 10
210.5002045655
 20
39.5586582246
 10
210.9514195061
 20
39.214535325
 10
211.3375425903
 20
38.7754542087
 10
211.6531536678
 20
38.2475776053
 10
211.8938223802
 20
37.6383164511
 10
212.0561700651
 20
36.9562230388
 10
212.0611585397
 20
36.9265917996
  0
LWPOLYLINE
  5
2C6
330
1F
100
AcDbEntity
  8
0
  6
Continuous
 62
     7
370
     0
100
AcDbPolyline
 90
       13
 70
   128
 43
0.0
 10
205.3117071484
 20
25.2349319796
 10
204.7768615828
 20
25.0641224566
 10
204.1220925105
 20
24.9417539329
 10
203.4981003511
 20
24.9247852446
 10
202.9136447345
 20
25.013454165
 10
202.3769303019
 20
25.2065168525
 10
201.8954908027
 20
25.5012619304
 10
201.4760852082
 20
25.8935527967
 10
201.1246009065
 20
26.3778825774
 10
200.845971713
 20
26.9474517009
 10
200.6441087235
 20
27.5942648638
 10
200.5218466429
 20
28.3092426336
 10
200.4809009796
 20
29.0823478799
  0
LWPOLYLINE
  5
2C7
330
1F
100
AcDbEntity
  8
0
  6
Continuous
 62
     7
370
     0
100
AcDbPolyline
 90
       29
 70
   128
 43
0.0
 10
188.8931888139
 20
29.6589359165
 10
188.9343834071
 20
30.7873914905
 10
189.0576609633
 20
31.9550537721
 10
189.2621093986
 20
33.1532784751
 10
189.5462153775
 20
34.3731943715
 10
189.9078748504
 20
35.6057692607
 10
190.3444101753
 20
36.8418774591
 10
190.8525898743
 20
38.0723678594
 10
191.4286516827
 20
39.2881304692
 10
192.0683302076
 20
40.4801629489
 10
192.766889197
 20
41.6396413314
 10
193.5191571008
 20
42.7579800958
 10
194.3195652667
 20
43.8269006051
 10
195.1621864648
 20
44.838487567
 10
196.0407826323
 20
45.7852530988
 10
196.9488489958
 20
46.660186533
 10
197.8796626391
 20
47.4568098319
 10
198.8263322231
 20
48.1692268228
 10
199.7818486735
 20
48.7921615848
 10
200.7391378022
 20
49.3210025146
 10
201.6911122915
 20
49.7518346183
 10
202.6307237601
 20
50.0814672866
 10
203.5510158378
 20
50.3074603715
 10
204.4451750584
 20
50.428141399
 10
205.3065815679
 20
50.4426165907
 10
206.1288573627
 20
50.3507781792
 10
206.9059148574
 20
50.1533065896
 10
207.6320010072
 20
49.8516632108
 10
207.8893924696
 20
49.7124914603
  0
LWPOLYLINE
  5
2C8
330
1F
100
AcDbEntity
  8
0
  6
Continuous
 62
     7
370
     0
100
AcDbPolyline
 90
       11
 70
   128
 43
0.0
 10
192.1531711551
 20
22.4536030665
 10
192.0683302076
 20
22.5036491054
 10
191.4286516827
 20
22.9571244808
 10
190.8525898743
 20
23.5077802839
 10
190.3444101753
 20
24.1515388927
 10
189.9078748504
 20
24.8836341331
 10
189.5462153775
 20
25.698645883
 10
189.2621093986
 20
26.5905399983
 10
189.0576609633
 20
27.5527135625
 10
188.9343834071
 20
28.5780426073
 10
188.8931888139
 20
29.6589359165
  0
LWPOLYLINE
  5
2C9
330
1F
100
AcDbEntity
  8
0
  6
Continuous
 62
     7
370
     0
100
AcDbPolyline
 90
        8
 70
   128
 43
0.0
 10
202.6022213416
 20
29.0823476898
 10
202.6430550523
 20
28.3865057214
 10
202.7648564811
 20
27.7497148444
 10
202.9655423223
 20
27.182871024
 10
203.2416782663
 20
26.6956730032
 10
203.5885399148
 20
26.2964571346
 10
204.0001921355
 20
25.992053502
 10
204.0004664192
 20
25.9918951099
  0
LWPOLYLINE
  5
2CA
330
1F
100
AcDbEntity
  8
0
  6
Continuous
 62
     7
370
     0
100
AcDbPolyline
 90
       19
 70
   128
 43
0.0
 10
210.7499180575
 20
37.6835551675
 10
210.280792682
 20
37.8877789105
 10
209.7616776868
 20
37.9886432318
 10
209.2017291455
 20
37.9842634155
 10
208.6105279751
 20
37.8747148467
 10
207.9981899544
 20
37.661871426
 10
207.3751922384
 20
37.3493757619
 10
206.7521945224
 20
36.9425735737
 10
206.1398565017
 20
36.4484265645
 10
205.5486553313
 20
35.8753887913
 10
204.98870679
 20
35.2332657829
 10
204.4695917948
 20
34.5330440458
 10
204.0001921355
 20
33.7867045999
 10
203.5885399148
 20
33.0070174301
 10
203.2416782663
 20
32.2073236264
 10
202.9655423223
 20
31.401305831
 10
202.7648564811
 20
30.6027550704
 10
202.6430550523
 20
29.8253352571
 10
202.6022213416
 20
29.0823476898
  0
LWPOLYLINE
  5
2CB
330
1F
100
AcDbEntity
  8
0
  6
Continuous
 62
     7
370
     0
100
AcDbPolyline
 90
       14
 70
   128
 43
0.0
 10
193.5172702524
 20
26.3232992887
 10
193.4439834683
 20
26.7127234324
 10
193.3278965595
 20
27.6869617192
 10
193.2954724621
 20
28.7174232889
 10
193.3469871063
 20
29.7953228563
 10
193.4820005842
 20
30.9114706606
 10
193.6993637358
 20
32.0563522428
 10
193.9972214411
 20
33.2202062849
 10
194.3730356697
 20
34.3931112659
 10
194.8236019438
 20
35.5650677796
 10
195.3450796321
 20
36.7260840842
 10
195.9330222419
 20
37.8662627922
 10
196.5824182496
 20
38.9758845175
 10
197.2877312715
 20
40.0454877199
  0
LWPOLYLINE
  5
2CC
330
1F
100
AcDbEntity
  8
0
  6
Continuous
 62
     7
370
     0
100
AcDbPolyline
 90
       18
 70
   128
 43
0.0
 10
194.0290660193
 20
23.3933715878
 10
193.7792023792
 20
23.7612104012
 10
193.3809627345
 20
24.5016910947
 10
193.0609101036
 20
25.3251579494
 10
192.8217036893
 20
26.2247655994
 10
192.6653322959
 20
27.1930371769
 10
192.5930958902
 20
28.2219251754
 10
192.6055944065
 20
29.3028773965
 10
192.7027237945
 20
30.4269093376
 10
192.8836773373
 20
31.5846786688
 10
193.1469502607
 20
32.7665621586
 10
193.4903548798
 20
33.9627365428
 10
193.9110370628
 20
35.1632596073
 10
194.4055005968
 20
36.3581540267
 10
194.9696341885
 20
37.5374858798
 10
195.598750318
 20
38.6914555213
 10
196.2876194835
 20
39.8104698221
 10
197.030516299
 20
40.8852296189
  0
LINE
  5
2CD
330
1F
100
AcDbEntity
  8
0
  6
Continuous
 62
     7
370
     0
100
AcDbLine
 10
200.0224397445
 20
42.2862501863
 30
0.0
 11
200.0655994345
 21
42.3314769484
 31
0.0
  0
ARC
  5
2CE
330
1F
100
AcDbEntity
  8
0
  6
Continuous
 62
     7
370
     0
100
AcDbCircle
 10
210.1896795361
 20
32.9924607537
 30
0.0
 40
14.48276781207055
100
AcDbArc
 50
110.0665409331
 51
139.2901057068
  0
LWPOLYLINE
  5
2CF
330
1F
100
AcDbEntity
  8
0
  6
Continuous
 62
     7
370
     0
100
AcDbPolyline
 90
       12
 70
   128
 43
0.0
 10
198.3747093606
 20
42.5573931362
 10
199.242791865
 20
43.4837651804
 10
200.1411716973
 20
44.3332388457
 10
201.0621712164
 20
45.0985522418
 10
201.9979190868
 20
45.7731666491
 10
202.9404178409
 20
46.3513154082
 10
203.8816126357
 20
46.8280572997
 10
204.8134595353
 20
47.1993182452
 10
205.7279946169
 20
47.4619251166
 10
206.6174017803
 20
47.6136342364
 10
207.474079611
 20
47.6531479224
 10
208.0136728708
 20
47.6180462253
  0
LINE
  5
2D0
330
1F
100
AcDbEntity
  8
0
  6
Continuous
 62
     7
370
     0
100
AcDbLine
 10
184.4068246005
 20
40.0315435152
 30
0.0
 11
184.7129885277
 21
39.6608084593
 31
0.0
  0
LINE
  5
2D1
330
1F
100
AcDbEntity
  8
0
  6
Continuous
 62
     7
370
     0
100
AcDbLine
 10
184.4068246005
 20
32.2674333675
 30
0.0
 11
184.7129885277
 21
32.954966836
 31
0.0
  0
LINE
  5
2D2
330
1F
100
AcDbEntity
  8
0
  6
Continuous
 62
     7
370
     0
100
AcDbLine
 10
185.4488988444
 20
33.3797988191
 30
0.0
 11
184.7129957717
 21
32.9549710179
 31
0.0
  0
LINE
  5
2D3
330
1F
100
AcDbEntity
  8
0
  6
Continuous
 62
     7
370
     0
100
AcDbLine
 10
185.3823232874
 20
34.1230247869
 30
0.0
 11
184.0730518533
 21
33.3671984762
 31
0.0
  0
LINE
  5
2D4
330
1F
100
AcDbEntity
  8
0
  6
Continuous
 62
     7
370
     0
100
AcDbLine
 10
180.8959730217
 20
34.9416074359
 30
0.0
 11
180.5994857475
 21
34.445545818
 31
0.0
  0
LINE
  5
2D5
330
1F
100
AcDbEntity
  8
0
  6
Continuous
 62
     7
370
     0
100
AcDbLine
 10
182.7277906326
 20
35.9990932334
 30
0.0
 11
180.8960336078
 21
34.9416424115
 31
0.0
  0
LINE
  5
2D6
330
1F
100
AcDbEntity
  8
0
  6
Continuous
 62
     7
370
     0
100
AcDbLine
 10
182.7277906326
 20
35.9990932334
 30
0.0
 11
182.8491007871
 21
35.9373427201
 31
0.0
  0
OLE2FRAME
  5
2D7
330
1F
100
AcDbEntity
  8
0
100
AcDbOle2Frame
 70
     2
  3
Paintbrush-Bild
 10
13.8511154363
 20
38.264191557
 30
0.0
 11
51.6290888628
 21
31.9806341108
 31
0.0
 71
     2
 72
     0
 73
     1
 90
    12928
310
80552BED0767C5B32B40DDAF6807D121434000000000000000006FFBDDFB85D0
310
4940DDAF6807D121434000000000000000006FFBDDFB85D04940416F4BD60AFB
310
3F4000000000000000002BED0767C5B32B40416F4BD60AFB3F40000000000000
310
0000000000000100000000010000010000000100000000000100000000320000
310
D0CF11E0A1B11AE1000000000000000000000000000000003E000300FEFF0900
310
0600000000000000000000000100000001000000000000000010000002000000
310
01000000FEFFFFFF0000000000000000FFFFFFFFFFFFFFFFFFFFFFFFFFFFFFFF
310
FFFFFFFFFFFFFFFFFFFFFFFFFFFFFFFFFFFFFFFFFFFFFFFFFFFFFFFFFFFFFFFF
310
FFFFFFFFFFFFFFFFFFFFFFFFFFFFFFFFFFFFFFFFFFFFFFFFFFFFFFFFFFFFFFFF
310
FFFFFFFFFFFFFFFFFFFFFFFFFFFFFFFFFFFFFFFFFFFFFFFFFFFFFFFFFFFFFFFF
310
FFFFFFFFFFFFFFFFFFFFFFFFFFFFFFFFFFFFFFFFFFFFFFFFFFFFFFFFFFFFFFFF
310
FFFFFFFFFFFFFFFFFFFFFFFFFFFFFFFFFFFFFFFFFFFFFFFFFFFFFFFFFFFFFFFF
310
FFFFFFFFFFFFFFFFFFFFFFFFFFFFFFFFFFFFFFFFFFFFFFFFFFFFFFFFFFFFFFFF
310
FFFFFFFFFFFFFFFFFFFFFFFFFFFFFFFFFFFFFFFFFFFFFFFFFFFFFFFFFFFFFFFF
310
FFFFFFFFFFFFFFFFFFFFFFFFFFFFFFFFFFFFFFFFFFFFFFFFFFFFFFFFFFFFFFFF
310
FFFFFFFFFFFFFFFFFFFFFFFFFFFFFFFFFFFFFFFFFFFFFFFFFFFFFFFFFFFFFFFF
310
FFFFFFFFFFFFFFFFFFFFFFFFFFFFFFFFFFFFFFFFFFFFFFFFFFFFFFFFFFFFFFFF
310
FFFFFFFFFFFFFFFFFFFFFFFFFFFFFFFFFFFFFFFFFFFFFFFFFFFFFFFFFFFFFFFF
310
FFFFFFFFFFFFFFFFFFFFFFFFFFFFFFFFFFFFFFFFFFFFFFFFFFFFFFFFFFFFFFFF
310
FFFFFFFFFFFFFFFFFFFFFFFFFFFFFFFFFFFFFFFFFFFFFFFFFFFFFFFFFFFFFFFF
310
FDFFFFFFFEFFFFFFFEFFFFFFFEFFFFFF05000000060000000700000008000000
310
090000000A0000000B0000000C0000000D0000000E0000000F00000010000000
310
11000000120000001300000014000000150000001600000017000000FEFFFFFF
310
FFFFFFFFFFFFFFFFFFFFFFFFFFFFFFFFFFFFFFFFFFFFFFFFFFFFFFFFFFFFFFFF
310
FFFFFFFFFFFFFFFFFFFFFFFFFFFFFFFFFFFFFFFFFFFFFFFFFFFFFFFFFFFFFFFF
310
FFFFFFFFFFFFFFFFFFFFFFFFFFFFFFFFFFFFFFFFFFFFFFFFFFFFFFFFFFFFFFFF
310
FFFFFFFFFFFFFFFFFFFFFFFFFFFFFFFFFFFFFFFFFFFFFFFFFFFFFFFFFFFFFFFF
310
FFFFFFFFFFFFFFFFFFFFFFFFFFFFFFFFFFFFFFFFFFFFFFFFFFFFFFFFFFFFFFFF
310
FFFFFFFFFFFFFFFFFFFFFFFFFFFFFFFFFFFFFFFFFFFFFFFFFFFFFFFFFFFFFFFF
310
FFFFFFFFFFFFFFFFFFFFFFFFFFFFFFFFFFFFFFFFFFFFFFFFFFFFFFFFFFFFFFFF
310
FFFFFFFFFFFFFFFFFFFFFFFFFFFFFFFFFFFFFFFFFFFFFFFFFFFFFFFFFFFFFFFF
310
FFFFFFFFFFFFFFFFFFFFFFFFFFFFFFFFFFFFFFFFFFFFFFFFFFFFFFFFFFFFFFFF
310
FFFFFFFFFFFFFFFFFFFFFFFFFFFFFFFFFFFFFFFFFFFFFFFFFFFFFFFFFFFFFFFF
310
FFFFFFFFFFFFFFFFFFFFFFFFFFFFFFFFFFFFFFFFFFFFFFFFFFFFFFFFFFFFFFFF
310
FFFFFFFFFFFFFFFFFFFFFFFFFFFFFFFFFFFFFFFFFFFFFFFFFFFFFFFFFFFFFFFF
310
FFFFFFFFFFFFFFFFFFFFFFFFFFFFFFFFFFFFFFFFFFFFFFFFFFFFFFFFFFFFFFFF
310
52006F006F007400200045006E00740072007900000000000000000000000000
310
0000000000000000000000000000000000000000000000000000000000000000
310
16000500FFFFFFFFFFFFFFFF020000000A00030000000000C000000000000046
310
000000000000000000000000B00AA09D5BD8D10103000000C000000000000000
310
01004F006C006500000000000000000000000000000000000000000000000000
310
0000000000000000000000000000000000000000000000000000000000000000
310
0A000200FFFFFFFFFFFFFFFFFFFFFFFF00000000000000000000000000000000
310
0000000000000000000000000000000000000000000000001400000000000000
310
010043006F006D0070004F0062006A0000000000000000000000000000000000
310
0000000000000000000000000000000000000000000000000000000000000000
310
120002010100000003000000FFFFFFFF00000000000000000000000000000000
310
0000000000000000000000000000000000000000010000004D00000000000000
310
01004F006C006500310030004E00610074006900760065000000000000000000
310
0000000000000000000000000000000000000000000000000000000000000000
310
1A000200FFFFFFFFFFFFFFFFFFFFFFFF00000000000000000000000000000000
310
0000000000000000000000000000000000000000040000002426000000000000
310
FEFFFFFF02000000FEFFFFFFFFFFFFFFFFFFFFFFFFFFFFFFFFFFFFFFFFFFFFFF
310
FFFFFFFFFFFFFFFFFFFFFFFFFFFFFFFFFFFFFFFFFFFFFFFFFFFFFFFFFFFFFFFF
310
FFFFFFFFFFFFFFFFFFFFFFFFFFFFFFFFFFFFFFFFFFFFFFFFFFFFFFFFFFFFFFFF
310
FFFFFFFFFFFFFFFFFFFFFFFFFFFFFFFFFFFFFFFFFFFFFFFFFFFFFFFFFFFFFFFF
310
FFFFFFFFFFFFFFFFFFFFFFFFFFFFFFFFFFFFFFFFFFFFFFFFFFFFFFFFFFFFFFFF
310
FFFFFFFFFFFFFFFFFFFFFFFFFFFFFFFFFFFFFFFFFFFFFFFFFFFFFFFFFFFFFFFF
310
FFFFFFFFFFFFFFFFFFFFFFFFFFFFFFFFFFFFFFFFFFFFFFFFFFFFFFFFFFFFFFFF
310
FFFFFFFFFFFFFFFFFFFFFFFFFFFFFFFFFFFFFFFFFFFFFFFFFFFFFFFFFFFFFFFF
310
FFFFFFFFFFFFFFFFFFFFFFFFFFFFFFFFFFFFFFFFFFFFFFFFFFFFFFFFFFFFFFFF
310
FFFFFFFFFFFFFFFFFFFFFFFFFFFFFFFFFFFFFFFFFFFFFFFFFFFFFFFFFFFFFFFF
310
FFFFFFFFFFFFFFFFFFFFFFFFFFFFFFFFFFFFFFFFFFFFFFFFFFFFFFFFFFFFFFFF
310
FFFFFFFFFFFFFFFFFFFFFFFFFFFFFFFFFFFFFFFFFFFFFFFFFFFFFFFFFFFFFFFF
310
FFFFFFFFFFFFFFFFFFFFFFFFFFFFFFFFFFFFFFFFFFFFFFFFFFFFFFFFFFFFFFFF
310
FFFFFFFFFFFFFFFFFFFFFFFFFFFFFFFFFFFFFFFFFFFFFFFFFFFFFFFFFFFFFFFF
310
FFFFFFFFFFFFFFFFFFFFFFFFFFFFFFFFFFFFFFFFFFFFFFFFFFFFFFFFFFFFFFFF
310
FFFFFFFFFFFFFFFFFFFFFFFFFFFFFFFFFFFFFFFFFFFFFFFFFFFFFFFFFFFFFFFF
310
0100000200000000000000000000000000000000000000000000000000000000
310
0000000000000000000000000000000000000000000000000000000000000000
310
0100FEFF030A0000FFFFFFFF0A00030000000000C00000000000004607000000
310
5042727573680007000000504272757368000700000050427275736800F439B2
310
7100000000000000000000000000000000000000000000000000000000000000
310
0000000000000000000000000000000000000000000000000000000000000000
310
0000000000000000000000000000000000000000000000000000000000000000
310
0000000000000000000000000000000000000000000000000000000000000000
310
0000000000000000000000000000000000000000000000000000000000000000
310
0000000000000000000000000000000000000000000000000000000000000000
310
0000000000000000000000000000000000000000000000000000000000000000
310
0000000000000000000000000000000000000000000000000000000000000000
310
0000000000000000000000000000000000000000000000000000000000000000
310
0000000000000000000000000000000000000000000000000000000000000000
310
0000000000000000000000000000000000000000000000000000000000000000
310
0000000000000000000000000000000000000000000000000000000000000000
310
20260000424D0E260000000000003E00000028000000B40200006E0000000100
310
01000000000000000000130B0000130B00000200000002000000000000FFFFFF
310
FFFFFFFFFFFFFFFFFFFFFFFFFFFFFFFFFFFFFFFFFFFFFFFFFFFFFFFFFFFFFFFF
310
FFFFFFFFFFFFFFFFFFFFFFFFFFFFFFFFFFFFFFFFFFFFFFFFFFFFFFFFFFFFFFFF
310
FFFFFFFFFFFFFFFFFFFFFFFFFFFFFFFFFFFFFFFFFFFFFFFFF000FFFFFFFFFFFF
310
FFFFFFFFFFFFFFFFFFFFFFFFFFFFFFFFFFFFFFFFFFFFFFFFFFFFFFFFFFFFFFFF
310
FFFFFFFFFFFFFFFFFFFFFFFFFFFFFFFFFFFFFFFFFFFFFFFFFFFFFFFFFFFFFFFF
310
FFFFFFFFFFFFFFFFFFFFFFFFFFFFFFFFF000FFFFFFFFFFFFFFFFFFFFFFFFFFFF
310
FFFFFFFFFFFFFFFFFFFFFFFFFFFFFFFFFFFFFFFFFFFFFFFFFFFFFFFFFFFFFFFF
310
FFFFFFFFFFFFFFFFFFFFFFFFFFFFFFFFFFFFFFFFFFFFFFFFFFFFFFFFFFFFFFFF
310
FFFFFFFFFFFFFFFFF000FFFFFFFFFFFFFFFFFFFFFFFFFFFFFFFFFFFFFFFFFFFF
310
FFFFFFFFFFFFFFFFFFFFFFFFFFFFFFFFFFFFFFFFFFFFFFFFFFFFFFFFFFFFFFFF
310
FFFFFFFFFFFFFFFFFFFFFFFFFFFFFFFFFFFFFFFFFFFFFFFFFFFFFFFFFFFFFFFF
310
F000FFFFFFFFFFFFFFFFFFFFFFFFFFFFFFFFFFFFFFFFFFFFFFFFFFFFFFFFFFFF
310
FFFFFFFFFFFFFFFFFFFFFFFFFFFFFFFFFFFFFFFFFFFFFFFFFFFFFFFFFFFFFFFF
310
FFFFFFFFFFFFFFFFFFFFFFFFFFFFFFFFFFFFFFFFFFFFFFFFF000FFFFFFFFFFFF
310
FFFFFFFFFFFFFFFFFFFFFFFFFFFFFFFFFFFFFFFFFFFFFFFFFFFFFFFFFFFFFFFF
310
FFFFFFFFFFFFFFFFFFFFFFFFFFFFFFFFFFFFFFFFFFFFFFFFFFFFFFFFFFFFFFFF
310
FFFFFFFFFFFFFFFFFFFFFFFFFFFFFFFFF000FFFFFFFFFFFFFFFFFFFFFFFFFFFF
310
FFFFFFFFFFFFFFFFFFFFFFFFFFFFFFFFFFFFFFFFFFFFFFFFFFFFFFFFFFFFFFFF
310
FFFFFFFFFFFFFFFFFFFFFFFFFFFFFFFFFFFFFFFFFFFFFFFFFFFFFFFFFFFFFFFF
310
FFFFFFFFFFFFFFFFF000FFFFFFFFFFFFFFFFFFFFFFFFFFFFFFFFFFFFFFFFFFFF
310
FFFFFFFFFFFFFFFFFFFFFFFFFFFFFFFFFFFFFFFFFFFFFFFFFFFFFFFFFFFFFFFF
310
FFFFFFFFFFFFFFFFFFFFFFFFFFFFFFFFFFFFFFFFFFFFFFFFFFFFFFFFFFFFFFFF
310
F000FFFFFFFFFFFFFFFFFFFFFFFFFFFFFFFFFFFFFFFFFFFFFFFFFFFFFFFFFFFF
310
FFFFFFFFFFFFFFFFFFFFFFFFFFFFFFFFFFFFFFFFFFFFFFFFFFFFFFFFFFFFFFFF
310
FFFFFFFFFFFFFFFFFFFFFFFFFFFFFFFFFFFFFFFFFFFFFFFFF000FFFFFFFFFFFF
310
FFFFFFFFFFFFFFFFFFFFFFFFFFFFFFFFFFFFFFFFFFFFFFFFFFFFFFFFFFFFFFFF
310
FFFFFFFFFFFFFFFFFFFFFFFFFFFFFFFFFFFFFFFFFFFFFFFFFFFFFFFFFFFFFFFF
310
FFFFFFFFFFFFFFFFFFFFFFFFFFFFFFFFF000FFFFFFFFFFFFFFFFFFFFFFFFFFFF
310
FFFFFFFFFFFFFFFFFFFFFFFFFFFFFFFFFFFFFFFFFFFFFFFFFFFFFFFFFFFFFFFF
310
FFFFFFFFFFFFFFFFFFFFFFFFFFFFFFFFFFFFFFFFFFFFFFFFFFFFFFFFFFFFFFFF
310
FFFFFFFFFFFFFFFFF000FFFFFFFFFFFFFFFFFFFFFFFFFFFFFFFFFFFFFFFFFFFF
310
FFFFFFFFFFFFFFFFFFFFFFFFFFFFFFFFFFFFFFFFFFFFFFFFFFFFFFFFFFFFFFFF
310
FFFFFFFFFFFFFFFFFFFFFFFFFFFFFFFFFFFFFFFFFFFFFFFFFFFFFFFFFFFFFFFF
310
F000FFFFFFFFFFFFFFFFFFFFFFFFFFFFFFFFFFFFFFFFFFFFFFFFFFFFFFFFFFFF
310
FFFFFFFFFFFFFFFFFFFFFFFFFFFFFFFFFFFFFFFFFFFFFFFFFFFFFFFFFFFFFFFF
310
FFFFFFFFFFFFFFFFFFFFFFFFFFFFFFFFFFFFFFFFFFFFFFFFF000FFFFFFFFFFFF
310
FFFFFFFFFFFFFFFFFFFFFFFFFFFFFFFFFFFFFFFFFFFFFFFFFFFFFFFFFFFFFFFF
310
FFFFFFFFFFFFFFFFFFFFFFFFFFFFFFFFFFFFFFFFFFFFFFFFFFFFFFFFFFFFFFFF
310
FFFFFFFFFFFFFFFFFFFFFFFFFFFFFFFFF000FFFFFFFFFFFFFFFFFFFFFFFFFFFF
310
FFFFFFFFFFFFFFFFFFFFFFFFFFFFFFFFFFFFFFFFFFFFFFFFFFFFFFFFFFFFFFFF
310
FFFFFFFFFFFFFFFFFFFFFFFFFFFFFFFFFFFFFFFFFFFFFFFFFFFFFFFFFFFFFFFF
310
FFFFFFFFFFFFFFFFF000FFFFFFFFFFFFFFFFFFFFFFFFFFFFFFFFFFFFFFFFFFFF
310
FFFFFFFFFFFFFFFFFFFFFFFFFFFFFFFFFFFFFFFFFFFFFFFFFFFFFFFFFFFFFFFF
310
FFFFFFFFFFFFFFFFFFFFFFFFFFFFFFFFFFFFFFFFFFFFFFFFFFFFFFFFFFFFFFFF
310
F000FFFFFFFFFFFFFFFFFFFFFFFFFFFFFFFFFFFFFFFFFFFFFFFFFFFFFFFFFFFF
310
FFFFFFFFFFFFFFFFFFFFFFFFFFFFFFFFFFFFFFFFFFFFFFFFFFFFFFFFFFFFFFFF
310
FFFFFFFFFFFFFFFFFFFFFFFFFFFFFFFFFFFFFFFFFFFFFFFFF000FFFFFFFFFFFF
310
FFFFFFFFFFFFFFFFFFFFFFFFFFFFFFFFFFFFFFFFFFFFFFFFFFFFFFFFFFFFFFFF
310
FFFFFFFFFFFFFFFFFFFFFFFFFFFFFFFFFFFFFFFFFFFFFFFFFFFFFFFFFFFFFFFF
310
FFFFFFFFFFFFFFFFFFFFFFFFFFFFFFFFF000FFFFFFFFFFFFFFFFFFFFFFFFFFFF
310
FFFFFFFFFFFFFFFFFFFFFFFFFFFFFFFFFFFFFFFFFFFFFFFFFFFFFFFFFFFFFFFF
310
FFFFFFFFFFFFFFFFFFFFFFFFFFFFFFFFFFFFFFFFFFFFFFFFFFFFFFFFFFFFFFFF
310
FFFFFFFFFFFFFFFFF000FFFFF80003FFFFFFFFFFFFFFFFFFFFFFFFFFFFFFFFFF
310
FFFFF00007FFFFFFFFFF00007FFFFFF800000000000000007FFFFFFFFFFFFFFF
310
FFFFFFFC001FFFFFFFFFFFFFFC001FFFFFFFFFFFFFFFFFFFFFFFFFFE0007FFFF
310
F000FFFF8000007FFFFFFFF8000FFFFFC0007FFFFF80007FFFFF0000007FFFFF
310
FFF8000007FFFFF800000000000000007FFFFFF0001FFFFFFFFFFFC00001FFFF
310
FFFFFFFFC00001FFFFFFFF000000000003FFFFE000007FFFF000FFFE0000000F
310
FFFFFFF0000FFFFF80007FFFFF80007FFFFC0000001FFFFFFFC0000001FFFFF8
310
00000000000000007FFFFFF0001FFFFFFFFFFE0000003FFFFFFFFFFE0000003F
310
FFFFFF000000000003FFFF0000000FFFF000FFF800000003FFFFFFF00007FFFF
310
80007FFFFF80007FFFF000000007FFFFFF000000003FFFF80000000000000000
310
7FFFFFF0001FFFFFFFFFF80000000FFFFFFFFFF80000000FFFFFFF0000000000
310
03FFFC00000003FFF000FFE000000000FFFFFFF00007FFFF80003FFFFF80007F
310
FFC000000001FFFFFC000000001FFFF800000000000000007FFFFFF0001FFFFF
310
FFFFE000000003FFFFFFFFE000000003FFFFFF000000000003FFF000000000FF
310
F000FF80000000007FFFFFF00007FFFF80003FFFFF80007FFF8000000000FFFF
310
F80000000007FFF800000000000000007FFFFFF0001FFFFFFFFFC000000001FF
310
FFFFFFC000000001FFFFFF000000000003FFC0000000007FF000FF0000000000
310
3FFFFFE00007FFFF00003FFFFF80007FFE00000000003FFFF00000000003FFF8
310
00000000000000007FFFFFF0001FFFFFFFFF8000000000FFFFFFFF8000000000
310
FFFFFF000000000003FF80000000003FF000FE00000000001FFFFFE00003FFFF
310
00003FFFFF80007FFC00000000001FFFE00000000001FFF8000001FFFE000000
310
7FFFFFF0001FFFFFFFFE00000000003FFFFFFE00000000003FFFFF0000000000
310
03FF00000000001FF000FC00000000000FFFFFE00003FFFF00001FFFFF80007F
310
F800000000001FFFC00000000000FFF8000001FFFE0000007FFFFFF0001FFFFF
310
FFFC00000000001FFFFFFC00000000001FFFFF000000000003FE00000000000F
310
F000F8000000000007FFFFE00003FFFF00001FFFFF80007FF800000000000FFF
310
800000000000FFF8000001FFFE0000007FFFFFF0001FFFFFFFF800000000000F
310
FFFFF800000000000FFFFF000000000003FC000000000007F000F80000000000
310
03FFFFC00003FFFE00001FFFFF80007FF0000000000007FF0000000000007FF8
310
000001FFFE0000007FFFFFF0001FFFFFFFF0000000000007FFFFF00000000000
310
07FFFF000000000003F8000000000003F000F0000000000003FFFFC00001FFFE
310
00001FFFFF80007FE0000000000007FE0000000000003FF8000001FFFE000000
310
7FFFFFF0001FFFFFFFF0000000000007FFFFF0000000000007FFFF0000000000
310
03F800001F800003F000E00001FFF00001FFFFC00001FFFE00000FFFFF80007F
310
E00001FFE00003FE00001FFF00003FF8000001FFFE0000007FFFFFF0001FFFFF
310
FFE000003E000003FFFFE000003E000003FFFF000000000003F00001FFF80001
310
F000E00007FFFC0001FFFFC00001FFFE00000FFFFF80007FC0000FFFFC0003FC
310
0000FFFFC0001FF8000001FFFE0000007FFFFFF0001FFFFFFFC00003FFE00001
310
FFFFC00003FFE00001FFFF0001FFFFFFFFF00007FFFE0001F000E0000FFFFF00
310
00FFFF800001FFFC00000FFFFF80007FC0001FFFFE0001FC0001FFFFE0001FF8
310
000001FFFE0000007FFFFFF0001FFFFFFF80000FFFF80000FFFF80000FFFF800
310
00FFFF0003FFFFFFFFE0000FFFFF8000F000C0003FFFFF8000FFFF800000FFFC
310
000007FFFF80007F80003FFFFF0001FC0003FFFFF0001FF8000001FFFE000000
310
7FFFFFF0001FFFFFFF80003FFFFE0000FFFF80003FFFFE0000FFFF0003FFFFFF
310
FFE0003FFFFF8000F000C0003FFFFF8000FFFF800000FFFC000007FFFF80007F
310
80007FFFFF8001F80007FFFFF8000FF8000001FFFE0000007FFFFFF0001FFFFF
310
FF00007FFFFF00007FFF00007FFFFF00007FFF0003FFFFFFFFE0003FFFFFC000
310
F000C0007FFFFFC000FFFF000000FFFC000007FFFF80007F8000FFFFFF8000F8
310
000FFFFFF8000FF8000001FFFE0000007FFFFFF0001FFFFFFF0000FFFFFF8000
310
7FFF0000FFFFFF80007FFF0003FFFFFFFFC0007FFFFFC00070008000FFFFFFC0
310
00FFFF000000FFF8000007FFFF80007F8000FFFFFF8000F8000FFFFFF8000FF8
310
000001FFFE0000007FFFFFF0001FFFFFFE0001FFFFFFC0003FFE0001FFFFFFC0
310
003FFF0003FFFFFFFFC0007FFFFFE00070008000FFFFFFC0007FFF0000007FF8
310
000003FFFF80007F0001FFFFFF8000F8000FFFFFF8000FF8000001FFFE000000
310
7FFFFFF0001FFFFFFE0001FFFFFFC0003FFE0001FFFFFFC0003FFF0003FFFFFF
310
FFC000FFFFFFE00070008000FFFFFFC0007FFF0000007FF8000003FFFF80007F
310
0001FFFFFF8000F8001FFFFFF8000FF8000001FFFE0000007FFFFFF0001FFFFF
310
FE0003FFFFFFE0003FFE0003FFFFFFE0003FFF0003FFFFFFFFC000FFFFFFE000
310
70008000FFFFFFC0007FFE0000007FF8000003FFFF80007F0001FFFFFF8000F0
310
001FFFFFF8000FF8000001FFFE0000007FFFFFF0001FFFFFFC0003FFFFFFE000
310
1FFC0003FFFFFFE0001FFF0003FFFFFFFFC000FFFFFFC00070008000FFFFFF80
310
007FFE0000007FF0000003FFFF80007F0001FFFFFF0000F0001FFFFFF8000FF8
310
000001FFFE0000007FFFFFF0001FFFFFFC0007FFFFFFF0001FFC0007FFFFFFF0
310
001FFF0003FFFFFFFFC000FFFFFFC00070008001FFFFFF0000FFFE0000003FF0
310
000001FFFF80007F0001FFFFFF0000F8001FFFFFF0000FF8000001FFFE000000
310
7FFFFFF0001FFFFFFC0007FFFFFFF0001FFC0007FFFFFFF0001FFF0003FFFFFF
310
FFC001FFFFFF80007000FFFFFFFFFE0000FFFE0008003FF0008001FFFF80007F
310
FFFFFFFFFC0000FFFFFFFFFFE0000FF8000001FFFE0000007FFFFFF0001FFFFF
310
F8000FFFFFFFF8000FF8000FFFFFFFF8000FFF0003FFFFFFFFFFFFFFFFFF0000
310
7000FFFFFFFFFC0000FFFC0008003FF0008001FFFF80007FFFFFFFFFF80001FF
310
FFFFFFFF80000FF8000001FFFE0000007FFFFFF0001FFFFFF8000FFFFFFFF800
310
0FF8000FFFFFFFF8000FFF0003FFFFFFFFFFFFFFFFFE0000F000FFFFFFFFE000
310
00FFFC000C003FE000C001FFFF80007FFFFFFFFFC00001FFFFFFFFFE00001FF8
310
000001FFFE0000007FFFFFF0001FFFFFF8000FFFFFFFF8000FF8000FFFFFFFF8
310
000FFF0003FFFFFFFFFFFFFFFFF00000F000FFFFFFFE000001FFFC000C001FE0
310
00C000FFFF80007FFFFFFFFE000001FFFFFFFFE000001FF80FFFFFFFFFFFFFC0
310
7FFFFFF0001FFFFFF8000FFFFFFFF8000FF8000FFFFFFFF8000FFF0003FFFFFF
310
FFFFFFFFFF800000F000FFFFFFC0000001FFFC001C001FE001C000FFFF80007F
310
FFFFFF80000003FFFFFFF80000001FF80FFFFFFFFFFFFFC07FFFFFF0001FFFFF
310
F8001FFFFFFFFC000FF8001FFFFFFFFC000FFF0003FFFFFFFFFFFFFFF0000001
310
F000FFFFF800000001FFF8001C001FE001C000FFFF80007FFFFFF800000003FF
310
FFFF800000003FF80FFFFFFFFFFFFFC07FFFFFF0001FFFFFF8001FFFFFFFFC00
310
0FF8001FFFFFFFFC000FFF0003FFFFFFFFFFFFFE00000001F000FFFFC0000000
310
03FFF8001E001FC001E000FFFF80007FFFFF8000000007FFFFFC000000003FF8
310
0FFFFFFFFFFFFFC07FFFFFF0001FFFFFF8001FFFFFFFFC000FF8001FFFFFFFFC
310
000FFF0003FFFFFFFFFFFFE000000003F000FFFE0000000007FFF8001E000FC0
310
01E0007FFF80007FFFFE0000000007FFFFE0000000007FF80FFFFFFFFFFFFFC0
310
7FFFFFF0001FFFFFF0001FFFFFFFFC0007F0001FFFFFFFFC0007FF0003FFFFFF
310
FFFFFF0000000003F000FFF80000000007FFF8001E000FC003E0007FFF80007F
310
FFF0000000000FFFFF8000000000FFF80FFFFFFFFFFFFFC07FFFFFF0001FFFFF
310
F0001FFFFFFFFC0007F0001FFFFFFFFC0007FF0003FFFFFFFFFFFC0000000007
310
F000FFE0000000000FFFF0003E000FC003E0007FFF80007FFFC0000000001FFF
310
FE0000000001FFF80FFFFFFFFFFFFFC07FFFFFF0001FFFFFF0001FFFFFFFFC00
310
07F0001FFFFFFFFC0007FF0003FFFFFFFFFFF0000000000FF000FFC000000000
310
1FFFF0003F000F8003F0003FFF80007FFF80000000003FFFF80000000003FFF8
310
0FFFFFFFFFFFFFC07FFFFFF0001FFFFFF0001FFFFFFFFC0007F0001FFFFFFFFC
310
0007FF0003FFFFFFFFFFE0000000001FF000FF00000000007FFFF0003F000780
310
03F0003FFF80007FFF00000000007FFFF00000000007FFF80FFFFFFFFFFFFFC0
310
7FFFFFF0001FFFFFF0001FFFFFFFFC0007F0001FFFFFFFFC0007FF0003FFFFFF
310
FFFF80000000007FF000FE0000000000FFFFE0003F00078007F0003FFF80007F
310
FE0000000001FFFFE0000000001FFFF80FFFFFFFFFFFFFC07FFFFFF0001FFFFF
310
F0001FFFFFFFFC0007F0001FFFFFFFFC0007FF0003FFFFFFFFFF0000000000FF
310
F000FC0000000003FFFFE0007F00078007F0003FFF80007FFC0000000007FFFF
310
C0000000007FFFF80FFFFFFFFFFFFFC07FFFFFF0001FFFFFF8001FFFFFFFFC00
310
0FF8001FFFFFFFFC000FFF0003FFFFFFFFFE0000000003FFF000FC000000000F
310
FFFFE0007F80070007F8001FFF80007FF8000000001FFFFF8000000001FFFFF8
310
0FFFFFFFFFFFFFC07FFFFFF0001FFFFFF8001FFFFFFFFC000FF8001FFFFFFFFC
310
000FFF0003FFFFFFFFFC000000000FFFF000F8000000007FFFFFE0007F800700
310
07F8001FFF80007FF000000000FFFFFF800000000FFFFFF80FFFFFFFFFFFFFC0
310
7FFFFFF0001FFFFFF8000FFFFFFFF8000FF8000FFFFFFFF8000FFF0003FFFFFF
310
FFFC000000007FFFF000F800000007FFFFFFC0007F8003000FF8001FFF80007F
310
F000000007FFFFFF000000007FFFFFF80FFFFFFFFFFFFFC07FFFFFF0001FFFFF
310
F8000FFFFFFFF8000FF8000FFFFFFFF8000FFF0003FFFFFFFFF80000000FFFFF
310
F000F0000000FFFFFFFFC000FF8003000FF8001FFF80007FE0000000FFFFFFFF
310
0000000FFFFFFFF8000001FFFE0000007FFFFFF0001FFFFFF8000FFFFFFFF800
310
0FF8000FFFFFFFF8000FFF0003FFFFFFFFF8000000FFFFFFF000F000000FFFFF
310
FFFFC000FFC002000FF8000FFF80007FE000001FFFFFFFFE000001FFFFFFFFF8
310
000001FFFE0000007FFFFFF0001FFFFFF8000FFFFFFFF8000FF8000FFFFFFFF8
310
000FFF0003FFFFFFFFF000001FFFFFFFF000E00000FFFFFFFFFFC000FFC00200
310
0FFC000FFF80007FE00001FFFFFFFFFE00001FFFFFFFFFF8000001FFFE000000
310
7FFFFFF0001FFFFFFC000FFFFFFFF8001FFC000FFFFFFFF8001FFF0003FFFFFF
310
FFF00001FFFFFFFFF000E00007FFFFFFFFFF8000FFC000001FFC000FFF80007F
310
C0000FFFFFFFFFFE0000FFFFFFFFFFF8000001FFFE0000007FFFFFF0001FFFFF
310
FC0007FFFFFFF0001FFC0007FFFFFFF0001FFF0003FFFFFFFFF00007FFFFFFFF
310
F000E0001FFFFFFFFFFF8000FFC000001FFC000FFF80007FC0003FFFFFFFFFFE
310
0001FFFFFFFFFFF8000001FFFE0000007FFFFFF0001FFFFFFC0007FFFFFFF000
310
1FFC0007FFFFFFF0001FFF0003FFFFFFFFF0001FFFFFFFFFF000E0003FFFFF00
310
03FF8001FFE000001FFC0007FF80007FC0007FFFFF0007FC0003FFFFF0003FF8
310
000001FFFE0000007FFFFFF0001FFFFFFC0003FFFFFFE0001FFC0003FFFFFFE0
310
001FFF0003FFFFFFFFF0003FFFFFFFFFF000E0003FFFFF0001FF8001FFE00000
310
1FFE0007FF80007FC0007FFFFE0003FC0007FFFFE0003FF8000001FFFE000000
310
7FFFFFF0001FFFFFFE0003FFFFFFE0003FFE0003FFFFFFE0003FFF0003FFFFFF
310
FFF0003FFFFF8001F000E0003FFFFF0001FF0001FFE000001FFE0007FF80007F
310
C0007FFFFE0003FC0007FFFFE0003FF8000001FFFE0000007FFFFFF0001FFFFF
310
FE0001FFFFFFC0003FFE0001FFFFFFC0003FFF0003FFFFFFFFF0003FFFFF0001
310
F000E0003FFFFF0003FF0001FFE000003FFE0007FF80007FC0007FFFFE0003FC
310
0007FFFFE0003FF8000001FFFE0000007FFFFFF0001FFFFFFF0001FFFFFFC000
310
7FFF0001FFFFFFC0007FFF0003FFFFFFFFF0003FFFFF0001F000E0003FFFFE00
310
03FF0003FFF000003FFE0003FF80007FC0007FFFFC0003FE0007FFFFE0003FF8
310
000001FFFE0000007FFFFFF0001FFFFFFF0000FFFFFF80007FFF0000FFFFFF80
310
007FFF0003FFFFFFFFF0003FFFFF0001F000E0003FFFFE0003FF0003FFF00000
310
3FFF0003FF80007FC0007FFFFC0007FE0007FFFFC0003FF8000001FFFE000000
310
7FFFFFF0001FFFFFFF80007FFFFF0000FFFF80007FFFFF0000FFFF0003FFFFFF
310
FFF0003FFFFF0003F000E0003FFFFC0003FE0003FFF000003FFF0003FF80007F
310
E0003FFFF80007FE0003FFFFC0007FF8000001FFFE0000007FFFFFF0001FFFFF
310
FF80003FFFFE0000FFFF80003FFFFE0000FFFF0003FFFFFFFFF0001FFFFE0003
310
F000F0001FFFF80003FE0003FFF000007FFF0001FF80007FE0003FFFF00007FE
310
0001FFFF80007FF8000001FFFE0000007FFFFFF0001FFFFFFFC0000FFFF80001
310
FFFFC0000FFFF80001FFFF0003FFFFFFFFF0001FFFFC0003F000F0000FFFF000
310
07FE0007FFF800007FFF0001FF80007FE0001FFFE00007FF0000FFFE00007FF8
310
000001FFFE0000007FFFFFF0001FFFFFFFC00003FFE00001FFFFC00003FFE000
310
01FFFF0003FFFFFFFFF8000FFFF80003F000F00003FFC00007FC0007FFF80000
310
7FFF8001FF80007FF00007FF80000FFF00007FF80000FFF8000001FFFE000000
310
7F80000000000001FFE000003E000003FFFFE000003E000003FFFF0003FFFFFF
310
FFF80003FFE00007F000F800000000000FFC0007FFF800007FFF8001FF80007F
310
F000000000000FFF000000000000FFF8000001FFFE0000007F80000000000001
310
FFF0000000000007FFFFF0000000000007FFFF0003FFFFFFFFFC00007E000007
310
F000F800000000000FFC0007FFF80000FFFF8000FF80007FF800000000001FFF
310
800000000001FFF8000001FFFE0000007F80000000000001FFF800000000000F
310
FFFFF800000000000FFFFF0003FFFFFFFFFC00000000000FF000FC0000000000
310
1FFC0007FFFC0000FFFF8000FF80007FF800000000003FFFC00000000001FFF8
310
000001FFFE0000007F80000000000001FFF800000000000FFFFFF80000000000
310
0FFFFF0003FFFFFFFFFE00000000001FF000FE00000000003FF8000FFFFC0000
310
FFFF8000FF80007FFC00000000003FFFC00000000003FFF8000001FFFE000000
310
7F80000000000001FFFC00000000001FFFFFFC00000000001FFFFF0003FFFFFF
310
FFFF00000000001FF000FF00000000003FF8000FFFFC0000FFFFC000FF80007F
310
FE00000000007FFFE00000000007FFF8000001FFFE0000007F80000000000001
310
FFFE00000000003FFFFFFE00000000003FFFFF0003FFFFFFFFFF80000000003F
310
F000FF80000000007FF8000FFFFC0001FFFFC0007F80007FFF0000000000FFFF
310
F0000000000FFFF800000000000000007F80000000000001FFFF8000000000FF
310
FFFFFF8000000000FFFFFF0003FFFFFFFFFFC0000000007FF000FFC000000000
310
FFF8000FFFFE0001FFFFC0007F80007FFF8000000001FFFFF8000000001FFFF8
310
00000000000000007F80000000000001FFFFC000000001FFFFFFFFC000000001
310
FFFFFF0003FFFFFFFFFFE000000000FFF000FFE000000003FFF0001FFFFE0001
310
FFFFC0007F80007FFFC000000007FFFFFE000000003FFFF80000000000000000
310
7F80000000000001FFFFE000000003FFFFFFFFE000000003FFFFFF0003FFFFFF
310
FFFFF000000003FFF000FFF80000000FFFF0001FFFFE0001FFFFE0007F80007F
310
FFF00000000FFFFFFF00000000FFFFF800000000000000007F80000000000001
310
FFFFF80000000FFFFFFFFFF80000000FFFFFFF0003FFFFFFFFFFFC0000000FFF
310
F000FFFE0000003FFFF0001FFFFE0003FFFFE0003F80007FFFFC0000003FFFFF
310
FFC0000003FFFFF800000000000000007F80000000000001FFFFFE0000003FFF
310
FFFFFFFE0000003FFFFFFF0003FFFFFFFFFFFF0000003FFFF000FFFF800000FF
310
FFF0001FFFFF0003FFFFE0003F80007FFFFF000001FFFFFFFFF800001FFFFFF8
310
00000000000000007F80000000000001FFFFFFC00001FFFFFFFFFFFFC00001FF
310
FFFFFF0003FFFFFFFFFFFFC00000FFFFF000FFFFF8000FFFFFFFFFFFFFFFFFFF
310
FFFFFFFFFFFFFFFFFFFFF0001FFFFFFFFFFF0000FFFFFFF80000000000000000
310
7FFFFFFFFFFFFFFFFFFFFFFC001FFFFFFFFFFFFFFC001FFFFFFFFFFFFFFFFFFF
310
FFFFFFFC001FFFFFF000FFFFFFFFFFFFFFFFFFFFFFFFFFFFFFFFFFFFFFFFFFFF
310
FFFFFFFFFFFFFFFFFFFFFFFFFFFFFFFFFFFFFFFFFFFFFFFFFFFFFFFFFFFFFFFF
310
FFFFFFFFFFFFFFFFFFFFFFFFFFFFFFFFFFFFFFFFFFFFFFFFFFFFFFFFFFFFFFFF
310
F000FFFFFFFFFFFFFFFFFFFFFFFFFFFFFFFFFFFFFFFFFFFFFFFFFFFFFFFFFFFF
310
FFFFFFFFFFFFFFFFFFFFFFFFFFFFFFFFFFFFFFFFFFFFFFFFFFFFFFFFFFFFFFFF
310
FFFFFFFFFFFFFFFFFFFFFFFFFFFFFFFFFFFFFFFFFFFFFFFFF000FFFFFFFFFFFF
310
FFFFFFFFFFFFFFFFFFFFFFFFFFFFFFFFFFFFFFFFFFFFFFFFFFFFFFFFFFFFFFFF
310
FFFFFFFFFFFFFFFFFFFFFFFFFFFFFFFFFFFFFFFFFFFFFFFFFFFFFFFFFFFFFFFF
310
FFFFFFFFFFFFFFFFFFFFFFFFFFFFFFFFF000FFFFFFFFFFFFFFFFFFFFFFFFFFFF
310
FFFFFFFFFFFFFFFFFFFFFFFFFFFFFFFFFFFFFFFFFFFFFFFFFFFFFFFFFFFFFFFF
310
FFFFFFFFFFFFFFFFFFFFFFFFFFFFFFFFFFFFFFFFFFFFFFFFFFFFFFFFFFFFFFFF
310
FFFFFFFFFFFFFFFFF000FFFFFFFFFFFFFFFFFFFFFFFFFFFFFFFFFFFFFFFFFFFF
310
FFFFFFFFFFFFFFFFFFFFFFFFFFFFFFFFFFFFFFFFFFFFFFFFFFFFFFFFFFFFFFFF
310
FFFFFFFFFFFFFFFFFFFFFFFFFFFFFFFFFFFFFFFFFFFFFFFFFFFFFFFFFFFFFFFF
310
F000FFFFFFFFFFFFFFFFFFFFFFFFFFFFFFFFFFFFFFFFFFFFFFFFFFFFFFFFFFFF
310
FFFFFFFFFFFFFFFFFFFFFFFFFFFFFFFFFFFFFFFFFFFFFFFFFFFFFFFFFFFFFFFF
310
FFFFFFFFFFFFFFFFFFFFFFFFFFFFFFFFFFFFFFFFFFFFFFFFF000FFFFFFFFFFFF
310
FFFFFFFFFFFFFFFFFFFFFFFFFFFFFFFFFFFFFFFFFFFFFFFFFFFFFFFFFFFFFFFF
310
FFFFFFFFFFFFFFFFFFFFFFFFFFFFFFFFFFFFFFFFFFFFFFFFFFFFFFFFFFFFFFFF
310
FFFFFFFFFFFFFFFFFFFFFFFFFFFFFFFFF000FFFFFFFFFFFFFFFFFFFFFFFFFFFF
310
FFFFFFFFFFFFFFFFFFFFFFFFFFFFFFFFFFFFFFFFFFFFFFFFFFFFFFFFFFFFFFFF
310
FFFFFFFFFFFFFFFFFFFFFFFFFFFFFFFFFFFFFFFFFFFFFFFFFFFFFFFFFFFFFFFF
310
FFFFFFFFFFFFFFFFF000FFFFFFFFFFFFFFFFFFFFFFFFFFFFFFFFFFFFFFFFFFFF
310
FFFFFFFFFFFFFFFFFFFFFFFFFFFFFFFFFFFFFFFFFFFFFFFFFFFFFFFFFFFFFFFF
310
FFFFFFFFFFFFFFFFFFFFFFFFFFFFFFFFFFFFFFFFFFFFFFFFFFFFFFFFFFFFFFFF
310
F000FFFFFFFFFFFFFFFFFFFFFFFFFFFFFFFFFFFFFFFFFFFFFFFFFFFFFFFFFFFF
310
FFFFFFFFFFFFFFFFFFFFFFFFFFFFFFFFFFFFFFFFFFFFFFFFFFFFFFFFFFFFFFFF
310
FFFFFFFFFFFFFFFFFFFFFFFFFFFFFFFFFFFFFFFFFFFFFFFFF000FFFFFFFFFFFF
310
FFFFFFFFFFFFFFFFFFFFFFFFFFFFFFFFFFFFFFFFFFFFFFFFFFFFFFFFFFFFFFFF
310
FFFFFFFFFFFFFFFFFFFFFFFFFFFFFFFFFFFFFFFFFFFFFFFFFFFFFFFFFFFFFFFF
310
FFFFFFFFFFFFFFFFFFFFFFFFFFFFFFFFF000FFFFFFFFFFFFFFFFFFFFFFFFFFFF
310
FFFFFFFFFFFFFFFFFFFFFFFFFFFFFFFFFFFFFFFFFFFFFFFFFFFFFFFFFFFFFFFF
310
FFFFFFFFFFFFFFFFFFFFFFFFFFFFFFFFFFFFFFFFFFFFFFFFFFFFFFFFFFFFFFFF
310
FFFFFFFFFFFFFFFFF000FFFFFFFFFFFFFFFFFFFFFFFFFFFFFFFFFFFFFFFFFFFF
310
FFFFFFFFFFFFFFFFFFFFFFFFFFFFFFFFFFFFFFFFFFFFFFFFFFFFFFFFFFFFFFFF
310
FFFFFFFFFFFFFFFFFFFFFFFFFFFFFFFFFFFFFFFFFFFFFFFFFFFFFFFFFFFFFFFF
310
F000FFFFFFFFFFFFFFFFFFFFFFFFFFFFFFFFFFFFFFFFFFFFFFFFFFFFFFFFFFFF
310
FFFFFFFFFFFFFFFFFFFFFFFFFFFFFFFFFFFFFFFFFFFFFFFFFFFFFFFFFFFFFFFF
310
FFFFFFFFFFFFFFFFFFFFFFFFFFFFFFFFFFFFFFFFFFFFFFFFF000FFFFFFFFFFFF
310
FFFFFFFFFFFFFFFFFFFFFFFFFFFFFFFFFFFFFFFFFFFFFFFFFFFFFFFFFFFFFFFF
310
FFFFFFFFFFFFFFFFFFFFFFFFFFFFFFFFFFFFFFFFFFFFFFFFFFFFFFFFFFFFFFFF
310
FFFFFFFFFFFFFFFFFFFFFFFFFFFFFFFFF000FFFFFFFFFFFFFFFFFFFFFFFFFFFF
310
FFFFFFFFFFFFFFFFFFFFFFFFFFFFFFFFFFFFFFFFFFFFFFFFFFFFFFFFFFFFFFFF
310
FFFFFFFFFFFFFFFFFFFFFFFFFFFFFFFFFFFFFFFFFFFFFFFFFFFFFFFFFFFFFFFF
310
FFFFFFFFFFFFFFFFF000FFFFFFFFFFFFFFFFFFFFFFFFFFFFFFFFFFFFFFFFFFFF
310
FFFFFFFFFFFFFFFFFFFFFFFFFFFFFFFFFFFFFFFFFFFFFFFFFFFFFFFFFFFFFFFF
310
FFFFFFFFFFFFFFFFFFFFFFFFFFFFFFFFFFFFFFFFFFFFFFFFFFFFFFFFFFFFFFFF
310
F000FFFFFFFFFFFFFFFFFFFFFFFFFFFFFFFFFFFFFFFFFFFFFFFFFFFFFFFFFFFF
310
FFFFFFFFFFFFFFFFFFFFFFFFFFFFFFFFFFFFFFFFFFFFFFFFFFFFFFFFFFFFFFFF
310
FFFFFFFFFFFFFFFFFFFFFFFFFFFFFFFFFFFFFFFFFFFFFFFFF000FFFFFFFFFFFF
310
FFFFFFFFFFFFFFFFFFFFFFFFFFFFFFFFFFFFFFFFFFFFFFFFFFFFFFFFFFFFFFFF
310
FFFFFFFFFFFFFFFFFFFFFFFFFFFFFFFFFFFFFFFFFFFFFFFFFFFFFFFFFFFFFFFF
310
FFFFFFFFFFFFFFFFFFFFFFFFFFFFFFFFF000FFFFFFFFFFFFFFFFFFFFFFFFFFFF
310
FFFFFFFFFFFFFFFFFFFFFFFFFFFFFFFFFFFFFFFFFFFFFFFFFFFFFFFFFFFFFFFF
310
FFFFFFFFFFFFFFFFFFFFFFFFFFFFFFFFFFFFFFFFFFFFFFFFFFFFFFFFFFFFFFFF
310
FFFFFFFFFFFFFFFFF000FFFFFFFFFFFFFFFFFFFFFFFFFFFFFFFFFFFFFFFFFFFF
310
FFFFFFFFFFFFFFFFFFFFFFFFFFFFFFFFFFFFFFFFFFFFFFFFFFFFFFFFFFFFFFFF
310
FFFFFFFFFFFFFFFFFFFFFFFFFFFFFFFFFFFFFFFFFFFFFFFFFFFFFFFFFFFFFFFF
310
F000FFFFFFFFFFFFFFFFFFFFFFFFFFFFFFFFFFFFFFFFFFFFFFFFFFFFFFFFFFFF
310
FFFFFFFFFFFFFFFFFFFFFFFFFFFFFFFFFFFFFFFFFFFFFFFFFFFFFFFFFFFFFFFF
310
FFFFFFFFFFFFFFFFFFFFFFFFFFFFFFFFFFFFFFFFFFFFFFFFF000FFFFFFFFFFFF
310
FFFFFFFFFFFFFFFFFFFFFFFFFFFFFFFFFFFFFFFFFFFFFFFFFFFFFFFFFFFFFFFF
310
FFFFFFFFFFFFFFFFFFFFFFFFFFFFFFFFFFFFFFFFFFFFFFFFFFFFFFFFFFFFFFFF
310
FFFFFFFFFFFFFFFFFFFFFFFFFFFFFFFFF0000000000000000000000000000000
310
0000000000000000000000000000000000000000000000000000000000000000
310
0000000000000000000000000000000000000000000000000000000000000000
310
0000000000000000000000000000000000000000000000000000000000000000
310
0000000000000000000000000000000000000000000000000000000000000000
310
0000000000000000000000000000000000000000000000000000000000000000
310
0000000000000000000000000000000000000000000000000000000000000000
310
0000000000000000000000000000000000000000000000000000000000000000
310
0000000000000000000000000000000000000000000000000000000000000000
310
0000000000000000000000000000000000000000000000000000000000000000
310
0000000000000000000000000000000000000000000000000000000000000000
310
0000000000000000000000000000000000000000000000000000000000000000
310
0000000000000000000000000000000000000000000000000000000000000000
310
0000000000000000000000000000000000000000000000000000000000000000
310
0000000000000000000000000000000000000000000000000000000000000000
310
0000000000000000000000000000000000000000000000000000000000000000
  1
OLE
  0
ENDSEC
  0
SECTION
  2
OBJECTS
  0
DICTIONARY
  5
C
330
0
100
AcDbDictionary
281
     1
  3
ACAD_GROUP
350
D
  3
ACAD_LAYOUT
350
1A
  3
ACAD_MLINESTYLE
350
17
  3
ACAD_PLOTSETTINGS
350
19
  3
ACAD_PLOTSTYLENAME
350
E
  3
ACAD_SCALELIST
350
47
  0
DICTIONARY
  5
D
102
{ACAD_REACTORS
330
C
102
}
330
C
100
AcDbDictionary
281
     1
  0
DICTIONARY
  5
1A
102
{ACAD_REACTORS
330
C
102
}
330
C
100
AcDbDictionary
281
     1
  3
Layout1
350
1E
  3
Layout2
350
26
  3
Model
350
22
  0
DICTIONARY
  5
17
102
{ACAD_REACTORS
330
C
102
}
330
C
100
AcDbDictionary
281
     1
  3
Standard
350
18
  0
DICTIONARY
  5
19
102
{ACAD_REACTORS
330
C
102
}
330
C
100
AcDbDictionary
281
     1
  0
ACDBDICTIONARYWDFLT
  5
E
102
{ACAD_REACTORS
330
C
102
}
330
C
100
AcDbDictionary
281
     1
  3
Normal
350
F
100
AcDbDictionaryWithDefault
340
F
  0
DICTIONARY
  5
47
102
{ACAD_REACTORS
330
C
102
}
330
C
100
AcDbDictionary
281
     1
  3
A0
350
48
  3
A1
350
49
  3
A2
350
4A
  3
A3
350
4B
  3
A4
350
4C
  3
A5
350
4D
  3
A6
350
4E
  3
A7
350
4F
  3
A8
350
50
  3
A9
350
51
  3
B0
350
52
  3
B1
350
53
  3
B2
350
54
  3
B3
350
55
  3
B4
350
56
  3
B5
350
57
  3
B6
350
58
  3
B7
350
59
  3
B8
350
5A
  3
B9
350
5B
  3
C0
350
5C
  3
C1
350
5D
  3
C2
350
5E
  3
C3
350
5F
  3
C4
350
60
  3
C5
350
61
  3
C6
350
62
  3
C7
350
63
  3
C8
350
64
  3
C9
350
65
  3
D0
350
66
  3
D1
350
67
  3
D2
350
68
  0
LAYOUT
  5
1E
102
{ACAD_REACTORS
330
1A
102
}
330
1A
100
AcDbPlotSettings
  1

  2
none_device
  4

  6

 40
0.0
 41
0.0
 42
0.0
 43
0.0
 44
0.0
 45
0.0
 46
0.0
 47
0.0
 48
0.0
 49
0.0
140
0.0
141
0.0
142
1.0
143
1.0
 70
   688
 72
     1
 73
     0
 74
     5
  7

 75
    16
147
1.0
148
0.0
149
0.0
100
AcDbLayout
  1
Layout1
 70
     1
 71
     1
 10
0.0
 20
0.0
 11
420.0
 21
297.0
 12
0.0
 22
0.0
 32
0.0
 14
1.0000000000E+20
 24
1.0000000000E+20
 34
1.0000000000E+20
 15
-1.0000000000E+20
 25
-1.0000000000E+20
 35
-1.0000000000E+20
146
0.0
 13
0.0
 23
0.0
 33
0.0
 16
1.0
 26
0.0
 36
0.0
 17
0.0
 27
1.0
 37
0.0
 76
     0
330
1B
  0
LAYOUT
  5
26
102
{ACAD_REACTORS
330
1A
102
}
330
1A
100
AcDbPlotSettings
  1

  2
none_device
  4

  6

 40
0.0
 41
0.0
 42
0.0
 43
0.0
 44
0.0
 45
0.0
 46
0.0
 47
0.0
 48
0.0
 49
0.0
140
0.0
141
0.0
142
1.0
143
1.0
 70
   688
 72
     1
 73
     0
 74
     5
  7

 75
    16
147
1.0
148
0.0
149
0.0
100
AcDbLayout
  1
Layout2
 70
     1
 71
     2
 10
0.0
 20
0.0
 11
0.0
 21
0.0
 12
0.0
 22
0.0
 32
0.0
 14
0.0
 24
0.0
 34
0.0
 15
0.0
 25
0.0
 35
0.0
146
0.0
 13
0.0
 23
0.0
 33
0.0
 16
1.0
 26
0.0
 36
0.0
 17
0.0
 27
1.0
 37
0.0
 76
     0
330
23
  0
LAYOUT
  5
22
102
{ACAD_REACTORS
330
1A
102
}
330
1A
100
AcDbPlotSettings
  1

  2
none_device
  4
Letter_(8.50_x_11.00_Inches)
  6

 40
6.35
 41
6.35
 42
6.35000508
 43
6.35000508
 44
215.9
 45
279.4
 46
0.0
 47
0.0
 48
0.0
 49
0.0
140
0.0
141
0.0
142
1.0
143
1.0
 70
  1712
 72
     1
 73
     0
 74
     0
  7

 75
     0
147
1.0
148
0.0
149
0.0
100
AcDbLayout
  1
Model
 70
     1
 71
     0
 10
0.0
 20
0.0
 11
297.0
 21
210.0
 12
0.0
 22
0.0
 32
0.0
 14
0.0
 24
0.0
 34
0.0
 15
297.0
 25
210.0
 35
0.0
146
0.0
 13
0.0
 23
0.0
 33
0.0
 16
1.0
 26
0.0
 36
0.0
 17
0.0
 27
1.0
 37
0.0
 76
     0
330
1F
331
29
  0
MLINESTYLE
  5
18
102
{ACAD_REACTORS
330
17
102
}
330
17
100
AcDbMlineStyle
  2
Standard
 70
     0
  3

 62
   256
 51
90.0
 52
90.0
 71
     2
 49
0.5
 62
   256
  6
BYLAYER
 49
-0.5
 62
   256
  6
BYLAYER
  0
ACDBPLACEHOLDER
  5
F
102
{ACAD_REACTORS
330
E
102
}
330
E
  0
SCALE
  5
48
102
{ACAD_REACTORS
330
47
102
}
330
47
100
AcDbScale
 70
     0
300
1:1
140
1.0
141
1.0
290
     1
  0
SCALE
  5
49
102
{ACAD_REACTORS
330
47
102
}
330
47
100
AcDbScale
 70
     0
300
1:2
140
1.0
141
2.0
290
     0
  0
SCALE
  5
4A
102
{ACAD_REACTORS
330
47
102
}
330
47
100
AcDbScale
 70
     0
300
1:4
140
1.0
141
4.0
290
     0
  0
SCALE
  5
4B
102
{ACAD_REACTORS
330
47
102
}
330
47
100
AcDbScale
 70
     0
300
1:5
140
1.0
141
5.0
290
     0
  0
SCALE
  5
4C
102
{ACAD_REACTORS
330
47
102
}
330
47
100
AcDbScale
 70
     0
300
1:8
140
1.0
141
8.0
290
     0
  0
SCALE
  5
4D
102
{ACAD_REACTORS
330
47
102
}
330
47
100
AcDbScale
 70
     0
300
1:10
140
1.0
141
10.0
290
     0
  0
SCALE
  5
4E
102
{ACAD_REACTORS
330
47
102
}
330
47
100
AcDbScale
 70
     0
300
1:16
140
1.0
141
16.0
290
     0
  0
SCALE
  5
4F
102
{ACAD_REACTORS
330
47
102
}
330
47
100
AcDbScale
 70
     0
300
1:20
140
1.0
141
20.0
290
     0
  0
SCALE
  5
50
102
{ACAD_REACTORS
330
47
102
}
330
47
100
AcDbScale
 70
     0
300
1:30
140
1.0
141
30.0
290
     0
  0
SCALE
  5
51
102
{ACAD_REACTORS
330
47
102
}
330
47
100
AcDbScale
 70
     0
300
1:40
140
1.0
141
40.0
290
     0
  0
SCALE
  5
52
102
{ACAD_REACTORS
330
47
102
}
330
47
100
AcDbScale
 70
     0
300
1:50
140
1.0
141
50.0
290
     0
  0
SCALE
  5
53
102
{ACAD_REACTORS
330
47
102
}
330
47
100
AcDbScale
 70
     0
300
1:100
140
1.0
141
100.0
290
     0
  0
SCALE
  5
54
102
{ACAD_REACTORS
330
47
102
}
330
47
100
AcDbScale
 70
     0
300
2:1
140
2.0
141
1.0
290
     0
  0
SCALE
  5
55
102
{ACAD_REACTORS
330
47
102
}
330
47
100
AcDbScale
 70
     0
300
4:1
140
4.0
141
1.0
290
     0
  0
SCALE
  5
56
102
{ACAD_REACTORS
330
47
102
}
330
47
100
AcDbScale
 70
     0
300
8:1
140
8.0
141
1.0
290
     0
  0
SCALE
  5
57
102
{ACAD_REACTORS
330
47
102
}
330
47
100
AcDbScale
 70
     0
300
10:1
140
10.0
141
1.0
290
     0
  0
SCALE
  5
58
102
{ACAD_REACTORS
330
47
102
}
330
47
100
AcDbScale
 70
     0
300
100:1
140
100.0
141
1.0
290
     0
  0
SCALE
  5
59
102
{ACAD_REACTORS
330
47
102
}
330
47
100
AcDbScale
 70
     0
300
1/128" = 1'-0"
140
0.0078125
141
12.0
290
     0
  0
SCALE
  5
5A
102
{ACAD_REACTORS
330
47
102
}
330
47
100
AcDbScale
 70
     0
300
1/64" = 1'-0"
140
0.015625
141
12.0
290
     0
  0
SCALE
  5
5B
102
{ACAD_REACTORS
330
47
102
}
330
47
100
AcDbScale
 70
     0
300
1/32" = 1'-0"
140
0.03125
141
12.0
290
     0
  0
SCALE
  5
5C
102
{ACAD_REACTORS
330
47
102
}
330
47
100
AcDbScale
 70
     0
300
1/16" = 1'-0"
140
0.0625
141
12.0
290
     0
  0
SCALE
  5
5D
102
{ACAD_REACTORS
330
47
102
}
330
47
100
AcDbScale
 70
     0
300
3/32" = 1'-0"
140
0.09375
141
12.0
290
     0
  0
SCALE
  5
5E
102
{ACAD_REACTORS
330
47
102
}
330
47
100
AcDbScale
 70
     0
300
1/8" = 1'-0"
140
0.125
141
12.0
290
     0
  0
SCALE
  5
5F
102
{ACAD_REACTORS
330
47
102
}
330
47
100
AcDbScale
 70
     0
300
3/16" = 1'-0"
140
0.1875
141
12.0
290
     0
  0
SCALE
  5
60
102
{ACAD_REACTORS
330
47
102
}
330
47
100
AcDbScale
 70
     0
300
1/4" = 1'-0"
140
0.25
141
12.0
290
     0
  0
SCALE
  5
61
102
{ACAD_REACTORS
330
47
102
}
330
47
100
AcDbScale
 70
     0
300
3/8" = 1'-0"
140
0.375
141
12.0
290
     0
  0
SCALE
  5
62
102
{ACAD_REACTORS
330
47
102
}
330
47
100
AcDbScale
 70
     0
300
1/2" = 1'-0"
140
0.5
141
12.0
290
     0
  0
SCALE
  5
63
102
{ACAD_REACTORS
330
47
102
}
330
47
100
AcDbScale
 70
     0
300
3/4" = 1'-0"
140
0.75
141
12.0
290
     0
  0
SCALE
  5
64
102
{ACAD_REACTORS
330
47
102
}
330
47
100
AcDbScale
 70
     0
300
1" = 1'-0"
140
1.0
141
12.0
290
     0
  0
SCALE
  5
65
102
{ACAD_REACTORS
330
47
102
}
330
47
100
AcDbScale
 70
     0
300
1-1/2" = 1'-0"
140
1.5
141
12.0
290
     0
  0
SCALE
  5
66
102
{ACAD_REACTORS
330
47
102
}
330
47
100
AcDbScale
 70
     0
300
3" = 1'-0"
140
3.0
141
12.0
290
     0
  0
SCALE
  5
67
102
{ACAD_REACTORS
330
47
102
}
330
47
100
AcDbScale
 70
     0
300
6" = 1'-0"
140
6.0
141
12.0
290
     0
  0
SCALE
  5
68
102
{ACAD_REACTORS
330
47
102
}
330
47
100
AcDbScale
 70
     0
300
1'-0" = 1'-0"
140
12.0
141
12.0
290
     0
  0
ENDSEC
  0
EOF
