  0
SECTION
  2
HEADER
  9
$ACADVER
  1
AC1015
  9
$ACADMAINTVER
 70
     6
  9
$DWGCODEPAGE
  3
ANSI_1252
  9
$INSBASE
 10
0.0
 20
0.0
 30
0.0
  9
$EXTMIN
 10
0.0
 20
0.0
 30
0.0
  9
$EXTMAX
 10
297.0
 20
210.0
 30
0.0
  9
$LIMMIN
 10
0.0
 20
0.0
  9
$LIMMAX
 10
297.0
 20
210.0
  9
$ORTHOMODE
 70
     0
  9
$REGENMODE
 70
     1
  9
$FILLMODE
 70
     1
  9
$QTEXTMODE
 70
     0
  9
$MIRRTEXT
 70
     1
  9
$LTSCALE
 40
1.0
  9
$ATTMODE
 70
     1
  9
$TEXTSIZE
 40
2.0
  9
$TRACEWID
 40
1.0
  9
$TEXTSTYLE
  7
Standard
  9
$CLAYER
  8
0
  9
$CELTYPE
  6
ByLayer
  9
$CECOLOR
 62
   256
  9
$CELTSCALE
 40
1.0
  9
$DISPSILH
 70
     0
  9
$DIMSCALE
 40
1.0
  9
$DIMASZ
 40
3.0
  9
$DIMEXO
 40
0.0
  9
$DIMDLI
 40
3.75
  9
$DIMRND
 40
0.0
  9
$DIMDLE
 40
0.0
  9
$DIMEXE
 40
1.0
  9
$DIMTP
 40
0.0
  9
$DIMTM
 40
0.0
  9
$DIMTXT
 40
2.0
  9
$DIMCEN
 40
2.5
  9
$DIMTSZ
 40
0.0
  9
$DIMTOL
 70
     0
  9
$DIMLIM
 70
     0
  9
$DIMTIH
 70
     1
  9
$DIMTOH
 70
     1
  9
$DIMSE1
 70
     0
  9
$DIMSE2
 70
     0
  9
$DIMTAD
 70
     1
  9
$DIMZIN
 70
     0
  9
$DIMBLK
  1

  9
$DIMASO
 70
     1
  9
$DIMSHO
 70
     1
  9
$DIMPOST
  1

  9
$DIMAPOST
  1

  9
$DIMALT
 70
     0
  9
$DIMALTD
 70
     3
  9
$DIMALTF
 40
0.0393700787
  9
$DIMLFAC
 40
2.0
  9
$DIMTOFL
 70
     1
  9
$DIMTVP
 40
0.0
  9
$DIMTIX
 70
     0
  9
$DIMSOXD
 70
     0
  9
$DIMSAH
 70
     0
  9
$DIMBLK1
  1

  9
$DIMBLK2
  1

  9
$DIMSTYLE
  2
ISO-25
  9
$DIMCLRD
 70
     0
  9
$DIMCLRE
 70
     0
  9
$DIMCLRT
 70
     0
  9
$DIMTFAC
 40
1.0
  9
$DIMGAP
 40
1.524
  9
$DIMJUST
 70
     0
  9
$DIMSD1
 70
     0
  9
$DIMSD2
 70
     0
  9
$DIMTOLJ
 70
     0
  9
$DIMTZIN
 70
     0
  9
$DIMALTZ
 70
     0
  9
$DIMALTTZ
 70
     0
  9
$DIMUPT
 70
     0
  9
$DIMDEC
 70
     2
  9
$DIMTDEC
 70
     3
  9
$DIMALTU
 70
     2
  9
$DIMALTTD
 70
     3
  9
$DIMTXSTY
  7
Standard
  9
$DIMAUNIT
 70
     0
  9
$DIMADEC
 70
     2
  9
$DIMALTRND
 40
0.0
  9
$DIMAZIN
 70
     0
  9
$DIMDSEP
 70
    44
  9
$DIMATFIT
 70
     3
  9
$DIMFRAC
 70
     0
  9
$DIMLDRBLK
  1

  9
$DIMLUNIT
 70
     2
  9
$DIMLWD
 70
    -2
  9
$DIMLWE
 70
    -2
  9
$DIMTMOVE
 70
     0
  9
$LUNITS
 70
     2
  9
$LUPREC
 70
     2
  9
$SKETCHINC
 40
1.0
  9
$FILLETRAD
 40
10.0
  9
$AUNITS
 70
     0
  9
$AUPREC
 70
     2
  9
$MENU
  1
.
  9
$ELEVATION
 40
0.0
  9
$PELEVATION
 40
0.0
  9
$THICKNESS
 40
0.0
  9
$LIMCHECK
 70
     0
  9
$CHAMFERA
 40
0.0
  9
$CHAMFERB
 40
0.0
  9
$CHAMFERC
 40
0.0
  9
$CHAMFERD
 40
0.0
  9
$SKPOLY
 70
     0
  9
$TDCREATE
 40
2458164.669780822
  9
$TDUCREATE
 40
2458164.628114155
  9
$TDUPDATE
 40
2458164.669784248
  9
$TDUUPDATE
 40
2458164.628117581
  9
$TDINDWG
 40
0.0000000116
  9
$TDUSRTIMER
 40
0.0000000116
  9
$USRTIMER
 70
     1
  9
$ANGBASE
 50
0.0
  9
$ANGDIR
 70
     0
  9
$PDMODE
 70
     0
  9
$PDSIZE
 40
-1.0
  9
$PLINEWID
 40
0.0
  9
$SPLFRAME
 70
     0
  9
$SPLINETYPE
 70
     6
  9
$SPLINESEGS
 70
     8
  9
$HANDSEED
  5
2F3
  9
$SURFTAB1
 70
     6
  9
$SURFTAB2
 70
     6
  9
$SURFTYPE
 70
     6
  9
$SURFU
 70
     6
  9
$SURFV
 70
     6
  9
$UCSBASE
  2

  9
$UCSNAME
  2

  9
$UCSORG
 10
0.0
 20
0.0
 30
0.0
  9
$UCSXDIR
 10
1.0
 20
0.0
 30
0.0
  9
$UCSYDIR
 10
0.0
 20
1.0
 30
0.0
  9
$UCSORTHOREF
  2

  9
$UCSORTHOVIEW
 70
     0
  9
$UCSORGTOP
 10
0.0
 20
0.0
 30
0.0
  9
$UCSORGBOTTOM
 10
0.0
 20
0.0
 30
0.0
  9
$UCSORGLEFT
 10
0.0
 20
0.0
 30
0.0
  9
$UCSORGRIGHT
 10
0.0
 20
0.0
 30
0.0
  9
$UCSORGFRONT
 10
0.0
 20
0.0
 30
0.0
  9
$UCSORGBACK
 10
0.0
 20
0.0
 30
0.0
  9
$PUCSBASE
  2

  9
$PUCSNAME
  2

  9
$PUCSORG
 10
0.0
 20
0.0
 30
0.0
  9
$PUCSXDIR
 10
1.0
 20
0.0
 30
0.0
  9
$PUCSYDIR
 10
0.0
 20
1.0
 30
0.0
  9
$PUCSORTHOREF
  2

  9
$PUCSORTHOVIEW
 70
     0
  9
$PUCSORGTOP
 10
0.0
 20
0.0
 30
0.0
  9
$PUCSORGBOTTOM
 10
0.0
 20
0.0
 30
0.0
  9
$PUCSORGLEFT
 10
0.0
 20
0.0
 30
0.0
  9
$PUCSORGRIGHT
 10
0.0
 20
0.0
 30
0.0
  9
$PUCSORGFRONT
 10
0.0
 20
0.0
 30
0.0
  9
$PUCSORGBACK
 10
0.0
 20
0.0
 30
0.0
  9
$USERI1
 70
     0
  9
$USERI2
 70
     0
  9
$USERI3
 70
     0
  9
$USERI4
 70
     0
  9
$USERI5
 70
     0
  9
$USERR1
 40
0.0
  9
$USERR2
 40
0.0
  9
$USERR3
 40
0.0
  9
$USERR4
 40
0.0
  9
$USERR5
 40
0.0
  9
$WORLDVIEW
 70
     1
  9
$SHADEDGE
 70
     3
  9
$SHADEDIF
 70
    70
  9
$TILEMODE
 70
     1
  9
$MAXACTVP
 70
    64
  9
$PINSBASE
 10
0.0
 20
0.0
 30
0.0
  9
$PLIMCHECK
 70
     0
  9
$PEXTMIN
 10
1.0000000000E+20
 20
1.0000000000E+20
 30
1.0000000000E+20
  9
$PEXTMAX
 10
-1.0000000000E+20
 20
-1.0000000000E+20
 30
-1.0000000000E+20
  9
$PLIMMIN
 10
0.0
 20
0.0
  9
$PLIMMAX
 10
420.0
 20
297.0
  9
$UNITMODE
 70
     0
  9
$VISRETAIN
 70
     1
  9
$PLINEGEN
 70
     0
  9
$PSLTSCALE
 70
     1
  9
$TREEDEPTH
 70
  3020
  9
$CMLSTYLE
  2
Standard
  9
$CMLJUST
 70
     0
  9
$CMLSCALE
 40
20.0
  9
$PROXYGRAPHICS
 70
     1
  9
$MEASUREMENT
 70
     1
  9
$CELWEIGHT
370
    -1
  9
$ENDCAPS
280
     0
  9
$JOINSTYLE
280
     0
  9
$LWDISPLAY
290
     1
  9
$INSUNITS
 70
     4
  9
$HYPERLINKBASE
  1

  9
$STYLESHEET
  1

  9
$XEDIT
290
     1
  9
$CEPSNTYPE
380
     0
  9
$PSTYLEMODE
290
     1
  9
$FINGERPRINTGUID
  2
{CF1207E5-C6BF-4576-ACED-8E46981B448A}
  9
$VERSIONGUID
  2
{FAEB1C32-E019-11D5-929B-00C0DF256EC4}
  9
$EXTNAMES
290
     1
  9
$PSVPSCALE
 40
0.0
  9
$OLESTARTUP
290
     0
  0
ENDSEC
  0
SECTION
  2
CLASSES
  0
CLASS
  1
ACDBDICTIONARYWDFLT
  2
AcDbDictionaryWithDefault
  3
ObjectDBX Classes
 90
        0
280
     0
281
     0
  0
CLASS
  1
VISUALSTYLE
  2
AcDbVisualStyle
  3
ObjectDBX Classes
 90
     4095
280
     0
281
     0
  0
CLASS
  1
MATERIAL
  2
AcDbMaterial
  3
ObjectDBX Classes
 90
     1153
280
     0
281
     0
  0
CLASS
  1
SCALE
  2
AcDbScale
  3
ObjectDBX Classes
 90
     1153
280
     0
281
     0
  0
CLASS
  1
TABLESTYLE
  2
AcDbTableStyle
  3
ObjectDBX Classes
 90
     4095
280
     0
281
     0
  0
CLASS
  1
MLEADERSTYLE
  2
AcDbMLeaderStyle
  3
ACDB_MLEADERSTYLE_CLASS
 90
     4095
280
     0
281
     0
  0
CLASS
  1
SUN
  2
AcDbSun
  3
SCENEOE
 90
     1153
280
     0
281
     0
  0
CLASS
  1
ACDBPLACEHOLDER
  2
AcDbPlaceHolder
  3
ObjectDBX Classes
 90
        0
280
     0
281
     0
  0
CLASS
  1
LAYOUT
  2
AcDbLayout
  3
ObjectDBX Classes
 90
        0
280
     0
281
     0
  0
ENDSEC
  0
SECTION
  2
TABLES
  0
TABLE
  2
VPORT
  5
8
330
0
100
AcDbSymbolTable
 70
     1
  0
VPORT
  5
29
330
8
100
AcDbSymbolTableRecord
100
AcDbViewportTableRecord
  2
*Active
 70
     0
 10
0.0
 20
0.0
 11
1.0
 21
1.0
 12
148.5
 22
105.0
 13
0.0
 23
0.0
 14
10.0
 24
10.0
 15
10.0
 25
10.0
 16
0.0
 26
0.0
 36
1.0
 17
0.0
 27
0.0
 37
0.0
 40
210.0
 41
1.4142857143
 42
50.0
 43
0.0
 44
0.0
 50
0.0
 51
0.0
 71
     0
 72
  2000
 73
     1
 74
     3
 75
     0
 76
     0
 77
     0
 78
     0
281
     0
 65
     1
110
0.0
120
0.0
130
0.0
111
1.0
121
0.0
131
0.0
112
0.0
122
1.0
132
0.0
 79
     0
146
0.0
  0
ENDTAB
  0
TABLE
  2
LTYPE
  5
5
330
0
100
AcDbSymbolTable
 70
     6
  0
LTYPE
  5
14
330
5
100
AcDbSymbolTableRecord
100
AcDbLinetypeTableRecord
  2
ByBlock
 70
     0
  3

 72
    65
 73
     0
 40
0.0
  0
LTYPE
  5
15
330
5
100
AcDbSymbolTableRecord
100
AcDbLinetypeTableRecord
  2
ByLayer
 70
     0
  3

 72
    65
 73
     0
 40
0.0
  0
LTYPE
  5
16
330
5
100
AcDbSymbolTableRecord
100
AcDbLinetypeTableRecord
  2
Continuous
 70
     0
  3
Solid line
 72
    65
 73
     0
 40
0.0
  0
LTYPE
  5
6E
330
5
100
AcDbSymbolTableRecord
100
AcDbLinetypeTableRecord
  2
HIDDEN
 70
     0
  3
Hidden __ __ __ __ __ __ __ __ __ __ __ __ __ __
 72
    65
 73
     2
 40
1.905
 49
1.27
 74
     0
 49
-0.635
 74
     0
  0
LTYPE
  5
6F
330
5
100
AcDbSymbolTableRecord
100
AcDbLinetypeTableRecord
  2
PHANTOM
 70
     0
  3
Phantom ______  __  __  ______  __  __  ______
 72
    65
 73
     6
 40
12.7
 49
6.35
 74
     0
 49
-1.27
 74
     0
 49
1.27
 74
     0
 49
-1.27
 74
     0
 49
1.27
 74
     0
 49
-1.27
 74
     0
  0
LTYPE
  5
70
330
5
100
AcDbSymbolTableRecord
100
AcDbLinetypeTableRecord
  2
CENTER
 70
     0
  3
Center ____ _ ____ _ ____ _ ____ _ ____ _ ____
 72
    65
 73
     4
 40
10.16
 49
6.35
 74
     0
 49
-1.27
 74
     0
 49
1.27
 74
     0
 49
-1.27
 74
     0
  0
LTYPE
  5
71
330
5
100
AcDbSymbolTableRecord
100
AcDbLinetypeTableRecord
  2
CENTERX2
 70
     0
  3
Center (2x) ________  __  ________  __  _____
 72
    65
 73
     4
 40
20.32
 49
12.7
 74
     0
 49
-2.54
 74
     0
 49
2.54
 74
     0
 49
-2.54
 74
     0
  0
LTYPE
  5
72
330
5
100
AcDbSymbolTableRecord
100
AcDbLinetypeTableRecord
  2
DOT2
 70
     0
  3
Dot (.5x) ........................................
 72
    65
 73
     2
 40
0.635
 49
0.0
 74
     0
 49
-0.635
 74
     0
  0
ENDTAB
  0
TABLE
  2
LAYER
  5
2
330
0
100
AcDbSymbolTable
 70
     5
  0
LAYER
  5
10
330
2
100
AcDbSymbolTableRecord
100
AcDbLayerTableRecord
  2
0
 70
     0
 62
     7
  6
Continuous
370
    -3
390
F
  0
LAYER
  5
73
330
2
100
AcDbSymbolTableRecord
100
AcDbLayerTableRecord
  2
FORMAT
 70
     0
 62
     7
  6
Continuous
370
    -3
390
F
  0
LAYER
  5
74
330
2
100
AcDbSymbolTableRecord
100
AcDbLayerTableRecord
  2
VERMASSUNG
 70
     0
 62
     7
  6
Continuous
370
    -3
390
F
  0
LAYER
  5
75
330
2
100
AcDbSymbolTableRecord
100
AcDbLayerTableRecord
  2
KOPF_DÜNN
 70
     0
 62
     7
  6
Continuous
370
    -3
390
F
  0
LAYER
  5
76
330
2
100
AcDbSymbolTableRecord
100
AcDbLayerTableRecord
  2
KOPF_DICK
 70
     0
 62
     7
  6
Continuous
370
    25
390
F
  0
ENDTAB
  0
TABLE
  2
STYLE
  5
3
330
0
100
AcDbSymbolTable
 70
     2
  0
STYLE
  5
11
330
3
100
AcDbSymbolTableRecord
100
AcDbTextStyleTableRecord
  2
Standard
 70
     0
 40
0.0
 41
1.0
 50
0.0
 71
     0
 42
2.0
  3
txt
  4

  0
STYLE
  5
77
330
3
100
AcDbSymbolTableRecord
100
AcDbTextStyleTableRecord
  2
SLDTEXTSTYLE0
 70
     0
 40
0.0
 41
0.7
 50
0.0
 71
     0
 42
2.0
  3
TXT
  4

  0
ENDTAB
  0
TABLE
  2
VIEW
  5
6
330
0
100
AcDbSymbolTable
 70
     0
  0
ENDTAB
  0
TABLE
  2
UCS
  5
7
330
0
100
AcDbSymbolTable
 70
     0
  0
ENDTAB
  0
TABLE
  2
APPID
  5
9
330
0
100
AcDbSymbolTable
 70
     1
  0
APPID
  5
12
330
9
100
AcDbSymbolTableRecord
100
AcDbRegAppTableRecord
  2
ACAD
 70
     0
  0
ENDTAB
  0
TABLE
  2
DIMSTYLE
  5
A
330
0
100
AcDbSymbolTable
 70
     3
100
AcDbDimStyleTable
  0
DIMSTYLE
105
27
330
A
100
AcDbSymbolTableRecord
100
AcDbDimStyleTableRecord
  2
ISO-25
 70
     0
 41
2.5
 42
0.625
 43
3.75
 44
1.25
 73
     0
 74
     0
 77
     1
 78
     8
140
2.5
141
2.5
143
0.0393700787
147
0.625
171
     3
172
     1
178
     0
271
     2
272
     2
274
     3
278
    44
283
     0
284
     8
340
11
  0
DIMSTYLE
105
1FF
102
{ACAD_REACTORS
330
1FE
330
214
330
21F
330
22A
330
235
330
23F
330
249
330
253
330
25D
102
}
330
A
100
AcDbSymbolTableRecord
100
AcDbDimStyleTableRecord
  2
SLDDIMSTYLE0
 70
     0
 41
3.0
 44
0.0
 45
0.000000001
 73
     0
 74
     0
 77
     1
 78
    12
 79
     3
140
2.0
147
0.5
173
     1
178
     0
271
     2
272
     3
276
     2
284
    12
340
77
  0
DIMSTYLE
105
20B
102
{ACAD_REACTORS
330
20A
102
}
330
A
100
AcDbSymbolTableRecord
100
AcDbDimStyleTableRecord
  2
SLDDIMSTYLE1
 70
     0
 41
3.0
 44
0.0
 45
0.000000001
 73
     0
 74
     0
 76
     1
 77
     1
 78
    12
 79
     3
140
2.0
147
0.5
173
     1
178
     0
271
     2
272
     3
276
     2
282
     1
284
    12
340
77
  0
ENDTAB
  0
TABLE
  2
BLOCK_RECORD
  5
1
330
0
100
AcDbSymbolTable
 70
    11
  0
BLOCK_RECORD
  5
1F
330
1
100
AcDbSymbolTableRecord
100
AcDbBlockTableRecord
  2
*Model_Space
340
22
  0
BLOCK_RECORD
  5
1B
330
1
100
AcDbSymbolTableRecord
100
AcDbBlockTableRecord
  2
*Paper_Space
340
1E
  0
BLOCK_RECORD
  5
23
330
1
100
AcDbSymbolTableRecord
100
AcDbBlockTableRecord
  2
*Paper_Space0
340
26
  0
BLOCK_RECORD
  5
200
330
1
100
AcDbSymbolTableRecord
100
AcDbBlockTableRecord
  2
_D
340
0
  0
BLOCK_RECORD
  5
20C
330
1
100
AcDbSymbolTableRecord
100
AcDbBlockTableRecord
  2
_D_1
340
0
  0
BLOCK_RECORD
  5
215
330
1
100
AcDbSymbolTableRecord
100
AcDbBlockTableRecord
  2
_D_2
340
0
  0
BLOCK_RECORD
  5
220
330
1
100
AcDbSymbolTableRecord
100
AcDbBlockTableRecord
  2
_D_3
340
0
  0
BLOCK_RECORD
  5
22B
330
1
100
AcDbSymbolTableRecord
100
AcDbBlockTableRecord
  2
_D_4
340
0
  0
BLOCK_RECORD
  5
236
330
1
100
AcDbSymbolTableRecord
100
AcDbBlockTableRecord
  2
_D_5
340
0
  0
BLOCK_RECORD
  5
240
330
1
100
AcDbSymbolTableRecord
100
AcDbBlockTableRecord
  2
_D_6
340
0
  0
BLOCK_RECORD
  5
24A
330
1
100
AcDbSymbolTableRecord
100
AcDbBlockTableRecord
  2
_D_7
340
0
  0
BLOCK_RECORD
  5
254
330
1
100
AcDbSymbolTableRecord
100
AcDbBlockTableRecord
  2
_D_8
340
0
  0
BLOCK_RECORD
  5
25E
330
1
100
AcDbSymbolTableRecord
100
AcDbBlockTableRecord
  2
_D_9
340
0
  0
ENDTAB
  0
ENDSEC
  0
SECTION
  2
BLOCKS
  0
BLOCK
  5
20
330
1F
100
AcDbEntity
  8
0
100
AcDbBlockBegin
  2
*Model_Space
 70
     0
 10
0.0
 20
0.0
 30
0.0
  3
*Model_Space
  1

  0
ENDBLK
  5
21
330
1F
100
AcDbEntity
  8
0
100
AcDbBlockEnd
  0
BLOCK
  5
1C
330
1B
100
AcDbEntity
 67
     1
  8
0
100
AcDbBlockBegin
  2
*Paper_Space
 70
     0
 10
0.0
 20
0.0
 30
0.0
  3
*Paper_Space
  1

  0
ENDBLK
  5
1D
330
1B
100
AcDbEntity
 67
     1
  8
0
100
AcDbBlockEnd
  0
BLOCK
  5
24
330
23
100
AcDbEntity
  8
0
100
AcDbBlockBegin
  2
*Paper_Space0
 70
     0
 10
0.0
 20
0.0
 30
0.0
  3
*Paper_Space0
  1

  0
ENDBLK
  5
25
330
23
100
AcDbEntity
  8
0
100
AcDbBlockEnd
  0
BLOCK
  5
201
330
200
100
AcDbEntity
  8
0
100
AcDbBlockBegin
  2
_D
 70
     0
 10
0.0
 20
0.0
 30
0.0
  3
_D
  1

  0
SOLID
  5
203
330
200
100
AcDbEntity
  8
VERMASSUNG
100
AcDbTrace
 10
232.7074418309
 20
136.7161970553
 30
0.0
 11
232.2574418309
 21
133.7161970553
 31
0.0
 12
233.1574418309
 22
133.7161970553
 32
0.0
 13
233.1574418309
 23
133.7161970553
 33
0.0
  0
SOLID
  5
204
330
200
100
AcDbEntity
  8
VERMASSUNG
100
AcDbTrace
 10
232.7074418309
 20
112.7161970553
 30
0.0
 11
233.1574418309
 21
115.7161970553
 31
0.0
 12
232.2574418309
 22
115.7161970553
 32
0.0
 13
232.2574418309
 23
115.7161970553
 33
0.0
  0
LINE
  5
205
330
200
100
AcDbEntity
  8
VERMASSUNG
100
AcDbLine
 10
206.36310652
 20
136.7161970553
 30
0.0
 11
233.7074418309
 21
136.7161970553
 31
0.0
  0
LINE
  5
206
330
200
100
AcDbEntity
  8
VERMASSUNG
100
AcDbLine
 10
206.36310652
 20
112.7161970553
 30
0.0
 11
233.7074418309
 21
112.7161970553
 31
0.0
  0
LINE
  5
207
330
200
100
AcDbEntity
  8
VERMASSUNG
100
AcDbLine
 10
232.7074418309
 20
136.7161970553
 30
0.0
 11
232.7074418309
 21
112.7161970553
 31
0.0
  0
MTEXT
  5
208
330
200
100
AcDbEntity
  8
VERMASSUNG
100
AcDbMText
 10
230.129306526
 20
121.4111970351
 30
0.0
 40
2.0
 41
0.0
 71
     1
 72
     1
  1
%%c
  7
SLDTEXTSTYLE0
 11
-7.932373437343760E-15
 21
1.0
 31
0.0
 73
     1
 44
1.0
  0
MTEXT
  5
209
330
200
100
AcDbEntity
  8
VERMASSUNG
100
AcDbMText
 10
229.9293065747
 20
125.0211970494
 30
0.0
 40
2.0
 41
0.0
 71
     1
 72
     1
  1
24
  7
SLDTEXTSTYLE0
 11
-7.932373437343760E-15
 21
1.0
 31
0.0
 73
     1
 44
1.0
  0
ENDBLK
  5
202
330
200
100
AcDbEntity
  8
0
100
AcDbBlockEnd
  0
BLOCK
  5
20D
330
20C
100
AcDbEntity
  8
0
100
AcDbBlockBegin
  2
_D_1
 70
     0
 10
0.0
 20
0.0
 30
0.0
  3
_D_1
  1

  0
SOLID
  5
20F
330
20C
100
AcDbEntity
  8
VERMASSUNG
100
AcDbTrace
 10
224.4421180607
 20
129.7161970553
 30
0.0
 11
223.9921180607
 21
126.7161970553
 31
0.0
 12
224.8921180607
 22
126.7161970553
 32
0.0
 13
224.8921180607
 23
126.7161970553
 33
0.0
  0
LINE
  5
210
330
20C
100
AcDbEntity
  8
VERMASSUNG
100
AcDbLine
 10
202.86310652
 20
129.7161970553
 30
0.0
 11
225.4421180607
 21
129.7161970553
 31
0.0
  0
LINE
  5
211
330
20C
100
AcDbEntity
  8
VERMASSUNG
100
AcDbLine
 10
224.4421180607
 20
129.7161970553
 30
0.0
 11
224.4421180607
 21
121.7111969912
 31
0.0
  0
MTEXT
  5
212
330
20C
100
AcDbEntity
  8
VERMASSUNG
100
AcDbMText
 10
221.8639827558
 20
121.7111969912
 30
0.0
 40
2.0
 41
0.0
 71
     1
 72
     1
  1
%%c
  7
SLDTEXTSTYLE0
 11
-7.044195017643634E-15
 21
1.0
 31
0.0
 73
     1
 44
1.0
  0
MTEXT
  5
213
330
20C
100
AcDbEntity
  8
VERMASSUNG
100
AcDbMText
 10
221.6639828045
 20
125.3211970055
 30
0.0
 40
2.0
 41
0.0
 71
     1
 72
     1
  1
10
  7
SLDTEXTSTYLE0
 11
-7.044195017643634E-15
 21
1.0
 31
0.0
 73
     1
 44
1.0
  0
ENDBLK
  5
20E
330
20C
100
AcDbEntity
  8
0
100
AcDbBlockEnd
  0
BLOCK
  5
216
330
215
100
AcDbEntity
  8
0
100
AcDbBlockBegin
  2
_D_2
 70
     0
 10
0.0
 20
0.0
 30
0.0
  3
_D_2
  1

  0
SOLID
  5
218
330
215
100
AcDbEntity
  8
VERMASSUNG
100
AcDbTrace
 10
242.4266847652
 20
140.7161970553
 30
0.0
 11
241.9766847652
 21
137.7161970553
 31
0.0
 12
242.8766847652
 22
137.7161970553
 32
0.0
 13
242.8766847652
 23
137.7161970553
 33
0.0
  0
SOLID
  5
219
330
215
100
AcDbEntity
  8
VERMASSUNG
100
AcDbTrace
 10
242.4266847652
 20
108.7161970553
 30
0.0
 11
242.8766847652
 21
111.7161970553
 31
0.0
 12
241.9766847652
 22
111.7161970553
 32
0.0
 13
241.9766847652
 23
111.7161970553
 33
0.0
  0
LINE
  5
21A
330
215
100
AcDbEntity
  8
VERMASSUNG
100
AcDbLine
 10
155.5382875753
 20
140.7161970553
 30
0.0
 11
243.4266847652
 21
140.7161970553
 31
0.0
  0
LINE
  5
21B
330
215
100
AcDbEntity
  8
VERMASSUNG
100
AcDbLine
 10
155.5382875753
 20
108.7161970553
 30
0.0
 11
243.4266847652
 21
108.7161970553
 31
0.0
  0
LINE
  5
21C
330
215
100
AcDbEntity
  8
VERMASSUNG
100
AcDbLine
 10
242.4266847652
 20
140.7161970553
 30
0.0
 11
242.4266847652
 21
108.7161970553
 31
0.0
  0
MTEXT
  5
21D
330
215
100
AcDbEntity
  8
VERMASSUNG
100
AcDbMText
 10
239.8485494603
 20
121.5111970981
 30
0.0
 40
2.0
 41
0.0
 71
     1
 72
     1
  1
%%c
  7
SLDTEXTSTYLE0
 11
-7.044195017643634E-15
 21
1.0
 31
0.0
 73
     1
 44
1.0
  0
MTEXT
  5
21E
330
215
100
AcDbEntity
  8
VERMASSUNG
100
AcDbMText
 10
239.648549509
 20
125.1211971124
 30
0.0
 40
2.0
 41
0.0
 71
     1
 72
     1
  1
32
  7
SLDTEXTSTYLE0
 11
-7.044195017643634E-15
 21
1.0
 31
0.0
 73
     1
 44
1.0
  0
ENDBLK
  5
217
330
215
100
AcDbEntity
  8
0
100
AcDbBlockEnd
  0
BLOCK
  5
221
330
220
100
AcDbEntity
  8
0
100
AcDbBlockBegin
  2
_D_3
 70
     0
 10
0.0
 20
0.0
 30
0.0
  3
_D_3
  1

  0
SOLID
  5
223
330
220
100
AcDbEntity
  8
VERMASSUNG
100
AcDbTrace
 10
164.86310652
 20
156.8726554536
 30
0.0
 11
167.86310652
 21
156.4226554536
 31
0.0
 12
167.86310652
 22
157.3226554536
 32
0.0
 13
167.86310652
 23
157.3226554536
 33
0.0
  0
SOLID
  5
224
330
220
100
AcDbEntity
  8
VERMASSUNG
100
AcDbTrace
 10
206.36310652
 20
156.8726554536
 30
0.0
 11
203.36310652
 21
157.3226554536
 31
0.0
 12
203.36310652
 22
156.4226554536
 32
0.0
 13
203.36310652
 23
156.4226554536
 33
0.0
  0
LINE
  5
225
330
220
100
AcDbEntity
  8
VERMASSUNG
100
AcDbLine
 10
164.86310652
 20
129.6161970553
 30
0.0
 11
164.86310652
 21
157.8726554536
 31
0.0
  0
LINE
  5
226
330
220
100
AcDbEntity
  8
VERMASSUNG
100
AcDbLine
 10
206.36310652
 20
134.867416072
 30
0.0
 11
206.36310652
 21
157.8726554536
 31
0.0
  0
LINE
  5
227
330
220
100
AcDbEntity
  8
VERMASSUNG
100
AcDbLine
 10
164.86310652
 20
156.8726554536
 30
0.0
 11
206.36310652
 21
156.8726554536
 31
0.0
  0
MTEXT
  5
228
330
220
100
AcDbEntity
  8
VERMASSUNG
100
AcDbMText
 10
180.1131070155
 20
159.4507910496
 30
0.0
 40
2.0
 41
0.0
 71
     1
 72
     1
  1
41.5
  7
SLDTEXTSTYLE0
 73
     1
 44
1.0
  0
MTEXT
  5
229
330
220
100
AcDbEntity
  8
VERMASSUNG
100
AcDbMText
 10
185.9006071176
 20
159.4507910496
 30
0.0
 40
2.0
 41
0.0
 71
     1
 72
     1
  1
max.
  7
SLDTEXTSTYLE0
 73
     1
 44
1.0
  0
ENDBLK
  5
222
330
220
100
AcDbEntity
  8
0
100
AcDbBlockEnd
  0
BLOCK
  5
22C
330
22B
100
AcDbEntity
  8
0
100
AcDbBlockBegin
  2
_D_4
 70
     0
 10
0.0
 20
0.0
 30
0.0
  3
_D_4
  1

  0
SOLID
  5
22E
330
22B
100
AcDbEntity
  8
VERMASSUNG
100
AcDbTrace
 10
175.36310652
 20
150.0971671102
 30
0.0
 11
178.36310652
 21
149.6471671102
 31
0.0
 12
178.36310652
 22
150.5471671102
 32
0.0
 13
178.36310652
 23
150.5471671102
 33
0.0
  0
SOLID
  5
22F
330
22B
100
AcDbEntity
  8
VERMASSUNG
100
AcDbTrace
 10
206.36310652
 20
150.0971671102
 30
0.0
 11
203.36310652
 21
150.5471671102
 31
0.0
 12
203.36310652
 22
149.6471671102
 32
0.0
 13
203.36310652
 23
149.6471671102
 33
0.0
  0
LINE
  5
230
330
22B
100
AcDbEntity
  8
VERMASSUNG
100
AcDbLine
 10
175.36310652
 20
129.7161970553
 30
0.0
 11
175.36310652
 21
151.0971671102
 31
0.0
  0
LINE
  5
231
330
22B
100
AcDbEntity
  8
VERMASSUNG
100
AcDbLine
 10
206.36310652
 20
134.867416072
 30
0.0
 11
206.36310652
 21
151.0971671102
 31
0.0
  0
LINE
  5
232
330
22B
100
AcDbEntity
  8
VERMASSUNG
100
AcDbLine
 10
175.36310652
 20
150.0971671102
 30
0.0
 11
206.36310652
 21
150.0971671102
 31
0.0
  0
MTEXT
  5
233
330
22B
100
AcDbEntity
  8
VERMASSUNG
100
AcDbMText
 10
186.86310633
 20
152.6753027062
 30
0.0
 40
2.0
 41
0.0
 71
     1
 72
     1
  1
31
  7
SLDTEXTSTYLE0
 73
     1
 44
1.0
  0
MTEXT
  5
234
330
22B
100
AcDbEntity
  8
VERMASSUNG
100
AcDbMText
 10
190.450606444
 20
152.6753027062
 30
0.0
 40
2.0
 41
0.0
 71
     1
 72
     1
  1
min.
  7
SLDTEXTSTYLE0
 73
     1
 44
1.0
  0
ENDBLK
  5
22D
330
22B
100
AcDbEntity
  8
0
100
AcDbBlockEnd
  0
BLOCK
  5
237
330
236
100
AcDbEntity
  8
0
100
AcDbBlockBegin
  2
_D_5
 70
     0
 10
0.0
 20
0.0
 30
0.0
  3
_D_5
  1

  0
SOLID
  5
239
330
236
100
AcDbEntity
  8
VERMASSUNG
100
AcDbTrace
 10
155.5382875753
 20
91.7525273435
 30
0.0
 11
158.5382875753
 21
91.3025273435
 31
0.0
 12
158.5382875753
 22
92.2025273435
 32
0.0
 13
158.5382875753
 23
92.2025273435
 33
0.0
  0
SOLID
  5
23A
330
236
100
AcDbEntity
  8
VERMASSUNG
100
AcDbTrace
 10
206.36310652
 20
91.7525273435
 30
0.0
 11
203.36310652
 21
92.2025273435
 31
0.0
 12
203.36310652
 22
91.3025273435
 32
0.0
 13
203.36310652
 23
91.3025273435
 33
0.0
  0
LINE
  5
23B
330
236
100
AcDbEntity
  8
VERMASSUNG
100
AcDbLine
 10
155.5382875753
 20
108.7161970553
 30
0.0
 11
155.5382875753
 21
90.7525273435
 31
0.0
  0
LINE
  5
23C
330
236
100
AcDbEntity
  8
VERMASSUNG
100
AcDbLine
 10
206.36310652
 20
114.5649780387
 30
0.0
 11
206.36310652
 21
90.7525273435
 31
0.0
  0
LINE
  5
23D
330
236
100
AcDbEntity
  8
VERMASSUNG
100
AcDbLine
 10
155.5382875753
 20
91.7525273435
 30
0.0
 11
206.36310652
 21
91.7525273435
 31
0.0
  0
MTEXT
  5
23E
330
236
100
AcDbEntity
  8
VERMASSUNG
100
AcDbMText
 10
177.8506971915
 20
94.3306629395
 30
0.0
 40
2.0
 41
0.0
 71
     1
 72
     1
  1
50.82
  7
SLDTEXTSTYLE0
 73
     1
 44
1.0
  0
ENDBLK
  5
238
330
236
100
AcDbEntity
  8
0
100
AcDbBlockEnd
  0
BLOCK
  5
241
330
240
100
AcDbEntity
  8
0
100
AcDbBlockBegin
  2
_D_6
 70
     0
 10
0.0
 20
0.0
 30
0.0
  3
_D_6
  1

  0
SOLID
  5
243
330
240
100
AcDbEntity
  8
VERMASSUNG
100
AcDbTrace
 10
206.36310652
 20
83.2411970553
 30
0.0
 11
203.36310652
 21
83.6911970553
 31
0.0
 12
203.36310652
 22
82.7911970553
 32
0.0
 13
203.36310652
 23
82.7911970553
 33
0.0
  0
SOLID
  5
244
330
240
100
AcDbEntity
  8
VERMASSUNG
100
AcDbTrace
 10
144.36310652
 20
83.2411970553
 30
0.0
 11
147.36310652
 21
82.7911970553
 31
0.0
 12
147.36310652
 22
83.6911970553
 32
0.0
 13
147.36310652
 23
83.6911970553
 33
0.0
  0
LINE
  5
245
330
240
100
AcDbEntity
  8
VERMASSUNG
100
AcDbLine
 10
206.36310652
 20
114.5649780387
 30
0.0
 11
206.36310652
 21
82.2411970553
 31
0.0
  0
LINE
  5
246
330
240
100
AcDbEntity
  8
VERMASSUNG
100
AcDbLine
 10
144.36310652
 20
93.2411970553
 30
0.0
 11
144.36310652
 21
82.2411970553
 31
0.0
  0
LINE
  5
247
330
240
100
AcDbEntity
  8
VERMASSUNG
100
AcDbLine
 10
206.36310652
 20
83.2411970553
 30
0.0
 11
144.36310652
 21
83.2411970553
 31
0.0
  0
MTEXT
  5
248
330
240
100
AcDbEntity
  8
VERMASSUNG
100
AcDbMText
 10
173.96310657
 20
85.8193326513
 30
0.0
 40
2.0
 41
0.0
 71
     1
 72
     1
  1
62
  7
SLDTEXTSTYLE0
 73
     1
 44
1.0
  0
ENDBLK
  5
242
330
240
100
AcDbEntity
  8
0
100
AcDbBlockEnd
  0
BLOCK
  5
24B
330
24A
100
AcDbEntity
  8
0
100
AcDbBlockBegin
  2
_D_7
 70
     0
 10
0.0
 20
0.0
 30
0.0
  3
_D_7
  1

  0
SOLID
  5
24D
330
24A
100
AcDbEntity
  8
VERMASSUNG
100
AcDbTrace
 10
126.36310652
 20
163.7558471015
 30
0.0
 11
129.36310652
 21
163.3058471015
 31
0.0
 12
129.36310652
 22
164.2058471015
 32
0.0
 13
129.36310652
 23
164.2058471015
 33
0.0
  0
SOLID
  5
24E
330
24A
100
AcDbEntity
  8
VERMASSUNG
100
AcDbTrace
 10
206.36310652
 20
163.7558471015
 30
0.0
 11
203.36310652
 21
164.2058471015
 31
0.0
 12
203.36310652
 22
163.3058471015
 32
0.0
 13
203.36310652
 23
163.3058471015
 33
0.0
  0
LINE
  5
24F
330
24A
100
AcDbEntity
  8
VERMASSUNG
100
AcDbLine
 10
126.36310652
 20
155.9911970553
 30
0.0
 11
126.36310652
 21
164.7558471015
 31
0.0
  0
LINE
  5
250
330
24A
100
AcDbEntity
  8
VERMASSUNG
100
AcDbLine
 10
206.36310652
 20
134.867416072
 30
0.0
 11
206.36310652
 21
164.7558471015
 31
0.0
  0
LINE
  5
251
330
24A
100
AcDbEntity
  8
VERMASSUNG
100
AcDbLine
 10
126.36310652
 20
163.7558471015
 30
0.0
 11
206.36310652
 21
163.7558471015
 31
0.0
  0
MTEXT
  5
252
330
24A
100
AcDbEntity
  8
VERMASSUNG
100
AcDbMText
 10
164.96310657
 20
166.3339826975
 30
0.0
 40
2.0
 41
0.0
 71
     1
 72
     1
  1
80
  7
SLDTEXTSTYLE0
 73
     1
 44
1.0
  0
ENDBLK
  5
24C
330
24A
100
AcDbEntity
  8
0
100
AcDbBlockEnd
  0
BLOCK
  5
255
330
254
100
AcDbEntity
  8
0
100
AcDbBlockBegin
  2
_D_8
 70
     0
 10
0.0
 20
0.0
 30
0.0
  3
_D_8
  1

  0
SOLID
  5
257
330
254
100
AcDbEntity
  8
VERMASSUNG
100
AcDbTrace
 10
86.41310652
 20
171.1486567358
 30
0.0
 11
89.41310652
 21
170.6986567358
 31
0.0
 12
89.41310652
 22
171.5986567358
 32
0.0
 13
89.41310652
 23
171.5986567358
 33
0.0
  0
SOLID
  5
258
330
254
100
AcDbEntity
  8
VERMASSUNG
100
AcDbTrace
 10
206.36310652
 20
171.1486567358
 30
0.0
 11
203.36310652
 21
171.5986567358
 31
0.0
 12
203.36310652
 22
170.6986567358
 32
0.0
 13
203.36310652
 23
170.6986567358
 33
0.0
  0
LINE
  5
259
330
254
100
AcDbEntity
  8
VERMASSUNG
100
AcDbLine
 10
86.41310652
 20
146.9192917791
 30
0.0
 11
86.41310652
 21
172.1486567358
 31
0.0
  0
LINE
  5
25A
330
254
100
AcDbEntity
  8
VERMASSUNG
100
AcDbLine
 10
206.36310652
 20
134.867416072
 30
0.0
 11
206.36310652
 21
172.1486567358
 31
0.0
  0
LINE
  5
25B
330
254
100
AcDbEntity
  8
VERMASSUNG
100
AcDbLine
 10
86.41310652
 20
171.1486567358
 30
0.0
 11
206.36310652
 21
171.1486567358
 31
0.0
  0
MTEXT
  5
25C
330
254
100
AcDbEntity
  8
VERMASSUNG
100
AcDbMText
 10
142.988106475
 20
173.7267923318
 30
0.0
 40
2.0
 41
0.0
 71
     1
 72
     1
  1
119.95
  7
SLDTEXTSTYLE0
 73
     1
 44
1.0
  0
ENDBLK
  5
256
330
254
100
AcDbEntity
  8
0
100
AcDbBlockEnd
  0
BLOCK
  5
25F
330
25E
100
AcDbEntity
  8
0
100
AcDbBlockBegin
  2
_D_9
 70
     0
 10
0.0
 20
0.0
 30
0.0
  3
_D_9
  1

  0
SOLID
  5
261
330
25E
100
AcDbEntity
  8
VERMASSUNG
100
AcDbTrace
 10
68.3511028592
 20
156.1911970553
 30
0.0
 11
67.9011028592
 21
153.1911970553
 31
0.0
 12
68.8011028592
 22
153.1911970553
 32
0.0
 13
68.8011028592
 23
153.1911970553
 33
0.0
  0
SOLID
  5
262
330
25E
100
AcDbEntity
  8
VERMASSUNG
100
AcDbTrace
 10
68.3511028592
 20
93.2411970553
 30
0.0
 11
68.8011028592
 21
96.2411970553
 31
0.0
 12
67.9011028592
 22
96.2411970553
 32
0.0
 13
67.9011028592
 23
96.2411970553
 33
0.0
  0
LINE
  5
263
330
25E
100
AcDbEntity
  8
VERMASSUNG
100
AcDbLine
 10
126.56310652
 20
156.1911970553
 30
0.0
 11
67.3511028592
 21
156.1911970553
 31
0.0
  0
LINE
  5
264
330
25E
100
AcDbEntity
  8
VERMASSUNG
100
AcDbLine
 10
126.56310652
 20
93.2411970553
 30
0.0
 11
67.3511028592
 21
93.2411970553
 31
0.0
  0
LINE
  5
265
330
25E
100
AcDbEntity
  8
VERMASSUNG
100
AcDbLine
 10
68.3511028592
 20
156.1911970553
 30
0.0
 11
68.3511028592
 21
93.2411970553
 31
0.0
  0
MTEXT
  5
266
330
25E
100
AcDbEntity
  8
VERMASSUNG
100
AcDbMText
 10
65.572967603
 20
114.9111975995
 30
0.0
 40
2.0
 41
0.0
 71
     1
 72
     1
  1
KM
  7
SLDTEXTSTYLE0
 11
-7.044195017643634E-15
 21
1.0
 31
0.0
 73
     1
 44
1.0
  0
MTEXT
  5
267
330
25E
100
AcDbEntity
  8
VERMASSUNG
100
AcDbMText
 10
65.7729675543
 20
118.3111974118
 30
0.0
 40
2.0
 41
0.0
 71
     1
 72
     1
  1
%%c
  7
SLDTEXTSTYLE0
 11
-7.044195017643634E-15
 21
1.0
 31
0.0
 73
     1
 44
1.0
  0
MTEXT
  5
268
330
25E
100
AcDbEntity
  8
VERMASSUNG
100
AcDbMText
 10
65.572967603
 20
121.9211974261
 30
0.0
 40
2.0
 41
0.0
 71
     1
 72
     1
  1
62.95
  7
SLDTEXTSTYLE0
 11
-7.044195017643634E-15
 21
1.0
 31
0.0
 73
     1
 44
1.0
  0
MTEXT
  5
269
330
25E
100
AcDbEntity
  8
VERMASSUNG
100
AcDbMText
 10
65.572967603
 20
129.3086971385
 30
0.0
 40
2.0
 41
0.0
 71
     1
 72
     1
  1
XMZ
  7
SLDTEXTSTYLE0
 11
-7.044195017643634E-15
 21
1.0
 31
0.0
 73
     1
 44
1.0
  0
ENDBLK
  5
260
330
25E
100
AcDbEntity
  8
0
100
AcDbBlockEnd
  0
ENDSEC
  0
SECTION
  2
ENTITIES
  0
MTEXT
  5
78
330
1F
100
AcDbEntity
  8
KOPF_DÜNN
100
AcDbMText
 10
13.8892156294
 20
23.8442973028
 30
0.0
 40
3.0
 41
0.0
 71
     1
 72
     1
  1
KY6.S10.K01.080
  7
SLDTEXTSTYLE0
 73
     1
 44
1.0
  0
MTEXT
  5
79
330
1F
100
AcDbEntity
  8
VERMASSUNG
100
AcDbMText
 10
13.9329988022
 20
28.8834360957
 30
0.0
 40
3.0
 41
0.0
 71
     1
 72
     1
  1
Schrumpffutter_Heat shrink chuck
  7
SLDTEXTSTYLE0
 73
     1
 44
1.0
  0
MTEXT
  5
7A
330
1F
100
AcDbEntity
  8
VERMASSUNG
100
AcDbMText
 10
98.8601118557
 20
13.8365368761
 30
0.0
 40
2.0
 41
0.0
 71
     1
 72
     1
  1
Datum: 14.02.2018
  7
SLDTEXTSTYLE0
 73
     1
 44
1.0
  0
MTEXT
  5
7B
330
1F
100
AcDbEntity
  8
VERMASSUNG
100
AcDbMText
 10
13.933048693
 20
18.0482802738
 30
0.0
 40
2.0
 41
0.0
 71
     1
 72
     1
  1
KM63 XMZ / Ø10
  7
SLDTEXTSTYLE0
 73
     1
 44
1.0
  0
MTEXT
  5
7C
330
1F
100
AcDbEntity
  8
VERMASSUNG
100
AcDbMText
 10
13.9808475933
 20
13.9090974274
 30
0.0
 40
2.0
 41
0.0
 71
     1
 72
     1
  1
Gewicht: 905g
  7
SLDTEXTSTYLE0
 73
     1
 44
1.0
  0
LINE
  5
7D
330
1F
100
AcDbEntity
  8
0
  6
Continuous
 62
     7
370
    25
100
AcDbLine
 10
338.6708208535
 20
124.3058478015
 30
0.0
 11
338.4865301604
 21
125.4457470808
 31
0.0
  0
LINE
  5
7E
330
1F
100
AcDbEntity
  8
0
  6
Continuous
 62
     7
370
    25
100
AcDbLine
 10
338.4865301604
 20
125.4457470808
 30
0.0
 11
337.407203141
 21
125.8560963055
 31
0.0
  0
LINE
  5
7F
330
1F
100
AcDbEntity
  8
0
  6
Continuous
 62
     7
370
    25
100
AcDbLine
 10
337.407203141
 20
125.8560963055
 30
0.0
 11
336.5121666983
 21
125.1265463091
 31
0.0
  0
LINE
  5
80
330
1F
100
AcDbEntity
  8
0
  6
Continuous
 62
     7
370
    25
100
AcDbLine
 10
336.5121666983
 20
125.1265463091
 30
0.0
 11
336.6964573915
 21
123.9866470299
 31
0.0
  0
LINE
  5
81
330
1F
100
AcDbEntity
  8
0
  6
Continuous
 62
     7
370
    25
100
AcDbLine
 10
336.6964573915
 20
123.9866470299
 30
0.0
 11
337.7757844109
 21
123.5762978052
 31
0.0
  0
LINE
  5
82
330
1F
100
AcDbEntity
  8
0
  6
Continuous
 62
     7
370
    25
100
AcDbLine
 10
337.7757844109
 20
123.5762978052
 30
0.0
 11
338.6708208535
 21
124.3058478015
 31
0.0
  0
ARC
  5
83
330
1F
100
AcDbEntity
  8
0
  6
Continuous
 62
     7
370
    25
100
AcDbCircle
 10
337.5914937759
 20
124.7161970553
 30
0.0
 40
1.000000000000015
100
AcDbArc
 50
189.18370128
 51
249.18370128
  0
ARC
  5
84
330
1F
100
AcDbEntity
  8
0
  6
Continuous
 62
     7
370
    25
100
AcDbCircle
 10
337.5914937759
 20
124.7161970553
 30
0.0
 40
1.000000000000007
100
AcDbArc
 50
129.18370128
 51
189.18370128
  0
ARC
  5
85
330
1F
100
AcDbEntity
  8
0
  6
Continuous
 62
     7
370
    25
100
AcDbCircle
 10
337.5914937759
 20
124.7161970553
 30
0.0
 40
1.000000000000015
100
AcDbArc
 50
249.18370128
 51
309.18370128
  0
ARC
  5
86
330
1F
100
AcDbEntity
  8
0
  6
Continuous
 62
     7
370
    25
100
AcDbCircle
 10
337.5914937759
 20
124.7161970553
 30
0.0
 40
0.9999999999999892
100
AcDbArc
 50
69.18370128
 51
129.18370128
  0
ARC
  5
87
330
1F
100
AcDbEntity
  8
0
  6
Continuous
 62
     7
370
    25
100
AcDbCircle
 10
337.5914937759
 20
124.7161970553
 30
0.0
 40
0.9999999999999886
100
AcDbArc
 50
9.18370128
 51
69.18370128
  0
ARC
  5
88
330
1F
100
AcDbEntity
  8
0
  6
Continuous
 62
     7
370
    25
100
AcDbCircle
 10
337.5914937759
 20
124.7161970553
 30
0.0
 40
1.000000000000011
100
AcDbArc
 50
309.18370128
 51
9.18370128
  0
SPLINE
  5
89
330
1F
100
AcDbEntity
  8
0
  6
Continuous
 62
     7
370
    25
100
AcDbSpline
210
0.0
220
0.0
230
1.0
 70
     8
 71
     3
 72
     8
 73
     4
 74
     0
 42
0.000000001
 43
0.00000001
 40
0.0
 40
0.0
 40
0.0
 40
0.0
 40
1.0
 40
1.0
 40
1.0
 40
1.0
 10
327.2023536663009
 20
120.3461961833709
 30
0.0
 10
327.1335152961141
 20
120.2831015100521
 30
0.0
 10
327.065083935658
 20
120.2193791319212
 30
0.0
 10
326.9970676609933
 20
120.1550336996478
 30
0.0
  0
SPLINE
  5
8A
330
1F
100
AcDbEntity
  8
0
  6
Continuous
 62
     7
370
    25
100
AcDbSpline
210
0.0
220
0.0
230
1.0
 70
     8
 71
     3
 72
     8
 73
     4
 74
     0
 42
0.000000001
 43
0.00000001
 40
0.0
 40
0.0
 40
0.0
 40
0.0
 40
1.0
 40
1.0
 40
1.0
 40
1.0
 10
327.4603809075616
 20
120.1769343534436
 30
0.0
 10
327.3736774734012
 20
120.2330952731129
 30
0.0
 10
327.2876794259173
 20
120.2895200094387
 30
0.0
 10
327.2023536663009
 20
120.3461961833709
 30
0.0
  0
ARC
  5
8B
330
1F
100
AcDbEntity
  8
0
  6
Continuous
 62
     7
370
    25
100
AcDbCircle
 10
337.5914937759
 20
124.7161970553
 30
0.0
 40
11.10154736189901
100
AcDbArc
 50
204.1348482805
 51
335.8651517195
  0
SPLINE
  5
8C
330
1F
100
AcDbEntity
  8
0
  6
Continuous
 62
     7
370
    25
100
AcDbSpline
210
0.0
220
0.0
230
1.0
 70
     8
 71
     3
 72
     8
 73
     4
 74
     0
 42
0.000000001
 43
0.00000001
 40
0.0
 40
0.0
 40
0.0
 40
0.0
 40
1.0
 40
1.0
 40
1.0
 40
1.0
 10
347.9806338855666
 20
120.3461961833709
 30
0.0
 10
347.8953081259502
 20
120.2895200094388
 30
0.0
 10
347.8093100784664
 20
120.2330952731129
 30
0.0
 10
347.7226066443059
 20
120.1769343534436
 30
0.0
  0
SPLINE
  5
8D
330
1F
100
AcDbEntity
  8
0
  6
Continuous
 62
     7
370
    25
100
AcDbSpline
210
0.0
220
0.0
230
1.0
 70
     8
 71
     3
 72
     8
 73
     4
 74
     0
 42
0.000000001
 43
0.00000001
 40
0.0
 40
0.0
 40
0.0
 40
0.0
 40
1.0
 40
1.0
 40
1.0
 40
1.0
 10
348.1859198908742
 20
120.1550336996478
 30
0.0
 10
348.1179036162096
 20
120.2193791319212
 30
0.0
 10
348.0494722557534
 20
120.2831015100521
 30
0.0
 10
347.9806338855666
 20
120.3461961833709
 30
0.0
  0
ARC
  5
8E
330
1F
100
AcDbEntity
  8
0
  6
Continuous
 62
     7
370
    25
100
AcDbCircle
 10
337.5914937759
 20
124.7161970553
 30
0.0
 40
11.53456006379122
100
AcDbArc
 50
203.2930774359
 51
336.7074733161
  0
LINE
  5
8F
330
1F
100
AcDbEntity
  8
0
  6
Continuous
 62
     7
370
    25
100
AcDbLine
 10
327.6155603061
 20
129.9944961523
 30
0.0
 11
327.8239688779
 21
129.746197172
 31
0.0
  0
SPLINE
  5
90
330
1F
100
AcDbEntity
  8
0
  6
Continuous
 62
     7
370
    25
100
AcDbSpline
210
0.0
220
0.0
230
1.0
 70
     8
 71
     3
 72
     8
 73
     4
 74
     0
 42
0.000000001
 43
0.00000001
 40
0.0
 40
0.0
 40
0.0
 40
0.0
 40
1.0
 40
1.0
 40
1.0
 40
1.0
 10
327.6155607266094
 20
129.994496304725
 30
0.0
 10
327.7184566404333
 20
130.0564649138159
 30
0.0
 10
327.8222963099881
 20
130.1180435659566
 30
0.0
 10
327.9271341982147
 20
130.1792097572281
 30
0.0
  0
LINE
  5
91
330
1F
100
AcDbEntity
  8
0
  6
Continuous
 62
     7
370
    25
100
AcDbLine
 10
329.0741828213
 20
130.1792095495
 30
0.0
 11
327.9271342734
 21
130.1792095495
 31
0.0
  0
SPLINE
  5
92
330
1F
100
AcDbEntity
  8
0
  6
Continuous
 62
     7
370
    25
100
AcDbSpline
210
0.0
220
0.0
230
1.0
 70
     8
 71
     3
 72
     8
 73
     4
 74
     0
 42
0.000000001
 43
0.00000001
 40
0.0000004089325119
 40
0.0000004089325119
 40
0.0000004089325119
 40
0.0000004089325119
 40
0.0015399868451459
 40
0.0015399868451459
 40
0.0015399868451459
 40
0.0015399868451459
 10
329.0741823585049
 20
130.1792097572281
 30
0.0
 10
329.2859436172993
 20
130.1067548745746
 30
0.0
 10
329.4978639404895
 20
130.0344160045461
 30
0.0
 10
329.7099819237038
 20
129.9622224591203
 30
0.0
  0
LINE
  5
93
330
1F
100
AcDbEntity
  8
0
  6
Continuous
 62
     7
370
    25
100
AcDbLine
 10
329.7099818418
 20
129.9622225655
 30
0.0
 11
329.7181346397
 21
129.9470098769
 31
0.0
  0
LINE
  5
94
330
1F
100
AcDbEntity
  8
0
  6
Continuous
 62
     7
370
    25
100
AcDbLine
 10
329.7157644237
 20
129.746197172
 30
0.0
 11
329.718135571
 21
129.9470103425
 31
0.0
  0
LINE
  5
95
330
1F
100
AcDbEntity
  8
0
  6
Continuous
 62
     7
370
    25
100
AcDbLine
 10
329.7157644237
 20
129.746197172
 30
0.0
 11
327.8239688779
 21
129.746197172
 31
0.0
  0
ARC
  5
96
330
1F
100
AcDbEntity
  8
0
  6
Continuous
 62
     7
370
    25
100
AcDbCircle
 10
337.5914937759
 20
124.7161970553
 30
0.0
 40
11.10154736189899
100
AcDbArc
 50
29.4783538465
 51
150.5216461535
  0
SPLINE
  5
97
330
1F
100
AcDbEntity
  8
0
  6
Continuous
 62
     7
370
    25
100
AcDbSpline
210
0.0
220
0.0
230
1.0
 70
     8
 71
     3
 72
     8
 73
     4
 74
     0
 42
0.000000001
 43
0.00000001
 40
0.0
 40
0.0
 40
0.0
 40
0.0
 40
1.0
 40
1.0
 40
1.0
 40
1.0
 10
327.4270243454955
 20
130.1686861255946
 30
0.0
 10
327.4895926538651
 20
130.1102356564871
 30
0.0
 10
327.5524392472288
 20
130.052171645954
 30
0.0
 10
327.6155607266117
 20
129.9944963047229
 30
0.0
  0
ARC
  5
98
330
1F
100
AcDbEntity
  8
0
  6
Continuous
 62
     7
370
    25
100
AcDbCircle
 10
337.5914937759
 20
124.7161970553
 30
0.0
 40
11.53456006379117
100
AcDbArc
 50
28.2102805322
 51
151.7902347364
  0
SPLINE
  5
99
330
1F
100
AcDbEntity
  8
0
  6
Continuous
 62
     7
370
    25
100
AcDbSpline
210
0.0
220
0.0
230
1.0
 70
     8
 71
     3
 72
     8
 73
     4
 74
     0
 42
0.000000001
 43
0.00000001
 40
0.0
 40
0.0
 40
0.0
 40
0.0
 40
1.0
 40
1.0
 40
1.0
 40
1.0
 10
347.5674268252562
 20
129.9944963047232
 30
0.0
 10
347.6305483046389
 20
130.0521716459542
 30
0.0
 10
347.6933948980026
 20
130.1102356564872
 30
0.0
 10
347.7559632063721
 20
130.1686861255947
 30
0.0
  0
SPLINE
  5
9A
330
1F
100
AcDbEntity
  8
0
  6
Continuous
 62
     7
370
    25
100
AcDbSpline
210
0.0
220
0.0
230
1.0
 70
     8
 71
     3
 72
     8
 73
     4
 74
     0
 42
0.000000001
 43
0.00000001
 40
0.0
 40
0.0
 40
0.0
 40
0.0
 40
1.0
 40
1.0
 40
1.0
 40
1.0
 10
347.2558533536528
 20
130.1792097572281
 30
0.0
 10
347.360691241879
 20
130.1180435659568
 30
0.0
 10
347.4645309114335
 20
130.0564649138164
 30
0.0
 10
347.5674268252571
 20
129.9944963047257
 30
0.0
  0
SPLINE
  5
9B
330
1F
100
AcDbEntity
  8
0
  6
Continuous
 62
     7
370
    25
100
AcDbSpline
210
0.0
220
0.0
230
1.0
 70
     8
 71
     3
 72
     8
 73
     4
 74
     0
 42
0.000000001
 43
0.00000001
 40
0.0000004028655191
 40
0.0000004028655191
 40
0.0000004028655191
 40
0.0000004028655191
 40
0.0015137684369673
 40
0.0015137684369673
 40
0.0015137684369673
 40
0.0015137684369673
 10
329.1678991187917
 20
120.3939216515514
 30
0.0
 10
328.9612276312404
 20
120.3216277098367
 30
0.0
 10
328.7546086626998
 20
120.2492962238799
 30
0.0
 10
328.5480322878911
 20
120.1769343534436
 30
0.0
  0
LINE
  5
9C
330
1F
100
AcDbEntity
  8
0
  6
Continuous
 62
     7
370
    25
100
AcDbLine
 10
328.5480321328
 20
120.176934552
 30
0.0
 11
327.4603805448
 21
120.176934552
 31
0.0
  0
LINE
  5
9D
330
1F
100
AcDbEntity
  8
0
  6
Continuous
 62
     7
370
    25
100
AcDbLine
 10
327.4254084508
 20
120.6099469294
 30
0.0
 11
327.2023539002
 21
120.3461963763
 31
0.0
  0
LINE
  5
9E
330
1F
100
AcDbEntity
  8
0
  6
Continuous
 62
     7
370
    25
100
AcDbLine
 10
329.1930186505
 20
120.6099469294
 30
0.0
 11
327.4256235863
 21
120.6099469294
 31
0.0
  0
LINE
  5
9F
330
1F
100
AcDbEntity
  8
0
  6
Continuous
 62
     7
370
    25
100
AcDbLine
 10
329.2036757747
 20
120.4523662185
 30
0.0
 11
329.1930186505
 21
120.6099469294
 31
0.0
  0
SPLINE
  5
A0
330
1F
100
AcDbEntity
  8
0
  6
Continuous
 62
     7
370
    25
100
AcDbSpline
210
0.0
220
0.0
230
1.0
 70
     8
 71
     3
 72
     8
 73
     4
 74
     0
 42
0.000000001
 43
0.00000001
 40
0.0006523765358268
 40
0.0006523765358268
 40
0.0006523765358268
 40
0.0006523765358268
 40
0.0009043636494504
 40
0.0009043636494504
 40
0.0009043636494504
 40
0.0009043636494504
 10
329.2047759938266
 20
120.454159749
 30
0.0
 10
329.1924589993091
 20
120.4340841680179
 30
0.0
 10
329.1801668019051
 20
120.4140047794954
 30
0.0
 10
329.1678991187917
 20
120.3939216515514
 30
0.0
  0
LINE
  5
A1
330
1F
100
AcDbEntity
  8
0
  6
Continuous
 62
     7
370
    25
100
AcDbLine
 10
347.9806336517
 20
120.3461963763
 30
0.0
 11
347.7575791011
 21
120.6099469294
 31
0.0
  0
LINE
  5
A2
330
1F
100
AcDbEntity
  8
0
  6
Continuous
 62
     7
370
    25
100
AcDbLine
 10
347.7226070071
 20
120.176934552
 30
0.0
 11
346.6349554191
 21
120.176934552
 31
0.0
  0
SPLINE
  5
A3
330
1F
100
AcDbEntity
  8
0
  6
Continuous
 62
     7
370
    25
100
AcDbSpline
210
0.0
220
0.0
230
1.0
 70
     8
 71
     3
 72
     8
 73
     4
 74
     0
 42
0.000000001
 43
0.00000001
 40
0.0000004024872366
 40
0.0000004024872366
 40
0.0000004024872366
 40
0.0000004024872366
 40
0.0015137680586847
 40
0.0015137680586847
 40
0.0015137680586847
 40
0.0015137680586847
 10
346.6349552639763
 20
120.1769343534436
 30
0.0
 10
346.4283788891678
 20
120.2492962238799
 30
0.0
 10
346.2217599206271
 20
120.3216277098367
 30
0.0
 10
346.0150884330758
 20
120.3939216515514
 30
0.0
  0
SPLINE
  5
A4
330
1F
100
AcDbEntity
  8
0
  6
Continuous
 62
     7
370
    25
100
AcDbSpline
210
0.0
220
0.0
230
1.0
 70
     8
 71
     3
 72
     8
 73
     4
 74
     0
 42
0.000000001
 43
0.00000001
 40
0.0000002414707367
 40
0.0000002414707367
 40
0.0000002414707367
 40
0.0000002414707367
 40
0.0002447240690309
 40
0.0002447240690309
 40
0.0002447240690309
 40
0.0002447240690309
 10
346.0150884330758
 20
120.3939216515514
 30
0.0
 10
346.0031860977207
 20
120.413406677498
 30
0.0
 10
345.991260686509
 20
120.4328881833223
 30
0.0
 10
345.9793119412141
 20
120.4523661068342
 30
0.0
  0
LINE
  5
A5
330
1F
100
AcDbEntity
  8
0
  6
Continuous
 62
     7
370
    25
100
AcDbLine
 10
345.9899689014
 20
120.6099469294
 30
0.0
 11
345.9793117771
 21
120.4523662185
 31
0.0
  0
LINE
  5
A6
330
1F
100
AcDbEntity
  8
0
  6
Continuous
 62
     7
370
    25
100
AcDbLine
 10
347.7575791011
 20
120.6099469294
 30
0.0
 11
345.984860597
 21
120.6099469294
 31
0.0
  0
SPLINE
  5
A7
330
1F
100
AcDbEntity
  8
0
  6
Continuous
 62
     7
370
    25
100
AcDbSpline
210
0.0
220
0.0
230
1.0
 70
     8
 71
     3
 72
     8
 73
     4
 74
     0
 42
0.000000001
 43
0.00000001
 40
0.000000410413179
 40
0.000000410413179
 40
0.000000410413179
 40
0.000000410413179
 40
0.0015399883258131
 40
0.0015399883258131
 40
0.0015399883258131
 40
0.0015399883258131
 10
345.4730056281637
 20
129.9622224591203
 30
0.0
 10
345.685123611378
 20
130.0344160045461
 30
0.0
 10
345.8970439345682
 20
130.1067548745746
 30
0.0
 10
346.1088051933626
 20
130.1792097572281
 30
0.0
  0
LINE
  5
A8
330
1F
100
AcDbEntity
  8
0
  6
Continuous
 62
     7
370
    25
100
AcDbLine
 10
347.2558532784
 20
130.1792095495
 30
0.0
 11
346.1088047306
 21
130.1792095495
 31
0.0
  0
LINE
  5
A9
330
1F
100
AcDbEntity
  8
0
  6
Continuous
 62
     7
370
    25
100
AcDbLine
 10
347.359018674
 20
129.746197172
 30
0.0
 11
347.5674272458
 21
129.9944961523
 31
0.0
  0
LINE
  5
AA
330
1F
100
AcDbEntity
  8
0
  6
Continuous
 62
     7
370
    25
100
AcDbLine
 10
347.3588286842
 20
129.746197172
 30
0.0
 11
345.4672231282
 21
129.746197172
 31
0.0
  0
LINE
  5
AB
330
1F
100
AcDbEntity
  8
0
  6
Continuous
 62
     7
370
    25
100
AcDbLine
 10
345.4648519809
 20
129.9470098769
 30
0.0
 11
345.4672231282
 21
129.746197172
 31
0.0
  0
LINE
  5
AC
330
1F
100
AcDbEntity
  8
0
  6
Continuous
 62
     7
370
    25
100
AcDbLine
 10
345.4648529122
 20
129.9470098769
 30
0.0
 11
345.47300571
 21
129.9622225655
 31
0.0
  0
ARC
  5
AD
330
1F
100
AcDbEntity
  8
0
  6
Continuous
 62
     7
370
    25
100
AcDbCircle
 10
337.5914937759
 20
124.7161970553
 30
0.0
 40
10.11874999999998
100
AcDbArc
 50
32.6761561262
 51
147.3238438738
  0
ARC
  5
AE
330
1F
100
AcDbEntity
  8
0
  6
Continuous
 62
     7
370
    25
100
AcDbCircle
 10
337.5914937759
 20
124.7161970553
 30
0.0
 40
10.11875
100
AcDbArc
 50
206.6538426687
 51
333.3461573313
  0
ARC
  5
AF
330
1F
100
AcDbEntity
  8
0
  6
Continuous
 62
     7
370
    25
100
AcDbCircle
 10
337.5914937759
 20
124.7161970553
 30
0.0
 40
9.467788105676668
100
AcDbArc
 50
33.6481949792
 51
146.3518050208
  0
ARC
  5
B0
330
1F
100
AcDbEntity
  8
0
  6
Continuous
 62
     7
370
    25
100
AcDbCircle
 10
337.5914937759
 20
124.7161970553
 30
0.0
 40
9.467788105676664
100
AcDbArc
 50
207.1630537883
 51
332.8369462117
  0
SPLINE
  5
B1
330
1F
100
AcDbEntity
  8
0
  6
Continuous
 62
     7
370
    25
100
AcDbSpline
210
0.0
220
0.0
230
1.0
 70
     8
 71
     3
 72
     8
 73
     4
 74
     0
 42
0.000000001
 43
0.00000001
 40
0.0
 40
0.0
 40
0.0
 40
0.0
 40
1.0
 40
1.0
 40
1.0
 40
1.0
 10
326.9970676608033
 20
120.1550336997591
 30
0.0
 10
326.9438248358617
 20
120.155557425997
 30
0.0
 10
326.890529550246
 20
120.1563555192594
 30
0.0
 10
326.8371840447565
 20
120.1574285671842
 30
0.0
  0
LINE
  5
B2
330
1F
100
AcDbEntity
  8
0
  6
Continuous
 62
     7
370
    25
100
AcDbLine
 10
327.2652712593
 20
120.6099469294
 30
0.0
 11
327.4254084508
 21
120.6099469294
 31
0.0
  0
LINE
  5
B3
330
1F
100
AcDbEntity
  8
0
  6
Continuous
 62
     7
370
    25
100
AcDbLine
 10
347.7575791011
 20
120.6099469294
 30
0.0
 11
347.9177162925
 21
120.6099469294
 31
0.0
  0
SPLINE
  5
B4
330
1F
100
AcDbEntity
  8
0
  6
Continuous
 62
     7
370
    25
100
AcDbSpline
210
0.0
220
0.0
230
1.0
 70
     8
 71
     3
 72
     8
 73
     4
 74
     0
 42
0.000000001
 43
0.00000001
 40
0.0
 40
0.0
 40
0.0
 40
0.0
 40
1.0
 40
1.0
 40
1.0
 40
1.0
 10
348.345803507111
 20
120.1574285671842
 30
0.0
 10
348.2924580016216
 20
120.1563555192594
 30
0.0
 10
348.2391627160059
 20
120.155557425997
 30
0.0
 10
348.1859198910643
 20
120.1550336997591
 30
0.0
  0
LINE
  5
B5
330
1F
100
AcDbEntity
  8
0
  6
Continuous
 62
     7
370
    25
100
AcDbLine
 10
327.8239688779
 20
129.746197172
 30
0.0
 11
327.7005518729
 21
129.746197172
 31
0.0
  0
SPLINE
  5
B6
330
1F
100
AcDbEntity
  8
0
  6
Continuous
 62
     7
370
    25
100
AcDbSpline
210
0.0
220
0.0
230
1.0
 70
     8
 71
     3
 72
     8
 73
     4
 74
     0
 42
0.000000001
 43
0.00000001
 40
0.0
 40
0.0
 40
0.0
 40
0.0
 40
1.0
 40
1.0
 40
1.0
 40
1.0
 10
327.303802851254
 20
130.1666425722722
 30
0.0
 10
327.3449182782958
 20
130.1675115099122
 30
0.0
 10
327.3859925729069
 20
130.168192547495
 30
0.0
 10
327.427024345396
 20
130.1686861255565
 30
0.0
  0
SPLINE
  5
B7
330
1F
100
AcDbEntity
  8
0
  6
Continuous
 62
     7
370
    25
100
AcDbSpline
210
0.0
220
0.0
230
1.0
 70
     8
 71
     3
 72
     8
 73
     4
 74
     0
 42
0.000000001
 43
0.00000001
 40
0.0
 40
0.0
 40
0.0
 40
0.0
 40
1.0
 40
1.0
 40
1.0
 40
1.0
 10
347.7559632064715
 20
130.1686861255565
 30
0.0
 10
347.7969949789606
 20
130.1681925474951
 30
0.0
 10
347.8380692735717
 20
130.1675115099122
 30
0.0
 10
347.8791847006135
 20
130.1666425722722
 30
0.0
  0
LINE
  5
B8
330
1F
100
AcDbEntity
  8
0
  6
Continuous
 62
     7
370
    25
100
AcDbLine
 10
347.4824356789
 20
129.746197172
 30
0.0
 11
347.359018674
 21
129.746197172
 31
0.0
  0
SPLINE
  5
B9
330
1F
100
AcDbEntity
  8
0
  6
Continuous
 62
     7
370
    25
100
AcDbSpline
210
0.0
220
0.0
230
1.0
 70
     8
 71
     3
 72
     9
 73
     5
 74
     0
 42
0.000000001
 43
0.00000001
 40
0.0
 40
0.0
 40
0.0
 40
0.0
 40
0.4897878789203671
 40
1.0
 40
1.0
 40
1.0
 40
1.0
 10
344.6970833405851
 20
129.9393139215736
 30
0.0
 10
344.8234384228063
 20
129.9406326473269
 30
0.0
 10
345.0814176167785
 20
129.9433250899332
 30
0.0
 10
345.335312365068
 20
129.9457651677692
 30
0.0
 10
345.4648525431238
 20
129.9470101250575
 30
0.0
  0
ARC
  5
BA
330
1F
100
AcDbEntity
  8
0
  6
Continuous
 62
     7
370
    25
100
AcDbCircle
 10
337.5914937759
 20
124.7161970553
 30
0.0
 40
8.81875000000001
100
AcDbArc
 50
36.3185452201
 51
143.6814533294
  0
SPLINE
  5
BB
330
1F
100
AcDbEntity
  8
0
  6
Continuous
 62
     7
370
    25
100
AcDbSpline
210
0.0
220
0.0
230
1.0
 70
     8
 71
     3
 72
     9
 73
     5
 74
     0
 42
0.000000001
 43
0.00000001
 40
0.0
 40
0.0
 40
0.0
 40
0.0
 40
0.5102121239851032
 40
1.0
 40
1.0
 40
1.0
 40
1.0
 10
329.7181349076191
 20
129.9470103136617
 30
0.0
 10
329.8476751254699
 20
129.9457653549709
 30
0.0
 10
330.1015699503106
 20
129.9433252743999
 30
0.0
 10
330.3595492233204
 20
129.9406328287067
 30
0.0
 10
330.4859043435036
 20
129.9393141014494
 30
0.0
  0
SPLINE
  5
BC
330
1F
100
AcDbEntity
  8
0
  6
Continuous
 62
     7
370
    25
100
AcDbSpline
210
0.0
220
0.0
230
1.0
 70
     8
 71
     3
 72
     8
 73
     4
 74
     0
 42
0.000000001
 43
0.00000001
 40
0.0
 40
0.0
 40
0.0
 40
0.0
 40
1.0
 40
1.0
 40
1.0
 40
1.0
 10
330.485904089829
 20
129.9393136321721
 30
0.0
 10
330.4781430318836
 20
129.9287553969731
 30
0.0
 10
330.4704055067877
 20
129.9181798634468
 30
0.0
 10
330.4626915914182
 20
129.9075871366673
 30
0.0
  0
SPLINE
  5
BD
330
1F
100
AcDbEntity
  8
0
  6
Continuous
 62
     7
370
    25
100
AcDbSpline
210
0.0
220
0.0
230
1.0
 70
     8
 71
     3
 72
     8
 73
     4
 74
     0
 42
0.000000001
 43
0.00000001
 40
0.0
 40
0.0
 40
0.0
 40
0.0
 40
1.0
 40
1.0
 40
1.0
 40
1.0
 10
330.2911337586552
 20
129.7461973942041
 30
0.0
 10
330.3483941656896
 20
129.8001055711918
 30
0.0
 10
330.4055805567994
 20
129.853902496275
 30
0.0
 10
330.4626915914182
 20
129.9075871366673
 30
0.0
  0
LINE
  5
BE
330
1F
100
AcDbEntity
  8
0
  6
Continuous
 62
     7
370
    25
100
AcDbLine
 10
330.291134579
 20
129.746197172
 30
0.0
 11
329.7157644237
 21
129.746197172
 31
0.0
  0
SPLINE
  5
BF
330
1F
100
AcDbEntity
  8
0
  6
Continuous
 62
     7
370
    25
100
AcDbSpline
210
0.0
220
0.0
230
1.0
 70
     8
 71
     3
 72
     8
 73
     4
 74
     0
 42
0.000000001
 43
0.00000001
 40
0.0
 40
0.0
 40
0.0
 40
0.0
 40
1.0
 40
1.0
 40
1.0
 40
1.0
 10
344.7204113922303
 20
129.9074286223685
 30
0.0
 10
344.7126592795297
 20
129.918074299041
 30
0.0
 10
344.7048833208625
 20
129.9287026112352
 30
0.0
 10
344.6970835942591
 20
129.9393134522977
 30
0.0
  0
LINE
  5
C0
330
1F
100
AcDbEntity
  8
0
  6
Continuous
 62
     7
370
    25
100
AcDbLine
 10
345.4672231282
 20
129.746197172
 30
0.0
 11
344.8918245676
 21
129.746197172
 31
0.0
  0
SPLINE
  5
C1
330
1F
100
AcDbEntity
  8
0
  6
Continuous
 62
     7
370
    25
100
AcDbSpline
210
0.0
220
0.0
230
1.0
 70
     8
 71
     3
 72
     8
 73
     4
 74
     0
 42
0.000000001
 43
0.00000001
 40
0.0
 40
0.0
 40
0.0
 40
0.0
 40
1.0
 40
1.0
 40
1.0
 40
1.0
 10
344.7204113922303
 20
129.9074286223685
 30
0.0
 10
344.7774745199165
 20
129.8537966719527
 30
0.0
 10
344.8346128996467
 20
129.8000525855877
 30
0.0
 10
344.8918251931206
 20
129.7461973943375
 30
0.0
  0
ARC
  5
C2
330
1F
100
AcDbEntity
  8
0
  6
Continuous
 62
     7
370
    25
100
AcDbCircle
 10
337.5914937759
 20
124.7161970553
 30
0.0
 40
8.818750000000039
100
AcDbArc
 50
209.2047569376
 51
330.7952430624
  0
SPLINE
  5
C3
330
1F
100
AcDbEntity
  8
0
  6
Continuous
 62
     7
370
    25
100
AcDbSpline
210
0.0
220
0.0
230
1.0
 70
    24
 71
     3
 72
     8
 73
     4
 74
     0
 42
0.000000001
 43
0.00000001
 40
0.0
 40
0.0
 40
0.0
 40
0.0
 40
0.000136040218399
 40
0.000136040218399
 40
0.000136040218399
 40
0.000136040218399
 10
345.3326291727781
 20
120.4566566244847
 30
0.0
 10
345.318190173094
 20
120.4422176248006
 30
0.0
 10
345.3037197207317
 20
120.4277471724383
 30
0.0
 10
345.2892181221803
 20
120.4132455738869
 30
0.0
  0
SPLINE
  5
C4
330
1F
100
AcDbEntity
  8
0
  6
Continuous
 62
     7
370
    25
100
AcDbSpline
210
0.0
220
0.0
230
1.0
 70
     8
 71
     3
 72
     9
 73
     5
 74
     0
 42
0.000000001
 43
0.00000001
 40
0.0
 40
0.0
 40
0.0
 40
0.0
 40
0.5086448740972567
 40
1.0
 40
1.0
 40
1.0
 40
1.0
 10
345.9793119015343
 20
120.4523660186995
 30
0.0
 10
345.8701458525365
 20
120.4530598675445
 30
0.0
 10
345.6555245036208
 20
120.4544239800724
 30
0.0
 10
345.4390131909433
 20
120.4559208000103
 30
0.0
 10
345.3326292476434
 20
120.4566562701593
 30
0.0
  0
SPLINE
  5
C5
330
1F
100
AcDbEntity
  8
0
  6
Continuous
 62
     7
370
    25
100
AcDbSpline
210
0.0
220
0.0
230
1.0
 70
     8
 71
     3
 72
     9
 73
     5
 74
     0
 42
0.000000001
 43
0.00000001
 40
0.0
 40
0.0
 40
0.0
 40
0.0
 40
0.4913551252639729
 40
1.0
 40
1.0
 40
1.0
 40
1.0
 10
329.8503583346886
 20
120.4566562396947
 30
0.0
 10
329.7439743832966
 20
120.4559207693659
 30
0.0
 10
329.5274630538689
 20
120.4544239490602
 30
0.0
 10
329.3128416885021
 20
120.4530598362059
 30
0.0
 10
329.2036756309994
 20
120.4523659871939
 30
0.0
  0
SPLINE
  5
C6
330
1F
100
AcDbEntity
  8
0
  6
Continuous
 62
     7
370
    25
100
AcDbSpline
210
0.0
220
0.0
230
1.0
 70
    24
 71
     3
 72
     8
 73
     4
 74
     0
 42
0.000000001
 43
0.00000001
 40
0.0
 40
0.0
 40
0.0
 40
0.0
 40
0.000136040122724
 40
0.000136040122724
 40
0.000136040122724
 40
0.000136040122724
 10
329.8937694296872
 20
120.4132455738869
 30
0.0
 10
329.8792678413345
 20
120.4277471622396
 30
0.0
 10
329.8647973991273
 20
120.4422176044468
 30
0.0
 10
329.850358409554
 20
120.4566565940202
 30
0.0
  0
LINE
  5
C7
330
1F
100
AcDbEntity
  8
0
  6
Continuous
 62
     7
370
    25
100
AcDbLine
 10
329.1930186505
 20
120.6099469294
 30
0.0
 11
329.697068123
 21
120.6099469294
 31
0.0
  0
SPLINE
  5
C8
330
1F
100
AcDbEntity
  8
0
  6
Continuous
 62
     7
370
    25
100
AcDbSpline
210
0.0
220
0.0
230
1.0
 70
     8
 71
     3
 72
     8
 73
     4
 74
     0
 42
0.000000001
 43
0.00000001
 40
0.0
 40
0.0
 40
0.0
 40
0.0
 40
1.0
 40
1.0
 40
1.0
 40
1.0
 10
329.8503586093859
 20
120.4566563944331
 30
0.0
 10
329.7992898467814
 20
120.5076988861771
 30
0.0
 10
329.7481928871455
 20
120.5587958582031
 30
0.0
 10
329.6970680456299
 20
120.6099469579443
 30
0.0
  0
SPLINE
  5
C9
330
1F
100
AcDbEntity
  8
0
  6
Continuous
 62
     7
370
    25
100
AcDbSpline
210
0.0
220
0.0
230
1.0
 70
     8
 71
     3
 72
     8
 73
     4
 74
     0
 42
0.000000001
 43
0.00000001
 40
0.0
 40
0.0
 40
0.0
 40
0.0
 40
1.0
 40
1.0
 40
1.0
 40
1.0
 10
345.4859195062377
 20
120.6099469579443
 30
0.0
 10
345.4347946748925
 20
120.5587958683891
 30
0.0
 10
345.3836977254114
 20
120.507698906518
 30
0.0
 10
345.3326289729462
 20
120.4566564248976
 30
0.0
  0
LINE
  5
CA
330
1F
100
AcDbEntity
  8
0
  6
Continuous
 62
     7
370
    25
100
AcDbLine
 10
345.4859194289
 20
120.6099469294
 30
0.0
 11
345.9899689014
 21
120.6099469294
 31
0.0
  0
CIRCLE
  5
CB
330
1F
100
AcDbEntity
  8
0
  6
Continuous
 62
     7
370
    25
100
AcDbCircle
 10
337.5914937759
 20
124.7161970553
 30
0.0
 40
12.47086902276419
  0
SPLINE
  5
CC
330
1F
100
AcDbEntity
  8
0
  6
Continuous
 62
     7
370
    25
100
AcDbSpline
210
0.0
220
0.0
230
1.0
 70
     8
 71
     3
 72
    23
 73
    19
 74
     0
 42
0.000000001
 43
0.00000001
 40
0.0
 40
0.0
 40
0.0
 40
0.0
 40
0.0521036415683759
 40
0.1035646240941235
 40
0.1544751946756683
 40
0.2049306267495642
 40
0.2550287880866983
 40
0.3048696389163111
 40
0.354554670462894
 40
0.4041862979539558
 40
0.453867225213789
 40
0.5036997999428097
 40
0.590187023078111
 40
0.6742716378282376
 40
0.7565997087281883
 40
0.8378563983773627
 40
0.9187511781400207
 40
0.9999999999999999
 40
0.9999999999999999
 40
0.9999999999999999
 40
0.9999999999999999
 10
326.7522416292762
 20
129.2066077680857
 30
0.0
 10
326.7655359842263
 20
129.2357756612481
 30
0.0
 10
326.7919607183051
 20
129.2937516836535
 30
0.0
 10
326.8311717245297
 20
129.3766509846673
 30
0.0
 10
326.869613679336
 20
129.4558329656861
 30
0.0
 10
326.907201260803
 20
129.5310877824889
 30
0.0
 10
326.9438571471107
 20
129.6025074367468
 30
0.0
 10
326.9795070111693
 20
129.6701040455282
 30
0.0
 10
327.0140807579303
 20
129.7339103669919
 30
0.0
 10
327.0475124518857
 20
129.7939539090598
 30
0.0
 10
327.0797393291098
 20
129.8502606057848
 30
0.0
 10
327.1182407659988
 20
129.9156655876068
 30
0.0
 10
327.1609022467119
 20
129.9852266654418
 30
0.0
 10
327.2043952888351
 20
130.0519861621063
 30
0.0
 10
327.2408077856633
 20
130.1037102102042
 30
0.0
 10
327.2697085921404
 20
130.1401585222561
 30
0.0
 10
327.2916260482385
 20
130.1627559191395
 30
0.0
 10
327.2997380127316
 20
130.1653451367009
 30
0.0
 10
327.303802851254
 20
130.1666425722722
 30
0.0
  0
SPLINE
  5
CD
330
1F
100
AcDbEntity
  8
0
  6
Continuous
 62
     7
370
    25
100
AcDbSpline
210
0.0
220
0.0
230
1.0
 70
     8
 71
     3
 72
     8
 73
     4
 74
     0
 42
0.000000001
 43
0.00000001
 40
0.0
 40
0.0
 40
0.0
 40
0.0
 40
1.0
 40
1.0
 40
1.0
 40
1.0
 10
326.6316036894132
 20
129.2043974106759
 30
0.0
 10
326.6717927030063
 20
129.2051277208935
 30
0.0
 10
326.7119550050963
 20
129.2057082467229
 30
0.0
 10
326.752089715572
 20
129.2061392116727
 30
0.0
  0
SPLINE
  5
CE
330
1F
100
AcDbEntity
  8
0
  6
Continuous
 62
     7
370
    25
100
AcDbSpline
210
0.0
220
0.0
230
1.0
 70
     8
 71
     3
 72
    18
 73
    14
 74
     0
 42
0.000000001
 43
0.00000001
 40
0.0
 40
0.0
 40
0.0
 40
0.0
 40
0.0923824559461122
 40
0.1844689291660427
 40
0.2764953616062392
 40
0.3686975365619641
 40
0.4613092840130473
 40
0.5545607518559533
 40
0.6486768051632873
 40
0.7438756050210469
 40
0.8403674044324065
 40
0.9203921078135461
 40
1.0
 40
1.0
 40
1.0
 40
1.0
 10
326.6845426782129
 20
129.4712144175578
 30
0.0
 10
326.6863783318657
 20
129.4710061053426
 30
0.0
 10
326.6900437579488
 20
129.4705901483205
 30
0.0
 10
326.6928390875683
 20
129.4637857248544
 30
0.0
 10
326.693641382647
 20
129.4524523462023
 30
0.0
 10
326.6922752456039
 20
129.4361519511758
 30
0.0
 10
326.688813696975
 20
129.4150007123399
 30
0.0
 10
326.6832723912055
 20
129.3889650112234
 30
0.0
 10
326.6756879231364
 20
129.3580406315722
 30
0.0
 10
326.6661109211994
 20
129.3222416001275
 30
0.0
 10
326.6552704451801
 20
129.2839906925957
 30
0.0
 10
326.6437818042407
 20
129.2447724792006
 30
0.0
 10
326.6356818193626
 20
129.2179175023511
 30
0.0
 10
326.6316424017198
 20
129.2045250739808
 30
0.0
  0
LINE
  5
CF
330
1F
100
AcDbEntity
  8
0
  6
Continuous
 62
     7
370
    25
100
AcDbLine
 10
326.6317875067
 20
129.4704665509
 30
0.0
 11
326.684542274
 21
129.471214403
 31
0.0
  0
SPLINE
  5
D0
330
1F
100
AcDbEntity
  8
0
  6
Continuous
 62
     7
370
    25
100
AcDbSpline
210
0.0
220
0.0
230
1.0
 70
     8
 71
     3
 72
    25
 73
    21
 74
     0
 42
0.000000001
 43
0.00000001
 40
0.0
 40
0.0
 40
0.0
 40
0.0
 40
0.0280105225426455
 40
0.0559601148860774
 40
0.0839014045043129
 40
0.1118870776786379
 40
0.1399695827588941
 40
0.1682008401739877
 40
0.1966319670424218
 40
0.2253130233141493
 40
0.2542927850735863
 40
0.3799486436570518
 40
0.505785022166658
 40
0.6313085886329272
 40
0.7532068238012843
 40
0.8039473267959846
 40
0.8535894438560211
 40
0.902533972239985
 40
0.9511970353794947
 40
1.0
 40
1.0
 40
1.0
 40
1.0
 10
325.7208259111601
 20
126.9035347978702
 30
0.0
 10
325.727804981071
 20
126.9408448113769
 30
0.0
 10
325.7417479395938
 20
127.0153836793705
 30
0.0
 10
325.7642698370367
 20
127.1266927248537
 30
0.0
 10
325.7879034491343
 20
127.2373549338682
 30
0.0
 10
325.8127530396222
 20
127.3473390668125
 30
0.0
 10
325.8387716641085
 20
127.456634210427
 30
0.0
 10
325.8659530454264
 20
127.5652251796292
 30
0.0
 10
325.894278686759
 20
127.6730958895715
 30
0.0
 10
325.9237374675916
 20
127.7802408352965
 30
0.0
 10
325.9881457555031
 20
128.0044157218065
 30
0.0
 10
326.0932474475747
 20
128.3310811358417
 30
0.0
 10
326.2387102083706
 20
128.7170277411618
 30
0.0
 10
326.3779736164818
 20
129.0391075538558
 30
0.0
 10
326.4751219693489
 20
129.2349281378861
 30
0.0
 10
326.5354173755752
 20
129.3442755883694
 30
0.0
 10
326.5703059584566
 20
129.4022036127848
 30
0.0
 10
326.5982004603845
 20
129.4426575655497
 30
0.0
 10
326.6195655527561
 20
129.4672717809488
 30
0.0
 10
326.6277095003286
 20
129.4694007084565
 30
0.0
 10
326.6317873189737
 20
129.4704667001279
 30
0.0
  0
ARC
  5
D1
330
1F
100
AcDbEntity
  8
0
  6
Continuous
 62
     7
370
    25
100
AcDbCircle
 10
337.5914937759
 20
124.7161970553
 30
0.0
 40
12.07050959801142
100
AcDbArc
 50
169.5595567507
 51
190.4404432494
  0
SPLINE
  5
D2
330
1F
100
AcDbEntity
  8
0
  6
Continuous
 62
     7
370
    25
100
AcDbSpline
210
0.0
220
0.0
230
1.0
 70
     8
 71
     3
 72
    26
 73
    22
 74
     0
 42
0.000000001
 43
0.00000001
 40
0.0
 40
0.0
 40
0.0
 40
0.0
 40
0.0241259796963637
 40
0.048215991227299
 40
0.0723203915124064
 40
0.0964895678710793
 40
0.120773623196351
 40
0.1452220711242841
 40
0.1698835501657706
 40
0.1948055644472381
 40
0.2200342569517629
 40
0.2456142191611394
 40
0.3690971486901671
 40
0.4940698769485191
 40
0.6192566784762444
 40
0.7454656653603234
 40
0.7971495824713715
 40
0.8481710308405401
 40
0.8988013269235245
 40
0.9493179290492194
 40
1.0
 40
1.0
 40
1.0
 40
1.0
 10
326.6317873189737
 20
119.9619274105438
 30
0.0
 10
326.6298770042333
 20
119.9622143037332
 30
0.0
 10
326.626059222741
 20
119.962787662398
 30
0.0
 10
326.6180990975602
 20
119.9688463506444
 30
0.0
 10
326.6085199969847
 20
119.9787256113752
 30
0.0
 10
326.5971727901161
 20
119.9928067024856
 30
0.0
 10
326.5841166068221
 20
120.0110022505098
 30
0.0
 10
326.5693607035948
 20
120.0333527932485
 30
0.0
 10
326.5529335232974
 20
120.0598670289405
 30
0.0
 10
326.5348653685772
 20
120.0905625396538
 30
0.0
 10
326.5151882221543
 20
120.1254636428937
 30
0.0
 10
326.466988840726
 20
120.2142281780014
 30
0.0
 10
326.3786708012906
 20
120.3915084794503
 30
0.0
 10
326.2396111845238
 20
120.7125943862954
 30
0.0
 10
326.0939385046616
 20
121.0991770381859
 30
0.0
 10
325.9801999096522
 20
121.4528847423158
 30
0.0
 10
325.9004942911056
 20
121.7351384419286
 30
0.0
 10
325.8498447187514
 20
121.9295818727029
 30
0.0
 10
325.802878048886
 20
122.126823249637
 30
0.0
 10
325.7593182268816
 20
122.3267262947321
 30
0.0
 10
325.7336706617501
 20
122.4614082344644
 30
0.0
 10
325.7208259111601
 20
122.5288593128015
 30
0.0
  0
LINE
  5
D3
330
1F
100
AcDbEntity
  8
0
  6
Continuous
 62
     7
370
    25
100
AcDbLine
 10
326.684542274
 20
119.9611797077
 30
0.0
 11
326.6317875067
 21
119.9619275597
 31
0.0
  0
SPLINE
  5
D4
330
1F
100
AcDbEntity
  8
0
  6
Continuous
 62
     7
370
    25
100
AcDbSpline
210
0.0
220
0.0
230
1.0
 70
     8
 71
     3
 72
    14
 73
    10
 74
     0
 42
0.000000001
 43
0.00000001
 40
0.0
 40
0.0
 40
0.0
 40
0.0
 40
0.0789261963152472
 40
0.1582328720511064
 40
0.3308475394503796
 40
0.5000195457530386
 40
0.6670357883499396
 40
0.8332395193610692
 40
1.0
 40
1.0
 40
1.0
 40
1.0
 10
326.6315458213606
 20
120.2282031704193
 30
0.0
 10
326.6355603679567
 20
120.2149000457818
 30
0.0
 10
326.6436088140687
 20
120.1882296661497
 30
0.0
 10
326.6585095208786
 20
120.1374149268297
 30
0.0
 10
326.6744065024755
 20
120.0803751106422
 30
0.0
 10
326.6874849974735
 20
120.0260718939139
 30
0.0
 10
326.6937176045907
 20
119.9879047511909
 30
0.0
 10
326.6935280247537
 20
119.964496022514
 30
0.0
 10
326.6875411306228
 20
119.9622863678355
 30
0.0
 10
326.6845426782129
 20
119.9611796931139
 30
0.0
  0
SPLINE
  5
D5
330
1F
100
AcDbEntity
  8
0
  6
Continuous
 62
     7
370
    25
100
AcDbSpline
210
0.0
220
0.0
230
1.0
 70
     8
 71
     3
 72
     8
 73
     4
 74
     0
 42
0.000000001
 43
0.00000001
 40
0.0
 40
0.0
 40
0.0
 40
0.0
 40
1.0
 40
1.0
 40
1.0
 40
1.0
 10
326.7788505125856
 20
120.2261420919681
 30
0.0
 10
326.7297825975568
 20
120.2266291451801
 30
0.0
 10
326.6806731600358
 20
120.2273402130549
 30
0.0
 10
326.6315238155105
 20
120.2282757062892
 30
0.0
  0
SPLINE
  5
D6
330
1F
100
AcDbEntity
  8
0
  6
Continuous
 62
     7
370
    25
100
AcDbSpline
210
0.0
220
0.0
230
1.0
 70
     8
 71
     3
 72
    13
 73
     9
 74
     0
 42
0.000000001
 43
0.00000001
 40
0.0
 40
0.0
 40
0.0
 40
0.0
 40
0.1667030582307959
 40
0.3329480818053031
 40
0.4990671507274871
 40
0.6653938523718408
 40
0.8322612710550125
 40
1.0
 40
1.0
 40
1.0
 40
1.0
 10
326.8371840447565
 20
120.1574285671842
 30
0.0
 10
326.8353407309197
 20
120.1578456769499
 30
0.0
 10
326.8316591679497
 20
120.1586787504273
 30
0.0
 10
326.8241419141552
 20
120.1646932292537
 30
0.0
 10
326.8151911100387
 20
120.1741879615459
 30
0.0
 10
326.8046408216157
 20
120.1875975686556
 30
0.0
 10
326.7926676360987
 20
120.2045154722792
 30
0.0
 10
326.7834612284923
 20
120.2189282074186
 30
0.0
 10
326.7788460380035
 20
120.2261533402802
 30
0.0
  0
SPLINE
  5
D7
330
1F
100
AcDbEntity
  8
0
  6
Continuous
 62
     7
370
    25
100
AcDbSpline
210
0.0
220
0.0
230
1.0
 70
     8
 71
     3
 72
    13
 73
     9
 74
     0
 42
0.000000001
 43
0.00000001
 40
0.0
 40
0.0
 40
0.0
 40
0.0
 40
0.1686319999748108
 40
0.3360343310905541
 40
0.5025367825908723
 40
0.6684737453788424
 40
0.8341822636915195
 40
1.0
 40
1.0
 40
1.0
 40
1.0
 10
348.404142894982
 20
120.226156790093
 30
0.0
 10
348.3995056498838
 20
120.2188996300736
 30
0.0
 10
348.3902649745975
 20
120.2044382294313
 30
0.0
 10
348.3782496012304
 20
120.1874575327272
 30
0.0
 10
348.3676840474758
 20
120.1740247515477
 30
0.0
 10
348.3587446981828
 20
120.1645452829937
 30
0.0
 10
348.3512638175943
 20
120.1585800572959
 30
0.0
 10
348.3476240103048
 20
120.1578124815114
 30
0.0
 10
348.345803507111
 20
120.1574285671842
 30
0.0
  0
SPLINE
  5
D8
330
1F
100
AcDbEntity
  8
0
  6
Continuous
 62
     7
370
    25
100
AcDbSpline
210
0.0
220
0.0
230
1.0
 70
     8
 71
     3
 72
     8
 73
     4
 74
     0
 42
0.000000001
 43
0.00000001
 40
0.0
 40
0.0
 40
0.0
 40
0.0
 40
1.0
 40
1.0
 40
1.0
 40
1.0
 10
348.5514685069547
 20
120.2282758110357
 30
0.0
 10
348.5023175773464
 20
120.2273402807737
 30
0.0
 10
348.453206557267
 20
120.2266291902617
 30
0.0
 10
348.4041370623592
 20
120.2261421287637
 30
0.0
  0
SPLINE
  5
D9
330
1F
100
AcDbEntity
  8
0
  6
Continuous
 62
     7
370
    25
100
AcDbSpline
210
0.0
220
0.0
230
1.0
 70
     8
 71
     3
 72
    18
 73
    14
 74
     0
 42
0.000000001
 43
0.00000001
 40
0.0
 40
0.0
 40
0.0
 40
0.0
 40
0.0923325137151694
 40
0.1843692047134009
 40
0.2763458873902312
 40
0.368498217575762
 40
0.4610598988406411
 40
0.5542609546627003
 40
0.6483261285518087
 40
0.743473463655427
 40
0.8399130993133287
 40
0.9201660718313618
 40
1.0
 40
1.0
 40
1.0
 40
1.0
 10
348.4984448736545
 20
119.9611796931139
 30
0.0
 10
348.496609220002
 20
119.9613880053297
 30
0.0
 10
348.4929437939193
 20
119.961803962353
 30
0.0
 10
348.4901484642968
 20
119.9686083858102
 30
0.0
 10
348.4893461692298
 20
119.979941764496
 30
0.0
 10
348.490712306229
 20
119.9962421593963
 30
0.0
 10
348.4941738550231
 20
120.0173933987064
 30
0.0
 10
348.4997151601696
 20
120.043429098034
 30
0.0
 10
348.5072996305969
 20
120.0743534844567
 30
0.0
 10
348.5168766235775
 20
120.1101524901848
 30
0.0
 10
348.5277279706038
 20
120.1484417352992
 30
0.0
 10
348.5392427322361
 20
120.1877473597163
 30
0.0
 10
348.5473744410572
 20
120.2147044376098
 30
0.0
 10
348.5514296526649
 20
120.2281476950591
 30
0.0
  0
LINE
  5
DA
330
1F
100
AcDbEntity
  8
0
  6
Continuous
 62
     7
370
    25
100
AcDbLine
 10
348.5512000451
 20
119.9619275597
 30
0.0
 11
348.4984452779
 21
119.9611797077
 31
0.0
  0
SPLINE
  5
DB
330
1F
100
AcDbEntity
  8
0
  6
Continuous
 62
     7
370
    25
100
AcDbSpline
210
0.0
220
0.0
230
1.0
 70
     8
 71
     3
 72
    25
 73
    21
 74
     0
 42
0.000000001
 43
0.00000001
 40
0.0
 40
0.0
 40
0.0
 40
0.0
 40
0.0280105225425618
 40
0.0559601148859273
 40
0.0839014045041196
 40
0.1118870776784247
 40
0.1399695827586811
 40
0.1682008401737953
 40
0.1966319670422708
 40
0.2253130233140565
 40
0.2542927850735732
 40
0.3799486436574536
 40
0.5057850221666685
 40
0.6313085886327393
 40
0.7532068238012419
 40
0.803947326795536
 40
0.8535894438553622
 40
0.9025339722393254
 40
0.951197035379054
 40
1.0
 40
1.0
 40
1.0
 40
1.0
 10
349.4621616407074
 20
122.5288593128016
 30
0.0
 10
349.4551825707965
 20
122.4915492992949
 30
0.0
 10
349.4412396122738
 20
122.4170104313015
 30
0.0
 10
349.418717714831
 20
122.3057013858186
 30
0.0
 10
349.3950841027334
 20
122.1950391768043
 30
0.0
 10
349.3702345122454
 20
122.0850550438601
 30
0.0
 10
349.3442158877592
 20
121.9757599002455
 30
0.0
 10
349.3170345064413
 20
121.8671689310433
 30
0.0
 10
349.2887088651087
 20
121.7592982211007
 30
0.0
 10
349.2592500842761
 20
121.6521532753755
 30
0.0
 10
349.1948417963644
 20
121.4279783888648
 30
0.0
 10
349.0897401042926
 20
121.1013129748291
 30
0.0
 10
348.9442773434968
 20
120.7153663695096
 30
0.0
 10
348.8050139353862
 20
120.3932865568171
 30
0.0
 10
348.7078655825189
 20
120.1974659727862
 30
0.0
 10
348.6475701762923
 20
120.0881185223021
 30
0.0
 10
348.612681593411
 20
120.0301904978868
 30
0.0
 10
348.5847870914832
 20
119.9897365451218
 30
0.0
 10
348.5634219991115
 20
119.9651223297228
 30
0.0
 10
348.5552780515388
 20
119.9629934022152
 30
0.0
 10
348.5512002328938
 20
119.9619274105438
 30
0.0
  0
ARC
  5
DC
330
1F
100
AcDbEntity
  8
0
  6
Continuous
 62
     7
370
    25
100
AcDbCircle
 10
337.5914937759
 20
124.7161970553
 30
0.0
 40
12.07050959801141
100
AcDbArc
 50
349.5595567507
 51
10.4404432493
  0
SPLINE
  5
DD
330
1F
100
AcDbEntity
  8
0
  6
Continuous
 62
     7
370
    25
100
AcDbSpline
210
0.0
220
0.0
230
1.0
 70
     8
 71
     3
 72
    26
 73
    22
 74
     0
 42
0.000000001
 43
0.00000001
 40
0.0
 40
0.0
 40
0.0
 40
0.0
 40
0.0241259796962594
 40
0.0482159912271147
 40
0.0723203915121655
 40
0.0964895678708044
 40
0.1207736231960655
 40
0.1452220711240092
 40
0.1698835501655297
 40
0.1948055644470513
 40
0.2200342569516523
 40
0.2456142191611222
 40
0.3690971486898452
 40
0.4940698769485167
 40
0.6192566784763793
 40
0.7454656653603262
 40
0.7971495824714568
 40
0.8481710308406679
 40
0.8988013269236526
 40
0.9493179290493045
 40
1.0
 40
1.0
 40
1.0
 40
1.0
 10
348.5512002328938
 20
129.4704667001279
 30
0.0
 10
348.5531105476342
 20
129.4701798069385
 30
0.0
 10
348.5569283291264
 20
129.4696064482737
 30
0.0
 10
348.5648884543073
 20
129.4635477600273
 30
0.0
 10
348.5744675548827
 20
129.4536684992964
 30
0.0
 10
348.5858147617514
 20
129.439587408186
 30
0.0
 10
348.5988709450453
 20
129.4213918601619
 30
0.0
 10
348.6136268482726
 20
129.3990413174232
 30
0.0
 10
348.63005402857
 20
129.3725270817311
 30
0.0
 10
348.6481221832902
 20
129.3418315710178
 30
0.0
 10
348.6677993297133
 20
129.3069304677779
 30
0.0
 10
348.7159987111414
 20
129.2181659326707
 30
0.0
 10
348.8043167505768
 20
129.0408856312219
 30
0.0
 10
348.9433763673437
 20
128.7197997243764
 30
0.0
 10
349.0890490472059
 20
128.3332170724858
 30
0.0
 10
349.2027876422154
 20
127.9795093683556
 30
0.0
 10
349.282493260762
 20
127.6972556687428
 30
0.0
 10
349.3331428331163
 20
127.5028122379683
 30
0.0
 10
349.3801095029817
 20
127.3055708610342
 30
0.0
 10
349.423669324986
 20
127.1056678159393
 30
0.0
 10
349.4493168901174
 20
126.9709858762072
 30
0.0
 10
349.4621616407074
 20
126.9035347978701
 30
0.0
  0
LINE
  5
DE
330
1F
100
AcDbEntity
  8
0
  6
Continuous
 62
     7
370
    25
100
AcDbLine
 10
348.4984452779
 20
129.471214403
 30
0.0
 11
348.5512000451
 21
129.4704665509
 31
0.0
  0
SPLINE
  5
DF
330
1F
100
AcDbEntity
  8
0
  6
Continuous
 62
     7
370
    25
100
AcDbSpline
210
0.0
220
0.0
230
1.0
 70
     8
 71
     3
 72
    14
 73
    10
 74
     0
 42
0.000000001
 43
0.00000001
 40
0.0
 40
0.0
 40
0.0
 40
0.0
 40
0.0786889129230217
 40
0.1577561817120102
 40
0.3304686003102582
 40
0.4997364082417218
 40
0.666847231663544
 40
0.833145083375537
 40
1.0
 40
1.0
 40
1.0
 40
1.0
 10
348.5513531604315
 20
129.2044829083401
 30
0.0
 10
348.5473551514768
 20
129.2177328128559
 30
0.0
 10
348.5393399101461
 20
129.2442963307242
 30
0.0
 10
348.5244672368565
 20
129.2950178584931
 30
0.0
 10
348.5085810720942
 20
129.3520189375171
 30
0.0
 10
348.4955025484499
 20
129.4063222331262
 30
0.0
 10
348.4892699488448
 20
129.4444893551634
 30
0.0
 10
348.4894595267213
 20
129.4678980892389
 30
0.0
 10
348.4954464211137
 20
129.470107743197
 30
0.0
 10
348.4984448736545
 20
129.4712144175578
 30
0.0
  0
SPLINE
  5
E0
330
1F
100
AcDbEntity
  8
0
  6
Continuous
 62
     7
370
    25
100
AcDbSpline
210
0.0
220
0.0
230
1.0
 70
     8
 71
     3
 72
     8
 73
     4
 74
     0
 42
0.000000001
 43
0.00000001
 40
0.0
 40
0.0
 40
0.0
 40
0.0
 40
1.0
 40
1.0
 40
1.0
 40
1.0
 10
348.4308978197486
 20
129.2061392483056
 30
0.0
 10
348.4710309382552
 20
129.2057082943583
 30
0.0
 10
348.5111916461838
 20
129.2051277913458
 30
0.0
 10
348.5513790635268
 20
129.2043975157862
 30
0.0
  0
SPLINE
  5
E1
330
1F
100
AcDbEntity
  8
0
  6
Continuous
 62
     7
370
    25
100
AcDbSpline
210
0.0
220
0.0
230
1.0
 70
     8
 71
     3
 72
    23
 73
    19
 74
     0
 42
0.000000001
 43
0.00000001
 40
0.0
 40
0.0
 40
0.0
 40
0.0
 40
0.0441308420115403
 40
0.0880968635201137
 40
0.1320155028394797
 40
0.1760048571417636
 40
0.220182730577585
 40
0.2646656976919496
 40
0.3095682184552906
 40
0.3550018365579412
 40
0.4010744854732484
 40
0.4478899182331895
 40
0.4955472680210786
 40
0.5953670562466713
 40
0.6949121173423626
 40
0.7950007649006683
 40
0.896438625518418
 40
1.0
 40
1.0
 40
1.0
 40
1.0
 10
347.8791847006135
 20
130.1666425722722
 30
0.0
 10
347.8811690907203
 20
130.1663597150423
 30
0.0
 10
347.8851304596052
 20
130.1657950570017
 30
0.0
 10
347.8939907638356
 20
130.159375703823
 30
0.0
 10
347.9049632419579
 20
130.1488544543163
 30
0.0
 10
347.9182426399784
 20
130.1338229180066
 30
0.0
 10
347.9337533636446
 20
130.1143706729442
 30
0.0
 10
347.9514848253977
 20
130.0904506949921
 30
0.0
 10
347.9714014721009
 20
130.0620496042783
 30
0.0
 10
347.9934670061131
 20
130.0291418644776
 30
0.0
 10
348.0176379298072
 20
129.9917018818214
 30
0.0
 10
348.0438649398545
 20
129.9497018101915
 30
0.0
 10
348.0822015200858
 20
129.8864247016683
 30
0.0
 10
348.1345342994645
 20
129.7963658393049
 30
0.0
 10
348.2029349106729
 20
129.6720197197377
 30
0.0
 10
348.2756199854684
 20
129.5323066417572
 30
0.0
 10
348.351980221368
 20
129.3779706265292
 30
0.0
 10
348.404269036018
 20
129.2642479723016
 30
0.0
 10
348.4306842639214
 20
129.2067976390074
 30
0.0
  0
SPLINE
  5
E2
330
1F
100
AcDbEntity
  8
0
  6
Continuous
 62
     7
370
    25
100
AcDbSpline
210
0.0
220
0.0
230
1.0
 70
    11
 71
     3
 72
    39
 73
    35
 74
     0
 42
0.000000001
 43
0.00000001
 40
0.0
 40
0.0
 40
0.0
 40
0.0
 40
0.0310664058350965
 40
0.0621048158425859
 40
0.093136155179263
 40
0.1235538293503448
 40
0.1538561545806855
 40
0.1850588072748946
 40
0.2160250992945718
 40
0.2471867223797388
 40
0.2784462884305076
 40
0.3100516090231096
 40
0.3419834369141944
 40
0.3734259894013148
 40
0.4048604886786042
 40
0.4368740651833136
 40
0.4685120685925458
 40
0.4998055358633138
 40
0.5309508213230685
 40
0.5618649784438015
 40
0.5930416446594986
 40
0.6233742450133227
 40
0.6540913579075065
 40
0.6849496782718291
 40
0.71581606451649
 40
0.7471731804043279
 40
0.7784514311862922
 40
0.8101295911560753
 40
0.8419598919688862
 40
0.8735175891922173
 40
0.9050808037887091
 40
0.9370235169792366
 40
0.968744159003463
 40
1.0
 40
1.0
 40
1.0
 40
1.0
 10
340.4956203407312
 20
113.2845668715825
 30
0.0
 10
340.6853321696862
 20
113.3233354483299
 30
0.0
 10
341.0290730201313
 20
113.3997663941117
 30
0.0
 10
341.4120300073425
 20
113.4879059341064
 30
0.0
 10
341.6564704740563
 20
113.534855420751
 30
0.0
 10
341.7374594108734
 20
113.5229464960376
 30
0.0
 10
341.6567369653936
 20
113.4509885893227
 30
0.0
 10
341.416874771773
 20
113.326468323125
 30
0.0
 10
341.0402250376758
 20
113.1690993332996
 30
0.0
 10
340.5339821008469
 20
112.9970752486043
 30
0.0
 10
339.9167077071635
 20
112.8321508410186
 30
0.0
 10
339.2042318930207
 20
112.6944382649397
 30
0.0
 10
338.4287666532489
 20
112.6028054524313
 30
0.0
 10
337.618302219635
 20
112.5694728743361
 30
0.0
 10
336.805797746676
 20
112.5987203198895
 30
0.0
 10
336.0262847565388
 20
112.6870492768767
 30
0.0
 10
335.3079564572002
 20
112.8225547765119
 30
0.0
 10
334.6845843498
 20
112.9863312980036
 30
0.0
 10
334.171485755204
 20
113.1583374421492
 30
0.0
 10
333.7862836453419
 20
113.3171494566209
 30
0.0
 10
333.5368590401031
 20
113.4444084217854
 30
0.0
 10
333.4462570001571
 20
113.5200153787404
 30
0.0
 10
333.5144685711186
 20
113.5367847754192
 30
0.0
 10
333.7466844375192
 20
113.4940044332047
 30
0.0
 10
334.1239014747049
 20
113.4068777482942
 30
0.0
 10
334.6356063424682
 20
113.2921486929884
 30
0.0
 10
335.2590774732154
 20
113.1727265479357
 30
0.0
 10
335.9756221763491
 20
113.068101097886
 30
0.0
 10
336.7539532889621
 20
112.9974526049591
 30
0.0
 10
337.5657847758131
 20
112.971373780529
 30
0.0
 10
338.3795592978094
 20
112.9943993522197
 30
0.0
 10
339.1619331419781
 20
113.0626317903577
 30
0.0
 10
339.8839461767137
 20
113.1658789700683
 30
0.0
 10
340.304751696561
 20
113.2455618937645
 30
0.0
 10
340.4956203407312
 20
113.2845668715824
 30
0.0
  0
SPLINE
  5
E3
330
1F
100
AcDbEntity
  8
0
  6
Continuous
 62
     7
370
    25
100
AcDbSpline
210
0.0
220
0.0
230
1.0
 70
    11
 71
     3
 72
    39
 73
    35
 74
     0
 42
0.000000001
 43
0.00000001
 40
0.0
 40
0.0
 40
0.0
 40
0.0
 40
0.0312651429932929
 40
0.0629601069329363
 40
0.0948697276489851
 40
0.1264264963751878
 40
0.1579651393672514
 40
0.1898765439017007
 40
0.221552335268766
 40
0.2527844076550835
 40
0.2838418966732524
 40
0.3148645781100705
 40
0.34591276392991
 40
0.3763475365526239
 40
0.406675132466265
 40
0.4379141187435676
 40
0.4688932367346729
 40
0.5000738678969627
 40
0.5313369410961
 40
0.5629183719104931
 40
0.5948445736346094
 40
0.6262809966135477
 40
0.6577486436588904
 40
0.6897584692806558
 40
0.7214430019612538
 40
0.752762334319555
 40
0.7839279690576615
 40
0.8148885765585969
 40
0.846037500498419
 40
0.8763409566916832
 40
0.9067589191462748
 40
0.9378312724751754
 40
0.9689189660503823
 40
0.9999999999999999
 40
0.9999999999999999
 40
0.9999999999999999
 40
0.9999999999999999
 10
340.4955160909443
 20
136.147859291525
 30
0.0
 10
340.3044421546634
 20
136.1869232494055
 30
0.0
 10
339.8835075922244
 20
136.2666422439655
 30
0.0
 10
339.1621181870602
 20
136.3697576593162
 30
0.0
 10
338.380462138769
 20
136.4379585317401
 30
0.0
 10
337.5673744190581
 20
136.461015424382
 30
0.0
 10
336.7550942022061
 20
136.4350311507358
 30
0.0
 10
335.9764637771574
 20
136.3644409854977
 30
0.0
 10
335.2597879872465
 20
136.2598254232587
 30
0.0
 10
334.6379127175851
 20
136.1406530982424
 30
0.0
 10
334.1284017840986
 20
136.026715930516
 30
0.0
 10
333.7532824378559
 20
135.9406016515696
 30
0.0
 10
333.5173218630104
 20
135.896545930236
 30
0.0
 10
333.4459213198209
 20
135.9120757309438
 30
0.0
 10
333.5365177496104
 20
135.9875846131252
 30
0.0
 10
333.7854940299769
 20
136.1147581409721
 30
0.0
 10
334.1704088498204
 20
136.2736088195849
 30
0.0
 10
334.6831941566453
 20
136.4456330807957
 30
0.0
 10
335.3056532795696
 20
136.6093061603301
 30
0.0
 10
336.022153424378
 20
136.7447077337105
 30
0.0
 10
336.8002524584866
 20
136.8332254011929
 30
0.0
 10
337.6119751471349
 20
136.8629328096756
 30
0.0
 10
338.423417334834
 20
136.8300463650253
 30
0.0
 10
339.200543226318
 20
136.7385654569803
 30
0.0
 10
339.9149813154882
 20
136.6006812670187
 30
0.0
 10
340.5332042737245
 20
136.4355534421682
 30
0.0
 10
341.039571634448
 20
136.2635029048162
 30
0.0
 10
341.4161241558624
 20
136.1062193831057
 30
0.0
 10
341.6558199672909
 20
135.9818155856228
 30
0.0
 10
341.7372866754866
 20
135.9096274121861
 30
0.0
 10
341.6572274329934
 20
135.8973549038086
 30
0.0
 10
341.4128814270419
 20
135.944250314314
 30
0.0
 10
341.0299079935928
 20
136.0323838624596
 30
0.0
 10
340.6854648623831
 20
136.1090253670695
 30
0.0
 10
340.4955160909443
 20
136.147859291525
 30
0.0
  0
SPLINE
  5
E4
330
1F
100
AcDbEntity
  8
0
  6
Continuous
 62
     7
370
    25
100
AcDbSpline
210
0.0
220
0.0
230
1.0
 70
     8
 71
     3
 72
    23
 73
    19
 74
     0
 42
0.000000001
 43
0.00000001
 40
0.0
 40
0.0
 40
0.0
 40
0.0
 40
0.0449850911547964
 40
0.0909520670823883
 40
0.1379394291328525
 40
0.1859832248994781
 40
0.235117176177667
 40
0.2853728096486027
 40
0.3367795876649756
 40
0.3893650370847659
 40
0.4431548745955978
 40
0.4981731273942729
 40
0.5575107591414307
 40
0.6265492282208773
 40
0.7053073139958764
 40
0.7937970254642376
 40
0.8920262116484563
 40
1.0
 40
1.0
 40
1.0
 40
1.0
 10
327.7005520643766
 20
129.7461970553358
 30
0.0
 10
327.6983893750108
 20
129.7457681536762
 30
0.0
 10
327.69401679149
 20
129.7449009887663
 30
0.0
 10
327.6837358322983
 20
129.7378074211644
 30
0.0
 10
327.6706755542682
 20
129.7261946795843
 30
0.0
 10
327.6545563927139
 20
129.7094053094105
 30
0.0
 10
327.6354559650579
 20
129.6873333227948
 30
0.0
 10
327.613353612302
 20
129.6597358490307
 30
0.0
 10
327.5882531337665
 20
129.6264274178213
 30
0.0
 10
327.5601620023887
 20
129.5872270794152
 30
0.0
 10
327.5290461015372
 20
129.5419850339436
 30
0.0
 10
327.4944071706421
 20
129.4895891015387
 30
0.0
 10
327.453685662344
 20
129.4268066332866
 30
0.0
 10
327.4049647412972
 20
129.3490496339811
 30
0.0
 10
327.3471904029719
 20
129.2517650763768
 30
0.0
 10
327.2802797533345
 20
129.1320202426612
 30
0.0
 10
327.2043357890637
 20
128.9881000377981
 30
0.0
 10
327.1499746243976
 20
128.8773658329541
 30
0.0
 10
327.1215095602955
 20
128.8193822290607
 30
0.0
  0
LINE
  5
E5
330
1F
100
AcDbEntity
  8
0
  6
Continuous
 62
     7
370
    25
100
AcDbLine
 10
327.1215095128
 20
128.8199083959
 30
0.0
 11
326.7521702627
 21
129.2059932915
 31
0.0
  0
LINE
  5
E6
330
1F
100
AcDbEntity
  8
0
  6
Continuous
 62
     7
370
    25
100
AcDbLine
 10
348.4307846929
 20
129.2059336868
 30
0.0
 11
348.061518086
 21
128.8199256254
 31
0.0
  0
SPLINE
  5
E7
330
1F
100
AcDbEntity
  8
0
  6
Continuous
 62
     7
370
    25
100
AcDbSpline
210
0.0
220
0.0
230
1.0
 70
     8
 71
     3
 72
    26
 73
    22
 74
     0
 42
0.000000001
 43
0.00000001
 40
0.0
 40
0.0
 40
0.0
 40
0.0
 40
0.0509383868710681
 40
0.0998291548374484
 40
0.1466728126632442
 40
0.1914699456539526
 40
0.2342212299963317
 40
0.2749274506887306
 40
0.3135895241945819
 40
0.3502085273905902
 40
0.384785735024819
 40
0.4173226688625226
 40
0.4478211631676295
 40
0.476283453466084
 40
0.5027122992247393
 40
0.5939067005067384
 40
0.681601599325777
 40
0.7659159552126487
 40
0.8469836289730962
 40
0.9249552229482289
 40
1.0
 40
1.0
 40
1.0
 40
1.0
 10
348.0615184762404
 20
128.819191498811
 30
0.0
 10
348.0480606120408
 20
128.8468122799784
 30
0.0
 10
348.0216858622406
 20
128.9009435434373
 30
0.0
 10
347.9833136824581
 20
128.9772515805194
 30
0.0
 10
347.9468474999631
 20
129.0480037601162
 30
0.0
 10
347.9123112503371
 20
129.1131755868076
 30
0.0
 10
347.8796987984829
 20
129.173033832061
 30
0.0
 10
347.8490115146893
 20
129.2277989916025
 30
0.0
 10
347.8202488983881
 20
129.2777233829134
 30
0.0
 10
347.7934107339165
 20
129.3230656135062
 30
0.0
 10
347.7684971534896
 20
129.3640915524439
 30
0.0
 10
347.745506506703
 20
129.4010689373869
 30
0.0
 10
347.7244430012162
 20
129.4342650533656
 30
0.0
 10
347.7052906308404
 20
129.4639407856276
 30
0.0
 10
347.6736195538982
 20
129.5126111106752
 30
0.0
 10
347.6321496084631
 20
129.5745064285942
 30
0.0
 10
347.5851600923189
 20
129.6398470360189
 30
0.0
 10
347.5465415226038
 20
129.68896542731
 30
0.0
 10
347.5164930628825
 20
129.7224417158205
 30
0.0
 10
347.4942029519136
 20
129.7425591480569
 30
0.0
 10
347.4863076364804
 20
129.7449999819063
 30
0.0
 10
347.482435487491
 20
129.7461970553358
 30
0.0
  0
SPLINE
  5
E8
330
1F
100
AcDbEntity
  8
0
  6
Continuous
 62
     7
370
    25
100
AcDbSpline
210
0.0
220
0.0
230
1.0
 70
     8
 71
     3
 72
     8
 73
     4
 74
     0
 42
0.000000001
 43
0.00000001
 40
0.0
 40
0.0
 40
0.0
 40
0.0
 40
1.0
 40
1.0
 40
1.0
 40
1.0
 10
345.3331742277341
 20
128.9391953818185
 30
0.0
 10
345.3967672080742
 20
128.8735266039718
 30
0.0
 10
345.4607236345095
 20
128.8091843063115
 30
0.0
 10
345.5249225542169
 20
128.7474470553358
 30
0.0
  0
SPLINE
  5
E9
330
1F
100
AcDbEntity
  8
0
  6
Continuous
 62
     7
370
    25
100
AcDbSpline
210
0.0
220
0.0
230
1.0
 70
     8
 71
     3
 72
    25
 73
    21
 74
     0
 42
0.000000001
 43
0.00000001
 40
0.0
 40
0.0
 40
0.0
 40
0.0
 40
0.0367725003273524
 40
0.0742084010635883
 40
0.1123590542855501
 40
0.1512729822625089
 40
0.1909959100229794
 40
0.2315708273567468
 40
0.2730380740480022
 40
0.3154354426133704
 40
0.3587982934479269
 40
0.4031596779846243
 40
0.4485504661867954
 40
0.4949994753770925
 40
0.5532504315742431
 40
0.6218294885841514
 40
0.7007739996682805
 40
0.7901076726768732
 40
0.8898461547601584
 40
1.0
 40
1.0
 40
1.0
 40
1.0
 10
344.8912530404226
 20
129.7461970553355
 30
0.0
 10
344.8914768144875
 20
129.7458723677017
 30
0.0
 10
344.8919283996504
 20
129.7452171348529
 30
0.0
 10
344.8966454395226
 20
129.7398547630646
 30
0.0
 10
344.9042980486052
 20
129.7310991693635
 30
0.0
 10
344.9151910277421
 20
129.7184749512708
 30
0.0
 10
344.929239614158
 20
129.7019186131396
 30
0.0
 10
344.9464665117672
 20
129.6812614357611
 30
0.0
 10
344.9668650645486
 20
129.6563736997928
 30
0.0
 10
344.9904358778408
 20
129.6271261535992
 30
0.0
 10
345.0171812264005
 20
129.5934032184029
 30
0.0
 10
345.0470890798329
 20
129.5550974032782
 30
0.0
 10
345.0802051721773
 20
129.5121265079416
 30
0.0
 10
345.119131093754
 20
129.4607052262699
 30
0.0
 10
345.1679591734744
 20
129.3964889945775
 30
0.0
 10
345.2298797780795
 20
129.3135944654771
 30
0.0
 10
345.3042643364017
 20
129.2096487152595
 30
0.0
 10
345.3912387643889
 20
129.0815625050027
 30
0.0
 10
345.4906636143672
 20
128.9274727251015
 30
0.0
 10
345.562082790093
 20
128.809408489237
 30
0.0
 10
345.5995643737717
 20
128.7474470553358
 30
0.0
  0
LINE
  5
EA
330
1F
100
AcDbEntity
  8
0
  6
Continuous
 62
     7
370
    25
100
AcDbLine
 10
345.599564066
 20
128.747446843
 30
0.0
 11
345.524922287
 21
128.747446843
 31
0.0
  0
SPLINE
  5
EB
330
1F
100
AcDbEntity
  8
0
  6
Continuous
 62
     7
370
    25
100
AcDbSpline
210
0.0
220
0.0
230
1.0
 70
     8
 71
     3
 72
    23
 73
    19
 74
     0
 42
0.000000001
 43
0.00000001
 40
0.0
 40
0.0
 40
0.0
 40
0.0
 40
0.0511129009857237
 40
0.1016896331838987
 40
0.1518293139104701
 40
0.2016336701894375
 40
0.2512064936754073
 40
0.3006530343006341
 40
0.3500793489716446
 40
0.3995916247932064
 40
0.4492954981442684
 40
0.4992953912354717
 40
0.5872572780521592
 40
0.6724255494349295
 40
0.7555067762540847
 40
0.83726167352717
 40
0.9184882400167593
 40
1.0
 40
1.0
 40
1.0
 40
1.0
 10
345.3332369038595
 20
128.9394380979137
 30
0.0
 10
345.3172213199591
 20
128.9685667001446
 30
0.0
 10
345.2853581538961
 20
129.0265183487284
 30
0.0
 10
345.2383143154772
 20
129.1092761839467
 30
0.0
 10
345.1923357913022
 20
129.1883650424309
 30
0.0
 10
345.1475551244987
 20
129.2635820303651
 30
0.0
 10
345.1040713600628
 20
129.3350450854107
 30
0.0
 10
345.0619853964781
 20
129.4027864895991
 30
0.0
 10
345.0213909320808
 20
129.4668600013441
 30
0.0
 10
344.9823760257306
 20
129.5273136004153
 30
0.0
 10
344.9450262032431
 20
129.5841911053436
 30
0.0
 10
344.900497946651
 20
129.650905578404
 30
0.0
 10
344.8518576861099
 20
129.7222258622685
 30
0.0
 10
344.804018586354
 20
129.7908061147276
 30
0.0
 10
344.7663670742731
 20
129.8438224427697
 30
0.0
 10
344.7395443728856
 20
129.8810950988973
 30
0.0
 10
344.722815542062
 20
129.9041324984773
 30
0.0
 10
344.7209671320982
 20
129.9066672237425
 30
0.0
 10
344.7200413074779
 20
129.9079368073859
 30
0.0
  0
SPLINE
  5
EC
330
1F
100
AcDbEntity
  8
0
  6
Continuous
 62
     7
370
    25
100
AcDbSpline
210
0.0
220
0.0
230
1.0
 70
     8
 71
     3
 72
     8
 73
     4
 74
     0
 42
0.000000001
 43
0.00000001
 40
0.0
 40
0.0
 40
0.0
 40
0.0
 40
1.0
 40
1.0
 40
1.0
 40
1.0
 10
347.9953864230058
 20
128.7474470553357
 30
0.0
 10
348.017271794649
 20
128.7717680715334
 30
0.0
 10
348.0391571662921
 20
128.7957926698558
 30
0.0
 10
348.0610425379352
 20
128.8194995219444
 30
0.0
  0
LINE
  5
ED
330
1F
100
AcDbEntity
  8
0
  6
Continuous
 62
     7
370
    25
100
AcDbLine
 10
347.9952265451
 20
128.747446843
 30
0.0
 11
345.599564066
 21
128.747446843
 31
0.0
  0
SPLINE
  5
EE
330
1F
100
AcDbEntity
  8
0
  6
Continuous
 62
     7
370
    25
100
AcDbSpline
210
0.0
220
0.0
230
1.0
 70
     8
 71
     3
 72
     8
 73
     4
 74
     0
 42
0.000000001
 43
0.00000001
 40
0.0
 40
0.0
 40
0.0
 40
0.0
 40
1.0
 40
1.0
 40
1.0
 40
1.0
 10
327.1218507881075
 20
128.8196030894245
 30
0.0
 10
327.1437675605951
 20
128.7958626408654
 30
0.0
 10
327.1656843330827
 20
128.7718034890787
 30
0.0
 10
327.1876011055701
 20
128.7474470553358
 30
0.0
  0
SPLINE
  5
EF
330
1F
100
AcDbEntity
  8
0
  6
Continuous
 62
     7
370
    25
100
AcDbSpline
210
0.0
220
0.0
230
1.0
 70
     8
 71
     3
 72
    26
 73
    22
 74
     0
 42
0.000000001
 43
0.00000001
 40
0.0
 40
0.0
 40
0.0
 40
0.0
 40
0.0524616379916458
 40
0.1026498591861474
 40
0.1505655134537972
 40
0.1962095861908931
 40
0.2395832262515146
 40
0.2806877815543323
 40
0.3195248450324018
 40
0.3560963147377176
 40
0.3904044736499266
 40
0.4224520974393497
 40
0.4522426027388373
 40
0.4797802555350637
 40
0.5050704712281464
 40
0.5966394156800096
 40
0.6841917884819306
 40
0.7679874773571161
 40
0.8483228539139546
 40
0.9255341635201179
 40
1.0
 40
1.0
 40
1.0
 40
1.0
 10
329.5832456200176
 20
128.7474619473535
 30
0.0
 10
329.6011071043055
 20
128.7772354073937
 30
0.0
 10
329.6360560482805
 20
128.8354920992852
 30
0.0
 10
329.6868208817615
 20
128.9176910796477
 30
0.0
 10
329.7348908394025
 20
128.9937719485469
 30
0.0
 10
329.7802348121666
 20
129.0637232970122
 30
0.0
 10
329.8228607916715
 20
129.1278304589637
 30
0.0
 10
329.8627670901804
 20
129.1863382984338
 30
0.0
 10
329.8999544192957
 20
129.2395268760561
 30
0.0
 10
329.9344232418867
 20
129.287684916294
 30
0.0
 10
329.9661733305196
 20
129.3311095895712
 30
0.0
 10
329.9952077351213
 20
129.3700996806694
 30
0.0
 10
330.0215190243233
 20
129.4049537791973
 30
0.0
 10
330.0451356538684
 20
129.4359587736495
 30
0.0
 10
330.0847813328751
 20
129.4882019922836
 30
0.0
 10
330.1363196296746
 20
129.5557313255413
 30
0.0
 10
330.1931457666558
 20
129.6279247717499
 30
0.0
 10
330.2373031946188
 20
129.6824087278723
 30
0.0
 10
330.2684808175608
 20
129.7196735190407
 30
0.0
 10
330.2879403841999
 20
129.7421378713154
 30
0.0
 10
330.2900819818803
 20
129.7448604207426
 30
0.0
 10
330.2911333984371
 20
129.7461970553358
 30
0.0
  0
LINE
  5
F0
330
1F
100
AcDbEntity
  8
0
  6
Continuous
 62
     7
370
    25
100
AcDbLine
 10
329.5832456032
 20
128.747446843
 30
0.0
 11
327.1876008193
 21
128.747446843
 31
0.0
  0
LINE
  5
F1
330
1F
100
AcDbEntity
  8
0
  6
Continuous
 62
     7
370
    25
100
AcDbLine
 10
329.6580652649
 20
128.747446843
 30
0.0
 11
329.5829457174
 21
128.747446843
 31
0.0
  0
SPLINE
  5
F2
330
1F
100
AcDbEntity
  8
0
  6
Continuous
 62
     7
370
    25
100
AcDbSpline
210
0.0
220
0.0
230
1.0
 70
     8
 71
     3
 72
     8
 73
     4
 74
     0
 42
0.000000001
 43
0.00000001
 40
0.0
 40
0.0
 40
0.0
 40
0.0
 40
1.0
 40
1.0
 40
1.0
 40
1.0
 10
329.6580649976507
 20
128.7474470553358
 30
0.0
 10
329.7219738003105
 20
128.8094159187669
 30
0.0
 10
329.7857487196625
 20
128.8733919838836
 30
0.0
 10
329.8491087855435
 20
128.9389266402293
 30
0.0
  0
SPLINE
  5
F3
330
1F
100
AcDbEntity
  8
0
  6
Continuous
 62
     7
370
    25
100
AcDbSpline
210
0.0
220
0.0
230
1.0
 70
     8
 71
     3
 72
    24
 73
    20
 74
     0
 42
0.000000001
 43
0.00000001
 40
0.0
 40
0.0
 40
0.0
 40
0.0
 40
0.0410257106277056
 40
0.0818520099058079
 40
0.1225800578328279
 40
0.1633117464027038
 40
0.2041489402772657
 40
0.2451927184714171
 40
0.2865426449201731
 40
0.3282960933615133
 40
0.3705476475467034
 40
0.4133885920081624
 40
0.4569065022338602
 40
0.5011849368583825
 40
0.6001856774930499
 40
0.6987388860423923
 40
0.7976800645430001
 40
0.8978349910013272
 40
1.0
 40
1.0
 40
1.0
 40
1.0
 10
330.4626915914182
 20
129.9075871366673
 30
0.0
 10
330.4624968279772
 20
129.9073197865098
 30
0.0
 10
330.4621082477708
 20
129.9067863856884
 30
0.0
 10
330.4580534600964
 20
129.9012146396893
 30
0.0
 10
330.4514595011165
 20
129.8921338905355
 30
0.0
 10
330.4420952402066
 20
129.8791964301747
 30
0.0
 10
330.4300471264365
 20
129.8624779872689
 30
0.0
 10
330.4153245569761
 20
129.8419359764971
 30
0.0
 10
330.3979655641288
 20
129.8175546024503
 30
0.0
 10
330.3780083929755
 20
129.7893058583785
 30
0.0
 10
330.35549934328
 20
129.7571603109773
 30
0.0
 10
330.3304901075186
 20
129.7210834710112
 30
0.0
 10
330.3030407379937
 20
129.6810398784918
 30
0.0
 10
330.2611176249274
 20
129.6191194351519
 30
0.0
 10
330.2019114497174
 20
129.5298069440572
 30
0.0
 10
330.122131856598
 20
129.40526235203
 30
0.0
 10
330.0361510716114
 20
129.2654775595402
 30
0.0
 10
329.9448662843884
 20
129.1110647405524
 30
0.0
 10
329.8816619303293
 20
128.9970187188998
 30
0.0
 10
329.8497457803632
 20
128.9394291748833
 30
0.0
  0
LINE
  5
F4
330
1F
100
AcDbEntity
  8
0
  6
Continuous
 62
     7
370
    25
100
AcDbLine
 10
326.7788526545
 20
120.2261419115
 30
0.0
 11
327.2030905763
 21
120.6749350843
 31
0.0
  0
SPLINE
  5
F5
330
1F
100
AcDbEntity
  8
0
  6
Continuous
 62
     7
370
    25
100
AcDbSpline
210
0.0
220
0.0
230
1.0
 70
     8
 71
     3
 72
    13
 73
     9
 74
     0
 42
0.000000001
 43
0.00000001
 40
0.0
 40
0.0
 40
0.0
 40
0.0
 40
0.1706320847381217
 40
0.3395984166493647
 40
0.5069574113007884
 40
0.672769183166934
 40
0.8370955448651839
 40
1.0
 40
1.0
 40
1.0
 40
1.0
 10
327.2030902888114
 20
120.6749143138066
 30
0.0
 10
327.2080957592211
 20
120.6679629407217
 30
0.0
 10
327.2180578353941
 20
120.654128055584
 30
0.0
 10
327.2309316632881
 20
120.6380002971246
 30
0.0
 10
327.2421979757846
 20
120.6253315669675
 30
0.0
 10
327.2516753392195
 20
120.6164751291328
 30
0.0
 10
327.2595575719128
 20
120.6109631006574
 30
0.0
 10
327.2633724781448
 20
120.6102847545772
 30
0.0
 10
327.2652716428602
 20
120.6099470553358
 30
0.0
  0
SPLINE
  5
F6
330
1F
100
AcDbEntity
  8
0
  6
Continuous
 62
     7
370
    25
100
AcDbSpline
210
0.0
220
0.0
230
1.0
 70
     8
 71
     3
 72
    13
 73
     9
 74
     0
 42
0.000000001
 43
0.00000001
 40
0.0
 40
0.0
 40
0.0
 40
0.0
 40
0.1621004456877203
 40
0.32594345520649
 40
0.4915935308810087
 40
0.6591130874452793
 40
0.8285624736348074
 40
1.0
 40
1.0
 40
1.0
 40
1.0
 10
347.9177159090074
 20
120.6099470553358
 30
0.0
 10
347.9195930153498
 20
120.6102815384366
 30
0.0
 10
347.9233674067432
 20
120.6109541002985
 30
0.0
 10
347.9312144839226
 20
120.6164273846957
 30
0.0
 10
347.9406805436979
 20
120.6252468493575
 30
0.0
 10
347.9519614585
 20
120.6378996063521
 30
0.0
 10
347.964876076997
 20
120.6540516077477
 30
0.0
 10
347.9748717912425
 20
120.6679374076888
 30
0.0
 10
347.9798987971539
 20
120.6749208004382
 30
0.0
  0
LINE
  5
F7
330
1F
100
AcDbEntity
  8
0
  6
Continuous
 62
     7
370
    25
100
AcDbLine
 10
347.9799118767
 20
120.6749211145
 30
0.0
 11
348.4041339661
 21
120.2261419115
 31
0.0
  0
LINE
  5
F8
330
1F
100
AcDbEntity
  8
0
  6
Continuous
 62
     7
370
    25
100
AcDbLine
 10
345.524922287
 20
120.6849472677
 30
0.0
 11
345.5336441229
 21
120.6849472677
 31
0.0
  0
SPLINE
  5
F9
330
1F
100
AcDbEntity
  8
0
  6
Continuous
 62
     7
370
    25
100
AcDbSpline
210
0.0
220
0.0
230
1.0
 70
     8
 71
     3
 72
    13
 73
     9
 74
     0
 42
0.000000001
 43
0.00000001
 40
0.0
 40
0.0
 40
0.0
 40
0.0
 40
0.1705273303835771
 40
0.3393382731990408
 40
0.506559245496943
 40
0.6723203022115876
 40
0.8367549624391394
 40
1.0
 40
1.0
 40
1.0
 40
1.0
 10
345.5336567436447
 20
120.6849469210204
 30
0.0
 10
345.5286213401022
 20
120.6769407982527
 30
0.0
 10
345.5186012152396
 20
120.6610091357508
 30
0.0
 10
345.506798172584
 20
120.6423921106409
 30
0.0
 10
345.4974560688727
 20
120.6277531176547
 30
0.0
 10
345.4908604442498
 20
120.6175060481379
 30
0.0
 10
345.4867074215614
 20
120.6111230578702
 30
0.0
 10
345.4861815732524
 20
120.6103381062731
 30
0.0
 10
345.4859196036292
 20
120.6099470553358
 30
0.0
  0
SPLINE
  5
FA
330
1F
100
AcDbEntity
  8
0
  6
Continuous
 62
     7
370
    25
100
AcDbSpline
210
0.0
220
0.0
230
1.0
 70
     8
 71
     3
 72
     8
 73
     4
 74
     0
 42
0.000000001
 43
0.00000001
 40
0.0
 40
0.0
 40
0.0
 40
0.0
 40
1.0
 40
1.0
 40
1.0
 40
1.0
 10
347.9799118381468
 20
120.6749214135054
 30
0.0
 10
347.9777283539057
 20
120.6777700790218
 30
0.0
 10
347.9755448696645
 20
120.6807108704193
 30
0.0
 10
347.9733613854234
 20
120.6837433676958
 30
0.0
  0
LINE
  5
FB
330
1F
100
AcDbEntity
  8
0
  6
Continuous
 62
     7
370
    25
100
AcDbLine
 10
347.9724585021
 20
120.6849472677
 30
0.0
 11
345.5336478482
 21
120.6849472677
 31
0.0
  0
SPLINE
  5
FC
330
1F
100
AcDbEntity
  8
0
  6
Continuous
 62
     7
370
    25
100
AcDbSpline
210
0.0
220
0.0
230
1.0
 70
     8
 71
     3
 72
     8
 73
     4
 74
     0
 42
0.000000001
 43
0.00000001
 40
0.0
 40
0.0
 40
0.0
 40
0.0
 40
1.0
 40
1.0
 40
1.0
 40
1.0
 10
327.2105289328535
 20
120.6849470553435
 30
0.0
 10
327.208043014167
 20
120.6814853560314
 30
0.0
 10
327.2055570954805
 20
120.6781412041225
 30
0.0
 10
327.203071176794
 20
120.6749152121821
 30
0.0
  0
LINE
  5
FD
330
1F
100
AcDbEntity
  8
0
  6
Continuous
 62
     7
370
    25
100
AcDbLine
 10
329.6478328238
 20
120.6849472677
 30
0.0
 11
327.2107451166
 21
120.6849472677
 31
0.0
  0
SPLINE
  5
FE
330
1F
100
AcDbEntity
  8
0
  6
Continuous
 62
     7
370
    25
100
AcDbSpline
210
0.0
220
0.0
230
1.0
 70
     8
 71
     3
 72
    13
 73
     9
 74
     0
 42
0.000000001
 43
0.00000001
 40
0.0
 40
0.0
 40
0.0
 40
0.0
 40
0.1631595583946182
 40
0.3275424452610066
 40
0.4932858680133646
 40
0.6605236853186202
 40
0.8293862019304667
 40
1.0
 40
1.0
 40
1.0
 40
1.0
 10
329.6970679482383
 20
120.6099470553358
 30
0.0
 10
329.6968101027517
 20
120.6103377057284
 30
0.0
 10
329.6962924785192
 20
120.6111219355099
 30
0.0
 10
329.6921458822753
 20
120.6175001047451
 30
0.0
 10
329.6855526035997
 20
120.6277425508929
 30
0.0
 10
329.6762082087222
 20
120.642379466942
 30
0.0
 10
329.6643983957085
 20
120.6609993257915
 30
0.0
 10
329.6543716783939
 20
120.6769370334383
 30
0.0
 10
329.6493324569542
 20
120.6849469967747
 30
0.0
  0
LINE
  5
FF
330
1F
100
AcDbEntity
  8
0
  6
Continuous
 62
     7
370
    25
100
AcDbLine
 10
329.6493424977
 20
120.6849472677
 30
0.0
 11
329.6580652649
 21
120.6849472677
 31
0.0
  0
SPLINE
  5
100
330
1F
100
AcDbEntity
  8
0
  6
Continuous
 62
     7
370
    25
100
AcDbSpline
210
0.0
220
0.0
230
1.0
 70
     8
 71
     3
 72
    14
 73
    10
 74
     0
 42
0.000000001
 43
0.00000001
 40
0.0
 40
0.0
 40
0.0
 40
0.0
 40
0.0310276388093398
 40
0.0622853718693698
 40
0.1248003166924349
 40
0.2498289731770658
 40
0.4998892603621822
 40
0.7606803621577949
 40
1.0
 40
1.0
 40
1.0
 40
1.0
 10
326.6313997814747
 20
120.2282088807202
 30
0.0
 10
326.6357290749402
 20
120.2329928029988
 30
0.0
 10
326.644419766974
 20
120.2425961240877
 30
0.0
 10
326.6618205456364
 20
120.2618904380858
 30
0.0
 10
326.6922967054815
 20
120.2956553845395
 30
0.0
 10
326.7531180983009
 20
120.3630741434013
 30
0.0
 10
326.8410084407128
 20
120.4605408182666
 30
0.0
 10
326.9438461207965
 20
120.5746853301643
 30
0.0
 10
327.0110522322381
 20
120.6494701431707
 30
0.0
 10
327.0432125938866
 20
120.6852571658164
 30
0.0
  0
LINE
  5
101
330
1F
100
AcDbEntity
  8
0
  6
Continuous
 62
     7
370
    25
100
AcDbLine
 10
327.042884467
 20
120.6849472677
 30
0.0
 11
327.2105290497
 21
120.6849472677
 31
0.0
  0
LINE
  5
102
330
1F
100
AcDbEntity
  8
0
  6
Continuous
 62
     7
370
    25
100
AcDbLine
 10
347.9724585021
 20
120.6849472677
 30
0.0
 11
348.1401105354
 21
120.6849472677
 31
0.0
  0
SPLINE
  5
103
330
1F
100
AcDbEntity
  8
0
  6
Continuous
 62
     7
370
    25
100
AcDbSpline
210
0.0
220
0.0
230
1.0
 70
     8
 71
     3
 72
    11
 73
     7
 74
     0
 42
0.000000001
 43
0.00000001
 40
0.0
 40
0.0
 40
0.0
 40
0.0
 40
0.2392913840897591
 40
0.5001130134987114
 40
0.7515028526612877
 40
1.0
 40
1.0
 40
1.0
 40
1.0
 10
348.1398070286041
 20
120.6852338578474
 30
0.0
 10
348.1719635815381
 20
120.6494571393171
 30
0.0
 10
348.2391699736643
 20
120.5746846915527
 30
0.0
 10
348.3421980634109
 20
120.4602259782381
 30
0.0
 10
348.4472887280739
 20
120.3440667920994
 30
0.0
 10
348.5169635481548
 20
120.2666788507839
 30
0.0
 10
348.5515993648473
 20
120.228208790201
 30
0.0
  0
LINE
  5
104
330
1F
100
AcDbEntity
  8
0
  6
Continuous
 62
     7
370
    25
100
AcDbLine
 10
327.1876008193
 20
128.747446843
 30
0.0
 11
327.043028822
 21
128.747446843
 31
0.0
  0
SPLINE
  5
105
330
1F
100
AcDbEntity
  8
0
  6
Continuous
 62
     7
370
    25
100
AcDbSpline
210
0.0
220
0.0
230
1.0
 70
     8
 71
     3
 72
    11
 73
     7
 74
     0
 42
0.000000001
 43
0.00000001
 40
0.0
 40
0.0
 40
0.0
 40
0.0
 40
0.2392845096574327
 40
0.5001120454060707
 40
0.7515010914954734
 40
1.0
 40
1.0
 40
1.0
 40
1.0
 10
327.0433314317241
 20
128.7471612691392
 30
0.0
 10
327.0111703019262
 20
128.7829591182298
 30
0.0
 10
326.9439525433308
 20
128.8577777329217
 30
0.0
 10
326.8409078948325
 20
128.9723059971816
 30
0.0
 10
326.7357996659738
 20
129.0885369908446
 30
0.0
 10
326.6661141493467
 20
129.1659714865242
 30
0.0
 10
326.6314728369061
 20
129.2044648878558
 30
0.0
  0
SPLINE
  5
106
330
1F
100
AcDbEntity
  8
0
  6
Continuous
 62
     7
370
    25
100
AcDbSpline
210
0.0
220
0.0
230
1.0
 70
     8
 71
     3
 72
    14
 73
    10
 74
     0
 42
0.000000001
 43
0.00000001
 40
0.0
 40
0.0
 40
0.0
 40
0.0
 40
0.0310294147488059
 40
0.0622870907567357
 40
0.1248019217230938
 40
0.2498303511435398
 40
0.4998901825558308
 40
0.7606872171869626
 40
1.0
 40
1.0
 40
1.0
 40
1.0
 10
348.5515030996363
 20
129.2044647795793
 30
0.0
 10
348.5471729033206
 20
129.1996775930092
 30
0.0
 10
348.5384806565256
 20
129.1900680039539
 30
0.0
 10
348.5210770281781
 20
129.170762010248
 30
0.0
 10
348.4905962926431
 20
129.1369767945962
 30
0.0
 10
348.4297656709211
 20
129.0695176636492
 30
0.0
 10
348.3418607677365
 20
128.9719911579173
 30
0.0
 10
348.2390065231212
 20
128.8577771511512
 30
0.0
 10
348.1717890649747
 20
128.7829461910426
 30
0.0
 10
348.1396241355901
 20
128.7471380451524
 30
0.0
  0
LINE
  5
107
330
1F
100
AcDbEntity
  8
0
  6
Continuous
 62
     7
370
    25
100
AcDbLine
 10
348.1399512793
 20
128.747446843
 30
0.0
 11
347.9953867326
 21
128.747446843
 31
0.0
  0
LINE
  5
108
330
1F
100
AcDbEntity
  8
0
  6
Continuous
 62
     7
370
    25
100
AcDbLine
 10
325.7208255062
 20
122.528859329
 30
0.0
 11
326.1608884613
 21
122.6099470244
 31
0.0
  0
SPLINE
  5
109
330
1F
100
AcDbEntity
  8
0
  6
Continuous
 62
     7
370
    25
100
AcDbSpline
210
0.0
220
0.0
230
1.0
 70
     8
 71
     3
 72
    25
 73
    21
 74
     0
 42
0.000000001
 43
0.00000001
 40
0.0
 40
0.0
 40
0.0
 40
0.0
 40
0.0274788704220519
 40
0.0560416006846
 40
0.0856947086346483
 40
0.1164440166532229
 40
0.1482947438675477
 40
0.1812515840465501
 40
0.2153187716746058
 40
0.2505001382254875
 40
0.3330514552513183
 40
0.5015081958163713
 40
0.5771663066143402
 40
0.6488981303024295
 40
0.7167477700061697
 40
0.7807674423486859
 40
0.8410194131339161
 40
0.897578484992366
 40
0.9505352047787778
 40
1.0
 40
1.0
 40
1.0
 40
1.0
 10
326.1608885685225
 20
122.6099470553358
 30
0.0
 10
326.1675967358659
 20
122.5807648508186
 30
0.0
 10
326.1812776634225
 20
122.5212493966704
 30
0.0
 10
326.2040423920764
 20
122.4308588996123
 30
0.0
 10
326.2289200293166
 20
122.3377272904915
 30
0.0
 10
326.2560592673341
 20
122.2421412462167
 30
0.0
 10
326.2854206743654
 20
122.1443877766033
 30
0.0
 10
326.3170058446535
 20
122.0448071005455
 30
0.0
 10
326.3508527145185
 20
121.9437979609663
 30
0.0
 10
326.4025539444515
 20
121.7970311537144
 30
0.0
 10
326.5069129574651
 20
121.5327647407998
 30
0.0
 10
326.627786185149
 20
121.2627951109715
 30
0.0
 10
326.741279231606
 20
121.0453854362555
 30
0.0
 10
326.8125521992218
 20
120.915681865525
 30
0.0
 10
326.8746267713478
 20
120.8118067882002
 30
0.0
 10
326.927210783515
 20
120.7319461543817
 30
0.0
 10
326.9704573294425
 20
120.6739275282311
 30
0.0
 10
327.0040641416626
 20
120.6358239695786
 30
0.0
 10
327.0290111245353
 20
120.6138214385839
 30
0.0
 10
327.0379706613973
 20
120.6112088252326
 30
0.0
 10
327.0422976981153
 20
120.6099470553358
 30
0.0
  0
LINE
  5
10A
330
1F
100
AcDbEntity
  8
0
  6
Continuous
 62
     7
370
    25
100
AcDbLine
 10
349.4621620456
 20
126.9035347817
 30
0.0
 11
349.0220990906
 21
126.8224470863
 31
0.0
  0
SPLINE
  5
10B
330
1F
100
AcDbEntity
  8
0
  6
Continuous
 62
     7
370
    25
100
AcDbSpline
210
0.0
220
0.0
230
1.0
 70
     8
 71
     3
 72
    20
 73
    16
 74
     0
 42
0.000000001
 43
0.00000001
 40
0.0
 40
0.0
 40
0.0
 40
0.0
 40
0.0481541053709101
 40
0.0993220053191994
 40
0.1535299239007727
 40
0.2107995476294668
 40
0.2711494251328335
 40
0.3041838795806031
 40
0.3605578199056567
 40
0.4402583812372164
 40
0.5432665008272719
 40
0.7025856217611187
 40
0.8451532372668946
 40
0.9714583418066324
 40
0.9999999999999999
 40
0.9999999999999999
 40
0.9999999999999999
 40
0.9999999999999999
 10
349.0220990906058
 20
126.8224470862557
 30
0.0
 10
349.0110932703243
 20
126.8696573658623
 30
0.0
 10
348.9883928145248
 20
126.9670326489473
 30
0.0
 10
348.9485884347571
 20
127.1156228890639
 30
0.0
 10
348.9034284555449
 20
127.270447670333
 30
0.0
 10
348.8523546669623
 20
127.430058876935
 30
0.0
 10
348.8055396514729
 20
127.565710273576
 30
0.0
 10
348.7561706731692
 20
127.6959527333844
 30
0.0
 10
348.699455445508
 20
127.838385405911
 30
0.0
 10
348.6190235500673
 20
128.0288376379327
 30
0.0
 10
348.502252482259
 20
128.2754890310927
 30
0.0
 10
348.370313947092
 20
128.5210003654947
 30
0.0
 10
348.2575820231343
 20
128.7016367550969
 30
0.0
 10
348.1894489732285
 20
128.7892912505875
 30
0.0
 10
348.1725468047792
 20
128.799999263825
 30
0.0
 10
348.1694313640294
 20
128.8019729857703
 30
0.0
  0
SPLINE
  5
10C
330
1F
100
AcDbEntity
  8
0
  6
Continuous
 62
     7
370
    25
100
AcDbSpline
210
0.0
220
0.0
230
1.0
 70
     8
 71
     3
 72
    25
 73
    21
 74
     0
 42
0.000000001
 43
0.00000001
 40
0.0
 40
0.0
 40
0.0
 40
0.0
 40
0.0288821753105771
 40
0.058363659400572
 40
0.088464720430548
 40
0.1192044006616737
 40
0.1506005800085666
 40
0.1826700399669859
 40
0.2154285269576224
 40
0.2488908143379852
 40
0.3610594471136693
 40
0.4984670131067402
 40
0.5822693905005265
 40
0.6661127642780991
 40
0.7499972937224167
 40
0.8007709755018199
 40
0.8511237700786715
 40
0.9010896024485537
 40
0.9507031914094952
 40
1.0
 40
1.0
 40
1.0
 40
1.0
 10
327.0422976981153
 20
128.8224470553358
 30
0.0
 10
327.0400074297377
 20
128.8220188133599
 30
0.0
 10
327.0353793696247
 20
128.8211534433332
 30
0.0
 10
327.0250691065374
 20
128.8140785106317
 30
0.0
 10
327.0122330373066
 20
128.8025099694715
 30
0.0
 10
326.996619478564
 20
128.7858043933592
 30
0.0
 10
326.9782980351513
 20
128.7638674823432
 30
0.0
 10
326.9572504493202
 20
128.7364698468584
 30
0.0
 10
326.933478877328
 20
128.7034353661761
 30
0.0
 10
326.8864223478947
 20
128.634444700052
 30
0.0
 10
326.7987279300361
 20
128.4944187306328
 30
0.0
 10
326.6811762755044
 20
128.2751234294301
 30
0.0
 10
326.569654111162
 20
128.0381933686502
 30
0.0
 10
326.4781947938138
 20
127.8223514947403
 30
0.0
 10
326.3973131426357
 20
127.6207898738617
 30
0.0
 10
326.3311682407676
 20
127.4419217934745
 30
0.0
 10
326.2818176799416
 20
127.2905455923356
 30
0.0
 10
326.2368506630768
 20
127.1363014372128
 30
0.0
 10
326.1960929491566
 20
126.9801455821324
 30
0.0
 10
326.1725982799383
 20
126.8749008751794
 30
0.0
 10
326.1608885685225
 20
126.8224470553358
 30
0.0
  0
LINE
  5
10D
330
1F
100
AcDbEntity
  8
0
  6
Continuous
 62
     7
370
    25
100
AcDbLine
 10
325.7208255062
 20
126.9035347817
 30
0.0
 11
326.1608884613
 21
126.8224470863
 31
0.0
  0
SPLINE
  5
10E
330
1F
100
AcDbEntity
  8
0
  6
Continuous
 62
     7
370
    25
100
AcDbSpline
210
0.0
220
0.0
230
1.0
 70
     8
 71
     3
 72
    17
 73
    13
 74
     0
 42
0.000000001
 43
0.00000001
 40
0.0
 40
0.0
 40
0.0
 40
0.0
 40
0.017073236636963
 40
0.0879018214540331
 40
0.1618047248897706
 40
0.2422246694564927
 40
0.33516120822221
 40
0.4406788954713877
 40
0.580927040182565
 40
0.7212787874652892
 40
0.8619302949559989
 40
0.9999999999999999
 40
0.9999999999999999
 40
0.9999999999999999
 40
0.9999999999999999
 10
348.1807348261175
 20
120.6424621944686
 30
0.0
 10
348.1825902596347
 20
120.6438398470079
 30
0.0
 10
348.1921429876389
 20
120.6509327122981
 30
0.0
 10
348.2262784663827
 20
120.6963104192441
 30
0.0
 10
348.2758789934769
 20
120.7665627694689
 30
0.0
 10
348.3423240897765
 20
120.8703415307411
 30
0.0
 10
348.4244245583647
 20
121.0126276853015
 30
0.0
 10
348.5325832671886
 20
121.2188880491954
 30
0.0
 10
348.6586773938948
 20
121.4961357982757
 30
0.0
 10
348.7989506290355
 20
121.8392955044094
 30
0.0
 10
348.929050381183
 20
122.2130405163388
 30
0.0
 10
348.9912749835466
 20
122.4784643980223
 30
0.0
 10
349.0220990906058
 20
122.6099470244159
 30
0.0
  0
LINE
  5
10F
330
1F
100
AcDbEntity
  8
0
  6
Continuous
 62
     7
370
    25
100
AcDbLine
 10
349.4621620456
 20
122.528859329
 30
0.0
 11
349.0220990906
 21
122.6099470244
 31
0.0
  0
SPLINE
  5
110
330
1F
100
AcDbEntity
  8
0
  6
Continuous
 62
     7
370
    25
100
AcDbSpline
210
0.0
220
0.0
230
1.0
 70
     8
 71
     3
 72
    15
 73
    11
 74
     0
 42
0.000000001
 43
0.00000001
 40
0.0
 40
0.0
 40
0.0
 40
0.0
 40
0.1351922525168508
 40
0.295505352053604
 40
0.3941605101370091
 40
0.4930224738308925
 40
0.5920945925114958
 40
0.7581984282951001
 40
0.9106346529387762
 40
1.0
 40
1.0
 40
1.0
 40
1.0
 10
328.6936360354123
 20
126.8224470862557
 30
0.0
 10
328.7288969128437
 20
126.942866037493
 30
0.0
 10
328.805970693368
 20
127.2060796752336
 30
0.0
 10
328.9307642302456
 20
127.5383022369934
 30
0.0
 10
329.0476677555705
 20
127.8177966369728
 30
0.0
 10
329.14525260442
 20
128.0328111020895
 30
0.0
 10
329.2693322615419
 20
128.2714428937505
 30
0.0
 10
329.3999453113141
 20
128.5021202631566
 30
0.0
 10
329.5030236493057
 20
128.6793157035813
 30
0.0
 10
329.5369822079885
 20
128.7330203153761
 30
0.0
 10
329.5495326573549
 20
128.7528685373624
 30
0.0
  0
SPLINE
  5
111
330
1F
100
AcDbEntity
  8
0
  6
Continuous
 62
     7
370
    25
100
AcDbSpline
210
0.0
220
0.0
230
1.0
 70
     8
 71
     3
 72
    15
 73
    11
 74
     0
 42
0.000000001
 43
0.00000001
 40
0.0
 40
0.0
 40
0.0
 40
0.0
 40
0.1361835767353471
 40
0.2976722041233961
 40
0.3970507708760626
 40
0.4966376596826896
 40
0.5964362444794897
 40
0.763758069845573
 40
0.9173120635806887
 40
0.9999999999999999
 40
0.9999999999999999
 40
0.9999999999999999
 40
0.9999999999999999
 10
346.4893515164552
 20
122.6099470244159
 30
0.0
 10
346.4540906060078
 20
122.4895280106855
 30
0.0
 10
346.3770167533165
 20
122.2263142363464
 30
0.0
 10
346.2522237513996
 20
121.8940926871661
 30
0.0
 10
346.135318860359
 20
121.6145957021456
 30
0.0
 10
346.0377385081407
 20
121.3995897482989
 30
0.0
 10
345.9136381428937
 20
121.1609187600854
 30
0.0
 10
345.7831517820871
 20
120.9304811888592
 30
0.0
 10
345.6815086312659
 20
120.7556826294917
 30
0.0
 10
345.6484088637679
 20
120.703286600908
 30
0.0
 10
345.6368234882651
 20
120.6849472676774
 30
0.0
  0
SPLINE
  5
112
330
1F
100
AcDbEntity
  8
0
  6
Continuous
 62
     7
370
    25
100
AcDbSpline
210
0.0
220
0.0
230
1.0
 70
     8
 71
     3
 72
    15
 73
    11
 74
     0
 42
0.000000001
 43
0.00000001
 40
0.0
 40
0.0
 40
0.0
 40
0.0
 40
0.0210214847137796
 40
0.0995173547081305
 40
0.2360971400771362
 40
0.3979401334474181
 40
0.5486162591715825
 40
0.7000321895560188
 40
0.8517812990240201
 40
0.9999999999999999
 40
0.9999999999999999
 40
0.9999999999999999
 40
0.9999999999999999
 10
329.5447177196441
 20
120.6849472676774
 30
0.0
 10
329.5418692183899
 20
120.6894318772706
 30
0.0
 10
329.5283841904023
 20
120.710662370249
 30
0.0
 10
329.4809753263732
 20
120.7877975594031
 30
0.0
 10
329.3878335082215
 20
120.9437269934474
 30
0.0
 10
329.2514144246435
 20
121.1927424578901
 30
0.0
 10
329.1020919884263
 20
121.5023814542847
 30
0.0
 10
328.9489268527137
 20
121.8443453283882
 30
0.0
 10
328.8032940859995
 20
122.2154541710737
 30
0.0
 10
328.7299007899184
 20
122.4794852260868
 30
0.0
 10
328.6936360354123
 20
122.6099470244159
 30
0.0
  0
LINE
  5
113
330
1F
100
AcDbEntity
  8
0
  6
Continuous
 62
     7
370
    25
100
AcDbLine
 10
329.0098964179
 20
126.7475836524
 30
0.0
 11
328.6936360354
 21
126.8224470863
 31
0.0
  0
SPLINE
  5
114
330
1F
100
AcDbEntity
  8
0
  6
Continuous
 62
     7
370
    25
100
AcDbSpline
210
0.0
220
0.0
230
1.0
 70
     8
 71
     3
 72
    25
 73
    21
 74
     0
 42
0.000000001
 43
0.00000001
 40
0.0
 40
0.0
 40
0.0
 40
0.0
 40
0.0278144320063459
 40
0.0555680196245752
 40
0.0833316253677715
 40
0.1111760352167582
 40
0.1391714221532259
 40
0.1673868326284758
 40
0.1958897140434715
 40
0.2247454979318968
 40
0.2540172492221455
 40
0.3796724410010767
 40
0.5056484635002251
 40
0.6297527290687337
 40
0.7535891720571736
 40
0.8038564806093723
 40
0.8533396843434523
 40
0.9023264398358549
 40
0.9511131859219458
 40
1.0
 40
1.0
 40
1.0
 40
1.0
 10
329.8775176866453
 20
128.9899453465183
 30
0.0
 10
329.8773699353306
 20
128.9896788039648
 30
0.0
 10
329.8770747559088
 20
128.9891463019226
 30
0.0
 10
329.873450056893
 20
128.9825988532265
 30
0.0
 10
329.8675041612227
 20
128.9718296099402
 30
0.0
 10
329.8590294383076
 20
128.9564188740159
 30
0.0
 10
329.8481144514685
 20
128.9364624977622
 30
0.0
 10
329.8347783832301
 20
128.9119124012917
 30
0.0
 10
329.8190706185432
 20
128.8827557775358
 30
0.0
 10
329.8010390303853
 20
128.8489598061024
 30
0.0
 10
329.758621485637
 20
128.7685530480448
 30
0.0
 10
329.6781004458833
 20
128.6115645983737
 30
0.0
 10
329.5446740990093
 20
128.3297788606275
 30
0.0
 10
329.4005971223261
 20
127.9919067510004
 30
0.0
 10
329.2849193708745
 20
127.6832258372619
 30
0.0
 10
329.2024078956571
 20
127.4371951175063
 30
0.0
 10
329.149486271132
 20
127.268369226233
 30
0.0
 10
329.0996291367546
 20
127.0970536552213
 30
0.0
 10
329.052611143524
 20
126.9233713050005
 30
0.0
 10
329.0241441327955
 20
126.8062196166971
 30
0.0
 10
329.0098960449967
 20
126.7475837607357
 30
0.0
  0
LINE
  5
115
330
1F
100
AcDbEntity
  8
0
  6
Continuous
 62
     7
370
    25
100
AcDbLine
 10
329.0098964179
 20
122.6848104583
 30
0.0
 11
328.6936360354
 21
122.6099470244
 31
0.0
  0
SPLINE
  5
116
330
1F
100
AcDbEntity
  8
0
  6
Continuous
 62
     7
370
    25
100
AcDbSpline
210
0.0
220
0.0
230
1.0
 70
     8
 71
     3
 72
    25
 73
    21
 74
     0
 42
0.000000001
 43
0.00000001
 40
0.0
 40
0.0
 40
0.0
 40
0.0
 40
0.0269872354798654
 40
0.0539362690261339
 40
0.0809037148831245
 40
0.107946071654785
 40
0.1351193706858311
 40
0.1624788388357973
 40
0.1900785854184274
 40
0.2179713214291598
 40
0.2462081170984737
 40
0.3700050494706795
 40
0.4947542611659102
 40
0.6210439034699656
 40
0.7446557472315446
 40
0.7967060293742283
 40
0.8478613449334612
 40
0.8985210411995624
 40
0.9490962115261248
 40
1.0
 40
1.0
 40
1.0
 40
1.0
 10
329.0098960449967
 20
122.684810349936
 30
0.0
 10
329.0176767897208
 20
122.6524139449081
 30
0.0
 10
329.0332272650918
 20
122.5876669937666
 30
0.0
 10
329.0579126710651
 20
122.4910204573377
 30
0.0
 10
329.0835326280642
 20
122.3949263688462
 30
0.0
 10
329.1101754916916
 20
122.2994140981294
 30
0.0
 10
329.1378006769761
 20
122.2044893707368
 30
0.0
 10
329.1664024560354
 20
122.1101632146011
 30
0.0
 10
329.1959645456769
 20
122.0164468701521
 30
0.0
 10
329.226477692724
 20
121.923342786262
 30
0.0
 10
329.2932118973131
 20
121.7270775441492
 30
0.0
 10
329.4003950734088
 20
121.4410044285461
 30
0.0
 10
329.5441751637178
 20
121.1037145325522
 30
0.0
 10
329.6774236199299
 20
120.8222053557283
 30
0.0
 10
329.7650947961431
 20
120.6512144255501
 30
0.0
 10
329.815969831935
 20
120.5553016071684
 30
0.0
 10
329.8436389865864
 20
120.5040844037137
 30
0.0
 10
329.8633379047039
 20
120.4681016096286
 30
0.0
 10
329.8755854134075
 20
120.4459317213066
 30
0.0
 10
329.8768722065635
 20
120.443612253573
 30
0.0
 10
329.8775176866453
 20
120.4424487641533
 30
0.0
  0
LINE
  5
117
330
1F
100
AcDbEntity
  8
0
  6
Continuous
 62
     7
370
    25
100
AcDbLine
 10
346.1730911339
 20
122.6848104583
 30
0.0
 11
346.4893515165
 21
122.6099470244
 31
0.0
  0
SPLINE
  5
118
330
1F
100
AcDbEntity
  8
0
  6
Continuous
 62
     7
370
    25
100
AcDbSpline
210
0.0
220
0.0
230
1.0
 70
     8
 71
     3
 72
    25
 73
    21
 74
     0
 42
0.000000001
 43
0.00000001
 40
0.0
 40
0.0
 40
0.0
 40
0.0
 40
0.0278144320057639
 40
0.0555680196235574
 40
0.0833316253664654
 40
0.1111760352153096
 40
0.1391714221517776
 40
0.1673868326271671
 40
0.1958897140424394
 40
0.2247454979312721
 40
0.2540172492220529
 40
0.3796724409982623
 40
0.5056484635001489
 40
0.62975272906517
 40
0.7535891720570678
 40
0.803856480607963
 40
0.8533396843413759
 40
0.902326439833779
 40
0.9511131859205574
 40
0.9999999999999999
 40
0.9999999999999999
 40
0.9999999999999999
 40
0.9999999999999999
 10
345.3054698652223
 20
120.4424487641533
 30
0.0
 10
345.305617616537
 20
120.4427153067069
 30
0.0
 10
345.3059127959588
 20
120.4432478087491
 30
0.0
 10
345.3095374949746
 20
120.4497952574452
 30
0.0
 10
345.3154833906449
 20
120.4605645007315
 30
0.0
 10
345.32395811356
 20
120.4759752366558
 30
0.0
 10
345.3348731003991
 20
120.4959316129096
 30
0.0
 10
345.3482091686375
 20
120.5204817093801
 30
0.0
 10
345.3639169333244
 20
120.549638333136
 30
0.0
 10
345.3819485214823
 20
120.5834343045694
 30
0.0
 10
345.4243660662293
 20
120.6638410626244
 30
0.0
 10
345.5048871059833
 20
120.8208295122962
 30
0.0
 10
345.6383134528558
 20
121.102615250039
 30
0.0
 10
345.7823904295402
 20
121.4404873596682
 30
0.0
 10
345.8980681809913
 20
121.749168273405
 30
0.0
 10
345.980579656209
 20
121.9951989931612
 30
0.0
 10
346.0335012807335
 20
122.164024884432
 30
0.0
 10
346.0833584151111
 20
122.3353404554438
 30
0.0
 10
346.1303764083425
 20
122.509022805667
 30
0.0
 10
346.1588434190716
 20
122.6261744939729
 30
0.0
 10
346.1730915068709
 20
122.684810349936
 30
0.0
  0
SPLINE
  5
119
330
1F
100
AcDbEntity
  8
0
  6
Continuous
 62
     7
370
    25
100
AcDbSpline
210
0.0
220
0.0
230
1.0
 70
     8
 71
     3
 72
    15
 73
    11
 74
     0
 42
0.000000001
 43
0.00000001
 40
0.0
 40
0.0
 40
0.0
 40
0.0
 40
0.0210214847137796
 40
0.0995173547081305
 40
0.2360971400771362
 40
0.3979401334474181
 40
0.5486162591715825
 40
0.7000321895560188
 40
0.8517812990240201
 40
0.9999999999999999
 40
0.9999999999999999
 40
0.9999999999999999
 40
0.9999999999999999
 10
345.6382698322234
 20
128.7474468429943
 30
0.0
 10
345.6411183334777
 20
128.7429622334011
 30
0.0
 10
345.6546033614653
 20
128.7217317404227
 30
0.0
 10
345.7020122254943
 20
128.6445965512685
 30
0.0
 10
345.7951540436461
 20
128.4886671172243
 30
0.0
 10
345.931573127224
 20
128.2396516527815
 30
0.0
 10
346.0808955634413
 20
127.9300126563869
 30
0.0
 10
346.2340606991538
 20
127.5880487822835
 30
0.0
 10
346.3796934658681
 20
127.216939939598
 30
0.0
 10
346.4530867619491
 20
126.9529088845849
 30
0.0
 10
346.4893515164552
 20
126.8224470862557
 30
0.0
  0
LINE
  5
11A
330
1F
100
AcDbEntity
  8
0
  6
Continuous
 62
     7
370
    25
100
AcDbLine
 10
346.1730911339
 20
126.7475836524
 30
0.0
 11
346.4893515165
 21
126.8224470863
 31
0.0
  0
SPLINE
  5
11B
330
1F
100
AcDbEntity
  8
0
  6
Continuous
 62
     7
370
    25
100
AcDbSpline
210
0.0
220
0.0
230
1.0
 70
     8
 71
     3
 72
    14
 73
    10
 74
     0
 42
0.000000001
 43
0.00000001
 40
0.0
 40
0.0
 40
0.0
 40
0.0
 40
0.1400505481383316
 40
0.2837940635646364
 40
0.4267314741655509
 40
0.5707685044357909
 40
0.7165840938251985
 40
0.8593077005344127
 40
1.0
 40
1.0
 40
1.0
 40
1.0
 10
346.1730911339221
 20
126.7475836524178
 30
0.0
 10
346.1363243437972
 20
126.8931436696137
 30
0.0
 10
346.0618212667835
 20
127.1881019494752
 30
0.0
 10
345.9266321198474
 20
127.6061663140741
 30
0.0
 10
345.7827474573327
 20
127.9912188242053
 30
0.0
 10
345.6386116689402
 20
128.3290271043467
 30
0.0
 10
345.5062146433889
 20
128.6089673545055
 30
0.0
 10
345.3952947723534
 20
128.825108230273
 30
0.0
 10
345.3539589068784
 20
128.9011714574123
 30
0.0
 10
345.3334391059873
 20
128.9389304896255
 30
0.0
  0
ARC
  5
11C
330
1F
100
AcDbEntity
  8
0
  6
Continuous
 62
     7
370
    25
100
AcDbCircle
 10
337.5914937759
 20
124.7161970553
 30
0.0
 40
11.62303852141071
100
AcDbArc
 50
169.5595567507
 51
190.4404432494
  0
ARC
  5
11D
330
1F
100
AcDbEntity
  8
0
  6
Continuous
 62
     7
370
    25
100
AcDbCircle
 10
337.5914937759
 20
124.7161970553
 30
0.0
 40
9.143750000000008
100
AcDbArc
 50
166.6824039243
 51
193.3175960757
  0
ARC
  5
11E
330
1F
100
AcDbEntity
  8
0
  6
Continuous
 62
     7
370
    25
100
AcDbCircle
 10
337.5914937759
 20
124.7161970553
 30
0.0
 40
8.818750000000026
100
AcDbArc
 50
166.6824039243
 51
193.3175960757
  0
ARC
  5
11F
330
1F
100
AcDbEntity
  8
0
  6
Continuous
 62
     7
370
    25
100
AcDbCircle
 10
337.5914937759
 20
124.7161970553
 30
0.0
 40
9.143749999999953
100
AcDbArc
 50
346.6824039243
 51
13.3175960757
  0
ARC
  5
120
330
1F
100
AcDbEntity
  8
0
  6
Continuous
 62
     7
370
    25
100
AcDbCircle
 10
337.5914937759
 20
124.7161970553
 30
0.0
 40
8.818750000000026
100
AcDbArc
 50
346.6824039243
 51
13.3175960757
  0
ARC
  5
121
330
1F
100
AcDbEntity
  8
0
  6
Continuous
 62
     7
370
    25
100
AcDbCircle
 10
337.5914937759
 20
124.7161970553
 30
0.0
 40
11.62303852141071
100
AcDbArc
 50
349.5595567507
 51
10.4404432493
  0
CIRCLE
  5
122
330
1F
100
AcDbEntity
  8
0
  6
Continuous
 62
     7
370
    25
100
AcDbCircle
 10
337.5914937759
 20
124.7161970553
 30
0.0
 40
7.775000000000034
  0
CIRCLE
  5
123
330
1F
100
AcDbEntity
  8
0
  6
Continuous
 62
     7
370
    25
100
AcDbCircle
 10
337.5914937759
 20
124.7161970553
 30
0.0
 40
2.615470053837953
  0
CIRCLE
  5
124
330
1F
100
AcDbEntity
  8
0
  6
Continuous
 62
     7
370
    25
100
AcDbCircle
 10
337.5914937759
 20
124.7161970553
 30
0.0
 40
2.5
  0
CIRCLE
  5
125
330
1F
100
AcDbEntity
  8
0
  6
Continuous
 62
     7
370
    25
100
AcDbCircle
 10
337.5914937759
 20
124.7161970553
 30
0.0
 40
15.73750000000001
  0
CIRCLE
  5
126
330
1F
100
AcDbEntity
  8
0
  6
Continuous
 62
     7
370
    25
100
AcDbCircle
 10
337.5914937759
 20
124.7161970553
 30
0.0
 40
13.42500000000001
  0
CIRCLE
  5
127
330
1F
100
AcDbEntity
  8
0
  6
Continuous
 62
     7
370
    25
100
AcDbCircle
 10
337.5914937759
 20
124.7161970553
 30
0.0
 40
2.0
  0
CIRCLE
  5
128
330
1F
100
AcDbEntity
  8
0
  6
Continuous
 62
     7
370
    25
100
AcDbCircle
 10
337.5914937759
 20
124.7161970553
 30
0.0
 40
1.75
  0
LINE
  5
129
330
1F
100
AcDbEntity
  8
0
  6
CENTER
 62
     7
370
    18
100
AcDbLine
 10
337.5914937759
 20
124.7161970553
 30
0.0
 11
337.5914937759
 21
144.2306970553
 31
0.0
  0
LINE
  5
12A
330
1F
100
AcDbEntity
  8
0
  6
CENTER
 62
     7
370
    18
100
AcDbLine
 10
337.5914937759
 20
124.7161970553
 30
0.0
 11
357.1036515
 21
124.7161970553
 31
0.0
  0
LINE
  5
12B
330
1F
100
AcDbEntity
  8
0
  6
Continuous
 62
     7
370
    18
100
AcDbLine
 10
349.5914937759
 20
142.2306970553
 30
0.0
 11
337.5914937759
 21
142.2306970553
 31
0.0
  0
SOLID
  5
12C
330
1F
100
AcDbEntity
  8
0
  6
Continuous
 62
     7
370
    18
100
AcDbTrace
 10
337.5914937759
 20
142.2306970553
 30
0.0
 11
343.5914937759
 21
140.7306970553
 31
0.0
 12
343.5914937759
 22
143.7306970553
 32
0.0
 13
343.5914937759
 23
143.7306970553
 33
0.0
  0
LINE
  5
12D
330
1F
100
AcDbEntity
  8
0
  6
Continuous
 62
     7
370
    18
100
AcDbLine
 10
367.1036515
 20
124.7161970553
 30
0.0
 11
355.1036515
 21
124.7161970553
 31
0.0
  0
SOLID
  5
12E
330
1F
100
AcDbEntity
  8
0
  6
Continuous
 62
     7
370
    18
100
AcDbTrace
 10
355.1036515
 20
124.7161970553
 30
0.0
 11
361.1036515
 21
123.2161970553
 31
0.0
 12
361.1036515
 22
126.2161970553
 32
0.0
 13
361.1036515
 23
126.2161970553
 33
0.0
  0
MTEXT
  5
12F
330
1F
100
AcDbEntity
  8
0
  6
Continuous
 62
     7
100
AcDbMText
 10
346.444113032
 20
148.876990272
 30
0.0
 40
3.5
 41
0.0
 71
     1
 72
     1
  1
A
  7
SLDTEXTSTYLE0
 73
     1
 44
1.0
  0
MTEXT
  5
130
330
1F
100
AcDbEntity
  8
0
  6
Continuous
 62
     7
100
AcDbMText
 10
363.956270756
 20
122.5029814142
 30
0.0
 40
3.5
 41
0.0
 71
     1
 72
     1
  1
A
  7
SLDTEXTSTYLE0
 73
     1
 44
1.0
  0
LINE
  5
131
330
1F
100
AcDbEntity
  8
0
  6
Continuous
 62
     7
370
    25
100
AcDbLine
 10
139.5973043246
 20
93.2411970553
 30
0.0
 11
144.36310652
 21
93.2411970553
 31
0.0
  0
ARC
  5
132
330
1F
100
AcDbEntity
  8
0
  6
Continuous
 62
     7
370
    25
100
AcDbCircle
 10
126.56310652
 20
93.4411970553
 30
0.0
 40
0.2000000000000028
100
AcDbArc
 50
180.0
 51
270.0
  0
LINE
  5
133
330
1F
100
AcDbEntity
  8
0
  6
Continuous
 62
     7
370
    25
100
AcDbLine
 10
126.56310652
 20
93.2411970553
 30
0.0
 11
132.9289087155
 21
93.2411970553
 31
0.0
  0
LINE
  5
134
330
1F
100
AcDbEntity
  8
0
  6
Continuous
 62
     7
370
    25
100
AcDbLine
 10
132.9289087155
 20
93.2411970553
 30
0.0
 11
134.38810652
 21
95.7686017911
 31
0.0
  0
LINE
  5
135
330
1F
100
AcDbEntity
  8
0
  6
Continuous
 62
     7
370
    25
100
AcDbLine
 10
138.13810652
 20
95.7686017911
 30
0.0
 11
139.5973043246
 21
93.2411970553
 31
0.0
  0
ARC
  5
136
330
1F
100
AcDbEntity
  8
0
  6
Continuous
 62
     7
370
    25
100
AcDbCircle
 10
135.38810652
 20
95.8661970553
 30
0.0
 40
1.0
100
AcDbArc
 50
90.0
 51
180.0
  0
ARC
  5
137
330
1F
100
AcDbEntity
  8
0
  6
Continuous
 62
     7
370
    25
100
AcDbCircle
 10
137.13810652
 20
95.8661970553
 30
0.0
 40
1.0
100
AcDbArc
 50
0.0
 51
90.0
  0
LINE
  5
138
330
1F
100
AcDbEntity
  8
0
  6
Continuous
 62
     7
370
    25
100
AcDbLine
 10
135.38810652
 20
96.8661970553
 30
0.0
 11
137.13810652
 21
96.8661970553
 31
0.0
  0
ARC
  5
139
330
1F
100
AcDbEntity
  8
0
  6
Continuous
 62
     7
370
    25
100
AcDbCircle
 10
125.9341716455
 20
99.1661970553
 30
0.0
 40
0.8000000000000047
100
AcDbArc
 50
57.576802718
 51
107.5
  0
LINE
  5
13A
330
1F
100
AcDbEntity
  8
0
  6
Continuous
 62
     7
370
    25
100
AcDbLine
 10
111.876661052
 20
100.4436765346
 30
0.0
 11
125.20292448
 21
99.7744590098
 31
0.0
  0
LINE
  5
13B
330
1F
100
AcDbEntity
  8
0
  6
Continuous
 62
     7
370
    25
100
AcDbLine
 10
87.91310652
 20
101.6470769278
 30
0.0
 11
95.9679433836
 21
101.2425795968
 31
0.0
  0
LINE
  5
13C
330
1F
100
AcDbEntity
  8
0
  6
Continuous
 62
     7
370
    25
100
AcDbLine
 10
125.20292448
 20
99.7744590098
 30
0.0
 11
125.6936070059
 21
99.9291706159
 31
0.0
  0
LINE
  5
13D
330
1F
100
AcDbEntity
  8
0
  6
Continuous
 62
     7
370
    25
100
AcDbLine
 10
86.41310652
 20
102.5131023315
 30
0.0
 11
87.91310652
 21
101.6470769278
 31
0.0
  0
ARC
  5
13E
330
1F
100
AcDbEntity
  8
0
  6
Continuous
 62
     7
370
    25
100
AcDbCircle
 10
147.36310652
 20
105.7161970553
 30
0.0
 40
3.000000000000014
100
AcDbArc
 50
90.0
 51
180.0
  0
LINE
  5
13F
330
1F
100
AcDbEntity
  8
0
  6
Continuous
 62
     7
370
    25
100
AcDbLine
 10
147.36310652
 20
108.7161970553
 30
0.0
 11
155.5382875753
 21
108.7161970553
 31
0.0
  0
LINE
  5
140
330
1F
100
AcDbEntity
  8
0
  6
Continuous
 62
     7
370
    25
100
AcDbLine
 10
155.5382875753
 20
108.7161970553
 30
0.0
 11
204.5200247115
 21
112.5711433712
 31
0.0
  0
ARC
  5
141
330
1F
100
AcDbEntity
  8
0
  6
Continuous
 62
     7
370
    25
100
AcDbCircle
 10
204.36310652
 20
114.5649780387
 30
0.0
 40
2.000000000000002
100
AcDbArc
 50
274.5
 51
0.0
  0
LINE
  5
142
330
1F
100
AcDbEntity
  8
0
  6
Continuous
 62
     7
370
    25
100
AcDbLine
 10
164.86310652
 20
128.7161970553
 30
0.0
 11
149.36310652
 21
128.7161970553
 31
0.0
  0
LINE
  5
143
330
1F
100
AcDbEntity
  8
0
  6
Continuous
 62
     7
370
    25
100
AcDbLine
 10
165.36310652
 20
128.2161970553
 30
0.0
 11
164.86310652
 21
128.7161970553
 31
0.0
  0
LINE
  5
144
330
1F
100
AcDbEntity
  8
0
  6
Continuous
 62
     7
370
    25
100
AcDbLine
 10
149.36310652
 20
128.7161970553
 30
0.0
 11
148.86310652
 21
128.2161970553
 31
0.0
  0
LINE
  5
145
330
1F
100
AcDbEntity
  8
0
  6
Continuous
 62
     7
370
    25
100
AcDbLine
 10
166.86310652
 20
127.8677047821
 30
0.0
 11
168.86310652
 21
127.8677047821
 31
0.0
  0
LINE
  5
146
330
1F
100
AcDbEntity
  8
0
  6
Continuous
 62
     7
370
    25
100
AcDbLine
 10
166.86310652
 20
128.2161970553
 30
0.0
 11
165.36310652
 21
128.2161970553
 31
0.0
  0
LINE
  5
147
330
1F
100
AcDbEntity
  8
0
  6
Continuous
 62
     7
370
    25
100
AcDbLine
 10
163.86310652
 20
126.2664455521
 30
0.0
 11
163.86310652
 21
126.7161970553
 31
0.0
  0
LINE
  5
148
330
1F
100
AcDbEntity
  8
0
  6
Continuous
 62
     7
370
    25
100
AcDbLine
 10
163.86310652
 20
124.7161970553
 30
0.0
 11
163.86310652
 21
126.2664455521
 31
0.0
  0
LINE
  5
149
330
1F
100
AcDbEntity
  8
0
  6
Continuous
 62
     7
370
    25
100
AcDbLine
 10
153.86310652
 20
126.2664455521
 30
0.0
 11
153.86310652
 21
124.7161970553
 31
0.0
  0
LINE
  5
14A
330
1F
100
AcDbEntity
  8
0
  6
Continuous
 62
     7
370
    25
100
AcDbLine
 10
153.86310652
 20
126.7161970553
 30
0.0
 11
153.86310652
 21
126.2664455521
 31
0.0
  0
LINE
  5
14B
330
1F
100
AcDbEntity
  8
0
  6
Continuous
 62
     7
370
    25
100
AcDbLine
 10
153.86310652
 20
126.7161970553
 30
0.0
 11
163.86310652
 21
126.7161970553
 31
0.0
  0
LINE
  5
14C
330
1F
100
AcDbEntity
  8
0
  6
Continuous
 62
     7
370
    25
100
AcDbLine
 10
166.86310652
 20
126.8558646661
 30
0.0
 11
166.86310652
 21
128.2161970553
 31
0.0
  0
LINE
  5
14D
330
1F
100
AcDbEntity
  8
0
  6
Continuous
 62
     7
370
    25
100
AcDbLine
 10
163.86310652
 20
126.8558646661
 30
0.0
 11
166.86310652
 21
126.8558646661
 31
0.0
  0
LINE
  5
14E
330
1F
100
AcDbEntity
  8
0
  6
Continuous
 62
     7
370
    25
100
AcDbLine
 10
163.86310652
 20
126.7161970553
 30
0.0
 11
163.86310652
 21
126.8558646661
 31
0.0
  0
LINE
  5
14F
330
1F
100
AcDbEntity
  8
0
  6
Continuous
 62
     7
370
    25
100
AcDbLine
 10
153.86310652
 20
126.8558646661
 30
0.0
 11
153.86310652
 21
126.7161970553
 31
0.0
  0
LINE
  5
150
330
1F
100
AcDbEntity
  8
0
  6
Continuous
 62
     7
370
    25
100
AcDbLine
 10
148.86310652
 20
126.8558646661
 30
0.0
 11
153.86310652
 21
126.8558646661
 31
0.0
  0
LINE
  5
151
330
1F
100
AcDbEntity
  8
0
  6
Continuous
 62
     7
370
    25
100
AcDbLine
 10
148.86310652
 20
128.2161970553
 30
0.0
 11
148.86310652
 21
126.8558646661
 31
0.0
  0
LINE
  5
152
330
1F
100
AcDbEntity
  8
0
  6
Continuous
 62
     7
370
    25
100
AcDbLine
 10
153.86310652
 20
125.5368955543
 30
0.0
 11
148.86310652
 21
125.5368955543
 31
0.0
  0
LINE
  5
153
330
1F
100
AcDbEntity
  8
0
  6
Continuous
 62
     7
370
    25
100
AcDbLine
 10
148.86310652
 20
126.8558646661
 30
0.0
 11
148.86310652
 21
125.5368955543
 31
0.0
  0
LINE
  5
154
330
1F
100
AcDbEntity
  8
0
  6
Continuous
 62
     7
370
    25
100
AcDbLine
 10
168.86310652
 20
125.5368955543
 30
0.0
 11
168.86310652
 21
126.2664455521
 31
0.0
  0
LINE
  5
155
330
1F
100
AcDbEntity
  8
0
  6
Continuous
 62
     7
370
    25
100
AcDbLine
 10
163.86310652
 20
125.5368955543
 30
0.0
 11
168.86310652
 21
125.5368955543
 31
0.0
  0
LINE
  5
156
330
1F
100
AcDbEntity
  8
0
  6
Continuous
 62
     7
370
    25
100
AcDbLine
 10
168.86310652
 20
126.2664455521
 30
0.0
 11
166.86310652
 21
126.2664455521
 31
0.0
  0
LINE
  5
157
330
1F
100
AcDbEntity
  8
0
  6
Continuous
 62
     7
370
    25
100
AcDbLine
 10
166.86310652
 20
126.2664455521
 30
0.0
 11
166.86310652
 21
126.8558646661
 31
0.0
  0
LINE
  5
158
330
1F
100
AcDbEntity
  8
0
  6
Continuous
 62
     7
370
    25
100
AcDbLine
 10
168.86310652
 20
127.8677047821
 30
0.0
 11
168.86310652
 21
126.2664455521
 31
0.0
  0
LINE
  5
159
330
1F
100
AcDbEntity
  8
0
  6
Continuous
 62
     7
370
    25
100
AcDbLine
 10
168.86310652
 20
124.7161970553
 30
0.0
 11
168.86310652
 21
125.5368955543
 31
0.0
  0
LINE
  5
15A
330
1F
100
AcDbEntity
  8
0
  6
Continuous
 62
     7
370
    25
100
AcDbLine
 10
148.86310652
 20
125.5368955543
 30
0.0
 11
148.86310652
 21
124.7161970553
 31
0.0
  0
LINE
  5
15B
330
1F
100
AcDbEntity
  8
0
  6
Continuous
 62
     7
370
    25
100
AcDbLine
 10
139.5973043246
 20
93.2411970553
 30
0.0
 11
139.5973043246
 21
119.8264897757
 31
0.0
  0
SPLINE
  5
15C
330
1F
100
AcDbEntity
  8
0
  6
Continuous
 62
     7
370
    25
100
AcDbSpline
210
0.0
220
0.0
230
1.0
 70
     8
 71
     3
 72
    20
 73
    16
 74
     0
 42
0.000000001
 43
0.00000001
 40
0.0
 40
0.0
 40
0.0
 40
0.0
 40
0.1249999999999999
 40
0.1249999999999999
 40
0.2499999999999997
 40
0.2499999999999997
 40
0.3749999999999996
 40
0.3749999999999996
 40
0.4999999999999994
 40
0.4999999999999994
 40
0.7499999999999998
 40
0.7499999999999998
 40
0.8749999999999999
 40
0.8749999999999999
 40
1.0
 40
1.0
 40
1.0
 40
1.0
 10
143.1506065200358
 20
124.7161970553359
 30
0.0
 10
143.1506065200358
 20
124.4495289678547
 30
0.0
 10
143.1285594909921
 20
124.1812167925806
 30
0.0
 10
143.0395534532872
 20
123.6483737573473
 30
0.0
 10
142.9736744850878
 20
123.3890835473614
 30
0.0
 10
142.8014995773806
 20
122.8839565813399
 30
0.0
 10
142.6947930064736
 20
122.6373763654186
 30
0.0
 10
142.4421161035974
 20
122.1609597146789
 30
0.0
 10
142.2986588394027
 20
121.935539652914
 30
0.0
 10
141.8203366471222
 20
121.2949319713003
 30
0.0
 10
141.4323096641567
 20
120.9121662561973
 30
0.0
 10
140.7905050157113
 20
120.4362640080256
 30
0.0
 10
140.5657003880641
 20
120.2926683718739
 30
0.0
 10
140.0943913304419
 20
120.0353369864833
 30
0.0
 10
139.8486947305529
 20
119.9222846079614
 30
0.0
 10
139.5973043246059
 20
119.8264897756507
 30
0.0
  0
LINE
  5
15D
330
1F
100
AcDbEntity
  8
0
  6
Continuous
 62
     7
370
    25
100
AcDbLine
 10
144.36310652
 20
93.2411970553
 30
0.0
 11
144.36310652
 21
124.7161970553
 31
0.0
  0
LINE
  5
15E
330
1F
100
AcDbEntity
  8
0
  6
Continuous
 62
     7
370
    25
100
AcDbLine
 10
144.36310652
 20
156.1911970553
 30
0.0
 11
139.5973043246
 21
156.1911970553
 31
0.0
  0
LINE
  5
15F
330
1F
100
AcDbEntity
  8
0
  6
Continuous
 62
     7
370
    25
100
AcDbLine
 10
126.36310652
 20
93.4411970553
 30
0.0
 11
126.36310652
 21
124.7161970553
 31
0.0
  0
LINE
  5
160
330
1F
100
AcDbEntity
  8
0
  6
Continuous
 62
     7
370
    25
100
AcDbLine
 10
126.36310652
 20
124.7161970553
 30
0.0
 11
126.56310652
 21
124.7161970553
 31
0.0
  0
ARC
  5
161
330
1F
100
AcDbEntity
  8
0
  6
Continuous
 62
     7
370
    25
100
AcDbCircle
 10
126.56310652
 20
155.9911970553
 30
0.0
 40
0.2000000000000028
100
AcDbArc
 50
90.0
 51
180.0
  0
SPLINE
  5
162
330
1F
100
AcDbEntity
  8
0
  6
Continuous
 62
     7
370
    25
100
AcDbSpline
210
0.0
220
0.0
230
1.0
 70
     8
 71
     3
 72
    14
 73
    10
 74
     0
 42
0.000000001
 43
0.00000001
 40
0.0
 40
0.0
 40
0.0
 40
0.0
 40
0.25
 40
0.25
 40
0.5
 40
0.5
 40
0.75
 40
0.75
 40
1.0
 40
1.0
 40
1.0
 40
1.0
 10
132.9289087154657
 20
121.421298969819
 30
0.0
 10
132.7320328299407
 20
121.6487955377482
 30
0.0
 10
132.5559245085512
 20
121.8903823128193
 30
0.0
 10
132.246188114778
 20
122.4025395471935
 30
0.0
 10
132.1116301132844
 20
122.6760723503016
 30
0.0
 10
131.8963879605753
 20
123.236177484839
 30
0.0
 10
131.8147447230564
 20
123.523149980249
 30
0.0
 10
131.7042217007863
 20
124.1111889652933
 30
0.0
 10
131.6756065200358
 20
124.415632421064
 30
0.0
 10
131.6756065200358
 20
124.7161970553358
 30
0.0
  0
LINE
  5
163
330
1F
100
AcDbEntity
  8
0
  6
Continuous
 62
     7
370
    25
100
AcDbLine
 10
132.9289087155
 20
93.2411970553
 30
0.0
 11
132.9289087155
 21
121.4212989698
 31
0.0
  0
LINE
  5
164
330
1F
100
AcDbEntity
  8
0
  6
Continuous
 62
     7
370
    25
100
AcDbLine
 10
132.9289087155
 20
156.1911970553
 30
0.0
 11
126.56310652
 21
156.1911970553
 31
0.0
  0
ARC
  5
165
330
1F
100
AcDbEntity
  8
0
  6
Continuous
 62
     7
370
    25
100
AcDbCircle
 10
137.41310652
 20
124.7161970553
 30
0.0
 40
3.737500000000011
100
AcDbArc
 50
180.0
 51
206.113804444
  0
SPLINE
  5
166
330
1F
100
AcDbEntity
  8
0
  6
Continuous
 62
     7
370
    25
100
AcDbSpline
210
0.0
220
0.0
230
1.0
 70
     8
 71
     3
 72
    10
 73
     6
 74
     0
 42
0.000000001
 43
0.00000001
 40
0.0
 40
0.0
 40
0.0
 40
0.0
 40
0.5
 40
0.5
 40
1.0
 40
1.0
 40
1.0
 40
1.0
 10
134.0571247125825
 20
123.0711157935002
 30
0.0
 10
133.8802395661591
 20
122.7726654781436
 30
0.0
 10
133.6946901912817
 20
122.4936727740162
 30
0.0
 10
133.3167412512341
 20
121.9483534798905
 30
0.0
 10
133.1239547090549
 20
121.683018094069
 30
0.0
 10
132.9289087154656
 20
121.421298969819
 30
0.0
  0
SPLINE
  5
167
330
1F
100
AcDbEntity
  8
0
  6
Continuous
 62
     7
370
    25
100
AcDbSpline
210
0.0
220
0.0
230
1.0
 70
     8
 71
     3
 72
     8
 73
     4
 74
     0
 42
0.000000001
 43
0.00000001
 40
0.0
 40
0.0
 40
0.0
 40
0.0
 40
1.0
 40
1.0
 40
1.0
 40
1.0
 10
139.5973043246054
 20
119.8264897756496
 30
0.0
 10
139.2489029199251
 20
120.2644651020635
 30
0.0
 10
138.9043345346923
 20
120.7075482406483
 30
0.0
 10
138.5659502353714
 20
121.1609393124969
 30
0.0
  0
ARC
  5
168
330
1F
100
AcDbEntity
  8
0
  6
Continuous
 62
     7
370
    25
100
AcDbCircle
 10
137.41310652
 20
124.7161970553
 30
0.0
 40
3.737500000000011
100
AcDbArc
 50
287.9660359156
 51
0.0
  0
SPLINE
  5
169
330
1F
100
AcDbEntity
  8
0
  6
Continuous
 62
     7
370
    25
100
AcDbSpline
210
0.0
220
0.0
230
1.0
 70
     8
 71
     3
 72
     8
 73
     4
 74
     0
 42
0.000000001
 43
0.00000001
 40
0.0
 40
0.0
 40
0.0
 40
0.0
 40
1.0
 40
1.0
 40
1.0
 40
1.0
 10
134.3881065200358
 20
122.5211386848134
 30
0.0
 10
134.2698097606059
 20
122.6841629132719
 30
0.0
 10
134.1583812784345
 20
122.8645514122943
 30
0.0
 10
134.0571247125825
 20
123.0711157935002
 30
0.0
  0
LINE
  5
16A
330
1F
100
AcDbEntity
  8
0
  6
Continuous
 62
     7
370
    25
100
AcDbLine
 10
134.38810652
 20
95.7686017911
 30
0.0
 11
134.38810652
 21
122.5211386848
 31
0.0
  0
SPLINE
  5
16B
330
1F
100
AcDbEntity
  8
0
  6
Continuous
 62
     7
370
    25
100
AcDbSpline
210
0.0
220
0.0
230
1.0
 70
     8
 71
     3
 72
     8
 73
     4
 74
     0
 42
0.000000001
 43
0.00000001
 40
0.0
 40
0.0
 40
0.0
 40
0.0
 40
1.0
 40
1.0
 40
1.0
 40
1.0
 10
138.5659502353717
 20
121.1609393124977
 30
0.0
 10
138.4244121470899
 20
121.1150435414006
 30
0.0
 10
138.281801678353
 20
121.0781026904633
 30
0.0
 10
138.138106520036
 20
121.0496890095227
 30
0.0
  0
LINE
  5
16C
330
1F
100
AcDbEntity
  8
0
  6
Continuous
 62
     7
370
    25
100
AcDbLine
 10
138.13810652
 20
95.7686017911
 30
0.0
 11
138.13810652
 21
121.0496890095
 31
0.0
  0
SPLINE
  5
16D
330
1F
100
AcDbEntity
  8
0
  6
Continuous
 62
     7
370
    25
100
AcDbSpline
210
0.0
220
0.0
230
1.0
 70
     8
 71
     3
 72
    14
 73
    10
 74
     0
 42
0.000000001
 43
0.00000001
 40
0.0
 40
0.0
 40
0.0
 40
0.0
 40
0.25
 40
0.25
 40
0.5
 40
0.5
 40
0.75
 40
0.75
 40
1.0
 40
1.0
 40
1.0
 40
1.0
 10
135.3881065200358
 20
121.5748149948408
 30
0.0
 10
135.2537584336793
 20
121.6614185564684
 30
0.0
 10
135.1305817598233
 20
121.7528869537918
 30
0.0
 10
134.9018351549053
 20
121.9440783404227
 30
0.0
 10
134.7999131909381
 20
122.0409401925636
 30
0.0
 10
134.6204897885094
 20
122.2288148072989
 30
0.0
 10
134.5440485003266
 20
122.3190501586502
 30
0.0
 10
134.4267585274765
 20
122.4668565226276
 30
0.0
 10
134.3881065200358
 20
122.5211386848135
 30
0.0
 10
134.3881065200358
 20
122.5211386848135
 30
0.0
  0
SPLINE
  5
16E
330
1F
100
AcDbEntity
  8
0
  6
Continuous
 62
     7
370
    25
100
AcDbSpline
210
0.0
220
0.0
230
1.0
 70
     8
 71
     3
 72
    14
 73
    10
 74
     0
 42
0.000000001
 43
0.00000001
 40
0.0
 40
0.0
 40
0.0
 40
0.0
 40
0.25
 40
0.25
 40
0.5
 40
0.5
 40
0.75
 40
0.75
 40
1.0
 40
1.0
 40
1.0
 40
1.0
 10
138.1381065200359
 20
121.0496890095233
 30
0.0
 10
138.138106520036
 20
121.0496890095233
 30
0.0
 10
138.112189997465
 20
121.0443122785349
 30
0.0
 10
138.0127451508874
 20
121.0267676909345
 30
0.0
 10
137.9404467584751
 20
121.0149182872882
 30
0.0
 10
137.7557428639513
 20
120.9932744692879
 30
0.0
 10
137.6461656020753
 20
120.9839852086035
 30
0.0
 10
137.4028354238572
 20
120.9767296722459
 30
0.0
 10
137.2712991649371
 20
120.9790010784053
 30
0.0
 10
137.1381065200358
 20
120.9888278423384
 30
0.0
  0
SPLINE
  5
16F
330
1F
100
AcDbEntity
  8
0
  6
Continuous
 62
     7
370
    25
100
AcDbSpline
210
0.0
220
0.0
230
1.0
 70
     8
 71
     3
 72
    10
 73
     6
 74
     0
 42
0.000000001
 43
0.00000001
 40
0.0
 40
0.0
 40
0.0
 40
0.0
 40
0.5
 40
0.5
 40
1.0
 40
1.0
 40
1.0
 40
1.0
 10
137.1381065200357
 20
120.9888278423385
 30
0.0
 10
136.8256426177477
 20
121.0118809847076
 30
0.0
 10
136.5227536357499
 20
121.073115687114
 30
0.0
 10
135.9354104509458
 20
121.2692876510379
 30
0.0
 10
135.6509427903739
 20
121.4053852861377
 30
0.0
 10
135.3881065200358
 20
121.5748149948408
 30
0.0
  0
LINE
  5
170
330
1F
100
AcDbEntity
  8
0
  6
Continuous
 62
     7
370
    25
100
AcDbLine
 10
126.36310652
 20
151.5661970553
 30
0.0
 11
126.6971452061
 21
150.5067616949
 31
0.0
  0
LINE
  5
171
330
1F
100
AcDbEntity
  8
0
  6
Continuous
 62
     7
370
    25
100
AcDbLine
 10
126.36310652
 20
151.5661970553
 30
0.0
 11
126.36310652
 21
149.590908322
 31
0.0
  0
ARC
  5
172
330
1F
100
AcDbEntity
  8
0
  6
Continuous
 62
     7
370
    25
100
AcDbCircle
 10
125.9341716455
 20
150.2661970553
 30
0.0
 40
0.8000000000000181
100
AcDbArc
 50
252.5
 51
17.5
  0
SPLINE
  5
173
330
1F
100
AcDbEntity
  8
0
  6
Continuous
 62
     7
370
    25
100
AcDbSpline
210
0.0
220
0.0
230
1.0
 70
     8
 71
     3
 72
    23
 73
    19
 74
     0
 42
0.000000001
 43
0.00000001
 40
0.0
 40
0.0
 40
0.0
 40
0.0
 40
0.0014604835854597
 40
0.0696150552019174
 40
0.1372664175512016
 40
0.2039701100159368
 40
0.2703009372044139
 40
0.336557424330754
 40
0.4028683822748012
 40
0.4678692470316663
 40
0.532641209839505
 40
0.5993596686012794
 40
0.6655231153859609
 40
0.7321169425959954
 40
0.7988868448421024
 40
0.8663366772638048
 40
0.9345228518804312
 40
1.0
 40
1.0
 40
1.0
 40
1.0
 10
96.12289683248746
 20
148.1404656454771
 30
0.0
 10
96.12405196307454
 20
148.1401092731211
 30
0.0
 10
96.17911213655815
 20
148.1231225151115
 30
0.0
 10
96.57552956321503
 20
148.0058571590908
 30
0.0
 10
97.29157943593214
 20
147.8052494671577
 30
0.0
 10
98.30126121162911
 20
147.5646338189704
 30
0.0
 10
99.51723882694085
 20
147.3373617196006
 30
0.0
 10
100.9214389279066
 20
147.1649721680927
 30
0.0
 10
102.4385030063085
 20
147.0769038714269
 30
0.0
 10
104.0128008560139
 20
147.1079515303149
 30
0.0
 10
105.5786210820704
 20
147.258974770019
 30
0.0
 10
107.068478151583
 20
147.5133115685968
 30
0.0
 10
108.4401583439406
 20
147.8310483472541
 30
0.0
 10
109.6260814376592
 20
148.1749647673901
 30
0.0
 10
110.6036807816656
 20
148.502807367698
 30
0.0
 10
111.3231919332571
 20
148.7717317971821
 30
0.0
 10
111.7958269349589
 20
148.9543211328032
 30
0.0
 10
111.853298049311
 20
148.9775695253878
 30
0.0
 10
111.8814512074848
 20
148.9889581278379
 30
0.0
  0
LINE
  5
174
330
1F
100
AcDbEntity
  8
0
  6
Continuous
 62
     7
370
    25
100
AcDbLine
 10
95.9635406348
 20
148.1895934169
 30
0.0
 11
87.91310652
 21
147.7853171829
 31
0.0
  0
LINE
  5
175
330
1F
100
AcDbEntity
  8
0
  6
Continuous
 62
     7
370
    25
100
AcDbLine
 10
87.91310652
 20
101.6470769278
 30
0.0
 11
87.91310652
 21
115.5940740208
 31
0.0
  0
SPLINE
  5
176
330
1F
100
AcDbEntity
  8
0
  6
Continuous
 62
     7
370
    25
100
AcDbSpline
210
0.0
220
0.0
230
1.0
 70
     8
 71
     3
 72
     8
 73
     4
 74
     0
 42
0.000000001
 43
0.00000001
 40
0.0
 40
0.0
 40
0.0
 40
0.0
 40
1.0
 40
1.0
 40
1.0
 40
1.0
 10
93.73128097298273
 20
115.5986600790325
 30
0.0
 10
91.79188948867134
 20
115.5965139831829
 30
0.0
 10
89.85249800435993
 20
115.5949177966581
 30
0.0
 10
87.91310652004853
 20
115.5938703441824
 30
0.0
  0
SPLINE
  5
177
330
1F
100
AcDbEntity
  8
0
  6
Continuous
 62
     7
370
    25
100
AcDbSpline
210
0.0
220
0.0
230
1.0
 70
     8
 71
     3
 72
    13
 73
     9
 74
     0
 42
0.000000001
 43
0.00000001
 40
0.0
 40
0.0
 40
0.0
 40
0.0
 40
0.1686319999748108
 40
0.3360343310905541
 40
0.5025367825908723
 40
0.6684737453788424
 40
0.8341822636915195
 40
1.0
 40
1.0
 40
1.0
 40
1.0
 10
94.81477602244972
 20
115.7361165248501
 30
0.0
 10
94.75528612638999
 20
115.7216022048113
 30
0.0
 10
94.63674013611492
 20
115.6926794035267
 30
0.0
 10
94.45686344052903
 20
115.6587180101184
 30
0.0
 10
94.276473152901
 20
115.6318524477595
 30
0.0
 10
94.0953609808672
 20
115.6128935106515
 30
0.0
 10
93.91360014369977
 20
115.6009630592558
 30
0.0
 10
93.79206737580512
 20
115.599427907687
 30
0.0
 10
93.73128097298273
 20
115.5986600790325
 30
0.0
  0
SPLINE
  5
178
330
1F
100
AcDbEntity
  8
0
  6
Continuous
 62
     7
370
    25
100
AcDbSpline
210
0.0
220
0.0
230
1.0
 70
     8
 71
     3
 72
     8
 73
     4
 74
     0
 42
0.000000001
 43
0.00000001
 40
0.0
 40
0.0
 40
0.0
 40
0.0
 40
1.0
 40
1.0
 40
1.0
 40
1.0
 10
100.20696943895
 20
115.7403545667356
 30
0.0
 10
98.40957476750968
 20
115.7384835062116
 30
0.0
 10
96.6121800960694
 20
115.7370613251875
 30
0.0
 10
94.8147854246291
 20
115.7360872021915
 30
0.0
  0
SPLINE
  5
179
330
1F
100
AcDbEntity
  8
0
  6
Continuous
 62
     7
370
    25
100
AcDbSpline
210
0.0
220
0.0
230
1.0
 70
     8
 71
     3
 72
    18
 73
    14
 74
     0
 42
0.000000001
 43
0.00000001
 40
0.0
 40
0.0
 40
0.0
 40
0.0
 40
0.0923325137151694
 40
0.1843692047134009
 40
0.2763458873902312
 40
0.368498217575762
 40
0.4610598988406411
 40
0.5542609546627003
 40
0.6483261285518087
 40
0.743473463655427
 40
0.8399130993133287
 40
0.9201660718313618
 40
1.0
 40
1.0
 40
1.0
 40
1.0
 10
102.4032910875449
 20
115.2061623308919
 30
0.0
 10
102.3329607840288
 20
115.2065789553235
 30
0.0
 10
102.1925255071716
 20
115.2074108693701
 30
0.0
 10
101.9821629806622
 20
115.2210197162845
 30
0.0
 10
101.7727193177412
 20
115.2436864736561
 30
0.0
 10
101.5641696473664
 20
115.2762872634568
 30
0.0
 10
101.3565260300911
 20
115.318589742077
 30
0.0
 10
101.1497878425537
 20
115.3706611407321
 30
0.0
 10
100.9439657505934
 20
115.4325099135775
 30
0.0
 10
100.739034071808
 20
115.5041079250337
 30
0.0
 10
100.5475533264183
 20
115.5806864152625
 30
0.0
 10
100.3698301743686
 20
115.6592976640967
 30
0.0
 10
100.2614961798057
 20
115.7132118198838
 30
0.0
 10
100.2074709703535
 20
115.7400983347824
 30
0.0
  0
LINE
  5
17A
330
1F
100
AcDbEntity
  8
0
  6
Continuous
 62
     7
370
    25
100
AcDbLine
 10
104.3181643668
 20
115.2076577658
 30
0.0
 11
102.4032910875
 21
115.2061623309
 31
0.0
  0
SPLINE
  5
17B
330
1F
100
AcDbEntity
  8
0
  6
Continuous
 62
     7
370
    25
100
AcDbSpline
210
0.0
220
0.0
230
1.0
 70
     8
 71
     3
 72
    25
 73
    21
 74
     0
 42
0.000000001
 43
0.00000001
 40
0.0
 40
0.0
 40
0.0
 40
0.0
 40
0.0280105225425618
 40
0.0559601148859273
 40
0.0839014045041196
 40
0.1118870776784247
 40
0.1399695827586811
 40
0.1682008401737953
 40
0.1966319670422708
 40
0.2253130233140565
 40
0.2542927850735732
 40
0.3799486436574536
 40
0.5057850221666685
 40
0.6313085886327393
 40
0.7532068238012419
 40
0.803947326795536
 40
0.8535894438553622
 40
0.9025339722393254
 40
0.951197035379054
 40
1.0
 40
1.0
 40
1.0
 40
1.0
 10
109.2580486732372
 20
120.3415215702672
 30
0.0
 10
109.258085894971
 20
120.266901543254
 30
0.0
 10
109.2581602574717
 20
120.1178238072672
 30
0.0
 10
109.2457442068252
 20
119.8952057163013
 30
0.0
 10
109.2241396464714
 20
119.6738812982727
 30
0.0
 10
109.1924541768114
 20
119.4539130323842
 30
0.0
 10
109.1509280384915
 20
119.2353227451552
 30
0.0
 10
109.0994972827616
 20
119.0181408067507
 30
0.0
 10
109.0381834080504
 20
118.8023993868656
 30
0.0
 10
108.9669730725509
 20
118.5881094954151
 30
0.0
 10
108.7961364653474
 20
118.1397597223937
 30
0.0
 10
108.4584042319115
 20
117.4864288943224
 30
0.0
 10
107.846849567714
 20
116.7145356836833
 30
0.0
 10
107.1106147325644
 20
116.0703760582984
 30
0.0
 10
106.4241286609171
 20
115.6787348902366
 30
0.0
 10
105.8754245147673
 20
115.4600399892684
 30
0.0
 10
105.4933883362626
 20
115.3441839404377
 30
0.0
 10
105.1062222375581
 20
115.2632760349078
 30
0.0
 10
104.7139955687714
 20
115.2140476041098
 30
0.0
 10
104.450234300656
 20
115.2097897490945
 30
0.0
 10
104.3181643668344
 20
115.2076577657517
 30
0.0
  0
LINE
  5
17C
330
1F
100
AcDbEntity
  8
0
  6
Continuous
 62
     7
370
    25
100
AcDbLine
 10
109.2580486732
 20
124.7161970553
 30
0.0
 11
109.2580486732
 21
120.3415215703
 31
0.0
  0
LINE
  5
17D
330
1F
100
AcDbEntity
  8
0
  6
Continuous
 62
     7
370
    25
100
AcDbLine
 10
125.20292448
 20
99.7744590098
 30
0.0
 11
125.20292448
 21
124.7161970553
 31
0.0
  0
LINE
  5
17E
330
1F
100
AcDbEntity
  8
0
  6
Continuous
 62
     7
370
    25
100
AcDbLine
 10
125.20292448
 20
149.6579351009
 30
0.0
 11
111.8814512075
 21
148.9889581278
 31
0.0
  0
SPLINE
  5
17F
330
1F
100
AcDbEntity
  8
0
  6
Continuous
 62
     7
370
    25
100
AcDbSpline
210
0.0
220
0.0
230
1.0
 70
     8
 71
     3
 72
    20
 73
    16
 74
     0
 42
0.000000001
 43
0.00000001
 40
0.0
 40
0.0
 40
0.0
 40
0.0
 40
0.0829621378691687
 40
0.1658495135105458
 40
0.2487180070845905
 40
0.3299477216397856
 40
0.4108693994437833
 40
0.4941953814850117
 40
0.5768901676624038
 40
0.6601065810557447
 40
0.7435845489352629
 40
0.8279858465401675
 40
0.913259074540104
 40
0.9972257035811793
 40
1.0
 40
1.0
 40
1.0
 40
1.0
 10
98.27552261476275
 20
101.852936687829
 30
0.0
 10
98.66126845083978
 20
101.9298551144328
 30
0.0
 10
99.43241250396179
 20
102.0836226517683
 30
0.0
 10
100.840160655118
 20
102.2595378731566
 30
0.0
 10
102.3480120229891
 20
102.3535341604849
 30
0.0
 10
103.9205009980018
 20
102.3296897786192
 30
0.0
 10
105.4877980292215
 20
102.1857847337196
 30
0.0
 10
106.9835740560015
 20
101.9367271309199
 30
0.0
 10
108.3638279316796
 20
101.622046438381
 30
0.0
 10
109.5614221147352
 20
101.2777850863997
 30
0.0
 10
110.5482841445596
 20
100.94873786058
 30
0.0
 10
111.2955223907576
 20
100.6702769523713
 30
0.0
 10
111.7427238201242
 20
100.4984211573404
 30
0.0
 10
111.9294784322723
 20
100.4245704857424
 30
0.0
 10
111.8783802183729
 20
100.4447217768154
 30
0.0
 10
111.8767459080277
 20
100.445366289822
 30
0.0
  0
SPLINE
  5
180
330
1F
100
AcDbEntity
  8
0
  6
Continuous
 62
     7
370
    25
100
AcDbSpline
210
0.0
220
0.0
230
1.0
 70
     8
 71
     3
 72
    11
 73
     7
 74
     0
 42
0.000000001
 43
0.00000001
 40
0.0
 40
0.0
 40
0.0
 40
0.0
 40
0.2435512231736129
 40
0.4981153923402314
 40
0.7509097881751974
 40
1.0
 40
1.0
 40
1.0
 40
1.0
 10
95.96802849701925
 20
101.2442744784459
 30
0.0
 10
95.99397941854569
 20
101.252510014984
 30
0.0
 10
96.04705471535304
 20
101.2693534841334
 30
0.0
 10
96.52474969901587
 20
101.4102549262715
 30
0.0
 10
97.23608914727501
 20
101.6155454767216
 30
0.0
 10
97.93075379445527
 20
101.7741965949179
 30
0.0
 10
98.27552261476275
 20
101.852936687829
 30
0.0
  0
LINE
  5
181
330
1F
100
AcDbEntity
  8
0
  6
Continuous
 62
     7
370
    25
100
AcDbLine
 10
125.6936070059
 20
149.5032234947
 30
0.0
 11
125.20292448
 21
149.6579351009
 31
0.0
  0
LINE
  5
182
330
1F
100
AcDbEntity
  8
0
  6
Continuous
 62
     7
370
    25
100
AcDbLine
 10
109.2580486732
 20
120.3415215703
 30
0.0
 11
108.36310652
 21
120.5036970553
 31
0.0
  0
LINE
  5
183
330
1F
100
AcDbEntity
  8
0
  6
Continuous
 62
     7
370
    25
100
AcDbLine
 10
108.36310652
 20
120.5036970553
 30
0.0
 11
108.36310652
 21
124.7161970553
 31
0.0
  0
SPLINE
  5
184
330
1F
100
AcDbEntity
  8
0
  6
Continuous
 62
     7
370
    25
100
AcDbSpline
210
0.0
220
0.0
230
1.0
 70
     8
 71
     3
 72
    25
 73
    21
 74
     0
 42
0.000000001
 43
0.00000001
 40
0.0
 40
0.0
 40
0.0
 40
0.0
 40
0.0288821753094393
 40
0.0583636593986225
 40
0.0884647204281144
 40
0.1192044006590791
 40
0.1506005800061348
 40
0.1826700399650394
 40
0.2154285269564808
 40
0.2488908143379647
 40
0.361059447113401
 40
0.4984670131067465
 40
0.5822693905006262
 40
0.6661127642782027
 40
0.7499972937224338
 40
0.8007709755032364
 40
0.8511237700807901
 40
0.9010896024506709
 40
0.9507031914109064
 40
1.0
 40
1.0
 40
1.0
 40
1.0
 10
104.3631065200358
 20
116.5036970553358
 30
0.0
 10
104.4259069732697
 20
116.5045535392875
 30
0.0
 10
104.5528109970613
 20
116.5062842793409
 30
0.0
 10
104.7441654047655
 20
116.520434144743
 30
0.0
 10
104.9380702174381
 20
116.5435712270623
 30
0.0
 10
105.1339709381647
 20
116.5769823792859
 30
0.0
 10
105.3313086061712
 20
116.6208562013174
 30
0.0
 10
105.5294619479627
 20
116.675651472287
 30
0.0
 10
105.727777691981
 20
116.7417204336529
 30
0.0
 10
106.0790986794762
 20
116.8797017659022
 30
0.0
 10
106.6042104498043
 20
117.1597537047422
 30
0.0
 10
107.1412022782927
 20
117.5983443071472
 30
0.0
 10
107.5532620083424
 20
118.0722044287068
 30
0.0
 10
107.8401805963949
 20
118.5038881765266
 30
0.0
 10
108.0386072836021
 20
118.9070114182868
 30
0.0
 10
108.1706931576504
 20
119.2647475790658
 30
0.0
 10
108.2563270374482
 20
119.5674999813481
 30
0.0
 10
108.3174092488012
 20
119.8759882915938
 30
0.0
 10
108.3559101921667
 20
120.1883000017502
 30
0.0
 10
108.3607128712602
 20
120.3987894156516
 30
0.0
 10
108.3631065200358
 20
120.5036970553358
 30
0.0
  0
SPLINE
  5
185
330
1F
100
AcDbEntity
  8
0
  6
Continuous
 62
     7
370
    25
100
AcDbSpline
210
0.0
220
0.0
230
1.0
 70
     8
 71
     3
 72
    13
 73
     9
 74
     0
 42
0.000000001
 43
0.00000001
 40
0.0
 40
0.0
 40
0.0
 40
0.0
 40
0.1722587823387897
 40
0.3421398270959865
 40
0.5097456257587107
 40
0.6751828992986529
 40
0.838562618995617
 40
1.0
 40
1.0
 40
1.0
 40
1.0
 10
101.363124888946
 20
116.6536918780856
 30
0.0
 10
101.4239882786082
 20
116.6374281503887
 30
0.0
 10
101.5448749430369
 20
116.6051251879122
 30
0.0
 10
101.72793610099
 20
116.5677375332204
 30
0.0
 10
101.910038783924
 20
116.5386045983088
 30
0.0
 10
102.0909802322468
 20
116.5184178827003
 30
0.0
 10
102.2703192359622
 20
116.5059710783964
 30
0.0
 10
102.3891654643927
 20
116.5044520351685
 30
0.0
 10
102.4482332407463
 20
116.5036970553358
 30
0.0
  0
LINE
  5
186
330
1F
100
AcDbEntity
  8
0
  6
Continuous
 62
     7
370
    25
100
AcDbLine
 10
102.4032910875
 20
115.2061623309
 30
0.0
 11
102.4482332407
 21
116.5036970553
 31
0.0
  0
SPLINE
  5
187
330
1F
100
AcDbEntity
  8
0
  6
Continuous
 62
     7
370
    25
100
AcDbSpline
210
0.0
220
0.0
230
1.0
 70
     8
 71
     3
 72
    11
 73
     7
 74
     0
 42
0.000000001
 43
0.00000001
 40
0.0
 40
0.0
 40
0.0
 40
0.0
 40
0.2392913840897591
 40
0.5001130134987114
 40
0.7515028526612877
 40
1.0
 40
1.0
 40
1.0
 40
1.0
 10
101.0356340278898
 20
116.6542706603589
 30
0.0
 10
100.9668090920512
 20
116.5827172232983
 30
0.0
 10
100.8229666958988
 20
116.4331723277696
 30
0.0
 10
100.6152178975037
 20
116.2042549011403
 30
0.0
 10
100.4072316927098
 20
115.971936528863
 30
0.0
 10
100.2742307689862
 20
115.8171606462319
 30
0.0
 10
100.2081151247882
 20
115.7402205250661
 30
0.0
  0
SPLINE
  5
188
330
1F
100
AcDbEntity
  8
0
  6
Continuous
 62
     7
370
    25
100
AcDbSpline
210
0.0
220
0.0
230
1.0
 70
    24
 71
     3
 72
     9
 73
     5
 74
     0
 42
0.000000001
 43
0.00000001
 40
0.0
 40
0.0
 40
0.0
 40
0.0
 40
0.5090839669866044
 40
1.0
 40
1.0
 40
1.0
 40
1.0
 10
101.0378642962092
 20
116.6536970553358
 30
0.0
 10
101.0925976963216
 20
116.6536970553358
 30
0.0
 10
101.2001111983404
 20
116.6536970553358
 30
0.0
 10
101.3095037587114
 20
116.6536970553358
 30
0.0
 10
101.3632063204899
 20
116.6536970553358
 30
0.0
  0
LINE
  5
189
330
1F
100
AcDbEntity
  8
0
  6
Continuous
 62
     7
370
    25
100
AcDbLine
 10
94.7892564316
 20
116.6336452816
 30
0.0
 11
94.8146709232
 21
115.7360871109
 31
0.0
  0
SPLINE
  5
18A
330
1F
100
AcDbEntity
  8
0
  6
Continuous
 62
     7
370
    25
100
AcDbSpline
210
0.0
220
0.0
230
1.0
 70
     8
 71
     3
 72
     8
 73
     4
 74
     0
 42
0.000000001
 43
0.00000001
 40
0.0
 40
0.0
 40
0.0
 40
0.0
 40
1.0
 40
1.0
 40
1.0
 40
1.0
 10
94.78926762276399
 20
116.633645771675
 30
0.0
 10
94.81107047924603
 20
116.6393431027077
 30
0.0
 10
94.83282518864353
 20
116.6452246855027
 30
0.0
 10
94.8545286439616
 20
116.6512896800558
 30
0.0
  0
LINE
  5
18B
330
1F
100
AcDbEntity
  8
0
  6
Continuous
 62
     7
370
    25
100
AcDbLine
 10
94.8631065201
 20
116.6536970553
 30
0.0
 11
101.0367794924
 21
116.6536970553
 31
0.0
  0
LINE
  5
18C
330
1F
100
AcDbEntity
  8
0
  6
Continuous
 62
     7
370
    25
100
AcDbLine
 10
102.4482332407
 20
116.5036970553
 30
0.0
 11
104.36310652
 21
116.5036970553
 31
0.0
  0
SPLINE
  5
18D
330
1F
100
AcDbEntity
  8
0
  6
Continuous
 62
     7
370
    25
100
AcDbSpline
210
0.0
220
0.0
230
1.0
 70
     8
 71
     3
 72
    13
 73
     9
 74
     0
 42
0.000000001
 43
0.00000001
 40
0.0
 40
0.0
 40
0.0
 40
0.0
 40
0.1621004456877203
 40
0.32594345520649
 40
0.4915935308810087
 40
0.6591130874452793
 40
0.8285624736348074
 40
1.0
 40
1.0
 40
1.0
 40
1.0
 10
93.77797979932522
 20
116.5036970553358
 30
0.0
 10
93.83353475740128
 20
116.5043660215373
 30
0.0
 10
93.94524188388282
 20
116.5057111452611
 30
0.0
 10
94.11308957329537
 20
116.5166577140555
 30
0.0
 10
94.2818759921698
 20
116.5342966433791
 30
0.0
 10
94.45120034869508
 20
116.5596021573683
 30
0.0
 10
94.6209469968536
 20
116.5919061601595
 30
0.0
 10
94.73293989549477
 20
116.6196777600417
 30
0.0
 10
94.78926293051427
 20
116.6336445455405
 30
0.0
  0
LINE
  5
18E
330
1F
100
AcDbEntity
  8
0
  6
Continuous
 62
     7
370
    25
100
AcDbLine
 10
86.9994466985
 20
115.9761953114
 30
0.0
 11
87.9131065201
 21
116.5036970554
 31
0.0
  0
LINE
  5
18F
330
1F
100
AcDbEntity
  8
0
  6
Continuous
 62
     7
370
    25
100
AcDbLine
 10
87.9131065201
 20
116.5036970553
 30
0.0
 11
93.7779797993
 21
116.5036970553
 31
0.0
  0
SPLINE
  5
190
330
1F
100
AcDbEntity
  8
0
  6
Continuous
 62
     7
370
    25
100
AcDbSpline
210
0.0
220
0.0
230
1.0
 70
     8
 71
     3
 72
     8
 73
     4
 74
     0
 42
0.000000001
 43
0.00000001
 40
0.0
 40
0.0
 40
0.0
 40
0.0
 40
1.0
 40
1.0
 40
1.0
 40
1.0
 10
87.91310651958482
 20
115.5938703439598
 30
0.0
 10
87.60855324587928
 20
115.7225612085066
 30
0.0
 10
87.30399997217376
 20
115.8500059647683
 30
0.0
 10
86.99944669846822
 20
115.976195311406
 30
0.0
  0
LINE
  5
191
330
1F
100
AcDbEntity
  8
0
  6
Continuous
 62
     7
370
    25
100
AcDbLine
 10
86.41310652
 20
102.5131023315
 30
0.0
 11
86.41310652
 21
115.6376716516
 31
0.0
  0
SPLINE
  5
192
330
1F
100
AcDbEntity
  8
0
  6
Continuous
 62
     7
370
    25
100
AcDbSpline
210
0.0
220
0.0
230
1.0
 70
    24
 71
     3
 72
     8
 73
     4
 74
     0
 42
0.000000001
 43
0.00000001
 40
0.0
 40
0.0
 40
0.0
 40
0.0
 40
1.0
 40
1.0
 40
1.0
 40
1.0
 10
86.99944669846822
 20
115.976195311406
 30
0.0
 10
86.80311467280988
 20
115.8628429635417
 30
0.0
 10
86.60765365256967
 20
115.7499934908899
 30
0.0
 10
86.41310652003577
 20
115.6376716515514
 30
0.0
  0
ARC
  5
193
330
1F
100
AcDbEntity
  8
0
  6
Continuous
 62
     7
370
    25
100
AcDbCircle
 10
147.36310652
 20
143.7161970553
 30
0.0
 40
3.0
100
AcDbArc
 50
180.0
 51
270.0
  0
LINE
  5
194
330
1F
100
AcDbEntity
  8
0
  6
Continuous
 62
     7
370
    25
100
AcDbLine
 10
118.1383469936
 20
142.9661970553
 30
0.0
 11
119.56310652
 21
142.9661970553
 31
0.0
  0
ARC
  5
195
330
1F
100
AcDbEntity
  8
0
  6
Continuous
 62
     7
370
    25
100
AcDbCircle
 10
119.56310652
 20
142.1661970553
 30
0.0
 40
0.8000000000000114
100
AcDbArc
 50
0.0
 51
90.0
  0
ARC
  5
196
330
1F
100
AcDbEntity
  8
0
  6
Continuous
 62
     7
370
    25
100
AcDbCircle
 10
118.1383469936
 20
142.1661970553
 30
0.0
 40
0.8000000000000114
100
AcDbArc
 50
90.0
 51
120.0
  0
LINE
  5
197
330
1F
100
AcDbEntity
  8
0
  6
Continuous
 62
     7
370
    25
100
AcDbLine
 10
116.86310652
 20
142.3536970553
 30
0.0
 11
116.86310652
 21
124.7161970553
 31
0.0
  0
LINE
  5
198
330
1F
100
AcDbEntity
  8
0
  6
Continuous
 62
     7
370
    25
100
AcDbLine
 10
116.86310652
 20
142.3536970553
 30
0.0
 11
117.7383469936
 21
142.8590173784
 31
0.0
  0
LINE
  5
199
330
1F
100
AcDbEntity
  8
0
  6
Continuous
 62
     7
370
    25
100
AcDbLine
 10
87.1647725699
 20
116.0716462478
 30
0.0
 11
87.0283037975
 21
115.9928559653
 31
0.0
  0
SPLINE
  5
19A
330
1F
100
AcDbEntity
  8
0
  6
Continuous
 62
     7
370
    25
100
AcDbSpline
210
0.0
220
0.0
230
1.0
 70
     8
 71
     3
 72
    32
 73
    28
 74
     0
 42
0.000000001
 43
0.00000001
 40
0.0
 40
0.0
 40
0.0
 40
0.0
 40
0.1249999999999986
 40
0.1249999999999986
 40
0.1874999999999984
 40
0.1874999999999984
 40
0.2499999999999981
 40
0.2499999999999981
 40
0.3124999999999978
 40
0.3124999999999978
 40
0.3749999999999976
 40
0.3749999999999976
 40
0.4999999999999979
 40
0.4999999999999979
 40
0.5624999999999981
 40
0.5624999999999981
 40
0.6249999999999982
 40
0.6249999999999982
 40
0.7499999999999988
 40
0.7499999999999988
 40
0.8124999999999991
 40
0.8124999999999991
 40
0.8749999999999993
 40
0.8749999999999993
 40
0.9374999999999997
 40
0.9374999999999997
 40
1.0
 40
1.0
 40
1.0
 40
1.0
 10
100.8307368513764
 20
140.8888658095453
 30
0.0
 10
100.3466626074224
 20
140.889225202165
 30
0.0
 10
99.8632650368555
 20
140.9041844083463
 30
0.0
 10
99.13935968711947
 20
140.951168454855
 30
0.0
 10
98.89869725358263
 20
140.9709450099795
 30
0.0
 10
98.42735114450699
 20
141.0179090934786
 30
0.0
 10
98.19551532821671
 20
141.0451629426631
 30
0.0
 10
97.73981224166042
 20
141.1067908712756
 30
0.0
 10
97.51594391871906
 20
141.1411659720711
 30
0.0
 10
97.07661632671126
 20
141.2164854157242
 30
0.0
 10
96.85989893404484
 20
141.2577033664725
 30
0.0
 10
96.23355695537201
 20
141.3879401856532
 30
0.0
 10
95.84916432101863
 20
141.4829800975525
 30
0.0
 10
95.32162257539879
 20
141.6292470595048
 30
0.0
 10
95.15398842386769
 20
141.6786156946955
 30
0.0
 10
94.83558367662711
 20
141.7770194021958
 30
0.0
 10
94.68600280208798
 20
141.8257026668283
 30
0.0
 10
94.27298273253953
 20
141.9653254699967
 30
0.0
 10
94.0414309613804
 20
142.0509121485772
 30
0.0
 10
93.75812144629074
 20
142.1598751964933
 30
0.0
 10
93.67455376451895
 20
142.1929238490677
 30
0.0
 10
93.53262893219475
 20
142.2499272453081
 30
0.0
 10
93.47364082075222
 20
142.2741239509185
 30
0.0
 10
93.37892491704241
 20
142.3133262312975
 30
0.0
 10
93.34319694989566
 20
142.3283333977946
 30
0.0
 10
93.2952326721782
 20
142.3485423955215
 30
0.0
 10
93.28310636474477
 20
142.3536970553358
 30
0.0
 10
93.28310636474477
 20
142.3536970553358
 30
0.0
  0
SPLINE
  5
19B
330
1F
100
AcDbEntity
  8
0
  6
Continuous
 62
     7
370
    25
100
AcDbSpline
210
0.0
220
0.0
230
1.0
 70
     8
 71
     3
 72
    31
 73
    27
 74
     0
 42
0.000000001
 43
0.00000001
 40
0.0
 40
0.0
 40
0.0
 40
0.0
 40
0.0161756722759873
 40
0.0323169137827079
 40
0.0484425619880554
 40
0.0645715089957387
 40
0.0807226353336792
 40
0.0969147439446235
 40
0.1131664955251043
 40
0.1294963463046733
 40
0.1459224892609542
 40
0.162462799634363
 40
0.1791347854480637
 40
0.195955543563981
 40
0.2945755146264792
 40
0.3932797312250215
 40
0.492817622193112
 40
0.5924285912822798
 40
0.6939020917449349
 40
0.7927115381486469
 40
0.8267756331445595
 40
0.8608043324981167
 40
0.8949846314027684
 40
0.9295010594372531
 40
0.9645328322475432
 40
1.0
 40
1.0
 40
1.0
 40
1.0
 10
111.8390559101199
 20
142.3536970553358
 30
0.0
 10
111.8383228096687
 20
142.3533506639079
 30
0.0
 10
111.8368581692092
 20
142.3526586183644
 30
0.0
 10
111.8238017895441
 20
142.3470762563182
 30
0.0
 10
111.8027872290213
 20
142.3382094933242
 30
0.0
 10
111.7730400236806
 20
142.3257683926096
 30
0.0
 10
111.7347677110249
 20
142.3098777340546
 30
0.0
 10
111.6879150301038
 20
142.2905519902276
 30
0.0
 10
111.6324973000668
 20
142.2678359007083
 30
0.0
 10
111.5685113362363
 20
142.2417668963336
 30
0.0
 10
111.4959578520857
 20
142.2123844489654
 30
0.0
 10
111.4148411546061
 20
142.1797302016304
 30
0.0
 10
111.325147499856
 20
142.1438377545956
 30
0.0
 10
111.0681016532054
 20
142.0415998469292
 30
0.0
 10
110.540065667612
 20
141.8350756334625
 30
0.0
 10
109.5614310203654
 20
141.4979903201134
 30
0.0
 10
108.3755547174443
 20
141.154845460783
 30
0.0
 10
107.0050884523682
 20
140.8577335601232
 30
0.0
 10
105.5192311804029
 20
140.6476901323903
 30
0.0
 10
104.2990785466323
 20
140.5894647295217
 30
0.0
 10
103.4326545136795
 20
140.6031570707815
 30
0.0
 10
102.9044095851928
 20
140.6285251563924
 30
0.0
 10
102.379636353984
 20
140.6705477721097
 30
0.0
 10
101.8586471143963
 20
140.7288317353376
 30
0.0
 10
101.3414061693474
 20
140.8014552805831
 30
0.0
 10
101.0057690570226
 20
140.8603355982737
 30
0.0
 10
100.8369140689653
 20
140.8899575768194
 30
0.0
  0
LINE
  5
19C
330
1F
100
AcDbEntity
  8
0
  6
Continuous
 62
     7
370
    25
100
AcDbLine
 10
111.8390559101
 20
142.3536970553
 30
0.0
 11
116.86310652
 21
142.3536970553
 31
0.0
  0
LINE
  5
19D
330
1F
100
AcDbEntity
  8
0
  6
Continuous
 62
     7
370
    25
100
AcDbLine
 10
109.01310652
 20
128.7789704661
 30
0.0
 11
109.01310652
 21
124.7161970553
 31
0.0
  0
SPLINE
  5
19E
330
1F
100
AcDbEntity
  8
0
  6
Continuous
 62
     7
370
    25
100
AcDbSpline
210
0.0
220
0.0
230
1.0
 70
     8
 71
     3
 72
    25
 73
    21
 74
     0
 42
0.000000001
 43
0.00000001
 40
0.0
 40
0.0
 40
0.0
 40
0.0
 40
0.0278144320063459
 40
0.0555680196245752
 40
0.0833316253677715
 40
0.1111760352167582
 40
0.1391714221532259
 40
0.1673868326284758
 40
0.1958897140434715
 40
0.2247454979318968
 40
0.2540172492221455
 40
0.3796724410010767
 40
0.5056484635002251
 40
0.6297527290687337
 40
0.7535891720571736
 40
0.8038564806093723
 40
0.8533396843434523
 40
0.9023264398358549
 40
0.9511131859219458
 40
1.0
 40
1.0
 40
1.0
 40
1.0
 10
104.3631065200358
 20
133.2636936377008
 30
0.0
 10
104.4317618739981
 20
133.2631605525937
 30
0.0
 10
104.5689223975508
 20
133.2620955485093
 30
0.0
 10
104.7741649801365
 20
133.2490006511171
 30
0.0
 10
104.9784859966336
 20
133.2274621645446
 30
0.0
 10
105.1818870487226
 20
133.196640692696
 30
0.0
 10
105.3843626795685
 20
133.1567279401885
 30
0.0
 10
105.5859115438161
 20
133.1076277472475
 30
0.0
 10
105.7865255646188
 20
133.0493144997357
 30
0.0
 10
105.9862233289511
 20
132.9817225568689
 30
0.0
 10
106.4017881496291
 20
132.8209090407538
 30
0.0
 10
107.004564566171
 20
132.5069321414116
 30
0.0
 10
107.6986211216759
 20
131.9433606659192
 30
0.0
 10
108.2653947510753
 20
131.267616446665
 30
0.0
 10
108.6029725567456
 20
130.6502546191879
 30
0.0
 10
108.7914349660351
 20
130.1581931796766
 30
0.0
 10
108.8906961835596
 20
129.8205413971302
 30
0.0
 10
108.9610407722665
 20
129.4779102551067
 30
0.0
 10
109.005039370785
 20
129.1305455546651
 30
0.0
 10
109.0104156342653
 20
128.8962421780583
 30
0.0
 10
109.0131065200358
 20
128.7789704661355
 30
0.0
  0
LINE
  5
19F
330
1F
100
AcDbEntity
  8
0
  6
Continuous
 62
     7
370
    25
100
AcDbLine
 10
102.4482332407
 20
133.2636936377
 30
0.0
 11
104.36310652
 21
133.2636936377
 31
0.0
  0
SPLINE
  5
1A0
330
1F
100
AcDbEntity
  8
0
  6
Continuous
 62
     7
370
    25
100
AcDbSpline
210
0.0
220
0.0
230
1.0
 70
     8
 71
     3
 72
    12
 73
     8
 74
     0
 42
0.000000001
 43
0.00000001
 40
0.0
 40
0.0
 40
0.0
 40
0.0
 40
0.1992838849048542
 40
0.3984605265906603
 40
0.5979968005081432
 40
0.79835706849064
 40
1.0
 40
1.0
 40
1.0
 40
1.0
 10
101.4471993984586
 20
133.1614993249767
 30
0.0
 10
101.5126526757581
 20
133.1745216777414
 30
0.0
 10
101.643524007137
 20
133.2005593753834
 30
0.0
 10
101.8423734587541
 20
133.2289899343578
 30
0.0
 10
102.0427799746149
 20
133.2494210953394
 30
0.0
 10
102.2449508920182
 20
133.2618601724102
 30
0.0
 10
102.3803284756588
 20
133.2630811839849
 30
0.0
 10
102.4482332407463
 20
133.2636936377008
 30
0.0
  0
LINE
  5
1A1
330
1F
100
AcDbEntity
  8
0
  6
Continuous
 62
     7
370
    25
100
AcDbLine
 10
96.0224363909
 20
133.1613354009
 30
0.0
 11
101.4464264094
 21
133.1613354009
 31
0.0
  0
SPLINE
  5
1A2
330
1F
100
AcDbEntity
  8
0
  6
Continuous
 62
     7
370
    25
100
AcDbSpline
210
0.0
220
0.0
230
1.0
 70
     8
 71
     3
 72
    24
 73
    20
 74
     0
 42
0.000000001
 43
0.00000001
 40
0.0
 40
0.0
 40
0.0
 40
0.0
 40
0.0410257106277056
 40
0.0818520099058079
 40
0.1225800578328279
 40
0.1633117464027038
 40
0.2041489402772657
 40
0.2451927184714171
 40
0.2865426449201731
 40
0.3282960933615133
 40
0.3705476475467034
 40
0.4133885920081624
 40
0.4569065022338602
 40
0.5011849368583825
 40
0.6001856774930499
 40
0.6987388860423923
 40
0.7976800645430001
 40
0.8978349910013272
 40
1.0
 40
1.0
 40
1.0
 40
1.0
 10
92.25044948388563
 20
135.0989772179988
 30
0.0
 10
92.31348857183849
 20
135.0984425176837
 30
0.0
 10
92.4392603372174
 20
135.097375716041
 30
0.0
 10
92.62719849872414
 20
135.0862322240428
 30
0.0
 10
92.81378859154555
 20
135.0680707257351
 30
0.0
 10
92.99903037407842
 20
135.0421958050136
 30
0.0
 10
93.18291955730498
 20
135.008758919202
 30
0.0
 10
93.36545322327729
 20
134.9676748976583
 30
0.0
 10
93.54662863021701
 20
134.9189121495648
 30
0.0
 10
93.72644341419453
 20
134.8624146614211
 30
0.0
 10
93.90489661327632
 20
134.7981235666188
 30
0.0
 10
94.08198465142914
 20
134.7259698866865
 30
0.0
 10
94.25771677571889
 20
134.6458827016477
 30
0.0
 10
94.50273140931775
 20
134.5220418149679
 30
0.0
 10
94.80691448850115
 20
134.3434168327785
 30
0.0
 10
95.1542219699452
 20
134.0943276487242
 30
0.0
 10
95.4733962334176
 20
133.8147580637445
 30
0.0
 10
95.76730813568334
 20
133.505932425769
 30
0.0
 10
95.93683222237568
 20
133.2778403824637
 30
0.0
 10
96.02243639085911
 20
133.1626612944308
 30
0.0
  0
LINE
  5
1A3
330
1F
100
AcDbEntity
  8
0
  6
Continuous
 62
     7
370
    25
100
AcDbLine
 10
89.458907767
 20
135.098977218
 30
0.0
 11
92.2504494839
 21
135.098977218
 31
0.0
  0
SPLINE
  5
1A4
330
1F
100
AcDbEntity
  8
0
  6
Continuous
 62
     7
370
    25
100
AcDbSpline
210
0.0
220
0.0
230
1.0
 70
     8
 71
     3
 72
     8
 73
     4
 74
     0
 42
0.000000001
 43
0.00000001
 40
0.0
 40
0.0
 40
0.0
 40
0.0
 40
1.0
 40
1.0
 40
1.0
 40
1.0
 10
89.41310369527703
 20
135.1624302090084
 30
0.0
 10
89.42837171917469
 20
135.1413137386103
 30
0.0
 10
89.4436397430724
 20
135.1201626715576
 30
0.0
 10
89.45890776697007
 20
135.0989772179987
 30
0.0
  0
LINE
  5
1A5
330
1F
100
AcDbEntity
  8
0
  6
Continuous
 62
     7
370
    25
100
AcDbLine
 10
89.41310652
 20
142.3536970553
 30
0.0
 11
89.41310652
 21
135.162430209
 31
0.0
  0
LINE
  5
1A6
330
1F
100
AcDbEntity
  8
0
  6
Continuous
 62
     7
370
    25
100
AcDbLine
 10
89.41310652
 20
142.3536970553
 30
0.0
 11
93.2831063647
 21
142.3536970553
 31
0.0
  0
LINE
  5
1A7
330
1F
100
AcDbEntity
  8
0
  6
Continuous
 62
     7
370
    25
100
AcDbLine
 10
155.5382875753
 20
108.7161970553
 30
0.0
 11
155.5382875753
 21
124.7161970553
 31
0.0
  0
LINE
  5
1A8
330
1F
100
AcDbEntity
  8
0
  6
Continuous
 62
     7
370
    25
100
AcDbLine
 10
155.5382875753
 20
140.7161970553
 30
0.0
 11
147.36310652
 21
140.7161970553
 31
0.0
  0
LINE
  5
1A9
330
1F
100
AcDbEntity
  8
0
  6
Continuous
 62
     7
370
    25
100
AcDbLine
 10
204.5200247115
 20
136.8612507395
 30
0.0
 11
155.5382875753
 21
140.7161970553
 31
0.0
  0
LINE
  5
1AA
330
1F
100
AcDbEntity
  8
0
  6
Continuous
 62
     7
370
    25
100
AcDbLine
 10
120.36310652
 20
140.2661970553
 30
0.0
 11
124.06310652
 21
140.2661970553
 31
0.0
  0
LINE
  5
1AB
330
1F
100
AcDbEntity
  8
0
  6
Continuous
 62
     7
370
    25
100
AcDbLine
 10
120.36310652
 20
140.2661970553
 30
0.0
 11
120.36310652
 21
124.7161970553
 31
0.0
  0
ARC
  5
1AC
330
1F
100
AcDbEntity
  8
0
  6
Continuous
 62
     7
370
    25
100
AcDbCircle
 10
124.06310652
 20
139.0661970553
 30
0.0
 40
1.199999999999989
100
AcDbArc
 50
0.0
 51
90.0
  0
LINE
  5
1AD
330
1F
100
AcDbEntity
  8
0
  6
Continuous
 62
     7
370
    25
100
AcDbLine
 10
206.36310652
 20
114.5649780559
 30
0.0
 11
206.36310652
 21
124.7161970553
 31
0.0
  0
ARC
  5
1AE
330
1F
100
AcDbEntity
  8
0
  6
Continuous
 62
     7
370
    25
100
AcDbCircle
 10
204.36310652
 20
134.867416072
 30
0.0
 40
2.000000000000016
100
AcDbArc
 50
0.0
 51
85.5
  0
ARC
  5
1AF
330
1F
100
AcDbEntity
  8
0
  6
Continuous
 62
     7
370
    25
100
AcDbCircle
 10
205.86310652
 20
130.7528913034
 30
0.0
 40
0.5
100
AcDbArc
 50
280.0
 51
0.0
  0
LINE
  5
1B0
330
1F
100
AcDbEntity
  8
0
  6
Continuous
 62
     7
370
    25
100
AcDbLine
 10
206.36310652
 20
130.7528913034
 30
0.0
 11
206.36310652
 21
124.7161970553
 31
0.0
  0
LINE
  5
1B1
330
1F
100
AcDbEntity
  8
0
  6
Continuous
 62
     7
370
    25
100
AcDbLine
 10
129.08810652
 20
130.4661970553
 30
0.0
 11
129.91310652
 21
130.4661970553
 31
0.0
  0
LINE
  5
1B2
330
1F
100
AcDbEntity
  8
0
  6
Continuous
 62
     7
370
    25
100
AcDbLine
 10
202.86310652
 20
129.7161970553
 30
0.0
 11
202.86310652
 21
124.7161970553
 31
0.0
  0
LINE
  5
1B3
330
1F
100
AcDbEntity
  8
0
  6
Continuous
 62
     7
370
    25
100
AcDbLine
 10
202.86310652
 20
129.7161970553
 30
0.0
 11
205.9499306089
 21
130.2604874269
 31
0.0
  0
LINE
  5
1B4
330
1F
100
AcDbEntity
  8
0
  6
Continuous
 62
     7
370
    25
100
AcDbLine
 10
165.26310652
 20
130.0161970553
 30
0.0
 11
174.4683325019
 21
130.0161970553
 31
0.0
  0
ARC
  5
1B5
330
1F
100
AcDbEntity
  8
0
  6
Continuous
 62
     7
370
    25
100
AcDbCircle
 10
174.4683325019
 20
129.6161970553
 30
0.0
 40
0.3999999999999773
100
AcDbArc
 50
70.0
 51
90.0
  0
ARC
  5
1B6
330
1F
100
AcDbEntity
  8
0
  6
Continuous
 62
     7
370
    25
100
AcDbCircle
 10
165.26310652
 20
129.6161970553
 30
0.0
 40
0.3999999999999773
100
AcDbArc
 50
90.0
 51
180.0
  0
LINE
  5
1B7
330
1F
100
AcDbEntity
  8
0
  6
Continuous
 62
     7
370
    25
100
AcDbLine
 10
175.36310652
 20
129.7161970553
 30
0.0
 11
175.36310652
 21
124.7161970553
 31
0.0
  0
LINE
  5
1B8
330
1F
100
AcDbEntity
  8
0
  6
Continuous
 62
     7
370
    25
100
AcDbLine
 10
174.6051405592
 20
129.9920741037
 30
0.0
 11
175.36310652
 21
129.7161970553
 31
0.0
  0
LINE
  5
1B9
330
1F
100
AcDbEntity
  8
0
  6
Continuous
 62
     7
370
    25
100
AcDbLine
 10
125.66310652
 20
129.7161970553
 30
0.0
 11
125.66310652
 21
124.7161970553
 31
0.0
  0
LINE
  5
1BA
330
1F
100
AcDbEntity
  8
0
  6
Continuous
 62
     7
370
    25
100
AcDbLine
 10
125.26310652
 20
129.947137163
 30
0.0
 11
125.66310652
 21
129.7161970553
 31
0.0
  0
LINE
  5
1BB
330
1F
100
AcDbEntity
  8
0
  6
Continuous
 62
     7
370
    25
100
AcDbLine
 10
125.26310652
 20
129.947137163
 30
0.0
 11
125.26310652
 21
124.7161970553
 31
0.0
  0
LINE
  5
1BC
330
1F
100
AcDbEntity
  8
0
  6
Continuous
 62
     7
370
    25
100
AcDbLine
 10
175.36310652
 20
129.7161970553
 30
0.0
 11
202.86310652
 21
129.7161970553
 31
0.0
  0
LINE
  5
1BD
330
1F
100
AcDbEntity
  8
0
  6
Continuous
 62
     7
370
    25
100
AcDbLine
 10
125.66310652
 20
129.7161970553
 30
0.0
 11
129.08810652
 21
129.7161970553
 31
0.0
  0
LINE
  5
1BE
330
1F
100
AcDbEntity
  8
0
  6
Continuous
 62
     7
370
    25
100
AcDbLine
 10
129.08810652
 20
129.7161970553
 30
0.0
 11
129.08810652
 21
124.7161970553
 31
0.0
  0
LINE
  5
1BF
330
1F
100
AcDbEntity
  8
0
  6
Continuous
 62
     7
370
    25
100
AcDbLine
 10
164.36310652
 20
128.2161970553
 30
0.0
 11
164.86310652
 21
128.7161970553
 31
0.0
  0
LINE
  5
1C0
330
1F
100
AcDbEntity
  8
0
  6
Continuous
 62
     7
370
    25
100
AcDbLine
 10
146.36310652
 20
128.7161970553
 30
0.0
 11
146.36310652
 21
124.7161970553
 31
0.0
  0
LINE
  5
1C1
330
1F
100
AcDbEntity
  8
0
  6
Continuous
 62
     7
370
    25
100
AcDbLine
 10
129.91310652
 20
128.7161970553
 30
0.0
 11
146.36310652
 21
128.7161970553
 31
0.0
  0
LINE
  5
1C2
330
1F
100
AcDbEntity
  8
0
  6
Continuous
 62
     7
370
    25
100
AcDbLine
 10
129.91310652
 20
128.7161970553
 30
0.0
 11
129.91310652
 21
124.7161970553
 31
0.0
  0
LINE
  5
1C3
330
1F
100
AcDbEntity
  8
0
  6
Continuous
 62
     7
370
    25
100
AcDbLine
 10
146.6635368295
 20
128.2161970553
 30
0.0
 11
146.6635368295
 21
124.7161970553
 31
0.0
  0
LINE
  5
1C4
330
1F
100
AcDbEntity
  8
0
  6
Continuous
 62
     7
370
    25
100
AcDbLine
 10
146.36310652
 20
128.7161970553
 30
0.0
 11
146.6635368295
 21
128.2161970553
 31
0.0
  0
LINE
  5
1C5
330
1F
100
AcDbEntity
  8
0
  6
Continuous
 62
     7
370
    25
100
AcDbLine
 10
146.6635368295
 20
128.2161970553
 30
0.0
 11
164.36310652
 21
128.2161970553
 31
0.0
  0
SPLINE
  5
1C6
330
1F
100
AcDbEntity
  8
0
  6
Continuous
 62
     7
370
    25
100
AcDbSpline
210
0.0
220
0.0
230
1.0
 70
     8
 71
     3
 72
    37
 73
    33
 74
     0
 42
0.000000001
 43
0.00000001
 40
0.0
 40
0.0
 40
0.0
 40
0.0
 40
0.01148785481024
 40
0.0231559765620938
 40
0.0350076484353424
 40
0.0470460033794245
 40
0.0592740307998813
 40
0.0716945830964735
 40
0.0843103820273742
 40
0.0971240248797316
 40
0.1101379904320153
 40
0.1233546446979438
 40
0.1811510010988681
 40
0.2483631736114458
 40
0.2888373415759032
 40
0.3232297457524296
 40
0.3515392131431702
 40
0.3737664266256256
 40
0.4399300285917607
 40
0.498742406327009
 40
0.5023253005651694
 40
0.5613100074514542
 40
0.625259544433813
 40
0.6818650083849758
 40
0.7483890016987819
 40
0.7860781471950066
 40
0.8194856599780307
 40
0.8486127715267068
 40
0.873462272774727
 40
0.9389926156601968
 40
0.9981523731393402
 40
1.0
 40
1.0
 40
1.0
 40
1.0
 10
111.2131065200358
 20
148.179849358689
 30
0.0
 10
111.2121800687573
 20
148.1794058416806
 30
0.0
 10
111.2103126283652
 20
148.1785118480132
 30
0.0
 10
111.1950395680255
 20
148.1713198705549
 30
0.0
 10
111.1701378655618
 20
148.1598686269624
 30
0.0
 10
111.134283593626
 20
148.1437188681879
 30
0.0
 10
111.0873160827885
 20
148.1229911886342
 30
0.0
 10
111.0287731723677
 20
148.0976526696325
 30
0.0
 10
110.9582950327901
 20
148.067712249078
 30
0.0
 10
110.8755204685125
 20
148.033168275036
 30
0.0
 10
110.7801039233942
 20
147.9940185334214
 30
0.0
 10
110.5505350900013
 20
147.9013198622585
 30
0.0
 10
110.0661168760259
 20
147.7125969717463
 30
0.0
 10
109.2871169045069
 20
147.4345071717829
 30
0.0
 10
108.4958984531479
 20
147.1839203044671
 30
0.0
 10
107.8648479599519
 20
147.0089035431469
 30
0.0
 10
107.3118100035827
 20
146.8690689025393
 30
0.0
 10
106.5188520746601
 20
146.6886580571831
 30
0.0
 10
105.4485177342868
 20
146.4995917355301
 30
0.0
 10
104.467527454851
 20
146.3943049278201
 30
0.0
 10
103.539560225703
 20
146.3372721558654
 30
0.0
 10
102.5671047319425
 20
146.3226775574959
 30
0.0
 10
101.2409745265093
 20
146.4008707739868
 30
0.0
 10
99.9709390420161
 20
146.561350495581
 30
0.0
 10
99.0111630413551
 20
146.746462033793
 30
0.0
 10
98.31251139401846
 20
146.9139516375205
 30
0.0
 10
97.86870325586648
 20
147.027574843727
 30
0.0
 10
97.53616619392794
 20
147.1207586786369
 30
0.0
 10
97.14900778367725
 20
147.2354235428995
 30
0.0
 10
96.81175982156192
 20
147.3427693519642
 30
0.0
 10
96.7140357552325
 20
147.3803349252484
 30
0.0
 10
96.71313383496064
 20
147.3804663340632
 30
0.0
 10
96.71310652003575
 20
147.3804703138184
 30
0.0
  0
LINE
  5
1C7
330
1F
100
AcDbEntity
  8
0
  6
Continuous
 62
     7
370
    25
100
AcDbLine
 10
111.21310652
 20
148.1798493587
 30
0.0
 11
111.21310652
 21
142.8224230761
 31
0.0
  0
SPLINE
  5
1C8
330
1F
100
AcDbEntity
  8
0
  6
Continuous
 62
     7
370
    25
100
AcDbSpline
210
0.0
220
0.0
230
1.0
 70
     8
 71
     3
 72
    30
 73
    26
 74
     0
 42
0.000000001
 43
0.00000001
 40
0.0
 40
0.0
 40
0.0
 40
0.0
 40
0.0192411700742979
 40
0.0381353539378544
 40
0.056686888486326
 40
0.0749003554933472
 40
0.0927805967286089
 40
0.110332729832797
 40
0.1275621649290812
 40
0.1444746219341807
 40
0.2455865830527894
 40
0.3577720192516796
 40
0.4505017408947163
 40
0.5720127868619856
 40
0.616806984022421
 40
0.6590088499470513
 40
0.6986242498815164
 40
0.7356603299373982
 40
0.7701258931928701
 40
0.807367916591595
 40
0.8483950324910872
 40
0.8881367798844427
 40
0.9266264622133245
 40
0.9639007443629761
 40
0.9999999999999999
 40
0.9999999999999999
 40
0.9999999999999999
 40
0.9999999999999999
 10
102.0422879294238
 20
141.1583317657444
 30
0.0
 10
102.1253204093038
 20
141.1472046604195
 30
0.0
 10
102.2898880003773
 20
141.1251511107533
 30
0.0
 10
102.5377695160587
 20
141.0970992214905
 30
0.0
 10
102.7830461915016
 20
141.0731476909645
 30
0.0
 10
103.0256040251131
 20
141.053617738771
 30
0.0
 10
103.2650387022218
 20
141.0384254465943
 30
0.0
 10
103.5010518976283
 20
141.0275938853634
 30
0.0
 10
103.7333699429382
 20
141.0211133201103
 30
0.0
 10
104.3419207125597
 20
141.0154818285241
 30
0.0
 10
105.3802332097792
 20
141.0754552280096
 30
0.0
 10
106.6955847378769
 20
141.2748777011824
 30
0.0
 10
107.9751299507705
 20
141.5803590618663
 30
0.0
 10
108.8665704948697
 20
141.860301864788
 30
0.0
 10
109.4842353637432
 20
142.0877509613085
 30
0.0
 10
109.8275584490351
 20
142.218029621813
 30
0.0
 10
110.1192495339295
 20
142.3341205597719
 30
0.0
 10
110.3637948897473
 20
142.4354887891728
 30
0.0
 10
110.5761495701786
 20
142.5268268416864
 30
0.0
 10
110.7672125448004
 20
142.6109019256284
 30
0.0
 10
110.9324599489732
 20
142.6858948795926
 30
0.0
 10
111.0620004992168
 20
142.7468833791383
 30
0.0
 10
111.1503668684367
 20
142.7901210409039
 30
0.0
 10
111.2035127136973
 20
142.8173511267829
 30
0.0
 10
111.209942909638
 20
142.8207505729129
 30
0.0
 10
111.2131065200358
 20
142.8224230760874
 30
0.0
  0
SPLINE
  5
1C9
330
1F
100
AcDbEntity
  8
0
  6
Continuous
 62
     7
370
    25
100
AcDbSpline
210
0.0
220
0.0
230
1.0
 70
     8
 71
     3
 72
    38
 73
    34
 74
     0
 42
0.000000001
 43
0.00000001
 40
0.0
 40
0.0
 40
0.0
 40
0.0
 40
0.1249999999999999
 40
0.1249999999999999
 40
0.2499999999999997
 40
0.2499999999999997
 40
0.3124999999999996
 40
0.3124999999999996
 40
0.3749999999999994
 40
0.3749999999999994
 40
0.4374999999999992
 40
0.4374999999999992
 40
0.499999999999999
 40
0.499999999999999
 40
0.5624999999999988
 40
0.5624999999999988
 40
0.6249999999999987
 40
0.6249999999999987
 40
0.6874999999999984
 40
0.6874999999999984
 40
0.7187499999999986
 40
0.7187499999999986
 40
0.7499999999999987
 40
0.7499999999999987
 40
0.7812499999999987
 40
0.7812499999999987
 40
0.8124999999999988
 40
0.8124999999999988
 40
0.8749999999999991
 40
0.8749999999999991
 40
0.9374999999999996
 40
0.9374999999999996
 40
1.0
 40
1.0
 40
1.0
 40
1.0
 10
96.71310652003575
 20
147.2522449402398
 30
0.0
 10
96.71310652003577
 20
147.2522449402398
 30
0.0
 10
96.77491227759916
 20
147.2296008575778
 30
0.0
 10
97.0245348230345
 20
147.1370164685218
 30
0.0
 10
97.20826245397257
 20
147.0686288885691
 30
0.0
 10
97.56465129055753
 20
146.9327867893673
 30
0.0
 10
97.69781175206306
 20
146.8815938043108
 30
0.0
 10
97.9888907627594
 20
146.7679051991985
 30
0.0
 10
98.1453807142687
 20
146.7059785916921
 30
0.0
 10
98.47876215555657
 20
146.5710934830016
 30
0.0
 10
98.65566591391968
 20
146.4981552287149
 30
0.0
 10
99.02890756139296
 20
146.3391792939191
 30
0.0
 10
99.22665155227409
 20
146.2525395240425
 30
0.0
 10
99.63267498552722
 20
146.0656218514902
 30
0.0
 10
99.8407283789142
 20
145.9655869376811
 30
0.0
 10
100.2630226516484
 20
145.7463233875021
 30
0.0
 10
100.4773879547235
 20
145.6273201958376
 30
0.0
 10
100.9052302663029
 20
145.3570463455137
 30
0.0
 10
101.1216319174095
 20
145.2037975200021
 30
0.0
 10
101.4202643602897
 20
144.9377289964189
 30
0.0
 10
101.5154569497594
 20
144.8429567501462
 30
0.0
 10
101.6930822016163
 20
144.6371998929563
 30
0.0
 10
101.7756965122447
 20
144.5253413511858
 30
0.0
 10
101.9177767872664
 20
144.2918258469635
 30
0.0
 10
101.9781623365114
 20
144.1692647810077
 30
0.0
 10
102.0776128286663
 20
143.9127940177825
 30
0.0
 10
102.1169042676912
 20
143.7775540042327
 30
0.0
 10
102.2036008538443
 20
143.3692720012683
 30
0.0
 10
102.2223091808391
 20
143.0930118234834
 30
0.0
 10
102.2188131602074
 20
142.5362640448477
 30
0.0
 10
102.1963335399989
 20
142.2580338008569
 30
0.0
 10
102.1307058922168
 20
141.7066479806721
 30
0.0
 10
102.0872083485273
 20
141.4323943115697
 30
0.0
 10
102.0377288014173
 20
141.158964839608
 30
0.0
  0
LINE
  5
1CA
330
1F
100
AcDbEntity
  8
0
  6
Continuous
 62
     7
370
    25
100
AcDbLine
 10
96.71310652
 20
147.2522449402
 30
0.0
 11
96.71310652
 21
147.3804703137
 31
0.0
  0
SPLINE
  5
1CB
330
1F
100
AcDbEntity
  8
0
  6
Continuous
 62
     7
370
    25
100
AcDbSpline
210
0.0
220
0.0
230
1.0
 70
     8
 71
     3
 72
    14
 73
    10
 74
     0
 42
0.000000001
 43
0.00000001
 40
0.0
 40
0.0
 40
0.0
 40
0.0
 40
0.0003951392850831
 40
0.0003951392850831
 40
0.0003951392850831
 40
0.0008159035679249
 40
0.0008159035679249
 40
0.0008159035679249
 40
0.0012369936130996
 40
0.0012369936130996
 40
0.0012369936130996
 40
0.0012369936130996
 10
100.8409904697673
 20
140.8911700523361
 30
0.0
 10
100.969499707874
 20
140.9200440200495
 30
0.0
 10
101.098063215603
 20
140.9487322335258
 30
0.0
 10
101.2266135938864
 20
140.9772350775633
 30
0.0
 10
101.36349884155
 20
141.007585971254
 30
0.0
 10
101.5003944874498
 20
141.037731936283
 30
0.0
 10
101.6372147487989
 20
141.0676837558515
 30
0.0
 10
101.7741407377438
 20
141.0976587206314
 30
0.0
 10
101.911017809708
 20
141.1274447700766
 30
0.0
 10
102.0477546588951
 20
141.1570672432453
 30
0.0
  0
LINE
  5
1CC
330
1F
100
AcDbEntity
  8
0
  6
Continuous
 62
     7
370
    25
100
AcDbLine
 10
93.2831063647
 20
142.3536970553
 30
0.0
 11
96.71310652
 21
147.2522449402
 31
0.0
  0
LINE
  5
1CD
330
1F
100
AcDbEntity
  8
0
  6
Continuous
 62
     7
370
    25
100
AcDbLine
 10
95.9635446717
 20
148.189582765
 30
0.0
 11
96.7131346506
 21
147.3804714272
 31
0.0
  0
LINE
  5
1CE
330
1F
100
AcDbEntity
  8
0
  6
Continuous
 62
     7
370
    25
100
AcDbLine
 10
111.2131194682
 20
148.1798496145
 30
0.0
 11
111.8814496141
 21
148.9889614369
 31
0.0
  0
LINE
  5
1CF
330
1F
100
AcDbEntity
  8
0
  6
Continuous
 62
     7
370
    25
100
AcDbLine
 10
87.1647725699
 20
143.6517732667
 30
0.0
 11
89.41310652
 21
142.3536970553
 31
0.0
  0
LINE
  5
1D0
330
1F
100
AcDbEntity
  8
0
  6
Continuous
 62
     7
370
    25
100
AcDbLine
 10
86.41310652
 20
144.9536970553
 30
0.0
 11
87.1647725699
 21
143.6517732667
 31
0.0
  0
LINE
  5
1D1
330
1F
100
AcDbEntity
  8
0
  6
Continuous
 62
     7
370
    25
100
AcDbLine
 10
86.41310652
 20
146.9192917791
 30
0.0
 11
86.41310652
 21
144.9536970553
 31
0.0
  0
LINE
  5
1D2
330
1F
100
AcDbEntity
  8
0
  6
Continuous
 62
     7
370
    25
100
AcDbLine
 10
87.91310652
 20
147.7853171829
 30
0.0
 11
86.41310652
 21
146.9192917791
 31
0.0
  0
LINE
  5
1D3
330
1F
100
AcDbEntity
  8
0
  6
Continuous
 62
     7
370
    25
100
AcDbLine
 10
137.13810652
 20
152.5661970553
 30
0.0
 11
135.38810652
 21
152.5661970553
 31
0.0
  0
ARC
  5
1D4
330
1F
100
AcDbEntity
  8
0
  6
Continuous
 62
     7
370
    25
100
AcDbCircle
 10
137.13810652
 20
153.5661970553
 30
0.0
 40
1.0
100
AcDbArc
 50
270.0
 51
0.0
  0
LINE
  5
1D5
330
1F
100
AcDbEntity
  8
0
  6
Continuous
 62
     7
370
    25
100
AcDbLine
 10
138.13810652
 20
153.6637923195
 30
0.0
 11
138.13810652
 21
153.5661970553
 31
0.0
  0
LINE
  5
1D6
330
1F
100
AcDbEntity
  8
0
  6
Continuous
 62
     7
370
    25
100
AcDbLine
 10
139.5973043246
 20
156.1911970553
 30
0.0
 11
138.13810652
 21
153.6637923195
 31
0.0
  0
LINE
  5
1D7
330
1F
100
AcDbEntity
  8
0
  6
Continuous
 62
     7
370
    25
100
AcDbLine
 10
111.8390556618
 20
142.3536983456
 30
0.0
 11
111.2131096483
 21
142.822423201
 31
0.0
  0
LINE
  5
1D8
330
1F
100
AcDbEntity
  8
0
  6
Continuous
 62
     7
370
    25
100
AcDbLine
 10
134.38810652
 20
153.6637923195
 30
0.0
 11
132.9289087155
 21
156.1911970553
 31
0.0
  0
LINE
  5
1D9
330
1F
100
AcDbEntity
  8
0
  6
Continuous
 62
     7
370
    25
100
AcDbLine
 10
134.38810652
 20
153.5661970553
 30
0.0
 11
134.38810652
 21
153.6637923195
 31
0.0
  0
ARC
  5
1DA
330
1F
100
AcDbEntity
  8
0
  6
Continuous
 62
     7
370
    25
100
AcDbCircle
 10
135.38810652
 20
153.5661970553
 30
0.0
 40
1.0
100
AcDbArc
 50
180.0
 51
270.0
  0
LINE
  5
1DB
330
1F
100
AcDbEntity
  8
0
  6
Continuous
 62
     7
370
    25
100
AcDbLine
 10
164.86310652
 20
128.7161970553
 30
0.0
 11
164.86310652
 21
129.6161970553
 31
0.0
  0
LINE
  5
1DC
330
1F
100
AcDbEntity
  8
0
  6
Continuous
 62
     7
370
    25
100
AcDbLine
 10
129.08810652
 20
129.7161970553
 30
0.0
 11
129.08810652
 21
130.4661970553
 31
0.0
  0
LINE
  5
1DD
330
1F
100
AcDbEntity
  8
0
  6
Continuous
 62
     7
370
    25
100
AcDbLine
 10
129.91310652
 20
130.4661970553
 30
0.0
 11
129.91310652
 21
128.7161970553
 31
0.0
  0
LINE
  5
1DE
330
1F
100
AcDbEntity
  8
0
  6
Continuous
 62
     7
370
    25
100
AcDbLine
 10
206.36310652
 20
130.7528913034
 30
0.0
 11
206.36310652
 21
134.867416072
 31
0.0
  0
LINE
  5
1DF
330
1F
100
AcDbEntity
  8
0
  6
Continuous
 62
     7
370
    25
100
AcDbLine
 10
125.26310652
 20
139.0661970553
 30
0.0
 11
125.26310652
 21
129.947137163
 31
0.0
  0
LINE
  5
1E0
330
1F
100
AcDbEntity
  8
0
  6
Continuous
 62
     7
370
    25
100
AcDbLine
 10
120.36310652
 20
142.1661970553
 30
0.0
 11
120.36310652
 21
140.2661970553
 31
0.0
  0
LINE
  5
1E1
330
1F
100
AcDbEntity
  8
0
  6
Continuous
 62
     7
370
    25
100
AcDbLine
 10
126.36310652
 20
155.9911970553
 30
0.0
 11
126.36310652
 21
151.5661970553
 31
0.0
  0
LINE
  5
1E2
330
1F
100
AcDbEntity
  8
0
  6
Continuous
 62
     7
370
    25
100
AcDbLine
 10
144.36310652
 20
143.7161970553
 30
0.0
 11
144.36310652
 21
156.1911970553
 31
0.0
  0
SPLINE
  5
1E3
330
1F
100
AcDbEntity
  8
0
  6
Continuous
 62
     7
370
    25
100
AcDbSpline
210
0.0
220
0.0
230
1.0
 70
     8
 71
     3
 72
     9
 73
     5
 74
     0
 42
0.000000001
 43
0.00000001
 40
0.0
 40
0.0
 40
0.0
 40
0.0
 40
0.5102121239851032
 40
1.0
 40
1.0
 40
1.0
 40
1.0
 10
87.21746991670688
 20
135.1778235719876
 30
0.0
 10
87.59233197368563
 20
135.1753336546059
 30
0.0
 10
88.32705002399541
 20
135.1704534934639
 30
0.0
 10
89.05605061445215
 20
135.1650686020776
 30
0.0
 10
89.41310626526558
 20
135.1624311475628
 30
0.0
  0
LINE
  5
1E4
330
1F
100
AcDbEntity
  8
0
  6
Continuous
 62
     7
370
    25
100
AcDbLine
 10
87.1647725699
 20
135.2082478629
 30
0.0
 11
87.2174699185
 21
135.1778230345
 31
0.0
  0
LINE
  5
1E5
330
1F
100
AcDbEntity
  8
0
  6
Continuous
 62
     7
370
    25
100
AcDbLine
 10
87.1647725699
 20
143.6517732667
 30
0.0
 11
87.1647725699
 21
135.2082478629
 31
0.0
  0
SPLINE
  5
1E6
330
1F
100
AcDbEntity
  8
0
  6
Continuous
 62
     7
370
    25
100
AcDbSpline
210
0.0
220
0.0
230
1.0
 70
    24
 71
     3
 72
     8
 73
     4
 74
     0
 42
0.000000001
 43
0.00000001
 40
0.0000004089325119
 40
0.0000004089325119
 40
0.0000004089325119
 40
0.0000004089325119
 40
0.0015399868451459
 40
0.0015399868451459
 40
0.0015399868451459
 40
0.0015399868451459
 10
86.41310652003577
 20
135.6422224591202
 30
0.0
 10
86.66409759606023
 20
135.4973126938133
 30
0.0
 10
86.91468679256317
 20
135.3526349537563
 30
0.0
 10
87.16477256987531
 20
135.2082478629047
 30
0.0
  0
LINE
  5
1E7
330
1F
100
AcDbEntity
  8
0
  6
Continuous
 62
     7
370
    25
100
AcDbLine
 10
86.41310652
 20
144.9536970553
 30
0.0
 11
86.41310652
 21
135.6422224591
 31
0.0
  0
SPLINE
  5
1E8
330
1F
100
AcDbEntity
  8
0
  6
Continuous
 62
     7
370
    25
100
AcDbSpline
210
0.0
220
0.0
230
1.0
 70
     8
 71
     3
 72
     8
 73
     4
 74
     0
 42
0.000000001
 43
0.00000001
 40
0.0
 40
0.0
 40
0.0
 40
0.0
 40
1.0
 40
1.0
 40
1.0
 40
1.0
 10
89.54278826279253
 20
134.7761977330723
 30
0.0
 10
89.51484004267299
 20
134.8840140870478
 30
0.0
 10
89.4868799545043
 20
134.9916079372141
 30
0.0
 10
89.45890776697007
 20
135.0989772179988
 30
0.0
  0
LINE
  5
1E9
330
1F
100
AcDbEntity
  8
0
  6
Continuous
 62
     7
370
    25
100
AcDbLine
 10
89.5427914013
 20
134.7761970553
 30
0.0
 11
87.9131057332
 21
134.7761970553
 31
0.0
  0
LINE
  5
1EA
330
1F
100
AcDbEntity
  8
0
  6
Continuous
 62
     7
370
    25
100
AcDbLine
 10
87.9131059332
 20
134.7761973942
 30
0.0
 11
87.2174694552
 21
135.177823302
 31
0.0
  0
LINE
  5
1EB
330
1F
100
AcDbEntity
  8
0
  6
Continuous
 62
     7
370
    25
100
AcDbLine
 10
95.9670674173
 20
132.7786970553
 30
0.0
 11
95.7148957893
 21
132.7786970553
 31
0.0
  0
SPLINE
  5
1EC
330
1F
100
AcDbEntity
  8
0
  6
Continuous
 62
     7
370
    25
100
AcDbSpline
210
0.0
220
0.0
230
1.0
 70
     8
 71
     3
 72
    26
 73
    22
 74
     0
 42
0.000000001
 43
0.00000001
 40
0.0
 40
0.0
 40
0.0
 40
0.0
 40
0.0524616379916458
 40
0.1026498591861474
 40
0.1505655134537972
 40
0.1962095861908931
 40
0.2395832262515146
 40
0.2806877815543323
 40
0.3195248450324018
 40
0.3560963147377176
 40
0.3904044736499266
 40
0.4224520974393497
 40
0.4522426027388373
 40
0.4797802555350637
 40
0.5050704712281464
 40
0.5966394156800096
 40
0.6841917884819306
 40
0.7679874773571161
 40
0.8483228539139546
 40
0.9255341635201179
 40
1.0
 40
1.0
 40
1.0
 40
1.0
 10
95.71308929536637
 20
132.7787268393712
 30
0.0
 10
95.67745289633626
 20
132.8382737594515
 30
0.0
 10
95.607724396
 20
132.9547871432346
 30
0.0
 10
95.49424623524375
 20
133.1191851039595
 30
0.0
 10
95.37872068552198
 20
133.2713468417579
 30
0.0
 10
95.26159898951464
 20
133.4112495386884
 30
0.0
 10
95.14422728903746
 20
133.5394638625915
 30
0.0
 10
95.02760632300526
 20
133.6564795415317
 30
0.0
 10
94.91270340256087
 20
133.7628566967764
 30
0.0
 10
94.80037917687123
 20
133.8591727772521
 30
0.0
 10
94.69141020283509
 20
133.9460221238066
 30
0.0
 10
94.58649116199608
 20
134.0240023060029
 30
0.0
 10
94.4862338360439
 20
134.0937105030588
 30
0.0
 10
94.39119649345626
 20
134.1557204919632
 30
0.0
 10
94.22108958902204
 20
134.2602069292313
 30
0.0
 10
93.96817055761503
 20
134.3952655957468
 30
0.0
 10
93.62218940055386
 20
134.5396524881639
 30
0.0
 10
93.27423085122953
 20
134.6486204004088
 30
0.0
 10
92.92809109085347
 20
134.7231499827456
 30
0.0
 10
92.58702630741935
 20
134.7680786872949
 30
0.0
 10
92.36127969590372
 20
134.7735237861494
 30
0.0
 10
92.25044948388563
 20
134.7761970553358
 30
0.0
  0
SPLINE
  5
1ED
330
1F
100
AcDbEntity
  8
0
  6
Continuous
 62
     7
370
    25
100
AcDbSpline
210
0.0
220
0.0
230
1.0
 70
     8
 71
     3
 72
     8
 73
     4
 74
     0
 42
0.000000001
 43
0.00000001
 40
0.0
 40
0.0
 40
0.0
 40
0.0
 40
1.0
 40
1.0
 40
1.0
 40
1.0
 10
95.96706741726825
 20
132.7786970553356
 30
0.0
 10
95.99607212369584
 20
132.902634782198
 30
0.0
 10
96.01510464337727
 20
133.0305869124313
 30
0.0
 10
96.02335623556893
 20
133.1616562251228
 30
0.0
  0
LINE
  5
1EE
330
1F
100
AcDbEntity
  8
0
  6
Continuous
 62
     7
370
    25
100
AcDbLine
 10
92.2504494839
 20
134.7761970553
 30
0.0
 11
89.5427914013
 21
134.7761970553
 31
0.0
  0
LINE
  5
1EF
330
1F
100
AcDbEntity
  8
0
  6
Continuous
 62
     7
370
    25
100
AcDbLine
 10
109.01310652
 20
128.7789704661
 30
0.0
 11
108.36310652
 21
128.9286970553
 31
0.0
  0
SPLINE
  5
1F0
330
1F
100
AcDbEntity
  8
0
  6
Continuous
 62
     7
370
    25
100
AcDbSpline
210
0.0
220
0.0
230
1.0
 70
     8
 71
     3
 72
    26
 73
    22
 74
     0
 42
0.000000001
 43
0.00000001
 40
0.0
 40
0.0
 40
0.0
 40
0.0
 40
0.0305951740619132
 40
0.0629166281945905
 40
0.0969720532990741
 40
0.1327680143378763
 40
0.1703101548900729
 40
0.2096033578568503
 40
0.2506518729757663
 40
0.3342141733901709
 40
0.4179517165478233
 40
0.5018670561022144
 40
0.5659795686765051
 40
0.6277136397901657
 40
0.6871358192149355
 40
0.7443207393909679
 40
0.7993521466062465
 40
0.8523240128016296
 40
0.9033417028108085
 40
0.9525231537651235
 40
1.0
 40
1.0
 40
1.0
 40
1.0
 10
108.3631065200358
 20
128.9286970553358
 30
0.0
 10
108.3621983081909
 20
128.9932322227328
 30
0.0
 10
108.3603306402099
 20
129.1259438433426
 30
0.0
 10
108.3447380511447
 20
129.3287579348857
 30
0.0
 10
108.3180941899535
 20
129.5404709757955
 30
0.0
 10
108.2779397608718
 20
129.7601829691679
 30
0.0
 10
108.2230416441879
 20
129.9869298400289
 30
0.0
 10
108.1517986755796
 20
130.2195608437924
 30
0.0
 10
108.0333862813017
 20
130.534959158253
 30
0.0
 10
107.8452553848985
 20
130.9194410567785
 30
0.0
 10
107.5612386216641
 20
131.3494686713082
 30
0.0
 10
107.2518206651114
 20
131.7079553836525
 30
0.0
 10
106.9359110543038
 20
131.9997220399466
 30
0.0
 10
106.6291656461724
 20
132.2321811267878
 30
0.0
 10
106.3107465323441
 20
132.428991361353
 30
0.0
 10
105.9847756561832
 20
132.5910920636103
 30
0.0
 10
105.655236821057
 20
132.7195619470875
 30
0.0
 10
105.3256749062127
 20
132.8161457664573
 30
0.0
 10
104.9992565829189
 20
132.8819979957403
 30
0.0
 10
104.6787383906239
 20
132.9215629435633
 30
0.0
 10
104.4670728771
 20
132.9263471417783
 30
0.0
 10
104.3631065200358
 20
132.9286970553358
 30
0.0
  0
SPLINE
  5
1F1
330
1F
100
AcDbEntity
  8
0
  6
Continuous
 62
     7
370
    25
100
AcDbSpline
210
0.0
220
0.0
230
1.0
 70
     8
 71
     3
 72
    13
 73
     9
 74
     0
 42
0.000000001
 43
0.00000001
 40
0.0
 40
0.0
 40
0.0
 40
0.0
 40
0.160406168812509
 40
0.3231296685880656
 40
0.4883154214487667
 40
0.6561019687086515
 40
0.826621511861129
 40
1.0
 40
1.0
 40
1.0
 40
1.0
 10
102.4482332407463
 20
132.9286970553358
 30
0.0
 10
102.3891832892007
 20
132.927941485297
 30
0.0
 10
102.2702303124273
 20
132.9264194297674
 30
0.0
 10
102.0909766787671
 20
132.9139743706307
 30
0.0
 10
101.9100436970619
 20
132.8937901894909
 30
0.0
 10
101.7279152026822
 20
132.8646548233461
 30
0.0
 10
101.5447481949425
 20
132.8272386715322
 30
0.0
 10
101.4240088801159
 20
132.7949727991871
 30
0.0
 10
101.3631373485606
 20
132.7787057442561
 30
0.0
  0
SPLINE
  5
1F2
330
1F
100
AcDbEntity
  8
0
  6
Continuous
 62
     7
370
    25
100
AcDbSpline
210
0.0
220
0.0
230
1.0
 70
    24
 71
     3
 72
    10
 73
     6
 74
     0
 42
0.000000001
 43
0.00000001
 40
0.0
 40
0.0
 40
0.0
 40
0.0
 40
0.3216623556917169
 40
0.6548175346390043
 40
1.0
 40
1.0
 40
1.0
 40
1.0
 10
101.3632853549405
 20
132.7786970553358
 30
0.0
 10
101.2947394470833
 20
132.7786970553358
 30
0.0
 10
101.155198522886
 20
132.7786970553358
 30
0.0
 10
100.9455901075355
 20
132.7786970553358
 30
0.0
 10
100.8059131123817
 20
132.7786970553358
 30
0.0
 10
100.7348363411808
 20
132.7786970553358
 30
0.0
  0
SPLINE
  5
1F3
330
1F
100
AcDbEntity
  8
0
  6
Continuous
 62
     7
370
    25
100
AcDbSpline
210
0.0
220
0.0
230
1.0
 70
     8
 71
     3
 72
     8
 73
     4
 74
     0
 42
0.000000001
 43
0.00000001
 40
0.0
 40
0.0
 40
0.0
 40
0.0
 40
1.0
 40
1.0
 40
1.0
 40
1.0
 10
101.4494366364773
 20
133.1571434045342
 30
0.0
 10
101.1801403064034
 20
133.0604540193393
 30
0.0
 10
100.9439796209756
 20
132.932454849957
 30
0.0
 10
100.7347821047803
 20
132.778978252304
 30
0.0
  0
LINE
  5
1F4
330
1F
100
AcDbEntity
  8
0
  6
Continuous
 62
     7
370
    25
100
AcDbLine
 10
100.7353278163
 20
116.6536970553
 30
0.0
 11
100.888487546
 21
116.6536970553
 31
0.0
  0
LINE
  5
1F5
330
1F
100
AcDbEntity
  8
0
  6
Continuous
 62
     7
370
    25
100
AcDbLine
 10
104.36310652
 20
132.9286970553
 30
0.0
 11
102.4482332407
 21
132.9286970553
 31
0.0
  0
LINE
  5
1F6
330
1F
100
AcDbEntity
  8
0
  6
Continuous
 62
     7
370
    25
100
AcDbLine
 10
100.735194702
 20
132.7786970553
 30
0.0
 11
95.9670674173
 21
132.7786970553
 31
0.0
  0
LINE
  5
1F7
330
1F
100
AcDbEntity
  8
0
  6
Continuous
 62
     7
370
    25
100
AcDbLine
 10
108.36310652
 20
124.7161970553
 30
0.0
 11
108.36310652
 21
128.9286970553
 31
0.0
  0
LINE
  5
1F8
330
1F
100
AcDbEntity
  8
VERMASSUNG
  6
CENTERX2
100
AcDbLine
 10
218.35810652
 20
124.7161970553
 30
0.0
 11
74.41810652
 21
124.7161970553
 31
0.0
  0
HATCH
  5
1F9
330
1F
100
AcDbEntity
  8
0
  6
Continuous
 62
     7
370
    18
100
AcDbHatch
 10
0.0
 20
0.0
 30
0.0
210
0.0
220
0.0
230
1.0
  2
ANSI31
 70
     0
 71
     0
 91
        1
 92
        0
 93
       50
 72
     2
 10
135.3881065200358
 20
153.5661970553358
 40
1.000000000000003
 50
90.0
 51
180.0
 73
     0
 72
     1
 10
134.3881065200357
 20
153.5661970553358
 11
134.3881065200358
 21
153.6637923195275
 72
     1
 10
134.3881065200358
 20
153.6637923195275
 11
132.9289087154657
 21
156.1911970553358
 72
     1
 10
132.9289087154657
 20
156.1911970553358
 11
126.5631065200358
 21
156.1911970553358
 72
     2
 10
126.5631065200358
 20
155.9911970553358
 40
0.2000000000000028
 50
90.0
 51
180.0
 73
     1
 72
     1
 10
126.3631065200358
 20
155.9911970553358
 11
126.3631065200358
 21
151.5661970553358
 72
     1
 10
126.3631065200358
 20
151.5661970553358
 11
126.6971452060644
 21
150.5067616949392
 72
     2
 10
125.9341716454658
 20
150.2661970553358
 40
0.8000000000000032
 50
342.5000000000014
 51
467.5000000000015
 73
     0
 72
     1
 10
125.6936070058624
 20
149.5032234947372
 11
125.202924480005
 21
149.6579351008641
 72
     1
 10
125.202924480005
 20
149.6579351008641
 11
111.8814512074856
 21
148.9889581278379
 72
     1
 10
111.881449614087
 20
148.9889614369064
 11
111.2131194681574
 21
148.1798496145152
 72
     1
 10
111.2131194681574
 20
148.1798496145152
 11
111.2131065200358
 21
142.8224230760873
 72
     1
 10
111.2131096482695
 20
142.8224232009678
 11
111.8390556618116
 21
142.3536983456278
 72
     1
 10
111.8390559101205
 20
142.3536970553358
 11
116.8631065200358
 21
142.3536970553358
 72
     1
 10
116.8631065200358
 20
142.3536970553358
 11
117.7383469936166
 21
142.8590173783633
 72
     2
 10
118.1383469936166
 20
142.1661970553358
 40
0.7999999999999918
 50
240.0000000000012
 51
270.0000000000008
 73
     0
 72
     1
 10
118.1383469936166
 20
142.9661970553358
 11
119.5631065200358
 21
142.9661970553358
 72
     2
 10
119.5631065200358
 20
142.1661970553358
 40
0.7999999999999977
 50
270.0000000000008
 51
360.0000000000008
 73
     0
 72
     1
 10
120.3631065200358
 20
142.1661970553358
 11
120.3631065200358
 21
140.2661970553358
 72
     1
 10
120.3631065200358
 20
140.2661970553358
 11
124.0631065200358
 21
140.2661970553358
 72
     2
 10
124.0631065200358
 20
139.0661970553358
 40
1.2
 50
270.0000000000001
 51
360.0000000000008
 73
     0
 72
     1
 10
125.2631065200357
 20
139.0661970553358
 11
125.2631065200357
 21
129.9471371630117
 72
     1
 10
125.2631065200357
 20
129.9471371630117
 11
125.6631065200358
 21
129.7161970553358
 72
     1
 10
125.6631065200358
 20
129.7161970553358
 11
129.0881065200358
 21
129.7161970553358
 72
     1
 10
129.0881065200358
 20
129.7161970553358
 11
129.0881065200358
 21
130.4661970553358
 72
     1
 10
129.0881065200358
 20
130.4661970553358
 11
129.9131065200358
 21
130.4661970553358
 72
     1
 10
129.9131065200358
 20
130.4661970553358
 11
129.9131065200358
 21
128.7161970553358
 72
     1
 10
129.9131065200358
 20
128.7161970553358
 11
146.3631065200358
 21
128.7161970553358
 72
     1
 10
146.3631065200358
 20
128.7161970553358
 11
146.6635368295495
 21
128.2161970553358
 72
     1
 10
146.6635368295495
 20
128.2161970553358
 11
164.3631065200358
 21
128.2161970553358
 72
     1
 10
164.3631065200358
 20
128.2161970553358
 11
164.8631065200358
 21
128.7161970553358
 72
     1
 10
164.8631065200358
 20
128.7161970553358
 11
164.8631065200358
 21
129.6161970553358
 72
     2
 10
165.2631065200358
 20
129.6161970553358
 40
0.4000000000000024
 50
180.0
 51
270.0000000000008
 73
     0
 72
     1
 10
165.2631065200358
 20
130.0161970553358
 11
174.468332501916
 21
130.0161970553358
 72
     2
 10
174.468332501916
 20
129.6161970553358
 40
0.4000000000000004
 50
270.0000000000008
 51
289.9999999999947
 73
     0
 72
     1
 10
174.6051405592463
 20
129.9920741036502
 11
175.3631065200358
 21
129.7161970553358
 72
     1
 10
175.3631065200358
 20
129.7161970553358
 11
202.8631065200358
 21
129.7161970553358
 72
     1
 10
202.8631065200358
 20
129.7161970553358
 11
205.9499306088692
 21
130.260487426898
 72
     2
 10
205.8631065200358
 20
130.7528913034041
 40
0.500000000000002
 50
280.0
 51
360.0000000000008
 73
     1
 72
     1
 10
206.3631065200358
 20
130.7528913034041
 11
206.3631065200358
 21
134.8674160720194
 72
     2
 10
204.3631065200358
 20
134.8674160720194
 40
2.000000000000001
 50
0.0
 51
85.50000000000044
 73
     1
 72
     1
 10
204.5200247114915
 20
136.8612507394857
 11
155.5382875753369
 21
140.7161970553358
 72
     1
 10
155.5382875753369
 20
140.7161970553358
 11
147.3631065200358
 21
140.7161970553358
 72
     2
 10
147.3631065200358
 20
143.7161970553358
 40
3.0
 50
90.0
 51
180.0
 73
     0
 72
     1
 10
144.3631065200358
 20
143.7161970553358
 11
144.3631065200358
 21
156.1911970553358
 72
     1
 10
144.3631065200358
 20
156.1911970553358
 11
139.5973043246059
 21
156.1911970553358
 72
     1
 10
139.5973043246059
 20
156.1911970553358
 11
138.1381065200358
 21
153.6637923195275
 72
     1
 10
138.1381065200358
 20
153.6637923195275
 11
138.1381065200357
 21
153.5661970553358
 72
     2
 10
137.1381065200357
 20
153.5661970553358
 40
1.000000000000003
 50
0.0
 51
90.0
 73
     0
 72
     1
 10
137.1381065200357
 20
152.5661970553358
 11
135.3881065200358
 21
152.5661970553358
 97
        0
 75
     0
 76
     1
 52
0.0
 41
1.0
 77
     0
 78
     1
 53
45.0
 43
0.0
 44
0.0
 45
-2.245064030267288
 46
2.245064030267288
 79
     0
 98
        1
 10
0.0
 20
0.0
  0
HATCH
  5
1FA
330
1F
100
AcDbEntity
  8
0
  6
Continuous
 62
     7
370
    18
100
AcDbHatch
 10
0.0
 20
0.0
 30
0.0
210
0.0
220
0.0
230
1.0
  2
ANSI31
 70
     0
 71
     0
 91
        1
 92
        0
 93
        9
 72
     1
 10
96.71313465062393
 20
147.3804714272187
 11
95.96354467168821
 21
148.1895827649863
 72
     1
 10
95.96354467168821
 20
148.1895827649863
 11
87.91310652003578
 21
147.7853171829182
 72
     1
 10
87.91310652003578
 20
147.7853171829182
 11
86.41310652003577
 21
146.9192917791337
 72
     1
 10
86.41310652003577
 20
146.9192917791337
 11
86.41310652003577
 21
144.9536970553358
 72
     1
 10
86.41310652003577
 20
144.9536970553358
 11
87.16477256987531
 21
143.6517732666891
 72
     1
 10
87.16477256987531
 20
143.6517732666891
 11
89.41310652003577
 21
142.3536970553358
 72
     1
 10
89.41310652003577
 20
142.3536970553358
 11
93.28310636474471
 21
142.3536970553358
 72
     1
 10
93.28310636474471
 20
142.3536970553358
 11
96.71310652003575
 21
147.2522449402398
 72
     1
 10
96.71310652003575
 20
147.2522449402398
 11
96.71310652003575
 21
147.3804703137253
 97
        0
 75
     0
 76
     1
 52
0.0
 41
1.0
 77
     0
 78
     1
 53
45.0
 43
0.0
 44
0.0
 45
-2.245064030267288
 46
2.245064030267288
 79
     0
 98
        1
 10
0.0
 20
0.0
  0
HATCH
  5
1FB
330
1F
100
AcDbEntity
  8
0
  6
Continuous
 62
     7
370
    18
100
AcDbHatch
 10
0.0
 20
0.0
 30
0.0
210
0.0
220
0.0
230
1.0
  2
ANSI31
 70
     0
 71
     0
 91
        1
 92
        0
 93
       11
 72
     1
 10
148.8631065199689
 20
126.8558646661413
 11
153.8631065199689
 21
126.8558646661413
 72
     1
 10
153.8631065199689
 20
126.8558646661413
 11
153.8631065199689
 21
126.7161970553358
 72
     1
 10
153.8631065199689
 20
126.7161970553358
 11
163.8631065200358
 21
126.7161970553358
 72
     1
 10
163.8631065200358
 20
126.7161970553358
 11
163.8631065200358
 21
126.8558646661412
 72
     1
 10
163.8631065200358
 20
126.8558646661412
 11
166.8631065200358
 21
126.8558646661412
 72
     1
 10
166.8631065200358
 20
126.8558646661412
 11
166.8631065200358
 21
128.2161970553358
 72
     1
 10
166.8631065200358
 20
128.2161970553358
 11
165.3631065200358
 21
128.2161970553358
 72
     1
 10
165.3631065200358
 20
128.2161970553358
 11
164.8631065200358
 21
128.7161970553358
 72
     1
 10
164.8631065200358
 20
128.7161970553358
 11
149.3631065200358
 21
128.7161970553358
 72
     1
 10
149.3631065200358
 20
128.7161970553358
 11
148.8631065200358
 21
128.2161970553358
 72
     1
 10
148.8631065200358
 20
128.2161970553358
 11
148.8631065199689
 21
126.8558646661413
 97
        0
 75
     0
 76
     1
 52
0.0
 41
1.0
 77
     0
 78
     1
 53
45.0
 43
0.0
 44
0.0
 45
-2.245064030267288
 46
2.245064030267288
 79
     0
 98
        1
 10
0.0
 20
0.0
  0
POINT
  5
1FC
330
1F
100
AcDbEntity
  8
VERMASSUNG
100
AcDbPoint
 10
206.36310652
 20
112.7161970553
 30
0.0
  0
POINT
  5
1FD
330
1F
100
AcDbEntity
  8
VERMASSUNG
100
AcDbPoint
 10
206.36310652
 20
136.7161970553
 30
0.0
  0
DIMENSION
  5
1FE
330
1F
100
AcDbEntity
  8
VERMASSUNG
100
AcDbDimension
  2
_D
 10
232.7074418309
 20
112.7161970553
 30
0.0
 11
232.7074418309
 21
124.7161970553
 31
0.0
 70
   160
  1
%%c<>
 71
     2
 42
-1.0
  3
SLDDIMSTYLE0
100
AcDbAlignedDimension
 13
206.36310652
 23
136.7161970553
 33
0.0
 14
206.36310652
 24
112.7161970553
 34
0.0
 50
90.0
100
AcDbRotatedDimension
  0
DIMENSION
  5
20A
330
1F
100
AcDbEntity
  8
VERMASSUNG
100
AcDbDimension
  2
_D_1
 10
224.4421180607
 20
119.7161970553
 30
0.0
 11
224.4421180607
 21
124.7161970553
 31
0.0
 70
   160
  1
%%c<>
 71
     2
 42
-1.0
  3
SLDDIMSTYLE1
100
AcDbAlignedDimension
 13
202.86310652
 23
129.7161970553
 33
0.0
 14
202.86310652
 24
119.7161970553
 34
0.0
 50
90.0
100
AcDbRotatedDimension
  0
DIMENSION
  5
214
330
1F
100
AcDbEntity
  8
VERMASSUNG
100
AcDbDimension
  2
_D_2
 10
242.4266847652
 20
108.7161970553
 30
0.0
 11
242.4266847652
 21
124.7161970553
 31
0.0
 70
   160
  1
%%c<>
 71
     2
 42
-1.0
  3
SLDDIMSTYLE0
100
AcDbAlignedDimension
 13
155.5382875753
 23
140.7161970553
 33
0.0
 14
155.5382875753
 24
108.7161970553
 34
0.0
 50
90.0
100
AcDbRotatedDimension
  0
DIMENSION
  5
21F
330
1F
100
AcDbEntity
  8
VERMASSUNG
100
AcDbDimension
  2
_D_3
 10
206.36310652
 20
156.8726554536
 30
0.0
 11
185.61310652
 21
156.8726554536
 31
0.0
 70
   160
  1
<> max.
 71
     2
 42
-1.0
  3
SLDDIMSTYLE0
100
AcDbAlignedDimension
 13
164.86310652
 23
129.6161970553
 33
0.0
 14
206.36310652
 24
134.867416072
 34
0.0
 50
0.0
100
AcDbRotatedDimension
  0
DIMENSION
  5
22A
330
1F
100
AcDbEntity
  8
VERMASSUNG
100
AcDbDimension
  2
_D_4
 10
206.36310652
 20
150.0971671102
 30
0.0
 11
190.86310652
 21
150.0971671102
 31
0.0
 70
   160
  1
<> min.
 71
     2
 42
-1.0
  3
SLDDIMSTYLE0
100
AcDbAlignedDimension
 13
175.36310652
 23
129.7161970553
 33
0.0
 14
206.36310652
 24
134.867416072
 34
0.0
 50
0.0
100
AcDbRotatedDimension
  0
DIMENSION
  5
235
330
1F
100
AcDbEntity
  8
VERMASSUNG
100
AcDbDimension
  2
_D_5
 10
206.36310652
 20
91.7525273435
 30
0.0
 11
180.9506970477
 21
91.7525273435
 31
0.0
 70
   160
  1
<>
 71
     2
 42
-1.0
  3
SLDDIMSTYLE0
100
AcDbAlignedDimension
 13
155.5382875753
 23
108.7161970553
 33
0.0
 14
206.36310652
 24
114.5649780387
 34
0.0
100
AcDbRotatedDimension
  0
DIMENSION
  5
23F
330
1F
100
AcDbEntity
  8
VERMASSUNG
100
AcDbDimension
  2
_D_6
 10
144.36310652
 20
83.2411970553
 30
0.0
 11
175.36310652
 21
83.2411970553
 31
0.0
 70
   160
  1
<>
 71
     2
 42
-1.0
  3
SLDDIMSTYLE0
100
AcDbAlignedDimension
 13
206.36310652
 23
114.5649780387
 33
0.0
 14
144.36310652
 24
93.2411970553
 34
0.0
 50
0.0
100
AcDbRotatedDimension
  0
DIMENSION
  5
249
330
1F
100
AcDbEntity
  8
VERMASSUNG
100
AcDbDimension
  2
_D_7
 10
206.36310652
 20
163.7558471015
 30
0.0
 11
166.36310652
 21
163.7558471015
 31
0.0
 70
   160
  1
<>
 71
     2
 42
-1.0
  3
SLDDIMSTYLE0
100
AcDbAlignedDimension
 13
126.36310652
 23
155.9911970553
 33
0.0
 14
206.36310652
 24
134.867416072
 34
0.0
100
AcDbRotatedDimension
  0
DIMENSION
  5
253
330
1F
100
AcDbEntity
  8
VERMASSUNG
100
AcDbDimension
  2
_D_8
 10
206.36310652
 20
171.1486567358
 30
0.0
 11
146.38810652
 21
171.1486567358
 31
0.0
 70
   160
  1
<>
 71
     2
 42
-1.0
  3
SLDDIMSTYLE0
100
AcDbAlignedDimension
 13
86.41310652
 23
146.9192917791
 33
0.0
 14
206.36310652
 24
134.867416072
 34
0.0
100
AcDbRotatedDimension
  0
DIMENSION
  5
25D
330
1F
100
AcDbEntity
  8
VERMASSUNG
100
AcDbDimension
  2
_D_9
 10
68.3511028592
 20
93.2411970553
 30
0.0
 11
68.3511028592
 21
124.7161970553
 31
0.0
 70
   160
  1
KM%%c<> XMZ
 71
     2
 42
-1.0
  3
SLDDIMSTYLE0
100
AcDbAlignedDimension
 13
126.56310652
 23
156.1911970553
 33
0.0
 14
126.56310652
 24
93.2411970553
 34
0.0
 50
90.0
100
AcDbRotatedDimension
  0
LINE
  5
26A
330
1F
100
AcDbEntity
  8
0
  6
Continuous
 62
     7
370
    25
100
AcDbLine
 10
249.6740913658
 20
35.1540822593
 30
0.0
 11
267.9002740749
 21
26.8544752195
 31
0.0
  0
LINE
  5
26B
330
1F
100
AcDbEntity
  8
0
  6
Continuous
 62
     7
370
    25
100
AcDbLine
 10
273.96289606
 20
37.3563825268
 30
0.0
 11
257.6610426357
 21
48.9893864881
 31
0.0
  0
SPLINE
  5
26C
330
1F
100
AcDbEntity
  8
0
  6
Continuous
 62
     7
370
    25
100
AcDbSpline
210
0.0
220
0.0
230
1.0
 70
     8
 71
     3
 72
    30
 73
    26
 74
     0
 42
0.000000001
 43
0.00000001
 40
0.0
 40
0.0
 40
0.0
 40
0.0
 40
0.0389135312176848
 40
0.0788762095986772
 40
0.1195982292806443
 40
0.1616037768870029
 40
0.205032177054485
 40
0.2496044214453902
 40
0.2948114197282877
 40
0.340160983780232
 40
0.3853983660736031
 40
0.4304823172297065
 40
0.4754477648212755
 40
0.5203627138376753
 40
0.5653087010948971
 40
0.6103469653758038
 40
0.6555650511903216
 40
0.7010495111638428
 40
0.7468663572885169
 40
0.793018426257552
 40
0.8393075970121957
 40
0.8851767200142046
 40
0.9253871460529707
 40
0.9685293031043335
 40
1.0
 40
1.0
 40
1.0
 40
1.0
 10
267.9102447679954
 20
26.85138320914331
 30
0.0
 10
268.0701697780647
 20
26.78906140713451
 30
0.0
 10
268.3943315341318
 20
26.6627375458968
 30
0.0
 10
268.9243942514446
 20
26.59198094339938
 30
0.0
 10
269.4780441016913
 20
26.60731539873773
 30
0.0
 10
270.0517256171883
 20
26.71849923642806
 30
0.0
 10
270.6392149984885
 20
26.92392518464014
 30
0.0
 10
271.2321089755599
 20
27.22351041312909
 30
0.0
 10
271.8184892846923
 20
27.61225919530413
 30
0.0
 10
272.3860494272109
 20
28.08158377689257
 30
0.0
 10
272.9240652570973
 20
28.6209237576945
 30
0.0
 10
273.4239073825261
 20
29.21958453698302
 30
0.0
 10
273.8782881600341
 20
29.86709800860675
 30
0.0
 10
274.2805656709237
 20
30.55296230119312
 30
0.0
 10
274.6245310428959
 20
31.26645612984721
 30
0.0
 10
274.904456380897
 20
31.9968251853639
 30
0.0
 10
275.115083971783
 20
32.73343049438574
 30
0.0
 10
275.2514773364263
 20
33.46600693434377
 30
0.0
 10
275.3087477826404
 20
34.18433989414493
 30
0.0
 10
275.281985372744
 20
34.87754472266166
 30
0.0
 10
275.1665171430449
 20
35.53197465494583
 30
0.0
 10
274.9679768714253
 20
36.11290958292752
 30
0.0
 10
274.6876312441042
 20
36.62357421861793
 30
0.0
 10
274.3725887599128
 20
37.03021335741698
 30
0.0
 10
274.1118917493052
 20
37.23077258991041
 30
0.0
 10
274.0019332613446
 20
37.31536577300871
 30
0.0
  0
SPLINE
  5
26D
330
1F
100
AcDbEntity
  8
0
  6
Continuous
 62
     7
370
    25
100
AcDbSpline
210
0.0
220
0.0
230
1.0
 70
     8
 71
     3
 72
    11
 73
     7
 74
     0
 42
0.000000001
 43
0.00000001
 40
0.0
 40
0.0
 40
0.0
 40
0.0
 40
0.2423981123349351
 40
0.5188483419128355
 40
0.8128658885584727
 40
1.0
 40
1.0
 40
1.0
 40
1.0
 10
269.7200111806263
 20
29.64211648970294
 30
0.0
 10
269.6675801219309
 20
29.6926717327018
 30
0.0
 10
269.5553524828341
 20
29.80088422558092
 30
0.0
 10
269.4345069250563
 20
30.07175491814223
 30
0.0
 10
269.363190641019
 20
30.37886899283974
 30
0.0
 10
269.3559592416744
 20
30.60774435620408
 30
0.0
 10
269.3531467365774
 20
30.6967607547432
 30
0.0
  0
SPLINE
  5
26E
330
1F
100
AcDbEntity
  8
0
  6
Continuous
 62
     7
370
    25
100
AcDbSpline
210
0.0
220
0.0
230
1.0
 70
     8
 71
     3
 72
    16
 73
    12
 74
     0
 42
0.000000001
 43
0.00000001
 40
0.0
 40
0.0
 40
0.0
 40
0.0
 40
0.0292097309743444
 40
0.1568892374750642
 40
0.2843291501148731
 40
0.4112852190072906
 40
0.5375618499522963
 40
0.6631230498736349
 40
0.7883992077437203
 40
0.9144680906950604
 40
1.0
 40
1.0
 40
1.0
 40
1.0
 10
269.9712915146289
 20
32.71070619606575
 30
0.0
 10
269.9907010371463
 20
32.7467286649321
 30
0.0
 10
270.0949520893102
 20
32.94020999748441
 30
0.0
 10
270.3324035333962
 20
33.26057574800951
 30
0.0
 10
270.6710842275704
 20
33.64901818469228
 30
0.0
 10
271.0346518926679
 20
33.96919854025729
 30
0.0
 10
271.4019534906373
 20
34.21234216137859
 30
0.0
 10
271.7587814674404
 20
34.37142500962057
 30
0.0
 10
272.0866816072696
 20
34.44085870611809
 30
0.0
 10
272.3476143614179
 20
34.438102519529
 30
0.0
 10
272.4770034431783
 20
34.38311665861605
 30
0.0
 10
272.5293042644
 20
34.36089062808699
 30
0.0
  0
SPLINE
  5
26F
330
1F
100
AcDbEntity
  8
0
  6
Continuous
 62
     7
370
    25
100
AcDbSpline
210
0.0
220
0.0
230
1.0
 70
     8
 71
     3
 72
    12
 73
     8
 74
     0
 42
0.000000001
 43
0.00000001
 40
0.0
 40
0.0
 40
0.0
 40
0.0
 40
0.1206665746148569
 40
0.3526867102611896
 40
0.585663655423701
 40
0.8193929213570674
 40
1.0
 40
1.0
 40
1.0
 40
1.0
 10
269.3531467365774
 20
30.6967607547432
 30
0.0
 10
269.355004280964
 20
30.77089195441994
 30
0.0
 10
269.3604335493505
 20
30.98756412751474
 30
0.0
 10
269.4215151927464
 20
31.37901232484817
 30
0.0
 10
269.5606717944769
 20
31.86275163489234
 30
0.0
 10
269.7438389538222
 20
32.31627962187322
 30
0.0
 10
269.902243701116
 20
32.59097005221766
 30
0.0
 10
269.9712915146289
 20
32.71070619606575
 30
0.0
  0
LINE
  5
270
330
1F
100
AcDbEntity
  8
0
  6
Continuous
 62
     7
370
    25
100
AcDbLine
 10
239.9408295504
 20
31.8244033904
 30
0.0
 11
241.6257946994
 21
30.8516937146
 31
0.0
  0
LINE
  5
271
330
1F
100
AcDbEntity
  8
0
  6
Continuous
 62
     7
370
    25
100
AcDbLine
 10
257.3620160139
 20
58.1105821084
 30
0.0
 11
255.6770508649
 21
59.0832917842
 31
0.0
  0
LINE
  5
272
330
1F
100
AcDbEntity
  8
0
  6
Continuous
 62
     7
370
    25
100
AcDbLine
 10
235.332544619
 20
34.4847096551
 30
0.0
 11
237.5831955954
 21
33.1854365022
 31
0.0
  0
LINE
  5
273
330
1F
100
AcDbEntity
  8
0
  6
Continuous
 62
     7
370
    25
100
AcDbLine
 10
253.3194169099
 20
60.444324896
 30
0.0
 11
251.0687659335
 21
61.7435980489
 31
0.0
  0
LINE
  5
274
330
1F
100
AcDbEntity
  8
0
  6
Continuous
 62
     7
370
    25
100
AcDbLine
 10
246.554890694
 20
36.9404408426
 30
0.0
 11
249.4452537348
 21
35.2718697757
 31
0.0
  0
LINE
  5
275
330
1F
100
AcDbEntity
  8
0
  6
Continuous
 62
     7
370
    25
100
AcDbLine
 10
257.4446037514
 20
49.1286515451
 30
0.0
 11
254.5542407106
 21
50.797222612
 31
0.0
  0
LINE
  5
276
330
1F
100
AcDbEntity
  8
0
  6
Continuous
 62
     7
370
    25
100
AcDbLine
 10
244.2913767433
 20
61.5234799565
 30
0.0
 11
235.0941645596
 21
66.1041325664
 31
0.0
  0
LINE
  5
277
330
1F
100
AcDbEntity
  8
0
  6
Continuous
 62
     7
370
    25
100
AcDbLine
 10
223.56781677
 20
46.1377491107
 30
0.0
 11
232.1339167757
 21
40.4638595144
 31
0.0
  0
LINE
  5
278
330
1F
100
AcDbEntity
  8
0
  6
Continuous
 62
     7
370
    25
100
AcDbLine
 10
228.5472542117
 20
47.0842389764
 30
0.0
 11
228.5472542117
 21
46.7189202714
 31
0.0
  0
LINE
  5
279
330
1F
100
AcDbEntity
  8
0
  6
Continuous
 62
     7
370
    25
100
AcDbLine
 10
232.445220972
 20
66.4811009431
 30
0.0
 11
231.8056708633
 21
66.3938891876
 31
0.0
  0
LINE
  5
27A
330
1F
100
AcDbEntity
  8
0
  6
Continuous
 62
     7
370
    25
100
AcDbLine
 10
273.96289606
 20
37.3563825268
 30
0.0
 11
273.9969421525
 21
37.331554021
 31
0.0
  0
LWPOLYLINE
  5
27B
330
1F
100
AcDbEntity
  8
0
  6
Continuous
 62
     7
370
    25
100
AcDbPolyline
 90
       21
 70
   128
 43
0.0
 10
247.7880742249
 20
38.934628058
 10
247.829319526
 20
39.7458234045
 10
247.9524525317
 20
40.5928096678
 10
248.1556780498
 20
41.4632361008
 10
248.4360329592
 20
42.3444102379
 10
248.7894290156
 20
43.223482256
 10
249.2107124497
 20
44.0876335157
 10
249.6937403583
 20
44.9242623925
 10
250.2314692787
 20
45.721169251
 10
250.8160574274
 20
46.4667335281
 10
251.4389806044
 20
47.1500829253
 10
252.0911549291
 20
47.7612524764
 10
252.7630703189
 20
48.2913304248
 10
253.4449287431
 20
48.7325874657
 10
254.1267871672
 20
49.078587404
 10
254.7987025571
 20
49.3242864519
 10
255.4508768817
 20
49.4661013484
 10
256.0738000587
 20
49.5019637424
 10
256.6583882075
 20
49.4313505751
 10
257.1961171278
 20
49.255292313
 10
257.6610426357
 20
48.9893864881
  0
LWPOLYLINE
  5
27C
330
1F
100
AcDbEntity
  8
0
  6
Continuous
 62
     7
370
    25
100
AcDbPolyline
 90
        8
 70
   128
 43
0.0
 10
249.6740913658
 20
35.1540822593
 10
249.2107124497
 20
35.424165732
 10
248.7894290156
 20
35.8019134921
 10
248.4360329592
 20
36.2729631085
 10
248.1556780498
 20
36.8304463572
 10
247.9524525317
 20
37.4662336015
 10
247.829319526
 20
38.1710535224
 10
247.7880742249
 20
38.934628058
  0
LINE
  5
27D
330
1F
100
AcDbEntity
  8
0
  6
Continuous
 62
     7
370
    25
100
AcDbLine
 10
272.4704336781
 20
34.3929996394
 30
0.0
 11
272.5482511661
 21
34.3643667557
 31
0.0
  0
LWPOLYLINE
  5
27E
330
1F
100
AcDbEntity
  8
0
  6
Continuous
 62
     7
370
    25
100
AcDbPolyline
 90
       13
 70
   128
 43
0.0
 10
271.7519444977
 20
34.3770799798
 10
271.8520083601
 20
34.1600658504
 10
271.9341826963
 20
33.7764062509
 10
271.9341826963
 20
33.3349882937
 10
271.8520083601
 20
32.8564522252
 10
271.691502295
 20
32.3631739249
 10
271.4601692741
 20
31.8782185027
 10
271.168826385
 20
31.4242618518
 10
270.831096485
 20
31.022530564
 10
270.4627713481
 20
30.6918092764
 10
270.0810734977
 20
30.447561871
 10
269.7038507042
 20
30.3012093368
 10
269.3972811547
 20
30.2589974552
  0
LWPOLYLINE
  5
27F
330
1F
100
AcDbEntity
  8
0
  6
Continuous
 62
     7
370
    25
100
AcDbPolyline
 90
       41
 70
   128
 43
0.0
 10
238.3658123582
 20
38.0570265646
 10
238.4070069514
 20
39.1854821386
 10
238.5302845076
 20
40.3531444203
 10
238.7347329429
 20
41.5513691232
 10
239.0188389218
 20
42.7712850196
 10
239.3804983947
 20
44.0038599088
 10
239.8170337196
 20
45.2399681072
 10
240.3252134186
 20
46.4704585075
 10
240.9012752269
 20
47.6862211174
 10
241.5409537519
 20
48.878253597
 10
242.2395127412
 20
50.0377319795
 10
242.9917806451
 20
51.1560707439
 10
243.7921888109
 20
52.2249912532
 10
244.6348100091
 20
53.2365782151
 10
245.5134061766
 20
54.1833437469
 10
246.4214725401
 20
55.0582771811
 10
247.3522861834
 20
55.85490048
 10
248.2989557674
 20
56.567317471
 10
249.2544722178
 20
57.1902522329
 10
250.2117613465
 20
57.7190931627
 10
251.1637358358
 20
58.1499252664
 10
252.1033473044
 20
58.4795579347
 10
253.0236393821
 20
58.7055510196
 10
253.9177986027
 20
58.8262320471
 10
254.7792051122
 20
58.8407072388
 10
255.601480907
 20
58.7488688273
 10
256.3785384017
 20
58.5513972377
 10
257.1046245515
 20
58.2497538589
 10
257.774362999
 20
57.846172675
 10
258.3827962212
 20
57.3436420099
 10
258.9254197737
 20
56.7458817101
 10
259.3982152177
 20
56.0573172864
 10
259.7976823894
 20
55.2830464499
 10
260.1208644237
 20
54.4288029881
 10
260.3653675116
 20
53.500909614
 10
260.5293826311
 20
52.5062374697
 10
260.6116947677
 20
51.4521501839
 10
260.6116947677
 20
50.3464520642
 10
260.5293826311
 20
49.1973292084
 10
260.3653675116
 20
48.0132892379
 10
260.2039417891
 20
47.1747731339
  0
LWPOLYLINE
  5
280
330
1F
100
AcDbEntity
  8
0
  6
Continuous
 62
     7
370
    25
100
AcDbPolyline
 90
       23
 70
   128
 43
0.0
 10
252.517163667
 20
33.8594403209
 10
252.1033473044
 20
33.495515432
 10
251.1637358358
 20
32.7402957904
 10
250.2117613465
 20
32.0720015443
 10
249.2544722178
 20
31.4955799723
 10
248.2989557674
 20
31.0152989232
 10
247.3522861834
 20
30.6347144776
 10
246.4214725401
 20
30.3566432196
 10
245.5134061766
 20
30.1831455469
 10
244.6348100091
 20
30.1155055359
 10
243.7921888109
 20
30.1542227706
 10
242.9917806451
 20
30.2990116822
 10
242.2395127412
 20
30.5488004125
 10
241.5409537519
 20
30.9017397535
 10
240.9012752269
 20
31.3552151289
 10
240.3252134186
 20
31.905870932
 10
239.8170337196
 20
32.5496295408
 10
239.3804983947
 20
33.2817247812
 10
239.0188389218
 20
34.0967365311
 10
238.7347329429
 20
34.9886306464
 10
238.5302845076
 20
35.9508042106
 10
238.4070069514
 20
36.9761332554
 10
238.3658123582
 20
38.0570265646
  0
SPLINE
  5
281
330
1F
100
AcDbEntity
  8
0
  6
Continuous
 62
     7
370
    25
100
AcDbSpline
210
0.0
220
0.0
230
1.0
 70
     8
 71
     3
 72
    25
 73
    21
 74
     0
 42
0.000000001
 43
0.00000001
 40
0.0
 40
0.0
 40
0.0
 40
0.0
 40
0.1249999999999998
 40
0.1249999999999998
 40
0.2499999999999997
 40
0.2499999999999997
 40
0.3749999999999995
 40
0.3749999999999995
 40
0.4999999999999993
 40
0.4999999999999993
 40
0.5624999999999996
 40
0.5624999999999996
 40
0.6249999999999998
 40
0.6875000000000001
 40
0.6875000000000001
 40
0.7500000000000003
 40
0.7500000000000003
 40
0.8750000000000001
 40
0.8750000000000001
 40
1.0
 40
1.0
 40
1.0
 40
1.0
 10
243.1994015067432
 20
54.48884101903101
 30
0.0
 10
243.2285248050043
 20
54.37765549850183
 30
0.0
 10
243.2409138458635
 20
54.2624132860738
 30
0.0
 10
243.2339363607632
 20
54.023317718238
 30
0.0
 10
243.2139187729111
 20
53.89854374836274
 30
0.0
 10
243.1436966151979
 20
53.65217483915031
 30
0.0
 10
243.0930459606043
 20
53.5279636917892
 30
0.0
 10
242.9631312169491
 20
53.28433519647903
 30
0.0
 10
242.8854302689599
 20
53.16727810142087
 30
0.0
 10
242.7500566867337
 20
52.99862158357083
 30
0.0
 10
242.7014221894266
 20
52.94325456229867
 30
0.0
 10
242.5999828540446
 20
52.83753475090165
 30
0.0
 10
242.4941128713038
 20
52.73637379228121
 30
0.0
 10
242.3795210789763
 20
52.64419947060441
 30
0.0
 10
242.2604384097581
 20
52.55666262786429
 30
0.0
 10
242.1984803967007
 20
52.51516415835211
 30
0.0
 10
242.0106166931801
 20
52.401043836614
 30
0.0
 10
241.8812392568261
 20
52.3374364054994
 30
0.0
 10
241.6135560037641
 20
52.23616810452518
 30
0.0
 10
241.477684317299
 20
52.19962719630038
 30
0.0
 10
241.3421670505714
 20
52.17845901195031
 30
0.0
  0
LWPOLYLINE
  5
282
330
1F
100
AcDbEntity
  8
0
  6
Continuous
 62
     7
370
    25
100
AcDbPolyline
 90
       15
 70
   128
 43
0.0
 10
243.1994016184
 20
54.4888410516
 10
244.1043504323
 20
55.4325708142
 10
245.0377806375
 20
56.2995835486
 10
245.9925154161
 20
57.0832137104
 10
246.9612150426
 20
57.7774370786
 10
247.9364320166
 20
58.3769139893
 10
248.9106688705
 20
58.8770394384
 10
249.8764355867
 20
59.2739663407
 10
250.8263071788
 20
59.5646425742
 10
251.7529810466
 20
59.7468342038
 10
252.6493328912
 20
59.8191410305
 10
253.5084717026
 20
59.7810062814
 10
254.3237919504
 20
59.6327231645
 10
255.089025937
 20
59.3754323919
 10
255.6770508649
 20
59.0832917842
  0
LWPOLYLINE
  5
283
330
1F
100
AcDbEntity
  8
0
  6
Continuous
 62
     7
370
    25
100
AcDbPolyline
 90
       21
 70
   128
 43
0.0
 10
239.9408295504
 20
31.8244033904
 10
239.3146696271
 20
32.2486095621
 10
238.7221231326
 20
32.7902622709
 10
238.1983155139
 20
33.4277108843
 10
237.7472098917
 20
34.1561348364
 10
237.3722181853
 20
34.9700223522
 10
237.0761774042
 20
35.8632172184
 10
236.8613266
 20
36.8289619418
 10
236.7292910603
 20
37.8599514585
 10
236.6810711143
 20
38.9483873532
 10
236.7170289616
 20
40.0860344326
 10
236.8368952573
 20
41.2642881911
 10
237.03976121
 20
42.4742344373
 10
237.3240930697
 20
43.7067203839
 10
237.6877400299
 20
44.9524233377
 10
238.1279506917
 20
46.2019191404
 10
238.6413954541
 20
47.4457559309
 10
239.2241902215
 20
48.6745248663
 10
239.8719260385
 20
49.8789297014
 10
240.5797026753
 20
51.0498601703
 10
241.3421668238
 20
52.1784585235
  0
LWPOLYLINE
  5
284
330
1F
100
AcDbEntity
  8
0
  6
Continuous
 62
     7
370
    25
100
AcDbPolyline
 90
       12
 70
   128
 43
0.0
 10
241.536780226
 20
54.6131175321
 10
242.4079394504
 20
55.5430642237
 10
243.3095336385
 20
56.3958300115
 10
244.233853539
 20
57.1641225896
 10
245.1729953008
 20
57.8413723002
 10
246.1189284571
 20
58.4217881106
 10
247.063564219
 20
58.900407684
 10
247.9988250957
 20
59.2731368105
 10
248.9167138152
 20
59.5367899543
 10
249.8093814325
 20
59.689111321
 10
250.6691945935
 20
59.7287992391
 10
251.3373308023
 20
59.6780041652
  0
SPLINE
  5
285
330
1F
100
AcDbEntity
  8
0
  6
Continuous
 62
     7
370
    25
100
AcDbSpline
210
0.0
220
0.0
230
1.0
 70
     8
 71
     3
 72
    26
 73
    22
 74
     0
 42
0.000000001
 43
0.00000001
 40
0.0
 40
0.0
 40
0.0
 40
0.0
 40
0.1250000000000011
 40
0.1250000000000011
 40
0.2500000000000023
 40
0.2500000000000023
 40
0.3125000000000019
 40
0.3125000000000019
 40
0.3750000000000016
 40
0.3750000000000016
 40
0.4375000000000013
 40
0.4375000000000013
 40
0.500000000000001
 40
0.500000000000001
 40
0.5625000000000007
 40
0.5625000000000007
 40
0.6250000000000003
 40
0.6250000000000003
 40
0.7500000000000002
 40
0.7500000000000002
 40
1.0
 40
1.0
 40
1.0
 40
1.0
 10
240.1925870211156
 20
52.94095424590584
 30
0.0
 10
240.1689494248836
 20
53.05053010547883
 30
0.0
 10
240.1513816460019
 20
53.16141936384336
 30
0.0
 10
240.1325690631324
 20
53.38674932370631
 30
0.0
 10
240.131389288365
 20
53.50242623702467
 30
0.0
 10
240.1474872916004
 20
53.67378174688424
 30
0.0
 10
240.1558060087006
 20
53.7305802589784
 30
0.0
 10
240.1795631579576
 20
53.84340647137548
 30
0.0
 10
240.1951855370066
 20
53.89985932504163
 30
0.0
 10
240.2340427494036
 20
54.00844244145024
 30
0.0
 10
240.2572687061061
 20
54.06082240167577
 30
0.0
 10
240.3122673555845
 20
54.16127917694789
 30
0.0
 10
240.3443456226071
 20
54.20955804471933
 30
0.0
 10
240.4147603711421
 20
54.29725502030307
 30
0.0
 10
240.4533387932688
 20
54.33724414827903
 30
0.0
 10
240.537047056865
 20
54.40972283239462
 30
0.0
 10
240.5821757668069
 20
54.44205945677125
 30
0.0
 10
240.721456408997
 20
54.52525922412489
 30
0.0
 10
240.8222454805587
 20
54.56408794676097
 30
0.0
 10
241.1253177517913
 20
54.63950423421615
 30
0.0
 10
241.3338418422764
 20
54.6393740878454
 30
0.0
 10
241.5367802619668
 20
54.61311785851917
 30
0.0
  0
LWPOLYLINE
  5
286
330
1F
100
AcDbEntity
  8
0
  6
Continuous
 62
     7
370
    25
100
AcDbPolyline
 90
       18
 70
   128
 43
0.0
 10
237.2556083922
 20
35.2851029558
 10
236.9290822688
 20
35.7544699983
 10
236.5292087752
 20
36.4975105631
 10
236.2078304942
 20
37.3238828907
 10
235.9676197995
 20
38.2267134767
 10
235.810574715
 20
39.1984941784
 10
235.7380017931
 20
40.2311428875
 10
235.7505036021
 20
41.3160705707
 10
235.8479767503
 20
42.4442543693
 10
236.0296112282
 20
43.6063115066
 10
236.2938950174
 20
44.7925766887
 10
236.638630555
 20
45.9931840665
 10
237.0609518552
 20
47.1981488409
 10
237.5573449246
 20
48.3974492012
 10
238.1236820062
 20
49.5811094024
 10
238.7552531897
 20
50.7392872151
 10
239.4468052655
 20
51.8623492082
 10
240.1925871645
 20
52.9409540149
  0
LINE
  5
287
330
1F
100
AcDbEntity
  8
0
  6
Continuous
 62
     7
370
    25
100
AcDbLine
 10
238.7171947502
 20
32.6970330708
 30
0.0
 11
238.8353980563
 21
32.7528955223
 31
0.0
  0
LWPOLYLINE
  5
288
330
1F
100
AcDbEntity
  8
0
  6
Continuous
 62
     7
370
    25
100
AcDbPolyline
 90
       41
 70
   128
 43
0.0
 10
238.7171947502
 20
32.6970330708
 10
237.9808458427
 20
32.9779882591
 10
237.2997573806
 20
33.3612977081
 10
236.6789685464
 20
33.8441282205
 10
236.1230707123
 20
34.4229067108
 10
235.6361771474
 20
35.0933521477
 10
235.2218887731
 20
35.8505055947
 10
234.8832704554
 20
36.6887651948
 10
234.6228266392
 20
37.601930849
 10
234.4424848843
 20
38.5832475649
 10
234.3435780846
 20
39.6254557912
 10
234.3268392003
 20
40.7208467654
 10
234.3923894035
 20
41.861316057
 10
234.5397472983
 20
43.0384292982
 10
234.7678203592
 20
44.2434775092
 10
235.0749227123
 20
45.4675471775
 10
235.4587823791
 20
46.7015838746
 10
235.9165590571
 20
47.93645813
 10
236.444867169
 20
49.1630359612
 10
237.0397989117
 20
50.3722438916
 10
237.6969525737
 20
51.5551370095
 10
238.411467438
 20
52.702964744
 10
239.1780586848
 20
53.8072374032
 10
239.9910542704
 20
54.8597847257
 10
240.8444410249
 20
55.852822037
 10
241.7319064699
 20
56.779002527
 10
242.6468849165
 20
57.6314758016
 10
243.5826088323
 20
58.403935787
 10
244.5321560089
 20
59.0906684916
 10
245.4885023153
 20
59.6865931067
 10
246.4445735406
 20
60.1873010593
 10
247.3932972072
 20
60.5890904872
 10
248.3276554663
 20
60.8889884086
 10
249.2407366463
 20
61.0847751583
 10
250.1257858914
 20
61.1750037337
 10
250.9762569401
 20
61.1590061123
 10
251.7858583873
 20
61.0369009461
 10
252.5486011001
 20
60.8095912765
 10
253.2588433275
 20
60.4787586361
 10
253.9113305431
 20
60.0468503073
 10
254.4094549261
 20
59.6100225796
  0
LWPOLYLINE
  5
289
330
1F
100
AcDbEntity
  8
0
  6
Continuous
 62
     7
370
    25
100
AcDbPolyline
 90
       27
 70
   128
 43
0.0
 10
232.0725621595
 20
41.7716832459
 10
232.1134946519
 20
42.8929680597
 10
232.2359891988
 20
44.0532111487
 10
232.4391389842
 20
45.243822029
 10
232.7214392341
 20
46.4559859361
 10
233.0808003867
 20
47.6807286534
 10
233.5145625806
 20
48.9089830512
 10
234.0195127774
 20
50.1316542949
 10
234.5919137368
 20
51.3396913255
 10
235.2275277251
 20
52.5241492157
 10
235.9216481244
 20
53.6762598898
 10
236.6691363122
 20
54.7874925769
 10
237.4644578803
 20
55.8496211089
 10
238.3017251116
 20
56.8547803804
 10
239.174738468
 20
57.7955298437
 10
240.0770346646
 20
58.6649033147
 10
241.0019339196
 20
59.4564651474
 10
241.9425880288
 20
60.1643554771
 10
242.8920328841
 20
60.7833311854
 10
243.8432391812
 20
61.3088126639
 10
244.7891644453
 20
61.7369062429
 10
245.7228055494
 20
62.0644451566
 10
246.6372499165
 20
62.2890023709
 10
247.5257275443
 20
62.4089160541
 10
248.3816602319
 20
62.423298983
 10
249.1987108053
 20
62.3320441467
 10
249.8930603782
 20
62.1610041219
  0
LWPOLYLINE
  5
28A
330
1F
100
AcDbEntity
  8
0
  6
Continuous
 62
     7
370
    25
100
AcDbPolyline
 90
        3
 70
   128
 43
0.0
 10
232.146757735
 20
40.3378149473
 10
232.1134946519
 20
40.6976580819
 10
232.0825114499
 20
41.2358905777
  0
SPLINE
  5
28B
330
1F
100
AcDbEntity
  8
0
  6
Continuous
 62
     7
370
    25
100
AcDbSpline
210
0.0
220
0.0
230
1.0
 70
     8
 71
     3
 72
    10
 73
     6
 74
     0
 42
0.000000001
 43
0.00000001
 40
0.0
 40
0.0
 40
0.0
 40
0.0
 40
0.5
 40
0.5
 40
1.0
 40
1.0
 40
1.0
 40
1.0
 10
240.9192750887469
 20
51.47790096508611
 30
0.0
 10
240.8153105979627
 20
51.55123933815648
 30
0.0
 10
240.7255023215353
 20
51.6384750959499
 30
0.0
 10
240.5734598935367
 20
51.83940563714589
 30
0.0
 10
240.5115543051757
 20
51.95357640334286
 30
0.0
 10
240.4671046005852
 20
52.07659408650296
 30
0.0
  0
SPLINE
  5
28C
330
1F
100
AcDbEntity
  8
0
  6
Continuous
 62
     7
370
    25
100
AcDbSpline
210
0.0
220
0.0
230
1.0
 70
     8
 71
     3
 72
    14
 73
    10
 74
     0
 42
0.000000001
 43
0.00000001
 40
0.0
 40
0.0
 40
0.0
 40
0.0
 40
0.25
 40
0.25
 40
0.5
 40
0.5
 40
0.75
 40
0.75
 40
1.0
 40
1.0
 40
1.0
 40
1.0
 10
240.4671046005852
 20
52.07659408650296
 30
0.0
 10
240.4443837977201
 20
52.13947550616051
 30
0.0
 10
240.4224692873707
 20
52.20852193563393
 30
0.0
 10
240.3803582333079
 20
52.3561744522527
 30
0.0
 10
240.3608366793948
 20
52.43257423911101
 30
0.0
 10
240.322490437221
 20
52.5869065305066
 30
0.0
 10
240.3041308443372
 20
52.66385912683825
 30
0.0
 10
240.2621273997555
 20
52.80924929435424
 30
0.0
 10
240.2383510787425
 20
52.87584020054726
 30
0.0
 10
240.2098895746404
 20
52.91633581577861
 30
0.0
  0
LINE
  5
28D
330
1F
100
AcDbEntity
  8
0
  6
Continuous
 62
     7
370
    25
100
AcDbLine
 10
240.2098897629
 20
52.9163362075
 30
0.0
 11
240.1925871645
 21
52.9409540149
 31
0.0
  0
LINE
  5
28E
330
1F
100
AcDbEntity
  8
0
  6
Continuous
 62
     7
370
    25
100
AcDbLine
 10
241.536780226
 20
54.6131175321
 30
0.0
 11
241.5540828244
 21
54.5884997248
 31
0.0
  0
SPLINE
  5
28F
330
1F
100
AcDbEntity
  8
0
  6
Continuous
 62
     7
370
    25
100
AcDbSpline
210
0.0
220
0.0
230
1.0
 70
     8
 71
     3
 72
    16
 73
    12
 74
     0
 42
0.000000001
 43
0.00000001
 40
0.0
 40
0.0
 40
0.0
 40
0.0
 40
0.1250000000000001
 40
0.1250000000000001
 40
0.2500000000000003
 40
0.2500000000000003
 40
0.5000000000000002
 40
0.5000000000000002
 40
0.7500000000000001
 40
0.7500000000000001
 40
1.0
 40
1.0
 40
1.0
 40
1.0
 10
241.5540828154915
 20
54.58849942839188
 30
0.0
 10
241.5682352218956
 20
54.56836309257909
 30
0.0
 10
241.5898936263693
 20
54.55156567190167
 30
0.0
 10
241.6423115554046
 20
54.52472015057018
 30
0.0
 10
241.672904434543
 20
54.51449466600921
 30
0.0
 10
241.7719852834005
 20
54.48999422557652
 30
0.0
 10
241.8458678210164
 20
54.48173430317502
 30
0.0
 10
241.9989674134077
 20
54.4705483364701
 30
0.0
 10
242.0770513880553
 20
54.4679516647189
 30
0.0
 10
242.2363950217974
 20
54.46592266388519
 30
0.0
 10
242.315047916629
 20
54.46656025254742
 30
0.0
 10
242.3908003844216
 20
54.46965335336247
 30
0.0
  0
SPLINE
  5
290
330
1F
100
AcDbEntity
  8
0
  6
Continuous
 62
     7
370
    25
100
AcDbSpline
210
0.0
220
0.0
230
1.0
 70
     8
 71
     3
 72
    10
 73
     6
 74
     0
 42
0.000000001
 43
0.00000001
 40
0.0
 40
0.0
 40
0.0
 40
0.0
 40
0.5
 40
0.5
 40
1.0
 40
1.0
 40
1.0
 40
1.0
 10
242.3908003844216
 20
54.46965335336247
 30
0.0
 10
242.5389947243224
 20
54.47570437779623
 30
0.0
 10
242.681219190053
 20
54.4655421475831
 30
0.0
 10
242.9536105803937
 20
54.41449171164302
 30
0.0
 10
243.0837379102623
 20
54.37313060899847
 30
0.0
 10
243.2018132524476
 20
54.31735674104618
 30
0.0
  0
LINE
  5
291
330
1F
100
AcDbEntity
  8
0
  6
Continuous
 62
     7
370
    25
100
AcDbLine
 10
243.3570163439
 20
54.3457753486
 30
0.0
 11
243.3396231956
 21
54.3705226332
 31
0.0
  0
ARC
  5
292
330
1F
100
AcDbEntity
  8
0
  6
Continuous
 62
     7
370
    25
100
AcDbCircle
 10
225.8844342411
 20
49.5934275757
 30
0.0
 40
4.160340149630708
100
AcDbArc
 50
211.7954354499
 51
236.1628935314
  0
SPLINE
  5
293
330
1F
100
AcDbEntity
  8
0
  6
Continuous
 62
     7
370
    25
100
AcDbSpline
210
0.0
220
0.0
230
1.0
 70
     8
 71
     3
 72
     8
 73
     4
 74
     0
 42
0.000000001
 43
0.00000001
 40
0.0
 40
0.0
 40
0.0
 40
0.0
 40
1.0
 40
1.0
 40
1.0
 40
1.0
 10
223.7788595833108
 20
46.47665232180752
 30
0.0
 10
223.3020862914867
 20
46.78474512974016
 30
0.0
 10
222.8252839146418
 20
47.09297457531292
 30
0.0
 10
222.3484514701161
 20
47.40133973153283
 30
0.0
  0
SPLINE
  5
294
330
1F
100
AcDbEntity
  8
0
  6
Continuous
 62
     7
370
    25
100
AcDbSpline
210
0.0
220
0.0
230
1.0
 70
     8
 71
     3
 72
    23
 73
    19
 74
     0
 42
0.000000001
 43
0.00000001
 40
0.0
 40
0.0
 40
0.0
 40
0.0
 40
0.0521036415683759
 40
0.1035646240941235
 40
0.1544751946756683
 40
0.2049306267495642
 40
0.2550287880866983
 40
0.3048696389163111
 40
0.354554670462894
 40
0.4041862979539558
 40
0.453867225213789
 40
0.5036997999428097
 40
0.590187023078111
 40
0.6742716378282376
 40
0.7565997087281883
 40
0.8378563983773627
 40
0.9187511781400207
 40
0.9999999999999999
 40
0.9999999999999999
 40
0.9999999999999999
 40
0.9999999999999999
 10
224.6594243868525
 20
46.30192162368742
 30
0.0
 10
224.6541554479126
 20
46.29200016145203
 30
0.0
 10
224.643682558413
 20
46.27227961072001
 30
0.0
 10
224.624436262651
 20
46.24771178176655
 30
0.0
 10
224.6026405223188
 20
46.22702319950645
 30
0.0
 10
224.5779892311142
 20
46.21049226420897
 30
0.0
 10
224.5504927165754
 20
46.19797476463265
 30
0.0
 10
224.520081662568
 20
46.18944014081047
 30
0.0
 10
224.4867112907951
 20
46.18483026816294
 30
0.0
 10
224.4503354025227
 20
46.18409552502734
 30
0.0
 10
224.4109070309329
 20
46.1871906075798
 30
0.0
 10
224.3580586393805
 20
46.19572638306116
 30
0.0
 10
224.2895196456072
 20
46.21332282191075
 30
0.0
 10
224.2017984136501
 20
46.24495942999836
 30
0.0
 10
224.1070674941553
 20
46.2871390873316
 30
0.0
 10
224.0050332468263
 20
46.33987552305788
 30
0.0
 10
223.8961193336403
 20
46.40219207896673
 30
0.0
 10
223.8180030226568
 20
46.45179613721615
 30
0.0
 10
223.7788595833108
 20
46.47665232180751
 30
0.0
  0
SPLINE
  5
295
330
1F
100
AcDbEntity
  8
0
  6
Continuous
 62
     7
370
    25
100
AcDbSpline
210
0.0
220
0.0
230
1.0
 70
     8
 71
     3
 72
     8
 73
     4
 74
     0
 42
0.000000001
 43
0.00000001
 40
0.0
 40
0.0
 40
0.0
 40
0.0
 40
1.0
 40
1.0
 40
1.0
 40
1.0
 10
226.1329274133103
 20
45.35460148712864
 30
0.0
 10
225.6415601012676
 20
45.67047610709698
 30
0.0
 10
225.15017390134
 20
45.98646212838732
 30
0.0
 10
224.6587681911947
 20
46.30255900923087
 30
0.0
  0
SPLINE
  5
296
330
1F
100
AcDbEntity
  8
0
  6
Continuous
 62
     7
370
    25
100
AcDbSpline
210
0.0
220
0.0
230
1.0
 70
     8
 71
     3
 72
    18
 73
    14
 74
     0
 42
0.000000001
 43
0.00000001
 40
0.0
 40
0.0
 40
0.0
 40
0.0
 40
0.0923824559461122
 40
0.1844689291660427
 40
0.2764953616062392
 40
0.3686975365619641
 40
0.4613092840130473
 40
0.5545607518559533
 40
0.6486768051632873
 40
0.7438756050210469
 40
0.8403674044324065
 40
0.9203921078135461
 40
1.0
 40
1.0
 40
1.0
 40
1.0
 10
226.9464915325059
 20
44.71029376258687
 30
0.0
 10
226.9229240183816
 20
44.72556773685319
 30
0.0
 10
226.8758644977281
 20
44.75606674933517
 30
0.0
 10
226.8034667097625
 20
44.80569932194781
 30
0.0
 10
226.7299845008652
 20
44.85802886461749
 30
0.0
 10
226.6552850531193
 20
44.91334655032593
 30
0.0
 10
226.5794242633512
 20
44.9715848654395
 30
0.0
 10
226.5024129825653
 20
45.03277777707649
 30
0.0
 10
226.4242808504862
 20
45.09694149365687
 30
0.0
 10
226.345054615845
 20
45.16409045352223
 30
0.0
 10
226.2697581314375
 20
45.22994136326719
 30
0.0
 10
226.1989308233174
 20
45.29347295007458
 30
0.0
 10
226.155026452511
 20
45.33413369508765
 30
0.0
 10
226.1331315857062
 20
45.3544109836559
 30
0.0
  0
LINE
  5
297
330
1F
100
AcDbEntity
  8
0
  6
Continuous
 62
     7
370
    25
100
AcDbLine
 10
227.5861980644
 20
44.2985399561
 30
0.0
 11
226.946491222
 21
44.7102936237
 31
0.0
  0
SPLINE
  5
298
330
1F
100
AcDbEntity
  8
0
  6
Continuous
 62
     7
370
    25
100
AcDbSpline
210
0.0
220
0.0
230
1.0
 70
     8
 71
     3
 72
    25
 73
    21
 74
     0
 42
0.000000001
 43
0.00000001
 40
0.0
 40
0.0
 40
0.0
 40
0.0
 40
0.0280105225426455
 40
0.0559601148860774
 40
0.0839014045043129
 40
0.1118870776786379
 40
0.1399695827588941
 40
0.1682008401739877
 40
0.1966319670424218
 40
0.2253130233141493
 40
0.2542927850735863
 40
0.3799486436570518
 40
0.505785022166658
 40
0.6313085886329272
 40
0.7532068238012843
 40
0.8039473267959846
 40
0.8535894438560211
 40
0.902533972239985
 40
0.9511970353794947
 40
1.0
 40
1.0
 40
1.0
 40
1.0
 10
228.6885636574962
 20
45.01444594646395
 30
0.0
 10
228.6935117650268
 20
44.98682208535646
 30
0.0
 10
228.7033972166623
 20
44.93163445225115
 30
0.0
 10
228.7149328662655
 20
44.85247374488122
 30
0.0
 10
228.7240059880782
 20
44.77617040578284
 30
0.0
 10
228.7303747967912
 20
44.70297464481322
 30
0.0
 10
228.7340910356013
 20
44.63282717659985
 30
0.0
 10
228.7351276565841
 20
44.56575089008706
 30
0.0
 10
228.7334791813572
 20
44.50174698086062
 30
0.0
 10
228.7291330294884
 20
44.44081812759379
 30
0.0
 10
228.7142767049209
 20
44.31893000609767
 30
0.0
 10
228.6691884478547
 20
44.16402913444362
 30
0.0
 10
228.5558289273639
 20
44.03308601610014
 30
0.0
 10
228.3940047053709
 20
43.97720961528733
 30
0.0
 10
228.2199894862375
 20
43.99708366767188
 30
0.0
 10
228.0686285655499
 20
44.04440147002834
 30
0.0
 10
227.958228332851
 20
44.08931689376401
 30
0.0
 10
227.8410688374024
 20
44.14669262505515
 30
0.0
 10
227.717503170469
 20
44.2153696895076
 30
0.0
 10
227.6300081203745
 20
44.27078993546043
 30
0.0
 10
227.5861978006932
 20
44.2985398331905
 30
0.0
  0
ARC
  5
299
330
1F
100
AcDbEntity
  8
0
  6
Continuous
 62
     7
370
    25
100
AcDbCircle
 10
239.8815848219
 20
46.800496315
 30
0.0
 40
11.33462419218402
100
AcDbArc
 50
170.9338462887
 51
189.0661537113
  0
SPLINE
  5
29A
330
1F
100
AcDbEntity
  8
0
  6
Continuous
 62
     7
370
    25
100
AcDbSpline
210
0.0
220
0.0
230
1.0
 70
     8
 71
     3
 72
    26
 73
    22
 74
     0
 42
0.000000001
 43
0.00000001
 40
0.0
 40
0.0
 40
0.0
 40
0.0
 40
0.0241259796963637
 40
0.048215991227299
 40
0.0723203915124064
 40
0.0964895678710793
 40
0.120773623196351
 40
0.1452220711242841
 40
0.1698835501657706
 40
0.1948055644472381
 40
0.2200342569517629
 40
0.2456142191611394
 40
0.3690971486901671
 40
0.4940698769485191
 40
0.6192566784762444
 40
0.7454656653603234
 40
0.7971495824713715
 40
0.8481710308405401
 40
0.8988013269235245
 40
0.9493179290492194
 40
1.0
 40
1.0
 40
1.0
 40
1.0
 10
227.5861978006932
 20
52.06265022455506
 30
0.0
 10
227.6079160300692
 20
52.04831870115997
 30
0.0
 10
227.6513201102453
 20
52.01967702049093
 30
0.0
 10
227.7146272276067
 20
51.97168472256212
 30
0.0
 10
227.7764887953247
 20
51.92008552467644
 30
0.0
 10
227.8367933104612
 20
51.86451073180321
 30
0.0
 10
227.895583162401
 20
51.80505549117606
 30
0.0
 10
227.9528636808308
 20
51.74169118233865
 30
0.0
 10
228.008654820157
 20
51.67442240437473
 30
0.0
 10
228.0629760675789
 20
51.60324829041461
 30
0.0
 10
228.1158550427878
 20
51.52815915066633
 30
0.0
 10
228.2326498675241
 20
51.34890470196446
 30
0.0
 10
228.3945194254506
 20
51.03859923012109
 30
0.0
 10
228.5577043329825
 20
50.56868544198941
 30
0.0
 10
228.6692157381559
 20
50.06972240807936
 30
0.0
 10
228.7163495762644
 20
49.66083873502236
 30
0.0
 10
228.7314685157969
 20
49.35656677843165
 30
0.0
 10
228.7334216547795
 20
49.15531753673633
 30
0.0
 10
228.7269436291404
 20
48.95965761701374
 30
0.0
 10
228.7128167064533
 20
48.76902132911627
 30
0.0
 10
228.6966568147683
 20
48.64743805537747
 30
0.0
 10
228.6885636574962
 20
48.58654701877857
 30
0.0
  0
LINE
  5
29B
330
1F
100
AcDbEntity
  8
0
  6
Continuous
 62
     7
370
    25
100
AcDbLine
 10
226.946491222
 20
52.4756250748
 30
0.0
 11
227.5861980644
 21
52.0626501038
 31
0.0
  0
SPLINE
  5
29C
330
1F
100
AcDbEntity
  8
0
  6
Continuous
 62
     7
370
    25
100
AcDbSpline
210
0.0
220
0.0
230
1.0
 70
     8
 71
     3
 72
    14
 73
    10
 74
     0
 42
0.000000001
 43
0.00000001
 40
0.0
 40
0.0
 40
0.0
 40
0.0
 40
0.0789261963152472
 40
0.1582328720511064
 40
0.3308475394503796
 40
0.5000195457530386
 40
0.6670357883499396
 40
0.8332395193610692
 40
1.0
 40
1.0
 40
1.0
 40
1.0
 10
226.1325388166559
 20
52.68420750783803
 30
0.0
 10
226.1542556979911
 20
52.68581067169678
 30
0.0
 10
226.1977941512056
 20
52.68902472778437
 30
0.0
 10
226.2893192698526
 20
52.68984576785386
 30
0.0
 10
226.4062276032838
 20
52.68190978607239
 30
0.0
 10
226.5470479416646
 20
52.65563411719554
 30
0.0
 10
226.6842602494771
 20
52.61267651866319
 30
0.0
 10
226.8181909238956
 20
52.55431939385232
 30
0.0
 10
226.9036770158565
 20
52.50188584770115
 30
0.0
 10
226.9464915325059
 20
52.47562523754596
 30
0.0
  0
SPLINE
  5
29D
330
1F
100
AcDbEntity
  8
0
  6
Continuous
 62
     7
370
    25
100
AcDbSpline
210
0.0
220
0.0
230
1.0
 70
     8
 71
     3
 72
     8
 73
     4
 74
     0
 42
0.000000001
 43
0.00000001
 40
0.0
 40
0.0
 40
0.0
 40
0.0
 40
1.0
 40
1.0
 40
1.0
 40
1.0
 10
224.3302352336502
 20
53.84659891925237
 30
0.0
 10
224.9309934573471
 20
53.45933143609295
 30
0.0
 10
225.5317223202083
 20
53.07186408616914
 30
0.0
 10
226.132422964556
 20
52.68419719357901
 30
0.0
  0
SPLINE
  5
29E
330
1F
100
AcDbEntity
  8
0
  6
Continuous
 62
     7
370
    25
100
AcDbSpline
210
0.0
220
0.0
230
1.0
 70
     8
 71
     3
 72
    13
 73
     9
 74
     0
 42
0.000000001
 43
0.00000001
 40
0.0
 40
0.0
 40
0.0
 40
0.0
 40
0.1667030582307959
 40
0.3329480818053031
 40
0.4990671507274871
 40
0.6653938523718408
 40
0.8322612710550125
 40
1.0
 40
1.0
 40
1.0
 40
1.0
 10
223.9884066986158
 20
54.14766369833815
 30
0.0
 10
224.0087078810558
 20
54.13409859165891
 30
0.0
 10
224.0492544662444
 20
54.10700564989607
 30
0.0
 10
224.1084041032321
 20
54.06181107688836
 30
0.0
 10
224.1661756481346
 20
54.0133999284054
 30
0.0
 10
224.2224253855942
 20
53.96136481363494
 30
0.0
 10
224.2773525943403
 20
53.90606684642592
 30
0.0
 10
224.3125733039309
 20
53.86644959126556
 30
0.0
 10
224.3302295158718
 20
53.84658938226463
 30
0.0
  0
SPLINE
  5
29F
330
1F
100
AcDbEntity
  8
0
  6
Continuous
 62
     7
370
    25
100
AcDbSpline
210
0.0
220
0.0
230
1.0
 70
     8
 71
     3
 72
     8
 73
     4
 74
     0
 42
0.000000001
 43
0.00000001
 40
0.0
 40
0.0
 40
0.0
 40
0.0
 40
1.0
 40
1.0
 40
1.0
 40
1.0
 10
222.0444261828251
 20
55.40238555071762
 30
0.0
 10
222.6924562552254
 20
54.98439023483286
 30
0.0
 10
223.3404492323273
 20
54.56614947241523
 30
0.0
 10
223.9884066986158
 20
54.14766369833814
 30
0.0
  0
LWPOLYLINE
  5
2A0
330
1F
100
AcDbEntity
  8
0
  6
Continuous
 62
     7
370
    25
100
AcDbPolyline
 90
       20
 70
   128
 43
0.0
 10
222.0444268331
 20
55.4023856012
 10
222.4087501186
 20
56.4679443384
 10
222.8460605504
 20
57.5287391515
 10
223.3518793673
 20
58.5739061074
 10
223.9210271169
 20
59.5927417969
 10
224.5476740338
 20
60.5748122654
 10
225.2254039189
 20
61.5100613736
 10
225.9472753839
 20
62.3889100316
 10
226.7058965958
 20
63.202359425
 10
227.4934985406
 20
63.9420781762
 10
228.3020154473
 20
64.6004913581
 10
229.1231673536
 20
65.1708562955
 10
229.9485451401
 20
65.6473321866
 10
230.7696963055
 20
66.0250395065
 10
231.5782115659
 20
66.3001099992
 10
232.3658110411
 20
66.4697265463
 10
233.1244289603
 20
66.532153055
 10
233.8462971326
 20
66.4867491839
 10
234.5240220786
 20
66.3339806498
 10
235.0941645596
 20
66.1041325664
  0
SPLINE
  5
2A1
330
1F
100
AcDbEntity
  8
0
  6
Continuous
 62
     7
370
    25
100
AcDbSpline
210
0.0
220
0.0
230
1.0
 70
    11
 71
     3
 72
    39
 73
    35
 74
     0
 42
0.000000001
 43
0.00000001
 40
0.0
 40
0.0
 40
0.0
 40
0.0
 40
0.0310664058350965
 40
0.0621048158425859
 40
0.093136155179263
 40
0.1235538293503448
 40
0.1538561545806855
 40
0.1850588072748946
 40
0.2160250992945718
 40
0.2471867223797388
 40
0.2784462884305076
 40
0.3100516090231096
 40
0.3419834369141944
 40
0.3734259894013148
 40
0.4048604886786042
 40
0.4368740651833136
 40
0.4685120685925458
 40
0.4998055358633138
 40
0.5309508213230685
 40
0.5618649784438015
 40
0.5930416446594986
 40
0.6233742450133227
 40
0.6540913579075065
 40
0.6849496782718291
 40
0.71581606451649
 40
0.7471731804043279
 40
0.7784514311862922
 40
0.8101295911560753
 40
0.8419598919688862
 40
0.8735175891922173
 40
0.9050808037887091
 40
0.9370235169792366
 40
0.968744159003463
 40
1.0
 40
1.0
 40
1.0
 40
1.0
 10
235.2530116640305
 20
64.40757592605905
 30
0.0
 10
235.5158972842308
 20
64.37904143876804
 30
0.0
 10
236.0427858947135
 20
64.29309895044489
 30
0.0
 10
236.8067979637873
 20
64.09272383037548
 30
0.0
 10
237.513948151836
 20
63.84572172415644
 30
0.0
 10
238.1268592164303
 20
63.56773984600438
 30
0.0
 10
238.6239905421047
 20
63.27360614867447
 30
0.0
 10
238.983182263177
 20
62.97209962048243
 30
0.0
 10
239.2049015319378
 20
62.66510211557907
 30
0.0
 10
239.2701534093191
 20
62.35459685417722
 30
0.0
 10
239.183306198206
 20
62.03545236942797
 30
0.0
 10
238.9409606104456
 20
61.70613240385492
 30
0.0
 10
238.5610227477201
 20
61.36719168229713
 30
0.0
 10
238.0472167945598
 20
61.0293532178868
 30
0.0
 10
237.421325983649
 20
60.70345531657921
 30
0.0
 10
236.7078549971604
 20
60.40680842333815
 30
0.0
 10
235.9439525208963
 20
60.15070511489813
 30
0.0
 10
235.1581594379898
 20
59.9616775469097
 30
0.0
 10
234.3766219829492
 20
59.85350162485616
 30
0.0
 10
233.6205089981937
 20
59.84583774148732
 30
0.0
 10
232.9181444118041
 20
59.9437597768738
 30
0.0
 10
232.29912406476
 20
60.1654082103774
 30
0.0
 10
231.7900667997507
 20
60.50127629728935
 30
0.0
 10
231.4171232063159
 20
60.94108686346824
 30
0.0
 10
231.1885212550711
 20
61.45216150399053
 30
0.0
 10
231.1196749483488
 20
62.00334659175116
 30
0.0
 10
231.2042913615726
 20
62.56101852006403
 30
0.0
 10
231.4474001515087
 20
63.0910986609835
 30
0.0
 10
231.8295299943254
 20
63.56362301009838
 30
0.0
 10
232.345665568738
 20
63.94974452099122
 30
0.0
 10
232.9726434292405
 20
64.23336870832338
 30
0.0
 10
233.6885508616068
 20
64.40310592705082
 30
0.0
 10
234.4569942537909
 20
64.46464476176364
 30
0.0
 10
234.9885230331643
 20
64.43628440950636
 30
0.0
 10
235.2530116640305
 20
64.40757592605904
 30
0.0
  0
LINE
  5
2A2
330
1F
100
AcDbEntity
  8
0
  6
Continuous
 62
     7
370
    25
100
AcDbLine
 10
226.028474251
 20
47.9684493087
 30
0.0
 11
226.3425193096
 21
47.8003050815
 31
0.0
  0
LINE
  5
2A3
330
1F
100
AcDbEntity
  8
0
  6
Continuous
 62
     7
370
    25
100
AcDbLine
 10
225.0415162311
 20
48.5382080459
 30
0.0
 11
226.028474251
 21
47.9684493087
 31
0.0
  0
ARC
  5
2A4
330
1F
100
AcDbEntity
  8
0
  6
Continuous
 62
     7
370
    25
100
AcDbCircle
 10
227.2735012286
 20
52.0461214933
 30
0.0
 40
4.399246259573228
100
AcDbArc
 50
267.4956853267
 51
287.1750110524
  0
SPLINE
  5
2A5
330
1F
100
AcDbEntity
  8
0
  6
Continuous
 62
     7
370
    25
100
AcDbSpline
210
0.0
220
0.0
230
1.0
 70
     8
 71
     3
 72
    14
 73
    10
 74
     0
 42
0.000000001
 43
0.00000001
 40
0.0
 40
0.0
 40
0.0
 40
0.0
 40
0.1520927654964334
 40
0.2674857265629534
 40
0.3827932169674477
 40
0.4986859355030901
 40
0.6145509981003119
 40
0.825743267810779
 40
1.0
 40
1.0
 40
1.0
 40
1.0
 10
236.5915176223298
 20
61.40508021072331
 30
0.0
 10
236.3867226810375
 20
61.51746111095373
 30
0.0
 10
236.0265495755698
 20
61.715105533105
 30
0.0
 10
235.426926407368
 20
61.97922839990711
 30
0.0
 10
234.8477537729854
 20
62.19234479444
 30
0.0
 10
234.2368619574914
 20
62.36313294552591
 30
0.0
 10
233.4477262677152
 20
62.5025117007451
 30
0.0
 10
232.5484529427922
 20
62.52964561542204
 30
0.0
 10
231.9838575931244
 20
62.32165105910435
 30
0.0
 10
231.7286110101589
 20
62.22761928961362
 30
0.0
  0
SPLINE
  5
2A6
330
1F
100
AcDbEntity
  8
0
  6
Continuous
 62
     7
370
    25
100
AcDbSpline
210
0.0
220
0.0
230
1.0
 70
     8
 71
     3
 72
    10
 73
     6
 74
     0
 42
0.000000001
 43
0.00000001
 40
0.0
 40
0.0
 40
0.0
 40
0.0
 40
0.3798174073072795
 40
0.9603711649033085
 40
1.0
 40
1.0
 40
1.0
 40
1.0
 10
237.7313977441893
 20
60.87685328320482
 30
0.0
 10
237.6017451269409
 20
60.94718184504219
 30
0.0
 10
237.2739175111865
 20
61.1250081414633
 30
0.0
 10
236.8659889661763
 20
61.29806099186572
 30
0.0
 10
236.6093561847444
 20
61.39726642411403
 30
0.0
 10
236.5929576945327
 20
61.40360551805441
 30
0.0
  0
SPLINE
  5
2A7
330
1F
100
AcDbEntity
  8
0
  6
Continuous
 62
     7
370
    25
100
AcDbSpline
210
0.0
220
0.0
230
1.0
 70
     8
 71
     3
 72
    24
 73
    20
 74
     0
 42
0.000000001
 43
0.00000001
 40
0.0
 40
0.0
 40
0.0
 40
0.0
 40
0.0618858212107145
 40
0.1150115607194259
 40
0.1593831488268445
 40
0.2428114970815824
 40
0.318331853291959
 40
0.3935543804326023
 40
0.4204843226990471
 40
0.4483397435477174
 40
0.4771286702554668
 40
0.5451537905345539
 40
0.6363475754294583
 40
0.6968782859867285
 40
0.7498596693403015
 40
0.7959701295389731
 40
0.8771179302751783
 40
0.9543004207779655
 40
1.0
 40
1.0
 40
1.0
 40
1.0
 10
235.1981330970282
 20
63.83371802610227
 30
0.0
 10
235.014176307692
 20
63.85261259106822
 30
0.0
 10
234.6723022397297
 20
63.88772715145272
 30
0.0
 10
234.2080842667529
 20
63.88123660306545
 30
0.0
 10
233.69862265448
 20
63.83351241026815
 30
0.0
 10
233.1595275551054
 20
63.70889581210123
 30
0.0
 10
232.6166895703818
 20
63.46640552815824
 30
0.0
 10
232.2762965548867
 20
63.20903277753233
 30
0.0
 10
232.0696698463357
 20
62.9942256770335
 30
0.0
 10
231.9516857901247
 20
62.84772232573453
 30
0.0
 10
231.7995153859336
 20
62.61797150151408
 30
0.0
 10
231.632834747354
 20
62.24502880608705
 30
0.0
 10
231.5644731665167
 20
61.78246975339417
 30
0.0
 10
231.6148286301362
 20
61.35413705519234
 30
0.0
 10
231.7202577736514
 20
61.03421016154796
 30
0.0
 10
231.9024571003374
 20
60.69374464635477
 30
0.0
 10
232.2033355254079
 20
60.35779638949969
 30
0.0
 10
232.5930204200064
 20
60.08473708878466
 30
0.0
 10
232.8859393762008
 20
59.99078201785737
 30
0.0
 10
232.9948753102571
 20
59.95584032769241
 30
0.0
  0
SPLINE
  5
2A8
330
1F
100
AcDbEntity
  8
0
  6
Continuous
 62
     7
370
    25
100
AcDbSpline
210
0.0
220
0.0
230
1.0
 70
     8
 71
     3
 72
    22
 73
    18
 74
     0
 42
0.000000001
 43
0.00000001
 40
0.0
 40
0.0
 40
0.0
 40
0.0
 40
0.0348562931077237
 40
0.0924900623539491
 40
0.1569277788850789
 40
0.2282085360920659
 40
0.2894089077515647
 40
0.3420696922203051
 40
0.3861903498429299
 40
0.4217735408338573
 40
0.5236918810098915
 40
0.6145479843395962
 40
0.7067593487247504
 40
0.7559111409869668
 40
0.8071360726317764
 40
0.8951475619903156
 40
1.0
 40
1.0
 40
1.0
 40
1.0
 10
238.4618770444125
 20
61.31657393833255
 30
0.0
 10
238.4995129342881
 20
61.35174716074414
 30
0.0
 10
238.599378568037
 20
61.44507818490045
 30
0.0
 10
238.7182026167721
 20
61.60042342450077
 30
0.0
 10
238.8146136852904
 20
61.7891526293031
 30
0.0
 10
238.8458898404323
 20
61.9751315149156
 30
0.0
 10
238.8164845162588
 20
62.14694307625103
 30
0.0
 10
238.7479894930507
 20
62.29374966676182
 30
0.0
 10
238.6601768460363
 20
62.41496058877566
 30
0.0
 10
238.505885694082
 20
62.58054373595912
 30
0.0
 10
238.238059376126
 20
62.79070797831465
 30
0.0
 10
237.7864892366595
 20
63.04615178877669
 30
0.0
 10
237.3389265999362
 20
63.25278848544769
 30
0.0
 10
236.9300328310523
 20
63.41129270209139
 30
0.0
 10
236.5079532312449
 20
63.55380945002619
 30
0.0
 10
235.9296406138658
 20
63.71706601888165
 30
0.0
 10
235.4557620199981
 20
63.79263446880343
 30
0.0
 10
235.1981330970282
 20
63.83371802610227
 30
0.0
  0
LINE
  5
2A9
330
1F
100
AcDbEntity
  8
0
  6
Continuous
 62
     7
370
    25
100
AcDbLine
 10
228.6885633751
 20
48.586546838
 30
0.0
 11
228.6833253121
 21
48.8826302609
 31
0.0
  0
LINE
  5
2AA
330
1F
100
AcDbEntity
  8
0
  6
Continuous
 62
     7
370
    25
100
AcDbLine
 10
228.6833253121
 20
48.8826302609
 30
0.0
 11
228.7264230989
 21
49.5342554566
 31
0.0
  0
LINE
  5
2AB
330
1F
100
AcDbEntity
  8
0
  6
Continuous
 62
     7
370
    25
100
AcDbLine
 10
228.2037764941
 20
51.3633184784
 30
0.0
 11
227.8923619916
 21
51.6919150479
 31
0.0
  0
SPLINE
  5
2AC
330
1F
100
AcDbEntity
  8
0
  6
Continuous
 62
     7
370
    25
100
AcDbSpline
210
0.0
220
0.0
230
1.0
 70
     8
 71
     3
 72
    19
 73
    15
 74
     0
 42
0.000000001
 43
0.00000001
 40
0.0
 40
0.0
 40
0.0
 40
0.0
 40
0.0210492621018804
 40
0.1455865440207667
 40
0.2712169722633744
 40
0.3929514297049947
 40
0.5136082229787104
 40
0.6366369099308349
 40
0.699422462668311
 40
0.7643939711952468
 40
0.8122544601557282
 40
0.8606584764820763
 40
0.9188817427801165
 40
1.0
 40
1.0
 40
1.0
 40
1.0
 10
231.6088885446858
 20
61.57896807864446
 30
0.0
 10
231.6014199697
 20
61.63372842554987
 30
0.0
 10
231.5497638111283
 20
62.012476602885
 30
0.0
 10
231.7925347057879
 20
62.62262751169919
 30
0.0
 10
232.3768651732029
 20
63.31200121493874
 30
0.0
 10
233.2829915408431
 20
63.72930076517081
 30
0.0
 10
234.3573376693052
 20
63.84972672285945
 30
0.0
 10
235.3112715384009
 20
63.68902717927185
 30
0.0
 10
236.0459340809701
 20
63.39166108043005
 30
0.0
 10
236.5187373204425
 20
63.09400300302536
 30
0.0
 10
236.875707490562
 20
62.723091198248
 30
0.0
 10
237.0705556320702
 20
62.29076990294041
 30
0.0
 10
237.0995846623144
 20
61.78782857171527
 30
0.0
 10
237.037211060694
 20
61.45408355914007
 30
0.0
 10
237.0009000047199
 20
61.25979248859321
 30
0.0
  0
SPLINE
  5
2AD
330
1F
100
AcDbEntity
  8
0
  6
Continuous
 62
     7
370
    25
100
AcDbSpline
210
0.0
220
0.0
230
1.0
 70
     8
 71
     3
 72
    10
 73
     6
 74
     0
 42
0.000000001
 43
0.00000001
 40
0.0
 40
0.0
 40
0.0
 40
0.0
 40
0.2950355258923527
 40
0.9801030833761959
 40
1.0
 40
1.0
 40
1.0
 40
1.0
 10
237.0036278607081
 20
61.25855393517084
 30
0.0
 10
237.0864524309686
 20
61.21978875348206
 30
0.0
 10
237.3615942683662
 20
61.09101146815045
 30
0.0
 10
237.6366612029064
 20
60.94974218826059
 30
0.0
 10
237.7852398134855
 20
60.85567945232174
 30
0.0
 10
237.7894332960443
 20
60.85302462575512
 30
0.0
  0
ARC
  5
2AE
330
1F
100
AcDbEntity
  8
0
  6
Continuous
 62
     7
370
    25
100
AcDbCircle
 10
241.0137364261
 20
47.0453349428
 30
0.0
 40
12.4665429179214
100
AcDbArc
 50
171.5249863735
 51
179.8211981812
  0
SPLINE
  5
2AF
330
1F
100
AcDbEntity
  8
0
  6
Continuous
 62
     7
370
    25
100
AcDbSpline
210
0.0
220
0.0
230
1.0
 70
     8
 71
     3
 72
    14
 73
    10
 74
     0
 42
0.000000001
 43
0.00000001
 40
0.0
 40
0.0
 40
0.0
 40
0.0
 40
0.0003951393068452
 40
0.0003951393068452
 40
0.0003951393068452
 40
0.0008163352168664
 40
0.0008163352168664
 40
0.0008163352168664
 40
0.0012378579337219
 40
0.0012378579337219
 40
0.0012378579337219
 40
0.0012378579337219
 10
236.5955501978695
 20
61.40380125733898
 30
0.0
 10
236.6410120121008
 20
61.38936439471394
 30
0.0
 10
236.6858996167219
 20
61.37449853414834
 30
0.0
 10
236.7301833093969
 20
61.35921474654286
 30
0.0
 10
236.7773866016363
 20
61.34292330720517
 30
0.0
 10
236.8239124146955
 20
61.32615382912125
 30
0.0
 10
236.8697233239371
 20
61.30892501832597
 30
0.0
 10
236.9155697119262
 20
61.29168286449433
 30
0.0
 10
236.9607089474986
 20
61.27397715828983
 30
0.0
 10
237.005102505541
 20
61.25583430159904
 30
0.0
  0
LINE
  5
2B0
330
1F
100
AcDbEntity
  8
0
  6
Continuous
 62
     7
370
    25
100
AcDbLine
 10
227.8923619916
 20
51.6919150479
 30
0.0
 11
227.2524253172
 21
52.104146688
 31
0.0
  0
LINE
  5
2B1
330
1F
100
AcDbEntity
  8
0
  6
Continuous
 62
     7
370
    25
100
AcDbLine
 10
226.946491222
 20
52.4756250748
 30
0.0
 11
227.2524253172
 21
52.104146688
 31
0.0
  0
SPLINE
  5
2B2
330
1F
100
AcDbEntity
  8
0
  6
Continuous
 62
     7
370
    25
100
AcDbSpline
210
0.0
220
0.0
230
1.0
 70
     8
 71
     3
 72
    13
 73
     9
 74
     0
 42
0.000000001
 43
0.00000001
 40
0.0
 40
0.0
 40
0.0
 40
0.0
 40
0.1618542298650875
 40
0.3254858841233149
 40
0.4910085196246548
 40
0.6585318472470939
 40
0.8281616954004768
 40
1.0
 40
1.0
 40
1.0
 40
1.0
 10
227.2524257288479
 20
52.10414669190907
 30
0.0
 10
227.2328483368329
 20
52.11670966894069
 30
0.0
 10
227.193478560991
 20
52.14197358505685
 30
0.0
 10
227.1319426212249
 20
52.17466728196971
 30
0.0
 10
227.0683859619769
 20
52.20361335567654
 30
0.0
 10
227.0027678593186
 20
52.22812572314354
 30
0.0
 10
226.9353405902594
 20
52.24856078649938
 30
0.0
 10
226.8894559900573
 20
52.25815744149062
 30
0.0
 10
226.86636530988
 20
52.26298680232626
 30
0.0
  0
SPLINE
  5
2B3
330
1F
100
AcDbEntity
  8
0
  6
Continuous
 62
     7
370
    25
100
AcDbSpline
210
0.0
220
0.0
230
1.0
 70
     8
 71
     3
 72
     9
 73
     5
 74
     0
 42
0.000000001
 43
0.00000001
 40
0.0
 40
0.0
 40
0.0
 40
0.0
 40
0.4907282259506041
 40
1.0
 40
1.0
 40
1.0
 40
1.0
 10
226.8663594825881
 20
52.26295880529525
 30
0.0
 10
226.8422659601102
 20
52.27105433751337
 30
0.0
 10
226.793168473551
 20
52.28755131443464
 30
0.0
 10
226.7424677797308
 20
52.30234498345088
 30
0.0
 10
226.7166473474435
 20
52.30987898151547
 30
0.0
  0
SPLINE
  5
2B4
330
1F
100
AcDbEntity
  8
0
  6
Continuous
 62
     7
370
    25
100
AcDbSpline
210
0.0
220
0.0
230
1.0
 70
     8
 71
     3
 72
    14
 73
    10
 74
     0
 42
0.000000001
 43
0.00000001
 40
0.0
 40
0.0
 40
0.0
 40
0.0
 40
0.0310276388093398
 40
0.0622853718693698
 40
0.1248003166924349
 40
0.2498289731770658
 40
0.4998892603621822
 40
0.7606803621577949
 40
1.0
 40
1.0
 40
1.0
 40
1.0
 10
226.1327066581555
 20
52.68398672416136
 30
0.0
 10
226.1386988975603
 20
52.6801556805074
 30
0.0
 10
226.1507278135199
 20
52.67246518300933
 30
0.0
 10
226.1747876215695
 20
52.65702729350238
 30
0.0
 10
226.2170212942158
 20
52.6299568405715
 30
0.0
 10
226.3015838687282
 20
52.57574481577605
 30
0.0
 10
226.4248708381966
 20
52.49674163391129
 30
0.0
 10
226.5710025446503
 20
52.40313545923355
 30
0.0
 10
226.6693691611914
 20
52.34015238284108
 30
0.0
 10
226.7164408618779
 20
52.31001288405059
 30
0.0
  0
LINE
  5
2B5
330
1F
100
AcDbEntity
  8
0
  6
Continuous
 62
     7
370
    25
100
AcDbLine
 10
224.3302065029
 20
53.8466174012
 30
0.0
 11
224.6211738571
 21
53.658538862
 31
0.0
  0
SPLINE
  5
2B6
330
1F
100
AcDbEntity
  8
0
  6
Continuous
 62
     7
370
    25
100
AcDbSpline
210
0.0
220
0.0
230
1.0
 70
     8
 71
     3
 72
     8
 73
     4
 74
     0
 42
0.000000001
 43
0.00000001
 40
0.0
 40
0.0
 40
0.0
 40
0.0
 40
1.0
 40
1.0
 40
1.0
 40
1.0
 10
224.6525621604504
 20
53.63831633185016
 30
0.0
 10
224.6421196545986
 20
53.64514175674758
 30
0.0
 10
224.6316537217088
 20
53.6518847235341
 30
0.0
 10
224.6211659568923
 20
53.65854381118708
 30
0.0
  0
SPLINE
  5
2B7
330
1F
100
AcDbEntity
  8
0
  6
Continuous
 62
     7
370
    25
100
AcDbSpline
210
0.0
220
0.0
230
1.0
 70
     8
 71
     3
 72
     8
 73
     4
 74
     0
 42
0.000000001
 43
0.00000001
 40
0.0
 40
0.0
 40
0.0
 40
0.0
 40
1.0
 40
1.0
 40
1.0
 40
1.0
 10
221.8665577816266
 20
55.51657198365925
 30
0.0
 10
221.9255575457966
 20
55.47783131674029
 30
0.0
 10
221.9848451093071
 20
55.43976933944099
 30
0.0
 10
222.0444261827955
 20
55.4023855509807
 30
0.0
  0
SPLINE
  5
2B8
330
1F
100
AcDbEntity
  8
0
  6
Continuous
 62
     7
370
    25
100
AcDbSpline
210
0.0
220
0.0
230
1.0
 70
     8
 71
     3
 72
     8
 73
     4
 74
     0
 42
0.000000001
 43
0.00000001
 40
0.0
 40
0.0
 40
0.0
 40
0.0
 40
1.0
 40
1.0
 40
1.0
 40
1.0
 10
221.8417080355271
 20
55.87978216159757
 30
0.0
 10
221.8491822476176
 20
55.75882432088574
 30
0.0
 10
221.8574783515077
 20
55.63775247847508
 30
0.0
 10
221.8665577816266
 20
55.51657198365925
 30
0.0
  0
LWPOLYLINE
  5
2B9
330
1F
100
AcDbEntity
  8
0
  6
Continuous
 62
     7
370
    25
100
AcDbPolyline
 90
       16
 70
   128
 43
0.0
 10
221.8417083943
 20
55.8797814962
 10
222.2156187707
 20
56.9383617066
 10
222.6636173799
 20
57.9900733084
 10
223.1808151874
 20
59.0234398544
 10
223.7615687961
 20
60.0271859205
 10
224.3995416907
 20
60.9903595345
 10
225.0877723973
 20
61.9024498513
 10
225.8187515328
 20
62.7535065383
 10
226.5845028062
 20
63.5342420503
 10
227.3766706046
 20
64.236136945
 10
228.1866113669
 20
64.851533697
 10
229.0054872611
 20
65.373716632
 10
229.8243631552
 20
65.7969876798
 10
230.6343039175
 20
66.116728627
 10
231.426471716
 20
66.3294512042
 10
231.8056708633
 20
66.3938891876
  0
SPLINE
  5
2BA
330
1F
100
AcDbEntity
  8
0
  6
Continuous
 62
     7
370
    25
100
AcDbSpline
210
0.0
220
0.0
230
1.0
 70
     8
 71
     3
 72
    10
 73
     6
 74
     0
 42
0.000000001
 43
0.00000001
 40
0.0
 40
0.0
 40
0.0
 40
0.0
 40
0.2409818396634726
 40
0.5031433556203718
 40
1.0
 40
1.0
 40
1.0
 40
1.0
 10
227.8923619915657
 20
44.98607342464374
 30
0.0
 10
227.9746078625687
 20
44.93439690272319
 30
0.0
 10
228.1463281199132
 20
44.82650205603181
 30
0.0
 10
228.4240494789401
 20
44.69677934556756
 30
0.0
 10
228.5450267259841
 20
44.71955728667255
 30
0.0
 10
228.6242189668996
 20
44.73446782765129
 30
0.0
  0
LINE
  5
2BB
330
1F
100
AcDbEntity
  8
0
  6
Continuous
 62
     7
370
    25
100
AcDbLine
 10
223.1091879354
 20
54.7151461576
 30
0.0
 11
222.3473092331
 21
55.2057805653
 31
0.0
  0
LINE
  5
2BC
330
1F
100
AcDbEntity
  8
0
  6
Continuous
 62
     7
370
    25
100
AcDbLine
 10
222.3473092331
 20
55.2057805653
 30
0.0
 11
221.8665579128
 21
55.5165719413
 31
0.0
  0
LINE
  5
2BD
330
1F
100
AcDbEntity
  8
0
  6
Continuous
 62
     7
370
    25
100
AcDbLine
 10
226.946491222
 20
44.7102936237
 30
0.0
 11
227.2524253172
 21
45.3983050648
 31
0.0
  0
LINE
  5
2BE
330
1F
100
AcDbEntity
  8
0
  6
Continuous
 62
     7
370
    25
100
AcDbLine
 10
227.2524253172
 20
45.3983050648
 30
0.0
 11
227.8923619916
 21
44.9860734246
 31
0.0
  0
SPLINE
  5
2BF
330
1F
100
AcDbEntity
  8
0
  6
Continuous
 62
     7
370
    25
100
AcDbSpline
210
0.0
220
0.0
230
1.0
 70
     8
 71
     3
 72
    13
 73
     9
 74
     0
 42
0.000000001
 43
0.00000001
 40
0.0
 40
0.0
 40
0.0
 40
0.0
 40
0.1722587823402174
 40
0.3421398270982735
 40
0.5097456257612809
 40
0.6751828993009421
 40
0.8385626189970466
 40
1.0
 40
1.0
 40
1.0
 40
1.0
 10
226.8663537980747
 20
45.67961477016236
 30
0.0
 10
226.8895053220254
 20
45.66149517922935
 30
0.0
 10
226.9354888027742
 20
45.62550610729531
 30
0.0
 10
227.0030298154851
 20
45.57450612388012
 30
0.0
 10
227.0686894301704
 20
45.52618144368946
 30
0.0
 10
227.1322135014208
 20
45.48075043778012
 30
0.0
 10
227.1936438801426
 20
45.4379248700199
 30
0.0
 10
227.2329100471163
 20
45.41145905284445
 30
0.0
 10
227.2524257288479
 20
45.39830527429735
 30
0.0
  0
SPLINE
  5
2C0
330
1F
100
AcDbEntity
  8
0
  6
Continuous
 62
     7
370
    25
100
AcDbSpline
210
0.0
220
0.0
230
1.0
 70
     8
 71
     3
 72
    11
 73
     7
 74
     0
 42
0.000000001
 43
0.00000001
 40
0.0
 40
0.0
 40
0.0
 40
0.0
 40
0.2392845096574327
 40
0.5001120454060707
 40
0.7515010914954734
 40
1.0
 40
1.0
 40
1.0
 40
1.0
 10
226.7169733865986
 20
45.72692876237523
 30
0.0
 10
226.6699041545509
 20
45.69861423964112
 30
0.0
 10
226.5715279999526
 20
45.63943600909239
 30
0.0
 10
226.4252307783748
 20
45.54624810862485
 30
0.0
 10
226.2773900347884
 20
45.45087619265148
 30
0.0
 10
226.1811035720597
 20
45.38634093740388
 30
0.0
 10
226.1332386841944
 20
45.35425986735266
 30
0.0
  0
SPLINE
  5
2C1
330
1F
100
AcDbEntity
  8
0
  6
Continuous
 62
     7
370
    25
100
AcDbSpline
210
0.0
220
0.0
230
1.0
 70
     8
 71
     3
 72
     9
 73
     5
 74
     0
 42
0.000000001
 43
0.00000001
 40
0.0
 40
0.0
 40
0.0
 40
0.0
 40
0.509066935386983
 40
0.9999999999999999
 40
0.9999999999999999
 40
0.9999999999999999
 40
0.9999999999999999
 10
226.7175443901828
 20
45.72622980816347
 30
0.0
 10
226.7431929648067
 20
45.71873710000359
 30
0.0
 10
226.7935764661522
 20
45.70401858729132
 30
0.0
 10
226.8423839776475
 20
45.68762622943915
 30
0.0
 10
226.866345198842
 20
45.67957867896256
 30
0.0
  0
LINE
  5
2C2
330
1F
100
AcDbEntity
  8
0
  6
Continuous
 62
     7
370
    25
100
AcDbLine
 10
228.5474629703
 20
46.6501083754
 30
0.0
 11
226.866347014
 21
45.6796207912
 31
0.0
  0
LINE
  5
2C3
330
1F
100
AcDbEntity
  8
0
  6
Continuous
 62
     7
370
    25
100
AcDbLine
 10
224.8598593627
 20
46.8034420899
 30
0.0
 11
224.6595637092
 21
46.3022846756
 31
0.0
  0
SPLINE
  5
2C4
330
1F
100
AcDbEntity
  8
0
  6
Continuous
 62
     7
370
    25
100
AcDbSpline
210
0.0
220
0.0
230
1.0
 70
     8
 71
     3
 72
     8
 73
     4
 74
     0
 42
0.000000001
 43
0.00000001
 40
0.0
 40
0.0
 40
0.0
 40
0.0
 40
1.0
 40
1.0
 40
1.0
 40
1.0
 10
224.8594161920425
 20
46.80422584202481
 30
0.0
 10
224.8855915266118
 20
46.82639321900308
 30
0.0
 10
224.9114125665773
 20
46.8490253600947
 30
0.0
 10
224.9368701202856
 20
46.87211008018598
 30
0.0
  0
LINE
  5
2C5
330
1F
100
AcDbEntity
  8
0
  6
Continuous
 62
     7
370
    25
100
AcDbLine
 10
224.936870216
 20
46.8721099646
 30
0.0
 11
226.7171629753
 21
45.7263390794
 31
0.0
  0
LINE
  5
2C6
330
1F
100
AcDbEntity
  8
0
  6
Continuous
 62
     7
370
    25
100
AcDbLine
 10
228.5472542117
 20
46.7481583106
 30
0.0
 11
228.4592548847
 21
46.855649379
 31
0.0
  0
LINE
  5
2C7
330
1F
100
AcDbEntity
  8
0
  6
Continuous
 62
     7
370
    25
100
AcDbLine
 10
226.6308468881
 20
47.8500218819
 30
0.0
 11
224.936870216
 21
46.8721099646
 31
0.0
  0
LINE
  5
2C8
330
1F
100
AcDbEntity
  8
0
  6
Continuous
 62
     7
370
    25
100
AcDbLine
 10
226.7735409706
 20
47.8287297202
 30
0.0
 11
226.6312670395
 21
47.8495345044
 31
0.0
  0
LINE
  5
2C9
330
1F
100
AcDbEntity
  8
0
  6
Continuous
 62
     7
370
    25
100
AcDbLine
 10
228.4593286417
 20
46.8555452125
 30
0.0
 11
226.7735409706
 21
47.8287297202
 31
0.0
  0
LINE
  5
2CA
330
1F
100
AcDbEntity
  8
0
  6
Continuous
 62
     7
370
    25
100
AcDbLine
 10
228.5472542117
 20
46.8047811296
 30
0.0
 11
228.4592818851
 21
46.8555721859
 31
0.0
  0
SPLINE
  5
2CB
330
1F
100
AcDbEntity
  8
0
  6
Continuous
 62
     7
370
    25
100
AcDbSpline
210
0.0
220
0.0
230
1.0
 70
     8
 71
     3
 72
    19
 73
    15
 74
     0
 42
0.000000001
 43
0.00000001
 40
0.0
 40
0.0
 40
0.0
 40
0.0
 40
0.0637853009172641
 40
0.1289628367748405
 40
0.1955871994416645
 40
0.2637095015536399
 40
0.333377557949238
 40
0.4046360709686026
 40
0.4775268158973639
 40
0.5520888236427515
 40
0.6283585584336152
 40
0.7063700889344581
 40
0.8377041806176546
 40
0.9999999999999999
 40
0.9999999999999999
 40
0.9999999999999999
 40
0.9999999999999999
 10
224.0753470860812
 20
46.97271392937669
 30
0.0
 10
224.0960364550878
 20
46.95935478936546
 30
0.0
 10
224.1378667777452
 20
46.93234492082295
 30
0.0
 10
224.1983577513434
 20
46.89482295529489
 30
0.0
 10
224.2578419495251
 20
46.85930321420358
 30
0.0
 10
224.3159231089981
 20
46.82632308528716
 30
0.0
 10
224.3724552260857
 20
46.79611664901746
 30
0.0
 10
224.4272002808389
 20
46.76900320905693
 30
0.0
 10
224.4799226584296
 20
46.74527159130808
 30
0.0
 10
224.5303642913581
 20
46.72523133786443
 30
0.0
 10
224.5782472098205
 20
46.70911147632698
 30
0.0
 10
224.6332113641956
 20
46.69483350664224
 30
0.0
 10
224.6960426781568
 20
46.68469494939174
 30
0.0
 10
224.7345501938168
 20
46.69116920070753
 30
0.0
 10
224.7558341590087
 20
46.6947476642175
 30
0.0
  0
LINE
  5
2CC
330
1F
100
AcDbEntity
  8
0
  6
Continuous
 62
     7
370
    25
100
AcDbLine
 10
224.7804698466
 20
46.7208181185
 30
0.0
 11
224.84818271
 21
46.7924726388
 31
0.0
  0
SPLINE
  5
2CD
330
1F
100
AcDbEntity
  8
0
  6
Continuous
 62
     7
370
    25
100
AcDbSpline
210
0.0
220
0.0
230
1.0
 70
     8
 71
     3
 72
     9
 73
     5
 74
     0
 42
0.000000001
 43
0.00000001
 40
0.0
 40
0.0
 40
0.0
 40
0.0
 40
0.5232016984460688
 40
1.0
 40
1.0
 40
1.0
 40
1.0
 10
226.4646691083956
 20
47.75408966110957
 30
0.0
 10
226.395644945747
 20
47.77913182622607
 30
0.0
 10
226.263718457638
 20
47.8269951362858
 30
0.0
 10
226.0222810448194
 20
47.96459326697246
 30
0.0
 10
225.9071640964559
 20
48.03019982198085
 30
0.0
  0
LINE
  5
2CE
330
1F
100
AcDbEntity
  8
0
  6
Continuous
 62
     7
370
    25
100
AcDbLine
 10
222.1776628994
 20
47.7960893846
 30
0.0
 11
222.6291340138
 21
47.9083533575
 31
0.0
  0
LINE
  5
2CF
330
1F
100
AcDbEntity
  8
0
  6
Continuous
 62
     7
370
    25
100
AcDbLine
 10
222.6291340138
 20
47.9083533575
 30
0.0
 11
224.0753464856
 21
46.9727140245
 31
0.0
  0
SPLINE
  5
2D0
330
1F
100
AcDbEntity
  8
0
  6
Continuous
 62
     7
370
    25
100
AcDbSpline
210
0.0
220
0.0
230
1.0
 70
     8
 71
     3
 72
     8
 73
     4
 74
     0
 42
0.000000001
 43
0.00000001
 40
0.0
 40
0.0
 40
0.0
 40
0.0
 40
1.0
 40
1.0
 40
1.0
 40
1.0
 10
222.348451470098
 20
47.40133973159337
 30
0.0
 10
222.2913262011739
 20
47.53312591538893
 30
0.0
 10
222.2343977094564
 20
47.66471013704964
 30
0.0
 10
222.177663591507
 20
47.79608920395092
 30
0.0
  0
LINE
  5
2D1
330
1F
100
AcDbEntity
  8
0
  6
Continuous
 62
     7
370
    25
100
AcDbLine
 10
223.9668354729
 20
48.6805919722
 30
0.0
 11
222.6291340138
 21
47.9083533575
 31
0.0
  0
LINE
  5
2D2
330
1F
100
AcDbEntity
  8
0
  6
Continuous
 62
     7
370
    25
100
AcDbLine
 10
224.9498639577
 20
48.5828385694
 30
0.0
 11
223.9668354729
 21
48.6805919722
 31
0.0
  0
LINE
  5
2D3
330
1F
100
AcDbEntity
  8
0
  6
Continuous
 62
     7
370
    25
100
AcDbLine
 10
225.9071640965
 20
48.030199822
 30
0.0
 11
224.9498629699
 21
48.5828379991
 31
0.0
  0
SPLINE
  5
2D4
330
1F
100
AcDbEntity
  8
0
  6
Continuous
 62
     7
370
    25
100
AcDbSpline
210
0.0
220
0.0
230
1.0
 70
     8
 71
     3
 72
     8
 73
     4
 74
     0
 42
0.000000001
 43
0.00000001
 40
0.0
 40
0.0
 40
0.0
 40
0.0
 40
1.0
 40
1.0
 40
1.0
 40
1.0
 10
222.1776635915091
 20
47.79608920394604
 30
0.0
 10
222.174526253759
 20
47.83130551081856
 30
0.0
 10
222.1725338498611
 20
47.86694976704626
 30
0.0
 10
222.171752452489
 20
47.90304666904113
 30
0.0
  0
LINE
  5
2D5
330
1F
100
AcDbEntity
  8
0
  6
Continuous
 62
     7
370
    25
100
AcDbLine
 10
222.9828389276
 20
48.3712763837
 30
0.0
 11
222.171753121
 21
47.9030465142
 31
0.0
  0
SPLINE
  5
2D6
330
1F
100
AcDbEntity
  8
0
  6
Continuous
 62
     7
370
    25
100
AcDbSpline
210
0.0
220
0.0
230
1.0
 70
     8
 71
     3
 72
     8
 73
     4
 74
     0
 42
0.000000001
 43
0.00000001
 40
0.0000004089325119
 40
0.0000004089325119
 40
0.0000004089325119
 40
0.0000004089325119
 40
0.0015399868451459
 40
0.0015399868451459
 40
0.0015399868451459
 40
0.0015399868451459
 10
222.9828379849777
 20
48.37127638039725
 30
0.0
 10
223.221314553001
 20
48.4656527662136
 30
0.0
 10
223.4597615106697
 20
48.56008137814381
 30
0.0
 10
223.69817024952
 20
48.65457476110627
 30
0.0
  0
LINE
  5
2D7
330
1F
100
AcDbEntity
  8
0
  6
Continuous
 62
     7
370
    25
100
AcDbLine
 10
223.6981697285
 20
48.6545749082
 30
0.0
 11
223.7225661683
 21
48.6595689346
 31
0.0
  0
LINE
  5
2D8
330
1F
100
AcDbEntity
  8
0
  6
Continuous
 62
     7
370
    25
100
AcDbLine
 10
223.9668354729
 20
48.6805919722
 30
0.0
 11
223.7225668269
 21
48.6595689346
 31
0.0
  0
SPLINE
  5
2D9
330
1F
100
AcDbEntity
  8
0
  6
Continuous
 62
     7
370
    25
100
AcDbSpline
210
0.0
220
0.0
230
1.0
 70
     8
 71
     3
 72
     8
 73
     4
 74
     0
 42
0.000000001
 43
0.00000001
 40
0.0
 40
0.0
 40
0.0
 40
0.0
 40
1.0
 40
1.0
 40
1.0
 40
1.0
 10
224.949862164028
 20
48.58283875369324
 30
0.0
 10
224.9804701981513
 20
48.56789874588711
 30
0.0
 10
225.0110216991232
 20
48.55302178849374
 30
0.0
 10
225.0415156372378
 20
48.53820822481282
 30
0.0
  0
LWPOLYLINE
  5
2DA
330
1F
100
AcDbEntity
  8
0
  6
Continuous
 62
     7
370
    25
100
AcDbPolyline
 90
        3
 70
   128
 43
0.0
 10
228.5896352963
 20
48.071288683
 10
228.1151056164
 20
47.8733263773
 10
227.3782509468
 20
47.6472840454
  0
LWPOLYLINE
  5
2DB
330
1F
100
AcDbEntity
  8
0
  6
Continuous
 62
     7
370
    18
100
AcDbPolyline
 90
       19
 70
   128
 43
0.0
 10
266.4686631812
 20
29.7241586669
 10
266.5104514522
 20
30.4383676148
 10
266.6350026335
 20
31.1869228029
 10
266.8398926228
 20
31.9552546551
 10
267.1211332746
 20
32.7284083776
 10
267.4732507668
 20
33.4913352084
 10
267.8893916269
 20
34.2291860417
 10
268.3614557573
 20
34.9275993453
 10
268.8802553097
 20
35.5729807108
 10
269.4356923272
 20
36.1527694746
 10
270.016955814
 20
36.655680051
 10
270.6127322429
 20
37.0719242173
 10
271.2114254478
 20
37.3934000323
 10
271.8013825041
 20
37.6138503722
 10
272.3711207211
 20
37.7289844636
 10
272.9095504975
 20
37.7365612888
 10
273.4061921675
 20
37.6364333982
 10
273.8513791208
 20
37.4305497197
 10
273.96289606
 20
37.3563825268
  0
ARC
  5
2DC
330
1F
100
AcDbEntity
  8
0
  6
Continuous
 62
     7
370
    18
100
AcDbCircle
 10
269.4178989764
 20
29.4035176123
 30
0.0
 40
2.966614646699115
100
AcDbArc
 50
173.7951706956
 51
239.2316749604
  0
LWPOLYLINE
  5
2DD
330
1F
100
AcDbEntity
  8
0
  6
Continuous
 62
     7
370
    18
100
AcDbPolyline
 90
       42
 70
   128
 43
0.0
 10
267.8252174524
 20
29.7549280779
 10
267.8672786901
 20
30.4118556557
 10
267.99247755
 20
31.101948915
 10
268.1978788991
 20
31.8090322775
 10
268.4786684479
 20
32.5165322391
 10
268.8282647025
 20
33.2078659078
 10
269.2384735582
 20
33.8668288736
 10
269.6996797714
 20
34.4779756115
 10
270.2010733339
 20
35.0269809655
 10
270.7309019428
 20
35.5009775329
 10
271.2767467862
 20
35.8888546071
 10
271.8258138056
 20
36.1815209972
 10
272.3652332509
 20
36.3721163612
 10
272.8823616643
 20
36.4561737499
 10
273.3650780814
 20
36.4317232997
 10
273.802067802
 20
36.2993370375
 10
274.1830883188
 20
36.0621188981
 10
274.4992087804
 20
35.7256287031
 10
274.7430194087
 20
35.2977534333
 10
274.9088060129
 20
34.7885224193
 10
274.9926821927
 20
34.209871372
 10
274.9926821927
 20
33.5753634267
 10
274.9088060129
 20
32.8998710035
 10
274.7430194087
 20
32.1992268506
 10
274.4992087804
 20
31.4898538212
 10
274.1830883188
 20
30.7883787102
 10
273.802067802
 20
30.1112436459
 10
273.3650780814
 20
29.4743197916
 10
272.8823616643
 20
28.8925368295
 10
272.3652332509
 20
28.379530461
 10
271.8258138056
 20
27.9473253901
 10
271.2767467862
 20
27.6060524933
 10
270.7309019428
 20
27.3637105259
 10
270.2010733339
 20
27.2259800025
 10
269.6996797714
 20
27.1960886714
 10
269.2384735582
 20
27.2747380501
 10
268.8282647025
 20
27.4600839523
 10
268.4786684479
 20
27.7477823771
 10
268.1978788991
 20
28.1310896262
 10
267.99247755
 20
28.601021639
 10
267.8672786901
 20
29.1465633715
 10
267.8252174524
 20
29.7549280779
  0
LWPOLYLINE
  5
2DE
330
1F
100
AcDbEntity
  8
0
  6
Continuous
 62
     7
370
    18
100
AcDbPolyline
 90
       33
 70
   128
 43
0.0
 10
269.2799215264
 20
30.5947108645
 10
269.3209313978
 20
31.0992056556
 10
269.4423849504
 20
31.631661963
 10
269.6396149146
 20
32.1716178319
 10
269.9050416079
 20
32.6983229849
 10
270.2284651634
 20
33.1915363779
 10
270.597456377
 20
33.6323043543
 10
270.99783518
 20
34.0036881973
 10
271.4142152152
 20
34.291415961
 10
271.8305952504
 20
34.484430353
 10
272.2309740534
 20
34.5753140364
 10
272.5999652669
 20
34.5605742468
 10
272.9233888225
 20
34.4407777427
 10
273.1888155157
 20
34.2205277266
 10
273.38604548
 20
33.9082887274
 10
273.5074990326
 20
33.516059707
 10
273.548508904
 20
33.0589139056
 10
273.5074990326
 20
32.5544191146
 10
273.38604548
 20
32.0219628071
 10
273.1888155157
 20
31.4820069382
 10
272.9233888225
 20
30.9553017852
 10
272.5999652669
 20
30.4620883923
 10
272.2309740534
 20
30.0213204158
 10
271.8305952504
 20
29.6499365729
 10
271.4142152152
 20
29.3622088092
 10
270.99783518
 20
29.1691944172
 10
270.597456377
 20
29.0783107337
 10
270.2284651634
 20
29.0930505233
 10
269.9050416079
 20
29.2128470274
 10
269.6396149146
 20
29.4330970435
 10
269.4423849504
 20
29.7453360428
 10
269.3209313978
 20
30.1375650632
 10
269.2799215264
 20
30.5947108645
  0
LWPOLYLINE
  5
2DF
330
1F
100
AcDbEntity
  8
0
  6
Continuous
 62
     7
370
    18
100
AcDbPolyline
 90
       18
 70
   128
 43
0.0
 10
272.5482511661
 20
34.3643667557
 10
272.5797684477
 20
34.3504904837
 10
272.8539741155
 20
34.1571188227
 10
273.0588711841
 20
33.865587269
 10
273.1855043539
 20
33.4886368879
 10
273.2283395461
 20
33.0427425341
 10
273.1855043539
 20
32.5473917201
 10
273.0588711841
 20
32.0242337933
 10
272.8539741155
 20
31.4961331196
 10
272.5797684477
 20
30.9861703334
 10
272.2482382093
 20
30.5166331923
 10
271.8738728198
 20
30.108042925
 10
271.4730338382
 20
29.7782565286
 10
271.0632399066
 20
29.5416875274
 10
270.6624009251
 20
29.4086750866
 10
270.2880355356
 20
29.3850322756
 10
269.9565052971
 20
29.471792751
 10
269.7138901741
 20
29.6345870373
  0
LWPOLYLINE
  5
2E0
330
1F
100
AcDbEntity
  8
0
  6
Continuous
 62
     7
370
    18
100
AcDbPolyline
 90
       28
 70
   128
 43
0.0
 10
242.7763911514
 20
40.6031995051
 10
242.8171616419
 20
41.4800847739
 10
242.938979205
 20
42.3933988765
 10
243.1403640911
 20
43.3320550683
 10
243.4188731003
 20
44.2846598482
 10
243.7711246063
 20
45.2396499347
 10
244.1928426798
 20
46.1854322822
 10
244.6789084542
 20
47.1105266627
 10
245.2234220294
 20
48.0037042546
 10
245.8197732648
 20
48.8541220477
 10
246.4607234391
 20
49.651458578
 10
247.1384925077
 20
50.3860335028
 10
247.8448531092
 20
51.0489314519
 10
248.5712308296
 20
51.632105156
 10
249.3088086634
 20
52.1284760556
 10
250.0486332864
 20
52.5320184653
 10
250.7817242918
 20
52.8378340403
 10
251.4991829323
 20
53.0422107509
 10
252.1923002038
 20
53.1426677859
 10
252.8526624593
 20
53.1379853446
 10
253.4722540596
 20
53.0282205483
 10
254.0435539326
 20
52.8147057684
 10
254.5596272754
 20
52.5000327427
 10
255.0142096833
 20
52.0880212938
 10
255.4017832118
 20
51.5836727434
 10
255.7176428898
 20
50.993108689
 10
255.9579543419
 20
50.3234979938
 10
256.0555262718
 20
49.9305491072
  0
LWPOLYLINE
  5
2E1
330
1F
100
AcDbEntity
  8
0
  6
Continuous
 62
     7
370
    18
100
AcDbPolyline
 90
       14
 70
   128
 43
0.0
 10
248.0561762552
 20
36.0737669576
 10
247.8448531092
 20
36.0093891731
 10
247.1384925077
 20
35.856740531
 10
246.4607234391
 20
35.8087799461
 10
245.8197732648
 20
35.8660911569
 10
245.2234220294
 20
36.0279764694
 10
244.6789084542
 20
36.2924720693
 10
244.1928426798
 20
36.6563668521
 10
243.7711246063
 20
37.1152438761
 10
243.4188731003
 20
37.6635330306
 10
243.1403640911
 20
38.2945781531
 10
242.938979205
 20
39.0007203045
 10
242.8171616419
 20
39.7733868426
 10
242.7763911514
 20
40.6031995051
  0
LWPOLYLINE
  5
2E2
330
1F
100
AcDbEntity
  8
0
  6
Continuous
 62
     7
370
    18
100
AcDbPolyline
 90
       29
 70
   128
 43
0.0
 10
232.0725622778
 20
41.6900425051
 10
232.113756871
 20
42.8184980791
 10
232.2370344272
 20
43.9861603607
 10
232.4414828625
 20
45.1843850637
 10
232.7255888414
 20
46.4043009601
 10
233.0872483143
 20
47.6368758493
 10
233.5237836392
 20
48.8729840477
 10
234.0319633382
 20
50.103474448
 10
234.6080251466
 20
51.3192370578
 10
235.2477036715
 20
52.5112695375
 10
235.9462626609
 20
53.67074792
 10
236.6985305647
 20
54.7890866844
 10
237.4989387306
 20
55.8580071937
 10
238.3415599287
 20
56.8695941556
 10
239.2201560962
 20
57.8163596874
 10
240.1282224597
 20
58.6912931216
 10
241.059036103
 20
59.4879164205
 10
242.005705687
 20
60.2003334114
 10
242.9612221374
 20
60.8232681734
 10
243.9185112661
 20
61.3521091032
 10
244.8704857554
 20
61.7829412069
 10
245.810097224
 20
62.1125738752
 10
246.7303893017
 20
62.3385669601
 10
247.6245485223
 20
62.4592479876
 10
248.4859550318
 20
62.4737231793
 10
249.3082308266
 20
62.3818847678
 10
250.0852883213
 20
62.1844131782
 10
250.8113744711
 20
61.8827697994
 10
251.0687659335
 20
61.7435980489
  0
LWPOLYLINE
  5
2E3
330
1F
100
AcDbEntity
  8
0
  6
Continuous
 62
     7
370
    18
100
AcDbPolyline
 90
       11
 70
   128
 43
0.0
 10
235.332544619
 20
34.4847096551
 10
235.2477036715
 20
34.534755694
 10
234.6080251466
 20
34.9882310694
 10
234.0319633382
 20
35.5388868725
 10
233.5237836392
 20
36.1826454813
 10
233.0872483143
 20
36.9147407217
 10
232.7255888414
 20
37.7297524716
 10
232.4414828625
 20
38.6216465869
 10
232.2370344272
 20
39.5838201511
 10
232.113756871
 20
40.6091491959
 10
232.0725622778
 20
41.6900425051
  0
LWPOLYLINE
  5
2E4
330
1F
100
AcDbEntity
  8
0
  6
Continuous
 62
     7
370
    18
100
AcDbPolyline
 90
       14
 70
   128
 43
0.0
 10
236.6966437163
 20
38.3544058773
 10
236.6233569322
 20
38.743830021
 10
236.5072700234
 20
39.7180683078
 10
236.474845926
 20
40.7485298775
 10
236.5263605702
 20
41.8264294449
 10
236.6613740481
 20
42.9425772492
 10
236.8787371997
 20
44.0874588314
 10
237.176594905
 20
45.2513128735
 10
237.5524091336
 20
46.4242178545
 10
238.0029754077
 20
47.5961743682
 10
238.524453096
 20
48.7571906728
 10
239.1123957058
 20
49.8973693808
 10
239.7617917135
 20
51.0069911061
 10
240.4671047354
 20
52.0765943085
  0
LWPOLYLINE
  5
2E5
330
1F
100
AcDbEntity
  8
0
  6
Continuous
 62
     7
370
    18
100
AcDbPolyline
 90
       18
 70
   128
 43
0.0
 10
237.2084394832
 20
35.4244781764
 10
236.9585758431
 20
35.7923169898
 10
236.5603361984
 20
36.5327976833
 10
236.2402835675
 20
37.356264538
 10
236.0010771532
 20
38.255872188
 10
235.8447057598
 20
39.2241437655
 10
235.7724693541
 20
40.253031764
 10
235.7849678704
 20
41.3339839851
 10
235.8820972584
 20
42.4580159262
 10
236.0630508012
 20
43.6157852574
 10
236.3263237246
 20
44.7976687472
 10
236.6697283437
 20
45.9938431314
 10
237.0904105267
 20
47.1943661959
 10
237.5848740607
 20
48.3892606153
 10
238.1490076524
 20
49.5685924684
 10
238.7781237819
 20
50.7225621099
 10
239.4669929474
 20
51.8415764107
 10
240.2098897629
 20
52.9163362075
  0
LWPOLYLINE
  5
2E6
330
1F
100
AcDbEntity
  8
0
  6
Continuous
 62
     7
370
    18
100
AcDbPolyline
 90
        8
 70
   128
 43
0.0
 10
244.8977111841
 20
40.6031991249
 10
244.9389564852
 20
39.8396245893
 10
245.0620894909
 20
39.1348046684
 10
245.265315009
 20
38.4990174241
 10
245.5456699184
 20
37.9415341754
 10
245.8990659748
 20
37.470484559
 10
246.3203494089
 20
37.092736799
 10
246.554890694
 20
36.9404408426
  0
LWPOLYLINE
  5
2E7
330
1F
100
AcDbEntity
  8
0
  6
Continuous
 62
     7
370
    18
100
AcDbPolyline
 90
       21
 70
   128
 43
0.0
 10
254.5542407106
 20
50.797222612
 10
254.305754087
 20
50.9238633799
 10
253.7680251667
 20
51.099921642
 10
253.1834370179
 20
51.1705348094
 10
252.5605138409
 20
51.1346724153
 10
251.9083395163
 20
50.9928575188
 10
251.2364241264
 20
50.7471584709
 10
250.5545657023
 20
50.4011585326
 10
249.8727072781
 20
49.9599014917
 10
249.2007918883
 20
49.4298235433
 10
248.5486175636
 20
48.8186539922
 10
247.9256943866
 20
48.135304595
 10
247.3411062379
 20
47.3897403179
 10
246.8033773175
 20
46.5928334594
 10
246.3203494089
 20
45.7562045827
 10
245.8990659748
 20
44.892053323
 10
245.5456699184
 20
44.0129813049
 10
245.265315009
 20
43.1318071677
 10
245.0620894909
 20
42.2613807347
 10
244.9389564852
 20
41.4143944714
 10
244.8977111841
 20
40.6031991249
  0
LINE
  5
2E8
330
1F
100
AcDbEntity
  8
0
  6
Continuous
 62
     7
370
    18
100
AcDbLine
 10
243.2018132084
 20
54.3173567749
 30
0.0
 11
243.2449728984
 21
54.362583537
 31
0.0
  0
ARC
  5
2E9
330
1F
100
AcDbEntity
  8
0
  6
Continuous
 62
     7
370
    18
100
AcDbCircle
 10
253.369053
 20
45.0235673423
 30
0.0
 40
14.48276781206998
100
AcDbArc
 50
110.0665409331
 51
139.2901057068
  0
LWPOLYLINE
  5
2EA
330
1F
100
AcDbEntity
  8
0
  6
Continuous
 62
     7
370
    18
100
AcDbPolyline
 90
       12
 70
   128
 43
0.0
 10
241.5540828244
 20
54.5884997248
 10
242.4221653289
 20
55.514871769
 10
243.3205451612
 20
56.3643454343
 10
244.2415446803
 20
57.1296588304
 10
245.1772925507
 20
57.8042732377
 10
246.1197913048
 20
58.3824219968
 10
247.0609860996
 20
58.8591638883
 10
247.9928329992
 20
59.2304248338
 10
248.9073680808
 20
59.4930317052
 10
249.7967752442
 20
59.644740825
 10
250.6534530749
 20
59.684254511
 10
251.1930463347
 20
59.6491528139
  0
LINE
  5
2EB
330
1F
100
AcDbEntity
  8
0
  6
Continuous
 62
     7
370
    18
100
AcDbLine
 10
227.5861980644
 20
52.0626501038
 30
0.0
 11
227.8923619916
 21
51.6919150479
 31
0.0
  0
LINE
  5
2EC
330
1F
100
AcDbEntity
  8
0
  6
Continuous
 62
     7
370
    18
100
AcDbLine
 10
227.5861980644
 20
44.2985399561
 30
0.0
 11
227.8923619916
 21
44.9860734246
 31
0.0
  0
LINE
  5
2ED
330
1F
100
AcDbEntity
  8
0
  6
Continuous
 62
     7
370
    18
100
AcDbLine
 10
228.6282723083
 20
45.4109054077
 30
0.0
 11
227.8923692356
 21
44.9860776065
 31
0.0
  0
LINE
  5
2EE
330
1F
100
AcDbEntity
  8
0
  6
Continuous
 62
     7
370
    18
100
AcDbLine
 10
228.5616967513
 20
46.1541313755
 30
0.0
 11
227.2524253172
 21
45.3983050648
 31
0.0
  0
LINE
  5
2EF
330
1F
100
AcDbEntity
  8
0
  6
Continuous
 62
     7
370
    18
100
AcDbLine
 10
224.0753464856
 20
46.9727140245
 30
0.0
 11
223.7788592114
 21
46.4766524066
 31
0.0
  0
LINE
  5
2F0
330
1F
100
AcDbEntity
  8
0
  6
Continuous
 62
     7
370
    18
100
AcDbLine
 10
225.9071640965
 20
48.030199822
 30
0.0
 11
224.0754070717
 21
46.9727490001
 31
0.0
  0
LINE
  5
2F1
330
1F
100
AcDbEntity
  8
0
  6
Continuous
 62
     7
370
    18
100
AcDbLine
 10
225.9071640965
 20
48.030199822
 30
0.0
 11
226.028474251
 21
47.9684493087
 31
0.0
  0
OLE2FRAME
  5
2F2
330
1F
100
AcDbEntity
  8
0
100
AcDbOle2Frame
 70
     2
  3
Paintbrush-Bild
 10
13.8511154363
 20
38.264191557
 30
0.0
 11
51.6290888628
 21
31.9806341108
 31
0.0
 71
     2
 72
     0
 73
     1
 90
    12928
310
80552BED0767C5B32B40DDAF6807D121434000000000000000006FFBDDFB85D0
310
4940DDAF6807D121434000000000000000006FFBDDFB85D04940416F4BD60AFB
310
3F4000000000000000002BED0767C5B32B40416F4BD60AFB3F40000000000000
310
0000000000000100000000010000010000000100000000000100000000320000
310
D0CF11E0A1B11AE1000000000000000000000000000000003E000300FEFF0900
310
0600000000000000000000000100000001000000000000000010000002000000
310
01000000FEFFFFFF0000000000000000FFFFFFFFFFFFFFFFFFFFFFFFFFFFFFFF
310
FFFFFFFFFFFFFFFFFFFFFFFFFFFFFFFFFFFFFFFFFFFFFFFFFFFFFFFFFFFFFFFF
310
FFFFFFFFFFFFFFFFFFFFFFFFFFFFFFFFFFFFFFFFFFFFFFFFFFFFFFFFFFFFFFFF
310
FFFFFFFFFFFFFFFFFFFFFFFFFFFFFFFFFFFFFFFFFFFFFFFFFFFFFFFFFFFFFFFF
310
FFFFFFFFFFFFFFFFFFFFFFFFFFFFFFFFFFFFFFFFFFFFFFFFFFFFFFFFFFFFFFFF
310
FFFFFFFFFFFFFFFFFFFFFFFFFFFFFFFFFFFFFFFFFFFFFFFFFFFFFFFFFFFFFFFF
310
FFFFFFFFFFFFFFFFFFFFFFFFFFFFFFFFFFFFFFFFFFFFFFFFFFFFFFFFFFFFFFFF
310
FFFFFFFFFFFFFFFFFFFFFFFFFFFFFFFFFFFFFFFFFFFFFFFFFFFFFFFFFFFFFFFF
310
FFFFFFFFFFFFFFFFFFFFFFFFFFFFFFFFFFFFFFFFFFFFFFFFFFFFFFFFFFFFFFFF
310
FFFFFFFFFFFFFFFFFFFFFFFFFFFFFFFFFFFFFFFFFFFFFFFFFFFFFFFFFFFFFFFF
310
FFFFFFFFFFFFFFFFFFFFFFFFFFFFFFFFFFFFFFFFFFFFFFFFFFFFFFFFFFFFFFFF
310
FFFFFFFFFFFFFFFFFFFFFFFFFFFFFFFFFFFFFFFFFFFFFFFFFFFFFFFFFFFFFFFF
310
FFFFFFFFFFFFFFFFFFFFFFFFFFFFFFFFFFFFFFFFFFFFFFFFFFFFFFFFFFFFFFFF
310
FFFFFFFFFFFFFFFFFFFFFFFFFFFFFFFFFFFFFFFFFFFFFFFFFFFFFFFFFFFFFFFF
310
FDFFFFFFFEFFFFFFFEFFFFFFFEFFFFFF05000000060000000700000008000000
310
090000000A0000000B0000000C0000000D0000000E0000000F00000010000000
310
11000000120000001300000014000000150000001600000017000000FEFFFFFF
310
FFFFFFFFFFFFFFFFFFFFFFFFFFFFFFFFFFFFFFFFFFFFFFFFFFFFFFFFFFFFFFFF
310
FFFFFFFFFFFFFFFFFFFFFFFFFFFFFFFFFFFFFFFFFFFFFFFFFFFFFFFFFFFFFFFF
310
FFFFFFFFFFFFFFFFFFFFFFFFFFFFFFFFFFFFFFFFFFFFFFFFFFFFFFFFFFFFFFFF
310
FFFFFFFFFFFFFFFFFFFFFFFFFFFFFFFFFFFFFFFFFFFFFFFFFFFFFFFFFFFFFFFF
310
FFFFFFFFFFFFFFFFFFFFFFFFFFFFFFFFFFFFFFFFFFFFFFFFFFFFFFFFFFFFFFFF
310
FFFFFFFFFFFFFFFFFFFFFFFFFFFFFFFFFFFFFFFFFFFFFFFFFFFFFFFFFFFFFFFF
310
FFFFFFFFFFFFFFFFFFFFFFFFFFFFFFFFFFFFFFFFFFFFFFFFFFFFFFFFFFFFFFFF
310
FFFFFFFFFFFFFFFFFFFFFFFFFFFFFFFFFFFFFFFFFFFFFFFFFFFFFFFFFFFFFFFF
310
FFFFFFFFFFFFFFFFFFFFFFFFFFFFFFFFFFFFFFFFFFFFFFFFFFFFFFFFFFFFFFFF
310
FFFFFFFFFFFFFFFFFFFFFFFFFFFFFFFFFFFFFFFFFFFFFFFFFFFFFFFFFFFFFFFF
310
FFFFFFFFFFFFFFFFFFFFFFFFFFFFFFFFFFFFFFFFFFFFFFFFFFFFFFFFFFFFFFFF
310
FFFFFFFFFFFFFFFFFFFFFFFFFFFFFFFFFFFFFFFFFFFFFFFFFFFFFFFFFFFFFFFF
310
FFFFFFFFFFFFFFFFFFFFFFFFFFFFFFFFFFFFFFFFFFFFFFFFFFFFFFFFFFFFFFFF
310
52006F006F007400200045006E00740072007900000000000000000000000000
310
0000000000000000000000000000000000000000000000000000000000000000
310
16000500FFFFFFFFFFFFFFFF020000000A00030000000000C000000000000046
310
000000000000000000000000D035B31CA5A5D30103000000C000000000000000
310
01004F006C006500000000000000000000000000000000000000000000000000
310
0000000000000000000000000000000000000000000000000000000000000000
310
0A000200FFFFFFFFFFFFFFFFFFFFFFFF00000000000000000000000000000000
310
0000000000000000000000000000000000000000000000001400000000000000
310
010043006F006D0070004F0062006A0000000000000000000000000000000000
310
0000000000000000000000000000000000000000000000000000000000000000
310
120002010100000003000000FFFFFFFF00000000000000000000000000000000
310
0000000000000000000000000000000000000000010000004D00000000000000
310
01004F006C006500310030004E00610074006900760065000000000000000000
310
0000000000000000000000000000000000000000000000000000000000000000
310
1A000200FFFFFFFFFFFFFFFFFFFFFFFF00000000000000000000000000000000
310
0000000000000000000000000000000000000000040000002426000000000000
310
FEFFFFFF02000000FEFFFFFFFFFFFFFFFFFFFFFFFFFFFFFFFFFFFFFFFFFFFFFF
310
FFFFFFFFFFFFFFFFFFFFFFFFFFFFFFFFFFFFFFFFFFFFFFFFFFFFFFFFFFFFFFFF
310
FFFFFFFFFFFFFFFFFFFFFFFFFFFFFFFFFFFFFFFFFFFFFFFFFFFFFFFFFFFFFFFF
310
FFFFFFFFFFFFFFFFFFFFFFFFFFFFFFFFFFFFFFFFFFFFFFFFFFFFFFFFFFFFFFFF
310
FFFFFFFFFFFFFFFFFFFFFFFFFFFFFFFFFFFFFFFFFFFFFFFFFFFFFFFFFFFFFFFF
310
FFFFFFFFFFFFFFFFFFFFFFFFFFFFFFFFFFFFFFFFFFFFFFFFFFFFFFFFFFFFFFFF
310
FFFFFFFFFFFFFFFFFFFFFFFFFFFFFFFFFFFFFFFFFFFFFFFFFFFFFFFFFFFFFFFF
310
FFFFFFFFFFFFFFFFFFFFFFFFFFFFFFFFFFFFFFFFFFFFFFFFFFFFFFFFFFFFFFFF
310
FFFFFFFFFFFFFFFFFFFFFFFFFFFFFFFFFFFFFFFFFFFFFFFFFFFFFFFFFFFFFFFF
310
FFFFFFFFFFFFFFFFFFFFFFFFFFFFFFFFFFFFFFFFFFFFFFFFFFFFFFFFFFFFFFFF
310
FFFFFFFFFFFFFFFFFFFFFFFFFFFFFFFFFFFFFFFFFFFFFFFFFFFFFFFFFFFFFFFF
310
FFFFFFFFFFFFFFFFFFFFFFFFFFFFFFFFFFFFFFFFFFFFFFFFFFFFFFFFFFFFFFFF
310
FFFFFFFFFFFFFFFFFFFFFFFFFFFFFFFFFFFFFFFFFFFFFFFFFFFFFFFFFFFFFFFF
310
FFFFFFFFFFFFFFFFFFFFFFFFFFFFFFFFFFFFFFFFFFFFFFFFFFFFFFFFFFFFFFFF
310
FFFFFFFFFFFFFFFFFFFFFFFFFFFFFFFFFFFFFFFFFFFFFFFFFFFFFFFFFFFFFFFF
310
FFFFFFFFFFFFFFFFFFFFFFFFFFFFFFFFFFFFFFFFFFFFFFFFFFFFFFFFFFFFFFFF
310
0100000200000000000000000000000000000000000000000000000000000000
310
0000000000000000000000000000000000000000000000000000000000000000
310
0100FEFF030A0000FFFFFFFF0A00030000000000C00000000000004607000000
310
5042727573680007000000504272757368000700000050427275736800F439B2
310
7100000000000000000000000000000000000000000000000000000000000000
310
0000000000000000000000000000000000000000000000000000000000000000
310
0000000000000000000000000000000000000000000000000000000000000000
310
0000000000000000000000000000000000000000000000000000000000000000
310
0000000000000000000000000000000000000000000000000000000000000000
310
0000000000000000000000000000000000000000000000000000000000000000
310
0000000000000000000000000000000000000000000000000000000000000000
310
0000000000000000000000000000000000000000000000000000000000000000
310
0000000000000000000000000000000000000000000000000000000000000000
310
0000000000000000000000000000000000000000000000000000000000000000
310
0000000000000000000000000000000000000000000000000000000000000000
310
0000000000000000000000000000000000000000000000000000000000000000
310
20260000424D0E260000000000003E00000028000000B40200006E0000000100
310
01000000000000000000130B0000130B00000200000002000000000000FFFFFF
310
FFFFFFFFFFFFFFFFFFFFFFFFFFFFFFFFFFFFFFFFFFFFFFFFFFFFFFFFFFFFFFFF
310
FFFFFFFFFFFFFFFFFFFFFFFFFFFFFFFFFFFFFFFFFFFFFFFFFFFFFFFFFFFFFFFF
310
FFFFFFFFFFFFFFFFFFFFFFFFFFFFFFFFFFFFFFFFFFFFFFFFF000FFFFFFFFFFFF
310
FFFFFFFFFFFFFFFFFFFFFFFFFFFFFFFFFFFFFFFFFFFFFFFFFFFFFFFFFFFFFFFF
310
FFFFFFFFFFFFFFFFFFFFFFFFFFFFFFFFFFFFFFFFFFFFFFFFFFFFFFFFFFFFFFFF
310
FFFFFFFFFFFFFFFFFFFFFFFFFFFFFFFFF000FFFFFFFFFFFFFFFFFFFFFFFFFFFF
310
FFFFFFFFFFFFFFFFFFFFFFFFFFFFFFFFFFFFFFFFFFFFFFFFFFFFFFFFFFFFFFFF
310
FFFFFFFFFFFFFFFFFFFFFFFFFFFFFFFFFFFFFFFFFFFFFFFFFFFFFFFFFFFFFFFF
310
FFFFFFFFFFFFFFFFF000FFFFFFFFFFFFFFFFFFFFFFFFFFFFFFFFFFFFFFFFFFFF
310
FFFFFFFFFFFFFFFFFFFFFFFFFFFFFFFFFFFFFFFFFFFFFFFFFFFFFFFFFFFFFFFF
310
FFFFFFFFFFFFFFFFFFFFFFFFFFFFFFFFFFFFFFFFFFFFFFFFFFFFFFFFFFFFFFFF
310
F000FFFFFFFFFFFFFFFFFFFFFFFFFFFFFFFFFFFFFFFFFFFFFFFFFFFFFFFFFFFF
310
FFFFFFFFFFFFFFFFFFFFFFFFFFFFFFFFFFFFFFFFFFFFFFFFFFFFFFFFFFFFFFFF
310
FFFFFFFFFFFFFFFFFFFFFFFFFFFFFFFFFFFFFFFFFFFFFFFFF000FFFFFFFFFFFF
310
FFFFFFFFFFFFFFFFFFFFFFFFFFFFFFFFFFFFFFFFFFFFFFFFFFFFFFFFFFFFFFFF
310
FFFFFFFFFFFFFFFFFFFFFFFFFFFFFFFFFFFFFFFFFFFFFFFFFFFFFFFFFFFFFFFF
310
FFFFFFFFFFFFFFFFFFFFFFFFFFFFFFFFF000FFFFFFFFFFFFFFFFFFFFFFFFFFFF
310
FFFFFFFFFFFFFFFFFFFFFFFFFFFFFFFFFFFFFFFFFFFFFFFFFFFFFFFFFFFFFFFF
310
FFFFFFFFFFFFFFFFFFFFFFFFFFFFFFFFFFFFFFFFFFFFFFFFFFFFFFFFFFFFFFFF
310
FFFFFFFFFFFFFFFFF000FFFFFFFFFFFFFFFFFFFFFFFFFFFFFFFFFFFFFFFFFFFF
310
FFFFFFFFFFFFFFFFFFFFFFFFFFFFFFFFFFFFFFFFFFFFFFFFFFFFFFFFFFFFFFFF
310
FFFFFFFFFFFFFFFFFFFFFFFFFFFFFFFFFFFFFFFFFFFFFFFFFFFFFFFFFFFFFFFF
310
F000FFFFFFFFFFFFFFFFFFFFFFFFFFFFFFFFFFFFFFFFFFFFFFFFFFFFFFFFFFFF
310
FFFFFFFFFFFFFFFFFFFFFFFFFFFFFFFFFFFFFFFFFFFFFFFFFFFFFFFFFFFFFFFF
310
FFFFFFFFFFFFFFFFFFFFFFFFFFFFFFFFFFFFFFFFFFFFFFFFF000FFFFFFFFFFFF
310
FFFFFFFFFFFFFFFFFFFFFFFFFFFFFFFFFFFFFFFFFFFFFFFFFFFFFFFFFFFFFFFF
310
FFFFFFFFFFFFFFFFFFFFFFFFFFFFFFFFFFFFFFFFFFFFFFFFFFFFFFFFFFFFFFFF
310
FFFFFFFFFFFFFFFFFFFFFFFFFFFFFFFFF000FFFFFFFFFFFFFFFFFFFFFFFFFFFF
310
FFFFFFFFFFFFFFFFFFFFFFFFFFFFFFFFFFFFFFFFFFFFFFFFFFFFFFFFFFFFFFFF
310
FFFFFFFFFFFFFFFFFFFFFFFFFFFFFFFFFFFFFFFFFFFFFFFFFFFFFFFFFFFFFFFF
310
FFFFFFFFFFFFFFFFF000FFFFFFFFFFFFFFFFFFFFFFFFFFFFFFFFFFFFFFFFFFFF
310
FFFFFFFFFFFFFFFFFFFFFFFFFFFFFFFFFFFFFFFFFFFFFFFFFFFFFFFFFFFFFFFF
310
FFFFFFFFFFFFFFFFFFFFFFFFFFFFFFFFFFFFFFFFFFFFFFFFFFFFFFFFFFFFFFFF
310
F000FFFFFFFFFFFFFFFFFFFFFFFFFFFFFFFFFFFFFFFFFFFFFFFFFFFFFFFFFFFF
310
FFFFFFFFFFFFFFFFFFFFFFFFFFFFFFFFFFFFFFFFFFFFFFFFFFFFFFFFFFFFFFFF
310
FFFFFFFFFFFFFFFFFFFFFFFFFFFFFFFFFFFFFFFFFFFFFFFFF000FFFFFFFFFFFF
310
FFFFFFFFFFFFFFFFFFFFFFFFFFFFFFFFFFFFFFFFFFFFFFFFFFFFFFFFFFFFFFFF
310
FFFFFFFFFFFFFFFFFFFFFFFFFFFFFFFFFFFFFFFFFFFFFFFFFFFFFFFFFFFFFFFF
310
FFFFFFFFFFFFFFFFFFFFFFFFFFFFFFFFF000FFFFFFFFFFFFFFFFFFFFFFFFFFFF
310
FFFFFFFFFFFFFFFFFFFFFFFFFFFFFFFFFFFFFFFFFFFFFFFFFFFFFFFFFFFFFFFF
310
FFFFFFFFFFFFFFFFFFFFFFFFFFFFFFFFFFFFFFFFFFFFFFFFFFFFFFFFFFFFFFFF
310
FFFFFFFFFFFFFFFFF000FFFFFFFFFFFFFFFFFFFFFFFFFFFFFFFFFFFFFFFFFFFF
310
FFFFFFFFFFFFFFFFFFFFFFFFFFFFFFFFFFFFFFFFFFFFFFFFFFFFFFFFFFFFFFFF
310
FFFFFFFFFFFFFFFFFFFFFFFFFFFFFFFFFFFFFFFFFFFFFFFFFFFFFFFFFFFFFFFF
310
F000FFFFFFFFFFFFFFFFFFFFFFFFFFFFFFFFFFFFFFFFFFFFFFFFFFFFFFFFFFFF
310
FFFFFFFFFFFFFFFFFFFFFFFFFFFFFFFFFFFFFFFFFFFFFFFFFFFFFFFFFFFFFFFF
310
FFFFFFFFFFFFFFFFFFFFFFFFFFFFFFFFFFFFFFFFFFFFFFFFF000FFFFFFFFFFFF
310
FFFFFFFFFFFFFFFFFFFFFFFFFFFFFFFFFFFFFFFFFFFFFFFFFFFFFFFFFFFFFFFF
310
FFFFFFFFFFFFFFFFFFFFFFFFFFFFFFFFFFFFFFFFFFFFFFFFFFFFFFFFFFFFFFFF
310
FFFFFFFFFFFFFFFFFFFFFFFFFFFFFFFFF000FFFFFFFFFFFFFFFFFFFFFFFFFFFF
310
FFFFFFFFFFFFFFFFFFFFFFFFFFFFFFFFFFFFFFFFFFFFFFFFFFFFFFFFFFFFFFFF
310
FFFFFFFFFFFFFFFFFFFFFFFFFFFFFFFFFFFFFFFFFFFFFFFFFFFFFFFFFFFFFFFF
310
FFFFFFFFFFFFFFFFF000FFFFF80003FFFFFFFFFFFFFFFFFFFFFFFFFFFFFFFFFF
310
FFFFF00007FFFFFFFFFF00007FFFFFF800000000000000007FFFFFFFFFFFFFFF
310
FFFFFFFC001FFFFFFFFFFFFFFC001FFFFFFFFFFFFFFFFFFFFFFFFFFE0007FFFF
310
F000FFFF8000007FFFFFFFF8000FFFFFC0007FFFFF80007FFFFF0000007FFFFF
310
FFF8000007FFFFF800000000000000007FFFFFF0001FFFFFFFFFFFC00001FFFF
310
FFFFFFFFC00001FFFFFFFF000000000003FFFFE000007FFFF000FFFE0000000F
310
FFFFFFF0000FFFFF80007FFFFF80007FFFFC0000001FFFFFFFC0000001FFFFF8
310
00000000000000007FFFFFF0001FFFFFFFFFFE0000003FFFFFFFFFFE0000003F
310
FFFFFF000000000003FFFF0000000FFFF000FFF800000003FFFFFFF00007FFFF
310
80007FFFFF80007FFFF000000007FFFFFF000000003FFFF80000000000000000
310
7FFFFFF0001FFFFFFFFFF80000000FFFFFFFFFF80000000FFFFFFF0000000000
310
03FFFC00000003FFF000FFE000000000FFFFFFF00007FFFF80003FFFFF80007F
310
FFC000000001FFFFFC000000001FFFF800000000000000007FFFFFF0001FFFFF
310
FFFFE000000003FFFFFFFFE000000003FFFFFF000000000003FFF000000000FF
310
F000FF80000000007FFFFFF00007FFFF80003FFFFF80007FFF8000000000FFFF
310
F80000000007FFF800000000000000007FFFFFF0001FFFFFFFFFC000000001FF
310
FFFFFFC000000001FFFFFF000000000003FFC0000000007FF000FF0000000000
310
3FFFFFE00007FFFF00003FFFFF80007FFE00000000003FFFF00000000003FFF8
310
00000000000000007FFFFFF0001FFFFFFFFF8000000000FFFFFFFF8000000000
310
FFFFFF000000000003FF80000000003FF000FE00000000001FFFFFE00003FFFF
310
00003FFFFF80007FFC00000000001FFFE00000000001FFF8000001FFFE000000
310
7FFFFFF0001FFFFFFFFE00000000003FFFFFFE00000000003FFFFF0000000000
310
03FF00000000001FF000FC00000000000FFFFFE00003FFFF00001FFFFF80007F
310
F800000000001FFFC00000000000FFF8000001FFFE0000007FFFFFF0001FFFFF
310
FFFC00000000001FFFFFFC00000000001FFFFF000000000003FE00000000000F
310
F000F8000000000007FFFFE00003FFFF00001FFFFF80007FF800000000000FFF
310
800000000000FFF8000001FFFE0000007FFFFFF0001FFFFFFFF800000000000F
310
FFFFF800000000000FFFFF000000000003FC000000000007F000F80000000000
310
03FFFFC00003FFFE00001FFFFF80007FF0000000000007FF0000000000007FF8
310
000001FFFE0000007FFFFFF0001FFFFFFFF0000000000007FFFFF00000000000
310
07FFFF000000000003F8000000000003F000F0000000000003FFFFC00001FFFE
310
00001FFFFF80007FE0000000000007FE0000000000003FF8000001FFFE000000
310
7FFFFFF0001FFFFFFFF0000000000007FFFFF0000000000007FFFF0000000000
310
03F800001F800003F000E00001FFF00001FFFFC00001FFFE00000FFFFF80007F
310
E00001FFE00003FE00001FFF00003FF8000001FFFE0000007FFFFFF0001FFFFF
310
FFE000003E000003FFFFE000003E000003FFFF000000000003F00001FFF80001
310
F000E00007FFFC0001FFFFC00001FFFE00000FFFFF80007FC0000FFFFC0003FC
310
0000FFFFC0001FF8000001FFFE0000007FFFFFF0001FFFFFFFC00003FFE00001
310
FFFFC00003FFE00001FFFF0001FFFFFFFFF00007FFFE0001F000E0000FFFFF00
310
00FFFF800001FFFC00000FFFFF80007FC0001FFFFE0001FC0001FFFFE0001FF8
310
000001FFFE0000007FFFFFF0001FFFFFFF80000FFFF80000FFFF80000FFFF800
310
00FFFF0003FFFFFFFFE0000FFFFF8000F000C0003FFFFF8000FFFF800000FFFC
310
000007FFFF80007F80003FFFFF0001FC0003FFFFF0001FF8000001FFFE000000
310
7FFFFFF0001FFFFFFF80003FFFFE0000FFFF80003FFFFE0000FFFF0003FFFFFF
310
FFE0003FFFFF8000F000C0003FFFFF8000FFFF800000FFFC000007FFFF80007F
310
80007FFFFF8001F80007FFFFF8000FF8000001FFFE0000007FFFFFF0001FFFFF
310
FF00007FFFFF00007FFF00007FFFFF00007FFF0003FFFFFFFFE0003FFFFFC000
310
F000C0007FFFFFC000FFFF000000FFFC000007FFFF80007F8000FFFFFF8000F8
310
000FFFFFF8000FF8000001FFFE0000007FFFFFF0001FFFFFFF0000FFFFFF8000
310
7FFF0000FFFFFF80007FFF0003FFFFFFFFC0007FFFFFC00070008000FFFFFFC0
310
00FFFF000000FFF8000007FFFF80007F8000FFFFFF8000F8000FFFFFF8000FF8
310
000001FFFE0000007FFFFFF0001FFFFFFE0001FFFFFFC0003FFE0001FFFFFFC0
310
003FFF0003FFFFFFFFC0007FFFFFE00070008000FFFFFFC0007FFF0000007FF8
310
000003FFFF80007F0001FFFFFF8000F8000FFFFFF8000FF8000001FFFE000000
310
7FFFFFF0001FFFFFFE0001FFFFFFC0003FFE0001FFFFFFC0003FFF0003FFFFFF
310
FFC000FFFFFFE00070008000FFFFFFC0007FFF0000007FF8000003FFFF80007F
310
0001FFFFFF8000F8001FFFFFF8000FF8000001FFFE0000007FFFFFF0001FFFFF
310
FE0003FFFFFFE0003FFE0003FFFFFFE0003FFF0003FFFFFFFFC000FFFFFFE000
310
70008000FFFFFFC0007FFE0000007FF8000003FFFF80007F0001FFFFFF8000F0
310
001FFFFFF8000FF8000001FFFE0000007FFFFFF0001FFFFFFC0003FFFFFFE000
310
1FFC0003FFFFFFE0001FFF0003FFFFFFFFC000FFFFFFC00070008000FFFFFF80
310
007FFE0000007FF0000003FFFF80007F0001FFFFFF0000F0001FFFFFF8000FF8
310
000001FFFE0000007FFFFFF0001FFFFFFC0007FFFFFFF0001FFC0007FFFFFFF0
310
001FFF0003FFFFFFFFC000FFFFFFC00070008001FFFFFF0000FFFE0000003FF0
310
000001FFFF80007F0001FFFFFF0000F8001FFFFFF0000FF8000001FFFE000000
310
7FFFFFF0001FFFFFFC0007FFFFFFF0001FFC0007FFFFFFF0001FFF0003FFFFFF
310
FFC001FFFFFF80007000FFFFFFFFFE0000FFFE0008003FF0008001FFFF80007F
310
FFFFFFFFFC0000FFFFFFFFFFE0000FF8000001FFFE0000007FFFFFF0001FFFFF
310
F8000FFFFFFFF8000FF8000FFFFFFFF8000FFF0003FFFFFFFFFFFFFFFFFF0000
310
7000FFFFFFFFFC0000FFFC0008003FF0008001FFFF80007FFFFFFFFFF80001FF
310
FFFFFFFF80000FF8000001FFFE0000007FFFFFF0001FFFFFF8000FFFFFFFF800
310
0FF8000FFFFFFFF8000FFF0003FFFFFFFFFFFFFFFFFE0000F000FFFFFFFFE000
310
00FFFC000C003FE000C001FFFF80007FFFFFFFFFC00001FFFFFFFFFE00001FF8
310
000001FFFE0000007FFFFFF0001FFFFFF8000FFFFFFFF8000FF8000FFFFFFFF8
310
000FFF0003FFFFFFFFFFFFFFFFF00000F000FFFFFFFE000001FFFC000C001FE0
310
00C000FFFF80007FFFFFFFFE000001FFFFFFFFE000001FF80FFFFFFFFFFFFFC0
310
7FFFFFF0001FFFFFF8000FFFFFFFF8000FF8000FFFFFFFF8000FFF0003FFFFFF
310
FFFFFFFFFF800000F000FFFFFFC0000001FFFC001C001FE001C000FFFF80007F
310
FFFFFF80000003FFFFFFF80000001FF80FFFFFFFFFFFFFC07FFFFFF0001FFFFF
310
F8001FFFFFFFFC000FF8001FFFFFFFFC000FFF0003FFFFFFFFFFFFFFF0000001
310
F000FFFFF800000001FFF8001C001FE001C000FFFF80007FFFFFF800000003FF
310
FFFF800000003FF80FFFFFFFFFFFFFC07FFFFFF0001FFFFFF8001FFFFFFFFC00
310
0FF8001FFFFFFFFC000FFF0003FFFFFFFFFFFFFE00000001F000FFFFC0000000
310
03FFF8001E001FC001E000FFFF80007FFFFF8000000007FFFFFC000000003FF8
310
0FFFFFFFFFFFFFC07FFFFFF0001FFFFFF8001FFFFFFFFC000FF8001FFFFFFFFC
310
000FFF0003FFFFFFFFFFFFE000000003F000FFFE0000000007FFF8001E000FC0
310
01E0007FFF80007FFFFE0000000007FFFFE0000000007FF80FFFFFFFFFFFFFC0
310
7FFFFFF0001FFFFFF0001FFFFFFFFC0007F0001FFFFFFFFC0007FF0003FFFFFF
310
FFFFFF0000000003F000FFF80000000007FFF8001E000FC003E0007FFF80007F
310
FFF0000000000FFFFF8000000000FFF80FFFFFFFFFFFFFC07FFFFFF0001FFFFF
310
F0001FFFFFFFFC0007F0001FFFFFFFFC0007FF0003FFFFFFFFFFFC0000000007
310
F000FFE0000000000FFFF0003E000FC003E0007FFF80007FFFC0000000001FFF
310
FE0000000001FFF80FFFFFFFFFFFFFC07FFFFFF0001FFFFFF0001FFFFFFFFC00
310
07F0001FFFFFFFFC0007FF0003FFFFFFFFFFF0000000000FF000FFC000000000
310
1FFFF0003F000F8003F0003FFF80007FFF80000000003FFFF80000000003FFF8
310
0FFFFFFFFFFFFFC07FFFFFF0001FFFFFF0001FFFFFFFFC0007F0001FFFFFFFFC
310
0007FF0003FFFFFFFFFFE0000000001FF000FF00000000007FFFF0003F000780
310
03F0003FFF80007FFF00000000007FFFF00000000007FFF80FFFFFFFFFFFFFC0
310
7FFFFFF0001FFFFFF0001FFFFFFFFC0007F0001FFFFFFFFC0007FF0003FFFFFF
310
FFFF80000000007FF000FE0000000000FFFFE0003F00078007F0003FFF80007F
310
FE0000000001FFFFE0000000001FFFF80FFFFFFFFFFFFFC07FFFFFF0001FFFFF
310
F0001FFFFFFFFC0007F0001FFFFFFFFC0007FF0003FFFFFFFFFF0000000000FF
310
F000FC0000000003FFFFE0007F00078007F0003FFF80007FFC0000000007FFFF
310
C0000000007FFFF80FFFFFFFFFFFFFC07FFFFFF0001FFFFFF8001FFFFFFFFC00
310
0FF8001FFFFFFFFC000FFF0003FFFFFFFFFE0000000003FFF000FC000000000F
310
FFFFE0007F80070007F8001FFF80007FF8000000001FFFFF8000000001FFFFF8
310
0FFFFFFFFFFFFFC07FFFFFF0001FFFFFF8001FFFFFFFFC000FF8001FFFFFFFFC
310
000FFF0003FFFFFFFFFC000000000FFFF000F8000000007FFFFFE0007F800700
310
07F8001FFF80007FF000000000FFFFFF800000000FFFFFF80FFFFFFFFFFFFFC0
310
7FFFFFF0001FFFFFF8000FFFFFFFF8000FF8000FFFFFFFF8000FFF0003FFFFFF
310
FFFC000000007FFFF000F800000007FFFFFFC0007F8003000FF8001FFF80007F
310
F000000007FFFFFF000000007FFFFFF80FFFFFFFFFFFFFC07FFFFFF0001FFFFF
310
F8000FFFFFFFF8000FF8000FFFFFFFF8000FFF0003FFFFFFFFF80000000FFFFF
310
F000F0000000FFFFFFFFC000FF8003000FF8001FFF80007FE0000000FFFFFFFF
310
0000000FFFFFFFF8000001FFFE0000007FFFFFF0001FFFFFF8000FFFFFFFF800
310
0FF8000FFFFFFFF8000FFF0003FFFFFFFFF8000000FFFFFFF000F000000FFFFF
310
FFFFC000FFC002000FF8000FFF80007FE000001FFFFFFFFE000001FFFFFFFFF8
310
000001FFFE0000007FFFFFF0001FFFFFF8000FFFFFFFF8000FF8000FFFFFFFF8
310
000FFF0003FFFFFFFFF000001FFFFFFFF000E00000FFFFFFFFFFC000FFC00200
310
0FFC000FFF80007FE00001FFFFFFFFFE00001FFFFFFFFFF8000001FFFE000000
310
7FFFFFF0001FFFFFFC000FFFFFFFF8001FFC000FFFFFFFF8001FFF0003FFFFFF
310
FFF00001FFFFFFFFF000E00007FFFFFFFFFF8000FFC000001FFC000FFF80007F
310
C0000FFFFFFFFFFE0000FFFFFFFFFFF8000001FFFE0000007FFFFFF0001FFFFF
310
FC0007FFFFFFF0001FFC0007FFFFFFF0001FFF0003FFFFFFFFF00007FFFFFFFF
310
F000E0001FFFFFFFFFFF8000FFC000001FFC000FFF80007FC0003FFFFFFFFFFE
310
0001FFFFFFFFFFF8000001FFFE0000007FFFFFF0001FFFFFFC0007FFFFFFF000
310
1FFC0007FFFFFFF0001FFF0003FFFFFFFFF0001FFFFFFFFFF000E0003FFFFF00
310
03FF8001FFE000001FFC0007FF80007FC0007FFFFF0007FC0003FFFFF0003FF8
310
000001FFFE0000007FFFFFF0001FFFFFFC0003FFFFFFE0001FFC0003FFFFFFE0
310
001FFF0003FFFFFFFFF0003FFFFFFFFFF000E0003FFFFF0001FF8001FFE00000
310
1FFE0007FF80007FC0007FFFFE0003FC0007FFFFE0003FF8000001FFFE000000
310
7FFFFFF0001FFFFFFE0003FFFFFFE0003FFE0003FFFFFFE0003FFF0003FFFFFF
310
FFF0003FFFFF8001F000E0003FFFFF0001FF0001FFE000001FFE0007FF80007F
310
C0007FFFFE0003FC0007FFFFE0003FF8000001FFFE0000007FFFFFF0001FFFFF
310
FE0001FFFFFFC0003FFE0001FFFFFFC0003FFF0003FFFFFFFFF0003FFFFF0001
310
F000E0003FFFFF0003FF0001FFE000003FFE0007FF80007FC0007FFFFE0003FC
310
0007FFFFE0003FF8000001FFFE0000007FFFFFF0001FFFFFFF0001FFFFFFC000
310
7FFF0001FFFFFFC0007FFF0003FFFFFFFFF0003FFFFF0001F000E0003FFFFE00
310
03FF0003FFF000003FFE0003FF80007FC0007FFFFC0003FE0007FFFFE0003FF8
310
000001FFFE0000007FFFFFF0001FFFFFFF0000FFFFFF80007FFF0000FFFFFF80
310
007FFF0003FFFFFFFFF0003FFFFF0001F000E0003FFFFE0003FF0003FFF00000
310
3FFF0003FF80007FC0007FFFFC0007FE0007FFFFC0003FF8000001FFFE000000
310
7FFFFFF0001FFFFFFF80007FFFFF0000FFFF80007FFFFF0000FFFF0003FFFFFF
310
FFF0003FFFFF0003F000E0003FFFFC0003FE0003FFF000003FFF0003FF80007F
310
E0003FFFF80007FE0003FFFFC0007FF8000001FFFE0000007FFFFFF0001FFFFF
310
FF80003FFFFE0000FFFF80003FFFFE0000FFFF0003FFFFFFFFF0001FFFFE0003
310
F000F0001FFFF80003FE0003FFF000007FFF0001FF80007FE0003FFFF00007FE
310
0001FFFF80007FF8000001FFFE0000007FFFFFF0001FFFFFFFC0000FFFF80001
310
FFFFC0000FFFF80001FFFF0003FFFFFFFFF0001FFFFC0003F000F0000FFFF000
310
07FE0007FFF800007FFF0001FF80007FE0001FFFE00007FF0000FFFE00007FF8
310
000001FFFE0000007FFFFFF0001FFFFFFFC00003FFE00001FFFFC00003FFE000
310
01FFFF0003FFFFFFFFF8000FFFF80003F000F00003FFC00007FC0007FFF80000
310
7FFF8001FF80007FF00007FF80000FFF00007FF80000FFF8000001FFFE000000
310
7F80000000000001FFE000003E000003FFFFE000003E000003FFFF0003FFFFFF
310
FFF80003FFE00007F000F800000000000FFC0007FFF800007FFF8001FF80007F
310
F000000000000FFF000000000000FFF8000001FFFE0000007F80000000000001
310
FFF0000000000007FFFFF0000000000007FFFF0003FFFFFFFFFC00007E000007
310
F000F800000000000FFC0007FFF80000FFFF8000FF80007FF800000000001FFF
310
800000000001FFF8000001FFFE0000007F80000000000001FFF800000000000F
310
FFFFF800000000000FFFFF0003FFFFFFFFFC00000000000FF000FC0000000000
310
1FFC0007FFFC0000FFFF8000FF80007FF800000000003FFFC00000000001FFF8
310
000001FFFE0000007F80000000000001FFF800000000000FFFFFF80000000000
310
0FFFFF0003FFFFFFFFFE00000000001FF000FE00000000003FF8000FFFFC0000
310
FFFF8000FF80007FFC00000000003FFFC00000000003FFF8000001FFFE000000
310
7F80000000000001FFFC00000000001FFFFFFC00000000001FFFFF0003FFFFFF
310
FFFF00000000001FF000FF00000000003FF8000FFFFC0000FFFFC000FF80007F
310
FE00000000007FFFE00000000007FFF8000001FFFE0000007F80000000000001
310
FFFE00000000003FFFFFFE00000000003FFFFF0003FFFFFFFFFF80000000003F
310
F000FF80000000007FF8000FFFFC0001FFFFC0007F80007FFF0000000000FFFF
310
F0000000000FFFF800000000000000007F80000000000001FFFF8000000000FF
310
FFFFFF8000000000FFFFFF0003FFFFFFFFFFC0000000007FF000FFC000000000
310
FFF8000FFFFE0001FFFFC0007F80007FFF8000000001FFFFF8000000001FFFF8
310
00000000000000007F80000000000001FFFFC000000001FFFFFFFFC000000001
310
FFFFFF0003FFFFFFFFFFE000000000FFF000FFE000000003FFF0001FFFFE0001
310
FFFFC0007F80007FFFC000000007FFFFFE000000003FFFF80000000000000000
310
7F80000000000001FFFFE000000003FFFFFFFFE000000003FFFFFF0003FFFFFF
310
FFFFF000000003FFF000FFF80000000FFFF0001FFFFE0001FFFFE0007F80007F
310
FFF00000000FFFFFFF00000000FFFFF800000000000000007F80000000000001
310
FFFFF80000000FFFFFFFFFF80000000FFFFFFF0003FFFFFFFFFFFC0000000FFF
310
F000FFFE0000003FFFF0001FFFFE0003FFFFE0003F80007FFFFC0000003FFFFF
310
FFC0000003FFFFF800000000000000007F80000000000001FFFFFE0000003FFF
310
FFFFFFFE0000003FFFFFFF0003FFFFFFFFFFFF0000003FFFF000FFFF800000FF
310
FFF0001FFFFF0003FFFFE0003F80007FFFFF000001FFFFFFFFF800001FFFFFF8
310
00000000000000007F80000000000001FFFFFFC00001FFFFFFFFFFFFC00001FF
310
FFFFFF0003FFFFFFFFFFFFC00000FFFFF000FFFFF8000FFFFFFFFFFFFFFFFFFF
310
FFFFFFFFFFFFFFFFFFFFF0001FFFFFFFFFFF0000FFFFFFF80000000000000000
310
7FFFFFFFFFFFFFFFFFFFFFFC001FFFFFFFFFFFFFFC001FFFFFFFFFFFFFFFFFFF
310
FFFFFFFC001FFFFFF000FFFFFFFFFFFFFFFFFFFFFFFFFFFFFFFFFFFFFFFFFFFF
310
FFFFFFFFFFFFFFFFFFFFFFFFFFFFFFFFFFFFFFFFFFFFFFFFFFFFFFFFFFFFFFFF
310
FFFFFFFFFFFFFFFFFFFFFFFFFFFFFFFFFFFFFFFFFFFFFFFFFFFFFFFFFFFFFFFF
310
F000FFFFFFFFFFFFFFFFFFFFFFFFFFFFFFFFFFFFFFFFFFFFFFFFFFFFFFFFFFFF
310
FFFFFFFFFFFFFFFFFFFFFFFFFFFFFFFFFFFFFFFFFFFFFFFFFFFFFFFFFFFFFFFF
310
FFFFFFFFFFFFFFFFFFFFFFFFFFFFFFFFFFFFFFFFFFFFFFFFF000FFFFFFFFFFFF
310
FFFFFFFFFFFFFFFFFFFFFFFFFFFFFFFFFFFFFFFFFFFFFFFFFFFFFFFFFFFFFFFF
310
FFFFFFFFFFFFFFFFFFFFFFFFFFFFFFFFFFFFFFFFFFFFFFFFFFFFFFFFFFFFFFFF
310
FFFFFFFFFFFFFFFFFFFFFFFFFFFFFFFFF000FFFFFFFFFFFFFFFFFFFFFFFFFFFF
310
FFFFFFFFFFFFFFFFFFFFFFFFFFFFFFFFFFFFFFFFFFFFFFFFFFFFFFFFFFFFFFFF
310
FFFFFFFFFFFFFFFFFFFFFFFFFFFFFFFFFFFFFFFFFFFFFFFFFFFFFFFFFFFFFFFF
310
FFFFFFFFFFFFFFFFF000FFFFFFFFFFFFFFFFFFFFFFFFFFFFFFFFFFFFFFFFFFFF
310
FFFFFFFFFFFFFFFFFFFFFFFFFFFFFFFFFFFFFFFFFFFFFFFFFFFFFFFFFFFFFFFF
310
FFFFFFFFFFFFFFFFFFFFFFFFFFFFFFFFFFFFFFFFFFFFFFFFFFFFFFFFFFFFFFFF
310
F000FFFFFFFFFFFFFFFFFFFFFFFFFFFFFFFFFFFFFFFFFFFFFFFFFFFFFFFFFFFF
310
FFFFFFFFFFFFFFFFFFFFFFFFFFFFFFFFFFFFFFFFFFFFFFFFFFFFFFFFFFFFFFFF
310
FFFFFFFFFFFFFFFFFFFFFFFFFFFFFFFFFFFFFFFFFFFFFFFFF000FFFFFFFFFFFF
310
FFFFFFFFFFFFFFFFFFFFFFFFFFFFFFFFFFFFFFFFFFFFFFFFFFFFFFFFFFFFFFFF
310
FFFFFFFFFFFFFFFFFFFFFFFFFFFFFFFFFFFFFFFFFFFFFFFFFFFFFFFFFFFFFFFF
310
FFFFFFFFFFFFFFFFFFFFFFFFFFFFFFFFF000FFFFFFFFFFFFFFFFFFFFFFFFFFFF
310
FFFFFFFFFFFFFFFFFFFFFFFFFFFFFFFFFFFFFFFFFFFFFFFFFFFFFFFFFFFFFFFF
310
FFFFFFFFFFFFFFFFFFFFFFFFFFFFFFFFFFFFFFFFFFFFFFFFFFFFFFFFFFFFFFFF
310
FFFFFFFFFFFFFFFFF000FFFFFFFFFFFFFFFFFFFFFFFFFFFFFFFFFFFFFFFFFFFF
310
FFFFFFFFFFFFFFFFFFFFFFFFFFFFFFFFFFFFFFFFFFFFFFFFFFFFFFFFFFFFFFFF
310
FFFFFFFFFFFFFFFFFFFFFFFFFFFFFFFFFFFFFFFFFFFFFFFFFFFFFFFFFFFFFFFF
310
F000FFFFFFFFFFFFFFFFFFFFFFFFFFFFFFFFFFFFFFFFFFFFFFFFFFFFFFFFFFFF
310
FFFFFFFFFFFFFFFFFFFFFFFFFFFFFFFFFFFFFFFFFFFFFFFFFFFFFFFFFFFFFFFF
310
FFFFFFFFFFFFFFFFFFFFFFFFFFFFFFFFFFFFFFFFFFFFFFFFF000FFFFFFFFFFFF
310
FFFFFFFFFFFFFFFFFFFFFFFFFFFFFFFFFFFFFFFFFFFFFFFFFFFFFFFFFFFFFFFF
310
FFFFFFFFFFFFFFFFFFFFFFFFFFFFFFFFFFFFFFFFFFFFFFFFFFFFFFFFFFFFFFFF
310
FFFFFFFFFFFFFFFFFFFFFFFFFFFFFFFFF000FFFFFFFFFFFFFFFFFFFFFFFFFFFF
310
FFFFFFFFFFFFFFFFFFFFFFFFFFFFFFFFFFFFFFFFFFFFFFFFFFFFFFFFFFFFFFFF
310
FFFFFFFFFFFFFFFFFFFFFFFFFFFFFFFFFFFFFFFFFFFFFFFFFFFFFFFFFFFFFFFF
310
FFFFFFFFFFFFFFFFF000FFFFFFFFFFFFFFFFFFFFFFFFFFFFFFFFFFFFFFFFFFFF
310
FFFFFFFFFFFFFFFFFFFFFFFFFFFFFFFFFFFFFFFFFFFFFFFFFFFFFFFFFFFFFFFF
310
FFFFFFFFFFFFFFFFFFFFFFFFFFFFFFFFFFFFFFFFFFFFFFFFFFFFFFFFFFFFFFFF
310
F000FFFFFFFFFFFFFFFFFFFFFFFFFFFFFFFFFFFFFFFFFFFFFFFFFFFFFFFFFFFF
310
FFFFFFFFFFFFFFFFFFFFFFFFFFFFFFFFFFFFFFFFFFFFFFFFFFFFFFFFFFFFFFFF
310
FFFFFFFFFFFFFFFFFFFFFFFFFFFFFFFFFFFFFFFFFFFFFFFFF000FFFFFFFFFFFF
310
FFFFFFFFFFFFFFFFFFFFFFFFFFFFFFFFFFFFFFFFFFFFFFFFFFFFFFFFFFFFFFFF
310
FFFFFFFFFFFFFFFFFFFFFFFFFFFFFFFFFFFFFFFFFFFFFFFFFFFFFFFFFFFFFFFF
310
FFFFFFFFFFFFFFFFFFFFFFFFFFFFFFFFF000FFFFFFFFFFFFFFFFFFFFFFFFFFFF
310
FFFFFFFFFFFFFFFFFFFFFFFFFFFFFFFFFFFFFFFFFFFFFFFFFFFFFFFFFFFFFFFF
310
FFFFFFFFFFFFFFFFFFFFFFFFFFFFFFFFFFFFFFFFFFFFFFFFFFFFFFFFFFFFFFFF
310
FFFFFFFFFFFFFFFFF000FFFFFFFFFFFFFFFFFFFFFFFFFFFFFFFFFFFFFFFFFFFF
310
FFFFFFFFFFFFFFFFFFFFFFFFFFFFFFFFFFFFFFFFFFFFFFFFFFFFFFFFFFFFFFFF
310
FFFFFFFFFFFFFFFFFFFFFFFFFFFFFFFFFFFFFFFFFFFFFFFFFFFFFFFFFFFFFFFF
310
F000FFFFFFFFFFFFFFFFFFFFFFFFFFFFFFFFFFFFFFFFFFFFFFFFFFFFFFFFFFFF
310
FFFFFFFFFFFFFFFFFFFFFFFFFFFFFFFFFFFFFFFFFFFFFFFFFFFFFFFFFFFFFFFF
310
FFFFFFFFFFFFFFFFFFFFFFFFFFFFFFFFFFFFFFFFFFFFFFFFF000FFFFFFFFFFFF
310
FFFFFFFFFFFFFFFFFFFFFFFFFFFFFFFFFFFFFFFFFFFFFFFFFFFFFFFFFFFFFFFF
310
FFFFFFFFFFFFFFFFFFFFFFFFFFFFFFFFFFFFFFFFFFFFFFFFFFFFFFFFFFFFFFFF
310
FFFFFFFFFFFFFFFFFFFFFFFFFFFFFFFFF000FFFFFFFFFFFFFFFFFFFFFFFFFFFF
310
FFFFFFFFFFFFFFFFFFFFFFFFFFFFFFFFFFFFFFFFFFFFFFFFFFFFFFFFFFFFFFFF
310
FFFFFFFFFFFFFFFFFFFFFFFFFFFFFFFFFFFFFFFFFFFFFFFFFFFFFFFFFFFFFFFF
310
FFFFFFFFFFFFFFFFF000FFFFFFFFFFFFFFFFFFFFFFFFFFFFFFFFFFFFFFFFFFFF
310
FFFFFFFFFFFFFFFFFFFFFFFFFFFFFFFFFFFFFFFFFFFFFFFFFFFFFFFFFFFFFFFF
310
FFFFFFFFFFFFFFFFFFFFFFFFFFFFFFFFFFFFFFFFFFFFFFFFFFFFFFFFFFFFFFFF
310
F000FFFFFFFFFFFFFFFFFFFFFFFFFFFFFFFFFFFFFFFFFFFFFFFFFFFFFFFFFFFF
310
FFFFFFFFFFFFFFFFFFFFFFFFFFFFFFFFFFFFFFFFFFFFFFFFFFFFFFFFFFFFFFFF
310
FFFFFFFFFFFFFFFFFFFFFFFFFFFFFFFFFFFFFFFFFFFFFFFFF000FFFFFFFFFFFF
310
FFFFFFFFFFFFFFFFFFFFFFFFFFFFFFFFFFFFFFFFFFFFFFFFFFFFFFFFFFFFFFFF
310
FFFFFFFFFFFFFFFFFFFFFFFFFFFFFFFFFFFFFFFFFFFFFFFFFFFFFFFFFFFFFFFF
310
FFFFFFFFFFFFFFFFFFFFFFFFFFFFFFFFF0000000000000000000000000000000
310
0000000000000000000000000000000000000000000000000000000000000000
310
0000000000000000000000000000000000000000000000000000000000000000
310
0000000000000000000000000000000000000000000000000000000000000000
310
0000000000000000000000000000000000000000000000000000000000000000
310
0000000000000000000000000000000000000000000000000000000000000000
310
0000000000000000000000000000000000000000000000000000000000000000
310
0000000000000000000000000000000000000000000000000000000000000000
310
0000000000000000000000000000000000000000000000000000000000000000
310
0000000000000000000000000000000000000000000000000000000000000000
310
0000000000000000000000000000000000000000000000000000000000000000
310
0000000000000000000000000000000000000000000000000000000000000000
310
0000000000000000000000000000000000000000000000000000000000000000
310
0000000000000000000000000000000000000000000000000000000000000000
310
0000000000000000000000000000000000000000000000000000000000000000
310
0000000000000000000000000000000000000000000000000000000000000000
  1
OLE
  0
ENDSEC
  0
SECTION
  2
OBJECTS
  0
DICTIONARY
  5
C
330
0
100
AcDbDictionary
281
     1
  3
ACAD_GROUP
350
D
  3
ACAD_LAYOUT
350
1A
  3
ACAD_MLINESTYLE
350
17
  3
ACAD_PLOTSETTINGS
350
19
  3
ACAD_PLOTSTYLENAME
350
E
  3
ACAD_SCALELIST
350
47
  0
DICTIONARY
  5
D
102
{ACAD_REACTORS
330
C
102
}
330
C
100
AcDbDictionary
281
     1
  0
DICTIONARY
  5
1A
102
{ACAD_REACTORS
330
C
102
}
330
C
100
AcDbDictionary
281
     1
  3
Layout1
350
1E
  3
Layout2
350
26
  3
Model
350
22
  0
DICTIONARY
  5
17
102
{ACAD_REACTORS
330
C
102
}
330
C
100
AcDbDictionary
281
     1
  3
Standard
350
18
  0
DICTIONARY
  5
19
102
{ACAD_REACTORS
330
C
102
}
330
C
100
AcDbDictionary
281
     1
  0
ACDBDICTIONARYWDFLT
  5
E
102
{ACAD_REACTORS
330
C
102
}
330
C
100
AcDbDictionary
281
     1
  3
Normal
350
F
100
AcDbDictionaryWithDefault
340
F
  0
DICTIONARY
  5
47
102
{ACAD_REACTORS
330
C
102
}
330
C
100
AcDbDictionary
281
     1
  3
A0
350
48
  3
A1
350
49
  3
A2
350
4A
  3
A3
350
4B
  3
A4
350
4C
  3
A5
350
4D
  3
A6
350
4E
  3
A7
350
4F
  3
A8
350
50
  3
A9
350
51
  3
B0
350
52
  3
B1
350
53
  3
B2
350
54
  3
B3
350
55
  3
B4
350
56
  3
B5
350
57
  3
B6
350
58
  3
B7
350
59
  3
B8
350
5A
  3
B9
350
5B
  3
C0
350
5C
  3
C1
350
5D
  3
C2
350
5E
  3
C3
350
5F
  3
C4
350
60
  3
C5
350
61
  3
C6
350
62
  3
C7
350
63
  3
C8
350
64
  3
C9
350
65
  3
D0
350
66
  3
D1
350
67
  3
D2
350
68
  0
LAYOUT
  5
1E
102
{ACAD_REACTORS
330
1A
102
}
330
1A
100
AcDbPlotSettings
  1

  2
none_device
  4

  6

 40
0.0
 41
0.0
 42
0.0
 43
0.0
 44
0.0
 45
0.0
 46
0.0
 47
0.0
 48
0.0
 49
0.0
140
0.0
141
0.0
142
1.0
143
1.0
 70
   688
 72
     1
 73
     0
 74
     5
  7

 75
    16
147
1.0
148
0.0
149
0.0
100
AcDbLayout
  1
Layout1
 70
     1
 71
     1
 10
0.0
 20
0.0
 11
420.0
 21
297.0
 12
0.0
 22
0.0
 32
0.0
 14
1.0000000000E+20
 24
1.0000000000E+20
 34
1.0000000000E+20
 15
-1.0000000000E+20
 25
-1.0000000000E+20
 35
-1.0000000000E+20
146
0.0
 13
0.0
 23
0.0
 33
0.0
 16
1.0
 26
0.0
 36
0.0
 17
0.0
 27
1.0
 37
0.0
 76
     0
330
1B
  0
LAYOUT
  5
26
102
{ACAD_REACTORS
330
1A
102
}
330
1A
100
AcDbPlotSettings
  1

  2
none_device
  4

  6

 40
0.0
 41
0.0
 42
0.0
 43
0.0
 44
0.0
 45
0.0
 46
0.0
 47
0.0
 48
0.0
 49
0.0
140
0.0
141
0.0
142
1.0
143
1.0
 70
   688
 72
     1
 73
     0
 74
     5
  7

 75
    16
147
1.0
148
0.0
149
0.0
100
AcDbLayout
  1
Layout2
 70
     1
 71
     2
 10
0.0
 20
0.0
 11
0.0
 21
0.0
 12
0.0
 22
0.0
 32
0.0
 14
0.0
 24
0.0
 34
0.0
 15
0.0
 25
0.0
 35
0.0
146
0.0
 13
0.0
 23
0.0
 33
0.0
 16
1.0
 26
0.0
 36
0.0
 17
0.0
 27
1.0
 37
0.0
 76
     0
330
23
  0
LAYOUT
  5
22
102
{ACAD_REACTORS
330
1A
102
}
330
1A
100
AcDbPlotSettings
  1

  2
none_device
  4
Letter_(8.50_x_11.00_Inches)
  6

 40
6.35
 41
6.35
 42
6.35000508
 43
6.35000508
 44
215.9
 45
279.4
 46
0.0
 47
0.0
 48
0.0
 49
0.0
140
0.0
141
0.0
142
1.0
143
1.0
 70
  1712
 72
     1
 73
     0
 74
     0
  7

 75
     0
147
1.0
148
0.0
149
0.0
100
AcDbLayout
  1
Model
 70
     1
 71
     0
 10
0.0
 20
0.0
 11
297.0
 21
210.0
 12
0.0
 22
0.0
 32
0.0
 14
0.0
 24
0.0
 34
0.0
 15
297.0
 25
210.0
 35
0.0
146
0.0
 13
0.0
 23
0.0
 33
0.0
 16
1.0
 26
0.0
 36
0.0
 17
0.0
 27
1.0
 37
0.0
 76
     0
330
1F
331
29
  0
MLINESTYLE
  5
18
102
{ACAD_REACTORS
330
17
102
}
330
17
100
AcDbMlineStyle
  2
Standard
 70
     0
  3

 62
   256
 51
90.0
 52
90.0
 71
     2
 49
0.5
 62
   256
  6
BYLAYER
 49
-0.5
 62
   256
  6
BYLAYER
  0
ACDBPLACEHOLDER
  5
F
102
{ACAD_REACTORS
330
E
102
}
330
E
  0
SCALE
  5
48
102
{ACAD_REACTORS
330
47
102
}
330
47
100
AcDbScale
 70
     0
300
1:1
140
1.0
141
1.0
290
     1
  0
SCALE
  5
49
102
{ACAD_REACTORS
330
47
102
}
330
47
100
AcDbScale
 70
     0
300
1:2
140
1.0
141
2.0
290
     0
  0
SCALE
  5
4A
102
{ACAD_REACTORS
330
47
102
}
330
47
100
AcDbScale
 70
     0
300
1:4
140
1.0
141
4.0
290
     0
  0
SCALE
  5
4B
102
{ACAD_REACTORS
330
47
102
}
330
47
100
AcDbScale
 70
     0
300
1:5
140
1.0
141
5.0
290
     0
  0
SCALE
  5
4C
102
{ACAD_REACTORS
330
47
102
}
330
47
100
AcDbScale
 70
     0
300
1:8
140
1.0
141
8.0
290
     0
  0
SCALE
  5
4D
102
{ACAD_REACTORS
330
47
102
}
330
47
100
AcDbScale
 70
     0
300
1:10
140
1.0
141
10.0
290
     0
  0
SCALE
  5
4E
102
{ACAD_REACTORS
330
47
102
}
330
47
100
AcDbScale
 70
     0
300
1:16
140
1.0
141
16.0
290
     0
  0
SCALE
  5
4F
102
{ACAD_REACTORS
330
47
102
}
330
47
100
AcDbScale
 70
     0
300
1:20
140
1.0
141
20.0
290
     0
  0
SCALE
  5
50
102
{ACAD_REACTORS
330
47
102
}
330
47
100
AcDbScale
 70
     0
300
1:30
140
1.0
141
30.0
290
     0
  0
SCALE
  5
51
102
{ACAD_REACTORS
330
47
102
}
330
47
100
AcDbScale
 70
     0
300
1:40
140
1.0
141
40.0
290
     0
  0
SCALE
  5
52
102
{ACAD_REACTORS
330
47
102
}
330
47
100
AcDbScale
 70
     0
300
1:50
140
1.0
141
50.0
290
     0
  0
SCALE
  5
53
102
{ACAD_REACTORS
330
47
102
}
330
47
100
AcDbScale
 70
     0
300
1:100
140
1.0
141
100.0
290
     0
  0
SCALE
  5
54
102
{ACAD_REACTORS
330
47
102
}
330
47
100
AcDbScale
 70
     0
300
2:1
140
2.0
141
1.0
290
     0
  0
SCALE
  5
55
102
{ACAD_REACTORS
330
47
102
}
330
47
100
AcDbScale
 70
     0
300
4:1
140
4.0
141
1.0
290
     0
  0
SCALE
  5
56
102
{ACAD_REACTORS
330
47
102
}
330
47
100
AcDbScale
 70
     0
300
8:1
140
8.0
141
1.0
290
     0
  0
SCALE
  5
57
102
{ACAD_REACTORS
330
47
102
}
330
47
100
AcDbScale
 70
     0
300
10:1
140
10.0
141
1.0
290
     0
  0
SCALE
  5
58
102
{ACAD_REACTORS
330
47
102
}
330
47
100
AcDbScale
 70
     0
300
100:1
140
100.0
141
1.0
290
     0
  0
SCALE
  5
59
102
{ACAD_REACTORS
330
47
102
}
330
47
100
AcDbScale
 70
     0
300
1/128" = 1'-0"
140
0.0078125
141
12.0
290
     0
  0
SCALE
  5
5A
102
{ACAD_REACTORS
330
47
102
}
330
47
100
AcDbScale
 70
     0
300
1/64" = 1'-0"
140
0.015625
141
12.0
290
     0
  0
SCALE
  5
5B
102
{ACAD_REACTORS
330
47
102
}
330
47
100
AcDbScale
 70
     0
300
1/32" = 1'-0"
140
0.03125
141
12.0
290
     0
  0
SCALE
  5
5C
102
{ACAD_REACTORS
330
47
102
}
330
47
100
AcDbScale
 70
     0
300
1/16" = 1'-0"
140
0.0625
141
12.0
290
     0
  0
SCALE
  5
5D
102
{ACAD_REACTORS
330
47
102
}
330
47
100
AcDbScale
 70
     0
300
3/32" = 1'-0"
140
0.09375
141
12.0
290
     0
  0
SCALE
  5
5E
102
{ACAD_REACTORS
330
47
102
}
330
47
100
AcDbScale
 70
     0
300
1/8" = 1'-0"
140
0.125
141
12.0
290
     0
  0
SCALE
  5
5F
102
{ACAD_REACTORS
330
47
102
}
330
47
100
AcDbScale
 70
     0
300
3/16" = 1'-0"
140
0.1875
141
12.0
290
     0
  0
SCALE
  5
60
102
{ACAD_REACTORS
330
47
102
}
330
47
100
AcDbScale
 70
     0
300
1/4" = 1'-0"
140
0.25
141
12.0
290
     0
  0
SCALE
  5
61
102
{ACAD_REACTORS
330
47
102
}
330
47
100
AcDbScale
 70
     0
300
3/8" = 1'-0"
140
0.375
141
12.0
290
     0
  0
SCALE
  5
62
102
{ACAD_REACTORS
330
47
102
}
330
47
100
AcDbScale
 70
     0
300
1/2" = 1'-0"
140
0.5
141
12.0
290
     0
  0
SCALE
  5
63
102
{ACAD_REACTORS
330
47
102
}
330
47
100
AcDbScale
 70
     0
300
3/4" = 1'-0"
140
0.75
141
12.0
290
     0
  0
SCALE
  5
64
102
{ACAD_REACTORS
330
47
102
}
330
47
100
AcDbScale
 70
     0
300
1" = 1'-0"
140
1.0
141
12.0
290
     0
  0
SCALE
  5
65
102
{ACAD_REACTORS
330
47
102
}
330
47
100
AcDbScale
 70
     0
300
1-1/2" = 1'-0"
140
1.5
141
12.0
290
     0
  0
SCALE
  5
66
102
{ACAD_REACTORS
330
47
102
}
330
47
100
AcDbScale
 70
     0
300
3" = 1'-0"
140
3.0
141
12.0
290
     0
  0
SCALE
  5
67
102
{ACAD_REACTORS
330
47
102
}
330
47
100
AcDbScale
 70
     0
300
6" = 1'-0"
140
6.0
141
12.0
290
     0
  0
SCALE
  5
68
102
{ACAD_REACTORS
330
47
102
}
330
47
100
AcDbScale
 70
     0
300
1'-0" = 1'-0"
140
12.0
141
12.0
290
     0
  0
ENDSEC
  0
EOF
