  0
SECTION
  2
HEADER
  9
$ACADVER
  1
AC1015
  9
$ACADMAINTVER
 70
     6
  9
$DWGCODEPAGE
  3
ANSI_1252
  9
$INSBASE
 10
0.0
 20
0.0
 30
0.0
  9
$EXTMIN
 10
0.0
 20
0.0
 30
0.0
  9
$EXTMAX
 10
297.0
 20
210.0
 30
0.0
  9
$LIMMIN
 10
0.0
 20
0.0
  9
$LIMMAX
 10
297.0
 20
210.0
  9
$ORTHOMODE
 70
     0
  9
$REGENMODE
 70
     1
  9
$FILLMODE
 70
     1
  9
$QTEXTMODE
 70
     0
  9
$MIRRTEXT
 70
     1
  9
$LTSCALE
 40
1.0
  9
$ATTMODE
 70
     1
  9
$TEXTSIZE
 40
2.0
  9
$TRACEWID
 40
1.0
  9
$TEXTSTYLE
  7
Standard
  9
$CLAYER
  8
0
  9
$CELTYPE
  6
ByLayer
  9
$CECOLOR
 62
   256
  9
$CELTSCALE
 40
1.0
  9
$DISPSILH
 70
     0
  9
$DIMSCALE
 40
1.0
  9
$DIMASZ
 40
3.0
  9
$DIMEXO
 40
0.0
  9
$DIMDLI
 40
3.75
  9
$DIMRND
 40
0.0
  9
$DIMDLE
 40
0.0
  9
$DIMEXE
 40
1.0
  9
$DIMTP
 40
0.0
  9
$DIMTM
 40
0.0
  9
$DIMTXT
 40
2.0
  9
$DIMCEN
 40
2.5
  9
$DIMTSZ
 40
0.0
  9
$DIMTOL
 70
     0
  9
$DIMLIM
 70
     0
  9
$DIMTIH
 70
     1
  9
$DIMTOH
 70
     1
  9
$DIMSE1
 70
     0
  9
$DIMSE2
 70
     0
  9
$DIMTAD
 70
     1
  9
$DIMZIN
 70
     0
  9
$DIMBLK
  1

  9
$DIMASO
 70
     1
  9
$DIMSHO
 70
     1
  9
$DIMPOST
  1

  9
$DIMAPOST
  1

  9
$DIMALT
 70
     0
  9
$DIMALTD
 70
     3
  9
$DIMALTF
 40
0.0393700787
  9
$DIMLFAC
 40
2.0
  9
$DIMTOFL
 70
     1
  9
$DIMTVP
 40
0.0
  9
$DIMTIX
 70
     0
  9
$DIMSOXD
 70
     0
  9
$DIMSAH
 70
     0
  9
$DIMBLK1
  1

  9
$DIMBLK2
  1

  9
$DIMSTYLE
  2
ISO-25
  9
$DIMCLRD
 70
     0
  9
$DIMCLRE
 70
     0
  9
$DIMCLRT
 70
     0
  9
$DIMTFAC
 40
1.0
  9
$DIMGAP
 40
1.524
  9
$DIMJUST
 70
     0
  9
$DIMSD1
 70
     0
  9
$DIMSD2
 70
     0
  9
$DIMTOLJ
 70
     0
  9
$DIMTZIN
 70
     0
  9
$DIMALTZ
 70
     0
  9
$DIMALTTZ
 70
     0
  9
$DIMUPT
 70
     0
  9
$DIMDEC
 70
     2
  9
$DIMTDEC
 70
     3
  9
$DIMALTU
 70
     2
  9
$DIMALTTD
 70
     3
  9
$DIMTXSTY
  7
Standard
  9
$DIMAUNIT
 70
     0
  9
$DIMADEC
 70
     2
  9
$DIMALTRND
 40
0.0
  9
$DIMAZIN
 70
     0
  9
$DIMDSEP
 70
    44
  9
$DIMATFIT
 70
     3
  9
$DIMFRAC
 70
     0
  9
$DIMLDRBLK
  1

  9
$DIMLUNIT
 70
     2
  9
$DIMLWD
 70
    -2
  9
$DIMLWE
 70
    -2
  9
$DIMTMOVE
 70
     0
  9
$LUNITS
 70
     2
  9
$LUPREC
 70
     2
  9
$SKETCHINC
 40
1.0
  9
$FILLETRAD
 40
10.0
  9
$AUNITS
 70
     0
  9
$AUPREC
 70
     2
  9
$MENU
  1
.
  9
$ELEVATION
 40
0.0
  9
$PELEVATION
 40
0.0
  9
$THICKNESS
 40
0.0
  9
$LIMCHECK
 70
     0
  9
$CHAMFERA
 40
0.0
  9
$CHAMFERB
 40
0.0
  9
$CHAMFERC
 40
0.0
  9
$CHAMFERD
 40
0.0
  9
$SKPOLY
 70
     0
  9
$TDCREATE
 40
2458164.689236644
  9
$TDUCREATE
 40
2458164.647569977
  9
$TDUPDATE
 40
2458164.689240058
  9
$TDUUPDATE
 40
2458164.647573391
  9
$TDINDWG
 40
0.0000000116
  9
$TDUSRTIMER
 40
0.0000000116
  9
$USRTIMER
 70
     1
  9
$ANGBASE
 50
0.0
  9
$ANGDIR
 70
     0
  9
$PDMODE
 70
     0
  9
$PDSIZE
 40
-1.0
  9
$PLINEWID
 40
0.0
  9
$SPLFRAME
 70
     0
  9
$SPLINETYPE
 70
     6
  9
$SPLINESEGS
 70
     8
  9
$HANDSEED
  5
2FD
  9
$SURFTAB1
 70
     6
  9
$SURFTAB2
 70
     6
  9
$SURFTYPE
 70
     6
  9
$SURFU
 70
     6
  9
$SURFV
 70
     6
  9
$UCSBASE
  2

  9
$UCSNAME
  2

  9
$UCSORG
 10
0.0
 20
0.0
 30
0.0
  9
$UCSXDIR
 10
1.0
 20
0.0
 30
0.0
  9
$UCSYDIR
 10
0.0
 20
1.0
 30
0.0
  9
$UCSORTHOREF
  2

  9
$UCSORTHOVIEW
 70
     0
  9
$UCSORGTOP
 10
0.0
 20
0.0
 30
0.0
  9
$UCSORGBOTTOM
 10
0.0
 20
0.0
 30
0.0
  9
$UCSORGLEFT
 10
0.0
 20
0.0
 30
0.0
  9
$UCSORGRIGHT
 10
0.0
 20
0.0
 30
0.0
  9
$UCSORGFRONT
 10
0.0
 20
0.0
 30
0.0
  9
$UCSORGBACK
 10
0.0
 20
0.0
 30
0.0
  9
$PUCSBASE
  2

  9
$PUCSNAME
  2

  9
$PUCSORG
 10
0.0
 20
0.0
 30
0.0
  9
$PUCSXDIR
 10
1.0
 20
0.0
 30
0.0
  9
$PUCSYDIR
 10
0.0
 20
1.0
 30
0.0
  9
$PUCSORTHOREF
  2

  9
$PUCSORTHOVIEW
 70
     0
  9
$PUCSORGTOP
 10
0.0
 20
0.0
 30
0.0
  9
$PUCSORGBOTTOM
 10
0.0
 20
0.0
 30
0.0
  9
$PUCSORGLEFT
 10
0.0
 20
0.0
 30
0.0
  9
$PUCSORGRIGHT
 10
0.0
 20
0.0
 30
0.0
  9
$PUCSORGFRONT
 10
0.0
 20
0.0
 30
0.0
  9
$PUCSORGBACK
 10
0.0
 20
0.0
 30
0.0
  9
$USERI1
 70
     0
  9
$USERI2
 70
     0
  9
$USERI3
 70
     0
  9
$USERI4
 70
     0
  9
$USERI5
 70
     0
  9
$USERR1
 40
0.0
  9
$USERR2
 40
0.0
  9
$USERR3
 40
0.0
  9
$USERR4
 40
0.0
  9
$USERR5
 40
0.0
  9
$WORLDVIEW
 70
     1
  9
$SHADEDGE
 70
     3
  9
$SHADEDIF
 70
    70
  9
$TILEMODE
 70
     1
  9
$MAXACTVP
 70
    64
  9
$PINSBASE
 10
0.0
 20
0.0
 30
0.0
  9
$PLIMCHECK
 70
     0
  9
$PEXTMIN
 10
1.0000000000E+20
 20
1.0000000000E+20
 30
1.0000000000E+20
  9
$PEXTMAX
 10
-1.0000000000E+20
 20
-1.0000000000E+20
 30
-1.0000000000E+20
  9
$PLIMMIN
 10
0.0
 20
0.0
  9
$PLIMMAX
 10
420.0
 20
297.0
  9
$UNITMODE
 70
     0
  9
$VISRETAIN
 70
     1
  9
$PLINEGEN
 70
     0
  9
$PSLTSCALE
 70
     1
  9
$TREEDEPTH
 70
  3020
  9
$CMLSTYLE
  2
Standard
  9
$CMLJUST
 70
     0
  9
$CMLSCALE
 40
20.0
  9
$PROXYGRAPHICS
 70
     1
  9
$MEASUREMENT
 70
     1
  9
$CELWEIGHT
370
    -1
  9
$ENDCAPS
280
     0
  9
$JOINSTYLE
280
     0
  9
$LWDISPLAY
290
     1
  9
$INSUNITS
 70
     4
  9
$HYPERLINKBASE
  1

  9
$STYLESHEET
  1

  9
$XEDIT
290
     1
  9
$CEPSNTYPE
380
     0
  9
$PSTYLEMODE
290
     1
  9
$FINGERPRINTGUID
  2
{45ECFCFB-1894-4F7F-9957-A16D2EF65DA0}
  9
$VERSIONGUID
  2
{FAEB1C32-E019-11D5-929B-00C0DF256EC4}
  9
$EXTNAMES
290
     1
  9
$PSVPSCALE
 40
0.0
  9
$OLESTARTUP
290
     0
  0
ENDSEC
  0
SECTION
  2
CLASSES
  0
CLASS
  1
ACDBDICTIONARYWDFLT
  2
AcDbDictionaryWithDefault
  3
ObjectDBX Classes
 90
        0
280
     0
281
     0
  0
CLASS
  1
VISUALSTYLE
  2
AcDbVisualStyle
  3
ObjectDBX Classes
 90
     4095
280
     0
281
     0
  0
CLASS
  1
MATERIAL
  2
AcDbMaterial
  3
ObjectDBX Classes
 90
     1153
280
     0
281
     0
  0
CLASS
  1
SCALE
  2
AcDbScale
  3
ObjectDBX Classes
 90
     1153
280
     0
281
     0
  0
CLASS
  1
TABLESTYLE
  2
AcDbTableStyle
  3
ObjectDBX Classes
 90
     4095
280
     0
281
     0
  0
CLASS
  1
MLEADERSTYLE
  2
AcDbMLeaderStyle
  3
ACDB_MLEADERSTYLE_CLASS
 90
     4095
280
     0
281
     0
  0
CLASS
  1
SUN
  2
AcDbSun
  3
SCENEOE
 90
     1153
280
     0
281
     0
  0
CLASS
  1
ACDBPLACEHOLDER
  2
AcDbPlaceHolder
  3
ObjectDBX Classes
 90
        0
280
     0
281
     0
  0
CLASS
  1
LAYOUT
  2
AcDbLayout
  3
ObjectDBX Classes
 90
        0
280
     0
281
     0
  0
ENDSEC
  0
SECTION
  2
TABLES
  0
TABLE
  2
VPORT
  5
8
330
0
100
AcDbSymbolTable
 70
     1
  0
VPORT
  5
29
330
8
100
AcDbSymbolTableRecord
100
AcDbViewportTableRecord
  2
*Active
 70
     0
 10
0.0
 20
0.0
 11
1.0
 21
1.0
 12
148.5
 22
105.0
 13
0.0
 23
0.0
 14
10.0
 24
10.0
 15
10.0
 25
10.0
 16
0.0
 26
0.0
 36
1.0
 17
0.0
 27
0.0
 37
0.0
 40
210.0
 41
1.4142857143
 42
50.0
 43
0.0
 44
0.0
 50
0.0
 51
0.0
 71
     0
 72
  2000
 73
     1
 74
     3
 75
     0
 76
     0
 77
     0
 78
     0
281
     0
 65
     1
110
0.0
120
0.0
130
0.0
111
1.0
121
0.0
131
0.0
112
0.0
122
1.0
132
0.0
 79
     0
146
0.0
  0
ENDTAB
  0
TABLE
  2
LTYPE
  5
5
330
0
100
AcDbSymbolTable
 70
     6
  0
LTYPE
  5
14
330
5
100
AcDbSymbolTableRecord
100
AcDbLinetypeTableRecord
  2
ByBlock
 70
     0
  3

 72
    65
 73
     0
 40
0.0
  0
LTYPE
  5
15
330
5
100
AcDbSymbolTableRecord
100
AcDbLinetypeTableRecord
  2
ByLayer
 70
     0
  3

 72
    65
 73
     0
 40
0.0
  0
LTYPE
  5
16
330
5
100
AcDbSymbolTableRecord
100
AcDbLinetypeTableRecord
  2
Continuous
 70
     0
  3
Solid line
 72
    65
 73
     0
 40
0.0
  0
LTYPE
  5
6E
330
5
100
AcDbSymbolTableRecord
100
AcDbLinetypeTableRecord
  2
HIDDEN
 70
     0
  3
Hidden __ __ __ __ __ __ __ __ __ __ __ __ __ __
 72
    65
 73
     2
 40
1.905
 49
1.27
 74
     0
 49
-0.635
 74
     0
  0
LTYPE
  5
6F
330
5
100
AcDbSymbolTableRecord
100
AcDbLinetypeTableRecord
  2
PHANTOM
 70
     0
  3
Phantom ______  __  __  ______  __  __  ______
 72
    65
 73
     6
 40
12.7
 49
6.35
 74
     0
 49
-1.27
 74
     0
 49
1.27
 74
     0
 49
-1.27
 74
     0
 49
1.27
 74
     0
 49
-1.27
 74
     0
  0
LTYPE
  5
70
330
5
100
AcDbSymbolTableRecord
100
AcDbLinetypeTableRecord
  2
CENTER
 70
     0
  3
Center ____ _ ____ _ ____ _ ____ _ ____ _ ____
 72
    65
 73
     4
 40
10.16
 49
6.35
 74
     0
 49
-1.27
 74
     0
 49
1.27
 74
     0
 49
-1.27
 74
     0
  0
LTYPE
  5
71
330
5
100
AcDbSymbolTableRecord
100
AcDbLinetypeTableRecord
  2
CENTERX2
 70
     0
  3
Center (2x) ________  __  ________  __  _____
 72
    65
 73
     4
 40
20.32
 49
12.7
 74
     0
 49
-2.54
 74
     0
 49
2.54
 74
     0
 49
-2.54
 74
     0
  0
LTYPE
  5
72
330
5
100
AcDbSymbolTableRecord
100
AcDbLinetypeTableRecord
  2
DOT2
 70
     0
  3
Dot (.5x) ........................................
 72
    65
 73
     2
 40
0.635
 49
0.0
 74
     0
 49
-0.635
 74
     0
  0
ENDTAB
  0
TABLE
  2
LAYER
  5
2
330
0
100
AcDbSymbolTable
 70
     5
  0
LAYER
  5
10
330
2
100
AcDbSymbolTableRecord
100
AcDbLayerTableRecord
  2
0
 70
     0
 62
     7
  6
Continuous
370
    -3
390
F
  0
LAYER
  5
73
330
2
100
AcDbSymbolTableRecord
100
AcDbLayerTableRecord
  2
FORMAT
 70
     0
 62
     7
  6
Continuous
370
    -3
390
F
  0
LAYER
  5
74
330
2
100
AcDbSymbolTableRecord
100
AcDbLayerTableRecord
  2
VERMASSUNG
 70
     0
 62
     7
  6
Continuous
370
    -3
390
F
  0
LAYER
  5
75
330
2
100
AcDbSymbolTableRecord
100
AcDbLayerTableRecord
  2
KOPF_DÜNN
 70
     0
 62
     7
  6
Continuous
370
    -3
390
F
  0
LAYER
  5
76
330
2
100
AcDbSymbolTableRecord
100
AcDbLayerTableRecord
  2
KOPF_DICK
 70
     0
 62
     7
  6
Continuous
370
    25
390
F
  0
ENDTAB
  0
TABLE
  2
STYLE
  5
3
330
0
100
AcDbSymbolTable
 70
     2
  0
STYLE
  5
11
330
3
100
AcDbSymbolTableRecord
100
AcDbTextStyleTableRecord
  2
Standard
 70
     0
 40
0.0
 41
1.0
 50
0.0
 71
     0
 42
2.0
  3
txt
  4

  0
STYLE
  5
77
330
3
100
AcDbSymbolTableRecord
100
AcDbTextStyleTableRecord
  2
SLDTEXTSTYLE0
 70
     0
 40
0.0
 41
0.7
 50
0.0
 71
     0
 42
2.0
  3
TXT
  4

  0
ENDTAB
  0
TABLE
  2
VIEW
  5
6
330
0
100
AcDbSymbolTable
 70
     0
  0
ENDTAB
  0
TABLE
  2
UCS
  5
7
330
0
100
AcDbSymbolTable
 70
     0
  0
ENDTAB
  0
TABLE
  2
APPID
  5
9
330
0
100
AcDbSymbolTable
 70
     1
  0
APPID
  5
12
330
9
100
AcDbSymbolTableRecord
100
AcDbRegAppTableRecord
  2
ACAD
 70
     0
  0
ENDTAB
  0
TABLE
  2
DIMSTYLE
  5
A
330
0
100
AcDbSymbolTable
 70
     5
100
AcDbDimStyleTable
  0
DIMSTYLE
105
27
330
A
100
AcDbSymbolTableRecord
100
AcDbDimStyleTableRecord
  2
ISO-25
 70
     0
 41
2.5
 42
0.625
 43
3.75
 44
1.25
 73
     0
 74
     0
 77
     1
 78
     8
140
2.5
141
2.5
143
0.0393700787
147
0.625
171
     3
172
     1
178
     0
271
     2
272
     2
274
     3
278
    44
283
     0
284
     8
340
11
  0
DIMSTYLE
105
1FE
102
{ACAD_REACTORS
330
1FD
330
21D
330
228
330
233
330
23E
330
248
330
252
330
267
102
}
330
A
100
AcDbSymbolTableRecord
100
AcDbDimStyleTableRecord
  2
SLDDIMSTYLE0
 70
     0
 41
3.0
 44
0.0
 45
0.000000001
 73
     0
 74
     0
 77
     1
 78
    12
 79
     3
140
2.0
147
0.5
173
     1
178
     0
271
     2
272
     3
276
     2
284
    12
340
77
  0
DIMSTYLE
105
20A
102
{ACAD_REACTORS
330
209
102
}
330
A
100
AcDbSymbolTableRecord
100
AcDbDimStyleTableRecord
  2
SLDDIMSTYLE1
 70
     0
 41
3.0
 44
0.0
 73
     0
 74
     0
 77
     1
 78
    12
 79
     3
140
2.0
147
0.5
173
     1
178
     0
179
     2
272
     3
276
     2
284
    12
340
77
  0
DIMSTYLE
105
214
102
{ACAD_REACTORS
330
213
102
}
330
A
100
AcDbSymbolTableRecord
100
AcDbDimStyleTableRecord
  2
SLDDIMSTYLE2
 70
     0
 41
3.0
 44
0.0
 45
0.000000001
 73
     0
 74
     0
 76
     1
 77
     1
 78
    12
 79
     3
140
2.0
147
0.5
173
     1
178
     0
271
     2
272
     3
276
     2
282
     1
284
    12
340
77
  0
DIMSTYLE
105
25D
102
{ACAD_REACTORS
330
25C
102
}
330
A
100
AcDbSymbolTableRecord
100
AcDbDimStyleTableRecord
  2
SLDDIMSTYLE3
 70
     0
 41
3.0
 44
0.0
 45
0.000000001
 73
     0
 74
     0
 77
     1
 78
    12
 79
     3
140
2.0
147
0.5
173
     1
178
     0
271
     1
272
     3
276
     2
284
    12
340
77
  0
ENDTAB
  0
TABLE
  2
BLOCK_RECORD
  5
1
330
0
100
AcDbSymbolTable
 70
    12
  0
BLOCK_RECORD
  5
1F
330
1
100
AcDbSymbolTableRecord
100
AcDbBlockTableRecord
  2
*Model_Space
340
22
  0
BLOCK_RECORD
  5
1B
330
1
100
AcDbSymbolTableRecord
100
AcDbBlockTableRecord
  2
*Paper_Space
340
1E
  0
BLOCK_RECORD
  5
23
330
1
100
AcDbSymbolTableRecord
100
AcDbBlockTableRecord
  2
*Paper_Space0
340
26
  0
BLOCK_RECORD
  5
1FF
330
1
100
AcDbSymbolTableRecord
100
AcDbBlockTableRecord
  2
_D
340
0
  0
BLOCK_RECORD
  5
20B
330
1
100
AcDbSymbolTableRecord
100
AcDbBlockTableRecord
  2
_D_1
340
0
  0
BLOCK_RECORD
  5
215
330
1
100
AcDbSymbolTableRecord
100
AcDbBlockTableRecord
  2
_D_2
340
0
  0
BLOCK_RECORD
  5
21E
330
1
100
AcDbSymbolTableRecord
100
AcDbBlockTableRecord
  2
_D_3
340
0
  0
BLOCK_RECORD
  5
229
330
1
100
AcDbSymbolTableRecord
100
AcDbBlockTableRecord
  2
_D_4
340
0
  0
BLOCK_RECORD
  5
234
330
1
100
AcDbSymbolTableRecord
100
AcDbBlockTableRecord
  2
_D_5
340
0
  0
BLOCK_RECORD
  5
23F
330
1
100
AcDbSymbolTableRecord
100
AcDbBlockTableRecord
  2
_D_6
340
0
  0
BLOCK_RECORD
  5
249
330
1
100
AcDbSymbolTableRecord
100
AcDbBlockTableRecord
  2
_D_7
340
0
  0
BLOCK_RECORD
  5
253
330
1
100
AcDbSymbolTableRecord
100
AcDbBlockTableRecord
  2
_D_8
340
0
  0
BLOCK_RECORD
  5
25E
330
1
100
AcDbSymbolTableRecord
100
AcDbBlockTableRecord
  2
_D_9
340
0
  0
BLOCK_RECORD
  5
268
330
1
100
AcDbSymbolTableRecord
100
AcDbBlockTableRecord
  2
_D_10
340
0
  0
ENDTAB
  0
ENDSEC
  0
SECTION
  2
BLOCKS
  0
BLOCK
  5
20
330
1F
100
AcDbEntity
  8
0
100
AcDbBlockBegin
  2
*Model_Space
 70
     0
 10
0.0
 20
0.0
 30
0.0
  3
*Model_Space
  1

  0
ENDBLK
  5
21
330
1F
100
AcDbEntity
  8
0
100
AcDbBlockEnd
  0
BLOCK
  5
1C
330
1B
100
AcDbEntity
 67
     1
  8
0
100
AcDbBlockBegin
  2
*Paper_Space
 70
     0
 10
0.0
 20
0.0
 30
0.0
  3
*Paper_Space
  1

  0
ENDBLK
  5
1D
330
1B
100
AcDbEntity
 67
     1
  8
0
100
AcDbBlockEnd
  0
BLOCK
  5
24
330
23
100
AcDbEntity
  8
0
100
AcDbBlockBegin
  2
*Paper_Space0
 70
     0
 10
0.0
 20
0.0
 30
0.0
  3
*Paper_Space0
  1

  0
ENDBLK
  5
25
330
23
100
AcDbEntity
  8
0
100
AcDbBlockEnd
  0
BLOCK
  5
200
330
1FF
100
AcDbEntity
  8
0
100
AcDbBlockBegin
  2
_D
 70
     0
 10
0.0
 20
0.0
 30
0.0
  3
_D
  1

  0
SOLID
  5
202
330
1FF
100
AcDbEntity
  8
VERMASSUNG
100
AcDbTrace
 10
244.3500325557
 20
104.7366136257
 30
0.0
 11
244.8000325557
 21
107.7366136257
 31
0.0
 12
243.9000325557
 22
107.7366136257
 32
0.0
 13
243.9000325557
 23
107.7366136257
 33
0.0
  0
SOLID
  5
203
330
1FF
100
AcDbEntity
  8
VERMASSUNG
100
AcDbTrace
 10
244.3500325557
 20
128.7366136257
 30
0.0
 11
243.9000325557
 21
125.7366136257
 31
0.0
 12
244.8000325557
 22
125.7366136257
 32
0.0
 13
244.8000325557
 23
125.7366136257
 33
0.0
  0
LINE
  5
204
330
1FF
100
AcDbEntity
  8
VERMASSUNG
100
AcDbLine
 10
211.9515770657
 20
104.7366136257
 30
0.0
 11
245.3500325557
 21
104.7366136257
 31
0.0
  0
LINE
  5
205
330
1FF
100
AcDbEntity
  8
VERMASSUNG
100
AcDbLine
 10
211.9515770657
 20
128.7366136257
 30
0.0
 11
245.3500325557
 21
128.7366136257
 31
0.0
  0
LINE
  5
206
330
1FF
100
AcDbEntity
  8
VERMASSUNG
100
AcDbLine
 10
244.3500325557
 20
104.7366136257
 30
0.0
 11
244.3500325557
 21
128.7366136257
 31
0.0
  0
MTEXT
  5
207
330
1FF
100
AcDbEntity
  8
VERMASSUNG
100
AcDbMText
 10
241.7718972508
 20
113.4316136055
 30
0.0
 40
2.0
 41
0.0
 71
     1
 72
     1
  1
%%c
  7
SLDTEXTSTYLE0
 11
6.123233995736766E-17
 21
1.0
 31
0.0
 73
     1
 44
1.0
  0
MTEXT
  5
208
330
1FF
100
AcDbEntity
  8
VERMASSUNG
100
AcDbMText
 10
241.5718972995
 20
117.0416136198
 30
0.0
 40
2.0
 41
0.0
 71
     1
 72
     1
  1
24
  7
SLDTEXTSTYLE0
 11
6.123233995736766E-17
 21
1.0
 31
0.0
 73
     1
 44
1.0
  0
ENDBLK
  5
201
330
1FF
100
AcDbEntity
  8
0
100
AcDbBlockEnd
  0
BLOCK
  5
20C
330
20B
100
AcDbEntity
  8
0
100
AcDbBlockBegin
  2
_D_1
 70
     0
 10
0.0
 20
0.0
 30
0.0
  3
_D_1
  1

  0
ARC
  5
20E
330
20B
100
AcDbEntity
  8
VERMASSUNG
100
AcDbCircle
 10
364.4260338998
 20
116.7366136257
 30
0.0
 40
165.396679462085
100
AcDbArc
 50
175.5
 51
180.0
  0
ARC
  5
20F
330
20B
100
AcDbEntity
  8
VERMASSUNG
100
AcDbCircle
 10
364.4260338998
 20
116.7366136257
 30
0.0
 40
165.396679462085
100
AcDbArc
 50
171.5087399934
 51
175.5
  0
SOLID
  5
210
330
20B
100
AcDbEntity
  8
VERMASSUNG
100
AcDbTrace
 10
199.5392172022
 20
129.7134875327
 30
0.0
 11
198.8820551784
 21
126.7519612244
 31
0.0
 12
199.7798842087
 22
126.6894869718
 32
0.0
 13
199.7798842087
 23
126.6894869718
 33
0.0
  0
SOLID
  5
211
330
20B
100
AcDbEntity
  8
VERMASSUNG
100
AcDbTrace
 10
199.0293544378
 20
116.7366136257
 30
0.0
 11
199.5065398977
 21
119.7324096863
 31
0.0
 12
198.6065769013
 22
119.7405708748
 32
0.0
 13
198.6065769013
 23
119.7405708748
 33
0.0
  0
MTEXT
  5
212
330
20B
100
AcDbEntity
  8
VERMASSUNG
100
AcDbMText
 10
197.4446080698
 20
135.2478107803
 30
0.0
 40
2.0
 41
0.0
 71
     1
 72
     1
  1
4°30'
  7
SLDTEXTSTYLE0
 11
0.1287988306974395
 21
0.9916707423388936
 31
0.0
 73
     1
 44
1.0
  0
ENDBLK
  5
20D
330
20B
100
AcDbEntity
  8
0
100
AcDbBlockEnd
  0
BLOCK
  5
216
330
215
100
AcDbEntity
  8
0
100
AcDbBlockBegin
  2
_D_2
 70
     0
 10
0.0
 20
0.0
 30
0.0
  3
_D_2
  1

  0
SOLID
  5
218
330
215
100
AcDbEntity
  8
VERMASSUNG
100
AcDbTrace
 10
233.9515770657
 20
122.7366136257
 30
0.0
 11
233.5015770657
 21
119.7366136257
 31
0.0
 12
234.4015770657
 22
119.7366136257
 32
0.0
 13
234.4015770657
 23
119.7366136257
 33
0.0
  0
LINE
  5
219
330
215
100
AcDbEntity
  8
VERMASSUNG
100
AcDbLine
 10
208.4515770657
 20
122.7366136257
 30
0.0
 11
234.9515770657
 21
122.7366136257
 31
0.0
  0
LINE
  5
21A
330
215
100
AcDbEntity
  8
VERMASSUNG
100
AcDbLine
 10
233.9515770657
 20
122.7366136257
 30
0.0
 11
233.9515770657
 21
113.7316135615
 31
0.0
  0
MTEXT
  5
21B
330
215
100
AcDbEntity
  8
VERMASSUNG
100
AcDbMText
 10
231.3734417608
 20
113.7316135615
 30
0.0
 40
2.0
 41
0.0
 71
     1
 72
     1
  1
%%c
  7
SLDTEXTSTYLE0
 11
-7.044195017643634E-15
 21
1.0
 31
0.0
 73
     1
 44
1.0
  0
MTEXT
  5
21C
330
215
100
AcDbEntity
  8
VERMASSUNG
100
AcDbMText
 10
231.1734418095
 20
117.3416135759
 30
0.0
 40
2.0
 41
0.0
 71
     1
 72
     1
  1
12
  7
SLDTEXTSTYLE0
 11
-7.044195017643634E-15
 21
1.0
 31
0.0
 73
     1
 44
1.0
  0
ENDBLK
  5
217
330
215
100
AcDbEntity
  8
0
100
AcDbBlockEnd
  0
BLOCK
  5
21F
330
21E
100
AcDbEntity
  8
0
100
AcDbBlockBegin
  2
_D_3
 70
     0
 10
0.0
 20
0.0
 30
0.0
  3
_D_3
  1

  0
SOLID
  5
221
330
21E
100
AcDbEntity
  8
VERMASSUNG
100
AcDbTrace
 10
254.6814520906
 20
132.7366136257
 30
0.0
 11
254.2314520906
 21
129.7366136257
 31
0.0
 12
255.1314520906
 22
129.7366136257
 32
0.0
 13
255.1314520906
 23
129.7366136257
 33
0.0
  0
SOLID
  5
222
330
21E
100
AcDbEntity
  8
VERMASSUNG
100
AcDbTrace
 10
254.6814520906
 20
100.7366136257
 30
0.0
 11
255.1314520906
 21
103.7366136257
 31
0.0
 12
254.2314520906
 22
103.7366136257
 32
0.0
 13
254.2314520906
 23
103.7366136257
 33
0.0
  0
LINE
  5
223
330
21E
100
AcDbEntity
  8
VERMASSUNG
100
AcDbLine
 10
161.126758121
 20
132.7366136257
 30
0.0
 11
255.6814520906
 21
132.7366136257
 31
0.0
  0
LINE
  5
224
330
21E
100
AcDbEntity
  8
VERMASSUNG
100
AcDbLine
 10
161.126758121
 20
100.7366136257
 30
0.0
 11
255.6814520906
 21
100.7366136257
 31
0.0
  0
LINE
  5
225
330
21E
100
AcDbEntity
  8
VERMASSUNG
100
AcDbLine
 10
254.6814520906
 20
132.7366136257
 30
0.0
 11
254.6814520906
 21
100.7366136257
 31
0.0
  0
MTEXT
  5
226
330
21E
100
AcDbEntity
  8
VERMASSUNG
100
AcDbMText
 10
252.1033167856
 20
113.5316136685
 30
0.0
 40
2.0
 41
0.0
 71
     1
 72
     1
  1
%%c
  7
SLDTEXTSTYLE0
 11
-7.044195017643634E-15
 21
1.0
 31
0.0
 73
     1
 44
1.0
  0
MTEXT
  5
227
330
21E
100
AcDbEntity
  8
VERMASSUNG
100
AcDbMText
 10
251.9033168343
 20
117.1416136828
 30
0.0
 40
2.0
 41
0.0
 71
     1
 72
     1
  1
32
  7
SLDTEXTSTYLE0
 11
-7.044195017643634E-15
 21
1.0
 31
0.0
 73
     1
 44
1.0
  0
ENDBLK
  5
220
330
21E
100
AcDbEntity
  8
0
100
AcDbBlockEnd
  0
BLOCK
  5
22A
330
229
100
AcDbEntity
  8
0
100
AcDbBlockBegin
  2
_D_4
 70
     0
 10
0.0
 20
0.0
 30
0.0
  3
_D_4
  1

  0
SOLID
  5
22C
330
229
100
AcDbEntity
  8
VERMASSUNG
100
AcDbTrace
 10
175.9515770657
 20
146.4896818905
 30
0.0
 11
178.9515770657
 21
146.0396818905
 31
0.0
 12
178.9515770657
 22
146.9396818905
 32
0.0
 13
178.9515770657
 23
146.9396818905
 33
0.0
  0
SOLID
  5
22D
330
229
100
AcDbEntity
  8
VERMASSUNG
100
AcDbTrace
 10
211.9515770657
 20
146.4896818905
 30
0.0
 11
208.9515770657
 21
146.9396818905
 31
0.0
 12
208.9515770657
 22
146.0396818905
 32
0.0
 13
208.9515770657
 23
146.0396818905
 33
0.0
  0
LINE
  5
22E
330
229
100
AcDbEntity
  8
VERMASSUNG
100
AcDbLine
 10
175.9515770657
 20
122.7366136257
 30
0.0
 11
175.9515770657
 21
147.4896818905
 31
0.0
  0
LINE
  5
22F
330
229
100
AcDbEntity
  8
VERMASSUNG
100
AcDbLine
 10
211.9515770657
 20
126.8878326424
 30
0.0
 11
211.9515770657
 21
147.4896818905
 31
0.0
  0
LINE
  5
230
330
229
100
AcDbEntity
  8
VERMASSUNG
100
AcDbLine
 10
175.9515770657
 20
146.4896818905
 30
0.0
 11
211.9515770657
 21
146.4896818905
 31
0.0
  0
MTEXT
  5
231
330
229
100
AcDbEntity
  8
VERMASSUNG
100
AcDbMText
 10
189.7515772155
 20
149.0678174864
 30
0.0
 40
2.0
 41
0.0
 71
     1
 72
     1
  1
36
  7
SLDTEXTSTYLE0
 73
     1
 44
1.0
  0
MTEXT
  5
232
330
229
100
AcDbEntity
  8
VERMASSUNG
100
AcDbMText
 10
193.7390771157
 20
149.0678174864
 30
0.0
 40
2.0
 41
0.0
 71
     1
 72
     1
  1
min.
  7
SLDTEXTSTYLE0
 73
     1
 44
1.0
  0
ENDBLK
  5
22B
330
229
100
AcDbEntity
  8
0
100
AcDbBlockEnd
  0
BLOCK
  5
235
330
234
100
AcDbEntity
  8
0
100
AcDbBlockBegin
  2
_D_5
 70
     0
 10
0.0
 20
0.0
 30
0.0
  3
_D_5
  1

  0
SOLID
  5
237
330
234
100
AcDbEntity
  8
VERMASSUNG
100
AcDbTrace
 10
165.4515770657
 20
154.4093658964
 30
0.0
 11
168.4515770657
 21
153.9593658964
 31
0.0
 12
168.4515770657
 22
154.8593658964
 32
0.0
 13
168.4515770657
 23
154.8593658964
 33
0.0
  0
SOLID
  5
238
330
234
100
AcDbEntity
  8
VERMASSUNG
100
AcDbTrace
 10
211.9515770657
 20
154.4093658964
 30
0.0
 11
208.9515770657
 21
154.8593658964
 31
0.0
 12
208.9515770657
 22
153.9593658964
 32
0.0
 13
208.9515770657
 23
153.9593658964
 33
0.0
  0
LINE
  5
239
330
234
100
AcDbEntity
  8
VERMASSUNG
100
AcDbLine
 10
165.4515770657
 20
122.6366136257
 30
0.0
 11
165.4515770657
 21
155.4093658964
 31
0.0
  0
LINE
  5
23A
330
234
100
AcDbEntity
  8
VERMASSUNG
100
AcDbLine
 10
211.9515770657
 20
126.8878326424
 30
0.0
 11
211.9515770657
 21
155.4093658964
 31
0.0
  0
LINE
  5
23B
330
234
100
AcDbEntity
  8
VERMASSUNG
100
AcDbLine
 10
165.4515770657
 20
154.4093658964
 30
0.0
 11
211.9515770657
 21
154.4093658964
 31
0.0
  0
MTEXT
  5
23C
330
234
100
AcDbEntity
  8
VERMASSUNG
100
AcDbMText
 10
183.0015779009
 20
156.9875014924
 30
0.0
 40
2.0
 41
0.0
 71
     1
 72
     1
  1
46.5
  7
SLDTEXTSTYLE0
 73
     1
 44
1.0
  0
MTEXT
  5
23D
330
234
100
AcDbEntity
  8
VERMASSUNG
100
AcDbMText
 10
189.1890777892
 20
156.9875014924
 30
0.0
 40
2.0
 41
0.0
 71
     1
 72
     1
  1
max.
  7
SLDTEXTSTYLE0
 73
     1
 44
1.0
  0
ENDBLK
  5
236
330
234
100
AcDbEntity
  8
0
100
AcDbBlockEnd
  0
BLOCK
  5
240
330
23F
100
AcDbEntity
  8
0
100
AcDbBlockBegin
  2
_D_6
 70
     0
 10
0.0
 20
0.0
 30
0.0
  3
_D_6
  1

  0
SOLID
  5
242
330
23F
100
AcDbEntity
  8
VERMASSUNG
100
AcDbTrace
 10
131.9515770657
 20
162.0650604356
 30
0.0
 11
134.9515770657
 21
161.6150604356
 31
0.0
 12
134.9515770657
 22
162.5150604356
 32
0.0
 13
134.9515770657
 23
162.5150604356
 33
0.0
  0
SOLID
  5
243
330
23F
100
AcDbEntity
  8
VERMASSUNG
100
AcDbTrace
 10
211.9515770657
 20
162.0650604356
 30
0.0
 11
208.9515770657
 21
162.5150604356
 31
0.0
 12
208.9515770657
 22
161.6150604356
 32
0.0
 13
208.9515770657
 23
161.6150604356
 33
0.0
  0
LINE
  5
244
330
23F
100
AcDbEntity
  8
VERMASSUNG
100
AcDbLine
 10
131.9515770657
 20
148.0116136257
 30
0.0
 11
131.9515770657
 21
163.0650604356
 31
0.0
  0
LINE
  5
245
330
23F
100
AcDbEntity
  8
VERMASSUNG
100
AcDbLine
 10
211.9515770657
 20
126.8878326424
 30
0.0
 11
211.9515770657
 21
163.0650604356
 31
0.0
  0
LINE
  5
246
330
23F
100
AcDbEntity
  8
VERMASSUNG
100
AcDbLine
 10
131.9515770657
 20
162.0650604356
 30
0.0
 11
211.9515770657
 21
162.0650604356
 31
0.0
  0
MTEXT
  5
247
330
23F
100
AcDbEntity
  8
VERMASSUNG
100
AcDbMText
 10
170.5515771157
 20
164.6431960315
 30
0.0
 40
2.0
 41
0.0
 71
     1
 72
     1
  1
80
  7
SLDTEXTSTYLE0
 73
     1
 44
1.0
  0
ENDBLK
  5
241
330
23F
100
AcDbEntity
  8
0
100
AcDbBlockEnd
  0
BLOCK
  5
24A
330
249
100
AcDbEntity
  8
0
100
AcDbBlockBegin
  2
_D_7
 70
     0
 10
0.0
 20
0.0
 30
0.0
  3
_D_7
  1

  0
SOLID
  5
24C
330
249
100
AcDbEntity
  8
VERMASSUNG
100
AcDbTrace
 10
211.9515770657
 20
170.2116136257
 30
0.0
 11
208.9515770657
 21
170.6616136257
 31
0.0
 12
208.9515770657
 22
169.7616136257
 32
0.0
 13
208.9515770657
 23
169.7616136257
 33
0.0
  0
SOLID
  5
24D
330
249
100
AcDbEntity
  8
VERMASSUNG
100
AcDbTrace
 10
92.0015770657
 20
170.2116136257
 30
0.0
 11
95.0015770657
 21
169.7616136257
 31
0.0
 12
95.0015770657
 22
170.6616136257
 32
0.0
 13
95.0015770657
 23
170.6616136257
 33
0.0
  0
LINE
  5
24E
330
249
100
AcDbEntity
  8
VERMASSUNG
100
AcDbLine
 10
211.9515770657
 20
126.8878326424
 30
0.0
 11
211.9515770657
 21
171.2116136257
 31
0.0
  0
LINE
  5
24F
330
249
100
AcDbEntity
  8
VERMASSUNG
100
AcDbLine
 10
92.0015770657
 20
138.9397083495
 30
0.0
 11
92.0015770657
 21
171.2116136257
 31
0.0
  0
LINE
  5
250
330
249
100
AcDbEntity
  8
VERMASSUNG
100
AcDbLine
 10
211.9515770657
 20
170.2116136257
 30
0.0
 11
92.0015770657
 21
170.2116136257
 31
0.0
  0
MTEXT
  5
251
330
249
100
AcDbEntity
  8
VERMASSUNG
100
AcDbMText
 10
148.5765770207
 20
172.7897492217
 30
0.0
 40
2.0
 41
0.0
 71
     1
 72
     1
  1
119.95
  7
SLDTEXTSTYLE0
 73
     1
 44
1.0
  0
ENDBLK
  5
24B
330
249
100
AcDbEntity
  8
0
100
AcDbBlockEnd
  0
BLOCK
  5
254
330
253
100
AcDbEntity
  8
0
100
AcDbBlockBegin
  2
_D_8
 70
     0
 10
0.0
 20
0.0
 30
0.0
  3
_D_8
  1

  0
SOLID
  5
256
330
253
100
AcDbEntity
  8
VERMASSUNG
100
AcDbTrace
 10
149.9515770657
 20
78.013310403
 30
0.0
 11
152.9515770657
 21
77.563310403
 31
0.0
 12
152.9515770657
 22
78.463310403
 32
0.0
 13
152.9515770657
 23
78.463310403
 33
0.0
  0
SOLID
  5
257
330
253
100
AcDbEntity
  8
VERMASSUNG
100
AcDbTrace
 10
211.9515770657
 20
78.013310403
 30
0.0
 11
208.9515770657
 21
78.463310403
 31
0.0
 12
208.9515770657
 22
77.563310403
 32
0.0
 13
208.9515770657
 23
77.563310403
 33
0.0
  0
LINE
  5
258
330
253
100
AcDbEntity
  8
VERMASSUNG
100
AcDbLine
 10
149.9515770657
 20
85.2616136257
 30
0.0
 11
149.9515770657
 21
77.013310403
 31
0.0
  0
LINE
  5
259
330
253
100
AcDbEntity
  8
VERMASSUNG
100
AcDbLine
 10
211.9515770657
 20
106.585394609
 30
0.0
 11
211.9515770657
 21
77.013310403
 31
0.0
  0
LINE
  5
25A
330
253
100
AcDbEntity
  8
VERMASSUNG
100
AcDbLine
 10
149.9515770657
 20
78.013310403
 30
0.0
 11
211.9515770657
 21
78.013310403
 31
0.0
  0
MTEXT
  5
25B
330
253
100
AcDbEntity
  8
VERMASSUNG
100
AcDbMText
 10
179.5515771157
 20
80.591445999
 30
0.0
 40
2.0
 41
0.0
 71
     1
 72
     1
  1
62
  7
SLDTEXTSTYLE0
 73
     1
 44
1.0
  0
ENDBLK
  5
255
330
253
100
AcDbEntity
  8
0
100
AcDbBlockEnd
  0
BLOCK
  5
25F
330
25E
100
AcDbEntity
  8
0
100
AcDbBlockBegin
  2
_D_9
 70
     0
 10
0.0
 20
0.0
 30
0.0
  3
_D_9
  1

  0
SOLID
  5
261
330
25E
100
AcDbEntity
  8
VERMASSUNG
100
AcDbTrace
 10
161.126758121
 20
85.9707271088
 30
0.0
 11
164.126758121
 21
85.5207271088
 31
0.0
 12
164.126758121
 22
86.4207271088
 32
0.0
 13
164.126758121
 23
86.4207271088
 33
0.0
  0
SOLID
  5
262
330
25E
100
AcDbEntity
  8
VERMASSUNG
100
AcDbTrace
 10
211.9515770657
 20
85.9707271088
 30
0.0
 11
208.9515770657
 21
86.4207271088
 31
0.0
 12
208.9515770657
 22
85.5207271088
 32
0.0
 13
208.9515770657
 23
85.5207271088
 33
0.0
  0
LINE
  5
263
330
25E
100
AcDbEntity
  8
VERMASSUNG
100
AcDbLine
 10
161.126758121
 20
100.7366136257
 30
0.0
 11
161.126758121
 21
84.9707271088
 31
0.0
  0
LINE
  5
264
330
25E
100
AcDbEntity
  8
VERMASSUNG
100
AcDbLine
 10
211.9515770657
 20
106.585394609
 30
0.0
 11
211.9515770657
 21
84.9707271088
 31
0.0
  0
LINE
  5
265
330
25E
100
AcDbEntity
  8
VERMASSUNG
100
AcDbLine
 10
161.126758121
 20
85.9707271088
 30
0.0
 11
211.9515770657
 21
85.9707271088
 31
0.0
  0
MTEXT
  5
266
330
25E
100
AcDbEntity
  8
VERMASSUNG
100
AcDbMText
 10
184.1391677122
 20
88.5488627048
 30
0.0
 40
2.0
 41
0.0
 71
     1
 72
     1
  1
50.8
  7
SLDTEXTSTYLE0
 73
     1
 44
1.0
  0
ENDBLK
  5
260
330
25E
100
AcDbEntity
  8
0
100
AcDbBlockEnd
  0
BLOCK
  5
269
330
268
100
AcDbEntity
  8
0
100
AcDbBlockBegin
  2
_D_10
 70
     0
 10
0.0
 20
0.0
 30
0.0
  3
_D_10
  1

  0
SOLID
  5
26B
330
268
100
AcDbEntity
  8
VERMASSUNG
100
AcDbTrace
 10
70.0015520657
 20
148.2116136257
 30
0.0
 11
69.5515520657
 21
145.2116136257
 31
0.0
 12
70.4515520657
 22
145.2116136257
 32
0.0
 13
70.4515520657
 23
145.2116136257
 33
0.0
  0
SOLID
  5
26C
330
268
100
AcDbEntity
  8
VERMASSUNG
100
AcDbTrace
 10
70.0015520657
 20
85.2616136257
 30
0.0
 11
70.4515520657
 21
88.2616136257
 31
0.0
 12
69.5515520657
 22
88.2616136257
 32
0.0
 13
69.5515520657
 23
88.2616136257
 33
0.0
  0
LINE
  5
26D
330
268
100
AcDbEntity
  8
VERMASSUNG
100
AcDbLine
 10
132.1515770657
 20
148.2116136257
 30
0.0
 11
69.0015520657
 21
148.2116136257
 31
0.0
  0
LINE
  5
26E
330
268
100
AcDbEntity
  8
VERMASSUNG
100
AcDbLine
 10
132.1515770657
 20
85.2616136257
 30
0.0
 11
69.0015520657
 21
85.2616136257
 31
0.0
  0
LINE
  5
26F
330
268
100
AcDbEntity
  8
VERMASSUNG
100
AcDbLine
 10
70.0015520657
 20
148.2116136257
 30
0.0
 11
70.0015520657
 21
85.2616136257
 31
0.0
  0
MTEXT
  5
270
330
268
100
AcDbEntity
  8
VERMASSUNG
100
AcDbMText
 10
67.2234168095
 20
106.9316141699
 30
0.0
 40
2.0
 41
0.0
 71
     1
 72
     1
  1
KM
  7
SLDTEXTSTYLE0
 11
-7.044195017643634E-15
 21
1.0
 31
0.0
 73
     1
 44
1.0
  0
MTEXT
  5
271
330
268
100
AcDbEntity
  8
VERMASSUNG
100
AcDbMText
 10
67.4234167608
 20
110.3316139821
 30
0.0
 40
2.0
 41
0.0
 71
     1
 72
     1
  1
%%c
  7
SLDTEXTSTYLE0
 11
-7.044195017643634E-15
 21
1.0
 31
0.0
 73
     1
 44
1.0
  0
MTEXT
  5
272
330
268
100
AcDbEntity
  8
VERMASSUNG
100
AcDbMText
 10
67.2234168095
 20
113.9416139964
 30
0.0
 40
2.0
 41
0.0
 71
     1
 72
     1
  1
62.95
  7
SLDTEXTSTYLE0
 11
-7.044195017643634E-15
 21
1.0
 31
0.0
 73
     1
 44
1.0
  0
MTEXT
  5
273
330
268
100
AcDbEntity
  8
VERMASSUNG
100
AcDbMText
 10
67.2234168095
 20
121.3291137088
 30
0.0
 40
2.0
 41
0.0
 71
     1
 72
     1
  1
XMZ
  7
SLDTEXTSTYLE0
 11
-7.044195017643634E-15
 21
1.0
 31
0.0
 73
     1
 44
1.0
  0
ENDBLK
  5
26A
330
268
100
AcDbEntity
  8
0
100
AcDbBlockEnd
  0
ENDSEC
  0
SECTION
  2
ENTITIES
  0
MTEXT
  5
78
330
1F
100
AcDbEntity
  8
KOPF_DÜNN
100
AcDbMText
 10
13.8892156294
 20
23.8442973028
 30
0.0
 40
3.0
 41
0.0
 71
     1
 72
     1
  1
KY6.S12.K01.080
  7
SLDTEXTSTYLE0
 73
     1
 44
1.0
  0
MTEXT
  5
79
330
1F
100
AcDbEntity
  8
VERMASSUNG
100
AcDbMText
 10
13.9329988022
 20
28.8834360957
 30
0.0
 40
3.0
 41
0.0
 71
     1
 72
     1
  1
Schrumpffutter_Heat shrink chuck
  7
SLDTEXTSTYLE0
 73
     1
 44
1.0
  0
MTEXT
  5
7A
330
1F
100
AcDbEntity
  8
VERMASSUNG
100
AcDbMText
 10
98.8601118557
 20
13.8365368761
 30
0.0
 40
2.0
 41
0.0
 71
     1
 72
     1
  1
Datum: 14.02.2018
  7
SLDTEXTSTYLE0
 73
     1
 44
1.0
  0
MTEXT
  5
7B
330
1F
100
AcDbEntity
  8
VERMASSUNG
100
AcDbMText
 10
13.933048693
 20
18.0482802738
 30
0.0
 40
2.0
 41
0.0
 71
     1
 72
     1
  1
KM63 XMZ / Ø12
  7
SLDTEXTSTYLE0
 73
     1
 44
1.0
  0
MTEXT
  5
7C
330
1F
100
AcDbEntity
  8
VERMASSUNG
100
AcDbMText
 10
13.9808475933
 20
13.9090974274
 30
0.0
 40
2.0
 41
0.0
 71
     1
 72
     1
  1
Gewicht: 890g
  7
SLDTEXTSTYLE0
 73
     1
 44
1.0
  0
LINE
  5
7D
330
1F
100
AcDbEntity
  8
0
  6
Continuous
 62
     7
370
    25
100
AcDbLine
 10
368.465779177
 20
116.2236770657
 30
0.0
 11
368.2354158396
 21
117.6485511284
 31
0.0
  0
LINE
  5
7E
330
1F
100
AcDbEntity
  8
0
  6
Continuous
 62
     7
370
    25
100
AcDbLine
 10
368.2354158396
 20
117.6485511284
 30
0.0
 11
366.8862570654
 21
118.1614876883
 31
0.0
  0
LINE
  5
7F
330
1F
100
AcDbEntity
  8
0
  6
Continuous
 62
     7
370
    25
100
AcDbLine
 10
366.8862570654
 20
118.1614876883
 30
0.0
 11
365.7674615412
 21
117.2495501857
 31
0.0
  0
LINE
  5
80
330
1F
100
AcDbEntity
  8
0
  6
Continuous
 62
     7
370
    25
100
AcDbLine
 10
365.7674615412
 20
117.2495501857
 30
0.0
 11
365.9978248785
 21
115.824676123
 31
0.0
  0
LINE
  5
81
330
1F
100
AcDbEntity
  8
0
  6
Continuous
 62
     7
370
    25
100
AcDbLine
 10
365.9978248785
 20
115.824676123
 30
0.0
 11
367.3469836527
 21
115.311739563
 31
0.0
  0
LINE
  5
82
330
1F
100
AcDbEntity
  8
0
  6
Continuous
 62
     7
370
    25
100
AcDbLine
 10
367.3469836527
 20
115.311739563
 30
0.0
 11
368.465779177
 21
116.2236770657
 31
0.0
  0
ARC
  5
83
330
1F
100
AcDbEntity
  8
0
  6
Continuous
 62
     7
370
    25
100
AcDbCircle
 10
367.1166203591
 20
116.7366136257
 30
0.0
 40
1.250000000000031
100
AcDbArc
 50
129.18370128
 51
189.18370128
  0
ARC
  5
84
330
1F
100
AcDbEntity
  8
0
  6
Continuous
 62
     7
370
    25
100
AcDbCircle
 10
367.1166203591
 20
116.7366136257
 30
0.0
 40
1.249999999999997
100
AcDbArc
 50
69.18370128
 51
129.18370128
  0
ARC
  5
85
330
1F
100
AcDbEntity
  8
0
  6
Continuous
 62
     7
370
    25
100
AcDbCircle
 10
367.1166203591
 20
116.7366136257
 30
0.0
 40
1.250000000000031
100
AcDbArc
 50
189.18370128
 51
249.18370128
  0
ARC
  5
86
330
1F
100
AcDbEntity
  8
0
  6
Continuous
 62
     7
370
    25
100
AcDbCircle
 10
367.1166203591
 20
116.7366136257
 30
0.0
 40
1.249999999999984
100
AcDbArc
 50
249.18370128
 51
309.18370128
  0
ARC
  5
87
330
1F
100
AcDbEntity
  8
0
  6
Continuous
 62
     7
370
    25
100
AcDbCircle
 10
367.1166203591
 20
116.7366136257
 30
0.0
 40
1.249999999999997
100
AcDbArc
 50
9.18370128
 51
69.18370128
  0
ARC
  5
88
330
1F
100
AcDbEntity
  8
0
  6
Continuous
 62
     7
370
    25
100
AcDbCircle
 10
367.1166203591
 20
116.7366136257
 30
0.0
 40
1.249999999999983
100
AcDbArc
 50
309.18370128
 51
9.18370128
  0
SPLINE
  5
89
330
1F
100
AcDbEntity
  8
0
  6
Continuous
 62
     7
370
    25
100
AcDbSpline
210
0.0
220
0.0
230
1.0
 70
     8
 71
     3
 72
     8
 73
     4
 74
     0
 42
0.000000001
 43
0.00000001
 40
0.0
 40
0.0
 40
0.0
 40
0.0
 40
1.0
 40
1.0
 40
1.0
 40
1.0
 10
356.7274802494272
 20
112.3666127537298
 30
0.0
 10
356.6586418792405
 20
112.303518080411
 30
0.0
 10
356.5902105187844
 20
112.2397957022801
 30
0.0
 10
356.5221942441196
 20
112.1754502700067
 30
0.0
  0
SPLINE
  5
8A
330
1F
100
AcDbEntity
  8
0
  6
Continuous
 62
     7
370
    25
100
AcDbSpline
210
0.0
220
0.0
230
1.0
 70
     8
 71
     3
 72
     8
 73
     4
 74
     0
 42
0.000000001
 43
0.00000001
 40
0.0
 40
0.0
 40
0.0
 40
0.0
 40
1.0
 40
1.0
 40
1.0
 40
1.0
 10
356.9855074906879
 20
112.1973509238025
 30
0.0
 10
356.8988040565275
 20
112.2535118434717
 30
0.0
 10
356.8128060090436
 20
112.3099365797976
 30
0.0
 10
356.7274802494272
 20
112.3666127537298
 30
0.0
  0
ARC
  5
8B
330
1F
100
AcDbEntity
  8
0
  6
Continuous
 62
     7
370
    25
100
AcDbCircle
 10
367.1166203591
 20
116.7366136257
 30
0.0
 40
11.10154736189901
100
AcDbArc
 50
204.1348482805
 51
335.8651517195
  0
SPLINE
  5
8C
330
1F
100
AcDbEntity
  8
0
  6
Continuous
 62
     7
370
    25
100
AcDbSpline
210
0.0
220
0.0
230
1.0
 70
     8
 71
     3
 72
     8
 73
     4
 74
     0
 42
0.000000001
 43
0.00000001
 40
0.0
 40
0.0
 40
0.0
 40
0.0
 40
1.0
 40
1.0
 40
1.0
 40
1.0
 10
377.505760468693
 20
112.3666127537298
 30
0.0
 10
377.4204347090766
 20
112.3099365797976
 30
0.0
 10
377.3344366615927
 20
112.2535118434717
 30
0.0
 10
377.2477332274323
 20
112.1973509238025
 30
0.0
  0
SPLINE
  5
8D
330
1F
100
AcDbEntity
  8
0
  6
Continuous
 62
     7
370
    25
100
AcDbSpline
210
0.0
220
0.0
230
1.0
 70
     8
 71
     3
 72
     8
 73
     4
 74
     0
 42
0.000000001
 43
0.00000001
 40
0.0
 40
0.0
 40
0.0
 40
0.0
 40
1.0
 40
1.0
 40
1.0
 40
1.0
 10
377.7110464740006
 20
112.1754502700067
 30
0.0
 10
377.6430301993359
 20
112.2397957022801
 30
0.0
 10
377.5745988388798
 20
112.303518080411
 30
0.0
 10
377.505760468693
 20
112.3666127537298
 30
0.0
  0
ARC
  5
8E
330
1F
100
AcDbEntity
  8
0
  6
Continuous
 62
     7
370
    25
100
AcDbCircle
 10
367.1166203591
 20
116.7366136257
 30
0.0
 40
11.53456006379121
100
AcDbArc
 50
203.2930774359
 51
336.7074733161
  0
ARC
  5
8F
330
1F
100
AcDbEntity
  8
0
  6
Continuous
 62
     7
370
    25
100
AcDbCircle
 10
367.1166203591
 20
116.7366136257
 30
0.0
 40
11.101547361899
100
AcDbArc
 50
29.4783538465
 51
150.5216461535
  0
SPLINE
  5
90
330
1F
100
AcDbEntity
  8
0
  6
Continuous
 62
     7
370
    25
100
AcDbSpline
210
0.0
220
0.0
230
1.0
 70
     8
 71
     3
 72
     8
 73
     4
 74
     0
 42
0.000000001
 43
0.00000001
 40
0.0
 40
0.0
 40
0.0
 40
0.0
 40
1.0
 40
1.0
 40
1.0
 40
1.0
 10
357.1406873097357
 20
122.0149128750839
 30
0.0
 10
357.2435832235596
 20
122.0768814841748
 30
0.0
 10
357.3474228931145
 20
122.1384601363154
 30
0.0
 10
357.452260781341
 20
122.1996263275869
 30
0.0
  0
SPLINE
  5
91
330
1F
100
AcDbEntity
  8
0
  6
Continuous
 62
     7
370
    25
100
AcDbSpline
210
0.0
220
0.0
230
1.0
 70
     8
 71
     3
 72
     8
 73
     4
 74
     0
 42
0.000000001
 43
0.00000001
 40
0.0
 40
0.0
 40
0.0
 40
0.0
 40
1.0
 40
1.0
 40
1.0
 40
1.0
 10
356.9521509286217
 20
122.1891026959535
 30
0.0
 10
357.0147192369914
 20
122.1306522268459
 30
0.0
 10
357.0775658303552
 20
122.0725882163128
 30
0.0
 10
357.1406873097382
 20
122.0149128750816
 30
0.0
  0
ARC
  5
92
330
1F
100
AcDbEntity
  8
0
  6
Continuous
 62
     7
370
    25
100
AcDbCircle
 10
367.1166203591
 20
116.7366136257
 30
0.0
 40
11.53456006379119
100
AcDbArc
 50
28.2102805322
 51
151.7902347364
  0
SPLINE
  5
93
330
1F
100
AcDbEntity
  8
0
  6
Continuous
 62
     7
370
    25
100
AcDbSpline
210
0.0
220
0.0
230
1.0
 70
     8
 71
     3
 72
     8
 73
     4
 74
     0
 42
0.000000001
 43
0.00000001
 40
0.0
 40
0.0
 40
0.0
 40
0.0
 40
1.0
 40
1.0
 40
1.0
 40
1.0
 10
377.0925534083825
 20
122.014912875082
 30
0.0
 10
377.1556748877652
 20
122.0725882163131
 30
0.0
 10
377.2185214811289
 20
122.130652226846
 30
0.0
 10
377.2810897894984
 20
122.1891026959535
 30
0.0
  0
SPLINE
  5
94
330
1F
100
AcDbEntity
  8
0
  6
Continuous
 62
     7
370
    25
100
AcDbSpline
210
0.0
220
0.0
230
1.0
 70
     8
 71
     3
 72
     8
 73
     4
 74
     0
 42
0.000000001
 43
0.00000001
 40
0.0
 40
0.0
 40
0.0
 40
0.0
 40
1.0
 40
1.0
 40
1.0
 40
1.0
 10
376.7809799367791
 20
122.1996263275869
 30
0.0
 10
376.8858178250053
 20
122.1384601363156
 30
0.0
 10
376.9896574945599
 20
122.0768814841753
 30
0.0
 10
377.0925534083834
 20
122.0149128750846
 30
0.0
  0
SPLINE
  5
95
330
1F
100
AcDbEntity
  8
0
  6
Continuous
 62
     7
370
    25
100
AcDbSpline
210
0.0
220
0.0
230
1.0
 70
     8
 71
     3
 72
     8
 73
     4
 74
     0
 42
0.000000001
 43
0.00000001
 40
0.0000004028655191
 40
0.0000004028655191
 40
0.0000004028655191
 40
0.0000004028655191
 40
0.0015137684369673
 40
0.0015137684369673
 40
0.0015137684369673
 40
0.0015137684369673
 10
358.693025701918
 20
112.4143382219103
 30
0.0
 10
358.4863542143668
 20
112.3420442801956
 30
0.0
 10
358.2797352458261
 20
112.2697127942388
 30
0.0
 10
358.0731588710175
 20
112.1973509238025
 30
0.0
  0
LINE
  5
96
330
1F
100
AcDbEntity
  8
0
  6
Continuous
 62
     7
370
    25
100
AcDbLine
 10
358.0731587159
 20
112.1973511223
 30
0.0
 11
356.9855071279
 21
112.1973511223
 31
0.0
  0
LINE
  5
97
330
1F
100
AcDbEntity
  8
0
  6
Continuous
 62
     7
370
    25
100
AcDbLine
 10
356.9505350339
 20
112.6303634998
 30
0.0
 11
356.7274804833
 21
112.3666129466
 31
0.0
  0
LINE
  5
98
330
1F
100
AcDbEntity
  8
0
  6
Continuous
 62
     7
370
    25
100
AcDbLine
 10
358.7181452336
 20
112.6303634998
 30
0.0
 11
356.9507501694
 21
112.6303634998
 31
0.0
  0
LINE
  5
99
330
1F
100
AcDbEntity
  8
0
  6
Continuous
 62
     7
370
    25
100
AcDbLine
 10
358.7288023578
 20
112.4727827888
 30
0.0
 11
358.7181452336
 21
112.6303634998
 31
0.0
  0
SPLINE
  5
9A
330
1F
100
AcDbEntity
  8
0
  6
Continuous
 62
     7
370
    25
100
AcDbSpline
210
0.0
220
0.0
230
1.0
 70
     8
 71
     3
 72
     8
 73
     4
 74
     0
 42
0.000000001
 43
0.00000001
 40
0.0006523765358269
 40
0.0006523765358269
 40
0.0006523765358269
 40
0.0006523765358269
 40
0.0009043636494504
 40
0.0009043636494504
 40
0.0009043636494504
 40
0.0009043636494504
 10
358.7299025769529
 20
112.4745763193589
 30
0.0
 10
358.7175855824354
 20
112.4545007383767
 30
0.0
 10
358.7052933850314
 20
112.4344213498542
 30
0.0
 10
358.693025701918
 20
112.4143382219103
 30
0.0
  0
LINE
  5
9B
330
1F
100
AcDbEntity
  8
0
  6
Continuous
 62
     7
370
    25
100
AcDbLine
 10
357.1406868892
 20
122.0149127227
 30
0.0
 11
357.349095461
 21
121.7666137424
 31
0.0
  0
LINE
  5
9C
330
1F
100
AcDbEntity
  8
0
  6
Continuous
 62
     7
370
    25
100
AcDbLine
 10
358.5993094044
 20
122.1996261198
 30
0.0
 11
357.4522608566
 21
122.1996261198
 31
0.0
  0
SPLINE
  5
9D
330
1F
100
AcDbEntity
  8
0
  6
Continuous
 62
     7
370
    25
100
AcDbSpline
210
0.0
220
0.0
230
1.0
 70
     8
 71
     3
 72
     8
 73
     4
 74
     0
 42
0.000000001
 43
0.00000001
 40
0.0000004089325119
 40
0.0000004089325119
 40
0.0000004089325119
 40
0.0000004089325119
 40
0.0015399868451459
 40
0.0015399868451459
 40
0.0015399868451459
 40
0.0015399868451459
 10
358.5993089416313
 20
122.1996263275869
 30
0.0
 10
358.8110702004257
 20
122.1271714449335
 30
0.0
 10
359.0229905236159
 20
122.054832574905
 30
0.0
 10
359.2351085068302
 20
121.9826390294791
 30
0.0
  0
LINE
  5
9E
330
1F
100
AcDbEntity
  8
0
  6
Continuous
 62
     7
370
    25
100
AcDbLine
 10
359.235108425
 20
121.9826391358
 30
0.0
 11
359.2432612228
 21
121.9674264472
 31
0.0
  0
LINE
  5
9F
330
1F
100
AcDbEntity
  8
0
  6
Continuous
 62
     7
370
    25
100
AcDbLine
 10
359.2408910068
 20
121.7666137424
 30
0.0
 11
359.2432621541
 21
121.9674269129
 31
0.0
  0
LINE
  5
A0
330
1F
100
AcDbEntity
  8
0
  6
Continuous
 62
     7
370
    25
100
AcDbLine
 10
359.2408910068
 20
121.7666137424
 30
0.0
 11
357.349095461
 21
121.7666137424
 31
0.0
  0
LINE
  5
A1
330
1F
100
AcDbEntity
  8
0
  6
Continuous
 62
     7
370
    25
100
AcDbLine
 10
377.5057602348
 20
112.3666129466
 30
0.0
 11
377.2827056842
 21
112.6303634998
 31
0.0
  0
LINE
  5
A2
330
1F
100
AcDbEntity
  8
0
  6
Continuous
 62
     7
370
    25
100
AcDbLine
 10
377.2477335902
 20
112.1973511223
 30
0.0
 11
376.1600820022
 21
112.1973511223
 31
0.0
  0
SPLINE
  5
A3
330
1F
100
AcDbEntity
  8
0
  6
Continuous
 62
     7
370
    25
100
AcDbSpline
210
0.0
220
0.0
230
1.0
 70
     8
 71
     3
 72
     8
 73
     4
 74
     0
 42
0.000000001
 43
0.00000001
 40
0.0000004024872366
 40
0.0000004024872366
 40
0.0000004024872366
 40
0.0000004024872366
 40
0.0015137680586847
 40
0.0015137680586847
 40
0.0015137680586847
 40
0.0015137680586847
 10
376.1600818471027
 20
112.1973509238025
 30
0.0
 10
375.9535054722941
 20
112.2697127942388
 30
0.0
 10
375.7468865037534
 20
112.3420442801956
 30
0.0
 10
375.5402150162022
 20
112.4143382219103
 30
0.0
  0
SPLINE
  5
A4
330
1F
100
AcDbEntity
  8
0
  6
Continuous
 62
     7
370
    25
100
AcDbSpline
210
0.0
220
0.0
230
1.0
 70
     8
 71
     3
 72
     8
 73
     4
 74
     0
 42
0.000000001
 43
0.00000001
 40
0.0000002414707367
 40
0.0000002414707367
 40
0.0000002414707367
 40
0.0000002414707367
 40
0.0002447240690309
 40
0.0002447240690309
 40
0.0002447240690309
 40
0.0002447240690309
 10
375.5402150162022
 20
112.4143382219103
 30
0.0
 10
375.5283126808471
 20
112.4338232478568
 30
0.0
 10
375.5163872696353
 20
112.4533047536812
 30
0.0
 10
375.5044385243405
 20
112.4727826771931
 30
0.0
  0
LINE
  5
A5
330
1F
100
AcDbEntity
  8
0
  6
Continuous
 62
     7
370
    25
100
AcDbLine
 10
375.5150954845
 20
112.6303634998
 30
0.0
 11
375.5044383603
 21
112.4727827888
 31
0.0
  0
LINE
  5
A6
330
1F
100
AcDbEntity
  8
0
  6
Continuous
 62
     7
370
    25
100
AcDbLine
 10
377.2827056842
 20
112.6303634998
 30
0.0
 11
375.5099871802
 21
112.6303634998
 31
0.0
  0
SPLINE
  5
A7
330
1F
100
AcDbEntity
  8
0
  6
Continuous
 62
     7
370
    25
100
AcDbSpline
210
0.0
220
0.0
230
1.0
 70
     8
 71
     3
 72
     8
 73
     4
 74
     0
 42
0.000000001
 43
0.00000001
 40
0.000000410413179
 40
0.000000410413179
 40
0.000000410413179
 40
0.000000410413179
 40
0.0015399883258131
 40
0.0015399883258131
 40
0.0015399883258131
 40
0.0015399883258131
 10
374.99813221129
 20
121.9826390294791
 30
0.0
 10
375.2102501945043
 20
122.054832574905
 30
0.0
 10
375.4221705176946
 20
122.1271714449335
 30
0.0
 10
375.633931776489
 20
122.1996263275869
 30
0.0
  0
LINE
  5
A8
330
1F
100
AcDbEntity
  8
0
  6
Continuous
 62
     7
370
    25
100
AcDbLine
 10
376.7809798616
 20
122.1996261198
 30
0.0
 11
375.6339313137
 21
122.1996261198
 31
0.0
  0
LINE
  5
A9
330
1F
100
AcDbEntity
  8
0
  6
Continuous
 62
     7
370
    25
100
AcDbLine
 10
376.8841452571
 20
121.7666137424
 30
0.0
 11
377.0925538289
 21
122.0149127227
 31
0.0
  0
LINE
  5
AA
330
1F
100
AcDbEntity
  8
0
  6
Continuous
 62
     7
370
    25
100
AcDbLine
 10
376.8839552673
 20
121.7666137424
 30
0.0
 11
374.9923497113
 21
121.7666137424
 31
0.0
  0
LINE
  5
AB
330
1F
100
AcDbEntity
  8
0
  6
Continuous
 62
     7
370
    25
100
AcDbLine
 10
374.989978564
 20
121.9674264472
 30
0.0
 11
374.9923497113
 21
121.7666137424
 31
0.0
  0
LINE
  5
AC
330
1F
100
AcDbEntity
  8
0
  6
Continuous
 62
     7
370
    25
100
AcDbLine
 10
374.9899794953
 20
121.9674264472
 30
0.0
 11
374.9981322932
 21
121.9826391358
 31
0.0
  0
ARC
  5
AD
330
1F
100
AcDbEntity
  8
0
  6
Continuous
 62
     7
370
    25
100
AcDbCircle
 10
367.1166203591
 20
116.7366136257
 30
0.0
 40
10.11874999999999
100
AcDbArc
 50
32.6761561262
 51
147.3238438738
  0
ARC
  5
AE
330
1F
100
AcDbEntity
  8
0
  6
Continuous
 62
     7
370
    25
100
AcDbCircle
 10
367.1166203591
 20
116.7366136257
 30
0.0
 40
10.11875
100
AcDbArc
 50
206.6538426687
 51
333.3461573313
  0
ARC
  5
AF
330
1F
100
AcDbEntity
  8
0
  6
Continuous
 62
     7
370
    25
100
AcDbCircle
 10
367.1166203591
 20
116.7366136257
 30
0.0
 40
9.467788105676684
100
AcDbArc
 50
33.6481949792
 51
146.3518050208
  0
ARC
  5
B0
330
1F
100
AcDbEntity
  8
0
  6
Continuous
 62
     7
370
    25
100
AcDbCircle
 10
367.1166203591
 20
116.7366136257
 30
0.0
 40
9.467788105676657
100
AcDbArc
 50
207.1630537883
 51
332.8369462117
  0
SPLINE
  5
B1
330
1F
100
AcDbEntity
  8
0
  6
Continuous
 62
     7
370
    25
100
AcDbSpline
210
0.0
220
0.0
230
1.0
 70
     8
 71
     3
 72
     8
 73
     4
 74
     0
 42
0.000000001
 43
0.00000001
 40
0.0
 40
0.0
 40
0.0
 40
0.0
 40
1.0
 40
1.0
 40
1.0
 40
1.0
 10
356.5221942439296
 20
112.175450270118
 30
0.0
 10
356.468951418988
 20
112.1759739963559
 30
0.0
 10
356.4156561333723
 20
112.1767720896182
 30
0.0
 10
356.3623106278828
 20
112.177845137543
 30
0.0
  0
LINE
  5
B2
330
1F
100
AcDbEntity
  8
0
  6
Continuous
 62
     7
370
    25
100
AcDbLine
 10
356.7903978425
 20
112.6303634998
 30
0.0
 11
356.9505350339
 21
112.6303634998
 31
0.0
  0
LINE
  5
B3
330
1F
100
AcDbEntity
  8
0
  6
Continuous
 62
     7
370
    25
100
AcDbLine
 10
377.2827056842
 20
112.6303634998
 30
0.0
 11
377.4428428757
 21
112.6303634998
 31
0.0
  0
SPLINE
  5
B4
330
1F
100
AcDbEntity
  8
0
  6
Continuous
 62
     7
370
    25
100
AcDbSpline
210
0.0
220
0.0
230
1.0
 70
     8
 71
     3
 72
     8
 73
     4
 74
     0
 42
0.000000001
 43
0.00000001
 40
0.0
 40
0.0
 40
0.0
 40
0.0
 40
1.0
 40
1.0
 40
1.0
 40
1.0
 10
377.8709300902374
 20
112.177845137543
 30
0.0
 10
377.8175845847479
 20
112.1767720896182
 30
0.0
 10
377.7642892991322
 20
112.1759739963559
 30
0.0
 10
377.7110464741906
 20
112.175450270118
 30
0.0
  0
LINE
  5
B5
330
1F
100
AcDbEntity
  8
0
  6
Continuous
 62
     7
370
    25
100
AcDbLine
 10
357.349095461
 20
121.7666137424
 30
0.0
 11
357.2256784561
 21
121.7666137424
 31
0.0
  0
SPLINE
  5
B6
330
1F
100
AcDbEntity
  8
0
  6
Continuous
 62
     7
370
    25
100
AcDbSpline
210
0.0
220
0.0
230
1.0
 70
     8
 71
     3
 72
     8
 73
     4
 74
     0
 42
0.000000001
 43
0.00000001
 40
0.0
 40
0.0
 40
0.0
 40
0.0
 40
1.0
 40
1.0
 40
1.0
 40
1.0
 10
356.8289294343803
 20
122.187059142631
 30
0.0
 10
356.8700448614222
 20
122.187928080271
 30
0.0
 10
356.9111191560332
 20
122.1886091178539
 30
0.0
 10
356.9521509285223
 20
122.1891026959154
 30
0.0
  0
SPLINE
  5
B7
330
1F
100
AcDbEntity
  8
0
  6
Continuous
 62
     7
370
    25
100
AcDbSpline
210
0.0
220
0.0
230
1.0
 70
     8
 71
     3
 72
     8
 73
     4
 74
     0
 42
0.000000001
 43
0.00000001
 40
0.0
 40
0.0
 40
0.0
 40
0.0
 40
1.0
 40
1.0
 40
1.0
 40
1.0
 10
377.2810897895978
 20
122.1891026959154
 30
0.0
 10
377.3221215620869
 20
122.1886091178539
 30
0.0
 10
377.363195856698
 20
122.187928080271
 30
0.0
 10
377.4043112837398
 20
122.1870591426311
 30
0.0
  0
LINE
  5
B8
330
1F
100
AcDbEntity
  8
0
  6
Continuous
 62
     7
370
    25
100
AcDbLine
 10
377.0075622621
 20
121.7666137424
 30
0.0
 11
376.8841452571
 21
121.7666137424
 31
0.0
  0
SPLINE
  5
B9
330
1F
100
AcDbEntity
  8
0
  6
Continuous
 62
     7
370
    25
100
AcDbSpline
210
0.0
220
0.0
230
1.0
 70
     8
 71
     3
 72
     9
 73
     5
 74
     0
 42
0.000000001
 43
0.00000001
 40
0.0
 40
0.0
 40
0.0
 40
0.0
 40
0.4897878789203994
 40
0.9999999999999999
 40
0.9999999999999999
 40
0.9999999999999999
 40
0.9999999999999999
 10
374.2222099237115
 20
121.9597304919324
 30
0.0
 10
374.3485650059327
 20
121.9610492176857
 30
0.0
 10
374.6065441999049
 20
121.963741660292
 30
0.0
 10
374.8604389481943
 20
121.966181738128
 30
0.0
 10
374.9899791262501
 20
121.9674266954163
 30
0.0
  0
ARC
  5
BA
330
1F
100
AcDbEntity
  8
0
  6
Continuous
 62
     7
370
    25
100
AcDbCircle
 10
367.1166203591
 20
116.7366136257
 30
0.0
 40
8.818750000000028
100
AcDbArc
 50
36.3185452201
 51
143.6814533294
  0
SPLINE
  5
BB
330
1F
100
AcDbEntity
  8
0
  6
Continuous
 62
     7
370
    25
100
AcDbSpline
210
0.0
220
0.0
230
1.0
 70
     8
 71
     3
 72
     9
 73
     5
 74
     0
 42
0.000000001
 43
0.00000001
 40
0.0
 40
0.0
 40
0.0
 40
0.0
 40
0.5102121239851395
 40
0.9999999999999999
 40
0.9999999999999999
 40
0.9999999999999999
 40
0.9999999999999999
 10
359.2432614907454
 20
121.9674268840206
 30
0.0
 10
359.3728017085962
 20
121.9661819253298
 30
0.0
 10
359.6266965334369
 20
121.9637418447587
 30
0.0
 10
359.8846758064467
 20
121.9610493990656
 30
0.0
 10
360.0110309266299
 20
121.9597306718082
 30
0.0
  0
SPLINE
  5
BC
330
1F
100
AcDbEntity
  8
0
  6
Continuous
 62
     7
370
    25
100
AcDbSpline
210
0.0
220
0.0
230
1.0
 70
     8
 71
     3
 72
     8
 73
     4
 74
     0
 42
0.000000001
 43
0.00000001
 40
0.0
 40
0.0
 40
0.0
 40
0.0
 40
1.0
 40
1.0
 40
1.0
 40
1.0
 10
360.0110306729554
 20
121.959730202531
 30
0.0
 10
360.00326961501
 20
121.9491719673319
 30
0.0
 10
359.9955320899141
 20
121.9385964338056
 30
0.0
 10
359.9878181745445
 20
121.9280037070262
 30
0.0
  0
SPLINE
  5
BD
330
1F
100
AcDbEntity
  8
0
  6
Continuous
 62
     7
370
    25
100
AcDbSpline
210
0.0
220
0.0
230
1.0
 70
     8
 71
     3
 72
     8
 73
     4
 74
     0
 42
0.000000001
 43
0.00000001
 40
0.0
 40
0.0
 40
0.0
 40
0.0
 40
1.0
 40
1.0
 40
1.0
 40
1.0
 10
359.8162603417816
 20
121.766613964563
 30
0.0
 10
359.873520748816
 20
121.8205221415507
 30
0.0
 10
359.9307071399257
 20
121.8743190666338
 30
0.0
 10
359.9878181745445
 20
121.9280037070262
 30
0.0
  0
LINE
  5
BE
330
1F
100
AcDbEntity
  8
0
  6
Continuous
 62
     7
370
    25
100
AcDbLine
 10
359.8162611621
 20
121.7666137424
 30
0.0
 11
359.2408910068
 21
121.7666137424
 31
0.0
  0
SPLINE
  5
BF
330
1F
100
AcDbEntity
  8
0
  6
Continuous
 62
     7
370
    25
100
AcDbSpline
210
0.0
220
0.0
230
1.0
 70
     8
 71
     3
 72
     8
 73
     4
 74
     0
 42
0.000000001
 43
0.00000001
 40
0.0
 40
0.0
 40
0.0
 40
0.0
 40
1.0
 40
1.0
 40
1.0
 40
1.0
 10
374.2455379753567
 20
121.9278451927273
 30
0.0
 10
374.237785862656
 20
121.9384908693999
 30
0.0
 10
374.2300099039888
 20
121.9491191815941
 30
0.0
 10
374.2222101773854
 20
121.9597300226565
 30
0.0
  0
LINE
  5
C0
330
1F
100
AcDbEntity
  8
0
  6
Continuous
 62
     7
370
    25
100
AcDbLine
 10
374.9923497113
 20
121.7666137424
 30
0.0
 11
374.4169511507
 21
121.7666137424
 31
0.0
  0
SPLINE
  5
C1
330
1F
100
AcDbEntity
  8
0
  6
Continuous
 62
     7
370
    25
100
AcDbSpline
210
0.0
220
0.0
230
1.0
 70
     8
 71
     3
 72
     8
 73
     4
 74
     0
 42
0.000000001
 43
0.00000001
 40
0.0
 40
0.0
 40
0.0
 40
0.0
 40
1.0
 40
1.0
 40
1.0
 40
1.0
 10
374.2455379753567
 20
121.9278451927273
 30
0.0
 10
374.3026011030428
 20
121.8742132423115
 30
0.0
 10
374.3597394827731
 20
121.8204691559466
 30
0.0
 10
374.4169517762469
 20
121.7666139646964
 30
0.0
  0
ARC
  5
C2
330
1F
100
AcDbEntity
  8
0
  6
Continuous
 62
     7
370
    25
100
AcDbCircle
 10
367.1166203591
 20
116.7366136257
 30
0.0
 40
8.818750000000044
100
AcDbArc
 50
209.2047569376
 51
330.7952430624
  0
SPLINE
  5
C3
330
1F
100
AcDbEntity
  8
0
  6
Continuous
 62
     7
370
    25
100
AcDbSpline
210
0.0
220
0.0
230
1.0
 70
    24
 71
     3
 72
     8
 73
     4
 74
     0
 42
0.000000001
 43
0.00000001
 40
0.0
 40
0.0
 40
0.0
 40
0.0
 40
0.000136040218399
 40
0.000136040218399
 40
0.000136040218399
 40
0.000136040218399
 10
374.8577557559043
 20
112.4770731948435
 30
0.0
 10
374.8433167562203
 20
112.4626341951594
 30
0.0
 10
374.828846303858
 20
112.4481637427972
 30
0.0
 10
374.8143447053066
 20
112.4336621442457
 30
0.0
  0
SPLINE
  5
C4
330
1F
100
AcDbEntity
  8
0
  6
Continuous
 62
     7
370
    25
100
AcDbSpline
210
0.0
220
0.0
230
1.0
 70
     8
 71
     3
 72
     9
 73
     5
 74
     0
 42
0.000000001
 43
0.00000001
 40
0.0
 40
0.0
 40
0.0
 40
0.0
 40
0.5086448740973026
 40
1.0
 40
1.0
 40
1.0
 40
1.0
 10
375.5044384846607
 20
112.4727825890584
 30
0.0
 10
375.3952724356628
 20
112.4734764379034
 30
0.0
 10
375.180651086747
 20
112.4748405504313
 30
0.0
 10
374.9641397740697
 20
112.4763373703691
 30
0.0
 10
374.8577558307697
 20
112.4770728405182
 30
0.0
  0
SPLINE
  5
C5
330
1F
100
AcDbEntity
  8
0
  6
Continuous
 62
     7
370
    25
100
AcDbSpline
210
0.0
220
0.0
230
1.0
 70
     8
 71
     3
 72
     9
 73
     5
 74
     0
 42
0.000000001
 43
0.00000001
 40
0.0
 40
0.0
 40
0.0
 40
0.0
 40
0.4913551252639757
 40
1.0
 40
1.0
 40
1.0
 40
1.0
 10
359.3754849178149
 20
112.4770728100536
 30
0.0
 10
359.2691009664229
 20
112.4763373397248
 30
0.0
 10
359.0525896369952
 20
112.474840519419
 30
0.0
 10
358.8379682716284
 20
112.4734764065647
 30
0.0
 10
358.7288022141258
 20
112.4727825575528
 30
0.0
  0
SPLINE
  5
C6
330
1F
100
AcDbEntity
  8
0
  6
Continuous
 62
     7
370
    25
100
AcDbSpline
210
0.0
220
0.0
230
1.0
 70
    24
 71
     3
 72
     8
 73
     4
 74
     0
 42
0.000000001
 43
0.00000001
 40
0.0
 40
0.0
 40
0.0
 40
0.0
 40
0.0001360401227241
 40
0.0001360401227241
 40
0.0001360401227241
 40
0.0001360401227241
 10
359.4188960128135
 20
112.4336621442457
 30
0.0
 10
359.4043944244609
 20
112.4481637325984
 30
0.0
 10
359.3899239822537
 20
112.4626341748057
 30
0.0
 10
359.3754849926803
 20
112.477073164379
 30
0.0
  0
LINE
  5
C7
330
1F
100
AcDbEntity
  8
0
  6
Continuous
 62
     7
370
    25
100
AcDbLine
 10
358.7181452336
 20
112.6303634998
 30
0.0
 11
359.2221947061
 21
112.6303634998
 31
0.0
  0
SPLINE
  5
C8
330
1F
100
AcDbEntity
  8
0
  6
Continuous
 62
     7
370
    25
100
AcDbSpline
210
0.0
220
0.0
230
1.0
 70
     8
 71
     3
 72
     8
 73
     4
 74
     0
 42
0.000000001
 43
0.00000001
 40
0.0
 40
0.0
 40
0.0
 40
0.0
 40
1.0
 40
1.0
 40
1.0
 40
1.0
 10
359.3754851925123
 20
112.4770729647919
 30
0.0
 10
359.3244164299078
 20
112.528115456536
 30
0.0
 10
359.2733194702719
 20
112.5792124285619
 30
0.0
 10
359.2221946287562
 20
112.6303635283031
 30
0.0
  0
SPLINE
  5
C9
330
1F
100
AcDbEntity
  8
0
  6
Continuous
 62
     7
370
    25
100
AcDbSpline
210
0.0
220
0.0
230
1.0
 70
     8
 71
     3
 72
     8
 73
     4
 74
     0
 42
0.000000001
 43
0.00000001
 40
0.0
 40
0.0
 40
0.0
 40
0.0
 40
1.0
 40
1.0
 40
1.0
 40
1.0
 10
375.0110460893641
 20
112.6303635283032
 30
0.0
 10
374.9599212580188
 20
112.5792124387479
 30
0.0
 10
374.9088243085378
 20
112.5281154768769
 30
0.0
 10
374.8577555560725
 20
112.4770729952565
 30
0.0
  0
LINE
  5
CA
330
1F
100
AcDbEntity
  8
0
  6
Continuous
 62
     7
370
    25
100
AcDbLine
 10
375.011046012
 20
112.6303634998
 30
0.0
 11
375.5150954845
 21
112.6303634998
 31
0.0
  0
CIRCLE
  5
CB
330
1F
100
AcDbEntity
  8
0
  6
Continuous
 62
     7
370
    25
100
AcDbCircle
 10
367.1166203591
 20
116.7366136257
 30
0.0
 40
12.47086902276419
  0
SPLINE
  5
CC
330
1F
100
AcDbEntity
  8
0
  6
Continuous
 62
     7
370
    25
100
AcDbSpline
210
0.0
220
0.0
230
1.0
 70
     8
 71
     3
 72
    23
 73
    19
 74
     0
 42
0.000000001
 43
0.00000001
 40
0.0
 40
0.0
 40
0.0
 40
0.0
 40
0.0521036415675031
 40
0.1035646240925967
 40
0.1544751946736949
 40
0.2049306267473421
 40
0.2550287880844035
 40
0.3048696389141012
 40
0.3545546704609132
 40
0.4041862979523234
 40
0.4538672252126086
 40
0.5036997999421611
 40
0.5901870230746071
 40
0.674271637822954
 40
0.7565997087222995
 40
0.8378563983721267
 40
0.9187511781367398
 40
1.0
 40
1.0
 40
1.0
 40
1.0
 10
356.2773682124026
 20
121.2270243384446
 30
0.0
 10
356.2906625673523
 20
121.2561922316061
 30
0.0
 10
356.3170873014305
 20
121.3141682540101
 30
0.0
 10
356.3562983076544
 20
121.3970675550221
 30
0.0
 10
356.3947402624601
 20
121.4762495360397
 30
0.0
 10
356.4323278439267
 20
121.5515043528416
 30
0.0
 10
356.4689837302342
 20
121.6229240070994
 30
0.0
 10
356.5046335942929
 20
121.690520615881
 30
0.0
 10
356.5392073410541
 20
121.7543269373455
 30
0.0
 10
356.5726390350101
 20
121.8143704794146
 30
0.0
 10
356.604865912235
 20
121.8706771761413
 30
0.0
 10
356.6433673491247
 20
121.936082157965
 30
0.0
 10
356.6860288298381
 20
122.0056432358011
 30
0.0
 10
356.7295218719611
 20
122.0724027324656
 30
0.0
 10
356.7659343687891
 20
122.1241267805634
 30
0.0
 10
356.7948351752663
 20
122.1605750926153
 30
0.0
 10
356.8167526313646
 20
122.1831724894984
 30
0.0
 10
356.8248645958578
 20
122.1857617070598
 30
0.0
 10
356.8289294343803
 20
122.1870591426311
 30
0.0
  0
SPLINE
  5
CD
330
1F
100
AcDbEntity
  8
0
  6
Continuous
 62
     7
370
    25
100
AcDbSpline
210
0.0
220
0.0
230
1.0
 70
     8
 71
     3
 72
     8
 73
     4
 74
     0
 42
0.000000001
 43
0.00000001
 40
0.0
 40
0.0
 40
0.0
 40
0.0
 40
1.0
 40
1.0
 40
1.0
 40
1.0
 10
356.1567302725398
 20
121.2248139810348
 30
0.0
 10
356.1969192861329
 20
121.2255442912523
 30
0.0
 10
356.2370815882228
 20
121.2261248170818
 30
0.0
 10
356.2772162986984
 20
121.2265557820316
 30
0.0
  0
SPLINE
  5
CE
330
1F
100
AcDbEntity
  8
0
  6
Continuous
 62
     7
370
    25
100
AcDbSpline
210
0.0
220
0.0
230
1.0
 70
     8
 71
     3
 72
    18
 73
    14
 74
     0
 42
0.000000001
 43
0.00000001
 40
0.0
 40
0.0
 40
0.0
 40
0.0
 40
0.0923824559411628
 40
0.1844689291573508
 40
0.2764953615950219
 40
0.3686975365494161
 40
0.4613092840003458
 40
0.5545607518442569
 40
0.6486768051537182
 40
0.7438756050146744
 40
0.8403674044302629
 40
0.9203921078121001
 40
1.0
 40
1.0
 40
1.0
 40
1.0
 10
356.2096692613393
 20
121.4916309879166
 30
0.0
 10
356.2115049149919
 20
121.4914226757014
 30
0.0
 10
356.2151703410748
 20
121.4910067186793
 30
0.0
 10
356.2179656706941
 20
121.4842022952131
 30
0.0
 10
356.2187679657726
 20
121.472868916561
 30
0.0
 10
356.2174018287294
 20
121.4565685215344
 30
0.0
 10
356.2139402801005
 20
121.4354172826985
 30
0.0
 10
356.2083989743311
 20
121.409381581582
 30
0.0
 10
356.2008145062622
 20
121.3784572019308
 30
0.0
 10
356.1912375043253
 20
121.3426581704861
 30
0.0
 10
356.1803970283066
 20
121.304407262955
 30
0.0
 10
356.1689083873677
 20
121.2651890495606
 30
0.0
 10
356.1608084024895
 20
121.2383340727111
 30
0.0
 10
356.1567689848468
 20
121.2249416443408
 30
0.0
  0
LINE
  5
CF
330
1F
100
AcDbEntity
  8
0
  6
Continuous
 62
     7
370
    25
100
AcDbLine
 10
356.1569140899
 20
121.4908831213
 30
0.0
 11
356.2096688571
 21
121.4916309733
 31
0.0
  0
SPLINE
  5
D0
330
1F
100
AcDbEntity
  8
0
  6
Continuous
 62
     7
370
    25
100
AcDbSpline
210
0.0
220
0.0
230
1.0
 70
     8
 71
     3
 72
    25
 73
    21
 74
     0
 42
0.000000001
 43
0.00000001
 40
0.0
 40
0.0
 40
0.0
 40
0.0
 40
0.0280105225426465
 40
0.0559601148860768
 40
0.0839014045043132
 40
0.1118870776786367
 40
0.1399695827588937
 40
0.1682008401739883
 40
0.196631967042422
 40
0.2253130233141467
 40
0.2542927850735845
 40
0.3799486436587335
 40
0.5057850221667067
 40
0.6313085886338298
 40
0.7532068238012468
 40
0.8039473267955921
 40
0.8535894438554446
 40
0.9025339722394071
 40
0.9511970353791085
 40
1.0
 40
1.0
 40
1.0
 40
1.0
 10
355.2459524942864
 20
118.923951368229
 30
0.0
 10
355.2529315641974
 20
118.9612613817358
 30
0.0
 10
355.2668745227202
 20
119.0358002497294
 30
0.0
 10
355.289396420163
 20
119.1471092952126
 30
0.0
 10
355.3130300322606
 20
119.257771504227
 30
0.0
 10
355.3378796227486
 20
119.3677556371713
 30
0.0
 10
355.3638982472348
 20
119.4770507807859
 30
0.0
 10
355.3910796285527
 20
119.585641749988
 30
0.0
 10
355.4194052698853
 20
119.6935124599304
 30
0.0
 10
355.4488640507179
 20
119.8006574056554
 30
0.0
 10
355.51327233863
 20
120.0248322921673
 30
0.0
 10
355.6183740307018
 20
120.3514977062033
 30
0.0
 10
355.763836791498
 20
120.7374443115232
 30
0.0
 10
355.9031001996078
 20
121.0595241242133
 30
0.0
 10
356.0002485524753
 20
121.255344708245
 30
0.0
 10
356.0605439587015
 20
121.3646921587284
 30
0.0
 10
356.0954325415828
 20
121.4226201831437
 30
0.0
 10
356.1233270435107
 20
121.4630741359087
 30
0.0
 10
356.1446921358823
 20
121.4876883513077
 30
0.0
 10
356.152836083455
 20
121.4898172788154
 30
0.0
 10
356.1569139021001
 20
121.4908832704867
 30
0.0
  0
ARC
  5
D1
330
1F
100
AcDbEntity
  8
0
  6
Continuous
 62
     7
370
    25
100
AcDbCircle
 10
367.1166203591
 20
116.7366136257
 30
0.0
 40
12.07050959801142
100
AcDbArc
 50
169.5595567507
 51
190.4404432494
  0
SPLINE
  5
D2
330
1F
100
AcDbEntity
  8
0
  6
Continuous
 62
     7
370
    25
100
AcDbSpline
210
0.0
220
0.0
230
1.0
 70
     8
 71
     3
 72
    26
 73
    22
 74
     0
 42
0.000000001
 43
0.00000001
 40
0.0
 40
0.0
 40
0.0
 40
0.0
 40
0.0241259796963635
 40
0.0482159912272988
 40
0.0723203915124065
 40
0.0964895678710797
 40
0.1207736231963513
 40
0.1452220711242836
 40
0.1698835501657706
 40
0.1948055644472379
 40
0.2200342569517627
 40
0.2456142191611387
 40
0.3690971486901655
 40
0.4940698769485187
 40
0.6192566784762451
 40
0.7454656653603225
 40
0.7971495824713707
 40
0.8481710308405392
 40
0.8988013269235234
 40
0.9493179290492194
 40
1.0
 40
1.0
 40
1.0
 40
1.0
 10
356.1569139021001
 20
111.9823439809026
 30
0.0
 10
356.1550035873597
 20
111.9826308740921
 30
0.0
 10
356.1511858058674
 20
111.9832042327568
 30
0.0
 10
356.1432256806865
 20
111.9892629210032
 30
0.0
 10
356.1336465801111
 20
111.9991421817341
 30
0.0
 10
356.1222993732424
 20
112.0132232728445
 30
0.0
 10
356.1092431899485
 20
112.0314188208687
 30
0.0
 10
356.0944872867212
 20
112.0537693636073
 30
0.0
 10
356.0780601064238
 20
112.0802835992994
 30
0.0
 10
356.0599919517036
 20
112.1109791100127
 30
0.0
 10
356.0403148052806
 20
112.1458802132526
 30
0.0
 10
355.9921154238523
 20
112.2346447483603
 30
0.0
 10
355.9037973844169
 20
112.4119250498091
 30
0.0
 10
355.7647377676502
 20
112.7330109566542
 30
0.0
 10
355.6190650877879
 20
113.1195936085447
 30
0.0
 10
355.5053264927785
 20
113.4733013126747
 30
0.0
 10
355.425620874232
 20
113.7555550122874
 30
0.0
 10
355.3749713018777
 20
113.9499984430617
 30
0.0
 10
355.3280046320123
 20
114.1472398199959
 30
0.0
 10
355.284444810008
 20
114.347142865091
 30
0.0
 10
355.2587972448765
 20
114.4818248048232
 30
0.0
 10
355.2459524942864
 20
114.5492758831604
 30
0.0
  0
LINE
  5
D3
330
1F
100
AcDbEntity
  8
0
  6
Continuous
 62
     7
370
    25
100
AcDbLine
 10
356.2096688571
 20
111.9815962781
 30
0.0
 11
356.1569140899
 21
111.9823441301
 31
0.0
  0
SPLINE
  5
D4
330
1F
100
AcDbEntity
  8
0
  6
Continuous
 62
     7
370
    25
100
AcDbSpline
210
0.0
220
0.0
230
1.0
 70
     8
 71
     3
 72
    14
 73
    10
 74
     0
 42
0.000000001
 43
0.00000001
 40
0.0
 40
0.0
 40
0.0
 40
0.0
 40
0.0789261963172865
 40
0.158232872055133
 40
0.330847539457262
 40
0.5000195457610529
 40
0.6670357883572423
 40
0.8332395193657144
 40
1.0
 40
1.0
 40
1.0
 40
1.0
 10
356.1566724044874
 20
112.2486197407774
 30
0.0
 10
356.1606869510835
 20
112.2353166161398
 30
0.0
 10
356.1687353971956
 20
112.2086462365073
 30
0.0
 10
356.1836361040051
 20
112.1578314971875
 30
0.0
 10
356.1995330856017
 20
112.1007916810006
 30
0.0
 10
356.2126115805994
 20
112.0464884642727
 30
0.0
 10
356.2188441877166
 20
112.0083213215498
 30
0.0
 10
356.2186546078798
 20
111.984912592873
 30
0.0
 10
356.212667713749
 20
111.9827029381944
 30
0.0
 10
356.2096692613393
 20
111.9815962634728
 30
0.0
  0
SPLINE
  5
D5
330
1F
100
AcDbEntity
  8
0
  6
Continuous
 62
     7
370
    25
100
AcDbSpline
210
0.0
220
0.0
230
1.0
 70
     8
 71
     3
 72
     8
 73
     4
 74
     0
 42
0.000000001
 43
0.00000001
 40
0.0
 40
0.0
 40
0.0
 40
0.0
 40
1.0
 40
1.0
 40
1.0
 40
1.0
 10
356.3039770957119
 20
112.246558662327
 30
0.0
 10
356.2549091806832
 20
112.2470457155389
 30
0.0
 10
356.2057997431623
 20
112.2477567834138
 30
0.0
 10
356.1566503986371
 20
112.2486922766481
 30
0.0
  0
SPLINE
  5
D6
330
1F
100
AcDbEntity
  8
0
  6
Continuous
 62
     7
370
    25
100
AcDbSpline
210
0.0
220
0.0
230
1.0
 70
     8
 71
     3
 72
    13
 73
     9
 74
     0
 42
0.000000001
 43
0.00000001
 40
0.0
 40
0.0
 40
0.0
 40
0.0
 40
0.1667030582307992
 40
0.3329480818053035
 40
0.4990671507274896
 40
0.6653938523718403
 40
0.832261271055009
 40
1.0
 40
1.0
 40
1.0
 40
1.0
 10
356.3623106278828
 20
112.177845137543
 30
0.0
 10
356.360467314046
 20
112.1782622473088
 30
0.0
 10
356.356785751076
 20
112.1790953207862
 30
0.0
 10
356.3492684972816
 20
112.1851097996126
 30
0.0
 10
356.3403176931651
 20
112.1946045319048
 30
0.0
 10
356.3297674047421
 20
112.2080141390145
 30
0.0
 10
356.317794219225
 20
112.224932042638
 30
0.0
 10
356.3085878116187
 20
112.2393447777775
 30
0.0
 10
356.3039726211298
 20
112.246569910639
 30
0.0
  0
SPLINE
  5
D7
330
1F
100
AcDbEntity
  8
0
  6
Continuous
 62
     7
370
    25
100
AcDbSpline
210
0.0
220
0.0
230
1.0
 70
     8
 71
     3
 72
    13
 73
     9
 74
     0
 42
0.000000001
 43
0.00000001
 40
0.0
 40
0.0
 40
0.0
 40
0.0
 40
0.1686319999748085
 40
0.3360343310905433
 40
0.502536782590866
 40
0.6684737453788339
 40
0.834182263691515
 40
1.0
 40
1.0
 40
1.0
 40
1.0
 10
377.9292694781084
 20
112.2465733604518
 30
0.0
 10
377.9246322330102
 20
112.2393162004324
 30
0.0
 10
377.9153915577238
 20
112.2248547997902
 30
0.0
 10
377.9033761843567
 20
112.207874103086
 30
0.0
 10
377.8928106306021
 20
112.1944413219065
 30
0.0
 10
377.8838712813091
 20
112.1849618533526
 30
0.0
 10
377.8763904007207
 20
112.1789966276547
 30
0.0
 10
377.8727505934311
 20
112.1782290518703
 30
0.0
 10
377.8709300902374
 20
112.177845137543
 30
0.0
  0
SPLINE
  5
D8
330
1F
100
AcDbEntity
  8
0
  6
Continuous
 62
     7
370
    25
100
AcDbSpline
210
0.0
220
0.0
230
1.0
 70
     8
 71
     3
 72
     8
 73
     4
 74
     0
 42
0.000000001
 43
0.00000001
 40
0.0
 40
0.0
 40
0.0
 40
0.0
 40
1.0
 40
1.0
 40
1.0
 40
1.0
 10
378.0765950900809
 20
112.2486923813946
 30
0.0
 10
378.0274441604726
 20
112.2477568511326
 30
0.0
 10
377.9783331403933
 20
112.2470457606205
 30
0.0
 10
377.9292636454855
 20
112.2465586991225
 30
0.0
  0
SPLINE
  5
D9
330
1F
100
AcDbEntity
  8
0
  6
Continuous
 62
     7
370
    25
100
AcDbSpline
210
0.0
220
0.0
230
1.0
 70
     8
 71
     3
 72
    18
 73
    14
 74
     0
 42
0.000000001
 43
0.00000001
 40
0.0
 40
0.0
 40
0.0
 40
0.0
 40
0.0923325137111192
 40
0.1843692047063016
 40
0.2763458873810836
 40
0.3684982175655623
 40
0.4610598988303626
 40
0.554260954653301
 40
0.6483261285442131
 40
0.74347346365053
 40
0.8399130993119804
 40
0.9201660718299768
 40
1.0
 40
1.0
 40
1.0
 40
1.0
 10
378.0235714567809
 20
111.9815962634728
 30
0.0
 10
378.0217358031284
 20
111.9818045756886
 30
0.0
 10
378.0180703770459
 20
111.9822205327119
 30
0.0
 10
378.0152750474236
 20
111.9890249561692
 30
0.0
 10
378.0144727523568
 20
112.000358334855
 30
0.0
 10
378.015838889356
 20
112.0166587297554
 30
0.0
 10
378.0193004381501
 20
112.0378099690655
 30
0.0
 10
378.0248417432965
 20
112.0638456683931
 30
0.0
 10
378.0324262137237
 20
112.0947700548158
 30
0.0
 10
378.0420032067042
 20
112.1305690605439
 30
0.0
 10
378.05285455373
 20
112.1688583056576
 30
0.0
 10
378.0643693153619
 20
112.2081639300741
 30
0.0
 10
378.0725010241831
 20
112.2351210079678
 30
0.0
 10
378.0765562357908
 20
112.2485642654173
 30
0.0
  0
LINE
  5
DA
330
1F
100
AcDbEntity
  8
0
  6
Continuous
 62
     7
370
    25
100
AcDbLine
 10
378.0763266283
 20
111.9823441301
 30
0.0
 11
378.023571861
 21
111.9815962781
 31
0.0
  0
SPLINE
  5
DB
330
1F
100
AcDbEntity
  8
0
  6
Continuous
 62
     7
370
    25
100
AcDbSpline
210
0.0
220
0.0
230
1.0
 70
     8
 71
     3
 72
    25
 73
    21
 74
     0
 42
0.000000001
 43
0.00000001
 40
0.0
 40
0.0
 40
0.0
 40
0.0
 40
0.0280105225422753
 40
0.0559601148854256
 40
0.0839014045034749
 40
0.1118870776777086
 40
0.1399695827579646
 40
0.1682008401731476
 40
0.1966319670417595
 40
0.2253130233137476
 40
0.2542927850735311
 40
0.3799486436564626
 40
0.5057850221666382
 40
0.631308588631066
 40
0.7532068238011618
 40
0.8039473267946936
 40
0.8535894438541253
 40
0.9025339722380873
 40
0.9511970353782256
 40
1.0
 40
1.0
 40
1.0
 40
1.0
 10
378.9872882238338
 20
114.5492758831604
 30
0.0
 10
378.9803091539229
 20
114.5119658696542
 30
0.0
 10
378.9663661954003
 20
114.4374270016614
 30
0.0
 10
378.9438442979577
 20
114.3261179561793
 30
0.0
 10
378.9202106858603
 20
114.2154557471656
 30
0.0
 10
378.8953610953724
 20
114.1054716142217
 30
0.0
 10
378.8693424708862
 20
113.9961764706071
 30
0.0
 10
378.8421610895682
 20
113.8875855014046
 30
0.0
 10
378.8138354482355
 20
113.7797147914615
 30
0.0
 10
378.7843766674027
 20
113.6725698457354
 30
0.0
 10
378.7199683794911
 20
113.4483949592249
 30
0.0
 10
378.6148666874193
 20
113.1217295451889
 30
0.0
 10
378.4694039266241
 20
112.7357829398708
 30
0.0
 10
378.3301405185134
 20
112.4137031271782
 30
0.0
 10
378.2329921656462
 20
112.2178825431472
 30
0.0
 10
378.1726967594187
 20
112.1085350926606
 30
0.0
 10
378.1378081765375
 20
112.0506070682454
 30
0.0
 10
378.1099136746097
 20
112.0101531154805
 30
0.0
 10
378.0885485822379
 20
111.9855389000816
 30
0.0
 10
378.0804046346652
 20
111.983409972574
 30
0.0
 10
378.0763268160202
 20
111.9823439809026
 30
0.0
  0
ARC
  5
DC
330
1F
100
AcDbEntity
  8
0
  6
Continuous
 62
     7
370
    25
100
AcDbCircle
 10
367.1166203591
 20
116.7366136257
 30
0.0
 40
12.07050959801141
100
AcDbArc
 50
349.5595567507
 51
10.4404432493
  0
SPLINE
  5
DD
330
1F
100
AcDbEntity
  8
0
  6
Continuous
 62
     7
370
    25
100
AcDbSpline
210
0.0
220
0.0
230
1.0
 70
     8
 71
     3
 72
    26
 73
    22
 74
     0
 42
0.000000001
 43
0.00000001
 40
0.0
 40
0.0
 40
0.0
 40
0.0
 40
0.0241259796962591
 40
0.0482159912271133
 40
0.0723203915121637
 40
0.0964895678708023
 40
0.1207736231960627
 40
0.1452220711240065
 40
0.1698835501655268
 40
0.1948055644470484
 40
0.220034256951649
 40
0.2456142191611191
 40
0.3690971486898426
 40
0.4940698769485092
 40
0.6192566784753767
 40
0.7454656653602836
 40
0.7971495824708205
 40
0.848171030839725
 40
0.8988013269227118
 40
0.9493179290486752
 40
1.0
 40
1.0
 40
1.0
 40
1.0
 10
378.0763268160202
 20
121.4908832704868
 30
0.0
 10
378.0782371307606
 20
121.4905963772973
 30
0.0
 10
378.0820549122527
 20
121.4900230186326
 30
0.0
 10
378.0900150374336
 20
121.4839643303861
 30
0.0
 10
378.099594138009
 20
121.4740850696553
 30
0.0
 10
378.1109413448777
 20
121.4600039785449
 30
0.0
 10
378.1239975281716
 20
121.4418084305207
 30
0.0
 10
378.138753431399
 20
121.419457887782
 30
0.0
 10
378.1551806116963
 20
121.39294365209
 30
0.0
 10
378.1732487664166
 20
121.3622481413767
 30
0.0
 10
378.1929259128396
 20
121.3273470381368
 30
0.0
 10
378.2411252942677
 20
121.2385825030295
 30
0.0
 10
378.3294433337031
 20
121.0613022015807
 30
0.0
 10
378.4685029504696
 20
120.7402162947363
 30
0.0
 10
378.614175630332
 20
120.3536336428452
 30
0.0
 10
378.7279142253412
 20
119.9999259387162
 30
0.0
 10
378.8076198438877
 20
119.7176722391038
 30
0.0
 10
378.8582694162418
 20
119.5232288083305
 30
0.0
 10
378.9052360861072
 20
119.3259874313964
 30
0.0
 10
378.9487959081119
 20
119.1260843863002
 30
0.0
 10
378.9744434732436
 20
118.9914024465669
 30
0.0
 10
378.9872882238338
 20
118.923951368229
 30
0.0
  0
LINE
  5
DE
330
1F
100
AcDbEntity
  8
0
  6
Continuous
 62
     7
370
    25
100
AcDbLine
 10
378.023571861
 20
121.4916309733
 30
0.0
 11
378.0763266283
 21
121.4908831213
 31
0.0
  0
SPLINE
  5
DF
330
1F
100
AcDbEntity
  8
0
  6
Continuous
 62
     7
370
    25
100
AcDbSpline
210
0.0
220
0.0
230
1.0
 70
     8
 71
     3
 72
    14
 73
    10
 74
     0
 42
0.000000001
 43
0.00000001
 40
0.0
 40
0.0
 40
0.0
 40
0.0
 40
0.0786889129232242
 40
0.1577561817122941
 40
0.3304686003115578
 40
0.4997364082435315
 40
0.6668472316653192
 40
0.8331450833767118
 40
1.0
 40
1.0
 40
1.0
 40
1.0
 10
378.0764797435577
 20
121.2248994786991
 30
0.0
 10
378.0724817346031
 20
121.2381493832149
 30
0.0
 10
378.0644664932723
 20
121.2647129010832
 30
0.0
 10
378.0495938199829
 20
121.315434428852
 30
0.0
 10
378.0337076552207
 20
121.3724355078759
 30
0.0
 10
378.0206291315764
 20
121.4267388034849
 30
0.0
 10
378.0143965319713
 20
121.4649059255222
 30
0.0
 10
378.0145861098477
 20
121.4883146595977
 30
0.0
 10
378.0205730042401
 20
121.4905243135559
 30
0.0
 10
378.0235714567809
 20
121.4916309879166
 30
0.0
  0
SPLINE
  5
E0
330
1F
100
AcDbEntity
  8
0
  6
Continuous
 62
     7
370
    25
100
AcDbSpline
210
0.0
220
0.0
230
1.0
 70
     8
 71
     3
 72
     8
 73
     4
 74
     0
 42
0.000000001
 43
0.00000001
 40
0.0
 40
0.0
 40
0.0
 40
0.0
 40
1.0
 40
1.0
 40
1.0
 40
1.0
 10
377.956024402875
 20
121.2265558186644
 30
0.0
 10
377.9961575213816
 20
121.2261248647171
 30
0.0
 10
378.0363182293102
 20
121.2255443617047
 30
0.0
 10
378.0765056466531
 20
121.2248140861451
 30
0.0
  0
SPLINE
  5
E1
330
1F
100
AcDbEntity
  8
0
  6
Continuous
 62
     7
370
    25
100
AcDbSpline
210
0.0
220
0.0
230
1.0
 70
     8
 71
     3
 72
    23
 73
    19
 74
     0
 42
0.000000001
 43
0.00000001
 40
0.0
 40
0.0
 40
0.0
 40
0.0
 40
0.0441308420121292
 40
0.0880968635211716
 40
0.1320155028408941
 40
0.1760048571434164
 40
0.2201827305793597
 40
0.2646656976937351
 40
0.3095682184569769
 40
0.355001836559425
 40
0.401074485474427
 40
0.4478899182339682
 40
0.4955472680213688
 40
0.5953670562452651
 40
0.6949121173401501
 40
0.7950007648984784
 40
0.8964386255170008
 40
1.0
 40
1.0
 40
1.0
 40
1.0
 10
377.4043112837398
 20
122.1870591426311
 30
0.0
 10
377.4062956738467
 20
122.1867762854012
 30
0.0
 10
377.4102570427316
 20
122.1862116273606
 30
0.0
 10
377.4191173469621
 20
122.1797922741818
 30
0.0
 10
377.4300898250844
 20
122.1692710246752
 30
0.0
 10
377.4433692231049
 20
122.1542394883655
 30
0.0
 10
377.4588799467711
 20
122.1347872433031
 30
0.0
 10
377.4766114085242
 20
122.110867265351
 30
0.0
 10
377.4965280552274
 20
122.0824661746372
 30
0.0
 10
377.5185935892395
 20
122.0495584348365
 30
0.0
 10
377.5427645129336
 20
122.0121184521803
 30
0.0
 10
377.5689915229809
 20
121.9701183805504
 30
0.0
 10
377.607328103212
 20
121.9068412720273
 30
0.0
 10
377.6596608825904
 20
121.8167824096641
 30
0.0
 10
377.7280614937986
 20
121.6924362900974
 30
0.0
 10
377.8007465685941
 20
121.5527232121169
 30
0.0
 10
377.8771068044939
 20
121.3983871968885
 30
0.0
 10
377.9293956191441
 20
121.2846645426607
 30
0.0
 10
377.9558108470477
 20
121.2272142093663
 30
0.0
  0
SPLINE
  5
E2
330
1F
100
AcDbEntity
  8
0
  6
Continuous
 62
     7
370
    25
100
AcDbSpline
210
0.0
220
0.0
230
1.0
 70
    11
 71
     3
 72
    39
 73
    35
 74
     0
 42
0.000000001
 43
0.00000001
 40
0.0
 40
0.0
 40
0.0
 40
0.0
 40
0.0310664058348413
 40
0.0621048158426138
 40
0.0931361551796939
 40
0.1235538293503726
 40
0.1538561545809849
 40
0.1850588072749156
 40
0.2160250992946587
 40
0.2471867223797568
 40
0.2784462884304475
 40
0.3100516090231247
 40
0.3419834369138969
 40
0.3734259894013238
 40
0.4048604886787081
 40
0.436874065183343
 40
0.4685120685926471
 40
0.499805535863323
 40
0.5309508213226204
 40
0.5618649784438111
 40
0.5930416446590877
 40
0.623374245013332
 40
0.6540913579072549
 40
0.6849496782718453
 40
0.7158160645166705
 40
0.7471731804043553
 40
0.7784514311866318
 40
0.810129591156098
 40
0.8419598919688388
 40
0.8735175891922303
 40
0.9050808037886594
 40
0.9370235169792582
 40
0.9687441590030581
 40
1.0
 40
1.0
 40
1.0
 40
1.0
 10
370.0207469238575
 20
105.3049834419413
 30
0.0
 10
370.2104587528121
 20
105.3437520186888
 30
0.0
 10
370.5541996032609
 20
105.4201829644718
 30
0.0
 10
370.9371565904685
 20
105.508322504465
 30
0.0
 10
371.1815970571837
 20
105.55527199111
 30
0.0
 10
371.2625859939999
 20
105.5433630663962
 30
0.0
 10
371.1818635485182
 20
105.4714051596808
 30
0.0
 10
370.9420013548985
 20
105.3468848934834
 30
0.0
 10
370.5653516208013
 20
105.1895159036582
 30
0.0
 10
370.0591086839734
 20
105.0174918189632
 30
0.0
 10
369.44183429029
 20
104.8525674113776
 30
0.0
 10
368.7293584761503
 20
104.7148548352991
 30
0.0
 10
367.9538932363777
 20
104.6232220227904
 30
0.0
 10
367.1434288027634
 20
104.5898894446949
 30
0.0
 10
366.3309243298008
 20
104.6191368902482
 30
0.0
 10
365.5514113396637
 20
104.7074658472358
 30
0.0
 10
364.8330830403283
 20
104.8429713468706
 30
0.0
 10
364.2097109329283
 20
105.0067478683619
 30
0.0
 10
363.6966123383327
 20
105.1787540125072
 30
0.0
 10
363.3114102284712
 20
105.3375660269784
 30
0.0
 10
363.0619856232302
 20
105.4648249921438
 30
0.0
 10
362.9713835832838
 20
105.5404319490988
 30
0.0
 10
363.039595154243
 20
105.5572013457787
 30
0.0
 10
363.2718110206458
 20
105.5144210035635
 30
0.0
 10
363.64902805783
 20
105.4272943186536
 30
0.0
 10
364.1607329255976
 20
105.3125652633466
 30
0.0
 10
364.7842040563445
 20
105.1931431182941
 30
0.0
 10
365.5007487594773
 20
105.0885176682448
 30
0.0
 10
366.2790798720882
 20
105.0178691753179
 30
0.0
 10
367.0909113589382
 20
104.9917903508879
 30
0.0
 10
367.9046858809353
 20
105.0148159225786
 30
0.0
 10
368.6870597251008
 20
105.0830483607163
 30
0.0
 10
369.4090727598348
 20
105.186295540426
 30
0.0
 10
369.8298782796838
 20
105.2659784641225
 30
0.0
 10
370.0207469238574
 20
105.3049834419413
 30
0.0
  0
SPLINE
  5
E3
330
1F
100
AcDbEntity
  8
0
  6
Continuous
 62
     7
370
    25
100
AcDbSpline
210
0.0
220
0.0
230
1.0
 70
    11
 71
     3
 72
    39
 73
    35
 74
     0
 42
0.000000001
 43
0.00000001
 40
0.0
 40
0.0
 40
0.0
 40
0.0
 40
0.0312651429934057
 40
0.0629601069329321
 40
0.0948697276489808
 40
0.1264264963751833
 40
0.1579651393672472
 40
0.1898765439016956
 40
0.221552335268876
 40
0.2527844076550827
 40
0.2838418966734154
 40
0.3148645781100674
 40
0.3459127639308091
 40
0.3763475365526575
 40
0.4066751324671412
 40
0.4379141187435632
 40
0.4688932367345488
 40
0.5000738678969536
 40
0.5313369410958942
 40
0.5629183719104849
 40
0.5948445736343699
 40
0.6262809966135365
 40
0.6577486436587271
 40
0.6897584692806508
 40
0.7214430019610059
 40
0.7527623343195418
 40
0.7839279690572818
 40
0.8148885765585865
 40
0.8460375004982862
 40
0.8763409566916784
 40
0.906758919146387
 40
0.9378312724751761
 40
0.9689189660506093
 40
1.0
 40
1.0
 40
1.0
 40
1.0
 10
370.0206426740706
 20
128.1682758618838
 30
0.0
 10
369.8295687377889
 20
128.2073398197645
 30
0.0
 10
369.4086341753493
 20
128.2870588143246
 30
0.0
 10
368.6872447701857
 20
128.390174229675
 30
0.0
 10
367.9055887218953
 20
128.458375102099
 30
0.0
 10
367.0925010021845
 20
128.4814319947409
 30
0.0
 10
366.2802207853325
 20
128.4554477210947
 30
0.0
 10
365.5015903602829
 20
128.3848575558565
 30
0.0
 10
364.7849145703715
 20
128.2802419936173
 30
0.0
 10
364.1630393007099
 20
128.1610696686009
 30
0.0
 10
363.6535283672241
 20
128.0471325008747
 30
0.0
 10
363.2784090209798
 20
127.9610182219282
 30
0.0
 10
363.0424484461289
 20
127.9169625005923
 30
0.0
 10
362.9710479029473
 20
127.9324923013035
 30
0.0
 10
363.0616443327451
 20
128.0080011834874
 30
0.0
 10
363.3106206131046
 20
128.1351747113316
 30
0.0
 10
363.6955354329473
 20
128.2940253899439
 30
0.0
 10
364.2083207397695
 20
128.4660496511539
 30
0.0
 10
364.8307798626943
 20
128.6297227306886
 30
0.0
 10
365.5472800075009
 20
128.7651243040688
 30
0.0
 10
366.325379041611
 20
128.8536419715516
 30
0.0
 10
367.137101730258
 20
128.8833493800344
 30
0.0
 10
367.9485439179593
 20
128.8504629353843
 30
0.0
 10
368.7256698094413
 20
128.7589820273396
 30
0.0
 10
369.4401078986118
 20
128.6210978373781
 30
0.0
 10
370.0583308568472
 20
128.4559700125282
 30
0.0
 10
370.5646982175732
 20
128.2839194751756
 30
0.0
 10
370.9412507389868
 20
128.1266359534654
 30
0.0
 10
371.1809465504182
 20
128.0022321559814
 30
0.0
 10
371.2624132586125
 20
127.9300439825451
 30
0.0
 10
371.1823540161207
 20
127.9177714741671
 30
0.0
 10
370.9380080101669
 20
127.9646668846732
 30
0.0
 10
370.555034576718
 20
128.0528004328187
 30
0.0
 10
370.2105914455081
 20
128.1294419374287
 30
0.0
 10
370.0206426740706
 20
128.1682758618838
 30
0.0
  0
SPLINE
  5
E4
330
1F
100
AcDbEntity
  8
0
  6
Continuous
 62
     7
370
    25
100
AcDbSpline
210
0.0
220
0.0
230
1.0
 70
     8
 71
     3
 72
    23
 73
    19
 74
     0
 42
0.000000001
 43
0.00000001
 40
0.0
 40
0.0
 40
0.0
 40
0.0
 40
0.0449850911516383
 40
0.0909520670767777
 40
0.1379394291255006
 40
0.1859832248910951
 40
0.2351171761689533
 40
0.2853728096402591
 40
0.3367795876576951
 40
0.3893650370792399
 40
0.4431548745925064
 40
0.498173127394291
 40
0.5575107590849617
 40
0.6265492281305397
 40
0.7053073138942775
 40
0.7937970253739629
 40
0.8920262115920568
 40
1.0
 40
1.0
 40
1.0
 40
1.0
 10
357.2256786475029
 20
121.7666136256947
 30
0.0
 10
357.2235159581373
 20
121.7661847240351
 30
0.0
 10
357.2191433746167
 20
121.7653175591253
 30
0.0
 10
357.2088624154252
 20
121.7582239915243
 30
0.0
 10
357.1958021373954
 20
121.7466112499453
 30
0.0
 10
357.1796829758412
 20
121.7298218797727
 30
0.0
 10
357.1605825481852
 20
121.707749893158
 30
0.0
 10
357.1384801954293
 20
121.6801524193947
 30
0.0
 10
357.1133797168936
 20
121.6468439881853
 30
0.0
 10
357.0852885855156
 20
121.6076436497786
 30
0.0
 10
357.0541726846636
 20
121.5624016043054
 30
0.0
 10
357.0195337537814
 20
121.5100056719161
 30
0.0
 10
356.9788122455026
 20
121.4472232036969
 30
0.0
 10
356.9300913244779
 20
121.3694662044383
 30
0.0
 10
356.8723169861599
 20
121.2721816468598
 30
0.0
 10
356.8054063365149
 20
121.1524368131407
 30
0.0
 10
356.7294623722215
 20
121.0085166082365
 30
0.0
 10
356.6751012075363
 20
120.8977824033435
 30
0.0
 10
356.6466361434218
 20
120.8397987994196
 30
0.0
  0
LINE
  5
E5
330
1F
100
AcDbEntity
  8
0
  6
Continuous
 62
     7
370
    25
100
AcDbLine
 10
356.6466360959
 20
120.8403249663
 30
0.0
 11
356.2772968459
 21
121.2264098619
 31
0.0
  0
LINE
  5
E6
330
1F
100
AcDbEntity
  8
0
  6
Continuous
 62
     7
370
    25
100
AcDbLine
 10
377.955911276
 20
121.2263502572
 30
0.0
 11
377.5866446691
 21
120.8403421957
 31
0.0
  0
SPLINE
  5
E7
330
1F
100
AcDbEntity
  8
0
  6
Continuous
 62
     7
370
    25
100
AcDbSpline
210
0.0
220
0.0
230
1.0
 70
     8
 71
     3
 72
    26
 73
    22
 74
     0
 42
0.000000001
 43
0.00000001
 40
0.0
 40
0.0
 40
0.0
 40
0.0
 40
0.0509383868653979
 40
0.0998291548270505
 40
0.1466728126490638
 40
0.1914699456369332
 40
0.2342212299774179
 40
0.274927450668867
 40
0.3135895241747119
 40
0.3502085273716571
 40
0.3847857350077695
 40
0.4173226688482998
 40
0.4478211631571791
 40
0.4762834534603437
 40
0.5027122992246547
 40
0.593906700502561
 40
0.6816015993191188
 40
0.7659159552051488
 40
0.846983628966416
 40
0.9249552229440475
 40
1.0
 40
1.0
 40
1.0
 40
1.0
 10
377.5866450593667
 20
120.8396080691699
 30
0.0
 10
377.5731871951687
 20
120.8672288503342
 30
0.0
 10
377.5468124453709
 20
120.9213601137875
 30
0.0
 10
377.508440265592
 20
120.9976681508626
 30
0.0
 10
377.4719740830997
 20
121.0684203304544
 30
0.0
 10
377.437437833476
 20
121.1335921571425
 30
0.0
 10
377.4048253816232
 20
121.1934504023942
 30
0.0
 10
377.3741380978302
 20
121.2482155619356
 30
0.0
 10
377.345375481529
 20
121.2981399532476
 30
0.0
 10
377.3185373170567
 20
121.3434821838427
 30
0.0
 10
377.2936237366285
 20
121.3845081227835
 30
0.0
 10
377.2706330898397
 20
121.4214855077306
 30
0.0
 10
377.2495695843501
 20
121.4546816237139
 30
0.0
 10
377.2304172139709
 20
121.4843573559812
 30
0.0
 10
377.198746137026
 20
121.533027681031
 30
0.0
 10
377.1572761915895
 20
121.5949229989497
 30
0.0
 10
377.1102866754457
 20
121.6602636063734
 30
0.0
 10
377.0716681057308
 20
121.7093819976652
 30
0.0
 10
377.0416196460095
 20
121.7428582861774
 30
0.0
 10
377.0193295350403
 20
121.7629757184154
 30
0.0
 10
377.0114342196069
 20
121.765416552265
 30
0.0
 10
377.0075620706174
 20
121.7666136256947
 30
0.0
  0
SPLINE
  5
E8
330
1F
100
AcDbEntity
  8
0
  6
Continuous
 62
     7
370
    25
100
AcDbSpline
210
0.0
220
0.0
230
1.0
 70
     8
 71
     3
 72
     8
 73
     4
 74
     0
 42
0.000000001
 43
0.00000001
 40
0.0
 40
0.0
 40
0.0
 40
0.0
 40
1.0
 40
1.0
 40
1.0
 40
1.0
 10
374.8583008108604
 20
120.9596119521774
 30
0.0
 10
374.9218937912005
 20
120.8939431743306
 30
0.0
 10
374.9858502176359
 20
120.8296008766704
 30
0.0
 10
375.0500491373433
 20
120.7678636256947
 30
0.0
  0
SPLINE
  5
E9
330
1F
100
AcDbEntity
  8
0
  6
Continuous
 62
     7
370
    25
100
AcDbSpline
210
0.0
220
0.0
230
1.0
 70
     8
 71
     3
 72
    25
 73
    21
 74
     0
 42
0.000000001
 43
0.00000001
 40
0.0
 40
0.0
 40
0.0
 40
0.0
 40
0.0367725003254103
 40
0.074208401060063
 40
0.1123590542807964
 40
0.1512729822568881
 40
0.190995910016845
 40
0.2315708273504481
 40
0.2730380740418892
 40
0.3154354426077851
 40
0.3587982934432034
 40
0.4031596779810961
 40
0.4485504661847858
 40
0.494999475376923
 40
0.5532504315673752
 40
0.621829488573267
 40
0.7007739996560722
 40
0.7901076726660372
 40
0.8898461547533933
 40
1.0
 40
1.0
 40
1.0
 40
1.0
 10
374.4163796235489
 20
121.7666136256943
 30
0.0
 10
374.4166033976138
 20
121.7662889380606
 30
0.0
 10
374.4170549827767
 20
121.7656337052118
 30
0.0
 10
374.421772022649
 20
121.7602713334241
 30
0.0
 10
374.4294246317316
 20
121.7515157397236
 30
0.0
 10
374.4403176108686
 20
121.7388915216317
 30
0.0
 10
374.4543661972844
 20
121.7223351835013
 30
0.0
 10
374.4715930948936
 20
121.7016780061235
 30
0.0
 10
374.4919916476751
 20
121.6767902701557
 30
0.0
 10
374.5155624609673
 20
121.6475427239623
 30
0.0
 10
374.542307809527
 20
121.6138197887658
 30
0.0
 10
374.5722156629594
 20
121.5755139736404
 30
0.0
 10
374.6053317553038
 20
121.5325430783024
 30
0.0
 10
374.6442576768778
 20
121.4811217966317
 30
0.0
 10
374.6930857565944
 20
121.4169055649426
 30
0.0
 10
374.7550063611955
 20
121.334011035848
 30
0.0
 10
374.8293909195165
 20
121.2300652856336
 30
0.0
 10
374.916365347505
 20
121.1019790753763
 30
0.0
 10
375.0157901974876
 20
120.94788929547
 30
0.0
 10
375.0872093732171
 20
120.8298250595995
 30
0.0
 10
375.124690956898
 20
120.7678636256947
 30
0.0
  0
LINE
  5
EA
330
1F
100
AcDbEntity
  8
0
  6
Continuous
 62
     7
370
    25
100
AcDbLine
 10
375.1246906491
 20
120.7678634134
 30
0.0
 11
375.0500488701
 21
120.7678634134
 31
0.0
  0
SPLINE
  5
EB
330
1F
100
AcDbEntity
  8
0
  6
Continuous
 62
     7
370
    25
100
AcDbSpline
210
0.0
220
0.0
230
1.0
 70
     8
 71
     3
 72
    23
 73
    19
 74
     0
 42
0.000000001
 43
0.00000001
 40
0.0
 40
0.0
 40
0.0
 40
0.0
 40
0.0511129009857221
 40
0.1016896331838983
 40
0.1518293139104713
 40
0.201633670189439
 40
0.2512064936754081
 40
0.3006530343006331
 40
0.3500793489716449
 40
0.3995916247932065
 40
0.4492954981442684
 40
0.4992953912354716
 40
0.5872572780521574
 40
0.6724255494349275
 40
0.7555067762540824
 40
0.8372616735271673
 40
0.9184882400167564
 40
1.0
 40
1.0
 40
1.0
 40
1.0
 10
374.8583634869859
 20
120.9598546682725
 30
0.0
 10
374.8423479030854
 20
120.9889832705035
 30
0.0
 10
374.8104847370224
 20
121.0469349190873
 30
0.0
 10
374.7634408986035
 20
121.1296927543055
 30
0.0
 10
374.7174623744285
 20
121.2087816127898
 30
0.0
 10
374.672681707625
 20
121.2839986007239
 30
0.0
 10
374.6291979431891
 20
121.3554616557696
 30
0.0
 10
374.5871119796044
 20
121.4232030599579
 30
0.0
 10
374.5465175152071
 20
121.4872765717029
 30
0.0
 10
374.5075026088569
 20
121.5477301707741
 30
0.0
 10
374.4701527863694
 20
121.6046076757024
 30
0.0
 10
374.4256245297773
 20
121.6713221487629
 30
0.0
 10
374.3769842692362
 20
121.7426424326274
 30
0.0
 10
374.3291451694803
 20
121.8112226850864
 30
0.0
 10
374.2914936573994
 20
121.8642390131286
 30
0.0
 10
374.264670956012
 20
121.9015116692562
 30
0.0
 10
374.2479421251884
 20
121.9245490688362
 30
0.0
 10
374.2460937152246
 20
121.9270837941014
 30
0.0
 10
374.2451678906042
 20
121.9283533777448
 30
0.0
  0
SPLINE
  5
EC
330
1F
100
AcDbEntity
  8
0
  6
Continuous
 62
     7
370
    25
100
AcDbSpline
210
0.0
220
0.0
230
1.0
 70
     8
 71
     3
 72
     8
 73
     4
 74
     0
 42
0.000000001
 43
0.00000001
 40
0.0
 40
0.0
 40
0.0
 40
0.0
 40
1.0
 40
1.0
 40
1.0
 40
1.0
 10
377.5205130061321
 20
120.7678636256946
 30
0.0
 10
377.5423983777753
 20
120.7921846418922
 30
0.0
 10
377.5642837494184
 20
120.8162092402147
 30
0.0
 10
377.5861691210616
 20
120.8399160923032
 30
0.0
  0
LINE
  5
ED
330
1F
100
AcDbEntity
  8
0
  6
Continuous
 62
     7
370
    25
100
AcDbLine
 10
377.5203531283
 20
120.7678634134
 30
0.0
 11
375.1246906491
 21
120.7678634134
 31
0.0
  0
SPLINE
  5
EE
330
1F
100
AcDbEntity
  8
0
  6
Continuous
 62
     7
370
    25
100
AcDbSpline
210
0.0
220
0.0
230
1.0
 70
     8
 71
     3
 72
     8
 73
     4
 74
     0
 42
0.000000001
 43
0.00000001
 40
0.0
 40
0.0
 40
0.0
 40
0.0
 40
1.0
 40
1.0
 40
1.0
 40
1.0
 10
356.6469773712338
 20
120.8400196597833
 30
0.0
 10
356.6688941437214
 20
120.8162792112242
 30
0.0
 10
356.690810916209
 20
120.7922200594376
 30
0.0
 10
356.7127276886965
 20
120.7678636256947
 30
0.0
  0
SPLINE
  5
EF
330
1F
100
AcDbEntity
  8
0
  6
Continuous
 62
     7
370
    25
100
AcDbSpline
210
0.0
220
0.0
230
1.0
 70
     8
 71
     3
 72
    26
 73
    22
 74
     0
 42
0.000000001
 43
0.00000001
 40
0.0
 40
0.0
 40
0.0
 40
0.0
 40
0.0524616379932503
 40
0.1026498591890872
 40
0.150565513457809
 40
0.1962095861957063
 40
0.2395832262568645
 40
0.2806877815599511
 40
0.3195248450380211
 40
0.3560963147430692
 40
0.3904044736547445
 40
0.4224520974433627
 40
0.4522426027417772
 40
0.4797802555366611
 40
0.5050704712281336
 40
0.5966394156799991
 40
0.6841917884819224
 40
0.7679874773571101
 40
0.8483228539139507
 40
0.925534163520116
 40
1.0
 40
1.0
 40
1.0
 40
1.0
 10
359.108372203144
 20
120.7678785177124
 30
0.0
 10
359.1262336874323
 20
120.7976519777535
 30
0.0
 10
359.1611826314081
 20
120.8559086696468
 30
0.0
 10
359.2119474648902
 20
120.9381076500114
 30
0.0
 10
359.2600174225319
 20
121.0141885189122
 30
0.0
 10
359.3053613952968
 20
121.0841398673785
 30
0.0
 10
359.3479873748021
 20
121.1482470293305
 30
0.0
 10
359.3878936733112
 20
121.2067548688007
 30
0.0
 10
359.4250810024265
 20
121.2599434464227
 30
0.0
 10
359.4595498250174
 20
121.3081014866598
 30
0.0
 10
359.4912999136496
 20
121.3515261599361
 30
0.0
 10
359.5203343182508
 20
121.390516251033
 30
0.0
 10
359.5466456074519
 20
121.4253703495595
 30
0.0
 10
359.570262236996
 20
121.4563753440101
 30
0.0
 10
359.6099079160019
 20
121.508618562643
 30
0.0
 10
359.661446212801
 20
121.5761478959002
 30
0.0
 10
359.7182723497821
 20
121.6483413421087
 30
0.0
 10
359.7624297777451
 20
121.7028252982312
 30
0.0
 10
359.7936074006871
 20
121.7400900893996
 30
0.0
 10
359.8130669673263
 20
121.7625544416743
 30
0.0
 10
359.8152085650067
 20
121.7652769911015
 30
0.0
 10
359.8162599815635
 20
121.7666136256947
 30
0.0
  0
LINE
  5
F0
330
1F
100
AcDbEntity
  8
0
  6
Continuous
 62
     7
370
    25
100
AcDbLine
 10
359.1083721864
 20
120.7678634134
 30
0.0
 11
356.7127274024
 21
120.7678634134
 31
0.0
  0
LINE
  5
F1
330
1F
100
AcDbEntity
  8
0
  6
Continuous
 62
     7
370
    25
100
AcDbLine
 10
359.183191848
 20
120.7678634134
 30
0.0
 11
359.1080723005
 21
120.7678634134
 31
0.0
  0
SPLINE
  5
F2
330
1F
100
AcDbEntity
  8
0
  6
Continuous
 62
     7
370
    25
100
AcDbSpline
210
0.0
220
0.0
230
1.0
 70
     8
 71
     3
 72
     8
 73
     4
 74
     0
 42
0.000000001
 43
0.00000001
 40
0.0
 40
0.0
 40
0.0
 40
0.0
 40
1.0
 40
1.0
 40
1.0
 40
1.0
 10
359.183191580777
 20
120.7678636256946
 30
0.0
 10
359.2471003834369
 20
120.8298324891258
 30
0.0
 10
359.3108753027888
 20
120.8938085542424
 30
0.0
 10
359.3742353686698
 20
120.9593432105882
 30
0.0
  0
SPLINE
  5
F3
330
1F
100
AcDbEntity
  8
0
  6
Continuous
 62
     7
370
    25
100
AcDbSpline
210
0.0
220
0.0
230
1.0
 70
     8
 71
     3
 72
    24
 73
    20
 74
     0
 42
0.000000001
 43
0.00000001
 40
0.0
 40
0.0
 40
0.0
 40
0.0
 40
0.0410257106287842
 40
0.0818520099077639
 40
0.1225800578354648
 40
0.1633117464058233
 40
0.2041489402806705
 40
0.2451927184749161
 40
0.2865426449235763
 40
0.3282960933646444
 40
0.370547647549383
 40
0.4133885920102291
 40
0.4569065022351533
 40
0.5011849368587563
 40
0.6001856774947433
 40
0.6987388860447942
 40
0.7976800645453981
 40
0.8978349910029445
 40
1.0
 40
1.0
 40
1.0
 40
1.0
 10
359.9878181745445
 20
121.9280037070262
 30
0.0
 10
359.9876234111035
 20
121.9277363568686
 30
0.0
 10
359.9872348308971
 20
121.9272029560473
 30
0.0
 10
359.9831800432228
 20
121.9216312100482
 30
0.0
 10
359.9765860842429
 20
121.9125504608944
 30
0.0
 10
359.967221823333
 20
121.8996130005336
 30
0.0
 10
359.9551737095629
 20
121.8828945576278
 30
0.0
 10
359.9404511401025
 20
121.862352546856
 30
0.0
 10
359.9230921472553
 20
121.8379711728093
 30
0.0
 10
359.9031349761019
 20
121.8097224287374
 30
0.0
 10
359.8806259264064
 20
121.7775768813363
 30
0.0
 10
359.855616690645
 20
121.7415000413701
 30
0.0
 10
359.8281673211201
 20
121.7014564488507
 30
0.0
 10
359.7862442080529
 20
121.6395360055095
 30
0.0
 10
359.7270380328417
 20
121.5502235144129
 30
0.0
 10
359.6472584397214
 20
121.4256789223843
 30
0.0
 10
359.561277654735
 20
121.2858941298945
 30
0.0
 10
359.469992867513
 20
121.1314813109084
 30
0.0
 10
359.406788513455
 20
121.0174352892575
 30
0.0
 10
359.3748723634895
 20
120.9598457452422
 30
0.0
  0
LINE
  5
F4
330
1F
100
AcDbEntity
  8
0
  6
Continuous
 62
     7
370
    25
100
AcDbLine
 10
356.3039792376
 20
112.2465584819
 30
0.0
 11
356.7282171594
 21
112.6953516547
 31
0.0
  0
SPLINE
  5
F5
330
1F
100
AcDbEntity
  8
0
  6
Continuous
 62
     7
370
    25
100
AcDbSpline
210
0.0
220
0.0
230
1.0
 70
     8
 71
     3
 72
    13
 73
     9
 74
     0
 42
0.000000001
 43
0.00000001
 40
0.0
 40
0.0
 40
0.0
 40
0.0
 40
0.170632084649598
 40
0.3395984165075754
 40
0.5069574111411415
 40
0.6727691830249297
 40
0.8370955447763889
 40
1.0
 40
1.0
 40
1.0
 40
1.0
 10
356.7282168719378
 20
112.6953308841654
 30
0.0
 10
356.7332223423466
 20
112.6883795110841
 30
0.0
 10
356.7431844185189
 20
112.6745446259519
 30
0.0
 10
356.7560582464108
 20
112.658416867495
 30
0.0
 10
356.7673245589068
 20
112.645748137336
 30
0.0
 10
356.7768019223421
 20
112.636891699497
 30
0.0
 10
356.7846841550368
 20
112.6313796710172
 30
0.0
 10
356.7884990612702
 20
112.6307013249364
 30
0.0
 10
356.7903982259865
 20
112.6303636256947
 30
0.0
  0
SPLINE
  5
F6
330
1F
100
AcDbEntity
  8
0
  6
Continuous
 62
     7
370
    25
100
AcDbSpline
210
0.0
220
0.0
230
1.0
 70
     8
 71
     3
 72
    13
 73
     9
 74
     0
 42
0.000000001
 43
0.00000001
 40
0.0
 40
0.0
 40
0.0
 40
0.0
 40
0.1621004456571512
 40
0.325943455157606
 40
0.4915935308260523
 40
0.6591130873964648
 40
0.8285624736043361
 40
1.0
 40
1.0
 40
1.0
 40
1.0
 10
377.4428424921337
 20
112.6303636256947
 30
0.0
 10
377.4447195984759
 20
112.6306981087953
 30
0.0
 10
377.4484939898688
 20
112.631370670657
 30
0.0
 10
377.4563410670477
 20
112.6368439550527
 30
0.0
 10
377.4658071268228
 20
112.645663419713
 30
0.0
 10
377.4770880416252
 20
112.6583161767069
 30
0.0
 10
377.4900026601229
 20
112.6744681781034
 30
0.0
 10
377.4999983743686
 20
112.6883539780465
 30
0.0
 10
377.5050253802802
 20
112.6953373707971
 30
0.0
  0
LINE
  5
F7
330
1F
100
AcDbEntity
  8
0
  6
Continuous
 62
     7
370
    25
100
AcDbLine
 10
377.5050384598
 20
112.6953376849
 30
0.0
 11
377.9292605492
 21
112.2465584819
 31
0.0
  0
LINE
  5
F8
330
1F
100
AcDbEntity
  8
0
  6
Continuous
 62
     7
370
    25
100
AcDbLine
 10
375.0500488701
 20
112.705363838
 30
0.0
 11
375.058770706
 21
112.705363838
 31
0.0
  0
SPLINE
  5
F9
330
1F
100
AcDbEntity
  8
0
  6
Continuous
 62
     7
370
    25
100
AcDbSpline
210
0.0
220
0.0
230
1.0
 70
     8
 71
     3
 72
    13
 73
     9
 74
     0
 42
0.000000001
 43
0.00000001
 40
0.0
 40
0.0
 40
0.0
 40
0.0
 40
0.170527330366418
 40
0.3393382731715298
 40
0.5065592454659379
 40
0.672320302183991
 40
0.8367549624218703
 40
1.0
 40
1.0
 40
1.0
 40
1.0
 10
375.058783326771
 20
112.7053634913792
 30
0.0
 10
375.0537479232286
 20
112.6973573686123
 30
0.0
 10
375.0437277983656
 20
112.6814257061117
 30
0.0
 10
375.0319247557102
 20
112.6628086810024
 30
0.0
 10
375.0225826519988
 20
112.6481696880158
 30
0.0
 10
375.0159870273761
 20
112.637922618498
 30
0.0
 10
375.0118340046877
 20
112.6315396282293
 30
0.0
 10
375.0113081563787
 20
112.6307546766321
 30
0.0
 10
375.0110461867556
 20
112.6303636256947
 30
0.0
  0
SPLINE
  5
FA
330
1F
100
AcDbEntity
  8
0
  6
Continuous
 62
     7
370
    25
100
AcDbSpline
210
0.0
220
0.0
230
1.0
 70
     8
 71
     3
 72
     8
 73
     4
 74
     0
 42
0.000000001
 43
0.00000001
 40
0.0
 40
0.0
 40
0.0
 40
0.0
 40
1.0
 40
1.0
 40
1.0
 40
1.0
 10
377.5050384212731
 20
112.6953379838643
 30
0.0
 10
377.502854937032
 20
112.6981866493806
 30
0.0
 10
377.5006714527909
 20
112.7011274407781
 30
0.0
 10
377.4984879685497
 20
112.7041599380547
 30
0.0
  0
LINE
  5
FB
330
1F
100
AcDbEntity
  8
0
  6
Continuous
 62
     7
370
    25
100
AcDbLine
 10
377.4975850853
 20
112.705363838
 30
0.0
 11
375.0587744313
 21
112.705363838
 31
0.0
  0
SPLINE
  5
FC
330
1F
100
AcDbEntity
  8
0
  6
Continuous
 62
     7
370
    25
100
AcDbSpline
210
0.0
220
0.0
230
1.0
 70
     8
 71
     3
 72
     8
 73
     4
 74
     0
 42
0.000000001
 43
0.00000001
 40
0.0
 40
0.0
 40
0.0
 40
0.0
 40
1.0
 40
1.0
 40
1.0
 40
1.0
 10
356.7356555159798
 20
112.7053636257023
 30
0.0
 10
356.7331695972933
 20
112.7019019263903
 30
0.0
 10
356.7306836786069
 20
112.6985577744814
 30
0.0
 10
356.7281977599203
 20
112.695331782541
 30
0.0
  0
LINE
  5
FD
330
1F
100
AcDbEntity
  8
0
  6
Continuous
 62
     7
370
    25
100
AcDbLine
 10
359.1729594069
 20
112.705363838
 30
0.0
 11
356.7358716997
 21
112.705363838
 31
0.0
  0
SPLINE
  5
FE
330
1F
100
AcDbEntity
  8
0
  6
Continuous
 62
     7
370
    25
100
AcDbSpline
210
0.0
220
0.0
230
1.0
 70
     8
 71
     3
 72
    13
 73
     9
 74
     0
 42
0.000000001
 43
0.00000001
 40
0.0
 40
0.0
 40
0.0
 40
0.0
 40
0.1631595583870535
 40
0.3275424452489252
 40
0.4932858679997912
 40
0.6605236853065742
 40
0.8293862019229544
 40
1.0
 40
1.0
 40
1.0
 40
1.0
 10
359.2221945313646
 20
112.6303636256947
 30
0.0
 10
359.221936685878
 20
112.6307542760872
 30
0.0
 10
359.2214190616455
 20
112.6315385058686
 30
0.0
 10
359.2172724654015
 20
112.6379166751034
 30
0.0
 10
359.2106791867259
 20
112.6481591212509
 30
0.0
 10
359.2013347918484
 20
112.6627960372997
 30
0.0
 10
359.1895249788347
 20
112.6814158961494
 30
0.0
 10
359.1794982615202
 20
112.6973536037969
 30
0.0
 10
359.1744590400805
 20
112.7053635671335
 30
0.0
  0
LINE
  5
FF
330
1F
100
AcDbEntity
  8
0
  6
Continuous
 62
     7
370
    25
100
AcDbLine
 10
359.1744690808
 20
112.705363838
 30
0.0
 11
359.183191848
 21
112.705363838
 31
0.0
  0
SPLINE
  5
100
330
1F
100
AcDbEntity
  8
0
  6
Continuous
 62
     7
370
    25
100
AcDbSpline
210
0.0
220
0.0
230
1.0
 70
     8
 71
     3
 72
    14
 73
    10
 74
     0
 42
0.000000001
 43
0.00000001
 40
0.0
 40
0.0
 40
0.0
 40
0.0
 40
0.0310276388071746
 40
0.0622853718672815
 40
0.1248003166904892
 40
0.2498289731753984
 40
0.499889260361071
 40
0.7606803621682141
 40
1.0
 40
1.0
 40
1.0
 40
1.0
 10
356.1565263646009
 20
112.2486254510793
 30
0.0
 10
356.1608556580661
 20
112.2534093733574
 30
0.0
 10
356.1695463500996
 20
112.2630126944457
 30
0.0
 10
356.1869471287617
 20
112.2823070084435
 30
0.0
 10
356.2174232886067
 20
112.3160719548971
 30
0.0
 10
356.2782446814261
 20
112.3834907137589
 30
0.0
 10
356.3661350238393
 20
112.4809573886258
 30
0.0
 10
356.4689727039228
 20
112.5951019005227
 30
0.0
 10
356.5361788153645
 20
112.6698867135293
 30
0.0
 10
356.5683391770114
 20
112.7056737361735
 30
0.0
  0
LINE
  5
101
330
1F
100
AcDbEntity
  8
0
  6
Continuous
 62
     7
370
    25
100
AcDbLine
 10
356.5680110502
 20
112.705363838
 30
0.0
 11
356.7356556329
 21
112.705363838
 31
0.0
  0
LINE
  5
102
330
1F
100
AcDbEntity
  8
0
  6
Continuous
 62
     7
370
    25
100
AcDbLine
 10
377.4975850853
 20
112.705363838
 30
0.0
 11
377.6652371185
 21
112.705363838
 31
0.0
  0
SPLINE
  5
103
330
1F
100
AcDbEntity
  8
0
  6
Continuous
 62
     7
370
    25
100
AcDbSpline
210
0.0
220
0.0
230
1.0
 70
     8
 71
     3
 72
    11
 73
     7
 74
     0
 42
0.000000001
 43
0.00000001
 40
0.0
 40
0.0
 40
0.0
 40
0.0
 40
0.2392913844325938
 40
0.5001130135003002
 40
0.7515028526498353
 40
0.9999999999999999
 40
0.9999999999999999
 40
0.9999999999999999
 40
0.9999999999999999
 10
377.6649336117305
 20
112.7056504282063
 30
0.0
 10
377.6970901647102
 20
112.6698737096289
 30
0.0
 10
377.7642965568357
 20
112.5951012618733
 30
0.0
 10
377.8673246465832
 20
112.4806425485505
 30
0.0
 10
377.9724153112003
 20
112.3644833624306
 30
0.0
 10
378.04209013128
 20
112.287095421135
 30
0.0
 10
378.0767259479737
 20
112.2486253605601
 30
0.0
  0
LINE
  5
104
330
1F
100
AcDbEntity
  8
0
  6
Continuous
 62
     7
370
    25
100
AcDbLine
 10
356.7127274024
 20
120.7678634134
 30
0.0
 11
356.5681554052
 21
120.7678634134
 31
0.0
  0
SPLINE
  5
105
330
1F
100
AcDbEntity
  8
0
  6
Continuous
 62
     7
370
    25
100
AcDbSpline
210
0.0
220
0.0
230
1.0
 70
     8
 71
     3
 72
    11
 73
     7
 74
     0
 42
0.000000001
 43
0.00000001
 40
0.0
 40
0.0
 40
0.0
 40
0.0
 40
0.2392845094479873
 40
0.5001120454076898
 40
0.7515010915036774
 40
1.0
 40
1.0
 40
1.0
 40
1.0
 10
356.5684580148504
 20
120.7675778394981
 30
0.0
 10
356.5362968850805
 20
120.8033756885599
 30
0.0
 10
356.4690791264843
 20
120.8781943032576
 30
0.0
 10
356.3660344779863
 20
120.9927225675128
 30
0.0
 10
356.2609262490994
 20
121.1089535611871
 30
0.0
 10
356.1912407324721
 20
121.1863880568782
 30
0.0
 10
356.1565994200324
 20
121.2248814582143
 30
0.0
  0
SPLINE
  5
106
330
1F
100
AcDbEntity
  8
0
  6
Continuous
 62
     7
370
    25
100
AcDbSpline
210
0.0
220
0.0
230
1.0
 70
     8
 71
     3
 72
    14
 73
    10
 74
     0
 42
0.000000001
 43
0.00000001
 40
0.0
 40
0.0
 40
0.0
 40
0.0
 40
0.031029414748255
 40
0.0622870907562092
 40
0.1248019217225762
 40
0.249830351143087
 40
0.4998901825554788
 40
0.7606872170552411
 40
1.0
 40
1.0
 40
1.0
 40
1.0
 10
378.0766296827627
 20
121.2248813499381
 30
0.0
 10
378.0722994864471
 20
121.2200941633681
 30
0.0
 10
378.063607239652
 20
121.210484574313
 30
0.0
 10
378.0462036113045
 20
121.191178580607
 30
0.0
 10
378.0157228757694
 20
121.157393364955
 30
0.0
 10
377.9548922540472
 20
121.0899342340075
 30
0.0
 10
377.8669873508806
 20
120.9924077282972
 30
0.0
 10
377.7641331062636
 20
120.8781937215227
 30
0.0
 10
377.6969156481172
 20
120.8033627614177
 30
0.0
 10
377.6647507187149
 20
120.7675546155095
 30
0.0
  0
LINE
  5
107
330
1F
100
AcDbEntity
  8
0
  6
Continuous
 62
     7
370
    25
100
AcDbLine
 10
377.6650778624
 20
120.7678634134
 30
0.0
 11
377.5205133157
 21
120.7678634134
 31
0.0
  0
LINE
  5
108
330
1F
100
AcDbEntity
  8
0
  6
Continuous
 62
     7
370
    25
100
AcDbLine
 10
355.2459520894
 20
114.5492758993
 30
0.0
 11
355.6860150444
 21
114.6303635948
 31
0.0
  0
SPLINE
  5
109
330
1F
100
AcDbEntity
  8
0
  6
Continuous
 62
     7
370
    25
100
AcDbSpline
210
0.0
220
0.0
230
1.0
 70
     8
 71
     3
 72
    25
 73
    21
 74
     0
 42
0.000000001
 43
0.00000001
 40
0.0
 40
0.0
 40
0.0
 40
0.0
 40
0.0274788704223154
 40
0.0560416006850518
 40
0.0856947086352136
 40
0.116444016653826
 40
0.1482947438681133
 40
0.1812515840470034
 40
0.2153187716748716
 40
0.2505001382254911
 40
0.333051455250936
 40
0.5015081958163736
 40
0.5771663066143947
 40
0.648898130302521
 40
0.716747770006283
 40
0.7807674423488066
 40
0.84101941313403
 40
0.8975784849924567
 40
0.9505352047788314
 40
1.0
 40
1.0
 40
1.0
 40
1.0
 10
355.6860151516489
 20
114.6303636256947
 30
0.0
 10
355.6927233189923
 20
114.6011814211772
 30
0.0
 10
355.7064042465491
 20
114.5416659670285
 30
0.0
 10
355.729168975203
 20
114.4512754699698
 30
0.0
 10
355.7540466124433
 20
114.3581438608486
 30
0.0
 10
355.7811858504609
 20
114.2625578165737
 30
0.0
 10
355.8105472574921
 20
114.1648043469605
 30
0.0
 10
355.8421324277801
 20
114.065223670903
 30
0.0
 10
355.875979297645
 20
113.9642145313244
 30
0.0
 10
355.9276805275778
 20
113.8174477240734
 30
0.0
 10
356.0320395405915
 20
113.553181311159
 30
0.0
 10
356.1529127682753
 20
113.2832116813305
 30
0.0
 10
356.2664058147324
 20
113.0658020066143
 30
0.0
 10
356.3376787823482
 20
112.9360984358837
 30
0.0
 10
356.3997533544741
 20
112.8322233585589
 30
0.0
 10
356.4523373666414
 20
112.7523627247404
 30
0.0
 10
356.4955839125689
 20
112.6943440985898
 30
0.0
 10
356.529190724789
 20
112.6562405399374
 30
0.0
 10
356.5541377076617
 20
112.6342380089427
 30
0.0
 10
356.5630972445236
 20
112.6316253955914
 30
0.0
 10
356.5674242812416
 20
112.6303636256947
 30
0.0
  0
LINE
  5
10A
330
1F
100
AcDbEntity
  8
0
  6
Continuous
 62
     7
370
    25
100
AcDbLine
 10
378.9872886288
 20
118.923951352
 30
0.0
 11
378.5472256737
 21
118.8428636566
 31
0.0
  0
SPLINE
  5
10B
330
1F
100
AcDbEntity
  8
0
  6
Continuous
 62
     7
370
    25
100
AcDbSpline
210
0.0
220
0.0
230
1.0
 70
     8
 71
     3
 72
    20
 73
    16
 74
     0
 42
0.000000001
 43
0.00000001
 40
0.0
 40
0.0
 40
0.0
 40
0.0
 40
0.0481541053709101
 40
0.0993220053191994
 40
0.1535299239007727
 40
0.2107995476294668
 40
0.2711494251328335
 40
0.3041838795806031
 40
0.3605578199056567
 40
0.4402583812372164
 40
0.5432665008272719
 40
0.7025856217611187
 40
0.8451532372668946
 40
0.9714583418066324
 40
0.9999999999999999
 40
0.9999999999999999
 40
0.9999999999999999
 40
0.9999999999999999
 10
378.5472256737321
 20
118.8428636566146
 30
0.0
 10
378.5362198534506
 20
118.8900739362211
 30
0.0
 10
378.5135193976512
 20
118.9874492193062
 30
0.0
 10
378.4737150178835
 20
119.1360394594228
 30
0.0
 10
378.4285550386712
 20
119.2908642406919
 30
0.0
 10
378.3774812500886
 20
119.4504754472938
 30
0.0
 10
378.3306662345993
 20
119.5861268439348
 30
0.0
 10
378.2812972562955
 20
119.7163693037432
 30
0.0
 10
378.2245820286343
 20
119.8588019762699
 30
0.0
 10
378.1441501331936
 20
120.0492542082915
 30
0.0
 10
378.0273790653853
 20
120.2959056014515
 30
0.0
 10
377.8954405302183
 20
120.5414169358535
 30
0.0
 10
377.7827086062606
 20
120.7220533254558
 30
0.0
 10
377.7145755563549
 20
120.8097078209464
 30
0.0
 10
377.6976733879056
 20
120.8204158341839
 30
0.0
 10
377.6945579471558
 20
120.8223895561292
 30
0.0
  0
SPLINE
  5
10C
330
1F
100
AcDbEntity
  8
0
  6
Continuous
 62
     7
370
    25
100
AcDbSpline
210
0.0
220
0.0
230
1.0
 70
     8
 71
     3
 72
    25
 73
    21
 74
     0
 42
0.000000001
 43
0.00000001
 40
0.0
 40
0.0
 40
0.0
 40
0.0
 40
0.0288821753110086
 40
0.0583636594013118
 40
0.0884647204314734
 40
0.1192044006626603
 40
0.150600580009491
 40
0.1826700399677263
 40
0.2154285269580574
 40
0.248890814337993
 40
0.361059447124065
 40
0.4984670131067773
 40
0.5822693905007604
 40
0.666112764278331
 40
0.7499972937224478
 40
0.8007709755049082
 40
0.8511237700832938
 40
0.9010896024531745
 40
0.9507031914125761
 40
1.0
 40
1.0
 40
1.0
 40
1.0
 10
356.5674242812416
 20
120.8428636256947
 30
0.0
 10
356.565134012864
 20
120.8424353837188
 30
0.0
 10
356.560505952751
 20
120.841570013692
 30
0.0
 10
356.5501956896636
 20
120.8344950809904
 30
0.0
 10
356.5373596204328
 20
120.8229265398299
 30
0.0
 10
356.5217460616901
 20
120.8062209637175
 30
0.0
 10
356.5034246182775
 20
120.7842840527013
 30
0.0
 10
356.4823770324464
 20
120.7568864172166
 30
0.0
 10
356.4586054604543
 20
120.7238519365345
 30
0.0
 10
356.4115489310178
 20
120.6548612704067
 30
0.0
 10
356.3238545131609
 20
120.514835300985
 30
0.0
 10
356.2063028586275
 20
120.2955399997806
 30
0.0
 10
356.0947806942861
 20
120.0586099390094
 30
0.0
 10
356.003321376938
 20
119.8427680650995
 30
0.0
 10
355.9224397257605
 20
119.6412064442177
 30
0.0
 10
355.8562948238925
 20
119.4623383638255
 30
0.0
 10
355.8069442630654
 20
119.3109621626816
 30
0.0
 10
355.7619772462004
 20
119.1567180075586
 30
0.0
 10
355.7212195322812
 20
119.000562152483
 30
0.0
 10
355.697724863064
 20
118.895317445535
 30
0.0
 10
355.6860151516489
 20
118.8428636256947
 30
0.0
  0
LINE
  5
10D
330
1F
100
AcDbEntity
  8
0
  6
Continuous
 62
     7
370
    25
100
AcDbLine
 10
355.2459520894
 20
118.923951352
 30
0.0
 11
355.6860150444
 21
118.8428636566
 31
0.0
  0
SPLINE
  5
10E
330
1F
100
AcDbEntity
  8
0
  6
Continuous
 62
     7
370
    25
100
AcDbSpline
210
0.0
220
0.0
230
1.0
 70
     8
 71
     3
 72
    17
 73
    13
 74
     0
 42
0.000000001
 43
0.00000001
 40
0.0
 40
0.0
 40
0.0
 40
0.0
 40
0.017073236636963
 40
0.0879018214540331
 40
0.1618047248897706
 40
0.2422246694564927
 40
0.33516120822221
 40
0.4406788954713877
 40
0.580927040182565
 40
0.7212787874652892
 40
0.8619302949559989
 40
0.9999999999999999
 40
0.9999999999999999
 40
0.9999999999999999
 40
0.9999999999999999
 10
377.7058614092439
 20
112.6628787648274
 30
0.0
 10
377.707716842761
 20
112.6642564173667
 30
0.0
 10
377.7172695707653
 20
112.6713492826569
 30
0.0
 10
377.751405049509
 20
112.716726989603
 30
0.0
 10
377.8010055766032
 20
112.7869793398277
 30
0.0
 10
377.8674506729029
 20
112.8907581010999
 30
0.0
 10
377.949551141491
 20
113.0330442556603
 30
0.0
 10
378.057709850315
 20
113.2393046195543
 30
0.0
 10
378.1838039770211
 20
113.5165523686345
 30
0.0
 10
378.3240772121619
 20
113.8597120747683
 30
0.0
 10
378.4541769643093
 20
114.2334570866976
 30
0.0
 10
378.5164015666729
 20
114.4988809683812
 30
0.0
 10
378.5472256737321
 20
114.6303635947748
 30
0.0
  0
LINE
  5
10F
330
1F
100
AcDbEntity
  8
0
  6
Continuous
 62
     7
370
    25
100
AcDbLine
 10
378.9872886288
 20
114.5492758993
 30
0.0
 11
378.5472256737
 21
114.6303635948
 31
0.0
  0
SPLINE
  5
110
330
1F
100
AcDbEntity
  8
0
  6
Continuous
 62
     7
370
    25
100
AcDbSpline
210
0.0
220
0.0
230
1.0
 70
     8
 71
     3
 72
    15
 73
    11
 74
     0
 42
0.000000001
 43
0.00000001
 40
0.0
 40
0.0
 40
0.0
 40
0.0
 40
0.1351922525168508
 40
0.295505352053604
 40
0.3941605101370091
 40
0.4930224738308925
 40
0.5920945925114958
 40
0.7581984282951001
 40
0.9106346529387762
 40
1.0
 40
1.0
 40
1.0
 40
1.0
 10
358.2187626185387
 20
118.8428636566146
 30
0.0
 10
358.25402349597
 20
118.9632826078519
 30
0.0
 10
358.3310972764943
 20
119.2264962455924
 30
0.0
 10
358.455890813372
 20
119.5587188073522
 30
0.0
 10
358.5727943386968
 20
119.8382132073317
 30
0.0
 10
358.6703791875463
 20
120.0532276724483
 30
0.0
 10
358.7944588446683
 20
120.2918594641094
 30
0.0
 10
358.9250718944405
 20
120.5225368335155
 30
0.0
 10
359.028150232432
 20
120.6997322739402
 30
0.0
 10
359.0621087911148
 20
120.753436885735
 30
0.0
 10
359.0746592404812
 20
120.7732851077213
 30
0.0
  0
SPLINE
  5
111
330
1F
100
AcDbEntity
  8
0
  6
Continuous
 62
     7
370
    25
100
AcDbSpline
210
0.0
220
0.0
230
1.0
 70
     8
 71
     3
 72
    15
 73
    11
 74
     0
 42
0.000000001
 43
0.00000001
 40
0.0
 40
0.0
 40
0.0
 40
0.0
 40
0.1361835767353471
 40
0.2976722041233961
 40
0.3970507708760626
 40
0.4966376596826896
 40
0.5964362444794897
 40
0.763758069845573
 40
0.9173120635806887
 40
0.9999999999999999
 40
0.9999999999999999
 40
0.9999999999999999
 40
0.9999999999999999
 10
376.0144780995815
 20
114.6303635947748
 30
0.0
 10
375.9792171891341
 20
114.5099445810443
 30
0.0
 10
375.9021433364428
 20
114.2467308067053
 30
0.0
 10
375.777350334526
 20
113.914509257525
 30
0.0
 10
375.6604454434853
 20
113.6350122725045
 30
0.0
 10
375.562865091267
 20
113.4200063186577
 30
0.0
 10
375.4387647260201
 20
113.1813353304443
 30
0.0
 10
375.3082783652134
 20
112.950897759218
 30
0.0
 10
375.2066352143922
 20
112.7760991998506
 30
0.0
 10
375.1735354468943
 20
112.7237031712669
 30
0.0
 10
375.1619500713914
 20
112.7053638380362
 30
0.0
  0
SPLINE
  5
112
330
1F
100
AcDbEntity
  8
0
  6
Continuous
 62
     7
370
    25
100
AcDbSpline
210
0.0
220
0.0
230
1.0
 70
     8
 71
     3
 72
    15
 73
    11
 74
     0
 42
0.000000001
 43
0.00000001
 40
0.0
 40
0.0
 40
0.0
 40
0.0
 40
0.0210214847137796
 40
0.0995173547081305
 40
0.2360971400771362
 40
0.3979401334474181
 40
0.5486162591715825
 40
0.7000321895560188
 40
0.8517812990240201
 40
0.9999999999999999
 40
0.9999999999999999
 40
0.9999999999999999
 40
0.9999999999999999
 10
359.0698443027704
 20
112.7053638380362
 30
0.0
 10
359.0669958015162
 20
112.7098484476294
 30
0.0
 10
359.0535107735286
 20
112.7310789406079
 30
0.0
 10
359.0061019094995
 20
112.808214129762
 30
0.0
 10
358.9129600913478
 20
112.9641435638062
 30
0.0
 10
358.7765410077698
 20
113.213159028249
 30
0.0
 10
358.6272185715526
 20
113.5227980246436
 30
0.0
 10
358.4740534358401
 20
113.864761898747
 30
0.0
 10
358.3284206691258
 20
114.2358707414325
 30
0.0
 10
358.2550273730448
 20
114.4999017964457
 30
0.0
 10
358.2187626185387
 20
114.6303635947748
 30
0.0
  0
LINE
  5
113
330
1F
100
AcDbEntity
  8
0
  6
Continuous
 62
     7
370
    25
100
AcDbLine
 10
358.5350230011
 20
118.7680002228
 30
0.0
 11
358.2187626185
 21
118.8428636566
 31
0.0
  0
SPLINE
  5
114
330
1F
100
AcDbEntity
  8
0
  6
Continuous
 62
     7
370
    25
100
AcDbSpline
210
0.0
220
0.0
230
1.0
 70
     8
 71
     3
 72
    25
 73
    21
 74
     0
 42
0.000000001
 43
0.00000001
 40
0.0
 40
0.0
 40
0.0
 40
0.0
 40
0.0278144320063462
 40
0.0555680196245754
 40
0.083331625367772
 40
0.111176035216759
 40
0.1391714221532265
 40
0.1673868326284763
 40
0.1958897140434718
 40
0.2247454979318961
 40
0.254017249222145
 40
0.3796724410016501
 40
0.5056484635002454
 40
0.629752729069345
 40
0.7535891720571729
 40
0.8038564806093713
 40
0.853339684343451
 40
0.9023264398358534
 40
0.9511131859219439
 40
1.0
 40
1.0
 40
1.0
 40
1.0
 10
359.4026442697716
 20
121.0103619168772
 30
0.0
 10
359.4024965184569
 20
121.0100953743237
 30
0.0
 10
359.4022013390352
 20
121.0095628722814
 30
0.0
 10
359.3985766400193
 20
121.0030154235853
 30
0.0
 10
359.392630744349
 20
120.9922461802991
 30
0.0
 10
359.3841560214339
 20
120.9768354443748
 30
0.0
 10
359.3732410345949
 20
120.956879068121
 30
0.0
 10
359.3599049663565
 20
120.9323289716506
 30
0.0
 10
359.3441972016695
 20
120.9031723478946
 30
0.0
 10
359.3261656135116
 20
120.8693763764612
 30
0.0
 10
359.2837480687633
 20
120.7889696184034
 30
0.0
 10
359.2032270290098
 20
120.6319811687328
 30
0.0
 10
359.0698006821352
 20
120.3501954309854
 30
0.0
 10
358.9257237054521
 20
120.0123233213584
 30
0.0
 10
358.8100459540007
 20
119.7036424076201
 30
0.0
 10
358.7275344787835
 20
119.4576116878651
 30
0.0
 10
358.6746128542583
 20
119.2887857965919
 30
0.0
 10
358.6247557198809
 20
119.1174702255801
 30
0.0
 10
358.5777377266504
 20
118.9437878753594
 30
0.0
 10
358.5492707159219
 20
118.8266361870559
 30
0.0
 10
358.535022628123
 20
118.7680003310946
 30
0.0
  0
LINE
  5
115
330
1F
100
AcDbEntity
  8
0
  6
Continuous
 62
     7
370
    25
100
AcDbLine
 10
358.5350230011
 20
114.7052270286
 30
0.0
 11
358.2187626185
 21
114.6303635948
 31
0.0
  0
SPLINE
  5
116
330
1F
100
AcDbEntity
  8
0
  6
Continuous
 62
     7
370
    25
100
AcDbSpline
210
0.0
220
0.0
230
1.0
 70
     8
 71
     3
 72
    25
 73
    21
 74
     0
 42
0.000000001
 43
0.00000001
 40
0.0
 40
0.0
 40
0.0
 40
0.0
 40
0.0269872354797669
 40
0.0539362690259618
 40
0.0809037148829035
 40
0.1079460716545392
 40
0.1351193706855853
 40
0.162478838835575
 40
0.190078585418252
 40
0.2179713214290535
 40
0.2462081170984584
 40
0.3700050494705653
 40
0.4947542611659071
 40
0.6210439034695193
 40
0.7446557472315123
 40
0.7967060293738726
 40
0.8478613449329371
 40
0.8985210411990388
 40
0.9490962115257747
 40
1.0
 40
1.0
 40
1.0
 40
1.0
 10
358.535022628123
 20
114.7052269202948
 30
0.0
 10
358.5428033728471
 20
114.6728305152671
 30
0.0
 10
358.5583538482181
 20
114.6080835641258
 30
0.0
 10
358.5830392541913
 20
114.5114370276971
 30
0.0
 10
358.6086592111903
 20
114.4153429392058
 30
0.0
 10
358.6353020748177
 20
114.3198306684891
 30
0.0
 10
358.6629272601023
 20
114.2249059410965
 30
0.0
 10
358.6915290391615
 20
114.1305797849608
 30
0.0
 10
358.721091128803
 20
114.0368634405115
 30
0.0
 10
358.7516042758502
 20
113.9437593566212
 30
0.0
 10
358.8183384804394
 20
113.7474941145082
 30
0.0
 10
358.9255216565352
 20
113.4614209989049
 30
0.0
 10
359.069301746844
 20
113.1241311029115
 30
0.0
 10
359.2025502030558
 20
112.842621926088
 30
0.0
 10
359.2902213792691
 20
112.6716309959096
 30
0.0
 10
359.3410964150614
 20
112.5757181775272
 30
0.0
 10
359.3687655697128
 20
112.5245009740725
 30
0.0
 10
359.3884644878303
 20
112.4885181799874
 30
0.0
 10
359.4007119965338
 20
112.4663482916655
 30
0.0
 10
359.4019987896898
 20
112.4640288239319
 30
0.0
 10
359.4026442697716
 20
112.4628653345122
 30
0.0
  0
LINE
  5
117
330
1F
100
AcDbEntity
  8
0
  6
Continuous
 62
     7
370
    25
100
AcDbLine
 10
375.698217717
 20
114.7052270286
 30
0.0
 11
376.0144780996
 21
114.6303635948
 31
0.0
  0
SPLINE
  5
118
330
1F
100
AcDbEntity
  8
0
  6
Continuous
 62
     7
370
    25
100
AcDbSpline
210
0.0
220
0.0
230
1.0
 70
     8
 71
     3
 72
    25
 73
    21
 74
     0
 42
0.000000001
 43
0.00000001
 40
0.0
 40
0.0
 40
0.0
 40
0.0
 40
0.0278144320057649
 40
0.0555680196235595
 40
0.083331625366468
 40
0.1111760352153128
 40
0.1391714221517827
 40
0.1673868326271739
 40
0.195889714042447
 40
0.2247454979312803
 40
0.2540172492220635
 40
0.3796724409988544
 40
0.505648463500191
 40
0.6297527290689083
 40
0.7535891720572004
 40
0.803856480609888
 40
0.85333968434422
 40
0.902326439836625
 40
0.9511131859224594
 40
1.0
 40
1.0
 40
1.0
 40
1.0
 10
374.8305964483486
 20
112.4628653345122
 30
0.0
 10
374.8307441996633
 20
112.4631318770657
 30
0.0
 10
374.8310393790851
 20
112.463664379108
 30
0.0
 10
374.8346640781009
 20
112.4702118278041
 30
0.0
 10
374.8406099737712
 20
112.4809810710904
 30
0.0
 10
374.8490846966863
 20
112.4963918070147
 30
0.0
 10
374.8599996835254
 20
112.5163481832684
 30
0.0
 10
374.8733357517639
 20
112.5408982797389
 30
0.0
 10
374.8890435164507
 20
112.5700549034948
 30
0.0
 10
374.9070751046086
 20
112.6038508749283
 30
0.0
 10
374.9494926493556
 20
112.6842576329835
 30
0.0
 10
375.0300136891095
 20
112.8412460826547
 30
0.0
 10
375.163440035984
 20
113.1230318204016
 30
0.0
 10
375.3075170126675
 20
113.4609039300294
 30
0.0
 10
375.4231947641195
 20
113.7695848437692
 30
0.0
 10
375.5057062393373
 20
114.0156155635259
 30
0.0
 10
375.5586278638626
 20
114.1844414548
 30
0.0
 10
375.6084849982399
 20
114.3557570258117
 30
0.0
 10
375.6555029914702
 20
114.5294393760316
 30
0.0
 10
375.6839700021985
 20
114.6465910643341
 30
0.0
 10
375.6982180899972
 20
114.7052269202948
 30
0.0
  0
SPLINE
  5
119
330
1F
100
AcDbEntity
  8
0
  6
Continuous
 62
     7
370
    25
100
AcDbSpline
210
0.0
220
0.0
230
1.0
 70
     8
 71
     3
 72
    15
 73
    11
 74
     0
 42
0.000000001
 43
0.00000001
 40
0.0
 40
0.0
 40
0.0
 40
0.0
 40
0.0210214847137796
 40
0.0995173547081305
 40
0.2360971400771362
 40
0.3979401334474181
 40
0.5486162591715825
 40
0.7000321895560188
 40
0.8517812990240201
 40
0.9999999999999999
 40
0.9999999999999999
 40
0.9999999999999999
 40
0.9999999999999999
 10
375.1633964153498
 20
120.7678634133531
 30
0.0
 10
375.166244916604
 20
120.7633788037599
 30
0.0
 10
375.1797299445916
 20
120.7421483107815
 30
0.0
 10
375.2271388086206
 20
120.6650131216274
 30
0.0
 10
375.3202806267724
 20
120.5090836875832
 30
0.0
 10
375.4566997103503
 20
120.2600682231404
 30
0.0
 10
375.6060221465676
 20
119.9504292267458
 30
0.0
 10
375.7591872822802
 20
119.6084653526424
 30
0.0
 10
375.9048200489944
 20
119.2373565099569
 30
0.0
 10
375.9782133450754
 20
118.9733254549437
 30
0.0
 10
376.0144780995815
 20
118.8428636566146
 30
0.0
  0
LINE
  5
11A
330
1F
100
AcDbEntity
  8
0
  6
Continuous
 62
     7
370
    25
100
AcDbLine
 10
375.698217717
 20
118.7680002228
 30
0.0
 11
376.0144780996
 21
118.8428636566
 31
0.0
  0
SPLINE
  5
11B
330
1F
100
AcDbEntity
  8
0
  6
Continuous
 62
     7
370
    25
100
AcDbSpline
210
0.0
220
0.0
230
1.0
 70
     8
 71
     3
 72
    14
 73
    10
 74
     0
 42
0.000000001
 43
0.00000001
 40
0.0
 40
0.0
 40
0.0
 40
0.0
 40
0.1400505481383316
 40
0.2837940635646364
 40
0.4267314741655509
 40
0.5707685044357909
 40
0.7165840938251985
 40
0.8593077005344127
 40
1.0
 40
1.0
 40
1.0
 40
1.0
 10
375.6982177170485
 20
118.7680002227767
 30
0.0
 10
375.6614509269236
 20
118.9135602399725
 30
0.0
 10
375.5869478499098
 20
119.2085185198341
 30
0.0
 10
375.4517587029737
 20
119.626582884433
 30
0.0
 10
375.3078740404591
 20
120.0116353945641
 30
0.0
 10
375.1637382520665
 20
120.3494436747055
 30
0.0
 10
375.0313412265152
 20
120.6293839248644
 30
0.0
 10
374.9204213554797
 20
120.8455248006318
 30
0.0
 10
374.8790854900047
 20
120.9215880277711
 30
0.0
 10
374.8585656891137
 20
120.9593470599844
 30
0.0
  0
ARC
  5
11C
330
1F
100
AcDbEntity
  8
0
  6
Continuous
 62
     7
370
    25
100
AcDbCircle
 10
367.1166203591
 20
116.7366136257
 30
0.0
 40
11.62303852141071
100
AcDbArc
 50
169.5595567507
 51
190.4404432494
  0
ARC
  5
11D
330
1F
100
AcDbEntity
  8
0
  6
Continuous
 62
     7
370
    25
100
AcDbCircle
 10
367.1166203591
 20
116.7366136257
 30
0.0
 40
9.143750000000008
100
AcDbArc
 50
166.6824039243
 51
193.3175960757
  0
ARC
  5
11E
330
1F
100
AcDbEntity
  8
0
  6
Continuous
 62
     7
370
    25
100
AcDbCircle
 10
367.1166203591
 20
116.7366136257
 30
0.0
 40
8.818750000000026
100
AcDbArc
 50
166.6824039243
 51
193.3175960757
  0
ARC
  5
11F
330
1F
100
AcDbEntity
  8
0
  6
Continuous
 62
     7
370
    25
100
AcDbCircle
 10
367.1166203591
 20
116.7366136257
 30
0.0
 40
9.143750000000008
100
AcDbArc
 50
346.6824039243
 51
13.3175960757
  0
ARC
  5
120
330
1F
100
AcDbEntity
  8
0
  6
Continuous
 62
     7
370
    25
100
AcDbCircle
 10
367.1166203591
 20
116.7366136257
 30
0.0
 40
8.818750000000026
100
AcDbArc
 50
346.6824039243
 51
13.3175960757
  0
ARC
  5
121
330
1F
100
AcDbEntity
  8
0
  6
Continuous
 62
     7
370
    25
100
AcDbCircle
 10
367.1166203591
 20
116.7366136257
 30
0.0
 40
11.62303852141071
100
AcDbArc
 50
349.5595567507
 51
10.4404432493
  0
CIRCLE
  5
122
330
1F
100
AcDbEntity
  8
0
  6
Continuous
 62
     7
370
    25
100
AcDbCircle
 10
367.1166203591
 20
116.7366136257
 30
0.0
 40
7.775000000000034
  0
CIRCLE
  5
123
330
1F
100
AcDbEntity
  8
0
  6
Continuous
 62
     7
370
    25
100
AcDbCircle
 10
367.1166203591
 20
116.7366136257
 30
0.0
 40
2.615470053837953
  0
CIRCLE
  5
124
330
1F
100
AcDbEntity
  8
0
  6
Continuous
 62
     7
370
    25
100
AcDbCircle
 10
367.1166203591
 20
116.7366136257
 30
0.0
 40
2.5
  0
CIRCLE
  5
125
330
1F
100
AcDbEntity
  8
0
  6
Continuous
 62
     7
370
    25
100
AcDbCircle
 10
367.1166203591
 20
116.7366136257
 30
0.0
 40
15.73750000000001
  0
CIRCLE
  5
126
330
1F
100
AcDbEntity
  8
0
  6
Continuous
 62
     7
370
    25
100
AcDbCircle
 10
367.1166203591
 20
116.7366136257
 30
0.0
 40
13.42500000000001
  0
CIRCLE
  5
127
330
1F
100
AcDbEntity
  8
0
  6
Continuous
 62
     7
370
    25
100
AcDbCircle
 10
367.1166203591
 20
116.7366136257
 30
0.0
 40
2.0
  0
LINE
  5
128
330
1F
100
AcDbEntity
  8
0
  6
CENTER
 62
     7
370
    18
100
AcDbLine
 10
367.1166203591
 20
116.7366136257
 30
0.0
 11
367.1166203591
 21
136.2511136257
 31
0.0
  0
LINE
  5
129
330
1F
100
AcDbEntity
  8
0
  6
CENTER
 62
     7
370
    18
100
AcDbLine
 10
367.1166203591
 20
116.7366136257
 30
0.0
 11
386.6287780831
 21
116.7366136257
 31
0.0
  0
LINE
  5
12A
330
1F
100
AcDbEntity
  8
0
  6
Continuous
 62
     7
370
    18
100
AcDbLine
 10
379.1166203591
 20
134.2511136257
 30
0.0
 11
367.1166203591
 21
134.2511136257
 31
0.0
  0
SOLID
  5
12B
330
1F
100
AcDbEntity
  8
0
  6
Continuous
 62
     7
370
    18
100
AcDbTrace
 10
367.1166203591
 20
134.2511136257
 30
0.0
 11
373.1166203591
 21
132.7511136257
 31
0.0
 12
373.1166203591
 22
135.7511136257
 32
0.0
 13
373.1166203591
 23
135.7511136257
 33
0.0
  0
LINE
  5
12C
330
1F
100
AcDbEntity
  8
0
  6
Continuous
 62
     7
370
    18
100
AcDbLine
 10
396.6287780831
 20
116.7366136257
 30
0.0
 11
384.6287780831
 21
116.7366136257
 31
0.0
  0
SOLID
  5
12D
330
1F
100
AcDbEntity
  8
0
  6
Continuous
 62
     7
370
    18
100
AcDbTrace
 10
384.6287780831
 20
116.7366136257
 30
0.0
 11
390.6287780831
 21
115.2366136257
 31
0.0
 12
390.6287780831
 22
118.2366136257
 32
0.0
 13
390.6287780831
 23
118.2366136257
 33
0.0
  0
MTEXT
  5
12E
330
1F
100
AcDbEntity
  8
0
  6
Continuous
 62
     7
100
AcDbMText
 10
375.9692396151
 20
140.8974068423
 30
0.0
 40
3.5
 41
0.0
 71
     1
 72
     1
  1
A
  7
SLDTEXTSTYLE0
 73
     1
 44
1.0
  0
MTEXT
  5
12F
330
1F
100
AcDbEntity
  8
0
  6
Continuous
 62
     7
100
AcDbMText
 10
393.4813973391
 20
114.5233979846
 30
0.0
 40
3.5
 41
0.0
 71
     1
 72
     1
  1
A
  7
SLDTEXTSTYLE0
 73
     1
 44
1.0
  0
LINE
  5
130
330
1F
100
AcDbEntity
  8
0
  6
Continuous
 62
     7
370
    25
100
AcDbLine
 10
132.1515770657
 20
85.2616136257
 30
0.0
 11
138.5173792612
 21
85.2616136257
 31
0.0
  0
ARC
  5
131
330
1F
100
AcDbEntity
  8
0
  6
Continuous
 62
     7
370
    25
100
AcDbCircle
 10
132.1515770657
 20
85.4616136257
 30
0.0
 40
0.2000000000000028
100
AcDbArc
 50
180.0
 51
270.0
  0
LINE
  5
132
330
1F
100
AcDbEntity
  8
0
  6
Continuous
 62
     7
370
    25
100
AcDbLine
 10
145.1857748703
 20
85.2616136257
 30
0.0
 11
149.9515770657
 21
85.2616136257
 31
0.0
  0
LINE
  5
133
330
1F
100
AcDbEntity
  8
0
  6
Continuous
 62
     7
370
    25
100
AcDbLine
 10
138.5173792612
 20
85.2616136257
 30
0.0
 11
139.9765770657
 21
87.7890183615
 31
0.0
  0
LINE
  5
134
330
1F
100
AcDbEntity
  8
0
  6
Continuous
 62
     7
370
    25
100
AcDbLine
 10
143.7265770657
 20
87.7890183615
 30
0.0
 11
145.1857748703
 21
85.2616136257
 31
0.0
  0
ARC
  5
135
330
1F
100
AcDbEntity
  8
0
  6
Continuous
 62
     7
370
    25
100
AcDbCircle
 10
140.9765770657
 20
87.8866136257
 30
0.0
 40
1.0
100
AcDbArc
 50
90.0
 51
180.0
  0
ARC
  5
136
330
1F
100
AcDbEntity
  8
0
  6
Continuous
 62
     7
370
    25
100
AcDbCircle
 10
142.7265770657
 20
87.8866136257
 30
0.0
 40
1.000000000000028
100
AcDbArc
 50
0.0
 51
90.0
  0
LINE
  5
137
330
1F
100
AcDbEntity
  8
0
  6
Continuous
 62
     7
370
    25
100
AcDbLine
 10
140.9765770657
 20
88.8866136257
 30
0.0
 11
142.7265770657
 21
88.8866136257
 31
0.0
  0
ARC
  5
138
330
1F
100
AcDbEntity
  8
0
  6
Continuous
 62
     7
370
    25
100
AcDbCircle
 10
131.5226421912
 20
91.1866136257
 30
0.0
 40
0.8000000000000181
100
AcDbArc
 50
57.576802718
 51
107.5
  0
LINE
  5
139
330
1F
100
AcDbEntity
  8
0
  6
Continuous
 62
     7
370
    25
100
AcDbLine
 10
130.7913950257
 20
91.7948755802
 30
0.0
 11
131.2820775516
 21
91.9495871863
 31
0.0
  0
LINE
  5
13A
330
1F
100
AcDbEntity
  8
0
  6
Continuous
 62
     7
370
    25
100
AcDbLine
 10
117.4651315977
 20
92.4640931049
 30
0.0
 11
130.7913950257
 21
91.7948755802
 31
0.0
  0
LINE
  5
13B
330
1F
100
AcDbEntity
  8
0
  6
Continuous
 62
     7
370
    25
100
AcDbLine
 10
93.5015770657
 20
93.6674934981
 30
0.0
 11
101.5564139293
 21
93.2629961672
 31
0.0
  0
LINE
  5
13C
330
1F
100
AcDbEntity
  8
0
  6
Continuous
 62
     7
370
    25
100
AcDbLine
 10
92.0015770657
 20
94.5335189019
 30
0.0
 11
93.5015770657
 21
93.6674934981
 31
0.0
  0
ARC
  5
13D
330
1F
100
AcDbEntity
  8
0
  6
Continuous
 62
     7
370
    25
100
AcDbCircle
 10
152.9515770657
 20
97.7366136257
 30
0.0
 40
3.0
100
AcDbArc
 50
90.0
 51
180.0
  0
LINE
  5
13E
330
1F
100
AcDbEntity
  8
0
  6
Continuous
 62
     7
370
    25
100
AcDbLine
 10
152.9515770657
 20
100.7366136257
 30
0.0
 11
161.126758121
 21
100.7366136257
 31
0.0
  0
LINE
  5
13F
330
1F
100
AcDbEntity
  8
0
  6
Continuous
 62
     7
370
    25
100
AcDbLine
 10
161.126758121
 20
100.7366136257
 30
0.0
 11
210.1084952572
 21
104.5915599415
 31
0.0
  0
ARC
  5
140
330
1F
100
AcDbEntity
  8
0
  6
Continuous
 62
     7
370
    25
100
AcDbCircle
 10
209.9515770657
 20
106.585394609
 30
0.0
 40
2.000000000000004
100
AcDbArc
 50
274.5
 51
0.0
  0
LINE
  5
141
330
1F
100
AcDbEntity
  8
0
  6
Continuous
 62
     7
370
    25
100
AcDbLine
 10
149.9515770657
 20
121.7366136257
 30
0.0
 11
149.4515770657
 21
121.2366136257
 31
0.0
  0
LINE
  5
142
330
1F
100
AcDbEntity
  8
0
  6
Continuous
 62
     7
370
    25
100
AcDbLine
 10
165.4515770657
 20
121.7366136257
 30
0.0
 11
149.9515770657
 21
121.7366136257
 31
0.0
  0
LINE
  5
143
330
1F
100
AcDbEntity
  8
0
  6
Continuous
 62
     7
370
    25
100
AcDbLine
 10
165.9515770657
 20
121.2366136257
 30
0.0
 11
165.4515770657
 21
121.7366136257
 31
0.0
  0
LINE
  5
144
330
1F
100
AcDbEntity
  8
0
  6
Continuous
 62
     7
370
    25
100
AcDbLine
 10
167.4515770657
 20
120.9082554083
 30
0.0
 11
169.4515770657
 21
120.9082554083
 31
0.0
  0
LINE
  5
145
330
1F
100
AcDbEntity
  8
0
  6
Continuous
 62
     7
370
    25
100
AcDbLine
 10
167.4515770657
 20
121.2366136257
 30
0.0
 11
165.9515770657
 21
121.2366136257
 31
0.0
  0
LINE
  5
146
330
1F
100
AcDbEntity
  8
0
  6
Continuous
 62
     7
370
    25
100
AcDbLine
 10
163.4515770657
 20
118.6744242467
 30
0.0
 11
163.4515770657
 21
119.2366136257
 31
0.0
  0
LINE
  5
147
330
1F
100
AcDbEntity
  8
0
  6
Continuous
 62
     7
370
    25
100
AcDbLine
 10
163.4515770657
 20
116.7366136257
 30
0.0
 11
163.4515770657
 21
118.6744242467
 31
0.0
  0
LINE
  5
148
330
1F
100
AcDbEntity
  8
0
  6
Continuous
 62
     7
370
    25
100
AcDbLine
 10
155.4515770657
 20
118.6744242467
 30
0.0
 11
155.4515770657
 21
116.7366136257
 31
0.0
  0
LINE
  5
149
330
1F
100
AcDbEntity
  8
0
  6
Continuous
 62
     7
370
    25
100
AcDbLine
 10
155.4515770657
 20
119.2366136257
 30
0.0
 11
155.4515770657
 21
118.6744242467
 31
0.0
  0
LINE
  5
14A
330
1F
100
AcDbEntity
  8
0
  6
Continuous
 62
     7
370
    25
100
AcDbLine
 10
155.4515770657
 20
119.2366136257
 30
0.0
 11
163.4515770657
 21
119.2366136257
 31
0.0
  0
LINE
  5
14B
330
1F
100
AcDbEntity
  8
0
  6
Continuous
 62
     7
370
    25
100
AcDbLine
 10
167.4515770657
 20
119.4111981392
 30
0.0
 11
167.4515770657
 21
121.2366136257
 31
0.0
  0
LINE
  5
14C
330
1F
100
AcDbEntity
  8
0
  6
Continuous
 62
     7
370
    25
100
AcDbLine
 10
163.4515770657
 20
119.4111981392
 30
0.0
 11
167.4515770657
 21
119.4111981392
 31
0.0
  0
LINE
  5
14D
330
1F
100
AcDbEntity
  8
0
  6
Continuous
 62
     7
370
    25
100
AcDbLine
 10
163.4515770657
 20
119.2366136257
 30
0.0
 11
163.4515770657
 21
119.4111981392
 31
0.0
  0
LINE
  5
14E
330
1F
100
AcDbEntity
  8
0
  6
Continuous
 62
     7
370
    25
100
AcDbLine
 10
155.4515770657
 20
119.4111981392
 30
0.0
 11
155.4515770657
 21
119.2366136257
 31
0.0
  0
LINE
  5
14F
330
1F
100
AcDbEntity
  8
0
  6
Continuous
 62
     7
370
    25
100
AcDbLine
 10
149.4515770657
 20
119.4111981392
 30
0.0
 11
155.4515770657
 21
119.4111981392
 31
0.0
  0
LINE
  5
150
330
1F
100
AcDbEntity
  8
0
  6
Continuous
 62
     7
370
    25
100
AcDbLine
 10
149.4515770657
 20
121.2366136257
 30
0.0
 11
149.4515770657
 21
119.4111981392
 31
0.0
  0
LINE
  5
151
330
1F
100
AcDbEntity
  8
0
  6
Continuous
 62
     7
370
    25
100
AcDbLine
 10
155.4515770657
 20
117.7624867494
 30
0.0
 11
149.4515770657
 21
117.7624867494
 31
0.0
  0
LINE
  5
152
330
1F
100
AcDbEntity
  8
0
  6
Continuous
 62
     7
370
    25
100
AcDbLine
 10
149.4515770657
 20
119.4111981392
 30
0.0
 11
149.4515770657
 21
117.7624867494
 31
0.0
  0
LINE
  5
153
330
1F
100
AcDbEntity
  8
0
  6
Continuous
 62
     7
370
    25
100
AcDbLine
 10
169.4515770657
 20
118.8568117462
 30
0.0
 11
169.4515770657
 21
117.7624867494
 31
0.0
  0
LINE
  5
154
330
1F
100
AcDbEntity
  8
0
  6
Continuous
 62
     7
370
    25
100
AcDbLine
 10
163.4515770657
 20
117.7624867494
 30
0.0
 11
169.4515770657
 21
117.7624867494
 31
0.0
  0
LINE
  5
155
330
1F
100
AcDbEntity
  8
0
  6
Continuous
 62
     7
370
    25
100
AcDbLine
 10
169.4515770657
 20
118.8568117462
 30
0.0
 11
167.4515770657
 21
118.8568117462
 31
0.0
  0
LINE
  5
156
330
1F
100
AcDbEntity
  8
0
  6
Continuous
 62
     7
370
    25
100
AcDbLine
 10
167.4515770657
 20
118.8568117462
 30
0.0
 11
167.4515770657
 21
119.4111981392
 31
0.0
  0
LINE
  5
157
330
1F
100
AcDbEntity
  8
0
  6
Continuous
 62
     7
370
    25
100
AcDbLine
 10
169.4515770657
 20
120.9082554083
 30
0.0
 11
169.4515770657
 21
118.8568117462
 31
0.0
  0
LINE
  5
158
330
1F
100
AcDbEntity
  8
0
  6
Continuous
 62
     7
370
    25
100
AcDbLine
 10
169.4515770657
 20
117.7624867494
 30
0.0
 11
169.4515770657
 21
116.7366136257
 31
0.0
  0
LINE
  5
159
330
1F
100
AcDbEntity
  8
0
  6
Continuous
 62
     7
370
    25
100
AcDbLine
 10
149.4515770657
 20
117.7624867494
 30
0.0
 11
149.4515770657
 21
116.7366136257
 31
0.0
  0
SPLINE
  5
15A
330
1F
100
AcDbEntity
  8
0
  6
Continuous
 62
     7
370
    25
100
AcDbSpline
210
0.0
220
0.0
230
1.0
 70
     8
 71
     3
 72
    14
 73
    10
 74
     0
 42
0.000000001
 43
0.00000001
 40
0.0
 40
0.0
 40
0.0
 40
0.0
 40
0.25
 40
0.25
 40
0.5
 40
0.5
 40
0.75
 40
0.75
 40
1.0
 40
1.0
 40
1.0
 40
1.0
 10
138.5173792611698
 20
113.4417155401779
 30
0.0
 10
138.3205033756448
 20
113.6692121081071
 30
0.0
 10
138.1443950542553
 20
113.9107988831782
 30
0.0
 10
137.8346586604821
 20
114.4229561175524
 30
0.0
 10
137.7001006589886
 20
114.6964889206605
 30
0.0
 10
137.4848585062794
 20
115.2565940551979
 30
0.0
 10
137.4032152687605
 20
115.5435665506079
 30
0.0
 10
137.2926922464904
 20
116.1316055356522
 30
0.0
 10
137.2640770657399
 20
116.4360489914229
 30
0.0
 10
137.2640770657399
 20
116.7366136256947
 30
0.0
  0
LINE
  5
15B
330
1F
100
AcDbEntity
  8
0
  6
Continuous
 62
     7
370
    25
100
AcDbLine
 10
138.5173792612
 20
85.2616136257
 30
0.0
 11
138.5173792612
 21
113.4417155402
 31
0.0
  0
LINE
  5
15C
330
1F
100
AcDbEntity
  8
0
  6
Continuous
 62
     7
370
    25
100
AcDbLine
 10
138.5173792612
 20
148.2116136257
 30
0.0
 11
132.1515770657
 21
148.2116136257
 31
0.0
  0
LINE
  5
15D
330
1F
100
AcDbEntity
  8
0
  6
Continuous
 62
     7
370
    25
100
AcDbLine
 10
131.9515770657
 20
85.4616136257
 30
0.0
 11
131.9515770657
 21
116.7366136257
 31
0.0
  0
LINE
  5
15E
330
1F
100
AcDbEntity
  8
0
  6
Continuous
 62
     7
370
    25
100
AcDbLine
 10
131.9515770657
 20
116.7366136257
 30
0.0
 11
132.1515770657
 21
116.7366136257
 31
0.0
  0
ARC
  5
15F
330
1F
100
AcDbEntity
  8
0
  6
Continuous
 62
     7
370
    25
100
AcDbCircle
 10
132.1515770657
 20
148.0116136257
 30
0.0
 40
0.1999999999999886
100
AcDbArc
 50
90.0
 51
180.0
  0
LINE
  5
160
330
1F
100
AcDbEntity
  8
0
  6
Continuous
 62
     7
370
    25
100
AcDbLine
 10
145.1857748703
 20
85.2616136257
 30
0.0
 11
145.1857748703
 21
111.846906346
 31
0.0
  0
SPLINE
  5
161
330
1F
100
AcDbEntity
  8
0
  6
Continuous
 62
     7
370
    25
100
AcDbSpline
210
0.0
220
0.0
230
1.0
 70
     8
 71
     3
 72
    20
 73
    16
 74
     0
 42
0.000000001
 43
0.00000001
 40
0.0
 40
0.0
 40
0.0
 40
0.0
 40
0.1249999999999996
 40
0.1249999999999996
 40
0.2499999999999992
 40
0.2499999999999992
 40
0.3749999999999989
 40
0.3749999999999989
 40
0.4999999999999987
 40
0.4999999999999987
 40
0.7499999999999994
 40
0.7499999999999994
 40
0.8749999999999997
 40
0.8749999999999997
 40
1.0
 40
1.0
 40
1.0
 40
1.0
 10
148.7390770657399
 20
116.7366136256948
 30
0.0
 10
148.7390770657399
 20
116.4699455382136
 30
0.0
 10
148.7170300366962
 20
116.2016333629395
 30
0.0
 10
148.6280239989914
 20
115.6687903277062
 30
0.0
 10
148.5621450307919
 20
115.4095001177203
 30
0.0
 10
148.3899701230847
 20
114.9043731516987
 30
0.0
 10
148.2832635521778
 20
114.6577929357775
 30
0.0
 10
148.0305866493015
 20
114.1813762850378
 30
0.0
 10
147.8871293851068
 20
113.9559562232729
 30
0.0
 10
147.4088071928263
 20
113.3153485416592
 30
0.0
 10
147.0207802098608
 20
112.9325828265561
 30
0.0
 10
146.3789755614154
 20
112.4566805783845
 30
0.0
 10
146.1541709337683
 20
112.3130849422328
 30
0.0
 10
145.682861876146
 20
112.0557535568422
 30
0.0
 10
145.4371652762571
 20
111.9427011783203
 30
0.0
 10
145.18577487031
 20
111.8469063460096
 30
0.0
  0
LINE
  5
162
330
1F
100
AcDbEntity
  8
0
  6
Continuous
 62
     7
370
    25
100
AcDbLine
 10
149.9515770657
 20
148.2116136257
 30
0.0
 11
145.1857748703
 21
148.2116136257
 31
0.0
  0
LINE
  5
163
330
1F
100
AcDbEntity
  8
0
  6
Continuous
 62
     7
370
    25
100
AcDbLine
 10
149.9515770657
 20
85.2616136257
 30
0.0
 11
149.9515770657
 21
116.7366136257
 31
0.0
  0
SPLINE
  5
164
330
1F
100
AcDbEntity
  8
0
  6
Continuous
 62
     7
370
    25
100
AcDbSpline
210
0.0
220
0.0
230
1.0
 70
     8
 71
     3
 72
     8
 73
     4
 74
     0
 42
0.000000001
 43
0.00000001
 40
0.0
 40
0.0
 40
0.0
 40
0.0
 40
1.0
 40
1.0
 40
1.0
 40
1.0
 10
145.1857748703095
 20
111.8469063460085
 30
0.0
 10
144.8373734656293
 20
112.2848816724224
 30
0.0
 10
144.4928050803964
 20
112.7279648110072
 30
0.0
 10
144.1544207810756
 20
113.1813558828558
 30
0.0
  0
ARC
  5
165
330
1F
100
AcDbEntity
  8
0
  6
Continuous
 62
     7
370
    25
100
AcDbCircle
 10
143.0015770657
 20
116.7366136257
 30
0.0
 40
3.737500000000011
100
AcDbArc
 50
287.9660359156
 51
0.0
  0
ARC
  5
166
330
1F
100
AcDbEntity
  8
0
  6
Continuous
 62
     7
370
    25
100
AcDbCircle
 10
143.0015770657
 20
116.7366136257
 30
0.0
 40
3.737500000000008
100
AcDbArc
 50
180.0
 51
206.113804444
  0
SPLINE
  5
167
330
1F
100
AcDbEntity
  8
0
  6
Continuous
 62
     7
370
    25
100
AcDbSpline
210
0.0
220
0.0
230
1.0
 70
     8
 71
     3
 72
    10
 73
     6
 74
     0
 42
0.000000001
 43
0.00000001
 40
0.0
 40
0.0
 40
0.0
 40
0.0
 40
0.5
 40
0.5
 40
1.0
 40
1.0
 40
1.0
 40
1.0
 10
139.6455952582866
 20
115.0915323638591
 30
0.0
 10
139.4687101118632
 20
114.7930820485025
 30
0.0
 10
139.2831607369858
 20
114.5140893443751
 30
0.0
 10
138.9052117969382
 20
113.9687700502494
 30
0.0
 10
138.712425254759
 20
113.7034346644279
 30
0.0
 10
138.5173792611698
 20
113.441715540178
 30
0.0
  0
SPLINE
  5
168
330
1F
100
AcDbEntity
  8
0
  6
Continuous
 62
     7
370
    25
100
AcDbSpline
210
0.0
220
0.0
230
1.0
 70
     8
 71
     3
 72
     8
 73
     4
 74
     0
 42
0.000000001
 43
0.00000001
 40
0.0
 40
0.0
 40
0.0
 40
0.0
 40
1.0
 40
1.0
 40
1.0
 40
1.0
 10
139.9765770657399
 20
114.5415552551723
 30
0.0
 10
139.85828030631
 20
114.7045794836308
 30
0.0
 10
139.7468518241386
 20
114.8849679826532
 30
0.0
 10
139.6455952582866
 20
115.0915323638591
 30
0.0
  0
LINE
  5
169
330
1F
100
AcDbEntity
  8
0
  6
Continuous
 62
     7
370
    25
100
AcDbLine
 10
139.9765770657
 20
87.7890183615
 30
0.0
 11
139.9765770657
 21
114.5415552552
 31
0.0
  0
SPLINE
  5
16A
330
1F
100
AcDbEntity
  8
0
  6
Continuous
 62
     7
370
    25
100
AcDbSpline
210
0.0
220
0.0
230
1.0
 70
     8
 71
     3
 72
     8
 73
     4
 74
     0
 42
0.000000001
 43
0.00000001
 40
0.0
 40
0.0
 40
0.0
 40
0.0
 40
1.0
 40
1.0
 40
1.0
 40
1.0
 10
144.1544207810759
 20
113.1813558828566
 30
0.0
 10
144.012882692794
 20
113.1354601117595
 30
0.0
 10
143.8702722240571
 20
113.0985192608222
 30
0.0
 10
143.7265770657401
 20
113.0701055798816
 30
0.0
  0
LINE
  5
16B
330
1F
100
AcDbEntity
  8
0
  6
Continuous
 62
     7
370
    25
100
AcDbLine
 10
143.7265770657
 20
87.7890183615
 30
0.0
 11
143.7265770657
 21
113.0701055799
 31
0.0
  0
SPLINE
  5
16C
330
1F
100
AcDbEntity
  8
0
  6
Continuous
 62
     7
370
    25
100
AcDbSpline
210
0.0
220
0.0
230
1.0
 70
     8
 71
     3
 72
    14
 73
    10
 74
     0
 42
0.000000001
 43
0.00000001
 40
0.0
 40
0.0
 40
0.0
 40
0.0
 40
0.25
 40
0.25
 40
0.5
 40
0.5
 40
0.75
 40
0.75
 40
1.0
 40
1.0
 40
1.0
 40
1.0
 10
140.9765770657399
 20
113.5952315651997
 30
0.0
 10
140.8422289793834
 20
113.6818351268273
 30
0.0
 10
140.7190523055274
 20
113.7733035241506
 30
0.0
 10
140.4903057006094
 20
113.9644949107816
 30
0.0
 10
140.3883837366423
 20
114.0613567629225
 30
0.0
 10
140.2089603342135
 20
114.2492313776578
 30
0.0
 10
140.1325190460307
 20
114.3394667290091
 30
0.0
 10
140.0152290731806
 20
114.4872730929865
 30
0.0
 10
139.9765770657399
 20
114.5415552551724
 30
0.0
 10
139.9765770657399
 20
114.5415552551724
 30
0.0
  0
SPLINE
  5
16D
330
1F
100
AcDbEntity
  8
0
  6
Continuous
 62
     7
370
    25
100
AcDbSpline
210
0.0
220
0.0
230
1.0
 70
     8
 71
     3
 72
    14
 73
    10
 74
     0
 42
0.000000001
 43
0.00000001
 40
0.0
 40
0.0
 40
0.0
 40
0.0
 40
0.25
 40
0.25
 40
0.5
 40
0.5
 40
0.75
 40
0.75
 40
1.0
 40
1.0
 40
1.0
 40
1.0
 10
143.7265770657401
 20
113.0701055798822
 30
0.0
 10
143.7265770657402
 20
113.0701055798822
 30
0.0
 10
143.7006605431691
 20
113.0647288488938
 30
0.0
 10
143.6012156965915
 20
113.0471842612934
 30
0.0
 10
143.5289173041793
 20
113.0353348576471
 30
0.0
 10
143.3442134096554
 20
113.0136910396468
 30
0.0
 10
143.2346361477794
 20
113.0044017789624
 30
0.0
 10
142.9913059695613
 20
112.9971462426048
 30
0.0
 10
142.8597697106412
 20
112.9994176487642
 30
0.0
 10
142.7265770657399
 20
113.0092444126973
 30
0.0
  0
SPLINE
  5
16E
330
1F
100
AcDbEntity
  8
0
  6
Continuous
 62
     7
370
    25
100
AcDbSpline
210
0.0
220
0.0
230
1.0
 70
     8
 71
     3
 72
    10
 73
     6
 74
     0
 42
0.000000001
 43
0.00000001
 40
0.0
 40
0.0
 40
0.0
 40
0.0
 40
0.5
 40
0.5
 40
1.0
 40
1.0
 40
1.0
 40
1.0
 10
142.7265770657399
 20
113.0092444126974
 30
0.0
 10
142.4141131634518
 20
113.0322975550664
 30
0.0
 10
142.111224181454
 20
113.0935322574728
 30
0.0
 10
141.52388099665
 20
113.2897042213968
 30
0.0
 10
141.239413336078
 20
113.4258018564966
 30
0.0
 10
140.9765770657399
 20
113.5952315651997
 30
0.0
  0
LINE
  5
16F
330
1F
100
AcDbEntity
  8
0
  6
Continuous
 62
     7
370
    25
100
AcDbLine
 10
131.9515770657
 20
143.5866136257
 30
0.0
 11
132.2856157518
 21
142.5271782653
 31
0.0
  0
LINE
  5
170
330
1F
100
AcDbEntity
  8
0
  6
Continuous
 62
     7
370
    25
100
AcDbLine
 10
131.9515770657
 20
143.5866136257
 30
0.0
 11
131.9515770657
 21
141.6113248924
 31
0.0
  0
ARC
  5
171
330
1F
100
AcDbEntity
  8
0
  6
Continuous
 62
     7
370
    25
100
AcDbCircle
 10
131.5226421912
 20
142.2866136257
 30
0.0
 40
0.8000000000000181
100
AcDbArc
 50
252.5
 51
17.5
  0
LINE
  5
172
330
1F
100
AcDbEntity
  8
0
  6
Continuous
 62
     7
370
    25
100
AcDbLine
 10
130.7913950257
 20
91.7948755802
 30
0.0
 11
130.7913950257
 21
116.7366136257
 31
0.0
  0
LINE
  5
173
330
1F
100
AcDbEntity
  8
0
  6
Continuous
 62
     7
370
    25
100
AcDbLine
 10
131.2820775516
 20
141.5236400651
 30
0.0
 11
130.7913950257
 21
141.6783516712
 31
0.0
  0
SPLINE
  5
174
330
1F
100
AcDbEntity
  8
0
  6
Continuous
 62
     7
370
    25
100
AcDbSpline
210
0.0
220
0.0
230
1.0
 70
     8
 71
     3
 72
    23
 73
    19
 74
     0
 42
0.000000001
 43
0.00000001
 40
0.0
 40
0.0
 40
0.0
 40
0.0
 40
0.0014604812709588
 40
0.0696150530453903
 40
0.1372664155517299
 40
0.2039701081708413
 40
0.2703009355134169
 40
0.3365574227929782
 40
0.4028683808926545
 40
0.4678692457983372
 40
0.5326412087581105
 40
0.5993596676726515
 40
0.6655231146104379
 40
0.7321169419750764
 40
0.7988868443755297
 40
0.8663366769539963
 40
0.9345228517281776
 40
1.0
 40
1.0
 40
1.0
 40
1.0
 10
101.7113673837934
 20
140.1608822141096
 30
0.0
 10
101.7125225125803
 20
140.1605258423094
 30
0.0
 10
101.7675826858119
 20
140.1435390844055
 30
0.0
 10
102.1640001103468
 20
140.0262737290344
 30
0.0
 10
102.8800499812606
 20
139.8256660376252
 30
0.0
 10
103.8897317574361
 20
139.5850503892997
 30
0.0
 10
105.105709372621
 20
139.3577782899667
 30
0.0
 10
106.509909473635
 20
139.1853887384489
 30
0.0
 10
108.0269735520233
 20
139.0973204417813
 30
0.0
 10
109.6012714017488
 20
139.1283681006754
 30
0.0
 10
111.1670916277852
 20
139.2793913403846
 30
0.0
 10
112.6569486972997
 20
139.5337281389571
 30
0.0
 10
114.0286288896416
 20
139.8514649176132
 30
0.0
 10
115.21455198336
 20
140.1953813377477
 30
0.0
 10
116.1921513273683
 20
140.5232239380562
 30
0.0
 10
116.9116624789586
 20
140.79214836754
 30
0.0
 10
117.3842974806611
 20
140.9747377031617
 30
0.0
 10
117.4417685950143
 20
140.9979860957465
 30
0.0
 10
117.4699217531888
 20
141.0093746981968
 30
0.0
  0
LINE
  5
175
330
1F
100
AcDbEntity
  8
0
  6
Continuous
 62
     7
370
    25
100
AcDbLine
 10
101.5520111805
 20
140.2100099873
 30
0.0
 11
93.5015770657
 21
139.8057337533
 31
0.0
  0
LINE
  5
176
330
1F
100
AcDbEntity
  8
0
  6
Continuous
 62
     7
370
    25
100
AcDbLine
 10
93.5015770657
 20
93.6674934981
 30
0.0
 11
93.5015770657
 21
107.6144905911
 31
0.0
  0
SPLINE
  5
177
330
1F
100
AcDbEntity
  8
0
  6
Continuous
 62
     7
370
    25
100
AcDbSpline
210
0.0
220
0.0
230
1.0
 70
     8
 71
     3
 72
     8
 73
     4
 74
     0
 42
0.000000001
 43
0.00000001
 40
0.0
 40
0.0
 40
0.0
 40
0.0
 40
1.0
 40
1.0
 40
1.0
 40
1.0
 10
99.31975151868689
 20
107.6190766493914
 30
0.0
 10
97.38036003437547
 20
107.6169305535417
 30
0.0
 10
95.44096855006406
 20
107.615334367017
 30
0.0
 10
93.50157706575264
 20
107.6142869145413
 30
0.0
  0
SPLINE
  5
178
330
1F
100
AcDbEntity
  8
0
  6
Continuous
 62
     7
370
    25
100
AcDbSpline
210
0.0
220
0.0
230
1.0
 70
     8
 71
     3
 72
    13
 73
     9
 74
     0
 42
0.000000001
 43
0.00000001
 40
0.0
 40
0.0
 40
0.0
 40
0.0
 40
0.1686319999748085
 40
0.3360343310905433
 40
0.502536782590866
 40
0.6684737453788339
 40
0.834182263691515
 40
1.0
 40
1.0
 40
1.0
 40
1.0
 10
100.4032465681539
 20
107.756533095209
 30
0.0
 10
100.3437566720941
 20
107.7420187751702
 30
0.0
 10
100.225210681819
 20
107.7130959738856
 30
0.0
 10
100.0453339862332
 20
107.6791345804773
 30
0.0
 10
99.86494369860516
 20
107.6522690181184
 30
0.0
 10
99.68383152657134
 20
107.6333100810104
 30
0.0
 10
99.50207068940388
 20
107.6213796296147
 30
0.0
 10
99.38053792150924
 20
107.6198444780459
 30
0.0
 10
99.31975151868687
 20
107.6190766493914
 30
0.0
  0
SPLINE
  5
179
330
1F
100
AcDbEntity
  8
0
  6
Continuous
 62
     7
370
    25
100
AcDbSpline
210
0.0
220
0.0
230
1.0
 70
     8
 71
     3
 72
     8
 73
     4
 74
     0
 42
0.000000001
 43
0.00000001
 40
0.0
 40
0.0
 40
0.0
 40
0.0
 40
1.0
 40
1.0
 40
1.0
 40
1.0
 10
105.7954399846467
 20
107.7607711370945
 30
0.0
 10
103.9980453132089
 20
107.7589000765705
 30
0.0
 10
102.2006506417711
 20
107.7574778955463
 30
0.0
 10
100.4032559703332
 20
107.7565037725503
 30
0.0
  0
SPLINE
  5
17A
330
1F
100
AcDbEntity
  8
0
  6
Continuous
 62
     7
370
    25
100
AcDbSpline
210
0.0
220
0.0
230
1.0
 70
     8
 71
     3
 72
    18
 73
    14
 74
     0
 42
0.000000001
 43
0.00000001
 40
0.0
 40
0.0
 40
0.0
 40
0.0
 40
0.0923325137111192
 40
0.1843692047063016
 40
0.2763458873810836
 40
0.3684982175655623
 40
0.4610598988303626
 40
0.554260954653301
 40
0.6483261285442131
 40
0.74347346365053
 40
0.8399130993119804
 40
0.9201660718299768
 40
1.0
 40
1.0
 40
1.0
 40
1.0
 10
107.991761633249
 20
107.2265789012508
 30
0.0
 10
107.921431329736
 20
107.2269955256824
 30
0.0
 10
107.780996052884
 20
107.2278274397291
 30
0.0
 10
107.5706335263814
 20
107.2414362866436
 30
0.0
 10
107.361189863465
 20
107.2641030440153
 30
0.0
 10
107.1526401930925
 20
107.296703833816
 30
0.0
 10
106.9449965758173
 20
107.3390063124363
 30
0.0
 10
106.7382583882777
 20
107.3910777110914
 30
0.0
 10
106.5324362963128
 20
107.4529264839368
 30
0.0
 10
106.3275046175207
 20
107.524524495393
 30
0.0
 10
106.136023872125
 20
107.6011029856204
 30
0.0
 10
105.9583007200704
 20
107.6797142344535
 30
0.0
 10
105.8499667255063
 20
107.7336283902409
 30
0.0
 10
105.7959415160531
 20
107.7605149051399
 30
0.0
  0
LINE
  5
17B
330
1F
100
AcDbEntity
  8
0
  6
Continuous
 62
     7
370
    25
100
AcDbLine
 10
109.9066349125
 20
107.2280743361
 30
0.0
 11
107.9917616332
 21
107.2265789013
 31
0.0
  0
SPLINE
  5
17C
330
1F
100
AcDbEntity
  8
0
  6
Continuous
 62
     7
370
    25
100
AcDbSpline
210
0.0
220
0.0
230
1.0
 70
     8
 71
     3
 72
    25
 73
    21
 74
     0
 42
0.000000001
 43
0.00000001
 40
0.0
 40
0.0
 40
0.0
 40
0.0
 40
0.0280105225422753
 40
0.0559601148854256
 40
0.0839014045034749
 40
0.1118870776777086
 40
0.1399695827579646
 40
0.1682008401731476
 40
0.1966319670417595
 40
0.2253130233137476
 40
0.2542927850735311
 40
0.3799486436564626
 40
0.5057850221666382
 40
0.631308588631066
 40
0.7532068238011618
 40
0.8039473267946936
 40
0.8535894438541253
 40
0.9025339722380873
 40
0.9511970353782256
 40
1.0
 40
1.0
 40
1.0
 40
1.0
 10
114.8465192189413
 20
112.3619381406261
 30
0.0
 10
114.8465564406752
 20
112.2873181136136
 30
0.0
 10
114.8466308031758
 20
112.1382403776281
 30
0.0
 10
114.8342147525292
 20
111.915622286664
 30
0.0
 10
114.8126101921755
 20
111.6942978686365
 30
0.0
 10
114.7809247225154
 20
111.4743296027486
 30
0.0
 10
114.7393985841955
 20
111.2557393155196
 30
0.0
 10
114.6879678284656
 20
111.0385573771145
 30
0.0
 10
114.6266539537544
 20
110.8228159572283
 30
0.0
 10
114.5554436182549
 20
110.6085260657761
 30
0.0
 10
114.3846070110538
 20
110.1601762927552
 30
0.0
 10
114.0468747776177
 20
109.506845464683
 30
0.0
 10
113.435320113423
 20
108.7349522540469
 30
0.0
 10
112.6990852782705
 20
108.0907926286616
 30
0.0
 10
112.0125992066262
 20
107.6991514605996
 30
0.0
 10
111.4638950604774
 20
107.4804565596266
 30
0.0
 10
111.0818588819758
 20
107.3646005107962
 30
0.0
 10
110.6946927832713
 20
107.2836926052663
 30
0.0
 10
110.3024661144811
 20
107.2344641744685
 30
0.0
 10
110.0387048463624
 20
107.2302063194533
 30
0.0
 10
109.9066349125385
 20
107.2280743361106
 30
0.0
  0
LINE
  5
17D
330
1F
100
AcDbEntity
  8
0
  6
Continuous
 62
     7
370
    25
100
AcDbLine
 10
114.8465192189
 20
116.7366136257
 30
0.0
 11
114.8465192189
 21
112.3619381406
 31
0.0
  0
LINE
  5
17E
330
1F
100
AcDbEntity
  8
0
  6
Continuous
 62
     7
370
    25
100
AcDbLine
 10
130.7913950257
 20
141.6783516712
 30
0.0
 11
117.4699217532
 21
141.0093746982
 31
0.0
  0
SPLINE
  5
17F
330
1F
100
AcDbEntity
  8
0
  6
Continuous
 62
     7
370
    25
100
AcDbSpline
210
0.0
220
0.0
230
1.0
 70
     8
 71
     3
 72
    20
 73
    16
 74
     0
 42
0.000000001
 43
0.00000001
 40
0.0
 40
0.0
 40
0.0
 40
0.0
 40
0.0829621378684853
 40
0.1658495135106164
 40
0.2487180070857356
 40
0.3299477216398523
 40
0.4108693994445734
 40
0.4941953814850561
 40
0.5768901676626225
 40
0.6601065810557776
 40
0.7435845489350853
 40
0.8279858465401886
 40
0.9132590745392882
 40
0.9972257035811802
 40
1.0
 40
1.0
 40
1.0
 40
1.0
 10
103.8639931604669
 20
93.87335325818786
 30
0.0
 10
104.2497389965382
 20
93.950271684792
 30
0.0
 10
105.0208830496554
 20
94.1040392221296
 30
0.0
 10
106.4286312008252
 20
94.27995444351512
 30
0.0
 10
107.9364825686998
 20
94.37395073084417
 30
0.0
 10
109.5089715437176
 20
94.35010634897756
 30
0.0
 10
111.0762685749297
 20
94.20620130407697
 30
0.0
 10
112.5720446017112
 20
93.95714370127794
 30
0.0
 10
113.9522984773839
 20
93.64246300873931
 30
0.0
 10
115.1498926604395
 20
93.29820165675878
 30
0.0
 10
116.1367546902618
 20
92.96915443093903
 30
0.0
 10
116.8839929364598
 20
92.69069352273127
 30
0.0
 10
117.3311943658254
 20
92.51883772769965
 30
0.0
 10
117.5179489779753
 20
92.44498705610124
 30
0.0
 10
117.4668507640771
 20
92.46513834717432
 30
0.0
 10
117.465216453732
 20
92.46578286018087
 30
0.0
  0
SPLINE
  5
180
330
1F
100
AcDbEntity
  8
0
  6
Continuous
 62
     7
370
    25
100
AcDbSpline
210
0.0
220
0.0
230
1.0
 70
     8
 71
     3
 72
    11
 73
     7
 74
     0
 42
0.000000001
 43
0.00000001
 40
0.0
 40
0.0
 40
0.0
 40
0.0
 40
0.2435512231731374
 40
0.4981153923403526
 40
0.7509097881719445
 40
1.0
 40
1.0
 40
1.0
 40
1.0
 10
101.5564990427233
 20
93.26469104880475
 30
0.0
 10
101.5824499642486
 20
93.2729265853429
 30
0.0
 10
101.6355252610537
 20
93.28977005449238
 30
0.0
 10
102.1132202447162
 20
93.4306714966299
 30
0.0
 10
102.8245596929829
 20
93.6359620470781
 30
0.0
 10
103.5192243401576
 20
93.79461316527531
 30
0.0
 10
103.8639931604669
 20
93.87335325818786
 30
0.0
  0
LINE
  5
181
330
1F
100
AcDbEntity
  8
0
  6
Continuous
 62
     7
370
    25
100
AcDbLine
 10
114.8465192189
 20
112.3619381406
 30
0.0
 11
113.9515770657
 21
112.5241136257
 31
0.0
  0
LINE
  5
182
330
1F
100
AcDbEntity
  8
0
  6
Continuous
 62
     7
370
    25
100
AcDbLine
 10
113.9515770657
 20
112.5241136257
 30
0.0
 11
113.9515770657
 21
116.7366136257
 31
0.0
  0
SPLINE
  5
183
330
1F
100
AcDbEntity
  8
0
  6
Continuous
 62
     7
370
    25
100
AcDbSpline
210
0.0
220
0.0
230
1.0
 70
     8
 71
     3
 72
    25
 73
    21
 74
     0
 42
0.000000001
 43
0.00000001
 40
0.0
 40
0.0
 40
0.0
 40
0.0
 40
0.0288821753116583
 40
0.0583636594024247
 40
0.088464720432864
 40
0.1192044006641432
 40
0.1506005800108822
 40
0.1826700399688414
 40
0.2154285269587146
 40
0.2488908143380118
 40
0.3610594471217245
 40
0.498467013106778
 40
0.5822693905006526
 40
0.6661127642782239
 40
0.7499972937224496
 40
0.8007709755032478
 40
0.8511237700807983
 40
0.901089602450676
 40
0.9507031914109089
 40
1.0
 40
1.0
 40
1.0
 40
1.0
 10
109.9515770657399
 20
108.5241136256947
 30
0.0
 10
110.0143775189786
 20
108.5249701096465
 30
0.0
 10
110.1412815427785
 20
108.5267008497002
 30
0.0
 10
110.332635950493
 20
108.540850715104
 30
0.0
 10
110.5265407631716
 20
108.5639877974254
 30
0.0
 10
110.7224414839
 20
108.5973989496509
 30
0.0
 10
110.9197791519042
 20
108.6412727716836
 30
0.0
 10
111.1179324936893
 20
108.6960680426529
 30
0.0
 10
111.3162482376975
 20
108.7621370040165
 30
0.0
 10
111.6675692252001
 20
108.9001183362695
 30
0.0
 10
112.1926809955226
 20
109.1801702751107
 30
0.0
 10
112.7296728240081
 20
109.618760877519
 30
0.0
 10
113.1417325540465
 20
110.0926209990657
 30
0.0
 10
113.428651142099
 20
110.5243047468855
 30
0.0
 10
113.6270778293062
 20
110.9274279886457
 30
0.0
 10
113.7591637033545
 20
111.2851641494246
 30
0.0
 10
113.8447975831523
 20
111.587916551707
 30
0.0
 10
113.9058797945053
 20
111.8964048619527
 30
0.0
 10
113.9443807378708
 20
112.2087165721091
 30
0.0
 10
113.9491834169643
 20
112.4192059860105
 30
0.0
 10
113.9515770657399
 20
112.5241136256947
 30
0.0
  0
SPLINE
  5
184
330
1F
100
AcDbEntity
  8
0
  6
Continuous
 62
     7
370
    25
100
AcDbSpline
210
0.0
220
0.0
230
1.0
 70
     8
 71
     3
 72
    13
 73
     9
 74
     0
 42
0.000000001
 43
0.00000001
 40
0.0
 40
0.0
 40
0.0
 40
0.0
 40
0.1722587823678385
 40
0.3421398271425444
 40
0.5097456258111679
 40
0.6751828993453325
 40
0.8385626190248169
 40
1.0
 40
1.0
 40
1.0
 40
1.0
 10
106.9515954346502
 20
108.6741084484445
 30
0.0
 10
107.0124588243227
 20
108.657844720745
 30
0.0
 10
107.1333454887681
 20
108.6255417582642
 30
0.0
 10
107.3164066467405
 20
108.5881541035706
 30
0.0
 10
107.4985093296812
 20
108.5590211686605
 30
0.0
 10
107.6794507779978
 20
108.5388344530551
 30
0.0
 10
107.8587897816941
 20
108.5263876487545
 30
0.0
 10
107.9776360101075
 20
108.5248686055271
 30
0.0
 10
108.0367037864504
 20
108.5241136256947
 30
0.0
  0
LINE
  5
185
330
1F
100
AcDbEntity
  8
0
  6
Continuous
 62
     7
370
    25
100
AcDbLine
 10
107.9917616332
 20
107.2265789013
 30
0.0
 11
108.0367037865
 21
108.5241136257
 31
0.0
  0
SPLINE
  5
186
330
1F
100
AcDbEntity
  8
0
  6
Continuous
 62
     7
370
    25
100
AcDbSpline
210
0.0
220
0.0
230
1.0
 70
     8
 71
     3
 72
    11
 73
     7
 74
     0
 42
0.000000001
 43
0.00000001
 40
0.0
 40
0.0
 40
0.0
 40
0.0
 40
0.2392913844325938
 40
0.5001130135003002
 40
0.7515028526498353
 40
0.9999999999999999
 40
0.9999999999999999
 40
0.9999999999999999
 40
0.9999999999999999
 10
106.624104573594
 20
108.6746872307178
 30
0.0
 10
106.555279637647
 20
108.6031337935632
 30
0.0
 10
106.4114372414738
 20
108.4535888980519
 30
0.0
 10
106.2036884431072
 20
108.2246714714064
 30
0.0
 10
105.9957022384861
 20
107.9923530991666
 30
0.0
 10
105.8627013147159
 20
107.8375772165753
 30
0.0
 10
105.7965856704914
 20
107.7606370954254
 30
0.0
  0
SPLINE
  5
187
330
1F
100
AcDbEntity
  8
0
  6
Continuous
 62
     7
370
    25
100
AcDbSpline
210
0.0
220
0.0
230
1.0
 70
    24
 71
     3
 72
     9
 73
     5
 74
     0
 42
0.000000001
 43
0.00000001
 40
0.0
 40
0.0
 40
0.0
 40
0.0
 40
0.509083966986604
 40
1.0
 40
1.0
 40
1.0
 40
1.0
 10
106.6263348419134
 20
108.6741136256947
 30
0.0
 10
106.6810682420258
 20
108.6741136256947
 30
0.0
 10
106.7885817440446
 20
108.6741136256947
 30
0.0
 10
106.8979743044156
 20
108.6741136256947
 30
0.0
 10
106.951676866194
 20
108.6741136256947
 30
0.0
  0
LINE
  5
188
330
1F
100
AcDbEntity
  8
0
  6
Continuous
 62
     7
370
    25
100
AcDbLine
 10
100.3777269773
 20
108.6540618519
 30
0.0
 11
100.4031414689
 21
107.7565036813
 31
0.0
  0
SPLINE
  5
189
330
1F
100
AcDbEntity
  8
0
  6
Continuous
 62
     7
370
    25
100
AcDbSpline
210
0.0
220
0.0
230
1.0
 70
     8
 71
     3
 72
     8
 73
     4
 74
     0
 42
0.000000001
 43
0.00000001
 40
0.0
 40
0.0
 40
0.0
 40
0.0
 40
1.0
 40
1.0
 40
1.0
 40
1.0
 10
100.3777381684681
 20
108.6540623420339
 30
0.0
 10
100.3995410249502
 20
108.6597596730666
 30
0.0
 10
100.4212957343477
 20
108.6656412558616
 30
0.0
 10
100.4429991896657
 20
108.6717062504146
 30
0.0
  0
LINE
  5
18A
330
1F
100
AcDbEntity
  8
0
  6
Continuous
 62
     7
370
    25
100
AcDbLine
 10
100.4515770658
 20
108.6741136257
 30
0.0
 11
106.6252500381
 21
108.6741136257
 31
0.0
  0
LINE
  5
18B
330
1F
100
AcDbEntity
  8
0
  6
Continuous
 62
     7
370
    25
100
AcDbLine
 10
108.0367037865
 20
108.5241136257
 30
0.0
 11
109.9515770657
 21
108.5241136257
 31
0.0
  0
SPLINE
  5
18C
330
1F
100
AcDbEntity
  8
0
  6
Continuous
 62
     7
370
    25
100
AcDbSpline
210
0.0
220
0.0
230
1.0
 70
     8
 71
     3
 72
    13
 73
     9
 74
     0
 42
0.000000001
 43
0.00000001
 40
0.0
 40
0.0
 40
0.0
 40
0.0
 40
0.1621004456571512
 40
0.325943455157606
 40
0.4915935308260523
 40
0.6591130873964648
 40
0.8285624736043361
 40
1.0
 40
1.0
 40
1.0
 40
1.0
 10
99.36645034502936
 20
108.5241136256947
 30
0.0
 10
99.4220053030949
 20
108.5247825918959
 30
0.0
 10
99.53371242955966
 20
108.5261277156193
 30
0.0
 10
99.70156011895342
 20
108.5370742844106
 30
0.0
 10
99.87034653782182
 20
108.5547132137313
 30
0.0
 10
100.0396708943536
 20
108.5800187277192
 30
0.0
 10
100.209417542531
 20
108.6123227305122
 30
0.0
 10
100.3214104411887
 20
108.6400943303982
 30
0.0
 10
100.3777334762184
 20
108.6540611158994
 30
0.0
  0
LINE
  5
18D
330
1F
100
AcDbEntity
  8
0
  6
Continuous
 62
     7
370
    25
100
AcDbLine
 10
92.5879172442
 20
107.9966118818
 30
0.0
 11
93.5015770658
 21
108.5241136257
 31
0.0
  0
LINE
  5
18E
330
1F
100
AcDbEntity
  8
0
  6
Continuous
 62
     7
370
    25
100
AcDbLine
 10
93.5015770658
 20
108.5241136257
 30
0.0
 11
99.366450345
 21
108.5241136257
 31
0.0
  0
SPLINE
  5
18F
330
1F
100
AcDbEntity
  8
0
  6
Continuous
 62
     7
370
    25
100
AcDbSpline
210
0.0
220
0.0
230
1.0
 70
     8
 71
     3
 72
     8
 73
     4
 74
     0
 42
0.000000001
 43
0.00000001
 40
0.0
 40
0.0
 40
0.0
 40
0.0
 40
1.0
 40
1.0
 40
1.0
 40
1.0
 10
93.50157706528894
 20
107.6142869143187
 30
0.0
 10
93.19702379158343
 20
107.7429777788655
 30
0.0
 10
92.89247051787788
 20
107.8704225351272
 30
0.0
 10
92.58791724417237
 20
107.9966118817649
 30
0.0
  0
LINE
  5
190
330
1F
100
AcDbEntity
  8
0
  6
Continuous
 62
     7
370
    25
100
AcDbLine
 10
92.0015770657
 20
94.5335189019
 30
0.0
 11
92.0015770657
 21
107.6580882219
 31
0.0
  0
SPLINE
  5
191
330
1F
100
AcDbEntity
  8
0
  6
Continuous
 62
     7
370
    25
100
AcDbSpline
210
0.0
220
0.0
230
1.0
 70
    24
 71
     3
 72
     8
 73
     4
 74
     0
 42
0.000000001
 43
0.00000001
 40
0.0
 40
0.0
 40
0.0
 40
0.0
 40
1.0
 40
1.0
 40
1.0
 40
1.0
 10
92.58791724417236
 20
107.9966118817649
 30
0.0
 10
92.39158521851401
 20
107.8832595339005
 30
0.0
 10
92.1961241982738
 20
107.7704100612488
 30
0.0
 10
92.00157706573988
 20
107.6580882219103
 30
0.0
  0
ARC
  5
192
330
1F
100
AcDbEntity
  8
0
  6
Continuous
 62
     7
370
    25
100
AcDbCircle
 10
152.9515770657
 20
135.7366136257
 30
0.0
 40
3.0
100
AcDbArc
 50
180.0
 51
270.0
  0
LINE
  5
193
330
1F
100
AcDbEntity
  8
0
  6
Continuous
 62
     7
370
    25
100
AcDbLine
 10
123.7268175393
 20
134.9866136257
 30
0.0
 11
125.1515770657
 21
134.9866136257
 31
0.0
  0
ARC
  5
194
330
1F
100
AcDbEntity
  8
0
  6
Continuous
 62
     7
370
    25
100
AcDbCircle
 10
125.1515770657
 20
134.1866136257
 30
0.0
 40
0.8000000000000114
100
AcDbArc
 50
0.0
 51
90.0
  0
ARC
  5
195
330
1F
100
AcDbEntity
  8
0
  6
Continuous
 62
     7
370
    25
100
AcDbCircle
 10
123.7268175393
 20
134.1866136257
 30
0.0
 40
0.8000000000000114
100
AcDbArc
 50
90.0
 51
120.0
  0
LINE
  5
196
330
1F
100
AcDbEntity
  8
0
  6
Continuous
 62
     7
370
    25
100
AcDbLine
 10
122.4515770657
 20
134.3741136257
 30
0.0
 11
122.4515770657
 21
116.7366136257
 31
0.0
  0
LINE
  5
197
330
1F
100
AcDbEntity
  8
0
  6
Continuous
 62
     7
370
    25
100
AcDbLine
 10
122.4515770657
 20
134.3741136257
 30
0.0
 11
123.3268175393
 21
134.8794339487
 31
0.0
  0
LINE
  5
198
330
1F
100
AcDbEntity
  8
0
  6
Continuous
 62
     7
370
    25
100
AcDbLine
 10
92.7532431156
 20
108.0920628181
 30
0.0
 11
92.6167743432
 21
108.0132725357
 31
0.0
  0
SPLINE
  5
199
330
1F
100
AcDbEntity
  8
0
  6
Continuous
 62
     7
370
    25
100
AcDbSpline
210
0.0
220
0.0
230
1.0
 70
     8
 71
     3
 72
    32
 73
    28
 74
     0
 42
0.000000001
 43
0.00000001
 40
0.0
 40
0.0
 40
0.0
 40
0.0
 40
0.1250000000000004
 40
0.1250000000000004
 40
0.1875000000000002
 40
0.1875000000000002
 40
0.2499999999999999
 40
0.2499999999999999
 40
0.3124999999999996
 40
0.3124999999999996
 40
0.3749999999999993
 40
0.3749999999999993
 40
0.4999999999999988
 40
0.4999999999999988
 40
0.5624999999999989
 40
0.5624999999999989
 40
0.624999999999999
 40
0.624999999999999
 40
0.7499999999999992
 40
0.7499999999999992
 40
0.8124999999999994
 40
0.8124999999999994
 40
0.8749999999999997
 40
0.8749999999999997
 40
0.9374999999999999
 40
0.9374999999999999
 40
1.0
 40
1.0
 40
1.0
 40
1.0
 10
106.4192073970805
 20
132.9092823799042
 30
0.0
 10
105.9351331531265
 20
132.9096417725239
 30
0.0
 10
105.4517355825596
 20
132.9246009787052
 30
0.0
 10
104.7278302328236
 20
132.9715850252138
 30
0.0
 10
104.4871677992868
 20
132.9913615803384
 30
0.0
 10
104.0158216902111
 20
133.0383256638375
 30
0.0
 10
103.7839858739209
 20
133.065579513022
 30
0.0
 10
103.3282827873646
 20
133.1272074416345
 30
0.0
 10
103.1044144644232
 20
133.16158254243
 30
0.0
 10
102.6650868724154
 20
133.2369019860831
 30
0.0
 10
102.448369479749
 20
133.2781199368313
 30
0.0
 10
101.8220275010762
 20
133.4083567560121
 30
0.0
 10
101.4376348667228
 20
133.5033966679113
 30
0.0
 10
100.910093121103
 20
133.6496636298637
 30
0.0
 10
100.7424589695719
 20
133.6990322650544
 30
0.0
 10
100.4240542223313
 20
133.7974359725547
 30
0.0
 10
100.2744733477922
 20
133.8461192371872
 30
0.0
 10
99.86145327824372
 20
133.9857420403555
 30
0.0
 10
99.62990150708458
 20
134.0713287189361
 30
0.0
 10
99.34659199199491
 20
134.1802917668522
 30
0.0
 10
99.2630243102231
 20
134.2133404194266
 30
0.0
 10
99.12109947789892
 20
134.270343815667
 30
0.0
 10
99.06211136645639
 20
134.2945405212774
 30
0.0
 10
98.96739546274657
 20
134.3337428016564
 30
0.0
 10
98.93166749559981
 20
134.3487499681534
 30
0.0
 10
98.88370321788237
 20
134.3689589658804
 30
0.0
 10
98.8715769104489
 20
134.3741136256947
 30
0.0
 10
98.8715769104489
 20
134.3741136256947
 30
0.0
  0
SPLINE
  5
19A
330
1F
100
AcDbEntity
  8
0
  6
Continuous
 62
     7
370
    25
100
AcDbSpline
210
0.0
220
0.0
230
1.0
 70
     8
 71
     3
 72
    31
 73
    27
 74
     0
 42
0.000000001
 43
0.00000001
 40
0.0
 40
0.0
 40
0.0
 40
0.0
 40
0.0161756722762524
 40
0.0323169137831917
 40
0.048442561988708
 40
0.0645715089965128
 40
0.0807226353345255
 40
0.0969147439454943
 40
0.113166495525954
 40
0.1294963463054538
 40
0.1459224892616195
 40
0.1624627996348698
 40
0.1791347854483656
 40
0.1959555435640394
 40
0.294575514627795
 40
0.3932797312250814
 40
0.4928176221933281
 40
0.592428591282339
 40
0.6939020917448173
 40
0.7927115381487355
 40
0.8267756331435525
 40
0.860804332496489
 40
0.8949846314009916
 40
0.9295010594357865
 40
0.9645328322468295
 40
1.0
 40
1.0
 40
1.0
 40
1.0
 10
117.427526455824
 20
134.3741136256947
 30
0.0
 10
117.4267933553728
 20
134.3737672342668
 30
0.0
 10
117.4253287149133
 20
134.3730751887233
 30
0.0
 10
117.4122723352482
 20
134.3674928266769
 30
0.0
 10
117.3912577747254
 20
134.3586260636827
 30
0.0
 10
117.3615105693848
 20
134.3461849629678
 30
0.0
 10
117.3232382567291
 20
134.3302943044126
 30
0.0
 10
117.276385575808
 20
134.3109685605854
 30
0.0
 10
117.220967845771
 20
134.2882524710659
 30
0.0
 10
117.1569818819406
 20
134.2621834666912
 30
0.0
 10
117.08442839779
 20
134.232801019323
 30
0.0
 10
117.0033117003103
 20
134.2001467719882
 30
0.0
 10
116.9136180455603
 20
134.1642543249538
 30
0.0
 10
116.6565721989039
 20
134.062016417287
 30
0.0
 10
116.128536213311
 20
133.8554922038203
 30
0.0
 10
115.1499015660648
 20
133.5184068904704
 30
0.0
 10
113.964025263146
 20
133.1752620311426
 30
0.0
 10
112.5935589980728
 20
132.878150130482
 30
0.0
 10
111.1077017261082
 20
132.668106702749
 30
0.0
 10
109.8875490923431
 20
132.6098812998805
 30
0.0
 10
109.0211250593983
 20
132.6235736411405
 30
0.0
 10
108.4928801309215
 20
132.6489417267516
 30
0.0
 10
107.9681068997153
 20
132.6909643424691
 30
0.0
 10
107.4471176601228
 20
132.7492483056972
 30
0.0
 10
106.9298767150643
 20
132.8218718509426
 30
0.0
 10
106.5942396027305
 20
132.8807521686324
 30
0.0
 10
106.4253846146687
 20
132.9103741471778
 30
0.0
  0
LINE
  5
19B
330
1F
100
AcDbEntity
  8
0
  6
Continuous
 62
     7
370
    25
100
AcDbLine
 10
117.4275264558
 20
134.3741136257
 30
0.0
 11
122.4515770657
 21
134.3741136257
 31
0.0
  0
LINE
  5
19C
330
1F
100
AcDbEntity
  8
0
  6
Continuous
 62
     7
370
    25
100
AcDbLine
 10
114.6015770657
 20
120.7993870365
 30
0.0
 11
114.6015770657
 21
116.7366136257
 31
0.0
  0
SPLINE
  5
19D
330
1F
100
AcDbEntity
  8
0
  6
Continuous
 62
     7
370
    25
100
AcDbSpline
210
0.0
220
0.0
230
1.0
 70
     8
 71
     3
 72
    25
 73
    21
 74
     0
 42
0.000000001
 43
0.00000001
 40
0.0
 40
0.0
 40
0.0
 40
0.0
 40
0.0278144320063462
 40
0.0555680196245754
 40
0.083331625367772
 40
0.111176035216759
 40
0.1391714221532265
 40
0.1673868326284763
 40
0.1958897140434718
 40
0.2247454979318961
 40
0.254017249222145
 40
0.3796724410016501
 40
0.5056484635002454
 40
0.629752729069345
 40
0.7535891720571729
 40
0.8038564806093713
 40
0.853339684343451
 40
0.9023264398358534
 40
0.9511131859219439
 40
1.0
 40
1.0
 40
1.0
 40
1.0
 10
109.9515770657399
 20
125.2841102080597
 30
0.0
 10
110.0202324197022
 20
125.2835771229526
 30
0.0
 10
110.1573929432549
 20
125.2825121188682
 30
0.0
 10
110.3626355258407
 20
125.269417221476
 30
0.0
 10
110.5669565423377
 20
125.2478787349035
 30
0.0
 10
110.7703575944267
 20
125.2170572630549
 30
0.0
 10
110.9728332252726
 20
125.1771445105474
 30
0.0
 10
111.1743820895203
 20
125.1280443176064
 30
0.0
 10
111.374996110323
 20
125.0697310700946
 30
0.0
 10
111.5746938746553
 20
125.0021391272278
 30
0.0
 10
111.9902586953345
 20
124.8413256111121
 30
0.0
 10
112.5930351118771
 20
124.5273487117708
 30
0.0
 10
113.287091667382
 20
123.9637772362761
 30
0.0
 10
113.8538652967791
 20
123.2880330170221
 30
0.0
 10
114.1914431024504
 20
122.6706711895456
 30
0.0
 10
114.3799055117392
 20
122.1786097500355
 30
0.0
 10
114.4791667292637
 20
121.8409579674891
 30
0.0
 10
114.5495113179706
 20
121.4983268254656
 30
0.0
 10
114.5935099164892
 20
121.150962125024
 30
0.0
 10
114.5988861799695
 20
120.9166587484172
 30
0.0
 10
114.6015770657399
 20
120.7993870364944
 30
0.0
  0
LINE
  5
19E
330
1F
100
AcDbEntity
  8
0
  6
Continuous
 62
     7
370
    25
100
AcDbLine
 10
108.0367037865
 20
125.2841102081
 30
0.0
 11
109.9515770657
 21
125.2841102081
 31
0.0
  0
SPLINE
  5
19F
330
1F
100
AcDbEntity
  8
0
  6
Continuous
 62
     7
370
    25
100
AcDbSpline
210
0.0
220
0.0
230
1.0
 70
     8
 71
     3
 72
    12
 73
     8
 74
     0
 42
0.000000001
 43
0.00000001
 40
0.0
 40
0.0
 40
0.0
 40
0.0
 40
0.1992838848975294
 40
0.3984605265796777
 40
0.5979968004971673
 40
0.7983570684833388
 40
1.0
 40
1.0
 40
1.0
 40
1.0
 10
107.0356699441115
 20
125.1819158953363
 30
0.0
 10
107.1011232214119
 20
125.1949382481009
 30
0.0
 10
107.2319945527939
 20
125.2209759457431
 30
0.0
 10
107.4308440044176
 20
125.2494065047171
 30
0.0
 10
107.6312505202887
 20
125.2698376656986
 30
0.0
 10
107.8334214377059
 20
125.2822767427692
 30
0.0
 10
107.968799021357
 20
125.2834977543438
 30
0.0
 10
108.0367037864504
 20
125.2841102080597
 30
0.0
  0
LINE
  5
1A0
330
1F
100
AcDbEntity
  8
0
  6
Continuous
 62
     7
370
    25
100
AcDbLine
 10
101.6109069366
 20
125.1817519713
 30
0.0
 11
107.0348969551
 21
125.1817519713
 31
0.0
  0
SPLINE
  5
1A1
330
1F
100
AcDbEntity
  8
0
  6
Continuous
 62
     7
370
    25
100
AcDbSpline
210
0.0
220
0.0
230
1.0
 70
     8
 71
     3
 72
    24
 73
    20
 74
     0
 42
0.000000001
 43
0.00000001
 40
0.0
 40
0.0
 40
0.0
 40
0.0
 40
0.0410257106287842
 40
0.0818520099077639
 40
0.1225800578354648
 40
0.1633117464058233
 40
0.2041489402806705
 40
0.2451927184749161
 40
0.2865426449235763
 40
0.3282960933646444
 40
0.370547647549383
 40
0.4133885920102291
 40
0.4569065022351533
 40
0.5011849368587563
 40
0.6001856774947433
 40
0.6987388860447942
 40
0.7976800645453981
 40
0.8978349910029445
 40
1.0
 40
1.0
 40
1.0
 40
1.0
 10
97.83892002958977
 20
127.1193937883577
 30
0.0
 10
97.9019591175443
 20
127.1188590880425
 30
0.0
 10
98.02773088292618
 20
127.1177922863999
 30
0.0
 10
98.21566904443699
 20
127.1066487944017
 30
0.0
 10
98.4022591372616
 20
127.0884872960941
 30
0.0
 10
98.58750091979672
 20
127.0626123753726
 30
0.0
 10
98.77139010302463
 20
127.029175489561
 30
0.0
 10
98.95392376899743
 20
126.9880914680174
 30
0.0
 10
99.13509917593674
 20
126.9393287199239
 30
0.0
 10
99.31491395991287
 20
126.8828312317801
 30
0.0
 10
99.49336715899244
 20
126.8185401369779
 30
0.0
 10
99.67045519714212
 20
126.7463864570455
 30
0.0
 10
99.84618732142786
 20
126.6662992720068
 30
0.0
 10
100.0912019550242
 20
126.5424583853244
 30
0.0
 10
100.3953850342064
 20
126.3638334031312
 30
0.0
 10
100.7426925156515
 20
126.1147442190739
 30
0.0
 10
101.0618667791239
 20
125.8351746340943
 30
0.0
 10
101.3557786813886
 20
125.5263489961221
 30
0.0
 10
101.5253027680804
 20
125.2982569528204
 30
0.0
 10
101.6109069365632
 20
125.1830778647897
 30
0.0
  0
LINE
  5
1A2
330
1F
100
AcDbEntity
  8
0
  6
Continuous
 62
     7
370
    25
100
AcDbLine
 10
95.0473783127
 20
127.1193937884
 30
0.0
 11
97.8389200296
 21
127.1193937884
 31
0.0
  0
SPLINE
  5
1A3
330
1F
100
AcDbEntity
  8
0
  6
Continuous
 62
     7
370
    25
100
AcDbSpline
210
0.0
220
0.0
230
1.0
 70
     8
 71
     3
 72
     8
 73
     4
 74
     0
 42
0.000000001
 43
0.00000001
 40
0.0
 40
0.0
 40
0.0
 40
0.0
 40
1.0
 40
1.0
 40
1.0
 40
1.0
 10
95.00157424098116
 20
127.1828467793673
 30
0.0
 10
95.01684226487883
 20
127.1617303089692
 30
0.0
 10
95.03211028877654
 20
127.1405792419165
 30
0.0
 10
95.04737831267421
 20
127.1193937883577
 30
0.0
  0
LINE
  5
1A4
330
1F
100
AcDbEntity
  8
0
  6
Continuous
 62
     7
370
    25
100
AcDbLine
 10
95.0015770657
 20
134.3741136257
 30
0.0
 11
95.0015770657
 21
127.1828467794
 31
0.0
  0
LINE
  5
1A5
330
1F
100
AcDbEntity
  8
0
  6
Continuous
 62
     7
370
    25
100
AcDbLine
 10
95.0015770657
 20
134.3741136257
 30
0.0
 11
98.8715769104
 21
134.3741136257
 31
0.0
  0
LINE
  5
1A6
330
1F
100
AcDbEntity
  8
0
  6
Continuous
 62
     7
370
    25
100
AcDbLine
 10
161.126758121
 20
100.7366136257
 30
0.0
 11
161.126758121
 21
116.7366136257
 31
0.0
  0
LINE
  5
1A7
330
1F
100
AcDbEntity
  8
0
  6
Continuous
 62
     7
370
    25
100
AcDbLine
 10
161.126758121
 20
132.7366136257
 30
0.0
 11
152.9515770657
 21
132.7366136257
 31
0.0
  0
LINE
  5
1A8
330
1F
100
AcDbEntity
  8
0
  6
Continuous
 62
     7
370
    25
100
AcDbLine
 10
210.1084952572
 20
128.8816673098
 30
0.0
 11
161.126758121
 21
132.7366136257
 31
0.0
  0
LINE
  5
1A9
330
1F
100
AcDbEntity
  8
0
  6
Continuous
 62
     7
370
    25
100
AcDbLine
 10
125.9515770657
 20
132.2866136257
 30
0.0
 11
129.6515770657
 21
132.2866136257
 31
0.0
  0
LINE
  5
1AA
330
1F
100
AcDbEntity
  8
0
  6
Continuous
 62
     7
370
    25
100
AcDbLine
 10
125.9515770657
 20
132.2866136257
 30
0.0
 11
125.9515770657
 21
116.7366136257
 31
0.0
  0
ARC
  5
1AB
330
1F
100
AcDbEntity
  8
0
  6
Continuous
 62
     7
370
    25
100
AcDbCircle
 10
129.6515770657
 20
131.0866136257
 30
0.0
 40
1.200000000000017
100
AcDbArc
 50
0.0
 51
90.0
  0
LINE
  5
1AC
330
1F
100
AcDbEntity
  8
0
  6
Continuous
 62
     7
370
    25
100
AcDbLine
 10
211.9515770657
 20
106.5853946263
 30
0.0
 11
211.9515770657
 21
116.7366136257
 31
0.0
  0
ARC
  5
1AD
330
1F
100
AcDbEntity
  8
0
  6
Continuous
 62
     7
370
    25
100
AcDbCircle
 10
209.9515770657
 20
126.8878326424
 30
0.0
 40
2.0
100
AcDbArc
 50
0.0
 51
85.5
  0
ARC
  5
1AE
330
1F
100
AcDbEntity
  8
0
  6
Continuous
 62
     7
370
    25
100
AcDbCircle
 10
211.4515770657
 20
123.7733078738
 30
0.0
 40
0.5
100
AcDbArc
 50
280.0
 51
0.0
  0
LINE
  5
1AF
330
1F
100
AcDbEntity
  8
0
  6
Continuous
 62
     7
370
    25
100
AcDbLine
 10
211.9515770657
 20
123.7733078738
 30
0.0
 11
211.9515770657
 21
116.7366136257
 31
0.0
  0
LINE
  5
1B0
330
1F
100
AcDbEntity
  8
0
  6
Continuous
 62
     7
370
    25
100
AcDbLine
 10
208.4515770657
 20
122.7366136257
 30
0.0
 11
208.4515770657
 21
116.7366136257
 31
0.0
  0
LINE
  5
1B1
330
1F
100
AcDbEntity
  8
0
  6
Continuous
 62
     7
370
    25
100
AcDbLine
 10
208.4515770657
 20
122.7366136257
 30
0.0
 11
211.5384011546
 21
123.2809039973
 31
0.0
  0
LINE
  5
1B2
330
1F
100
AcDbEntity
  8
0
  6
Continuous
 62
     7
370
    25
100
AcDbLine
 10
165.8515770657
 20
123.0366136257
 30
0.0
 11
175.0568030476
 21
123.0366136257
 31
0.0
  0
ARC
  5
1B3
330
1F
100
AcDbEntity
  8
0
  6
Continuous
 62
     7
370
    25
100
AcDbCircle
 10
175.0568030476
 20
122.6366136257
 30
0.0
 40
0.4000000000000074
100
AcDbArc
 50
70.0
 51
90.0
  0
ARC
  5
1B4
330
1F
100
AcDbEntity
  8
0
  6
Continuous
 62
     7
370
    25
100
AcDbCircle
 10
165.8515770657
 20
122.6366136257
 30
0.0
 40
0.4000000000000057
100
AcDbArc
 50
90.0
 51
180.0
  0
LINE
  5
1B5
330
1F
100
AcDbEntity
  8
0
  6
Continuous
 62
     7
370
    25
100
AcDbLine
 10
175.9515770657
 20
122.7366136257
 30
0.0
 11
175.9515770657
 21
116.7366136257
 31
0.0
  0
LINE
  5
1B6
330
1F
100
AcDbEntity
  8
0
  6
Continuous
 62
     7
370
    25
100
AcDbLine
 10
175.193611105
 20
123.012490674
 30
0.0
 11
175.9515770657
 21
122.7366136257
 31
0.0
  0
LINE
  5
1B7
330
1F
100
AcDbEntity
  8
0
  6
Continuous
 62
     7
370
    25
100
AcDbLine
 10
175.9515770657
 20
122.7366136257
 30
0.0
 11
208.4515770657
 21
122.7366136257
 31
0.0
  0
LINE
  5
1B8
330
1F
100
AcDbEntity
  8
0
  6
Continuous
 62
     7
370
    25
100
AcDbLine
 10
134.6765770657
 20
122.4866136257
 30
0.0
 11
135.5015770657
 21
122.4866136257
 31
0.0
  0
LINE
  5
1B9
330
1F
100
AcDbEntity
  8
0
  6
Continuous
 62
     7
370
    25
100
AcDbLine
 10
131.2515770657
 20
121.7366136257
 30
0.0
 11
131.2515770657
 21
116.7366136257
 31
0.0
  0
LINE
  5
1BA
330
1F
100
AcDbEntity
  8
0
  6
Continuous
 62
     7
370
    25
100
AcDbLine
 10
130.8515770657
 20
121.9675537334
 30
0.0
 11
131.2515770657
 21
121.7366136257
 31
0.0
  0
LINE
  5
1BB
330
1F
100
AcDbEntity
  8
0
  6
Continuous
 62
     7
370
    25
100
AcDbLine
 10
130.8515770657
 20
121.9675537334
 30
0.0
 11
130.8515770657
 21
116.7366136257
 31
0.0
  0
LINE
  5
1BC
330
1F
100
AcDbEntity
  8
0
  6
Continuous
 62
     7
370
    25
100
AcDbLine
 10
164.9515770657
 20
121.2366136257
 30
0.0
 11
165.4515770657
 21
121.7366136257
 31
0.0
  0
LINE
  5
1BD
330
1F
100
AcDbEntity
  8
0
  6
Continuous
 62
     7
370
    25
100
AcDbLine
 10
131.2515770657
 20
121.7366136257
 30
0.0
 11
134.6765770657
 21
121.7366136257
 31
0.0
  0
LINE
  5
1BE
330
1F
100
AcDbEntity
  8
0
  6
Continuous
 62
     7
370
    25
100
AcDbLine
 10
134.6765770657
 20
121.7366136257
 30
0.0
 11
134.6765770657
 21
116.7366136257
 31
0.0
  0
LINE
  5
1BF
330
1F
100
AcDbEntity
  8
0
  6
Continuous
 62
     7
370
    25
100
AcDbLine
 10
141.9515770657
 20
121.2366136257
 30
0.0
 11
141.9515770657
 21
116.7366136257
 31
0.0
  0
LINE
  5
1C0
330
1F
100
AcDbEntity
  8
0
  6
Continuous
 62
     7
370
    25
100
AcDbLine
 10
141.6511467562
 20
120.7366136257
 30
0.0
 11
141.6511467562
 21
116.7366136257
 31
0.0
  0
LINE
  5
1C1
330
1F
100
AcDbEntity
  8
0
  6
Continuous
 62
     7
370
    25
100
AcDbLine
 10
141.6511467562
 20
120.7366136257
 30
0.0
 11
141.9515770657
 21
121.2366136257
 31
0.0
  0
LINE
  5
1C2
330
1F
100
AcDbEntity
  8
0
  6
Continuous
 62
     7
370
    25
100
AcDbLine
 10
141.9515770657
 20
121.2366136257
 30
0.0
 11
164.9515770657
 21
121.2366136257
 31
0.0
  0
LINE
  5
1C3
330
1F
100
AcDbEntity
  8
0
  6
Continuous
 62
     7
370
    25
100
AcDbLine
 10
135.5015770657
 20
120.7366136257
 30
0.0
 11
141.6511467562
 21
120.7366136257
 31
0.0
  0
LINE
  5
1C4
330
1F
100
AcDbEntity
  8
0
  6
Continuous
 62
     7
370
    25
100
AcDbLine
 10
135.5015770657
 20
120.7366136257
 30
0.0
 11
135.5015770657
 21
116.7366136257
 31
0.0
  0
SPLINE
  5
1C5
330
1F
100
AcDbEntity
  8
0
  6
Continuous
 62
     7
370
    25
100
AcDbSpline
210
0.0
220
0.0
230
1.0
 70
     8
 71
     3
 72
    37
 73
    33
 74
     0
 42
0.000000001
 43
0.00000001
 40
0.0
 40
0.0
 40
0.0
 40
0.0
 40
0.0114878548102806
 40
0.0231559765621659
 40
0.035007648435437
 40
0.0470460033795327
 40
0.0592740307999939
 40
0.0716945830965817
 40
0.0843103820274691
 40
0.0971240248798044
 40
0.1101379904320565
 40
0.1233546446979449
 40
0.1811510010973282
 40
0.2483631736114464
 40
0.2888373415819289
 40
0.3232297457604655
 40
0.3515392131491969
 40
0.373766426625621
 40
0.4399300285953861
 40
0.4987424063270025
 40
0.5023253005651624
 40
0.5613100074513704
 40
0.6252595444338113
 40
0.6818650083849757
 40
0.7483890016987852
 40
0.7860781471964627
 40
0.819485659979972
 40
0.8486127715281655
 40
0.873462272774735
 40
0.9389926156604063
 40
0.9981523731393459
 40
1.0
 40
1.0
 40
1.0
 40
1.0
 10
116.8015770657399
 20
140.200265929048
 30
0.0
 10
116.8006506144614
 20
140.1998224120395
 30
0.0
 10
116.7987831740693
 20
140.198928418372
 30
0.0
 10
116.7835101137295
 20
140.1917364409138
 30
0.0
 10
116.7586084112657
 20
140.1802851973213
 30
0.0
 10
116.7227541393298
 20
140.1641354385468
 30
0.0
 10
116.6757866284922
 20
140.1434077589931
 30
0.0
 10
116.6172437180713
 20
140.1180692399914
 30
0.0
 10
116.5467655784937
 20
140.0881288194369
 30
0.0
 10
116.4639910142162
 20
140.0535848453949
 30
0.0
 10
116.368574469098
 20
140.0144351037803
 30
0.0
 10
116.1390056357095
 20
139.9217364326191
 30
0.0
 10
115.6545874217369
 20
139.7330135421045
 30
0.0
 10
114.8755874501915
 20
139.4549237421334
 30
0.0
 10
114.0843689987713
 20
139.204336874804
 30
0.0
 10
113.4533185055285
 20
139.0293201134742
 30
0.0
 10
112.9002805491922
 20
138.8894854728752
 30
0.0
 10
112.1073226202957
 20
138.7090746275291
 30
0.0
 10
111.0369882799626
 20
138.5200083058869
 30
0.0
 10
110.0559980005273
 20
138.4147214981773
 30
0.0
 10
109.1280307714078
 20
138.3576887262243
 30
0.0
 10
108.1555752776473
 20
138.3430941278546
 30
0.0
 10
106.829445072214
 20
138.4212873443457
 30
0.0
 10
105.5594095877202
 20
138.5817670659399
 30
0.0
 10
104.5996335870506
 20
138.7668786041535
 30
0.0
 10
103.9009819397058
 20
138.9343682078836
 30
0.0
 10
103.4571738015506
 20
139.0479914140919
 30
0.0
 10
103.1246367396207
 20
139.1411752490005
 30
0.0
 10
102.7374783293774
 20
139.2558401132591
 30
0.0
 10
102.4002303672657
 20
139.3631859223191
 30
0.0
 10
102.3025063009367
 20
139.4007514956058
 30
0.0
 10
102.3016043806648
 20
139.4008829044222
 30
0.0
 10
102.3015770657399
 20
139.4008868841775
 30
0.0
  0
LINE
  5
1C6
330
1F
100
AcDbEntity
  8
0
  6
Continuous
 62
     7
370
    25
100
AcDbLine
 10
116.8015770657
 20
140.2002659291
 30
0.0
 11
116.8015770657
 21
134.8428396464
 31
0.0
  0
SPLINE
  5
1C7
330
1F
100
AcDbEntity
  8
0
  6
Continuous
 62
     7
370
    25
100
AcDbSpline
210
0.0
220
0.0
230
1.0
 70
     8
 71
     3
 72
    30
 73
    26
 74
     0
 42
0.000000001
 43
0.00000001
 40
0.0
 40
0.0
 40
0.0
 40
0.0
 40
0.0192411700742053
 40
0.0381353539376959
 40
0.056686888486128
 40
0.0749003554931359
 40
0.0927805967284112
 40
0.1103327298326389
 40
0.12756216492899
 40
0.1444746219341826
 40
0.2455865830531984
 40
0.3577720192516808
 40
0.4505017408956449
 40
0.5720127868619855
 40
0.6168069840199937
 40
0.6590088499432755
 40
0.6986242498774685
 40
0.7356603299341555
 40
0.7701258931915081
 40
0.8073679165907856
 40
0.8483950324891417
 40
0.8881367798820065
 40
0.9266264622110466
 40
0.9639007443615105
 40
0.9999999999999999
 40
0.9999999999999999
 40
0.9999999999999999
 40
0.9999999999999999
 10
107.6307584751278
 20
133.1787483361027
 30
0.0
 10
107.7137909550074
 20
133.1676212307779
 30
0.0
 10
107.8783585460803
 20
133.1455676811117
 30
0.0
 10
108.1262400617608
 20
133.1175157918491
 30
0.0
 10
108.3715167372032
 20
133.0935642613231
 30
0.0
 10
108.6140745708145
 20
133.0740343091298
 30
0.0
 10
108.8535092479234
 20
133.0588420169531
 30
0.0
 10
109.0895224433305
 20
133.0480104557222
 30
0.0
 10
109.3218404886412
 20
133.0415298904691
 30
0.0
 10
109.9303912582652
 20
133.035898398883
 30
0.0
 10
110.9687037554853
 20
133.0958717983677
 30
0.0
 10
112.2840552835866
 20
133.2952942715425
 30
0.0
 10
113.5636004964781
 20
133.6007756322263
 30
0.0
 10
114.4550410405683
 20
133.8807184351453
 30
0.0
 10
115.0727059094293
 20
134.1081675316606
 30
0.0
 10
115.4160289947126
 20
134.2384461921607
 30
0.0
 10
115.7077200796081
 20
134.3545371301186
 30
0.0
 10
115.952265435434
 20
134.4559053595219
 30
0.0
 10
116.1646201158734
 20
134.5472434120395
 30
0.0
 10
116.355683090498
 20
134.6313184959867
 30
0.0
 10
116.5209304946705
 20
134.706311449952
 30
0.0
 10
116.6504710449146
 20
134.7672999494977
 30
0.0
 10
116.7388374141371
 20
134.8105376112631
 30
0.0
 10
116.7919832594007
 20
134.8377676971419
 30
0.0
 10
116.7984134553419
 20
134.8411671432719
 30
0.0
 10
116.8015770657399
 20
134.8428396464463
 30
0.0
  0
SPLINE
  5
1C8
330
1F
100
AcDbEntity
  8
0
  6
Continuous
 62
     7
370
    25
100
AcDbSpline
210
0.0
220
0.0
230
1.0
 70
     8
 71
     3
 72
    38
 73
    34
 74
     0
 42
0.000000001
 43
0.00000001
 40
0.0
 40
0.0
 40
0.0
 40
0.0
 40
0.125
 40
0.125
 40
0.2499999999999999
 40
0.2499999999999999
 40
0.3124999999999999
 40
0.3124999999999999
 40
0.3749999999999998
 40
0.3749999999999998
 40
0.4374999999999997
 40
0.4374999999999997
 40
0.4999999999999997
 40
0.4999999999999997
 40
0.5624999999999997
 40
0.5624999999999997
 40
0.6249999999999997
 40
0.6249999999999997
 40
0.6874999999999997
 40
0.6874999999999997
 40
0.7187499999999994
 40
0.7187499999999994
 40
0.7499999999999992
 40
0.7499999999999992
 40
0.7812499999999989
 40
0.7812499999999989
 40
0.8124999999999987
 40
0.8124999999999987
 40
0.8749999999999991
 40
0.8749999999999991
 40
0.9374999999999996
 40
0.9374999999999996
 40
1.0
 40
1.0
 40
1.0
 40
1.0
 10
102.3015770657399
 20
139.2726615105987
 30
0.0
 10
102.30157706574
 20
139.2726615105986
 30
0.0
 10
102.3633828233035
 20
139.2500174279366
 30
0.0
 10
102.6130053687391
 20
139.1574330388806
 30
0.0
 10
102.7967329996772
 20
139.0890454589278
 30
0.0
 10
103.1531218362623
 20
138.953203359726
 30
0.0
 10
103.2862822977678
 20
138.9020103746695
 30
0.0
 10
103.5773613084642
 20
138.7883217695571
 30
0.0
 10
103.7338512599735
 20
138.7263951620507
 30
0.0
 10
104.0672327012615
 20
138.5915100533602
 30
0.0
 10
104.2441364596246
 20
138.5185717990735
 30
0.0
 10
104.6173781070979
 20
138.3595958642777
 30
0.0
 10
104.815122097979
 20
138.2729560944011
 30
0.0
 10
105.2211455312322
 20
138.0860384218487
 30
0.0
 10
105.4291989246191
 20
137.9860035080396
 30
0.0
 10
105.8514931973533
 20
137.7667399578606
 30
0.0
 10
106.0658585004284
 20
137.647736766196
 30
0.0
 10
106.4937008120078
 20
137.3774629158721
 30
0.0
 10
106.7101024631144
 20
137.2242140903604
 30
0.0
 10
107.0087349059945
 20
136.9581455667772
 30
0.0
 10
107.1039274954642
 20
136.8633733205045
 30
0.0
 10
107.281552747321
 20
136.6576164633145
 30
0.0
 10
107.3641670579493
 20
136.545757921544
 30
0.0
 10
107.5062473329709
 20
136.3122424173216
 30
0.0
 10
107.5666328822159
 20
136.1896813513658
 30
0.0
 10
107.6660833743707
 20
135.9332105881406
 30
0.0
 10
107.7053748133955
 20
135.7979705745909
 30
0.0
 10
107.7920713995485
 20
135.3896885716264
 30
0.0
 10
107.8107797265432
 20
135.1134283938415
 30
0.0
 10
107.8072837059115
 20
134.5566806152058
 30
0.0
 10
107.7848040857029
 20
134.2784503712151
 30
0.0
 10
107.7191764379208
 20
133.7270645510303
 30
0.0
 10
107.6756788942313
 20
133.4528108819279
 30
0.0
 10
107.6261993471213
 20
133.1793814099663
 30
0.0
  0
LINE
  5
1C9
330
1F
100
AcDbEntity
  8
0
  6
Continuous
 62
     7
370
    25
100
AcDbLine
 10
102.3015770657
 20
139.2726615106
 30
0.0
 11
102.3015770657
 21
139.4008868841
 31
0.0
  0
SPLINE
  5
1CA
330
1F
100
AcDbEntity
  8
0
  6
Continuous
 62
     7
370
    25
100
AcDbSpline
210
0.0
220
0.0
230
1.0
 70
     8
 71
     3
 72
    14
 73
    10
 74
     0
 42
0.000000001
 43
0.00000001
 40
0.0
 40
0.0
 40
0.0
 40
0.0
 40
0.0003951392850831
 40
0.0003951392850831
 40
0.0003951392850831
 40
0.0008159035679249
 40
0.0008159035679249
 40
0.0008159035679249
 40
0.0012369936130997
 40
0.0012369936130997
 40
0.0012369936130997
 40
0.0012369936130997
 10
106.4294610154714
 20
132.911586622695
 30
0.0
 10
106.5579702535781
 20
132.9404605904084
 30
0.0
 10
106.6865337613071
 20
132.9691488038847
 30
0.0
 10
106.8150841395905
 20
132.9976516479222
 30
0.0
 10
106.9519693872541
 20
133.0280025416129
 30
0.0
 10
107.088865033154
 20
133.0581485066419
 30
0.0
 10
107.225685294503
 20
133.0881003262104
 30
0.0
 10
107.3626112834479
 20
133.1180752909903
 30
0.0
 10
107.4994883554121
 20
133.1478613404356
 30
0.0
 10
107.6362252045992
 20
133.1774838136043
 30
0.0
  0
LINE
  5
1CB
330
1F
100
AcDbEntity
  8
0
  6
Continuous
 62
     7
370
    25
100
AcDbLine
 10
98.8715769104
 20
134.3741136257
 30
0.0
 11
102.3015770657
 21
139.2726615106
 31
0.0
  0
LINE
  5
1CC
330
1F
100
AcDbEntity
  8
0
  6
Continuous
 62
     7
370
    25
100
AcDbLine
 10
101.5520152174
 20
140.2099993353
 30
0.0
 11
102.3016051963
 21
139.4008879976
 31
0.0
  0
LINE
  5
1CD
330
1F
100
AcDbEntity
  8
0
  6
Continuous
 62
     7
370
    25
100
AcDbLine
 10
116.8015900139
 20
140.2002661849
 30
0.0
 11
117.4699201598
 21
141.0093780073
 31
0.0
  0
LINE
  5
1CE
330
1F
100
AcDbEntity
  8
0
  6
Continuous
 62
     7
370
    25
100
AcDbLine
 10
92.7532431156
 20
135.672189837
 30
0.0
 11
95.0015770657
 21
134.3741136257
 31
0.0
  0
LINE
  5
1CF
330
1F
100
AcDbEntity
  8
0
  6
Continuous
 62
     7
370
    25
100
AcDbLine
 10
92.0015770657
 20
136.9741136257
 30
0.0
 11
92.7532431156
 21
135.672189837
 31
0.0
  0
LINE
  5
1D0
330
1F
100
AcDbEntity
  8
0
  6
Continuous
 62
     7
370
    25
100
AcDbLine
 10
92.0015770657
 20
138.9397083495
 30
0.0
 11
92.0015770657
 21
136.9741136257
 31
0.0
  0
LINE
  5
1D1
330
1F
100
AcDbEntity
  8
0
  6
Continuous
 62
     7
370
    25
100
AcDbLine
 10
93.5015770657
 20
139.8057337533
 30
0.0
 11
92.0015770657
 21
138.9397083495
 31
0.0
  0
LINE
  5
1D2
330
1F
100
AcDbEntity
  8
0
  6
Continuous
 62
     7
370
    25
100
AcDbLine
 10
142.7265770657
 20
144.5866136257
 30
0.0
 11
140.9765770657
 21
144.5866136257
 31
0.0
  0
ARC
  5
1D3
330
1F
100
AcDbEntity
  8
0
  6
Continuous
 62
     7
370
    25
100
AcDbCircle
 10
142.7265770657
 20
145.5866136257
 30
0.0
 40
1.0
100
AcDbArc
 50
270.0
 51
0.0
  0
LINE
  5
1D4
330
1F
100
AcDbEntity
  8
0
  6
Continuous
 62
     7
370
    25
100
AcDbLine
 10
143.7265770657
 20
145.6842088899
 30
0.0
 11
143.7265770657
 21
145.5866136257
 31
0.0
  0
LINE
  5
1D5
330
1F
100
AcDbEntity
  8
0
  6
Continuous
 62
     7
370
    25
100
AcDbLine
 10
145.1857748703
 20
148.2116136257
 30
0.0
 11
143.7265770657
 21
145.6842088899
 31
0.0
  0
LINE
  5
1D6
330
1F
100
AcDbEntity
  8
0
  6
Continuous
 62
     7
370
    25
100
AcDbLine
 10
117.4275262075
 20
134.374114916
 30
0.0
 11
116.801580194
 21
134.8428397713
 31
0.0
  0
LINE
  5
1D7
330
1F
100
AcDbEntity
  8
0
  6
Continuous
 62
     7
370
    25
100
AcDbLine
 10
139.9765770657
 20
145.6842088899
 30
0.0
 11
138.5173792612
 21
148.2116136257
 31
0.0
  0
LINE
  5
1D8
330
1F
100
AcDbEntity
  8
0
  6
Continuous
 62
     7
370
    25
100
AcDbLine
 10
139.9765770657
 20
145.5866136257
 30
0.0
 11
139.9765770657
 21
145.6842088899
 31
0.0
  0
ARC
  5
1D9
330
1F
100
AcDbEntity
  8
0
  6
Continuous
 62
     7
370
    25
100
AcDbCircle
 10
140.9765770657
 20
145.5866136257
 30
0.0
 40
1.0
100
AcDbArc
 50
180.0
 51
270.0
  0
LINE
  5
1DA
330
1F
100
AcDbEntity
  8
0
  6
Continuous
 62
     7
370
    25
100
AcDbLine
 10
135.5015770657
 20
122.4866136257
 30
0.0
 11
135.5015770657
 21
120.7366136257
 31
0.0
  0
LINE
  5
1DB
330
1F
100
AcDbEntity
  8
0
  6
Continuous
 62
     7
370
    25
100
AcDbLine
 10
134.6765770657
 20
121.7366136257
 30
0.0
 11
134.6765770657
 21
122.4866136257
 31
0.0
  0
LINE
  5
1DC
330
1F
100
AcDbEntity
  8
0
  6
Continuous
 62
     7
370
    25
100
AcDbLine
 10
165.4515770657
 20
121.7366136257
 30
0.0
 11
165.4515770657
 21
122.6366136257
 31
0.0
  0
LINE
  5
1DD
330
1F
100
AcDbEntity
  8
0
  6
Continuous
 62
     7
370
    25
100
AcDbLine
 10
211.9515770657
 20
123.7733078738
 30
0.0
 11
211.9515770657
 21
126.8878326424
 31
0.0
  0
LINE
  5
1DE
330
1F
100
AcDbEntity
  8
0
  6
Continuous
 62
     7
370
    25
100
AcDbLine
 10
130.8515770657
 20
131.0866136257
 30
0.0
 11
130.8515770657
 21
121.9675537334
 31
0.0
  0
LINE
  5
1DF
330
1F
100
AcDbEntity
  8
0
  6
Continuous
 62
     7
370
    25
100
AcDbLine
 10
125.9515770657
 20
134.1866136257
 30
0.0
 11
125.9515770657
 21
132.2866136257
 31
0.0
  0
LINE
  5
1E0
330
1F
100
AcDbEntity
  8
0
  6
Continuous
 62
     7
370
    25
100
AcDbLine
 10
131.9515770657
 20
148.0116136257
 30
0.0
 11
131.9515770657
 21
143.5866136257
 31
0.0
  0
LINE
  5
1E1
330
1F
100
AcDbEntity
  8
0
  6
Continuous
 62
     7
370
    25
100
AcDbLine
 10
149.9515770657
 20
135.7366136257
 30
0.0
 11
149.9515770657
 21
148.2116136257
 31
0.0
  0
SPLINE
  5
1E2
330
1F
100
AcDbEntity
  8
0
  6
Continuous
 62
     7
370
    25
100
AcDbSpline
210
0.0
220
0.0
230
1.0
 70
     8
 71
     3
 72
     9
 73
     5
 74
     0
 42
0.000000001
 43
0.00000001
 40
0.0
 40
0.0
 40
0.0
 40
0.0
 40
0.5102121239851395
 40
0.9999999999999999
 40
0.9999999999999999
 40
0.9999999999999999
 40
0.9999999999999999
 10
92.805940462411
 20
127.1982401423465
 30
0.0
 10
93.18080251938979
 20
127.1957502249648
 30
0.0
 10
93.91552056969958
 20
127.1908700638228
 30
0.0
 10
94.64452116015632
 20
127.1854851724364
 30
0.0
 10
95.00157681096971
 20
127.1828477179217
 30
0.0
  0
LINE
  5
1E3
330
1F
100
AcDbEntity
  8
0
  6
Continuous
 62
     7
370
    25
100
AcDbLine
 10
92.7532431156
 20
127.2286644333
 30
0.0
 11
92.8059404642
 21
127.1982396048
 31
0.0
  0
LINE
  5
1E4
330
1F
100
AcDbEntity
  8
0
  6
Continuous
 62
     7
370
    25
100
AcDbLine
 10
92.7532431156
 20
135.672189837
 30
0.0
 11
92.7532431156
 21
127.2286644333
 31
0.0
  0
SPLINE
  5
1E5
330
1F
100
AcDbEntity
  8
0
  6
Continuous
 62
     7
370
    25
100
AcDbSpline
210
0.0
220
0.0
230
1.0
 70
    24
 71
     3
 72
     8
 73
     4
 74
     0
 42
0.000000001
 43
0.00000001
 40
0.0000004089325119
 40
0.0000004089325119
 40
0.0000004089325119
 40
0.0000004089325119
 40
0.0015399868451459
 40
0.0015399868451459
 40
0.0015399868451459
 40
0.0015399868451459
 10
92.0015770657399
 20
127.6626390294791
 30
0.0
 10
92.25256814176436
 20
127.5177292641722
 30
0.0
 10
92.5031573382673
 20
127.3730515241152
 30
0.0
 10
92.75324311557945
 20
127.2286644332636
 30
0.0
  0
LINE
  5
1E6
330
1F
100
AcDbEntity
  8
0
  6
Continuous
 62
     7
370
    25
100
AcDbLine
 10
92.0015770657
 20
136.9741136257
 30
0.0
 11
92.0015770657
 21
127.6626390295
 31
0.0
  0
SPLINE
  5
1E7
330
1F
100
AcDbEntity
  8
0
  6
Continuous
 62
     7
370
    25
100
AcDbSpline
210
0.0
220
0.0
230
1.0
 70
     8
 71
     3
 72
     8
 73
     4
 74
     0
 42
0.000000001
 43
0.00000001
 40
0.0
 40
0.0
 40
0.0
 40
0.0
 40
1.0
 40
1.0
 40
1.0
 40
1.0
 10
95.13125880849667
 20
126.7966143034312
 30
0.0
 10
95.10331058837714
 20
126.9044306574067
 30
0.0
 10
95.07535050020843
 20
127.012024507573
 30
0.0
 10
95.04737831267421
 20
127.1193937883577
 30
0.0
  0
LINE
  5
1E8
330
1F
100
AcDbEntity
  8
0
  6
Continuous
 62
     7
370
    25
100
AcDbLine
 10
95.131261947
 20
126.7966136257
 30
0.0
 11
93.501576279
 21
126.7966136257
 31
0.0
  0
LINE
  5
1E9
330
1F
100
AcDbEntity
  8
0
  6
Continuous
 62
     7
370
    25
100
AcDbLine
 10
93.5015764789
 20
126.7966139645
 30
0.0
 11
92.8059400009
 21
127.1982398723
 31
0.0
  0
LINE
  5
1EA
330
1F
100
AcDbEntity
  8
0
  6
Continuous
 62
     7
370
    25
100
AcDbLine
 10
101.555537963
 20
124.7991136257
 30
0.0
 11
101.303366335
 21
124.7991136257
 31
0.0
  0
SPLINE
  5
1EB
330
1F
100
AcDbEntity
  8
0
  6
Continuous
 62
     7
370
    25
100
AcDbSpline
210
0.0
220
0.0
230
1.0
 70
     8
 71
     3
 72
    26
 73
    22
 74
     0
 42
0.000000001
 43
0.00000001
 40
0.0
 40
0.0
 40
0.0
 40
0.0
 40
0.0524616379932503
 40
0.1026498591890872
 40
0.150565513457809
 40
0.1962095861957063
 40
0.2395832262568645
 40
0.2806877815599511
 40
0.3195248450380211
 40
0.3560963147430692
 40
0.3904044736547445
 40
0.4224520974433627
 40
0.4522426027417772
 40
0.4797802555366611
 40
0.5050704712281336
 40
0.5966394156799991
 40
0.6841917884819224
 40
0.7679874773571101
 40
0.8483228539139507
 40
0.925534163520116
 40
1.0
 40
1.0
 40
1.0
 40
1.0
 10
101.3015598410705
 20
124.79914340973
 30
0.0
 10
101.2659234420392
 20
124.8586903298123
 30
0.0
 10
101.1961949417008
 20
124.9752037135989
 30
0.0
 10
101.0827167809409
 20
125.1396016743282
 30
0.0
 10
100.9671912312159
 20
125.2917634121297
 30
0.0
 10
100.8500695352058
 20
125.4316661090623
 30
0.0
 10
100.7326978347264
 20
125.5598804329663
 30
0.0
 10
100.6160768686928
 20
125.6768961119066
 30
0.0
 10
100.5011739482477
 20
125.7832732671507
 30
0.0
 10
100.3888497225584
 20
125.879589347625
 30
0.0
 10
100.2798807485235
 20
125.9664386941775
 30
0.0
 10
100.1749617076869
 20
126.0444188763713
 30
0.0
 10
100.0747043817381
 20
126.1141270734243
 30
0.0
 10
99.97966703915499
 20
126.1761370623254
 30
0.0
 10
99.80956013472422
 20
126.2806234995912
 30
0.0
 10
99.55664110331914
 20
126.4156821661057
 30
0.0
 10
99.210659946258
 20
126.5600690585227
 30
0.0
 10
98.86270139693366
 20
126.6690369707677
 30
0.0
 10
98.51656163655761
 20
126.7435665531045
 30
0.0
 10
98.17549685312349
 20
126.7884952576538
 30
0.0
 10
97.94975024160784
 20
126.7939403565083
 30
0.0
 10
97.83892002958977
 20
126.7966136256947
 30
0.0
  0
SPLINE
  5
1EC
330
1F
100
AcDbEntity
  8
0
  6
Continuous
 62
     7
370
    25
100
AcDbSpline
210
0.0
220
0.0
230
1.0
 70
     8
 71
     3
 72
     8
 73
     4
 74
     0
 42
0.000000001
 43
0.00000001
 40
0.0
 40
0.0
 40
0.0
 40
0.0
 40
1.0
 40
1.0
 40
1.0
 40
1.0
 10
101.5555379629724
 20
124.7991136256945
 30
0.0
 10
101.5845426694
 20
124.9230513525569
 30
0.0
 10
101.6035751890814
 20
125.0510034827902
 30
0.0
 10
101.6118267812731
 20
125.1820727954816
 30
0.0
  0
LINE
  5
1ED
330
1F
100
AcDbEntity
  8
0
  6
Continuous
 62
     7
370
    25
100
AcDbLine
 10
97.8389200296
 20
126.7966136257
 30
0.0
 11
95.131261947
 21
126.7966136257
 31
0.0
  0
LINE
  5
1EE
330
1F
100
AcDbEntity
  8
0
  6
Continuous
 62
     7
370
    25
100
AcDbLine
 10
114.6015770657
 20
120.7993870365
 30
0.0
 11
113.9515770657
 21
120.9491136257
 31
0.0
  0
SPLINE
  5
1EF
330
1F
100
AcDbEntity
  8
0
  6
Continuous
 62
     7
370
    25
100
AcDbSpline
210
0.0
220
0.0
230
1.0
 70
     8
 71
     3
 72
    26
 73
    22
 74
     0
 42
0.000000001
 43
0.00000001
 40
0.0
 40
0.0
 40
0.0
 40
0.0
 40
0.0305951740572542
 40
0.0629166281868252
 40
0.0969720532897518
 40
0.1327680143285475
 40
0.1703101548822826
 40
0.2096033578521445
 40
0.2506518729756858
 40
0.3342141733898277
 40
0.4179517165474626
 40
0.5018670561020881
 40
0.5659795686746639
 40
0.6277136397870199
 40
0.687135819210908
 40
0.7443207393864881
 40
0.7993521466017559
 40
0.8523240127975756
 40
0.903341702807647
 40
0.9525231537633125
 40
1.0
 40
1.0
 40
1.0
 40
1.0
 10
113.9515770657399
 20
120.9491136256947
 30
0.0
 10
113.9506688538953
 20
121.0136487930819
 30
0.0
 10
113.9488011859148
 20
121.1463604136753
 30
0.0
 10
113.9332085968532
 20
121.3491745051989
 30
0.0
 10
113.9065647356661
 20
121.5608875460993
 30
0.0
 10
113.8664103065876
 20
121.7805995394722
 30
0.0
 10
113.8115121899045
 20
122.0073464103435
 30
0.0
 10
113.7402692212927
 20
122.2399774141265
 30
0.0
 10
113.6218568270101
 20
122.5553757286032
 30
0.0
 10
113.4337259306023
 20
122.9398576271382
 30
0.0
 10
113.1497091673677
 20
123.3698852416677
 30
0.0
 10
112.840291210818
 20
123.7283719540085
 30
0.0
 10
112.5243816000164
 20
124.020138610298
 30
0.0
 10
112.217636191893
 20
124.2525976971351
 30
0.0
 10
111.8992170780709
 20
124.4494079316991
 30
0.0
 10
111.5732462019139
 20
124.6115086339574
 30
0.0
 10
111.2437073667886
 20
124.7399785174371
 30
0.0
 10
110.9141454519421
 20
124.83656233681
 30
0.0
 10
110.5877271286428
 20
124.9024145660962
 30
0.0
 10
110.2672089363389
 20
124.9419795139217
 30
0.0
 10
110.0555434228082
 20
124.946763712137
 30
0.0
 10
109.9515770657399
 20
124.9491136256947
 30
0.0
  0
SPLINE
  5
1F0
330
1F
100
AcDbEntity
  8
0
  6
Continuous
 62
     7
370
    25
100
AcDbSpline
210
0.0
220
0.0
230
1.0
 70
     8
 71
     3
 72
    13
 73
     9
 74
     0
 42
0.000000001
 43
0.00000001
 40
0.0
 40
0.0
 40
0.0
 40
0.0
 40
0.1604061687300809
 40
0.3231296684563272
 40
0.4883154213007764
 40
0.6561019685773533
 40
0.8266215117792448
 40
1.0
 40
1.0
 40
1.0
 40
1.0
 10
108.0367037864504
 20
124.9491136256947
 30
0.0
 10
107.9776538349353
 20
124.9483580556567
 30
0.0
 10
107.8587008582106
 20
124.9468360001285
 30
0.0
 10
107.6794472246047
 20
124.934390941001
 30
0.0
 10
107.4985142429171
 20
124.9142067598703
 30
0.0
 10
107.3163857485183
 20
124.8850713937297
 30
0.0
 10
107.1332187407239
 20
124.8476552419105
 30
0.0
 10
107.0124794258496
 20
124.8153893695535
 30
0.0
 10
106.9516078942647
 20
124.799122314615
 30
0.0
  0
SPLINE
  5
1F1
330
1F
100
AcDbEntity
  8
0
  6
Continuous
 62
     7
370
    25
100
AcDbSpline
210
0.0
220
0.0
230
1.0
 70
    24
 71
     3
 72
    10
 73
     6
 74
     0
 42
0.000000001
 43
0.00000001
 40
0.0
 40
0.0
 40
0.0
 40
0.0
 40
0.3216623556917455
 40
0.6548175346390357
 40
1.0
 40
1.0
 40
1.0
 40
1.0
 10
106.9517559006447
 20
124.7991136256947
 30
0.0
 10
106.8832099927874
 20
124.7991136256947
 30
0.0
 10
106.7436690685901
 20
124.7991136256947
 30
0.0
 10
106.5340606532396
 20
124.7991136256947
 30
0.0
 10
106.3943836580857
 20
124.7991136256947
 30
0.0
 10
106.3233068868849
 20
124.7991136256947
 30
0.0
  0
SPLINE
  5
1F2
330
1F
100
AcDbEntity
  8
0
  6
Continuous
 62
     7
370
    25
100
AcDbSpline
210
0.0
220
0.0
230
1.0
 70
     8
 71
     3
 72
     8
 73
     4
 74
     0
 42
0.000000001
 43
0.00000001
 40
0.0
 40
0.0
 40
0.0
 40
0.0
 40
1.0
 40
1.0
 40
1.0
 40
1.0
 10
107.0379071821385
 20
125.1775599748776
 30
0.0
 10
106.7686108520821
 20
125.0808705896843
 30
0.0
 10
106.5324501666683
 20
124.9528714203075
 30
0.0
 10
106.3232526504844
 20
124.7993948226629
 30
0.0
  0
LINE
  5
1F3
330
1F
100
AcDbEntity
  8
0
  6
Continuous
 62
     7
370
    25
100
AcDbLine
 10
106.323798362
 20
108.6741136257
 30
0.0
 11
106.4769580917
 21
108.6741136257
 31
0.0
  0
LINE
  5
1F4
330
1F
100
AcDbEntity
  8
0
  6
Continuous
 62
     7
370
    25
100
AcDbLine
 10
109.9515770657
 20
124.9491136257
 30
0.0
 11
108.0367037865
 21
124.9491136257
 31
0.0
  0
LINE
  5
1F5
330
1F
100
AcDbEntity
  8
0
  6
Continuous
 62
     7
370
    25
100
AcDbLine
 10
106.3236652477
 20
124.7991136257
 30
0.0
 11
101.555537963
 21
124.7991136257
 31
0.0
  0
LINE
  5
1F6
330
1F
100
AcDbEntity
  8
0
  6
Continuous
 62
     7
370
    25
100
AcDbLine
 10
113.9515770657
 20
116.7366136257
 30
0.0
 11
113.9515770657
 21
120.9491136257
 31
0.0
  0
LINE
  5
1F7
330
1F
100
AcDbEntity
  8
VERMASSUNG
  6
CENTERX2
100
AcDbLine
 10
223.9465770657
 20
116.7366136257
 30
0.0
 11
80.0065770657
 21
116.7366136257
 31
0.0
  0
HATCH
  5
1F8
330
1F
100
AcDbEntity
  8
0
  6
Continuous
 62
     7
370
    18
100
AcDbHatch
 10
0.0
 20
0.0
 30
0.0
210
0.0
220
0.0
230
1.0
  2
ANSI31
 70
     0
 71
     0
 91
        1
 92
        0
 93
       50
 72
     2
 10
140.9765770657399
 20
145.5866136256947
 40
1.000000000000003
 50
90.0
 51
180.0
 73
     0
 72
     1
 10
139.9765770657399
 20
145.5866136256947
 11
139.9765770657399
 21
145.6842088898863
 72
     1
 10
139.9765770657399
 20
145.6842088898863
 11
138.5173792611698
 21
148.2116136256947
 72
     1
 10
138.5173792611698
 20
148.2116136256947
 11
132.1515770657399
 21
148.2116136256947
 72
     2
 10
132.1515770657399
 20
148.0116136256947
 40
0.2000000000000028
 50
90.0
 51
180.0
 73
     1
 72
     1
 10
131.9515770657399
 20
148.0116136256947
 11
131.9515770657399
 21
143.5866136256947
 72
     1
 10
131.9515770657399
 20
143.5866136256947
 11
132.2856157517685
 21
142.5271782652981
 72
     2
 10
131.52264219117
 20
142.2866136256947
 40
0.8000000000000049
 50
342.4999999999994
 51
467.5000000000015
 73
     0
 72
     1
 10
131.2820775515665
 20
141.5236400650961
 11
130.7913950257092
 21
141.678351671223
 72
     1
 10
130.7913950257092
 20
141.678351671223
 11
117.4699217531897
 21
141.0093746981968
 72
     1
 10
117.4699201597911
 20
141.0093780072653
 11
116.8015900138616
 21
140.2002661848741
 72
     1
 10
116.8015900138616
 20
140.2002661848741
 11
116.8015770657399
 21
134.8428396464462
 72
     1
 10
116.8015801939736
 20
134.8428397713267
 11
117.4275262075158
 21
134.3741149159867
 72
     1
 10
117.4275264558247
 20
134.3741136256947
 11
122.4515770657399
 21
134.3741136256947
 72
     1
 10
122.4515770657399
 20
134.3741136256947
 11
123.3268175393207
 21
134.8794339487222
 72
     2
 10
123.7268175393207
 20
134.1866136256947
 40
0.7999999999999962
 50
240.0000000000003
 51
270.0000000000008
 73
     0
 72
     1
 10
123.7268175393207
 20
134.9866136256947
 11
125.1515770657399
 21
134.9866136256947
 72
     2
 10
125.1515770657399
 20
134.1866136256947
 40
0.7999999999999977
 50
270.0000000000008
 51
360.0000000000008
 73
     0
 72
     1
 10
125.9515770657399
 20
134.1866136256947
 11
125.9515770657399
 21
132.2866136256947
 72
     1
 10
125.9515770657399
 20
132.2866136256947
 11
129.6515770657399
 21
132.2866136256947
 72
     2
 10
129.6515770657399
 20
131.0866136256947
 40
1.2
 50
270.0000000000008
 51
360.0000000000008
 73
     0
 72
     1
 10
130.8515770657399
 20
131.0866136256947
 11
130.8515770657399
 21
121.9675537333705
 72
     1
 10
130.8515770657399
 20
121.9675537333705
 11
131.2515770657399
 21
121.7366136256947
 72
     1
 10
131.2515770657399
 20
121.7366136256947
 11
134.6765770657399
 21
121.7366136256947
 72
     1
 10
134.6765770657399
 20
121.7366136256947
 11
134.6765770657399
 21
122.4866136256947
 72
     1
 10
134.6765770657399
 20
122.4866136256947
 11
135.5015770657399
 21
122.4866136256947
 72
     1
 10
135.5015770657399
 20
122.4866136256947
 11
135.5015770657399
 21
120.7366136256947
 72
     1
 10
135.5015770657399
 20
120.7366136256947
 11
141.6511467562261
 21
120.7366136256947
 72
     1
 10
141.6511467562261
 20
120.7366136256947
 11
141.9515770657399
 21
121.2366136256947
 72
     1
 10
141.9515770657399
 20
121.2366136256947
 11
164.9515770657399
 21
121.2366136256947
 72
     1
 10
164.9515770657399
 20
121.2366136256947
 11
165.4515770657399
 21
121.7366136256947
 72
     1
 10
165.4515770657399
 20
121.7366136256947
 11
165.4515770657399
 21
122.6366136256947
 72
     2
 10
165.8515770657399
 20
122.6366136256947
 40
0.3999999999999954
 50
180.0
 51
270.0000000000049
 73
     0
 72
     1
 10
165.8515770657399
 20
123.0366136256947
 11
175.0568030476201
 21
123.0366136256947
 72
     2
 10
175.0568030476201
 20
122.6366136256947
 40
0.4000000000000025
 50
270.0000000000049
 51
290.0000000000031
 73
     0
 72
     1
 10
175.1936111049504
 20
123.0124906740091
 11
175.9515770657399
 21
122.7366136256947
 72
     1
 10
175.9515770657399
 20
122.7366136256947
 11
208.4515770657399
 21
122.7366136256947
 72
     1
 10
208.4515770657399
 20
122.7366136256947
 11
211.5384011545734
 21
123.2809039972568
 72
     2
 10
211.4515770657399
 20
123.7733078737629
 40
0.5000000000000063
 50
279.9999999999994
 51
360.0000000000008
 73
     1
 72
     1
 10
211.9515770657399
 20
123.7733078737629
 11
211.9515770657399
 21
126.8878326423783
 72
     2
 10
209.9515770657399
 20
126.8878326423783
 40
2.000000000000007
 50
0.0
 51
85.49999999999963
 73
     1
 72
     1
 10
210.1084952571956
 20
128.8816673098445
 11
161.1267581210411
 21
132.7366136256947
 72
     1
 10
161.1267581210411
 20
132.7366136256947
 11
152.9515770657399
 21
132.7366136256947
 72
     2
 10
152.9515770657399
 20
135.7366136256947
 40
3.0
 50
90.0
 51
180.0
 73
     0
 72
     1
 10
149.9515770657399
 20
135.7366136256947
 11
149.9515770657399
 21
148.2116136256947
 72
     1
 10
149.9515770657399
 20
148.2116136256947
 11
145.18577487031
 21
148.2116136256947
 72
     1
 10
145.18577487031
 20
148.2116136256947
 11
143.7265770657399
 21
145.6842088898864
 72
     1
 10
143.7265770657399
 20
145.6842088898864
 11
143.7265770657399
 21
145.5866136256947
 72
     2
 10
142.7265770657399
 20
145.5866136256947
 40
1.000000000000003
 50
0.0
 51
90.0
 73
     0
 72
     1
 10
142.7265770657399
 20
144.5866136256947
 11
140.9765770657399
 21
144.5866136256947
 97
        0
 75
     0
 76
     1
 52
0.0
 41
1.0
 77
     0
 78
     1
 53
45.0
 43
0.0
 44
0.0
 45
-2.245064030267288
 46
2.245064030267288
 79
     0
 98
        1
 10
0.0
 20
0.0
  0
HATCH
  5
1F9
330
1F
100
AcDbEntity
  8
0
  6
Continuous
 62
     7
370
    18
100
AcDbHatch
 10
0.0
 20
0.0
 30
0.0
210
0.0
220
0.0
230
1.0
  2
ANSI31
 70
     0
 71
     0
 91
        1
 92
        0
 93
        9
 72
     1
 10
102.3016051963281
 20
139.4008879975776
 11
101.5520152173924
 21
140.2099993353452
 72
     1
 10
101.5520152173924
 20
140.2099993353452
 11
93.50157706573992
 21
139.8057337532771
 72
     1
 10
93.50157706573992
 20
139.8057337532771
 11
92.0015770657399
 21
138.9397083494927
 72
     1
 10
92.0015770657399
 20
138.9397083494927
 11
92.0015770657399
 21
136.9741136256947
 72
     1
 10
92.0015770657399
 20
136.9741136256947
 11
92.75324311557945
 21
135.672189837048
 72
     1
 10
92.75324311557945
 20
135.672189837048
 11
95.00157706573991
 21
134.3741136256947
 72
     1
 10
95.00157706573991
 20
134.3741136256947
 11
98.87157691044884
 21
134.3741136256947
 72
     1
 10
98.87157691044884
 20
134.3741136256947
 11
102.3015770657399
 21
139.2726615105987
 72
     1
 10
102.3015770657399
 20
139.2726615105987
 11
102.3015770657399
 21
139.4008868840843
 97
        0
 75
     0
 76
     1
 52
0.0
 41
1.0
 77
     0
 78
     1
 53
45.0
 43
0.0
 44
0.0
 45
-2.245064030267288
 46
2.245064030267288
 79
     0
 98
        1
 10
0.0
 20
0.0
  0
HATCH
  5
1FA
330
1F
100
AcDbEntity
  8
0
  6
Continuous
 62
     7
370
    18
100
AcDbHatch
 10
0.0
 20
0.0
 30
0.0
210
0.0
220
0.0
230
1.0
  2
ANSI31
 70
     0
 71
     0
 91
        1
 92
        0
 93
       11
 72
     1
 10
165.9515770657399
 20
121.2366136256947
 11
165.4515770657399
 21
121.7366136256947
 72
     1
 10
165.4515770657399
 20
121.7366136256947
 11
149.9515770657399
 21
121.7366136256947
 72
     1
 10
149.9515770657399
 20
121.7366136256947
 11
149.4515770657399
 21
121.2366136256947
 72
     1
 10
149.4515770657399
 20
121.2366136256947
 11
149.4515770656731
 21
119.4111981392016
 72
     1
 10
149.4515770656731
 20
119.4111981392016
 11
155.4515770656731
 21
119.4111981392016
 72
     1
 10
155.4515770656731
 20
119.4111981392016
 11
155.4515770656731
 21
119.2366136256947
 72
     1
 10
155.4515770656731
 20
119.2366136256947
 11
163.4515770657399
 21
119.2366136256947
 72
     1
 10
163.4515770657399
 20
119.2366136256947
 11
163.4515770657399
 21
119.4111981392015
 72
     1
 10
163.4515770657399
 20
119.4111981392015
 11
167.4515770657399
 21
119.4111981392015
 72
     1
 10
167.4515770657399
 20
119.4111981392015
 11
167.4515770657399
 21
121.2366136256947
 72
     1
 10
167.4515770657399
 20
121.2366136256947
 11
165.9515770657399
 21
121.2366136256947
 97
        0
 75
     0
 76
     1
 52
0.0
 41
1.0
 77
     0
 78
     1
 53
45.0
 43
0.0
 44
0.0
 45
-2.245064030267288
 46
2.245064030267288
 79
     0
 98
        1
 10
0.0
 20
0.0
  0
POINT
  5
1FB
330
1F
100
AcDbEntity
  8
VERMASSUNG
100
AcDbPoint
 10
211.9515770657
 20
104.7366136257
 30
0.0
  0
POINT
  5
1FC
330
1F
100
AcDbEntity
  8
VERMASSUNG
100
AcDbPoint
 10
211.9515770657
 20
128.7366136257
 30
0.0
  0
DIMENSION
  5
1FD
330
1F
100
AcDbEntity
  8
VERMASSUNG
100
AcDbDimension
  2
_D
 10
244.3500325557
 20
128.7366136257
 30
0.0
 11
244.3500325557
 21
116.7366136257
 31
0.0
 70
   160
  1
%%c<>
 71
     2
 42
-1.0
  3
SLDDIMSTYLE0
100
AcDbAlignedDimension
 13
211.9515770657
 23
104.7366136257
 33
0.0
 14
211.9515770657
 24
128.7366136257
 34
0.0
 50
90.0
100
AcDbRotatedDimension
  0
DIMENSION
  5
209
330
1F
100
AcDbEntity
  8
VERMASSUNG
100
AcDbDimension
  2
_D_1
 10
80.0065770657
 20
116.7366136257
 30
0.0
 11
200.4069859973
 21
138.0395125417
 31
0.0
 70
   162
  1
<>
 71
     1
 42
-1.0
  3
SLDDIMSTYLE1
100
AcDb2LineAngularDimension
 13
210.1084952572
 23
128.8816673098
 33
0.0
 14
161.126758121
 24
132.7366136257
 34
0.0
 15
223.9465770657
 25
116.7366136257
 35
0.0
 16
199.1568692835
 26
123.2300567885
 36
0.0
  0
DIMENSION
  5
213
330
1F
100
AcDbEntity
  8
VERMASSUNG
100
AcDbDimension
  2
_D_2
 10
233.9515770657
 20
110.7366136257
 30
0.0
 11
233.9515770657
 21
116.7366136257
 31
0.0
 70
   160
  1
%%c<>
 71
     2
 42
-1.0
  3
SLDDIMSTYLE2
100
AcDbAlignedDimension
 13
208.4515770657
 23
122.7366136257
 33
0.0
 14
208.4515770657
 24
110.7366136257
 34
0.0
 50
90.0
100
AcDbRotatedDimension
  0
DIMENSION
  5
21D
330
1F
100
AcDbEntity
  8
VERMASSUNG
100
AcDbDimension
  2
_D_3
 10
254.6814520906
 20
100.7366136257
 30
0.0
 11
254.6814520906
 21
116.7366136257
 31
0.0
 70
   160
  1
%%c<>
 71
     2
 42
-1.0
  3
SLDDIMSTYLE0
100
AcDbAlignedDimension
 13
161.126758121
 23
132.7366136257
 33
0.0
 14
161.126758121
 24
100.7366136257
 34
0.0
 50
90.0
100
AcDbRotatedDimension
  0
DIMENSION
  5
228
330
1F
100
AcDbEntity
  8
VERMASSUNG
100
AcDbDimension
  2
_D_4
 10
211.9515770657
 20
146.4896818905
 30
0.0
 11
193.9515770657
 21
146.4896818905
 31
0.0
 70
   160
  1
<> min.
 71
     2
 42
-1.0
  3
SLDDIMSTYLE0
100
AcDbAlignedDimension
 13
175.9515770657
 23
122.7366136257
 33
0.0
 14
211.9515770657
 24
126.8878326424
 34
0.0
100
AcDbRotatedDimension
  0
DIMENSION
  5
233
330
1F
100
AcDbEntity
  8
VERMASSUNG
100
AcDbDimension
  2
_D_5
 10
211.9515770657
 20
154.4093658964
 30
0.0
 11
188.7015770657
 21
154.4093658964
 31
0.0
 70
   160
  1
<> max.
 71
     2
 42
-1.0
  3
SLDDIMSTYLE0
100
AcDbAlignedDimension
 13
165.4515770657
 23
122.6366136257
 33
0.0
 14
211.9515770657
 24
126.8878326424
 34
0.0
100
AcDbRotatedDimension
  0
DIMENSION
  5
23E
330
1F
100
AcDbEntity
  8
VERMASSUNG
100
AcDbDimension
  2
_D_6
 10
211.9515770657
 20
162.0650604356
 30
0.0
 11
171.9515770657
 21
162.0650604356
 31
0.0
 70
   160
  1
<>
 71
     2
 42
-1.0
  3
SLDDIMSTYLE0
100
AcDbAlignedDimension
 13
131.9515770657
 23
148.0116136257
 33
0.0
 14
211.9515770657
 24
126.8878326424
 34
0.0
100
AcDbRotatedDimension
  0
DIMENSION
  5
248
330
1F
100
AcDbEntity
  8
VERMASSUNG
100
AcDbDimension
  2
_D_7
 10
92.0015770657
 20
170.2116136257
 30
0.0
 11
151.9765770657
 21
170.2116136257
 31
0.0
 70
   160
  1
<>
 71
     2
 42
-1.0
  3
SLDDIMSTYLE0
100
AcDbAlignedDimension
 13
211.9515770657
 23
126.8878326424
 33
0.0
 14
92.0015770657
 24
138.9397083495
 34
0.0
100
AcDbRotatedDimension
  0
DIMENSION
  5
252
330
1F
100
AcDbEntity
  8
VERMASSUNG
100
AcDbDimension
  2
_D_8
 10
211.9515770657
 20
78.013310403
 30
0.0
 11
180.9515770657
 21
78.013310403
 31
0.0
 70
   160
  1
<>
 71
     2
 42
-1.0
  3
SLDDIMSTYLE0
100
AcDbAlignedDimension
 13
149.9515770657
 23
85.2616136257
 33
0.0
 14
211.9515770657
 24
106.585394609
 34
0.0
100
AcDbRotatedDimension
  0
DIMENSION
  5
25C
330
1F
100
AcDbEntity
  8
VERMASSUNG
100
AcDbDimension
  2
_D_9
 10
211.9515770657
 20
85.9707271088
 30
0.0
 11
186.5391675934
 21
85.9707271088
 31
0.0
 70
   160
  1
<>
 71
     2
 42
-1.0
  3
SLDDIMSTYLE3
100
AcDbAlignedDimension
 13
161.126758121
 23
100.7366136257
 33
0.0
 14
211.9515770657
 24
106.585394609
 34
0.0
100
AcDbRotatedDimension
  0
DIMENSION
  5
267
330
1F
100
AcDbEntity
  8
VERMASSUNG
100
AcDbDimension
  2
_D_10
 10
70.0015520657
 20
85.2616136257
 30
0.0
 11
70.0015520657
 21
116.7366136257
 31
0.0
 70
   160
  1
KM%%c<> XMZ
 71
     2
 42
-1.0
  3
SLDDIMSTYLE0
100
AcDbAlignedDimension
 13
132.1515770657
 23
148.2116136257
 33
0.0
 14
132.1515770657
 24
85.2616136257
 34
0.0
 50
90.0
100
AcDbRotatedDimension
  0
LINE
  5
274
330
1F
100
AcDbEntity
  8
0
  6
Continuous
 62
     7
370
    25
100
AcDbLine
 10
254.5955355671
 20
31.6387649727
 30
0.0
 11
272.8217182762
 21
23.3391579329
 31
0.0
  0
LINE
  5
275
330
1F
100
AcDbEntity
  8
0
  6
Continuous
 62
     7
370
    25
100
AcDbLine
 10
278.8843402613
 20
33.8410652401
 30
0.0
 11
262.5824868371
 21
45.4740692015
 31
0.0
  0
SPLINE
  5
276
330
1F
100
AcDbEntity
  8
0
  6
Continuous
 62
     7
370
    25
100
AcDbSpline
210
0.0
220
0.0
230
1.0
 70
     8
 71
     3
 72
    30
 73
    26
 74
     0
 42
0.000000001
 43
0.00000001
 40
0.0
 40
0.0
 40
0.0
 40
0.0
 40
0.0389135312176848
 40
0.0788762095986772
 40
0.1195982292806443
 40
0.1616037768870029
 40
0.205032177054485
 40
0.2496044214453902
 40
0.2948114197282877
 40
0.340160983780232
 40
0.3853983660736031
 40
0.4304823172297065
 40
0.4754477648212755
 40
0.5203627138376753
 40
0.5653087010948971
 40
0.6103469653758038
 40
0.6555650511903216
 40
0.7010495111638428
 40
0.7468663572885169
 40
0.793018426257552
 40
0.8393075970121957
 40
0.8851767200142046
 40
0.9253871460529707
 40
0.9685293031043335
 40
1.0
 40
1.0
 40
1.0
 40
1.0
 10
272.8316889693083
 20
23.33606592249125
 30
0.0
 10
272.9916139793775
 20
23.27374412048245
 30
0.0
 10
273.3157757354446
 20
23.14742025924474
 30
0.0
 10
273.8458384527574
 20
23.07666365674732
 30
0.0
 10
274.3994883030041
 20
23.09199811208567
 30
0.0
 10
274.9731698185011
 20
23.203181949776
 30
0.0
 10
275.5606591998014
 20
23.40860789798808
 30
0.0
 10
276.1535531768727
 20
23.70819312647702
 30
0.0
 10
276.7399334860052
 20
24.09694190865207
 30
0.0
 10
277.3074936285238
 20
24.56626649024051
 30
0.0
 10
277.8455094584101
 20
25.10560647104244
 30
0.0
 10
278.3453515838389
 20
25.70426725033096
 30
0.0
 10
278.7997323613469
 20
26.35178072195469
 30
0.0
 10
279.2020098722366
 20
27.03764501454106
 30
0.0
 10
279.5459752442087
 20
27.75113884319515
 30
0.0
 10
279.8259005822098
 20
28.48150789871184
 30
0.0
 10
280.0365281730958
 20
29.21811320773368
 30
0.0
 10
280.1729215377392
 20
29.95068964769171
 30
0.0
 10
280.2301919839532
 20
30.66902260749287
 30
0.0
 10
280.2034295740569
 20
31.3622274360096
 30
0.0
 10
280.0879613443577
 20
32.01665736829377
 30
0.0
 10
279.8894210727381
 20
32.59759229627546
 30
0.0
 10
279.609075445417
 20
33.10825693196587
 30
0.0
 10
279.2940329612256
 20
33.51489607076492
 30
0.0
 10
279.0333359506181
 20
33.71545530325835
 30
0.0
 10
278.9233774626575
 20
33.80004848635666
 30
0.0
  0
SPLINE
  5
277
330
1F
100
AcDbEntity
  8
0
  6
Continuous
 62
     7
370
    25
100
AcDbSpline
210
0.0
220
0.0
230
1.0
 70
     8
 71
     3
 72
    12
 73
     8
 74
     0
 42
0.000000001
 43
0.00000001
 40
0.0
 40
0.0
 40
0.0
 40
0.0
 40
0.1025715568196805
 40
0.3962088971352541
 40
0.6769339791778495
 40
0.9342361576031238
 40
1.0
 40
1.0
 40
1.0
 40
1.0
 10
274.3447053484746
 20
25.73411784953912
 30
0.0
 10
274.3169077268797
 20
25.75679832946339
 30
0.0
 10
274.2095322971156
 20
25.84440748950659
 30
0.0
 10
274.0766204188141
 20
26.08704892646962
 30
0.0
 10
273.9603327696106
 20
26.44723596310225
 30
0.0
 10
273.9235377587158
 20
26.76053563293182
 30
0.0
 10
273.9214603666403
 20
26.94067246202308
 30
0.0
 10
273.9210374893451
 20
26.97734140668053
 30
0.0
  0
SPLINE
  5
278
330
1F
100
AcDbEntity
  8
0
  6
Continuous
 62
     7
370
    25
100
AcDbSpline
210
0.0
220
0.0
230
1.0
 70
     8
 71
     3
 72
    17
 73
    13
 74
     0
 42
0.000000001
 43
0.00000001
 40
0.0
 40
0.0
 40
0.0
 40
0.0
 40
0.0208039909534261
 40
0.1386215716771128
 40
0.2563470366547659
 40
0.3737982780568039
 40
0.4908272636957512
 40
0.6073333106317726
 40
0.7233808640653825
 40
0.8393558309039244
 40
0.9562802998261638
 40
1.0
 40
1.0
 40
1.0
 40
1.0
 10
274.5615322801808
 20
29.19883732084136
 30
0.0
 10
274.5768413516042
 20
29.22941969910459
 30
0.0
 10
274.6788490647584
 20
29.43319681811819
 30
0.0
 10
274.9184216754422
 20
29.78554898931856
 30
0.0
 10
275.2707655672645
 20
30.23418199794135
 30
0.0
 10
275.6562832481187
 20
30.6216149817451
 30
0.0
 10
276.0552523478125
 20
30.93837555402581
 30
0.0
 10
276.4546082679303
 20
31.17410612414611
 30
0.0
 10
276.8402646686728
 20
31.32514407295463
 30
0.0
 10
277.1946841673887
 20
31.38378515623597
 30
0.0
 10
277.4513606651936
 20
31.37857236826531
 30
0.0
 10
277.5719364198031
 20
31.32910897157056
 30
0.0
 10
277.6047514038104
 20
31.31564738821374
 30
0.0
  0
SPLINE
  5
279
330
1F
100
AcDbEntity
  8
0
  6
Continuous
 62
     7
370
    25
100
AcDbSpline
210
0.0
220
0.0
230
1.0
 70
     8
 71
     3
 72
    12
 73
     8
 74
     0
 42
0.000000001
 43
0.00000001
 40
0.0
 40
0.0
 40
0.0
 40
0.0
 40
0.119473312607741
 40
0.3488369687880129
 40
0.5789600152693147
 40
0.809687259771576
 40
1.0
 40
1.0
 40
1.0
 40
1.0
 10
273.9210374893451
 20
26.97734140668053
 30
0.0
 10
273.9229217561931
 20
27.0583661356263
 30
0.0
 10
273.9284234194624
 20
27.29494131903244
 30
0.0
 10
273.9900997113582
 20
27.71900112934737
 30
0.0
 10
274.1304495640087
 20
28.24314774244713
 30
0.0
 10
274.3196226996567
 20
28.74528745183221
 30
0.0
 10
274.4862263671171
 20
29.05764825783825
 30
0.0
 10
274.5615322801808
 20
29.19883732084136
 30
0.0
  0
LINE
  5
27A
330
1F
100
AcDbEntity
  8
0
  6
Continuous
 62
     7
370
    25
100
AcDbLine
 10
244.8622737517
 20
28.3090861038
 30
0.0
 11
246.5472389007
 21
27.336376428
 31
0.0
  0
LINE
  5
27B
330
1F
100
AcDbEntity
  8
0
  6
Continuous
 62
     7
370
    25
100
AcDbLine
 10
262.2834602152
 20
54.5952648218
 30
0.0
 11
260.5984950662
 21
55.5679744976
 31
0.0
  0
LINE
  5
27C
330
1F
100
AcDbEntity
  8
0
  6
Continuous
 62
     7
370
    25
100
AcDbLine
 10
240.2539888203
 20
30.9693923684
 30
0.0
 11
242.5046397967
 21
29.6701192156
 31
0.0
  0
LINE
  5
27D
330
1F
100
AcDbEntity
  8
0
  6
Continuous
 62
     7
370
    25
100
AcDbLine
 10
258.2408611112
 20
56.9290076094
 30
0.0
 11
255.9902101348
 21
58.2282807623
 31
0.0
  0
LINE
  5
27E
330
1F
100
AcDbEntity
  8
0
  6
Continuous
 62
     7
370
    25
100
AcDbLine
 10
251.4763348953
 20
33.4251235559
 30
0.0
 11
254.3666979361
 21
31.756552489
 31
0.0
  0
LINE
  5
27F
330
1F
100
AcDbEntity
  8
0
  6
Continuous
 62
     7
370
    25
100
AcDbLine
 10
262.3660479527
 20
45.6133342584
 30
0.0
 11
259.4756849119
 21
47.2819053253
 31
0.0
  0
LINE
  5
280
330
1F
100
AcDbEntity
  8
0
  6
Continuous
 62
     7
370
    25
100
AcDbLine
 10
249.2128209446
 20
58.0081626699
 30
0.0
 11
240.015608761
 21
62.5888152797
 31
0.0
  0
LINE
  5
281
330
1F
100
AcDbEntity
  8
0
  6
Continuous
 62
     7
370
    25
100
AcDbLine
 10
228.4892609713
 20
42.6224318241
 30
0.0
 11
237.055360977
 21
36.9485422277
 31
0.0
  0
LINE
  5
282
330
1F
100
AcDbEntity
  8
0
  6
Continuous
 62
     7
370
    25
100
AcDbLine
 10
233.468698413
 20
43.5689216898
 30
0.0
 11
233.468698413
 21
43.2036029847
 31
0.0
  0
LINE
  5
283
330
1F
100
AcDbEntity
  8
0
  6
Continuous
 62
     7
370
    25
100
AcDbLine
 10
237.3666651733
 20
62.9657836565
 30
0.0
 11
236.7271150646
 21
62.878571901
 31
0.0
  0
LINE
  5
284
330
1F
100
AcDbEntity
  8
0
  6
Continuous
 62
     7
370
    25
100
AcDbLine
 10
278.8843402613
 20
33.8410652401
 30
0.0
 11
278.9183863538
 21
33.8162367344
 31
0.0
  0
LWPOLYLINE
  5
285
330
1F
100
AcDbEntity
  8
0
  6
Continuous
 62
     7
370
    25
100
AcDbPolyline
 90
       21
 70
   128
 43
0.0
 10
252.7095184262
 20
35.4193107713
 10
252.7507637273
 20
36.2305061179
 10
252.873896733
 20
37.0774923811
 10
253.0771222511
 20
37.9479188141
 10
253.3574771605
 20
38.8290929513
 10
253.7108732169
 20
39.7081649694
 10
254.132156651
 20
40.5723162291
 10
254.6151845596
 20
41.4089451058
 10
255.15291348
 20
42.2058519643
 10
255.7375016287
 20
42.9514162414
 10
256.3604248057
 20
43.6347656387
 10
257.0125991304
 20
44.2459351897
 10
257.6845145203
 20
44.7760131381
 10
258.3663729444
 20
45.2172701791
 10
259.0482313685
 20
45.5632701174
 10
259.7201467584
 20
45.8089691653
 10
260.372321083
 20
45.9507840617
 10
260.99524426
 20
45.9866464558
 10
261.5798324088
 20
45.9160332885
 10
262.1175613291
 20
45.7399750263
 10
262.5824868371
 20
45.4740692015
  0
LWPOLYLINE
  5
286
330
1F
100
AcDbEntity
  8
0
  6
Continuous
 62
     7
370
    25
100
AcDbPolyline
 90
        8
 70
   128
 43
0.0
 10
254.5955355671
 20
31.6387649727
 10
254.132156651
 20
31.9088484454
 10
253.7108732169
 20
32.2865962055
 10
253.3574771605
 20
32.7576458218
 10
253.0771222511
 20
33.3151290706
 10
252.873896733
 20
33.9509163148
 10
252.7507637273
 20
34.6557362357
 10
252.7095184262
 20
35.4193107713
  0
LINE
  5
287
330
1F
100
AcDbEntity
  8
0
  6
Continuous
 62
     7
370
    25
100
AcDbLine
 10
274.3623872685
 20
25.7018828895
 30
0.0
 11
274.3343874378
 21
25.7282096052
 31
0.0
  0
LWPOLYLINE
  5
288
330
1F
100
AcDbEntity
  8
0
  6
Continuous
 62
     7
370
    25
100
AcDbPolyline
 90
       15
 70
   128
 43
0.0
 10
276.8998392709
 20
31.3591233392
 10
277.0580671013
 20
31.0946761531
 10
277.1787824255
 20
30.7048313482
 10
277.2195430379
 20
30.2504643017
 10
277.1787824255
 20
29.7490360538
 10
277.0580671013
 20
29.2198163023
 10
276.8620360174
 20
28.6831425738
 10
276.5982225936
 20
28.1596391033
 10
276.2767651226
 20
27.6694236508
 10
275.9100168293
 20
27.2313349074
 10
275.5120717598
 20
26.8622085078
 10
275.0982226759
 20
26.5762296663
 10
274.6843735919
 20
26.3843885261
 10
274.2864285224
 20
26.2940573283
 10
273.984563656
 20
26.2980469519
  0
LWPOLYLINE
  5
289
330
1F
100
AcDbEntity
  8
0
  6
Continuous
 62
     7
370
    25
100
AcDbPolyline
 90
       41
 70
   128
 43
0.0
 10
243.2872565595
 20
34.5417092779
 10
243.3284511527
 20
35.670164852
 10
243.4517287089
 20
36.8378271336
 10
243.6561771442
 20
38.0360518366
 10
243.9402831231
 20
39.255967733
 10
244.301942596
 20
40.4885426222
 10
244.7384779209
 20
41.7246508206
 10
245.2466576199
 20
42.9551412209
 10
245.8227194283
 20
44.1709038307
 10
246.4623979532
 20
45.3629363104
 10
247.1609569426
 20
46.5224146929
 10
247.9132248464
 20
47.6407534573
 10
248.7136330123
 20
48.7096739665
 10
249.5562542104
 20
49.7212609284
 10
250.4348503779
 20
50.6680264602
 10
251.3429167414
 20
51.5429598944
 10
252.2737303847
 20
52.3395831934
 10
253.2203999687
 20
53.0520001843
 10
254.1759164191
 20
53.6749349462
 10
255.1332055478
 20
54.203775876
 10
256.0851800371
 20
54.6346079797
 10
257.0247915057
 20
54.964240648
 10
257.9450835834
 20
55.1902337329
 10
258.839242804
 20
55.3109147604
 10
259.7006493135
 20
55.3253899522
 10
260.5229251083
 20
55.2335515407
 10
261.299982603
 20
55.0360799511
 10
262.0260687528
 20
54.7344365723
 10
262.6958072004
 20
54.3308553884
 10
263.3042404226
 20
53.8283247232
 10
263.846863975
 20
53.2305644235
 10
264.319659419
 20
52.5419999998
 10
264.7191265907
 20
51.7677291633
 10
265.0423086251
 20
50.9134857014
 10
265.2868117129
 20
49.9855923273
 10
265.4508268324
 20
48.9909201831
 10
265.533138969
 20
47.9368328973
 10
265.533138969
 20
46.8311347776
 10
265.4508268324
 20
45.6820119217
 10
265.2868117129
 20
44.4979719513
 10
265.1253859904
 20
43.6594558472
  0
LWPOLYLINE
  5
28A
330
1F
100
AcDbEntity
  8
0
  6
Continuous
 62
     7
370
    25
100
AcDbPolyline
 90
       23
 70
   128
 43
0.0
 10
257.4386078683
 20
30.3441230342
 10
257.0247915057
 20
29.9801981454
 10
256.0851800371
 20
29.2249785037
 10
255.1332055478
 20
28.5566842576
 10
254.1759164191
 20
27.9802626856
 10
253.2203999687
 20
27.4999816366
 10
252.2737303847
 20
27.119397191
 10
251.3429167414
 20
26.8413259329
 10
250.4348503779
 20
26.6678282603
 10
249.5562542104
 20
26.6001882493
 10
248.7136330123
 20
26.638905484
 10
247.9132248464
 20
26.7836943956
 10
247.1609569426
 20
27.0334831258
 10
246.4623979532
 20
27.3864224669
 10
245.8227194283
 20
27.8398978423
 10
245.2466576199
 20
28.3905536454
 10
244.7384779209
 20
29.0343122542
 10
244.301942596
 20
29.7664074946
 10
243.9402831231
 20
30.5814192445
 10
243.6561771442
 20
31.4733133598
 10
243.4517287089
 20
32.4354869239
 10
243.3284511527
 20
33.4608159687
 10
243.2872565595
 20
34.5417092779
  0
SPLINE
  5
28B
330
1F
100
AcDbEntity
  8
0
  6
Continuous
 62
     7
370
    25
100
AcDbSpline
210
0.0
220
0.0
230
1.0
 70
     8
 71
     3
 72
    25
 73
    21
 74
     0
 42
0.000000001
 43
0.00000001
 40
0.0
 40
0.0
 40
0.0
 40
0.0
 40
0.1249999999999998
 40
0.1249999999999998
 40
0.2499999999999997
 40
0.2499999999999997
 40
0.3749999999999995
 40
0.3749999999999995
 40
0.4999999999999993
 40
0.4999999999999993
 40
0.5624999999999996
 40
0.5624999999999996
 40
0.6249999999999998
 40
0.6875000000000001
 40
0.6875000000000001
 40
0.7500000000000003
 40
0.7500000000000003
 40
0.8750000000000001
 40
0.8750000000000001
 40
1.0
 40
1.0
 40
1.0
 40
1.0
 10
248.120845708056
 20
50.97352373237896
 30
0.0
 10
248.1499690063171
 20
50.86233821184977
 30
0.0
 10
248.1623580471764
 20
50.74709599942174
 30
0.0
 10
248.1553805620761
 20
50.50800043158595
 30
0.0
 10
248.135362974224
 20
50.38322646171067
 30
0.0
 10
248.0651408165108
 20
50.13685755249826
 30
0.0
 10
248.0144901619171
 20
50.01264640513713
 30
0.0
 10
247.8845754182619
 20
49.76901790982697
 30
0.0
 10
247.8068744702727
 20
49.65196081476881
 30
0.0
 10
247.6715008880465
 20
49.48330429691877
 30
0.0
 10
247.6228663907394
 20
49.42793727564661
 30
0.0
 10
247.5214270553574
 20
49.32221746424959
 30
0.0
 10
247.4155570726167
 20
49.22105650562915
 30
0.0
 10
247.3009652802892
 20
49.12888218395235
 30
0.0
 10
247.181882611071
 20
49.04134534121224
 30
0.0
 10
247.1199245980135
 20
48.99984687170004
 30
0.0
 10
246.932060894493
 20
48.88572654996194
 30
0.0
 10
246.802683458139
 20
48.82211911884735
 30
0.0
 10
246.5350002050769
 20
48.72085081787311
 30
0.0
 10
246.3991285186119
 20
48.68430990964832
 30
0.0
 10
246.2636112518843
 20
48.66314172529825
 30
0.0
  0
LWPOLYLINE
  5
28C
330
1F
100
AcDbEntity
  8
0
  6
Continuous
 62
     7
370
    25
100
AcDbPolyline
 90
       15
 70
   128
 43
0.0
 10
248.1208458198
 20
50.9735237649
 10
249.0257946336
 20
51.9172535276
 10
249.9592248388
 20
52.7842662619
 10
250.9139596174
 20
53.5678964238
 10
251.8826592439
 20
54.2621197919
 10
252.8578762179
 20
54.8615967027
 10
253.8321130718
 20
55.3617221517
 10
254.797879788
 20
55.758649054
 10
255.7477513801
 20
56.0493252875
 10
256.674425248
 20
56.2315169172
 10
257.5707770925
 20
56.3038237438
 10
258.429915904
 20
56.2656889947
 10
259.2452361517
 20
56.1174058778
 10
260.0104701383
 20
55.8601151052
 10
260.5984950662
 20
55.5679744976
  0
LWPOLYLINE
  5
28D
330
1F
100
AcDbEntity
  8
0
  6
Continuous
 62
     7
370
    25
100
AcDbPolyline
 90
       21
 70
   128
 43
0.0
 10
244.8622737517
 20
28.3090861038
 10
244.2361138284
 20
28.7332922754
 10
243.6435673339
 20
29.2749449842
 10
243.1197597152
 20
29.9123935976
 10
242.668654093
 20
30.6408175497
 10
242.2936623866
 20
31.4547050656
 10
241.9976216056
 20
32.3478999318
 10
241.7827708013
 20
33.3136446552
 10
241.6507352616
 20
34.3446341718
 10
241.6025153156
 20
35.4330700666
 10
241.6384731629
 20
36.5707171459
 10
241.7583394586
 20
37.7489709044
 10
241.9612054114
 20
38.9589171507
 10
242.245537271
 20
40.1914030972
 10
242.6091842313
 20
41.4371060511
 10
243.0493948931
 20
42.6866018538
 10
243.5628396554
 20
43.9304386443
 10
244.1456344228
 20
45.1592075796
 10
244.7933702398
 20
46.3636124147
 10
245.5011468767
 20
47.5345428837
 10
246.2636110251
 20
48.6631412369
  0
LWPOLYLINE
  5
28E
330
1F
100
AcDbEntity
  8
0
  6
Continuous
 62
     7
370
    25
100
AcDbPolyline
 90
       12
 70
   128
 43
0.0
 10
246.4582244274
 20
51.0978002455
 10
247.3293836517
 20
52.0277469371
 10
248.2309778398
 20
52.8805127248
 10
249.1552977403
 20
53.6488053029
 10
250.0944395021
 20
54.3260550136
 10
251.0403726584
 20
54.906470824
 10
251.9850084204
 20
55.3850903974
 10
252.920269297
 20
55.7578195238
 10
253.8381580165
 20
56.0214726677
 10
254.7308256338
 20
56.1737940344
 10
255.5906387948
 20
56.2134819524
 10
256.2587750036
 20
56.1626868785
  0
SPLINE
  5
28F
330
1F
100
AcDbEntity
  8
0
  6
Continuous
 62
     7
370
    25
100
AcDbSpline
210
0.0
220
0.0
230
1.0
 70
     8
 71
     3
 72
    26
 73
    22
 74
     0
 42
0.000000001
 43
0.00000001
 40
0.0
 40
0.0
 40
0.0
 40
0.0
 40
0.1250000000000009
 40
0.1250000000000009
 40
0.2500000000000019
 40
0.2500000000000019
 40
0.3125000000000011
 40
0.3125000000000011
 40
0.3750000000000004
 40
0.3750000000000004
 40
0.4375000000000002
 40
0.4375000000000002
 40
0.5000000000000001
 40
0.5000000000000001
 40
0.5625
 40
0.5625
 40
0.6249999999999999
 40
0.6249999999999999
 40
0.7500000000000001
 40
0.7500000000000001
 40
1.0
 40
1.0
 40
1.0
 40
1.0
 10
245.1140312224285
 20
49.42563695925377
 30
0.0
 10
245.0903936261965
 20
49.53521281882676
 30
0.0
 10
245.0728258473147
 20
49.64610207719129
 30
0.0
 10
245.0540132644452
 20
49.87143203705424
 30
0.0
 10
245.0528334896779
 20
49.98710895037262
 30
0.0
 10
245.0689314929133
 20
50.15846446023217
 30
0.0
 10
245.0772502100135
 20
50.21526297232634
 30
0.0
 10
245.1010073592704
 20
50.32808918472342
 30
0.0
 10
245.1166297383194
 20
50.38454203838958
 30
0.0
 10
245.1554869507165
 20
50.49312515479817
 30
0.0
 10
245.1787129074189
 20
50.54550511502372
 30
0.0
 10
245.2337115568973
 20
50.64596189029583
 30
0.0
 10
245.2657898239199
 20
50.69424075806727
 30
0.0
 10
245.336204572455
 20
50.78193773365101
 30
0.0
 10
245.3747829945817
 20
50.82192686162697
 30
0.0
 10
245.4584912581779
 20
50.89440554574256
 30
0.0
 10
245.5036199681198
 20
50.92674217011918
 30
0.0
 10
245.6429006103099
 20
51.00994193747282
 30
0.0
 10
245.7436896818715
 20
51.04877066010892
 30
0.0
 10
246.0467619531042
 20
51.1241869475641
 30
0.0
 10
246.2552860435893
 20
51.12405680119333
 30
0.0
 10
246.4582244632797
 20
51.09780057186711
 30
0.0
  0
LWPOLYLINE
  5
290
330
1F
100
AcDbEntity
  8
0
  6
Continuous
 62
     7
370
    25
100
AcDbPolyline
 90
       18
 70
   128
 43
0.0
 10
242.1770525935
 20
31.7697856692
 10
241.8505264701
 20
32.2391527116
 10
241.4506529765
 20
32.9821932765
 10
241.1292746955
 20
33.8085656041
 10
240.8890640008
 20
34.71139619
 10
240.7320189163
 20
35.6831768917
 10
240.6594459944
 20
36.7158256009
 10
240.6719478034
 20
37.8007532841
 10
240.7694209516
 20
38.9289370826
 10
240.9510554295
 20
40.0909942199
 10
241.2153392187
 20
41.2772594021
 10
241.5600747563
 20
42.4778667798
 10
241.9823960565
 20
43.6828315542
 10
242.478789126
 20
44.8821319146
 10
243.0451262076
 20
46.0657921157
 10
243.676697391
 20
47.2239699285
 10
244.3682494669
 20
48.3470319215
 10
245.1140313658
 20
49.4256367282
  0
LINE
  5
291
330
1F
100
AcDbEntity
  8
0
  6
Continuous
 62
     7
370
    25
100
AcDbLine
 10
243.6386389515
 20
29.1817157841
 30
0.0
 11
243.7568422577
 21
29.2375782357
 31
0.0
  0
LWPOLYLINE
  5
292
330
1F
100
AcDbEntity
  8
0
  6
Continuous
 62
     7
370
    25
100
AcDbPolyline
 90
       41
 70
   128
 43
0.0
 10
243.6386389515
 20
29.1817157841
 10
242.902290044
 20
29.4626709725
 10
242.2212015819
 20
29.8459804214
 10
241.6004127477
 20
30.3288109338
 10
241.0445149136
 20
30.9075894242
 10
240.5576213487
 20
31.578034861
 10
240.1433329744
 20
32.3351883081
 10
239.8047146567
 20
33.1734479081
 10
239.5442708405
 20
34.0866135624
 10
239.3639290856
 20
35.0679302783
 10
239.2650222859
 20
36.1101385045
 10
239.2482834016
 20
37.2055294788
 10
239.3138336048
 20
38.3459987703
 10
239.4611914996
 20
39.5231120116
 10
239.6892645605
 20
40.7281602226
 10
239.9963669136
 20
41.9522298908
 10
240.3802265804
 20
43.186266588
 10
240.8380032584
 20
44.4211408433
 10
241.3663113703
 20
45.6477186745
 10
241.961243113
 20
46.856926605
 10
242.618396775
 20
48.0398197228
 10
243.3329116393
 20
49.1876474573
 10
244.0995028861
 20
50.2919201165
 10
244.9124984718
 20
51.3444674391
 10
245.7658852262
 20
52.3375047504
 10
246.6533506712
 20
53.2636852404
 10
247.5683291178
 20
54.1161585149
 10
248.5040530336
 20
54.8886185003
 10
249.4536002102
 20
55.575351205
 10
250.4099465166
 20
56.17127582
 10
251.3660177419
 20
56.6719837726
 10
252.3147414086
 20
57.0737732005
 10
253.2490996676
 20
57.373671122
 10
254.1621808476
 20
57.5694578716
 10
255.0472300927
 20
57.6596864471
 10
255.8977011414
 20
57.6436888256
 10
256.7073025886
 20
57.5215836594
 10
257.4700453014
 20
57.2942739898
 10
258.1802875289
 20
56.9634413494
 10
258.8327747445
 20
56.5315330207
 10
259.3308991274
 20
56.094705293
  0
LWPOLYLINE
  5
293
330
1F
100
AcDbEntity
  8
0
  6
Continuous
 62
     7
370
    25
100
AcDbPolyline
 90
       27
 70
   128
 43
0.0
 10
236.9940063608
 20
38.2563659592
 10
237.0349388532
 20
39.377650773
 10
237.1574334001
 20
40.5378938621
 10
237.3605831855
 20
41.7285047423
 10
237.6428834354
 20
42.9406686494
 10
238.002244588
 20
44.1654113667
 10
238.436006782
 20
45.3936657646
 10
238.9409569787
 20
46.6163370082
 10
239.5133579381
 20
47.8243740389
 10
240.1489719264
 20
49.0088319291
 10
240.8430923258
 20
50.1609426031
 10
241.5905805135
 20
51.2721752903
 10
242.3859020816
 20
52.3343038222
 10
243.2231693129
 20
53.3394630937
 10
244.0961826694
 20
54.2802125571
 10
244.9984788659
 20
55.1495860281
 10
245.9233781209
 20
55.9411478607
 10
246.8640322302
 20
56.6490381904
 10
247.8134770854
 20
57.2680138987
 10
248.7646833825
 20
57.7934953772
 10
249.7106086466
 20
58.2215889562
 10
250.6442497507
 20
58.5491278699
 10
251.5586941178
 20
58.7736850842
 10
252.4471717457
 20
58.8935987674
 10
253.3031044332
 20
58.9079816963
 10
254.1201550066
 20
58.8167268601
 10
254.8145045795
 20
58.6456868352
  0
LWPOLYLINE
  5
294
330
1F
100
AcDbEntity
  8
0
  6
Continuous
 62
     7
370
    25
100
AcDbPolyline
 90
        3
 70
   128
 43
0.0
 10
237.0682019363
 20
36.8224976607
 10
237.0349388532
 20
37.1823407952
 10
237.0039556512
 20
37.720573291
  0
SPLINE
  5
295
330
1F
100
AcDbEntity
  8
0
  6
Continuous
 62
     7
370
    25
100
AcDbSpline
210
0.0
220
0.0
230
1.0
 70
     8
 71
     3
 72
    10
 73
     6
 74
     0
 42
0.000000001
 43
0.00000001
 40
0.0
 40
0.0
 40
0.0
 40
0.0
 40
0.5
 40
0.5
 40
1.0
 40
1.0
 40
1.0
 40
1.0
 10
245.8407192900598
 20
47.96258367843405
 30
0.0
 10
245.7367547992755
 20
48.03592205150444
 30
0.0
 10
245.6469465228481
 20
48.12315780929784
 30
0.0
 10
245.4949040948495
 20
48.32408835049383
 30
0.0
 10
245.4329985064885
 20
48.43825911669081
 30
0.0
 10
245.3885488018981
 20
48.56127679985091
 30
0.0
  0
SPLINE
  5
296
330
1F
100
AcDbEntity
  8
0
  6
Continuous
 62
     7
370
    25
100
AcDbSpline
210
0.0
220
0.0
230
1.0
 70
     8
 71
     3
 72
    14
 73
    10
 74
     0
 42
0.000000001
 43
0.00000001
 40
0.0
 40
0.0
 40
0.0
 40
0.0
 40
0.25
 40
0.25
 40
0.5
 40
0.5
 40
0.75
 40
0.75
 40
1.0
 40
1.0
 40
1.0
 40
1.0
 10
245.3885488018981
 20
48.5612767998509
 30
0.0
 10
245.3658279990329
 20
48.62415821950844
 30
0.0
 10
245.3439134886835
 20
48.69320464898186
 30
0.0
 10
245.3018024346207
 20
48.84085716560063
 30
0.0
 10
245.2822808807076
 20
48.91725695245893
 30
0.0
 10
245.2439346385339
 20
49.07158924385454
 30
0.0
 10
245.2255750456501
 20
49.14854184018619
 30
0.0
 10
245.1835716010684
 20
49.29393200770217
 30
0.0
 10
245.1597952800554
 20
49.3605229138952
 30
0.0
 10
245.1313337759532
 20
49.40101852912655
 30
0.0
  0
LINE
  5
297
330
1F
100
AcDbEntity
  8
0
  6
Continuous
 62
     7
370
    25
100
AcDbLine
 10
245.1313339642
 20
49.4010189209
 30
0.0
 11
245.1140313658
 21
49.4256367282
 31
0.0
  0
LINE
  5
298
330
1F
100
AcDbEntity
  8
0
  6
Continuous
 62
     7
370
    25
100
AcDbLine
 10
246.4582244274
 20
51.0978002455
 30
0.0
 11
246.4755270258
 21
51.0731824381
 31
0.0
  0
SPLINE
  5
299
330
1F
100
AcDbEntity
  8
0
  6
Continuous
 62
     7
370
    25
100
AcDbSpline
210
0.0
220
0.0
230
1.0
 70
     8
 71
     3
 72
    16
 73
    12
 74
     0
 42
0.000000001
 43
0.00000001
 40
0.0
 40
0.0
 40
0.0
 40
0.0
 40
0.1250000000000001
 40
0.1250000000000001
 40
0.2500000000000003
 40
0.2500000000000003
 40
0.5000000000000002
 40
0.5000000000000002
 40
0.7500000000000001
 40
0.7500000000000001
 40
1.0
 40
1.0
 40
1.0
 40
1.0
 10
246.4755270168044
 20
51.07318214173982
 30
0.0
 10
246.4896794232085
 20
51.05304580592703
 30
0.0
 10
246.5113378276822
 20
51.03624838524961
 30
0.0
 10
246.5637557567175
 20
51.00940286391813
 30
0.0
 10
246.5943486358559
 20
50.99917737935714
 30
0.0
 10
246.6934294847133
 20
50.97467693892445
 30
0.0
 10
246.7673120223292
 20
50.96641701652295
 30
0.0
 10
246.9204116147206
 20
50.95523104981803
 30
0.0
 10
246.9984955893682
 20
50.95263437806685
 30
0.0
 10
247.1578392231103
 20
50.95060537723315
 30
0.0
 10
247.2364921179419
 20
50.95124296589537
 30
0.0
 10
247.3122445857345
 20
50.9543360667104
 30
0.0
  0
SPLINE
  5
29A
330
1F
100
AcDbEntity
  8
0
  6
Continuous
 62
     7
370
    25
100
AcDbSpline
210
0.0
220
0.0
230
1.0
 70
     8
 71
     3
 72
    10
 73
     6
 74
     0
 42
0.000000001
 43
0.00000001
 40
0.0
 40
0.0
 40
0.0
 40
0.0
 40
0.5
 40
0.5
 40
1.0
 40
1.0
 40
1.0
 40
1.0
 10
247.3122445857345
 20
50.9543360667104
 30
0.0
 10
247.4604389256352
 20
50.96038709114417
 30
0.0
 10
247.6026633913658
 20
50.95022486093104
 30
0.0
 10
247.8750547817066
 20
50.89917442499096
 30
0.0
 10
248.0051821115751
 20
50.8578133223464
 30
0.0
 10
248.1232574537605
 20
50.80203945439413
 30
0.0
  0
LINE
  5
29B
330
1F
100
AcDbEntity
  8
0
  6
Continuous
 62
     7
370
    25
100
AcDbLine
 10
248.2784605452
 20
50.8304580619
 30
0.0
 11
248.2610673969
 21
50.8552053466
 31
0.0
  0
ARC
  5
29C
330
1F
100
AcDbEntity
  8
0
  6
Continuous
 62
     7
370
    25
100
AcDbCircle
 10
230.8058784425
 20
46.078110289
 30
0.0
 40
4.160340149630744
100
AcDbArc
 50
211.7954354499
 51
236.1628935314
  0
SPLINE
  5
29D
330
1F
100
AcDbEntity
  8
0
  6
Continuous
 62
     7
370
    25
100
AcDbSpline
210
0.0
220
0.0
230
1.0
 70
     8
 71
     3
 72
     8
 73
     4
 74
     0
 42
0.000000001
 43
0.00000001
 40
0.0
 40
0.0
 40
0.0
 40
0.0
 40
1.0
 40
1.0
 40
1.0
 40
1.0
 10
228.7003037846237
 20
42.96133503515546
 30
0.0
 10
228.2235304927995
 20
43.2694278430881
 30
0.0
 10
227.7467281159547
 20
43.57765728866085
 30
0.0
 10
227.269895671429
 20
43.88602244488076
 30
0.0
  0
SPLINE
  5
29E
330
1F
100
AcDbEntity
  8
0
  6
Continuous
 62
     7
370
    25
100
AcDbSpline
210
0.0
220
0.0
230
1.0
 70
     8
 71
     3
 72
    23
 73
    19
 74
     0
 42
0.000000001
 43
0.00000001
 40
0.0
 40
0.0
 40
0.0
 40
0.0
 40
0.0521036415675031
 40
0.1035646240925967
 40
0.1544751946736949
 40
0.2049306267473421
 40
0.2550287880844035
 40
0.3048696389141012
 40
0.3545546704609132
 40
0.4041862979523234
 40
0.4538672252126086
 40
0.5036997999421611
 40
0.5901870230746071
 40
0.674271637822954
 40
0.7565997087222995
 40
0.8378563983721267
 40
0.9187511781367398
 40
1.0
 40
1.0
 40
1.0
 40
1.0
 10
229.5808685881653
 20
42.78660433703536
 30
0.0
 10
229.5755996492252
 20
42.77668287480054
 30
0.0
 10
229.5651267597249
 20
42.75696232406958
 30
0.0
 10
229.5458804639622
 20
42.73239449511735
 30
0.0
 10
229.5240847236294
 20
42.71170591285812
 30
0.0
 10
229.4994334324245
 20
42.69517497756115
 30
0.0
 10
229.4719369178856
 20
42.68265747798498
 30
0.0
 10
229.4415258638782
 20
42.6741228541626
 30
0.0
 10
229.4081554921057
 20
42.66951298151452
 30
0.0
 10
229.3717796038338
 20
42.66877823837805
 30
0.0
 10
229.3323512322447
 20
42.67187332092934
 30
0.0
 10
229.2795028406948
 20
42.68040909640848
 30
0.0
 10
229.2109638469246
 20
42.69800553525553
 30
0.0
 10
229.1232426149703
 20
42.7296421433414
 30
0.0
 10
229.0285116954763
 20
42.77182180067412
 30
0.0
 10
228.9264774481463
 20
42.8245582364011
 30
0.0
 10
228.8175635349573
 20
42.88687479231193
 30
0.0
 10
228.7394472239713
 20
42.93647885056304
 30
0.0
 10
228.7003037846237
 20
42.96133503515545
 30
0.0
  0
SPLINE
  5
29F
330
1F
100
AcDbEntity
  8
0
  6
Continuous
 62
     7
370
    25
100
AcDbSpline
210
0.0
220
0.0
230
1.0
 70
     8
 71
     3
 72
     8
 73
     4
 74
     0
 42
0.000000001
 43
0.00000001
 40
0.0
 40
0.0
 40
0.0
 40
0.0
 40
1.0
 40
1.0
 40
1.0
 40
1.0
 10
231.0543716146191
 20
41.83928420047915
 30
0.0
 10
230.5630043025778
 20
42.15515882044664
 30
0.0
 10
230.0716181026515
 20
42.47114484173611
 30
0.0
 10
229.5802123925075
 20
42.7872417225788
 30
0.0
  0
SPLINE
  5
2A0
330
1F
100
AcDbEntity
  8
0
  6
Continuous
 62
     7
370
    25
100
AcDbSpline
210
0.0
220
0.0
230
1.0
 70
     8
 71
     3
 72
    18
 73
    14
 74
     0
 42
0.000000001
 43
0.00000001
 40
0.0
 40
0.0
 40
0.0
 40
0.0
 40
0.0923824559411628
 40
0.1844689291573508
 40
0.2764953615950219
 40
0.3686975365494161
 40
0.4613092840003458
 40
0.5545607518442569
 40
0.6486768051537182
 40
0.7438756050146744
 40
0.8403674044302629
 40
0.9203921078121001
 40
1.0
 40
1.0
 40
1.0
 40
1.0
 10
231.8679357338188
 20
41.19497647593481
 30
0.0
 10
231.8443682196957
 20
41.21025045020036
 30
0.0
 10
231.7973086990443
 20
41.24074946268099
 30
0.0
 10
231.7249109110815
 20
41.2903820352919
 30
0.0
 10
231.6514287021859
 20
41.34271157796043
 30
0.0
 10
231.576729254441
 20
41.3980292636683
 30
0.0
 10
231.5008684646729
 20
41.45626757878187
 30
0.0
 10
231.4238571838861
 20
41.51746049041945
 30
0.0
 10
231.3457250518051
 20
41.58162420700101
 30
0.0
 10
231.2664988171612
 20
41.64877316686812
 30
0.0
 10
231.1912023327514
 20
41.71462407661429
 30
0.0
 10
231.1203750246293
 20
41.77815566342261
 30
0.0
 10
231.0764706538222
 20
41.81881640843611
 30
0.0
 10
231.0545757870169
 20
41.83909369700466
 30
0.0
  0
LINE
  5
2A1
330
1F
100
AcDbEntity
  8
0
  6
Continuous
 62
     7
370
    25
100
AcDbLine
 10
232.5076422657
 20
40.7832226694
 30
0.0
 11
231.8679354233
 21
41.1949763371
 31
0.0
  0
SPLINE
  5
2A2
330
1F
100
AcDbEntity
  8
0
  6
Continuous
 62
     7
370
    25
100
AcDbSpline
210
0.0
220
0.0
230
1.0
 70
     8
 71
     3
 72
    25
 73
    21
 74
     0
 42
0.000000001
 43
0.00000001
 40
0.0
 40
0.0
 40
0.0
 40
0.0
 40
0.0280105225426465
 40
0.0559601148860768
 40
0.0839014045043132
 40
0.1118870776786367
 40
0.1399695827588937
 40
0.1682008401739883
 40
0.196631967042422
 40
0.2253130233141467
 40
0.2542927850735845
 40
0.3799486436587335
 40
0.5057850221667067
 40
0.6313085886338298
 40
0.7532068238012468
 40
0.8039473267955921
 40
0.8535894438554446
 40
0.9025339722394071
 40
0.9511970353791085
 40
1.0
 40
1.0
 40
1.0
 40
1.0
 10
233.610007858809
 20
41.49912865981188
 30
0.0
 10
233.6149559663396
 20
41.4715047987044
 30
0.0
 10
233.6248414179751
 20
41.41631716559908
 30
0.0
 10
233.6363770675783
 20
41.33715645822916
 30
0.0
 10
233.6454501893911
 20
41.26085311913078
 30
0.0
 10
233.6518189981041
 20
41.18765735816117
 30
0.0
 10
233.6555352369142
 20
41.11750988994778
 30
0.0
 10
233.656571857897
 20
41.050433603435
 30
0.0
 10
233.6549233826701
 20
40.98642969420855
 30
0.0
 10
233.6505772308012
 20
40.92550084094172
 30
0.0
 10
233.6357209062336
 20
40.80361271944456
 30
0.0
 10
233.5906326491685
 20
40.64871184778941
 30
0.0
 10
233.4772731286759
 20
40.51776872944735
 30
0.0
 10
233.3154489066816
 20
40.46189232863735
 30
0.0
 10
233.1414336875498
 20
40.48176638102012
 30
0.0
 10
232.9900727668637
 20
40.5290841833756
 30
0.0
 10
232.8796725341654
 20
40.57399960711095
 30
0.0
 10
232.7625130387166
 20
40.63137533840213
 30
0.0
 10
232.6389473717828
 20
40.70005240285495
 30
0.0
 10
232.5514523216877
 20
40.75547264880813
 30
0.0
 10
232.507642002006
 20
40.78322254653843
 30
0.0
  0
ARC
  5
2A3
330
1F
100
AcDbEntity
  8
0
  6
Continuous
 62
     7
370
    25
100
AcDbCircle
 10
244.8030290232
 20
43.2851790284
 30
0.0
 40
11.33462419218396
100
AcDbArc
 50
170.9338462887
 51
189.0661537113
  0
SPLINE
  5
2A4
330
1F
100
AcDbEntity
  8
0
  6
Continuous
 62
     7
370
    25
100
AcDbSpline
210
0.0
220
0.0
230
1.0
 70
     8
 71
     3
 72
    26
 73
    22
 74
     0
 42
0.000000001
 43
0.00000001
 40
0.0
 40
0.0
 40
0.0
 40
0.0
 40
0.0241259796963635
 40
0.0482159912272988
 40
0.0723203915124065
 40
0.0964895678710797
 40
0.1207736231963513
 40
0.1452220711242836
 40
0.1698835501657706
 40
0.1948055644472379
 40
0.2200342569517627
 40
0.2456142191611387
 40
0.3690971486901655
 40
0.4940698769485187
 40
0.6192566784762451
 40
0.7454656653603225
 40
0.7971495824713707
 40
0.8481710308405392
 40
0.8988013269235234
 40
0.9493179290492194
 40
1.0
 40
1.0
 40
1.0
 40
1.0
 10
232.507642002006
 20
48.547332937903
 30
0.0
 10
232.5293602313821
 20
48.53300141450792
 30
0.0
 10
232.5727643115582
 20
48.50435973383888
 30
0.0
 10
232.6360714289196
 20
48.45636743591007
 30
0.0
 10
232.6979329966375
 20
48.4047682380244
 30
0.0
 10
232.758237511774
 20
48.34919344515115
 30
0.0
 10
232.8170273637139
 20
48.28973820452401
 30
0.0
 10
232.8743078821437
 20
48.22637389568661
 30
0.0
 10
232.9300990214699
 20
48.15910511772268
 30
0.0
 10
232.9844202688917
 20
48.08793100376256
 30
0.0
 10
233.0372992441007
 20
48.01284186401427
 30
0.0
 10
233.154094068837
 20
47.83358741531242
 30
0.0
 10
233.3159636267634
 20
47.52328194346903
 30
0.0
 10
233.4791485342953
 20
47.05336815533735
 30
0.0
 10
233.5906599394688
 20
46.55440512142731
 30
0.0
 10
233.6377937775773
 20
46.1455214483703
 30
0.0
 10
233.6529127171098
 20
45.84124949177959
 30
0.0
 10
233.6548658560923
 20
45.64000025008427
 30
0.0
 10
233.6483878304532
 20
45.44434033036168
 30
0.0
 10
233.6342609077661
 20
45.25370404246421
 30
0.0
 10
233.6181010160811
 20
45.1321207687254
 30
0.0
 10
233.610007858809
 20
45.07122973212652
 30
0.0
  0
LINE
  5
2A5
330
1F
100
AcDbEntity
  8
0
  6
Continuous
 62
     7
370
    25
100
AcDbLine
 10
231.8679354233
 20
48.9603077882
 30
0.0
 11
232.5076422657
 21
48.5473328172
 31
0.0
  0
SPLINE
  5
2A6
330
1F
100
AcDbEntity
  8
0
  6
Continuous
 62
     7
370
    25
100
AcDbSpline
210
0.0
220
0.0
230
1.0
 70
     8
 71
     3
 72
    14
 73
    10
 74
     0
 42
0.000000001
 43
0.00000001
 40
0.0
 40
0.0
 40
0.0
 40
0.0
 40
0.0789261963172865
 40
0.158232872055133
 40
0.330847539457262
 40
0.5000195457610529
 40
0.6670357883572423
 40
0.8332395193657144
 40
1.0
 40
1.0
 40
1.0
 40
1.0
 10
231.0539830179675
 20
49.1688902211876
 30
0.0
 10
231.0756998993033
 20
49.17049338504617
 30
0.0
 10
231.119238352519
 20
49.17370744113342
 30
0.0
 10
231.210763471168
 20
49.17452848120131
 30
0.0
 10
231.327671804601
 20
49.16659249941801
 30
0.0
 10
231.4684921429827
 20
49.14031683054019
 30
0.0
 10
231.6057044507948
 20
49.09735923200795
 30
0.0
 10
231.7396351252113
 20
49.03900210719832
 30
0.0
 10
231.8251212171705
 20
48.98656856104834
 30
0.0
 10
231.8679357338188
 20
48.96030795089389
 30
0.0
  0
SPLINE
  5
2A7
330
1F
100
AcDbEntity
  8
0
  6
Continuous
 62
     7
370
    25
100
AcDbSpline
210
0.0
220
0.0
230
1.0
 70
     8
 71
     3
 72
     8
 73
     4
 74
     0
 42
0.000000001
 43
0.00000001
 40
0.0
 40
0.0
 40
0.0
 40
0.0
 40
1.0
 40
1.0
 40
1.0
 40
1.0
 10
229.2516794349631
 20
50.3312816326003
 30
0.0
 10
229.8524376586592
 20
49.94401414944141
 30
0.0
 10
230.4531665215196
 20
49.5565467995181
 30
0.0
 10
231.0538671658664
 20
49.16887990692847
 30
0.0
  0
SPLINE
  5
2A8
330
1F
100
AcDbEntity
  8
0
  6
Continuous
 62
     7
370
    25
100
AcDbSpline
210
0.0
220
0.0
230
1.0
 70
     8
 71
     3
 72
    13
 73
     9
 74
     0
 42
0.000000001
 43
0.00000001
 40
0.0
 40
0.0
 40
0.0
 40
0.0
 40
0.1667030582307992
 40
0.3329480818053035
 40
0.4990671507274896
 40
0.6653938523718403
 40
0.832261271055009
 40
1.0
 40
1.0
 40
1.0
 40
1.0
 10
228.9098508999287
 20
50.63234641168609
 30
0.0
 10
228.9301520823686
 20
50.61878130500686
 30
0.0
 10
228.9706986675573
 20
50.59168836324402
 30
0.0
 10
229.0298483045449
 20
50.54649379023629
 30
0.0
 10
229.0876198494474
 20
50.49808264175334
 30
0.0
 10
229.143869586907
 20
50.44604752698289
 30
0.0
 10
229.1987967956532
 20
50.39074955977387
 30
0.0
 10
229.2340175052437
 20
50.3511323046135
 30
0.0
 10
229.2516737171846
 20
50.33127209561258
 30
0.0
  0
SPLINE
  5
2A9
330
1F
100
AcDbEntity
  8
0
  6
Continuous
 62
     7
370
    25
100
AcDbSpline
210
0.0
220
0.0
230
1.0
 70
     8
 71
     3
 72
     8
 73
     4
 74
     0
 42
0.000000001
 43
0.00000001
 40
0.0
 40
0.0
 40
0.0
 40
0.0
 40
1.0
 40
1.0
 40
1.0
 40
1.0
 10
226.965870384138
 20
51.88706826406555
 30
0.0
 10
227.6139004565382
 20
51.4690729481808
 30
0.0
 10
228.2618934336401
 20
51.05083218576317
 30
0.0
 10
228.9098508999287
 20
50.63234641168609
 30
0.0
  0
LWPOLYLINE
  5
2AA
330
1F
100
AcDbEntity
  8
0
  6
Continuous
 62
     7
370
    25
100
AcDbPolyline
 90
       20
 70
   128
 43
0.0
 10
226.9658710344
 20
51.8870683145
 10
227.3301943199
 20
52.9526270518
 10
227.7675047517
 20
54.0134218648
 10
228.2733235686
 20
55.0585888207
 10
228.8424713182
 20
56.0774245102
 10
229.4691182351
 20
57.0594949788
 10
230.1468481202
 20
57.9947440869
 10
230.8687195852
 20
58.8735927449
 10
231.6273407972
 20
59.6870421384
 10
232.4149427419
 20
60.4267608896
 10
233.2234596487
 20
61.0851740715
 10
234.044611555
 20
61.6555390088
 10
234.8699893414
 20
62.1320149
 10
235.6911405068
 20
62.5097222199
 10
236.4996557672
 20
62.7847927126
 10
237.2872552424
 20
62.9544092596
 10
238.0458731616
 20
63.0168357683
 10
238.7677413339
 20
62.9714318972
 10
239.4454662799
 20
62.8186633632
 10
240.015608761
 20
62.5888152797
  0
SPLINE
  5
2AB
330
1F
100
AcDbEntity
  8
0
  6
Continuous
 62
     7
370
    25
100
AcDbSpline
210
0.0
220
0.0
230
1.0
 70
    11
 71
     3
 72
    39
 73
    35
 74
     0
 42
0.000000001
 43
0.00000001
 40
0.0
 40
0.0
 40
0.0
 40
0.0
 40
0.0310664058348413
 40
0.0621048158426138
 40
0.0931361551796939
 40
0.1235538293503726
 40
0.1538561545809849
 40
0.1850588072749156
 40
0.2160250992946587
 40
0.2471867223797568
 40
0.2784462884304475
 40
0.3100516090231247
 40
0.3419834369138969
 40
0.3734259894013238
 40
0.4048604886787081
 40
0.436874065183343
 40
0.4685120685926471
 40
0.499805535863323
 40
0.5309508213226204
 40
0.5618649784438111
 40
0.5930416446590877
 40
0.623374245013332
 40
0.6540913579072549
 40
0.6849496782718453
 40
0.7158160645166705
 40
0.7471731804043553
 40
0.7784514311866318
 40
0.810129591156098
 40
0.8419598919688388
 40
0.8735175891922303
 40
0.9050808037886594
 40
0.9370235169792582
 40
0.9687441590030581
 40
1.0
 40
1.0
 40
1.0
 40
1.0
 10
240.1744558653433
 20
60.89225863940698
 30
0.0
 10
240.4373414855415
 20
60.86372415211687
 30
0.0
 10
240.964230096025
 20
60.77778166379527
 30
0.0
 10
241.728242165101
 20
60.57740654372282
 30
0.0
 10
242.4353923531519
 20
60.3304044375033
 30
0.0
 10
243.0483034177473
 20
60.05242255935019
 30
0.0
 10
243.5454347434178
 20
59.75828886202147
 30
0.0
 10
243.9046264644912
 20
59.45678233382924
 30
0.0
 10
244.1263457332501
 20
59.14978482892683
 30
0.0
 10
244.1915976106322
 20
58.83927956752514
 30
0.0
 10
244.1047503995183
 20
58.52013508277631
 30
0.0
 10
243.8624048117599
 20
58.19081511720412
 30
0.0
 10
243.4824669490335
 20
57.85187439564645
 30
0.0
 10
242.9686609958737
 20
57.51403593123583
 30
0.0
 10
242.3427701849637
 20
57.18813802992498
 30
0.0
 10
241.6292991984718
 20
56.8914911366855
 30
0.0
 10
240.8653967222075
 20
56.63538782824854
 30
0.0
 10
240.0796036393059
 20
56.44636026025776
 30
0.0
 10
239.2980661842659
 20
56.33818433820451
 30
0.0
 10
238.5419531995135
 20
56.3305204548348
 30
0.0
 10
237.83958861312
 20
56.42844249022095
 30
0.0
 10
237.2205682660773
 20
56.65009092372345
 30
0.0
 10
236.7115110010635
 20
56.98595901063518
 30
0.0
 10
236.3385674076297
 20
57.42576957681595
 30
0.0
 10
236.1099654563812
 20
57.93684421733859
 30
0.0
 10
236.041119149662
 20
58.48802930510202
 30
0.0
 10
236.1257355628871
 20
59.04570123341377
 30
0.0
 10
236.3688443528219
 20
59.57578137433277
 30
0.0
 10
236.7509741956397
 20
60.04830572344549
 30
0.0
 10
237.26710977005
 20
60.43442723433872
 30
0.0
 10
237.8940876305519
 20
60.71805142167186
 30
0.0
 10
238.6099950629157
 20
60.88778864039828
 30
0.0
 10
239.3784384551013
 20
60.94932747510959
 30
0.0
 10
239.9099672344738
 20
60.92096712285402
 30
0.0
 10
240.1744558653433
 20
60.89225863940697
 30
0.0
  0
LINE
  5
2AC
330
1F
100
AcDbEntity
  8
0
  6
Continuous
 62
     7
370
    25
100
AcDbLine
 10
230.9499184523
 20
44.453132022
 30
0.0
 11
231.2639635109
 21
44.2849877948
 31
0.0
  0
LINE
  5
2AD
330
1F
100
AcDbEntity
  8
0
  6
Continuous
 62
     7
370
    25
100
AcDbLine
 10
229.9629604324
 20
45.0228907593
 30
0.0
 11
230.9499184523
 21
44.453132022
 31
0.0
  0
ARC
  5
2AE
330
1F
100
AcDbEntity
  8
0
  6
Continuous
 62
     7
370
    25
100
AcDbCircle
 10
232.1949454299
 20
48.5308042066
 30
0.0
 40
4.399246259573228
100
AcDbArc
 50
267.4956853267
 51
287.1750110524
  0
SPLINE
  5
2AF
330
1F
100
AcDbEntity
  8
0
  6
Continuous
 62
     7
370
    25
100
AcDbSpline
210
0.0
220
0.0
230
1.0
 70
     8
 71
     3
 72
    14
 73
    10
 74
     0
 42
0.000000001
 43
0.00000001
 40
0.0
 40
0.0
 40
0.0
 40
0.0
 40
0.1520927654964334
 40
0.2674857265629534
 40
0.3827932169674477
 40
0.4986859355030901
 40
0.6145509981003119
 40
0.825743267810779
 40
1.0
 40
1.0
 40
1.0
 40
1.0
 10
241.5129618236427
 20
57.88976292407125
 30
0.0
 10
241.3081668823503
 20
58.00214382430167
 30
0.0
 10
240.9479937768827
 20
58.19978824645294
 30
0.0
 10
240.3483706086808
 20
58.46391111325505
 30
0.0
 10
239.7691979742982
 20
58.67702750778794
 30
0.0
 10
239.1583061588043
 20
58.84781565887384
 30
0.0
 10
238.3691704690281
 20
58.98719441409304
 30
0.0
 10
237.469897144105
 20
59.01432832876998
 30
0.0
 10
236.9053017944372
 20
58.80633377245229
 30
0.0
 10
236.6500552114718
 20
58.71230200296156
 30
0.0
  0
SPLINE
  5
2B0
330
1F
100
AcDbEntity
  8
0
  6
Continuous
 62
     7
370
    25
100
AcDbSpline
210
0.0
220
0.0
230
1.0
 70
     8
 71
     3
 72
    10
 73
     6
 74
     0
 42
0.000000001
 43
0.00000001
 40
0.0
 40
0.0
 40
0.0
 40
0.0
 40
0.3798174073072795
 40
0.9603711649033085
 40
1.0
 40
1.0
 40
1.0
 40
1.0
 10
242.6528419455022
 20
57.36153599655276
 30
0.0
 10
242.5231893282538
 20
57.43186455839012
 30
0.0
 10
242.1953617124993
 20
57.60969085481125
 30
0.0
 10
241.7874331674892
 20
57.78274370521365
 30
0.0
 10
241.5308003860573
 20
57.88194913746197
 30
0.0
 10
241.5144018958455
 20
57.88828823140233
 30
0.0
  0
SPLINE
  5
2B1
330
1F
100
AcDbEntity
  8
0
  6
Continuous
 62
     7
370
    25
100
AcDbSpline
210
0.0
220
0.0
230
1.0
 70
     8
 71
     3
 72
    24
 73
    20
 74
     0
 42
0.000000001
 43
0.00000001
 40
0.0
 40
0.0
 40
0.0
 40
0.0
 40
0.0618858212107145
 40
0.1150115607194259
 40
0.1593831488268445
 40
0.2428114970815824
 40
0.318331853291959
 40
0.3935543804326023
 40
0.4204843226990471
 40
0.4483397435477174
 40
0.4771286702554668
 40
0.5451537905345539
 40
0.6363475754294583
 40
0.6968782859867285
 40
0.7498596693403015
 40
0.7959701295389731
 40
0.8771179302751783
 40
0.9543004207779655
 40
1.0
 40
1.0
 40
1.0
 40
1.0
 10
240.1195772983411
 20
60.3184007394502
 30
0.0
 10
239.9356205090048
 20
60.33729530441616
 30
0.0
 10
239.5937464410426
 20
60.37240986480067
 30
0.0
 10
239.1295284680658
 20
60.36591931641339
 30
0.0
 10
238.6200668557929
 20
60.31819512361609
 30
0.0
 10
238.0809717564183
 20
60.19357852544917
 30
0.0
 10
237.5381337716947
 20
59.95108824150618
 30
0.0
 10
237.1977407561996
 20
59.69371549088027
 30
0.0
 10
236.9911140476486
 20
59.47890839038145
 30
0.0
 10
236.8731299914375
 20
59.33240503908247
 30
0.0
 10
236.7209595872465
 20
59.10265421486201
 30
0.0
 10
236.5542789486668
 20
58.729711519435
 30
0.0
 10
236.4859173678296
 20
58.26715246674211
 30
0.0
 10
236.5362728314491
 20
57.83881976854029
 30
0.0
 10
236.6417019749643
 20
57.5188928748959
 30
0.0
 10
236.8239013016503
 20
57.17842735970271
 30
0.0
 10
237.1247797267208
 20
56.84247910284763
 30
0.0
 10
237.5144646213192
 20
56.56941980213261
 30
0.0
 10
237.8073835775136
 20
56.47546473120531
 30
0.0
 10
237.9163195115699
 20
56.44052304104034
 30
0.0
  0
SPLINE
  5
2B2
330
1F
100
AcDbEntity
  8
0
  6
Continuous
 62
     7
370
    25
100
AcDbSpline
210
0.0
220
0.0
230
1.0
 70
     8
 71
     3
 72
    22
 73
    18
 74
     0
 42
0.000000001
 43
0.00000001
 40
0.0
 40
0.0
 40
0.0
 40
0.0
 40
0.0348562931077237
 40
0.0924900623539491
 40
0.1569277788850789
 40
0.2282085360920659
 40
0.2894089077515647
 40
0.3420696922203051
 40
0.3861903498429299
 40
0.4217735408338573
 40
0.5236918810098915
 40
0.6145479843395962
 40
0.7067593487247504
 40
0.7559111409869668
 40
0.8071360726317764
 40
0.8951475619903156
 40
1.0
 40
1.0
 40
1.0
 40
1.0
 10
243.3833212457254
 20
57.80125665168048
 30
0.0
 10
243.420957135601
 20
57.83642987409207
 30
0.0
 10
243.5208227693499
 20
57.9297608982484
 30
0.0
 10
243.6396468180849
 20
58.08510613784872
 30
0.0
 10
243.7360578866032
 20
58.27383534265104
 30
0.0
 10
243.7673340417452
 20
58.45981422826354
 30
0.0
 10
243.7379287175716
 20
58.63162578959898
 30
0.0
 10
243.6694336943635
 20
58.77843238010976
 30
0.0
 10
243.5816210473491
 20
58.8996433021236
 30
0.0
 10
243.4273298953948
 20
59.06522644930705
 30
0.0
 10
243.1595035774388
 20
59.27539069166259
 30
0.0
 10
242.7079334379723
 20
59.53083450212464
 30
0.0
 10
242.2603708012491
 20
59.73747119879562
 30
0.0
 10
241.8514770323652
 20
59.89597541543933
 30
0.0
 10
241.4293974325577
 20
60.03849216337412
 30
0.0
 10
240.8510848151786
 20
60.20174873222958
 30
0.0
 10
240.377206221311
 20
60.27731718215137
 30
0.0
 10
240.1195772983411
 20
60.3184007394502
 30
0.0
  0
LINE
  5
2B3
330
1F
100
AcDbEntity
  8
0
  6
Continuous
 62
     7
370
    25
100
AcDbLine
 10
233.6100075765
 20
45.0712295513
 30
0.0
 11
233.6047695134
 21
45.3673129743
 31
0.0
  0
LINE
  5
2B4
330
1F
100
AcDbEntity
  8
0
  6
Continuous
 62
     7
370
    25
100
AcDbLine
 10
233.6047695134
 20
45.3673129743
 30
0.0
 11
233.6478673002
 21
46.0189381699
 31
0.0
  0
LINE
  5
2B5
330
1F
100
AcDbEntity
  8
0
  6
Continuous
 62
     7
370
    25
100
AcDbLine
 10
233.1252206954
 20
47.8480011917
 30
0.0
 11
232.8138061929
 21
48.1765977612
 31
0.0
  0
SPLINE
  5
2B6
330
1F
100
AcDbEntity
  8
0
  6
Continuous
 62
     7
370
    25
100
AcDbSpline
210
0.0
220
0.0
230
1.0
 70
     8
 71
     3
 72
    19
 73
    15
 74
     0
 42
0.000000001
 43
0.00000001
 40
0.0
 40
0.0
 40
0.0
 40
0.0
 40
0.0210492621018804
 40
0.1455865440207667
 40
0.2712169722633744
 40
0.3929514297049947
 40
0.5136082229787104
 40
0.6366369099308349
 40
0.699422462668311
 40
0.7643939711952468
 40
0.8122544601557282
 40
0.8606584764820763
 40
0.9188817427801165
 40
1.0
 40
1.0
 40
1.0
 40
1.0
 10
236.5303327459987
 20
58.06365079199239
 30
0.0
 10
236.5228641710129
 20
58.11841113889781
 30
0.0
 10
236.4712080124411
 20
58.49715931623295
 30
0.0
 10
236.7139789071008
 20
59.10731022504712
 30
0.0
 10
237.2983093745157
 20
59.79668392828669
 30
0.0
 10
238.204435742156
 20
60.21398347851874
 30
0.0
 10
239.278781870618
 20
60.33440943620739
 30
0.0
 10
240.2327157397137
 20
60.17370989261979
 30
0.0
 10
240.967378282283
 20
59.87634379377799
 30
0.0
 10
241.4401815217553
 20
59.57868571637329
 30
0.0
 10
241.7971516918748
 20
59.20777391159594
 30
0.0
 10
241.991999833383
 20
58.77545261628836
 30
0.0
 10
242.0210288636272
 20
58.27251128506321
 30
0.0
 10
241.9586552620068
 20
57.93876627248802
 30
0.0
 10
241.9223442060328
 20
57.74447520194116
 30
0.0
  0
SPLINE
  5
2B7
330
1F
100
AcDbEntity
  8
0
  6
Continuous
 62
     7
370
    25
100
AcDbSpline
210
0.0
220
0.0
230
1.0
 70
     8
 71
     3
 72
    10
 73
     6
 74
     0
 42
0.000000001
 43
0.00000001
 40
0.0
 40
0.0
 40
0.0
 40
0.0
 40
0.2950355258923527
 40
0.9801030833761959
 40
1.0
 40
1.0
 40
1.0
 40
1.0
 10
241.9250720620209
 20
57.74323664851877
 30
0.0
 10
242.0078966322814
 20
57.70447146683
 30
0.0
 10
242.2830384696791
 20
57.57569418149839
 30
0.0
 10
242.5581054042192
 20
57.43442490160854
 30
0.0
 10
242.7066840147983
 20
57.34036216566968
 30
0.0
 10
242.7108774973572
 20
57.33770733910306
 30
0.0
  0
ARC
  5
2B8
330
1F
100
AcDbEntity
  8
0
  6
Continuous
 62
     7
370
    25
100
AcDbCircle
 10
245.9351806274
 20
43.5300176562
 30
0.0
 40
12.46654291792171
100
AcDbArc
 50
171.5249863735
 51
179.8211981812
  0
SPLINE
  5
2B9
330
1F
100
AcDbEntity
  8
0
  6
Continuous
 62
     7
370
    25
100
AcDbSpline
210
0.0
220
0.0
230
1.0
 70
     8
 71
     3
 72
    14
 73
    10
 74
     0
 42
0.000000001
 43
0.00000001
 40
0.0
 40
0.0
 40
0.0
 40
0.0
 40
0.0003951393068452
 40
0.0003951393068452
 40
0.0003951393068452
 40
0.0008163352168663
 40
0.0008163352168663
 40
0.0008163352168663
 40
0.0012378579337219
 40
0.0012378579337219
 40
0.0012378579337219
 40
0.0012378579337219
 10
241.5169943991824
 20
57.88848397068691
 30
0.0
 10
241.5624562134136
 20
57.87404710806187
 30
0.0
 10
241.6073438180347
 20
57.85918124749627
 30
0.0
 10
241.6516275107098
 20
57.8438974598908
 30
0.0
 10
241.6988308029491
 20
57.82760602055311
 30
0.0
 10
241.7453566160083
 20
57.8108365424692
 30
0.0
 10
241.79116752525
 20
57.79360773167392
 30
0.0
 10
241.837013913239
 20
57.77636557784227
 30
0.0
 10
241.8821531488115
 20
57.75865987163777
 30
0.0
 10
241.9265467068538
 20
57.74051701494698
 30
0.0
  0
LINE
  5
2BA
330
1F
100
AcDbEntity
  8
0
  6
Continuous
 62
     7
370
    25
100
AcDbLine
 10
232.8138061929
 20
48.1765977612
 30
0.0
 11
232.1738695185
 21
48.5888294014
 31
0.0
  0
LINE
  5
2BB
330
1F
100
AcDbEntity
  8
0
  6
Continuous
 62
     7
370
    25
100
AcDbLine
 10
231.8679354233
 20
48.9603077882
 30
0.0
 11
232.1738695185
 21
48.5888294014
 31
0.0
  0
SPLINE
  5
2BC
330
1F
100
AcDbEntity
  8
0
  6
Continuous
 62
     7
370
    25
100
AcDbSpline
210
0.0
220
0.0
230
1.0
 70
     8
 71
     3
 72
    13
 73
     9
 74
     0
 42
0.000000001
 43
0.00000001
 40
0.0
 40
0.0
 40
0.0
 40
0.0
 40
0.161854229885178
 40
0.3254858841554281
 40
0.4910085196607404
 40
0.6585318472791263
 40
0.8281616954204583
 40
0.9999999999999999
 40
0.9999999999999999
 40
0.9999999999999999
 40
0.9999999999999999
 10
232.1738699301608
 20
48.58882940525701
 30
0.0
 10
232.1542925381433
 20
48.60139238229016
 30
0.0
 10
232.1149227622976
 20
48.62665629840878
 30
0.0
 10
232.0533868225273
 20
48.65934999532363
 30
0.0
 10
231.9898301632779
 20
48.68829606903052
 30
0.0
 10
231.9242120606211
 20
48.71280843649613
 30
0.0
 10
231.8567847915663
 20
48.73324349984963
 30
0.0
 10
231.8109001913678
 20
48.74284015483941
 30
0.0
 10
231.7878095111928
 20
48.74766951567419
 30
0.0
  0
SPLINE
  5
2BD
330
1F
100
AcDbEntity
  8
0
  6
Continuous
 62
     7
370
    25
100
AcDbSpline
210
0.0
220
0.0
230
1.0
 70
     8
 71
     3
 72
     9
 73
     5
 74
     0
 42
0.000000001
 43
0.00000001
 40
0.0
 40
0.0
 40
0.0
 40
0.0
 40
0.4907282259506175
 40
1.0
 40
1.0
 40
1.0
 40
1.0
 10
231.7878036839009
 20
48.74764151864318
 30
0.0
 10
231.7637101614231
 20
48.75573705086131
 30
0.0
 10
231.7146126748638
 20
48.77223402778259
 30
0.0
 10
231.6639119810437
 20
48.78702769679882
 30
0.0
 10
231.6380915487563
 20
48.79456169486342
 30
0.0
  0
SPLINE
  5
2BE
330
1F
100
AcDbEntity
  8
0
  6
Continuous
 62
     7
370
    25
100
AcDbSpline
210
0.0
220
0.0
230
1.0
 70
     8
 71
     3
 72
    14
 73
    10
 74
     0
 42
0.000000001
 43
0.00000001
 40
0.0
 40
0.0
 40
0.0
 40
0.0
 40
0.0310276388071746
 40
0.0622853718672815
 40
0.1248003166904892
 40
0.2498289731753984
 40
0.499889260361071
 40
0.7606803621682141
 40
1.0
 40
1.0
 40
1.0
 40
1.0
 10
231.0541508594681
 20
49.16866943750929
 30
0.0
 10
231.0601430988725
 20
49.16483839385565
 30
0.0
 10
231.0721720148318
 20
49.15714789635794
 30
0.0
 10
231.0962318228809
 20
49.14171000685126
 30
0.0
 10
231.1384654955272
 20
49.11463955392043
 30
0.0
 10
231.2230280700394
 20
49.06042752912504
 30
0.0
 10
231.3463150395096
 20
48.98142434725901
 30
0.0
 10
231.4924467459636
 20
48.88781817258158
 30
0.0
 10
231.5908133625043
 20
48.82483509618911
 30
0.0
 10
231.6378850631885
 20
48.79469559739999
 30
0.0
  0
LINE
  5
2BF
330
1F
100
AcDbEntity
  8
0
  6
Continuous
 62
     7
370
    25
100
AcDbLine
 10
229.2516507042
 20
50.3313001145
 30
0.0
 11
229.5426180584
 21
50.1432215754
 31
0.0
  0
SPLINE
  5
2C0
330
1F
100
AcDbEntity
  8
0
  6
Continuous
 62
     7
370
    25
100
AcDbSpline
210
0.0
220
0.0
230
1.0
 70
     8
 71
     3
 72
     8
 73
     4
 74
     0
 42
0.000000001
 43
0.00000001
 40
0.0
 40
0.0
 40
0.0
 40
0.0
 40
1.0
 40
1.0
 40
1.0
 40
1.0
 10
229.5740063617633
 20
50.12299904519811
 30
0.0
 10
229.5635638559114
 20
50.12982447009551
 30
0.0
 10
229.5530979230217
 20
50.13656743688204
 30
0.0
 10
229.5426101582051
 20
50.14322652453502
 30
0.0
  0
SPLINE
  5
2C1
330
1F
100
AcDbEntity
  8
0
  6
Continuous
 62
     7
370
    25
100
AcDbSpline
210
0.0
220
0.0
230
1.0
 70
     8
 71
     3
 72
     8
 73
     4
 74
     0
 42
0.000000001
 43
0.00000001
 40
0.0
 40
0.0
 40
0.0
 40
0.0
 40
1.0
 40
1.0
 40
1.0
 40
1.0
 10
226.7880019829395
 20
52.00125469700718
 30
0.0
 10
226.8470017471094
 20
51.96251403008822
 30
0.0
 10
226.90628931062
 20
51.92445205278894
 30
0.0
 10
226.9658703841084
 20
51.88706826432865
 30
0.0
  0
SPLINE
  5
2C2
330
1F
100
AcDbEntity
  8
0
  6
Continuous
 62
     7
370
    25
100
AcDbSpline
210
0.0
220
0.0
230
1.0
 70
     8
 71
     3
 72
     8
 73
     4
 74
     0
 42
0.000000001
 43
0.00000001
 40
0.0
 40
0.0
 40
0.0
 40
0.0
 40
1.0
 40
1.0
 40
1.0
 40
1.0
 10
226.7631522368399
 20
52.3644648749455
 30
0.0
 10
226.7706264489304
 20
52.24350703423367
 30
0.0
 10
226.7789225528206
 20
52.12243519182301
 30
0.0
 10
226.7880019829395
 20
52.00125469700718
 30
0.0
  0
LWPOLYLINE
  5
2C3
330
1F
100
AcDbEntity
  8
0
  6
Continuous
 62
     7
370
    25
100
AcDbPolyline
 90
       16
 70
   128
 43
0.0
 10
226.7631525956
 20
52.3644642095
 10
227.137062972
 20
53.4230444199
 10
227.5850615812
 20
54.4747560217
 10
228.1022593887
 20
55.5081225677
 10
228.6830129974
 20
56.5118686338
 10
229.320985892
 20
57.4750422478
 10
230.0092165986
 20
58.3871325646
 10
230.7401957341
 20
59.2381892516
 10
231.5059470075
 20
60.0189247636
 10
232.2981148059
 20
60.7208196584
 10
233.1080555682
 20
61.3362164103
 10
233.9269314624
 20
61.8583993454
 10
234.7458073565
 20
62.2816703932
 10
235.5557481188
 20
62.6014113404
 10
236.3479159173
 20
62.8141339176
 10
236.7271150646
 20
62.878571901
  0
SPLINE
  5
2C4
330
1F
100
AcDbEntity
  8
0
  6
Continuous
 62
     7
370
    25
100
AcDbSpline
210
0.0
220
0.0
230
1.0
 70
     8
 71
     3
 72
    10
 73
     6
 74
     0
 42
0.000000001
 43
0.00000001
 40
0.0
 40
0.0
 40
0.0
 40
0.0
 40
0.2409818396634726
 40
0.5031433556203718
 40
1.0
 40
1.0
 40
1.0
 40
1.0
 10
232.8138061928786
 20
41.47075613799169
 30
0.0
 10
232.8960520638816
 20
41.41907961607113
 30
0.0
 10
233.067772321226
 20
41.31118476937975
 30
0.0
 10
233.345493680253
 20
41.18146205891551
 30
0.0
 10
233.466470927297
 20
41.20424000002049
 30
0.0
 10
233.5456631682125
 20
41.21915054099923
 30
0.0
  0
LINE
  5
2C5
330
1F
100
AcDbEntity
  8
0
  6
Continuous
 62
     7
370
    25
100
AcDbLine
 10
228.0306321367
 20
51.1998288709
 30
0.0
 11
227.2687534344
 21
51.6904632786
 31
0.0
  0
LINE
  5
2C6
330
1F
100
AcDbEntity
  8
0
  6
Continuous
 62
     7
370
    25
100
AcDbLine
 10
227.2687534344
 20
51.6904632786
 30
0.0
 11
226.7880021141
 21
52.0012546547
 31
0.0
  0
LINE
  5
2C7
330
1F
100
AcDbEntity
  8
0
  6
Continuous
 62
     7
370
    25
100
AcDbLine
 10
231.8679354233
 20
41.1949763371
 30
0.0
 11
232.1738695185
 21
41.8829877781
 31
0.0
  0
LINE
  5
2C8
330
1F
100
AcDbEntity
  8
0
  6
Continuous
 62
     7
370
    25
100
AcDbLine
 10
232.1738695185
 20
41.8829877781
 30
0.0
 11
232.8138061929
 21
41.470756138
 31
0.0
  0
SPLINE
  5
2C9
330
1F
100
AcDbEntity
  8
0
  6
Continuous
 62
     7
370
    25
100
AcDbSpline
210
0.0
220
0.0
230
1.0
 70
     8
 71
     3
 72
    13
 73
     9
 74
     0
 42
0.000000001
 43
0.00000001
 40
0.0
 40
0.0
 40
0.0
 40
0.0
 40
0.172258782378417
 40
0.342139827159501
 40
0.5097456258302661
 40
0.6751828993623331
 40
0.8385626190354498
 40
1.0
 40
1.0
 40
1.0
 40
1.0
 10
231.7877979993875
 20
42.1642974835103
 30
0.0
 10
231.8109495233427
 20
42.14617789257285
 30
0.0
 10
231.8569330040983
 20
42.11018882063153
 30
0.0
 10
231.9244740168176
 20
42.05918883720987
 30
0.0
 10
231.9901336315059
 20
42.0108641570181
 30
0.0
 10
232.0536577027536
 20
41.96543315111228
 30
0.0
 10
232.1150880814674
 20
41.92260758335938
 30
0.0
 10
232.1543542484337
 20
41.89614176618915
 30
0.0
 10
232.1738699301608
 20
41.88298798764529
 30
0.0
  0
SPLINE
  5
2CA
330
1F
100
AcDbEntity
  8
0
  6
Continuous
 62
     7
370
    25
100
AcDbSpline
210
0.0
220
0.0
230
1.0
 70
     8
 71
     3
 72
    11
 73
     7
 74
     0
 42
0.000000001
 43
0.00000001
 40
0.0
 40
0.0
 40
0.0
 40
0.0
 40
0.2392845094479873
 40
0.5001120454076898
 40
0.7515010915036774
 40
1.0
 40
1.0
 40
1.0
 40
1.0
 10
231.6384175879114
 20
42.21161147572318
 30
0.0
 10
231.5913483559069
 20
42.18329695301039
 30
0.0
 10
231.4929722013123
 20
42.1241187224542
 30
0.0
 10
231.3466749797284
 20
42.03093082199428
 30
0.0
 10
231.1988342360846
 20
41.93555890602183
 30
0.0
 10
231.1025477733656
 20
41.87102365075901
 30
0.0
 10
231.0546828855066
 20
41.83894258070118
 30
0.0
  0
SPLINE
  5
2CB
330
1F
100
AcDbEntity
  8
0
  6
Continuous
 62
     7
370
    25
100
AcDbSpline
210
0.0
220
0.0
230
1.0
 70
     8
 71
     3
 72
     9
 73
     5
 74
     0
 42
0.000000001
 43
0.00000001
 40
0.0
 40
0.0
 40
0.0
 40
0.0
 40
0.5090669353869915
 40
1.0
 40
1.0
 40
1.0
 40
1.0
 10
231.6389885914956
 20
42.2109125215114
 30
0.0
 10
231.6646371661196
 20
42.20341981335152
 30
0.0
 10
231.715020667465
 20
42.18870130063927
 30
0.0
 10
231.7638281789604
 20
42.1723089427871
 30
0.0
 10
231.7877894001549
 20
42.1642613923105
 30
0.0
  0
LINE
  5
2CC
330
1F
100
AcDbEntity
  8
0
  6
Continuous
 62
     7
370
    25
100
AcDbLine
 10
233.4689071716
 20
43.1347910888
 30
0.0
 11
231.7877912153
 21
42.1643035046
 31
0.0
  0
LINE
  5
2CD
330
1F
100
AcDbEntity
  8
0
  6
Continuous
 62
     7
370
    25
100
AcDbLine
 10
229.781303564
 20
43.2881248032
 30
0.0
 11
229.5810079105
 21
42.786967389
 31
0.0
  0
SPLINE
  5
2CE
330
1F
100
AcDbEntity
  8
0
  6
Continuous
 62
     7
370
    25
100
AcDbSpline
210
0.0
220
0.0
230
1.0
 70
     8
 71
     3
 72
     8
 73
     4
 74
     0
 42
0.000000001
 43
0.00000001
 40
0.0
 40
0.0
 40
0.0
 40
0.0
 40
1.0
 40
1.0
 40
1.0
 40
1.0
 10
229.7808603933554
 20
43.28890855537276
 30
0.0
 10
229.8070357279246
 20
43.31107593235102
 30
0.0
 10
229.8328567678901
 20
43.33370807344264
 30
0.0
 10
229.8583143215985
 20
43.35679279353392
 30
0.0
  0
LINE
  5
2CF
330
1F
100
AcDbEntity
  8
0
  6
Continuous
 62
     7
370
    25
100
AcDbLine
 10
229.8583144173
 20
43.3567926779
 30
0.0
 11
231.6386071766
 21
42.2110217928
 31
0.0
  0
LINE
  5
2D0
330
1F
100
AcDbEntity
  8
0
  6
Continuous
 62
     7
370
    25
100
AcDbLine
 10
233.468698413
 20
43.232841024
 30
0.0
 11
233.3806990861
 21
43.3403320923
 31
0.0
  0
LINE
  5
2D1
330
1F
100
AcDbEntity
  8
0
  6
Continuous
 62
     7
370
    25
100
AcDbLine
 10
231.5522910894
 20
44.3347045952
 30
0.0
 11
229.8583144173
 21
43.3567926779
 31
0.0
  0
LINE
  5
2D2
330
1F
100
AcDbEntity
  8
0
  6
Continuous
 62
     7
370
    25
100
AcDbLine
 10
231.6949851719
 20
44.3134124335
 30
0.0
 11
231.5527112408
 21
44.3342172178
 31
0.0
  0
LINE
  5
2D3
330
1F
100
AcDbEntity
  8
0
  6
Continuous
 62
     7
370
    25
100
AcDbLine
 10
233.380772843
 20
43.3402279258
 30
0.0
 11
231.6949851719
 21
44.3134124335
 31
0.0
  0
LINE
  5
2D4
330
1F
100
AcDbEntity
  8
0
  6
Continuous
 62
     7
370
    25
100
AcDbLine
 10
233.468698413
 20
43.289463843
 30
0.0
 11
233.3807260864
 21
43.3402548992
 31
0.0
  0
SPLINE
  5
2D5
330
1F
100
AcDbEntity
  8
0
  6
Continuous
 62
     7
370
    25
100
AcDbSpline
210
0.0
220
0.0
230
1.0
 70
     8
 71
     3
 72
    19
 73
    15
 74
     0
 42
0.000000001
 43
0.00000001
 40
0.0
 40
0.0
 40
0.0
 40
0.0
 40
0.0637853009127854
 40
0.1289628367668835
 40
0.1955871994312377
 40
0.2637095015417503
 40
0.3333775579368785
 40
0.404636070956767
 40
0.4775268158870349
 40
0.5520888236349092
 40
0.6283585584292241
 40
0.7063700889344752
 40
0.8377041805690577
 40
0.9999999999999999
 40
0.9999999999999999
 40
0.9999999999999999
 40
0.9999999999999999
 10
228.996791287394
 20
43.45739664272462
 30
0.0
 10
229.0174806563992
 20
43.44403750271431
 30
0.0
 10
229.059310979054
 20
43.41702763417341
 30
0.0
 10
229.1198019526487
 20
43.37950566864687
 30
0.0
 10
229.179286150828
 20
43.34398592755621
 30
0.0
 10
229.2373673102996
 20
43.31100579863971
 30
0.0
 10
229.2938994273869
 20
43.28079936236936
 30
0.0
 10
229.3486444821407
 20
43.25368592240785
 30
0.0
 10
229.401366859733
 20
43.22995430465785
 30
0.0
 10
229.451808492664
 20
43.20991405121318
 30
0.0
 10
229.4996914111294
 20
43.19379418967486
 30
0.0
 10
229.5546555654994
 20
43.17951621999325
 30
0.0
 10
229.6174868794591
 20
43.16937766273854
 30
0.0
 10
229.6559943951171
 20
43.1758519140518
 30
0.0
 10
229.6772783603142
 20
43.17943037756145
 30
0.0
  0
LINE
  5
2D6
330
1F
100
AcDbEntity
  8
0
  6
Continuous
 62
     7
370
    25
100
AcDbLine
 10
229.701914048
 20
43.2055008318
 30
0.0
 11
229.7696269114
 21
43.2771553522
 31
0.0
  0
SPLINE
  5
2D7
330
1F
100
AcDbEntity
  8
0
  6
Continuous
 62
     7
370
    25
100
AcDbSpline
210
0.0
220
0.0
230
1.0
 70
     8
 71
     3
 72
     9
 73
     5
 74
     0
 42
0.000000001
 43
0.00000001
 40
0.0
 40
0.0
 40
0.0
 40
0.0
 40
0.5232016984460688
 40
1.0
 40
1.0
 40
1.0
 40
1.0
 10
231.3861133097084
 20
44.23877237445751
 30
0.0
 10
231.3170891470598
 20
44.26381453957401
 30
0.0
 10
231.1851626589509
 20
44.31167784963373
 30
0.0
 10
230.9437252461322
 20
44.4492759803204
 30
0.0
 10
230.8286082977687
 20
44.51488253532879
 30
0.0
  0
LINE
  5
2D8
330
1F
100
AcDbEntity
  8
0
  6
Continuous
 62
     7
370
    25
100
AcDbLine
 10
227.0991071008
 20
44.280772098
 30
0.0
 11
227.5505782151
 21
44.3930360708
 31
0.0
  0
LINE
  5
2D9
330
1F
100
AcDbEntity
  8
0
  6
Continuous
 62
     7
370
    25
100
AcDbLine
 10
227.5505782151
 20
44.3930360708
 30
0.0
 11
228.9967906869
 21
43.4573967378
 31
0.0
  0
SPLINE
  5
2DA
330
1F
100
AcDbEntity
  8
0
  6
Continuous
 62
     7
370
    25
100
AcDbSpline
210
0.0
220
0.0
230
1.0
 70
     8
 71
     3
 72
     8
 73
     4
 74
     0
 42
0.000000001
 43
0.00000001
 40
0.0
 40
0.0
 40
0.0
 40
0.0
 40
1.0
 40
1.0
 40
1.0
 40
1.0
 10
227.2698956714108
 20
43.8860224449413
 30
0.0
 10
227.2127704024868
 20
44.01780862873694
 30
0.0
 10
227.1558419107692
 20
44.14939285039773
 30
0.0
 10
227.0991077928198
 20
44.28077191729909
 30
0.0
  0
LINE
  5
2DB
330
1F
100
AcDbEntity
  8
0
  6
Continuous
 62
     7
370
    25
100
AcDbLine
 10
228.8882796742
 20
45.1652746856
 30
0.0
 11
227.5505782151
 21
44.3930360708
 31
0.0
  0
LINE
  5
2DC
330
1F
100
AcDbEntity
  8
0
  6
Continuous
 62
     7
370
    25
100
AcDbLine
 10
229.871308159
 20
45.0675212827
 30
0.0
 11
228.8882796742
 21
45.1652746856
 31
0.0
  0
LINE
  5
2DD
330
1F
100
AcDbEntity
  8
0
  6
Continuous
 62
     7
370
    25
100
AcDbLine
 10
230.8286082978
 20
44.5148825353
 30
0.0
 11
229.8713071712
 21
45.0675207125
 31
0.0
  0
SPLINE
  5
2DE
330
1F
100
AcDbEntity
  8
0
  6
Continuous
 62
     7
370
    25
100
AcDbSpline
210
0.0
220
0.0
230
1.0
 70
     8
 71
     3
 72
     8
 73
     4
 74
     0
 42
0.000000001
 43
0.00000001
 40
0.0
 40
0.0
 40
0.0
 40
0.0
 40
1.0
 40
1.0
 40
1.0
 40
1.0
 10
227.099107792822
 20
44.28077191729399
 30
0.0
 10
227.0959704550718
 20
44.3159882241665
 30
0.0
 10
227.0939780511739
 20
44.35163248039419
 30
0.0
 10
227.0931966538018
 20
44.38772938238908
 30
0.0
  0
LINE
  5
2DF
330
1F
100
AcDbEntity
  8
0
  6
Continuous
 62
     7
370
    25
100
AcDbLine
 10
227.9042831289
 20
44.8559590971
 30
0.0
 11
227.0931973223
 21
44.3877292275
 31
0.0
  0
SPLINE
  5
2E0
330
1F
100
AcDbEntity
  8
0
  6
Continuous
 62
     7
370
    25
100
AcDbSpline
210
0.0
220
0.0
230
1.0
 70
     8
 71
     3
 72
     8
 73
     4
 74
     0
 42
0.000000001
 43
0.00000001
 40
0.0000004089325119
 40
0.0000004089325119
 40
0.0000004089325119
 40
0.0000004089325119
 40
0.0015399868451459
 40
0.0015399868451459
 40
0.0015399868451459
 40
0.0015399868451459
 10
227.9042821862906
 20
44.85595909374518
 30
0.0
 10
228.1427587543138
 20
44.95033547956155
 30
0.0
 10
228.3812057119825
 20
45.04476409149175
 30
0.0
 10
228.6196144508328
 20
45.1392574744542
 30
0.0
  0
LINE
  5
2E1
330
1F
100
AcDbEntity
  8
0
  6
Continuous
 62
     7
370
    25
100
AcDbLine
 10
228.6196139298
 20
45.1392576216
 30
0.0
 11
228.6440103696
 21
45.144251648
 31
0.0
  0
LINE
  5
2E2
330
1F
100
AcDbEntity
  8
0
  6
Continuous
 62
     7
370
    25
100
AcDbLine
 10
228.8882796742
 20
45.1652746856
 30
0.0
 11
228.6440110282
 21
45.1442516479
 31
0.0
  0
SPLINE
  5
2E3
330
1F
100
AcDbEntity
  8
0
  6
Continuous
 62
     7
370
    25
100
AcDbSpline
210
0.0
220
0.0
230
1.0
 70
     8
 71
     3
 72
     8
 73
     4
 74
     0
 42
0.000000001
 43
0.00000001
 40
0.0
 40
0.0
 40
0.0
 40
0.0
 40
1.0
 40
1.0
 40
1.0
 40
1.0
 10
229.8713063653409
 20
45.06752146704117
 30
0.0
 10
229.9019143994641
 20
45.05258145923506
 30
0.0
 10
229.932465900436
 20
45.03770450184167
 30
0.0
 10
229.9629598385506
 20
45.02289093816076
 30
0.0
  0
LWPOLYLINE
  5
2E4
330
1F
100
AcDbEntity
  8
0
  6
Continuous
 62
     7
370
    25
100
AcDbPolyline
 90
        3
 70
   128
 43
0.0
 10
233.5110794976
 20
44.5559713964
 10
233.0365498177
 20
44.3580090906
 10
232.2996951481
 20
44.1319667587
  0
LWPOLYLINE
  5
2E5
330
1F
100
AcDbEntity
  8
0
  6
Continuous
 62
     7
370
    18
100
AcDbPolyline
 90
       19
 70
   128
 43
0.0
 10
271.3901073825
 20
26.2088413803
 10
271.4318956535
 20
26.9230503281
 10
271.5564468348
 20
27.6716055162
 10
271.7613368241
 20
28.4399373685
 10
272.0425774759
 20
29.2130910909
 10
272.3946949682
 20
29.9760179218
 10
272.8108358282
 20
30.7138687551
 10
273.2828999586
 20
31.4122820586
 10
273.801699511
 20
32.0576634241
 10
274.3571365285
 20
32.6374521879
 10
274.9384000153
 20
33.1403627644
 10
275.5341764442
 20
33.5566069306
 10
276.1328696491
 20
33.8780827457
 10
276.7228267054
 20
34.0985330855
 10
277.2925649224
 20
34.213667177
 10
277.8309946988
 20
34.2212440022
 10
278.3276363688
 20
34.1211161116
 10
278.7728233221
 20
33.915232433
 10
278.8843402613
 20
33.8410652401
  0
ARC
  5
2E6
330
1F
100
AcDbEntity
  8
0
  6
Continuous
 62
     7
370
    18
100
AcDbCircle
 10
274.3393431777
 20
25.8882003257
 30
0.0
 40
2.966614646699115
100
AcDbArc
 50
173.7951706956
 51
239.2316749604
  0
LWPOLYLINE
  5
2E7
330
1F
100
AcDbEntity
  8
0
  6
Continuous
 62
     7
370
    18
100
AcDbPolyline
 90
       42
 70
   128
 43
0.0
 10
272.7466616537
 20
26.2396107913
 10
272.7887228914
 20
26.896538369
 10
272.9139217513
 20
27.5866316283
 10
273.1193231004
 20
28.2937149909
 10
273.4001126492
 20
29.0012149524
 10
273.7497089038
 20
29.6925486211
 10
274.1599177595
 20
30.3515115869
 10
274.6211239727
 20
30.9626583248
 10
275.1225175352
 20
31.5116636789
 10
275.6523461441
 20
31.9856602463
 10
276.1981909875
 20
32.3735373205
 10
276.7472580069
 20
32.6662037106
 10
277.2866774522
 20
32.8567990745
 10
277.8038058656
 20
32.9408564632
 10
278.2865222827
 20
32.9164060131
 10
278.7235120033
 20
32.7840197509
 10
279.1045325201
 20
32.5468016114
 10
279.4206529817
 20
32.2103114165
 10
279.66446361
 20
31.7824361466
 10
279.8302502142
 20
31.2732051326
 10
279.9141263941
 20
30.6945540854
 10
279.9141263941
 20
30.06004614
 10
279.8302502142
 20
29.3845537169
 10
279.66446361
 20
28.6839095639
 10
279.4206529817
 20
27.9745365345
 10
279.1045325201
 20
27.2730614235
 10
278.7235120033
 20
26.5959263592
 10
278.2865222827
 20
25.959002505
 10
277.8038058656
 20
25.3772195429
 10
277.2866774522
 20
24.8642131743
 10
276.7472580069
 20
24.4320081034
 10
276.1981909875
 20
24.0907352067
 10
275.6523461441
 20
23.8483932392
 10
275.1225175352
 20
23.7106627158
 10
274.6211239727
 20
23.6807713847
 10
274.1599177595
 20
23.7594207634
 10
273.7497089038
 20
23.9447666656
 10
273.4001126492
 20
24.2324650904
 10
273.1193231004
 20
24.6157723396
 10
272.9139217513
 20
25.0857043523
 10
272.7887228914
 20
25.6312460849
 10
272.7466616537
 20
26.2396107913
  0
LWPOLYLINE
  5
2E8
330
1F
100
AcDbEntity
  8
0
  6
Continuous
 62
     7
370
    18
100
AcDbPolyline
 90
       35
 70
   128
 43
0.0
 10
273.8478122791
 20
26.8752915165
 10
273.8901726607
 20
27.4276348386
 10
274.015811099
 20
28.0100769773
 10
274.2204491951
 20
28.6027834656
 10
274.4971182309
 20
29.1855705613
 10
274.8363965747
 20
29.7385921124
 10
275.2267305572
 20
30.2430154843
 10
275.6548277456
 20
30.6816632337
 10
276.1061098371
 20
31.039597756
 10
276.5652089959
 20
31.304630059
 10
277.0164910874
 20
31.467734749
 10
277.4445882757
 20
31.5233574923
 10
277.8349222582
 20
31.4696041439
 10
278.1742006021
 20
31.3083050305
 10
278.4508696379
 20
31.0449532042
 10
278.655507734
 20
30.6885168325
 10
278.7811461723
 20
30.251133747
 10
278.8235065538
 20
29.7476986804
 10
278.7811461723
 20
29.1953553582
 10
278.655507734
 20
28.6129132195
 10
278.4508696379
 20
28.0202067312
 10
278.1742006021
 20
27.4374196356
 10
277.8349222582
 20
26.8843980844
 10
277.4445882757
 20
26.3799747126
 10
277.0164910874
 20
25.9413269631
 10
276.5652089959
 20
25.5833924409
 10
276.1061098371
 20
25.3183601379
 10
275.6548277456
 20
25.1552554479
 10
275.2267305572
 20
25.0996327045
 10
274.8363965747
 20
25.1533860529
 10
274.4971182309
 20
25.3146851663
 10
274.2204491951
 20
25.5780369926
 10
274.015811099
 20
25.9344733644
 10
273.8901726607
 20
26.3718564499
 10
273.8478122791
 20
26.8752915165
  0
LWPOLYLINE
  5
2E9
330
1F
100
AcDbEntity
  8
0
  6
Continuous
 62
     7
370
    18
100
AcDbPolyline
 90
       20
 70
   128
 43
0.0
 10
277.609693945
 20
31.3250164726
 10
277.7047690034
 20
31.2897657999
 10
278.008316204
 20
31.0973797497
 10
278.2461294675
 20
30.8073524399
 10
278.4096138001
 20
30.4301662795
 10
278.4928602467
 20
29.9794536432
 10
278.4928602467
 20
29.4715045463
 10
278.4096138001
 20
28.9246776086
 10
278.2461294675
 20
28.3587364556
 10
278.008316204
 20
27.7941357962
 10
277.7047690034
 20
27.2512816081
 10
277.3464591348
 20
26.749794468
 10
276.9463365468
 20
26.3077989837
 10
276.5188628972
 20
25.9412699949
 10
276.0794881239
 20
25.6634553056
 10
275.6440924
 20
25.4843953562
 10
275.2284120683
 20
25.4105619736
 10
274.8474709061
 20
25.4446239652
 10
274.5150370623
 20
25.5853499664
 10
274.3623872685
 20
25.7018828895
  0
LWPOLYLINE
  5
2EA
330
1F
100
AcDbEntity
  8
0
  6
Continuous
 62
     7
370
    18
100
AcDbPolyline
 90
       28
 70
   128
 43
0.0
 10
247.6978353527
 20
37.0878822184
 10
247.7386058432
 20
37.9647674872
 10
247.8604234063
 20
38.8780815899
 10
248.0618082924
 20
39.8167377817
 10
248.3403173016
 20
40.7693425615
 10
248.6925688076
 20
41.7243326481
 10
249.1142868811
 20
42.6701149956
 10
249.6003526555
 20
43.5952093761
 10
250.1448662307
 20
44.488386968
 10
250.7412174661
 20
45.338804761
 10
251.3821676404
 20
46.1361412913
 10
252.059936709
 20
46.8707162161
 10
252.7662973105
 20
47.5336141652
 10
253.4926750309
 20
48.1167878693
 10
254.2302528647
 20
48.613158769
 10
254.9700774877
 20
49.0167011786
 10
255.7031684931
 20
49.3225167537
 10
256.4206271337
 20
49.5268934642
 10
257.1137444051
 20
49.6273504993
 10
257.7741066606
 20
49.622668058
 10
258.3936982609
 20
49.5129032617
 10
258.9649981339
 20
49.2993884818
 10
259.4810714767
 20
48.984715456
 10
259.9356538846
 20
48.5727040071
 10
260.3232274131
 20
48.0683554568
 10
260.6390870911
 20
47.4777914024
 10
260.8793985432
 20
46.8081807071
 10
260.9769704731
 20
46.4152318206
  0
LWPOLYLINE
  5
2EB
330
1F
100
AcDbEntity
  8
0
  6
Continuous
 62
     7
370
    18
100
AcDbPolyline
 90
       14
 70
   128
 43
0.0
 10
252.9776204565
 20
32.5584496709
 10
252.7662973105
 20
32.4940718864
 10
252.059936709
 20
32.3414232444
 10
251.3821676404
 20
32.2934626594
 10
250.7412174661
 20
32.3507738703
 10
250.1448662307
 20
32.5126591828
 10
249.6003526555
 20
32.7771547827
 10
249.1142868811
 20
33.1410495655
 10
248.6925688076
 20
33.5999265894
 10
248.3403173016
 20
34.1482157439
 10
248.0618082924
 20
34.7792608664
 10
247.8604234063
 20
35.4854030178
 10
247.7386058432
 20
36.2580695559
 10
247.6978353527
 20
37.0878822184
  0
LWPOLYLINE
  5
2EC
330
1F
100
AcDbEntity
  8
0
  6
Continuous
 62
     7
370
    18
100
AcDbPolyline
 90
       29
 70
   128
 43
0.0
 10
236.9940064791
 20
38.1747252184
 10
237.0352010723
 20
39.3031807925
 10
237.1584786286
 20
40.4708430741
 10
237.3629270638
 20
41.6690677771
 10
237.6470330427
 20
42.8889836735
 10
238.0086925156
 20
44.1215585627
 10
238.4452278405
 20
45.357666761
 10
238.9534075395
 20
46.5881571614
 10
239.5294693479
 20
47.8039197712
 10
240.1691478728
 20
48.9959522509
 10
240.8677068622
 20
50.1554306334
 10
241.619974766
 20
51.2737693978
 10
242.4203829319
 20
52.342689907
 10
243.26300413
 20
53.3542768689
 10
244.1416002975
 20
54.3010424007
 10
245.049666661
 20
55.1759758349
 10
245.9804803043
 20
55.9725991339
 10
246.9271498883
 20
56.6850161248
 10
247.8826663387
 20
57.3079508867
 10
248.8399554674
 20
57.8367918165
 10
249.7919299567
 20
58.2676239202
 10
250.7315414253
 20
58.5972565885
 10
251.651833503
 20
58.8232496734
 10
252.5459927236
 20
58.9439307009
 10
253.4073992331
 20
58.9584058926
 10
254.2296750279
 20
58.8665674812
 10
255.0067325226
 20
58.6690958915
 10
255.7328186724
 20
58.3674525128
 10
255.9902101348
 20
58.2282807623
  0
LWPOLYLINE
  5
2ED
330
1F
100
AcDbEntity
  8
0
  6
Continuous
 62
     7
370
    18
100
AcDbPolyline
 90
       11
 70
   128
 43
0.0
 10
240.2539888203
 20
30.9693923684
 10
240.1691478728
 20
31.0194384073
 10
239.5294693479
 20
31.4729137828
 10
238.9534075395
 20
32.0235695859
 10
238.4452278405
 20
32.6673281946
 10
238.0086925156
 20
33.3994234351
 10
237.6470330427
 20
34.214435185
 10
237.3629270638
 20
35.1063293002
 10
237.1584786286
 20
36.0685028644
 10
237.0352010723
 20
37.0938319092
 10
236.9940064791
 20
38.1747252184
  0
LWPOLYLINE
  5
2EE
330
1F
100
AcDbEntity
  8
0
  6
Continuous
 62
     7
370
    18
100
AcDbPolyline
 90
       14
 70
   128
 43
0.0
 10
241.6180879176
 20
34.8390885907
 10
241.5448011335
 20
35.2285127344
 10
241.4287142247
 20
36.2027510211
 10
241.3962901273
 20
37.2332125908
 10
241.4478047715
 20
38.3111121582
 10
241.5828182494
 20
39.4272599626
 10
241.800181401
 20
40.5721415447
 10
242.0980391063
 20
41.7359955869
 10
242.4738533349
 20
42.9089005678
 10
242.9244196091
 20
44.0808570815
 10
243.4458972973
 20
45.2418733861
 10
244.0338399072
 20
46.3820520942
 10
244.6832359148
 20
47.4916738194
 10
245.3885489367
 20
48.5612770219
  0
LWPOLYLINE
  5
2EF
330
1F
100
AcDbEntity
  8
0
  6
Continuous
 62
     7
370
    18
100
AcDbPolyline
 90
       18
 70
   128
 43
0.0
 10
242.1298836845
 20
31.9091608897
 10
241.8800200444
 20
32.2769997032
 10
241.4817803997
 20
33.0174803966
 10
241.1617277689
 20
33.8409472514
 10
240.9225213545
 20
34.7405549013
 10
240.7661499611
 20
35.7088264789
 10
240.6939135555
 20
36.7377144773
 10
240.7064120717
 20
37.8186666985
 10
240.8035414597
 20
38.9426986396
 10
240.9844950025
 20
40.1004679708
 10
241.2477679259
 20
41.2823514606
 10
241.591172545
 20
42.4785258448
 10
242.011854728
 20
43.6790489092
 10
242.506318262
 20
44.8739433286
 10
243.0704518537
 20
46.0532751818
 10
243.6995679833
 20
47.2072448232
 10
244.3884371487
 20
48.3262591241
 10
245.1313339642
 20
49.4010189209
  0
LWPOLYLINE
  5
2F0
330
1F
100
AcDbEntity
  8
0
  6
Continuous
 62
     7
370
    18
100
AcDbPolyline
 90
        8
 70
   128
 43
0.0
 10
249.8191553854
 20
37.0878818382
 10
249.8604006865
 20
36.3243073027
 10
249.9835336922
 20
35.6194873817
 10
250.1867592103
 20
34.9837001375
 10
250.4671141197
 20
34.4262168888
 10
250.8205101761
 20
33.9551672724
 10
251.2417936102
 20
33.5774195123
 10
251.4763348953
 20
33.4251235559
  0
LWPOLYLINE
  5
2F1
330
1F
100
AcDbEntity
  8
0
  6
Continuous
 62
     7
370
    18
100
AcDbPolyline
 90
       21
 70
   128
 43
0.0
 10
259.4756849119
 20
47.2819053253
 10
259.2271982883
 20
47.4085460932
 10
258.689469368
 20
47.5846043554
 10
258.1048812192
 20
47.6552175227
 10
257.4819580422
 20
47.6193551286
 10
256.8297837176
 20
47.4775402322
 10
256.1578683277
 20
47.2318411843
 10
255.4760099036
 20
46.885841246
 10
254.7941514795
 20
46.444584205
 10
254.1222360896
 20
45.9145062566
 10
253.4700617649
 20
45.3033367056
 10
252.8471385879
 20
44.6199873083
 10
252.2625504392
 20
43.8744230312
 10
251.7248215188
 20
43.0775161728
 10
251.2417936102
 20
42.240887296
 10
250.8205101761
 20
41.3767360363
 10
250.4671141197
 20
40.4976640182
 10
250.1867592103
 20
39.616489881
 10
249.9835336922
 20
38.7460634481
 10
249.8604006865
 20
37.8990771848
 10
249.8191553854
 20
37.0878818382
  0
LINE
  5
2F2
330
1F
100
AcDbEntity
  8
0
  6
Continuous
 62
     7
370
    18
100
AcDbLine
 10
248.1232574098
 20
50.8020394883
 30
0.0
 11
248.1664170997
 21
50.8472662503
 31
0.0
  0
ARC
  5
2F3
330
1F
100
AcDbEntity
  8
0
  6
Continuous
 62
     7
370
    18
100
AcDbCircle
 10
258.2904972013
 20
41.5082500557
 30
0.0
 40
14.48276781207023
100
AcDbArc
 50
110.0665409331
 51
139.2901057068
  0
LWPOLYLINE
  5
2F4
330
1F
100
AcDbEntity
  8
0
  6
Continuous
 62
     7
370
    18
100
AcDbPolyline
 90
       12
 70
   128
 43
0.0
 10
246.4755270258
 20
51.0731824381
 10
247.3436095302
 20
51.9995544824
 10
248.2419893625
 20
52.8490281477
 10
249.1629888817
 20
53.6143415437
 10
250.098736752
 20
54.288955951
 10
251.0412355061
 20
54.8671047101
 10
251.9824303009
 20
55.3438466017
 10
252.9142772005
 20
55.7151075471
 10
253.8288122821
 20
55.9777144186
 10
254.7182194455
 20
56.1294235384
 10
255.5748972762
 20
56.1689372244
 10
256.1144905361
 20
56.1338355272
  0
LINE
  5
2F5
330
1F
100
AcDbEntity
  8
0
  6
Continuous
 62
     7
370
    18
100
AcDbLine
 10
232.5076422657
 20
48.5473328172
 30
0.0
 11
232.8138061929
 21
48.1765977612
 31
0.0
  0
LINE
  5
2F6
330
1F
100
AcDbEntity
  8
0
  6
Continuous
 62
     7
370
    18
100
AcDbLine
 10
232.5076422657
 20
40.7832226694
 30
0.0
 11
232.8138061929
 21
41.470756138
 31
0.0
  0
LINE
  5
2F7
330
1F
100
AcDbEntity
  8
0
  6
Continuous
 62
     7
370
    18
100
AcDbLine
 10
233.5497165097
 20
41.8955881211
 30
0.0
 11
232.8138134369
 21
41.4707603199
 31
0.0
  0
LINE
  5
2F8
330
1F
100
AcDbEntity
  8
0
  6
Continuous
 62
     7
370
    18
100
AcDbLine
 10
233.4831409526
 20
42.6388140888
 30
0.0
 11
232.1738695185
 21
41.8829877781
 31
0.0
  0
LINE
  5
2F9
330
1F
100
AcDbEntity
  8
0
  6
Continuous
 62
     7
370
    18
100
AcDbLine
 10
228.9967906869
 20
43.4573967378
 30
0.0
 11
228.7003034127
 21
42.9613351199
 31
0.0
  0
LINE
  5
2FA
330
1F
100
AcDbEntity
  8
0
  6
Continuous
 62
     7
370
    18
100
AcDbLine
 10
230.8286082978
 20
44.5148825353
 30
0.0
 11
228.996851273
 21
43.4574317134
 31
0.0
  0
LINE
  5
2FB
330
1F
100
AcDbEntity
  8
0
  6
Continuous
 62
     7
370
    18
100
AcDbLine
 10
230.8286082978
 20
44.5148825353
 30
0.0
 11
230.9499184523
 21
44.453132022
 31
0.0
  0
OLE2FRAME
  5
2FC
330
1F
100
AcDbEntity
  8
0
100
AcDbOle2Frame
 70
     2
  3
Paintbrush-Bild
 10
13.8511154363
 20
38.264191557
 30
0.0
 11
51.6290888628
 21
31.9806341108
 31
0.0
 71
     2
 72
     0
 73
     1
 90
    12928
310
80552BED0767C5B32B40DDAF6807D121434000000000000000006FFBDDFB85D0
310
4940DDAF6807D121434000000000000000006FFBDDFB85D04940416F4BD60AFB
310
3F4000000000000000002BED0767C5B32B40416F4BD60AFB3F40000000000000
310
0000000000000100000000010000010000000100000000000100000000320000
310
D0CF11E0A1B11AE1000000000000000000000000000000003E000300FEFF0900
310
0600000000000000000000000100000001000000000000000010000002000000
310
01000000FEFFFFFF0000000000000000FFFFFFFFFFFFFFFFFFFFFFFFFFFFFFFF
310
FFFFFFFFFFFFFFFFFFFFFFFFFFFFFFFFFFFFFFFFFFFFFFFFFFFFFFFFFFFFFFFF
310
FFFFFFFFFFFFFFFFFFFFFFFFFFFFFFFFFFFFFFFFFFFFFFFFFFFFFFFFFFFFFFFF
310
FFFFFFFFFFFFFFFFFFFFFFFFFFFFFFFFFFFFFFFFFFFFFFFFFFFFFFFFFFFFFFFF
310
FFFFFFFFFFFFFFFFFFFFFFFFFFFFFFFFFFFFFFFFFFFFFFFFFFFFFFFFFFFFFFFF
310
FFFFFFFFFFFFFFFFFFFFFFFFFFFFFFFFFFFFFFFFFFFFFFFFFFFFFFFFFFFFFFFF
310
FFFFFFFFFFFFFFFFFFFFFFFFFFFFFFFFFFFFFFFFFFFFFFFFFFFFFFFFFFFFFFFF
310
FFFFFFFFFFFFFFFFFFFFFFFFFFFFFFFFFFFFFFFFFFFFFFFFFFFFFFFFFFFFFFFF
310
FFFFFFFFFFFFFFFFFFFFFFFFFFFFFFFFFFFFFFFFFFFFFFFFFFFFFFFFFFFFFFFF
310
FFFFFFFFFFFFFFFFFFFFFFFFFFFFFFFFFFFFFFFFFFFFFFFFFFFFFFFFFFFFFFFF
310
FFFFFFFFFFFFFFFFFFFFFFFFFFFFFFFFFFFFFFFFFFFFFFFFFFFFFFFFFFFFFFFF
310
FFFFFFFFFFFFFFFFFFFFFFFFFFFFFFFFFFFFFFFFFFFFFFFFFFFFFFFFFFFFFFFF
310
FFFFFFFFFFFFFFFFFFFFFFFFFFFFFFFFFFFFFFFFFFFFFFFFFFFFFFFFFFFFFFFF
310
FFFFFFFFFFFFFFFFFFFFFFFFFFFFFFFFFFFFFFFFFFFFFFFFFFFFFFFFFFFFFFFF
310
FDFFFFFFFEFFFFFFFEFFFFFFFEFFFFFF05000000060000000700000008000000
310
090000000A0000000B0000000C0000000D0000000E0000000F00000010000000
310
11000000120000001300000014000000150000001600000017000000FEFFFFFF
310
FFFFFFFFFFFFFFFFFFFFFFFFFFFFFFFFFFFFFFFFFFFFFFFFFFFFFFFFFFFFFFFF
310
FFFFFFFFFFFFFFFFFFFFFFFFFFFFFFFFFFFFFFFFFFFFFFFFFFFFFFFFFFFFFFFF
310
FFFFFFFFFFFFFFFFFFFFFFFFFFFFFFFFFFFFFFFFFFFFFFFFFFFFFFFFFFFFFFFF
310
FFFFFFFFFFFFFFFFFFFFFFFFFFFFFFFFFFFFFFFFFFFFFFFFFFFFFFFFFFFFFFFF
310
FFFFFFFFFFFFFFFFFFFFFFFFFFFFFFFFFFFFFFFFFFFFFFFFFFFFFFFFFFFFFFFF
310
FFFFFFFFFFFFFFFFFFFFFFFFFFFFFFFFFFFFFFFFFFFFFFFFFFFFFFFFFFFFFFFF
310
FFFFFFFFFFFFFFFFFFFFFFFFFFFFFFFFFFFFFFFFFFFFFFFFFFFFFFFFFFFFFFFF
310
FFFFFFFFFFFFFFFFFFFFFFFFFFFFFFFFFFFFFFFFFFFFFFFFFFFFFFFFFFFFFFFF
310
FFFFFFFFFFFFFFFFFFFFFFFFFFFFFFFFFFFFFFFFFFFFFFFFFFFFFFFFFFFFFFFF
310
FFFFFFFFFFFFFFFFFFFFFFFFFFFFFFFFFFFFFFFFFFFFFFFFFFFFFFFFFFFFFFFF
310
FFFFFFFFFFFFFFFFFFFFFFFFFFFFFFFFFFFFFFFFFFFFFFFFFFFFFFFFFFFFFFFF
310
FFFFFFFFFFFFFFFFFFFFFFFFFFFFFFFFFFFFFFFFFFFFFFFFFFFFFFFFFFFFFFFF
310
FFFFFFFFFFFFFFFFFFFFFFFFFFFFFFFFFFFFFFFFFFFFFFFFFFFFFFFFFFFFFFFF
310
52006F006F007400200045006E00740072007900000000000000000000000000
310
0000000000000000000000000000000000000000000000000000000000000000
310
16000500FFFFFFFFFFFFFFFF020000000A00030000000000C000000000000046
310
00000000000000000000000040DCA406A9A5D30103000000C000000000000000
310
01004F006C006500000000000000000000000000000000000000000000000000
310
0000000000000000000000000000000000000000000000000000000000000000
310
0A000200FFFFFFFFFFFFFFFFFFFFFFFF00000000000000000000000000000000
310
0000000000000000000000000000000000000000000000001400000000000000
310
010043006F006D0070004F0062006A0000000000000000000000000000000000
310
0000000000000000000000000000000000000000000000000000000000000000
310
120002010100000003000000FFFFFFFF00000000000000000000000000000000
310
0000000000000000000000000000000000000000010000004D00000000000000
310
01004F006C006500310030004E00610074006900760065000000000000000000
310
0000000000000000000000000000000000000000000000000000000000000000
310
1A000200FFFFFFFFFFFFFFFFFFFFFFFF00000000000000000000000000000000
310
0000000000000000000000000000000000000000040000002426000000000000
310
FEFFFFFF02000000FEFFFFFFFFFFFFFFFFFFFFFFFFFFFFFFFFFFFFFFFFFFFFFF
310
FFFFFFFFFFFFFFFFFFFFFFFFFFFFFFFFFFFFFFFFFFFFFFFFFFFFFFFFFFFFFFFF
310
FFFFFFFFFFFFFFFFFFFFFFFFFFFFFFFFFFFFFFFFFFFFFFFFFFFFFFFFFFFFFFFF
310
FFFFFFFFFFFFFFFFFFFFFFFFFFFFFFFFFFFFFFFFFFFFFFFFFFFFFFFFFFFFFFFF
310
FFFFFFFFFFFFFFFFFFFFFFFFFFFFFFFFFFFFFFFFFFFFFFFFFFFFFFFFFFFFFFFF
310
FFFFFFFFFFFFFFFFFFFFFFFFFFFFFFFFFFFFFFFFFFFFFFFFFFFFFFFFFFFFFFFF
310
FFFFFFFFFFFFFFFFFFFFFFFFFFFFFFFFFFFFFFFFFFFFFFFFFFFFFFFFFFFFFFFF
310
FFFFFFFFFFFFFFFFFFFFFFFFFFFFFFFFFFFFFFFFFFFFFFFFFFFFFFFFFFFFFFFF
310
FFFFFFFFFFFFFFFFFFFFFFFFFFFFFFFFFFFFFFFFFFFFFFFFFFFFFFFFFFFFFFFF
310
FFFFFFFFFFFFFFFFFFFFFFFFFFFFFFFFFFFFFFFFFFFFFFFFFFFFFFFFFFFFFFFF
310
FFFFFFFFFFFFFFFFFFFFFFFFFFFFFFFFFFFFFFFFFFFFFFFFFFFFFFFFFFFFFFFF
310
FFFFFFFFFFFFFFFFFFFFFFFFFFFFFFFFFFFFFFFFFFFFFFFFFFFFFFFFFFFFFFFF
310
FFFFFFFFFFFFFFFFFFFFFFFFFFFFFFFFFFFFFFFFFFFFFFFFFFFFFFFFFFFFFFFF
310
FFFFFFFFFFFFFFFFFFFFFFFFFFFFFFFFFFFFFFFFFFFFFFFFFFFFFFFFFFFFFFFF
310
FFFFFFFFFFFFFFFFFFFFFFFFFFFFFFFFFFFFFFFFFFFFFFFFFFFFFFFFFFFFFFFF
310
FFFFFFFFFFFFFFFFFFFFFFFFFFFFFFFFFFFFFFFFFFFFFFFFFFFFFFFFFFFFFFFF
310
0100000200000000000000000000000000000000000000000000000000000000
310
0000000000000000000000000000000000000000000000000000000000000000
310
0100FEFF030A0000FFFFFFFF0A00030000000000C00000000000004607000000
310
5042727573680007000000504272757368000700000050427275736800F439B2
310
7100000000000000000000000000000000000000000000000000000000000000
310
0000000000000000000000000000000000000000000000000000000000000000
310
0000000000000000000000000000000000000000000000000000000000000000
310
0000000000000000000000000000000000000000000000000000000000000000
310
0000000000000000000000000000000000000000000000000000000000000000
310
0000000000000000000000000000000000000000000000000000000000000000
310
0000000000000000000000000000000000000000000000000000000000000000
310
0000000000000000000000000000000000000000000000000000000000000000
310
0000000000000000000000000000000000000000000000000000000000000000
310
0000000000000000000000000000000000000000000000000000000000000000
310
0000000000000000000000000000000000000000000000000000000000000000
310
0000000000000000000000000000000000000000000000000000000000000000
310
20260000424D0E260000000000003E00000028000000B40200006E0000000100
310
01000000000000000000130B0000130B00000200000002000000000000FFFFFF
310
FFFFFFFFFFFFFFFFFFFFFFFFFFFFFFFFFFFFFFFFFFFFFFFFFFFFFFFFFFFFFFFF
310
FFFFFFFFFFFFFFFFFFFFFFFFFFFFFFFFFFFFFFFFFFFFFFFFFFFFFFFFFFFFFFFF
310
FFFFFFFFFFFFFFFFFFFFFFFFFFFFFFFFFFFFFFFFFFFFFFFFF000FFFFFFFFFFFF
310
FFFFFFFFFFFFFFFFFFFFFFFFFFFFFFFFFFFFFFFFFFFFFFFFFFFFFFFFFFFFFFFF
310
FFFFFFFFFFFFFFFFFFFFFFFFFFFFFFFFFFFFFFFFFFFFFFFFFFFFFFFFFFFFFFFF
310
FFFFFFFFFFFFFFFFFFFFFFFFFFFFFFFFF000FFFFFFFFFFFFFFFFFFFFFFFFFFFF
310
FFFFFFFFFFFFFFFFFFFFFFFFFFFFFFFFFFFFFFFFFFFFFFFFFFFFFFFFFFFFFFFF
310
FFFFFFFFFFFFFFFFFFFFFFFFFFFFFFFFFFFFFFFFFFFFFFFFFFFFFFFFFFFFFFFF
310
FFFFFFFFFFFFFFFFF000FFFFFFFFFFFFFFFFFFFFFFFFFFFFFFFFFFFFFFFFFFFF
310
FFFFFFFFFFFFFFFFFFFFFFFFFFFFFFFFFFFFFFFFFFFFFFFFFFFFFFFFFFFFFFFF
310
FFFFFFFFFFFFFFFFFFFFFFFFFFFFFFFFFFFFFFFFFFFFFFFFFFFFFFFFFFFFFFFF
310
F000FFFFFFFFFFFFFFFFFFFFFFFFFFFFFFFFFFFFFFFFFFFFFFFFFFFFFFFFFFFF
310
FFFFFFFFFFFFFFFFFFFFFFFFFFFFFFFFFFFFFFFFFFFFFFFFFFFFFFFFFFFFFFFF
310
FFFFFFFFFFFFFFFFFFFFFFFFFFFFFFFFFFFFFFFFFFFFFFFFF000FFFFFFFFFFFF
310
FFFFFFFFFFFFFFFFFFFFFFFFFFFFFFFFFFFFFFFFFFFFFFFFFFFFFFFFFFFFFFFF
310
FFFFFFFFFFFFFFFFFFFFFFFFFFFFFFFFFFFFFFFFFFFFFFFFFFFFFFFFFFFFFFFF
310
FFFFFFFFFFFFFFFFFFFFFFFFFFFFFFFFF000FFFFFFFFFFFFFFFFFFFFFFFFFFFF
310
FFFFFFFFFFFFFFFFFFFFFFFFFFFFFFFFFFFFFFFFFFFFFFFFFFFFFFFFFFFFFFFF
310
FFFFFFFFFFFFFFFFFFFFFFFFFFFFFFFFFFFFFFFFFFFFFFFFFFFFFFFFFFFFFFFF
310
FFFFFFFFFFFFFFFFF000FFFFFFFFFFFFFFFFFFFFFFFFFFFFFFFFFFFFFFFFFFFF
310
FFFFFFFFFFFFFFFFFFFFFFFFFFFFFFFFFFFFFFFFFFFFFFFFFFFFFFFFFFFFFFFF
310
FFFFFFFFFFFFFFFFFFFFFFFFFFFFFFFFFFFFFFFFFFFFFFFFFFFFFFFFFFFFFFFF
310
F000FFFFFFFFFFFFFFFFFFFFFFFFFFFFFFFFFFFFFFFFFFFFFFFFFFFFFFFFFFFF
310
FFFFFFFFFFFFFFFFFFFFFFFFFFFFFFFFFFFFFFFFFFFFFFFFFFFFFFFFFFFFFFFF
310
FFFFFFFFFFFFFFFFFFFFFFFFFFFFFFFFFFFFFFFFFFFFFFFFF000FFFFFFFFFFFF
310
FFFFFFFFFFFFFFFFFFFFFFFFFFFFFFFFFFFFFFFFFFFFFFFFFFFFFFFFFFFFFFFF
310
FFFFFFFFFFFFFFFFFFFFFFFFFFFFFFFFFFFFFFFFFFFFFFFFFFFFFFFFFFFFFFFF
310
FFFFFFFFFFFFFFFFFFFFFFFFFFFFFFFFF000FFFFFFFFFFFFFFFFFFFFFFFFFFFF
310
FFFFFFFFFFFFFFFFFFFFFFFFFFFFFFFFFFFFFFFFFFFFFFFFFFFFFFFFFFFFFFFF
310
FFFFFFFFFFFFFFFFFFFFFFFFFFFFFFFFFFFFFFFFFFFFFFFFFFFFFFFFFFFFFFFF
310
FFFFFFFFFFFFFFFFF000FFFFFFFFFFFFFFFFFFFFFFFFFFFFFFFFFFFFFFFFFFFF
310
FFFFFFFFFFFFFFFFFFFFFFFFFFFFFFFFFFFFFFFFFFFFFFFFFFFFFFFFFFFFFFFF
310
FFFFFFFFFFFFFFFFFFFFFFFFFFFFFFFFFFFFFFFFFFFFFFFFFFFFFFFFFFFFFFFF
310
F000FFFFFFFFFFFFFFFFFFFFFFFFFFFFFFFFFFFFFFFFFFFFFFFFFFFFFFFFFFFF
310
FFFFFFFFFFFFFFFFFFFFFFFFFFFFFFFFFFFFFFFFFFFFFFFFFFFFFFFFFFFFFFFF
310
FFFFFFFFFFFFFFFFFFFFFFFFFFFFFFFFFFFFFFFFFFFFFFFFF000FFFFFFFFFFFF
310
FFFFFFFFFFFFFFFFFFFFFFFFFFFFFFFFFFFFFFFFFFFFFFFFFFFFFFFFFFFFFFFF
310
FFFFFFFFFFFFFFFFFFFFFFFFFFFFFFFFFFFFFFFFFFFFFFFFFFFFFFFFFFFFFFFF
310
FFFFFFFFFFFFFFFFFFFFFFFFFFFFFFFFF000FFFFFFFFFFFFFFFFFFFFFFFFFFFF
310
FFFFFFFFFFFFFFFFFFFFFFFFFFFFFFFFFFFFFFFFFFFFFFFFFFFFFFFFFFFFFFFF
310
FFFFFFFFFFFFFFFFFFFFFFFFFFFFFFFFFFFFFFFFFFFFFFFFFFFFFFFFFFFFFFFF
310
FFFFFFFFFFFFFFFFF000FFFFFFFFFFFFFFFFFFFFFFFFFFFFFFFFFFFFFFFFFFFF
310
FFFFFFFFFFFFFFFFFFFFFFFFFFFFFFFFFFFFFFFFFFFFFFFFFFFFFFFFFFFFFFFF
310
FFFFFFFFFFFFFFFFFFFFFFFFFFFFFFFFFFFFFFFFFFFFFFFFFFFFFFFFFFFFFFFF
310
F000FFFFFFFFFFFFFFFFFFFFFFFFFFFFFFFFFFFFFFFFFFFFFFFFFFFFFFFFFFFF
310
FFFFFFFFFFFFFFFFFFFFFFFFFFFFFFFFFFFFFFFFFFFFFFFFFFFFFFFFFFFFFFFF
310
FFFFFFFFFFFFFFFFFFFFFFFFFFFFFFFFFFFFFFFFFFFFFFFFF000FFFFFFFFFFFF
310
FFFFFFFFFFFFFFFFFFFFFFFFFFFFFFFFFFFFFFFFFFFFFFFFFFFFFFFFFFFFFFFF
310
FFFFFFFFFFFFFFFFFFFFFFFFFFFFFFFFFFFFFFFFFFFFFFFFFFFFFFFFFFFFFFFF
310
FFFFFFFFFFFFFFFFFFFFFFFFFFFFFFFFF000FFFFFFFFFFFFFFFFFFFFFFFFFFFF
310
FFFFFFFFFFFFFFFFFFFFFFFFFFFFFFFFFFFFFFFFFFFFFFFFFFFFFFFFFFFFFFFF
310
FFFFFFFFFFFFFFFFFFFFFFFFFFFFFFFFFFFFFFFFFFFFFFFFFFFFFFFFFFFFFFFF
310
FFFFFFFFFFFFFFFFF000FFFFF80003FFFFFFFFFFFFFFFFFFFFFFFFFFFFFFFFFF
310
FFFFF00007FFFFFFFFFF00007FFFFFF800000000000000007FFFFFFFFFFFFFFF
310
FFFFFFFC001FFFFFFFFFFFFFFC001FFFFFFFFFFFFFFFFFFFFFFFFFFE0007FFFF
310
F000FFFF8000007FFFFFFFF8000FFFFFC0007FFFFF80007FFFFF0000007FFFFF
310
FFF8000007FFFFF800000000000000007FFFFFF0001FFFFFFFFFFFC00001FFFF
310
FFFFFFFFC00001FFFFFFFF000000000003FFFFE000007FFFF000FFFE0000000F
310
FFFFFFF0000FFFFF80007FFFFF80007FFFFC0000001FFFFFFFC0000001FFFFF8
310
00000000000000007FFFFFF0001FFFFFFFFFFE0000003FFFFFFFFFFE0000003F
310
FFFFFF000000000003FFFF0000000FFFF000FFF800000003FFFFFFF00007FFFF
310
80007FFFFF80007FFFF000000007FFFFFF000000003FFFF80000000000000000
310
7FFFFFF0001FFFFFFFFFF80000000FFFFFFFFFF80000000FFFFFFF0000000000
310
03FFFC00000003FFF000FFE000000000FFFFFFF00007FFFF80003FFFFF80007F
310
FFC000000001FFFFFC000000001FFFF800000000000000007FFFFFF0001FFFFF
310
FFFFE000000003FFFFFFFFE000000003FFFFFF000000000003FFF000000000FF
310
F000FF80000000007FFFFFF00007FFFF80003FFFFF80007FFF8000000000FFFF
310
F80000000007FFF800000000000000007FFFFFF0001FFFFFFFFFC000000001FF
310
FFFFFFC000000001FFFFFF000000000003FFC0000000007FF000FF0000000000
310
3FFFFFE00007FFFF00003FFFFF80007FFE00000000003FFFF00000000003FFF8
310
00000000000000007FFFFFF0001FFFFFFFFF8000000000FFFFFFFF8000000000
310
FFFFFF000000000003FF80000000003FF000FE00000000001FFFFFE00003FFFF
310
00003FFFFF80007FFC00000000001FFFE00000000001FFF8000001FFFE000000
310
7FFFFFF0001FFFFFFFFE00000000003FFFFFFE00000000003FFFFF0000000000
310
03FF00000000001FF000FC00000000000FFFFFE00003FFFF00001FFFFF80007F
310
F800000000001FFFC00000000000FFF8000001FFFE0000007FFFFFF0001FFFFF
310
FFFC00000000001FFFFFFC00000000001FFFFF000000000003FE00000000000F
310
F000F8000000000007FFFFE00003FFFF00001FFFFF80007FF800000000000FFF
310
800000000000FFF8000001FFFE0000007FFFFFF0001FFFFFFFF800000000000F
310
FFFFF800000000000FFFFF000000000003FC000000000007F000F80000000000
310
03FFFFC00003FFFE00001FFFFF80007FF0000000000007FF0000000000007FF8
310
000001FFFE0000007FFFFFF0001FFFFFFFF0000000000007FFFFF00000000000
310
07FFFF000000000003F8000000000003F000F0000000000003FFFFC00001FFFE
310
00001FFFFF80007FE0000000000007FE0000000000003FF8000001FFFE000000
310
7FFFFFF0001FFFFFFFF0000000000007FFFFF0000000000007FFFF0000000000
310
03F800001F800003F000E00001FFF00001FFFFC00001FFFE00000FFFFF80007F
310
E00001FFE00003FE00001FFF00003FF8000001FFFE0000007FFFFFF0001FFFFF
310
FFE000003E000003FFFFE000003E000003FFFF000000000003F00001FFF80001
310
F000E00007FFFC0001FFFFC00001FFFE00000FFFFF80007FC0000FFFFC0003FC
310
0000FFFFC0001FF8000001FFFE0000007FFFFFF0001FFFFFFFC00003FFE00001
310
FFFFC00003FFE00001FFFF0001FFFFFFFFF00007FFFE0001F000E0000FFFFF00
310
00FFFF800001FFFC00000FFFFF80007FC0001FFFFE0001FC0001FFFFE0001FF8
310
000001FFFE0000007FFFFFF0001FFFFFFF80000FFFF80000FFFF80000FFFF800
310
00FFFF0003FFFFFFFFE0000FFFFF8000F000C0003FFFFF8000FFFF800000FFFC
310
000007FFFF80007F80003FFFFF0001FC0003FFFFF0001FF8000001FFFE000000
310
7FFFFFF0001FFFFFFF80003FFFFE0000FFFF80003FFFFE0000FFFF0003FFFFFF
310
FFE0003FFFFF8000F000C0003FFFFF8000FFFF800000FFFC000007FFFF80007F
310
80007FFFFF8001F80007FFFFF8000FF8000001FFFE0000007FFFFFF0001FFFFF
310
FF00007FFFFF00007FFF00007FFFFF00007FFF0003FFFFFFFFE0003FFFFFC000
310
F000C0007FFFFFC000FFFF000000FFFC000007FFFF80007F8000FFFFFF8000F8
310
000FFFFFF8000FF8000001FFFE0000007FFFFFF0001FFFFFFF0000FFFFFF8000
310
7FFF0000FFFFFF80007FFF0003FFFFFFFFC0007FFFFFC00070008000FFFFFFC0
310
00FFFF000000FFF8000007FFFF80007F8000FFFFFF8000F8000FFFFFF8000FF8
310
000001FFFE0000007FFFFFF0001FFFFFFE0001FFFFFFC0003FFE0001FFFFFFC0
310
003FFF0003FFFFFFFFC0007FFFFFE00070008000FFFFFFC0007FFF0000007FF8
310
000003FFFF80007F0001FFFFFF8000F8000FFFFFF8000FF8000001FFFE000000
310
7FFFFFF0001FFFFFFE0001FFFFFFC0003FFE0001FFFFFFC0003FFF0003FFFFFF
310
FFC000FFFFFFE00070008000FFFFFFC0007FFF0000007FF8000003FFFF80007F
310
0001FFFFFF8000F8001FFFFFF8000FF8000001FFFE0000007FFFFFF0001FFFFF
310
FE0003FFFFFFE0003FFE0003FFFFFFE0003FFF0003FFFFFFFFC000FFFFFFE000
310
70008000FFFFFFC0007FFE0000007FF8000003FFFF80007F0001FFFFFF8000F0
310
001FFFFFF8000FF8000001FFFE0000007FFFFFF0001FFFFFFC0003FFFFFFE000
310
1FFC0003FFFFFFE0001FFF0003FFFFFFFFC000FFFFFFC00070008000FFFFFF80
310
007FFE0000007FF0000003FFFF80007F0001FFFFFF0000F0001FFFFFF8000FF8
310
000001FFFE0000007FFFFFF0001FFFFFFC0007FFFFFFF0001FFC0007FFFFFFF0
310
001FFF0003FFFFFFFFC000FFFFFFC00070008001FFFFFF0000FFFE0000003FF0
310
000001FFFF80007F0001FFFFFF0000F8001FFFFFF0000FF8000001FFFE000000
310
7FFFFFF0001FFFFFFC0007FFFFFFF0001FFC0007FFFFFFF0001FFF0003FFFFFF
310
FFC001FFFFFF80007000FFFFFFFFFE0000FFFE0008003FF0008001FFFF80007F
310
FFFFFFFFFC0000FFFFFFFFFFE0000FF8000001FFFE0000007FFFFFF0001FFFFF
310
F8000FFFFFFFF8000FF8000FFFFFFFF8000FFF0003FFFFFFFFFFFFFFFFFF0000
310
7000FFFFFFFFFC0000FFFC0008003FF0008001FFFF80007FFFFFFFFFF80001FF
310
FFFFFFFF80000FF8000001FFFE0000007FFFFFF0001FFFFFF8000FFFFFFFF800
310
0FF8000FFFFFFFF8000FFF0003FFFFFFFFFFFFFFFFFE0000F000FFFFFFFFE000
310
00FFFC000C003FE000C001FFFF80007FFFFFFFFFC00001FFFFFFFFFE00001FF8
310
000001FFFE0000007FFFFFF0001FFFFFF8000FFFFFFFF8000FF8000FFFFFFFF8
310
000FFF0003FFFFFFFFFFFFFFFFF00000F000FFFFFFFE000001FFFC000C001FE0
310
00C000FFFF80007FFFFFFFFE000001FFFFFFFFE000001FF80FFFFFFFFFFFFFC0
310
7FFFFFF0001FFFFFF8000FFFFFFFF8000FF8000FFFFFFFF8000FFF0003FFFFFF
310
FFFFFFFFFF800000F000FFFFFFC0000001FFFC001C001FE001C000FFFF80007F
310
FFFFFF80000003FFFFFFF80000001FF80FFFFFFFFFFFFFC07FFFFFF0001FFFFF
310
F8001FFFFFFFFC000FF8001FFFFFFFFC000FFF0003FFFFFFFFFFFFFFF0000001
310
F000FFFFF800000001FFF8001C001FE001C000FFFF80007FFFFFF800000003FF
310
FFFF800000003FF80FFFFFFFFFFFFFC07FFFFFF0001FFFFFF8001FFFFFFFFC00
310
0FF8001FFFFFFFFC000FFF0003FFFFFFFFFFFFFE00000001F000FFFFC0000000
310
03FFF8001E001FC001E000FFFF80007FFFFF8000000007FFFFFC000000003FF8
310
0FFFFFFFFFFFFFC07FFFFFF0001FFFFFF8001FFFFFFFFC000FF8001FFFFFFFFC
310
000FFF0003FFFFFFFFFFFFE000000003F000FFFE0000000007FFF8001E000FC0
310
01E0007FFF80007FFFFE0000000007FFFFE0000000007FF80FFFFFFFFFFFFFC0
310
7FFFFFF0001FFFFFF0001FFFFFFFFC0007F0001FFFFFFFFC0007FF0003FFFFFF
310
FFFFFF0000000003F000FFF80000000007FFF8001E000FC003E0007FFF80007F
310
FFF0000000000FFFFF8000000000FFF80FFFFFFFFFFFFFC07FFFFFF0001FFFFF
310
F0001FFFFFFFFC0007F0001FFFFFFFFC0007FF0003FFFFFFFFFFFC0000000007
310
F000FFE0000000000FFFF0003E000FC003E0007FFF80007FFFC0000000001FFF
310
FE0000000001FFF80FFFFFFFFFFFFFC07FFFFFF0001FFFFFF0001FFFFFFFFC00
310
07F0001FFFFFFFFC0007FF0003FFFFFFFFFFF0000000000FF000FFC000000000
310
1FFFF0003F000F8003F0003FFF80007FFF80000000003FFFF80000000003FFF8
310
0FFFFFFFFFFFFFC07FFFFFF0001FFFFFF0001FFFFFFFFC0007F0001FFFFFFFFC
310
0007FF0003FFFFFFFFFFE0000000001FF000FF00000000007FFFF0003F000780
310
03F0003FFF80007FFF00000000007FFFF00000000007FFF80FFFFFFFFFFFFFC0
310
7FFFFFF0001FFFFFF0001FFFFFFFFC0007F0001FFFFFFFFC0007FF0003FFFFFF
310
FFFF80000000007FF000FE0000000000FFFFE0003F00078007F0003FFF80007F
310
FE0000000001FFFFE0000000001FFFF80FFFFFFFFFFFFFC07FFFFFF0001FFFFF
310
F0001FFFFFFFFC0007F0001FFFFFFFFC0007FF0003FFFFFFFFFF0000000000FF
310
F000FC0000000003FFFFE0007F00078007F0003FFF80007FFC0000000007FFFF
310
C0000000007FFFF80FFFFFFFFFFFFFC07FFFFFF0001FFFFFF8001FFFFFFFFC00
310
0FF8001FFFFFFFFC000FFF0003FFFFFFFFFE0000000003FFF000FC000000000F
310
FFFFE0007F80070007F8001FFF80007FF8000000001FFFFF8000000001FFFFF8
310
0FFFFFFFFFFFFFC07FFFFFF0001FFFFFF8001FFFFFFFFC000FF8001FFFFFFFFC
310
000FFF0003FFFFFFFFFC000000000FFFF000F8000000007FFFFFE0007F800700
310
07F8001FFF80007FF000000000FFFFFF800000000FFFFFF80FFFFFFFFFFFFFC0
310
7FFFFFF0001FFFFFF8000FFFFFFFF8000FF8000FFFFFFFF8000FFF0003FFFFFF
310
FFFC000000007FFFF000F800000007FFFFFFC0007F8003000FF8001FFF80007F
310
F000000007FFFFFF000000007FFFFFF80FFFFFFFFFFFFFC07FFFFFF0001FFFFF
310
F8000FFFFFFFF8000FF8000FFFFFFFF8000FFF0003FFFFFFFFF80000000FFFFF
310
F000F0000000FFFFFFFFC000FF8003000FF8001FFF80007FE0000000FFFFFFFF
310
0000000FFFFFFFF8000001FFFE0000007FFFFFF0001FFFFFF8000FFFFFFFF800
310
0FF8000FFFFFFFF8000FFF0003FFFFFFFFF8000000FFFFFFF000F000000FFFFF
310
FFFFC000FFC002000FF8000FFF80007FE000001FFFFFFFFE000001FFFFFFFFF8
310
000001FFFE0000007FFFFFF0001FFFFFF8000FFFFFFFF8000FF8000FFFFFFFF8
310
000FFF0003FFFFFFFFF000001FFFFFFFF000E00000FFFFFFFFFFC000FFC00200
310
0FFC000FFF80007FE00001FFFFFFFFFE00001FFFFFFFFFF8000001FFFE000000
310
7FFFFFF0001FFFFFFC000FFFFFFFF8001FFC000FFFFFFFF8001FFF0003FFFFFF
310
FFF00001FFFFFFFFF000E00007FFFFFFFFFF8000FFC000001FFC000FFF80007F
310
C0000FFFFFFFFFFE0000FFFFFFFFFFF8000001FFFE0000007FFFFFF0001FFFFF
310
FC0007FFFFFFF0001FFC0007FFFFFFF0001FFF0003FFFFFFFFF00007FFFFFFFF
310
F000E0001FFFFFFFFFFF8000FFC000001FFC000FFF80007FC0003FFFFFFFFFFE
310
0001FFFFFFFFFFF8000001FFFE0000007FFFFFF0001FFFFFFC0007FFFFFFF000
310
1FFC0007FFFFFFF0001FFF0003FFFFFFFFF0001FFFFFFFFFF000E0003FFFFF00
310
03FF8001FFE000001FFC0007FF80007FC0007FFFFF0007FC0003FFFFF0003FF8
310
000001FFFE0000007FFFFFF0001FFFFFFC0003FFFFFFE0001FFC0003FFFFFFE0
310
001FFF0003FFFFFFFFF0003FFFFFFFFFF000E0003FFFFF0001FF8001FFE00000
310
1FFE0007FF80007FC0007FFFFE0003FC0007FFFFE0003FF8000001FFFE000000
310
7FFFFFF0001FFFFFFE0003FFFFFFE0003FFE0003FFFFFFE0003FFF0003FFFFFF
310
FFF0003FFFFF8001F000E0003FFFFF0001FF0001FFE000001FFE0007FF80007F
310
C0007FFFFE0003FC0007FFFFE0003FF8000001FFFE0000007FFFFFF0001FFFFF
310
FE0001FFFFFFC0003FFE0001FFFFFFC0003FFF0003FFFFFFFFF0003FFFFF0001
310
F000E0003FFFFF0003FF0001FFE000003FFE0007FF80007FC0007FFFFE0003FC
310
0007FFFFE0003FF8000001FFFE0000007FFFFFF0001FFFFFFF0001FFFFFFC000
310
7FFF0001FFFFFFC0007FFF0003FFFFFFFFF0003FFFFF0001F000E0003FFFFE00
310
03FF0003FFF000003FFE0003FF80007FC0007FFFFC0003FE0007FFFFE0003FF8
310
000001FFFE0000007FFFFFF0001FFFFFFF0000FFFFFF80007FFF0000FFFFFF80
310
007FFF0003FFFFFFFFF0003FFFFF0001F000E0003FFFFE0003FF0003FFF00000
310
3FFF0003FF80007FC0007FFFFC0007FE0007FFFFC0003FF8000001FFFE000000
310
7FFFFFF0001FFFFFFF80007FFFFF0000FFFF80007FFFFF0000FFFF0003FFFFFF
310
FFF0003FFFFF0003F000E0003FFFFC0003FE0003FFF000003FFF0003FF80007F
310
E0003FFFF80007FE0003FFFFC0007FF8000001FFFE0000007FFFFFF0001FFFFF
310
FF80003FFFFE0000FFFF80003FFFFE0000FFFF0003FFFFFFFFF0001FFFFE0003
310
F000F0001FFFF80003FE0003FFF000007FFF0001FF80007FE0003FFFF00007FE
310
0001FFFF80007FF8000001FFFE0000007FFFFFF0001FFFFFFFC0000FFFF80001
310
FFFFC0000FFFF80001FFFF0003FFFFFFFFF0001FFFFC0003F000F0000FFFF000
310
07FE0007FFF800007FFF0001FF80007FE0001FFFE00007FF0000FFFE00007FF8
310
000001FFFE0000007FFFFFF0001FFFFFFFC00003FFE00001FFFFC00003FFE000
310
01FFFF0003FFFFFFFFF8000FFFF80003F000F00003FFC00007FC0007FFF80000
310
7FFF8001FF80007FF00007FF80000FFF00007FF80000FFF8000001FFFE000000
310
7F80000000000001FFE000003E000003FFFFE000003E000003FFFF0003FFFFFF
310
FFF80003FFE00007F000F800000000000FFC0007FFF800007FFF8001FF80007F
310
F000000000000FFF000000000000FFF8000001FFFE0000007F80000000000001
310
FFF0000000000007FFFFF0000000000007FFFF0003FFFFFFFFFC00007E000007
310
F000F800000000000FFC0007FFF80000FFFF8000FF80007FF800000000001FFF
310
800000000001FFF8000001FFFE0000007F80000000000001FFF800000000000F
310
FFFFF800000000000FFFFF0003FFFFFFFFFC00000000000FF000FC0000000000
310
1FFC0007FFFC0000FFFF8000FF80007FF800000000003FFFC00000000001FFF8
310
000001FFFE0000007F80000000000001FFF800000000000FFFFFF80000000000
310
0FFFFF0003FFFFFFFFFE00000000001FF000FE00000000003FF8000FFFFC0000
310
FFFF8000FF80007FFC00000000003FFFC00000000003FFF8000001FFFE000000
310
7F80000000000001FFFC00000000001FFFFFFC00000000001FFFFF0003FFFFFF
310
FFFF00000000001FF000FF00000000003FF8000FFFFC0000FFFFC000FF80007F
310
FE00000000007FFFE00000000007FFF8000001FFFE0000007F80000000000001
310
FFFE00000000003FFFFFFE00000000003FFFFF0003FFFFFFFFFF80000000003F
310
F000FF80000000007FF8000FFFFC0001FFFFC0007F80007FFF0000000000FFFF
310
F0000000000FFFF800000000000000007F80000000000001FFFF8000000000FF
310
FFFFFF8000000000FFFFFF0003FFFFFFFFFFC0000000007FF000FFC000000000
310
FFF8000FFFFE0001FFFFC0007F80007FFF8000000001FFFFF8000000001FFFF8
310
00000000000000007F80000000000001FFFFC000000001FFFFFFFFC000000001
310
FFFFFF0003FFFFFFFFFFE000000000FFF000FFE000000003FFF0001FFFFE0001
310
FFFFC0007F80007FFFC000000007FFFFFE000000003FFFF80000000000000000
310
7F80000000000001FFFFE000000003FFFFFFFFE000000003FFFFFF0003FFFFFF
310
FFFFF000000003FFF000FFF80000000FFFF0001FFFFE0001FFFFE0007F80007F
310
FFF00000000FFFFFFF00000000FFFFF800000000000000007F80000000000001
310
FFFFF80000000FFFFFFFFFF80000000FFFFFFF0003FFFFFFFFFFFC0000000FFF
310
F000FFFE0000003FFFF0001FFFFE0003FFFFE0003F80007FFFFC0000003FFFFF
310
FFC0000003FFFFF800000000000000007F80000000000001FFFFFE0000003FFF
310
FFFFFFFE0000003FFFFFFF0003FFFFFFFFFFFF0000003FFFF000FFFF800000FF
310
FFF0001FFFFF0003FFFFE0003F80007FFFFF000001FFFFFFFFF800001FFFFFF8
310
00000000000000007F80000000000001FFFFFFC00001FFFFFFFFFFFFC00001FF
310
FFFFFF0003FFFFFFFFFFFFC00000FFFFF000FFFFF8000FFFFFFFFFFFFFFFFFFF
310
FFFFFFFFFFFFFFFFFFFFF0001FFFFFFFFFFF0000FFFFFFF80000000000000000
310
7FFFFFFFFFFFFFFFFFFFFFFC001FFFFFFFFFFFFFFC001FFFFFFFFFFFFFFFFFFF
310
FFFFFFFC001FFFFFF000FFFFFFFFFFFFFFFFFFFFFFFFFFFFFFFFFFFFFFFFFFFF
310
FFFFFFFFFFFFFFFFFFFFFFFFFFFFFFFFFFFFFFFFFFFFFFFFFFFFFFFFFFFFFFFF
310
FFFFFFFFFFFFFFFFFFFFFFFFFFFFFFFFFFFFFFFFFFFFFFFFFFFFFFFFFFFFFFFF
310
F000FFFFFFFFFFFFFFFFFFFFFFFFFFFFFFFFFFFFFFFFFFFFFFFFFFFFFFFFFFFF
310
FFFFFFFFFFFFFFFFFFFFFFFFFFFFFFFFFFFFFFFFFFFFFFFFFFFFFFFFFFFFFFFF
310
FFFFFFFFFFFFFFFFFFFFFFFFFFFFFFFFFFFFFFFFFFFFFFFFF000FFFFFFFFFFFF
310
FFFFFFFFFFFFFFFFFFFFFFFFFFFFFFFFFFFFFFFFFFFFFFFFFFFFFFFFFFFFFFFF
310
FFFFFFFFFFFFFFFFFFFFFFFFFFFFFFFFFFFFFFFFFFFFFFFFFFFFFFFFFFFFFFFF
310
FFFFFFFFFFFFFFFFFFFFFFFFFFFFFFFFF000FFFFFFFFFFFFFFFFFFFFFFFFFFFF
310
FFFFFFFFFFFFFFFFFFFFFFFFFFFFFFFFFFFFFFFFFFFFFFFFFFFFFFFFFFFFFFFF
310
FFFFFFFFFFFFFFFFFFFFFFFFFFFFFFFFFFFFFFFFFFFFFFFFFFFFFFFFFFFFFFFF
310
FFFFFFFFFFFFFFFFF000FFFFFFFFFFFFFFFFFFFFFFFFFFFFFFFFFFFFFFFFFFFF
310
FFFFFFFFFFFFFFFFFFFFFFFFFFFFFFFFFFFFFFFFFFFFFFFFFFFFFFFFFFFFFFFF
310
FFFFFFFFFFFFFFFFFFFFFFFFFFFFFFFFFFFFFFFFFFFFFFFFFFFFFFFFFFFFFFFF
310
F000FFFFFFFFFFFFFFFFFFFFFFFFFFFFFFFFFFFFFFFFFFFFFFFFFFFFFFFFFFFF
310
FFFFFFFFFFFFFFFFFFFFFFFFFFFFFFFFFFFFFFFFFFFFFFFFFFFFFFFFFFFFFFFF
310
FFFFFFFFFFFFFFFFFFFFFFFFFFFFFFFFFFFFFFFFFFFFFFFFF000FFFFFFFFFFFF
310
FFFFFFFFFFFFFFFFFFFFFFFFFFFFFFFFFFFFFFFFFFFFFFFFFFFFFFFFFFFFFFFF
310
FFFFFFFFFFFFFFFFFFFFFFFFFFFFFFFFFFFFFFFFFFFFFFFFFFFFFFFFFFFFFFFF
310
FFFFFFFFFFFFFFFFFFFFFFFFFFFFFFFFF000FFFFFFFFFFFFFFFFFFFFFFFFFFFF
310
FFFFFFFFFFFFFFFFFFFFFFFFFFFFFFFFFFFFFFFFFFFFFFFFFFFFFFFFFFFFFFFF
310
FFFFFFFFFFFFFFFFFFFFFFFFFFFFFFFFFFFFFFFFFFFFFFFFFFFFFFFFFFFFFFFF
310
FFFFFFFFFFFFFFFFF000FFFFFFFFFFFFFFFFFFFFFFFFFFFFFFFFFFFFFFFFFFFF
310
FFFFFFFFFFFFFFFFFFFFFFFFFFFFFFFFFFFFFFFFFFFFFFFFFFFFFFFFFFFFFFFF
310
FFFFFFFFFFFFFFFFFFFFFFFFFFFFFFFFFFFFFFFFFFFFFFFFFFFFFFFFFFFFFFFF
310
F000FFFFFFFFFFFFFFFFFFFFFFFFFFFFFFFFFFFFFFFFFFFFFFFFFFFFFFFFFFFF
310
FFFFFFFFFFFFFFFFFFFFFFFFFFFFFFFFFFFFFFFFFFFFFFFFFFFFFFFFFFFFFFFF
310
FFFFFFFFFFFFFFFFFFFFFFFFFFFFFFFFFFFFFFFFFFFFFFFFF000FFFFFFFFFFFF
310
FFFFFFFFFFFFFFFFFFFFFFFFFFFFFFFFFFFFFFFFFFFFFFFFFFFFFFFFFFFFFFFF
310
FFFFFFFFFFFFFFFFFFFFFFFFFFFFFFFFFFFFFFFFFFFFFFFFFFFFFFFFFFFFFFFF
310
FFFFFFFFFFFFFFFFFFFFFFFFFFFFFFFFF000FFFFFFFFFFFFFFFFFFFFFFFFFFFF
310
FFFFFFFFFFFFFFFFFFFFFFFFFFFFFFFFFFFFFFFFFFFFFFFFFFFFFFFFFFFFFFFF
310
FFFFFFFFFFFFFFFFFFFFFFFFFFFFFFFFFFFFFFFFFFFFFFFFFFFFFFFFFFFFFFFF
310
FFFFFFFFFFFFFFFFF000FFFFFFFFFFFFFFFFFFFFFFFFFFFFFFFFFFFFFFFFFFFF
310
FFFFFFFFFFFFFFFFFFFFFFFFFFFFFFFFFFFFFFFFFFFFFFFFFFFFFFFFFFFFFFFF
310
FFFFFFFFFFFFFFFFFFFFFFFFFFFFFFFFFFFFFFFFFFFFFFFFFFFFFFFFFFFFFFFF
310
F000FFFFFFFFFFFFFFFFFFFFFFFFFFFFFFFFFFFFFFFFFFFFFFFFFFFFFFFFFFFF
310
FFFFFFFFFFFFFFFFFFFFFFFFFFFFFFFFFFFFFFFFFFFFFFFFFFFFFFFFFFFFFFFF
310
FFFFFFFFFFFFFFFFFFFFFFFFFFFFFFFFFFFFFFFFFFFFFFFFF000FFFFFFFFFFFF
310
FFFFFFFFFFFFFFFFFFFFFFFFFFFFFFFFFFFFFFFFFFFFFFFFFFFFFFFFFFFFFFFF
310
FFFFFFFFFFFFFFFFFFFFFFFFFFFFFFFFFFFFFFFFFFFFFFFFFFFFFFFFFFFFFFFF
310
FFFFFFFFFFFFFFFFFFFFFFFFFFFFFFFFF000FFFFFFFFFFFFFFFFFFFFFFFFFFFF
310
FFFFFFFFFFFFFFFFFFFFFFFFFFFFFFFFFFFFFFFFFFFFFFFFFFFFFFFFFFFFFFFF
310
FFFFFFFFFFFFFFFFFFFFFFFFFFFFFFFFFFFFFFFFFFFFFFFFFFFFFFFFFFFFFFFF
310
FFFFFFFFFFFFFFFFF000FFFFFFFFFFFFFFFFFFFFFFFFFFFFFFFFFFFFFFFFFFFF
310
FFFFFFFFFFFFFFFFFFFFFFFFFFFFFFFFFFFFFFFFFFFFFFFFFFFFFFFFFFFFFFFF
310
FFFFFFFFFFFFFFFFFFFFFFFFFFFFFFFFFFFFFFFFFFFFFFFFFFFFFFFFFFFFFFFF
310
F000FFFFFFFFFFFFFFFFFFFFFFFFFFFFFFFFFFFFFFFFFFFFFFFFFFFFFFFFFFFF
310
FFFFFFFFFFFFFFFFFFFFFFFFFFFFFFFFFFFFFFFFFFFFFFFFFFFFFFFFFFFFFFFF
310
FFFFFFFFFFFFFFFFFFFFFFFFFFFFFFFFFFFFFFFFFFFFFFFFF000FFFFFFFFFFFF
310
FFFFFFFFFFFFFFFFFFFFFFFFFFFFFFFFFFFFFFFFFFFFFFFFFFFFFFFFFFFFFFFF
310
FFFFFFFFFFFFFFFFFFFFFFFFFFFFFFFFFFFFFFFFFFFFFFFFFFFFFFFFFFFFFFFF
310
FFFFFFFFFFFFFFFFFFFFFFFFFFFFFFFFF000FFFFFFFFFFFFFFFFFFFFFFFFFFFF
310
FFFFFFFFFFFFFFFFFFFFFFFFFFFFFFFFFFFFFFFFFFFFFFFFFFFFFFFFFFFFFFFF
310
FFFFFFFFFFFFFFFFFFFFFFFFFFFFFFFFFFFFFFFFFFFFFFFFFFFFFFFFFFFFFFFF
310
FFFFFFFFFFFFFFFFF000FFFFFFFFFFFFFFFFFFFFFFFFFFFFFFFFFFFFFFFFFFFF
310
FFFFFFFFFFFFFFFFFFFFFFFFFFFFFFFFFFFFFFFFFFFFFFFFFFFFFFFFFFFFFFFF
310
FFFFFFFFFFFFFFFFFFFFFFFFFFFFFFFFFFFFFFFFFFFFFFFFFFFFFFFFFFFFFFFF
310
F000FFFFFFFFFFFFFFFFFFFFFFFFFFFFFFFFFFFFFFFFFFFFFFFFFFFFFFFFFFFF
310
FFFFFFFFFFFFFFFFFFFFFFFFFFFFFFFFFFFFFFFFFFFFFFFFFFFFFFFFFFFFFFFF
310
FFFFFFFFFFFFFFFFFFFFFFFFFFFFFFFFFFFFFFFFFFFFFFFFF000FFFFFFFFFFFF
310
FFFFFFFFFFFFFFFFFFFFFFFFFFFFFFFFFFFFFFFFFFFFFFFFFFFFFFFFFFFFFFFF
310
FFFFFFFFFFFFFFFFFFFFFFFFFFFFFFFFFFFFFFFFFFFFFFFFFFFFFFFFFFFFFFFF
310
FFFFFFFFFFFFFFFFFFFFFFFFFFFFFFFFF0000000000000000000000000000000
310
0000000000000000000000000000000000000000000000000000000000000000
310
0000000000000000000000000000000000000000000000000000000000000000
310
0000000000000000000000000000000000000000000000000000000000000000
310
0000000000000000000000000000000000000000000000000000000000000000
310
0000000000000000000000000000000000000000000000000000000000000000
310
0000000000000000000000000000000000000000000000000000000000000000
310
0000000000000000000000000000000000000000000000000000000000000000
310
0000000000000000000000000000000000000000000000000000000000000000
310
0000000000000000000000000000000000000000000000000000000000000000
310
0000000000000000000000000000000000000000000000000000000000000000
310
0000000000000000000000000000000000000000000000000000000000000000
310
0000000000000000000000000000000000000000000000000000000000000000
310
0000000000000000000000000000000000000000000000000000000000000000
310
0000000000000000000000000000000000000000000000000000000000000000
310
0000000000000000000000000000000000000000000000000000000000000000
  1
OLE
  0
ENDSEC
  0
SECTION
  2
OBJECTS
  0
DICTIONARY
  5
C
330
0
100
AcDbDictionary
281
     1
  3
ACAD_GROUP
350
D
  3
ACAD_LAYOUT
350
1A
  3
ACAD_MLINESTYLE
350
17
  3
ACAD_PLOTSETTINGS
350
19
  3
ACAD_PLOTSTYLENAME
350
E
  3
ACAD_SCALELIST
350
47
  0
DICTIONARY
  5
D
102
{ACAD_REACTORS
330
C
102
}
330
C
100
AcDbDictionary
281
     1
  0
DICTIONARY
  5
1A
102
{ACAD_REACTORS
330
C
102
}
330
C
100
AcDbDictionary
281
     1
  3
Layout1
350
1E
  3
Layout2
350
26
  3
Model
350
22
  0
DICTIONARY
  5
17
102
{ACAD_REACTORS
330
C
102
}
330
C
100
AcDbDictionary
281
     1
  3
Standard
350
18
  0
DICTIONARY
  5
19
102
{ACAD_REACTORS
330
C
102
}
330
C
100
AcDbDictionary
281
     1
  0
ACDBDICTIONARYWDFLT
  5
E
102
{ACAD_REACTORS
330
C
102
}
330
C
100
AcDbDictionary
281
     1
  3
Normal
350
F
100
AcDbDictionaryWithDefault
340
F
  0
DICTIONARY
  5
47
102
{ACAD_REACTORS
330
C
102
}
330
C
100
AcDbDictionary
281
     1
  3
A0
350
48
  3
A1
350
49
  3
A2
350
4A
  3
A3
350
4B
  3
A4
350
4C
  3
A5
350
4D
  3
A6
350
4E
  3
A7
350
4F
  3
A8
350
50
  3
A9
350
51
  3
B0
350
52
  3
B1
350
53
  3
B2
350
54
  3
B3
350
55
  3
B4
350
56
  3
B5
350
57
  3
B6
350
58
  3
B7
350
59
  3
B8
350
5A
  3
B9
350
5B
  3
C0
350
5C
  3
C1
350
5D
  3
C2
350
5E
  3
C3
350
5F
  3
C4
350
60
  3
C5
350
61
  3
C6
350
62
  3
C7
350
63
  3
C8
350
64
  3
C9
350
65
  3
D0
350
66
  3
D1
350
67
  3
D2
350
68
  0
LAYOUT
  5
1E
102
{ACAD_REACTORS
330
1A
102
}
330
1A
100
AcDbPlotSettings
  1

  2
none_device
  4

  6

 40
0.0
 41
0.0
 42
0.0
 43
0.0
 44
0.0
 45
0.0
 46
0.0
 47
0.0
 48
0.0
 49
0.0
140
0.0
141
0.0
142
1.0
143
1.0
 70
   688
 72
     1
 73
     0
 74
     5
  7

 75
    16
147
1.0
148
0.0
149
0.0
100
AcDbLayout
  1
Layout1
 70
     1
 71
     1
 10
0.0
 20
0.0
 11
420.0
 21
297.0
 12
0.0
 22
0.0
 32
0.0
 14
1.0000000000E+20
 24
1.0000000000E+20
 34
1.0000000000E+20
 15
-1.0000000000E+20
 25
-1.0000000000E+20
 35
-1.0000000000E+20
146
0.0
 13
0.0
 23
0.0
 33
0.0
 16
1.0
 26
0.0
 36
0.0
 17
0.0
 27
1.0
 37
0.0
 76
     0
330
1B
  0
LAYOUT
  5
26
102
{ACAD_REACTORS
330
1A
102
}
330
1A
100
AcDbPlotSettings
  1

  2
none_device
  4

  6

 40
0.0
 41
0.0
 42
0.0
 43
0.0
 44
0.0
 45
0.0
 46
0.0
 47
0.0
 48
0.0
 49
0.0
140
0.0
141
0.0
142
1.0
143
1.0
 70
   688
 72
     1
 73
     0
 74
     5
  7

 75
    16
147
1.0
148
0.0
149
0.0
100
AcDbLayout
  1
Layout2
 70
     1
 71
     2
 10
0.0
 20
0.0
 11
0.0
 21
0.0
 12
0.0
 22
0.0
 32
0.0
 14
0.0
 24
0.0
 34
0.0
 15
0.0
 25
0.0
 35
0.0
146
0.0
 13
0.0
 23
0.0
 33
0.0
 16
1.0
 26
0.0
 36
0.0
 17
0.0
 27
1.0
 37
0.0
 76
     0
330
23
  0
LAYOUT
  5
22
102
{ACAD_REACTORS
330
1A
102
}
330
1A
100
AcDbPlotSettings
  1

  2
none_device
  4
Letter_(8.50_x_11.00_Inches)
  6

 40
6.35
 41
6.35
 42
6.35000508
 43
6.35000508
 44
215.9
 45
279.4
 46
0.0
 47
0.0
 48
0.0
 49
0.0
140
0.0
141
0.0
142
1.0
143
1.0
 70
  1712
 72
     1
 73
     0
 74
     0
  7

 75
     0
147
1.0
148
0.0
149
0.0
100
AcDbLayout
  1
Model
 70
     1
 71
     0
 10
0.0
 20
0.0
 11
297.0
 21
210.0
 12
0.0
 22
0.0
 32
0.0
 14
0.0
 24
0.0
 34
0.0
 15
297.0
 25
210.0
 35
0.0
146
0.0
 13
0.0
 23
0.0
 33
0.0
 16
1.0
 26
0.0
 36
0.0
 17
0.0
 27
1.0
 37
0.0
 76
     0
330
1F
331
29
  0
MLINESTYLE
  5
18
102
{ACAD_REACTORS
330
17
102
}
330
17
100
AcDbMlineStyle
  2
Standard
 70
     0
  3

 62
   256
 51
90.0
 52
90.0
 71
     2
 49
0.5
 62
   256
  6
BYLAYER
 49
-0.5
 62
   256
  6
BYLAYER
  0
ACDBPLACEHOLDER
  5
F
102
{ACAD_REACTORS
330
E
102
}
330
E
  0
SCALE
  5
48
102
{ACAD_REACTORS
330
47
102
}
330
47
100
AcDbScale
 70
     0
300
1:1
140
1.0
141
1.0
290
     1
  0
SCALE
  5
49
102
{ACAD_REACTORS
330
47
102
}
330
47
100
AcDbScale
 70
     0
300
1:2
140
1.0
141
2.0
290
     0
  0
SCALE
  5
4A
102
{ACAD_REACTORS
330
47
102
}
330
47
100
AcDbScale
 70
     0
300
1:4
140
1.0
141
4.0
290
     0
  0
SCALE
  5
4B
102
{ACAD_REACTORS
330
47
102
}
330
47
100
AcDbScale
 70
     0
300
1:5
140
1.0
141
5.0
290
     0
  0
SCALE
  5
4C
102
{ACAD_REACTORS
330
47
102
}
330
47
100
AcDbScale
 70
     0
300
1:8
140
1.0
141
8.0
290
     0
  0
SCALE
  5
4D
102
{ACAD_REACTORS
330
47
102
}
330
47
100
AcDbScale
 70
     0
300
1:10
140
1.0
141
10.0
290
     0
  0
SCALE
  5
4E
102
{ACAD_REACTORS
330
47
102
}
330
47
100
AcDbScale
 70
     0
300
1:16
140
1.0
141
16.0
290
     0
  0
SCALE
  5
4F
102
{ACAD_REACTORS
330
47
102
}
330
47
100
AcDbScale
 70
     0
300
1:20
140
1.0
141
20.0
290
     0
  0
SCALE
  5
50
102
{ACAD_REACTORS
330
47
102
}
330
47
100
AcDbScale
 70
     0
300
1:30
140
1.0
141
30.0
290
     0
  0
SCALE
  5
51
102
{ACAD_REACTORS
330
47
102
}
330
47
100
AcDbScale
 70
     0
300
1:40
140
1.0
141
40.0
290
     0
  0
SCALE
  5
52
102
{ACAD_REACTORS
330
47
102
}
330
47
100
AcDbScale
 70
     0
300
1:50
140
1.0
141
50.0
290
     0
  0
SCALE
  5
53
102
{ACAD_REACTORS
330
47
102
}
330
47
100
AcDbScale
 70
     0
300
1:100
140
1.0
141
100.0
290
     0
  0
SCALE
  5
54
102
{ACAD_REACTORS
330
47
102
}
330
47
100
AcDbScale
 70
     0
300
2:1
140
2.0
141
1.0
290
     0
  0
SCALE
  5
55
102
{ACAD_REACTORS
330
47
102
}
330
47
100
AcDbScale
 70
     0
300
4:1
140
4.0
141
1.0
290
     0
  0
SCALE
  5
56
102
{ACAD_REACTORS
330
47
102
}
330
47
100
AcDbScale
 70
     0
300
8:1
140
8.0
141
1.0
290
     0
  0
SCALE
  5
57
102
{ACAD_REACTORS
330
47
102
}
330
47
100
AcDbScale
 70
     0
300
10:1
140
10.0
141
1.0
290
     0
  0
SCALE
  5
58
102
{ACAD_REACTORS
330
47
102
}
330
47
100
AcDbScale
 70
     0
300
100:1
140
100.0
141
1.0
290
     0
  0
SCALE
  5
59
102
{ACAD_REACTORS
330
47
102
}
330
47
100
AcDbScale
 70
     0
300
1/128" = 1'-0"
140
0.0078125
141
12.0
290
     0
  0
SCALE
  5
5A
102
{ACAD_REACTORS
330
47
102
}
330
47
100
AcDbScale
 70
     0
300
1/64" = 1'-0"
140
0.015625
141
12.0
290
     0
  0
SCALE
  5
5B
102
{ACAD_REACTORS
330
47
102
}
330
47
100
AcDbScale
 70
     0
300
1/32" = 1'-0"
140
0.03125
141
12.0
290
     0
  0
SCALE
  5
5C
102
{ACAD_REACTORS
330
47
102
}
330
47
100
AcDbScale
 70
     0
300
1/16" = 1'-0"
140
0.0625
141
12.0
290
     0
  0
SCALE
  5
5D
102
{ACAD_REACTORS
330
47
102
}
330
47
100
AcDbScale
 70
     0
300
3/32" = 1'-0"
140
0.09375
141
12.0
290
     0
  0
SCALE
  5
5E
102
{ACAD_REACTORS
330
47
102
}
330
47
100
AcDbScale
 70
     0
300
1/8" = 1'-0"
140
0.125
141
12.0
290
     0
  0
SCALE
  5
5F
102
{ACAD_REACTORS
330
47
102
}
330
47
100
AcDbScale
 70
     0
300
3/16" = 1'-0"
140
0.1875
141
12.0
290
     0
  0
SCALE
  5
60
102
{ACAD_REACTORS
330
47
102
}
330
47
100
AcDbScale
 70
     0
300
1/4" = 1'-0"
140
0.25
141
12.0
290
     0
  0
SCALE
  5
61
102
{ACAD_REACTORS
330
47
102
}
330
47
100
AcDbScale
 70
     0
300
3/8" = 1'-0"
140
0.375
141
12.0
290
     0
  0
SCALE
  5
62
102
{ACAD_REACTORS
330
47
102
}
330
47
100
AcDbScale
 70
     0
300
1/2" = 1'-0"
140
0.5
141
12.0
290
     0
  0
SCALE
  5
63
102
{ACAD_REACTORS
330
47
102
}
330
47
100
AcDbScale
 70
     0
300
3/4" = 1'-0"
140
0.75
141
12.0
290
     0
  0
SCALE
  5
64
102
{ACAD_REACTORS
330
47
102
}
330
47
100
AcDbScale
 70
     0
300
1" = 1'-0"
140
1.0
141
12.0
290
     0
  0
SCALE
  5
65
102
{ACAD_REACTORS
330
47
102
}
330
47
100
AcDbScale
 70
     0
300
1-1/2" = 1'-0"
140
1.5
141
12.0
290
     0
  0
SCALE
  5
66
102
{ACAD_REACTORS
330
47
102
}
330
47
100
AcDbScale
 70
     0
300
3" = 1'-0"
140
3.0
141
12.0
290
     0
  0
SCALE
  5
67
102
{ACAD_REACTORS
330
47
102
}
330
47
100
AcDbScale
 70
     0
300
6" = 1'-0"
140
6.0
141
12.0
290
     0
  0
SCALE
  5
68
102
{ACAD_REACTORS
330
47
102
}
330
47
100
AcDbScale
 70
     0
300
1'-0" = 1'-0"
140
12.0
141
12.0
290
     0
  0
ENDSEC
  0
EOF
