  0
SECTION
  2
HEADER
  9
$ACADVER
  1
AC1015
  9
$ACADMAINTVER
 70
     6
  9
$DWGCODEPAGE
  3
ANSI_1252
  9
$INSBASE
 10
0.0
 20
0.0
 30
0.0
  9
$EXTMIN
 10
0.0
 20
0.0
 30
0.0
  9
$EXTMAX
 10
297.0
 20
210.0
 30
0.0
  9
$LIMMIN
 10
0.0
 20
0.0
  9
$LIMMAX
 10
297.0
 20
210.0
  9
$ORTHOMODE
 70
     0
  9
$REGENMODE
 70
     1
  9
$FILLMODE
 70
     1
  9
$QTEXTMODE
 70
     0
  9
$MIRRTEXT
 70
     1
  9
$LTSCALE
 40
1.0
  9
$ATTMODE
 70
     1
  9
$TEXTSIZE
 40
2.0
  9
$TRACEWID
 40
1.0
  9
$TEXTSTYLE
  7
Standard
  9
$CLAYER
  8
0
  9
$CELTYPE
  6
ByLayer
  9
$CECOLOR
 62
   256
  9
$CELTSCALE
 40
1.0
  9
$DISPSILH
 70
     0
  9
$DIMSCALE
 40
1.0
  9
$DIMASZ
 40
3.0
  9
$DIMEXO
 40
0.0
  9
$DIMDLI
 40
3.75
  9
$DIMRND
 40
0.0
  9
$DIMDLE
 40
0.0
  9
$DIMEXE
 40
1.0
  9
$DIMTP
 40
0.0
  9
$DIMTM
 40
0.0
  9
$DIMTXT
 40
2.0
  9
$DIMCEN
 40
2.5
  9
$DIMTSZ
 40
0.0
  9
$DIMTOL
 70
     0
  9
$DIMLIM
 70
     0
  9
$DIMTIH
 70
     1
  9
$DIMTOH
 70
     1
  9
$DIMSE1
 70
     0
  9
$DIMSE2
 70
     0
  9
$DIMTAD
 70
     1
  9
$DIMZIN
 70
     0
  9
$DIMBLK
  1

  9
$DIMASO
 70
     1
  9
$DIMSHO
 70
     1
  9
$DIMPOST
  1

  9
$DIMAPOST
  1

  9
$DIMALT
 70
     0
  9
$DIMALTD
 70
     3
  9
$DIMALTF
 40
0.0393700787
  9
$DIMLFAC
 40
2.0
  9
$DIMTOFL
 70
     1
  9
$DIMTVP
 40
0.0
  9
$DIMTIX
 70
     0
  9
$DIMSOXD
 70
     0
  9
$DIMSAH
 70
     0
  9
$DIMBLK1
  1

  9
$DIMBLK2
  1

  9
$DIMSTYLE
  2
ISO-25
  9
$DIMCLRD
 70
     0
  9
$DIMCLRE
 70
     0
  9
$DIMCLRT
 70
     0
  9
$DIMTFAC
 40
1.0
  9
$DIMGAP
 40
1.524
  9
$DIMJUST
 70
     0
  9
$DIMSD1
 70
     0
  9
$DIMSD2
 70
     0
  9
$DIMTOLJ
 70
     0
  9
$DIMTZIN
 70
     0
  9
$DIMALTZ
 70
     0
  9
$DIMALTTZ
 70
     0
  9
$DIMUPT
 70
     0
  9
$DIMDEC
 70
     2
  9
$DIMTDEC
 70
     3
  9
$DIMALTU
 70
     2
  9
$DIMALTTD
 70
     3
  9
$DIMTXSTY
  7
Standard
  9
$DIMAUNIT
 70
     0
  9
$DIMADEC
 70
     2
  9
$DIMALTRND
 40
0.0
  9
$DIMAZIN
 70
     0
  9
$DIMDSEP
 70
    44
  9
$DIMATFIT
 70
     3
  9
$DIMFRAC
 70
     0
  9
$DIMLDRBLK
  1

  9
$DIMLUNIT
 70
     2
  9
$DIMLWD
 70
    -2
  9
$DIMLWE
 70
    -2
  9
$DIMTMOVE
 70
     0
  9
$LUNITS
 70
     2
  9
$LUPREC
 70
     2
  9
$SKETCHINC
 40
1.0
  9
$FILLETRAD
 40
10.0
  9
$AUNITS
 70
     0
  9
$AUPREC
 70
     2
  9
$MENU
  1
.
  9
$ELEVATION
 40
0.0
  9
$PELEVATION
 40
0.0
  9
$THICKNESS
 40
0.0
  9
$LIMCHECK
 70
     0
  9
$CHAMFERA
 40
0.0
  9
$CHAMFERB
 40
0.0
  9
$CHAMFERC
 40
0.0
  9
$CHAMFERD
 40
0.0
  9
$SKPOLY
 70
     0
  9
$TDCREATE
 40
2458166.330890301
  9
$TDUCREATE
 40
2458166.289223634
  9
$TDUPDATE
 40
2458166.330893565
  9
$TDUUPDATE
 40
2458166.289226898
  9
$TDINDWG
 40
0.0000000116
  9
$TDUSRTIMER
 40
0.0000000116
  9
$USRTIMER
 70
     1
  9
$ANGBASE
 50
0.0
  9
$ANGDIR
 70
     0
  9
$PDMODE
 70
     0
  9
$PDSIZE
 40
-1.0
  9
$PLINEWID
 40
0.0
  9
$SPLFRAME
 70
     0
  9
$SPLINETYPE
 70
     6
  9
$SPLINESEGS
 70
     8
  9
$HANDSEED
  5
2FB
  9
$SURFTAB1
 70
     6
  9
$SURFTAB2
 70
     6
  9
$SURFTYPE
 70
     6
  9
$SURFU
 70
     6
  9
$SURFV
 70
     6
  9
$UCSBASE
  2

  9
$UCSNAME
  2

  9
$UCSORG
 10
0.0
 20
0.0
 30
0.0
  9
$UCSXDIR
 10
1.0
 20
0.0
 30
0.0
  9
$UCSYDIR
 10
0.0
 20
1.0
 30
0.0
  9
$UCSORTHOREF
  2

  9
$UCSORTHOVIEW
 70
     0
  9
$UCSORGTOP
 10
0.0
 20
0.0
 30
0.0
  9
$UCSORGBOTTOM
 10
0.0
 20
0.0
 30
0.0
  9
$UCSORGLEFT
 10
0.0
 20
0.0
 30
0.0
  9
$UCSORGRIGHT
 10
0.0
 20
0.0
 30
0.0
  9
$UCSORGFRONT
 10
0.0
 20
0.0
 30
0.0
  9
$UCSORGBACK
 10
0.0
 20
0.0
 30
0.0
  9
$PUCSBASE
  2

  9
$PUCSNAME
  2

  9
$PUCSORG
 10
0.0
 20
0.0
 30
0.0
  9
$PUCSXDIR
 10
1.0
 20
0.0
 30
0.0
  9
$PUCSYDIR
 10
0.0
 20
1.0
 30
0.0
  9
$PUCSORTHOREF
  2

  9
$PUCSORTHOVIEW
 70
     0
  9
$PUCSORGTOP
 10
0.0
 20
0.0
 30
0.0
  9
$PUCSORGBOTTOM
 10
0.0
 20
0.0
 30
0.0
  9
$PUCSORGLEFT
 10
0.0
 20
0.0
 30
0.0
  9
$PUCSORGRIGHT
 10
0.0
 20
0.0
 30
0.0
  9
$PUCSORGFRONT
 10
0.0
 20
0.0
 30
0.0
  9
$PUCSORGBACK
 10
0.0
 20
0.0
 30
0.0
  9
$USERI1
 70
     0
  9
$USERI2
 70
     0
  9
$USERI3
 70
     0
  9
$USERI4
 70
     0
  9
$USERI5
 70
     0
  9
$USERR1
 40
0.0
  9
$USERR2
 40
0.0
  9
$USERR3
 40
0.0
  9
$USERR4
 40
0.0
  9
$USERR5
 40
0.0
  9
$WORLDVIEW
 70
     1
  9
$SHADEDGE
 70
     3
  9
$SHADEDIF
 70
    70
  9
$TILEMODE
 70
     1
  9
$MAXACTVP
 70
    64
  9
$PINSBASE
 10
0.0
 20
0.0
 30
0.0
  9
$PLIMCHECK
 70
     0
  9
$PEXTMIN
 10
1.0000000000E+20
 20
1.0000000000E+20
 30
1.0000000000E+20
  9
$PEXTMAX
 10
-1.0000000000E+20
 20
-1.0000000000E+20
 30
-1.0000000000E+20
  9
$PLIMMIN
 10
0.0
 20
0.0
  9
$PLIMMAX
 10
420.0
 20
297.0
  9
$UNITMODE
 70
     0
  9
$VISRETAIN
 70
     1
  9
$PLINEGEN
 70
     0
  9
$PSLTSCALE
 70
     1
  9
$TREEDEPTH
 70
  3020
  9
$CMLSTYLE
  2
Standard
  9
$CMLJUST
 70
     0
  9
$CMLSCALE
 40
20.0
  9
$PROXYGRAPHICS
 70
     1
  9
$MEASUREMENT
 70
     1
  9
$CELWEIGHT
370
    -1
  9
$ENDCAPS
280
     0
  9
$JOINSTYLE
280
     0
  9
$LWDISPLAY
290
     1
  9
$INSUNITS
 70
     4
  9
$HYPERLINKBASE
  1

  9
$STYLESHEET
  1

  9
$XEDIT
290
     1
  9
$CEPSNTYPE
380
     0
  9
$PSTYLEMODE
290
     1
  9
$FINGERPRINTGUID
  2
{55FCFADA-A979-4593-AD26-86D2AC56506E}
  9
$VERSIONGUID
  2
{FAEB1C32-E019-11D5-929B-00C0DF256EC4}
  9
$EXTNAMES
290
     1
  9
$PSVPSCALE
 40
0.0
  9
$OLESTARTUP
290
     0
  0
ENDSEC
  0
SECTION
  2
CLASSES
  0
CLASS
  1
ACDBDICTIONARYWDFLT
  2
AcDbDictionaryWithDefault
  3
ObjectDBX Classes
 90
        0
280
     0
281
     0
  0
CLASS
  1
VISUALSTYLE
  2
AcDbVisualStyle
  3
ObjectDBX Classes
 90
     4095
280
     0
281
     0
  0
CLASS
  1
MATERIAL
  2
AcDbMaterial
  3
ObjectDBX Classes
 90
     1153
280
     0
281
     0
  0
CLASS
  1
SCALE
  2
AcDbScale
  3
ObjectDBX Classes
 90
     1153
280
     0
281
     0
  0
CLASS
  1
TABLESTYLE
  2
AcDbTableStyle
  3
ObjectDBX Classes
 90
     4095
280
     0
281
     0
  0
CLASS
  1
MLEADERSTYLE
  2
AcDbMLeaderStyle
  3
ACDB_MLEADERSTYLE_CLASS
 90
     4095
280
     0
281
     0
  0
CLASS
  1
SUN
  2
AcDbSun
  3
SCENEOE
 90
     1153
280
     0
281
     0
  0
CLASS
  1
ACDBPLACEHOLDER
  2
AcDbPlaceHolder
  3
ObjectDBX Classes
 90
        0
280
     0
281
     0
  0
CLASS
  1
LAYOUT
  2
AcDbLayout
  3
ObjectDBX Classes
 90
        0
280
     0
281
     0
  0
ENDSEC
  0
SECTION
  2
TABLES
  0
TABLE
  2
VPORT
  5
8
330
0
100
AcDbSymbolTable
 70
     1
  0
VPORT
  5
29
330
8
100
AcDbSymbolTableRecord
100
AcDbViewportTableRecord
  2
*Active
 70
     0
 10
0.0
 20
0.0
 11
1.0
 21
1.0
 12
148.5
 22
105.0
 13
0.0
 23
0.0
 14
10.0
 24
10.0
 15
10.0
 25
10.0
 16
0.0
 26
0.0
 36
1.0
 17
0.0
 27
0.0
 37
0.0
 40
210.0
 41
1.4142857143
 42
50.0
 43
0.0
 44
0.0
 50
0.0
 51
0.0
 71
     0
 72
  2000
 73
     1
 74
     3
 75
     0
 76
     0
 77
     0
 78
     0
281
     0
 65
     1
110
0.0
120
0.0
130
0.0
111
1.0
121
0.0
131
0.0
112
0.0
122
1.0
132
0.0
 79
     0
146
0.0
  0
ENDTAB
  0
TABLE
  2
LTYPE
  5
5
330
0
100
AcDbSymbolTable
 70
     6
  0
LTYPE
  5
14
330
5
100
AcDbSymbolTableRecord
100
AcDbLinetypeTableRecord
  2
ByBlock
 70
     0
  3

 72
    65
 73
     0
 40
0.0
  0
LTYPE
  5
15
330
5
100
AcDbSymbolTableRecord
100
AcDbLinetypeTableRecord
  2
ByLayer
 70
     0
  3

 72
    65
 73
     0
 40
0.0
  0
LTYPE
  5
16
330
5
100
AcDbSymbolTableRecord
100
AcDbLinetypeTableRecord
  2
Continuous
 70
     0
  3
Solid line
 72
    65
 73
     0
 40
0.0
  0
LTYPE
  5
6E
330
5
100
AcDbSymbolTableRecord
100
AcDbLinetypeTableRecord
  2
HIDDEN
 70
     0
  3
Hidden __ __ __ __ __ __ __ __ __ __ __ __ __ __
 72
    65
 73
     2
 40
1.905
 49
1.27
 74
     0
 49
-0.635
 74
     0
  0
LTYPE
  5
6F
330
5
100
AcDbSymbolTableRecord
100
AcDbLinetypeTableRecord
  2
PHANTOM
 70
     0
  3
Phantom ______  __  __  ______  __  __  ______
 72
    65
 73
     6
 40
12.7
 49
6.35
 74
     0
 49
-1.27
 74
     0
 49
1.27
 74
     0
 49
-1.27
 74
     0
 49
1.27
 74
     0
 49
-1.27
 74
     0
  0
LTYPE
  5
70
330
5
100
AcDbSymbolTableRecord
100
AcDbLinetypeTableRecord
  2
CENTER
 70
     0
  3
Center ____ _ ____ _ ____ _ ____ _ ____ _ ____
 72
    65
 73
     4
 40
10.16
 49
6.35
 74
     0
 49
-1.27
 74
     0
 49
1.27
 74
     0
 49
-1.27
 74
     0
  0
LTYPE
  5
71
330
5
100
AcDbSymbolTableRecord
100
AcDbLinetypeTableRecord
  2
CENTERX2
 70
     0
  3
Center (2x) ________  __  ________  __  _____
 72
    65
 73
     4
 40
20.32
 49
12.7
 74
     0
 49
-2.54
 74
     0
 49
2.54
 74
     0
 49
-2.54
 74
     0
  0
LTYPE
  5
72
330
5
100
AcDbSymbolTableRecord
100
AcDbLinetypeTableRecord
  2
DOT2
 70
     0
  3
Dot (.5x) ........................................
 72
    65
 73
     2
 40
0.635
 49
0.0
 74
     0
 49
-0.635
 74
     0
  0
ENDTAB
  0
TABLE
  2
LAYER
  5
2
330
0
100
AcDbSymbolTable
 70
     5
  0
LAYER
  5
10
330
2
100
AcDbSymbolTableRecord
100
AcDbLayerTableRecord
  2
0
 70
     0
 62
     7
  6
Continuous
370
    -3
390
F
  0
LAYER
  5
73
330
2
100
AcDbSymbolTableRecord
100
AcDbLayerTableRecord
  2
FORMAT
 70
     0
 62
     7
  6
Continuous
370
    -3
390
F
  0
LAYER
  5
74
330
2
100
AcDbSymbolTableRecord
100
AcDbLayerTableRecord
  2
VERMASSUNG
 70
     0
 62
     7
  6
Continuous
370
    -3
390
F
  0
LAYER
  5
75
330
2
100
AcDbSymbolTableRecord
100
AcDbLayerTableRecord
  2
KOPF_DÜNN
 70
     0
 62
     7
  6
Continuous
370
    -3
390
F
  0
LAYER
  5
76
330
2
100
AcDbSymbolTableRecord
100
AcDbLayerTableRecord
  2
KOPF_DICK
 70
     0
 62
     7
  6
Continuous
370
    25
390
F
  0
ENDTAB
  0
TABLE
  2
STYLE
  5
3
330
0
100
AcDbSymbolTable
 70
     2
  0
STYLE
  5
11
330
3
100
AcDbSymbolTableRecord
100
AcDbTextStyleTableRecord
  2
Standard
 70
     0
 40
0.0
 41
1.0
 50
0.0
 71
     0
 42
2.0
  3
txt
  4

  0
STYLE
  5
77
330
3
100
AcDbSymbolTableRecord
100
AcDbTextStyleTableRecord
  2
SLDTEXTSTYLE0
 70
     0
 40
0.0
 41
0.7
 50
0.0
 71
     0
 42
2.0
  3
TXT
  4

  0
ENDTAB
  0
TABLE
  2
VIEW
  5
6
330
0
100
AcDbSymbolTable
 70
     0
  0
ENDTAB
  0
TABLE
  2
UCS
  5
7
330
0
100
AcDbSymbolTable
 70
     0
  0
ENDTAB
  0
TABLE
  2
APPID
  5
9
330
0
100
AcDbSymbolTable
 70
     1
  0
APPID
  5
12
330
9
100
AcDbSymbolTableRecord
100
AcDbRegAppTableRecord
  2
ACAD
 70
     0
  0
ENDTAB
  0
TABLE
  2
DIMSTYLE
  5
A
330
0
100
AcDbSymbolTable
 70
     4
100
AcDbDimStyleTable
  0
DIMSTYLE
105
27
330
A
100
AcDbSymbolTableRecord
100
AcDbDimStyleTableRecord
  2
ISO-25
 70
     0
 41
2.5
 42
0.625
 43
3.75
 44
1.25
 73
     0
 74
     0
 77
     1
 78
     8
140
2.5
141
2.5
143
0.0393700787
147
0.625
171
     3
172
     1
178
     0
271
     2
272
     2
274
     3
278
    44
283
     0
284
     8
340
11
  0
DIMSTYLE
105
206
102
{ACAD_REACTORS
330
205
330
21B
330
231
330
23B
330
245
330
250
330
25B
330
265
102
}
330
A
100
AcDbSymbolTableRecord
100
AcDbDimStyleTableRecord
  2
SLDDIMSTYLE0
 70
     0
 41
3.0
 44
0.0
 45
0.000000001
 73
     0
 74
     0
 77
     1
 78
    12
 79
     3
140
2.0
147
0.5
173
     1
178
     0
271
     2
272
     3
276
     2
284
    12
340
77
  0
DIMSTYLE
105
212
102
{ACAD_REACTORS
330
211
102
}
330
A
100
AcDbSymbolTableRecord
100
AcDbDimStyleTableRecord
  2
SLDDIMSTYLE1
 70
     0
 41
3.0
 44
0.0
 45
0.000000001
 73
     0
 74
     0
 76
     1
 77
     1
 78
    12
 79
     3
140
2.0
147
0.5
173
     1
178
     0
271
     2
272
     3
276
     2
282
     1
284
    12
340
77
  0
DIMSTYLE
105
227
102
{ACAD_REACTORS
330
226
102
}
330
A
100
AcDbSymbolTableRecord
100
AcDbDimStyleTableRecord
  2
SLDDIMSTYLE2
 70
     0
 41
3.0
 44
0.0
 45
0.000000001
 73
     0
 74
     0
 77
     1
 78
    12
 79
     3
140
2.0
147
0.5
173
     1
178
     0
271
     1
272
     3
276
     2
284
    12
340
77
  0
ENDTAB
  0
TABLE
  2
BLOCK_RECORD
  5
1
330
0
100
AcDbSymbolTable
 70
    11
  0
BLOCK_RECORD
  5
1F
330
1
100
AcDbSymbolTableRecord
100
AcDbBlockTableRecord
  2
*Model_Space
340
22
  0
BLOCK_RECORD
  5
1B
330
1
100
AcDbSymbolTableRecord
100
AcDbBlockTableRecord
  2
*Paper_Space
340
1E
  0
BLOCK_RECORD
  5
23
330
1
100
AcDbSymbolTableRecord
100
AcDbBlockTableRecord
  2
*Paper_Space0
340
26
  0
BLOCK_RECORD
  5
207
330
1
100
AcDbSymbolTableRecord
100
AcDbBlockTableRecord
  2
_D
340
0
  0
BLOCK_RECORD
  5
213
330
1
100
AcDbSymbolTableRecord
100
AcDbBlockTableRecord
  2
_D_1
340
0
  0
BLOCK_RECORD
  5
21C
330
1
100
AcDbSymbolTableRecord
100
AcDbBlockTableRecord
  2
_D_2
340
0
  0
BLOCK_RECORD
  5
228
330
1
100
AcDbSymbolTableRecord
100
AcDbBlockTableRecord
  2
_D_3
340
0
  0
BLOCK_RECORD
  5
232
330
1
100
AcDbSymbolTableRecord
100
AcDbBlockTableRecord
  2
_D_4
340
0
  0
BLOCK_RECORD
  5
23C
330
1
100
AcDbSymbolTableRecord
100
AcDbBlockTableRecord
  2
_D_5
340
0
  0
BLOCK_RECORD
  5
246
330
1
100
AcDbSymbolTableRecord
100
AcDbBlockTableRecord
  2
_D_6
340
0
  0
BLOCK_RECORD
  5
251
330
1
100
AcDbSymbolTableRecord
100
AcDbBlockTableRecord
  2
_D_7
340
0
  0
BLOCK_RECORD
  5
25C
330
1
100
AcDbSymbolTableRecord
100
AcDbBlockTableRecord
  2
_D_8
340
0
  0
BLOCK_RECORD
  5
266
330
1
100
AcDbSymbolTableRecord
100
AcDbBlockTableRecord
  2
_D_9
340
0
  0
ENDTAB
  0
ENDSEC
  0
SECTION
  2
BLOCKS
  0
BLOCK
  5
20
330
1F
100
AcDbEntity
  8
0
100
AcDbBlockBegin
  2
*Model_Space
 70
     0
 10
0.0
 20
0.0
 30
0.0
  3
*Model_Space
  1

  0
ENDBLK
  5
21
330
1F
100
AcDbEntity
  8
0
100
AcDbBlockEnd
  0
BLOCK
  5
1C
330
1B
100
AcDbEntity
 67
     1
  8
0
100
AcDbBlockBegin
  2
*Paper_Space
 70
     0
 10
0.0
 20
0.0
 30
0.0
  3
*Paper_Space
  1

  0
ENDBLK
  5
1D
330
1B
100
AcDbEntity
 67
     1
  8
0
100
AcDbBlockEnd
  0
BLOCK
  5
24
330
23
100
AcDbEntity
  8
0
100
AcDbBlockBegin
  2
*Paper_Space0
 70
     0
 10
0.0
 20
0.0
 30
0.0
  3
*Paper_Space0
  1

  0
ENDBLK
  5
25
330
23
100
AcDbEntity
  8
0
100
AcDbBlockEnd
  0
BLOCK
  5
208
330
207
100
AcDbEntity
  8
0
100
AcDbBlockBegin
  2
_D
 70
     0
 10
0.0
 20
0.0
 30
0.0
  3
_D
  1

  0
SOLID
  5
20A
330
207
100
AcDbEntity
  8
VERMASSUNG
100
AcDbTrace
 10
239.3156928834
 20
131.3749651633
 30
0.0
 11
238.8656928834
 21
128.3749651633
 31
0.0
 12
239.7656928834
 22
128.3749651633
 32
0.0
 13
239.7656928834
 23
128.3749651633
 33
0.0
  0
SOLID
  5
20B
330
207
100
AcDbEntity
  8
VERMASSUNG
100
AcDbTrace
 10
239.3156928834
 20
104.3749651633
 30
0.0
 11
239.7656928834
 21
107.3749651633
 31
0.0
 12
238.8656928834
 22
107.3749651633
 32
0.0
 13
238.8656928834
 23
107.3749651633
 33
0.0
  0
LINE
  5
20C
330
207
100
AcDbEntity
  8
VERMASSUNG
100
AcDbLine
 10
212.2590033374
 20
131.3749651633
 30
0.0
 11
240.3156928834
 21
131.3749651633
 31
0.0
  0
LINE
  5
20D
330
207
100
AcDbEntity
  8
VERMASSUNG
100
AcDbLine
 10
212.2590033374
 20
104.3749651633
 30
0.0
 11
240.3156928834
 21
104.3749651633
 31
0.0
  0
LINE
  5
20E
330
207
100
AcDbEntity
  8
VERMASSUNG
100
AcDbLine
 10
239.3156928834
 20
131.3749651633
 30
0.0
 11
239.3156928834
 21
104.3749651633
 31
0.0
  0
MTEXT
  5
20F
330
207
100
AcDbEntity
  8
VERMASSUNG
100
AcDbMText
 10
236.7375575784
 20
114.669965206
 30
0.0
 40
2.0
 41
0.0
 71
     1
 72
     1
  1
%%c
  7
SLDTEXTSTYLE0
 11
-7.044195017643634E-15
 21
1.0
 31
0.0
 73
     1
 44
1.0
  0
MTEXT
  5
210
330
207
100
AcDbEntity
  8
VERMASSUNG
100
AcDbMText
 10
236.5375576271
 20
118.2799652203
 30
0.0
 40
2.0
 41
0.0
 71
     1
 72
     1
  1
27
  7
SLDTEXTSTYLE0
 11
-7.044195017643634E-15
 21
1.0
 31
0.0
 73
     1
 44
1.0
  0
ENDBLK
  5
209
330
207
100
AcDbEntity
  8
0
100
AcDbBlockEnd
  0
BLOCK
  5
214
330
213
100
AcDbEntity
  8
0
100
AcDbBlockBegin
  2
_D_1
 70
     0
 10
0.0
 20
0.0
 30
0.0
  3
_D_1
  1

  0
SOLID
  5
216
330
213
100
AcDbEntity
  8
VERMASSUNG
100
AcDbTrace
 10
231.4379693517
 20
125.8749651633
 30
0.0
 11
230.9879693517
 21
122.8749651633
 31
0.0
 12
231.8879693517
 22
122.8749651633
 32
0.0
 13
231.8879693517
 23
122.8749651633
 33
0.0
  0
LINE
  5
217
330
213
100
AcDbEntity
  8
VERMASSUNG
100
AcDbLine
 10
208.7590033374
 20
125.8749651633
 30
0.0
 11
232.4379693517
 21
125.8749651633
 31
0.0
  0
LINE
  5
218
330
213
100
AcDbEntity
  8
VERMASSUNG
100
AcDbLine
 10
231.4379693517
 20
125.8749651633
 30
0.0
 11
231.4379693517
 21
114.8699650991
 31
0.0
  0
MTEXT
  5
219
330
213
100
AcDbEntity
  8
VERMASSUNG
100
AcDbMText
 10
228.8598340468
 20
114.8699650991
 30
0.0
 40
2.0
 41
0.0
 71
     1
 72
     1
  1
%%c
  7
SLDTEXTSTYLE0
 11
-7.044195017643634E-15
 21
1.0
 31
0.0
 73
     1
 44
1.0
  0
MTEXT
  5
21A
330
213
100
AcDbEntity
  8
VERMASSUNG
100
AcDbMText
 10
228.6598340955
 20
118.4799651134
 30
0.0
 40
2.0
 41
0.0
 71
     1
 72
     1
  1
16
  7
SLDTEXTSTYLE0
 11
-7.044195017643634E-15
 21
1.0
 31
0.0
 73
     1
 44
1.0
  0
ENDBLK
  5
215
330
213
100
AcDbEntity
  8
0
100
AcDbBlockEnd
  0
BLOCK
  5
21D
330
21C
100
AcDbEntity
  8
0
100
AcDbBlockBegin
  2
_D_2
 70
     0
 10
0.0
 20
0.0
 30
0.0
  3
_D_2
  1

  0
SOLID
  5
21F
330
21C
100
AcDbEntity
  8
VERMASSUNG
100
AcDbTrace
 10
246.2590033374
 20
134.8749651633
 30
0.0
 11
245.8090033374
 21
131.8749651633
 31
0.0
 12
246.7090033374
 22
131.8749651633
 32
0.0
 13
246.7090033374
 23
131.8749651633
 33
0.0
  0
SOLID
  5
220
330
21C
100
AcDbEntity
  8
VERMASSUNG
100
AcDbTrace
 10
246.2590033374
 20
100.8749651633
 30
0.0
 11
246.7090033374
 21
103.8749651633
 31
0.0
 12
245.8090033374
 22
103.8749651633
 32
0.0
 13
245.8090033374
 23
103.8749651633
 33
0.0
  0
LINE
  5
221
330
21C
100
AcDbEntity
  8
VERMASSUNG
100
AcDbLine
 10
167.7872867608
 20
134.8749651633
 30
0.0
 11
247.2590033374
 21
134.8749651633
 31
0.0
  0
LINE
  5
222
330
21C
100
AcDbEntity
  8
VERMASSUNG
100
AcDbLine
 10
167.7872867608
 20
100.8749651633
 30
0.0
 11
247.2590033374
 21
100.8749651633
 31
0.0
  0
LINE
  5
223
330
21C
100
AcDbEntity
  8
VERMASSUNG
100
AcDbLine
 10
246.2590033374
 20
134.8749651633
 30
0.0
 11
246.2590033374
 21
100.8749651633
 31
0.0
  0
MTEXT
  5
224
330
21C
100
AcDbEntity
  8
VERMASSUNG
100
AcDbMText
 10
243.6808680324
 20
114.5699651431
 30
0.0
 40
2.0
 41
0.0
 71
     1
 72
     1
  1
%%c
  7
SLDTEXTSTYLE0
 11
-7.044195017643634E-15
 21
1.0
 31
0.0
 73
     1
 44
1.0
  0
MTEXT
  5
225
330
21C
100
AcDbEntity
  8
VERMASSUNG
100
AcDbMText
 10
243.4808680811
 20
118.1799651574
 30
0.0
 40
2.0
 41
0.0
 71
     1
 72
     1
  1
34
  7
SLDTEXTSTYLE0
 11
-7.044195017643634E-15
 21
1.0
 31
0.0
 73
     1
 44
1.0
  0
ENDBLK
  5
21E
330
21C
100
AcDbEntity
  8
0
100
AcDbBlockEnd
  0
BLOCK
  5
229
330
228
100
AcDbEntity
  8
0
100
AcDbBlockBegin
  2
_D_3
 70
     0
 10
0.0
 20
0.0
 30
0.0
  3
_D_3
  1

  0
SOLID
  5
22B
330
228
100
AcDbEntity
  8
VERMASSUNG
100
AcDbTrace
 10
212.2590033374
 20
87.5630638919
 30
0.0
 11
209.2590033374
 21
88.0130638919
 31
0.0
 12
209.2590033374
 22
87.1130638919
 32
0.0
 13
209.2590033374
 23
87.1130638919
 33
0.0
  0
SOLID
  5
22C
330
228
100
AcDbEntity
  8
VERMASSUNG
100
AcDbTrace
 10
167.7872867608
 20
87.5630638919
 30
0.0
 11
170.7872867608
 21
87.1130638919
 31
0.0
 12
170.7872867608
 22
88.0130638919
 32
0.0
 13
170.7872867608
 23
88.0130638919
 33
0.0
  0
LINE
  5
22D
330
228
100
AcDbEntity
  8
VERMASSUNG
100
AcDbLine
 10
212.2590033374
 20
108.8382709152
 30
0.0
 11
212.2590033374
 21
86.5630638919
 31
0.0
  0
LINE
  5
22E
330
228
100
AcDbEntity
  8
VERMASSUNG
100
AcDbLine
 10
167.7872867608
 20
100.8749651633
 30
0.0
 11
167.7872867608
 21
86.5630638919
 31
0.0
  0
LINE
  5
22F
330
228
100
AcDbEntity
  8
VERMASSUNG
100
AcDbLine
 10
212.2590033374
 20
87.5630638919
 30
0.0
 11
167.7872867608
 21
87.5630638919
 31
0.0
  0
MTEXT
  5
230
330
228
100
AcDbEntity
  8
VERMASSUNG
100
AcDbMText
 10
187.423145042
 20
90.1411994879
 30
0.0
 40
2.0
 41
0.0
 71
     1
 72
     1
  1
44.5
  7
SLDTEXTSTYLE0
 73
     1
 44
1.0
  0
ENDBLK
  5
22A
330
228
100
AcDbEntity
  8
0
100
AcDbBlockEnd
  0
BLOCK
  5
233
330
232
100
AcDbEntity
  8
0
100
AcDbBlockBegin
  2
_D_4
 70
     0
 10
0.0
 20
0.0
 30
0.0
  3
_D_4
  1

  0
SOLID
  5
235
330
232
100
AcDbEntity
  8
VERMASSUNG
100
AcDbTrace
 10
212.2590033374
 20
79.6759380607
 30
0.0
 11
209.2590033374
 21
80.1259380607
 31
0.0
 12
209.2590033374
 22
79.2259380607
 32
0.0
 13
209.2590033374
 23
79.2259380607
 33
0.0
  0
SOLID
  5
236
330
232
100
AcDbEntity
  8
VERMASSUNG
100
AcDbTrace
 10
150.2590033374
 20
79.6759380607
 30
0.0
 11
153.2590033374
 21
79.2259380607
 31
0.0
 12
153.2590033374
 22
80.1259380607
 32
0.0
 13
153.2590033374
 23
80.1259380607
 33
0.0
  0
LINE
  5
237
330
232
100
AcDbEntity
  8
VERMASSUNG
100
AcDbLine
 10
212.2590033374
 20
106.2237461466
 30
0.0
 11
212.2590033374
 21
78.6759380607
 31
0.0
  0
LINE
  5
238
330
232
100
AcDbEntity
  8
VERMASSUNG
100
AcDbLine
 10
150.2590033374
 20
86.3999651633
 30
0.0
 11
150.2590033374
 21
78.6759380607
 31
0.0
  0
LINE
  5
239
330
232
100
AcDbEntity
  8
VERMASSUNG
100
AcDbLine
 10
212.2590033374
 20
79.6759380607
 30
0.0
 11
150.2590033374
 21
79.6759380607
 31
0.0
  0
MTEXT
  5
23A
330
232
100
AcDbEntity
  8
VERMASSUNG
100
AcDbMText
 10
179.8590033873
 20
82.2540736567
 30
0.0
 40
2.0
 41
0.0
 71
     1
 72
     1
  1
62
  7
SLDTEXTSTYLE0
 73
     1
 44
1.0
  0
ENDBLK
  5
234
330
232
100
AcDbEntity
  8
0
100
AcDbBlockEnd
  0
BLOCK
  5
23D
330
23C
100
AcDbEntity
  8
0
100
AcDbBlockBegin
  2
_D_5
 70
     0
 10
0.0
 20
0.0
 30
0.0
  3
_D_5
  1

  0
SOLID
  5
23F
330
23C
100
AcDbEntity
  8
VERMASSUNG
100
AcDbTrace
 10
132.2590033374
 20
160.3066282191
 30
0.0
 11
135.2590033374
 21
159.8566282191
 31
0.0
 12
135.2590033374
 22
160.7566282191
 32
0.0
 13
135.2590033374
 23
160.7566282191
 33
0.0
  0
SOLID
  5
240
330
23C
100
AcDbEntity
  8
VERMASSUNG
100
AcDbTrace
 10
212.2590033374
 20
160.3066282191
 30
0.0
 11
209.2590033374
 21
160.7566282191
 31
0.0
 12
209.2590033374
 22
159.8566282191
 32
0.0
 13
209.2590033374
 23
159.8566282191
 33
0.0
  0
LINE
  5
241
330
23C
100
AcDbEntity
  8
VERMASSUNG
100
AcDbLine
 10
132.2590033374
 20
149.1499651633
 30
0.0
 11
132.2590033374
 21
161.3066282191
 31
0.0
  0
LINE
  5
242
330
23C
100
AcDbEntity
  8
VERMASSUNG
100
AcDbLine
 10
212.2590033374
 20
129.5261841799
 30
0.0
 11
212.2590033374
 21
161.3066282191
 31
0.0
  0
LINE
  5
243
330
23C
100
AcDbEntity
  8
VERMASSUNG
100
AcDbLine
 10
132.2590033374
 20
160.3066282191
 30
0.0
 11
212.2590033374
 21
160.3066282191
 31
0.0
  0
MTEXT
  5
244
330
23C
100
AcDbEntity
  8
VERMASSUNG
100
AcDbMText
 10
170.8590033873
 20
162.884763815
 30
0.0
 40
2.0
 41
0.0
 71
     1
 72
     1
  1
80
  7
SLDTEXTSTYLE0
 73
     1
 44
1.0
  0
ENDBLK
  5
23E
330
23C
100
AcDbEntity
  8
0
100
AcDbBlockEnd
  0
BLOCK
  5
247
330
246
100
AcDbEntity
  8
0
100
AcDbBlockBegin
  2
_D_6
 70
     0
 10
0.0
 20
0.0
 30
0.0
  3
_D_6
  1

  0
SOLID
  5
249
330
246
100
AcDbEntity
  8
VERMASSUNG
100
AcDbTrace
 10
162.7590033374
 20
153.2143631781
 30
0.0
 11
165.7590033374
 21
152.7643631781
 31
0.0
 12
165.7590033374
 22
153.6643631781
 32
0.0
 13
165.7590033374
 23
153.6643631781
 33
0.0
  0
SOLID
  5
24A
330
246
100
AcDbEntity
  8
VERMASSUNG
100
AcDbTrace
 10
212.2590033374
 20
153.2143631781
 30
0.0
 11
209.2590033374
 21
153.6643631781
 31
0.0
 12
209.2590033374
 22
152.7643631781
 32
0.0
 13
209.2590033374
 23
152.7643631781
 33
0.0
  0
LINE
  5
24B
330
246
100
AcDbEntity
  8
VERMASSUNG
100
AcDbLine
 10
162.7590033374
 20
125.7749651633
 30
0.0
 11
162.7590033374
 21
154.2143631781
 31
0.0
  0
LINE
  5
24C
330
246
100
AcDbEntity
  8
VERMASSUNG
100
AcDbLine
 10
212.2590033374
 20
129.5261841799
 30
0.0
 11
212.2590033374
 21
154.2143631781
 31
0.0
  0
LINE
  5
24D
330
246
100
AcDbEntity
  8
VERMASSUNG
100
AcDbLine
 10
162.7590033374
 20
153.2143631781
 30
0.0
 11
212.2590033374
 21
153.2143631781
 31
0.0
  0
MTEXT
  5
24E
330
246
100
AcDbEntity
  8
VERMASSUNG
100
AcDbMText
 10
181.8090041726
 20
155.7924987741
 30
0.0
 40
2.0
 41
0.0
 71
     1
 72
     1
  1
49.5
  7
SLDTEXTSTYLE0
 73
     1
 44
1.0
  0
MTEXT
  5
24F
330
246
100
AcDbEntity
  8
VERMASSUNG
100
AcDbMText
 10
187.9965040608
 20
155.7924987741
 30
0.0
 40
2.0
 41
0.0
 71
     1
 72
     1
  1
max.
  7
SLDTEXTSTYLE0
 73
     1
 44
1.0
  0
ENDBLK
  5
248
330
246
100
AcDbEntity
  8
0
100
AcDbBlockEnd
  0
BLOCK
  5
252
330
251
100
AcDbEntity
  8
0
100
AcDbBlockBegin
  2
_D_7
 70
     0
 10
0.0
 20
0.0
 30
0.0
  3
_D_7
  1

  0
SOLID
  5
254
330
251
100
AcDbEntity
  8
VERMASSUNG
100
AcDbTrace
 10
173.2590033374
 20
146.5346282396
 30
0.0
 11
176.2590033374
 21
146.0846282396
 31
0.0
 12
176.2590033374
 22
146.9846282396
 32
0.0
 13
176.2590033374
 23
146.9846282396
 33
0.0
  0
SOLID
  5
255
330
251
100
AcDbEntity
  8
VERMASSUNG
100
AcDbTrace
 10
212.2590033374
 20
146.5346282396
 30
0.0
 11
209.2590033374
 21
146.9846282396
 31
0.0
 12
209.2590033374
 22
146.0846282396
 32
0.0
 13
209.2590033374
 23
146.0846282396
 33
0.0
  0
LINE
  5
256
330
251
100
AcDbEntity
  8
VERMASSUNG
100
AcDbLine
 10
173.2590033374
 20
125.8749651633
 30
0.0
 11
173.2590033374
 21
147.5346282396
 31
0.0
  0
LINE
  5
257
330
251
100
AcDbEntity
  8
VERMASSUNG
100
AcDbLine
 10
212.2590033374
 20
129.5261841799
 30
0.0
 11
212.2590033374
 21
147.5346282396
 31
0.0
  0
LINE
  5
258
330
251
100
AcDbEntity
  8
VERMASSUNG
100
AcDbLine
 10
173.2590033374
 20
146.5346282396
 30
0.0
 11
212.2590033374
 21
146.5346282396
 31
0.0
  0
MTEXT
  5
259
330
251
100
AcDbEntity
  8
VERMASSUNG
100
AcDbMText
 10
188.5590034871
 20
149.1127638355
 30
0.0
 40
2.0
 41
0.0
 71
     1
 72
     1
  1
39
  7
SLDTEXTSTYLE0
 73
     1
 44
1.0
  0
MTEXT
  5
25A
330
251
100
AcDbEntity
  8
VERMASSUNG
100
AcDbMText
 10
192.5465033873
 20
149.1127638355
 30
0.0
 40
2.0
 41
0.0
 71
     1
 72
     1
  1
min.
  7
SLDTEXTSTYLE0
 73
     1
 44
1.0
  0
ENDBLK
  5
253
330
251
100
AcDbEntity
  8
0
100
AcDbBlockEnd
  0
BLOCK
  5
25D
330
25C
100
AcDbEntity
  8
0
100
AcDbBlockBegin
  2
_D_8
 70
     0
 10
0.0
 20
0.0
 30
0.0
  3
_D_8
  1

  0
SOLID
  5
25F
330
25C
100
AcDbEntity
  8
VERMASSUNG
100
AcDbTrace
 10
212.2590033374
 20
167.7473890467
 30
0.0
 11
209.2590033374
 21
168.1973890467
 31
0.0
 12
209.2590033374
 22
167.2973890467
 32
0.0
 13
209.2590033374
 23
167.2973890467
 33
0.0
  0
SOLID
  5
260
330
25C
100
AcDbEntity
  8
VERMASSUNG
100
AcDbTrace
 10
92.3090033374
 20
167.7473890467
 30
0.0
 11
95.3090033374
 21
167.2973890467
 31
0.0
 12
95.3090033374
 22
168.1973890467
 32
0.0
 13
95.3090033374
 23
168.1973890467
 33
0.0
  0
LINE
  5
261
330
25C
100
AcDbEntity
  8
VERMASSUNG
100
AcDbLine
 10
212.2590033374
 20
129.5261841799
 30
0.0
 11
212.2590033374
 21
168.7473890467
 31
0.0
  0
LINE
  5
262
330
25C
100
AcDbEntity
  8
VERMASSUNG
100
AcDbLine
 10
92.3090033374
 20
140.0780598871
 30
0.0
 11
92.3090033374
 21
168.7473890467
 31
0.0
  0
LINE
  5
263
330
25C
100
AcDbEntity
  8
VERMASSUNG
100
AcDbLine
 10
212.2590033374
 20
167.7473890467
 30
0.0
 11
92.3090033374
 21
167.7473890467
 31
0.0
  0
MTEXT
  5
264
330
25C
100
AcDbEntity
  8
VERMASSUNG
100
AcDbMText
 10
148.8840032923
 20
170.3255246426
 30
0.0
 40
2.0
 41
0.0
 71
     1
 72
     1
  1
119.95
  7
SLDTEXTSTYLE0
 73
     1
 44
1.0
  0
ENDBLK
  5
25E
330
25C
100
AcDbEntity
  8
0
100
AcDbBlockEnd
  0
BLOCK
  5
267
330
266
100
AcDbEntity
  8
0
100
AcDbBlockBegin
  2
_D_9
 70
     0
 10
0.0
 20
0.0
 30
0.0
  3
_D_9
  1

  0
SOLID
  5
269
330
266
100
AcDbEntity
  8
VERMASSUNG
100
AcDbTrace
 10
74.8859524689
 20
86.3999651633
 30
0.0
 11
75.3359524689
 21
89.3999651633
 31
0.0
 12
74.4359524689
 22
89.3999651633
 32
0.0
 13
74.4359524689
 23
89.3999651633
 33
0.0
  0
SOLID
  5
26A
330
266
100
AcDbEntity
  8
VERMASSUNG
100
AcDbTrace
 10
74.8859524689
 20
149.3499651633
 30
0.0
 11
74.4359524689
 21
146.3499651633
 31
0.0
 12
75.3359524689
 22
146.3499651633
 32
0.0
 13
75.3359524689
 23
146.3499651633
 33
0.0
  0
LINE
  5
26B
330
266
100
AcDbEntity
  8
VERMASSUNG
100
AcDbLine
 10
132.4590033374
 20
86.3999651633
 30
0.0
 11
73.8859524689
 21
86.3999651633
 31
0.0
  0
LINE
  5
26C
330
266
100
AcDbEntity
  8
VERMASSUNG
100
AcDbLine
 10
132.4590033374
 20
149.3499651633
 30
0.0
 11
73.8859524689
 21
149.3499651633
 31
0.0
  0
LINE
  5
26D
330
266
100
AcDbEntity
  8
VERMASSUNG
100
AcDbLine
 10
74.8859524689
 20
86.3999651633
 30
0.0
 11
74.8859524689
 21
149.3499651633
 31
0.0
  0
MTEXT
  5
26E
330
266
100
AcDbEntity
  8
VERMASSUNG
100
AcDbMText
 10
72.1078172127
 20
108.0699657074
 30
0.0
 40
2.0
 41
0.0
 71
     1
 72
     1
  1
KM
  7
SLDTEXTSTYLE0
 11
2.832769448823990E-16
 21
1.0
 31
0.0
 73
     1
 44
1.0
  0
MTEXT
  5
26F
330
266
100
AcDbEntity
  8
VERMASSUNG
100
AcDbMText
 10
72.307817164
 20
111.4699655197
 30
0.0
 40
2.0
 41
0.0
 71
     1
 72
     1
  1
%%c
  7
SLDTEXTSTYLE0
 11
2.832769448823990E-16
 21
1.0
 31
0.0
 73
     1
 44
1.0
  0
MTEXT
  5
270
330
266
100
AcDbEntity
  8
VERMASSUNG
100
AcDbMText
 10
72.1078172127
 20
115.079965534
 30
0.0
 40
2.0
 41
0.0
 71
     1
 72
     1
  1
62.95
  7
SLDTEXTSTYLE0
 11
2.832769448823990E-16
 21
1.0
 31
0.0
 73
     1
 44
1.0
  0
MTEXT
  5
271
330
266
100
AcDbEntity
  8
VERMASSUNG
100
AcDbMText
 10
72.1078172127
 20
122.4674652464
 30
0.0
 40
2.0
 41
0.0
 71
     1
 72
     1
  1
XMZ
  7
SLDTEXTSTYLE0
 11
2.832769448823990E-16
 21
1.0
 31
0.0
 73
     1
 44
1.0
  0
ENDBLK
  5
268
330
266
100
AcDbEntity
  8
0
100
AcDbBlockEnd
  0
ENDSEC
  0
SECTION
  2
ENTITIES
  0
MTEXT
  5
78
330
1F
100
AcDbEntity
  8
KOPF_DÜNN
100
AcDbMText
 10
13.8892156294
 20
23.8442973028
 30
0.0
 40
3.0
 41
0.0
 71
     1
 72
     1
  1
KY6.S16.K01.080
  7
SLDTEXTSTYLE0
 73
     1
 44
1.0
  0
MTEXT
  5
79
330
1F
100
AcDbEntity
  8
VERMASSUNG
100
AcDbMText
 10
13.9329988022
 20
28.8834360957
 30
0.0
 40
3.0
 41
0.0
 71
     1
 72
     1
  1
Schrumpffutter_Heat shrink chuck
  7
SLDTEXTSTYLE0
 73
     1
 44
1.0
  0
MTEXT
  5
7A
330
1F
100
AcDbEntity
  8
VERMASSUNG
100
AcDbMText
 10
98.8601118557
 20
13.8365368761
 30
0.0
 40
2.0
 41
0.0
 71
     1
 72
     1
  1
Datum: 16.02.2018
  7
SLDTEXTSTYLE0
 73
     1
 44
1.0
  0
MTEXT
  5
7B
330
1F
100
AcDbEntity
  8
VERMASSUNG
100
AcDbMText
 10
13.933048693
 20
18.0482802738
 30
0.0
 40
2.0
 41
0.0
 71
     1
 72
     1
  1
KM63 XMZ / Ø16
  7
SLDTEXTSTYLE0
 73
     1
 44
1.0
  0
MTEXT
  5
7C
330
1F
100
AcDbEntity
  8
VERMASSUNG
100
AcDbMText
 10
13.9808475933
 20
13.9090974274
 30
0.0
 40
2.0
 41
0.0
 71
     1
 72
     1
  1
Gewicht: 916g
  7
SLDTEXTSTYLE0
 73
     1
 44
1.0
  0
CIRCLE
  5
7D
330
1F
100
AcDbEntity
  8
0
  6
Continuous
 62
     7
370
    25
100
AcDbCircle
 10
349.5554646735
 20
117.8749651633
 30
0.0
 40
1.850000000000038
  0
SPLINE
  5
7E
330
1F
100
AcDbEntity
  8
0
  6
Continuous
 62
     7
370
    25
100
AcDbSpline
210
0.0
220
0.0
230
1.0
 70
     8
 71
     3
 72
    11
 73
     7
 74
     0
 42
0.000000001
 43
0.00000001
 40
0.0
 40
0.0
 40
0.0
 40
0.0
 40
0.1234466142197553
 40
0.4778176788690394
 40
0.8145811964265246
 40
0.9999999999999999
 40
0.9999999999999999
 40
0.9999999999999999
 40
0.9999999999999999
 10
351.1868801225406
 20
118.4567587667465
 30
0.0
 10
351.1748254391694
 20
118.390901958653
 30
0.0
 10
351.1281660725729
 20
118.1359938157293
 30
0.0
 10
351.0403370991959
 20
117.6561686590961
 30
0.0
 10
350.9444714298876
 20
117.1324382610726
 30
0.0
 10
350.893219303334
 20
116.8524384103957
 30
0.0
 10
350.8750204720033
 20
116.7530148274586
 30
0.0
  0
SPLINE
  5
7F
330
1F
100
AcDbEntity
  8
0
  6
Continuous
 62
     7
370
    25
100
AcDbSpline
210
0.0
220
0.0
230
1.0
 70
     8
 71
     3
 72
    11
 73
     7
 74
     0
 42
0.000000001
 43
0.00000001
 40
0.0
 40
0.0
 40
0.0
 40
0.0
 40
0.2164554195955887
 40
0.4403113128294763
 40
0.7519005492291979
 40
1.0
 40
1.0
 40
1.0
 40
1.0
 10
349.8673243239951
 20
119.5787091025472
 30
0.0
 10
349.9577151759308
 20
119.5018544277272
 30
0.0
 10
350.1415872857534
 20
119.3455174654544
 30
0.0
 10
350.4828048299212
 20
119.0553976557265
 30
0.0
 10
350.8488219297778
 20
118.7441922505589
 30
0.0
 10
351.083050853437
 20
118.5450394508981
 30
0.0
 10
351.1868801225406
 20
118.4567587667465
 30
0.0
  0
SPLINE
  5
80
330
1F
100
AcDbEntity
  8
0
  6
Continuous
 62
     7
370
    25
100
AcDbSpline
210
0.0
220
0.0
230
1.0
 70
     8
 71
     3
 72
    11
 73
     7
 74
     0
 42
0.000000001
 43
0.00000001
 40
0.0
 40
0.0
 40
0.0
 40
0.0
 40
0.2164554389755486
 40
0.440311342023991
 40
0.7519005807379204
 40
1.0
 40
1.0
 40
1.0
 40
1.0
 10
348.2359088749123
 20
118.9969154990599
 30
0.0
 10
348.3476624248843
 20
119.0367689159637
 30
0.0
 10
348.5749903026082
 20
119.1178383109588
 30
0.0
 10
348.9968501956459
 20
119.268281552187
 30
0.0
 10
349.4493705482043
 20
119.4296589126904
 30
0.0
 10
349.7389563869409
 20
119.5329306779995
 30
0.0
 10
349.8673243239951
 20
119.5787091025472
 30
0.0
  0
SPLINE
  5
81
330
1F
100
AcDbEntity
  8
0
  6
Continuous
 62
     7
370
    25
100
AcDbSpline
210
0.0
220
0.0
230
1.0
 70
     8
 71
     3
 72
    11
 73
     7
 74
     0
 42
0.000000001
 43
0.00000001
 40
0.0
 40
0.0
 40
0.0
 40
0.0
 40
0.1854188142158657
 40
0.5221823473471047
 40
0.8765533964033788
 40
1.0
 40
1.0
 40
1.0
 40
1.0
 10
347.9240492243749
 20
117.2931715597719
 30
0.0
 10
347.9422481032219
 20
117.3925951412197
 30
0.0
 10
347.9935003632237
 20
117.6725949856887
 30
0.0
 10
348.0893659048216
 20
118.1963254120567
 30
0.0
 10
348.1771950411783
 20
118.676150535231
 30
0.0
 10
348.2238542362351
 20
118.9310586899682
 30
0.0
 10
348.2359088749123
 20
118.9969154990599
 30
0.0
  0
SPLINE
  5
82
330
1F
100
AcDbEntity
  8
0
  6
Continuous
 62
     7
370
    25
100
AcDbSpline
210
0.0
220
0.0
230
1.0
 70
     8
 71
     3
 72
    11
 73
     7
 74
     0
 42
0.000000001
 43
0.00000001
 40
0.0
 40
0.0
 40
0.0
 40
0.0
 40
0.2164554195955887
 40
0.4403113128294763
 40
0.7519005492291979
 40
1.0
 40
1.0
 40
1.0
 40
1.0
 10
349.2436050229204
 20
116.1712212239713
 30
0.0
 10
349.1532141709847
 20
116.2480758987912
 30
0.0
 10
348.9693420611621
 20
116.404412861064
 30
0.0
 10
348.6281245169943
 20
116.694532670792
 30
0.0
 10
348.2621074171377
 20
117.0057380759596
 30
0.0
 10
348.0278784934785
 20
117.2048908756204
 30
0.0
 10
347.9240492243749
 20
117.2931715597719
 30
0.0
  0
SPLINE
  5
83
330
1F
100
AcDbEntity
  8
0
  6
Continuous
 62
     7
370
    25
100
AcDbSpline
210
0.0
220
0.0
230
1.0
 70
     8
 71
     3
 72
    11
 73
     7
 74
     0
 42
0.000000001
 43
0.00000001
 40
0.0
 40
0.0
 40
0.0
 40
0.0
 40
0.2164554389755486
 40
0.440311342023991
 40
0.7519005807379204
 40
1.0
 40
1.0
 40
1.0
 40
1.0
 10
350.8750204720033
 20
116.7530148274586
 30
0.0
 10
350.7632669220312
 20
116.7131614105548
 30
0.0
 10
350.5359390443073
 20
116.6320920155597
 30
0.0
 10
350.1140791512696
 20
116.4816487743315
 30
0.0
 10
349.6615587987112
 20
116.3202714138281
 30
0.0
 10
349.3719729599746
 20
116.216999648519
 30
0.0
 10
349.2436050229204
 20
116.1712212239713
 30
0.0
  0
ARC
  5
84
330
1F
100
AcDbEntity
  8
0
  6
Continuous
 62
     7
370
    25
100
AcDbCircle
 10
349.5554646735
 20
117.8749651633
 30
0.0
 40
1.500000000000044
100
AcDbArc
 50
169.6271967899
 51
229.6271967899
  0
ARC
  5
85
330
1F
100
AcDbEntity
  8
0
  6
Continuous
 62
     7
370
    25
100
AcDbCircle
 10
349.5554646735
 20
117.8749651633
 30
0.0
 40
1.500000000000034
100
AcDbArc
 50
109.6271967899
 51
169.6271967899
  0
ARC
  5
86
330
1F
100
AcDbEntity
  8
0
  6
Continuous
 62
     7
370
    25
100
AcDbCircle
 10
349.5554646735
 20
117.8749651633
 30
0.0
 40
1.500000000000044
100
AcDbArc
 50
229.6271967899
 51
289.6271967899
  0
ARC
  5
87
330
1F
100
AcDbEntity
  8
0
  6
Continuous
 62
     7
370
    25
100
AcDbCircle
 10
349.5554646735
 20
117.8749651633
 30
0.0
 40
1.500000000000007
100
AcDbArc
 50
49.6271967899
 51
109.6271967899
  0
ARC
  5
88
330
1F
100
AcDbEntity
  8
0
  6
Continuous
 62
     7
370
    25
100
AcDbCircle
 10
349.5554646735
 20
117.8749651633
 30
0.0
 40
1.499999999999975
100
AcDbArc
 50
349.6271967899
 51
49.6271967899
  0
ARC
  5
89
330
1F
100
AcDbEntity
  8
0
  6
Continuous
 62
     7
370
    25
100
AcDbCircle
 10
349.5554646735
 20
117.8749651633
 30
0.0
 40
1.499999999999975
100
AcDbArc
 50
289.6271967899
 51
349.6271967899
  0
SPLINE
  5
8A
330
1F
100
AcDbEntity
  8
0
  6
Continuous
 62
     7
370
    25
100
AcDbSpline
210
0.0
220
0.0
230
1.0
 70
     8
 71
     3
 72
     8
 73
     4
 74
     0
 42
0.000000001
 43
0.00000001
 40
0.0
 40
0.0
 40
0.0
 40
0.0
 40
1.0
 40
1.0
 40
1.0
 40
1.0
 10
339.1663245638249
 20
113.5049642912943
 30
0.0
 10
339.0974861936381
 20
113.4418696179755
 30
0.0
 10
339.029054833182
 20
113.3781472398446
 30
0.0
 10
338.9610385585173
 20
113.3138018075712
 30
0.0
  0
SPLINE
  5
8B
330
1F
100
AcDbEntity
  8
0
  6
Continuous
 62
     7
370
    25
100
AcDbSpline
210
0.0
220
0.0
230
1.0
 70
     8
 71
     3
 72
     8
 73
     4
 74
     0
 42
0.000000001
 43
0.00000001
 40
0.0
 40
0.0
 40
0.0
 40
0.0
 40
1.0
 40
1.0
 40
1.0
 40
1.0
 10
339.4243518050856
 20
113.335702461367
 30
0.0
 10
339.3376483709252
 20
113.3918633810363
 30
0.0
 10
339.2516503234413
 20
113.4482881173622
 30
0.0
 10
339.1663245638249
 20
113.5049642912943
 30
0.0
  0
ARC
  5
8C
330
1F
100
AcDbEntity
  8
0
  6
Continuous
 62
     7
370
    25
100
AcDbCircle
 10
349.5554646735
 20
117.8749651633
 30
0.0
 40
11.10154736189901
100
AcDbArc
 50
204.1348482805
 51
335.8651517195
  0
SPLINE
  5
8D
330
1F
100
AcDbEntity
  8
0
  6
Continuous
 62
     7
370
    25
100
AcDbSpline
210
0.0
220
0.0
230
1.0
 70
     8
 71
     3
 72
     8
 73
     4
 74
     0
 42
0.000000001
 43
0.00000001
 40
0.0
 40
0.0
 40
0.0
 40
0.0
 40
1.0
 40
1.0
 40
1.0
 40
1.0
 10
359.9446047830907
 20
113.5049642912943
 30
0.0
 10
359.8592790234742
 20
113.4482881173622
 30
0.0
 10
359.7732809759903
 20
113.3918633810363
 30
0.0
 10
359.6865775418299
 20
113.335702461367
 30
0.0
  0
SPLINE
  5
8E
330
1F
100
AcDbEntity
  8
0
  6
Continuous
 62
     7
370
    25
100
AcDbSpline
210
0.0
220
0.0
230
1.0
 70
     8
 71
     3
 72
     8
 73
     4
 74
     0
 42
0.000000001
 43
0.00000001
 40
0.0
 40
0.0
 40
0.0
 40
0.0
 40
1.0
 40
1.0
 40
1.0
 40
1.0
 10
360.1498907883982
 20
113.3138018075712
 30
0.0
 10
360.0818745137335
 20
113.3781472398446
 30
0.0
 10
360.0134431532774
 20
113.4418696179755
 30
0.0
 10
359.9446047830907
 20
113.5049642912943
 30
0.0
  0
ARC
  5
8F
330
1F
100
AcDbEntity
  8
0
  6
Continuous
 62
     7
370
    25
100
AcDbCircle
 10
349.5554646735
 20
117.8749651633
 30
0.0
 40
11.53456006379121
100
AcDbArc
 50
203.2930774359
 51
336.7074733161
  0
ARC
  5
90
330
1F
100
AcDbEntity
  8
0
  6
Continuous
 62
     7
370
    25
100
AcDbCircle
 10
349.5554646735
 20
117.8749651633
 30
0.0
 40
11.101547361899
100
AcDbArc
 50
29.4783538465
 51
150.5216461535
  0
SPLINE
  5
91
330
1F
100
AcDbEntity
  8
0
  6
Continuous
 62
     7
370
    25
100
AcDbSpline
210
0.0
220
0.0
230
1.0
 70
     8
 71
     3
 72
     8
 73
     4
 74
     0
 42
0.000000001
 43
0.00000001
 40
0.0
 40
0.0
 40
0.0
 40
0.0
 40
1.0
 40
1.0
 40
1.0
 40
1.0
 10
339.5795316241333
 20
123.1532644126484
 30
0.0
 10
339.6824275379573
 20
123.2152330217394
 30
0.0
 10
339.7862672075121
 20
123.2768116738799
 30
0.0
 10
339.8911050957387
 20
123.3379778651515
 30
0.0
  0
SPLINE
  5
92
330
1F
100
AcDbEntity
  8
0
  6
Continuous
 62
     7
370
    25
100
AcDbSpline
210
0.0
220
0.0
230
1.0
 70
     8
 71
     3
 72
     8
 73
     4
 74
     0
 42
0.000000001
 43
0.00000001
 40
0.0
 40
0.0
 40
0.0
 40
0.0
 40
1.0
 40
1.0
 40
1.0
 40
1.0
 10
339.3909952430194
 20
123.327454233518
 30
0.0
 10
339.453563551389
 20
123.2690037644105
 30
0.0
 10
339.5164101447529
 20
123.2109397538774
 30
0.0
 10
339.5795316241358
 20
123.1532644126462
 30
0.0
  0
ARC
  5
93
330
1F
100
AcDbEntity
  8
0
  6
Continuous
 62
     7
370
    25
100
AcDbCircle
 10
349.5554646735
 20
117.8749651633
 30
0.0
 40
11.53456006379119
100
AcDbArc
 50
28.2102805322
 51
151.7902347364
  0
SPLINE
  5
94
330
1F
100
AcDbEntity
  8
0
  6
Continuous
 62
     7
370
    25
100
AcDbSpline
210
0.0
220
0.0
230
1.0
 70
     8
 71
     3
 72
     8
 73
     4
 74
     0
 42
0.000000001
 43
0.00000001
 40
0.0
 40
0.0
 40
0.0
 40
0.0
 40
1.0
 40
1.0
 40
1.0
 40
1.0
 10
359.5313977227801
 20
123.1532644126465
 30
0.0
 10
359.5945192021629
 20
123.2109397538776
 30
0.0
 10
359.6573657955265
 20
123.2690037644106
 30
0.0
 10
359.7199341038961
 20
123.327454233518
 30
0.0
  0
SPLINE
  5
95
330
1F
100
AcDbEntity
  8
0
  6
Continuous
 62
     7
370
    25
100
AcDbSpline
210
0.0
220
0.0
230
1.0
 70
     8
 71
     3
 72
     8
 73
     4
 74
     0
 42
0.000000001
 43
0.00000001
 40
0.0
 40
0.0
 40
0.0
 40
0.0
 40
1.0
 40
1.0
 40
1.0
 40
1.0
 10
359.2198242511768
 20
123.3379778651515
 30
0.0
 10
359.324662139403
 20
123.2768116738802
 30
0.0
 10
359.4285018089575
 20
123.2152330217398
 30
0.0
 10
359.5313977227811
 20
123.1532644126491
 30
0.0
  0
SPLINE
  5
96
330
1F
100
AcDbEntity
  8
0
  6
Continuous
 62
     7
370
    25
100
AcDbSpline
210
0.0
220
0.0
230
1.0
 70
     8
 71
     3
 72
     8
 73
     4
 74
     0
 42
0.000000001
 43
0.00000001
 40
0.0000004028655191
 40
0.0000004028655191
 40
0.0000004028655191
 40
0.0000004028655191
 40
0.0015137684369673
 40
0.0015137684369673
 40
0.0015137684369673
 40
0.0015137684369673
 10
341.1318700163157
 20
113.5526897594748
 30
0.0
 10
340.9251985287644
 20
113.4803958177601
 30
0.0
 10
340.7185795602238
 20
113.4080643318033
 30
0.0
 10
340.5120031854152
 20
113.335702461367
 30
0.0
  0
LINE
  5
97
330
1F
100
AcDbEntity
  8
0
  6
Continuous
 62
     7
370
    25
100
AcDbLine
 10
340.5120030303
 20
113.3357026599
 30
0.0
 11
339.4243514423
 21
113.3357026599
 31
0.0
  0
LINE
  5
98
330
1F
100
AcDbEntity
  8
0
  6
Continuous
 62
     7
370
    25
100
AcDbLine
 10
339.3893793483
 20
113.7687150373
 30
0.0
 11
339.1663247977
 21
113.5049644842
 31
0.0
  0
LINE
  5
99
330
1F
100
AcDbEntity
  8
0
  6
Continuous
 62
     7
370
    25
100
AcDbLine
 10
341.156989548
 20
113.7687150373
 30
0.0
 11
339.3895944838
 21
113.7687150373
 31
0.0
  0
LINE
  5
9A
330
1F
100
AcDbEntity
  8
0
  6
Continuous
 62
     7
370
    25
100
AcDbLine
 10
341.1676466722
 20
113.6111343264
 30
0.0
 11
341.156989548
 21
113.7687150373
 31
0.0
  0
SPLINE
  5
9B
330
1F
100
AcDbEntity
  8
0
  6
Continuous
 62
     7
370
    25
100
AcDbSpline
210
0.0
220
0.0
230
1.0
 70
     8
 71
     3
 72
     8
 73
     4
 74
     0
 42
0.000000001
 43
0.00000001
 40
0.0006523765358269
 40
0.0006523765358269
 40
0.0006523765358269
 40
0.0006523765358269
 40
0.0009043636494504
 40
0.0009043636494504
 40
0.0009043636494504
 40
0.0009043636494504
 10
341.1687468913506
 20
113.6129278569234
 30
0.0
 10
341.1564298968331
 20
113.5928522759413
 30
0.0
 10
341.1441376994291
 20
113.5727728874188
 30
0.0
 10
341.1318700163157
 20
113.5526897594748
 30
0.0
  0
LINE
  5
9C
330
1F
100
AcDbEntity
  8
0
  6
Continuous
 62
     7
370
    25
100
AcDbLine
 10
339.5795312036
 20
123.1532642602
 30
0.0
 11
339.7879397754
 21
122.9049652799
 31
0.0
  0
LINE
  5
9D
330
1F
100
AcDbEntity
  8
0
  6
Continuous
 62
     7
370
    25
100
AcDbLine
 10
341.0381537188
 20
123.3379776574
 30
0.0
 11
339.891105171
 21
123.3379776574
 31
0.0
  0
SPLINE
  5
9E
330
1F
100
AcDbEntity
  8
0
  6
Continuous
 62
     7
370
    25
100
AcDbSpline
210
0.0
220
0.0
230
1.0
 70
     8
 71
     3
 72
     8
 73
     4
 74
     0
 42
0.000000001
 43
0.00000001
 40
0.0000004089325119
 40
0.0000004089325119
 40
0.0000004089325119
 40
0.0000004089325119
 40
0.0015399868451459
 40
0.0015399868451459
 40
0.0015399868451459
 40
0.0015399868451459
 10
341.0381532560289
 20
123.3379778651515
 30
0.0
 10
341.2499145148233
 20
123.265522982498
 30
0.0
 10
341.4618348380135
 20
123.1931841124695
 30
0.0
 10
341.6739528212278
 20
123.1209905670437
 30
0.0
  0
LINE
  5
9F
330
1F
100
AcDbEntity
  8
0
  6
Continuous
 62
     7
370
    25
100
AcDbLine
 10
341.6739527394
 20
123.1209906734
 30
0.0
 11
341.6821055372
 21
123.1057779848
 31
0.0
  0
LINE
  5
A0
330
1F
100
AcDbEntity
  8
0
  6
Continuous
 62
     7
370
    25
100
AcDbLine
 10
341.6797353212
 20
122.9049652799
 30
0.0
 11
341.6821064685
 21
123.1057784505
 31
0.0
  0
LINE
  5
A1
330
1F
100
AcDbEntity
  8
0
  6
Continuous
 62
     7
370
    25
100
AcDbLine
 10
341.6797353212
 20
122.9049652799
 30
0.0
 11
339.7879397754
 21
122.9049652799
 31
0.0
  0
LINE
  5
A2
330
1F
100
AcDbEntity
  8
0
  6
Continuous
 62
     7
370
    25
100
AcDbLine
 10
359.9446045492
 20
113.5049644842
 30
0.0
 11
359.7215499986
 21
113.7687150373
 31
0.0
  0
LINE
  5
A3
330
1F
100
AcDbEntity
  8
0
  6
Continuous
 62
     7
370
    25
100
AcDbLine
 10
359.6865779046
 20
113.3357026599
 30
0.0
 11
358.5989263166
 21
113.3357026599
 31
0.0
  0
SPLINE
  5
A4
330
1F
100
AcDbEntity
  8
0
  6
Continuous
 62
     7
370
    25
100
AcDbSpline
210
0.0
220
0.0
230
1.0
 70
     8
 71
     3
 72
     8
 73
     4
 74
     0
 42
0.000000001
 43
0.00000001
 40
0.0000004024872366
 40
0.0000004024872366
 40
0.0000004024872366
 40
0.0000004024872366
 40
0.0015137680586847
 40
0.0015137680586847
 40
0.0015137680586847
 40
0.0015137680586847
 10
358.5989261615003
 20
113.335702461367
 30
0.0
 10
358.3923497866917
 20
113.4080643318033
 30
0.0
 10
358.1857308181511
 20
113.4803958177601
 30
0.0
 10
357.9790593305998
 20
113.5526897594748
 30
0.0
  0
SPLINE
  5
A5
330
1F
100
AcDbEntity
  8
0
  6
Continuous
 62
     7
370
    25
100
AcDbSpline
210
0.0
220
0.0
230
1.0
 70
     8
 71
     3
 72
     8
 73
     4
 74
     0
 42
0.000000001
 43
0.00000001
 40
0.0000002414707367
 40
0.0000002414707367
 40
0.0000002414707367
 40
0.0000002414707367
 40
0.0002447240690309
 40
0.0002447240690309
 40
0.0002447240690309
 40
0.0002447240690309
 10
357.9790593305998
 20
113.5526897594748
 30
0.0
 10
357.9671569952447
 20
113.5721747854214
 30
0.0
 10
357.955231584033
 20
113.5916562912457
 30
0.0
 10
357.9432828387381
 20
113.6111342147576
 30
0.0
  0
LINE
  5
A6
330
1F
100
AcDbEntity
  8
0
  6
Continuous
 62
     7
370
    25
100
AcDbLine
 10
357.9539397989
 20
113.7687150373
 30
0.0
 11
357.9432826747
 21
113.6111343264
 31
0.0
  0
LINE
  5
A7
330
1F
100
AcDbEntity
  8
0
  6
Continuous
 62
     7
370
    25
100
AcDbLine
 10
359.7215499986
 20
113.7687150373
 30
0.0
 11
357.9488314946
 21
113.7687150373
 31
0.0
  0
SPLINE
  5
A8
330
1F
100
AcDbEntity
  8
0
  6
Continuous
 62
     7
370
    25
100
AcDbSpline
210
0.0
220
0.0
230
1.0
 70
     8
 71
     3
 72
     8
 73
     4
 74
     0
 42
0.000000001
 43
0.00000001
 40
0.000000410413179
 40
0.000000410413179
 40
0.000000410413179
 40
0.000000410413179
 40
0.0015399883258131
 40
0.0015399883258131
 40
0.0015399883258131
 40
0.0015399883258131
 10
357.4369765256877
 20
123.1209905670437
 30
0.0
 10
357.649094508902
 20
123.1931841124695
 30
0.0
 10
357.8610148320922
 20
123.265522982498
 30
0.0
 10
358.0727760908866
 20
123.3379778651515
 30
0.0
  0
LINE
  5
A9
330
1F
100
AcDbEntity
  8
0
  6
Continuous
 62
     7
370
    25
100
AcDbLine
 10
359.219824176
 20
123.3379776574
 30
0.0
 11
358.0727756281
 21
123.3379776574
 31
0.0
  0
LINE
  5
AA
330
1F
100
AcDbEntity
  8
0
  6
Continuous
 62
     7
370
    25
100
AcDbLine
 10
359.3229895715
 20
122.9049652799
 30
0.0
 11
359.5313981433
 21
123.1532642602
 31
0.0
  0
LINE
  5
AB
330
1F
100
AcDbEntity
  8
0
  6
Continuous
 62
     7
370
    25
100
AcDbLine
 10
359.3227995817
 20
122.9049652799
 30
0.0
 11
357.4311940257
 21
122.9049652799
 31
0.0
  0
LINE
  5
AC
330
1F
100
AcDbEntity
  8
0
  6
Continuous
 62
     7
370
    25
100
AcDbLine
 10
357.4288228784
 20
123.1057779848
 30
0.0
 11
357.4311940257
 21
122.9049652799
 31
0.0
  0
LINE
  5
AD
330
1F
100
AcDbEntity
  8
0
  6
Continuous
 62
     7
370
    25
100
AcDbLine
 10
357.4288238097
 20
123.1057779848
 30
0.0
 11
357.4369766076
 21
123.1209906734
 31
0.0
  0
ARC
  5
AE
330
1F
100
AcDbEntity
  8
0
  6
Continuous
 62
     7
370
    25
100
AcDbCircle
 10
349.5554646735
 20
117.8749651633
 30
0.0
 40
10.11875000000004
100
AcDbArc
 50
32.6761561262
 51
147.3238438738
  0
ARC
  5
AF
330
1F
100
AcDbEntity
  8
0
  6
Continuous
 62
     7
370
    25
100
AcDbCircle
 10
349.5554646735
 20
117.8749651633
 30
0.0
 40
10.11875
100
AcDbArc
 50
206.6538426687
 51
333.3461573313
  0
ARC
  5
B0
330
1F
100
AcDbEntity
  8
0
  6
Continuous
 62
     7
370
    25
100
AcDbCircle
 10
349.5554646735
 20
117.8749651633
 30
0.0
 40
9.467788105676684
100
AcDbArc
 50
33.6481949792
 51
146.3518050208
  0
ARC
  5
B1
330
1F
100
AcDbEntity
  8
0
  6
Continuous
 62
     7
370
    25
100
AcDbCircle
 10
349.5554646735
 20
117.8749651633
 30
0.0
 40
9.467788105676657
100
AcDbArc
 50
207.1630537883
 51
332.8369462117
  0
SPLINE
  5
B2
330
1F
100
AcDbEntity
  8
0
  6
Continuous
 62
     7
370
    25
100
AcDbSpline
210
0.0
220
0.0
230
1.0
 70
     8
 71
     3
 72
     8
 73
     4
 74
     0
 42
0.000000001
 43
0.00000001
 40
0.0
 40
0.0
 40
0.0
 40
0.0
 40
1.0
 40
1.0
 40
1.0
 40
1.0
 10
338.9610385583273
 20
113.3138018076825
 30
0.0
 10
338.9077957333856
 20
113.3143255339204
 30
0.0
 10
338.8545004477699
 20
113.3151236271828
 30
0.0
 10
338.8011549422804
 20
113.3161966751076
 30
0.0
  0
LINE
  5
B3
330
1F
100
AcDbEntity
  8
0
  6
Continuous
 62
     7
370
    25
100
AcDbLine
 10
339.2292421569
 20
113.7687150373
 30
0.0
 11
339.3893793483
 21
113.7687150373
 31
0.0
  0
LINE
  5
B4
330
1F
100
AcDbEntity
  8
0
  6
Continuous
 62
     7
370
    25
100
AcDbLine
 10
359.7215499986
 20
113.7687150373
 30
0.0
 11
359.8816871901
 21
113.7687150373
 31
0.0
  0
SPLINE
  5
B5
330
1F
100
AcDbEntity
  8
0
  6
Continuous
 62
     7
370
    25
100
AcDbSpline
210
0.0
220
0.0
230
1.0
 70
     8
 71
     3
 72
     8
 73
     4
 74
     0
 42
0.000000001
 43
0.00000001
 40
0.0
 40
0.0
 40
0.0
 40
0.0
 40
1.0
 40
1.0
 40
1.0
 40
1.0
 10
360.309774404635
 20
113.3161966751076
 30
0.0
 10
360.2564288991455
 20
113.3151236271828
 30
0.0
 10
360.2031336135299
 20
113.3143255339204
 30
0.0
 10
360.1498907885882
 20
113.3138018076825
 30
0.0
  0
LINE
  5
B6
330
1F
100
AcDbEntity
  8
0
  6
Continuous
 62
     7
370
    25
100
AcDbLine
 10
339.7879397754
 20
122.9049652799
 30
0.0
 11
339.6645227705
 21
122.9049652799
 31
0.0
  0
SPLINE
  5
B7
330
1F
100
AcDbEntity
  8
0
  6
Continuous
 62
     7
370
    25
100
AcDbSpline
210
0.0
220
0.0
230
1.0
 70
     8
 71
     3
 72
     8
 73
     4
 74
     0
 42
0.000000001
 43
0.00000001
 40
0.0
 40
0.0
 40
0.0
 40
0.0
 40
1.0
 40
1.0
 40
1.0
 40
1.0
 10
339.267773748778
 20
123.3254106801956
 30
0.0
 10
339.3088891758198
 20
123.3262796178356
 30
0.0
 10
339.3499634704309
 20
123.3269606554184
 30
0.0
 10
339.39099524292
 20
123.3274542334799
 30
0.0
  0
SPLINE
  5
B8
330
1F
100
AcDbEntity
  8
0
  6
Continuous
 62
     7
370
    25
100
AcDbSpline
210
0.0
220
0.0
230
1.0
 70
     8
 71
     3
 72
     8
 73
     4
 74
     0
 42
0.000000001
 43
0.00000001
 40
0.0
 40
0.0
 40
0.0
 40
0.0
 40
1.0
 40
1.0
 40
1.0
 40
1.0
 10
359.7199341039955
 20
123.3274542334799
 30
0.0
 10
359.7609658764846
 20
123.3269606554185
 30
0.0
 10
359.8020401710957
 20
123.3262796178356
 30
0.0
 10
359.8431555981375
 20
123.3254106801956
 30
0.0
  0
LINE
  5
B9
330
1F
100
AcDbEntity
  8
0
  6
Continuous
 62
     7
370
    25
100
AcDbLine
 10
359.4464065765
 20
122.9049652799
 30
0.0
 11
359.3229895715
 21
122.9049652799
 31
0.0
  0
SPLINE
  5
BA
330
1F
100
AcDbEntity
  8
0
  6
Continuous
 62
     7
370
    25
100
AcDbSpline
210
0.0
220
0.0
230
1.0
 70
     8
 71
     3
 72
     9
 73
     5
 74
     0
 42
0.000000001
 43
0.00000001
 40
0.0
 40
0.0
 40
0.0
 40
0.0
 40
0.4897878789203994
 40
0.9999999999999999
 40
0.9999999999999999
 40
0.9999999999999999
 40
0.9999999999999999
 10
356.6610542381092
 20
123.098082029497
 30
0.0
 10
356.7874093203304
 20
123.0994007552502
 30
0.0
 10
357.0453885143025
 20
123.1020931978566
 30
0.0
 10
357.299283262592
 20
123.1045332756926
 30
0.0
 10
357.4288234406478
 20
123.1057782329809
 30
0.0
  0
ARC
  5
BB
330
1F
100
AcDbEntity
  8
0
  6
Continuous
 62
     7
370
    25
100
AcDbCircle
 10
349.5554646735
 20
117.8749651633
 30
0.0
 40
8.818750000000028
100
AcDbArc
 50
36.3185452201
 51
143.6814533294
  0
SPLINE
  5
BC
330
1F
100
AcDbEntity
  8
0
  6
Continuous
 62
     7
370
    25
100
AcDbSpline
210
0.0
220
0.0
230
1.0
 70
     8
 71
     3
 72
     9
 73
     5
 74
     0
 42
0.000000001
 43
0.00000001
 40
0.0
 40
0.0
 40
0.0
 40
0.0
 40
0.5102121239851395
 40
0.9999999999999999
 40
0.9999999999999999
 40
0.9999999999999999
 40
0.9999999999999999
 10
341.682105805143
 20
123.1057784215852
 30
0.0
 10
341.8116460229938
 20
123.1045334628943
 30
0.0
 10
342.0655408478346
 20
123.1020933823233
 30
0.0
 10
342.3235201208443
 20
123.0994009366301
 30
0.0
 10
342.4498752410276
 20
123.0980822093728
 30
0.0
  0
SPLINE
  5
BD
330
1F
100
AcDbEntity
  8
0
  6
Continuous
 62
     7
370
    25
100
AcDbSpline
210
0.0
220
0.0
230
1.0
 70
     8
 71
     3
 72
     8
 73
     4
 74
     0
 42
0.000000001
 43
0.00000001
 40
0.0
 40
0.0
 40
0.0
 40
0.0
 40
1.0
 40
1.0
 40
1.0
 40
1.0
 10
342.449874987353
 20
123.0980817400956
 30
0.0
 10
342.4421139294076
 20
123.0875235048965
 30
0.0
 10
342.4343764043118
 20
123.0769479713702
 30
0.0
 10
342.4266624889422
 20
123.0663552445907
 30
0.0
  0
SPLINE
  5
BE
330
1F
100
AcDbEntity
  8
0
  6
Continuous
 62
     7
370
    25
100
AcDbSpline
210
0.0
220
0.0
230
1.0
 70
     8
 71
     3
 72
     8
 73
     4
 74
     0
 42
0.000000001
 43
0.00000001
 40
0.0
 40
0.0
 40
0.0
 40
0.0
 40
1.0
 40
1.0
 40
1.0
 40
1.0
 10
342.2551046561792
 20
122.9049655021275
 30
0.0
 10
342.3123650632136
 20
122.9588736791153
 30
0.0
 10
342.3695514543234
 20
123.0126706041984
 30
0.0
 10
342.4266624889422
 20
123.0663552445907
 30
0.0
  0
LINE
  5
BF
330
1F
100
AcDbEntity
  8
0
  6
Continuous
 62
     7
370
    25
100
AcDbLine
 10
342.2551054765
 20
122.9049652799
 30
0.0
 11
341.6797353212
 21
122.9049652799
 31
0.0
  0
SPLINE
  5
C0
330
1F
100
AcDbEntity
  8
0
  6
Continuous
 62
     7
370
    25
100
AcDbSpline
210
0.0
220
0.0
230
1.0
 70
     8
 71
     3
 72
     8
 73
     4
 74
     0
 42
0.000000001
 43
0.00000001
 40
0.0
 40
0.0
 40
0.0
 40
0.0
 40
1.0
 40
1.0
 40
1.0
 40
1.0
 10
356.6843822897544
 20
123.0661967302919
 30
0.0
 10
356.6766301770537
 20
123.0768424069644
 30
0.0
 10
356.6688542183865
 20
123.0874707191586
 30
0.0
 10
356.661054491783
 20
123.0980815602211
 30
0.0
  0
LINE
  5
C1
330
1F
100
AcDbEntity
  8
0
  6
Continuous
 62
     7
370
    25
100
AcDbLine
 10
357.4311940257
 20
122.9049652799
 30
0.0
 11
356.8557954651
 21
122.9049652799
 31
0.0
  0
SPLINE
  5
C2
330
1F
100
AcDbEntity
  8
0
  6
Continuous
 62
     7
370
    25
100
AcDbSpline
210
0.0
220
0.0
230
1.0
 70
     8
 71
     3
 72
     8
 73
     4
 74
     0
 42
0.000000001
 43
0.00000001
 40
0.0
 40
0.0
 40
0.0
 40
0.0
 40
1.0
 40
1.0
 40
1.0
 40
1.0
 10
356.6843822897544
 20
123.0661967302919
 30
0.0
 10
356.7414454174404
 20
123.0125647798761
 30
0.0
 10
356.7985837971707
 20
122.9588206935111
 30
0.0
 10
356.8557960906446
 20
122.9049655022609
 30
0.0
  0
ARC
  5
C3
330
1F
100
AcDbEntity
  8
0
  6
Continuous
 62
     7
370
    25
100
AcDbCircle
 10
349.5554646735
 20
117.8749651633
 30
0.0
 40
8.818750000000044
100
AcDbArc
 50
209.2047569376
 51
330.7952430624
  0
SPLINE
  5
C4
330
1F
100
AcDbEntity
  8
0
  6
Continuous
 62
     7
370
    25
100
AcDbSpline
210
0.0
220
0.0
230
1.0
 70
    24
 71
     3
 72
     8
 73
     4
 74
     0
 42
0.000000001
 43
0.00000001
 40
0.0
 40
0.0
 40
0.0
 40
0.0
 40
0.000136040218399
 40
0.000136040218399
 40
0.000136040218399
 40
0.000136040218399
 10
357.296600070302
 20
113.6154247324081
 30
0.0
 10
357.2821610706179
 20
113.600985732724
 30
0.0
 10
357.2676906182557
 20
113.5865152803617
 30
0.0
 10
357.2531890197043
 20
113.5720136818103
 30
0.0
  0
SPLINE
  5
C5
330
1F
100
AcDbEntity
  8
0
  6
Continuous
 62
     7
370
    25
100
AcDbSpline
210
0.0
220
0.0
230
1.0
 70
     8
 71
     3
 72
     9
 73
     5
 74
     0
 42
0.000000001
 43
0.00000001
 40
0.0
 40
0.0
 40
0.0
 40
0.0
 40
0.5086448740973026
 40
1.0
 40
1.0
 40
1.0
 40
1.0
 10
357.9432827990584
 20
113.6111341266229
 30
0.0
 10
357.8341167500605
 20
113.6118279754679
 30
0.0
 10
357.6194954011447
 20
113.6131920879958
 30
0.0
 10
357.4029840884673
 20
113.6146889079337
 30
0.0
 10
357.2966001451674
 20
113.6154243780827
 30
0.0
  0
SPLINE
  5
C6
330
1F
100
AcDbEntity
  8
0
  6
Continuous
 62
     7
370
    25
100
AcDbSpline
210
0.0
220
0.0
230
1.0
 70
     8
 71
     3
 72
     9
 73
     5
 74
     0
 42
0.000000001
 43
0.00000001
 40
0.0
 40
0.0
 40
0.0
 40
0.0
 40
0.4913551252639757
 40
1.0
 40
1.0
 40
1.0
 40
1.0
 10
341.8143292322126
 20
113.6154243476181
 30
0.0
 10
341.7079452808205
 20
113.6146888772893
 30
0.0
 10
341.4914339513929
 20
113.6131920569836
 30
0.0
 10
341.2768125860261
 20
113.6118279441293
 30
0.0
 10
341.1676465285234
 20
113.6111340951174
 30
0.0
  0
SPLINE
  5
C7
330
1F
100
AcDbEntity
  8
0
  6
Continuous
 62
     7
370
    25
100
AcDbSpline
210
0.0
220
0.0
230
1.0
 70
    24
 71
     3
 72
     8
 73
     4
 74
     0
 42
0.000000001
 43
0.00000001
 40
0.0
 40
0.0
 40
0.0
 40
0.0
 40
0.0001360401227241
 40
0.0001360401227241
 40
0.0001360401227241
 40
0.0001360401227241
 10
341.8577403272112
 20
113.5720136818103
 30
0.0
 10
341.8432387388586
 20
113.586515270163
 30
0.0
 10
341.8287682966513
 20
113.6009857123702
 30
0.0
 10
341.814329307078
 20
113.6154247019436
 30
0.0
  0
LINE
  5
C8
330
1F
100
AcDbEntity
  8
0
  6
Continuous
 62
     7
370
    25
100
AcDbLine
 10
341.156989548
 20
113.7687150373
 30
0.0
 11
341.6610390205
 21
113.7687150373
 31
0.0
  0
SPLINE
  5
C9
330
1F
100
AcDbEntity
  8
0
  6
Continuous
 62
     7
370
    25
100
AcDbSpline
210
0.0
220
0.0
230
1.0
 70
     8
 71
     3
 72
     8
 73
     4
 74
     0
 42
0.000000001
 43
0.00000001
 40
0.0
 40
0.0
 40
0.0
 40
0.0
 40
1.0
 40
1.0
 40
1.0
 40
1.0
 10
341.8143295069099
 20
113.6154245023565
 30
0.0
 10
341.7632607443055
 20
113.6664669941005
 30
0.0
 10
341.7121637846695
 20
113.7175639661265
 30
0.0
 10
341.6610389431539
 20
113.7687150658677
 30
0.0
  0
SPLINE
  5
CA
330
1F
100
AcDbEntity
  8
0
  6
Continuous
 62
     7
370
    25
100
AcDbSpline
210
0.0
220
0.0
230
1.0
 70
     8
 71
     3
 72
     8
 73
     4
 74
     0
 42
0.000000001
 43
0.00000001
 40
0.0
 40
0.0
 40
0.0
 40
0.0
 40
1.0
 40
1.0
 40
1.0
 40
1.0
 10
357.4498904037617
 20
113.7687150658677
 30
0.0
 10
357.3987655724164
 20
113.7175639763124
 30
0.0
 10
357.3476686229354
 20
113.6664670144414
 30
0.0
 10
357.2965998704701
 20
113.615424532821
 30
0.0
  0
LINE
  5
CB
330
1F
100
AcDbEntity
  8
0
  6
Continuous
 62
     7
370
    25
100
AcDbLine
 10
357.4498903264
 20
113.7687150373
 30
0.0
 11
357.9539397989
 21
113.7687150373
 31
0.0
  0
CIRCLE
  5
CC
330
1F
100
AcDbEntity
  8
0
  6
Continuous
 62
     7
370
    25
100
AcDbCircle
 10
349.5554646735
 20
117.8749651633
 30
0.0
 40
12.47086902276419
  0
SPLINE
  5
CD
330
1F
100
AcDbEntity
  8
0
  6
Continuous
 62
     7
370
    25
100
AcDbSpline
210
0.0
220
0.0
230
1.0
 70
     8
 71
     3
 72
    23
 73
    19
 74
     0
 42
0.000000001
 43
0.00000001
 40
0.0
 40
0.0
 40
0.0
 40
0.0
 40
0.0521036415675031
 40
0.1035646240925967
 40
0.1544751946736949
 40
0.2049306267473421
 40
0.2550287880844035
 40
0.3048696389141012
 40
0.3545546704609132
 40
0.4041862979523234
 40
0.4538672252126086
 40
0.5036997999421611
 40
0.5901870230746071
 40
0.674271637822954
 40
0.7565997087222995
 40
0.8378563983721267
 40
0.9187511781367398
 40
1.0
 40
1.0
 40
1.0
 40
1.0
 10
338.7162125268002
 20
122.3653758760091
 30
0.0
 10
338.72950688175
 20
122.3945437691707
 30
0.0
 10
338.7559316158282
 20
122.4525197915747
 30
0.0
 10
338.795142622052
 20
122.5354190925867
 30
0.0
 10
338.8335845768577
 20
122.6146010736042
 30
0.0
 10
338.8711721583243
 20
122.6898558904062
 30
0.0
 10
338.9078280446319
 20
122.7612755446639
 30
0.0
 10
338.9434779086906
 20
122.8288721534455
 30
0.0
 10
338.9780516554517
 20
122.89267847491
 30
0.0
 10
339.0114833494077
 20
122.9527220169792
 30
0.0
 10
339.0437102266326
 20
123.0090287137059
 30
0.0
 10
339.0822116635223
 20
123.0744336955295
 30
0.0
 10
339.1248731442357
 20
123.1439947733657
 30
0.0
 10
339.1683661863588
 20
123.2107542700301
 30
0.0
 10
339.2047786831868
 20
123.2624783181279
 30
0.0
 10
339.233679489664
 20
123.2989266301798
 30
0.0
 10
339.2555969457622
 20
123.321524027063
 30
0.0
 10
339.2637089102555
 20
123.3241132446243
 30
0.0
 10
339.267773748778
 20
123.3254106801956
 30
0.0
  0
SPLINE
  5
CE
330
1F
100
AcDbEntity
  8
0
  6
Continuous
 62
     7
370
    25
100
AcDbSpline
210
0.0
220
0.0
230
1.0
 70
     8
 71
     3
 72
     8
 73
     4
 74
     0
 42
0.000000001
 43
0.00000001
 40
0.0
 40
0.0
 40
0.0
 40
0.0
 40
1.0
 40
1.0
 40
1.0
 40
1.0
 10
338.5955745869375
 20
122.3631655185993
 30
0.0
 10
338.6357636005305
 20
122.3638958288169
 30
0.0
 10
338.6759259026205
 20
122.3644763546463
 30
0.0
 10
338.716060613096
 20
122.3649073195961
 30
0.0
  0
SPLINE
  5
CF
330
1F
100
AcDbEntity
  8
0
  6
Continuous
 62
     7
370
    25
100
AcDbSpline
210
0.0
220
0.0
230
1.0
 70
     8
 71
     3
 72
    18
 73
    14
 74
     0
 42
0.000000001
 43
0.00000001
 40
0.0
 40
0.0
 40
0.0
 40
0.0
 40
0.0923824559411628
 40
0.1844689291573508
 40
0.2764953615950219
 40
0.3686975365494161
 40
0.4613092840003458
 40
0.5545607518442569
 40
0.6486768051537182
 40
0.7438756050146744
 40
0.8403674044302629
 40
0.9203921078121001
 40
1.0
 40
1.0
 40
1.0
 40
1.0
 10
338.648513575737
 20
122.6299825254812
 30
0.0
 10
338.6503492293896
 20
122.629774213266
 30
0.0
 10
338.6540146554725
 20
122.6293582562438
 30
0.0
 10
338.6568099850917
 20
122.6225538327777
 30
0.0
 10
338.6576122801703
 20
122.6112204541255
 30
0.0
 10
338.6562461431271
 20
122.5949200590989
 30
0.0
 10
338.6527845944981
 20
122.5737688202631
 30
0.0
 10
338.6472432887288
 20
122.5477331191466
 30
0.0
 10
338.6396588206598
 20
122.5168087394954
 30
0.0
 10
338.630081818723
 20
122.4810097080507
 30
0.0
 10
338.6192413427042
 20
122.4427588005195
 30
0.0
 10
338.6077527017653
 20
122.4035405871252
 30
0.0
 10
338.5996527168872
 20
122.3766856102757
 30
0.0
 10
338.5956132992444
 20
122.3632931819053
 30
0.0
  0
LINE
  5
D0
330
1F
100
AcDbEntity
  8
0
  6
Continuous
 62
     7
370
    25
100
AcDbLine
 10
338.5957584043
 20
122.6292346589
 30
0.0
 11
338.6485131715
 21
122.6299825109
 31
0.0
  0
SPLINE
  5
D1
330
1F
100
AcDbEntity
  8
0
  6
Continuous
 62
     7
370
    25
100
AcDbSpline
210
0.0
220
0.0
230
1.0
 70
     8
 71
     3
 72
    25
 73
    21
 74
     0
 42
0.000000001
 43
0.00000001
 40
0.0
 40
0.0
 40
0.0
 40
0.0
 40
0.0280105225426465
 40
0.0559601148860768
 40
0.0839014045043132
 40
0.1118870776786367
 40
0.1399695827588937
 40
0.1682008401739883
 40
0.196631967042422
 40
0.2253130233141467
 40
0.2542927850735845
 40
0.3799486436587335
 40
0.5057850221667067
 40
0.6313085886338298
 40
0.7532068238012468
 40
0.8039473267955921
 40
0.8535894438554446
 40
0.9025339722394071
 40
0.9511970353791085
 40
1.0
 40
1.0
 40
1.0
 40
1.0
 10
337.6847968086841
 20
120.0623029057936
 30
0.0
 10
337.691775878595
 20
120.0996129193003
 30
0.0
 10
337.7057188371178
 20
120.1741517872939
 30
0.0
 10
337.7282407345607
 20
120.2854608327771
 30
0.0
 10
337.7518743466583
 20
120.3961230417916
 30
0.0
 10
337.7767239371462
 20
120.5061071747359
 30
0.0
 10
337.8027425616325
 20
120.6154023183504
 30
0.0
 10
337.8299239429504
 20
120.7239932875526
 30
0.0
 10
337.8582495842829
 20
120.8318639974949
 30
0.0
 10
337.8877083651155
 20
120.9390089432199
 30
0.0
 10
337.9521166530276
 20
121.1631838297319
 30
0.0
 10
338.0572183450995
 20
121.4898492437679
 30
0.0
 10
338.2026811058956
 20
121.8757958490877
 30
0.0
 10
338.3419445140054
 20
122.1978756617779
 30
0.0
 10
338.439092866873
 20
122.3936962458096
 30
0.0
 10
338.4993882730992
 20
122.5030436962929
 30
0.0
 10
338.5342768559805
 20
122.5609717207083
 30
0.0
 10
338.5621713579083
 20
122.6014256734732
 30
0.0
 10
338.58353645028
 20
122.6260398888722
 30
0.0
 10
338.5916803978527
 20
122.6281688163799
 30
0.0
 10
338.5957582164978
 20
122.6292348080513
 30
0.0
  0
ARC
  5
D2
330
1F
100
AcDbEntity
  8
0
  6
Continuous
 62
     7
370
    25
100
AcDbCircle
 10
349.5554646735
 20
117.8749651633
 30
0.0
 40
12.07050959801142
100
AcDbArc
 50
169.5595567507
 51
190.4404432494
  0
SPLINE
  5
D3
330
1F
100
AcDbEntity
  8
0
  6
Continuous
 62
     7
370
    25
100
AcDbSpline
210
0.0
220
0.0
230
1.0
 70
     8
 71
     3
 72
    26
 73
    22
 74
     0
 42
0.000000001
 43
0.00000001
 40
0.0
 40
0.0
 40
0.0
 40
0.0
 40
0.0241259796963635
 40
0.0482159912272988
 40
0.0723203915124065
 40
0.0964895678710797
 40
0.1207736231963513
 40
0.1452220711242836
 40
0.1698835501657706
 40
0.1948055644472379
 40
0.2200342569517627
 40
0.2456142191611387
 40
0.3690971486901655
 40
0.4940698769485187
 40
0.6192566784762451
 40
0.7454656653603225
 40
0.7971495824713707
 40
0.8481710308405392
 40
0.8988013269235234
 40
0.9493179290492194
 40
1.0
 40
1.0
 40
1.0
 40
1.0
 10
338.5957582164978
 20
113.1206955184672
 30
0.0
 10
338.5938479017573
 20
113.1209824116566
 30
0.0
 10
338.5900301202651
 20
113.1215557703214
 30
0.0
 10
338.5820699950842
 20
113.1276144585678
 30
0.0
 10
338.5724908945087
 20
113.1374937192986
 30
0.0
 10
338.5611436876401
 20
113.151574810409
 30
0.0
 10
338.5480875043462
 20
113.1697703584332
 30
0.0
 10
338.5333316011188
 20
113.1921209011719
 30
0.0
 10
338.5169044208214
 20
113.2186351368639
 30
0.0
 10
338.4988362661012
 20
113.2493306475772
 30
0.0
 10
338.4791591196782
 20
113.2842317508171
 30
0.0
 10
338.43095973825
 20
113.3729962859248
 30
0.0
 10
338.3426416988146
 20
113.5502765873737
 30
0.0
 10
338.2035820820478
 20
113.8713624942188
 30
0.0
 10
338.0579094021856
 20
114.2579451461093
 30
0.0
 10
337.9441708071762
 20
114.6116528502392
 30
0.0
 10
337.8644651886296
 20
114.893906549852
 30
0.0
 10
337.8138156162753
 20
115.0883499806263
 30
0.0
 10
337.7668489464099
 20
115.2855913575604
 30
0.0
 10
337.7232891244057
 20
115.4854944026555
 30
0.0
 10
337.6976415592741
 20
115.6201763423878
 30
0.0
 10
337.6847968086841
 20
115.6876274207249
 30
0.0
  0
LINE
  5
D4
330
1F
100
AcDbEntity
  8
0
  6
Continuous
 62
     7
370
    25
100
AcDbLine
 10
338.6485131715
 20
113.1199478156
 30
0.0
 11
338.5957584043
 21
113.1206956677
 31
0.0
  0
SPLINE
  5
D5
330
1F
100
AcDbEntity
  8
0
  6
Continuous
 62
     7
370
    25
100
AcDbSpline
210
0.0
220
0.0
230
1.0
 70
     8
 71
     3
 72
    14
 73
    10
 74
     0
 42
0.000000001
 43
0.00000001
 40
0.0
 40
0.0
 40
0.0
 40
0.0
 40
0.0789261963172865
 40
0.158232872055133
 40
0.330847539457262
 40
0.5000195457610529
 40
0.6670357883572423
 40
0.8332395193657144
 40
1.0
 40
1.0
 40
1.0
 40
1.0
 10
338.5955167188851
 20
113.386971278342
 30
0.0
 10
338.5995312654811
 20
113.3736681537043
 30
0.0
 10
338.6075797115932
 20
113.3469977740719
 30
0.0
 10
338.6224804184027
 20
113.2961830347521
 30
0.0
 10
338.6383773999993
 20
113.2391432185651
 30
0.0
 10
338.6514558949971
 20
113.1848400018372
 30
0.0
 10
338.6576885021143
 20
113.1466728591144
 30
0.0
 10
338.6574989222774
 20
113.1232641304375
 30
0.0
 10
338.6515120281466
 20
113.1210544757589
 30
0.0
 10
338.648513575737
 20
113.1199478010373
 30
0.0
  0
SPLINE
  5
D6
330
1F
100
AcDbEntity
  8
0
  6
Continuous
 62
     7
370
    25
100
AcDbSpline
210
0.0
220
0.0
230
1.0
 70
     8
 71
     3
 72
     8
 73
     4
 74
     0
 42
0.000000001
 43
0.00000001
 40
0.0
 40
0.0
 40
0.0
 40
0.0
 40
1.0
 40
1.0
 40
1.0
 40
1.0
 10
338.7428214101095
 20
113.3849101998915
 30
0.0
 10
338.6937534950808
 20
113.3853972531035
 30
0.0
 10
338.64464405756
 20
113.3861083209783
 30
0.0
 10
338.5954947130347
 20
113.3870438142126
 30
0.0
  0
SPLINE
  5
D7
330
1F
100
AcDbEntity
  8
0
  6
Continuous
 62
     7
370
    25
100
AcDbSpline
210
0.0
220
0.0
230
1.0
 70
     8
 71
     3
 72
    13
 73
     9
 74
     0
 42
0.000000001
 43
0.00000001
 40
0.0
 40
0.0
 40
0.0
 40
0.0
 40
0.1667030582307992
 40
0.3329480818053035
 40
0.4990671507274896
 40
0.6653938523718403
 40
0.832261271055009
 40
1.0
 40
1.0
 40
1.0
 40
1.0
 10
338.8011549422804
 20
113.3161966751076
 30
0.0
 10
338.7993116284436
 20
113.3166137848733
 30
0.0
 10
338.7956300654737
 20
113.3174468583507
 30
0.0
 10
338.7881128116792
 20
113.3234613371772
 30
0.0
 10
338.7791620075628
 20
113.3329560694693
 30
0.0
 10
338.7686117191398
 20
113.346365676579
 30
0.0
 10
338.7566385336227
 20
113.3632835802026
 30
0.0
 10
338.7474321260163
 20
113.377696315342
 30
0.0
 10
338.7428169355275
 20
113.3849214482036
 30
0.0
  0
SPLINE
  5
D8
330
1F
100
AcDbEntity
  8
0
  6
Continuous
 62
     7
370
    25
100
AcDbSpline
210
0.0
220
0.0
230
1.0
 70
     8
 71
     3
 72
    13
 73
     9
 74
     0
 42
0.000000001
 43
0.00000001
 40
0.0
 40
0.0
 40
0.0
 40
0.0
 40
0.1686319999748085
 40
0.3360343310905433
 40
0.502536782590866
 40
0.6684737453788339
 40
0.834182263691515
 40
1.0
 40
1.0
 40
1.0
 40
1.0
 10
360.3681137925061
 20
113.3849248980164
 30
0.0
 10
360.3634765474079
 20
113.377667737997
 30
0.0
 10
360.3542358721215
 20
113.3632063373547
 30
0.0
 10
360.3422204987544
 20
113.3462256406506
 30
0.0
 10
360.3316549449998
 20
113.3327928594711
 30
0.0
 10
360.3227155957068
 20
113.3233133909171
 30
0.0
 10
360.3152347151183
 20
113.3173481652193
 30
0.0
 10
360.3115949078287
 20
113.3165805894348
 30
0.0
 10
360.309774404635
 20
113.3161966751076
 30
0.0
  0
SPLINE
  5
D9
330
1F
100
AcDbEntity
  8
0
  6
Continuous
 62
     7
370
    25
100
AcDbSpline
210
0.0
220
0.0
230
1.0
 70
     8
 71
     3
 72
     8
 73
     4
 74
     0
 42
0.000000001
 43
0.00000001
 40
0.0
 40
0.0
 40
0.0
 40
0.0
 40
1.0
 40
1.0
 40
1.0
 40
1.0
 10
360.5154394044786
 20
113.3870439189591
 30
0.0
 10
360.4662884748703
 20
113.3861083886971
 30
0.0
 10
360.417177454791
 20
113.3853972981851
 30
0.0
 10
360.3681079598832
 20
113.3849102366871
 30
0.0
  0
SPLINE
  5
DA
330
1F
100
AcDbEntity
  8
0
  6
Continuous
 62
     7
370
    25
100
AcDbSpline
210
0.0
220
0.0
230
1.0
 70
     8
 71
     3
 72
    18
 73
    14
 74
     0
 42
0.000000001
 43
0.00000001
 40
0.0
 40
0.0
 40
0.0
 40
0.0
 40
0.0923325137111192
 40
0.1843692047063016
 40
0.2763458873810836
 40
0.3684982175655623
 40
0.4610598988303626
 40
0.554260954653301
 40
0.6483261285442131
 40
0.74347346365053
 40
0.8399130993119804
 40
0.9201660718299768
 40
1.0
 40
1.0
 40
1.0
 40
1.0
 10
360.4624157711785
 20
113.1199478010373
 30
0.0
 10
360.4605801175261
 20
113.1201561132531
 30
0.0
 10
360.4569146914436
 20
113.1205720702764
 30
0.0
 10
360.4541193618213
 20
113.1273764937337
 30
0.0
 10
360.4533170667544
 20
113.1387098724195
 30
0.0
 10
360.4546832037537
 20
113.1550102673199
 30
0.0
 10
360.4581447525478
 20
113.17616150663
 30
0.0
 10
360.4636860576941
 20
113.2021972059576
 30
0.0
 10
360.4712705281214
 20
113.2331215923803
 30
0.0
 10
360.4808475211018
 20
113.2689205981084
 30
0.0
 10
360.4916988681276
 20
113.3072098432221
 30
0.0
 10
360.5032136297596
 20
113.3465154676386
 30
0.0
 10
360.5113453385807
 20
113.3734725455323
 30
0.0
 10
360.5154005501884
 20
113.3869158029818
 30
0.0
  0
LINE
  5
DB
330
1F
100
AcDbEntity
  8
0
  6
Continuous
 62
     7
370
    25
100
AcDbLine
 10
360.5151709427
 20
113.1206956677
 30
0.0
 11
360.4624161754
 21
113.1199478156
 31
0.0
  0
SPLINE
  5
DC
330
1F
100
AcDbEntity
  8
0
  6
Continuous
 62
     7
370
    25
100
AcDbSpline
210
0.0
220
0.0
230
1.0
 70
     8
 71
     3
 72
    25
 73
    21
 74
     0
 42
0.000000001
 43
0.00000001
 40
0.0
 40
0.0
 40
0.0
 40
0.0
 40
0.0280105225422753
 40
0.0559601148854256
 40
0.0839014045034749
 40
0.1118870776777086
 40
0.1399695827579646
 40
0.1682008401731476
 40
0.1966319670417595
 40
0.2253130233137476
 40
0.2542927850735311
 40
0.3799486436564626
 40
0.5057850221666382
 40
0.631308588631066
 40
0.7532068238011618
 40
0.8039473267946936
 40
0.8535894438541253
 40
0.9025339722380873
 40
0.9511970353782256
 40
1.0
 40
1.0
 40
1.0
 40
1.0
 10
361.4261325382314
 20
115.6876274207249
 30
0.0
 10
361.4191534683206
 20
115.6503174072187
 30
0.0
 10
361.4052105097979
 20
115.575778539226
 30
0.0
 10
361.3826886123554
 20
115.4644694937439
 30
0.0
 10
361.359055000258
 20
115.3538072847302
 30
0.0
 10
361.33420540977
 20
115.2438231517862
 30
0.0
 10
361.3081867852838
 20
115.1345280081717
 30
0.0
 10
361.2810054039658
 20
115.0259370389692
 30
0.0
 10
361.2526797626332
 20
114.918066329026
 30
0.0
 10
361.2232209818003
 20
114.8109213832999
 30
0.0
 10
361.1588126938888
 20
114.5867464967895
 30
0.0
 10
361.0537110018169
 20
114.2600810827534
 30
0.0
 10
360.9082482410217
 20
113.8741344774353
 30
0.0
 10
360.7689848329111
 20
113.5520546647427
 30
0.0
 10
360.6718364800439
 20
113.3562340807117
 30
0.0
 10
360.6115410738163
 20
113.2468866302252
 30
0.0
 10
360.5766524909352
 20
113.18895860581
 30
0.0
 10
360.5487579890073
 20
113.148504653045
 30
0.0
 10
360.5273928966356
 20
113.1238904376462
 30
0.0
 10
360.5192489490629
 20
113.1217615101385
 30
0.0
 10
360.5151711304178
 20
113.1206955184672
 30
0.0
  0
ARC
  5
DD
330
1F
100
AcDbEntity
  8
0
  6
Continuous
 62
     7
370
    25
100
AcDbCircle
 10
349.5554646735
 20
117.8749651633
 30
0.0
 40
12.07050959801135
100
AcDbArc
 50
349.5595567507
 51
10.4404432493
  0
SPLINE
  5
DE
330
1F
100
AcDbEntity
  8
0
  6
Continuous
 62
     7
370
    25
100
AcDbSpline
210
0.0
220
0.0
230
1.0
 70
     8
 71
     3
 72
    26
 73
    22
 74
     0
 42
0.000000001
 43
0.00000001
 40
0.0
 40
0.0
 40
0.0
 40
0.0
 40
0.0241259796962591
 40
0.0482159912271133
 40
0.0723203915121637
 40
0.0964895678708023
 40
0.1207736231960627
 40
0.1452220711240065
 40
0.1698835501655268
 40
0.1948055644470484
 40
0.220034256951649
 40
0.2456142191611191
 40
0.3690971486898426
 40
0.4940698769485092
 40
0.6192566784753767
 40
0.7454656653602836
 40
0.7971495824708205
 40
0.848171030839725
 40
0.8988013269227118
 40
0.9493179290486752
 40
1.0
 40
1.0
 40
1.0
 40
1.0
 10
360.5151711304178
 20
122.6292348080513
 30
0.0
 10
360.5170814451582
 20
122.6289479148619
 30
0.0
 10
360.5208992266504
 20
122.6283745561971
 30
0.0
 10
360.5288593518313
 20
122.6223158679507
 30
0.0
 10
360.5384384524067
 20
122.6124366072198
 30
0.0
 10
360.5497856592754
 20
122.5983555161095
 30
0.0
 10
360.5628418425692
 20
122.5801599680853
 30
0.0
 10
360.5775977457966
 20
122.5578094253466
 30
0.0
 10
360.594024926094
 20
122.5312951896545
 30
0.0
 10
360.6120930808142
 20
122.5005996789412
 30
0.0
 10
360.6317702272373
 20
122.4656985757013
 30
0.0
 10
360.6799696086653
 20
122.3769340405941
 30
0.0
 10
360.7682876481007
 20
122.1996537391452
 30
0.0
 10
360.9073472648672
 20
121.8785678323008
 30
0.0
 10
361.0530199447297
 20
121.4919851804097
 30
0.0
 10
361.1667585397389
 20
121.1382774762807
 30
0.0
 10
361.2464641582854
 20
120.8560237766684
 30
0.0
 10
361.2971137306395
 20
120.6615803458951
 30
0.0
 10
361.3440804005049
 20
120.464338968961
 30
0.0
 10
361.3876402225095
 20
120.2644359238648
 30
0.0
 10
361.4132877876413
 20
120.1297539841314
 30
0.0
 10
361.4261325382314
 20
120.0623029057935
 30
0.0
  0
LINE
  5
DF
330
1F
100
AcDbEntity
  8
0
  6
Continuous
 62
     7
370
    25
100
AcDbLine
 10
360.4624161754
 20
122.6299825109
 30
0.0
 11
360.5151709427
 21
122.6292346589
 31
0.0
  0
SPLINE
  5
E0
330
1F
100
AcDbEntity
  8
0
  6
Continuous
 62
     7
370
    25
100
AcDbSpline
210
0.0
220
0.0
230
1.0
 70
     8
 71
     3
 72
    14
 73
    10
 74
     0
 42
0.000000001
 43
0.00000001
 40
0.0
 40
0.0
 40
0.0
 40
0.0
 40
0.0786889129232242
 40
0.1577561817122941
 40
0.3304686003115578
 40
0.4997364082435315
 40
0.6668472316653192
 40
0.8331450833767118
 40
1.0
 40
1.0
 40
1.0
 40
1.0
 10
360.5153240579554
 20
122.3632510162636
 30
0.0
 10
360.5113260490007
 20
122.3765009207795
 30
0.0
 10
360.50331080767
 20
122.4030644386478
 30
0.0
 10
360.4884381343805
 20
122.4537859664165
 30
0.0
 10
360.4725519696183
 20
122.5107870454404
 30
0.0
 10
360.459473445974
 20
122.5650903410495
 30
0.0
 10
360.453240846369
 20
122.6032574630867
 30
0.0
 10
360.4534304242453
 20
122.6266661971623
 30
0.0
 10
360.4594173186378
 20
122.6288758511204
 30
0.0
 10
360.4624157711785
 20
122.6299825254812
 30
0.0
  0
SPLINE
  5
E1
330
1F
100
AcDbEntity
  8
0
  6
Continuous
 62
     7
370
    25
100
AcDbSpline
210
0.0
220
0.0
230
1.0
 70
     8
 71
     3
 72
     8
 73
     4
 74
     0
 42
0.000000001
 43
0.00000001
 40
0.0
 40
0.0
 40
0.0
 40
0.0
 40
1.0
 40
1.0
 40
1.0
 40
1.0
 10
360.3948687172726
 20
122.364907356229
 30
0.0
 10
360.4350018357792
 20
122.3644764022817
 30
0.0
 10
360.4751625437078
 20
122.3638958992692
 30
0.0
 10
360.5153499610508
 20
122.3631656237096
 30
0.0
  0
SPLINE
  5
E2
330
1F
100
AcDbEntity
  8
0
  6
Continuous
 62
     7
370
    25
100
AcDbSpline
210
0.0
220
0.0
230
1.0
 70
     8
 71
     3
 72
    23
 73
    19
 74
     0
 42
0.000000001
 43
0.00000001
 40
0.0
 40
0.0
 40
0.0
 40
0.0
 40
0.0441308420121292
 40
0.0880968635211716
 40
0.1320155028408941
 40
0.1760048571434164
 40
0.2201827305793597
 40
0.2646656976937351
 40
0.3095682184569769
 40
0.355001836559425
 40
0.401074485474427
 40
0.4478899182339682
 40
0.4955472680213688
 40
0.5953670562452651
 40
0.6949121173401501
 40
0.7950007648984784
 40
0.8964386255170008
 40
1.0
 40
1.0
 40
1.0
 40
1.0
 10
359.8431555981375
 20
123.3254106801956
 30
0.0
 10
359.8451399882443
 20
123.3251278229657
 30
0.0
 10
359.8491013571292
 20
123.3245631649251
 30
0.0
 10
359.8579616613598
 20
123.3181438117464
 30
0.0
 10
359.8689341394821
 20
123.3076225622398
 30
0.0
 10
359.8822135375025
 20
123.2925910259301
 30
0.0
 10
359.8977242611688
 20
123.2731387808676
 30
0.0
 10
359.9154557229219
 20
123.2492188029155
 30
0.0
 10
359.935372369625
 20
123.2208177122017
 30
0.0
 10
359.9574379036371
 20
123.187909972401
 30
0.0
 10
359.9816088273313
 20
123.1504699897448
 30
0.0
 10
360.0078358373785
 20
123.108469918115
 30
0.0
 10
360.0461724176096
 20
123.0451928095919
 30
0.0
 10
360.0985051969881
 20
122.9551339472287
 30
0.0
 10
360.1669058081962
 20
122.8307878276619
 30
0.0
 10
360.2395908829917
 20
122.6910747496814
 30
0.0
 10
360.3159511188916
 20
122.5367387344531
 30
0.0
 10
360.3682399335418
 20
122.4230160802253
 30
0.0
 10
360.3946551614454
 20
122.3655657469308
 30
0.0
  0
SPLINE
  5
E3
330
1F
100
AcDbEntity
  8
0
  6
Continuous
 62
     7
370
    25
100
AcDbSpline
210
0.0
220
0.0
230
1.0
 70
    11
 71
     3
 72
    39
 73
    35
 74
     0
 42
0.000000001
 43
0.00000001
 40
0.0
 40
0.0
 40
0.0
 40
0.0
 40
0.0310664058348413
 40
0.0621048158426138
 40
0.0931361551796939
 40
0.1235538293503726
 40
0.1538561545809849
 40
0.1850588072749156
 40
0.2160250992946587
 40
0.2471867223797568
 40
0.2784462884304475
 40
0.3100516090231247
 40
0.3419834369138969
 40
0.3734259894013238
 40
0.4048604886787081
 40
0.436874065183343
 40
0.4685120685926471
 40
0.499805535863323
 40
0.5309508213226204
 40
0.5618649784438111
 40
0.5930416446590877
 40
0.623374245013332
 40
0.6540913579072549
 40
0.6849496782718453
 40
0.7158160645166705
 40
0.7471731804043553
 40
0.7784514311866318
 40
0.810129591156098
 40
0.8419598919688388
 40
0.8735175891922303
 40
0.9050808037886594
 40
0.9370235169792582
 40
0.9687441590030581
 40
1.0
 40
1.0
 40
1.0
 40
1.0
 10
352.4595912382551
 20
106.4433349795058
 30
0.0
 10
352.6493030672098
 20
106.4821035562533
 30
0.0
 10
352.9930439176586
 20
106.5585345020363
 30
0.0
 10
353.3760009048662
 20
106.6466740420296
 30
0.0
 10
353.6204413715813
 20
106.6936235286745
 30
0.0
 10
353.7014303083976
 20
106.6817146039608
 30
0.0
 10
353.6207078629158
 20
106.6097566972453
 30
0.0
 10
353.3808456692961
 20
106.485236431048
 30
0.0
 10
353.0041959351989
 20
106.3278674412228
 30
0.0
 10
352.497952998371
 20
106.1558433565278
 30
0.0
 10
351.8806786046877
 20
105.9909189489421
 30
0.0
 10
351.1682027905479
 20
105.8532063728636
 30
0.0
 10
350.3927375507753
 20
105.7615735603549
 30
0.0
 10
349.582273117161
 20
105.7282409822595
 30
0.0
 10
348.7697686441985
 20
105.7574884278127
 30
0.0
 10
347.9902556540614
 20
105.8458173848003
 30
0.0
 10
347.271927354726
 20
105.9813228844352
 30
0.0
 10
346.6485552473259
 20
106.1450994059264
 30
0.0
 10
346.1354566527303
 20
106.3171055500717
 30
0.0
 10
345.7502545428689
 20
106.4759175645429
 30
0.0
 10
345.5008299376279
 20
106.6031765297084
 30
0.0
 10
345.4102278976815
 20
106.6787834866634
 30
0.0
 10
345.4784394686407
 20
106.6955528833433
 30
0.0
 10
345.7106553350434
 20
106.652772541128
 30
0.0
 10
346.0878723722277
 20
106.5656458562181
 30
0.0
 10
346.5995772399953
 20
106.4509168009111
 30
0.0
 10
347.2230483707422
 20
106.3314946558586
 30
0.0
 10
347.939593073875
 20
106.2268692058093
 30
0.0
 10
348.7179241864859
 20
106.1562207128824
 30
0.0
 10
349.5297556733359
 20
106.1301418884524
 30
0.0
 10
350.343530195333
 20
106.1531674601431
 30
0.0
 10
351.1259040394984
 20
106.2213998982808
 30
0.0
 10
351.8479170742324
 20
106.3246470779905
 30
0.0
 10
352.2687225940815
 20
106.4043300016871
 30
0.0
 10
352.4595912382551
 20
106.4433349795058
 30
0.0
  0
SPLINE
  5
E4
330
1F
100
AcDbEntity
  8
0
  6
Continuous
 62
     7
370
    25
100
AcDbSpline
210
0.0
220
0.0
230
1.0
 70
    11
 71
     3
 72
    39
 73
    35
 74
     0
 42
0.000000001
 43
0.00000001
 40
0.0
 40
0.0
 40
0.0
 40
0.0
 40
0.0312651429934057
 40
0.0629601069329321
 40
0.0948697276489808
 40
0.1264264963751833
 40
0.1579651393672472
 40
0.1898765439016956
 40
0.221552335268876
 40
0.2527844076550827
 40
0.2838418966734154
 40
0.3148645781100674
 40
0.3459127639308091
 40
0.3763475365526575
 40
0.4066751324671412
 40
0.4379141187435632
 40
0.4688932367345488
 40
0.5000738678969536
 40
0.5313369410958942
 40
0.5629183719104849
 40
0.5948445736343699
 40
0.6262809966135365
 40
0.6577486436587271
 40
0.6897584692806508
 40
0.7214430019610059
 40
0.7527623343195418
 40
0.7839279690572818
 40
0.8148885765585865
 40
0.8460375004982862
 40
0.8763409566916784
 40
0.906758919146387
 40
0.9378312724751761
 40
0.9689189660506093
 40
1.0
 40
1.0
 40
1.0
 40
1.0
 10
352.4594869884683
 20
129.3066273994484
 30
0.0
 10
352.2684130521866
 20
129.3456913573291
 30
0.0
 10
351.847478489747
 20
129.4254103518892
 30
0.0
 10
351.1260890845834
 20
129.5285257672396
 30
0.0
 10
350.344433036293
 20
129.5967266396635
 30
0.0
 10
349.5313453165821
 20
129.6197835323054
 30
0.0
 10
348.7190650997301
 20
129.5937992586592
 30
0.0
 10
347.9404346746806
 20
129.5232090934211
 30
0.0
 10
347.2237588847692
 20
129.4185935311818
 30
0.0
 10
346.6018836151076
 20
129.2994212061655
 30
0.0
 10
346.0923726816217
 20
129.1854840384392
 30
0.0
 10
345.7172533353774
 20
129.0993697594927
 30
0.0
 10
345.4812927605266
 20
129.0553140381569
 30
0.0
 10
345.409892217345
 20
129.0708438388681
 30
0.0
 10
345.5004886471428
 20
129.146352721052
 30
0.0
 10
345.7494649275022
 20
129.2735262488962
 30
0.0
 10
346.134379747345
 20
129.4323769275084
 30
0.0
 10
346.6471650541671
 20
129.6044011887184
 30
0.0
 10
347.269624177092
 20
129.7680742682531
 30
0.0
 10
347.9861243218986
 20
129.9034758416334
 30
0.0
 10
348.7642233560086
 20
129.9919935091162
 30
0.0
 10
349.5759460446557
 20
130.021700917599
 30
0.0
 10
350.387388232357
 20
129.9888144729489
 30
0.0
 10
351.164514123839
 20
129.8973335649041
 30
0.0
 10
351.8789522130095
 20
129.7594493749426
 30
0.0
 10
352.4971751712449
 20
129.5943215500927
 30
0.0
 10
353.0035425319708
 20
129.4222710127401
 30
0.0
 10
353.3800950533845
 20
129.2649874910299
 30
0.0
 10
353.6197908648159
 20
129.1405836935459
 30
0.0
 10
353.7012575730102
 20
129.0683955201096
 30
0.0
 10
353.6211983305184
 20
129.0561230117316
 30
0.0
 10
353.3768523245645
 20
129.1030184222377
 30
0.0
 10
352.9938788911156
 20
129.1911519703833
 30
0.0
 10
352.6494357599058
 20
129.2677934749932
 30
0.0
 10
352.4594869884683
 20
129.3066273994484
 30
0.0
  0
SPLINE
  5
E5
330
1F
100
AcDbEntity
  8
0
  6
Continuous
 62
     7
370
    25
100
AcDbSpline
210
0.0
220
0.0
230
1.0
 70
     8
 71
     3
 72
    23
 73
    19
 74
     0
 42
0.000000001
 43
0.00000001
 40
0.0
 40
0.0
 40
0.0
 40
0.0
 40
0.0449850911516383
 40
0.0909520670767777
 40
0.1379394291255006
 40
0.1859832248910951
 40
0.2351171761689533
 40
0.2853728096402591
 40
0.3367795876576951
 40
0.3893650370792399
 40
0.4431548745925064
 40
0.498173127394291
 40
0.5575107590849617
 40
0.6265492281305397
 40
0.7053073138942775
 40
0.7937970253739629
 40
0.8920262115920568
 40
1.0
 40
1.0
 40
1.0
 40
1.0
 10
339.6645229619005
 20
122.9049651632592
 30
0.0
 10
339.662360272535
 20
122.9045362615997
 30
0.0
 10
339.6579876890144
 20
122.9036690966899
 30
0.0
 10
339.6477067298229
 20
122.8965755290889
 30
0.0
 10
339.6346464517931
 20
122.8849627875098
 30
0.0
 10
339.6185272902388
 20
122.8681734173372
 30
0.0
 10
339.5994268625828
 20
122.8461014307225
 30
0.0
 10
339.577324509827
 20
122.8185039569592
 30
0.0
 10
339.5522240312912
 20
122.7851955257499
 30
0.0
 10
339.5241328999133
 20
122.7459951873432
 30
0.0
 10
339.4930169990612
 20
122.7007531418699
 30
0.0
 10
339.4583780681791
 20
122.6483572094806
 30
0.0
 10
339.4176565599003
 20
122.5855747412614
 30
0.0
 10
339.3689356388755
 20
122.5078177420028
 30
0.0
 10
339.3111613005576
 20
122.4105331844243
 30
0.0
 10
339.2442506509126
 20
122.2907883507052
 30
0.0
 10
339.1683066866191
 20
122.146868145801
 30
0.0
 10
339.1139455219339
 20
122.036133940908
 30
0.0
 10
339.0854804578195
 20
121.9781503369841
 30
0.0
  0
LINE
  5
E6
330
1F
100
AcDbEntity
  8
0
  6
Continuous
 62
     7
370
    25
100
AcDbLine
 10
339.0854804103
 20
121.9786765038
 30
0.0
 11
338.7161411602
 21
122.3647613994
 31
0.0
  0
LINE
  5
E7
330
1F
100
AcDbEntity
  8
0
  6
Continuous
 62
     7
370
    25
100
AcDbLine
 10
360.3947555904
 20
122.3647017948
 30
0.0
 11
360.0254889835
 21
121.9786937333
 31
0.0
  0
SPLINE
  5
E8
330
1F
100
AcDbEntity
  8
0
  6
Continuous
 62
     7
370
    25
100
AcDbSpline
210
0.0
220
0.0
230
1.0
 70
     8
 71
     3
 72
    26
 73
    22
 74
     0
 42
0.000000001
 43
0.00000001
 40
0.0
 40
0.0
 40
0.0
 40
0.0
 40
0.0509383868653979
 40
0.0998291548270505
 40
0.1466728126490638
 40
0.1914699456369332
 40
0.2342212299774179
 40
0.274927450668867
 40
0.3135895241747119
 40
0.3502085273716571
 40
0.3847857350077695
 40
0.4173226688482998
 40
0.4478211631571791
 40
0.4762834534603437
 40
0.5027122992246547
 40
0.593906700502561
 40
0.6816015993191188
 40
0.7659159552051488
 40
0.846983628966416
 40
0.9249552229440475
 40
1.0
 40
1.0
 40
1.0
 40
1.0
 10
360.0254893737644
 20
121.9779596067344
 30
0.0
 10
360.0120315095663
 20
122.0055803878987
 30
0.0
 10
359.9856567597686
 20
122.059711651352
 30
0.0
 10
359.9472845799896
 20
122.1360196884272
 30
0.0
 10
359.9108183974974
 20
122.2067718680189
 30
0.0
 10
359.8762821478737
 20
122.2719436947071
 30
0.0
 10
359.8436696960208
 20
122.3318019399588
 30
0.0
 10
359.8129824122279
 20
122.3865670995001
 30
0.0
 10
359.7842197959267
 20
122.4364914908121
 30
0.0
 10
359.7573816314543
 20
122.4818337214072
 30
0.0
 10
359.7324680510262
 20
122.522859660348
 30
0.0
 10
359.7094774042374
 20
122.5598370452951
 30
0.0
 10
359.6884138987478
 20
122.5930331612785
 30
0.0
 10
359.6692615283685
 20
122.6227088935457
 30
0.0
 10
359.6375904514237
 20
122.6713792185955
 30
0.0
 10
359.5961205059871
 20
122.7332745365142
 30
0.0
 10
359.5491309898434
 20
122.798615143938
 30
0.0
 10
359.5105124201285
 20
122.8477335352298
 30
0.0
 10
359.4804639604071
 20
122.881209823742
 30
0.0
 10
359.458173849438
 20
122.90132725598
 30
0.0
 10
359.4502785340046
 20
122.9037680898295
 30
0.0
 10
359.446406385015
 20
122.9049651632592
 30
0.0
  0
SPLINE
  5
E9
330
1F
100
AcDbEntity
  8
0
  6
Continuous
 62
     7
370
    25
100
AcDbSpline
210
0.0
220
0.0
230
1.0
 70
     8
 71
     3
 72
     8
 73
     4
 74
     0
 42
0.000000001
 43
0.00000001
 40
0.0
 40
0.0
 40
0.0
 40
0.0
 40
1.0
 40
1.0
 40
1.0
 40
1.0
 10
357.2971451252581
 20
122.0979634897419
 30
0.0
 10
357.3607381055982
 20
122.0322947118952
 30
0.0
 10
357.4246945320335
 20
121.9679524142349
 30
0.0
 10
357.4888934517409
 20
121.9062151632592
 30
0.0
  0
SPLINE
  5
EA
330
1F
100
AcDbEntity
  8
0
  6
Continuous
 62
     7
370
    25
100
AcDbSpline
210
0.0
220
0.0
230
1.0
 70
     8
 71
     3
 72
    25
 73
    21
 74
     0
 42
0.000000001
 43
0.00000001
 40
0.0
 40
0.0
 40
0.0
 40
0.0
 40
0.0367725003254103
 40
0.074208401060063
 40
0.1123590542807964
 40
0.1512729822568881
 40
0.190995910016845
 40
0.2315708273504481
 40
0.2730380740418892
 40
0.3154354426077851
 40
0.3587982934432034
 40
0.4031596779810961
 40
0.4485504661847858
 40
0.494999475376923
 40
0.5532504315673752
 40
0.621829488573267
 40
0.7007739996560722
 40
0.7901076726660372
 40
0.8898461547533933
 40
1.0
 40
1.0
 40
1.0
 40
1.0
 10
356.8552239379466
 20
122.9049651632589
 30
0.0
 10
356.8554477120114
 20
122.9046404756251
 30
0.0
 10
356.8558992971743
 20
122.9039852427764
 30
0.0
 10
356.8606163370466
 20
122.8986228709886
 30
0.0
 10
356.8682689461293
 20
122.8898672772881
 30
0.0
 10
356.8791619252663
 20
122.8772430591962
 30
0.0
 10
356.8932105116821
 20
122.8606867210658
 30
0.0
 10
356.9104374092913
 20
122.8400295436881
 30
0.0
 10
356.9308359620728
 20
122.8151418077202
 30
0.0
 10
356.9544067753649
 20
122.7858942615269
 30
0.0
 10
356.9811521239246
 20
122.7521713263304
 30
0.0
 10
357.011059977357
 20
122.7138655112049
 30
0.0
 10
357.0441760697015
 20
122.670894615867
 30
0.0
 10
357.0831019912754
 20
122.6194733341963
 30
0.0
 10
357.1319300709921
 20
122.5552571025071
 30
0.0
 10
357.1938506755932
 20
122.4723625734126
 30
0.0
 10
357.2682352339141
 20
122.3684168231981
 30
0.0
 10
357.3552096619027
 20
122.2403306129409
 30
0.0
 10
357.4546345118853
 20
122.0862408330346
 30
0.0
 10
357.5260536876148
 20
121.9681765971641
 30
0.0
 10
357.5635352712956
 20
121.9062151632592
 30
0.0
  0
LINE
  5
EB
330
1F
100
AcDbEntity
  8
0
  6
Continuous
 62
     7
370
    25
100
AcDbLine
 10
357.5635349635
 20
121.9062149509
 30
0.0
 11
357.4888931845
 21
121.9062149509
 31
0.0
  0
SPLINE
  5
EC
330
1F
100
AcDbEntity
  8
0
  6
Continuous
 62
     7
370
    25
100
AcDbSpline
210
0.0
220
0.0
230
1.0
 70
     8
 71
     3
 72
    23
 73
    19
 74
     0
 42
0.000000001
 43
0.00000001
 40
0.0
 40
0.0
 40
0.0
 40
0.0
 40
0.0511129009857221
 40
0.1016896331838983
 40
0.1518293139104713
 40
0.201633670189439
 40
0.2512064936754081
 40
0.3006530343006331
 40
0.3500793489716449
 40
0.3995916247932065
 40
0.4492954981442684
 40
0.4992953912354716
 40
0.5872572780521574
 40
0.6724255494349275
 40
0.7555067762540824
 40
0.8372616735271673
 40
0.9184882400167564
 40
1.0
 40
1.0
 40
1.0
 40
1.0
 10
357.2972078013835
 20
122.0982062058371
 30
0.0
 10
357.2811922174831
 20
122.127334808068
 30
0.0
 10
357.2493290514201
 20
122.1852864566518
 30
0.0
 10
357.2022852130012
 20
122.2680442918701
 30
0.0
 10
357.1563066888262
 20
122.3471331503543
 30
0.0
 10
357.1115260220227
 20
122.4223501382885
 30
0.0
 10
357.0680422575867
 20
122.4938131933341
 30
0.0
 10
357.0259562940021
 20
122.5615545975225
 30
0.0
 10
356.9853618296048
 20
122.6256281092675
 30
0.0
 10
356.9463469232546
 20
122.6860817083387
 30
0.0
 10
356.9089971007671
 20
122.742959213267
 30
0.0
 10
356.864468844175
 20
122.8096736863274
 30
0.0
 10
356.8158285836338
 20
122.8809939701919
 30
0.0
 10
356.767989483878
 20
122.949574222651
 30
0.0
 10
356.7303379717971
 20
123.0025905506931
 30
0.0
 10
356.7035152704096
 20
123.0398632068207
 30
0.0
 10
356.6867864395861
 20
123.0629006064007
 30
0.0
 10
356.6849380296222
 20
123.0654353316659
 30
0.0
 10
356.6840122050019
 20
123.0667049153093
 30
0.0
  0
SPLINE
  5
ED
330
1F
100
AcDbEntity
  8
0
  6
Continuous
 62
     7
370
    25
100
AcDbSpline
210
0.0
220
0.0
230
1.0
 70
     8
 71
     3
 72
     8
 73
     4
 74
     0
 42
0.000000001
 43
0.00000001
 40
0.0
 40
0.0
 40
0.0
 40
0.0
 40
1.0
 40
1.0
 40
1.0
 40
1.0
 10
359.9593573205298
 20
121.9062151632591
 30
0.0
 10
359.9812426921729
 20
121.9305361794568
 30
0.0
 10
360.0031280638161
 20
121.9545607777792
 30
0.0
 10
360.0250134354592
 20
121.9782676298677
 30
0.0
  0
LINE
  5
EE
330
1F
100
AcDbEntity
  8
0
  6
Continuous
 62
     7
370
    25
100
AcDbLine
 10
359.9591974426
 20
121.9062149509
 30
0.0
 11
357.5635349635
 21
121.9062149509
 31
0.0
  0
SPLINE
  5
EF
330
1F
100
AcDbEntity
  8
0
  6
Continuous
 62
     7
370
    25
100
AcDbSpline
210
0.0
220
0.0
230
1.0
 70
     8
 71
     3
 72
     8
 73
     4
 74
     0
 42
0.000000001
 43
0.00000001
 40
0.0
 40
0.0
 40
0.0
 40
0.0
 40
1.0
 40
1.0
 40
1.0
 40
1.0
 10
339.0858216856315
 20
121.9783711973479
 30
0.0
 10
339.1077384581191
 20
121.9546307487888
 30
0.0
 10
339.1296552306066
 20
121.9305715970021
 30
0.0
 10
339.1515720030941
 20
121.9062151632592
 30
0.0
  0
SPLINE
  5
F0
330
1F
100
AcDbEntity
  8
0
  6
Continuous
 62
     7
370
    25
100
AcDbSpline
210
0.0
220
0.0
230
1.0
 70
     8
 71
     3
 72
    26
 73
    22
 74
     0
 42
0.000000001
 43
0.00000001
 40
0.0
 40
0.0
 40
0.0
 40
0.0
 40
0.0524616379932503
 40
0.1026498591890872
 40
0.150565513457809
 40
0.1962095861957063
 40
0.2395832262568645
 40
0.2806877815599511
 40
0.3195248450380211
 40
0.3560963147430692
 40
0.3904044736547445
 40
0.4224520974433627
 40
0.4522426027417772
 40
0.4797802555366611
 40
0.5050704712281336
 40
0.5966394156799991
 40
0.6841917884819224
 40
0.7679874773571101
 40
0.8483228539139507
 40
0.925534163520116
 40
1.0
 40
1.0
 40
1.0
 40
1.0
 10
341.5472165175416
 20
121.9062300552769
 30
0.0
 10
341.5650780018299
 20
121.936003515318
 30
0.0
 10
341.6000269458057
 20
121.9942602072114
 30
0.0
 10
341.6507917792878
 20
122.076459187576
 30
0.0
 10
341.6988617369295
 20
122.1525400564767
 30
0.0
 10
341.7442057096944
 20
122.222491404943
 30
0.0
 10
341.7868316891997
 20
122.286598566895
 30
0.0
 10
341.8267379877088
 20
122.3451064063652
 30
0.0
 10
341.8639253168241
 20
122.3982949839872
 30
0.0
 10
341.898394139415
 20
122.4464530242244
 30
0.0
 10
341.9301442280473
 20
122.4898776975006
 30
0.0
 10
341.9591786326484
 20
122.5288677885976
 30
0.0
 10
341.9854899218496
 20
122.563721887124
 30
0.0
 10
342.0091065513936
 20
122.5947268815746
 30
0.0
 10
342.0487522303995
 20
122.6469701002075
 30
0.0
 10
342.1002905271986
 20
122.7144994334647
 30
0.0
 10
342.1571166641798
 20
122.7866928796733
 30
0.0
 10
342.2012740921428
 20
122.8411768357958
 30
0.0
 10
342.2324517150848
 20
122.8784416269641
 30
0.0
 10
342.2519112817239
 20
122.9009059792388
 30
0.0
 10
342.2540528794044
 20
122.903628528666
 30
0.0
 10
342.2551042959611
 20
122.9049651632592
 30
0.0
  0
LINE
  5
F1
330
1F
100
AcDbEntity
  8
0
  6
Continuous
 62
     7
370
    25
100
AcDbLine
 10
341.5472165008
 20
121.9062149509
 30
0.0
 11
339.1515717168
 21
121.9062149509
 31
0.0
  0
LINE
  5
F2
330
1F
100
AcDbEntity
  8
0
  6
Continuous
 62
     7
370
    25
100
AcDbLine
 10
341.6220361624
 20
121.9062149509
 30
0.0
 11
341.5469166149
 21
121.9062149509
 31
0.0
  0
SPLINE
  5
F3
330
1F
100
AcDbEntity
  8
0
  6
Continuous
 62
     7
370
    25
100
AcDbSpline
210
0.0
220
0.0
230
1.0
 70
     8
 71
     3
 72
     8
 73
     4
 74
     0
 42
0.000000001
 43
0.00000001
 40
0.0
 40
0.0
 40
0.0
 40
0.0
 40
1.0
 40
1.0
 40
1.0
 40
1.0
 10
341.6220358951746
 20
121.9062151632592
 30
0.0
 10
341.6859446978345
 20
121.9681840266903
 30
0.0
 10
341.7497196171865
 20
122.032160091807
 30
0.0
 10
341.8130796830674
 20
122.0976947481527
 30
0.0
  0
SPLINE
  5
F4
330
1F
100
AcDbEntity
  8
0
  6
Continuous
 62
     7
370
    25
100
AcDbSpline
210
0.0
220
0.0
230
1.0
 70
     8
 71
     3
 72
    24
 73
    20
 74
     0
 42
0.000000001
 43
0.00000001
 40
0.0
 40
0.0
 40
0.0
 40
0.0
 40
0.0410257106287842
 40
0.0818520099077639
 40
0.1225800578354648
 40
0.1633117464058233
 40
0.2041489402806705
 40
0.2451927184749161
 40
0.2865426449235763
 40
0.3282960933646444
 40
0.370547647549383
 40
0.4133885920102291
 40
0.4569065022351533
 40
0.5011849368587563
 40
0.6001856774947433
 40
0.6987388860447942
 40
0.7976800645453981
 40
0.8978349910029445
 40
1.0
 40
1.0
 40
1.0
 40
1.0
 10
342.4266624889422
 20
123.0663552445907
 30
0.0
 10
342.4264677255012
 20
123.0660878944332
 30
0.0
 10
342.4260791452948
 20
123.0655544936118
 30
0.0
 10
342.4220243576204
 20
123.0599827476128
 30
0.0
 10
342.4154303986406
 20
123.0509019984589
 30
0.0
 10
342.4060661377306
 20
123.0379645380982
 30
0.0
 10
342.3940180239606
 20
123.0212460951924
 30
0.0
 10
342.3792954545002
 20
123.0007040844206
 30
0.0
 10
342.3619364616529
 20
122.9763227103738
 30
0.0
 10
342.3419792904995
 20
122.948073966302
 30
0.0
 10
342.319470240804
 20
122.9159284189008
 30
0.0
 10
342.2944610050426
 20
122.8798515789346
 30
0.0
 10
342.2670116355177
 20
122.8398079864153
 30
0.0
 10
342.2250885224506
 20
122.7778875430741
 30
0.0
 10
342.1658823472393
 20
122.6885750519775
 30
0.0
 10
342.0861027541191
 20
122.5640304599489
 30
0.0
 10
342.0001219691326
 20
122.424245667459
 30
0.0
 10
341.9088371819107
 20
122.2698328484729
 30
0.0
 10
341.8456328278527
 20
122.1557868268221
 30
0.0
 10
341.8137166778871
 20
122.0981972828068
 30
0.0
  0
LINE
  5
F5
330
1F
100
AcDbEntity
  8
0
  6
Continuous
 62
     7
370
    25
100
AcDbLine
 10
338.742823552
 20
113.3849100194
 30
0.0
 11
339.1670614738
 21
113.8337031923
 31
0.0
  0
SPLINE
  5
F6
330
1F
100
AcDbEntity
  8
0
  6
Continuous
 62
     7
370
    25
100
AcDbSpline
210
0.0
220
0.0
230
1.0
 70
     8
 71
     3
 72
    13
 73
     9
 74
     0
 42
0.000000001
 43
0.00000001
 40
0.0
 40
0.0
 40
0.0
 40
0.0
 40
0.170632084649598
 40
0.3395984165075754
 40
0.5069574111411415
 40
0.6727691830249297
 40
0.8370955447763889
 40
1.0
 40
1.0
 40
1.0
 40
1.0
 10
339.1670611863354
 20
113.83368242173
 30
0.0
 10
339.1720666567443
 20
113.8267310486486
 30
0.0
 10
339.1820287329166
 20
113.8128961635165
 30
0.0
 10
339.1949025608085
 20
113.7967684050596
 30
0.0
 10
339.2061688733044
 20
113.7840996749005
 30
0.0
 10
339.2156462367397
 20
113.7752432370616
 30
0.0
 10
339.2235284694345
 20
113.7697312085818
 30
0.0
 10
339.2273433756678
 20
113.7690528625009
 30
0.0
 10
339.2292425403842
 20
113.7687151632592
 30
0.0
  0
SPLINE
  5
F7
330
1F
100
AcDbEntity
  8
0
  6
Continuous
 62
     7
370
    25
100
AcDbSpline
210
0.0
220
0.0
230
1.0
 70
     8
 71
     3
 72
    13
 73
     9
 74
     0
 42
0.000000001
 43
0.00000001
 40
0.0
 40
0.0
 40
0.0
 40
0.0
 40
0.1621004456571512
 40
0.325943455157606
 40
0.4915935308260523
 40
0.6591130873964648
 40
0.8285624736043361
 40
1.0
 40
1.0
 40
1.0
 40
1.0
 10
359.8816868065314
 20
113.7687151632592
 30
0.0
 10
359.8835639128736
 20
113.7690496463599
 30
0.0
 10
359.8873383042664
 20
113.7697222082215
 30
0.0
 10
359.8951853814453
 20
113.7751954926172
 30
0.0
 10
359.9046514412205
 20
113.7840149572775
 30
0.0
 10
359.9159323560228
 20
113.7966677142715
 30
0.0
 10
359.9288469745205
 20
113.812819715668
 30
0.0
 10
359.9388426887663
 20
113.826705515611
 30
0.0
 10
359.9438696946779
 20
113.8336889083616
 30
0.0
  0
LINE
  5
F8
330
1F
100
AcDbEntity
  8
0
  6
Continuous
 62
     7
370
    25
100
AcDbLine
 10
359.9438827742
 20
113.8336892224
 30
0.0
 11
360.3681048636
 21
113.3849100194
 31
0.0
  0
LINE
  5
F9
330
1F
100
AcDbEntity
  8
0
  6
Continuous
 62
     7
370
    25
100
AcDbLine
 10
357.4888931845
 20
113.8437153756
 30
0.0
 11
357.4976150204
 21
113.8437153756
 31
0.0
  0
SPLINE
  5
FA
330
1F
100
AcDbEntity
  8
0
  6
Continuous
 62
     7
370
    25
100
AcDbSpline
210
0.0
220
0.0
230
1.0
 70
     8
 71
     3
 72
    13
 73
     9
 74
     0
 42
0.000000001
 43
0.00000001
 40
0.0
 40
0.0
 40
0.0
 40
0.0
 40
0.170527330366418
 40
0.3393382731715298
 40
0.5065592454659379
 40
0.672320302183991
 40
0.8367549624218703
 40
1.0
 40
1.0
 40
1.0
 40
1.0
 10
357.4976276411687
 20
113.8437150289438
 30
0.0
 10
357.4925922376262
 20
113.8357089061768
 30
0.0
 10
357.4825721127633
 20
113.8197772436763
 30
0.0
 10
357.4707690701078
 20
113.8011602185669
 30
0.0
 10
357.4614269663965
 20
113.7865212255803
 30
0.0
 10
357.4548313417737
 20
113.7762741560625
 30
0.0
 10
357.4506783190853
 20
113.7698911657939
 30
0.0
 10
357.4501524707764
 20
113.7691062141966
 30
0.0
 10
357.4498905011532
 20
113.7687151632592
 30
0.0
  0
SPLINE
  5
FB
330
1F
100
AcDbEntity
  8
0
  6
Continuous
 62
     7
370
    25
100
AcDbSpline
210
0.0
220
0.0
230
1.0
 70
     8
 71
     3
 72
     8
 73
     4
 74
     0
 42
0.000000001
 43
0.00000001
 40
0.0
 40
0.0
 40
0.0
 40
0.0
 40
1.0
 40
1.0
 40
1.0
 40
1.0
 10
359.9438827356708
 20
113.8336895214289
 30
0.0
 10
359.9416992514297
 20
113.8365381869452
 30
0.0
 10
359.9395157671885
 20
113.8394789783427
 30
0.0
 10
359.9373322829474
 20
113.8425114756192
 30
0.0
  0
LINE
  5
FC
330
1F
100
AcDbEntity
  8
0
  6
Continuous
 62
     7
370
    25
100
AcDbLine
 10
359.9364293997
 20
113.8437153756
 30
0.0
 11
357.4976187457
 21
113.8437153756
 31
0.0
  0
SPLINE
  5
FD
330
1F
100
AcDbEntity
  8
0
  6
Continuous
 62
     7
370
    25
100
AcDbSpline
210
0.0
220
0.0
230
1.0
 70
     8
 71
     3
 72
     8
 73
     4
 74
     0
 42
0.000000001
 43
0.00000001
 40
0.0
 40
0.0
 40
0.0
 40
0.0
 40
1.0
 40
1.0
 40
1.0
 40
1.0
 10
339.1744998303775
 20
113.8437151632669
 30
0.0
 10
339.172013911691
 20
113.8402534639548
 30
0.0
 10
339.1695279930045
 20
113.8369093120459
 30
0.0
 10
339.167042074318
 20
113.8336833201055
 30
0.0
  0
LINE
  5
FE
330
1F
100
AcDbEntity
  8
0
  6
Continuous
 62
     7
370
    25
100
AcDbLine
 10
341.6118037213
 20
113.8437153756
 30
0.0
 11
339.1747160141
 21
113.8437153756
 31
0.0
  0
SPLINE
  5
FF
330
1F
100
AcDbEntity
  8
0
  6
Continuous
 62
     7
370
    25
100
AcDbSpline
210
0.0
220
0.0
230
1.0
 70
     8
 71
     3
 72
    13
 73
     9
 74
     0
 42
0.000000001
 43
0.00000001
 40
0.0
 40
0.0
 40
0.0
 40
0.0
 40
0.1631595583870535
 40
0.3275424452489252
 40
0.4932858679997912
 40
0.6605236853065742
 40
0.8293862019229544
 40
1.0
 40
1.0
 40
1.0
 40
1.0
 10
341.6610388457623
 20
113.7687151632592
 30
0.0
 10
341.6607810002756
 20
113.7691058136518
 30
0.0
 10
341.6602633760431
 20
113.7698900434332
 30
0.0
 10
341.6561167797992
 20
113.776268212668
 30
0.0
 10
341.6495235011236
 20
113.7865106588154
 30
0.0
 10
341.6401791062461
 20
113.8011475748643
 30
0.0
 10
341.6283692932324
 20
113.819767433714
 30
0.0
 10
341.6183425759179
 20
113.8357051413614
 30
0.0
 10
341.6133033544782
 20
113.8437151046981
 30
0.0
  0
LINE
  5
100
330
1F
100
AcDbEntity
  8
0
  6
Continuous
 62
     7
370
    25
100
AcDbLine
 10
341.6133133952
 20
113.8437153756
 30
0.0
 11
341.6220361624
 21
113.8437153756
 31
0.0
  0
SPLINE
  5
101
330
1F
100
AcDbEntity
  8
0
  6
Continuous
 62
     7
370
    25
100
AcDbSpline
210
0.0
220
0.0
230
1.0
 70
     8
 71
     3
 72
    14
 73
    10
 74
     0
 42
0.000000001
 43
0.00000001
 40
0.0
 40
0.0
 40
0.0
 40
0.0
 40
0.0310276388071746
 40
0.0622853718672815
 40
0.1248003166904892
 40
0.2498289731753984
 40
0.499889260361071
 40
0.7606803621682141
 40
1.0
 40
1.0
 40
1.0
 40
1.0
 10
338.5953706789986
 20
113.3869769886438
 30
0.0
 10
338.5996999724637
 20
113.3917609109219
 30
0.0
 10
338.6083906644972
 20
113.4013642320102
 30
0.0
 10
338.6257914431594
 20
113.420658546008
 30
0.0
 10
338.6562676030043
 20
113.4544234924617
 30
0.0
 10
338.7170889958238
 20
113.5218422513234
 30
0.0
 10
338.804979338237
 20
113.6193089261904
 30
0.0
 10
338.9078170183204
 20
113.7334534380873
 30
0.0
 10
338.9750231297621
 20
113.8082382510939
 30
0.0
 10
339.007183491409
 20
113.8440252737381
 30
0.0
  0
LINE
  5
102
330
1F
100
AcDbEntity
  8
0
  6
Continuous
 62
     7
370
    25
100
AcDbLine
 10
339.0068553646
 20
113.8437153756
 30
0.0
 11
339.1744999472
 21
113.8437153756
 31
0.0
  0
LINE
  5
103
330
1F
100
AcDbEntity
  8
0
  6
Continuous
 62
     7
370
    25
100
AcDbLine
 10
359.9364293997
 20
113.8437153756
 30
0.0
 11
360.1040814329
 21
113.8437153756
 31
0.0
  0
SPLINE
  5
104
330
1F
100
AcDbEntity
  8
0
  6
Continuous
 62
     7
370
    25
100
AcDbSpline
210
0.0
220
0.0
230
1.0
 70
     8
 71
     3
 72
    11
 73
     7
 74
     0
 42
0.000000001
 43
0.00000001
 40
0.0
 40
0.0
 40
0.0
 40
0.0
 40
0.2392913844325938
 40
0.5001130135003002
 40
0.7515028526498353
 40
0.9999999999999999
 40
0.9999999999999999
 40
0.9999999999999999
 40
0.9999999999999999
 10
360.1037779261281
 20
113.8440019657708
 30
0.0
 10
360.1359344791078
 20
113.8082252471935
 30
0.0
 10
360.2031408712334
 20
113.7334527994378
 30
0.0
 10
360.3061689609808
 20
113.6189940861151
 30
0.0
 10
360.4112596255979
 20
113.5028348999952
 30
0.0
 10
360.4809344456776
 20
113.4254469586995
 30
0.0
 10
360.5155702623713
 20
113.3869768981246
 30
0.0
  0
LINE
  5
105
330
1F
100
AcDbEntity
  8
0
  6
Continuous
 62
     7
370
    25
100
AcDbLine
 10
339.1515717168
 20
121.9062149509
 30
0.0
 11
339.0069997196
 21
121.9062149509
 31
0.0
  0
SPLINE
  5
106
330
1F
100
AcDbEntity
  8
0
  6
Continuous
 62
     7
370
    25
100
AcDbSpline
210
0.0
220
0.0
230
1.0
 70
     8
 71
     3
 72
    11
 73
     7
 74
     0
 42
0.000000001
 43
0.00000001
 40
0.0
 40
0.0
 40
0.0
 40
0.0
 40
0.2392845094479873
 40
0.5001120454076898
 40
0.7515010915036774
 40
1.0
 40
1.0
 40
1.0
 40
1.0
 10
339.0073023292481
 20
121.9059293770626
 30
0.0
 10
338.9751411994781
 20
121.9417272261245
 30
0.0
 10
338.9079234408819
 20
122.0165458408222
 30
0.0
 10
338.8048787923839
 20
122.1310741050773
 30
0.0
 10
338.6997705634971
 20
122.2473050987517
 30
0.0
 10
338.6300850468697
 20
122.3247395944427
 30
0.0
 10
338.59544373443
 20
122.3632329957788
 30
0.0
  0
SPLINE
  5
107
330
1F
100
AcDbEntity
  8
0
  6
Continuous
 62
     7
370
    25
100
AcDbSpline
210
0.0
220
0.0
230
1.0
 70
     8
 71
     3
 72
    14
 73
    10
 74
     0
 42
0.000000001
 43
0.00000001
 40
0.0
 40
0.0
 40
0.0
 40
0.0
 40
0.031029414748255
 40
0.0622870907562092
 40
0.1248019217225762
 40
0.249830351143087
 40
0.4998901825554788
 40
0.7606872170552411
 40
1.0
 40
1.0
 40
1.0
 40
1.0
 10
360.5154739971603
 20
122.3632328875026
 30
0.0
 10
360.5111438008448
 20
122.3584457009326
 30
0.0
 10
360.5024515540496
 20
122.3488361118775
 30
0.0
 10
360.4850479257022
 20
122.3295301181715
 30
0.0
 10
360.454567190167
 20
122.2957449025196
 30
0.0
 10
360.3937365684449
 20
122.228285771572
 30
0.0
 10
360.3058316652782
 20
122.1307592658617
 30
0.0
 10
360.2029774206613
 20
122.0165452590873
 30
0.0
 10
360.1357599625148
 20
121.9417142989822
 30
0.0
 10
360.1035950331125
 20
121.905906153074
 30
0.0
  0
LINE
  5
108
330
1F
100
AcDbEntity
  8
0
  6
Continuous
 62
     7
370
    25
100
AcDbLine
 10
360.1039221768
 20
121.9062149509
 30
0.0
 11
359.9593576301
 21
121.9062149509
 31
0.0
  0
LINE
  5
109
330
1F
100
AcDbEntity
  8
0
  6
Continuous
 62
     7
370
    25
100
AcDbLine
 10
337.6847964038
 20
115.6876274369
 30
0.0
 11
338.1248593588
 21
115.7687151323
 31
0.0
  0
SPLINE
  5
10A
330
1F
100
AcDbEntity
  8
0
  6
Continuous
 62
     7
370
    25
100
AcDbSpline
210
0.0
220
0.0
230
1.0
 70
     8
 71
     3
 72
    25
 73
    21
 74
     0
 42
0.000000001
 43
0.00000001
 40
0.0
 40
0.0
 40
0.0
 40
0.0
 40
0.0274788704223154
 40
0.0560416006850518
 40
0.0856947086352136
 40
0.116444016653826
 40
0.1482947438681133
 40
0.1812515840470034
 40
0.2153187716748716
 40
0.2505001382254911
 40
0.333051455250936
 40
0.5015081958163736
 40
0.5771663066143947
 40
0.648898130302521
 40
0.716747770006283
 40
0.7807674423488066
 40
0.84101941313403
 40
0.8975784849924567
 40
0.9505352047788314
 40
1.0
 40
1.0
 40
1.0
 40
1.0
 10
338.1248594660465
 20
115.7687151632592
 30
0.0
 10
338.13156763339
 20
115.7395329587418
 30
0.0
 10
338.1452485609468
 20
115.680017504593
 30
0.0
 10
338.1680132896006
 20
115.5896270075343
 30
0.0
 10
338.192890926841
 20
115.4964953984132
 30
0.0
 10
338.2200301648585
 20
115.4009093541383
 30
0.0
 10
338.2493915718898
 20
115.303155884525
 30
0.0
 10
338.2809767421778
 20
115.2035752084676
 30
0.0
 10
338.3148236120426
 20
115.102566068889
 30
0.0
 10
338.3665248419755
 20
114.9557992616379
 30
0.0
 10
338.4708838549892
 20
114.6915328487236
 30
0.0
 10
338.5917570826729
 20
114.4215632188951
 30
0.0
 10
338.70525012913
 20
114.2041535441788
 30
0.0
 10
338.7765230967458
 20
114.0744499734483
 30
0.0
 10
338.8385976688717
 20
113.9705748961235
 30
0.0
 10
338.891181681039
 20
113.890714262305
 30
0.0
 10
338.9344282269665
 20
113.8326956361544
 30
0.0
 10
338.9680350391866
 20
113.794592077502
 30
0.0
 10
338.9929820220593
 20
113.7725895465073
 30
0.0
 10
339.0019415589213
 20
113.769976933156
 30
0.0
 10
339.0062685956393
 20
113.7687151632592
 30
0.0
  0
LINE
  5
10B
330
1F
100
AcDbEntity
  8
0
  6
Continuous
 62
     7
370
    25
100
AcDbLine
 10
361.4261329432
 20
120.0623028896
 30
0.0
 11
360.9860699881
 21
119.9812151942
 31
0.0
  0
SPLINE
  5
10C
330
1F
100
AcDbEntity
  8
0
  6
Continuous
 62
     7
370
    25
100
AcDbSpline
210
0.0
220
0.0
230
1.0
 70
     8
 71
     3
 72
    25
 73
    21
 74
     0
 42
0.000000001
 43
0.00000001
 40
0.0
 40
0.0
 40
0.0
 40
0.0
 40
0.0274788704223041
 40
0.0560416006850305
 40
0.0856947086351823
 40
0.1164440166537841
 40
0.1482947438680617
 40
0.1812515840469434
 40
0.2153187716748025
 40
0.2505001382254136
 40
0.3330514552861967
 40
0.5015081958164245
 40
0.5771663066128696
 40
0.6488981302998588
 40
0.7167477700029257
 40
0.7807674423452041
 40
0.8410194131306359
 40
0.8975784849897311
 40
0.950535204777236
 40
1.0
 40
1.0
 40
1.0
 40
1.0
 10
360.986069880869
 20
119.9812151632592
 30
0.0
 10
360.9793617135256
 20
120.0103973677767
 30
0.0
 10
360.9656807859688
 20
120.0699128219255
 30
0.0
 10
360.9429160573149
 20
120.1603033189841
 30
0.0
 10
360.9180384200745
 20
120.2534349281053
 30
0.0
 10
360.890899182057
 20
120.3490209723802
 30
0.0
 10
360.8615377750257
 20
120.4467744419935
 30
0.0
 10
360.8299526047377
 20
120.5463551180509
 30
0.0
 10
360.7961057348729
 20
120.6473642576295
 30
0.0
 10
360.7444045049277
 20
120.7941310649146
 30
0.0
 10
360.6400454919167
 20
121.0583974778272
 30
0.0
 10
360.519172264231
 20
121.3283671076463
 30
0.0
 10
360.4056792177856
 20
121.5457767823365
 30
0.0
 10
360.33440625017
 20
121.6754803530655
 30
0.0
 10
360.2723316780443
 20
121.7793554303902
 30
0.0
 10
360.2197476658771
 20
121.8592160642095
 30
0.0
 10
360.1765011199496
 20
121.9172346903614
 30
0.0
 10
360.1428943077293
 20
121.9553382490151
 30
0.0
 10
360.1179473248565
 20
121.977340780011
 30
0.0
 10
360.1089877879944
 20
121.9799533933624
 30
0.0
 10
360.1046607512762
 20
121.9812151632593
 30
0.0
  0
SPLINE
  5
10D
330
1F
100
AcDbEntity
  8
0
  6
Continuous
 62
     7
370
    25
100
AcDbSpline
210
0.0
220
0.0
230
1.0
 70
     8
 71
     3
 72
    25
 73
    21
 74
     0
 42
0.000000001
 43
0.00000001
 40
0.0
 40
0.0
 40
0.0
 40
0.0
 40
0.0288821753110086
 40
0.0583636594013118
 40
0.0884647204314734
 40
0.1192044006626603
 40
0.150600580009491
 40
0.1826700399677263
 40
0.2154285269580574
 40
0.248890814337993
 40
0.361059447124065
 40
0.4984670131067773
 40
0.5822693905007604
 40
0.666112764278331
 40
0.7499972937224478
 40
0.8007709755049082
 40
0.8511237700832938
 40
0.9010896024531745
 40
0.9507031914125761
 40
1.0
 40
1.0
 40
1.0
 40
1.0
 10
339.0062685956393
 20
121.9812151632593
 30
0.0
 10
339.0039783272616
 20
121.9807869212833
 30
0.0
 10
338.9993502671487
 20
121.9799215512565
 30
0.0
 10
338.9890400040613
 20
121.9728466185549
 30
0.0
 10
338.9762039348304
 20
121.9612780773945
 30
0.0
 10
338.9605903760878
 20
121.9445725012821
 30
0.0
 10
338.9422689326752
 20
121.9226355902659
 30
0.0
 10
338.921221346844
 20
121.8952379547812
 30
0.0
 10
338.8974497748519
 20
121.862203474099
 30
0.0
 10
338.8503932454154
 20
121.7932128079712
 30
0.0
 10
338.7626988275586
 20
121.6531868385496
 30
0.0
 10
338.6451471730251
 20
121.4338915373451
 30
0.0
 10
338.5336250086837
 20
121.1969614765739
 30
0.0
 10
338.4421656913357
 20
120.981119602664
 30
0.0
 10
338.3612840401581
 20
120.7795579817822
 30
0.0
 10
338.2951391382901
 20
120.60068990139
 30
0.0
 10
338.245788577463
 20
120.4493137002461
 30
0.0
 10
338.2008215605981
 20
120.2950695451232
 30
0.0
 10
338.1600638466789
 20
120.1389136900476
 30
0.0
 10
338.1365691774616
 20
120.0336689830996
 30
0.0
 10
338.1248594660465
 20
119.9812151632592
 30
0.0
  0
LINE
  5
10E
330
1F
100
AcDbEntity
  8
0
  6
Continuous
 62
     7
370
    25
100
AcDbLine
 10
337.6847964038
 20
120.0623028896
 30
0.0
 11
338.1248593588
 21
119.9812151942
 31
0.0
  0
SPLINE
  5
10F
330
1F
100
AcDbEntity
  8
0
  6
Continuous
 62
     7
370
    25
100
AcDbSpline
210
0.0
220
0.0
230
1.0
 70
     8
 71
     3
 72
    25
 73
    21
 74
     0
 42
0.000000001
 43
0.00000001
 40
0.0
 40
0.0
 40
0.0
 40
0.0
 40
0.0288821753116583
 40
0.0583636594024247
 40
0.088464720432864
 40
0.1192044006641432
 40
0.1506005800108822
 40
0.1826700399688414
 40
0.2154285269587146
 40
0.2488908143380118
 40
0.3610594471217245
 40
0.498467013106778
 40
0.5822693905006526
 40
0.6661127642782239
 40
0.7499972937224496
 40
0.8007709755032478
 40
0.8511237700807983
 40
0.901089602450676
 40
0.9507031914109089
 40
1.0
 40
1.0
 40
1.0
 40
1.0
 10
360.1046607512762
 20
113.7687151632592
 30
0.0
 10
360.1069510196539
 20
113.7691434052352
 30
0.0
 10
360.111579079767
 20
113.770008775262
 30
0.0
 10
360.1218893428544
 20
113.7770837079639
 30
0.0
 10
360.1347254120853
 20
113.7886522491246
 30
0.0
 10
360.150338970828
 20
113.8053578252373
 30
0.0
 10
360.1686604142405
 20
113.8272947362537
 30
0.0
 10
360.1897080000717
 20
113.8546923717384
 30
0.0
 10
360.2134795720636
 20
113.8877268524201
 30
0.0
 10
360.2605361015
 20
113.9567175185466
 30
0.0
 10
360.3482305193577
 20
114.0967434879672
 30
0.0
 10
360.4657821738897
 20
114.3160387891714
 30
0.0
 10
360.5773043382306
 20
114.5529688499447
 30
0.0
 10
360.6687636555786
 20
114.7688107238547
 30
0.0
 10
360.7496453067566
 20
114.9703723447347
 30
0.0
 10
360.8157902086246
 20
115.1492404251242
 30
0.0
 10
360.8651407694511
 20
115.3006166262654
 30
0.0
 10
360.910107786316
 20
115.4548607813882
 30
0.0
 10
360.9508655002357
 20
115.6110166364664
 30
0.0
 10
360.9743601694535
 20
115.7162613434171
 30
0.0
 10
360.986069880869
 20
115.7687151632592
 30
0.0
  0
LINE
  5
110
330
1F
100
AcDbEntity
  8
0
  6
Continuous
 62
     7
370
    25
100
AcDbLine
 10
361.4261329432
 20
115.6876274369
 30
0.0
 11
360.9860699881
 21
115.7687151323
 31
0.0
  0
SPLINE
  5
111
330
1F
100
AcDbEntity
  8
0
  6
Continuous
 62
     7
370
    25
100
AcDbSpline
210
0.0
220
0.0
230
1.0
 70
     8
 71
     3
 72
    15
 73
    11
 74
     0
 42
0.000000001
 43
0.00000001
 40
0.0
 40
0.0
 40
0.0
 40
0.0
 40
0.1351922525168508
 40
0.295505352053604
 40
0.3941605101370091
 40
0.4930224738308925
 40
0.5920945925114958
 40
0.7581984282951001
 40
0.9106346529387762
 40
1.0
 40
1.0
 40
1.0
 40
1.0
 10
340.6576069329363
 20
119.9812151941791
 30
0.0
 10
340.6928678103677
 20
120.1016341454164
 30
0.0
 10
340.769941590892
 20
120.364847783157
 30
0.0
 10
340.8947351277696
 20
120.6970703449168
 30
0.0
 10
341.0116386530945
 20
120.9765647448962
 30
0.0
 10
341.109223501944
 20
121.1915792100129
 30
0.0
 10
341.2333031590659
 20
121.430211001674
 30
0.0
 10
341.3639162088381
 20
121.66088837108
 30
0.0
 10
341.4669945468297
 20
121.8380838115047
 30
0.0
 10
341.5009531055125
 20
121.8917884232995
 30
0.0
 10
341.5135035548789
 20
121.9116366452858
 30
0.0
  0
SPLINE
  5
112
330
1F
100
AcDbEntity
  8
0
  6
Continuous
 62
     7
370
    25
100
AcDbSpline
210
0.0
220
0.0
230
1.0
 70
     8
 71
     3
 72
    15
 73
    11
 74
     0
 42
0.000000001
 43
0.00000001
 40
0.0
 40
0.0
 40
0.0
 40
0.0
 40
0.1361835767353471
 40
0.2976722041233961
 40
0.3970507708760626
 40
0.4966376596826896
 40
0.5964362444794897
 40
0.763758069845573
 40
0.9173120635806887
 40
0.9999999999999999
 40
0.9999999999999999
 40
0.9999999999999999
 40
0.9999999999999999
 10
358.4533224139792
 20
115.7687151323393
 30
0.0
 10
358.4180615035318
 20
115.6482961186089
 30
0.0
 10
358.3409876508404
 20
115.3850823442698
 30
0.0
 10
358.2161946489236
 20
115.0528607950895
 30
0.0
 10
358.099289757883
 20
114.773363810069
 30
0.0
 10
358.0017094056647
 20
114.5583578562223
 30
0.0
 10
357.8776090404177
 20
114.3196868680088
 30
0.0
 10
357.747122679611
 20
114.0892492967826
 30
0.0
 10
357.6454795287899
 20
113.9144507374151
 30
0.0
 10
357.6123797612919
 20
113.8620547088314
 30
0.0
 10
357.6007943857891
 20
113.8437153756008
 30
0.0
  0
SPLINE
  5
113
330
1F
100
AcDbEntity
  8
0
  6
Continuous
 62
     7
370
    25
100
AcDbSpline
210
0.0
220
0.0
230
1.0
 70
     8
 71
     3
 72
    15
 73
    11
 74
     0
 42
0.000000001
 43
0.00000001
 40
0.0
 40
0.0
 40
0.0
 40
0.0
 40
0.0210214847137796
 40
0.0995173547081305
 40
0.2360971400771362
 40
0.3979401334474181
 40
0.5486162591715825
 40
0.7000321895560188
 40
0.8517812990240201
 40
0.9999999999999999
 40
0.9999999999999999
 40
0.9999999999999999
 40
0.9999999999999999
 10
341.5086886171681
 20
113.8437153756008
 30
0.0
 10
341.5058401159138
 20
113.848199985194
 30
0.0
 10
341.4923550879262
 20
113.8694304781724
 30
0.0
 10
341.4449462238972
 20
113.9465656673266
 30
0.0
 10
341.3518044057455
 20
114.1024951013708
 30
0.0
 10
341.2153853221675
 20
114.3515105658135
 30
0.0
 10
341.0660628859503
 20
114.6611495622081
 30
0.0
 10
340.9128977502377
 20
115.0031134363116
 30
0.0
 10
340.7672649835235
 20
115.3742222789971
 30
0.0
 10
340.6938716874424
 20
115.6382533340102
 30
0.0
 10
340.6576069329363
 20
115.7687151323393
 30
0.0
  0
LINE
  5
114
330
1F
100
AcDbEntity
  8
0
  6
Continuous
 62
     7
370
    25
100
AcDbLine
 10
340.9738673155
 20
119.9063517603
 30
0.0
 11
340.6576069329
 21
119.9812151942
 31
0.0
  0
SPLINE
  5
115
330
1F
100
AcDbEntity
  8
0
  6
Continuous
 62
     7
370
    25
100
AcDbSpline
210
0.0
220
0.0
230
1.0
 70
     8
 71
     3
 72
    25
 73
    21
 74
     0
 42
0.000000001
 43
0.00000001
 40
0.0
 40
0.0
 40
0.0
 40
0.0
 40
0.0278144320063462
 40
0.0555680196245754
 40
0.083331625367772
 40
0.111176035216759
 40
0.1391714221532265
 40
0.1673868326284763
 40
0.1958897140434718
 40
0.2247454979318961
 40
0.254017249222145
 40
0.3796724410016501
 40
0.5056484635002454
 40
0.629752729069345
 40
0.7535891720571729
 40
0.8038564806093713
 40
0.853339684343451
 40
0.9023264398358534
 40
0.9511131859219439
 40
1.0
 40
1.0
 40
1.0
 40
1.0
 10
341.8414885841692
 20
122.1487134544417
 30
0.0
 10
341.8413408328545
 20
122.1484469118882
 30
0.0
 10
341.8410456534328
 20
122.147914409846
 30
0.0
 10
341.837420954417
 20
122.1413669611499
 30
0.0
 10
341.8314750587467
 20
122.1305977178636
 30
0.0
 10
341.8230003358316
 20
122.1151869819393
 30
0.0
 10
341.8120853489925
 20
122.0952306056856
 30
0.0
 10
341.7987492807541
 20
122.0706805092151
 30
0.0
 10
341.7830415160672
 20
122.0415238854592
 30
0.0
 10
341.7650099279093
 20
122.0077279140258
 30
0.0
 10
341.7225923831609
 20
121.927321155968
 30
0.0
 10
341.6420713434074
 20
121.7703327062973
 30
0.0
 10
341.5086449965329
 20
121.4885469685499
 30
0.0
 10
341.3645680198497
 20
121.1506748589229
 30
0.0
 10
341.2488902683983
 20
120.8419939451847
 30
0.0
 10
341.1663787931811
 20
120.5959632254297
 30
0.0
 10
341.113457168656
 20
120.4271373341565
 30
0.0
 10
341.0636000342785
 20
120.2558217631447
 30
0.0
 10
341.016582041048
 20
120.0821394129239
 30
0.0
 10
340.9881150303195
 20
119.9649877246205
 30
0.0
 10
340.9738669425207
 20
119.9063518686591
 30
0.0
  0
LINE
  5
116
330
1F
100
AcDbEntity
  8
0
  6
Continuous
 62
     7
370
    25
100
AcDbLine
 10
340.9738673155
 20
115.8435785662
 30
0.0
 11
340.6576069329
 21
115.7687151323
 31
0.0
  0
SPLINE
  5
117
330
1F
100
AcDbEntity
  8
0
  6
Continuous
 62
     7
370
    25
100
AcDbSpline
210
0.0
220
0.0
230
1.0
 70
     8
 71
     3
 72
    25
 73
    21
 74
     0
 42
0.000000001
 43
0.00000001
 40
0.0
 40
0.0
 40
0.0
 40
0.0
 40
0.0269872354797669
 40
0.0539362690259618
 40
0.0809037148829035
 40
0.1079460716545392
 40
0.1351193706855853
 40
0.162478838835575
 40
0.190078585418252
 40
0.2179713214290535
 40
0.2462081170984584
 40
0.3700050494705653
 40
0.4947542611659071
 40
0.6210439034695193
 40
0.7446557472315123
 40
0.7967060293738726
 40
0.8478613449329371
 40
0.8985210411990388
 40
0.9490962115257747
 40
1.0
 40
1.0
 40
1.0
 40
1.0
 10
340.9738669425207
 20
115.8435784578594
 30
0.0
 10
340.9816476872447
 20
115.8111820528317
 30
0.0
 10
340.9971981626157
 20
115.7464351016904
 30
0.0
 10
341.021883568589
 20
115.6497885652617
 30
0.0
 10
341.047503525588
 20
115.5536944767704
 30
0.0
 10
341.0741463892154
 20
115.4581822060536
 30
0.0
 10
341.1017715744999
 20
115.363257478661
 30
0.0
 10
341.1303733535592
 20
115.2689313225253
 30
0.0
 10
341.1599354432007
 20
115.175214978076
 30
0.0
 10
341.1904485902479
 20
115.0821108941858
 30
0.0
 10
341.2571827948371
 20
114.8858456520727
 30
0.0
 10
341.3643659709329
 20
114.5997725364694
 30
0.0
 10
341.5081460612416
 20
114.2624826404761
 30
0.0
 10
341.6413945174535
 20
113.9809734636526
 30
0.0
 10
341.7290656936667
 20
113.8099825334742
 30
0.0
 10
341.779940729459
 20
113.7140697150917
 30
0.0
 10
341.8076098841104
 20
113.662852511637
 30
0.0
 10
341.8273088022279
 20
113.626869717552
 30
0.0
 10
341.8395563109314
 20
113.60469982923
 30
0.0
 10
341.8408431040875
 20
113.6023803614964
 30
0.0
 10
341.8414885841692
 20
113.6012168720767
 30
0.0
  0
SPLINE
  5
118
330
1F
100
AcDbEntity
  8
0
  6
Continuous
 62
     7
370
    25
100
AcDbSpline
210
0.0
220
0.0
230
1.0
 70
     8
 71
     3
 72
    15
 73
    11
 74
     0
 42
0.000000001
 43
0.00000001
 40
0.0
 40
0.0
 40
0.0
 40
0.0
 40
0.0210214847137796
 40
0.0995173547081305
 40
0.2360971400771362
 40
0.3979401334474181
 40
0.5486162591715825
 40
0.7000321895560188
 40
0.8517812990240201
 40
0.9999999999999999
 40
0.9999999999999999
 40
0.9999999999999999
 40
0.9999999999999999
 10
357.6022407297475
 20
121.9062149509177
 30
0.0
 10
357.6050892310017
 20
121.9017303413245
 30
0.0
 10
357.6185742589893
 20
121.880499848346
 30
0.0
 10
357.6659831230183
 20
121.8033646591919
 30
0.0
 10
357.75912494117
 20
121.6474352251477
 30
0.0
 10
357.895544024748
 20
121.3984197607049
 30
0.0
 10
358.0448664609653
 20
121.0887807643103
 30
0.0
 10
358.1980315966778
 20
120.7468168902069
 30
0.0
 10
358.3436643633921
 20
120.3757080475214
 30
0.0
 10
358.4170576594731
 20
120.1116769925083
 30
0.0
 10
358.4533224139792
 20
119.9812151941791
 30
0.0
  0
LINE
  5
119
330
1F
100
AcDbEntity
  8
0
  6
Continuous
 62
     7
370
    25
100
AcDbLine
 10
358.1370620314
 20
119.9063517603
 30
0.0
 11
358.453322414
 21
119.9812151942
 31
0.0
  0
SPLINE
  5
11A
330
1F
100
AcDbEntity
  8
0
  6
Continuous
 62
     7
370
    25
100
AcDbSpline
210
0.0
220
0.0
230
1.0
 70
     8
 71
     3
 72
    14
 73
    10
 74
     0
 42
0.000000001
 43
0.00000001
 40
0.0
 40
0.0
 40
0.0
 40
0.0
 40
0.1400505481383316
 40
0.2837940635646364
 40
0.4267314741655509
 40
0.5707685044357909
 40
0.7165840938251985
 40
0.8593077005344127
 40
1.0
 40
1.0
 40
1.0
 40
1.0
 10
358.1370620314461
 20
119.9063517603413
 30
0.0
 10
358.1002952413212
 20
120.0519117775371
 30
0.0
 10
358.0257921643075
 20
120.3468700573986
 30
0.0
 10
357.8906030173714
 20
120.7649344219976
 30
0.0
 10
357.7467183548567
 20
121.1499869321287
 30
0.0
 10
357.6025825664642
 20
121.4877952122701
 30
0.0
 10
357.4701855409129
 20
121.7677354624289
 30
0.0
 10
357.3592656698773
 20
121.9838763381964
 30
0.0
 10
357.3179298044024
 20
122.0599395653357
 30
0.0
 10
357.2974100035113
 20
122.0976985975489
 30
0.0
  0
LINE
  5
11B
330
1F
100
AcDbEntity
  8
0
  6
Continuous
 62
     7
370
    25
100
AcDbLine
 10
358.1370620314
 20
115.8435785662
 30
0.0
 11
358.453322414
 21
115.7687151323
 31
0.0
  0
SPLINE
  5
11C
330
1F
100
AcDbEntity
  8
0
  6
Continuous
 62
     7
370
    25
100
AcDbSpline
210
0.0
220
0.0
230
1.0
 70
     8
 71
     3
 72
    25
 73
    21
 74
     0
 42
0.000000001
 43
0.00000001
 40
0.0
 40
0.0
 40
0.0
 40
0.0
 40
0.0278144320057649
 40
0.0555680196235595
 40
0.083331625366468
 40
0.1111760352153128
 40
0.1391714221517827
 40
0.1673868326271739
 40
0.195889714042447
 40
0.2247454979312803
 40
0.2540172492220635
 40
0.3796724409988544
 40
0.505648463500191
 40
0.6297527290689083
 40
0.7535891720572004
 40
0.803856480609888
 40
0.85333968434422
 40
0.902326439836625
 40
0.9511131859224594
 40
1.0
 40
1.0
 40
1.0
 40
1.0
 10
357.2694407627462
 20
113.6012168720767
 30
0.0
 10
357.269588514061
 20
113.6014834146303
 30
0.0
 10
357.2698836934827
 20
113.6020159166725
 30
0.0
 10
357.2735083924986
 20
113.6085633653687
 30
0.0
 10
357.2794542881689
 20
113.6193326086549
 30
0.0
 10
357.287929011084
 20
113.6347433445792
 30
0.0
 10
357.298843997923
 20
113.654699720833
 30
0.0
 10
357.3121800661615
 20
113.6792498173035
 30
0.0
 10
357.3278878308484
 20
113.7084064410594
 30
0.0
 10
357.3459194190063
 20
113.7422024124928
 30
0.0
 10
357.3883369637533
 20
113.8226091705481
 30
0.0
 10
357.4688580035072
 20
113.9795976202193
 30
0.0
 10
357.6022843503816
 20
114.2613833579661
 30
0.0
 10
357.7463613270651
 20
114.5992554675939
 30
0.0
 10
357.8620390785172
 20
114.9079363813337
 30
0.0
 10
357.9445505537349
 20
115.1539671010904
 30
0.0
 10
357.9974721782603
 20
115.3227929923645
 30
0.0
 10
358.0473293126376
 20
115.4941085633762
 30
0.0
 10
358.0943473058679
 20
115.6677909135961
 30
0.0
 10
358.1228143165961
 20
115.7849426018986
 30
0.0
 10
358.1370624043948
 20
115.8435784578594
 30
0.0
  0
ARC
  5
11D
330
1F
100
AcDbEntity
  8
0
  6
Continuous
 62
     7
370
    25
100
AcDbCircle
 10
349.5554646735
 20
117.8749651633
 30
0.0
 40
11.62303852141071
100
AcDbArc
 50
169.5595567507
 51
190.4404432494
  0
ARC
  5
11E
330
1F
100
AcDbEntity
  8
0
  6
Continuous
 62
     7
370
    25
100
AcDbCircle
 10
349.5554646735
 20
117.8749651633
 30
0.0
 40
9.143750000000006
100
AcDbArc
 50
166.6824039243
 51
193.3175960757
  0
ARC
  5
11F
330
1F
100
AcDbEntity
  8
0
  6
Continuous
 62
     7
370
    25
100
AcDbCircle
 10
349.5554646735
 20
117.8749651633
 30
0.0
 40
8.818750000000026
100
AcDbArc
 50
166.6824039243
 51
193.3175960757
  0
ARC
  5
120
330
1F
100
AcDbEntity
  8
0
  6
Continuous
 62
     7
370
    25
100
AcDbCircle
 10
349.5554646735
 20
117.8749651633
 30
0.0
 40
9.143750000000006
100
AcDbArc
 50
346.6824039243
 51
13.3175960757
  0
ARC
  5
121
330
1F
100
AcDbEntity
  8
0
  6
Continuous
 62
     7
370
    25
100
AcDbCircle
 10
349.5554646735
 20
117.8749651633
 30
0.0
 40
8.81874999999997
100
AcDbArc
 50
346.6824039243
 51
13.3175960757
  0
ARC
  5
122
330
1F
100
AcDbEntity
  8
0
  6
Continuous
 62
     7
370
    25
100
AcDbCircle
 10
349.5554646735
 20
117.8749651633
 30
0.0
 40
11.6230385214107
100
AcDbArc
 50
349.5595567507
 51
10.4404432493
  0
CIRCLE
  5
123
330
1F
100
AcDbEntity
  8
0
  6
Continuous
 62
     7
370
    25
100
AcDbCircle
 10
349.5554646735
 20
117.8749651633
 30
0.0
 40
7.775000000000034
  0
CIRCLE
  5
124
330
1F
100
AcDbEntity
  8
0
  6
Continuous
 62
     7
370
    25
100
AcDbCircle
 10
349.5554646735
 20
117.8749651633
 30
0.0
 40
2.615470053837953
  0
CIRCLE
  5
125
330
1F
100
AcDbEntity
  8
0
  6
Continuous
 62
     7
370
    25
100
AcDbCircle
 10
349.5554646735
 20
117.8749651633
 30
0.0
 40
2.5
  0
CIRCLE
  5
126
330
1F
100
AcDbEntity
  8
0
  6
Continuous
 62
     7
370
    25
100
AcDbCircle
 10
349.5554646735
 20
117.8749651633
 30
0.0
 40
15.73750000000001
  0
CIRCLE
  5
127
330
1F
100
AcDbEntity
  8
0
  6
Continuous
 62
     7
370
    25
100
AcDbCircle
 10
349.5554646735
 20
117.8749651633
 30
0.0
 40
13.42500000000001
  0
CIRCLE
  5
128
330
1F
100
AcDbEntity
  8
0
  6
Continuous
 62
     7
370
    25
100
AcDbCircle
 10
349.5554646735
 20
117.8749651633
 30
0.0
 40
2.0
  0
LINE
  5
129
330
1F
100
AcDbEntity
  8
0
  6
CENTER
 62
     7
370
    18
100
AcDbLine
 10
349.5554646735
 20
117.8749651633
 30
0.0
 11
349.5554646735
 21
137.3894651633
 31
0.0
  0
LINE
  5
12A
330
1F
100
AcDbEntity
  8
0
  6
CENTER
 62
     7
370
    18
100
AcDbLine
 10
349.5554646735
 20
117.8749651633
 30
0.0
 11
369.0676223975
 21
117.8749651633
 31
0.0
  0
LINE
  5
12B
330
1F
100
AcDbEntity
  8
0
  6
Continuous
 62
     7
370
    18
100
AcDbLine
 10
361.5554646735
 20
135.3894651633
 30
0.0
 11
349.5554646735
 21
135.3894651633
 31
0.0
  0
SOLID
  5
12C
330
1F
100
AcDbEntity
  8
0
  6
Continuous
 62
     7
370
    18
100
AcDbTrace
 10
349.5554646735
 20
135.3894651633
 30
0.0
 11
355.5554646735
 21
133.8894651633
 31
0.0
 12
355.5554646735
 22
136.8894651633
 32
0.0
 13
355.5554646735
 23
136.8894651633
 33
0.0
  0
LINE
  5
12D
330
1F
100
AcDbEntity
  8
0
  6
Continuous
 62
     7
370
    18
100
AcDbLine
 10
379.0676223975
 20
117.8749651633
 30
0.0
 11
367.0676223975
 21
117.8749651633
 31
0.0
  0
SOLID
  5
12E
330
1F
100
AcDbEntity
  8
0
  6
Continuous
 62
     7
370
    18
100
AcDbTrace
 10
367.0676223975
 20
117.8749651633
 30
0.0
 11
373.0676223975
 21
116.3749651633
 31
0.0
 12
373.0676223975
 22
119.3749651633
 32
0.0
 13
373.0676223975
 23
119.3749651633
 33
0.0
  0
MTEXT
  5
12F
330
1F
100
AcDbEntity
  8
0
  6
Continuous
 62
     7
100
AcDbMText
 10
358.4080839295
 20
142.0357583799
 30
0.0
 40
3.5
 41
0.0
 71
     1
 72
     1
  1
A
  7
SLDTEXTSTYLE0
 73
     1
 44
1.0
  0
MTEXT
  5
130
330
1F
100
AcDbEntity
  8
0
  6
Continuous
 62
     7
100
AcDbMText
 10
375.9202416535
 20
115.6617495221
 30
0.0
 40
3.5
 41
0.0
 71
     1
 72
     1
  1
A
  7
SLDTEXTSTYLE0
 73
     1
 44
1.0
  0
LINE
  5
131
330
1F
100
AcDbEntity
  8
0
  6
Continuous
 62
     7
370
    25
100
AcDbLine
 10
132.4590033374
 20
86.3999651633
 30
0.0
 11
138.8248055328
 21
86.3999651633
 31
0.0
  0
LINE
  5
132
330
1F
100
AcDbEntity
  8
0
  6
Continuous
 62
     7
370
    25
100
AcDbLine
 10
145.4932011419
 20
86.3999651633
 30
0.0
 11
150.2590033374
 21
86.3999651633
 31
0.0
  0
ARC
  5
133
330
1F
100
AcDbEntity
  8
0
  6
Continuous
 62
     7
370
    25
100
AcDbCircle
 10
132.4590033374
 20
86.5999651633
 30
0.0
 40
0.2000000000000028
100
AcDbArc
 50
180.0
 51
270.0
  0
LINE
  5
134
330
1F
100
AcDbEntity
  8
0
  6
Continuous
 62
     7
370
    25
100
AcDbLine
 10
138.8248055328
 20
86.3999651633
 30
0.0
 11
140.2840033374
 21
88.9273698991
 31
0.0
  0
LINE
  5
135
330
1F
100
AcDbEntity
  8
0
  6
Continuous
 62
     7
370
    25
100
AcDbLine
 10
144.0340033374
 20
88.9273698991
 30
0.0
 11
145.4932011419
 21
86.3999651633
 31
0.0
  0
ARC
  5
136
330
1F
100
AcDbEntity
  8
0
  6
Continuous
 62
     7
370
    25
100
AcDbCircle
 10
141.2840033374
 20
89.0249651633
 30
0.0
 40
1.0
100
AcDbArc
 50
90.0
 51
180.0
  0
ARC
  5
137
330
1F
100
AcDbEntity
  8
0
  6
Continuous
 62
     7
370
    25
100
AcDbCircle
 10
143.0340033374
 20
89.0249651633
 30
0.0
 40
1.0
100
AcDbArc
 50
0.0
 51
90.0
  0
LINE
  5
138
330
1F
100
AcDbEntity
  8
0
  6
Continuous
 62
     7
370
    25
100
AcDbLine
 10
141.2840033374
 20
90.0249651633
 30
0.0
 11
143.0340033374
 21
90.0249651633
 31
0.0
  0
ARC
  5
139
330
1F
100
AcDbEntity
  8
0
  6
Continuous
 62
     7
370
    25
100
AcDbCircle
 10
131.8300684628
 20
92.3249651633
 30
0.0
 40
0.8000000000000047
100
AcDbArc
 50
57.576802718
 51
107.5
  0
LINE
  5
13A
330
1F
100
AcDbEntity
  8
0
  6
Continuous
 62
     7
370
    25
100
AcDbLine
 10
131.0988212973
 20
92.9332271177
 30
0.0
 11
131.5895038232
 21
93.0879387239
 31
0.0
  0
LINE
  5
13B
330
1F
100
AcDbEntity
  8
0
  6
Continuous
 62
     7
370
    25
100
AcDbLine
 10
117.7725578693
 20
93.6024446425
 30
0.0
 11
131.0988212973
 21
92.9332271177
 31
0.0
  0
LINE
  5
13C
330
1F
100
AcDbEntity
  8
0
  6
Continuous
 62
     7
370
    25
100
AcDbLine
 10
93.8090033374
 20
94.8058450357
 30
0.0
 11
101.8638402009
 21
94.4013477047
 31
0.0
  0
LINE
  5
13D
330
1F
100
AcDbEntity
  8
0
  6
Continuous
 62
     7
370
    25
100
AcDbLine
 10
92.3090033374
 20
95.6718704395
 30
0.0
 11
93.8090033374
 21
94.8058450357
 31
0.0
  0
ARC
  5
13E
330
1F
100
AcDbEntity
  8
0
  6
Continuous
 62
     7
370
    25
100
AcDbCircle
 10
153.2590033374
 20
97.8749651633
 30
0.0
 40
3.0
100
AcDbArc
 50
90.0
 51
180.0
  0
LINE
  5
13F
330
1F
100
AcDbEntity
  8
0
  6
Continuous
 62
     7
370
    25
100
AcDbLine
 10
167.7872867608
 20
100.8749651633
 30
0.0
 11
210.4159215288
 21
104.2299114791
 31
0.0
  0
LINE
  5
140
330
1F
100
AcDbEntity
  8
0
  6
Continuous
 62
     7
370
    25
100
AcDbLine
 10
153.2590033374
 20
100.8749651633
 30
0.0
 11
167.7872867608
 21
100.8749651633
 31
0.0
  0
ARC
  5
141
330
1F
100
AcDbEntity
  8
0
  6
Continuous
 62
     7
370
    25
100
AcDbCircle
 10
210.2590033374
 20
106.2237461466
 30
0.0
 40
2.0
100
AcDbArc
 50
274.5
 51
0.0
  0
LINE
  5
142
330
1F
100
AcDbEntity
  8
0
  6
Continuous
 62
     7
370
    25
100
AcDbLine
 10
162.7590033374
 20
123.8749651633
 30
0.0
 11
147.7590033374
 21
123.8749651633
 31
0.0
  0
LINE
  5
143
330
1F
100
AcDbEntity
  8
0
  6
Continuous
 62
     7
370
    25
100
AcDbLine
 10
163.2590033374
 20
123.3749651633
 30
0.0
 11
162.7590033374
 21
123.8749651633
 31
0.0
  0
LINE
  5
144
330
1F
100
AcDbEntity
  8
0
  6
Continuous
 62
     7
370
    25
100
AcDbLine
 10
147.7590033374
 20
123.8749651633
 30
0.0
 11
147.2590033374
 21
123.3749651633
 31
0.0
  0
LINE
  5
145
330
1F
100
AcDbEntity
  8
0
  6
Continuous
 62
     7
370
    25
100
AcDbLine
 10
165.2590033374
 20
123.3500673846
 30
0.0
 11
167.2590033374
 21
123.3500673846
 31
0.0
  0
LINE
  5
146
330
1F
100
AcDbEntity
  8
0
  6
Continuous
 62
     7
370
    25
100
AcDbLine
 10
165.2590033374
 20
123.3749651633
 30
0.0
 11
163.2590033374
 21
123.3749651633
 31
0.0
  0
SPLINE
  5
147
330
1F
100
AcDbEntity
  8
0
  6
Continuous
 62
     7
370
    25
100
AcDbSpline
210
0.0
220
0.0
230
1.0
 70
     8
 71
     3
 72
    11
 73
     7
 74
     0
 42
0.000000001
 43
0.00000001
 40
0.0
 40
0.0
 40
0.0
 40
0.0
 40
0.2701949965567489
 40
0.5496278655746804
 40
0.9385757634130836
 40
0.9999999999999999
 40
0.9999999999999999
 40
0.9999999999999999
 40
0.9999999999999999
 10
147.4949017222238
 20
120.1188658958019
 30
0.0
 10
147.6035413485098
 20
120.1985710040852
 30
0.0
 10
147.8245349519196
 20
120.3607063104361
 30
0.0
 10
148.0090935643321
 20
120.6616236464534
 30
0.0
 10
147.9250060715378
 20
120.9023379533637
 30
0.0
 10
147.7920753081571
 20
121.04109814313
 30
0.0
 10
147.7739454772119
 20
121.0600230234091
 30
0.0
  0
SPLINE
  5
148
330
1F
100
AcDbEntity
  8
0
  6
Continuous
 62
     7
370
    25
100
AcDbSpline
210
0.0
220
0.0
230
1.0
 70
     8
 71
     3
 72
    10
 73
     6
 74
     0
 42
0.000000001
 43
0.00000001
 40
0.0
 40
0.0
 40
0.0
 40
0.0
 40
0.2702476582550761
 40
0.8114648036973555
 40
0.9999999999999999
 40
0.9999999999999999
 40
0.9999999999999999
 40
0.9999999999999999
 10
147.852704752496
 20
117.8749651632593
 30
0.0
 10
147.9003633932565
 20
118.0807248600477
 30
0.0
 10
148.0434666113157
 20
118.6985535326115
 30
0.0
 10
147.8004359237084
 20
119.4780376316707
 30
0.0
 10
147.5576314754518
 20
119.9872963409856
 30
0.0
 10
147.4949017222238
 20
120.1188658958019
 30
0.0
  0
LINE
  5
149
330
1F
100
AcDbEntity
  8
0
  6
Continuous
 62
     7
370
    25
100
AcDbLine
 10
147.2590033374
 20
121.5749651633
 30
0.0
 11
147.7739454772
 21
121.0600230234
 31
0.0
  0
LINE
  5
14A
330
1F
100
AcDbEntity
  8
0
  6
Continuous
 62
     7
370
    25
100
AcDbLine
 10
147.2590033374
 20
121.5749651633
 30
0.0
 11
147.2590033374
 21
117.8749651633
 31
0.0
  0
LINE
  5
14B
330
1F
100
AcDbEntity
  8
0
  6
Continuous
 62
     7
370
    25
100
AcDbLine
 10
160.2590033374
 20
120.7006595133
 30
0.0
 11
160.2590033374
 21
120.8749651633
 31
0.0
  0
LINE
  5
14C
330
1F
100
AcDbEntity
  8
0
  6
Continuous
 62
     7
370
    25
100
AcDbLine
 10
160.2590033374
 20
118.415121912
 30
0.0
 11
160.2590033374
 21
120.7006595133
 31
0.0
  0
LINE
  5
14D
330
1F
100
AcDbEntity
  8
0
  6
Continuous
 62
     7
370
    25
100
AcDbLine
 10
160.2590033374
 20
117.8749651633
 30
0.0
 11
160.2590033374
 21
118.415121912
 31
0.0
  0
LINE
  5
14E
330
1F
100
AcDbEntity
  8
0
  6
Continuous
 62
     7
370
    25
100
AcDbLine
 10
154.2590033373
 20
118.415121912
 30
0.0
 11
154.2590033373
 21
117.8749651633
 31
0.0
  0
LINE
  5
14F
330
1F
100
AcDbEntity
  8
0
  6
Continuous
 62
     7
370
    25
100
AcDbLine
 10
154.2590033373
 20
120.7006595133
 30
0.0
 11
154.2590033373
 21
118.415121912
 31
0.0
  0
LINE
  5
150
330
1F
100
AcDbEntity
  8
0
  6
Continuous
 62
     7
370
    25
100
AcDbLine
 10
154.2590033373
 20
120.8749651633
 30
0.0
 11
154.2590033373
 21
120.7006595133
 31
0.0
  0
LINE
  5
151
330
1F
100
AcDbEntity
  8
0
  6
Continuous
 62
     7
370
    25
100
AcDbLine
 10
154.2590033373
 20
120.8749651633
 30
0.0
 11
160.2590033374
 21
120.8749651633
 31
0.0
  0
LINE
  5
152
330
1F
100
AcDbEntity
  8
0
  6
Continuous
 62
     7
370
    25
100
AcDbLine
 10
165.2590033374
 20
121.0600230234
 30
0.0
 11
165.2590033374
 21
123.3749651633
 31
0.0
  0
LINE
  5
153
330
1F
100
AcDbEntity
  8
0
  6
Continuous
 62
     7
370
    25
100
AcDbLine
 10
160.2590033374
 20
121.0600230234
 30
0.0
 11
165.2590033374
 21
121.0600230234
 31
0.0
  0
LINE
  5
154
330
1F
100
AcDbEntity
  8
0
  6
Continuous
 62
     7
370
    25
100
AcDbLine
 10
160.2590033374
 20
120.8749651633
 30
0.0
 11
160.2590033374
 21
121.0600230234
 31
0.0
  0
LINE
  5
155
330
1F
100
AcDbEntity
  8
0
  6
Continuous
 62
     7
370
    25
100
AcDbLine
 10
154.2590033373
 20
121.0600230234
 30
0.0
 11
154.2590033373
 21
120.8749651633
 31
0.0
  0
LINE
  5
156
330
1F
100
AcDbEntity
  8
0
  6
Continuous
 62
     7
370
    25
100
AcDbLine
 10
147.7739454772
 20
121.0600230234
 30
0.0
 11
154.2590033373
 21
121.0600230234
 31
0.0
  0
LINE
  5
157
330
1F
100
AcDbEntity
  8
0
  6
Continuous
 62
     7
370
    25
100
AcDbLine
 10
147.2590033374
 20
123.3749651633
 30
0.0
 11
147.2590033374
 21
121.5749651633
 31
0.0
  0
LINE
  5
158
330
1F
100
AcDbEntity
  8
0
  6
Continuous
 62
     7
370
    25
100
AcDbLine
 10
154.2590033373
 20
120.1188658958
 30
0.0
 11
147.4949017222
 21
120.1188658958
 31
0.0
  0
LINE
  5
159
330
1F
100
AcDbEntity
  8
0
  6
Continuous
 62
     7
370
    25
100
AcDbLine
 10
166.5590033374
 20
120.7006595133
 30
0.0
 11
165.2590033374
 21
120.7006595133
 31
0.0
  0
SPLINE
  5
15A
330
1F
100
AcDbEntity
  8
0
  6
Continuous
 62
     7
370
    25
100
AcDbSpline
210
0.0
220
0.0
230
1.0
 70
     8
 71
     3
 72
     9
 73
     5
 74
     0
 42
0.000000001
 43
0.00000001
 40
0.0
 40
0.0
 40
0.0
 40
0.0
 40
0.5039876238385107
 40
1.0
 40
1.0
 40
1.0
 40
1.0
 10
166.5590033373616
 20
120.7006595133069
 30
0.0
 10
166.5858350455862
 20
120.5983009460089
 30
0.0
 10
166.6390738692308
 20
120.3952035633421
 30
0.0
 10
166.8957770151325
 20
120.2104873992624
 30
0.0
 10
167.0231049524993
 20
120.1188658958019
 30
0.0
  0
LINE
  5
15B
330
1F
100
AcDbEntity
  8
0
  6
Continuous
 62
     7
370
    25
100
AcDbLine
 10
160.2590033374
 20
120.1188658958
 30
0.0
 11
167.0231049525
 21
120.1188658958
 31
0.0
  0
LINE
  5
15C
330
1F
100
AcDbEntity
  8
0
  6
Continuous
 62
     7
370
    25
100
AcDbLine
 10
165.2590033374
 20
120.7006595133
 30
0.0
 11
165.2590033374
 21
121.0600230234
 31
0.0
  0
LINE
  5
15D
330
1F
100
AcDbEntity
  8
0
  6
Continuous
 62
     7
370
    25
100
AcDbLine
 10
167.2590033374
 20
123.3500673846
 30
0.0
 11
167.2590033374
 21
121.4720735622
 31
0.0
  0
LINE
  5
15E
330
1F
100
AcDbEntity
  8
0
  6
Continuous
 62
     7
370
    25
100
AcDbLine
 10
167.2590033374
 20
121.4720735622
 30
0.0
 11
166.5590033374
 21
120.7006595133
 31
0.0
  0
SPLINE
  5
15F
330
1F
100
AcDbEntity
  8
0
  6
Continuous
 62
     7
370
    25
100
AcDbSpline
210
0.0
220
0.0
230
1.0
 70
     8
 71
     3
 72
    10
 73
     6
 74
     0
 42
0.000000001
 43
0.00000001
 40
0.0
 40
0.0
 40
0.0
 40
0.0
 40
0.1885351963026425
 40
0.729752341744923
 40
1.0
 40
1.0
 40
1.0
 40
1.0
 10
167.0231049524993
 20
120.1188658958019
 30
0.0
 10
166.9603751992713
 20
119.9872963409856
 30
0.0
 10
166.7175707510148
 20
119.4780376316707
 30
0.0
 10
166.4745400634074
 20
118.6985535326115
 30
0.0
 10
166.6176432814665
 20
118.0807248600477
 30
0.0
 10
166.6653019222271
 20
117.8749651632593
 30
0.0
  0
LINE
  5
160
330
1F
100
AcDbEntity
  8
0
  6
Continuous
 62
     7
370
    25
100
AcDbLine
 10
167.2590033374
 20
121.4720735622
 30
0.0
 11
167.2590033374
 21
117.8749651633
 31
0.0
  0
SPLINE
  5
161
330
1F
100
AcDbEntity
  8
0
  6
Continuous
 62
     7
370
    25
100
AcDbSpline
210
0.0
220
0.0
230
1.0
 70
     8
 71
     3
 72
    14
 73
    10
 74
     0
 42
0.000000001
 43
0.00000001
 40
0.0
 40
0.0
 40
0.0
 40
0.0
 40
0.2500000000000001
 40
0.2500000000000001
 40
0.5000000000000002
 40
0.5000000000000002
 40
0.7500000000000001
 40
0.7500000000000001
 40
1.0
 40
1.0
 40
1.0
 40
1.0
 10
138.8248055327915
 20
114.5800670777425
 30
0.0
 10
138.6279296472665
 20
114.8075636456717
 30
0.0
 10
138.451821325877
 20
115.0491504207428
 30
0.0
 10
138.1420849321038
 20
115.5613076551169
 30
0.0
 10
138.0075269306103
 20
115.834840458225
 30
0.0
 10
137.7922847779011
 20
116.3949455927624
 30
0.0
 10
137.7106415403821
 20
116.6819180881724
 30
0.0
 10
137.6001185181121
 20
117.2699570732166
 30
0.0
 10
137.5715033373616
 20
117.5744005289873
 30
0.0
 10
137.5715033373615
 20
117.874965163259
 30
0.0
  0
LINE
  5
162
330
1F
100
AcDbEntity
  8
0
  6
Continuous
 62
     7
370
    25
100
AcDbLine
 10
138.8248055328
 20
86.3999651633
 30
0.0
 11
138.8248055328
 21
114.5800670777
 31
0.0
  0
LINE
  5
163
330
1F
100
AcDbEntity
  8
0
  6
Continuous
 62
     7
370
    25
100
AcDbLine
 10
138.8248055328
 20
149.3499651633
 30
0.0
 11
132.4590033374
 21
149.3499651633
 31
0.0
  0
LINE
  5
164
330
1F
100
AcDbEntity
  8
0
  6
Continuous
 62
     7
370
    25
100
AcDbLine
 10
145.4932011419
 20
86.3999651633
 30
0.0
 11
145.4932011419
 21
112.9852578836
 31
0.0
  0
SPLINE
  5
165
330
1F
100
AcDbEntity
  8
0
  6
Continuous
 62
     7
370
    25
100
AcDbSpline
210
0.0
220
0.0
230
1.0
 70
     8
 71
     3
 72
    20
 73
    16
 74
     0
 42
0.000000001
 43
0.00000001
 40
0.0
 40
0.0
 40
0.0
 40
0.0
 40
0.1250000000000001
 40
0.1250000000000001
 40
0.2500000000000001
 40
0.2500000000000001
 40
0.3750000000000002
 40
0.3750000000000002
 40
0.5000000000000002
 40
0.5000000000000002
 40
0.7500000000000001
 40
0.7500000000000001
 40
0.875
 40
0.875
 40
1.0
 40
1.0
 40
1.0
 40
1.0
 10
149.0465033373615
 20
117.8749651632592
 30
0.0
 10
149.0465033373615
 20
117.608297075778
 30
0.0
 10
149.0244563083178
 20
117.3399849005039
 30
0.0
 10
148.935450270613
 20
116.8071418652706
 30
0.0
 10
148.8695713024135
 20
116.5478516552847
 30
0.0
 10
148.6973963947063
 20
116.0427246892632
 30
0.0
 10
148.5906898237994
 20
115.796144473342
 30
0.0
 10
148.3380129209231
 20
115.3197278226023
 30
0.0
 10
148.1945556567284
 20
115.0943077608374
 30
0.0
 10
147.7162334644479
 20
114.4537000792238
 30
0.0
 10
147.3282064814824
 20
114.0709343641207
 30
0.0
 10
146.686401833037
 20
113.5950321159491
 30
0.0
 10
146.4615972053899
 20
113.4514364797974
 30
0.0
 10
145.9902881477676
 20
113.1941050944068
 30
0.0
 10
145.7445915478787
 20
113.0810527158849
 30
0.0
 10
145.4932011419316
 20
112.9852578835742
 30
0.0
  0
LINE
  5
166
330
1F
100
AcDbEntity
  8
0
  6
Continuous
 62
     7
370
    25
100
AcDbLine
 10
150.2590033374
 20
86.3999651633
 30
0.0
 11
150.2590033374
 21
117.8749651633
 31
0.0
  0
LINE
  5
167
330
1F
100
AcDbEntity
  8
0
  6
Continuous
 62
     7
370
    25
100
AcDbLine
 10
150.2590033374
 20
149.3499651633
 30
0.0
 11
145.4932011419
 21
149.3499651633
 31
0.0
  0
LINE
  5
168
330
1F
100
AcDbEntity
  8
0
  6
Continuous
 62
     7
370
    25
100
AcDbLine
 10
132.2590033374
 20
86.5999651633
 30
0.0
 11
132.2590033374
 21
117.8749651633
 31
0.0
  0
LINE
  5
169
330
1F
100
AcDbEntity
  8
0
  6
Continuous
 62
     7
370
    25
100
AcDbLine
 10
132.2590033374
 20
117.8749651633
 30
0.0
 11
132.4590033374
 21
117.8749651633
 31
0.0
  0
ARC
  5
16A
330
1F
100
AcDbEntity
  8
0
  6
Continuous
 62
     7
370
    25
100
AcDbCircle
 10
132.4590033374
 20
149.1499651633
 30
0.0
 40
0.2000000000000171
100
AcDbArc
 50
90.0
 51
180.0
  0
SPLINE
  5
16B
330
1F
100
AcDbEntity
  8
0
  6
Continuous
 62
     7
370
    25
100
AcDbSpline
210
0.0
220
0.0
230
1.0
 70
     8
 71
     3
 72
     8
 73
     4
 74
     0
 42
0.000000001
 43
0.00000001
 40
0.0
 40
0.0
 40
0.0
 40
0.0
 40
1.0
 40
1.0
 40
1.0
 40
1.0
 10
145.4932011419312
 20
112.9852578835731
 30
0.0
 10
145.1447997372509
 20
113.423233209987
 30
0.0
 10
144.800231352018
 20
113.8663163485718
 30
0.0
 10
144.4618470526972
 20
114.3197074204204
 30
0.0
  0
ARC
  5
16C
330
1F
100
AcDbEntity
  8
0
  6
Continuous
 62
     7
370
    25
100
AcDbCircle
 10
143.3090033374
 20
117.8749651633
 30
0.0
 40
3.737499999999993
100
AcDbArc
 50
287.9660359156
 51
360.0
  0
ARC
  5
16D
330
1F
100
AcDbEntity
  8
0
  6
Continuous
 62
     7
370
    25
100
AcDbCircle
 10
143.3090033374
 20
117.8749651633
 30
0.0
 40
3.737500000000033
100
AcDbArc
 50
180.0
 51
206.113804444
  0
SPLINE
  5
16E
330
1F
100
AcDbEntity
  8
0
  6
Continuous
 62
     7
370
    25
100
AcDbSpline
210
0.0
220
0.0
230
1.0
 70
     8
 71
     3
 72
    10
 73
     6
 74
     0
 42
0.000000001
 43
0.00000001
 40
0.0
 40
0.0
 40
0.0
 40
0.0
 40
0.5
 40
0.5
 40
1.0
 40
1.0
 40
1.0
 40
1.0
 10
139.9530215299083
 20
116.2298839014237
 30
0.0
 10
139.7761363834849
 20
115.9314335860671
 30
0.0
 10
139.5905870086075
 20
115.6524408819397
 30
0.0
 10
139.2126380685599
 20
115.107121587814
 30
0.0
 10
139.0198515263807
 20
114.8417862019925
 30
0.0
 10
138.8248055327915
 20
114.5800670777426
 30
0.0
  0
SPLINE
  5
16F
330
1F
100
AcDbEntity
  8
0
  6
Continuous
 62
     7
370
    25
100
AcDbSpline
210
0.0
220
0.0
230
1.0
 70
     8
 71
     3
 72
     8
 73
     4
 74
     0
 42
0.000000001
 43
0.00000001
 40
0.0
 40
0.0
 40
0.0
 40
0.0
 40
1.0
 40
1.0
 40
1.0
 40
1.0
 10
140.2840033373616
 20
115.6799067927369
 30
0.0
 10
140.1657065779316
 20
115.8429310211954
 30
0.0
 10
140.0542780957603
 20
116.0233195202178
 30
0.0
 10
139.9530215299083
 20
116.2298839014237
 30
0.0
  0
LINE
  5
170
330
1F
100
AcDbEntity
  8
0
  6
Continuous
 62
     7
370
    25
100
AcDbLine
 10
140.2840033374
 20
88.9273698991
 30
0.0
 11
140.2840033374
 21
115.6799067927
 31
0.0
  0
SPLINE
  5
171
330
1F
100
AcDbEntity
  8
0
  6
Continuous
 62
     7
370
    25
100
AcDbSpline
210
0.0
220
0.0
230
1.0
 70
     8
 71
     3
 72
     8
 73
     4
 74
     0
 42
0.000000001
 43
0.00000001
 40
0.0
 40
0.0
 40
0.0
 40
0.0
 40
1.0
 40
1.0
 40
1.0
 40
1.0
 10
144.4618470526975
 20
114.3197074204212
 30
0.0
 10
144.3203089644157
 20
114.2738116493241
 30
0.0
 10
144.1776984956788
 20
114.2368707983868
 30
0.0
 10
144.0340033373618
 20
114.2084571174462
 30
0.0
  0
LINE
  5
172
330
1F
100
AcDbEntity
  8
0
  6
Continuous
 62
     7
370
    25
100
AcDbLine
 10
144.0340033374
 20
88.9273698991
 30
0.0
 11
144.0340033374
 21
114.2084571174
 31
0.0
  0
SPLINE
  5
173
330
1F
100
AcDbEntity
  8
0
  6
Continuous
 62
     7
370
    25
100
AcDbSpline
210
0.0
220
0.0
230
1.0
 70
     8
 71
     3
 72
    14
 73
    10
 74
     0
 42
0.000000001
 43
0.00000001
 40
0.0
 40
0.0
 40
0.0
 40
0.0
 40
0.25
 40
0.25
 40
0.5
 40
0.5
 40
0.75
 40
0.75
 40
1.0
 40
1.0
 40
1.0
 40
1.0
 10
141.2840033373616
 20
114.7335831027643
 30
0.0
 10
141.1496552510051
 20
114.8201866643919
 30
0.0
 10
141.0264785771491
 20
114.9116550617153
 30
0.0
 10
140.7977319722311
 20
115.1028464483462
 30
0.0
 10
140.6958100082639
 20
115.1997083004871
 30
0.0
 10
140.5163866058352
 20
115.3875829152224
 30
0.0
 10
140.4399453176524
 20
115.4778182665737
 30
0.0
 10
140.3226553448023
 20
115.6256246305511
 30
0.0
 10
140.2840033373616
 20
115.679906792737
 30
0.0
 10
140.2840033373616
 20
115.679906792737
 30
0.0
  0
SPLINE
  5
174
330
1F
100
AcDbEntity
  8
0
  6
Continuous
 62
     7
370
    25
100
AcDbSpline
210
0.0
220
0.0
230
1.0
 70
     8
 71
     3
 72
    14
 73
    10
 74
     0
 42
0.000000001
 43
0.00000001
 40
0.0
 40
0.0
 40
0.0
 40
0.0
 40
0.25
 40
0.25
 40
0.5
 40
0.5
 40
0.75
 40
0.75
 40
1.0
 40
1.0
 40
1.0
 40
1.0
 10
144.0340033373617
 20
114.2084571174468
 30
0.0
 10
144.0340033373618
 20
114.2084571174468
 30
0.0
 10
144.0080868147907
 20
114.2030803864584
 30
0.0
 10
143.9086419682131
 20
114.185535798858
 30
0.0
 10
143.8363435758009
 20
114.1736863952117
 30
0.0
 10
143.651639681277
 20
114.1520425772114
 30
0.0
 10
143.5420624194011
 20
114.142753316527
 30
0.0
 10
143.298732241183
 20
114.1354977801694
 30
0.0
 10
143.1671959822628
 20
114.1377691863288
 30
0.0
 10
143.0340033373616
 20
114.1475959502619
 30
0.0
  0
SPLINE
  5
175
330
1F
100
AcDbEntity
  8
0
  6
Continuous
 62
     7
370
    25
100
AcDbSpline
210
0.0
220
0.0
230
1.0
 70
     8
 71
     3
 72
    10
 73
     6
 74
     0
 42
0.000000001
 43
0.00000001
 40
0.0
 40
0.0
 40
0.0
 40
0.0
 40
0.5
 40
0.5
 40
1.0
 40
1.0
 40
1.0
 40
1.0
 10
143.0340033373616
 20
114.147595950262
 30
0.0
 10
142.7215394350734
 20
114.1706490926311
 30
0.0
 10
142.4186504530756
 20
114.2318837950375
 30
0.0
 10
141.8313072682716
 20
114.4280557589614
 30
0.0
 10
141.5468396076996
 20
114.5641533940612
 30
0.0
 10
141.2840033373616
 20
114.7335831027643
 30
0.0
  0
LINE
  5
176
330
1F
100
AcDbEntity
  8
0
  6
Continuous
 62
     7
370
    25
100
AcDbLine
 10
132.2590033374
 20
144.7249651633
 30
0.0
 11
132.5930420234
 21
143.6655298029
 31
0.0
  0
LINE
  5
177
330
1F
100
AcDbEntity
  8
0
  6
Continuous
 62
     7
370
    25
100
AcDbLine
 10
132.2590033374
 20
144.7249651633
 30
0.0
 11
132.2590033374
 21
142.7496764299
 31
0.0
  0
ARC
  5
178
330
1F
100
AcDbEntity
  8
0
  6
Continuous
 62
     7
370
    25
100
AcDbCircle
 10
131.8300684628
 20
143.4249651633
 30
0.0
 40
0.8000000000000181
100
AcDbArc
 50
252.5
 51
17.5
  0
LINE
  5
179
330
1F
100
AcDbEntity
  8
0
  6
Continuous
 62
     7
370
    25
100
AcDbLine
 10
131.0988212973
 20
92.9332271177
 30
0.0
 11
131.0988212973
 21
117.8749651633
 31
0.0
  0
LINE
  5
17A
330
1F
100
AcDbEntity
  8
0
  6
Continuous
 62
     7
370
    25
100
AcDbLine
 10
131.5895038232
 20
142.6619916027
 30
0.0
 11
131.0988212973
 21
142.8167032088
 31
0.0
  0
SPLINE
  5
17B
330
1F
100
AcDbEntity
  8
0
  6
Continuous
 62
     7
370
    25
100
AcDbSpline
210
0.0
220
0.0
230
1.0
 70
     8
 71
     3
 72
    23
 73
    19
 74
     0
 42
0.000000001
 43
0.00000001
 40
0.0
 40
0.0
 40
0.0
 40
0.0
 40
0.0014604835854593
 40
0.0696150552019159
 40
0.137266417551447
 40
0.2039701100159466
 40
0.2703009372047745
 40
0.3365574243307606
 40
0.4028683822767352
 40
0.467869247031753
 40
0.532641209841392
 40
0.5993596686012868
 40
0.6655231153857135
 40
0.7321169425959948
 40
0.7988868448416828
 40
0.866336677263808
 40
0.9345228518799412
 40
1.0
 40
1.0
 40
1.0
 40
1.0
 10
102.0187936498132
 20
141.2992337534006
 30
0.0
 10
102.0199487804003
 20
141.2988773810445
 30
0.0
 10
102.0750089538839
 20
141.2818906230351
 30
0.0
 10
102.4714263805419
 20
141.1646252670141
 30
0.0
 10
103.1874762532574
 20
140.9640175750806
 30
0.0
 10
104.1971580289584
 20
140.7234019268933
 30
0.0
 10
105.4131356442692
 20
140.4961298275236
 30
0.0
 10
106.8173357452495
 20
140.3237402760156
 30
0.0
 10
108.3343998236469
 20
140.2356719793454
 30
0.0
 10
109.90869767337
 20
140.2667196382401
 30
0.0
 10
111.474517899407
 20
140.4177428779491
 30
0.0
 10
112.9643749689213
 20
140.6720796765217
 30
0.0
 10
114.3360551612632
 20
140.9898164551778
 30
0.0
 10
115.5219782549816
 20
141.3337328753123
 30
0.0
 10
116.4995775989899
 20
141.6615754756209
 30
0.0
 10
117.2190887505803
 20
141.9304999051046
 30
0.0
 10
117.6917237522827
 20
142.1130892407263
 30
0.0
 10
117.7491948666359
 20
142.1363376333111
 30
0.0
 10
117.7773480248105
 20
142.1477262357614
 30
0.0
  0
LINE
  5
17C
330
1F
100
AcDbEntity
  8
0
  6
Continuous
 62
     7
370
    25
100
AcDbLine
 10
101.8594374521
 20
141.3483615248
 30
0.0
 11
93.8090033374
 21
140.9440852908
 31
0.0
  0
LINE
  5
17D
330
1F
100
AcDbEntity
  8
0
  6
Continuous
 62
     7
370
    25
100
AcDbLine
 10
93.8090033374
 20
94.8058450357
 30
0.0
 11
93.8090033374
 21
108.7528421287
 31
0.0
  0
SPLINE
  5
17E
330
1F
100
AcDbEntity
  8
0
  6
Continuous
 62
     7
370
    25
100
AcDbSpline
210
0.0
220
0.0
230
1.0
 70
     8
 71
     3
 72
     8
 73
     4
 74
     0
 42
0.000000001
 43
0.00000001
 40
0.0
 40
0.0
 40
0.0
 40
0.0
 40
1.0
 40
1.0
 40
1.0
 40
1.0
 10
99.62717779030852
 20
108.757428186956
 30
0.0
 10
97.68778630599712
 20
108.7552820911064
 30
0.0
 10
95.74839482168571
 20
108.7536859045816
 30
0.0
 10
93.80900333737429
 20
108.7526384521059
 30
0.0
  0
SPLINE
  5
17F
330
1F
100
AcDbEntity
  8
0
  6
Continuous
 62
     7
370
    25
100
AcDbSpline
210
0.0
220
0.0
230
1.0
 70
     8
 71
     3
 72
    13
 73
     9
 74
     0
 42
0.000000001
 43
0.00000001
 40
0.0
 40
0.0
 40
0.0
 40
0.0
 40
0.1686319999748085
 40
0.3360343310905433
 40
0.502536782590866
 40
0.6684737453788339
 40
0.834182263691515
 40
1.0
 40
1.0
 40
1.0
 40
1.0
 10
100.7106728397755
 20
108.8948846327736
 30
0.0
 10
100.6511829437158
 20
108.8803703127348
 30
0.0
 10
100.5326369534407
 20
108.8514475114502
 30
0.0
 10
100.3527602578548
 20
108.817486118042
 30
0.0
 10
100.1723699702268
 20
108.790620555683
 30
0.0
 10
99.99125779819299
 20
108.771661618575
 30
0.0
 10
99.80949696102553
 20
108.7597311671793
 30
0.0
 10
99.6879641931309
 20
108.7581960156105
 30
0.0
 10
99.62717779030852
 20
108.757428186956
 30
0.0
  0
SPLINE
  5
180
330
1F
100
AcDbEntity
  8
0
  6
Continuous
 62
     7
370
    25
100
AcDbSpline
210
0.0
220
0.0
230
1.0
 70
     8
 71
     3
 72
     8
 73
     4
 74
     0
 42
0.000000001
 43
0.00000001
 40
0.0
 40
0.0
 40
0.0
 40
0.0
 40
1.0
 40
1.0
 40
1.0
 40
1.0
 10
106.1028662562684
 20
108.8991226746591
 30
0.0
 10
104.3054715848305
 20
108.8972516141351
 30
0.0
 10
102.5080769133927
 20
108.8958294331109
 30
0.0
 10
100.7106822419549
 20
108.8948553101149
 30
0.0
  0
SPLINE
  5
181
330
1F
100
AcDbEntity
  8
0
  6
Continuous
 62
     7
370
    25
100
AcDbSpline
210
0.0
220
0.0
230
1.0
 70
     8
 71
     3
 72
    18
 73
    14
 74
     0
 42
0.000000001
 43
0.00000001
 40
0.0
 40
0.0
 40
0.0
 40
0.0
 40
0.0923325137111192
 40
0.1843692047063016
 40
0.2763458873810836
 40
0.3684982175655623
 40
0.4610598988303626
 40
0.554260954653301
 40
0.6483261285442131
 40
0.74347346365053
 40
0.8399130993119804
 40
0.9201660718299768
 40
1.0
 40
1.0
 40
1.0
 40
1.0
 10
108.2991879048707
 20
108.3649304388154
 30
0.0
 10
108.2288576013576
 20
108.365347063247
 30
0.0
 10
108.0884223245057
 20
108.3661789772937
 30
0.0
 10
107.878059798003
 20
108.3797878242082
 30
0.0
 10
107.6686161350867
 20
108.4024545815799
 30
0.0
 10
107.4600664647142
 20
108.4350553713806
 30
0.0
 10
107.2524228474389
 20
108.4773578500009
 30
0.0
 10
107.0456846598993
 20
108.529429248656
 30
0.0
 10
106.8398625679345
 20
108.5912780215014
 30
0.0
 10
106.6349308891423
 20
108.6628760329576
 30
0.0
 10
106.4434501437466
 20
108.739454523185
 30
0.0
 10
106.265726991692
 20
108.8180657720181
 30
0.0
 10
106.157392997128
 20
108.8719799278055
 30
0.0
 10
106.1033677876747
 20
108.8988664427045
 30
0.0
  0
LINE
  5
182
330
1F
100
AcDbEntity
  8
0
  6
Continuous
 62
     7
370
    25
100
AcDbLine
 10
110.2140611842
 20
108.3664258737
 30
0.0
 11
108.2991879049
 21
108.3649304388
 31
0.0
  0
SPLINE
  5
183
330
1F
100
AcDbEntity
  8
0
  6
Continuous
 62
     7
370
    25
100
AcDbSpline
210
0.0
220
0.0
230
1.0
 70
     8
 71
     3
 72
    25
 73
    21
 74
     0
 42
0.000000001
 43
0.00000001
 40
0.0
 40
0.0
 40
0.0
 40
0.0
 40
0.0280105225422753
 40
0.0559601148854256
 40
0.0839014045034749
 40
0.1118870776777086
 40
0.1399695827579646
 40
0.1682008401731476
 40
0.1966319670417595
 40
0.2253130233137476
 40
0.2542927850735311
 40
0.3799486436564626
 40
0.5057850221666382
 40
0.631308588631066
 40
0.7532068238011618
 40
0.8039473267946936
 40
0.8535894438541253
 40
0.9025339722380873
 40
0.9511970353782256
 40
1.0
 40
1.0
 40
1.0
 40
1.0
 10
115.153945490563
 20
113.5002896781907
 30
0.0
 10
115.1539827122968
 20
113.4256696511782
 30
0.0
 10
115.1540570747974
 20
113.2765919151928
 30
0.0
 10
115.1416410241509
 20
113.0539738242286
 30
0.0
 10
115.1200364637971
 20
112.8326494062011
 30
0.0
 10
115.0883509941371
 20
112.6126811403133
 30
0.0
 10
115.0468248558171
 20
112.3940908530842
 30
0.0
 10
114.9953941000872
 20
112.1769089146791
 30
0.0
 10
114.934080225376
 20
111.9611674947929
 30
0.0
 10
114.8628698898765
 20
111.7468776033407
 30
0.0
 10
114.6920332826754
 20
111.2985278303198
 30
0.0
 10
114.3543010492394
 20
110.6451970022476
 30
0.0
 10
113.7427463850447
 20
109.8733037916115
 30
0.0
 10
113.0065115498921
 20
109.2291441662262
 30
0.0
 10
112.3200254782479
 20
108.8375029981642
 30
0.0
 10
111.771321332099
 20
108.6188080971912
 30
0.0
 10
111.3892851535975
 20
108.5029520483608
 30
0.0
 10
111.0021190548929
 20
108.4220441428309
 30
0.0
 10
110.6098923861028
 20
108.3728157120332
 30
0.0
 10
110.346131117984
 20
108.3685578570179
 30
0.0
 10
110.2140611841601
 20
108.3664258736752
 30
0.0
  0
LINE
  5
184
330
1F
100
AcDbEntity
  8
0
  6
Continuous
 62
     7
370
    25
100
AcDbLine
 10
115.1539454906
 20
117.8749651633
 30
0.0
 11
115.1539454906
 21
113.5002896782
 31
0.0
  0
LINE
  5
185
330
1F
100
AcDbEntity
  8
0
  6
Continuous
 62
     7
370
    25
100
AcDbLine
 10
131.0988212973
 20
142.8167032088
 30
0.0
 11
117.7773480248
 21
142.1477262358
 31
0.0
  0
SPLINE
  5
186
330
1F
100
AcDbEntity
  8
0
  6
Continuous
 62
     7
370
    25
100
AcDbSpline
210
0.0
220
0.0
230
1.0
 70
     8
 71
     3
 72
    20
 73
    16
 74
     0
 42
0.000000001
 43
0.00000001
 40
0.0
 40
0.0
 40
0.0
 40
0.0
 40
0.0829621378684845
 40
0.1658495135106149
 40
0.2487180070857333
 40
0.3299477216398492
 40
0.4108693994445695
 40
0.4941953814850514
 40
0.5768901676626171
 40
0.6601065810557714
 40
0.7435845489350783
 40
0.8279858465401807
 40
0.9132590745392796
 40
0.9972257035811709
 40
1.0
 40
1.0
 40
1.0
 40
1.0
 10
104.1714194320885
 20
95.01170479575246
 30
0.0
 10
104.5571652681598
 20
95.08862322235662
 30
0.0
 10
105.328309321277
 20
95.2423907596942
 30
0.0
 10
106.7360574724468
 20
95.41830598107974
 30
0.0
 10
108.2439088403215
 20
95.51230226840877
 30
0.0
 10
109.8163978153393
 20
95.48845788654218
 30
0.0
 10
111.3836948465514
 20
95.34455284164159
 30
0.0
 10
112.8794708733329
 20
95.09549523884256
 30
0.0
 10
114.2597247490056
 20
94.78081454630392
 30
0.0
 10
115.4573189320612
 20
94.43655319432338
 30
0.0
 10
116.4441809618834
 20
94.10750596850363
 30
0.0
 10
117.1914192080814
 20
93.8290450602959
 30
0.0
 10
117.638620637447
 20
93.65718926526424
 30
0.0
 10
117.825375249597
 20
93.58333859366589
 30
0.0
 10
117.7742770356988
 20
93.60348988473893
 30
0.0
 10
117.7726427253536
 20
93.60413439774548
 30
0.0
  0
SPLINE
  5
187
330
1F
100
AcDbEntity
  8
0
  6
Continuous
 62
     7
370
    25
100
AcDbSpline
210
0.0
220
0.0
230
1.0
 70
     8
 71
     3
 72
    11
 73
     7
 74
     0
 42
0.000000001
 43
0.00000001
 40
0.0
 40
0.0
 40
0.0
 40
0.0
 40
0.2435512231731584
 40
0.4981153923403666
 40
0.7509097881719515
 40
1.0
 40
1.0
 40
1.0
 40
1.0
 10
101.8639253143449
 20
94.40304258636935
 30
0.0
 10
101.8898762358702
 20
94.4112781229075
 30
0.0
 10
101.9429515326753
 20
94.42812159205698
 30
0.0
 10
102.4206465163378
 20
94.5690230341945
 30
0.0
 10
103.1319859646046
 20
94.7743135846427
 30
0.0
 10
103.8266506117792
 20
94.93296470283993
 30
0.0
 10
104.1714194320885
 20
95.01170479575246
 30
0.0
  0
LINE
  5
188
330
1F
100
AcDbEntity
  8
0
  6
Continuous
 62
     7
370
    25
100
AcDbLine
 10
115.1539454906
 20
113.5002896782
 30
0.0
 11
114.2590033374
 21
113.6624651633
 31
0.0
  0
LINE
  5
189
330
1F
100
AcDbEntity
  8
0
  6
Continuous
 62
     7
370
    25
100
AcDbLine
 10
114.2590033374
 20
113.6624651633
 30
0.0
 11
114.2590033374
 21
117.8749651633
 31
0.0
  0
SPLINE
  5
18A
330
1F
100
AcDbEntity
  8
0
  6
Continuous
 62
     7
370
    25
100
AcDbSpline
210
0.0
220
0.0
230
1.0
 70
     8
 71
     3
 72
    25
 73
    21
 74
     0
 42
0.000000001
 43
0.00000001
 40
0.0
 40
0.0
 40
0.0
 40
0.0
 40
0.0288821753116583
 40
0.0583636594024247
 40
0.088464720432864
 40
0.1192044006641432
 40
0.1506005800108822
 40
0.1826700399688414
 40
0.2154285269587146
 40
0.2488908143380118
 40
0.3610594471217245
 40
0.498467013106778
 40
0.5822693905006526
 40
0.6661127642782239
 40
0.7499972937224496
 40
0.8007709755032478
 40
0.8511237700807983
 40
0.901089602450676
 40
0.9507031914109089
 40
1.0
 40
1.0
 40
1.0
 40
1.0
 10
110.2590033373615
 20
109.6624651632593
 30
0.0
 10
110.3218037906003
 20
109.6633216472111
 30
0.0
 10
110.4487078144002
 20
109.6650523872648
 30
0.0
 10
110.6400622221147
 20
109.6792022526686
 30
0.0
 10
110.8339670347933
 20
109.70233933499
 30
0.0
 10
111.0298677555217
 20
109.7357504872155
 30
0.0
 10
111.2272054235258
 20
109.7796243092482
 30
0.0
 10
111.425358765311
 20
109.8344195802175
 30
0.0
 10
111.6236745093192
 20
109.9004885415811
 30
0.0
 10
111.9749954968217
 20
110.0384698738341
 30
0.0
 10
112.5001072671442
 20
110.3185218126753
 30
0.0
 10
113.0370990956297
 20
110.7571124150836
 30
0.0
 10
113.4491588256682
 20
111.2309725366303
 30
0.0
 10
113.7360774137206
 20
111.6626562844501
 30
0.0
 10
113.9345041009278
 20
112.0657795262103
 30
0.0
 10
114.0665899749762
 20
112.4235156869893
 30
0.0
 10
114.152223854774
 20
112.7262680892716
 30
0.0
 10
114.213306066127
 20
113.0347563995173
 30
0.0
 10
114.2518070094925
 20
113.3470681096737
 30
0.0
 10
114.256609688586
 20
113.5575575235751
 30
0.0
 10
114.2590033373615
 20
113.6624651632593
 30
0.0
  0
SPLINE
  5
18B
330
1F
100
AcDbEntity
  8
0
  6
Continuous
 62
     7
370
    25
100
AcDbSpline
210
0.0
220
0.0
230
1.0
 70
     8
 71
     3
 72
    13
 73
     9
 74
     0
 42
0.000000001
 43
0.00000001
 40
0.0
 40
0.0
 40
0.0
 40
0.0
 40
0.1722587823678385
 40
0.3421398271425444
 40
0.5097456258111679
 40
0.6751828993453325
 40
0.8385626190248169
 40
1.0
 40
1.0
 40
1.0
 40
1.0
 10
107.2590217062718
 20
109.8124599860091
 30
0.0
 10
107.3198850959444
 20
109.7961962583096
 30
0.0
 10
107.4407717603898
 20
109.7638932958289
 30
0.0
 10
107.6238329183622
 20
109.7265056411352
 30
0.0
 10
107.8059356013028
 20
109.6973727062251
 30
0.0
 10
107.9868770496195
 20
109.6771859906197
 30
0.0
 10
108.1662160533158
 20
109.6647391863191
 30
0.0
 10
108.2850622817292
 20
109.6632201430917
 30
0.0
 10
108.3441300580721
 20
109.6624651632593
 30
0.0
  0
LINE
  5
18C
330
1F
100
AcDbEntity
  8
0
  6
Continuous
 62
     7
370
    25
100
AcDbLine
 10
108.2991879049
 20
108.3649304388
 30
0.0
 11
108.3441300581
 21
109.6624651633
 31
0.0
  0
SPLINE
  5
18D
330
1F
100
AcDbEntity
  8
0
  6
Continuous
 62
     7
370
    25
100
AcDbSpline
210
0.0
220
0.0
230
1.0
 70
     8
 71
     3
 72
    11
 73
     7
 74
     0
 42
0.000000001
 43
0.00000001
 40
0.0
 40
0.0
 40
0.0
 40
0.0
 40
0.2392913844325938
 40
0.5001130135003002
 40
0.7515028526498353
 40
0.9999999999999999
 40
0.9999999999999999
 40
0.9999999999999999
 40
0.9999999999999999
 10
106.9315308452156
 20
109.8130387682824
 30
0.0
 10
106.8627059092687
 20
109.7414853311278
 30
0.0
 10
106.7188635130955
 20
109.5919404356165
 30
0.0
 10
106.5111147147289
 20
109.363023008971
 30
0.0
 10
106.3031285101078
 20
109.1307046367312
 30
0.0
 10
106.1701275863375
 20
108.9759287541399
 30
0.0
 10
106.1040119421131
 20
108.89898863299
 30
0.0
  0
SPLINE
  5
18E
330
1F
100
AcDbEntity
  8
0
  6
Continuous
 62
     7
370
    25
100
AcDbSpline
210
0.0
220
0.0
230
1.0
 70
    24
 71
     3
 72
     9
 73
     5
 74
     0
 42
0.000000001
 43
0.00000001
 40
0.0
 40
0.0
 40
0.0
 40
0.0
 40
0.509083966986604
 40
1.0
 40
1.0
 40
1.0
 40
1.0
 10
106.9337611135351
 20
109.8124651632593
 30
0.0
 10
106.9884945136475
 20
109.8124651632593
 30
0.0
 10
107.0960080156663
 20
109.8124651632593
 30
0.0
 10
107.2054005760372
 20
109.8124651632593
 30
0.0
 10
107.2591031378157
 20
109.8124651632593
 30
0.0
  0
LINE
  5
18F
330
1F
100
AcDbEntity
  8
0
  6
Continuous
 62
     7
370
    25
100
AcDbLine
 10
100.6851532489
 20
109.7924133895
 30
0.0
 11
100.7105677405
 21
108.8948552188
 31
0.0
  0
SPLINE
  5
190
330
1F
100
AcDbEntity
  8
0
  6
Continuous
 62
     7
370
    25
100
AcDbSpline
210
0.0
220
0.0
230
1.0
 70
     8
 71
     3
 72
     8
 73
     4
 74
     0
 42
0.000000001
 43
0.00000001
 40
0.0
 40
0.0
 40
0.0
 40
0.0
 40
1.0
 40
1.0
 40
1.0
 40
1.0
 10
100.6851644400898
 20
109.7924138795985
 30
0.0
 10
100.7069672965718
 20
109.7981112106312
 30
0.0
 10
100.7287220059693
 20
109.8039927934262
 30
0.0
 10
100.7504254612874
 20
109.8100577879792
 30
0.0
  0
LINE
  5
191
330
1F
100
AcDbEntity
  8
0
  6
Continuous
 62
     7
370
    25
100
AcDbLine
 10
100.7590033374
 20
109.8124651633
 30
0.0
 11
106.9326763097
 21
109.8124651633
 31
0.0
  0
LINE
  5
192
330
1F
100
AcDbEntity
  8
0
  6
Continuous
 62
     7
370
    25
100
AcDbLine
 10
108.3441300581
 20
109.6624651633
 30
0.0
 11
110.2590033374
 21
109.6624651633
 31
0.0
  0
SPLINE
  5
193
330
1F
100
AcDbEntity
  8
0
  6
Continuous
 62
     7
370
    25
100
AcDbSpline
210
0.0
220
0.0
230
1.0
 70
     8
 71
     3
 72
    13
 73
     9
 74
     0
 42
0.000000001
 43
0.00000001
 40
0.0
 40
0.0
 40
0.0
 40
0.0
 40
0.1621004456571512
 40
0.325943455157606
 40
0.4915935308260523
 40
0.6591130873964648
 40
0.8285624736043361
 40
1.0
 40
1.0
 40
1.0
 40
1.0
 10
99.673876616651
 20
109.6624651632593
 30
0.0
 10
99.72943157471656
 20
109.6631341294605
 30
0.0
 10
99.84113870118131
 20
109.6644792531839
 30
0.0
 10
100.0089863905751
 20
109.6754258219752
 30
0.0
 10
100.1777728094435
 20
109.6930647512959
 30
0.0
 10
100.3470971659753
 20
109.7183702652838
 30
0.0
 10
100.5168438141527
 20
109.7506742680768
 30
0.0
 10
100.6288367128103
 20
109.7784458679628
 30
0.0
 10
100.68515974784
 20
109.7924126534641
 30
0.0
  0
LINE
  5
194
330
1F
100
AcDbEntity
  8
0
  6
Continuous
 62
     7
370
    25
100
AcDbLine
 10
92.8953435158
 20
109.1349634193
 30
0.0
 11
93.8090033374
 21
109.6624651633
 31
0.0
  0
LINE
  5
195
330
1F
100
AcDbEntity
  8
0
  6
Continuous
 62
     7
370
    25
100
AcDbLine
 10
93.8090033374
 20
109.6624651633
 30
0.0
 11
99.6738766167
 21
109.6624651633
 31
0.0
  0
SPLINE
  5
196
330
1F
100
AcDbEntity
  8
0
  6
Continuous
 62
     7
370
    25
100
AcDbSpline
210
0.0
220
0.0
230
1.0
 70
     8
 71
     3
 72
     8
 73
     4
 74
     0
 42
0.000000001
 43
0.00000001
 40
0.0
 40
0.0
 40
0.0
 40
0.0
 40
1.0
 40
1.0
 40
1.0
 40
1.0
 10
93.80900333691059
 20
108.7526384518833
 30
0.0
 10
93.50445006320507
 20
108.8813293164301
 30
0.0
 10
93.19989678949953
 20
109.0087740726918
 30
0.0
 10
92.89534351579401
 20
109.1349634193295
 30
0.0
  0
LINE
  5
197
330
1F
100
AcDbEntity
  8
0
  6
Continuous
 62
     7
370
    25
100
AcDbLine
 10
92.3090033374
 20
95.6718704395
 30
0.0
 11
92.3090033374
 21
108.7964397595
 31
0.0
  0
SPLINE
  5
198
330
1F
100
AcDbEntity
  8
0
  6
Continuous
 62
     7
370
    25
100
AcDbSpline
210
0.0
220
0.0
230
1.0
 70
    24
 71
     3
 72
     8
 73
     4
 74
     0
 42
0.000000001
 43
0.00000001
 40
0.0
 40
0.0
 40
0.0
 40
0.0
 40
1.0
 40
1.0
 40
1.0
 40
1.0
 10
92.89534351579401
 20
109.1349634193295
 30
0.0
 10
92.69901149013565
 20
109.0216110714651
 30
0.0
 10
92.50355046989544
 20
108.9087615988134
 30
0.0
 10
92.30900333736155
 20
108.7964397594749
 30
0.0
  0
ARC
  5
199
330
1F
100
AcDbEntity
  8
0
  6
Continuous
 62
     7
370
    25
100
AcDbCircle
 10
153.2590033374
 20
137.8749651633
 30
0.0
 40
3.0
100
AcDbArc
 50
180.0
 51
270.0
  0
LINE
  5
19A
330
1F
100
AcDbEntity
  8
0
  6
Continuous
 62
     7
370
    25
100
AcDbLine
 10
124.0342438109
 20
136.1249651633
 30
0.0
 11
125.4590033374
 21
136.1249651633
 31
0.0
  0
ARC
  5
19B
330
1F
100
AcDbEntity
  8
0
  6
Continuous
 62
     7
370
    25
100
AcDbCircle
 10
125.4590033374
 20
135.3249651633
 30
0.0
 40
0.8000000000000256
100
AcDbArc
 50
0.0
 51
90.0
  0
ARC
  5
19C
330
1F
100
AcDbEntity
  8
0
  6
Continuous
 62
     7
370
    25
100
AcDbCircle
 10
124.0342438109
 20
135.3249651633
 30
0.0
 40
0.799999999999975
100
AcDbArc
 50
90.0
 51
120.0
  0
LINE
  5
19D
330
1F
100
AcDbEntity
  8
0
  6
Continuous
 62
     7
370
    25
100
AcDbLine
 10
122.7590033374
 20
135.5124651633
 30
0.0
 11
122.7590033374
 21
117.8749651633
 31
0.0
  0
LINE
  5
19E
330
1F
100
AcDbEntity
  8
0
  6
Continuous
 62
     7
370
    25
100
AcDbLine
 10
122.7590033374
 20
135.5124651633
 30
0.0
 11
123.6342438109
 21
136.0177854863
 31
0.0
  0
LINE
  5
19F
330
1F
100
AcDbEntity
  8
0
  6
Continuous
 62
     7
370
    25
100
AcDbLine
 10
93.0606693872
 20
109.2304143557
 30
0.0
 11
92.9242006148
 21
109.1516240732
 31
0.0
  0
SPLINE
  5
1A0
330
1F
100
AcDbEntity
  8
0
  6
Continuous
 62
     7
370
    25
100
AcDbSpline
210
0.0
220
0.0
230
1.0
 70
     8
 71
     3
 72
    32
 73
    28
 74
     0
 42
0.000000001
 43
0.00000001
 40
0.0
 40
0.0
 40
0.0
 40
0.0
 40
0.125000000000001
 40
0.125000000000001
 40
0.187500000000001
 40
0.187500000000001
 40
0.250000000000001
 40
0.250000000000001
 40
0.312500000000001
 40
0.312500000000001
 40
0.375000000000001
 40
0.375000000000001
 40
0.5000000000000011
 40
0.5000000000000011
 40
0.5625000000000009
 40
0.5625000000000009
 40
0.6250000000000007
 40
0.6250000000000007
 40
0.7500000000000003
 40
0.7500000000000003
 40
0.8125000000000002
 40
0.8125000000000002
 40
0.8750000000000002
 40
0.8750000000000002
 40
0.9375000000000001
 40
0.9375000000000001
 40
1.0
 40
1.0
 40
1.0
 40
1.0
 10
106.7266336687022
 20
134.0476339174689
 30
0.0
 10
106.2425594247482
 20
134.0479933100885
 30
0.0
 10
105.7591618541813
 20
134.0629525162698
 30
0.0
 10
105.0352565044452
 20
134.1099365627784
 30
0.0
 10
104.7945940709084
 20
134.129713117903
 30
0.0
 10
104.3232479618328
 20
134.1766772014021
 30
0.0
 10
104.0914121455425
 20
134.2039310505866
 30
0.0
 10
103.6357090589862
 20
134.2655589791991
 30
0.0
 10
103.4118407360449
 20
134.2999340799946
 30
0.0
 10
102.9725131440371
 20
134.3752535236476
 30
0.0
 10
102.7557957513707
 20
134.416471474396
 30
0.0
 10
102.1294537726978
 20
134.5467082935767
 30
0.0
 10
101.7450611383444
 20
134.6417482054759
 30
0.0
 10
101.2175193927246
 20
134.7880151674283
 30
0.0
 10
101.0498852411935
 20
134.837383802619
 30
0.0
 10
100.7314804939529
 20
134.9357875101192
 30
0.0
 10
100.5818996194138
 20
134.9844707747518
 30
0.0
 10
100.1688795498654
 20
135.1240935779201
 30
0.0
 10
99.93732777870622
 20
135.2096802565007
 30
0.0
 10
99.65401826361655
 20
135.3186433044168
 30
0.0
 10
99.57045058184475
 20
135.3516919569912
 30
0.0
 10
99.42852574952055
 20
135.4086953532316
 30
0.0
 10
99.36953763807803
 20
135.432892058842
 30
0.0
 10
99.2748217343682
 20
135.472094339221
 30
0.0
 10
99.23909376722145
 20
135.487101505718
 30
0.0
 10
99.19112948950401
 20
135.507310503445
 30
0.0
 10
99.17900318207057
 20
135.5124651632593
 30
0.0
 10
99.17900318207055
 20
135.5124651632593
 30
0.0
  0
SPLINE
  5
1A1
330
1F
100
AcDbEntity
  8
0
  6
Continuous
 62
     7
370
    25
100
AcDbSpline
210
0.0
220
0.0
230
1.0
 70
     8
 71
     3
 72
    31
 73
    27
 74
     0
 42
0.000000001
 43
0.00000001
 40
0.0
 40
0.0
 40
0.0
 40
0.0
 40
0.0161756722762533
 40
0.0323169137831924
 40
0.0484425619887097
 40
0.0645715089965144
 40
0.0807226353345289
 40
0.0969147439454975
 40
0.1131664955259563
 40
0.1294963463054577
 40
0.1459224892616235
 40
0.1624627996348745
 40
0.1791347854483712
 40
0.195955543564045
 40
0.2945755146277999
 40
0.3932797312250857
 40
0.4928176221933317
 40
0.5924285912823419
 40
0.6939020917448194
 40
0.792711538148737
 40
0.8267756331435537
 40
0.8608043324964899
 40
0.8949846314009923
 40
0.929501059435787
 40
0.9645328322468297
 40
1.0
 40
1.0
 40
1.0
 40
1.0
 10
117.7349527274456
 20
135.5124651632593
 30
0.0
 10
117.7342196269945
 20
135.5121187718314
 30
0.0
 10
117.732754986535
 20
135.5114267262879
 30
0.0
 10
117.7196986068699
 20
135.5058443642415
 30
0.0
 10
117.6986840463471
 20
135.4969776012473
 30
0.0
 10
117.6689368410064
 20
135.4845365005324
 30
0.0
 10
117.6306645283508
 20
135.4686458419772
 30
0.0
 10
117.5838118474297
 20
135.44932009815
 30
0.0
 10
117.5283941173927
 20
135.4266040086305
 30
0.0
 10
117.4644081535622
 20
135.4005350042558
 30
0.0
 10
117.3918546694116
 20
135.3711525568876
 30
0.0
 10
117.310737971932
 20
135.3384983095528
 30
0.0
 10
117.221044317182
 20
135.3026058625184
 30
0.0
 10
116.9639984705255
 20
135.2003679548516
 30
0.0
 10
116.4359624849326
 20
134.9938437413849
 30
0.0
 10
115.4573278376864
 20
134.656758428035
 30
0.0
 10
114.2714515347676
 20
134.3136135687072
 30
0.0
 10
112.9009852696944
 20
134.0165016680466
 30
0.0
 10
111.4151279977298
 20
133.8064582403136
 30
0.0
 10
110.1949753639648
 20
133.7482328374451
 30
0.0
 10
109.3285513310199
 20
133.7619251787051
 30
0.0
 10
108.8003064025431
 20
133.7872932643162
 30
0.0
 10
108.2755331713369
 20
133.8293158800337
 30
0.0
 10
107.7545439317445
 20
133.8875998432618
 30
0.0
 10
107.237302986686
 20
133.9602233885072
 30
0.0
 10
106.9016658743521
 20
134.019103706197
 30
0.0
 10
106.7328108862904
 20
134.0487256847424
 30
0.0
  0
LINE
  5
1A2
330
1F
100
AcDbEntity
  8
0
  6
Continuous
 62
     7
370
    25
100
AcDbLine
 10
117.7349527274
 20
135.5124651633
 30
0.0
 11
122.7590033374
 21
135.5124651633
 31
0.0
  0
LINE
  5
1A3
330
1F
100
AcDbEntity
  8
0
  6
Continuous
 62
     7
370
    25
100
AcDbLine
 10
114.9090033374
 20
121.9377385741
 30
0.0
 11
114.9090033374
 21
117.8749651633
 31
0.0
  0
SPLINE
  5
1A4
330
1F
100
AcDbEntity
  8
0
  6
Continuous
 62
     7
370
    25
100
AcDbSpline
210
0.0
220
0.0
230
1.0
 70
     8
 71
     3
 72
    25
 73
    21
 74
     0
 42
0.000000001
 43
0.00000001
 40
0.0
 40
0.0
 40
0.0
 40
0.0
 40
0.0278144320063462
 40
0.0555680196245754
 40
0.083331625367772
 40
0.111176035216759
 40
0.1391714221532265
 40
0.1673868326284763
 40
0.1958897140434718
 40
0.2247454979318961
 40
0.254017249222145
 40
0.3796724410016501
 40
0.5056484635002454
 40
0.629752729069345
 40
0.7535891720571729
 40
0.8038564806093713
 40
0.853339684343451
 40
0.9023264398358534
 40
0.9511131859219439
 40
1.0
 40
1.0
 40
1.0
 40
1.0
 10
110.2590033373615
 20
126.4224617456243
 30
0.0
 10
110.3276586913239
 20
126.4219286605172
 30
0.0
 10
110.4648192148765
 20
126.4208636564328
 30
0.0
 10
110.6700617974623
 20
126.4077687590406
 30
0.0
 10
110.8743828139594
 20
126.3862302724681
 30
0.0
 10
111.0777838660484
 20
126.3554088006195
 30
0.0
 10
111.2802594968943
 20
126.315496048112
 30
0.0
 10
111.4818083611419
 20
126.266395855171
 30
0.0
 10
111.6824223819446
 20
126.2080826076592
 30
0.0
 10
111.8821201462769
 20
126.1404906647924
 30
0.0
 10
112.2976849669562
 20
125.9796771486768
 30
0.0
 10
112.9004613834987
 20
125.6657002493354
 30
0.0
 10
113.5945179390036
 20
125.1021287738407
 30
0.0
 10
114.1612915684008
 20
124.4263845545867
 30
0.0
 10
114.498869374072
 20
123.8090227271102
 30
0.0
 10
114.6873317833609
 20
123.3169612876001
 30
0.0
 10
114.7865930008853
 20
122.9793095050537
 30
0.0
 10
114.8569375895922
 20
122.6366783630302
 30
0.0
 10
114.9009361881108
 20
122.2893136625886
 30
0.0
 10
114.9063124515911
 20
122.0550102859818
 30
0.0
 10
114.9090033373616
 20
121.937738574059
 30
0.0
  0
LINE
  5
1A5
330
1F
100
AcDbEntity
  8
0
  6
Continuous
 62
     7
370
    25
100
AcDbLine
 10
108.3441300581
 20
126.4224617456
 30
0.0
 11
110.2590033374
 21
126.4224617456
 31
0.0
  0
SPLINE
  5
1A6
330
1F
100
AcDbEntity
  8
0
  6
Continuous
 62
     7
370
    25
100
AcDbSpline
210
0.0
220
0.0
230
1.0
 70
     8
 71
     3
 72
    12
 73
     8
 74
     0
 42
0.000000001
 43
0.00000001
 40
0.0
 40
0.0
 40
0.0
 40
0.0
 40
0.1992838848975294
 40
0.3984605265796777
 40
0.5979968004971673
 40
0.7983570684833388
 40
1.0
 40
1.0
 40
1.0
 40
1.0
 10
107.3430962157331
 20
126.3202674329008
 30
0.0
 10
107.4085494930336
 20
126.3332897856655
 30
0.0
 10
107.5394208244155
 20
126.3593274833077
 30
0.0
 10
107.7382702760393
 20
126.3877580422817
 30
0.0
 10
107.9386767919103
 20
126.4081892032632
 30
0.0
 10
108.1408477093276
 20
126.4206282803338
 30
0.0
 10
108.2762252929787
 20
126.4218492919084
 30
0.0
 10
108.3441300580721
 20
126.4224617456243
 30
0.0
  0
LINE
  5
1A7
330
1F
100
AcDbEntity
  8
0
  6
Continuous
 62
     7
370
    25
100
AcDbLine
 10
101.9183332082
 20
126.3201035088
 30
0.0
 11
107.3423232267
 21
126.3201035088
 31
0.0
  0
SPLINE
  5
1A8
330
1F
100
AcDbEntity
  8
0
  6
Continuous
 62
     7
370
    25
100
AcDbSpline
210
0.0
220
0.0
230
1.0
 70
     8
 71
     3
 72
    24
 73
    20
 74
     0
 42
0.000000001
 43
0.00000001
 40
0.0
 40
0.0
 40
0.0
 40
0.0
 40
0.0410257106287842
 40
0.0818520099077639
 40
0.1225800578354648
 40
0.1633117464058233
 40
0.2041489402806705
 40
0.2451927184749161
 40
0.2865426449235763
 40
0.3282960933646444
 40
0.370547647549383
 40
0.4133885920102291
 40
0.4569065022351533
 40
0.5011849368587563
 40
0.6001856774947433
 40
0.6987388860447942
 40
0.7976800645453981
 40
0.8978349910029445
 40
1.0
 40
1.0
 40
1.0
 40
1.0
 10
98.14634630121141
 20
128.2577453259223
 30
0.0
 10
98.20938538916593
 20
128.2572106256072
 30
0.0
 10
98.33515715454784
 20
128.2561438239645
 30
0.0
 10
98.52309531605864
 20
128.2450003319663
 30
0.0
 10
98.70968540888325
 20
128.2268388336587
 30
0.0
 10
98.89492719141838
 20
128.2009639129372
 30
0.0
 10
99.07881637464628
 20
128.1675270271256
 30
0.0
 10
99.26135004061906
 20
128.126443005582
 30
0.0
 10
99.44252544755838
 20
128.0776802574885
 30
0.0
 10
99.62234023153452
 20
128.0211827693447
 30
0.0
 10
99.80079343061409
 20
127.9568916745425
 30
0.0
 10
99.97788146876377
 20
127.8847379946101
 30
0.0
 10
100.1536135930495
 20
127.8046508095714
 30
0.0
 10
100.3986282266458
 20
127.680809922889
 30
0.0
 10
100.702811305828
 20
127.5021849406958
 30
0.0
 10
101.0501187872731
 20
127.2530957566385
 30
0.0
 10
101.3692930507455
 20
126.9735261716589
 30
0.0
 10
101.6632049530103
 20
126.6647005336867
 30
0.0
 10
101.8327290397021
 20
126.436608490385
 30
0.0
 10
101.9183332081849
 20
126.3214294023544
 30
0.0
  0
LINE
  5
1A9
330
1F
100
AcDbEntity
  8
0
  6
Continuous
 62
     7
370
    25
100
AcDbLine
 10
95.3548045843
 20
128.2577453259
 30
0.0
 11
98.1463463012
 21
128.2577453259
 31
0.0
  0
SPLINE
  5
1AA
330
1F
100
AcDbEntity
  8
0
  6
Continuous
 62
     7
370
    25
100
AcDbSpline
210
0.0
220
0.0
230
1.0
 70
     8
 71
     3
 72
     8
 73
     4
 74
     0
 42
0.000000001
 43
0.00000001
 40
0.0
 40
0.0
 40
0.0
 40
0.0
 40
1.0
 40
1.0
 40
1.0
 40
1.0
 10
95.3090005126028
 20
128.3211983169319
 30
0.0
 10
95.32426853650048
 20
128.3000818465338
 30
0.0
 10
95.33953656039817
 20
128.2789307794811
 30
0.0
 10
95.35480458429585
 20
128.2577453259223
 30
0.0
  0
LINE
  5
1AB
330
1F
100
AcDbEntity
  8
0
  6
Continuous
 62
     7
370
    25
100
AcDbLine
 10
95.3090033374
 20
135.5124651633
 30
0.0
 11
95.3090033374
 21
128.3211983169
 31
0.0
  0
LINE
  5
1AC
330
1F
100
AcDbEntity
  8
0
  6
Continuous
 62
     7
370
    25
100
AcDbLine
 10
95.3090033374
 20
135.5124651633
 30
0.0
 11
99.1790031821
 21
135.5124651633
 31
0.0
  0
LINE
  5
1AD
330
1F
100
AcDbEntity
  8
0
  6
Continuous
 62
     7
370
    25
100
AcDbLine
 10
167.7872867608
 20
100.8749651633
 30
0.0
 11
167.7872867608
 21
117.8749651633
 31
0.0
  0
LINE
  5
1AE
330
1F
100
AcDbEntity
  8
0
  6
Continuous
 62
     7
370
    25
100
AcDbLine
 10
210.4159215288
 20
131.5200188474
 30
0.0
 11
167.7872867608
 21
134.8749651633
 31
0.0
  0
LINE
  5
1AF
330
1F
100
AcDbEntity
  8
0
  6
Continuous
 62
     7
370
    25
100
AcDbLine
 10
167.7872867608
 20
134.8749651633
 30
0.0
 11
153.2590033374
 21
134.8749651633
 31
0.0
  0
ARC
  5
1B0
330
1F
100
AcDbEntity
  8
0
  6
Continuous
 62
     7
370
    25
100
AcDbCircle
 10
129.9590033374
 20
132.2249651633
 30
0.0
 40
1.200000000000017
100
AcDbArc
 50
0.0
 51
90.0
  0
LINE
  5
1B1
330
1F
100
AcDbEntity
  8
0
  6
Continuous
 62
     7
370
    25
100
AcDbLine
 10
126.2590033374
 20
133.4249651633
 30
0.0
 11
129.9590033374
 21
133.4249651633
 31
0.0
  0
LINE
  5
1B2
330
1F
100
AcDbEntity
  8
0
  6
Continuous
 62
     7
370
    25
100
AcDbLine
 10
126.2590033374
 20
133.4249651633
 30
0.0
 11
126.2590033374
 21
117.8749651633
 31
0.0
  0
LINE
  5
1B3
330
1F
100
AcDbEntity
  8
0
  6
Continuous
 62
     7
370
    25
100
AcDbLine
 10
212.2590033374
 20
106.2237461863
 30
0.0
 11
212.2590033374
 21
117.8749651633
 31
0.0
  0
ARC
  5
1B4
330
1F
100
AcDbEntity
  8
0
  6
Continuous
 62
     7
370
    25
100
AcDbCircle
 10
210.2590033374
 20
129.5261841799
 30
0.0
 40
1.99999999999999
100
AcDbArc
 50
0.0
 51
85.5
  0
ARC
  5
1B5
330
1F
100
AcDbEntity
  8
0
  6
Continuous
 62
     7
370
    25
100
AcDbCircle
 10
211.7590033374
 20
126.9116594113
 30
0.0
 40
0.4999999999999826
100
AcDbArc
 50
280.0
 51
0.0
  0
LINE
  5
1B6
330
1F
100
AcDbEntity
  8
0
  6
Continuous
 62
     7
370
    25
100
AcDbLine
 10
212.2590033374
 20
126.9116594113
 30
0.0
 11
212.2590033374
 21
117.8749651633
 31
0.0
  0
LINE
  5
1B7
330
1F
100
AcDbEntity
  8
0
  6
Continuous
 62
     7
370
    25
100
AcDbLine
 10
208.7590033374
 20
125.8749651633
 30
0.0
 11
208.7590033374
 21
117.8749651633
 31
0.0
  0
LINE
  5
1B8
330
1F
100
AcDbEntity
  8
0
  6
Continuous
 62
     7
370
    25
100
AcDbLine
 10
208.7590033374
 20
125.8749651633
 30
0.0
 11
211.8458274262
 21
126.4192555348
 31
0.0
  0
ARC
  5
1B9
330
1F
100
AcDbEntity
  8
0
  6
Continuous
 62
     7
370
    25
100
AcDbCircle
 10
172.3642293192
 20
125.7749651633
 30
0.0
 40
0.3999999999999915
100
AcDbArc
 50
70.0
 51
90.0
  0
LINE
  5
1BA
330
1F
100
AcDbEntity
  8
0
  6
Continuous
 62
     7
370
    25
100
AcDbLine
 10
163.1590033374
 20
126.1749651633
 30
0.0
 11
172.3642293192
 21
126.1749651633
 31
0.0
  0
ARC
  5
1BB
330
1F
100
AcDbEntity
  8
0
  6
Continuous
 62
     7
370
    25
100
AcDbCircle
 10
163.1590033374
 20
125.7749651633
 30
0.0
 40
0.4000000000000057
100
AcDbArc
 50
90.0
 51
180.0
  0
LINE
  5
1BC
330
1F
100
AcDbEntity
  8
0
  6
Continuous
 62
     7
370
    25
100
AcDbLine
 10
173.2590033374
 20
125.8749651633
 30
0.0
 11
173.2590033374
 21
117.8749651633
 31
0.0
  0
LINE
  5
1BD
330
1F
100
AcDbEntity
  8
0
  6
Continuous
 62
     7
370
    25
100
AcDbLine
 10
172.5010373766
 20
126.1508422116
 30
0.0
 11
173.2590033374
 21
125.8749651633
 31
0.0
  0
LINE
  5
1BE
330
1F
100
AcDbEntity
  8
0
  6
Continuous
 62
     7
370
    25
100
AcDbLine
 10
173.2590033374
 20
125.8749651633
 30
0.0
 11
208.7590033374
 21
125.8749651633
 31
0.0
  0
LINE
  5
1BF
330
1F
100
AcDbEntity
  8
0
  6
Continuous
 62
     7
370
    25
100
AcDbLine
 10
162.2590033374
 20
123.3749651633
 30
0.0
 11
162.7590033374
 21
123.8749651633
 31
0.0
  0
LINE
  5
1C0
330
1F
100
AcDbEntity
  8
0
  6
Continuous
 62
     7
370
    25
100
AcDbLine
 10
134.9840033374
 20
123.6249651633
 30
0.0
 11
135.8090033374
 21
123.6249651633
 31
0.0
  0
LINE
  5
1C1
330
1F
100
AcDbEntity
  8
0
  6
Continuous
 62
     7
370
    25
100
AcDbLine
 10
142.2590033374
 20
123.3749651633
 30
0.0
 11
142.2590033374
 21
117.8749651633
 31
0.0
  0
LINE
  5
1C2
330
1F
100
AcDbEntity
  8
0
  6
Continuous
 62
     7
370
    25
100
AcDbLine
 10
142.2590033374
 20
123.3749651633
 30
0.0
 11
162.2590033374
 21
123.3749651633
 31
0.0
  0
LINE
  5
1C3
330
1F
100
AcDbEntity
  8
0
  6
Continuous
 62
     7
370
    25
100
AcDbLine
 10
141.3577124088
 20
121.8749651633
 30
0.0
 11
141.3577124088
 21
117.8749651633
 31
0.0
  0
LINE
  5
1C4
330
1F
100
AcDbEntity
  8
0
  6
Continuous
 62
     7
370
    25
100
AcDbLine
 10
141.3577124088
 20
121.8749651633
 30
0.0
 11
142.2590033374
 21
123.3749651633
 31
0.0
  0
LINE
  5
1C5
330
1F
100
AcDbEntity
  8
0
  6
Continuous
 62
     7
370
    25
100
AcDbLine
 10
131.5590033374
 20
122.8749651633
 30
0.0
 11
131.5590033374
 21
117.8749651633
 31
0.0
  0
LINE
  5
1C6
330
1F
100
AcDbEntity
  8
0
  6
Continuous
 62
     7
370
    25
100
AcDbLine
 10
131.1590033374
 20
123.1059052709
 30
0.0
 11
131.5590033374
 21
122.8749651633
 31
0.0
  0
LINE
  5
1C7
330
1F
100
AcDbEntity
  8
0
  6
Continuous
 62
     7
370
    25
100
AcDbLine
 10
131.1590033374
 20
123.1059052709
 30
0.0
 11
131.1590033374
 21
117.8749651633
 31
0.0
  0
LINE
  5
1C8
330
1F
100
AcDbEntity
  8
0
  6
Continuous
 62
     7
370
    25
100
AcDbLine
 10
131.5590033374
 20
122.8749651633
 30
0.0
 11
134.9840033374
 21
122.8749651633
 31
0.0
  0
LINE
  5
1C9
330
1F
100
AcDbEntity
  8
0
  6
Continuous
 62
     7
370
    25
100
AcDbLine
 10
134.9840033374
 20
122.8749651633
 30
0.0
 11
134.9840033374
 21
117.8749651633
 31
0.0
  0
LINE
  5
1CA
330
1F
100
AcDbEntity
  8
0
  6
Continuous
 62
     7
370
    25
100
AcDbLine
 10
135.8090033374
 20
121.8749651633
 30
0.0
 11
141.3577124088
 21
121.8749651633
 31
0.0
  0
LINE
  5
1CB
330
1F
100
AcDbEntity
  8
0
  6
Continuous
 62
     7
370
    25
100
AcDbLine
 10
135.8090033374
 20
121.8749651633
 30
0.0
 11
135.8090033374
 21
117.8749651633
 31
0.0
  0
SPLINE
  5
1CC
330
1F
100
AcDbEntity
  8
0
  6
Continuous
 62
     7
370
    25
100
AcDbSpline
210
0.0
220
0.0
230
1.0
 70
     8
 71
     3
 72
    38
 73
    34
 74
     0
 42
0.000000001
 43
0.00000001
 40
0.0
 40
0.0
 40
0.0
 40
0.0
 40
0.1249999999999987
 40
0.1249999999999987
 40
0.2499999999999973
 40
0.2499999999999973
 40
0.3124999999999968
 40
0.3124999999999968
 40
0.3749999999999963
 40
0.3749999999999963
 40
0.4374999999999958
 40
0.4374999999999958
 40
0.4999999999999953
 40
0.4999999999999953
 40
0.5624999999999949
 40
0.5624999999999949
 40
0.6249999999999944
 40
0.6249999999999944
 40
0.687499999999994
 40
0.687499999999994
 40
0.7187499999999943
 40
0.7187499999999943
 40
0.7499999999999947
 40
0.7499999999999947
 40
0.781249999999995
 40
0.781249999999995
 40
0.8124999999999953
 40
0.8124999999999953
 40
0.8749999999999969
 40
0.8749999999999969
 40
0.9374999999999984
 40
0.9374999999999984
 40
1.0
 40
1.0
 40
1.0
 40
1.0
 10
102.6090033373615
 20
140.4110130481632
 30
0.0
 10
102.6090033373617
 20
140.4110130481632
 30
0.0
 10
102.6708090949252
 20
140.3883689655012
 30
0.0
 10
102.9204316403607
 20
140.2957845764452
 30
0.0
 10
103.1041592712989
 20
140.2273969964924
 30
0.0
 10
103.4605481078839
 20
140.0915548972906
 30
0.0
 10
103.5937085693895
 20
140.0403619122341
 30
0.0
 10
103.8847875800859
 20
139.9266733071217
 30
0.0
 10
104.0412775315952
 20
139.8647466996153
 30
0.0
 10
104.3746589728831
 20
139.7298615909248
 30
0.0
 10
104.5515627312462
 20
139.6569233366381
 30
0.0
 10
104.9248043787196
 20
139.4979474018422
 30
0.0
 10
105.1225483696007
 20
139.4113076319657
 30
0.0
 10
105.5285718028538
 20
139.2243899594133
 30
0.0
 10
105.7366251962408
 20
139.1243550456042
 30
0.0
 10
106.1589194689749
 20
138.9050914954252
 30
0.0
 10
106.37328477205
 20
138.7860883037606
 30
0.0
 10
106.8011270836294
 20
138.5158144534367
 30
0.0
 10
107.017528734736
 20
138.3625656279251
 30
0.0
 10
107.3161611776161
 20
138.0964971043418
 30
0.0
 10
107.4113537670858
 20
138.0017248580691
 30
0.0
 10
107.5889790189426
 20
137.7959680008792
 30
0.0
 10
107.671593329571
 20
137.6841094591086
 30
0.0
 10
107.8136736045926
 20
137.4505939548862
 30
0.0
 10
107.8740591538375
 20
137.3280328889304
 30
0.0
 10
107.9735096459923
 20
137.0715621257053
 30
0.0
 10
108.0128010850171
 20
136.9363221121555
 30
0.0
 10
108.0994976711702
 20
136.528040109191
 30
0.0
 10
108.1182059981649
 20
136.2517799314061
 30
0.0
 10
108.1147099775332
 20
135.6950321527704
 30
0.0
 10
108.0922303573246
 20
135.4168019087796
 30
0.0
 10
108.0266027095425
 20
134.8654160885949
 30
0.0
 10
107.983105165853
 20
134.5911624194925
 30
0.0
 10
107.933625618743
 20
134.3177329475309
 30
0.0
  0
SPLINE
  5
1CD
330
1F
100
AcDbEntity
  8
0
  6
Continuous
 62
     7
370
    25
100
AcDbSpline
210
0.0
220
0.0
230
1.0
 70
     8
 71
     3
 72
    14
 73
    10
 74
     0
 42
0.000000001
 43
0.00000001
 40
0.0
 40
0.0
 40
0.0
 40
0.0
 40
0.0003951392850831
 40
0.0003951392850831
 40
0.0003951392850831
 40
0.0008159035679249
 40
0.0008159035679249
 40
0.0008159035679249
 40
0.0012369936130997
 40
0.0012369936130997
 40
0.0012369936130997
 40
0.0012369936130997
 10
106.7368872870931
 20
134.0499381602596
 30
0.0
 10
106.8653965251998
 20
134.078812127973
 30
0.0
 10
106.9939600329288
 20
134.1075003414493
 30
0.0
 10
107.1225104112122
 20
134.1360031854868
 30
0.0
 10
107.2593956588758
 20
134.1663540791776
 30
0.0
 10
107.3962913047756
 20
134.1965000442065
 30
0.0
 10
107.5331115661247
 20
134.226451863775
 30
0.0
 10
107.6700375550696
 20
134.2564268285549
 30
0.0
 10
107.8069146270337
 20
134.2862128780001
 30
0.0
 10
107.9436514762209
 20
134.3158353511689
 30
0.0
  0
LINE
  5
1CE
330
1F
100
AcDbEntity
  8
0
  6
Continuous
 62
     7
370
    25
100
AcDbLine
 10
99.1790031821
 20
135.5124651633
 30
0.0
 11
102.6090033374
 21
140.4110130482
 31
0.0
  0
SPLINE
  5
1CF
330
1F
100
AcDbEntity
  8
0
  6
Continuous
 62
     7
370
    25
100
AcDbSpline
210
0.0
220
0.0
230
1.0
 70
     8
 71
     3
 72
    37
 73
    33
 74
     0
 42
0.000000001
 43
0.00000001
 40
0.0
 40
0.0
 40
0.0
 40
0.0
 40
0.011487854810281
 40
0.0231559765621668
 40
0.0350076484354384
 40
0.0470460033795345
 40
0.0592740307999962
 40
0.0716945830965846
 40
0.0843103820274723
 40
0.0971240248798081
 40
0.1101379904320609
 40
0.1233546446979499
 40
0.1811510010973325
 40
0.2483631736114498
 40
0.2888373415819317
 40
0.3232297457604679
 40
0.3515392131491989
 40
0.3737664266256227
 40
0.4399300285953869
 40
0.4987424063270026
 40
0.5023253005651624
 40
0.5613100074513696
 40
0.6252595444338096
 40
0.6818650083849733
 40
0.748389001698782
 40
0.7860781471964591
 40
0.8194856599799678
 40
0.848612771528161
 40
0.87346227277473
 40
0.9389926156604005
 40
0.9981523731393394
 40
0.9999999999999999
 40
0.9999999999999999
 40
0.9999999999999999
 40
0.9999999999999999
 10
117.1090033373615
 20
141.3386174666126
 30
0.0
 10
117.108076886083
 20
141.3381739496041
 30
0.0
 10
117.106209445691
 20
141.3372799559367
 30
0.0
 10
117.0909363853512
 20
141.3300879784784
 30
0.0
 10
117.0660346828873
 20
141.3186367348859
 30
0.0
 10
117.0301804109515
 20
141.3024869761114
 30
0.0
 10
116.9832129001138
 20
141.2817592965577
 30
0.0
 10
116.9246699896929
 20
141.256420777556
 30
0.0
 10
116.8541918501153
 20
141.2264803570015
 30
0.0
 10
116.7714172858378
 20
141.1919363829595
 30
0.0
 10
116.6760007407197
 20
141.1527866413449
 30
0.0
 10
116.4464319073312
 20
141.0600879701836
 30
0.0
 10
115.9620136933586
 20
140.8713650796691
 30
0.0
 10
115.1830137218132
 20
140.593275279698
 30
0.0
 10
114.391795270393
 20
140.3426884123686
 30
0.0
 10
113.7607447771502
 20
140.1676716510388
 30
0.0
 10
113.2077068208138
 20
140.0278370104398
 30
0.0
 10
112.4147488919174
 20
139.8474261650937
 30
0.0
 10
111.3444145515842
 20
139.6583598434516
 30
0.0
 10
110.363424272149
 20
139.5530730357418
 30
0.0
 10
109.4354570430293
 20
139.4960402637889
 30
0.0
 10
108.463001549269
 20
139.4814456654191
 30
0.0
 10
107.1368713438356
 20
139.5596388819103
 30
0.0
 10
105.8668358593418
 20
139.7201186035045
 30
0.0
 10
104.9070598586722
 20
139.9052301417181
 30
0.0
 10
104.2084082113274
 20
140.0727197454482
 30
0.0
 10
103.7646000731723
 20
140.1863429516565
 30
0.0
 10
103.4320630112423
 20
140.2795267865651
 30
0.0
 10
103.0449046009991
 20
140.3941916508236
 30
0.0
 10
102.7076566388873
 20
140.5015374598837
 30
0.0
 10
102.6099325725583
 20
140.5391030331705
 30
0.0
 10
102.6090306522864
 20
140.5392344419868
 30
0.0
 10
102.6090033373615
 20
140.5392384217421
 30
0.0
  0
LINE
  5
1D0
330
1F
100
AcDbEntity
  8
0
  6
Continuous
 62
     7
370
    25
100
AcDbLine
 10
117.1090033374
 20
141.3386174666
 30
0.0
 11
117.1090033374
 21
135.981191184
 31
0.0
  0
SPLINE
  5
1D1
330
1F
100
AcDbEntity
  8
0
  6
Continuous
 62
     7
370
    25
100
AcDbSpline
210
0.0
220
0.0
230
1.0
 70
     8
 71
     3
 72
    30
 73
    26
 74
     0
 42
0.000000001
 43
0.00000001
 40
0.0
 40
0.0
 40
0.0
 40
0.0
 40
0.0192411700742051
 40
0.0381353539376955
 40
0.0566868884861275
 40
0.0749003554931352
 40
0.0927805967284104
 40
0.1103327298326379
 40
0.1275621649289889
 40
0.1444746219341813
 40
0.2455865830531962
 40
0.3577720192516776
 40
0.4505017408956409
 40
0.5720127868619803
 40
0.6168069840199889
 40
0.6590088499432717
 40
0.6986242498774651
 40
0.7356603299341523
 40
0.7701258931915048
 40
0.8073679165907838
 40
0.84839503248914
 40
0.8881367798820048
 40
0.9266264622110454
 40
0.9639007443615101
 40
0.9999999999999999
 40
0.9999999999999999
 40
0.9999999999999999
 40
0.9999999999999999
 10
107.9381847467495
 20
134.3170998736673
 30
0.0
 10
108.0212172266291
 20
134.3059727683424
 30
0.0
 10
108.1857848177019
 20
134.2839192186763
 30
0.0
 10
108.4336663333825
 20
134.2558673294136
 30
0.0
 10
108.6789430088248
 20
134.2319157988877
 30
0.0
 10
108.9215008424361
 20
134.2123858466944
 30
0.0
 10
109.160935519545
 20
134.1971935545177
 30
0.0
 10
109.3969487149521
 20
134.1863619932869
 30
0.0
 10
109.6292667602629
 20
134.1798814280338
 30
0.0
 10
110.2378175298869
 20
134.1742499364476
 30
0.0
 10
111.2761300271069
 20
134.2342233359323
 30
0.0
 10
112.5914815552082
 20
134.4336458091071
 30
0.0
 10
113.8710267680998
 20
134.7391271697909
 30
0.0
 10
114.7624673121899
 20
135.0190699727099
 30
0.0
 10
115.380132181051
 20
135.2465190692252
 30
0.0
 10
115.7234552663343
 20
135.3767977297253
 30
0.0
 10
116.0151463512298
 20
135.4928886676832
 30
0.0
 10
116.2596917070556
 20
135.5942568970866
 30
0.0
 10
116.472046387495
 20
135.6855949496041
 30
0.0
 10
116.6631093621196
 20
135.7696700335513
 30
0.0
 10
116.8283567662921
 20
135.8446629875166
 30
0.0
 10
116.9578973165362
 20
135.9056514870623
 30
0.0
 10
117.0462636857587
 20
135.9488891488277
 30
0.0
 10
117.0994095310224
 20
135.9761192347066
 30
0.0
 10
117.1058397269636
 20
135.9795186808365
 30
0.0
 10
117.1090033373615
 20
135.9811911840109
 30
0.0
  0
LINE
  5
1D2
330
1F
100
AcDbEntity
  8
0
  6
Continuous
 62
     7
370
    25
100
AcDbLine
 10
102.6090033374
 20
140.4110130482
 30
0.0
 11
102.6090033374
 21
140.5392384216
 31
0.0
  0
LINE
  5
1D3
330
1F
100
AcDbEntity
  8
0
  6
Continuous
 62
     7
370
    25
100
AcDbLine
 10
93.0606693872
 20
136.8105413746
 30
0.0
 11
95.3090033374
 21
135.5124651633
 31
0.0
  0
LINE
  5
1D4
330
1F
100
AcDbEntity
  8
0
  6
Continuous
 62
     7
370
    25
100
AcDbLine
 10
92.3090033374
 20
138.1124651633
 30
0.0
 11
93.0606693872
 21
136.8105413746
 31
0.0
  0
LINE
  5
1D5
330
1F
100
AcDbEntity
  8
0
  6
Continuous
 62
     7
370
    25
100
AcDbLine
 10
92.3090033374
 20
140.0780598871
 30
0.0
 11
92.3090033374
 21
138.1124651633
 31
0.0
  0
LINE
  5
1D6
330
1F
100
AcDbEntity
  8
0
  6
Continuous
 62
     7
370
    25
100
AcDbLine
 10
93.8090033374
 20
140.9440852908
 30
0.0
 11
92.3090033374
 21
140.0780598871
 31
0.0
  0
LINE
  5
1D7
330
1F
100
AcDbEntity
  8
0
  6
Continuous
 62
     7
370
    25
100
AcDbLine
 10
101.859441489
 20
141.3483508729
 30
0.0
 11
102.6090314679
 21
140.5392395351
 31
0.0
  0
LINE
  5
1D8
330
1F
100
AcDbEntity
  8
0
  6
Continuous
 62
     7
370
    25
100
AcDbLine
 10
117.1090162855
 20
141.3386177224
 30
0.0
 11
117.7773464314
 21
142.1477295448
 31
0.0
  0
LINE
  5
1D9
330
1F
100
AcDbEntity
  8
0
  6
Continuous
 62
     7
370
    25
100
AcDbLine
 10
143.0340033374
 20
145.7249651633
 30
0.0
 11
141.2840033374
 21
145.7249651633
 31
0.0
  0
ARC
  5
1DA
330
1F
100
AcDbEntity
  8
0
  6
Continuous
 62
     7
370
    25
100
AcDbCircle
 10
143.0340033374
 20
146.7249651633
 30
0.0
 40
1.0
100
AcDbArc
 50
270.0
 51
0.0
  0
LINE
  5
1DB
330
1F
100
AcDbEntity
  8
0
  6
Continuous
 62
     7
370
    25
100
AcDbLine
 10
144.0340033374
 20
146.8225604275
 30
0.0
 11
144.0340033374
 21
146.7249651633
 31
0.0
  0
LINE
  5
1DC
330
1F
100
AcDbEntity
  8
0
  6
Continuous
 62
     7
370
    25
100
AcDbLine
 10
145.4932011419
 20
149.3499651633
 30
0.0
 11
144.0340033374
 21
146.8225604275
 31
0.0
  0
LINE
  5
1DD
330
1F
100
AcDbEntity
  8
0
  6
Continuous
 62
     7
370
    25
100
AcDbLine
 10
117.7349524791
 20
135.5124664536
 30
0.0
 11
117.1090064656
 21
135.9811913089
 31
0.0
  0
LINE
  5
1DE
330
1F
100
AcDbEntity
  8
0
  6
Continuous
 62
     7
370
    25
100
AcDbLine
 10
140.2840033374
 20
146.8225604275
 30
0.0
 11
138.8248055328
 21
149.3499651633
 31
0.0
  0
LINE
  5
1DF
330
1F
100
AcDbEntity
  8
0
  6
Continuous
 62
     7
370
    25
100
AcDbLine
 10
140.2840033374
 20
146.7249651633
 30
0.0
 11
140.2840033374
 21
146.8225604275
 31
0.0
  0
ARC
  5
1E0
330
1F
100
AcDbEntity
  8
0
  6
Continuous
 62
     7
370
    25
100
AcDbCircle
 10
141.2840033374
 20
146.7249651633
 30
0.0
 40
1.0
100
AcDbArc
 50
180.0
 51
270.0
  0
LINE
  5
1E1
330
1F
100
AcDbEntity
  8
0
  6
Continuous
 62
     7
370
    25
100
AcDbLine
 10
135.8090033374
 20
123.6249651633
 30
0.0
 11
135.8090033374
 21
121.8749651633
 31
0.0
  0
LINE
  5
1E2
330
1F
100
AcDbEntity
  8
0
  6
Continuous
 62
     7
370
    25
100
AcDbLine
 10
134.9840033374
 20
122.8749651633
 30
0.0
 11
134.9840033374
 21
123.6249651633
 31
0.0
  0
LINE
  5
1E3
330
1F
100
AcDbEntity
  8
0
  6
Continuous
 62
     7
370
    25
100
AcDbLine
 10
162.7590033374
 20
123.8749651633
 30
0.0
 11
162.7590033374
 21
125.7749651633
 31
0.0
  0
LINE
  5
1E4
330
1F
100
AcDbEntity
  8
0
  6
Continuous
 62
     7
370
    25
100
AcDbLine
 10
212.2590033374
 20
126.9116594113
 30
0.0
 11
212.2590033374
 21
129.5261841799
 31
0.0
  0
LINE
  5
1E5
330
1F
100
AcDbEntity
  8
0
  6
Continuous
 62
     7
370
    25
100
AcDbLine
 10
131.1590033374
 20
132.2249651633
 30
0.0
 11
131.1590033374
 21
123.1059052709
 31
0.0
  0
LINE
  5
1E6
330
1F
100
AcDbEntity
  8
0
  6
Continuous
 62
     7
370
    25
100
AcDbLine
 10
126.2590033374
 20
135.3249651633
 30
0.0
 11
126.2590033374
 21
133.4249651633
 31
0.0
  0
LINE
  5
1E7
330
1F
100
AcDbEntity
  8
0
  6
Continuous
 62
     7
370
    25
100
AcDbLine
 10
132.2590033374
 20
149.1499651633
 30
0.0
 11
132.2590033374
 21
144.7249651633
 31
0.0
  0
LINE
  5
1E8
330
1F
100
AcDbEntity
  8
0
  6
Continuous
 62
     7
370
    25
100
AcDbLine
 10
150.2590033374
 20
137.8749651633
 30
0.0
 11
150.2590033374
 21
149.3499651633
 31
0.0
  0
SPLINE
  5
1E9
330
1F
100
AcDbEntity
  8
0
  6
Continuous
 62
     7
370
    25
100
AcDbSpline
210
0.0
220
0.0
230
1.0
 70
     8
 71
     3
 72
     9
 73
     5
 74
     0
 42
0.000000001
 43
0.00000001
 40
0.0
 40
0.0
 40
0.0
 40
0.0
 40
0.5102121239851395
 40
0.9999999999999999
 40
0.9999999999999999
 40
0.9999999999999999
 40
0.9999999999999999
 10
93.11336673403264
 20
128.3365916799111
 30
0.0
 10
93.48822879101142
 20
128.3341017625294
 30
0.0
 10
94.22294684132123
 20
128.3292216013874
 30
0.0
 10
94.95194743177795
 20
128.323836710001
 30
0.0
 10
95.30900308259136
 20
128.3211992554864
 30
0.0
  0
LINE
  5
1EA
330
1F
100
AcDbEntity
  8
0
  6
Continuous
 62
     7
370
    25
100
AcDbLine
 10
93.0606693872
 20
128.3670159708
 30
0.0
 11
93.1133667359
 21
128.3365911424
 31
0.0
  0
LINE
  5
1EB
330
1F
100
AcDbEntity
  8
0
  6
Continuous
 62
     7
370
    25
100
AcDbLine
 10
93.0606693872
 20
136.8105413746
 30
0.0
 11
93.0606693872
 21
128.3670159708
 31
0.0
  0
SPLINE
  5
1EC
330
1F
100
AcDbEntity
  8
0
  6
Continuous
 62
     7
370
    25
100
AcDbSpline
210
0.0
220
0.0
230
1.0
 70
    24
 71
     3
 72
     8
 73
     4
 74
     0
 42
0.000000001
 43
0.00000001
 40
0.0000004089325119
 40
0.0000004089325119
 40
0.0000004089325119
 40
0.0000004089325119
 40
0.0015399868451459
 40
0.0015399868451459
 40
0.0015399868451459
 40
0.0015399868451459
 10
92.30900333736156
 20
128.8009905670437
 30
0.0
 10
92.559994413386
 20
128.6560808017368
 30
0.0
 10
92.81058360988895
 20
128.5114030616798
 30
0.0
 10
93.06066938720109
 20
128.3670159708282
 30
0.0
  0
LINE
  5
1ED
330
1F
100
AcDbEntity
  8
0
  6
Continuous
 62
     7
370
    25
100
AcDbLine
 10
92.3090033374
 20
138.1124651633
 30
0.0
 11
92.3090033374
 21
128.800990567
 31
0.0
  0
SPLINE
  5
1EE
330
1F
100
AcDbEntity
  8
0
  6
Continuous
 62
     7
370
    25
100
AcDbSpline
210
0.0
220
0.0
230
1.0
 70
     8
 71
     3
 72
     8
 73
     4
 74
     0
 42
0.000000001
 43
0.00000001
 40
0.0
 40
0.0
 40
0.0
 40
0.0
 40
1.0
 40
1.0
 40
1.0
 40
1.0
 10
95.43868508011832
 20
127.9349658409958
 30
0.0
 10
95.41073685999879
 20
128.0427821949714
 30
0.0
 10
95.38277677183008
 20
128.1503760451376
 30
0.0
 10
95.35480458429585
 20
128.2577453259223
 30
0.0
  0
LINE
  5
1EF
330
1F
100
AcDbEntity
  8
0
  6
Continuous
 62
     7
370
    25
100
AcDbLine
 10
95.4386882187
 20
127.9349651633
 30
0.0
 11
93.8090025506
 21
127.9349651633
 31
0.0
  0
LINE
  5
1F0
330
1F
100
AcDbEntity
  8
0
  6
Continuous
 62
     7
370
    25
100
AcDbLine
 10
93.8090027505
 20
127.9349655021
 30
0.0
 11
93.1133662725
 21
128.3365914099
 31
0.0
  0
LINE
  5
1F1
330
1F
100
AcDbEntity
  8
0
  6
Continuous
 62
     7
370
    25
100
AcDbLine
 10
101.8629642346
 20
125.9374651633
 30
0.0
 11
101.6107926066
 21
125.9374651633
 31
0.0
  0
SPLINE
  5
1F2
330
1F
100
AcDbEntity
  8
0
  6
Continuous
 62
     7
370
    25
100
AcDbSpline
210
0.0
220
0.0
230
1.0
 70
     8
 71
     3
 72
    26
 73
    22
 74
     0
 42
0.000000001
 43
0.00000001
 40
0.0
 40
0.0
 40
0.0
 40
0.0
 40
0.0524616379932503
 40
0.1026498591890872
 40
0.150565513457809
 40
0.1962095861957063
 40
0.2395832262568645
 40
0.2806877815599511
 40
0.3195248450380211
 40
0.3560963147430692
 40
0.3904044736547445
 40
0.4224520974433627
 40
0.4522426027417772
 40
0.4797802555366611
 40
0.5050704712281336
 40
0.5966394156799991
 40
0.6841917884819224
 40
0.7679874773571101
 40
0.8483228539139507
 40
0.925534163520116
 40
1.0
 40
1.0
 40
1.0
 40
1.0
 10
101.6089861126922
 20
125.9374949472947
 30
0.0
 10
101.5733497136609
 20
125.9970418673769
 30
0.0
 10
101.5036212133224
 20
126.1135552511635
 30
0.0
 10
101.3901430525626
 20
126.2779532118928
 30
0.0
 10
101.2746175028376
 20
126.4301149496943
 30
0.0
 10
101.1574958068274
 20
126.5700176466268
 30
0.0
 10
101.040124106348
 20
126.6982319705309
 30
0.0
 10
100.9235031403144
 20
126.8152476494712
 30
0.0
 10
100.8086002198694
 20
126.9216248047153
 30
0.0
 10
100.69627599418
 20
127.0179408851896
 30
0.0
 10
100.5873070201452
 20
127.1047902317421
 30
0.0
 10
100.4823879793085
 20
127.1827704139359
 30
0.0
 10
100.3821306533598
 20
127.2524786109889
 30
0.0
 10
100.2870933107767
 20
127.31448859989
 30
0.0
 10
100.1169864063459
 20
127.4189750371558
 30
0.0
 10
99.86406737494079
 20
127.5540337036703
 30
0.0
 10
99.51808621787967
 20
127.6984205960873
 30
0.0
 10
99.17012766855532
 20
127.8073885083323
 30
0.0
 10
98.82398790817926
 20
127.8819180906691
 30
0.0
 10
98.48292312474514
 20
127.9268467952185
 30
0.0
 10
98.25717651322948
 20
127.9322918940729
 30
0.0
 10
98.14634630121142
 20
127.9349651632593
 30
0.0
  0
SPLINE
  5
1F3
330
1F
100
AcDbEntity
  8
0
  6
Continuous
 62
     7
370
    25
100
AcDbSpline
210
0.0
220
0.0
230
1.0
 70
     8
 71
     3
 72
     8
 73
     4
 74
     0
 42
0.000000001
 43
0.00000001
 40
0.0
 40
0.0
 40
0.0
 40
0.0
 40
1.0
 40
1.0
 40
1.0
 40
1.0
 10
101.862964234594
 20
125.9374651632591
 30
0.0
 10
101.8919689410216
 20
126.0614028901215
 30
0.0
 10
101.9110014607031
 20
126.1893550203548
 30
0.0
 10
101.9192530528947
 20
126.3204243330462
 30
0.0
  0
LINE
  5
1F4
330
1F
100
AcDbEntity
  8
0
  6
Continuous
 62
     7
370
    25
100
AcDbLine
 10
98.1463463012
 20
127.9349651633
 30
0.0
 11
95.4386882187
 21
127.9349651633
 31
0.0
  0
LINE
  5
1F5
330
1F
100
AcDbEntity
  8
0
  6
Continuous
 62
     7
370
    25
100
AcDbLine
 10
114.9090033374
 20
121.9377385741
 30
0.0
 11
114.2590033374
 21
122.0874651633
 31
0.0
  0
SPLINE
  5
1F6
330
1F
100
AcDbEntity
  8
0
  6
Continuous
 62
     7
370
    25
100
AcDbSpline
210
0.0
220
0.0
230
1.0
 70
     8
 71
     3
 72
    26
 73
    22
 74
     0
 42
0.000000001
 43
0.00000001
 40
0.0
 40
0.0
 40
0.0
 40
0.0
 40
0.0305951740572542
 40
0.0629166281868252
 40
0.0969720532897518
 40
0.1327680143285475
 40
0.1703101548822826
 40
0.2096033578521445
 40
0.2506518729756858
 40
0.3342141733898277
 40
0.4179517165474626
 40
0.5018670561020881
 40
0.5659795686746639
 40
0.6277136397870199
 40
0.687135819210908
 40
0.7443207393864881
 40
0.7993521466017559
 40
0.8523240127975756
 40
0.903341702807647
 40
0.9525231537633125
 40
1.0
 40
1.0
 40
1.0
 40
1.0
 10
114.2590033373615
 20
122.0874651632593
 30
0.0
 10
114.2580951255169
 20
122.1520003306465
 30
0.0
 10
114.2562274575364
 20
122.2847119512399
 30
0.0
 10
114.2406348684748
 20
122.4875260427635
 30
0.0
 10
114.2139910072877
 20
122.6992390836639
 30
0.0
 10
114.1738365782093
 20
122.9189510770368
 30
0.0
 10
114.1189384615261
 20
123.1456979479081
 30
0.0
 10
114.0476954929144
 20
123.3783289516911
 30
0.0
 10
113.9292830986318
 20
123.6937272661678
 30
0.0
 10
113.7411522022239
 20
124.0782091647027
 30
0.0
 10
113.4571354389893
 20
124.5082367792323
 30
0.0
 10
113.1477174824396
 20
124.8667234915731
 30
0.0
 10
112.831807871638
 20
125.1584901478626
 30
0.0
 10
112.5250624635147
 20
125.3909492346998
 30
0.0
 10
112.2066433496926
 20
125.5877594692637
 30
0.0
 10
111.8806724735355
 20
125.749860171522
 30
0.0
 10
111.5511336384103
 20
125.8783300550017
 30
0.0
 10
111.2215717235637
 20
125.9749138743746
 30
0.0
 10
110.8951534002645
 20
126.0407661036608
 30
0.0
 10
110.5746352079606
 20
126.0803310514863
 30
0.0
 10
110.3629696944298
 20
126.0851152497016
 30
0.0
 10
110.2590033373615
 20
126.0874651632593
 30
0.0
  0
SPLINE
  5
1F7
330
1F
100
AcDbEntity
  8
0
  6
Continuous
 62
     7
370
    25
100
AcDbSpline
210
0.0
220
0.0
230
1.0
 70
     8
 71
     3
 72
    13
 73
     9
 74
     0
 42
0.000000001
 43
0.00000001
 40
0.0
 40
0.0
 40
0.0
 40
0.0
 40
0.1604061687300809
 40
0.3231296684563272
 40
0.4883154213007764
 40
0.6561019685773533
 40
0.8266215117792448
 40
1.0
 40
1.0
 40
1.0
 40
1.0
 10
108.3441300580721
 20
126.0874651632593
 30
0.0
 10
108.2850801065569
 20
126.0867095932213
 30
0.0
 10
108.1661271298322
 20
126.0851875376931
 30
0.0
 10
107.9868734962264
 20
126.0727424785656
 30
0.0
 10
107.8059405145387
 20
126.0525582974349
 30
0.0
 10
107.62381202014
 20
126.0234229312943
 30
0.0
 10
107.4406450123456
 20
125.9860067794751
 30
0.0
 10
107.3199056974713
 20
125.9537409071181
 30
0.0
 10
107.2590341658864
 20
125.9374738521796
 30
0.0
  0
SPLINE
  5
1F8
330
1F
100
AcDbEntity
  8
0
  6
Continuous
 62
     7
370
    25
100
AcDbSpline
210
0.0
220
0.0
230
1.0
 70
    24
 71
     3
 72
    10
 73
     6
 74
     0
 42
0.000000001
 43
0.00000001
 40
0.0
 40
0.0
 40
0.0
 40
0.0
 40
0.3216623556917455
 40
0.6548175346390357
 40
1.0
 40
1.0
 40
1.0
 40
1.0
 10
107.2591821722663
 20
125.9374651632593
 30
0.0
 10
107.190636264409
 20
125.9374651632593
 30
0.0
 10
107.0510953402118
 20
125.9374651632593
 30
0.0
 10
106.8414869248612
 20
125.9374651632593
 30
0.0
 10
106.7018099297074
 20
125.9374651632593
 30
0.0
 10
106.6307331585066
 20
125.9374651632593
 30
0.0
  0
SPLINE
  5
1F9
330
1F
100
AcDbEntity
  8
0
  6
Continuous
 62
     7
370
    25
100
AcDbSpline
210
0.0
220
0.0
230
1.0
 70
     8
 71
     3
 72
     8
 73
     4
 74
     0
 42
0.000000001
 43
0.00000001
 40
0.0
 40
0.0
 40
0.0
 40
0.0
 40
1.0
 40
1.0
 40
1.0
 40
1.0
 10
107.3453334537602
 20
126.3159115124422
 30
0.0
 10
107.0760371237037
 20
126.219222127249
 30
0.0
 10
106.8398764382899
 20
126.0912229578721
 30
0.0
 10
106.630678922106
 20
125.9377463602275
 30
0.0
  0
SPLINE
  5
1FA
330
1F
100
AcDbEntity
  8
0
  6
Continuous
 62
     7
370
    25
100
AcDbSpline
210
0.0
220
0.0
230
1.0
 70
     8
 71
     3
 72
    13
 73
     9
 74
     0
 42
0.000000001
 43
0.00000001
 40
0.0
 40
0.0
 40
0.0
 40
0.0
 40
0.1729721449870872
 40
0.3432476269514002
 40
0.5109528657483393
 40
0.6762201802332181
 40
0.8391878283027183
 40
1.0
 40
1.0
 40
1.0
 40
1.0
 10
107.2590302067463
 20
109.812457590195
 30
0.0
 10
107.3197572067276
 20
109.7962270519848
 30
0.0
 10
107.4402644631821
 20
109.7640190122152
 30
0.0
 10
107.6231638319469
 20
109.7266286272804
 30
0.0
 10
107.8051993242173
 20
109.6974726939562
 30
0.0
 10
107.9862181900422
 20
109.6772441718982
 30
0.0
 10
108.1657384606791
 20
109.6647533653056
 30
0.0
 10
108.2849306889231
 20
109.6632245046162
 30
0.0
 10
108.3441300580721
 20
109.6624651632593
 30
0.0
  0
LINE
  5
1FB
330
1F
100
AcDbEntity
  8
0
  6
Continuous
 62
     7
370
    25
100
AcDbLine
 10
106.6312246337
 20
109.8124651633
 30
0.0
 11
106.7843843633
 21
109.8124651633
 31
0.0
  0
LINE
  5
1FC
330
1F
100
AcDbEntity
  8
0
  6
Continuous
 62
     7
370
    25
100
AcDbLine
 10
110.2590033374
 20
126.0874651633
 30
0.0
 11
108.3441300581
 21
126.0874651633
 31
0.0
  0
LINE
  5
1FD
330
1F
100
AcDbEntity
  8
0
  6
Continuous
 62
     7
370
    25
100
AcDbLine
 10
106.6310915193
 20
125.9374651633
 30
0.0
 11
101.8629642346
 21
125.9374651633
 31
0.0
  0
LINE
  5
1FE
330
1F
100
AcDbEntity
  8
0
  6
Continuous
 62
     7
370
    25
100
AcDbLine
 10
114.2590033374
 20
117.8749651633
 30
0.0
 11
114.2590033374
 21
122.0874651633
 31
0.0
  0
LINE
  5
1FF
330
1F
100
AcDbEntity
  8
VERMASSUNG
  6
CENTERX2
100
AcDbLine
 10
224.2540033374
 20
117.8749651633
 30
0.0
 11
80.3140033374
 21
117.8749651633
 31
0.0
  0
HATCH
  5
200
330
1F
100
AcDbEntity
  8
0
  6
Continuous
 62
     7
370
    18
100
AcDbHatch
 10
0.0
 20
0.0
 30
0.0
210
0.0
220
0.0
230
1.0
  2
ANSI31
 70
     0
 71
     0
 91
        1
 92
        0
 93
       50
 72
     2
 10
141.2840033373616
 20
146.7249651632593
 40
1.000000000000003
 50
90.0
 51
180.0
 73
     0
 72
     1
 10
140.2840033373616
 20
146.7249651632593
 11
140.2840033373616
 21
146.822560427451
 72
     1
 10
140.2840033373616
 20
146.822560427451
 11
138.8248055327915
 21
149.3499651632593
 72
     1
 10
138.8248055327915
 20
149.3499651632593
 11
132.4590033373615
 21
149.3499651632593
 72
     2
 10
132.4590033373615
 20
149.1499651632593
 40
0.2000000000000028
 50
90.0
 51
180.0
 73
     1
 72
     1
 10
132.2590033373615
 20
149.1499651632593
 11
132.2590033373615
 21
144.7249651632593
 72
     1
 10
132.2590033373615
 20
144.7249651632593
 11
132.5930420233902
 21
143.6655298028627
 72
     2
 10
131.8300684627916
 20
143.4249651632593
 40
0.8000000000000049
 50
342.500000000002
 51
467.5000000000015
 73
     0
 72
     1
 10
131.5895038231882
 20
142.6619916026607
 11
131.0988212973308
 21
142.8167032087876
 72
     1
 10
131.0988212973308
 20
142.8167032087876
 11
117.7773480248113
 21
142.1477262357614
 72
     1
 10
117.7773464314127
 20
142.1477295448299
 11
117.1090162854832
 21
141.3386177224387
 72
     1
 10
117.1090162854832
 20
141.3386177224387
 11
117.1090033373615
 21
135.9811911840109
 72
     1
 10
117.1090064655952
 20
135.9811913088914
 11
117.7349524791374
 21
135.5124664535514
 72
     1
 10
117.7349527274463
 20
135.5124651632593
 11
122.7590033373616
 21
135.5124651632593
 72
     1
 10
122.7590033373616
 20
135.5124651632593
 11
123.6342438109424
 21
136.0177854862868
 72
     2
 10
124.0342438109424
 20
135.3249651632593
 40
0.7999999999999918
 50
239.9999999999993
 51
270.0000000000008
 73
     0
 72
     1
 10
124.0342438109424
 20
136.1249651632593
 11
125.4590033373615
 21
136.1249651632593
 72
     2
 10
125.4590033373615
 20
135.3249651632593
 40
0.7999999999999977
 50
270.0000000000008
 51
360.0000000000008
 73
     0
 72
     1
 10
126.2590033373616
 20
135.3249651632593
 11
126.2590033373615
 21
133.4249651632593
 72
     1
 10
126.2590033373615
 20
133.4249651632593
 11
129.9590033373615
 21
133.4249651632593
 72
     2
 10
129.9590033373615
 20
132.2249651632593
 40
1.2
 50
270.0000000000008
 51
360.0000000000008
 73
     0
 72
     1
 10
131.1590033373616
 20
132.2249651632593
 11
131.1590033373616
 21
123.1059052709352
 72
     1
 10
131.1590033373616
 20
123.1059052709352
 11
131.5590033373615
 21
122.8749651632593
 72
     1
 10
131.5590033373615
 20
122.8749651632593
 11
134.9840033373615
 21
122.8749651632593
 72
     1
 10
134.9840033373615
 20
122.8749651632593
 11
134.9840033373615
 21
123.6249651632593
 72
     1
 10
134.9840033373615
 20
123.6249651632593
 11
135.8090033373615
 21
123.6249651632593
 72
     1
 10
135.8090033373615
 20
123.6249651632593
 11
135.8090033373615
 21
121.8749651632593
 72
     1
 10
135.8090033373615
 20
121.8749651632593
 11
141.3577124088202
 21
121.8749651632593
 72
     1
 10
141.3577124088202
 20
121.8749651632593
 11
142.2590033373615
 21
123.3749651632593
 72
     1
 10
142.2590033373615
 20
123.3749651632593
 11
162.2590033373615
 21
123.3749651632593
 72
     1
 10
162.2590033373615
 20
123.3749651632593
 11
162.7590033373615
 21
123.8749651632593
 72
     1
 10
162.7590033373615
 20
123.8749651632593
 11
162.7590033373615
 21
125.7749651632593
 72
     2
 10
163.1590033373616
 20
125.7749651632593
 40
0.400000000000001
 50
180.0
 51
270.0000000000008
 73
     0
 72
     1
 10
163.1590033373616
 20
126.1749651632593
 11
172.3642293192418
 21
126.1749651632593
 72
     2
 10
172.3642293192418
 20
125.7749651632593
 40
0.3999999999999996
 50
270.0000000000008
 51
289.9999999999986
 73
     0
 72
     1
 10
172.501037376572
 20
126.1508422115737
 11
173.2590033373615
 21
125.8749651632593
 72
     1
 10
173.2590033373615
 20
125.8749651632593
 11
208.7590033373615
 21
125.8749651632593
 72
     1
 10
208.7590033373615
 20
125.8749651632593
 11
211.845827426195
 21
126.4192555348214
 72
     2
 10
211.7590033373615
 20
126.9116594113275
 40
0.5000000000000016
 50
280.0000000000029
 51
360.0000000000008
 73
     1
 72
     1
 10
212.2590033373615
 20
126.9116594113275
 11
212.2590033373615
 21
129.5261841799428
 72
     2
 10
210.2590033373615
 20
129.5261841799428
 40
1.999999999999993
 50
0.0
 51
85.49999999999963
 73
     1
 72
     1
 10
210.4159215288173
 20
131.5200188474091
 11
167.78728676075
 21
134.8749651632593
 72
     1
 10
167.78728676075
 20
134.8749651632593
 11
153.2590033373615
 21
134.8749651632593
 72
     2
 10
153.2590033373615
 20
137.8749651632593
 40
3.0
 50
90.0
 51
180.0
 73
     0
 72
     1
 10
150.2590033373615
 20
137.8749651632593
 11
150.2590033373615
 21
149.3499651632593
 72
     1
 10
150.2590033373615
 20
149.3499651632593
 11
145.4932011419316
 21
149.3499651632593
 72
     1
 10
145.4932011419316
 20
149.3499651632593
 11
144.0340033373616
 21
146.822560427451
 72
     1
 10
144.0340033373616
 20
146.822560427451
 11
144.0340033373616
 21
146.7249651632593
 72
     2
 10
143.0340033373616
 20
146.7249651632593
 40
1.000000000000003
 50
0.0
 51
90.0
 73
     0
 72
     1
 10
143.0340033373616
 20
145.7249651632593
 11
141.2840033373616
 21
145.7249651632593
 97
        0
 75
     0
 76
     1
 52
0.0
 41
1.0
 77
     0
 78
     1
 53
45.0
 43
0.0
 44
0.0
 45
-2.245064030267288
 46
2.245064030267288
 79
     0
 98
        1
 10
0.0
 20
0.0
  0
HATCH
  5
201
330
1F
100
AcDbEntity
  8
0
  6
Continuous
 62
     7
370
    18
100
AcDbHatch
 10
0.0
 20
0.0
 30
0.0
210
0.0
220
0.0
230
1.0
  2
ANSI31
 70
     0
 71
     0
 91
        1
 92
        0
 93
        9
 72
     1
 10
102.6090314679497
 20
140.5392395351422
 11
101.859441489014
 21
141.3483508729098
 72
     1
 10
101.859441489014
 20
141.3483508729098
 11
93.80900333736156
 21
140.9440852908417
 72
     1
 10
93.80900333736156
 20
140.9440852908417
 11
92.30900333736156
 21
140.0780598870573
 72
     1
 10
92.30900333736156
 20
140.0780598870573
 11
92.30900333736156
 21
138.1124651632593
 72
     1
 10
92.30900333736156
 20
138.1124651632593
 11
93.06066938720109
 21
136.8105413746127
 72
     1
 10
93.06066938720109
 20
136.8105413746127
 11
95.30900333736156
 21
135.5124651632593
 72
     1
 10
95.30900333736156
 20
135.5124651632593
 11
99.1790031820705
 21
135.5124651632593
 72
     1
 10
99.1790031820705
 20
135.5124651632593
 11
102.6090033373616
 21
140.4110130481633
 72
     1
 10
102.6090033373615
 20
140.4110130481633
 11
102.6090033373615
 21
140.539238421649
 97
        0
 75
     0
 76
     1
 52
0.0
 41
1.0
 77
     0
 78
     1
 53
45.0
 43
0.0
 44
0.0
 45
-2.245064030267288
 46
2.245064030267288
 79
     0
 98
        1
 10
0.0
 20
0.0
  0
HATCH
  5
202
330
1F
100
AcDbEntity
  8
0
  6
Continuous
 62
     7
370
    18
100
AcDbHatch
 10
0.0
 20
0.0
 30
0.0
210
0.0
220
0.0
230
1.0
  2
ANSI31
 70
     0
 71
     0
 91
        1
 92
        0
 93
       12
 72
     1
 10
163.2590033373615
 20
123.3749651632593
 11
162.7590033373615
 21
123.8749651632593
 72
     1
 10
162.7590033373615
 20
123.8749651632593
 11
147.7590033373615
 21
123.8749651632593
 72
     1
 10
147.7590033373615
 20
123.8749651632593
 11
147.2590033373615
 21
123.3749651632593
 72
     1
 10
147.2590033373615
 20
123.3749651632593
 11
147.2590033373615
 21
121.5749651632593
 72
     1
 10
147.2590033373615
 20
121.5749651632593
 11
147.7739454772119
 21
121.0600230234091
 72
     1
 10
147.7739454772119
 20
121.0600230234091
 11
154.2590033372947
 21
121.0600230234091
 72
     1
 10
154.2590033372947
 20
121.0600230234091
 11
154.2590033372947
 21
120.8749651632593
 72
     1
 10
154.2590033372947
 20
120.8749651632593
 11
160.2590033373615
 21
120.8749651632593
 72
     1
 10
160.2590033373615
 20
120.8749651632593
 11
160.2590033373615
 21
121.0600230234091
 72
     1
 10
160.2590033373615
 20
121.0600230234091
 11
165.2590033373615
 21
121.0600230234091
 72
     1
 10
165.2590033373615
 20
121.0600230234091
 11
165.2590033373615
 21
123.3749651632593
 72
     1
 10
165.2590033373615
 20
123.3749651632593
 11
163.2590033373615
 21
123.3749651632593
 97
        0
 75
     0
 76
     1
 52
0.0
 41
1.0
 77
     0
 78
     1
 53
45.0
 43
0.0
 44
0.0
 45
-2.245064030267288
 46
2.245064030267288
 79
     0
 98
        1
 10
0.0
 20
0.0
  0
POINT
  5
203
330
1F
100
AcDbEntity
  8
VERMASSUNG
100
AcDbPoint
 10
212.2590033374
 20
104.3749651633
 30
0.0
  0
POINT
  5
204
330
1F
100
AcDbEntity
  8
VERMASSUNG
100
AcDbPoint
 10
212.2590033374
 20
131.3749651633
 30
0.0
  0
DIMENSION
  5
205
330
1F
100
AcDbEntity
  8
VERMASSUNG
100
AcDbDimension
  2
_D
 10
239.3156928834
 20
104.3749651633
 30
0.0
 11
239.3156928834
 21
117.8749651633
 31
0.0
 70
   160
  1
%%c<>
 71
     2
 42
-1.0
  3
SLDDIMSTYLE0
100
AcDbAlignedDimension
 13
212.2590033374
 23
131.3749651633
 33
0.0
 14
212.2590033374
 24
104.3749651633
 34
0.0
 50
90.0
100
AcDbRotatedDimension
  0
DIMENSION
  5
211
330
1F
100
AcDbEntity
  8
VERMASSUNG
100
AcDbDimension
  2
_D_1
 10
231.4379693517
 20
109.8749651633
 30
0.0
 11
231.4379693517
 21
117.8749651633
 31
0.0
 70
   160
  1
%%c<>
 71
     2
 42
-1.0
  3
SLDDIMSTYLE1
100
AcDbAlignedDimension
 13
208.7590033374
 23
125.8749651633
 33
0.0
 14
208.7590033374
 24
109.8749651633
 34
0.0
 50
90.0
100
AcDbRotatedDimension
  0
DIMENSION
  5
21B
330
1F
100
AcDbEntity
  8
VERMASSUNG
100
AcDbDimension
  2
_D_2
 10
246.2590033374
 20
100.8749651633
 30
0.0
 11
246.2590033374
 21
117.8749651633
 31
0.0
 70
   160
  1
%%c<>
 71
     2
 42
-1.0
  3
SLDDIMSTYLE0
100
AcDbAlignedDimension
 13
167.7872867608
 23
134.8749651633
 33
0.0
 14
167.7872867608
 24
100.8749651633
 34
0.0
 50
90.0
100
AcDbRotatedDimension
  0
DIMENSION
  5
226
330
1F
100
AcDbEntity
  8
VERMASSUNG
100
AcDbDimension
  2
_D_3
 10
167.7872867608
 20
87.5630638919
 30
0.0
 11
190.0231450491
 21
87.5630638919
 31
0.0
 70
   160
  1
<>
 71
     2
 42
-1.0
  3
SLDDIMSTYLE2
100
AcDbAlignedDimension
 13
212.2590033374
 23
108.8382709152
 33
0.0
 14
167.7872867608
 24
100.8749651633
 34
0.0
100
AcDbRotatedDimension
  0
DIMENSION
  5
231
330
1F
100
AcDbEntity
  8
VERMASSUNG
100
AcDbDimension
  2
_D_4
 10
150.2590033374
 20
79.6759380607
 30
0.0
 11
181.2590033374
 21
79.6759380607
 31
0.0
 70
   160
  1
<>
 71
     2
 42
-1.0
  3
SLDDIMSTYLE0
100
AcDbAlignedDimension
 13
212.2590033374
 23
106.2237461466
 33
0.0
 14
150.2590033374
 24
86.3999651633
 34
0.0
 50
0.0
100
AcDbRotatedDimension
  0
DIMENSION
  5
23B
330
1F
100
AcDbEntity
  8
VERMASSUNG
100
AcDbDimension
  2
_D_5
 10
212.2590033374
 20
160.3066282191
 30
0.0
 11
172.2590033374
 21
160.3066282191
 31
0.0
 70
   160
  1
<>
 71
     2
 42
-1.0
  3
SLDDIMSTYLE0
100
AcDbAlignedDimension
 13
132.2590033374
 23
149.1499651633
 33
0.0
 14
212.2590033374
 24
129.5261841799
 34
0.0
 50
0.0
100
AcDbRotatedDimension
  0
DIMENSION
  5
245
330
1F
100
AcDbEntity
  8
VERMASSUNG
100
AcDbDimension
  2
_D_6
 10
212.2590033374
 20
153.2143631781
 30
0.0
 11
187.5090033374
 21
153.2143631781
 31
0.0
 70
   160
  1
<> max.
 71
     2
 42
-1.0
  3
SLDDIMSTYLE0
100
AcDbAlignedDimension
 13
162.7590033374
 23
125.7749651633
 33
0.0
 14
212.2590033374
 24
129.5261841799
 34
0.0
100
AcDbRotatedDimension
  0
DIMENSION
  5
250
330
1F
100
AcDbEntity
  8
VERMASSUNG
100
AcDbDimension
  2
_D_7
 10
212.2590033374
 20
146.5346282396
 30
0.0
 11
192.7590033374
 21
146.5346282396
 31
0.0
 70
   160
  1
<> min.
 71
     2
 42
-1.0
  3
SLDDIMSTYLE0
100
AcDbAlignedDimension
 13
173.2590033374
 23
125.8749651633
 33
0.0
 14
212.2590033374
 24
129.5261841799
 34
0.0
100
AcDbRotatedDimension
  0
DIMENSION
  5
25B
330
1F
100
AcDbEntity
  8
VERMASSUNG
100
AcDbDimension
  2
_D_8
 10
92.3090033374
 20
167.7473890467
 30
0.0
 11
152.2840033374
 21
167.7473890467
 31
0.0
 70
   160
  1
<>
 71
     2
 42
-1.0
  3
SLDDIMSTYLE0
100
AcDbAlignedDimension
 13
212.2590033374
 23
129.5261841799
 33
0.0
 14
92.3090033374
 24
140.0780598871
 34
0.0
 50
0.0
100
AcDbRotatedDimension
  0
DIMENSION
  5
265
330
1F
100
AcDbEntity
  8
VERMASSUNG
100
AcDbDimension
  2
_D_9
 10
74.8859524689
 20
149.3499651633
 30
0.0
 11
74.8859524689
 21
117.8749651633
 31
0.0
 70
   160
  1
KM%%c<> XMZ
 71
     2
 42
-1.0
  3
SLDDIMSTYLE0
100
AcDbAlignedDimension
 13
132.4590033374
 23
86.3999651633
 33
0.0
 14
132.4590033374
 24
149.3499651633
 34
0.0
 50
90.0
100
AcDbRotatedDimension
  0
LINE
  5
272
330
1F
100
AcDbEntity
  8
0
  6
Continuous
 62
     7
370
    25
100
AcDbLine
 10
254.2624744087
 20
30.6047610198
 30
0.0
 11
270.1246575069
 21
23.381641969
 31
0.0
  0
LINE
  5
273
330
1F
100
AcDbEntity
  8
0
  6
Continuous
 62
     7
370
    25
100
AcDbLine
 10
276.9360561221
 20
35.180609125
 30
0.0
 11
262.7486099889
 21
45.3047721312
 31
0.0
  0
SPLINE
  5
274
330
1F
100
AcDbEntity
  8
0
  6
Continuous
 62
     7
370
    25
100
AcDbSpline
210
0.0
220
0.0
230
1.0
 70
     8
 71
     3
 72
    32
 73
    28
 74
     0
 42
0.000000001
 43
0.00000001
 40
0.0
 40
0.0
 40
0.0
 40
0.0
 40
0.022542090860687
 40
0.0601752792657488
 40
0.0982428092346008
 40
0.1372608516777027
 40
0.1774687430943131
 40
0.2187674639842252
 40
0.2608026843515694
 40
0.3031701730593288
 40
0.345534846216307
 40
0.3877847134335939
 40
0.4299085727252486
 40
0.4719388422484797
 40
0.5139270659928598
 40
0.5559329086405308
 40
0.5980019517535253
 40
0.6401961109363671
 40
0.6825789734213089
 40
0.72520434763149
 40
0.7680951735618339
 40
0.8111995430984327
 40
0.8542176197880598
 40
0.8966689263368721
 40
0.9380073675041248
 40
0.9779253766588306
 40
1.0
 40
1.0
 40
1.0
 40
1.0
 10
270.1353842091272
 20
23.39040179934356
 30
0.0
 10
270.2351143382773
 20
23.34380136241073
 30
0.0
 10
270.5013402358618
 20
23.21940321657459
 30
0.0
 10
270.9783963815499
 20
23.12254907920511
 30
0.0
 10
271.5486685567327
 20
23.08993843880112
 30
0.0
 10
272.1435130154537
 20
23.15571153142337
 30
0.0
 10
272.756308100377
 20
23.31529551095172
 30
0.0
 10
273.3807847895636
 20
23.57044689325485
 30
0.0
 10
274.0067366174356
 20
23.91821072910058
 30
0.0
 10
274.6225207157222
 20
24.35248872433413
 30
0.0
 10
275.2171328415108
 20
24.86443971846663
 30
0.0
 10
275.7812208405079
 20
25.4442510317533
 30
0.0
 10
276.3071155450263
 20
26.0821847475354
 30
0.0
 10
276.787935374658
 20
26.7684708502989
 30
0.0
 10
277.2173489723589
 20
27.4931659983458
 30
0.0
 10
277.5894135901428
 20
28.24607338593901
 30
0.0
 10
277.8986612684603
 20
29.01688428247476
 30
0.0
 10
278.1400846234528
 20
29.79534604777931
 30
0.0
 10
278.3091255321028
 20
30.57145162975255
 30
0.0
 10
278.4014403109166
 20
31.33538165610744
 30
0.0
 10
278.4127576762343
 20
32.07713103610404
 30
0.0
 10
278.3390712187048
 20
32.78549186303756
 30
0.0
 10
278.1772135606494
 20
33.44665698438472
 30
0.0
 10
277.9285674329697
 20
34.04686946080382
 30
0.0
 10
277.5943680030911
 20
34.56504867651994
 30
0.0
 10
277.2541131925157
 20
34.94822142336324
 30
0.0
 10
277.0039912867932
 20
35.11868701556719
 30
0.0
 10
276.9149267216036
 20
35.17938719216934
 30
0.0
  0
SPLINE
  5
275
330
1F
100
AcDbEntity
  8
0
  6
Continuous
 62
     7
370
    25
100
AcDbSpline
210
0.0
220
0.0
230
1.0
 70
     8
 71
     3
 72
    13
 73
     9
 74
     0
 42
0.000000001
 43
0.00000001
 40
0.0
 40
0.0
 40
0.0
 40
0.0
 40
0.0408632814445977
 40
0.2808596227771206
 40
0.5144620273990111
 40
0.7423199949849343
 40
0.9545340927394759
 40
1.0
 40
1.0
 40
1.0
 40
1.0
 10
271.504013058557
 20
25.55300228791911
 30
0.0
 10
271.4869810424448
 20
25.56434258491952
 30
0.0
 10
271.3699173742496
 20
25.64228619162756
 30
0.0
 10
271.2045718846193
 20
25.87084193313122
 30
0.0
 10
271.0188410836446
 20
26.24019065398201
 30
0.0
 10
270.9075416563908
 20
26.67808111114442
 30
0.0
 10
270.8723871457898
 20
27.03533789811609
 30
0.0
 10
270.8706859067042
 20
27.23667598686989
 30
0.0
 10
270.8703857344867
 20
27.27220074118972
 30
0.0
  0
SPLINE
  5
276
330
1F
100
AcDbEntity
  8
0
  6
Continuous
 62
     7
370
    25
100
AcDbSpline
210
0.0
220
0.0
230
1.0
 70
     8
 71
     3
 72
    18
 73
    14
 74
     0
 42
0.000000001
 43
0.00000001
 40
0.0
 40
0.0
 40
0.0
 40
0.0
 40
0.014449629587692
 40
0.1204976778445392
 40
0.2264526770556969
 40
0.332227521346135
 40
0.4377439751482822
 40
0.5429481388341126
 40
0.6478598570483557
 40
0.7526596937759054
 40
0.8577228554265625
 40
0.9640381728419811
 40
1.0
 40
1.0
 40
1.0
 40
1.0
 10
271.8519524151716
 20
30.42367912109711
 30
0.0
 10
271.8666300845005
 20
30.4501245241649
 30
0.0
 10
271.9890294207304
 20
30.67065679732744
 30
0.0
 10
272.2663587767999
 20
31.05511076844012
 30
0.0
 10
272.6756991479727
 20
31.55765105944289
 30
0.0
 10
273.1175949403292
 20
31.99697395117693
 30
0.0
 10
273.5741046937877
 20
32.36607320479387
 30
0.0
 10
274.0346846386551
 20
32.65570179689995
 30
0.0
 10
274.4860962119047
 20
32.85975463015811
 30
0.0
 10
274.917398487162
 20
32.97711429336377
 30
0.0
 10
275.3139555904163
 20
33.0008350053718
 30
0.0
 10
275.6000590560838
 20
32.96942099934893
 30
0.0
 10
275.7368203974195
 20
32.90345613754646
 30
0.0
 10
275.7713880557301
 20
32.88678292579657
 30
0.0
  0
SPLINE
  5
277
330
1F
100
AcDbEntity
  8
0
  6
Continuous
 62
     7
370
    25
100
AcDbSpline
210
0.0
220
0.0
230
1.0
 70
     8
 71
     3
 72
    13
 73
     9
 74
     0
 42
0.000000001
 43
0.00000001
 40
0.0
 40
0.0
 40
0.0
 40
0.0
 40
0.0966078168396658
 40
0.281668712340881
 40
0.4671600502901708
 40
0.6529939074650822
 40
0.8391084206746119
 40
0.9999999999999999
 40
0.9999999999999999
 40
0.9999999999999999
 40
0.9999999999999999
 10
270.8703857344867
 20
27.27220074118972
 30
0.0
 10
270.8722960800747
 20
27.36551546436737
 30
0.0
 10
270.8778658631368
 20
27.63758286822472
 30
0.0
 10
270.9406937668817
 20
28.11983509253223
 30
0.0
 10
271.0812763040468
 20
28.71616290332863
 30
0.0
 10
271.2911631511449
 20
29.32286457518705
 30
0.0
 10
271.5461679390221
 20
29.9002384546187
 30
0.0
 10
271.7550861564217
 20
30.25786383943934
 30
0.0
 10
271.8519524151716
 20
30.42367912109711
 30
0.0
  0
LINE
  5
278
330
1F
100
AcDbEntity
  8
0
  6
Continuous
 62
     7
370
    25
100
AcDbLine
 10
242.5187288939
 20
29.0121495611
 30
0.0
 11
244.2036940429
 21
28.0394398853
 31
0.0
  0
LINE
  5
279
330
1F
100
AcDbEntity
  8
0
  6
Continuous
 62
     7
370
    25
100
AcDbLine
 10
259.9399153575
 20
55.2983282791
 30
0.0
 11
258.2549502084
 21
56.2710379549
 31
0.0
  0
LINE
  5
27A
330
1F
100
AcDbEntity
  8
0
  6
Continuous
 62
     7
370
    25
100
AcDbLine
 10
237.9104439625
 20
31.6724558258
 30
0.0
 11
240.1610949389
 21
30.3731826729
 31
0.0
  0
LINE
  5
27B
330
1F
100
AcDbEntity
  8
0
  6
Continuous
 62
     7
370
    25
100
AcDbLine
 10
255.8973162535
 20
57.6320710667
 30
0.0
 11
253.6466652771
 21
58.9313442196
 31
0.0
  0
LINE
  5
27C
330
1F
100
AcDbEntity
  8
0
  6
Continuous
 62
     7
370
    25
100
AcDbLine
 10
248.8828104935
 20
33.6951625948
 30
0.0
 11
254.019334508
 21
30.7299103985
 31
0.0
  0
LINE
  5
27D
330
1F
100
AcDbEntity
  8
0
  6
Continuous
 62
     7
370
    25
100
AcDbLine
 10
262.5186436125
 20
45.4527410047
 30
0.0
 11
257.3821195981
 21
48.4179932011
 31
0.0
  0
LINE
  5
27E
330
1F
100
AcDbEntity
  8
0
  6
Continuous
 62
     7
370
    25
100
AcDbLine
 10
246.8692760868
 20
58.7112261272
 30
0.0
 11
237.6720639032
 21
63.2918787371
 31
0.0
  0
LINE
  5
27F
330
1F
100
AcDbEntity
  8
0
  6
Continuous
 62
     7
370
    25
100
AcDbLine
 10
226.1457161136
 20
43.3254952814
 30
0.0
 11
234.7118161192
 21
37.651605685
 31
0.0
  0
LINE
  5
280
330
1F
100
AcDbEntity
  8
0
  6
Continuous
 62
     7
370
    25
100
AcDbLine
 10
231.1251535553
 20
44.2719851471
 30
0.0
 11
231.1251535553
 21
43.9066664421
 31
0.0
  0
LINE
  5
281
330
1F
100
AcDbEntity
  8
0
  6
Continuous
 62
     7
370
    25
100
AcDbLine
 10
235.0231203156
 20
63.6688471138
 30
0.0
 11
234.3835702068
 21
63.5816353583
 31
0.0
  0
LWPOLYLINE
  5
282
330
1F
100
AcDbEntity
  8
0
  6
Continuous
 62
     7
370
    25
100
AcDbPolyline
 90
       22
 70
   128
 43
0.0
 10
252.2585810935
 20
34.6215910378
 10
252.2992218508
 20
35.4508066074
 10
252.4205929207
 20
36.3157303118
 10
252.6210532104
 20
37.2046656254
 10
252.8978924799
 20
38.1055917853
 10
253.2473665745
 20
39.0063250063
 10
253.6647497787
 20
39.8946846372
 10
254.1443970491
 20
40.7586568448
 10
254.6798223808
 20
41.5865577253
 10
255.2637850769
 20
42.3671916628
 10
255.8883882009
 20
43.0900020823
 10
256.5451847672
 20
43.7452137407
 10
257.2252927388
 20
44.3239664152
 10
257.9195149245
 20
44.8184327876
 10
258.618463196
 20
45.2219270361
 10
259.3126853817
 20
45.5289925382
 10
259.9927933534
 20
45.7354758136
 10
260.6495899196
 20
45.8385853292
 10
261.2741930436
 20
45.8369263266
 10
261.8581557397
 20
45.7305213666
 10
262.3935810714
 20
45.5208094156
 10
262.7486099889
 20
45.3047721312
  0
LWPOLYLINE
  5
283
330
1F
100
AcDbEntity
  8
0
  6
Continuous
 62
     7
370
    25
100
AcDbPolyline
 90
        9
 70
   128
 43
0.0
 10
254.2624744087
 20
30.6047610198
 10
254.1443970491
 20
30.6618419876
 10
253.6647497787
 20
30.9720252445
 10
253.2473665745
 20
31.3784844854
 10
252.8978924799
 20
31.8757235054
 10
252.6210532104
 20
32.4570178482
 10
252.4205929207
 20
33.1145066378
 10
252.2992218508
 20
33.8392982877
 10
252.2585810935
 20
34.6215910378
  0
LINE
  5
284
330
1F
100
AcDbEntity
  8
0
  6
Continuous
 62
     7
370
    25
100
AcDbLine
 10
275.6988925128
 20
32.9236724031
 30
0.0
 11
275.7859720178
 21
32.892822614
 31
0.0
  0
LWPOLYLINE
  5
285
330
1F
100
AcDbEntity
  8
0
  6
Continuous
 62
     7
370
    25
100
AcDbPolyline
 90
        3
 70
   128
 43
0.0
 10
271.5049799665
 20
25.5427440002
 10
271.4621510305
 20
25.5800923553
 10
271.4604337111
 20
25.5816509901
  0
LWPOLYLINE
  5
286
330
1F
100
AcDbEntity
  8
0
  6
Continuous
 62
     7
370
    25
100
AcDbPolyline
 90
       19
 70
   128
 43
0.0
 10
275.0041576914
 20
33.0074652605
 10
275.0980569186
 20
32.9106886875
 10
275.3320211541
 20
32.5621209252
 10
275.4918398634
 20
32.1320470535
 10
275.572915418
 20
31.6328395222
 10
275.572915418
 20
31.0788595114
 10
275.4918398634
 20
30.4860441371
 10
275.3320211541
 20
29.8714475114
 10
275.0980569186
 20
29.2527503927
 10
274.7966779758
 20
28.6477519243
 10
274.4365543934
 20
28.0738562919
 10
274.0280463111
 20
27.5475740264
 10
273.5829057028
 20
27.0840447938
 10
273.1139384603
 20
26.6966035349
 10
272.6346359688
 20
26.3963964848
 10
272.1587868642
 20
26.192059895
 10
271.7000804448
 20
26.0894724572
 10
271.2717128005
 20
26.0915849612
 10
271.055692915
 20
26.1368536286
  0
LWPOLYLINE
  5
287
330
1F
100
AcDbEntity
  8
0
  6
Continuous
 62
     7
370
    25
100
AcDbPolyline
 90
       41
 70
   128
 43
0.0
 10
240.9437117018
 20
35.2447727353
 10
240.9849062949
 20
36.3732283093
 10
241.1081838512
 20
37.5408905909
 10
241.3126322864
 20
38.7391152939
 10
241.5967382653
 20
39.9590311903
 10
241.9583977382
 20
41.1916060795
 10
242.3949330631
 20
42.4277142779
 10
242.9031127621
 20
43.6582046782
 10
243.4791745705
 20
44.873967288
 10
244.1188530954
 20
46.0659997677
 10
244.8174120848
 20
47.2254781502
 10
245.5696799886
 20
48.3438169146
 10
246.3700881545
 20
49.4127374238
 10
247.2127093526
 20
50.4243243858
 10
248.0913055201
 20
51.3710899175
 10
248.9993718836
 20
52.2460233517
 10
249.9301855269
 20
53.0426466507
 10
250.8768551109
 20
53.7550636416
 10
251.8323715613
 20
54.3779984035
 10
252.78966069
 20
54.9068393334
 10
253.7416351793
 20
55.3376714371
 10
254.6812466479
 20
55.6673041054
 10
255.6015387256
 20
55.8932971903
 10
256.4956979462
 20
56.0139782177
 10
257.3571044557
 20
56.0284534095
 10
258.1793802505
 20
55.936614998
 10
258.9564377453
 20
55.7391434084
 10
259.6825238951
 20
55.4375000296
 10
260.3522623426
 20
55.0339188457
 10
260.9606955648
 20
54.5313881806
 10
261.5033191172
 20
53.9336278808
 10
261.9761145613
 20
53.2450634571
 10
262.3755817329
 20
52.4707926206
 10
262.6987637673
 20
51.6165491588
 10
262.9432668551
 20
50.6886557847
 10
263.1072819746
 20
49.6939836404
 10
263.1895941112
 20
48.6398963546
 10
263.1895941112
 20
47.5341982349
 10
263.1072819746
 20
46.3850753791
 10
262.9432668551
 20
45.2010354086
 10
262.937894449
 20
45.169698948
  0
LWPOLYLINE
  5
288
330
1F
100
AcDbEntity
  8
0
  6
Continuous
 62
     7
370
    25
100
AcDbPolyline
 90
       22
 70
   128
 43
0.0
 10
254.4741022961
 20
30.5083925407
 10
253.7416351793
 20
29.9280419611
 10
252.78966069
 20
29.259747715
 10
251.8323715613
 20
28.683326143
 10
250.8768551109
 20
28.2030450939
 10
249.9301855269
 20
27.8224606483
 10
248.9993718836
 20
27.5443893902
 10
248.0913055201
 20
27.3708917176
 10
247.2127093526
 20
27.3032517066
 10
246.3700881545
 20
27.3419689413
 10
245.5696799886
 20
27.4867578529
 10
244.8174120848
 20
27.7365465831
 10
244.1188530954
 20
28.0894859242
 10
243.4791745705
 20
28.5429612996
 10
242.9031127621
 20
29.0936171027
 10
242.3949330631
 20
29.7373757115
 10
241.9583977382
 20
30.4694709519
 10
241.5967382653
 20
31.2844827018
 10
241.3126322864
 20
32.1763768171
 10
241.1081838512
 20
33.1385503813
 10
240.9849062949
 20
34.1638794261
 10
240.9437117018
 20
35.2447727353
  0
SPLINE
  5
289
330
1F
100
AcDbEntity
  8
0
  6
Continuous
 62
     7
370
    25
100
AcDbSpline
210
0.0
220
0.0
230
1.0
 70
     8
 71
     3
 72
    25
 73
    21
 74
     0
 42
0.000000001
 43
0.00000001
 40
0.0
 40
0.0
 40
0.0
 40
0.0
 40
0.1249999999999998
 40
0.1249999999999998
 40
0.2499999999999997
 40
0.2499999999999997
 40
0.3749999999999995
 40
0.3749999999999995
 40
0.4999999999999993
 40
0.4999999999999993
 40
0.5624999999999996
 40
0.5624999999999996
 40
0.6249999999999998
 40
0.6875000000000001
 40
0.6875000000000001
 40
0.7500000000000003
 40
0.7500000000000003
 40
0.8750000000000001
 40
0.8750000000000001
 40
1.0
 40
1.0
 40
1.0
 40
1.0
 10
245.777300850288
 20
51.67658718970935
 30
0.0
 10
245.8064241485491
 20
51.56540166918017
 30
0.0
 10
245.8188131894084
 20
51.45015945675213
 30
0.0
 10
245.8118357043081
 20
51.21106388891634
 30
0.0
 10
245.791818116456
 20
51.08628991904107
 30
0.0
 10
245.7215959587428
 20
50.83992100982865
 30
0.0
 10
245.6709453041491
 20
50.71570986246753
 30
0.0
 10
245.5410305604939
 20
50.47208136715737
 30
0.0
 10
245.4633296125047
 20
50.3550242720992
 30
0.0
 10
245.3279560302785
 20
50.18636775424918
 30
0.0
 10
245.2793215329714
 20
50.13100073297701
 30
0.0
 10
245.1778821975894
 20
50.02528092157999
 30
0.0
 10
245.0720122148487
 20
49.92411996295955
 30
0.0
 10
244.9574204225212
 20
49.83194564128274
 30
0.0
 10
244.838337753303
 20
49.74440879854262
 30
0.0
 10
244.7763797402455
 20
49.70291032903044
 30
0.0
 10
244.588516036725
 20
49.58879000729234
 30
0.0
 10
244.459138600371
 20
49.52518257617774
 30
0.0
 10
244.191455347309
 20
49.42391427520351
 30
0.0
 10
244.0555836608439
 20
49.38737336697871
 30
0.0
 10
243.9200663941162
 20
49.36620518262865
 30
0.0
  0
LWPOLYLINE
  5
28A
330
1F
100
AcDbEntity
  8
0
  6
Continuous
 62
     7
370
    25
100
AcDbPolyline
 90
       15
 70
   128
 43
0.0
 10
245.777300962
 20
51.6765872222
 10
246.6822497758
 20
52.6203169849
 10
247.615679981
 20
53.4873297193
 10
248.5704147597
 20
54.2709598811
 10
249.5391143862
 20
54.9651832493
 10
250.5143313601
 20
55.56466016
 10
251.4885682141
 20
56.064785609
 10
252.4543349303
 20
56.4617125114
 10
253.4042065223
 20
56.7523887449
 10
254.3308803902
 20
56.9345803745
 10
255.2272322347
 20
57.0068872012
 10
256.0863710462
 20
56.9687524521
 10
256.9016912939
 20
56.8204693352
 10
257.6669252806
 20
56.5631785625
 10
258.2549502084
 20
56.2710379549
  0
LWPOLYLINE
  5
28B
330
1F
100
AcDbEntity
  8
0
  6
Continuous
 62
     7
370
    25
100
AcDbPolyline
 90
       21
 70
   128
 43
0.0
 10
242.5187288939
 20
29.0121495611
 10
241.8925689706
 20
29.4363557327
 10
241.3000224762
 20
29.9780084416
 10
240.7762148574
 20
30.615457055
 10
240.3251092353
 20
31.3438810071
 10
239.9501175288
 20
32.1577685229
 10
239.6540767478
 20
33.0509633891
 10
239.4392259435
 20
34.0167081125
 10
239.3071904038
 20
35.0476976291
 10
239.2589704579
 20
36.1361335239
 10
239.2949283051
 20
37.2737806033
 10
239.4147946008
 20
38.4520343618
 10
239.6176605536
 20
39.661980608
 10
239.9019924133
 20
40.8944665546
 10
240.2656393735
 20
42.1401695084
 10
240.7058500353
 20
43.3896653111
 10
241.2192947977
 20
44.6335021016
 10
241.8020895651
 20
45.8622710369
 10
242.449825382
 20
47.066675872
 10
243.1576020189
 20
48.237606341
 10
243.9200661673
 20
49.3662046942
  0
LWPOLYLINE
  5
28C
330
1F
100
AcDbEntity
  8
0
  6
Continuous
 62
     7
370
    25
100
AcDbPolyline
 90
       12
 70
   128
 43
0.0
 10
244.1146795696
 20
51.8008637028
 10
244.985838794
 20
52.7308103944
 10
245.8874329821
 20
53.5835761822
 10
246.8117528826
 20
54.3518687603
 10
247.7508946443
 20
55.0291184709
 10
248.6968278007
 20
55.6095342813
 10
249.6414635626
 20
56.0881538547
 10
250.5767244392
 20
56.4608829812
 10
251.4946131587
 20
56.724536125
 10
252.387280776
 20
56.8768574917
 10
253.2470939371
 20
56.9165454098
 10
253.9152301458
 20
56.8657503358
  0
SPLINE
  5
28D
330
1F
100
AcDbEntity
  8
0
  6
Continuous
 62
     7
370
    25
100
AcDbSpline
210
0.0
220
0.0
230
1.0
 70
     8
 71
     3
 72
    26
 73
    22
 74
     0
 42
0.000000001
 43
0.00000001
 40
0.0
 40
0.0
 40
0.0
 40
0.0
 40
0.1250000000000009
 40
0.1250000000000009
 40
0.2500000000000019
 40
0.2500000000000019
 40
0.3125000000000011
 40
0.3125000000000011
 40
0.3750000000000004
 40
0.3750000000000004
 40
0.4375000000000002
 40
0.4375000000000002
 40
0.5000000000000001
 40
0.5000000000000001
 40
0.5625
 40
0.5625
 40
0.6249999999999999
 40
0.6249999999999999
 40
0.7500000000000001
 40
0.7500000000000001
 40
1.0
 40
1.0
 40
1.0
 40
1.0
 10
242.7704863646605
 20
50.12870041658417
 30
0.0
 10
242.7468487684285
 20
50.23827627615717
 30
0.0
 10
242.7292809895467
 20
50.3491655345217
 30
0.0
 10
242.7104684066773
 20
50.57449549438464
 30
0.0
 10
242.7092886319099
 20
50.69017240770301
 30
0.0
 10
242.7253866351453
 20
50.86152791756257
 30
0.0
 10
242.7337053522455
 20
50.91832642965673
 30
0.0
 10
242.7574625015024
 20
51.03115264205382
 30
0.0
 10
242.7730848805514
 20
51.08760549571997
 30
0.0
 10
242.8119420929485
 20
51.19618861212857
 30
0.0
 10
242.8351680496509
 20
51.24856857235412
 30
0.0
 10
242.8901666991293
 20
51.34902534762622
 30
0.0
 10
242.9222449661519
 20
51.39730421539767
 30
0.0
 10
242.992659714687
 20
51.48500119098141
 30
0.0
 10
243.0312381368137
 20
51.52499031895736
 30
0.0
 10
243.1149464004099
 20
51.59746900307297
 30
0.0
 10
243.1600751103518
 20
51.62980562744958
 30
0.0
 10
243.2993557525419
 20
51.71300539480323
 30
0.0
 10
243.4001448241035
 20
51.75183411743932
 30
0.0
 10
243.7032170953362
 20
51.82725040489449
 30
0.0
 10
243.9117411858213
 20
51.82712025852373
 30
0.0
 10
244.1146796055117
 20
51.80086402919751
 30
0.0
  0
LWPOLYLINE
  5
28E
330
1F
100
AcDbEntity
  8
0
  6
Continuous
 62
     7
370
    25
100
AcDbPolyline
 90
       18
 70
   128
 43
0.0
 10
239.8335077357
 20
32.4728491265
 10
239.5069816123
 20
32.942216169
 10
239.1071081187
 20
33.6852567338
 10
238.7857298377
 20
34.5116290614
 10
238.545519143
 20
35.4144596474
 10
238.3884740585
 20
36.3862403491
 10
238.3159011367
 20
37.4188890582
 10
238.3284029456
 20
38.5038167414
 10
238.4258760939
 20
39.63200054
 10
238.6075105717
 20
40.7940576773
 10
238.8717943609
 20
41.9803228594
 10
239.2165298985
 20
43.1809302372
 10
239.6388511988
 20
44.3858950116
 10
240.1352442682
 20
45.5851953719
 10
240.7015813498
 20
46.7688555731
 10
241.3331525333
 20
47.9270333858
 10
242.0247046091
 20
49.0500953789
 10
242.770486508
 20
50.1287001855
  0
LINE
  5
28F
330
1F
100
AcDbEntity
  8
0
  6
Continuous
 62
     7
370
    25
100
AcDbLine
 10
241.2950940937
 20
29.8847792415
 30
0.0
 11
241.4132973999
 21
29.940641693
 31
0.0
  0
LWPOLYLINE
  5
290
330
1F
100
AcDbEntity
  8
0
  6
Continuous
 62
     7
370
    25
100
AcDbPolyline
 90
       41
 70
   128
 43
0.0
 10
241.2950940937
 20
29.8847792415
 10
240.5587451863
 20
30.1657344298
 10
239.8776567242
 20
30.5490438787
 10
239.2568678899
 20
31.0318743911
 10
238.7009700558
 20
31.6106528815
 10
238.2140764909
 20
32.2810983183
 10
237.7997881166
 20
33.0382517654
 10
237.461169799
 20
33.8765113655
 10
237.2007259828
 20
34.7896770197
 10
237.0203842278
 20
35.7709937356
 10
236.9214774281
 20
36.8132019619
 10
236.9047385438
 20
37.9085929361
 10
236.9702887471
 20
39.0490622276
 10
237.1176466418
 20
40.2261754689
 10
237.3457197027
 20
41.4312236799
 10
237.6528220559
 20
42.6552933482
 10
238.0366817227
 20
43.8893300453
 10
238.4944584007
 20
45.1242043007
 10
239.0227665126
 20
46.3507821318
 10
239.6176982553
 20
47.5599900623
 10
240.2748519172
 20
48.7428831801
 10
240.9893667815
 20
49.8907109147
 10
241.7559580284
 20
50.9949835739
 10
242.568953614
 20
52.0475308964
 10
243.4223403685
 20
53.0405682077
 10
244.3098058134
 20
53.9667486977
 10
245.2247842601
 20
54.8192219723
 10
246.1605081758
 20
55.5916819576
 10
247.1100553524
 20
56.2784146623
 10
248.0664016589
 20
56.8743392773
 10
249.0224728841
 20
57.37504723
 10
249.9711965508
 20
57.7768366578
 10
250.9055548099
 20
58.0767345793
 10
251.8186359898
 20
58.272521329
 10
252.703685235
 20
58.3627499044
 10
253.5541562836
 20
58.3467522829
 10
254.3637577308
 20
58.2246471167
 10
255.1265004436
 20
57.9973374472
 10
255.8367426711
 20
57.6665048068
 10
256.4892298867
 20
57.234596478
 10
256.9873542696
 20
56.7977687503
  0
LWPOLYLINE
  5
291
330
1F
100
AcDbEntity
  8
0
  6
Continuous
 62
     7
370
    25
100
AcDbPolyline
 90
       27
 70
   128
 43
0.0
 10
234.650461503
 20
38.9594294166
 10
234.6913939955
 20
40.0807142304
 10
234.8138885423
 20
41.2409573194
 10
235.0170383278
 20
42.4315681996
 10
235.2993385776
 20
43.6437321068
 10
235.6586997302
 20
44.8684748241
 10
236.0924619242
 20
46.0967292219
 10
236.5974121209
 20
47.3194004656
 10
237.1698130804
 20
48.5274374962
 10
237.8054270686
 20
49.7118953864
 10
238.499547468
 20
50.8640060604
 10
239.2470356558
 20
51.9752387476
 10
240.0423572239
 20
53.0373672796
 10
240.8796244552
 20
54.0425265511
 10
241.7526378116
 20
54.9832760144
 10
242.6549340081
 20
55.8526494854
 10
243.5798332632
 20
56.6442113181
 10
244.5204873724
 20
57.3521016477
 10
245.4699322276
 20
57.971077356
 10
246.4211385248
 20
58.4965588345
 10
247.3670637888
 20
58.9246524136
 10
248.300704893
 20
59.2521913273
 10
249.21514926
 20
59.4767485416
 10
250.1036268879
 20
59.5966622247
 10
250.9595595754
 20
59.6110451536
 10
251.7766101489
 20
59.5197903174
 10
252.4709597217
 20
59.3487502926
  0
LWPOLYLINE
  5
292
330
1F
100
AcDbEntity
  8
0
  6
Continuous
 62
     7
370
    25
100
AcDbPolyline
 90
        3
 70
   128
 43
0.0
 10
234.7246570786
 20
37.525561118
 10
234.6913939955
 20
37.8854042526
 10
234.6604107935
 20
38.4236367484
  0
SPLINE
  5
293
330
1F
100
AcDbEntity
  8
0
  6
Continuous
 62
     7
370
    25
100
AcDbSpline
210
0.0
220
0.0
230
1.0
 70
     8
 71
     3
 72
    10
 73
     6
 74
     0
 42
0.000000001
 43
0.00000001
 40
0.0
 40
0.0
 40
0.0
 40
0.0
 40
0.5
 40
0.5
 40
1.0
 40
1.0
 40
1.0
 40
1.0
 10
243.4971744322918
 20
48.66564713576444
 30
0.0
 10
243.3932099415075
 20
48.73898550883483
 30
0.0
 10
243.3034016650802
 20
48.82622126662824
 30
0.0
 10
243.1513592370815
 20
49.02715180782423
 30
0.0
 10
243.0894536487206
 20
49.14132257402121
 30
0.0
 10
243.0450039441301
 20
49.2643402571813
 30
0.0
  0
SPLINE
  5
294
330
1F
100
AcDbEntity
  8
0
  6
Continuous
 62
     7
370
    25
100
AcDbSpline
210
0.0
220
0.0
230
1.0
 70
     8
 71
     3
 72
    14
 73
    10
 74
     0
 42
0.000000001
 43
0.00000001
 40
0.0
 40
0.0
 40
0.0
 40
0.0
 40
0.25
 40
0.25
 40
0.5
 40
0.5
 40
0.75
 40
0.75
 40
1.0
 40
1.0
 40
1.0
 40
1.0
 10
243.0450039441301
 20
49.2643402571813
 30
0.0
 10
243.0222831412649
 20
49.32722167683884
 30
0.0
 10
243.0003686309155
 20
49.39626810631226
 30
0.0
 10
242.9582575768527
 20
49.54392062293103
 30
0.0
 10
242.9387360229397
 20
49.62032040978934
 30
0.0
 10
242.9003897807659
 20
49.77465270118494
 30
0.0
 10
242.8820301878821
 20
49.85160529751658
 30
0.0
 10
242.8400267433004
 20
49.99699546503257
 30
0.0
 10
242.8162504222874
 20
50.0635863712256
 30
0.0
 10
242.7877889181852
 20
50.10408198645694
 30
0.0
  0
LINE
  5
295
330
1F
100
AcDbEntity
  8
0
  6
Continuous
 62
     7
370
    25
100
AcDbLine
 10
242.7877891064
 20
50.1040823782
 30
0.0
 11
242.770486508
 21
50.1287001855
 31
0.0
  0
LINE
  5
296
330
1F
100
AcDbEntity
  8
0
  6
Continuous
 62
     7
370
    25
100
AcDbLine
 10
244.1146795696
 20
51.8008637028
 30
0.0
 11
244.131982168
 21
51.7762458955
 31
0.0
  0
SPLINE
  5
297
330
1F
100
AcDbEntity
  8
0
  6
Continuous
 62
     7
370
    25
100
AcDbSpline
210
0.0
220
0.0
230
1.0
 70
     8
 71
     3
 72
    16
 73
    12
 74
     0
 42
0.000000001
 43
0.00000001
 40
0.0
 40
0.0
 40
0.0
 40
0.0
 40
0.1250000000000001
 40
0.1250000000000001
 40
0.2500000000000003
 40
0.2500000000000003
 40
0.5000000000000002
 40
0.5000000000000002
 40
0.7500000000000001
 40
0.7500000000000001
 40
1.0
 40
1.0
 40
1.0
 40
1.0
 10
244.1319821590364
 20
51.77624559907022
 30
0.0
 10
244.1461345654405
 20
51.75610926325743
 30
0.0
 10
244.1677929699142
 20
51.73931184258001
 30
0.0
 10
244.2202108989495
 20
51.71246632124852
 30
0.0
 10
244.2508037780879
 20
51.70224083668754
 30
0.0
 10
244.3498846269453
 20
51.67774039625485
 30
0.0
 10
244.4237671645612
 20
51.66948047385335
 30
0.0
 10
244.5768667569526
 20
51.65829450714843
 30
0.0
 10
244.6549507316002
 20
51.65569783539725
 30
0.0
 10
244.8142943653423
 20
51.65366883456353
 30
0.0
 10
244.8929472601739
 20
51.65430642322576
 30
0.0
 10
244.9686997279665
 20
51.65739952404081
 30
0.0
  0
SPLINE
  5
298
330
1F
100
AcDbEntity
  8
0
  6
Continuous
 62
     7
370
    25
100
AcDbSpline
210
0.0
220
0.0
230
1.0
 70
     8
 71
     3
 72
    10
 73
     6
 74
     0
 42
0.000000001
 43
0.00000001
 40
0.0
 40
0.0
 40
0.0
 40
0.0
 40
0.5
 40
0.5
 40
1.0
 40
1.0
 40
1.0
 40
1.0
 10
244.9686997279665
 20
51.65739952404081
 30
0.0
 10
245.1168940678672
 20
51.66345054847456
 30
0.0
 10
245.2591185335978
 20
51.65328831826144
 30
0.0
 10
245.5315099239386
 20
51.60223788232135
 30
0.0
 10
245.6616372538071
 20
51.5608767796768
 30
0.0
 10
245.7797125959925
 20
51.50510291172452
 30
0.0
  0
LINE
  5
299
330
1F
100
AcDbEntity
  8
0
  6
Continuous
 62
     7
370
    25
100
AcDbLine
 10
245.9349156874
 20
51.5335215192
 30
0.0
 11
245.9175225392
 21
51.5582688039
 31
0.0
  0
ARC
  5
29A
330
1F
100
AcDbEntity
  8
0
  6
Continuous
 62
     7
370
    25
100
AcDbCircle
 10
228.4623335847
 20
46.7811737463
 30
0.0
 40
4.160340149629985
100
AcDbArc
 50
211.7954354499
 51
236.1628935314
  0
SPLINE
  5
29B
330
1F
100
AcDbEntity
  8
0
  6
Continuous
 62
     7
370
    25
100
AcDbSpline
210
0.0
220
0.0
230
1.0
 70
     8
 71
     3
 72
     8
 73
     4
 74
     0
 42
0.000000001
 43
0.00000001
 40
0.0
 40
0.0
 40
0.0
 40
0.0
 40
1.0
 40
1.0
 40
1.0
 40
1.0
 10
226.3567589268557
 20
43.66439849248585
 30
0.0
 10
225.8799856350315
 20
43.9724913004185
 30
0.0
 10
225.4031832581867
 20
44.28072074599125
 30
0.0
 10
224.926350813661
 20
44.58908590221116
 30
0.0
  0
SPLINE
  5
29C
330
1F
100
AcDbEntity
  8
0
  6
Continuous
 62
     7
370
    25
100
AcDbSpline
210
0.0
220
0.0
230
1.0
 70
     8
 71
     3
 72
    23
 73
    19
 74
     0
 42
0.000000001
 43
0.00000001
 40
0.0
 40
0.0
 40
0.0
 40
0.0
 40
0.0521036415675031
 40
0.1035646240925967
 40
0.1544751946736949
 40
0.2049306267473421
 40
0.2550287880844035
 40
0.3048696389141012
 40
0.3545546704609132
 40
0.4041862979523234
 40
0.4538672252126086
 40
0.5036997999421611
 40
0.5901870230746071
 40
0.674271637822954
 40
0.7565997087222995
 40
0.8378563983721267
 40
0.9187511781367398
 40
1.0
 40
1.0
 40
1.0
 40
1.0
 10
227.2373237303973
 20
43.48966779436576
 30
0.0
 10
227.2320547914572
 20
43.47974633213093
 30
0.0
 10
227.2215819019569
 20
43.46002578139998
 30
0.0
 10
227.2023356061942
 20
43.43545795244775
 30
0.0
 10
227.1805398658614
 20
43.41476937018852
 30
0.0
 10
227.1558885746565
 20
43.39823843489155
 30
0.0
 10
227.1283920601176
 20
43.38572093531538
 30
0.0
 10
227.0979810061102
 20
43.377186311493
 30
0.0
 10
227.0646106343377
 20
43.37257643884492
 30
0.0
 10
227.0282347460658
 20
43.37184169570845
 30
0.0
 10
226.9888063744767
 20
43.37493677825973
 30
0.0
 10
226.9359579829268
 20
43.38347255373888
 30
0.0
 10
226.8674189891566
 20
43.40106899258593
 30
0.0
 10
226.7796977572023
 20
43.4327056006718
 30
0.0
 10
226.6849668377083
 20
43.47488525800451
 30
0.0
 10
226.5829325903784
 20
43.5276216937315
 30
0.0
 10
226.4740186771893
 20
43.58993824964233
 30
0.0
 10
226.3959023662033
 20
43.63954230789344
 30
0.0
 10
226.3567589268557
 20
43.66439849248584
 30
0.0
  0
SPLINE
  5
29D
330
1F
100
AcDbEntity
  8
0
  6
Continuous
 62
     7
370
    25
100
AcDbSpline
210
0.0
220
0.0
230
1.0
 70
     8
 71
     3
 72
     8
 73
     4
 74
     0
 42
0.000000001
 43
0.00000001
 40
0.0
 40
0.0
 40
0.0
 40
0.0
 40
1.0
 40
1.0
 40
1.0
 40
1.0
 10
228.7108267568511
 20
42.54234765780955
 30
0.0
 10
228.2194594448098
 20
42.85822227777703
 30
0.0
 10
227.7280732448835
 20
43.17420829906651
 30
0.0
 10
227.2366675347396
 20
43.4903051799092
 30
0.0
  0
SPLINE
  5
29E
330
1F
100
AcDbEntity
  8
0
  6
Continuous
 62
     7
370
    25
100
AcDbSpline
210
0.0
220
0.0
230
1.0
 70
     8
 71
     3
 72
    18
 73
    14
 74
     0
 42
0.000000001
 43
0.00000001
 40
0.0
 40
0.0
 40
0.0
 40
0.0
 40
0.0923824559411628
 40
0.1844689291573508
 40
0.2764953615950219
 40
0.3686975365494161
 40
0.4613092840003458
 40
0.5545607518442569
 40
0.6486768051537182
 40
0.7438756050146744
 40
0.8403674044302629
 40
0.9203921078121001
 40
1.0
 40
1.0
 40
1.0
 40
1.0
 10
229.5243908760508
 20
41.8980399332652
 30
0.0
 10
229.5008233619277
 20
41.91331390753074
 30
0.0
 10
229.4537638412763
 20
41.94381292001138
 30
0.0
 10
229.3813660533135
 20
41.9934454926223
 30
0.0
 10
229.3078838444179
 20
42.04577503529082
 30
0.0
 10
229.233184396673
 20
42.1010927209987
 30
0.0
 10
229.1573236069049
 20
42.15933103611227
 30
0.0
 10
229.0803123261181
 20
42.22052394774985
 30
0.0
 10
229.0021801940371
 20
42.2846876643314
 30
0.0
 10
228.9229539593933
 20
42.35183662419852
 30
0.0
 10
228.8476574749834
 20
42.41768753394468
 30
0.0
 10
228.7768301668613
 20
42.481219120753
 30
0.0
 10
228.7329257960542
 20
42.5218798657665
 30
0.0
 10
228.7110309292489
 20
42.54215715433506
 30
0.0
  0
LINE
  5
29F
330
1F
100
AcDbEntity
  8
0
  6
Continuous
 62
     7
370
    25
100
AcDbLine
 10
230.1640974079
 20
41.4862861268
 30
0.0
 11
229.5243905656
 21
41.8980397944
 31
0.0
  0
SPLINE
  5
2A0
330
1F
100
AcDbEntity
  8
0
  6
Continuous
 62
     7
370
    25
100
AcDbSpline
210
0.0
220
0.0
230
1.0
 70
     8
 71
     3
 72
    25
 73
    21
 74
     0
 42
0.000000001
 43
0.00000001
 40
0.0
 40
0.0
 40
0.0
 40
0.0
 40
0.0280105225426465
 40
0.0559601148860768
 40
0.0839014045043132
 40
0.1118870776786367
 40
0.1399695827588937
 40
0.1682008401739883
 40
0.196631967042422
 40
0.2253130233141467
 40
0.2542927850735845
 40
0.3799486436587335
 40
0.5057850221667067
 40
0.6313085886338298
 40
0.7532068238012468
 40
0.8039473267955921
 40
0.8535894438554446
 40
0.9025339722394071
 40
0.9511970353791085
 40
1.0
 40
1.0
 40
1.0
 40
1.0
 10
231.266463001041
 20
42.20219211714228
 30
0.0
 10
231.2714111085716
 20
42.1745682560348
 30
0.0
 10
231.2812965602071
 20
42.11938062292948
 30
0.0
 10
231.2928322098103
 20
42.04021991555956
 30
0.0
 10
231.3019053316231
 20
41.96391657646117
 30
0.0
 10
231.3082741403361
 20
41.89072081549156
 30
0.0
 10
231.3119903791462
 20
41.82057334727818
 30
0.0
 10
231.313027000129
 20
41.75349706076539
 30
0.0
 10
231.3113785249021
 20
41.68949315153895
 30
0.0
 10
231.3070323730332
 20
41.62856429827212
 30
0.0
 10
231.2921760484656
 20
41.50667617677495
 30
0.0
 10
231.2470877914005
 20
41.3517753051198
 30
0.0
 10
231.1337282709079
 20
41.22083218677775
 30
0.0
 10
230.9719040489136
 20
41.16495578596774
 30
0.0
 10
230.7978888297818
 20
41.18482983835052
 30
0.0
 10
230.6465279090957
 20
41.232147640706
 30
0.0
 10
230.5361276763974
 20
41.27706306444135
 30
0.0
 10
230.4189681809486
 20
41.33443879573253
 30
0.0
 10
230.2954025140148
 20
41.40311586018534
 30
0.0
 10
230.2079074639197
 20
41.45853610613853
 30
0.0
 10
230.164097144238
 20
41.48628600386883
 30
0.0
  0
ARC
  5
2A1
330
1F
100
AcDbEntity
  8
0
  6
Continuous
 62
     7
370
    25
100
AcDbCircle
 10
242.4594841654
 20
43.9882424857
 30
0.0
 40
11.33462419218391
100
AcDbArc
 50
170.9338462887
 51
189.0661537113
  0
SPLINE
  5
2A2
330
1F
100
AcDbEntity
  8
0
  6
Continuous
 62
     7
370
    25
100
AcDbSpline
210
0.0
220
0.0
230
1.0
 70
     8
 71
     3
 72
    26
 73
    22
 74
     0
 42
0.000000001
 43
0.00000001
 40
0.0
 40
0.0
 40
0.0
 40
0.0
 40
0.0241259796963635
 40
0.0482159912272988
 40
0.0723203915124065
 40
0.0964895678710797
 40
0.1207736231963513
 40
0.1452220711242836
 40
0.1698835501657706
 40
0.1948055644472379
 40
0.2200342569517627
 40
0.2456142191611387
 40
0.3690971486901655
 40
0.4940698769485187
 40
0.6192566784762451
 40
0.7454656653603225
 40
0.7971495824713707
 40
0.8481710308405392
 40
0.8988013269235234
 40
0.9493179290492194
 40
1.0
 40
1.0
 40
1.0
 40
1.0
 10
230.164097144238
 20
49.2503963952334
 30
0.0
 10
230.1858153736141
 20
49.23606487183832
 30
0.0
 10
230.2292194537902
 20
49.20742319116928
 30
0.0
 10
230.2925265711516
 20
49.15943089324047
 30
0.0
 10
230.3543881388696
 20
49.10783169535478
 30
0.0
 10
230.4146926540061
 20
49.05225690248155
 30
0.0
 10
230.4734825059459
 20
48.99280166185441
 30
0.0
 10
230.5307630243757
 20
48.92943735301699
 30
0.0
 10
230.5865541637019
 20
48.86216857505307
 30
0.0
 10
230.6408754111237
 20
48.79099446109295
 30
0.0
 10
230.6937543863327
 20
48.71590532134466
 30
0.0
 10
230.810549211069
 20
48.53665087264282
 30
0.0
 10
230.9724187689955
 20
48.22634540079943
 30
0.0
 10
231.1356036765273
 20
47.75643161266775
 30
0.0
 10
231.2471150817008
 20
47.2574685787577
 30
0.0
 10
231.2942489198093
 20
46.84858490570069
 30
0.0
 10
231.3093678593418
 20
46.54431294910999
 30
0.0
 10
231.3113209983243
 20
46.34306370741467
 30
0.0
 10
231.3048429726852
 20
46.14740378769208
 30
0.0
 10
231.2907160499981
 20
45.95676749979461
 30
0.0
 10
231.2745561583131
 20
45.8351842260558
 30
0.0
 10
231.266463001041
 20
45.77429318945691
 30
0.0
  0
LINE
  5
2A3
330
1F
100
AcDbEntity
  8
0
  6
Continuous
 62
     7
370
    25
100
AcDbLine
 10
229.5243905656
 20
49.6633712455
 30
0.0
 11
230.1640974079
 21
49.2503962745
 31
0.0
  0
SPLINE
  5
2A4
330
1F
100
AcDbEntity
  8
0
  6
Continuous
 62
     7
370
    25
100
AcDbSpline
210
0.0
220
0.0
230
1.0
 70
     8
 71
     3
 72
    14
 73
    10
 74
     0
 42
0.000000001
 43
0.00000001
 40
0.0
 40
0.0
 40
0.0
 40
0.0
 40
0.0789261963172865
 40
0.158232872055133
 40
0.330847539457262
 40
0.5000195457610529
 40
0.6670357883572423
 40
0.8332395193657144
 40
1.0
 40
1.0
 40
1.0
 40
1.0
 10
228.7104381601995
 20
49.871953678518
 30
0.0
 10
228.7321550415353
 20
49.87355684237657
 30
0.0
 10
228.775693494751
 20
49.87677089846382
 30
0.0
 10
228.8672186134
 20
49.87759193853172
 30
0.0
 10
228.984126946833
 20
49.8696559567484
 30
0.0
 10
229.1249472852147
 20
49.84338028787059
 30
0.0
 10
229.2621595930268
 20
49.80042268933834
 30
0.0
 10
229.3960902674433
 20
49.74206556452872
 30
0.0
 10
229.4815763594025
 20
49.68963201837872
 30
0.0
 10
229.5243908760508
 20
49.66337140822429
 30
0.0
  0
SPLINE
  5
2A5
330
1F
100
AcDbEntity
  8
0
  6
Continuous
 62
     7
370
    25
100
AcDbSpline
210
0.0
220
0.0
230
1.0
 70
     8
 71
     3
 72
     8
 73
     4
 74
     0
 42
0.000000001
 43
0.00000001
 40
0.0
 40
0.0
 40
0.0
 40
0.0
 40
1.0
 40
1.0
 40
1.0
 40
1.0
 10
226.9081345771951
 20
51.0343450899307
 30
0.0
 10
227.5088928008912
 20
50.6470776067718
 30
0.0
 10
228.1096216637516
 20
50.2596102568485
 30
0.0
 10
228.7103223080985
 20
49.87194336425888
 30
0.0
  0
SPLINE
  5
2A6
330
1F
100
AcDbEntity
  8
0
  6
Continuous
 62
     7
370
    25
100
AcDbSpline
210
0.0
220
0.0
230
1.0
 70
     8
 71
     3
 72
    13
 73
     9
 74
     0
 42
0.000000001
 43
0.00000001
 40
0.0
 40
0.0
 40
0.0
 40
0.0
 40
0.1667030582307992
 40
0.3329480818053035
 40
0.4990671507274896
 40
0.6653938523718403
 40
0.832261271055009
 40
1.0
 40
1.0
 40
1.0
 40
1.0
 10
226.5663060421607
 20
51.33540986901648
 30
0.0
 10
226.5866072246006
 20
51.32184476233726
 30
0.0
 10
226.6271538097893
 20
51.29475182057441
 30
0.0
 10
226.6863034467769
 20
51.24955724756669
 30
0.0
 10
226.7440749916794
 20
51.20114609908374
 30
0.0
 10
226.8003247291391
 20
51.14911098431328
 30
0.0
 10
226.8552519378852
 20
51.09381301710427
 30
0.0
 10
226.8904726474757
 20
51.0541957619439
 30
0.0
 10
226.9081288594166
 20
51.03433555294298
 30
0.0
  0
SPLINE
  5
2A7
330
1F
100
AcDbEntity
  8
0
  6
Continuous
 62
     7
370
    25
100
AcDbSpline
210
0.0
220
0.0
230
1.0
 70
     8
 71
     3
 72
     8
 73
     4
 74
     0
 42
0.000000001
 43
0.00000001
 40
0.0
 40
0.0
 40
0.0
 40
0.0
 40
1.0
 40
1.0
 40
1.0
 40
1.0
 10
224.62232552637
 20
52.59013172139596
 30
0.0
 10
225.2703555987702
 20
52.1721364055112
 30
0.0
 10
225.9183485758721
 20
51.75389564309356
 30
0.0
 10
226.5663060421607
 20
51.33540986901648
 30
0.0
  0
LWPOLYLINE
  5
2A8
330
1F
100
AcDbEntity
  8
0
  6
Continuous
 62
     7
370
    25
100
AcDbPolyline
 90
       20
 70
   128
 43
0.0
 10
224.6223261767
 20
52.5901317719
 10
224.9866494621
 20
53.6556905091
 10
225.4239598939
 20
54.7164853221
 10
225.9297787109
 20
55.7616522781
 10
226.4989264604
 20
56.7804879675
 10
227.1255733773
 20
57.7625584361
 10
227.8033032625
 20
58.6978075443
 10
228.5251747274
 20
59.5766562023
 10
229.2837959394
 20
60.3901055957
 10
230.0713978841
 20
61.1298243469
 10
230.8799147909
 20
61.7882375288
 10
231.7010666972
 20
62.3586024662
 10
232.5264444836
 20
62.8350783573
 10
233.347595649
 20
63.2127856772
 10
234.1561109094
 20
63.4878561699
 10
234.9437103846
 20
63.657472717
 10
235.7023283039
 20
63.7198992256
 10
236.4241964761
 20
63.6744953545
 10
237.1019214221
 20
63.5217268205
 10
237.6720639032
 20
63.2918787371
  0
SPLINE
  5
2A9
330
1F
100
AcDbEntity
  8
0
  6
Continuous
 62
     7
370
    25
100
AcDbSpline
210
0.0
220
0.0
230
1.0
 70
    11
 71
     3
 72
    39
 73
    35
 74
     0
 42
0.000000001
 43
0.00000001
 40
0.0
 40
0.0
 40
0.0
 40
0.0
 40
0.0310664058348413
 40
0.0621048158426138
 40
0.0931361551796939
 40
0.1235538293503726
 40
0.1538561545809849
 40
0.1850588072749156
 40
0.2160250992946587
 40
0.2471867223797568
 40
0.2784462884304475
 40
0.3100516090231247
 40
0.3419834369138969
 40
0.3734259894013238
 40
0.4048604886787081
 40
0.436874065183343
 40
0.4685120685926471
 40
0.499805535863323
 40
0.5309508213226204
 40
0.5618649784438111
 40
0.5930416446590877
 40
0.623374245013332
 40
0.6540913579072549
 40
0.6849496782718453
 40
0.7158160645166705
 40
0.7471731804043553
 40
0.7784514311866318
 40
0.810129591156098
 40
0.8419598919688388
 40
0.8735175891922303
 40
0.9050808037886594
 40
0.9370235169792582
 40
0.9687441590030581
 40
1.0
 40
1.0
 40
1.0
 40
1.0
 10
237.8309110075753
 20
61.59532209673737
 30
0.0
 10
238.0937966277735
 20
61.56678760944727
 30
0.0
 10
238.620685238257
 20
61.48084512112566
 30
0.0
 10
239.384697307333
 20
61.28047000105321
 30
0.0
 10
240.0918474953839
 20
61.03346789483369
 30
0.0
 10
240.7047585599794
 20
60.75548601668059
 30
0.0
 10
241.2018898856498
 20
60.46135231935187
 30
0.0
 10
241.5610816067232
 20
60.15984579115964
 30
0.0
 10
241.7828008754821
 20
59.85284828625723
 30
0.0
 10
241.8480527528642
 20
59.54234302485554
 30
0.0
 10
241.7612055417503
 20
59.22319854010671
 30
0.0
 10
241.5188599539919
 20
58.89387857453451
 30
0.0
 10
241.1389220912655
 20
58.55493785297686
 30
0.0
 10
240.6251161381057
 20
58.21709938856623
 30
0.0
 10
239.9992253271957
 20
57.89120148725538
 30
0.0
 10
239.2857543407038
 20
57.59455459401589
 30
0.0
 10
238.5218518644395
 20
57.33845128557894
 30
0.0
 10
237.7360587815379
 20
57.14942371758816
 30
0.0
 10
236.9545213264979
 20
57.04124779553491
 30
0.0
 10
236.1984083417455
 20
57.0335839121652
 30
0.0
 10
235.496043755352
 20
57.13150594755134
 30
0.0
 10
234.8770234083093
 20
57.35315438105385
 30
0.0
 10
234.3679661432955
 20
57.68902246796557
 30
0.0
 10
233.9950225498617
 20
58.12883303414634
 30
0.0
 10
233.7664205986133
 20
58.63990767466898
 30
0.0
 10
233.697574291894
 20
59.19109276243243
 30
0.0
 10
233.7821907051191
 20
59.74876469074417
 30
0.0
 10
234.0252994950539
 20
60.27884483166316
 30
0.0
 10
234.4074293378717
 20
60.7513691807759
 30
0.0
 10
234.923564912282
 20
61.13749069166912
 30
0.0
 10
235.5505427727839
 20
61.42111487900225
 30
0.0
 10
236.2664502051477
 20
61.59085209772867
 30
0.0
 10
237.0348935973333
 20
61.65239093243999
 30
0.0
 10
237.5664223767058
 20
61.62403058018442
 30
0.0
 10
237.8309110075753
 20
61.59532209673736
 30
0.0
  0
LINE
  5
2AA
330
1F
100
AcDbEntity
  8
0
  6
Continuous
 62
     7
370
    25
100
AcDbLine
 10
228.6063735945
 20
45.1561954793
 30
0.0
 11
228.9204186531
 21
44.9880512522
 31
0.0
  0
LINE
  5
2AB
330
1F
100
AcDbEntity
  8
0
  6
Continuous
 62
     7
370
    25
100
AcDbLine
 10
227.6194155746
 20
45.7259542166
 30
0.0
 11
228.6063735945
 21
45.1561954793
 31
0.0
  0
ARC
  5
2AC
330
1F
100
AcDbEntity
  8
0
  6
Continuous
 62
     7
370
    25
100
AcDbCircle
 10
229.8514005721
 20
49.2338676639
 30
0.0
 40
4.399246259572664
100
AcDbArc
 50
267.4956853267
 51
287.1750110524
  0
SPLINE
  5
2AD
330
1F
100
AcDbEntity
  8
0
  6
Continuous
 62
     7
370
    25
100
AcDbSpline
210
0.0
220
0.0
230
1.0
 70
     8
 71
     3
 72
    14
 73
    10
 74
     0
 42
0.000000001
 43
0.00000001
 40
0.0
 40
0.0
 40
0.0
 40
0.0
 40
0.1520927654964334
 40
0.2674857265629534
 40
0.3827932169674477
 40
0.4986859355030901
 40
0.6145509981003119
 40
0.825743267810779
 40
1.0
 40
1.0
 40
1.0
 40
1.0
 10
239.1694169658747
 20
58.59282638140165
 30
0.0
 10
238.9646220245823
 20
58.70520728163206
 30
0.0
 10
238.6044489191147
 20
58.90285170378333
 30
0.0
 10
238.0048257509129
 20
59.16697457058545
 30
0.0
 10
237.4256531165302
 20
59.38009096511834
 30
0.0
 10
236.8147613010363
 20
59.55087911620424
 30
0.0
 10
236.0256256112601
 20
59.69025787142343
 30
0.0
 10
235.126352286337
 20
59.71739178610037
 30
0.0
 10
234.5617569366692
 20
59.50939722978269
 30
0.0
 10
234.3065103537037
 20
59.41536546029195
 30
0.0
  0
SPLINE
  5
2AE
330
1F
100
AcDbEntity
  8
0
  6
Continuous
 62
     7
370
    25
100
AcDbSpline
210
0.0
220
0.0
230
1.0
 70
     8
 71
     3
 72
    10
 73
     6
 74
     0
 42
0.000000001
 43
0.00000001
 40
0.0
 40
0.0
 40
0.0
 40
0.0
 40
0.3798174073072795
 40
0.9603711649033085
 40
1.0
 40
1.0
 40
1.0
 40
1.0
 10
240.3092970877342
 20
58.06459945388315
 30
0.0
 10
240.1796444704858
 20
58.13492801572053
 30
0.0
 10
239.8518168547313
 20
58.31275431214164
 30
0.0
 10
239.4438883097212
 20
58.48580716254406
 30
0.0
 10
239.1872555282893
 20
58.58501259479237
 30
0.0
 10
239.1708570380775
 20
58.59135168873274
 30
0.0
  0
SPLINE
  5
2AF
330
1F
100
AcDbEntity
  8
0
  6
Continuous
 62
     7
370
    25
100
AcDbSpline
210
0.0
220
0.0
230
1.0
 70
     8
 71
     3
 72
    24
 73
    20
 74
     0
 42
0.000000001
 43
0.00000001
 40
0.0
 40
0.0
 40
0.0
 40
0.0
 40
0.0618858212107145
 40
0.1150115607194259
 40
0.1593831488268445
 40
0.2428114970815824
 40
0.318331853291959
 40
0.3935543804326023
 40
0.4204843226990471
 40
0.4483397435477174
 40
0.4771286702554668
 40
0.5451537905345539
 40
0.6363475754294583
 40
0.6968782859867285
 40
0.7498596693403015
 40
0.7959701295389731
 40
0.8771179302751783
 40
0.9543004207779655
 40
1.0
 40
1.0
 40
1.0
 40
1.0
 10
237.7760324405731
 20
61.02146419678061
 30
0.0
 10
237.5920756512369
 20
61.04035876174656
 30
0.0
 10
237.2502015832746
 20
61.07547332213106
 30
0.0
 10
236.7859836102978
 20
61.06898277374379
 30
0.0
 10
236.2765219980248
 20
61.02125858094649
 30
0.0
 10
235.7374268986503
 20
60.89664198277957
 30
0.0
 10
235.1945889139267
 20
60.65415169883658
 30
0.0
 10
234.8541958984316
 20
60.39677894821067
 30
0.0
 10
234.6475691898806
 20
60.18197184771184
 30
0.0
 10
234.5295851336695
 20
60.03546849641286
 30
0.0
 10
234.3774147294785
 20
59.80571767219241
 30
0.0
 10
234.2107340908988
 20
59.43277497676539
 30
0.0
 10
234.1423725100616
 20
58.97021592407251
 30
0.0
 10
234.192727973681
 20
58.54188322587068
 30
0.0
 10
234.2981571171963
 20
58.2219563322263
 30
0.0
 10
234.4803564438823
 20
57.88149081703311
 30
0.0
 10
234.7812348689527
 20
57.54554256017802
 30
0.0
 10
235.1709197635512
 20
57.27248325946301
 30
0.0
 10
235.4638387197456
 20
57.17852818853571
 30
0.0
 10
235.5727746538019
 20
57.14358649837074
 30
0.0
  0
SPLINE
  5
2B0
330
1F
100
AcDbEntity
  8
0
  6
Continuous
 62
     7
370
    25
100
AcDbSpline
210
0.0
220
0.0
230
1.0
 70
     8
 71
     3
 72
    22
 73
    18
 74
     0
 42
0.000000001
 43
0.00000001
 40
0.0
 40
0.0
 40
0.0
 40
0.0
 40
0.0348562931077237
 40
0.0924900623539491
 40
0.1569277788850789
 40
0.2282085360920659
 40
0.2894089077515647
 40
0.3420696922203051
 40
0.3861903498429299
 40
0.4217735408338573
 40
0.5236918810098915
 40
0.6145479843395962
 40
0.7067593487247504
 40
0.7559111409869668
 40
0.8071360726317764
 40
0.8951475619903156
 40
1.0
 40
1.0
 40
1.0
 40
1.0
 10
241.0397763879574
 20
58.50432010901088
 30
0.0
 10
241.077412277833
 20
58.53949333142247
 30
0.0
 10
241.1772779115819
 20
58.6328243555788
 30
0.0
 10
241.296101960317
 20
58.78816959517911
 30
0.0
 10
241.3925130288353
 20
58.97689879998144
 30
0.0
 10
241.4237891839772
 20
59.16287768559393
 30
0.0
 10
241.3943838598036
 20
59.33468924692937
 30
0.0
 10
241.3258888365955
 20
59.48149583744016
 30
0.0
 10
241.2380761895811
 20
59.602706759454
 30
0.0
 10
241.0837850376269
 20
59.76828990663745
 30
0.0
 10
240.8159587196708
 20
59.97845414899299
 30
0.0
 10
240.3643885802043
 20
60.23389795945503
 30
0.0
 10
239.916825943481
 20
60.44053465612602
 30
0.0
 10
239.5079321745972
 20
60.59903887276973
 30
0.0
 10
239.0858525747898
 20
60.74155562070452
 30
0.0
 10
238.5075399574106
 20
60.90481218955998
 30
0.0
 10
238.033661363543
 20
60.98038063948177
 30
0.0
 10
237.7760324405731
 20
61.02146419678061
 30
0.0
  0
LINE
  5
2B1
330
1F
100
AcDbEntity
  8
0
  6
Continuous
 62
     7
370
    25
100
AcDbLine
 10
231.2664627187
 20
45.7742930087
 30
0.0
 11
231.2612246557
 21
46.0703764316
 31
0.0
  0
LINE
  5
2B2
330
1F
100
AcDbEntity
  8
0
  6
Continuous
 62
     7
370
    25
100
AcDbLine
 10
231.2612246557
 20
46.0703764316
 30
0.0
 11
231.3043224424
 21
46.7220016273
 31
0.0
  0
LINE
  5
2B3
330
1F
100
AcDbEntity
  8
0
  6
Continuous
 62
     7
370
    25
100
AcDbLine
 10
230.7816758377
 20
48.5510646491
 30
0.0
 11
230.4702613351
 21
48.8796612186
 31
0.0
  0
SPLINE
  5
2B4
330
1F
100
AcDbEntity
  8
0
  6
Continuous
 62
     7
370
    25
100
AcDbSpline
210
0.0
220
0.0
230
1.0
 70
     8
 71
     3
 72
    19
 73
    15
 74
     0
 42
0.000000001
 43
0.00000001
 40
0.0
 40
0.0
 40
0.0
 40
0.0
 40
0.0210492621018804
 40
0.1455865440207667
 40
0.2712169722633744
 40
0.3929514297049947
 40
0.5136082229787104
 40
0.6366369099308349
 40
0.699422462668311
 40
0.7643939711952468
 40
0.8122544601557282
 40
0.8606584764820763
 40
0.9188817427801165
 40
1.0
 40
1.0
 40
1.0
 40
1.0
 10
234.1867878882307
 20
58.7667142493228
 30
0.0
 10
234.1793193132448
 20
58.82147459622821
 30
0.0
 10
234.1276631546732
 20
59.20022277356334
 30
0.0
 10
234.3704340493328
 20
59.81037368237752
 30
0.0
 10
234.9547645167477
 20
60.49974738561708
 30
0.0
 10
235.860890884388
 20
60.91704693584914
 30
0.0
 10
236.93523701285
 20
61.03747289353779
 30
0.0
 10
237.8891708819458
 20
60.87677334995019
 30
0.0
 10
238.623833424515
 20
60.57940725110839
 30
0.0
 10
239.0966366639873
 20
60.28174917370369
 30
0.0
 10
239.4536068341068
 20
59.91083736892634
 30
0.0
 10
239.648454975615
 20
59.47851607361875
 30
0.0
 10
239.6774840058592
 20
58.9755747423936
 30
0.0
 10
239.6151104042388
 20
58.64182972981841
 30
0.0
 10
239.5787993482648
 20
58.44753865927155
 30
0.0
  0
SPLINE
  5
2B5
330
1F
100
AcDbEntity
  8
0
  6
Continuous
 62
     7
370
    25
100
AcDbSpline
210
0.0
220
0.0
230
1.0
 70
     8
 71
     3
 72
    10
 73
     6
 74
     0
 42
0.000000001
 43
0.00000001
 40
0.0
 40
0.0
 40
0.0
 40
0.0
 40
0.2950355258923527
 40
0.9801030833761959
 40
1.0
 40
1.0
 40
1.0
 40
1.0
 10
239.581527204253
 20
58.44630010584917
 30
0.0
 10
239.6643517745134
 20
58.4075349241604
 30
0.0
 10
239.9394936119111
 20
58.27875763882878
 30
0.0
 10
240.2145605464513
 20
58.13748835893893
 30
0.0
 10
240.3631391570303
 20
58.04342562300008
 30
0.0
 10
240.3673326395892
 20
58.04077079643346
 30
0.0
  0
ARC
  5
2B6
330
1F
100
AcDbEntity
  8
0
  6
Continuous
 62
     7
370
    25
100
AcDbCircle
 10
243.5916357696
 20
44.2330811135
 30
0.0
 40
12.46654291792137
100
AcDbArc
 50
171.5249863735
 51
179.8211981812
  0
SPLINE
  5
2B7
330
1F
100
AcDbEntity
  8
0
  6
Continuous
 62
     7
370
    25
100
AcDbSpline
210
0.0
220
0.0
230
1.0
 70
     8
 71
     3
 72
    14
 73
    10
 74
     0
 42
0.000000001
 43
0.00000001
 40
0.0
 40
0.0
 40
0.0
 40
0.0
 40
0.0003951393068452
 40
0.0003951393068452
 40
0.0003951393068452
 40
0.0008163352168663
 40
0.0008163352168663
 40
0.0008163352168663
 40
0.0012378579337219
 40
0.0012378579337219
 40
0.0012378579337219
 40
0.0012378579337219
 10
239.1734495414144
 20
58.59154742801731
 30
0.0
 10
239.2189113556456
 20
58.57711056539227
 30
0.0
 10
239.2637989602667
 20
58.56224470482667
 30
0.0
 10
239.3080826529418
 20
58.5469609172212
 30
0.0
 10
239.3552859451812
 20
58.53066947788351
 30
0.0
 10
239.4018117582403
 20
58.51389999979959
 30
0.0
 10
239.447622667482
 20
58.49667118900431
 30
0.0
 10
239.4934690554711
 20
58.47942903517266
 30
0.0
 10
239.5386082910435
 20
58.46172332896816
 30
0.0
 10
239.5830018490858
 20
58.44358047227738
 30
0.0
  0
LINE
  5
2B8
330
1F
100
AcDbEntity
  8
0
  6
Continuous
 62
     7
370
    25
100
AcDbLine
 10
230.4702613351
 20
48.8796612186
 30
0.0
 11
229.8303246607
 21
49.2918928587
 31
0.0
  0
LINE
  5
2B9
330
1F
100
AcDbEntity
  8
0
  6
Continuous
 62
     7
370
    25
100
AcDbLine
 10
229.5243905656
 20
49.6633712455
 30
0.0
 11
229.8303246607
 21
49.2918928587
 31
0.0
  0
SPLINE
  5
2BA
330
1F
100
AcDbEntity
  8
0
  6
Continuous
 62
     7
370
    25
100
AcDbSpline
210
0.0
220
0.0
230
1.0
 70
     8
 71
     3
 72
    13
 73
     9
 74
     0
 42
0.000000001
 43
0.00000001
 40
0.0
 40
0.0
 40
0.0
 40
0.0
 40
0.161854229885178
 40
0.3254858841554281
 40
0.4910085196607404
 40
0.6585318472791263
 40
0.8281616954204583
 40
0.9999999999999999
 40
0.9999999999999999
 40
0.9999999999999999
 40
0.9999999999999999
 10
229.8303250723928
 20
49.29189286258741
 30
0.0
 10
229.8107476803754
 20
49.30445583962057
 30
0.0
 10
229.7713779045296
 20
49.32971975573918
 30
0.0
 10
229.7098419647593
 20
49.36241345265403
 30
0.0
 10
229.6462853055099
 20
49.39135952636092
 30
0.0
 10
229.5806672028531
 20
49.41587189382652
 30
0.0
 10
229.5132399337983
 20
49.43630695718003
 30
0.0
 10
229.4673553335998
 20
49.4459036121698
 30
0.0
 10
229.4442646534249
 20
49.45073297300459
 30
0.0
  0
SPLINE
  5
2BB
330
1F
100
AcDbEntity
  8
0
  6
Continuous
 62
     7
370
    25
100
AcDbSpline
210
0.0
220
0.0
230
1.0
 70
     8
 71
     3
 72
     9
 73
     5
 74
     0
 42
0.000000001
 43
0.00000001
 40
0.0
 40
0.0
 40
0.0
 40
0.0
 40
0.4907282259506175
 40
1.0
 40
1.0
 40
1.0
 40
1.0
 10
229.4442588261329
 20
49.45070497597358
 30
0.0
 10
229.4201653036551
 20
49.45880050819171
 30
0.0
 10
229.3710678170958
 20
49.47529748511299
 30
0.0
 10
229.3203671232757
 20
49.49009115412922
 30
0.0
 10
229.2945466909883
 20
49.49762515219382
 30
0.0
  0
SPLINE
  5
2BC
330
1F
100
AcDbEntity
  8
0
  6
Continuous
 62
     7
370
    25
100
AcDbSpline
210
0.0
220
0.0
230
1.0
 70
     8
 71
     3
 72
    14
 73
    10
 74
     0
 42
0.000000001
 43
0.00000001
 40
0.0
 40
0.0
 40
0.0
 40
0.0
 40
0.0310276388071746
 40
0.0622853718672815
 40
0.1248003166904892
 40
0.2498289731753984
 40
0.499889260361071
 40
0.7606803621682141
 40
1.0
 40
1.0
 40
1.0
 40
1.0
 10
228.7106060017
 20
49.87173289483967
 30
0.0
 10
228.7165982411045
 20
49.86790185118605
 30
0.0
 10
228.7286271570638
 20
49.86021135368834
 30
0.0
 10
228.7526869651129
 20
49.84477346418166
 30
0.0
 10
228.7949206377592
 20
49.81770301125083
 30
0.0
 10
228.8794832122714
 20
49.76349098645544
 30
0.0
 10
229.0027701817416
 20
49.68448780458941
 30
0.0
 10
229.1489018881956
 20
49.59088162991198
 30
0.0
 10
229.2472685047363
 20
49.52789855351951
 30
0.0
 10
229.2943402054205
 20
49.49775905473038
 30
0.0
  0
LINE
  5
2BD
330
1F
100
AcDbEntity
  8
0
  6
Continuous
 62
     7
370
    25
100
AcDbLine
 10
226.9081058465
 20
51.0343635718
 30
0.0
 11
227.1990732006
 21
50.8462850327
 31
0.0
  0
SPLINE
  5
2BE
330
1F
100
AcDbEntity
  8
0
  6
Continuous
 62
     7
370
    25
100
AcDbSpline
210
0.0
220
0.0
230
1.0
 70
     8
 71
     3
 72
     8
 73
     4
 74
     0
 42
0.000000001
 43
0.00000001
 40
0.0
 40
0.0
 40
0.0
 40
0.0
 40
1.0
 40
1.0
 40
1.0
 40
1.0
 10
227.2304615039953
 20
50.82606250252851
 30
0.0
 10
227.2200189981434
 20
50.83288792742591
 30
0.0
 10
227.2095530652537
 20
50.83963089421243
 30
0.0
 10
227.1990653004371
 20
50.84628998186543
 30
0.0
  0
SPLINE
  5
2BF
330
1F
100
AcDbEntity
  8
0
  6
Continuous
 62
     7
370
    25
100
AcDbSpline
210
0.0
220
0.0
230
1.0
 70
     8
 71
     3
 72
     8
 73
     4
 74
     0
 42
0.000000001
 43
0.00000001
 40
0.0
 40
0.0
 40
0.0
 40
0.0
 40
1.0
 40
1.0
 40
1.0
 40
1.0
 10
224.4444571251715
 20
52.70431815433759
 30
0.0
 10
224.5034568893414
 20
52.66557748741862
 30
0.0
 10
224.562744452852
 20
52.62751551011934
 30
0.0
 10
224.6223255263404
 20
52.59013172165903
 30
0.0
  0
SPLINE
  5
2C0
330
1F
100
AcDbEntity
  8
0
  6
Continuous
 62
     7
370
    25
100
AcDbSpline
210
0.0
220
0.0
230
1.0
 70
     8
 71
     3
 72
     8
 73
     4
 74
     0
 42
0.000000001
 43
0.00000001
 40
0.0
 40
0.0
 40
0.0
 40
0.0
 40
1.0
 40
1.0
 40
1.0
 40
1.0
 10
224.4196073790719
 20
53.06752833227591
 30
0.0
 10
224.4270815911624
 20
52.94657049156407
 30
0.0
 10
224.4353776950526
 20
52.82549864915341
 30
0.0
 10
224.4444571251715
 20
52.70431815433759
 30
0.0
  0
LWPOLYLINE
  5
2C1
330
1F
100
AcDbEntity
  8
0
  6
Continuous
 62
     7
370
    25
100
AcDbPolyline
 90
       16
 70
   128
 43
0.0
 10
224.4196077379
 20
53.0675276669
 10
224.7935181142
 20
54.1261078773
 10
225.2415167234
 20
55.177819479
 10
225.7587145309
 20
56.211186025
 10
226.3394681396
 20
57.2149320912
 10
226.9774410343
 20
58.1781057051
 10
227.6656717408
 20
59.0901960219
 10
228.3966508764
 20
59.941252709
 10
229.1624021497
 20
60.721988221
 10
229.9545699482
 20
61.4238831157
 10
230.7645107104
 20
62.0392798676
 10
231.5833866046
 20
62.5614628027
 10
232.4022624988
 20
62.9847338505
 10
233.2122032611
 20
63.3044747977
 10
234.0043710595
 20
63.5171973749
 10
234.3835702068
 20
63.5816353583
  0
SPLINE
  5
2C2
330
1F
100
AcDbEntity
  8
0
  6
Continuous
 62
     7
370
    25
100
AcDbSpline
210
0.0
220
0.0
230
1.0
 70
     8
 71
     3
 72
    10
 73
     6
 74
     0
 42
0.000000001
 43
0.00000001
 40
0.0
 40
0.0
 40
0.0
 40
0.0
 40
0.2409818396634726
 40
0.5031433556203718
 40
1.0
 40
1.0
 40
1.0
 40
1.0
 10
230.4702613351106
 20
42.17381959532208
 30
0.0
 10
230.5525072061136
 20
42.12214307340153
 30
0.0
 10
230.724227463458
 20
42.01424822671014
 30
0.0
 10
231.001948822485
 20
41.8845255162459
 30
0.0
 10
231.122926069529
 20
41.90730345735089
 30
0.0
 10
231.2021183104445
 20
41.92221399832962
 30
0.0
  0
LINE
  5
2C3
330
1F
100
AcDbEntity
  8
0
  6
Continuous
 62
     7
370
    25
100
AcDbLine
 10
225.687087279
 20
51.9028923283
 30
0.0
 11
224.9252085766
 21
52.393526736
 31
0.0
  0
LINE
  5
2C4
330
1F
100
AcDbEntity
  8
0
  6
Continuous
 62
     7
370
    25
100
AcDbLine
 10
224.9252085766
 20
52.393526736
 30
0.0
 11
224.4444572563
 21
52.704318112
 31
0.0
  0
LINE
  5
2C5
330
1F
100
AcDbEntity
  8
0
  6
Continuous
 62
     7
370
    25
100
AcDbLine
 10
229.5243905656
 20
41.8980397944
 30
0.0
 11
229.8303246607
 21
42.5860512354
 31
0.0
  0
LINE
  5
2C6
330
1F
100
AcDbEntity
  8
0
  6
Continuous
 62
     7
370
    25
100
AcDbLine
 10
229.8303246607
 20
42.5860512354
 30
0.0
 11
230.4702613351
 21
42.1738195953
 31
0.0
  0
SPLINE
  5
2C7
330
1F
100
AcDbEntity
  8
0
  6
Continuous
 62
     7
370
    25
100
AcDbSpline
210
0.0
220
0.0
230
1.0
 70
     8
 71
     3
 72
    13
 73
     9
 74
     0
 42
0.000000001
 43
0.00000001
 40
0.0
 40
0.0
 40
0.0
 40
0.0
 40
0.172258782378417
 40
0.342139827159501
 40
0.5097456258302661
 40
0.6751828993623331
 40
0.8385626190354498
 40
1.0
 40
1.0
 40
1.0
 40
1.0
 10
229.4442531416195
 20
42.8673609408407
 30
0.0
 10
229.4674046655747
 20
42.84924134990325
 30
0.0
 10
229.5133881463303
 20
42.81325227796193
 30
0.0
 10
229.5809291590496
 20
42.76225229454026
 30
0.0
 10
229.6465887737379
 20
42.71392761434849
 30
0.0
 10
229.7101128449856
 20
42.66849660844267
 30
0.0
 10
229.7715432236994
 20
42.62567104068978
 30
0.0
 10
229.8108093906657
 20
42.59920522351955
 30
0.0
 10
229.8303250723928
 20
42.58605144497568
 30
0.0
  0
SPLINE
  5
2C8
330
1F
100
AcDbEntity
  8
0
  6
Continuous
 62
     7
370
    25
100
AcDbSpline
210
0.0
220
0.0
230
1.0
 70
     8
 71
     3
 72
    11
 73
     7
 74
     0
 42
0.000000001
 43
0.00000001
 40
0.0
 40
0.0
 40
0.0
 40
0.0
 40
0.2392845094479873
 40
0.5001120454076898
 40
0.7515010915036774
 40
1.0
 40
1.0
 40
1.0
 40
1.0
 10
229.2948727301434
 20
42.91467493305358
 30
0.0
 10
229.2478034981389
 20
42.88636041034079
 30
0.0
 10
229.1494273435443
 20
42.82718217978459
 30
0.0
 10
229.0031301219605
 20
42.73399427932468
 30
0.0
 10
228.8552893783167
 20
42.63862236335223
 30
0.0
 10
228.7590029155976
 20
42.57408710808941
 30
0.0
 10
228.7111380277386
 20
42.54200603803157
 30
0.0
  0
SPLINE
  5
2C9
330
1F
100
AcDbEntity
  8
0
  6
Continuous
 62
     7
370
    25
100
AcDbSpline
210
0.0
220
0.0
230
1.0
 70
     8
 71
     3
 72
     9
 73
     5
 74
     0
 42
0.000000001
 43
0.00000001
 40
0.0
 40
0.0
 40
0.0
 40
0.0
 40
0.5090669353869915
 40
1.0
 40
1.0
 40
1.0
 40
1.0
 10
229.2954437337276
 20
42.9139759788418
 30
0.0
 10
229.3210923083516
 20
42.90648327068192
 30
0.0
 10
229.371475809697
 20
42.89176475796966
 30
0.0
 10
229.4202833211924
 20
42.87537240011749
 30
0.0
 10
229.4442445423869
 20
42.86732484964089
 30
0.0
  0
LINE
  5
2CA
330
1F
100
AcDbEntity
  8
0
  6
Continuous
 62
     7
370
    25
100
AcDbLine
 10
231.1253623139
 20
43.8378545461
 30
0.0
 11
229.4442463575
 21
42.8673669619
 31
0.0
  0
LINE
  5
2CB
330
1F
100
AcDbEntity
  8
0
  6
Continuous
 62
     7
370
    25
100
AcDbLine
 10
227.4377587063
 20
43.9911882605
 30
0.0
 11
227.2374630527
 21
43.4900308463
 31
0.0
  0
SPLINE
  5
2CC
330
1F
100
AcDbEntity
  8
0
  6
Continuous
 62
     7
370
    25
100
AcDbSpline
210
0.0
220
0.0
230
1.0
 70
     8
 71
     3
 72
     8
 73
     4
 74
     0
 42
0.000000001
 43
0.00000001
 40
0.0
 40
0.0
 40
0.0
 40
0.0
 40
1.0
 40
1.0
 40
1.0
 40
1.0
 10
227.4373155355874
 20
43.99197201270315
 30
0.0
 10
227.4634908701566
 20
44.01413938968142
 30
0.0
 10
227.4893119101221
 20
44.03677153077303
 30
0.0
 10
227.5147694638305
 20
44.05985625086431
 30
0.0
  0
LINE
  5
2CD
330
1F
100
AcDbEntity
  8
0
  6
Continuous
 62
     7
370
    25
100
AcDbLine
 10
227.5147695596
 20
44.0598561352
 30
0.0
 11
229.2950623188
 21
42.9140852501
 31
0.0
  0
LINE
  5
2CE
330
1F
100
AcDbEntity
  8
0
  6
Continuous
 62
     7
370
    25
100
AcDbLine
 10
231.1251535553
 20
43.9359044813
 30
0.0
 11
231.0371542283
 21
44.0433955496
 31
0.0
  0
LINE
  5
2CF
330
1F
100
AcDbEntity
  8
0
  6
Continuous
 62
     7
370
    25
100
AcDbLine
 10
229.2087462316
 20
45.0377680526
 30
0.0
 11
227.5147695596
 21
44.0598561352
 31
0.0
  0
LINE
  5
2D0
330
1F
100
AcDbEntity
  8
0
  6
Continuous
 62
     7
370
    25
100
AcDbLine
 10
229.3514403142
 20
45.0164758909
 30
0.0
 11
229.209166383
 21
45.0372806751
 31
0.0
  0
LINE
  5
2D1
330
1F
100
AcDbEntity
  8
0
  6
Continuous
 62
     7
370
    25
100
AcDbLine
 10
231.0372279853
 20
44.0432913831
 30
0.0
 11
229.3514403142
 21
45.0164758909
 31
0.0
  0
LINE
  5
2D2
330
1F
100
AcDbEntity
  8
0
  6
Continuous
 62
     7
370
    25
100
AcDbLine
 10
231.1251535553
 20
43.9925273003
 30
0.0
 11
231.0371812286
 21
44.0433183565
 31
0.0
  0
SPLINE
  5
2D3
330
1F
100
AcDbEntity
  8
0
  6
Continuous
 62
     7
370
    25
100
AcDbSpline
210
0.0
220
0.0
230
1.0
 70
     8
 71
     3
 72
    19
 73
    15
 74
     0
 42
0.000000001
 43
0.00000001
 40
0.0
 40
0.0
 40
0.0
 40
0.0
 40
0.0637853009127854
 40
0.1289628367668835
 40
0.1955871994312377
 40
0.2637095015417503
 40
0.3333775579368785
 40
0.404636070956767
 40
0.4775268158870349
 40
0.5520888236349092
 40
0.6283585584292241
 40
0.7063700889344752
 40
0.8377041805690577
 40
0.9999999999999999
 40
0.9999999999999999
 40
0.9999999999999999
 40
0.9999999999999999
 10
226.6532464296261
 20
44.16046010005503
 30
0.0
 10
226.6739357986312
 20
44.1471009600447
 30
0.0
 10
226.715766121286
 20
44.1200910915038
 30
0.0
 10
226.7762570948807
 20
44.08256912597727
 30
0.0
 10
226.83574129306
 20
44.04704938488661
 30
0.0
 10
226.8938224525316
 20
44.0140692559701
 30
0.0
 10
226.9503545696189
 20
43.98386281969977
 30
0.0
 10
227.0050996243727
 20
43.95674937973824
 30
0.0
 10
227.057822001965
 20
43.93301776198825
 30
0.0
 10
227.108263634896
 20
43.91297750854358
 30
0.0
 10
227.1561465533614
 20
43.89685764700526
 30
0.0
 10
227.2111107077315
 20
43.88257967732365
 30
0.0
 10
227.2739420216911
 20
43.87244112006893
 30
0.0
 10
227.3124495373491
 20
43.8789153713822
 30
0.0
 10
227.3337335025462
 20
43.88249383489185
 30
0.0
  0
LINE
  5
2D4
330
1F
100
AcDbEntity
  8
0
  6
Continuous
 62
     7
370
    25
100
AcDbLine
 10
227.3583691902
 20
43.9085642892
 30
0.0
 11
227.4260820536
 21
43.9802188095
 31
0.0
  0
SPLINE
  5
2D5
330
1F
100
AcDbEntity
  8
0
  6
Continuous
 62
     7
370
    25
100
AcDbSpline
210
0.0
220
0.0
230
1.0
 70
     8
 71
     3
 72
     9
 73
     5
 74
     0
 42
0.000000001
 43
0.00000001
 40
0.0
 40
0.0
 40
0.0
 40
0.0
 40
0.5232016984460688
 40
1.0
 40
1.0
 40
1.0
 40
1.0
 10
229.0425684519405
 20
44.9418358317879
 30
0.0
 10
228.9735442892919
 20
44.9668779969044
 30
0.0
 10
228.8416178011829
 20
45.01474130696413
 30
0.0
 10
228.6001803883643
 20
45.1523394376508
 30
0.0
 10
228.4850634400007
 20
45.2179459926592
 30
0.0
  0
LINE
  5
2D6
330
1F
100
AcDbEntity
  8
0
  6
Continuous
 62
     7
370
    25
100
AcDbLine
 10
224.755562243
 20
44.9838355553
 30
0.0
 11
225.2070333573
 21
45.0960995282
 31
0.0
  0
LINE
  5
2D7
330
1F
100
AcDbEntity
  8
0
  6
Continuous
 62
     7
370
    25
100
AcDbLine
 10
225.2070333573
 20
45.0960995282
 30
0.0
 11
226.6532458292
 21
44.1604601951
 31
0.0
  0
SPLINE
  5
2D8
330
1F
100
AcDbEntity
  8
0
  6
Continuous
 62
     7
370
    25
100
AcDbSpline
210
0.0
220
0.0
230
1.0
 70
     8
 71
     3
 72
     8
 73
     4
 74
     0
 42
0.000000001
 43
0.00000001
 40
0.0
 40
0.0
 40
0.0
 40
0.0
 40
1.0
 40
1.0
 40
1.0
 40
1.0
 10
224.9263508136428
 20
44.58908590227171
 30
0.0
 10
224.8692255447188
 20
44.72087208606735
 30
0.0
 10
224.8122970530012
 20
44.85245630772813
 30
0.0
 10
224.7555629350518
 20
44.98383537462949
 30
0.0
  0
LINE
  5
2D9
330
1F
100
AcDbEntity
  8
0
  6
Continuous
 62
     7
370
    25
100
AcDbLine
 10
226.5447348164
 20
45.8683381429
 30
0.0
 11
225.2070333573
 21
45.0960995282
 31
0.0
  0
LINE
  5
2DA
330
1F
100
AcDbEntity
  8
0
  6
Continuous
 62
     7
370
    25
100
AcDbLine
 10
227.5277633013
 20
45.77058474
 30
0.0
 11
226.5447348164
 21
45.8683381429
 31
0.0
  0
LINE
  5
2DB
330
1F
100
AcDbEntity
  8
0
  6
Continuous
 62
     7
370
    25
100
AcDbLine
 10
228.48506344
 20
45.2179459927
 30
0.0
 11
227.5277623134
 21
45.7705841698
 31
0.0
  0
SPLINE
  5
2DC
330
1F
100
AcDbEntity
  8
0
  6
Continuous
 62
     7
370
    25
100
AcDbSpline
210
0.0
220
0.0
230
1.0
 70
     8
 71
     3
 72
     8
 73
     4
 74
     0
 42
0.000000001
 43
0.00000001
 40
0.0
 40
0.0
 40
0.0
 40
0.0
 40
1.0
 40
1.0
 40
1.0
 40
1.0
 10
224.755562935054
 20
44.98383537462438
 30
0.0
 10
224.7524255973038
 20
45.0190516814969
 30
0.0
 10
224.7504331934059
 20
45.05469593772459
 30
0.0
 10
224.7496517960338
 20
45.09079283971946
 30
0.0
  0
LINE
  5
2DD
330
1F
100
AcDbEntity
  8
0
  6
Continuous
 62
     7
370
    25
100
AcDbLine
 10
225.5607382711
 20
45.5590225544
 30
0.0
 11
224.7496524646
 21
45.0907926848
 31
0.0
  0
SPLINE
  5
2DE
330
1F
100
AcDbEntity
  8
0
  6
Continuous
 62
     7
370
    25
100
AcDbSpline
210
0.0
220
0.0
230
1.0
 70
     8
 71
     3
 72
     8
 73
     4
 74
     0
 42
0.000000001
 43
0.00000001
 40
0.0000004089325119
 40
0.0000004089325119
 40
0.0000004089325119
 40
0.0000004089325119
 40
0.0015399868451459
 40
0.0015399868451459
 40
0.0015399868451459
 40
0.0015399868451459
 10
225.5607373285226
 20
45.55902255107559
 30
0.0
 10
225.7992138965458
 20
45.65339893689195
 30
0.0
 10
226.0376608542145
 20
45.74782754882214
 30
0.0
 10
226.2760695930648
 20
45.84232093178461
 30
0.0
  0
LINE
  5
2DF
330
1F
100
AcDbEntity
  8
0
  6
Continuous
 62
     7
370
    25
100
AcDbLine
 10
226.276069072
 20
45.8423210789
 30
0.0
 11
226.3004655119
 21
45.8473151053
 31
0.0
  0
LINE
  5
2E0
330
1F
100
AcDbEntity
  8
0
  6
Continuous
 62
     7
370
    25
100
AcDbLine
 10
226.5447348164
 20
45.8683381429
 30
0.0
 11
226.3004661704
 21
45.8473151053
 31
0.0
  0
SPLINE
  5
2E1
330
1F
100
AcDbEntity
  8
0
  6
Continuous
 62
     7
370
    25
100
AcDbSpline
210
0.0
220
0.0
230
1.0
 70
     8
 71
     3
 72
     8
 73
     4
 74
     0
 42
0.000000001
 43
0.00000001
 40
0.0
 40
0.0
 40
0.0
 40
0.0
 40
1.0
 40
1.0
 40
1.0
 40
1.0
 10
227.5277615075729
 20
45.77058492437157
 30
0.0
 10
227.5583695416961
 20
45.75564491656545
 30
0.0
 10
227.588921042668
 20
45.74076795917208
 30
0.0
 10
227.6194149807826
 20
45.72595439549116
 30
0.0
  0
LWPOLYLINE
  5
2E2
330
1F
100
AcDbEntity
  8
0
  6
Continuous
 62
     7
370
    25
100
AcDbPolyline
 90
        3
 70
   128
 43
0.0
 10
231.1675346398
 20
45.2590348537
 10
230.6930049599
 20
45.061072548
 10
229.9561502903
 20
44.835030216
  0
LWPOLYLINE
  5
2E3
330
1F
100
AcDbEntity
  8
0
  6
Continuous
 62
     7
370
    18
100
AcDbPolyline
 90
       20
 70
   128
 43
0.0
 10
268.5162323519
 20
26.6057517455
 10
268.5575046533
 20
27.3567223734
 10
268.6806149392
 20
28.1424954161
 10
268.8834568551
 20
28.9496262772
 10
269.1625598714
 20
29.7643045159
 10
269.5131485526
 20
30.5725910104
 10
269.9292238875
 20
31.3606555948
 10
270.4036670099
 20
32.115014219
 10
270.9283598771
 20
32.8227598327
 10
271.494324881
 20
33.4717823366
 10
272.0918783717
 20
34.0509769818
 10
272.7107957871
 20
34.5504336148
 10
273.3404874023
 20
34.9616065769
 10
273.9701790174
 20
35.2774600784
 10
274.5890964328
 20
35.4925902828
 10
275.1866499235
 20
35.6033162127
 10
275.7526149274
 20
35.6077429933
 10
276.2773077946
 20
35.5057948692
 10
276.7517509171
 20
35.2992166143
 10
276.9360561221
 20
35.180609125
  0
ARC
  5
2E4
330
1F
100
AcDbEntity
  8
0
  6
Continuous
 62
     7
370
    18
100
AcDbCircle
 10
271.8639632841
 20
26.2625925177
 30
0.0
 40
3.365272745333732
100
AcDbArc
 50
174.1473363491
 51
238.8795129293
  0
LWPOLYLINE
  5
2E5
330
1F
100
AcDbEntity
  8
0
  6
Continuous
 62
     7
370
    18
100
AcDbPolyline
 90
       45
 70
   128
 43
0.0
 10
269.8727866231
 20
26.6365211565
 10
269.9147154934
 20
27.3376962325
 10
270.0396483013
 20
28.0730072581
 10
270.2450420771
 20
28.8274857106
 10
270.5267153926
 20
29.5857723429
 10
270.8789343007
 20
30.3324307717
 10
271.2945284042
 20
31.0522608721
 10
271.765037711
 20
31.7306095082
 10
272.2808838559
 20
32.3536670973
 10
272.8315657705
 20
32.9087501512
 10
273.4058730517
 20
33.3845584829
 10
273.9921145587
 20
33.771406413
 10
274.5783560658
 20
34.0614185196
 10
275.1526633469
 20
34.2486912606
 10
275.7033452615
 20
34.3294120118
 10
276.2191914064
 20
34.3019377043
 10
276.6897007132
 20
34.1668275507
 10
277.1052948167
 20
33.9268321886
 10
277.4575137248
 20
33.586837055
 10
277.7391870403
 20
33.1537635104
 10
277.9445808162
 20
32.6364276638
 10
278.0695136241
 20
32.0453609878
 10
278.1114424943
 20
31.392595955
 10
278.0695136241
 20
30.691420879
 10
277.9445808162
 20
29.9561098534
 10
277.7391870403
 20
29.2016314009
 10
277.4575137248
 20
28.4433447686
 10
277.1052948167
 20
27.6966863398
 10
276.6897007132
 20
26.9768562394
 10
276.2191914064
 20
26.2985076033
 10
275.7033452615
 20
25.6754500142
 10
275.1526633469
 20
25.1203669603
 10
274.5783560658
 20
24.6445586286
 10
273.9921145587
 20
24.2577106985
 10
273.4058730517
 20
23.967698592
 10
272.8315657705
 20
23.7804258509
 10
272.2808838559
 20
23.6997050997
 10
271.765037711
 20
23.7271794072
 10
271.2945284042
 20
23.8622895608
 10
270.8789343007
 20
24.1022849229
 10
270.5267153926
 20
24.4422800565
 10
270.2450420771
 20
24.8753536011
 10
270.0396483013
 20
25.3926894477
 10
269.9147154934
 20
25.9837561237
 10
269.8727866231
 20
26.6365211565
  0
LWPOLYLINE
  5
2E6
330
1F
100
AcDbEntity
  8
0
  6
Continuous
 62
     7
370
    18
100
AcDbPolyline
 90
       40
 70
   128
 43
0.0
 10
270.7971605243
 20
27.170150851
 10
270.8385345708
 20
27.7858593608
 10
270.9615842707
 20
28.4333902366
 10
271.1631232563
 20
29.0959731941
 10
271.4379317392
 20
29.7564475471
 10
271.7788921704
 20
30.397707446
 10
272.1771739619
 20
31.0031445442
 10
272.6224615903
 20
31.557078257
 10
273.1032226241
 20
32.0451620131
 10
273.6070054272
 20
32.4547545467
 10
274.1207623808
 20
32.7752479357
 10
274.6311874285
 20
32.9983417402
 10
275.1250607831
 20
33.1182572077
 10
275.5895915759
 20
33.1318894512
 10
276.0127484045
 20
33.0388847726
 10
276.3835718535
 20
32.8416520634
 10
276.6924578745
 20
32.5452997787
 10
276.9314064686
 20
32.1575030705
 10
277.0942289641
 20
31.6883058579
 10
277.1767080417
 20
31.149859783
 10
277.1767080417
 20
30.5561106999
 10
277.0942289641
 20
29.922436309
 10
276.9314064686
 20
29.2652482447
 10
276.6924578745
 20
28.601567362
 10
276.3835718535
 20
27.9485828686
 10
276.0127484045
 20
27.3232065185
 10
275.5895915759
 20
26.7416353651
 10
275.1250607831
 20
26.2189317715
 10
274.6311874285
 20
25.768633201
 10
274.1207623808
 20
25.4024027896
 10
273.6070054272
 20
25.1297250259
 10
273.1032226241
 20
24.9576623159
 10
272.6224615903
 20
24.8906711975
 10
272.1771739619
 20
24.9304867579
 10
271.7788921704
 20
25.0760774877
 10
271.4379317392
 20
25.3236728521
 10
271.1631232563
 20
25.6668600844
 10
270.9615842707
 20
26.0967510822
 10
270.8385345708
 20
26.6022117985
 10
270.7971605243
 20
27.170150851
  0
LWPOLYLINE
  5
2E7
330
1F
100
AcDbEntity
  8
0
  6
Continuous
 62
     7
370
    18
100
AcDbPolyline
 90
       22
 70
   128
 43
0.0
 10
275.7859720178
 20
32.892822614
 10
275.8920110191
 20
32.8464891621
 10
276.2299214014
 20
32.6176832208
 10
276.5028057819
 20
32.2928939526
 10
276.7032204674
 20
31.8809805933
 10
276.8256985506
 20
31.393178877
 10
276.8668990706
 20
30.8427947939
 10
276.8256985506
 20
30.244841603
 10
276.7032204674
 20
29.6156297018
 10
276.5028057819
 20
28.9723224719
 10
276.2299214014
 20
28.3324676044
 10
275.8920110191
 20
27.7135186402
 10
275.4982916239
 20
27.1323588916
 10
275.0595030066
 20
26.6048410536
 10
274.5876142137
 20
26.1453542424
 10
274.0954970944
 20
25.7664321144
 10
273.5965753375
 20
25.4784107149
 10
273.1044582182
 20
25.289146511
 10
272.6325694253
 20
25.203802119
 10
272.193780808
 20
25.2247054031
 10
271.8000614128
 20
25.351286414
 10
271.5049799665
 20
25.5427440002
  0
LWPOLYLINE
  5
2E8
330
1F
100
AcDbEntity
  8
0
  6
Continuous
 62
     7
370
    18
100
AcDbPolyline
 90
       28
 70
   128
 43
0.0
 10
245.0007370464
 20
37.5868436143
 10
245.0421878133
 20
38.493608547
 10
245.1660547669
 20
39.4376008612
 10
245.370885158
 20
40.4077528213
 10
245.6542772746
 20
41.392690314
 10
246.0129094184
 20
42.3808660222
 10
246.4425767827
 20
43.3606943079
 10
246.9382415019
 20
44.3206877112
 10
247.49409225
 20
45.2495913562
 10
248.1036130584
 20
46.1365143148
 10
248.7596567437
 20
46.9710579276
 10
249.4545326582
 20
47.7434394659
 10
250.1800936188
 20
48.4446012505
 10
250.9278332059
 20
49.0663246164
 10
251.6889847928
 20
49.6013197809
 10
252.4546246075
 20
50.0433142378
 10
253.2157761944
 20
50.3871259897
 10
253.9635157816
 20
50.6287243747
 10
254.6890767421
 20
50.7652774439
 10
255.3839526567
 20
50.7951825594
 10
256.0399963419
 20
50.7180908628
 10
256.6495171504
 20
50.5349056501
 10
257.2053678985
 20
50.2477736184
 10
257.7010326177
 20
49.8600625185
 10
258.1306999819
 20
49.3763176121
 10
258.4893321257
 20
48.8022097635
 10
258.7727242424
 20
48.144469844
 10
258.9555869057
 20
47.5096500132
  0
LWPOLYLINE
  5
2E9
330
1F
100
AcDbEntity
  8
0
  6
Continuous
 62
     7
370
    18
100
AcDbPolyline
 90
       14
 70
   128
 43
0.0
 10
250.4562776365
 20
32.7868191218
 10
250.1800936188
 20
32.7090437896
 10
249.4545326582
 20
32.5724907205
 10
248.7596567437
 20
32.542585605
 10
248.1036130584
 20
32.6196773016
 10
247.49409225
 20
32.8028625142
 10
246.9382415019
 20
33.089994546
 10
246.4425767827
 20
33.4777056459
 10
246.0129094184
 20
33.9614505523
 10
245.6542772746
 20
34.5355584009
 10
245.370885158
 20
35.1932983203
 10
245.1660547669
 20
35.9269581448
 10
245.0421878133
 20
36.7279367185
 10
245.0007370464
 20
37.5868436143
  0
LWPOLYLINE
  5
2EA
330
1F
100
AcDbEntity
  8
0
  6
Continuous
 62
     7
370
    18
100
AcDbPolyline
 90
       29
 70
   128
 43
0.0
 10
234.6504616214
 20
38.8777886757
 10
234.6916562145
 20
40.0062442498
 10
234.8149337708
 20
41.1739065314
 10
235.019382206
 20
42.3721312344
 10
235.3034881849
 20
43.5920471308
 10
235.6651476578
 20
44.82462202
 10
236.1016829827
 20
46.0607302184
 10
236.6098626817
 20
47.2912206187
 10
237.1859244901
 20
48.5069832285
 10
237.825603015
 20
49.6990157082
 10
238.5241620044
 20
50.8584940907
 10
239.2764299082
 20
51.9768328551
 10
240.0768380741
 20
53.0457533643
 10
240.9194592722
 20
54.0573403263
 10
241.7980554397
 20
55.004105858
 10
242.7061218032
 20
55.8790392922
 10
243.6369354465
 20
56.6756625912
 10
244.5836050305
 20
57.3880795821
 10
245.5391214809
 20
58.011014344
 10
246.4964106096
 20
58.5398552739
 10
247.4483850989
 20
58.9706873776
 10
248.3879965676
 20
59.3003200458
 10
249.3082886452
 20
59.5263131308
 10
250.2024478658
 20
59.6469941582
 10
251.0638543753
 20
59.66146935
 10
251.8861301701
 20
59.5696309385
 10
252.6631876649
 20
59.3721593489
 10
253.3892738147
 20
59.0705159701
 10
253.6466652771
 20
58.9313442196
  0
LWPOLYLINE
  5
2EB
330
1F
100
AcDbEntity
  8
0
  6
Continuous
 62
     7
370
    18
100
AcDbPolyline
 90
       11
 70
   128
 43
0.0
 10
237.9104439625
 20
31.6724558258
 10
237.825603015
 20
31.7225018647
 10
237.1859244901
 20
32.1759772401
 10
236.6098626817
 20
32.7266330432
 10
236.1016829827
 20
33.370391652
 10
235.6651476578
 20
34.1024868924
 10
235.3034881849
 20
34.9174986423
 10
235.019382206
 20
35.8093927576
 10
234.8149337708
 20
36.7715663217
 10
234.6916562145
 20
37.7968953666
 10
234.6504616214
 20
38.8777886757
  0
LWPOLYLINE
  5
2EC
330
1F
100
AcDbEntity
  8
0
  6
Continuous
 62
     7
370
    18
100
AcDbPolyline
 90
        8
 70
   128
 43
0.0
 10
247.1220570791
 20
37.5868432342
 10
247.1626978363
 20
36.8045504841
 10
247.2840689062
 20
36.0797588341
 10
247.4845291959
 20
35.4222700445
 10
247.7613684655
 20
34.8409757018
 10
248.11084256
 20
34.3437366818
 10
248.5282257643
 20
33.9372774409
 10
248.8828104935
 20
33.6951625948
  0
LWPOLYLINE
  5
2ED
330
1F
100
AcDbEntity
  8
0
  6
Continuous
 62
     7
370
    18
100
AcDbPolyline
 90
       22
 70
   128
 43
0.0
 10
257.3821195981
 20
48.4179932011
 10
257.257057057
 20
48.486061612
 10
256.7216317253
 20
48.695773563
 10
256.1376690292
 20
48.802178523
 10
255.5130659051
 20
48.8038375256
 10
254.8562693389
 20
48.70072801
 10
254.1761613673
 20
48.4942447346
 10
253.4819391816
 20
48.1871792325
 10
252.7829909101
 20
47.783684984
 10
252.0887687244
 20
47.2892186116
 10
251.4086607527
 20
46.7104659371
 10
250.7518641865
 20
46.0552542787
 10
250.1272610625
 20
45.3324438592
 10
249.5432983664
 20
44.5518099216
 10
249.0078730347
 20
43.7239090412
 10
248.5282257643
 20
42.8599368336
 10
248.11084256
 20
41.9715772026
 10
247.7613684655
 20
41.0708439816
 10
247.4845291959
 20
40.1699178218
 10
247.2840689062
 20
39.2809825082
 10
247.1626978363
 20
38.4160588038
 10
247.1220570791
 20
37.5868432342
  0
LWPOLYLINE
  5
2EE
330
1F
100
AcDbEntity
  8
0
  6
Continuous
 62
     7
370
    18
100
AcDbPolyline
 90
       14
 70
   128
 43
0.0
 10
239.2745430599
 20
35.542152048
 10
239.2012562757
 20
35.9315761917
 10
239.085169367
 20
36.9058144784
 10
239.0527452696
 20
37.9362760482
 10
239.1042599137
 20
39.0141756155
 10
239.2392733916
 20
40.1303234199
 10
239.4566365432
 20
41.275205002
 10
239.7544942485
 20
42.4390590442
 10
240.1303084771
 20
43.6119640251
 10
240.5808747513
 20
44.7839205388
 10
241.1023524396
 20
45.9449368435
 10
241.6902950494
 20
47.0851155515
 10
242.3396910571
 20
48.1947372768
 10
243.0450040789
 20
49.2643404792
  0
LWPOLYLINE
  5
2EF
330
1F
100
AcDbEntity
  8
0
  6
Continuous
 62
     7
370
    18
100
AcDbPolyline
 90
       18
 70
   128
 43
0.0
 10
239.7863388268
 20
32.612224347
 10
239.5364751866
 20
32.9800631605
 10
239.138235542
 20
33.7205438539
 10
238.8181829111
 20
34.5440107087
 10
238.5789764967
 20
35.4436183587
 10
238.4226051033
 20
36.4118899362
 10
238.3503686977
 20
37.4407779347
 10
238.3628672139
 20
38.5217301558
 10
238.4599966019
 20
39.6457620969
 10
238.6409501447
 20
40.8035314281
 10
238.9042230681
 20
41.9854149179
 10
239.2476276873
 20
43.1815893021
 10
239.6683098702
 20
44.3821123666
 10
240.1627734042
 20
45.577006786
 10
240.7269069959
 20
46.7563386391
 10
241.3560231255
 20
47.9103082806
 10
242.044892291
 20
49.0293225814
 10
242.7877891064
 20
50.1040823782
  0
LINE
  5
2F0
330
1F
100
AcDbEntity
  8
0
  6
Continuous
 62
     7
370
    18
100
AcDbLine
 10
245.779712552
 20
51.5051029456
 30
0.0
 11
245.8228722419
 21
51.5503297077
 31
0.0
  0
ARC
  5
2F1
330
1F
100
AcDbEntity
  8
0
  6
Continuous
 62
     7
370
    18
100
AcDbCircle
 10
255.9469523435
 20
42.211313513
 30
0.0
 40
14.48276781207009
100
AcDbArc
 50
110.0665409331
 51
139.2901057068
  0
LWPOLYLINE
  5
2F2
330
1F
100
AcDbEntity
  8
0
  6
Continuous
 62
     7
370
    18
100
AcDbPolyline
 90
       12
 70
   128
 43
0.0
 10
244.131982168
 20
51.7762458955
 10
245.0000646724
 20
52.7026179397
 10
245.8984445048
 20
53.552091605
 10
246.8194440239
 20
54.317405001
 10
247.7551918942
 20
54.9920194084
 10
248.6976906483
 20
55.5701681674
 10
249.6388854432
 20
56.046910059
 10
250.5707323428
 20
56.4181710044
 10
251.4852674243
 20
56.6807778759
 10
252.3746745878
 20
56.8324869957
 10
253.2313524184
 20
56.8720006817
 10
253.7709456783
 20
56.8368989845
  0
LINE
  5
2F3
330
1F
100
AcDbEntity
  8
0
  6
Continuous
 62
     7
370
    18
100
AcDbLine
 10
230.1640974079
 20
49.2503962745
 30
0.0
 11
230.4702613351
 21
48.8796612186
 31
0.0
  0
LINE
  5
2F4
330
1F
100
AcDbEntity
  8
0
  6
Continuous
 62
     7
370
    18
100
AcDbLine
 10
230.1640974079
 20
41.4862861268
 30
0.0
 11
230.4702613351
 21
42.1738195953
 31
0.0
  0
LINE
  5
2F5
330
1F
100
AcDbEntity
  8
0
  6
Continuous
 62
     7
370
    18
100
AcDbLine
 10
231.2061716519
 20
42.5986515784
 30
0.0
 11
230.4702685791
 21
42.1738237772
 31
0.0
  0
LINE
  5
2F6
330
1F
100
AcDbEntity
  8
0
  6
Continuous
 62
     7
370
    18
100
AcDbLine
 10
231.1395960949
 20
43.3418775461
 30
0.0
 11
229.8303246607
 21
42.5860512354
 31
0.0
  0
LINE
  5
2F7
330
1F
100
AcDbEntity
  8
0
  6
Continuous
 62
     7
370
    18
100
AcDbLine
 10
226.6532458292
 20
44.1604601951
 30
0.0
 11
226.356758555
 21
43.6643985773
 31
0.0
  0
LINE
  5
2F8
330
1F
100
AcDbEntity
  8
0
  6
Continuous
 62
     7
370
    18
100
AcDbLine
 10
228.48506344
 20
45.2179459927
 30
0.0
 11
226.6533064153
 21
44.1604951707
 31
0.0
  0
LINE
  5
2F9
330
1F
100
AcDbEntity
  8
0
  6
Continuous
 62
     7
370
    18
100
AcDbLine
 10
228.48506344
 20
45.2179459927
 30
0.0
 11
228.6063735945
 21
45.1561954793
 31
0.0
  0
OLE2FRAME
  5
2FA
330
1F
100
AcDbEntity
  8
0
100
AcDbOle2Frame
 70
     2
  3
Paintbrush-Bild
 10
13.8511154363
 20
38.264191557
 30
0.0
 11
51.6290888628
 21
31.9806341108
 31
0.0
 71
     2
 72
     0
 73
     1
 90
    12928
310
80552BED0767C5B32B40DDAF6807D121434000000000000000006FFBDDFB85D0
310
4940DDAF6807D121434000000000000000006FFBDDFB85D04940416F4BD60AFB
310
3F4000000000000000002BED0767C5B32B40416F4BD60AFB3F40000000000000
310
0000000000000100000000010000010000000100000000000100000000320000
310
D0CF11E0A1B11AE1000000000000000000000000000000003E000300FEFF0900
310
0600000000000000000000000100000001000000000000000010000002000000
310
01000000FEFFFFFF0000000000000000FFFFFFFFFFFFFFFFFFFFFFFFFFFFFFFF
310
FFFFFFFFFFFFFFFFFFFFFFFFFFFFFFFFFFFFFFFFFFFFFFFFFFFFFFFFFFFFFFFF
310
FFFFFFFFFFFFFFFFFFFFFFFFFFFFFFFFFFFFFFFFFFFFFFFFFFFFFFFFFFFFFFFF
310
FFFFFFFFFFFFFFFFFFFFFFFFFFFFFFFFFFFFFFFFFFFFFFFFFFFFFFFFFFFFFFFF
310
FFFFFFFFFFFFFFFFFFFFFFFFFFFFFFFFFFFFFFFFFFFFFFFFFFFFFFFFFFFFFFFF
310
FFFFFFFFFFFFFFFFFFFFFFFFFFFFFFFFFFFFFFFFFFFFFFFFFFFFFFFFFFFFFFFF
310
FFFFFFFFFFFFFFFFFFFFFFFFFFFFFFFFFFFFFFFFFFFFFFFFFFFFFFFFFFFFFFFF
310
FFFFFFFFFFFFFFFFFFFFFFFFFFFFFFFFFFFFFFFFFFFFFFFFFFFFFFFFFFFFFFFF
310
FFFFFFFFFFFFFFFFFFFFFFFFFFFFFFFFFFFFFFFFFFFFFFFFFFFFFFFFFFFFFFFF
310
FFFFFFFFFFFFFFFFFFFFFFFFFFFFFFFFFFFFFFFFFFFFFFFFFFFFFFFFFFFFFFFF
310
FFFFFFFFFFFFFFFFFFFFFFFFFFFFFFFFFFFFFFFFFFFFFFFFFFFFFFFFFFFFFFFF
310
FFFFFFFFFFFFFFFFFFFFFFFFFFFFFFFFFFFFFFFFFFFFFFFFFFFFFFFFFFFFFFFF
310
FFFFFFFFFFFFFFFFFFFFFFFFFFFFFFFFFFFFFFFFFFFFFFFFFFFFFFFFFFFFFFFF
310
FFFFFFFFFFFFFFFFFFFFFFFFFFFFFFFFFFFFFFFFFFFFFFFFFFFFFFFFFFFFFFFF
310
FDFFFFFFFEFFFFFFFEFFFFFFFEFFFFFF05000000060000000700000008000000
310
090000000A0000000B0000000C0000000D0000000E0000000F00000010000000
310
11000000120000001300000014000000150000001600000017000000FEFFFFFF
310
FFFFFFFFFFFFFFFFFFFFFFFFFFFFFFFFFFFFFFFFFFFFFFFFFFFFFFFFFFFFFFFF
310
FFFFFFFFFFFFFFFFFFFFFFFFFFFFFFFFFFFFFFFFFFFFFFFFFFFFFFFFFFFFFFFF
310
FFFFFFFFFFFFFFFFFFFFFFFFFFFFFFFFFFFFFFFFFFFFFFFFFFFFFFFFFFFFFFFF
310
FFFFFFFFFFFFFFFFFFFFFFFFFFFFFFFFFFFFFFFFFFFFFFFFFFFFFFFFFFFFFFFF
310
FFFFFFFFFFFFFFFFFFFFFFFFFFFFFFFFFFFFFFFFFFFFFFFFFFFFFFFFFFFFFFFF
310
FFFFFFFFFFFFFFFFFFFFFFFFFFFFFFFFFFFFFFFFFFFFFFFFFFFFFFFFFFFFFFFF
310
FFFFFFFFFFFFFFFFFFFFFFFFFFFFFFFFFFFFFFFFFFFFFFFFFFFFFFFFFFFFFFFF
310
FFFFFFFFFFFFFFFFFFFFFFFFFFFFFFFFFFFFFFFFFFFFFFFFFFFFFFFFFFFFFFFF
310
FFFFFFFFFFFFFFFFFFFFFFFFFFFFFFFFFFFFFFFFFFFFFFFFFFFFFFFFFFFFFFFF
310
FFFFFFFFFFFFFFFFFFFFFFFFFFFFFFFFFFFFFFFFFFFFFFFFFFFFFFFFFFFFFFFF
310
FFFFFFFFFFFFFFFFFFFFFFFFFFFFFFFFFFFFFFFFFFFFFFFFFFFFFFFFFFFFFFFF
310
FFFFFFFFFFFFFFFFFFFFFFFFFFFFFFFFFFFFFFFFFFFFFFFFFFFFFFFFFFFFFFFF
310
FFFFFFFFFFFFFFFFFFFFFFFFFFFFFFFFFFFFFFFFFFFFFFFFFFFFFFFFFFFFFFFF
310
52006F006F007400200045006E00740072007900000000000000000000000000
310
0000000000000000000000000000000000000000000000000000000000000000
310
16000500FFFFFFFFFFFFFFFF020000000A00030000000000C000000000000046
310
000000000000000000000000209F3145F3A6D30103000000C000000000000000
310
01004F006C006500000000000000000000000000000000000000000000000000
310
0000000000000000000000000000000000000000000000000000000000000000
310
0A000200FFFFFFFFFFFFFFFFFFFFFFFF00000000000000000000000000000000
310
0000000000000000000000000000000000000000000000001400000000000000
310
010043006F006D0070004F0062006A0000000000000000000000000000000000
310
0000000000000000000000000000000000000000000000000000000000000000
310
120002010100000003000000FFFFFFFF00000000000000000000000000000000
310
0000000000000000000000000000000000000000010000004D00000000000000
310
01004F006C006500310030004E00610074006900760065000000000000000000
310
0000000000000000000000000000000000000000000000000000000000000000
310
1A000200FFFFFFFFFFFFFFFFFFFFFFFF00000000000000000000000000000000
310
0000000000000000000000000000000000000000040000002426000000000000
310
FEFFFFFF02000000FEFFFFFFFFFFFFFFFFFFFFFFFFFFFFFFFFFFFFFFFFFFFFFF
310
FFFFFFFFFFFFFFFFFFFFFFFFFFFFFFFFFFFFFFFFFFFFFFFFFFFFFFFFFFFFFFFF
310
FFFFFFFFFFFFFFFFFFFFFFFFFFFFFFFFFFFFFFFFFFFFFFFFFFFFFFFFFFFFFFFF
310
FFFFFFFFFFFFFFFFFFFFFFFFFFFFFFFFFFFFFFFFFFFFFFFFFFFFFFFFFFFFFFFF
310
FFFFFFFFFFFFFFFFFFFFFFFFFFFFFFFFFFFFFFFFFFFFFFFFFFFFFFFFFFFFFFFF
310
FFFFFFFFFFFFFFFFFFFFFFFFFFFFFFFFFFFFFFFFFFFFFFFFFFFFFFFFFFFFFFFF
310
FFFFFFFFFFFFFFFFFFFFFFFFFFFFFFFFFFFFFFFFFFFFFFFFFFFFFFFFFFFFFFFF
310
FFFFFFFFFFFFFFFFFFFFFFFFFFFFFFFFFFFFFFFFFFFFFFFFFFFFFFFFFFFFFFFF
310
FFFFFFFFFFFFFFFFFFFFFFFFFFFFFFFFFFFFFFFFFFFFFFFFFFFFFFFFFFFFFFFF
310
FFFFFFFFFFFFFFFFFFFFFFFFFFFFFFFFFFFFFFFFFFFFFFFFFFFFFFFFFFFFFFFF
310
FFFFFFFFFFFFFFFFFFFFFFFFFFFFFFFFFFFFFFFFFFFFFFFFFFFFFFFFFFFFFFFF
310
FFFFFFFFFFFFFFFFFFFFFFFFFFFFFFFFFFFFFFFFFFFFFFFFFFFFFFFFFFFFFFFF
310
FFFFFFFFFFFFFFFFFFFFFFFFFFFFFFFFFFFFFFFFFFFFFFFFFFFFFFFFFFFFFFFF
310
FFFFFFFFFFFFFFFFFFFFFFFFFFFFFFFFFFFFFFFFFFFFFFFFFFFFFFFFFFFFFFFF
310
FFFFFFFFFFFFFFFFFFFFFFFFFFFFFFFFFFFFFFFFFFFFFFFFFFFFFFFFFFFFFFFF
310
FFFFFFFFFFFFFFFFFFFFFFFFFFFFFFFFFFFFFFFFFFFFFFFFFFFFFFFFFFFFFFFF
310
0100000200000000000000000000000000000000000000000000000000000000
310
0000000000000000000000000000000000000000000000000000000000000000
310
0100FEFF030A0000FFFFFFFF0A00030000000000C00000000000004607000000
310
5042727573680007000000504272757368000700000050427275736800F439B2
310
7100000000000000000000000000000000000000000000000000000000000000
310
0000000000000000000000000000000000000000000000000000000000000000
310
0000000000000000000000000000000000000000000000000000000000000000
310
0000000000000000000000000000000000000000000000000000000000000000
310
0000000000000000000000000000000000000000000000000000000000000000
310
0000000000000000000000000000000000000000000000000000000000000000
310
0000000000000000000000000000000000000000000000000000000000000000
310
0000000000000000000000000000000000000000000000000000000000000000
310
0000000000000000000000000000000000000000000000000000000000000000
310
0000000000000000000000000000000000000000000000000000000000000000
310
0000000000000000000000000000000000000000000000000000000000000000
310
0000000000000000000000000000000000000000000000000000000000000000
310
20260000424D0E260000000000003E00000028000000B40200006E0000000100
310
01000000000000000000130B0000130B00000200000002000000000000FFFFFF
310
FFFFFFFFFFFFFFFFFFFFFFFFFFFFFFFFFFFFFFFFFFFFFFFFFFFFFFFFFFFFFFFF
310
FFFFFFFFFFFFFFFFFFFFFFFFFFFFFFFFFFFFFFFFFFFFFFFFFFFFFFFFFFFFFFFF
310
FFFFFFFFFFFFFFFFFFFFFFFFFFFFFFFFFFFFFFFFFFFFFFFFF000FFFFFFFFFFFF
310
FFFFFFFFFFFFFFFFFFFFFFFFFFFFFFFFFFFFFFFFFFFFFFFFFFFFFFFFFFFFFFFF
310
FFFFFFFFFFFFFFFFFFFFFFFFFFFFFFFFFFFFFFFFFFFFFFFFFFFFFFFFFFFFFFFF
310
FFFFFFFFFFFFFFFFFFFFFFFFFFFFFFFFF000FFFFFFFFFFFFFFFFFFFFFFFFFFFF
310
FFFFFFFFFFFFFFFFFFFFFFFFFFFFFFFFFFFFFFFFFFFFFFFFFFFFFFFFFFFFFFFF
310
FFFFFFFFFFFFFFFFFFFFFFFFFFFFFFFFFFFFFFFFFFFFFFFFFFFFFFFFFFFFFFFF
310
FFFFFFFFFFFFFFFFF000FFFFFFFFFFFFFFFFFFFFFFFFFFFFFFFFFFFFFFFFFFFF
310
FFFFFFFFFFFFFFFFFFFFFFFFFFFFFFFFFFFFFFFFFFFFFFFFFFFFFFFFFFFFFFFF
310
FFFFFFFFFFFFFFFFFFFFFFFFFFFFFFFFFFFFFFFFFFFFFFFFFFFFFFFFFFFFFFFF
310
F000FFFFFFFFFFFFFFFFFFFFFFFFFFFFFFFFFFFFFFFFFFFFFFFFFFFFFFFFFFFF
310
FFFFFFFFFFFFFFFFFFFFFFFFFFFFFFFFFFFFFFFFFFFFFFFFFFFFFFFFFFFFFFFF
310
FFFFFFFFFFFFFFFFFFFFFFFFFFFFFFFFFFFFFFFFFFFFFFFFF000FFFFFFFFFFFF
310
FFFFFFFFFFFFFFFFFFFFFFFFFFFFFFFFFFFFFFFFFFFFFFFFFFFFFFFFFFFFFFFF
310
FFFFFFFFFFFFFFFFFFFFFFFFFFFFFFFFFFFFFFFFFFFFFFFFFFFFFFFFFFFFFFFF
310
FFFFFFFFFFFFFFFFFFFFFFFFFFFFFFFFF000FFFFFFFFFFFFFFFFFFFFFFFFFFFF
310
FFFFFFFFFFFFFFFFFFFFFFFFFFFFFFFFFFFFFFFFFFFFFFFFFFFFFFFFFFFFFFFF
310
FFFFFFFFFFFFFFFFFFFFFFFFFFFFFFFFFFFFFFFFFFFFFFFFFFFFFFFFFFFFFFFF
310
FFFFFFFFFFFFFFFFF000FFFFFFFFFFFFFFFFFFFFFFFFFFFFFFFFFFFFFFFFFFFF
310
FFFFFFFFFFFFFFFFFFFFFFFFFFFFFFFFFFFFFFFFFFFFFFFFFFFFFFFFFFFFFFFF
310
FFFFFFFFFFFFFFFFFFFFFFFFFFFFFFFFFFFFFFFFFFFFFFFFFFFFFFFFFFFFFFFF
310
F000FFFFFFFFFFFFFFFFFFFFFFFFFFFFFFFFFFFFFFFFFFFFFFFFFFFFFFFFFFFF
310
FFFFFFFFFFFFFFFFFFFFFFFFFFFFFFFFFFFFFFFFFFFFFFFFFFFFFFFFFFFFFFFF
310
FFFFFFFFFFFFFFFFFFFFFFFFFFFFFFFFFFFFFFFFFFFFFFFFF000FFFFFFFFFFFF
310
FFFFFFFFFFFFFFFFFFFFFFFFFFFFFFFFFFFFFFFFFFFFFFFFFFFFFFFFFFFFFFFF
310
FFFFFFFFFFFFFFFFFFFFFFFFFFFFFFFFFFFFFFFFFFFFFFFFFFFFFFFFFFFFFFFF
310
FFFFFFFFFFFFFFFFFFFFFFFFFFFFFFFFF000FFFFFFFFFFFFFFFFFFFFFFFFFFFF
310
FFFFFFFFFFFFFFFFFFFFFFFFFFFFFFFFFFFFFFFFFFFFFFFFFFFFFFFFFFFFFFFF
310
FFFFFFFFFFFFFFFFFFFFFFFFFFFFFFFFFFFFFFFFFFFFFFFFFFFFFFFFFFFFFFFF
310
FFFFFFFFFFFFFFFFF000FFFFFFFFFFFFFFFFFFFFFFFFFFFFFFFFFFFFFFFFFFFF
310
FFFFFFFFFFFFFFFFFFFFFFFFFFFFFFFFFFFFFFFFFFFFFFFFFFFFFFFFFFFFFFFF
310
FFFFFFFFFFFFFFFFFFFFFFFFFFFFFFFFFFFFFFFFFFFFFFFFFFFFFFFFFFFFFFFF
310
F000FFFFFFFFFFFFFFFFFFFFFFFFFFFFFFFFFFFFFFFFFFFFFFFFFFFFFFFFFFFF
310
FFFFFFFFFFFFFFFFFFFFFFFFFFFFFFFFFFFFFFFFFFFFFFFFFFFFFFFFFFFFFFFF
310
FFFFFFFFFFFFFFFFFFFFFFFFFFFFFFFFFFFFFFFFFFFFFFFFF000FFFFFFFFFFFF
310
FFFFFFFFFFFFFFFFFFFFFFFFFFFFFFFFFFFFFFFFFFFFFFFFFFFFFFFFFFFFFFFF
310
FFFFFFFFFFFFFFFFFFFFFFFFFFFFFFFFFFFFFFFFFFFFFFFFFFFFFFFFFFFFFFFF
310
FFFFFFFFFFFFFFFFFFFFFFFFFFFFFFFFF000FFFFFFFFFFFFFFFFFFFFFFFFFFFF
310
FFFFFFFFFFFFFFFFFFFFFFFFFFFFFFFFFFFFFFFFFFFFFFFFFFFFFFFFFFFFFFFF
310
FFFFFFFFFFFFFFFFFFFFFFFFFFFFFFFFFFFFFFFFFFFFFFFFFFFFFFFFFFFFFFFF
310
FFFFFFFFFFFFFFFFF000FFFFFFFFFFFFFFFFFFFFFFFFFFFFFFFFFFFFFFFFFFFF
310
FFFFFFFFFFFFFFFFFFFFFFFFFFFFFFFFFFFFFFFFFFFFFFFFFFFFFFFFFFFFFFFF
310
FFFFFFFFFFFFFFFFFFFFFFFFFFFFFFFFFFFFFFFFFFFFFFFFFFFFFFFFFFFFFFFF
310
F000FFFFFFFFFFFFFFFFFFFFFFFFFFFFFFFFFFFFFFFFFFFFFFFFFFFFFFFFFFFF
310
FFFFFFFFFFFFFFFFFFFFFFFFFFFFFFFFFFFFFFFFFFFFFFFFFFFFFFFFFFFFFFFF
310
FFFFFFFFFFFFFFFFFFFFFFFFFFFFFFFFFFFFFFFFFFFFFFFFF000FFFFFFFFFFFF
310
FFFFFFFFFFFFFFFFFFFFFFFFFFFFFFFFFFFFFFFFFFFFFFFFFFFFFFFFFFFFFFFF
310
FFFFFFFFFFFFFFFFFFFFFFFFFFFFFFFFFFFFFFFFFFFFFFFFFFFFFFFFFFFFFFFF
310
FFFFFFFFFFFFFFFFFFFFFFFFFFFFFFFFF000FFFFFFFFFFFFFFFFFFFFFFFFFFFF
310
FFFFFFFFFFFFFFFFFFFFFFFFFFFFFFFFFFFFFFFFFFFFFFFFFFFFFFFFFFFFFFFF
310
FFFFFFFFFFFFFFFFFFFFFFFFFFFFFFFFFFFFFFFFFFFFFFFFFFFFFFFFFFFFFFFF
310
FFFFFFFFFFFFFFFFF000FFFFF80003FFFFFFFFFFFFFFFFFFFFFFFFFFFFFFFFFF
310
FFFFF00007FFFFFFFFFF00007FFFFFF800000000000000007FFFFFFFFFFFFFFF
310
FFFFFFFC001FFFFFFFFFFFFFFC001FFFFFFFFFFFFFFFFFFFFFFFFFFE0007FFFF
310
F000FFFF8000007FFFFFFFF8000FFFFFC0007FFFFF80007FFFFF0000007FFFFF
310
FFF8000007FFFFF800000000000000007FFFFFF0001FFFFFFFFFFFC00001FFFF
310
FFFFFFFFC00001FFFFFFFF000000000003FFFFE000007FFFF000FFFE0000000F
310
FFFFFFF0000FFFFF80007FFFFF80007FFFFC0000001FFFFFFFC0000001FFFFF8
310
00000000000000007FFFFFF0001FFFFFFFFFFE0000003FFFFFFFFFFE0000003F
310
FFFFFF000000000003FFFF0000000FFFF000FFF800000003FFFFFFF00007FFFF
310
80007FFFFF80007FFFF000000007FFFFFF000000003FFFF80000000000000000
310
7FFFFFF0001FFFFFFFFFF80000000FFFFFFFFFF80000000FFFFFFF0000000000
310
03FFFC00000003FFF000FFE000000000FFFFFFF00007FFFF80003FFFFF80007F
310
FFC000000001FFFFFC000000001FFFF800000000000000007FFFFFF0001FFFFF
310
FFFFE000000003FFFFFFFFE000000003FFFFFF000000000003FFF000000000FF
310
F000FF80000000007FFFFFF00007FFFF80003FFFFF80007FFF8000000000FFFF
310
F80000000007FFF800000000000000007FFFFFF0001FFFFFFFFFC000000001FF
310
FFFFFFC000000001FFFFFF000000000003FFC0000000007FF000FF0000000000
310
3FFFFFE00007FFFF00003FFFFF80007FFE00000000003FFFF00000000003FFF8
310
00000000000000007FFFFFF0001FFFFFFFFF8000000000FFFFFFFF8000000000
310
FFFFFF000000000003FF80000000003FF000FE00000000001FFFFFE00003FFFF
310
00003FFFFF80007FFC00000000001FFFE00000000001FFF8000001FFFE000000
310
7FFFFFF0001FFFFFFFFE00000000003FFFFFFE00000000003FFFFF0000000000
310
03FF00000000001FF000FC00000000000FFFFFE00003FFFF00001FFFFF80007F
310
F800000000001FFFC00000000000FFF8000001FFFE0000007FFFFFF0001FFFFF
310
FFFC00000000001FFFFFFC00000000001FFFFF000000000003FE00000000000F
310
F000F8000000000007FFFFE00003FFFF00001FFFFF80007FF800000000000FFF
310
800000000000FFF8000001FFFE0000007FFFFFF0001FFFFFFFF800000000000F
310
FFFFF800000000000FFFFF000000000003FC000000000007F000F80000000000
310
03FFFFC00003FFFE00001FFFFF80007FF0000000000007FF0000000000007FF8
310
000001FFFE0000007FFFFFF0001FFFFFFFF0000000000007FFFFF00000000000
310
07FFFF000000000003F8000000000003F000F0000000000003FFFFC00001FFFE
310
00001FFFFF80007FE0000000000007FE0000000000003FF8000001FFFE000000
310
7FFFFFF0001FFFFFFFF0000000000007FFFFF0000000000007FFFF0000000000
310
03F800001F800003F000E00001FFF00001FFFFC00001FFFE00000FFFFF80007F
310
E00001FFE00003FE00001FFF00003FF8000001FFFE0000007FFFFFF0001FFFFF
310
FFE000003E000003FFFFE000003E000003FFFF000000000003F00001FFF80001
310
F000E00007FFFC0001FFFFC00001FFFE00000FFFFF80007FC0000FFFFC0003FC
310
0000FFFFC0001FF8000001FFFE0000007FFFFFF0001FFFFFFFC00003FFE00001
310
FFFFC00003FFE00001FFFF0001FFFFFFFFF00007FFFE0001F000E0000FFFFF00
310
00FFFF800001FFFC00000FFFFF80007FC0001FFFFE0001FC0001FFFFE0001FF8
310
000001FFFE0000007FFFFFF0001FFFFFFF80000FFFF80000FFFF80000FFFF800
310
00FFFF0003FFFFFFFFE0000FFFFF8000F000C0003FFFFF8000FFFF800000FFFC
310
000007FFFF80007F80003FFFFF0001FC0003FFFFF0001FF8000001FFFE000000
310
7FFFFFF0001FFFFFFF80003FFFFE0000FFFF80003FFFFE0000FFFF0003FFFFFF
310
FFE0003FFFFF8000F000C0003FFFFF8000FFFF800000FFFC000007FFFF80007F
310
80007FFFFF8001F80007FFFFF8000FF8000001FFFE0000007FFFFFF0001FFFFF
310
FF00007FFFFF00007FFF00007FFFFF00007FFF0003FFFFFFFFE0003FFFFFC000
310
F000C0007FFFFFC000FFFF000000FFFC000007FFFF80007F8000FFFFFF8000F8
310
000FFFFFF8000FF8000001FFFE0000007FFFFFF0001FFFFFFF0000FFFFFF8000
310
7FFF0000FFFFFF80007FFF0003FFFFFFFFC0007FFFFFC00070008000FFFFFFC0
310
00FFFF000000FFF8000007FFFF80007F8000FFFFFF8000F8000FFFFFF8000FF8
310
000001FFFE0000007FFFFFF0001FFFFFFE0001FFFFFFC0003FFE0001FFFFFFC0
310
003FFF0003FFFFFFFFC0007FFFFFE00070008000FFFFFFC0007FFF0000007FF8
310
000003FFFF80007F0001FFFFFF8000F8000FFFFFF8000FF8000001FFFE000000
310
7FFFFFF0001FFFFFFE0001FFFFFFC0003FFE0001FFFFFFC0003FFF0003FFFFFF
310
FFC000FFFFFFE00070008000FFFFFFC0007FFF0000007FF8000003FFFF80007F
310
0001FFFFFF8000F8001FFFFFF8000FF8000001FFFE0000007FFFFFF0001FFFFF
310
FE0003FFFFFFE0003FFE0003FFFFFFE0003FFF0003FFFFFFFFC000FFFFFFE000
310
70008000FFFFFFC0007FFE0000007FF8000003FFFF80007F0001FFFFFF8000F0
310
001FFFFFF8000FF8000001FFFE0000007FFFFFF0001FFFFFFC0003FFFFFFE000
310
1FFC0003FFFFFFE0001FFF0003FFFFFFFFC000FFFFFFC00070008000FFFFFF80
310
007FFE0000007FF0000003FFFF80007F0001FFFFFF0000F0001FFFFFF8000FF8
310
000001FFFE0000007FFFFFF0001FFFFFFC0007FFFFFFF0001FFC0007FFFFFFF0
310
001FFF0003FFFFFFFFC000FFFFFFC00070008001FFFFFF0000FFFE0000003FF0
310
000001FFFF80007F0001FFFFFF0000F8001FFFFFF0000FF8000001FFFE000000
310
7FFFFFF0001FFFFFFC0007FFFFFFF0001FFC0007FFFFFFF0001FFF0003FFFFFF
310
FFC001FFFFFF80007000FFFFFFFFFE0000FFFE0008003FF0008001FFFF80007F
310
FFFFFFFFFC0000FFFFFFFFFFE0000FF8000001FFFE0000007FFFFFF0001FFFFF
310
F8000FFFFFFFF8000FF8000FFFFFFFF8000FFF0003FFFFFFFFFFFFFFFFFF0000
310
7000FFFFFFFFFC0000FFFC0008003FF0008001FFFF80007FFFFFFFFFF80001FF
310
FFFFFFFF80000FF8000001FFFE0000007FFFFFF0001FFFFFF8000FFFFFFFF800
310
0FF8000FFFFFFFF8000FFF0003FFFFFFFFFFFFFFFFFE0000F000FFFFFFFFE000
310
00FFFC000C003FE000C001FFFF80007FFFFFFFFFC00001FFFFFFFFFE00001FF8
310
000001FFFE0000007FFFFFF0001FFFFFF8000FFFFFFFF8000FF8000FFFFFFFF8
310
000FFF0003FFFFFFFFFFFFFFFFF00000F000FFFFFFFE000001FFFC000C001FE0
310
00C000FFFF80007FFFFFFFFE000001FFFFFFFFE000001FF80FFFFFFFFFFFFFC0
310
7FFFFFF0001FFFFFF8000FFFFFFFF8000FF8000FFFFFFFF8000FFF0003FFFFFF
310
FFFFFFFFFF800000F000FFFFFFC0000001FFFC001C001FE001C000FFFF80007F
310
FFFFFF80000003FFFFFFF80000001FF80FFFFFFFFFFFFFC07FFFFFF0001FFFFF
310
F8001FFFFFFFFC000FF8001FFFFFFFFC000FFF0003FFFFFFFFFFFFFFF0000001
310
F000FFFFF800000001FFF8001C001FE001C000FFFF80007FFFFFF800000003FF
310
FFFF800000003FF80FFFFFFFFFFFFFC07FFFFFF0001FFFFFF8001FFFFFFFFC00
310
0FF8001FFFFFFFFC000FFF0003FFFFFFFFFFFFFE00000001F000FFFFC0000000
310
03FFF8001E001FC001E000FFFF80007FFFFF8000000007FFFFFC000000003FF8
310
0FFFFFFFFFFFFFC07FFFFFF0001FFFFFF8001FFFFFFFFC000FF8001FFFFFFFFC
310
000FFF0003FFFFFFFFFFFFE000000003F000FFFE0000000007FFF8001E000FC0
310
01E0007FFF80007FFFFE0000000007FFFFE0000000007FF80FFFFFFFFFFFFFC0
310
7FFFFFF0001FFFFFF0001FFFFFFFFC0007F0001FFFFFFFFC0007FF0003FFFFFF
310
FFFFFF0000000003F000FFF80000000007FFF8001E000FC003E0007FFF80007F
310
FFF0000000000FFFFF8000000000FFF80FFFFFFFFFFFFFC07FFFFFF0001FFFFF
310
F0001FFFFFFFFC0007F0001FFFFFFFFC0007FF0003FFFFFFFFFFFC0000000007
310
F000FFE0000000000FFFF0003E000FC003E0007FFF80007FFFC0000000001FFF
310
FE0000000001FFF80FFFFFFFFFFFFFC07FFFFFF0001FFFFFF0001FFFFFFFFC00
310
07F0001FFFFFFFFC0007FF0003FFFFFFFFFFF0000000000FF000FFC000000000
310
1FFFF0003F000F8003F0003FFF80007FFF80000000003FFFF80000000003FFF8
310
0FFFFFFFFFFFFFC07FFFFFF0001FFFFFF0001FFFFFFFFC0007F0001FFFFFFFFC
310
0007FF0003FFFFFFFFFFE0000000001FF000FF00000000007FFFF0003F000780
310
03F0003FFF80007FFF00000000007FFFF00000000007FFF80FFFFFFFFFFFFFC0
310
7FFFFFF0001FFFFFF0001FFFFFFFFC0007F0001FFFFFFFFC0007FF0003FFFFFF
310
FFFF80000000007FF000FE0000000000FFFFE0003F00078007F0003FFF80007F
310
FE0000000001FFFFE0000000001FFFF80FFFFFFFFFFFFFC07FFFFFF0001FFFFF
310
F0001FFFFFFFFC0007F0001FFFFFFFFC0007FF0003FFFFFFFFFF0000000000FF
310
F000FC0000000003FFFFE0007F00078007F0003FFF80007FFC0000000007FFFF
310
C0000000007FFFF80FFFFFFFFFFFFFC07FFFFFF0001FFFFFF8001FFFFFFFFC00
310
0FF8001FFFFFFFFC000FFF0003FFFFFFFFFE0000000003FFF000FC000000000F
310
FFFFE0007F80070007F8001FFF80007FF8000000001FFFFF8000000001FFFFF8
310
0FFFFFFFFFFFFFC07FFFFFF0001FFFFFF8001FFFFFFFFC000FF8001FFFFFFFFC
310
000FFF0003FFFFFFFFFC000000000FFFF000F8000000007FFFFFE0007F800700
310
07F8001FFF80007FF000000000FFFFFF800000000FFFFFF80FFFFFFFFFFFFFC0
310
7FFFFFF0001FFFFFF8000FFFFFFFF8000FF8000FFFFFFFF8000FFF0003FFFFFF
310
FFFC000000007FFFF000F800000007FFFFFFC0007F8003000FF8001FFF80007F
310
F000000007FFFFFF000000007FFFFFF80FFFFFFFFFFFFFC07FFFFFF0001FFFFF
310
F8000FFFFFFFF8000FF8000FFFFFFFF8000FFF0003FFFFFFFFF80000000FFFFF
310
F000F0000000FFFFFFFFC000FF8003000FF8001FFF80007FE0000000FFFFFFFF
310
0000000FFFFFFFF8000001FFFE0000007FFFFFF0001FFFFFF8000FFFFFFFF800
310
0FF8000FFFFFFFF8000FFF0003FFFFFFFFF8000000FFFFFFF000F000000FFFFF
310
FFFFC000FFC002000FF8000FFF80007FE000001FFFFFFFFE000001FFFFFFFFF8
310
000001FFFE0000007FFFFFF0001FFFFFF8000FFFFFFFF8000FF8000FFFFFFFF8
310
000FFF0003FFFFFFFFF000001FFFFFFFF000E00000FFFFFFFFFFC000FFC00200
310
0FFC000FFF80007FE00001FFFFFFFFFE00001FFFFFFFFFF8000001FFFE000000
310
7FFFFFF0001FFFFFFC000FFFFFFFF8001FFC000FFFFFFFF8001FFF0003FFFFFF
310
FFF00001FFFFFFFFF000E00007FFFFFFFFFF8000FFC000001FFC000FFF80007F
310
C0000FFFFFFFFFFE0000FFFFFFFFFFF8000001FFFE0000007FFFFFF0001FFFFF
310
FC0007FFFFFFF0001FFC0007FFFFFFF0001FFF0003FFFFFFFFF00007FFFFFFFF
310
F000E0001FFFFFFFFFFF8000FFC000001FFC000FFF80007FC0003FFFFFFFFFFE
310
0001FFFFFFFFFFF8000001FFFE0000007FFFFFF0001FFFFFFC0007FFFFFFF000
310
1FFC0007FFFFFFF0001FFF0003FFFFFFFFF0001FFFFFFFFFF000E0003FFFFF00
310
03FF8001FFE000001FFC0007FF80007FC0007FFFFF0007FC0003FFFFF0003FF8
310
000001FFFE0000007FFFFFF0001FFFFFFC0003FFFFFFE0001FFC0003FFFFFFE0
310
001FFF0003FFFFFFFFF0003FFFFFFFFFF000E0003FFFFF0001FF8001FFE00000
310
1FFE0007FF80007FC0007FFFFE0003FC0007FFFFE0003FF8000001FFFE000000
310
7FFFFFF0001FFFFFFE0003FFFFFFE0003FFE0003FFFFFFE0003FFF0003FFFFFF
310
FFF0003FFFFF8001F000E0003FFFFF0001FF0001FFE000001FFE0007FF80007F
310
C0007FFFFE0003FC0007FFFFE0003FF8000001FFFE0000007FFFFFF0001FFFFF
310
FE0001FFFFFFC0003FFE0001FFFFFFC0003FFF0003FFFFFFFFF0003FFFFF0001
310
F000E0003FFFFF0003FF0001FFE000003FFE0007FF80007FC0007FFFFE0003FC
310
0007FFFFE0003FF8000001FFFE0000007FFFFFF0001FFFFFFF0001FFFFFFC000
310
7FFF0001FFFFFFC0007FFF0003FFFFFFFFF0003FFFFF0001F000E0003FFFFE00
310
03FF0003FFF000003FFE0003FF80007FC0007FFFFC0003FE0007FFFFE0003FF8
310
000001FFFE0000007FFFFFF0001FFFFFFF0000FFFFFF80007FFF0000FFFFFF80
310
007FFF0003FFFFFFFFF0003FFFFF0001F000E0003FFFFE0003FF0003FFF00000
310
3FFF0003FF80007FC0007FFFFC0007FE0007FFFFC0003FF8000001FFFE000000
310
7FFFFFF0001FFFFFFF80007FFFFF0000FFFF80007FFFFF0000FFFF0003FFFFFF
310
FFF0003FFFFF0003F000E0003FFFFC0003FE0003FFF000003FFF0003FF80007F
310
E0003FFFF80007FE0003FFFFC0007FF8000001FFFE0000007FFFFFF0001FFFFF
310
FF80003FFFFE0000FFFF80003FFFFE0000FFFF0003FFFFFFFFF0001FFFFE0003
310
F000F0001FFFF80003FE0003FFF000007FFF0001FF80007FE0003FFFF00007FE
310
0001FFFF80007FF8000001FFFE0000007FFFFFF0001FFFFFFFC0000FFFF80001
310
FFFFC0000FFFF80001FFFF0003FFFFFFFFF0001FFFFC0003F000F0000FFFF000
310
07FE0007FFF800007FFF0001FF80007FE0001FFFE00007FF0000FFFE00007FF8
310
000001FFFE0000007FFFFFF0001FFFFFFFC00003FFE00001FFFFC00003FFE000
310
01FFFF0003FFFFFFFFF8000FFFF80003F000F00003FFC00007FC0007FFF80000
310
7FFF8001FF80007FF00007FF80000FFF00007FF80000FFF8000001FFFE000000
310
7F80000000000001FFE000003E000003FFFFE000003E000003FFFF0003FFFFFF
310
FFF80003FFE00007F000F800000000000FFC0007FFF800007FFF8001FF80007F
310
F000000000000FFF000000000000FFF8000001FFFE0000007F80000000000001
310
FFF0000000000007FFFFF0000000000007FFFF0003FFFFFFFFFC00007E000007
310
F000F800000000000FFC0007FFF80000FFFF8000FF80007FF800000000001FFF
310
800000000001FFF8000001FFFE0000007F80000000000001FFF800000000000F
310
FFFFF800000000000FFFFF0003FFFFFFFFFC00000000000FF000FC0000000000
310
1FFC0007FFFC0000FFFF8000FF80007FF800000000003FFFC00000000001FFF8
310
000001FFFE0000007F80000000000001FFF800000000000FFFFFF80000000000
310
0FFFFF0003FFFFFFFFFE00000000001FF000FE00000000003FF8000FFFFC0000
310
FFFF8000FF80007FFC00000000003FFFC00000000003FFF8000001FFFE000000
310
7F80000000000001FFFC00000000001FFFFFFC00000000001FFFFF0003FFFFFF
310
FFFF00000000001FF000FF00000000003FF8000FFFFC0000FFFFC000FF80007F
310
FE00000000007FFFE00000000007FFF8000001FFFE0000007F80000000000001
310
FFFE00000000003FFFFFFE00000000003FFFFF0003FFFFFFFFFF80000000003F
310
F000FF80000000007FF8000FFFFC0001FFFFC0007F80007FFF0000000000FFFF
310
F0000000000FFFF800000000000000007F80000000000001FFFF8000000000FF
310
FFFFFF8000000000FFFFFF0003FFFFFFFFFFC0000000007FF000FFC000000000
310
FFF8000FFFFE0001FFFFC0007F80007FFF8000000001FFFFF8000000001FFFF8
310
00000000000000007F80000000000001FFFFC000000001FFFFFFFFC000000001
310
FFFFFF0003FFFFFFFFFFE000000000FFF000FFE000000003FFF0001FFFFE0001
310
FFFFC0007F80007FFFC000000007FFFFFE000000003FFFF80000000000000000
310
7F80000000000001FFFFE000000003FFFFFFFFE000000003FFFFFF0003FFFFFF
310
FFFFF000000003FFF000FFF80000000FFFF0001FFFFE0001FFFFE0007F80007F
310
FFF00000000FFFFFFF00000000FFFFF800000000000000007F80000000000001
310
FFFFF80000000FFFFFFFFFF80000000FFFFFFF0003FFFFFFFFFFFC0000000FFF
310
F000FFFE0000003FFFF0001FFFFE0003FFFFE0003F80007FFFFC0000003FFFFF
310
FFC0000003FFFFF800000000000000007F80000000000001FFFFFE0000003FFF
310
FFFFFFFE0000003FFFFFFF0003FFFFFFFFFFFF0000003FFFF000FFFF800000FF
310
FFF0001FFFFF0003FFFFE0003F80007FFFFF000001FFFFFFFFF800001FFFFFF8
310
00000000000000007F80000000000001FFFFFFC00001FFFFFFFFFFFFC00001FF
310
FFFFFF0003FFFFFFFFFFFFC00000FFFFF000FFFFF8000FFFFFFFFFFFFFFFFFFF
310
FFFFFFFFFFFFFFFFFFFFF0001FFFFFFFFFFF0000FFFFFFF80000000000000000
310
7FFFFFFFFFFFFFFFFFFFFFFC001FFFFFFFFFFFFFFC001FFFFFFFFFFFFFFFFFFF
310
FFFFFFFC001FFFFFF000FFFFFFFFFFFFFFFFFFFFFFFFFFFFFFFFFFFFFFFFFFFF
310
FFFFFFFFFFFFFFFFFFFFFFFFFFFFFFFFFFFFFFFFFFFFFFFFFFFFFFFFFFFFFFFF
310
FFFFFFFFFFFFFFFFFFFFFFFFFFFFFFFFFFFFFFFFFFFFFFFFFFFFFFFFFFFFFFFF
310
F000FFFFFFFFFFFFFFFFFFFFFFFFFFFFFFFFFFFFFFFFFFFFFFFFFFFFFFFFFFFF
310
FFFFFFFFFFFFFFFFFFFFFFFFFFFFFFFFFFFFFFFFFFFFFFFFFFFFFFFFFFFFFFFF
310
FFFFFFFFFFFFFFFFFFFFFFFFFFFFFFFFFFFFFFFFFFFFFFFFF000FFFFFFFFFFFF
310
FFFFFFFFFFFFFFFFFFFFFFFFFFFFFFFFFFFFFFFFFFFFFFFFFFFFFFFFFFFFFFFF
310
FFFFFFFFFFFFFFFFFFFFFFFFFFFFFFFFFFFFFFFFFFFFFFFFFFFFFFFFFFFFFFFF
310
FFFFFFFFFFFFFFFFFFFFFFFFFFFFFFFFF000FFFFFFFFFFFFFFFFFFFFFFFFFFFF
310
FFFFFFFFFFFFFFFFFFFFFFFFFFFFFFFFFFFFFFFFFFFFFFFFFFFFFFFFFFFFFFFF
310
FFFFFFFFFFFFFFFFFFFFFFFFFFFFFFFFFFFFFFFFFFFFFFFFFFFFFFFFFFFFFFFF
310
FFFFFFFFFFFFFFFFF000FFFFFFFFFFFFFFFFFFFFFFFFFFFFFFFFFFFFFFFFFFFF
310
FFFFFFFFFFFFFFFFFFFFFFFFFFFFFFFFFFFFFFFFFFFFFFFFFFFFFFFFFFFFFFFF
310
FFFFFFFFFFFFFFFFFFFFFFFFFFFFFFFFFFFFFFFFFFFFFFFFFFFFFFFFFFFFFFFF
310
F000FFFFFFFFFFFFFFFFFFFFFFFFFFFFFFFFFFFFFFFFFFFFFFFFFFFFFFFFFFFF
310
FFFFFFFFFFFFFFFFFFFFFFFFFFFFFFFFFFFFFFFFFFFFFFFFFFFFFFFFFFFFFFFF
310
FFFFFFFFFFFFFFFFFFFFFFFFFFFFFFFFFFFFFFFFFFFFFFFFF000FFFFFFFFFFFF
310
FFFFFFFFFFFFFFFFFFFFFFFFFFFFFFFFFFFFFFFFFFFFFFFFFFFFFFFFFFFFFFFF
310
FFFFFFFFFFFFFFFFFFFFFFFFFFFFFFFFFFFFFFFFFFFFFFFFFFFFFFFFFFFFFFFF
310
FFFFFFFFFFFFFFFFFFFFFFFFFFFFFFFFF000FFFFFFFFFFFFFFFFFFFFFFFFFFFF
310
FFFFFFFFFFFFFFFFFFFFFFFFFFFFFFFFFFFFFFFFFFFFFFFFFFFFFFFFFFFFFFFF
310
FFFFFFFFFFFFFFFFFFFFFFFFFFFFFFFFFFFFFFFFFFFFFFFFFFFFFFFFFFFFFFFF
310
FFFFFFFFFFFFFFFFF000FFFFFFFFFFFFFFFFFFFFFFFFFFFFFFFFFFFFFFFFFFFF
310
FFFFFFFFFFFFFFFFFFFFFFFFFFFFFFFFFFFFFFFFFFFFFFFFFFFFFFFFFFFFFFFF
310
FFFFFFFFFFFFFFFFFFFFFFFFFFFFFFFFFFFFFFFFFFFFFFFFFFFFFFFFFFFFFFFF
310
F000FFFFFFFFFFFFFFFFFFFFFFFFFFFFFFFFFFFFFFFFFFFFFFFFFFFFFFFFFFFF
310
FFFFFFFFFFFFFFFFFFFFFFFFFFFFFFFFFFFFFFFFFFFFFFFFFFFFFFFFFFFFFFFF
310
FFFFFFFFFFFFFFFFFFFFFFFFFFFFFFFFFFFFFFFFFFFFFFFFF000FFFFFFFFFFFF
310
FFFFFFFFFFFFFFFFFFFFFFFFFFFFFFFFFFFFFFFFFFFFFFFFFFFFFFFFFFFFFFFF
310
FFFFFFFFFFFFFFFFFFFFFFFFFFFFFFFFFFFFFFFFFFFFFFFFFFFFFFFFFFFFFFFF
310
FFFFFFFFFFFFFFFFFFFFFFFFFFFFFFFFF000FFFFFFFFFFFFFFFFFFFFFFFFFFFF
310
FFFFFFFFFFFFFFFFFFFFFFFFFFFFFFFFFFFFFFFFFFFFFFFFFFFFFFFFFFFFFFFF
310
FFFFFFFFFFFFFFFFFFFFFFFFFFFFFFFFFFFFFFFFFFFFFFFFFFFFFFFFFFFFFFFF
310
FFFFFFFFFFFFFFFFF000FFFFFFFFFFFFFFFFFFFFFFFFFFFFFFFFFFFFFFFFFFFF
310
FFFFFFFFFFFFFFFFFFFFFFFFFFFFFFFFFFFFFFFFFFFFFFFFFFFFFFFFFFFFFFFF
310
FFFFFFFFFFFFFFFFFFFFFFFFFFFFFFFFFFFFFFFFFFFFFFFFFFFFFFFFFFFFFFFF
310
F000FFFFFFFFFFFFFFFFFFFFFFFFFFFFFFFFFFFFFFFFFFFFFFFFFFFFFFFFFFFF
310
FFFFFFFFFFFFFFFFFFFFFFFFFFFFFFFFFFFFFFFFFFFFFFFFFFFFFFFFFFFFFFFF
310
FFFFFFFFFFFFFFFFFFFFFFFFFFFFFFFFFFFFFFFFFFFFFFFFF000FFFFFFFFFFFF
310
FFFFFFFFFFFFFFFFFFFFFFFFFFFFFFFFFFFFFFFFFFFFFFFFFFFFFFFFFFFFFFFF
310
FFFFFFFFFFFFFFFFFFFFFFFFFFFFFFFFFFFFFFFFFFFFFFFFFFFFFFFFFFFFFFFF
310
FFFFFFFFFFFFFFFFFFFFFFFFFFFFFFFFF000FFFFFFFFFFFFFFFFFFFFFFFFFFFF
310
FFFFFFFFFFFFFFFFFFFFFFFFFFFFFFFFFFFFFFFFFFFFFFFFFFFFFFFFFFFFFFFF
310
FFFFFFFFFFFFFFFFFFFFFFFFFFFFFFFFFFFFFFFFFFFFFFFFFFFFFFFFFFFFFFFF
310
FFFFFFFFFFFFFFFFF000FFFFFFFFFFFFFFFFFFFFFFFFFFFFFFFFFFFFFFFFFFFF
310
FFFFFFFFFFFFFFFFFFFFFFFFFFFFFFFFFFFFFFFFFFFFFFFFFFFFFFFFFFFFFFFF
310
FFFFFFFFFFFFFFFFFFFFFFFFFFFFFFFFFFFFFFFFFFFFFFFFFFFFFFFFFFFFFFFF
310
F000FFFFFFFFFFFFFFFFFFFFFFFFFFFFFFFFFFFFFFFFFFFFFFFFFFFFFFFFFFFF
310
FFFFFFFFFFFFFFFFFFFFFFFFFFFFFFFFFFFFFFFFFFFFFFFFFFFFFFFFFFFFFFFF
310
FFFFFFFFFFFFFFFFFFFFFFFFFFFFFFFFFFFFFFFFFFFFFFFFF000FFFFFFFFFFFF
310
FFFFFFFFFFFFFFFFFFFFFFFFFFFFFFFFFFFFFFFFFFFFFFFFFFFFFFFFFFFFFFFF
310
FFFFFFFFFFFFFFFFFFFFFFFFFFFFFFFFFFFFFFFFFFFFFFFFFFFFFFFFFFFFFFFF
310
FFFFFFFFFFFFFFFFFFFFFFFFFFFFFFFFF000FFFFFFFFFFFFFFFFFFFFFFFFFFFF
310
FFFFFFFFFFFFFFFFFFFFFFFFFFFFFFFFFFFFFFFFFFFFFFFFFFFFFFFFFFFFFFFF
310
FFFFFFFFFFFFFFFFFFFFFFFFFFFFFFFFFFFFFFFFFFFFFFFFFFFFFFFFFFFFFFFF
310
FFFFFFFFFFFFFFFFF000FFFFFFFFFFFFFFFFFFFFFFFFFFFFFFFFFFFFFFFFFFFF
310
FFFFFFFFFFFFFFFFFFFFFFFFFFFFFFFFFFFFFFFFFFFFFFFFFFFFFFFFFFFFFFFF
310
FFFFFFFFFFFFFFFFFFFFFFFFFFFFFFFFFFFFFFFFFFFFFFFFFFFFFFFFFFFFFFFF
310
F000FFFFFFFFFFFFFFFFFFFFFFFFFFFFFFFFFFFFFFFFFFFFFFFFFFFFFFFFFFFF
310
FFFFFFFFFFFFFFFFFFFFFFFFFFFFFFFFFFFFFFFFFFFFFFFFFFFFFFFFFFFFFFFF
310
FFFFFFFFFFFFFFFFFFFFFFFFFFFFFFFFFFFFFFFFFFFFFFFFF000FFFFFFFFFFFF
310
FFFFFFFFFFFFFFFFFFFFFFFFFFFFFFFFFFFFFFFFFFFFFFFFFFFFFFFFFFFFFFFF
310
FFFFFFFFFFFFFFFFFFFFFFFFFFFFFFFFFFFFFFFFFFFFFFFFFFFFFFFFFFFFFFFF
310
FFFFFFFFFFFFFFFFFFFFFFFFFFFFFFFFF0000000000000000000000000000000
310
0000000000000000000000000000000000000000000000000000000000000000
310
0000000000000000000000000000000000000000000000000000000000000000
310
0000000000000000000000000000000000000000000000000000000000000000
310
0000000000000000000000000000000000000000000000000000000000000000
310
0000000000000000000000000000000000000000000000000000000000000000
310
0000000000000000000000000000000000000000000000000000000000000000
310
0000000000000000000000000000000000000000000000000000000000000000
310
0000000000000000000000000000000000000000000000000000000000000000
310
0000000000000000000000000000000000000000000000000000000000000000
310
0000000000000000000000000000000000000000000000000000000000000000
310
0000000000000000000000000000000000000000000000000000000000000000
310
0000000000000000000000000000000000000000000000000000000000000000
310
0000000000000000000000000000000000000000000000000000000000000000
310
0000000000000000000000000000000000000000000000000000000000000000
310
0000000000000000000000000000000000000000000000000000000000000000
  1
OLE
  0
ENDSEC
  0
SECTION
  2
OBJECTS
  0
DICTIONARY
  5
C
330
0
100
AcDbDictionary
281
     1
  3
ACAD_GROUP
350
D
  3
ACAD_LAYOUT
350
1A
  3
ACAD_MLINESTYLE
350
17
  3
ACAD_PLOTSETTINGS
350
19
  3
ACAD_PLOTSTYLENAME
350
E
  3
ACAD_SCALELIST
350
47
  0
DICTIONARY
  5
D
102
{ACAD_REACTORS
330
C
102
}
330
C
100
AcDbDictionary
281
     1
  0
DICTIONARY
  5
1A
102
{ACAD_REACTORS
330
C
102
}
330
C
100
AcDbDictionary
281
     1
  3
Layout1
350
1E
  3
Layout2
350
26
  3
Model
350
22
  0
DICTIONARY
  5
17
102
{ACAD_REACTORS
330
C
102
}
330
C
100
AcDbDictionary
281
     1
  3
Standard
350
18
  0
DICTIONARY
  5
19
102
{ACAD_REACTORS
330
C
102
}
330
C
100
AcDbDictionary
281
     1
  0
ACDBDICTIONARYWDFLT
  5
E
102
{ACAD_REACTORS
330
C
102
}
330
C
100
AcDbDictionary
281
     1
  3
Normal
350
F
100
AcDbDictionaryWithDefault
340
F
  0
DICTIONARY
  5
47
102
{ACAD_REACTORS
330
C
102
}
330
C
100
AcDbDictionary
281
     1
  3
A0
350
48
  3
A1
350
49
  3
A2
350
4A
  3
A3
350
4B
  3
A4
350
4C
  3
A5
350
4D
  3
A6
350
4E
  3
A7
350
4F
  3
A8
350
50
  3
A9
350
51
  3
B0
350
52
  3
B1
350
53
  3
B2
350
54
  3
B3
350
55
  3
B4
350
56
  3
B5
350
57
  3
B6
350
58
  3
B7
350
59
  3
B8
350
5A
  3
B9
350
5B
  3
C0
350
5C
  3
C1
350
5D
  3
C2
350
5E
  3
C3
350
5F
  3
C4
350
60
  3
C5
350
61
  3
C6
350
62
  3
C7
350
63
  3
C8
350
64
  3
C9
350
65
  3
D0
350
66
  3
D1
350
67
  3
D2
350
68
  0
LAYOUT
  5
1E
102
{ACAD_REACTORS
330
1A
102
}
330
1A
100
AcDbPlotSettings
  1

  2
none_device
  4

  6

 40
0.0
 41
0.0
 42
0.0
 43
0.0
 44
0.0
 45
0.0
 46
0.0
 47
0.0
 48
0.0
 49
0.0
140
0.0
141
0.0
142
1.0
143
1.0
 70
   688
 72
     1
 73
     0
 74
     5
  7

 75
    16
147
1.0
148
0.0
149
0.0
100
AcDbLayout
  1
Layout1
 70
     1
 71
     1
 10
0.0
 20
0.0
 11
420.0
 21
297.0
 12
0.0
 22
0.0
 32
0.0
 14
1.0000000000E+20
 24
1.0000000000E+20
 34
1.0000000000E+20
 15
-1.0000000000E+20
 25
-1.0000000000E+20
 35
-1.0000000000E+20
146
0.0
 13
0.0
 23
0.0
 33
0.0
 16
1.0
 26
0.0
 36
0.0
 17
0.0
 27
1.0
 37
0.0
 76
     0
330
1B
  0
LAYOUT
  5
26
102
{ACAD_REACTORS
330
1A
102
}
330
1A
100
AcDbPlotSettings
  1

  2
none_device
  4

  6

 40
0.0
 41
0.0
 42
0.0
 43
0.0
 44
0.0
 45
0.0
 46
0.0
 47
0.0
 48
0.0
 49
0.0
140
0.0
141
0.0
142
1.0
143
1.0
 70
   688
 72
     1
 73
     0
 74
     5
  7

 75
    16
147
1.0
148
0.0
149
0.0
100
AcDbLayout
  1
Layout2
 70
     1
 71
     2
 10
0.0
 20
0.0
 11
0.0
 21
0.0
 12
0.0
 22
0.0
 32
0.0
 14
0.0
 24
0.0
 34
0.0
 15
0.0
 25
0.0
 35
0.0
146
0.0
 13
0.0
 23
0.0
 33
0.0
 16
1.0
 26
0.0
 36
0.0
 17
0.0
 27
1.0
 37
0.0
 76
     0
330
23
  0
LAYOUT
  5
22
102
{ACAD_REACTORS
330
1A
102
}
330
1A
100
AcDbPlotSettings
  1

  2
none_device
  4
Letter_(8.50_x_11.00_Inches)
  6

 40
6.35
 41
6.35
 42
6.35000508
 43
6.35000508
 44
215.9
 45
279.4
 46
0.0
 47
0.0
 48
0.0
 49
0.0
140
0.0
141
0.0
142
1.0
143
1.0
 70
  1712
 72
     1
 73
     0
 74
     0
  7

 75
     0
147
1.0
148
0.0
149
0.0
100
AcDbLayout
  1
Model
 70
     1
 71
     0
 10
0.0
 20
0.0
 11
297.0
 21
210.0
 12
0.0
 22
0.0
 32
0.0
 14
0.0
 24
0.0
 34
0.0
 15
297.0
 25
210.0
 35
0.0
146
0.0
 13
0.0
 23
0.0
 33
0.0
 16
1.0
 26
0.0
 36
0.0
 17
0.0
 27
1.0
 37
0.0
 76
     0
330
1F
331
29
  0
MLINESTYLE
  5
18
102
{ACAD_REACTORS
330
17
102
}
330
17
100
AcDbMlineStyle
  2
Standard
 70
     0
  3

 62
   256
 51
90.0
 52
90.0
 71
     2
 49
0.5
 62
   256
  6
BYLAYER
 49
-0.5
 62
   256
  6
BYLAYER
  0
ACDBPLACEHOLDER
  5
F
102
{ACAD_REACTORS
330
E
102
}
330
E
  0
SCALE
  5
48
102
{ACAD_REACTORS
330
47
102
}
330
47
100
AcDbScale
 70
     0
300
1:1
140
1.0
141
1.0
290
     1
  0
SCALE
  5
49
102
{ACAD_REACTORS
330
47
102
}
330
47
100
AcDbScale
 70
     0
300
1:2
140
1.0
141
2.0
290
     0
  0
SCALE
  5
4A
102
{ACAD_REACTORS
330
47
102
}
330
47
100
AcDbScale
 70
     0
300
1:4
140
1.0
141
4.0
290
     0
  0
SCALE
  5
4B
102
{ACAD_REACTORS
330
47
102
}
330
47
100
AcDbScale
 70
     0
300
1:5
140
1.0
141
5.0
290
     0
  0
SCALE
  5
4C
102
{ACAD_REACTORS
330
47
102
}
330
47
100
AcDbScale
 70
     0
300
1:8
140
1.0
141
8.0
290
     0
  0
SCALE
  5
4D
102
{ACAD_REACTORS
330
47
102
}
330
47
100
AcDbScale
 70
     0
300
1:10
140
1.0
141
10.0
290
     0
  0
SCALE
  5
4E
102
{ACAD_REACTORS
330
47
102
}
330
47
100
AcDbScale
 70
     0
300
1:16
140
1.0
141
16.0
290
     0
  0
SCALE
  5
4F
102
{ACAD_REACTORS
330
47
102
}
330
47
100
AcDbScale
 70
     0
300
1:20
140
1.0
141
20.0
290
     0
  0
SCALE
  5
50
102
{ACAD_REACTORS
330
47
102
}
330
47
100
AcDbScale
 70
     0
300
1:30
140
1.0
141
30.0
290
     0
  0
SCALE
  5
51
102
{ACAD_REACTORS
330
47
102
}
330
47
100
AcDbScale
 70
     0
300
1:40
140
1.0
141
40.0
290
     0
  0
SCALE
  5
52
102
{ACAD_REACTORS
330
47
102
}
330
47
100
AcDbScale
 70
     0
300
1:50
140
1.0
141
50.0
290
     0
  0
SCALE
  5
53
102
{ACAD_REACTORS
330
47
102
}
330
47
100
AcDbScale
 70
     0
300
1:100
140
1.0
141
100.0
290
     0
  0
SCALE
  5
54
102
{ACAD_REACTORS
330
47
102
}
330
47
100
AcDbScale
 70
     0
300
2:1
140
2.0
141
1.0
290
     0
  0
SCALE
  5
55
102
{ACAD_REACTORS
330
47
102
}
330
47
100
AcDbScale
 70
     0
300
4:1
140
4.0
141
1.0
290
     0
  0
SCALE
  5
56
102
{ACAD_REACTORS
330
47
102
}
330
47
100
AcDbScale
 70
     0
300
8:1
140
8.0
141
1.0
290
     0
  0
SCALE
  5
57
102
{ACAD_REACTORS
330
47
102
}
330
47
100
AcDbScale
 70
     0
300
10:1
140
10.0
141
1.0
290
     0
  0
SCALE
  5
58
102
{ACAD_REACTORS
330
47
102
}
330
47
100
AcDbScale
 70
     0
300
100:1
140
100.0
141
1.0
290
     0
  0
SCALE
  5
59
102
{ACAD_REACTORS
330
47
102
}
330
47
100
AcDbScale
 70
     0
300
1/128" = 1'-0"
140
0.0078125
141
12.0
290
     0
  0
SCALE
  5
5A
102
{ACAD_REACTORS
330
47
102
}
330
47
100
AcDbScale
 70
     0
300
1/64" = 1'-0"
140
0.015625
141
12.0
290
     0
  0
SCALE
  5
5B
102
{ACAD_REACTORS
330
47
102
}
330
47
100
AcDbScale
 70
     0
300
1/32" = 1'-0"
140
0.03125
141
12.0
290
     0
  0
SCALE
  5
5C
102
{ACAD_REACTORS
330
47
102
}
330
47
100
AcDbScale
 70
     0
300
1/16" = 1'-0"
140
0.0625
141
12.0
290
     0
  0
SCALE
  5
5D
102
{ACAD_REACTORS
330
47
102
}
330
47
100
AcDbScale
 70
     0
300
3/32" = 1'-0"
140
0.09375
141
12.0
290
     0
  0
SCALE
  5
5E
102
{ACAD_REACTORS
330
47
102
}
330
47
100
AcDbScale
 70
     0
300
1/8" = 1'-0"
140
0.125
141
12.0
290
     0
  0
SCALE
  5
5F
102
{ACAD_REACTORS
330
47
102
}
330
47
100
AcDbScale
 70
     0
300
3/16" = 1'-0"
140
0.1875
141
12.0
290
     0
  0
SCALE
  5
60
102
{ACAD_REACTORS
330
47
102
}
330
47
100
AcDbScale
 70
     0
300
1/4" = 1'-0"
140
0.25
141
12.0
290
     0
  0
SCALE
  5
61
102
{ACAD_REACTORS
330
47
102
}
330
47
100
AcDbScale
 70
     0
300
3/8" = 1'-0"
140
0.375
141
12.0
290
     0
  0
SCALE
  5
62
102
{ACAD_REACTORS
330
47
102
}
330
47
100
AcDbScale
 70
     0
300
1/2" = 1'-0"
140
0.5
141
12.0
290
     0
  0
SCALE
  5
63
102
{ACAD_REACTORS
330
47
102
}
330
47
100
AcDbScale
 70
     0
300
3/4" = 1'-0"
140
0.75
141
12.0
290
     0
  0
SCALE
  5
64
102
{ACAD_REACTORS
330
47
102
}
330
47
100
AcDbScale
 70
     0
300
1" = 1'-0"
140
1.0
141
12.0
290
     0
  0
SCALE
  5
65
102
{ACAD_REACTORS
330
47
102
}
330
47
100
AcDbScale
 70
     0
300
1-1/2" = 1'-0"
140
1.5
141
12.0
290
     0
  0
SCALE
  5
66
102
{ACAD_REACTORS
330
47
102
}
330
47
100
AcDbScale
 70
     0
300
3" = 1'-0"
140
3.0
141
12.0
290
     0
  0
SCALE
  5
67
102
{ACAD_REACTORS
330
47
102
}
330
47
100
AcDbScale
 70
     0
300
6" = 1'-0"
140
6.0
141
12.0
290
     0
  0
SCALE
  5
68
102
{ACAD_REACTORS
330
47
102
}
330
47
100
AcDbScale
 70
     0
300
1'-0" = 1'-0"
140
12.0
141
12.0
290
     0
  0
ENDSEC
  0
EOF
