  0
SECTION
  2
HEADER
  9
$ACADVER
  1
AC1015
  9
$ACADMAINTVER
 70
     6
  9
$DWGCODEPAGE
  3
ANSI_1252
  9
$INSBASE
 10
0.0
 20
0.0
 30
0.0
  9
$EXTMIN
 10
0.0
 20
0.0
 30
0.0
  9
$EXTMAX
 10
297.0
 20
210.0
 30
0.0
  9
$LIMMIN
 10
0.0
 20
0.0
  9
$LIMMAX
 10
297.0
 20
210.0
  9
$ORTHOMODE
 70
     0
  9
$REGENMODE
 70
     1
  9
$FILLMODE
 70
     1
  9
$QTEXTMODE
 70
     0
  9
$MIRRTEXT
 70
     1
  9
$LTSCALE
 40
1.0
  9
$ATTMODE
 70
     1
  9
$TEXTSIZE
 40
2.0
  9
$TRACEWID
 40
1.0
  9
$TEXTSTYLE
  7
Standard
  9
$CLAYER
  8
0
  9
$CELTYPE
  6
ByLayer
  9
$CECOLOR
 62
   256
  9
$CELTSCALE
 40
1.0
  9
$DISPSILH
 70
     0
  9
$DIMSCALE
 40
1.0
  9
$DIMASZ
 40
3.0
  9
$DIMEXO
 40
0.0
  9
$DIMDLI
 40
3.75
  9
$DIMRND
 40
0.0
  9
$DIMDLE
 40
0.0
  9
$DIMEXE
 40
1.0
  9
$DIMTP
 40
0.0
  9
$DIMTM
 40
0.0
  9
$DIMTXT
 40
2.0
  9
$DIMCEN
 40
2.5
  9
$DIMTSZ
 40
0.0
  9
$DIMTOL
 70
     0
  9
$DIMLIM
 70
     0
  9
$DIMTIH
 70
     1
  9
$DIMTOH
 70
     1
  9
$DIMSE1
 70
     0
  9
$DIMSE2
 70
     0
  9
$DIMTAD
 70
     1
  9
$DIMZIN
 70
     0
  9
$DIMBLK
  1

  9
$DIMASO
 70
     1
  9
$DIMSHO
 70
     1
  9
$DIMPOST
  1

  9
$DIMAPOST
  1

  9
$DIMALT
 70
     0
  9
$DIMALTD
 70
     3
  9
$DIMALTF
 40
0.0393700787
  9
$DIMLFAC
 40
2.0
  9
$DIMTOFL
 70
     1
  9
$DIMTVP
 40
0.0
  9
$DIMTIX
 70
     0
  9
$DIMSOXD
 70
     0
  9
$DIMSAH
 70
     0
  9
$DIMBLK1
  1

  9
$DIMBLK2
  1

  9
$DIMSTYLE
  2
ISO-25
  9
$DIMCLRD
 70
     0
  9
$DIMCLRE
 70
     0
  9
$DIMCLRT
 70
     0
  9
$DIMTFAC
 40
1.0
  9
$DIMGAP
 40
1.524
  9
$DIMJUST
 70
     0
  9
$DIMSD1
 70
     0
  9
$DIMSD2
 70
     0
  9
$DIMTOLJ
 70
     0
  9
$DIMTZIN
 70
     0
  9
$DIMALTZ
 70
     0
  9
$DIMALTTZ
 70
     0
  9
$DIMUPT
 70
     0
  9
$DIMDEC
 70
     2
  9
$DIMTDEC
 70
     3
  9
$DIMALTU
 70
     2
  9
$DIMALTTD
 70
     3
  9
$DIMTXSTY
  7
Standard
  9
$DIMAUNIT
 70
     0
  9
$DIMADEC
 70
     2
  9
$DIMALTRND
 40
0.0
  9
$DIMAZIN
 70
     0
  9
$DIMDSEP
 70
    44
  9
$DIMATFIT
 70
     3
  9
$DIMFRAC
 70
     0
  9
$DIMLDRBLK
  1

  9
$DIMLUNIT
 70
     2
  9
$DIMLWD
 70
    -2
  9
$DIMLWE
 70
    -2
  9
$DIMTMOVE
 70
     0
  9
$LUNITS
 70
     2
  9
$LUPREC
 70
     2
  9
$SKETCHINC
 40
1.0
  9
$FILLETRAD
 40
10.0
  9
$AUNITS
 70
     0
  9
$AUPREC
 70
     2
  9
$MENU
  1
.
  9
$ELEVATION
 40
0.0
  9
$PELEVATION
 40
0.0
  9
$THICKNESS
 40
0.0
  9
$LIMCHECK
 70
     0
  9
$CHAMFERA
 40
0.0
  9
$CHAMFERB
 40
0.0
  9
$CHAMFERC
 40
0.0
  9
$CHAMFERD
 40
0.0
  9
$SKPOLY
 70
     0
  9
$TDCREATE
 40
2458166.340030324
  9
$TDUCREATE
 40
2458166.298363657
  9
$TDUPDATE
 40
2458166.340033611
  9
$TDUUPDATE
 40
2458166.298366944
  9
$TDINDWG
 40
0.0000000116
  9
$TDUSRTIMER
 40
0.0000000116
  9
$USRTIMER
 70
     1
  9
$ANGBASE
 50
0.0
  9
$ANGDIR
 70
     0
  9
$PDMODE
 70
     0
  9
$PDSIZE
 40
-1.0
  9
$PLINEWID
 40
0.0
  9
$SPLFRAME
 70
     0
  9
$SPLINETYPE
 70
     6
  9
$SPLINESEGS
 70
     8
  9
$HANDSEED
  5
2FC
  9
$SURFTAB1
 70
     6
  9
$SURFTAB2
 70
     6
  9
$SURFTYPE
 70
     6
  9
$SURFU
 70
     6
  9
$SURFV
 70
     6
  9
$UCSBASE
  2

  9
$UCSNAME
  2

  9
$UCSORG
 10
0.0
 20
0.0
 30
0.0
  9
$UCSXDIR
 10
1.0
 20
0.0
 30
0.0
  9
$UCSYDIR
 10
0.0
 20
1.0
 30
0.0
  9
$UCSORTHOREF
  2

  9
$UCSORTHOVIEW
 70
     0
  9
$UCSORGTOP
 10
0.0
 20
0.0
 30
0.0
  9
$UCSORGBOTTOM
 10
0.0
 20
0.0
 30
0.0
  9
$UCSORGLEFT
 10
0.0
 20
0.0
 30
0.0
  9
$UCSORGRIGHT
 10
0.0
 20
0.0
 30
0.0
  9
$UCSORGFRONT
 10
0.0
 20
0.0
 30
0.0
  9
$UCSORGBACK
 10
0.0
 20
0.0
 30
0.0
  9
$PUCSBASE
  2

  9
$PUCSNAME
  2

  9
$PUCSORG
 10
0.0
 20
0.0
 30
0.0
  9
$PUCSXDIR
 10
1.0
 20
0.0
 30
0.0
  9
$PUCSYDIR
 10
0.0
 20
1.0
 30
0.0
  9
$PUCSORTHOREF
  2

  9
$PUCSORTHOVIEW
 70
     0
  9
$PUCSORGTOP
 10
0.0
 20
0.0
 30
0.0
  9
$PUCSORGBOTTOM
 10
0.0
 20
0.0
 30
0.0
  9
$PUCSORGLEFT
 10
0.0
 20
0.0
 30
0.0
  9
$PUCSORGRIGHT
 10
0.0
 20
0.0
 30
0.0
  9
$PUCSORGFRONT
 10
0.0
 20
0.0
 30
0.0
  9
$PUCSORGBACK
 10
0.0
 20
0.0
 30
0.0
  9
$USERI1
 70
     0
  9
$USERI2
 70
     0
  9
$USERI3
 70
     0
  9
$USERI4
 70
     0
  9
$USERI5
 70
     0
  9
$USERR1
 40
0.0
  9
$USERR2
 40
0.0
  9
$USERR3
 40
0.0
  9
$USERR4
 40
0.0
  9
$USERR5
 40
0.0
  9
$WORLDVIEW
 70
     1
  9
$SHADEDGE
 70
     3
  9
$SHADEDIF
 70
    70
  9
$TILEMODE
 70
     1
  9
$MAXACTVP
 70
    64
  9
$PINSBASE
 10
0.0
 20
0.0
 30
0.0
  9
$PLIMCHECK
 70
     0
  9
$PEXTMIN
 10
1.0000000000E+20
 20
1.0000000000E+20
 30
1.0000000000E+20
  9
$PEXTMAX
 10
-1.0000000000E+20
 20
-1.0000000000E+20
 30
-1.0000000000E+20
  9
$PLIMMIN
 10
0.0
 20
0.0
  9
$PLIMMAX
 10
420.0
 20
297.0
  9
$UNITMODE
 70
     0
  9
$VISRETAIN
 70
     1
  9
$PLINEGEN
 70
     0
  9
$PSLTSCALE
 70
     1
  9
$TREEDEPTH
 70
  3020
  9
$CMLSTYLE
  2
Standard
  9
$CMLJUST
 70
     0
  9
$CMLSCALE
 40
20.0
  9
$PROXYGRAPHICS
 70
     1
  9
$MEASUREMENT
 70
     1
  9
$CELWEIGHT
370
    -1
  9
$ENDCAPS
280
     0
  9
$JOINSTYLE
280
     0
  9
$LWDISPLAY
290
     1
  9
$INSUNITS
 70
     4
  9
$HYPERLINKBASE
  1

  9
$STYLESHEET
  1

  9
$XEDIT
290
     1
  9
$CEPSNTYPE
380
     0
  9
$PSTYLEMODE
290
     1
  9
$FINGERPRINTGUID
  2
{623BFC2A-85DE-4490-AFBE-E0608F6F388E}
  9
$VERSIONGUID
  2
{FAEB1C32-E019-11D5-929B-00C0DF256EC4}
  9
$EXTNAMES
290
     1
  9
$PSVPSCALE
 40
0.0
  9
$OLESTARTUP
290
     0
  0
ENDSEC
  0
SECTION
  2
CLASSES
  0
CLASS
  1
ACDBDICTIONARYWDFLT
  2
AcDbDictionaryWithDefault
  3
ObjectDBX Classes
 90
        0
280
     0
281
     0
  0
CLASS
  1
VISUALSTYLE
  2
AcDbVisualStyle
  3
ObjectDBX Classes
 90
     4095
280
     0
281
     0
  0
CLASS
  1
MATERIAL
  2
AcDbMaterial
  3
ObjectDBX Classes
 90
     1153
280
     0
281
     0
  0
CLASS
  1
SCALE
  2
AcDbScale
  3
ObjectDBX Classes
 90
     1153
280
     0
281
     0
  0
CLASS
  1
TABLESTYLE
  2
AcDbTableStyle
  3
ObjectDBX Classes
 90
     4095
280
     0
281
     0
  0
CLASS
  1
MLEADERSTYLE
  2
AcDbMLeaderStyle
  3
ACDB_MLEADERSTYLE_CLASS
 90
     4095
280
     0
281
     0
  0
CLASS
  1
SUN
  2
AcDbSun
  3
SCENEOE
 90
     1153
280
     0
281
     0
  0
CLASS
  1
ACDBPLACEHOLDER
  2
AcDbPlaceHolder
  3
ObjectDBX Classes
 90
        0
280
     0
281
     0
  0
CLASS
  1
LAYOUT
  2
AcDbLayout
  3
ObjectDBX Classes
 90
        0
280
     0
281
     0
  0
ENDSEC
  0
SECTION
  2
TABLES
  0
TABLE
  2
VPORT
  5
8
330
0
100
AcDbSymbolTable
 70
     1
  0
VPORT
  5
29
330
8
100
AcDbSymbolTableRecord
100
AcDbViewportTableRecord
  2
*Active
 70
     0
 10
0.0
 20
0.0
 11
1.0
 21
1.0
 12
148.5
 22
105.0
 13
0.0
 23
0.0
 14
10.0
 24
10.0
 15
10.0
 25
10.0
 16
0.0
 26
0.0
 36
1.0
 17
0.0
 27
0.0
 37
0.0
 40
210.0
 41
1.4142857143
 42
50.0
 43
0.0
 44
0.0
 50
0.0
 51
0.0
 71
     0
 72
  2000
 73
     1
 74
     3
 75
     0
 76
     0
 77
     0
 78
     0
281
     0
 65
     1
110
0.0
120
0.0
130
0.0
111
1.0
121
0.0
131
0.0
112
0.0
122
1.0
132
0.0
 79
     0
146
0.0
  0
ENDTAB
  0
TABLE
  2
LTYPE
  5
5
330
0
100
AcDbSymbolTable
 70
     6
  0
LTYPE
  5
14
330
5
100
AcDbSymbolTableRecord
100
AcDbLinetypeTableRecord
  2
ByBlock
 70
     0
  3

 72
    65
 73
     0
 40
0.0
  0
LTYPE
  5
15
330
5
100
AcDbSymbolTableRecord
100
AcDbLinetypeTableRecord
  2
ByLayer
 70
     0
  3

 72
    65
 73
     0
 40
0.0
  0
LTYPE
  5
16
330
5
100
AcDbSymbolTableRecord
100
AcDbLinetypeTableRecord
  2
Continuous
 70
     0
  3
Solid line
 72
    65
 73
     0
 40
0.0
  0
LTYPE
  5
6E
330
5
100
AcDbSymbolTableRecord
100
AcDbLinetypeTableRecord
  2
HIDDEN
 70
     0
  3
Hidden __ __ __ __ __ __ __ __ __ __ __ __ __ __
 72
    65
 73
     2
 40
1.905
 49
1.27
 74
     0
 49
-0.635
 74
     0
  0
LTYPE
  5
6F
330
5
100
AcDbSymbolTableRecord
100
AcDbLinetypeTableRecord
  2
PHANTOM
 70
     0
  3
Phantom ______  __  __  ______  __  __  ______
 72
    65
 73
     6
 40
12.7
 49
6.35
 74
     0
 49
-1.27
 74
     0
 49
1.27
 74
     0
 49
-1.27
 74
     0
 49
1.27
 74
     0
 49
-1.27
 74
     0
  0
LTYPE
  5
70
330
5
100
AcDbSymbolTableRecord
100
AcDbLinetypeTableRecord
  2
CENTER
 70
     0
  3
Center ____ _ ____ _ ____ _ ____ _ ____ _ ____
 72
    65
 73
     4
 40
10.16
 49
6.35
 74
     0
 49
-1.27
 74
     0
 49
1.27
 74
     0
 49
-1.27
 74
     0
  0
LTYPE
  5
71
330
5
100
AcDbSymbolTableRecord
100
AcDbLinetypeTableRecord
  2
CENTERX2
 70
     0
  3
Center (2x) ________  __  ________  __  _____
 72
    65
 73
     4
 40
20.32
 49
12.7
 74
     0
 49
-2.54
 74
     0
 49
2.54
 74
     0
 49
-2.54
 74
     0
  0
LTYPE
  5
72
330
5
100
AcDbSymbolTableRecord
100
AcDbLinetypeTableRecord
  2
DOT2
 70
     0
  3
Dot (.5x) ........................................
 72
    65
 73
     2
 40
0.635
 49
0.0
 74
     0
 49
-0.635
 74
     0
  0
ENDTAB
  0
TABLE
  2
LAYER
  5
2
330
0
100
AcDbSymbolTable
 70
     5
  0
LAYER
  5
10
330
2
100
AcDbSymbolTableRecord
100
AcDbLayerTableRecord
  2
0
 70
     0
 62
     7
  6
Continuous
370
    -3
390
F
  0
LAYER
  5
73
330
2
100
AcDbSymbolTableRecord
100
AcDbLayerTableRecord
  2
FORMAT
 70
     0
 62
     7
  6
Continuous
370
    -3
390
F
  0
LAYER
  5
74
330
2
100
AcDbSymbolTableRecord
100
AcDbLayerTableRecord
  2
VERMASSUNG
 70
     0
 62
     7
  6
Continuous
370
    -3
390
F
  0
LAYER
  5
75
330
2
100
AcDbSymbolTableRecord
100
AcDbLayerTableRecord
  2
KOPF_DÜNN
 70
     0
 62
     7
  6
Continuous
370
    -3
390
F
  0
LAYER
  5
76
330
2
100
AcDbSymbolTableRecord
100
AcDbLayerTableRecord
  2
KOPF_DICK
 70
     0
 62
     7
  6
Continuous
370
    25
390
F
  0
ENDTAB
  0
TABLE
  2
STYLE
  5
3
330
0
100
AcDbSymbolTable
 70
     2
  0
STYLE
  5
11
330
3
100
AcDbSymbolTableRecord
100
AcDbTextStyleTableRecord
  2
Standard
 70
     0
 40
0.0
 41
1.0
 50
0.0
 71
     0
 42
2.0
  3
txt
  4

  0
STYLE
  5
77
330
3
100
AcDbSymbolTableRecord
100
AcDbTextStyleTableRecord
  2
SLDTEXTSTYLE0
 70
     0
 40
0.0
 41
0.7
 50
0.0
 71
     0
 42
2.0
  3
TXT
  4

  0
ENDTAB
  0
TABLE
  2
VIEW
  5
6
330
0
100
AcDbSymbolTable
 70
     0
  0
ENDTAB
  0
TABLE
  2
UCS
  5
7
330
0
100
AcDbSymbolTable
 70
     0
  0
ENDTAB
  0
TABLE
  2
APPID
  5
9
330
0
100
AcDbSymbolTable
 70
     1
  0
APPID
  5
12
330
9
100
AcDbSymbolTableRecord
100
AcDbRegAppTableRecord
  2
ACAD
 70
     0
  0
ENDTAB
  0
TABLE
  2
DIMSTYLE
  5
A
330
0
100
AcDbSymbolTable
 70
     4
100
AcDbDimStyleTable
  0
DIMSTYLE
105
27
330
A
100
AcDbSymbolTableRecord
100
AcDbDimStyleTableRecord
  2
ISO-25
 70
     0
 41
2.5
 42
0.625
 43
3.75
 44
1.25
 73
     0
 74
     0
 77
     1
 78
     8
140
2.5
141
2.5
143
0.0393700787
147
0.625
171
     3
172
     1
178
     0
271
     2
272
     2
274
     3
278
    44
283
     0
284
     8
340
11
  0
DIMSTYLE
105
205
102
{ACAD_REACTORS
330
204
330
21A
330
230
330
23A
330
245
330
250
330
25A
102
}
330
A
100
AcDbSymbolTableRecord
100
AcDbDimStyleTableRecord
  2
SLDDIMSTYLE0
 70
     0
 41
3.0
 44
0.0
 45
0.000000001
 73
     0
 74
     0
 77
     1
 78
    12
 79
     3
140
2.0
147
0.5
173
     1
178
     0
271
     2
272
     3
276
     2
284
    12
340
77
  0
DIMSTYLE
105
211
102
{ACAD_REACTORS
330
210
102
}
330
A
100
AcDbSymbolTableRecord
100
AcDbDimStyleTableRecord
  2
SLDDIMSTYLE1
 70
     0
 41
3.0
 44
0.0
 45
0.000000001
 73
     0
 74
     0
 76
     1
 77
     1
 78
    12
 79
     3
140
2.0
147
0.5
173
     1
178
     0
271
     2
272
     3
276
     2
282
     1
284
    12
340
77
  0
DIMSTYLE
105
226
102
{ACAD_REACTORS
330
225
330
264
102
}
330
A
100
AcDbSymbolTableRecord
100
AcDbDimStyleTableRecord
  2
SLDDIMSTYLE2
 70
     0
 41
3.0
 44
0.0
 45
0.000000001
 73
     0
 74
     0
 77
     1
 78
    12
 79
     3
140
2.0
147
0.5
173
     1
178
     0
271
     1
272
     3
276
     2
284
    12
340
77
  0
ENDTAB
  0
TABLE
  2
BLOCK_RECORD
  5
1
330
0
100
AcDbSymbolTable
 70
    11
  0
BLOCK_RECORD
  5
1F
330
1
100
AcDbSymbolTableRecord
100
AcDbBlockTableRecord
  2
*Model_Space
340
22
  0
BLOCK_RECORD
  5
1B
330
1
100
AcDbSymbolTableRecord
100
AcDbBlockTableRecord
  2
*Paper_Space
340
1E
  0
BLOCK_RECORD
  5
23
330
1
100
AcDbSymbolTableRecord
100
AcDbBlockTableRecord
  2
*Paper_Space0
340
26
  0
BLOCK_RECORD
  5
206
330
1
100
AcDbSymbolTableRecord
100
AcDbBlockTableRecord
  2
_D
340
0
  0
BLOCK_RECORD
  5
212
330
1
100
AcDbSymbolTableRecord
100
AcDbBlockTableRecord
  2
_D_1
340
0
  0
BLOCK_RECORD
  5
21B
330
1
100
AcDbSymbolTableRecord
100
AcDbBlockTableRecord
  2
_D_2
340
0
  0
BLOCK_RECORD
  5
227
330
1
100
AcDbSymbolTableRecord
100
AcDbBlockTableRecord
  2
_D_3
340
0
  0
BLOCK_RECORD
  5
231
330
1
100
AcDbSymbolTableRecord
100
AcDbBlockTableRecord
  2
_D_4
340
0
  0
BLOCK_RECORD
  5
23B
330
1
100
AcDbSymbolTableRecord
100
AcDbBlockTableRecord
  2
_D_5
340
0
  0
BLOCK_RECORD
  5
246
330
1
100
AcDbSymbolTableRecord
100
AcDbBlockTableRecord
  2
_D_6
340
0
  0
BLOCK_RECORD
  5
251
330
1
100
AcDbSymbolTableRecord
100
AcDbBlockTableRecord
  2
_D_7
340
0
  0
BLOCK_RECORD
  5
25B
330
1
100
AcDbSymbolTableRecord
100
AcDbBlockTableRecord
  2
_D_8
340
0
  0
BLOCK_RECORD
  5
265
330
1
100
AcDbSymbolTableRecord
100
AcDbBlockTableRecord
  2
_D_9
340
0
  0
ENDTAB
  0
ENDSEC
  0
SECTION
  2
BLOCKS
  0
BLOCK
  5
20
330
1F
100
AcDbEntity
  8
0
100
AcDbBlockBegin
  2
*Model_Space
 70
     0
 10
0.0
 20
0.0
 30
0.0
  3
*Model_Space
  1

  0
ENDBLK
  5
21
330
1F
100
AcDbEntity
  8
0
100
AcDbBlockEnd
  0
BLOCK
  5
1C
330
1B
100
AcDbEntity
 67
     1
  8
0
100
AcDbBlockBegin
  2
*Paper_Space
 70
     0
 10
0.0
 20
0.0
 30
0.0
  3
*Paper_Space
  1

  0
ENDBLK
  5
1D
330
1B
100
AcDbEntity
 67
     1
  8
0
100
AcDbBlockEnd
  0
BLOCK
  5
24
330
23
100
AcDbEntity
  8
0
100
AcDbBlockBegin
  2
*Paper_Space0
 70
     0
 10
0.0
 20
0.0
 30
0.0
  3
*Paper_Space0
  1

  0
ENDBLK
  5
25
330
23
100
AcDbEntity
  8
0
100
AcDbBlockEnd
  0
BLOCK
  5
207
330
206
100
AcDbEntity
  8
0
100
AcDbBlockBegin
  2
_D
 70
     0
 10
0.0
 20
0.0
 30
0.0
  3
_D
  1

  0
SOLID
  5
209
330
206
100
AcDbEntity
  8
VERMASSUNG
100
AcDbTrace
 10
245.6932859904
 20
131.8182762931
 30
0.0
 11
245.2432859904
 21
128.8182762931
 31
0.0
 12
246.1432859904
 22
128.8182762931
 32
0.0
 13
246.1432859904
 23
128.8182762931
 33
0.0
  0
SOLID
  5
20A
330
206
100
AcDbEntity
  8
VERMASSUNG
100
AcDbTrace
 10
245.6932859904
 20
98.8182762931
 30
0.0
 11
246.1432859904
 21
101.8182762931
 31
0.0
 12
245.2432859904
 22
101.8182762931
 32
0.0
 13
245.2432859904
 23
101.8182762931
 33
0.0
  0
LINE
  5
20B
330
206
100
AcDbEntity
  8
VERMASSUNG
100
AcDbLine
 10
213.0826349906
 20
131.8182762931
 30
0.0
 11
246.6932859904
 21
131.8182762931
 31
0.0
  0
LINE
  5
20C
330
206
100
AcDbEntity
  8
VERMASSUNG
100
AcDbLine
 10
213.0826349906
 20
98.8182762931
 30
0.0
 11
246.6932859904
 21
98.8182762931
 31
0.0
  0
LINE
  5
20D
330
206
100
AcDbEntity
  8
VERMASSUNG
100
AcDbLine
 10
245.6932859904
 20
131.8182762931
 30
0.0
 11
245.6932859904
 21
98.8182762931
 31
0.0
  0
MTEXT
  5
20E
330
206
100
AcDbEntity
  8
VERMASSUNG
100
AcDbMText
 10
243.1151506855
 20
112.1132763358
 30
0.0
 40
2.0
 41
0.0
 71
     1
 72
     1
  1
%%c
  7
SLDTEXTSTYLE0
 11
-7.044195017643634E-15
 21
1.0
 31
0.0
 73
     1
 44
1.0
  0
MTEXT
  5
20F
330
206
100
AcDbEntity
  8
VERMASSUNG
100
AcDbMText
 10
242.9151507342
 20
115.7232763501
 30
0.0
 40
2.0
 41
0.0
 71
     1
 72
     1
  1
33
  7
SLDTEXTSTYLE0
 11
-7.044195017643634E-15
 21
1.0
 31
0.0
 73
     1
 44
1.0
  0
ENDBLK
  5
208
330
206
100
AcDbEntity
  8
0
100
AcDbBlockEnd
  0
BLOCK
  5
213
330
212
100
AcDbEntity
  8
0
100
AcDbBlockBegin
  2
_D_1
 70
     0
 10
0.0
 20
0.0
 30
0.0
  3
_D_1
  1

  0
SOLID
  5
215
330
212
100
AcDbEntity
  8
VERMASSUNG
100
AcDbTrace
 10
236.2439367035
 20
124.3182762931
 30
0.0
 11
235.7939367035
 21
121.3182762931
 31
0.0
 12
236.6939367035
 22
121.3182762931
 32
0.0
 13
236.6939367035
 23
121.3182762931
 33
0.0
  0
LINE
  5
216
330
212
100
AcDbEntity
  8
VERMASSUNG
100
AcDbLine
 10
209.5826349906
 20
124.3182762931
 30
0.0
 11
237.2439367035
 21
124.3182762931
 31
0.0
  0
LINE
  5
217
330
212
100
AcDbEntity
  8
VERMASSUNG
100
AcDbLine
 10
236.2439367035
 20
124.3182762931
 30
0.0
 11
236.2439367035
 21
112.3132762289
 31
0.0
  0
MTEXT
  5
218
330
212
100
AcDbEntity
  8
VERMASSUNG
100
AcDbMText
 10
233.6658013985
 20
112.3132762289
 30
0.0
 40
2.0
 41
0.0
 71
     1
 72
     1
  1
%%c
  7
SLDTEXTSTYLE0
 11
-7.044195017643634E-15
 21
1.0
 31
0.0
 73
     1
 44
1.0
  0
MTEXT
  5
219
330
212
100
AcDbEntity
  8
VERMASSUNG
100
AcDbMText
 10
233.4658014472
 20
115.9232762432
 30
0.0
 40
2.0
 41
0.0
 71
     1
 72
     1
  1
18
  7
SLDTEXTSTYLE0
 11
-7.044195017643634E-15
 21
1.0
 31
0.0
 73
     1
 44
1.0
  0
ENDBLK
  5
214
330
212
100
AcDbEntity
  8
0
100
AcDbBlockEnd
  0
BLOCK
  5
21C
330
21B
100
AcDbEntity
  8
0
100
AcDbBlockBegin
  2
_D_2
 70
     0
 10
0.0
 20
0.0
 30
0.0
  3
_D_2
  1

  0
SOLID
  5
21E
330
21B
100
AcDbEntity
  8
VERMASSUNG
100
AcDbTrace
 10
255.9818539221
 20
135.8182762931
 30
0.0
 11
255.5318539221
 21
132.8182762931
 31
0.0
 12
256.4318539221
 22
132.8182762931
 32
0.0
 13
256.4318539221
 23
132.8182762931
 33
0.0
  0
SOLID
  5
21F
330
21B
100
AcDbEntity
  8
VERMASSUNG
100
AcDbTrace
 10
255.9818539221
 20
94.8182762931
 30
0.0
 11
256.4318539221
 21
97.8182762931
 31
0.0
 12
255.5318539221
 22
97.8182762931
 32
0.0
 13
255.5318539221
 23
97.8182762931
 33
0.0
  0
LINE
  5
220
330
21B
100
AcDbEntity
  8
VERMASSUNG
100
AcDbLine
 10
162.2578160459
 20
135.8182762931
 30
0.0
 11
256.9818539221
 21
135.8182762931
 31
0.0
  0
LINE
  5
221
330
21B
100
AcDbEntity
  8
VERMASSUNG
100
AcDbLine
 10
162.2578160459
 20
94.8182762931
 30
0.0
 11
256.9818539221
 21
94.8182762931
 31
0.0
  0
LINE
  5
222
330
21B
100
AcDbEntity
  8
VERMASSUNG
100
AcDbLine
 10
255.9818539221
 20
135.8182762931
 30
0.0
 11
255.9818539221
 21
94.8182762931
 31
0.0
  0
MTEXT
  5
223
330
21B
100
AcDbEntity
  8
VERMASSUNG
100
AcDbMText
 10
253.4037186171
 20
112.213276166
 30
0.0
 40
2.0
 41
0.0
 71
     1
 72
     1
  1
%%c
  7
SLDTEXTSTYLE0
 11
-7.044195017643634E-15
 21
1.0
 31
0.0
 73
     1
 44
1.0
  0
MTEXT
  5
224
330
21B
100
AcDbEntity
  8
VERMASSUNG
100
AcDbMText
 10
253.2037186658
 20
115.8232761803
 30
0.0
 40
2.0
 41
0.0
 71
     1
 72
     1
  1
41
  7
SLDTEXTSTYLE0
 11
-7.044195017643634E-15
 21
1.0
 31
0.0
 73
     1
 44
1.0
  0
ENDBLK
  5
21D
330
21B
100
AcDbEntity
  8
0
100
AcDbBlockEnd
  0
BLOCK
  5
228
330
227
100
AcDbEntity
  8
0
100
AcDbBlockBegin
  2
_D_3
 70
     0
 10
0.0
 20
0.0
 30
0.0
  3
_D_3
  1

  0
SOLID
  5
22A
330
227
100
AcDbEntity
  8
VERMASSUNG
100
AcDbTrace
 10
162.2578160459
 20
83.3603134314
 30
0.0
 11
165.2578160459
 21
82.9103134314
 31
0.0
 12
165.2578160459
 22
83.8103134314
 32
0.0
 13
165.2578160459
 23
83.8103134314
 33
0.0
  0
SOLID
  5
22B
330
227
100
AcDbEntity
  8
VERMASSUNG
100
AcDbTrace
 10
213.0826349906
 20
83.3603134314
 30
0.0
 11
210.0826349906
 21
83.8103134314
 31
0.0
 12
210.0826349906
 22
82.9103134314
 32
0.0
 13
210.0826349906
 23
82.9103134314
 33
0.0
  0
LINE
  5
22C
330
227
100
AcDbEntity
  8
VERMASSUNG
100
AcDbLine
 10
162.2578160459
 20
94.8182762931
 30
0.0
 11
162.2578160459
 21
82.3603134314
 31
0.0
  0
LINE
  5
22D
330
227
100
AcDbEntity
  8
VERMASSUNG
100
AcDbLine
 10
213.0826349906
 20
100.6670572764
 30
0.0
 11
213.0826349906
 21
82.3603134314
 31
0.0
  0
LINE
  5
22E
330
227
100
AcDbEntity
  8
VERMASSUNG
100
AcDbLine
 10
162.2578160459
 20
83.3603134314
 30
0.0
 11
213.0826349906
 21
83.3603134314
 31
0.0
  0
MTEXT
  5
22F
330
227
100
AcDbEntity
  8
VERMASSUNG
100
AcDbMText
 10
185.2702256371
 20
85.9384490273
 30
0.0
 40
2.0
 41
0.0
 71
     1
 72
     1
  1
50.8
  7
SLDTEXTSTYLE0
 73
     1
 44
1.0
  0
ENDBLK
  5
229
330
227
100
AcDbEntity
  8
0
100
AcDbBlockEnd
  0
BLOCK
  5
232
330
231
100
AcDbEntity
  8
0
100
AcDbBlockBegin
  2
_D_4
 70
     0
 10
0.0
 20
0.0
 30
0.0
  3
_D_4
  1

  0
SOLID
  5
234
330
231
100
AcDbEntity
  8
VERMASSUNG
100
AcDbTrace
 10
151.0826349906
 20
76.8767569641
 30
0.0
 11
154.0826349906
 21
76.4267569641
 31
0.0
 12
154.0826349906
 22
77.3267569641
 32
0.0
 13
154.0826349906
 23
77.3267569641
 33
0.0
  0
SOLID
  5
235
330
231
100
AcDbEntity
  8
VERMASSUNG
100
AcDbTrace
 10
213.0826349906
 20
76.8767569641
 30
0.0
 11
210.0826349906
 21
77.3267569641
 31
0.0
 12
210.0826349906
 22
76.4267569641
 32
0.0
 13
210.0826349906
 23
76.4267569641
 33
0.0
  0
LINE
  5
236
330
231
100
AcDbEntity
  8
VERMASSUNG
100
AcDbLine
 10
151.0826349906
 20
83.8432762931
 30
0.0
 11
151.0826349906
 21
75.8767569641
 31
0.0
  0
LINE
  5
237
330
231
100
AcDbEntity
  8
VERMASSUNG
100
AcDbLine
 10
213.0826349906
 20
100.6670572764
 30
0.0
 11
213.0826349906
 21
75.8767569641
 31
0.0
  0
LINE
  5
238
330
231
100
AcDbEntity
  8
VERMASSUNG
100
AcDbLine
 10
151.0826349906
 20
76.8767569641
 30
0.0
 11
213.0826349906
 21
76.8767569641
 31
0.0
  0
MTEXT
  5
239
330
231
100
AcDbEntity
  8
VERMASSUNG
100
AcDbMText
 10
180.6826350405
 20
79.4548925601
 30
0.0
 40
2.0
 41
0.0
 71
     1
 72
     1
  1
62
  7
SLDTEXTSTYLE0
 73
     1
 44
1.0
  0
ENDBLK
  5
233
330
231
100
AcDbEntity
  8
0
100
AcDbBlockEnd
  0
BLOCK
  5
23C
330
23B
100
AcDbEntity
  8
0
100
AcDbBlockBegin
  2
_D_5
 70
     0
 10
0.0
 20
0.0
 30
0.0
  3
_D_5
  1

  0
SOLID
  5
23E
330
23B
100
AcDbEntity
  8
VERMASSUNG
100
AcDbTrace
 10
213.0826349906
 20
151.8078330363
 30
0.0
 11
210.0826349906
 21
152.2578330363
 31
0.0
 12
210.0826349906
 22
151.3578330363
 32
0.0
 13
210.0826349906
 23
151.3578330363
 33
0.0
  0
SOLID
  5
23F
330
23B
100
AcDbEntity
  8
VERMASSUNG
100
AcDbTrace
 10
163.5826349906
 20
151.8078330363
 30
0.0
 11
166.5826349906
 21
151.3578330363
 31
0.0
 12
166.5826349906
 22
152.2578330363
 32
0.0
 13
166.5826349906
 23
152.2578330363
 33
0.0
  0
LINE
  5
240
330
23B
100
AcDbEntity
  8
VERMASSUNG
100
AcDbLine
 10
213.0826349906
 20
129.9694953097
 30
0.0
 11
213.0826349906
 21
152.8078330363
 31
0.0
  0
LINE
  5
241
330
23B
100
AcDbEntity
  8
VERMASSUNG
100
AcDbLine
 10
163.5826349906
 20
124.2182762931
 30
0.0
 11
163.5826349906
 21
152.8078330363
 31
0.0
  0
LINE
  5
242
330
23B
100
AcDbEntity
  8
VERMASSUNG
100
AcDbLine
 10
213.0826349906
 20
151.8078330363
 30
0.0
 11
163.5826349906
 21
151.8078330363
 31
0.0
  0
MTEXT
  5
243
330
23B
100
AcDbEntity
  8
VERMASSUNG
100
AcDbMText
 10
182.6326358258
 20
154.3859686323
 30
0.0
 40
2.0
 41
0.0
 71
     1
 72
     1
  1
49.5
  7
SLDTEXTSTYLE0
 73
     1
 44
1.0
  0
MTEXT
  5
244
330
23B
100
AcDbEntity
  8
VERMASSUNG
100
AcDbMText
 10
188.8201357141
 20
154.3859686323
 30
0.0
 40
2.0
 41
0.0
 71
     1
 72
     1
  1
max.
  7
SLDTEXTSTYLE0
 73
     1
 44
1.0
  0
ENDBLK
  5
23D
330
23B
100
AcDbEntity
  8
0
100
AcDbBlockEnd
  0
BLOCK
  5
247
330
246
100
AcDbEntity
  8
0
100
AcDbBlockBegin
  2
_D_6
 70
     0
 10
0.0
 20
0.0
 30
0.0
  3
_D_6
  1

  0
SOLID
  5
249
330
246
100
AcDbEntity
  8
VERMASSUNG
100
AcDbTrace
 10
174.0826349906
 20
144.9929201637
 30
0.0
 11
177.0826349906
 21
144.5429201637
 31
0.0
 12
177.0826349906
 22
145.4429201637
 32
0.0
 13
177.0826349906
 23
145.4429201637
 33
0.0
  0
SOLID
  5
24A
330
246
100
AcDbEntity
  8
VERMASSUNG
100
AcDbTrace
 10
213.0826349906
 20
144.9929201637
 30
0.0
 11
210.0826349906
 21
145.4429201637
 31
0.0
 12
210.0826349906
 22
144.5429201637
 32
0.0
 13
210.0826349906
 23
144.5429201637
 33
0.0
  0
LINE
  5
24B
330
246
100
AcDbEntity
  8
VERMASSUNG
100
AcDbLine
 10
174.0826349906
 20
124.3182762931
 30
0.0
 11
174.0826349906
 21
145.9929201637
 31
0.0
  0
LINE
  5
24C
330
246
100
AcDbEntity
  8
VERMASSUNG
100
AcDbLine
 10
213.0826349906
 20
129.9694953097
 30
0.0
 11
213.0826349906
 21
145.9929201637
 31
0.0
  0
LINE
  5
24D
330
246
100
AcDbEntity
  8
VERMASSUNG
100
AcDbLine
 10
174.0826349906
 20
144.9929201637
 30
0.0
 11
213.0826349906
 21
144.9929201637
 31
0.0
  0
MTEXT
  5
24E
330
246
100
AcDbEntity
  8
VERMASSUNG
100
AcDbMText
 10
189.3826351404
 20
147.5710557597
 30
0.0
 40
2.0
 41
0.0
 71
     1
 72
     1
  1
39
  7
SLDTEXTSTYLE0
 73
     1
 44
1.0
  0
MTEXT
  5
24F
330
246
100
AcDbEntity
  8
VERMASSUNG
100
AcDbMText
 10
193.3701350405
 20
147.5710557597
 30
0.0
 40
2.0
 41
0.0
 71
     1
 72
     1
  1
min.
  7
SLDTEXTSTYLE0
 73
     1
 44
1.0
  0
ENDBLK
  5
248
330
246
100
AcDbEntity
  8
0
100
AcDbBlockEnd
  0
BLOCK
  5
252
330
251
100
AcDbEntity
  8
0
100
AcDbBlockBegin
  2
_D_7
 70
     0
 10
0.0
 20
0.0
 30
0.0
  3
_D_7
  1

  0
SOLID
  5
254
330
251
100
AcDbEntity
  8
VERMASSUNG
100
AcDbTrace
 10
133.0826349906
 20
158.7101165867
 30
0.0
 11
136.0826349906
 21
158.2601165867
 31
0.0
 12
136.0826349906
 22
159.1601165867
 32
0.0
 13
136.0826349906
 23
159.1601165867
 33
0.0
  0
SOLID
  5
255
330
251
100
AcDbEntity
  8
VERMASSUNG
100
AcDbTrace
 10
213.0826349906
 20
158.7101165867
 30
0.0
 11
210.0826349906
 21
159.1601165867
 31
0.0
 12
210.0826349906
 22
158.2601165867
 32
0.0
 13
210.0826349906
 23
158.2601165867
 33
0.0
  0
LINE
  5
256
330
251
100
AcDbEntity
  8
VERMASSUNG
100
AcDbLine
 10
133.0826349906
 20
146.5932762931
 30
0.0
 11
133.0826349906
 21
159.7101165867
 31
0.0
  0
LINE
  5
257
330
251
100
AcDbEntity
  8
VERMASSUNG
100
AcDbLine
 10
213.0826349906
 20
129.9694953097
 30
0.0
 11
213.0826349906
 21
159.7101165867
 31
0.0
  0
LINE
  5
258
330
251
100
AcDbEntity
  8
VERMASSUNG
100
AcDbLine
 10
133.0826349906
 20
158.7101165867
 30
0.0
 11
213.0826349906
 21
158.7101165867
 31
0.0
  0
MTEXT
  5
259
330
251
100
AcDbEntity
  8
VERMASSUNG
100
AcDbMText
 10
171.6826350405
 20
161.2882521827
 30
0.0
 40
2.0
 41
0.0
 71
     1
 72
     1
  1
80
  7
SLDTEXTSTYLE0
 73
     1
 44
1.0
  0
ENDBLK
  5
253
330
251
100
AcDbEntity
  8
0
100
AcDbBlockEnd
  0
BLOCK
  5
25C
330
25B
100
AcDbEntity
  8
0
100
AcDbBlockBegin
  2
_D_8
 70
     0
 10
0.0
 20
0.0
 30
0.0
  3
_D_8
  1

  0
SOLID
  5
25E
330
25B
100
AcDbEntity
  8
VERMASSUNG
100
AcDbTrace
 10
213.0826349906
 20
165.6928657407
 30
0.0
 11
210.0826349906
 21
166.1428657407
 31
0.0
 12
210.0826349906
 22
165.2428657407
 32
0.0
 13
210.0826349906
 23
165.2428657407
 33
0.0
  0
SOLID
  5
25F
330
25B
100
AcDbEntity
  8
VERMASSUNG
100
AcDbTrace
 10
93.1326349906
 20
165.6928657407
 30
0.0
 11
96.1326349906
 21
165.2428657407
 31
0.0
 12
96.1326349906
 22
166.1428657407
 32
0.0
 13
96.1326349906
 23
166.1428657407
 33
0.0
  0
LINE
  5
260
330
25B
100
AcDbEntity
  8
VERMASSUNG
100
AcDbLine
 10
213.0826349906
 20
129.9694953097
 30
0.0
 11
213.0826349906
 21
166.6928657407
 31
0.0
  0
LINE
  5
261
330
25B
100
AcDbEntity
  8
VERMASSUNG
100
AcDbLine
 10
93.1326349906
 20
137.5213710169
 30
0.0
 11
93.1326349906
 21
166.6928657407
 31
0.0
  0
LINE
  5
262
330
25B
100
AcDbEntity
  8
VERMASSUNG
100
AcDbLine
 10
213.0826349906
 20
165.6928657407
 30
0.0
 11
93.1326349906
 21
165.6928657407
 31
0.0
  0
MTEXT
  5
263
330
25B
100
AcDbEntity
  8
VERMASSUNG
100
AcDbMText
 10
149.7076349455
 20
168.2710013366
 30
0.0
 40
2.0
 41
0.0
 71
     1
 72
     1
  1
119.95
  7
SLDTEXTSTYLE0
 73
     1
 44
1.0
  0
ENDBLK
  5
25D
330
25B
100
AcDbEntity
  8
0
100
AcDbBlockEnd
  0
BLOCK
  5
266
330
265
100
AcDbEntity
  8
0
100
AcDbBlockBegin
  2
_D_9
 70
     0
 10
0.0
 20
0.0
 30
0.0
  3
_D_9
  1

  0
SOLID
  5
268
330
265
100
AcDbEntity
  8
VERMASSUNG
100
AcDbTrace
 10
75.1570495972
 20
83.8432762931
 30
0.0
 11
75.6070495972
 21
86.8432762931
 31
0.0
 12
74.7070495972
 22
86.8432762931
 32
0.0
 13
74.7070495972
 23
86.8432762931
 33
0.0
  0
SOLID
  5
269
330
265
100
AcDbEntity
  8
VERMASSUNG
100
AcDbTrace
 10
75.1570495972
 20
146.7932762931
 30
0.0
 11
74.7070495972
 21
143.7932762931
 31
0.0
 12
75.6070495972
 22
143.7932762931
 32
0.0
 13
75.6070495972
 23
143.7932762931
 33
0.0
  0
LINE
  5
26A
330
265
100
AcDbEntity
  8
VERMASSUNG
100
AcDbLine
 10
133.2826349906
 20
83.8432762931
 30
0.0
 11
74.1570495972
 21
83.8432762931
 31
0.0
  0
LINE
  5
26B
330
265
100
AcDbEntity
  8
VERMASSUNG
100
AcDbLine
 10
133.2826349906
 20
146.7932762931
 30
0.0
 11
74.1570495972
 21
146.7932762931
 31
0.0
  0
LINE
  5
26C
330
265
100
AcDbEntity
  8
VERMASSUNG
100
AcDbLine
 10
75.1570495972
 20
83.8432762931
 30
0.0
 11
75.1570495972
 21
146.7932762931
 31
0.0
  0
MTEXT
  5
26D
330
265
100
AcDbEntity
  8
VERMASSUNG
100
AcDbMText
 10
72.378914341
 20
107.2132776747
 30
0.0
 40
2.0
 41
0.0
 71
     1
 72
     1
  1
KM
  7
SLDTEXTSTYLE0
 11
2.832769448823990E-16
 21
1.0
 31
0.0
 73
     1
 44
1.0
  0
MTEXT
  5
26E
330
265
100
AcDbEntity
  8
VERMASSUNG
100
AcDbMText
 10
72.5789142923
 20
110.6132774869
 30
0.0
 40
2.0
 41
0.0
 71
     1
 72
     1
  1
%%c
  7
SLDTEXTSTYLE0
 11
2.832769448823990E-16
 21
1.0
 31
0.0
 73
     1
 44
1.0
  0
MTEXT
  5
26F
330
265
100
AcDbEntity
  8
VERMASSUNG
100
AcDbMText
 10
72.378914341
 20
114.2232775012
 30
0.0
 40
2.0
 41
0.0
 71
     1
 72
     1
  1
63
  7
SLDTEXTSTYLE0
 11
2.832769448823990E-16
 21
1.0
 31
0.0
 73
     1
 44
1.0
  0
MTEXT
  5
270
330
265
100
AcDbEntity
  8
VERMASSUNG
100
AcDbMText
 10
72.378914341
 20
118.2107774014
 30
0.0
 40
2.0
 41
0.0
 71
     1
 72
     1
  1
XMZ
  7
SLDTEXTSTYLE0
 11
2.832769448823990E-16
 21
1.0
 31
0.0
 73
     1
 44
1.0
  0
ENDBLK
  5
267
330
265
100
AcDbEntity
  8
0
100
AcDbBlockEnd
  0
ENDSEC
  0
SECTION
  2
ENTITIES
  0
MTEXT
  5
78
330
1F
100
AcDbEntity
  8
KOPF_DÜNN
100
AcDbMText
 10
13.8892156294
 20
23.8442973028
 30
0.0
 40
3.0
 41
0.0
 71
     1
 72
     1
  1
KY6.S18.K01.080
  7
SLDTEXTSTYLE0
 73
     1
 44
1.0
  0
MTEXT
  5
79
330
1F
100
AcDbEntity
  8
VERMASSUNG
100
AcDbMText
 10
13.9329988022
 20
28.8834360957
 30
0.0
 40
3.0
 41
0.0
 71
     1
 72
     1
  1
Schrumpffutter_Heat shrink chuck
  7
SLDTEXTSTYLE0
 73
     1
 44
1.0
  0
MTEXT
  5
7A
330
1F
100
AcDbEntity
  8
VERMASSUNG
100
AcDbMText
 10
98.8601118557
 20
13.8365368761
 30
0.0
 40
2.0
 41
0.0
 71
     1
 72
     1
  1
Datum: 16.02.2018
  7
SLDTEXTSTYLE0
 73
     1
 44
1.0
  0
MTEXT
  5
7B
330
1F
100
AcDbEntity
  8
VERMASSUNG
100
AcDbMText
 10
13.933048693
 20
18.0482802738
 30
0.0
 40
2.0
 41
0.0
 71
     1
 72
     1
  1
KM63 XMZ / Ø18
  7
SLDTEXTSTYLE0
 73
     1
 44
1.0
  0
MTEXT
  5
7C
330
1F
100
AcDbEntity
  8
VERMASSUNG
100
AcDbMText
 10
13.9808475933
 20
13.9090974274
 30
0.0
 40
2.0
 41
0.0
 71
     1
 72
     1
  1
Gewicht: 1061g
  7
SLDTEXTSTYLE0
 73
     1
 44
1.0
  0
CIRCLE
  5
7D
330
1F
100
AcDbEntity
  8
0
  6
Continuous
 62
     7
370
    25
100
AcDbCircle
 10
356.4418059846
 20
115.3182762931
 30
0.0
 40
1.850000000000035
  0
SPLINE
  5
7E
330
1F
100
AcDbEntity
  8
0
  6
Continuous
 62
     7
370
    25
100
AcDbSpline
210
0.0
220
0.0
230
1.0
 70
     8
 71
     3
 72
    11
 73
     7
 74
     0
 42
0.000000001
 43
0.00000001
 40
0.0
 40
0.0
 40
0.0
 40
0.0
 40
0.1234466142197553
 40
0.4778176788690394
 40
0.8145811964265246
 40
0.9999999999999999
 40
0.9999999999999999
 40
0.9999999999999999
 40
0.9999999999999999
 10
358.073221433709
 20
115.9000698965506
 30
0.0
 10
358.0611667503377
 20
115.8342130884571
 30
0.0
 10
358.0145073837413
 20
115.5793049455334
 30
0.0
 10
357.9266784103642
 20
115.0994797889002
 30
0.0
 10
357.830812741056
 20
114.5757493908767
 30
0.0
 10
357.7795606145024
 20
114.2957495401998
 30
0.0
 10
357.7613617831717
 20
114.1963259572627
 30
0.0
  0
SPLINE
  5
7F
330
1F
100
AcDbEntity
  8
0
  6
Continuous
 62
     7
370
    25
100
AcDbSpline
210
0.0
220
0.0
230
1.0
 70
     8
 71
     3
 72
    11
 73
     7
 74
     0
 42
0.000000001
 43
0.00000001
 40
0.0
 40
0.0
 40
0.0
 40
0.0
 40
0.2164554195955887
 40
0.4403113128294763
 40
0.7519005492291979
 40
1.0
 40
1.0
 40
1.0
 40
1.0
 10
356.7536656351635
 20
117.0220202323513
 30
0.0
 10
356.8440564870992
 20
116.9451655575313
 30
0.0
 10
357.0279285969218
 20
116.7888285952585
 30
0.0
 10
357.3691461410896
 20
116.4987087855306
 30
0.0
 10
357.7351632409462
 20
116.187503380363
 30
0.0
 10
357.9693921646054
 20
115.9883505807022
 30
0.0
 10
358.073221433709
 20
115.9000698965506
 30
0.0
  0
SPLINE
  5
80
330
1F
100
AcDbEntity
  8
0
  6
Continuous
 62
     7
370
    25
100
AcDbSpline
210
0.0
220
0.0
230
1.0
 70
     8
 71
     3
 72
    11
 73
     7
 74
     0
 42
0.000000001
 43
0.00000001
 40
0.0
 40
0.0
 40
0.0
 40
0.0
 40
0.2164554389755486
 40
0.440311342023991
 40
0.7519005807379204
 40
1.0
 40
1.0
 40
1.0
 40
1.0
 10
355.1222501860807
 20
116.440226628864
 30
0.0
 10
355.2340037360527
 20
116.4800800457678
 30
0.0
 10
355.4613316137766
 20
116.5611494407629
 30
0.0
 10
355.8831915068143
 20
116.7115926819911
 30
0.0
 10
356.3357118593727
 20
116.8729700424945
 30
0.0
 10
356.6252976981093
 20
116.9762418078036
 30
0.0
 10
356.7536656351635
 20
117.0220202323513
 30
0.0
  0
SPLINE
  5
81
330
1F
100
AcDbEntity
  8
0
  6
Continuous
 62
     7
370
    25
100
AcDbSpline
210
0.0
220
0.0
230
1.0
 70
     8
 71
     3
 72
    11
 73
     7
 74
     0
 42
0.000000001
 43
0.00000001
 40
0.0
 40
0.0
 40
0.0
 40
0.0
 40
0.1854188142158657
 40
0.5221823473471047
 40
0.8765533964033788
 40
1.0
 40
1.0
 40
1.0
 40
1.0
 10
354.8103905355433
 20
114.736482689576
 30
0.0
 10
354.8285894143903
 20
114.8359062710238
 30
0.0
 10
354.8798416743921
 20
115.1159061154928
 30
0.0
 10
354.97570721599
 20
115.6396365418608
 30
0.0
 10
355.0635363523467
 20
116.1194616650351
 30
0.0
 10
355.1101955474035
 20
116.3743698197723
 30
0.0
 10
355.1222501860807
 20
116.440226628864
 30
0.0
  0
SPLINE
  5
82
330
1F
100
AcDbEntity
  8
0
  6
Continuous
 62
     7
370
    25
100
AcDbSpline
210
0.0
220
0.0
230
1.0
 70
     8
 71
     3
 72
    11
 73
     7
 74
     0
 42
0.000000001
 43
0.00000001
 40
0.0
 40
0.0
 40
0.0
 40
0.0
 40
0.2164554195955887
 40
0.4403113128294763
 40
0.7519005492291979
 40
1.0
 40
1.0
 40
1.0
 40
1.0
 10
356.1299463340888
 20
113.6145323537754
 30
0.0
 10
356.0395554821531
 20
113.6913870285953
 30
0.0
 10
355.8556833723305
 20
113.8477239908681
 30
0.0
 10
355.5144658281627
 20
114.1378438005961
 30
0.0
 10
355.1484487283061
 20
114.4490492057637
 30
0.0
 10
354.9142198046469
 20
114.6482020054245
 30
0.0
 10
354.8103905355433
 20
114.736482689576
 30
0.0
  0
SPLINE
  5
83
330
1F
100
AcDbEntity
  8
0
  6
Continuous
 62
     7
370
    25
100
AcDbSpline
210
0.0
220
0.0
230
1.0
 70
     8
 71
     3
 72
    11
 73
     7
 74
     0
 42
0.000000001
 43
0.00000001
 40
0.0
 40
0.0
 40
0.0
 40
0.0
 40
0.2164554389755486
 40
0.440311342023991
 40
0.7519005807379204
 40
1.0
 40
1.0
 40
1.0
 40
1.0
 10
357.7613617831717
 20
114.1963259572627
 30
0.0
 10
357.6496082331996
 20
114.1564725403589
 30
0.0
 10
357.4222803554757
 20
114.0754031453638
 30
0.0
 10
357.0004204624379
 20
113.9249599041356
 30
0.0
 10
356.5479001098796
 20
113.7635825436322
 30
0.0
 10
356.258314271143
 20
113.6603107783231
 30
0.0
 10
356.1299463340888
 20
113.6145323537754
 30
0.0
  0
ARC
  5
84
330
1F
100
AcDbEntity
  8
0
  6
Continuous
 62
     7
370
    25
100
AcDbCircle
 10
356.4418059846
 20
115.3182762931
 30
0.0
 40
1.500000000000044
100
AcDbArc
 50
169.6271967899
 51
229.6271967899
  0
ARC
  5
85
330
1F
100
AcDbEntity
  8
0
  6
Continuous
 62
     7
370
    25
100
AcDbCircle
 10
356.4418059846
 20
115.3182762931
 30
0.0
 40
1.500000000000034
100
AcDbArc
 50
109.6271967899
 51
169.6271967899
  0
ARC
  5
86
330
1F
100
AcDbEntity
  8
0
  6
Continuous
 62
     7
370
    25
100
AcDbCircle
 10
356.4418059846
 20
115.3182762931
 30
0.0
 40
1.500000000000044
100
AcDbArc
 50
229.6271967899
 51
289.6271967899
  0
ARC
  5
87
330
1F
100
AcDbEntity
  8
0
  6
Continuous
 62
     7
370
    25
100
AcDbCircle
 10
356.4418059846
 20
115.3182762931
 30
0.0
 40
1.500000000000007
100
AcDbArc
 50
49.6271967899
 51
109.6271967899
  0
ARC
  5
88
330
1F
100
AcDbEntity
  8
0
  6
Continuous
 62
     7
370
    25
100
AcDbCircle
 10
356.4418059846
 20
115.3182762931
 30
0.0
 40
1.499999999999978
100
AcDbArc
 50
349.6271967899
 51
49.6271967899
  0
ARC
  5
89
330
1F
100
AcDbEntity
  8
0
  6
Continuous
 62
     7
370
    25
100
AcDbCircle
 10
356.4418059846
 20
115.3182762931
 30
0.0
 40
1.499999999999988
100
AcDbArc
 50
289.6271967899
 51
349.6271967899
  0
SPLINE
  5
8A
330
1F
100
AcDbEntity
  8
0
  6
Continuous
 62
     7
370
    25
100
AcDbSpline
210
0.0
220
0.0
230
1.0
 70
     8
 71
     3
 72
     8
 73
     4
 74
     0
 42
0.000000001
 43
0.00000001
 40
0.0
 40
0.0
 40
0.0
 40
0.0
 40
1.0
 40
1.0
 40
1.0
 40
1.0
 10
346.0526658749933
 20
110.9482754210984
 30
0.0
 10
345.9838275048065
 20
110.8851807477796
 30
0.0
 10
345.9153961443504
 20
110.8214583696487
 30
0.0
 10
345.8473798696857
 20
110.7571129373753
 30
0.0
  0
SPLINE
  5
8B
330
1F
100
AcDbEntity
  8
0
  6
Continuous
 62
     7
370
    25
100
AcDbSpline
210
0.0
220
0.0
230
1.0
 70
     8
 71
     3
 72
     8
 73
     4
 74
     0
 42
0.000000001
 43
0.00000001
 40
0.0
 40
0.0
 40
0.0
 40
0.0
 40
1.0
 40
1.0
 40
1.0
 40
1.0
 10
346.310693116254
 20
110.7790135911711
 30
0.0
 10
346.2239896820935
 20
110.8351745108404
 30
0.0
 10
346.1379916346096
 20
110.8915992471663
 30
0.0
 10
346.0526658749933
 20
110.9482754210984
 30
0.0
  0
ARC
  5
8C
330
1F
100
AcDbEntity
  8
0
  6
Continuous
 62
     7
370
    25
100
AcDbCircle
 10
356.4418059846
 20
115.3182762931
 30
0.0
 40
11.10154736189901
100
AcDbArc
 50
204.1348482805
 51
335.8651517195
  0
SPLINE
  5
8D
330
1F
100
AcDbEntity
  8
0
  6
Continuous
 62
     7
370
    25
100
AcDbSpline
210
0.0
220
0.0
230
1.0
 70
     8
 71
     3
 72
     8
 73
     4
 74
     0
 42
0.000000001
 43
0.00000001
 40
0.0
 40
0.0
 40
0.0
 40
0.0
 40
1.0
 40
1.0
 40
1.0
 40
1.0
 10
366.830946094259
 20
110.9482754210984
 30
0.0
 10
366.7456203346426
 20
110.8915992471663
 30
0.0
 10
366.6596222871587
 20
110.8351745108404
 30
0.0
 10
366.5729188529983
 20
110.7790135911711
 30
0.0
  0
SPLINE
  5
8E
330
1F
100
AcDbEntity
  8
0
  6
Continuous
 62
     7
370
    25
100
AcDbSpline
210
0.0
220
0.0
230
1.0
 70
     8
 71
     3
 72
     8
 73
     4
 74
     0
 42
0.000000001
 43
0.00000001
 40
0.0
 40
0.0
 40
0.0
 40
0.0
 40
1.0
 40
1.0
 40
1.0
 40
1.0
 10
367.0362320995666
 20
110.7571129373753
 30
0.0
 10
366.9682158249019
 20
110.8214583696487
 30
0.0
 10
366.8997844644458
 20
110.8851807477796
 30
0.0
 10
366.830946094259
 20
110.9482754210984
 30
0.0
  0
ARC
  5
8F
330
1F
100
AcDbEntity
  8
0
  6
Continuous
 62
     7
370
    25
100
AcDbCircle
 10
356.4418059846
 20
115.3182762931
 30
0.0
 40
11.53456006379121
100
AcDbArc
 50
203.2930774359
 51
336.7074733161
  0
ARC
  5
90
330
1F
100
AcDbEntity
  8
0
  6
Continuous
 62
     7
370
    25
100
AcDbCircle
 10
356.4418059846
 20
115.3182762931
 30
0.0
 40
11.10154736189899
100
AcDbArc
 50
29.4783538465
 51
150.5216461535
  0
SPLINE
  5
91
330
1F
100
AcDbEntity
  8
0
  6
Continuous
 62
     7
370
    25
100
AcDbSpline
210
0.0
220
0.0
230
1.0
 70
     8
 71
     3
 72
     8
 73
     4
 74
     0
 42
0.000000001
 43
0.00000001
 40
0.0
 40
0.0
 40
0.0
 40
0.0
 40
1.0
 40
1.0
 40
1.0
 40
1.0
 10
346.4658729353017
 20
120.5965755424525
 30
0.0
 10
346.5687688491256
 20
120.6585441515435
 30
0.0
 10
346.6726085186805
 20
120.720122803684
 30
0.0
 10
346.7774464069071
 20
120.7812889949555
 30
0.0
  0
SPLINE
  5
92
330
1F
100
AcDbEntity
  8
0
  6
Continuous
 62
     7
370
    25
100
AcDbSpline
210
0.0
220
0.0
230
1.0
 70
     8
 71
     3
 72
     8
 73
     4
 74
     0
 42
0.000000001
 43
0.00000001
 40
0.0
 40
0.0
 40
0.0
 40
0.0
 40
1.0
 40
1.0
 40
1.0
 40
1.0
 10
346.2773365541878
 20
120.7707653633221
 30
0.0
 10
346.3399048625574
 20
120.7123148942146
 30
0.0
 10
346.4027514559212
 20
120.6542508836815
 30
0.0
 10
346.4658729353042
 20
120.5965755424503
 30
0.0
  0
ARC
  5
93
330
1F
100
AcDbEntity
  8
0
  6
Continuous
 62
     7
370
    25
100
AcDbCircle
 10
356.4418059846
 20
115.3182762931
 30
0.0
 40
11.53456006379122
100
AcDbArc
 50
28.2102805322
 51
151.7902347364
  0
SPLINE
  5
94
330
1F
100
AcDbEntity
  8
0
  6
Continuous
 62
     7
370
    25
100
AcDbSpline
210
0.0
220
0.0
230
1.0
 70
     8
 71
     3
 72
     8
 73
     4
 74
     0
 42
0.000000001
 43
0.00000001
 40
0.0
 40
0.0
 40
0.0
 40
0.0
 40
1.0
 40
1.0
 40
1.0
 40
1.0
 10
366.4177390339485
 20
120.5965755424506
 30
0.0
 10
366.4808605133312
 20
120.6542508836817
 30
0.0
 10
366.5437071066949
 20
120.7123148942147
 30
0.0
 10
366.6062754150645
 20
120.7707653633221
 30
0.0
  0
SPLINE
  5
95
330
1F
100
AcDbEntity
  8
0
  6
Continuous
 62
     7
370
    25
100
AcDbSpline
210
0.0
220
0.0
230
1.0
 70
     8
 71
     3
 72
     8
 73
     4
 74
     0
 42
0.000000001
 43
0.00000001
 40
0.0
 40
0.0
 40
0.0
 40
0.0
 40
1.0
 40
1.0
 40
1.0
 40
1.0
 10
366.1061655623452
 20
120.7812889949555
 30
0.0
 10
366.2110034505714
 20
120.7201228036843
 30
0.0
 10
366.3148431201259
 20
120.6585441515439
 30
0.0
 10
366.4177390339495
 20
120.5965755424532
 30
0.0
  0
SPLINE
  5
96
330
1F
100
AcDbEntity
  8
0
  6
Continuous
 62
     7
370
    25
100
AcDbSpline
210
0.0
220
0.0
230
1.0
 70
     8
 71
     3
 72
     8
 73
     4
 74
     0
 42
0.000000001
 43
0.00000001
 40
0.0000004028655191
 40
0.0000004028655191
 40
0.0000004028655191
 40
0.0000004028655191
 40
0.0015137684369673
 40
0.0015137684369673
 40
0.0015137684369673
 40
0.0015137684369673
 10
348.018211327484
 20
110.9960008892789
 30
0.0
 10
347.8115398399328
 20
110.9237069475642
 30
0.0
 10
347.6049208713922
 20
110.8513754616074
 30
0.0
 10
347.3983444965835
 20
110.7790135911711
 30
0.0
  0
LINE
  5
97
330
1F
100
AcDbEntity
  8
0
  6
Continuous
 62
     7
370
    25
100
AcDbLine
 10
347.3983443415
 20
110.7790137897
 30
0.0
 11
346.3106927534
 21
110.7790137897
 31
0.0
  0
LINE
  5
98
330
1F
100
AcDbEntity
  8
0
  6
Continuous
 62
     7
370
    25
100
AcDbLine
 10
346.2757206594
 20
111.2120261671
 30
0.0
 11
346.0526661089
 21
110.948275614
 31
0.0
  0
LINE
  5
99
330
1F
100
AcDbEntity
  8
0
  6
Continuous
 62
     7
370
    25
100
AcDbLine
 10
348.0433308592
 20
111.2120261671
 30
0.0
 11
346.275935795
 21
111.2120261671
 31
0.0
  0
LINE
  5
9A
330
1F
100
AcDbEntity
  8
0
  6
Continuous
 62
     7
370
    25
100
AcDbLine
 10
348.0539879834
 20
111.0544454562
 30
0.0
 11
348.0433308592
 21
111.2120261671
 31
0.0
  0
SPLINE
  5
9B
330
1F
100
AcDbEntity
  8
0
  6
Continuous
 62
     7
370
    25
100
AcDbSpline
210
0.0
220
0.0
230
1.0
 70
     8
 71
     3
 72
     8
 73
     4
 74
     0
 42
0.000000001
 43
0.00000001
 40
0.0006523765358269
 40
0.0006523765358269
 40
0.0006523765358269
 40
0.0006523765358269
 40
0.0009043636494504
 40
0.0009043636494504
 40
0.0009043636494504
 40
0.0009043636494504
 10
348.055088202519
 20
111.0562389867275
 30
0.0
 10
348.0427712080015
 20
111.0361634057454
 30
0.0
 10
348.0304790105974
 20
111.0160840172229
 30
0.0
 10
348.018211327484
 20
110.9960008892789
 30
0.0
  0
LINE
  5
9C
330
1F
100
AcDbEntity
  8
0
  6
Continuous
 62
     7
370
    25
100
AcDbLine
 10
346.4658725148
 20
120.59657539
 30
0.0
 11
346.6742810866
 21
120.3482764097
 31
0.0
  0
LINE
  5
9D
330
1F
100
AcDbEntity
  8
0
  6
Continuous
 62
     7
370
    25
100
AcDbLine
 10
347.92449503
 20
120.7812887872
 30
0.0
 11
346.7774464821
 21
120.7812887872
 31
0.0
  0
SPLINE
  5
9E
330
1F
100
AcDbEntity
  8
0
  6
Continuous
 62
     7
370
    25
100
AcDbSpline
210
0.0
220
0.0
230
1.0
 70
     8
 71
     3
 72
     8
 73
     4
 74
     0
 42
0.000000001
 43
0.00000001
 40
0.0000004089325119
 40
0.0000004089325119
 40
0.0000004089325119
 40
0.0000004089325119
 40
0.0015399868451459
 40
0.0015399868451459
 40
0.0015399868451459
 40
0.0015399868451459
 10
347.9244945671973
 20
120.7812889949555
 30
0.0
 10
348.1362558259917
 20
120.7088341123021
 30
0.0
 10
348.3481761491819
 20
120.6364952422736
 30
0.0
 10
348.5602941323962
 20
120.5643016968478
 30
0.0
  0
LINE
  5
9F
330
1F
100
AcDbEntity
  8
0
  6
Continuous
 62
     7
370
    25
100
AcDbLine
 10
348.5602940505
 20
120.5643018032
 30
0.0
 11
348.5684468483
 21
120.5490891146
 31
0.0
  0
LINE
  5
A0
330
1F
100
AcDbEntity
  8
0
  6
Continuous
 62
     7
370
    25
100
AcDbLine
 10
348.5660766324
 20
120.3482764097
 30
0.0
 11
348.5684477797
 21
120.5490895803
 31
0.0
  0
LINE
  5
A1
330
1F
100
AcDbEntity
  8
0
  6
Continuous
 62
     7
370
    25
100
AcDbLine
 10
348.5660766324
 20
120.3482764097
 30
0.0
 11
346.6742810866
 21
120.3482764097
 31
0.0
  0
LINE
  5
A2
330
1F
100
AcDbEntity
  8
0
  6
Continuous
 62
     7
370
    25
100
AcDbLine
 10
366.8309458604
 20
110.948275614
 30
0.0
 11
366.6078913098
 21
111.2120261671
 31
0.0
  0
LINE
  5
A3
330
1F
100
AcDbEntity
  8
0
  6
Continuous
 62
     7
370
    25
100
AcDbLine
 10
366.5729192158
 20
110.7790137897
 30
0.0
 11
365.4852676278
 21
110.7790137897
 31
0.0
  0
SPLINE
  5
A4
330
1F
100
AcDbEntity
  8
0
  6
Continuous
 62
     7
370
    25
100
AcDbSpline
210
0.0
220
0.0
230
1.0
 70
     8
 71
     3
 72
     8
 73
     4
 74
     0
 42
0.000000001
 43
0.00000001
 40
0.0000004024872366
 40
0.0000004024872366
 40
0.0000004024872366
 40
0.0000004024872366
 40
0.0015137680586847
 40
0.0015137680586847
 40
0.0015137680586847
 40
0.0015137680586847
 10
365.4852674726687
 20
110.7790135911711
 30
0.0
 10
365.2786910978601
 20
110.8513754616074
 30
0.0
 10
365.0720721293195
 20
110.9237069475642
 30
0.0
 10
364.8654006417682
 20
110.9960008892789
 30
0.0
  0
SPLINE
  5
A5
330
1F
100
AcDbEntity
  8
0
  6
Continuous
 62
     7
370
    25
100
AcDbSpline
210
0.0
220
0.0
230
1.0
 70
     8
 71
     3
 72
     8
 73
     4
 74
     0
 42
0.000000001
 43
0.00000001
 40
0.0000002414707367
 40
0.0000002414707367
 40
0.0000002414707367
 40
0.0000002414707367
 40
0.0002447240690309
 40
0.0002447240690309
 40
0.0002447240690309
 40
0.0002447240690309
 10
364.8654006417682
 20
110.9960008892789
 30
0.0
 10
364.8534983064131
 20
111.0154859152255
 30
0.0
 10
364.8415728952014
 20
111.0349674210498
 30
0.0
 10
364.8296241499065
 20
111.0544453445617
 30
0.0
  0
LINE
  5
A6
330
1F
100
AcDbEntity
  8
0
  6
Continuous
 62
     7
370
    25
100
AcDbLine
 10
364.8402811101
 20
111.2120261671
 30
0.0
 11
364.8296239858
 21
111.0544454562
 31
0.0
  0
LINE
  5
A7
330
1F
100
AcDbEntity
  8
0
  6
Continuous
 62
     7
370
    25
100
AcDbLine
 10
366.6078913098
 20
111.2120261671
 30
0.0
 11
364.8351728057
 21
111.2120261671
 31
0.0
  0
SPLINE
  5
A8
330
1F
100
AcDbEntity
  8
0
  6
Continuous
 62
     7
370
    25
100
AcDbSpline
210
0.0
220
0.0
230
1.0
 70
     8
 71
     3
 72
     8
 73
     4
 74
     0
 42
0.000000001
 43
0.00000001
 40
0.000000410413179
 40
0.000000410413179
 40
0.000000410413179
 40
0.000000410413179
 40
0.0015399883258131
 40
0.0015399883258131
 40
0.0015399883258131
 40
0.0015399883258131
 10
364.3233178368561
 20
120.5643016968478
 30
0.0
 10
364.5354358200703
 20
120.6364952422736
 30
0.0
 10
364.7473561432606
 20
120.7088341123021
 30
0.0
 10
364.959117402055
 20
120.7812889949555
 30
0.0
  0
LINE
  5
A9
330
1F
100
AcDbEntity
  8
0
  6
Continuous
 62
     7
370
    25
100
AcDbLine
 10
366.1061654871
 20
120.7812887872
 30
0.0
 11
364.9591169393
 21
120.7812887872
 31
0.0
  0
LINE
  5
AA
330
1F
100
AcDbEntity
  8
0
  6
Continuous
 62
     7
370
    25
100
AcDbLine
 10
366.2093308827
 20
120.3482764097
 30
0.0
 11
366.4177394545
 21
120.59657539
 31
0.0
  0
LINE
  5
AB
330
1F
100
AcDbEntity
  8
0
  6
Continuous
 62
     7
370
    25
100
AcDbLine
 10
366.2091408929
 20
120.3482764097
 30
0.0
 11
364.3175353369
 21
120.3482764097
 31
0.0
  0
LINE
  5
AC
330
1F
100
AcDbEntity
  8
0
  6
Continuous
 62
     7
370
    25
100
AcDbLine
 10
364.3151641896
 20
120.5490891146
 30
0.0
 11
364.3175353369
 21
120.3482764097
 31
0.0
  0
LINE
  5
AD
330
1F
100
AcDbEntity
  8
0
  6
Continuous
 62
     7
370
    25
100
AcDbLine
 10
364.3151651209
 20
120.5490891146
 30
0.0
 11
364.3233179187
 21
120.5643018032
 31
0.0
  0
ARC
  5
AE
330
1F
100
AcDbEntity
  8
0
  6
Continuous
 62
     7
370
    25
100
AcDbCircle
 10
356.4418059846
 20
115.3182762931
 30
0.0
 40
10.11875000000003
100
AcDbArc
 50
32.6761561262
 51
147.3238438738
  0
ARC
  5
AF
330
1F
100
AcDbEntity
  8
0
  6
Continuous
 62
     7
370
    25
100
AcDbCircle
 10
356.4418059846
 20
115.3182762931
 30
0.0
 40
10.11875
100
AcDbArc
 50
206.6538426687
 51
333.3461573313
  0
ARC
  5
B0
330
1F
100
AcDbEntity
  8
0
  6
Continuous
 62
     7
370
    25
100
AcDbCircle
 10
356.4418059846
 20
115.3182762931
 30
0.0
 40
9.467788105676684
100
AcDbArc
 50
33.6481949792
 51
146.3518050208
  0
ARC
  5
B1
330
1F
100
AcDbEntity
  8
0
  6
Continuous
 62
     7
370
    25
100
AcDbCircle
 10
356.4418059846
 20
115.3182762931
 30
0.0
 40
9.467788105676709
100
AcDbArc
 50
207.1630537883
 51
332.8369462117
  0
SPLINE
  5
B2
330
1F
100
AcDbEntity
  8
0
  6
Continuous
 62
     7
370
    25
100
AcDbSpline
210
0.0
220
0.0
230
1.0
 70
     8
 71
     3
 72
     8
 73
     4
 74
     0
 42
0.000000001
 43
0.00000001
 40
0.0
 40
0.0
 40
0.0
 40
0.0
 40
1.0
 40
1.0
 40
1.0
 40
1.0
 10
345.8473798694956
 20
110.7571129374866
 30
0.0
 10
345.794137044554
 20
110.7576366637245
 30
0.0
 10
345.7408417589383
 20
110.7584347569869
 30
0.0
 10
345.6874962534488
 20
110.7595078049117
 30
0.0
  0
LINE
  5
B3
330
1F
100
AcDbEntity
  8
0
  6
Continuous
 62
     7
370
    25
100
AcDbLine
 10
346.115583468
 20
111.2120261671
 30
0.0
 11
346.2757206594
 21
111.2120261671
 31
0.0
  0
LINE
  5
B4
330
1F
100
AcDbEntity
  8
0
  6
Continuous
 62
     7
370
    25
100
AcDbLine
 10
366.6078913098
 20
111.2120261671
 30
0.0
 11
366.7680285012
 21
111.2120261671
 31
0.0
  0
SPLINE
  5
B5
330
1F
100
AcDbEntity
  8
0
  6
Continuous
 62
     7
370
    25
100
AcDbSpline
210
0.0
220
0.0
230
1.0
 70
     8
 71
     3
 72
     8
 73
     4
 74
     0
 42
0.000000001
 43
0.00000001
 40
0.0
 40
0.0
 40
0.0
 40
0.0
 40
1.0
 40
1.0
 40
1.0
 40
1.0
 10
367.1961157158034
 20
110.7595078049117
 30
0.0
 10
367.1427702103139
 20
110.7584347569869
 30
0.0
 10
367.0894749246982
 20
110.7576366637245
 30
0.0
 10
367.0362320997566
 20
110.7571129374866
 30
0.0
  0
LINE
  5
B6
330
1F
100
AcDbEntity
  8
0
  6
Continuous
 62
     7
370
    25
100
AcDbLine
 10
346.6742810866
 20
120.3482764097
 30
0.0
 11
346.5508640816
 21
120.3482764097
 31
0.0
  0
SPLINE
  5
B7
330
1F
100
AcDbEntity
  8
0
  6
Continuous
 62
     7
370
    25
100
AcDbSpline
210
0.0
220
0.0
230
1.0
 70
     8
 71
     3
 72
     8
 73
     4
 74
     0
 42
0.000000001
 43
0.00000001
 40
0.0
 40
0.0
 40
0.0
 40
0.0
 40
1.0
 40
1.0
 40
1.0
 40
1.0
 10
346.1541150599464
 20
120.7687218099997
 30
0.0
 10
346.1952304869882
 20
120.7695907476397
 30
0.0
 10
346.2363047815993
 20
120.7702717852225
 30
0.0
 10
346.2773365540884
 20
120.770765363284
 30
0.0
  0
SPLINE
  5
B8
330
1F
100
AcDbEntity
  8
0
  6
Continuous
 62
     7
370
    25
100
AcDbSpline
210
0.0
220
0.0
230
1.0
 70
     8
 71
     3
 72
     8
 73
     4
 74
     0
 42
0.000000001
 43
0.00000001
 40
0.0
 40
0.0
 40
0.0
 40
0.0
 40
1.0
 40
1.0
 40
1.0
 40
1.0
 10
366.6062754151639
 20
120.770765363284
 30
0.0
 10
366.647307187653
 20
120.7702717852225
 30
0.0
 10
366.688381482264
 20
120.7695907476397
 30
0.0
 10
366.7294969093059
 20
120.7687218099997
 30
0.0
  0
LINE
  5
B9
330
1F
100
AcDbEntity
  8
0
  6
Continuous
 62
     7
370
    25
100
AcDbLine
 10
366.3327478876
 20
120.3482764097
 30
0.0
 11
366.2093308827
 21
120.3482764097
 31
0.0
  0
SPLINE
  5
BA
330
1F
100
AcDbEntity
  8
0
  6
Continuous
 62
     7
370
    25
100
AcDbSpline
210
0.0
220
0.0
230
1.0
 70
     8
 71
     3
 72
     9
 73
     5
 74
     0
 42
0.000000001
 43
0.00000001
 40
0.0
 40
0.0
 40
0.0
 40
0.0
 40
0.4897878789203994
 40
0.9999999999999999
 40
0.9999999999999999
 40
0.9999999999999999
 40
0.9999999999999999
 10
363.5473955492776
 20
120.5413931593011
 30
0.0
 10
363.6737506314988
 20
120.5427118850543
 30
0.0
 10
363.9317298254709
 20
120.5454043276607
 30
0.0
 10
364.1856245737604
 20
120.5478444054967
 30
0.0
 10
364.3151647518162
 20
120.549089362785
 30
0.0
  0
ARC
  5
BB
330
1F
100
AcDbEntity
  8
0
  6
Continuous
 62
     7
370
    25
100
AcDbCircle
 10
356.4418059846
 20
115.3182762931
 30
0.0
 40
8.818750000000028
100
AcDbArc
 50
36.3185452201
 51
143.6814533294
  0
SPLINE
  5
BC
330
1F
100
AcDbEntity
  8
0
  6
Continuous
 62
     7
370
    25
100
AcDbSpline
210
0.0
220
0.0
230
1.0
 70
     8
 71
     3
 72
     9
 73
     5
 74
     0
 42
0.000000001
 43
0.00000001
 40
0.0
 40
0.0
 40
0.0
 40
0.0
 40
0.5102121239851395
 40
0.9999999999999999
 40
0.9999999999999999
 40
0.9999999999999999
 40
0.9999999999999999
 10
348.5684471163114
 20
120.5490895513892
 30
0.0
 10
348.6979873341622
 20
120.5478445926984
 30
0.0
 10
348.951882159003
 20
120.5454045121274
 30
0.0
 10
349.2098614320127
 20
120.5427120664342
 30
0.0
 10
349.336216552196
 20
120.5413933391769
 30
0.0
  0
SPLINE
  5
BD
330
1F
100
AcDbEntity
  8
0
  6
Continuous
 62
     7
370
    25
100
AcDbSpline
210
0.0
220
0.0
230
1.0
 70
     8
 71
     3
 72
     8
 73
     4
 74
     0
 42
0.000000001
 43
0.00000001
 40
0.0
 40
0.0
 40
0.0
 40
0.0
 40
1.0
 40
1.0
 40
1.0
 40
1.0
 10
349.3362162985214
 20
120.5413928698997
 30
0.0
 10
349.328455240576
 20
120.5308346347006
 30
0.0
 10
349.3207177154801
 20
120.5202591011742
 30
0.0
 10
349.3130038001106
 20
120.5096663743948
 30
0.0
  0
SPLINE
  5
BE
330
1F
100
AcDbEntity
  8
0
  6
Continuous
 62
     7
370
    25
100
AcDbSpline
210
0.0
220
0.0
230
1.0
 70
     8
 71
     3
 72
     8
 73
     4
 74
     0
 42
0.000000001
 43
0.00000001
 40
0.0
 40
0.0
 40
0.0
 40
0.0
 40
1.0
 40
1.0
 40
1.0
 40
1.0
 10
349.1414459673476
 20
120.3482766319316
 30
0.0
 10
349.198706374382
 20
120.4021848089194
 30
0.0
 10
349.2558927654918
 20
120.4559817340025
 30
0.0
 10
349.3130038001106
 20
120.5096663743948
 30
0.0
  0
LINE
  5
BF
330
1F
100
AcDbEntity
  8
0
  6
Continuous
 62
     7
370
    25
100
AcDbLine
 10
349.1414467877
 20
120.3482764097
 30
0.0
 11
348.5660766324
 21
120.3482764097
 31
0.0
  0
SPLINE
  5
C0
330
1F
100
AcDbEntity
  8
0
  6
Continuous
 62
     7
370
    25
100
AcDbSpline
210
0.0
220
0.0
230
1.0
 70
     8
 71
     3
 72
     8
 73
     4
 74
     0
 42
0.000000001
 43
0.00000001
 40
0.0
 40
0.0
 40
0.0
 40
0.0
 40
1.0
 40
1.0
 40
1.0
 40
1.0
 10
363.5707236009227
 20
120.509507860096
 30
0.0
 10
363.5629714882221
 20
120.5201535367685
 30
0.0
 10
363.5551955295549
 20
120.5307818489627
 30
0.0
 10
363.5473958029514
 20
120.5413926900252
 30
0.0
  0
LINE
  5
C1
330
1F
100
AcDbEntity
  8
0
  6
Continuous
 62
     7
370
    25
100
AcDbLine
 10
364.3175353369
 20
120.3482764097
 30
0.0
 11
363.7421367762
 21
120.3482764097
 31
0.0
  0
SPLINE
  5
C2
330
1F
100
AcDbEntity
  8
0
  6
Continuous
 62
     7
370
    25
100
AcDbSpline
210
0.0
220
0.0
230
1.0
 70
     8
 71
     3
 72
     8
 73
     4
 74
     0
 42
0.000000001
 43
0.00000001
 40
0.0
 40
0.0
 40
0.0
 40
0.0
 40
1.0
 40
1.0
 40
1.0
 40
1.0
 10
363.5707236009227
 20
120.509507860096
 30
0.0
 10
363.6277867286088
 20
120.4558759096802
 30
0.0
 10
363.6849251083391
 20
120.4021318233152
 30
0.0
 10
363.742137401813
 20
120.348276632065
 30
0.0
  0
ARC
  5
C3
330
1F
100
AcDbEntity
  8
0
  6
Continuous
 62
     7
370
    25
100
AcDbCircle
 10
356.4418059846
 20
115.3182762931
 30
0.0
 40
8.818750000000044
100
AcDbArc
 50
209.2047569376
 51
330.7952430624
  0
SPLINE
  5
C4
330
1F
100
AcDbEntity
  8
0
  6
Continuous
 62
     7
370
    25
100
AcDbSpline
210
0.0
220
0.0
230
1.0
 70
    24
 71
     3
 72
     8
 73
     4
 74
     0
 42
0.000000001
 43
0.00000001
 40
0.0
 40
0.0
 40
0.0
 40
0.0
 40
0.000136040218399
 40
0.000136040218399
 40
0.000136040218399
 40
0.000136040218399
 10
364.1829413814704
 20
111.0587358622122
 30
0.0
 10
364.1685023817863
 20
111.0442968625281
 30
0.0
 10
364.1540319294241
 20
111.0298264101658
 30
0.0
 10
364.1395303308727
 20
111.0153248116144
 30
0.0
  0
SPLINE
  5
C5
330
1F
100
AcDbEntity
  8
0
  6
Continuous
 62
     7
370
    25
100
AcDbSpline
210
0.0
220
0.0
230
1.0
 70
     8
 71
     3
 72
     9
 73
     5
 74
     0
 42
0.000000001
 43
0.00000001
 40
0.0
 40
0.0
 40
0.0
 40
0.0
 40
0.5086448740973026
 40
1.0
 40
1.0
 40
1.0
 40
1.0
 10
364.8296241102267
 20
111.054445256427
 30
0.0
 10
364.7204580612289
 20
111.055139105272
 30
0.0
 10
364.5058367123131
 20
111.0565032177999
 30
0.0
 10
364.2893253996357
 20
111.0580000377378
 30
0.0
 10
364.1829414563358
 20
111.0587355078868
 30
0.0
  0
SPLINE
  5
C6
330
1F
100
AcDbEntity
  8
0
  6
Continuous
 62
     7
370
    25
100
AcDbSpline
210
0.0
220
0.0
230
1.0
 70
     8
 71
     3
 72
     9
 73
     5
 74
     0
 42
0.000000001
 43
0.00000001
 40
0.0
 40
0.0
 40
0.0
 40
0.0
 40
0.4913551252639757
 40
1.0
 40
1.0
 40
1.0
 40
1.0
 10
348.700670543381
 20
111.0587354774222
 30
0.0
 10
348.5942865919889
 20
111.0580000070934
 30
0.0
 10
348.3777752625613
 20
111.0565031867877
 30
0.0
 10
348.1631538971945
 20
111.0551390739334
 30
0.0
 10
348.0539878396918
 20
111.0544452249214
 30
0.0
  0
SPLINE
  5
C7
330
1F
100
AcDbEntity
  8
0
  6
Continuous
 62
     7
370
    25
100
AcDbSpline
210
0.0
220
0.0
230
1.0
 70
    24
 71
     3
 72
     8
 73
     4
 74
     0
 42
0.000000001
 43
0.00000001
 40
0.0
 40
0.0
 40
0.0
 40
0.0
 40
0.0001360401227241
 40
0.0001360401227241
 40
0.0001360401227241
 40
0.0001360401227241
 10
348.7440816383796
 20
111.0153248116144
 30
0.0
 10
348.729580050027
 20
111.0298263999671
 30
0.0
 10
348.7151096078197
 20
111.0442968421743
 30
0.0
 10
348.7006706182463
 20
111.0587358317477
 30
0.0
  0
LINE
  5
C8
330
1F
100
AcDbEntity
  8
0
  6
Continuous
 62
     7
370
    25
100
AcDbLine
 10
348.0433308592
 20
111.2120261671
 30
0.0
 11
348.5473803317
 21
111.2120261671
 31
0.0
  0
SPLINE
  5
C9
330
1F
100
AcDbEntity
  8
0
  6
Continuous
 62
     7
370
    25
100
AcDbSpline
210
0.0
220
0.0
230
1.0
 70
     8
 71
     3
 72
     8
 73
     4
 74
     0
 42
0.000000001
 43
0.00000001
 40
0.0
 40
0.0
 40
0.0
 40
0.0
 40
1.0
 40
1.0
 40
1.0
 40
1.0
 10
348.7006708180783
 20
111.0587356321605
 30
0.0
 10
348.6496020554738
 20
111.1097781239046
 30
0.0
 10
348.5985050958379
 20
111.1608750959306
 30
0.0
 10
348.5473802543223
 20
111.2120261956718
 30
0.0
  0
SPLINE
  5
CA
330
1F
100
AcDbEntity
  8
0
  6
Continuous
 62
     7
370
    25
100
AcDbSpline
210
0.0
220
0.0
230
1.0
 70
     8
 71
     3
 72
     8
 73
     4
 74
     0
 42
0.000000001
 43
0.00000001
 40
0.0
 40
0.0
 40
0.0
 40
0.0
 40
1.0
 40
1.0
 40
1.0
 40
1.0
 10
364.3362317149301
 20
111.2120261956718
 30
0.0
 10
364.2851068835848
 20
111.1608751061165
 30
0.0
 10
364.2340099341038
 20
111.1097781442455
 30
0.0
 10
364.1829411816385
 20
111.0587356626251
 30
0.0
  0
LINE
  5
CB
330
1F
100
AcDbEntity
  8
0
  6
Continuous
 62
     7
370
    25
100
AcDbLine
 10
364.3362316375
 20
111.2120261671
 30
0.0
 11
364.8402811101
 21
111.2120261671
 31
0.0
  0
CIRCLE
  5
CC
330
1F
100
AcDbEntity
  8
0
  6
Continuous
 62
     7
370
    25
100
AcDbCircle
 10
356.4418059846
 20
115.3182762931
 30
0.0
 40
12.47086902276419
  0
SPLINE
  5
CD
330
1F
100
AcDbEntity
  8
0
  6
Continuous
 62
     7
370
    25
100
AcDbSpline
210
0.0
220
0.0
230
1.0
 70
     8
 71
     3
 72
    23
 73
    19
 74
     0
 42
0.000000001
 43
0.00000001
 40
0.0
 40
0.0
 40
0.0
 40
0.0
 40
0.0521036415675031
 40
0.1035646240925967
 40
0.1544751946736949
 40
0.2049306267473421
 40
0.2550287880844035
 40
0.3048696389141012
 40
0.3545546704609132
 40
0.4041862979523234
 40
0.4538672252126086
 40
0.5036997999421611
 40
0.5901870230746071
 40
0.674271637822954
 40
0.7565997087222995
 40
0.8378563983721267
 40
0.9187511781367398
 40
1.0
 40
1.0
 40
1.0
 40
1.0
 10
345.6025538379686
 20
119.8086870058132
 30
0.0
 10
345.6158481929183
 20
119.8378548989748
 30
0.0
 10
345.6422729269966
 20
119.8958309213788
 30
0.0
 10
345.6814839332204
 20
119.9787302223908
 30
0.0
 10
345.7199258880261
 20
120.0579122034083
 30
0.0
 10
345.7575134694927
 20
120.1331670202103
 30
0.0
 10
345.7941693558002
 20
120.204586674468
 30
0.0
 10
345.829819219859
 20
120.2721832832496
 30
0.0
 10
345.8643929666201
 20
120.3359896047141
 30
0.0
 10
345.8978246605761
 20
120.3960331467833
 30
0.0
 10
345.930051537801
 20
120.45233984351
 30
0.0
 10
345.9685529746907
 20
120.5177448253337
 30
0.0
 10
346.0112144554041
 20
120.5873059031698
 30
0.0
 10
346.0547074975271
 20
120.6540653998342
 30
0.0
 10
346.0911199943552
 20
120.705789447932
 30
0.0
 10
346.1200208008324
 20
120.7422377599839
 30
0.0
 10
346.1419382569306
 20
120.7648351568671
 30
0.0
 10
346.1500502214238
 20
120.7674243744284
 30
0.0
 10
346.1541150599464
 20
120.7687218099997
 30
0.0
  0
SPLINE
  5
CE
330
1F
100
AcDbEntity
  8
0
  6
Continuous
 62
     7
370
    25
100
AcDbSpline
210
0.0
220
0.0
230
1.0
 70
     8
 71
     3
 72
     8
 73
     4
 74
     0
 42
0.000000001
 43
0.00000001
 40
0.0
 40
0.0
 40
0.0
 40
0.0
 40
1.0
 40
1.0
 40
1.0
 40
1.0
 10
345.4819158981059
 20
119.8064766484034
 30
0.0
 10
345.5221049116989
 20
119.807206958621
 30
0.0
 10
345.5622672137889
 20
119.8077874844504
 30
0.0
 10
345.6024019242644
 20
119.8082184494002
 30
0.0
  0
SPLINE
  5
CF
330
1F
100
AcDbEntity
  8
0
  6
Continuous
 62
     7
370
    25
100
AcDbSpline
210
0.0
220
0.0
230
1.0
 70
     8
 71
     3
 72
    18
 73
    14
 74
     0
 42
0.000000001
 43
0.00000001
 40
0.0
 40
0.0
 40
0.0
 40
0.0
 40
0.0923824559411628
 40
0.1844689291573508
 40
0.2764953615950219
 40
0.3686975365494161
 40
0.4613092840003458
 40
0.5545607518442569
 40
0.6486768051537182
 40
0.7438756050146744
 40
0.8403674044302629
 40
0.9203921078121001
 40
1.0
 40
1.0
 40
1.0
 40
1.0
 10
345.5348548869054
 20
120.0732936552853
 30
0.0
 10
345.536690540558
 20
120.07308534307
 30
0.0
 10
345.5403559666409
 20
120.0726693860479
 30
0.0
 10
345.5431512962601
 20
120.0658649625818
 30
0.0
 10
345.5439535913387
 20
120.0545315839296
 30
0.0
 10
345.5425874542955
 20
120.038231188903
 30
0.0
 10
345.5391259056665
 20
120.0170799500672
 30
0.0
 10
345.5335845998972
 20
119.9910442489507
 30
0.0
 10
345.5260001318282
 20
119.9601198692995
 30
0.0
 10
345.5164231298914
 20
119.9243208378548
 30
0.0
 10
345.5055826538726
 20
119.8860699303236
 30
0.0
 10
345.4940940129337
 20
119.8468517169293
 30
0.0
 10
345.4859940280556
 20
119.8199967400798
 30
0.0
 10
345.4819546104128
 20
119.8066043117094
 30
0.0
  0
LINE
  5
D0
330
1F
100
AcDbEntity
  8
0
  6
Continuous
 62
     7
370
    25
100
AcDbLine
 10
345.4820997154
 20
120.0725457887
 30
0.0
 11
345.5348544827
 21
120.0732936407
 31
0.0
  0
SPLINE
  5
D1
330
1F
100
AcDbEntity
  8
0
  6
Continuous
 62
     7
370
    25
100
AcDbSpline
210
0.0
220
0.0
230
1.0
 70
     8
 71
     3
 72
    25
 73
    21
 74
     0
 42
0.000000001
 43
0.00000001
 40
0.0
 40
0.0
 40
0.0
 40
0.0
 40
0.0280105225426465
 40
0.0559601148860768
 40
0.0839014045043132
 40
0.1118870776786367
 40
0.1399695827588937
 40
0.1682008401739883
 40
0.196631967042422
 40
0.2253130233141467
 40
0.2542927850735845
 40
0.3799486436587335
 40
0.5057850221667067
 40
0.6313085886338298
 40
0.7532068238012468
 40
0.8039473267955921
 40
0.8535894438554446
 40
0.9025339722394071
 40
0.9511970353791085
 40
1.0
 40
1.0
 40
1.0
 40
1.0
 10
344.5711381198524
 20
117.5056140355977
 30
0.0
 10
344.5781171897634
 20
117.5429240491044
 30
0.0
 10
344.5920601482862
 20
117.617462917098
 30
0.0
 10
344.6145820457291
 20
117.7287719625812
 30
0.0
 10
344.6382156578267
 20
117.8394341715957
 30
0.0
 10
344.6630652483146
 20
117.94941830454
 30
0.0
 10
344.6890838728009
 20
118.0587134481545
 30
0.0
 10
344.7162652541188
 20
118.1673044173567
 30
0.0
 10
344.7445908954513
 20
118.275175127299
 30
0.0
 10
344.7740496762839
 20
118.382320073024
 30
0.0
 10
344.838457964196
 20
118.606494959536
 30
0.0
 10
344.9435596562679
 20
118.933160373572
 30
0.0
 10
345.089022417064
 20
119.3191069788918
 30
0.0
 10
345.2282858251738
 20
119.641186791582
 30
0.0
 10
345.3254341780413
 20
119.8370073756137
 30
0.0
 10
345.3857295842676
 20
119.946354826097
 30
0.0
 10
345.4206181671489
 20
120.0042828505124
 30
0.0
 10
345.4485126690767
 20
120.0447368032773
 30
0.0
 10
345.4698777614484
 20
120.0693510186763
 30
0.0
 10
345.478021709021
 20
120.071479946184
 30
0.0
 10
345.4820995276661
 20
120.0725459378554
 30
0.0
  0
ARC
  5
D2
330
1F
100
AcDbEntity
  8
0
  6
Continuous
 62
     7
370
    25
100
AcDbCircle
 10
356.4418059846
 20
115.3182762931
 30
0.0
 40
12.07050959801147
100
AcDbArc
 50
169.5595567507
 51
190.4404432494
  0
SPLINE
  5
D3
330
1F
100
AcDbEntity
  8
0
  6
Continuous
 62
     7
370
    25
100
AcDbSpline
210
0.0
220
0.0
230
1.0
 70
     8
 71
     3
 72
    26
 73
    22
 74
     0
 42
0.000000001
 43
0.00000001
 40
0.0
 40
0.0
 40
0.0
 40
0.0
 40
0.0241259796963635
 40
0.0482159912272988
 40
0.0723203915124065
 40
0.0964895678710797
 40
0.1207736231963513
 40
0.1452220711242836
 40
0.1698835501657706
 40
0.1948055644472379
 40
0.2200342569517627
 40
0.2456142191611387
 40
0.3690971486901655
 40
0.4940698769485187
 40
0.6192566784762451
 40
0.7454656653603225
 40
0.7971495824713707
 40
0.8481710308405392
 40
0.8988013269235234
 40
0.9493179290492194
 40
1.0
 40
1.0
 40
1.0
 40
1.0
 10
345.4820995276661
 20
110.5640066482713
 30
0.0
 10
345.4801892129257
 20
110.5642935414607
 30
0.0
 10
345.4763714314335
 20
110.5648669001254
 30
0.0
 10
345.4684113062526
 20
110.5709255883719
 30
0.0
 10
345.4588322056771
 20
110.5808048491027
 30
0.0
 10
345.4474849988085
 20
110.5948859402131
 30
0.0
 10
345.4344288155145
 20
110.6130814882373
 30
0.0
 10
345.4196729122872
 20
110.635432030976
 30
0.0
 10
345.4032457319898
 20
110.661946266668
 30
0.0
 10
345.3851775772696
 20
110.6926417773813
 30
0.0
 10
345.3655004308466
 20
110.7275428806212
 30
0.0
 10
345.3173010494184
 20
110.8163074157289
 30
0.0
 10
345.2289830099829
 20
110.9935877171778
 30
0.0
 10
345.0899233932162
 20
111.3146736240229
 30
0.0
 10
344.944250713354
 20
111.7012562759134
 30
0.0
 10
344.8305121183446
 20
112.0549639800433
 30
0.0
 10
344.750806499798
 20
112.3372176796561
 30
0.0
 10
344.7001569274437
 20
112.5316611104304
 30
0.0
 10
344.6531902575783
 20
112.7289024873645
 30
0.0
 10
344.609630435574
 20
112.9288055324596
 30
0.0
 10
344.5839828704425
 20
113.0634874721919
 30
0.0
 10
344.5711381198524
 20
113.130938550529
 30
0.0
  0
LINE
  5
D4
330
1F
100
AcDbEntity
  8
0
  6
Continuous
 62
     7
370
    25
100
AcDbLine
 10
345.5348544827
 20
110.5632589454
 30
0.0
 11
345.4820997154
 21
110.5640067975
 31
0.0
  0
SPLINE
  5
D5
330
1F
100
AcDbEntity
  8
0
  6
Continuous
 62
     7
370
    25
100
AcDbSpline
210
0.0
220
0.0
230
1.0
 70
     8
 71
     3
 72
    14
 73
    10
 74
     0
 42
0.000000001
 43
0.00000001
 40
0.0
 40
0.0
 40
0.0
 40
0.0
 40
0.0789261963172865
 40
0.158232872055133
 40
0.330847539457262
 40
0.5000195457610529
 40
0.6670357883572423
 40
0.8332395193657144
 40
1.0
 40
1.0
 40
1.0
 40
1.0
 10
345.4818580300534
 20
110.8302824081461
 30
0.0
 10
345.4858725766495
 20
110.8169792835084
 30
0.0
 10
345.4939210227616
 20
110.790308903876
 30
0.0
 10
345.5088217295711
 20
110.7394941645562
 30
0.0
 10
345.5247187111677
 20
110.6824543483693
 30
0.0
 10
345.5377972061655
 20
110.6281511316413
 30
0.0
 10
345.5440298132827
 20
110.5899839889185
 30
0.0
 10
345.5438402334458
 20
110.5665752602416
 30
0.0
 10
345.537853339315
 20
110.564365605563
 30
0.0
 10
345.5348548869054
 20
110.5632589308414
 30
0.0
  0
SPLINE
  5
D6
330
1F
100
AcDbEntity
  8
0
  6
Continuous
 62
     7
370
    25
100
AcDbSpline
210
0.0
220
0.0
230
1.0
 70
     8
 71
     3
 72
     8
 73
     4
 74
     0
 42
0.000000001
 43
0.00000001
 40
0.0
 40
0.0
 40
0.0
 40
0.0
 40
1.0
 40
1.0
 40
1.0
 40
1.0
 10
345.6291627212779
 20
110.8282213296956
 30
0.0
 10
345.5800948062492
 20
110.8287083829076
 30
0.0
 10
345.5309853687284
 20
110.8294194507824
 30
0.0
 10
345.4818360242031
 20
110.8303549440167
 30
0.0
  0
SPLINE
  5
D7
330
1F
100
AcDbEntity
  8
0
  6
Continuous
 62
     7
370
    25
100
AcDbSpline
210
0.0
220
0.0
230
1.0
 70
     8
 71
     3
 72
    13
 73
     9
 74
     0
 42
0.000000001
 43
0.00000001
 40
0.0
 40
0.0
 40
0.0
 40
0.0
 40
0.1667030582307992
 40
0.3329480818053035
 40
0.4990671507274896
 40
0.6653938523718403
 40
0.832261271055009
 40
1.0
 40
1.0
 40
1.0
 40
1.0
 10
345.6874962534488
 20
110.7595078049117
 30
0.0
 10
345.685652939612
 20
110.7599249146774
 30
0.0
 10
345.6819713766421
 20
110.7607579881548
 30
0.0
 10
345.6744541228476
 20
110.7667724669813
 30
0.0
 10
345.6655033187311
 20
110.7762671992734
 30
0.0
 10
345.6549530303081
 20
110.7896768063831
 30
0.0
 10
345.6429798447911
 20
110.8065947100067
 30
0.0
 10
345.6337734371847
 20
110.8210074451461
 30
0.0
 10
345.6291582466959
 20
110.8282325780077
 30
0.0
  0
SPLINE
  5
D8
330
1F
100
AcDbEntity
  8
0
  6
Continuous
 62
     7
370
    25
100
AcDbSpline
210
0.0
220
0.0
230
1.0
 70
     8
 71
     3
 72
    13
 73
     9
 74
     0
 42
0.000000001
 43
0.00000001
 40
0.0
 40
0.0
 40
0.0
 40
0.0
 40
0.1686319999748085
 40
0.3360343310905433
 40
0.502536782590866
 40
0.6684737453788339
 40
0.834182263691515
 40
1.0
 40
1.0
 40
1.0
 40
1.0
 10
367.2544551036744
 20
110.8282360278205
 30
0.0
 10
367.2498178585763
 20
110.8209788678011
 30
0.0
 10
367.2405771832898
 20
110.8065174671588
 30
0.0
 10
367.2285618099227
 20
110.7895367704547
 30
0.0
 10
367.2179962561682
 20
110.7761039892752
 30
0.0
 10
367.2090569068752
 20
110.7666245207212
 30
0.0
 10
367.2015760262867
 20
110.7606592950233
 30
0.0
 10
367.1979362189971
 20
110.759891719239
 30
0.0
 10
367.1961157158034
 20
110.7595078049117
 30
0.0
  0
SPLINE
  5
D9
330
1F
100
AcDbEntity
  8
0
  6
Continuous
 62
     7
370
    25
100
AcDbSpline
210
0.0
220
0.0
230
1.0
 70
     8
 71
     3
 72
     8
 73
     4
 74
     0
 42
0.000000001
 43
0.00000001
 40
0.0
 40
0.0
 40
0.0
 40
0.0
 40
1.0
 40
1.0
 40
1.0
 40
1.0
 10
367.401780715647
 20
110.8303550487632
 30
0.0
 10
367.3526297860387
 20
110.8294195185012
 30
0.0
 10
367.3035187659593
 20
110.8287084279892
 30
0.0
 10
367.2544492710516
 20
110.8282213664912
 30
0.0
  0
SPLINE
  5
DA
330
1F
100
AcDbEntity
  8
0
  6
Continuous
 62
     7
370
    25
100
AcDbSpline
210
0.0
220
0.0
230
1.0
 70
     8
 71
     3
 72
    18
 73
    14
 74
     0
 42
0.000000001
 43
0.00000001
 40
0.0
 40
0.0
 40
0.0
 40
0.0
 40
0.0923325137111192
 40
0.1843692047063016
 40
0.2763458873810836
 40
0.3684982175655623
 40
0.4610598988303626
 40
0.554260954653301
 40
0.6483261285442131
 40
0.74347346365053
 40
0.8399130993119804
 40
0.9201660718299768
 40
1.0
 40
1.0
 40
1.0
 40
1.0
 10
367.3487570823469
 20
110.5632589308414
 30
0.0
 10
367.3469214286945
 20
110.5634672430572
 30
0.0
 10
367.343256002612
 20
110.5638832000805
 30
0.0
 10
367.3404606729896
 20
110.5706876235378
 30
0.0
 10
367.3396583779228
 20
110.5820210022236
 30
0.0
 10
367.3410245149221
 20
110.598321397124
 30
0.0
 10
367.3444860637161
 20
110.6194726364341
 30
0.0
 10
367.3500273688625
 20
110.6455083357617
 30
0.0
 10
367.3576118392898
 20
110.6764327221844
 30
0.0
 10
367.3671888322702
 20
110.7122317279125
 30
0.0
 10
367.378040179296
 20
110.7505209730262
 30
0.0
 10
367.389554940928
 20
110.7898265974427
 30
0.0
 10
367.3976866497491
 20
110.8167836753364
 30
0.0
 10
367.4017418613568
 20
110.8302269327859
 30
0.0
  0
LINE
  5
DB
330
1F
100
AcDbEntity
  8
0
  6
Continuous
 62
     7
370
    25
100
AcDbLine
 10
367.4015122538
 20
110.5640067975
 30
0.0
 11
367.3487574866
 21
110.5632589454
 31
0.0
  0
SPLINE
  5
DC
330
1F
100
AcDbEntity
  8
0
  6
Continuous
 62
     7
370
    25
100
AcDbSpline
210
0.0
220
0.0
230
1.0
 70
     8
 71
     3
 72
    25
 73
    21
 74
     0
 42
0.000000001
 43
0.00000001
 40
0.0
 40
0.0
 40
0.0
 40
0.0
 40
0.0280105225422753
 40
0.0559601148854256
 40
0.0839014045034749
 40
0.1118870776777086
 40
0.1399695827579646
 40
0.1682008401731476
 40
0.1966319670417595
 40
0.2253130233137476
 40
0.2542927850735311
 40
0.3799486436564626
 40
0.5057850221666382
 40
0.631308588631066
 40
0.7532068238011618
 40
0.8039473267946936
 40
0.8535894438541253
 40
0.9025339722380873
 40
0.9511970353782256
 40
1.0
 40
1.0
 40
1.0
 40
1.0
 10
368.3124738493998
 20
113.130938550529
 30
0.0
 10
368.305494779489
 20
113.0936285370228
 30
0.0
 10
368.2915518209663
 20
113.0190896690301
 30
0.0
 10
368.2690299235237
 20
112.907780623548
 30
0.0
 10
368.2453963114263
 20
112.7971184145343
 30
0.0
 10
368.2205467209384
 20
112.6871342815903
 30
0.0
 10
368.1945280964522
 20
112.5778391379758
 30
0.0
 10
368.1673467151342
 20
112.4692481687732
 30
0.0
 10
368.1390210738016
 20
112.3613774588301
 30
0.0
 10
368.1095622929687
 20
112.254232513104
 30
0.0
 10
368.0451540050572
 20
112.0300576265936
 30
0.0
 10
367.9400523129853
 20
111.7033922125575
 30
0.0
 10
367.7945895521901
 20
111.3174456072394
 30
0.0
 10
367.6553261440795
 20
110.9953657945468
 30
0.0
 10
367.5581777912122
 20
110.7995452105158
 30
0.0
 10
367.4978823849847
 20
110.6901977600293
 30
0.0
 10
367.4629938021035
 20
110.6322697356141
 30
0.0
 10
367.4350993001757
 20
110.5918157828491
 30
0.0
 10
367.413734207804
 20
110.5672015674503
 30
0.0
 10
367.4055902602313
 20
110.5650726399426
 30
0.0
 10
367.4015124415862
 20
110.5640066482713
 30
0.0
  0
ARC
  5
DD
330
1F
100
AcDbEntity
  8
0
  6
Continuous
 62
     7
370
    25
100
AcDbCircle
 10
356.4418059846
 20
115.3182762931
 30
0.0
 40
12.07050959801135
100
AcDbArc
 50
349.5595567507
 51
10.4404432493
  0
SPLINE
  5
DE
330
1F
100
AcDbEntity
  8
0
  6
Continuous
 62
     7
370
    25
100
AcDbSpline
210
0.0
220
0.0
230
1.0
 70
     8
 71
     3
 72
    26
 73
    22
 74
     0
 42
0.000000001
 43
0.00000001
 40
0.0
 40
0.0
 40
0.0
 40
0.0
 40
0.0241259796962591
 40
0.0482159912271133
 40
0.0723203915121637
 40
0.0964895678708023
 40
0.1207736231960627
 40
0.1452220711240065
 40
0.1698835501655268
 40
0.1948055644470484
 40
0.220034256951649
 40
0.2456142191611191
 40
0.3690971486898426
 40
0.4940698769485092
 40
0.6192566784753767
 40
0.7454656653602836
 40
0.7971495824708205
 40
0.848171030839725
 40
0.8988013269227118
 40
0.9493179290486752
 40
1.0
 40
1.0
 40
1.0
 40
1.0
 10
367.4015124415862
 20
120.0725459378554
 30
0.0
 10
367.4034227563266
 20
120.072259044666
 30
0.0
 10
367.4072405378188
 20
120.0716856860012
 30
0.0
 10
367.4152006629997
 20
120.0656269977548
 30
0.0
 10
367.4247797635751
 20
120.0557477370239
 30
0.0
 10
367.4361269704438
 20
120.0416666459136
 30
0.0
 10
367.4491831537376
 20
120.0234710978894
 30
0.0
 10
367.463939056965
 20
120.0011205551507
 30
0.0
 10
367.4803662372624
 20
119.9746063194586
 30
0.0
 10
367.4984343919826
 20
119.9439108087453
 30
0.0
 10
367.5181115384056
 20
119.9090097055054
 30
0.0
 10
367.5663109198337
 20
119.8202451703982
 30
0.0
 10
367.6546289592691
 20
119.6429648689493
 30
0.0
 10
367.7936885760356
 20
119.3218789621049
 30
0.0
 10
367.9393612558981
 20
118.9352963102138
 30
0.0
 10
368.0530998509072
 20
118.5815886060848
 30
0.0
 10
368.1328054694538
 20
118.2993349064725
 30
0.0
 10
368.1834550418078
 20
118.1048914756992
 30
0.0
 10
368.2304217116733
 20
117.9076500987651
 30
0.0
 10
368.2739815336779
 20
117.7077470536689
 30
0.0
 10
368.2996290988096
 20
117.5730651139355
 30
0.0
 10
368.3124738493998
 20
117.5056140355976
 30
0.0
  0
LINE
  5
DF
330
1F
100
AcDbEntity
  8
0
  6
Continuous
 62
     7
370
    25
100
AcDbLine
 10
367.3487574866
 20
120.0732936407
 30
0.0
 11
367.4015122538
 21
120.0725457887
 31
0.0
  0
SPLINE
  5
E0
330
1F
100
AcDbEntity
  8
0
  6
Continuous
 62
     7
370
    25
100
AcDbSpline
210
0.0
220
0.0
230
1.0
 70
     8
 71
     3
 72
    14
 73
    10
 74
     0
 42
0.000000001
 43
0.00000001
 40
0.0
 40
0.0
 40
0.0
 40
0.0
 40
0.0786889129232242
 40
0.1577561817122941
 40
0.3304686003115578
 40
0.4997364082435315
 40
0.6668472316653192
 40
0.8331450833767118
 40
1.0
 40
1.0
 40
1.0
 40
1.0
 10
367.4016653691237
 20
119.8065621460677
 30
0.0
 10
367.3976673601691
 20
119.8198120505836
 30
0.0
 10
367.3896521188384
 20
119.8463755684519
 30
0.0
 10
367.3747794455489
 20
119.8970970962206
 30
0.0
 10
367.3588932807867
 20
119.9540981752445
 30
0.0
 10
367.3458147571424
 20
120.0084014708536
 30
0.0
 10
367.3395821575374
 20
120.0465685928908
 30
0.0
 10
367.3397717354137
 20
120.0699773269664
 30
0.0
 10
367.3457586298062
 20
120.0721869809245
 30
0.0
 10
367.3487570823469
 20
120.0732936552853
 30
0.0
  0
SPLINE
  5
E1
330
1F
100
AcDbEntity
  8
0
  6
Continuous
 62
     7
370
    25
100
AcDbSpline
210
0.0
220
0.0
230
1.0
 70
     8
 71
     3
 72
     8
 73
     4
 74
     0
 42
0.000000001
 43
0.00000001
 40
0.0
 40
0.0
 40
0.0
 40
0.0
 40
1.0
 40
1.0
 40
1.0
 40
1.0
 10
367.281210028441
 20
119.8082184860331
 30
0.0
 10
367.3213431469476
 20
119.8077875320858
 30
0.0
 10
367.3615038548762
 20
119.8072070290733
 30
0.0
 10
367.4016912722192
 20
119.8064767535137
 30
0.0
  0
SPLINE
  5
E2
330
1F
100
AcDbEntity
  8
0
  6
Continuous
 62
     7
370
    25
100
AcDbSpline
210
0.0
220
0.0
230
1.0
 70
     8
 71
     3
 72
    23
 73
    19
 74
     0
 42
0.000000001
 43
0.00000001
 40
0.0
 40
0.0
 40
0.0
 40
0.0
 40
0.0441308420121292
 40
0.0880968635211716
 40
0.1320155028408941
 40
0.1760048571434164
 40
0.2201827305793597
 40
0.2646656976937351
 40
0.3095682184569769
 40
0.355001836559425
 40
0.401074485474427
 40
0.4478899182339682
 40
0.4955472680213688
 40
0.5953670562452651
 40
0.6949121173401501
 40
0.7950007648984784
 40
0.8964386255170008
 40
1.0
 40
1.0
 40
1.0
 40
1.0
 10
366.7294969093059
 20
120.7687218099997
 30
0.0
 10
366.7314812994127
 20
120.7684389527698
 30
0.0
 10
366.7354426682976
 20
120.7678742947292
 30
0.0
 10
366.7443029725281
 20
120.7614549415505
 30
0.0
 10
366.7552754506505
 20
120.7509336920439
 30
0.0
 10
366.7685548486709
 20
120.7359021557342
 30
0.0
 10
366.7840655723372
 20
120.7164499106717
 30
0.0
 10
366.8017970340903
 20
120.6925299327196
 30
0.0
 10
366.8217136807934
 20
120.6641288420058
 30
0.0
 10
366.8437792148055
 20
120.6312211022051
 30
0.0
 10
366.8679501384997
 20
120.5937811195489
 30
0.0
 10
366.8941771485469
 20
120.5517810479191
 30
0.0
 10
366.932513728778
 20
120.488503939396
 30
0.0
 10
366.9848465081565
 20
120.3984450770328
 30
0.0
 10
367.0532471193646
 20
120.274098957466
 30
0.0
 10
367.1259321941601
 20
120.1343858794855
 30
0.0
 10
367.20229243006
 20
119.9800498642572
 30
0.0
 10
367.2545812447102
 20
119.8663272100294
 30
0.0
 10
367.2809964726138
 20
119.8088768767349
 30
0.0
  0
SPLINE
  5
E3
330
1F
100
AcDbEntity
  8
0
  6
Continuous
 62
     7
370
    25
100
AcDbSpline
210
0.0
220
0.0
230
1.0
 70
    11
 71
     3
 72
    39
 73
    35
 74
     0
 42
0.000000001
 43
0.00000001
 40
0.0
 40
0.0
 40
0.0
 40
0.0
 40
0.0310664058348413
 40
0.0621048158426138
 40
0.0931361551796939
 40
0.1235538293503726
 40
0.1538561545809849
 40
0.1850588072749156
 40
0.2160250992946587
 40
0.2471867223797568
 40
0.2784462884304475
 40
0.3100516090231247
 40
0.3419834369138969
 40
0.3734259894013238
 40
0.4048604886787081
 40
0.436874065183343
 40
0.4685120685926471
 40
0.499805535863323
 40
0.5309508213226204
 40
0.5618649784438111
 40
0.5930416446590877
 40
0.623374245013332
 40
0.6540913579072549
 40
0.6849496782718453
 40
0.7158160645166705
 40
0.7471731804043553
 40
0.7784514311866318
 40
0.810129591156098
 40
0.8419598919688388
 40
0.8735175891922303
 40
0.9050808037886594
 40
0.9370235169792582
 40
0.9687441590030581
 40
1.0
 40
1.0
 40
1.0
 40
1.0
 10
359.3459325494235
 20
103.8866461093099
 30
0.0
 10
359.5356443783782
 20
103.9254146860574
 30
0.0
 10
359.8793852288269
 20
104.0018456318404
 30
0.0
 10
360.2623422160346
 20
104.0899851718337
 30
0.0
 10
360.5067826827497
 20
104.1369346584786
 30
0.0
 10
360.587771619566
 20
104.1250257337649
 30
0.0
 10
360.5070491740842
 20
104.0530678270494
 30
0.0
 10
360.2671869804645
 20
103.9285475608521
 30
0.0
 10
359.8905372463673
 20
103.7711785710269
 30
0.0
 10
359.3842943095394
 20
103.5991544863319
 30
0.0
 10
358.7670199158561
 20
103.4342300787462
 30
0.0
 10
358.0545441017163
 20
103.2965175026677
 30
0.0
 10
357.2790788619437
 20
103.204884690159
 30
0.0
 10
356.4686144283294
 20
103.1715521120636
 30
0.0
 10
355.6561099553669
 20
103.2007995576168
 30
0.0
 10
354.8765969652298
 20
103.2891285146044
 30
0.0
 10
354.1582686658944
 20
103.4246340142392
 30
0.0
 10
353.5348965584943
 20
103.5884105357305
 30
0.0
 10
353.0217979638987
 20
103.7604166798758
 30
0.0
 10
352.6365958540373
 20
103.919228694347
 30
0.0
 10
352.3871712487963
 20
104.0464876595125
 30
0.0
 10
352.2965692088498
 20
104.1220946164675
 30
0.0
 10
352.3647807798091
 20
104.1388640131474
 30
0.0
 10
352.5969966462118
 20
104.0960836709321
 30
0.0
 10
352.974213683396
 20
104.0089569860222
 30
0.0
 10
353.4859185511637
 20
103.8942279307152
 30
0.0
 10
354.1093896819106
 20
103.7748057856627
 30
0.0
 10
354.8259343850434
 20
103.6701803356134
 30
0.0
 10
355.6042654976543
 20
103.5995318426865
 30
0.0
 10
356.4160969845043
 20
103.5734530182565
 30
0.0
 10
357.2298715065014
 20
103.5964785899472
 30
0.0
 10
358.0122453506668
 20
103.6647110280849
 30
0.0
 10
358.7342583854008
 20
103.7679582077946
 30
0.0
 10
359.1550639052498
 20
103.8476411314912
 30
0.0
 10
359.3459325494235
 20
103.8866461093099
 30
0.0
  0
SPLINE
  5
E4
330
1F
100
AcDbEntity
  8
0
  6
Continuous
 62
     7
370
    25
100
AcDbSpline
210
0.0
220
0.0
230
1.0
 70
    11
 71
     3
 72
    39
 73
    35
 74
     0
 42
0.000000001
 43
0.00000001
 40
0.0
 40
0.0
 40
0.0
 40
0.0
 40
0.0312651429934057
 40
0.0629601069329321
 40
0.0948697276489808
 40
0.1264264963751833
 40
0.1579651393672472
 40
0.1898765439016956
 40
0.221552335268876
 40
0.2527844076550827
 40
0.2838418966734154
 40
0.3148645781100674
 40
0.3459127639308091
 40
0.3763475365526575
 40
0.4066751324671412
 40
0.4379141187435632
 40
0.4688932367345488
 40
0.5000738678969536
 40
0.5313369410958942
 40
0.5629183719104849
 40
0.5948445736343699
 40
0.6262809966135365
 40
0.6577486436587271
 40
0.6897584692806508
 40
0.7214430019610059
 40
0.7527623343195418
 40
0.7839279690572818
 40
0.8148885765585865
 40
0.8460375004982862
 40
0.8763409566916784
 40
0.906758919146387
 40
0.9378312724751761
 40
0.9689189660506093
 40
1.0
 40
1.0
 40
1.0
 40
1.0
 10
359.3458282996367
 20
126.7499385292525
 30
0.0
 10
359.154754363355
 20
126.7890024871332
 30
0.0
 10
358.7338198009154
 20
126.8687214816933
 30
0.0
 10
358.0124303957518
 20
126.9718368970437
 30
0.0
 10
357.2307743474614
 20
127.0400377694676
 30
0.0
 10
356.4176866277505
 20
127.0630946621095
 30
0.0
 10
355.6054064108985
 20
127.0371103884633
 30
0.0
 10
354.826775985849
 20
126.9665202232251
 30
0.0
 10
354.1101001959375
 20
126.8619046609859
 30
0.0
 10
353.488224926276
 20
126.7427323359696
 30
0.0
 10
352.9787139927901
 20
126.6287951682433
 30
0.0
 10
352.6035946465458
 20
126.5426808892968
 30
0.0
 10
352.367634071695
 20
126.498625167961
 30
0.0
 10
352.2962335285134
 20
126.5141549686722
 30
0.0
 10
352.3868299583112
 20
126.5896638508561
 30
0.0
 10
352.6358062386706
 20
126.7168373787003
 30
0.0
 10
353.0207210585134
 20
126.8756880573126
 30
0.0
 10
353.5335063653355
 20
127.0477123185225
 30
0.0
 10
354.1559654882604
 20
127.2113853980573
 30
0.0
 10
354.872465633067
 20
127.3467869714375
 30
0.0
 10
355.650564667177
 20
127.4353046389203
 30
0.0
 10
356.462287355824
 20
127.4650120474031
 30
0.0
 10
357.2737295435253
 20
127.432125602753
 30
0.0
 10
358.0508554350073
 20
127.3406446947082
 30
0.0
 10
358.7652935241779
 20
127.2027605047468
 30
0.0
 10
359.3835164824133
 20
127.0376326798968
 30
0.0
 10
359.8898838431392
 20
126.8655821425443
 30
0.0
 10
360.2664363645529
 20
126.708298620834
 30
0.0
 10
360.5061321759842
 20
126.58389482335
 30
0.0
 10
360.5875988841786
 20
126.5117066499137
 30
0.0
 10
360.5075396416867
 20
126.4994341415357
 30
0.0
 10
360.2631936357329
 20
126.5463295520418
 30
0.0
 10
359.880220202284
 20
126.6344631001874
 30
0.0
 10
359.5357770710742
 20
126.7111046047973
 30
0.0
 10
359.3458282996367
 20
126.7499385292525
 30
0.0
  0
SPLINE
  5
E5
330
1F
100
AcDbEntity
  8
0
  6
Continuous
 62
     7
370
    25
100
AcDbSpline
210
0.0
220
0.0
230
1.0
 70
     8
 71
     3
 72
    23
 73
    19
 74
     0
 42
0.000000001
 43
0.00000001
 40
0.0
 40
0.0
 40
0.0
 40
0.0
 40
0.0449850911516383
 40
0.0909520670767777
 40
0.1379394291255006
 40
0.1859832248910951
 40
0.2351171761689533
 40
0.2853728096402591
 40
0.3367795876576951
 40
0.3893650370792399
 40
0.4431548745925064
 40
0.498173127394291
 40
0.5575107590849617
 40
0.6265492281305397
 40
0.7053073138942775
 40
0.7937970253739629
 40
0.8920262115920568
 40
1.0
 40
1.0
 40
1.0
 40
1.0
 10
346.5508642730689
 20
120.3482762930633
 30
0.0
 10
346.5487015837033
 20
120.3478473914038
 30
0.0
 10
346.5443290001827
 20
120.346980226494
 30
0.0
 10
346.5340480409913
 20
120.339886658893
 30
0.0
 10
346.5209877629614
 20
120.3282739173139
 30
0.0
 10
346.5048686014072
 20
120.3114845471413
 30
0.0
 10
346.4857681737512
 20
120.2894125605266
 30
0.0
 10
346.4636658209953
 20
120.2618150867633
 30
0.0
 10
346.4385653424596
 20
120.228506655554
 30
0.0
 10
346.4104742110817
 20
120.1893063171473
 30
0.0
 10
346.3793583102296
 20
120.144064271674
 30
0.0
 10
346.3447193793475
 20
120.0916683392847
 30
0.0
 10
346.3039978710687
 20
120.0288858710655
 30
0.0
 10
346.2552769500439
 20
119.9511288718069
 30
0.0
 10
346.197502611726
 20
119.8538443142284
 30
0.0
 10
346.130591962081
 20
119.7340994805093
 30
0.0
 10
346.0546479977875
 20
119.5901792756051
 30
0.0
 10
346.0002868331023
 20
119.4794450707121
 30
0.0
 10
345.9718217689878
 20
119.4214614667882
 30
0.0
  0
LINE
  5
E6
330
1F
100
AcDbEntity
  8
0
  6
Continuous
 62
     7
370
    25
100
AcDbLine
 10
345.9718217214
 20
119.4219876336
 30
0.0
 11
345.6024824714
 21
119.8080725292
 31
0.0
  0
LINE
  5
E7
330
1F
100
AcDbEntity
  8
0
  6
Continuous
 62
     7
370
    25
100
AcDbLine
 10
367.2810969015
 20
119.8080129246
 30
0.0
 11
366.9118302947
 21
119.4220048631
 31
0.0
  0
SPLINE
  5
E8
330
1F
100
AcDbEntity
  8
0
  6
Continuous
 62
     7
370
    25
100
AcDbSpline
210
0.0
220
0.0
230
1.0
 70
     8
 71
     3
 72
    26
 73
    22
 74
     0
 42
0.000000001
 43
0.00000001
 40
0.0
 40
0.0
 40
0.0
 40
0.0
 40
0.0509383868653979
 40
0.0998291548270505
 40
0.1466728126490638
 40
0.1914699456369332
 40
0.2342212299774179
 40
0.274927450668867
 40
0.3135895241747119
 40
0.3502085273716571
 40
0.3847857350077695
 40
0.4173226688482998
 40
0.4478211631571791
 40
0.4762834534603437
 40
0.5027122992246547
 40
0.593906700502561
 40
0.6816015993191188
 40
0.7659159552051488
 40
0.846983628966416
 40
0.9249552229440475
 40
1.0
 40
1.0
 40
1.0
 40
1.0
 10
366.9118306849328
 20
119.4212707365385
 30
0.0
 10
366.8983728207347
 20
119.4488915177028
 30
0.0
 10
366.871998070937
 20
119.5030227811561
 30
0.0
 10
366.833625891158
 20
119.5793308182313
 30
0.0
 10
366.7971597086658
 20
119.650082997823
 30
0.0
 10
366.7626234590421
 20
119.7152548245112
 30
0.0
 10
366.7300110071892
 20
119.7751130697629
 30
0.0
 10
366.6993237233963
 20
119.8298782293042
 30
0.0
 10
366.6705611070951
 20
119.8798026206162
 30
0.0
 10
366.6437229426227
 20
119.9251448512113
 30
0.0
 10
366.6188093621946
 20
119.9661707901521
 30
0.0
 10
366.5958187154058
 20
120.0031481750992
 30
0.0
 10
366.5747552099162
 20
120.0363442910826
 30
0.0
 10
366.5556028395369
 20
120.0660200233498
 30
0.0
 10
366.523931762592
 20
120.1146903483996
 30
0.0
 10
366.4824618171555
 20
120.1765856663183
 30
0.0
 10
366.4354723010118
 20
120.2419262737421
 30
0.0
 10
366.3968537312968
 20
120.2910446650339
 30
0.0
 10
366.3668052715755
 20
120.3245209535461
 30
0.0
 10
366.3445151606064
 20
120.3446383857841
 30
0.0
 10
366.3366198451729
 20
120.3470792196336
 30
0.0
 10
366.3327476961834
 20
120.3482762930633
 30
0.0
  0
SPLINE
  5
E9
330
1F
100
AcDbEntity
  8
0
  6
Continuous
 62
     7
370
    25
100
AcDbSpline
210
0.0
220
0.0
230
1.0
 70
     8
 71
     3
 72
     8
 73
     4
 74
     0
 42
0.000000001
 43
0.00000001
 40
0.0
 40
0.0
 40
0.0
 40
0.0
 40
1.0
 40
1.0
 40
1.0
 40
1.0
 10
364.1834864364265
 20
119.541274619546
 30
0.0
 10
364.2470794167666
 20
119.4756058416993
 30
0.0
 10
364.3110358432019
 20
119.411263544039
 30
0.0
 10
364.3752347629093
 20
119.3495262930633
 30
0.0
  0
SPLINE
  5
EA
330
1F
100
AcDbEntity
  8
0
  6
Continuous
 62
     7
370
    25
100
AcDbSpline
210
0.0
220
0.0
230
1.0
 70
     8
 71
     3
 72
    25
 73
    21
 74
     0
 42
0.000000001
 43
0.00000001
 40
0.0
 40
0.0
 40
0.0
 40
0.0
 40
0.0367725003254103
 40
0.074208401060063
 40
0.1123590542807964
 40
0.1512729822568881
 40
0.190995910016845
 40
0.2315708273504481
 40
0.2730380740418892
 40
0.3154354426077851
 40
0.3587982934432034
 40
0.4031596779810961
 40
0.4485504661847858
 40
0.494999475376923
 40
0.5532504315673752
 40
0.621829488573267
 40
0.7007739996560722
 40
0.7901076726660372
 40
0.8898461547533933
 40
1.0
 40
1.0
 40
1.0
 40
1.0
 10
363.741565249115
 20
120.348276293063
 30
0.0
 10
363.7417890231798
 20
120.3479516054292
 30
0.0
 10
363.7422406083427
 20
120.3472963725805
 30
0.0
 10
363.746957648215
 20
120.3419340007927
 30
0.0
 10
363.7546102572977
 20
120.3331784070922
 30
0.0
 10
363.7655032364347
 20
120.3205541890003
 30
0.0
 10
363.7795518228504
 20
120.3039978508699
 30
0.0
 10
363.7967787204597
 20
120.2833406734921
 30
0.0
 10
363.8171772732412
 20
120.2584529375243
 30
0.0
 10
363.8407480865333
 20
120.229205391331
 30
0.0
 10
363.867493435093
 20
120.1954824561345
 30
0.0
 10
363.8974012885254
 20
120.157176641009
 30
0.0
 10
363.9305173808699
 20
120.1142057456711
 30
0.0
 10
363.9694433024438
 20
120.0627844640004
 30
0.0
 10
364.0182713821605
 20
119.9985682323112
 30
0.0
 10
364.0801919867616
 20
119.9156737032167
 30
0.0
 10
364.1545765450825
 20
119.8117279530022
 30
0.0
 10
364.241550973071
 20
119.6836417427449
 30
0.0
 10
364.3409758230536
 20
119.5295519628387
 30
0.0
 10
364.4123949987832
 20
119.4114877269682
 30
0.0
 10
364.449876582464
 20
119.3495262930633
 30
0.0
  0
LINE
  5
EB
330
1F
100
AcDbEntity
  8
0
  6
Continuous
 62
     7
370
    25
100
AcDbLine
 10
364.4498762747
 20
119.3495260807
 30
0.0
 11
364.3752344956
 21
119.3495260807
 31
0.0
  0
SPLINE
  5
EC
330
1F
100
AcDbEntity
  8
0
  6
Continuous
 62
     7
370
    25
100
AcDbSpline
210
0.0
220
0.0
230
1.0
 70
     8
 71
     3
 72
    23
 73
    19
 74
     0
 42
0.000000001
 43
0.00000001
 40
0.0
 40
0.0
 40
0.0
 40
0.0
 40
0.0511129009857221
 40
0.1016896331838983
 40
0.1518293139104713
 40
0.201633670189439
 40
0.2512064936754081
 40
0.3006530343006331
 40
0.3500793489716449
 40
0.3995916247932065
 40
0.4492954981442684
 40
0.4992953912354716
 40
0.5872572780521574
 40
0.6724255494349275
 40
0.7555067762540824
 40
0.8372616735271673
 40
0.9184882400167564
 40
1.0
 40
1.0
 40
1.0
 40
1.0
 10
364.1835491125519
 20
119.5415173356412
 30
0.0
 10
364.1675335286515
 20
119.5706459378721
 30
0.0
 10
364.1356703625885
 20
119.6285975864559
 30
0.0
 10
364.0886265241696
 20
119.7113554216742
 30
0.0
 10
364.0426479999946
 20
119.7904442801584
 30
0.0
 10
363.997867333191
 20
119.8656612680926
 30
0.0
 10
363.9543835687551
 20
119.9371243231382
 30
0.0
 10
363.9122976051705
 20
120.0048657273266
 30
0.0
 10
363.8717031407731
 20
120.0689392390716
 30
0.0
 10
363.832688234423
 20
120.1293928381428
 30
0.0
 10
363.7953384119355
 20
120.1862703430711
 30
0.0
 10
363.7508101553434
 20
120.2529848161315
 30
0.0
 10
363.7021698948022
 20
120.324305099996
 30
0.0
 10
363.6543307950464
 20
120.3928853524551
 30
0.0
 10
363.6166792829655
 20
120.4459016804972
 30
0.0
 10
363.589856581578
 20
120.4831743366248
 30
0.0
 10
363.5731277507545
 20
120.5062117362048
 30
0.0
 10
363.5712793407906
 20
120.50874646147
 30
0.0
 10
363.5703535161703
 20
120.5100160451134
 30
0.0
  0
SPLINE
  5
ED
330
1F
100
AcDbEntity
  8
0
  6
Continuous
 62
     7
370
    25
100
AcDbSpline
210
0.0
220
0.0
230
1.0
 70
     8
 71
     3
 72
     8
 73
     4
 74
     0
 42
0.000000001
 43
0.00000001
 40
0.0
 40
0.0
 40
0.0
 40
0.0
 40
1.0
 40
1.0
 40
1.0
 40
1.0
 10
366.8456986316982
 20
119.3495262930632
 30
0.0
 10
366.8675840033413
 20
119.3738473092609
 30
0.0
 10
366.8894693749845
 20
119.3978719075833
 30
0.0
 10
366.9113547466276
 20
119.4215787596719
 30
0.0
  0
LINE
  5
EE
330
1F
100
AcDbEntity
  8
0
  6
Continuous
 62
     7
370
    25
100
AcDbLine
 10
366.8455387538
 20
119.3495260807
 30
0.0
 11
364.4498762747
 21
119.3495260807
 31
0.0
  0
SPLINE
  5
EF
330
1F
100
AcDbEntity
  8
0
  6
Continuous
 62
     7
370
    25
100
AcDbSpline
210
0.0
220
0.0
230
1.0
 70
     8
 71
     3
 72
     8
 73
     4
 74
     0
 42
0.000000001
 43
0.00000001
 40
0.0
 40
0.0
 40
0.0
 40
0.0
 40
1.0
 40
1.0
 40
1.0
 40
1.0
 10
345.9721629967999
 20
119.421682327152
 30
0.0
 10
345.9940797692874
 20
119.3979418785929
 30
0.0
 10
346.015996541775
 20
119.3738827268062
 30
0.0
 10
346.0379133142625
 20
119.3495262930633
 30
0.0
  0
SPLINE
  5
F0
330
1F
100
AcDbEntity
  8
0
  6
Continuous
 62
     7
370
    25
100
AcDbSpline
210
0.0
220
0.0
230
1.0
 70
     8
 71
     3
 72
    26
 73
    22
 74
     0
 42
0.000000001
 43
0.00000001
 40
0.0
 40
0.0
 40
0.0
 40
0.0
 40
0.0524616379932503
 40
0.1026498591890872
 40
0.150565513457809
 40
0.1962095861957063
 40
0.2395832262568645
 40
0.2806877815599511
 40
0.3195248450380211
 40
0.3560963147430692
 40
0.3904044736547445
 40
0.4224520974433627
 40
0.4522426027417772
 40
0.4797802555366611
 40
0.5050704712281336
 40
0.5966394156799991
 40
0.6841917884819224
 40
0.7679874773571101
 40
0.8483228539139507
 40
0.925534163520116
 40
1.0
 40
1.0
 40
1.0
 40
1.0
 10
348.43355782871
 20
119.349541185081
 30
0.0
 10
348.4514193129983
 20
119.3793146451221
 30
0.0
 10
348.4863682569741
 20
119.4375713370155
 30
0.0
 10
348.5371330904562
 20
119.5197703173801
 30
0.0
 10
348.5852030480979
 20
119.5958511862808
 30
0.0
 10
348.6305470208628
 20
119.6658025347471
 30
0.0
 10
348.6731730003681
 20
119.7299096966991
 30
0.0
 10
348.7130792988772
 20
119.7884175361693
 30
0.0
 10
348.7502666279925
 20
119.8416061137913
 30
0.0
 10
348.7847354505834
 20
119.8897641540285
 30
0.0
 10
348.8164855392157
 20
119.9331888273047
 30
0.0
 10
348.8455199438168
 20
119.9721789184017
 30
0.0
 10
348.871831233018
 20
120.0070330169281
 30
0.0
 10
348.895447862562
 20
120.0380380113787
 30
0.0
 10
348.9350935415679
 20
120.0902812300116
 30
0.0
 10
348.986631838367
 20
120.1578105632688
 30
0.0
 10
349.0434579753482
 20
120.2300040094774
 30
0.0
 10
349.0876154033112
 20
120.2844879655999
 30
0.0
 10
349.1187930262532
 20
120.3217527567682
 30
0.0
 10
349.1382525928923
 20
120.3442171090429
 30
0.0
 10
349.1403941905727
 20
120.3469396584701
 30
0.0
 10
349.1414456071295
 20
120.3482762930633
 30
0.0
  0
LINE
  5
F1
330
1F
100
AcDbEntity
  8
0
  6
Continuous
 62
     7
370
    25
100
AcDbLine
 10
348.4335578119
 20
119.3495260807
 30
0.0
 11
346.037913028
 21
119.3495260807
 31
0.0
  0
LINE
  5
F2
330
1F
100
AcDbEntity
  8
0
  6
Continuous
 62
     7
370
    25
100
AcDbLine
 10
348.5083774736
 20
119.3495260807
 30
0.0
 11
348.4332579261
 21
119.3495260807
 31
0.0
  0
SPLINE
  5
F3
330
1F
100
AcDbEntity
  8
0
  6
Continuous
 62
     7
370
    25
100
AcDbSpline
210
0.0
220
0.0
230
1.0
 70
     8
 71
     3
 72
     8
 73
     4
 74
     0
 42
0.000000001
 43
0.00000001
 40
0.0
 40
0.0
 40
0.0
 40
0.0
 40
1.0
 40
1.0
 40
1.0
 40
1.0
 10
348.508377206343
 20
119.3495262930633
 30
0.0
 10
348.5722860090029
 20
119.4114951564944
 30
0.0
 10
348.6360609283549
 20
119.4754712216111
 30
0.0
 10
348.6994209942358
 20
119.5410058779568
 30
0.0
  0
SPLINE
  5
F4
330
1F
100
AcDbEntity
  8
0
  6
Continuous
 62
     7
370
    25
100
AcDbSpline
210
0.0
220
0.0
230
1.0
 70
     8
 71
     3
 72
    24
 73
    20
 74
     0
 42
0.000000001
 43
0.00000001
 40
0.0
 40
0.0
 40
0.0
 40
0.0
 40
0.0410257106287842
 40
0.0818520099077639
 40
0.1225800578354648
 40
0.1633117464058233
 40
0.2041489402806705
 40
0.2451927184749161
 40
0.2865426449235763
 40
0.3282960933646444
 40
0.370547647549383
 40
0.4133885920102291
 40
0.4569065022351533
 40
0.5011849368587563
 40
0.6001856774947433
 40
0.6987388860447942
 40
0.7976800645453981
 40
0.8978349910029445
 40
1.0
 40
1.0
 40
1.0
 40
1.0
 10
349.3130038001106
 20
120.5096663743948
 30
0.0
 10
349.3128090366695
 20
120.5093990242373
 30
0.0
 10
349.3124204564631
 20
120.5088656234159
 30
0.0
 10
349.3083656687888
 20
120.5032938774169
 30
0.0
 10
349.301771709809
 20
120.494213128263
 30
0.0
 10
349.292407448899
 20
120.4812756679023
 30
0.0
 10
349.280359335129
 20
120.4645572249965
 30
0.0
 10
349.2656367656685
 20
120.4440152142247
 30
0.0
 10
349.2482777728213
 20
120.4196338401779
 30
0.0
 10
349.2283206016679
 20
120.3913850961061
 30
0.0
 10
349.2058115519724
 20
120.3592395487049
 30
0.0
 10
349.180802316211
 20
120.3231627087387
 30
0.0
 10
349.1533529466861
 20
120.2831191162194
 30
0.0
 10
349.1114298336189
 20
120.2211986728782
 30
0.0
 10
349.0522236584077
 20
120.1318861817816
 30
0.0
 10
348.9724440652874
 20
120.0073415897529
 30
0.0
 10
348.886463280301
 20
119.8675567972631
 30
0.0
 10
348.795178493079
 20
119.713143978277
 30
0.0
 10
348.7319741390211
 20
119.5990979566262
 30
0.0
 10
348.7000579890555
 20
119.5415084126109
 30
0.0
  0
LINE
  5
F5
330
1F
100
AcDbEntity
  8
0
  6
Continuous
 62
     7
370
    25
100
AcDbLine
 10
345.6291648632
 20
110.8282211492
 30
0.0
 11
346.053402785
 21
111.2770143221
 31
0.0
  0
SPLINE
  5
F6
330
1F
100
AcDbEntity
  8
0
  6
Continuous
 62
     7
370
    25
100
AcDbSpline
210
0.0
220
0.0
230
1.0
 70
     8
 71
     3
 72
    13
 73
     9
 74
     0
 42
0.000000001
 43
0.00000001
 40
0.0
 40
0.0
 40
0.0
 40
0.0
 40
0.170632084649598
 40
0.3395984165075754
 40
0.5069574111411415
 40
0.6727691830249297
 40
0.8370955447763889
 40
1.0
 40
1.0
 40
1.0
 40
1.0
 10
346.0534024975038
 20
111.2769935515341
 30
0.0
 10
346.0584079679127
 20
111.2700421784527
 30
0.0
 10
346.068370044085
 20
111.2562072933206
 30
0.0
 10
346.0812438719769
 20
111.2400795348636
 30
0.0
 10
346.0925101844728
 20
111.2274108047046
 30
0.0
 10
346.1019875479081
 20
111.2185543668657
 30
0.0
 10
346.1098697806029
 20
111.2130423383859
 30
0.0
 10
346.1136846868362
 20
111.212363992305
 30
0.0
 10
346.1155838515526
 20
111.2120262930633
 30
0.0
  0
SPLINE
  5
F7
330
1F
100
AcDbEntity
  8
0
  6
Continuous
 62
     7
370
    25
100
AcDbSpline
210
0.0
220
0.0
230
1.0
 70
     8
 71
     3
 72
    13
 73
     9
 74
     0
 42
0.000000001
 43
0.00000001
 40
0.0
 40
0.0
 40
0.0
 40
0.0
 40
0.1621004456571512
 40
0.325943455157606
 40
0.4915935308260523
 40
0.6591130873964648
 40
0.8285624736043361
 40
1.0
 40
1.0
 40
1.0
 40
1.0
 10
366.7680281176998
 20
111.2120262930633
 30
0.0
 10
366.769905224042
 20
111.212360776164
 30
0.0
 10
366.7736796154348
 20
111.2130333380256
 30
0.0
 10
366.7815266926137
 20
111.2185066224213
 30
0.0
 10
366.7909927523888
 20
111.2273260870817
 30
0.0
 10
366.8022736671912
 20
111.2399788440756
 30
0.0
 10
366.8151882856889
 20
111.2561308454721
 30
0.0
 10
366.8251839999346
 20
111.2700166454151
 30
0.0
 10
366.8302110058463
 20
111.2770000381657
 30
0.0
  0
LINE
  5
F8
330
1F
100
AcDbEntity
  8
0
  6
Continuous
 62
     7
370
    25
100
AcDbLine
 10
366.8302240854
 20
111.2770003522
 30
0.0
 11
367.2544461748
 21
110.8282211492
 31
0.0
  0
LINE
  5
F9
330
1F
100
AcDbEntity
  8
0
  6
Continuous
 62
     7
370
    25
100
AcDbLine
 10
364.3752344956
 20
111.2870265054
 30
0.0
 11
364.3839563316
 21
111.2870265054
 31
0.0
  0
SPLINE
  5
FA
330
1F
100
AcDbEntity
  8
0
  6
Continuous
 62
     7
370
    25
100
AcDbSpline
210
0.0
220
0.0
230
1.0
 70
     8
 71
     3
 72
    13
 73
     9
 74
     0
 42
0.000000001
 43
0.00000001
 40
0.0
 40
0.0
 40
0.0
 40
0.0
 40
0.170527330366418
 40
0.3393382731715298
 40
0.5065592454659379
 40
0.672320302183991
 40
0.8367549624218703
 40
1.0
 40
1.0
 40
1.0
 40
1.0
 10
364.3839689523371
 20
111.2870261587479
 30
0.0
 10
364.3789335487946
 20
111.2790200359809
 30
0.0
 10
364.3689134239317
 20
111.2630883734804
 30
0.0
 10
364.3571103812762
 20
111.244471348371
 30
0.0
 10
364.3477682775649
 20
111.2298323553844
 30
0.0
 10
364.3411726529421
 20
111.2195852858666
 30
0.0
 10
364.3370196302537
 20
111.213202295598
 30
0.0
 10
364.3364937819448
 20
111.2124173440007
 30
0.0
 10
364.3362318123216
 20
111.2120262930633
 30
0.0
  0
SPLINE
  5
FB
330
1F
100
AcDbEntity
  8
0
  6
Continuous
 62
     7
370
    25
100
AcDbSpline
210
0.0
220
0.0
230
1.0
 70
     8
 71
     3
 72
     8
 73
     4
 74
     0
 42
0.000000001
 43
0.00000001
 40
0.0
 40
0.0
 40
0.0
 40
0.0
 40
1.0
 40
1.0
 40
1.0
 40
1.0
 10
366.8302240468392
 20
111.2770006512329
 30
0.0
 10
366.8280405625981
 20
111.2798493167493
 30
0.0
 10
366.8258570783569
 20
111.2827901081468
 30
0.0
 10
366.8236735941157
 20
111.2858226054233
 30
0.0
  0
LINE
  5
FC
330
1F
100
AcDbEntity
  8
0
  6
Continuous
 62
     7
370
    25
100
AcDbLine
 10
366.8227707108
 20
111.2870265054
 30
0.0
 11
364.3839600569
 21
111.2870265054
 31
0.0
  0
SPLINE
  5
FD
330
1F
100
AcDbEntity
  8
0
  6
Continuous
 62
     7
370
    25
100
AcDbSpline
210
0.0
220
0.0
230
1.0
 70
     8
 71
     3
 72
     8
 73
     4
 74
     0
 42
0.000000001
 43
0.00000001
 40
0.0
 40
0.0
 40
0.0
 40
0.0
 40
1.0
 40
1.0
 40
1.0
 40
1.0
 10
346.0608411415459
 20
111.287026293071
 30
0.0
 10
346.0583552228594
 20
111.2835645937589
 30
0.0
 10
346.0558693041729
 20
111.28022044185
 30
0.0
 10
346.0533833854864
 20
111.2769944499096
 30
0.0
  0
LINE
  5
FE
330
1F
100
AcDbEntity
  8
0
  6
Continuous
 62
     7
370
    25
100
AcDbLine
 10
348.4981450325
 20
111.2870265054
 30
0.0
 11
346.0610573253
 21
111.2870265054
 31
0.0
  0
SPLINE
  5
FF
330
1F
100
AcDbEntity
  8
0
  6
Continuous
 62
     7
370
    25
100
AcDbSpline
210
0.0
220
0.0
230
1.0
 70
     8
 71
     3
 72
    13
 73
     9
 74
     0
 42
0.000000001
 43
0.00000001
 40
0.0
 40
0.0
 40
0.0
 40
0.0
 40
0.1631595583870535
 40
0.3275424452489252
 40
0.4932858679997912
 40
0.6605236853065742
 40
0.8293862019229544
 40
1.0
 40
1.0
 40
1.0
 40
1.0
 10
348.5473801569307
 20
111.2120262930633
 30
0.0
 10
348.547122311444
 20
111.2124169434559
 30
0.0
 10
348.5466046872115
 20
111.2132011732373
 30
0.0
 10
348.5424580909676
 20
111.219579342472
 30
0.0
 10
348.535864812292
 20
111.2298217886195
 30
0.0
 10
348.5265204174144
 20
111.2444587046684
 30
0.0
 10
348.5147106044008
 20
111.2630785635181
 30
0.0
 10
348.5046838870863
 20
111.2790162711655
 30
0.0
 10
348.4996446656466
 20
111.2870262345022
 30
0.0
  0
LINE
  5
100
330
1F
100
AcDbEntity
  8
0
  6
Continuous
 62
     7
370
    25
100
AcDbLine
 10
348.4996547064
 20
111.2870265054
 30
0.0
 11
348.5083774736
 21
111.2870265054
 31
0.0
  0
SPLINE
  5
101
330
1F
100
AcDbEntity
  8
0
  6
Continuous
 62
     7
370
    25
100
AcDbSpline
210
0.0
220
0.0
230
1.0
 70
     8
 71
     3
 72
    14
 73
    10
 74
     0
 42
0.000000001
 43
0.00000001
 40
0.0
 40
0.0
 40
0.0
 40
0.0
 40
0.0310276388071746
 40
0.0622853718672815
 40
0.1248003166904892
 40
0.2498289731753984
 40
0.499889260361071
 40
0.7606803621682141
 40
1.0
 40
1.0
 40
1.0
 40
1.0
 10
345.481711990167
 20
110.8302881184479
 30
0.0
 10
345.4860412836321
 20
110.835072040726
 30
0.0
 10
345.4947319756656
 20
110.8446753618143
 30
0.0
 10
345.5121327543278
 20
110.8639696758121
 30
0.0
 10
345.5426089141727
 20
110.8977346222658
 30
0.0
 10
345.6034303069922
 20
110.9651533811275
 30
0.0
 10
345.6913206494054
 20
111.0626200559945
 30
0.0
 10
345.7941583294888
 20
111.1767645678914
 30
0.0
 10
345.8613644409305
 20
111.251549380898
 30
0.0
 10
345.8935248025774
 20
111.2873364035422
 30
0.0
  0
LINE
  5
102
330
1F
100
AcDbEntity
  8
0
  6
Continuous
 62
     7
370
    25
100
AcDbLine
 10
345.8931966757
 20
111.2870265054
 30
0.0
 11
346.0608412584
 21
111.2870265054
 31
0.0
  0
LINE
  5
103
330
1F
100
AcDbEntity
  8
0
  6
Continuous
 62
     7
370
    25
100
AcDbLine
 10
366.8227707108
 20
111.2870265054
 30
0.0
 11
366.9904227441
 21
111.2870265054
 31
0.0
  0
SPLINE
  5
104
330
1F
100
AcDbEntity
  8
0
  6
Continuous
 62
     7
370
    25
100
AcDbSpline
210
0.0
220
0.0
230
1.0
 70
     8
 71
     3
 72
    11
 73
     7
 74
     0
 42
0.000000001
 43
0.00000001
 40
0.0
 40
0.0
 40
0.0
 40
0.0
 40
0.2392913844325938
 40
0.5001130135003002
 40
0.7515028526498353
 40
0.9999999999999999
 40
0.9999999999999999
 40
0.9999999999999999
 40
0.9999999999999999
 10
366.9901192372965
 20
111.2873130955749
 30
0.0
 10
367.0222757902762
 20
111.2515363769976
 30
0.0
 10
367.0894821824018
 20
111.1767639292419
 30
0.0
 10
367.1925102721492
 20
111.0623052159192
 30
0.0
 10
367.2976009367663
 20
110.9461460297993
 30
0.0
 10
367.367275756846
 20
110.8687580885036
 30
0.0
 10
367.4019115735397
 20
110.8302880279287
 30
0.0
  0
LINE
  5
105
330
1F
100
AcDbEntity
  8
0
  6
Continuous
 62
     7
370
    25
100
AcDbLine
 10
346.037913028
 20
119.3495260807
 30
0.0
 11
345.8933410307
 21
119.3495260807
 31
0.0
  0
SPLINE
  5
106
330
1F
100
AcDbEntity
  8
0
  6
Continuous
 62
     7
370
    25
100
AcDbSpline
210
0.0
220
0.0
230
1.0
 70
     8
 71
     3
 72
    11
 73
     7
 74
     0
 42
0.000000001
 43
0.00000001
 40
0.0
 40
0.0
 40
0.0
 40
0.0
 40
0.2392845094479873
 40
0.5001120454076898
 40
0.7515010915036774
 40
1.0
 40
1.0
 40
1.0
 40
1.0
 10
345.8936436404165
 20
119.3492405068667
 30
0.0
 10
345.8614825106465
 20
119.3850383559286
 30
0.0
 10
345.7942647520503
 20
119.4598569706263
 30
0.0
 10
345.6912201035523
 20
119.5743852348814
 30
0.0
 10
345.5861118746655
 20
119.6906162285558
 30
0.0
 10
345.5164263580381
 20
119.7680507242468
 30
0.0
 10
345.4817850455984
 20
119.8065441255829
 30
0.0
  0
SPLINE
  5
107
330
1F
100
AcDbEntity
  8
0
  6
Continuous
 62
     7
370
    25
100
AcDbSpline
210
0.0
220
0.0
230
1.0
 70
     8
 71
     3
 72
    14
 73
    10
 74
     0
 42
0.000000001
 43
0.00000001
 40
0.0
 40
0.0
 40
0.0
 40
0.0
 40
0.031029414748255
 40
0.0622870907562092
 40
0.1248019217225762
 40
0.249830351143087
 40
0.4998901825554788
 40
0.7606872170552411
 40
1.0
 40
1.0
 40
1.0
 40
1.0
 10
367.4018153083287
 20
119.8065440173067
 30
0.0
 10
367.3974851120132
 20
119.8017568307367
 30
0.0
 10
367.388792865218
 20
119.7921472416816
 30
0.0
 10
367.3713892368706
 20
119.7728412479756
 30
0.0
 10
367.3409085013354
 20
119.7390560323237
 30
0.0
 10
367.2800778796133
 20
119.6715969013761
 30
0.0
 10
367.1921729764466
 20
119.5740703956658
 30
0.0
 10
367.0893187318297
 20
119.4598563888914
 30
0.0
 10
367.0221012736832
 20
119.3850254287863
 30
0.0
 10
366.9899363442809
 20
119.3492172828781
 30
0.0
  0
LINE
  5
108
330
1F
100
AcDbEntity
  8
0
  6
Continuous
 62
     7
370
    25
100
AcDbLine
 10
366.9902634879
 20
119.3495260807
 30
0.0
 11
366.8456989413
 21
119.3495260807
 31
0.0
  0
LINE
  5
109
330
1F
100
AcDbEntity
  8
0
  6
Continuous
 62
     7
370
    25
100
AcDbLine
 10
344.5711377149
 20
113.1309385667
 30
0.0
 11
345.01120067
 21
113.2120262621
 31
0.0
  0
SPLINE
  5
10A
330
1F
100
AcDbEntity
  8
0
  6
Continuous
 62
     7
370
    25
100
AcDbSpline
210
0.0
220
0.0
230
1.0
 70
     8
 71
     3
 72
    25
 73
    21
 74
     0
 42
0.000000001
 43
0.00000001
 40
0.0
 40
0.0
 40
0.0
 40
0.0
 40
0.0274788704223154
 40
0.0560416006850518
 40
0.0856947086352136
 40
0.116444016653826
 40
0.1482947438681133
 40
0.1812515840470034
 40
0.2153187716748716
 40
0.2505001382254911
 40
0.333051455250936
 40
0.5015081958163736
 40
0.5771663066143947
 40
0.648898130302521
 40
0.716747770006283
 40
0.7807674423488066
 40
0.84101941313403
 40
0.8975784849924567
 40
0.9505352047788314
 40
1.0
 40
1.0
 40
1.0
 40
1.0
 10
345.0112007772149
 20
113.2120262930633
 30
0.0
 10
345.0179089445584
 20
113.1828440885458
 30
0.0
 10
345.0315898721151
 20
113.1233286343971
 30
0.0
 10
345.054354600769
 20
113.0329381373384
 30
0.0
 10
345.0792322380094
 20
112.9398065282173
 30
0.0
 10
345.1063714760269
 20
112.8442204839424
 30
0.0
 10
345.1357328830582
 20
112.7464670143291
 30
0.0
 10
345.1673180533462
 20
112.6468863382716
 30
0.0
 10
345.201164923211
 20
112.5458771986931
 30
0.0
 10
345.2528661531439
 20
112.399110391442
 30
0.0
 10
345.3572251661575
 20
112.1348439785277
 30
0.0
 10
345.4780983938413
 20
111.8648743486992
 30
0.0
 10
345.5915914402984
 20
111.6474646739829
 30
0.0
 10
345.6628644079142
 20
111.5177611032524
 30
0.0
 10
345.7249389800401
 20
111.4138860259276
 30
0.0
 10
345.7775229922074
 20
111.3340253921091
 30
0.0
 10
345.8207695381349
 20
111.2760067659585
 30
0.0
 10
345.854376350355
 20
111.2379032073061
 30
0.0
 10
345.8793233332277
 20
111.2159006763114
 30
0.0
 10
345.8882828700897
 20
111.2132880629601
 30
0.0
 10
345.8926099068077
 20
111.2120262930633
 30
0.0
  0
LINE
  5
10B
330
1F
100
AcDbEntity
  8
0
  6
Continuous
 62
     7
370
    25
100
AcDbLine
 10
368.3124742543
 20
117.5056140194
 30
0.0
 11
367.8724112993
 21
117.424526324
 31
0.0
  0
SPLINE
  5
10C
330
1F
100
AcDbEntity
  8
0
  6
Continuous
 62
     7
370
    25
100
AcDbSpline
210
0.0
220
0.0
230
1.0
 70
     8
 71
     3
 72
    25
 73
    21
 74
     0
 42
0.000000001
 43
0.00000001
 40
0.0
 40
0.0
 40
0.0
 40
0.0
 40
0.0274788704223041
 40
0.0560416006850305
 40
0.0856947086351823
 40
0.1164440166537841
 40
0.1482947438680617
 40
0.1812515840469434
 40
0.2153187716748025
 40
0.2505001382254136
 40
0.3330514552861967
 40
0.5015081958164245
 40
0.5771663066128696
 40
0.6488981302998588
 40
0.7167477700029257
 40
0.7807674423452041
 40
0.8410194131306359
 40
0.8975784849897311
 40
0.950535204777236
 40
1.0
 40
1.0
 40
1.0
 40
1.0
 10
367.8724111920374
 20
117.4245262930633
 30
0.0
 10
367.865703024694
 20
117.4537084975808
 30
0.0
 10
367.8520220971372
 20
117.5132239517296
 30
0.0
 10
367.8292573684832
 20
117.6036144487882
 30
0.0
 10
367.8043797312429
 20
117.6967460579094
 30
0.0
 10
367.7772404932254
 20
117.7923321021843
 30
0.0
 10
367.7478790861941
 20
117.8900855717975
 30
0.0
 10
367.7162939159061
 20
117.989666247855
 30
0.0
 10
367.6824470460413
 20
118.0906753874336
 30
0.0
 10
367.6307458160961
 20
118.2374421947187
 30
0.0
 10
367.5263868030851
 20
118.5017086076313
 30
0.0
 10
367.4055135753994
 20
118.7716782374504
 30
0.0
 10
367.292020528954
 20
118.9890879121406
 30
0.0
 10
367.2207475613384
 20
119.1187914828696
 30
0.0
 10
367.1586729892127
 20
119.2226665601943
 30
0.0
 10
367.1060889770455
 20
119.3025271940136
 30
0.0
 10
367.062842431118
 20
119.3605458201655
 30
0.0
 10
367.0292356188977
 20
119.3986493788192
 30
0.0
 10
367.0042886360249
 20
119.4206519098151
 30
0.0
 10
366.9953290991627
 20
119.4232645231665
 30
0.0
 10
366.9910020624446
 20
119.4245262930633
 30
0.0
  0
SPLINE
  5
10D
330
1F
100
AcDbEntity
  8
0
  6
Continuous
 62
     7
370
    25
100
AcDbSpline
210
0.0
220
0.0
230
1.0
 70
     8
 71
     3
 72
    25
 73
    21
 74
     0
 42
0.000000001
 43
0.00000001
 40
0.0
 40
0.0
 40
0.0
 40
0.0
 40
0.0288821753110086
 40
0.0583636594013118
 40
0.0884647204314734
 40
0.1192044006626603
 40
0.150600580009491
 40
0.1826700399677263
 40
0.2154285269580574
 40
0.248890814337993
 40
0.361059447124065
 40
0.4984670131067773
 40
0.5822693905007604
 40
0.666112764278331
 40
0.7499972937224478
 40
0.8007709755049082
 40
0.8511237700832938
 40
0.9010896024531745
 40
0.9507031914125761
 40
1.0
 40
1.0
 40
1.0
 40
1.0
 10
345.8926099068077
 20
119.4245262930633
 30
0.0
 10
345.89031963843
 20
119.4240980510874
 30
0.0
 10
345.8856915783171
 20
119.4232326810606
 30
0.0
 10
345.8753813152297
 20
119.416157748359
 30
0.0
 10
345.8625452459988
 20
119.4045892071986
 30
0.0
 10
345.8469316872562
 20
119.3878836310862
 30
0.0
 10
345.8286102438435
 20
119.3659467200699
 30
0.0
 10
345.8075626580124
 20
119.3385490845852
 30
0.0
 10
345.7837910860203
 20
119.3055146039031
 30
0.0
 10
345.7367345565838
 20
119.2365239377753
 30
0.0
 10
345.6490401387269
 20
119.0964979683537
 30
0.0
 10
345.5314884841935
 20
118.8772026671492
 30
0.0
 10
345.4199663198521
 20
118.640272606378
 30
0.0
 10
345.3285070025041
 20
118.4244307324681
 30
0.0
 10
345.2476253513265
 20
118.2228691115863
 30
0.0
 10
345.1814804494585
 20
118.0440010311941
 30
0.0
 10
345.1321298886314
 20
117.8926248300502
 30
0.0
 10
345.0871628717665
 20
117.7383806749273
 30
0.0
 10
345.0464051578473
 20
117.5822248198517
 30
0.0
 10
345.02291048863
 20
117.4769801129037
 30
0.0
 10
345.0112007772149
 20
117.4245262930633
 30
0.0
  0
LINE
  5
10E
330
1F
100
AcDbEntity
  8
0
  6
Continuous
 62
     7
370
    25
100
AcDbLine
 10
344.5711377149
 20
117.5056140194
 30
0.0
 11
345.01120067
 21
117.424526324
 31
0.0
  0
SPLINE
  5
10F
330
1F
100
AcDbEntity
  8
0
  6
Continuous
 62
     7
370
    25
100
AcDbSpline
210
0.0
220
0.0
230
1.0
 70
     8
 71
     3
 72
    25
 73
    21
 74
     0
 42
0.000000001
 43
0.00000001
 40
0.0
 40
0.0
 40
0.0
 40
0.0
 40
0.0288821753116583
 40
0.0583636594024247
 40
0.088464720432864
 40
0.1192044006641432
 40
0.1506005800108822
 40
0.1826700399688414
 40
0.2154285269587146
 40
0.2488908143380118
 40
0.3610594471217245
 40
0.498467013106778
 40
0.5822693905006526
 40
0.6661127642782239
 40
0.7499972937224496
 40
0.8007709755032478
 40
0.8511237700807983
 40
0.901089602450676
 40
0.9507031914109089
 40
1.0
 40
1.0
 40
1.0
 40
1.0
 10
366.9910020624446
 20
111.2120262930633
 30
0.0
 10
366.9932923308223
 20
111.2124545350393
 30
0.0
 10
366.9979203909353
 20
111.2133199050661
 30
0.0
 10
367.0082306540228
 20
111.220394837768
 30
0.0
 10
367.0210667232537
 20
111.2319633789287
 30
0.0
 10
367.0366802819964
 20
111.2486689550414
 30
0.0
 10
367.0550017254089
 20
111.2706058660578
 30
0.0
 10
367.0760493112401
 20
111.2980035015425
 30
0.0
 10
367.099820883232
 20
111.3310379822242
 30
0.0
 10
367.1468774126683
 20
111.4000286483507
 30
0.0
 10
367.234571830526
 20
111.5400546177713
 30
0.0
 10
367.3521234850581
 20
111.7593499189755
 30
0.0
 10
367.463645649399
 20
111.9962799797488
 30
0.0
 10
367.555104966747
 20
112.2121218536588
 30
0.0
 10
367.635986617925
 20
112.4136834745388
 30
0.0
 10
367.702131519793
 20
112.5925515549283
 30
0.0
 10
367.7514820806195
 20
112.7439277560695
 30
0.0
 10
367.7964490974844
 20
112.8981719111923
 30
0.0
 10
367.8372068114041
 20
113.0543277662705
 30
0.0
 10
367.8607014806219
 20
113.1595724732212
 30
0.0
 10
367.8724111920374
 20
113.2120262930633
 30
0.0
  0
LINE
  5
110
330
1F
100
AcDbEntity
  8
0
  6
Continuous
 62
     7
370
    25
100
AcDbLine
 10
368.3124742543
 20
113.1309385667
 30
0.0
 11
367.8724112993
 21
113.2120262621
 31
0.0
  0
SPLINE
  5
111
330
1F
100
AcDbEntity
  8
0
  6
Continuous
 62
     7
370
    25
100
AcDbSpline
210
0.0
220
0.0
230
1.0
 70
     8
 71
     3
 72
    15
 73
    11
 74
     0
 42
0.000000001
 43
0.00000001
 40
0.0
 40
0.0
 40
0.0
 40
0.0
 40
0.1351922525168508
 40
0.295505352053604
 40
0.3941605101370091
 40
0.4930224738308925
 40
0.5920945925114958
 40
0.7581984282951001
 40
0.9106346529387762
 40
1.0
 40
1.0
 40
1.0
 40
1.0
 10
347.5439482441047
 20
117.4245263239832
 30
0.0
 10
347.5792091215361
 20
117.5449452752205
 30
0.0
 10
347.6562829020604
 20
117.8081589129611
 30
0.0
 10
347.781076438938
 20
118.1403814747209
 30
0.0
 10
347.8979799642628
 20
118.4198758747004
 30
0.0
 10
347.9955648131123
 20
118.634890339817
 30
0.0
 10
348.1196444702343
 20
118.873522131478
 30
0.0
 10
348.2502575200065
 20
119.1041995008841
 30
0.0
 10
348.3533358579981
 20
119.2813949413088
 30
0.0
 10
348.3872944166808
 20
119.3350995531036
 30
0.0
 10
348.3998448660473
 20
119.3549477750899
 30
0.0
  0
SPLINE
  5
112
330
1F
100
AcDbEntity
  8
0
  6
Continuous
 62
     7
370
    25
100
AcDbSpline
210
0.0
220
0.0
230
1.0
 70
     8
 71
     3
 72
    15
 73
    11
 74
     0
 42
0.000000001
 43
0.00000001
 40
0.0
 40
0.0
 40
0.0
 40
0.0
 40
0.1361835767353471
 40
0.2976722041233961
 40
0.3970507708760626
 40
0.4966376596826896
 40
0.5964362444794897
 40
0.763758069845573
 40
0.9173120635806887
 40
0.9999999999999999
 40
0.9999999999999999
 40
0.9999999999999999
 40
0.9999999999999999
 10
365.3396637251476
 20
113.2120262621434
 30
0.0
 10
365.3044028147002
 20
113.091607248413
 30
0.0
 10
365.2273289620088
 20
112.8283934740739
 30
0.0
 10
365.102535960092
 20
112.4961719248936
 30
0.0
 10
364.9856310690514
 20
112.2166749398731
 30
0.0
 10
364.888050716833
 20
112.0016689860264
 30
0.0
 10
364.7639503515861
 20
111.7629979978129
 30
0.0
 10
364.6334639907794
 20
111.5325604265867
 30
0.0
 10
364.5318208399583
 20
111.3577618672192
 30
0.0
 10
364.4987210724603
 20
111.3053658386355
 30
0.0
 10
364.4871356969575
 20
111.2870265054049
 30
0.0
  0
SPLINE
  5
113
330
1F
100
AcDbEntity
  8
0
  6
Continuous
 62
     7
370
    25
100
AcDbSpline
210
0.0
220
0.0
230
1.0
 70
     8
 71
     3
 72
    15
 73
    11
 74
     0
 42
0.000000001
 43
0.00000001
 40
0.0
 40
0.0
 40
0.0
 40
0.0
 40
0.0210214847137796
 40
0.0995173547081305
 40
0.2360971400771362
 40
0.3979401334474181
 40
0.5486162591715825
 40
0.7000321895560188
 40
0.8517812990240201
 40
0.9999999999999999
 40
0.9999999999999999
 40
0.9999999999999999
 40
0.9999999999999999
 10
348.3950299283365
 20
111.2870265054049
 30
0.0
 10
348.3921814270822
 20
111.2915111149981
 30
0.0
 10
348.3786963990946
 20
111.3127416079765
 30
0.0
 10
348.3312875350656
 20
111.3898767971307
 30
0.0
 10
348.2381457169138
 20
111.5458062311749
 30
0.0
 10
348.1017266333359
 20
111.7948216956176
 30
0.0
 10
347.9524041971187
 20
112.1044606920122
 30
0.0
 10
347.7992390614061
 20
112.4464245661157
 30
0.0
 10
347.6536062946919
 20
112.8175334088012
 30
0.0
 10
347.5802129986108
 20
113.0815644638143
 30
0.0
 10
347.5439482441047
 20
113.2120262621434
 30
0.0
  0
LINE
  5
114
330
1F
100
AcDbEntity
  8
0
  6
Continuous
 62
     7
370
    25
100
AcDbLine
 10
347.8602086266
 20
117.3496628901
 30
0.0
 11
347.5439482441
 21
117.424526324
 31
0.0
  0
SPLINE
  5
115
330
1F
100
AcDbEntity
  8
0
  6
Continuous
 62
     7
370
    25
100
AcDbSpline
210
0.0
220
0.0
230
1.0
 70
     8
 71
     3
 72
    25
 73
    21
 74
     0
 42
0.000000001
 43
0.00000001
 40
0.0
 40
0.0
 40
0.0
 40
0.0
 40
0.0278144320063462
 40
0.0555680196245754
 40
0.083331625367772
 40
0.111176035216759
 40
0.1391714221532265
 40
0.1673868326284763
 40
0.1958897140434718
 40
0.2247454979318961
 40
0.254017249222145
 40
0.3796724410016501
 40
0.5056484635002454
 40
0.629752729069345
 40
0.7535891720571729
 40
0.8038564806093713
 40
0.853339684343451
 40
0.9023264398358534
 40
0.9511131859219439
 40
1.0
 40
1.0
 40
1.0
 40
1.0
 10
348.7278298953376
 20
119.5920245842458
 30
0.0
 10
348.7276821440229
 20
119.5917580416923
 30
0.0
 10
348.7273869646012
 20
119.5912255396501
 30
0.0
 10
348.7237622655854
 20
119.584678090954
 30
0.0
 10
348.7178163699151
 20
119.5739088476677
 30
0.0
 10
348.709341647
 20
119.5584981117434
 30
0.0
 10
348.6984266601609
 20
119.5385417354897
 30
0.0
 10
348.6850905919225
 20
119.5139916390192
 30
0.0
 10
348.6693828272356
 20
119.4848350152633
 30
0.0
 10
348.6513512390777
 20
119.4510390438299
 30
0.0
 10
348.6089336943293
 20
119.3706322857721
 30
0.0
 10
348.5284126545758
 20
119.2136438361014
 30
0.0
 10
348.3949863077013
 20
118.931858098354
 30
0.0
 10
348.2509093310181
 20
118.593985988727
 30
0.0
 10
348.1352315795667
 20
118.2853050749888
 30
0.0
 10
348.0527201043495
 20
118.0392743552338
 30
0.0
 10
347.9997984798244
 20
117.8704484639606
 30
0.0
 10
347.9499413454469
 20
117.6991328929488
 30
0.0
 10
347.9029233522164
 20
117.525450542728
 30
0.0
 10
347.8744563414879
 20
117.4082988544246
 30
0.0
 10
347.860208253689
 20
117.3496629984632
 30
0.0
  0
LINE
  5
116
330
1F
100
AcDbEntity
  8
0
  6
Continuous
 62
     7
370
    25
100
AcDbLine
 10
347.8602086266
 20
113.286889696
 30
0.0
 11
347.5439482441
 21
113.2120262621
 31
0.0
  0
SPLINE
  5
117
330
1F
100
AcDbEntity
  8
0
  6
Continuous
 62
     7
370
    25
100
AcDbSpline
210
0.0
220
0.0
230
1.0
 70
     8
 71
     3
 72
    25
 73
    21
 74
     0
 42
0.000000001
 43
0.00000001
 40
0.0
 40
0.0
 40
0.0
 40
0.0
 40
0.0269872354797669
 40
0.0539362690259618
 40
0.0809037148829035
 40
0.1079460716545392
 40
0.1351193706855853
 40
0.162478838835575
 40
0.190078585418252
 40
0.2179713214290535
 40
0.2462081170984584
 40
0.3700050494705653
 40
0.4947542611659071
 40
0.6210439034695193
 40
0.7446557472315123
 40
0.7967060293738726
 40
0.8478613449329371
 40
0.8985210411990388
 40
0.9490962115257747
 40
1.0
 40
1.0
 40
1.0
 40
1.0
 10
347.860208253689
 20
113.2868895876635
 30
0.0
 10
347.8679889984131
 20
113.2544931826358
 30
0.0
 10
347.8835394737841
 20
113.1897462314945
 30
0.0
 10
347.9082248797574
 20
113.0930996950658
 30
0.0
 10
347.9338448367564
 20
112.9970056065745
 30
0.0
 10
347.9604877003838
 20
112.9014933358578
 30
0.0
 10
347.9881128856683
 20
112.8065686084651
 30
0.0
 10
348.0167146647275
 20
112.7122424523294
 30
0.0
 10
348.046276754369
 20
112.6185261078801
 30
0.0
 10
348.0767899014162
 20
112.5254220239898
 30
0.0
 10
348.1435241060055
 20
112.3291567818768
 30
0.0
 10
348.2507072821012
 20
112.0430836662735
 30
0.0
 10
348.39448737241
 20
111.7057937702802
 30
0.0
 10
348.5277358286219
 20
111.4242845934567
 30
0.0
 10
348.6154070048351
 20
111.2532936632783
 30
0.0
 10
348.6662820406274
 20
111.1573808448958
 30
0.0
 10
348.6939511952788
 20
111.1061636414411
 30
0.0
 10
348.7136501133963
 20
111.0701808473561
 30
0.0
 10
348.7258976220998
 20
111.0480109590341
 30
0.0
 10
348.7271844152559
 20
111.0456914913005
 30
0.0
 10
348.7278298953376
 20
111.0445280018808
 30
0.0
  0
SPLINE
  5
118
330
1F
100
AcDbEntity
  8
0
  6
Continuous
 62
     7
370
    25
100
AcDbSpline
210
0.0
220
0.0
230
1.0
 70
     8
 71
     3
 72
    15
 73
    11
 74
     0
 42
0.000000001
 43
0.00000001
 40
0.0
 40
0.0
 40
0.0
 40
0.0
 40
0.0210214847137796
 40
0.0995173547081305
 40
0.2360971400771362
 40
0.3979401334474181
 40
0.5486162591715825
 40
0.7000321895560188
 40
0.8517812990240201
 40
0.9999999999999999
 40
0.9999999999999999
 40
0.9999999999999999
 40
0.9999999999999999
 10
364.4885820409158
 20
119.3495260807218
 30
0.0
 10
364.4914305421701
 20
119.3450414711286
 30
0.0
 10
364.5049155701576
 20
119.3238109781501
 30
0.0
 10
364.5523244341867
 20
119.246675788996
 30
0.0
 10
364.6454662523384
 20
119.0907463549518
 30
0.0
 10
364.7818853359164
 20
118.841730890509
 30
0.0
 10
364.9312077721337
 20
118.5320918941144
 30
0.0
 10
365.0843729078462
 20
118.190128020011
 30
0.0
 10
365.2300056745605
 20
117.8190191773255
 30
0.0
 10
365.3033989706415
 20
117.5549881223124
 30
0.0
 10
365.3396637251476
 20
117.4245263239832
 30
0.0
  0
LINE
  5
119
330
1F
100
AcDbEntity
  8
0
  6
Continuous
 62
     7
370
    25
100
AcDbLine
 10
365.0234033426
 20
117.3496628901
 30
0.0
 11
365.3396637251
 21
117.424526324
 31
0.0
  0
SPLINE
  5
11A
330
1F
100
AcDbEntity
  8
0
  6
Continuous
 62
     7
370
    25
100
AcDbSpline
210
0.0
220
0.0
230
1.0
 70
     8
 71
     3
 72
    14
 73
    10
 74
     0
 42
0.000000001
 43
0.00000001
 40
0.0
 40
0.0
 40
0.0
 40
0.0
 40
0.1400505481383316
 40
0.2837940635646364
 40
0.4267314741655509
 40
0.5707685044357909
 40
0.7165840938251985
 40
0.8593077005344127
 40
1.0
 40
1.0
 40
1.0
 40
1.0
 10
365.0234033426145
 20
117.3496628901454
 30
0.0
 10
364.9866365524896
 20
117.4952229073412
 30
0.0
 10
364.9121334754759
 20
117.7901811872027
 30
0.0
 10
364.7769443285398
 20
118.2082455518017
 30
0.0
 10
364.6330596660251
 20
118.5932980619328
 30
0.0
 10
364.4889238776326
 20
118.9311063420742
 30
0.0
 10
364.3565268520812
 20
119.211046592233
 30
0.0
 10
364.2456069810457
 20
119.4271874680005
 30
0.0
 10
364.2042711155708
 20
119.5032506951398
 30
0.0
 10
364.1837513146797
 20
119.541009727353
 30
0.0
  0
LINE
  5
11B
330
1F
100
AcDbEntity
  8
0
  6
Continuous
 62
     7
370
    25
100
AcDbLine
 10
365.0234033426
 20
113.286889696
 30
0.0
 11
365.3396637251
 21
113.2120262621
 31
0.0
  0
SPLINE
  5
11C
330
1F
100
AcDbEntity
  8
0
  6
Continuous
 62
     7
370
    25
100
AcDbSpline
210
0.0
220
0.0
230
1.0
 70
     8
 71
     3
 72
    25
 73
    21
 74
     0
 42
0.000000001
 43
0.00000001
 40
0.0
 40
0.0
 40
0.0
 40
0.0
 40
0.0278144320057649
 40
0.0555680196235595
 40
0.083331625366468
 40
0.1111760352153128
 40
0.1391714221517827
 40
0.1673868326271739
 40
0.195889714042447
 40
0.2247454979312803
 40
0.2540172492220635
 40
0.3796724409988544
 40
0.505648463500191
 40
0.6297527290689083
 40
0.7535891720572004
 40
0.803856480609888
 40
0.85333968434422
 40
0.902326439836625
 40
0.9511131859224594
 40
1.0
 40
1.0
 40
1.0
 40
1.0
 10
364.1557820739146
 20
111.0445280018808
 30
0.0
 10
364.1559298252294
 20
111.0447945444344
 30
0.0
 10
364.1562250046511
 20
111.0453270464766
 30
0.0
 10
364.159849703667
 20
111.0518744951727
 30
0.0
 10
364.1657955993373
 20
111.062643738459
 30
0.0
 10
364.1742703222524
 20
111.0780544743833
 30
0.0
 10
364.1851853090914
 20
111.0980108506371
 30
0.0
 10
364.1985213773299
 20
111.1225609471076
 30
0.0
 10
364.2142291420168
 20
111.1517175708635
 30
0.0
 10
364.2322607301747
 20
111.1855135422969
 30
0.0
 10
364.2746782749217
 20
111.2659203003522
 30
0.0
 10
364.3551993146756
 20
111.4229087500234
 30
0.0
 10
364.48862566155
 20
111.7046944877702
 30
0.0
 10
364.6327026382335
 20
112.042566597398
 30
0.0
 10
364.7483803896856
 20
112.3512475111378
 30
0.0
 10
364.8308918649033
 20
112.5972782308945
 30
0.0
 10
364.8838134894287
 20
112.7661041221686
 30
0.0
 10
364.933670623806
 20
112.9374196931803
 30
0.0
 10
364.9806886170363
 20
113.1111020434002
 30
0.0
 10
365.0091556277645
 20
113.2282537317027
 30
0.0
 10
365.0234037155632
 20
113.2868895876635
 30
0.0
  0
ARC
  5
11D
330
1F
100
AcDbEntity
  8
0
  6
Continuous
 62
     7
370
    25
100
AcDbCircle
 10
356.4418059846
 20
115.3182762931
 30
0.0
 40
11.62303852141071
100
AcDbArc
 50
169.5595567507
 51
190.4404432494
  0
ARC
  5
11E
330
1F
100
AcDbEntity
  8
0
  6
Continuous
 62
     7
370
    25
100
AcDbCircle
 10
356.4418059846
 20
115.3182762931
 30
0.0
 40
9.143750000000006
100
AcDbArc
 50
166.6824039243
 51
193.3175960757
  0
ARC
  5
11F
330
1F
100
AcDbEntity
  8
0
  6
Continuous
 62
     7
370
    25
100
AcDbCircle
 10
356.4418059846
 20
115.3182762931
 30
0.0
 40
8.818750000000078
100
AcDbArc
 50
166.6824039243
 51
193.3175960757
  0
ARC
  5
120
330
1F
100
AcDbEntity
  8
0
  6
Continuous
 62
     7
370
    25
100
AcDbCircle
 10
356.4418059846
 20
115.3182762931
 30
0.0
 40
9.143750000000006
100
AcDbArc
 50
346.6824039243
 51
13.3175960757
  0
ARC
  5
121
330
1F
100
AcDbEntity
  8
0
  6
Continuous
 62
     7
370
    25
100
AcDbCircle
 10
356.4418059846
 20
115.3182762931
 30
0.0
 40
8.818749999999966
100
AcDbArc
 50
346.6824039243
 51
13.3175960757
  0
ARC
  5
122
330
1F
100
AcDbEntity
  8
0
  6
Continuous
 62
     7
370
    25
100
AcDbCircle
 10
356.4418059846
 20
115.3182762931
 30
0.0
 40
11.6230385214107
100
AcDbArc
 50
349.5595567507
 51
10.4404432493
  0
CIRCLE
  5
123
330
1F
100
AcDbEntity
  8
0
  6
Continuous
 62
     7
370
    25
100
AcDbCircle
 10
356.4418059846
 20
115.3182762931
 30
0.0
 40
7.775000000000034
  0
CIRCLE
  5
124
330
1F
100
AcDbEntity
  8
0
  6
Continuous
 62
     7
370
    25
100
AcDbCircle
 10
356.4418059846
 20
115.3182762931
 30
0.0
 40
2.615470053837953
  0
CIRCLE
  5
125
330
1F
100
AcDbEntity
  8
0
  6
Continuous
 62
     7
370
    25
100
AcDbCircle
 10
356.4418059846
 20
115.3182762931
 30
0.0
 40
2.5
  0
CIRCLE
  5
126
330
1F
100
AcDbEntity
  8
0
  6
Continuous
 62
     7
370
    25
100
AcDbCircle
 10
356.4418059846
 20
115.3182762931
 30
0.0
 40
15.73750000000001
  0
CIRCLE
  5
127
330
1F
100
AcDbEntity
  8
0
  6
Continuous
 62
     7
370
    25
100
AcDbCircle
 10
356.4418059846
 20
115.3182762931
 30
0.0
 40
13.42500000000001
  0
CIRCLE
  5
128
330
1F
100
AcDbEntity
  8
0
  6
Continuous
 62
     7
370
    25
100
AcDbCircle
 10
356.4418059846
 20
115.3182762931
 30
0.0
 40
2.0
  0
LINE
  5
129
330
1F
100
AcDbEntity
  8
0
  6
CENTER
 62
     7
370
    18
100
AcDbLine
 10
356.4418059846
 20
115.3182762931
 30
0.0
 11
356.4418059846
 21
134.8327762931
 31
0.0
  0
LINE
  5
12A
330
1F
100
AcDbEntity
  8
0
  6
CENTER
 62
     7
370
    18
100
AcDbLine
 10
356.4418059846
 20
115.3182762931
 30
0.0
 11
375.9539637087
 21
115.3182762931
 31
0.0
  0
LINE
  5
12B
330
1F
100
AcDbEntity
  8
0
  6
Continuous
 62
     7
370
    18
100
AcDbLine
 10
368.4418059846
 20
132.8327762931
 30
0.0
 11
356.4418059846
 21
132.8327762931
 31
0.0
  0
SOLID
  5
12C
330
1F
100
AcDbEntity
  8
0
  6
Continuous
 62
     7
370
    18
100
AcDbTrace
 10
356.4418059846
 20
132.8327762931
 30
0.0
 11
362.4418059846
 21
131.3327762931
 31
0.0
 12
362.4418059846
 22
134.3327762931
 32
0.0
 13
362.4418059846
 23
134.3327762931
 33
0.0
  0
LINE
  5
12D
330
1F
100
AcDbEntity
  8
0
  6
Continuous
 62
     7
370
    18
100
AcDbLine
 10
385.9539637087
 20
115.3182762931
 30
0.0
 11
373.9539637087
 21
115.3182762931
 31
0.0
  0
SOLID
  5
12E
330
1F
100
AcDbEntity
  8
0
  6
Continuous
 62
     7
370
    18
100
AcDbTrace
 10
373.9539637087
 20
115.3182762931
 30
0.0
 11
379.9539637087
 21
113.8182762931
 31
0.0
 12
379.9539637087
 22
116.8182762931
 32
0.0
 13
379.9539637087
 23
116.8182762931
 33
0.0
  0
MTEXT
  5
12F
330
1F
100
AcDbEntity
  8
0
  6
Continuous
 62
     7
100
AcDbMText
 10
365.2944252406
 20
139.4790695097
 30
0.0
 40
3.5
 41
0.0
 71
     1
 72
     1
  1
A
  7
SLDTEXTSTYLE0
 73
     1
 44
1.0
  0
MTEXT
  5
130
330
1F
100
AcDbEntity
  8
0
  6
Continuous
 62
     7
100
AcDbMText
 10
382.8065829647
 20
113.1050606519
 30
0.0
 40
3.5
 41
0.0
 71
     1
 72
     1
  1
A
  7
SLDTEXTSTYLE0
 73
     1
 44
1.0
  0
LINE
  5
131
330
1F
100
AcDbEntity
  8
0
  6
Continuous
 62
     7
370
    25
100
AcDbLine
 10
133.2826349906
 20
83.8432762931
 30
0.0
 11
139.648437186
 21
83.8432762931
 31
0.0
  0
LINE
  5
132
330
1F
100
AcDbEntity
  8
0
  6
Continuous
 62
     7
370
    25
100
AcDbLine
 10
146.3168327952
 20
83.8432762931
 30
0.0
 11
151.0826349906
 21
83.8432762931
 31
0.0
  0
ARC
  5
133
330
1F
100
AcDbEntity
  8
0
  6
Continuous
 62
     7
370
    25
100
AcDbCircle
 10
133.2826349906
 20
84.0432762931
 30
0.0
 40
0.2000000000000171
100
AcDbArc
 50
180.0
 51
270.0
  0
LINE
  5
134
330
1F
100
AcDbEntity
  8
0
  6
Continuous
 62
     7
370
    25
100
AcDbLine
 10
139.648437186
 20
83.8432762931
 30
0.0
 11
141.1076349906
 21
86.3706810289
 31
0.0
  0
LINE
  5
135
330
1F
100
AcDbEntity
  8
0
  6
Continuous
 62
     7
370
    25
100
AcDbLine
 10
144.8576349906
 20
86.3706810289
 30
0.0
 11
146.3168327952
 21
83.8432762931
 31
0.0
  0
ARC
  5
136
330
1F
100
AcDbEntity
  8
0
  6
Continuous
 62
     7
370
    25
100
AcDbCircle
 10
142.1076349906
 20
86.4682762931
 30
0.0
 40
1.0
100
AcDbArc
 50
90.0
 51
180.0
  0
ARC
  5
137
330
1F
100
AcDbEntity
  8
0
  6
Continuous
 62
     7
370
    25
100
AcDbCircle
 10
143.8576349906
 20
86.4682762931
 30
0.0
 40
1.000000000000028
100
AcDbArc
 50
0.0
 51
90.0
  0
LINE
  5
138
330
1F
100
AcDbEntity
  8
0
  6
Continuous
 62
     7
370
    25
100
AcDbLine
 10
142.1076349906
 20
87.4682762931
 30
0.0
 11
143.8576349906
 21
87.4682762931
 31
0.0
  0
ARC
  5
139
330
1F
100
AcDbEntity
  8
0
  6
Continuous
 62
     7
370
    25
100
AcDbCircle
 10
132.653700116
 20
89.7682762931
 30
0.0
 40
0.8000000000000047
100
AcDbArc
 50
57.576802718
 51
107.5
  0
LINE
  5
13A
330
1F
100
AcDbEntity
  8
0
  6
Continuous
 62
     7
370
    25
100
AcDbLine
 10
131.9224529506
 20
90.3765382475
 30
0.0
 11
132.4131354764
 21
90.5312498537
 31
0.0
  0
LINE
  5
13B
330
1F
100
AcDbEntity
  8
0
  6
Continuous
 62
     7
370
    25
100
AcDbLine
 10
118.5961895226
 20
91.0457557723
 30
0.0
 11
131.9224529506
 21
90.3765382475
 31
0.0
  0
LINE
  5
13C
330
1F
100
AcDbEntity
  8
0
  6
Continuous
 62
     7
370
    25
100
AcDbLine
 10
94.6326349906
 20
92.2491561655
 30
0.0
 11
102.6874718541
 21
91.8446588345
 31
0.0
  0
ARC
  5
13D
330
1F
100
AcDbEntity
  8
0
  6
Continuous
 62
     7
370
    25
100
AcDbCircle
 10
154.0826349906
 20
91.8182762931
 30
0.0
 40
3.000000000000028
100
AcDbArc
 50
90.0
 51
180.0
  0
LINE
  5
13E
330
1F
100
AcDbEntity
  8
0
  6
Continuous
 62
     7
370
    25
100
AcDbLine
 10
93.1326349906
 20
93.1151815693
 30
0.0
 11
94.6326349906
 21
92.2491561655
 31
0.0
  0
LINE
  5
13F
330
1F
100
AcDbEntity
  8
0
  6
Continuous
 62
     7
370
    25
100
AcDbLine
 10
162.2578160459
 20
94.8182762931
 30
0.0
 11
211.2395531821
 21
98.6732226089
 31
0.0
  0
LINE
  5
140
330
1F
100
AcDbEntity
  8
0
  6
Continuous
 62
     7
370
    25
100
AcDbLine
 10
154.0826349906
 20
94.8182762931
 30
0.0
 11
162.2578160459
 21
94.8182762931
 31
0.0
  0
ARC
  5
141
330
1F
100
AcDbEntity
  8
0
  6
Continuous
 62
     7
370
    25
100
AcDbCircle
 10
211.0826349906
 20
100.6670572764
 30
0.0
 40
2.0
100
AcDbArc
 50
274.5
 51
0.0
  0
LINE
  5
142
330
1F
100
AcDbEntity
  8
0
  6
Continuous
 62
     7
370
    25
100
AcDbLine
 10
163.5826349906
 20
121.3182762931
 30
0.0
 11
148.5826349906
 21
121.3182762931
 31
0.0
  0
LINE
  5
143
330
1F
100
AcDbEntity
  8
0
  6
Continuous
 62
     7
370
    25
100
AcDbLine
 10
164.0826349906
 20
120.8182762931
 30
0.0
 11
163.5826349906
 21
121.3182762931
 31
0.0
  0
LINE
  5
144
330
1F
100
AcDbEntity
  8
0
  6
Continuous
 62
     7
370
    25
100
AcDbLine
 10
148.5826349906
 20
121.3182762931
 30
0.0
 11
148.0826349906
 21
120.8182762931
 31
0.0
  0
LINE
  5
145
330
1F
100
AcDbEntity
  8
0
  6
Continuous
 62
     7
370
    25
100
AcDbLine
 10
166.0826349906
 20
120.7933785144
 30
0.0
 11
168.0826349906
 21
120.7933785144
 31
0.0
  0
LINE
  5
146
330
1F
100
AcDbEntity
  8
0
  6
Continuous
 62
     7
370
    25
100
AcDbLine
 10
166.0826349906
 20
120.8182762931
 30
0.0
 11
164.0826349906
 21
120.8182762931
 31
0.0
  0
SPLINE
  5
147
330
1F
100
AcDbEntity
  8
0
  6
Continuous
 62
     7
370
    25
100
AcDbSpline
210
0.0
220
0.0
230
1.0
 70
     8
 71
     3
 72
    11
 73
     7
 74
     0
 42
0.000000001
 43
0.00000001
 40
0.0
 40
0.0
 40
0.0
 40
0.0
 40
0.2701949965567513
 40
0.5496278655746849
 40
0.9385757634130915
 40
1.0
 40
1.0
 40
1.0
 40
1.0
 10
148.318533375477
 20
117.562177025606
 30
0.0
 10
148.427173001763
 20
117.6418821338894
 30
0.0
 10
148.6481666051728
 20
117.8040174402402
 30
0.0
 10
148.8327252175853
 20
118.1049347762575
 30
0.0
 10
148.748637724791
 20
118.3456490831678
 30
0.0
 10
148.6157069614104
 20
118.4844092729341
 30
0.0
 10
148.5975771304651
 20
118.5033341532132
 30
0.0
  0
SPLINE
  5
148
330
1F
100
AcDbEntity
  8
0
  6
Continuous
 62
     7
370
    25
100
AcDbSpline
210
0.0
220
0.0
230
1.0
 70
     8
 71
     3
 72
    10
 73
     6
 74
     0
 42
0.000000001
 43
0.00000001
 40
0.0
 40
0.0
 40
0.0
 40
0.0
 40
0.2702476582550817
 40
0.811464803697357
 40
1.0
 40
1.0
 40
1.0
 40
1.0
 10
148.6763364057492
 20
115.3182762930634
 30
0.0
 10
148.7239950465098
 20
115.5240359898518
 30
0.0
 10
148.867098264569
 20
116.1418646624156
 30
0.0
 10
148.6240675769616
 20
116.9213487614748
 30
0.0
 10
148.381263128705
 20
117.4306074707897
 30
0.0
 10
148.318533375477
 20
117.562177025606
 30
0.0
  0
LINE
  5
149
330
1F
100
AcDbEntity
  8
0
  6
Continuous
 62
     7
370
    25
100
AcDbLine
 10
148.0826349906
 20
119.0182762931
 30
0.0
 11
148.5975771305
 21
118.5033341532
 31
0.0
  0
LINE
  5
14A
330
1F
100
AcDbEntity
  8
0
  6
Continuous
 62
     7
370
    25
100
AcDbLine
 10
148.0826349906
 20
119.0182762931
 30
0.0
 11
148.0826349906
 21
115.3182762931
 31
0.0
  0
LINE
  5
14B
330
1F
100
AcDbEntity
  8
0
  6
Continuous
 62
     7
370
    25
100
AcDbLine
 10
161.0826349906
 20
118.1439706431
 30
0.0
 11
161.0826349906
 21
118.3182762931
 31
0.0
  0
LINE
  5
14C
330
1F
100
AcDbEntity
  8
0
  6
Continuous
 62
     7
370
    25
100
AcDbLine
 10
161.0826349906
 20
115.8584330418
 30
0.0
 11
161.0826349906
 21
118.1439706431
 31
0.0
  0
LINE
  5
14D
330
1F
100
AcDbEntity
  8
0
  6
Continuous
 62
     7
370
    25
100
AcDbLine
 10
161.0826349906
 20
115.3182762931
 30
0.0
 11
161.0826349906
 21
115.8584330418
 31
0.0
  0
LINE
  5
14E
330
1F
100
AcDbEntity
  8
0
  6
Continuous
 62
     7
370
    25
100
AcDbLine
 10
155.0826349905
 20
115.8584330418
 30
0.0
 11
155.0826349905
 21
115.3182762931
 31
0.0
  0
LINE
  5
14F
330
1F
100
AcDbEntity
  8
0
  6
Continuous
 62
     7
370
    25
100
AcDbLine
 10
155.0826349905
 20
118.1439706431
 30
0.0
 11
155.0826349905
 21
115.8584330418
 31
0.0
  0
LINE
  5
150
330
1F
100
AcDbEntity
  8
0
  6
Continuous
 62
     7
370
    25
100
AcDbLine
 10
155.0826349905
 20
118.3182762931
 30
0.0
 11
155.0826349905
 21
118.1439706431
 31
0.0
  0
LINE
  5
151
330
1F
100
AcDbEntity
  8
0
  6
Continuous
 62
     7
370
    25
100
AcDbLine
 10
155.0826349905
 20
118.3182762931
 30
0.0
 11
161.0826349906
 21
118.3182762931
 31
0.0
  0
LINE
  5
152
330
1F
100
AcDbEntity
  8
0
  6
Continuous
 62
     7
370
    25
100
AcDbLine
 10
166.0826349906
 20
118.5033341532
 30
0.0
 11
166.0826349906
 21
120.8182762931
 31
0.0
  0
LINE
  5
153
330
1F
100
AcDbEntity
  8
0
  6
Continuous
 62
     7
370
    25
100
AcDbLine
 10
161.0826349906
 20
118.5033341532
 30
0.0
 11
166.0826349906
 21
118.5033341532
 31
0.0
  0
LINE
  5
154
330
1F
100
AcDbEntity
  8
0
  6
Continuous
 62
     7
370
    25
100
AcDbLine
 10
161.0826349906
 20
118.3182762931
 30
0.0
 11
161.0826349906
 21
118.5033341532
 31
0.0
  0
LINE
  5
155
330
1F
100
AcDbEntity
  8
0
  6
Continuous
 62
     7
370
    25
100
AcDbLine
 10
155.0826349905
 20
118.5033341532
 30
0.0
 11
155.0826349905
 21
118.3182762931
 31
0.0
  0
LINE
  5
156
330
1F
100
AcDbEntity
  8
0
  6
Continuous
 62
     7
370
    25
100
AcDbLine
 10
148.5975771305
 20
118.5033341532
 30
0.0
 11
155.0826349905
 21
118.5033341532
 31
0.0
  0
LINE
  5
157
330
1F
100
AcDbEntity
  8
0
  6
Continuous
 62
     7
370
    25
100
AcDbLine
 10
148.0826349906
 20
120.8182762931
 30
0.0
 11
148.0826349906
 21
119.0182762931
 31
0.0
  0
LINE
  5
158
330
1F
100
AcDbEntity
  8
0
  6
Continuous
 62
     7
370
    25
100
AcDbLine
 10
155.0826349905
 20
117.5621770256
 30
0.0
 11
148.3185333755
 21
117.5621770256
 31
0.0
  0
LINE
  5
159
330
1F
100
AcDbEntity
  8
0
  6
Continuous
 62
     7
370
    25
100
AcDbLine
 10
167.3826349906
 20
118.1439706431
 30
0.0
 11
166.0826349906
 21
118.1439706431
 31
0.0
  0
SPLINE
  5
15A
330
1F
100
AcDbEntity
  8
0
  6
Continuous
 62
     7
370
    25
100
AcDbSpline
210
0.0
220
0.0
230
1.0
 70
     8
 71
     3
 72
     9
 73
     5
 74
     0
 42
0.000000001
 43
0.00000001
 40
0.0
 40
0.0
 40
0.0
 40
0.0
 40
0.5039876238385104
 40
1.0
 40
1.0
 40
1.0
 40
1.0
 10
167.3826349906148
 20
118.143970643111
 30
0.0
 10
167.4094666988394
 20
118.041612075813
 30
0.0
 10
167.4627055224841
 20
117.8385146931462
 30
0.0
 10
167.7194086683857
 20
117.6537985290665
 30
0.0
 10
167.8467366057526
 20
117.562177025606
 30
0.0
  0
LINE
  5
15B
330
1F
100
AcDbEntity
  8
0
  6
Continuous
 62
     7
370
    25
100
AcDbLine
 10
161.0826349906
 20
117.5621770256
 30
0.0
 11
167.8467366058
 21
117.5621770256
 31
0.0
  0
LINE
  5
15C
330
1F
100
AcDbEntity
  8
0
  6
Continuous
 62
     7
370
    25
100
AcDbLine
 10
166.0826349906
 20
118.1439706431
 30
0.0
 11
166.0826349906
 21
118.5033341532
 31
0.0
  0
LINE
  5
15D
330
1F
100
AcDbEntity
  8
0
  6
Continuous
 62
     7
370
    25
100
AcDbLine
 10
168.0826349906
 20
120.7933785144
 30
0.0
 11
168.0826349906
 21
118.915384692
 31
0.0
  0
LINE
  5
15E
330
1F
100
AcDbEntity
  8
0
  6
Continuous
 62
     7
370
    25
100
AcDbLine
 10
168.0826349906
 20
118.915384692
 30
0.0
 11
167.3826349906
 21
118.1439706431
 31
0.0
  0
SPLINE
  5
15F
330
1F
100
AcDbEntity
  8
0
  6
Continuous
 62
     7
370
    25
100
AcDbSpline
210
0.0
220
0.0
230
1.0
 70
     8
 71
     3
 72
    10
 73
     6
 74
     0
 42
0.000000001
 43
0.00000001
 40
0.0
 40
0.0
 40
0.0
 40
0.0
 40
0.1885351963026408
 40
0.7297523417449168
 40
1.0
 40
1.0
 40
1.0
 40
1.0
 10
167.8467366057526
 20
117.562177025606
 30
0.0
 10
167.7840068525246
 20
117.4306074707897
 30
0.0
 10
167.541202404268
 20
116.9213487614748
 30
0.0
 10
167.2981717166606
 20
116.1418646624156
 30
0.0
 10
167.4412749347198
 20
115.5240359898518
 30
0.0
 10
167.4889335754804
 20
115.3182762930634
 30
0.0
  0
LINE
  5
160
330
1F
100
AcDbEntity
  8
0
  6
Continuous
 62
     7
370
    25
100
AcDbLine
 10
168.0826349906
 20
118.915384692
 30
0.0
 11
168.0826349906
 21
115.3182762931
 31
0.0
  0
SPLINE
  5
161
330
1F
100
AcDbEntity
  8
0
  6
Continuous
 62
     7
370
    25
100
AcDbSpline
210
0.0
220
0.0
230
1.0
 70
     8
 71
     3
 72
    14
 73
    10
 74
     0
 42
0.000000001
 43
0.00000001
 40
0.0
 40
0.0
 40
0.0
 40
0.0
 40
0.25
 40
0.25
 40
0.5
 40
0.5
 40
0.75
 40
0.75
 40
1.0
 40
1.0
 40
1.0
 40
1.0
 10
139.6484371860447
 20
112.0233782075467
 30
0.0
 10
139.4515613005197
 20
112.2508747754758
 30
0.0
 10
139.2754529791303
 20
112.492461550547
 30
0.0
 10
138.965716585357
 20
113.0046187849211
 30
0.0
 10
138.8311585838635
 20
113.2781515880292
 30
0.0
 10
138.6159164311543
 20
113.8382567225667
 30
0.0
 10
138.5342731936354
 20
114.1252292179767
 30
0.0
 10
138.4237501713653
 20
114.713268203021
 30
0.0
 10
138.3951349906148
 20
115.0177116587916
 30
0.0
 10
138.3951349906148
 20
115.3182762930634
 30
0.0
  0
LINE
  5
162
330
1F
100
AcDbEntity
  8
0
  6
Continuous
 62
     7
370
    25
100
AcDbLine
 10
139.648437186
 20
83.8432762931
 30
0.0
 11
139.648437186
 21
112.0233782075
 31
0.0
  0
LINE
  5
163
330
1F
100
AcDbEntity
  8
0
  6
Continuous
 62
     7
370
    25
100
AcDbLine
 10
139.648437186
 20
146.7932762931
 30
0.0
 11
133.2826349906
 21
146.7932762931
 31
0.0
  0
LINE
  5
164
330
1F
100
AcDbEntity
  8
0
  6
Continuous
 62
     7
370
    25
100
AcDbLine
 10
146.3168327952
 20
83.8432762931
 30
0.0
 11
146.3168327952
 21
110.4285690134
 31
0.0
  0
SPLINE
  5
165
330
1F
100
AcDbEntity
  8
0
  6
Continuous
 62
     7
370
    25
100
AcDbSpline
210
0.0
220
0.0
230
1.0
 70
     8
 71
     3
 72
    20
 73
    16
 74
     0
 42
0.000000001
 43
0.00000001
 40
0.0
 40
0.0
 40
0.0
 40
0.0
 40
0.1249999999999996
 40
0.1249999999999996
 40
0.2499999999999992
 40
0.2499999999999992
 40
0.3749999999999989
 40
0.3749999999999989
 40
0.4999999999999987
 40
0.4999999999999987
 40
0.7499999999999994
 40
0.7499999999999994
 40
0.8749999999999997
 40
0.8749999999999997
 40
1.0
 40
1.0
 40
1.0
 40
1.0
 10
149.8701349906148
 20
115.3182762930635
 30
0.0
 10
149.8701349906148
 20
115.0516082055823
 30
0.0
 10
149.8480879615711
 20
114.7832960303083
 30
0.0
 10
149.7590819238663
 20
114.2504529950749
 30
0.0
 10
149.6932029556668
 20
113.991162785089
 30
0.0
 10
149.5210280479596
 20
113.4860358190675
 30
0.0
 10
149.4143214770527
 20
113.2394556031462
 30
0.0
 10
149.1616445741764
 20
112.7630389524065
 30
0.0
 10
149.0181873099817
 20
112.5376188906417
 30
0.0
 10
148.5398651177012
 20
111.8970112090279
 30
0.0
 10
148.1518381347357
 20
111.5142454939249
 30
0.0
 10
147.5100334862903
 20
111.0383432457532
 30
0.0
 10
147.2852288586431
 20
110.8947476096015
 30
0.0
 10
146.8139198010209
 20
110.637416224211
 30
0.0
 10
146.568223201132
 20
110.524363845689
 30
0.0
 10
146.3168327951849
 20
110.4285690133783
 30
0.0
  0
LINE
  5
166
330
1F
100
AcDbEntity
  8
0
  6
Continuous
 62
     7
370
    25
100
AcDbLine
 10
151.0826349906
 20
83.8432762931
 30
0.0
 11
151.0826349906
 21
115.3182762931
 31
0.0
  0
LINE
  5
167
330
1F
100
AcDbEntity
  8
0
  6
Continuous
 62
     7
370
    25
100
AcDbLine
 10
151.0826349906
 20
146.7932762931
 30
0.0
 11
146.3168327952
 21
146.7932762931
 31
0.0
  0
LINE
  5
168
330
1F
100
AcDbEntity
  8
0
  6
Continuous
 62
     7
370
    25
100
AcDbLine
 10
133.0826349906
 20
84.0432762931
 30
0.0
 11
133.0826349906
 21
115.3182762931
 31
0.0
  0
LINE
  5
169
330
1F
100
AcDbEntity
  8
0
  6
Continuous
 62
     7
370
    25
100
AcDbLine
 10
133.0826349906
 20
115.3182762931
 30
0.0
 11
133.2826349906
 21
115.3182762931
 31
0.0
  0
ARC
  5
16A
330
1F
100
AcDbEntity
  8
0
  6
Continuous
 62
     7
370
    25
100
AcDbCircle
 10
133.2826349906
 20
146.5932762931
 30
0.0
 40
0.2000000000000171
100
AcDbArc
 50
90.0
 51
180.0
  0
SPLINE
  5
16B
330
1F
100
AcDbEntity
  8
0
  6
Continuous
 62
     7
370
    25
100
AcDbSpline
210
0.0
220
0.0
230
1.0
 70
     8
 71
     3
 72
     8
 73
     4
 74
     0
 42
0.000000001
 43
0.00000001
 40
0.0
 40
0.0
 40
0.0
 40
0.0
 40
1.0
 40
1.0
 40
1.0
 40
1.0
 10
146.3168327951844
 20
110.4285690133772
 30
0.0
 10
145.9684313905042
 20
110.8665443397911
 30
0.0
 10
145.6238630052713
 20
111.3096274783759
 30
0.0
 10
145.2854787059505
 20
111.7630185502245
 30
0.0
  0
ARC
  5
16C
330
1F
100
AcDbEntity
  8
0
  6
Continuous
 62
     7
370
    25
100
AcDbCircle
 10
144.1326349906
 20
115.3182762931
 30
0.0
 40
3.737500000000006
100
AcDbArc
 50
287.9660359156
 51
0.0
  0
ARC
  5
16D
330
1F
100
AcDbEntity
  8
0
  6
Continuous
 62
     7
370
    25
100
AcDbCircle
 10
144.1326349906
 20
115.3182762931
 30
0.0
 40
3.737500000000011
100
AcDbArc
 50
180.0
 51
206.113804444
  0
SPLINE
  5
16E
330
1F
100
AcDbEntity
  8
0
  6
Continuous
 62
     7
370
    25
100
AcDbSpline
210
0.0
220
0.0
230
1.0
 70
     8
 71
     3
 72
    10
 73
     6
 74
     0
 42
0.000000001
 43
0.00000001
 40
0.0
 40
0.0
 40
0.0
 40
0.0
 40
0.5
 40
0.5
 40
1.0
 40
1.0
 40
1.0
 40
1.0
 10
140.7766531831615
 20
113.6731950312278
 30
0.0
 10
140.5997680367381
 20
113.3747447158712
 30
0.0
 10
140.4142186618607
 20
113.0957520117438
 30
0.0
 10
140.0362697218131
 20
112.5504327176181
 30
0.0
 10
139.8434831796339
 20
112.2850973317966
 30
0.0
 10
139.6484371860447
 20
112.0233782075467
 30
0.0
  0
SPLINE
  5
16F
330
1F
100
AcDbEntity
  8
0
  6
Continuous
 62
     7
370
    25
100
AcDbSpline
210
0.0
220
0.0
230
1.0
 70
     8
 71
     3
 72
     8
 73
     4
 74
     0
 42
0.000000001
 43
0.00000001
 40
0.0
 40
0.0
 40
0.0
 40
0.0
 40
1.0
 40
1.0
 40
1.0
 40
1.0
 10
141.1076349906149
 20
113.1232179225411
 30
0.0
 10
140.9893382311849
 20
113.2862421509995
 30
0.0
 10
140.8779097490135
 20
113.466630650022
 30
0.0
 10
140.7766531831615
 20
113.6731950312278
 30
0.0
  0
LINE
  5
170
330
1F
100
AcDbEntity
  8
0
  6
Continuous
 62
     7
370
    25
100
AcDbLine
 10
141.1076349906
 20
86.3706810289
 30
0.0
 11
141.1076349906
 21
113.1232179225
 31
0.0
  0
SPLINE
  5
171
330
1F
100
AcDbEntity
  8
0
  6
Continuous
 62
     7
370
    25
100
AcDbSpline
210
0.0
220
0.0
230
1.0
 70
     8
 71
     3
 72
     8
 73
     4
 74
     0
 42
0.000000001
 43
0.00000001
 40
0.0
 40
0.0
 40
0.0
 40
0.0
 40
1.0
 40
1.0
 40
1.0
 40
1.0
 10
145.2854787059508
 20
111.7630185502253
 30
0.0
 10
145.1439406176689
 20
111.7171227791282
 30
0.0
 10
145.001330148932
 20
111.6801819281909
 30
0.0
 10
144.857634990615
 20
111.6517682472503
 30
0.0
  0
LINE
  5
172
330
1F
100
AcDbEntity
  8
0
  6
Continuous
 62
     7
370
    25
100
AcDbLine
 10
144.8576349906
 20
86.3706810289
 30
0.0
 11
144.8576349906
 21
111.6517682473
 31
0.0
  0
SPLINE
  5
173
330
1F
100
AcDbEntity
  8
0
  6
Continuous
 62
     7
370
    25
100
AcDbSpline
210
0.0
220
0.0
230
1.0
 70
     8
 71
     3
 72
    14
 73
    10
 74
     0
 42
0.000000001
 43
0.00000001
 40
0.0
 40
0.0
 40
0.0
 40
0.0
 40
0.25
 40
0.25
 40
0.5
 40
0.5
 40
0.75
 40
0.75
 40
1.0
 40
1.0
 40
1.0
 40
1.0
 10
142.1076349906148
 20
112.1768942325684
 30
0.0
 10
141.9732869042583
 20
112.263497794196
 30
0.0
 10
141.8501102304024
 20
112.3549661915194
 30
0.0
 10
141.6213636254843
 20
112.5461575781503
 30
0.0
 10
141.5194416615171
 20
112.6430194302912
 30
0.0
 10
141.3400182590884
 20
112.8308940450265
 30
0.0
 10
141.2635769709056
 20
112.9211293963778
 30
0.0
 10
141.1462869980555
 20
113.0689357603552
 30
0.0
 10
141.1076349906148
 20
113.1232179225411
 30
0.0
 10
141.1076349906148
 20
113.1232179225411
 30
0.0
  0
SPLINE
  5
174
330
1F
100
AcDbEntity
  8
0
  6
Continuous
 62
     7
370
    25
100
AcDbSpline
210
0.0
220
0.0
230
1.0
 70
     8
 71
     3
 72
    14
 73
    10
 74
     0
 42
0.000000001
 43
0.00000001
 40
0.0
 40
0.0
 40
0.0
 40
0.0
 40
0.25
 40
0.25
 40
0.5
 40
0.5
 40
0.75
 40
0.75
 40
1.0
 40
1.0
 40
1.0
 40
1.0
 10
144.8576349906149
 20
111.6517682472509
 30
0.0
 10
144.8576349906151
 20
111.6517682472509
 30
0.0
 10
144.8317184680439
 20
111.6463915162625
 30
0.0
 10
144.7322736214664
 20
111.6288469286621
 30
0.0
 10
144.6599752290542
 20
111.6169975250158
 30
0.0
 10
144.4752713345303
 20
111.5953537070155
 30
0.0
 10
144.3656940726543
 20
111.5860644463311
 30
0.0
 10
144.1223638944362
 20
111.5788089099735
 30
0.0
 10
143.9908276355161
 20
111.5810803161329
 30
0.0
 10
143.8576349906148
 20
111.5909070800661
 30
0.0
  0
SPLINE
  5
175
330
1F
100
AcDbEntity
  8
0
  6
Continuous
 62
     7
370
    25
100
AcDbSpline
210
0.0
220
0.0
230
1.0
 70
     8
 71
     3
 72
    10
 73
     6
 74
     0
 42
0.000000001
 43
0.00000001
 40
0.0
 40
0.0
 40
0.0
 40
0.0
 40
0.5
 40
0.5
 40
1.0
 40
1.0
 40
1.0
 40
1.0
 10
143.8576349906148
 20
111.5909070800661
 30
0.0
 10
143.5451710883267
 20
111.6139602224352
 30
0.0
 10
143.2422821063289
 20
111.6751949248416
 30
0.0
 10
142.6549389215248
 20
111.8713668887655
 30
0.0
 10
142.3704712609529
 20
112.0074645238653
 30
0.0
 10
142.1076349906148
 20
112.1768942325684
 30
0.0
  0
LINE
  5
176
330
1F
100
AcDbEntity
  8
0
  6
Continuous
 62
     7
370
    25
100
AcDbLine
 10
133.0826349906
 20
142.1682762931
 30
0.0
 11
133.4166736766
 21
141.1088409327
 31
0.0
  0
LINE
  5
177
330
1F
100
AcDbEntity
  8
0
  6
Continuous
 62
     7
370
    25
100
AcDbLine
 10
133.0826349906
 20
142.1682762931
 30
0.0
 11
133.0826349906
 21
140.1929875597
 31
0.0
  0
ARC
  5
178
330
1F
100
AcDbEntity
  8
0
  6
Continuous
 62
     7
370
    25
100
AcDbCircle
 10
132.653700116
 20
140.8682762931
 30
0.0
 40
0.799999999999991
100
AcDbArc
 50
252.5
 51
17.5
  0
LINE
  5
179
330
1F
100
AcDbEntity
  8
0
  6
Continuous
 62
     7
370
    25
100
AcDbLine
 10
131.9224529506
 20
90.3765382475
 30
0.0
 11
131.9224529506
 21
115.3182762931
 31
0.0
  0
LINE
  5
17A
330
1F
100
AcDbEntity
  8
0
  6
Continuous
 62
     7
370
    25
100
AcDbLine
 10
132.4131354764
 20
140.1053027325
 30
0.0
 11
131.9224529506
 21
140.2600143386
 31
0.0
  0
SPLINE
  5
17B
330
1F
100
AcDbEntity
  8
0
  6
Continuous
 62
     7
370
    25
100
AcDbSpline
210
0.0
220
0.0
230
1.0
 70
     8
 71
     3
 72
    23
 73
    19
 74
     0
 42
0.000000001
 43
0.00000001
 40
0.0
 40
0.0
 40
0.0
 40
0.0
 40
0.0014604812709578
 40
0.0696150530453895
 40
0.1372664155517294
 40
0.203970108170841
 40
0.2703009355134169
 40
0.3365574227929785
 40
0.402868380892655
 40
0.4678692457983379
 40
0.5326412087581115
 40
0.5993596676726527
 40
0.6655231146104393
 40
0.732116941975078
 40
0.7988868443755317
 40
0.8663366769539985
 40
0.9345228517281802
 40
1.0
 40
1.0
 40
1.0
 40
1.0
 10
102.8424253086682
 20
138.7425448814783
 30
0.0
 10
102.8435804374552
 20
138.7421885096782
 30
0.0
 10
102.8986406106867
 20
138.7252017517742
 30
0.0
 10
103.2950580352217
 20
138.6079363964031
 30
0.0
 10
104.0111079061355
 20
138.4073287049939
 30
0.0
 10
105.0207896823109
 20
138.1667130566685
 30
0.0
 10
106.2367672974959
 20
137.9394409573354
 30
0.0
 10
107.6409673985099
 20
137.7670514058177
 30
0.0
 10
109.1580314768982
 20
137.67898310915
 30
0.0
 10
110.7323293266237
 20
137.7100307680441
 30
0.0
 10
112.2981495526601
 20
137.8610540077533
 30
0.0
 10
113.7880066221745
 20
138.1153908063258
 30
0.0
 10
115.1596868145164
 20
138.433127584982
 30
0.0
 10
116.3456099082349
 20
138.7770440051164
 30
0.0
 10
117.3232092522432
 20
139.104886605425
 30
0.0
 10
118.0427204038335
 20
139.3738110349087
 30
0.0
 10
118.515355405536
 20
139.5564003705304
 30
0.0
 10
118.5728265198892
 20
139.5796487631152
 30
0.0
 10
118.6009796780637
 20
139.5910373655655
 30
0.0
  0
LINE
  5
17C
330
1F
100
AcDbEntity
  8
0
  6
Continuous
 62
     7
370
    25
100
AcDbLine
 10
102.6830691054
 20
138.7916726546
 30
0.0
 11
94.6326349906
 21
138.3873964206
 31
0.0
  0
LINE
  5
17D
330
1F
100
AcDbEntity
  8
0
  6
Continuous
 62
     7
370
    25
100
AcDbLine
 10
94.6326349906
 20
92.2491561655
 30
0.0
 11
94.6326349906
 21
106.1961532585
 31
0.0
  0
SPLINE
  5
17E
330
1F
100
AcDbEntity
  8
0
  6
Continuous
 62
     7
370
    25
100
AcDbSpline
210
0.0
220
0.0
230
1.0
 70
     8
 71
     3
 72
     8
 73
     4
 74
     0
 42
0.000000001
 43
0.00000001
 40
0.0
 40
0.0
 40
0.0
 40
0.0
 40
1.0
 40
1.0
 40
1.0
 40
1.0
 10
100.4508094435618
 20
106.2007393167601
 30
0.0
 10
98.51141795925037
 20
106.1985932209105
 30
0.0
 10
96.57202647493894
 20
106.1969970343857
 30
0.0
 10
94.63263499062754
 20
106.19594958191
 30
0.0
  0
SPLINE
  5
17F
330
1F
100
AcDbEntity
  8
0
  6
Continuous
 62
     7
370
    25
100
AcDbSpline
210
0.0
220
0.0
230
1.0
 70
     8
 71
     3
 72
    13
 73
     9
 74
     0
 42
0.000000001
 43
0.00000001
 40
0.0
 40
0.0
 40
0.0
 40
0.0
 40
0.1686319999748085
 40
0.3360343310905433
 40
0.502536782590866
 40
0.6684737453788339
 40
0.834182263691515
 40
1.0
 40
1.0
 40
1.0
 40
1.0
 10
101.5343044930287
 20
106.3381957625778
 30
0.0
 10
101.474814596969
 20
106.3236814425389
 30
0.0
 10
101.3562686066939
 20
106.2947586412543
 30
0.0
 10
101.1763919111081
 20
106.2607972478461
 30
0.0
 10
100.99600162348
 20
106.2339316854871
 30
0.0
 10
100.8148894514462
 20
106.2149727483791
 30
0.0
 10
100.6331286142788
 20
106.2030422969835
 30
0.0
 10
100.5115958463841
 20
106.2015071454146
 30
0.0
 10
100.4508094435618
 20
106.2007393167601
 30
0.0
  0
SPLINE
  5
180
330
1F
100
AcDbEntity
  8
0
  6
Continuous
 62
     7
370
    25
100
AcDbSpline
210
0.0
220
0.0
230
1.0
 70
     8
 71
     3
 72
     8
 73
     4
 74
     0
 42
0.000000001
 43
0.00000001
 40
0.0
 40
0.0
 40
0.0
 40
0.0
 40
1.0
 40
1.0
 40
1.0
 40
1.0
 10
106.9264979095216
 20
106.3424338044632
 30
0.0
 10
105.1291032380838
 20
106.3405627439392
 30
0.0
 10
103.3317085666459
 20
106.3391405629151
 30
0.0
 10
101.5343138952081
 20
106.3381664399191
 30
0.0
  0
SPLINE
  5
181
330
1F
100
AcDbEntity
  8
0
  6
Continuous
 62
     7
370
    25
100
AcDbSpline
210
0.0
220
0.0
230
1.0
 70
     8
 71
     3
 72
    18
 73
    14
 74
     0
 42
0.000000001
 43
0.00000001
 40
0.0
 40
0.0
 40
0.0
 40
0.0
 40
0.0923325137111192
 40
0.1843692047063016
 40
0.2763458873810836
 40
0.3684982175655623
 40
0.4610598988303626
 40
0.554260954653301
 40
0.6483261285442131
 40
0.74347346365053
 40
0.8399130993119804
 40
0.9201660718299768
 40
1.0
 40
1.0
 40
1.0
 40
1.0
 10
109.1228195581239
 20
105.8082415686195
 30
0.0
 10
109.0524892546108
 20
105.8086581930511
 30
0.0
 10
108.9120539777589
 20
105.8094901070978
 30
0.0
 10
108.7016914512563
 20
105.8230989540124
 30
0.0
 10
108.4922477883399
 20
105.845765711384
 30
0.0
 10
108.2836981179674
 20
105.8783665011847
 30
0.0
 10
108.0760545006922
 20
105.920668979805
 30
0.0
 10
107.8693163131526
 20
105.9727403784602
 30
0.0
 10
107.6634942211877
 20
106.0345891513056
 30
0.0
 10
107.4585625423956
 20
106.1061871627618
 30
0.0
 10
107.2670817969999
 20
106.1827656529892
 30
0.0
 10
107.0893586449452
 20
106.2613769018222
 30
0.0
 10
106.9810246503812
 20
106.3152910576096
 30
0.0
 10
106.926999440928
 20
106.3421775725086
 30
0.0
  0
LINE
  5
182
330
1F
100
AcDbEntity
  8
0
  6
Continuous
 62
     7
370
    25
100
AcDbLine
 10
111.0376928374
 20
105.8097370035
 30
0.0
 11
109.1228195581
 21
105.8082415686
 31
0.0
  0
SPLINE
  5
183
330
1F
100
AcDbEntity
  8
0
  6
Continuous
 62
     7
370
    25
100
AcDbSpline
210
0.0
220
0.0
230
1.0
 70
     8
 71
     3
 72
    25
 73
    21
 74
     0
 42
0.000000001
 43
0.00000001
 40
0.0
 40
0.0
 40
0.0
 40
0.0
 40
0.0280105225422753
 40
0.0559601148854256
 40
0.0839014045034749
 40
0.1118870776777086
 40
0.1399695827579646
 40
0.1682008401731476
 40
0.1966319670417595
 40
0.2253130233137476
 40
0.2542927850735311
 40
0.3799486436564626
 40
0.5057850221666382
 40
0.631308588631066
 40
0.7532068238011618
 40
0.8039473267946936
 40
0.8535894438541253
 40
0.9025339722380873
 40
0.9511970353782256
 40
1.0
 40
1.0
 40
1.0
 40
1.0
 10
115.9775771438162
 20
110.9436008079948
 30
0.0
 10
115.9776143655501
 20
110.8689807809824
 30
0.0
 10
115.9776887280507
 20
110.7199030449969
 30
0.0
 10
115.9652726774041
 20
110.4972849540327
 30
0.0
 10
115.9436681170503
 20
110.2759605360053
 30
0.0
 10
115.9119826473903
 20
110.0559922701174
 30
0.0
 10
115.8704565090704
 20
109.8374019828883
 30
0.0
 10
115.8190257533405
 20
109.6202200444833
 30
0.0
 10
115.7577118786293
 20
109.404478624597
 30
0.0
 10
115.6865015431298
 20
109.1901887331449
 30
0.0
 10
115.5156649359287
 20
108.7418389601239
 30
0.0
 10
115.1779327024926
 20
108.0885081320518
 30
0.0
 10
114.5663780382979
 20
107.3166149214156
 30
0.0
 10
113.8301432031454
 20
106.6724552960304
 30
0.0
 10
113.1436571315011
 20
106.2808141279684
 30
0.0
 10
112.5949529853523
 20
106.0621192269953
 30
0.0
 10
112.2129168068507
 20
105.9462631781649
 30
0.0
 10
111.8257507081462
 20
105.865355272635
 30
0.0
 10
111.433524039356
 20
105.8161268418373
 30
0.0
 10
111.1697627712373
 20
105.811868986822
 30
0.0
 10
111.0376928374134
 20
105.8097370034793
 30
0.0
  0
LINE
  5
184
330
1F
100
AcDbEntity
  8
0
  6
Continuous
 62
     7
370
    25
100
AcDbLine
 10
115.9775771438
 20
115.3182762931
 30
0.0
 11
115.9775771438
 21
110.943600808
 31
0.0
  0
LINE
  5
185
330
1F
100
AcDbEntity
  8
0
  6
Continuous
 62
     7
370
    25
100
AcDbLine
 10
131.9224529506
 20
140.2600143386
 30
0.0
 11
118.6009796781
 21
139.5910373656
 31
0.0
  0
SPLINE
  5
186
330
1F
100
AcDbEntity
  8
0
  6
Continuous
 62
     7
370
    25
100
AcDbSpline
210
0.0
220
0.0
230
1.0
 70
     8
 71
     3
 72
    20
 73
    16
 74
     0
 42
0.000000001
 43
0.00000001
 40
0.0
 40
0.0
 40
0.0
 40
0.0
 40
0.0829621378684852
 40
0.1658495135106163
 40
0.2487180070857354
 40
0.329947721639852
 40
0.4108693994445731
 40
0.4941953814850557
 40
0.576890167662622
 40
0.660106581055777
 40
0.7435845489350846
 40
0.8279858465401878
 40
0.9132590745392875
 40
0.9972257035811795
 40
1.0
 40
1.0
 40
1.0
 40
1.0
 10
104.9950510853418
 20
92.45501592555661
 30
0.0
 10
105.3807969214131
 20
92.53193435216075
 30
0.0
 10
106.1519409745302
 20
92.68570188949833
 30
0.0
 10
107.5596891257001
 20
92.86161711088387
 30
0.0
 10
109.0675404935747
 20
92.9556133982129
 30
0.0
 10
110.6400294685925
 20
92.93176901634631
 30
0.0
 10
112.2073264998046
 20
92.7878639714457
 30
0.0
 10
113.7031025265861
 20
92.53880636864668
 30
0.0
 10
115.0833564022588
 20
92.22412567610805
 30
0.0
 10
116.2809505853144
 20
91.87986432412751
 30
0.0
 10
117.2678126151367
 20
91.55081709830776
 30
0.0
 10
118.0150508613347
 20
91.2723561901
 30
0.0
 10
118.4622522907002
 20
91.10050039506838
 30
0.0
 10
118.6490069028503
 20
91.02664972346996
 30
0.0
 10
118.597908688952
 20
91.04680101454306
 30
0.0
 10
118.5962743786069
 20
91.0474455275496
 30
0.0
  0
SPLINE
  5
187
330
1F
100
AcDbEntity
  8
0
  6
Continuous
 62
     7
370
    25
100
AcDbSpline
210
0.0
220
0.0
230
1.0
 70
     8
 71
     3
 72
    11
 73
     7
 74
     0
 42
0.000000001
 43
0.00000001
 40
0.0
 40
0.0
 40
0.0
 40
0.0
 40
0.2435512231731388
 40
0.4981153923403536
 40
0.7509097881719451
 40
1.0
 40
1.0
 40
1.0
 40
1.0
 10
102.6875569675982
 20
91.84635371617347
 30
0.0
 10
102.7135078891234
 20
91.85458925271163
 30
0.0
 10
102.7665831859286
 20
91.87143272186111
 30
0.0
 10
103.244278169591
 20
92.01233416399862
 30
0.0
 10
103.9556176178578
 20
92.21762471444683
 30
0.0
 10
104.6502822650325
 20
92.37627583264404
 30
0.0
 10
104.9950510853418
 20
92.45501592555661
 30
0.0
  0
LINE
  5
188
330
1F
100
AcDbEntity
  8
0
  6
Continuous
 62
     7
370
    25
100
AcDbLine
 10
115.9775771438
 20
110.943600808
 30
0.0
 11
115.0826349906
 21
111.1057762931
 31
0.0
  0
LINE
  5
189
330
1F
100
AcDbEntity
  8
0
  6
Continuous
 62
     7
370
    25
100
AcDbLine
 10
115.0826349906
 20
111.1057762931
 30
0.0
 11
115.0826349906
 21
115.3182762931
 31
0.0
  0
SPLINE
  5
18A
330
1F
100
AcDbEntity
  8
0
  6
Continuous
 62
     7
370
    25
100
AcDbSpline
210
0.0
220
0.0
230
1.0
 70
     8
 71
     3
 72
    25
 73
    21
 74
     0
 42
0.000000001
 43
0.00000001
 40
0.0
 40
0.0
 40
0.0
 40
0.0
 40
0.0288821753116583
 40
0.0583636594024247
 40
0.088464720432864
 40
0.1192044006641432
 40
0.1506005800108822
 40
0.1826700399688414
 40
0.2154285269587146
 40
0.2488908143380118
 40
0.3610594471217245
 40
0.498467013106778
 40
0.5822693905006526
 40
0.6661127642782239
 40
0.7499972937224496
 40
0.8007709755032478
 40
0.8511237700807983
 40
0.901089602450676
 40
0.9507031914109089
 40
1.0
 40
1.0
 40
1.0
 40
1.0
 10
111.0826349906148
 20
107.1057762930634
 30
0.0
 10
111.1454354438535
 20
107.1066327770153
 30
0.0
 10
111.2723394676534
 20
107.1083635170689
 30
0.0
 10
111.4636938753679
 20
107.1225133824727
 30
0.0
 10
111.6575986880465
 20
107.1456504647942
 30
0.0
 10
111.8534994087749
 20
107.1790616170196
 30
0.0
 10
112.0508370767791
 20
107.2229354390523
 30
0.0
 10
112.2489904185642
 20
107.2777307100217
 30
0.0
 10
112.4473061625724
 20
107.3437996713852
 30
0.0
 10
112.798627150075
 20
107.4817810036382
 30
0.0
 10
113.3237389203974
 20
107.7618329424794
 30
0.0
 10
113.860730748883
 20
108.2004235448878
 30
0.0
 10
114.2727904789214
 20
108.6742836664344
 30
0.0
 10
114.5597090669739
 20
109.1059674142543
 30
0.0
 10
114.7581357541811
 20
109.5090906560144
 30
0.0
 10
114.8902216282294
 20
109.8668268167934
 30
0.0
 10
114.9758555080272
 20
110.1695792190757
 30
0.0
 10
115.0369377193802
 20
110.4780675293214
 30
0.0
 10
115.0754386627457
 20
110.7903792394778
 30
0.0
 10
115.0802413418392
 20
111.0008686533792
 30
0.0
 10
115.0826349906148
 20
111.1057762930634
 30
0.0
  0
ARC
  5
18B
330
1F
100
AcDbEntity
  8
0
  6
Continuous
 62
     7
370
    25
100
AcDbCircle
 10
154.0826349906
 20
138.8182762931
 30
0.0
 40
3.000000000000028
100
AcDbArc
 50
180.0
 51
270.0
  0
SPLINE
  5
18C
330
1F
100
AcDbEntity
  8
0
  6
Continuous
 62
     7
370
    25
100
AcDbSpline
210
0.0
220
0.0
230
1.0
 70
     8
 71
     3
 72
    13
 73
     9
 74
     0
 42
0.000000001
 43
0.00000001
 40
0.0
 40
0.0
 40
0.0
 40
0.0
 40
0.1722587823678385
 40
0.3421398271425444
 40
0.5097456258111679
 40
0.6751828993453325
 40
0.8385626190248169
 40
1.0
 40
1.0
 40
1.0
 40
1.0
 10
108.0826533595251
 20
107.2557711158132
 30
0.0
 10
108.1435167491976
 20
107.2395073881137
 30
0.0
 10
108.264403413643
 20
107.207204425633
 30
0.0
 10
108.4474645716154
 20
107.1698167709393
 30
0.0
 10
108.6295672545561
 20
107.1406838360293
 30
0.0
 10
108.8105087028727
 20
107.1204971204239
 30
0.0
 10
108.989847706569
 20
107.1080503161232
 30
0.0
 10
109.1086939349824
 20
107.1065312728958
 30
0.0
 10
109.1677617113253
 20
107.1057762930634
 30
0.0
  0
LINE
  5
18D
330
1F
100
AcDbEntity
  8
0
  6
Continuous
 62
     7
370
    25
100
AcDbLine
 10
109.1228195581
 20
105.8082415686
 30
0.0
 11
109.1677617113
 21
107.1057762931
 31
0.0
  0
SPLINE
  5
18E
330
1F
100
AcDbEntity
  8
0
  6
Continuous
 62
     7
370
    25
100
AcDbSpline
210
0.0
220
0.0
230
1.0
 70
     8
 71
     3
 72
    11
 73
     7
 74
     0
 42
0.000000001
 43
0.00000001
 40
0.0
 40
0.0
 40
0.0
 40
0.0
 40
0.2392913844325938
 40
0.5001130135003002
 40
0.7515028526498353
 40
0.9999999999999999
 40
0.9999999999999999
 40
0.9999999999999999
 40
0.9999999999999999
 10
107.7551624984688
 20
107.2563498980866
 30
0.0
 10
107.6863375625219
 20
107.1847964609319
 30
0.0
 10
107.5424951663487
 20
107.0352515654206
 30
0.0
 10
107.3347463679821
 20
106.8063341387751
 30
0.0
 10
107.126760163361
 20
106.5740157665353
 30
0.0
 10
106.9937592395908
 20
106.419239883944
 30
0.0
 10
106.9276435953663
 20
106.3422997627942
 30
0.0
  0
SPLINE
  5
18F
330
1F
100
AcDbEntity
  8
0
  6
Continuous
 62
     7
370
    25
100
AcDbSpline
210
0.0
220
0.0
230
1.0
 70
    24
 71
     3
 72
     9
 73
     5
 74
     0
 42
0.000000001
 43
0.00000001
 40
0.0
 40
0.0
 40
0.0
 40
0.0
 40
0.509083966986604
 40
1.0
 40
1.0
 40
1.0
 40
1.0
 10
107.7573927667883
 20
107.2557762930634
 30
0.0
 10
107.8121261669007
 20
107.2557762930634
 30
0.0
 10
107.9196396689195
 20
107.2557762930634
 30
0.0
 10
108.0290322292905
 20
107.2557762930634
 30
0.0
 10
108.0827347910689
 20
107.2557762930634
 30
0.0
  0
LINE
  5
190
330
1F
100
AcDbEntity
  8
0
  6
Continuous
 62
     7
370
    25
100
AcDbLine
 10
101.5087849022
 20
107.2357245193
 30
0.0
 11
101.5341993938
 21
106.3381663487
 31
0.0
  0
SPLINE
  5
191
330
1F
100
AcDbEntity
  8
0
  6
Continuous
 62
     7
370
    25
100
AcDbSpline
210
0.0
220
0.0
230
1.0
 70
     8
 71
     3
 72
     8
 73
     4
 74
     0
 42
0.000000001
 43
0.00000001
 40
0.0
 40
0.0
 40
0.0
 40
0.0
 40
1.0
 40
1.0
 40
1.0
 40
1.0
 10
101.508796093343
 20
107.2357250094026
 30
0.0
 10
101.530598949825
 20
107.2414223404353
 30
0.0
 10
101.5523536592225
 20
107.2473039232303
 30
0.0
 10
101.5740571145406
 20
107.2533689177834
 30
0.0
  0
LINE
  5
192
330
1F
100
AcDbEntity
  8
0
  6
Continuous
 62
     7
370
    25
100
AcDbLine
 10
101.5826349907
 20
107.2557762931
 30
0.0
 11
107.756307963
 21
107.2557762931
 31
0.0
  0
LINE
  5
193
330
1F
100
AcDbEntity
  8
0
  6
Continuous
 62
     7
370
    25
100
AcDbLine
 10
109.1677617113
 20
107.1057762931
 30
0.0
 11
111.0826349906
 21
107.1057762931
 31
0.0
  0
SPLINE
  5
194
330
1F
100
AcDbEntity
  8
0
  6
Continuous
 62
     7
370
    25
100
AcDbSpline
210
0.0
220
0.0
230
1.0
 70
     8
 71
     3
 72
    13
 73
     9
 74
     0
 42
0.000000001
 43
0.00000001
 40
0.0
 40
0.0
 40
0.0
 40
0.0
 40
0.1621004456571512
 40
0.325943455157606
 40
0.4915935308260523
 40
0.6591130873964648
 40
0.8285624736043361
 40
1.0
 40
1.0
 40
1.0
 40
1.0
 10
100.4975082699042
 20
107.1057762930634
 30
0.0
 10
100.5530632279698
 20
107.1064452592647
 30
0.0
 10
100.6647703544346
 20
107.107790382988
 30
0.0
 10
100.8326180438283
 20
107.1187369517794
 30
0.0
 10
101.0014044626967
 20
107.1363758811001
 30
0.0
 10
101.1707288192285
 20
107.1616813950879
 30
0.0
 10
101.3404754674059
 20
107.1939853978809
 30
0.0
 10
101.4524683660635
 20
107.2217569977669
 30
0.0
 10
101.5087914010933
 20
107.2357237832682
 30
0.0
  0
LINE
  5
195
330
1F
100
AcDbEntity
  8
0
  6
Continuous
 62
     7
370
    25
100
AcDbLine
 10
93.718975169
 20
106.5782745491
 30
0.0
 11
94.6326349906
 21
107.1057762931
 31
0.0
  0
LINE
  5
196
330
1F
100
AcDbEntity
  8
0
  6
Continuous
 62
     7
370
    25
100
AcDbLine
 10
94.6326349907
 20
107.1057762931
 30
0.0
 11
100.4975082699
 21
107.1057762931
 31
0.0
  0
SPLINE
  5
197
330
1F
100
AcDbEntity
  8
0
  6
Continuous
 62
     7
370
    25
100
AcDbSpline
210
0.0
220
0.0
230
1.0
 70
     8
 71
     3
 72
     8
 73
     4
 74
     0
 42
0.000000001
 43
0.00000001
 40
0.0
 40
0.0
 40
0.0
 40
0.0
 40
1.0
 40
1.0
 40
1.0
 40
1.0
 10
94.63263499016384
 20
106.1959495816874
 30
0.0
 10
94.32808171645831
 20
106.3246404462342
 30
0.0
 10
94.02352844275278
 20
106.4520852024959
 30
0.0
 10
93.71897516904725
 20
106.5782745491337
 30
0.0
  0
LINE
  5
198
330
1F
100
AcDbEntity
  8
0
  6
Continuous
 62
     7
370
    25
100
AcDbLine
 10
93.1326349906
 20
93.1151815693
 30
0.0
 11
93.1326349906
 21
106.2397508893
 31
0.0
  0
SPLINE
  5
199
330
1F
100
AcDbEntity
  8
0
  6
Continuous
 62
     7
370
    25
100
AcDbSpline
210
0.0
220
0.0
230
1.0
 70
    24
 71
     3
 72
     8
 73
     4
 74
     0
 42
0.000000001
 43
0.00000001
 40
0.0
 40
0.0
 40
0.0
 40
0.0
 40
1.0
 40
1.0
 40
1.0
 40
1.0
 10
93.71897516904724
 20
106.5782745491337
 30
0.0
 10
93.5226431433889
 20
106.4649222012693
 30
0.0
 10
93.32718212314867
 20
106.3520727286175
 30
0.0
 10
93.13263499061478
 20
106.239750889279
 30
0.0
  0
LINE
  5
19A
330
1F
100
AcDbEntity
  8
0
  6
Continuous
 62
     7
370
    25
100
AcDbLine
 10
162.2578160459
 20
94.8182762931
 30
0.0
 11
162.2578160459
 21
115.3182762931
 31
0.0
  0
LINE
  5
19B
330
1F
100
AcDbEntity
  8
0
  6
Continuous
 62
     7
370
    25
100
AcDbLine
 10
211.2395531821
 20
131.9633299772
 30
0.0
 11
162.2578160459
 21
135.8182762931
 31
0.0
  0
LINE
  5
19C
330
1F
100
AcDbEntity
  8
0
  6
Continuous
 62
     7
370
    25
100
AcDbLine
 10
162.2578160459
 20
135.8182762931
 30
0.0
 11
154.0826349906
 21
135.8182762931
 31
0.0
  0
LINE
  5
19D
330
1F
100
AcDbEntity
  8
0
  6
Continuous
 62
     7
370
    25
100
AcDbLine
 10
124.8578754642
 20
133.5682762931
 30
0.0
 11
126.2826349906
 21
133.5682762931
 31
0.0
  0
ARC
  5
19E
330
1F
100
AcDbEntity
  8
0
  6
Continuous
 62
     7
370
    25
100
AcDbCircle
 10
126.2826349906
 20
132.7682762931
 30
0.0
 40
0.8000000000000114
100
AcDbArc
 50
0.0
 51
90.0
  0
ARC
  5
19F
330
1F
100
AcDbEntity
  8
0
  6
Continuous
 62
     7
370
    25
100
AcDbCircle
 10
124.8578754642
 20
132.7682762931
 30
0.0
 40
0.8000000000000114
100
AcDbArc
 50
90.0
 51
120.0
  0
LINE
  5
1A0
330
1F
100
AcDbEntity
  8
0
  6
Continuous
 62
     7
370
    25
100
AcDbLine
 10
123.5826349906
 20
132.9557762931
 30
0.0
 11
123.5826349906
 21
115.3182762931
 31
0.0
  0
LINE
  5
1A1
330
1F
100
AcDbEntity
  8
0
  6
Continuous
 62
     7
370
    25
100
AcDbLine
 10
123.5826349906
 20
132.9557762931
 30
0.0
 11
124.4578754642
 21
133.4610966161
 31
0.0
  0
LINE
  5
1A2
330
1F
100
AcDbEntity
  8
0
  6
Continuous
 62
     7
370
    25
100
AcDbLine
 10
93.8843010405
 20
106.6737254855
 30
0.0
 11
93.7478322681
 21
106.594935203
 31
0.0
  0
SPLINE
  5
1A3
330
1F
100
AcDbEntity
  8
0
  6
Continuous
 62
     7
370
    25
100
AcDbSpline
210
0.0
220
0.0
230
1.0
 70
     8
 71
     3
 72
    32
 73
    28
 74
     0
 42
0.000000001
 43
0.00000001
 40
0.0
 40
0.0
 40
0.0
 40
0.0
 40
0.1249999999999992
 40
0.1249999999999992
 40
0.1874999999999991
 40
0.1874999999999991
 40
0.2499999999999991
 40
0.2499999999999991
 40
0.3124999999999991
 40
0.3124999999999991
 40
0.3749999999999991
 40
0.3749999999999991
 40
0.4999999999999989
 40
0.4999999999999989
 40
0.562499999999999
 40
0.562499999999999
 40
0.6249999999999991
 40
0.6249999999999991
 40
0.7499999999999992
 40
0.7499999999999992
 40
0.8124999999999993
 40
0.8124999999999993
 40
0.8749999999999996
 40
0.8749999999999996
 40
0.9374999999999999
 40
0.9374999999999999
 40
1.0
 40
1.0
 40
1.0
 40
1.0
 10
107.5502653219554
 20
131.490945047273
 30
0.0
 10
107.0661910780014
 20
131.4913044398926
 30
0.0
 10
106.5827935074345
 20
131.5062636460739
 30
0.0
 10
105.8588881576985
 20
131.5532476925825
 30
0.0
 10
105.6182257241617
 20
131.5730242477071
 30
0.0
 10
105.146879615086
 20
131.6199883312062
 30
0.0
 10
104.9150437987958
 20
131.6472421803907
 30
0.0
 10
104.4593407122395
 20
131.7088701090033
 30
0.0
 10
104.2354723892981
 20
131.7432452097987
 30
0.0
 10
103.7961447972903
 20
131.8185646534518
 30
0.0
 10
103.5794274046239
 20
131.8597826042001
 30
0.0
 10
102.9530854259511
 20
131.9900194233808
 30
0.0
 10
102.5686927915977
 20
132.08505933528
 30
0.0
 10
102.0411510459778
 20
132.2313262972325
 30
0.0
 10
101.8735168944467
 20
132.2806949324231
 30
0.0
 10
101.5551121472062
 20
132.3790986399234
 30
0.0
 10
101.405531272667
 20
132.4277819045559
 30
0.0
 10
100.9925112031186
 20
132.5674047077243
 30
0.0
 10
100.7609594319595
 20
132.6529913863048
 30
0.0
 10
100.4776499168698
 20
132.7619544342209
 30
0.0
 10
100.394082235098
 20
132.7950030867953
 30
0.0
 10
100.2521574027738
 20
132.8520064830357
 30
0.0
 10
100.1931692913313
 20
132.8762031886461
 30
0.0
 10
100.0984533876214
 20
132.9154054690251
 30
0.0
 10
100.0627254204747
 20
132.9304126355222
 30
0.0
 10
100.0147611427573
 20
132.9506216332491
 30
0.0
 10
100.0026348353238
 20
132.9557762930634
 30
0.0
 10
100.0026348353238
 20
132.9557762930634
 30
0.0
  0
SPLINE
  5
1A4
330
1F
100
AcDbEntity
  8
0
  6
Continuous
 62
     7
370
    25
100
AcDbSpline
210
0.0
220
0.0
230
1.0
 70
     8
 71
     3
 72
    31
 73
    27
 74
     0
 42
0.000000001
 43
0.00000001
 40
0.0
 40
0.0
 40
0.0
 40
0.0
 40
0.0161756722762514
 40
0.0323169137831927
 40
0.0484425619887081
 40
0.0645715089965129
 40
0.0807226353345255
 40
0.0969147439454943
 40
0.1131664955259531
 40
0.1294963463054529
 40
0.1459224892616187
 40
0.1624627996348689
 40
0.1791347854483647
 40
0.1959555435640385
 40
0.2945755146277942
 40
0.3932797312250808
 40
0.4928176221933276
 40
0.5924285912823386
 40
0.693902091744817
 40
0.7927115381487353
 40
0.8267756331435523
 40
0.8608043324964888
 40
0.8949846314009914
 40
0.9295010594357863
 40
0.9645328322468294
 40
0.9999999999999999
 40
0.9999999999999999
 40
0.9999999999999999
 40
0.9999999999999999
 10
118.5585843806989
 20
132.9557762930634
 30
0.0
 10
118.5578512802477
 20
132.9554299016355
 30
0.0
 10
118.5563866397882
 20
132.954737856092
 30
0.0
 10
118.5433302601231
 20
132.9491554940456
 30
0.0
 10
118.5223156996003
 20
132.9402887310515
 30
0.0
 10
118.4925684942596
 20
132.9278476303365
 30
0.0
 10
118.454296181604
 20
132.9119569717813
 30
0.0
 10
118.4074435006829
 20
132.8926312279541
 30
0.0
 10
118.3520257706459
 20
132.8699151384346
 30
0.0
 10
118.2880398068154
 20
132.8438461340599
 30
0.0
 10
118.2154863226649
 20
132.8144636866918
 30
0.0
 10
118.1343696251852
 20
132.781809439357
 30
0.0
 10
118.0446759704352
 20
132.7459169923225
 30
0.0
 10
117.7876301237787
 20
132.6436790846558
 30
0.0
 10
117.2595941381858
 20
132.4371548711891
 30
0.0
 10
116.2809594909397
 20
132.1000695578391
 30
0.0
 10
115.0950831880209
 20
131.7569246985113
 30
0.0
 10
113.7246169229476
 20
131.4598127978507
 30
0.0
 10
112.2387596509831
 20
131.2497693701177
 30
0.0
 10
111.018607017218
 20
131.1915439672492
 30
0.0
 10
110.1521829842732
 20
131.2052363085092
 30
0.0
 10
109.6239380557964
 20
131.2306043941203
 30
0.0
 10
109.0991648245902
 20
131.2726270098378
 30
0.0
 10
108.5781755849977
 20
131.3309109730659
 30
0.0
 10
108.0609346399392
 20
131.4035345183113
 30
0.0
 10
107.7252975276054
 20
131.4624148360011
 30
0.0
 10
107.5564425395436
 20
131.4920368145465
 30
0.0
  0
LINE
  5
1A5
330
1F
100
AcDbEntity
  8
0
  6
Continuous
 62
     7
370
    25
100
AcDbLine
 10
118.5585843807
 20
132.9557762931
 30
0.0
 11
123.5826349906
 21
132.9557762931
 31
0.0
  0
LINE
  5
1A6
330
1F
100
AcDbEntity
  8
0
  6
Continuous
 62
     7
370
    25
100
AcDbLine
 10
115.7326349906
 20
119.3810497039
 30
0.0
 11
115.7326349906
 21
115.3182762931
 31
0.0
  0
SPLINE
  5
1A7
330
1F
100
AcDbEntity
  8
0
  6
Continuous
 62
     7
370
    25
100
AcDbSpline
210
0.0
220
0.0
230
1.0
 70
     8
 71
     3
 72
    25
 73
    21
 74
     0
 42
0.000000001
 43
0.00000001
 40
0.0
 40
0.0
 40
0.0
 40
0.0
 40
0.0278144320063462
 40
0.0555680196245754
 40
0.083331625367772
 40
0.111176035216759
 40
0.1391714221532265
 40
0.1673868326284763
 40
0.1958897140434718
 40
0.2247454979318961
 40
0.254017249222145
 40
0.3796724410016501
 40
0.5056484635002454
 40
0.629752729069345
 40
0.7535891720571729
 40
0.8038564806093713
 40
0.853339684343451
 40
0.9023264398358534
 40
0.9511131859219439
 40
1.0
 40
1.0
 40
1.0
 40
1.0
 10
111.0826349906148
 20
123.8657728754284
 30
0.0
 10
111.1512903445771
 20
123.8652397903213
 30
0.0
 10
111.2884508681298
 20
123.8641747862369
 30
0.0
 10
111.4936934507156
 20
123.8510798888447
 30
0.0
 10
111.6980144672126
 20
123.8295414022722
 30
0.0
 10
111.9014155193016
 20
123.7987199304236
 30
0.0
 10
112.1038911501475
 20
123.7588071779161
 30
0.0
 10
112.3054400143952
 20
123.7097069849751
 30
0.0
 10
112.5060540351978
 20
123.6513937374633
 30
0.0
 10
112.7057517995301
 20
123.5838017945965
 30
0.0
 10
113.1213166202094
 20
123.4229882784809
 30
0.0
 10
113.724093036752
 20
123.1090113791395
 30
0.0
 10
114.4181495922569
 20
122.5454399036448
 30
0.0
 10
114.984923221654
 20
121.8696956843908
 30
0.0
 10
115.3225010273253
 20
121.2523338569143
 30
0.0
 10
115.5109634366141
 20
120.7602724174043
 30
0.0
 10
115.6102246541386
 20
120.4226206348579
 30
0.0
 10
115.6805692428455
 20
120.0799894928343
 30
0.0
 10
115.7245678413641
 20
119.7326247923928
 30
0.0
 10
115.7299441048443
 20
119.4983214157859
 30
0.0
 10
115.7326349906148
 20
119.3810497038632
 30
0.0
  0
LINE
  5
1A8
330
1F
100
AcDbEntity
  8
0
  6
Continuous
 62
     7
370
    25
100
AcDbLine
 10
109.1677617113
 20
123.8657728754
 30
0.0
 11
111.0826349906
 21
123.8657728754
 31
0.0
  0
SPLINE
  5
1A9
330
1F
100
AcDbEntity
  8
0
  6
Continuous
 62
     7
370
    25
100
AcDbSpline
210
0.0
220
0.0
230
1.0
 70
     8
 71
     3
 72
    12
 73
     8
 74
     0
 42
0.000000001
 43
0.00000001
 40
0.0
 40
0.0
 40
0.0
 40
0.0
 40
0.1992838848975294
 40
0.3984605265796777
 40
0.5979968004971673
 40
0.7983570684833388
 40
1.0
 40
1.0
 40
1.0
 40
1.0
 10
108.1667278689863
 20
123.763578562705
 30
0.0
 10
108.2321811462868
 20
123.7766009154697
 30
0.0
 10
108.3630524776688
 20
123.8026386131118
 30
0.0
 10
108.5619019292925
 20
123.8310691720859
 30
0.0
 10
108.7623084451636
 20
123.8515003330674
 30
0.0
 10
108.9644793625808
 20
123.8639394101379
 30
0.0
 10
109.0998569462319
 20
123.8651604217126
 30
0.0
 10
109.1677617113253
 20
123.8657728754284
 30
0.0
  0
LINE
  5
1AA
330
1F
100
AcDbEntity
  8
0
  6
Continuous
 62
     7
370
    25
100
AcDbLine
 10
102.7419648614
 20
123.7634146386
 30
0.0
 11
108.1659548799
 21
123.7634146386
 31
0.0
  0
SPLINE
  5
1AB
330
1F
100
AcDbEntity
  8
0
  6
Continuous
 62
     7
370
    25
100
AcDbSpline
210
0.0
220
0.0
230
1.0
 70
     8
 71
     3
 72
    24
 73
    20
 74
     0
 42
0.000000001
 43
0.00000001
 40
0.0
 40
0.0
 40
0.0
 40
0.0
 40
0.0410257106287842
 40
0.0818520099077639
 40
0.1225800578354648
 40
0.1633117464058233
 40
0.2041489402806705
 40
0.2451927184749161
 40
0.2865426449235763
 40
0.3282960933646444
 40
0.370547647549383
 40
0.4133885920102291
 40
0.4569065022351533
 40
0.5011849368587563
 40
0.6001856774947433
 40
0.6987388860447942
 40
0.7976800645453981
 40
0.8978349910029445
 40
1.0
 40
1.0
 40
1.0
 40
1.0
 10
98.96997795446467
 20
125.7010564557264
 30
0.0
 10
99.03301704241917
 20
125.7005217554113
 30
0.0
 10
99.15878880780107
 20
125.6994549537686
 30
0.0
 10
99.34672696931187
 20
125.6883114617705
 30
0.0
 10
99.53331706213649
 20
125.6701499634628
 30
0.0
 10
99.7185588446716
 20
125.6442750427413
 30
0.0
 10
99.90244802789952
 20
125.6108381569297
 30
0.0
 10
100.0849816938723
 20
125.5697541353861
 30
0.0
 10
100.2661571008116
 20
125.5209913872926
 30
0.0
 10
100.4459718847878
 20
125.4644938991489
 30
0.0
 10
100.6244250838673
 20
125.4002028043466
 30
0.0
 10
100.801513122017
 20
125.3280491244142
 30
0.0
 10
100.9772452463027
 20
125.2479619393755
 30
0.0
 10
101.2222598798991
 20
125.1241210526931
 30
0.0
 10
101.5264429590813
 20
124.9454960704999
 30
0.0
 10
101.8737504405264
 20
124.6964068864426
 30
0.0
 10
102.1929247039988
 20
124.416837301463
 30
0.0
 10
102.4868366062635
 20
124.1080116634908
 30
0.0
 10
102.6563606929553
 20
123.8799196201891
 30
0.0
 10
102.7419648614381
 20
123.7647405321585
 30
0.0
  0
LINE
  5
1AC
330
1F
100
AcDbEntity
  8
0
  6
Continuous
 62
     7
370
    25
100
AcDbLine
 10
96.1784362375
 20
125.7010564557
 30
0.0
 11
98.9699779545
 21
125.7010564557
 31
0.0
  0
SPLINE
  5
1AD
330
1F
100
AcDbEntity
  8
0
  6
Continuous
 62
     7
370
    25
100
AcDbSpline
210
0.0
220
0.0
230
1.0
 70
     8
 71
     3
 72
     8
 73
     4
 74
     0
 42
0.000000001
 43
0.00000001
 40
0.0
 40
0.0
 40
0.0
 40
0.0
 40
1.0
 40
1.0
 40
1.0
 40
1.0
 10
96.13263216585605
 20
125.7645094467361
 30
0.0
 10
96.14790018975373
 20
125.7433929763379
 30
0.0
 10
96.16316821365142
 20
125.7222419092853
 30
0.0
 10
96.17843623754909
 20
125.7010564557264
 30
0.0
  0
LINE
  5
1AE
330
1F
100
AcDbEntity
  8
0
  6
Continuous
 62
     7
370
    25
100
AcDbLine
 10
96.1326349906
 20
132.9557762931
 30
0.0
 11
96.1326349906
 21
125.7645094467
 31
0.0
  0
LINE
  5
1AF
330
1F
100
AcDbEntity
  8
0
  6
Continuous
 62
     7
370
    25
100
AcDbLine
 10
96.1326349906
 20
132.9557762931
 30
0.0
 11
100.0026348353
 21
132.9557762931
 31
0.0
  0
LINE
  5
1B0
330
1F
100
AcDbEntity
  8
0
  6
Continuous
 62
     7
370
    25
100
AcDbLine
 10
213.0826349906
 20
100.6670572785
 30
0.0
 11
213.0826349906
 21
115.3182762931
 31
0.0
  0
ARC
  5
1B1
330
1F
100
AcDbEntity
  8
0
  6
Continuous
 62
     7
370
    25
100
AcDbCircle
 10
211.0826349906
 20
129.9694953097
 30
0.0
 40
2.000000000000019
100
AcDbArc
 50
0.0
 51
85.5
  0
ARC
  5
1B2
330
1F
100
AcDbEntity
  8
0
  6
Continuous
 62
     7
370
    25
100
AcDbCircle
 10
130.7826349906
 20
129.6682762931
 30
0.0
 40
1.200000000000017
100
AcDbArc
 50
0.0
 51
90.0
  0
LINE
  5
1B3
330
1F
100
AcDbEntity
  8
0
  6
Continuous
 62
     7
370
    25
100
AcDbLine
 10
127.0826349906
 20
130.8682762931
 30
0.0
 11
130.7826349906
 21
130.8682762931
 31
0.0
  0
LINE
  5
1B4
330
1F
100
AcDbEntity
  8
0
  6
Continuous
 62
     7
370
    25
100
AcDbLine
 10
127.0826349906
 20
130.8682762931
 30
0.0
 11
127.0826349906
 21
115.3182762931
 31
0.0
  0
ARC
  5
1B5
330
1F
100
AcDbEntity
  8
0
  6
Continuous
 62
     7
370
    25
100
AcDbCircle
 10
212.5826349906
 20
125.3549705411
 30
0.0
 40
0.5
100
AcDbArc
 50
280.0
 51
0.0
  0
LINE
  5
1B6
330
1F
100
AcDbEntity
  8
0
  6
Continuous
 62
     7
370
    25
100
AcDbLine
 10
213.0826349906
 20
125.3549705411
 30
0.0
 11
213.0826349906
 21
115.3182762931
 31
0.0
  0
LINE
  5
1B7
330
1F
100
AcDbEntity
  8
0
  6
Continuous
 62
     7
370
    25
100
AcDbLine
 10
209.5826349906
 20
124.3182762931
 30
0.0
 11
209.5826349906
 21
115.3182762931
 31
0.0
  0
LINE
  5
1B8
330
1F
100
AcDbEntity
  8
0
  6
Continuous
 62
     7
370
    25
100
AcDbLine
 10
209.5826349906
 20
124.3182762931
 30
0.0
 11
212.6694590794
 21
124.8625666646
 31
0.0
  0
LINE
  5
1B9
330
1F
100
AcDbEntity
  8
0
  6
Continuous
 62
     7
370
    25
100
AcDbLine
 10
163.9826349906
 20
124.6182762931
 30
0.0
 11
173.1878609725
 21
124.6182762931
 31
0.0
  0
ARC
  5
1BA
330
1F
100
AcDbEntity
  8
0
  6
Continuous
 62
     7
370
    25
100
AcDbCircle
 10
163.9826349906
 20
124.2182762931
 30
0.0
 40
0.3999999999999915
100
AcDbArc
 50
90.0
 51
180.0
  0
ARC
  5
1BB
330
1F
100
AcDbEntity
  8
0
  6
Continuous
 62
     7
370
    25
100
AcDbCircle
 10
173.1878609725
 20
124.2182762931
 30
0.0
 40
0.3999999999999977
100
AcDbArc
 50
70.0
 51
90.0
  0
LINE
  5
1BC
330
1F
100
AcDbEntity
  8
0
  6
Continuous
 62
     7
370
    25
100
AcDbLine
 10
174.0826349906
 20
124.3182762931
 30
0.0
 11
174.0826349906
 21
115.3182762931
 31
0.0
  0
LINE
  5
1BD
330
1F
100
AcDbEntity
  8
0
  6
Continuous
 62
     7
370
    25
100
AcDbLine
 10
173.3246690298
 20
124.5941533414
 30
0.0
 11
174.0826349906
 21
124.3182762931
 31
0.0
  0
LINE
  5
1BE
330
1F
100
AcDbEntity
  8
0
  6
Continuous
 62
     7
370
    25
100
AcDbLine
 10
174.0826349906
 20
124.3182762931
 30
0.0
 11
209.5826349906
 21
124.3182762931
 31
0.0
  0
LINE
  5
1BF
330
1F
100
AcDbEntity
  8
0
  6
Continuous
 62
     7
370
    25
100
AcDbLine
 10
163.0826349906
 20
120.8182762931
 30
0.0
 11
163.5826349906
 21
121.3182762931
 31
0.0
  0
LINE
  5
1C0
330
1F
100
AcDbEntity
  8
0
  6
Continuous
 62
     7
370
    25
100
AcDbLine
 10
135.8076349906
 20
121.0682762931
 30
0.0
 11
136.6326349906
 21
121.0682762931
 31
0.0
  0
LINE
  5
1C1
330
1F
100
AcDbEntity
  8
0
  6
Continuous
 62
     7
370
    25
100
AcDbLine
 10
143.0826349906
 20
120.8182762931
 30
0.0
 11
143.0826349906
 21
115.3182762931
 31
0.0
  0
LINE
  5
1C2
330
1F
100
AcDbEntity
  8
0
  6
Continuous
 62
     7
370
    25
100
AcDbLine
 10
143.0826349906
 20
120.8182762931
 30
0.0
 11
163.0826349906
 21
120.8182762931
 31
0.0
  0
LINE
  5
1C3
330
1F
100
AcDbEntity
  8
0
  6
Continuous
 62
     7
370
    25
100
AcDbLine
 10
142.1813440621
 20
119.3182762931
 30
0.0
 11
142.1813440621
 21
115.3182762931
 31
0.0
  0
LINE
  5
1C4
330
1F
100
AcDbEntity
  8
0
  6
Continuous
 62
     7
370
    25
100
AcDbLine
 10
142.1813440621
 20
119.3182762931
 30
0.0
 11
143.0826349906
 21
120.8182762931
 31
0.0
  0
LINE
  5
1C5
330
1F
100
AcDbEntity
  8
0
  6
Continuous
 62
     7
370
    25
100
AcDbLine
 10
132.3826349906
 20
120.3182762931
 30
0.0
 11
132.3826349906
 21
115.3182762931
 31
0.0
  0
LINE
  5
1C6
330
1F
100
AcDbEntity
  8
0
  6
Continuous
 62
     7
370
    25
100
AcDbLine
 10
131.9826349906
 20
120.5492164007
 30
0.0
 11
132.3826349906
 21
120.3182762931
 31
0.0
  0
LINE
  5
1C7
330
1F
100
AcDbEntity
  8
0
  6
Continuous
 62
     7
370
    25
100
AcDbLine
 10
131.9826349906
 20
120.5492164007
 30
0.0
 11
131.9826349906
 21
115.3182762931
 31
0.0
  0
LINE
  5
1C8
330
1F
100
AcDbEntity
  8
0
  6
Continuous
 62
     7
370
    25
100
AcDbLine
 10
132.3826349906
 20
120.3182762931
 30
0.0
 11
135.8076349906
 21
120.3182762931
 31
0.0
  0
LINE
  5
1C9
330
1F
100
AcDbEntity
  8
0
  6
Continuous
 62
     7
370
    25
100
AcDbLine
 10
135.8076349906
 20
120.3182762931
 30
0.0
 11
135.8076349906
 21
115.3182762931
 31
0.0
  0
LINE
  5
1CA
330
1F
100
AcDbEntity
  8
0
  6
Continuous
 62
     7
370
    25
100
AcDbLine
 10
136.6326349906
 20
119.3182762931
 30
0.0
 11
142.1813440621
 21
119.3182762931
 31
0.0
  0
LINE
  5
1CB
330
1F
100
AcDbEntity
  8
0
  6
Continuous
 62
     7
370
    25
100
AcDbLine
 10
136.6326349906
 20
119.3182762931
 30
0.0
 11
136.6326349906
 21
115.3182762931
 31
0.0
  0
SPLINE
  5
1CC
330
1F
100
AcDbEntity
  8
0
  6
Continuous
 62
     7
370
    25
100
AcDbSpline
210
0.0
220
0.0
230
1.0
 70
     8
 71
     3
 72
    37
 73
    33
 74
     0
 42
0.000000001
 43
0.00000001
 40
0.0
 40
0.0
 40
0.0
 40
0.0
 40
0.0114878548102806
 40
0.0231559765621659
 40
0.035007648435437
 40
0.0470460033795327
 40
0.0592740307999939
 40
0.0716945830965816
 40
0.0843103820274689
 40
0.0971240248798041
 40
0.1101379904320562
 40
0.1233546446979447
 40
0.181151001097328
 40
0.2483631736114463
 40
0.2888373415819288
 40
0.3232297457604654
 40
0.3515392131491969
 40
0.3737664266256209
 40
0.439930028595386
 40
0.4987424063270026
 40
0.5023253005651626
 40
0.5613100074513705
 40
0.6252595444338114
 40
0.6818650083849758
 40
0.7483890016987854
 40
0.786078147196463
 40
0.8194856599799722
 40
0.8486127715281657
 40
0.8734622727747352
 40
0.9389926156604066
 40
0.9981523731393462
 40
0.9999999999999999
 40
0.9999999999999999
 40
0.9999999999999999
 40
0.9999999999999999
 10
117.9326349906148
 20
138.7819285964167
 30
0.0
 10
117.9317085393363
 20
138.7814850794082
 30
0.0
 10
117.9298410989442
 20
138.7805910857408
 30
0.0
 10
117.9145680386044
 20
138.7733991082825
 30
0.0
 10
117.8896663361406
 20
138.76194786469
 30
0.0
 10
117.8538120642047
 20
138.7457981059155
 30
0.0
 10
117.8068445533671
 20
138.7250704263618
 30
0.0
 10
117.7483016429462
 20
138.6997319073601
 30
0.0
 10
117.6778235033686
 20
138.6697914868057
 30
0.0
 10
117.5950489390911
 20
138.6352475127636
 30
0.0
 10
117.4996323939729
 20
138.596097771149
 30
0.0
 10
117.2700635605844
 20
138.5033990999878
 30
0.0
 10
116.7856453466118
 20
138.3146762094733
 30
0.0
 10
116.0066453750664
 20
138.0365864095021
 30
0.0
 10
115.2154269236462
 20
137.7859995421727
 30
0.0
 10
114.5843764304034
 20
137.6109827808429
 30
0.0
 10
114.0313384740671
 20
137.4711481402439
 30
0.0
 10
113.2383805451706
 20
137.2907372948978
 30
0.0
 10
112.1680462048375
 20
137.1016709732557
 30
0.0
 10
111.1870559254022
 20
136.9963841655461
 30
0.0
 10
110.2590886962826
 20
136.939351393593
 30
0.0
 10
109.2866332025222
 20
136.9247567952233
 30
0.0
 10
107.9605029970888
 20
137.0029500117144
 30
0.0
 10
106.6904675125951
 20
137.1634297333086
 30
0.0
 10
105.7306915119255
 20
137.3485412715222
 30
0.0
 10
105.0320398645807
 20
137.5160308752523
 30
0.0
 10
104.5882317264255
 20
137.6296540814606
 30
0.0
 10
104.2556946644956
 20
137.7228379163692
 30
0.0
 10
103.8685362542523
 20
137.8375027806278
 30
0.0
 10
103.5312882921405
 20
137.9448485896879
 30
0.0
 10
103.4335642258116
 20
137.9824141629744
 30
0.0
 10
103.4326623055397
 20
137.982545571791
 30
0.0
 10
103.4326349906148
 20
137.9825495515462
 30
0.0
  0
LINE
  5
1CD
330
1F
100
AcDbEntity
  8
0
  6
Continuous
 62
     7
370
    25
100
AcDbLine
 10
117.9326349906
 20
138.7819285964
 30
0.0
 11
117.9326349906
 21
133.4245023138
 31
0.0
  0
SPLINE
  5
1CE
330
1F
100
AcDbEntity
  8
0
  6
Continuous
 62
     7
370
    25
100
AcDbSpline
210
0.0
220
0.0
230
1.0
 70
     8
 71
     3
 72
    30
 73
    26
 74
     0
 42
0.000000001
 43
0.00000001
 40
0.0
 40
0.0
 40
0.0
 40
0.0
 40
0.0192411700742053
 40
0.0381353539376959
 40
0.0566868884861281
 40
0.074900355493136
 40
0.0927805967284113
 40
0.1103327298326389
 40
0.1275621649289901
 40
0.1444746219341827
 40
0.2455865830531986
 40
0.3577720192516811
 40
0.4505017408956453
 40
0.572012786861986
 40
0.6168069840199942
 40
0.659008849943276
 40
0.6986242498774691
 40
0.7356603299341561
 40
0.7701258931915088
 40
0.8073679165907853
 40
0.8483950324891414
 40
0.888136779882006
 40
0.9266264622110464
 40
0.9639007443615104
 40
1.0
 40
1.0
 40
1.0
 40
1.0
 10
108.7618164000027
 20
131.7604110034715
 30
0.0
 10
108.8448488798823
 20
131.7492838981466
 30
0.0
 10
109.0094164709552
 20
131.7272303484804
 30
0.0
 10
109.2572979866357
 20
131.6991784592178
 30
0.0
 10
109.5025746620781
 20
131.6752269286918
 30
0.0
 10
109.7451324956893
 20
131.6556969764985
 30
0.0
 10
109.9845671727983
 20
131.6405046843219
 30
0.0
 10
110.2205803682053
 20
131.629673123091
 30
0.0
 10
110.4528984135161
 20
131.6231925578379
 30
0.0
 10
111.0614491831401
 20
131.6175610662517
 30
0.0
 10
112.0997616803601
 20
131.6775344657364
 30
0.0
 10
113.4151132084614
 20
131.8769569389112
 30
0.0
 10
114.694658421353
 20
132.182438299595
 30
0.0
 10
115.5860989654431
 20
132.462381102514
 30
0.0
 10
116.2037638343042
 20
132.6898301990294
 30
0.0
 10
116.5470869195875
 20
132.8201088595294
 30
0.0
 10
116.838778004483
 20
132.9361997974873
 30
0.0
 10
117.0833233603089
 20
133.0375680268907
 30
0.0
 10
117.2956780407483
 20
133.1289060794082
 30
0.0
 10
117.4867410153729
 20
133.2129811633554
 30
0.0
 10
117.6519884195453
 20
133.2879741173207
 30
0.0
 10
117.7815289697895
 20
133.3489626168664
 30
0.0
 10
117.869895339012
 20
133.3922002786318
 30
0.0
 10
117.9230411842756
 20
133.4194303645107
 30
0.0
 10
117.9294713802168
 20
133.4228298106406
 30
0.0
 10
117.9326349906148
 20
133.4245023138151
 30
0.0
  0
SPLINE
  5
1CF
330
1F
100
AcDbEntity
  8
0
  6
Continuous
 62
     7
370
    25
100
AcDbSpline
210
0.0
220
0.0
230
1.0
 70
     8
 71
     3
 72
    38
 73
    34
 74
     0
 42
0.000000001
 43
0.00000001
 40
0.0
 40
0.0
 40
0.0
 40
0.0
 40
0.1250000000000004
 40
0.1250000000000004
 40
0.2500000000000008
 40
0.2500000000000008
 40
0.3125000000000011
 40
0.3125000000000011
 40
0.3750000000000014
 40
0.3750000000000014
 40
0.4375000000000017
 40
0.4375000000000017
 40
0.500000000000002
 40
0.500000000000002
 40
0.5625000000000023
 40
0.5625000000000023
 40
0.6250000000000027
 40
0.6250000000000027
 40
0.687500000000003
 40
0.687500000000003
 40
0.7187500000000029
 40
0.7187500000000029
 40
0.7500000000000028
 40
0.7500000000000028
 40
0.7812500000000026
 40
0.7812500000000026
 40
0.8125000000000024
 40
0.8125000000000024
 40
0.8750000000000017
 40
0.8750000000000017
 40
0.9375000000000009
 40
0.9375000000000009
 40
1.0
 40
1.0
 40
1.0
 40
1.0
 10
103.4326349906148
 20
137.8543241779674
 30
0.0
 10
103.4326349906148
 20
137.8543241779674
 30
0.0
 10
103.4944407481782
 20
137.8316800953054
 30
0.0
 10
103.7440632936136
 20
137.7390957062494
 30
0.0
 10
103.9277909245517
 20
137.6707081262967
 30
0.0
 10
104.2841797611367
 20
137.5348660270949
 30
0.0
 10
104.4173402226422
 20
137.4836730420384
 30
0.0
 10
104.7084192333386
 20
137.369984436926
 30
0.0
 10
104.8649091848479
 20
137.3080578294196
 30
0.0
 10
105.1982906261358
 20
137.1731727207292
 30
0.0
 10
105.3751943844989
 20
137.1002344664425
 30
0.0
 10
105.7484360319722
 20
136.9412585316466
 30
0.0
 10
105.9461800228534
 20
136.8546187617701
 30
0.0
 10
106.3522034561065
 20
136.6677010892177
 30
0.0
 10
106.5602568494935
 20
136.5676661754086
 30
0.0
 10
106.9825511222277
 20
136.3484026252296
 30
0.0
 10
107.1969164253028
 20
136.229399433565
 30
0.0
 10
107.6247587368823
 20
135.9591255832411
 30
0.0
 10
107.8411603879889
 20
135.8058767577294
 30
0.0
 10
108.1397928308691
 20
135.5398082341463
 30
0.0
 10
108.2349854203388
 20
135.4450359878736
 30
0.0
 10
108.4126106721956
 20
135.2392791306836
 30
0.0
 10
108.495224982824
 20
135.127420588913
 30
0.0
 10
108.6373052578456
 20
134.8939050846906
 30
0.0
 10
108.6976908070906
 20
134.7713440187348
 30
0.0
 10
108.7971412992455
 20
134.5148732555097
 30
0.0
 10
108.8364327382703
 20
134.3796332419599
 30
0.0
 10
108.9231293244234
 20
133.9713512389954
 30
0.0
 10
108.9418376514181
 20
133.6950910612104
 30
0.0
 10
108.9383416307864
 20
133.1383432825747
 30
0.0
 10
108.9158620105778
 20
132.8601130385839
 30
0.0
 10
108.8502343627957
 20
132.3087272183991
 30
0.0
 10
108.8067368191062
 20
132.0344735492966
 30
0.0
 10
108.7572572719962
 20
131.761044077335
 30
0.0
  0
LINE
  5
1D0
330
1F
100
AcDbEntity
  8
0
  6
Continuous
 62
     7
370
    25
100
AcDbLine
 10
103.4326349906
 20
137.854324178
 30
0.0
 11
103.4326349906
 21
137.9825495515
 31
0.0
  0
SPLINE
  5
1D1
330
1F
100
AcDbEntity
  8
0
  6
Continuous
 62
     7
370
    25
100
AcDbSpline
210
0.0
220
0.0
230
1.0
 70
     8
 71
     3
 72
    14
 73
    10
 74
     0
 42
0.000000001
 43
0.00000001
 40
0.0
 40
0.0
 40
0.0
 40
0.0
 40
0.0003951392850831
 40
0.0003951392850831
 40
0.0003951392850831
 40
0.0008159035679249
 40
0.0008159035679249
 40
0.0008159035679249
 40
0.0012369936130997
 40
0.0012369936130997
 40
0.0012369936130997
 40
0.0012369936130997
 10
107.5605189403463
 20
131.4932492900637
 30
0.0
 10
107.689028178453
 20
131.5221232577771
 30
0.0
 10
107.817591686182
 20
131.5508114712535
 30
0.0
 10
107.9461420644654
 20
131.5793143152909
 30
0.0
 10
108.083027312129
 20
131.6096652089817
 30
0.0
 10
108.2199229580288
 20
131.6398111740107
 30
0.0
 10
108.3567432193779
 20
131.6697629935792
 30
0.0
 10
108.4936692083228
 20
131.6997379583591
 30
0.0
 10
108.630546280287
 20
131.7295240078043
 30
0.0
 10
108.7672831294741
 20
131.759146480973
 30
0.0
  0
LINE
  5
1D2
330
1F
100
AcDbEntity
  8
0
  6
Continuous
 62
     7
370
    25
100
AcDbLine
 10
100.0026348353
 20
132.9557762931
 30
0.0
 11
103.4326349906
 21
137.854324178
 31
0.0
  0
LINE
  5
1D3
330
1F
100
AcDbEntity
  8
0
  6
Continuous
 62
     7
370
    25
100
AcDbLine
 10
102.6830731423
 20
138.7916620027
 30
0.0
 11
103.4326631212
 21
137.9825506649
 31
0.0
  0
LINE
  5
1D4
330
1F
100
AcDbEntity
  8
0
  6
Continuous
 62
     7
370
    25
100
AcDbLine
 10
117.9326479387
 20
138.7819288522
 30
0.0
 11
118.6009780847
 21
139.5910406746
 31
0.0
  0
LINE
  5
1D5
330
1F
100
AcDbEntity
  8
0
  6
Continuous
 62
     7
370
    25
100
AcDbLine
 10
93.8843010405
 20
134.2538525044
 30
0.0
 11
96.1326349906
 21
132.9557762931
 31
0.0
  0
LINE
  5
1D6
330
1F
100
AcDbEntity
  8
0
  6
Continuous
 62
     7
370
    25
100
AcDbLine
 10
93.1326349906
 20
135.5557762931
 30
0.0
 11
93.8843010405
 21
134.2538525044
 31
0.0
  0
LINE
  5
1D7
330
1F
100
AcDbEntity
  8
0
  6
Continuous
 62
     7
370
    25
100
AcDbLine
 10
93.1326349906
 20
137.5213710169
 30
0.0
 11
93.1326349906
 21
135.5557762931
 31
0.0
  0
LINE
  5
1D8
330
1F
100
AcDbEntity
  8
0
  6
Continuous
 62
     7
370
    25
100
AcDbLine
 10
94.6326349906
 20
138.3873964206
 30
0.0
 11
93.1326349906
 21
137.5213710169
 31
0.0
  0
LINE
  5
1D9
330
1F
100
AcDbEntity
  8
0
  6
Continuous
 62
     7
370
    25
100
AcDbLine
 10
143.8576349906
 20
143.1682762931
 30
0.0
 11
142.1076349906
 21
143.1682762931
 31
0.0
  0
ARC
  5
1DA
330
1F
100
AcDbEntity
  8
0
  6
Continuous
 62
     7
370
    25
100
AcDbCircle
 10
143.8576349906
 20
144.1682762931
 30
0.0
 40
1.0
100
AcDbArc
 50
270.0
 51
0.0
  0
LINE
  5
1DB
330
1F
100
AcDbEntity
  8
0
  6
Continuous
 62
     7
370
    25
100
AcDbLine
 10
144.8576349906
 20
144.2658715573
 30
0.0
 11
144.8576349906
 21
144.1682762931
 31
0.0
  0
LINE
  5
1DC
330
1F
100
AcDbEntity
  8
0
  6
Continuous
 62
     7
370
    25
100
AcDbLine
 10
146.3168327952
 20
146.7932762931
 30
0.0
 11
144.8576349906
 21
144.2658715573
 31
0.0
  0
LINE
  5
1DD
330
1F
100
AcDbEntity
  8
0
  6
Continuous
 62
     7
370
    25
100
AcDbLine
 10
118.5585841324
 20
132.9557775834
 30
0.0
 11
117.9326381188
 21
133.4245024387
 31
0.0
  0
LINE
  5
1DE
330
1F
100
AcDbEntity
  8
0
  6
Continuous
 62
     7
370
    25
100
AcDbLine
 10
141.1076349906
 20
144.2658715573
 30
0.0
 11
139.648437186
 21
146.7932762931
 31
0.0
  0
LINE
  5
1DF
330
1F
100
AcDbEntity
  8
0
  6
Continuous
 62
     7
370
    25
100
AcDbLine
 10
141.1076349906
 20
144.1682762931
 30
0.0
 11
141.1076349906
 21
144.2658715573
 31
0.0
  0
ARC
  5
1E0
330
1F
100
AcDbEntity
  8
0
  6
Continuous
 62
     7
370
    25
100
AcDbCircle
 10
142.1076349906
 20
144.1682762931
 30
0.0
 40
1.0
100
AcDbArc
 50
180.0
 51
270.0
  0
LINE
  5
1E1
330
1F
100
AcDbEntity
  8
0
  6
Continuous
 62
     7
370
    25
100
AcDbLine
 10
136.6326349906
 20
121.0682762931
 30
0.0
 11
136.6326349906
 21
119.3182762931
 31
0.0
  0
LINE
  5
1E2
330
1F
100
AcDbEntity
  8
0
  6
Continuous
 62
     7
370
    25
100
AcDbLine
 10
135.8076349906
 20
120.3182762931
 30
0.0
 11
135.8076349906
 21
121.0682762931
 31
0.0
  0
LINE
  5
1E3
330
1F
100
AcDbEntity
  8
0
  6
Continuous
 62
     7
370
    25
100
AcDbLine
 10
163.5826349906
 20
121.3182762931
 30
0.0
 11
163.5826349906
 21
124.2182762931
 31
0.0
  0
LINE
  5
1E4
330
1F
100
AcDbEntity
  8
0
  6
Continuous
 62
     7
370
    25
100
AcDbLine
 10
131.9826349906
 20
129.6682762931
 30
0.0
 11
131.9826349906
 21
120.5492164007
 31
0.0
  0
LINE
  5
1E5
330
1F
100
AcDbEntity
  8
0
  6
Continuous
 62
     7
370
    25
100
AcDbLine
 10
213.0826349906
 20
125.3549705411
 30
0.0
 11
213.0826349906
 21
129.9694953097
 31
0.0
  0
LINE
  5
1E6
330
1F
100
AcDbEntity
  8
0
  6
Continuous
 62
     7
370
    25
100
AcDbLine
 10
127.0826349906
 20
132.7682762931
 30
0.0
 11
127.0826349906
 21
130.8682762931
 31
0.0
  0
LINE
  5
1E7
330
1F
100
AcDbEntity
  8
0
  6
Continuous
 62
     7
370
    25
100
AcDbLine
 10
133.0826349906
 20
146.5932762931
 30
0.0
 11
133.0826349906
 21
142.1682762931
 31
0.0
  0
LINE
  5
1E8
330
1F
100
AcDbEntity
  8
0
  6
Continuous
 62
     7
370
    25
100
AcDbLine
 10
151.0826349906
 20
138.8182762931
 30
0.0
 11
151.0826349906
 21
146.7932762931
 31
0.0
  0
SPLINE
  5
1E9
330
1F
100
AcDbEntity
  8
0
  6
Continuous
 62
     7
370
    25
100
AcDbSpline
210
0.0
220
0.0
230
1.0
 70
     8
 71
     3
 72
     9
 73
     5
 74
     0
 42
0.000000001
 43
0.00000001
 40
0.0
 40
0.0
 40
0.0
 40
0.0
 40
0.5102121239851395
 40
0.9999999999999999
 40
0.9999999999999999
 40
0.9999999999999999
 40
0.9999999999999999
 10
93.9369983872859
 20
125.7799028097152
 30
0.0
 10
94.31186044426468
 20
125.7774128923336
 30
0.0
 10
95.04657849457448
 20
125.7725327311915
 30
0.0
 10
95.77557908503121
 20
125.7671478398052
 30
0.0
 10
96.1326347358446
 20
125.7645103852905
 30
0.0
  0
LINE
  5
1EA
330
1F
100
AcDbEntity
  8
0
  6
Continuous
 62
     7
370
    25
100
AcDbLine
 10
93.8843010405
 20
125.8103271006
 30
0.0
 11
93.9369983891
 21
125.7799022722
 31
0.0
  0
LINE
  5
1EB
330
1F
100
AcDbEntity
  8
0
  6
Continuous
 62
     7
370
    25
100
AcDbLine
 10
93.8843010405
 20
134.2538525044
 30
0.0
 11
93.8843010405
 21
125.8103271006
 31
0.0
  0
SPLINE
  5
1EC
330
1F
100
AcDbEntity
  8
0
  6
Continuous
 62
     7
370
    25
100
AcDbSpline
210
0.0
220
0.0
230
1.0
 70
    24
 71
     3
 72
     8
 73
     4
 74
     0
 42
0.000000001
 43
0.00000001
 40
0.0000004089325119
 40
0.0000004089325119
 40
0.0000004089325119
 40
0.0000004089325119
 40
0.0015399868451459
 40
0.0015399868451459
 40
0.0015399868451459
 40
0.0015399868451459
 10
93.13263499061479
 20
126.2443016968479
 30
0.0
 10
93.38362606663925
 20
126.0993919315409
 30
0.0
 10
93.6342152631422
 20
125.954714191484
 30
0.0
 10
93.88430104045433
 20
125.8103271006323
 30
0.0
  0
LINE
  5
1ED
330
1F
100
AcDbEntity
  8
0
  6
Continuous
 62
     7
370
    25
100
AcDbLine
 10
93.1326349906
 20
135.5557762931
 30
0.0
 11
93.1326349906
 21
126.2443016968
 31
0.0
  0
SPLINE
  5
1EE
330
1F
100
AcDbEntity
  8
0
  6
Continuous
 62
     7
370
    25
100
AcDbSpline
210
0.0
220
0.0
230
1.0
 70
     8
 71
     3
 72
     8
 73
     4
 74
     0
 42
0.000000001
 43
0.00000001
 40
0.0
 40
0.0
 40
0.0
 40
0.0
 40
1.0
 40
1.0
 40
1.0
 40
1.0
 10
96.26231673337156
 20
125.3782769707999
 30
0.0
 10
96.23436851325202
 20
125.4860933247755
 30
0.0
 10
96.20640842508332
 20
125.5936871749417
 30
0.0
 10
96.17843623754909
 20
125.7010564557264
 30
0.0
  0
LINE
  5
1EF
330
1F
100
AcDbEntity
  8
0
  6
Continuous
 62
     7
370
    25
100
AcDbLine
 10
96.2623198719
 20
125.3782762931
 30
0.0
 11
94.6326342038
 21
125.3782762931
 31
0.0
  0
LINE
  5
1F0
330
1F
100
AcDbEntity
  8
0
  6
Continuous
 62
     7
370
    25
100
AcDbLine
 10
94.6326344038
 20
125.3782766319
 30
0.0
 11
93.9369979258
 21
125.7799025397
 31
0.0
  0
LINE
  5
1F1
330
1F
100
AcDbEntity
  8
0
  6
Continuous
 62
     7
370
    25
100
AcDbLine
 10
102.6865958878
 20
123.3807762931
 30
0.0
 11
102.4344242599
 21
123.3807762931
 31
0.0
  0
SPLINE
  5
1F2
330
1F
100
AcDbEntity
  8
0
  6
Continuous
 62
     7
370
    25
100
AcDbSpline
210
0.0
220
0.0
230
1.0
 70
     8
 71
     3
 72
    26
 73
    22
 74
     0
 42
0.000000001
 43
0.00000001
 40
0.0
 40
0.0
 40
0.0
 40
0.0
 40
0.0524616379932503
 40
0.1026498591890872
 40
0.150565513457809
 40
0.1962095861957063
 40
0.2395832262568645
 40
0.2806877815599511
 40
0.3195248450380211
 40
0.3560963147430692
 40
0.3904044736547445
 40
0.4224520974433627
 40
0.4522426027417772
 40
0.4797802555366611
 40
0.5050704712281336
 40
0.5966394156799991
 40
0.6841917884819224
 40
0.7679874773571101
 40
0.8483228539139507
 40
0.925534163520116
 40
1.0
 40
1.0
 40
1.0
 40
1.0
 10
102.4326177659454
 20
123.3808060770988
 30
0.0
 10
102.3969813669141
 20
123.440352997181
 30
0.0
 10
102.3272528665757
 20
123.5568663809677
 30
0.0
 10
102.2137747058158
 20
123.7212643416969
 30
0.0
 10
102.0982491560908
 20
123.8734260794984
 30
0.0
 10
101.9811274600807
 20
124.013328776431
 30
0.0
 10
101.8637557596013
 20
124.141543100335
 30
0.0
 10
101.7471347935676
 20
124.2585587792754
 30
0.0
 10
101.6322318731226
 20
124.3649359345194
 30
0.0
 10
101.5199076474333
 20
124.4612520149937
 30
0.0
 10
101.4109386733984
 20
124.5481013615462
 30
0.0
 10
101.3060196325618
 20
124.6260815437401
 30
0.0
 10
101.205762306613
 20
124.695789740793
 30
0.0
 10
101.1107249640299
 20
124.7577997296942
 30
0.0
 10
100.9406180595991
 20
124.86228616696
 30
0.0
 10
100.687699028194
 20
124.9973448334744
 30
0.0
 10
100.3417178711329
 20
125.1417317258915
 30
0.0
 10
99.99375932180855
 20
125.2506996381365
 30
0.0
 10
99.6476195614325
 20
125.3252292204732
 30
0.0
 10
99.30655477799839
 20
125.3701579250226
 30
0.0
 10
99.08080816648274
 20
125.375603023877
 30
0.0
 10
98.96997795446467
 20
125.3782762930634
 30
0.0
  0
SPLINE
  5
1F3
330
1F
100
AcDbEntity
  8
0
  6
Continuous
 62
     7
370
    25
100
AcDbSpline
210
0.0
220
0.0
230
1.0
 70
     8
 71
     3
 72
     8
 73
     4
 74
     0
 42
0.000000001
 43
0.00000001
 40
0.0
 40
0.0
 40
0.0
 40
0.0
 40
1.0
 40
1.0
 40
1.0
 40
1.0
 10
102.6865958878473
 20
123.3807762930633
 30
0.0
 10
102.7156005942749
 20
123.5047140199256
 30
0.0
 10
102.7346331139563
 20
123.6326661501589
 30
0.0
 10
102.7428847061479
 20
123.7637354628504
 30
0.0
  0
LINE
  5
1F4
330
1F
100
AcDbEntity
  8
0
  6
Continuous
 62
     7
370
    25
100
AcDbLine
 10
98.9699779545
 20
125.3782762931
 30
0.0
 11
96.2623198719
 21
125.3782762931
 31
0.0
  0
LINE
  5
1F5
330
1F
100
AcDbEntity
  8
0
  6
Continuous
 62
     7
370
    25
100
AcDbLine
 10
115.7326349906
 20
119.3810497039
 30
0.0
 11
115.0826349906
 21
119.5307762931
 31
0.0
  0
SPLINE
  5
1F6
330
1F
100
AcDbEntity
  8
0
  6
Continuous
 62
     7
370
    25
100
AcDbSpline
210
0.0
220
0.0
230
1.0
 70
     8
 71
     3
 72
    26
 73
    22
 74
     0
 42
0.000000001
 43
0.00000001
 40
0.0
 40
0.0
 40
0.0
 40
0.0
 40
0.0305951740572542
 40
0.0629166281868252
 40
0.0969720532897518
 40
0.1327680143285475
 40
0.1703101548822826
 40
0.2096033578521445
 40
0.2506518729756858
 40
0.3342141733898277
 40
0.4179517165474626
 40
0.5018670561020881
 40
0.5659795686746639
 40
0.6277136397870199
 40
0.687135819210908
 40
0.7443207393864881
 40
0.7993521466017559
 40
0.8523240127975756
 40
0.903341702807647
 40
0.9525231537633125
 40
1.0
 40
1.0
 40
1.0
 40
1.0
 10
115.0826349906148
 20
119.5307762930634
 30
0.0
 10
115.0817267787702
 20
119.5953114604506
 30
0.0
 10
115.0798591107897
 20
119.728023081044
 30
0.0
 10
115.0642665217281
 20
119.9308371725676
 30
0.0
 10
115.0376226605409
 20
120.142550213468
 30
0.0
 10
114.9974682314625
 20
120.3622622068409
 30
0.0
 10
114.9425701147794
 20
120.5890090777122
 30
0.0
 10
114.8713271461676
 20
120.8216400814952
 30
0.0
 10
114.752914751885
 20
121.1370383959719
 30
0.0
 10
114.5647838554771
 20
121.5215202945069
 30
0.0
 10
114.2807670922426
 20
121.9515479090364
 30
0.0
 10
113.9713491356928
 20
122.3100346213773
 30
0.0
 10
113.6554395248913
 20
122.6018012776667
 30
0.0
 10
113.3486941167679
 20
122.8342603645039
 30
0.0
 10
113.0302750029458
 20
123.0310705990678
 30
0.0
 10
112.7043041267888
 20
123.1931713013261
 30
0.0
 10
112.3747652916635
 20
123.3216411848058
 30
0.0
 10
112.045203376817
 20
123.4182250041788
 30
0.0
 10
111.7187850535177
 20
123.484077233465
 30
0.0
 10
111.3982668612138
 20
123.5236421812904
 30
0.0
 10
111.1866013476831
 20
123.5284263795057
 30
0.0
 10
111.0826349906148
 20
123.5307762930634
 30
0.0
  0
SPLINE
  5
1F7
330
1F
100
AcDbEntity
  8
0
  6
Continuous
 62
     7
370
    25
100
AcDbSpline
210
0.0
220
0.0
230
1.0
 70
     8
 71
     3
 72
    13
 73
     9
 74
     0
 42
0.000000001
 43
0.00000001
 40
0.0
 40
0.0
 40
0.0
 40
0.0
 40
0.1604061687300809
 40
0.3231296684563272
 40
0.4883154213007764
 40
0.6561019685773533
 40
0.8266215117792448
 40
1.0
 40
1.0
 40
1.0
 40
1.0
 10
109.1677617113253
 20
123.5307762930634
 30
0.0
 10
109.1087117598102
 20
123.5300207230254
 30
0.0
 10
108.9897587830854
 20
123.5284986674972
 30
0.0
 10
108.8105051494796
 20
123.5160536083698
 30
0.0
 10
108.6295721677919
 20
123.495869427239
 30
0.0
 10
108.4474436733932
 20
123.4667340610984
 30
0.0
 10
108.2642766655988
 20
123.4293179092793
 30
0.0
 10
108.1435373507245
 20
123.3970520369222
 30
0.0
 10
108.0826658191396
 20
123.3807849819837
 30
0.0
  0
SPLINE
  5
1F8
330
1F
100
AcDbEntity
  8
0
  6
Continuous
 62
     7
370
    25
100
AcDbSpline
210
0.0
220
0.0
230
1.0
 70
    24
 71
     3
 72
    10
 73
     6
 74
     0
 42
0.000000001
 43
0.00000001
 40
0.0
 40
0.0
 40
0.0
 40
0.0
 40
0.3216623556917455
 40
0.6548175346390357
 40
1.0
 40
1.0
 40
1.0
 40
1.0
 10
108.0828138255196
 20
123.3807762930634
 30
0.0
 10
108.0142679176623
 20
123.3807762930634
 30
0.0
 10
107.874726993465
 20
123.3807762930634
 30
0.0
 10
107.6651185781145
 20
123.3807762930634
 30
0.0
 10
107.5254415829606
 20
123.3807762930634
 30
0.0
 10
107.4543648117598
 20
123.3807762930634
 30
0.0
  0
SPLINE
  5
1F9
330
1F
100
AcDbEntity
  8
0
  6
Continuous
 62
     7
370
    25
100
AcDbSpline
210
0.0
220
0.0
230
1.0
 70
     8
 71
     3
 72
     8
 73
     4
 74
     0
 42
0.000000001
 43
0.00000001
 40
0.0
 40
0.0
 40
0.0
 40
0.0
 40
1.0
 40
1.0
 40
1.0
 40
1.0
 10
108.1689651070134
 20
123.7592226422463
 30
0.0
 10
107.899668776957
 20
123.6625332570531
 30
0.0
 10
107.6635080915432
 20
123.5345340876763
 30
0.0
 10
107.4543105753593
 20
123.3810574900316
 30
0.0
  0
LINE
  5
1FA
330
1F
100
AcDbEntity
  8
0
  6
Continuous
 62
     7
370
    25
100
AcDbLine
 10
107.4548562869
 20
107.2557762931
 30
0.0
 11
107.6080160166
 21
107.2557762931
 31
0.0
  0
LINE
  5
1FB
330
1F
100
AcDbEntity
  8
0
  6
Continuous
 62
     7
370
    25
100
AcDbLine
 10
111.0826349906
 20
123.5307762931
 30
0.0
 11
109.1677617113
 21
123.5307762931
 31
0.0
  0
LINE
  5
1FC
330
1F
100
AcDbEntity
  8
0
  6
Continuous
 62
     7
370
    25
100
AcDbLine
 10
107.4547231726
 20
123.3807762931
 30
0.0
 11
102.6865958878
 21
123.3807762931
 31
0.0
  0
LINE
  5
1FD
330
1F
100
AcDbEntity
  8
0
  6
Continuous
 62
     7
370
    25
100
AcDbLine
 10
115.0826349906
 20
115.3182762931
 30
0.0
 11
115.0826349906
 21
119.5307762931
 31
0.0
  0
LINE
  5
1FE
330
1F
100
AcDbEntity
  8
VERMASSUNG
  6
CENTERX2
100
AcDbLine
 10
225.0776349906
 20
115.3182762931
 30
0.0
 11
81.1376349906
 21
115.3182762931
 31
0.0
  0
HATCH
  5
1FF
330
1F
100
AcDbEntity
  8
0
  6
Continuous
 62
     7
370
    18
100
AcDbHatch
 10
0.0
 20
0.0
 30
0.0
210
0.0
220
0.0
230
1.0
  2
ANSI31
 70
     0
 71
     0
 91
        1
 92
        0
 93
       50
 72
     2
 10
142.1076349906148
 20
144.1682762930634
 40
1.000000000000003
 50
90.0
 51
180.0
 73
     0
 72
     1
 10
141.1076349906148
 20
144.1682762930634
 11
141.1076349906148
 21
144.2658715572551
 72
     1
 10
141.1076349906148
 20
144.2658715572551
 11
139.6484371860447
 21
146.7932762930634
 72
     1
 10
139.6484371860447
 20
146.7932762930634
 11
133.2826349906148
 21
146.7932762930634
 72
     2
 10
133.2826349906148
 20
146.5932762930634
 40
0.2000000000000028
 50
90.0
 51
180.0
 73
     1
 72
     1
 10
133.0826349906148
 20
146.5932762930634
 11
133.0826349906148
 21
142.1682762930635
 72
     1
 10
133.0826349906148
 20
142.1682762930635
 11
133.4166736766434
 21
141.1088409326669
 72
     2
 10
132.6537001160448
 20
140.8682762930634
 40
0.8000000000000049
 50
342.5000000000001
 51
467.5000000000022
 73
     0
 72
     1
 10
132.4131354764414
 20
140.1053027324648
 11
131.922452950584
 21
140.2600143385918
 72
     1
 10
131.922452950584
 20
140.2600143385918
 11
118.6009796780646
 21
139.5910373655656
 72
     1
 10
118.600978084666
 20
139.591040674634
 11
117.9326479387365
 21
138.7819288522428
 72
     1
 10
117.9326479387365
 20
138.7819288522428
 11
117.9326349906148
 21
133.424502313815
 72
     1
 10
117.9326381188485
 20
133.4245024386955
 11
118.5585841323907
 21
132.9557775833555
 72
     1
 10
118.5585843806996
 20
132.9557762930634
 11
123.5826349906148
 21
132.9557762930634
 72
     1
 10
123.5826349906148
 20
132.9557762930634
 11
124.4578754641956
 21
133.461096616091
 72
     2
 10
124.8578754641956
 20
132.7682762930634
 40
0.7999999999999918
 50
240.0000000000013
 51
270.0000000000008
 73
     0
 72
     1
 10
124.8578754641956
 20
133.5682762930634
 11
126.2826349906148
 21
133.5682762930634
 72
     2
 10
126.2826349906148
 20
132.7682762930634
 40
0.7999999999999977
 50
270.0000000000008
 51
360.0000000000008
 73
     0
 72
     1
 10
127.0826349906148
 20
132.7682762930634
 11
127.0826349906148
 21
130.8682762930634
 72
     1
 10
127.0826349906148
 20
130.8682762930634
 11
130.7826349906148
 21
130.8682762930634
 72
     2
 10
130.7826349906148
 20
129.6682762930634
 40
1.2
 50
270.0000000000008
 51
360.0000000000008
 73
     0
 72
     1
 10
131.9826349906148
 20
129.6682762930634
 11
131.9826349906148
 21
120.5492164007393
 72
     1
 10
131.9826349906148
 20
120.5492164007393
 11
132.3826349906148
 21
120.3182762930634
 72
     1
 10
132.3826349906148
 20
120.3182762930634
 11
135.8076349906148
 21
120.3182762930634
 72
     1
 10
135.8076349906148
 20
120.3182762930634
 11
135.8076349906148
 21
121.0682762930634
 72
     1
 10
135.8076349906148
 20
121.0682762930634
 11
136.6326349906148
 21
121.0682762930634
 72
     1
 10
136.6326349906148
 20
121.0682762930634
 11
136.6326349906148
 21
119.3182762930634
 72
     1
 10
136.6326349906148
 20
119.3182762930634
 11
142.1813440620734
 21
119.3182762930634
 72
     1
 10
142.1813440620734
 20
119.3182762930634
 11
143.0826349906148
 21
120.8182762930634
 72
     1
 10
143.0826349906148
 20
120.8182762930634
 11
163.0826349906148
 21
120.8182762930634
 72
     1
 10
163.0826349906148
 20
120.8182762930634
 11
163.5826349906148
 21
121.3182762930634
 72
     1
 10
163.5826349906148
 20
121.3182762930634
 11
163.5826349906148
 21
124.2182762930634
 72
     2
 10
163.9826349906148
 20
124.2182762930634
 40
0.4000000000000002
 50
180.0
 51
270.0000000000008
 73
     0
 72
     1
 10
163.9826349906148
 20
124.6182762930634
 11
173.187860972495
 21
124.6182762930634
 72
     2
 10
173.187860972495
 20
124.2182762930634
 40
0.3999999999999979
 50
270.0000000000008
 51
289.9999999999999
 73
     0
 72
     1
 10
173.3246690298253
 20
124.5941533413778
 11
174.0826349906148
 21
124.3182762930634
 72
     1
 10
174.0826349906148
 20
124.3182762930634
 11
209.5826349906148
 21
124.3182762930634
 72
     1
 10
209.5826349906148
 20
124.3182762930634
 11
212.6694590794482
 21
124.8625666646255
 72
     2
 10
212.5826349906148
 20
125.3549705411316
 40
0.4999999999999993
 50
279.9999999999994
 51
360.0000000000008
 73
     1
 72
     1
 10
213.0826349906148
 20
125.3549705411316
 11
213.0826349906148
 21
129.969495309747
 72
     2
 10
211.0826349906148
 20
129.969495309747
 40
2.0
 50
0.0
 51
85.49999999999963
 73
     1
 72
     1
 10
211.2395531820705
 20
131.9633299772132
 11
162.257816045916
 21
135.8182762930634
 72
     1
 10
162.257816045916
 20
135.8182762930634
 11
154.0826349906148
 21
135.8182762930634
 72
     2
 10
154.0826349906148
 20
138.8182762930634
 40
3.0
 50
90.0
 51
180.0
 73
     0
 72
     1
 10
151.0826349906148
 20
138.8182762930634
 11
151.0826349906148
 21
146.7932762930634
 72
     1
 10
151.0826349906148
 20
146.7932762930634
 11
146.3168327951849
 21
146.7932762930634
 72
     1
 10
146.3168327951849
 20
146.7932762930634
 11
144.8576349906148
 21
144.2658715572551
 72
     1
 10
144.8576349906148
 20
144.2658715572551
 11
144.8576349906148
 21
144.1682762930634
 72
     2
 10
143.8576349906148
 20
144.1682762930634
 40
1.000000000000003
 50
0.0
 51
90.0
 73
     0
 72
     1
 10
143.8576349906148
 20
143.1682762930634
 11
142.1076349906148
 21
143.1682762930634
 97
        0
 75
     0
 76
     1
 52
0.0
 41
1.0
 77
     0
 78
     1
 53
45.0
 43
0.0
 44
0.0
 45
-2.245064030267288
 46
2.245064030267288
 79
     0
 98
        1
 10
0.0
 20
0.0
  0
HATCH
  5
200
330
1F
100
AcDbEntity
  8
0
  6
Continuous
 62
     7
370
    18
100
AcDbHatch
 10
0.0
 20
0.0
 30
0.0
210
0.0
220
0.0
230
1.0
  2
ANSI31
 70
     0
 71
     0
 91
        1
 92
        0
 93
        9
 72
     1
 10
103.432663121203
 20
137.9825506649464
 11
102.6830731422673
 21
138.7916620027139
 72
     1
 10
102.6830731422673
 20
138.7916620027139
 11
94.6326349906148
 21
138.3873964206458
 72
     1
 10
94.6326349906148
 20
138.3873964206458
 11
93.1326349906148
 21
137.5213710168614
 72
     1
 10
93.1326349906148
 20
137.5213710168614
 11
93.1326349906148
 21
135.5557762930634
 72
     1
 10
93.1326349906148
 20
135.5557762930634
 11
93.88430104045433
 21
134.2538525044168
 72
     1
 10
93.88430104045433
 20
134.2538525044168
 11
96.1326349906148
 21
132.9557762930634
 72
     1
 10
96.1326349906148
 20
132.9557762930634
 11
100.0026348353237
 21
132.9557762930635
 72
     1
 10
100.0026348353237
 20
132.9557762930635
 11
103.4326349906148
 21
137.8543241779674
 72
     1
 10
103.4326349906148
 20
137.8543241779674
 11
103.4326349906148
 21
137.9825495514531
 97
        0
 75
     0
 76
     1
 52
0.0
 41
1.0
 77
     0
 78
     1
 53
45.0
 43
0.0
 44
0.0
 45
-2.245064030267288
 46
2.245064030267288
 79
     0
 98
        1
 10
0.0
 20
0.0
  0
HATCH
  5
201
330
1F
100
AcDbEntity
  8
0
  6
Continuous
 62
     7
370
    18
100
AcDbHatch
 10
0.0
 20
0.0
 30
0.0
210
0.0
220
0.0
230
1.0
  2
ANSI31
 70
     0
 71
     0
 91
        1
 92
        0
 93
       12
 72
     1
 10
164.0826349906148
 20
120.8182762930634
 11
163.5826349906148
 21
121.3182762930634
 72
     1
 10
163.5826349906148
 20
121.3182762930634
 11
148.5826349906148
 21
121.3182762930634
 72
     1
 10
148.5826349906148
 20
121.3182762930634
 11
148.0826349906148
 21
120.8182762930634
 72
     1
 10
148.0826349906148
 20
120.8182762930634
 11
148.0826349906148
 21
119.0182762930634
 72
     1
 10
148.0826349906148
 20
119.0182762930634
 11
148.5975771304651
 21
118.5033341532132
 72
     1
 10
148.5975771304651
 20
118.5033341532132
 11
155.0826349905479
 21
118.5033341532132
 72
     1
 10
155.0826349905479
 20
118.5033341532132
 11
155.0826349905479
 21
118.3182762930634
 72
     1
 10
155.0826349905479
 20
118.3182762930634
 11
161.0826349906148
 21
118.3182762930634
 72
     1
 10
161.0826349906148
 20
118.3182762930634
 11
161.0826349906148
 21
118.5033341532132
 72
     1
 10
161.0826349906148
 20
118.5033341532132
 11
166.0826349906148
 21
118.5033341532132
 72
     1
 10
166.0826349906148
 20
118.5033341532132
 11
166.0826349906148
 21
120.8182762930634
 72
     1
 10
166.0826349906148
 20
120.8182762930634
 11
164.0826349906148
 21
120.8182762930634
 97
        0
 75
     0
 76
     1
 52
0.0
 41
1.0
 77
     0
 78
     1
 53
45.0
 43
0.0
 44
0.0
 45
-2.245064030267288
 46
2.245064030267288
 79
     0
 98
        1
 10
0.0
 20
0.0
  0
POINT
  5
202
330
1F
100
AcDbEntity
  8
VERMASSUNG
100
AcDbPoint
 10
213.0826349906
 20
98.8182762931
 30
0.0
  0
POINT
  5
203
330
1F
100
AcDbEntity
  8
VERMASSUNG
100
AcDbPoint
 10
213.0826349906
 20
131.8182762931
 30
0.0
  0
DIMENSION
  5
204
330
1F
100
AcDbEntity
  8
VERMASSUNG
100
AcDbDimension
  2
_D
 10
245.6932859904
 20
98.8182762931
 30
0.0
 11
245.6932859904
 21
115.3182762931
 31
0.0
 70
   160
  1
%%c<>
 71
     2
 42
-1.0
  3
SLDDIMSTYLE0
100
AcDbAlignedDimension
 13
213.0826349906
 23
131.8182762931
 33
0.0
 14
213.0826349906
 24
98.8182762931
 34
0.0
 50
90.0
100
AcDbRotatedDimension
  0
DIMENSION
  5
210
330
1F
100
AcDbEntity
  8
VERMASSUNG
100
AcDbDimension
  2
_D_1
 10
236.2439367035
 20
106.3182762931
 30
0.0
 11
236.2439367035
 21
115.3182762931
 31
0.0
 70
   160
  1
%%c<>
 71
     2
 42
-1.0
  3
SLDDIMSTYLE1
100
AcDbAlignedDimension
 13
209.5826349906
 23
124.3182762931
 33
0.0
 14
209.5826349906
 24
106.3182762931
 34
0.0
 50
90.0
100
AcDbRotatedDimension
  0
DIMENSION
  5
21A
330
1F
100
AcDbEntity
  8
VERMASSUNG
100
AcDbDimension
  2
_D_2
 10
255.9818539221
 20
94.8182762931
 30
0.0
 11
255.9818539221
 21
115.3182762931
 31
0.0
 70
   160
  1
%%c<>
 71
     2
 42
-1.0
  3
SLDDIMSTYLE0
100
AcDbAlignedDimension
 13
162.2578160459
 23
135.8182762931
 33
0.0
 14
162.2578160459
 24
94.8182762931
 34
0.0
 50
90.0
100
AcDbRotatedDimension
  0
DIMENSION
  5
225
330
1F
100
AcDbEntity
  8
VERMASSUNG
100
AcDbDimension
  2
_D_3
 10
213.0826349906
 20
83.3603134314
 30
0.0
 11
187.6702255183
 21
83.3603134314
 31
0.0
 70
   160
  1
<>
 71
     2
 42
-1.0
  3
SLDDIMSTYLE2
100
AcDbAlignedDimension
 13
162.2578160459
 23
94.8182762931
 33
0.0
 14
213.0826349906
 24
100.6670572764
 34
0.0
 50
0.0
100
AcDbRotatedDimension
  0
DIMENSION
  5
230
330
1F
100
AcDbEntity
  8
VERMASSUNG
100
AcDbDimension
  2
_D_4
 10
213.0826349906
 20
76.8767569641
 30
0.0
 11
182.0826349906
 21
76.8767569641
 31
0.0
 70
   160
  1
<>
 71
     2
 42
-1.0
  3
SLDDIMSTYLE0
100
AcDbAlignedDimension
 13
151.0826349906
 23
83.8432762931
 33
0.0
 14
213.0826349906
 24
100.6670572764
 34
0.0
 50
0.0
100
AcDbRotatedDimension
  0
DIMENSION
  5
23A
330
1F
100
AcDbEntity
  8
VERMASSUNG
100
AcDbDimension
  2
_D_5
 10
163.5826349906
 20
151.8078330363
 30
0.0
 11
188.3326349906
 21
151.8078330363
 31
0.0
 70
   160
  1
<> max.
 71
     2
 42
-1.0
  3
SLDDIMSTYLE0
100
AcDbAlignedDimension
 13
213.0826349906
 23
129.9694953097
 33
0.0
 14
163.5826349906
 24
124.2182762931
 34
0.0
100
AcDbRotatedDimension
  0
DIMENSION
  5
245
330
1F
100
AcDbEntity
  8
VERMASSUNG
100
AcDbDimension
  2
_D_6
 10
213.0826349906
 20
144.9929201637
 30
0.0
 11
193.5826349906
 21
144.9929201637
 31
0.0
 70
   160
  1
<> min.
 71
     2
 42
-1.0
  3
SLDDIMSTYLE0
100
AcDbAlignedDimension
 13
174.0826349906
 23
124.3182762931
 33
0.0
 14
213.0826349906
 24
129.9694953097
 34
0.0
100
AcDbRotatedDimension
  0
DIMENSION
  5
250
330
1F
100
AcDbEntity
  8
VERMASSUNG
100
AcDbDimension
  2
_D_7
 10
213.0826349906
 20
158.7101165867
 30
0.0
 11
173.0826349906
 21
158.7101165867
 31
0.0
 70
   160
  1
<>
 71
     2
 42
-1.0
  3
SLDDIMSTYLE0
100
AcDbAlignedDimension
 13
133.0826349906
 23
146.5932762931
 33
0.0
 14
213.0826349906
 24
129.9694953097
 34
0.0
 50
0.0
100
AcDbRotatedDimension
  0
DIMENSION
  5
25A
330
1F
100
AcDbEntity
  8
VERMASSUNG
100
AcDbDimension
  2
_D_8
 10
93.1326349906
 20
165.6928657407
 30
0.0
 11
153.1076349906
 21
165.6928657407
 31
0.0
 70
   160
  1
<>
 71
     2
 42
-1.0
  3
SLDDIMSTYLE0
100
AcDbAlignedDimension
 13
213.0826349906
 23
129.9694953097
 33
0.0
 14
93.1326349906
 24
137.5213710169
 34
0.0
 50
0.0
100
AcDbRotatedDimension
  0
DIMENSION
  5
264
330
1F
100
AcDbEntity
  8
VERMASSUNG
100
AcDbDimension
  2
_D_9
 10
75.1570495972
 20
146.7932762931
 30
0.0
 11
75.1570495972
 21
115.3182762931
 31
0.0
 70
   160
  1
KM%%c<> XMZ
 71
     2
 42
-1.0
  3
SLDDIMSTYLE2
100
AcDbAlignedDimension
 13
133.2826349906
 23
83.8432762931
 33
0.0
 14
133.2826349906
 24
146.7932762931
 34
0.0
 50
90.0
100
AcDbRotatedDimension
  0
LINE
  5
271
330
1F
100
AcDbEntity
  8
0
  6
Continuous
 62
     7
370
    25
100
AcDbLine
 10
252.1288605887
 20
28.0165454989
 30
0.0
 11
270.3550432977
 21
19.7169388393
 31
0.0
  0
LINE
  5
272
330
1F
100
AcDbEntity
  8
0
  6
Continuous
 62
     7
370
    25
100
AcDbLine
 10
278.6639955024
 20
34.1100255025
 30
0.0
 11
262.3621420782
 21
45.7430298441
 31
0.0
  0
SPLINE
  5
273
330
1F
100
AcDbEntity
  8
0
  6
Continuous
 62
     7
370
    25
100
AcDbSpline
210
0.0
220
0.0
230
1.0
 70
     8
 71
     3
 72
    34
 73
    30
 74
     0
 42
0.000000001
 43
0.00000001
 40
0.0
 40
0.0
 40
0.0
 40
0.0
 40
0.027966802990282
 40
0.0625849811849452
 40
0.0976749249305236
 40
0.1335487535829807
 40
0.1703070939210099
 40
0.207831579538221
 40
0.2458661861690843
 40
0.2841428586233551
 40
0.3224426543817511
 40
0.3606692664991019
 40
0.3988016087299507
 40
0.4368501382077964
 40
0.4748406303743056
 40
0.5128058686025253
 40
0.5507817864853882
 40
0.5887949170490071
 40
0.626881935895539
 40
0.6650805359468684
 40
0.7034248664257045
 40
0.7419382668342136
 40
0.7806181293051226
 40
0.8194027505688483
 40
0.85807538233904
 40
0.8963312704101125
 40
0.9338169683599267
 40
0.9702971065591383
 40
1.0
 40
1.0
 40
1.0
 40
1.0
 10
270.4073155973208
 20
19.70230250967704
 30
0.0
 10
270.556440356716
 20
19.64077897826769
 30
0.0
 10
270.890156379395
 20
19.50309970698941
 30
0.0
 10
271.4536144872762
 20
19.40239308830611
 30
0.0
 10
272.0791259899779
 20
19.37915501613008
 30
0.0
 10
272.7308955888124
 20
19.45370196524213
 30
0.0
 10
273.4025050012495
 20
19.62325032667088
 30
0.0
 10
274.0872194445299
 20
19.88867668939339
 30
0.0
 10
274.7755616195012
 20
20.24715757149657
 30
0.0
 10
275.4571912876188
 20
20.69344468950349
 30
0.0
 10
276.1222657509085
 20
21.22019350785945
 30
0.0
 10
276.7621748259983
 20
21.81913537638092
 30
0.0
 10
277.3695387951914
 20
22.48182928026807
 30
0.0
 10
277.9377160849557
 20
23.19967835027614
 30
0.0
 10
278.4604974023675
 20
23.96384937854773
 30
0.0
 10
278.9320923318931
 20
24.76524532848899
 30
0.0
 10
279.3470353367202
 20
25.5944992280186
 30
0.0
 10
279.7003097483398
 20
26.44208838014374
 30
0.0
 10
279.9873756638521
 20
27.29845660275165
 30
0.0
 10
280.2041278474417
 20
28.15421878544488
 30
0.0
 10
280.3468467307011
 20
29.00011445955057
 30
0.0
 10
280.4120651401456
 20
29.82697195376218
 30
0.0
 10
280.396539451836
 20
30.62538995131096
 30
0.0
 10
280.2974942122879
 20
31.38498130752861
 30
0.0
 10
280.1131290098466
 20
32.09373118553232
 30
0.0
 10
279.8449883447751
 20
32.73962379666503
 30
0.0
 10
279.4951016530412
 20
33.30654556276863
 30
0.0
 10
279.1024844992473
 20
33.77036317311393
 30
0.0
 10
278.7976647059912
 20
34.00009084415993
 30
0.0
 10
278.6608618184023
 20
34.10319244534686
 30
0.0
  0
SPLINE
  5
274
330
1F
100
AcDbEntity
  8
0
  6
Continuous
 62
     7
370
    25
100
AcDbSpline
210
0.0
220
0.0
230
1.0
 70
     8
 71
     3
 72
    13
 73
     9
 74
     0
 42
0.000000001
 43
0.00000001
 40
0.0
 40
0.0
 40
0.0
 40
0.0
 40
0.0289569384749988
 40
0.2562198522133607
 40
0.4785173403514961
 40
0.6960081117204039
 40
0.9110615900182163
 40
1.0
 40
1.0
 40
1.0
 40
1.0
 10
272.1579847197137
 20
22.79930187317521
 30
0.0
 10
272.144467341517
 20
22.80842824149428
 30
0.0
 10
272.0248614430254
 20
22.88918114097553
 30
0.0
 10
271.8505627142795
 20
23.1244012810203
 30
0.0
 10
271.6459145034531
 20
23.50676848727209
 30
0.0
 10
271.5138991265134
 20
23.96837121351435
 30
0.0
 10
271.459685178891
 20
24.38507809362073
 30
0.0
 10
271.4554806658349
 20
24.64771481555167
 30
0.0
 10
271.454250558321
 20
24.72455401209589
 30
0.0
  0
SPLINE
  5
275
330
1F
100
AcDbEntity
  8
0
  6
Continuous
 62
     7
370
    25
100
AcDbSpline
210
0.0
220
0.0
230
1.0
 70
     8
 71
     3
 72
    18
 73
    14
 74
     0
 42
0.000000001
 43
0.00000001
 40
0.0
 40
0.0
 40
0.0
 40
0.0
 40
0.0094742203832443
 40
0.114213602818359
 40
0.2189034387188621
 40
0.3234681586200793
 40
0.4278429786296371
 40
0.5319737049122909
 40
0.6358406542101289
 40
0.7395135626112093
 40
0.8431811182198714
 40
0.9473087943039545
 40
1.0
 40
1.0
 40
1.0
 40
1.0
 10
272.4590893787374
 20
28.09048845319917
 30
0.0
 10
272.4689795444995
 20
28.10923047083299
 30
0.0
 10
272.5882074512267
 20
28.33516920472909
 30
0.0
 10
272.8654388007109
 20
28.74222427452234
 30
0.0
 10
273.28425672973
 20
29.2929277600247
 30
0.0
 10
273.7407780027445
 20
29.78519094914726
 30
0.0
 10
274.2172892413549
 20
30.2116933521408
 30
0.0
 10
274.7044447514734
 20
30.56262407386953
 30
0.0
 10
275.1898512420032
 20
30.83091035995726
 30
0.0
 10
275.6627754873726
 20
31.01341098357473
 30
0.0
 10
276.1091881744441
 20
31.10274362233999
 30
0.0
 10
276.4601219052685
 20
31.11726709646029
 30
0.0
 10
276.6424020711312
 20
31.07106299098584
 30
0.0
 10
276.7036482782508
 20
31.05553839345064
 30
0.0
  0
SPLINE
  5
276
330
1F
100
AcDbEntity
  8
0
  6
Continuous
 62
     7
370
    25
100
AcDbSpline
210
0.0
220
0.0
230
1.0
 70
     8
 71
     3
 72
    13
 73
     9
 74
     0
 42
0.000000001
 43
0.00000001
 40
0.0
 40
0.0
 40
0.0
 40
0.0
 40
0.0958994960422571
 40
0.2794587733576048
 40
0.4633868299677185
 40
0.6476067698295073
 40
0.8320765845842807
 40
1.0
 40
1.0
 40
1.0
 40
1.0
 10
271.454250558321
 20
24.72455401209589
 30
0.0
 10
271.4561734026859
 20
24.8234435607435
 30
0.0
 10
271.4617767243901
 20
25.11161558565979
 30
0.0
 10
271.5248874479992
 20
25.62041913786449
 30
0.0
 10
271.6660944061034
 20
26.24905543578353
 30
0.0
 10
271.8771142908689
 20
26.88985545810485
 30
0.0
 10
272.1386028781557
 20
27.51145003620872
 30
0.0
 10
272.3556577698722
 20
27.90361357717363
 30
0.0
 10
272.4590893787374
 20
28.09048845319917
 30
0.0
  0
LINE
  5
277
330
1F
100
AcDbEntity
  8
0
  6
Continuous
 62
     7
370
    25
100
AcDbLine
 10
243.456146837
 20
26.6686047033
 30
0.0
 11
245.141111986
 21
25.6958950275
 31
0.0
  0
LINE
  5
278
330
1F
100
AcDbEntity
  8
0
  6
Continuous
 62
     7
370
    25
100
AcDbLine
 10
260.8773333006
 20
52.9547834213
 30
0.0
 11
259.1923681516
 21
53.9274930972
 31
0.0
  0
LINE
  5
279
330
1F
100
AcDbEntity
  8
0
  6
Continuous
 62
     7
370
    25
100
AcDbLine
 10
248.9452993742
 20
29.8360322726
 30
0.0
 11
251.835662415
 21
28.1674612057
 31
0.0
  0
LINE
  5
27A
330
1F
100
AcDbEntity
  8
0
  6
Continuous
 62
     7
370
    25
100
AcDbLine
 10
262.0848296444
 20
45.9214627408
 30
0.0
 11
259.1944666036
 21
47.5900338078
 31
0.0
  0
LINE
  5
27B
330
1F
100
AcDbEntity
  8
0
  6
Continuous
 62
     7
370
    25
100
AcDbLine
 10
238.8478619056
 20
29.328910968
 30
0.0
 11
241.098512882
 21
28.0296378151
 31
0.0
  0
LINE
  5
27C
330
1F
100
AcDbEntity
  8
0
  6
Continuous
 62
     7
370
    25
100
AcDbLine
 10
256.8347341966
 20
55.288526209
 30
0.0
 11
254.5840832202
 21
56.5877993618
 31
0.0
  0
LINE
  5
27D
330
1F
100
AcDbEntity
  8
0
  6
Continuous
 62
     7
370
    25
100
AcDbLine
 10
247.8066940299
 20
56.3676812694
 30
0.0
 11
238.6094818463
 21
60.9483338793
 31
0.0
  0
LINE
  5
27E
330
1F
100
AcDbEntity
  8
0
  6
Continuous
 62
     7
370
    25
100
AcDbLine
 10
227.0831340567
 20
40.9819504236
 30
0.0
 11
235.6492340623
 21
35.3080608273
 31
0.0
  0
LINE
  5
27F
330
1F
100
AcDbEntity
  8
0
  6
Continuous
 62
     7
370
    25
100
AcDbLine
 10
232.0625714984
 20
41.9284402893
 30
0.0
 11
232.0625714984
 21
41.5631215843
 31
0.0
  0
LINE
  5
280
330
1F
100
AcDbEntity
  8
0
  6
Continuous
 62
     7
370
    25
100
AcDbLine
 10
235.9605382587
 20
61.325302256
 30
0.0
 11
235.3209881499
 21
61.2380905005
 31
0.0
  0
LINE
  5
281
330
1F
100
AcDbEntity
  8
0
  6
Continuous
 62
     7
370
    25
100
AcDbLine
 10
270.3945734196
 20
19.6993051288
 30
0.0
 11
270.3550432977
 21
19.7169388393
 31
0.0
  0
LWPOLYLINE
  5
282
330
1F
100
AcDbEntity
  8
0
  6
Continuous
 62
     7
370
    25
100
AcDbPolyline
 90
       24
 70
   128
 43
0.0
 10
249.7124013224
 20
32.8603702846
 10
249.753462231
 20
33.7737021361
 10
249.8761780488
 20
34.7240926178
 10
250.0791599054
 20
35.7007740857
 10
250.3601068463
 20
36.6926801195
 10
250.7158361259
 20
37.6885717565
 10
251.1423167933
 20
38.6771654365
 10
251.6347171073
 20
39.6472599945
 10
252.187457879
 20
40.5878638431
 10
252.7942763501
 20
41.4883196825
 10
253.4482966573
 20
42.3384246471
 10
254.1421088578
 20
43.1285466488
 10
254.8678517413
 20
43.8497337807
 10
255.6173021448
 20
44.4938145475
 10
256.3819687542
 20
45.0534907995
 10
257.1531874286
 20
45.5224216593
 10
257.9222200235
 20
45.89529426
 10
258.6803530893
 20
46.1678830042
 10
259.4189965304
 20
46.3371004343
 10
260.1297815632
 20
46.4010279271
 10
260.804654353
 20
46.3589416125
 10
261.4359683749
 20
46.2113185427
 10
262.0165708476
 20
45.959831837
 10
262.3621420782
 20
45.7430298441
  0
LWPOLYLINE
  5
283
330
1F
100
AcDbEntity
  8
0
  6
Continuous
 62
     7
370
    25
100
AcDbPolyline
 90
        9
 70
   128
 43
0.0
 10
252.1288605887
 20
28.0165454989
 10
251.6347171073
 20
28.2929391376
 10
251.1423167933
 20
28.694520394
 10
250.7158361259
 20
29.1907099766
 10
250.3601068463
 20
29.7758853298
 10
250.0791599054
 20
30.4434169301
 10
249.8761780488
 20
31.1857405348
 10
249.753462231
 20
31.9944463491
 10
249.7124013224
 20
32.8603702846
  0
LWPOLYLINE
  5
284
330
1F
100
AcDbEntity
  8
0
  6
Continuous
 62
     7
370
    25
100
AcDbPolyline
 90
        3
 70
   128
 43
0.0
 10
276.6934849609
 20
31.0703116171
 10
276.7668861671
 20
31.0528109463
 10
276.8531635648
 20
31.027769648
  0
LINE
  5
285
330
1F
100
AcDbEntity
  8
0
  6
Continuous
 62
     7
370
    25
100
AcDbLine
 10
272.1587932477
 20
22.7911241989
 30
0.0
 11
272.1186473867
 21
22.8264585014
 31
0.0
  0
LWPOLYLINE
  5
286
330
1F
100
AcDbEntity
  8
0
  6
Continuous
 62
     7
370
    25
100
AcDbPolyline
 90
       20
 70
   128
 43
0.0
 10
276.1555739529
 20
31.1332218971
 10
276.3814741462
 20
30.9017751122
 10
276.6194525397
 20
30.5155531285
 10
276.7816138565
 20
30.0482611276
 10
276.8637580642
 20
29.5120014625
 10
276.8637580642
 20
28.920663332
 10
276.7816138565
 20
28.2895619834
 10
276.6194525397
 20
27.6350425114
 10
276.3814741462
 20
26.9740565231
 10
276.0738423233
 20
26.3237234561
 10
275.7045246363
 20
25.7008867206
 10
275.2830859504
 20
25.1216768333
 10
274.8204416406
 20
24.6010959424
 10
274.3285736363
 20
24.1526257643
 10
273.8202212031
 20
23.7878823446
 10
273.3085503848
 20
23.5163119221
 10
272.8068132267
 20
23.3449480044
 10
272.3280043657
 20
23.2782287108
 10
271.8845247713
 20
23.3178825032
 10
271.7098175232
 20
23.3667156711
  0
LWPOLYLINE
  5
287
330
1F
100
AcDbEntity
  8
0
  6
Continuous
 62
     7
370
    25
100
AcDbPolyline
 90
       39
 70
   128
 43
0.0
 10
241.8811296449
 20
32.9012278775
 10
241.922324238
 20
34.0296834515
 10
242.0456017943
 20
35.1973457332
 10
242.2500502295
 20
36.3955704362
 10
242.5341562084
 20
37.6154863325
 10
242.8958156813
 20
38.8480612217
 10
243.3323510062
 20
40.0841694201
 10
243.8405307052
 20
41.3146598204
 10
244.4165925136
 20
42.5304224303
 10
245.0562710385
 20
43.7224549099
 10
245.7548300279
 20
44.8819332925
 10
246.5070979317
 20
46.0002720568
 10
247.3075060976
 20
47.0691925661
 10
248.1501272957
 20
48.080779528
 10
249.0287234632
 20
49.0275450598
 10
249.9367898267
 20
49.902478494
 10
250.86760347
 20
50.6991017929
 10
251.814273054
 20
51.4115187839
 10
252.7697895044
 20
52.0344535458
 10
253.7270786331
 20
52.5632944756
 10
254.6790531224
 20
52.9941265793
 10
255.6186645911
 20
53.3237592476
 10
256.5389566687
 20
53.5497523325
 10
257.4331158893
 20
53.67043336
 10
258.2945223988
 20
53.6849085517
 10
259.1167981936
 20
53.5930701402
 10
259.8938556884
 20
53.3955985506
 10
260.6199418382
 20
53.0939551719
 10
261.2896802857
 20
52.6903739879
 10
261.8981135079
 20
52.1878433228
 10
262.4407370603
 20
51.590083023
 10
262.9135325044
 20
50.9015185993
 10
263.312999676
 20
50.1272477628
 10
263.6361817104
 20
49.273004301
 10
263.8806847982
 20
48.3451109269
 10
264.0446999178
 20
47.3504387826
 10
264.1270120544
 20
46.2963514968
 10
264.1270120544
 20
45.1906533771
 10
264.0879208524
 20
44.5115140156
  0
LWPOLYLINE
  5
288
330
1F
100
AcDbEntity
  8
0
  6
Continuous
 62
     7
370
    25
100
AcDbPolyline
 90
       21
 70
   128
 43
0.0
 10
254.0583562375
 20
27.1379170955
 10
253.7270786331
 20
26.9162028572
 10
252.7697895044
 20
26.3397812852
 10
251.814273054
 20
25.8595002361
 10
250.86760347
 20
25.4789157905
 10
249.9367898267
 20
25.2008445325
 10
249.0287234632
 20
25.0273468599
 10
248.1501272957
 20
24.9597068488
 10
247.3075060976
 20
24.9984240835
 10
246.5070979317
 20
25.1432129951
 10
245.7548300279
 20
25.3930017254
 10
245.0562710385
 20
25.7459410664
 10
244.4165925136
 20
26.1994164418
 10
243.8405307052
 20
26.750072245
 10
243.3323510062
 20
27.3938308537
 10
242.8958156813
 20
28.1259260942
 10
242.5341562084
 20
28.940937844
 10
242.2500502295
 20
29.8328319593
 10
242.0456017943
 20
30.7950055235
 10
241.922324238
 20
31.8203345683
 10
241.8811296449
 20
32.9012278775
  0
SPLINE
  5
289
330
1F
100
AcDbEntity
  8
0
  6
Continuous
 62
     7
370
    25
100
AcDbSpline
210
0.0
220
0.0
230
1.0
 70
     8
 71
     3
 72
    25
 73
    21
 74
     0
 42
0.000000001
 43
0.00000001
 40
0.0
 40
0.0
 40
0.0
 40
0.0
 40
0.1249999999999998
 40
0.1249999999999998
 40
0.2499999999999997
 40
0.2499999999999997
 40
0.3749999999999995
 40
0.3749999999999995
 40
0.4999999999999993
 40
0.4999999999999993
 40
0.5624999999999996
 40
0.5624999999999996
 40
0.6249999999999998
 40
0.6875000000000001
 40
0.6875000000000001
 40
0.7500000000000003
 40
0.7500000000000003
 40
0.8750000000000001
 40
0.8750000000000001
 40
1.0
 40
1.0
 40
1.0
 40
1.0
 10
246.7147187933952
 20
49.3330423319413
 30
0.0
 10
246.7438420916563
 20
49.22185681141211
 30
0.0
 10
246.7562311325156
 20
49.10661459898409
 30
0.0
 10
246.7492536474153
 20
48.86751903114829
 30
0.0
 10
246.7292360595632
 20
48.74274506127302
 30
0.0
 10
246.65901390185
 20
48.4963761520606
 30
0.0
 10
246.6083632472563
 20
48.37216500469948
 30
0.0
 10
246.4784485036011
 20
48.12853650938931
 30
0.0
 10
246.4007475556119
 20
48.01147941433115
 30
0.0
 10
246.2653739733857
 20
47.84282289648112
 30
0.0
 10
246.2167394760786
 20
47.78745587520896
 30
0.0
 10
246.1153001406966
 20
47.68173606381194
 30
0.0
 10
246.0094301579559
 20
47.58057510519149
 30
0.0
 10
245.8948383656284
 20
47.4884007835147
 30
0.0
 10
245.7757556964102
 20
47.40086394077458
 30
0.0
 10
245.7137976833527
 20
47.35936547126239
 30
0.0
 10
245.5259339798322
 20
47.24524514952429
 30
0.0
 10
245.3965565434782
 20
47.18163771840969
 30
0.0
 10
245.1288732904161
 20
47.08036941743546
 30
0.0
 10
244.9930016039511
 20
47.04382850921066
 30
0.0
 10
244.8574843372235
 20
47.0226603248606
 30
0.0
  0
LWPOLYLINE
  5
28A
330
1F
100
AcDbEntity
  8
0
  6
Continuous
 62
     7
370
    25
100
AcDbPolyline
 90
       15
 70
   128
 43
0.0
 10
246.7147189051
 20
49.3330423645
 10
247.6196677189
 20
50.2767721271
 10
248.5530979242
 20
51.1437848615
 10
249.5078327028
 20
51.9274150233
 10
250.4765323293
 20
52.6216383915
 10
251.4517493032
 20
53.2211153023
 10
252.4259861572
 20
53.7212407513
 10
253.3917528734
 20
54.1181676536
 10
254.3416244654
 20
54.4088438871
 10
255.2682983333
 20
54.5910355168
 10
256.1646501778
 20
54.6633423434
 10
257.0237889893
 20
54.6252075943
 10
257.839109237
 20
54.4769244774
 10
258.6043432237
 20
54.2196337048
 10
259.1923681516
 20
53.9274930972
  0
LWPOLYLINE
  5
28B
330
1F
100
AcDbEntity
  8
0
  6
Continuous
 62
     7
370
    25
100
AcDbPolyline
 90
       21
 70
   128
 43
0.0
 10
243.456146837
 20
26.6686047033
 10
242.8299869138
 20
27.092810875
 10
242.2374404193
 20
27.6344635838
 10
241.7136328005
 20
28.2719121972
 10
241.2625271784
 20
29.0003361493
 10
240.8875354719
 20
29.8142236651
 10
240.5914946909
 20
30.7074185313
 10
240.3766438866
 20
31.6731632548
 10
240.244608347
 20
32.7041527714
 10
240.196388401
 20
33.7925886661
 10
240.2323462482
 20
34.9302357455
 10
240.3522125439
 20
36.108489504
 10
240.5550784967
 20
37.3184357503
 10
240.8394103564
 20
38.5509216968
 10
241.2030573166
 20
39.7966246506
 10
241.6432679784
 20
41.0461204533
 10
242.1567127408
 20
42.2899572438
 10
242.7395075082
 20
43.5187261792
 10
243.3872433251
 20
44.7231310143
 10
244.095019962
 20
45.8940614833
 10
244.8574841104
 20
47.0226598364
  0
LWPOLYLINE
  5
28C
330
1F
100
AcDbEntity
  8
0
  6
Continuous
 62
     7
370
    25
100
AcDbPolyline
 90
       12
 70
   128
 43
0.0
 10
245.0520975127
 20
49.457318845
 10
245.9232567371
 20
50.3872655366
 10
246.8248509252
 20
51.2400313244
 10
247.7491708257
 20
52.0083239025
 10
248.6883125874
 20
52.6855736132
 10
249.6342457438
 20
53.2659894235
 10
250.5788815057
 20
53.7446089969
 10
251.5141423824
 20
54.1173381234
 10
252.4320311018
 20
54.3809912672
 10
253.3246987191
 20
54.5333126339
 10
254.1845118802
 20
54.573000552
 10
254.8526480889
 20
54.5222054781
  0
SPLINE
  5
28D
330
1F
100
AcDbEntity
  8
0
  6
Continuous
 62
     7
370
    25
100
AcDbSpline
210
0.0
220
0.0
230
1.0
 70
     8
 71
     3
 72
    26
 73
    22
 74
     0
 42
0.000000001
 43
0.00000001
 40
0.0
 40
0.0
 40
0.0
 40
0.0
 40
0.1250000000000009
 40
0.1250000000000009
 40
0.2500000000000019
 40
0.2500000000000019
 40
0.3125000000000011
 40
0.3125000000000011
 40
0.3750000000000004
 40
0.3750000000000004
 40
0.4375000000000002
 40
0.4375000000000002
 40
0.5000000000000001
 40
0.5000000000000001
 40
0.5625
 40
0.5625
 40
0.6249999999999999
 40
0.6249999999999999
 40
0.7500000000000001
 40
0.7500000000000001
 40
1.0
 40
1.0
 40
1.0
 40
1.0
 10
243.7079043077677
 20
47.78515555881612
 30
0.0
 10
243.6842667115357
 20
47.89473141838911
 30
0.0
 10
243.6666989326539
 20
48.00562067675364
 30
0.0
 10
243.6478863497845
 20
48.23095063661659
 30
0.0
 10
243.646706575017
 20
48.34662754993496
 30
0.0
 10
243.6628045782525
 20
48.51798305979452
 30
0.0
 10
243.6711232953527
 20
48.57478157188868
 30
0.0
 10
243.6948804446096
 20
48.68760778428577
 30
0.0
 10
243.7105028236586
 20
48.74406063795192
 30
0.0
 10
243.7493600360557
 20
48.85264375436052
 30
0.0
 10
243.7725859927581
 20
48.90502371458606
 30
0.0
 10
243.8275846422365
 20
49.00548048985817
 30
0.0
 10
243.8596629092592
 20
49.05375935762962
 30
0.0
 10
243.9300776577942
 20
49.14145633321336
 30
0.0
 10
243.9686560799209
 20
49.18144546118931
 30
0.0
 10
244.0523643435171
 20
49.25392414530491
 30
0.0
 10
244.0974930534589
 20
49.28626076968153
 30
0.0
 10
244.236773695649
 20
49.36946053703517
 30
0.0
 10
244.3375627672107
 20
49.40828925967126
 30
0.0
 10
244.6406350384434
 20
49.48370554712645
 30
0.0
 10
244.8491591289284
 20
49.48357540075568
 30
0.0
 10
245.0520975486189
 20
49.45731917142945
 30
0.0
  0
LWPOLYLINE
  5
28E
330
1F
100
AcDbEntity
  8
0
  6
Continuous
 62
     7
370
    25
100
AcDbPolyline
 90
       18
 70
   128
 43
0.0
 10
240.7709256788
 20
30.1293042687
 10
240.4443995554
 20
30.5986713112
 10
240.0445260618
 20
31.341711876
 10
239.7231477808
 20
32.1680842036
 10
239.4829370861
 20
33.0709147896
 10
239.3258920017
 20
34.0426954913
 10
239.2533190798
 20
35.0753442004
 10
239.2658208887
 20
36.1602718836
 10
239.363294037
 20
37.2884556822
 10
239.5449285148
 20
38.4505128195
 10
239.809212304
 20
39.6367780017
 10
240.1539478416
 20
40.8373853794
 10
240.5762691419
 20
42.0423501538
 10
241.0726622113
 20
43.2416505141
 10
241.6389992929
 20
44.4253107153
 10
242.2705704764
 20
45.583488528
 10
242.9621225522
 20
46.7065505211
 10
243.7079044511
 20
47.7851553278
  0
LINE
  5
28F
330
1F
100
AcDbEntity
  8
0
  6
Continuous
 62
     7
370
    25
100
AcDbLine
 10
242.2325120368
 20
27.5412343837
 30
0.0
 11
242.350715343
 21
27.5970968352
 31
0.0
  0
LWPOLYLINE
  5
290
330
1F
100
AcDbEntity
  8
0
  6
Continuous
 62
     7
370
    25
100
AcDbPolyline
 90
       41
 70
   128
 43
0.0
 10
242.2325120368
 20
27.5412343837
 10
241.4961631294
 20
27.822189572
 10
240.8150746673
 20
28.205499021
 10
240.194285833
 20
28.6883295334
 10
239.6383879989
 20
29.2671080238
 10
239.1514944341
 20
29.9375534606
 10
238.7372060597
 20
30.6947069076
 10
238.3985877421
 20
31.5329665077
 10
238.1381439259
 20
32.4461321619
 10
237.9578021709
 20
33.4274488779
 10
237.8588953713
 20
34.4696571041
 10
237.8421564869
 20
35.5650480783
 10
237.9077066902
 20
36.7055173699
 10
238.0550645849
 20
37.8826306111
 10
238.2831376458
 20
39.0876788221
 10
238.590239999
 20
40.3117484904
 10
238.9740996658
 20
41.5457851876
 10
239.4318763438
 20
42.7806594429
 10
239.9601844557
 20
44.0072372741
 10
240.5551161984
 20
45.2164452046
 10
241.2122698604
 20
46.3993383224
 10
241.9267847246
 20
47.5471660569
 10
242.6933759715
 20
48.6514387161
 10
243.5063715571
 20
49.7039860386
 10
244.3597583116
 20
50.6970233499
 10
245.2472237565
 20
51.6232038399
 10
246.1622022032
 20
52.4756771145
 10
247.0979261189
 20
53.2481370999
 10
248.0474732955
 20
53.9348698045
 10
249.003819602
 20
54.5307944196
 10
249.9598908272
 20
55.0315023722
 10
250.9086144939
 20
55.4332918001
 10
251.842972753
 20
55.7331897215
 10
252.7560539329
 20
55.9289764712
 10
253.6411031781
 20
56.0192050466
 10
254.4915742267
 20
56.0032074252
 10
255.3011756739
 20
55.881102259
 10
256.0639183867
 20
55.6537925894
 10
256.7741606142
 20
55.322959949
 10
257.4266478298
 20
54.8910516202
 10
257.9247722127
 20
54.4542238925
  0
LINE
  5
291
330
1F
100
AcDbEntity
  8
0
  6
Continuous
 62
     7
370
    25
100
AcDbLine
 10
259.1944666036
 20
47.5900338078
 30
0.0
 11
259.1631574221
 21
47.607888612
 31
0.0
  0
LWPOLYLINE
  5
292
330
1F
100
AcDbEntity
  8
0
  6
Continuous
 62
     7
370
    25
100
AcDbPolyline
 90
       27
 70
   128
 43
0.0
 10
235.5878794461
 20
36.6158845588
 10
235.6288119386
 20
37.7371693726
 10
235.7513064854
 20
38.8974124616
 10
235.9544562709
 20
40.0880233419
 10
236.2367565208
 20
41.300187249
 10
236.5961176733
 20
42.5249299663
 10
237.0298798673
 20
43.7531843641
 10
237.534830064
 20
44.9758556078
 10
238.1072310235
 20
46.1838926384
 10
238.7428450117
 20
47.3683505286
 10
239.4369654111
 20
48.5204612027
 10
240.1844535989
 20
49.6316938898
 10
240.979775167
 20
50.6938224218
 10
241.8170423983
 20
51.6989816933
 10
242.6900557547
 20
52.6397311566
 10
243.5923519512
 20
53.5091046276
 10
244.5172512063
 20
54.3006664603
 10
245.4579053155
 20
55.00855679
 10
246.4073501707
 20
55.6275324983
 10
247.3585564679
 20
56.1530139768
 10
248.304481732
 20
56.5811075558
 10
249.2381228361
 20
56.9086464695
 10
250.1525672031
 20
57.1332036838
 10
251.041044831
 20
57.253117367
 10
251.8969775185
 20
57.2675002959
 10
252.714028092
 20
57.1762454596
 10
253.4083776648
 20
57.0052054348
  0
LWPOLYLINE
  5
293
330
1F
100
AcDbEntity
  8
0
  6
Continuous
 62
     7
370
    25
100
AcDbPolyline
 90
        3
 70
   128
 43
0.0
 10
235.6620750217
 20
35.1820162602
 10
235.6288119386
 20
35.5418593948
 10
235.5978287366
 20
36.0800918906
  0
SPLINE
  5
294
330
1F
100
AcDbEntity
  8
0
  6
Continuous
 62
     7
370
    25
100
AcDbSpline
210
0.0
220
0.0
230
1.0
 70
     8
 71
     3
 72
    10
 73
     6
 74
     0
 42
0.000000001
 43
0.00000001
 40
0.0
 40
0.0
 40
0.0
 40
0.0
 40
0.5
 40
0.5
 40
1.0
 40
1.0
 40
1.0
 40
1.0
 10
244.434592375399
 20
46.32210227799639
 30
0.0
 10
244.3306278846147
 20
46.39544065106678
 30
0.0
 10
244.2408196081873
 20
46.48267640886018
 30
0.0
 10
244.0887771801887
 20
46.68360695005617
 30
0.0
 10
244.0268715918277
 20
46.79777771625315
 30
0.0
 10
243.9824218872373
 20
46.92079539941325
 30
0.0
  0
SPLINE
  5
295
330
1F
100
AcDbEntity
  8
0
  6
Continuous
 62
     7
370
    25
100
AcDbSpline
210
0.0
220
0.0
230
1.0
 70
     8
 71
     3
 72
    14
 73
    10
 74
     0
 42
0.000000001
 43
0.00000001
 40
0.0
 40
0.0
 40
0.0
 40
0.0
 40
0.25
 40
0.25
 40
0.5
 40
0.5
 40
0.75
 40
0.75
 40
1.0
 40
1.0
 40
1.0
 40
1.0
 10
243.9824218872373
 20
46.92079539941324
 30
0.0
 10
243.9597010843721
 20
46.98367681907079
 30
0.0
 10
243.9377865740227
 20
47.0527232485442
 30
0.0
 10
243.8956755199599
 20
47.20037576516297
 30
0.0
 10
243.8761539660468
 20
47.27677555202128
 30
0.0
 10
243.8378077238731
 20
47.43110784341688
 30
0.0
 10
243.8194481309893
 20
47.50806043974853
 30
0.0
 10
243.7774446864076
 20
47.65345060726452
 30
0.0
 10
243.7536683653946
 20
47.72004151345755
 30
0.0
 10
243.7252068612924
 20
47.76053712868889
 30
0.0
  0
LINE
  5
296
330
1F
100
AcDbEntity
  8
0
  6
Continuous
 62
     7
370
    25
100
AcDbLine
 10
243.7252070495
 20
47.7605375204
 30
0.0
 11
243.7079044511
 21
47.7851553278
 31
0.0
  0
LINE
  5
297
330
1F
100
AcDbEntity
  8
0
  6
Continuous
 62
     7
370
    25
100
AcDbLine
 10
245.0520975127
 20
49.457318845
 30
0.0
 11
245.0694001111
 21
49.4327010377
 31
0.0
  0
SPLINE
  5
298
330
1F
100
AcDbEntity
  8
0
  6
Continuous
 62
     7
370
    25
100
AcDbSpline
210
0.0
220
0.0
230
1.0
 70
     8
 71
     3
 72
    16
 73
    12
 74
     0
 42
0.000000001
 43
0.00000001
 40
0.0
 40
0.0
 40
0.0
 40
0.0
 40
0.1250000000000001
 40
0.1250000000000001
 40
0.2500000000000003
 40
0.2500000000000003
 40
0.5000000000000002
 40
0.5000000000000002
 40
0.7500000000000001
 40
0.7500000000000001
 40
1.0
 40
1.0
 40
1.0
 40
1.0
 10
245.0694001021436
 20
49.43270074130217
 30
0.0
 10
245.0835525085477
 20
49.41256440548938
 30
0.0
 10
245.1052109130214
 20
49.39576698481196
 30
0.0
 10
245.1576288420567
 20
49.36892146348048
 30
0.0
 10
245.188221721195
 20
49.35869597891948
 30
0.0
 10
245.2873025700525
 20
49.3341955384868
 30
0.0
 10
245.3611851076684
 20
49.3259356160853
 30
0.0
 10
245.5142847000598
 20
49.31474964938038
 30
0.0
 10
245.5923686747074
 20
49.3121529776292
 30
0.0
 10
245.7517123084495
 20
49.31012397679549
 30
0.0
 10
245.8303652032811
 20
49.31076156545772
 30
0.0
 10
245.9061176710737
 20
49.31385466627275
 30
0.0
  0
SPLINE
  5
299
330
1F
100
AcDbEntity
  8
0
  6
Continuous
 62
     7
370
    25
100
AcDbSpline
210
0.0
220
0.0
230
1.0
 70
     8
 71
     3
 72
    10
 73
     6
 74
     0
 42
0.000000001
 43
0.00000001
 40
0.0
 40
0.0
 40
0.0
 40
0.0
 40
0.5
 40
0.5
 40
1.0
 40
1.0
 40
1.0
 40
1.0
 10
245.9061176710737
 20
49.31385466627275
 30
0.0
 10
246.0543120109744
 20
49.31990569070652
 30
0.0
 10
246.196536476705
 20
49.30974346049338
 30
0.0
 10
246.4689278670458
 20
49.2586930245533
 30
0.0
 10
246.5990551969143
 20
49.21733192190874
 30
0.0
 10
246.7171305390997
 20
49.16155805395647
 30
0.0
  0
LINE
  5
29A
330
1F
100
AcDbEntity
  8
0
  6
Continuous
 62
     7
370
    25
100
AcDbLine
 10
246.8723336306
 20
49.1899766615
 30
0.0
 11
246.8549404823
 21
49.2147239461
 31
0.0
  0
ARC
  5
29B
330
1F
100
AcDbEntity
  8
0
  6
Continuous
 62
     7
370
    25
100
AcDbCircle
 10
229.3997515278
 20
44.4376288886
 30
0.0
 40
4.160340149630765
100
AcDbArc
 50
211.7954354499
 51
236.1628935314
  0
SPLINE
  5
29C
330
1F
100
AcDbEntity
  8
0
  6
Continuous
 62
     7
370
    25
100
AcDbSpline
210
0.0
220
0.0
230
1.0
 70
     8
 71
     3
 72
     8
 73
     4
 74
     0
 42
0.000000001
 43
0.00000001
 40
0.0
 40
0.0
 40
0.0
 40
0.0
 40
1.0
 40
1.0
 40
1.0
 40
1.0
 10
227.2941768699629
 20
41.32085363471781
 30
0.0
 10
226.8174035781387
 20
41.62894644265045
 30
0.0
 10
226.3406012012939
 20
41.93717588822319
 30
0.0
 10
225.8637687567682
 20
42.24554104444311
 30
0.0
  0
SPLINE
  5
29D
330
1F
100
AcDbEntity
  8
0
  6
Continuous
 62
     7
370
    25
100
AcDbSpline
210
0.0
220
0.0
230
1.0
 70
     8
 71
     3
 72
    23
 73
    19
 74
     0
 42
0.000000001
 43
0.00000001
 40
0.0
 40
0.0
 40
0.0
 40
0.0
 40
0.0521036415675031
 40
0.1035646240925967
 40
0.1544751946736949
 40
0.2049306267473421
 40
0.2550287880844035
 40
0.3048696389141012
 40
0.3545546704609132
 40
0.4041862979523234
 40
0.4538672252126086
 40
0.5036997999421611
 40
0.5901870230746071
 40
0.674271637822954
 40
0.7565997087222995
 40
0.8378563983721267
 40
0.9187511781367398
 40
1.0
 40
1.0
 40
1.0
 40
1.0
 10
228.1747416735045
 20
41.1461229365977
 30
0.0
 10
228.1694727345644
 20
41.13620147436288
 30
0.0
 10
228.1589998450641
 20
41.11648092363193
 30
0.0
 10
228.1397535493014
 20
41.0919130946797
 30
0.0
 10
228.1179578089686
 20
41.07122451242047
 30
0.0
 10
228.0933065177637
 20
41.0546935771235
 30
0.0
 10
228.0658100032248
 20
41.04217607754733
 30
0.0
 10
228.0353989492175
 20
41.03364145372494
 30
0.0
 10
228.0020285774449
 20
41.02903158107686
 30
0.0
 10
227.965652689173
 20
41.0282968379404
 30
0.0
 10
227.9262243175839
 20
41.03139192049169
 30
0.0
 10
227.873375926034
 20
41.03992769597082
 30
0.0
 10
227.8048369322638
 20
41.05752413481787
 30
0.0
 10
227.7171157003094
 20
41.08916074290374
 30
0.0
 10
227.6223847808155
 20
41.13134040023647
 30
0.0
 10
227.5203505334856
 20
41.18407683596345
 30
0.0
 10
227.4114366202965
 20
41.24639339187428
 30
0.0
 10
227.3333203093105
 20
41.29599745012539
 30
0.0
 10
227.2941768699629
 20
41.3208536347178
 30
0.0
  0
SPLINE
  5
29E
330
1F
100
AcDbEntity
  8
0
  6
Continuous
 62
     7
370
    25
100
AcDbSpline
210
0.0
220
0.0
230
1.0
 70
     8
 71
     3
 72
     8
 73
     4
 74
     0
 42
0.000000001
 43
0.00000001
 40
0.0
 40
0.0
 40
0.0
 40
0.0
 40
1.0
 40
1.0
 40
1.0
 40
1.0
 10
229.6482446999584
 20
40.1988028000415
 30
0.0
 10
229.1568773879169
 20
40.51467742000899
 30
0.0
 10
228.6654911879907
 20
40.83066344129846
 30
0.0
 10
228.1740854778467
 20
41.14676032214115
 30
0.0
  0
SPLINE
  5
29F
330
1F
100
AcDbEntity
  8
0
  6
Continuous
 62
     7
370
    25
100
AcDbSpline
210
0.0
220
0.0
230
1.0
 70
     8
 71
     3
 72
    18
 73
    14
 74
     0
 42
0.000000001
 43
0.00000001
 40
0.0
 40
0.0
 40
0.0
 40
0.0
 40
0.0923824559411628
 40
0.1844689291573508
 40
0.2764953615950219
 40
0.3686975365494161
 40
0.4613092840003458
 40
0.5545607518442569
 40
0.6486768051537182
 40
0.7438756050146744
 40
0.8403674044302629
 40
0.9203921078121001
 40
1.0
 40
1.0
 40
1.0
 40
1.0
 10
230.461808819158
 20
39.55449507549715
 30
0.0
 10
230.4382413050349
 20
39.5697690497627
 30
0.0
 10
230.3911817843835
 20
39.60026806224334
 30
0.0
 10
230.3187839964206
 20
39.64990063485425
 30
0.0
 10
230.2453017875251
 20
39.70223017752277
 30
0.0
 10
230.1706023397802
 20
39.75754786323064
 30
0.0
 10
230.0947415500121
 20
39.81578617834421
 30
0.0
 10
230.0177302692253
 20
39.8769790899818
 30
0.0
 10
229.9395981371443
 20
39.94114280656335
 30
0.0
 10
229.8603719025004
 20
40.00829176643047
 30
0.0
 10
229.7850754180906
 20
40.07414267617663
 30
0.0
 10
229.7142481099685
 20
40.13767426298495
 30
0.0
 10
229.6703437391614
 20
40.17833500799845
 30
0.0
 10
229.6484488723561
 20
40.198612296567
 30
0.0
  0
LINE
  5
2A0
330
1F
100
AcDbEntity
  8
0
  6
Continuous
 62
     7
370
    25
100
AcDbLine
 10
231.101515351
 20
39.142741269
 30
0.0
 11
230.4618085087
 21
39.5544949366
 31
0.0
  0
SPLINE
  5
2A1
330
1F
100
AcDbEntity
  8
0
  6
Continuous
 62
     7
370
    25
100
AcDbSpline
210
0.0
220
0.0
230
1.0
 70
     8
 71
     3
 72
    25
 73
    21
 74
     0
 42
0.000000001
 43
0.00000001
 40
0.0
 40
0.0
 40
0.0
 40
0.0
 40
0.0280105225426465
 40
0.0559601148860768
 40
0.0839014045043132
 40
0.1118870776786367
 40
0.1399695827588937
 40
0.1682008401739883
 40
0.196631967042422
 40
0.2253130233141467
 40
0.2542927850735845
 40
0.3799486436587335
 40
0.5057850221667067
 40
0.6313085886338298
 40
0.7532068238012468
 40
0.8039473267955921
 40
0.8535894438554446
 40
0.9025339722394071
 40
0.9511970353791085
 40
1.0
 40
1.0
 40
1.0
 40
1.0
 10
232.2038809441482
 20
39.85864725937423
 30
0.0
 10
232.2088290516788
 20
39.83102339826674
 30
0.0
 10
232.2187145033143
 20
39.77583576516142
 30
0.0
 10
232.2302501529175
 20
39.69667505779151
 30
0.0
 10
232.2393232747303
 20
39.62037171869313
 30
0.0
 10
232.2456920834433
 20
39.54717595772352
 30
0.0
 10
232.2494083222534
 20
39.47702848951013
 30
0.0
 10
232.2504449432362
 20
39.40995220299735
 30
0.0
 10
232.2487964680093
 20
39.3459482937709
 30
0.0
 10
232.2444503161404
 20
39.28501944050407
 30
0.0
 10
232.2295939915728
 20
39.1631313190069
 30
0.0
 10
232.1845057345077
 20
39.00823044735175
 30
0.0
 10
232.0711462140151
 20
38.8772873290097
 30
0.0
 10
231.9093219920208
 20
38.82141092819969
 30
0.0
 10
231.735306772889
 20
38.84128498058246
 30
0.0
 10
231.5839458522029
 20
38.88860278293794
 30
0.0
 10
231.4735456195046
 20
38.9335182066733
 30
0.0
 10
231.3563861240559
 20
38.99089393796447
 30
0.0
 10
231.232820457122
 20
39.0595710024173
 30
0.0
 10
231.1453254070269
 20
39.11499124837048
 30
0.0
 10
231.1015150873453
 20
39.14274114610078
 30
0.0
  0
ARC
  5
2A2
330
1F
100
AcDbEntity
  8
0
  6
Continuous
 62
     7
370
    25
100
AcDbCircle
 10
243.3969021085
 20
41.644697628
 30
0.0
 40
11.33462419218393
100
AcDbArc
 50
170.9338462887
 51
189.0661537113
  0
SPLINE
  5
2A3
330
1F
100
AcDbEntity
  8
0
  6
Continuous
 62
     7
370
    25
100
AcDbSpline
210
0.0
220
0.0
230
1.0
 70
     8
 71
     3
 72
    26
 73
    22
 74
     0
 42
0.000000001
 43
0.00000001
 40
0.0
 40
0.0
 40
0.0
 40
0.0
 40
0.0241259796963635
 40
0.0482159912272988
 40
0.0723203915124065
 40
0.0964895678710797
 40
0.1207736231963513
 40
0.1452220711242836
 40
0.1698835501657706
 40
0.1948055644472379
 40
0.2200342569517627
 40
0.2456142191611387
 40
0.3690971486901655
 40
0.4940698769485187
 40
0.6192566784762451
 40
0.7454656653603225
 40
0.7971495824713707
 40
0.8481710308405392
 40
0.8988013269235234
 40
0.9493179290492194
 40
1.0
 40
1.0
 40
1.0
 40
1.0
 10
231.1015150873453
 20
46.90685153746535
 30
0.0
 10
231.1232333167213
 20
46.89252001407026
 30
0.0
 10
231.1666373968974
 20
46.86387833340122
 30
0.0
 10
231.2299445142588
 20
46.81588603547242
 30
0.0
 10
231.2918060819767
 20
46.76428683758674
 30
0.0
 10
231.3521105971132
 20
46.70871204471349
 30
0.0
 10
231.4109004490531
 20
46.64925680408636
 30
0.0
 10
231.4681809674829
 20
46.58589249524895
 30
0.0
 10
231.5239721068091
 20
46.51862371728502
 30
0.0
 10
231.5782933542309
 20
46.4474496033249
 30
0.0
 10
231.6311723294399
 20
46.37236046357662
 30
0.0
 10
231.7479671541762
 20
46.19310601487476
 30
0.0
 10
231.9098367121027
 20
45.88280054303138
 30
0.0
 10
232.0730216196345
 20
45.41288675489969
 30
0.0
 10
232.184533024808
 20
44.91392372098965
 30
0.0
 10
232.2316668629165
 20
44.50504004793265
 30
0.0
 10
232.246785802449
 20
44.20076809134193
 30
0.0
 10
232.2487389414315
 20
43.99951884964662
 30
0.0
 10
232.2422609157924
 20
43.80385892992403
 30
0.0
 10
232.2281339931053
 20
43.61322264202656
 30
0.0
 10
232.2119741014203
 20
43.49163936828774
 30
0.0
 10
232.2038809441482
 20
43.43074833168886
 30
0.0
  0
LINE
  5
2A4
330
1F
100
AcDbEntity
  8
0
  6
Continuous
 62
     7
370
    25
100
AcDbLine
 10
230.4618085087
 20
47.3198263878
 30
0.0
 11
231.101515351
 21
46.9068514167
 31
0.0
  0
SPLINE
  5
2A5
330
1F
100
AcDbEntity
  8
0
  6
Continuous
 62
     7
370
    25
100
AcDbSpline
210
0.0
220
0.0
230
1.0
 70
     8
 71
     3
 72
    14
 73
    10
 74
     0
 42
0.000000001
 43
0.00000001
 40
0.0
 40
0.0
 40
0.0
 40
0.0
 40
0.0789261963172865
 40
0.158232872055133
 40
0.330847539457262
 40
0.5000195457610529
 40
0.6670357883572423
 40
0.8332395193657144
 40
1.0
 40
1.0
 40
1.0
 40
1.0
 10
229.6478561033067
 20
47.52840882074995
 30
0.0
 10
229.6695729846425
 20
47.53001198460851
 30
0.0
 10
229.7131114378582
 20
47.53322604069577
 30
0.0
 10
229.8046365565072
 20
47.53404708076366
 30
0.0
 10
229.9215448899402
 20
47.52611109898035
 30
0.0
 10
230.0623652283219
 20
47.49983543010254
 30
0.0
 10
230.199577536134
 20
47.4568778315703
 30
0.0
 10
230.3335082105505
 20
47.39852070676066
 30
0.0
 10
230.4189943025097
 20
47.34608716061068
 30
0.0
 10
230.461808819158
 20
47.31982655045624
 30
0.0
  0
SPLINE
  5
2A6
330
1F
100
AcDbEntity
  8
0
  6
Continuous
 62
     7
370
    25
100
AcDbSpline
210
0.0
220
0.0
230
1.0
 70
     8
 71
     3
 72
     8
 73
     4
 74
     0
 42
0.000000001
 43
0.00000001
 40
0.0
 40
0.0
 40
0.0
 40
0.0
 40
1.0
 40
1.0
 40
1.0
 40
1.0
 10
227.8455525203022
 20
48.69080023216265
 30
0.0
 10
228.4463107439984
 20
48.30353274900375
 30
0.0
 10
229.0470396068588
 20
47.91606539908044
 30
0.0
 10
229.6477402512056
 20
47.52839850649082
 30
0.0
  0
SPLINE
  5
2A7
330
1F
100
AcDbEntity
  8
0
  6
Continuous
 62
     7
370
    25
100
AcDbSpline
210
0.0
220
0.0
230
1.0
 70
     8
 71
     3
 72
    13
 73
     9
 74
     0
 42
0.000000001
 43
0.00000001
 40
0.0
 40
0.0
 40
0.0
 40
0.0
 40
0.1667030582307992
 40
0.3329480818053035
 40
0.4990671507274896
 40
0.6653938523718403
 40
0.832261271055009
 40
1.0
 40
1.0
 40
1.0
 40
1.0
 10
227.5037239852679
 20
48.99186501124843
 30
0.0
 10
227.5240251677078
 20
48.9782999045692
 30
0.0
 10
227.5645717528965
 20
48.95120696280636
 30
0.0
 10
227.6237213898841
 20
48.90601238979863
 30
0.0
 10
227.6814929347866
 20
48.85760124131569
 30
0.0
 10
227.7377426722462
 20
48.80556612654524
 30
0.0
 10
227.7926698809924
 20
48.75026815933622
 30
0.0
 10
227.8278905905829
 20
48.71065090417585
 30
0.0
 10
227.8455468025238
 20
48.69079069517493
 30
0.0
  0
SPLINE
  5
2A8
330
1F
100
AcDbEntity
  8
0
  6
Continuous
 62
     7
370
    25
100
AcDbSpline
210
0.0
220
0.0
230
1.0
 70
     8
 71
     3
 72
     8
 73
     4
 74
     0
 42
0.000000001
 43
0.00000001
 40
0.0
 40
0.0
 40
0.0
 40
0.0
 40
1.0
 40
1.0
 40
1.0
 40
1.0
 10
225.5597434694772
 20
50.2465868636279
 30
0.0
 10
226.2077735418774
 20
49.82859154774314
 30
0.0
 10
226.8557665189793
 20
49.41035078532552
 30
0.0
 10
227.5037239852679
 20
48.99186501124843
 30
0.0
  0
LWPOLYLINE
  5
2A9
330
1F
100
AcDbEntity
  8
0
  6
Continuous
 62
     7
370
    25
100
AcDbPolyline
 90
       20
 70
   128
 43
0.0
 10
225.5597441198
 20
50.2465869141
 10
225.9240674052
 20
51.3121456513
 10
226.361377837
 20
52.3729404644
 10
226.867196654
 20
53.4181074203
 10
227.4363444035
 20
54.4369431098
 10
228.0629913205
 20
55.4190135783
 10
228.7407212056
 20
56.3542626865
 10
229.4625926705
 20
57.2331113445
 10
230.2212138825
 20
58.046560738
 10
231.0088158273
 20
58.7862794891
 10
231.817332734
 20
59.444692671
 10
232.6384846403
 20
60.0150576084
 10
233.4638624267
 20
60.4915334996
 10
234.2850135921
 20
60.8692408195
 10
235.0935288525
 20
61.1443113121
 10
235.8811283277
 20
61.3139278592
 10
236.639746247
 20
61.3763543679
 10
237.3616144192
 20
61.3309504968
 10
238.0393393653
 20
61.1781819627
 10
238.6094818463
 20
60.9483338793
  0
SPLINE
  5
2AA
330
1F
100
AcDbEntity
  8
0
  6
Continuous
 62
     7
370
    25
100
AcDbSpline
210
0.0
220
0.0
230
1.0
 70
    11
 71
     3
 72
    39
 73
    35
 74
     0
 42
0.000000001
 43
0.00000001
 40
0.0
 40
0.0
 40
0.0
 40
0.0
 40
0.0310664058348413
 40
0.0621048158426138
 40
0.0931361551796939
 40
0.1235538293503726
 40
0.1538561545809849
 40
0.1850588072749156
 40
0.2160250992946587
 40
0.2471867223797568
 40
0.2784462884304475
 40
0.3100516090231247
 40
0.3419834369138969
 40
0.3734259894013238
 40
0.4048604886787081
 40
0.436874065183343
 40
0.4685120685926471
 40
0.499805535863323
 40
0.5309508213226204
 40
0.5618649784438111
 40
0.5930416446590877
 40
0.623374245013332
 40
0.6540913579072549
 40
0.6849496782718453
 40
0.7158160645166705
 40
0.7471731804043553
 40
0.7784514311866318
 40
0.810129591156098
 40
0.8419598919688388
 40
0.8735175891922303
 40
0.9050808037886594
 40
0.9370235169792582
 40
0.9687441590030581
 40
1.0
 40
1.0
 40
1.0
 40
1.0
 10
238.7683289506825
 20
59.25177723896932
 30
0.0
 10
239.0312145708806
 20
59.22324275167922
 30
0.0
 10
239.5581031813642
 20
59.13730026335761
 30
0.0
 10
240.3221152504402
 20
58.93692514328517
 30
0.0
 10
241.0292654384911
 20
58.68992303706564
 30
0.0
 10
241.6421765030865
 20
58.41194115891254
 30
0.0
 10
242.139307828757
 20
58.11780746158382
 30
0.0
 10
242.4984995498304
 20
57.81630093339159
 30
0.0
 10
242.7202188185893
 20
57.50930342848918
 30
0.0
 10
242.7854706959714
 20
57.19879816708748
 30
0.0
 10
242.6986234848574
 20
56.87965368233866
 30
0.0
 10
242.4562778970991
 20
56.55033371676646
 30
0.0
 10
242.0763400343727
 20
56.2113929952088
 30
0.0
 10
241.562534081213
 20
55.87355453079817
 30
0.0
 10
240.9366432703029
 20
55.54765662948732
 30
0.0
 10
240.223172283811
 20
55.25100973624784
 30
0.0
 10
239.4592698075467
 20
54.99490642781089
 30
0.0
 10
238.6734767246451
 20
54.8058788598201
 30
0.0
 10
237.8919392696051
 20
54.69770293776685
 30
0.0
 10
237.1358262848527
 20
54.69003905439714
 30
0.0
 10
236.4334616984592
 20
54.78796108978329
 30
0.0
 10
235.8144413514165
 20
55.00960952328579
 30
0.0
 10
235.3053840864027
 20
55.34547761019752
 30
0.0
 10
234.9324404929689
 20
55.78528817637829
 30
0.0
 10
234.7038385417204
 20
56.29636281690093
 30
0.0
 10
234.6349922350012
 20
56.84754790466437
 30
0.0
 10
234.7196086482263
 20
57.40521983297612
 30
0.0
 10
234.9627174381611
 20
57.93529997389511
 30
0.0
 10
235.3448472809789
 20
58.40782432300784
 30
0.0
 10
235.8609828553892
 20
58.79394583390107
 30
0.0
 10
236.4879607158911
 20
59.0775700212342
 30
0.0
 10
237.2038681482549
 20
59.24730723996062
 30
0.0
 10
237.9723115404406
 20
59.30884607467193
 30
0.0
 10
238.503840319813
 20
59.28048572241636
 30
0.0
 10
238.7683289506825
 20
59.25177723896931
 30
0.0
  0
LINE
  5
2AB
330
1F
100
AcDbEntity
  8
0
  6
Continuous
 62
     7
370
    25
100
AcDbLine
 10
229.5437915377
 20
42.8126506216
 30
0.0
 11
229.8578365963
 21
42.6445063944
 31
0.0
  0
LINE
  5
2AC
330
1F
100
AcDbEntity
  8
0
  6
Continuous
 62
     7
370
    25
100
AcDbLine
 10
228.5568335177
 20
43.3824093588
 30
0.0
 11
229.5437915377
 21
42.8126506216
 31
0.0
  0
ARC
  5
2AD
330
1F
100
AcDbEntity
  8
0
  6
Continuous
 62
     7
370
    25
100
AcDbCircle
 10
230.7888185153
 20
46.8903228062
 30
0.0
 40
4.399246259573176
100
AcDbArc
 50
267.4956853267
 51
287.1750110524
  0
SPLINE
  5
2AE
330
1F
100
AcDbEntity
  8
0
  6
Continuous
 62
     7
370
    25
100
AcDbSpline
210
0.0
220
0.0
230
1.0
 70
     8
 71
     3
 72
    14
 73
    10
 74
     0
 42
0.000000001
 43
0.00000001
 40
0.0
 40
0.0
 40
0.0
 40
0.0
 40
0.1520927654964334
 40
0.2674857265629534
 40
0.3827932169674477
 40
0.4986859355030901
 40
0.6145509981003119
 40
0.825743267810779
 40
1.0
 40
1.0
 40
1.0
 40
1.0
 10
240.1068349089819
 20
56.24928152363359
 30
0.0
 10
239.9020399676895
 20
56.36166242386401
 30
0.0
 10
239.5418668622219
 20
56.55930684601528
 30
0.0
 10
238.94224369402
 20
56.8234297128174
 30
0.0
 10
238.3630710596374
 20
57.03654610735029
 30
0.0
 10
237.7521792441435
 20
57.20733425843619
 30
0.0
 10
236.9630435543673
 20
57.34671301365538
 30
0.0
 10
236.0637702294443
 20
57.37384692833232
 30
0.0
 10
235.4991748797764
 20
57.16585237201464
 30
0.0
 10
235.243928296811
 20
57.0718206025239
 30
0.0
  0
SPLINE
  5
2AF
330
1F
100
AcDbEntity
  8
0
  6
Continuous
 62
     7
370
    25
100
AcDbSpline
210
0.0
220
0.0
230
1.0
 70
     8
 71
     3
 72
    10
 73
     6
 74
     0
 42
0.000000001
 43
0.00000001
 40
0.0
 40
0.0
 40
0.0
 40
0.0
 40
0.3798174073072795
 40
0.9603711649033085
 40
1.0
 40
1.0
 40
1.0
 40
1.0
 10
241.2467150308414
 20
55.72105459611511
 30
0.0
 10
241.117062413593
 20
55.79138315795247
 30
0.0
 10
240.7892347978385
 20
55.96920945437359
 30
0.0
 10
240.3813062528284
 20
56.142262304776
 30
0.0
 10
240.1246734713965
 20
56.24146773702432
 30
0.0
 10
240.1082749811847
 20
56.24780683096468
 30
0.0
  0
SPLINE
  5
2B0
330
1F
100
AcDbEntity
  8
0
  6
Continuous
 62
     7
370
    25
100
AcDbSpline
210
0.0
220
0.0
230
1.0
 70
     8
 71
     3
 72
    24
 73
    20
 74
     0
 42
0.000000001
 43
0.00000001
 40
0.0
 40
0.0
 40
0.0
 40
0.0
 40
0.0618858212107145
 40
0.1150115607194259
 40
0.1593831488268445
 40
0.2428114970815824
 40
0.318331853291959
 40
0.3935543804326023
 40
0.4204843226990471
 40
0.4483397435477174
 40
0.4771286702554668
 40
0.5451537905345539
 40
0.6363475754294583
 40
0.6968782859867285
 40
0.7498596693403015
 40
0.7959701295389731
 40
0.8771179302751783
 40
0.9543004207779655
 40
1.0
 40
1.0
 40
1.0
 40
1.0
 10
238.7134503836803
 20
58.67791933901255
 30
0.0
 10
238.529493594344
 20
58.6968139039785
 30
0.0
 10
238.1876195263818
 20
58.73192846436301
 30
0.0
 10
237.723401553405
 20
58.72543791597574
 30
0.0
 10
237.2139399411321
 20
58.67771372317844
 30
0.0
 10
236.6748448417575
 20
58.55309712501151
 30
0.0
 10
236.1320068570339
 20
58.31060684106852
 30
0.0
 10
235.7916138415388
 20
58.05323409044262
 30
0.0
 10
235.5849871329878
 20
57.83842698994379
 30
0.0
 10
235.4670030767767
 20
57.69192363864482
 30
0.0
 10
235.3148326725857
 20
57.46217281442436
 30
0.0
 10
235.148152034006
 20
57.08923011899734
 30
0.0
 10
235.0797904531688
 20
56.62667106630446
 30
0.0
 10
235.1301459167883
 20
56.19833836810263
 30
0.0
 10
235.2355750603035
 20
55.87841147445825
 30
0.0
 10
235.4177743869895
 20
55.53794595926505
 30
0.0
 10
235.71865281206
 20
55.20199770240998
 30
0.0
 10
236.1083377066584
 20
54.92893840169495
 30
0.0
 10
236.4012566628528
 20
54.83498333076766
 30
0.0
 10
236.5101925969091
 20
54.80004164060269
 30
0.0
  0
SPLINE
  5
2B1
330
1F
100
AcDbEntity
  8
0
  6
Continuous
 62
     7
370
    25
100
AcDbSpline
210
0.0
220
0.0
230
1.0
 70
     8
 71
     3
 72
    22
 73
    18
 74
     0
 42
0.000000001
 43
0.00000001
 40
0.0
 40
0.0
 40
0.0
 40
0.0
 40
0.0348562931077237
 40
0.0924900623539491
 40
0.1569277788850789
 40
0.2282085360920659
 40
0.2894089077515647
 40
0.3420696922203051
 40
0.3861903498429299
 40
0.4217735408338573
 40
0.5236918810098915
 40
0.6145479843395962
 40
0.7067593487247504
 40
0.7559111409869668
 40
0.8071360726317764
 40
0.8951475619903156
 40
1.0
 40
1.0
 40
1.0
 40
1.0
 10
241.9771943310646
 20
56.16077525124282
 30
0.0
 10
242.0148302209402
 20
56.19594847365442
 30
0.0
 10
242.1146958546891
 20
56.28927949781074
 30
0.0
 10
242.2335199034241
 20
56.44462473741106
 30
0.0
 10
242.3299309719424
 20
56.63335394221339
 30
0.0
 10
242.3612071270844
 20
56.81933282782588
 30
0.0
 10
242.3318018029108
 20
56.99114438916132
 30
0.0
 10
242.2633067797027
 20
57.1379509796721
 30
0.0
 10
242.1754941326883
 20
57.25916190168594
 30
0.0
 10
242.021202980734
 20
57.4247450488694
 30
0.0
 10
241.753376662778
 20
57.63490929122494
 30
0.0
 10
241.3018065233115
 20
57.89035310168698
 30
0.0
 10
240.8542438865883
 20
58.09698979835797
 30
0.0
 10
240.4453501177044
 20
58.25549401500168
 30
0.0
 10
240.0232705178969
 20
58.39801076293647
 30
0.0
 10
239.4449579005178
 20
58.56126733179192
 30
0.0
 10
238.9710793066502
 20
58.63683578171372
 30
0.0
 10
238.7134503836803
 20
58.67791933901255
 30
0.0
  0
LINE
  5
2B2
330
1F
100
AcDbEntity
  8
0
  6
Continuous
 62
     7
370
    25
100
AcDbLine
 10
232.2038806618
 20
43.4307481509
 30
0.0
 11
232.1986425988
 21
43.7268315738
 31
0.0
  0
LINE
  5
2B3
330
1F
100
AcDbEntity
  8
0
  6
Continuous
 62
     7
370
    25
100
AcDbLine
 10
232.1986425988
 20
43.7268315738
 30
0.0
 11
232.2417403856
 21
44.3784567695
 31
0.0
  0
LINE
  5
2B4
330
1F
100
AcDbEntity
  8
0
  6
Continuous
 62
     7
370
    25
100
AcDbLine
 10
231.7190937808
 20
46.2075197913
 30
0.0
 11
231.4076792782
 21
46.5361163608
 31
0.0
  0
SPLINE
  5
2B5
330
1F
100
AcDbEntity
  8
0
  6
Continuous
 62
     7
370
    25
100
AcDbSpline
210
0.0
220
0.0
230
1.0
 70
     8
 71
     3
 72
    19
 73
    15
 74
     0
 42
0.000000001
 43
0.00000001
 40
0.0
 40
0.0
 40
0.0
 40
0.0
 40
0.0210492621018804
 40
0.1455865440207667
 40
0.2712169722633744
 40
0.3929514297049947
 40
0.5136082229787104
 40
0.6366369099308349
 40
0.699422462668311
 40
0.7643939711952468
 40
0.8122544601557282
 40
0.8606584764820763
 40
0.9188817427801165
 40
1.0
 40
1.0
 40
1.0
 40
1.0
 10
235.1242058313379
 20
56.42316939155474
 30
0.0
 10
235.1167372563521
 20
56.47792973846015
 30
0.0
 10
235.0650810977803
 20
56.8566779157953
 30
0.0
 10
235.30785199244
 20
57.46682882460947
 30
0.0
 10
235.892182459855
 20
58.15620252784903
 30
0.0
 10
236.7983088274952
 20
58.57350207808109
 30
0.0
 10
237.8726549559572
 20
58.69392803576974
 30
0.0
 10
238.8265888250529
 20
58.53322849218213
 30
0.0
 10
239.5612513676222
 20
58.23586239334034
 30
0.0
 10
240.0340546070945
 20
57.93820431593564
 30
0.0
 10
240.391024777214
 20
57.56729251115828
 30
0.0
 10
240.5858729187222
 20
57.1349712158507
 30
0.0
 10
240.6149019489664
 20
56.63202988462555
 30
0.0
 10
240.552528347346
 20
56.29828487205037
 30
0.0
 10
240.516217291372
 20
56.10399380150351
 30
0.0
  0
SPLINE
  5
2B6
330
1F
100
AcDbEntity
  8
0
  6
Continuous
 62
     7
370
    25
100
AcDbSpline
210
0.0
220
0.0
230
1.0
 70
     8
 71
     3
 72
    10
 73
     6
 74
     0
 42
0.000000001
 43
0.00000001
 40
0.0
 40
0.0
 40
0.0
 40
0.0
 40
0.2950355258923527
 40
0.9801030833761959
 40
1.0
 40
1.0
 40
1.0
 40
1.0
 10
240.5189451473601
 20
56.10275524808112
 30
0.0
 10
240.6017697176206
 20
56.06399006639234
 30
0.0
 10
240.8769115550183
 20
55.93521278106073
 30
0.0
 10
241.1519784895584
 20
55.79394350117088
 30
0.0
 10
241.3005571001375
 20
55.69988076523202
 30
0.0
 10
241.3047505826964
 20
55.6972259386654
 30
0.0
  0
ARC
  5
2B7
330
1F
100
AcDbEntity
  8
0
  6
Continuous
 62
     7
370
    25
100
AcDbCircle
 10
244.5290537127
 20
41.8895362557
 30
0.0
 40
12.46654291792152
100
AcDbArc
 50
171.5249863735
 51
179.8211981812
  0
SPLINE
  5
2B8
330
1F
100
AcDbEntity
  8
0
  6
Continuous
 62
     7
370
    25
100
AcDbSpline
210
0.0
220
0.0
230
1.0
 70
     8
 71
     3
 72
    14
 73
    10
 74
     0
 42
0.000000001
 43
0.00000001
 40
0.0
 40
0.0
 40
0.0
 40
0.0
 40
0.0003951393068452
 40
0.0003951393068452
 40
0.0003951393068452
 40
0.0008163352168663
 40
0.0008163352168663
 40
0.0008163352168663
 40
0.0012378579337219
 40
0.0012378579337219
 40
0.0012378579337219
 40
0.0012378579337219
 10
240.1108674845216
 20
56.24800257024926
 30
0.0
 10
240.1563292987528
 20
56.23356570762422
 30
0.0
 10
240.2012169033739
 20
56.21869984705862
 30
0.0
 10
240.245500596049
 20
56.20341605945314
 30
0.0
 10
240.2927038882883
 20
56.18712462011545
 30
0.0
 10
240.3392297013475
 20
56.17035514203155
 30
0.0
 10
240.3850406105892
 20
56.15312633123626
 30
0.0
 10
240.4308869985782
 20
56.13588417740461
 30
0.0
 10
240.4760262341507
 20
56.11817847120011
 30
0.0
 10
240.520419792193
 20
56.10003561450932
 30
0.0
  0
LINE
  5
2B9
330
1F
100
AcDbEntity
  8
0
  6
Continuous
 62
     7
370
    25
100
AcDbLine
 10
231.4076792782
 20
46.5361163608
 30
0.0
 11
230.7677426039
 21
46.9483480009
 31
0.0
  0
LINE
  5
2BA
330
1F
100
AcDbEntity
  8
0
  6
Continuous
 62
     7
370
    25
100
AcDbLine
 10
230.4618085087
 20
47.3198263878
 30
0.0
 11
230.7677426039
 21
46.9483480009
 31
0.0
  0
SPLINE
  5
2BB
330
1F
100
AcDbEntity
  8
0
  6
Continuous
 62
     7
370
    25
100
AcDbSpline
210
0.0
220
0.0
230
1.0
 70
     8
 71
     3
 72
    13
 73
     9
 74
     0
 42
0.000000001
 43
0.00000001
 40
0.0
 40
0.0
 40
0.0
 40
0.0
 40
0.161854229885178
 40
0.3254858841554281
 40
0.4910085196607404
 40
0.6585318472791263
 40
0.8281616954204583
 40
0.9999999999999999
 40
0.9999999999999999
 40
0.9999999999999999
 40
0.9999999999999999
 10
230.7677430155
 20
46.94834800481935
 30
0.0
 10
230.7481656234825
 20
46.96091098185251
 30
0.0
 10
230.7087958476368
 20
46.98617489797113
 30
0.0
 10
230.6472599078665
 20
47.01886859488598
 30
0.0
 10
230.5837032486171
 20
47.04781466859287
 30
0.0
 10
230.5180851459603
 20
47.07232703605847
 30
0.0
 10
230.4506578769055
 20
47.09276209941198
 30
0.0
 10
230.404773276707
 20
47.10235875440176
 30
0.0
 10
230.381682596532
 20
47.10718811523654
 30
0.0
  0
SPLINE
  5
2BC
330
1F
100
AcDbEntity
  8
0
  6
Continuous
 62
     7
370
    25
100
AcDbSpline
210
0.0
220
0.0
230
1.0
 70
     8
 71
     3
 72
     9
 73
     5
 74
     0
 42
0.000000001
 43
0.00000001
 40
0.0
 40
0.0
 40
0.0
 40
0.0
 40
0.4907282259506175
 40
1.0
 40
1.0
 40
1.0
 40
1.0
 10
230.3816767692401
 20
47.10716011820552
 30
0.0
 10
230.3575832467623
 20
47.11525565042366
 30
0.0
 10
230.308485760203
 20
47.13175262734493
 30
0.0
 10
230.2577850663829
 20
47.14654629636117
 30
0.0
 10
230.2319646340955
 20
47.15408029442576
 30
0.0
  0
SPLINE
  5
2BD
330
1F
100
AcDbEntity
  8
0
  6
Continuous
 62
     7
370
    25
100
AcDbSpline
210
0.0
220
0.0
230
1.0
 70
     8
 71
     3
 72
    14
 73
    10
 74
     0
 42
0.000000001
 43
0.00000001
 40
0.0
 40
0.0
 40
0.0
 40
0.0
 40
0.0310276388071746
 40
0.0622853718672815
 40
0.1248003166904892
 40
0.2498289731753984
 40
0.499889260361071
 40
0.7606803621682141
 40
1.0
 40
1.0
 40
1.0
 40
1.0
 10
229.6480239448072
 20
47.52818803707163
 30
0.0
 10
229.6540161842117
 20
47.52435699341799
 30
0.0
 10
229.666045100171
 20
47.51666649592029
 30
0.0
 10
229.6901049082201
 20
47.5012286064136
 30
0.0
 10
229.7323385808664
 20
47.47415815348277
 30
0.0
 10
229.8169011553786
 20
47.41994612868739
 30
0.0
 10
229.9401881248488
 20
47.34094294682136
 30
0.0
 10
230.0863198313028
 20
47.24733677214392
 30
0.0
 10
230.1846864478435
 20
47.18435369575145
 30
0.0
 10
230.2317581485277
 20
47.15421419696234
 30
0.0
  0
LINE
  5
2BE
330
1F
100
AcDbEntity
  8
0
  6
Continuous
 62
     7
370
    25
100
AcDbLine
 10
227.8455237896
 20
48.6908187141
 30
0.0
 11
228.1364911437
 21
48.5027401749
 31
0.0
  0
SPLINE
  5
2BF
330
1F
100
AcDbEntity
  8
0
  6
Continuous
 62
     7
370
    25
100
AcDbSpline
210
0.0
220
0.0
230
1.0
 70
     8
 71
     3
 72
     8
 73
     4
 74
     0
 42
0.000000001
 43
0.00000001
 40
0.0
 40
0.0
 40
0.0
 40
0.0
 40
1.0
 40
1.0
 40
1.0
 40
1.0
 10
228.1678794471025
 20
48.48251764476046
 30
0.0
 10
228.1574369412507
 20
48.48934306965786
 30
0.0
 10
228.1469710083609
 20
48.49608603644438
 30
0.0
 10
228.1364832435443
 20
48.50274512409737
 30
0.0
  0
SPLINE
  5
2C0
330
1F
100
AcDbEntity
  8
0
  6
Continuous
 62
     7
370
    25
100
AcDbSpline
210
0.0
220
0.0
230
1.0
 70
     8
 71
     3
 72
     8
 73
     4
 74
     0
 42
0.000000001
 43
0.00000001
 40
0.0
 40
0.0
 40
0.0
 40
0.0
 40
1.0
 40
1.0
 40
1.0
 40
1.0
 10
225.3818750682787
 20
50.36077329656953
 30
0.0
 10
225.4408748324486
 20
50.32203262965057
 30
0.0
 10
225.5001623959592
 20
50.28397065235128
 30
0.0
 10
225.5597434694476
 20
50.24658686389099
 30
0.0
  0
SPLINE
  5
2C1
330
1F
100
AcDbEntity
  8
0
  6
Continuous
 62
     7
370
    25
100
AcDbSpline
210
0.0
220
0.0
230
1.0
 70
     8
 71
     3
 72
     8
 73
     4
 74
     0
 42
0.000000001
 43
0.00000001
 40
0.0
 40
0.0
 40
0.0
 40
0.0
 40
1.0
 40
1.0
 40
1.0
 40
1.0
 10
225.3570253221791
 20
50.72398347450785
 30
0.0
 10
225.3644995342696
 20
50.60302563379601
 30
0.0
 10
225.3727956381598
 20
50.48195379138536
 30
0.0
 10
225.3818750682787
 20
50.36077329656953
 30
0.0
  0
LWPOLYLINE
  5
2C2
330
1F
100
AcDbEntity
  8
0
  6
Continuous
 62
     7
370
    25
100
AcDbPolyline
 90
       16
 70
   128
 43
0.0
 10
225.357025681
 20
50.7239828091
 10
225.7309360574
 20
51.7825630195
 10
226.1789346665
 20
52.8342746213
 10
226.696132474
 20
53.8676411673
 10
227.2768860827
 20
54.8713872334
 10
227.9148589774
 20
55.8345608474
 10
228.603089684
 20
56.7466511642
 10
229.3340688195
 20
57.5977078512
 10
230.0998200928
 20
58.3784433632
 10
230.8919878913
 20
59.0803382579
 10
231.7019286535
 20
59.6957350099
 10
232.5208045477
 20
60.217917945
 10
233.3396804419
 20
60.6411889927
 10
234.1496212042
 20
60.9609299399
 10
234.9417890026
 20
61.1736525171
 10
235.3209881499
 20
61.2380905005
  0
SPLINE
  5
2C3
330
1F
100
AcDbEntity
  8
0
  6
Continuous
 62
     7
370
    25
100
AcDbSpline
210
0.0
220
0.0
230
1.0
 70
     8
 71
     3
 72
    10
 73
     6
 74
     0
 42
0.000000001
 43
0.00000001
 40
0.0
 40
0.0
 40
0.0
 40
0.0
 40
0.2409818396634726
 40
0.5031433556203718
 40
1.0
 40
1.0
 40
1.0
 40
1.0
 10
231.4076792782178
 20
39.83027473755403
 30
0.0
 10
231.4899251492208
 20
39.77859821563347
 30
0.0
 10
231.6616454065652
 20
39.67070336894209
 30
0.0
 10
231.9393667655922
 20
39.54098065847785
 30
0.0
 10
232.0603440126362
 20
39.56375859958284
 30
0.0
 10
232.1395362535517
 20
39.57866914056157
 30
0.0
  0
LINE
  5
2C4
330
1F
100
AcDbEntity
  8
0
  6
Continuous
 62
     7
370
    25
100
AcDbLine
 10
226.6245052221
 20
49.5593474705
 30
0.0
 11
225.8626265197
 21
50.0499818782
 31
0.0
  0
LINE
  5
2C5
330
1F
100
AcDbEntity
  8
0
  6
Continuous
 62
     7
370
    25
100
AcDbLine
 10
225.8626265197
 20
50.0499818782
 30
0.0
 11
225.3818751994
 21
50.3607732543
 31
0.0
  0
LINE
  5
2C6
330
1F
100
AcDbEntity
  8
0
  6
Continuous
 62
     7
370
    25
100
AcDbLine
 10
230.4618085087
 20
39.5544949366
 30
0.0
 11
230.7677426039
 21
40.2425063777
 31
0.0
  0
LINE
  5
2C7
330
1F
100
AcDbEntity
  8
0
  6
Continuous
 62
     7
370
    25
100
AcDbLine
 10
230.7677426039
 20
40.2425063777
 30
0.0
 11
231.4076792782
 21
39.8302747376
 31
0.0
  0
SPLINE
  5
2C8
330
1F
100
AcDbEntity
  8
0
  6
Continuous
 62
     7
370
    25
100
AcDbSpline
210
0.0
220
0.0
230
1.0
 70
     8
 71
     3
 72
    13
 73
     9
 74
     0
 42
0.000000001
 43
0.00000001
 40
0.0
 40
0.0
 40
0.0
 40
0.0
 40
0.172258782378417
 40
0.342139827159501
 40
0.5097456258302661
 40
0.6751828993623331
 40
0.8385626190354498
 40
1.0
 40
1.0
 40
1.0
 40
1.0
 10
230.3816710847267
 20
40.52381608307265
 30
0.0
 10
230.4048226086819
 20
40.50569649213519
 30
0.0
 10
230.4508060894375
 20
40.46970742019387
 30
0.0
 10
230.5183471021568
 20
40.41870743677222
 30
0.0
 10
230.5840067168451
 20
40.37038275658045
 30
0.0
 10
230.6475307880928
 20
40.32495175067462
 30
0.0
 10
230.7089611668066
 20
40.28212618292173
 30
0.0
 10
230.7482273337729
 20
40.2556603657515
 30
0.0
 10
230.7677430155
 20
40.24250658720764
 30
0.0
  0
SPLINE
  5
2C9
330
1F
100
AcDbEntity
  8
0
  6
Continuous
 62
     7
370
    25
100
AcDbSpline
210
0.0
220
0.0
230
1.0
 70
     8
 71
     3
 72
    11
 73
     7
 74
     0
 42
0.000000001
 43
0.00000001
 40
0.0
 40
0.0
 40
0.0
 40
0.0
 40
0.2392845094479873
 40
0.5001120454076898
 40
0.7515010915036774
 40
1.0
 40
1.0
 40
1.0
 40
1.0
 10
230.2322906732506
 20
40.57113007528552
 30
0.0
 10
230.1852214412461
 20
40.54281555257273
 30
0.0
 10
230.0868452866515
 20
40.48363732201654
 30
0.0
 10
229.9405480650676
 20
40.39044942155662
 30
0.0
 10
229.7927073214238
 20
40.29507750558417
 30
0.0
 10
229.6964208587048
 20
40.23054225032136
 30
0.0
 10
229.6485559708458
 20
40.19846118026352
 30
0.0
  0
SPLINE
  5
2CA
330
1F
100
AcDbEntity
  8
0
  6
Continuous
 62
     7
370
    25
100
AcDbSpline
210
0.0
220
0.0
230
1.0
 70
     8
 71
     3
 72
     9
 73
     5
 74
     0
 42
0.000000001
 43
0.00000001
 40
0.0
 40
0.0
 40
0.0
 40
0.0
 40
0.5090669353869915
 40
1.0
 40
1.0
 40
1.0
 40
1.0
 10
230.2328616768348
 20
40.57043112107375
 30
0.0
 10
230.2585102514588
 20
40.56293841291387
 30
0.0
 10
230.3088937528042
 20
40.54821990020161
 30
0.0
 10
230.3577012642995
 20
40.53182754234944
 30
0.0
 10
230.3816624854941
 20
40.52377999187284
 30
0.0
  0
LINE
  5
2CB
330
1F
100
AcDbEntity
  8
0
  6
Continuous
 62
     7
370
    25
100
AcDbLine
 10
232.062780257
 20
41.4943096883
 30
0.0
 11
230.3816643006
 21
40.5238221041
 31
0.0
  0
LINE
  5
2CC
330
1F
100
AcDbEntity
  8
0
  6
Continuous
 62
     7
370
    25
100
AcDbLine
 10
228.3751766494
 20
41.6476434028
 30
0.0
 11
228.1748809958
 21
41.1464859885
 31
0.0
  0
SPLINE
  5
2CD
330
1F
100
AcDbEntity
  8
0
  6
Continuous
 62
     7
370
    25
100
AcDbSpline
210
0.0
220
0.0
230
1.0
 70
     8
 71
     3
 72
     8
 73
     4
 74
     0
 42
0.000000001
 43
0.00000001
 40
0.0
 40
0.0
 40
0.0
 40
0.0
 40
1.0
 40
1.0
 40
1.0
 40
1.0
 10
228.3747334786946
 20
41.6484271549351
 30
0.0
 10
228.4009088132638
 20
41.67059453191337
 30
0.0
 10
228.4267298532293
 20
41.69322667300499
 30
0.0
 10
228.4521874069377
 20
41.71631139309626
 30
0.0
  0
LINE
  5
2CE
330
1F
100
AcDbEntity
  8
0
  6
Continuous
 62
     7
370
    25
100
AcDbLine
 10
228.4521875027
 20
41.7163112775
 30
0.0
 11
230.2324802619
 21
40.5705403924
 31
0.0
  0
LINE
  5
2CF
330
1F
100
AcDbEntity
  8
0
  6
Continuous
 62
     7
370
    25
100
AcDbLine
 10
232.0625714984
 20
41.5923596235
 30
0.0
 11
231.9745721714
 21
41.6998506919
 31
0.0
  0
LINE
  5
2D0
330
1F
100
AcDbEntity
  8
0
  6
Continuous
 62
     7
370
    25
100
AcDbLine
 10
230.1461641747
 20
42.6942231948
 30
0.0
 11
228.4521875027
 21
41.7163112775
 31
0.0
  0
LINE
  5
2D1
330
1F
100
AcDbEntity
  8
0
  6
Continuous
 62
     7
370
    25
100
AcDbLine
 10
230.2888582573
 20
42.6729310331
 30
0.0
 11
230.1465843261
 21
42.6937358173
 31
0.0
  0
LINE
  5
2D2
330
1F
100
AcDbEntity
  8
0
  6
Continuous
 62
     7
370
    25
100
AcDbLine
 10
231.9746459284
 20
41.6997465254
 30
0.0
 11
230.2888582573
 21
42.6729310331
 31
0.0
  0
LINE
  5
2D3
330
1F
100
AcDbEntity
  8
0
  6
Continuous
 62
     7
370
    25
100
AcDbLine
 10
232.0625714984
 20
41.6489824425
 30
0.0
 11
231.9745991717
 21
41.6997734988
 31
0.0
  0
SPLINE
  5
2D4
330
1F
100
AcDbEntity
  8
0
  6
Continuous
 62
     7
370
    25
100
AcDbSpline
210
0.0
220
0.0
230
1.0
 70
     8
 71
     3
 72
    19
 73
    15
 74
     0
 42
0.000000001
 43
0.00000001
 40
0.0
 40
0.0
 40
0.0
 40
0.0
 40
0.0637853009127854
 40
0.1289628367668835
 40
0.1955871994312377
 40
0.2637095015417503
 40
0.3333775579368785
 40
0.404636070956767
 40
0.4775268158870349
 40
0.5520888236349092
 40
0.6283585584292241
 40
0.7063700889344752
 40
0.8377041805690577
 40
0.9999999999999999
 40
0.9999999999999999
 40
0.9999999999999999
 40
0.9999999999999999
 10
227.5906643727333
 20
41.81691524228697
 30
0.0
 10
227.6113537417384
 20
41.80355610227665
 30
0.0
 10
227.6531840643932
 20
41.77654623373575
 30
0.0
 10
227.7136750379879
 20
41.73902426820922
 30
0.0
 10
227.7731592361672
 20
41.70350452711856
 30
0.0
 10
227.8312403956388
 20
41.67052439820205
 30
0.0
 10
227.8877725127261
 20
41.64031796193171
 30
0.0
 10
227.9425175674799
 20
41.61320452197019
 30
0.0
 10
227.9952399450722
 20
41.5894729042202
 30
0.0
 10
228.0456815780032
 20
41.56943265077552
 30
0.0
 10
228.0935644964686
 20
41.5533127892372
 30
0.0
 10
228.1485286508386
 20
41.5390348195556
 30
0.0
 10
228.2113599647983
 20
41.52889626230088
 30
0.0
 10
228.2498674804563
 20
41.53537051361415
 30
0.0
 10
228.2711514456534
 20
41.53894897712379
 30
0.0
  0
LINE
  5
2D5
330
1F
100
AcDbEntity
  8
0
  6
Continuous
 62
     7
370
    25
100
AcDbLine
 10
228.2957871333
 20
41.5650194314
 30
0.0
 11
228.3634999967
 21
41.6366739518
 31
0.0
  0
SPLINE
  5
2D6
330
1F
100
AcDbEntity
  8
0
  6
Continuous
 62
     7
370
    25
100
AcDbSpline
210
0.0
220
0.0
230
1.0
 70
     8
 71
     3
 72
     9
 73
     5
 74
     0
 42
0.000000001
 43
0.00000001
 40
0.0
 40
0.0
 40
0.0
 40
0.0
 40
0.5232016984460688
 40
1.0
 40
1.0
 40
1.0
 40
1.0
 10
229.9799863950476
 20
42.59829097401985
 30
0.0
 10
229.910962232399
 20
42.62333313913636
 30
0.0
 10
229.7790357442901
 20
42.67119644919607
 30
0.0
 10
229.5375983314714
 20
42.80879457988274
 30
0.0
 10
229.4224813831079
 20
42.87440113489114
 30
0.0
  0
LINE
  5
2D7
330
1F
100
AcDbEntity
  8
0
  6
Continuous
 62
     7
370
    25
100
AcDbLine
 10
225.6929801861
 20
42.6402906975
 30
0.0
 11
226.1444513004
 21
42.7525546704
 31
0.0
  0
LINE
  5
2D8
330
1F
100
AcDbEntity
  8
0
  6
Continuous
 62
     7
370
    25
100
AcDbLine
 10
226.1444513004
 20
42.7525546704
 30
0.0
 11
227.5906637723
 21
41.8169153374
 31
0.0
  0
SPLINE
  5
2D9
330
1F
100
AcDbEntity
  8
0
  6
Continuous
 62
     7
370
    25
100
AcDbSpline
210
0.0
220
0.0
230
1.0
 70
     8
 71
     3
 72
     8
 73
     4
 74
     0
 42
0.000000001
 43
0.00000001
 40
0.0
 40
0.0
 40
0.0
 40
0.0
 40
1.0
 40
1.0
 40
1.0
 40
1.0
 10
225.86376875675
 20
42.24554104450365
 30
0.0
 10
225.806643487826
 20
42.37732722829929
 30
0.0
 10
225.7497149961084
 20
42.50891144996008
 30
0.0
 10
225.6929808781589
 20
42.64029051686144
 30
0.0
  0
LINE
  5
2DA
330
1F
100
AcDbEntity
  8
0
  6
Continuous
 62
     7
370
    25
100
AcDbLine
 10
227.4821527595
 20
43.5247932851
 30
0.0
 11
226.1444513004
 21
42.7525546704
 31
0.0
  0
LINE
  5
2DB
330
1F
100
AcDbEntity
  8
0
  6
Continuous
 62
     7
370
    25
100
AcDbLine
 10
228.4651812444
 20
43.4270398823
 30
0.0
 11
227.4821527595
 21
43.5247932851
 31
0.0
  0
LINE
  5
2DC
330
1F
100
AcDbEntity
  8
0
  6
Continuous
 62
     7
370
    25
100
AcDbLine
 10
229.4224813831
 20
42.8744011349
 30
0.0
 11
228.4651802565
 21
43.427039312
 31
0.0
  0
SPLINE
  5
2DD
330
1F
100
AcDbEntity
  8
0
  6
Continuous
 62
     7
370
    25
100
AcDbSpline
210
0.0
220
0.0
230
1.0
 70
     8
 71
     3
 72
     8
 73
     4
 74
     0
 42
0.000000001
 43
0.00000001
 40
0.0
 40
0.0
 40
0.0
 40
0.0
 40
1.0
 40
1.0
 40
1.0
 40
1.0
 10
225.6929808781612
 20
42.64029051685633
 30
0.0
 10
225.6898435404111
 20
42.67550682372885
 30
0.0
 10
225.6878511365131
 20
42.71115107995654
 30
0.0
 10
225.687069739141
 20
42.74724798195142
 30
0.0
  0
LINE
  5
2DE
330
1F
100
AcDbEntity
  8
0
  6
Continuous
 62
     7
370
    25
100
AcDbLine
 10
226.4981562142
 20
43.2154776966
 30
0.0
 11
225.6870704077
 21
42.7472478271
 31
0.0
  0
SPLINE
  5
2DF
330
1F
100
AcDbEntity
  8
0
  6
Continuous
 62
     7
370
    25
100
AcDbSpline
210
0.0
220
0.0
230
1.0
 70
     8
 71
     3
 72
     8
 73
     4
 74
     0
 42
0.000000001
 43
0.00000001
 40
0.0000004089325119
 40
0.0000004089325119
 40
0.0000004089325119
 40
0.0000004089325119
 40
0.0015399868451459
 40
0.0015399868451459
 40
0.0015399868451459
 40
0.0015399868451459
 10
226.4981552716298
 20
43.21547769330753
 30
0.0
 10
226.736631839653
 20
43.30985407912389
 30
0.0
 10
226.9750787973217
 20
43.4042826910541
 30
0.0
 10
227.213487536172
 20
43.49877607401655
 30
0.0
  0
LINE
  5
2E0
330
1F
100
AcDbEntity
  8
0
  6
Continuous
 62
     7
370
    25
100
AcDbLine
 10
227.2134870151
 20
43.4987762211
 30
0.0
 11
227.237883455
 21
43.5037702476
 31
0.0
  0
LINE
  5
2E1
330
1F
100
AcDbEntity
  8
0
  6
Continuous
 62
     7
370
    25
100
AcDbLine
 10
227.4821527595
 20
43.5247932851
 30
0.0
 11
227.2378841135
 21
43.5037702475
 31
0.0
  0
SPLINE
  5
2E2
330
1F
100
AcDbEntity
  8
0
  6
Continuous
 62
     7
370
    25
100
AcDbSpline
210
0.0
220
0.0
230
1.0
 70
     8
 71
     3
 72
     8
 73
     4
 74
     0
 42
0.000000001
 43
0.00000001
 40
0.0
 40
0.0
 40
0.0
 40
0.0
 40
1.0
 40
1.0
 40
1.0
 40
1.0
 10
228.4651794506801
 20
43.42704006660352
 30
0.0
 10
228.4957874848033
 20
43.4121000587974
 30
0.0
 10
228.5263389857752
 20
43.39722310140402
 30
0.0
 10
228.5568329238898
 20
43.38240953772311
 30
0.0
  0
LWPOLYLINE
  5
2E3
330
1F
100
AcDbEntity
  8
0
  6
Continuous
 62
     7
370
    25
100
AcDbPolyline
 90
        3
 70
   128
 43
0.0
 10
232.1049525829
 20
42.9154899959
 10
231.6304229031
 20
42.7175276902
 10
230.8935682335
 20
42.4914853583
  0
LWPOLYLINE
  5
2E4
330
1F
100
AcDbEntity
  8
0
  6
Continuous
 62
     7
370
    18
100
AcDbPolyline
 90
       22
 70
   128
 43
0.0
 10
268.3929902786
 20
23.6499008936
 10
268.4342955073
 20
24.4774928126
 10
268.5576329911
 20
25.3411581467
 10
268.7612700995
 20
26.2287722381
 10
269.0423487493
 20
27.1278749805
 10
269.3969232711
 20
28.0258453414
 10
269.8200160562
 20
28.9100774046
 10
270.3056876918
 20
29.7681585013
 10
270.8471205957
 20
30.588043349
 10
271.4367141766
 20
31.3582221045
 10
272.0661918471
 20
32.0678836632
 10
272.726717257
 20
32.7070656497
 10
273.4090178526
 20
33.2667957096
 10
274.1035157215
 20
33.7392157141
 10
274.8004616472
 20
34.1176945098
 10
275.4900720045
 20
34.3969187338
 10
276.1626663127
 20
34.5729691794
 10
276.808802525
 20
34.6433734221
 10
277.4194105904
 20
34.6071445193
 10
277.9859188936
 20
34.4647905041
 10
278.5003745218
 20
34.2183096684
 10
278.6639955024
 20
34.1100255025
  0
LWPOLYLINE
  5
2E5
330
1F
100
AcDbEntity
  8
0
  6
Continuous
 62
     7
370
    18
100
AcDbPolyline
 90
        9
 70
   128
 43
0.0
 10
270.3550432977
 20
19.7169388393
 10
270.3056876918
 20
19.739996713
 10
269.8200160562
 20
20.0373332751
 10
269.3969232711
 20
20.4330728063
 10
269.0423487493
 20
20.9216601384
 10
268.7612700995
 20
21.4962363794
 10
268.5576329911
 20
22.1487360701
 10
268.4342955073
 20
22.8699989765
 10
268.3929902786
 20
23.6499008936
  0
LWPOLYLINE
  5
2E6
330
1F
100
AcDbEntity
  8
0
  6
Continuous
 62
     7
370
    18
100
AcDbPolyline
 90
       51
 70
   128
 43
0.0
 10
269.7495442206
 20
23.6806701145
 10
269.7903901144
 20
24.4539506249
 10
269.9122830809
 20
25.2621954126
 10
270.1133011577
 20
26.0926581118
 10
270.3902741118
 20
26.9322419002
 10
270.7388341466
 20
27.7677060078
 10
271.1534837326
 20
28.58587441
 10
271.6276838521
 20
29.3738447563
 10
272.1539560737
 20
30.1191895035
 10
272.7240007609
 20
30.8101541948
 10
273.3288281226
 20
31.435842621
 10
273.958899471
 20
31.9863865797
 10
274.6042783572
 20
32.4531042281
 10
275.2547866465
 20
32.8286346701
 10
275.9001655327
 20
33.107055623
 10
276.5302368811
 20
33.2839765586
 10
277.1350642428
 20
33.3566069402
 10
277.70510893
 20
33.3238018353
 10
278.2313811515
 20
33.1860780616
 10
278.705581271
 20
32.9456075194
 10
279.120230857
 20
32.6061833389
 10
279.4687908918
 20
32.1731580813
 10
279.7457638459
 20
31.6533604588
 10
279.9467819228
 20
31.054988291
 10
280.0686748892
 20
30.3874781267
 10
280.1095207831
 20
29.6613572815
 10
280.0686748892
 20
28.8880767711
 10
279.9467819228
 20
28.0798319834
 10
279.7457638459
 20
27.2493692842
 10
279.4687908918
 20
26.4097854958
 10
279.120230857
 20
25.5743213881
 10
278.705581271
 20
24.756152986
 10
278.2313811515
 20
23.9681826397
 10
277.70510893
 20
23.2228378925
 10
277.1350642428
 20
22.5318732011
 10
276.5302368811
 20
21.906184775
 10
275.9001655327
 20
21.3556408163
 10
275.2547866465
 20
20.8889231679
 10
274.6042783572
 20
20.5133927258
 10
273.958899471
 20
20.234971773
 10
273.3288281226
 20
20.0580508374
 10
272.7240007609
 20
19.9854204558
 10
272.1539560737
 20
20.0182255607
 10
271.6276838521
 20
20.1559493344
 10
271.1534837326
 20
20.3964198766
 10
270.7388341466
 20
20.7358440571
 10
270.3902741118
 20
21.1688693147
 10
270.1133011577
 20
21.6886669372
 10
269.9122830809
 20
22.287039105
 10
269.7903901144
 20
22.9545492693
 10
269.7495442206
 20
23.6806701145
  0
LWPOLYLINE
  5
2E7
330
1F
100
AcDbEntity
  8
0
  6
Continuous
 62
     7
370
    18
100
AcDbPolyline
 90
       42
 70
   128
 43
0.0
 10
271.3810253481
 20
24.6225041219
 10
271.4226121045
 20
25.2720203679
 10
271.5463983864
 20
25.9543279506
 10
271.7494826467
 20
26.6534341797
 10
272.0271042671
 20
27.3529522398
 10
272.372756334
 20
28.0364863058
 10
272.7783372682
 20
28.6880150404
 10
273.2343403212
 20
29.2922667693
 10
273.7300771511
 20
29.8350783987
 10
274.2539282749
 20
30.3037272627
 10
274.7936149761
 20
30.6872283974
 10
275.3364874892
 20
30.976592922
 10
275.8698212835
 20
31.1650382441
 10
276.3811155688
 20
31.2481474553
 10
276.8583859874
 20
31.2239725185
 10
277.2904455145
 20
31.0930798878
 10
277.6671675467
 20
30.8585381256
 10
277.9797216605
 20
30.5258441158
 10
278.2207815484
 20
30.1027960472
 10
278.3846978863
 20
29.5993102206
 10
278.4676277376
 20
29.027187337
 10
278.4676277376
 20
28.3998378665
 10
278.3846978863
 20
27.7319662146
 10
278.2207815484
 20
27.0392266128
 10
277.9797216605
 20
26.3378567219
 10
277.6671675467
 20
25.6442954136
 10
277.2904455145
 20
24.9747996512
 10
276.8583859874
 20
24.3450617087
 10
276.3811155688
 20
23.7698420759
 10
275.8698212835
 20
23.2626234708
 10
275.3364874892
 20
22.8352947011
 10
274.7936149761
 20
22.4978719636
 10
274.2539282749
 20
22.2582640964
 10
273.7300771511
 20
22.1220873269
 10
273.2343403212
 20
22.0925333958
 10
272.7783372682
 20
22.1702952063
 10
272.372756334
 20
22.3535501617
 10
272.0271042671
 20
22.638002846
 10
271.7494826467
 20
23.0169858058
 10
271.5463983864
 20
23.4816159391
 10
271.4226121045
 20
24.0210029228
 10
271.3810253481
 20
24.6225041219
  0
LWPOLYLINE
  5
2E8
330
1F
100
AcDbEntity
  8
0
  6
Continuous
 62
     7
370
    18
100
AcDbPolyline
 90
       23
 70
   128
 43
0.0
 10
276.8531635648
 20
31.027769648
 10
277.1695267001
 20
30.8881417897
 10
277.513414197
 20
30.6217093898
 10
277.7900809278
 20
30.260074199
 10
277.9927147437
 20
29.8121411164
 10
278.1163258527
 20
29.288939366
 10
278.1578704623
 20
28.7033519976
 10
278.1163258527
 20
28.0697982439
 10
277.9927147437
 20
27.4038781449
 10
277.7900809278
 20
26.7219890384
 10
277.513414197
 20
26.0409212395
 10
277.1695267001
 20
25.377444787
 10
276.7668861671
 20
24.7478967662
 10
276.3154069856
 20
24.1677788533
 10
275.8262061277
 20
23.6513751579
 10
275.3113291545
 20
23.2114014618
 10
274.7834541591
 20
22.8586915317
 10
274.2555791637
 20
22.601929965
 10
273.7407021905
 20
22.4474393615
 10
273.2515013326
 20
22.3990237688
 10
272.8000221511
 20
22.4578749143
 10
272.3973816181
 20
22.6225440708
 10
272.1587932477
 20
22.7911241989
  0
LWPOLYLINE
  5
2E9
330
1F
100
AcDbEntity
  8
0
  6
Continuous
 62
     7
370
    18
100
AcDbPolyline
 90
       30
 70
   128
 43
0.0
 10
244.7007182488
 20
34.5289417317
 10
244.7420050382
 20
35.5080652942
 10
244.8654551332
 20
36.5251267244
 10
245.0698416652
 20
37.5700177795
 10
245.3531330245
 20
38.632353864
 10
245.712514592
 20
39.7015777356
 10
246.1444137636
 20
40.7670616903
 10
246.6445388047
 20
41.8182178258
 10
247.2079190215
 20
42.8445982286
 10
247.8289548099
 20
43.8360029551
 10
248.5014746202
 20
44.7825783161
 10
249.2187942255
 20
45.6749172524
 10
249.9737848816
 20
46.5041507741
 10
250.7589432969
 20
47.2620385438
 10
251.5664658838
 20
47.9410482435
 10
252.3883273306
 20
48.5344305912
 10
253.2163594218
 20
49.0362891775
 10
254.0423328618
 20
49.4416360668
 10
254.8580389343
 20
49.74644198
 10
255.6553705448
 20
49.9476792769
 10
256.4264035098
 20
50.0433460696
 10
257.1634748405
 20
50.0324924034
 10
257.8592597112
 20
49.9152274267
 10
258.5068424165
 20
49.6927139658
 10
259.0997873304
 20
49.3671661419
 10
259.6322021259
 20
48.9418174258
 10
260.0987940807
 20
48.4208957274
 10
260.494926383
 20
47.8095783329
 10
260.8166629121
 20
47.1139409496
 10
261.0063210963
 20
46.5440727574
  0
LWPOLYLINE
  5
2EA
330
1F
100
AcDbEntity
  8
0
  6
Continuous
 62
     7
370
    18
100
AcDbPolyline
 90
       14
 70
   128
 43
0.0
 10
250.7571538669
 20
28.7900706519
 10
249.9737848816
 20
28.6418858335
 10
249.2187942255
 20
28.5994256981
 10
248.5014746202
 20
28.6635650469
 10
247.8289548099
 20
28.8336655627
 10
247.2079190215
 20
29.1080376304
 10
246.6445388047
 20
29.4839530804
 10
246.1444137636
 20
29.9576771343
 10
245.712514592
 20
30.5245009198
 10
245.3531330245
 20
31.1787916658
 10
245.0698416652
 20
31.9140465089
 10
244.8654551332
 20
32.722957897
 10
244.7420050382
 20
33.5974868816
 10
244.7007182488
 20
34.5289417317
  0
LWPOLYLINE
  5
2EB
330
1F
100
AcDbEntity
  8
0
  6
Continuous
 62
     7
370
    18
100
AcDbPolyline
 90
        9
 70
   128
 43
0.0
 10
246.8220382816
 20
34.5289413515
 10
246.8630991902
 20
33.663017416
 10
246.985815008
 20
32.8543116017
 10
247.1887968646
 20
32.111987997
 10
247.4697438055
 20
31.4444563967
 10
247.8254730851
 20
30.8592810435
 10
248.2519537525
 20
30.363091461
 10
248.7443540665
 20
29.9615102045
 10
248.9452993742
 20
29.8360322726
  0
LWPOLYLINE
  5
2EC
330
1F
100
AcDbEntity
  8
0
  6
Continuous
 62
     7
370
    18
100
AcDbPolyline
 90
       24
 70
   128
 43
0.0
 10
259.1631574221
 20
47.607888612
 10
259.1262078068
 20
47.6284029039
 10
258.5456053341
 20
47.8798896096
 10
257.9142913122
 20
48.0275126794
 10
257.2394185225
 20
48.0695989941
 10
256.5286334897
 20
48.0056715012
 10
255.7899900485
 20
47.8364540711
 10
255.0318569827
 20
47.563865327
 10
254.2628243879
 20
47.1909927262
 10
253.4916057134
 20
46.7220618664
 10
252.726939104
 20
46.1623856145
 10
251.9774887005
 20
45.5183048476
 10
251.2517458171
 20
44.7971177157
 10
250.5579336165
 20
44.006995714
 10
249.9039133093
 20
43.1568907494
 10
249.2970948382
 20
42.25643491
 10
248.7443540665
 20
41.3158310614
 10
248.2519537525
 20
40.3457365034
 10
247.8254730851
 20
39.3571428234
 10
247.4697438055
 20
38.3612511864
 10
247.1887968646
 20
37.3693451526
 10
246.985815008
 20
36.3926636847
 10
246.8630991902
 20
35.442273203
 10
246.8220382816
 20
34.5289413515
  0
LWPOLYLINE
  5
2ED
330
1F
100
AcDbEntity
  8
0
  6
Continuous
 62
     7
370
    18
100
AcDbPolyline
 90
       29
 70
   128
 43
0.0
 10
235.5878795645
 20
36.534243818
 10
235.6290741576
 20
37.662699392
 10
235.7523517139
 20
38.8303616737
 10
235.9568001491
 20
40.0285863766
 10
236.240906128
 20
41.248502273
 10
236.6025656009
 20
42.4810771622
 10
237.0391009258
 20
43.7171853606
 10
237.5472806248
 20
44.9476757609
 10
238.1233424332
 20
46.1634383708
 10
238.7630209581
 20
47.3554708504
 10
239.4615799475
 20
48.5149492329
 10
240.2138478513
 20
49.6332879973
 10
241.0142560172
 20
50.7022085066
 10
241.8568772153
 20
51.7137954685
 10
242.7354733828
 20
52.6605610003
 10
243.6435397464
 20
53.5354944345
 10
244.5743533896
 20
54.3321177334
 10
245.5210229737
 20
55.0445347244
 10
246.476539424
 20
55.6674694863
 10
247.4338285527
 20
56.1963104161
 10
248.385803042
 20
56.6271425198
 10
249.3254145107
 20
56.9567751881
 10
250.2457065883
 20
57.182768273
 10
251.1398658089
 20
57.3034493005
 10
252.0012723184
 20
57.3179244922
 10
252.8235481132
 20
57.2260860807
 10
253.600605608
 20
57.0286144911
 10
254.3266917578
 20
56.7269711123
 10
254.5840832202
 20
56.5877993618
  0
LWPOLYLINE
  5
2EE
330
1F
100
AcDbEntity
  8
0
  6
Continuous
 62
     7
370
    18
100
AcDbPolyline
 90
       11
 70
   128
 43
0.0
 10
238.8478619056
 20
29.328910968
 10
238.7630209581
 20
29.3789570069
 10
238.1233424332
 20
29.8324323823
 10
237.5472806248
 20
30.3830881854
 10
237.0391009258
 20
31.0268467942
 10
236.6025656009
 20
31.7589420347
 10
236.240906128
 20
32.5739537845
 10
235.9568001491
 20
33.4658478998
 10
235.7523517139
 20
34.428021464
 10
235.6290741576
 20
35.4533505088
 10
235.5878795645
 20
36.534243818
  0
LWPOLYLINE
  5
2EF
330
1F
100
AcDbEntity
  8
0
  6
Continuous
 62
     7
370
    18
100
AcDbPolyline
 90
       14
 70
   128
 43
0.0
 10
240.211961003
 20
33.1986071902
 10
240.1386742189
 20
33.5880313339
 10
240.0225873101
 20
34.5622696207
 10
239.9901632127
 20
35.5927311904
 10
240.0416778568
 20
36.6706307578
 10
240.1766913348
 20
37.7867785622
 10
240.3940544863
 20
38.9316601443
 10
240.6919121917
 20
40.0955141864
 10
241.0677264202
 20
41.2684191674
 10
241.5182926944
 20
42.4403756811
 10
242.0397703827
 20
43.6013919857
 10
242.6277129925
 20
44.7415706937
 10
243.2771090002
 20
45.851192419
 10
243.982422022
 20
46.9207956214
  0
LWPOLYLINE
  5
2F0
330
1F
100
AcDbEntity
  8
0
  6
Continuous
 62
     7
370
    18
100
AcDbPolyline
 90
       18
 70
   128
 43
0.0
 10
240.7237567699
 20
30.2686794893
 10
240.4738931298
 20
30.6365183027
 10
240.0756534851
 20
31.3769989962
 10
239.7556008542
 20
32.2004658509
 10
239.5163944398
 20
33.1000735009
 10
239.3600230464
 20
34.0683450784
 10
239.2877866408
 20
35.0972330769
 10
239.300285157
 20
36.1781852981
 10
239.397414545
 20
37.3022172391
 10
239.5783680878
 20
38.4599865703
 10
239.8416410113
 20
39.6418700601
 10
240.1850456304
 20
40.8380444443
 10
240.6057278133
 20
42.0385675088
 10
241.1001913474
 20
43.2334619282
 10
241.664324939
 20
44.4127937814
 10
242.2934410686
 20
45.5667634228
 10
242.9823102341
 20
46.6857777236
 10
243.7252070495
 20
47.7605375204
  0
LINE
  5
2F1
330
1F
100
AcDbEntity
  8
0
  6
Continuous
 62
     7
370
    18
100
AcDbLine
 10
246.7171304951
 20
49.1615580878
 30
0.0
 11
246.7602901851
 21
49.2067848499
 31
0.0
  0
ARC
  5
2F2
330
1F
100
AcDbEntity
  8
0
  6
Continuous
 62
     7
370
    18
100
AcDbCircle
 10
256.8843702866
 20
39.8677686552
 30
0.0
 40
14.48276781207018
100
AcDbArc
 50
110.0665409331
 51
139.2901057068
  0
LWPOLYLINE
  5
2F3
330
1F
100
AcDbEntity
  8
0
  6
Continuous
 62
     7
370
    18
100
AcDbPolyline
 90
       12
 70
   128
 43
0.0
 10
245.0694001111
 20
49.4327010377
 10
245.9374826155
 20
50.3590730819
 10
246.8358624479
 20
51.2085467472
 10
247.756861967
 20
51.9738601433
 10
248.6926098373
 20
52.6484745506
 10
249.6351085914
 20
53.2266233097
 10
250.5763033863
 20
53.7033652012
 10
251.5081502859
 20
54.0746261467
 10
252.4226853675
 20
54.3372330181
 10
253.3120925309
 20
54.4889421379
 10
254.1687703615
 20
54.528455824
 10
254.7083636214
 20
54.4933541268
  0
LINE
  5
2F4
330
1F
100
AcDbEntity
  8
0
  6
Continuous
 62
     7
370
    18
100
AcDbLine
 10
231.101515351
 20
46.9068514167
 30
0.0
 11
231.4076792782
 21
46.5361163608
 31
0.0
  0
LINE
  5
2F5
330
1F
100
AcDbEntity
  8
0
  6
Continuous
 62
     7
370
    18
100
AcDbLine
 10
231.101515351
 20
39.142741269
 30
0.0
 11
231.4076792782
 21
39.8302747376
 31
0.0
  0
LINE
  5
2F6
330
1F
100
AcDbEntity
  8
0
  6
Continuous
 62
     7
370
    18
100
AcDbLine
 10
232.143589595
 20
40.2551067206
 30
0.0
 11
231.4076865222
 21
39.8302789194
 31
0.0
  0
LINE
  5
2F7
330
1F
100
AcDbEntity
  8
0
  6
Continuous
 62
     7
370
    18
100
AcDbLine
 10
232.077014038
 20
40.9983326884
 30
0.0
 11
230.7677426039
 21
40.2425063777
 31
0.0
  0
LINE
  5
2F8
330
1F
100
AcDbEntity
  8
0
  6
Continuous
 62
     7
370
    18
100
AcDbLine
 10
227.5906637723
 20
41.8169153374
 30
0.0
 11
227.2941764981
 21
41.3208537195
 31
0.0
  0
LINE
  5
2F9
330
1F
100
AcDbEntity
  8
0
  6
Continuous
 62
     7
370
    18
100
AcDbLine
 10
229.4224813831
 20
42.8744011349
 30
0.0
 11
227.5907243584
 21
41.816950313
 31
0.0
  0
LINE
  5
2FA
330
1F
100
AcDbEntity
  8
0
  6
Continuous
 62
     7
370
    18
100
AcDbLine
 10
229.4224813831
 20
42.8744011349
 30
0.0
 11
229.5437915377
 21
42.8126506216
 31
0.0
  0
OLE2FRAME
  5
2FB
330
1F
100
AcDbEntity
  8
0
100
AcDbOle2Frame
 70
     2
  3
Paintbrush-Bild
 10
13.8511154363
 20
38.264191557
 30
0.0
 11
51.6290888628
 21
31.9806341108
 31
0.0
 71
     2
 72
     0
 73
     1
 90
    12928
310
80552BED0767C5B32B40DDAF6807D121434000000000000000006FFBDDFB85D0
310
4940DDAF6807D121434000000000000000006FFBDDFB85D04940416F4BD60AFB
310
3F4000000000000000002BED0767C5B32B40416F4BD60AFB3F40000000000000
310
0000000000000100000000010000010000000100000000000100000000320000
310
D0CF11E0A1B11AE1000000000000000000000000000000003E000300FEFF0900
310
0600000000000000000000000100000001000000000000000010000002000000
310
01000000FEFFFFFF0000000000000000FFFFFFFFFFFFFFFFFFFFFFFFFFFFFFFF
310
FFFFFFFFFFFFFFFFFFFFFFFFFFFFFFFFFFFFFFFFFFFFFFFFFFFFFFFFFFFFFFFF
310
FFFFFFFFFFFFFFFFFFFFFFFFFFFFFFFFFFFFFFFFFFFFFFFFFFFFFFFFFFFFFFFF
310
FFFFFFFFFFFFFFFFFFFFFFFFFFFFFFFFFFFFFFFFFFFFFFFFFFFFFFFFFFFFFFFF
310
FFFFFFFFFFFFFFFFFFFFFFFFFFFFFFFFFFFFFFFFFFFFFFFFFFFFFFFFFFFFFFFF
310
FFFFFFFFFFFFFFFFFFFFFFFFFFFFFFFFFFFFFFFFFFFFFFFFFFFFFFFFFFFFFFFF
310
FFFFFFFFFFFFFFFFFFFFFFFFFFFFFFFFFFFFFFFFFFFFFFFFFFFFFFFFFFFFFFFF
310
FFFFFFFFFFFFFFFFFFFFFFFFFFFFFFFFFFFFFFFFFFFFFFFFFFFFFFFFFFFFFFFF
310
FFFFFFFFFFFFFFFFFFFFFFFFFFFFFFFFFFFFFFFFFFFFFFFFFFFFFFFFFFFFFFFF
310
FFFFFFFFFFFFFFFFFFFFFFFFFFFFFFFFFFFFFFFFFFFFFFFFFFFFFFFFFFFFFFFF
310
FFFFFFFFFFFFFFFFFFFFFFFFFFFFFFFFFFFFFFFFFFFFFFFFFFFFFFFFFFFFFFFF
310
FFFFFFFFFFFFFFFFFFFFFFFFFFFFFFFFFFFFFFFFFFFFFFFFFFFFFFFFFFFFFFFF
310
FFFFFFFFFFFFFFFFFFFFFFFFFFFFFFFFFFFFFFFFFFFFFFFFFFFFFFFFFFFFFFFF
310
FFFFFFFFFFFFFFFFFFFFFFFFFFFFFFFFFFFFFFFFFFFFFFFFFFFFFFFFFFFFFFFF
310
FDFFFFFFFEFFFFFFFEFFFFFFFEFFFFFF05000000060000000700000008000000
310
090000000A0000000B0000000C0000000D0000000E0000000F00000010000000
310
11000000120000001300000014000000150000001600000017000000FEFFFFFF
310
FFFFFFFFFFFFFFFFFFFFFFFFFFFFFFFFFFFFFFFFFFFFFFFFFFFFFFFFFFFFFFFF
310
FFFFFFFFFFFFFFFFFFFFFFFFFFFFFFFFFFFFFFFFFFFFFFFFFFFFFFFFFFFFFFFF
310
FFFFFFFFFFFFFFFFFFFFFFFFFFFFFFFFFFFFFFFFFFFFFFFFFFFFFFFFFFFFFFFF
310
FFFFFFFFFFFFFFFFFFFFFFFFFFFFFFFFFFFFFFFFFFFFFFFFFFFFFFFFFFFFFFFF
310
FFFFFFFFFFFFFFFFFFFFFFFFFFFFFFFFFFFFFFFFFFFFFFFFFFFFFFFFFFFFFFFF
310
FFFFFFFFFFFFFFFFFFFFFFFFFFFFFFFFFFFFFFFFFFFFFFFFFFFFFFFFFFFFFFFF
310
FFFFFFFFFFFFFFFFFFFFFFFFFFFFFFFFFFFFFFFFFFFFFFFFFFFFFFFFFFFFFFFF
310
FFFFFFFFFFFFFFFFFFFFFFFFFFFFFFFFFFFFFFFFFFFFFFFFFFFFFFFFFFFFFFFF
310
FFFFFFFFFFFFFFFFFFFFFFFFFFFFFFFFFFFFFFFFFFFFFFFFFFFFFFFFFFFFFFFF
310
FFFFFFFFFFFFFFFFFFFFFFFFFFFFFFFFFFFFFFFFFFFFFFFFFFFFFFFFFFFFFFFF
310
FFFFFFFFFFFFFFFFFFFFFFFFFFFFFFFFFFFFFFFFFFFFFFFFFFFFFFFFFFFFFFFF
310
FFFFFFFFFFFFFFFFFFFFFFFFFFFFFFFFFFFFFFFFFFFFFFFFFFFFFFFFFFFFFFFF
310
FFFFFFFFFFFFFFFFFFFFFFFFFFFFFFFFFFFFFFFFFFFFFFFFFFFFFFFFFFFFFFFF
310
52006F006F007400200045006E00740072007900000000000000000000000000
310
0000000000000000000000000000000000000000000000000000000000000000
310
16000500FFFFFFFFFFFFFFFF020000000A00030000000000C000000000000046
310
0000000000000000000000006047E41BF5A6D30103000000C000000000000000
310
01004F006C006500000000000000000000000000000000000000000000000000
310
0000000000000000000000000000000000000000000000000000000000000000
310
0A000200FFFFFFFFFFFFFFFFFFFFFFFF00000000000000000000000000000000
310
0000000000000000000000000000000000000000000000001400000000000000
310
010043006F006D0070004F0062006A0000000000000000000000000000000000
310
0000000000000000000000000000000000000000000000000000000000000000
310
120002010100000003000000FFFFFFFF00000000000000000000000000000000
310
0000000000000000000000000000000000000000010000004D00000000000000
310
01004F006C006500310030004E00610074006900760065000000000000000000
310
0000000000000000000000000000000000000000000000000000000000000000
310
1A000200FFFFFFFFFFFFFFFFFFFFFFFF00000000000000000000000000000000
310
0000000000000000000000000000000000000000040000002426000000000000
310
FEFFFFFF02000000FEFFFFFFFFFFFFFFFFFFFFFFFFFFFFFFFFFFFFFFFFFFFFFF
310
FFFFFFFFFFFFFFFFFFFFFFFFFFFFFFFFFFFFFFFFFFFFFFFFFFFFFFFFFFFFFFFF
310
FFFFFFFFFFFFFFFFFFFFFFFFFFFFFFFFFFFFFFFFFFFFFFFFFFFFFFFFFFFFFFFF
310
FFFFFFFFFFFFFFFFFFFFFFFFFFFFFFFFFFFFFFFFFFFFFFFFFFFFFFFFFFFFFFFF
310
FFFFFFFFFFFFFFFFFFFFFFFFFFFFFFFFFFFFFFFFFFFFFFFFFFFFFFFFFFFFFFFF
310
FFFFFFFFFFFFFFFFFFFFFFFFFFFFFFFFFFFFFFFFFFFFFFFFFFFFFFFFFFFFFFFF
310
FFFFFFFFFFFFFFFFFFFFFFFFFFFFFFFFFFFFFFFFFFFFFFFFFFFFFFFFFFFFFFFF
310
FFFFFFFFFFFFFFFFFFFFFFFFFFFFFFFFFFFFFFFFFFFFFFFFFFFFFFFFFFFFFFFF
310
FFFFFFFFFFFFFFFFFFFFFFFFFFFFFFFFFFFFFFFFFFFFFFFFFFFFFFFFFFFFFFFF
310
FFFFFFFFFFFFFFFFFFFFFFFFFFFFFFFFFFFFFFFFFFFFFFFFFFFFFFFFFFFFFFFF
310
FFFFFFFFFFFFFFFFFFFFFFFFFFFFFFFFFFFFFFFFFFFFFFFFFFFFFFFFFFFFFFFF
310
FFFFFFFFFFFFFFFFFFFFFFFFFFFFFFFFFFFFFFFFFFFFFFFFFFFFFFFFFFFFFFFF
310
FFFFFFFFFFFFFFFFFFFFFFFFFFFFFFFFFFFFFFFFFFFFFFFFFFFFFFFFFFFFFFFF
310
FFFFFFFFFFFFFFFFFFFFFFFFFFFFFFFFFFFFFFFFFFFFFFFFFFFFFFFFFFFFFFFF
310
FFFFFFFFFFFFFFFFFFFFFFFFFFFFFFFFFFFFFFFFFFFFFFFFFFFFFFFFFFFFFFFF
310
FFFFFFFFFFFFFFFFFFFFFFFFFFFFFFFFFFFFFFFFFFFFFFFFFFFFFFFFFFFFFFFF
310
0100000200000000000000000000000000000000000000000000000000000000
310
0000000000000000000000000000000000000000000000000000000000000000
310
0100FEFF030A0000FFFFFFFF0A00030000000000C00000000000004607000000
310
5042727573680007000000504272757368000700000050427275736800F439B2
310
7100000000000000000000000000000000000000000000000000000000000000
310
0000000000000000000000000000000000000000000000000000000000000000
310
0000000000000000000000000000000000000000000000000000000000000000
310
0000000000000000000000000000000000000000000000000000000000000000
310
0000000000000000000000000000000000000000000000000000000000000000
310
0000000000000000000000000000000000000000000000000000000000000000
310
0000000000000000000000000000000000000000000000000000000000000000
310
0000000000000000000000000000000000000000000000000000000000000000
310
0000000000000000000000000000000000000000000000000000000000000000
310
0000000000000000000000000000000000000000000000000000000000000000
310
0000000000000000000000000000000000000000000000000000000000000000
310
0000000000000000000000000000000000000000000000000000000000000000
310
20260000424D0E260000000000003E00000028000000B40200006E0000000100
310
01000000000000000000130B0000130B00000200000002000000000000FFFFFF
310
FFFFFFFFFFFFFFFFFFFFFFFFFFFFFFFFFFFFFFFFFFFFFFFFFFFFFFFFFFFFFFFF
310
FFFFFFFFFFFFFFFFFFFFFFFFFFFFFFFFFFFFFFFFFFFFFFFFFFFFFFFFFFFFFFFF
310
FFFFFFFFFFFFFFFFFFFFFFFFFFFFFFFFFFFFFFFFFFFFFFFFF000FFFFFFFFFFFF
310
FFFFFFFFFFFFFFFFFFFFFFFFFFFFFFFFFFFFFFFFFFFFFFFFFFFFFFFFFFFFFFFF
310
FFFFFFFFFFFFFFFFFFFFFFFFFFFFFFFFFFFFFFFFFFFFFFFFFFFFFFFFFFFFFFFF
310
FFFFFFFFFFFFFFFFFFFFFFFFFFFFFFFFF000FFFFFFFFFFFFFFFFFFFFFFFFFFFF
310
FFFFFFFFFFFFFFFFFFFFFFFFFFFFFFFFFFFFFFFFFFFFFFFFFFFFFFFFFFFFFFFF
310
FFFFFFFFFFFFFFFFFFFFFFFFFFFFFFFFFFFFFFFFFFFFFFFFFFFFFFFFFFFFFFFF
310
FFFFFFFFFFFFFFFFF000FFFFFFFFFFFFFFFFFFFFFFFFFFFFFFFFFFFFFFFFFFFF
310
FFFFFFFFFFFFFFFFFFFFFFFFFFFFFFFFFFFFFFFFFFFFFFFFFFFFFFFFFFFFFFFF
310
FFFFFFFFFFFFFFFFFFFFFFFFFFFFFFFFFFFFFFFFFFFFFFFFFFFFFFFFFFFFFFFF
310
F000FFFFFFFFFFFFFFFFFFFFFFFFFFFFFFFFFFFFFFFFFFFFFFFFFFFFFFFFFFFF
310
FFFFFFFFFFFFFFFFFFFFFFFFFFFFFFFFFFFFFFFFFFFFFFFFFFFFFFFFFFFFFFFF
310
FFFFFFFFFFFFFFFFFFFFFFFFFFFFFFFFFFFFFFFFFFFFFFFFF000FFFFFFFFFFFF
310
FFFFFFFFFFFFFFFFFFFFFFFFFFFFFFFFFFFFFFFFFFFFFFFFFFFFFFFFFFFFFFFF
310
FFFFFFFFFFFFFFFFFFFFFFFFFFFFFFFFFFFFFFFFFFFFFFFFFFFFFFFFFFFFFFFF
310
FFFFFFFFFFFFFFFFFFFFFFFFFFFFFFFFF000FFFFFFFFFFFFFFFFFFFFFFFFFFFF
310
FFFFFFFFFFFFFFFFFFFFFFFFFFFFFFFFFFFFFFFFFFFFFFFFFFFFFFFFFFFFFFFF
310
FFFFFFFFFFFFFFFFFFFFFFFFFFFFFFFFFFFFFFFFFFFFFFFFFFFFFFFFFFFFFFFF
310
FFFFFFFFFFFFFFFFF000FFFFFFFFFFFFFFFFFFFFFFFFFFFFFFFFFFFFFFFFFFFF
310
FFFFFFFFFFFFFFFFFFFFFFFFFFFFFFFFFFFFFFFFFFFFFFFFFFFFFFFFFFFFFFFF
310
FFFFFFFFFFFFFFFFFFFFFFFFFFFFFFFFFFFFFFFFFFFFFFFFFFFFFFFFFFFFFFFF
310
F000FFFFFFFFFFFFFFFFFFFFFFFFFFFFFFFFFFFFFFFFFFFFFFFFFFFFFFFFFFFF
310
FFFFFFFFFFFFFFFFFFFFFFFFFFFFFFFFFFFFFFFFFFFFFFFFFFFFFFFFFFFFFFFF
310
FFFFFFFFFFFFFFFFFFFFFFFFFFFFFFFFFFFFFFFFFFFFFFFFF000FFFFFFFFFFFF
310
FFFFFFFFFFFFFFFFFFFFFFFFFFFFFFFFFFFFFFFFFFFFFFFFFFFFFFFFFFFFFFFF
310
FFFFFFFFFFFFFFFFFFFFFFFFFFFFFFFFFFFFFFFFFFFFFFFFFFFFFFFFFFFFFFFF
310
FFFFFFFFFFFFFFFFFFFFFFFFFFFFFFFFF000FFFFFFFFFFFFFFFFFFFFFFFFFFFF
310
FFFFFFFFFFFFFFFFFFFFFFFFFFFFFFFFFFFFFFFFFFFFFFFFFFFFFFFFFFFFFFFF
310
FFFFFFFFFFFFFFFFFFFFFFFFFFFFFFFFFFFFFFFFFFFFFFFFFFFFFFFFFFFFFFFF
310
FFFFFFFFFFFFFFFFF000FFFFFFFFFFFFFFFFFFFFFFFFFFFFFFFFFFFFFFFFFFFF
310
FFFFFFFFFFFFFFFFFFFFFFFFFFFFFFFFFFFFFFFFFFFFFFFFFFFFFFFFFFFFFFFF
310
FFFFFFFFFFFFFFFFFFFFFFFFFFFFFFFFFFFFFFFFFFFFFFFFFFFFFFFFFFFFFFFF
310
F000FFFFFFFFFFFFFFFFFFFFFFFFFFFFFFFFFFFFFFFFFFFFFFFFFFFFFFFFFFFF
310
FFFFFFFFFFFFFFFFFFFFFFFFFFFFFFFFFFFFFFFFFFFFFFFFFFFFFFFFFFFFFFFF
310
FFFFFFFFFFFFFFFFFFFFFFFFFFFFFFFFFFFFFFFFFFFFFFFFF000FFFFFFFFFFFF
310
FFFFFFFFFFFFFFFFFFFFFFFFFFFFFFFFFFFFFFFFFFFFFFFFFFFFFFFFFFFFFFFF
310
FFFFFFFFFFFFFFFFFFFFFFFFFFFFFFFFFFFFFFFFFFFFFFFFFFFFFFFFFFFFFFFF
310
FFFFFFFFFFFFFFFFFFFFFFFFFFFFFFFFF000FFFFFFFFFFFFFFFFFFFFFFFFFFFF
310
FFFFFFFFFFFFFFFFFFFFFFFFFFFFFFFFFFFFFFFFFFFFFFFFFFFFFFFFFFFFFFFF
310
FFFFFFFFFFFFFFFFFFFFFFFFFFFFFFFFFFFFFFFFFFFFFFFFFFFFFFFFFFFFFFFF
310
FFFFFFFFFFFFFFFFF000FFFFFFFFFFFFFFFFFFFFFFFFFFFFFFFFFFFFFFFFFFFF
310
FFFFFFFFFFFFFFFFFFFFFFFFFFFFFFFFFFFFFFFFFFFFFFFFFFFFFFFFFFFFFFFF
310
FFFFFFFFFFFFFFFFFFFFFFFFFFFFFFFFFFFFFFFFFFFFFFFFFFFFFFFFFFFFFFFF
310
F000FFFFFFFFFFFFFFFFFFFFFFFFFFFFFFFFFFFFFFFFFFFFFFFFFFFFFFFFFFFF
310
FFFFFFFFFFFFFFFFFFFFFFFFFFFFFFFFFFFFFFFFFFFFFFFFFFFFFFFFFFFFFFFF
310
FFFFFFFFFFFFFFFFFFFFFFFFFFFFFFFFFFFFFFFFFFFFFFFFF000FFFFFFFFFFFF
310
FFFFFFFFFFFFFFFFFFFFFFFFFFFFFFFFFFFFFFFFFFFFFFFFFFFFFFFFFFFFFFFF
310
FFFFFFFFFFFFFFFFFFFFFFFFFFFFFFFFFFFFFFFFFFFFFFFFFFFFFFFFFFFFFFFF
310
FFFFFFFFFFFFFFFFFFFFFFFFFFFFFFFFF000FFFFFFFFFFFFFFFFFFFFFFFFFFFF
310
FFFFFFFFFFFFFFFFFFFFFFFFFFFFFFFFFFFFFFFFFFFFFFFFFFFFFFFFFFFFFFFF
310
FFFFFFFFFFFFFFFFFFFFFFFFFFFFFFFFFFFFFFFFFFFFFFFFFFFFFFFFFFFFFFFF
310
FFFFFFFFFFFFFFFFF000FFFFF80003FFFFFFFFFFFFFFFFFFFFFFFFFFFFFFFFFF
310
FFFFF00007FFFFFFFFFF00007FFFFFF800000000000000007FFFFFFFFFFFFFFF
310
FFFFFFFC001FFFFFFFFFFFFFFC001FFFFFFFFFFFFFFFFFFFFFFFFFFE0007FFFF
310
F000FFFF8000007FFFFFFFF8000FFFFFC0007FFFFF80007FFFFF0000007FFFFF
310
FFF8000007FFFFF800000000000000007FFFFFF0001FFFFFFFFFFFC00001FFFF
310
FFFFFFFFC00001FFFFFFFF000000000003FFFFE000007FFFF000FFFE0000000F
310
FFFFFFF0000FFFFF80007FFFFF80007FFFFC0000001FFFFFFFC0000001FFFFF8
310
00000000000000007FFFFFF0001FFFFFFFFFFE0000003FFFFFFFFFFE0000003F
310
FFFFFF000000000003FFFF0000000FFFF000FFF800000003FFFFFFF00007FFFF
310
80007FFFFF80007FFFF000000007FFFFFF000000003FFFF80000000000000000
310
7FFFFFF0001FFFFFFFFFF80000000FFFFFFFFFF80000000FFFFFFF0000000000
310
03FFFC00000003FFF000FFE000000000FFFFFFF00007FFFF80003FFFFF80007F
310
FFC000000001FFFFFC000000001FFFF800000000000000007FFFFFF0001FFFFF
310
FFFFE000000003FFFFFFFFE000000003FFFFFF000000000003FFF000000000FF
310
F000FF80000000007FFFFFF00007FFFF80003FFFFF80007FFF8000000000FFFF
310
F80000000007FFF800000000000000007FFFFFF0001FFFFFFFFFC000000001FF
310
FFFFFFC000000001FFFFFF000000000003FFC0000000007FF000FF0000000000
310
3FFFFFE00007FFFF00003FFFFF80007FFE00000000003FFFF00000000003FFF8
310
00000000000000007FFFFFF0001FFFFFFFFF8000000000FFFFFFFF8000000000
310
FFFFFF000000000003FF80000000003FF000FE00000000001FFFFFE00003FFFF
310
00003FFFFF80007FFC00000000001FFFE00000000001FFF8000001FFFE000000
310
7FFFFFF0001FFFFFFFFE00000000003FFFFFFE00000000003FFFFF0000000000
310
03FF00000000001FF000FC00000000000FFFFFE00003FFFF00001FFFFF80007F
310
F800000000001FFFC00000000000FFF8000001FFFE0000007FFFFFF0001FFFFF
310
FFFC00000000001FFFFFFC00000000001FFFFF000000000003FE00000000000F
310
F000F8000000000007FFFFE00003FFFF00001FFFFF80007FF800000000000FFF
310
800000000000FFF8000001FFFE0000007FFFFFF0001FFFFFFFF800000000000F
310
FFFFF800000000000FFFFF000000000003FC000000000007F000F80000000000
310
03FFFFC00003FFFE00001FFFFF80007FF0000000000007FF0000000000007FF8
310
000001FFFE0000007FFFFFF0001FFFFFFFF0000000000007FFFFF00000000000
310
07FFFF000000000003F8000000000003F000F0000000000003FFFFC00001FFFE
310
00001FFFFF80007FE0000000000007FE0000000000003FF8000001FFFE000000
310
7FFFFFF0001FFFFFFFF0000000000007FFFFF0000000000007FFFF0000000000
310
03F800001F800003F000E00001FFF00001FFFFC00001FFFE00000FFFFF80007F
310
E00001FFE00003FE00001FFF00003FF8000001FFFE0000007FFFFFF0001FFFFF
310
FFE000003E000003FFFFE000003E000003FFFF000000000003F00001FFF80001
310
F000E00007FFFC0001FFFFC00001FFFE00000FFFFF80007FC0000FFFFC0003FC
310
0000FFFFC0001FF8000001FFFE0000007FFFFFF0001FFFFFFFC00003FFE00001
310
FFFFC00003FFE00001FFFF0001FFFFFFFFF00007FFFE0001F000E0000FFFFF00
310
00FFFF800001FFFC00000FFFFF80007FC0001FFFFE0001FC0001FFFFE0001FF8
310
000001FFFE0000007FFFFFF0001FFFFFFF80000FFFF80000FFFF80000FFFF800
310
00FFFF0003FFFFFFFFE0000FFFFF8000F000C0003FFFFF8000FFFF800000FFFC
310
000007FFFF80007F80003FFFFF0001FC0003FFFFF0001FF8000001FFFE000000
310
7FFFFFF0001FFFFFFF80003FFFFE0000FFFF80003FFFFE0000FFFF0003FFFFFF
310
FFE0003FFFFF8000F000C0003FFFFF8000FFFF800000FFFC000007FFFF80007F
310
80007FFFFF8001F80007FFFFF8000FF8000001FFFE0000007FFFFFF0001FFFFF
310
FF00007FFFFF00007FFF00007FFFFF00007FFF0003FFFFFFFFE0003FFFFFC000
310
F000C0007FFFFFC000FFFF000000FFFC000007FFFF80007F8000FFFFFF8000F8
310
000FFFFFF8000FF8000001FFFE0000007FFFFFF0001FFFFFFF0000FFFFFF8000
310
7FFF0000FFFFFF80007FFF0003FFFFFFFFC0007FFFFFC00070008000FFFFFFC0
310
00FFFF000000FFF8000007FFFF80007F8000FFFFFF8000F8000FFFFFF8000FF8
310
000001FFFE0000007FFFFFF0001FFFFFFE0001FFFFFFC0003FFE0001FFFFFFC0
310
003FFF0003FFFFFFFFC0007FFFFFE00070008000FFFFFFC0007FFF0000007FF8
310
000003FFFF80007F0001FFFFFF8000F8000FFFFFF8000FF8000001FFFE000000
310
7FFFFFF0001FFFFFFE0001FFFFFFC0003FFE0001FFFFFFC0003FFF0003FFFFFF
310
FFC000FFFFFFE00070008000FFFFFFC0007FFF0000007FF8000003FFFF80007F
310
0001FFFFFF8000F8001FFFFFF8000FF8000001FFFE0000007FFFFFF0001FFFFF
310
FE0003FFFFFFE0003FFE0003FFFFFFE0003FFF0003FFFFFFFFC000FFFFFFE000
310
70008000FFFFFFC0007FFE0000007FF8000003FFFF80007F0001FFFFFF8000F0
310
001FFFFFF8000FF8000001FFFE0000007FFFFFF0001FFFFFFC0003FFFFFFE000
310
1FFC0003FFFFFFE0001FFF0003FFFFFFFFC000FFFFFFC00070008000FFFFFF80
310
007FFE0000007FF0000003FFFF80007F0001FFFFFF0000F0001FFFFFF8000FF8
310
000001FFFE0000007FFFFFF0001FFFFFFC0007FFFFFFF0001FFC0007FFFFFFF0
310
001FFF0003FFFFFFFFC000FFFFFFC00070008001FFFFFF0000FFFE0000003FF0
310
000001FFFF80007F0001FFFFFF0000F8001FFFFFF0000FF8000001FFFE000000
310
7FFFFFF0001FFFFFFC0007FFFFFFF0001FFC0007FFFFFFF0001FFF0003FFFFFF
310
FFC001FFFFFF80007000FFFFFFFFFE0000FFFE0008003FF0008001FFFF80007F
310
FFFFFFFFFC0000FFFFFFFFFFE0000FF8000001FFFE0000007FFFFFF0001FFFFF
310
F8000FFFFFFFF8000FF8000FFFFFFFF8000FFF0003FFFFFFFFFFFFFFFFFF0000
310
7000FFFFFFFFFC0000FFFC0008003FF0008001FFFF80007FFFFFFFFFF80001FF
310
FFFFFFFF80000FF8000001FFFE0000007FFFFFF0001FFFFFF8000FFFFFFFF800
310
0FF8000FFFFFFFF8000FFF0003FFFFFFFFFFFFFFFFFE0000F000FFFFFFFFE000
310
00FFFC000C003FE000C001FFFF80007FFFFFFFFFC00001FFFFFFFFFE00001FF8
310
000001FFFE0000007FFFFFF0001FFFFFF8000FFFFFFFF8000FF8000FFFFFFFF8
310
000FFF0003FFFFFFFFFFFFFFFFF00000F000FFFFFFFE000001FFFC000C001FE0
310
00C000FFFF80007FFFFFFFFE000001FFFFFFFFE000001FF80FFFFFFFFFFFFFC0
310
7FFFFFF0001FFFFFF8000FFFFFFFF8000FF8000FFFFFFFF8000FFF0003FFFFFF
310
FFFFFFFFFF800000F000FFFFFFC0000001FFFC001C001FE001C000FFFF80007F
310
FFFFFF80000003FFFFFFF80000001FF80FFFFFFFFFFFFFC07FFFFFF0001FFFFF
310
F8001FFFFFFFFC000FF8001FFFFFFFFC000FFF0003FFFFFFFFFFFFFFF0000001
310
F000FFFFF800000001FFF8001C001FE001C000FFFF80007FFFFFF800000003FF
310
FFFF800000003FF80FFFFFFFFFFFFFC07FFFFFF0001FFFFFF8001FFFFFFFFC00
310
0FF8001FFFFFFFFC000FFF0003FFFFFFFFFFFFFE00000001F000FFFFC0000000
310
03FFF8001E001FC001E000FFFF80007FFFFF8000000007FFFFFC000000003FF8
310
0FFFFFFFFFFFFFC07FFFFFF0001FFFFFF8001FFFFFFFFC000FF8001FFFFFFFFC
310
000FFF0003FFFFFFFFFFFFE000000003F000FFFE0000000007FFF8001E000FC0
310
01E0007FFF80007FFFFE0000000007FFFFE0000000007FF80FFFFFFFFFFFFFC0
310
7FFFFFF0001FFFFFF0001FFFFFFFFC0007F0001FFFFFFFFC0007FF0003FFFFFF
310
FFFFFF0000000003F000FFF80000000007FFF8001E000FC003E0007FFF80007F
310
FFF0000000000FFFFF8000000000FFF80FFFFFFFFFFFFFC07FFFFFF0001FFFFF
310
F0001FFFFFFFFC0007F0001FFFFFFFFC0007FF0003FFFFFFFFFFFC0000000007
310
F000FFE0000000000FFFF0003E000FC003E0007FFF80007FFFC0000000001FFF
310
FE0000000001FFF80FFFFFFFFFFFFFC07FFFFFF0001FFFFFF0001FFFFFFFFC00
310
07F0001FFFFFFFFC0007FF0003FFFFFFFFFFF0000000000FF000FFC000000000
310
1FFFF0003F000F8003F0003FFF80007FFF80000000003FFFF80000000003FFF8
310
0FFFFFFFFFFFFFC07FFFFFF0001FFFFFF0001FFFFFFFFC0007F0001FFFFFFFFC
310
0007FF0003FFFFFFFFFFE0000000001FF000FF00000000007FFFF0003F000780
310
03F0003FFF80007FFF00000000007FFFF00000000007FFF80FFFFFFFFFFFFFC0
310
7FFFFFF0001FFFFFF0001FFFFFFFFC0007F0001FFFFFFFFC0007FF0003FFFFFF
310
FFFF80000000007FF000FE0000000000FFFFE0003F00078007F0003FFF80007F
310
FE0000000001FFFFE0000000001FFFF80FFFFFFFFFFFFFC07FFFFFF0001FFFFF
310
F0001FFFFFFFFC0007F0001FFFFFFFFC0007FF0003FFFFFFFFFF0000000000FF
310
F000FC0000000003FFFFE0007F00078007F0003FFF80007FFC0000000007FFFF
310
C0000000007FFFF80FFFFFFFFFFFFFC07FFFFFF0001FFFFFF8001FFFFFFFFC00
310
0FF8001FFFFFFFFC000FFF0003FFFFFFFFFE0000000003FFF000FC000000000F
310
FFFFE0007F80070007F8001FFF80007FF8000000001FFFFF8000000001FFFFF8
310
0FFFFFFFFFFFFFC07FFFFFF0001FFFFFF8001FFFFFFFFC000FF8001FFFFFFFFC
310
000FFF0003FFFFFFFFFC000000000FFFF000F8000000007FFFFFE0007F800700
310
07F8001FFF80007FF000000000FFFFFF800000000FFFFFF80FFFFFFFFFFFFFC0
310
7FFFFFF0001FFFFFF8000FFFFFFFF8000FF8000FFFFFFFF8000FFF0003FFFFFF
310
FFFC000000007FFFF000F800000007FFFFFFC0007F8003000FF8001FFF80007F
310
F000000007FFFFFF000000007FFFFFF80FFFFFFFFFFFFFC07FFFFFF0001FFFFF
310
F8000FFFFFFFF8000FF8000FFFFFFFF8000FFF0003FFFFFFFFF80000000FFFFF
310
F000F0000000FFFFFFFFC000FF8003000FF8001FFF80007FE0000000FFFFFFFF
310
0000000FFFFFFFF8000001FFFE0000007FFFFFF0001FFFFFF8000FFFFFFFF800
310
0FF8000FFFFFFFF8000FFF0003FFFFFFFFF8000000FFFFFFF000F000000FFFFF
310
FFFFC000FFC002000FF8000FFF80007FE000001FFFFFFFFE000001FFFFFFFFF8
310
000001FFFE0000007FFFFFF0001FFFFFF8000FFFFFFFF8000FF8000FFFFFFFF8
310
000FFF0003FFFFFFFFF000001FFFFFFFF000E00000FFFFFFFFFFC000FFC00200
310
0FFC000FFF80007FE00001FFFFFFFFFE00001FFFFFFFFFF8000001FFFE000000
310
7FFFFFF0001FFFFFFC000FFFFFFFF8001FFC000FFFFFFFF8001FFF0003FFFFFF
310
FFF00001FFFFFFFFF000E00007FFFFFFFFFF8000FFC000001FFC000FFF80007F
310
C0000FFFFFFFFFFE0000FFFFFFFFFFF8000001FFFE0000007FFFFFF0001FFFFF
310
FC0007FFFFFFF0001FFC0007FFFFFFF0001FFF0003FFFFFFFFF00007FFFFFFFF
310
F000E0001FFFFFFFFFFF8000FFC000001FFC000FFF80007FC0003FFFFFFFFFFE
310
0001FFFFFFFFFFF8000001FFFE0000007FFFFFF0001FFFFFFC0007FFFFFFF000
310
1FFC0007FFFFFFF0001FFF0003FFFFFFFFF0001FFFFFFFFFF000E0003FFFFF00
310
03FF8001FFE000001FFC0007FF80007FC0007FFFFF0007FC0003FFFFF0003FF8
310
000001FFFE0000007FFFFFF0001FFFFFFC0003FFFFFFE0001FFC0003FFFFFFE0
310
001FFF0003FFFFFFFFF0003FFFFFFFFFF000E0003FFFFF0001FF8001FFE00000
310
1FFE0007FF80007FC0007FFFFE0003FC0007FFFFE0003FF8000001FFFE000000
310
7FFFFFF0001FFFFFFE0003FFFFFFE0003FFE0003FFFFFFE0003FFF0003FFFFFF
310
FFF0003FFFFF8001F000E0003FFFFF0001FF0001FFE000001FFE0007FF80007F
310
C0007FFFFE0003FC0007FFFFE0003FF8000001FFFE0000007FFFFFF0001FFFFF
310
FE0001FFFFFFC0003FFE0001FFFFFFC0003FFF0003FFFFFFFFF0003FFFFF0001
310
F000E0003FFFFF0003FF0001FFE000003FFE0007FF80007FC0007FFFFE0003FC
310
0007FFFFE0003FF8000001FFFE0000007FFFFFF0001FFFFFFF0001FFFFFFC000
310
7FFF0001FFFFFFC0007FFF0003FFFFFFFFF0003FFFFF0001F000E0003FFFFE00
310
03FF0003FFF000003FFE0003FF80007FC0007FFFFC0003FE0007FFFFE0003FF8
310
000001FFFE0000007FFFFFF0001FFFFFFF0000FFFFFF80007FFF0000FFFFFF80
310
007FFF0003FFFFFFFFF0003FFFFF0001F000E0003FFFFE0003FF0003FFF00000
310
3FFF0003FF80007FC0007FFFFC0007FE0007FFFFC0003FF8000001FFFE000000
310
7FFFFFF0001FFFFFFF80007FFFFF0000FFFF80007FFFFF0000FFFF0003FFFFFF
310
FFF0003FFFFF0003F000E0003FFFFC0003FE0003FFF000003FFF0003FF80007F
310
E0003FFFF80007FE0003FFFFC0007FF8000001FFFE0000007FFFFFF0001FFFFF
310
FF80003FFFFE0000FFFF80003FFFFE0000FFFF0003FFFFFFFFF0001FFFFE0003
310
F000F0001FFFF80003FE0003FFF000007FFF0001FF80007FE0003FFFF00007FE
310
0001FFFF80007FF8000001FFFE0000007FFFFFF0001FFFFFFFC0000FFFF80001
310
FFFFC0000FFFF80001FFFF0003FFFFFFFFF0001FFFFC0003F000F0000FFFF000
310
07FE0007FFF800007FFF0001FF80007FE0001FFFE00007FF0000FFFE00007FF8
310
000001FFFE0000007FFFFFF0001FFFFFFFC00003FFE00001FFFFC00003FFE000
310
01FFFF0003FFFFFFFFF8000FFFF80003F000F00003FFC00007FC0007FFF80000
310
7FFF8001FF80007FF00007FF80000FFF00007FF80000FFF8000001FFFE000000
310
7F80000000000001FFE000003E000003FFFFE000003E000003FFFF0003FFFFFF
310
FFF80003FFE00007F000F800000000000FFC0007FFF800007FFF8001FF80007F
310
F000000000000FFF000000000000FFF8000001FFFE0000007F80000000000001
310
FFF0000000000007FFFFF0000000000007FFFF0003FFFFFFFFFC00007E000007
310
F000F800000000000FFC0007FFF80000FFFF8000FF80007FF800000000001FFF
310
800000000001FFF8000001FFFE0000007F80000000000001FFF800000000000F
310
FFFFF800000000000FFFFF0003FFFFFFFFFC00000000000FF000FC0000000000
310
1FFC0007FFFC0000FFFF8000FF80007FF800000000003FFFC00000000001FFF8
310
000001FFFE0000007F80000000000001FFF800000000000FFFFFF80000000000
310
0FFFFF0003FFFFFFFFFE00000000001FF000FE00000000003FF8000FFFFC0000
310
FFFF8000FF80007FFC00000000003FFFC00000000003FFF8000001FFFE000000
310
7F80000000000001FFFC00000000001FFFFFFC00000000001FFFFF0003FFFFFF
310
FFFF00000000001FF000FF00000000003FF8000FFFFC0000FFFFC000FF80007F
310
FE00000000007FFFE00000000007FFF8000001FFFE0000007F80000000000001
310
FFFE00000000003FFFFFFE00000000003FFFFF0003FFFFFFFFFF80000000003F
310
F000FF80000000007FF8000FFFFC0001FFFFC0007F80007FFF0000000000FFFF
310
F0000000000FFFF800000000000000007F80000000000001FFFF8000000000FF
310
FFFFFF8000000000FFFFFF0003FFFFFFFFFFC0000000007FF000FFC000000000
310
FFF8000FFFFE0001FFFFC0007F80007FFF8000000001FFFFF8000000001FFFF8
310
00000000000000007F80000000000001FFFFC000000001FFFFFFFFC000000001
310
FFFFFF0003FFFFFFFFFFE000000000FFF000FFE000000003FFF0001FFFFE0001
310
FFFFC0007F80007FFFC000000007FFFFFE000000003FFFF80000000000000000
310
7F80000000000001FFFFE000000003FFFFFFFFE000000003FFFFFF0003FFFFFF
310
FFFFF000000003FFF000FFF80000000FFFF0001FFFFE0001FFFFE0007F80007F
310
FFF00000000FFFFFFF00000000FFFFF800000000000000007F80000000000001
310
FFFFF80000000FFFFFFFFFF80000000FFFFFFF0003FFFFFFFFFFFC0000000FFF
310
F000FFFE0000003FFFF0001FFFFE0003FFFFE0003F80007FFFFC0000003FFFFF
310
FFC0000003FFFFF800000000000000007F80000000000001FFFFFE0000003FFF
310
FFFFFFFE0000003FFFFFFF0003FFFFFFFFFFFF0000003FFFF000FFFF800000FF
310
FFF0001FFFFF0003FFFFE0003F80007FFFFF000001FFFFFFFFF800001FFFFFF8
310
00000000000000007F80000000000001FFFFFFC00001FFFFFFFFFFFFC00001FF
310
FFFFFF0003FFFFFFFFFFFFC00000FFFFF000FFFFF8000FFFFFFFFFFFFFFFFFFF
310
FFFFFFFFFFFFFFFFFFFFF0001FFFFFFFFFFF0000FFFFFFF80000000000000000
310
7FFFFFFFFFFFFFFFFFFFFFFC001FFFFFFFFFFFFFFC001FFFFFFFFFFFFFFFFFFF
310
FFFFFFFC001FFFFFF000FFFFFFFFFFFFFFFFFFFFFFFFFFFFFFFFFFFFFFFFFFFF
310
FFFFFFFFFFFFFFFFFFFFFFFFFFFFFFFFFFFFFFFFFFFFFFFFFFFFFFFFFFFFFFFF
310
FFFFFFFFFFFFFFFFFFFFFFFFFFFFFFFFFFFFFFFFFFFFFFFFFFFFFFFFFFFFFFFF
310
F000FFFFFFFFFFFFFFFFFFFFFFFFFFFFFFFFFFFFFFFFFFFFFFFFFFFFFFFFFFFF
310
FFFFFFFFFFFFFFFFFFFFFFFFFFFFFFFFFFFFFFFFFFFFFFFFFFFFFFFFFFFFFFFF
310
FFFFFFFFFFFFFFFFFFFFFFFFFFFFFFFFFFFFFFFFFFFFFFFFF000FFFFFFFFFFFF
310
FFFFFFFFFFFFFFFFFFFFFFFFFFFFFFFFFFFFFFFFFFFFFFFFFFFFFFFFFFFFFFFF
310
FFFFFFFFFFFFFFFFFFFFFFFFFFFFFFFFFFFFFFFFFFFFFFFFFFFFFFFFFFFFFFFF
310
FFFFFFFFFFFFFFFFFFFFFFFFFFFFFFFFF000FFFFFFFFFFFFFFFFFFFFFFFFFFFF
310
FFFFFFFFFFFFFFFFFFFFFFFFFFFFFFFFFFFFFFFFFFFFFFFFFFFFFFFFFFFFFFFF
310
FFFFFFFFFFFFFFFFFFFFFFFFFFFFFFFFFFFFFFFFFFFFFFFFFFFFFFFFFFFFFFFF
310
FFFFFFFFFFFFFFFFF000FFFFFFFFFFFFFFFFFFFFFFFFFFFFFFFFFFFFFFFFFFFF
310
FFFFFFFFFFFFFFFFFFFFFFFFFFFFFFFFFFFFFFFFFFFFFFFFFFFFFFFFFFFFFFFF
310
FFFFFFFFFFFFFFFFFFFFFFFFFFFFFFFFFFFFFFFFFFFFFFFFFFFFFFFFFFFFFFFF
310
F000FFFFFFFFFFFFFFFFFFFFFFFFFFFFFFFFFFFFFFFFFFFFFFFFFFFFFFFFFFFF
310
FFFFFFFFFFFFFFFFFFFFFFFFFFFFFFFFFFFFFFFFFFFFFFFFFFFFFFFFFFFFFFFF
310
FFFFFFFFFFFFFFFFFFFFFFFFFFFFFFFFFFFFFFFFFFFFFFFFF000FFFFFFFFFFFF
310
FFFFFFFFFFFFFFFFFFFFFFFFFFFFFFFFFFFFFFFFFFFFFFFFFFFFFFFFFFFFFFFF
310
FFFFFFFFFFFFFFFFFFFFFFFFFFFFFFFFFFFFFFFFFFFFFFFFFFFFFFFFFFFFFFFF
310
FFFFFFFFFFFFFFFFFFFFFFFFFFFFFFFFF000FFFFFFFFFFFFFFFFFFFFFFFFFFFF
310
FFFFFFFFFFFFFFFFFFFFFFFFFFFFFFFFFFFFFFFFFFFFFFFFFFFFFFFFFFFFFFFF
310
FFFFFFFFFFFFFFFFFFFFFFFFFFFFFFFFFFFFFFFFFFFFFFFFFFFFFFFFFFFFFFFF
310
FFFFFFFFFFFFFFFFF000FFFFFFFFFFFFFFFFFFFFFFFFFFFFFFFFFFFFFFFFFFFF
310
FFFFFFFFFFFFFFFFFFFFFFFFFFFFFFFFFFFFFFFFFFFFFFFFFFFFFFFFFFFFFFFF
310
FFFFFFFFFFFFFFFFFFFFFFFFFFFFFFFFFFFFFFFFFFFFFFFFFFFFFFFFFFFFFFFF
310
F000FFFFFFFFFFFFFFFFFFFFFFFFFFFFFFFFFFFFFFFFFFFFFFFFFFFFFFFFFFFF
310
FFFFFFFFFFFFFFFFFFFFFFFFFFFFFFFFFFFFFFFFFFFFFFFFFFFFFFFFFFFFFFFF
310
FFFFFFFFFFFFFFFFFFFFFFFFFFFFFFFFFFFFFFFFFFFFFFFFF000FFFFFFFFFFFF
310
FFFFFFFFFFFFFFFFFFFFFFFFFFFFFFFFFFFFFFFFFFFFFFFFFFFFFFFFFFFFFFFF
310
FFFFFFFFFFFFFFFFFFFFFFFFFFFFFFFFFFFFFFFFFFFFFFFFFFFFFFFFFFFFFFFF
310
FFFFFFFFFFFFFFFFFFFFFFFFFFFFFFFFF000FFFFFFFFFFFFFFFFFFFFFFFFFFFF
310
FFFFFFFFFFFFFFFFFFFFFFFFFFFFFFFFFFFFFFFFFFFFFFFFFFFFFFFFFFFFFFFF
310
FFFFFFFFFFFFFFFFFFFFFFFFFFFFFFFFFFFFFFFFFFFFFFFFFFFFFFFFFFFFFFFF
310
FFFFFFFFFFFFFFFFF000FFFFFFFFFFFFFFFFFFFFFFFFFFFFFFFFFFFFFFFFFFFF
310
FFFFFFFFFFFFFFFFFFFFFFFFFFFFFFFFFFFFFFFFFFFFFFFFFFFFFFFFFFFFFFFF
310
FFFFFFFFFFFFFFFFFFFFFFFFFFFFFFFFFFFFFFFFFFFFFFFFFFFFFFFFFFFFFFFF
310
F000FFFFFFFFFFFFFFFFFFFFFFFFFFFFFFFFFFFFFFFFFFFFFFFFFFFFFFFFFFFF
310
FFFFFFFFFFFFFFFFFFFFFFFFFFFFFFFFFFFFFFFFFFFFFFFFFFFFFFFFFFFFFFFF
310
FFFFFFFFFFFFFFFFFFFFFFFFFFFFFFFFFFFFFFFFFFFFFFFFF000FFFFFFFFFFFF
310
FFFFFFFFFFFFFFFFFFFFFFFFFFFFFFFFFFFFFFFFFFFFFFFFFFFFFFFFFFFFFFFF
310
FFFFFFFFFFFFFFFFFFFFFFFFFFFFFFFFFFFFFFFFFFFFFFFFFFFFFFFFFFFFFFFF
310
FFFFFFFFFFFFFFFFFFFFFFFFFFFFFFFFF000FFFFFFFFFFFFFFFFFFFFFFFFFFFF
310
FFFFFFFFFFFFFFFFFFFFFFFFFFFFFFFFFFFFFFFFFFFFFFFFFFFFFFFFFFFFFFFF
310
FFFFFFFFFFFFFFFFFFFFFFFFFFFFFFFFFFFFFFFFFFFFFFFFFFFFFFFFFFFFFFFF
310
FFFFFFFFFFFFFFFFF000FFFFFFFFFFFFFFFFFFFFFFFFFFFFFFFFFFFFFFFFFFFF
310
FFFFFFFFFFFFFFFFFFFFFFFFFFFFFFFFFFFFFFFFFFFFFFFFFFFFFFFFFFFFFFFF
310
FFFFFFFFFFFFFFFFFFFFFFFFFFFFFFFFFFFFFFFFFFFFFFFFFFFFFFFFFFFFFFFF
310
F000FFFFFFFFFFFFFFFFFFFFFFFFFFFFFFFFFFFFFFFFFFFFFFFFFFFFFFFFFFFF
310
FFFFFFFFFFFFFFFFFFFFFFFFFFFFFFFFFFFFFFFFFFFFFFFFFFFFFFFFFFFFFFFF
310
FFFFFFFFFFFFFFFFFFFFFFFFFFFFFFFFFFFFFFFFFFFFFFFFF000FFFFFFFFFFFF
310
FFFFFFFFFFFFFFFFFFFFFFFFFFFFFFFFFFFFFFFFFFFFFFFFFFFFFFFFFFFFFFFF
310
FFFFFFFFFFFFFFFFFFFFFFFFFFFFFFFFFFFFFFFFFFFFFFFFFFFFFFFFFFFFFFFF
310
FFFFFFFFFFFFFFFFFFFFFFFFFFFFFFFFF000FFFFFFFFFFFFFFFFFFFFFFFFFFFF
310
FFFFFFFFFFFFFFFFFFFFFFFFFFFFFFFFFFFFFFFFFFFFFFFFFFFFFFFFFFFFFFFF
310
FFFFFFFFFFFFFFFFFFFFFFFFFFFFFFFFFFFFFFFFFFFFFFFFFFFFFFFFFFFFFFFF
310
FFFFFFFFFFFFFFFFF000FFFFFFFFFFFFFFFFFFFFFFFFFFFFFFFFFFFFFFFFFFFF
310
FFFFFFFFFFFFFFFFFFFFFFFFFFFFFFFFFFFFFFFFFFFFFFFFFFFFFFFFFFFFFFFF
310
FFFFFFFFFFFFFFFFFFFFFFFFFFFFFFFFFFFFFFFFFFFFFFFFFFFFFFFFFFFFFFFF
310
F000FFFFFFFFFFFFFFFFFFFFFFFFFFFFFFFFFFFFFFFFFFFFFFFFFFFFFFFFFFFF
310
FFFFFFFFFFFFFFFFFFFFFFFFFFFFFFFFFFFFFFFFFFFFFFFFFFFFFFFFFFFFFFFF
310
FFFFFFFFFFFFFFFFFFFFFFFFFFFFFFFFFFFFFFFFFFFFFFFFF000FFFFFFFFFFFF
310
FFFFFFFFFFFFFFFFFFFFFFFFFFFFFFFFFFFFFFFFFFFFFFFFFFFFFFFFFFFFFFFF
310
FFFFFFFFFFFFFFFFFFFFFFFFFFFFFFFFFFFFFFFFFFFFFFFFFFFFFFFFFFFFFFFF
310
FFFFFFFFFFFFFFFFFFFFFFFFFFFFFFFFF0000000000000000000000000000000
310
0000000000000000000000000000000000000000000000000000000000000000
310
0000000000000000000000000000000000000000000000000000000000000000
310
0000000000000000000000000000000000000000000000000000000000000000
310
0000000000000000000000000000000000000000000000000000000000000000
310
0000000000000000000000000000000000000000000000000000000000000000
310
0000000000000000000000000000000000000000000000000000000000000000
310
0000000000000000000000000000000000000000000000000000000000000000
310
0000000000000000000000000000000000000000000000000000000000000000
310
0000000000000000000000000000000000000000000000000000000000000000
310
0000000000000000000000000000000000000000000000000000000000000000
310
0000000000000000000000000000000000000000000000000000000000000000
310
0000000000000000000000000000000000000000000000000000000000000000
310
0000000000000000000000000000000000000000000000000000000000000000
310
0000000000000000000000000000000000000000000000000000000000000000
310
0000000000000000000000000000000000000000000000000000000000000000
  1
OLE
  0
ENDSEC
  0
SECTION
  2
OBJECTS
  0
DICTIONARY
  5
C
330
0
100
AcDbDictionary
281
     1
  3
ACAD_GROUP
350
D
  3
ACAD_LAYOUT
350
1A
  3
ACAD_MLINESTYLE
350
17
  3
ACAD_PLOTSETTINGS
350
19
  3
ACAD_PLOTSTYLENAME
350
E
  3
ACAD_SCALELIST
350
47
  0
DICTIONARY
  5
D
102
{ACAD_REACTORS
330
C
102
}
330
C
100
AcDbDictionary
281
     1
  0
DICTIONARY
  5
1A
102
{ACAD_REACTORS
330
C
102
}
330
C
100
AcDbDictionary
281
     1
  3
Layout1
350
1E
  3
Layout2
350
26
  3
Model
350
22
  0
DICTIONARY
  5
17
102
{ACAD_REACTORS
330
C
102
}
330
C
100
AcDbDictionary
281
     1
  3
Standard
350
18
  0
DICTIONARY
  5
19
102
{ACAD_REACTORS
330
C
102
}
330
C
100
AcDbDictionary
281
     1
  0
ACDBDICTIONARYWDFLT
  5
E
102
{ACAD_REACTORS
330
C
102
}
330
C
100
AcDbDictionary
281
     1
  3
Normal
350
F
100
AcDbDictionaryWithDefault
340
F
  0
DICTIONARY
  5
47
102
{ACAD_REACTORS
330
C
102
}
330
C
100
AcDbDictionary
281
     1
  3
A0
350
48
  3
A1
350
49
  3
A2
350
4A
  3
A3
350
4B
  3
A4
350
4C
  3
A5
350
4D
  3
A6
350
4E
  3
A7
350
4F
  3
A8
350
50
  3
A9
350
51
  3
B0
350
52
  3
B1
350
53
  3
B2
350
54
  3
B3
350
55
  3
B4
350
56
  3
B5
350
57
  3
B6
350
58
  3
B7
350
59
  3
B8
350
5A
  3
B9
350
5B
  3
C0
350
5C
  3
C1
350
5D
  3
C2
350
5E
  3
C3
350
5F
  3
C4
350
60
  3
C5
350
61
  3
C6
350
62
  3
C7
350
63
  3
C8
350
64
  3
C9
350
65
  3
D0
350
66
  3
D1
350
67
  3
D2
350
68
  0
LAYOUT
  5
1E
102
{ACAD_REACTORS
330
1A
102
}
330
1A
100
AcDbPlotSettings
  1

  2
none_device
  4

  6

 40
0.0
 41
0.0
 42
0.0
 43
0.0
 44
0.0
 45
0.0
 46
0.0
 47
0.0
 48
0.0
 49
0.0
140
0.0
141
0.0
142
1.0
143
1.0
 70
   688
 72
     1
 73
     0
 74
     5
  7

 75
    16
147
1.0
148
0.0
149
0.0
100
AcDbLayout
  1
Layout1
 70
     1
 71
     1
 10
0.0
 20
0.0
 11
420.0
 21
297.0
 12
0.0
 22
0.0
 32
0.0
 14
1.0000000000E+20
 24
1.0000000000E+20
 34
1.0000000000E+20
 15
-1.0000000000E+20
 25
-1.0000000000E+20
 35
-1.0000000000E+20
146
0.0
 13
0.0
 23
0.0
 33
0.0
 16
1.0
 26
0.0
 36
0.0
 17
0.0
 27
1.0
 37
0.0
 76
     0
330
1B
  0
LAYOUT
  5
26
102
{ACAD_REACTORS
330
1A
102
}
330
1A
100
AcDbPlotSettings
  1

  2
none_device
  4

  6

 40
0.0
 41
0.0
 42
0.0
 43
0.0
 44
0.0
 45
0.0
 46
0.0
 47
0.0
 48
0.0
 49
0.0
140
0.0
141
0.0
142
1.0
143
1.0
 70
   688
 72
     1
 73
     0
 74
     5
  7

 75
    16
147
1.0
148
0.0
149
0.0
100
AcDbLayout
  1
Layout2
 70
     1
 71
     2
 10
0.0
 20
0.0
 11
0.0
 21
0.0
 12
0.0
 22
0.0
 32
0.0
 14
0.0
 24
0.0
 34
0.0
 15
0.0
 25
0.0
 35
0.0
146
0.0
 13
0.0
 23
0.0
 33
0.0
 16
1.0
 26
0.0
 36
0.0
 17
0.0
 27
1.0
 37
0.0
 76
     0
330
23
  0
LAYOUT
  5
22
102
{ACAD_REACTORS
330
1A
102
}
330
1A
100
AcDbPlotSettings
  1

  2
none_device
  4
Letter_(8.50_x_11.00_Inches)
  6

 40
6.35
 41
6.35
 42
6.35000508
 43
6.35000508
 44
215.9
 45
279.4
 46
0.0
 47
0.0
 48
0.0
 49
0.0
140
0.0
141
0.0
142
1.0
143
1.0
 70
  1712
 72
     1
 73
     0
 74
     0
  7

 75
     0
147
1.0
148
0.0
149
0.0
100
AcDbLayout
  1
Model
 70
     1
 71
     0
 10
0.0
 20
0.0
 11
297.0
 21
210.0
 12
0.0
 22
0.0
 32
0.0
 14
0.0
 24
0.0
 34
0.0
 15
297.0
 25
210.0
 35
0.0
146
0.0
 13
0.0
 23
0.0
 33
0.0
 16
1.0
 26
0.0
 36
0.0
 17
0.0
 27
1.0
 37
0.0
 76
     0
330
1F
331
29
  0
MLINESTYLE
  5
18
102
{ACAD_REACTORS
330
17
102
}
330
17
100
AcDbMlineStyle
  2
Standard
 70
     0
  3

 62
   256
 51
90.0
 52
90.0
 71
     2
 49
0.5
 62
   256
  6
BYLAYER
 49
-0.5
 62
   256
  6
BYLAYER
  0
ACDBPLACEHOLDER
  5
F
102
{ACAD_REACTORS
330
E
102
}
330
E
  0
SCALE
  5
48
102
{ACAD_REACTORS
330
47
102
}
330
47
100
AcDbScale
 70
     0
300
1:1
140
1.0
141
1.0
290
     1
  0
SCALE
  5
49
102
{ACAD_REACTORS
330
47
102
}
330
47
100
AcDbScale
 70
     0
300
1:2
140
1.0
141
2.0
290
     0
  0
SCALE
  5
4A
102
{ACAD_REACTORS
330
47
102
}
330
47
100
AcDbScale
 70
     0
300
1:4
140
1.0
141
4.0
290
     0
  0
SCALE
  5
4B
102
{ACAD_REACTORS
330
47
102
}
330
47
100
AcDbScale
 70
     0
300
1:5
140
1.0
141
5.0
290
     0
  0
SCALE
  5
4C
102
{ACAD_REACTORS
330
47
102
}
330
47
100
AcDbScale
 70
     0
300
1:8
140
1.0
141
8.0
290
     0
  0
SCALE
  5
4D
102
{ACAD_REACTORS
330
47
102
}
330
47
100
AcDbScale
 70
     0
300
1:10
140
1.0
141
10.0
290
     0
  0
SCALE
  5
4E
102
{ACAD_REACTORS
330
47
102
}
330
47
100
AcDbScale
 70
     0
300
1:16
140
1.0
141
16.0
290
     0
  0
SCALE
  5
4F
102
{ACAD_REACTORS
330
47
102
}
330
47
100
AcDbScale
 70
     0
300
1:20
140
1.0
141
20.0
290
     0
  0
SCALE
  5
50
102
{ACAD_REACTORS
330
47
102
}
330
47
100
AcDbScale
 70
     0
300
1:30
140
1.0
141
30.0
290
     0
  0
SCALE
  5
51
102
{ACAD_REACTORS
330
47
102
}
330
47
100
AcDbScale
 70
     0
300
1:40
140
1.0
141
40.0
290
     0
  0
SCALE
  5
52
102
{ACAD_REACTORS
330
47
102
}
330
47
100
AcDbScale
 70
     0
300
1:50
140
1.0
141
50.0
290
     0
  0
SCALE
  5
53
102
{ACAD_REACTORS
330
47
102
}
330
47
100
AcDbScale
 70
     0
300
1:100
140
1.0
141
100.0
290
     0
  0
SCALE
  5
54
102
{ACAD_REACTORS
330
47
102
}
330
47
100
AcDbScale
 70
     0
300
2:1
140
2.0
141
1.0
290
     0
  0
SCALE
  5
55
102
{ACAD_REACTORS
330
47
102
}
330
47
100
AcDbScale
 70
     0
300
4:1
140
4.0
141
1.0
290
     0
  0
SCALE
  5
56
102
{ACAD_REACTORS
330
47
102
}
330
47
100
AcDbScale
 70
     0
300
8:1
140
8.0
141
1.0
290
     0
  0
SCALE
  5
57
102
{ACAD_REACTORS
330
47
102
}
330
47
100
AcDbScale
 70
     0
300
10:1
140
10.0
141
1.0
290
     0
  0
SCALE
  5
58
102
{ACAD_REACTORS
330
47
102
}
330
47
100
AcDbScale
 70
     0
300
100:1
140
100.0
141
1.0
290
     0
  0
SCALE
  5
59
102
{ACAD_REACTORS
330
47
102
}
330
47
100
AcDbScale
 70
     0
300
1/128" = 1'-0"
140
0.0078125
141
12.0
290
     0
  0
SCALE
  5
5A
102
{ACAD_REACTORS
330
47
102
}
330
47
100
AcDbScale
 70
     0
300
1/64" = 1'-0"
140
0.015625
141
12.0
290
     0
  0
SCALE
  5
5B
102
{ACAD_REACTORS
330
47
102
}
330
47
100
AcDbScale
 70
     0
300
1/32" = 1'-0"
140
0.03125
141
12.0
290
     0
  0
SCALE
  5
5C
102
{ACAD_REACTORS
330
47
102
}
330
47
100
AcDbScale
 70
     0
300
1/16" = 1'-0"
140
0.0625
141
12.0
290
     0
  0
SCALE
  5
5D
102
{ACAD_REACTORS
330
47
102
}
330
47
100
AcDbScale
 70
     0
300
3/32" = 1'-0"
140
0.09375
141
12.0
290
     0
  0
SCALE
  5
5E
102
{ACAD_REACTORS
330
47
102
}
330
47
100
AcDbScale
 70
     0
300
1/8" = 1'-0"
140
0.125
141
12.0
290
     0
  0
SCALE
  5
5F
102
{ACAD_REACTORS
330
47
102
}
330
47
100
AcDbScale
 70
     0
300
3/16" = 1'-0"
140
0.1875
141
12.0
290
     0
  0
SCALE
  5
60
102
{ACAD_REACTORS
330
47
102
}
330
47
100
AcDbScale
 70
     0
300
1/4" = 1'-0"
140
0.25
141
12.0
290
     0
  0
SCALE
  5
61
102
{ACAD_REACTORS
330
47
102
}
330
47
100
AcDbScale
 70
     0
300
3/8" = 1'-0"
140
0.375
141
12.0
290
     0
  0
SCALE
  5
62
102
{ACAD_REACTORS
330
47
102
}
330
47
100
AcDbScale
 70
     0
300
1/2" = 1'-0"
140
0.5
141
12.0
290
     0
  0
SCALE
  5
63
102
{ACAD_REACTORS
330
47
102
}
330
47
100
AcDbScale
 70
     0
300
3/4" = 1'-0"
140
0.75
141
12.0
290
     0
  0
SCALE
  5
64
102
{ACAD_REACTORS
330
47
102
}
330
47
100
AcDbScale
 70
     0
300
1" = 1'-0"
140
1.0
141
12.0
290
     0
  0
SCALE
  5
65
102
{ACAD_REACTORS
330
47
102
}
330
47
100
AcDbScale
 70
     0
300
1-1/2" = 1'-0"
140
1.5
141
12.0
290
     0
  0
SCALE
  5
66
102
{ACAD_REACTORS
330
47
102
}
330
47
100
AcDbScale
 70
     0
300
3" = 1'-0"
140
3.0
141
12.0
290
     0
  0
SCALE
  5
67
102
{ACAD_REACTORS
330
47
102
}
330
47
100
AcDbScale
 70
     0
300
6" = 1'-0"
140
6.0
141
12.0
290
     0
  0
SCALE
  5
68
102
{ACAD_REACTORS
330
47
102
}
330
47
100
AcDbScale
 70
     0
300
1'-0" = 1'-0"
140
12.0
141
12.0
290
     0
  0
ENDSEC
  0
EOF
