  0
SECTION
  2
HEADER
  9
$ACADVER
  1
AC1015
  9
$ACADMAINTVER
 70
     6
  9
$DWGCODEPAGE
  3
ANSI_1252
  9
$INSBASE
 10
0.0
 20
0.0
 30
0.0
  9
$EXTMIN
 10
0.0
 20
0.0
 30
0.0
  9
$EXTMAX
 10
297.0
 20
210.0
 30
0.0
  9
$LIMMIN
 10
0.0
 20
0.0
  9
$LIMMAX
 10
297.0
 20
210.0
  9
$ORTHOMODE
 70
     0
  9
$REGENMODE
 70
     1
  9
$FILLMODE
 70
     1
  9
$QTEXTMODE
 70
     0
  9
$MIRRTEXT
 70
     1
  9
$LTSCALE
 40
1.0
  9
$ATTMODE
 70
     1
  9
$TEXTSIZE
 40
2.0
  9
$TRACEWID
 40
1.0
  9
$TEXTSTYLE
  7
Standard
  9
$CLAYER
  8
0
  9
$CELTYPE
  6
ByLayer
  9
$CECOLOR
 62
   256
  9
$CELTSCALE
 40
1.0
  9
$DISPSILH
 70
     0
  9
$DIMSCALE
 40
1.0
  9
$DIMASZ
 40
3.0
  9
$DIMEXO
 40
0.0
  9
$DIMDLI
 40
3.75
  9
$DIMRND
 40
0.0
  9
$DIMDLE
 40
0.0
  9
$DIMEXE
 40
1.0
  9
$DIMTP
 40
0.0
  9
$DIMTM
 40
0.0
  9
$DIMTXT
 40
2.0
  9
$DIMCEN
 40
2.5
  9
$DIMTSZ
 40
0.0
  9
$DIMTOL
 70
     0
  9
$DIMLIM
 70
     0
  9
$DIMTIH
 70
     1
  9
$DIMTOH
 70
     1
  9
$DIMSE1
 70
     0
  9
$DIMSE2
 70
     0
  9
$DIMTAD
 70
     1
  9
$DIMZIN
 70
     0
  9
$DIMBLK
  1

  9
$DIMASO
 70
     1
  9
$DIMSHO
 70
     1
  9
$DIMPOST
  1

  9
$DIMAPOST
  1

  9
$DIMALT
 70
     0
  9
$DIMALTD
 70
     3
  9
$DIMALTF
 40
0.0393700787
  9
$DIMLFAC
 40
2.0
  9
$DIMTOFL
 70
     1
  9
$DIMTVP
 40
0.0
  9
$DIMTIX
 70
     0
  9
$DIMSOXD
 70
     0
  9
$DIMSAH
 70
     0
  9
$DIMBLK1
  1

  9
$DIMBLK2
  1

  9
$DIMSTYLE
  2
ISO-25
  9
$DIMCLRD
 70
     0
  9
$DIMCLRE
 70
     0
  9
$DIMCLRT
 70
     0
  9
$DIMTFAC
 40
1.0
  9
$DIMGAP
 40
1.524
  9
$DIMJUST
 70
     0
  9
$DIMSD1
 70
     0
  9
$DIMSD2
 70
     0
  9
$DIMTOLJ
 70
     0
  9
$DIMTZIN
 70
     0
  9
$DIMALTZ
 70
     0
  9
$DIMALTTZ
 70
     0
  9
$DIMUPT
 70
     0
  9
$DIMDEC
 70
     2
  9
$DIMTDEC
 70
     3
  9
$DIMALTU
 70
     2
  9
$DIMALTTD
 70
     3
  9
$DIMTXSTY
  7
Standard
  9
$DIMAUNIT
 70
     0
  9
$DIMADEC
 70
     2
  9
$DIMALTRND
 40
0.0
  9
$DIMAZIN
 70
     0
  9
$DIMDSEP
 70
    44
  9
$DIMATFIT
 70
     3
  9
$DIMFRAC
 70
     0
  9
$DIMLDRBLK
  1

  9
$DIMLUNIT
 70
     2
  9
$DIMLWD
 70
    -2
  9
$DIMLWE
 70
    -2
  9
$DIMTMOVE
 70
     0
  9
$LUNITS
 70
     2
  9
$LUPREC
 70
     2
  9
$SKETCHINC
 40
1.0
  9
$FILLETRAD
 40
10.0
  9
$AUNITS
 70
     0
  9
$AUPREC
 70
     2
  9
$MENU
  1
.
  9
$ELEVATION
 40
0.0
  9
$PELEVATION
 40
0.0
  9
$THICKNESS
 40
0.0
  9
$LIMCHECK
 70
     0
  9
$CHAMFERA
 40
0.0
  9
$CHAMFERB
 40
0.0
  9
$CHAMFERC
 40
0.0
  9
$CHAMFERD
 40
0.0
  9
$SKPOLY
 70
     0
  9
$TDCREATE
 40
2458166.369381933
  9
$TDUCREATE
 40
2458166.327715266
  9
$TDUPDATE
 40
2458166.369385521
  9
$TDUUPDATE
 40
2458166.327718854
  9
$TDINDWG
 40
0.0000000116
  9
$TDUSRTIMER
 40
0.0000000116
  9
$USRTIMER
 70
     1
  9
$ANGBASE
 50
0.0
  9
$ANGDIR
 70
     0
  9
$PDMODE
 70
     0
  9
$PDSIZE
 40
-1.0
  9
$PLINEWID
 40
0.0
  9
$SPLFRAME
 70
     0
  9
$SPLINETYPE
 70
     6
  9
$SPLINESEGS
 70
     8
  9
$HANDSEED
  5
2FB
  9
$SURFTAB1
 70
     6
  9
$SURFTAB2
 70
     6
  9
$SURFTYPE
 70
     6
  9
$SURFU
 70
     6
  9
$SURFV
 70
     6
  9
$UCSBASE
  2

  9
$UCSNAME
  2

  9
$UCSORG
 10
0.0
 20
0.0
 30
0.0
  9
$UCSXDIR
 10
1.0
 20
0.0
 30
0.0
  9
$UCSYDIR
 10
0.0
 20
1.0
 30
0.0
  9
$UCSORTHOREF
  2

  9
$UCSORTHOVIEW
 70
     0
  9
$UCSORGTOP
 10
0.0
 20
0.0
 30
0.0
  9
$UCSORGBOTTOM
 10
0.0
 20
0.0
 30
0.0
  9
$UCSORGLEFT
 10
0.0
 20
0.0
 30
0.0
  9
$UCSORGRIGHT
 10
0.0
 20
0.0
 30
0.0
  9
$UCSORGFRONT
 10
0.0
 20
0.0
 30
0.0
  9
$UCSORGBACK
 10
0.0
 20
0.0
 30
0.0
  9
$PUCSBASE
  2

  9
$PUCSNAME
  2

  9
$PUCSORG
 10
0.0
 20
0.0
 30
0.0
  9
$PUCSXDIR
 10
1.0
 20
0.0
 30
0.0
  9
$PUCSYDIR
 10
0.0
 20
1.0
 30
0.0
  9
$PUCSORTHOREF
  2

  9
$PUCSORTHOVIEW
 70
     0
  9
$PUCSORGTOP
 10
0.0
 20
0.0
 30
0.0
  9
$PUCSORGBOTTOM
 10
0.0
 20
0.0
 30
0.0
  9
$PUCSORGLEFT
 10
0.0
 20
0.0
 30
0.0
  9
$PUCSORGRIGHT
 10
0.0
 20
0.0
 30
0.0
  9
$PUCSORGFRONT
 10
0.0
 20
0.0
 30
0.0
  9
$PUCSORGBACK
 10
0.0
 20
0.0
 30
0.0
  9
$USERI1
 70
     0
  9
$USERI2
 70
     0
  9
$USERI3
 70
     0
  9
$USERI4
 70
     0
  9
$USERI5
 70
     0
  9
$USERR1
 40
0.0
  9
$USERR2
 40
0.0
  9
$USERR3
 40
0.0
  9
$USERR4
 40
0.0
  9
$USERR5
 40
0.0
  9
$WORLDVIEW
 70
     1
  9
$SHADEDGE
 70
     3
  9
$SHADEDIF
 70
    70
  9
$TILEMODE
 70
     1
  9
$MAXACTVP
 70
    64
  9
$PINSBASE
 10
0.0
 20
0.0
 30
0.0
  9
$PLIMCHECK
 70
     0
  9
$PEXTMIN
 10
1.0000000000E+20
 20
1.0000000000E+20
 30
1.0000000000E+20
  9
$PEXTMAX
 10
-1.0000000000E+20
 20
-1.0000000000E+20
 30
-1.0000000000E+20
  9
$PLIMMIN
 10
0.0
 20
0.0
  9
$PLIMMAX
 10
420.0
 20
297.0
  9
$UNITMODE
 70
     0
  9
$VISRETAIN
 70
     1
  9
$PLINEGEN
 70
     0
  9
$PSLTSCALE
 70
     1
  9
$TREEDEPTH
 70
  3020
  9
$CMLSTYLE
  2
Standard
  9
$CMLJUST
 70
     0
  9
$CMLSCALE
 40
20.0
  9
$PROXYGRAPHICS
 70
     1
  9
$MEASUREMENT
 70
     1
  9
$CELWEIGHT
370
    -1
  9
$ENDCAPS
280
     0
  9
$JOINSTYLE
280
     0
  9
$LWDISPLAY
290
     1
  9
$INSUNITS
 70
     4
  9
$HYPERLINKBASE
  1

  9
$STYLESHEET
  1

  9
$XEDIT
290
     1
  9
$CEPSNTYPE
380
     0
  9
$PSTYLEMODE
290
     1
  9
$FINGERPRINTGUID
  2
{54DB0F73-C8A4-49C3-87FF-78B25212D5E5}
  9
$VERSIONGUID
  2
{FAEB1C32-E019-11D5-929B-00C0DF256EC4}
  9
$EXTNAMES
290
     1
  9
$PSVPSCALE
 40
0.0
  9
$OLESTARTUP
290
     0
  0
ENDSEC
  0
SECTION
  2
CLASSES
  0
CLASS
  1
ACDBDICTIONARYWDFLT
  2
AcDbDictionaryWithDefault
  3
ObjectDBX Classes
 90
        0
280
     0
281
     0
  0
CLASS
  1
VISUALSTYLE
  2
AcDbVisualStyle
  3
ObjectDBX Classes
 90
     4095
280
     0
281
     0
  0
CLASS
  1
MATERIAL
  2
AcDbMaterial
  3
ObjectDBX Classes
 90
     1153
280
     0
281
     0
  0
CLASS
  1
SCALE
  2
AcDbScale
  3
ObjectDBX Classes
 90
     1153
280
     0
281
     0
  0
CLASS
  1
TABLESTYLE
  2
AcDbTableStyle
  3
ObjectDBX Classes
 90
     4095
280
     0
281
     0
  0
CLASS
  1
MLEADERSTYLE
  2
AcDbMLeaderStyle
  3
ACDB_MLEADERSTYLE_CLASS
 90
     4095
280
     0
281
     0
  0
CLASS
  1
SUN
  2
AcDbSun
  3
SCENEOE
 90
     1153
280
     0
281
     0
  0
CLASS
  1
ACDBPLACEHOLDER
  2
AcDbPlaceHolder
  3
ObjectDBX Classes
 90
        0
280
     0
281
     0
  0
CLASS
  1
LAYOUT
  2
AcDbLayout
  3
ObjectDBX Classes
 90
        0
280
     0
281
     0
  0
ENDSEC
  0
SECTION
  2
TABLES
  0
TABLE
  2
VPORT
  5
8
330
0
100
AcDbSymbolTable
 70
     1
  0
VPORT
  5
29
330
8
100
AcDbSymbolTableRecord
100
AcDbViewportTableRecord
  2
*Active
 70
     0
 10
0.0
 20
0.0
 11
1.0
 21
1.0
 12
148.5
 22
105.0
 13
0.0
 23
0.0
 14
10.0
 24
10.0
 15
10.0
 25
10.0
 16
0.0
 26
0.0
 36
1.0
 17
0.0
 27
0.0
 37
0.0
 40
210.0
 41
1.4142857143
 42
50.0
 43
0.0
 44
0.0
 50
0.0
 51
0.0
 71
     0
 72
  2000
 73
     1
 74
     3
 75
     0
 76
     0
 77
     0
 78
     0
281
     0
 65
     1
110
0.0
120
0.0
130
0.0
111
1.0
121
0.0
131
0.0
112
0.0
122
1.0
132
0.0
 79
     0
146
0.0
  0
ENDTAB
  0
TABLE
  2
LTYPE
  5
5
330
0
100
AcDbSymbolTable
 70
     6
  0
LTYPE
  5
14
330
5
100
AcDbSymbolTableRecord
100
AcDbLinetypeTableRecord
  2
ByBlock
 70
     0
  3

 72
    65
 73
     0
 40
0.0
  0
LTYPE
  5
15
330
5
100
AcDbSymbolTableRecord
100
AcDbLinetypeTableRecord
  2
ByLayer
 70
     0
  3

 72
    65
 73
     0
 40
0.0
  0
LTYPE
  5
16
330
5
100
AcDbSymbolTableRecord
100
AcDbLinetypeTableRecord
  2
Continuous
 70
     0
  3
Solid line
 72
    65
 73
     0
 40
0.0
  0
LTYPE
  5
6E
330
5
100
AcDbSymbolTableRecord
100
AcDbLinetypeTableRecord
  2
HIDDEN
 70
     0
  3
Hidden __ __ __ __ __ __ __ __ __ __ __ __ __ __
 72
    65
 73
     2
 40
1.905
 49
1.27
 74
     0
 49
-0.635
 74
     0
  0
LTYPE
  5
6F
330
5
100
AcDbSymbolTableRecord
100
AcDbLinetypeTableRecord
  2
PHANTOM
 70
     0
  3
Phantom ______  __  __  ______  __  __  ______
 72
    65
 73
     6
 40
12.7
 49
6.35
 74
     0
 49
-1.27
 74
     0
 49
1.27
 74
     0
 49
-1.27
 74
     0
 49
1.27
 74
     0
 49
-1.27
 74
     0
  0
LTYPE
  5
70
330
5
100
AcDbSymbolTableRecord
100
AcDbLinetypeTableRecord
  2
CENTER
 70
     0
  3
Center ____ _ ____ _ ____ _ ____ _ ____ _ ____
 72
    65
 73
     4
 40
10.16
 49
6.35
 74
     0
 49
-1.27
 74
     0
 49
1.27
 74
     0
 49
-1.27
 74
     0
  0
LTYPE
  5
71
330
5
100
AcDbSymbolTableRecord
100
AcDbLinetypeTableRecord
  2
CENTERX2
 70
     0
  3
Center (2x) ________  __  ________  __  _____
 72
    65
 73
     4
 40
20.32
 49
12.7
 74
     0
 49
-2.54
 74
     0
 49
2.54
 74
     0
 49
-2.54
 74
     0
  0
LTYPE
  5
72
330
5
100
AcDbSymbolTableRecord
100
AcDbLinetypeTableRecord
  2
DOT2
 70
     0
  3
Dot (.5x) ........................................
 72
    65
 73
     2
 40
0.635
 49
0.0
 74
     0
 49
-0.635
 74
     0
  0
ENDTAB
  0
TABLE
  2
LAYER
  5
2
330
0
100
AcDbSymbolTable
 70
     5
  0
LAYER
  5
10
330
2
100
AcDbSymbolTableRecord
100
AcDbLayerTableRecord
  2
0
 70
     0
 62
     7
  6
Continuous
370
    -3
390
F
  0
LAYER
  5
73
330
2
100
AcDbSymbolTableRecord
100
AcDbLayerTableRecord
  2
FORMAT
 70
     0
 62
     7
  6
Continuous
370
    -3
390
F
  0
LAYER
  5
74
330
2
100
AcDbSymbolTableRecord
100
AcDbLayerTableRecord
  2
VERMASSUNG
 70
     0
 62
     7
  6
Continuous
370
    -3
390
F
  0
LAYER
  5
75
330
2
100
AcDbSymbolTableRecord
100
AcDbLayerTableRecord
  2
KOPF_DÜNN
 70
     0
 62
     7
  6
Continuous
370
    -3
390
F
  0
LAYER
  5
76
330
2
100
AcDbSymbolTableRecord
100
AcDbLayerTableRecord
  2
KOPF_DICK
 70
     0
 62
     7
  6
Continuous
370
    25
390
F
  0
ENDTAB
  0
TABLE
  2
STYLE
  5
3
330
0
100
AcDbSymbolTable
 70
     2
  0
STYLE
  5
11
330
3
100
AcDbSymbolTableRecord
100
AcDbTextStyleTableRecord
  2
Standard
 70
     0
 40
0.0
 41
1.0
 50
0.0
 71
     0
 42
2.0
  3
txt
  4

  0
STYLE
  5
77
330
3
100
AcDbSymbolTableRecord
100
AcDbTextStyleTableRecord
  2
SLDTEXTSTYLE0
 70
     0
 40
0.0
 41
0.7
 50
0.0
 71
     0
 42
2.0
  3
TXT
  4

  0
ENDTAB
  0
TABLE
  2
VIEW
  5
6
330
0
100
AcDbSymbolTable
 70
     0
  0
ENDTAB
  0
TABLE
  2
UCS
  5
7
330
0
100
AcDbSymbolTable
 70
     0
  0
ENDTAB
  0
TABLE
  2
APPID
  5
9
330
0
100
AcDbSymbolTable
 70
     1
  0
APPID
  5
12
330
9
100
AcDbSymbolTableRecord
100
AcDbRegAppTableRecord
  2
ACAD
 70
     0
  0
ENDTAB
  0
TABLE
  2
DIMSTYLE
  5
A
330
0
100
AcDbSymbolTable
 70
     4
100
AcDbDimStyleTable
  0
DIMSTYLE
105
27
330
A
100
AcDbSymbolTableRecord
100
AcDbDimStyleTableRecord
  2
ISO-25
 70
     0
 41
2.5
 42
0.625
 43
3.75
 44
1.25
 73
     0
 74
     0
 77
     1
 78
     8
140
2.5
141
2.5
143
0.0393700787
147
0.625
171
     3
172
     1
178
     0
271
     2
272
     2
274
     3
278
    44
283
     0
284
     8
340
11
  0
DIMSTYLE
105
205
102
{ACAD_REACTORS
330
204
330
21A
330
225
330
22F
330
239
330
243
330
258
102
}
330
A
100
AcDbSymbolTableRecord
100
AcDbDimStyleTableRecord
  2
SLDDIMSTYLE0
 70
     0
 41
3.0
 44
0.0
 45
0.000000001
 73
     0
 74
     0
 77
     1
 78
    12
 79
     3
140
2.0
147
0.5
173
     1
178
     0
271
     2
272
     3
276
     2
284
    12
340
77
  0
DIMSTYLE
105
211
102
{ACAD_REACTORS
330
210
102
}
330
A
100
AcDbSymbolTableRecord
100
AcDbDimStyleTableRecord
  2
SLDDIMSTYLE1
 70
     0
 41
3.0
 44
0.0
 45
0.000000001
 73
     0
 74
     0
 76
     1
 77
     1
 78
    12
 79
     3
140
2.0
147
0.5
173
     1
178
     0
271
     2
272
     3
276
     2
282
     1
284
    12
340
77
  0
DIMSTYLE
105
24E
102
{ACAD_REACTORS
330
24D
330
262
102
}
330
A
100
AcDbSymbolTableRecord
100
AcDbDimStyleTableRecord
  2
SLDDIMSTYLE2
 70
     0
 41
3.0
 44
0.0
 45
0.000000001
 73
     0
 74
     0
 77
     1
 78
    12
 79
     3
140
2.0
147
0.5
173
     1
178
     0
271
     1
272
     3
276
     2
284
    12
340
77
  0
ENDTAB
  0
TABLE
  2
BLOCK_RECORD
  5
1
330
0
100
AcDbSymbolTable
 70
    11
  0
BLOCK_RECORD
  5
1F
330
1
100
AcDbSymbolTableRecord
100
AcDbBlockTableRecord
  2
*Model_Space
340
22
  0
BLOCK_RECORD
  5
1B
330
1
100
AcDbSymbolTableRecord
100
AcDbBlockTableRecord
  2
*Paper_Space
340
1E
  0
BLOCK_RECORD
  5
23
330
1
100
AcDbSymbolTableRecord
100
AcDbBlockTableRecord
  2
*Paper_Space0
340
26
  0
BLOCK_RECORD
  5
206
330
1
100
AcDbSymbolTableRecord
100
AcDbBlockTableRecord
  2
_D
340
0
  0
BLOCK_RECORD
  5
212
330
1
100
AcDbSymbolTableRecord
100
AcDbBlockTableRecord
  2
_D_1
340
0
  0
BLOCK_RECORD
  5
21B
330
1
100
AcDbSymbolTableRecord
100
AcDbBlockTableRecord
  2
_D_2
340
0
  0
BLOCK_RECORD
  5
226
330
1
100
AcDbSymbolTableRecord
100
AcDbBlockTableRecord
  2
_D_3
340
0
  0
BLOCK_RECORD
  5
230
330
1
100
AcDbSymbolTableRecord
100
AcDbBlockTableRecord
  2
_D_4
340
0
  0
BLOCK_RECORD
  5
23A
330
1
100
AcDbSymbolTableRecord
100
AcDbBlockTableRecord
  2
_D_5
340
0
  0
BLOCK_RECORD
  5
244
330
1
100
AcDbSymbolTableRecord
100
AcDbBlockTableRecord
  2
_D_6
340
0
  0
BLOCK_RECORD
  5
24F
330
1
100
AcDbSymbolTableRecord
100
AcDbBlockTableRecord
  2
_D_7
340
0
  0
BLOCK_RECORD
  5
259
330
1
100
AcDbSymbolTableRecord
100
AcDbBlockTableRecord
  2
_D_8
340
0
  0
BLOCK_RECORD
  5
263
330
1
100
AcDbSymbolTableRecord
100
AcDbBlockTableRecord
  2
_D_9
340
0
  0
ENDTAB
  0
ENDSEC
  0
SECTION
  2
BLOCKS
  0
BLOCK
  5
20
330
1F
100
AcDbEntity
  8
0
100
AcDbBlockBegin
  2
*Model_Space
 70
     0
 10
0.0
 20
0.0
 30
0.0
  3
*Model_Space
  1

  0
ENDBLK
  5
21
330
1F
100
AcDbEntity
  8
0
100
AcDbBlockEnd
  0
BLOCK
  5
1C
330
1B
100
AcDbEntity
 67
     1
  8
0
100
AcDbBlockBegin
  2
*Paper_Space
 70
     0
 10
0.0
 20
0.0
 30
0.0
  3
*Paper_Space
  1

  0
ENDBLK
  5
1D
330
1B
100
AcDbEntity
 67
     1
  8
0
100
AcDbBlockEnd
  0
BLOCK
  5
24
330
23
100
AcDbEntity
  8
0
100
AcDbBlockBegin
  2
*Paper_Space0
 70
     0
 10
0.0
 20
0.0
 30
0.0
  3
*Paper_Space0
  1

  0
ENDBLK
  5
25
330
23
100
AcDbEntity
  8
0
100
AcDbBlockEnd
  0
BLOCK
  5
207
330
206
100
AcDbEntity
  8
0
100
AcDbBlockBegin
  2
_D
 70
     0
 10
0.0
 20
0.0
 30
0.0
  3
_D
  1

  0
SOLID
  5
209
330
206
100
AcDbEntity
  8
VERMASSUNG
100
AcDbTrace
 10
245.1364101705
 20
92.4852015207
 30
0.0
 11
245.5864101705
 21
95.4852015207
 31
0.0
 12
244.6864101705
 22
95.4852015207
 32
0.0
 13
244.6864101705
 23
95.4852015207
 33
0.0
  0
SOLID
  5
20A
330
206
100
AcDbEntity
  8
VERMASSUNG
100
AcDbTrace
 10
245.1364101705
 20
136.4852015207
 30
0.0
 11
244.6864101705
 21
133.4852015207
 31
0.0
 12
245.5864101705
 22
133.4852015207
 32
0.0
 13
245.5864101705
 23
133.4852015207
 33
0.0
  0
LINE
  5
20B
330
206
100
AcDbEntity
  8
VERMASSUNG
100
AcDbLine
 10
211.1364101705
 20
92.4852015207
 30
0.0
 11
246.1364101705
 21
92.4852015207
 31
0.0
  0
LINE
  5
20C
330
206
100
AcDbEntity
  8
VERMASSUNG
100
AcDbLine
 10
211.1364101705
 20
136.4852015207
 30
0.0
 11
246.1364101705
 21
136.4852015207
 31
0.0
  0
LINE
  5
20D
330
206
100
AcDbEntity
  8
VERMASSUNG
100
AcDbLine
 10
245.1364101705
 20
92.4852015207
 30
0.0
 11
245.1364101705
 21
136.4852015207
 31
0.0
  0
MTEXT
  5
20E
330
206
100
AcDbEntity
  8
VERMASSUNG
100
AcDbMText
 10
242.5582748656
 20
111.0802014376
 30
0.0
 40
2.0
 41
0.0
 71
     1
 72
     1
  1
%%c
  7
SLDTEXTSTYLE0
 11
7.273661547324616E-16
 21
1.0
 31
0.0
 73
     1
 44
1.0
  0
MTEXT
  5
20F
330
206
100
AcDbEntity
  8
VERMASSUNG
100
AcDbMText
 10
242.3582749143
 20
114.6902014519
 30
0.0
 40
2.0
 41
0.0
 71
     1
 72
     1
  1
44
  7
SLDTEXTSTYLE0
 11
7.273661547324616E-16
 21
1.0
 31
0.0
 73
     1
 44
1.0
  0
ENDBLK
  5
208
330
206
100
AcDbEntity
  8
0
100
AcDbBlockEnd
  0
BLOCK
  5
213
330
212
100
AcDbEntity
  8
0
100
AcDbBlockBegin
  2
_D_1
 70
     0
 10
0.0
 20
0.0
 30
0.0
  3
_D_1
  1

  0
SOLID
  5
215
330
212
100
AcDbEntity
  8
VERMASSUNG
100
AcDbTrace
 10
233.1364101705
 20
130.4852015207
 30
0.0
 11
232.6864101705
 21
127.4852015207
 31
0.0
 12
233.5864101705
 22
127.4852015207
 32
0.0
 13
233.5864101705
 23
127.4852015207
 33
0.0
  0
LINE
  5
216
330
212
100
AcDbEntity
  8
VERMASSUNG
100
AcDbLine
 10
207.6364101705
 20
130.4852015207
 30
0.0
 11
234.1364101705
 21
130.4852015207
 31
0.0
  0
LINE
  5
217
330
212
100
AcDbEntity
  8
VERMASSUNG
100
AcDbLine
 10
233.1364101705
 20
130.4852015207
 30
0.0
 11
233.1364101705
 21
111.2802015635
 31
0.0
  0
MTEXT
  5
218
330
212
100
AcDbEntity
  8
VERMASSUNG
100
AcDbMText
 10
230.5582748656
 20
111.2802015635
 30
0.0
 40
2.0
 41
0.0
 71
     1
 72
     1
  1
%%c
  7
SLDTEXTSTYLE0
 11
-5.267838178243384E-15
 21
1.0
 31
0.0
 73
     1
 44
1.0
  0
MTEXT
  5
219
330
212
100
AcDbEntity
  8
VERMASSUNG
100
AcDbMText
 10
230.3582749143
 20
114.8902015778
 30
0.0
 40
2.0
 41
0.0
 71
     1
 72
     1
  1
32
  7
SLDTEXTSTYLE0
 11
-5.267838178243384E-15
 21
1.0
 31
0.0
 73
     1
 44
1.0
  0
ENDBLK
  5
214
330
212
100
AcDbEntity
  8
0
100
AcDbBlockEnd
  0
BLOCK
  5
21C
330
21B
100
AcDbEntity
  8
0
100
AcDbBlockBegin
  2
_D_2
 70
     0
 10
0.0
 20
0.0
 30
0.0
  3
_D_2
  1

  0
SOLID
  5
21E
330
21B
100
AcDbEntity
  8
VERMASSUNG
100
AcDbTrace
 10
257.1364101705
 20
140.9852015207
 30
0.0
 11
256.6864101705
 21
137.9852015207
 31
0.0
 12
257.5864101705
 22
137.9852015207
 32
0.0
 13
257.5864101705
 23
137.9852015207
 33
0.0
  0
SOLID
  5
21F
330
21B
100
AcDbEntity
  8
VERMASSUNG
100
AcDbTrace
 10
257.1364101705
 20
87.9852015207
 30
0.0
 11
257.5864101705
 21
90.9852015207
 31
0.0
 12
256.6864101705
 22
90.9852015207
 32
0.0
 13
256.6864101705
 23
90.9852015207
 33
0.0
  0
LINE
  5
220
330
21B
100
AcDbEntity
  8
VERMASSUNG
100
AcDbLine
 10
153.9584888577
 20
140.9852015207
 30
0.0
 11
258.1364101705
 21
140.9852015207
 31
0.0
  0
LINE
  5
221
330
21B
100
AcDbEntity
  8
VERMASSUNG
100
AcDbLine
 10
153.9584888577
 20
87.9852015207
 30
0.0
 11
258.1364101705
 21
87.9852015207
 31
0.0
  0
LINE
  5
222
330
21B
100
AcDbEntity
  8
VERMASSUNG
100
AcDbLine
 10
257.1364101705
 20
140.9852015207
 30
0.0
 11
257.1364101705
 21
87.9852015207
 31
0.0
  0
MTEXT
  5
223
330
21B
100
AcDbEntity
  8
VERMASSUNG
100
AcDbMText
 10
254.5582748656
 20
111.2802015635
 30
0.0
 40
2.0
 41
0.0
 71
     1
 72
     1
  1
%%c
  7
SLDTEXTSTYLE0
 11
-5.267838178243384E-15
 21
1.0
 31
0.0
 73
     1
 44
1.0
  0
MTEXT
  5
224
330
21B
100
AcDbEntity
  8
VERMASSUNG
100
AcDbMText
 10
254.3582749143
 20
114.8902015778
 30
0.0
 40
2.0
 41
0.0
 71
     1
 72
     1
  1
53
  7
SLDTEXTSTYLE0
 11
-5.267838178243384E-15
 21
1.0
 31
0.0
 73
     1
 44
1.0
  0
ENDBLK
  5
21D
330
21B
100
AcDbEntity
  8
0
100
AcDbBlockEnd
  0
BLOCK
  5
227
330
226
100
AcDbEntity
  8
0
100
AcDbBlockBegin
  2
_D_3
 70
     0
 10
0.0
 20
0.0
 30
0.0
  3
_D_3
  1

  0
SOLID
  5
229
330
226
100
AcDbEntity
  8
VERMASSUNG
100
AcDbTrace
 10
131.1364101705
 20
166.0723139143
 30
0.0
 11
134.1364101705
 21
165.6223139143
 31
0.0
 12
134.1364101705
 22
166.5223139143
 32
0.0
 13
134.1364101705
 23
166.5223139143
 33
0.0
  0
SOLID
  5
22A
330
226
100
AcDbEntity
  8
VERMASSUNG
100
AcDbTrace
 10
211.1364101705
 20
166.0723139143
 30
0.0
 11
208.1364101705
 21
166.5223139143
 31
0.0
 12
208.1364101705
 22
165.6223139143
 32
0.0
 13
208.1364101705
 23
165.6223139143
 33
0.0
  0
LINE
  5
22B
330
226
100
AcDbEntity
  8
VERMASSUNG
100
AcDbLine
 10
131.1364101705
 20
145.7602015207
 30
0.0
 11
131.1364101705
 21
167.0723139143
 31
0.0
  0
LINE
  5
22C
330
226
100
AcDbEntity
  8
VERMASSUNG
100
AcDbLine
 10
211.1364101705
 20
134.1742252916
 30
0.0
 11
211.1364101705
 21
167.0723139143
 31
0.0
  0
LINE
  5
22D
330
226
100
AcDbEntity
  8
VERMASSUNG
100
AcDbLine
 10
131.1364101705
 20
166.0723139143
 30
0.0
 11
211.1364101705
 21
166.0723139143
 31
0.0
  0
MTEXT
  5
22E
330
226
100
AcDbEntity
  8
VERMASSUNG
100
AcDbMText
 10
169.7364102204
 20
168.6504495103
 30
0.0
 40
2.0
 41
0.0
 71
     1
 72
     1
  1
80
  7
SLDTEXTSTYLE0
 73
     1
 44
1.0
  0
ENDBLK
  5
228
330
226
100
AcDbEntity
  8
0
100
AcDbBlockEnd
  0
BLOCK
  5
231
330
230
100
AcDbEntity
  8
0
100
AcDbBlockBegin
  2
_D_4
 70
     0
 10
0.0
 20
0.0
 30
0.0
  3
_D_4
  1

  0
SOLID
  5
233
330
230
100
AcDbEntity
  8
VERMASSUNG
100
AcDbTrace
 10
149.6364101705
 20
158.2659865125
 30
0.0
 11
152.6364101705
 21
157.8159865125
 31
0.0
 12
152.6364101705
 22
158.7159865125
 32
0.0
 13
152.6364101705
 23
158.7159865125
 33
0.0
  0
SOLID
  5
234
330
230
100
AcDbEntity
  8
VERMASSUNG
100
AcDbTrace
 10
211.1364101705
 20
158.2659865125
 30
0.0
 11
208.1364101705
 21
158.7159865125
 31
0.0
 12
208.1364101705
 22
157.8159865125
 32
0.0
 13
208.1364101705
 23
157.8159865125
 33
0.0
  0
LINE
  5
235
330
230
100
AcDbEntity
  8
VERMASSUNG
100
AcDbLine
 10
149.6364101705
 20
130.3852015207
 30
0.0
 11
149.6364101705
 21
159.2659865125
 31
0.0
  0
LINE
  5
236
330
230
100
AcDbEntity
  8
VERMASSUNG
100
AcDbLine
 10
211.1364101705
 20
134.1742252916
 30
0.0
 11
211.1364101705
 21
159.2659865125
 31
0.0
  0
LINE
  5
237
330
230
100
AcDbEntity
  8
VERMASSUNG
100
AcDbLine
 10
149.6364101705
 20
158.2659865125
 30
0.0
 11
211.1364101705
 21
158.2659865125
 31
0.0
  0
MTEXT
  5
238
330
230
100
AcDbEntity
  8
VERMASSUNG
100
AcDbMText
 10
178.1864101824
 20
160.8441221085
 30
0.0
 40
2.0
 41
0.0
 71
     1
 72
     1
  1
61.5
  7
SLDTEXTSTYLE0
 73
     1
 44
1.0
  0
ENDBLK
  5
232
330
230
100
AcDbEntity
  8
0
100
AcDbBlockEnd
  0
BLOCK
  5
23B
330
23A
100
AcDbEntity
  8
0
100
AcDbBlockBegin
  2
_D_5
 70
     0
 10
0.0
 20
0.0
 30
0.0
  3
_D_5
  1

  0
SOLID
  5
23D
330
23A
100
AcDbEntity
  8
VERMASSUNG
100
AcDbTrace
 10
160.1364101705
 20
150.3777198681
 30
0.0
 11
163.1364101705
 21
149.9277198681
 31
0.0
 12
163.1364101705
 22
150.8277198681
 32
0.0
 13
163.1364101705
 23
150.8277198681
 33
0.0
  0
SOLID
  5
23E
330
23A
100
AcDbEntity
  8
VERMASSUNG
100
AcDbTrace
 10
211.1364101705
 20
150.3777198681
 30
0.0
 11
208.1364101705
 21
150.8277198681
 31
0.0
 12
208.1364101705
 22
149.9277198681
 32
0.0
 13
208.1364101705
 23
149.9277198681
 33
0.0
  0
LINE
  5
23F
330
23A
100
AcDbEntity
  8
VERMASSUNG
100
AcDbLine
 10
160.1364101705
 20
130.4852015207
 30
0.0
 11
160.1364101705
 21
151.3777198681
 31
0.0
  0
LINE
  5
240
330
23A
100
AcDbEntity
  8
VERMASSUNG
100
AcDbLine
 10
211.1364101705
 20
134.1742252916
 30
0.0
 11
211.1364101705
 21
151.3777198681
 31
0.0
  0
LINE
  5
241
330
23A
100
AcDbEntity
  8
VERMASSUNG
100
AcDbLine
 10
160.1364101705
 20
150.3777198681
 30
0.0
 11
211.1364101705
 21
150.3777198681
 31
0.0
  0
MTEXT
  5
242
330
23A
100
AcDbEntity
  8
VERMASSUNG
100
AcDbMText
 10
184.4364101135
 20
152.955855464
 30
0.0
 40
2.0
 41
0.0
 71
     1
 72
     1
  1
51
  7
SLDTEXTSTYLE0
 73
     1
 44
1.0
  0
ENDBLK
  5
23C
330
23A
100
AcDbEntity
  8
0
100
AcDbBlockEnd
  0
BLOCK
  5
245
330
244
100
AcDbEntity
  8
0
100
AcDbBlockBegin
  2
_D_6
 70
     0
 10
0.0
 20
0.0
 30
0.0
  3
_D_6
  1

  0
SOLID
  5
247
330
244
100
AcDbEntity
  8
VERMASSUNG
100
AcDbTrace
 10
149.1364101705
 20
71.0553272335
 30
0.0
 11
152.1364101705
 21
70.6053272335
 31
0.0
 12
152.1364101705
 22
71.5053272335
 32
0.0
 13
152.1364101705
 23
71.5053272335
 33
0.0
  0
SOLID
  5
248
330
244
100
AcDbEntity
  8
VERMASSUNG
100
AcDbTrace
 10
211.1364101705
 20
71.0553272335
 30
0.0
 11
208.1364101705
 21
71.5053272335
 31
0.0
 12
208.1364101705
 22
70.6053272335
 32
0.0
 13
208.1364101705
 23
70.6053272335
 33
0.0
  0
LINE
  5
249
330
244
100
AcDbEntity
  8
VERMASSUNG
100
AcDbLine
 10
149.1364101705
 20
83.0102015207
 30
0.0
 11
149.1364101705
 21
70.0553272335
 31
0.0
  0
LINE
  5
24A
330
244
100
AcDbEntity
  8
VERMASSUNG
100
AcDbLine
 10
211.1364101705
 20
94.7961777499
 30
0.0
 11
211.1364101705
 21
70.0553272335
 31
0.0
  0
LINE
  5
24B
330
244
100
AcDbEntity
  8
VERMASSUNG
100
AcDbLine
 10
149.1364101705
 20
71.0553272335
 30
0.0
 11
211.1364101705
 21
71.0553272335
 31
0.0
  0
MTEXT
  5
24C
330
244
100
AcDbEntity
  8
VERMASSUNG
100
AcDbMText
 10
178.7364102204
 20
73.6334628294
 30
0.0
 40
2.0
 41
0.0
 71
     1
 72
     1
  1
62
  7
SLDTEXTSTYLE0
 73
     1
 44
1.0
  0
ENDBLK
  5
246
330
244
100
AcDbEntity
  8
0
100
AcDbBlockEnd
  0
BLOCK
  5
250
330
24F
100
AcDbEntity
  8
0
100
AcDbBlockBegin
  2
_D_7
 70
     0
 10
0.0
 20
0.0
 30
0.0
  3
_D_7
  1

  0
SOLID
  5
252
330
24F
100
AcDbEntity
  8
VERMASSUNG
100
AcDbTrace
 10
153.9584888577
 20
78.5105074259
 30
0.0
 11
156.9584888577
 21
78.0605074259
 31
0.0
 12
156.9584888577
 22
78.9605074259
 32
0.0
 13
156.9584888577
 23
78.9605074259
 33
0.0
  0
SOLID
  5
253
330
24F
100
AcDbEntity
  8
VERMASSUNG
100
AcDbTrace
 10
211.1364101705
 20
78.5105074259
 30
0.0
 11
208.1364101705
 21
78.9605074259
 31
0.0
 12
208.1364101705
 22
78.0605074259
 32
0.0
 13
208.1364101705
 23
78.0605074259
 33
0.0
  0
LINE
  5
254
330
24F
100
AcDbEntity
  8
VERMASSUNG
100
AcDbLine
 10
153.9584888577
 20
87.9852015207
 30
0.0
 11
153.9584888577
 21
77.5105074259
 31
0.0
  0
LINE
  5
255
330
24F
100
AcDbEntity
  8
VERMASSUNG
100
AcDbLine
 10
211.1364101705
 20
94.7961777499
 30
0.0
 11
211.1364101705
 21
77.5105074259
 31
0.0
  0
LINE
  5
256
330
24F
100
AcDbEntity
  8
VERMASSUNG
100
AcDbLine
 10
153.9584888577
 20
78.5105074259
 30
0.0
 11
211.1364101705
 21
78.5105074259
 31
0.0
  0
MTEXT
  5
257
330
24F
100
AcDbEntity
  8
VERMASSUNG
100
AcDbMText
 10
180.1474496329
 20
81.0886430218
 30
0.0
 40
2.0
 41
0.0
 71
     1
 72
     1
  1
57.2
  7
SLDTEXTSTYLE0
 73
     1
 44
1.0
  0
ENDBLK
  5
251
330
24F
100
AcDbEntity
  8
0
100
AcDbBlockEnd
  0
BLOCK
  5
25A
330
259
100
AcDbEntity
  8
0
100
AcDbBlockBegin
  2
_D_8
 70
     0
 10
0.0
 20
0.0
 30
0.0
  3
_D_8
  1

  0
SOLID
  5
25C
330
259
100
AcDbEntity
  8
VERMASSUNG
100
AcDbTrace
 10
91.1864101705
 20
173.9602015207
 30
0.0
 11
94.1864101705
 21
173.5102015207
 31
0.0
 12
94.1864101705
 22
174.4102015207
 32
0.0
 13
94.1864101705
 23
174.4102015207
 33
0.0
  0
SOLID
  5
25D
330
259
100
AcDbEntity
  8
VERMASSUNG
100
AcDbTrace
 10
211.1364101705
 20
173.9602015207
 30
0.0
 11
208.1364101705
 21
174.4102015207
 31
0.0
 12
208.1364101705
 22
173.5102015207
 32
0.0
 13
208.1364101705
 23
173.5102015207
 33
0.0
  0
LINE
  5
25E
330
259
100
AcDbEntity
  8
VERMASSUNG
100
AcDbLine
 10
91.1864101705
 20
136.6882962445
 30
0.0
 11
91.1864101705
 21
174.9602015207
 31
0.0
  0
LINE
  5
25F
330
259
100
AcDbEntity
  8
VERMASSUNG
100
AcDbLine
 10
211.1364101705
 20
134.1742252916
 30
0.0
 11
211.1364101705
 21
174.9602015207
 31
0.0
  0
LINE
  5
260
330
259
100
AcDbEntity
  8
VERMASSUNG
100
AcDbLine
 10
91.1864101705
 20
173.9602015207
 30
0.0
 11
211.1364101705
 21
173.9602015207
 31
0.0
  0
MTEXT
  5
261
330
259
100
AcDbEntity
  8
VERMASSUNG
100
AcDbMText
 10
147.7614101254
 20
176.5383371167
 30
0.0
 40
2.0
 41
0.0
 71
     1
 72
     1
  1
119.95
  7
SLDTEXTSTYLE0
 73
     1
 44
1.0
  0
ENDBLK
  5
25B
330
259
100
AcDbEntity
  8
0
100
AcDbBlockEnd
  0
BLOCK
  5
264
330
263
100
AcDbEntity
  8
0
100
AcDbBlockBegin
  2
_D_9
 70
     0
 10
0.0
 20
0.0
 30
0.0
  3
_D_9
  1

  0
SOLID
  5
266
330
263
100
AcDbEntity
  8
VERMASSUNG
100
AcDbTrace
 10
72.5911506008
 20
145.9602015207
 30
0.0
 11
72.1411506008
 21
142.9602015207
 31
0.0
 12
73.0411506008
 22
142.9602015207
 32
0.0
 13
73.0411506008
 23
142.9602015207
 33
0.0
  0
SOLID
  5
267
330
263
100
AcDbEntity
  8
VERMASSUNG
100
AcDbTrace
 10
72.5911506008
 20
83.0102015207
 30
0.0
 11
73.0411506008
 21
86.0102015207
 31
0.0
 12
72.1411506008
 22
86.0102015207
 32
0.0
 13
72.1411506008
 23
86.0102015207
 33
0.0
  0
LINE
  5
268
330
263
100
AcDbEntity
  8
VERMASSUNG
100
AcDbLine
 10
131.3364101705
 20
145.9602015207
 30
0.0
 11
71.5911506008
 21
145.9602015207
 31
0.0
  0
LINE
  5
269
330
263
100
AcDbEntity
  8
VERMASSUNG
100
AcDbLine
 10
131.3364101705
 20
83.0102015207
 30
0.0
 11
71.5911506008
 21
83.0102015207
 31
0.0
  0
LINE
  5
26A
330
263
100
AcDbEntity
  8
VERMASSUNG
100
AcDbLine
 10
72.5911506008
 20
145.9602015207
 30
0.0
 11
72.5911506008
 21
83.0102015207
 31
0.0
  0
MTEXT
  5
26B
330
263
100
AcDbEntity
  8
VERMASSUNG
100
AcDbMText
 10
69.8130153446
 20
106.3802029023
 30
0.0
 40
2.0
 41
0.0
 71
     1
 72
     1
  1
KM
  7
SLDTEXTSTYLE0
 11
-5.267838178243384E-15
 21
1.0
 31
0.0
 73
     1
 44
1.0
  0
MTEXT
  5
26C
330
263
100
AcDbEntity
  8
VERMASSUNG
100
AcDbMText
 10
70.0130152959
 20
109.7802027146
 30
0.0
 40
2.0
 41
0.0
 71
     1
 72
     1
  1
%%c
  7
SLDTEXTSTYLE0
 11
-5.267838178243384E-15
 21
1.0
 31
0.0
 73
     1
 44
1.0
  0
MTEXT
  5
26D
330
263
100
AcDbEntity
  8
VERMASSUNG
100
AcDbMText
 10
69.8130153446
 20
113.3902027289
 30
0.0
 40
2.0
 41
0.0
 71
     1
 72
     1
  1
63
  7
SLDTEXTSTYLE0
 11
-5.267838178243384E-15
 21
1.0
 31
0.0
 73
     1
 44
1.0
  0
MTEXT
  5
26E
330
263
100
AcDbEntity
  8
VERMASSUNG
100
AcDbMText
 10
69.8130153446
 20
117.3777026291
 30
0.0
 40
2.0
 41
0.0
 71
     1
 72
     1
  1
XMZ
  7
SLDTEXTSTYLE0
 11
-5.267838178243384E-15
 21
1.0
 31
0.0
 73
     1
 44
1.0
  0
ENDBLK
  5
265
330
263
100
AcDbEntity
  8
0
100
AcDbBlockEnd
  0
ENDSEC
  0
SECTION
  2
ENTITIES
  0
MTEXT
  5
78
330
1F
100
AcDbEntity
  8
KOPF_DÜNN
100
AcDbMText
 10
13.8892156294
 20
23.8442973028
 30
0.0
 40
3.0
 41
0.0
 71
     1
 72
     1
  1
KY6.S32.K01.080
  7
SLDTEXTSTYLE0
 73
     1
 44
1.0
  0
MTEXT
  5
79
330
1F
100
AcDbEntity
  8
VERMASSUNG
100
AcDbMText
 10
13.9329988022
 20
28.8834360957
 30
0.0
 40
3.0
 41
0.0
 71
     1
 72
     1
  1
Schrumpffutter_Heat shrink chuck
  7
SLDTEXTSTYLE0
 73
     1
 44
1.0
  0
MTEXT
  5
7A
330
1F
100
AcDbEntity
  8
VERMASSUNG
100
AcDbMText
 10
98.8601118557
 20
13.8365368761
 30
0.0
 40
2.0
 41
0.0
 71
     1
 72
     1
  1
Datum: 16.02.2018
  7
SLDTEXTSTYLE0
 73
     1
 44
1.0
  0
MTEXT
  5
7B
330
1F
100
AcDbEntity
  8
VERMASSUNG
100
AcDbMText
 10
13.933048693
 20
18.0482802738
 30
0.0
 40
2.0
 41
0.0
 71
     1
 72
     1
  1
KM63 XMZ / Ø32
  7
SLDTEXTSTYLE0
 73
     1
 44
1.0
  0
MTEXT
  5
7C
330
1F
100
AcDbEntity
  8
VERMASSUNG
100
AcDbMText
 10
13.9808475933
 20
13.9090974274
 30
0.0
 40
2.0
 41
0.0
 71
     1
 72
     1
  1
Gewicht: 1146g
  7
SLDTEXTSTYLE0
 73
     1
 44
1.0
  0
CIRCLE
  5
7D
330
1F
100
AcDbEntity
  8
0
  6
Continuous
 62
     7
370
    25
100
AcDbCircle
 10
365.0760899349
 20
114.4852015207
 30
0.0
 40
1.849999999999985
  0
SPLINE
  5
7E
330
1F
100
AcDbEntity
  8
0
  6
Continuous
 62
     7
370
    25
100
AcDbSpline
210
0.0
220
0.0
230
1.0
 70
     8
 71
     3
 72
    11
 73
     7
 74
     0
 42
0.000000001
 43
0.00000001
 40
0.0
 40
0.0
 40
0.0
 40
0.0
 40
0.1234466302744478
 40
0.4778176631016618
 40
0.8145811426436077
 40
1.0
 40
1.0
 40
1.0
 40
1.0
 10
363.4192683552479
 20
113.9802835898983
 30
0.0
 10
363.4343875021599
 20
114.045505113666
 30
0.0
 10
363.4929083012252
 20
114.2979542570835
 30
0.0
 10
363.6030648392574
 20
114.77315066171
 30
0.0
 10
363.7233007268609
 20
115.2918290171006
 30
0.0
 10
363.7875821017514
 20
115.5691276738165
 30
0.0
 10
363.810407422026
 20
115.6675921304661
 30
0.0
  0
SPLINE
  5
7F
330
1F
100
AcDbEntity
  8
0
  6
Continuous
 62
     7
370
    25
100
AcDbSpline
210
0.0
220
0.0
230
1.0
 70
     8
 71
     3
 72
    11
 73
     7
 74
     0
 42
0.000000001
 43
0.00000001
 40
0.0
 40
0.0
 40
0.0
 40
0.0
 40
0.2164553660163746
 40
0.440311302668268
 40
0.7519005668910482
 40
1.0
 40
1.0
 40
1.0
 40
1.0
 10
364.6849508681422
 20
112.7978929801422
 30
0.0
 10
364.5982503832281
 20
112.878887847054
 30
0.0
 10
364.4218851391734
 20
113.0436467810353
 30
0.0
 10
364.0945984455204
 20
113.3493955785167
 30
0.0
 10
363.7435246366544
 20
113.6773658980164
 30
0.0
 10
363.5188585776928
 20
113.8872471799754
 30
0.0
 10
363.4192683552479
 20
113.9802835898983
 30
0.0
  0
SPLINE
  5
80
330
1F
100
AcDbEntity
  8
0
  6
Continuous
 62
     7
370
    25
100
AcDbSpline
210
0.0
220
0.0
230
1.0
 70
     8
 71
     3
 72
    11
 73
     7
 74
     0
 42
0.000000001
 43
0.00000001
 40
0.0
 40
0.0
 40
0.0
 40
0.0
 40
0.216455388497055
 40
0.4403112631010125
 40
0.7519005411120354
 40
1.0
 40
1.0
 40
1.0
 40
1.0
 10
366.3417724478145
 20
113.3028109109539
 30
0.0
 10
366.228278577391
 20
113.2682235162674
 30
0.0
 10
365.9974105459347
 20
113.1978662036243
 30
0.0
 10
365.5689809929404
 20
113.0673020203228
 30
0.0
 10
365.1094134711535
 20
112.9272483311674
 30
0.0
 10
364.8153178909267
 20
112.8376224448224
 30
0.0
 10
364.6849508681422
 20
112.7978929801422
 30
0.0
  0
SPLINE
  5
81
330
1F
100
AcDbEntity
  8
0
  6
Continuous
 62
     7
370
    25
100
AcDbSpline
210
0.0
220
0.0
230
1.0
 70
     8
 71
     3
 72
    11
 73
     7
 74
     0
 42
0.000000001
 43
0.00000001
 40
0.0
 40
0.0
 40
0.0
 40
0.0
 40
0.185418872815166
 40
0.5221823666402305
 40
0.8765533851290168
 40
1.0
 40
1.0
 40
1.0
 40
1.0
 10
366.7329115145927
 20
114.9901194515216
 30
0.0
 10
366.7100862486608
 20
114.8916549717041
 30
0.0
 10
366.6458050285104
 20
114.614356257067
 30
0.0
 10
366.52556878546
 20
114.0956779780759
 30
0.0
 10
366.4154126318636
 20
113.6204814882855
 30
0.0
 10
366.3568916428541
 20
113.3680324130324
 30
0.0
 10
366.3417724478145
 20
113.3028109109539
 30
0.0
  0
SPLINE
  5
82
330
1F
100
AcDbEntity
  8
0
  6
Continuous
 62
     7
370
    25
100
AcDbSpline
210
0.0
220
0.0
230
1.0
 70
     8
 71
     3
 72
    11
 73
     7
 74
     0
 42
0.000000001
 43
0.00000001
 40
0.0
 40
0.0
 40
0.0
 40
0.0
 40
0.2164553660163746
 40
0.440311302668268
 40
0.7519005668910482
 40
1.0
 40
1.0
 40
1.0
 40
1.0
 10
365.4672290016984
 20
116.1725100612777
 30
0.0
 10
365.5539294866124
 20
116.0915151943659
 30
0.0
 10
365.7302947306673
 20
115.9267562603847
 30
0.0
 10
366.0575814243201
 20
115.6210074629033
 30
0.0
 10
366.4086552331862
 20
115.2930371434036
 30
0.0
 10
366.6333212921477
 20
115.0831558614446
 30
0.0
 10
366.7329115145927
 20
114.9901194515216
 30
0.0
  0
SPLINE
  5
83
330
1F
100
AcDbEntity
  8
0
  6
Continuous
 62
     7
370
    25
100
AcDbSpline
210
0.0
220
0.0
230
1.0
 70
     8
 71
     3
 72
    11
 73
     7
 74
     0
 42
0.000000001
 43
0.00000001
 40
0.0
 40
0.0
 40
0.0
 40
0.0
 40
0.216455388497055
 40
0.4403112631010125
 40
0.7519005411120354
 40
1.0
 40
1.0
 40
1.0
 40
1.0
 10
363.810407422026
 20
115.6675921304661
 30
0.0
 10
363.9239012924496
 20
115.7021795251526
 30
0.0
 10
364.1547693239058
 20
115.7725368377957
 30
0.0
 10
364.5831988769002
 20
115.9031010210972
 30
0.0
 10
365.0427663986871
 20
116.0431547102526
 30
0.0
 10
365.3368619789138
 20
116.1327805965976
 30
0.0
 10
365.4672290016984
 20
116.1725100612777
 30
0.0
  0
ARC
  5
84
330
1F
100
AcDbEntity
  8
0
  6
Continuous
 62
     7
370
    25
100
AcDbCircle
 10
365.0760899349
 20
114.4852015207
 30
0.0
 40
1.500000000000021
100
AcDbArc
 50
166.9486486418
 51
226.9486486418
  0
ARC
  5
85
330
1F
100
AcDbEntity
  8
0
  6
Continuous
 62
     7
370
    25
100
AcDbCircle
 10
365.0760899349
 20
114.4852015207
 30
0.0
 40
1.500000000000021
100
AcDbArc
 50
106.9486486418
 51
166.9486486418
  0
ARC
  5
86
330
1F
100
AcDbEntity
  8
0
  6
Continuous
 62
     7
370
    25
100
AcDbCircle
 10
365.0760899349
 20
114.4852015207
 30
0.0
 40
1.499999999999985
100
AcDbArc
 50
226.9486486418
 51
286.9486486418
  0
ARC
  5
87
330
1F
100
AcDbEntity
  8
0
  6
Continuous
 62
     7
370
    25
100
AcDbCircle
 10
365.0760899349
 20
114.4852015207
 30
0.0
 40
1.499999999999997
100
AcDbArc
 50
46.9486486418
 51
106.9486486418
  0
ARC
  5
88
330
1F
100
AcDbEntity
  8
0
  6
Continuous
 62
     7
370
    25
100
AcDbCircle
 10
365.0760899349
 20
114.4852015207
 30
0.0
 40
1.500000000000018
100
AcDbArc
 50
286.9486486418
 51
346.9486486418
  0
ARC
  5
89
330
1F
100
AcDbEntity
  8
0
  6
Continuous
 62
     7
370
    25
100
AcDbCircle
 10
365.0760899349
 20
114.4852015207
 30
0.0
 40
1.500000000000018
100
AcDbArc
 50
346.9486486418
 51
46.9486486418
  0
SPLINE
  5
8A
330
1F
100
AcDbEntity
  8
0
  6
Continuous
 62
     7
370
    25
100
AcDbSpline
210
0.0
220
0.0
230
1.0
 70
     8
 71
     3
 72
     8
 73
     4
 74
     0
 42
0.000000001
 43
0.00000001
 40
0.0
 40
0.0
 40
0.0
 40
0.0
 40
1.0
 40
1.0
 40
1.0
 40
1.0
 10
354.6869498252874
 20
110.1152006487451
 30
0.0
 10
354.6181114551006
 20
110.0521059754263
 30
0.0
 10
354.5496800946445
 20
109.9883835972954
 30
0.0
 10
354.4816638199798
 20
109.924038165022
 30
0.0
  0
SPLINE
  5
8B
330
1F
100
AcDbEntity
  8
0
  6
Continuous
 62
     7
370
    25
100
AcDbSpline
210
0.0
220
0.0
230
1.0
 70
     8
 71
     3
 72
     8
 73
     4
 74
     0
 42
0.000000001
 43
0.00000001
 40
0.0
 40
0.0
 40
0.0
 40
0.0
 40
1.0
 40
1.0
 40
1.0
 40
1.0
 10
354.9449770665481
 20
109.9459388188178
 30
0.0
 10
354.8582736323877
 20
110.002099738487
 30
0.0
 10
354.7722755849038
 20
110.0585244748129
 30
0.0
 10
354.6869498252874
 20
110.1152006487451
 30
0.0
  0
ARC
  5
8C
330
1F
100
AcDbEntity
  8
0
  6
Continuous
 62
     7
370
    25
100
AcDbCircle
 10
365.0760899349
 20
114.4852015207
 30
0.0
 40
11.10154736189896
100
AcDbArc
 50
204.1348482805
 51
335.8651517195
  0
SPLINE
  5
8D
330
1F
100
AcDbEntity
  8
0
  6
Continuous
 62
     7
370
    25
100
AcDbSpline
210
0.0
220
0.0
230
1.0
 70
     8
 71
     3
 72
     8
 73
     4
 74
     0
 42
0.000000001
 43
0.00000001
 40
0.0
 40
0.0
 40
0.0
 40
0.0
 40
1.0
 40
1.0
 40
1.0
 40
1.0
 10
375.4652300445532
 20
110.1152006487451
 30
0.0
 10
375.3799042849367
 20
110.0585244748129
 30
0.0
 10
375.2939062374529
 20
110.002099738487
 30
0.0
 10
375.2072028032924
 20
109.9459388188178
 30
0.0
  0
SPLINE
  5
8E
330
1F
100
AcDbEntity
  8
0
  6
Continuous
 62
     7
370
    25
100
AcDbSpline
210
0.0
220
0.0
230
1.0
 70
     8
 71
     3
 72
     8
 73
     4
 74
     0
 42
0.000000001
 43
0.00000001
 40
0.0
 40
0.0
 40
0.0
 40
0.0
 40
1.0
 40
1.0
 40
1.0
 40
1.0
 10
375.6705160498607
 20
109.924038165022
 30
0.0
 10
375.6024997751961
 20
109.9883835972954
 30
0.0
 10
375.5340684147399
 20
110.0521059754263
 30
0.0
 10
375.4652300445532
 20
110.1152006487451
 30
0.0
  0
ARC
  5
8F
330
1F
100
AcDbEntity
  8
0
  6
Continuous
 62
     7
370
    25
100
AcDbCircle
 10
365.0760899349
 20
114.4852015207
 30
0.0
 40
11.53456006379121
100
AcDbArc
 50
203.2930774359
 51
336.7074733161
  0
ARC
  5
90
330
1F
100
AcDbEntity
  8
0
  6
Continuous
 62
     7
370
    25
100
AcDbCircle
 10
365.0760899349
 20
114.4852015207
 30
0.0
 40
11.101547361899
100
AcDbArc
 50
29.4783538465
 51
150.5216461535
  0
SPLINE
  5
91
330
1F
100
AcDbEntity
  8
0
  6
Continuous
 62
     7
370
    25
100
AcDbSpline
210
0.0
220
0.0
230
1.0
 70
     8
 71
     3
 72
     8
 73
     4
 74
     0
 42
0.000000001
 43
0.00000001
 40
0.0
 40
0.0
 40
0.0
 40
0.0
 40
1.0
 40
1.0
 40
1.0
 40
1.0
 10
355.1001568855959
 20
119.7635007700992
 30
0.0
 10
355.2030527994198
 20
119.8254693791901
 30
0.0
 10
355.3068924689746
 20
119.8870480313307
 30
0.0
 10
355.4117303572012
 20
119.9482142226022
 30
0.0
  0
SPLINE
  5
92
330
1F
100
AcDbEntity
  8
0
  6
Continuous
 62
     7
370
    25
100
AcDbSpline
210
0.0
220
0.0
230
1.0
 70
     8
 71
     3
 72
     8
 73
     4
 74
     0
 42
0.000000001
 43
0.00000001
 40
0.0
 40
0.0
 40
0.0
 40
0.0
 40
1.0
 40
1.0
 40
1.0
 40
1.0
 10
354.911620504482
 20
119.9376905909688
 30
0.0
 10
354.9741888128516
 20
119.8792401218612
 30
0.0
 10
355.0370354062154
 20
119.8211761113281
 30
0.0
 10
355.1001568855983
 20
119.7635007700969
 30
0.0
  0
ARC
  5
93
330
1F
100
AcDbEntity
  8
0
  6
Continuous
 62
     7
370
    25
100
AcDbCircle
 10
365.0760899349
 20
114.4852015207
 30
0.0
 40
11.53456006379119
100
AcDbArc
 50
28.2102805322
 51
151.7902347364
  0
SPLINE
  5
94
330
1F
100
AcDbEntity
  8
0
  6
Continuous
 62
     7
370
    25
100
AcDbSpline
210
0.0
220
0.0
230
1.0
 70
     8
 71
     3
 72
     8
 73
     4
 74
     0
 42
0.000000001
 43
0.00000001
 40
0.0
 40
0.0
 40
0.0
 40
0.0
 40
1.0
 40
1.0
 40
1.0
 40
1.0
 10
375.0520229842426
 20
119.7635007700973
 30
0.0
 10
375.1151444636254
 20
119.8211761113284
 30
0.0
 10
375.1779910569891
 20
119.8792401218613
 30
0.0
 10
375.2405593653586
 20
119.9376905909688
 30
0.0
  0
SPLINE
  5
95
330
1F
100
AcDbEntity
  8
0
  6
Continuous
 62
     7
370
    25
100
AcDbSpline
210
0.0
220
0.0
230
1.0
 70
     8
 71
     3
 72
     8
 73
     4
 74
     0
 42
0.000000001
 43
0.00000001
 40
0.0
 40
0.0
 40
0.0
 40
0.0
 40
1.0
 40
1.0
 40
1.0
 40
1.0
 10
374.7404495126394
 20
119.9482142226022
 30
0.0
 10
374.8452874008655
 20
119.8870480313309
 30
0.0
 10
374.94912707042
 20
119.8254693791906
 30
0.0
 10
375.0520229842436
 20
119.7635007700999
 30
0.0
  0
SPLINE
  5
96
330
1F
100
AcDbEntity
  8
0
  6
Continuous
 62
     7
370
    25
100
AcDbSpline
210
0.0
220
0.0
230
1.0
 70
     8
 71
     3
 72
     8
 73
     4
 74
     0
 42
0.000000001
 43
0.00000001
 40
0.0000004028655191
 40
0.0000004028655191
 40
0.0000004028655191
 40
0.0000004028655191
 40
0.0015137684369673
 40
0.0015137684369673
 40
0.0015137684369673
 40
0.0015137684369673
 10
356.6524952777782
 20
110.1629261169256
 30
0.0
 10
356.4458237902269
 20
110.0906321752109
 30
0.0
 10
356.2392048216863
 20
110.0183006892541
 30
0.0
 10
356.0326284468777
 20
109.9459388188178
 30
0.0
  0
LINE
  5
97
330
1F
100
AcDbEntity
  8
0
  6
Continuous
 62
     7
370
    25
100
AcDbLine
 10
356.0326282918
 20
109.9459390173
 30
0.0
 11
354.9449767037
 21
109.9459390173
 31
0.0
  0
LINE
  5
98
330
1F
100
AcDbEntity
  8
0
  6
Continuous
 62
     7
370
    25
100
AcDbLine
 10
354.9100046097
 20
110.3789513948
 30
0.0
 11
354.6869500592
 21
110.1152008417
 31
0.0
  0
LINE
  5
99
330
1F
100
AcDbEntity
  8
0
  6
Continuous
 62
     7
370
    25
100
AcDbLine
 10
356.6776148095
 20
110.3789513948
 30
0.0
 11
354.9102197453
 21
110.3789513948
 31
0.0
  0
LINE
  5
9A
330
1F
100
AcDbEntity
  8
0
  6
Continuous
 62
     7
370
    25
100
AcDbLine
 10
356.6882719337
 20
110.2213706838
 30
0.0
 11
356.6776148095
 21
110.3789513948
 31
0.0
  0
SPLINE
  5
9B
330
1F
100
AcDbEntity
  8
0
  6
Continuous
 62
     7
370
    25
100
AcDbSpline
210
0.0
220
0.0
230
1.0
 70
     8
 71
     3
 72
     8
 73
     4
 74
     0
 42
0.000000001
 43
0.00000001
 40
0.0006523765358269
 40
0.0006523765358269
 40
0.0006523765358269
 40
0.0006523765358269
 40
0.0009043636494504
 40
0.0009043636494504
 40
0.0009043636494504
 40
0.0009043636494504
 10
356.6893721528131
 20
110.2231642143742
 30
0.0
 10
356.6770551582956
 20
110.203088633392
 30
0.0
 10
356.6647629608916
 20
110.1830092448696
 30
0.0
 10
356.6524952777782
 20
110.1629261169256
 30
0.0
  0
LINE
  5
9C
330
1F
100
AcDbEntity
  8
0
  6
Continuous
 62
     7
370
    25
100
AcDbLine
 10
355.1001564651
 20
119.7635006177
 30
0.0
 11
355.3085650369
 21
119.5152016374
 31
0.0
  0
LINE
  5
9D
330
1F
100
AcDbEntity
  8
0
  6
Continuous
 62
     7
370
    25
100
AcDbLine
 10
356.5587789803
 20
119.9482140149
 30
0.0
 11
355.4117304324
 21
119.9482140149
 31
0.0
  0
SPLINE
  5
9E
330
1F
100
AcDbEntity
  8
0
  6
Continuous
 62
     7
370
    25
100
AcDbSpline
210
0.0
220
0.0
230
1.0
 70
     8
 71
     3
 72
     8
 73
     4
 74
     0
 42
0.000000001
 43
0.00000001
 40
0.0000004089325119
 40
0.0000004089325119
 40
0.0000004089325119
 40
0.0000004089325119
 40
0.0015399868451459
 40
0.0015399868451459
 40
0.0015399868451459
 40
0.0015399868451459
 10
356.5587785174914
 20
119.9482142226022
 30
0.0
 10
356.7705397762859
 20
119.8757593399488
 30
0.0
 10
356.982460099476
 20
119.8034204699203
 30
0.0
 10
357.1945780826903
 20
119.7312269244944
 30
0.0
  0
LINE
  5
9F
330
1F
100
AcDbEntity
  8
0
  6
Continuous
 62
     7
370
    25
100
AcDbLine
 10
357.1945780008
 20
119.7312270308
 30
0.0
 11
357.2027307986
 21
119.7160143422
 31
0.0
  0
LINE
  5
A0
330
1F
100
AcDbEntity
  8
0
  6
Continuous
 62
     7
370
    25
100
AcDbLine
 10
357.2003605827
 20
119.5152016374
 30
0.0
 11
357.20273173
 21
119.7160148079
 31
0.0
  0
LINE
  5
A1
330
1F
100
AcDbEntity
  8
0
  6
Continuous
 62
     7
370
    25
100
AcDbLine
 10
357.2003605827
 20
119.5152016374
 30
0.0
 11
355.3085650369
 21
119.5152016374
 31
0.0
  0
LINE
  5
A2
330
1F
100
AcDbEntity
  8
0
  6
Continuous
 62
     7
370
    25
100
AcDbLine
 10
375.4652298107
 20
110.1152008417
 30
0.0
 11
375.2421752601
 21
110.3789513948
 31
0.0
  0
LINE
  5
A3
330
1F
100
AcDbEntity
  8
0
  6
Continuous
 62
     7
370
    25
100
AcDbLine
 10
375.2072031661
 20
109.9459390173
 30
0.0
 11
374.1195515781
 21
109.9459390173
 31
0.0
  0
SPLINE
  5
A4
330
1F
100
AcDbEntity
  8
0
  6
Continuous
 62
     7
370
    25
100
AcDbSpline
210
0.0
220
0.0
230
1.0
 70
     8
 71
     3
 72
     8
 73
     4
 74
     0
 42
0.000000001
 43
0.00000001
 40
0.0000004024872366
 40
0.0000004024872366
 40
0.0000004024872366
 40
0.0000004024872366
 40
0.0015137680586847
 40
0.0015137680586847
 40
0.0015137680586847
 40
0.0015137680586847
 10
374.1195514229629
 20
109.9459388188178
 30
0.0
 10
373.9129750481543
 20
110.0183006892541
 30
0.0
 10
373.7063560796136
 20
110.0906321752109
 30
0.0
 10
373.4996845920624
 20
110.1629261169256
 30
0.0
  0
SPLINE
  5
A5
330
1F
100
AcDbEntity
  8
0
  6
Continuous
 62
     7
370
    25
100
AcDbSpline
210
0.0
220
0.0
230
1.0
 70
     8
 71
     3
 72
     8
 73
     4
 74
     0
 42
0.000000001
 43
0.00000001
 40
0.0000002414707367
 40
0.0000002414707367
 40
0.0000002414707367
 40
0.0000002414707367
 40
0.0002447240690309
 40
0.0002447240690309
 40
0.0002447240690309
 40
0.0002447240690309
 10
373.4996845920624
 20
110.1629261169256
 30
0.0
 10
373.4877822567072
 20
110.1824111428721
 30
0.0
 10
373.4758568454955
 20
110.2018926486965
 30
0.0
 10
373.4639081002006
 20
110.2213705722084
 30
0.0
  0
LINE
  5
A6
330
1F
100
AcDbEntity
  8
0
  6
Continuous
 62
     7
370
    25
100
AcDbLine
 10
373.4745650604
 20
110.3789513948
 30
0.0
 11
373.4639079361
 21
110.2213706838
 31
0.0
  0
LINE
  5
A7
330
1F
100
AcDbEntity
  8
0
  6
Continuous
 62
     7
370
    25
100
AcDbLine
 10
375.2421752601
 20
110.3789513948
 30
0.0
 11
373.469456756
 21
110.3789513948
 31
0.0
  0
SPLINE
  5
A8
330
1F
100
AcDbEntity
  8
0
  6
Continuous
 62
     7
370
    25
100
AcDbSpline
210
0.0
220
0.0
230
1.0
 70
     8
 71
     3
 72
     8
 73
     4
 74
     0
 42
0.000000001
 43
0.00000001
 40
0.000000410413179
 40
0.000000410413179
 40
0.000000410413179
 40
0.000000410413179
 40
0.0015399883258131
 40
0.0015399883258131
 40
0.0015399883258131
 40
0.0015399883258131
 10
372.9576017871502
 20
119.7312269244944
 30
0.0
 10
373.1697197703645
 20
119.8034204699203
 30
0.0
 10
373.3816400935547
 20
119.8757593399488
 30
0.0
 10
373.5934013523491
 20
119.9482142226022
 30
0.0
  0
LINE
  5
A9
330
1F
100
AcDbEntity
  8
0
  6
Continuous
 62
     7
370
    25
100
AcDbLine
 10
374.7404494374
 20
119.9482140149
 30
0.0
 11
373.5934008896
 21
119.9482140149
 31
0.0
  0
LINE
  5
AA
330
1F
100
AcDbEntity
  8
0
  6
Continuous
 62
     7
370
    25
100
AcDbLine
 10
374.843614833
 20
119.5152016374
 30
0.0
 11
375.0520234048
 21
119.7635006177
 31
0.0
  0
LINE
  5
AB
330
1F
100
AcDbEntity
  8
0
  6
Continuous
 62
     7
370
    25
100
AcDbLine
 10
374.8434248432
 20
119.5152016374
 30
0.0
 11
372.9518192872
 21
119.5152016374
 31
0.0
  0
LINE
  5
AC
330
1F
100
AcDbEntity
  8
0
  6
Continuous
 62
     7
370
    25
100
AcDbLine
 10
372.9494481399
 20
119.7160143422
 30
0.0
 11
372.9518192872
 21
119.5152016374
 31
0.0
  0
LINE
  5
AD
330
1F
100
AcDbEntity
  8
0
  6
Continuous
 62
     7
370
    25
100
AcDbLine
 10
372.9494490712
 20
119.7160143422
 30
0.0
 11
372.957601869
 21
119.7312270308
 31
0.0
  0
ARC
  5
AE
330
1F
100
AcDbEntity
  8
0
  6
Continuous
 62
     7
370
    25
100
AcDbCircle
 10
365.0760899349
 20
114.4852015207
 30
0.0
 40
10.11874999999999
100
AcDbArc
 50
32.6761561262
 51
147.3238438738
  0
ARC
  5
AF
330
1F
100
AcDbEntity
  8
0
  6
Continuous
 62
     7
370
    25
100
AcDbCircle
 10
365.0760899349
 20
114.4852015207
 30
0.0
 40
10.11875
100
AcDbArc
 50
206.6538426687
 51
333.3461573313
  0
ARC
  5
B0
330
1F
100
AcDbEntity
  8
0
  6
Continuous
 62
     7
370
    25
100
AcDbCircle
 10
365.0760899349
 20
114.4852015207
 30
0.0
 40
9.467788105676684
100
AcDbArc
 50
33.6481949792
 51
146.3518050208
  0
ARC
  5
B1
330
1F
100
AcDbEntity
  8
0
  6
Continuous
 62
     7
370
    25
100
AcDbCircle
 10
365.0760899349
 20
114.4852015207
 30
0.0
 40
9.467788105676657
100
AcDbArc
 50
207.1630537883
 51
332.8369462117
  0
SPLINE
  5
B2
330
1F
100
AcDbEntity
  8
0
  6
Continuous
 62
     7
370
    25
100
AcDbSpline
210
0.0
220
0.0
230
1.0
 70
     8
 71
     3
 72
     8
 73
     4
 74
     0
 42
0.000000001
 43
0.00000001
 40
0.0
 40
0.0
 40
0.0
 40
0.0
 40
1.0
 40
1.0
 40
1.0
 40
1.0
 10
354.4816638197898
 20
109.9240381651333
 30
0.0
 10
354.4284209948482
 20
109.9245618913711
 30
0.0
 10
354.3751257092325
 20
109.9253599846335
 30
0.0
 10
354.321780203743
 20
109.9264330325583
 30
0.0
  0
LINE
  5
B3
330
1F
100
AcDbEntity
  8
0
  6
Continuous
 62
     7
370
    25
100
AcDbLine
 10
354.7498674183
 20
110.3789513948
 30
0.0
 11
354.9100046097
 21
110.3789513948
 31
0.0
  0
LINE
  5
B4
330
1F
100
AcDbEntity
  8
0
  6
Continuous
 62
     7
370
    25
100
AcDbLine
 10
375.2421752601
 20
110.3789513948
 30
0.0
 11
375.4023124515
 21
110.3789513948
 31
0.0
  0
SPLINE
  5
B5
330
1F
100
AcDbEntity
  8
0
  6
Continuous
 62
     7
370
    25
100
AcDbSpline
210
0.0
220
0.0
230
1.0
 70
     8
 71
     3
 72
     8
 73
     4
 74
     0
 42
0.000000001
 43
0.00000001
 40
0.0
 40
0.0
 40
0.0
 40
0.0
 40
1.0
 40
1.0
 40
1.0
 40
1.0
 10
375.8303996660975
 20
109.9264330325583
 30
0.0
 10
375.7770541606081
 20
109.9253599846335
 30
0.0
 10
375.7237588749924
 20
109.9245618913711
 30
0.0
 10
375.6705160500508
 20
109.9240381651333
 30
0.0
  0
LINE
  5
B6
330
1F
100
AcDbEntity
  8
0
  6
Continuous
 62
     7
370
    25
100
AcDbLine
 10
355.3085650369
 20
119.5152016374
 30
0.0
 11
355.1851480319
 21
119.5152016374
 31
0.0
  0
SPLINE
  5
B7
330
1F
100
AcDbEntity
  8
0
  6
Continuous
 62
     7
370
    25
100
AcDbSpline
210
0.0
220
0.0
230
1.0
 70
     8
 71
     3
 72
     8
 73
     4
 74
     0
 42
0.000000001
 43
0.00000001
 40
0.0
 40
0.0
 40
0.0
 40
0.0
 40
1.0
 40
1.0
 40
1.0
 40
1.0
 10
354.7883990102405
 20
119.9356470376463
 30
0.0
 10
354.8295144372823
 20
119.9365159752863
 30
0.0
 10
354.8705887318934
 20
119.9371970128692
 30
0.0
 10
354.9116205043825
 20
119.9376905909307
 30
0.0
  0
SPLINE
  5
B8
330
1F
100
AcDbEntity
  8
0
  6
Continuous
 62
     7
370
    25
100
AcDbSpline
210
0.0
220
0.0
230
1.0
 70
     8
 71
     3
 72
     8
 73
     4
 74
     0
 42
0.000000001
 43
0.00000001
 40
0.0
 40
0.0
 40
0.0
 40
0.0
 40
1.0
 40
1.0
 40
1.0
 40
1.0
 10
375.240559365458
 20
119.9376905909307
 30
0.0
 10
375.2815911379471
 20
119.9371970128692
 30
0.0
 10
375.3226654325582
 20
119.9365159752864
 30
0.0
 10
375.3637808596
 20
119.9356470376464
 30
0.0
  0
LINE
  5
B9
330
1F
100
AcDbEntity
  8
0
  6
Continuous
 62
     7
370
    25
100
AcDbLine
 10
374.9670318379
 20
119.5152016374
 30
0.0
 11
374.843614833
 21
119.5152016374
 31
0.0
  0
SPLINE
  5
BA
330
1F
100
AcDbEntity
  8
0
  6
Continuous
 62
     7
370
    25
100
AcDbSpline
210
0.0
220
0.0
230
1.0
 70
     8
 71
     3
 72
     9
 73
     5
 74
     0
 42
0.000000001
 43
0.00000001
 40
0.0
 40
0.0
 40
0.0
 40
0.0
 40
0.4897878789203994
 40
0.9999999999999999
 40
0.9999999999999999
 40
0.9999999999999999
 40
0.9999999999999999
 10
372.1816794995717
 20
119.7083183869478
 30
0.0
 10
372.308034581793
 20
119.709637112701
 30
0.0
 10
372.5660137757651
 20
119.7123295553073
 30
0.0
 10
372.8199085240545
 20
119.7147696331433
 30
0.0
 10
372.9494487021103
 20
119.7160145904316
 30
0.0
  0
ARC
  5
BB
330
1F
100
AcDbEntity
  8
0
  6
Continuous
 62
     7
370
    25
100
AcDbCircle
 10
365.0760899349
 20
114.4852015207
 30
0.0
 40
8.818750000000028
100
AcDbArc
 50
36.3185452201
 51
143.6814533294
  0
SPLINE
  5
BC
330
1F
100
AcDbEntity
  8
0
  6
Continuous
 62
     7
370
    25
100
AcDbSpline
210
0.0
220
0.0
230
1.0
 70
     8
 71
     3
 72
     9
 73
     5
 74
     0
 42
0.000000001
 43
0.00000001
 40
0.0
 40
0.0
 40
0.0
 40
0.0
 40
0.5102121239851395
 40
0.9999999999999999
 40
0.9999999999999999
 40
0.9999999999999999
 40
0.9999999999999999
 10
357.2027310666056
 20
119.7160147790359
 30
0.0
 10
357.3322712844564
 20
119.7147698203451
 30
0.0
 10
357.5861661092971
 20
119.712329739774
 30
0.0
 10
357.8441453823069
 20
119.7096372940809
 30
0.0
 10
357.9705005024902
 20
119.7083185668235
 30
0.0
  0
SPLINE
  5
BD
330
1F
100
AcDbEntity
  8
0
  6
Continuous
 62
     7
370
    25
100
AcDbSpline
210
0.0
220
0.0
230
1.0
 70
     8
 71
     3
 72
     8
 73
     4
 74
     0
 42
0.000000001
 43
0.00000001
 40
0.0
 40
0.0
 40
0.0
 40
0.0
 40
1.0
 40
1.0
 40
1.0
 40
1.0
 10
357.9705002488155
 20
119.7083180975463
 30
0.0
 10
357.9627391908701
 20
119.6977598623473
 30
0.0
 10
357.9550016657743
 20
119.6871843288209
 30
0.0
 10
357.9472877504048
 20
119.6765916020415
 30
0.0
  0
SPLINE
  5
BE
330
1F
100
AcDbEntity
  8
0
  6
Continuous
 62
     7
370
    25
100
AcDbSpline
210
0.0
220
0.0
230
1.0
 70
     8
 71
     3
 72
     8
 73
     4
 74
     0
 42
0.000000001
 43
0.00000001
 40
0.0
 40
0.0
 40
0.0
 40
0.0
 40
1.0
 40
1.0
 40
1.0
 40
1.0
 10
357.7757299176417
 20
119.5152018595783
 30
0.0
 10
357.8329903246761
 20
119.569110036566
 30
0.0
 10
357.8901767157859
 20
119.6229069616492
 30
0.0
 10
357.9472877504048
 20
119.6765916020415
 30
0.0
  0
LINE
  5
BF
330
1F
100
AcDbEntity
  8
0
  6
Continuous
 62
     7
370
    25
100
AcDbLine
 10
357.775730738
 20
119.5152016374
 30
0.0
 11
357.2003605827
 21
119.5152016374
 31
0.0
  0
SPLINE
  5
C0
330
1F
100
AcDbEntity
  8
0
  6
Continuous
 62
     7
370
    25
100
AcDbSpline
210
0.0
220
0.0
230
1.0
 70
     8
 71
     3
 72
     8
 73
     4
 74
     0
 42
0.000000001
 43
0.00000001
 40
0.0
 40
0.0
 40
0.0
 40
0.0
 40
1.0
 40
1.0
 40
1.0
 40
1.0
 10
372.2050075512169
 20
119.6764330877426
 30
0.0
 10
372.1972554385162
 20
119.6870787644152
 30
0.0
 10
372.189479479849
 20
119.6977070766094
 30
0.0
 10
372.1816797532456
 20
119.7083179176718
 30
0.0
  0
LINE
  5
C1
330
1F
100
AcDbEntity
  8
0
  6
Continuous
 62
     7
370
    25
100
AcDbLine
 10
372.9518192872
 20
119.5152016374
 30
0.0
 11
372.3764207265
 21
119.5152016374
 31
0.0
  0
SPLINE
  5
C2
330
1F
100
AcDbEntity
  8
0
  6
Continuous
 62
     7
370
    25
100
AcDbSpline
210
0.0
220
0.0
230
1.0
 70
     8
 71
     3
 72
     8
 73
     4
 74
     0
 42
0.000000001
 43
0.00000001
 40
0.0
 40
0.0
 40
0.0
 40
0.0
 40
1.0
 40
1.0
 40
1.0
 40
1.0
 10
372.2050075512169
 20
119.6764330877426
 30
0.0
 10
372.262070678903
 20
119.6228011373268
 30
0.0
 10
372.3192090586332
 20
119.5690570509619
 30
0.0
 10
372.3764213521071
 20
119.5152018597117
 30
0.0
  0
ARC
  5
C3
330
1F
100
AcDbEntity
  8
0
  6
Continuous
 62
     7
370
    25
100
AcDbCircle
 10
365.0760899349
 20
114.4852015207
 30
0.0
 40
8.818749999999996
100
AcDbArc
 50
209.2047569376
 51
330.7952430624
  0
SPLINE
  5
C4
330
1F
100
AcDbEntity
  8
0
  6
Continuous
 62
     7
370
    25
100
AcDbSpline
210
0.0
220
0.0
230
1.0
 70
    24
 71
     3
 72
     8
 73
     4
 74
     0
 42
0.000000001
 43
0.00000001
 40
0.0
 40
0.0
 40
0.0
 40
0.0
 40
0.000136040218399
 40
0.000136040218399
 40
0.000136040218399
 40
0.000136040218399
 10
372.8172253317645
 20
110.2256610898588
 30
0.0
 10
372.8027863320805
 20
110.2112220901747
 30
0.0
 10
372.7883158797182
 20
110.1967516378125
 30
0.0
 10
372.7738142811668
 20
110.182250039261
 30
0.0
  0
SPLINE
  5
C5
330
1F
100
AcDbEntity
  8
0
  6
Continuous
 62
     7
370
    25
100
AcDbSpline
210
0.0
220
0.0
230
1.0
 70
     8
 71
     3
 72
     9
 73
     5
 74
     0
 42
0.000000001
 43
0.00000001
 40
0.0
 40
0.0
 40
0.0
 40
0.0
 40
0.5086448740973026
 40
1.0
 40
1.0
 40
1.0
 40
1.0
 10
373.4639080605209
 20
110.2213704840737
 30
0.0
 10
373.354742011523
 20
110.2220643329187
 30
0.0
 10
373.1401206626072
 20
110.2234284454466
 30
0.0
 10
372.9236093499298
 20
110.2249252653844
 30
0.0
 10
372.8172254066299
 20
110.2256607355335
 30
0.0
  0
SPLINE
  5
C6
330
1F
100
AcDbEntity
  8
0
  6
Continuous
 62
     7
370
    25
100
AcDbSpline
210
0.0
220
0.0
230
1.0
 70
     8
 71
     3
 72
     9
 73
     5
 74
     0
 42
0.000000001
 43
0.00000001
 40
0.0
 40
0.0
 40
0.0
 40
0.0
 40
0.4913551252639757
 40
1.0
 40
1.0
 40
1.0
 40
1.0
 10
357.3349544936751
 20
110.2256607050689
 30
0.0
 10
357.2285705422831
 20
110.22492523474
 30
0.0
 10
357.0120592128554
 20
110.2234284144343
 30
0.0
 10
356.7974378474887
 20
110.22206430158
 30
0.0
 10
356.6882717899859
 20
110.2213704525681
 30
0.0
  0
SPLINE
  5
C7
330
1F
100
AcDbEntity
  8
0
  6
Continuous
 62
     7
370
    25
100
AcDbSpline
210
0.0
220
0.0
230
1.0
 70
    24
 71
     3
 72
     8
 73
     4
 74
     0
 42
0.000000001
 43
0.00000001
 40
0.0
 40
0.0
 40
0.0
 40
0.0
 40
0.0001360401227241
 40
0.0001360401227241
 40
0.0001360401227241
 40
0.0001360401227241
 10
357.3783655886738
 20
110.182250039261
 30
0.0
 10
357.3638640003211
 20
110.1967516276137
 30
0.0
 10
357.3493935581138
 20
110.211222069821
 30
0.0
 10
357.3349545685405
 20
110.2256610593943
 30
0.0
  0
LINE
  5
C8
330
1F
100
AcDbEntity
  8
0
  6
Continuous
 62
     7
370
    25
100
AcDbLine
 10
356.6776148095
 20
110.3789513948
 30
0.0
 11
357.181664282
 21
110.3789513948
 31
0.0
  0
SPLINE
  5
C9
330
1F
100
AcDbEntity
  8
0
  6
Continuous
 62
     7
370
    25
100
AcDbSpline
210
0.0
220
0.0
230
1.0
 70
     8
 71
     3
 72
     8
 73
     4
 74
     0
 42
0.000000001
 43
0.00000001
 40
0.0
 40
0.0
 40
0.0
 40
0.0
 40
1.0
 40
1.0
 40
1.0
 40
1.0
 10
357.3349547683725
 20
110.2256608598072
 30
0.0
 10
357.283886005768
 20
110.2767033515513
 30
0.0
 10
357.232789046132
 20
110.3278003235772
 30
0.0
 10
357.1816642046164
 20
110.3789514233184
 30
0.0
  0
SPLINE
  5
CA
330
1F
100
AcDbEntity
  8
0
  6
Continuous
 62
     7
370
    25
100
AcDbSpline
210
0.0
220
0.0
230
1.0
 70
     8
 71
     3
 72
     8
 73
     4
 74
     0
 42
0.000000001
 43
0.00000001
 40
0.0
 40
0.0
 40
0.0
 40
0.0
 40
1.0
 40
1.0
 40
1.0
 40
1.0
 10
372.9705156652242
 20
110.3789514233185
 30
0.0
 10
372.919390833879
 20
110.3278003337632
 30
0.0
 10
372.868293884398
 20
110.2767033718922
 30
0.0
 10
372.8172251319327
 20
110.2256608902718
 30
0.0
  0
LINE
  5
CB
330
1F
100
AcDbEntity
  8
0
  6
Continuous
 62
     7
370
    25
100
AcDbLine
 10
372.9705155878
 20
110.3789513948
 30
0.0
 11
373.4745650604
 21
110.3789513948
 31
0.0
  0
CIRCLE
  5
CC
330
1F
100
AcDbEntity
  8
0
  6
Continuous
 62
     7
370
    25
100
AcDbCircle
 10
365.0760899349
 20
114.4852015207
 30
0.0
 40
12.47086902276413
  0
SPLINE
  5
CD
330
1F
100
AcDbEntity
  8
0
  6
Continuous
 62
     7
370
    25
100
AcDbSpline
210
0.0
220
0.0
230
1.0
 70
     8
 71
     3
 72
    23
 73
    19
 74
     0
 42
0.000000001
 43
0.00000001
 40
0.0
 40
0.0
 40
0.0
 40
0.0
 40
0.0521036415675031
 40
0.1035646240925967
 40
0.1544751946736949
 40
0.2049306267473421
 40
0.2550287880844035
 40
0.3048696389141012
 40
0.3545546704609132
 40
0.4041862979523234
 40
0.4538672252126086
 40
0.5036997999421611
 40
0.5901870230746071
 40
0.674271637822954
 40
0.7565997087222995
 40
0.8378563983721267
 40
0.9187511781367398
 40
1.0
 40
1.0
 40
1.0
 40
1.0
 10
354.2368377882627
 20
118.9756122334599
 30
0.0
 10
354.2501321432126
 20
119.0047801266214
 30
0.0
 10
354.2765568772907
 20
119.0627561490254
 30
0.0
 10
354.3157678835145
 20
119.1456554500374
 30
0.0
 10
354.3542098383202
 20
119.224837431055
 30
0.0
 10
354.3917974197869
 20
119.300092247857
 30
0.0
 10
354.4284533060944
 20
119.3715119021147
 30
0.0
 10
354.4641031701531
 20
119.4391085108963
 30
0.0
 10
354.4986769169143
 20
119.5029148323608
 30
0.0
 10
354.5321086108702
 20
119.56295837443
 30
0.0
 10
354.5643354880952
 20
119.6192650711566
 30
0.0
 10
354.6028369249849
 20
119.6846700529803
 30
0.0
 10
354.6454984056983
 20
119.7542311308164
 30
0.0
 10
354.6889914478213
 20
119.8209906274809
 30
0.0
 10
354.7254039446493
 20
119.8727146755787
 30
0.0
 10
354.7543047511265
 20
119.9091629876306
 30
0.0
 10
354.7762222072247
 20
119.9317603845137
 30
0.0
 10
354.784334171718
 20
119.9343496020751
 30
0.0
 10
354.7883990102405
 20
119.9356470376464
 30
0.0
  0
SPLINE
  5
CE
330
1F
100
AcDbEntity
  8
0
  6
Continuous
 62
     7
370
    25
100
AcDbSpline
210
0.0
220
0.0
230
1.0
 70
     8
 71
     3
 72
     8
 73
     4
 74
     0
 42
0.000000001
 43
0.00000001
 40
0.0
 40
0.0
 40
0.0
 40
0.0
 40
1.0
 40
1.0
 40
1.0
 40
1.0
 10
354.1161998484
 20
118.9734018760501
 30
0.0
 10
354.156388861993
 20
118.9741321862676
 30
0.0
 10
354.196551164083
 20
118.9747127120971
 30
0.0
 10
354.2366858745585
 20
118.9751436770469
 30
0.0
  0
SPLINE
  5
CF
330
1F
100
AcDbEntity
  8
0
  6
Continuous
 62
     7
370
    25
100
AcDbSpline
210
0.0
220
0.0
230
1.0
 70
     8
 71
     3
 72
    18
 73
    14
 74
     0
 42
0.000000001
 43
0.00000001
 40
0.0
 40
0.0
 40
0.0
 40
0.0
 40
0.0923824559411628
 40
0.1844689291573508
 40
0.2764953615950219
 40
0.3686975365494161
 40
0.4613092840003458
 40
0.5545607518442569
 40
0.6486768051537182
 40
0.7438756050146744
 40
0.8403674044302629
 40
0.9203921078121001
 40
1.0
 40
1.0
 40
1.0
 40
1.0
 10
354.1691388371995
 20
119.2402188829319
 30
0.0
 10
354.1709744908521
 20
119.2400105707167
 30
0.0
 10
354.1746399169351
 20
119.2395946136946
 30
0.0
 10
354.1774352465542
 20
119.2327901902284
 30
0.0
 10
354.1782375416328
 20
119.2214568115763
 30
0.0
 10
354.1768714045896
 20
119.2051564165497
 30
0.0
 10
354.1734098559607
 20
119.1840051777138
 30
0.0
 10
354.1678685501913
 20
119.1579694765973
 30
0.0
 10
354.1602840821224
 20
119.1270450969461
 30
0.0
 10
354.1507070801856
 20
119.0912460655014
 30
0.0
 10
354.1398666041667
 20
119.0529951579703
 30
0.0
 10
354.1283779632278
 20
119.0137769445759
 30
0.0
 10
354.1202779783497
 20
118.9869219677264
 30
0.0
 10
354.116238560707
 20
118.9735295393561
 30
0.0
  0
LINE
  5
D0
330
1F
100
AcDbEntity
  8
0
  6
Continuous
 62
     7
370
    25
100
AcDbLine
 10
354.1163836657
 20
119.2394710163
 30
0.0
 11
354.169138433
 21
119.2402188683
 31
0.0
  0
SPLINE
  5
D1
330
1F
100
AcDbEntity
  8
0
  6
Continuous
 62
     7
370
    25
100
AcDbSpline
210
0.0
220
0.0
230
1.0
 70
     8
 71
     3
 72
    25
 73
    21
 74
     0
 42
0.000000001
 43
0.00000001
 40
0.0
 40
0.0
 40
0.0
 40
0.0
 40
0.0280105225426465
 40
0.0559601148860768
 40
0.0839014045043132
 40
0.1118870776786367
 40
0.1399695827588937
 40
0.1682008401739883
 40
0.196631967042422
 40
0.2253130233141467
 40
0.2542927850735845
 40
0.3799486436587335
 40
0.5057850221667067
 40
0.6313085886338298
 40
0.7532068238012468
 40
0.8039473267955921
 40
0.8535894438554446
 40
0.9025339722394071
 40
0.9511970353791085
 40
1.0
 40
1.0
 40
1.0
 40
1.0
 10
353.2054220701466
 20
116.6725392632443
 30
0.0
 10
353.2124011400575
 20
116.7098492767511
 30
0.0
 10
353.2263440985803
 20
116.7843881447447
 30
0.0
 10
353.2488659960233
 20
116.8956971902279
 30
0.0
 10
353.2724996081208
 20
117.0063593992423
 30
0.0
 10
353.2973491986088
 20
117.1163435321866
 30
0.0
 10
353.3233678230951
 20
117.2256386758012
 30
0.0
 10
353.350549204413
 20
117.3342296450033
 30
0.0
 10
353.3788748457455
 20
117.4421003549457
 30
0.0
 10
353.4083336265781
 20
117.5492453006707
 30
0.0
 10
353.4727419144901
 20
117.7734201871826
 30
0.0
 10
353.577843606562
 20
118.1000856012186
 30
0.0
 10
353.7233063673581
 20
118.4860322065385
 30
0.0
 10
353.8625697754679
 20
118.8081120192286
 30
0.0
 10
353.9597181283355
 20
119.0039326032603
 30
0.0
 10
354.0200135345618
 20
119.1132800537437
 30
0.0
 10
354.054902117443
 20
119.1712080781591
 30
0.0
 10
354.0827966193709
 20
119.211662030924
 30
0.0
 10
354.1041617117425
 20
119.236276246323
 30
0.0
 10
354.1123056593152
 20
119.2384051738307
 30
0.0
 10
354.1163834779603
 20
119.2394711655021
 30
0.0
  0
ARC
  5
D2
330
1F
100
AcDbEntity
  8
0
  6
Continuous
 62
     7
370
    25
100
AcDbCircle
 10
365.0760899349
 20
114.4852015207
 30
0.0
 40
12.07050959801142
100
AcDbArc
 50
169.5595567507
 51
190.4404432494
  0
SPLINE
  5
D3
330
1F
100
AcDbEntity
  8
0
  6
Continuous
 62
     7
370
    25
100
AcDbSpline
210
0.0
220
0.0
230
1.0
 70
     8
 71
     3
 72
    26
 73
    22
 74
     0
 42
0.000000001
 43
0.00000001
 40
0.0
 40
0.0
 40
0.0
 40
0.0
 40
0.0241259796963635
 40
0.0482159912272988
 40
0.0723203915124065
 40
0.0964895678710797
 40
0.1207736231963513
 40
0.1452220711242836
 40
0.1698835501657706
 40
0.1948055644472379
 40
0.2200342569517627
 40
0.2456142191611387
 40
0.3690971486901655
 40
0.4940698769485187
 40
0.6192566784762451
 40
0.7454656653603225
 40
0.7971495824713707
 40
0.8481710308405392
 40
0.8988013269235234
 40
0.9493179290492194
 40
1.0
 40
1.0
 40
1.0
 40
1.0
 10
354.1163834779603
 20
109.7309318759179
 30
0.0
 10
354.1144731632198
 20
109.7312187691074
 30
0.0
 10
354.1106553817277
 20
109.7317921277721
 30
0.0
 10
354.1026952565467
 20
109.7378508160185
 30
0.0
 10
354.0931161559713
 20
109.7477300767494
 30
0.0
 10
354.0817689491026
 20
109.7618111678598
 30
0.0
 10
354.0687127658087
 20
109.7800067158839
 30
0.0
 10
354.0539568625813
 20
109.8023572586226
 30
0.0
 10
354.0375296822839
 20
109.8288714943147
 30
0.0
 10
354.0194615275637
 20
109.859567005028
 30
0.0
 10
353.9997843811408
 20
109.8944681082679
 30
0.0
 10
353.9515849997125
 20
109.9832326433756
 30
0.0
 10
353.8632669602771
 20
110.1605129448244
 30
0.0
 10
353.7242073435103
 20
110.4815988516695
 30
0.0
 10
353.5785346636482
 20
110.86818150356
 30
0.0
 10
353.4647960686387
 20
111.22188920769
 30
0.0
 10
353.3850904500922
 20
111.5041429073028
 30
0.0
 10
353.3344408777379
 20
111.698586338077
 30
0.0
 10
353.2874742078725
 20
111.8958277150112
 30
0.0
 10
353.2439143858682
 20
112.0957307601063
 30
0.0
 10
353.2182668207366
 20
112.2304126998385
 30
0.0
 10
353.2054220701466
 20
112.2978637781757
 30
0.0
  0
LINE
  5
D4
330
1F
100
AcDbEntity
  8
0
  6
Continuous
 62
     7
370
    25
100
AcDbLine
 10
354.169138433
 20
109.7301841731
 30
0.0
 11
354.1163836657
 21
109.7309320251
 31
0.0
  0
SPLINE
  5
D5
330
1F
100
AcDbEntity
  8
0
  6
Continuous
 62
     7
370
    25
100
AcDbSpline
210
0.0
220
0.0
230
1.0
 70
     8
 71
     3
 72
    14
 73
    10
 74
     0
 42
0.000000001
 43
0.00000001
 40
0.0
 40
0.0
 40
0.0
 40
0.0
 40
0.0789261963172865
 40
0.158232872055133
 40
0.330847539457262
 40
0.5000195457610529
 40
0.6670357883572423
 40
0.8332395193657144
 40
1.0
 40
1.0
 40
1.0
 40
1.0
 10
354.1161419803475
 20
109.9972076357927
 30
0.0
 10
354.1201565269437
 20
109.9839045111551
 30
0.0
 10
354.1282049730557
 20
109.9572341315226
 30
0.0
 10
354.1431056798653
 20
109.9064193922028
 30
0.0
 10
354.1590026614618
 20
109.8493795760159
 30
0.0
 10
354.1720811564596
 20
109.795076359288
 30
0.0
 10
354.1783137635769
 20
109.7569092165651
 30
0.0
 10
354.17812418374
 20
109.7335004878883
 30
0.0
 10
354.1721372896092
 20
109.7312908332097
 30
0.0
 10
354.1691388371995
 20
109.730184158488
 30
0.0
  0
SPLINE
  5
D6
330
1F
100
AcDbEntity
  8
0
  6
Continuous
 62
     7
370
    25
100
AcDbSpline
210
0.0
220
0.0
230
1.0
 70
     8
 71
     3
 72
     8
 73
     4
 74
     0
 42
0.000000001
 43
0.00000001
 40
0.0
 40
0.0
 40
0.0
 40
0.0
 40
1.0
 40
1.0
 40
1.0
 40
1.0
 10
354.2634466715721
 20
109.9951465573423
 30
0.0
 10
354.2143787565433
 20
109.9956336105542
 30
0.0
 10
354.1652693190225
 20
109.9963446784291
 30
0.0
 10
354.1161199744972
 20
109.9972801716634
 30
0.0
  0
SPLINE
  5
D7
330
1F
100
AcDbEntity
  8
0
  6
Continuous
 62
     7
370
    25
100
AcDbSpline
210
0.0
220
0.0
230
1.0
 70
     8
 71
     3
 72
    13
 73
     9
 74
     0
 42
0.000000001
 43
0.00000001
 40
0.0
 40
0.0
 40
0.0
 40
0.0
 40
0.1667030582307992
 40
0.3329480818053035
 40
0.4990671507274896
 40
0.6653938523718403
 40
0.832261271055009
 40
1.0
 40
1.0
 40
1.0
 40
1.0
 10
354.321780203743
 20
109.9264330325583
 30
0.0
 10
354.3199368899062
 20
109.9268501423241
 30
0.0
 10
354.3162553269362
 20
109.9276832158015
 30
0.0
 10
354.3087380731417
 20
109.9336976946279
 30
0.0
 10
354.2997872690252
 20
109.9431924269201
 30
0.0
 10
354.2892369806023
 20
109.9566020340298
 30
0.0
 10
354.2772637950852
 20
109.9735199376533
 30
0.0
 10
354.2680573874788
 20
109.9879326727928
 30
0.0
 10
354.26344219699
 20
109.9951578056543
 30
0.0
  0
SPLINE
  5
D8
330
1F
100
AcDbEntity
  8
0
  6
Continuous
 62
     7
370
    25
100
AcDbSpline
210
0.0
220
0.0
230
1.0
 70
     8
 71
     3
 72
    13
 73
     9
 74
     0
 42
0.000000001
 43
0.00000001
 40
0.0
 40
0.0
 40
0.0
 40
0.0
 40
0.1686319999748085
 40
0.3360343310905433
 40
0.502536782590866
 40
0.6684737453788339
 40
0.834182263691515
 40
1.0
 40
1.0
 40
1.0
 40
1.0
 10
375.8887390539686
 20
109.9951612554672
 30
0.0
 10
375.8841018088704
 20
109.9879040954477
 30
0.0
 10
375.874861133584
 20
109.9734426948055
 30
0.0
 10
375.8628457602169
 20
109.9564619981013
 30
0.0
 10
375.8522802064624
 20
109.9430292169218
 30
0.0
 10
375.8433408571693
 20
109.9335497483679
 30
0.0
 10
375.8358599765808
 20
109.92758452267
 30
0.0
 10
375.8322201692913
 20
109.9268169468856
 30
0.0
 10
375.8303996660975
 20
109.9264330325583
 30
0.0
  0
SPLINE
  5
D9
330
1F
100
AcDbEntity
  8
0
  6
Continuous
 62
     7
370
    25
100
AcDbSpline
210
0.0
220
0.0
230
1.0
 70
     8
 71
     3
 72
     8
 73
     4
 74
     0
 42
0.000000001
 43
0.00000001
 40
0.0
 40
0.0
 40
0.0
 40
0.0
 40
1.0
 40
1.0
 40
1.0
 40
1.0
 10
376.0360646659411
 20
109.9972802764099
 30
0.0
 10
375.9869137363328
 20
109.9963447461479
 30
0.0
 10
375.9378027162535
 20
109.9956336556358
 30
0.0
 10
375.8887332213457
 20
109.9951465941378
 30
0.0
  0
SPLINE
  5
DA
330
1F
100
AcDbEntity
  8
0
  6
Continuous
 62
     7
370
    25
100
AcDbSpline
210
0.0
220
0.0
230
1.0
 70
     8
 71
     3
 72
    18
 73
    14
 74
     0
 42
0.000000001
 43
0.00000001
 40
0.0
 40
0.0
 40
0.0
 40
0.0
 40
0.0923325137111192
 40
0.1843692047063016
 40
0.2763458873810836
 40
0.3684982175655623
 40
0.4610598988303626
 40
0.554260954653301
 40
0.6483261285442131
 40
0.74347346365053
 40
0.8399130993119804
 40
0.9201660718299768
 40
1.0
 40
1.0
 40
1.0
 40
1.0
 10
375.9830410326411
 20
109.730184158488
 30
0.0
 10
375.9812053789886
 20
109.7303924707039
 30
0.0
 10
375.9775399529061
 20
109.7308084277272
 30
0.0
 10
375.9747446232838
 20
109.7376128511845
 30
0.0
 10
375.9739423282169
 20
109.7489462298703
 30
0.0
 10
375.9753084652162
 20
109.7652466247707
 30
0.0
 10
375.9787700140103
 20
109.7863978640808
 30
0.0
 10
375.9843113191567
 20
109.8124335634084
 30
0.0
 10
375.9918957895839
 20
109.8433579498311
 30
0.0
 10
376.0014727825643
 20
109.8791569555592
 30
0.0
 10
376.0123241295902
 20
109.9174462006729
 30
0.0
 10
376.0238388912221
 20
109.9567518250894
 30
0.0
 10
376.0319706000432
 20
109.9837089029831
 30
0.0
 10
376.036025811651
 20
109.9971521604326
 30
0.0
  0
LINE
  5
DB
330
1F
100
AcDbEntity
  8
0
  6
Continuous
 62
     7
370
    25
100
AcDbLine
 10
376.0357962041
 20
109.7309320251
 30
0.0
 11
375.9830414369
 21
109.7301841731
 31
0.0
  0
SPLINE
  5
DC
330
1F
100
AcDbEntity
  8
0
  6
Continuous
 62
     7
370
    25
100
AcDbSpline
210
0.0
220
0.0
230
1.0
 70
     8
 71
     3
 72
    25
 73
    21
 74
     0
 42
0.000000001
 43
0.00000001
 40
0.0
 40
0.0
 40
0.0
 40
0.0
 40
0.0280105225422753
 40
0.0559601148854256
 40
0.0839014045034749
 40
0.1118870776777086
 40
0.1399695827579646
 40
0.1682008401731476
 40
0.1966319670417595
 40
0.2253130233137476
 40
0.2542927850735311
 40
0.3799486436564626
 40
0.5057850221666382
 40
0.631308588631066
 40
0.7532068238011618
 40
0.8039473267946936
 40
0.8535894438541253
 40
0.9025339722380873
 40
0.9511970353782256
 40
1.0
 40
1.0
 40
1.0
 40
1.0
 10
376.946757799694
 20
112.2978637781757
 30
0.0
 10
376.9397787297831
 20
112.2605537646695
 30
0.0
 10
376.9258357712605
 20
112.1860148966767
 30
0.0
 10
376.9033138738178
 20
112.0747058511946
 30
0.0
 10
376.8796802617205
 20
111.9640436421809
 30
0.0
 10
376.8548306712325
 20
111.854059509237
 30
0.0
 10
376.8288120467464
 20
111.7447643656224
 30
0.0
 10
376.8016306654284
 20
111.6361733964199
 30
0.0
 10
376.7733050240957
 20
111.5283026864768
 30
0.0
 10
376.7438462432629
 20
111.4211577407507
 30
0.0
 10
376.6794379553513
 20
111.1969828542402
 30
0.0
 10
376.5743362632795
 20
110.8703174402042
 30
0.0
 10
376.4288735024843
 20
110.4843708348861
 30
0.0
 10
376.2896100943736
 20
110.1622910221935
 30
0.0
 10
376.1924617415065
 20
109.9664704381625
 30
0.0
 10
376.1321663352788
 20
109.8571229876759
 30
0.0
 10
376.0972777523977
 20
109.7991949632607
 30
0.0
 10
376.0693832504699
 20
109.7587410104958
 30
0.0
 10
376.0480181580981
 20
109.7341267950969
 30
0.0
 10
376.0398742105255
 20
109.7319978675893
 30
0.0
 10
376.0357963918804
 20
109.7309318759179
 30
0.0
  0
ARC
  5
DD
330
1F
100
AcDbEntity
  8
0
  6
Continuous
 62
     7
370
    25
100
AcDbCircle
 10
365.0760899349
 20
114.4852015207
 30
0.0
 40
12.07050959801141
100
AcDbArc
 50
349.5595567507
 51
10.4404432493
  0
SPLINE
  5
DE
330
1F
100
AcDbEntity
  8
0
  6
Continuous
 62
     7
370
    25
100
AcDbSpline
210
0.0
220
0.0
230
1.0
 70
     8
 71
     3
 72
    26
 73
    22
 74
     0
 42
0.000000001
 43
0.00000001
 40
0.0
 40
0.0
 40
0.0
 40
0.0
 40
0.0241259796962591
 40
0.0482159912271133
 40
0.0723203915121637
 40
0.0964895678708023
 40
0.1207736231960627
 40
0.1452220711240065
 40
0.1698835501655268
 40
0.1948055644470484
 40
0.220034256951649
 40
0.2456142191611191
 40
0.3690971486898426
 40
0.4940698769485092
 40
0.6192566784753767
 40
0.7454656653602836
 40
0.7971495824708205
 40
0.848171030839725
 40
0.8988013269227118
 40
0.9493179290486752
 40
1.0
 40
1.0
 40
1.0
 40
1.0
 10
376.0357963918804
 20
119.2394711655021
 30
0.0
 10
376.0377067066207
 20
119.2391842723126
 30
0.0
 10
376.0415244881129
 20
119.2386109136479
 30
0.0
 10
376.0494846132938
 20
119.2325522254014
 30
0.0
 10
376.0590637138692
 20
119.2226729646706
 30
0.0
 10
376.0704109207379
 20
119.2085918735602
 30
0.0
 10
376.0834671040319
 20
119.190396325536
 30
0.0
 10
376.0982230072592
 20
119.1680457827973
 30
0.0
 10
376.1146501875565
 20
119.1415315471053
 30
0.0
 10
376.1327183422767
 20
119.110836036392
 30
0.0
 10
376.1523954886998
 20
119.0759349331521
 30
0.0
 10
376.2005948701279
 20
118.9871703980449
 30
0.0
 10
376.2889129095633
 20
118.809890096596
 30
0.0
 10
376.4279725263298
 20
118.4888041897516
 30
0.0
 10
376.5736452061922
 20
118.1022215378605
 30
0.0
 10
376.6873838012013
 20
117.7485138337315
 30
0.0
 10
376.7670894197479
 20
117.4662601341191
 30
0.0
 10
376.817738992102
 20
117.2718167033458
 30
0.0
 10
376.8647056619674
 20
117.0745753264117
 30
0.0
 10
376.9082654839721
 20
116.8746722813155
 30
0.0
 10
376.9339130491038
 20
116.7399903415822
 30
0.0
 10
376.946757799694
 20
116.6725392632443
 30
0.0
  0
LINE
  5
DF
330
1F
100
AcDbEntity
  8
0
  6
Continuous
 62
     7
370
    25
100
AcDbLine
 10
375.9830414369
 20
119.2402188683
 30
0.0
 11
376.0357962041
 21
119.2394710163
 31
0.0
  0
SPLINE
  5
E0
330
1F
100
AcDbEntity
  8
0
  6
Continuous
 62
     7
370
    25
100
AcDbSpline
210
0.0
220
0.0
230
1.0
 70
     8
 71
     3
 72
    14
 73
    10
 74
     0
 42
0.000000001
 43
0.00000001
 40
0.0
 40
0.0
 40
0.0
 40
0.0
 40
0.0786889129232242
 40
0.1577561817122941
 40
0.3304686003115578
 40
0.4997364082435315
 40
0.6668472316653192
 40
0.8331450833767118
 40
1.0
 40
1.0
 40
1.0
 40
1.0
 10
376.0359493194179
 20
118.9734873737144
 30
0.0
 10
376.0319513104632
 20
118.9867372782302
 30
0.0
 10
376.0239360691326
 20
119.0133007960985
 30
0.0
 10
376.009063395843
 20
119.0640223238673
 30
0.0
 10
375.9931772310808
 20
119.1210234028912
 30
0.0
 10
375.9800987074365
 20
119.1753266985002
 30
0.0
 10
375.9738661078315
 20
119.2134938205375
 30
0.0
 10
375.9740556857079
 20
119.2369025546131
 30
0.0
 10
375.9800425801003
 20
119.2391122085712
 30
0.0
 10
375.9830410326411
 20
119.2402188829319
 30
0.0
  0
SPLINE
  5
E1
330
1F
100
AcDbEntity
  8
0
  6
Continuous
 62
     7
370
    25
100
AcDbSpline
210
0.0
220
0.0
230
1.0
 70
     8
 71
     3
 72
     8
 73
     4
 74
     0
 42
0.000000001
 43
0.00000001
 40
0.0
 40
0.0
 40
0.0
 40
0.0
 40
1.0
 40
1.0
 40
1.0
 40
1.0
 10
375.9154939787351
 20
118.9751437136797
 30
0.0
 10
375.9556270972418
 20
118.9747127597324
 30
0.0
 10
375.9957878051703
 20
118.97413225672
 30
0.0
 10
376.0359752225133
 20
118.9734019811604
 30
0.0
  0
SPLINE
  5
E2
330
1F
100
AcDbEntity
  8
0
  6
Continuous
 62
     7
370
    25
100
AcDbSpline
210
0.0
220
0.0
230
1.0
 70
     8
 71
     3
 72
    23
 73
    19
 74
     0
 42
0.000000001
 43
0.00000001
 40
0.0
 40
0.0
 40
0.0
 40
0.0
 40
0.0441308420121292
 40
0.0880968635211716
 40
0.1320155028408941
 40
0.1760048571434164
 40
0.2201827305793597
 40
0.2646656976937351
 40
0.3095682184569769
 40
0.355001836559425
 40
0.401074485474427
 40
0.4478899182339682
 40
0.4955472680213688
 40
0.5953670562452651
 40
0.6949121173401501
 40
0.7950007648984784
 40
0.8964386255170008
 40
1.0
 40
1.0
 40
1.0
 40
1.0
 10
375.3637808596
 20
119.9356470376464
 30
0.0
 10
375.3657652497068
 20
119.9353641804165
 30
0.0
 10
375.3697266185918
 20
119.9347995223759
 30
0.0
 10
375.3785869228223
 20
119.9283801691971
 30
0.0
 10
375.3895594009446
 20
119.9178589196905
 30
0.0
 10
375.402838798965
 20
119.9028273833808
 30
0.0
 10
375.4183495226313
 20
119.8833751383184
 30
0.0
 10
375.4360809843844
 20
119.8594551603663
 30
0.0
 10
375.4559976310875
 20
119.8310540696525
 30
0.0
 10
375.4780631650997
 20
119.7981463298518
 30
0.0
 10
375.5022340887938
 20
119.7607063471956
 30
0.0
 10
375.5284610988411
 20
119.7187062755657
 30
0.0
 10
375.5667976790721
 20
119.6554291670427
 30
0.0
 10
375.6191304584506
 20
119.5653703046794
 30
0.0
 10
375.6875310696588
 20
119.4410241851127
 30
0.0
 10
375.7602161444543
 20
119.3013111071322
 30
0.0
 10
375.8365763803541
 20
119.1469750919038
 30
0.0
 10
375.8888651950043
 20
119.033252437676
 30
0.0
 10
375.9152804229079
 20
118.9758021043816
 30
0.0
  0
SPLINE
  5
E3
330
1F
100
AcDbEntity
  8
0
  6
Continuous
 62
     7
370
    25
100
AcDbSpline
210
0.0
220
0.0
230
1.0
 70
    11
 71
     3
 72
    39
 73
    35
 74
     0
 42
0.000000001
 43
0.00000001
 40
0.0
 40
0.0
 40
0.0
 40
0.0
 40
0.0310664058348413
 40
0.0621048158426138
 40
0.0931361551796939
 40
0.1235538293503726
 40
0.1538561545809849
 40
0.1850588072749156
 40
0.2160250992946587
 40
0.2471867223797568
 40
0.2784462884304475
 40
0.3100516090231247
 40
0.3419834369138969
 40
0.3734259894013238
 40
0.4048604886787081
 40
0.436874065183343
 40
0.4685120685926471
 40
0.499805535863323
 40
0.5309508213226204
 40
0.5618649784438111
 40
0.5930416446590877
 40
0.623374245013332
 40
0.6540913579072549
 40
0.6849496782718453
 40
0.7158160645166705
 40
0.7471731804043553
 40
0.7784514311866318
 40
0.810129591156098
 40
0.8419598919688388
 40
0.8735175891922303
 40
0.9050808037886594
 40
0.9370235169792582
 40
0.9687441590030581
 40
1.0
 40
1.0
 40
1.0
 40
1.0
 10
367.9802164997176
 20
103.0535713369566
 30
0.0
 10
368.1699283286723
 20
103.0923399137041
 30
0.0
 10
368.5136691791211
 20
103.1687708594871
 30
0.0
 10
368.8966261663288
 20
103.2569103994803
 30
0.0
 10
369.1410666330439
 20
103.3038598861253
 30
0.0
 10
369.2220555698601
 20
103.2919509614115
 30
0.0
 10
369.1413331243784
 20
103.2199930546961
 30
0.0
 10
368.9014709307587
 20
103.0954727884987
 30
0.0
 10
368.5248211966615
 20
102.9381037986735
 30
0.0
 10
368.0185782598336
 20
102.7660797139785
 30
0.0
 10
367.4013038661502
 20
102.6011553063929
 30
0.0
 10
366.6888280520104
 20
102.4634427303144
 30
0.0
 10
365.9133628122378
 20
102.3718099178057
 30
0.0
 10
365.1028983786235
 20
102.3384773397102
 30
0.0
 10
364.2903939056611
 20
102.3677247852635
 30
0.0
 10
363.5108809155239
 20
102.4560537422511
 30
0.0
 10
362.7925526161885
 20
102.5915592418859
 30
0.0
 10
362.1691805087884
 20
102.7553357633772
 30
0.0
 10
361.6560819141928
 20
102.9273419075225
 30
0.0
 10
361.2708798043314
 20
103.0861539219937
 30
0.0
 10
361.0214551990904
 20
103.2134128871591
 30
0.0
 10
360.930853159144
 20
103.2890198441141
 30
0.0
 10
360.9990647301032
 20
103.305789240794
 30
0.0
 10
361.2312805965059
 20
103.2630088985788
 30
0.0
 10
361.6084976336902
 20
103.1758822136689
 30
0.0
 10
362.1202025014578
 20
103.0611531583619
 30
0.0
 10
362.7436736322047
 20
102.9417310133094
 30
0.0
 10
363.4602183353375
 20
102.8371055632601
 30
0.0
 10
364.2385494479484
 20
102.7664570703332
 30
0.0
 10
365.0503809347984
 20
102.7403782459032
 30
0.0
 10
365.8641554567955
 20
102.7634038175939
 30
0.0
 10
366.646529300961
 20
102.8316362557316
 30
0.0
 10
367.3685423356949
 20
102.9348834354413
 30
0.0
 10
367.789347855544
 20
103.0145663591378
 30
0.0
 10
367.9802164997176
 20
103.0535713369566
 30
0.0
  0
SPLINE
  5
E4
330
1F
100
AcDbEntity
  8
0
  6
Continuous
 62
     7
370
    25
100
AcDbSpline
210
0.0
220
0.0
230
1.0
 70
    11
 71
     3
 72
    39
 73
    35
 74
     0
 42
0.000000001
 43
0.00000001
 40
0.0
 40
0.0
 40
0.0
 40
0.0
 40
0.0312651429934057
 40
0.0629601069329321
 40
0.0948697276489808
 40
0.1264264963751833
 40
0.1579651393672472
 40
0.1898765439016956
 40
0.221552335268876
 40
0.2527844076550827
 40
0.2838418966734154
 40
0.3148645781100674
 40
0.3459127639308091
 40
0.3763475365526575
 40
0.4066751324671412
 40
0.4379141187435632
 40
0.4688932367345488
 40
0.5000738678969536
 40
0.5313369410958942
 40
0.5629183719104849
 40
0.5948445736343699
 40
0.6262809966135365
 40
0.6577486436587271
 40
0.6897584692806508
 40
0.7214430019610059
 40
0.7527623343195418
 40
0.7839279690572818
 40
0.8148885765585865
 40
0.8460375004982862
 40
0.8763409566916784
 40
0.906758919146387
 40
0.9378312724751761
 40
0.9689189660506093
 40
1.0
 40
1.0
 40
1.0
 40
1.0
 10
367.9801122499308
 20
125.9168637568991
 30
0.0
 10
367.7890383136491
 20
125.9559277147798
 30
0.0
 10
367.3681037512096
 20
126.0356467093399
 30
0.0
 10
366.6467143460459
 20
126.1387621246904
 30
0.0
 10
365.8650582977555
 20
126.2069629971143
 30
0.0
 10
365.0519705780447
 20
126.2300198897562
 30
0.0
 10
364.2396903611926
 20
126.20403561611
 30
0.0
 10
363.4610599361432
 20
126.1334454508718
 30
0.0
 10
362.7443841462317
 20
126.0288298886326
 30
0.0
 10
362.1225088765701
 20
125.9096575636162
 30
0.0
 10
361.6129979430842
 20
125.79572039589
 30
0.0
 10
361.23787859684
 20
125.7096061169435
 30
0.0
 10
361.0019180219891
 20
125.6655503956076
 30
0.0
 10
360.9305174788075
 20
125.6810801963188
 30
0.0
 10
361.0211139086053
 20
125.7565890785027
 30
0.0
 10
361.2700901889648
 20
125.8837626063469
 30
0.0
 10
361.6550050088076
 20
126.0426132849592
 30
0.0
 10
362.1677903156297
 20
126.2146375461692
 30
0.0
 10
362.7902494385546
 20
126.3783106257039
 30
0.0
 10
363.5067495833611
 20
126.5137121990841
 30
0.0
 10
364.2848486174712
 20
126.6022298665669
 30
0.0
 10
365.0965713061182
 20
126.6319372750497
 30
0.0
 10
365.9080134938195
 20
126.5990508303997
 30
0.0
 10
366.6851393853015
 20
126.5075699223549
 30
0.0
 10
367.399577474472
 20
126.3696857323934
 30
0.0
 10
368.0178004327074
 20
126.2045579075435
 30
0.0
 10
368.5241677934333
 20
126.0325073701909
 30
0.0
 10
368.900720314847
 20
125.8752238484807
 30
0.0
 10
369.1404161262784
 20
125.7508200509967
 30
0.0
 10
369.2218828344727
 20
125.6786318775604
 30
0.0
 10
369.1418235919809
 20
125.6663593691824
 30
0.0
 10
368.8974775860271
 20
125.7132547796885
 30
0.0
 10
368.5145041525781
 20
125.801388327834
 30
0.0
 10
368.1700610213683
 20
125.8780298324439
 30
0.0
 10
367.9801122499308
 20
125.9168637568991
 30
0.0
  0
SPLINE
  5
E5
330
1F
100
AcDbEntity
  8
0
  6
Continuous
 62
     7
370
    25
100
AcDbSpline
210
0.0
220
0.0
230
1.0
 70
     8
 71
     3
 72
    23
 73
    19
 74
     0
 42
0.000000001
 43
0.00000001
 40
0.0
 40
0.0
 40
0.0
 40
0.0
 40
0.0449850911516383
 40
0.0909520670767777
 40
0.1379394291255006
 40
0.1859832248910951
 40
0.2351171761689533
 40
0.2853728096402591
 40
0.3367795876576951
 40
0.3893650370792399
 40
0.4431548745925064
 40
0.498173127394291
 40
0.5575107590849617
 40
0.6265492281305397
 40
0.7053073138942775
 40
0.7937970253739629
 40
0.8920262115920568
 40
1.0
 40
1.0
 40
1.0
 40
1.0
 10
355.1851482233631
 20
119.51520152071
 30
0.0
 10
355.1829855339975
 20
119.5147726190504
 30
0.0
 10
355.1786129504769
 20
119.5139054541406
 30
0.0
 10
355.1683319912854
 20
119.5068118865396
 30
0.0
 10
355.1552717132556
 20
119.4951991449606
 30
0.0
 10
355.1391525517014
 20
119.478409774788
 30
0.0
 10
355.1200521240453
 20
119.4563377881733
 30
0.0
 10
355.0979497712895
 20
119.42874031441
 30
0.0
 10
355.0728492927537
 20
119.3954318832006
 30
0.0
 10
355.0447581613758
 20
119.3562315447939
 30
0.0
 10
355.0136422605237
 20
119.3109894993207
 30
0.0
 10
354.9790033296416
 20
119.2585935669314
 30
0.0
 10
354.9382818213628
 20
119.1958110987122
 30
0.0
 10
354.8895609003381
 20
119.1180540994536
 30
0.0
 10
354.8317865620202
 20
119.0207695418751
 30
0.0
 10
354.7648759123751
 20
118.901024708156
 30
0.0
 10
354.6889319480816
 20
118.7571045032518
 30
0.0
 10
354.6345707833965
 20
118.6463702983588
 30
0.0
 10
354.606105719282
 20
118.5883866944349
 30
0.0
  0
LINE
  5
E6
330
1F
100
AcDbEntity
  8
0
  6
Continuous
 62
     7
370
    25
100
AcDbLine
 10
354.6061056717
 20
118.5889128613
 30
0.0
 11
354.2367664217
 21
118.9749977569
 31
0.0
  0
LINE
  5
E7
330
1F
100
AcDbEntity
  8
0
  6
Continuous
 62
     7
370
    25
100
AcDbLine
 10
375.9153808518
 20
118.9749381522
 30
0.0
 11
375.546114245
 21
118.5889300908
 31
0.0
  0
SPLINE
  5
E8
330
1F
100
AcDbEntity
  8
0
  6
Continuous
 62
     7
370
    25
100
AcDbSpline
210
0.0
220
0.0
230
1.0
 70
     8
 71
     3
 72
    26
 73
    22
 74
     0
 42
0.000000001
 43
0.00000001
 40
0.0
 40
0.0
 40
0.0
 40
0.0
 40
0.0509383868653979
 40
0.0998291548270505
 40
0.1466728126490638
 40
0.1914699456369332
 40
0.2342212299774179
 40
0.274927450668867
 40
0.3135895241747119
 40
0.3502085273716571
 40
0.3847857350077695
 40
0.4173226688482998
 40
0.4478211631571791
 40
0.4762834534603437
 40
0.5027122992246547
 40
0.593906700502561
 40
0.6816015993191188
 40
0.7659159552051488
 40
0.846983628966416
 40
0.9249552229440475
 40
1.0
 40
1.0
 40
1.0
 40
1.0
 10
375.5461146352269
 20
118.5881959641852
 30
0.0
 10
375.5326567710288
 20
118.6158167453495
 30
0.0
 10
375.5062820212311
 20
118.6699480088028
 30
0.0
 10
375.4679098414521
 20
118.7462560458779
 30
0.0
 10
375.4314436589599
 20
118.8170082254697
 30
0.0
 10
375.3969074093362
 20
118.8821800521578
 30
0.0
 10
375.3642949574834
 20
118.9420382974096
 30
0.0
 10
375.3336076736904
 20
118.9968034569509
 30
0.0
 10
375.3048450573892
 20
119.0467278482629
 30
0.0
 10
375.2780068929168
 20
119.092070078858
 30
0.0
 10
375.2530933124887
 20
119.1330960177988
 30
0.0
 10
375.2301026657
 20
119.1700734027459
 30
0.0
 10
375.2090391602103
 20
119.2032695187292
 30
0.0
 10
375.1898867898311
 20
119.2329452509965
 30
0.0
 10
375.1582157128862
 20
119.2816155760463
 30
0.0
 10
375.1167457674496
 20
119.343510893965
 30
0.0
 10
375.0697562513059
 20
119.4088515013888
 30
0.0
 10
375.031137681591
 20
119.4579698926805
 30
0.0
 10
375.0010892218696
 20
119.4914461811927
 30
0.0
 10
374.9787991109005
 20
119.5115636134307
 30
0.0
 10
374.9709037954671
 20
119.5140044472803
 30
0.0
 10
374.9670316464776
 20
119.51520152071
 30
0.0
  0
SPLINE
  5
E9
330
1F
100
AcDbEntity
  8
0
  6
Continuous
 62
     7
370
    25
100
AcDbSpline
210
0.0
220
0.0
230
1.0
 70
     8
 71
     3
 72
     8
 73
     4
 74
     0
 42
0.000000001
 43
0.00000001
 40
0.0
 40
0.0
 40
0.0
 40
0.0
 40
1.0
 40
1.0
 40
1.0
 40
1.0
 10
372.8177703867207
 20
118.7081998471927
 30
0.0
 10
372.8813633670607
 20
118.6425310693459
 30
0.0
 10
372.945319793496
 20
118.5781887716857
 30
0.0
 10
373.0095187132034
 20
118.51645152071
 30
0.0
  0
SPLINE
  5
EA
330
1F
100
AcDbEntity
  8
0
  6
Continuous
 62
     7
370
    25
100
AcDbSpline
210
0.0
220
0.0
230
1.0
 70
     8
 71
     3
 72
    25
 73
    21
 74
     0
 42
0.000000001
 43
0.00000001
 40
0.0
 40
0.0
 40
0.0
 40
0.0
 40
0.0367725003254103
 40
0.074208401060063
 40
0.1123590542807964
 40
0.1512729822568881
 40
0.190995910016845
 40
0.2315708273504481
 40
0.2730380740418892
 40
0.3154354426077851
 40
0.3587982934432034
 40
0.4031596779810961
 40
0.4485504661847858
 40
0.494999475376923
 40
0.5532504315673752
 40
0.621829488573267
 40
0.7007739996560722
 40
0.7901076726660372
 40
0.8898461547533933
 40
1.0
 40
1.0
 40
1.0
 40
1.0
 10
372.3758491994091
 20
119.5152015207096
 30
0.0
 10
372.376072973474
 20
119.5148768330759
 30
0.0
 10
372.3765245586369
 20
119.5142216002271
 30
0.0
 10
372.3812415985092
 20
119.5088592284394
 30
0.0
 10
372.3888942075918
 20
119.5001036347389
 30
0.0
 10
372.3997871867288
 20
119.487479416647
 30
0.0
 10
372.4138357731446
 20
119.4709230785166
 30
0.0
 10
372.4310626707538
 20
119.4502659011388
 30
0.0
 10
372.4514612235353
 20
119.425378165171
 30
0.0
 10
372.4750320368274
 20
119.3961306189776
 30
0.0
 10
372.5017773853871
 20
119.3624076837811
 30
0.0
 10
372.5316852388195
 20
119.3241018686557
 30
0.0
 10
372.5648013311641
 20
119.2811309733177
 30
0.0
 10
372.603727252738
 20
119.229709691647
 30
0.0
 10
372.6525553324546
 20
119.1654934599579
 30
0.0
 10
372.7144759370557
 20
119.0825989308633
 30
0.0
 10
372.7888604953766
 20
118.9786531806489
 30
0.0
 10
372.8758349233652
 20
118.8505669703916
 30
0.0
 10
372.9752597733478
 20
118.6964771904853
 30
0.0
 10
373.0466789490773
 20
118.5784129546148
 30
0.0
 10
373.0841605327582
 20
118.51645152071
 30
0.0
  0
LINE
  5
EB
330
1F
100
AcDbEntity
  8
0
  6
Continuous
 62
     7
370
    25
100
AcDbLine
 10
373.084160225
 20
118.5164513084
 30
0.0
 11
373.0095184459
 21
118.5164513084
 31
0.0
  0
SPLINE
  5
EC
330
1F
100
AcDbEntity
  8
0
  6
Continuous
 62
     7
370
    25
100
AcDbSpline
210
0.0
220
0.0
230
1.0
 70
     8
 71
     3
 72
    23
 73
    19
 74
     0
 42
0.000000001
 43
0.00000001
 40
0.0
 40
0.0
 40
0.0
 40
0.0
 40
0.0511129009857221
 40
0.1016896331838983
 40
0.1518293139104713
 40
0.201633670189439
 40
0.2512064936754081
 40
0.3006530343006331
 40
0.3500793489716449
 40
0.3995916247932065
 40
0.4492954981442684
 40
0.4992953912354716
 40
0.5872572780521574
 40
0.6724255494349275
 40
0.7555067762540824
 40
0.8372616735271673
 40
0.9184882400167564
 40
1.0
 40
1.0
 40
1.0
 40
1.0
 10
372.817833062846
 20
118.7084425632878
 30
0.0
 10
372.8018174789456
 20
118.7375711655188
 30
0.0
 10
372.7699543128826
 20
118.7955228141026
 30
0.0
 10
372.7229104744637
 20
118.8782806493208
 30
0.0
 10
372.6769319502887
 20
118.9573695078051
 30
0.0
 10
372.6321512834852
 20
119.0325864957392
 30
0.0
 10
372.5886675190493
 20
119.1040495507849
 30
0.0
 10
372.5465815554646
 20
119.1717909549732
 30
0.0
 10
372.5059870910673
 20
119.2358644667182
 30
0.0
 10
372.4669721847171
 20
119.2963180657894
 30
0.0
 10
372.4296223622296
 20
119.3531955707177
 30
0.0
 10
372.3850941056375
 20
119.4199100437782
 30
0.0
 10
372.3364538450964
 20
119.4912303276427
 30
0.0
 10
372.2886147453405
 20
119.5598105801018
 30
0.0
 10
372.2509632332596
 20
119.6128269081439
 30
0.0
 10
372.2241405318721
 20
119.6500995642715
 30
0.0
 10
372.2074117010486
 20
119.6731369638515
 30
0.0
 10
372.2055632910847
 20
119.6756716891167
 30
0.0
 10
372.2046374664644
 20
119.6769412727601
 30
0.0
  0
SPLINE
  5
ED
330
1F
100
AcDbEntity
  8
0
  6
Continuous
 62
     7
370
    25
100
AcDbSpline
210
0.0
220
0.0
230
1.0
 70
     8
 71
     3
 72
     8
 73
     4
 74
     0
 42
0.000000001
 43
0.00000001
 40
0.0
 40
0.0
 40
0.0
 40
0.0
 40
1.0
 40
1.0
 40
1.0
 40
1.0
 10
375.4799825819923
 20
118.5164515207099
 30
0.0
 10
375.5018679536355
 20
118.5407725369076
 30
0.0
 10
375.5237533252786
 20
118.56479713523
 30
0.0
 10
375.5456386969217
 20
118.5885039873185
 30
0.0
  0
LINE
  5
EE
330
1F
100
AcDbEntity
  8
0
  6
Continuous
 62
     7
370
    25
100
AcDbLine
 10
375.4798227041
 20
118.5164513084
 30
0.0
 11
373.084160225
 21
118.5164513084
 31
0.0
  0
SPLINE
  5
EF
330
1F
100
AcDbEntity
  8
0
  6
Continuous
 62
     7
370
    25
100
AcDbSpline
210
0.0
220
0.0
230
1.0
 70
     8
 71
     3
 72
     8
 73
     4
 74
     0
 42
0.000000001
 43
0.00000001
 40
0.0
 40
0.0
 40
0.0
 40
0.0
 40
1.0
 40
1.0
 40
1.0
 40
1.0
 10
354.606446947094
 20
118.5886075547986
 30
0.0
 10
354.6283637195816
 20
118.5648671062395
 30
0.0
 10
354.6502804920692
 20
118.5408079544529
 30
0.0
 10
354.6721972645567
 20
118.51645152071
 30
0.0
  0
SPLINE
  5
F0
330
1F
100
AcDbEntity
  8
0
  6
Continuous
 62
     7
370
    25
100
AcDbSpline
210
0.0
220
0.0
230
1.0
 70
     8
 71
     3
 72
    26
 73
    22
 74
     0
 42
0.000000001
 43
0.00000001
 40
0.0
 40
0.0
 40
0.0
 40
0.0
 40
0.0524616379932503
 40
0.1026498591890872
 40
0.150565513457809
 40
0.1962095861957063
 40
0.2395832262568645
 40
0.2806877815599511
 40
0.3195248450380211
 40
0.3560963147430692
 40
0.3904044736547445
 40
0.4224520974433627
 40
0.4522426027417772
 40
0.4797802555366611
 40
0.5050704712281336
 40
0.5966394156799991
 40
0.6841917884819224
 40
0.7679874773571101
 40
0.8483228539139507
 40
0.925534163520116
 40
1.0
 40
1.0
 40
1.0
 40
1.0
 10
357.0678417790041
 20
118.5164664127277
 30
0.0
 10
357.0857032632925
 20
118.5462398727688
 30
0.0
 10
357.1206522072682
 20
118.6044965646621
 30
0.0
 10
357.1714170407503
 20
118.6866955450267
 30
0.0
 10
357.2194869983921
 20
118.7627764139275
 30
0.0
 10
357.2648309711569
 20
118.8327277623938
 30
0.0
 10
357.3074569506622
 20
118.8968349243458
 30
0.0
 10
357.3473632491714
 20
118.955342763816
 30
0.0
 10
357.3845505782867
 20
119.008531341438
 30
0.0
 10
357.4190194008776
 20
119.0566893816751
 30
0.0
 10
357.4507694895098
 20
119.1001140549514
 30
0.0
 10
357.479803894111
 20
119.1391041460483
 30
0.0
 10
357.5061151833121
 20
119.1739582445748
 30
0.0
 10
357.5297318128562
 20
119.2049632390254
 30
0.0
 10
357.5693774918621
 20
119.2572064576583
 30
0.0
 10
357.6209157886612
 20
119.3247357909155
 30
0.0
 10
357.6777419256424
 20
119.396929237124
 30
0.0
 10
357.7218993536053
 20
119.4514131932465
 30
0.0
 10
357.7530769765473
 20
119.4886779844149
 30
0.0
 10
357.7725365431864
 20
119.5111423366896
 30
0.0
 10
357.7746781408669
 20
119.5138648861168
 30
0.0
 10
357.7757295574236
 20
119.51520152071
 30
0.0
  0
LINE
  5
F1
330
1F
100
AcDbEntity
  8
0
  6
Continuous
 62
     7
370
    25
100
AcDbLine
 10
357.0678417622
 20
118.5164513084
 30
0.0
 11
354.6721969782
 21
118.5164513084
 31
0.0
  0
LINE
  5
F2
330
1F
100
AcDbEntity
  8
0
  6
Continuous
 62
     7
370
    25
100
AcDbLine
 10
357.1426614239
 20
118.5164513084
 30
0.0
 11
357.0675418764
 21
118.5164513084
 31
0.0
  0
SPLINE
  5
F3
330
1F
100
AcDbEntity
  8
0
  6
Continuous
 62
     7
370
    25
100
AcDbSpline
210
0.0
220
0.0
230
1.0
 70
     8
 71
     3
 72
     8
 73
     4
 74
     0
 42
0.000000001
 43
0.00000001
 40
0.0
 40
0.0
 40
0.0
 40
0.0
 40
1.0
 40
1.0
 40
1.0
 40
1.0
 10
357.1426611566372
 20
118.5164515207099
 30
0.0
 10
357.206569959297
 20
118.5784203841411
 30
0.0
 10
357.270344878649
 20
118.6423964492577
 30
0.0
 10
357.33370494453
 20
118.7079311056035
 30
0.0
  0
SPLINE
  5
F4
330
1F
100
AcDbEntity
  8
0
  6
Continuous
 62
     7
370
    25
100
AcDbSpline
210
0.0
220
0.0
230
1.0
 70
     8
 71
     3
 72
    24
 73
    20
 74
     0
 42
0.000000001
 43
0.00000001
 40
0.0
 40
0.0
 40
0.0
 40
0.0
 40
0.0410257106287842
 40
0.0818520099077639
 40
0.1225800578354648
 40
0.1633117464058233
 40
0.2041489402806705
 40
0.2451927184749161
 40
0.2865426449235763
 40
0.3282960933646444
 40
0.370547647549383
 40
0.4133885920102291
 40
0.4569065022351533
 40
0.5011849368587563
 40
0.6001856774947433
 40
0.6987388860447942
 40
0.7976800645453981
 40
0.8978349910029445
 40
1.0
 40
1.0
 40
1.0
 40
1.0
 10
357.9472877504048
 20
119.6765916020415
 30
0.0
 10
357.9470929869637
 20
119.6763242518839
 30
0.0
 10
357.9467044067572
 20
119.6757908510626
 30
0.0
 10
357.9426496190829
 20
119.6702191050635
 30
0.0
 10
357.9360556601031
 20
119.6611383559097
 30
0.0
 10
357.9266913991931
 20
119.648200895549
 30
0.0
 10
357.9146432854231
 20
119.6314824526431
 30
0.0
 10
357.8999207159627
 20
119.6109404418713
 30
0.0
 10
357.8825617231154
 20
119.5865590678246
 30
0.0
 10
357.8626045519621
 20
119.5583103237527
 30
0.0
 10
357.8400955022665
 20
119.5261647763516
 30
0.0
 10
357.8150862665051
 20
119.4900879363854
 30
0.0
 10
357.7876368969803
 20
119.450044343866
 30
0.0
 10
357.7457137839131
 20
119.3881239005248
 30
0.0
 10
357.6865076087018
 20
119.2988114094283
 30
0.0
 10
357.6067280155816
 20
119.1742668173996
 30
0.0
 10
357.5207472305952
 20
119.0344820249098
 30
0.0
 10
357.4294624433732
 20
118.8800692059237
 30
0.0
 10
357.3662580893152
 20
118.7660231842728
 30
0.0
 10
357.3343419393497
 20
118.7084336402575
 30
0.0
  0
LINE
  5
F5
330
1F
100
AcDbEntity
  8
0
  6
Continuous
 62
     7
370
    25
100
AcDbLine
 10
354.2634488135
 20
109.9951463769
 30
0.0
 11
354.6876867353
 21
110.4439395497
 31
0.0
  0
SPLINE
  5
F6
330
1F
100
AcDbEntity
  8
0
  6
Continuous
 62
     7
370
    25
100
AcDbSpline
210
0.0
220
0.0
230
1.0
 70
     8
 71
     3
 72
    13
 73
     9
 74
     0
 42
0.000000001
 43
0.00000001
 40
0.0
 40
0.0
 40
0.0
 40
0.0
 40
0.170632084649598
 40
0.3395984165075754
 40
0.5069574111411415
 40
0.6727691830249297
 40
0.8370955447763889
 40
1.0
 40
1.0
 40
1.0
 40
1.0
 10
354.6876864477979
 20
110.4439187791807
 30
0.0
 10
354.6926919182068
 20
110.4369674060994
 30
0.0
 10
354.7026539943791
 20
110.4231325209672
 30
0.0
 10
354.715527822271
 20
110.4070047625103
 30
0.0
 10
354.7267941347669
 20
110.3943360323513
 30
0.0
 10
354.7362714982023
 20
110.3854795945123
 30
0.0
 10
354.744153730897
 20
110.3799675660325
 30
0.0
 10
354.7479686371304
 20
110.3792892199517
 30
0.0
 10
354.7498678018467
 20
110.37895152071
 30
0.0
  0
SPLINE
  5
F7
330
1F
100
AcDbEntity
  8
0
  6
Continuous
 62
     7
370
    25
100
AcDbSpline
210
0.0
220
0.0
230
1.0
 70
     8
 71
     3
 72
    13
 73
     9
 74
     0
 42
0.000000001
 43
0.00000001
 40
0.0
 40
0.0
 40
0.0
 40
0.0
 40
0.1621004456571512
 40
0.325943455157606
 40
0.4915935308260523
 40
0.6591130873964648
 40
0.8285624736043361
 40
1.0
 40
1.0
 40
1.0
 40
1.0
 10
375.4023120679939
 20
110.37895152071
 30
0.0
 10
375.4041891743361
 20
110.3792860038106
 30
0.0
 10
375.4079635657289
 20
110.3799585656723
 30
0.0
 10
375.4158106429078
 20
110.385431850068
 30
0.0
 10
375.425276702683
 20
110.3942513147283
 30
0.0
 10
375.4365576174853
 20
110.4069040717223
 30
0.0
 10
375.4494722359831
 20
110.4230560731187
 30
0.0
 10
375.4594679502288
 20
110.4369418730618
 30
0.0
 10
375.4644949561404
 20
110.4439252658124
 30
0.0
  0
LINE
  5
F8
330
1F
100
AcDbEntity
  8
0
  6
Continuous
 62
     7
370
    25
100
AcDbLine
 10
375.4645080357
 20
110.4439255799
 30
0.0
 11
375.888730125
 21
109.9951463769
 31
0.0
  0
LINE
  5
F9
330
1F
100
AcDbEntity
  8
0
  6
Continuous
 62
     7
370
    25
100
AcDbLine
 10
373.0095184459
 20
110.4539517331
 30
0.0
 11
373.0182402819
 21
110.4539517331
 31
0.0
  0
SPLINE
  5
FA
330
1F
100
AcDbEntity
  8
0
  6
Continuous
 62
     7
370
    25
100
AcDbSpline
210
0.0
220
0.0
230
1.0
 70
     8
 71
     3
 72
    13
 73
     9
 74
     0
 42
0.000000001
 43
0.00000001
 40
0.0
 40
0.0
 40
0.0
 40
0.0
 40
0.170527330366418
 40
0.3393382731715298
 40
0.5065592454659379
 40
0.672320302183991
 40
0.8367549624218703
 40
1.0
 40
1.0
 40
1.0
 40
1.0
 10
373.0182529026312
 20
110.4539513863945
 30
0.0
 10
373.0132174990888
 20
110.4459452636276
 30
0.0
 10
373.0031973742258
 20
110.430013601127
 30
0.0
 10
372.9913943315703
 20
110.4113965760177
 30
0.0
 10
372.982052227859
 20
110.3967575830311
 30
0.0
 10
372.9754566032363
 20
110.3865105135133
 30
0.0
 10
372.9713035805478
 20
110.3801275232446
 30
0.0
 10
372.9707777322389
 20
110.3793425716474
 30
0.0
 10
372.9705157626158
 20
110.37895152071
 30
0.0
  0
SPLINE
  5
FB
330
1F
100
AcDbEntity
  8
0
  6
Continuous
 62
     7
370
    25
100
AcDbSpline
210
0.0
220
0.0
230
1.0
 70
     8
 71
     3
 72
     8
 73
     4
 74
     0
 42
0.000000001
 43
0.00000001
 40
0.0
 40
0.0
 40
0.0
 40
0.0
 40
1.0
 40
1.0
 40
1.0
 40
1.0
 10
375.4645079971333
 20
110.4439258788796
 30
0.0
 10
375.4623245128922
 20
110.4467745443959
 30
0.0
 10
375.460141028651
 20
110.4497153357934
 30
0.0
 10
375.4579575444099
 20
110.45274783307
 30
0.0
  0
LINE
  5
FC
330
1F
100
AcDbEntity
  8
0
  6
Continuous
 62
     7
370
    25
100
AcDbLine
 10
375.4570546611
 20
110.4539517331
 30
0.0
 11
373.0182440071
 21
110.4539517331
 31
0.0
  0
SPLINE
  5
FD
330
1F
100
AcDbEntity
  8
0
  6
Continuous
 62
     7
370
    25
100
AcDbSpline
210
0.0
220
0.0
230
1.0
 70
     8
 71
     3
 72
     8
 73
     4
 74
     0
 42
0.000000001
 43
0.00000001
 40
0.0
 40
0.0
 40
0.0
 40
0.0
 40
1.0
 40
1.0
 40
1.0
 40
1.0
 10
354.6951250918401
 20
110.4539515207176
 30
0.0
 10
354.6926391731535
 20
110.4504898214056
 30
0.0
 10
354.690153254467
 20
110.4471456694967
 30
0.0
 10
354.6876673357805
 20
110.4439196775563
 30
0.0
  0
LINE
  5
FE
330
1F
100
AcDbEntity
  8
0
  6
Continuous
 62
     7
370
    25
100
AcDbLine
 10
357.1324289828
 20
110.4539517331
 30
0.0
 11
354.6953412755
 21
110.4539517331
 31
0.0
  0
SPLINE
  5
FF
330
1F
100
AcDbEntity
  8
0
  6
Continuous
 62
     7
370
    25
100
AcDbSpline
210
0.0
220
0.0
230
1.0
 70
     8
 71
     3
 72
    13
 73
     9
 74
     0
 42
0.000000001
 43
0.00000001
 40
0.0
 40
0.0
 40
0.0
 40
0.0
 40
0.1631595583870535
 40
0.3275424452489252
 40
0.4932858679997912
 40
0.6605236853065742
 40
0.8293862019229544
 40
1.0
 40
1.0
 40
1.0
 40
1.0
 10
357.1816641072248
 20
110.37895152071
 30
0.0
 10
357.1814062617382
 20
110.3793421711025
 30
0.0
 10
357.1808886375056
 20
110.380126400884
 30
0.0
 10
357.1767420412617
 20
110.3865045701187
 30
0.0
 10
357.1701487625861
 20
110.3967470162662
 30
0.0
 10
357.1608043677086
 20
110.411383932315
 30
0.0
 10
357.1489945546949
 20
110.4300037911648
 30
0.0
 10
357.1389678373804
 20
110.4459414988122
 30
0.0
 10
357.1339286159407
 20
110.4539514621489
 30
0.0
  0
LINE
  5
100
330
1F
100
AcDbEntity
  8
0
  6
Continuous
 62
     7
370
    25
100
AcDbLine
 10
357.1339386567
 20
110.4539517331
 30
0.0
 11
357.1426614239
 21
110.4539517331
 31
0.0
  0
SPLINE
  5
101
330
1F
100
AcDbEntity
  8
0
  6
Continuous
 62
     7
370
    25
100
AcDbSpline
210
0.0
220
0.0
230
1.0
 70
     8
 71
     3
 72
    14
 73
    10
 74
     0
 42
0.000000001
 43
0.00000001
 40
0.0
 40
0.0
 40
0.0
 40
0.0
 40
0.0310276388071746
 40
0.0622853718672815
 40
0.1248003166904892
 40
0.2498289731753984
 40
0.499889260361071
 40
0.7606803621682141
 40
1.0
 40
1.0
 40
1.0
 40
1.0
 10
354.1159959404611
 20
109.9972133460946
 30
0.0
 10
354.1203252339263
 20
110.0019972683727
 30
0.0
 10
354.1290159259597
 20
110.011600589461
 30
0.0
 10
354.1464167046219
 20
110.0308949034588
 30
0.0
 10
354.1768928644669
 20
110.0646598499124
 30
0.0
 10
354.2377142572863
 20
110.1320786087742
 30
0.0
 10
354.3256045996995
 20
110.2295452836411
 30
0.0
 10
354.428442279783
 20
110.343689795538
 30
0.0
 10
354.4956483912247
 20
110.4184746085446
 30
0.0
 10
354.5278087528715
 20
110.4542616311888
 30
0.0
  0
LINE
  5
102
330
1F
100
AcDbEntity
  8
0
  6
Continuous
 62
     7
370
    25
100
AcDbLine
 10
354.527480626
 20
110.4539517331
 30
0.0
 11
354.6951252087
 21
110.4539517331
 31
0.0
  0
LINE
  5
103
330
1F
100
AcDbEntity
  8
0
  6
Continuous
 62
     7
370
    25
100
AcDbLine
 10
375.4570546611
 20
110.4539517331
 30
0.0
 11
375.6247066944
 21
110.4539517331
 31
0.0
  0
SPLINE
  5
104
330
1F
100
AcDbEntity
  8
0
  6
Continuous
 62
     7
370
    25
100
AcDbSpline
210
0.0
220
0.0
230
1.0
 70
     8
 71
     3
 72
    11
 73
     7
 74
     0
 42
0.000000001
 43
0.00000001
 40
0.0
 40
0.0
 40
0.0
 40
0.0
 40
0.2392913844325938
 40
0.5001130135003002
 40
0.7515028526498353
 40
0.9999999999999999
 40
0.9999999999999999
 40
0.9999999999999999
 40
0.9999999999999999
 10
375.6244031875906
 20
110.4542383232216
 30
0.0
 10
375.6565597405703
 20
110.4184616046442
 30
0.0
 10
375.7237661326959
 20
110.3436891568886
 30
0.0
 10
375.8267942224434
 20
110.2292304435658
 30
0.0
 10
375.9318848870604
 20
110.1130712574459
 30
0.0
 10
376.0015597071402
 20
110.0356833161503
 30
0.0
 10
376.0361955238338
 20
109.9972132555754
 30
0.0
  0
LINE
  5
105
330
1F
100
AcDbEntity
  8
0
  6
Continuous
 62
     7
370
    25
100
AcDbLine
 10
354.6721969782
 20
118.5164513084
 30
0.0
 11
354.527624981
 21
118.5164513084
 31
0.0
  0
SPLINE
  5
106
330
1F
100
AcDbEntity
  8
0
  6
Continuous
 62
     7
370
    25
100
AcDbSpline
210
0.0
220
0.0
230
1.0
 70
     8
 71
     3
 72
    11
 73
     7
 74
     0
 42
0.000000001
 43
0.00000001
 40
0.0
 40
0.0
 40
0.0
 40
0.0
 40
0.2392845094479873
 40
0.5001120454076898
 40
0.7515010915036774
 40
1.0
 40
1.0
 40
1.0
 40
1.0
 10
354.5279275907106
 20
118.5161657345134
 30
0.0
 10
354.4957664609407
 20
118.5519635835752
 30
0.0
 10
354.4285487023445
 20
118.6267821982729
 30
0.0
 10
354.3255040538464
 20
118.7413104625281
 30
0.0
 10
354.2203958249596
 20
118.8575414562024
 30
0.0
 10
354.1507103083323
 20
118.9349759518935
 30
0.0
 10
354.1160689958925
 20
118.9734693532296
 30
0.0
  0
SPLINE
  5
107
330
1F
100
AcDbEntity
  8
0
  6
Continuous
 62
     7
370
    25
100
AcDbSpline
210
0.0
220
0.0
230
1.0
 70
     8
 71
     3
 72
    14
 73
    10
 74
     0
 42
0.000000001
 43
0.00000001
 40
0.0
 40
0.0
 40
0.0
 40
0.0
 40
0.031029414748255
 40
0.0622870907562092
 40
0.1248019217225762
 40
0.249830351143087
 40
0.4998901825554788
 40
0.7606872170552411
 40
1.0
 40
1.0
 40
1.0
 40
1.0
 10
376.0360992586229
 20
118.9734692449534
 30
0.0
 10
376.0317690623073
 20
118.9686820583834
 30
0.0
 10
376.0230768155122
 20
118.9590724693283
 30
0.0
 10
376.0056731871647
 20
118.9397664756223
 30
0.0
 10
375.9751924516296
 20
118.9059812599703
 30
0.0
 10
375.9143618299074
 20
118.8385221290228
 30
0.0
 10
375.8264569267408
 20
118.7409956233125
 30
0.0
 10
375.7236026821238
 20
118.626781616538
 30
0.0
 10
375.6563852239774
 20
118.551950656433
 30
0.0
 10
375.624220294575
 20
118.5161425105248
 30
0.0
  0
LINE
  5
108
330
1F
100
AcDbEntity
  8
0
  6
Continuous
 62
     7
370
    25
100
AcDbLine
 10
375.6245474382
 20
118.5164513084
 30
0.0
 11
375.4799828916
 21
118.5164513084
 31
0.0
  0
LINE
  5
109
330
1F
100
AcDbEntity
  8
0
  6
Continuous
 62
     7
370
    25
100
AcDbLine
 10
353.2054216652
 20
112.2978637944
 30
0.0
 11
353.6454846202
 21
112.3789514898
 31
0.0
  0
SPLINE
  5
10A
330
1F
100
AcDbEntity
  8
0
  6
Continuous
 62
     7
370
    25
100
AcDbSpline
210
0.0
220
0.0
230
1.0
 70
     8
 71
     3
 72
    25
 73
    21
 74
     0
 42
0.000000001
 43
0.00000001
 40
0.0
 40
0.0
 40
0.0
 40
0.0
 40
0.0274788704223154
 40
0.0560416006850518
 40
0.0856947086352136
 40
0.116444016653826
 40
0.1482947438681133
 40
0.1812515840470034
 40
0.2153187716748716
 40
0.2505001382254911
 40
0.333051455250936
 40
0.5015081958163736
 40
0.5771663066143947
 40
0.648898130302521
 40
0.716747770006283
 40
0.7807674423488066
 40
0.84101941313403
 40
0.8975784849924567
 40
0.9505352047788314
 40
1.0
 40
1.0
 40
1.0
 40
1.0
 10
353.6454847275091
 20
112.37895152071
 30
0.0
 10
353.6521928948525
 20
112.3497693161925
 30
0.0
 10
353.6658738224093
 20
112.2902538620438
 30
0.0
 10
353.6886385510631
 20
112.1998633649851
 30
0.0
 10
353.7135161883035
 20
112.1067317558639
 30
0.0
 10
353.740655426321
 20
112.011145711589
 30
0.0
 10
353.7700168333523
 20
111.9133922419758
 30
0.0
 10
353.8016020036403
 20
111.8138115659183
 30
0.0
 10
353.8354488735051
 20
111.7128024263397
 30
0.0
 10
353.887150103438
 20
111.5660356190887
 30
0.0
 10
353.9915091164517
 20
111.3017692061743
 30
0.0
 10
354.1123823441354
 20
111.0317995763458
 30
0.0
 10
354.2258753905925
 20
110.8143899016296
 30
0.0
 10
354.2971483582083
 20
110.6846863308991
 30
0.0
 10
354.3592229303343
 20
110.5808112535742
 30
0.0
 10
354.4118069425016
 20
110.5009506197557
 30
0.0
 10
354.455053488429
 20
110.4429319936051
 30
0.0
 10
354.4886603006492
 20
110.4048284349527
 30
0.0
 10
354.5136072835218
 20
110.382825903958
 30
0.0
 10
354.5225668203838
 20
110.3802132906067
 30
0.0
 10
354.5268938571019
 20
110.37895152071
 30
0.0
  0
LINE
  5
10B
330
1F
100
AcDbEntity
  8
0
  6
Continuous
 62
     7
370
    25
100
AcDbLine
 10
376.9467582046
 20
116.6725392471
 30
0.0
 11
376.5066952496
 21
116.5914515516
 31
0.0
  0
SPLINE
  5
10C
330
1F
100
AcDbEntity
  8
0
  6
Continuous
 62
     7
370
    25
100
AcDbSpline
210
0.0
220
0.0
230
1.0
 70
     8
 71
     3
 72
    25
 73
    21
 74
     0
 42
0.000000001
 43
0.00000001
 40
0.0
 40
0.0
 40
0.0
 40
0.0
 40
0.0274788704223041
 40
0.0560416006850305
 40
0.0856947086351823
 40
0.1164440166537841
 40
0.1482947438680617
 40
0.1812515840469434
 40
0.2153187716748025
 40
0.2505001382254136
 40
0.3330514552861967
 40
0.5015081958164245
 40
0.5771663066128696
 40
0.6488981302998588
 40
0.7167477700029257
 40
0.7807674423452041
 40
0.8410194131306359
 40
0.8975784849897311
 40
0.950535204777236
 40
1.0
 40
1.0
 40
1.0
 40
1.0
 10
376.5066951423315
 20
116.59145152071
 30
0.0
 10
376.4999869749881
 20
116.6206337252275
 30
0.0
 10
376.4863060474314
 20
116.6801491793762
 30
0.0
 10
376.4635413187774
 20
116.7705396764349
 30
0.0
 10
376.438663681537
 20
116.863671285556
 30
0.0
 10
376.4115244435196
 20
116.9592573298309
 30
0.0
 10
376.3821630364882
 20
117.0570107994442
 30
0.0
 10
376.3505778662002
 20
117.1565914755017
 30
0.0
 10
376.3167309963354
 20
117.2576006150802
 30
0.0
 10
376.2650297663902
 20
117.4043674223654
 30
0.0
 10
376.1606707533792
 20
117.6686338352779
 30
0.0
 10
376.0397975256935
 20
117.938603465097
 30
0.0
 10
375.9263044792482
 20
118.1560131397873
 30
0.0
 10
375.8550315116326
 20
118.2857167105163
 30
0.0
 10
375.7929569395068
 20
118.3895917878409
 30
0.0
 10
375.7403729273396
 20
118.4694524216603
 30
0.0
 10
375.6971263814121
 20
118.5274710478121
 30
0.0
 10
375.6635195691919
 20
118.5655746064659
 30
0.0
 10
375.638572586319
 20
118.5875771374617
 30
0.0
 10
375.6296130494569
 20
118.5901897508132
 30
0.0
 10
375.6252860127387
 20
118.59145152071
 30
0.0
  0
SPLINE
  5
10D
330
1F
100
AcDbEntity
  8
0
  6
Continuous
 62
     7
370
    25
100
AcDbSpline
210
0.0
220
0.0
230
1.0
 70
     8
 71
     3
 72
    25
 73
    21
 74
     0
 42
0.000000001
 43
0.00000001
 40
0.0
 40
0.0
 40
0.0
 40
0.0
 40
0.0288821753110086
 40
0.0583636594013118
 40
0.0884647204314734
 40
0.1192044006626603
 40
0.150600580009491
 40
0.1826700399677263
 40
0.2154285269580574
 40
0.248890814337993
 40
0.361059447124065
 40
0.4984670131067773
 40
0.5822693905007604
 40
0.666112764278331
 40
0.7499972937224478
 40
0.8007709755049082
 40
0.8511237700832938
 40
0.9010896024531745
 40
0.9507031914125761
 40
1.0
 40
1.0
 40
1.0
 40
1.0
 10
354.5268938571019
 20
118.59145152071
 30
0.0
 10
354.5246035887242
 20
118.5910232787341
 30
0.0
 10
354.5199755286112
 20
118.5901579087073
 30
0.0
 10
354.5096652655238
 20
118.5830829760057
 30
0.0
 10
354.496829196293
 20
118.5715144348452
 30
0.0
 10
354.4812156375503
 20
118.5548088587328
 30
0.0
 10
354.4628941941377
 20
118.5328719477166
 30
0.0
 10
354.4418466083066
 20
118.5054743122319
 30
0.0
 10
354.4180750363145
 20
118.4724398315498
 30
0.0
 10
354.371018506878
 20
118.403449165422
 30
0.0
 10
354.2833240890211
 20
118.2634231960003
 30
0.0
 10
354.1657724344877
 20
118.0441278947959
 30
0.0
 10
354.0542502701463
 20
117.8071978340247
 30
0.0
 10
353.9627909527982
 20
117.5913559601148
 30
0.0
 10
353.8819093016207
 20
117.389794339233
 30
0.0
 10
353.8157643997527
 20
117.2109262588408
 30
0.0
 10
353.7664138389255
 20
117.0595500576969
 30
0.0
 10
353.7214468220606
 20
116.9053059025739
 30
0.0
 10
353.6806891081415
 20
116.7491500474983
 30
0.0
 10
353.6571944389242
 20
116.6439053405503
 30
0.0
 10
353.6454847275091
 20
116.59145152071
 30
0.0
  0
LINE
  5
10E
330
1F
100
AcDbEntity
  8
0
  6
Continuous
 62
     7
370
    25
100
AcDbLine
 10
353.2054216652
 20
116.6725392471
 30
0.0
 11
353.6454846202
 21
116.5914515516
 31
0.0
  0
SPLINE
  5
10F
330
1F
100
AcDbEntity
  8
0
  6
Continuous
 62
     7
370
    25
100
AcDbSpline
210
0.0
220
0.0
230
1.0
 70
     8
 71
     3
 72
    25
 73
    21
 74
     0
 42
0.000000001
 43
0.00000001
 40
0.0
 40
0.0
 40
0.0
 40
0.0
 40
0.0288821753116583
 40
0.0583636594024247
 40
0.088464720432864
 40
0.1192044006641432
 40
0.1506005800108822
 40
0.1826700399688414
 40
0.2154285269587146
 40
0.2488908143380118
 40
0.3610594471217245
 40
0.498467013106778
 40
0.5822693905006526
 40
0.6661127642782239
 40
0.7499972937224496
 40
0.8007709755032478
 40
0.8511237700807983
 40
0.901089602450676
 40
0.9507031914109089
 40
1.0
 40
1.0
 40
1.0
 40
1.0
 10
375.6252860127387
 20
110.37895152071
 30
0.0
 10
375.6275762811164
 20
110.3793797626859
 30
0.0
 10
375.6322043412295
 20
110.3802451327128
 30
0.0
 10
375.6425146043169
 20
110.3873200654147
 30
0.0
 10
375.6553506735478
 20
110.3988886065754
 30
0.0
 10
375.6709642322905
 20
110.4155941826881
 30
0.0
 10
375.6892856757031
 20
110.4375310937045
 30
0.0
 10
375.7103332615342
 20
110.4649287291891
 30
0.0
 10
375.7341048335261
 20
110.4979632098709
 30
0.0
 10
375.7811613629625
 20
110.5669538759974
 30
0.0
 10
375.8688557808202
 20
110.706979845418
 30
0.0
 10
375.9864074353522
 20
110.9262751466222
 30
0.0
 10
376.0979295996931
 20
111.1632052073955
 30
0.0
 10
376.1893889170412
 20
111.3790470813054
 30
0.0
 10
376.2702705682191
 20
111.5806087021855
 30
0.0
 10
376.3364154700871
 20
111.759476782575
 30
0.0
 10
376.3857660309136
 20
111.9108529837162
 30
0.0
 10
376.4307330477785
 20
112.065097138839
 30
0.0
 10
376.4714907616983
 20
112.2212529939172
 30
0.0
 10
376.494985430916
 20
112.3264977008679
 30
0.0
 10
376.5066951423315
 20
112.37895152071
 30
0.0
  0
LINE
  5
110
330
1F
100
AcDbEntity
  8
0
  6
Continuous
 62
     7
370
    25
100
AcDbLine
 10
376.9467582046
 20
112.2978637944
 30
0.0
 11
376.5066952496
 21
112.3789514898
 31
0.0
  0
SPLINE
  5
111
330
1F
100
AcDbEntity
  8
0
  6
Continuous
 62
     7
370
    25
100
AcDbSpline
210
0.0
220
0.0
230
1.0
 70
     8
 71
     3
 72
    15
 73
    11
 74
     0
 42
0.000000001
 43
0.00000001
 40
0.0
 40
0.0
 40
0.0
 40
0.0
 40
0.1351922525168508
 40
0.295505352053604
 40
0.3941605101370091
 40
0.4930224738308925
 40
0.5920945925114958
 40
0.7581984282951001
 40
0.9106346529387762
 40
1.0
 40
1.0
 40
1.0
 40
1.0
 10
356.1782321943988
 20
116.5914515516299
 30
0.0
 10
356.2134930718302
 20
116.7118705028672
 30
0.0
 10
356.2905668523545
 20
116.9750841406077
 30
0.0
 10
356.4153603892321
 20
117.3073067023675
 30
0.0
 10
356.532263914557
 20
117.586801102347
 30
0.0
 10
356.6298487634065
 20
117.8018155674636
 30
0.0
 10
356.7539284205284
 20
118.0404473591247
 30
0.0
 10
356.8845414703006
 20
118.2711247285308
 30
0.0
 10
356.9876198082923
 20
118.4483201689555
 30
0.0
 10
357.021578366975
 20
118.5020247807503
 30
0.0
 10
357.0341288163414
 20
118.5218730027366
 30
0.0
  0
SPLINE
  5
112
330
1F
100
AcDbEntity
  8
0
  6
Continuous
 62
     7
370
    25
100
AcDbSpline
210
0.0
220
0.0
230
1.0
 70
     8
 71
     3
 72
    15
 73
    11
 74
     0
 42
0.000000001
 43
0.00000001
 40
0.0
 40
0.0
 40
0.0
 40
0.0
 40
0.1361835767353471
 40
0.2976722041233961
 40
0.3970507708760626
 40
0.4966376596826896
 40
0.5964362444794897
 40
0.763758069845573
 40
0.9173120635806887
 40
0.9999999999999999
 40
0.9999999999999999
 40
0.9999999999999999
 40
0.9999999999999999
 10
373.9739476754417
 20
112.3789514897901
 30
0.0
 10
373.9386867649943
 20
112.2585324760596
 30
0.0
 10
373.861612912303
 20
111.9953187017206
 30
0.0
 10
373.7368199103861
 20
111.6630971525403
 30
0.0
 10
373.6199150193455
 20
111.3836001675198
 30
0.0
 10
373.5223346671272
 20
111.168594213673
 30
0.0
 10
373.3982343018802
 20
110.9299232254595
 30
0.0
 10
373.2677479410736
 20
110.6994856542333
 30
0.0
 10
373.1661047902524
 20
110.5246870948659
 30
0.0
 10
373.1330050227545
 20
110.4722910662822
 30
0.0
 10
373.1214196472516
 20
110.4539517330515
 30
0.0
  0
SPLINE
  5
113
330
1F
100
AcDbEntity
  8
0
  6
Continuous
 62
     7
370
    25
100
AcDbSpline
210
0.0
220
0.0
230
1.0
 70
     8
 71
     3
 72
    15
 73
    11
 74
     0
 42
0.000000001
 43
0.00000001
 40
0.0
 40
0.0
 40
0.0
 40
0.0
 40
0.0210214847137796
 40
0.0995173547081305
 40
0.2360971400771362
 40
0.3979401334474181
 40
0.5486162591715825
 40
0.7000321895560188
 40
0.8517812990240201
 40
0.9999999999999999
 40
0.9999999999999999
 40
0.9999999999999999
 40
0.9999999999999999
 10
357.0293138786306
 20
110.4539517330515
 30
0.0
 10
357.0264653773764
 20
110.4584363426447
 30
0.0
 10
357.0129803493888
 20
110.4796668356232
 30
0.0
 10
356.9655714853598
 20
110.5568020247773
 30
0.0
 10
356.872429667208
 20
110.7127314588215
 30
0.0
 10
356.73601058363
 20
110.9617469232643
 30
0.0
 10
356.5866881474128
 20
111.2713859196589
 30
0.0
 10
356.4335230117003
 20
111.6133497937623
 30
0.0
 10
356.287890244986
 20
111.9844586364478
 30
0.0
 10
356.2144969489049
 20
112.248489691461
 30
0.0
 10
356.1782321943988
 20
112.3789514897901
 30
0.0
  0
LINE
  5
114
330
1F
100
AcDbEntity
  8
0
  6
Continuous
 62
     7
370
    25
100
AcDbLine
 10
356.4944925769
 20
116.5165881178
 30
0.0
 11
356.1782321944
 21
116.5914515516
 31
0.0
  0
SPLINE
  5
115
330
1F
100
AcDbEntity
  8
0
  6
Continuous
 62
     7
370
    25
100
AcDbSpline
210
0.0
220
0.0
230
1.0
 70
     8
 71
     3
 72
    25
 73
    21
 74
     0
 42
0.000000001
 43
0.00000001
 40
0.0
 40
0.0
 40
0.0
 40
0.0
 40
0.0278144320063462
 40
0.0555680196245754
 40
0.083331625367772
 40
0.111176035216759
 40
0.1391714221532265
 40
0.1673868326284763
 40
0.1958897140434718
 40
0.2247454979318961
 40
0.254017249222145
 40
0.3796724410016501
 40
0.5056484635002454
 40
0.629752729069345
 40
0.7535891720571729
 40
0.8038564806093713
 40
0.853339684343451
 40
0.9023264398358534
 40
0.9511131859219439
 40
1.0
 40
1.0
 40
1.0
 40
1.0
 10
357.3621138456318
 20
118.7589498118925
 30
0.0
 10
357.3619660943171
 20
118.758683269339
 30
0.0
 10
357.3616709148953
 20
118.7581507672967
 30
0.0
 10
357.3580462158795
 20
118.7516033186006
 30
0.0
 10
357.3521003202092
 20
118.7408340753144
 30
0.0
 10
357.3436255972941
 20
118.7254233393901
 30
0.0
 10
357.332710610455
 20
118.7054669631363
 30
0.0
 10
357.3193745422166
 20
118.6809168666659
 30
0.0
 10
357.3036667775297
 20
118.6517602429099
 30
0.0
 10
357.2856351893718
 20
118.6179642714765
 30
0.0
 10
357.2432176446234
 20
118.5375575134187
 30
0.0
 10
357.16269660487
 20
118.3805690637481
 30
0.0
 10
357.0292702579954
 20
118.0987833260007
 30
0.0
 10
356.8851932813122
 20
117.7609112163737
 30
0.0
 10
356.7695155298609
 20
117.4522303026354
 30
0.0
 10
356.6870040546436
 20
117.2061995828804
 30
0.0
 10
356.6340824301185
 20
117.0373736916072
 30
0.0
 10
356.5842252957411
 20
116.8660581205955
 30
0.0
 10
356.5372073025105
 20
116.6923757703747
 30
0.0
 10
356.508740291782
 20
116.5752240820712
 30
0.0
 10
356.4944922039832
 20
116.5165882261099
 30
0.0
  0
LINE
  5
116
330
1F
100
AcDbEntity
  8
0
  6
Continuous
 62
     7
370
    25
100
AcDbLine
 10
356.4944925769
 20
112.4538149236
 30
0.0
 11
356.1782321944
 21
112.3789514898
 31
0.0
  0
SPLINE
  5
117
330
1F
100
AcDbEntity
  8
0
  6
Continuous
 62
     7
370
    25
100
AcDbSpline
210
0.0
220
0.0
230
1.0
 70
     8
 71
     3
 72
    25
 73
    21
 74
     0
 42
0.000000001
 43
0.00000001
 40
0.0
 40
0.0
 40
0.0
 40
0.0
 40
0.0269872354797669
 40
0.0539362690259618
 40
0.0809037148829035
 40
0.1079460716545392
 40
0.1351193706855853
 40
0.162478838835575
 40
0.190078585418252
 40
0.2179713214290535
 40
0.2462081170984584
 40
0.3700050494705653
 40
0.4947542611659071
 40
0.6210439034695193
 40
0.7446557472315123
 40
0.7967060293738726
 40
0.8478613449329371
 40
0.8985210411990388
 40
0.9490962115257747
 40
1.0
 40
1.0
 40
1.0
 40
1.0
 10
356.4944922039832
 20
112.4538148153101
 30
0.0
 10
356.5022729487072
 20
112.4214184102824
 30
0.0
 10
356.5178234240783
 20
112.3566714591411
 30
0.0
 10
356.5425088300515
 20
112.2600249227124
 30
0.0
 10
356.5681287870505
 20
112.1639308342211
 30
0.0
 10
356.594771650678
 20
112.0684185635044
 30
0.0
 10
356.6223968359624
 20
111.9734938361118
 30
0.0
 10
356.6509986150217
 20
111.8791676799761
 30
0.0
 10
356.6805607046632
 20
111.7854513355268
 30
0.0
 10
356.7110738517104
 20
111.6923472516365
 30
0.0
 10
356.7778080562996
 20
111.4960820095235
 30
0.0
 10
356.8849912323954
 20
111.2100088939202
 30
0.0
 10
357.0287713227042
 20
110.8727189979268
 30
0.0
 10
357.162019778916
 20
110.5912098211033
 30
0.0
 10
357.2496909551293
 20
110.4202188909249
 30
0.0
 10
357.3005659909215
 20
110.3243060725425
 30
0.0
 10
357.3282351455729
 20
110.2730888690878
 30
0.0
 10
357.3479340636905
 20
110.2371060750027
 30
0.0
 10
357.360181572394
 20
110.2149361866808
 30
0.0
 10
357.36146836555
 20
110.2126167189472
 30
0.0
 10
357.3621138456318
 20
110.2114532295275
 30
0.0
  0
SPLINE
  5
118
330
1F
100
AcDbEntity
  8
0
  6
Continuous
 62
     7
370
    25
100
AcDbSpline
210
0.0
220
0.0
230
1.0
 70
     8
 71
     3
 72
    15
 73
    11
 74
     0
 42
0.000000001
 43
0.00000001
 40
0.0
 40
0.0
 40
0.0
 40
0.0
 40
0.0210214847137796
 40
0.0995173547081305
 40
0.2360971400771362
 40
0.3979401334474181
 40
0.5486162591715825
 40
0.7000321895560188
 40
0.8517812990240201
 40
0.9999999999999999
 40
0.9999999999999999
 40
0.9999999999999999
 40
0.9999999999999999
 10
373.1228659912099
 20
118.5164513083684
 30
0.0
 10
373.1257144924642
 20
118.5119666987753
 30
0.0
 10
373.1391995204518
 20
118.4907362057968
 30
0.0
 10
373.1866083844808
 20
118.4136010166427
 30
0.0
 10
373.2797502026326
 20
118.2576715825985
 30
0.0
 10
373.4161692862105
 20
118.0086561181557
 30
0.0
 10
373.5654917224278
 20
117.6990171217611
 30
0.0
 10
373.7186568581403
 20
117.3570532476577
 30
0.0
 10
373.8642896248546
 20
116.9859444049722
 30
0.0
 10
373.9376829209356
 20
116.721913349959
 30
0.0
 10
373.9739476754417
 20
116.5914515516299
 30
0.0
  0
LINE
  5
119
330
1F
100
AcDbEntity
  8
0
  6
Continuous
 62
     7
370
    25
100
AcDbLine
 10
373.6576872929
 20
116.5165881178
 30
0.0
 11
373.9739476754
 21
116.5914515516
 31
0.0
  0
SPLINE
  5
11A
330
1F
100
AcDbEntity
  8
0
  6
Continuous
 62
     7
370
    25
100
AcDbSpline
210
0.0
220
0.0
230
1.0
 70
     8
 71
     3
 72
    14
 73
    10
 74
     0
 42
0.000000001
 43
0.00000001
 40
0.0
 40
0.0
 40
0.0
 40
0.0
 40
0.1400505481383316
 40
0.2837940635646364
 40
0.4267314741655509
 40
0.5707685044357909
 40
0.7165840938251985
 40
0.8593077005344127
 40
1.0
 40
1.0
 40
1.0
 40
1.0
 10
373.6576872929086
 20
116.516588117792
 30
0.0
 10
373.6209205027838
 20
116.6621481349878
 30
0.0
 10
373.5464174257701
 20
116.9571064148494
 30
0.0
 10
373.411228278834
 20
117.3751707794483
 30
0.0
 10
373.2673436163192
 20
117.7602232895794
 30
0.0
 10
373.1232078279268
 20
118.0980315697208
 30
0.0
 10
372.9908108023754
 20
118.3779718198797
 30
0.0
 10
372.8798909313399
 20
118.5941126956471
 30
0.0
 10
372.838555065865
 20
118.6701759227864
 30
0.0
 10
372.8180352649738
 20
118.7079349549997
 30
0.0
  0
LINE
  5
11B
330
1F
100
AcDbEntity
  8
0
  6
Continuous
 62
     7
370
    25
100
AcDbLine
 10
373.6576872929
 20
112.4538149236
 30
0.0
 11
373.9739476754
 21
112.3789514898
 31
0.0
  0
SPLINE
  5
11C
330
1F
100
AcDbEntity
  8
0
  6
Continuous
 62
     7
370
    25
100
AcDbSpline
210
0.0
220
0.0
230
1.0
 70
     8
 71
     3
 72
    25
 73
    21
 74
     0
 42
0.000000001
 43
0.00000001
 40
0.0
 40
0.0
 40
0.0
 40
0.0
 40
0.0278144320057649
 40
0.0555680196235595
 40
0.083331625366468
 40
0.1111760352153128
 40
0.1391714221517827
 40
0.1673868326271739
 40
0.195889714042447
 40
0.2247454979312803
 40
0.2540172492220635
 40
0.3796724409988544
 40
0.505648463500191
 40
0.6297527290689083
 40
0.7535891720572004
 40
0.803856480609888
 40
0.85333968434422
 40
0.902326439836625
 40
0.9511131859224594
 40
1.0
 40
1.0
 40
1.0
 40
1.0
 10
372.7900660242088
 20
110.2114532295275
 30
0.0
 10
372.7902137755235
 20
110.2117197720811
 30
0.0
 10
372.7905089549453
 20
110.2122522741233
 30
0.0
 10
372.7941336539611
 20
110.2187997228194
 30
0.0
 10
372.8000795496314
 20
110.2295689661057
 30
0.0
 10
372.8085542725465
 20
110.24497970203
 30
0.0
 10
372.8194692593856
 20
110.2649360782838
 30
0.0
 10
372.832805327624
 20
110.2894861747542
 30
0.0
 10
372.848513092311
 20
110.3186427985101
 30
0.0
 10
372.8665446804688
 20
110.3524387699436
 30
0.0
 10
372.9089622252159
 20
110.4328455279988
 30
0.0
 10
372.9894832649697
 20
110.5898339776701
 30
0.0
 10
373.1229096118441
 20
110.8716197154169
 30
0.0
 10
373.2669865885276
 20
111.2094918250447
 30
0.0
 10
373.3826643399797
 20
111.5181727387845
 30
0.0
 10
373.4651758151974
 20
111.7642034585412
 30
0.0
 10
373.5180974397228
 20
111.9330293498152
 30
0.0
 10
373.5679545741002
 20
112.104344920827
 30
0.0
 10
373.6149725673304
 20
112.2780272710469
 30
0.0
 10
373.6434395780587
 20
112.3951789593494
 30
0.0
 10
373.6576876658574
 20
112.4538148153101
 30
0.0
  0
ARC
  5
11D
330
1F
100
AcDbEntity
  8
0
  6
Continuous
 62
     7
370
    25
100
AcDbCircle
 10
365.0760899349
 20
114.4852015207
 30
0.0
 40
11.62303852141066
100
AcDbArc
 50
169.5595567507
 51
190.4404432494
  0
ARC
  5
11E
330
1F
100
AcDbEntity
  8
0
  6
Continuous
 62
     7
370
    25
100
AcDbCircle
 10
365.0760899349
 20
114.4852015207
 30
0.0
 40
9.143750000000006
100
AcDbArc
 50
166.6824039243
 51
193.3175960757
  0
ARC
  5
11F
330
1F
100
AcDbEntity
  8
0
  6
Continuous
 62
     7
370
    25
100
AcDbCircle
 10
365.0760899349
 20
114.4852015207
 30
0.0
 40
8.818750000000026
100
AcDbArc
 50
166.6824039243
 51
193.3175960757
  0
ARC
  5
120
330
1F
100
AcDbEntity
  8
0
  6
Continuous
 62
     7
370
    25
100
AcDbCircle
 10
365.0760899349
 20
114.4852015207
 30
0.0
 40
9.143750000000061
100
AcDbArc
 50
346.6824039243
 51
13.3175960757
  0
ARC
  5
121
330
1F
100
AcDbEntity
  8
0
  6
Continuous
 62
     7
370
    25
100
AcDbCircle
 10
365.0760899349
 20
114.4852015207
 30
0.0
 40
8.818750000000026
100
AcDbArc
 50
346.6824039243
 51
13.3175960757
  0
ARC
  5
122
330
1F
100
AcDbEntity
  8
0
  6
Continuous
 62
     7
370
    25
100
AcDbCircle
 10
365.0760899349
 20
114.4852015207
 30
0.0
 40
11.6230385214107
100
AcDbArc
 50
349.5595567507
 51
10.4404432493
  0
CIRCLE
  5
123
330
1F
100
AcDbEntity
  8
0
  6
Continuous
 62
     7
370
    25
100
AcDbCircle
 10
365.0760899349
 20
114.4852015207
 30
0.0
 40
7.775000000000034
  0
CIRCLE
  5
124
330
1F
100
AcDbEntity
  8
0
  6
Continuous
 62
     7
370
    25
100
AcDbCircle
 10
365.0760899349
 20
114.4852015207
 30
0.0
 40
2.615470053837896
  0
CIRCLE
  5
125
330
1F
100
AcDbEntity
  8
0
  6
Continuous
 62
     7
370
    25
100
AcDbCircle
 10
365.0760899349
 20
114.4852015207
 30
0.0
 40
2.5
  0
CIRCLE
  5
126
330
1F
100
AcDbEntity
  8
0
  6
Continuous
 62
     7
370
    25
100
AcDbCircle
 10
365.0760899349
 20
114.4852015207
 30
0.0
 40
15.73750000000001
  0
CIRCLE
  5
127
330
1F
100
AcDbEntity
  8
0
  6
Continuous
 62
     7
370
    25
100
AcDbCircle
 10
365.0760899349
 20
114.4852015207
 30
0.0
 40
13.42500000000001
  0
CIRCLE
  5
128
330
1F
100
AcDbEntity
  8
0
  6
Continuous
 62
     7
370
    25
100
AcDbCircle
 10
365.0760899349
 20
114.4852015207
 30
0.0
 40
2.0
  0
LINE
  5
129
330
1F
100
AcDbEntity
  8
0
  6
CENTER
 62
     7
370
    18
100
AcDbLine
 10
365.0760899349
 20
114.4852015207
 30
0.0
 11
365.0760899349
 21
133.9997015207
 31
0.0
  0
LINE
  5
12A
330
1F
100
AcDbEntity
  8
0
  6
CENTER
 62
     7
370
    18
100
AcDbLine
 10
365.0760899349
 20
114.4852015207
 30
0.0
 11
384.588247659
 21
114.4852015207
 31
0.0
  0
LINE
  5
12B
330
1F
100
AcDbEntity
  8
0
  6
Continuous
 62
     7
370
    18
100
AcDbLine
 10
377.0760899349
 20
131.9997015207
 30
0.0
 11
365.0760899349
 21
131.9997015207
 31
0.0
  0
SOLID
  5
12C
330
1F
100
AcDbEntity
  8
0
  6
Continuous
 62
     7
370
    18
100
AcDbTrace
 10
365.0760899349
 20
131.9997015207
 30
0.0
 11
371.0760899349
 21
130.4997015207
 31
0.0
 12
371.0760899349
 22
133.4997015207
 32
0.0
 13
371.0760899349
 23
133.4997015207
 33
0.0
  0
LINE
  5
12D
330
1F
100
AcDbEntity
  8
0
  6
Continuous
 62
     7
370
    18
100
AcDbLine
 10
394.588247659
 20
114.4852015207
 30
0.0
 11
382.588247659
 21
114.4852015207
 31
0.0
  0
SOLID
  5
12E
330
1F
100
AcDbEntity
  8
0
  6
Continuous
 62
     7
370
    18
100
AcDbTrace
 10
382.588247659
 20
114.4852015207
 30
0.0
 11
388.588247659
 21
112.9852015207
 31
0.0
 12
388.588247659
 22
115.9852015207
 32
0.0
 13
388.588247659
 23
115.9852015207
 33
0.0
  0
MTEXT
  5
12F
330
1F
100
AcDbEntity
  8
0
  6
Continuous
 62
     7
100
AcDbMText
 10
373.9287091909
 20
138.6459947373
 30
0.0
 40
3.5
 41
0.0
 71
     1
 72
     1
  1
A
  7
SLDTEXTSTYLE0
 73
     1
 44
1.0
  0
MTEXT
  5
130
330
1F
100
AcDbEntity
  8
0
  6
Continuous
 62
     7
100
AcDbMText
 10
391.440866915
 20
112.2719858796
 30
0.0
 40
3.5
 41
0.0
 71
     1
 72
     1
  1
A
  7
SLDTEXTSTYLE0
 73
     1
 44
1.0
  0
LINE
  5
131
330
1F
100
AcDbEntity
  8
0
  6
Continuous
 62
     7
370
    25
100
AcDbLine
 10
131.3364101705
 20
83.0102015207
 30
0.0
 11
137.7022123659
 21
83.0102015207
 31
0.0
  0
LINE
  5
132
330
1F
100
AcDbEntity
  8
0
  6
Continuous
 62
     7
370
    25
100
AcDbLine
 10
144.3706079751
 20
83.0102015207
 30
0.0
 11
149.1364101705
 21
83.0102015207
 31
0.0
  0
ARC
  5
133
330
1F
100
AcDbEntity
  8
0
  6
Continuous
 62
     7
370
    25
100
AcDbCircle
 10
131.3364101705
 20
83.2102015207
 30
0.0
 40
0.2000000000000171
100
AcDbArc
 50
180.0
 51
270.0
  0
LINE
  5
134
330
1F
100
AcDbEntity
  8
0
  6
Continuous
 62
     7
370
    25
100
AcDbLine
 10
137.7022123659
 20
83.0102015207
 30
0.0
 11
139.1614101705
 21
85.5376062565
 31
0.0
  0
LINE
  5
135
330
1F
100
AcDbEntity
  8
0
  6
Continuous
 62
     7
370
    25
100
AcDbLine
 10
142.9114101705
 20
85.5376062565
 30
0.0
 11
144.3706079751
 21
83.0102015207
 31
0.0
  0
ARC
  5
136
330
1F
100
AcDbEntity
  8
0
  6
Continuous
 62
     7
370
    25
100
AcDbCircle
 10
152.1364101705
 20
84.9852015207
 30
0.0
 40
3.0
100
AcDbArc
 50
90.0
 51
180.0
  0
ARC
  5
137
330
1F
100
AcDbEntity
  8
0
  6
Continuous
 62
     7
370
    25
100
AcDbCircle
 10
140.1614101705
 20
85.6352015207
 30
0.0
 40
1.0
100
AcDbArc
 50
90.0
 51
180.0
  0
ARC
  5
138
330
1F
100
AcDbEntity
  8
0
  6
Continuous
 62
     7
370
    25
100
AcDbCircle
 10
141.9114101705
 20
85.6352015207
 30
0.0
 40
1.0
100
AcDbArc
 50
0.0
 51
90.0
  0
LINE
  5
139
330
1F
100
AcDbEntity
  8
0
  6
Continuous
 62
     7
370
    25
100
AcDbLine
 10
140.1614101705
 20
86.6352015207
 30
0.0
 11
141.9114101705
 21
86.6352015207
 31
0.0
  0
LINE
  5
13A
330
1F
100
AcDbEntity
  8
0
  6
Continuous
 62
     7
370
    25
100
AcDbLine
 10
153.9584888577
 20
87.9852015207
 30
0.0
 11
208.8325579098
 21
92.3038844155
 31
0.0
  0
LINE
  5
13B
330
1F
100
AcDbEntity
  8
0
  6
Continuous
 62
     7
370
    25
100
AcDbLine
 10
152.1364101705
 20
87.9852015207
 30
0.0
 11
153.9584888577
 21
87.9852015207
 31
0.0
  0
ARC
  5
13C
330
1F
100
AcDbEntity
  8
0
  6
Continuous
 62
     7
370
    25
100
AcDbCircle
 10
130.7074752959
 20
88.9352015207
 30
0.0
 40
0.8000000000000047
100
AcDbArc
 50
57.576802718
 51
107.5
  0
LINE
  5
13D
330
1F
100
AcDbEntity
  8
0
  6
Continuous
 62
     7
370
    25
100
AcDbLine
 10
129.9762281305
 20
89.5434634752
 30
0.0
 11
130.4669106563
 21
89.6981750813
 31
0.0
  0
LINE
  5
13E
330
1F
100
AcDbEntity
  8
0
  6
Continuous
 62
     7
370
    25
100
AcDbLine
 10
116.6499647025
 20
90.212681
 30
0.0
 11
129.9762281305
 21
89.5434634752
 31
0.0
  0
LINE
  5
13F
330
1F
100
AcDbEntity
  8
0
  6
Continuous
 62
     7
370
    25
100
AcDbLine
 10
92.6864101705
 20
91.4160813931
 30
0.0
 11
100.741247034
 21
91.0115840622
 31
0.0
  0
ARC
  5
140
330
1F
100
AcDbEntity
  8
0
  6
Continuous
 62
     7
370
    25
100
AcDbCircle
 10
208.6364101705
 20
94.7961777499
 30
0.0
 40
2.500000000000028
100
AcDbArc
 50
274.5
 51
0.0
  0
LINE
  5
141
330
1F
100
AcDbEntity
  8
0
  6
Continuous
 62
     7
370
    25
100
AcDbLine
 10
91.1864101705
 20
92.2821067969
 30
0.0
 11
92.6864101705
 21
91.4160813931
 31
0.0
  0
LINE
  5
142
330
1F
100
AcDbEntity
  8
0
  6
Continuous
 62
     7
370
    25
100
AcDbLine
 10
153.1444958344
 20
120.4852015207
 30
0.0
 11
138.1444958344
 21
120.4852015207
 31
0.0
  0
LINE
  5
143
330
1F
100
AcDbEntity
  8
0
  6
Continuous
 62
     7
370
    25
100
AcDbLine
 10
153.6444958344
 20
119.9852015207
 30
0.0
 11
153.1444958344
 21
120.4852015207
 31
0.0
  0
LINE
  5
144
330
1F
100
AcDbEntity
  8
0
  6
Continuous
 62
     7
370
    25
100
AcDbLine
 10
138.1444958344
 20
120.4852015207
 30
0.0
 11
137.6444958344
 21
119.9852015207
 31
0.0
  0
LINE
  5
145
330
1F
100
AcDbEntity
  8
0
  6
Continuous
 62
     7
370
    25
100
AcDbLine
 10
155.6444958344
 20
119.978750735
 30
0.0
 11
157.6444958344
 21
119.978750735
 31
0.0
  0
LINE
  5
146
330
1F
100
AcDbEntity
  8
0
  6
Continuous
 62
     7
370
    25
100
AcDbLine
 10
155.6444958344
 20
119.9852015207
 30
0.0
 11
153.6444958344
 21
119.9852015207
 31
0.0
  0
SPLINE
  5
147
330
1F
100
AcDbEntity
  8
0
  6
Continuous
 62
     7
370
    25
100
AcDbSpline
210
0.0
220
0.0
230
1.0
 70
     8
 71
     3
 72
    11
 73
     7
 74
     0
 42
0.000000001
 43
0.00000001
 40
0.0
 40
0.0
 40
0.0
 40
0.0
 40
0.2863442448417462
 40
0.5824784992971078
 40
0.9946733715508962
 40
1.0
 40
1.0
 40
1.0
 40
1.0
 10
137.8803942192494
 20
116.8499828274812
 30
0.0
 10
137.9890002766498
 20
116.919155306857
 30
0.0
 10
138.2099255945802
 20
117.0598652484929
 30
0.0
 10
138.3950792081874
 20
117.32103379153
 30
0.0
 10
138.3154742917858
 20
117.5137527103228
 30
0.0
 10
138.2096290098629
 20
117.6200624201862
 30
0.0
 10
138.2082786638593
 20
117.6214186912381
 30
0.0
  0
SPLINE
  5
148
330
1F
100
AcDbEntity
  8
0
  6
Continuous
 62
     7
370
    25
100
AcDbSpline
210
0.0
220
0.0
230
1.0
 70
     8
 71
     3
 72
    10
 73
     6
 74
     0
 42
0.000000001
 43
0.00000001
 40
0.0
 40
0.0
 40
0.0
 40
0.0
 40
0.2509262698467378
 40
0.7340155544257201
 40
0.9999999999999999
 40
0.9999999999999999
 40
0.9999999999999999
 40
0.9999999999999999
 10
138.2056049058582
 20
114.4852015207103
 30
0.0
 10
138.2640041959636
 20
114.6837746401714
 30
0.0
 10
138.434835202741
 20
115.2646455010196
 30
0.0
 10
138.2318629682908
 20
116.0998484949777
 30
0.0
 10
137.9724926059093
 20
116.653418660709
 30
0.0
 10
137.8803942192494
 20
116.8499828274812
 30
0.0
  0
LINE
  5
149
330
1F
100
AcDbEntity
  8
0
  6
Continuous
 62
     7
370
    25
100
AcDbLine
 10
137.6444958344
 20
118.1852015207
 30
0.0
 11
138.2082786639
 21
117.6214186912
 31
0.0
  0
LINE
  5
14A
330
1F
100
AcDbEntity
  8
0
  6
Continuous
 62
     7
370
    25
100
AcDbLine
 10
137.6444958344
 20
118.1852015207
 30
0.0
 11
137.6444958344
 21
114.4852015207
 31
0.0
  0
LINE
  5
14B
330
1F
100
AcDbEntity
  8
0
  6
Continuous
 62
     7
370
    25
100
AcDbLine
 10
150.6444958344
 20
117.3549007509
 30
0.0
 11
150.6444958344
 21
117.4852015207
 31
0.0
  0
LINE
  5
14C
330
1F
100
AcDbEntity
  8
0
  6
Continuous
 62
     7
370
    25
100
AcDbLine
 10
150.6444958344
 20
115.1626742507
 30
0.0
 11
150.6444958344
 21
117.3549007509
 31
0.0
  0
LINE
  5
14D
330
1F
100
AcDbEntity
  8
0
  6
Continuous
 62
     7
370
    25
100
AcDbLine
 10
150.6444958344
 20
114.4852015207
 30
0.0
 11
150.6444958344
 21
115.1626742507
 31
0.0
  0
LINE
  5
14E
330
1F
100
AcDbEntity
  8
0
  6
Continuous
 62
     7
370
    25
100
AcDbLine
 10
144.6444958343
 20
115.1626742507
 30
0.0
 11
144.6444958343
 21
114.4852015207
 31
0.0
  0
LINE
  5
14F
330
1F
100
AcDbEntity
  8
0
  6
Continuous
 62
     7
370
    25
100
AcDbLine
 10
144.6444958343
 20
117.3549007509
 30
0.0
 11
144.6444958343
 21
115.1626742507
 31
0.0
  0
LINE
  5
150
330
1F
100
AcDbEntity
  8
0
  6
Continuous
 62
     7
370
    25
100
AcDbLine
 10
144.6444958343
 20
117.4852015207
 30
0.0
 11
144.6444958343
 21
117.3549007509
 31
0.0
  0
LINE
  5
151
330
1F
100
AcDbEntity
  8
0
  6
Continuous
 62
     7
370
    25
100
AcDbLine
 10
144.6444958343
 20
117.4852015207
 30
0.0
 11
150.6444958344
 21
117.4852015207
 31
0.0
  0
LINE
  5
152
330
1F
100
AcDbEntity
  8
0
  6
Continuous
 62
     7
370
    25
100
AcDbLine
 10
155.6444958344
 20
117.6214186912
 30
0.0
 11
155.6444958344
 21
119.9852015207
 31
0.0
  0
LINE
  5
153
330
1F
100
AcDbEntity
  8
0
  6
Continuous
 62
     7
370
    25
100
AcDbLine
 10
150.6444958344
 20
117.6214186912
 30
0.0
 11
155.6444958344
 21
117.6214186912
 31
0.0
  0
LINE
  5
154
330
1F
100
AcDbEntity
  8
0
  6
Continuous
 62
     7
370
    25
100
AcDbLine
 10
150.6444958344
 20
117.4852015207
 30
0.0
 11
150.6444958344
 21
117.6214186912
 31
0.0
  0
LINE
  5
155
330
1F
100
AcDbEntity
  8
0
  6
Continuous
 62
     7
370
    25
100
AcDbLine
 10
144.6444958343
 20
117.6214186912
 30
0.0
 11
144.6444958343
 21
117.4852015207
 31
0.0
  0
LINE
  5
156
330
1F
100
AcDbEntity
  8
0
  6
Continuous
 62
     7
370
    25
100
AcDbLine
 10
138.2082786639
 20
117.6214186912
 30
0.0
 11
144.6444958343
 21
117.6214186912
 31
0.0
  0
LINE
  5
157
330
1F
100
AcDbEntity
  8
0
  6
Continuous
 62
     7
370
    25
100
AcDbLine
 10
137.6444958344
 20
119.9852015207
 30
0.0
 11
137.6444958344
 21
118.1852015207
 31
0.0
  0
LINE
  5
158
330
1F
100
AcDbEntity
  8
0
  6
Continuous
 62
     7
370
    25
100
AcDbLine
 10
144.6444958343
 20
116.8499828275
 30
0.0
 11
137.8803942192
 21
116.8499828275
 31
0.0
  0
LINE
  5
159
330
1F
100
AcDbEntity
  8
0
  6
Continuous
 62
     7
370
    25
100
AcDbLine
 10
156.9444958344
 20
117.3549007509
 30
0.0
 11
155.6444958344
 21
117.3549007509
 31
0.0
  0
SPLINE
  5
15A
330
1F
100
AcDbEntity
  8
0
  6
Continuous
 62
     7
370
    25
100
AcDbSpline
210
0.0
220
0.0
230
1.0
 70
     8
 71
     3
 72
     9
 73
     5
 74
     0
 42
0.000000001
 43
0.00000001
 40
0.0
 40
0.0
 40
0.0
 40
0.0
 40
0.5039876238385109
 40
0.9999999999999999
 40
0.9999999999999999
 40
0.9999999999999999
 40
0.9999999999999999
 10
156.9444958343872
 20
117.3549007509091
 30
0.0
 10
156.9713275426118
 20
117.2660674022952
 30
0.0
 10
157.0245663662564
 20
117.0898064299773
 30
0.0
 10
157.2812695121581
 20
116.929497861467
 30
0.0
 10
157.4085974495249
 20
116.8499828274812
 30
0.0
  0
LINE
  5
15B
330
1F
100
AcDbEntity
  8
0
  6
Continuous
 62
     7
370
    25
100
AcDbLine
 10
150.6444958344
 20
116.8499828275
 30
0.0
 11
157.4085974495
 21
116.8499828275
 31
0.0
  0
LINE
  5
15C
330
1F
100
AcDbEntity
  8
0
  6
Continuous
 62
     7
370
    25
100
AcDbLine
 10
155.6444958344
 20
117.3549007509
 30
0.0
 11
155.6444958344
 21
117.6214186912
 31
0.0
  0
LINE
  5
15D
330
1F
100
AcDbEntity
  8
0
  6
Continuous
 62
     7
370
    25
100
AcDbLine
 10
157.6444958344
 20
118.1188732452
 30
0.0
 11
157.6444958344
 21
119.978750735
 31
0.0
  0
LINE
  5
15E
330
1F
100
AcDbEntity
  8
0
  6
Continuous
 62
     7
370
    25
100
AcDbLine
 10
157.6444958344
 20
118.1188732452
 30
0.0
 11
156.9444958344
 21
117.3549007509
 31
0.0
  0
SPLINE
  5
15F
330
1F
100
AcDbEntity
  8
0
  6
Continuous
 62
     7
370
    25
100
AcDbSpline
210
0.0
220
0.0
230
1.0
 70
     8
 71
     3
 72
    10
 73
     6
 74
     0
 42
0.000000001
 43
0.00000001
 40
0.0
 40
0.0
 40
0.0
 40
0.0
 40
0.2659844455742801
 40
0.7490737301532626
 40
1.0
 40
1.0
 40
1.0
 40
1.0
 10
157.4085974495249
 20
116.8499828274812
 30
0.0
 10
157.316499062865
 20
116.653418660709
 30
0.0
 10
157.0571287004835
 20
116.0998484949777
 30
0.0
 10
156.8541564660333
 20
115.2646455010196
 30
0.0
 10
157.0249874728107
 20
114.6837746401714
 30
0.0
 10
157.0833867629161
 20
114.4852015207103
 30
0.0
  0
LINE
  5
160
330
1F
100
AcDbEntity
  8
0
  6
Continuous
 62
     7
370
    25
100
AcDbLine
 10
157.6444958344
 20
118.1188732452
 30
0.0
 11
157.6444958344
 21
114.4852015207
 31
0.0
  0
SPLINE
  5
161
330
1F
100
AcDbEntity
  8
0
  6
Continuous
 62
     7
370
    25
100
AcDbSpline
210
0.0
220
0.0
230
1.0
 70
     8
 71
     3
 72
    14
 73
    10
 74
     0
 42
0.000000001
 43
0.00000001
 40
0.0
 40
0.0
 40
0.0
 40
0.0
 40
0.25
 40
0.25
 40
0.5
 40
0.5
 40
0.75
 40
0.75
 40
1.0
 40
1.0
 40
1.0
 40
1.0
 10
137.7022123659234
 20
111.1903034351935
 30
0.0
 10
137.5053364803984
 20
111.4178000031227
 30
0.0
 10
137.3292281590089
 20
111.6593867781938
 30
0.0
 10
137.0194917652357
 20
112.171544012568
 30
0.0
 10
136.8849337637421
 20
112.4450768156761
 30
0.0
 10
136.669691611033
 20
113.0051819502135
 30
0.0
 10
136.5880483735141
 20
113.2921544456235
 30
0.0
 10
136.477525351244
 20
113.8801934306678
 30
0.0
 10
136.4489101704935
 20
114.1846368864385
 30
0.0
 10
136.4489101704935
 20
114.4852015207102
 30
0.0
  0
LINE
  5
162
330
1F
100
AcDbEntity
  8
0
  6
Continuous
 62
     7
370
    25
100
AcDbLine
 10
137.7022123659
 20
83.0102015207
 30
0.0
 11
137.7022123659
 21
111.1903034352
 31
0.0
  0
LINE
  5
163
330
1F
100
AcDbEntity
  8
0
  6
Continuous
 62
     7
370
    25
100
AcDbLine
 10
137.7022123659
 20
145.9602015207
 30
0.0
 11
131.3364101705
 21
145.9602015207
 31
0.0
  0
LINE
  5
164
330
1F
100
AcDbEntity
  8
0
  6
Continuous
 62
     7
370
    25
100
AcDbLine
 10
144.3706079751
 20
83.0102015207
 30
0.0
 11
144.3706079751
 21
109.595494241
 31
0.0
  0
SPLINE
  5
165
330
1F
100
AcDbEntity
  8
0
  6
Continuous
 62
     7
370
    25
100
AcDbSpline
210
0.0
220
0.0
230
1.0
 70
     8
 71
     3
 72
    20
 73
    16
 74
     0
 42
0.000000001
 43
0.00000001
 40
0.0
 40
0.0
 40
0.0
 40
0.0
 40
0.1249999999999996
 40
0.1249999999999996
 40
0.2499999999999992
 40
0.2499999999999992
 40
0.3749999999999989
 40
0.3749999999999989
 40
0.4999999999999987
 40
0.4999999999999987
 40
0.7499999999999994
 40
0.7499999999999994
 40
0.8749999999999997
 40
0.8749999999999997
 40
1.0
 40
1.0
 40
1.0
 40
1.0
 10
147.9239101704935
 20
114.4852015207104
 30
0.0
 10
147.9239101704935
 20
114.2185334332292
 30
0.0
 10
147.9018631414498
 20
113.9502212579551
 30
0.0
 10
147.812857103745
 20
113.4173782227218
 30
0.0
 10
147.7469781355455
 20
113.1580880127359
 30
0.0
 10
147.5748032278383
 20
112.6529610467144
 30
0.0
 10
147.4680966569313
 20
112.4063808307931
 30
0.0
 10
147.2154197540551
 20
111.9299641800534
 30
0.0
 10
147.0719624898604
 20
111.7045441182885
 30
0.0
 10
146.5936402975799
 20
111.0639364366748
 30
0.0
 10
146.2056133146143
 20
110.6811707215717
 30
0.0
 10
145.563808666169
 20
110.2052684734001
 30
0.0
 10
145.3390040385218
 20
110.0616728372484
 30
0.0
 10
144.8676949808996
 20
109.8043414518578
 30
0.0
 10
144.6219983810107
 20
109.6912890733359
 30
0.0
 10
144.3706079750635
 20
109.5954942410252
 30
0.0
  0
LINE
  5
166
330
1F
100
AcDbEntity
  8
0
  6
Continuous
 62
     7
370
    25
100
AcDbLine
 10
149.1364101705
 20
83.0102015207
 30
0.0
 11
149.1364101705
 21
114.4852015207
 31
0.0
  0
LINE
  5
167
330
1F
100
AcDbEntity
  8
0
  6
Continuous
 62
     7
370
    25
100
AcDbLine
 10
149.1364101705
 20
145.9602015207
 30
0.0
 11
144.3706079751
 21
145.9602015207
 31
0.0
  0
LINE
  5
168
330
1F
100
AcDbEntity
  8
0
  6
Continuous
 62
     7
370
    25
100
AcDbLine
 10
131.1364101705
 20
83.2102015207
 30
0.0
 11
131.1364101705
 21
114.4852015207
 31
0.0
  0
LINE
  5
169
330
1F
100
AcDbEntity
  8
0
  6
Continuous
 62
     7
370
    25
100
AcDbLine
 10
131.1364101705
 20
114.4852015207
 30
0.0
 11
131.3364101705
 21
114.4852015207
 31
0.0
  0
ARC
  5
16A
330
1F
100
AcDbEntity
  8
0
  6
Continuous
 62
     7
370
    25
100
AcDbCircle
 10
131.3364101705
 20
145.7602015207
 30
0.0
 40
0.2000000000000171
100
AcDbArc
 50
90.0
 51
180.0
  0
SPLINE
  5
16B
330
1F
100
AcDbEntity
  8
0
  6
Continuous
 62
     7
370
    25
100
AcDbSpline
210
0.0
220
0.0
230
1.0
 70
     8
 71
     3
 72
     8
 73
     4
 74
     0
 42
0.000000001
 43
0.00000001
 40
0.0
 40
0.0
 40
0.0
 40
0.0
 40
1.0
 40
1.0
 40
1.0
 40
1.0
 10
144.3706079750631
 20
109.5954942410241
 30
0.0
 10
144.0222065703828
 20
110.033469567438
 30
0.0
 10
143.67763818515
 20
110.4765527060228
 30
0.0
 10
143.3392538858291
 20
110.9299437778714
 30
0.0
  0
ARC
  5
16C
330
1F
100
AcDbEntity
  8
0
  6
Continuous
 62
     7
370
    25
100
AcDbCircle
 10
142.1864101705
 20
114.4852015207
 30
0.0
 40
3.737500000000006
100
AcDbArc
 50
287.9660359156
 51
0.0
  0
ARC
  5
16D
330
1F
100
AcDbEntity
  8
0
  6
Continuous
 62
     7
370
    25
100
AcDbCircle
 10
142.1864101705
 20
114.4852015207
 30
0.0
 40
3.737500000000011
100
AcDbArc
 50
180.0
 51
206.113804444
  0
SPLINE
  5
16E
330
1F
100
AcDbEntity
  8
0
  6
Continuous
 62
     7
370
    25
100
AcDbSpline
210
0.0
220
0.0
230
1.0
 70
     8
 71
     3
 72
    10
 73
     6
 74
     0
 42
0.000000001
 43
0.00000001
 40
0.0
 40
0.0
 40
0.0
 40
0.0
 40
0.5
 40
0.5
 40
1.0
 40
1.0
 40
1.0
 40
1.0
 10
138.8304283630402
 20
112.8401202588747
 30
0.0
 10
138.6535432166168
 20
112.5416699435181
 30
0.0
 10
138.4679938417394
 20
112.2626772393907
 30
0.0
 10
138.0900449016918
 20
111.717357945265
 30
0.0
 10
137.8972583595126
 20
111.4520225594435
 30
0.0
 10
137.7022123659234
 20
111.1903034351936
 30
0.0
  0
SPLINE
  5
16F
330
1F
100
AcDbEntity
  8
0
  6
Continuous
 62
     7
370
    25
100
AcDbSpline
210
0.0
220
0.0
230
1.0
 70
     8
 71
     3
 72
     8
 73
     4
 74
     0
 42
0.000000001
 43
0.00000001
 40
0.0
 40
0.0
 40
0.0
 40
0.0
 40
1.0
 40
1.0
 40
1.0
 40
1.0
 10
139.1614101704935
 20
112.2901431501879
 30
0.0
 10
139.0431134110635
 20
112.4531673786464
 30
0.0
 10
138.9316849288922
 20
112.6335558776688
 30
0.0
 10
138.8304283630402
 20
112.8401202588747
 30
0.0
  0
LINE
  5
170
330
1F
100
AcDbEntity
  8
0
  6
Continuous
 62
     7
370
    25
100
AcDbLine
 10
139.1614101705
 20
85.5376062565
 30
0.0
 11
139.1614101705
 21
112.2901431502
 31
0.0
  0
SPLINE
  5
171
330
1F
100
AcDbEntity
  8
0
  6
Continuous
 62
     7
370
    25
100
AcDbSpline
210
0.0
220
0.0
230
1.0
 70
     8
 71
     3
 72
     8
 73
     4
 74
     0
 42
0.000000001
 43
0.00000001
 40
0.0
 40
0.0
 40
0.0
 40
0.0
 40
1.0
 40
1.0
 40
1.0
 40
1.0
 10
143.3392538858294
 20
110.9299437778722
 30
0.0
 10
143.1977157975476
 20
110.8840480067751
 30
0.0
 10
143.0551053288107
 20
110.8471071558378
 30
0.0
 10
142.9114101704937
 20
110.8186934748972
 30
0.0
  0
LINE
  5
172
330
1F
100
AcDbEntity
  8
0
  6
Continuous
 62
     7
370
    25
100
AcDbLine
 10
142.9114101705
 20
85.5376062565
 30
0.0
 11
142.9114101705
 21
110.8186934749
 31
0.0
  0
ARC
  5
173
330
1F
100
AcDbEntity
  8
0
  6
Continuous
 62
     7
370
    25
100
AcDbCircle
 10
152.1364101705
 20
143.9852015207
 30
0.0
 40
3.0
100
AcDbArc
 50
180.0
 51
270.0
  0
SPLINE
  5
174
330
1F
100
AcDbEntity
  8
0
  6
Continuous
 62
     7
370
    25
100
AcDbSpline
210
0.0
220
0.0
230
1.0
 70
     8
 71
     3
 72
    14
 73
    10
 74
     0
 42
0.000000001
 43
0.00000001
 40
0.0
 40
0.0
 40
0.0
 40
0.0
 40
0.25
 40
0.25
 40
0.5
 40
0.5
 40
0.75
 40
0.75
 40
1.0
 40
1.0
 40
1.0
 40
1.0
 10
140.1614101704935
 20
111.3438194602153
 30
0.0
 10
140.027062084137
 20
111.4304230218428
 30
0.0
 10
139.903885410281
 20
111.5218914191662
 30
0.0
 10
139.675138805363
 20
111.7130828057971
 30
0.0
 10
139.5732168413958
 20
111.8099446579381
 30
0.0
 10
139.3937934389671
 20
111.9978192726734
 30
0.0
 10
139.3173521507843
 20
112.0880546240247
 30
0.0
 10
139.2000621779342
 20
112.235860988002
 30
0.0
 10
139.1614101704935
 20
112.290143150188
 30
0.0
 10
139.1614101704935
 20
112.290143150188
 30
0.0
  0
SPLINE
  5
175
330
1F
100
AcDbEntity
  8
0
  6
Continuous
 62
     7
370
    25
100
AcDbSpline
210
0.0
220
0.0
230
1.0
 70
     8
 71
     3
 72
    14
 73
    10
 74
     0
 42
0.000000001
 43
0.00000001
 40
0.0
 40
0.0
 40
0.0
 40
0.0
 40
0.25
 40
0.25
 40
0.5
 40
0.5
 40
0.75
 40
0.75
 40
1.0
 40
1.0
 40
1.0
 40
1.0
 10
142.9114101704936
 20
110.8186934748978
 30
0.0
 10
142.9114101704938
 20
110.8186934748978
 30
0.0
 10
142.8854936479226
 20
110.8133167439094
 30
0.0
 10
142.7860488013451
 20
110.7957721563089
 30
0.0
 10
142.7137504089328
 20
110.7839227526627
 30
0.0
 10
142.5290465144089
 20
110.7622789346624
 30
0.0
 10
142.419469252533
 20
110.752989673978
 30
0.0
 10
142.1761390743149
 20
110.7457341376204
 30
0.0
 10
142.0446028153947
 20
110.7480055437798
 30
0.0
 10
141.9114101704935
 20
110.7578323077129
 30
0.0
  0
SPLINE
  5
176
330
1F
100
AcDbEntity
  8
0
  6
Continuous
 62
     7
370
    25
100
AcDbSpline
210
0.0
220
0.0
230
1.0
 70
     8
 71
     3
 72
    10
 73
     6
 74
     0
 42
0.000000001
 43
0.00000001
 40
0.0
 40
0.0
 40
0.0
 40
0.0
 40
0.5
 40
0.5
 40
1.0
 40
1.0
 40
1.0
 40
1.0
 10
141.9114101704935
 20
110.757832307713
 30
0.0
 10
141.5989462682053
 20
110.7808854500821
 30
0.0
 10
141.2960572862076
 20
110.8421201524884
 30
0.0
 10
140.7087141014035
 20
111.0382921164124
 30
0.0
 10
140.4242464408316
 20
111.1743897515122
 30
0.0
 10
140.1614101704935
 20
111.3438194602153
 30
0.0
  0
LINE
  5
177
330
1F
100
AcDbEntity
  8
0
  6
Continuous
 62
     7
370
    25
100
AcDbLine
 10
131.1364101705
 20
141.3352015207
 30
0.0
 11
131.4704488565
 21
140.2757661603
 31
0.0
  0
LINE
  5
178
330
1F
100
AcDbEntity
  8
0
  6
Continuous
 62
     7
370
    25
100
AcDbLine
 10
131.1364101705
 20
141.3352015207
 30
0.0
 11
131.1364101705
 21
139.3599127874
 31
0.0
  0
LINE
  5
179
330
1F
100
AcDbEntity
  8
0
  6
Continuous
 62
     7
370
    25
100
AcDbLine
 10
153.9584888577
 20
87.9852015207
 30
0.0
 11
153.9584888577
 21
114.4852015207
 31
0.0
  0
LINE
  5
17A
330
1F
100
AcDbEntity
  8
0
  6
Continuous
 62
     7
370
    25
100
AcDbLine
 10
208.8325579098
 20
136.6665186259
 30
0.0
 11
153.9584888577
 21
140.9852015207
 31
0.0
  0
LINE
  5
17B
330
1F
100
AcDbEntity
  8
0
  6
Continuous
 62
     7
370
    25
100
AcDbLine
 10
153.9584888577
 20
140.9852015207
 30
0.0
 11
152.1364101705
 21
140.9852015207
 31
0.0
  0
ARC
  5
17C
330
1F
100
AcDbEntity
  8
0
  6
Continuous
 62
     7
370
    25
100
AcDbCircle
 10
130.7074752959
 20
140.0352015207
 30
0.0
 40
0.8000000000000181
100
AcDbArc
 50
252.5
 51
17.5
  0
LINE
  5
17D
330
1F
100
AcDbEntity
  8
0
  6
Continuous
 62
     7
370
    25
100
AcDbLine
 10
129.9762281305
 20
89.5434634752
 30
0.0
 11
129.9762281305
 21
114.4852015207
 31
0.0
  0
LINE
  5
17E
330
1F
100
AcDbEntity
  8
0
  6
Continuous
 62
     7
370
    25
100
AcDbLine
 10
130.4669106563
 20
139.2722279601
 30
0.0
 11
129.9762281305
 21
139.4269395662
 31
0.0
  0
SPLINE
  5
17F
330
1F
100
AcDbEntity
  8
0
  6
Continuous
 62
     7
370
    25
100
AcDbSpline
210
0.0
220
0.0
230
1.0
 70
     8
 71
     3
 72
    23
 73
    19
 74
     0
 42
0.000000001
 43
0.00000001
 40
0.0
 40
0.0
 40
0.0
 40
0.0
 40
0.0014604835854589
 40
0.0696150552019158
 40
0.1372664175514471
 40
0.2039701100159469
 40
0.270300937204775
 40
0.3365574243307612
 40
0.4028683822767361
 40
0.4678692470317541
 40
0.5326412098413932
 40
0.5993596686012883
 40
0.6655231153857153
 40
0.7321169425959967
 40
0.798886844841685
 40
0.8663366772638104
 40
0.9345228518799438
 40
1.0
 40
1.0
 40
1.0
 40
1.0
 10
100.8962004829451
 20
137.9094701108516
 30
0.0
 10
100.8973556135322
 20
137.9091137384955
 30
0.0
 10
100.952415787016
 20
137.8921269804861
 30
0.0
 10
101.3488332136738
 20
137.7748616244651
 30
0.0
 10
102.0648830863893
 20
137.5742539325316
 30
0.0
 10
103.0745648620903
 20
137.3336382843443
 30
0.0
 10
104.2905424774011
 20
137.1063661849746
 30
0.0
 10
105.6947425783814
 20
136.9339766334666
 30
0.0
 10
107.2118066567788
 20
136.8459083367964
 30
0.0
 10
108.7861045065019
 20
136.8769559956911
 30
0.0
 10
110.3519247325389
 20
137.0279792354001
 30
0.0
 10
111.8417818020532
 20
137.2823160339727
 30
0.0
 10
113.2134619943951
 20
137.6000528126288
 30
0.0
 10
114.3993850881135
 20
137.9439692327633
 30
0.0
 10
115.3769844321218
 20
138.2718118330719
 30
0.0
 10
116.0964955837122
 20
138.5407362625556
 30
0.0
 10
116.5691305854146
 20
138.7233255981773
 30
0.0
 10
116.6266016997678
 20
138.7465739907621
 30
0.0
 10
116.6547548579424
 20
138.7579625932124
 30
0.0
  0
LINE
  5
180
330
1F
100
AcDbEntity
  8
0
  6
Continuous
 62
     7
370
    25
100
AcDbLine
 10
100.7368442852
 20
137.9585978823
 30
0.0
 11
92.6864101705
 21
137.5543216483
 31
0.0
  0
LINE
  5
181
330
1F
100
AcDbEntity
  8
0
  6
Continuous
 62
     7
370
    25
100
AcDbLine
 10
92.6864101705
 20
91.4160813931
 30
0.0
 11
92.6864101705
 21
105.3630784861
 31
0.0
  0
SPLINE
  5
182
330
1F
100
AcDbEntity
  8
0
  6
Continuous
 62
     7
370
    25
100
AcDbSpline
210
0.0
220
0.0
230
1.0
 70
     8
 71
     3
 72
     8
 73
     4
 74
     0
 42
0.000000001
 43
0.00000001
 40
0.0
 40
0.0
 40
0.0
 40
0.0
 40
1.0
 40
1.0
 40
1.0
 40
1.0
 10
98.50458462344045
 20
105.3676645444069
 30
0.0
 10
96.56519313912904
 20
105.3655184485574
 30
0.0
 10
94.62580165481762
 20
105.3639222620326
 30
0.0
 10
92.68641017050622
 20
105.3628748095569
 30
0.0
  0
SPLINE
  5
183
330
1F
100
AcDbEntity
  8
0
  6
Continuous
 62
     7
370
    25
100
AcDbSpline
210
0.0
220
0.0
230
1.0
 70
     8
 71
     3
 72
    13
 73
     9
 74
     0
 42
0.000000001
 43
0.00000001
 40
0.0
 40
0.0
 40
0.0
 40
0.0
 40
0.1686319999748085
 40
0.3360343310905433
 40
0.502536782590866
 40
0.6684737453788339
 40
0.834182263691515
 40
1.0
 40
1.0
 40
1.0
 40
1.0
 10
99.58807967290744
 20
105.5051209902246
 30
0.0
 10
99.5285897768477
 20
105.4906066701858
 30
0.0
 10
99.41004378657263
 20
105.4616838689012
 30
0.0
 10
99.23016709098675
 20
105.4277224754929
 30
0.0
 10
99.04977680335874
 20
105.4008569131339
 30
0.0
 10
98.8686646313249
 20
105.381897976026
 30
0.0
 10
98.68690379415746
 20
105.3699675246303
 30
0.0
 10
98.56537102626281
 20
105.3684323730615
 30
0.0
 10
98.50458462344045
 20
105.3676645444069
 30
0.0
  0
SPLINE
  5
184
330
1F
100
AcDbEntity
  8
0
  6
Continuous
 62
     7
370
    25
100
AcDbSpline
210
0.0
220
0.0
230
1.0
 70
     8
 71
     3
 72
     8
 73
     4
 74
     0
 42
0.000000001
 43
0.00000001
 40
0.0
 40
0.0
 40
0.0
 40
0.0
 40
1.0
 40
1.0
 40
1.0
 40
1.0
 10
104.9802730894003
 20
105.50935903211
 30
0.0
 10
103.1828784179624
 20
105.507487971586
 30
0.0
 10
101.3854837465246
 20
105.5060657905619
 30
0.0
 10
99.58808907508678
 20
105.5050916675659
 30
0.0
  0
SPLINE
  5
185
330
1F
100
AcDbEntity
  8
0
  6
Continuous
 62
     7
370
    25
100
AcDbSpline
210
0.0
220
0.0
230
1.0
 70
     8
 71
     3
 72
    18
 73
    14
 74
     0
 42
0.000000001
 43
0.00000001
 40
0.0
 40
0.0
 40
0.0
 40
0.0
 40
0.0923325137111192
 40
0.1843692047063016
 40
0.2763458873810836
 40
0.3684982175655623
 40
0.4610598988303626
 40
0.554260954653301
 40
0.6483261285442131
 40
0.74347346365053
 40
0.8399130993119804
 40
0.9201660718299768
 40
1.0
 40
1.0
 40
1.0
 40
1.0
 10
107.1765947380026
 20
104.9751667962664
 30
0.0
 10
107.1062644344895
 20
104.975583420698
 30
0.0
 10
106.9658291576376
 20
104.9764153347447
 30
0.0
 10
106.755466631135
 20
104.9900241816592
 30
0.0
 10
106.5460229682186
 20
105.0126909390309
 30
0.0
 10
106.3374732978461
 20
105.0452917288316
 30
0.0
 10
106.1298296805708
 20
105.0875942074519
 30
0.0
 10
105.9230914930312
 20
105.139665606107
 30
0.0
 10
105.7172694010664
 20
105.2015143789524
 30
0.0
 10
105.5123377222743
 20
105.2731123904086
 30
0.0
 10
105.3208569768785
 20
105.349690880636
 30
0.0
 10
105.1431338248239
 20
105.4283021294691
 30
0.0
 10
105.0347998302599
 20
105.4822162852565
 30
0.0
 10
104.9807746208066
 20
105.5091028001554
 30
0.0
  0
LINE
  5
186
330
1F
100
AcDbEntity
  8
0
  6
Continuous
 62
     7
370
    25
100
AcDbLine
 10
109.0914680173
 20
104.9766622311
 30
0.0
 11
107.176594738
 21
104.9751667963
 31
0.0
  0
SPLINE
  5
187
330
1F
100
AcDbEntity
  8
0
  6
Continuous
 62
     7
370
    25
100
AcDbSpline
210
0.0
220
0.0
230
1.0
 70
     8
 71
     3
 72
    25
 73
    21
 74
     0
 42
0.000000001
 43
0.00000001
 40
0.0
 40
0.0
 40
0.0
 40
0.0
 40
0.0280105225422753
 40
0.0559601148854256
 40
0.0839014045034749
 40
0.1118870776777086
 40
0.1399695827579646
 40
0.1682008401731476
 40
0.1966319670417595
 40
0.2253130233137476
 40
0.2542927850735311
 40
0.3799486436564626
 40
0.5057850221666382
 40
0.631308588631066
 40
0.7532068238011618
 40
0.8039473267946936
 40
0.8535894438541253
 40
0.9025339722380873
 40
0.9511970353782256
 40
1.0
 40
1.0
 40
1.0
 40
1.0
 10
114.0313523236949
 20
110.1105260356417
 30
0.0
 10
114.0313895454287
 20
110.0359060086292
 30
0.0
 10
114.0314639079294
 20
109.8868282726437
 30
0.0
 10
114.0190478572828
 20
109.6642101816796
 30
0.0
 10
113.997443296929
 20
109.4428857636521
 30
0.0
 10
113.965757827269
 20
109.2229174977642
 30
0.0
 10
113.9242316889491
 20
109.0043272105352
 30
0.0
 10
113.8728009332192
 20
108.7871452721301
 30
0.0
 10
113.811487058508
 20
108.5714038522439
 30
0.0
 10
113.7402767230085
 20
108.3571139607917
 30
0.0
 10
113.5694401158073
 20
107.9087641877707
 30
0.0
 10
113.2317078823713
 20
107.2554333596986
 30
0.0
 10
112.6201532181766
 20
106.4835401490625
 30
0.0
 10
111.8839183830241
 20
105.8393805236772
 30
0.0
 10
111.1974323113798
 20
105.4477393556152
 30
0.0
 10
110.648728165231
 20
105.2290444546422
 30
0.0
 10
110.2666919867294
 20
105.1131884058117
 30
0.0
 10
109.8795258880248
 20
105.0322805002819
 30
0.0
 10
109.4872992192347
 20
104.9830520694841
 30
0.0
 10
109.2235379511159
 20
104.9787942144689
 30
0.0
 10
109.0914680172921
 20
104.9766622311262
 30
0.0
  0
LINE
  5
188
330
1F
100
AcDbEntity
  8
0
  6
Continuous
 62
     7
370
    25
100
AcDbLine
 10
114.0313523237
 20
114.4852015207
 30
0.0
 11
114.0313523237
 21
110.1105260356
 31
0.0
  0
LINE
  5
189
330
1F
100
AcDbEntity
  8
0
  6
Continuous
 62
     7
370
    25
100
AcDbLine
 10
129.9762281305
 20
139.4269395662
 30
0.0
 11
116.6547548579
 21
138.7579625932
 31
0.0
  0
SPLINE
  5
18A
330
1F
100
AcDbEntity
  8
0
  6
Continuous
 62
     7
370
    25
100
AcDbSpline
210
0.0
220
0.0
230
1.0
 70
     8
 71
     3
 72
    20
 73
    16
 74
     0
 42
0.000000001
 43
0.00000001
 40
0.0
 40
0.0
 40
0.0
 40
0.0
 40
0.0829621378684852
 40
0.1658495135106162
 40
0.2487180070857352
 40
0.3299477216398518
 40
0.4108693994445728
 40
0.4941953814850553
 40
0.5768901676626217
 40
0.6601065810557766
 40
0.7435845489350842
 40
0.8279858465401873
 40
0.9132590745392868
 40
0.9972257035811788
 40
1.0
 40
1.0
 40
1.0
 40
1.0
 10
103.0488262652204
 20
91.62194115320347
 30
0.0
 10
103.4345721012917
 20
91.69885957980762
 30
0.0
 10
104.2057161544089
 20
91.8526271171452
 30
0.0
 10
105.6134643055788
 20
92.02854233853073
 30
0.0
 10
107.1213156734534
 20
92.12253862585976
 30
0.0
 10
108.6938046484712
 20
92.09869424399317
 30
0.0
 10
110.2611016796833
 20
91.95478919909257
 30
0.0
 10
111.7568777064648
 20
91.70573159629355
 30
0.0
 10
113.1371315821375
 20
91.3910509037549
 30
0.0
 10
114.3347257651931
 20
91.04678955177437
 30
0.0
 10
115.3215877950153
 20
90.71774232595462
 30
0.0
 10
116.0688260412133
 20
90.43928141774687
 30
0.0
 10
116.5160274705789
 20
90.26742562271524
 30
0.0
 10
116.7027820827289
 20
90.19357495111683
 30
0.0
 10
116.6516838688307
 20
90.21372624218992
 30
0.0
 10
116.6500495584856
 20
90.21437075519646
 30
0.0
  0
SPLINE
  5
18B
330
1F
100
AcDbEntity
  8
0
  6
Continuous
 62
     7
370
    25
100
AcDbSpline
210
0.0
220
0.0
230
1.0
 70
     8
 71
     3
 72
    11
 73
     7
 74
     0
 42
0.000000001
 43
0.00000001
 40
0.0
 40
0.0
 40
0.0
 40
0.0
 40
0.2435512231731408
 40
0.4981153923403549
 40
0.7509097881719458
 40
1.0
 40
1.0
 40
1.0
 40
1.0
 10
100.7413321474769
 20
91.01327894382032
 30
0.0
 10
100.7672830690021
 20
91.02151448035849
 30
0.0
 10
100.8203583658072
 20
91.03835794950797
 30
0.0
 10
101.2980533494697
 20
91.17925939164547
 30
0.0
 10
102.0093927977365
 20
91.38454994209368
 30
0.0
 10
102.7040574449112
 20
91.5432010602909
 30
0.0
 10
103.0488262652204
 20
91.62194115320347
 30
0.0
  0
LINE
  5
18C
330
1F
100
AcDbEntity
  8
0
  6
Continuous
 62
     7
370
    25
100
AcDbLine
 10
114.0313523237
 20
110.1105260356
 30
0.0
 11
113.1364101705
 21
110.2727015207
 31
0.0
  0
LINE
  5
18D
330
1F
100
AcDbEntity
  8
0
  6
Continuous
 62
     7
370
    25
100
AcDbLine
 10
113.1364101705
 20
110.2727015207
 30
0.0
 11
113.1364101705
 21
114.4852015207
 31
0.0
  0
SPLINE
  5
18E
330
1F
100
AcDbEntity
  8
0
  6
Continuous
 62
     7
370
    25
100
AcDbSpline
210
0.0
220
0.0
230
1.0
 70
     8
 71
     3
 72
    25
 73
    21
 74
     0
 42
0.000000001
 43
0.00000001
 40
0.0
 40
0.0
 40
0.0
 40
0.0
 40
0.0288821753116583
 40
0.0583636594024247
 40
0.088464720432864
 40
0.1192044006641432
 40
0.1506005800108822
 40
0.1826700399688414
 40
0.2154285269587146
 40
0.2488908143380118
 40
0.3610594471217245
 40
0.498467013106778
 40
0.5822693905006526
 40
0.6661127642782239
 40
0.7499972937224496
 40
0.8007709755032478
 40
0.8511237700807983
 40
0.901089602450676
 40
0.9507031914109089
 40
1.0
 40
1.0
 40
1.0
 40
1.0
 10
109.1364101704935
 20
106.2727015207103
 30
0.0
 10
109.1992106237322
 20
106.2735580046621
 30
0.0
 10
109.3261146475321
 20
106.2752887447158
 30
0.0
 10
109.5174690552466
 20
106.2894386101196
 30
0.0
 10
109.7113738679252
 20
106.312575692441
 30
0.0
 10
109.9072745886536
 20
106.3459868446665
 30
0.0
 10
110.1046122566578
 20
106.3898606666992
 30
0.0
 10
110.3027655984429
 20
106.4446559376685
 30
0.0
 10
110.5010813424511
 20
106.5107248990321
 30
0.0
 10
110.8524023299537
 20
106.6487062312851
 30
0.0
 10
111.3775141002761
 20
106.9287581701262
 30
0.0
 10
111.9145059287616
 20
107.3673487725346
 30
0.0
 10
112.3265656588001
 20
107.8412088940813
 30
0.0
 10
112.6134842468526
 20
108.2728926419011
 30
0.0
 10
112.8119109340598
 20
108.6760158836613
 30
0.0
 10
112.9439968081081
 20
109.0337520444402
 30
0.0
 10
113.0296306879059
 20
109.3365044467226
 30
0.0
 10
113.0907128992589
 20
109.6449927569683
 30
0.0
 10
113.1292138426244
 20
109.9573044671247
 30
0.0
 10
113.1340165217179
 20
110.1677938810261
 30
0.0
 10
113.1364101704935
 20
110.2727015207103
 30
0.0
  0
LINE
  5
18F
330
1F
100
AcDbEntity
  8
0
  6
Continuous
 62
     7
370
    25
100
AcDbLine
 10
211.1364101705
 20
94.7961777499
 30
0.0
 11
211.1364101705
 21
114.4852015207
 31
0.0
  0
ARC
  5
190
330
1F
100
AcDbEntity
  8
0
  6
Continuous
 62
     7
370
    25
100
AcDbCircle
 10
208.6364101705
 20
134.1742252916
 30
0.0
 40
2.500000000000028
100
AcDbArc
 50
0.0
 51
85.5
  0
SPLINE
  5
191
330
1F
100
AcDbEntity
  8
0
  6
Continuous
 62
     7
370
    25
100
AcDbSpline
210
0.0
220
0.0
230
1.0
 70
     8
 71
     3
 72
    13
 73
     9
 74
     0
 42
0.000000001
 43
0.00000001
 40
0.0
 40
0.0
 40
0.0
 40
0.0
 40
0.1722587823678385
 40
0.3421398271425444
 40
0.5097456258111679
 40
0.6751828993453325
 40
0.8385626190248169
 40
1.0
 40
1.0
 40
1.0
 40
1.0
 10
106.1364285394037
 20
106.4226963434601
 30
0.0
 10
106.1972919290763
 20
106.4064326157606
 30
0.0
 10
106.3181785935217
 20
106.3741296532799
 30
0.0
 10
106.5012397514941
 20
106.3367419985862
 30
0.0
 10
106.6833424344347
 20
106.3076090636761
 30
0.0
 10
106.8642838827514
 20
106.2874223480707
 30
0.0
 10
107.0436228864477
 20
106.2749755437701
 30
0.0
 10
107.1624691148611
 20
106.2734565005427
 30
0.0
 10
107.221536891204
 20
106.2727015207103
 30
0.0
  0
LINE
  5
192
330
1F
100
AcDbEntity
  8
0
  6
Continuous
 62
     7
370
    25
100
AcDbLine
 10
107.176594738
 20
104.9751667963
 30
0.0
 11
107.2215368912
 21
106.2727015207
 31
0.0
  0
SPLINE
  5
193
330
1F
100
AcDbEntity
  8
0
  6
Continuous
 62
     7
370
    25
100
AcDbSpline
210
0.0
220
0.0
230
1.0
 70
     8
 71
     3
 72
    11
 73
     7
 74
     0
 42
0.000000001
 43
0.00000001
 40
0.0
 40
0.0
 40
0.0
 40
0.0
 40
0.2392913844325938
 40
0.5001130135003002
 40
0.7515028526498353
 40
0.9999999999999999
 40
0.9999999999999999
 40
0.9999999999999999
 40
0.9999999999999999
 10
105.8089376783475
 20
106.4232751257334
 30
0.0
 10
105.7401127424006
 20
106.3517216885788
 30
0.0
 10
105.5962703462274
 20
106.2021767930675
 30
0.0
 10
105.3885215478608
 20
105.973259366422
 30
0.0
 10
105.1805353432397
 20
105.7409409941822
 30
0.0
 10
105.0475344194694
 20
105.5861651115909
 30
0.0
 10
104.981418775245
 20
105.509224990441
 30
0.0
  0
SPLINE
  5
194
330
1F
100
AcDbEntity
  8
0
  6
Continuous
 62
     7
370
    25
100
AcDbSpline
210
0.0
220
0.0
230
1.0
 70
    24
 71
     3
 72
     9
 73
     5
 74
     0
 42
0.000000001
 43
0.00000001
 40
0.0
 40
0.0
 40
0.0
 40
0.0
 40
0.509083966986604
 40
1.0
 40
1.0
 40
1.0
 40
1.0
 10
105.811167946667
 20
106.4227015207103
 30
0.0
 10
105.8659013467794
 20
106.4227015207103
 30
0.0
 10
105.9734148487982
 20
106.4227015207103
 30
0.0
 10
106.0828074091691
 20
106.4227015207103
 30
0.0
 10
106.1365099709476
 20
106.4227015207103
 30
0.0
  0
LINE
  5
195
330
1F
100
AcDbEntity
  8
0
  6
Continuous
 62
     7
370
    25
100
AcDbLine
 10
99.5625600821
 20
106.4026497469
 30
0.0
 11
99.5879745737
 21
105.5050915763
 31
0.0
  0
SPLINE
  5
196
330
1F
100
AcDbEntity
  8
0
  6
Continuous
 62
     7
370
    25
100
AcDbSpline
210
0.0
220
0.0
230
1.0
 70
     8
 71
     3
 72
     8
 73
     4
 74
     0
 42
0.000000001
 43
0.00000001
 40
0.0
 40
0.0
 40
0.0
 40
0.0
 40
1.0
 40
1.0
 40
1.0
 40
1.0
 10
99.56257127322168
 20
106.4026502370495
 30
0.0
 10
99.58437412970372
 20
106.4083475680822
 30
0.0
 10
99.60612883910123
 20
106.4142291508772
 30
0.0
 10
99.6278322944193
 20
106.4202941454302
 30
0.0
  0
LINE
  5
197
330
1F
100
AcDbEntity
  8
0
  6
Continuous
 62
     7
370
    25
100
AcDbLine
 10
99.6364101706
 20
106.4227015207
 30
0.0
 11
105.8100831428
 21
106.4227015207
 31
0.0
  0
LINE
  5
198
330
1F
100
AcDbEntity
  8
0
  6
Continuous
 62
     7
370
    25
100
AcDbLine
 10
107.2215368912
 20
106.2727015207
 30
0.0
 11
109.1364101705
 21
106.2727015207
 31
0.0
  0
SPLINE
  5
199
330
1F
100
AcDbEntity
  8
0
  6
Continuous
 62
     7
370
    25
100
AcDbSpline
210
0.0
220
0.0
230
1.0
 70
     8
 71
     3
 72
    13
 73
     9
 74
     0
 42
0.000000001
 43
0.00000001
 40
0.0
 40
0.0
 40
0.0
 40
0.0
 40
0.1621004456571512
 40
0.325943455157606
 40
0.4915935308260523
 40
0.6591130873964648
 40
0.8285624736043361
 40
1.0
 40
1.0
 40
1.0
 40
1.0
 10
98.55128344978293
 20
106.2727015207103
 30
0.0
 10
98.60683840784849
 20
106.2733704869115
 30
0.0
 10
98.71854553431322
 20
106.2747156106349
 30
0.0
 10
98.88639322370699
 20
106.2856621794262
 30
0.0
 10
99.05517964257538
 20
106.3033011087469
 30
0.0
 10
99.2245039991072
 20
106.3286066227348
 30
0.0
 10
99.39425064728458
 20
106.3609106255278
 30
0.0
 10
99.50624354594223
 20
106.3886822254138
 30
0.0
 10
99.56256658097196
 20
106.402649010915
 30
0.0
  0
LINE
  5
19A
330
1F
100
AcDbEntity
  8
0
  6
Continuous
 62
     7
370
    25
100
AcDbLine
 10
91.7727503489
 20
105.7451997768
 30
0.0
 11
92.6864101705
 21
106.2727015207
 31
0.0
  0
LINE
  5
19B
330
1F
100
AcDbEntity
  8
0
  6
Continuous
 62
     7
370
    25
100
AcDbLine
 10
92.6864101705
 20
106.2727015207
 30
0.0
 11
98.5512834498
 21
106.2727015207
 31
0.0
  0
SPLINE
  5
19C
330
1F
100
AcDbEntity
  8
0
  6
Continuous
 62
     7
370
    25
100
AcDbSpline
210
0.0
220
0.0
230
1.0
 70
     8
 71
     3
 72
     8
 73
     4
 74
     0
 42
0.000000001
 43
0.00000001
 40
0.0
 40
0.0
 40
0.0
 40
0.0
 40
1.0
 40
1.0
 40
1.0
 40
1.0
 10
92.68641017004252
 20
105.3628748093343
 30
0.0
 10
92.38185689633698
 20
105.4915656738811
 30
0.0
 10
92.07730362263146
 20
105.6190104301428
 30
0.0
 10
91.77275034892592
 20
105.7451997767805
 30
0.0
  0
LINE
  5
19D
330
1F
100
AcDbEntity
  8
0
  6
Continuous
 62
     7
370
    25
100
AcDbLine
 10
91.1864101705
 20
92.2821067969
 30
0.0
 11
91.1864101705
 21
105.4066761169
 31
0.0
  0
SPLINE
  5
19E
330
1F
100
AcDbEntity
  8
0
  6
Continuous
 62
     7
370
    25
100
AcDbSpline
210
0.0
220
0.0
230
1.0
 70
    24
 71
     3
 72
     8
 73
     4
 74
     0
 42
0.000000001
 43
0.00000001
 40
0.0
 40
0.0
 40
0.0
 40
0.0
 40
1.0
 40
1.0
 40
1.0
 40
1.0
 10
91.77275034892592
 20
105.7451997767805
 30
0.0
 10
91.57641832326757
 20
105.6318474289161
 30
0.0
 10
91.38095730302737
 20
105.5189979562644
 30
0.0
 10
91.18641017049346
 20
105.4066761169259
 30
0.0
  0
LINE
  5
19F
330
1F
100
AcDbEntity
  8
0
  6
Continuous
 62
     7
370
    25
100
AcDbLine
 10
122.9116506441
 20
132.7352015207
 30
0.0
 11
124.3364101705
 21
132.7352015207
 31
0.0
  0
ARC
  5
1A0
330
1F
100
AcDbEntity
  8
0
  6
Continuous
 62
     7
370
    25
100
AcDbCircle
 10
122.9116506441
 20
131.9352015207
 30
0.0
 40
0.8000000000000242
100
AcDbArc
 50
90.0
 51
120.0
  0
ARC
  5
1A1
330
1F
100
AcDbEntity
  8
0
  6
Continuous
 62
     7
370
    25
100
AcDbCircle
 10
124.3364101705
 20
131.9352015207
 30
0.0
 40
0.8000000000000256
100
AcDbArc
 50
0.0
 51
90.0
  0
LINE
  5
1A2
330
1F
100
AcDbEntity
  8
0
  6
Continuous
 62
     7
370
    25
100
AcDbLine
 10
121.6364101705
 20
132.1227015207
 30
0.0
 11
121.6364101705
 21
114.4852015207
 31
0.0
  0
LINE
  5
1A3
330
1F
100
AcDbEntity
  8
0
  6
Continuous
 62
     7
370
    25
100
AcDbLine
 10
121.6364101705
 20
132.1227015207
 30
0.0
 11
122.5116506441
 21
132.6280218437
 31
0.0
  0
LINE
  5
1A4
330
1F
100
AcDbEntity
  8
0
  6
Continuous
 62
     7
370
    25
100
AcDbLine
 10
91.9380762203
 20
105.8406507131
 30
0.0
 11
91.801607448
 21
105.7618604307
 31
0.0
  0
SPLINE
  5
1A5
330
1F
100
AcDbEntity
  8
0
  6
Continuous
 62
     7
370
    25
100
AcDbSpline
210
0.0
220
0.0
230
1.0
 70
     8
 71
     3
 72
    32
 73
    28
 74
     0
 42
0.000000001
 43
0.00000001
 40
0.0
 40
0.0
 40
0.0
 40
0.0
 40
0.1249999999999995
 40
0.1249999999999995
 40
0.1874999999999993
 40
0.1874999999999993
 40
0.2499999999999991
 40
0.2499999999999991
 40
0.3124999999999988
 40
0.3124999999999988
 40
0.3749999999999986
 40
0.3749999999999986
 40
0.4999999999999981
 40
0.4999999999999981
 40
0.5624999999999981
 40
0.5624999999999981
 40
0.6249999999999981
 40
0.6249999999999981
 40
0.7499999999999981
 40
0.7499999999999981
 40
0.8124999999999986
 40
0.8124999999999986
 40
0.874999999999999
 40
0.874999999999999
 40
0.9374999999999994
 40
0.9374999999999994
 40
1.0
 40
1.0
 40
1.0
 40
1.0
 10
105.6040405018341
 20
130.6578702749198
 30
0.0
 10
105.1199662578801
 20
130.6582296675395
 30
0.0
 10
104.6365686873132
 20
130.6731888737208
 30
0.0
 10
103.9126633375772
 20
130.7201729202294
 30
0.0
 10
103.6720009040403
 20
130.739949475354
 30
0.0
 10
103.2006547949647
 20
130.7869135588531
 30
0.0
 10
102.9688189786744
 20
130.8141674080375
 30
0.0
 10
102.5131158921181
 20
130.8757953366501
 30
0.0
 10
102.2892475691768
 20
130.9101704374456
 30
0.0
 10
101.849919977169
 20
130.9854898810987
 30
0.0
 10
101.6332025845026
 20
131.0267078318469
 30
0.0
 10
101.0068606058297
 20
131.1569446510277
 30
0.0
 10
100.6224679714763
 20
131.2519845629269
 30
0.0
 10
100.0949262258565
 20
131.3982515248793
 30
0.0
 10
99.9272920743254
 20
131.44762016007
 30
0.0
 10
99.60888732708482
 20
131.5460238675703
 30
0.0
 10
99.45930645254569
 20
131.5947071322028
 30
0.0
 10
99.04628638299725
 20
131.7343299353712
 30
0.0
 10
98.8147346118381
 20
131.8199166139517
 30
0.0
 10
98.53142509674845
 20
131.9288796618678
 30
0.0
 10
98.44785741497664
 20
131.9619283144422
 30
0.0
 10
98.30593258265247
 20
132.0189317106826
 30
0.0
 10
98.24694447120993
 20
132.0431284162929
 30
0.0
 10
98.15222856750012
 20
132.082330696672
 30
0.0
 10
98.11650060035335
 20
132.097337863169
 30
0.0
 10
98.06853632263595
 20
132.117546860896
 30
0.0
 10
98.05641001520246
 20
132.1227015207103
 30
0.0
 10
98.05641001520246
 20
132.1227015207103
 30
0.0
  0
SPLINE
  5
1A6
330
1F
100
AcDbEntity
  8
0
  6
Continuous
 62
     7
370
    25
100
AcDbSpline
210
0.0
220
0.0
230
1.0
 70
     8
 71
     3
 72
    31
 73
    27
 74
     0
 42
0.000000001
 43
0.00000001
 40
0.0
 40
0.0
 40
0.0
 40
0.0
 40
0.0161756722762523
 40
0.0323169137831925
 40
0.0484425619887098
 40
0.0645715089965146
 40
0.0807226353345281
 40
0.0969147439454959
 40
0.1131664955259556
 40
0.1294963463054562
 40
0.145922489261622
 40
0.162462799634872
 40
0.1791347854483696
 40
0.1959555435640426
 40
0.2945755146277979
 40
0.3932797312250839
 40
0.4928176221933302
 40
0.5924285912823407
 40
0.6939020917448185
 40
0.7927115381487364
 40
0.8267756331435533
 40
0.8608043324964896
 40
0.894984631400992
 40
0.9295010594357868
 40
0.9645328322468297
 40
1.0
 40
1.0
 40
1.0
 40
1.0
 10
116.6123595605776
 20
132.1227015207103
 30
0.0
 10
116.6116264601264
 20
132.1223551292824
 30
0.0
 10
116.6101618196669
 20
132.1216630837388
 30
0.0
 10
116.5971054400018
 20
132.1160807216925
 30
0.0
 10
116.576090879479
 20
132.1072139586983
 30
0.0
 10
116.5463436741383
 20
132.0947728579834
 30
0.0
 10
116.5080713614827
 20
132.0788821994282
 30
0.0
 10
116.4612186805616
 20
132.059556455601
 30
0.0
 10
116.4058009505246
 20
132.0368403660815
 30
0.0
 10
116.3418149866941
 20
132.0107713617068
 30
0.0
 10
116.2692615025435
 20
131.9813889143386
 30
0.0
 10
116.1881448050639
 20
131.9487346670038
 30
0.0
 10
116.0984511503139
 20
131.9128422199694
 30
0.0
 10
115.8414053036574
 20
131.8106043123026
 30
0.0
 10
115.3133693180645
 20
131.6040800988359
 30
0.0
 10
114.3347346708183
 20
131.266994785486
 30
0.0
 10
113.1488583678996
 20
130.9238499261582
 30
0.0
 10
111.7783921028263
 20
130.6267380254976
 30
0.0
 10
110.2925348308617
 20
130.4166945977646
 30
0.0
 10
109.0723821970967
 20
130.3584691948961
 30
0.0
 10
108.2059581641519
 20
130.3721615361561
 30
0.0
 10
107.677713235675
 20
130.3975296217672
 30
0.0
 10
107.1529400044688
 20
130.4395522374847
 30
0.0
 10
106.6319507648764
 20
130.4978362007128
 30
0.0
 10
106.1147098198179
 20
130.5704597459582
 30
0.0
 10
105.779072707484
 20
130.629340063648
 30
0.0
 10
105.6102177194223
 20
130.6589620421934
 30
0.0
  0
LINE
  5
1A7
330
1F
100
AcDbEntity
  8
0
  6
Continuous
 62
     7
370
    25
100
AcDbLine
 10
116.6123595606
 20
132.1227015207
 30
0.0
 11
121.6364101705
 21
132.1227015207
 31
0.0
  0
LINE
  5
1A8
330
1F
100
AcDbEntity
  8
0
  6
Continuous
 62
     7
370
    25
100
AcDbLine
 10
113.7864101705
 20
118.5479749315
 30
0.0
 11
113.7864101705
 21
114.4852015207
 31
0.0
  0
SPLINE
  5
1A9
330
1F
100
AcDbEntity
  8
0
  6
Continuous
 62
     7
370
    25
100
AcDbSpline
210
0.0
220
0.0
230
1.0
 70
     8
 71
     3
 72
    25
 73
    21
 74
     0
 42
0.000000001
 43
0.00000001
 40
0.0
 40
0.0
 40
0.0
 40
0.0
 40
0.0278144320063462
 40
0.0555680196245754
 40
0.083331625367772
 40
0.111176035216759
 40
0.1391714221532265
 40
0.1673868326284763
 40
0.1958897140434718
 40
0.2247454979318961
 40
0.254017249222145
 40
0.3796724410016501
 40
0.5056484635002454
 40
0.629752729069345
 40
0.7535891720571729
 40
0.8038564806093713
 40
0.853339684343451
 40
0.9023264398358534
 40
0.9511131859219439
 40
1.0
 40
1.0
 40
1.0
 40
1.0
 10
109.1364101704935
 20
123.0326981030753
 30
0.0
 10
109.2050655244558
 20
123.0321650179682
 30
0.0
 10
109.3422260480084
 20
123.0311000138838
 30
0.0
 10
109.5474686305942
 20
123.0180051164916
 30
0.0
 10
109.7517896470913
 20
122.9964666299191
 30
0.0
 10
109.9551906991803
 20
122.9656451580705
 30
0.0
 10
110.1576663300262
 20
122.925732405563
 30
0.0
 10
110.3592151942738
 20
122.876632212622
 30
0.0
 10
110.5598292150765
 20
122.8183189651102
 30
0.0
 10
110.7595269794088
 20
122.7507270222434
 30
0.0
 10
111.1750918000881
 20
122.5899135061277
 30
0.0
 10
111.7778682166307
 20
122.2759366067864
 30
0.0
 10
112.4719247721356
 20
121.7123651312917
 30
0.0
 10
113.0386984015327
 20
121.0366209120377
 30
0.0
 10
113.3762762072039
 20
120.4192590845611
 30
0.0
 10
113.5647386164928
 20
119.9271976450511
 30
0.0
 10
113.6639998340173
 20
119.5895458625047
 30
0.0
 10
113.7343444227241
 20
119.2469147204812
 30
0.0
 10
113.7783430212427
 20
118.8995500200396
 30
0.0
 10
113.783719284723
 20
118.6652466434328
 30
0.0
 10
113.7864101704935
 20
118.54797493151
 30
0.0
  0
LINE
  5
1AA
330
1F
100
AcDbEntity
  8
0
  6
Continuous
 62
     7
370
    25
100
AcDbLine
 10
107.2215368912
 20
123.0326981031
 30
0.0
 11
109.1364101705
 21
123.0326981031
 31
0.0
  0
SPLINE
  5
1AB
330
1F
100
AcDbEntity
  8
0
  6
Continuous
 62
     7
370
    25
100
AcDbSpline
210
0.0
220
0.0
230
1.0
 70
     8
 71
     3
 72
    12
 73
     8
 74
     0
 42
0.000000001
 43
0.00000001
 40
0.0
 40
0.0
 40
0.0
 40
0.0
 40
0.1992838848975294
 40
0.3984605265796777
 40
0.5979968004971673
 40
0.7983570684833388
 40
1.0
 40
1.0
 40
1.0
 40
1.0
 10
106.220503048865
 20
122.9305037903518
 30
0.0
 10
106.2859563261655
 20
122.9435261431165
 30
0.0
 10
106.4168276575475
 20
122.9695638407587
 30
0.0
 10
106.6156771091712
 20
122.9979943997327
 30
0.0
 10
106.8160836250423
 20
123.0184255607142
 30
0.0
 10
107.0182545424595
 20
123.0308646377848
 30
0.0
 10
107.1536321261106
 20
123.0320856493594
 30
0.0
 10
107.221536891204
 20
123.0326981030753
 30
0.0
  0
LINE
  5
1AC
330
1F
100
AcDbEntity
  8
0
  6
Continuous
 62
     7
370
    25
100
AcDbLine
 10
100.7957400413
 20
122.9303398663
 30
0.0
 11
106.2197300598
 21
122.9303398663
 31
0.0
  0
SPLINE
  5
1AD
330
1F
100
AcDbEntity
  8
0
  6
Continuous
 62
     7
370
    25
100
AcDbSpline
210
0.0
220
0.0
230
1.0
 70
     8
 71
     3
 72
    24
 73
    20
 74
     0
 42
0.000000001
 43
0.00000001
 40
0.0
 40
0.0
 40
0.0
 40
0.0
 40
0.0410257106287842
 40
0.0818520099077639
 40
0.1225800578354648
 40
0.1633117464058233
 40
0.2041489402806705
 40
0.2451927184749161
 40
0.2865426449235763
 40
0.3282960933646444
 40
0.370547647549383
 40
0.4133885920102291
 40
0.4569065022351533
 40
0.5011849368587563
 40
0.6001856774947433
 40
0.6987388860447942
 40
0.7976800645453981
 40
0.8978349910029445
 40
1.0
 40
1.0
 40
1.0
 40
1.0
 10
97.02375313434334
 20
124.8679816833732
 30
0.0
 10
97.08679222229785
 20
124.8674469830581
 30
0.0
 10
97.21256398767976
 20
124.8663801814155
 30
0.0
 10
97.40050214919056
 20
124.8552366894173
 30
0.0
 10
97.58709224201517
 20
124.8370751911097
 30
0.0
 10
97.77233402455029
 20
124.8112002703882
 30
0.0
 10
97.95622320777821
 20
124.7777633845765
 30
0.0
 10
98.13875687375098
 20
124.736679363033
 30
0.0
 10
98.31993228069031
 20
124.6879166149394
 30
0.0
 10
98.49974706466644
 20
124.6314191267957
 30
0.0
 10
98.67820026374602
 20
124.5671280319935
 30
0.0
 10
98.85528830189568
 20
124.4949743520611
 30
0.0
 10
99.03102042618143
 20
124.4148871670224
 30
0.0
 10
99.27603505977774
 20
124.29104628034
 30
0.0
 10
99.58021813895995
 20
124.1124212981468
 30
0.0
 10
99.92752562040504
 20
123.8633321140895
 30
0.0
 10
100.2466998838775
 20
123.5837625291099
 30
0.0
 10
100.5406117861422
 20
123.2749368911377
 30
0.0
 10
100.710135872834
 20
123.046844847836
 30
0.0
 10
100.7957400413168
 20
122.9316657598053
 30
0.0
  0
LINE
  5
1AE
330
1F
100
AcDbEntity
  8
0
  6
Continuous
 62
     7
370
    25
100
AcDbLine
 10
94.2322114174
 20
124.8679816834
 30
0.0
 11
97.0237531343
 21
124.8679816834
 31
0.0
  0
SPLINE
  5
1AF
330
1F
100
AcDbEntity
  8
0
  6
Continuous
 62
     7
370
    25
100
AcDbSpline
210
0.0
220
0.0
230
1.0
 70
     8
 71
     3
 72
     8
 73
     4
 74
     0
 42
0.000000001
 43
0.00000001
 40
0.0
 40
0.0
 40
0.0
 40
0.0
 40
1.0
 40
1.0
 40
1.0
 40
1.0
 10
94.18640734573472
 20
124.9314346743829
 30
0.0
 10
94.20167536963241
 20
124.9103182039848
 30
0.0
 10
94.2169433935301
 20
124.8891671369321
 30
0.0
 10
94.23221141742776
 20
124.8679816833732
 30
0.0
  0
LINE
  5
1B0
330
1F
100
AcDbEntity
  8
0
  6
Continuous
 62
     7
370
    25
100
AcDbLine
 10
94.1864101705
 20
132.1227015207
 30
0.0
 11
94.1864101705
 21
124.9314346744
 31
0.0
  0
LINE
  5
1B1
330
1F
100
AcDbEntity
  8
0
  6
Continuous
 62
     7
370
    25
100
AcDbLine
 10
94.1864101705
 20
132.1227015207
 30
0.0
 11
98.0564100152
 21
132.1227015207
 31
0.0
  0
ARC
  5
1B2
330
1F
100
AcDbEntity
  8
0
  6
Continuous
 62
     7
370
    25
100
AcDbCircle
 10
210.6364101705
 20
131.5218957688
 30
0.0
 40
0.5000000000000014
100
AcDbArc
 50
280.0
 51
0.0
  0
LINE
  5
1B3
330
1F
100
AcDbEntity
  8
0
  6
Continuous
 62
     7
370
    25
100
AcDbLine
 10
211.1364101705
 20
131.5218957688
 30
0.0
 11
211.1364101705
 21
114.4852015207
 31
0.0
  0
LINE
  5
1B4
330
1F
100
AcDbEntity
  8
0
  6
Continuous
 62
     7
370
    25
100
AcDbLine
 10
207.6364101705
 20
130.4852015207
 30
0.0
 11
207.6364101705
 21
114.4852015207
 31
0.0
  0
LINE
  5
1B5
330
1F
100
AcDbEntity
  8
0
  6
Continuous
 62
     7
370
    25
100
AcDbLine
 10
207.6364101705
 20
130.4852015207
 30
0.0
 11
210.7232342593
 21
131.0294918923
 31
0.0
  0
ARC
  5
1B6
330
1F
100
AcDbEntity
  8
0
  6
Continuous
 62
     7
370
    25
100
AcDbCircle
 10
159.2416361524
 20
130.3852015207
 30
0.0
 40
0.4000000000000057
100
AcDbArc
 50
70.0
 51
90.0
  0
LINE
  5
1B7
330
1F
100
AcDbEntity
  8
0
  6
Continuous
 62
     7
370
    25
100
AcDbLine
 10
150.0364101705
 20
130.7852015207
 30
0.0
 11
159.2416361524
 21
130.7852015207
 31
0.0
  0
ARC
  5
1B8
330
1F
100
AcDbEntity
  8
0
  6
Continuous
 62
     7
370
    25
100
AcDbCircle
 10
150.0364101705
 20
130.3852015207
 30
0.0
 40
0.3999999999999773
100
AcDbArc
 50
90.0
 51
180.0
  0
LINE
  5
1B9
330
1F
100
AcDbEntity
  8
0
  6
Continuous
 62
     7
370
    25
100
AcDbLine
 10
160.1364101705
 20
130.4852015207
 30
0.0
 11
160.1364101705
 21
114.4852015207
 31
0.0
  0
LINE
  5
1BA
330
1F
100
AcDbEntity
  8
0
  6
Continuous
 62
     7
370
    25
100
AcDbLine
 10
159.3784442097
 20
130.761078569
 30
0.0
 11
160.1364101705
 21
130.4852015207
 31
0.0
  0
LINE
  5
1BB
330
1F
100
AcDbEntity
  8
0
  6
Continuous
 62
     7
370
    25
100
AcDbLine
 10
160.1364101705
 20
130.4852015207
 30
0.0
 11
207.6364101705
 21
130.4852015207
 31
0.0
  0
ARC
  5
1BC
330
1F
100
AcDbEntity
  8
0
  6
Continuous
 62
     7
370
    25
100
AcDbCircle
 10
128.8364101705
 20
128.8352015207
 30
0.0
 40
1.200000000000017
100
AcDbArc
 50
0.0
 51
90.0
  0
LINE
  5
1BD
330
1F
100
AcDbEntity
  8
0
  6
Continuous
 62
     7
370
    25
100
AcDbLine
 10
125.1364101705
 20
130.0352015207
 30
0.0
 11
128.8364101705
 21
130.0352015207
 31
0.0
  0
LINE
  5
1BE
330
1F
100
AcDbEntity
  8
0
  6
Continuous
 62
     7
370
    25
100
AcDbLine
 10
125.1364101705
 20
130.0352015207
 30
0.0
 11
125.1364101705
 21
114.4852015207
 31
0.0
  0
LINE
  5
1BF
330
1F
100
AcDbEntity
  8
0
  6
Continuous
 62
     7
370
    25
100
AcDbLine
 10
149.1364101705
 20
119.9852015207
 30
0.0
 11
149.6364101705
 21
120.4852015207
 31
0.0
  0
LINE
  5
1C0
330
1F
100
AcDbEntity
  8
0
  6
Continuous
 62
     7
370
    25
100
AcDbLine
 10
133.8614101705
 20
120.2352015207
 30
0.0
 11
134.6864101705
 21
120.2352015207
 31
0.0
  0
LINE
  5
1C1
330
1F
100
AcDbEntity
  8
0
  6
Continuous
 62
     7
370
    25
100
AcDbLine
 10
137.1364101705
 20
119.9852015207
 30
0.0
 11
137.1364101705
 21
114.4852015207
 31
0.0
  0
LINE
  5
1C2
330
1F
100
AcDbEntity
  8
0
  6
Continuous
 62
     7
370
    25
100
AcDbLine
 10
136.235119242
 20
118.4852015207
 30
0.0
 11
136.235119242
 21
114.4852015207
 31
0.0
  0
LINE
  5
1C3
330
1F
100
AcDbEntity
  8
0
  6
Continuous
 62
     7
370
    25
100
AcDbLine
 10
136.235119242
 20
118.4852015207
 30
0.0
 11
137.1364101705
 21
119.9852015207
 31
0.0
  0
LINE
  5
1C4
330
1F
100
AcDbEntity
  8
0
  6
Continuous
 62
     7
370
    25
100
AcDbLine
 10
137.1364101705
 20
119.9852015207
 30
0.0
 11
149.1364101705
 21
119.9852015207
 31
0.0
  0
LINE
  5
1C5
330
1F
100
AcDbEntity
  8
0
  6
Continuous
 62
     7
370
    25
100
AcDbLine
 10
130.4364101705
 20
119.4852015207
 30
0.0
 11
130.4364101705
 21
114.4852015207
 31
0.0
  0
LINE
  5
1C6
330
1F
100
AcDbEntity
  8
0
  6
Continuous
 62
     7
370
    25
100
AcDbLine
 10
130.0364101705
 20
119.7161416284
 30
0.0
 11
130.4364101705
 21
119.4852015207
 31
0.0
  0
LINE
  5
1C7
330
1F
100
AcDbEntity
  8
0
  6
Continuous
 62
     7
370
    25
100
AcDbLine
 10
130.0364101705
 20
119.7161416284
 30
0.0
 11
130.0364101705
 21
114.4852015207
 31
0.0
  0
LINE
  5
1C8
330
1F
100
AcDbEntity
  8
0
  6
Continuous
 62
     7
370
    25
100
AcDbLine
 10
130.4364101705
 20
119.4852015207
 30
0.0
 11
133.8614101705
 21
119.4852015207
 31
0.0
  0
LINE
  5
1C9
330
1F
100
AcDbEntity
  8
0
  6
Continuous
 62
     7
370
    25
100
AcDbLine
 10
133.8614101705
 20
119.4852015207
 30
0.0
 11
133.8614101705
 21
114.4852015207
 31
0.0
  0
LINE
  5
1CA
330
1F
100
AcDbEntity
  8
0
  6
Continuous
 62
     7
370
    25
100
AcDbLine
 10
134.6864101705
 20
118.4852015207
 30
0.0
 11
136.235119242
 21
118.4852015207
 31
0.0
  0
LINE
  5
1CB
330
1F
100
AcDbEntity
  8
0
  6
Continuous
 62
     7
370
    25
100
AcDbLine
 10
134.6864101705
 20
118.4852015207
 30
0.0
 11
134.6864101705
 21
114.4852015207
 31
0.0
  0
SPLINE
  5
1CC
330
1F
100
AcDbEntity
  8
0
  6
Continuous
 62
     7
370
    25
100
AcDbSpline
210
0.0
220
0.0
230
1.0
 70
     8
 71
     3
 72
    37
 73
    33
 74
     0
 42
0.000000001
 43
0.00000001
 40
0.0
 40
0.0
 40
0.0
 40
0.0
 40
0.0114878548102809
 40
0.0231559765621664
 40
0.0350076484354378
 40
0.0470460033795337
 40
0.0592740307999952
 40
0.0716945830965833
 40
0.084310382027471
 40
0.0971240248798064
 40
0.110137990432059
 40
0.1233546446979478
 40
0.1811510010973306
 40
0.2483631736114483
 40
0.2888373415819305
 40
0.3232297457604668
 40
0.3515392131491981
 40
0.3737664266256219
 40
0.4399300285953865
 40
0.4987424063270025
 40
0.5023253005651624
 40
0.5613100074513698
 40
0.6252595444338102
 40
0.6818650083849742
 40
0.7483890016987833
 40
0.7860781471964605
 40
0.8194856599799695
 40
0.8486127715281627
 40
0.873462272774732
 40
0.9389926156604028
 40
0.998152373139342
 40
1.0
 40
1.0
 40
1.0
 40
1.0
 10
115.9864101704935
 20
137.9488538240635
 30
0.0
 10
115.985483719215
 20
137.9484103070551
 30
0.0
 10
115.9836162788229
 20
137.9475163133876
 30
0.0
 10
115.9683432184831
 20
137.9403243359293
 30
0.0
 10
115.9434415160192
 20
137.9288730923369
 30
0.0
 10
115.9075872440834
 20
137.9127233335624
 30
0.0
 10
115.8606197332458
 20
137.8919956540087
 30
0.0
 10
115.8020768228249
 20
137.866657135007
 30
0.0
 10
115.7315986832473
 20
137.8367167144525
 30
0.0
 10
115.6488241189697
 20
137.8021727404105
 30
0.0
 10
115.5534075738516
 20
137.7630229987959
 30
0.0
 10
115.3238387404631
 20
137.6703243276347
 30
0.0
 10
114.8394205264905
 20
137.4816014371201
 30
0.0
 10
114.0604205549451
 20
137.2035116371489
 30
0.0
 10
113.2692021035249
 20
136.9529247698196
 30
0.0
 10
112.6381516102821
 20
136.7779080084898
 30
0.0
 10
112.0851136539457
 20
136.6380733678907
 30
0.0
 10
111.2921557250493
 20
136.4576625225447
 30
0.0
 10
110.2218213847161
 20
136.2685962009026
 30
0.0
 10
109.2408311052809
 20
136.1633093931929
 30
0.0
 10
108.3128638761613
 20
136.1062766212399
 30
0.0
 10
107.3404083824009
 20
136.0916820228701
 30
0.0
 10
106.0142781769675
 20
136.1698752393613
 30
0.0
 10
104.7442426924738
 20
136.3303549609555
 30
0.0
 10
103.7844666918042
 20
136.5154664991691
 30
0.0
 10
103.0858150444593
 20
136.6829561028992
 30
0.0
 10
102.6420069063042
 20
136.7965793091075
 30
0.0
 10
102.3094698443742
 20
136.8897631440161
 30
0.0
 10
101.922311434131
 20
137.0044280082746
 30
0.0
 10
101.5850634720193
 20
137.1117738173347
 30
0.0
 10
101.4873394056902
 20
137.1493393906214
 30
0.0
 10
101.4864374854184
 20
137.1494707994378
 30
0.0
 10
101.4864101704935
 20
137.1494747791931
 30
0.0
  0
LINE
  5
1CD
330
1F
100
AcDbEntity
  8
0
  6
Continuous
 62
     7
370
    25
100
AcDbLine
 10
115.9864101705
 20
137.9488538241
 30
0.0
 11
115.9864101705
 21
132.5914275415
 31
0.0
  0
SPLINE
  5
1CE
330
1F
100
AcDbEntity
  8
0
  6
Continuous
 62
     7
370
    25
100
AcDbSpline
210
0.0
220
0.0
230
1.0
 70
     8
 71
     3
 72
    30
 73
    26
 74
     0
 42
0.000000001
 43
0.00000001
 40
0.0
 40
0.0
 40
0.0
 40
0.0
 40
0.0192411700742051
 40
0.0381353539376956
 40
0.0566868884861276
 40
0.0749003554931354
 40
0.0927805967284106
 40
0.1103327298326381
 40
0.1275621649289892
 40
0.1444746219341816
 40
0.2455865830531968
 40
0.3577720192516784
 40
0.4505017408956419
 40
0.5720127868619816
 40
0.6168069840199903
 40
0.6590088499432725
 40
0.6986242498774662
 40
0.7356603299341533
 40
0.7701258931915059
 40
0.8073679165907841
 40
0.8483950324891405
 40
0.8881367798820055
 40
0.926626462211046
 40
0.9639007443615101
 40
1.0
 40
1.0
 40
1.0
 40
1.0
 10
106.8155915798814
 20
130.9273362311183
 30
0.0
 10
106.898624059761
 20
130.9162091257934
 30
0.0
 10
107.0631916508338
 20
130.8941555761273
 30
0.0
 10
107.3110731665144
 20
130.8661036868646
 30
0.0
 10
107.5563498419567
 20
130.8421521563387
 30
0.0
 10
107.798907675568
 20
130.8226222041454
 30
0.0
 10
108.0383423526769
 20
130.8074299119687
 30
0.0
 10
108.274355548084
 20
130.7965983507378
 30
0.0
 10
108.5066735933948
 20
130.7901177854847
 30
0.0
 10
109.1152243630188
 20
130.7844862938986
 30
0.0
 10
110.1535368602388
 20
130.8444596933833
 30
0.0
 10
111.4688883883401
 20
131.0438821665581
 30
0.0
 10
112.7484336012317
 20
131.3493635272419
 30
0.0
 10
113.6398741453218
 20
131.6293063301609
 30
0.0
 10
114.2575390141829
 20
131.8567554266762
 30
0.0
 10
114.6008620994662
 20
131.9870340871763
 30
0.0
 10
114.8925531843617
 20
132.1031250251342
 30
0.0
 10
115.1370985401876
 20
132.2044932545375
 30
0.0
 10
115.349453220627
 20
132.2958313070551
 30
0.0
 10
115.5405161952516
 20
132.3799063910023
 30
0.0
 10
115.705763599424
 20
132.4548993449676
 30
0.0
 10
115.8353041496681
 20
132.5158878445133
 30
0.0
 10
115.9236705188907
 20
132.5591255062787
 30
0.0
 10
115.9768163641543
 20
132.5863555921575
 30
0.0
 10
115.9832465600955
 20
132.5897550382874
 30
0.0
 10
115.9864101704935
 20
132.5914275414619
 30
0.0
  0
SPLINE
  5
1CF
330
1F
100
AcDbEntity
  8
0
  6
Continuous
 62
     7
370
    25
100
AcDbSpline
210
0.0
220
0.0
230
1.0
 70
     8
 71
     3
 72
    38
 73
    34
 74
     0
 42
0.000000001
 43
0.00000001
 40
0.0
 40
0.0
 40
0.0
 40
0.0
 40
0.1250000000000004
 40
0.1250000000000004
 40
0.2500000000000009
 40
0.2500000000000009
 40
0.3125000000000013
 40
0.3125000000000013
 40
0.3750000000000018
 40
0.3750000000000018
 40
0.4375000000000023
 40
0.4375000000000023
 40
0.5000000000000029
 40
0.5000000000000029
 40
0.5625000000000034
 40
0.5625000000000034
 40
0.625000000000004
 40
0.625000000000004
 40
0.6875000000000046
 40
0.6875000000000046
 40
0.7187500000000043
 40
0.7187500000000043
 40
0.7500000000000041
 40
0.7500000000000041
 40
0.7812500000000039
 40
0.7812500000000039
 40
0.8125000000000037
 40
0.8125000000000037
 40
0.8750000000000024
 40
0.8750000000000024
 40
0.9375000000000012
 40
0.9375000000000012
 40
1.0
 40
1.0
 40
1.0
 40
1.0
 10
101.4864101704935
 20
137.0212494056142
 30
0.0
 10
101.4864101704936
 20
137.0212494056142
 30
0.0
 10
101.5482159280571
 20
136.9986053229522
 30
0.0
 10
101.7978384734926
 20
136.9060209338961
 30
0.0
 10
101.9815661044308
 20
136.8376333539434
 30
0.0
 10
102.3379549410158
 20
136.7017912547416
 30
0.0
 10
102.4711154025214
 20
136.6505982696851
 30
0.0
 10
102.7621944132178
 20
136.5369096645726
 30
0.0
 10
102.9186843647271
 20
136.4749830570663
 30
0.0
 10
103.252065806015
 20
136.3400979483758
 30
0.0
 10
103.4289695643781
 20
136.2671596940891
 30
0.0
 10
103.8022112118514
 20
136.1081837592932
 30
0.0
 10
103.9999552027326
 20
136.0215439894167
 30
0.0
 10
104.4059786359857
 20
135.8346263168643
 30
0.0
 10
104.6140320293727
 20
135.7345914030552
 30
0.0
 10
105.0363263021068
 20
135.5153278528762
 30
0.0
 10
105.2506916051819
 20
135.3963246612116
 30
0.0
 10
105.6785339167613
 20
135.1260508108877
 30
0.0
 10
105.8949355678679
 20
134.972801985376
 30
0.0
 10
106.193568010748
 20
134.7067334617929
 30
0.0
 10
106.2887606002177
 20
134.6119612155201
 30
0.0
 10
106.4663858520745
 20
134.4062043583302
 30
0.0
 10
106.5490001627029
 20
134.2943458165595
 30
0.0
 10
106.6910804377245
 20
134.0608303123372
 30
0.0
 10
106.7514659869694
 20
133.9382692463814
 30
0.0
 10
106.8509164791243
 20
133.6817984831563
 30
0.0
 10
106.8902079181491
 20
133.5465584696065
 30
0.0
 10
106.9769045043021
 20
133.138276466642
 30
0.0
 10
106.9956128312968
 20
132.8620162888571
 30
0.0
 10
106.9921168106651
 20
132.3052685102214
 30
0.0
 10
106.9696371904565
 20
132.0270382662306
 30
0.0
 10
106.9040095426744
 20
131.4756524460459
 30
0.0
 10
106.8605119989849
 20
131.2013987769435
 30
0.0
 10
106.8110324518749
 20
130.9279693049818
 30
0.0
  0
LINE
  5
1D0
330
1F
100
AcDbEntity
  8
0
  6
Continuous
 62
     7
370
    25
100
AcDbLine
 10
101.4864101705
 20
137.0212494056
 30
0.0
 11
101.4864101705
 21
137.1494747791
 31
0.0
  0
SPLINE
  5
1D1
330
1F
100
AcDbEntity
  8
0
  6
Continuous
 62
     7
370
    25
100
AcDbSpline
210
0.0
220
0.0
230
1.0
 70
     8
 71
     3
 72
    14
 73
    10
 74
     0
 42
0.000000001
 43
0.00000001
 40
0.0
 40
0.0
 40
0.0
 40
0.0
 40
0.0003951392850831
 40
0.0003951392850831
 40
0.0003951392850831
 40
0.0008159035679249
 40
0.0008159035679249
 40
0.0008159035679249
 40
0.0012369936130997
 40
0.0012369936130997
 40
0.0012369936130997
 40
0.0012369936130997
 10
105.614294120225
 20
130.6601745177106
 30
0.0
 10
105.7428033583317
 20
130.689048485424
 30
0.0
 10
105.8713668660607
 20
130.7177366989003
 30
0.0
 10
105.9999172443441
 20
130.7462395429378
 30
0.0
 10
106.1368024920077
 20
130.7765904366285
 30
0.0
 10
106.2736981379075
 20
130.8067364016575
 30
0.0
 10
106.4105183992566
 20
130.836688221226
 30
0.0
 10
106.5474443882015
 20
130.8666631860059
 30
0.0
 10
106.6843214601656
 20
130.8964492354511
 30
0.0
 10
106.8210583093528
 20
130.9260717086198
 30
0.0
  0
LINE
  5
1D2
330
1F
100
AcDbEntity
  8
0
  6
Continuous
 62
     7
370
    25
100
AcDbLine
 10
98.0564100152
 20
132.1227015207
 30
0.0
 11
101.4864101705
 21
137.0212494056
 31
0.0
  0
LINE
  5
1D3
330
1F
100
AcDbEntity
  8
0
  6
Continuous
 62
     7
370
    25
100
AcDbLine
 10
100.7368483221
 20
137.9585872304
 30
0.0
 11
101.4864383011
 21
137.1494758926
 31
0.0
  0
LINE
  5
1D4
330
1F
100
AcDbEntity
  8
0
  6
Continuous
 62
     7
370
    25
100
AcDbLine
 10
115.9864231186
 20
137.9488540799
 30
0.0
 11
116.6547532645
 21
138.7579659023
 31
0.0
  0
LINE
  5
1D5
330
1F
100
AcDbEntity
  8
0
  6
Continuous
 62
     7
370
    25
100
AcDbLine
 10
91.9380762203
 20
133.4207777321
 30
0.0
 11
94.1864101705
 21
132.1227015207
 31
0.0
  0
LINE
  5
1D6
330
1F
100
AcDbEntity
  8
0
  6
Continuous
 62
     7
370
    25
100
AcDbLine
 10
91.1864101705
 20
134.7227015207
 30
0.0
 11
91.9380762203
 21
133.4207777321
 31
0.0
  0
LINE
  5
1D7
330
1F
100
AcDbEntity
  8
0
  6
Continuous
 62
     7
370
    25
100
AcDbLine
 10
91.1864101705
 20
136.6882962445
 30
0.0
 11
91.1864101705
 21
134.7227015207
 31
0.0
  0
LINE
  5
1D8
330
1F
100
AcDbEntity
  8
0
  6
Continuous
 62
     7
370
    25
100
AcDbLine
 10
92.6864101705
 20
137.5543216483
 30
0.0
 11
91.1864101705
 21
136.6882962445
 31
0.0
  0
LINE
  5
1D9
330
1F
100
AcDbEntity
  8
0
  6
Continuous
 62
     7
370
    25
100
AcDbLine
 10
141.9114101705
 20
142.3352015207
 30
0.0
 11
140.1614101705
 21
142.3352015207
 31
0.0
  0
ARC
  5
1DA
330
1F
100
AcDbEntity
  8
0
  6
Continuous
 62
     7
370
    25
100
AcDbCircle
 10
141.9114101705
 20
143.3352015207
 30
0.0
 40
1.0
100
AcDbArc
 50
270.0
 51
0.0
  0
LINE
  5
1DB
330
1F
100
AcDbEntity
  8
0
  6
Continuous
 62
     7
370
    25
100
AcDbLine
 10
142.9114101705
 20
143.4327967849
 30
0.0
 11
142.9114101705
 21
143.3352015207
 31
0.0
  0
LINE
  5
1DC
330
1F
100
AcDbEntity
  8
0
  6
Continuous
 62
     7
370
    25
100
AcDbLine
 10
144.3706079751
 20
145.9602015207
 30
0.0
 11
142.9114101705
 21
143.4327967849
 31
0.0
  0
LINE
  5
1DD
330
1F
100
AcDbEntity
  8
0
  6
Continuous
 62
     7
370
    25
100
AcDbLine
 10
116.6123593123
 20
132.122702811
 30
0.0
 11
115.9864132987
 21
132.5914276663
 31
0.0
  0
LINE
  5
1DE
330
1F
100
AcDbEntity
  8
0
  6
Continuous
 62
     7
370
    25
100
AcDbLine
 10
139.1614101705
 20
143.4327967849
 30
0.0
 11
137.7022123659
 21
145.9602015207
 31
0.0
  0
LINE
  5
1DF
330
1F
100
AcDbEntity
  8
0
  6
Continuous
 62
     7
370
    25
100
AcDbLine
 10
139.1614101705
 20
143.3352015207
 30
0.0
 11
139.1614101705
 21
143.4327967849
 31
0.0
  0
ARC
  5
1E0
330
1F
100
AcDbEntity
  8
0
  6
Continuous
 62
     7
370
    25
100
AcDbCircle
 10
140.1614101705
 20
143.3352015207
 30
0.0
 40
1.0
100
AcDbArc
 50
180.0
 51
270.0
  0
LINE
  5
1E1
330
1F
100
AcDbEntity
  8
0
  6
Continuous
 62
     7
370
    25
100
AcDbLine
 10
134.6864101705
 20
120.2352015207
 30
0.0
 11
134.6864101705
 21
118.4852015207
 31
0.0
  0
LINE
  5
1E2
330
1F
100
AcDbEntity
  8
0
  6
Continuous
 62
     7
370
    25
100
AcDbLine
 10
133.8614101705
 20
119.4852015207
 30
0.0
 11
133.8614101705
 21
120.2352015207
 31
0.0
  0
LINE
  5
1E3
330
1F
100
AcDbEntity
  8
0
  6
Continuous
 62
     7
370
    25
100
AcDbLine
 10
130.0364101705
 20
128.8352015207
 30
0.0
 11
130.0364101705
 21
119.7161416284
 31
0.0
  0
LINE
  5
1E4
330
1F
100
AcDbEntity
  8
0
  6
Continuous
 62
     7
370
    25
100
AcDbLine
 10
149.6364101705
 20
120.4852015207
 30
0.0
 11
149.6364101705
 21
130.3852015207
 31
0.0
  0
LINE
  5
1E5
330
1F
100
AcDbEntity
  8
0
  6
Continuous
 62
     7
370
    25
100
AcDbLine
 10
125.1364101705
 20
131.9352015207
 30
0.0
 11
125.1364101705
 21
130.0352015207
 31
0.0
  0
LINE
  5
1E6
330
1F
100
AcDbEntity
  8
0
  6
Continuous
 62
     7
370
    25
100
AcDbLine
 10
211.1364101705
 20
131.5218957688
 30
0.0
 11
211.1364101705
 21
134.1742252916
 31
0.0
  0
LINE
  5
1E7
330
1F
100
AcDbEntity
  8
0
  6
Continuous
 62
     7
370
    25
100
AcDbLine
 10
131.1364101705
 20
145.7602015207
 30
0.0
 11
131.1364101705
 21
141.3352015207
 31
0.0
  0
LINE
  5
1E8
330
1F
100
AcDbEntity
  8
0
  6
Continuous
 62
     7
370
    25
100
AcDbLine
 10
149.1364101705
 20
143.9852015207
 30
0.0
 11
149.1364101705
 21
145.9602015207
 31
0.0
  0
SPLINE
  5
1E9
330
1F
100
AcDbEntity
  8
0
  6
Continuous
 62
     7
370
    25
100
AcDbSpline
210
0.0
220
0.0
230
1.0
 70
     8
 71
     3
 72
     9
 73
     5
 74
     0
 42
0.000000001
 43
0.00000001
 40
0.0
 40
0.0
 40
0.0
 40
0.0
 40
0.5102121239851395
 40
0.9999999999999999
 40
0.9999999999999999
 40
0.9999999999999999
 40
0.9999999999999999
 10
91.99077356716457
 20
124.9468280373621
 30
0.0
 10
92.36563562414335
 20
124.9443381199804
 30
0.0
 10
93.10035367445316
 20
124.9394579588384
 30
0.0
 10
93.82935426490988
 20
124.934073067452
 30
0.0
 10
94.18640991572327
 20
124.9314356129373
 30
0.0
  0
LINE
  5
1EA
330
1F
100
AcDbEntity
  8
0
  6
Continuous
 62
     7
370
    25
100
AcDbLine
 10
91.9380762203
 20
124.9772523283
 30
0.0
 11
91.990773569
 21
124.9468274998
 31
0.0
  0
LINE
  5
1EB
330
1F
100
AcDbEntity
  8
0
  6
Continuous
 62
     7
370
    25
100
AcDbLine
 10
91.9380762203
 20
133.4207777321
 30
0.0
 11
91.9380762203
 21
124.9772523283
 31
0.0
  0
SPLINE
  5
1EC
330
1F
100
AcDbEntity
  8
0
  6
Continuous
 62
     7
370
    25
100
AcDbSpline
210
0.0
220
0.0
230
1.0
 70
    24
 71
     3
 72
     8
 73
     4
 74
     0
 42
0.000000001
 43
0.00000001
 40
0.0000004089325119
 40
0.0000004089325119
 40
0.0000004089325119
 40
0.0000004089325119
 40
0.0015399868451459
 40
0.0015399868451459
 40
0.0015399868451459
 40
0.0015399868451459
 10
91.18641017049347
 20
125.4112269244947
 30
0.0
 10
91.43740124651792
 20
125.2663171591878
 30
0.0
 10
91.68799044302087
 20
125.1216394191308
 30
0.0
 10
91.93807622033302
 20
124.9772523282792
 30
0.0
  0
LINE
  5
1ED
330
1F
100
AcDbEntity
  8
0
  6
Continuous
 62
     7
370
    25
100
AcDbLine
 10
91.1864101705
 20
134.7227015207
 30
0.0
 11
91.1864101705
 21
125.4112269245
 31
0.0
  0
SPLINE
  5
1EE
330
1F
100
AcDbEntity
  8
0
  6
Continuous
 62
     7
370
    25
100
AcDbSpline
210
0.0
220
0.0
230
1.0
 70
     8
 71
     3
 72
     8
 73
     4
 74
     0
 42
0.000000001
 43
0.00000001
 40
0.0
 40
0.0
 40
0.0
 40
0.0
 40
1.0
 40
1.0
 40
1.0
 40
1.0
 10
94.31609191325025
 20
124.5452021984468
 30
0.0
 10
94.2881436931307
 20
124.6530185524223
 30
0.0
 10
94.260183604962
 20
124.7606124025886
 30
0.0
 10
94.23221141742776
 20
124.8679816833732
 30
0.0
  0
LINE
  5
1EF
330
1F
100
AcDbEntity
  8
0
  6
Continuous
 62
     7
370
    25
100
AcDbLine
 10
94.3160950518
 20
124.5452015207
 30
0.0
 11
92.6864093837
 21
124.5452015207
 31
0.0
  0
LINE
  5
1F0
330
1F
100
AcDbEntity
  8
0
  6
Continuous
 62
     7
370
    25
100
AcDbLine
 10
92.6864095836
 20
124.5452018595
 30
0.0
 11
91.9907731056
 21
124.9468277674
 31
0.0
  0
LINE
  5
1F1
330
1F
100
AcDbEntity
  8
0
  6
Continuous
 62
     7
370
    25
100
AcDbLine
 10
100.7403710677
 20
122.5477015207
 30
0.0
 11
100.4881994397
 21
122.5477015207
 31
0.0
  0
SPLINE
  5
1F2
330
1F
100
AcDbEntity
  8
0
  6
Continuous
 62
     7
370
    25
100
AcDbSpline
210
0.0
220
0.0
230
1.0
 70
     8
 71
     3
 72
    26
 73
    22
 74
     0
 42
0.000000001
 43
0.00000001
 40
0.0
 40
0.0
 40
0.0
 40
0.0
 40
0.0524616379932503
 40
0.1026498591890872
 40
0.150565513457809
 40
0.1962095861957063
 40
0.2395832262568645
 40
0.2806877815599511
 40
0.3195248450380211
 40
0.3560963147430692
 40
0.3904044736547445
 40
0.4224520974433627
 40
0.4522426027417772
 40
0.4797802555366611
 40
0.5050704712281336
 40
0.5966394156799991
 40
0.6841917884819224
 40
0.7679874773571101
 40
0.8483228539139507
 40
0.925534163520116
 40
1.0
 40
1.0
 40
1.0
 40
1.0
 10
100.4863929458241
 20
122.5477313047457
 30
0.0
 10
100.4507565467928
 20
122.6072782248279
 30
0.0
 10
100.3810280464543
 20
122.7237916086145
 30
0.0
 10
100.2675498856945
 20
122.8881895693438
 30
0.0
 10
100.1520243359695
 20
123.0403513071453
 30
0.0
 10
100.0349026399593
 20
123.1802540040778
 30
0.0
 10
99.91753093947997
 20
123.3084683279819
 30
0.0
 10
99.80090997344634
 20
123.4254840069222
 30
0.0
 10
99.6860070530013
 20
123.5318611621663
 30
0.0
 10
99.57368282731197
 20
123.6281772426406
 30
0.0
 10
99.46471385327712
 20
123.7150265891931
 30
0.0
 10
99.35979481244043
 20
123.7930067713869
 30
0.0
 10
99.2595374864917
 20
123.8627149684399
 30
0.0
 10
99.16450014390857
 20
123.924724957341
 30
0.0
 10
98.9943932394778
 20
124.0292113946068
 30
0.0
 10
98.7414742080727
 20
124.1642700611213
 30
0.0
 10
98.39549305101158
 20
124.3086569535383
 30
0.0
 10
98.04753450168724
 20
124.4176248657833
 30
0.0
 10
97.70139474131118
 20
124.49215444812
 30
0.0
 10
97.36032995787707
 20
124.5370831526695
 30
0.0
 10
97.13458334636141
 20
124.5425282515239
 30
0.0
 10
97.02375313434335
 20
124.5452015207103
 30
0.0
  0
SPLINE
  5
1F3
330
1F
100
AcDbEntity
  8
0
  6
Continuous
 62
     7
370
    25
100
AcDbSpline
210
0.0
220
0.0
230
1.0
 70
     8
 71
     3
 72
     8
 73
     4
 74
     0
 42
0.000000001
 43
0.00000001
 40
0.0
 40
0.0
 40
0.0
 40
0.0
 40
1.0
 40
1.0
 40
1.0
 40
1.0
 10
100.740371067726
 20
122.5477015207101
 30
0.0
 10
100.7693757741535
 20
122.6716392475724
 30
0.0
 10
100.788408293835
 20
122.7995913778058
 30
0.0
 10
100.7966598860266
 20
122.9306606904972
 30
0.0
  0
LINE
  5
1F4
330
1F
100
AcDbEntity
  8
0
  6
Continuous
 62
     7
370
    25
100
AcDbLine
 10
97.0237531343
 20
124.5452015207
 30
0.0
 11
94.3160950518
 21
124.5452015207
 31
0.0
  0
LINE
  5
1F5
330
1F
100
AcDbEntity
  8
0
  6
Continuous
 62
     7
370
    25
100
AcDbLine
 10
113.7864101705
 20
118.5479749315
 30
0.0
 11
113.1364101705
 21
118.6977015207
 31
0.0
  0
SPLINE
  5
1F6
330
1F
100
AcDbEntity
  8
0
  6
Continuous
 62
     7
370
    25
100
AcDbSpline
210
0.0
220
0.0
230
1.0
 70
     8
 71
     3
 72
    26
 73
    22
 74
     0
 42
0.000000001
 43
0.00000001
 40
0.0
 40
0.0
 40
0.0
 40
0.0
 40
0.0305951740572542
 40
0.0629166281868252
 40
0.0969720532897518
 40
0.1327680143285475
 40
0.1703101548822826
 40
0.2096033578521445
 40
0.2506518729756858
 40
0.3342141733898277
 40
0.4179517165474626
 40
0.5018670561020881
 40
0.5659795686746639
 40
0.6277136397870199
 40
0.687135819210908
 40
0.7443207393864881
 40
0.7993521466017559
 40
0.8523240127975756
 40
0.903341702807647
 40
0.9525231537633125
 40
1.0
 40
1.0
 40
1.0
 40
1.0
 10
113.1364101704935
 20
118.6977015207103
 30
0.0
 10
113.1355019586488
 20
118.7622366880975
 30
0.0
 10
113.1336342906684
 20
118.8949483086909
 30
0.0
 10
113.1180417016067
 20
119.0977624002145
 30
0.0
 10
113.0913978404196
 20
119.3094754411149
 30
0.0
 10
113.0512434113412
 20
119.5291874344878
 30
0.0
 10
112.996345294658
 20
119.755934305359
 30
0.0
 10
112.9251023260463
 20
119.9885653091421
 30
0.0
 10
112.8066899317637
 20
120.3039636236188
 30
0.0
 10
112.6185590353558
 20
120.6884455221537
 30
0.0
 10
112.3345422721213
 20
121.1184731366833
 30
0.0
 10
112.0251243155715
 20
121.4769598490241
 30
0.0
 10
111.7092147047699
 20
121.7687265053136
 30
0.0
 10
111.4024692966466
 20
122.0011855921507
 30
0.0
 10
111.0840501828245
 20
122.1979958267147
 30
0.0
 10
110.7580793066674
 20
122.360096528973
 30
0.0
 10
110.4285404715422
 20
122.4885664124527
 30
0.0
 10
110.0989785566956
 20
122.5851502318256
 30
0.0
 10
109.7725602333964
 20
122.6510024611118
 30
0.0
 10
109.4520420410925
 20
122.6905674089373
 30
0.0
 10
109.2403765275617
 20
122.6953516071526
 30
0.0
 10
109.1364101704935
 20
122.6977015207103
 30
0.0
  0
SPLINE
  5
1F7
330
1F
100
AcDbEntity
  8
0
  6
Continuous
 62
     7
370
    25
100
AcDbSpline
210
0.0
220
0.0
230
1.0
 70
     8
 71
     3
 72
    13
 73
     9
 74
     0
 42
0.000000001
 43
0.00000001
 40
0.0
 40
0.0
 40
0.0
 40
0.0
 40
0.1604061687300809
 40
0.3231296684563272
 40
0.4883154213007764
 40
0.6561019685773533
 40
0.8266215117792448
 40
1.0
 40
1.0
 40
1.0
 40
1.0
 10
107.221536891204
 20
122.6977015207103
 30
0.0
 10
107.1624869396889
 20
122.6969459506723
 30
0.0
 10
107.0435339629641
 20
122.6954238951441
 30
0.0
 10
106.8642803293583
 20
122.6829788360166
 30
0.0
 10
106.6833473476706
 20
122.6627946548859
 30
0.0
 10
106.5012188532719
 20
122.6336592887452
 30
0.0
 10
106.3180518454775
 20
122.5962431369261
 30
0.0
 10
106.1973125306032
 20
122.5639772645691
 30
0.0
 10
106.1364409990183
 20
122.5477102096306
 30
0.0
  0
SPLINE
  5
1F8
330
1F
100
AcDbEntity
  8
0
  6
Continuous
 62
     7
370
    25
100
AcDbSpline
210
0.0
220
0.0
230
1.0
 70
    24
 71
     3
 72
    10
 73
     6
 74
     0
 42
0.000000001
 43
0.00000001
 40
0.0
 40
0.0
 40
0.0
 40
0.0
 40
0.3216623556917455
 40
0.6548175346390357
 40
1.0
 40
1.0
 40
1.0
 40
1.0
 10
106.1365890053982
 20
122.5477015207103
 30
0.0
 10
106.068043097541
 20
122.5477015207103
 30
0.0
 10
105.9285021733437
 20
122.5477015207103
 30
0.0
 10
105.7188937579931
 20
122.5477015207103
 30
0.0
 10
105.5792167628393
 20
122.5477015207103
 30
0.0
 10
105.5081399916385
 20
122.5477015207103
 30
0.0
  0
SPLINE
  5
1F9
330
1F
100
AcDbEntity
  8
0
  6
Continuous
 62
     7
370
    25
100
AcDbSpline
210
0.0
220
0.0
230
1.0
 70
     8
 71
     3
 72
     8
 73
     4
 74
     0
 42
0.000000001
 43
0.00000001
 40
0.0
 40
0.0
 40
0.0
 40
0.0
 40
1.0
 40
1.0
 40
1.0
 40
1.0
 10
106.2227402868921
 20
122.9261478698932
 30
0.0
 10
105.9534439568356
 20
122.8294584846999
 30
0.0
 10
105.7172832714219
 20
122.7014593153231
 30
0.0
 10
105.508085755238
 20
122.5479827176785
 30
0.0
  0
LINE
  5
1FA
330
1F
100
AcDbEntity
  8
0
  6
Continuous
 62
     7
370
    25
100
AcDbLine
 10
105.5086314668
 20
106.4227015207
 30
0.0
 11
105.6617911965
 21
106.4227015207
 31
0.0
  0
LINE
  5
1FB
330
1F
100
AcDbEntity
  8
0
  6
Continuous
 62
     7
370
    25
100
AcDbLine
 10
109.1364101705
 20
122.6977015207
 30
0.0
 11
107.2215368912
 21
122.6977015207
 31
0.0
  0
LINE
  5
1FC
330
1F
100
AcDbEntity
  8
0
  6
Continuous
 62
     7
370
    25
100
AcDbLine
 10
105.5084983524
 20
122.5477015207
 30
0.0
 11
100.7403710677
 21
122.5477015207
 31
0.0
  0
LINE
  5
1FD
330
1F
100
AcDbEntity
  8
0
  6
Continuous
 62
     7
370
    25
100
AcDbLine
 10
113.1364101705
 20
114.4852015207
 30
0.0
 11
113.1364101705
 21
118.6977015207
 31
0.0
  0
LINE
  5
1FE
330
1F
100
AcDbEntity
  8
VERMASSUNG
  6
CENTERX2
100
AcDbLine
 10
223.1314101705
 20
114.4852015207
 30
0.0
 11
79.1914101705
 21
114.4852015207
 31
0.0
  0
HATCH
  5
1FF
330
1F
100
AcDbEntity
  8
0
  6
Continuous
 62
     7
370
    18
100
AcDbHatch
 10
0.0
 20
0.0
 30
0.0
210
0.0
220
0.0
230
1.0
  2
ANSI31
 70
     0
 71
     0
 91
        1
 92
        0
 93
       50
 72
     2
 10
140.1614101704935
 20
143.3352015207103
 40
1.000000000000003
 50
90.0
 51
180.0
 73
     0
 72
     1
 10
139.1614101704935
 20
143.3352015207103
 11
139.1614101704935
 21
143.4327967849019
 72
     1
 10
139.1614101704935
 20
143.4327967849019
 11
137.7022123659234
 21
145.9602015207103
 72
     1
 10
137.7022123659234
 20
145.9602015207103
 11
131.3364101704935
 21
145.9602015207103
 72
     2
 10
131.3364101704935
 20
145.7602015207103
 40
0.2000000000000028
 50
90.0
 51
180.0
 73
     1
 72
     1
 10
131.1364101704935
 20
145.7602015207103
 11
131.1364101704935
 21
141.3352015207103
 72
     1
 10
131.1364101704935
 20
141.3352015207103
 11
131.4704488565221
 21
140.2757661603137
 72
     2
 10
130.7074752959235
 20
140.0352015207103
 40
0.8000000000000049
 50
342.4999999999974
 51
467.5000000000022
 73
     0
 72
     1
 10
130.4669106563201
 20
139.2722279601117
 11
129.9762281304627
 21
139.4269395662386
 72
     1
 10
129.9762281304627
 20
139.4269395662386
 11
116.6547548579432
 21
138.7579625932124
 72
     1
 10
116.6547532645447
 20
138.7579659022809
 11
115.9864231186152
 21
137.9488540798897
 72
     1
 10
115.9864231186152
 20
137.9488540798897
 11
115.9864101704935
 21
132.5914275414619
 72
     1
 10
115.9864132987272
 20
132.5914276663424
 11
116.6123593122693
 21
132.1227028110024
 72
     1
 10
116.6123595605783
 20
132.1227015207103
 11
121.6364101704935
 21
132.1227015207103
 72
     1
 10
121.6364101704935
 20
132.1227015207103
 11
122.5116506440743
 21
132.6280218437379
 72
     2
 10
122.9116506440743
 20
131.9352015207103
 40
0.7999999999999962
 50
240.0000000000012
 51
269.9999999999998
 73
     0
 72
     1
 10
122.9116506440743
 20
132.7352015207103
 11
124.3364101704935
 21
132.7352015207103
 72
     2
 10
124.3364101704935
 20
131.9352015207103
 40
0.7999999999999977
 50
270.0000000000008
 51
360.0000000000008
 73
     0
 72
     1
 10
125.1364101704935
 20
131.9352015207103
 11
125.1364101704935
 21
130.0352015207103
 72
     1
 10
125.1364101704935
 20
130.0352015207103
 11
128.8364101704935
 21
130.0352015207103
 72
     2
 10
128.8364101704935
 20
128.8352015207103
 40
1.2
 50
270.0000000000008
 51
360.0000000000008
 73
     0
 72
     1
 10
130.0364101704935
 20
128.8352015207103
 11
130.0364101704935
 21
119.7161416283861
 72
     1
 10
130.0364101704935
 20
119.7161416283861
 11
130.4364101704934
 21
119.4852015207103
 72
     1
 10
130.4364101704934
 20
119.4852015207103
 11
133.8614101704935
 21
119.4852015207103
 72
     1
 10
133.8614101704935
 20
119.4852015207103
 11
133.8614101704935
 21
120.2352015207103
 72
     1
 10
133.8614101704935
 20
120.2352015207103
 11
134.6864101704934
 21
120.2352015207103
 72
     1
 10
134.6864101704934
 20
120.2352015207103
 11
134.6864101704934
 21
118.4852015207103
 72
     1
 10
134.6864101704934
 20
118.4852015207103
 11
136.2351192419521
 21
118.4852015207103
 72
     1
 10
136.2351192419521
 20
118.4852015207103
 11
137.1364101704935
 21
119.9852015207103
 72
     1
 10
137.1364101704935
 20
119.9852015207103
 11
149.1364101704935
 21
119.9852015207103
 72
     1
 10
149.1364101704935
 20
119.9852015207103
 11
149.6364101704935
 21
120.4852015207103
 72
     1
 10
149.6364101704935
 20
120.4852015207103
 11
149.6364101704935
 21
130.3852015207103
 72
     2
 10
150.0364101704935
 20
130.3852015207103
 40
0.400000000000001
 50
180.0
 51
270.0000000000008
 73
     0
 72
     1
 10
150.0364101704935
 20
130.7852015207103
 11
159.2416361523737
 21
130.7852015207103
 72
     2
 10
159.2416361523737
 20
130.3852015207103
 40
0.3999999999999999
 50
270.0000000000008
 51
289.9999999999999
 73
     0
 72
     1
 10
159.378444209704
 20
130.7610785690246
 11
160.1364101704935
 21
130.4852015207102
 72
     1
 10
160.1364101704935
 20
130.4852015207102
 11
207.6364101704934
 21
130.4852015207102
 72
     1
 10
207.6364101704934
 20
130.4852015207102
 11
210.7232342593269
 21
131.0294918922723
 72
     2
 10
210.6364101704935
 20
131.5218957687784
 40
0.5000000000000016
 50
280.0000000000032
 51
360.0000000000008
 73
     1
 72
     1
 10
211.1364101704935
 20
131.5218957687784
 11
211.1364101704935
 21
134.1742252915647
 72
     2
 10
208.6364101704935
 20
134.1742252915647
 40
2.500000000000007
 50
0.0
 51
85.49999999999962
 73
     1
 72
     1
 10
208.8325579098131
 20
136.6665186258975
 11
153.9584888577074
 21
140.9852015207103
 72
     1
 10
153.9584888577074
 20
140.9852015207103
 11
152.1364101704935
 21
140.9852015207103
 72
     2
 10
152.1364101704935
 20
143.9852015207103
 40
3.0
 50
90.0
 51
180.0
 73
     0
 72
     1
 10
149.1364101704935
 20
143.9852015207103
 11
149.1364101704935
 21
145.9602015207103
 72
     1
 10
149.1364101704935
 20
145.9602015207103
 11
144.3706079750636
 21
145.9602015207103
 72
     1
 10
144.3706079750636
 20
145.9602015207103
 11
142.9114101704935
 21
143.4327967849019
 72
     1
 10
142.9114101704935
 20
143.4327967849019
 11
142.9114101704935
 21
143.3352015207103
 72
     2
 10
141.9114101704935
 20
143.3352015207103
 40
1.000000000000003
 50
0.0
 51
90.0
 73
     0
 72
     1
 10
141.9114101704935
 20
142.3352015207103
 11
140.1614101704935
 21
142.3352015207103
 97
        0
 75
     0
 76
     1
 52
0.0
 41
1.0
 77
     0
 78
     1
 53
45.0
 43
0.0
 44
0.0
 45
-2.245064030267288
 46
2.245064030267288
 79
     0
 98
        1
 10
0.0
 20
0.0
  0
HATCH
  5
200
330
1F
100
AcDbEntity
  8
0
  6
Continuous
 62
     7
370
    18
100
AcDbHatch
 10
0.0
 20
0.0
 30
0.0
210
0.0
220
0.0
230
1.0
  2
ANSI31
 70
     0
 71
     0
 91
        1
 92
        0
 93
        9
 72
     1
 10
101.4864383010816
 20
137.1494758925932
 11
100.7368483221459
 21
137.9585872303608
 72
     1
 10
100.7368483221459
 20
137.9585872303608
 11
92.6864101704935
 21
137.5543216482927
 72
     1
 10
92.6864101704935
 20
137.5543216482927
 11
91.18641017049349
 21
136.6882962445083
 72
     1
 10
91.18641017049349
 20
136.6882962445083
 11
91.18641017049347
 21
134.7227015207103
 72
     1
 10
91.18641017049347
 20
134.7227015207103
 11
91.93807622033302
 21
133.4207777320636
 72
     1
 10
91.93807622033302
 20
133.4207777320636
 11
94.18641017049347
 21
132.1227015207103
 72
     1
 10
94.18641017049347
 20
132.1227015207103
 11
98.05641001520243
 21
132.1227015207103
 72
     1
 10
98.05641001520243
 20
132.1227015207103
 11
101.4864101704935
 21
137.0212494056143
 72
     1
 10
101.4864101704935
 20
137.0212494056142
 11
101.4864101704935
 21
137.1494747791
 97
        0
 75
     0
 76
     1
 52
0.0
 41
1.0
 77
     0
 78
     1
 53
45.0
 43
0.0
 44
0.0
 45
-2.245064030267288
 46
2.245064030267288
 79
     0
 98
        1
 10
0.0
 20
0.0
  0
HATCH
  5
201
330
1F
100
AcDbEntity
  8
0
  6
Continuous
 62
     7
370
    18
100
AcDbHatch
 10
0.0
 20
0.0
 30
0.0
210
0.0
220
0.0
230
1.0
  2
ANSI31
 70
     0
 71
     0
 91
        1
 92
        0
 93
       12
 72
     1
 10
153.6444958343872
 20
119.9852015207103
 11
153.1444958343872
 21
120.4852015207103
 72
     1
 10
153.1444958343872
 20
120.4852015207103
 11
138.1444958343872
 21
120.4852015207103
 72
     1
 10
138.1444958343872
 20
120.4852015207103
 11
137.6444958343872
 21
119.9852015207103
 72
     1
 10
137.6444958343872
 20
119.9852015207103
 11
137.6444958343872
 21
118.1852015207103
 72
     1
 10
137.6444958343872
 20
118.1852015207103
 11
138.2082786638593
 21
117.6214186912381
 72
     1
 10
138.2082786638593
 20
117.6214186912381
 11
144.6444958343203
 21
117.6214186912381
 72
     1
 10
144.6444958343203
 20
117.6214186912381
 11
144.6444958343203
 21
117.4852015207103
 72
     1
 10
144.6444958343203
 20
117.4852015207103
 11
150.6444958343872
 21
117.4852015207103
 72
     1
 10
150.6444958343872
 20
117.4852015207103
 11
150.6444958343872
 21
117.6214186912381
 72
     1
 10
150.6444958343872
 20
117.6214186912381
 11
155.6444958343871
 21
117.6214186912381
 72
     1
 10
155.6444958343871
 20
117.6214186912381
 11
155.6444958343872
 21
119.9852015207103
 72
     1
 10
155.6444958343872
 20
119.9852015207103
 11
153.6444958343872
 21
119.9852015207103
 97
        0
 75
     0
 76
     1
 52
0.0
 41
1.0
 77
     0
 78
     1
 53
45.0
 43
0.0
 44
0.0
 45
-2.245064030267288
 46
2.245064030267288
 79
     0
 98
        1
 10
0.0
 20
0.0
  0
POINT
  5
202
330
1F
100
AcDbEntity
  8
VERMASSUNG
100
AcDbPoint
 10
211.1364101705
 20
92.4852015207
 30
0.0
  0
POINT
  5
203
330
1F
100
AcDbEntity
  8
VERMASSUNG
100
AcDbPoint
 10
211.1364101705
 20
136.4852015207
 30
0.0
  0
DIMENSION
  5
204
330
1F
100
AcDbEntity
  8
VERMASSUNG
100
AcDbDimension
  2
_D
 10
245.1364101705
 20
136.4852015207
 30
0.0
 11
245.1364101705
 21
114.4852015207
 31
0.0
 70
   160
  1
%%c<>
 71
     2
 42
-1.0
  3
SLDDIMSTYLE0
100
AcDbAlignedDimension
 13
211.1364101705
 23
92.4852015207
 33
0.0
 14
211.1364101705
 24
136.4852015207
 34
0.0
 50
90.0
100
AcDbRotatedDimension
  0
DIMENSION
  5
210
330
1F
100
AcDbEntity
  8
VERMASSUNG
100
AcDbDimension
  2
_D_1
 10
233.1364101705
 20
98.4852015207
 30
0.0
 11
233.1364101705
 21
114.4852015207
 31
0.0
 70
   160
  1
%%c<>
 71
     2
 42
-1.0
  3
SLDDIMSTYLE1
100
AcDbAlignedDimension
 13
207.6364101705
 23
130.4852015207
 33
0.0
 14
207.6364101705
 24
98.4852015207
 34
0.0
 50
90.0
100
AcDbRotatedDimension
  0
DIMENSION
  5
21A
330
1F
100
AcDbEntity
  8
VERMASSUNG
100
AcDbDimension
  2
_D_2
 10
257.1364101705
 20
87.9852015207
 30
0.0
 11
257.1364101705
 21
114.4852015207
 31
0.0
 70
   160
  1
%%c<>
 71
     2
 42
-1.0
  3
SLDDIMSTYLE0
100
AcDbAlignedDimension
 13
153.9584888577
 23
140.9852015207
 33
0.0
 14
153.9584888577
 24
87.9852015207
 34
0.0
 50
90.0
100
AcDbRotatedDimension
  0
DIMENSION
  5
225
330
1F
100
AcDbEntity
  8
VERMASSUNG
100
AcDbDimension
  2
_D_3
 10
211.1364101705
 20
166.0723139143
 30
0.0
 11
171.1364101705
 21
166.0723139143
 31
0.0
 70
   160
  1
<>
 71
     2
 42
-1.0
  3
SLDDIMSTYLE0
100
AcDbAlignedDimension
 13
131.1364101705
 23
145.7602015207
 33
0.0
 14
211.1364101705
 24
134.1742252916
 34
0.0
 50
0.0
100
AcDbRotatedDimension
  0
DIMENSION
  5
22F
330
1F
100
AcDbEntity
  8
VERMASSUNG
100
AcDbDimension
  2
_D_4
 10
211.1364101705
 20
158.2659865125
 30
0.0
 11
180.3864101705
 21
158.2659865125
 31
0.0
 70
   160
  1
<>
 71
     2
 42
-1.0
  3
SLDDIMSTYLE0
100
AcDbAlignedDimension
 13
149.6364101705
 23
130.3852015207
 33
0.0
 14
211.1364101705
 24
134.1742252916
 34
0.0
 50
0.0
100
AcDbRotatedDimension
  0
DIMENSION
  5
239
330
1F
100
AcDbEntity
  8
VERMASSUNG
100
AcDbDimension
  2
_D_5
 10
211.1364101705
 20
150.3777198681
 30
0.0
 11
185.6364101705
 21
150.3777198681
 31
0.0
 70
   160
  1
<>
 71
     2
 42
-1.0
  3
SLDDIMSTYLE0
100
AcDbAlignedDimension
 13
160.1364101705
 23
130.4852015207
 33
0.0
 14
211.1364101705
 24
134.1742252916
 34
0.0
 50
0.0
100
AcDbRotatedDimension
  0
DIMENSION
  5
243
330
1F
100
AcDbEntity
  8
VERMASSUNG
100
AcDbDimension
  2
_D_6
 10
211.1364101705
 20
71.0553272335
 30
0.0
 11
180.1364101705
 21
71.0553272335
 31
0.0
 70
   160
  1
<>
 71
     2
 42
-1.0
  3
SLDDIMSTYLE0
100
AcDbAlignedDimension
 13
149.1364101705
 23
83.0102015207
 33
0.0
 14
211.1364101705
 24
94.7961777499
 34
0.0
 50
0.0
100
AcDbRotatedDimension
  0
DIMENSION
  5
24D
330
1F
100
AcDbEntity
  8
VERMASSUNG
100
AcDbDimension
  2
_D_7
 10
211.1364101705
 20
78.5105074259
 30
0.0
 11
182.5474495141
 21
78.5105074259
 31
0.0
 70
   160
  1
<>
 71
     2
 42
-1.0
  3
SLDDIMSTYLE2
100
AcDbAlignedDimension
 13
153.9584888577
 23
87.9852015207
 33
0.0
 14
211.1364101705
 24
94.7961777499
 34
0.0
 50
0.0
100
AcDbRotatedDimension
  0
DIMENSION
  5
258
330
1F
100
AcDbEntity
  8
VERMASSUNG
100
AcDbDimension
  2
_D_8
 10
211.1364101705
 20
173.9602015207
 30
0.0
 11
151.1614101705
 21
173.9602015207
 31
0.0
 70
   160
  1
<>
 71
     2
 42
-1.0
  3
SLDDIMSTYLE0
100
AcDbAlignedDimension
 13
91.1864101705
 23
136.6882962445
 33
0.0
 14
211.1364101705
 24
134.1742252916
 34
0.0
 50
0.0
100
AcDbRotatedDimension
  0
DIMENSION
  5
262
330
1F
100
AcDbEntity
  8
VERMASSUNG
100
AcDbDimension
  2
_D_9
 10
72.5911506008
 20
83.0102015207
 30
0.0
 11
72.5911506008
 21
114.4852015207
 31
0.0
 70
   160
  1
KM%%c<> XMZ
 71
     2
 42
-1.0
  3
SLDDIMSTYLE2
100
AcDbAlignedDimension
 13
131.3364101705
 23
145.9602015207
 33
0.0
 14
131.3364101705
 24
83.0102015207
 34
0.0
 50
90.0
100
AcDbRotatedDimension
  0
LINE
  5
26F
330
1F
100
AcDbEntity
  8
0
  6
Continuous
 62
     7
370
    25
100
AcDbLine
 10
251.046534654
 20
26.2022003524
 30
0.0
 11
271.4652626063
 21
16.9041810626
 31
0.0
  0
LINE
  5
270
330
1F
100
AcDbEntity
  8
0
  6
Continuous
 62
     7
370
    25
100
AcDbLine
 10
282.5378314124
 20
36.0845107135
 30
0.0
 11
264.2749229932
 21
49.1169239022
 31
0.0
  0
SPLINE
  5
271
330
1F
100
AcDbEntity
  8
0
  6
Continuous
 62
     7
370
    25
100
AcDbSpline
210
0.0
220
0.0
230
1.0
 70
     8
 71
     3
 72
    39
 73
    35
 74
     0
 42
0.000000001
 43
0.00000001
 40
0.0
 40
0.0
 40
0.0
 40
0.0
 40
0.0216426566330556
 40
0.0516307533868586
 40
0.0818966678385711
 40
0.1126707103545237
 40
0.1440743027588621
 40
0.1761004715680545
 40
0.2086322110614131
 40
0.2414969295301492
 40
0.2745278617671896
 40
0.3075888175395459
 40
0.3406051321039675
 40
0.3735537610857003
 40
0.4064334038928287
 40
0.439254887482341
 40
0.4720352284932973
 40
0.5047945837885314
 40
0.5375545374937084
 40
0.5703328236076957
 40
0.6031494137006179
 40
0.636027115070027
 40
0.6689879079674628
 40
0.7020510485089714
 40
0.7352292618684996
 40
0.7685215382084367
 40
0.8019011489897374
 40
0.835270163537795
 40
0.8684706945455126
 40
0.901296428271145
 40
0.9335361956419453
 40
0.9650583139690084
 40
0.9958766881359397
 40
1.0
 40
1.0
 40
1.0
 40
1.0
 10
271.46131759543
 20
16.91734450775
 30
0.0
 10
271.6118956847218
 20
16.84958937127183
 30
0.0
 10
271.9711149952484
 20
16.68795261837641
 30
0.0
 10
272.5866562080229
 20
16.54180295593481
 30
0.0
 10
273.291375258768
 20
16.46337903641686
 30
0.0
 10
274.02639482579
 20
16.48344887897915
 30
0.0
 10
274.7858148729072
 20
16.59865607721274
 30
0.0
 10
275.5647869068032
 20
16.8108245866554
 30
0.0
 10
276.3558942591131
 20
17.1189567157073
 30
0.0
 10
277.1506236034536
 20
17.52044871929737
 30
0.0
 10
277.9399605861812
 20
18.0105787810526
 30
0.0
 10
278.7153994247668
 20
18.58320929767219
 30
0.0
 10
279.4693532585571
 20
19.23146652994642
 30
0.0
 10
280.1951874249981
 20
19.94825633322595
 30
0.0
 10
280.886909470497
 20
20.72636118090709
 30
0.0
 10
281.5388610615996
 20
21.5583705423045
 30
0.0
 10
282.1457027097505
 20
22.43663483352996
 30
0.0
 10
282.7023581301684
 20
23.35329880343868
 30
0.0
 10
283.2040255343505
 20
24.30027468630755
 30
0.0
 10
283.6462117410368
 20
25.26931231303495
 30
0.0
 10
284.0247845144657
 20
26.25208970736774
 30
0.0
 10
284.335983530418
 20
27.24033587035558
 30
0.0
 10
284.5763774382216
 20
28.2258764692772
 30
0.0
 10
284.7428267307404
 20
29.20061765700519
 30
0.0
 10
284.8324292242344
 20
30.15651936574798
 30
0.0
 10
284.8424740158741
 20
31.08545163108018
 30
0.0
 10
284.7705682497005
 20
31.97869949651131
 30
0.0
 10
284.6149289283661
 20
32.82657927684403
 30
0.0
 10
284.3753409737034
 20
33.61874331448944
 30
0.0
 10
284.0529919205679
 20
34.34331703186378
 30
0.0
 10
283.6544813632399
 20
34.99309010843189
 30
0.0
 10
283.1793758923698
 20
35.54784042279422
 30
0.0
 10
282.809390769149
 20
35.90389522201246
 30
0.0
 10
282.5843181252289
 20
36.04582861038498
 30
0.0
 10
282.5577583106244
 20
36.06257753382456
 30
0.0
  0
SPLINE
  5
272
330
1F
100
AcDbEntity
  8
0
  6
Continuous
 62
     7
370
    25
100
AcDbSpline
210
0.0
220
0.0
230
1.0
 70
     8
 71
     3
 72
    11
 73
     7
 74
     0
 42
0.000000001
 43
0.00000001
 40
0.0
 40
0.0
 40
0.0
 40
0.0
 40
0.0412461577044426
 40
0.3823835493916137
 40
0.7221537866290367
 40
1.0
 40
1.0
 40
1.0
 40
1.0
 10
271.8658390961705
 20
20.86381213205964
 30
0.0
 10
271.8564617208048
 20
20.8858766205696
 30
0.0
 10
271.7695262515174
 20
21.09043136946057
 30
0.0
 10
271.6683716314905
 20
21.54537811435216
 30
0.0
 10
271.5715836467904
 20
22.17893715160132
 30
0.0
 10
271.5617154725147
 20
22.62600778558714
 30
0.0
 10
271.5572760913217
 20
22.82713080075287
 30
0.0
  0
SPLINE
  5
273
330
1F
100
AcDbEntity
  8
0
  6
Continuous
 62
     7
370
    25
100
AcDbSpline
210
0.0
220
0.0
230
1.0
 70
     8
 71
     3
 72
    13
 73
     9
 74
     0
 42
0.000000001
 43
0.00000001
 40
0.0
 40
0.0
 40
0.0
 40
0.0
 40
0.187176069600955
 40
0.3807146374701865
 40
0.5740451615393146
 40
0.7672039669018651
 40
0.9602977789014585
 40
1.0
 40
1.0
 40
1.0
 40
1.0
 10
275.7658346674895
 20
31.77898398239878
 30
0.0
 10
275.9684592245151
 20
31.95911576030095
 30
0.0
 10
276.3805959625877
 20
32.32550236445974
 30
0.0
 10
277.0187512453113
 20
32.78480795646356
 30
0.0
 10
277.6658248151839
 20
33.17550496128023
 30
0.0
 10
278.3049959177732
 20
33.47121338869685
 30
0.0
 10
278.7703423628975
 20
33.64521709279679
 30
0.0
 10
279.0114784080113
 20
33.69183064552696
 30
0.0
 10
279.0526029772341
 20
33.69978035820914
 30
0.0
  0
SPLINE
  5
274
330
1F
100
AcDbEntity
  8
0
  6
Continuous
 62
     7
370
    25
100
AcDbSpline
210
0.0
220
0.0
230
1.0
 70
     8
 71
     3
 72
    11
 73
     7
 74
     0
 42
0.000000001
 43
0.00000001
 40
0.0
 40
0.0
 40
0.0
 40
0.0
 40
0.1505067643747267
 40
0.4377243406476509
 40
0.7252223608447399
 40
0.9999999999999999
 40
0.9999999999999999
 40
0.9999999999999999
 40
0.9999999999999999
 10
271.5572760913217
 20
22.82713080075287
 30
0.0
 10
271.5592214038185
 20
22.95858169462436
 30
0.0
 10
271.5648790274715
 20
23.34088514846906
 30
0.0
 10
271.6300233687254
 20
24.00535492802828
 30
0.0
 10
271.767506216148
 20
24.80922614795793
 30
0.0
 10
271.916313124303
 20
25.35520207728944
 30
0.0
 10
271.9890333465511
 20
25.62201422610292
 30
0.0
  0
LINE
  5
275
330
1F
100
AcDbEntity
  8
0
  6
Continuous
 62
     7
370
    25
100
AcDbLine
 10
246.0340461806
 20
26.1998957318
 30
0.0
 11
247.7190113296
 21
25.227186056
 31
0.0
  0
LINE
  5
276
330
1F
100
AcDbEntity
  8
0
  6
Continuous
 62
     7
370
    25
100
AcDbLine
 10
263.4552326441
 20
52.4860744498
 30
0.0
 11
261.7702674951
 21
53.4587841256
 31
0.0
  0
LINE
  5
277
330
1F
100
AcDbEntity
  8
0
  6
Continuous
 62
     7
370
    25
100
AcDbLine
 10
250.0233204662
 20
26.7691762203
 30
0.0
 11
250.6675225333
 21
26.3972862828
 31
0.0
  0
LINE
  5
278
330
1F
100
AcDbEntity
  8
0
  6
Continuous
 62
     7
370
    25
100
AcDbLine
 10
263.9164462659
 20
49.3475819796
 30
0.0
 11
263.2722441988
 21
49.719471917
 31
0.0
  0
LINE
  5
279
330
1F
100
AcDbEntity
  8
0
  6
Continuous
 62
     7
370
    25
100
AcDbLine
 10
241.4257612492
 20
28.8602019965
 30
0.0
 11
243.6764122256
 21
27.5609288436
 31
0.0
  0
LINE
  5
27A
330
1F
100
AcDbEntity
  8
0
  6
Continuous
 62
     7
370
    25
100
AcDbLine
 10
259.4126335401
 20
54.8198172374
 30
0.0
 11
257.1619825637
 21
56.1190903903
 31
0.0
  0
LINE
  5
27B
330
1F
100
AcDbEntity
  8
0
  6
Continuous
 62
     7
370
    25
100
AcDbLine
 10
250.3845933735
 20
55.8989722979
 30
0.0
 11
241.1873811898
 21
60.4796249078
 31
0.0
  0
LINE
  5
27C
330
1F
100
AcDbEntity
  8
0
  6
Continuous
 62
     7
370
    25
100
AcDbLine
 10
229.6610334002
 20
40.5132414521
 30
0.0
 11
238.2271334059
 21
34.8393518557
 31
0.0
  0
LINE
  5
27D
330
1F
100
AcDbEntity
  8
0
  6
Continuous
 62
     7
370
    25
100
AcDbLine
 10
234.6404708419
 20
41.4597313178
 30
0.0
 11
234.6404708419
 21
41.0944126127
 31
0.0
  0
LINE
  5
27E
330
1F
100
AcDbEntity
  8
0
  6
Continuous
 62
     7
370
    25
100
AcDbLine
 10
238.5384376022
 20
60.8565932845
 30
0.0
 11
237.8988874935
 21
60.769381529
 31
0.0
  0
LWPOLYLINE
  5
27F
330
1F
100
AcDbEntity
  8
0
  6
Continuous
 62
     7
370
    25
100
AcDbPolyline
 90
       27
 70
   128
 43
0.0
 10
247.9228196595
 20
32.4637304542
 10
247.9639879109
 20
33.5006191693
 10
248.0871311241
 20
34.5759277131
 10
248.2911666519
 20
35.6802058199
 10
248.5743019362
 20
36.8037496759
 10
248.9340483373
 20
37.9366847141
 10
249.367244183
 20
39.0690550607
 10
249.8700837446
 20
40.1909096556
 10
250.4381468714
 20
41.2923898922
 10
251.0664417959
 20
42.363814786
 10
251.7494466226
 20
43.3957691837
 10
252.4811600352
 20
44.3791847483
 10
253.2551510174
 20
45.3054188521
 10
254.0646177923
 20
46.1663311879
 10
254.9024465974
 20
46.9543564831
 10
255.7612749052
 20
47.6625698927
 10
256.6335552192
 20
48.2847474036
 10
257.5116217318
 20
48.815420284
 10
258.3877580915
 20
49.2499263727
 10
259.2542647812
 20
49.584446694
 10
260.1035269068
 20
49.8160415496
 10
260.9280809363
 20
49.9426753578
 10
261.7206810693
 20
49.9632351957
 10
262.4743612218
 20
49.8775407266
 10
263.1824990703
 20
49.6863454304
 10
263.8388703814
 20
49.3913284226
 10
264.2749229932
 20
49.1169239022
  0
LWPOLYLINE
  5
280
330
1F
100
AcDbEntity
  8
0
  6
Continuous
 62
     7
370
    25
100
AcDbPolyline
 90
       10
 70
   128
 43
0.0
 10
251.046534654
 20
26.2022003524
 10
250.4381468714
 20
26.5392059988
 10
249.8700837446
 20
26.9848145099
 10
249.367244183
 20
27.5261029046
 10
248.9340483373
 20
28.1583159739
 10
248.5743019362
 20
28.8758966585
 10
248.2911666519
 20
29.6725394736
 10
248.0871311241
 20
30.5412431742
 10
247.9639879109
 20
31.4743735904
 10
247.9228196595
 20
32.4637304542
  0
ARC
  5
281
330
1F
100
AcDbEntity
  8
0
  6
Continuous
 62
     7
370
    25
100
AcDbCircle
 10
285.5042740428
 20
21.5741078131
 30
0.0
 40
14.16117838096507
100
AcDbArc
 50
133.4100426312
 51
163.5457603562
  0
ARC
  5
282
330
1F
100
AcDbEntity
  8
0
  6
Continuous
 62
     7
370
    25
100
AcDbCircle
 10
279.9264296753
 20
30.7495751257
 30
0.0
 40
3.109781311600985
100
AcDbArc
 50
41.0685787899
 51
107.7205161645
  0
ARC
  5
283
330
1F
100
AcDbEntity
  8
0
  6
Continuous
 62
     7
370
    25
100
AcDbCircle
 10
274.8116352478
 20
21.8401242209
 30
0.0
 40
3.128136171083625
100
AcDbArc
 50
197.1610106285
 51
255.4023658224
  0
LWPOLYLINE
  5
284
330
1F
100
AcDbEntity
  8
0
  6
Continuous
 62
     7
370
    25
100
AcDbPolyline
 90
       28
 70
   128
 43
0.0
 10
280.3078709629
 20
33.8225743312
 10
280.5042113981
 20
33.6927566796
 10
280.9254948322
 20
33.3150089196
 10
281.2788908886
 20
32.8439593032
 10
281.559245798
 20
32.2864760544
 10
281.7624713161
 20
31.6506888102
 10
281.8856043218
 20
30.9458688893
 10
281.9268496229
 20
30.1822943537
 10
281.8856043218
 20
29.3710990071
 10
281.7624713161
 20
28.5241127439
 10
281.559245798
 20
27.6536863109
 10
281.2788908886
 20
26.7725121737
 10
280.9254948322
 20
25.8934401556
 10
280.5042113981
 20
25.0292888959
 10
280.0211834895
 20
24.1926600192
 10
279.4834545691
 20
23.3957531607
 10
278.8988664204
 20
22.6501888836
 10
278.2759432434
 20
21.9668394863
 10
277.6237689187
 20
21.3556699353
 10
276.9518535289
 20
20.8255919869
 10
276.2699951047
 20
20.3843349459
 10
275.5881366806
 20
20.0383350076
 10
274.9162212907
 20
19.7926359597
 10
274.2640469661
 20
19.6508210633
 10
273.6411237891
 20
19.6149586692
 10
273.0565356404
 20
19.6855718365
 10
272.51880672
 20
19.8616300987
 10
272.3088894019
 20
19.9664303655
  0
LWPOLYLINE
  5
285
330
1F
100
AcDbEntity
  8
0
  6
Continuous
 62
     7
370
    25
100
AcDbPolyline
 90
       36
 70
   128
 43
0.0
 10
244.4590289884
 20
32.4325189059
 10
244.5002235816
 20
33.56097448
 10
244.6235011378
 20
34.7286367616
 10
244.8279495731
 20
35.9268614646
 10
245.112055552
 20
37.146777361
 10
245.4737150249
 20
38.3793522502
 10
245.9102503498
 20
39.6154604486
 10
246.4184300488
 20
40.8459508489
 10
246.9944918571
 20
42.0617134587
 10
247.6341703821
 20
43.2537459384
 10
248.3327293714
 20
44.4132243209
 10
249.0849972753
 20
45.5315630853
 10
249.8854054411
 20
46.6004835945
 10
250.7280266393
 20
47.6120705565
 10
251.6066228068
 20
48.5588360882
 10
252.5146891703
 20
49.4337695224
 10
253.4455028136
 20
50.2303928214
 10
254.3921723976
 20
50.9428098123
 10
255.347688848
 20
51.5657445742
 10
256.3049779767
 20
52.094585504
 10
257.256952466
 20
52.5254176077
 10
258.1965639346
 20
52.855050276
 10
259.1168560123
 20
53.081043361
 10
260.0110152329
 20
53.2017243884
 10
260.8724217423
 20
53.2161995802
 10
261.6946975372
 20
53.1243611687
 10
262.4717550319
 20
52.9268895791
 10
263.1978411817
 20
52.6252462003
 10
263.8675796292
 20
52.2216650164
 10
264.4760128514
 20
51.7191343512
 10
265.0186364039
 20
51.1213740515
 10
265.4914318479
 20
50.4328096278
 10
265.8908990196
 20
49.6585387913
 10
266.2140810539
 20
48.8042953294
 10
266.4585841418
 20
47.8764019554
 10
266.5301764909
 20
47.507575108
  0
LWPOLYLINE
  5
286
330
1F
100
AcDbEntity
  8
0
  6
Continuous
 62
     7
370
    25
100
AcDbPolyline
 90
       18
 70
   128
 43
0.0
 10
253.56800658
 20
25.0540055912
 10
253.4455028136
 20
25.010206819
 10
252.5146891703
 20
24.7321355609
 10
251.6066228068
 20
24.5586378883
 10
250.7280266393
 20
24.4909978773
 10
249.8854054411
 20
24.529715112
 10
249.0849972753
 20
24.6745040236
 10
248.3327293714
 20
24.9242927538
 10
247.6341703821
 20
25.2772320949
 10
246.9944918571
 20
25.7307074703
 10
246.4184300488
 20
26.2813632734
 10
245.9102503498
 20
26.9251218822
 10
245.4737150249
 20
27.6572171226
 10
245.112055552
 20
28.4722288725
 10
244.8279495731
 20
29.3641229878
 10
244.6235011378
 20
30.3262965519
 10
244.5002235816
 20
31.3516255968
 10
244.4590289884
 20
32.4325189059
  0
SPLINE
  5
287
330
1F
100
AcDbEntity
  8
0
  6
Continuous
 62
     7
370
    25
100
AcDbSpline
210
0.0
220
0.0
230
1.0
 70
     8
 71
     3
 72
    25
 73
    21
 74
     0
 42
0.000000001
 43
0.00000001
 40
0.0
 40
0.0
 40
0.0
 40
0.0
 40
0.1249999999999998
 40
0.1249999999999998
 40
0.2499999999999997
 40
0.2499999999999997
 40
0.3749999999999995
 40
0.3749999999999995
 40
0.4999999999999993
 40
0.4999999999999993
 40
0.5624999999999996
 40
0.5624999999999996
 40
0.6249999999999998
 40
0.6875000000000001
 40
0.6875000000000001
 40
0.7500000000000003
 40
0.7500000000000003
 40
0.8750000000000001
 40
0.8750000000000001
 40
1.0
 40
1.0
 40
1.0
 40
1.0
 10
249.29261813694
 20
48.8643333603877
 30
0.0
 10
249.3217414352011
 20
48.75314783985851
 30
0.0
 10
249.3341304760604
 20
48.63790562743048
 30
0.0
 10
249.3271529909601
 20
48.39881005959468
 30
0.0
 10
249.307135403108
 20
48.27403608971942
 30
0.0
 10
249.2369132453948
 20
48.027667180507
 30
0.0
 10
249.1862625908011
 20
47.90345603314588
 30
0.0
 10
249.056347847146
 20
47.65982753783572
 30
0.0
 10
248.9786468991567
 20
47.54277044277755
 30
0.0
 10
248.8432733169305
 20
47.37411392492752
 30
0.0
 10
248.7946388196234
 20
47.31874690365535
 30
0.0
 10
248.6931994842414
 20
47.21302709225834
 30
0.0
 10
248.5873295015007
 20
47.1118661336379
 30
0.0
 10
248.4727377091732
 20
47.01969181196109
 30
0.0
 10
248.353655039955
 20
46.93215496922097
 30
0.0
 10
248.2916970268975
 20
46.89065649970879
 30
0.0
 10
248.103833323377
 20
46.77653617797069
 30
0.0
 10
247.974455887023
 20
46.71292874685609
 30
0.0
 10
247.706772633961
 20
46.61166044588186
 30
0.0
 10
247.5709009474959
 20
46.57511953765707
 30
0.0
 10
247.4353836807683
 20
46.55395135330699
 30
0.0
  0
LWPOLYLINE
  5
288
330
1F
100
AcDbEntity
  8
0
  6
Continuous
 62
     7
370
    25
100
AcDbPolyline
 90
       15
 70
   128
 43
0.0
 10
249.2926182486
 20
48.8643333929
 10
250.1975670625
 20
49.8080631556
 10
251.1309972677
 20
50.6750758899
 10
252.0857320463
 20
51.4587060518
 10
253.0544316728
 20
52.1529294199
 10
254.0296486468
 20
52.7524063307
 10
255.0038855007
 20
53.2525317797
 10
255.9696522169
 20
53.649458682
 10
256.919523809
 20
53.9401349155
 10
257.8461976768
 20
54.1223265452
 10
258.7425495214
 20
54.1946333718
 10
259.6016883328
 20
54.1564986227
 10
260.4170085806
 20
54.0082155058
 10
261.1822425672
 20
53.7509247332
 10
261.7702674951
 20
53.4587841256
  0
LWPOLYLINE
  5
289
330
1F
100
AcDbEntity
  8
0
  6
Continuous
 62
     7
370
    25
100
AcDbPolyline
 90
       21
 70
   128
 43
0.0
 10
246.0340461806
 20
26.1998957318
 10
245.4078862573
 20
26.6241019034
 10
244.8153397628
 20
27.1657546122
 10
244.2915321441
 20
27.8032032257
 10
243.8404265219
 20
28.5316271777
 10
243.4654348155
 20
29.3455146936
 10
243.1693940344
 20
30.2387095598
 10
242.9545432302
 20
31.2044542832
 10
242.8225076905
 20
32.2354437998
 10
242.7742877445
 20
33.3238796946
 10
242.8102455918
 20
34.4615267739
 10
242.9301118875
 20
35.6397805324
 10
243.1329778402
 20
36.8497267787
 10
243.4173096999
 20
38.0822127252
 10
243.7809566601
 20
39.3279156791
 10
244.2211673219
 20
40.5774114818
 10
244.7346120843
 20
41.8212482723
 10
245.3174068517
 20
43.0500172076
 10
245.9651426687
 20
44.2544220427
 10
246.6729193055
 20
45.4253525117
 10
247.435383454
 20
46.5539508649
  0
LINE
  5
28A
330
1F
100
AcDbEntity
  8
0
  6
Continuous
 62
     7
370
    25
100
AcDbLine
 10
249.9861074331
 20
26.7909023346
 30
0.0
 11
250.0233204662
 21
26.7691762203
 31
0.0
  0
LWPOLYLINE
  5
28B
330
1F
100
AcDbEntity
  8
0
  6
Continuous
 62
     7
370
    25
100
AcDbPolyline
 90
       12
 70
   128
 43
0.0
 10
247.6299968562
 20
48.9886098735
 10
248.5011560806
 20
49.9185565651
 10
249.4027502687
 20
50.7713223529
 10
250.3270701692
 20
51.5396149309
 10
251.266211931
 20
52.2168646416
 10
252.2121450873
 20
52.797280452
 10
253.1567808492
 20
53.2759000254
 10
254.0920417259
 20
53.6486291518
 10
255.0099304454
 20
53.9122822957
 10
255.9025980627
 20
54.0646036624
 10
256.7624112237
 20
54.1042915805
 10
257.4305474325
 20
54.0534965065
  0
SPLINE
  5
28C
330
1F
100
AcDbEntity
  8
0
  6
Continuous
 62
     7
370
    25
100
AcDbSpline
210
0.0
220
0.0
230
1.0
 70
     8
 71
     3
 72
    26
 73
    22
 74
     0
 42
0.000000001
 43
0.00000001
 40
0.0
 40
0.0
 40
0.0
 40
0.0
 40
0.1250000000000009
 40
0.1250000000000009
 40
0.2500000000000019
 40
0.2500000000000019
 40
0.3125000000000011
 40
0.3125000000000011
 40
0.3750000000000004
 40
0.3750000000000004
 40
0.4375000000000002
 40
0.4375000000000002
 40
0.5000000000000001
 40
0.5000000000000001
 40
0.5625
 40
0.5625
 40
0.6249999999999999
 40
0.6249999999999999
 40
0.7500000000000001
 40
0.7500000000000001
 40
1.0
 40
1.0
 40
1.0
 40
1.0
 10
246.2858036513125
 20
47.31644658726251
 30
0.0
 10
246.2621660550805
 20
47.42602244683551
 30
0.0
 10
246.2445982761987
 20
47.53691170520004
 30
0.0
 10
246.2257856933293
 20
47.76224166506298
 30
0.0
 10
246.2246059185618
 20
47.87791857838135
 30
0.0
 10
246.2407039217973
 20
48.04927408824092
 30
0.0
 10
246.2490226388975
 20
48.10607260033508
 30
0.0
 10
246.2727797881544
 20
48.21889881273216
 30
0.0
 10
246.2884021672034
 20
48.27535166639832
 30
0.0
 10
246.3272593796005
 20
48.38393478280692
 30
0.0
 10
246.3504853363029
 20
48.43631474303246
 30
0.0
 10
246.4054839857813
 20
48.53677151830457
 30
0.0
 10
246.437562252804
 20
48.58505038607601
 30
0.0
 10
246.507977001339
 20
48.67274736165975
 30
0.0
 10
246.5465554234657
 20
48.71273648963572
 30
0.0
 10
246.6302636870619
 20
48.78521517375131
 30
0.0
 10
246.6753923970037
 20
48.81755179812792
 30
0.0
 10
246.8146730391939
 20
48.90075156548157
 30
0.0
 10
246.9154621107555
 20
48.93958028811767
 30
0.0
 10
247.2185343819882
 20
49.01499657557284
 30
0.0
 10
247.4270584724732
 20
49.01486642920207
 30
0.0
 10
247.6299968921637
 20
48.98861019987585
 30
0.0
  0
LWPOLYLINE
  5
28D
330
1F
100
AcDbEntity
  8
0
  6
Continuous
 62
     7
370
    25
100
AcDbPolyline
 90
       18
 70
   128
 43
0.0
 10
243.3488250224
 20
29.6605952972
 10
243.022298899
 20
30.1299623396
 10
242.6224254054
 20
30.8730029045
 10
242.3010471244
 20
31.6993752321
 10
242.0608364297
 20
32.602205818
 10
241.9037913452
 20
33.5739865197
 10
241.8312184233
 20
34.6066352289
 10
241.8437202323
 20
35.6915629121
 10
241.9411933805
 20
36.8197467106
 10
242.1228278584
 20
37.9818038479
 10
242.3871116476
 20
39.1680690301
 10
242.7318471852
 20
40.3686764079
 10
243.1541684854
 20
41.5736411823
 10
243.6505615548
 20
42.7729415426
 10
244.2168986364
 20
43.9566017438
 10
244.8484698199
 20
45.1147795565
 10
245.5400218957
 20
46.2378415495
 10
246.2858037947
 20
47.3164463562
  0
LINE
  5
28E
330
1F
100
AcDbEntity
  8
0
  6
Continuous
 62
     7
370
    25
100
AcDbLine
 10
244.8104113804
 20
27.0725254122
 30
0.0
 11
244.9286146865
 21
27.1283878637
 31
0.0
  0
LWPOLYLINE
  5
28F
330
1F
100
AcDbEntity
  8
0
  6
Continuous
 62
     7
370
    25
100
AcDbPolyline
 90
       41
 70
   128
 43
0.0
 10
244.8104113804
 20
27.0725254122
 10
244.0740624729
 20
27.3534806005
 10
243.3929740108
 20
27.7367900494
 10
242.7721851766
 20
28.2196205618
 10
242.2162873425
 20
28.7983990522
 10
241.7293937776
 20
29.468844489
 10
241.3151054033
 20
30.2259979361
 10
240.9764870856
 20
31.0642575362
 10
240.7160432694
 20
31.9774231904
 10
240.5357015145
 20
32.9587399063
 10
240.4367947148
 20
34.0009481325
 10
240.4200558305
 20
35.0963391068
 10
240.4856060337
 20
36.2368083983
 10
240.6329639285
 20
37.4139216396
 10
240.8610369894
 20
38.6189698506
 10
241.1681393425
 20
39.8430395188
 10
241.5519990093
 20
41.077076216
 10
242.0097756873
 20
42.3119504713
 10
242.5380837992
 20
43.5385283025
 10
243.1330155419
 20
44.747736233
 10
243.7901692039
 20
45.9306293508
 10
244.5046840682
 20
47.0784570854
 10
245.271275315
 20
48.1827297446
 10
246.0842709006
 20
49.2352770671
 10
246.9376576551
 20
50.2283143784
 10
247.8251231001
 20
51.1544948684
 10
248.7401015467
 20
52.006968143
 10
249.6758254625
 20
52.7794281283
 10
250.625372639
 20
53.466160833
 10
251.5817189455
 20
54.062085448
 10
252.5377901708
 20
54.5627934007
 10
253.4865138374
 20
54.9645828285
 10
254.4208720965
 20
55.26448075
 10
255.3339532765
 20
55.4602674996
 10
256.2190025216
 20
55.5504960751
 10
257.0694735703
 20
55.5344984536
 10
257.8790750175
 20
55.4123932874
 10
258.6418177302
 20
55.1850836178
 10
259.3520599577
 20
54.8542509774
 10
260.0045471733
 20
54.4223426487
 10
260.5026715563
 20
53.985514921
  0
LWPOLYLINE
  5
290
330
1F
100
AcDbEntity
  8
0
  6
Continuous
 62
     7
370
    25
100
AcDbPolyline
 90
       27
 70
   128
 43
0.0
 10
238.1657787897
 20
36.1471755872
 10
238.2067112821
 20
37.268460401
 10
238.329205829
 20
38.4287034901
 10
238.5323556144
 20
39.6193143703
 10
238.8146558643
 20
40.8314782774
 10
239.1740170169
 20
42.0562209948
 10
239.6077792108
 20
43.2844753926
 10
240.1127294076
 20
44.5071466363
 10
240.685130367
 20
45.7151836669
 10
241.3207443552
 20
46.8996415571
 10
242.0148647546
 20
48.0517522311
 10
242.7623529424
 20
49.1629849183
 10
243.5576745105
 20
50.2251134503
 10
244.3949417418
 20
51.2302727218
 10
245.2679550982
 20
52.1710221851
 10
246.1702512948
 20
53.0403956561
 10
247.0951505498
 20
53.8319574887
 10
248.035804659
 20
54.5398478184
 10
248.9852495143
 20
55.1588235267
 10
249.9364558114
 20
55.6843050052
 10
250.8823810755
 20
56.1123985842
 10
251.8160221796
 20
56.439937498
 10
252.7304665467
 20
56.6644947122
 10
253.6189441745
 20
56.7844083954
 10
254.4748768621
 20
56.7987913243
 10
255.2919274355
 20
56.7075364881
 10
255.9862770084
 20
56.5364964633
  0
LWPOLYLINE
  5
291
330
1F
100
AcDbEntity
  8
0
  6
Continuous
 62
     7
370
    25
100
AcDbPolyline
 90
        3
 70
   128
 43
0.0
 10
238.2399743652
 20
34.7133072887
 10
238.2067112821
 20
35.0731504232
 10
238.1757280801
 20
35.611382919
  0
SPLINE
  5
292
330
1F
100
AcDbEntity
  8
0
  6
Continuous
 62
     7
370
    25
100
AcDbSpline
210
0.0
220
0.0
230
1.0
 70
     8
 71
     3
 72
    10
 73
     6
 74
     0
 42
0.000000001
 43
0.00000001
 40
0.0
 40
0.0
 40
0.0
 40
0.0
 40
0.5
 40
0.5
 40
1.0
 40
1.0
 40
1.0
 40
1.0
 10
247.0124917189438
 20
45.8533933064428
 30
0.0
 10
246.9085272281595
 20
45.92673167951317
 30
0.0
 10
246.8187189517322
 20
46.01396743730658
 30
0.0
 10
246.6666765237335
 20
46.21489797850258
 30
0.0
 10
246.6047709353726
 20
46.32906874469955
 30
0.0
 10
246.5603212307821
 20
46.45208642785965
 30
0.0
  0
SPLINE
  5
293
330
1F
100
AcDbEntity
  8
0
  6
Continuous
 62
     7
370
    25
100
AcDbSpline
210
0.0
220
0.0
230
1.0
 70
     8
 71
     3
 72
    14
 73
    10
 74
     0
 42
0.000000001
 43
0.00000001
 40
0.0
 40
0.0
 40
0.0
 40
0.0
 40
0.25
 40
0.25
 40
0.5
 40
0.5
 40
0.75
 40
0.75
 40
1.0
 40
1.0
 40
1.0
 40
1.0
 10
246.5603212307821
 20
46.45208642785965
 30
0.0
 10
246.5376004279169
 20
46.51496784751718
 30
0.0
 10
246.5156859175675
 20
46.5840142769906
 30
0.0
 10
246.4735748635047
 20
46.73166679360938
 30
0.0
 10
246.4540533095916
 20
46.80806658046768
 30
0.0
 10
246.4157070674179
 20
46.96239887186329
 30
0.0
 10
246.3973474745341
 20
47.03935146819494
 30
0.0
 10
246.3553440299524
 20
47.18474163571091
 30
0.0
 10
246.3315677089394
 20
47.25133254190395
 30
0.0
 10
246.3031062048372
 20
47.29182815713528
 30
0.0
  0
LINE
  5
294
330
1F
100
AcDbEntity
  8
0
  6
Continuous
 62
     7
370
    25
100
AcDbLine
 10
246.3031063931
 20
47.2918285489
 30
0.0
 11
246.2858037947
 21
47.3164463562
 31
0.0
  0
LINE
  5
295
330
1F
100
AcDbEntity
  8
0
  6
Continuous
 62
     7
370
    25
100
AcDbLine
 10
247.6299968562
 20
48.9886098735
 30
0.0
 11
247.6472994546
 21
48.9639920661
 31
0.0
  0
SPLINE
  5
296
330
1F
100
AcDbEntity
  8
0
  6
Continuous
 62
     7
370
    25
100
AcDbSpline
210
0.0
220
0.0
230
1.0
 70
     8
 71
     3
 72
    16
 73
    12
 74
     0
 42
0.000000001
 43
0.00000001
 40
0.0
 40
0.0
 40
0.0
 40
0.0
 40
0.1250000000000001
 40
0.1250000000000001
 40
0.2500000000000003
 40
0.2500000000000003
 40
0.5000000000000002
 40
0.5000000000000002
 40
0.7500000000000001
 40
0.7500000000000001
 40
1.0
 40
1.0
 40
1.0
 40
1.0
 10
247.6472994456884
 20
48.96399176974857
 30
0.0
 10
247.6614518520925
 20
48.94385543393578
 30
0.0
 10
247.6831102565662
 20
48.92705801325835
 30
0.0
 10
247.7355281856015
 20
48.90021249192687
 30
0.0
 10
247.7661210647398
 20
48.88998700736588
 30
0.0
 10
247.8652019135973
 20
48.86548656693319
 30
0.0
 10
247.9390844512132
 20
48.85722664453169
 30
0.0
 10
248.0921840436046
 20
48.84604067782677
 30
0.0
 10
248.1702680182522
 20
48.84344400607559
 30
0.0
 10
248.3296116519943
 20
48.84141500524188
 30
0.0
 10
248.4082645468259
 20
48.84205259390411
 30
0.0
 10
248.4840170146185
 20
48.84514569471915
 30
0.0
  0
SPLINE
  5
297
330
1F
100
AcDbEntity
  8
0
  6
Continuous
 62
     7
370
    25
100
AcDbSpline
210
0.0
220
0.0
230
1.0
 70
     8
 71
     3
 72
    10
 73
     6
 74
     0
 42
0.000000001
 43
0.00000001
 40
0.0
 40
0.0
 40
0.0
 40
0.0
 40
0.5
 40
0.5
 40
1.0
 40
1.0
 40
1.0
 40
1.0
 10
248.4840170146185
 20
48.84514569471915
 30
0.0
 10
248.6322113545192
 20
48.85119671915291
 30
0.0
 10
248.7744358202498
 20
48.84103448893978
 30
0.0
 10
249.0468272105906
 20
48.7899840529997
 30
0.0
 10
249.1769545404591
 20
48.74862295035515
 30
0.0
 10
249.2950298826445
 20
48.69284908240287
 30
0.0
  0
LINE
  5
298
330
1F
100
AcDbEntity
  8
0
  6
Continuous
 62
     7
370
    25
100
AcDbLine
 10
249.4502329741
 20
48.7212676899
 30
0.0
 11
249.4328398258
 21
48.7460149746
 31
0.0
  0
ARC
  5
299
330
1F
100
AcDbEntity
  8
0
  6
Continuous
 62
     7
370
    25
100
AcDbCircle
 10
231.9776508713
 20
43.968919917
 30
0.0
 40
4.160340149630197
100
AcDbArc
 50
211.7954354499
 51
236.1628935314
  0
SPLINE
  5
29A
330
1F
100
AcDbEntity
  8
0
  6
Continuous
 62
     7
370
    25
100
AcDbSpline
210
0.0
220
0.0
230
1.0
 70
     8
 71
     3
 72
     8
 73
     4
 74
     0
 42
0.000000001
 43
0.00000001
 40
0.0
 40
0.0
 40
0.0
 40
0.0
 40
1.0
 40
1.0
 40
1.0
 40
1.0
 10
229.8720762135077
 20
40.8521446631642
 30
0.0
 10
229.3953029216835
 20
41.16023747109684
 30
0.0
 10
228.9185005448387
 20
41.4684669166696
 30
0.0
 10
228.441668100313
 20
41.7768320728895
 30
0.0
  0
SPLINE
  5
29B
330
1F
100
AcDbEntity
  8
0
  6
Continuous
 62
     7
370
    25
100
AcDbSpline
210
0.0
220
0.0
230
1.0
 70
     8
 71
     3
 72
    23
 73
    19
 74
     0
 42
0.000000001
 43
0.00000001
 40
0.0
 40
0.0
 40
0.0
 40
0.0
 40
0.0521036415675031
 40
0.1035646240925967
 40
0.1544751946736949
 40
0.2049306267473421
 40
0.2550287880844035
 40
0.3048696389141012
 40
0.3545546704609132
 40
0.4041862979523234
 40
0.4538672252126086
 40
0.5036997999421611
 40
0.5901870230746071
 40
0.674271637822954
 40
0.7565997087222995
 40
0.8378563983721267
 40
0.9187511781367398
 40
1.0
 40
1.0
 40
1.0
 40
1.0
 10
230.7526410170493
 20
40.6774139650441
 30
0.0
 10
230.7473720781092
 20
40.66749250280927
 30
0.0
 10
230.7368991886089
 20
40.64777195207833
 30
0.0
 10
230.7176528928462
 20
40.62320412312609
 30
0.0
 10
230.6958571525134
 20
40.60251554086687
 30
0.0
 10
230.6712058613085
 20
40.58598460556989
 30
0.0
 10
230.6437093467696
 20
40.57346710599373
 30
0.0
 10
230.6132982927623
 20
40.56493248217134
 30
0.0
 10
230.5799279209897
 20
40.56032260952327
 30
0.0
 10
230.5435520327178
 20
40.5595878663868
 30
0.0
 10
230.5041236611287
 20
40.56268294893808
 30
0.0
 10
230.4512752695788
 20
40.57121872441722
 30
0.0
 10
230.3827362758086
 20
40.58881516326427
 30
0.0
 10
230.2950150438542
 20
40.62045177135015
 30
0.0
 10
230.2002841243603
 20
40.66263142868286
 30
0.0
 10
230.0982498770304
 20
40.71536786440984
 30
0.0
 10
229.9893359638413
 20
40.77768442032067
 30
0.0
 10
229.9112196528553
 20
40.82728847857179
 30
0.0
 10
229.8720762135077
 20
40.85214466316419
 30
0.0
  0
SPLINE
  5
29C
330
1F
100
AcDbEntity
  8
0
  6
Continuous
 62
     7
370
    25
100
AcDbSpline
210
0.0
220
0.0
230
1.0
 70
     8
 71
     3
 72
     8
 73
     4
 74
     0
 42
0.000000001
 43
0.00000001
 40
0.0
 40
0.0
 40
0.0
 40
0.0
 40
1.0
 40
1.0
 40
1.0
 40
1.0
 10
232.2261440435032
 20
39.7300938284879
 30
0.0
 10
231.7347767314617
 20
40.04596844845538
 30
0.0
 10
231.2433905315355
 20
40.36195446974486
 30
0.0
 10
230.7519848213915
 20
40.67805135058754
 30
0.0
  0
SPLINE
  5
29D
330
1F
100
AcDbEntity
  8
0
  6
Continuous
 62
     7
370
    25
100
AcDbSpline
210
0.0
220
0.0
230
1.0
 70
     8
 71
     3
 72
    18
 73
    14
 74
     0
 42
0.000000001
 43
0.00000001
 40
0.0
 40
0.0
 40
0.0
 40
0.0
 40
0.0923824559411628
 40
0.1844689291573508
 40
0.2764953615950219
 40
0.3686975365494161
 40
0.4613092840003458
 40
0.5545607518442569
 40
0.6486768051537182
 40
0.7438756050146744
 40
0.8403674044302629
 40
0.9203921078121001
 40
1.0
 40
1.0
 40
1.0
 40
1.0
 10
233.0397081627028
 20
39.08578610394355
 30
0.0
 10
233.0161406485797
 20
39.10106007820909
 30
0.0
 10
232.9690811279283
 20
39.13155909068973
 30
0.0
 10
232.8966833399655
 20
39.18119166330064
 30
0.0
 10
232.8232011310699
 20
39.23352120596917
 30
0.0
 10
232.748501683325
 20
39.28883889167705
 30
0.0
 10
232.6726408935569
 20
39.34707720679062
 30
0.0
 10
232.5956296127701
 20
39.4082701184282
 30
0.0
 10
232.5174974806891
 20
39.47243383500975
 30
0.0
 10
232.4382712460452
 20
39.53958279487686
 30
0.0
 10
232.3629747616354
 20
39.60543370462303
 30
0.0
 10
232.2921474535133
 20
39.66896529143135
 30
0.0
 10
232.2482430827062
 20
39.70962603644485
 30
0.0
 10
232.2263482159009
 20
39.7299033250134
 30
0.0
  0
LINE
  5
29E
330
1F
100
AcDbEntity
  8
0
  6
Continuous
 62
     7
370
    25
100
AcDbLine
 10
233.6794146946
 20
38.6740322974
 30
0.0
 11
233.0397078522
 21
39.0857859651
 31
0.0
  0
SPLINE
  5
29F
330
1F
100
AcDbEntity
  8
0
  6
Continuous
 62
     7
370
    25
100
AcDbSpline
210
0.0
220
0.0
230
1.0
 70
     8
 71
     3
 72
    25
 73
    21
 74
     0
 42
0.000000001
 43
0.00000001
 40
0.0
 40
0.0
 40
0.0
 40
0.0
 40
0.0280105225426465
 40
0.0559601148860768
 40
0.0839014045043132
 40
0.1118870776786367
 40
0.1399695827588937
 40
0.1682008401739883
 40
0.196631967042422
 40
0.2253130233141467
 40
0.2542927850735845
 40
0.3799486436587335
 40
0.5057850221667067
 40
0.6313085886338298
 40
0.7532068238012468
 40
0.8039473267955921
 40
0.8535894438554446
 40
0.9025339722394071
 40
0.9511970353791085
 40
1.0
 40
1.0
 40
1.0
 40
1.0
 10
234.781780287693
 20
39.38993828782063
 30
0.0
 10
234.7867283952236
 20
39.36231442671315
 30
0.0
 10
234.7966138468591
 20
39.30712679360782
 30
0.0
 10
234.8081494964623
 20
39.22796608623791
 30
0.0
 10
234.8172226182751
 20
39.15166274713952
 30
0.0
 10
234.8235914269881
 20
39.07846698616991
 30
0.0
 10
234.8273076657982
 20
39.00831951795652
 30
0.0
 10
234.828344286781
 20
38.94124323144374
 30
0.0
 10
234.8266958115541
 20
38.8772393222173
 30
0.0
 10
234.8223496596852
 20
38.81631046895047
 30
0.0
 10
234.8074933351176
 20
38.6944223474533
 30
0.0
 10
234.7624050780525
 20
38.53952147579815
 30
0.0
 10
234.6490455575599
 20
38.4085783574561
 30
0.0
 10
234.4872213355656
 20
38.35270195664609
 30
0.0
 10
234.3132061164338
 20
38.37257600902887
 30
0.0
 10
234.1618451957477
 20
38.41989381138435
 30
0.0
 10
234.0514449630494
 20
38.4648092351197
 30
0.0
 10
233.9342854676006
 20
38.52218496641088
 30
0.0
 10
233.8107198006668
 20
38.59086203086369
 30
0.0
 10
233.7232247505717
 20
38.64628227681688
 30
0.0
 10
233.67941443089
 20
38.67403217454718
 30
0.0
  0
ARC
  5
2A0
330
1F
100
AcDbEntity
  8
0
  6
Continuous
 62
     7
370
    25
100
AcDbCircle
 10
245.9748014521
 20
41.1759886564
 30
0.0
 40
11.33462419218393
100
AcDbArc
 50
170.9338462887
 51
189.0661537113
  0
SPLINE
  5
2A1
330
1F
100
AcDbEntity
  8
0
  6
Continuous
 62
     7
370
    25
100
AcDbSpline
210
0.0
220
0.0
230
1.0
 70
     8
 71
     3
 72
    26
 73
    22
 74
     0
 42
0.000000001
 43
0.00000001
 40
0.0
 40
0.0
 40
0.0
 40
0.0
 40
0.0241259796963635
 40
0.0482159912272988
 40
0.0723203915124065
 40
0.0964895678710797
 40
0.1207736231963513
 40
0.1452220711242836
 40
0.1698835501657706
 40
0.1948055644472379
 40
0.2200342569517627
 40
0.2456142191611387
 40
0.3690971486901655
 40
0.4940698769485187
 40
0.6192566784762451
 40
0.7454656653603225
 40
0.7971495824713707
 40
0.8481710308405392
 40
0.8988013269235234
 40
0.9493179290492194
 40
1.0
 40
1.0
 40
1.0
 40
1.0
 10
233.67941443089
 20
46.43814256591175
 30
0.0
 10
233.7011326602661
 20
46.42381104251667
 30
0.0
 10
233.7445367404422
 20
46.39516936184762
 30
0.0
 10
233.8078438578036
 20
46.34717706391882
 30
0.0
 10
233.8697054255215
 20
46.29557786603313
 30
0.0
 10
233.9300099406581
 20
46.2400030731599
 30
0.0
 10
233.9887997925979
 20
46.18054783253275
 30
0.0
 10
234.0460803110277
 20
46.11718352369535
 30
0.0
 10
234.1018714503539
 20
46.04991474573142
 30
0.0
 10
234.1561926977757
 20
45.9787406317713
 30
0.0
 10
234.2090716729847
 20
45.90365149202301
 30
0.0
 10
234.325866497721
 20
45.72439704332117
 30
0.0
 10
234.4877360556475
 20
45.41409157147778
 30
0.0
 10
234.6509209631793
 20
44.94417778334609
 30
0.0
 10
234.7624323683528
 20
44.44521474943605
 30
0.0
 10
234.8095662064613
 20
44.03633107637904
 30
0.0
 10
234.8246851459938
 20
43.73205911978834
 30
0.0
 10
234.8266382849763
 20
43.53080987809302
 30
0.0
 10
234.8201602593372
 20
43.33514995837043
 30
0.0
 10
234.8060333366501
 20
43.14451367047296
 30
0.0
 10
234.7898734449651
 20
43.02293039673415
 30
0.0
 10
234.781780287693
 20
42.96203936013526
 30
0.0
  0
LINE
  5
2A2
330
1F
100
AcDbEntity
  8
0
  6
Continuous
 62
     7
370
    25
100
AcDbLine
 10
233.0397078522
 20
46.8511174162
 30
0.0
 11
233.6794146946
 21
46.4381424452
 31
0.0
  0
SPLINE
  5
2A3
330
1F
100
AcDbEntity
  8
0
  6
Continuous
 62
     7
370
    25
100
AcDbSpline
210
0.0
220
0.0
230
1.0
 70
     8
 71
     3
 72
    14
 73
    10
 74
     0
 42
0.000000001
 43
0.00000001
 40
0.0
 40
0.0
 40
0.0
 40
0.0
 40
0.0789261963172865
 40
0.158232872055133
 40
0.330847539457262
 40
0.5000195457610529
 40
0.6670357883572423
 40
0.8332395193657144
 40
1.0
 40
1.0
 40
1.0
 40
1.0
 10
232.2257554468515
 20
47.05969984919635
 30
0.0
 10
232.2474723281873
 20
47.06130301305492
 30
0.0
 10
232.291010781403
 20
47.06451706914217
 30
0.0
 10
232.382535900052
 20
47.06533810921006
 30
0.0
 10
232.499444233485
 20
47.05740212742675
 30
0.0
 10
232.6402645718667
 20
47.03112645854894
 30
0.0
 10
232.7774768796788
 20
46.98816886001669
 30
0.0
 10
232.9114075540953
 20
46.92981173520706
 30
0.0
 10
232.9968936460545
 20
46.87737818905708
 30
0.0
 10
233.0397081627028
 20
46.85111757890263
 30
0.0
  0
SPLINE
  5
2A4
330
1F
100
AcDbEntity
  8
0
  6
Continuous
 62
     7
370
    25
100
AcDbSpline
210
0.0
220
0.0
230
1.0
 70
     8
 71
     3
 72
     8
 73
     4
 74
     0
 42
0.000000001
 43
0.00000001
 40
0.0
 40
0.0
 40
0.0
 40
0.0
 40
1.0
 40
1.0
 40
1.0
 40
1.0
 10
230.423451863847
 20
48.22209126060905
 30
0.0
 10
231.0242100875432
 20
47.83482377745015
 30
0.0
 10
231.6249389504036
 20
47.44735642752684
 30
0.0
 10
232.2256395947504
 20
47.05968953493722
 30
0.0
  0
SPLINE
  5
2A5
330
1F
100
AcDbEntity
  8
0
  6
Continuous
 62
     7
370
    25
100
AcDbSpline
210
0.0
220
0.0
230
1.0
 70
     8
 71
     3
 72
    13
 73
     9
 74
     0
 42
0.000000001
 43
0.00000001
 40
0.0
 40
0.0
 40
0.0
 40
0.0
 40
0.1667030582307992
 40
0.3329480818053035
 40
0.4990671507274896
 40
0.6653938523718403
 40
0.832261271055009
 40
1.0
 40
1.0
 40
1.0
 40
1.0
 10
230.0816233288127
 20
48.52315603969483
 30
0.0
 10
230.1019245112526
 20
48.5095909330156
 30
0.0
 10
230.1424710964413
 20
48.48249799125276
 30
0.0
 10
230.2016207334289
 20
48.43730341824504
 30
0.0
 10
230.2593922783314
 20
48.38889226976209
 30
0.0
 10
230.3156420157911
 20
48.33685715499163
 30
0.0
 10
230.3705692245372
 20
48.28155918778261
 30
0.0
 10
230.4057899341277
 20
48.24194193262225
 30
0.0
 10
230.4234461460687
 20
48.22208172362132
 30
0.0
  0
SPLINE
  5
2A6
330
1F
100
AcDbEntity
  8
0
  6
Continuous
 62
     7
370
    25
100
AcDbSpline
210
0.0
220
0.0
230
1.0
 70
     8
 71
     3
 72
     8
 73
     4
 74
     0
 42
0.000000001
 43
0.00000001
 40
0.0
 40
0.0
 40
0.0
 40
0.0
 40
1.0
 40
1.0
 40
1.0
 40
1.0
 10
228.137642813022
 20
49.7778778920743
 30
0.0
 10
228.7856728854222
 20
49.35988257618955
 30
0.0
 10
229.4336658625241
 20
48.94164181377191
 30
0.0
 10
230.0816233288127
 20
48.52315603969483
 30
0.0
  0
LWPOLYLINE
  5
2A7
330
1F
100
AcDbEntity
  8
0
  6
Continuous
 62
     7
370
    25
100
AcDbPolyline
 90
       20
 70
   128
 43
0.0
 10
228.1376434633
 20
49.7778779426
 10
228.5019667488
 20
50.8434366798
 10
228.9392771805
 20
51.9042314928
 10
229.4450959975
 20
52.9493984488
 10
230.0142437471
 20
53.9682341382
 10
230.640890664
 20
54.9503046068
 10
231.3186205491
 20
55.885553715
 10
232.0404920141
 20
56.764402373
 10
232.799113226
 20
57.5778517664
 10
233.5867151708
 20
58.3175705176
 10
234.3952320775
 20
58.9759836995
 10
235.2163839838
 20
59.5463486369
 10
236.0417617703
 20
60.022824528
 10
236.8629129357
 20
60.4005318479
 10
237.6714281961
 20
60.6756023406
 10
238.4590276713
 20
60.8452188877
 10
239.2176455905
 20
60.9076453963
 10
239.9395137627
 20
60.8622415252
 10
240.6172387088
 20
60.7094729912
 10
241.1873811898
 20
60.4796249078
  0
SPLINE
  5
2A8
330
1F
100
AcDbEntity
  8
0
  6
Continuous
 62
     7
370
    25
100
AcDbSpline
210
0.0
220
0.0
230
1.0
 70
    11
 71
     3
 72
    39
 73
    35
 74
     0
 42
0.000000001
 43
0.00000001
 40
0.0
 40
0.0
 40
0.0
 40
0.0
 40
0.0310664058348413
 40
0.0621048158426138
 40
0.0931361551796939
 40
0.1235538293503726
 40
0.1538561545809849
 40
0.1850588072749156
 40
0.2160250992946587
 40
0.2471867223797568
 40
0.2784462884304475
 40
0.3100516090231247
 40
0.3419834369138969
 40
0.3734259894013238
 40
0.4048604886787081
 40
0.436874065183343
 40
0.4685120685926471
 40
0.499805535863323
 40
0.5309508213226204
 40
0.5618649784438111
 40
0.5930416446590877
 40
0.623374245013332
 40
0.6540913579072549
 40
0.6849496782718453
 40
0.7158160645166705
 40
0.7471731804043553
 40
0.7784514311866318
 40
0.810129591156098
 40
0.8419598919688388
 40
0.8735175891922303
 40
0.9050808037886594
 40
0.9370235169792582
 40
0.9687441590030581
 40
1.0
 40
1.0
 40
1.0
 40
1.0
 10
241.3462282942273
 20
58.78306826741571
 30
0.0
 10
241.6091139144255
 20
58.75453378012562
 30
0.0
 10
242.136002524909
 20
58.66859129180401
 30
0.0
 10
242.900014593985
 20
58.46821617173156
 30
0.0
 10
243.6071647820359
 20
58.22121406551204
 30
0.0
 10
244.2200758466313
 20
57.94323218735894
 30
0.0
 10
244.7172071723018
 20
57.64909849003021
 30
0.0
 10
245.0763988933752
 20
57.34759196183798
 30
0.0
 10
245.2981181621341
 20
57.04059445693557
 30
0.0
 10
245.3633700395162
 20
56.73008919553389
 30
0.0
 10
245.2765228284022
 20
56.41094471078505
 30
0.0
 10
245.0341772406439
 20
56.08162474521286
 30
0.0
 10
244.6542393779175
 20
55.7426840236552
 30
0.0
 10
244.1404334247578
 20
55.40484555924457
 30
0.0
 10
243.5145426138477
 20
55.07894765793372
 30
0.0
 10
242.8010716273558
 20
54.78230076469423
 30
0.0
 10
242.0371691510915
 20
54.52619745625729
 30
0.0
 10
241.2513760681899
 20
54.3371698882665
 30
0.0
 10
240.4698386131499
 20
54.22899396621325
 30
0.0
 10
239.7137256283975
 20
54.22133008284354
 30
0.0
 10
239.011361042004
 20
54.31925211822969
 30
0.0
 10
238.3923406949613
 20
54.54090055173219
 30
0.0
 10
237.8832834299475
 20
54.87676863864392
 30
0.0
 10
237.5103398365137
 20
55.31657920482468
 30
0.0
 10
237.2817378852652
 20
55.82765384534733
 30
0.0
 10
237.212891578546
 20
56.37883893311077
 30
0.0
 10
237.2975079917711
 20
56.93651086142251
 30
0.0
 10
237.5406167817059
 20
57.46659100234151
 30
0.0
 10
237.9227466245237
 20
57.93911535145424
 30
0.0
 10
238.438882198934
 20
58.32523686234747
 30
0.0
 10
239.0658600594359
 20
58.6088610496806
 30
0.0
 10
239.7817674917997
 20
58.77859826840702
 30
0.0
 10
240.5502108839854
 20
58.84013710311834
 30
0.0
 10
241.0817396633578
 20
58.81177675086276
 30
0.0
 10
241.3462282942273
 20
58.78306826741571
 30
0.0
  0
LINE
  5
2A9
330
1F
100
AcDbEntity
  8
0
  6
Continuous
 62
     7
370
    25
100
AcDbLine
 10
232.1216908812
 20
42.34394165
 30
0.0
 11
232.4357359398
 21
42.1757974228
 31
0.0
  0
LINE
  5
2AA
330
1F
100
AcDbEntity
  8
0
  6
Continuous
 62
     7
370
    25
100
AcDbLine
 10
231.1347328613
 20
42.9137003873
 30
0.0
 11
232.1216908812
 21
42.34394165
 31
0.0
  0
ARC
  5
2AB
330
1F
100
AcDbEntity
  8
0
  6
Continuous
 62
     7
370
    25
100
AcDbCircle
 10
233.3667178588
 20
46.4216138346
 30
0.0
 40
4.399246259572657
100
AcDbArc
 50
267.4956853267
 51
287.1750110524
  0
SPLINE
  5
2AC
330
1F
100
AcDbEntity
  8
0
  6
Continuous
 62
     7
370
    25
100
AcDbSpline
210
0.0
220
0.0
230
1.0
 70
     8
 71
     3
 72
    14
 73
    10
 74
     0
 42
0.000000001
 43
0.00000001
 40
0.0
 40
0.0
 40
0.0
 40
0.0
 40
0.1520927654964334
 40
0.2674857265629534
 40
0.3827932169674477
 40
0.4986859355030901
 40
0.6145509981003119
 40
0.825743267810779
 40
1.0
 40
1.0
 40
1.0
 40
1.0
 10
242.6847342525267
 20
55.78057255208
 30
0.0
 10
242.4799393112343
 20
55.89295345231041
 30
0.0
 10
242.1197662057667
 20
56.09059787446169
 30
0.0
 10
241.5201430375648
 20
56.35472074126379
 30
0.0
 10
240.9409704031822
 20
56.56783713579669
 30
0.0
 10
240.3300785876883
 20
56.73862528688259
 30
0.0
 10
239.5409428979121
 20
56.87800404210178
 30
0.0
 10
238.6416695729891
 20
56.90513795677872
 30
0.0
 10
238.0770742233212
 20
56.69714340046103
 30
0.0
 10
237.8218276403558
 20
56.6031116309703
 30
0.0
  0
SPLINE
  5
2AD
330
1F
100
AcDbEntity
  8
0
  6
Continuous
 62
     7
370
    25
100
AcDbSpline
210
0.0
220
0.0
230
1.0
 70
     8
 71
     3
 72
    10
 73
     6
 74
     0
 42
0.000000001
 43
0.00000001
 40
0.0
 40
0.0
 40
0.0
 40
0.0
 40
0.3798174073072795
 40
0.9603711649033085
 40
1.0
 40
1.0
 40
1.0
 40
1.0
 10
243.8246143743862
 20
55.2523456245615
 30
0.0
 10
243.6949617571378
 20
55.32267418639887
 30
0.0
 10
243.3671341413833
 20
55.50050048281999
 30
0.0
 10
242.9592055963732
 20
55.6735533332224
 30
0.0
 10
242.7025728149413
 20
55.77275876547071
 30
0.0
 10
242.6861743247295
 20
55.77909785941108
 30
0.0
  0
SPLINE
  5
2AE
330
1F
100
AcDbEntity
  8
0
  6
Continuous
 62
     7
370
    25
100
AcDbSpline
210
0.0
220
0.0
230
1.0
 70
     8
 71
     3
 72
    24
 73
    20
 74
     0
 42
0.000000001
 43
0.00000001
 40
0.0
 40
0.0
 40
0.0
 40
0.0
 40
0.0618858212107145
 40
0.1150115607194259
 40
0.1593831488268445
 40
0.2428114970815824
 40
0.318331853291959
 40
0.3935543804326023
 40
0.4204843226990471
 40
0.4483397435477174
 40
0.4771286702554668
 40
0.5451537905345539
 40
0.6363475754294583
 40
0.6968782859867285
 40
0.7498596693403015
 40
0.7959701295389731
 40
0.8771179302751783
 40
0.9543004207779655
 40
1.0
 40
1.0
 40
1.0
 40
1.0
 10
241.2913497272251
 20
58.20921036745895
 30
0.0
 10
241.1073929378888
 20
58.22810493242491
 30
0.0
 10
240.7655188699266
 20
58.26321949280941
 30
0.0
 10
240.3013008969498
 20
58.25672894442214
 30
0.0
 10
239.7918392846769
 20
58.20900475162483
 30
0.0
 10
239.2527441853023
 20
58.08438815345792
 30
0.0
 10
238.7099062005787
 20
57.84189786951492
 30
0.0
 10
238.3695131850836
 20
57.58452511888901
 30
0.0
 10
238.1628864765326
 20
57.36971801839019
 30
0.0
 10
238.0449024203215
 20
57.22321466709121
 30
0.0
 10
237.8927320161305
 20
56.99346384287075
 30
0.0
 10
237.7260513775508
 20
56.62052114744374
 30
0.0
 10
237.6576897967136
 20
56.15796209475086
 30
0.0
 10
237.7080452603331
 20
55.72962939654902
 30
0.0
 10
237.8134744038483
 20
55.40970250290464
 30
0.0
 10
237.9956737305343
 20
55.06923698771146
 30
0.0
 10
238.2965521556048
 20
54.73328873085637
 30
0.0
 10
238.6862370502032
 20
54.46022943014135
 30
0.0
 10
238.9791560063976
 20
54.36627435921405
 30
0.0
 10
239.0880919404539
 20
54.33133266904909
 30
0.0
  0
SPLINE
  5
2AF
330
1F
100
AcDbEntity
  8
0
  6
Continuous
 62
     7
370
    25
100
AcDbSpline
210
0.0
220
0.0
230
1.0
 70
     8
 71
     3
 72
    22
 73
    18
 74
     0
 42
0.000000001
 43
0.00000001
 40
0.0
 40
0.0
 40
0.0
 40
0.0
 40
0.0348562931077237
 40
0.0924900623539491
 40
0.1569277788850789
 40
0.2282085360920659
 40
0.2894089077515647
 40
0.3420696922203051
 40
0.3861903498429299
 40
0.4217735408338573
 40
0.5236918810098915
 40
0.6145479843395962
 40
0.7067593487247504
 40
0.7559111409869668
 40
0.8071360726317764
 40
0.8951475619903156
 40
1.0
 40
1.0
 40
1.0
 40
1.0
 10
244.5550936746094
 20
55.69206627968923
 30
0.0
 10
244.592729564485
 20
55.72723950210082
 30
0.0
 10
244.6925951982339
 20
55.82057052625714
 30
0.0
 10
244.811419246969
 20
55.97591576585746
 30
0.0
 10
244.9078303154872
 20
56.16464497065979
 30
0.0
 10
244.9391064706292
 20
56.35062385627228
 30
0.0
 10
244.9097011464556
 20
56.52243541760772
 30
0.0
 10
244.8412061232475
 20
56.6692420081185
 30
0.0
 10
244.7533934762331
 20
56.79045293013235
 30
0.0
 10
244.5991023242788
 20
56.95603607731579
 30
0.0
 10
244.3312760063228
 20
57.16620031967134
 30
0.0
 10
243.8797058668563
 20
57.42164413013338
 30
0.0
 10
243.4321432301331
 20
57.62828082680436
 30
0.0
 10
243.0232494612492
 20
57.78678504344807
 30
0.0
 10
242.6011698614418
 20
57.92930179138286
 30
0.0
 10
242.0228572440626
 20
58.09255836023833
 30
0.0
 10
241.548978650195
 20
58.16812681016011
 30
0.0
 10
241.2913497272251
 20
58.20921036745895
 30
0.0
  0
LINE
  5
2B0
330
1F
100
AcDbEntity
  8
0
  6
Continuous
 62
     7
370
    25
100
AcDbLine
 10
234.7817800053
 20
42.9620391793
 30
0.0
 11
234.7765419423
 21
43.2581226023
 31
0.0
  0
LINE
  5
2B1
330
1F
100
AcDbEntity
  8
0
  6
Continuous
 62
     7
370
    25
100
AcDbLine
 10
234.7765419423
 20
43.2581226023
 30
0.0
 11
234.8196397291
 21
43.9097477979
 31
0.0
  0
LINE
  5
2B2
330
1F
100
AcDbEntity
  8
0
  6
Continuous
 62
     7
370
    25
100
AcDbLine
 10
234.2969931243
 20
45.7388108197
 30
0.0
 11
233.9855786218
 21
46.0674073892
 31
0.0
  0
SPLINE
  5
2B3
330
1F
100
AcDbEntity
  8
0
  6
Continuous
 62
     7
370
    25
100
AcDbSpline
210
0.0
220
0.0
230
1.0
 70
     8
 71
     3
 72
    19
 73
    15
 74
     0
 42
0.000000001
 43
0.00000001
 40
0.0
 40
0.0
 40
0.0
 40
0.0
 40
0.0210492621018804
 40
0.1455865440207667
 40
0.2712169722633744
 40
0.3929514297049947
 40
0.5136082229787104
 40
0.6366369099308349
 40
0.699422462668311
 40
0.7643939711952468
 40
0.8122544601557282
 40
0.8606584764820763
 40
0.9188817427801165
 40
1.0
 40
1.0
 40
1.0
 40
1.0
 10
237.7021051748827
 20
55.95446042000114
 30
0.0
 10
237.6946365998969
 20
56.00922076690655
 30
0.0
 10
237.6429804413252
 20
56.38796894424169
 30
0.0
 10
237.8857513359848
 20
56.99811985305587
 30
0.0
 10
238.4700818033997
 20
57.68749355629544
 30
0.0
 10
239.37620817104
 20
58.10479310652748
 30
0.0
 10
240.450554299502
 20
58.22521906421613
 30
0.0
 10
241.4044881685978
 20
58.06451952062854
 30
0.0
 10
242.139150711167
 20
57.76715342178674
 30
0.0
 10
242.6119539506393
 20
57.46949534438203
 30
0.0
 10
242.9689241207588
 20
57.09858353960468
 30
0.0
 10
243.163772262267
 20
56.6662622442971
 30
0.0
 10
243.1928012925112
 20
56.16332091307196
 30
0.0
 10
243.1304276908908
 20
55.82957590049676
 30
0.0
 10
243.0941166349168
 20
55.6352848299499
 30
0.0
  0
SPLINE
  5
2B4
330
1F
100
AcDbEntity
  8
0
  6
Continuous
 62
     7
370
    25
100
AcDbSpline
210
0.0
220
0.0
230
1.0
 70
     8
 71
     3
 72
    10
 73
     6
 74
     0
 42
0.000000001
 43
0.00000001
 40
0.0
 40
0.0
 40
0.0
 40
0.0
 40
0.2950355258923527
 40
0.9801030833761959
 40
1.0
 40
1.0
 40
1.0
 40
1.0
 10
243.096844490905
 20
55.63404627652751
 30
0.0
 10
243.1796690611654
 20
55.59528109483875
 30
0.0
 10
243.4548108985631
 20
55.46650380950713
 30
0.0
 10
243.7298778331032
 20
55.32523452961728
 30
0.0
 10
243.8784564436823
 20
55.23117179367843
 30
0.0
 10
243.8826499262412
 20
55.22851696711181
 30
0.0
  0
ARC
  5
2B5
330
1F
100
AcDbEntity
  8
0
  6
Continuous
 62
     7
370
    25
100
AcDbCircle
 10
247.1069530562
 20
41.4208272842
 30
0.0
 40
12.46654291792169
100
AcDbArc
 50
171.5249863735
 51
179.8211981812
  0
SPLINE
  5
2B6
330
1F
100
AcDbEntity
  8
0
  6
Continuous
 62
     7
370
    25
100
AcDbSpline
210
0.0
220
0.0
230
1.0
 70
     8
 71
     3
 72
    14
 73
    10
 74
     0
 42
0.000000001
 43
0.00000001
 40
0.0
 40
0.0
 40
0.0
 40
0.0
 40
0.0003951393068452
 40
0.0003951393068452
 40
0.0003951393068452
 40
0.0008163352168663
 40
0.0008163352168663
 40
0.0008163352168663
 40
0.0012378579337219
 40
0.0012378579337219
 40
0.0012378579337219
 40
0.0012378579337219
 10
242.6887668280664
 20
55.77929359869566
 30
0.0
 10
242.7342286422977
 20
55.76485673607061
 30
0.0
 10
242.7791162469187
 20
55.74999087550501
 30
0.0
 10
242.8233999395938
 20
55.73470708789954
 30
0.0
 10
242.8706032318331
 20
55.71841564856185
 30
0.0
 10
242.9171290448923
 20
55.70164617047794
 30
0.0
 10
242.962939954134
 20
55.68441735968266
 30
0.0
 10
243.008786342123
 20
55.66717520585101
 30
0.0
 10
243.0539255776955
 20
55.64946949964651
 30
0.0
 10
243.0983191357378
 20
55.63132664295573
 30
0.0
  0
LINE
  5
2B7
330
1F
100
AcDbEntity
  8
0
  6
Continuous
 62
     7
370
    25
100
AcDbLine
 10
233.9855786218
 20
46.0674073892
 30
0.0
 11
233.3456419474
 21
46.4796390294
 31
0.0
  0
LINE
  5
2B8
330
1F
100
AcDbEntity
  8
0
  6
Continuous
 62
     7
370
    25
100
AcDbLine
 10
233.0397078522
 20
46.8511174162
 30
0.0
 11
233.3456419474
 21
46.4796390294
 31
0.0
  0
SPLINE
  5
2B9
330
1F
100
AcDbEntity
  8
0
  6
Continuous
 62
     7
370
    25
100
AcDbSpline
210
0.0
220
0.0
230
1.0
 70
     8
 71
     3
 72
    13
 73
     9
 74
     0
 42
0.000000001
 43
0.00000001
 40
0.0
 40
0.0
 40
0.0
 40
0.0
 40
0.161854229885178
 40
0.3254858841554281
 40
0.4910085196607404
 40
0.6585318472791263
 40
0.8281616954204583
 40
0.9999999999999999
 40
0.9999999999999999
 40
0.9999999999999999
 40
0.9999999999999999
 10
233.3456423590448
 20
46.47963903326576
 30
0.0
 10
233.3260649670273
 20
46.49220201029891
 30
0.0
 10
233.2866951911816
 20
46.51746592641753
 30
0.0
 10
233.2251592514113
 20
46.55015962333238
 30
0.0
 10
233.1616025921619
 20
46.57910569703927
 30
0.0
 10
233.0959844895051
 20
46.60361806450486
 30
0.0
 10
233.0285572204503
 20
46.62405312785837
 30
0.0
 10
232.9826726202518
 20
46.63364978284815
 30
0.0
 10
232.9595819400768
 20
46.63847914368294
 30
0.0
  0
SPLINE
  5
2BA
330
1F
100
AcDbEntity
  8
0
  6
Continuous
 62
     7
370
    25
100
AcDbSpline
210
0.0
220
0.0
230
1.0
 70
     8
 71
     3
 72
     9
 73
     5
 74
     0
 42
0.000000001
 43
0.00000001
 40
0.0
 40
0.0
 40
0.0
 40
0.0
 40
0.4907282259506175
 40
1.0
 40
1.0
 40
1.0
 40
1.0
 10
232.9595761127849
 20
46.63845114665192
 30
0.0
 10
232.9354825903071
 20
46.64654667887005
 30
0.0
 10
232.8863851037478
 20
46.66304365579133
 30
0.0
 10
232.8356844099277
 20
46.67783732480757
 30
0.0
 10
232.8098639776403
 20
46.68537132287216
 30
0.0
  0
SPLINE
  5
2BB
330
1F
100
AcDbEntity
  8
0
  6
Continuous
 62
     7
370
    25
100
AcDbSpline
210
0.0
220
0.0
230
1.0
 70
     8
 71
     3
 72
    14
 73
    10
 74
     0
 42
0.000000001
 43
0.00000001
 40
0.0
 40
0.0
 40
0.0
 40
0.0
 40
0.0310276388071746
 40
0.0622853718672815
 40
0.1248003166904892
 40
0.2498289731753984
 40
0.499889260361071
 40
0.7606803621682141
 40
1.0
 40
1.0
 40
1.0
 40
1.0
 10
232.225923288352
 20
47.05947906551803
 30
0.0
 10
232.2319155277565
 20
47.05564802186439
 30
0.0
 10
232.2439444437158
 20
47.04795752436668
 30
0.0
 10
232.2680042517649
 20
47.03251963486
 30
0.0
 10
232.3102379244112
 20
47.00544918192917
 30
0.0
 10
232.3948004989234
 20
46.95123715713378
 30
0.0
 10
232.5180874683936
 20
46.87223397526775
 30
0.0
 10
232.6642191748476
 20
46.77862780059032
 30
0.0
 10
232.7625857913883
 20
46.71564472419786
 30
0.0
 10
232.8096574920725
 20
46.68550522540873
 30
0.0
  0
LINE
  5
2BC
330
1F
100
AcDbEntity
  8
0
  6
Continuous
 62
     7
370
    25
100
AcDbLine
 10
230.4234231331
 20
48.2221097425
 30
0.0
 11
230.7143904873
 21
48.0340312034
 31
0.0
  0
SPLINE
  5
2BD
330
1F
100
AcDbEntity
  8
0
  6
Continuous
 62
     7
370
    25
100
AcDbSpline
210
0.0
220
0.0
230
1.0
 70
     8
 71
     3
 72
     8
 73
     4
 74
     0
 42
0.000000001
 43
0.00000001
 40
0.0
 40
0.0
 40
0.0
 40
0.0
 40
1.0
 40
1.0
 40
1.0
 40
1.0
 10
230.7457787906473
 20
48.01380867320685
 30
0.0
 10
230.7353362847954
 20
48.02063409810425
 30
0.0
 10
230.7248703519057
 20
48.02737706489079
 30
0.0
 10
230.7143825870891
 20
48.03403615254377
 30
0.0
  0
SPLINE
  5
2BE
330
1F
100
AcDbEntity
  8
0
  6
Continuous
 62
     7
370
    25
100
AcDbSpline
210
0.0
220
0.0
230
1.0
 70
     8
 71
     3
 72
     8
 73
     4
 74
     0
 42
0.000000001
 43
0.00000001
 40
0.0
 40
0.0
 40
0.0
 40
0.0
 40
1.0
 40
1.0
 40
1.0
 40
1.0
 10
227.9597744118235
 20
49.89206432501593
 30
0.0
 10
228.0187741759934
 20
49.85332365809697
 30
0.0
 10
228.078061739504
 20
49.81526168079768
 30
0.0
 10
228.1376428129924
 20
49.77787789233738
 30
0.0
  0
SPLINE
  5
2BF
330
1F
100
AcDbEntity
  8
0
  6
Continuous
 62
     7
370
    25
100
AcDbSpline
210
0.0
220
0.0
230
1.0
 70
     8
 71
     3
 72
     8
 73
     4
 74
     0
 42
0.000000001
 43
0.00000001
 40
0.0
 40
0.0
 40
0.0
 40
0.0
 40
1.0
 40
1.0
 40
1.0
 40
1.0
 10
227.9349246657239
 20
50.25527450295425
 30
0.0
 10
227.9423988778144
 20
50.13431666224241
 30
0.0
 10
227.9506949817046
 20
50.01324481983175
 30
0.0
 10
227.9597744118235
 20
49.89206432501593
 30
0.0
  0
LWPOLYLINE
  5
2C0
330
1F
100
AcDbEntity
  8
0
  6
Continuous
 62
     7
370
    25
100
AcDbPolyline
 90
       16
 70
   128
 43
0.0
 10
227.9349250245
 20
50.2552738375
 10
228.3088354009
 20
51.3138540479
 10
228.7568340101
 20
52.3655656497
 10
229.2740318176
 20
53.3989321957
 10
229.8547854263
 20
54.4026782618
 10
230.4927583209
 20
55.3658518758
 10
231.1809890275
 20
56.2779421926
 10
231.911968163
 20
57.1289988797
 10
232.6777194363
 20
57.9097343916
 10
233.4698872348
 20
58.6116292864
 10
234.2798279971
 20
59.2270260383
 10
235.0987038913
 20
59.7492089734
 10
235.9175797854
 20
60.1724800212
 10
236.7275205477
 20
60.4922209684
 10
237.5196883462
 20
60.7049435456
 10
237.8988874935
 20
60.769381529
  0
SPLINE
  5
2C1
330
1F
100
AcDbEntity
  8
0
  6
Continuous
 62
     7
370
    25
100
AcDbSpline
210
0.0
220
0.0
230
1.0
 70
     8
 71
     3
 72
    10
 73
     6
 74
     0
 42
0.000000001
 43
0.00000001
 40
0.0
 40
0.0
 40
0.0
 40
0.0
 40
0.2409818396634726
 40
0.5031433556203718
 40
1.0
 40
1.0
 40
1.0
 40
1.0
 10
233.9855786217626
 20
39.36156576600042
 30
0.0
 10
234.0678244927656
 20
39.30988924407988
 30
0.0
 10
234.23954475011
 20
39.2019943973885
 30
0.0
 10
234.517266109137
 20
39.07227168692425
 30
0.0
 10
234.638243356181
 20
39.09504962802924
 30
0.0
 10
234.7174355970965
 20
39.10996016900797
 30
0.0
  0
LINE
  5
2C2
330
1F
100
AcDbEntity
  8
0
  6
Continuous
 62
     7
370
    25
100
AcDbLine
 10
229.2024045656
 20
49.0906384989
 30
0.0
 11
228.4405258632
 21
49.5812729066
 31
0.0
  0
LINE
  5
2C3
330
1F
100
AcDbEntity
  8
0
  6
Continuous
 62
     7
370
    25
100
AcDbLine
 10
228.4405258632
 20
49.5812729066
 30
0.0
 11
227.959774543
 21
49.8920642827
 31
0.0
  0
LINE
  5
2C4
330
1F
100
AcDbEntity
  8
0
  6
Continuous
 62
     7
370
    25
100
AcDbLine
 10
233.0397078522
 20
39.0857859651
 30
0.0
 11
233.3456419474
 21
39.7737974061
 31
0.0
  0
LINE
  5
2C5
330
1F
100
AcDbEntity
  8
0
  6
Continuous
 62
     7
370
    25
100
AcDbLine
 10
233.3456419474
 20
39.7737974061
 30
0.0
 11
233.9855786218
 21
39.361565766
 31
0.0
  0
SPLINE
  5
2C6
330
1F
100
AcDbEntity
  8
0
  6
Continuous
 62
     7
370
    25
100
AcDbSpline
210
0.0
220
0.0
230
1.0
 70
     8
 71
     3
 72
    13
 73
     9
 74
     0
 42
0.000000001
 43
0.00000001
 40
0.0
 40
0.0
 40
0.0
 40
0.0
 40
0.172258782378417
 40
0.342139827159501
 40
0.5097456258302661
 40
0.6751828993623331
 40
0.8385626190354498
 40
1.0
 40
1.0
 40
1.0
 40
1.0
 10
232.9595704282715
 20
40.05510711151905
 30
0.0
 10
232.9827219522267
 20
40.0369875205816
 30
0.0
 10
233.0287054329823
 20
40.00099844864027
 30
0.0
 10
233.0962464457016
 20
39.94999846521861
 30
0.0
 10
233.1619060603899
 20
39.90167378502684
 30
0.0
 10
233.2254301316376
 20
39.85624277912102
 30
0.0
 10
233.2868605103514
 20
39.81341721136813
 30
0.0
 10
233.3261266773177
 20
39.7869513941979
 30
0.0
 10
233.3456423590448
 20
39.77379761565403
 30
0.0
  0
SPLINE
  5
2C7
330
1F
100
AcDbEntity
  8
0
  6
Continuous
 62
     7
370
    25
100
AcDbSpline
210
0.0
220
0.0
230
1.0
 70
     8
 71
     3
 72
    11
 73
     7
 74
     0
 42
0.000000001
 43
0.00000001
 40
0.0
 40
0.0
 40
0.0
 40
0.0
 40
0.2392845094479873
 40
0.5001120454076898
 40
0.7515010915036774
 40
1.0
 40
1.0
 40
1.0
 40
1.0
 10
232.8101900167954
 20
40.10242110373193
 30
0.0
 10
232.7631207847909
 20
40.07410658101914
 30
0.0
 10
232.6647446301963
 20
40.01492835046294
 30
0.0
 10
232.5184474086124
 20
39.92174045000303
 30
0.0
 10
232.3706066649686
 20
39.82636853403057
 30
0.0
 10
232.2743202022496
 20
39.76183327876775
 30
0.0
 10
232.2264553143906
 20
39.72975220870992
 30
0.0
  0
SPLINE
  5
2C8
330
1F
100
AcDbEntity
  8
0
  6
Continuous
 62
     7
370
    25
100
AcDbSpline
210
0.0
220
0.0
230
1.0
 70
     8
 71
     3
 72
     9
 73
     5
 74
     0
 42
0.000000001
 43
0.00000001
 40
0.0
 40
0.0
 40
0.0
 40
0.0
 40
0.5090669353869915
 40
1.0
 40
1.0
 40
1.0
 40
1.0
 10
232.8107610203796
 20
40.10172214952015
 30
0.0
 10
232.8364095950036
 20
40.09422944136027
 30
0.0
 10
232.886793096349
 20
40.07951092864801
 30
0.0
 10
232.9356006078443
 20
40.06311857079584
 30
0.0
 10
232.9595618290389
 20
40.05507102031925
 30
0.0
  0
LINE
  5
2C9
330
1F
100
AcDbEntity
  8
0
  6
Continuous
 62
     7
370
    25
100
AcDbLine
 10
234.6406796005
 20
41.0256007168
 30
0.0
 11
232.9595636441
 21
40.0551131326
 31
0.0
  0
LINE
  5
2CA
330
1F
100
AcDbEntity
  8
0
  6
Continuous
 62
     7
370
    25
100
AcDbLine
 10
230.9530759929
 20
41.1789344312
 30
0.0
 11
230.7527803394
 21
40.677777017
 31
0.0
  0
SPLINE
  5
2CB
330
1F
100
AcDbEntity
  8
0
  6
Continuous
 62
     7
370
    25
100
AcDbSpline
210
0.0
220
0.0
230
1.0
 70
     8
 71
     3
 72
     8
 73
     4
 74
     0
 42
0.000000001
 43
0.00000001
 40
0.0
 40
0.0
 40
0.0
 40
0.0
 40
1.0
 40
1.0
 40
1.0
 40
1.0
 10
230.9526328222394
 20
41.1797181833815
 30
0.0
 10
230.9788081568086
 20
41.20188556035976
 30
0.0
 10
231.0046291967741
 20
41.22451770145138
 30
0.0
 10
231.0300867504825
 20
41.24760242154267
 30
0.0
  0
LINE
  5
2CC
330
1F
100
AcDbEntity
  8
0
  6
Continuous
 62
     7
370
    25
100
AcDbLine
 10
231.0300868462
 20
41.2476023059
 30
0.0
 11
232.8103796055
 21
40.1018314208
 31
0.0
  0
LINE
  5
2CD
330
1F
100
AcDbEntity
  8
0
  6
Continuous
 62
     7
370
    25
100
AcDbLine
 10
234.6404708419
 20
41.123650652
 30
0.0
 11
234.5524715149
 21
41.2311417203
 31
0.0
  0
LINE
  5
2CE
330
1F
100
AcDbEntity
  8
0
  6
Continuous
 62
     7
370
    25
100
AcDbLine
 10
232.7240635183
 20
42.2255142233
 30
0.0
 11
231.0300868462
 21
41.2476023059
 31
0.0
  0
LINE
  5
2CF
330
1F
100
AcDbEntity
  8
0
  6
Continuous
 62
     7
370
    25
100
AcDbLine
 10
232.8667576008
 20
42.2042220615
 30
0.0
 11
232.7244836697
 21
42.2250268458
 31
0.0
  0
LINE
  5
2D0
330
1F
100
AcDbEntity
  8
0
  6
Continuous
 62
     7
370
    25
100
AcDbLine
 10
234.5525452719
 20
41.2310375538
 30
0.0
 11
232.8667576008
 21
42.2042220615
 31
0.0
  0
LINE
  5
2D1
330
1F
100
AcDbEntity
  8
0
  6
Continuous
 62
     7
370
    25
100
AcDbLine
 10
234.6404708419
 20
41.180273471
 30
0.0
 11
234.5524985153
 21
41.2310645272
 31
0.0
  0
SPLINE
  5
2D2
330
1F
100
AcDbEntity
  8
0
  6
Continuous
 62
     7
370
    25
100
AcDbSpline
210
0.0
220
0.0
230
1.0
 70
     8
 71
     3
 72
    19
 73
    15
 74
     0
 42
0.000000001
 43
0.00000001
 40
0.0
 40
0.0
 40
0.0
 40
0.0
 40
0.0637853009127854
 40
0.1289628367668835
 40
0.1955871994312377
 40
0.2637095015417503
 40
0.3333775579368785
 40
0.404636070956767
 40
0.4775268158870349
 40
0.5520888236349092
 40
0.6283585584292241
 40
0.7063700889344752
 40
0.8377041805690577
 40
0.9999999999999999
 40
0.9999999999999999
 40
0.9999999999999999
 40
0.9999999999999999
 10
230.168563716278
 20
41.34820627073337
 30
0.0
 10
230.1892530852832
 20
41.33484713072305
 30
0.0
 10
230.231083407938
 20
41.30783726218215
 30
0.0
 10
230.2915743815327
 20
41.27031529665562
 30
0.0
 10
230.351058579712
 20
41.23479555556496
 30
0.0
 10
230.4091397391836
 20
41.20181542664845
 30
0.0
 10
230.4656718562709
 20
41.17160899037811
 30
0.0
 10
230.5204169110247
 20
41.14449555041659
 30
0.0
 10
230.573139288617
 20
41.1207639326666
 30
0.0
 10
230.623580921548
 20
41.10072367922192
 30
0.0
 10
230.6714638400134
 20
41.08460381768361
 30
0.0
 10
230.7264279943834
 20
41.070325848002
 30
0.0
 10
230.7892593083431
 20
41.06018729074728
 30
0.0
 10
230.8277668240011
 20
41.06666154206054
 30
0.0
 10
230.8490507891982
 20
41.0702400055702
 30
0.0
  0
LINE
  5
2D3
330
1F
100
AcDbEntity
  8
0
  6
Continuous
 62
     7
370
    25
100
AcDbLine
 10
230.8736864768
 20
41.0963104598
 30
0.0
 11
230.9413993402
 21
41.1679649802
 31
0.0
  0
SPLINE
  5
2D4
330
1F
100
AcDbEntity
  8
0
  6
Continuous
 62
     7
370
    25
100
AcDbSpline
210
0.0
220
0.0
230
1.0
 70
     8
 71
     3
 72
     9
 73
     5
 74
     0
 42
0.000000001
 43
0.00000001
 40
0.0
 40
0.0
 40
0.0
 40
0.0
 40
0.5232016984460688
 40
1.0
 40
1.0
 40
1.0
 40
1.0
 10
232.5578857385925
 20
42.12958200246625
 30
0.0
 10
232.4888615759438
 20
42.15462416758275
 30
0.0
 10
232.3569350878349
 20
42.20248747764248
 30
0.0
 10
232.1154976750163
 20
42.34008560832914
 30
0.0
 10
232.0003807266527
 20
42.40569216333754
 30
0.0
  0
LINE
  5
2D5
330
1F
100
AcDbEntity
  8
0
  6
Continuous
 62
     7
370
    25
100
AcDbLine
 10
228.2708795296
 20
42.171581726
 30
0.0
 11
228.722350644
 21
42.2838456988
 31
0.0
  0
LINE
  5
2D6
330
1F
100
AcDbEntity
  8
0
  6
Continuous
 62
     7
370
    25
100
AcDbLine
 10
228.722350644
 20
42.2838456988
 30
0.0
 11
230.1685631158
 21
41.3482063658
 31
0.0
  0
SPLINE
  5
2D7
330
1F
100
AcDbEntity
  8
0
  6
Continuous
 62
     7
370
    25
100
AcDbSpline
210
0.0
220
0.0
230
1.0
 70
     8
 71
     3
 72
     8
 73
     4
 74
     0
 42
0.000000001
 43
0.00000001
 40
0.0
 40
0.0
 40
0.0
 40
0.0
 40
1.0
 40
1.0
 40
1.0
 40
1.0
 10
228.4416681002948
 20
41.77683207295005
 30
0.0
 10
228.3845428313708
 20
41.90861825674569
 30
0.0
 10
228.3276143396532
 20
42.04020247840648
 30
0.0
 10
228.2708802217037
 20
42.17158154530784
 30
0.0
  0
LINE
  5
2D8
330
1F
100
AcDbEntity
  8
0
  6
Continuous
 62
     7
370
    25
100
AcDbLine
 10
230.060052103
 20
43.0560843136
 30
0.0
 11
228.722350644
 21
42.2838456988
 31
0.0
  0
LINE
  5
2D9
330
1F
100
AcDbEntity
  8
0
  6
Continuous
 62
     7
370
    25
100
AcDbLine
 10
231.0430805879
 20
42.9583309107
 30
0.0
 11
230.060052103
 21
43.0560843136
 31
0.0
  0
LINE
  5
2DA
330
1F
100
AcDbEntity
  8
0
  6
Continuous
 62
     7
370
    25
100
AcDbLine
 10
232.0003807267
 20
42.4056921633
 30
0.0
 11
231.0430796001
 21
42.9583303405
 31
0.0
  0
SPLINE
  5
2DB
330
1F
100
AcDbEntity
  8
0
  6
Continuous
 62
     7
370
    25
100
AcDbSpline
210
0.0
220
0.0
230
1.0
 70
     8
 71
     3
 72
     8
 73
     4
 74
     0
 42
0.000000001
 43
0.00000001
 40
0.0
 40
0.0
 40
0.0
 40
0.0
 40
1.0
 40
1.0
 40
1.0
 40
1.0
 10
228.270880221706
 20
42.17158154530273
 30
0.0
 10
228.2677428839559
 20
42.20679785217524
 30
0.0
 10
228.2657504800579
 20
42.24244210840294
 30
0.0
 10
228.2649690826858
 20
42.27853901039781
 30
0.0
  0
LINE
  5
2DC
330
1F
100
AcDbEntity
  8
0
  6
Continuous
 62
     7
370
    25
100
AcDbLine
 10
229.0760555578
 20
42.7467687251
 30
0.0
 11
228.2649697512
 21
42.2785388555
 31
0.0
  0
SPLINE
  5
2DD
330
1F
100
AcDbEntity
  8
0
  6
Continuous
 62
     7
370
    25
100
AcDbSpline
210
0.0
220
0.0
230
1.0
 70
     8
 71
     3
 72
     8
 73
     4
 74
     0
 42
0.000000001
 43
0.00000001
 40
0.0000004089325119
 40
0.0000004089325119
 40
0.0000004089325119
 40
0.0000004089325119
 40
0.0015399868451459
 40
0.0015399868451459
 40
0.0015399868451459
 40
0.0015399868451459
 10
229.0760546151746
 20
42.74676872175393
 30
0.0
 10
229.3145311831978
 20
42.84114510757029
 30
0.0
 10
229.5529781408665
 20
42.93557371950049
 30
0.0
 10
229.7913868797168
 20
43.03006710246295
 30
0.0
  0
LINE
  5
2DE
330
1F
100
AcDbEntity
  8
0
  6
Continuous
 62
     7
370
    25
100
AcDbLine
 10
229.7913863587
 20
43.0300672496
 30
0.0
 11
229.8157827985
 21
43.035061276
 31
0.0
  0
LINE
  5
2DF
330
1F
100
AcDbEntity
  8
0
  6
Continuous
 62
     7
370
    25
100
AcDbLine
 10
230.060052103
 20
43.0560843136
 30
0.0
 11
229.8157834571
 21
43.0350612759
 31
0.0
  0
SPLINE
  5
2E0
330
1F
100
AcDbEntity
  8
0
  6
Continuous
 62
     7
370
    25
100
AcDbSpline
210
0.0
220
0.0
230
1.0
 70
     8
 71
     3
 72
     8
 73
     4
 74
     0
 42
0.000000001
 43
0.00000001
 40
0.0
 40
0.0
 40
0.0
 40
0.0
 40
1.0
 40
1.0
 40
1.0
 40
1.0
 10
231.0430787942249
 20
42.95833109504991
 30
0.0
 10
231.0736868283481
 20
42.9433910872438
 30
0.0
 10
231.10423832932
 20
42.92851412985042
 30
0.0
 10
231.1347322674346
 20
42.9137005661695
 30
0.0
  0
LWPOLYLINE
  5
2E1
330
1F
100
AcDbEntity
  8
0
  6
Continuous
 62
     7
370
    25
100
AcDbPolyline
 90
        3
 70
   128
 43
0.0
 10
234.6828519265
 20
42.4467810244
 10
234.2083222466
 20
42.2488187187
 10
233.471467577
 20
42.0227763867
  0
LWPOLYLINE
  5
2E2
330
1F
100
AcDbEntity
  8
0
  6
Continuous
 62
     7
370
    18
100
AcDbPolyline
 90
       25
 70
   128
 43
0.0
 10
268.8506166752
 20
22.1452740993
 10
268.8921820289
 20
23.1004136817
 10
269.0164362067
 20
24.0934180781
 10
269.2220634366
 20
25.1137622253
 10
269.5068832777
 20
26.1506295036
 10
269.8678763036
 20
27.193028656
 10
270.3012163705
 20
28.2299107057
 10
270.8023094721
 20
29.2502835927
 10
271.3658451054
 20
30.2433325122
 10
271.985848296
 20
31.1985294159
 10
272.6557474284
 20
32.1057497374
 10
273.3684414171
 20
32.9553761886
 10
274.1163752749
 20
33.7384032212
 10
274.891620949
 20
34.4465300812
 10
275.6859607096
 20
35.0722500124
 10
276.4909742419
 20
35.6089317128
 10
277.2981281673
 20
36.0508847026
 10
278.0988663875
 20
36.3934251671
 10
278.884701128
 20
36.6329216704
 10
279.6473020891
 20
36.7668352144
 10
280.3785858014
 20
36.7937464884
 10
281.0708000437
 20
36.7133703806
 10
281.7166076424
 20
36.5265587277
 10
282.3091623687
 20
36.2352920373
 10
282.5378314124
 20
36.0845107135
  0
LWPOLYLINE
  5
2E3
330
1F
100
AcDbEntity
  8
0
  6
Continuous
 62
     7
370
    18
100
AcDbPolyline
 90
       10
 70
   128
 43
0.0
 10
271.4652626063
 20
16.9041810626
 10
271.3658451054
 20
16.9512366181
 10
270.8023094721
 20
17.2936411447
 10
270.3012163705
 20
17.7354642515
 10
269.8678763036
 20
18.2720225096
 10
269.5068832777
 20
18.897627986
 10
269.2220634366
 20
19.6056492754
 10
269.0164362067
 20
20.3885812764
 10
268.8921820289
 20
21.2381248528
 10
268.8506166752
 20
22.1452740993
  0
LWPOLYLINE
  5
2E4
330
1F
100
AcDbEntity
  8
0
  6
Continuous
 62
     7
370
    18
100
AcDbPolyline
 90
       59
 70
   128
 43
0.0
 10
270.5463108313
 20
22.1837351027
 10
270.5871168832
 20
23.0764008287
 10
270.7090575941
 20
24.005714964
 10
270.9107032639
 20
24.9607824908
 10
271.1896897179
 20
25.9304054348
 10
271.5427453068
 20
26.9032161333
 10
271.965731737
 20
27.8678095521
 10
272.4536891805
 20
28.8128759821
 10
273.0008975198
 20
29.7273360159
 10
273.6009405557
 20
30.600468489
 10
274.246784045
 20
31.4220361399
 10
274.9308553845
 20
32.182407656
 10
275.6451346544
 20
32.8726680279
 10
276.3812478029
 20
33.4847236744
 10
277.1305643572
 20
34.0114006755
 10
277.8842993335
 20
34.4465226155
 10
278.6336158878
 20
34.7849880929
 10
279.3697290363
 20
35.0228305971
 10
280.0840083063
 20
35.1572595163
 10
280.7680796458
 20
35.1866999571
 10
281.4139231351
 20
35.1108073269
 10
282.013966171
 20
34.9304697964
 10
282.5611745103
 20
34.6478030631
 10
283.0491319538
 20
34.2661203054
 10
283.472118384
 20
33.7898966237
 10
283.8251739729
 20
33.2247152315
 10
284.1041604268
 20
32.5772031909
 10
284.3058060966
 20
31.8549507988
 10
284.4277468075
 20
31.0664264115
 10
284.4685528594
 20
30.2208743502
 10
284.4277468075
 20
29.3282086242
 10
284.3058060966
 20
28.3988944889
 10
284.1041604268
 20
27.443826962
 10
283.8251739729
 20
26.474204018
 10
283.472118384
 20
25.5013933196
 10
283.0491319538
 20
24.5367999008
 10
282.5611745103
 20
23.5917334707
 10
282.013966171
 20
22.677273437
 10
281.4139231351
 20
21.8041409638
 10
280.7680796458
 20
20.982573313
 10
280.0840083063
 20
20.2222017969
 10
279.3697290363
 20
19.5319414249
 10
278.6336158878
 20
18.9198857785
 10
277.8842993335
 20
18.3932087774
 10
277.1305643572
 20
17.9580868374
 10
276.3812478029
 20
17.61962136
 10
275.6451346544
 20
17.3817788558
 10
274.9308553845
 20
17.2473499366
 10
274.246784045
 20
17.2179094958
 10
273.6009405557
 20
17.293802126
 10
273.0008975198
 20
17.4741396565
 10
272.4536891805
 20
17.7568063898
 10
271.965731737
 20
18.1384891475
 10
271.5427453068
 20
18.6147128292
 10
271.1896897179
 20
19.1798942214
 10
270.9107032639
 20
19.827406262
 10
270.7090575941
 20
20.5496586541
 10
270.5871168832
 20
21.3381830414
 10
270.5463108313
 20
22.1837351027
  0
ARC
  5
2E5
330
1F
100
AcDbEntity
  8
0
  6
Continuous
 62
     7
370
    18
100
AcDbCircle
 10
281.9695965023
 20
22.5794668652
 30
0.0
 40
10.4865569790351
100
AcDbArc
 50
163.3435486248
 51
179.2043787591
  0
LWPOLYLINE
  5
2E6
330
1F
100
AcDbEntity
  8
0
  6
Continuous
 62
     7
370
    18
100
AcDbPolyline
 90
       46
 70
   128
 43
0.0
 10
275.7725019367
 20
31.8615557383
 10
275.7799067758
 20
31.8683962627
 10
276.4614827255
 20
32.4483986677
 10
277.1572033881
 20
32.9439323755
 10
277.8576603027
 20
33.3482975452
 10
278.5533809652
 20
33.6560258165
 10
279.2349569149
 20
33.8629542526
 10
279.8931711629
 20
33.9662867361
 10
280.5191224921
 20
33.9646238997
 10
281.1043456424
 20
33.8579895418
 10
281.6409267197
 20
33.6478246267
 10
282.1216095513
 20
33.3369722554
 10
282.5398933152
 20
32.929635546
 10
282.8901217725
 20
32.4313232519
 10
283.1675586712
 20
31.8487742794
 10
283.3684516246
 20
31.1898660452
 10
283.4900847953
 20
30.4635100986
 10
283.5308131389
 20
29.6795287324
 10
283.4900847953
 20
28.8485234216
 10
283.3684516246
 20
27.9817328053
 10
283.1675586712
 20
27.0908785043
 10
282.8901217725
 20
26.1880077068
 10
282.5398933152
 20
25.285330243
 10
282.1216095513
 20
24.3950533795
 10
281.6409267197
 20
23.529216424
 10
281.1043456424
 20
22.699528184
 10
280.5191224921
 20
21.9172095591
 10
279.8931711629
 20
21.1928387012
 10
279.2349569149
 20
20.5362131902
 10
278.5533809652
 20
19.9562107851
 10
277.8576603027
 20
19.4606770773
 10
277.1572033881
 20
19.0563119077
 10
276.4614827255
 20
18.7485836364
 10
275.7799067758
 20
18.5416552002
 10
275.1216925279
 20
18.4383227168
 10
274.4957411986
 20
18.4399855532
 10
273.9105180483
 20
18.546619911
 10
273.373936971
 20
18.7567848261
 10
272.8932541394
 20
19.0676371974
 10
272.4749703755
 20
19.4749739069
 10
272.1247419182
 20
19.9732862009
 10
271.8473050195
 20
20.5558351735
 10
271.6464120661
 20
21.2147434076
 10
271.5247788955
 20
21.9410993543
 10
271.4840505518
 20
22.7250807205
 10
271.4840505518
 20
22.7250807205
  0
LWPOLYLINE
  5
2E7
330
1F
100
AcDbEntity
  8
0
  6
Continuous
 62
     7
370
    18
100
AcDbPolyline
 90
       25
 70
   128
 43
0.0
 10
282.270967775
 20
32.792582934
 10
282.3978472405
 20
32.6290359552
 10
282.7143055354
 20
32.0997423398
 10
282.9556199508
 20
31.4888455595
 10
283.1184035921
 20
30.804921387
 10
283.2003706513
 20
30.0575702628
 10
283.2003706513
 20
29.2572833558
 10
283.1184035921
 20
28.4152950795
 10
282.9556199508
 20
27.5434249152
 10
282.7143055354
 20
26.6539124415
 10
282.3978472405
 20
25.7592438559
 10
282.0106876071
 20
24.871978927
 10
281.5582616033
 20
24.0045727665
 10
281.0469199028
 20
23.1692015004
 10
280.4838412994
 20
22.3775923138
 10
279.8769296443
 20
21.6408574895
 10
279.2347046924
 20
20.9693389988
 10
278.566182165
 20
20.3724635966
 10
277.8807464448
 20
19.8586107748
 10
277.1880195667
 20
19.4349922645
 10
276.4977259695
 20
19.1075564684
 10
275.819555765
 20
18.8808996418
 10
275.1630290374
 20
18.7582023828
 10
274.5373618701
 20
18.7411880338
 10
274.0232529656
 20
18.8129656056
  0
LWPOLYLINE
  5
2E8
330
1F
100
AcDbEntity
  8
0
  6
Continuous
 62
     7
370
    18
100
AcDbPolyline
 90
       34
 70
   128
 43
0.0
 10
245.1572969011
 20
32.8356203917
 10
245.1981108555
 20
33.9236297369
 10
245.3202326662
 20
35.0502464276
 10
245.522706785
 20
36.2066530813
 10
245.8039487538
 20
37.3837996727
 10
246.1617570584
 20
38.5724726401
 10
246.5933315676
 20
39.7633698839
 10
247.095295265
 20
40.9471711076
 10
247.6637186156
 20
42.1146104395
 10
248.2941531513
 20
43.2565517157
 10
248.9816657151
 20
44.3640580589
 10
249.7208740227
 20
45.428460317
 10
250.5059944071
 20
46.4414302529
 10
251.3308813309
 20
47.3950383364
 10
252.1890790823
 20
48.28182161
 10
253.0738710012
 20
49.0948402445
 10
253.9783326567
 20
49.8277310509
 10
254.8953851893
 20
50.4747580465
 10
255.8178514928
 20
51.0308570556
 10
256.7385120673
 20
51.4916763177
 10
257.6501614892
 20
51.853609847
 10
258.5456647991
 20
52.1138239017
 10
259.4180133549
 20
52.2702823821
 10
260.2603800255
 20
52.3217612034
 10
261.0661724513
 20
52.267856988
 10
261.8290834222
 20
52.1089918146
 10
262.5431425737
 20
51.8464088396
 10
263.2027618263
 20
51.4821627878
 10
263.8027781911
 20
51.0191051191
 10
264.3384962458
 20
50.4608598796
 10
264.805722379
 20
49.8117959419
 10
265.20080101
 20
49.0769927808
 10
265.5206389554
 20
48.2622013069
 10
265.5352237406
 20
48.2175733143
  0
LWPOLYLINE
  5
2E9
330
1F
100
AcDbEntity
  8
0
  6
Continuous
 62
     7
370
    18
100
AcDbPolyline
 90
       16
 70
   128
 43
0.0
 10
252.4556062034
 20
25.5605561083
 10
252.1890790823
 20
25.5081420679
 10
251.3308813309
 20
25.4040713087
 10
250.5059944071
 20
25.4052852222
 10
249.7208740227
 20
25.5117744573
 10
248.9816657151
 20
25.72270497
 10
248.2941531513
 20
26.0364262032
 10
247.6637186156
 20
26.450483258
 10
247.095295265
 20
26.9616349588
 10
246.5933315676
 20
27.5658812336
 10
246.1617570584
 20
28.2584931555
 10
245.8039487538
 20
29.0340494478
 10
245.522706785
 20
29.8864809738
 10
245.3202326662
 20
30.8091159858
 10
245.1981108555
 20
31.7947338352
 10
245.1572969011
 20
32.8356203917
  0
LWPOLYLINE
  5
2EA
330
1F
100
AcDbEntity
  8
0
  6
Continuous
 62
     7
370
    18
100
AcDbPolyline
 90
       10
 70
   128
 43
0.0
 10
247.2786175924
 20
32.8356203917
 10
247.3197858438
 20
31.8462635279
 10
247.4429290569
 20
30.9131331117
 10
247.6469645848
 20
30.044429411
 10
247.9300998691
 20
29.2477865959
 10
248.2898462702
 20
28.5302059114
 10
248.7230421159
 20
27.8979928421
 10
249.2258816775
 20
27.3567044473
 10
249.7939448042
 20
26.9110959363
 10
249.9861074331
 20
26.7909023346
  0
LWPOLYLINE
  5
2EB
330
1F
100
AcDbEntity
  8
0
  6
Continuous
 62
     7
370
    18
100
AcDbPolyline
 90
       27
 70
   128
 43
0.0
 10
263.295935996
 20
49.7056961901
 10
263.1946683143
 20
49.7632183601
 10
262.5382970032
 20
50.0582353678
 10
261.8301591546
 20
50.2494306641
 10
261.0764790021
 20
50.3351251331
 10
260.2838788692
 20
50.3145652953
 10
259.4593248397
 20
50.1879314871
 10
258.6100627141
 20
49.9563366315
 10
257.7435560243
 20
49.6218163101
 10
256.8674196646
 20
49.1873102214
 10
255.9893531521
 20
48.6566373411
 10
255.117072838
 20
48.0344598302
 10
254.2582445303
 20
47.3262464205
 10
253.4204157252
 20
46.5382211254
 10
252.6109489503
 20
45.6773087895
 10
251.8369579681
 20
44.7510746857
 10
251.1052445554
 20
43.7676591211
 10
250.4222397288
 20
42.7357047234
 10
249.7939448042
 20
41.6642798297
 10
249.2258816775
 20
40.562799593
 10
248.7230421159
 20
39.4409449982
 10
248.2898462702
 20
38.3085746516
 10
247.9300998691
 20
37.1756396134
 10
247.6469645848
 20
36.0520957573
 10
247.4429290569
 20
34.9478176506
 10
247.3197858438
 20
33.8725091068
 10
247.2786175924
 20
32.8356203917
  0
LWPOLYLINE
  5
2EC
330
1F
100
AcDbEntity
  8
0
  6
Continuous
 62
     7
370
    18
100
AcDbPolyline
 90
       29
 70
   128
 43
0.0
 10
238.165778908
 20
36.0655348464
 10
238.2069735012
 20
37.1939904205
 10
238.3302510574
 20
38.3616527021
 10
238.5346994927
 20
39.5598774051
 10
238.8188054716
 20
40.7797933015
 10
239.1804649445
 20
42.0123681907
 10
239.6170002694
 20
43.2484763891
 10
240.1251799684
 20
44.4789667894
 10
240.7012417768
 20
45.6947293992
 10
241.3409203017
 20
46.8867618789
 10
242.039479291
 20
48.0462402614
 10
242.7917471949
 20
49.1645790258
 10
243.5921553608
 20
50.233499535
 10
244.4347765589
 20
51.2450864969
 10
245.3133727264
 20
52.1918520287
 10
246.2214390899
 20
53.0667854629
 10
247.1522527332
 20
53.8634087619
 10
248.0989223172
 20
54.5758257528
 10
249.0544387676
 20
55.1987605147
 10
250.0117278963
 20
55.7276014445
 10
250.9637023856
 20
56.1584335482
 10
251.9033138542
 20
56.4880662165
 10
252.8236059319
 20
56.7140593014
 10
253.7177651525
 20
56.8347403289
 10
254.579171662
 20
56.8492155207
 10
255.4014474568
 20
56.7573771092
 10
256.1785049515
 20
56.5599055196
 10
256.9045911013
 20
56.2582621408
 10
257.1619825637
 20
56.1190903903
  0
LWPOLYLINE
  5
2ED
330
1F
100
AcDbEntity
  8
0
  6
Continuous
 62
     7
370
    18
100
AcDbPolyline
 90
       11
 70
   128
 43
0.0
 10
241.4257612492
 20
28.8602019965
 10
241.3409203017
 20
28.9102480354
 10
240.7012417768
 20
29.3637234108
 10
240.1251799684
 20
29.9143792139
 10
239.6170002694
 20
30.5581378227
 10
239.1804649445
 20
31.2902330631
 10
238.8188054716
 20
32.105244813
 10
238.5346994927
 20
32.9971389283
 10
238.3302510574
 20
33.9593124924
 10
238.2069735012
 20
34.9846415372
 10
238.165778908
 20
36.0655348464
  0
LWPOLYLINE
  5
2EE
330
1F
100
AcDbEntity
  8
0
  6
Continuous
 62
     7
370
    18
100
AcDbPolyline
 90
       14
 70
   128
 43
0.0
 10
242.7898603465
 20
32.7298982187
 10
242.7165735624
 20
33.1193223624
 10
242.6004866536
 20
34.0935606491
 10
242.5680625562
 20
35.1240222188
 10
242.6195772004
 20
36.2019217862
 10
242.7545906783
 20
37.3180695906
 10
242.9719538299
 20
38.4629511727
 10
243.2698115352
 20
39.6268052149
 10
243.6456257637
 20
40.7997101958
 10
244.0961920379
 20
41.9716667095
 10
244.6176697262
 20
43.1326830141
 10
245.205612336
 20
44.2728617222
 10
245.8550083437
 20
45.3824834474
 10
246.5603213656
 20
46.4520866499
  0
LWPOLYLINE
  5
2EF
330
1F
100
AcDbEntity
  8
0
  6
Continuous
 62
     7
370
    18
100
AcDbPolyline
 90
       18
 70
   128
 43
0.0
 10
243.3016561134
 20
29.7999705177
 10
243.0517924733
 20
30.1678093312
 10
242.6535528286
 20
30.9082900246
 10
242.3335001977
 20
31.7317568794
 10
242.0942937834
 20
32.6313645293
 10
241.93792239
 20
33.5996361069
 10
241.8656859843
 20
34.6285241053
 10
241.8781845006
 20
35.7094763265
 10
241.9753138886
 20
36.8335082676
 10
242.1562674314
 20
37.9912775988
 10
242.4195403548
 20
39.1731610886
 10
242.7629449739
 20
40.3693354728
 10
243.1836271569
 20
41.5698585373
 10
243.6780906909
 20
42.7647529567
 10
244.2422242826
 20
43.9440848098
 10
244.8713404121
 20
45.0980544512
 10
245.5602095776
 20
46.2170687521
 10
246.3031063931
 20
47.2918285489
  0
LINE
  5
2F0
330
1F
100
AcDbEntity
  8
0
  6
Continuous
 62
     7
370
    18
100
AcDbLine
 10
249.2950298386
 20
48.6928491163
 30
0.0
 11
249.3381895286
 21
48.7380758783
 31
0.0
  0
ARC
  5
2F1
330
1F
100
AcDbEntity
  8
0
  6
Continuous
 62
     7
370
    18
100
AcDbCircle
 10
259.4622696302
 20
39.3990596837
 30
0.0
 40
14.48276781207045
100
AcDbArc
 50
110.0665409331
 51
139.2901057068
  0
LWPOLYLINE
  5
2F2
330
1F
100
AcDbEntity
  8
0
  6
Continuous
 62
     7
370
    18
100
AcDbPolyline
 90
       12
 70
   128
 43
0.0
 10
247.6472994546
 20
48.9639920661
 10
248.5153819591
 20
49.8903641104
 10
249.4137617914
 20
50.7398377757
 10
250.3347613105
 20
51.5051511717
 10
251.2705091809
 20
52.179765579
 10
252.213007935
 20
52.7579143381
 10
253.1542027298
 20
53.2346562297
 10
254.0860496294
 20
53.6059171751
 10
255.000584711
 20
53.8685240466
 10
255.8899918744
 20
54.0202331664
 10
256.7466697051
 20
54.0597468524
 10
257.2862629649
 20
54.0246451552
  0
LINE
  5
2F3
330
1F
100
AcDbEntity
  8
0
  6
Continuous
 62
     7
370
    18
100
AcDbLine
 10
233.6794146946
 20
46.4381424452
 30
0.0
 11
233.9855786218
 21
46.0674073892
 31
0.0
  0
LINE
  5
2F4
330
1F
100
AcDbEntity
  8
0
  6
Continuous
 62
     7
370
    18
100
AcDbLine
 10
233.6794146946
 20
38.6740322974
 30
0.0
 11
233.9855786218
 21
39.361565766
 31
0.0
  0
LINE
  5
2F5
330
1F
100
AcDbEntity
  8
0
  6
Continuous
 62
     7
370
    18
100
AcDbLine
 10
234.7214889385
 20
39.7863977491
 30
0.0
 11
233.9855858658
 21
39.3615699479
 31
0.0
  0
LINE
  5
2F6
330
1F
100
AcDbEntity
  8
0
  6
Continuous
 62
     7
370
    18
100
AcDbLine
 10
234.6549133815
 20
40.5296237168
 30
0.0
 11
233.3456419474
 21
39.7737974061
 31
0.0
  0
LINE
  5
2F7
330
1F
100
AcDbEntity
  8
0
  6
Continuous
 62
     7
370
    18
100
AcDbLine
 10
230.1685631158
 20
41.3482063658
 30
0.0
 11
229.8720758416
 21
40.852144748
 31
0.0
  0
LINE
  5
2F8
330
1F
100
AcDbEntity
  8
0
  6
Continuous
 62
     7
370
    18
100
AcDbLine
 10
232.0003807267
 20
42.4056921633
 30
0.0
 11
230.1686237019
 21
41.3482413414
 31
0.0
  0
LINE
  5
2F9
330
1F
100
AcDbEntity
  8
0
  6
Continuous
 62
     7
370
    18
100
AcDbLine
 10
232.0003807267
 20
42.4056921633
 30
0.0
 11
232.1216908812
 21
42.34394165
 31
0.0
  0
OLE2FRAME
  5
2FA
330
1F
100
AcDbEntity
  8
0
100
AcDbOle2Frame
 70
     2
  3
Paintbrush-Bild
 10
13.8511154363
 20
38.264191557
 30
0.0
 11
51.6290888628
 21
31.9806341108
 31
0.0
 71
     2
 72
     0
 73
     1
 90
    12928
310
80552BED0767C5B32B40DDAF6807D121434000000000000000006FFBDDFB85D0
310
4940DDAF6807D121434000000000000000006FFBDDFB85D04940416F4BD60AFB
310
3F4000000000000000002BED0767C5B32B40416F4BD60AFB3F40000000000000
310
0000000000000100000000010000010000000100000000000100000000320000
310
D0CF11E0A1B11AE1000000000000000000000000000000003E000300FEFF0900
310
0600000000000000000000000100000001000000000000000010000002000000
310
01000000FEFFFFFF0000000000000000FFFFFFFFFFFFFFFFFFFFFFFFFFFFFFFF
310
FFFFFFFFFFFFFFFFFFFFFFFFFFFFFFFFFFFFFFFFFFFFFFFFFFFFFFFFFFFFFFFF
310
FFFFFFFFFFFFFFFFFFFFFFFFFFFFFFFFFFFFFFFFFFFFFFFFFFFFFFFFFFFFFFFF
310
FFFFFFFFFFFFFFFFFFFFFFFFFFFFFFFFFFFFFFFFFFFFFFFFFFFFFFFFFFFFFFFF
310
FFFFFFFFFFFFFFFFFFFFFFFFFFFFFFFFFFFFFFFFFFFFFFFFFFFFFFFFFFFFFFFF
310
FFFFFFFFFFFFFFFFFFFFFFFFFFFFFFFFFFFFFFFFFFFFFFFFFFFFFFFFFFFFFFFF
310
FFFFFFFFFFFFFFFFFFFFFFFFFFFFFFFFFFFFFFFFFFFFFFFFFFFFFFFFFFFFFFFF
310
FFFFFFFFFFFFFFFFFFFFFFFFFFFFFFFFFFFFFFFFFFFFFFFFFFFFFFFFFFFFFFFF
310
FFFFFFFFFFFFFFFFFFFFFFFFFFFFFFFFFFFFFFFFFFFFFFFFFFFFFFFFFFFFFFFF
310
FFFFFFFFFFFFFFFFFFFFFFFFFFFFFFFFFFFFFFFFFFFFFFFFFFFFFFFFFFFFFFFF
310
FFFFFFFFFFFFFFFFFFFFFFFFFFFFFFFFFFFFFFFFFFFFFFFFFFFFFFFFFFFFFFFF
310
FFFFFFFFFFFFFFFFFFFFFFFFFFFFFFFFFFFFFFFFFFFFFFFFFFFFFFFFFFFFFFFF
310
FFFFFFFFFFFFFFFFFFFFFFFFFFFFFFFFFFFFFFFFFFFFFFFFFFFFFFFFFFFFFFFF
310
FFFFFFFFFFFFFFFFFFFFFFFFFFFFFFFFFFFFFFFFFFFFFFFFFFFFFFFFFFFFFFFF
310
FDFFFFFFFEFFFFFFFEFFFFFFFEFFFFFF05000000060000000700000008000000
310
090000000A0000000B0000000C0000000D0000000E0000000F00000010000000
310
11000000120000001300000014000000150000001600000017000000FEFFFFFF
310
FFFFFFFFFFFFFFFFFFFFFFFFFFFFFFFFFFFFFFFFFFFFFFFFFFFFFFFFFFFFFFFF
310
FFFFFFFFFFFFFFFFFFFFFFFFFFFFFFFFFFFFFFFFFFFFFFFFFFFFFFFFFFFFFFFF
310
FFFFFFFFFFFFFFFFFFFFFFFFFFFFFFFFFFFFFFFFFFFFFFFFFFFFFFFFFFFFFFFF
310
FFFFFFFFFFFFFFFFFFFFFFFFFFFFFFFFFFFFFFFFFFFFFFFFFFFFFFFFFFFFFFFF
310
FFFFFFFFFFFFFFFFFFFFFFFFFFFFFFFFFFFFFFFFFFFFFFFFFFFFFFFFFFFFFFFF
310
FFFFFFFFFFFFFFFFFFFFFFFFFFFFFFFFFFFFFFFFFFFFFFFFFFFFFFFFFFFFFFFF
310
FFFFFFFFFFFFFFFFFFFFFFFFFFFFFFFFFFFFFFFFFFFFFFFFFFFFFFFFFFFFFFFF
310
FFFFFFFFFFFFFFFFFFFFFFFFFFFFFFFFFFFFFFFFFFFFFFFFFFFFFFFFFFFFFFFF
310
FFFFFFFFFFFFFFFFFFFFFFFFFFFFFFFFFFFFFFFFFFFFFFFFFFFFFFFFFFFFFFFF
310
FFFFFFFFFFFFFFFFFFFFFFFFFFFFFFFFFFFFFFFFFFFFFFFFFFFFFFFFFFFFFFFF
310
FFFFFFFFFFFFFFFFFFFFFFFFFFFFFFFFFFFFFFFFFFFFFFFFFFFFFFFFFFFFFFFF
310
FFFFFFFFFFFFFFFFFFFFFFFFFFFFFFFFFFFFFFFFFFFFFFFFFFFFFFFFFFFFFFFF
310
FFFFFFFFFFFFFFFFFFFFFFFFFFFFFFFFFFFFFFFFFFFFFFFFFFFFFFFFFFFFFFFF
310
52006F006F007400200045006E00740072007900000000000000000000000000
310
0000000000000000000000000000000000000000000000000000000000000000
310
16000500FFFFFFFFFFFFFFFF020000000A00030000000000C000000000000046
310
000000000000000000000000C0157803FBA6D30103000000C000000000000000
310
01004F006C006500000000000000000000000000000000000000000000000000
310
0000000000000000000000000000000000000000000000000000000000000000
310
0A000200FFFFFFFFFFFFFFFFFFFFFFFF00000000000000000000000000000000
310
0000000000000000000000000000000000000000000000001400000000000000
310
010043006F006D0070004F0062006A0000000000000000000000000000000000
310
0000000000000000000000000000000000000000000000000000000000000000
310
120002010100000003000000FFFFFFFF00000000000000000000000000000000
310
0000000000000000000000000000000000000000010000004D00000000000000
310
01004F006C006500310030004E00610074006900760065000000000000000000
310
0000000000000000000000000000000000000000000000000000000000000000
310
1A000200FFFFFFFFFFFFFFFFFFFFFFFF00000000000000000000000000000000
310
0000000000000000000000000000000000000000040000002426000000000000
310
FEFFFFFF02000000FEFFFFFFFFFFFFFFFFFFFFFFFFFFFFFFFFFFFFFFFFFFFFFF
310
FFFFFFFFFFFFFFFFFFFFFFFFFFFFFFFFFFFFFFFFFFFFFFFFFFFFFFFFFFFFFFFF
310
FFFFFFFFFFFFFFFFFFFFFFFFFFFFFFFFFFFFFFFFFFFFFFFFFFFFFFFFFFFFFFFF
310
FFFFFFFFFFFFFFFFFFFFFFFFFFFFFFFFFFFFFFFFFFFFFFFFFFFFFFFFFFFFFFFF
310
FFFFFFFFFFFFFFFFFFFFFFFFFFFFFFFFFFFFFFFFFFFFFFFFFFFFFFFFFFFFFFFF
310
FFFFFFFFFFFFFFFFFFFFFFFFFFFFFFFFFFFFFFFFFFFFFFFFFFFFFFFFFFFFFFFF
310
FFFFFFFFFFFFFFFFFFFFFFFFFFFFFFFFFFFFFFFFFFFFFFFFFFFFFFFFFFFFFFFF
310
FFFFFFFFFFFFFFFFFFFFFFFFFFFFFFFFFFFFFFFFFFFFFFFFFFFFFFFFFFFFFFFF
310
FFFFFFFFFFFFFFFFFFFFFFFFFFFFFFFFFFFFFFFFFFFFFFFFFFFFFFFFFFFFFFFF
310
FFFFFFFFFFFFFFFFFFFFFFFFFFFFFFFFFFFFFFFFFFFFFFFFFFFFFFFFFFFFFFFF
310
FFFFFFFFFFFFFFFFFFFFFFFFFFFFFFFFFFFFFFFFFFFFFFFFFFFFFFFFFFFFFFFF
310
FFFFFFFFFFFFFFFFFFFFFFFFFFFFFFFFFFFFFFFFFFFFFFFFFFFFFFFFFFFFFFFF
310
FFFFFFFFFFFFFFFFFFFFFFFFFFFFFFFFFFFFFFFFFFFFFFFFFFFFFFFFFFFFFFFF
310
FFFFFFFFFFFFFFFFFFFFFFFFFFFFFFFFFFFFFFFFFFFFFFFFFFFFFFFFFFFFFFFF
310
FFFFFFFFFFFFFFFFFFFFFFFFFFFFFFFFFFFFFFFFFFFFFFFFFFFFFFFFFFFFFFFF
310
FFFFFFFFFFFFFFFFFFFFFFFFFFFFFFFFFFFFFFFFFFFFFFFFFFFFFFFFFFFFFFFF
310
0100000200000000000000000000000000000000000000000000000000000000
310
0000000000000000000000000000000000000000000000000000000000000000
310
0100FEFF030A0000FFFFFFFF0A00030000000000C00000000000004607000000
310
5042727573680007000000504272757368000700000050427275736800F439B2
310
7100000000000000000000000000000000000000000000000000000000000000
310
0000000000000000000000000000000000000000000000000000000000000000
310
0000000000000000000000000000000000000000000000000000000000000000
310
0000000000000000000000000000000000000000000000000000000000000000
310
0000000000000000000000000000000000000000000000000000000000000000
310
0000000000000000000000000000000000000000000000000000000000000000
310
0000000000000000000000000000000000000000000000000000000000000000
310
0000000000000000000000000000000000000000000000000000000000000000
310
0000000000000000000000000000000000000000000000000000000000000000
310
0000000000000000000000000000000000000000000000000000000000000000
310
0000000000000000000000000000000000000000000000000000000000000000
310
0000000000000000000000000000000000000000000000000000000000000000
310
20260000424D0E260000000000003E00000028000000B40200006E0000000100
310
01000000000000000000130B0000130B00000200000002000000000000FFFFFF
310
FFFFFFFFFFFFFFFFFFFFFFFFFFFFFFFFFFFFFFFFFFFFFFFFFFFFFFFFFFFFFFFF
310
FFFFFFFFFFFFFFFFFFFFFFFFFFFFFFFFFFFFFFFFFFFFFFFFFFFFFFFFFFFFFFFF
310
FFFFFFFFFFFFFFFFFFFFFFFFFFFFFFFFFFFFFFFFFFFFFFFFF000FFFFFFFFFFFF
310
FFFFFFFFFFFFFFFFFFFFFFFFFFFFFFFFFFFFFFFFFFFFFFFFFFFFFFFFFFFFFFFF
310
FFFFFFFFFFFFFFFFFFFFFFFFFFFFFFFFFFFFFFFFFFFFFFFFFFFFFFFFFFFFFFFF
310
FFFFFFFFFFFFFFFFFFFFFFFFFFFFFFFFF000FFFFFFFFFFFFFFFFFFFFFFFFFFFF
310
FFFFFFFFFFFFFFFFFFFFFFFFFFFFFFFFFFFFFFFFFFFFFFFFFFFFFFFFFFFFFFFF
310
FFFFFFFFFFFFFFFFFFFFFFFFFFFFFFFFFFFFFFFFFFFFFFFFFFFFFFFFFFFFFFFF
310
FFFFFFFFFFFFFFFFF000FFFFFFFFFFFFFFFFFFFFFFFFFFFFFFFFFFFFFFFFFFFF
310
FFFFFFFFFFFFFFFFFFFFFFFFFFFFFFFFFFFFFFFFFFFFFFFFFFFFFFFFFFFFFFFF
310
FFFFFFFFFFFFFFFFFFFFFFFFFFFFFFFFFFFFFFFFFFFFFFFFFFFFFFFFFFFFFFFF
310
F000FFFFFFFFFFFFFFFFFFFFFFFFFFFFFFFFFFFFFFFFFFFFFFFFFFFFFFFFFFFF
310
FFFFFFFFFFFFFFFFFFFFFFFFFFFFFFFFFFFFFFFFFFFFFFFFFFFFFFFFFFFFFFFF
310
FFFFFFFFFFFFFFFFFFFFFFFFFFFFFFFFFFFFFFFFFFFFFFFFF000FFFFFFFFFFFF
310
FFFFFFFFFFFFFFFFFFFFFFFFFFFFFFFFFFFFFFFFFFFFFFFFFFFFFFFFFFFFFFFF
310
FFFFFFFFFFFFFFFFFFFFFFFFFFFFFFFFFFFFFFFFFFFFFFFFFFFFFFFFFFFFFFFF
310
FFFFFFFFFFFFFFFFFFFFFFFFFFFFFFFFF000FFFFFFFFFFFFFFFFFFFFFFFFFFFF
310
FFFFFFFFFFFFFFFFFFFFFFFFFFFFFFFFFFFFFFFFFFFFFFFFFFFFFFFFFFFFFFFF
310
FFFFFFFFFFFFFFFFFFFFFFFFFFFFFFFFFFFFFFFFFFFFFFFFFFFFFFFFFFFFFFFF
310
FFFFFFFFFFFFFFFFF000FFFFFFFFFFFFFFFFFFFFFFFFFFFFFFFFFFFFFFFFFFFF
310
FFFFFFFFFFFFFFFFFFFFFFFFFFFFFFFFFFFFFFFFFFFFFFFFFFFFFFFFFFFFFFFF
310
FFFFFFFFFFFFFFFFFFFFFFFFFFFFFFFFFFFFFFFFFFFFFFFFFFFFFFFFFFFFFFFF
310
F000FFFFFFFFFFFFFFFFFFFFFFFFFFFFFFFFFFFFFFFFFFFFFFFFFFFFFFFFFFFF
310
FFFFFFFFFFFFFFFFFFFFFFFFFFFFFFFFFFFFFFFFFFFFFFFFFFFFFFFFFFFFFFFF
310
FFFFFFFFFFFFFFFFFFFFFFFFFFFFFFFFFFFFFFFFFFFFFFFFF000FFFFFFFFFFFF
310
FFFFFFFFFFFFFFFFFFFFFFFFFFFFFFFFFFFFFFFFFFFFFFFFFFFFFFFFFFFFFFFF
310
FFFFFFFFFFFFFFFFFFFFFFFFFFFFFFFFFFFFFFFFFFFFFFFFFFFFFFFFFFFFFFFF
310
FFFFFFFFFFFFFFFFFFFFFFFFFFFFFFFFF000FFFFFFFFFFFFFFFFFFFFFFFFFFFF
310
FFFFFFFFFFFFFFFFFFFFFFFFFFFFFFFFFFFFFFFFFFFFFFFFFFFFFFFFFFFFFFFF
310
FFFFFFFFFFFFFFFFFFFFFFFFFFFFFFFFFFFFFFFFFFFFFFFFFFFFFFFFFFFFFFFF
310
FFFFFFFFFFFFFFFFF000FFFFFFFFFFFFFFFFFFFFFFFFFFFFFFFFFFFFFFFFFFFF
310
FFFFFFFFFFFFFFFFFFFFFFFFFFFFFFFFFFFFFFFFFFFFFFFFFFFFFFFFFFFFFFFF
310
FFFFFFFFFFFFFFFFFFFFFFFFFFFFFFFFFFFFFFFFFFFFFFFFFFFFFFFFFFFFFFFF
310
F000FFFFFFFFFFFFFFFFFFFFFFFFFFFFFFFFFFFFFFFFFFFFFFFFFFFFFFFFFFFF
310
FFFFFFFFFFFFFFFFFFFFFFFFFFFFFFFFFFFFFFFFFFFFFFFFFFFFFFFFFFFFFFFF
310
FFFFFFFFFFFFFFFFFFFFFFFFFFFFFFFFFFFFFFFFFFFFFFFFF000FFFFFFFFFFFF
310
FFFFFFFFFFFFFFFFFFFFFFFFFFFFFFFFFFFFFFFFFFFFFFFFFFFFFFFFFFFFFFFF
310
FFFFFFFFFFFFFFFFFFFFFFFFFFFFFFFFFFFFFFFFFFFFFFFFFFFFFFFFFFFFFFFF
310
FFFFFFFFFFFFFFFFFFFFFFFFFFFFFFFFF000FFFFFFFFFFFFFFFFFFFFFFFFFFFF
310
FFFFFFFFFFFFFFFFFFFFFFFFFFFFFFFFFFFFFFFFFFFFFFFFFFFFFFFFFFFFFFFF
310
FFFFFFFFFFFFFFFFFFFFFFFFFFFFFFFFFFFFFFFFFFFFFFFFFFFFFFFFFFFFFFFF
310
FFFFFFFFFFFFFFFFF000FFFFFFFFFFFFFFFFFFFFFFFFFFFFFFFFFFFFFFFFFFFF
310
FFFFFFFFFFFFFFFFFFFFFFFFFFFFFFFFFFFFFFFFFFFFFFFFFFFFFFFFFFFFFFFF
310
FFFFFFFFFFFFFFFFFFFFFFFFFFFFFFFFFFFFFFFFFFFFFFFFFFFFFFFFFFFFFFFF
310
F000FFFFFFFFFFFFFFFFFFFFFFFFFFFFFFFFFFFFFFFFFFFFFFFFFFFFFFFFFFFF
310
FFFFFFFFFFFFFFFFFFFFFFFFFFFFFFFFFFFFFFFFFFFFFFFFFFFFFFFFFFFFFFFF
310
FFFFFFFFFFFFFFFFFFFFFFFFFFFFFFFFFFFFFFFFFFFFFFFFF000FFFFFFFFFFFF
310
FFFFFFFFFFFFFFFFFFFFFFFFFFFFFFFFFFFFFFFFFFFFFFFFFFFFFFFFFFFFFFFF
310
FFFFFFFFFFFFFFFFFFFFFFFFFFFFFFFFFFFFFFFFFFFFFFFFFFFFFFFFFFFFFFFF
310
FFFFFFFFFFFFFFFFFFFFFFFFFFFFFFFFF000FFFFFFFFFFFFFFFFFFFFFFFFFFFF
310
FFFFFFFFFFFFFFFFFFFFFFFFFFFFFFFFFFFFFFFFFFFFFFFFFFFFFFFFFFFFFFFF
310
FFFFFFFFFFFFFFFFFFFFFFFFFFFFFFFFFFFFFFFFFFFFFFFFFFFFFFFFFFFFFFFF
310
FFFFFFFFFFFFFFFFF000FFFFF80003FFFFFFFFFFFFFFFFFFFFFFFFFFFFFFFFFF
310
FFFFF00007FFFFFFFFFF00007FFFFFF800000000000000007FFFFFFFFFFFFFFF
310
FFFFFFFC001FFFFFFFFFFFFFFC001FFFFFFFFFFFFFFFFFFFFFFFFFFE0007FFFF
310
F000FFFF8000007FFFFFFFF8000FFFFFC0007FFFFF80007FFFFF0000007FFFFF
310
FFF8000007FFFFF800000000000000007FFFFFF0001FFFFFFFFFFFC00001FFFF
310
FFFFFFFFC00001FFFFFFFF000000000003FFFFE000007FFFF000FFFE0000000F
310
FFFFFFF0000FFFFF80007FFFFF80007FFFFC0000001FFFFFFFC0000001FFFFF8
310
00000000000000007FFFFFF0001FFFFFFFFFFE0000003FFFFFFFFFFE0000003F
310
FFFFFF000000000003FFFF0000000FFFF000FFF800000003FFFFFFF00007FFFF
310
80007FFFFF80007FFFF000000007FFFFFF000000003FFFF80000000000000000
310
7FFFFFF0001FFFFFFFFFF80000000FFFFFFFFFF80000000FFFFFFF0000000000
310
03FFFC00000003FFF000FFE000000000FFFFFFF00007FFFF80003FFFFF80007F
310
FFC000000001FFFFFC000000001FFFF800000000000000007FFFFFF0001FFFFF
310
FFFFE000000003FFFFFFFFE000000003FFFFFF000000000003FFF000000000FF
310
F000FF80000000007FFFFFF00007FFFF80003FFFFF80007FFF8000000000FFFF
310
F80000000007FFF800000000000000007FFFFFF0001FFFFFFFFFC000000001FF
310
FFFFFFC000000001FFFFFF000000000003FFC0000000007FF000FF0000000000
310
3FFFFFE00007FFFF00003FFFFF80007FFE00000000003FFFF00000000003FFF8
310
00000000000000007FFFFFF0001FFFFFFFFF8000000000FFFFFFFF8000000000
310
FFFFFF000000000003FF80000000003FF000FE00000000001FFFFFE00003FFFF
310
00003FFFFF80007FFC00000000001FFFE00000000001FFF8000001FFFE000000
310
7FFFFFF0001FFFFFFFFE00000000003FFFFFFE00000000003FFFFF0000000000
310
03FF00000000001FF000FC00000000000FFFFFE00003FFFF00001FFFFF80007F
310
F800000000001FFFC00000000000FFF8000001FFFE0000007FFFFFF0001FFFFF
310
FFFC00000000001FFFFFFC00000000001FFFFF000000000003FE00000000000F
310
F000F8000000000007FFFFE00003FFFF00001FFFFF80007FF800000000000FFF
310
800000000000FFF8000001FFFE0000007FFFFFF0001FFFFFFFF800000000000F
310
FFFFF800000000000FFFFF000000000003FC000000000007F000F80000000000
310
03FFFFC00003FFFE00001FFFFF80007FF0000000000007FF0000000000007FF8
310
000001FFFE0000007FFFFFF0001FFFFFFFF0000000000007FFFFF00000000000
310
07FFFF000000000003F8000000000003F000F0000000000003FFFFC00001FFFE
310
00001FFFFF80007FE0000000000007FE0000000000003FF8000001FFFE000000
310
7FFFFFF0001FFFFFFFF0000000000007FFFFF0000000000007FFFF0000000000
310
03F800001F800003F000E00001FFF00001FFFFC00001FFFE00000FFFFF80007F
310
E00001FFE00003FE00001FFF00003FF8000001FFFE0000007FFFFFF0001FFFFF
310
FFE000003E000003FFFFE000003E000003FFFF000000000003F00001FFF80001
310
F000E00007FFFC0001FFFFC00001FFFE00000FFFFF80007FC0000FFFFC0003FC
310
0000FFFFC0001FF8000001FFFE0000007FFFFFF0001FFFFFFFC00003FFE00001
310
FFFFC00003FFE00001FFFF0001FFFFFFFFF00007FFFE0001F000E0000FFFFF00
310
00FFFF800001FFFC00000FFFFF80007FC0001FFFFE0001FC0001FFFFE0001FF8
310
000001FFFE0000007FFFFFF0001FFFFFFF80000FFFF80000FFFF80000FFFF800
310
00FFFF0003FFFFFFFFE0000FFFFF8000F000C0003FFFFF8000FFFF800000FFFC
310
000007FFFF80007F80003FFFFF0001FC0003FFFFF0001FF8000001FFFE000000
310
7FFFFFF0001FFFFFFF80003FFFFE0000FFFF80003FFFFE0000FFFF0003FFFFFF
310
FFE0003FFFFF8000F000C0003FFFFF8000FFFF800000FFFC000007FFFF80007F
310
80007FFFFF8001F80007FFFFF8000FF8000001FFFE0000007FFFFFF0001FFFFF
310
FF00007FFFFF00007FFF00007FFFFF00007FFF0003FFFFFFFFE0003FFFFFC000
310
F000C0007FFFFFC000FFFF000000FFFC000007FFFF80007F8000FFFFFF8000F8
310
000FFFFFF8000FF8000001FFFE0000007FFFFFF0001FFFFFFF0000FFFFFF8000
310
7FFF0000FFFFFF80007FFF0003FFFFFFFFC0007FFFFFC00070008000FFFFFFC0
310
00FFFF000000FFF8000007FFFF80007F8000FFFFFF8000F8000FFFFFF8000FF8
310
000001FFFE0000007FFFFFF0001FFFFFFE0001FFFFFFC0003FFE0001FFFFFFC0
310
003FFF0003FFFFFFFFC0007FFFFFE00070008000FFFFFFC0007FFF0000007FF8
310
000003FFFF80007F0001FFFFFF8000F8000FFFFFF8000FF8000001FFFE000000
310
7FFFFFF0001FFFFFFE0001FFFFFFC0003FFE0001FFFFFFC0003FFF0003FFFFFF
310
FFC000FFFFFFE00070008000FFFFFFC0007FFF0000007FF8000003FFFF80007F
310
0001FFFFFF8000F8001FFFFFF8000FF8000001FFFE0000007FFFFFF0001FFFFF
310
FE0003FFFFFFE0003FFE0003FFFFFFE0003FFF0003FFFFFFFFC000FFFFFFE000
310
70008000FFFFFFC0007FFE0000007FF8000003FFFF80007F0001FFFFFF8000F0
310
001FFFFFF8000FF8000001FFFE0000007FFFFFF0001FFFFFFC0003FFFFFFE000
310
1FFC0003FFFFFFE0001FFF0003FFFFFFFFC000FFFFFFC00070008000FFFFFF80
310
007FFE0000007FF0000003FFFF80007F0001FFFFFF0000F0001FFFFFF8000FF8
310
000001FFFE0000007FFFFFF0001FFFFFFC0007FFFFFFF0001FFC0007FFFFFFF0
310
001FFF0003FFFFFFFFC000FFFFFFC00070008001FFFFFF0000FFFE0000003FF0
310
000001FFFF80007F0001FFFFFF0000F8001FFFFFF0000FF8000001FFFE000000
310
7FFFFFF0001FFFFFFC0007FFFFFFF0001FFC0007FFFFFFF0001FFF0003FFFFFF
310
FFC001FFFFFF80007000FFFFFFFFFE0000FFFE0008003FF0008001FFFF80007F
310
FFFFFFFFFC0000FFFFFFFFFFE0000FF8000001FFFE0000007FFFFFF0001FFFFF
310
F8000FFFFFFFF8000FF8000FFFFFFFF8000FFF0003FFFFFFFFFFFFFFFFFF0000
310
7000FFFFFFFFFC0000FFFC0008003FF0008001FFFF80007FFFFFFFFFF80001FF
310
FFFFFFFF80000FF8000001FFFE0000007FFFFFF0001FFFFFF8000FFFFFFFF800
310
0FF8000FFFFFFFF8000FFF0003FFFFFFFFFFFFFFFFFE0000F000FFFFFFFFE000
310
00FFFC000C003FE000C001FFFF80007FFFFFFFFFC00001FFFFFFFFFE00001FF8
310
000001FFFE0000007FFFFFF0001FFFFFF8000FFFFFFFF8000FF8000FFFFFFFF8
310
000FFF0003FFFFFFFFFFFFFFFFF00000F000FFFFFFFE000001FFFC000C001FE0
310
00C000FFFF80007FFFFFFFFE000001FFFFFFFFE000001FF80FFFFFFFFFFFFFC0
310
7FFFFFF0001FFFFFF8000FFFFFFFF8000FF8000FFFFFFFF8000FFF0003FFFFFF
310
FFFFFFFFFF800000F000FFFFFFC0000001FFFC001C001FE001C000FFFF80007F
310
FFFFFF80000003FFFFFFF80000001FF80FFFFFFFFFFFFFC07FFFFFF0001FFFFF
310
F8001FFFFFFFFC000FF8001FFFFFFFFC000FFF0003FFFFFFFFFFFFFFF0000001
310
F000FFFFF800000001FFF8001C001FE001C000FFFF80007FFFFFF800000003FF
310
FFFF800000003FF80FFFFFFFFFFFFFC07FFFFFF0001FFFFFF8001FFFFFFFFC00
310
0FF8001FFFFFFFFC000FFF0003FFFFFFFFFFFFFE00000001F000FFFFC0000000
310
03FFF8001E001FC001E000FFFF80007FFFFF8000000007FFFFFC000000003FF8
310
0FFFFFFFFFFFFFC07FFFFFF0001FFFFFF8001FFFFFFFFC000FF8001FFFFFFFFC
310
000FFF0003FFFFFFFFFFFFE000000003F000FFFE0000000007FFF8001E000FC0
310
01E0007FFF80007FFFFE0000000007FFFFE0000000007FF80FFFFFFFFFFFFFC0
310
7FFFFFF0001FFFFFF0001FFFFFFFFC0007F0001FFFFFFFFC0007FF0003FFFFFF
310
FFFFFF0000000003F000FFF80000000007FFF8001E000FC003E0007FFF80007F
310
FFF0000000000FFFFF8000000000FFF80FFFFFFFFFFFFFC07FFFFFF0001FFFFF
310
F0001FFFFFFFFC0007F0001FFFFFFFFC0007FF0003FFFFFFFFFFFC0000000007
310
F000FFE0000000000FFFF0003E000FC003E0007FFF80007FFFC0000000001FFF
310
FE0000000001FFF80FFFFFFFFFFFFFC07FFFFFF0001FFFFFF0001FFFFFFFFC00
310
07F0001FFFFFFFFC0007FF0003FFFFFFFFFFF0000000000FF000FFC000000000
310
1FFFF0003F000F8003F0003FFF80007FFF80000000003FFFF80000000003FFF8
310
0FFFFFFFFFFFFFC07FFFFFF0001FFFFFF0001FFFFFFFFC0007F0001FFFFFFFFC
310
0007FF0003FFFFFFFFFFE0000000001FF000FF00000000007FFFF0003F000780
310
03F0003FFF80007FFF00000000007FFFF00000000007FFF80FFFFFFFFFFFFFC0
310
7FFFFFF0001FFFFFF0001FFFFFFFFC0007F0001FFFFFFFFC0007FF0003FFFFFF
310
FFFF80000000007FF000FE0000000000FFFFE0003F00078007F0003FFF80007F
310
FE0000000001FFFFE0000000001FFFF80FFFFFFFFFFFFFC07FFFFFF0001FFFFF
310
F0001FFFFFFFFC0007F0001FFFFFFFFC0007FF0003FFFFFFFFFF0000000000FF
310
F000FC0000000003FFFFE0007F00078007F0003FFF80007FFC0000000007FFFF
310
C0000000007FFFF80FFFFFFFFFFFFFC07FFFFFF0001FFFFFF8001FFFFFFFFC00
310
0FF8001FFFFFFFFC000FFF0003FFFFFFFFFE0000000003FFF000FC000000000F
310
FFFFE0007F80070007F8001FFF80007FF8000000001FFFFF8000000001FFFFF8
310
0FFFFFFFFFFFFFC07FFFFFF0001FFFFFF8001FFFFFFFFC000FF8001FFFFFFFFC
310
000FFF0003FFFFFFFFFC000000000FFFF000F8000000007FFFFFE0007F800700
310
07F8001FFF80007FF000000000FFFFFF800000000FFFFFF80FFFFFFFFFFFFFC0
310
7FFFFFF0001FFFFFF8000FFFFFFFF8000FF8000FFFFFFFF8000FFF0003FFFFFF
310
FFFC000000007FFFF000F800000007FFFFFFC0007F8003000FF8001FFF80007F
310
F000000007FFFFFF000000007FFFFFF80FFFFFFFFFFFFFC07FFFFFF0001FFFFF
310
F8000FFFFFFFF8000FF8000FFFFFFFF8000FFF0003FFFFFFFFF80000000FFFFF
310
F000F0000000FFFFFFFFC000FF8003000FF8001FFF80007FE0000000FFFFFFFF
310
0000000FFFFFFFF8000001FFFE0000007FFFFFF0001FFFFFF8000FFFFFFFF800
310
0FF8000FFFFFFFF8000FFF0003FFFFFFFFF8000000FFFFFFF000F000000FFFFF
310
FFFFC000FFC002000FF8000FFF80007FE000001FFFFFFFFE000001FFFFFFFFF8
310
000001FFFE0000007FFFFFF0001FFFFFF8000FFFFFFFF8000FF8000FFFFFFFF8
310
000FFF0003FFFFFFFFF000001FFFFFFFF000E00000FFFFFFFFFFC000FFC00200
310
0FFC000FFF80007FE00001FFFFFFFFFE00001FFFFFFFFFF8000001FFFE000000
310
7FFFFFF0001FFFFFFC000FFFFFFFF8001FFC000FFFFFFFF8001FFF0003FFFFFF
310
FFF00001FFFFFFFFF000E00007FFFFFFFFFF8000FFC000001FFC000FFF80007F
310
C0000FFFFFFFFFFE0000FFFFFFFFFFF8000001FFFE0000007FFFFFF0001FFFFF
310
FC0007FFFFFFF0001FFC0007FFFFFFF0001FFF0003FFFFFFFFF00007FFFFFFFF
310
F000E0001FFFFFFFFFFF8000FFC000001FFC000FFF80007FC0003FFFFFFFFFFE
310
0001FFFFFFFFFFF8000001FFFE0000007FFFFFF0001FFFFFFC0007FFFFFFF000
310
1FFC0007FFFFFFF0001FFF0003FFFFFFFFF0001FFFFFFFFFF000E0003FFFFF00
310
03FF8001FFE000001FFC0007FF80007FC0007FFFFF0007FC0003FFFFF0003FF8
310
000001FFFE0000007FFFFFF0001FFFFFFC0003FFFFFFE0001FFC0003FFFFFFE0
310
001FFF0003FFFFFFFFF0003FFFFFFFFFF000E0003FFFFF0001FF8001FFE00000
310
1FFE0007FF80007FC0007FFFFE0003FC0007FFFFE0003FF8000001FFFE000000
310
7FFFFFF0001FFFFFFE0003FFFFFFE0003FFE0003FFFFFFE0003FFF0003FFFFFF
310
FFF0003FFFFF8001F000E0003FFFFF0001FF0001FFE000001FFE0007FF80007F
310
C0007FFFFE0003FC0007FFFFE0003FF8000001FFFE0000007FFFFFF0001FFFFF
310
FE0001FFFFFFC0003FFE0001FFFFFFC0003FFF0003FFFFFFFFF0003FFFFF0001
310
F000E0003FFFFF0003FF0001FFE000003FFE0007FF80007FC0007FFFFE0003FC
310
0007FFFFE0003FF8000001FFFE0000007FFFFFF0001FFFFFFF0001FFFFFFC000
310
7FFF0001FFFFFFC0007FFF0003FFFFFFFFF0003FFFFF0001F000E0003FFFFE00
310
03FF0003FFF000003FFE0003FF80007FC0007FFFFC0003FE0007FFFFE0003FF8
310
000001FFFE0000007FFFFFF0001FFFFFFF0000FFFFFF80007FFF0000FFFFFF80
310
007FFF0003FFFFFFFFF0003FFFFF0001F000E0003FFFFE0003FF0003FFF00000
310
3FFF0003FF80007FC0007FFFFC0007FE0007FFFFC0003FF8000001FFFE000000
310
7FFFFFF0001FFFFFFF80007FFFFF0000FFFF80007FFFFF0000FFFF0003FFFFFF
310
FFF0003FFFFF0003F000E0003FFFFC0003FE0003FFF000003FFF0003FF80007F
310
E0003FFFF80007FE0003FFFFC0007FF8000001FFFE0000007FFFFFF0001FFFFF
310
FF80003FFFFE0000FFFF80003FFFFE0000FFFF0003FFFFFFFFF0001FFFFE0003
310
F000F0001FFFF80003FE0003FFF000007FFF0001FF80007FE0003FFFF00007FE
310
0001FFFF80007FF8000001FFFE0000007FFFFFF0001FFFFFFFC0000FFFF80001
310
FFFFC0000FFFF80001FFFF0003FFFFFFFFF0001FFFFC0003F000F0000FFFF000
310
07FE0007FFF800007FFF0001FF80007FE0001FFFE00007FF0000FFFE00007FF8
310
000001FFFE0000007FFFFFF0001FFFFFFFC00003FFE00001FFFFC00003FFE000
310
01FFFF0003FFFFFFFFF8000FFFF80003F000F00003FFC00007FC0007FFF80000
310
7FFF8001FF80007FF00007FF80000FFF00007FF80000FFF8000001FFFE000000
310
7F80000000000001FFE000003E000003FFFFE000003E000003FFFF0003FFFFFF
310
FFF80003FFE00007F000F800000000000FFC0007FFF800007FFF8001FF80007F
310
F000000000000FFF000000000000FFF8000001FFFE0000007F80000000000001
310
FFF0000000000007FFFFF0000000000007FFFF0003FFFFFFFFFC00007E000007
310
F000F800000000000FFC0007FFF80000FFFF8000FF80007FF800000000001FFF
310
800000000001FFF8000001FFFE0000007F80000000000001FFF800000000000F
310
FFFFF800000000000FFFFF0003FFFFFFFFFC00000000000FF000FC0000000000
310
1FFC0007FFFC0000FFFF8000FF80007FF800000000003FFFC00000000001FFF8
310
000001FFFE0000007F80000000000001FFF800000000000FFFFFF80000000000
310
0FFFFF0003FFFFFFFFFE00000000001FF000FE00000000003FF8000FFFFC0000
310
FFFF8000FF80007FFC00000000003FFFC00000000003FFF8000001FFFE000000
310
7F80000000000001FFFC00000000001FFFFFFC00000000001FFFFF0003FFFFFF
310
FFFF00000000001FF000FF00000000003FF8000FFFFC0000FFFFC000FF80007F
310
FE00000000007FFFE00000000007FFF8000001FFFE0000007F80000000000001
310
FFFE00000000003FFFFFFE00000000003FFFFF0003FFFFFFFFFF80000000003F
310
F000FF80000000007FF8000FFFFC0001FFFFC0007F80007FFF0000000000FFFF
310
F0000000000FFFF800000000000000007F80000000000001FFFF8000000000FF
310
FFFFFF8000000000FFFFFF0003FFFFFFFFFFC0000000007FF000FFC000000000
310
FFF8000FFFFE0001FFFFC0007F80007FFF8000000001FFFFF8000000001FFFF8
310
00000000000000007F80000000000001FFFFC000000001FFFFFFFFC000000001
310
FFFFFF0003FFFFFFFFFFE000000000FFF000FFE000000003FFF0001FFFFE0001
310
FFFFC0007F80007FFFC000000007FFFFFE000000003FFFF80000000000000000
310
7F80000000000001FFFFE000000003FFFFFFFFE000000003FFFFFF0003FFFFFF
310
FFFFF000000003FFF000FFF80000000FFFF0001FFFFE0001FFFFE0007F80007F
310
FFF00000000FFFFFFF00000000FFFFF800000000000000007F80000000000001
310
FFFFF80000000FFFFFFFFFF80000000FFFFFFF0003FFFFFFFFFFFC0000000FFF
310
F000FFFE0000003FFFF0001FFFFE0003FFFFE0003F80007FFFFC0000003FFFFF
310
FFC0000003FFFFF800000000000000007F80000000000001FFFFFE0000003FFF
310
FFFFFFFE0000003FFFFFFF0003FFFFFFFFFFFF0000003FFFF000FFFF800000FF
310
FFF0001FFFFF0003FFFFE0003F80007FFFFF000001FFFFFFFFF800001FFFFFF8
310
00000000000000007F80000000000001FFFFFFC00001FFFFFFFFFFFFC00001FF
310
FFFFFF0003FFFFFFFFFFFFC00000FFFFF000FFFFF8000FFFFFFFFFFFFFFFFFFF
310
FFFFFFFFFFFFFFFFFFFFF0001FFFFFFFFFFF0000FFFFFFF80000000000000000
310
7FFFFFFFFFFFFFFFFFFFFFFC001FFFFFFFFFFFFFFC001FFFFFFFFFFFFFFFFFFF
310
FFFFFFFC001FFFFFF000FFFFFFFFFFFFFFFFFFFFFFFFFFFFFFFFFFFFFFFFFFFF
310
FFFFFFFFFFFFFFFFFFFFFFFFFFFFFFFFFFFFFFFFFFFFFFFFFFFFFFFFFFFFFFFF
310
FFFFFFFFFFFFFFFFFFFFFFFFFFFFFFFFFFFFFFFFFFFFFFFFFFFFFFFFFFFFFFFF
310
F000FFFFFFFFFFFFFFFFFFFFFFFFFFFFFFFFFFFFFFFFFFFFFFFFFFFFFFFFFFFF
310
FFFFFFFFFFFFFFFFFFFFFFFFFFFFFFFFFFFFFFFFFFFFFFFFFFFFFFFFFFFFFFFF
310
FFFFFFFFFFFFFFFFFFFFFFFFFFFFFFFFFFFFFFFFFFFFFFFFF000FFFFFFFFFFFF
310
FFFFFFFFFFFFFFFFFFFFFFFFFFFFFFFFFFFFFFFFFFFFFFFFFFFFFFFFFFFFFFFF
310
FFFFFFFFFFFFFFFFFFFFFFFFFFFFFFFFFFFFFFFFFFFFFFFFFFFFFFFFFFFFFFFF
310
FFFFFFFFFFFFFFFFFFFFFFFFFFFFFFFFF000FFFFFFFFFFFFFFFFFFFFFFFFFFFF
310
FFFFFFFFFFFFFFFFFFFFFFFFFFFFFFFFFFFFFFFFFFFFFFFFFFFFFFFFFFFFFFFF
310
FFFFFFFFFFFFFFFFFFFFFFFFFFFFFFFFFFFFFFFFFFFFFFFFFFFFFFFFFFFFFFFF
310
FFFFFFFFFFFFFFFFF000FFFFFFFFFFFFFFFFFFFFFFFFFFFFFFFFFFFFFFFFFFFF
310
FFFFFFFFFFFFFFFFFFFFFFFFFFFFFFFFFFFFFFFFFFFFFFFFFFFFFFFFFFFFFFFF
310
FFFFFFFFFFFFFFFFFFFFFFFFFFFFFFFFFFFFFFFFFFFFFFFFFFFFFFFFFFFFFFFF
310
F000FFFFFFFFFFFFFFFFFFFFFFFFFFFFFFFFFFFFFFFFFFFFFFFFFFFFFFFFFFFF
310
FFFFFFFFFFFFFFFFFFFFFFFFFFFFFFFFFFFFFFFFFFFFFFFFFFFFFFFFFFFFFFFF
310
FFFFFFFFFFFFFFFFFFFFFFFFFFFFFFFFFFFFFFFFFFFFFFFFF000FFFFFFFFFFFF
310
FFFFFFFFFFFFFFFFFFFFFFFFFFFFFFFFFFFFFFFFFFFFFFFFFFFFFFFFFFFFFFFF
310
FFFFFFFFFFFFFFFFFFFFFFFFFFFFFFFFFFFFFFFFFFFFFFFFFFFFFFFFFFFFFFFF
310
FFFFFFFFFFFFFFFFFFFFFFFFFFFFFFFFF000FFFFFFFFFFFFFFFFFFFFFFFFFFFF
310
FFFFFFFFFFFFFFFFFFFFFFFFFFFFFFFFFFFFFFFFFFFFFFFFFFFFFFFFFFFFFFFF
310
FFFFFFFFFFFFFFFFFFFFFFFFFFFFFFFFFFFFFFFFFFFFFFFFFFFFFFFFFFFFFFFF
310
FFFFFFFFFFFFFFFFF000FFFFFFFFFFFFFFFFFFFFFFFFFFFFFFFFFFFFFFFFFFFF
310
FFFFFFFFFFFFFFFFFFFFFFFFFFFFFFFFFFFFFFFFFFFFFFFFFFFFFFFFFFFFFFFF
310
FFFFFFFFFFFFFFFFFFFFFFFFFFFFFFFFFFFFFFFFFFFFFFFFFFFFFFFFFFFFFFFF
310
F000FFFFFFFFFFFFFFFFFFFFFFFFFFFFFFFFFFFFFFFFFFFFFFFFFFFFFFFFFFFF
310
FFFFFFFFFFFFFFFFFFFFFFFFFFFFFFFFFFFFFFFFFFFFFFFFFFFFFFFFFFFFFFFF
310
FFFFFFFFFFFFFFFFFFFFFFFFFFFFFFFFFFFFFFFFFFFFFFFFF000FFFFFFFFFFFF
310
FFFFFFFFFFFFFFFFFFFFFFFFFFFFFFFFFFFFFFFFFFFFFFFFFFFFFFFFFFFFFFFF
310
FFFFFFFFFFFFFFFFFFFFFFFFFFFFFFFFFFFFFFFFFFFFFFFFFFFFFFFFFFFFFFFF
310
FFFFFFFFFFFFFFFFFFFFFFFFFFFFFFFFF000FFFFFFFFFFFFFFFFFFFFFFFFFFFF
310
FFFFFFFFFFFFFFFFFFFFFFFFFFFFFFFFFFFFFFFFFFFFFFFFFFFFFFFFFFFFFFFF
310
FFFFFFFFFFFFFFFFFFFFFFFFFFFFFFFFFFFFFFFFFFFFFFFFFFFFFFFFFFFFFFFF
310
FFFFFFFFFFFFFFFFF000FFFFFFFFFFFFFFFFFFFFFFFFFFFFFFFFFFFFFFFFFFFF
310
FFFFFFFFFFFFFFFFFFFFFFFFFFFFFFFFFFFFFFFFFFFFFFFFFFFFFFFFFFFFFFFF
310
FFFFFFFFFFFFFFFFFFFFFFFFFFFFFFFFFFFFFFFFFFFFFFFFFFFFFFFFFFFFFFFF
310
F000FFFFFFFFFFFFFFFFFFFFFFFFFFFFFFFFFFFFFFFFFFFFFFFFFFFFFFFFFFFF
310
FFFFFFFFFFFFFFFFFFFFFFFFFFFFFFFFFFFFFFFFFFFFFFFFFFFFFFFFFFFFFFFF
310
FFFFFFFFFFFFFFFFFFFFFFFFFFFFFFFFFFFFFFFFFFFFFFFFF000FFFFFFFFFFFF
310
FFFFFFFFFFFFFFFFFFFFFFFFFFFFFFFFFFFFFFFFFFFFFFFFFFFFFFFFFFFFFFFF
310
FFFFFFFFFFFFFFFFFFFFFFFFFFFFFFFFFFFFFFFFFFFFFFFFFFFFFFFFFFFFFFFF
310
FFFFFFFFFFFFFFFFFFFFFFFFFFFFFFFFF000FFFFFFFFFFFFFFFFFFFFFFFFFFFF
310
FFFFFFFFFFFFFFFFFFFFFFFFFFFFFFFFFFFFFFFFFFFFFFFFFFFFFFFFFFFFFFFF
310
FFFFFFFFFFFFFFFFFFFFFFFFFFFFFFFFFFFFFFFFFFFFFFFFFFFFFFFFFFFFFFFF
310
FFFFFFFFFFFFFFFFF000FFFFFFFFFFFFFFFFFFFFFFFFFFFFFFFFFFFFFFFFFFFF
310
FFFFFFFFFFFFFFFFFFFFFFFFFFFFFFFFFFFFFFFFFFFFFFFFFFFFFFFFFFFFFFFF
310
FFFFFFFFFFFFFFFFFFFFFFFFFFFFFFFFFFFFFFFFFFFFFFFFFFFFFFFFFFFFFFFF
310
F000FFFFFFFFFFFFFFFFFFFFFFFFFFFFFFFFFFFFFFFFFFFFFFFFFFFFFFFFFFFF
310
FFFFFFFFFFFFFFFFFFFFFFFFFFFFFFFFFFFFFFFFFFFFFFFFFFFFFFFFFFFFFFFF
310
FFFFFFFFFFFFFFFFFFFFFFFFFFFFFFFFFFFFFFFFFFFFFFFFF000FFFFFFFFFFFF
310
FFFFFFFFFFFFFFFFFFFFFFFFFFFFFFFFFFFFFFFFFFFFFFFFFFFFFFFFFFFFFFFF
310
FFFFFFFFFFFFFFFFFFFFFFFFFFFFFFFFFFFFFFFFFFFFFFFFFFFFFFFFFFFFFFFF
310
FFFFFFFFFFFFFFFFFFFFFFFFFFFFFFFFF000FFFFFFFFFFFFFFFFFFFFFFFFFFFF
310
FFFFFFFFFFFFFFFFFFFFFFFFFFFFFFFFFFFFFFFFFFFFFFFFFFFFFFFFFFFFFFFF
310
FFFFFFFFFFFFFFFFFFFFFFFFFFFFFFFFFFFFFFFFFFFFFFFFFFFFFFFFFFFFFFFF
310
FFFFFFFFFFFFFFFFF000FFFFFFFFFFFFFFFFFFFFFFFFFFFFFFFFFFFFFFFFFFFF
310
FFFFFFFFFFFFFFFFFFFFFFFFFFFFFFFFFFFFFFFFFFFFFFFFFFFFFFFFFFFFFFFF
310
FFFFFFFFFFFFFFFFFFFFFFFFFFFFFFFFFFFFFFFFFFFFFFFFFFFFFFFFFFFFFFFF
310
F000FFFFFFFFFFFFFFFFFFFFFFFFFFFFFFFFFFFFFFFFFFFFFFFFFFFFFFFFFFFF
310
FFFFFFFFFFFFFFFFFFFFFFFFFFFFFFFFFFFFFFFFFFFFFFFFFFFFFFFFFFFFFFFF
310
FFFFFFFFFFFFFFFFFFFFFFFFFFFFFFFFFFFFFFFFFFFFFFFFF000FFFFFFFFFFFF
310
FFFFFFFFFFFFFFFFFFFFFFFFFFFFFFFFFFFFFFFFFFFFFFFFFFFFFFFFFFFFFFFF
310
FFFFFFFFFFFFFFFFFFFFFFFFFFFFFFFFFFFFFFFFFFFFFFFFFFFFFFFFFFFFFFFF
310
FFFFFFFFFFFFFFFFFFFFFFFFFFFFFFFFF0000000000000000000000000000000
310
0000000000000000000000000000000000000000000000000000000000000000
310
0000000000000000000000000000000000000000000000000000000000000000
310
0000000000000000000000000000000000000000000000000000000000000000
310
0000000000000000000000000000000000000000000000000000000000000000
310
0000000000000000000000000000000000000000000000000000000000000000
310
0000000000000000000000000000000000000000000000000000000000000000
310
0000000000000000000000000000000000000000000000000000000000000000
310
0000000000000000000000000000000000000000000000000000000000000000
310
0000000000000000000000000000000000000000000000000000000000000000
310
0000000000000000000000000000000000000000000000000000000000000000
310
0000000000000000000000000000000000000000000000000000000000000000
310
0000000000000000000000000000000000000000000000000000000000000000
310
0000000000000000000000000000000000000000000000000000000000000000
310
0000000000000000000000000000000000000000000000000000000000000000
310
0000000000000000000000000000000000000000000000000000000000000000
  1
OLE
  0
ENDSEC
  0
SECTION
  2
OBJECTS
  0
DICTIONARY
  5
C
330
0
100
AcDbDictionary
281
     1
  3
ACAD_GROUP
350
D
  3
ACAD_LAYOUT
350
1A
  3
ACAD_MLINESTYLE
350
17
  3
ACAD_PLOTSETTINGS
350
19
  3
ACAD_PLOTSTYLENAME
350
E
  3
ACAD_SCALELIST
350
47
  0
DICTIONARY
  5
D
102
{ACAD_REACTORS
330
C
102
}
330
C
100
AcDbDictionary
281
     1
  0
DICTIONARY
  5
1A
102
{ACAD_REACTORS
330
C
102
}
330
C
100
AcDbDictionary
281
     1
  3
Layout1
350
1E
  3
Layout2
350
26
  3
Model
350
22
  0
DICTIONARY
  5
17
102
{ACAD_REACTORS
330
C
102
}
330
C
100
AcDbDictionary
281
     1
  3
Standard
350
18
  0
DICTIONARY
  5
19
102
{ACAD_REACTORS
330
C
102
}
330
C
100
AcDbDictionary
281
     1
  0
ACDBDICTIONARYWDFLT
  5
E
102
{ACAD_REACTORS
330
C
102
}
330
C
100
AcDbDictionary
281
     1
  3
Normal
350
F
100
AcDbDictionaryWithDefault
340
F
  0
DICTIONARY
  5
47
102
{ACAD_REACTORS
330
C
102
}
330
C
100
AcDbDictionary
281
     1
  3
A0
350
48
  3
A1
350
49
  3
A2
350
4A
  3
A3
350
4B
  3
A4
350
4C
  3
A5
350
4D
  3
A6
350
4E
  3
A7
350
4F
  3
A8
350
50
  3
A9
350
51
  3
B0
350
52
  3
B1
350
53
  3
B2
350
54
  3
B3
350
55
  3
B4
350
56
  3
B5
350
57
  3
B6
350
58
  3
B7
350
59
  3
B8
350
5A
  3
B9
350
5B
  3
C0
350
5C
  3
C1
350
5D
  3
C2
350
5E
  3
C3
350
5F
  3
C4
350
60
  3
C5
350
61
  3
C6
350
62
  3
C7
350
63
  3
C8
350
64
  3
C9
350
65
  3
D0
350
66
  3
D1
350
67
  3
D2
350
68
  0
LAYOUT
  5
1E
102
{ACAD_REACTORS
330
1A
102
}
330
1A
100
AcDbPlotSettings
  1

  2
none_device
  4

  6

 40
0.0
 41
0.0
 42
0.0
 43
0.0
 44
0.0
 45
0.0
 46
0.0
 47
0.0
 48
0.0
 49
0.0
140
0.0
141
0.0
142
1.0
143
1.0
 70
   688
 72
     1
 73
     0
 74
     5
  7

 75
    16
147
1.0
148
0.0
149
0.0
100
AcDbLayout
  1
Layout1
 70
     1
 71
     1
 10
0.0
 20
0.0
 11
420.0
 21
297.0
 12
0.0
 22
0.0
 32
0.0
 14
1.0000000000E+20
 24
1.0000000000E+20
 34
1.0000000000E+20
 15
-1.0000000000E+20
 25
-1.0000000000E+20
 35
-1.0000000000E+20
146
0.0
 13
0.0
 23
0.0
 33
0.0
 16
1.0
 26
0.0
 36
0.0
 17
0.0
 27
1.0
 37
0.0
 76
     0
330
1B
  0
LAYOUT
  5
26
102
{ACAD_REACTORS
330
1A
102
}
330
1A
100
AcDbPlotSettings
  1

  2
none_device
  4

  6

 40
0.0
 41
0.0
 42
0.0
 43
0.0
 44
0.0
 45
0.0
 46
0.0
 47
0.0
 48
0.0
 49
0.0
140
0.0
141
0.0
142
1.0
143
1.0
 70
   688
 72
     1
 73
     0
 74
     5
  7

 75
    16
147
1.0
148
0.0
149
0.0
100
AcDbLayout
  1
Layout2
 70
     1
 71
     2
 10
0.0
 20
0.0
 11
0.0
 21
0.0
 12
0.0
 22
0.0
 32
0.0
 14
0.0
 24
0.0
 34
0.0
 15
0.0
 25
0.0
 35
0.0
146
0.0
 13
0.0
 23
0.0
 33
0.0
 16
1.0
 26
0.0
 36
0.0
 17
0.0
 27
1.0
 37
0.0
 76
     0
330
23
  0
LAYOUT
  5
22
102
{ACAD_REACTORS
330
1A
102
}
330
1A
100
AcDbPlotSettings
  1

  2
none_device
  4
Letter_(8.50_x_11.00_Inches)
  6

 40
6.35
 41
6.35
 42
6.35000508
 43
6.35000508
 44
215.9
 45
279.4
 46
0.0
 47
0.0
 48
0.0
 49
0.0
140
0.0
141
0.0
142
1.0
143
1.0
 70
  1712
 72
     1
 73
     0
 74
     0
  7

 75
     0
147
1.0
148
0.0
149
0.0
100
AcDbLayout
  1
Model
 70
     1
 71
     0
 10
0.0
 20
0.0
 11
297.0
 21
210.0
 12
0.0
 22
0.0
 32
0.0
 14
0.0
 24
0.0
 34
0.0
 15
297.0
 25
210.0
 35
0.0
146
0.0
 13
0.0
 23
0.0
 33
0.0
 16
1.0
 26
0.0
 36
0.0
 17
0.0
 27
1.0
 37
0.0
 76
     0
330
1F
331
29
  0
MLINESTYLE
  5
18
102
{ACAD_REACTORS
330
17
102
}
330
17
100
AcDbMlineStyle
  2
Standard
 70
     0
  3

 62
   256
 51
90.0
 52
90.0
 71
     2
 49
0.5
 62
   256
  6
BYLAYER
 49
-0.5
 62
   256
  6
BYLAYER
  0
ACDBPLACEHOLDER
  5
F
102
{ACAD_REACTORS
330
E
102
}
330
E
  0
SCALE
  5
48
102
{ACAD_REACTORS
330
47
102
}
330
47
100
AcDbScale
 70
     0
300
1:1
140
1.0
141
1.0
290
     1
  0
SCALE
  5
49
102
{ACAD_REACTORS
330
47
102
}
330
47
100
AcDbScale
 70
     0
300
1:2
140
1.0
141
2.0
290
     0
  0
SCALE
  5
4A
102
{ACAD_REACTORS
330
47
102
}
330
47
100
AcDbScale
 70
     0
300
1:4
140
1.0
141
4.0
290
     0
  0
SCALE
  5
4B
102
{ACAD_REACTORS
330
47
102
}
330
47
100
AcDbScale
 70
     0
300
1:5
140
1.0
141
5.0
290
     0
  0
SCALE
  5
4C
102
{ACAD_REACTORS
330
47
102
}
330
47
100
AcDbScale
 70
     0
300
1:8
140
1.0
141
8.0
290
     0
  0
SCALE
  5
4D
102
{ACAD_REACTORS
330
47
102
}
330
47
100
AcDbScale
 70
     0
300
1:10
140
1.0
141
10.0
290
     0
  0
SCALE
  5
4E
102
{ACAD_REACTORS
330
47
102
}
330
47
100
AcDbScale
 70
     0
300
1:16
140
1.0
141
16.0
290
     0
  0
SCALE
  5
4F
102
{ACAD_REACTORS
330
47
102
}
330
47
100
AcDbScale
 70
     0
300
1:20
140
1.0
141
20.0
290
     0
  0
SCALE
  5
50
102
{ACAD_REACTORS
330
47
102
}
330
47
100
AcDbScale
 70
     0
300
1:30
140
1.0
141
30.0
290
     0
  0
SCALE
  5
51
102
{ACAD_REACTORS
330
47
102
}
330
47
100
AcDbScale
 70
     0
300
1:40
140
1.0
141
40.0
290
     0
  0
SCALE
  5
52
102
{ACAD_REACTORS
330
47
102
}
330
47
100
AcDbScale
 70
     0
300
1:50
140
1.0
141
50.0
290
     0
  0
SCALE
  5
53
102
{ACAD_REACTORS
330
47
102
}
330
47
100
AcDbScale
 70
     0
300
1:100
140
1.0
141
100.0
290
     0
  0
SCALE
  5
54
102
{ACAD_REACTORS
330
47
102
}
330
47
100
AcDbScale
 70
     0
300
2:1
140
2.0
141
1.0
290
     0
  0
SCALE
  5
55
102
{ACAD_REACTORS
330
47
102
}
330
47
100
AcDbScale
 70
     0
300
4:1
140
4.0
141
1.0
290
     0
  0
SCALE
  5
56
102
{ACAD_REACTORS
330
47
102
}
330
47
100
AcDbScale
 70
     0
300
8:1
140
8.0
141
1.0
290
     0
  0
SCALE
  5
57
102
{ACAD_REACTORS
330
47
102
}
330
47
100
AcDbScale
 70
     0
300
10:1
140
10.0
141
1.0
290
     0
  0
SCALE
  5
58
102
{ACAD_REACTORS
330
47
102
}
330
47
100
AcDbScale
 70
     0
300
100:1
140
100.0
141
1.0
290
     0
  0
SCALE
  5
59
102
{ACAD_REACTORS
330
47
102
}
330
47
100
AcDbScale
 70
     0
300
1/128" = 1'-0"
140
0.0078125
141
12.0
290
     0
  0
SCALE
  5
5A
102
{ACAD_REACTORS
330
47
102
}
330
47
100
AcDbScale
 70
     0
300
1/64" = 1'-0"
140
0.015625
141
12.0
290
     0
  0
SCALE
  5
5B
102
{ACAD_REACTORS
330
47
102
}
330
47
100
AcDbScale
 70
     0
300
1/32" = 1'-0"
140
0.03125
141
12.0
290
     0
  0
SCALE
  5
5C
102
{ACAD_REACTORS
330
47
102
}
330
47
100
AcDbScale
 70
     0
300
1/16" = 1'-0"
140
0.0625
141
12.0
290
     0
  0
SCALE
  5
5D
102
{ACAD_REACTORS
330
47
102
}
330
47
100
AcDbScale
 70
     0
300
3/32" = 1'-0"
140
0.09375
141
12.0
290
     0
  0
SCALE
  5
5E
102
{ACAD_REACTORS
330
47
102
}
330
47
100
AcDbScale
 70
     0
300
1/8" = 1'-0"
140
0.125
141
12.0
290
     0
  0
SCALE
  5
5F
102
{ACAD_REACTORS
330
47
102
}
330
47
100
AcDbScale
 70
     0
300
3/16" = 1'-0"
140
0.1875
141
12.0
290
     0
  0
SCALE
  5
60
102
{ACAD_REACTORS
330
47
102
}
330
47
100
AcDbScale
 70
     0
300
1/4" = 1'-0"
140
0.25
141
12.0
290
     0
  0
SCALE
  5
61
102
{ACAD_REACTORS
330
47
102
}
330
47
100
AcDbScale
 70
     0
300
3/8" = 1'-0"
140
0.375
141
12.0
290
     0
  0
SCALE
  5
62
102
{ACAD_REACTORS
330
47
102
}
330
47
100
AcDbScale
 70
     0
300
1/2" = 1'-0"
140
0.5
141
12.0
290
     0
  0
SCALE
  5
63
102
{ACAD_REACTORS
330
47
102
}
330
47
100
AcDbScale
 70
     0
300
3/4" = 1'-0"
140
0.75
141
12.0
290
     0
  0
SCALE
  5
64
102
{ACAD_REACTORS
330
47
102
}
330
47
100
AcDbScale
 70
     0
300
1" = 1'-0"
140
1.0
141
12.0
290
     0
  0
SCALE
  5
65
102
{ACAD_REACTORS
330
47
102
}
330
47
100
AcDbScale
 70
     0
300
1-1/2" = 1'-0"
140
1.5
141
12.0
290
     0
  0
SCALE
  5
66
102
{ACAD_REACTORS
330
47
102
}
330
47
100
AcDbScale
 70
     0
300
3" = 1'-0"
140
3.0
141
12.0
290
     0
  0
SCALE
  5
67
102
{ACAD_REACTORS
330
47
102
}
330
47
100
AcDbScale
 70
     0
300
6" = 1'-0"
140
6.0
141
12.0
290
     0
  0
SCALE
  5
68
102
{ACAD_REACTORS
330
47
102
}
330
47
100
AcDbScale
 70
     0
300
1'-0" = 1'-0"
140
12.0
141
12.0
290
     0
  0
ENDSEC
  0
EOF
