  0
SECTION
  2
HEADER
  9
$ACADVER
  1
AC1015
  9
$ACADMAINTVER
 70
     6
  9
$DWGCODEPAGE
  3
ANSI_1252
  9
$INSBASE
 10
0.0
 20
0.0
 30
0.0
  9
$EXTMIN
 10
0.0
 20
0.0
 30
0.0
  9
$EXTMAX
 10
297.0
 20
210.0
 30
0.0
  9
$LIMMIN
 10
0.0
 20
0.0
  9
$LIMMAX
 10
297.0
 20
210.0
  9
$ORTHOMODE
 70
     0
  9
$REGENMODE
 70
     1
  9
$FILLMODE
 70
     1
  9
$QTEXTMODE
 70
     0
  9
$MIRRTEXT
 70
     1
  9
$LTSCALE
 40
1.0
  9
$ATTMODE
 70
     1
  9
$TEXTSIZE
 40
2.0
  9
$TRACEWID
 40
1.0
  9
$TEXTSTYLE
  7
Standard
  9
$CLAYER
  8
0
  9
$CELTYPE
  6
ByLayer
  9
$CECOLOR
 62
   256
  9
$CELTSCALE
 40
1.0
  9
$DISPSILH
 70
     0
  9
$DIMSCALE
 40
1.0
  9
$DIMASZ
 40
3.0
  9
$DIMEXO
 40
0.0
  9
$DIMDLI
 40
3.75
  9
$DIMRND
 40
0.0
  9
$DIMDLE
 40
0.0
  9
$DIMEXE
 40
1.0
  9
$DIMTP
 40
0.0
  9
$DIMTM
 40
0.0
  9
$DIMTXT
 40
2.0
  9
$DIMCEN
 40
2.5
  9
$DIMTSZ
 40
0.0
  9
$DIMTOL
 70
     0
  9
$DIMLIM
 70
     0
  9
$DIMTIH
 70
     1
  9
$DIMTOH
 70
     1
  9
$DIMSE1
 70
     0
  9
$DIMSE2
 70
     0
  9
$DIMTAD
 70
     1
  9
$DIMZIN
 70
     0
  9
$DIMBLK
  1

  9
$DIMASO
 70
     1
  9
$DIMSHO
 70
     1
  9
$DIMPOST
  1

  9
$DIMAPOST
  1

  9
$DIMALT
 70
     0
  9
$DIMALTD
 70
     3
  9
$DIMALTF
 40
0.0393700787
  9
$DIMLFAC
 40
1.0
  9
$DIMTOFL
 70
     1
  9
$DIMTVP
 40
0.0
  9
$DIMTIX
 70
     0
  9
$DIMSOXD
 70
     0
  9
$DIMSAH
 70
     0
  9
$DIMBLK1
  1

  9
$DIMBLK2
  1

  9
$DIMSTYLE
  2
ISO-25
  9
$DIMCLRD
 70
     0
  9
$DIMCLRE
 70
     0
  9
$DIMCLRT
 70
     0
  9
$DIMTFAC
 40
1.0
  9
$DIMGAP
 40
1.524
  9
$DIMJUST
 70
     0
  9
$DIMSD1
 70
     0
  9
$DIMSD2
 70
     0
  9
$DIMTOLJ
 70
     0
  9
$DIMTZIN
 70
     0
  9
$DIMALTZ
 70
     0
  9
$DIMALTTZ
 70
     0
  9
$DIMUPT
 70
     0
  9
$DIMDEC
 70
     2
  9
$DIMTDEC
 70
     3
  9
$DIMALTU
 70
     2
  9
$DIMALTTD
 70
     3
  9
$DIMTXSTY
  7
Standard
  9
$DIMAUNIT
 70
     0
  9
$DIMADEC
 70
     2
  9
$DIMALTRND
 40
0.0
  9
$DIMAZIN
 70
     0
  9
$DIMDSEP
 70
    44
  9
$DIMATFIT
 70
     3
  9
$DIMFRAC
 70
     0
  9
$DIMLDRBLK
  1

  9
$DIMLUNIT
 70
     2
  9
$DIMLWD
 70
    -2
  9
$DIMLWE
 70
    -2
  9
$DIMTMOVE
 70
     0
  9
$LUNITS
 70
     2
  9
$LUPREC
 70
     2
  9
$SKETCHINC
 40
1.0
  9
$FILLETRAD
 40
10.0
  9
$AUNITS
 70
     0
  9
$AUPREC
 70
     2
  9
$MENU
  1
.
  9
$ELEVATION
 40
0.0
  9
$PELEVATION
 40
0.0
  9
$THICKNESS
 40
0.0
  9
$LIMCHECK
 70
     0
  9
$CHAMFERA
 40
0.0
  9
$CHAMFERB
 40
0.0
  9
$CHAMFERC
 40
0.0
  9
$CHAMFERD
 40
0.0
  9
$SKPOLY
 70
     0
  9
$TDCREATE
 40
2459054.623458345
  9
$TDUCREATE
 40
2459054.540125011
  9
$TDUPDATE
 40
2459054.623459375
  9
$TDUUPDATE
 40
2459054.540126042
  9
$TDINDWG
 40
0.0000000116
  9
$TDUSRTIMER
 40
0.0000000116
  9
$USRTIMER
 70
     1
  9
$ANGBASE
 50
0.0
  9
$ANGDIR
 70
     0
  9
$PDMODE
 70
     0
  9
$PDSIZE
 40
-1.0
  9
$PLINEWID
 40
0.0
  9
$SPLFRAME
 70
     0
  9
$SPLINETYPE
 70
     6
  9
$SPLINESEGS
 70
     8
  9
$HANDSEED
  5
17B
  9
$SURFTAB1
 70
     6
  9
$SURFTAB2
 70
     6
  9
$SURFTYPE
 70
     6
  9
$SURFU
 70
     6
  9
$SURFV
 70
     6
  9
$UCSBASE
  2

  9
$UCSNAME
  2

  9
$UCSORG
 10
0.0
 20
0.0
 30
0.0
  9
$UCSXDIR
 10
1.0
 20
0.0
 30
0.0
  9
$UCSYDIR
 10
0.0
 20
1.0
 30
0.0
  9
$UCSORTHOREF
  2

  9
$UCSORTHOVIEW
 70
     0
  9
$UCSORGTOP
 10
0.0
 20
0.0
 30
0.0
  9
$UCSORGBOTTOM
 10
0.0
 20
0.0
 30
0.0
  9
$UCSORGLEFT
 10
0.0
 20
0.0
 30
0.0
  9
$UCSORGRIGHT
 10
0.0
 20
0.0
 30
0.0
  9
$UCSORGFRONT
 10
0.0
 20
0.0
 30
0.0
  9
$UCSORGBACK
 10
0.0
 20
0.0
 30
0.0
  9
$PUCSBASE
  2

  9
$PUCSNAME
  2

  9
$PUCSORG
 10
0.0
 20
0.0
 30
0.0
  9
$PUCSXDIR
 10
1.0
 20
0.0
 30
0.0
  9
$PUCSYDIR
 10
0.0
 20
1.0
 30
0.0
  9
$PUCSORTHOREF
  2

  9
$PUCSORTHOVIEW
 70
     0
  9
$PUCSORGTOP
 10
0.0
 20
0.0
 30
0.0
  9
$PUCSORGBOTTOM
 10
0.0
 20
0.0
 30
0.0
  9
$PUCSORGLEFT
 10
0.0
 20
0.0
 30
0.0
  9
$PUCSORGRIGHT
 10
0.0
 20
0.0
 30
0.0
  9
$PUCSORGFRONT
 10
0.0
 20
0.0
 30
0.0
  9
$PUCSORGBACK
 10
0.0
 20
0.0
 30
0.0
  9
$USERI1
 70
     0
  9
$USERI2
 70
     0
  9
$USERI3
 70
     0
  9
$USERI4
 70
     0
  9
$USERI5
 70
     0
  9
$USERR1
 40
0.0
  9
$USERR2
 40
0.0
  9
$USERR3
 40
0.0
  9
$USERR4
 40
0.0
  9
$USERR5
 40
0.0
  9
$WORLDVIEW
 70
     1
  9
$SHADEDGE
 70
     3
  9
$SHADEDIF
 70
    70
  9
$TILEMODE
 70
     1
  9
$MAXACTVP
 70
    64
  9
$PINSBASE
 10
0.0
 20
0.0
 30
0.0
  9
$PLIMCHECK
 70
     0
  9
$PEXTMIN
 10
1.0000000000E+20
 20
1.0000000000E+20
 30
1.0000000000E+20
  9
$PEXTMAX
 10
-1.0000000000E+20
 20
-1.0000000000E+20
 30
-1.0000000000E+20
  9
$PLIMMIN
 10
0.0
 20
0.0
  9
$PLIMMAX
 10
420.0
 20
297.0
  9
$UNITMODE
 70
     0
  9
$VISRETAIN
 70
     1
  9
$PLINEGEN
 70
     0
  9
$PSLTSCALE
 70
     1
  9
$TREEDEPTH
 70
  3020
  9
$CMLSTYLE
  2
Standard
  9
$CMLJUST
 70
     0
  9
$CMLSCALE
 40
20.0
  9
$PROXYGRAPHICS
 70
     1
  9
$MEASUREMENT
 70
     1
  9
$CELWEIGHT
370
    -1
  9
$ENDCAPS
280
     0
  9
$JOINSTYLE
280
     0
  9
$LWDISPLAY
290
     1
  9
$INSUNITS
 70
     4
  9
$HYPERLINKBASE
  1

  9
$STYLESHEET
  1

  9
$XEDIT
290
     1
  9
$CEPSNTYPE
380
     0
  9
$PSTYLEMODE
290
     1
  9
$FINGERPRINTGUID
  2
{3E84254E-4809-415F-9412-D4A0B8FE0350}
  9
$VERSIONGUID
  2
{FAEB1C32-E019-11D5-929B-00C0DF256EC4}
  9
$EXTNAMES
290
     1
  9
$PSVPSCALE
 40
0.0
  9
$OLESTARTUP
290
     0
  0
ENDSEC
  0
SECTION
  2
CLASSES
  0
CLASS
  1
ACDBDICTIONARYWDFLT
  2
AcDbDictionaryWithDefault
  3
ObjectDBX Classes
 90
        0
280
     0
281
     0
  0
CLASS
  1
VISUALSTYLE
  2
AcDbVisualStyle
  3
ObjectDBX Classes
 90
     4095
280
     0
281
     0
  0
CLASS
  1
MATERIAL
  2
AcDbMaterial
  3
ObjectDBX Classes
 90
     1153
280
     0
281
     0
  0
CLASS
  1
SCALE
  2
AcDbScale
  3
ObjectDBX Classes
 90
     1153
280
     0
281
     0
  0
CLASS
  1
TABLESTYLE
  2
AcDbTableStyle
  3
ObjectDBX Classes
 90
     4095
280
     0
281
     0
  0
CLASS
  1
MLEADERSTYLE
  2
AcDbMLeaderStyle
  3
ACDB_MLEADERSTYLE_CLASS
 90
     4095
280
     0
281
     0
  0
CLASS
  1
SUN
  2
AcDbSun
  3
SCENEOE
 90
     1153
280
     0
281
     0
  0
CLASS
  1
ACDBPLACEHOLDER
  2
AcDbPlaceHolder
  3
ObjectDBX Classes
 90
        0
280
     0
281
     0
  0
CLASS
  1
LAYOUT
  2
AcDbLayout
  3
ObjectDBX Classes
 90
        0
280
     0
281
     0
  0
ENDSEC
  0
SECTION
  2
TABLES
  0
TABLE
  2
VPORT
  5
8
330
0
100
AcDbSymbolTable
 70
     1
  0
VPORT
  5
29
330
8
100
AcDbSymbolTableRecord
100
AcDbViewportTableRecord
  2
*Active
 70
     0
 10
0.0
 20
0.0
 11
1.0
 21
1.0
 12
148.5
 22
105.0
 13
0.0
 23
0.0
 14
10.0
 24
10.0
 15
10.0
 25
10.0
 16
0.0
 26
0.0
 36
1.0
 17
0.0
 27
0.0
 37
0.0
 40
210.0
 41
1.4142857143
 42
50.0
 43
0.0
 44
0.0
 50
0.0
 51
0.0
 71
     0
 72
  2000
 73
     1
 74
     3
 75
     0
 76
     0
 77
     0
 78
     0
281
     0
 65
     1
110
0.0
120
0.0
130
0.0
111
1.0
121
0.0
131
0.0
112
0.0
122
1.0
132
0.0
 79
     0
146
0.0
  0
ENDTAB
  0
TABLE
  2
LTYPE
  5
5
330
0
100
AcDbSymbolTable
 70
     6
  0
LTYPE
  5
14
330
5
100
AcDbSymbolTableRecord
100
AcDbLinetypeTableRecord
  2
ByBlock
 70
     0
  3

 72
    65
 73
     0
 40
0.0
  0
LTYPE
  5
15
330
5
100
AcDbSymbolTableRecord
100
AcDbLinetypeTableRecord
  2
ByLayer
 70
     0
  3

 72
    65
 73
     0
 40
0.0
  0
LTYPE
  5
16
330
5
100
AcDbSymbolTableRecord
100
AcDbLinetypeTableRecord
  2
Continuous
 70
     0
  3
Solid line
 72
    65
 73
     0
 40
0.0
  0
LTYPE
  5
6E
330
5
100
AcDbSymbolTableRecord
100
AcDbLinetypeTableRecord
  2
HIDDEN
 70
     0
  3
Hidden __ __ __ __ __ __ __ __ __ __ __ __ __ __
 72
    65
 73
     2
 40
1.905
 49
1.27
 74
     0
 49
-0.635
 74
     0
  0
LTYPE
  5
6F
330
5
100
AcDbSymbolTableRecord
100
AcDbLinetypeTableRecord
  2
PHANTOM
 70
     0
  3
Phantom ______  __  __  ______  __  __  ______
 72
    65
 73
     6
 40
12.7
 49
6.35
 74
     0
 49
-1.27
 74
     0
 49
1.27
 74
     0
 49
-1.27
 74
     0
 49
1.27
 74
     0
 49
-1.27
 74
     0
  0
LTYPE
  5
70
330
5
100
AcDbSymbolTableRecord
100
AcDbLinetypeTableRecord
  2
CENTER
 70
     0
  3
Center ____ _ ____ _ ____ _ ____ _ ____ _ ____
 72
    65
 73
     4
 40
10.16
 49
6.35
 74
     0
 49
-1.27
 74
     0
 49
1.27
 74
     0
 49
-1.27
 74
     0
  0
LTYPE
  5
71
330
5
100
AcDbSymbolTableRecord
100
AcDbLinetypeTableRecord
  2
CENTERX2
 70
     0
  3
Center (2x) ________  __  ________  __  _____
 72
    65
 73
     4
 40
20.32
 49
12.7
 74
     0
 49
-2.54
 74
     0
 49
2.54
 74
     0
 49
-2.54
 74
     0
  0
LTYPE
  5
72
330
5
100
AcDbSymbolTableRecord
100
AcDbLinetypeTableRecord
  2
DOT2
 70
     0
  3
Dot (.5x) ........................................
 72
    65
 73
     2
 40
0.635
 49
0.0
 74
     0
 49
-0.635
 74
     0
  0
ENDTAB
  0
TABLE
  2
LAYER
  5
2
330
0
100
AcDbSymbolTable
 70
     5
  0
LAYER
  5
10
330
2
100
AcDbSymbolTableRecord
100
AcDbLayerTableRecord
  2
0
 70
     0
 62
     7
  6
Continuous
370
    -3
390
F
  0
LAYER
  5
73
330
2
100
AcDbSymbolTableRecord
100
AcDbLayerTableRecord
  2
FORMAT
 70
     0
 62
     7
  6
Continuous
370
    -3
390
F
  0
LAYER
  5
74
330
2
100
AcDbSymbolTableRecord
100
AcDbLayerTableRecord
  2
VERMASSUNG
 70
     0
 62
     7
  6
Continuous
370
    -3
390
F
  0
LAYER
  5
75
330
2
100
AcDbSymbolTableRecord
100
AcDbLayerTableRecord
  2
KOPF_DÜNN
 70
     0
 62
     7
  6
Continuous
370
    -3
390
F
  0
LAYER
  5
76
330
2
100
AcDbSymbolTableRecord
100
AcDbLayerTableRecord
  2
KOPF_DICK
 70
     0
 62
     7
  6
Continuous
370
    25
390
F
  0
ENDTAB
  0
TABLE
  2
STYLE
  5
3
330
0
100
AcDbSymbolTable
 70
     2
  0
STYLE
  5
11
330
3
100
AcDbSymbolTableRecord
100
AcDbTextStyleTableRecord
  2
Standard
 70
     0
 40
0.0
 41
1.0
 50
0.0
 71
     0
 42
2.0
  3
txt
  4

  0
STYLE
  5
77
330
3
100
AcDbSymbolTableRecord
100
AcDbTextStyleTableRecord
  2
SLDTEXTSTYLE0
 70
     0
 40
0.0
 41
0.7
 50
0.0
 71
     0
 42
2.0
  3
TXT
  4

  0
ENDTAB
  0
TABLE
  2
VIEW
  5
6
330
0
100
AcDbSymbolTable
 70
     0
  0
ENDTAB
  0
TABLE
  2
UCS
  5
7
330
0
100
AcDbSymbolTable
 70
     0
  0
ENDTAB
  0
TABLE
  2
APPID
  5
9
330
0
100
AcDbSymbolTable
 70
     1
  0
APPID
  5
12
330
9
100
AcDbSymbolTableRecord
100
AcDbRegAppTableRecord
  2
ACAD
 70
     0
  0
ENDTAB
  0
TABLE
  2
DIMSTYLE
  5
A
330
0
100
AcDbSymbolTable
 70
     3
100
AcDbDimStyleTable
  0
DIMSTYLE
105
27
330
A
100
AcDbSymbolTableRecord
100
AcDbDimStyleTableRecord
  2
ISO-25
 70
     0
 41
2.5
 42
0.625
 43
3.75
 44
1.25
 73
     0
 74
     0
 77
     1
 78
     8
140
2.5
141
2.5
143
0.0393700787
147
0.625
171
     3
172
     1
178
     0
271
     2
272
     2
274
     3
278
    44
283
     0
284
     8
340
11
  0
DIMSTYLE
105
14E
102
{ACAD_REACTORS
330
14D
330
164
330
16F
102
}
330
A
100
AcDbSymbolTableRecord
100
AcDbDimStyleTableRecord
  2
SLDDIMSTYLE0
 70
     0
 41
3.0
 44
0.0
 45
0.000000001
 73
     0
 74
     0
 77
     1
 78
    12
 79
     3
140
2.0
147
0.5
173
     1
178
     0
271
     2
272
     3
276
     2
284
    12
340
77
  0
DIMSTYLE
105
159
102
{ACAD_REACTORS
330
158
102
}
330
A
100
AcDbSymbolTableRecord
100
AcDbDimStyleTableRecord
  2
SLDDIMSTYLE1
 70
     0
 41
3.0
 44
0.0
 45
0.000000001
 73
     0
 74
     0
 76
     1
 77
     1
 78
    12
 79
     3
140
2.0
147
0.5
173
     1
178
     0
271
     2
272
     3
276
     2
282
     1
284
    12
340
77
  0
ENDTAB
  0
TABLE
  2
BLOCK_RECORD
  5
1
330
0
100
AcDbSymbolTable
 70
     5
  0
BLOCK_RECORD
  5
1F
330
1
100
AcDbSymbolTableRecord
100
AcDbBlockTableRecord
  2
*Model_Space
340
22
  0
BLOCK_RECORD
  5
1B
330
1
100
AcDbSymbolTableRecord
100
AcDbBlockTableRecord
  2
*Paper_Space
340
1E
  0
BLOCK_RECORD
  5
23
330
1
100
AcDbSymbolTableRecord
100
AcDbBlockTableRecord
  2
*Paper_Space0
340
26
  0
BLOCK_RECORD
  5
14F
330
1
100
AcDbSymbolTableRecord
100
AcDbBlockTableRecord
  2
_D
340
0
  0
BLOCK_RECORD
  5
15A
330
1
100
AcDbSymbolTableRecord
100
AcDbBlockTableRecord
  2
_D_1
340
0
  0
BLOCK_RECORD
  5
165
330
1
100
AcDbSymbolTableRecord
100
AcDbBlockTableRecord
  2
_D_2
340
0
  0
BLOCK_RECORD
  5
170
330
1
100
AcDbSymbolTableRecord
100
AcDbBlockTableRecord
  2
_D_3
340
0
  0
ENDTAB
  0
ENDSEC
  0
SECTION
  2
BLOCKS
  0
BLOCK
  5
20
330
1F
100
AcDbEntity
  8
0
100
AcDbBlockBegin
  2
*Model_Space
 70
     0
 10
0.0
 20
0.0
 30
0.0
  3
*Model_Space
  1

  0
ENDBLK
  5
21
330
1F
100
AcDbEntity
  8
0
100
AcDbBlockEnd
  0
BLOCK
  5
1C
330
1B
100
AcDbEntity
 67
     1
  8
0
100
AcDbBlockBegin
  2
*Paper_Space
 70
     0
 10
0.0
 20
0.0
 30
0.0
  3
*Paper_Space
  1

  0
ENDBLK
  5
1D
330
1B
100
AcDbEntity
 67
     1
  8
0
100
AcDbBlockEnd
  0
BLOCK
  5
24
330
23
100
AcDbEntity
  8
0
100
AcDbBlockBegin
  2
*Paper_Space0
 70
     0
 10
0.0
 20
0.0
 30
0.0
  3
*Paper_Space0
  1

  0
ENDBLK
  5
25
330
23
100
AcDbEntity
  8
0
100
AcDbBlockEnd
  0
BLOCK
  5
150
330
14F
100
AcDbEntity
  8
0
100
AcDbBlockBegin
  2
_D
 70
     0
 10
0.0
 20
0.0
 30
0.0
  3
_D
  1

  0
SOLID
  5
152
330
14F
100
AcDbEntity
  8
VERMASSUNG
100
AcDbTrace
 10
185.7825040815
 20
124.3928002532
 30
0.0
 11
182.7825040815
 21
124.8428002532
 31
0.0
 12
182.7825040815
 22
123.9428002532
 32
0.0
 13
182.7825040815
 23
123.9428002532
 33
0.0
  0
SOLID
  5
153
330
14F
100
AcDbEntity
  8
VERMASSUNG
100
AcDbTrace
 10
128.7825040815
 20
124.3928002532
 30
0.0
 11
131.7825040815
 21
123.9428002532
 31
0.0
 12
131.7825040815
 22
124.8428002532
 32
0.0
 13
131.7825040815
 23
124.8428002532
 33
0.0
  0
LINE
  5
154
330
14F
100
AcDbEntity
  8
VERMASSUNG
100
AcDbLine
 10
185.7825040815
 20
120.0200912332
 30
0.0
 11
185.7825040815
 21
125.3928002532
 31
0.0
  0
LINE
  5
155
330
14F
100
AcDbEntity
  8
VERMASSUNG
100
AcDbLine
 10
128.7825040815
 20
120.2964649322
 30
0.0
 11
128.7825040815
 21
125.3928002532
 31
0.0
  0
LINE
  5
156
330
14F
100
AcDbEntity
  8
VERMASSUNG
100
AcDbLine
 10
185.7825040815
 20
124.3928002532
 30
0.0
 11
128.7825040815
 21
124.3928002532
 31
0.0
  0
MTEXT
  5
157
330
14F
100
AcDbEntity
  8
VERMASSUNG
100
AcDbMText
 10
155.8832114869
 20
126.9709358492
 30
0.0
 40
2.0
 41
0.0
 71
     1
 72
     1
  1
57
  7
SLDTEXTSTYLE0
 73
     1
 44
1.0
  0
ENDBLK
  5
151
330
14F
100
AcDbEntity
  8
0
100
AcDbBlockEnd
  0
BLOCK
  5
15B
330
15A
100
AcDbEntity
  8
0
100
AcDbBlockBegin
  2
_D_1
 70
     0
 10
0.0
 20
0.0
 30
0.0
  3
_D_1
  1

  0
SOLID
  5
15D
330
15A
100
AcDbEntity
  8
VERMASSUNG
100
AcDbTrace
 10
193.8875942028
 20
120.4171096939
 30
0.0
 11
193.4375942028
 21
117.4171096939
 31
0.0
 12
194.3375942028
 22
117.4171096939
 32
0.0
 13
194.3375942028
 23
117.4171096939
 33
0.0
  0
LINE
  5
15E
330
15A
100
AcDbEntity
  8
VERMASSUNG
100
AcDbLine
 10
185.3825040815
 20
120.4171096939
 30
0.0
 11
194.8875942028
 21
120.4171096939
 31
0.0
  0
LINE
  5
15F
330
15A
100
AcDbEntity
  8
VERMASSUNG
100
AcDbLine
 10
193.8875942028
 20
104.6671096939
 30
0.0
 11
193.8875942028
 21
120.4171096939
 31
0.0
  0
LINE
  5
160
330
15A
100
AcDbEntity
  8
VERMASSUNG
100
AcDbLine
 10
193.8875942028
 20
120.4171096939
 30
0.0
 11
193.8875942028
 21
95.0985197832
 31
0.0
  0
MTEXT
  5
161
330
15A
100
AcDbEntity
  8
VERMASSUNG
100
AcDbMText
 10
191.3094586651
 20
96.6860197832
 30
0.0
 40
2.0
 41
0.0
 71
     1
 72
     1
  1
%%c
  7
SLDTEXTSTYLE0
 11
-7.044195017643634E-15
 21
1.0
 31
0.0
 73
     1
 44
1.0
  0
MTEXT
  5
162
330
15A
100
AcDbEntity
  8
VERMASSUNG
100
AcDbMText
 10
191.3094586069
 20
100.2948770018
 30
0.0
 40
2.0
 41
0.0
 71
     1
 72
     1
  1
15.75
  7
SLDTEXTSTYLE0
 11
-7.044195017643634E-15
 21
1.0
 31
0.0
 73
     1
 44
1.0
  0
MTEXT
  5
163
330
15A
100
AcDbEntity
  8
VERMASSUNG
100
AcDbMText
 10
191.3094586069
 20
106.0946153876
 30
0.0
 40
2.0
 41
0.0
 71
     1
 72
     1
  1
-21.1
  7
SLDTEXTSTYLE0
 11
-7.044195017643634E-15
 21
1.0
 31
0.0
 73
     1
 44
1.0
  0
ENDBLK
  5
15C
330
15A
100
AcDbEntity
  8
0
100
AcDbBlockEnd
  0
BLOCK
  5
166
330
165
100
AcDbEntity
  8
0
100
AcDbBlockBegin
  2
_D_2
 70
     0
 10
0.0
 20
0.0
 30
0.0
  3
_D_2
  1

  0
SOLID
  5
168
330
165
100
AcDbEntity
  8
VERMASSUNG
100
AcDbTrace
 10
80.7825040815
 20
120.5421096939
 30
0.0
 11
80.3325040815
 21
117.5421096939
 31
0.0
 12
81.2325040815
 22
117.5421096939
 32
0.0
 13
81.2325040815
 23
117.5421096939
 33
0.0
  0
SOLID
  5
169
330
165
100
AcDbEntity
  8
VERMASSUNG
100
AcDbTrace
 10
80.7825040815
 20
104.5421096939
 30
0.0
 11
81.2325040815
 21
107.5421096939
 31
0.0
 12
80.3325040815
 22
107.5421096939
 32
0.0
 13
80.3325040815
 23
107.5421096939
 33
0.0
  0
LINE
  5
16A
330
165
100
AcDbEntity
  8
VERMASSUNG
100
AcDbLine
 10
102.0825040815
 20
120.5421096939
 30
0.0
 11
79.7825040815
 21
120.5421096939
 31
0.0
  0
LINE
  5
16B
330
165
100
AcDbEntity
  8
VERMASSUNG
100
AcDbLine
 10
92.1575040815
 20
104.5421096939
 30
0.0
 11
79.7825040815
 21
104.5421096939
 31
0.0
  0
LINE
  5
16C
330
165
100
AcDbEntity
  8
VERMASSUNG
100
AcDbLine
 10
80.7825040815
 20
120.5421096939
 30
0.0
 11
80.7825040815
 21
104.5421096939
 31
0.0
  0
MTEXT
  5
16D
330
165
100
AcDbEntity
  8
VERMASSUNG
100
AcDbMText
 10
78.2043685438
 20
109.5380064778
 30
0.0
 40
2.0
 41
0.0
 71
     1
 72
     1
  1
%%c
  7
SLDTEXTSTYLE0
 11
-7.044195017643634E-15
 21
1.0
 31
0.0
 73
     1
 44
1.0
  0
MTEXT
  5
16E
330
165
100
AcDbEntity
  8
VERMASSUNG
100
AcDbMText
 10
78.2043684856
 20
113.1468636965
 30
0.0
 40
2.0
 41
0.0
 71
     1
 72
     1
  1
16
  7
SLDTEXTSTYLE0
 11
-7.044195017643634E-15
 21
1.0
 31
0.0
 73
     1
 44
1.0
  0
ENDBLK
  5
167
330
165
100
AcDbEntity
  8
0
100
AcDbBlockEnd
  0
BLOCK
  5
171
330
170
100
AcDbEntity
  8
0
100
AcDbBlockBegin
  2
_D_3
 70
     0
 10
0.0
 20
0.0
 30
0.0
  3
_D_3
  1

  0
SOLID
  5
173
330
170
100
AcDbEntity
  8
VERMASSUNG
100
AcDbTrace
 10
90.7825040815
 20
130.5421096939
 30
0.0
 11
93.7825040815
 21
130.0921096939
 31
0.0
 12
93.7825040815
 22
130.9921096939
 32
0.0
 13
93.7825040815
 23
130.9921096939
 33
0.0
  0
SOLID
  5
174
330
170
100
AcDbEntity
  8
VERMASSUNG
100
AcDbTrace
 10
185.7825040815
 20
130.5421096939
 30
0.0
 11
182.7825040815
 21
130.9921096939
 31
0.0
 12
182.7825040815
 22
130.0921096939
 32
0.0
 13
182.7825040815
 23
130.0921096939
 33
0.0
  0
LINE
  5
175
330
170
100
AcDbEntity
  8
VERMASSUNG
100
AcDbLine
 10
90.7825040815
 20
118.7421096939
 30
0.0
 11
90.7825040815
 21
131.5421096939
 31
0.0
  0
LINE
  5
176
330
170
100
AcDbEntity
  8
VERMASSUNG
100
AcDbLine
 10
185.7825040815
 20
120.0200912332
 30
0.0
 11
185.7825040815
 21
131.5421096939
 31
0.0
  0
LINE
  5
177
330
170
100
AcDbEntity
  8
VERMASSUNG
100
AcDbLine
 10
90.7825040815
 20
130.5421096939
 30
0.0
 11
185.7825040815
 21
130.5421096939
 31
0.0
  0
MTEXT
  5
178
330
170
100
AcDbEntity
  8
VERMASSUNG
100
AcDbMText
 10
136.8832114869
 20
133.1202452898
 30
0.0
 40
2.0
 41
0.0
 71
     1
 72
     1
  1
95
  7
SLDTEXTSTYLE0
 73
     1
 44
1.0
  0
ENDBLK
  5
172
330
170
100
AcDbEntity
  8
0
100
AcDbBlockEnd
  0
ENDSEC
  0
SECTION
  2
ENTITIES
  0
MTEXT
  5
78
330
1F
100
AcDbEntity
  8
KOPF_DÜNN
100
AcDbMText
 10
13.8892156294
 20
23.8442973028
 30
0.0
 40
3.0
 41
0.0
 71
     1
 72
     1
  1
M54.016.006.095
  7
SLDTEXTSTYLE0
 73
     1
 44
1.0
  0
MTEXT
  5
79
330
1F
100
AcDbEntity
  8
VERMASSUNG
100
AcDbMText
 10
13.9329988022
 20
28.8834360957
 30
0.0
 40
3.0
 41
0.0
 71
     1
 72
     1
  1
Ausdrehstahl_Boring bar ø15.75-21.1
  7
SLDTEXTSTYLE0
 73
     1
 44
1.0
  0
MTEXT
  5
7A
330
1F
100
AcDbEntity
  8
VERMASSUNG
100
AcDbMText
 10
98.8601118557
 20
13.8365368761
 30
0.0
 40
2.0
 41
0.0
 71
     1
 72
     1
  1
Datum: 29.03.2010
  7
SLDTEXTSTYLE0
 73
     1
 44
1.0
  0
MTEXT
  5
7B
330
1F
100
AcDbEntity
  8
VERMASSUNG
100
AcDbMText
 10
13.933048693
 20
18.0482802738
 30
0.0
 40
2.0
 41
0.0
 71
     1
 72
     1
  1
mit Innenkühlung_with spindel coolant feed
  7
SLDTEXTSTYLE0
 73
     1
 44
1.0
  0
MTEXT
  5
7C
330
1F
100
AcDbEntity
  8
VERMASSUNG
100
AcDbMText
 10
13.9808475933
 20
13.9090974274
 30
0.0
 40
2.0
 41
0.0
 71
     1
 72
     1
  1
Gewicht: 107g
  7
SLDTEXTSTYLE0
 73
     1
 44
1.0
  0
LINE
  5
7D
330
1F
100
AcDbEntity
  8
0
  6
Continuous
 62
     7
370
    25
100
AcDbLine
 10
183.0241172003
 20
115.9510054879
 30
0.0
 11
183.0241172003
 21
115.845384415
 31
0.0
  0
LINE
  5
7E
330
1F
100
AcDbEntity
  8
0
  6
Continuous
 62
     7
370
    25
100
AcDbLine
 10
181.8653156228
 20
116.1749026505
 30
0.0
 11
181.8653156228
 21
116.2787546347
 31
0.0
  0
LINE
  5
7F
330
1F
100
AcDbEntity
  8
0
  6
Continuous
 62
     7
370
    25
100
AcDbLine
 10
180.8405544951
 20
116.6310120401
 30
0.0
 11
180.8405544951
 21
116.5487506606
 31
0.0
  0
LINE
  5
80
330
1F
100
AcDbEntity
  8
0
  6
Continuous
 62
     7
370
    25
100
AcDbLine
 10
184.2405544951
 20
116.5487506606
 30
0.0
 11
184.2405544951
 21
116.6310120401
 31
0.0
  0
LINE
  5
81
330
1F
100
AcDbEntity
  8
0
  6
Continuous
 62
     7
370
    25
100
AcDbLine
 10
183.2157933674
 20
117.0264506549
 30
0.0
 11
183.2157933674
 21
116.9225986708
 31
0.0
  0
LINE
  5
82
330
1F
100
AcDbEntity
  8
0
  6
Continuous
 62
     7
370
    25
100
AcDbLine
 10
182.0569917899
 20
117.2521169063
 30
0.0
 11
182.0569917899
 21
117.3577379792
 31
0.0
  0
ARC
  5
83
330
1F
100
AcDbEntity
  8
0
  6
Continuous
 62
     7
370
    25
100
AcDbCircle
 10
137.2825040815
 20
76.0171096939
 30
0.0
 40
30.00000000000001
100
AcDbArc
 50
90.0
 51
108.0413351452
  0
ARC
  5
84
330
1F
100
AcDbEntity
  8
0
  6
Continuous
 62
     7
370
    25
100
AcDbCircle
 10
137.2825040815
 20
149.0671096939
 30
0.0
 40
30.0
100
AcDbArc
 50
251.9586648548
 51
270.0
  0
LINE
  5
85
330
1F
100
AcDbEntity
  8
0
  6
Continuous
 62
     7
370
    25
100
AcDbLine
 10
92.1575040815
 20
104.5421096939
 30
0.0
 11
127.9914129185
 21
104.5421096939
 31
0.0
  0
LINE
  5
86
330
1F
100
AcDbEntity
  8
0
  6
Continuous
 62
     7
370
    25
100
AcDbLine
 10
104.9825040815
 20
120.5421096939
 30
0.0
 11
102.0825040815
 21
120.5421096939
 31
0.0
  0
LINE
  5
87
330
1F
100
AcDbEntity
  8
0
  6
Continuous
 62
     7
370
    25
100
AcDbLine
 10
127.9914129185
 20
120.5421096939
 30
0.0
 11
116.5825040815
 21
120.5421096939
 31
0.0
  0
LINE
  5
88
330
1F
100
AcDbEntity
  8
0
  6
Continuous
 62
     7
370
    25
100
AcDbLine
 10
90.7825040815
 20
105.9171096939
 30
0.0
 11
92.1575040815
 21
104.5421096939
 31
0.0
  0
LINE
  5
89
330
1F
100
AcDbEntity
  8
0
  6
Continuous
 62
     7
370
    25
100
AcDbLine
 10
137.2825040815
 20
106.0171096939
 30
0.0
 11
175.1183609055
 21
106.0171096939
 31
0.0
  0
LINE
  5
8A
330
1F
100
AcDbEntity
  8
0
  6
Continuous
 62
     7
370
    25
100
AcDbLine
 10
172.5205310491
 20
119.0671096939
 30
0.0
 11
137.2825040815
 21
119.0671096939
 31
0.0
  0
CIRCLE
  5
8B
330
1F
100
AcDbEntity
  8
0
  6
Continuous
 62
     7
370
    25
100
AcDbCircle
 10
182.5360776351
 20
116.6403470061
 30
0.0
 40
1.696130698699783
  0
CIRCLE
  5
8C
330
1F
100
AcDbEntity
  8
0
  6
Continuous
 62
     7
370
    25
100
AcDbCircle
 10
182.5372808617
 20
116.6640450745
 30
0.0
 40
1.097009853163684
  0
CIRCLE
  5
8D
330
1F
100
AcDbEntity
  8
0
  6
Continuous
 62
     7
370
    25
100
AcDbCircle
 10
182.537307077
 20
116.6636040092
 30
0.0
 40
1.046941563042429
  0
SPLINE
  5
8E
330
1F
100
AcDbEntity
  8
0
  6
Continuous
 62
     7
370
    25
100
AcDbSpline
210
0.0
220
0.0
230
1.0
 70
     8
 71
     3
 72
    16
 73
    12
 74
     0
 42
0.000000001
 43
0.00000001
 40
0.0
 40
0.0
 40
0.0
 40
0.0
 40
0.1242194589697341
 40
0.2489993218720097
 40
0.3727377574601696
 40
0.4952944629268275
 40
0.617195775016545
 40
0.7391031181773343
 40
0.8616668233222735
 40
0.9853929371716423
 40
1.0
 40
1.0
 40
1.0
 40
1.0
 10
182.430911993432
 20
117.5358660124709
 30
0.0
 10
182.4163203602683
 20
117.5542473637288
 30
0.0
 10
182.3870712652158
 20
117.5910929919118
 30
0.0
 10
182.3232399998613
 20
117.6239613742229
 30
0.0
 10
182.2535112494638
 20
117.6347784730211
 30
0.0
 10
182.1844149908506
 20
117.6214386430361
 30
0.0
 10
182.1240622836783
 20
117.5861519191519
 30
0.0
 10
182.0787025492475
 20
117.532851401151
 30
0.0
 10
182.0533070961489
 20
117.4673787057323
 30
0.0
 10
182.0512533424419
 20
117.4174334189227
 30
0.0
 10
182.0552266724638
 20
117.3918329466099
 30
0.0
 10
182.055646229671
 20
117.3891297071088
 30
0.0
  0
SPLINE
  5
8F
330
1F
100
AcDbEntity
  8
0
  6
Continuous
 62
     7
370
    25
100
AcDbSpline
210
0.0
220
0.0
230
1.0
 70
     8
 71
     3
 72
    12
 73
     8
 74
     0
 42
0.000000001
 43
0.00000001
 40
0.0
 40
0.0
 40
0.0
 40
0.0
 40
0.2093653562126878
 40
0.4192620302417456
 40
0.6249526976743001
 40
0.8281707878026434
 40
1.0
 40
1.0
 40
1.0
 40
1.0
 10
182.055646229671
 20
117.3891297071088
 30
0.0
 10
182.0552468978854
 20
117.3485021378093
 30
0.0
 10
182.0544472209083
 20
117.267143896425
 30
0.0
 10
182.0029136959992
 20
117.1545913130665
 30
0.0
 10
181.9207969144375
 20
117.0672119220376
 30
0.0
 10
181.8208626764221
 20
117.0135085562633
 30
0.0
 10
181.7497882300131
 20
117.0050876186613
 30
0.0
 10
181.7172252278049
 20
117.0012295371203
 30
0.0
  0
SPLINE
  5
90
330
1F
100
AcDbEntity
  8
0
  6
Continuous
 62
     7
370
    25
100
AcDbSpline
210
0.0
220
0.0
230
1.0
 70
     8
 71
     3
 72
    16
 73
    12
 74
     0
 42
0.000000001
 43
0.00000001
 40
0.0
 40
0.0
 40
0.0
 40
0.0
 40
0.1231896672979981
 40
0.2479795154962133
 40
0.3717274745392137
 40
0.4942903479747933
 40
0.6161927293768007
 40
0.7380955470920805
 40
0.8606497678263989
 40
0.9843631542991359
 40
1.0
 40
1.0
 40
1.0
 40
1.0
 10
181.7172252278049
 20
117.0012295371203
 30
0.0
 10
181.6944545230307
 20
116.9981352026052
 30
0.0
 10
181.6486173318016
 20
116.9919063394979
 30
0.0
 10
181.5888933669498
 20
116.9542190579572
 30
0.0
 10
181.5449444983427
 20
116.9001036936441
 30
0.0
 10
181.5220110916997
 20
116.834196138055
 30
0.0
 10
181.5222430567429
 20
116.7645681651153
 30
0.0
 10
181.5453644778081
 20
116.698566360919
 30
0.0
 10
181.5888162738069
 20
116.6434154240785
 30
0.0
 10
181.6306900602601
 20
116.6160095389983
 30
0.0
 10
181.6547445327898
 20
116.6062823214354
 30
0.0
 10
181.6574437466303
 20
116.605190805492
 30
0.0
  0
SPLINE
  5
91
330
1F
100
AcDbEntity
  8
0
  6
Continuous
 62
     7
370
    25
100
AcDbSpline
210
0.0
220
0.0
230
1.0
 70
     8
 71
     3
 72
    12
 73
     8
 74
     0
 42
0.000000001
 43
0.00000001
 40
0.0
 40
0.0
 40
0.0
 40
0.0
 40
0.2093652529605206
 40
0.4192619297279063
 40
0.6249525996332612
 40
0.8281706892237595
 40
1.0
 40
1.0
 40
1.0
 40
1.0
 10
181.6574437466303
 20
116.605190805492
 30
0.0
 10
181.6920718022032
 20
116.5841779180031
 30
0.0
 10
181.7614158084169
 20
116.5420988068174
 30
0.0
 10
181.8329224597791
 20
116.4409917841237
 30
0.0
 10
181.8682824983722
 20
116.3268185848969
 30
0.0
 10
181.8662985886683
 20
116.2147113205567
 30
0.0
 10
181.8392569521682
 20
116.1500652606584
 30
0.0
 10
181.8268677294791
 20
116.1204474366023
 30
0.0
  0
SPLINE
  5
92
330
1F
100
AcDbEntity
  8
0
  6
Continuous
 62
     7
370
    25
100
AcDbSpline
210
0.0
220
0.0
230
1.0
 70
     8
 71
     3
 72
    16
 73
    12
 74
     0
 42
0.000000001
 43
0.00000001
 40
0.0
 40
0.0
 40
0.0
 40
0.0
 40
0.1243654221089153
 40
0.2491438717990042
 40
0.3728809614209158
 40
0.4954367981748756
 40
0.6173379650704445
 40
0.7392459561098262
 40
0.8618110113606164
 40
0.9855389335649981
 40
1.0
 40
1.0
 40
1.0
 40
1.0
 10
181.8268677294791
 20
116.1204474366023
 30
0.0
 10
181.8184896629302
 20
116.0993275442266
 30
0.0
 10
181.8017057055987
 20
116.0570176186118
 30
0.0
 10
181.8057885275478
 20
115.9870909301337
 30
0.0
 10
181.8317511461919
 20
115.9226343826813
 30
0.0
 10
181.8781204506346
 20
115.8702064104547
 30
0.0
 10
181.9389111887218
 20
115.8356731930137
 30
0.0
 10
182.0075787610028
 20
115.8224601456516
 30
0.0
 10
182.0765719574016
 20
115.8319699936561
 30
0.0
 10
182.1203804899672
 20
115.8538721176986
 30
0.0
 10
182.1402705739648
 20
115.8693216286202
 30
0.0
 10
182.1423520120657
 20
115.8709383739631
 30
0.0
  0
SPLINE
  5
93
330
1F
100
AcDbEntity
  8
0
  6
Continuous
 62
     7
370
    25
100
AcDbSpline
210
0.0
220
0.0
230
1.0
 70
     8
 71
     3
 72
    12
 73
     8
 74
     0
 42
0.000000001
 43
0.00000001
 40
0.0
 40
0.0
 40
0.0
 40
0.0
 40
0.209237839681253
 40
0.4191378956981907
 40
0.624831618152955
 40
0.8280490456278964
 40
1.0
 40
1.0
 40
1.0
 40
1.0
 10
182.1423520120657
 20
115.8709383739631
 30
0.0
 10
182.1773565095929
 20
115.8898314913042
 30
0.0
 10
182.2474762902974
 20
115.9276775207679
 30
0.0
 10
182.3704893836857
 20
115.9380774669795
 30
0.0
 10
182.4879728585172
 20
115.9115088658812
 30
0.0
 10
182.5859567376009
 20
115.8544010752308
 30
0.0
 10
182.6300072993164
 20
115.7994757432309
 30
0.0
 10
182.6501969967806
 20
115.774301811435
 30
0.0
  0
SPLINE
  5
94
330
1F
100
AcDbEntity
  8
0
  6
Continuous
 62
     7
370
    25
100
AcDbSpline
210
0.0
220
0.0
230
1.0
 70
     8
 71
     3
 72
    16
 73
    12
 74
     0
 42
0.000000001
 43
0.00000001
 40
0.0
 40
0.0
 40
0.0
 40
0.0
 40
0.1242194589697005
 40
0.2489993218720092
 40
0.3727377574600895
 40
0.4952944629267753
 40
0.6171957750166209
 40
0.7391031181773035
 40
0.8616668233222974
 40
0.9853929371715979
 40
1.0
 40
1.0
 40
1.0
 40
1.0
 10
182.6501969967806
 20
115.774301811435
 30
0.0
 10
182.6647886299444
 20
115.7567731880222
 30
0.0
 10
182.6940377249968
 20
115.7216368625276
 30
0.0
 10
182.7578689903514
 20
115.6906370196503
 30
0.0
 10
182.8275977407489
 20
115.680990991174
 30
0.0
 10
182.896693999362
 20
115.6947004404989
 30
0.0
 10
182.9570467065345
 20
115.7295572232051
 30
0.0
 10
183.002406440965
 20
115.7816581016458
 30
0.0
 10
183.0278018940639
 20
115.8452331859626
 30
0.0
 10
183.0298556477708
 20
115.8934301217046
 30
0.0
 10
183.0258823177489
 20
115.9180275222527
 30
0.0
 10
183.0254627605418
 20
115.920624844051
 30
0.0
  0
SPLINE
  5
95
330
1F
100
AcDbEntity
  8
0
  6
Continuous
 62
     7
370
    25
100
AcDbSpline
210
0.0
220
0.0
230
1.0
 70
     8
 71
     3
 72
    12
 73
     8
 74
     0
 42
0.000000001
 43
0.00000001
 40
0.0
 40
0.0
 40
0.0
 40
0.0
 40
0.2093653562126355
 40
0.4192620302417081
 40
0.6249526976742925
 40
0.8281707878025509
 40
1.0
 40
1.0
 40
1.0
 40
1.0
 10
183.0254627605418
 20
115.920624844051
 30
0.0
 10
183.0258620923273
 20
115.9598289682492
 30
0.0
 10
183.0266617693043
 20
116.0383367070773
 30
0.0
 10
183.0781952942134
 20
116.1487529807697
 30
0.0
 10
183.1603120757752
 20
116.2365388886615
 30
0.0
 10
183.2602463137906
 20
116.2928219770247
 30
0.0
 10
183.3313207601996
 20
116.3038745242429
 30
0.0
 10
183.3638837624078
 20
116.3089382867856
 30
0.0
  0
SPLINE
  5
96
330
1F
100
AcDbEntity
  8
0
  6
Continuous
 62
     7
370
    25
100
AcDbSpline
210
0.0
220
0.0
230
1.0
 70
     8
 71
     3
 72
    16
 73
    12
 74
     0
 42
0.000000001
 43
0.00000001
 40
0.0
 40
0.0
 40
0.0
 40
0.0
 40
0.1231896672978744
 40
0.2479795154960238
 40
0.3717274745390853
 40
0.4942903479747436
 40
0.6161927293766815
 40
0.7380955470920746
 40
0.8606497678263088
 40
0.9843631542991552
 40
1.0
 40
1.0
 40
1.0
 40
1.0
 10
183.3638837624078
 20
116.3089382867856
 30
0.0
 10
183.386654467182
 20
116.3128785133511
 30
0.0
 10
183.4324916584111
 20
116.3208101483337
 30
0.0
 10
183.4922156232627
 20
116.360366576436
 30
0.0
 10
183.53616449187
 20
116.4156593574894
 30
0.0
 10
183.5590978985129
 20
116.4819431861305
 30
0.0
 10
183.5588659334699
 20
116.5511477313231
 30
0.0
 10
183.5357445124045
 20
116.6159560270523
 30
0.0
 10
183.4922927164059
 20
116.6692146311035
 30
0.0
 10
183.4504189299527
 20
116.6948684751671
 30
0.0
 10
183.4263644574229
 20
116.7035855773526
 30
0.0
 10
183.4236652435823
 20
116.7045637456678
 30
0.0
  0
SPLINE
  5
97
330
1F
100
AcDbEntity
  8
0
  6
Continuous
 62
     7
370
    25
100
AcDbSpline
210
0.0
220
0.0
230
1.0
 70
     8
 71
     3
 72
    12
 73
     8
 74
     0
 42
0.000000001
 43
0.00000001
 40
0.0
 40
0.0
 40
0.0
 40
0.0
 40
0.209365252960464
 40
0.4192619297278394
 40
0.6249525996332217
 40
0.8281706892237052
 40
1.0
 40
1.0
 40
1.0
 40
1.0
 10
183.4236652435824
 20
116.7045637456678
 30
0.0
 10
183.3890371880095
 20
116.7241531887241
 30
0.0
 10
183.3196931817959
 20
116.76338179797
 30
0.0
 10
183.2481865304336
 20
116.8623525101607
 30
0.0
 10
183.2128264918404
 20
116.9769322249799
 30
0.0
 10
183.2148104015444
 20
117.0916192114264
 30
0.0
 10
183.2418520380445
 20
117.1588968815776
 30
0.0
 10
183.2542412607335
 20
117.1897203873036
 30
0.0
  0
SPLINE
  5
98
330
1F
100
AcDbEntity
  8
0
  6
Continuous
 62
     7
370
    25
100
AcDbSpline
210
0.0
220
0.0
230
1.0
 70
     8
 71
     3
 72
    16
 73
    12
 74
     0
 42
0.000000001
 43
0.00000001
 40
0.0
 40
0.0
 40
0.0
 40
0.0
 40
0.1243654221089059
 40
0.2491438717990384
 40
0.3728809614208863
 40
0.4954367981749326
 40
0.6173379650705011
 40
0.7392459561098507
 40
0.8618110113606062
 40
0.9855389335649543
 40
1.0
 40
1.0
 40
1.0
 40
1.0
 10
183.2542412607335
 20
117.1897203873036
 30
0.0
 10
183.2626193272825
 20
117.2116939761471
 30
0.0
 10
183.279403284614
 20
117.2557141298921
 30
0.0
 10
183.2753204626649
 20
117.3275092684683
 30
0.0
 10
183.2493578440209
 20
117.3931359862465
 30
0.0
 10
183.2029885395779
 20
117.4459326345389
 30
0.0
 10
183.1421978014909
 20
117.4800349876318
 30
0.0
 10
183.0735302292099
 20
117.4920475266281
 30
0.0
 10
183.0045370328111
 20
117.4806393199726
 30
0.0
 10
182.9607285002454
 20
117.4569893703626
 30
0.0
 10
182.940838416248
 20
117.4405377864918
 30
0.0
 10
182.938756978147
 20
117.4388161771967
 30
0.0
  0
SPLINE
  5
99
330
1F
100
AcDbEntity
  8
0
  6
Continuous
 62
     7
370
    25
100
AcDbSpline
210
0.0
220
0.0
230
1.0
 70
     8
 71
     3
 72
    12
 73
     8
 74
     0
 42
0.000000001
 43
0.00000001
 40
0.0
 40
0.0
 40
0.0
 40
0.0
 40
0.2092378396813201
 40
0.4191378956981199
 40
0.6248316181529305
 40
0.8280490456278801
 40
1.0
 40
1.0
 40
1.0
 40
1.0
 10
182.938756978147
 20
117.4388161771967
 30
0.0
 10
182.9037524806198
 20
117.4185004405209
 30
0.0
 10
182.8336326999153
 20
117.3778046699433
 30
0.0
 10
182.710619606527
 20
117.3652673809963
 30
0.0
 10
182.5931361316956
 20
117.3922409295914
 30
0.0
 10
182.4951522526119
 20
117.4519278467908
 30
0.0
 10
182.4511016908962
 20
117.5094855745272
 30
0.0
 10
182.430911993432
 20
117.5358660124709
 30
0.0
  0
LINE
  5
9A
330
1F
100
AcDbEntity
  8
0
  6
Continuous
 62
     7
370
    25
100
AcDbLine
 10
183.0254627605
 20
115.8826292607
 30
0.0
 11
183.0254627605
 21
115.9206248441
 31
0.0
  0
ARC
  5
9B
330
1F
100
AcDbEntity
  8
0
  6
Continuous
 62
     7
370
    25
100
AcDbCircle
 10
181.5097379721
 20
116.1749376409
 30
0.0
 40
0.35557765242449
100
AcDbArc
 50
333.1094342797
 51
359.9943618413
  0
ARC
  5
9C
330
1F
100
AcDbEntity
  8
0
  6
Continuous
 62
     7
370
    25
100
AcDbCircle
 10
183.3531816488
 20
116.4059374566
 30
0.0
 40
0.2049977113982189
100
AcDbArc
 50
15.3002855878
 51
69.8898377021
  0
LINE
  5
9D
330
1F
100
AcDbEntity
  8
0
  6
Continuous
 62
     7
370
    25
100
AcDbLine
 10
183.4236652436
 20
116.5984371307
 30
0.0
 11
183.4236652436
 21
116.7045637457
 31
0.0
  0
ARC
  5
9E
330
1F
100
AcDbEntity
  8
0
  6
Continuous
 62
     7
370
    25
100
AcDbCircle
 10
182.5451674543
 20
116.5557377552
 30
0.0
 40
1.695401438451578
100
AcDbArc
 50
259.8142450121
 51
359.7638717555
  0
ARC
  5
9F
330
1F
100
AcDbEntity
  8
0
  6
Continuous
 62
     7
370
    25
100
AcDbCircle
 10
182.5313595526
 20
116.5535031366
 30
0.0
 40
1.69081173654273
100
AcDbArc
 50
180.1610452349
 51
260.261386455
  0
ARC
  5
A0
330
1F
100
AcDbEntity
  8
0
  6
Continuous
 62
     7
370
    25
100
AcDbCircle
 10
181.7284282776
 20
116.689628675
 30
0.0
 40
0.2055731022924235
100
AcDbArc
 50
93.1239768711
 51
164.6073875027
  0
ARC
  5
A1
330
1F
100
AcDbEntity
  8
0
  6
Continuous
 62
     7
370
    25
100
AcDbCircle
 10
183.573418636
 20
116.9231987576
 30
0.0
 40
0.3576257720304464
100
AcDbArc
 50
180.0961408877
 51
245.2447284641
  0
ARC
  5
A2
330
1F
100
AcDbEntity
  8
0
  6
Continuous
 62
     7
370
    25
100
AcDbCircle
 10
181.6980928332
 20
117.2532868288
 30
0.0
 40
0.3589008635174805
100
AcDbArc
 50
273.0557890367
 51
359.8132304831
  0
ARC
  5
A3
330
1F
100
AcDbEntity
  8
0
  6
Continuous
 62
     7
370
    25
100
AcDbCircle
 10
183.0701491727
 20
117.1734431307
 30
0.0
 40
0.2064541952430146
100
AcDbArc
 50
16.6304549891
 51
129.5256044396
  0
LINE
  5
A4
330
1F
100
AcDbEntity
  8
0
  6
Continuous
 62
     7
370
    25
100
AcDbLine
 10
182.9387569781
 20
117.3326895623
 30
0.0
 11
182.9387569781
 21
117.4388161772
 31
0.0
  0
ARC
  5
A5
330
1F
100
AcDbEntity
  8
0
  6
Continuous
 62
     7
370
    25
100
AcDbCircle
 10
182.2587917254
 20
117.31529228
 30
0.0
 40
0.2065823666332252
100
AcDbArc
 50
33.5732138673
 51
158.4052483021
  0
ARC
  5
A6
330
1F
100
AcDbEntity
  8
0
  6
Continuous
 62
     7
370
    25
100
AcDbCircle
 10
182.7323231573
 20
117.630141387
 30
0.0
 40
0.3620669972118314
100
AcDbArc
 50
213.6463336892
 51
304.7609410969
  0
LINE
  5
A7
330
1F
100
AcDbEntity
  8
0
  6
Continuous
 62
     7
370
    25
100
AcDbLine
 10
179.9019633526
 20
113.0641734218
 30
0.0
 11
185.4519633526
 21
114.0354937188
 31
0.0
  0
LINE
  5
A8
330
1F
100
AcDbEntity
  8
0
  6
Continuous
 62
     7
370
    25
100
AcDbLine
 10
179.8325040815
 20
113.4270157607
 30
0.0
 11
179.9019633526
 21
113.0641734218
 31
0.0
  0
LINE
  5
A9
330
1F
100
AcDbEntity
  8
0
  6
Continuous
 62
     7
370
    25
100
AcDbLine
 10
179.9196448052
 20
113.5239606125
 30
0.0
 11
179.8325040815
 21
113.4270157607
 31
0.0
  0
SPLINE
  5
AA
330
1F
100
AcDbEntity
  8
0
  6
Continuous
 62
     7
370
    25
100
AcDbSpline
210
0.0
220
0.0
230
1.0
 70
     8
 71
     3
 72
    11
 73
     7
 74
     0
 42
0.000000001
 43
0.00000001
 40
0.0
 40
0.0
 40
0.0
 40
0.0
 40
0.0074552814711651
 40
0.3066092506034849
 40
0.6526506519390324
 40
1.0
 40
1.0
 40
1.0
 40
1.0
 10
180.3618997097777
 20
114.0564292719186
 30
0.0
 10
180.3609132962095
 20
114.0551549463642
 30
0.0
 10
180.3203456092458
 20
114.0027464618836
 30
0.0
 10
180.2281697601693
 20
113.8862895558731
 30
0.0
 10
180.075058655401
 20
113.7002982710118
 30
0.0
 10
179.9715145271878
 20
113.5828137026028
 30
0.0
 10
179.9196448051564
 20
113.5239606125095
 30
0.0
  0
LINE
  5
AB
330
1F
100
AcDbEntity
  8
0
  6
Continuous
 62
     7
370
    25
100
AcDbLine
 10
179.8325040815
 20
113.4270157607
 30
0.0
 11
179.4325040815
 21
113.4551602799
 31
0.0
  0
LINE
  5
AC
330
1F
100
AcDbEntity
  8
0
  6
Continuous
 62
     7
370
    25
100
AcDbLine
 10
179.4325040815
 20
119.0487709362
 30
0.0
 11
179.4325040815
 21
113.4551602799
 31
0.0
  0
SPLINE
  5
AD
330
1F
100
AcDbEntity
  8
0
  6
Continuous
 62
     7
370
    25
100
AcDbSpline
210
0.0
220
0.0
230
1.0
 70
     8
 71
     3
 72
    12
 73
     8
 74
     0
 42
0.000000001
 43
0.00000001
 40
0.0
 40
0.0
 40
0.0
 40
0.0
 40
0.0481906270125312
 40
0.422768791530845
 40
0.5661203835288026
 40
0.9912408780623957
 40
0.9999999999999999
 40
0.9999999999999999
 40
0.9999999999999999
 40
0.9999999999999999
 10
185.4064929074945
 20
114.3805604585872
 30
0.0
 10
185.3989116637299
 20
114.3865065434371
 30
0.0
 10
185.3324026045336
 20
114.4386706106462
 30
0.0
 10
185.2372366178932
 20
114.5166099609053
 30
0.0
 10
185.083368642855
 20
114.6478682069246
 30
0.0
 10
184.9920571364879
 20
114.7293248902122
 30
0.0
 10
184.930173758382
 20
114.7865199390049
 30
0.0
 10
184.9289244624157
 20
114.7876745874087
 30
0.0
  0
SPLINE
  5
AE
330
1F
100
AcDbEntity
  8
0
  6
Continuous
 62
     7
370
    25
100
AcDbSpline
210
0.0
220
0.0
230
1.0
 70
     8
 71
     3
 72
    10
 73
     6
 74
     0
 42
0.000000001
 43
0.00000001
 40
0.0
 40
0.0
 40
0.0
 40
0.0
 40
0.365809762774354
 40
0.9379269162054219
 40
1.0
 40
1.0
 40
1.0
 40
1.0
 10
185.4064929074937
 20
114.3805604585878
 30
0.0
 10
185.4076596439682
 20
114.3710805816828
 30
0.0
 10
185.4106511265773
 20
114.3467744187085
 30
0.0
 10
185.4051580947576
 20
114.3214684157654
 30
0.0
 10
185.4009049598217
 20
114.3059106498382
 30
0.0
 10
185.4004886727429
 20
114.3043878914428
 30
0.0
  0
ARC
  5
AF
330
1F
100
AcDbEntity
  8
0
  6
Continuous
 62
     7
370
    25
100
AcDbCircle
 10
179.8315876188
 20
113.4570071484
 30
0.0
 40
0.399087810730937
100
AcDbArc
 50
180.2651500347
 51
280.1567331978
  0
ARC
  5
B0
330
1F
100
AcDbEntity
  8
0
  6
Continuous
 62
     7
370
    25
100
AcDbCircle
 10
181.2302129243
 20
115.1157960698
 30
0.0
 40
0.9977195266723655
100
AcDbArc
 50
180.2651500222
 51
280.1567332256
  0
SPLINE
  5
B1
330
1F
100
AcDbEntity
  8
0
  6
Continuous
 62
     7
370
    25
100
AcDbSpline
210
0.0
220
0.0
230
1.0
 70
     8
 71
     3
 72
    10
 73
     6
 74
     0
 42
0.000000001
 43
0.00000001
 40
0.0
 40
0.0
 40
0.0
 40
0.0
 40
0.0620730837953678
 40
0.6341902372119299
 40
1.0
 40
1.0
 40
1.0
 40
1.0
 10
185.4860732146472
 20
114.4056233163562
 30
0.0
 10
185.4845270462909
 20
114.4048247442238
 30
0.0
 10
185.4687301047393
 20
114.3966658673146
 30
0.0
 10
185.4428410458948
 20
114.3848509228003
 30
0.0
 10
185.4166916723987
 20
114.3817643011432
 30
0.0
 10
185.4064929074945
 20
114.3805604585872
 30
0.0
  0
LINE
  5
B2
330
1F
100
AcDbEntity
  8
0
  6
Continuous
 62
     7
370
    25
100
AcDbLine
 10
185.3825040815
 20
119.9919467139
 30
0.0
 11
185.7825040815
 21
120.0200912332
 31
0.0
  0
LINE
  5
B3
330
1F
100
AcDbEntity
  8
0
  6
Continuous
 62
     7
370
    25
100
AcDbLine
 10
185.7825040815
 20
114.426480577
 30
0.0
 11
185.7825040815
 21
120.0200912332
 31
0.0
  0
LINE
  5
B4
330
1F
100
AcDbEntity
  8
0
  6
Continuous
 62
     7
370
    25
100
AcDbLine
 10
185.2953633579
 20
119.8827391932
 30
0.0
 11
185.3825040815
 21
119.9919467139
 31
0.0
  0
ARC
  5
B5
330
1F
100
AcDbEntity
  8
0
  6
Continuous
 62
     7
370
    25
100
AcDbCircle
 10
183.9878099938
 20
115.5953462775
 30
0.0
 40
0.9946982644405926
100
AcDbArc
 50
279.7436065994
 51
359.8339617107
  0
ARC
  5
B6
330
1F
100
AcDbEntity
  8
0
  6
Continuous
 62
     7
370
    25
100
AcDbCircle
 10
185.3846264464
 20
114.4276335957
 30
0.0
 40
0.3978793057760912
100
AcDbArc
 50
279.7436065994
 51
359.8339617137
  0
LINE
  5
B7
330
1F
100
AcDbEntity
  8
0
  6
Continuous
 62
     7
370
    25
100
AcDbLine
 10
181.4061522592
 20
114.1337117534
 30
0.0
 11
184.1561522592
 21
114.6149965853
 31
0.0
  0
LINE
  5
B8
330
1F
100
AcDbEntity
  8
0
  6
Continuous
 62
     7
370
    25
100
AcDbLine
 10
183.8088559038
 20
119.3415397597
 30
0.0
 11
181.0588559038
 21
118.8602549279
 31
0.0
  0
ARC
  5
B9
330
1F
100
AcDbEntity
  8
0
  6
Continuous
 62
     7
370
    25
100
AcDbCircle
 10
183.9847952382
 20
118.3594554431
 30
0.0
 40
0.9977195268678363
100
AcDbArc
 50
0.2651500374
 51
100.156733195
  0
LINE
  5
BA
330
1F
100
AcDbEntity
  8
0
  6
Continuous
 62
     7
370
    25
100
AcDbLine
 10
184.9825040815
 20
115.5924637307
 30
0.0
 11
184.9825040815
 21
118.3640726144
 31
0.0
  0
LINE
  5
BB
330
1F
100
AcDbEntity
  8
0
  6
Continuous
 62
     7
370
    25
100
AcDbLine
 10
180.2325040815
 20
117.8827877825
 30
0.0
 11
180.2325040812
 21
115.1111788988
 31
0.0
  0
ARC
  5
BC
330
1F
100
AcDbEntity
  8
0
  6
Continuous
 62
     7
370
    25
100
AcDbCircle
 10
181.2271981693
 20
117.8799052357
 30
0.0
 40
0.9946982644405633
100
AcDbArc
 50
99.7436065994
 51
179.8339617107
  0
CIRCLE
  5
BD
330
1F
100
AcDbEntity
  8
0
  6
Continuous
 62
     7
370
    25
100
AcDbCircle
 10
182.5975840245
 20
116.7354724991
 30
0.0
 40
1.915081153523312
  0
ARC
  5
BE
330
1F
100
AcDbEntity
  8
0
  6
Continuous
 62
     7
370
    25
100
AcDbCircle
 10
182.6075040815
 20
116.6353624992
 30
0.0
 40
1.925280296250405
100
AcDbArc
 50
1.6835182389
 51
178.316481749
  0
SPLINE
  5
BF
330
1F
100
AcDbEntity
  8
0
  6
Continuous
 62
     7
370
    25
100
AcDbSpline
210
0.0
220
0.0
230
1.0
 70
     8
 71
     3
 72
    12
 73
     8
 74
     0
 42
0.000000001
 43
0.00000001
 40
0.0
 40
0.0
 40
0.0
 40
0.0
 40
0.0087591219376018
 40
0.4338796164711976
 40
0.5772312084691561
 40
0.9518093729874528
 40
1.0
 40
1.0
 40
1.0
 40
1.0
 10
180.286083700608
 20
118.6544418113149
 30
0.0
 10
180.2848344046417
 20
118.6553681029835
 30
0.0
 10
180.2229510265363
 20
118.7012515918526
 30
0.0
 10
180.1316395201686
 20
118.7718915916531
 30
0.0
 10
179.9777715451305
 20
118.8969297267547
 30
0.0
 10
179.8826055584903
 20
118.9775074296751
 30
0.0
 10
179.8160964992938
 20
119.0361268518799
 30
0.0
 10
179.8085152555292
 20
119.0428087706207
 30
0.0
  0
SPLINE
  5
C0
330
1F
100
AcDbEntity
  8
0
  6
Continuous
 62
     7
370
    25
100
AcDbSpline
210
0.0
220
0.0
230
1.0
 70
     8
 71
     3
 72
    10
 73
     6
 74
     0
 42
0.000000001
 43
0.00000001
 40
0.0
 40
0.0
 40
0.0
 40
0.0
 40
0.0620730837954361
 40
0.6341902372120584
 40
1.0
 40
1.0
 40
1.0
 40
1.0
 10
179.7289349483765
 20
119.0279136755722
 30
0.0
 10
179.7304811167328
 20
119.028495417871
 30
0.0
 10
179.7462780582844
 20
119.0344389809086
 30
0.0
 10
179.7721671171289
 20
119.0427582524856
 30
0.0
 10
179.798316490625
 20
119.0427945959585
 30
0.0
 10
179.8085152555292
 20
119.0428087706207
 30
0.0
  0
SPLINE
  5
C1
330
1F
100
AcDbEntity
  8
0
  6
Continuous
 62
     7
370
    25
100
AcDbSpline
210
0.0
220
0.0
230
1.0
 70
     8
 71
     3
 72
    11
 73
     7
 74
     0
 42
0.000000001
 43
0.00000001
 40
0.0
 40
0.0
 40
0.0
 40
0.0
 40
0.3473493480609481
 40
0.6933907493964856
 40
0.9925447185288451
 40
1.0
 40
1.0
 40
1.0
 40
1.0
 10
185.2953633578673
 20
119.8827391932057
 30
0.0
 10
185.2434936358358
 20
119.8188819612439
 30
0.0
 10
185.1399495076226
 20
119.6914079522336
 30
0.0
 10
184.9868384028548
 20
119.5151780367403
 30
0.0
 10
184.894662553777
 20
119.4135707680654
 30
0.0
 10
184.8540948668142
 20
119.3700066169249
 30
0.0
 10
184.853108453246
 20
119.3689473435723
 30
0.0
  0
SPLINE
  5
C2
330
1F
100
AcDbEntity
  8
0
  6
Continuous
 62
     7
370
    25
100
AcDbSpline
210
0.0
220
0.0
230
1.0
 70
     8
 71
     3
 72
    10
 73
     6
 74
     0
 42
0.000000001
 43
0.00000001
 40
0.0
 40
0.0
 40
0.0
 40
0.0
 40
0.3658097627742649
 40
0.9379269162054537
 40
1.0
 40
1.0
 40
1.0
 40
1.0
 10
179.80851525553
 20
119.04280877062
 30
0.0
 10
179.8073485190555
 20
119.0534783154189
 30
0.0
 10
179.8043570364464
 20
119.0808347565773
 30
0.0
 10
179.8098500682661
 20
119.1096364324578
 30
0.0
 10
179.814103203202
 20
119.1274095122566
 30
0.0
 10
179.8145194902808
 20
119.1291491004856
 30
0.0
  0
LINE
  5
C3
330
1F
100
AcDbEntity
  8
0
  6
Continuous
 62
     7
370
    25
100
AcDbLine
 10
185.3130448104
 20
120.4110780914
 30
0.0
 11
179.7630448104
 21
119.4397577943
 31
0.0
  0
LINE
  5
C4
330
1F
100
AcDbEntity
  8
0
  6
Continuous
 62
     7
370
    25
100
AcDbLine
 10
185.3825040815
 20
119.9919467139
 30
0.0
 11
185.3130448104
 21
120.4110780914
 31
0.0
  0
ARC
  5
C5
330
1F
100
AcDbEntity
  8
0
  6
Continuous
 62
     7
370
    25
100
AcDbCircle
 10
179.8303817166
 20
119.0476179175
 30
0.0
 40
0.3978793057864938
100
AcDbArc
 50
99.7436066006
 51
179.8339617095
  0
ARC
  5
C6
330
1F
100
AcDbEntity
  8
0
  6
Continuous
 62
     7
370
    25
100
AcDbCircle
 10
185.3834205442
 20
120.0182443647
 30
0.0
 40
0.3990878107634035
100
AcDbArc
 50
0.2651500402
 51
100.1567331923
  0
LINE
  5
C7
330
1F
100
AcDbEntity
  8
0
  6
Continuous
 62
     7
370
    25
100
AcDbLine
 10
127.9914129185
 20
104.5421096939
 30
0.0
 11
127.9914129185
 21
120.5421096939
 31
0.0
  0
LINE
  5
C8
330
1F
100
AcDbEntity
  8
0
  6
Continuous
 62
     7
370
    25
100
AcDbLine
 10
92.1575040815
 20
104.5421096939
 30
0.0
 11
92.1575040815
 21
118.7421096939
 31
0.0
  0
LINE
  5
C9
330
1F
100
AcDbEntity
  8
0
  6
Continuous
 62
     7
370
    25
100
AcDbLine
 10
100.2825040815
 20
118.7421096939
 30
0.0
 11
92.1575040815
 21
118.7421096939
 31
0.0
  0
LINE
  5
CA
330
1F
100
AcDbEntity
  8
0
  6
Continuous
 62
     7
370
    25
100
AcDbLine
 10
102.0825040815
 20
120.5421096939
 30
0.0
 11
100.2825040815
 21
118.7421096939
 31
0.0
  0
LINE
  5
CB
330
1F
100
AcDbEntity
  8
0
  6
Continuous
 62
     7
370
    25
100
AcDbLine
 10
106.7825040815
 20
118.7421096939
 30
0.0
 11
104.9825040815
 21
120.5421096939
 31
0.0
  0
LINE
  5
CC
330
1F
100
AcDbEntity
  8
0
  6
Continuous
 62
     7
370
    25
100
AcDbLine
 10
114.7825040815
 20
118.7421096939
 30
0.0
 11
106.7825040815
 21
118.7421096939
 31
0.0
  0
LINE
  5
CD
330
1F
100
AcDbEntity
  8
0
  6
Continuous
 62
     7
370
    25
100
AcDbLine
 10
116.5825040815
 20
120.5421096939
 30
0.0
 11
114.7825040815
 21
118.7421096939
 31
0.0
  0
LINE
  5
CE
330
1F
100
AcDbEntity
  8
0
  6
Continuous
 62
     7
370
    25
100
AcDbLine
 10
90.7825040815
 20
105.9171096939
 30
0.0
 11
90.7825040815
 21
118.7421096939
 31
0.0
  0
SPLINE
  5
CF
330
1F
100
AcDbEntity
  8
0
  6
Continuous
 62
     7
370
    25
100
AcDbSpline
210
0.0
220
0.0
230
1.0
 70
    24
 71
     3
 72
    10
 73
     6
 74
     0
 42
0.000000001
 43
0.00000001
 40
0.0
 40
0.0
 40
0.0
 40
0.0
 40
0.5
 40
0.5
 40
1.0
 40
1.0
 40
1.0
 40
1.0
 10
92.15750408151183
 20
118.7421096938699
 30
0.0
 10
91.88526389419464
 20
118.7421096938699
 30
0.0
 10
91.62689978600663
 20
118.7421096938699
 30
0.0
 10
91.16083376819125
 20
118.7421096938699
 30
0.0
 10
90.95224326506357
 20
118.7421096938699
 30
0.0
 10
90.78250408151182
 20
118.7421096938699
 30
0.0
  0
SPLINE
  5
D0
330
1F
100
AcDbEntity
  8
0
  6
Continuous
 62
     7
370
    25
100
AcDbSpline
210
0.0
220
0.0
230
1.0
 70
     8
 71
     3
 72
    50
 73
    46
 74
     0
 42
0.000000001
 43
0.00000001
 40
0.0
 40
0.0
 40
0.0
 40
0.0
 40
0.1249999999999998
 40
0.1249999999999998
 40
0.1874999999999996
 40
0.1874999999999996
 40
0.2499999999999995
 40
0.2499999999999995
 40
0.3750000000000004
 40
0.3750000000000004
 40
0.4375000000000003
 40
0.4375000000000003
 40
0.5000000000000002
 40
0.5000000000000002
 40
0.5625000000000001
 40
0.5625000000000001
 40
0.5937499999999996
 40
0.5937499999999996
 40
0.6093749999999997
 40
0.6093749999999997
 40
0.6249999999999998
 40
0.6249999999999998
 40
0.6406249999999998
 40
0.6406249999999998
 40
0.6562499999999998
 40
0.6562499999999998
 40
0.6718749999999998
 40
0.6718749999999998
 40
0.6874999999999998
 40
0.6874999999999998
 40
0.7031249999999997
 40
0.7031249999999997
 40
0.7187499999999997
 40
0.7187499999999997
 40
0.7499999999999997
 40
0.7499999999999997
 40
0.7812499999999998
 40
0.7812499999999998
 40
0.8124999999999998
 40
0.8124999999999998
 40
0.8749999999999998
 40
0.8749999999999998
 40
0.9374999999999999
 40
0.9374999999999999
 40
1.0
 40
1.0
 40
1.0
 40
1.0
 10
177.0131153615075
 20
107.2799687434773
 30
0.0
 10
176.0411615813455
 20
107.6224560885356
 30
0.0
 10
175.1294301004144
 20
108.0672853144235
 30
0.0
 10
173.8049256244936
 20
108.8857749142352
 30
0.0
 10
173.3704574349602
 20
109.1833929239178
 30
0.0
 10
172.5068629463517
 20
109.824343381798
 30
0.0
 10
172.0783467294327
 20
110.1674338936392
 30
0.0
 10
170.8199502910911
 20
111.229668580161
 30
0.0
 10
170.0049113010919
 20
111.9873924200603
 30
0.0
 10
168.7890201448774
 20
113.1734323958614
 30
0.0
 10
168.3912501138705
 20
113.5715444265611
 30
0.0
 10
167.6188099693193
 20
114.3675661056204
 30
0.0
 10
167.2428529832526
 20
114.7662882947901
 30
0.0
 10
166.5242045073066
 20
115.5721719033906
 30
0.0
 10
166.1884252585751
 20
115.9701905057635
 30
0.0
 10
165.7555906855028
 20
116.5659016546315
 30
0.0
 10
165.6251634367804
 20
116.7622026566478
 30
0.0
 10
165.4625259819344
 20
117.0502574639292
 30
0.0
 10
165.4137293091004
 20
117.1454016152893
 30
0.0
 10
165.3297193257351
 20
117.3341036263863
 30
0.0
 10
165.2946803121477
 20
117.4275609864745
 30
0.0
 10
165.2432142294663
 20
117.6078245667814
 30
0.0
 10
165.226470646494
 20
117.6952590627591
 30
0.0
 10
165.2142808509938
 20
117.8646033844042
 30
0.0
 10
165.2191651536834
 20
117.946808308295
 30
0.0
 10
165.2524210471246
 20
118.0991920569289
 30
0.0
 10
165.2806146615006
 20
118.1702354244002
 30
0.0
 10
165.3607171700635
 20
118.3027345503239
 30
0.0
 10
165.4133219826406
 20
118.364621728511
 30
0.0
 10
165.5380245752588
 20
118.4755898975986
 30
0.0
 10
165.6101684249948
 20
118.5251954301257
 30
0.0
 10
165.7718249388557
 20
118.6148273727533
 30
0.0
 10
165.861718447029
 20
118.654890037011
 30
0.0
 10
166.1466990028849
 20
118.760660213716
 30
0.0
 10
166.358953354276
 20
118.8136623190193
 30
0.0
 10
166.815350193323
 20
118.8989406167966
 30
0.0
 10
167.057553092932
 20
118.9305751235381
 30
0.0
 10
167.5530079479217
 20
118.9799890905865
 30
0.0
 10
167.807952678962
 20
118.9979445827261
 30
0.0
 10
168.5898237029818
 20
119.0396677630141
 30
0.0
 10
169.1351544528387
 20
119.0515992360361
 30
0.0
 10
170.227614508046
 20
119.0650190270444
 30
0.0
 10
170.7793489183236
 20
119.0663449196825
 30
0.0
 10
171.8920992742045
 20
119.0673963660209
 30
0.0
 10
172.453147886445
 20
119.0670118625035
 30
0.0
 10
173.0187005037224
 20
119.0670118625035
 30
0.0
  0
ELLIPSE
  5
D1
330
1F
100
AcDbEntity
  8
0
  6
Continuous
 62
     7
370
    25
100
AcDbEllipse
 10
186.5310277207
 20
112.5421096939
 30
0.0
 11
11.41453503595937
 21
6.524354107377619
 31
0.0
210
0.0
220
0.0
230
1.0
 40
0.0080429699
 41
3.155663119721821
 42
3.721777124854337
  0
LINE
  5
D2
330
1F
100
AcDbEntity
  8
0
  6
Continuous
 62
     7
370
    25
100
AcDbLine
 10
173.0187005037
 20
119.0670118625
 30
0.0
 11
176.4334323826
 21
119.0670118625
 31
0.0
  0
ELLIPSE
  5
D3
330
1F
100
AcDbEntity
  8
0
  6
Continuous
 62
     7
370
    25
100
AcDbEllipse
 10
182.8138330967
 20
110.2468340168
 30
0.0
 11
7.200832382850876
 21
4.112772023008489
 31
0.0
210
0.0
220
0.0
230
1.0
 40
0.0157159897
 41
1.661367650193632
 42
2.438974592252977
  0
SPLINE
  5
D4
330
1F
100
AcDbEntity
  8
0
  6
Continuous
 62
     7
370
    25
100
AcDbSpline
210
0.0
220
0.0
230
1.0
 70
     8
 71
     3
 72
     8
 73
     4
 74
     0
 42
0.000000001
 43
0.00000001
 40
0.0
 40
0.0
 40
0.0
 40
0.0
 40
1.0
 40
1.0
 40
1.0
 40
1.0
 10
177.2767273805327
 20
107.1812911660087
 30
0.0
 10
177.1885627687847
 20
107.2163091037707
 30
0.0
 10
177.1006598919681
 20
107.2491206780408
 30
0.0
 10
177.0131153615075
 20
107.2799687434774
 30
0.0
  0
SPLINE
  5
D5
330
1F
100
AcDbEntity
  8
0
  6
Continuous
 62
     7
370
    25
100
AcDbSpline
210
0.0
220
0.0
230
1.0
 70
     8
 71
     3
 72
    44
 73
    40
 74
     0
 42
0.000000001
 43
0.00000001
 40
0.0
 40
0.0
 40
0.0
 40
0.0
 40
0.1250000000000031
 40
0.1250000000000031
 40
0.1875000000000029
 40
0.1875000000000029
 40
0.2500000000000027
 40
0.2500000000000027
 40
0.3125000000000026
 40
0.3125000000000026
 40
0.3437500000000024
 40
0.3437500000000024
 40
0.3750000000000023
 40
0.3750000000000023
 40
0.4062500000000022
 40
0.4062500000000022
 40
0.4375000000000021
 40
0.4375000000000021
 40
0.5000000000000019
 40
0.5000000000000019
 40
0.5625000000000017
 40
0.5625000000000017
 40
0.5937500000000016
 40
0.5937500000000016
 40
0.6250000000000014
 40
0.6250000000000014
 40
0.6562500000000013
 40
0.6562500000000013
 40
0.6875000000000012
 40
0.6875000000000012
 40
0.7500000000000009
 40
0.7500000000000009
 40
0.8125000000000007
 40
0.8125000000000007
 40
0.8750000000000004
 40
0.8750000000000004
 40
0.9375000000000002
 40
0.9375000000000002
 40
1.0
 40
1.0
 40
1.0
 40
1.0
 10
176.011798438805
 20
116.0739139274208
 30
0.0
 10
175.5165874819292
 20
116.0349816499315
 30
0.0
 10
175.0335274894395
 20
115.9575450518592
 30
0.0
 10
174.3256630652921
 20
115.798838203895
 30
0.0
 10
174.0926799590716
 20
115.7380011586218
 30
0.0
 10
173.6344744085066
 20
115.5946914983072
 30
0.0
 10
173.4094147787983
 20
115.512087878385
 30
0.0
 10
172.9882015681443
 20
115.3204210879502
 30
0.0
 10
172.7887974218333
 20
115.2107053275042
 30
0.0
 10
172.5227003657843
 20
115.0109724963874
 30
0.0
 10
172.4410961751651
 20
114.9395175362426
 30
0.0
 10
172.2959512999824
 20
114.7830425694044
 30
0.0
 10
172.2324829782381
 20
114.6975669591989
 30
0.0
 10
172.134920071573
 20
114.5160407334238
 30
0.0
 10
172.0996208213485
 20
114.4181317875213
 30
0.0
 10
172.066031676199
 20
114.2094649191057
 30
0.0
 10
172.0682081287259
 20
114.1011905828885
 30
0.0
 10
172.1362517489754
 20
113.7712275050058
 30
0.0
 10
172.2638952720864
 20
113.555546055963
 30
0.0
 10
172.6122522401421
 20
113.1956727202862
 30
0.0
 10
172.826024941264
 20
113.0547099965761
 30
0.0
 10
173.1603785481932
 20
112.9064666690516
 30
0.0
 10
173.2762826661581
 20
112.8667761251791
 30
0.0
 10
173.5063833273777
 20
112.8081695607631
 30
0.0
 10
173.621511340096
 20
112.7887244164818
 30
0.0
 10
173.8525151451275
 20
112.7675615246911
 30
0.0
 10
173.9690228759984
 20
112.7660064950327
 30
0.0
 10
174.1967761791923
 20
112.779262677551
 30
0.0
 10
174.3087712673955
 20
112.7939260174514
 30
0.0
 10
174.6406108628651
 20
112.8593772048795
 30
0.0
 10
174.8584400500051
 20
112.9326893906462
 30
0.0
 10
175.2726355414568
 20
113.121593398428
 30
0.0
 10
175.4704657582231
 20
113.237032511321
 30
0.0
 10
175.8532498268489
 20
113.5028319031886
 30
0.0
 10
176.0385786049048
 20
113.653938165643
 30
0.0
 10
176.3887330813415
 20
113.9785297783874
 30
0.0
 10
176.5551439409408
 20
114.1528642953525
 30
0.0
 10
176.8705428501255
 20
114.5256629183143
 30
0.0
 10
177.0200413336138
 20
114.7235626976171
 30
0.0
 10
177.1511436986552
 20
114.9345686675706
 30
0.0
  0
SPLINE
  5
D6
330
1F
100
AcDbEntity
  8
0
  6
Continuous
 62
     7
370
    25
100
AcDbSpline
210
0.0
220
0.0
230
1.0
 70
     8
 71
     3
 72
     8
 73
     4
 74
     0
 42
0.000000001
 43
0.00000001
 40
0.0
 40
0.0
 40
0.0
 40
0.0
 40
1.0
 40
1.0
 40
1.0
 40
1.0
 10
177.0131153615075
 20
107.0350643700479
 30
0.0
 10
177.1024366885446
 20
107.0846748676125
 30
0.0
 10
177.190190777285
 20
107.1333473559836
 30
0.0
 10
177.2767273805195
 20
107.1812911660167
 30
0.0
  0
ELLIPSE
  5
D7
330
1F
100
AcDbEntity
  8
0
  6
Continuous
 62
     7
370
    25
100
AcDbEllipse
 10
172.7525719586
 20
113.4889718902
 30
0.0
 11
4.551523630361914
 21
2.225501992944416
 31
0.0
210
0.0
220
0.0
230
1.0
 40
0.2942842698
 41
5.844385568917312
 42
6.923311697450114
  0
SPLINE
  5
D8
330
1F
100
AcDbEntity
  8
0
  6
Continuous
 62
     7
370
    25
100
AcDbSpline
210
0.0
220
0.0
230
1.0
 70
     8
 71
     3
 72
    14
 73
    10
 74
     0
 42
0.000000001
 43
0.00000001
 40
0.0
 40
0.0
 40
0.0
 40
0.0
 40
0.25
 40
0.25
 40
0.5
 40
0.5
 40
0.75
 40
0.75
 40
1.0
 40
1.0
 40
1.0
 40
1.0
 10
177.9563389611482
 20
118.7195254424151
 30
0.0
 10
177.823366773997
 20
118.6962536254203
 30
0.0
 10
177.690312862625
 20
118.6865645090391
 30
0.0
 10
177.4240481401883
 20
118.6932632646644
 30
0.0
 10
177.2893380163291
 20
118.7100782610636
 30
0.0
 10
177.028446478932
 20
118.7696135510817
 30
0.0
 10
176.9023490838732
 20
118.8119178554864
 30
0.0
 10
176.6588361713364
 20
118.9215569127255
 30
0.0
 10
176.5413000408698
 20
118.989408870584
 30
0.0
 10
176.4334323826006
 20
119.0670118625029
 30
0.0
  0
LINE
  5
D9
330
1F
100
AcDbEntity
  8
0
  6
Continuous
 62
     7
370
    25
100
AcDbLine
 10
179.4325040815
 20
118.9778730358
 30
0.0
 11
177.9563389611
 21
118.7195254424
 31
0.0
  0
ARC
  5
DA
330
1F
100
AcDbEntity
  8
0
  6
Continuous
 62
     7
370
    25
100
AcDbCircle
 10
180.0417221098
 20
113.6756337499
 30
0.0
 40
0.9970109612305013
100
AcDbArc
 50
127.6650628758
 51
334.5063360329
  0
LINE
  5
DB
330
1F
100
AcDbEntity
  8
0
  6
Continuous
 62
     7
370
    25
100
AcDbLine
 10
185.5579471693
 20
114.0544182354
 30
0.0
 11
185.4689081276
 21
114.0388352753
 31
0.0
  0
LINE
  5
DC
330
1F
100
AcDbEntity
  8
0
  6
Continuous
 62
     7
370
    25
100
AcDbLine
 10
185.5579471693
 20
113.1077165638
 30
0.0
 11
185.5579471693
 21
114.0544182354
 31
0.0
  0
ELLIPSE
  5
DD
330
1F
100
AcDbEntity
  8
0
  6
Continuous
 62
     7
370
    25
100
AcDbEllipse
 10
183.5429275184
 20
113.1248663343
 30
0.0
 11
1.926027131246656
 21
-0.6012583205015289
 31
0.0
210
0.0
220
0.0
230
1.0
 40
0.9849664716
 41
5.542891170773156
 42
6.581492398852389
  0
LINE
  5
DE
330
1F
100
AcDbEntity
  8
0
  6
Continuous
 62
     7
370
    25
100
AcDbLine
 10
182.0981641285
 20
109.9875482377
 30
0.0
 11
184.5654010177
 21
111.4013904119
 31
0.0
  0
ARC
  5
DF
330
1F
100
AcDbEntity
  8
0
  6
Continuous
 62
     7
370
    25
100
AcDbCircle
 10
180.0312041695
 20
113.3950998423
 30
0.0
 40
0.9908057934270647
100
AcDbArc
 50
127.1753044953
 51
171.7815411457
  0
LINE
  5
E0
330
1F
100
AcDbEntity
  8
0
  6
Continuous
 62
     7
370
    25
100
AcDbLine
 10
185.4854920987
 20
114.0428470851
 30
0.0
 11
185.5579471693
 21
114.0544182354
 31
0.0
  0
ARC
  5
E1
330
1F
100
AcDbEntity
  8
0
  6
HIDDEN
 62
     7
370
    18
100
AcDbCircle
 10
182.82214508
 20
115.7814025154
 30
0.0
 40
0.2059937025939655
100
AcDbArc
 50
213.412790999
 51
9.2454227638
  0
LINE
  5
E2
330
1F
100
AcDbEntity
  8
0
  6
HIDDEN
 62
     7
370
    18
100
AcDbLine
 10
183.0254627605
 20
115.8144982291
 30
0.0
 11
183.0254627605
 21
115.8826292607
 31
0.0
  0
ARC
  5
E3
330
1F
100
AcDbEntity
  8
0
  6
HIDDEN
 62
     7
370
    18
100
AcDbCircle
 10
182.0108839511
 20
115.9227119843
 30
0.0
 40
0.2054661339019615
100
AcDbArc
 50
153.586073666
 51
309.7808367325
  0
LINE
  5
E4
330
1F
100
AcDbEntity
  8
0
  6
HIDDEN
 62
     7
370
    18
100
AcDbLine
 10
182.1423520121
 20
115.764811759
 30
0.0
 11
182.1423520121
 21
115.870938374
 31
0.0
  0
ARC
  5
E5
330
1F
100
AcDbEntity
  8
0
  6
HIDDEN
 62
     7
370
    18
100
AcDbCircle
 10
183.3829315138
 20
115.8443943815
 30
0.0
 40
0.3587167259575335
100
AcDbArc
 50
93.0438203667
 51
184.780687415
  0
LINE
  5
E6
330
1F
100
AcDbEntity
  8
0
  6
HIDDEN
 62
     7
370
    18
100
AcDbLine
 10
181.6574437466
 20
116.4990641906
 30
0.0
 11
181.6574437466
 21
116.6051908055
 31
0.0
  0
ARC
  5
E7
330
1F
100
AcDbEntity
  8
0
  6
HIDDEN
 62
     7
370
    18
100
AcDbCircle
 10
181.5076903542
 20
116.1743025637
 30
0.0
 40
0.3576257720309829
100
AcDbArc
 50
0.0961408877
 51
65.2447284641
  0
ARC
  5
E8
330
1F
100
AcDbEntity
  8
0
  6
HIDDEN
 62
     7
370
    18
100
AcDbCircle
 10
183.3532834999
 20
116.4069617374
 30
0.0
 40
0.2046314423161662
100
AcDbArc
 50
272.9693494632
 51
15.0311813971
  0
ARC
  5
E9
330
1F
100
AcDbEntity
  8
0
  6
HIDDEN
 62
     7
370
    18
100
AcDbCircle
 10
182.5405544951
 20
116.5397144938
 30
0.0
 40
1.700024015216019
100
AcDbArc
 50
0.3045466747
 51
179.6954533253
  0
ARC
  5
EA
330
1F
100
AcDbEntity
  8
0
  6
HIDDEN
 62
     7
370
    18
100
AcDbCircle
 10
181.7271842338
 20
116.6908324295
 30
0.0
 40
0.2040558575630537
100
AcDbArc
 50
164.8405424524
 51
250.0151566049
  0
ARC
  5
EB
330
1F
100
AcDbEntity
  8
0
  6
HIDDEN
 62
     7
370
    18
100
AcDbCircle
 10
183.5713710181
 20
116.9225636803
 30
0.0
 40
0.3555776524239498
100
AcDbArc
 50
153.1094342797
 51
179.9943618414
  0
LINE
  5
EC
330
1F
100
AcDbEntity
  8
0
  6
HIDDEN
 62
     7
370
    18
100
AcDbLine
 10
182.0556462297
 20
117.2830030922
 30
0.0
 11
182.0556462297
 21
117.3891297071
 31
0.0
  0
LINE
  5
ED
330
1F
100
AcDbEntity
  8
0
  6
HIDDEN
 62
     7
370
    18
100
AcDbLine
 10
182.0569917899
 20
117.2521169063
 30
0.0
 11
182.0556462297
 21
117.2830030922
 31
0.0
  0
ARC
  5
EE
330
1F
100
AcDbEntity
  8
0
  6
HIDDEN
 62
     7
370
    18
100
AcDbCircle
 10
183.0731288397
 20
117.175258695
 30
0.0
 40
0.2030814920171568
100
AcDbArc
 50
333.1030233864
 51
16.380246493
  0
LWPOLYLINE
  5
EF
330
1F
100
AcDbEntity
  8
0
  6
HIDDEN
 62
     7
370
    18
100
AcDbPolyline
 90
        3
 70
   128
 43
0.0
 10
182.0556462297
 20
117.2830030922
 10
182.0557924313
 20
117.3524110828
 10
182.0667093333
 20
117.3913227269
  0
ARC
  5
F0
330
1F
100
AcDbEntity
  8
0
  6
HIDDEN
 62
     7
370
    18
100
AcDbCircle
 10
182.3487858329
 20
115.4673599342
 30
0.0
 40
0.3620669972118157
100
AcDbArc
 50
33.6463336892
 51
124.7609410969
  0
ARC
  5
F1
330
1F
100
AcDbEntity
  8
0
  6
HIDDEN
 62
     7
370
    18
100
AcDbCircle
 10
182.5453565469
 20
116.4024349253
 30
0.0
 40
1.241742246863493
100
AcDbArc
 50
259.7076906004
 51
99.2347644623
  0
ARC
  5
F2
330
1F
100
AcDbEntity
  8
0
  6
HIDDEN
 62
     7
370
    18
100
AcDbCircle
 10
182.5309638198
 20
116.4020472076
 30
0.0
 40
1.238869365726777
100
AcDbArc
 50
111.0659560096
 51
260.3594312674
  0
CIRCLE
  5
F3
330
1F
100
AcDbEntity
  8
0
  6
HIDDEN
 62
     7
370
    18
100
AcDbCircle
 10
182.5370786937
 20
115.9920322559
 30
0.0
 40
1.247185828291378
  0
CIRCLE
  5
F4
330
1F
100
AcDbEntity
  8
0
  6
HIDDEN
 62
     7
370
    18
100
AcDbCircle
 10
182.5380383857
 20
115.9311398607
 30
0.0
 40
0.7728268439592678
  0
ARC
  5
F5
330
1F
100
AcDbEntity
  8
0
  6
HIDDEN
 62
     7
370
    18
100
AcDbCircle
 10
182.6075040815
 20
116.6563960084
 30
0.0
 40
1.92477718774897
100
AcDbArc
 50
178.9423386419
 51
1.057661346
  0
ARC
  5
F6
330
1F
100
AcDbEntity
  8
0
  6
HIDDEN
 62
     7
370
    18
100
AcDbCircle
 10
182.6075040815
 20
116.4393381451
 30
0.0
 40
1.400024240541949
100
AcDbArc
 50
0.3371643447
 51
179.6628356553
  0
ARC
  5
F7
330
1F
100
AcDbEntity
  8
0
  6
HIDDEN
 62
     7
370
    18
100
AcDbCircle
 10
185.3827510058
 20
119.7295445907
 30
0.0
 40
0.1075269722016116
100
AcDbArc
 50
0.2651500374
 51
100.156733195
  0
LINE
  5
F8
330
1F
100
AcDbEntity
  8
0
  6
HIDDEN
 62
     7
370
    18
100
AcDbLine
 10
185.3637895407
 20
119.8353865134
 30
0.0
 11
179.8137895407
 21
118.8640662163
 31
0.0
  0
ARC
  5
F9
330
1F
100
AcDbEntity
  8
0
  6
HIDDEN
 62
     7
370
    18
100
AcDbCircle
 10
179.8319322488
 20
118.7584112389
 30
0.0
 40
0.1072013624561969
100
AcDbArc
 50
99.7436065993
 51
179.8339617107
  0
LINE
  5
FA
330
1F
100
AcDbEntity
  8
0
  6
HIDDEN
 62
     7
370
    18
100
AcDbLine
 10
185.4902768266
 20
114.1364315397
 30
0.0
 11
185.4902768266
 21
119.7300421959
 31
0.0
  0
ARC
  5
FB
330
1F
100
AcDbEntity
  8
0
  6
HIDDEN
 62
     7
370
    18
100
AcDbCircle
 10
185.3830759142
 20
114.1367421996
 30
0.0
 40
0.1072013624564127
100
AcDbArc
 50
279.7436065994
 51
359.8339617106
  0
LINE
  5
FC
330
1F
100
AcDbEntity
  8
0
  6
HIDDEN
 62
     7
370
    18
100
AcDbLine
 10
179.7247313365
 20
118.7587218989
 30
0.0
 11
179.7247313365
 21
113.1651112426
 31
0.0
  0
LINE
  5
FD
330
1F
100
AcDbEntity
  8
0
  6
HIDDEN
 62
     7
370
    18
100
AcDbLine
 10
179.8512186223
 20
113.0597669252
 30
0.0
 11
185.4012186223
 21
114.0310872222
 31
0.0
  0
ARC
  5
FE
330
1F
100
AcDbEntity
  8
0
  6
HIDDEN
 62
     7
370
    18
100
AcDbCircle
 10
179.8322571573
 20
113.1656088478
 30
0.0
 40
0.1075269722016401
100
AcDbArc
 50
180.2651500374
 51
280.156733195
  0
ELLIPSE
  5
FF
330
1F
100
AcDbEntity
  8
0
  6
HIDDEN
 62
     7
370
    18
100
AcDbEllipse
 10
186.5310277207
 20
112.5421096939
 30
0.0
 11
11.41453503595937
 21
6.524354107377619
 31
0.0
210
0.0
220
0.0
230
1.0
 40
0.0080429699
 41
2.552213797429324
 42
3.155663119721821
  0
SPLINE
  5
100
330
1F
100
AcDbEntity
  8
0
  6
HIDDEN
 62
     7
370
    18
100
AcDbSpline
210
0.0
220
0.0
230
1.0
 70
     8
 71
     3
 72
    16
 73
    12
 74
     0
 42
0.000000001
 43
0.00000001
 40
0.0
 40
0.0
 40
0.0
 40
0.0
 40
0.2499999999999994
 40
0.2499999999999994
 40
0.4999999999999989
 40
0.4999999999999989
 40
0.7499999999999983
 40
0.7499999999999983
 40
0.874999999999999
 40
0.874999999999999
 40
1.0
 40
1.0
 40
1.0
 40
1.0
 10
176.4334323825995
 20
119.0670118625038
 30
0.0
 10
176.4139410040082
 20
119.0648185105957
 30
0.0
 10
176.4103193648358
 20
119.0260798405222
 30
0.0
 10
176.4337189912081
 20
118.8768527245985
 30
0.0
 10
176.4613541440893
 20
118.7644728844924
 30
0.0
 10
176.5496786697919
 20
118.4766169457907
 30
0.0
 10
176.6099891075326
 20
118.3010622716763
 30
0.0
 10
176.7331556056218
 20
117.9922304196059
 30
0.0
 10
176.7799145565307
 20
117.8813581627623
 30
0.0
 10
176.885817469012
 20
117.6490159934674
 30
0.0
 10
176.9450269166424
 20
117.5271116691835
 30
0.0
 10
177.0131153615074
 20
117.4003721604994
 30
0.0
  0
SPLINE
  5
101
330
1F
100
AcDbEntity
  8
0
  6
HIDDEN
 62
     7
370
    18
100
AcDbSpline
210
0.0
220
0.0
230
1.0
 70
     8
 71
     3
 72
    14
 73
    10
 74
     0
 42
0.000000001
 43
0.00000001
 40
0.0
 40
0.0
 40
0.0
 40
0.0
 40
0.25
 40
0.25
 40
0.5
 40
0.5
 40
0.75
 40
0.75
 40
1.0
 40
1.0
 40
1.0
 40
1.0
 10
170.7825040815118
 20
114.0062968295665
 30
0.0
 10
170.7942424332961
 20
113.9346498577432
 30
0.0
 10
170.8052542880306
 20
113.8349262295045
 30
0.0
 10
170.8223935688078
 20
113.5863662948831
 30
0.0
 10
170.82806842793
 20
113.4433222919873
 30
0.0
 10
170.8306150104426
 20
113.1236677620616
 30
0.0
 10
170.8273652147644
 20
112.953782516588
 30
0.0
 10
170.811278138142
 20
112.5957027647601
 30
0.0
 10
170.7985205958396
 20
112.4105721114653
 30
0.0
 10
170.7825040815119
 20
112.2236348613625
 30
0.0
  0
SPLINE
  5
102
330
1F
100
AcDbEntity
  8
0
  6
HIDDEN
 62
     7
370
    18
100
AcDbSpline
210
0.0
220
0.0
230
1.0
 70
     8
 71
     3
 72
    24
 73
    20
 74
     0
 42
0.000000001
 43
0.00000001
 40
0.0
 40
0.0
 40
0.0
 40
0.0
 40
0.062500000000002
 40
0.062500000000002
 40
0.125000000000004
 40
0.125000000000004
 40
0.2500000000000033
 40
0.2500000000000033
 40
0.3750000000000027
 40
0.3750000000000027
 40
0.5000000000000021
 40
0.5000000000000021
 40
0.6250000000000016
 40
0.6250000000000016
 40
0.750000000000001
 40
0.750000000000001
 40
0.8750000000000006
 40
0.8750000000000006
 40
1.0
 40
1.0
 40
1.0
 40
1.0
 10
169.9867730516322
 20
112.0521564068792
 30
0.0
 10
170.0367520371813
 20
112.098716554875
 30
0.0
 10
170.0813907212702
 20
112.1495028692759
 30
0.0
 10
170.1587347761656
 20
112.2609946356325
 30
0.0
 10
170.1917509788098
 20
112.3226610550893
 30
0.0
 10
170.2710267948684
 20
112.5149251080752
 30
0.0
 10
170.2993734797833
 20
112.6537705005298
 30
0.0
 10
170.3371479191293
 20
112.9245798757381
 30
0.0
 10
170.3470719495009
 20
113.0581859549527
 30
0.0
 10
170.3657670718615
 20
113.3089734893791
 30
0.0
 10
170.3741537053878
 20
113.4249388322777
 30
0.0
 10
170.3974253220076
 20
113.63452222512
 30
0.0
 10
170.4117278708669
 20
113.724288274653
 30
0.0
 10
170.4509241761897
 20
113.8743967454807
 30
0.0
 10
170.4755291552007
 20
113.9328992607265
 30
0.0
 10
170.5371925535268
 20
114.0136415670637
 30
0.0
 10
170.5747990203764
 20
114.0362313210284
 30
0.0
 10
170.6646260835303
 20
114.0459217288452
 30
0.0
 10
170.7176763024316
 20
114.0332512673389
 30
0.0
 10
170.7825040815121
 20
114.0062968295663
 30
0.0
  0
LWPOLYLINE
  5
103
330
1F
100
AcDbEntity
  8
0
  6
HIDDEN
 62
     7
370
    18
100
AcDbPolyline
 90
       13
 70
   128
 43
0.0
 10
169.9867730516
 20
112.0521564069
 10
170.1812776227
 20
111.7093218851
 10
170.3855550207
 20
111.4005086363
 10
170.5853295161
 20
111.1472977776
 10
170.76664006
 20
110.9673847066
 10
170.9168159395
 20
110.8733424754
 10
171.0253622573
 20
110.871743135
 10
171.0846933585
 20
110.9626984538
 10
171.0906629459
 20
111.1398521066
 10
171.0428538408
 20
111.3908238807
 10
170.9446071364
 20
111.6980748547
 10
170.8027887094
 20
112.0401330897
 10
170.6273094042
 20
112.3930941744
  0
SPLINE
  5
104
330
1F
100
AcDbEntity
  8
0
  6
HIDDEN
 62
     7
370
    18
100
AcDbSpline
210
0.0
220
0.0
230
1.0
 70
     8
 71
     3
 72
     8
 73
     4
 74
     0
 42
0.000000001
 43
0.00000001
 40
0.0
 40
0.0
 40
0.0
 40
0.0
 40
1.0
 40
1.0
 40
1.0
 40
1.0
 10
170.7825040815118
 20
112.2236348613626
 30
0.0
 10
170.7360330275113
 20
112.2842677730783
 30
0.0
 10
170.6850053180855
 20
112.3414738922439
 30
0.0
 10
170.6273094042176
 20
112.3930941743746
 30
0.0
  0
LINE
  5
105
330
1F
100
AcDbEntity
  8
0
  6
HIDDEN
 62
     7
370
    18
100
AcDbLine
 10
92.0815421872
 20
111.0421096939
 30
0.0
 11
92.0815421872
 21
114.0421096939
 31
0.0
  0
ELLIPSE
  5
106
330
1F
100
AcDbEntity
  8
0
  6
HIDDEN
 62
     7
370
    18
100
AcDbEllipse
 10
170.1265996385
 20
112.5421096939
 30
0.0
 11
-0.8432844743393845
 21
1.488793876297891
 31
0.0
210
0.0
220
0.0
230
1.0
 40
0.2170209118
 41
4.265340356121554
 42
4.49056951528132
  0
LINE
  5
107
330
1F
100
AcDbEntity
  8
0
  6
HIDDEN
 62
     7
370
    18
100
AcDbLine
 10
170.7825040815
 20
112.0635204149
 30
0.0
 11
170.7825040815
 21
111.0963146659
 31
0.0
  0
LINE
  5
108
330
1F
100
AcDbEntity
  8
0
  6
HIDDEN
 62
     7
370
    18
100
AcDbLine
 10
170.7825040815
 20
111.0421096939
 30
0.0
 11
170.7825040815
 21
111.0963146659
 31
0.0
  0
ELLIPSE
  5
109
330
1F
100
AcDbEntity
  8
0
  6
HIDDEN
 62
     7
370
    18
100
AcDbEllipse
 10
170.1265996385
 20
112.5421096939
 30
0.0
 11
-0.8432844743393845
 21
1.488793876297891
 31
0.0
210
0.0
220
0.0
230
1.0
 40
0.2170209118
 41
1.781226328314949
 42
2.749627846333428
  0
LINE
  5
10A
330
1F
100
AcDbEntity
  8
0
  6
HIDDEN
 62
     7
370
    18
100
AcDbLine
 10
170.7825040815
 20
114.0062968296
 30
0.0
 11
170.7825040815
 21
112.2236348614
 31
0.0
  0
SPLINE
  5
10B
330
1F
100
AcDbEntity
  8
0
  6
HIDDEN
 62
     7
370
    18
100
AcDbSpline
210
0.0
220
0.0
230
1.0
 70
     8
 71
     3
 72
    12
 73
     8
 74
     0
 42
0.000000001
 43
0.00000001
 40
0.0
 40
0.0
 40
0.0
 40
0.0
 40
0.5000000000000002
 40
0.5000000000000002
 40
0.7500000000000001
 40
0.7500000000000001
 40
1.0
 40
1.0
 40
1.0
 40
1.0
 10
170.7825040815118
 20
112.0635204148564
 30
0.0
 10
170.8406239250916
 20
111.8214514704584
 30
0.0
 10
170.8754353645831
 20
111.6101953762661
 30
0.0
 10
170.875722129012
 20
111.3619613008631
 30
0.0
 10
170.867105729704
 20
111.2918065580796
 30
0.0
 10
170.8350160831523
 20
111.1773074388468
 30
0.0
 10
170.8116063726445
 20
111.1321412291237
 30
0.0
 10
170.7825040815118
 20
111.0963146659313
 30
0.0
  0
LINE
  5
10C
330
1F
100
AcDbEntity
  8
0
  6
HIDDEN
 62
     7
370
    18
100
AcDbLine
 10
179.4570609937
 20
118.9821708065
 30
0.0
 11
179.4325040815
 21
118.9778730358
 31
0.0
  0
LINE
  5
10D
330
1F
100
AcDbEntity
  8
0
  6
HIDDEN
 62
     7
370
    18
100
AcDbLine
 10
179.4570609937
 20
114.4829475008
 30
0.0
 11
179.4570609937
 21
118.9821708065
 31
0.0
  0
LINE
  5
10E
330
1F
100
AcDbEntity
  8
0
  6
HIDDEN
 62
     7
370
    18
100
AcDbLine
 10
179.4325040815
 20
114.4648639133
 30
0.0
 11
179.4570609937
 21
114.4829475008
 31
0.0
  0
LINE
  5
10F
330
1F
100
AcDbEntity
  8
0
  6
HIDDEN
 62
     7
370
    18
100
AcDbLine
 10
185.4689081276
 20
114.0388352753
 30
0.0
 11
180.9416569918
 21
113.2465089838
 31
0.0
  0
ELLIPSE
  5
110
330
1F
100
AcDbEntity
  8
0
  6
HIDDEN
 62
     7
370
    18
100
AcDbEllipse
 10
180.0405544951
 20
113.0977388666
 30
0.0
 11
-0.8522273676245788
 21
1.365146943584079
 31
0.0
210
0.0
220
0.0
230
1.0
 40
0.3832346354
 41
5.786556005580803
 42
5.885981024141479
  0
LINE
  5
111
330
1F
100
AcDbEntity
  8
0
  6
HIDDEN
 62
     7
370
    18
100
AcDbLine
 10
179.5405544951
 20
114.4535821242
 30
0.0
 11
179.5405544951
 21
114.2707781091
 31
0.0
  0
ARC
  5
112
330
1F
100
AcDbEntity
  8
0
  6
HIDDEN
 62
     7
370
    18
100
AcDbCircle
 10
180.0414581346
 20
113.4083724085
 30
0.0
 40
0.9973204341913092
100
AcDbArc
 50
340.2729488964
 51
120.1489343361
  0
LINE
  5
113
330
1F
100
AcDbEntity
  8
0
  6
HIDDEN
 62
     7
370
    18
100
AcDbLine
 10
180.9802471159
 20
113.0717371503
 30
0.0
 11
180.9802471159
 21
113.2545411654
 31
0.0
  0
ELLIPSE
  5
114
330
1F
100
AcDbEntity
  8
0
  6
HIDDEN
 62
     7
370
    18
100
AcDbEllipse
 10
180.0405544951
 20
113.0977388666
 30
0.0
 11
0.9999968134907249
 21
0.172391347952626
 31
0.0
210
0.0
220
0.0
230
1.0
 40
0.0146439008
 41
5.832169953743484
 42
5.931594972303741
  0
ARC
  5
115
330
1F
100
AcDbEntity
  8
0
  6
HIDDEN
 62
     7
370
    18
100
AcDbCircle
 10
180.0411366827
 20
113.3983244418
 30
0.0
 40
0.9942871577465437
100
AcDbArc
 50
269.966451447
 51
127.7436467869
  0
ARC
  5
116
330
1F
100
AcDbEntity
  8
0
  6
HIDDEN
 62
     7
370
    18
100
AcDbCircle
 10
180.0357725728
 20
113.3988295715
 30
0.0
 40
0.9948036102114974
100
AcDbArc
 50
172.0317619171
 51
270.2754161922
  0
LINE
  5
117
330
1F
100
AcDbEntity
  8
0
  6
HIDDEN
 62
     7
370
    18
100
AcDbLine
 10
180.9802471159
 20
113.2545411654
 30
0.0
 11
185.4744536679
 21
114.0410842362
 31
0.0
  0
LINE
  5
118
330
1F
100
AcDbEntity
  8
0
  6
HIDDEN
 62
     7
370
    18
100
AcDbLine
 10
185.4744536679
 20
114.0410842362
 30
0.0
 11
185.4854920987
 21
114.0428470851
 31
0.0
  0
ELLIPSE
  5
119
330
1F
100
AcDbEntity
  8
0
  6
HIDDEN
 62
     7
370
    18
100
AcDbEllipse
 10
179.551326055
 20
111.3858793749
 30
0.0
 11
-0.09261395388338656
 21
7.596323900586341
 31
0.0
210
0.0
220
0.0
230
1.0
 40
0.1206129779
 41
6.194141553271389
 42
6.2849875678328
  0
LINE
  5
11A
330
1F
100
AcDbEntity
  8
0
  6
HIDDEN
 62
     7
370
    18
100
AcDbLine
 10
179.5405544951
 20
118.9531016836
 30
0.0
 11
179.5405544951
 21
114.4535821242
 31
0.0
  0
ELLIPSE
  5
11B
330
1F
100
AcDbEntity
  8
0
  6
HIDDEN
 62
     7
370
    18
100
AcDbEllipse
 10
185.4636821081
 20
112.4206165709
 30
0.0
 11
0.1315567706777188
 21
7.635001784082532
 31
0.0
210
0.0
220
0.0
230
1.0
 40
0.1193763597
 41
0.3327836098019148
 42
1.245688531159455
  0
LINE
  5
11C
330
1F
100
AcDbEntity
  8
0
  6
HIDDEN
 62
     7
370
    18
100
AcDbLine
 10
185.2902768266
 20
113.826046941
 30
0.0
 11
185.4744536679
 21
114.0410842362
 31
0.0
  0
CIRCLE
  5
11D
330
1F
100
AcDbEntity
  8
0
  6
HIDDEN
 62
     7
370
    18
100
AcDbCircle
 10
182.5388091856
 20
116.3754170086
 30
0.0
 40
1.346971411612548
  0
LINE
  5
11E
330
1F
100
AcDbEntity
  8
0
  6
HIDDEN
 62
     7
370
    18
100
AcDbLine
 10
180.9802471159
 20
113.0717371503
 30
0.0
 11
185.2902768266
 21
113.826046941
 31
0.0
  0
LINE
  5
11F
330
1F
100
AcDbEntity
  8
0
  6
HIDDEN
 62
     7
370
    18
100
AcDbLine
 10
179.5405544951
 20
118.635592857
 30
0.0
 11
185.2902768266
 21
119.6418670917
 31
0.0
  0
LINE
  5
120
330
1F
100
AcDbEntity
  8
0
  6
HIDDEN
 62
     7
370
    18
100
AcDbLine
 10
185.2902768266
 20
113.826046941
 30
0.0
 11
185.2902768266
 21
119.6418670917
 31
0.0
  0
ARC
  5
121
330
1F
100
AcDbEntity
  8
0
  6
HIDDEN
 62
     7
370
    18
100
AcDbCircle
 10
182.5429445313
 20
116.3306243774
 30
0.0
 40
1.019210489325876
100
AcDbArc
 50
269.8656419696
 51
122.2773043655
  0
ARC
  5
122
330
1F
100
AcDbEntity
  8
0
  6
HIDDEN
 62
     7
370
    18
100
AcDbCircle
 10
182.5332098039
 20
116.3280008784
 30
0.0
 40
1.016610719969046
100
AcDbArc
 50
137.0527342213
 51
270.4139475021
  0
SPLINE
  5
123
330
1F
100
AcDbEntity
  8
0
  6
HIDDEN
 62
     7
370
    18
100
AcDbSpline
210
0.0
220
0.0
230
1.0
 70
    11
 71
     3
 72
    42
 73
    38
 74
     0
 42
0.000000001
 43
0.00000001
 40
0.0
 40
0.0
 40
0.0
 40
0.0
 40
0.0312499999999992
 40
0.0312499999999992
 40
0.0624999999999984
 40
0.0624999999999984
 40
0.1250000000000018
 40
0.1250000000000018
 40
0.1875000000000051
 40
0.1875000000000051
 40
0.2500000000000085
 40
0.2500000000000085
 40
0.3125000000000118
 40
0.3125000000000118
 40
0.3750000000000152
 40
0.3750000000000152
 40
0.4375000000000185
 40
0.4375000000000185
 40
0.4687500000000203
 40
0.4687500000000203
 40
0.5000000000000221
 40
0.5000000000000221
 40
0.5625000000000202
 40
0.5625000000000202
 40
0.6250000000000182
 40
0.6250000000000182
 40
0.750000000000014
 40
0.750000000000014
 40
0.8125000000000118
 40
0.8125000000000118
 40
0.8750000000000094
 40
0.8750000000000094
 40
0.9062500000000083
 40
0.9062500000000083
 40
0.9375000000000072
 40
0.9375000000000072
 40
1.0
 40
1.0
 40
1.0
 40
1.0
 10
182.5405544951064
 20
114.7203599614816
 30
0.0
 10
182.4632501869318
 20
114.7212505342875
 30
0.0
 10
182.3881104973882
 20
114.7312524275046
 30
0.0
 10
182.2418798925619
 20
114.7679236976944
 30
0.0
 10
182.1705439638809
 20
114.7950002443532
 30
0.0
 10
181.9731865287172
 20
114.8958739736704
 30
0.0
 10
181.8595355934139
 20
114.9911268250634
 30
0.0
 10
181.6815747640759
 20
115.2102503213497
 30
0.0
 10
181.6169278279491
 20
115.3330757444437
 30
0.0
 10
181.5327888820555
 20
115.5898308922159
 30
0.0
 10
181.5140355990648
 20
115.7197359527627
 30
0.0
 10
181.5172588364531
 20
115.9813530655772
 30
0.0
 10
181.539121601351
 20
116.1079607250163
 30
0.0
 10
181.6235589836115
 20
116.3539128504026
 30
0.0
 10
181.685637491176
 20
116.4711488580872
 30
0.0
 10
181.8561824684633
 20
116.6839641622104
 30
0.0
 10
181.9662972557238
 20
116.7801435843143
 30
0.0
 10
182.1658574655806
 20
116.8826303234147
 30
0.0
 10
182.2386260134693
 20
116.9098091670981
 30
0.0
 10
182.3884365266204
 20
116.9446147865985
 30
0.0
 10
182.4655469337932
 20
116.9523650083954
 30
0.0
 10
182.693210877784
 20
116.9467264277233
 30
0.0
 10
182.8340370664078
 20
116.9052414922867
 30
0.0
 10
183.0765945696108
 20
116.7796838222468
 30
0.0
 10
183.178980517255
 20
116.696438202327
 30
0.0
 10
183.4357292532657
 20
116.4075388322411
 30
0.0
 10
183.5405198993643
 20
116.1613152333288
 30
0.0
 10
183.572262161376
 20
115.7665836889525
 30
0.0
 10
183.5612176650506
 20
115.6273823638403
 30
0.0
 10
183.4873246386512
 20
115.3578159554852
 30
0.0
 10
183.4231866066401
 20
115.2242378091441
 30
0.0
 10
183.287855939443
 20
115.050514801266
 30
0.0
 10
183.2350779993574
 20
114.995593985701
 30
0.0
 10
183.1186249033543
 20
114.8992036937387
 30
0.0
 10
183.0554185265526
 20
114.8577189597534
 30
0.0
 10
182.8499445613151
 20
114.754896168822
 30
0.0
 10
182.6951631114555
 20
114.7185788158697
 30
0.0
 10
182.5405544951064
 20
114.7203599614816
 30
0.0
  0
SPLINE
  5
124
330
1F
100
AcDbEntity
  8
0
  6
HIDDEN
 62
     7
370
    18
100
AcDbSpline
210
0.0
220
0.0
230
1.0
 70
     8
 71
     3
 72
     8
 73
     4
 74
     0
 42
0.000000001
 43
0.00000001
 40
0.0
 40
0.0
 40
0.0
 40
0.0
 40
1.0
 40
1.0
 40
1.0
 40
1.0
 10
177.0131153615075
 20
117.4003721604994
 30
0.0
 10
177.1711880261395
 20
117.1061364514662
 30
0.0
 10
177.3504155930803
 20
116.7959000845629
 30
0.0
 10
177.5340598945083
 20
116.4713129396502
 30
0.0
  0
SPLINE
  5
125
330
1F
100
AcDbEntity
  8
0
  6
HIDDEN
 62
     7
370
    18
100
AcDbSpline
210
0.0
220
0.0
230
1.0
 70
     8
 71
     3
 72
     8
 73
     4
 74
     0
 42
0.000000001
 43
0.00000001
 40
0.0
 40
0.0
 40
0.0
 40
0.0
 40
1.0
 40
1.0
 40
1.0
 40
1.0
 10
177.5340598945083
 20
107.4763704046368
 30
0.0
 10
177.3651944526557
 20
107.3766988688183
 30
0.0
 10
177.1922520785807
 20
107.274805150629
 30
0.0
 10
177.0131153615075
 20
107.1695351291169
 30
0.0
  0
SPLINE
  5
126
330
1F
100
AcDbEntity
  8
0
  6
HIDDEN
 62
     7
370
    18
100
AcDbSpline
210
0.0
220
0.0
230
1.0
 70
     8
 71
     3
 72
    12
 73
     8
 74
     0
 42
0.000000001
 43
0.00000001
 40
0.0
 40
0.0
 40
0.0
 40
0.0
 40
0.500000000000006
 40
0.500000000000006
 40
0.750000000000003
 40
0.750000000000003
 40
1.0
 40
1.0
 40
1.0
 40
1.0
 10
178.3896425946672
 20
115.5018644488376
 30
0.0
 10
178.8326135356581
 20
115.3656418117433
 30
0.0
 10
179.2596083241797
 20
115.197167948213
 30
0.0
 10
179.871438457218
 20
114.8785808799996
 30
0.0
 10
180.0706110696997
 20
114.7613607284903
 30
0.0
 10
180.4588263795251
 20
114.5014163698419
 30
0.0
 10
180.647379627471
 20
114.3587079814321
 30
0.0
 10
180.825810513717
 20
114.2063187360767
 30
0.0
  0
SPLINE
  5
127
330
1F
100
AcDbEntity
  8
0
  6
HIDDEN
 62
     7
370
    18
100
AcDbSpline
210
0.0
220
0.0
230
1.0
 70
     8
 71
     3
 72
    14
 73
    10
 74
     0
 42
0.000000001
 43
0.00000001
 40
0.0
 40
0.0
 40
0.0
 40
0.0
 40
0.5
 40
0.5
 40
0.75
 40
0.75
 40
0.875
 40
0.875
 40
1.0
 40
1.0
 40
1.0
 40
1.0
 10
177.5340598945083
 20
116.4713129396502
 30
0.0
 10
177.6341515998929
 20
116.2944031165434
 30
0.0
 10
177.7449760857696
 20
116.1145677136578
 30
0.0
 10
177.9446268239576
 20
115.8540956606176
 30
0.0
 10
178.016249096902
 20
115.7692717175697
 30
0.0
 10
178.1399224409566
 20
115.6520302938524
 30
0.0
 10
178.1836960976884
 20
115.6148854813544
 30
0.0
 10
178.2790127443204
 20
115.5491972439263
 30
0.0
 10
178.331218855299
 20
115.5198309453032
 30
0.0
 10
178.3896425946672
 20
115.5018644488377
 30
0.0
  0
ELLIPSE
  5
128
330
1F
100
AcDbEntity
  8
0
  6
HIDDEN
 62
     7
370
    18
100
AcDbEllipse
 10
191.3955000482
 20
115.3223207257
 30
0.0
 11
15.7699572088303
 21
9.013765741823519
 31
0.0
210
0.0
220
0.0
230
1.0
 40
0.0076507844
 41
2.549894307737948
 42
2.640119776714974
  0
LINE
  5
129
330
1F
100
AcDbEntity
  8
0
  6
HIDDEN
 62
     7
370
    18
100
AcDbLine
 10
178.2680556705
 20
111.7255850931
 30
0.0
 11
178.2680556705
 21
107.9082404878
 31
0.0
  0
SPLINE
  5
12A
330
1F
100
AcDbEntity
  8
0
  6
HIDDEN
 62
     7
370
    18
100
AcDbSpline
210
0.0
220
0.0
230
1.0
 70
     8
 71
     3
 72
    10
 73
     6
 74
     0
 42
0.000000001
 43
0.00000001
 40
0.0
 40
0.0
 40
0.0
 40
0.0
 40
0.5
 40
0.5
 40
1.0
 40
1.0
 40
1.0
 40
1.0
 10
184.3689850960587
 20
111.7255850930554
 30
0.0
 10
184.2819410786806
 20
111.5784701112668
 30
0.0
 10
184.1783921766881
 20
111.4458497709861
 30
0.0
 10
183.9387282095485
 20
111.2084374921502
 30
0.0
 10
183.8022440594583
 20
111.1041574838063
 30
0.0
 10
183.6541796676482
 20
111.0191336352767
 30
0.0
  0
ELLIPSE
  5
12B
330
1F
100
AcDbEntity
  8
0
  6
HIDDEN
 62
     7
370
    18
100
AcDbEllipse
 10
186.5310277207
 20
112.5421096939
 30
0.0
 11
11.72067199094946
 21
6.69933678458851
 31
0.0
210
0.0
220
0.0
230
1.0
 40
0.0080429699
 41
1.814181126346618
 42
2.348599541021615
  0
SPLINE
  5
12C
330
1F
100
AcDbEntity
  8
0
  6
HIDDEN
 62
     7
370
    18
100
AcDbSpline
210
0.0
220
0.0
230
1.0
 70
     8
 71
     3
 72
    18
 73
    14
 74
     0
 42
0.000000001
 43
0.00000001
 40
0.0
 40
0.0
 40
0.0
 40
0.0
 40
0.1250000000000022
 40
0.1250000000000022
 40
0.2500000000000043
 40
0.2500000000000043
 40
0.3750000000000065
 40
0.3750000000000065
 40
0.5000000000000087
 40
0.5000000000000087
 40
0.7500000000000043
 40
0.7500000000000043
 40
1.0
 40
1.0
 40
1.0
 40
1.0
 10
178.2680556705184
 20
111.7255850930554
 30
0.0
 10
178.2680556705184
 20
111.8829227997508
 30
0.0
 10
178.3002249144616
 20
112.0355697999175
 30
0.0
 10
178.4142271181944
 20
112.3273117332198
 30
0.0
 10
178.4929525953425
 20
112.4608456386042
 30
0.0
 10
178.6775831698939
 20
112.7124784075848
 30
0.0
 10
178.7825498426535
 20
112.8287762649741
 30
0.0
 10
179.0042425460736
 20
113.0452649774168
 30
0.0
 10
179.1218153191851
 20
113.1462875761463
 30
0.0
 10
179.4882276703955
 20
113.4346529070279
 30
0.0
 10
179.7493339927649
 20
113.6065559876488
 30
0.0
 10
180.2795034744042
 20
113.9230470209691
 30
0.0
 10
180.5507585194607
 20
114.0685909068087
 30
0.0
 10
180.825810513717
 20
114.2063187360767
 30
0.0
  0
LINE
  5
12D
330
1F
100
AcDbEntity
  8
0
  6
HIDDEN
 62
     7
370
    18
100
AcDbLine
 10
180.8258105137
 20
114.2063187361
 30
0.0
 11
184.6420085921
 21
114.8742017363
 31
0.0
  0
LINE
  5
12E
330
1F
100
AcDbEntity
  8
0
  6
HIDDEN
 62
     7
370
    18
100
AcDbLine
 10
184.6420085921
 20
114.8742017363
 30
0.0
 11
184.6420085921
 21
112.7234809134
 31
0.0
  0
ELLIPSE
  5
12F
330
1F
100
AcDbEntity
  8
0
  6
HIDDEN
 62
     7
370
    18
100
AcDbEllipse
 10
182.6269889412
 20
112.7406306838
 30
0.0
 11
1.926027131246655
 21
-0.601258320501543
 31
0.0
210
0.0
220
0.0
230
1.0
 40
0.9849664716
 41
6.054862348269754
 42
6.581492398852395
  0
LINE
  5
130
330
1F
100
AcDbEntity
  8
0
  6
HIDDEN
 62
     7
370
    18
100
AcDbLine
 10
183.0283790932
 20
115.780215506
 30
0.0
 11
183.0283790932
 21
115.8869713065
 31
0.0
  0
LINE
  5
131
330
1F
100
AcDbEntity
  8
0
  6
HIDDEN
 62
     7
370
    18
100
AcDbLine
 10
181.8048975047
 20
116.0314876943
 30
0.0
 11
181.8048975047
 21
115.9222350623
 31
0.0
  0
LINE
  5
132
330
1F
100
AcDbEntity
  8
0
  6
HIDDEN
 62
     7
370
    18
100
AcDbLine
 10
183.5580360836
 20
116.4067311043
 30
0.0
 11
183.5580360836
 21
116.5159837363
 31
0.0
  0
LINE
  5
133
330
1F
100
AcDbEntity
  8
0
  6
HIDDEN
 62
     7
370
    18
100
AcDbLine
 10
181.5230729066
 20
116.800022849
 30
0.0
 11
181.5230729066
 21
116.690770217
 31
0.0
  0
LINE
  5
134
330
1F
100
AcDbEntity
  8
0
  6
HIDDEN
 62
     7
370
    18
100
AcDbLine
 10
183.2762114855
 20
117.175266259
 30
0.0
 11
183.2762114855
 21
117.284518891
 31
0.0
  0
LINE
  5
135
330
1F
100
AcDbEntity
  8
0
  6
HIDDEN
 62
     7
370
    18
100
AcDbLine
 10
182.052729897
 20
117.4240416158
 30
0.0
 11
182.052729897
 21
117.3172858153
 31
0.0
  0
SPLINE
  5
136
330
1F
100
AcDbEntity
  8
0
  6
HIDDEN
 62
     7
370
    18
100
AcDbSpline
210
0.0
220
0.0
230
1.0
 70
     8
 71
     3
 72
    17
 73
    13
 74
     0
 42
0.000000001
 43
0.00000001
 40
0.0
 40
0.0
 40
0.0
 40
0.0
 40
0.050427389855706
 40
0.1582015803255074
 40
0.2662604375528997
 40
0.374405485312747
 40
0.4826634802296962
 40
0.5910293875507138
 40
0.6994636589427178
 40
0.8078865340903677
 40
0.9162379820615981
 40
1.0
 40
1.0
 40
1.0
 40
1.0
 10
182.3368655282191
 20
115.2850765694803
 30
0.0
 10
182.2880158183993
 20
115.295576424562
 30
0.0
 10
182.1347637600627
 20
115.328516730849
 30
0.0
 10
181.8934477913269
 20
115.443808539524
 30
0.0
 10
181.6482172087762
 20
115.6536577732507
 30
0.0
 10
181.4698349827761
 20
115.9228067844399
 30
0.0
 10
181.371748783886
 20
116.2297043079816
 30
0.0
 10
181.361573274243
 20
116.5515617265841
 30
0.0
 10
181.4398406773447
 20
116.8649259347975
 30
0.0
 10
181.6023308452236
 20
117.142962650949
 30
0.0
 10
181.8138288754935
 20
117.3587558898245
 30
0.0
 10
181.9860219388038
 20
117.4410916460625
 30
0.0
 10
182.0610986045106
 20
117.4769902701299
 30
0.0
  0
ARC
  5
137
330
1F
100
AcDbEntity
  8
0
  6
HIDDEN
 62
     7
370
    18
100
AcDbCircle
 10
182.5479226007
 20
116.4244409699
 30
0.0
 40
1.158747739934345
100
AcDbArc
 50
259.5054276173
 51
97.5010459251
  0
LINE
  5
138
330
1F
100
AcDbEntity
  8
0
  6
HIDDEN
 62
     7
370
    18
100
AcDbLine
 10
181.2905544951
 20
116.4025074486
 30
0.0
 11
181.2905544951
 21
115.9851049474
 31
0.0
  0
LINE
  5
139
330
1F
100
AcDbEntity
  8
0
  6
HIDDEN
 62
     7
370
    18
100
AcDbLine
 10
183.7905544951
 20
115.9851049474
 30
0.0
 11
183.7905544951
 21
116.4025074486
 31
0.0
  0
LINE
  5
13A
330
1F
100
AcDbEntity
  8
0
  6
HIDDEN
 62
     7
370
    18
100
AcDbLine
 10
180.6825040815
 20
116.7376257566
 30
0.0
 11
180.6825040815
 21
116.646223749
 31
0.0
  0
LINE
  5
13B
330
1F
100
AcDbEntity
  8
0
  6
HIDDEN
 62
     7
370
    18
100
AcDbLine
 10
184.5325040815
 20
116.646223749
 30
0.0
 11
184.5325040815
 21
116.7376257566
 31
0.0
  0
SPLINE
  5
13C
330
1F
100
AcDbEntity
  8
0
  6
HIDDEN
 62
     7
370
    18
100
AcDbSpline
210
0.0
220
0.0
230
1.0
 70
     8
 71
     3
 72
    20
 73
    16
 74
     0
 42
0.000000001
 43
0.00000001
 40
0.0
 40
0.0
 40
0.0
 40
0.0
 40
0.0723675111288049
 40
0.1525638533343297
 40
0.2325284824756458
 40
0.3121052187816504
 40
0.3912502348790663
 40
0.470026646191656
 40
0.548574235305751
 40
0.6270686277557552
 40
0.7056425428013908
 40
0.7844716941203796
 40
0.8636845062897155
 40
0.943327343393446
 40
1.0
 40
1.0
 40
1.0
 40
1.0
 10
184.0033956195731
 20
116.5276477419813
 30
0.0
 10
183.9999702871691
 20
116.423133086468
 30
0.0
 10
183.9927490645188
 20
116.2027972157671
 30
0.0
 10
183.8739836011141
 20
115.8830555444994
 30
0.0
 10
183.6791534126758
 20
115.5913724039547
 30
0.0
 10
183.4147283158928
 20
115.3572398639973
 30
0.0
 10
183.1004736978927
 20
115.195447342182
 30
0.0
 10
182.7557969476964
 20
115.1158472936115
 30
0.0
 10
182.4026189851948
 20
115.122920452812
 30
0.0
 10
182.0628295953615
 20
115.2157186157536
 30
0.0
 10
181.7573972054313
 20
115.3880803941383
 30
0.0
 10
181.5043704316688
 20
115.6292402012494
 30
0.0
 10
181.3208369366159
 20
115.9245122408447
 30
0.0
 10
181.2223113093169
 20
116.2239989731837
 30
0.0
 10
181.2118523533374
 20
116.4202219114619
 30
0.0
 10
181.2075040815119
 20
116.501800864057
 30
0.0
  0
LINE
  5
13D
330
1F
100
AcDbEntity
  8
0
  6
HIDDEN
 62
     7
370
    18
100
AcDbLine
 10
181.2075040815
 20
116.5018008641
 30
0.0
 11
181.2075040815
 21
116.4475767193
 31
0.0
  0
LINE
  5
13E
330
1F
100
AcDbEntity
  8
0
  6
HIDDEN
 62
     7
370
    18
100
AcDbLine
 10
184.0075040815
 20
116.4475767193
 30
0.0
 11
184.0075040815
 21
116.5018008641
 31
0.0
  0
LINE
  5
13F
330
1F
100
AcDbEntity
  8
0
  6
HIDDEN
 62
     7
370
    18
100
AcDbLine
 10
172.9893413809
 20
115.3137195012
 30
0.0
 11
170.5638650849
 21
114.0240708784
 31
0.0
  0
LINE
  5
140
330
1F
100
AcDbEntity
  8
0
  6
HIDDEN
 62
     7
370
    18
100
AcDbLine
 10
171.0253284432
 20
110.8717251463
 30
0.0
 11
175.2607522458
 21
113.1237399292
 31
0.0
  0
LINE
  5
141
330
1F
100
AcDbEntity
  8
0
  6
HIDDEN
 62
     7
370
    18
100
AcDbLine
 10
90.7825040815
 20
110.2921096939
 30
0.0
 11
92.0815421872
 21
111.0421096939
 31
0.0
  0
LINE
  5
142
330
1F
100
AcDbEntity
  8
0
  6
HIDDEN
 62
     7
370
    18
100
AcDbLine
 10
92.0815421872
 20
114.0421096939
 30
0.0
 11
90.7825040815
 21
114.7921096939
 31
0.0
  0
LINE
  5
143
330
1F
100
AcDbEntity
  8
0
  6
HIDDEN
 62
     7
370
    18
100
AcDbLine
 10
92.0815421872
 20
111.0421096939
 30
0.0
 11
170.7825040815
 21
111.0421096939
 31
0.0
  0
LINE
  5
144
330
1F
100
AcDbEntity
  8
0
  6
HIDDEN
 62
     7
370
    18
100
AcDbLine
 10
170.6487145393
 20
114.0421096939
 30
0.0
 11
92.0815421872
 21
114.0421096939
 31
0.0
  0
LINE
  5
145
330
1F
100
AcDbEntity
  8
0
  6
HIDDEN
 62
     7
370
    18
100
AcDbLine
 10
179.0405544951
 20
113.6768830959
 30
0.0
 11
179.0405544951
 21
113.3965836061
 31
0.0
  0
LINE
  5
146
330
1F
100
AcDbEntity
  8
0
  6
HIDDEN
 62
     7
370
    18
100
AcDbLine
 10
181.0405544951
 20
113.3965836061
 30
0.0
 11
181.0405544951
 21
113.4112079273
 31
0.0
  0
LINE
  5
147
330
1F
100
AcDbEntity
  8
0
  6
HIDDEN
 62
     7
370
    18
100
AcDbLine
 10
170.7825040815
 20
111.0421096939
 30
0.0
 11
170.8480949167
 21
111.2223190325
 31
0.0
  0
LINE
  5
148
330
1F
100
AcDbEntity
  8
0
  6
HIDDEN
 62
     7
370
    18
100
AcDbLine
 10
181.5155544951
 20
116.3287764958
 30
0.0
 11
181.5155544951
 21
115.835562953
 31
0.0
  0
LINE
  5
149
330
1F
100
AcDbEntity
  8
0
  6
HIDDEN
 62
     7
370
    18
100
AcDbLine
 10
183.5655544951
 20
115.8024642302
 30
0.0
 11
183.5655544951
 21
116.3287764958
 31
0.0
  0
LINE
  5
14A
330
1F
100
AcDbEntity
  8
VERMASSUNG
100
AcDbLine
 10
128.7825040815
 20
120.2964649322
 30
0.0
 11
128.7825040815
 21
104.7877544555
 31
0.0
  0
POINT
  5
14B
330
1F
100
AcDbEntity
  8
VERMASSUNG
100
AcDbPoint
 10
185.3825040815
 20
120.4171096939
 30
0.0
  0
POINT
  5
14C
330
1F
100
AcDbEntity
  8
VERMASSUNG
  6
Continuous
 62
     7
370
    18
100
AcDbPoint
 10
185.3825040815
 20
104.6671096939
 30
0.0
  0
DIMENSION
  5
14D
330
1F
100
AcDbEntity
  8
VERMASSUNG
100
AcDbDimension
  2
_D
 10
128.7825040815
 20
124.3928002532
 30
0.0
 11
157.2825040815
 21
124.3928002532
 31
0.0
 70
   160
  1
<>
 71
     2
 42
-1.0
  3
SLDDIMSTYLE0
100
AcDbAlignedDimension
 13
185.7825040815
 23
120.0200912332
 33
0.0
 14
128.7825040815
 24
120.2964649322
 34
0.0
100
AcDbRotatedDimension
  0
DIMENSION
  5
158
330
1F
100
AcDbEntity
  8
VERMASSUNG
100
AcDbDimension
  2
_D_1
 10
193.8875942028
 20
104.6671096939
 30
0.0
 11
193.8875942028
 21
104.0895854505
 31
0.0
 70
   160
  1
%%c<>-21.1
 71
     2
 42
-1.0
  3
SLDDIMSTYLE1
100
AcDbAlignedDimension
 13
185.3825040815
 23
120.4171096939
 33
0.0
 14
185.3825040815
 24
104.6671096939
 34
0.0
 50
90.0
100
AcDbRotatedDimension
  0
DIMENSION
  5
164
330
1F
100
AcDbEntity
  8
VERMASSUNG
100
AcDbDimension
  2
_D_2
 10
80.7825040815
 20
104.5421096939
 30
0.0
 11
80.7825040815
 21
112.5421096939
 31
0.0
 70
   160
  1
%%c<>
 71
     2
 42
-1.0
  3
SLDDIMSTYLE0
100
AcDbAlignedDimension
 13
102.0825040815
 23
120.5421096939
 33
0.0
 14
92.1575040815
 24
104.5421096939
 34
0.0
 50
90.0
100
AcDbRotatedDimension
  0
DIMENSION
  5
16F
330
1F
100
AcDbEntity
  8
VERMASSUNG
100
AcDbDimension
  2
_D_3
 10
185.7825040815
 20
130.5421096939
 30
0.0
 11
138.2825040815
 21
130.5421096939
 31
0.0
 70
   160
  1
<>
 71
     2
 42
-1.0
  3
SLDDIMSTYLE0
100
AcDbAlignedDimension
 13
90.7825040815
 23
118.7421096939
 33
0.0
 14
185.7825040815
 24
120.0200912332
 34
0.0
100
AcDbRotatedDimension
  0
LINE
  5
179
330
1F
100
AcDbEntity
  8
VERMASSUNG
  6
CENTERX2
370
    18
100
AcDbLine
 10
187.5454249556
 20
112.5421096939
 30
0.0
 11
89.1866711555
 21
112.5421096939
 31
0.0
  0
OLE2FRAME
  5
17A
330
1F
100
AcDbEntity
  8
0
100
AcDbOle2Frame
 70
     2
  3
Paintbrush-Bild
 10
13.8511154363
 20
38.264191557
 30
0.0
 11
51.6290888628
 21
31.9806341108
 31
0.0
 71
     2
 72
     0
 73
     1
 90
    12928
310
80552BED0767C5B32B40DDAF6807D121434000000000000000006FFBDDFB85D0
310
4940DDAF6807D121434000000000000000006FFBDDFB85D04940416F4BD60AFB
310
3F4000000000000000002BED0767C5B32B40416F4BD60AFB3F40000000000000
310
0000000000000100000000010000010000000100000000000100000000320000
310
D0CF11E0A1B11AE1000000000000000000000000000000003E000300FEFF0900
310
0600000000000000000000000100000001000000000000000010000002000000
310
01000000FEFFFFFF0000000000000000FFFFFFFFFFFFFFFFFFFFFFFFFFFFFFFF
310
FFFFFFFFFFFFFFFFFFFFFFFFFFFFFFFFFFFFFFFFFFFFFFFFFFFFFFFFFFFFFFFF
310
FFFFFFFFFFFFFFFFFFFFFFFFFFFFFFFFFFFFFFFFFFFFFFFFFFFFFFFFFFFFFFFF
310
FFFFFFFFFFFFFFFFFFFFFFFFFFFFFFFFFFFFFFFFFFFFFFFFFFFFFFFFFFFFFFFF
310
FFFFFFFFFFFFFFFFFFFFFFFFFFFFFFFFFFFFFFFFFFFFFFFFFFFFFFFFFFFFFFFF
310
FFFFFFFFFFFFFFFFFFFFFFFFFFFFFFFFFFFFFFFFFFFFFFFFFFFFFFFFFFFFFFFF
310
FFFFFFFFFFFFFFFFFFFFFFFFFFFFFFFFFFFFFFFFFFFFFFFFFFFFFFFFFFFFFFFF
310
FFFFFFFFFFFFFFFFFFFFFFFFFFFFFFFFFFFFFFFFFFFFFFFFFFFFFFFFFFFFFFFF
310
FFFFFFFFFFFFFFFFFFFFFFFFFFFFFFFFFFFFFFFFFFFFFFFFFFFFFFFFFFFFFFFF
310
FFFFFFFFFFFFFFFFFFFFFFFFFFFFFFFFFFFFFFFFFFFFFFFFFFFFFFFFFFFFFFFF
310
FFFFFFFFFFFFFFFFFFFFFFFFFFFFFFFFFFFFFFFFFFFFFFFFFFFFFFFFFFFFFFFF
310
FFFFFFFFFFFFFFFFFFFFFFFFFFFFFFFFFFFFFFFFFFFFFFFFFFFFFFFFFFFFFFFF
310
FFFFFFFFFFFFFFFFFFFFFFFFFFFFFFFFFFFFFFFFFFFFFFFFFFFFFFFFFFFFFFFF
310
FFFFFFFFFFFFFFFFFFFFFFFFFFFFFFFFFFFFFFFFFFFFFFFFFFFFFFFFFFFFFFFF
310
FDFFFFFFFEFFFFFFFEFFFFFFFEFFFFFF05000000060000000700000008000000
310
090000000A0000000B0000000C0000000D0000000E0000000F00000010000000
310
11000000120000001300000014000000150000001600000017000000FEFFFFFF
310
FFFFFFFFFFFFFFFFFFFFFFFFFFFFFFFFFFFFFFFFFFFFFFFFFFFFFFFFFFFFFFFF
310
FFFFFFFFFFFFFFFFFFFFFFFFFFFFFFFFFFFFFFFFFFFFFFFFFFFFFFFFFFFFFFFF
310
FFFFFFFFFFFFFFFFFFFFFFFFFFFFFFFFFFFFFFFFFFFFFFFFFFFFFFFFFFFFFFFF
310
FFFFFFFFFFFFFFFFFFFFFFFFFFFFFFFFFFFFFFFFFFFFFFFFFFFFFFFFFFFFFFFF
310
FFFFFFFFFFFFFFFFFFFFFFFFFFFFFFFFFFFFFFFFFFFFFFFFFFFFFFFFFFFFFFFF
310
FFFFFFFFFFFFFFFFFFFFFFFFFFFFFFFFFFFFFFFFFFFFFFFFFFFFFFFFFFFFFFFF
310
FFFFFFFFFFFFFFFFFFFFFFFFFFFFFFFFFFFFFFFFFFFFFFFFFFFFFFFFFFFFFFFF
310
FFFFFFFFFFFFFFFFFFFFFFFFFFFFFFFFFFFFFFFFFFFFFFFFFFFFFFFFFFFFFFFF
310
FFFFFFFFFFFFFFFFFFFFFFFFFFFFFFFFFFFFFFFFFFFFFFFFFFFFFFFFFFFFFFFF
310
FFFFFFFFFFFFFFFFFFFFFFFFFFFFFFFFFFFFFFFFFFFFFFFFFFFFFFFFFFFFFFFF
310
FFFFFFFFFFFFFFFFFFFFFFFFFFFFFFFFFFFFFFFFFFFFFFFFFFFFFFFFFFFFFFFF
310
FFFFFFFFFFFFFFFFFFFFFFFFFFFFFFFFFFFFFFFFFFFFFFFFFFFFFFFFFFFFFFFF
310
FFFFFFFFFFFFFFFFFFFFFFFFFFFFFFFFFFFFFFFFFFFFFFFFFFFFFFFFFFFFFFFF
310
52006F006F007400200045006E00740072007900000000000000000000000000
310
0000000000000000000000000000000000000000000000000000000000000000
310
16000500FFFFFFFFFFFFFFFF020000000A00030000000000C000000000000046
310
0000000000000000000000008000ECDCF060D60103000000C000000000000000
310
01004F006C006500000000000000000000000000000000000000000000000000
310
0000000000000000000000000000000000000000000000000000000000000000
310
0A000200FFFFFFFFFFFFFFFFFFFFFFFF00000000000000000000000000000000
310
0000000000000000000000000000000000000000000000001400000000000000
310
010043006F006D0070004F0062006A0000000000000000000000000000000000
310
0000000000000000000000000000000000000000000000000000000000000000
310
120002010100000003000000FFFFFFFF00000000000000000000000000000000
310
0000000000000000000000000000000000000000010000004D00000000000000
310
01004F006C006500310030004E00610074006900760065000000000000000000
310
0000000000000000000000000000000000000000000000000000000000000000
310
1A000200FFFFFFFFFFFFFFFFFFFFFFFF00000000000000000000000000000000
310
0000000000000000000000000000000000000000040000002426000000000000
310
FEFFFFFF02000000FEFFFFFFFFFFFFFFFFFFFFFFFFFFFFFFFFFFFFFFFFFFFFFF
310
FFFFFFFFFFFFFFFFFFFFFFFFFFFFFFFFFFFFFFFFFFFFFFFFFFFFFFFFFFFFFFFF
310
FFFFFFFFFFFFFFFFFFFFFFFFFFFFFFFFFFFFFFFFFFFFFFFFFFFFFFFFFFFFFFFF
310
FFFFFFFFFFFFFFFFFFFFFFFFFFFFFFFFFFFFFFFFFFFFFFFFFFFFFFFFFFFFFFFF
310
FFFFFFFFFFFFFFFFFFFFFFFFFFFFFFFFFFFFFFFFFFFFFFFFFFFFFFFFFFFFFFFF
310
FFFFFFFFFFFFFFFFFFFFFFFFFFFFFFFFFFFFFFFFFFFFFFFFFFFFFFFFFFFFFFFF
310
FFFFFFFFFFFFFFFFFFFFFFFFFFFFFFFFFFFFFFFFFFFFFFFFFFFFFFFFFFFFFFFF
310
FFFFFFFFFFFFFFFFFFFFFFFFFFFFFFFFFFFFFFFFFFFFFFFFFFFFFFFFFFFFFFFF
310
FFFFFFFFFFFFFFFFFFFFFFFFFFFFFFFFFFFFFFFFFFFFFFFFFFFFFFFFFFFFFFFF
310
FFFFFFFFFFFFFFFFFFFFFFFFFFFFFFFFFFFFFFFFFFFFFFFFFFFFFFFFFFFFFFFF
310
FFFFFFFFFFFFFFFFFFFFFFFFFFFFFFFFFFFFFFFFFFFFFFFFFFFFFFFFFFFFFFFF
310
FFFFFFFFFFFFFFFFFFFFFFFFFFFFFFFFFFFFFFFFFFFFFFFFFFFFFFFFFFFFFFFF
310
FFFFFFFFFFFFFFFFFFFFFFFFFFFFFFFFFFFFFFFFFFFFFFFFFFFFFFFFFFFFFFFF
310
FFFFFFFFFFFFFFFFFFFFFFFFFFFFFFFFFFFFFFFFFFFFFFFFFFFFFFFFFFFFFFFF
310
FFFFFFFFFFFFFFFFFFFFFFFFFFFFFFFFFFFFFFFFFFFFFFFFFFFFFFFFFFFFFFFF
310
FFFFFFFFFFFFFFFFFFFFFFFFFFFFFFFFFFFFFFFFFFFFFFFFFFFFFFFFFFFFFFFF
310
0100000200000000000000000000000000000000000000000000000000000000
310
0000000000000000000000000000000000000000000000000000000000000000
310
0100FEFF030A0000FFFFFFFF0A00030000000000C00000000000004607000000
310
5042727573680007000000504272757368000700000050427275736800F439B2
310
7100000000000000000000000000000000000000000000000000000000000000
310
0000000000000000000000000000000000000000000000000000000000000000
310
0000000000000000000000000000000000000000000000000000000000000000
310
0000000000000000000000000000000000000000000000000000000000000000
310
0000000000000000000000000000000000000000000000000000000000000000
310
0000000000000000000000000000000000000000000000000000000000000000
310
0000000000000000000000000000000000000000000000000000000000000000
310
0000000000000000000000000000000000000000000000000000000000000000
310
0000000000000000000000000000000000000000000000000000000000000000
310
0000000000000000000000000000000000000000000000000000000000000000
310
0000000000000000000000000000000000000000000000000000000000000000
310
0000000000000000000000000000000000000000000000000000000000000000
310
20260000424D0E260000000000003E00000028000000B40200006E0000000100
310
01000000000000000000130B0000130B00000200000002000000000000FFFFFF
310
FFFFFFFFFFFFFFFFFFFFFFFFFFFFFFFFFFFFFFFFFFFFFFFFFFFFFFFFFFFFFFFF
310
FFFFFFFFFFFFFFFFFFFFFFFFFFFFFFFFFFFFFFFFFFFFFFFFFFFFFFFFFFFFFFFF
310
FFFFFFFFFFFFFFFFFFFFFFFFFFFFFFFFFFFFFFFFFFFFFFFFF000FFFFFFFFFFFF
310
FFFFFFFFFFFFFFFFFFFFFFFFFFFFFFFFFFFFFFFFFFFFFFFFFFFFFFFFFFFFFFFF
310
FFFFFFFFFFFFFFFFFFFFFFFFFFFFFFFFFFFFFFFFFFFFFFFFFFFFFFFFFFFFFFFF
310
FFFFFFFFFFFFFFFFFFFFFFFFFFFFFFFFF000FFFFFFFFFFFFFFFFFFFFFFFFFFFF
310
FFFFFFFFFFFFFFFFFFFFFFFFFFFFFFFFFFFFFFFFFFFFFFFFFFFFFFFFFFFFFFFF
310
FFFFFFFFFFFFFFFFFFFFFFFFFFFFFFFFFFFFFFFFFFFFFFFFFFFFFFFFFFFFFFFF
310
FFFFFFFFFFFFFFFFF000FFFFFFFFFFFFFFFFFFFFFFFFFFFFFFFFFFFFFFFFFFFF
310
FFFFFFFFFFFFFFFFFFFFFFFFFFFFFFFFFFFFFFFFFFFFFFFFFFFFFFFFFFFFFFFF
310
FFFFFFFFFFFFFFFFFFFFFFFFFFFFFFFFFFFFFFFFFFFFFFFFFFFFFFFFFFFFFFFF
310
F000FFFFFFFFFFFFFFFFFFFFFFFFFFFFFFFFFFFFFFFFFFFFFFFFFFFFFFFFFFFF
310
FFFFFFFFFFFFFFFFFFFFFFFFFFFFFFFFFFFFFFFFFFFFFFFFFFFFFFFFFFFFFFFF
310
FFFFFFFFFFFFFFFFFFFFFFFFFFFFFFFFFFFFFFFFFFFFFFFFF000FFFFFFFFFFFF
310
FFFFFFFFFFFFFFFFFFFFFFFFFFFFFFFFFFFFFFFFFFFFFFFFFFFFFFFFFFFFFFFF
310
FFFFFFFFFFFFFFFFFFFFFFFFFFFFFFFFFFFFFFFFFFFFFFFFFFFFFFFFFFFFFFFF
310
FFFFFFFFFFFFFFFFFFFFFFFFFFFFFFFFF000FFFFFFFFFFFFFFFFFFFFFFFFFFFF
310
FFFFFFFFFFFFFFFFFFFFFFFFFFFFFFFFFFFFFFFFFFFFFFFFFFFFFFFFFFFFFFFF
310
FFFFFFFFFFFFFFFFFFFFFFFFFFFFFFFFFFFFFFFFFFFFFFFFFFFFFFFFFFFFFFFF
310
FFFFFFFFFFFFFFFFF000FFFFFFFFFFFFFFFFFFFFFFFFFFFFFFFFFFFFFFFFFFFF
310
FFFFFFFFFFFFFFFFFFFFFFFFFFFFFFFFFFFFFFFFFFFFFFFFFFFFFFFFFFFFFFFF
310
FFFFFFFFFFFFFFFFFFFFFFFFFFFFFFFFFFFFFFFFFFFFFFFFFFFFFFFFFFFFFFFF
310
F000FFFFFFFFFFFFFFFFFFFFFFFFFFFFFFFFFFFFFFFFFFFFFFFFFFFFFFFFFFFF
310
FFFFFFFFFFFFFFFFFFFFFFFFFFFFFFFFFFFFFFFFFFFFFFFFFFFFFFFFFFFFFFFF
310
FFFFFFFFFFFFFFFFFFFFFFFFFFFFFFFFFFFFFFFFFFFFFFFFF000FFFFFFFFFFFF
310
FFFFFFFFFFFFFFFFFFFFFFFFFFFFFFFFFFFFFFFFFFFFFFFFFFFFFFFFFFFFFFFF
310
FFFFFFFFFFFFFFFFFFFFFFFFFFFFFFFFFFFFFFFFFFFFFFFFFFFFFFFFFFFFFFFF
310
FFFFFFFFFFFFFFFFFFFFFFFFFFFFFFFFF000FFFFFFFFFFFFFFFFFFFFFFFFFFFF
310
FFFFFFFFFFFFFFFFFFFFFFFFFFFFFFFFFFFFFFFFFFFFFFFFFFFFFFFFFFFFFFFF
310
FFFFFFFFFFFFFFFFFFFFFFFFFFFFFFFFFFFFFFFFFFFFFFFFFFFFFFFFFFFFFFFF
310
FFFFFFFFFFFFFFFFF000FFFFFFFFFFFFFFFFFFFFFFFFFFFFFFFFFFFFFFFFFFFF
310
FFFFFFFFFFFFFFFFFFFFFFFFFFFFFFFFFFFFFFFFFFFFFFFFFFFFFFFFFFFFFFFF
310
FFFFFFFFFFFFFFFFFFFFFFFFFFFFFFFFFFFFFFFFFFFFFFFFFFFFFFFFFFFFFFFF
310
F000FFFFFFFFFFFFFFFFFFFFFFFFFFFFFFFFFFFFFFFFFFFFFFFFFFFFFFFFFFFF
310
FFFFFFFFFFFFFFFFFFFFFFFFFFFFFFFFFFFFFFFFFFFFFFFFFFFFFFFFFFFFFFFF
310
FFFFFFFFFFFFFFFFFFFFFFFFFFFFFFFFFFFFFFFFFFFFFFFFF000FFFFFFFFFFFF
310
FFFFFFFFFFFFFFFFFFFFFFFFFFFFFFFFFFFFFFFFFFFFFFFFFFFFFFFFFFFFFFFF
310
FFFFFFFFFFFFFFFFFFFFFFFFFFFFFFFFFFFFFFFFFFFFFFFFFFFFFFFFFFFFFFFF
310
FFFFFFFFFFFFFFFFFFFFFFFFFFFFFFFFF000FFFFFFFFFFFFFFFFFFFFFFFFFFFF
310
FFFFFFFFFFFFFFFFFFFFFFFFFFFFFFFFFFFFFFFFFFFFFFFFFFFFFFFFFFFFFFFF
310
FFFFFFFFFFFFFFFFFFFFFFFFFFFFFFFFFFFFFFFFFFFFFFFFFFFFFFFFFFFFFFFF
310
FFFFFFFFFFFFFFFFF000FFFFFFFFFFFFFFFFFFFFFFFFFFFFFFFFFFFFFFFFFFFF
310
FFFFFFFFFFFFFFFFFFFFFFFFFFFFFFFFFFFFFFFFFFFFFFFFFFFFFFFFFFFFFFFF
310
FFFFFFFFFFFFFFFFFFFFFFFFFFFFFFFFFFFFFFFFFFFFFFFFFFFFFFFFFFFFFFFF
310
F000FFFFFFFFFFFFFFFFFFFFFFFFFFFFFFFFFFFFFFFFFFFFFFFFFFFFFFFFFFFF
310
FFFFFFFFFFFFFFFFFFFFFFFFFFFFFFFFFFFFFFFFFFFFFFFFFFFFFFFFFFFFFFFF
310
FFFFFFFFFFFFFFFFFFFFFFFFFFFFFFFFFFFFFFFFFFFFFFFFF000FFFFFFFFFFFF
310
FFFFFFFFFFFFFFFFFFFFFFFFFFFFFFFFFFFFFFFFFFFFFFFFFFFFFFFFFFFFFFFF
310
FFFFFFFFFFFFFFFFFFFFFFFFFFFFFFFFFFFFFFFFFFFFFFFFFFFFFFFFFFFFFFFF
310
FFFFFFFFFFFFFFFFFFFFFFFFFFFFFFFFF000FFFFFFFFFFFFFFFFFFFFFFFFFFFF
310
FFFFFFFFFFFFFFFFFFFFFFFFFFFFFFFFFFFFFFFFFFFFFFFFFFFFFFFFFFFFFFFF
310
FFFFFFFFFFFFFFFFFFFFFFFFFFFFFFFFFFFFFFFFFFFFFFFFFFFFFFFFFFFFFFFF
310
FFFFFFFFFFFFFFFFF000FFFFF80003FFFFFFFFFFFFFFFFFFFFFFFFFFFFFFFFFF
310
FFFFF00007FFFFFFFFFF00007FFFFFF800000000000000007FFFFFFFFFFFFFFF
310
FFFFFFFC001FFFFFFFFFFFFFFC001FFFFFFFFFFFFFFFFFFFFFFFFFFE0007FFFF
310
F000FFFF8000007FFFFFFFF8000FFFFFC0007FFFFF80007FFFFF0000007FFFFF
310
FFF8000007FFFFF800000000000000007FFFFFF0001FFFFFFFFFFFC00001FFFF
310
FFFFFFFFC00001FFFFFFFF000000000003FFFFE000007FFFF000FFFE0000000F
310
FFFFFFF0000FFFFF80007FFFFF80007FFFFC0000001FFFFFFFC0000001FFFFF8
310
00000000000000007FFFFFF0001FFFFFFFFFFE0000003FFFFFFFFFFE0000003F
310
FFFFFF000000000003FFFF0000000FFFF000FFF800000003FFFFFFF00007FFFF
310
80007FFFFF80007FFFF000000007FFFFFF000000003FFFF80000000000000000
310
7FFFFFF0001FFFFFFFFFF80000000FFFFFFFFFF80000000FFFFFFF0000000000
310
03FFFC00000003FFF000FFE000000000FFFFFFF00007FFFF80003FFFFF80007F
310
FFC000000001FFFFFC000000001FFFF800000000000000007FFFFFF0001FFFFF
310
FFFFE000000003FFFFFFFFE000000003FFFFFF000000000003FFF000000000FF
310
F000FF80000000007FFFFFF00007FFFF80003FFFFF80007FFF8000000000FFFF
310
F80000000007FFF800000000000000007FFFFFF0001FFFFFFFFFC000000001FF
310
FFFFFFC000000001FFFFFF000000000003FFC0000000007FF000FF0000000000
310
3FFFFFE00007FFFF00003FFFFF80007FFE00000000003FFFF00000000003FFF8
310
00000000000000007FFFFFF0001FFFFFFFFF8000000000FFFFFFFF8000000000
310
FFFFFF000000000003FF80000000003FF000FE00000000001FFFFFE00003FFFF
310
00003FFFFF80007FFC00000000001FFFE00000000001FFF8000001FFFE000000
310
7FFFFFF0001FFFFFFFFE00000000003FFFFFFE00000000003FFFFF0000000000
310
03FF00000000001FF000FC00000000000FFFFFE00003FFFF00001FFFFF80007F
310
F800000000001FFFC00000000000FFF8000001FFFE0000007FFFFFF0001FFFFF
310
FFFC00000000001FFFFFFC00000000001FFFFF000000000003FE00000000000F
310
F000F8000000000007FFFFE00003FFFF00001FFFFF80007FF800000000000FFF
310
800000000000FFF8000001FFFE0000007FFFFFF0001FFFFFFFF800000000000F
310
FFFFF800000000000FFFFF000000000003FC000000000007F000F80000000000
310
03FFFFC00003FFFE00001FFFFF80007FF0000000000007FF0000000000007FF8
310
000001FFFE0000007FFFFFF0001FFFFFFFF0000000000007FFFFF00000000000
310
07FFFF000000000003F8000000000003F000F0000000000003FFFFC00001FFFE
310
00001FFFFF80007FE0000000000007FE0000000000003FF8000001FFFE000000
310
7FFFFFF0001FFFFFFFF0000000000007FFFFF0000000000007FFFF0000000000
310
03F800001F800003F000E00001FFF00001FFFFC00001FFFE00000FFFFF80007F
310
E00001FFE00003FE00001FFF00003FF8000001FFFE0000007FFFFFF0001FFFFF
310
FFE000003E000003FFFFE000003E000003FFFF000000000003F00001FFF80001
310
F000E00007FFFC0001FFFFC00001FFFE00000FFFFF80007FC0000FFFFC0003FC
310
0000FFFFC0001FF8000001FFFE0000007FFFFFF0001FFFFFFFC00003FFE00001
310
FFFFC00003FFE00001FFFF0001FFFFFFFFF00007FFFE0001F000E0000FFFFF00
310
00FFFF800001FFFC00000FFFFF80007FC0001FFFFE0001FC0001FFFFE0001FF8
310
000001FFFE0000007FFFFFF0001FFFFFFF80000FFFF80000FFFF80000FFFF800
310
00FFFF0003FFFFFFFFE0000FFFFF8000F000C0003FFFFF8000FFFF800000FFFC
310
000007FFFF80007F80003FFFFF0001FC0003FFFFF0001FF8000001FFFE000000
310
7FFFFFF0001FFFFFFF80003FFFFE0000FFFF80003FFFFE0000FFFF0003FFFFFF
310
FFE0003FFFFF8000F000C0003FFFFF8000FFFF800000FFFC000007FFFF80007F
310
80007FFFFF8001F80007FFFFF8000FF8000001FFFE0000007FFFFFF0001FFFFF
310
FF00007FFFFF00007FFF00007FFFFF00007FFF0003FFFFFFFFE0003FFFFFC000
310
F000C0007FFFFFC000FFFF000000FFFC000007FFFF80007F8000FFFFFF8000F8
310
000FFFFFF8000FF8000001FFFE0000007FFFFFF0001FFFFFFF0000FFFFFF8000
310
7FFF0000FFFFFF80007FFF0003FFFFFFFFC0007FFFFFC00070008000FFFFFFC0
310
00FFFF000000FFF8000007FFFF80007F8000FFFFFF8000F8000FFFFFF8000FF8
310
000001FFFE0000007FFFFFF0001FFFFFFE0001FFFFFFC0003FFE0001FFFFFFC0
310
003FFF0003FFFFFFFFC0007FFFFFE00070008000FFFFFFC0007FFF0000007FF8
310
000003FFFF80007F0001FFFFFF8000F8000FFFFFF8000FF8000001FFFE000000
310
7FFFFFF0001FFFFFFE0001FFFFFFC0003FFE0001FFFFFFC0003FFF0003FFFFFF
310
FFC000FFFFFFE00070008000FFFFFFC0007FFF0000007FF8000003FFFF80007F
310
0001FFFFFF8000F8001FFFFFF8000FF8000001FFFE0000007FFFFFF0001FFFFF
310
FE0003FFFFFFE0003FFE0003FFFFFFE0003FFF0003FFFFFFFFC000FFFFFFE000
310
70008000FFFFFFC0007FFE0000007FF8000003FFFF80007F0001FFFFFF8000F0
310
001FFFFFF8000FF8000001FFFE0000007FFFFFF0001FFFFFFC0003FFFFFFE000
310
1FFC0003FFFFFFE0001FFF0003FFFFFFFFC000FFFFFFC00070008000FFFFFF80
310
007FFE0000007FF0000003FFFF80007F0001FFFFFF0000F0001FFFFFF8000FF8
310
000001FFFE0000007FFFFFF0001FFFFFFC0007FFFFFFF0001FFC0007FFFFFFF0
310
001FFF0003FFFFFFFFC000FFFFFFC00070008001FFFFFF0000FFFE0000003FF0
310
000001FFFF80007F0001FFFFFF0000F8001FFFFFF0000FF8000001FFFE000000
310
7FFFFFF0001FFFFFFC0007FFFFFFF0001FFC0007FFFFFFF0001FFF0003FFFFFF
310
FFC001FFFFFF80007000FFFFFFFFFE0000FFFE0008003FF0008001FFFF80007F
310
FFFFFFFFFC0000FFFFFFFFFFE0000FF8000001FFFE0000007FFFFFF0001FFFFF
310
F8000FFFFFFFF8000FF8000FFFFFFFF8000FFF0003FFFFFFFFFFFFFFFFFF0000
310
7000FFFFFFFFFC0000FFFC0008003FF0008001FFFF80007FFFFFFFFFF80001FF
310
FFFFFFFF80000FF8000001FFFE0000007FFFFFF0001FFFFFF8000FFFFFFFF800
310
0FF8000FFFFFFFF8000FFF0003FFFFFFFFFFFFFFFFFE0000F000FFFFFFFFE000
310
00FFFC000C003FE000C001FFFF80007FFFFFFFFFC00001FFFFFFFFFE00001FF8
310
000001FFFE0000007FFFFFF0001FFFFFF8000FFFFFFFF8000FF8000FFFFFFFF8
310
000FFF0003FFFFFFFFFFFFFFFFF00000F000FFFFFFFE000001FFFC000C001FE0
310
00C000FFFF80007FFFFFFFFE000001FFFFFFFFE000001FF80FFFFFFFFFFFFFC0
310
7FFFFFF0001FFFFFF8000FFFFFFFF8000FF8000FFFFFFFF8000FFF0003FFFFFF
310
FFFFFFFFFF800000F000FFFFFFC0000001FFFC001C001FE001C000FFFF80007F
310
FFFFFF80000003FFFFFFF80000001FF80FFFFFFFFFFFFFC07FFFFFF0001FFFFF
310
F8001FFFFFFFFC000FF8001FFFFFFFFC000FFF0003FFFFFFFFFFFFFFF0000001
310
F000FFFFF800000001FFF8001C001FE001C000FFFF80007FFFFFF800000003FF
310
FFFF800000003FF80FFFFFFFFFFFFFC07FFFFFF0001FFFFFF8001FFFFFFFFC00
310
0FF8001FFFFFFFFC000FFF0003FFFFFFFFFFFFFE00000001F000FFFFC0000000
310
03FFF8001E001FC001E000FFFF80007FFFFF8000000007FFFFFC000000003FF8
310
0FFFFFFFFFFFFFC07FFFFFF0001FFFFFF8001FFFFFFFFC000FF8001FFFFFFFFC
310
000FFF0003FFFFFFFFFFFFE000000003F000FFFE0000000007FFF8001E000FC0
310
01E0007FFF80007FFFFE0000000007FFFFE0000000007FF80FFFFFFFFFFFFFC0
310
7FFFFFF0001FFFFFF0001FFFFFFFFC0007F0001FFFFFFFFC0007FF0003FFFFFF
310
FFFFFF0000000003F000FFF80000000007FFF8001E000FC003E0007FFF80007F
310
FFF0000000000FFFFF8000000000FFF80FFFFFFFFFFFFFC07FFFFFF0001FFFFF
310
F0001FFFFFFFFC0007F0001FFFFFFFFC0007FF0003FFFFFFFFFFFC0000000007
310
F000FFE0000000000FFFF0003E000FC003E0007FFF80007FFFC0000000001FFF
310
FE0000000001FFF80FFFFFFFFFFFFFC07FFFFFF0001FFFFFF0001FFFFFFFFC00
310
07F0001FFFFFFFFC0007FF0003FFFFFFFFFFF0000000000FF000FFC000000000
310
1FFFF0003F000F8003F0003FFF80007FFF80000000003FFFF80000000003FFF8
310
0FFFFFFFFFFFFFC07FFFFFF0001FFFFFF0001FFFFFFFFC0007F0001FFFFFFFFC
310
0007FF0003FFFFFFFFFFE0000000001FF000FF00000000007FFFF0003F000780
310
03F0003FFF80007FFF00000000007FFFF00000000007FFF80FFFFFFFFFFFFFC0
310
7FFFFFF0001FFFFFF0001FFFFFFFFC0007F0001FFFFFFFFC0007FF0003FFFFFF
310
FFFF80000000007FF000FE0000000000FFFFE0003F00078007F0003FFF80007F
310
FE0000000001FFFFE0000000001FFFF80FFFFFFFFFFFFFC07FFFFFF0001FFFFF
310
F0001FFFFFFFFC0007F0001FFFFFFFFC0007FF0003FFFFFFFFFF0000000000FF
310
F000FC0000000003FFFFE0007F00078007F0003FFF80007FFC0000000007FFFF
310
C0000000007FFFF80FFFFFFFFFFFFFC07FFFFFF0001FFFFFF8001FFFFFFFFC00
310
0FF8001FFFFFFFFC000FFF0003FFFFFFFFFE0000000003FFF000FC000000000F
310
FFFFE0007F80070007F8001FFF80007FF8000000001FFFFF8000000001FFFFF8
310
0FFFFFFFFFFFFFC07FFFFFF0001FFFFFF8001FFFFFFFFC000FF8001FFFFFFFFC
310
000FFF0003FFFFFFFFFC000000000FFFF000F8000000007FFFFFE0007F800700
310
07F8001FFF80007FF000000000FFFFFF800000000FFFFFF80FFFFFFFFFFFFFC0
310
7FFFFFF0001FFFFFF8000FFFFFFFF8000FF8000FFFFFFFF8000FFF0003FFFFFF
310
FFFC000000007FFFF000F800000007FFFFFFC0007F8003000FF8001FFF80007F
310
F000000007FFFFFF000000007FFFFFF80FFFFFFFFFFFFFC07FFFFFF0001FFFFF
310
F8000FFFFFFFF8000FF8000FFFFFFFF8000FFF0003FFFFFFFFF80000000FFFFF
310
F000F0000000FFFFFFFFC000FF8003000FF8001FFF80007FE0000000FFFFFFFF
310
0000000FFFFFFFF8000001FFFE0000007FFFFFF0001FFFFFF8000FFFFFFFF800
310
0FF8000FFFFFFFF8000FFF0003FFFFFFFFF8000000FFFFFFF000F000000FFFFF
310
FFFFC000FFC002000FF8000FFF80007FE000001FFFFFFFFE000001FFFFFFFFF8
310
000001FFFE0000007FFFFFF0001FFFFFF8000FFFFFFFF8000FF8000FFFFFFFF8
310
000FFF0003FFFFFFFFF000001FFFFFFFF000E00000FFFFFFFFFFC000FFC00200
310
0FFC000FFF80007FE00001FFFFFFFFFE00001FFFFFFFFFF8000001FFFE000000
310
7FFFFFF0001FFFFFFC000FFFFFFFF8001FFC000FFFFFFFF8001FFF0003FFFFFF
310
FFF00001FFFFFFFFF000E00007FFFFFFFFFF8000FFC000001FFC000FFF80007F
310
C0000FFFFFFFFFFE0000FFFFFFFFFFF8000001FFFE0000007FFFFFF0001FFFFF
310
FC0007FFFFFFF0001FFC0007FFFFFFF0001FFF0003FFFFFFFFF00007FFFFFFFF
310
F000E0001FFFFFFFFFFF8000FFC000001FFC000FFF80007FC0003FFFFFFFFFFE
310
0001FFFFFFFFFFF8000001FFFE0000007FFFFFF0001FFFFFFC0007FFFFFFF000
310
1FFC0007FFFFFFF0001FFF0003FFFFFFFFF0001FFFFFFFFFF000E0003FFFFF00
310
03FF8001FFE000001FFC0007FF80007FC0007FFFFF0007FC0003FFFFF0003FF8
310
000001FFFE0000007FFFFFF0001FFFFFFC0003FFFFFFE0001FFC0003FFFFFFE0
310
001FFF0003FFFFFFFFF0003FFFFFFFFFF000E0003FFFFF0001FF8001FFE00000
310
1FFE0007FF80007FC0007FFFFE0003FC0007FFFFE0003FF8000001FFFE000000
310
7FFFFFF0001FFFFFFE0003FFFFFFE0003FFE0003FFFFFFE0003FFF0003FFFFFF
310
FFF0003FFFFF8001F000E0003FFFFF0001FF0001FFE000001FFE0007FF80007F
310
C0007FFFFE0003FC0007FFFFE0003FF8000001FFFE0000007FFFFFF0001FFFFF
310
FE0001FFFFFFC0003FFE0001FFFFFFC0003FFF0003FFFFFFFFF0003FFFFF0001
310
F000E0003FFFFF0003FF0001FFE000003FFE0007FF80007FC0007FFFFE0003FC
310
0007FFFFE0003FF8000001FFFE0000007FFFFFF0001FFFFFFF0001FFFFFFC000
310
7FFF0001FFFFFFC0007FFF0003FFFFFFFFF0003FFFFF0001F000E0003FFFFE00
310
03FF0003FFF000003FFE0003FF80007FC0007FFFFC0003FE0007FFFFE0003FF8
310
000001FFFE0000007FFFFFF0001FFFFFFF0000FFFFFF80007FFF0000FFFFFF80
310
007FFF0003FFFFFFFFF0003FFFFF0001F000E0003FFFFE0003FF0003FFF00000
310
3FFF0003FF80007FC0007FFFFC0007FE0007FFFFC0003FF8000001FFFE000000
310
7FFFFFF0001FFFFFFF80007FFFFF0000FFFF80007FFFFF0000FFFF0003FFFFFF
310
FFF0003FFFFF0003F000E0003FFFFC0003FE0003FFF000003FFF0003FF80007F
310
E0003FFFF80007FE0003FFFFC0007FF8000001FFFE0000007FFFFFF0001FFFFF
310
FF80003FFFFE0000FFFF80003FFFFE0000FFFF0003FFFFFFFFF0001FFFFE0003
310
F000F0001FFFF80003FE0003FFF000007FFF0001FF80007FE0003FFFF00007FE
310
0001FFFF80007FF8000001FFFE0000007FFFFFF0001FFFFFFFC0000FFFF80001
310
FFFFC0000FFFF80001FFFF0003FFFFFFFFF0001FFFFC0003F000F0000FFFF000
310
07FE0007FFF800007FFF0001FF80007FE0001FFFE00007FF0000FFFE00007FF8
310
000001FFFE0000007FFFFFF0001FFFFFFFC00003FFE00001FFFFC00003FFE000
310
01FFFF0003FFFFFFFFF8000FFFF80003F000F00003FFC00007FC0007FFF80000
310
7FFF8001FF80007FF00007FF80000FFF00007FF80000FFF8000001FFFE000000
310
7F80000000000001FFE000003E000003FFFFE000003E000003FFFF0003FFFFFF
310
FFF80003FFE00007F000F800000000000FFC0007FFF800007FFF8001FF80007F
310
F000000000000FFF000000000000FFF8000001FFFE0000007F80000000000001
310
FFF0000000000007FFFFF0000000000007FFFF0003FFFFFFFFFC00007E000007
310
F000F800000000000FFC0007FFF80000FFFF8000FF80007FF800000000001FFF
310
800000000001FFF8000001FFFE0000007F80000000000001FFF800000000000F
310
FFFFF800000000000FFFFF0003FFFFFFFFFC00000000000FF000FC0000000000
310
1FFC0007FFFC0000FFFF8000FF80007FF800000000003FFFC00000000001FFF8
310
000001FFFE0000007F80000000000001FFF800000000000FFFFFF80000000000
310
0FFFFF0003FFFFFFFFFE00000000001FF000FE00000000003FF8000FFFFC0000
310
FFFF8000FF80007FFC00000000003FFFC00000000003FFF8000001FFFE000000
310
7F80000000000001FFFC00000000001FFFFFFC00000000001FFFFF0003FFFFFF
310
FFFF00000000001FF000FF00000000003FF8000FFFFC0000FFFFC000FF80007F
310
FE00000000007FFFE00000000007FFF8000001FFFE0000007F80000000000001
310
FFFE00000000003FFFFFFE00000000003FFFFF0003FFFFFFFFFF80000000003F
310
F000FF80000000007FF8000FFFFC0001FFFFC0007F80007FFF0000000000FFFF
310
F0000000000FFFF800000000000000007F80000000000001FFFF8000000000FF
310
FFFFFF8000000000FFFFFF0003FFFFFFFFFFC0000000007FF000FFC000000000
310
FFF8000FFFFE0001FFFFC0007F80007FFF8000000001FFFFF8000000001FFFF8
310
00000000000000007F80000000000001FFFFC000000001FFFFFFFFC000000001
310
FFFFFF0003FFFFFFFFFFE000000000FFF000FFE000000003FFF0001FFFFE0001
310
FFFFC0007F80007FFFC000000007FFFFFE000000003FFFF80000000000000000
310
7F80000000000001FFFFE000000003FFFFFFFFE000000003FFFFFF0003FFFFFF
310
FFFFF000000003FFF000FFF80000000FFFF0001FFFFE0001FFFFE0007F80007F
310
FFF00000000FFFFFFF00000000FFFFF800000000000000007F80000000000001
310
FFFFF80000000FFFFFFFFFF80000000FFFFFFF0003FFFFFFFFFFFC0000000FFF
310
F000FFFE0000003FFFF0001FFFFE0003FFFFE0003F80007FFFFC0000003FFFFF
310
FFC0000003FFFFF800000000000000007F80000000000001FFFFFE0000003FFF
310
FFFFFFFE0000003FFFFFFF0003FFFFFFFFFFFF0000003FFFF000FFFF800000FF
310
FFF0001FFFFF0003FFFFE0003F80007FFFFF000001FFFFFFFFF800001FFFFFF8
310
00000000000000007F80000000000001FFFFFFC00001FFFFFFFFFFFFC00001FF
310
FFFFFF0003FFFFFFFFFFFFC00000FFFFF000FFFFF8000FFFFFFFFFFFFFFFFFFF
310
FFFFFFFFFFFFFFFFFFFFF0001FFFFFFFFFFF0000FFFFFFF80000000000000000
310
7FFFFFFFFFFFFFFFFFFFFFFC001FFFFFFFFFFFFFFC001FFFFFFFFFFFFFFFFFFF
310
FFFFFFFC001FFFFFF000FFFFFFFFFFFFFFFFFFFFFFFFFFFFFFFFFFFFFFFFFFFF
310
FFFFFFFFFFFFFFFFFFFFFFFFFFFFFFFFFFFFFFFFFFFFFFFFFFFFFFFFFFFFFFFF
310
FFFFFFFFFFFFFFFFFFFFFFFFFFFFFFFFFFFFFFFFFFFFFFFFFFFFFFFFFFFFFFFF
310
F000FFFFFFFFFFFFFFFFFFFFFFFFFFFFFFFFFFFFFFFFFFFFFFFFFFFFFFFFFFFF
310
FFFFFFFFFFFFFFFFFFFFFFFFFFFFFFFFFFFFFFFFFFFFFFFFFFFFFFFFFFFFFFFF
310
FFFFFFFFFFFFFFFFFFFFFFFFFFFFFFFFFFFFFFFFFFFFFFFFF000FFFFFFFFFFFF
310
FFFFFFFFFFFFFFFFFFFFFFFFFFFFFFFFFFFFFFFFFFFFFFFFFFFFFFFFFFFFFFFF
310
FFFFFFFFFFFFFFFFFFFFFFFFFFFFFFFFFFFFFFFFFFFFFFFFFFFFFFFFFFFFFFFF
310
FFFFFFFFFFFFFFFFFFFFFFFFFFFFFFFFF000FFFFFFFFFFFFFFFFFFFFFFFFFFFF
310
FFFFFFFFFFFFFFFFFFFFFFFFFFFFFFFFFFFFFFFFFFFFFFFFFFFFFFFFFFFFFFFF
310
FFFFFFFFFFFFFFFFFFFFFFFFFFFFFFFFFFFFFFFFFFFFFFFFFFFFFFFFFFFFFFFF
310
FFFFFFFFFFFFFFFFF000FFFFFFFFFFFFFFFFFFFFFFFFFFFFFFFFFFFFFFFFFFFF
310
FFFFFFFFFFFFFFFFFFFFFFFFFFFFFFFFFFFFFFFFFFFFFFFFFFFFFFFFFFFFFFFF
310
FFFFFFFFFFFFFFFFFFFFFFFFFFFFFFFFFFFFFFFFFFFFFFFFFFFFFFFFFFFFFFFF
310
F000FFFFFFFFFFFFFFFFFFFFFFFFFFFFFFFFFFFFFFFFFFFFFFFFFFFFFFFFFFFF
310
FFFFFFFFFFFFFFFFFFFFFFFFFFFFFFFFFFFFFFFFFFFFFFFFFFFFFFFFFFFFFFFF
310
FFFFFFFFFFFFFFFFFFFFFFFFFFFFFFFFFFFFFFFFFFFFFFFFF000FFFFFFFFFFFF
310
FFFFFFFFFFFFFFFFFFFFFFFFFFFFFFFFFFFFFFFFFFFFFFFFFFFFFFFFFFFFFFFF
310
FFFFFFFFFFFFFFFFFFFFFFFFFFFFFFFFFFFFFFFFFFFFFFFFFFFFFFFFFFFFFFFF
310
FFFFFFFFFFFFFFFFFFFFFFFFFFFFFFFFF000FFFFFFFFFFFFFFFFFFFFFFFFFFFF
310
FFFFFFFFFFFFFFFFFFFFFFFFFFFFFFFFFFFFFFFFFFFFFFFFFFFFFFFFFFFFFFFF
310
FFFFFFFFFFFFFFFFFFFFFFFFFFFFFFFFFFFFFFFFFFFFFFFFFFFFFFFFFFFFFFFF
310
FFFFFFFFFFFFFFFFF000FFFFFFFFFFFFFFFFFFFFFFFFFFFFFFFFFFFFFFFFFFFF
310
FFFFFFFFFFFFFFFFFFFFFFFFFFFFFFFFFFFFFFFFFFFFFFFFFFFFFFFFFFFFFFFF
310
FFFFFFFFFFFFFFFFFFFFFFFFFFFFFFFFFFFFFFFFFFFFFFFFFFFFFFFFFFFFFFFF
310
F000FFFFFFFFFFFFFFFFFFFFFFFFFFFFFFFFFFFFFFFFFFFFFFFFFFFFFFFFFFFF
310
FFFFFFFFFFFFFFFFFFFFFFFFFFFFFFFFFFFFFFFFFFFFFFFFFFFFFFFFFFFFFFFF
310
FFFFFFFFFFFFFFFFFFFFFFFFFFFFFFFFFFFFFFFFFFFFFFFFF000FFFFFFFFFFFF
310
FFFFFFFFFFFFFFFFFFFFFFFFFFFFFFFFFFFFFFFFFFFFFFFFFFFFFFFFFFFFFFFF
310
FFFFFFFFFFFFFFFFFFFFFFFFFFFFFFFFFFFFFFFFFFFFFFFFFFFFFFFFFFFFFFFF
310
FFFFFFFFFFFFFFFFFFFFFFFFFFFFFFFFF000FFFFFFFFFFFFFFFFFFFFFFFFFFFF
310
FFFFFFFFFFFFFFFFFFFFFFFFFFFFFFFFFFFFFFFFFFFFFFFFFFFFFFFFFFFFFFFF
310
FFFFFFFFFFFFFFFFFFFFFFFFFFFFFFFFFFFFFFFFFFFFFFFFFFFFFFFFFFFFFFFF
310
FFFFFFFFFFFFFFFFF000FFFFFFFFFFFFFFFFFFFFFFFFFFFFFFFFFFFFFFFFFFFF
310
FFFFFFFFFFFFFFFFFFFFFFFFFFFFFFFFFFFFFFFFFFFFFFFFFFFFFFFFFFFFFFFF
310
FFFFFFFFFFFFFFFFFFFFFFFFFFFFFFFFFFFFFFFFFFFFFFFFFFFFFFFFFFFFFFFF
310
F000FFFFFFFFFFFFFFFFFFFFFFFFFFFFFFFFFFFFFFFFFFFFFFFFFFFFFFFFFFFF
310
FFFFFFFFFFFFFFFFFFFFFFFFFFFFFFFFFFFFFFFFFFFFFFFFFFFFFFFFFFFFFFFF
310
FFFFFFFFFFFFFFFFFFFFFFFFFFFFFFFFFFFFFFFFFFFFFFFFF000FFFFFFFFFFFF
310
FFFFFFFFFFFFFFFFFFFFFFFFFFFFFFFFFFFFFFFFFFFFFFFFFFFFFFFFFFFFFFFF
310
FFFFFFFFFFFFFFFFFFFFFFFFFFFFFFFFFFFFFFFFFFFFFFFFFFFFFFFFFFFFFFFF
310
FFFFFFFFFFFFFFFFFFFFFFFFFFFFFFFFF000FFFFFFFFFFFFFFFFFFFFFFFFFFFF
310
FFFFFFFFFFFFFFFFFFFFFFFFFFFFFFFFFFFFFFFFFFFFFFFFFFFFFFFFFFFFFFFF
310
FFFFFFFFFFFFFFFFFFFFFFFFFFFFFFFFFFFFFFFFFFFFFFFFFFFFFFFFFFFFFFFF
310
FFFFFFFFFFFFFFFFF000FFFFFFFFFFFFFFFFFFFFFFFFFFFFFFFFFFFFFFFFFFFF
310
FFFFFFFFFFFFFFFFFFFFFFFFFFFFFFFFFFFFFFFFFFFFFFFFFFFFFFFFFFFFFFFF
310
FFFFFFFFFFFFFFFFFFFFFFFFFFFFFFFFFFFFFFFFFFFFFFFFFFFFFFFFFFFFFFFF
310
F000FFFFFFFFFFFFFFFFFFFFFFFFFFFFFFFFFFFFFFFFFFFFFFFFFFFFFFFFFFFF
310
FFFFFFFFFFFFFFFFFFFFFFFFFFFFFFFFFFFFFFFFFFFFFFFFFFFFFFFFFFFFFFFF
310
FFFFFFFFFFFFFFFFFFFFFFFFFFFFFFFFFFFFFFFFFFFFFFFFF000FFFFFFFFFFFF
310
FFFFFFFFFFFFFFFFFFFFFFFFFFFFFFFFFFFFFFFFFFFFFFFFFFFFFFFFFFFFFFFF
310
FFFFFFFFFFFFFFFFFFFFFFFFFFFFFFFFFFFFFFFFFFFFFFFFFFFFFFFFFFFFFFFF
310
FFFFFFFFFFFFFFFFFFFFFFFFFFFFFFFFF000FFFFFFFFFFFFFFFFFFFFFFFFFFFF
310
FFFFFFFFFFFFFFFFFFFFFFFFFFFFFFFFFFFFFFFFFFFFFFFFFFFFFFFFFFFFFFFF
310
FFFFFFFFFFFFFFFFFFFFFFFFFFFFFFFFFFFFFFFFFFFFFFFFFFFFFFFFFFFFFFFF
310
FFFFFFFFFFFFFFFFF000FFFFFFFFFFFFFFFFFFFFFFFFFFFFFFFFFFFFFFFFFFFF
310
FFFFFFFFFFFFFFFFFFFFFFFFFFFFFFFFFFFFFFFFFFFFFFFFFFFFFFFFFFFFFFFF
310
FFFFFFFFFFFFFFFFFFFFFFFFFFFFFFFFFFFFFFFFFFFFFFFFFFFFFFFFFFFFFFFF
310
F000FFFFFFFFFFFFFFFFFFFFFFFFFFFFFFFFFFFFFFFFFFFFFFFFFFFFFFFFFFFF
310
FFFFFFFFFFFFFFFFFFFFFFFFFFFFFFFFFFFFFFFFFFFFFFFFFFFFFFFFFFFFFFFF
310
FFFFFFFFFFFFFFFFFFFFFFFFFFFFFFFFFFFFFFFFFFFFFFFFF000FFFFFFFFFFFF
310
FFFFFFFFFFFFFFFFFFFFFFFFFFFFFFFFFFFFFFFFFFFFFFFFFFFFFFFFFFFFFFFF
310
FFFFFFFFFFFFFFFFFFFFFFFFFFFFFFFFFFFFFFFFFFFFFFFFFFFFFFFFFFFFFFFF
310
FFFFFFFFFFFFFFFFFFFFFFFFFFFFFFFFF0000000000000000000000000000000
310
0000000000000000000000000000000000000000000000000000000000000000
310
0000000000000000000000000000000000000000000000000000000000000000
310
0000000000000000000000000000000000000000000000000000000000000000
310
0000000000000000000000000000000000000000000000000000000000000000
310
0000000000000000000000000000000000000000000000000000000000000000
310
0000000000000000000000000000000000000000000000000000000000000000
310
0000000000000000000000000000000000000000000000000000000000000000
310
0000000000000000000000000000000000000000000000000000000000000000
310
0000000000000000000000000000000000000000000000000000000000000000
310
0000000000000000000000000000000000000000000000000000000000000000
310
0000000000000000000000000000000000000000000000000000000000000000
310
0000000000000000000000000000000000000000000000000000000000000000
310
0000000000000000000000000000000000000000000000000000000000000000
310
0000000000000000000000000000000000000000000000000000000000000000
310
0000000000000000000000000000000000000000000000000000000000000000
  1
OLE
  0
ENDSEC
  0
SECTION
  2
OBJECTS
  0
DICTIONARY
  5
C
330
0
100
AcDbDictionary
281
     1
  3
ACAD_GROUP
350
D
  3
ACAD_LAYOUT
350
1A
  3
ACAD_MLINESTYLE
350
17
  3
ACAD_PLOTSETTINGS
350
19
  3
ACAD_PLOTSTYLENAME
350
E
  3
ACAD_SCALELIST
350
47
  0
DICTIONARY
  5
D
102
{ACAD_REACTORS
330
C
102
}
330
C
100
AcDbDictionary
281
     1
  0
DICTIONARY
  5
1A
102
{ACAD_REACTORS
330
C
102
}
330
C
100
AcDbDictionary
281
     1
  3
Layout1
350
1E
  3
Layout2
350
26
  3
Model
350
22
  0
DICTIONARY
  5
17
102
{ACAD_REACTORS
330
C
102
}
330
C
100
AcDbDictionary
281
     1
  3
Standard
350
18
  0
DICTIONARY
  5
19
102
{ACAD_REACTORS
330
C
102
}
330
C
100
AcDbDictionary
281
     1
  0
ACDBDICTIONARYWDFLT
  5
E
102
{ACAD_REACTORS
330
C
102
}
330
C
100
AcDbDictionary
281
     1
  3
Normal
350
F
100
AcDbDictionaryWithDefault
340
F
  0
DICTIONARY
  5
47
102
{ACAD_REACTORS
330
C
102
}
330
C
100
AcDbDictionary
281
     1
  3
A0
350
48
  3
A1
350
49
  3
A2
350
4A
  3
A3
350
4B
  3
A4
350
4C
  3
A5
350
4D
  3
A6
350
4E
  3
A7
350
4F
  3
A8
350
50
  3
A9
350
51
  3
B0
350
52
  3
B1
350
53
  3
B2
350
54
  3
B3
350
55
  3
B4
350
56
  3
B5
350
57
  3
B6
350
58
  3
B7
350
59
  3
B8
350
5A
  3
B9
350
5B
  3
C0
350
5C
  3
C1
350
5D
  3
C2
350
5E
  3
C3
350
5F
  3
C4
350
60
  3
C5
350
61
  3
C6
350
62
  3
C7
350
63
  3
C8
350
64
  3
C9
350
65
  3
D0
350
66
  3
D1
350
67
  3
D2
350
68
  0
LAYOUT
  5
1E
102
{ACAD_REACTORS
330
1A
102
}
330
1A
100
AcDbPlotSettings
  1

  2
none_device
  4

  6

 40
0.0
 41
0.0
 42
0.0
 43
0.0
 44
0.0
 45
0.0
 46
0.0
 47
0.0
 48
0.0
 49
0.0
140
0.0
141
0.0
142
1.0
143
1.0
 70
   688
 72
     1
 73
     0
 74
     5
  7

 75
    16
147
1.0
148
0.0
149
0.0
100
AcDbLayout
  1
Layout1
 70
     1
 71
     1
 10
0.0
 20
0.0
 11
420.0
 21
297.0
 12
0.0
 22
0.0
 32
0.0
 14
1.0000000000E+20
 24
1.0000000000E+20
 34
1.0000000000E+20
 15
-1.0000000000E+20
 25
-1.0000000000E+20
 35
-1.0000000000E+20
146
0.0
 13
0.0
 23
0.0
 33
0.0
 16
1.0
 26
0.0
 36
0.0
 17
0.0
 27
1.0
 37
0.0
 76
     0
330
1B
  0
LAYOUT
  5
26
102
{ACAD_REACTORS
330
1A
102
}
330
1A
100
AcDbPlotSettings
  1

  2
none_device
  4

  6

 40
0.0
 41
0.0
 42
0.0
 43
0.0
 44
0.0
 45
0.0
 46
0.0
 47
0.0
 48
0.0
 49
0.0
140
0.0
141
0.0
142
1.0
143
1.0
 70
   688
 72
     1
 73
     0
 74
     5
  7

 75
    16
147
1.0
148
0.0
149
0.0
100
AcDbLayout
  1
Layout2
 70
     1
 71
     2
 10
0.0
 20
0.0
 11
0.0
 21
0.0
 12
0.0
 22
0.0
 32
0.0
 14
0.0
 24
0.0
 34
0.0
 15
0.0
 25
0.0
 35
0.0
146
0.0
 13
0.0
 23
0.0
 33
0.0
 16
1.0
 26
0.0
 36
0.0
 17
0.0
 27
1.0
 37
0.0
 76
     0
330
23
  0
LAYOUT
  5
22
102
{ACAD_REACTORS
330
1A
102
}
330
1A
100
AcDbPlotSettings
  1

  2
none_device
  4
Letter_(8.50_x_11.00_Inches)
  6

 40
6.35
 41
6.35
 42
6.35000508
 43
6.35000508
 44
215.9
 45
279.4
 46
0.0
 47
0.0
 48
0.0
 49
0.0
140
0.0
141
0.0
142
1.0
143
1.0
 70
  1712
 72
     1
 73
     0
 74
     0
  7

 75
     0
147
1.0
148
0.0
149
0.0
100
AcDbLayout
  1
Model
 70
     1
 71
     0
 10
0.0
 20
0.0
 11
297.0
 21
210.0
 12
0.0
 22
0.0
 32
0.0
 14
0.0
 24
0.0
 34
0.0
 15
297.0
 25
210.0
 35
0.0
146
0.0
 13
0.0
 23
0.0
 33
0.0
 16
1.0
 26
0.0
 36
0.0
 17
0.0
 27
1.0
 37
0.0
 76
     0
330
1F
331
29
  0
MLINESTYLE
  5
18
102
{ACAD_REACTORS
330
17
102
}
330
17
100
AcDbMlineStyle
  2
Standard
 70
     0
  3

 62
   256
 51
90.0
 52
90.0
 71
     2
 49
0.5
 62
   256
  6
BYLAYER
 49
-0.5
 62
   256
  6
BYLAYER
  0
ACDBPLACEHOLDER
  5
F
102
{ACAD_REACTORS
330
E
102
}
330
E
  0
SCALE
  5
48
102
{ACAD_REACTORS
330
47
102
}
330
47
100
AcDbScale
 70
     0
300
1:1
140
1.0
141
1.0
290
     1
  0
SCALE
  5
49
102
{ACAD_REACTORS
330
47
102
}
330
47
100
AcDbScale
 70
     0
300
1:2
140
1.0
141
2.0
290
     0
  0
SCALE
  5
4A
102
{ACAD_REACTORS
330
47
102
}
330
47
100
AcDbScale
 70
     0
300
1:4
140
1.0
141
4.0
290
     0
  0
SCALE
  5
4B
102
{ACAD_REACTORS
330
47
102
}
330
47
100
AcDbScale
 70
     0
300
1:5
140
1.0
141
5.0
290
     0
  0
SCALE
  5
4C
102
{ACAD_REACTORS
330
47
102
}
330
47
100
AcDbScale
 70
     0
300
1:8
140
1.0
141
8.0
290
     0
  0
SCALE
  5
4D
102
{ACAD_REACTORS
330
47
102
}
330
47
100
AcDbScale
 70
     0
300
1:10
140
1.0
141
10.0
290
     0
  0
SCALE
  5
4E
102
{ACAD_REACTORS
330
47
102
}
330
47
100
AcDbScale
 70
     0
300
1:16
140
1.0
141
16.0
290
     0
  0
SCALE
  5
4F
102
{ACAD_REACTORS
330
47
102
}
330
47
100
AcDbScale
 70
     0
300
1:20
140
1.0
141
20.0
290
     0
  0
SCALE
  5
50
102
{ACAD_REACTORS
330
47
102
}
330
47
100
AcDbScale
 70
     0
300
1:30
140
1.0
141
30.0
290
     0
  0
SCALE
  5
51
102
{ACAD_REACTORS
330
47
102
}
330
47
100
AcDbScale
 70
     0
300
1:40
140
1.0
141
40.0
290
     0
  0
SCALE
  5
52
102
{ACAD_REACTORS
330
47
102
}
330
47
100
AcDbScale
 70
     0
300
1:50
140
1.0
141
50.0
290
     0
  0
SCALE
  5
53
102
{ACAD_REACTORS
330
47
102
}
330
47
100
AcDbScale
 70
     0
300
1:100
140
1.0
141
100.0
290
     0
  0
SCALE
  5
54
102
{ACAD_REACTORS
330
47
102
}
330
47
100
AcDbScale
 70
     0
300
2:1
140
2.0
141
1.0
290
     0
  0
SCALE
  5
55
102
{ACAD_REACTORS
330
47
102
}
330
47
100
AcDbScale
 70
     0
300
4:1
140
4.0
141
1.0
290
     0
  0
SCALE
  5
56
102
{ACAD_REACTORS
330
47
102
}
330
47
100
AcDbScale
 70
     0
300
8:1
140
8.0
141
1.0
290
     0
  0
SCALE
  5
57
102
{ACAD_REACTORS
330
47
102
}
330
47
100
AcDbScale
 70
     0
300
10:1
140
10.0
141
1.0
290
     0
  0
SCALE
  5
58
102
{ACAD_REACTORS
330
47
102
}
330
47
100
AcDbScale
 70
     0
300
100:1
140
100.0
141
1.0
290
     0
  0
SCALE
  5
59
102
{ACAD_REACTORS
330
47
102
}
330
47
100
AcDbScale
 70
     0
300
1/128" = 1'-0"
140
0.0078125
141
12.0
290
     0
  0
SCALE
  5
5A
102
{ACAD_REACTORS
330
47
102
}
330
47
100
AcDbScale
 70
     0
300
1/64" = 1'-0"
140
0.015625
141
12.0
290
     0
  0
SCALE
  5
5B
102
{ACAD_REACTORS
330
47
102
}
330
47
100
AcDbScale
 70
     0
300
1/32" = 1'-0"
140
0.03125
141
12.0
290
     0
  0
SCALE
  5
5C
102
{ACAD_REACTORS
330
47
102
}
330
47
100
AcDbScale
 70
     0
300
1/16" = 1'-0"
140
0.0625
141
12.0
290
     0
  0
SCALE
  5
5D
102
{ACAD_REACTORS
330
47
102
}
330
47
100
AcDbScale
 70
     0
300
3/32" = 1'-0"
140
0.09375
141
12.0
290
     0
  0
SCALE
  5
5E
102
{ACAD_REACTORS
330
47
102
}
330
47
100
AcDbScale
 70
     0
300
1/8" = 1'-0"
140
0.125
141
12.0
290
     0
  0
SCALE
  5
5F
102
{ACAD_REACTORS
330
47
102
}
330
47
100
AcDbScale
 70
     0
300
3/16" = 1'-0"
140
0.1875
141
12.0
290
     0
  0
SCALE
  5
60
102
{ACAD_REACTORS
330
47
102
}
330
47
100
AcDbScale
 70
     0
300
1/4" = 1'-0"
140
0.25
141
12.0
290
     0
  0
SCALE
  5
61
102
{ACAD_REACTORS
330
47
102
}
330
47
100
AcDbScale
 70
     0
300
3/8" = 1'-0"
140
0.375
141
12.0
290
     0
  0
SCALE
  5
62
102
{ACAD_REACTORS
330
47
102
}
330
47
100
AcDbScale
 70
     0
300
1/2" = 1'-0"
140
0.5
141
12.0
290
     0
  0
SCALE
  5
63
102
{ACAD_REACTORS
330
47
102
}
330
47
100
AcDbScale
 70
     0
300
3/4" = 1'-0"
140
0.75
141
12.0
290
     0
  0
SCALE
  5
64
102
{ACAD_REACTORS
330
47
102
}
330
47
100
AcDbScale
 70
     0
300
1" = 1'-0"
140
1.0
141
12.0
290
     0
  0
SCALE
  5
65
102
{ACAD_REACTORS
330
47
102
}
330
47
100
AcDbScale
 70
     0
300
1-1/2" = 1'-0"
140
1.5
141
12.0
290
     0
  0
SCALE
  5
66
102
{ACAD_REACTORS
330
47
102
}
330
47
100
AcDbScale
 70
     0
300
3" = 1'-0"
140
3.0
141
12.0
290
     0
  0
SCALE
  5
67
102
{ACAD_REACTORS
330
47
102
}
330
47
100
AcDbScale
 70
     0
300
6" = 1'-0"
140
6.0
141
12.0
290
     0
  0
SCALE
  5
68
102
{ACAD_REACTORS
330
47
102
}
330
47
100
AcDbScale
 70
     0
300
1'-0" = 1'-0"
140
12.0
141
12.0
290
     0
  0
ENDSEC
  0
EOF
