  0
SECTION
  2
HEADER
  9
$ACADVER
  1
AC1015
  9
$ACADMAINTVER
 70
     6
  9
$DWGCODEPAGE
  3
ANSI_1252
  9
$INSBASE
 10
0.0
 20
0.0
 30
0.0
  9
$EXTMIN
 10
0.0
 20
0.0
 30
0.0
  9
$EXTMAX
 10
297.0
 20
210.0
 30
0.0
  9
$LIMMIN
 10
0.0
 20
0.0
  9
$LIMMAX
 10
297.0
 20
210.0
  9
$ORTHOMODE
 70
     0
  9
$REGENMODE
 70
     1
  9
$FILLMODE
 70
     1
  9
$QTEXTMODE
 70
     0
  9
$MIRRTEXT
 70
     1
  9
$LTSCALE
 40
1.0
  9
$ATTMODE
 70
     1
  9
$TEXTSIZE
 40
2.0
  9
$TRACEWID
 40
1.0
  9
$TEXTSTYLE
  7
Standard
  9
$CLAYER
  8
0
  9
$CELTYPE
  6
ByLayer
  9
$CECOLOR
 62
   256
  9
$CELTSCALE
 40
1.0
  9
$DISPSILH
 70
     0
  9
$DIMSCALE
 40
1.0
  9
$DIMASZ
 40
3.0
  9
$DIMEXO
 40
0.0
  9
$DIMDLI
 40
3.75
  9
$DIMRND
 40
0.0
  9
$DIMDLE
 40
0.0
  9
$DIMEXE
 40
1.0
  9
$DIMTP
 40
0.0
  9
$DIMTM
 40
0.0
  9
$DIMTXT
 40
2.0
  9
$DIMCEN
 40
2.5
  9
$DIMTSZ
 40
0.0
  9
$DIMTOL
 70
     0
  9
$DIMLIM
 70
     0
  9
$DIMTIH
 70
     1
  9
$DIMTOH
 70
     1
  9
$DIMSE1
 70
     0
  9
$DIMSE2
 70
     0
  9
$DIMTAD
 70
     1
  9
$DIMZIN
 70
     0
  9
$DIMBLK
  1

  9
$DIMASO
 70
     1
  9
$DIMSHO
 70
     1
  9
$DIMPOST
  1

  9
$DIMAPOST
  1

  9
$DIMALT
 70
     0
  9
$DIMALTD
 70
     3
  9
$DIMALTF
 40
0.0393700787
  9
$DIMLFAC
 40
1.0
  9
$DIMTOFL
 70
     1
  9
$DIMTVP
 40
0.0
  9
$DIMTIX
 70
     0
  9
$DIMSOXD
 70
     0
  9
$DIMSAH
 70
     0
  9
$DIMBLK1
  1

  9
$DIMBLK2
  1

  9
$DIMSTYLE
  2
ISO-25
  9
$DIMCLRD
 70
     0
  9
$DIMCLRE
 70
     0
  9
$DIMCLRT
 70
     0
  9
$DIMTFAC
 40
1.0
  9
$DIMGAP
 40
1.524
  9
$DIMJUST
 70
     0
  9
$DIMSD1
 70
     0
  9
$DIMSD2
 70
     0
  9
$DIMTOLJ
 70
     0
  9
$DIMTZIN
 70
     0
  9
$DIMALTZ
 70
     0
  9
$DIMALTTZ
 70
     0
  9
$DIMUPT
 70
     0
  9
$DIMDEC
 70
     2
  9
$DIMTDEC
 70
     3
  9
$DIMALTU
 70
     2
  9
$DIMALTTD
 70
     3
  9
$DIMTXSTY
  7
Standard
  9
$DIMAUNIT
 70
     0
  9
$DIMADEC
 70
     2
  9
$DIMALTRND
 40
0.0
  9
$DIMAZIN
 70
     0
  9
$DIMDSEP
 70
    44
  9
$DIMATFIT
 70
     3
  9
$DIMFRAC
 70
     0
  9
$DIMLDRBLK
  1

  9
$DIMLUNIT
 70
     2
  9
$DIMLWD
 70
    -2
  9
$DIMLWE
 70
    -2
  9
$DIMTMOVE
 70
     0
  9
$LUNITS
 70
     2
  9
$LUPREC
 70
     2
  9
$SKETCHINC
 40
1.0
  9
$FILLETRAD
 40
10.0
  9
$AUNITS
 70
     0
  9
$AUPREC
 70
     2
  9
$MENU
  1
.
  9
$ELEVATION
 40
0.0
  9
$PELEVATION
 40
0.0
  9
$THICKNESS
 40
0.0
  9
$LIMCHECK
 70
     0
  9
$CHAMFERA
 40
0.0
  9
$CHAMFERB
 40
0.0
  9
$CHAMFERC
 40
0.0
  9
$CHAMFERD
 40
0.0
  9
$SKPOLY
 70
     0
  9
$TDCREATE
 40
2459054.629130394
  9
$TDUCREATE
 40
2459054.54579706
  9
$TDUPDATE
 40
2459054.629131354
  9
$TDUUPDATE
 40
2459054.545798021
  9
$TDINDWG
 40
0.0000000116
  9
$TDUSRTIMER
 40
0.0000000116
  9
$USRTIMER
 70
     1
  9
$ANGBASE
 50
0.0
  9
$ANGDIR
 70
     0
  9
$PDMODE
 70
     0
  9
$PDSIZE
 40
-1.0
  9
$PLINEWID
 40
0.0
  9
$SPLFRAME
 70
     0
  9
$SPLINETYPE
 70
     6
  9
$SPLINESEGS
 70
     8
  9
$HANDSEED
  5
1A9
  9
$SURFTAB1
 70
     6
  9
$SURFTAB2
 70
     6
  9
$SURFTYPE
 70
     6
  9
$SURFU
 70
     6
  9
$SURFV
 70
     6
  9
$UCSBASE
  2

  9
$UCSNAME
  2

  9
$UCSORG
 10
0.0
 20
0.0
 30
0.0
  9
$UCSXDIR
 10
1.0
 20
0.0
 30
0.0
  9
$UCSYDIR
 10
0.0
 20
1.0
 30
0.0
  9
$UCSORTHOREF
  2

  9
$UCSORTHOVIEW
 70
     0
  9
$UCSORGTOP
 10
0.0
 20
0.0
 30
0.0
  9
$UCSORGBOTTOM
 10
0.0
 20
0.0
 30
0.0
  9
$UCSORGLEFT
 10
0.0
 20
0.0
 30
0.0
  9
$UCSORGRIGHT
 10
0.0
 20
0.0
 30
0.0
  9
$UCSORGFRONT
 10
0.0
 20
0.0
 30
0.0
  9
$UCSORGBACK
 10
0.0
 20
0.0
 30
0.0
  9
$PUCSBASE
  2

  9
$PUCSNAME
  2

  9
$PUCSORG
 10
0.0
 20
0.0
 30
0.0
  9
$PUCSXDIR
 10
1.0
 20
0.0
 30
0.0
  9
$PUCSYDIR
 10
0.0
 20
1.0
 30
0.0
  9
$PUCSORTHOREF
  2

  9
$PUCSORTHOVIEW
 70
     0
  9
$PUCSORGTOP
 10
0.0
 20
0.0
 30
0.0
  9
$PUCSORGBOTTOM
 10
0.0
 20
0.0
 30
0.0
  9
$PUCSORGLEFT
 10
0.0
 20
0.0
 30
0.0
  9
$PUCSORGRIGHT
 10
0.0
 20
0.0
 30
0.0
  9
$PUCSORGFRONT
 10
0.0
 20
0.0
 30
0.0
  9
$PUCSORGBACK
 10
0.0
 20
0.0
 30
0.0
  9
$USERI1
 70
     0
  9
$USERI2
 70
     0
  9
$USERI3
 70
     0
  9
$USERI4
 70
     0
  9
$USERI5
 70
     0
  9
$USERR1
 40
0.0
  9
$USERR2
 40
0.0
  9
$USERR3
 40
0.0
  9
$USERR4
 40
0.0
  9
$USERR5
 40
0.0
  9
$WORLDVIEW
 70
     1
  9
$SHADEDGE
 70
     3
  9
$SHADEDIF
 70
    70
  9
$TILEMODE
 70
     1
  9
$MAXACTVP
 70
    64
  9
$PINSBASE
 10
0.0
 20
0.0
 30
0.0
  9
$PLIMCHECK
 70
     0
  9
$PEXTMIN
 10
1.0000000000E+20
 20
1.0000000000E+20
 30
1.0000000000E+20
  9
$PEXTMAX
 10
-1.0000000000E+20
 20
-1.0000000000E+20
 30
-1.0000000000E+20
  9
$PLIMMIN
 10
0.0
 20
0.0
  9
$PLIMMAX
 10
420.0
 20
297.0
  9
$UNITMODE
 70
     0
  9
$VISRETAIN
 70
     1
  9
$PLINEGEN
 70
     0
  9
$PSLTSCALE
 70
     1
  9
$TREEDEPTH
 70
  3020
  9
$CMLSTYLE
  2
Standard
  9
$CMLJUST
 70
     0
  9
$CMLSCALE
 40
20.0
  9
$PROXYGRAPHICS
 70
     1
  9
$MEASUREMENT
 70
     1
  9
$CELWEIGHT
370
    -1
  9
$ENDCAPS
280
     0
  9
$JOINSTYLE
280
     0
  9
$LWDISPLAY
290
     1
  9
$INSUNITS
 70
     4
  9
$HYPERLINKBASE
  1

  9
$STYLESHEET
  1

  9
$XEDIT
290
     1
  9
$CEPSNTYPE
380
     0
  9
$PSTYLEMODE
290
     1
  9
$FINGERPRINTGUID
  2
{BCA90AD5-E4A5-4B39-A198-BA03C884DDE3}
  9
$VERSIONGUID
  2
{FAEB1C32-E019-11D5-929B-00C0DF256EC4}
  9
$EXTNAMES
290
     1
  9
$PSVPSCALE
 40
0.0
  9
$OLESTARTUP
290
     0
  0
ENDSEC
  0
SECTION
  2
CLASSES
  0
CLASS
  1
ACDBDICTIONARYWDFLT
  2
AcDbDictionaryWithDefault
  3
ObjectDBX Classes
 90
        0
280
     0
281
     0
  0
CLASS
  1
VISUALSTYLE
  2
AcDbVisualStyle
  3
ObjectDBX Classes
 90
     4095
280
     0
281
     0
  0
CLASS
  1
MATERIAL
  2
AcDbMaterial
  3
ObjectDBX Classes
 90
     1153
280
     0
281
     0
  0
CLASS
  1
SCALE
  2
AcDbScale
  3
ObjectDBX Classes
 90
     1153
280
     0
281
     0
  0
CLASS
  1
TABLESTYLE
  2
AcDbTableStyle
  3
ObjectDBX Classes
 90
     4095
280
     0
281
     0
  0
CLASS
  1
MLEADERSTYLE
  2
AcDbMLeaderStyle
  3
ACDB_MLEADERSTYLE_CLASS
 90
     4095
280
     0
281
     0
  0
CLASS
  1
SUN
  2
AcDbSun
  3
SCENEOE
 90
     1153
280
     0
281
     0
  0
CLASS
  1
ACDBPLACEHOLDER
  2
AcDbPlaceHolder
  3
ObjectDBX Classes
 90
        0
280
     0
281
     0
  0
CLASS
  1
LAYOUT
  2
AcDbLayout
  3
ObjectDBX Classes
 90
        0
280
     0
281
     0
  0
ENDSEC
  0
SECTION
  2
TABLES
  0
TABLE
  2
VPORT
  5
8
330
0
100
AcDbSymbolTable
 70
     1
  0
VPORT
  5
29
330
8
100
AcDbSymbolTableRecord
100
AcDbViewportTableRecord
  2
*Active
 70
     0
 10
0.0
 20
0.0
 11
1.0
 21
1.0
 12
148.5
 22
105.0
 13
0.0
 23
0.0
 14
10.0
 24
10.0
 15
10.0
 25
10.0
 16
0.0
 26
0.0
 36
1.0
 17
0.0
 27
0.0
 37
0.0
 40
210.0
 41
1.4142857143
 42
50.0
 43
0.0
 44
0.0
 50
0.0
 51
0.0
 71
     0
 72
  2000
 73
     1
 74
     3
 75
     0
 76
     0
 77
     0
 78
     0
281
     0
 65
     1
110
0.0
120
0.0
130
0.0
111
1.0
121
0.0
131
0.0
112
0.0
122
1.0
132
0.0
 79
     0
146
0.0
  0
ENDTAB
  0
TABLE
  2
LTYPE
  5
5
330
0
100
AcDbSymbolTable
 70
     6
  0
LTYPE
  5
14
330
5
100
AcDbSymbolTableRecord
100
AcDbLinetypeTableRecord
  2
ByBlock
 70
     0
  3

 72
    65
 73
     0
 40
0.0
  0
LTYPE
  5
15
330
5
100
AcDbSymbolTableRecord
100
AcDbLinetypeTableRecord
  2
ByLayer
 70
     0
  3

 72
    65
 73
     0
 40
0.0
  0
LTYPE
  5
16
330
5
100
AcDbSymbolTableRecord
100
AcDbLinetypeTableRecord
  2
Continuous
 70
     0
  3
Solid line
 72
    65
 73
     0
 40
0.0
  0
LTYPE
  5
6E
330
5
100
AcDbSymbolTableRecord
100
AcDbLinetypeTableRecord
  2
HIDDEN
 70
     0
  3
Hidden __ __ __ __ __ __ __ __ __ __ __ __ __ __
 72
    65
 73
     2
 40
1.905
 49
1.27
 74
     0
 49
-0.635
 74
     0
  0
LTYPE
  5
6F
330
5
100
AcDbSymbolTableRecord
100
AcDbLinetypeTableRecord
  2
PHANTOM
 70
     0
  3
Phantom ______  __  __  ______  __  __  ______
 72
    65
 73
     6
 40
12.7
 49
6.35
 74
     0
 49
-1.27
 74
     0
 49
1.27
 74
     0
 49
-1.27
 74
     0
 49
1.27
 74
     0
 49
-1.27
 74
     0
  0
LTYPE
  5
70
330
5
100
AcDbSymbolTableRecord
100
AcDbLinetypeTableRecord
  2
CENTER
 70
     0
  3
Center ____ _ ____ _ ____ _ ____ _ ____ _ ____
 72
    65
 73
     4
 40
10.16
 49
6.35
 74
     0
 49
-1.27
 74
     0
 49
1.27
 74
     0
 49
-1.27
 74
     0
  0
LTYPE
  5
71
330
5
100
AcDbSymbolTableRecord
100
AcDbLinetypeTableRecord
  2
CENTERX2
 70
     0
  3
Center (2x) ________  __  ________  __  _____
 72
    65
 73
     4
 40
20.32
 49
12.7
 74
     0
 49
-2.54
 74
     0
 49
2.54
 74
     0
 49
-2.54
 74
     0
  0
LTYPE
  5
72
330
5
100
AcDbSymbolTableRecord
100
AcDbLinetypeTableRecord
  2
DOT2
 70
     0
  3
Dot (.5x) ........................................
 72
    65
 73
     2
 40
0.635
 49
0.0
 74
     0
 49
-0.635
 74
     0
  0
ENDTAB
  0
TABLE
  2
LAYER
  5
2
330
0
100
AcDbSymbolTable
 70
     5
  0
LAYER
  5
10
330
2
100
AcDbSymbolTableRecord
100
AcDbLayerTableRecord
  2
0
 70
     0
 62
     7
  6
Continuous
370
    -3
390
F
  0
LAYER
  5
73
330
2
100
AcDbSymbolTableRecord
100
AcDbLayerTableRecord
  2
FORMAT
 70
     0
 62
     7
  6
Continuous
370
    -3
390
F
  0
LAYER
  5
74
330
2
100
AcDbSymbolTableRecord
100
AcDbLayerTableRecord
  2
VERMASSUNG
 70
     0
 62
     7
  6
Continuous
370
    -3
390
F
  0
LAYER
  5
75
330
2
100
AcDbSymbolTableRecord
100
AcDbLayerTableRecord
  2
KOPF_DÜNN
 70
     0
 62
     7
  6
Continuous
370
    -3
390
F
  0
LAYER
  5
76
330
2
100
AcDbSymbolTableRecord
100
AcDbLayerTableRecord
  2
KOPF_DICK
 70
     0
 62
     7
  6
Continuous
370
    25
390
F
  0
ENDTAB
  0
TABLE
  2
STYLE
  5
3
330
0
100
AcDbSymbolTable
 70
     2
  0
STYLE
  5
11
330
3
100
AcDbSymbolTableRecord
100
AcDbTextStyleTableRecord
  2
Standard
 70
     0
 40
0.0
 41
1.0
 50
0.0
 71
     0
 42
2.0
  3
txt
  4

  0
STYLE
  5
77
330
3
100
AcDbSymbolTableRecord
100
AcDbTextStyleTableRecord
  2
SLDTEXTSTYLE0
 70
     0
 40
0.0
 41
0.7
 50
0.0
 71
     0
 42
2.0
  3
TXT
  4

  0
ENDTAB
  0
TABLE
  2
VIEW
  5
6
330
0
100
AcDbSymbolTable
 70
     0
  0
ENDTAB
  0
TABLE
  2
UCS
  5
7
330
0
100
AcDbSymbolTable
 70
     0
  0
ENDTAB
  0
TABLE
  2
APPID
  5
9
330
0
100
AcDbSymbolTable
 70
     1
  0
APPID
  5
12
330
9
100
AcDbSymbolTableRecord
100
AcDbRegAppTableRecord
  2
ACAD
 70
     0
  0
ENDTAB
  0
TABLE
  2
DIMSTYLE
  5
A
330
0
100
AcDbSymbolTable
 70
     3
100
AcDbDimStyleTable
  0
DIMSTYLE
105
27
330
A
100
AcDbSymbolTableRecord
100
AcDbDimStyleTableRecord
  2
ISO-25
 70
     0
 41
2.5
 42
0.625
 43
3.75
 44
1.25
 73
     0
 74
     0
 77
     1
 78
     8
140
2.5
141
2.5
143
0.0393700787
147
0.625
171
     3
172
     1
178
     0
271
     2
272
     2
274
     3
278
    44
283
     0
284
     8
340
11
  0
DIMSTYLE
105
186
102
{ACAD_REACTORS
330
185
102
}
330
A
100
AcDbSymbolTableRecord
100
AcDbDimStyleTableRecord
  2
SLDDIMSTYLE0
 70
     0
 41
3.0
 44
0.0
 45
0.000000001
 73
     0
 74
     0
 76
     1
 77
     1
 78
    12
 79
     3
140
2.0
147
0.5
173
     1
178
     0
271
     2
272
     3
276
     2
282
     1
284
    12
340
77
  0
DIMSTYLE
105
191
102
{ACAD_REACTORS
330
190
330
19B
102
}
330
A
100
AcDbSymbolTableRecord
100
AcDbDimStyleTableRecord
  2
SLDDIMSTYLE1
 70
     0
 41
3.0
 44
0.0
 45
0.000000001
 73
     0
 74
     0
 77
     1
 78
    12
 79
     3
140
2.0
147
0.5
173
     1
178
     0
271
     2
272
     3
276
     2
284
    12
340
77
  0
ENDTAB
  0
TABLE
  2
BLOCK_RECORD
  5
1
330
0
100
AcDbSymbolTable
 70
     4
  0
BLOCK_RECORD
  5
1F
330
1
100
AcDbSymbolTableRecord
100
AcDbBlockTableRecord
  2
*Model_Space
340
22
  0
BLOCK_RECORD
  5
1B
330
1
100
AcDbSymbolTableRecord
100
AcDbBlockTableRecord
  2
*Paper_Space
340
1E
  0
BLOCK_RECORD
  5
23
330
1
100
AcDbSymbolTableRecord
100
AcDbBlockTableRecord
  2
*Paper_Space0
340
26
  0
BLOCK_RECORD
  5
187
330
1
100
AcDbSymbolTableRecord
100
AcDbBlockTableRecord
  2
_D
340
0
  0
BLOCK_RECORD
  5
192
330
1
100
AcDbSymbolTableRecord
100
AcDbBlockTableRecord
  2
_D_1
340
0
  0
BLOCK_RECORD
  5
19C
330
1
100
AcDbSymbolTableRecord
100
AcDbBlockTableRecord
  2
_D_2
340
0
  0
ENDTAB
  0
ENDSEC
  0
SECTION
  2
BLOCKS
  0
BLOCK
  5
20
330
1F
100
AcDbEntity
  8
0
100
AcDbBlockBegin
  2
*Model_Space
 70
     0
 10
0.0
 20
0.0
 30
0.0
  3
*Model_Space
  1

  0
ENDBLK
  5
21
330
1F
100
AcDbEntity
  8
0
100
AcDbBlockEnd
  0
BLOCK
  5
1C
330
1B
100
AcDbEntity
 67
     1
  8
0
100
AcDbBlockBegin
  2
*Paper_Space
 70
     0
 10
0.0
 20
0.0
 30
0.0
  3
*Paper_Space
  1

  0
ENDBLK
  5
1D
330
1B
100
AcDbEntity
 67
     1
  8
0
100
AcDbBlockEnd
  0
BLOCK
  5
24
330
23
100
AcDbEntity
  8
0
100
AcDbBlockBegin
  2
*Paper_Space0
 70
     0
 10
0.0
 20
0.0
 30
0.0
  3
*Paper_Space0
  1

  0
ENDBLK
  5
25
330
23
100
AcDbEntity
  8
0
100
AcDbBlockEnd
  0
BLOCK
  5
188
330
187
100
AcDbEntity
  8
0
100
AcDbBlockBegin
  2
_D
 70
     0
 10
0.0
 20
0.0
 30
0.0
  3
_D
  1

  0
SOLID
  5
18A
330
187
100
AcDbEntity
  8
VERMASSUNG
100
AcDbTrace
 10
204.045552985
 20
125.4499075975
 30
0.0
 11
203.595552985
 21
122.4499075975
 31
0.0
 12
204.495552985
 22
122.4499075975
 32
0.0
 13
204.495552985
 23
122.4499075975
 33
0.0
  0
LINE
  5
18B
330
187
100
AcDbEntity
  8
VERMASSUNG
100
AcDbLine
 10
198.0717639371
 20
125.4499075975
 30
0.0
 11
205.045552985
 21
125.4499075975
 31
0.0
  0
LINE
  5
18C
330
187
100
AcDbEntity
  8
VERMASSUNG
100
AcDbLine
 10
204.045552985
 20
125.4499075975
 30
0.0
 11
204.045552985
 21
104.1095054153
 31
0.0
  0
MTEXT
  5
18D
330
187
100
AcDbEntity
  8
VERMASSUNG
100
AcDbMText
 10
201.4674174473
 20
105.6970054153
 30
0.0
 40
2.0
 41
0.0
 71
     1
 72
     1
  1
%%c
  7
SLDTEXTSTYLE0
 11
-7.044195017643634E-15
 21
1.0
 31
0.0
 73
     1
 44
1.0
  0
MTEXT
  5
18E
330
187
100
AcDbEntity
  8
VERMASSUNG
100
AcDbMText
 10
201.4674173891
 20
109.3068727381
 30
0.0
 40
2.0
 41
0.0
 71
     1
 72
     1
  1
19.75
  7
SLDTEXTSTYLE0
 11
-7.044195017643634E-15
 21
1.0
 31
0.0
 73
     1
 44
1.0
  0
MTEXT
  5
18F
330
187
100
AcDbEntity
  8
VERMASSUNG
100
AcDbMText
 10
201.4674173891
 20
115.1048837894
 30
0.0
 40
2.0
 41
0.0
 71
     1
 72
     1
  1
-25.1
  7
SLDTEXTSTYLE0
 11
-7.044195017643634E-15
 21
1.0
 31
0.0
 73
     1
 44
1.0
  0
ENDBLK
  5
189
330
187
100
AcDbEntity
  8
0
100
AcDbBlockEnd
  0
BLOCK
  5
193
330
192
100
AcDbEntity
  8
0
100
AcDbBlockBegin
  2
_D_1
 70
     0
 10
0.0
 20
0.0
 30
0.0
  3
_D_1
  1

  0
SOLID
  5
195
330
192
100
AcDbEntity
  8
VERMASSUNG
100
AcDbTrace
 10
198.0717639371
 20
132.7214155253
 30
0.0
 11
195.0717639371
 21
133.1714155253
 31
0.0
 12
195.0717639371
 22
132.2714155253
 32
0.0
 13
195.0717639371
 23
132.2714155253
 33
0.0
  0
SOLID
  5
196
330
192
100
AcDbEntity
  8
VERMASSUNG
100
AcDbTrace
 10
93.0717639371
 20
132.7214155253
 30
0.0
 11
96.0717639371
 21
132.2714155253
 31
0.0
 12
96.0717639371
 22
133.1714155253
 32
0.0
 13
96.0717639371
 23
133.1714155253
 33
0.0
  0
LINE
  5
197
330
192
100
AcDbEntity
  8
VERMASSUNG
100
AcDbLine
 10
198.0717639371
 20
125.4499075975
 30
0.0
 11
198.0717639371
 21
133.7214155253
 31
0.0
  0
LINE
  5
198
330
192
100
AcDbEntity
  8
VERMASSUNG
100
AcDbLine
 10
93.0717639371
 20
121.7749075975
 30
0.0
 11
93.0717639371
 21
133.7214155253
 31
0.0
  0
LINE
  5
199
330
192
100
AcDbEntity
  8
VERMASSUNG
100
AcDbLine
 10
198.0717639371
 20
132.7214155253
 30
0.0
 11
93.0717639371
 21
132.7214155253
 31
0.0
  0
MTEXT
  5
19A
330
192
100
AcDbEntity
  8
VERMASSUNG
100
AcDbMText
 10
140.15290498
 20
135.2995511213
 30
0.0
 40
2.0
 41
0.0
 71
     1
 72
     1
  1
105
  7
SLDTEXTSTYLE0
 73
     1
 44
1.0
  0
ENDBLK
  5
194
330
192
100
AcDbEntity
  8
0
100
AcDbBlockEnd
  0
BLOCK
  5
19D
330
19C
100
AcDbEntity
  8
0
100
AcDbBlockBegin
  2
_D_2
 70
     0
 10
0.0
 20
0.0
 30
0.0
  3
_D_2
  1

  0
SOLID
  5
19F
330
19C
100
AcDbEntity
  8
VERMASSUNG
100
AcDbTrace
 10
86.7637069585
 20
123.5749075975
 30
0.0
 11
86.3137069585
 21
120.5749075975
 31
0.0
 12
87.2137069585
 22
120.5749075975
 32
0.0
 13
87.2137069585
 23
120.5749075975
 33
0.0
  0
SOLID
  5
1A0
330
19C
100
AcDbEntity
  8
VERMASSUNG
100
AcDbTrace
 10
86.7637069585
 20
107.5749075975
 30
0.0
 11
87.2137069585
 21
110.5749075975
 31
0.0
 12
86.3137069585
 22
110.5749075975
 32
0.0
 13
86.3137069585
 23
110.5749075975
 33
0.0
  0
LINE
  5
1A1
330
19C
100
AcDbEntity
  8
VERMASSUNG
100
AcDbLine
 10
104.3717639371
 20
123.5749075975
 30
0.0
 11
85.7637069585
 21
123.5749075975
 31
0.0
  0
LINE
  5
1A2
330
19C
100
AcDbEntity
  8
VERMASSUNG
100
AcDbLine
 10
94.4467639371
 20
107.5749075975
 30
0.0
 11
85.7637069585
 21
107.5749075975
 31
0.0
  0
LINE
  5
1A3
330
19C
100
AcDbEntity
  8
VERMASSUNG
100
AcDbLine
 10
86.7637069585
 20
123.5749075975
 30
0.0
 11
86.7637069585
 21
107.5749075975
 31
0.0
  0
MTEXT
  5
1A4
330
19C
100
AcDbEntity
  8
VERMASSUNG
100
AcDbMText
 10
84.1855714207
 20
112.0557670613
 30
0.0
 40
2.0
 41
0.0
 71
     1
 72
     1
  1
%%c
  7
SLDTEXTSTYLE0
 11
-7.044195017643634E-15
 21
1.0
 31
0.0
 73
     1
 44
1.0
  0
MTEXT
  5
1A5
330
19C
100
AcDbEntity
  8
VERMASSUNG
100
AcDbMText
 10
84.1855713625
 20
115.6656343841
 30
0.0
 40
2.0
 41
0.0
 71
     1
 72
     1
  1
16
  7
SLDTEXTSTYLE0
 11
-7.044195017643634E-15
 21
1.0
 31
0.0
 73
     1
 44
1.0
  0
ENDBLK
  5
19E
330
19C
100
AcDbEntity
  8
0
100
AcDbBlockEnd
  0
ENDSEC
  0
SECTION
  2
ENTITIES
  0
MTEXT
  5
78
330
1F
100
AcDbEntity
  8
KOPF_DÜNN
100
AcDbMText
 10
13.8892156294
 20
23.8442973028
 30
0.0
 40
3.0
 41
0.0
 71
     1
 72
     1
  1
M54.020.009.105
  7
SLDTEXTSTYLE0
 73
     1
 44
1.0
  0
MTEXT
  5
79
330
1F
100
AcDbEntity
  8
VERMASSUNG
100
AcDbMText
 10
13.9329988022
 20
28.8834360957
 30
0.0
 40
3.0
 41
0.0
 71
     1
 72
     1
  1
Ausdrehstahl_Boring bar ø19.75-25.1
  7
SLDTEXTSTYLE0
 73
     1
 44
1.0
  0
MTEXT
  5
7A
330
1F
100
AcDbEntity
  8
VERMASSUNG
100
AcDbMText
 10
98.8601118557
 20
13.8365368761
 30
0.0
 40
2.0
 41
0.0
 71
     1
 72
     1
  1
Datum: 04.08.2006
  7
SLDTEXTSTYLE0
 73
     1
 44
1.0
  0
MTEXT
  5
7B
330
1F
100
AcDbEntity
  8
VERMASSUNG
100
AcDbMText
 10
13.933048693
 20
18.0482802738
 30
0.0
 40
2.0
 41
0.0
 71
     1
 72
     1
  1
mit Innenkühlung_with spindel coolant feed
  7
SLDTEXTSTYLE0
 73
     1
 44
1.0
  0
MTEXT
  5
7C
330
1F
100
AcDbEntity
  8
VERMASSUNG
100
AcDbMText
 10
13.9808475933
 20
13.9090974274
 30
0.0
 40
2.0
 41
0.0
 71
     1
 72
     1
  1
Gewicht: 145g
  7
SLDTEXTSTYLE0
 73
     1
 44
1.0
  0
LINE
  5
7D
330
1F
100
AcDbEntity
  8
0
  6
Continuous
 62
     7
370
    25
100
AcDbLine
 10
194.0136334856
 20
118.660665628
 30
0.0
 11
194.0136334856
 21
118.5006596536
 31
0.0
  0
LINE
  5
7E
330
1F
100
AcDbEntity
  8
0
  6
Continuous
 62
     7
370
    25
100
AcDbLine
 10
190.6022572417
 20
119.7702573641
 30
0.0
 11
190.6022572417
 21
119.6694181207
 31
0.0
  0
LINE
  5
7F
330
1F
100
AcDbEntity
  8
0
  6
Continuous
 62
     7
370
    25
100
AcDbLine
 10
195.8522572417
 20
119.6694181207
 30
0.0
 11
195.8522572417
 21
119.7702573641
 31
0.0
  0
LINE
  5
80
330
1F
100
AcDbEntity
  8
0
  6
Continuous
 62
     7
370
    25
100
AcDbLine
 10
192.1263957401
 20
119.0039018269
 30
0.0
 11
192.1263957401
 21
119.1888274084
 31
0.0
  0
LINE
  5
81
330
1F
100
AcDbEntity
  8
0
  6
Continuous
 62
     7
370
    25
100
AcDbLine
 10
194.3234242226
 20
120.4067036205
 30
0.0
 11
194.3234242226
 21
120.2218989864
 31
0.0
  0
LINE
  5
82
330
1F
100
AcDbEntity
  8
0
  6
Continuous
 62
     7
370
    25
100
AcDbLine
 10
192.4361864771
 20
120.753250388
 30
0.0
 11
192.4361864771
 21
120.9413966963
 31
0.0
  0
LINE
  5
83
330
1F
100
AcDbEntity
  8
0
  6
Continuous
 62
     7
370
    25
100
AcDbLine
 10
188.752147395
 20
114.4108813147
 30
0.0
 11
188.9467639371
 21
114.3035538043
 31
0.0
  0
LINE
  5
84
330
1F
100
AcDbEntity
  8
0
  6
Continuous
 62
     7
370
    25
100
AcDbLine
 10
197.747207025
 20
115.8686400943
 30
0.0
 11
197.8663804793
 21
115.9343621034
 31
0.0
  0
LINE
  5
85
330
1F
100
AcDbEntity
  8
0
  6
Continuous
 62
     7
370
    25
100
AcDbLine
 10
173.3217639371
 20
107.3249075975
 30
0.0
 11
186.8490201865
 21
107.3249075975
 31
0.0
  0
LINE
  5
86
330
1F
100
AcDbEntity
  8
0
  6
Continuous
 62
     7
370
    25
100
AcDbLine
 10
182.4248864258
 20
123.8249075975
 30
0.0
 11
173.3217639371
 21
123.8249075975
 31
0.0
  0
LINE
  5
87
330
1F
100
AcDbEntity
  8
0
  6
Continuous
 62
     7
370
    25
100
AcDbLine
 10
173.3217639371
 20
123.8249075975
 30
0.0
 11
173.0717639371
 21
123.5749075975
 31
0.0
  0
LINE
  5
88
330
1F
100
AcDbEntity
  8
0
  6
Continuous
 62
     7
370
    25
100
AcDbLine
 10
173.0717639371
 20
107.5749075975
 30
0.0
 11
173.3217639371
 21
107.3249075975
 31
0.0
  0
LINE
  5
89
330
1F
100
AcDbEntity
  8
0
  6
Continuous
 62
     7
370
    25
100
AcDbLine
 10
93.0717639371
 20
108.9499075975
 30
0.0
 11
94.4467639371
 21
107.5749075975
 31
0.0
  0
LINE
  5
8A
330
1F
100
AcDbEntity
  8
0
  6
Continuous
 62
     7
370
    25
100
AcDbLine
 10
94.4467639371
 20
107.5749075975
 30
0.0
 11
173.0717639371
 21
107.5749075975
 31
0.0
  0
LINE
  5
8B
330
1F
100
AcDbEntity
  8
0
  6
Continuous
 62
     7
370
    25
100
AcDbLine
 10
107.2717639371
 20
123.5749075975
 30
0.0
 11
104.3717639371
 21
123.5749075975
 31
0.0
  0
LINE
  5
8C
330
1F
100
AcDbEntity
  8
0
  6
Continuous
 62
     7
370
    25
100
AcDbLine
 10
121.7717639371
 20
123.5749075975
 30
0.0
 11
118.8717639371
 21
123.5749075975
 31
0.0
  0
LINE
  5
8D
330
1F
100
AcDbEntity
  8
0
  6
Continuous
 62
     7
370
    25
100
AcDbLine
 10
136.2717639371
 20
123.5749075975
 30
0.0
 11
133.3717639371
 21
123.5749075975
 31
0.0
  0
LINE
  5
8E
330
1F
100
AcDbEntity
  8
0
  6
Continuous
 62
     7
370
    25
100
AcDbLine
 10
150.7717639371
 20
123.5749075975
 30
0.0
 11
147.8717639371
 21
123.5749075975
 31
0.0
  0
LINE
  5
8F
330
1F
100
AcDbEntity
  8
0
  6
Continuous
 62
     7
370
    25
100
AcDbLine
 10
173.0717639371
 20
123.5749075975
 30
0.0
 11
162.3717639371
 21
123.5749075975
 31
0.0
  0
CIRCLE
  5
90
330
1F
100
AcDbEntity
  8
0
  6
Continuous
 62
     7
370
    25
100
AcDbCircle
 10
193.2186278977
 20
119.7889518726
 30
0.0
 40
2.617146416866648
  0
CIRCLE
  5
91
330
1F
100
AcDbEntity
  8
0
  6
Continuous
 62
     7
370
    25
100
AcDbCircle
 10
193.2207202992
 20
119.8206336236
 30
0.0
 40
1.79374359681199
  0
ARC
  5
92
330
1F
100
AcDbEntity
  8
0
  6
Continuous
 62
     7
370
    25
100
AcDbCircle
 10
193.2406317413
 20
119.8156329947
 30
0.0
 40
1.662572533022691
100
AcDbArc
 50
291.073226601
 51
349.7770426809
  0
ARC
  5
93
330
1F
100
AcDbEntity
  8
0
  6
Continuous
 62
     7
370
    25
100
AcDbCircle
 10
193.251835961
 20
119.8079275706
 30
0.0
 40
1.650188117180667
100
AcDbArc
 50
349.9712911947
 51
50.4978742147
  0
ARC
  5
94
330
1F
100
AcDbEntity
  8
0
  6
Continuous
 62
     7
370
    25
100
AcDbCircle
 10
193.2271375668
 20
119.7798610732
 30
0.0
 40
1.687555501373087
100
AcDbArc
 50
50.4569956012
 51
108.5582048832
  0
LINE
  5
95
330
1F
100
AcDbEntity
  8
0
  6
Continuous
 62
     7
370
    25
100
AcDbLine
 10
192.6102842498
 20
121.3506676555
 30
0.0
 11
192.6900428835
 21
121.3796650835
 31
0.0
  0
ARC
  5
96
330
1F
100
AcDbEntity
  8
0
  6
Continuous
 62
     7
370
    25
100
AcDbCircle
 10
193.2142939114
 20
119.8010207629
 30
0.0
 40
1.663199676245142
100
AcDbArc
 50
111.2944661806
 51
167.8232505698
  0
LINE
  5
97
330
1F
100
AcDbEntity
  8
0
  6
Continuous
 62
     7
370
    25
100
AcDbLine
 10
191.5679288096
 20
120.0349582596
 30
0.0
 11
191.588513618
 21
120.1518363848
 31
0.0
  0
ARC
  5
98
330
1F
100
AcDbEntity
  8
0
  6
Continuous
 62
     7
370
    25
100
AcDbCircle
 10
193.2023641607
 20
119.8093437866
 30
0.0
 40
1.649933576689073
100
AcDbArc
 50
172.1406626963
 51
228.3285027131
  0
LINE
  5
99
330
1F
100
AcDbEntity
  8
0
  6
Continuous
 62
     7
370
    25
100
AcDbLine
 10
192.1971700064
 20
118.5006329177
 30
0.0
 11
192.1053912284
 21
118.5768945206
 31
0.0
  0
ARC
  5
9A
330
1F
100
AcDbEntity
  8
0
  6
Continuous
 62
     7
370
    25
100
AcDbCircle
 10
193.2273745667
 20
119.8377346648
 30
0.0
 40
1.687946242631944
100
AcDbArc
 50
232.3866179207
 51
288.3423218761
  0
LINE
  5
9B
330
1F
100
AcDbEntity
  8
0
  6
Continuous
 62
     7
370
    25
100
AcDbLine
 10
193.8384276756
 20
118.2642505633
 30
0.0
 11
193.7585605631
 21
118.2355474238
 31
0.0
  0
SPLINE
  5
9C
330
1F
100
AcDbEntity
  8
0
  6
Continuous
 62
     7
370
    25
100
AcDbSpline
210
0.0
220
0.0
230
1.0
 70
     8
 71
     3
 72
    11
 73
     7
 74
     0
 42
0.000000001
 43
0.00000001
 40
0.0
 40
0.0
 40
0.0
 40
0.0
 40
0.2657596322622799
 40
0.5530029385954557
 40
0.8418208483437626
 40
1.0
 40
1.0
 40
1.0
 40
1.0
 10
192.197170006441
 20
118.5006329177125
 30
0.0
 10
192.2288098385108
 20
118.4861523529941
 30
0.0
 10
192.294647226839
 20
118.456020632937
 30
0.0
 10
192.4062359070038
 20
118.4521518512807
 30
0.0
 10
192.4990775627782
 20
118.4767411465464
 30
0.0
 10
192.5469285555357
 20
118.5071149533542
 30
0.0
 10
192.5638616186223
 20
118.5178633528589
 30
0.0
  0
SPLINE
  5
9D
330
1F
100
AcDbEntity
  8
0
  6
Continuous
 62
     7
370
    25
100
AcDbSpline
210
0.0
220
0.0
230
1.0
 70
     8
 71
     3
 72
    12
 73
     8
 74
     0
 42
0.000000001
 43
0.00000001
 40
0.0
 40
0.0
 40
0.0
 40
0.0
 40
0.2057904614204045
 40
0.4120344203360449
 40
0.6141302471427764
 40
0.8132633242114139
 40
1.0
 40
1.0
 40
1.0
 40
1.0
 10
192.5638616186223
 20
118.5178633528589
 30
0.0
 10
192.6198881014225
 20
118.550204563013
 30
0.0
 10
192.7320645317813
 20
118.614958253183
 30
0.0
 10
192.9318928914089
 20
118.6375947509941
 30
0.0
 10
193.1244888871282
 20
118.6000154645799
 30
0.0
 10
193.2922131704676
 20
118.5093748502358
 30
0.0
 10
193.3683043951508
 20
118.4166241693018
 30
0.0
 10
193.4051277591196
 20
118.3717386769654
 30
0.0
  0
SPLINE
  5
9E
330
1F
100
AcDbEntity
  8
0
  6
Continuous
 62
     7
370
    25
100
AcDbSpline
210
0.0
220
0.0
230
1.0
 70
     8
 71
     3
 72
    11
 73
     7
 74
     0
 42
0.000000001
 43
0.00000001
 40
0.0
 40
0.0
 40
0.0
 40
0.0
 40
0.280237141101202
 40
0.5612869875925269
 40
0.8399906057824803
 40
1.0
 40
1.0
 40
1.0
 40
1.0
 10
193.4051277591197
 20
118.3717386769654
 30
0.0
 10
193.4289079010175
 20
118.3433299257545
 30
0.0
 10
193.4765371487252
 20
118.2864300361619
 30
0.0
 10
193.5802950355107
 20
118.2367785020404
 30
0.0
 10
193.6783647821441
 20
118.2221775882553
 30
0.0
 10
193.7371281293295
 20
118.2319743166931
 30
0.0
 10
193.758560563106
 20
118.2355474238003
 30
0.0
  0
LINE
  5
9F
330
1F
100
AcDbEntity
  8
0
  6
Continuous
 62
     7
370
    25
100
AcDbLine
 10
194.0177693014
 20
118.5931652375
 30
0.0
 11
194.0211212019
 21
118.6603062123
 31
0.0
  0
SPLINE
  5
A0
330
1F
100
AcDbEntity
  8
0
  6
Continuous
 62
     7
370
    25
100
AcDbSpline
210
0.0
220
0.0
230
1.0
 70
     8
 71
     3
 72
    12
 73
     8
 74
     0
 42
0.000000001
 43
0.00000001
 40
0.0
 40
0.0
 40
0.0
 40
0.0
 40
0.0691664444110352
 40
0.3109104753444914
 40
0.547786628525105
 40
0.7811853479602443
 40
0.9999999999999999
 40
0.9999999999999999
 40
0.9999999999999999
 40
0.9999999999999999
 10
194.0245120425788
 20
118.7282271872157
 30
0.0
 10
194.0248022200858
 20
118.7463777570976
 30
0.0
 10
194.0261065986383
 20
118.8279664863987
 30
0.0
 10
194.0938722467986
 20
118.9653492582206
 30
0.0
 10
194.2203456471918
 20
119.1120658791944
 30
0.0
 10
194.3861990609961
 20
119.2116386551557
 30
0.0
 10
194.507481144058
 20
119.2317995228763
 30
0.0
 10
194.5661664870351
 20
119.2415548585947
 30
0.0
  0
SPLINE
  5
A1
330
1F
100
AcDbEntity
  8
0
  6
Continuous
 62
     7
370
    25
100
AcDbSpline
210
0.0
220
0.0
230
1.0
 70
     8
 71
     3
 72
    11
 73
     7
 74
     0
 42
0.000000001
 43
0.00000001
 40
0.0
 40
0.0
 40
0.0
 40
0.0
 40
0.2524782265334355
 40
0.5068902417934447
 40
0.7591786113117815
 40
1.0
 40
1.0
 40
1.0
 40
1.0
 10
194.5661664870351
 20
119.2415548585947
 30
0.0
 10
194.603428825427
 20
119.2480941742206
 30
0.0
 10
194.6782389030191
 20
119.2612228915927
 30
0.0
 10
194.7748563082916
 20
119.3259853053214
 30
0.0
 10
194.8474060090638
 20
119.414573030459
 30
0.0
 10
194.8671619593765
 20
119.4857837718905
 30
0.0
 10
194.8768102279618
 20
119.5205611604042
 30
0.0
  0
SPLINE
  5
A2
330
1F
100
AcDbEntity
  8
0
  6
Continuous
 62
     7
370
    25
100
AcDbSpline
210
0.0
220
0.0
230
1.0
 70
     8
 71
     3
 72
    11
 73
     7
 74
     0
 42
0.000000001
 43
0.00000001
 40
0.0
 40
0.0
 40
0.0
 40
0.0
 40
0.2423611237743525
 40
0.5166847928457133
 40
0.7923341374632448
 40
0.9999999999999999
 40
0.9999999999999999
 40
0.9999999999999999
 40
0.9999999999999999
 10
193.8384276756234
 20
118.2642505632525
 30
0.0
 10
193.8664955128901
 20
118.2815954225543
 30
0.0
 10
193.9263327692039
 20
118.3185725783609
 30
0.0
 10
193.9896064694596
 20
118.4062458078231
 30
0.0
 10
194.0220227397785
 20
118.5028827649262
 30
0.0
 10
194.0190476199774
 20
118.5660319507244
 30
0.0
 10
194.017769301376
 20
118.5931652375383
 30
0.0
  0
SPLINE
  5
A3
330
1F
100
AcDbEntity
  8
0
  6
Continuous
 62
     7
370
    25
100
AcDbSpline
210
0.0
220
0.0
230
1.0
 70
     8
 71
     3
 72
    11
 73
     7
 74
     0
 42
0.000000001
 43
0.00000001
 40
0.0
 40
0.0
 40
0.0
 40
0.0
 40
0.2928993220618894
 40
0.5864344719080383
 40
0.8775178868035816
 40
1.0
 40
1.0
 40
1.0
 40
1.0
 10
192.0638712534341
 20
118.9325497877303
 30
0.0
 10
192.0502184084402
 20
118.8983255104408
 30
0.0
 10
192.0228830807663
 20
118.8298026615743
 30
0.0
 10
192.0298146691092
 20
118.7167760178189
 30
0.0
 10
192.0633080240016
 20
118.6314246809301
 30
0.0
 10
192.0957755909226
 20
118.5893541767051
 30
0.0
 10
192.1053912284376
 20
118.5768945205909
 30
0.0
  0
SPLINE
  5
A4
330
1F
100
AcDbEntity
  8
0
  6
Continuous
 62
     7
370
    25
100
AcDbSpline
210
0.0
220
0.0
230
1.0
 70
     8
 71
     3
 72
    11
 73
     7
 74
     0
 42
0.000000001
 43
0.00000001
 40
0.0
 40
0.0
 40
0.0
 40
0.0
 40
0.2669010467950511
 40
0.5546143410792079
 40
0.8439070439782644
 40
1.0
 40
1.0
 40
1.0
 40
1.0
 10
191.56792880959
 20
120.0349582595655
 30
0.0
 10
191.5713263843224
 20
120.0004057589233
 30
0.0
 10
191.5783864678032
 20
119.9286064437598
 30
0.0
 10
191.6323434225669
 20
119.8303224517848
 30
0.0
 10
191.7017032965829
 20
119.7625654414179
 30
0.0
 10
191.7530181412129
 20
119.7362772708933
 30
0.0
 10
191.7710022985958
 20
119.7270641357969
 30
0.0
  0
SPLINE
  5
A5
330
1F
100
AcDbEntity
  8
0
  6
Continuous
 62
     7
370
    25
100
AcDbSpline
210
0.0
220
0.0
230
1.0
 70
     8
 71
     3
 72
    12
 73
     8
 74
     0
 42
0.000000001
 43
0.00000001
 40
0.0
 40
0.0
 40
0.0
 40
0.0
 40
0.205840128133724
 40
0.4120619935510126
 40
0.6141387330970117
 40
0.813277211352457
 40
1.0
 40
1.0
 40
1.0
 40
1.0
 10
191.7710022985958
 20
119.7270641357969
 30
0.0
 10
191.8285030710427
 20
119.6944980566258
 30
0.0
 10
191.9436112530089
 20
119.6293055034194
 30
0.0
 10
192.0652313563406
 20
119.4681484234624
 30
0.0
 10
192.1285183176505
 20
119.2842838233922
 30
0.0
 10
192.131094464132
 20
119.0962941938944
 30
0.0
 10
192.0857931096955
 20
118.9859477331464
 30
0.0
 10
192.0638712534341
 20
118.9325497877303
 30
0.0
  0
ARC
  5
A6
330
1F
100
AcDbEntity
  8
0
  6
Continuous
 62
     7
370
    25
100
AcDbCircle
 10
193.2367748356
 20
119.6832458591
 30
0.0
 40
2.615518958563775
100
AcDbArc
 50
259.7515729036
 51
359.6970869832
  0
ARC
  5
A7
330
1F
100
AcDbEntity
  8
0
  6
Continuous
 62
     7
370
    25
100
AcDbCircle
 10
193.2104206906
 20
119.6804335731
 30
0.0
 40
2.608186710491127
100
AcDbArc
 50
180.2419845203
 51
260.3102926574
  0
ARC
  5
A8
330
1F
100
AcDbEntity
  8
0
  6
Continuous
 62
     7
370
    25
100
AcDbCircle
 10
191.5505968983
 20
119.0039733648
 30
0.0
 40
0.5757988462668736
100
AcDbArc
 50
333.0512956479
 51
359.9928814986
  0
ARC
  5
A9
330
1F
100
AcDbEntity
  8
0
  6
Continuous
 62
     7
370
    25
100
AcDbCircle
 10
194.5493480837
 20
119.3815092195
 30
0.0
 40
0.3329548891233395
100
AcDbArc
 50
22.1135357288
 51
67.1170246392
  0
SPLINE
  5
AA
330
1F
100
AcDbEntity
  8
0
  6
Continuous
 62
     7
370
    25
100
AcDbSpline
210
0.0
220
0.0
230
1.0
 70
     8
 71
     3
 72
    12
 73
     8
 74
     0
 42
0.000000001
 43
0.00000001
 40
0.0
 40
0.0
 40
0.0
 40
0.0
 40
0.0091681771490109
 40
0.2573268097002963
 40
0.5054934687430549
 40
0.754992535945383
 40
1.0
 40
1.0
 40
1.0
 40
1.0
 10
194.8768102279618
 20
119.5205611604042
 30
0.0
 10
194.8770431555648
 20
119.5219006689488
 30
0.0
 10
194.8835808255961
 20
119.5594971785673
 30
0.0
 10
194.8831741031316
 20
119.6359705952721
 30
0.0
 10
194.8452093341361
 20
119.7402352650447
 30
0.0
 10
194.775785525878
 20
119.8276168919295
 30
0.0
 10
194.7109439660515
 20
119.8610855318386
 30
0.0
 10
194.6788176641034
 20
119.877667853954
 30
0.0
  0
ARC
  5
AB
330
1F
100
AcDbEntity
  8
0
  6
Continuous
 62
     7
370
    25
100
AcDbCircle
 10
191.9015855704
 20
119.8399997012
 30
0.0
 40
0.3341484840836463
100
AcDbArc
 50
93.0762585812
 51
164.1544392797
  0
SPLINE
  5
AC
330
1F
100
AcDbEntity
  8
0
  6
Continuous
 62
     7
370
    25
100
AcDbSpline
210
0.0
220
0.0
230
1.0
 70
     8
 71
     3
 72
    11
 73
     7
 74
     0
 42
0.000000001
 43
0.00000001
 40
0.0
 40
0.0
 40
0.0
 40
0.0
 40
0.290864166607496
 40
0.5839560789889459
 40
0.8745988053616947
 40
0.9999999999999999
 40
0.9999999999999999
 40
0.9999999999999999
 40
0.9999999999999999
 10
191.8836534756639
 20
120.363177170947
 30
0.0
 10
191.8464033462581
 20
120.3582179399316
 30
0.0
 10
191.7716177865127
 20
120.3482614948585
 30
0.0
 10
191.6747863658725
 20
120.2869606820059
 30
0.0
 10
191.6156904091586
 20
120.2158078019002
 30
0.0
 10
191.5948078886214
 20
120.1666524611036
 30
0.0
 10
191.5885136180164
 20
120.1518363848495
 30
0.0
  0
SPLINE
  5
AD
330
1F
100
AcDbEntity
  8
0
  6
Continuous
 62
     7
370
    25
100
AcDbSpline
210
0.0
220
0.0
230
1.0
 70
     8
 71
     3
 72
    12
 73
     8
 74
     0
 42
0.000000001
 43
0.00000001
 40
0.0
 40
0.0
 40
0.0
 40
0.0
 40
0.2058435564096318
 40
0.4120691620553299
 40
0.6141397217727171
 40
0.8132604579561284
 40
1.0
 40
1.0
 40
1.0
 40
1.0
 10
194.6788176641034
 20
119.877667853954
 30
0.0
 10
194.6213163181743
 20
119.9075162252804
 30
0.0
 10
194.5062069028136
 20
119.9672683670318
 30
0.0
 10
194.3845871739748
 20
120.124056520439
 30
0.0
 10
194.3213029849456
 20
120.3082408434234
 30
0.0
 10
194.3187250594253
 20
120.5008433805952
 30
0.0
 10
194.3640253464885
 20
120.6163042015139
 30
0.0
 10
194.3859487092651
 20
120.6721822020208
 30
0.0
  0
SPLINE
  5
AE
330
1F
100
AcDbEntity
  8
0
  6
Continuous
 62
     7
370
    25
100
AcDbSpline
210
0.0
220
0.0
230
1.0
 70
     8
 71
     3
 72
    11
 73
     7
 74
     0
 42
0.000000001
 43
0.00000001
 40
0.0
 40
0.0
 40
0.0
 40
0.0
 40
0.2535086227482435
 40
0.5075674742604028
 40
0.7595056251924631
 40
1.0
 40
1.0
 40
1.0
 40
1.0
 10
194.3859487092651
 20
120.6721822020208
 30
0.0
 10
194.399609747474
 20
120.7080091612161
 30
0.0
 10
194.4269614745449
 20
120.7797408403678
 30
0.0
 10
194.419909648453
 20
120.8960464379142
 30
0.0
 10
194.3794913915893
 20
121.0030435816476
 30
0.0
 10
194.3271126651532
 20
121.0555642709113
 30
0.0
 10
194.301531923815
 20
121.0812143441065
 30
0.0
  0
SPLINE
  5
AF
330
1F
100
AcDbEntity
  8
0
  6
Continuous
 62
     7
370
    25
100
AcDbSpline
210
0.0
220
0.0
230
1.0
 70
     8
 71
     3
 72
    11
 73
     7
 74
     0
 42
0.000000001
 43
0.00000001
 40
0.0
 40
0.0
 40
0.0
 40
0.0
 40
0.2431090893443936
 40
0.5182793655622774
 40
0.794779408575168
 40
1.0
 40
1.0
 40
1.0
 40
1.0
 10
192.6102842498147
 20
121.3506676555052
 30
0.0
 10
192.5822825426855
 20
121.3329437579045
 30
0.0
 10
192.5225862678786
 20
121.2951585379914
 30
0.0
 10
192.459643886586
 20
121.204726392345
 30
0.0
 10
192.42774036343
 20
121.1049566359382
 30
0.0
 10
192.4307629792777
 20
121.0394666223058
 30
0.0
 10
192.4320506613231
 20
121.01156684312
 30
0.0
  0
SPLINE
  5
B0
330
1F
100
AcDbEntity
  8
0
  6
Continuous
 62
     7
370
    25
100
AcDbSpline
210
0.0
220
0.0
230
1.0
 70
     8
 71
     3
 72
    12
 73
     8
 74
     0
 42
0.000000001
 43
0.00000001
 40
0.0
 40
0.0
 40
0.0
 40
0.0
 40
0.2058179564999004
 40
0.4120215045906894
 40
0.6140779969166738
 40
0.813213000645207
 40
1.0
 40
1.0
 40
1.0
 40
1.0
 10
192.4320506613231
 20
121.01156684312
 30
0.0
 10
192.4335094299271
 20
120.9452989668496
 30
0.0
 10
192.436429700079
 20
120.8126390641314
 30
0.0
 10
192.3582251792029
 20
120.6266856630999
 30
0.0
 10
192.2289499712104
 20
120.4805701950092
 30
0.0
 10
192.0638189082941
 20
120.3855073707383
 30
0.0
 10
191.9424137892004
 20
120.3704600859985
 30
0.0
 10
191.8836534756639
 20
120.363177170947
 30
0.0
  0
ARC
  5
B1
330
1F
100
AcDbEntity
  8
0
  6
Continuous
 62
     7
370
    25
100
AcDbCircle
 10
194.9038345724
 20
120.2232800205
 30
0.0
 40
0.580411992906491
100
AcDbArc
 50
180.1363298892
 51
247.1894825062
  0
ARC
  5
B2
330
1F
100
AcDbEntity
  8
0
  6
Continuous
 62
     7
370
    25
100
AcDbCircle
 10
191.8533939805
 20
120.7556781448
 30
0.0
 40
0.5827975532178933
100
AcDbArc
 50
272.9761986277
 51
359.7613225698
  0
ARC
  5
B3
330
1F
100
AcDbEntity
  8
0
  6
Continuous
 62
     7
370
    25
100
AcDbCircle
 10
194.0865895678
 20
120.6279328841
 30
0.0
 40
0.3359929494423654
100
AcDbArc
 50
18.4775709931
 51
126.6645720552
  0
SPLINE
  5
B4
330
1F
100
AcDbEntity
  8
0
  6
Continuous
 62
     7
370
    25
100
AcDbSpline
210
0.0
220
0.0
230
1.0
 70
     8
 71
     3
 72
    12
 73
     8
 74
     0
 42
0.000000001
 43
0.00000001
 40
0.0
 40
0.0
 40
0.0
 40
0.0
 40
0.0091735205189891
 40
0.2576775215524382
 40
0.5061895192300205
 40
0.7560357430218844
 40
1.0
 40
1.0
 40
1.0
 40
1.0
 10
194.301531923815
 20
121.0812143441065
 30
0.0
 10
194.300476064207
 20
121.0820811551455
 30
0.0
 10
194.270817735504
 20
121.1064292469946
 30
0.0
 10
194.2034294384546
 20
121.1440576015197
 30
0.0
 10
194.0922489438424
 20
121.1628702754643
 30
0.0
 10
193.979852381203
 20
121.1459816021972
 30
0.0
 10
193.9170068306002
 20
121.1064158910466
 30
0.0
 10
193.885958344077
 20
121.0868686766828
 30
0.0
  0
SPLINE
  5
B5
330
1F
100
AcDbEntity
  8
0
  6
Continuous
 62
     7
370
    25
100
AcDbSpline
210
0.0
220
0.0
230
1.0
 70
     8
 71
     3
 72
    12
 73
     8
 74
     0
 42
0.000000001
 43
0.00000001
 40
0.0
 40
0.0
 40
0.0
 40
0.0
 40
0.2057532787804123
 40
0.4119604088044934
 40
0.6140154573249593
 40
0.8131414684041658
 40
1.0
 40
1.0
 40
1.0
 40
1.0
 10
193.885958344077
 20
121.0868686766828
 30
0.0
 10
193.8299403581815
 20
121.0518142614622
 30
0.0
 10
193.7177808217374
 20
120.9816281078793
 30
0.0
 10
193.517982690325
 20
120.9546104140385
 30
0.0
 10
193.3254102646317
 20
120.9924835703514
 30
0.0
 10
193.1576569341414
 20
121.0877176508228
 30
0.0
 10
193.0815407309041
 20
121.1856051832936
 30
0.0
 10
193.0446922035796
 20
121.232993403693
 30
0.0
  0
SPLINE
  5
B6
330
1F
100
AcDbEntity
  8
0
  6
Continuous
 62
     7
370
    25
100
AcDbSpline
210
0.0
220
0.0
230
1.0
 70
     8
 71
     3
 72
    11
 73
     7
 74
     0
 42
0.000000001
 43
0.00000001
 40
0.0
 40
0.0
 40
0.0
 40
0.0
 40
0.2794069064553695
 40
0.5596240257155242
 40
0.8375007392217938
 40
1.0
 40
1.0
 40
1.0
 40
1.0
 10
193.0446922035796
 20
121.232993403693
 30
0.0
 10
193.0209098101629
 20
121.2629928951385
 30
0.0
 10
192.9732760601107
 20
121.3230788693369
 30
0.0
 10
192.8695100004727
 20
121.3761830770503
 30
0.0
 10
192.7710192885632
 20
121.3927921455749
 30
0.0
 10
192.7118692999846
 20
121.3832033576908
 30
0.0
 10
192.6900428835123
 20
121.3796650835026
 30
0.0
  0
ARC
  5
B7
330
1F
100
AcDbEntity
  8
0
  6
Continuous
 62
     7
370
    25
100
AcDbCircle
 10
192.7648184779
 20
120.8571560798
 30
0.0
 40
0.3362570872798297
100
AcDbArc
 50
33.6621293545
 51
158.108129679
  0
ARC
  5
B8
330
1F
100
AcDbEntity
  8
0
  6
Continuous
 62
     7
370
    25
100
AcDbCircle
 10
193.5349005461
 20
121.3711374801
 30
0.0
 40
0.5895959146239296
100
AcDbArc
 50
213.753978084
 51
306.5426511312
  0
LINE
  5
B9
330
1F
100
AcDbEntity
  8
0
  6
Continuous
 62
     7
370
    25
100
AcDbLine
 10
197.6717639371
 20
116.2482835213
 30
0.0
 11
197.7412232082
 21
115.8903347035
 31
0.0
  0
LINE
  5
BA
330
1F
100
AcDbEntity
  8
0
  6
Continuous
 62
     7
370
    25
100
AcDbLine
 10
189.0162232082
 20
114.3668539148
 30
0.0
 11
197.7412232082
 21
115.8903347035
 31
0.0
  0
LINE
  5
BB
330
1F
100
AcDbEntity
  8
0
  6
Continuous
 62
     7
370
    25
100
AcDbLine
 10
188.9467639371
 20
114.7248027325
 30
0.0
 11
189.0162232082
 21
114.3668539148
 31
0.0
  0
LINE
  5
BC
330
1F
100
AcDbEntity
  8
0
  6
Continuous
 62
     7
370
    25
100
AcDbLine
 10
189.2395842602
 20
115.0468476661
 30
0.0
 11
188.9467639371
 21
114.7248027325
 31
0.0
  0
LINE
  5
BD
330
1F
100
AcDbEntity
  8
0
  6
Continuous
 62
     7
370
    25
100
AcDbLine
 10
189.2395842602
 20
115.0468476661
 30
0.0
 11
189.3505948266
 21
115.0662313298
 31
0.0
  0
LINE
  5
BE
330
1F
100
AcDbEntity
  8
0
  6
Continuous
 62
     7
370
    25
100
AcDbLine
 10
197.5221215703
 20
116.3606023798
 30
0.0
 11
197.6717639371
 21
116.2482835213
 31
0.0
  0
ARC
  5
BF
330
1F
100
AcDbEntity
  8
0
  6
Continuous
 62
     7
370
    25
100
AcDbCircle
 10
188.9455687485
 20
114.7593574852
 30
0.0
 40
0.3988121179907743
100
AcDbArc
 50
180.3468266876
 51
280.2045134256
  0
LINE
  5
C0
330
1F
100
AcDbEntity
  8
0
  6
Continuous
 62
     7
370
    25
100
AcDbLine
 10
188.9467639371
 20
114.7248027325
 30
0.0
 11
188.5467639371
 21
114.7569433834
 31
0.0
  0
LINE
  5
C1
330
1F
100
AcDbEntity
  8
0
  6
Continuous
 62
     7
370
    25
100
AcDbLine
 10
188.9467639371
 20
114.3035538043
 30
0.0
 11
189.0162232082
 21
114.3668539148
 31
0.0
  0
LINE
  5
C2
330
1F
100
AcDbEntity
  8
0
  6
Continuous
 62
     7
370
    25
100
AcDbLine
 10
197.7369589452
 20
115.8864485654
 30
0.0
 11
197.7412232082
 21
115.8903347035
 31
0.0
  0
LINE
  5
C3
330
1F
100
AcDbEntity
  8
0
  6
Continuous
 62
     7
370
    25
100
AcDbLine
 10
189.0342186439
 20
114.3076363283
 30
0.0
 11
190.8758480815
 21
114.6292050467
 31
0.0
  0
LINE
  5
C4
330
1F
100
AcDbEntity
  8
0
  6
Continuous
 62
     7
370
    25
100
AcDbLine
 10
189.0342186439
 20
114.3076363283
 30
0.0
 11
188.9467639371
 21
114.3035538043
 31
0.0
  0
LINE
  5
C5
330
1F
100
AcDbEntity
  8
0
  6
Continuous
 62
     7
370
    25
100
AcDbLine
 10
188.5467639371
 20
123.5303195813
 30
0.0
 11
188.5467639371
 21
114.7569433834
 31
0.0
  0
LINE
  5
C6
330
1F
100
AcDbEntity
  8
0
  6
Continuous
 62
     7
370
    25
100
AcDbLine
 10
188.9467639371
 20
123.4981789304
 30
0.0
 11
188.5467639371
 21
123.5303195813
 31
0.0
  0
LINE
  5
C7
330
1F
100
AcDbEntity
  8
0
  6
Continuous
 62
     7
370
    25
100
AcDbLine
 10
189.096406304
 20
123.3618120564
 30
0.0
 11
188.9467639371
 21
123.4981789304
 31
0.0
  0
LINE
  5
C8
330
1F
100
AcDbEntity
  8
0
  6
Continuous
 62
     7
370
    25
100
AcDbLine
 10
189.2395842602
 20
115.1584737362
 30
0.0
 11
189.2395842602
 21
115.0468476661
 31
0.0
  0
SPLINE
  5
C9
330
1F
100
AcDbEntity
  8
0
  6
Continuous
 62
     7
370
    25
100
AcDbSpline
210
0.0
220
0.0
230
1.0
 70
     8
 71
     3
 72
     9
 73
     5
 74
     0
 42
0.000000001
 43
0.00000001
 40
0.0
 40
0.0
 40
0.0
 40
0.0
 40
0.0433040437555195
 40
1.0
 40
1.0
 40
1.0
 40
1.0
 10
189.7196481318158
 20
115.6210240152408
 30
0.0
 10
189.7186503082901
 20
115.6197220999792
 30
0.0
 10
189.695608036965
 20
115.5896575806248
 30
0.0
 10
189.6713301946057
 20
115.5586392401006
 30
0.0
 10
189.6481036809943
 20
115.5289641191518
 30
0.0
  0
SPLINE
  5
CA
330
1F
100
AcDbEntity
  8
0
  6
Continuous
 62
     7
370
    25
100
AcDbSpline
210
0.0
220
0.0
230
1.0
 70
     8
 71
     3
 72
    14
 73
    10
 74
     0
 42
0.000000001
 43
0.00000001
 40
0.0
 40
0.0
 40
0.0
 40
0.0
 40
0.3240421732222965
 40
0.439083453031465
 40
0.5550339035678543
 40
0.6320175773806178
 40
0.7091777148392059
 40
0.8120429782633938
 40
1.0
 40
1.0
 40
1.0
 40
1.0
 10
189.3505948266262
 20
115.0662313297888
 30
0.0
 10
189.4281893438445
 20
115.0831717825525
 30
0.0
 10
189.5333314252525
 20
115.1061264258368
 30
0.0
 10
189.6510715623834
 20
115.1728536767666
 30
0.0
 10
189.7065370736455
 20
115.2247614428507
 30
0.0
 10
189.7354868786602
 20
115.2845397738684
 30
0.0
 10
189.7405734595518
 20
115.3474234396775
 30
0.0
 10
189.7160147116274
 20
115.4343888198301
 30
0.0
 10
189.674763887225
 20
115.4918361745346
 30
0.0
 10
189.6481036809943
 20
115.5289641191518
 30
0.0
  0
SPLINE
  5
CB
330
1F
100
AcDbEntity
  8
0
  6
Continuous
 62
     7
370
    25
100
AcDbSpline
210
0.0
220
0.0
230
1.0
 70
     8
 71
     3
 72
    14
 73
    10
 74
     0
 42
0.000000001
 43
0.00000001
 40
0.0
 40
0.0
 40
0.0
 40
0.0
 40
0.1215026613260031
 40
0.2571357003576125
 40
0.3367055246585403
 40
0.4166989189531177
 40
0.509057383636328
 40
0.6599898335533397
 40
1.0
 40
1.0
 40
1.0
 40
1.0
 10
189.6481036809943
 20
115.5289641191518
 30
0.0
 10
189.621552733814
 20
115.5417175404546
 30
0.0
 10
189.5653630477293
 20
115.5687075658817
 30
0.0
 10
189.4842474966623
 20
115.5880740221878
 30
0.0
 10
189.411735298841
 20
115.5802385869875
 30
0.0
 10
189.3561505661046
 20
115.551492013395
 30
0.0
 10
189.3036418894623
 20
115.4918378581504
 30
0.0
 10
189.2484860835903
 20
115.3599350612536
 30
0.0
 10
189.2432267179892
 20
115.2409079010436
 30
0.0
 10
189.2395842601666
 20
115.1584737362233
 30
0.0
  0
ARC
  5
CC
330
1F
100
AcDbEntity
  8
0
  6
Continuous
 62
     7
370
    25
100
AcDbCircle
 10
190.7437759651
 20
116.8872585889
 30
0.0
 40
0.997030294826342
100
AcDbArc
 50
180.3468266756
 51
280.2045134532
  0
LINE
  5
CD
330
1F
100
AcDbEntity
  8
0
  6
Continuous
 62
     7
370
    25
100
AcDbLine
 10
190.9204121148
 20
115.9059996632
 30
0.0
 11
196.0454121148
 21
116.8008809288
 31
0.0
  0
SPLINE
  5
CE
330
1F
100
AcDbEntity
  8
0
  6
Continuous
 62
     7
370
    25
100
AcDbSpline
210
0.0
220
0.0
230
1.0
 70
     8
 71
     3
 72
    11
 73
     7
 74
     0
 42
0.000000001
 43
0.00000001
 40
0.0
 40
0.0
 40
0.0
 40
0.0
 40
0.3360297136121992
 40
0.6712269697199729
 40
0.9920227009419708
 40
1.0
 40
1.0
 40
1.0
 40
1.0
 10
197.5221215703185
 20
116.3606023798412
 30
0.0
 10
197.4629699680375
 20
116.4062780745936
 30
0.0
 10
197.344813301693
 20
116.4975163101918
 30
0.0
 10
197.1594241041129
 20
116.6552212560613
 30
0.0
 10
197.0451879719133
 20
116.7583646998734
 30
0.0
 10
196.9929567814564
 20
116.8072164107226
 30
0.0
 10
196.9916894517546
 20
116.8084017412426
 30
0.0
  0
ARC
  5
CF
330
1F
100
AcDbEntity
  8
0
  6
Continuous
 62
     7
370
    25
100
AcDbCircle
 10
197.6745317818
 20
116.2819313204
 30
0.0
 40
0.3972350144356759
100
AcDbArc
 50
279.6651090934
 51
359.7826137323
  0
LINE
  5
D0
330
1F
100
AcDbEntity
  8
0
  6
Continuous
 62
     7
370
    25
100
AcDbLine
 10
197.6717639371
 20
116.2482835213
 30
0.0
 11
198.0717639371
 21
116.2804241722
 31
0.0
  0
LINE
  5
D1
330
1F
100
AcDbEntity
  8
0
  6
Continuous
 62
     7
370
    25
100
AcDbLine
 10
195.6981157595
 20
123.9047440903
 30
0.0
 11
190.5731157595
 21
123.0098628247
 31
0.0
  0
ARC
  5
D2
330
1F
100
AcDbEntity
  8
0
  6
Continuous
 62
     7
370
    25
100
AcDbCircle
 10
195.8747519087
 20
122.9234851643
 30
0.0
 40
0.9970302950234619
100
AcDbArc
 50
0.3468266908
 51
100.2045134225
  0
LINE
  5
D3
330
1F
100
AcDbEntity
  8
0
  6
Continuous
 62
     7
370
    25
100
AcDbLine
 10
196.8717639371
 20
117.7761046004
 30
0.0
 11
196.8717639371
 21
122.9295204187
 31
0.0
  0
ARC
  5
D4
330
1F
100
AcDbEntity
  8
0
  6
Continuous
 62
     7
370
    25
100
AcDbCircle
 10
195.8786835489
 20
117.7798724709
 30
0.0
 40
0.9930875360896065
100
AcDbArc
 50
279.6651090934
 51
359.7826137289
  0
LINE
  5
D5
330
1F
100
AcDbEntity
  8
0
  6
Continuous
 62
     7
370
    25
100
AcDbLine
 10
189.7467639371
 20
122.0346391531
 30
0.0
 11
189.7467639368
 21
116.8812233348
 31
0.0
  0
ARC
  5
D6
330
1F
100
AcDbEntity
  8
0
  6
Continuous
 62
     7
370
    25
100
AcDbCircle
 10
190.7398443254
 20
122.0308712826
 30
0.0
 40
0.9930875360895781
100
AcDbArc
 50
99.6651090934
 51
179.7826137289
  0
CIRCLE
  5
D7
330
1F
100
AcDbEntity
  8
0
  6
Continuous
 62
     7
370
    25
100
AcDbCircle
 10
193.2888657617
 20
119.9016937762
 30
0.0
 40
3.029604057292028
  0
LINE
  5
D8
330
1F
100
AcDbEntity
  8
0
  6
Continuous
 62
     7
370
    25
100
AcDbLine
 10
197.3789436141
 20
124.6525576066
 30
0.0
 11
197.6717639371
 21
125.0216597191
 31
0.0
  0
LINE
  5
D9
330
1F
100
AcDbEntity
  8
0
  6
Continuous
 62
     7
370
    25
100
AcDbLine
 10
197.6717639371
 20
125.0216597191
 30
0.0
 11
198.0717639371
 21
125.0538003701
 31
0.0
  0
LINE
  5
DA
330
1F
100
AcDbEntity
  8
0
  6
Continuous
 62
     7
370
    25
100
AcDbLine
 10
198.0717639371
 20
116.2804241722
 30
0.0
 11
198.0717639371
 21
125.0538003701
 31
0.0
  0
LINE
  5
DB
330
1F
100
AcDbEntity
  8
0
  6
Continuous
 62
     7
370
    25
100
AcDbLine
 10
197.3789436141
 20
124.5409315365
 30
0.0
 11
197.3789436141
 21
124.6525576066
 31
0.0
  0
ARC
  5
DC
330
1F
100
AcDbEntity
  8
0
  6
Continuous
 62
     7
370
    25
100
AcDbCircle
 10
193.3092639371
 20
119.7215935329
 30
0.0
 40
3.050694091336978
100
AcDbArc
 50
1.9489998286
 51
178.0510001786
  0
SPLINE
  5
DD
330
1F
100
AcDbEntity
  8
0
  6
Continuous
 62
     7
370
    25
100
AcDbSpline
210
0.0
220
0.0
230
1.0
 70
     8
 71
     3
 72
    11
 73
     7
 74
     0
 42
0.000000001
 43
0.00000001
 40
0.0
 40
0.0
 40
0.0
 40
0.0
 40
0.0079772990479668
 40
0.3287730302732093
 40
0.6639702863844017
 40
1.0
 40
1.0
 40
1.0
 40
1.0
 10
189.6268384225216
 20
122.9281037086644
 30
0.0
 10
189.6255710928204
 20
122.9290245117361
 30
0.0
 10
189.5733399023255
 20
122.9669741002288
 30
0.0
 10
189.4591037701832
 20
123.05367593085
 30
0.0
 10
189.2737145725807
 20
123.2040632010745
 30
0.0
 10
189.1555579062392
 20
123.3091856469328
 30
0.0
 10
189.0964063039597
 20
123.3618120564328
 30
0.0
  0
SPLINE
  5
DE
330
1F
100
AcDbEntity
  8
0
  6
Continuous
 62
     7
370
    25
100
AcDbSpline
210
0.0
220
0.0
230
1.0
 70
     8
 71
     3
 72
    14
 73
    10
 74
     0
 42
0.000000001
 43
0.00000001
 40
0.0
 40
0.0
 40
0.0
 40
0.0
 40
0.121502661328632
 40
0.2571357003598601
 40
0.3367055246605392
 40
0.4166989189548678
 40
0.509057383637859
 40
0.6599898335543826
 40
0.9999999999999999
 40
0.9999999999999999
 40
0.9999999999999999
 40
0.9999999999999999
 10
196.9704241932815
 20
124.1704411535719
 30
0.0
 10
196.9969751404626
 20
124.1576877322691
 30
0.0
 10
197.0531648265482
 20
124.1306977068424
 30
0.0
 10
197.1342803776158
 20
124.1113312505358
 30
0.0
 10
197.2067925754371
 20
124.1191666857362
 30
0.0
 10
197.2623773081736
 20
124.1479132593286
 30
0.0
 10
197.314885984816
 20
124.2075674145733
 30
0.0
 10
197.370041790688
 20
124.33947021147
 30
0.0
 10
197.375301156289
 20
124.45849737168
 30
0.0
 10
197.3789436141115
 20
124.5409315365003
 30
0.0
  0
SPLINE
  5
DF
330
1F
100
AcDbEntity
  8
0
  6
Continuous
 62
     7
370
    25
100
AcDbSpline
210
0.0
220
0.0
230
1.0
 70
     8
 71
     3
 72
     9
 73
     5
 74
     0
 42
0.000000001
 43
0.00000001
 40
0.0
 40
0.0
 40
0.0
 40
0.0
 40
0.9566959562429443
 40
1.0
 40
1.0
 40
1.0
 40
1.0
 10
196.9704241932815
 20
124.1704411535719
 30
0.0
 10
196.9471976796709
 20
124.145294477626
 30
0.0
 10
196.9229198373125
 20
124.1190095583872
 30
0.0
 10
196.899877565988
 20
124.094687149955
 30
0.0
 10
196.8988797424624
 20
124.093633891316
 30
0.0
  0
LINE
  5
E0
330
1F
100
AcDbEntity
  8
0
  6
Continuous
 62
     7
370
    25
100
AcDbLine
 10
188.9467639371
 20
123.4981789304
 30
0.0
 11
188.8773046661
 21
123.92040905
 31
0.0
  0
LINE
  5
E1
330
1F
100
AcDbEntity
  8
0
  6
Continuous
 62
     7
370
    25
100
AcDbLine
 10
197.6023046661
 20
125.4438898387
 30
0.0
 11
188.8773046661
 21
123.92040905
 31
0.0
  0
LINE
  5
E2
330
1F
100
AcDbEntity
  8
0
  6
Continuous
 62
     7
370
    25
100
AcDbLine
 10
197.6717639371
 20
125.0216597191
 30
0.0
 11
197.6023046661
 21
125.4438898387
 31
0.0
  0
LINE
  5
E3
330
1F
100
AcDbEntity
  8
0
  6
Continuous
 62
     7
370
    25
100
AcDbLine
 10
197.3789436141
 20
124.6525576066
 30
0.0
 11
197.2679330477
 21
124.6331739429
 31
0.0
  0
ARC
  5
E4
330
1F
100
AcDbEntity
  8
0
  6
Continuous
 62
     7
370
    25
100
AcDbCircle
 10
188.9439960924
 20
123.5288124331
 30
0.0
 40
0.3972350144474714
100
AcDbArc
 50
99.6651090948
 51
179.7826137275
  0
SPLINE
  5
E5
330
1F
100
AcDbEntity
  8
0
  6
Continuous
 62
     7
370
    25
100
AcDbSpline
210
0.0
220
0.0
230
1.0
 70
     8
 71
     3
 72
    14
 73
    10
 74
     0
 42
0.000000001
 43
0.00000001
 40
0.0
 40
0.0
 40
0.0
 40
0.0
 40
0.3240421732228834
 40
0.4390834530321909
 40
0.5550339035688729
 40
0.6320175773817165
 40
0.7091777148405477
 40
0.8120429782647877
 40
1.0
 40
1.0
 40
1.0
 40
1.0
 10
197.267933047652
 20
124.6331739429348
 30
0.0
 10
197.1903385304336
 20
124.6162334901712
 30
0.0
 10
197.0851964490257
 20
124.5932788468869
 30
0.0
 10
196.9674563118948
 20
124.5265515959571
 30
0.0
 10
196.9119908006327
 20
124.4746438298729
 30
0.0
 10
196.883040995618
 20
124.4148654988552
 30
0.0
 10
196.8779544147263
 20
124.3519818330461
 30
0.0
 10
196.9025131626509
 20
124.2650164528941
 30
0.0
 10
196.9437639870519
 20
124.2075690981892
 30
0.0
 10
196.9704241932815
 20
124.1704411535719
 30
0.0
  0
ARC
  5
E6
330
1F
100
AcDbEntity
  8
0
  6
Continuous
 62
     7
370
    25
100
AcDbCircle
 10
197.6729591257
 20
125.0513862683
 30
0.0
 40
0.3988121180279565
100
AcDbArc
 50
0.346826694
 51
100.2045134193
  0
SPLINE
  5
E7
330
1F
100
AcDbEntity
  8
0
  6
Continuous
 62
     7
370
    25
100
AcDbSpline
210
0.0
220
0.0
230
1.0
 70
     8
 71
     3
 72
    20
 73
    16
 74
     0
 42
0.000000001
 43
0.00000001
 40
0.0
 40
0.0
 40
0.0
 40
0.0
 40
0.0624999999999996
 40
0.0624999999999996
 40
0.1249999999999991
 40
0.1249999999999991
 40
0.2499999999999982
 40
0.2499999999999982
 40
0.3749999999999973
 40
0.3749999999999973
 40
0.4999999999999964
 40
0.4999999999999964
 40
0.7499999999999981
 40
0.7499999999999981
 40
1.0
 40
1.0
 40
1.0
 40
1.0
 10
173.3217639371391
 20
122.8077584637331
 30
0.0
 10
173.3898060323471
 20
122.9142231207136
 30
0.0
 10
173.4808394532577
 20
123.0069433420213
 30
0.0
 10
173.7027925704772
 20
123.1709965729273
 30
0.0
 10
173.835314144174
 20
123.2428807906412
 30
0.0
 10
174.2738061077865
 20
123.4279887101175
 30
0.0
 10
174.6171194642116
 20
123.5125225937561
 30
0.0
 10
175.3669038745358
 20
123.6416868197242
 30
0.0
 10
175.7624693043287
 20
123.6841109129822
 30
0.0
 10
176.5811266411903
 20
123.7474624104346
 30
0.0
 10
177.0054585281444
 20
123.7679984170755
 30
0.0
 10
178.3050171599388
 20
123.8119809774876
 30
0.0
 10
179.1858810663293
 20
123.8185417860111
 30
0.0
 10
180.9680369865738
 20
123.8254541094524
 30
0.0
 10
181.8695802737803
 20
123.8248652956865
 30
0.0
 10
182.7807851528802
 20
123.8248652956865
 30
0.0
  0
LINE
  5
E8
330
1F
100
AcDbEntity
  8
0
  6
Continuous
 62
     7
370
    25
100
AcDbLine
 10
173.3217639371
 20
122.8077584637
 30
0.0
 11
173.3217639371
 21
123.8249075975
 31
0.0
  0
LINE
  5
E9
330
1F
100
AcDbEntity
  8
0
  6
Continuous
 62
     7
370
    25
100
AcDbLine
 10
173.3217639371
 20
107.3249075975
 30
0.0
 11
173.3217639371
 21
121.6805816221
 31
0.0
  0
SPLINE
  5
EA
330
1F
100
AcDbEntity
  8
0
  6
Continuous
 62
     7
370
    25
100
AcDbSpline
210
0.0
220
0.0
230
1.0
 70
     8
 71
     3
 72
    28
 73
    24
 74
     0
 42
0.000000001
 43
0.00000001
 40
0.0
 40
0.0
 40
0.0
 40
0.0
 40
0.1249999999999989
 40
0.1249999999999989
 40
0.2499999999999978
 40
0.2499999999999978
 40
0.312499999999998
 40
0.312499999999998
 40
0.3749999999999982
 40
0.3749999999999982
 40
0.4999999999999987
 40
0.4999999999999987
 40
0.6249999999999991
 40
0.6249999999999991
 40
0.7499999999999996
 40
0.7499999999999996
 40
0.8124999999999997
 40
0.8124999999999997
 40
0.8749999999999998
 40
0.8749999999999998
 40
0.9374999999999999
 40
0.9374999999999999
 40
1.0
 40
1.0
 40
1.0
 40
1.0
 10
187.7427727167399
 20
109.153984068177
 30
0.0
 10
187.0050752042142
 20
109.4310220074368
 30
0.0
 10
186.2945367856746
 20
109.7542116340149
 30
0.0
 10
184.9114040525342
 20
110.4928498427893
 30
0.0
 10
184.238732501089
 20
110.9081931791159
 30
0.0
 10
183.2441446709479
 20
111.5948895420599
 30
0.0
 10
182.9150090391959
 20
111.8343557494999
 30
0.0
 10
182.2591803469599
 20
112.3331802525274
 30
0.0
 10
181.9315941091494
 20
112.5933187912739
 30
0.0
 10
180.9628738251191
 20
113.3899992617141
 30
0.0
 10
180.3317063123918
 20
113.9452148925819
 30
0.0
 10
179.0838873263201
 20
115.0892989395414
 30
0.0
 10
178.4671630948379
 20
115.6780149818232
 30
0.0
 10
177.2416510291723
 20
116.884402528384
 30
0.0
 10
176.6460468486038
 20
117.4886057762517
 30
0.0
 10
175.7888037137977
 20
118.3961072776457
 30
0.0
 10
175.5090555369399
 20
118.699063303774
 30
0.0
 10
174.966153535244
 20
119.3082342385374
 30
0.0
 10
174.7051062052205
 20
119.6120763400284
 30
0.0
 10
174.2196643120941
 20
120.2134485364951
 30
0.0
 10
173.993385147356
 20
120.5127934425821
 30
0.0
 10
173.5983013701603
 20
121.1083398056481
 30
0.0
 10
173.4331738088366
 20
121.3980224983824
 30
0.0
 10
173.3217639371392
 20
121.6805816221226
 30
0.0
  0
ELLIPSE
  5
EB
330
1F
100
AcDbEntity
  8
0
  6
Continuous
 62
     7
370
    25
100
AcDbEllipse
 10
201.2813327875
 20
115.5749075975
 30
0.0
 11
14.43232259703185
 21
8.249996544320069
 31
0.0
210
0.0
220
0.0
230
1.0
 40
0.0005232068
 41
3.142507937254902
 42
3.49506702022529
  0
LINE
  5
EC
330
1F
100
AcDbEntity
  8
0
  6
Continuous
 62
     7
370
    25
100
AcDbLine
 10
182.7807851529
 20
123.8248652957
 30
0.0
 11
185.9925178522
 21
123.8248652957
 31
0.0
  0
SPLINE
  5
ED
330
1F
100
AcDbEntity
  8
0
  6
Continuous
 62
     7
370
    25
100
AcDbSpline
210
0.0
220
0.0
230
1.0
 70
     8
 71
     3
 72
     8
 73
     4
 74
     0
 42
0.000000001
 43
0.00000001
 40
0.0
 40
0.0
 40
0.0
 40
0.0
 40
1.0
 40
1.0
 40
1.0
 40
1.0
 10
173.3217639371391
 20
121.6805816221226
 30
0.0
 10
173.2453813494335
 20
122.0560670364044
 30
0.0
 10
173.2417195627708
 20
122.4287909598846
 30
0.0
 10
173.3217639371391
 20
122.8077584637332
 30
0.0
  0
LINE
  5
EE
330
1F
100
AcDbEntity
  8
0
  6
Continuous
 62
     7
370
    25
100
AcDbLine
 10
173.0717639371
 20
107.5749075975
 30
0.0
 11
173.0717639371
 21
123.5749075975
 31
0.0
  0
ELLIPSE
  5
EF
330
1F
100
AcDbEntity
  8
0
  6
Continuous
 62
     7
370
    25
100
AcDbEllipse
 10
195.6536837341
 20
112.3436977241
 30
0.0
 11
8.998575877948497
 21
5.143559196118745
 31
0.0
210
0.0
220
0.0
230
1.0
 40
0.0010222726
 41
1.669644772242093
 42
2.389445550892355
  0
SPLINE
  5
F0
330
1F
100
AcDbEntity
  8
0
  6
Continuous
 62
     7
370
    25
100
AcDbSpline
210
0.0
220
0.0
230
1.0
 70
     8
 71
     3
 72
     8
 73
     4
 74
     0
 42
0.000000001
 43
0.00000001
 40
0.0
 40
0.0
 40
0.0
 40
0.0
 40
1.0
 40
1.0
 40
1.0
 40
1.0
 10
188.8559309802604
 20
108.6616975334647
 30
0.0
 10
188.9301305751403
 20
108.638698792452
 30
0.0
 10
189.0045247597101
 20
108.6161468418436
 30
0.0
 10
189.0791185559865
 20
108.5940340613276
 30
0.0
  0
SPLINE
  5
F1
330
1F
100
AcDbEntity
  8
0
  6
Continuous
 62
     7
370
    25
100
AcDbSpline
210
0.0
220
0.0
230
1.0
 70
     8
 71
     3
 72
     8
 73
     4
 74
     0
 42
0.000000001
 43
0.00000001
 40
0.0
 40
0.0
 40
0.0
 40
0.0
 40
1.0
 40
1.0
 40
1.0
 40
1.0
 10
188.8559309802604
 20
108.6616975334647
 30
0.0
 10
188.6577095514133
 20
108.7498516969821
 30
0.0
 10
188.4603147242325
 20
108.8404407988683
 30
0.0
 10
188.2637172497408
 20
108.933587092038
 30
0.0
  0
SPLINE
  5
F2
330
1F
100
AcDbEntity
  8
0
  6
Continuous
 62
     7
370
    25
100
AcDbSpline
210
0.0
220
0.0
230
1.0
 70
     8
 71
     3
 72
     8
 73
     4
 74
     0
 42
0.000000001
 43
0.00000001
 40
0.0
 40
0.0
 40
0.0
 40
0.0
 40
1.0
 40
1.0
 40
1.0
 40
1.0
 10
188.2637172497407
 20
108.9335870920381
 30
0.0
 10
188.0895653201088
 20
109.0160988676116
 30
0.0
 10
187.9157134368556
 20
109.0890372032338
 30
0.0
 10
187.74277271674
 20
109.153984068177
 30
0.0
  0
SPLINE
  5
F3
330
1F
100
AcDbEntity
  8
0
  6
Continuous
 62
     7
370
    25
100
AcDbSpline
210
0.0
220
0.0
230
1.0
 70
     8
 71
     3
 72
    54
 73
    50
 74
     0
 42
0.000000001
 43
0.00000001
 40
0.0
 40
0.0
 40
0.0
 40
0.0
 40
0.031249999999999
 40
0.031249999999999
 40
0.062499999999998
 40
0.062499999999998
 40
0.1249999999999989
 40
0.1249999999999989
 40
0.1874999999999999
 40
0.1874999999999999
 40
0.2500000000000008
 40
0.2500000000000008
 40
0.3125000000000018
 40
0.3125000000000018
 40
0.3437500000000022
 40
0.3437500000000022
 40
0.3750000000000027
 40
0.3750000000000027
 40
0.4062500000000031
 40
0.4062500000000031
 40
0.4375000000000036
 40
0.4375000000000036
 40
0.468750000000004
 40
0.468750000000004
 40
0.5000000000000044
 40
0.5000000000000044
 40
0.5312500000000049
 40
0.5312500000000049
 40
0.5625000000000053
 40
0.5625000000000053
 40
0.5937500000000058
 40
0.5937500000000058
 40
0.6250000000000062
 40
0.6250000000000062
 40
0.6562500000000067
 40
0.6562500000000067
 40
0.6875000000000071
 40
0.6875000000000071
 40
0.7500000000000053
 40
0.7500000000000053
 40
0.8125000000000036
 40
0.8125000000000036
 40
0.8750000000000018
 40
0.8750000000000018
 40
0.9375
 40
0.9375
 40
0.96875
 40
0.96875
 40
1.0
 40
1.0
 40
1.0
 40
1.0
 10
186.2710883705729
 20
120.3345620779939
 30
0.0
 10
186.1224349616826
 20
120.3537941024269
 30
0.0
 10
185.9744670046636
 20
120.3606252472601
 30
0.0
 10
185.6792429516594
 20
120.3640181280698
 30
0.0
 10
185.5320108944551
 20
120.3600659320027
 30
0.0
 10
185.0911804582331
 20
120.3377474094216
 30
0.0
 10
184.7984362459299
 20
120.3091228249555
 30
0.0
 10
184.2150186032274
 20
120.2327072705257
 30
0.0
 10
183.9266082169221
 20
120.1848353046855
 30
0.0
 10
183.3615387594405
 20
120.06935746501
 30
0.0
 10
183.0841813772983
 20
120.0017277903891
 30
0.0
 10
182.5431778889521
 20
119.8384532050512
 30
0.0
 10
182.2784823575168
 20
119.7423941496301
 30
0.0
 10
181.9126556390321
 20
119.568724944605
 30
0.0
 10
181.7954309558883
 20
119.5056991244798
 30
0.0
 10
181.5735058249786
 20
119.3649292482824
 30
0.0
 10
181.4682936101978
 20
119.2866495100397
 30
0.0
 10
181.2830574301026
 20
119.1135294560649
 30
0.0
 10
181.2012410641346
 20
119.0167897604326
 30
0.0
 10
181.0783842112467
 20
118.8054392681408
 30
0.0
 10
181.0361028498423
 20
118.6884692422397
 30
0.0
 10
181.0101763071818
 20
118.437899274211
 30
0.0
 10
181.0277996318766
 20
118.3044332586812
 30
0.0
 10
181.1236068879823
 20
118.047208402742
 30
0.0
 10
181.2018606179169
 20
117.9218566638159
 30
0.0
 10
181.3962945604532
 20
117.6980093173725
 30
0.0
 10
181.5105338405368
 20
117.6001530380012
 30
0.0
 10
181.7576761065087
 20
117.4321499102283
 30
0.0
 10
181.8893945209227
 20
117.3629056937982
 30
0.0
 10
182.1579425733771
 20
117.2515661086019
 30
0.0
 10
182.2974528026268
 20
117.2085951301319
 30
0.0
 10
182.5740375350815
 20
117.1475193250472
 30
0.0
 10
182.7120412003167
 20
117.1288790203095
 30
0.0
 10
182.9882769722395
 20
117.1119953235685
 30
0.0
 10
183.1273475286688
 20
117.1139463548571
 30
0.0
 10
183.39959309094
 20
117.1360239250159
 30
0.0
 10
183.5333937340439
 20
117.1560076711404
 30
0.0
 10
183.9296847798182
 20
117.2393690180295
 30
0.0
 10
184.1894868319674
 20
117.3270937299619
 30
0.0
 10
184.6889628535447
 20
117.5500105356698
 30
0.0
 10
184.9279373522258
 20
117.6842330727748
 30
0.0
 10
185.3903185202792
 20
117.9908005945727
 30
0.0
 10
185.6150179744886
 20
118.1642671072579
 30
0.0
 10
186.0432917438624
 20
118.54361757359
 30
0.0
 10
186.2466067008194
 20
118.7477625190898
 30
0.0
 10
186.526755788201
 20
119.0837357959198
 30
0.0
 10
186.6158467038884
 20
119.2006942966948
 30
0.0
 10
186.7740138600203
 20
119.4457240974646
 30
0.0
 10
186.846094022114
 20
119.5728070528523
 30
0.0
 10
186.8883211460404
 20
119.7173293025263
 30
0.0
  0
SPLINE
  5
F4
330
1F
100
AcDbEntity
  8
0
  6
Continuous
 62
     7
370
    25
100
AcDbSpline
210
0.0
220
0.0
230
1.0
 70
     8
 71
     3
 72
    32
 73
    28
 74
     0
 42
0.000000001
 43
0.00000001
 40
0.0
 40
0.0
 40
0.0
 40
0.0
 40
0.0625000000000001
 40
0.0625000000000001
 40
0.1250000000000002
 40
0.1250000000000002
 40
0.2500000000000004
 40
0.2500000000000004
 40
0.3125000000000006
 40
0.3125000000000006
 40
0.3750000000000007
 40
0.3750000000000007
 40
0.4375000000000008
 40
0.4375000000000008
 40
0.5000000000000009
 40
0.5000000000000009
 40
0.562500000000001
 40
0.562500000000001
 40
0.6250000000000011
 40
0.6250000000000011
 40
0.6875000000000012
 40
0.6875000000000012
 40
0.7500000000000013
 40
0.7500000000000013
 40
0.8750000000000007
 40
0.8750000000000007
 40
1.0
 40
1.0
 40
1.0
 40
1.0
 10
190.9018216620863
 20
114.6933668646517
 30
0.0
 10
190.8608739306785
 20
114.5651290854283
 30
0.0
 10
190.8039536381083
 20
114.443415018852
 30
0.0
 10
190.6622493835316
 20
114.2190816126746
 30
0.0
 10
190.575949181249
 20
114.1148131293636
 30
0.0
 10
190.287155134973
 20
113.8442592997132
 30
0.0
 10
190.0456325265295
 20
113.7127194675047
 30
0.0
 10
189.6622875602517
 20
113.6132221761152
 30
0.0
 10
189.5280091023865
 20
113.5952830775696
 30
0.0
 10
189.2608613615445
 20
113.5919179901197
 30
0.0
 10
189.1276705897625
 20
113.6058854990126
 30
0.0
 10
188.8616934332588
 20
113.6663512995693
 30
0.0
 10
188.7336271999795
 20
113.7119015759702
 30
0.0
 10
188.489839763466
 20
113.8321208077297
 30
0.0
 10
188.3728972157306
 20
113.9080628000823
 30
0.0
 10
188.1644643191979
 20
114.081863712796
 30
0.0
 10
188.0700864277256
 20
114.1818294687147
 30
0.0
 10
187.9099258485689
 20
114.3993287907808
 30
0.0
 10
187.8447013965795
 20
114.5152648894636
 30
0.0
 10
187.74376386785
 20
114.7616988293121
 30
0.0
 10
187.7097167671764
 20
114.8886058911423
 30
0.0
 10
187.6740336856752
 20
115.145699990801
 30
0.0
 10
187.6726488109779
 20
115.2771000645039
 30
0.0
 10
187.7169874396713
 20
115.6593870827344
 30
0.0
 10
187.813850785393
 20
115.9106803271517
 30
0.0
 10
188.1162455559651
 20
116.33535731058
 30
0.0
 10
188.3239596250025
 20
116.5136553624879
 30
0.0
 10
188.5651148386736
 20
116.6343763135859
 30
0.0
  0
ELLIPSE
  5
F5
330
1F
100
AcDbEntity
  8
0
  6
Continuous
 62
     7
370
    25
100
AcDbEllipse
 10
192.81353859
 20
115.1838428682
 30
0.0
 11
12.02739279990712
 21
2.114189452110423
 31
0.0
210
0.0
220
0.0
230
1.0
 40
0.0126200975
 41
4.550547092808785
 42
4.622665613796398
  0
LINE
  5
F6
330
1F
100
AcDbEntity
  8
0
  6
Continuous
 62
     7
370
    25
100
AcDbLine
 10
93.0717639371
 20
108.9499075975
 30
0.0
 11
93.0717639371
 21
121.7749075975
 31
0.0
  0
SPLINE
  5
F7
330
1F
100
AcDbEntity
  8
0
  6
Continuous
 62
     7
370
    25
100
AcDbSpline
210
0.0
220
0.0
230
1.0
 70
    24
 71
     3
 72
    10
 73
     6
 74
     0
 42
0.000000001
 43
0.00000001
 40
0.0
 40
0.0
 40
0.0
 40
0.0
 40
0.5
 40
0.5
 40
1.0
 40
1.0
 40
1.0
 40
1.0
 10
94.4467639371391
 20
121.7749075975359
 30
0.0
 10
94.17452374982189
 20
121.7749075975359
 30
0.0
 10
93.91615964163388
 20
121.7749075975359
 30
0.0
 10
93.4500936238185
 20
121.7749075975359
 30
0.0
 10
93.24150312069082
 20
121.7749075975359
 30
0.0
 10
93.07176393713907
 20
121.7749075975359
 30
0.0
  0
LINE
  5
F8
330
1F
100
AcDbEntity
  8
0
  6
Continuous
 62
     7
370
    25
100
AcDbLine
 10
94.4467639371
 20
107.5749075975
 30
0.0
 11
94.4467639371
 21
121.7749075975
 31
0.0
  0
LINE
  5
F9
330
1F
100
AcDbEntity
  8
0
  6
Continuous
 62
     7
370
    25
100
AcDbLine
 10
102.5717639371
 20
121.7749075975
 30
0.0
 11
94.4467639371
 21
121.7749075975
 31
0.0
  0
LINE
  5
FA
330
1F
100
AcDbEntity
  8
0
  6
Continuous
 62
     7
370
    25
100
AcDbLine
 10
104.3717639371
 20
123.5749075975
 30
0.0
 11
102.5717639371
 21
121.7749075975
 31
0.0
  0
LINE
  5
FB
330
1F
100
AcDbEntity
  8
0
  6
Continuous
 62
     7
370
    25
100
AcDbLine
 10
109.0717639371
 20
121.7749075975
 30
0.0
 11
107.2717639371
 21
123.5749075975
 31
0.0
  0
LINE
  5
FC
330
1F
100
AcDbEntity
  8
0
  6
Continuous
 62
     7
370
    25
100
AcDbLine
 10
117.0717639371
 20
121.7749075975
 30
0.0
 11
109.0717639371
 21
121.7749075975
 31
0.0
  0
LINE
  5
FD
330
1F
100
AcDbEntity
  8
0
  6
Continuous
 62
     7
370
    25
100
AcDbLine
 10
118.8717639371
 20
123.5749075975
 30
0.0
 11
117.0717639371
 21
121.7749075975
 31
0.0
  0
LINE
  5
FE
330
1F
100
AcDbEntity
  8
0
  6
Continuous
 62
     7
370
    25
100
AcDbLine
 10
123.5717639371
 20
121.7749075975
 30
0.0
 11
121.7717639371
 21
123.5749075975
 31
0.0
  0
LINE
  5
FF
330
1F
100
AcDbEntity
  8
0
  6
Continuous
 62
     7
370
    25
100
AcDbLine
 10
131.5717639371
 20
121.7749075975
 30
0.0
 11
123.5717639371
 21
121.7749075975
 31
0.0
  0
LINE
  5
100
330
1F
100
AcDbEntity
  8
0
  6
Continuous
 62
     7
370
    25
100
AcDbLine
 10
133.3717639371
 20
123.5749075975
 30
0.0
 11
131.5717639371
 21
121.7749075975
 31
0.0
  0
LINE
  5
101
330
1F
100
AcDbEntity
  8
0
  6
Continuous
 62
     7
370
    25
100
AcDbLine
 10
138.0717639371
 20
121.7749075975
 30
0.0
 11
136.2717639371
 21
123.5749075975
 31
0.0
  0
LINE
  5
102
330
1F
100
AcDbEntity
  8
0
  6
Continuous
 62
     7
370
    25
100
AcDbLine
 10
146.0717639371
 20
121.7749075975
 30
0.0
 11
138.0717639371
 21
121.7749075975
 31
0.0
  0
LINE
  5
103
330
1F
100
AcDbEntity
  8
0
  6
Continuous
 62
     7
370
    25
100
AcDbLine
 10
147.8717639371
 20
123.5749075975
 30
0.0
 11
146.0717639371
 21
121.7749075975
 31
0.0
  0
LINE
  5
104
330
1F
100
AcDbEntity
  8
0
  6
Continuous
 62
     7
370
    25
100
AcDbLine
 10
152.5717639371
 20
121.7749075975
 30
0.0
 11
150.7717639371
 21
123.5749075975
 31
0.0
  0
LINE
  5
105
330
1F
100
AcDbEntity
  8
0
  6
Continuous
 62
     7
370
    25
100
AcDbLine
 10
160.5717639371
 20
121.7749075975
 30
0.0
 11
152.5717639371
 21
121.7749075975
 31
0.0
  0
LINE
  5
106
330
1F
100
AcDbEntity
  8
0
  6
Continuous
 62
     7
370
    25
100
AcDbLine
 10
162.3717639371
 20
123.5749075975
 30
0.0
 11
160.5717639371
 21
121.7749075975
 31
0.0
  0
SPLINE
  5
107
330
1F
100
AcDbEntity
  8
0
  6
Continuous
 62
     7
370
    25
100
AcDbSpline
210
0.0
220
0.0
230
1.0
 70
     8
 71
     3
 72
     8
 73
     4
 74
     0
 42
0.000000001
 43
0.00000001
 40
0.0000003858788753
 40
0.0000003858788753
 40
0.0000003858788753
 40
0.0000003858788753
 40
0.0010071622594938
 40
0.0010071622594938
 40
0.0010071622594938
 40
0.0010071622594938
 10
187.7427727167399
 20
107.8323474925821
 30
0.0
 10
187.9167090264962
 20
107.9314483092747
 30
0.0
 10
188.0905910429835
 20
108.0305180317352
 30
0.0
 10
188.2637172497407
 20
108.1291549265159
 30
0.0
  0
LINE
  5
108
330
1F
100
AcDbEntity
  8
0
  6
Continuous
 62
     7
370
    25
100
AcDbLine
 10
188.8559309803
 20
108.4666906359
 30
0.0
 11
188.8559309803
 21
108.6616975335
 31
0.0
  0
ELLIPSE
  5
109
330
1F
100
AcDbEntity
  8
0
  6
Continuous
 62
     7
370
    25
100
AcDbEllipse
 10
207.59730663
 20
119.1853274104
 30
0.0
 11
20.47572251305473
 21
11.70460492424682
 31
0.0
210
0.0
220
0.0
230
1.0
 40
0.0004976935
 41
3.476886250288314
 42
3.55585889272075
  0
ELLIPSE
  5
10A
330
1F
100
AcDbEntity
  8
0
  6
Continuous
 62
     7
370
    25
100
AcDbEllipse
 10
201.2813327875
 20
115.5749075975
 30
0.0
 11
14.69472846353574
 21
8.39999648212023
 31
0.0
210
0.0
220
0.0
230
1.0
 40
0.0005232068
 41
3.704460532405873
 42
3.732299956804349
  0
ELLIPSE
  5
10B
330
1F
100
AcDbEntity
  8
0
  6
Continuous
 62
     7
370
    25
100
AcDbEllipse
 10
180.8979103128
 20
117.4416081325
 30
0.0
 11
5.985185524255939
 21
2.573606531792734
 31
0.0
210
0.0
220
0.0
230
1.0
 40
0.2283468585
 41
6.096771659035131
 42
6.65113921251355
  0
ARC
  5
10C
330
1F
100
AcDbEntity
  8
0
  6
Continuous
 62
     7
370
    25
100
AcDbCircle
 10
189.3115668729
 20
114.6298184302
 30
0.0
 40
1.635038016728771
100
AcDbArc
 50
117.888894246
 51
169.8037434295
  0
LINE
  5
10D
330
1F
100
AcDbEntity
  8
0
  6
Continuous
 62
     7
370
    25
100
AcDbLine
 10
197.747207025
 20
115.8882379926
 30
0.0
 11
191.7624216818
 21
114.8432287668
 31
0.0
  0
LINE
  5
10E
330
1F
100
AcDbEntity
  8
0
  6
Continuous
 62
     7
370
    25
100
AcDbLine
 10
197.747207025
 20
114.6878359853
 30
0.0
 11
197.747207025
 21
115.8882379926
 31
0.0
  0
ELLIPSE
  5
10F
330
1F
100
AcDbEntity
  8
0
  6
Continuous
 62
     7
370
    25
100
AcDbEllipse
 10
195.732187374
 20
114.7049463938
 30
0.0
 11
1.947284583039618
 21
-0.5269891811421417
 31
0.0
210
0.0
220
0.0
230
1.0
 40
0.9830576678
 41
5.504603794413029
 42
6.543205022492256
  0
LINE
  5
110
330
1F
100
AcDbEntity
  8
0
  6
Continuous
 62
     7
370
    25
100
AcDbLine
 10
194.7604038832
 20
111.8452465654
 30
0.0
 11
196.7546608733
 21
112.9854261777
 31
0.0
  0
SPLINE
  5
111
330
1F
100
AcDbEntity
  8
0
  6
Continuous
 62
     7
370
    25
100
AcDbSpline
210
0.0
220
0.0
230
1.0
 70
     8
 71
     3
 72
    14
 73
    10
 74
     0
 42
0.000000001
 43
0.00000001
 40
0.0
 40
0.0
 40
0.0
 40
0.0
 40
0.25
 40
0.25
 40
0.5
 40
0.5
 40
0.75
 40
0.75
 40
1.0
 40
1.0
 40
1.0
 40
1.0
 10
187.8001864667819
 20
123.2295407403262
 30
0.0
 10
187.6356544026926
 20
123.2008116355957
 30
0.0
 10
187.4709980994115
 20
123.1927250860589
 30
0.0
 10
187.141445056459
 20
123.216500906393
 30
0.0
 10
186.9762272636559
 20
123.2491710261654
 30
0.0
 10
186.66363478338
 20
123.3520652916639
 30
0.0
 10
186.5119533922815
 20
123.423599947198
 30
0.0
 10
186.2331505371831
 20
123.6003610373399
 30
0.0
 10
186.1063888473488
 20
123.7045513396424
 30
0.0
 10
185.992517852249
 20
123.8248652956865
 30
0.0
  0
LINE
  5
112
330
1F
100
AcDbEntity
  8
0
  6
Continuous
 62
     7
370
    25
100
AcDbLine
 10
188.5467639371
 20
123.3599013631
 30
0.0
 11
187.8001864668
 21
123.2295407403
 31
0.0
  0
ARC
  5
113
330
1F
100
AcDbEntity
  8
0
  6
HIDDEN
 62
     7
370
    18
100
AcDbCircle
 10
193.6846591815
 20
118.3670977227
 30
0.0
 40
0.3351164801282134
100
AcDbArc
 50
213.4744228104
 51
6.2727952465
  0
ARC
  5
114
330
1F
100
AcDbEntity
  8
0
  6
HIDDEN
 62
     7
370
    18
100
AcDbCircle
 10
192.3629786476
 20
118.5949061162
 30
0.0
 40
0.3337732884172638
100
AcDbArc
 50
153.655159155
 51
307.0028355104
  0
ARC
  5
115
330
1F
100
AcDbEntity
  8
0
  6
HIDDEN
 62
     7
370
    18
100
AcDbCircle
 10
194.5961794303
 20
118.4706390393
 30
0.0
 40
0.5822691188320651
100
AcDbArc
 50
92.9546086181
 51
186.6001335262
  0
ARC
  5
116
330
1F
100
AcDbEntity
  8
0
  6
HIDDEN
 62
     7
370
    18
100
AcDbCircle
 10
193.2272572417
 20
119.6494211471
 30
0.0
 40
2.625076166315092
100
AcDbArc
 50
0.4364647737
 51
179.5635352263
  0
ARC
  5
117
330
1F
100
AcDbEntity
  8
0
  6
HIDDEN
 62
     7
370
    18
100
AcDbCircle
 10
191.5459853903
 20
119.0025207927
 30
0.0
 40
0.5804119929067632
100
AcDbArc
 50
0.1363298892
 51
67.1894825062
  0
ARC
  5
118
330
1F
100
AcDbEntity
  8
0
  6
HIDDEN
 62
     7
370
    18
100
AcDbCircle
 10
194.5496149327
 20
119.383634189
 30
0.0
 40
0.3319129971291871
100
AcDbArc
 50
272.8583625828
 51
21.7910394829
  0
ARC
  5
119
330
1F
100
AcDbEntity
  8
0
  6
HIDDEN
 62
     7
370
    18
100
AcDbCircle
 10
191.898699575
 20
119.8425646334
 30
0.0
 40
0.3306760753479467
100
AcDbArc
 50
164.4454382536
 51
247.2835873848
  0
ARC
  5
11A
330
1F
100
AcDbEntity
  8
0
  6
HIDDEN
 62
     7
370
    18
100
AcDbCircle
 10
194.8992230644
 20
120.2218274484
 30
0.0
 40
0.5757988462644026
100
AcDbArc
 50
153.0512956478
 51
179.9928814987
  0
LINE
  5
11B
330
1F
100
AcDbEntity
  8
0
  6
HIDDEN
 62
     7
370
    18
100
AcDbLine
 10
192.4361864771
 20
120.753250388
 30
0.0
 11
192.4320506613
 21
120.8220874752
 31
0.0
  0
ARC
  5
11C
330
1F
100
AcDbEntity
  8
0
  6
HIDDEN
 62
     7
370
    18
100
AcDbCircle
 10
194.0928560842
 20
120.6318323805
 30
0.0
 40
0.3288180641059242
100
AcDbArc
 50
333.0436279491
 51
18.179187875
  0
LWPOLYLINE
  5
11D
330
1F
100
AcDbEntity
  8
0
  6
HIDDEN
 62
     7
370
    18
100
AcDbPolyline
 90
        3
 70
   128
 43
0.0
 10
192.4320506613
 20
120.8220874752
 10
192.4374761784
 20
120.9325422457
 10
192.4528091691
 20
120.9825315955
  0
ARC
  5
11E
330
1F
100
AcDbEntity
  8
0
  6
HIDDEN
 62
     7
370
    18
100
AcDbCircle
 10
192.9149194166
 20
117.8546633331
 30
0.0
 40
0.589595914623704
100
AcDbArc
 50
33.753978084
 51
126.5426511313
  0
ARC
  5
11F
330
1F
100
AcDbEntity
  8
0
  6
HIDDEN
 62
     7
370
    18
100
AcDbCircle
 10
193.2272865357
 20
119.3164121086
 30
0.0
 40
2.017251819091318
100
AcDbArc
 50
260.0855443872
 51
295.4172716861
  0
ARC
  5
120
330
1F
100
AcDbEntity
  8
0
  6
HIDDEN
 62
     7
370
    18
100
AcDbCircle
 10
193.2329089021
 20
119.290471521
 30
0.0
 40
1.992691792053612
100
AcDbArc
 50
306.4403177507
 51
259.7978758745
  0
CIRCLE
  5
121
330
1F
100
AcDbEntity
  8
0
  6
HIDDEN
 62
     7
370
    18
100
AcDbCircle
 10
193.2203885147
 20
118.6399752013
 30
0.0
 40
1.994076364107596
  0
CIRCLE
  5
122
330
1F
100
AcDbEntity
  8
0
  6
HIDDEN
 62
     7
370
    18
100
AcDbCircle
 10
193.2216487234
 20
118.5660912398
 30
0.0
 40
1.494781120715653
  0
LINE
  5
123
330
1F
100
AcDbEntity
  8
0
  6
HIDDEN
 62
     7
370
    18
100
AcDbLine
 10
188.9467639371
 20
114.3035538043
 30
0.0
 11
188.5467639371
 21
114.7569433834
 31
0.0
  0
LINE
  5
124
330
1F
100
AcDbEntity
  8
0
  6
HIDDEN
 62
     7
370
    18
100
AcDbLine
 10
197.6717639371
 20
115.8270345931
 30
0.0
 11
197.7369589452
 21
115.8864485654
 31
0.0
  0
LINE
  5
125
330
1F
100
AcDbEntity
  8
0
  6
HIDDEN
 62
     7
370
    18
100
AcDbLine
 10
197.5843092304
 20
115.8005760132
 30
0.0
 11
197.6717639371
 21
115.8270345931
 31
0.0
  0
LINE
  5
126
330
1F
100
AcDbEntity
  8
0
  6
HIDDEN
 62
     7
370
    18
100
AcDbLine
 10
190.8758480815
 20
114.6292050467
 30
0.0
 11
197.5843092304
 21
115.8005760132
 31
0.0
  0
LINE
  5
127
330
1F
100
AcDbEntity
  8
0
  6
HIDDEN
 62
     7
370
    18
100
AcDbLine
 10
197.6717639371
 20
115.8270345931
 30
0.0
 11
198.0717639371
 21
116.2804241722
 31
0.0
  0
ARC
  5
128
330
1F
100
AcDbEntity
  8
0
  6
HIDDEN
 62
     7
370
    18
100
AcDbCircle
 10
193.3092639371
 20
119.7659856394
 30
0.0
 40
3.049507074481709
100
AcDbArc
 50
178.8846098595
 51
1.1153901477
  0
LINE
  5
129
330
1F
100
AcDbEntity
  8
0
  6
HIDDEN
 62
     7
370
    18
100
AcDbLine
 10
197.5843092304
 20
124.3980730035
 30
0.0
 11
197.6717639371
 21
124.600410791
 31
0.0
  0
LINE
  5
12A
330
1F
100
AcDbEntity
  8
0
  6
HIDDEN
 62
     7
370
    18
100
AcDbLine
 10
189.0342186439
 20
122.9051333186
 30
0.0
 11
188.9467639371
 21
123.0769300022
 31
0.0
  0
LINE
  5
12B
330
1F
100
AcDbEntity
  8
0
  6
HIDDEN
 62
     7
370
    18
100
AcDbLine
 10
188.9467639371
 20
123.0769300022
 30
0.0
 11
188.8773046661
 21
123.92040905
 31
0.0
  0
LINE
  5
12C
330
1F
100
AcDbEntity
  8
0
  6
HIDDEN
 62
     7
370
    18
100
AcDbLine
 10
188.9467639371
 20
123.0769300022
 30
0.0
 11
188.5467639371
 21
123.5303195813
 31
0.0
  0
LINE
  5
12D
330
1F
100
AcDbEntity
  8
0
  6
HIDDEN
 62
     7
370
    18
100
AcDbLine
 10
197.6717639371
 20
124.600410791
 30
0.0
 11
197.6023046661
 21
125.4438898387
 31
0.0
  0
LINE
  5
12E
330
1F
100
AcDbEntity
  8
0
  6
HIDDEN
 62
     7
370
    18
100
AcDbLine
 10
197.6717639371
 20
124.600410791
 30
0.0
 11
198.0717639371
 21
125.0538003701
 31
0.0
  0
LINE
  5
12F
330
1F
100
AcDbEntity
  8
0
  6
HIDDEN
 62
     7
370
    18
100
AcDbLine
 10
195.5092639371
 20
119.548625375
 30
0.0
 11
195.5085259873
 21
119.6050483671
 31
0.0
  0
CIRCLE
  5
130
330
1F
100
AcDbEntity
  8
0
  6
HIDDEN
 62
     7
370
    18
100
AcDbCircle
 10
193.2952379548
 20
119.3496629066
 30
0.0
 40
2.185976347863212
  0
LINE
  5
131
330
1F
100
AcDbEntity
  8
0
  6
HIDDEN
 62
     7
370
    18
100
AcDbLine
 10
197.5843092304
 20
124.3980730035
 30
0.0
 11
189.0342186439
 21
122.9051333186
 31
0.0
  0
LINE
  5
132
330
1F
100
AcDbEntity
  8
0
  6
HIDDEN
 62
     7
370
    18
100
AcDbLine
 10
197.5843092304
 20
115.8005760132
 30
0.0
 11
197.5843092304
 21
124.3980730035
 31
0.0
  0
LINE
  5
133
330
1F
100
AcDbEntity
  8
0
  6
HIDDEN
 62
     7
370
    18
100
AcDbLine
 10
189.0342186439
 20
122.9051333186
 30
0.0
 11
189.0342186439
 21
114.3076363283
 31
0.0
  0
LINE
  5
134
330
1F
100
AcDbEntity
  8
0
  6
HIDDEN
 62
     7
370
    18
100
AcDbLine
 10
173.3217639371
 20
121.717981721
 30
0.0
 11
173.3217639371
 21
121.6805816221
 31
0.0
  0
ELLIPSE
  5
135
330
1F
100
AcDbEntity
  8
0
  6
HIDDEN
 62
     7
370
    18
100
AcDbEllipse
 10
201.2813327875
 20
115.5749075975
 30
0.0
 11
14.43232259703185
 21
8.249996544320069
 31
0.0
210
0.0
220
0.0
230
1.0
 40
0.0005232068
 41
2.787520122132871
 42
3.142507937254902
  0
SPLINE
  5
136
330
1F
100
AcDbEntity
  8
0
  6
HIDDEN
 62
     7
370
    18
100
AcDbSpline
210
0.0
220
0.0
230
1.0
 70
     8
 71
     3
 72
    24
 73
    20
 74
     0
 42
0.000000001
 43
0.00000001
 40
0.0
 40
0.0
 40
0.0
 40
0.0
 40
0.249999999999999
 40
0.249999999999999
 40
0.3749999999999985
 40
0.3749999999999985
 40
0.499999999999998
 40
0.499999999999998
 40
0.6249999999999977
 40
0.6249999999999977
 40
0.7499999999999974
 40
0.7499999999999974
 40
0.8749999999999971
 40
0.8749999999999971
 40
0.9374999999999971
 40
0.9374999999999971
 40
0.9687499999999986
 40
0.9687499999999986
 40
1.0
 40
1.0
 40
1.0
 40
1.0
 10
185.992517852249
 20
123.8248652956866
 30
0.0
 10
185.9576460199647
 20
123.8272343323799
 30
0.0
 10
185.9567428899319
 20
123.7318237996459
 30
0.0
 10
186.0064989373849
 20
123.4421678600547
 30
0.0
 10
186.0318904491436
 20
123.3212294053599
 30
0.0
 10
186.1006339218656
 20
123.0378391570138
 30
0.0
 10
186.1440531321892
 20
122.8747467492188
 30
0.0
 10
186.2527747630674
 20
122.5065540957457
 30
0.0
 10
186.3187402444329
 20
122.2994238283365
 30
0.0
 10
186.4756552750766
 20
121.8562844108604
 30
0.0
 10
186.5663752067652
 20
121.6198404428114
 30
0.0
 10
186.7845177033452
 20
121.1226306880803
 30
0.0
 10
186.9106651608139
 20
120.860617705512
 30
0.0
 10
187.1554784040347
 20
120.4606538853342
 30
0.0
 10
187.245145838147
 20
120.3279528665165
 30
0.0
 10
187.4051535823143
 20
120.1371931514051
 30
0.0
 10
187.4625598481872
 20
120.0753843493112
 30
0.0
 10
187.5899820002935
 20
119.9611922917637
 30
0.0
 10
187.660763826644
 20
119.9074190557389
 30
0.0
 10
187.7427727167399
 20
119.8676610748591
 30
0.0
  0
ELLIPSE
  5
137
330
1F
100
AcDbEntity
  8
0
  6
HIDDEN
 62
     7
370
    18
100
AcDbEllipse
 10
187.3434752403
 20
120.6539062179
 30
0.0
 11
-0.2262950409302676
 21
14.3151983050787
 31
0.0
210
0.0
220
0.0
230
1.0
 40
0.0843028544
 41
4.426441974764166
 42
4.52702680087318
  0
SPLINE
  5
138
330
1F
100
AcDbEntity
  8
0
  6
HIDDEN
 62
     7
370
    18
100
AcDbSpline
210
0.0
220
0.0
230
1.0
 70
     8
 71
     3
 72
    20
 73
    16
 74
     0
 42
0.000000001
 43
0.00000001
 40
0.0
 40
0.0
 40
0.0
 40
0.0
 40
0.2500000000000017
 40
0.2500000000000017
 40
0.3750000000000025
 40
0.3750000000000025
 40
0.5000000000000033
 40
0.5000000000000033
 40
0.5625000000000038
 40
0.5625000000000038
 40
0.6250000000000042
 40
0.6250000000000042
 40
0.750000000000005
 40
0.750000000000005
 40
1.0
 40
1.0
 40
1.0
 40
1.0
 10
180.0717639371391
 20
116.8655217691172
 30
0.0
 10
180.2016786857445
 20
116.6347750777574
 30
0.0
 10
180.3401675644611
 20
116.4269505086562
 30
0.0
 10
180.5418970176862
 20
116.1843815390773
 30
0.0
 10
180.6084746891677
 20
116.1149967115909
 30
0.0
 10
180.7211612148461
 20
115.9927127830632
 30
0.0
 10
180.7691810726796
 20
115.9374844374555
 30
0.0
 10
180.7700347482466
 20
115.8466952919899
 30
0.0
 10
180.7581976602729
 20
115.8151177015246
 30
0.0
 10
180.7203250049626
 20
115.7562318613971
 30
0.0
 10
180.694546762438
 20
115.7282496538525
 30
0.0
 10
180.6100182181233
 20
115.6538191950677
 30
0.0
 10
180.5445966985221
 20
115.6163417023187
 30
0.0
 10
180.3429581442894
 20
115.5507004893172
 30
0.0
 10
180.2026908829926
 20
115.5736544080454
 30
0.0
 10
180.0717639371391
 20
115.6735941983435
 30
0.0
  0
SPLINE
  5
139
330
1F
100
AcDbEntity
  8
0
  6
HIDDEN
 62
     7
370
    18
100
AcDbSpline
210
0.0
220
0.0
230
1.0
 70
     8
 71
     3
 72
    14
 73
    10
 74
     0
 42
0.000000001
 43
0.00000001
 40
0.0
 40
0.0
 40
0.0
 40
0.0
 40
0.1358279173085999
 40
0.2728304332700568
 40
0.4267986863979883
 40
0.5844563286128482
 40
0.766916395868762
 40
0.9505547991312097
 40
1.0
 40
1.0
 40
1.0
 40
1.0
 10
175.7014840334127
 20
115.157153529076
 30
0.0
 10
175.8010541105212
 20
115.2338269880096
 30
0.0
 10
176.0010553165804
 20
115.3878369547063
 30
0.0
 10
176.1884113367206
 20
115.7511144425252
 30
0.0
 10
176.2754076343931
 20
116.1514715420388
 30
0.0
 10
176.3297295493623
 20
116.5506218616079
 30
0.0
 10
176.3945484421866
 20
116.8662675786657
 30
0.0
 10
176.4581273508484
 20
117.038974805128
 30
0.0
 10
176.5256484220293
 20
117.044804827256
 30
0.0
 10
176.5399720075078
 20
117.046041579263
 30
0.0
  0
SPLINE
  5
13A
330
1F
100
AcDbEntity
  8
0
  6
HIDDEN
 62
     7
370
    18
100
AcDbSpline
210
0.0
220
0.0
230
1.0
 70
     8
 71
     3
 72
    14
 73
    10
 74
     0
 42
0.000000001
 43
0.00000001
 40
0.0
 40
0.0
 40
0.0
 40
0.0
 40
0.039470712934877
 40
0.1658086096466655
 40
0.2567158132558703
 40
0.3481235227418714
 40
0.4736358565289141
 40
0.7345051241752089
 40
1.0
 40
1.0
 40
1.0
 40
1.0
 10
176.6035049487349
 20
117.0579832730112
 30
0.0
 10
176.6188512631654
 20
117.0627214007232
 30
0.0
 10
176.6833180758913
 20
117.0826253322672
 30
0.0
 10
176.8460088296098
 20
116.9733274738441
 30
0.0
 10
177.1211509845854
 20
116.8189263025215
 30
0.0
 10
177.5006816023537
 20
116.6931704405706
 30
0.0
 10
178.1527859209283
 20
116.6514848117961
 30
0.0
 10
179.0280572616515
 20
116.7379072357845
 30
0.0
 10
179.721829457069
 20
116.8227351065232
 30
0.0
 10
180.0717639371391
 20
116.8655217691172
 30
0.0
  0
LWPOLYLINE
  5
13B
330
1F
100
AcDbEntity
  8
0
  6
HIDDEN
 62
     7
370
    18
100
AcDbPolyline
 90
       13
 70
   128
 43
0.0
 10
175.7014840334
 20
115.1571535291
 10
175.881984018
 20
114.779746005
 10
176.0708993018
 20
114.4314564109
 10
176.2534899157
 20
114.1394597736
 10
176.4155093679
 20
113.9265389056
 10
176.5443162155
 20
113.8093067932
 10
176.6298604037
 20
113.7969103816
 10
176.6654674132
 20
113.8903168912
 10
176.6483590345
 20
114.0822383513
 10
176.5798701356
 20
114.3577002379
 10
176.4653445102
 20
114.6952098498
 10
176.3137179317
 20
115.06843326
 10
176.136820947
 20
115.4482499998
  0
SPLINE
  5
13C
330
1F
100
AcDbEntity
  8
0
  6
HIDDEN
 62
     7
370
    18
100
AcDbSpline
210
0.0
220
0.0
230
1.0
 70
     8
 71
     3
 72
    34
 73
    30
 74
     0
 42
0.000000001
 43
0.00000001
 40
0.0
 40
0.0
 40
0.0
 40
0.0
 40
0.1249999999999958
 40
0.1249999999999958
 40
0.2499999999999916
 40
0.2499999999999916
 40
0.3124999999999923
 40
0.3124999999999923
 40
0.3749999999999931
 40
0.3749999999999931
 40
0.4374999999999938
 40
0.4374999999999938
 40
0.4999999999999946
 40
0.4999999999999946
 40
0.5624999999999952
 40
0.5624999999999952
 40
0.6249999999999959
 40
0.6249999999999959
 40
0.6874999999999966
 40
0.6874999999999966
 40
0.7499999999999972
 40
0.7499999999999972
 40
0.812499999999998
 40
0.812499999999998
 40
0.8749999999999987
 40
0.8749999999999987
 40
0.9374999999999993
 40
0.9374999999999993
 40
1.0
 40
1.0
 40
1.0
 40
1.0
 10
180.0717639371391
 20
115.6735941983436
 30
0.0
 10
179.8031373360181
 20
115.5876405544084
 30
0.0
 10
179.5345443291549
 20
115.502134490869
 30
0.0
 10
178.9996809714823
 20
115.3253037524746
 30
0.0
 10
178.7324504704157
 20
115.2344503802339
 30
0.0
 10
178.3418806247106
 20
115.0804775337339
 30
0.0
 10
178.2134295230688
 20
115.0261106279758
 30
0.0
 10
177.9640704688384
 20
114.9038840428033
 30
0.0
 10
177.84510409045
 20
114.8369121465357
 30
0.0
 10
177.6311748320328
 20
114.6810870199657
 30
0.0
 10
177.5408619773127
 20
114.5928947307603
 30
0.0
 10
177.4082718828677
 20
114.4175878538028
 30
0.0
 10
177.3659436646144
 20
114.3339853681914
 30
0.0
 10
177.3043298907863
 20
114.199778323879
 30
0.0
 10
177.2841737208869
 20
114.1482132916155
 30
0.0
 10
177.2475221064112
 20
114.0833885410431
 30
0.0
 10
177.2314860865363
 20
114.0701091866534
 30
0.0
 10
177.1944680741445
 20
114.0827505034104
 30
0.0
 10
177.1743123649909
 20
114.108264457498
 30
0.0
 10
177.1244000009476
 20
114.1961421815306
 30
0.0
 10
177.0950874734919
 20
114.2581472354863
 30
0.0
 10
177.024495094729
 20
114.4106384839129
 30
0.0
 10
176.9826216217851
 20
114.5026149111749
 30
0.0
 10
176.8836034249274
 20
114.7018080127305
 30
0.0
 10
176.8250117702344
 20
114.8122427322148
 30
0.0
 10
176.6844472777779
 20
115.029840207305
 30
0.0
 10
176.6006908536218
 20
115.1396618950079
 30
0.0
 10
176.3942321598895
 20
115.326928894975
 30
0.0
 10
176.2713111657657
 20
115.4011070734546
 30
0.0
 10
176.1368209469975
 20
115.44824999978
 30
0.0
  0
LINE
  5
13D
330
1F
100
AcDbEntity
  8
0
  6
HIDDEN
 62
     7
370
    18
100
AcDbLine
 10
94.3708020428
 20
114.0749075975
 30
0.0
 11
94.3708020428
 21
117.0749075975
 31
0.0
  0
ELLIPSE
  5
13E
330
1F
100
AcDbEntity
  8
0
  6
HIDDEN
 62
     7
370
    18
100
AcDbEllipse
 10
189.3272572417
 20
114.3213158333
 30
0.0
 11
-1.430047854952761
 21
2.435993301043893
 31
0.0
210
0.0
220
0.0
230
1.0
 40
0.3378833126
 41
5.606814197878268
 42
5.714786945143632
  0
LINE
  5
13F
330
1F
100
AcDbEntity
  8
0
  6
HIDDEN
 62
     7
370
    18
100
AcDbLine
 10
188.7272572417
 20
116.5234844237
 30
0.0
 11
188.7272572417
 21
116.1755516713
 31
0.0
  0
ARC
  5
140
330
1F
100
AcDbEntity
  8
0
  6
HIDDEN
 62
     7
370
    18
100
AcDbCircle
 10
189.3305687347
 20
114.6455892662
 30
0.0
 40
1.644618411308776
100
AcDbArc
 50
349.0304888872
 51
111.520851226
  0
LINE
  5
141
330
1F
100
AcDbEntity
  8
0
  6
HIDDEN
 62
     7
370
    18
100
AcDbLine
 10
190.9451376321
 20
114.3326403979
 30
0.0
 11
190.9451376321
 21
114.6805731503
 31
0.0
  0
ELLIPSE
  5
142
330
1F
100
AcDbEntity
  8
0
  6
HIDDEN
 62
     7
370
    18
100
AcDbEllipse
 10
189.3272572417
 20
114.3213158333
 30
0.0
 11
1.64951591589579
 21
0.3297021919773755
 31
0.0
210
0.0
220
0.0
230
1.0
 40
0.1212170443
 41
0.173411709305475
 42
0.2793257923130324
  0
ARC
  5
143
330
1F
100
AcDbEntity
  8
0
  6
HIDDEN
 62
     7
370
    18
100
AcDbCircle
 10
189.332503784
 20
114.6386267319
 30
0.0
 40
1.637202505450543
100
AcDbArc
 50
269.8163909184
 51
118.6807205434
  0
ARC
  5
144
330
1F
100
AcDbEntity
  8
0
  6
HIDDEN
 62
     7
370
    18
100
AcDbCircle
 10
189.3184168421
 20
114.6412178111
 30
0.0
 40
1.639809008144371
100
AcDbArc
 50
170.2381259359
 51
270.3088896554
  0
LINE
  5
145
330
1F
100
AcDbEntity
  8
0
  6
HIDDEN
 62
     7
370
    18
100
AcDbLine
 10
180.0717639371
 20
116.8655217691
 30
0.0
 11
180.0717639371
 21
115.6735941983
 31
0.0
  0
LINE
  5
146
330
1F
100
AcDbEntity
  8
0
  6
HIDDEN
 62
     7
370
    18
100
AcDbLine
 10
180.0717639371
 20
114.0749075975
 30
0.0
 11
180.0717639371
 21
115.6735941983
 31
0.0
  0
SPLINE
  5
147
330
1F
100
AcDbEntity
  8
0
  6
HIDDEN
 62
     7
370
    18
100
AcDbSpline
210
0.0
220
0.0
230
1.0
 70
     8
 71
     3
 72
    14
 73
    10
 74
     0
 42
0.000000001
 43
0.00000001
 40
0.0
 40
0.0
 40
0.0
 40
0.0
 40
0.25
 40
0.25
 40
0.5
 40
0.5
 40
0.75
 40
0.75
 40
1.0
 40
1.0
 40
1.0
 40
1.0
 10
196.5726977092656
 20
114.028064289876
 30
0.0
 10
196.5736841249258
 20
113.8547581738822
 30
0.0
 10
196.5525500929879
 20
113.6861851003691
 30
0.0
 10
196.4677114803301
 20
113.357950677473
 30
0.0
 10
196.4033222133654
 20
113.1988691578477
 30
0.0
 10
196.2376750248328
 20
112.9073115285155
 30
0.0
 10
196.1339061419365
 20
112.7706636925782
 30
0.0
 10
195.8961779348252
 20
112.5323675425106
 30
0.0
 10
195.7624425464989
 20
112.4295817662688
 30
0.0
 10
195.6124858345992
 20
112.3438180169432
 30
0.0
  0
ELLIPSE
  5
148
330
1F
100
AcDbEntity
  8
0
  6
HIDDEN
 62
     7
370
    18
100
AcDbEllipse
 10
175.7869688163
 20
115.5749075975
 30
0.0
 11
-0.719674585742041
 21
1.495634464669351
 31
0.0
210
0.0
220
0.0
230
1.0
 40
0.158901134
 41
1.776718997240761
 42
4.551537801781059
  0
LINE
  5
149
330
1F
100
AcDbEntity
  8
0
  6
HIDDEN
 62
     7
370
    18
100
AcDbLine
 10
197.5912706326
 20
115.8410609378
 30
0.0
 11
197.747207025
 21
115.8882379926
 31
0.0
  0
LINE
  5
14A
330
1F
100
AcDbEntity
  8
0
  6
HIDDEN
 62
     7
370
    18
100
AcDbLine
 10
188.5713208493
 20
118.0343295992
 30
0.0
 11
188.5713208493
 21
123.3641892695
 31
0.0
  0
ELLIPSE
  5
14B
330
1F
100
AcDbEntity
  8
0
  6
HIDDEN
 62
     7
370
    18
100
AcDbEllipse
 10
188.7188435034
 20
113.7467672282
 30
0.0
 11
-0.1376434252666456
 21
9.617913683558015
 31
0.0
210
0.0
220
0.0
230
1.0
 40
0.1204319171
 41
6.1576949127788
 42
6.29171878564231
  0
LINE
  5
14C
330
1F
100
AcDbEntity
  8
0
  6
HIDDEN
 62
     7
370
    18
100
AcDbLine
 10
188.7272572417
 20
123.2911243202
 30
0.0
 11
188.7272572417
 21
116.5234844237
 31
0.0
  0
LINE
  5
14D
330
1F
100
AcDbEntity
  8
0
  6
HIDDEN
 62
     7
370
    18
100
AcDbLine
 10
188.5713208493
 20
123.3641892695
 30
0.0
 11
188.5467639371
 21
123.3599013631
 31
0.0
  0
ELLIPSE
  5
14E
330
1F
100
AcDbEntity
  8
0
  6
HIDDEN
 62
     7
370
    18
100
AcDbEllipse
 10
197.5996843708
 20
115.2974595433
 30
0.0
 11
0.1866264135346682
 21
9.673737592706473
 31
0.0
210
0.0
220
0.0
230
1.0
 40
0.1190260649
 41
0.4344636901884741
 42
1.239404853075754
  0
LINE
  5
14F
330
1F
100
AcDbEntity
  8
0
  6
HIDDEN
 62
     7
370
    18
100
AcDbLine
 10
197.2843092304
 20
115.4395293545
 30
0.0
 11
197.5912706326
 21
115.8410609378
 31
0.0
  0
LINE
  5
150
330
1F
100
AcDbEntity
  8
0
  6
HIDDEN
 62
     7
370
    18
100
AcDbLine
 10
190.9451376321
 20
114.6805731503
 30
0.0
 11
197.5912706326
 21
115.8410609378
 31
0.0
  0
CIRCLE
  5
151
330
1F
100
AcDbEntity
  8
0
  6
HIDDEN
 62
     7
370
    18
100
AcDbCircle
 10
193.2242166584
 20
119.2703258732
 30
0.0
 40
2.093817014419972
  0
LINE
  5
152
330
1F
100
AcDbEntity
  8
0
  6
HIDDEN
 62
     7
370
    18
100
AcDbLine
 10
190.9451376321
 20
114.3326403979
 30
0.0
 11
197.2843092304
 21
115.4395293545
 31
0.0
  0
LINE
  5
153
330
1F
100
AcDbEntity
  8
0
  6
HIDDEN
 62
     7
370
    18
100
AcDbLine
 10
188.7272572417
 20
122.5876623631
 30
0.0
 11
197.2843092304
 21
124.0818175852
 31
0.0
  0
LINE
  5
154
330
1F
100
AcDbEntity
  8
0
  6
HIDDEN
 62
     7
370
    18
100
AcDbLine
 10
197.2843092304
 20
115.4395293545
 30
0.0
 11
197.2843092304
 21
124.0818175852
 31
0.0
  0
CIRCLE
  5
155
330
1F
100
AcDbEntity
  8
0
  6
HIDDEN
 62
     7
370
    18
100
AcDbCircle
 10
193.2245000337
 20
119.2040205622
 30
0.0
 40
1.644519071545601
  0
SPLINE
  5
156
330
1F
100
AcDbEntity
  8
0
  6
HIDDEN
 62
     7
370
    18
100
AcDbSpline
210
0.0
220
0.0
230
1.0
 70
     8
 71
     3
 72
     8
 73
     4
 74
     0
 42
0.000000001
 43
0.00000001
 40
0.0
 40
0.0
 40
0.0
 40
0.0
 40
1.0
 40
1.0
 40
1.0
 40
1.0
 10
188.2357764513272
 20
119.7094733180594
 30
0.0
 10
188.2451441005152
 20
119.7081628878123
 30
0.0
 10
188.2544572224118
 20
119.7066057892749
 30
0.0
 10
188.2637172497407
 20
119.7048071151512
 30
0.0
  0
SPLINE
  5
157
330
1F
100
AcDbEntity
  8
0
  6
HIDDEN
 62
     7
370
    18
100
AcDbSpline
210
0.0
220
0.0
230
1.0
 70
     8
 71
     3
 72
     8
 73
     4
 74
     0
 42
0.000000001
 43
0.00000001
 40
0.0
 40
0.0
 40
0.0
 40
0.0
 40
1.0
 40
1.0
 40
1.0
 40
1.0
 10
187.7427727167399
 20
119.8676610748591
 30
0.0
 10
187.8997862835009
 20
119.7915407618315
 30
0.0
 10
188.0623796722456
 20
119.7337296047223
 30
0.0
 10
188.235776451327
 20
119.7094733180592
 30
0.0
  0
SPLINE
  5
158
330
1F
100
AcDbEntity
  8
0
  6
HIDDEN
 62
     7
370
    18
100
AcDbSpline
210
0.0
220
0.0
230
1.0
 70
     8
 71
     3
 72
     8
 73
     4
 74
     0
 42
0.000000001
 43
0.00000001
 40
0.0000003876847295
 40
0.0000003876847295
 40
0.0000003876847295
 40
0.0000003876847295
 40
0.001007164065348
 40
0.001007164065348
 40
0.001007164065348
 40
0.001007164065348
 10
188.2637172497407
 20
108.1380599838253
 30
0.0
 10
188.0905910429835
 20
108.0387675322895
 30
0.0
 10
187.9167090264962
 20
107.9390438166903
 30
0.0
 10
187.7427727167399
 20
107.8392891236619
 30
0.0
  0
SPLINE
  5
159
330
1F
100
AcDbEntity
  8
0
  6
HIDDEN
 62
     7
370
    18
100
AcDbSpline
210
0.0
220
0.0
230
1.0
 70
     8
 71
     3
 72
    10
 73
     6
 74
     0
 42
0.000000001
 43
0.00000001
 40
0.0
 40
0.0
 40
0.0
 40
0.0
 40
0.5
 40
0.5
 40
1.0
 40
1.0
 40
1.0
 40
1.0
 10
191.5772588015134
 20
118.5174026344523
 30
0.0
 10
191.5775039883935
 20
118.3279811217585
 30
0.0
 10
191.6071049525296
 20
118.1361129094191
 30
0.0
 10
191.7246949190565
 20
117.7713626835532
 30
0.0
 10
191.8123115126132
 20
117.5979529244331
 30
0.0
 10
191.9280785358152
 20
117.4409958835798
 30
0.0
  0
ARC
  5
15A
330
1F
100
AcDbEntity
  8
0
  6
HIDDEN
 62
     7
370
    18
100
AcDbCircle
 10
193.2257815223
 20
118.4669597448
 30
0.0
 40
1.654277753463718
100
AcDbArc
 50
218.3298932224
 51
349.5075811446
  0
SPLINE
  5
15B
330
1F
100
AcDbEntity
  8
0
  6
HIDDEN
 62
     7
370
    18
100
AcDbSpline
210
0.0
220
0.0
230
1.0
 70
     8
 71
     3
 72
    34
 73
    30
 74
     0
 42
0.000000001
 43
0.00000001
 40
0.0
 40
0.0
 40
0.0
 40
0.0
 40
0.1250000000000004
 40
0.1250000000000004
 40
0.2500000000000009
 40
0.2500000000000009
 40
0.3125000000000009
 40
0.3125000000000009
 40
0.3750000000000009
 40
0.3750000000000009
 40
0.4375000000000009
 40
0.4375000000000009
 40
0.5000000000000009
 40
0.5000000000000009
 40
0.5625000000000009
 40
0.5625000000000009
 40
0.6250000000000009
 40
0.6250000000000009
 40
0.6875000000000009
 40
0.6875000000000009
 40
0.7500000000000009
 40
0.7500000000000009
 40
0.8125000000000007
 40
0.8125000000000007
 40
0.8750000000000004
 40
0.8750000000000004
 40
0.9375000000000002
 40
0.9375000000000002
 40
1.0
 40
1.0
 40
1.0
 40
1.0
 10
191.5772588015134
 20
118.5174026344523
 30
0.0
 10
191.5769619543252
 20
118.7512762762666
 30
0.0
 10
191.6179147933541
 20
118.9791013150895
 30
0.0
 10
191.7802567853719
 20
119.4144373872717
 30
0.0
 10
191.8983566265381
 20
119.61499704996
 30
0.0
 10
192.1419762124197
 20
119.8812297871002
 30
0.0
 10
192.234688571018
 20
119.9636475551449
 30
0.0
 10
192.4391232375069
 20
120.1058794896291
 30
0.0
 10
192.5537214566264
 20
120.1672208571746
 30
0.0
 10
192.7930936248611
 20
120.2575265703101
 30
0.0
 10
192.9216557677842
 20
120.2879175049291
 30
0.0
 10
193.1795014919219
 20
120.3130052829919
 30
0.0
 10
193.3087328941819
 20
120.3080328692582
 30
0.0
 10
193.5574154416546
 20
120.2670467966657
 30
0.0
 10
193.6760587362494
 20
120.2314154456266
 30
0.0
 10
193.8984795294785
 20
120.1366564417294
 30
0.0
 10
194.0005891398484
 20
120.0785134201091
 30
0.0
 10
194.1904530290281
 20
119.9439206881797
 30
0.0
 10
194.2784952991711
 20
119.866796273857
 30
0.0
 10
194.4357128271216
 20
119.7007076178802
 30
0.0
 10
194.5057861592408
 20
119.611212951274
 30
0.0
 10
194.6299444274186
 20
119.4194540927209
 30
0.0
 10
194.6842197515568
 20
119.3163657423023
 30
0.0
 10
194.7728751729503
 20
119.1035832408576
 30
0.0
 10
194.8077878460314
 20
118.9933072816514
 30
0.0
 10
194.8578526397305
 20
118.764574985295
 30
0.0
 10
194.8729253956894
 20
118.6448637140864
 30
0.0
 10
194.8799530867077
 20
118.4058489045663
 30
0.0
 10
194.8722812512459
 20
118.2859121000507
 30
0.0
 10
194.8523981166365
 20
118.1657067937621
 30
0.0
  0
SPLINE
  5
15C
330
1F
100
AcDbEntity
  8
0
  6
HIDDEN
 62
     7
370
    18
100
AcDbSpline
210
0.0
220
0.0
230
1.0
 70
     8
 71
     3
 72
    12
 73
     8
 74
     0
 42
0.000000001
 43
0.00000001
 40
0.0
 40
0.0
 40
0.0
 40
0.0
 40
0.5000000000000048
 40
0.5000000000000048
 40
0.7500000000000023
 40
0.7500000000000023
 40
1.0
 40
1.0
 40
1.0
 40
1.0
 10
188.2637172497408
 20
119.7048071151512
 30
0.0
 10
188.8499768233984
 20
119.5909316494027
 30
0.0
 10
189.4219412998862
 20
119.4448682376281
 30
0.0
 10
190.2524632461159
 20
119.1564349627513
 30
0.0
 10
190.5247235227126
 20
119.048654445811
 30
0.0
 10
191.0590505355526
 20
118.8052084839082
 30
0.0
 10
191.3222282875647
 20
118.668867244554
 30
0.0
 10
191.5772588015134
 20
118.5174026344523
 30
0.0
  0
ELLIPSE
  5
15D
330
1F
100
AcDbEntity
  8
0
  6
HIDDEN
 62
     7
370
    18
100
AcDbEllipse
 10
207.59730663
 20
119.1853274104
 30
0.0
 11
20.47572251305473
 21
11.70460492424682
 31
0.0
210
0.0
220
0.0
230
1.0
 40
0.0004976935
 41
2.726757418084356
 42
2.805730060517349
  0
LINE
  5
15E
330
1F
100
AcDbEntity
  8
0
  6
HIDDEN
 62
     7
370
    18
100
AcDbLine
 10
188.8559309803
 20
114.4058535495
 30
0.0
 11
188.8559309803
 21
108.6616975335
 31
0.0
  0
ELLIPSE
  5
15F
330
1F
100
AcDbEntity
  8
0
  6
HIDDEN
 62
     7
370
    18
100
AcDbEllipse
 10
197.6030168947
 20
115.5749075975
 30
0.0
 11
0.1456947880226096
 21
8.399981331264499
 31
0.0
210
0.0
220
0.0
230
1.0
 40
0.1215536026
 41
1.712530969274365
 42
1.75810961001196
  0
ELLIPSE
  5
160
330
1F
100
AcDbEntity
  8
0
  6
HIDDEN
 62
     7
370
    18
100
AcDbEllipse
 10
201.2813327875
 20
115.5749075975
 30
0.0
 11
14.69472846353574
 21
8.39999648212023
 31
0.0
210
0.0
220
0.0
230
1.0
 40
0.0005232068
 41
1.966544045419015
 42
2.5781266099492
  0
SPLINE
  5
161
330
1F
100
AcDbEntity
  8
0
  6
HIDDEN
 62
     7
370
    18
100
AcDbSpline
210
0.0
220
0.0
230
1.0
 70
     8
 71
     3
 72
    18
 73
    14
 74
     0
 42
0.000000001
 43
0.00000001
 40
0.0
 40
0.0
 40
0.0
 40
0.0
 40
0.1249999999999982
 40
0.1249999999999982
 40
0.2499999999999964
 40
0.2499999999999964
 40
0.3749999999999947
 40
0.3749999999999947
 40
0.4999999999999929
 40
0.4999999999999929
 40
0.7499999999999964
 40
0.7499999999999964
 40
1.0
 40
1.0
 40
1.0
 40
1.0
 10
188.8559309802604
 20
114.4058535494714
 30
0.0
 10
188.8559309802604
 20
114.5961861581737
 30
0.0
 10
188.8934448783857
 20
114.7805236807645
 30
0.0
 10
189.028083631022
 20
115.1354785749036
 30
0.0
 10
189.1213547034312
 20
115.2982509191454
 30
0.0
 10
189.3406724962171
 20
115.605223824424
 30
0.0
 10
189.466320720684
 20
115.7480803221071
 30
0.0
 10
189.7317691863387
 20
116.0135558455404
 30
0.0
 10
189.8727315647466
 20
116.1374685415437
 30
0.0
 10
190.3124275189254
 20
116.4912002796547
 30
0.0
 10
190.6273883793368
 20
116.7028994803883
 30
0.0
 10
191.267540391313
 20
117.0924222390586
 30
0.0
 10
191.5954087380987
 20
117.2715313384726
 30
0.0
 10
191.9280785358154
 20
117.44099588358
 30
0.0
  0
LINE
  5
162
330
1F
100
AcDbEntity
  8
0
  6
HIDDEN
 62
     7
370
    18
100
AcDbLine
 10
194.8523981166
 20
118.1657067938
 30
0.0
 11
196.5716265832
 21
118.4659029588
 31
0.0
  0
LINE
  5
163
330
1F
100
AcDbEntity
  8
0
  6
HIDDEN
 62
     7
370
    18
100
AcDbLine
 10
196.5716265832
 20
118.4659029588
 30
0.0
 11
196.5716265832
 21
114.4058535495
 31
0.0
  0
LINE
  5
164
330
1F
100
AcDbEntity
  8
0
  6
HIDDEN
 62
     7
370
    18
100
AcDbLine
 10
194.0201326247
 20
118.3643778596
 30
0.0
 11
194.0201326247
 21
118.5546525296
 31
0.0
  0
LINE
  5
165
330
1F
100
AcDbEntity
  8
0
  6
HIDDEN
 62
     7
370
    18
100
AcDbLine
 10
192.0281429753
 20
118.7864068699
 30
0.0
 11
192.0281429753
 21
118.5939534349
 31
0.0
  0
LINE
  5
166
330
1F
100
AcDbEntity
  8
0
  6
HIDDEN
 62
     7
370
    18
100
AcDbLine
 10
194.0136334856
 20
118.5006596536
 30
0.0
 11
194.0136334856
 21
118.4725504252
 31
0.0
  0
LINE
  5
167
330
1F
100
AcDbEntity
  8
0
  6
HIDDEN
 62
     7
370
    18
100
AcDbLine
 10
194.8818996307
 20
119.3833248313
 30
0.0
 11
194.8818996307
 21
119.5781671727
 31
0.0
  0
LINE
  5
168
330
1F
100
AcDbEntity
  8
0
  6
HIDDEN
 62
     7
370
    18
100
AcDbLine
 10
191.567920332
 20
120.037333694
 30
0.0
 11
191.567920332
 21
119.8424759819
 31
0.0
  0
LINE
  5
169
330
1F
100
AcDbEntity
  8
0
  6
HIDDEN
 62
     7
370
    18
100
AcDbLine
 10
194.4216769874
 20
120.6318473783
 30
0.0
 11
194.4216769874
 21
120.8266897196
 31
0.0
  0
LINE
  5
16A
330
1F
100
AcDbEntity
  8
0
  6
HIDDEN
 62
     7
370
    18
100
AcDbLine
 10
192.429687338
 20
121.0517243144
 30
0.0
 11
192.429687338
 21
120.8614229536
 31
0.0
  0
SPLINE
  5
16B
330
1F
100
AcDbEntity
  8
0
  6
HIDDEN
 62
     7
370
    18
100
AcDbSpline
210
0.0
220
0.0
230
1.0
 70
     8
 71
     3
 72
    23
 73
    19
 74
     0
 42
0.000000001
 43
0.00000001
 40
0.0
 40
0.0
 40
0.0
 40
0.0
 40
0.0243712037372401
 40
0.0903679435968928
 40
0.1566388358302859
 40
0.2232718631945576
 40
0.2903809795464102
 40
0.3579930502760738
 40
0.4260211920300053
 40
0.4942656592804798
 40
0.5623860619902092
 40
0.6301329160832578
 40
0.6973821018433108
 40
0.7641320651977471
 40
0.8304802703657634
 40
0.8965869184917534
 40
0.9626399859693167
 40
1.0
 40
1.0
 40
1.0
 40
1.0
 10
192.9097492369458
 20
117.6532798365048
 30
0.0
 10
192.8596773135968
 20
117.6633483433565
 30
0.0
 10
192.6740116077177
 20
117.7006821685172
 30
0.0
 10
192.3665180109718
 20
117.8220636682066
 30
0.0
 10
192.0227265543454
 20
118.054533871385
 30
0.0
 10
191.7420924924506
 20
118.3585817972227
 30
0.0
 10
191.5391369661196
 20
118.7174559830958
 30
0.0
 10
191.4248215751343
 20
119.1134127717201
 30
0.0
 10
191.4060348857448
 20
119.526016355706
 30
0.0
 10
191.4848712256308
 20
119.9331951389547
 30
0.0
 10
191.6577935532998
 20
120.3123885647005
 30
0.0
 10
191.9154165281165
 20
120.6423092033895
 30
0.0
 10
192.2433816448883
 20
120.9048936897019
 30
0.0
 10
192.623220771401
 20
121.0858176942252
 30
0.0
 10
193.0348626546421
 20
121.1772462048864
 30
0.0
 10
193.4535765635158
 20
121.1701767399344
 30
0.0
 10
193.8071693413743
 20
121.0962363632595
 30
0.0
 10
193.9966489143637
 20
120.993471603125
 30
0.0
 10
194.0651021448658
 20
120.9563458079693
 30
0.0
  0
SPLINE
  5
16C
330
1F
100
AcDbEntity
  8
0
  6
HIDDEN
 62
     7
370
    18
100
AcDbSpline
210
0.0
220
0.0
230
1.0
 70
     8
 71
     3
 72
    19
 73
    15
 74
     0
 42
0.000000001
 43
0.00000001
 40
0.0
 40
0.0
 40
0.0
 40
0.0
 40
0.0394010894714258
 40
0.1276342658228569
 40
0.2165270296169144
 40
0.3060561614318977
 40
0.3960426076244276
 40
0.4861485366345272
 40
0.5759287095287445
 40
0.6651285663625646
 40
0.7536518362081982
 40
0.8415555175361078
 40
0.9290080391501868
 40
1.0
 40
1.0
 40
1.0
 40
1.0
 10
194.4004625147074
 20
120.7325319564592
 30
0.0
 10
194.4493041122287
 20
120.6947266963024
 30
0.0
 10
194.6075195708589
 20
120.5722618942095
 30
0.0
 10
194.8034417679593
 20
120.2940297930772
 30
0.0
 10
194.9740738676932
 20
119.920800783826
 30
0.0
 10
195.0490184025568
 20
119.5145902019642
 30
0.0
 10
195.0279442309683
 20
119.1017071403745
 30
0.0
 10
194.9097193855757
 20
118.703250261103
 30
0.0
 10
194.7006318057834
 20
118.3418090450443
 30
0.0
 10
194.4122047095262
 20
118.037620331748
 30
0.0
 10
194.0604851086496
 20
117.8066891141568
 30
0.0
 10
193.6653838661536
 20
117.6631116301412
 30
0.0
 10
193.2726000816367
 20
117.6098766592339
 30
0.0
 10
193.0220221286825
 20
117.6398500752294
 30
0.0
 10
192.9097492369458
 20
117.6532798365048
 30
0.0
  0
LINE
  5
16D
330
1F
100
AcDbEntity
  8
0
  6
HIDDEN
 62
     7
370
    18
100
AcDbLine
 10
191.2272572417
 20
119.279733438
 30
0.0
 11
191.2272572417
 21
118.6256198635
 31
0.0
  0
LINE
  5
16E
330
1F
100
AcDbEntity
  8
0
  6
HIDDEN
 62
     7
370
    18
100
AcDbLine
 10
195.2272572417
 20
118.6256198635
 30
0.0
 11
195.2272572417
 21
119.279733438
 31
0.0
  0
LINE
  5
16F
330
1F
100
AcDbEntity
  8
0
  6
HIDDEN
 62
     7
370
    18
100
AcDbLine
 10
197.6717639371
 20
115.8270345931
 30
0.0
 11
197.747207025
 21
115.8686400943
 31
0.0
  0
LINE
  5
170
330
1F
100
AcDbEntity
  8
0
  6
HIDDEN
 62
     7
370
    18
100
AcDbLine
 10
190.2592639371
 20
119.9053718767
 30
0.0
 11
190.2592639371
 21
119.7453228106
 31
0.0
  0
LINE
  5
171
330
1F
100
AcDbEntity
  8
0
  6
HIDDEN
 62
     7
370
    18
100
AcDbLine
 10
196.3592639371
 20
119.7453228106
 30
0.0
 11
196.3592639371
 21
119.9053718767
 31
0.0
  0
SPLINE
  5
172
330
1F
100
AcDbEntity
  8
0
  6
HIDDEN
 62
     7
370
    18
100
AcDbSpline
210
0.0
220
0.0
230
1.0
 70
     8
 71
     3
 72
    23
 73
    19
 74
     0
 42
0.000000001
 43
0.00000001
 40
0.0
 40
0.0
 40
0.0
 40
0.0
 40
0.0395727591173561
 40
0.1064976648926392
 40
0.1733728013905931
 40
0.2401103714111074
 40
0.3066548772608574
 40
0.3729898125714451
 40
0.4391352791968863
 40
0.5051396923621702
 40
0.5710698998105986
 40
0.6369888158687087
 40
0.7029619648304647
 40
0.7690612842715068
 40
0.8353427392728948
 40
0.9018353788810454
 40
0.9685318221036384
 40
1.0
 40
1.0
 40
1.0
 40
1.0
 10
195.496731751897
 20
119.605119210105
 30
0.0
 10
195.5004310589976
 20
119.5151310180731
 30
0.0
 10
195.5103865833715
 20
119.2729560337388
 30
0.0
 10
195.4176598068193
 20
118.8843824680858
 30
0.0
 10
195.2328987012091
 20
118.4640338130796
 30
0.0
 10
194.9584251663534
 20
118.0916980251342
 30
0.0
 10
194.6121032952654
 20
117.7841679945692
 30
0.0
 10
194.2081128210113
 20
117.5550353286955
 30
0.0
 10
193.7649740740374
 20
117.4142427748102
 30
0.0
 10
193.3022787000745
 20
117.3676853775407
 30
0.0
 10
192.8404396259308
 20
117.4170719305232
 30
0.0
 10
192.3996480536061
 20
117.559924988265
 30
0.0
 10
191.9989943013449
 20
117.7897767351274
 30
0.0
 10
191.6558598671056
 20
118.0965382718835
 30
0.0
 10
191.384653537357
 20
118.4670258125788
 30
0.0
 10
191.1987914599195
 20
118.8852302868682
 30
0.0
 10
191.1182502851469
 20
119.2543145582593
 30
0.0
 10
191.1114453603583
 20
119.4771818421382
 30
0.0
 10
191.1092639371391
 20
119.5486253750164
 30
0.0
  0
LINE
  5
173
330
1F
100
AcDbEntity
  8
0
  6
HIDDEN
 62
     7
370
    18
100
AcDbLine
 10
191.1092639371
 20
119.548625375
 30
0.0
 11
191.1092639371
 21
119.3528546659
 31
0.0
  0
LINE
  5
174
330
1F
100
AcDbEntity
  8
0
  6
HIDDEN
 62
     7
370
    18
100
AcDbLine
 10
195.5092639371
 20
119.3528546659
 30
0.0
 11
195.5092639371
 21
119.548625375
 31
0.0
  0
LINE
  5
175
330
1F
100
AcDbEntity
  8
0
  6
HIDDEN
 62
     7
370
    18
100
AcDbLine
 10
182.0643761088
 20
119.6406069446
 30
0.0
 11
176.5330920782
 21
117.0613268417
 31
0.0
  0
LINE
  5
176
330
1F
100
AcDbEntity
  8
0
  6
HIDDEN
 62
     7
370
    18
100
AcDbLine
 10
180.5370569243
 20
115.6182725555
 30
0.0
 11
184.51343224
 21
117.4724868169
 31
0.0
  0
LINE
  5
177
330
1F
100
AcDbEntity
  8
0
  6
HIDDEN
 62
     7
370
    18
100
AcDbLine
 10
176.6237663612
 20
113.7934751973
 30
0.0
 11
177.2386322915
 21
114.0801918894
 31
0.0
  0
LINE
  5
178
330
1F
100
AcDbEntity
  8
0
  6
HIDDEN
 62
     7
370
    18
100
AcDbLine
 10
93.0717639371
 20
113.3249075975
 30
0.0
 11
94.3708020428
 21
114.0749075975
 31
0.0
  0
LINE
  5
179
330
1F
100
AcDbEntity
  8
0
  6
HIDDEN
 62
     7
370
    18
100
AcDbLine
 10
94.3708020428
 20
117.0749075975
 30
0.0
 11
93.0717639371
 21
117.8249075975
 31
0.0
  0
LINE
  5
17A
330
1F
100
AcDbEntity
  8
0
  6
HIDDEN
 62
     7
370
    18
100
AcDbLine
 10
187.6772572417
 20
115.2283972057
 30
0.0
 11
187.6772572417
 21
114.6353749464
 31
0.0
  0
LINE
  5
17B
330
1F
100
AcDbEntity
  8
0
  6
HIDDEN
 62
     7
370
    18
100
AcDbLine
 10
190.9772572417
 20
114.6353749464
 30
0.0
 11
190.9772572417
 21
114.6534674495
 31
0.0
  0
LINE
  5
17C
330
1F
100
AcDbEntity
  8
0
  6
HIDDEN
 62
     7
370
    18
100
AcDbLine
 10
180.0717639371
 20
114.0749075975
 30
0.0
 11
180.9730548657
 21
115.5749075975
 31
0.0
  0
LINE
  5
17D
330
1F
100
AcDbEntity
  8
0
  6
HIDDEN
 62
     7
370
    18
100
AcDbLine
 10
180.9730548657
 20
115.5749075975
 30
0.0
 11
180.7439185378
 21
115.9562544868
 31
0.0
  0
LINE
  5
17E
330
1F
100
AcDbEntity
  8
0
  6
HIDDEN
 62
     7
370
    18
100
AcDbLine
 10
177.2216306976
 20
114.0749075975
 30
0.0
 11
180.0717639371
 21
114.0749075975
 31
0.0
  0
LINE
  5
17F
330
1F
100
AcDbEntity
  8
0
  6
HIDDEN
 62
     7
370
    18
100
AcDbLine
 10
94.3708020428
 20
114.0749075975
 30
0.0
 11
176.4864303035
 21
114.0749075975
 31
0.0
  0
LINE
  5
180
330
1F
100
AcDbEntity
  8
0
  6
HIDDEN
 62
     7
370
    18
100
AcDbLine
 10
176.6035049487
 20
117.0749075975
 30
0.0
 11
94.3708020428
 21
117.0749075975
 31
0.0
  0
LINE
  5
181
330
1F
100
AcDbEntity
  8
0
  6
HIDDEN
 62
     7
370
    18
100
AcDbLine
 10
191.5772572417
 20
119.1934461154
 30
0.0
 11
191.5772572417
 21
118.51980811
 31
0.0
  0
LINE
  5
182
330
1F
100
AcDbEntity
  8
0
  6
HIDDEN
 62
     7
370
    18
100
AcDbLine
 10
194.8772572417
 20
118.4706380938
 30
0.0
 11
194.8772572417
 21
119.1934461154
 31
0.0
  0
LINE
  5
183
330
1F
100
AcDbEntity
  8
VERMASSUNG
100
AcDbLine
 10
167.3684832121
 20
115.5749075975
 30
0.0
 11
167.9042726228
 21
115.5749075975
 31
0.0
  0
POINT
  5
184
330
1F
100
AcDbEntity
  8
VERMASSUNG
100
AcDbPoint
 10
198.0717639371
 20
125.4499075975
 30
0.0
  0
DIMENSION
  5
185
330
1F
100
AcDbEntity
  8
VERMASSUNG
100
AcDbDimension
  2
_D
 10
204.045552985
 20
105.6999075975
 30
0.0
 11
204.045552985
 21
113.299950128
 31
0.0
 70
   160
  1
%%c<>-25.1
 71
     2
 42
-1.0
  3
SLDDIMSTYLE0
100
AcDbAlignedDimension
 13
198.0717639371
 23
125.4499075975
 33
0.0
 14
198.0717639371
 24
105.6999075975
 34
0.0
 50
90.0
100
AcDbRotatedDimension
  0
DIMENSION
  5
190
330
1F
100
AcDbEntity
  8
VERMASSUNG
100
AcDbDimension
  2
_D_1
 10
93.0717639371
 20
132.7214155253
 30
0.0
 11
142.0518604423
 21
132.7214155253
 31
0.0
 70
   160
  1
<>
 71
     2
 42
-1.0
  3
SLDDIMSTYLE1
100
AcDbAlignedDimension
 13
198.0717639371
 23
125.4499075975
 33
0.0
 14
93.0717639371
 24
121.7749075975
 34
0.0
 50
0.0
100
AcDbRotatedDimension
  0
DIMENSION
  5
19B
330
1F
100
AcDbEntity
  8
VERMASSUNG
100
AcDbDimension
  2
_D_2
 10
86.7637069585
 20
107.5749075975
 30
0.0
 11
86.7637069585
 21
115.0601909697
 31
0.0
 70
   160
  1
%%c<>
 71
     2
 42
-1.0
  3
SLDDIMSTYLE1
100
AcDbAlignedDimension
 13
104.3717639371
 23
123.5749075975
 33
0.0
 14
94.4467639371
 24
107.5749075975
 34
0.0
 50
90.0
100
AcDbRotatedDimension
  0
LINE
  5
1A6
330
1F
100
AcDbEntity
  8
VERMASSUNG
  6
CENTERX2
 62
     7
370
    18
100
AcDbLine
 10
91.0717639371
 20
115.5749075975
 30
0.0
 11
199.0320388959
 21
115.5749075975
 31
0.0
  0
LINE
  5
1A7
330
1F
100
AcDbEntity
  8
VERMASSUNG
  6
CENTERX2
 62
     7
370
    18
100
AcDbLine
 10
189.2632060053
 20
121.3424095766
 30
0.0
 11
172.931164582
 21
113.7266535876
 31
0.0
  0
OLE2FRAME
  5
1A8
330
1F
100
AcDbEntity
  8
0
100
AcDbOle2Frame
 70
     2
  3
Paintbrush-Bild
 10
13.8511154363
 20
38.264191557
 30
0.0
 11
51.6290888628
 21
31.9806341108
 31
0.0
 71
     2
 72
     0
 73
     1
 90
    12928
310
80552BED0767C5B32B40DDAF6807D121434000000000000000006FFBDDFB85D0
310
4940DDAF6807D121434000000000000000006FFBDDFB85D04940416F4BD60AFB
310
3F4000000000000000002BED0767C5B32B40416F4BD60AFB3F40000000000000
310
0000000000000100000000010000010000000100000000000100000000320000
310
D0CF11E0A1B11AE1000000000000000000000000000000003E000300FEFF0900
310
0600000000000000000000000100000001000000000000000010000002000000
310
01000000FEFFFFFF0000000000000000FFFFFFFFFFFFFFFFFFFFFFFFFFFFFFFF
310
FFFFFFFFFFFFFFFFFFFFFFFFFFFFFFFFFFFFFFFFFFFFFFFFFFFFFFFFFFFFFFFF
310
FFFFFFFFFFFFFFFFFFFFFFFFFFFFFFFFFFFFFFFFFFFFFFFFFFFFFFFFFFFFFFFF
310
FFFFFFFFFFFFFFFFFFFFFFFFFFFFFFFFFFFFFFFFFFFFFFFFFFFFFFFFFFFFFFFF
310
FFFFFFFFFFFFFFFFFFFFFFFFFFFFFFFFFFFFFFFFFFFFFFFFFFFFFFFFFFFFFFFF
310
FFFFFFFFFFFFFFFFFFFFFFFFFFFFFFFFFFFFFFFFFFFFFFFFFFFFFFFFFFFFFFFF
310
FFFFFFFFFFFFFFFFFFFFFFFFFFFFFFFFFFFFFFFFFFFFFFFFFFFFFFFFFFFFFFFF
310
FFFFFFFFFFFFFFFFFFFFFFFFFFFFFFFFFFFFFFFFFFFFFFFFFFFFFFFFFFFFFFFF
310
FFFFFFFFFFFFFFFFFFFFFFFFFFFFFFFFFFFFFFFFFFFFFFFFFFFFFFFFFFFFFFFF
310
FFFFFFFFFFFFFFFFFFFFFFFFFFFFFFFFFFFFFFFFFFFFFFFFFFFFFFFFFFFFFFFF
310
FFFFFFFFFFFFFFFFFFFFFFFFFFFFFFFFFFFFFFFFFFFFFFFFFFFFFFFFFFFFFFFF
310
FFFFFFFFFFFFFFFFFFFFFFFFFFFFFFFFFFFFFFFFFFFFFFFFFFFFFFFFFFFFFFFF
310
FFFFFFFFFFFFFFFFFFFFFFFFFFFFFFFFFFFFFFFFFFFFFFFFFFFFFFFFFFFFFFFF
310
FFFFFFFFFFFFFFFFFFFFFFFFFFFFFFFFFFFFFFFFFFFFFFFFFFFFFFFFFFFFFFFF
310
FDFFFFFFFEFFFFFFFEFFFFFFFEFFFFFF05000000060000000700000008000000
310
090000000A0000000B0000000C0000000D0000000E0000000F00000010000000
310
11000000120000001300000014000000150000001600000017000000FEFFFFFF
310
FFFFFFFFFFFFFFFFFFFFFFFFFFFFFFFFFFFFFFFFFFFFFFFFFFFFFFFFFFFFFFFF
310
FFFFFFFFFFFFFFFFFFFFFFFFFFFFFFFFFFFFFFFFFFFFFFFFFFFFFFFFFFFFFFFF
310
FFFFFFFFFFFFFFFFFFFFFFFFFFFFFFFFFFFFFFFFFFFFFFFFFFFFFFFFFFFFFFFF
310
FFFFFFFFFFFFFFFFFFFFFFFFFFFFFFFFFFFFFFFFFFFFFFFFFFFFFFFFFFFFFFFF
310
FFFFFFFFFFFFFFFFFFFFFFFFFFFFFFFFFFFFFFFFFFFFFFFFFFFFFFFFFFFFFFFF
310
FFFFFFFFFFFFFFFFFFFFFFFFFFFFFFFFFFFFFFFFFFFFFFFFFFFFFFFFFFFFFFFF
310
FFFFFFFFFFFFFFFFFFFFFFFFFFFFFFFFFFFFFFFFFFFFFFFFFFFFFFFFFFFFFFFF
310
FFFFFFFFFFFFFFFFFFFFFFFFFFFFFFFFFFFFFFFFFFFFFFFFFFFFFFFFFFFFFFFF
310
FFFFFFFFFFFFFFFFFFFFFFFFFFFFFFFFFFFFFFFFFFFFFFFFFFFFFFFFFFFFFFFF
310
FFFFFFFFFFFFFFFFFFFFFFFFFFFFFFFFFFFFFFFFFFFFFFFFFFFFFFFFFFFFFFFF
310
FFFFFFFFFFFFFFFFFFFFFFFFFFFFFFFFFFFFFFFFFFFFFFFFFFFFFFFFFFFFFFFF
310
FFFFFFFFFFFFFFFFFFFFFFFFFFFFFFFFFFFFFFFFFFFFFFFFFFFFFFFFFFFFFFFF
310
FFFFFFFFFFFFFFFFFFFFFFFFFFFFFFFFFFFFFFFFFFFFFFFFFFFFFFFFFFFFFFFF
310
52006F006F007400200045006E00740072007900000000000000000000000000
310
0000000000000000000000000000000000000000000000000000000000000000
310
16000500FFFFFFFFFFFFFFFF020000000A00030000000000C000000000000046
310
00000000000000000000000040390501F260D60103000000C000000000000000
310
01004F006C006500000000000000000000000000000000000000000000000000
310
0000000000000000000000000000000000000000000000000000000000000000
310
0A000200FFFFFFFFFFFFFFFFFFFFFFFF00000000000000000000000000000000
310
0000000000000000000000000000000000000000000000001400000000000000
310
010043006F006D0070004F0062006A0000000000000000000000000000000000
310
0000000000000000000000000000000000000000000000000000000000000000
310
120002010100000003000000FFFFFFFF00000000000000000000000000000000
310
0000000000000000000000000000000000000000010000004D00000000000000
310
01004F006C006500310030004E00610074006900760065000000000000000000
310
0000000000000000000000000000000000000000000000000000000000000000
310
1A000200FFFFFFFFFFFFFFFFFFFFFFFF00000000000000000000000000000000
310
0000000000000000000000000000000000000000040000002426000000000000
310
FEFFFFFF02000000FEFFFFFFFFFFFFFFFFFFFFFFFFFFFFFFFFFFFFFFFFFFFFFF
310
FFFFFFFFFFFFFFFFFFFFFFFFFFFFFFFFFFFFFFFFFFFFFFFFFFFFFFFFFFFFFFFF
310
FFFFFFFFFFFFFFFFFFFFFFFFFFFFFFFFFFFFFFFFFFFFFFFFFFFFFFFFFFFFFFFF
310
FFFFFFFFFFFFFFFFFFFFFFFFFFFFFFFFFFFFFFFFFFFFFFFFFFFFFFFFFFFFFFFF
310
FFFFFFFFFFFFFFFFFFFFFFFFFFFFFFFFFFFFFFFFFFFFFFFFFFFFFFFFFFFFFFFF
310
FFFFFFFFFFFFFFFFFFFFFFFFFFFFFFFFFFFFFFFFFFFFFFFFFFFFFFFFFFFFFFFF
310
FFFFFFFFFFFFFFFFFFFFFFFFFFFFFFFFFFFFFFFFFFFFFFFFFFFFFFFFFFFFFFFF
310
FFFFFFFFFFFFFFFFFFFFFFFFFFFFFFFFFFFFFFFFFFFFFFFFFFFFFFFFFFFFFFFF
310
FFFFFFFFFFFFFFFFFFFFFFFFFFFFFFFFFFFFFFFFFFFFFFFFFFFFFFFFFFFFFFFF
310
FFFFFFFFFFFFFFFFFFFFFFFFFFFFFFFFFFFFFFFFFFFFFFFFFFFFFFFFFFFFFFFF
310
FFFFFFFFFFFFFFFFFFFFFFFFFFFFFFFFFFFFFFFFFFFFFFFFFFFFFFFFFFFFFFFF
310
FFFFFFFFFFFFFFFFFFFFFFFFFFFFFFFFFFFFFFFFFFFFFFFFFFFFFFFFFFFFFFFF
310
FFFFFFFFFFFFFFFFFFFFFFFFFFFFFFFFFFFFFFFFFFFFFFFFFFFFFFFFFFFFFFFF
310
FFFFFFFFFFFFFFFFFFFFFFFFFFFFFFFFFFFFFFFFFFFFFFFFFFFFFFFFFFFFFFFF
310
FFFFFFFFFFFFFFFFFFFFFFFFFFFFFFFFFFFFFFFFFFFFFFFFFFFFFFFFFFFFFFFF
310
FFFFFFFFFFFFFFFFFFFFFFFFFFFFFFFFFFFFFFFFFFFFFFFFFFFFFFFFFFFFFFFF
310
0100000200000000000000000000000000000000000000000000000000000000
310
0000000000000000000000000000000000000000000000000000000000000000
310
0100FEFF030A0000FFFFFFFF0A00030000000000C00000000000004607000000
310
5042727573680007000000504272757368000700000050427275736800F439B2
310
7100000000000000000000000000000000000000000000000000000000000000
310
0000000000000000000000000000000000000000000000000000000000000000
310
0000000000000000000000000000000000000000000000000000000000000000
310
0000000000000000000000000000000000000000000000000000000000000000
310
0000000000000000000000000000000000000000000000000000000000000000
310
0000000000000000000000000000000000000000000000000000000000000000
310
0000000000000000000000000000000000000000000000000000000000000000
310
0000000000000000000000000000000000000000000000000000000000000000
310
0000000000000000000000000000000000000000000000000000000000000000
310
0000000000000000000000000000000000000000000000000000000000000000
310
0000000000000000000000000000000000000000000000000000000000000000
310
0000000000000000000000000000000000000000000000000000000000000000
310
20260000424D0E260000000000003E00000028000000B40200006E0000000100
310
01000000000000000000130B0000130B00000200000002000000000000FFFFFF
310
FFFFFFFFFFFFFFFFFFFFFFFFFFFFFFFFFFFFFFFFFFFFFFFFFFFFFFFFFFFFFFFF
310
FFFFFFFFFFFFFFFFFFFFFFFFFFFFFFFFFFFFFFFFFFFFFFFFFFFFFFFFFFFFFFFF
310
FFFFFFFFFFFFFFFFFFFFFFFFFFFFFFFFFFFFFFFFFFFFFFFFF000FFFFFFFFFFFF
310
FFFFFFFFFFFFFFFFFFFFFFFFFFFFFFFFFFFFFFFFFFFFFFFFFFFFFFFFFFFFFFFF
310
FFFFFFFFFFFFFFFFFFFFFFFFFFFFFFFFFFFFFFFFFFFFFFFFFFFFFFFFFFFFFFFF
310
FFFFFFFFFFFFFFFFFFFFFFFFFFFFFFFFF000FFFFFFFFFFFFFFFFFFFFFFFFFFFF
310
FFFFFFFFFFFFFFFFFFFFFFFFFFFFFFFFFFFFFFFFFFFFFFFFFFFFFFFFFFFFFFFF
310
FFFFFFFFFFFFFFFFFFFFFFFFFFFFFFFFFFFFFFFFFFFFFFFFFFFFFFFFFFFFFFFF
310
FFFFFFFFFFFFFFFFF000FFFFFFFFFFFFFFFFFFFFFFFFFFFFFFFFFFFFFFFFFFFF
310
FFFFFFFFFFFFFFFFFFFFFFFFFFFFFFFFFFFFFFFFFFFFFFFFFFFFFFFFFFFFFFFF
310
FFFFFFFFFFFFFFFFFFFFFFFFFFFFFFFFFFFFFFFFFFFFFFFFFFFFFFFFFFFFFFFF
310
F000FFFFFFFFFFFFFFFFFFFFFFFFFFFFFFFFFFFFFFFFFFFFFFFFFFFFFFFFFFFF
310
FFFFFFFFFFFFFFFFFFFFFFFFFFFFFFFFFFFFFFFFFFFFFFFFFFFFFFFFFFFFFFFF
310
FFFFFFFFFFFFFFFFFFFFFFFFFFFFFFFFFFFFFFFFFFFFFFFFF000FFFFFFFFFFFF
310
FFFFFFFFFFFFFFFFFFFFFFFFFFFFFFFFFFFFFFFFFFFFFFFFFFFFFFFFFFFFFFFF
310
FFFFFFFFFFFFFFFFFFFFFFFFFFFFFFFFFFFFFFFFFFFFFFFFFFFFFFFFFFFFFFFF
310
FFFFFFFFFFFFFFFFFFFFFFFFFFFFFFFFF000FFFFFFFFFFFFFFFFFFFFFFFFFFFF
310
FFFFFFFFFFFFFFFFFFFFFFFFFFFFFFFFFFFFFFFFFFFFFFFFFFFFFFFFFFFFFFFF
310
FFFFFFFFFFFFFFFFFFFFFFFFFFFFFFFFFFFFFFFFFFFFFFFFFFFFFFFFFFFFFFFF
310
FFFFFFFFFFFFFFFFF000FFFFFFFFFFFFFFFFFFFFFFFFFFFFFFFFFFFFFFFFFFFF
310
FFFFFFFFFFFFFFFFFFFFFFFFFFFFFFFFFFFFFFFFFFFFFFFFFFFFFFFFFFFFFFFF
310
FFFFFFFFFFFFFFFFFFFFFFFFFFFFFFFFFFFFFFFFFFFFFFFFFFFFFFFFFFFFFFFF
310
F000FFFFFFFFFFFFFFFFFFFFFFFFFFFFFFFFFFFFFFFFFFFFFFFFFFFFFFFFFFFF
310
FFFFFFFFFFFFFFFFFFFFFFFFFFFFFFFFFFFFFFFFFFFFFFFFFFFFFFFFFFFFFFFF
310
FFFFFFFFFFFFFFFFFFFFFFFFFFFFFFFFFFFFFFFFFFFFFFFFF000FFFFFFFFFFFF
310
FFFFFFFFFFFFFFFFFFFFFFFFFFFFFFFFFFFFFFFFFFFFFFFFFFFFFFFFFFFFFFFF
310
FFFFFFFFFFFFFFFFFFFFFFFFFFFFFFFFFFFFFFFFFFFFFFFFFFFFFFFFFFFFFFFF
310
FFFFFFFFFFFFFFFFFFFFFFFFFFFFFFFFF000FFFFFFFFFFFFFFFFFFFFFFFFFFFF
310
FFFFFFFFFFFFFFFFFFFFFFFFFFFFFFFFFFFFFFFFFFFFFFFFFFFFFFFFFFFFFFFF
310
FFFFFFFFFFFFFFFFFFFFFFFFFFFFFFFFFFFFFFFFFFFFFFFFFFFFFFFFFFFFFFFF
310
FFFFFFFFFFFFFFFFF000FFFFFFFFFFFFFFFFFFFFFFFFFFFFFFFFFFFFFFFFFFFF
310
FFFFFFFFFFFFFFFFFFFFFFFFFFFFFFFFFFFFFFFFFFFFFFFFFFFFFFFFFFFFFFFF
310
FFFFFFFFFFFFFFFFFFFFFFFFFFFFFFFFFFFFFFFFFFFFFFFFFFFFFFFFFFFFFFFF
310
F000FFFFFFFFFFFFFFFFFFFFFFFFFFFFFFFFFFFFFFFFFFFFFFFFFFFFFFFFFFFF
310
FFFFFFFFFFFFFFFFFFFFFFFFFFFFFFFFFFFFFFFFFFFFFFFFFFFFFFFFFFFFFFFF
310
FFFFFFFFFFFFFFFFFFFFFFFFFFFFFFFFFFFFFFFFFFFFFFFFF000FFFFFFFFFFFF
310
FFFFFFFFFFFFFFFFFFFFFFFFFFFFFFFFFFFFFFFFFFFFFFFFFFFFFFFFFFFFFFFF
310
FFFFFFFFFFFFFFFFFFFFFFFFFFFFFFFFFFFFFFFFFFFFFFFFFFFFFFFFFFFFFFFF
310
FFFFFFFFFFFFFFFFFFFFFFFFFFFFFFFFF000FFFFFFFFFFFFFFFFFFFFFFFFFFFF
310
FFFFFFFFFFFFFFFFFFFFFFFFFFFFFFFFFFFFFFFFFFFFFFFFFFFFFFFFFFFFFFFF
310
FFFFFFFFFFFFFFFFFFFFFFFFFFFFFFFFFFFFFFFFFFFFFFFFFFFFFFFFFFFFFFFF
310
FFFFFFFFFFFFFFFFF000FFFFFFFFFFFFFFFFFFFFFFFFFFFFFFFFFFFFFFFFFFFF
310
FFFFFFFFFFFFFFFFFFFFFFFFFFFFFFFFFFFFFFFFFFFFFFFFFFFFFFFFFFFFFFFF
310
FFFFFFFFFFFFFFFFFFFFFFFFFFFFFFFFFFFFFFFFFFFFFFFFFFFFFFFFFFFFFFFF
310
F000FFFFFFFFFFFFFFFFFFFFFFFFFFFFFFFFFFFFFFFFFFFFFFFFFFFFFFFFFFFF
310
FFFFFFFFFFFFFFFFFFFFFFFFFFFFFFFFFFFFFFFFFFFFFFFFFFFFFFFFFFFFFFFF
310
FFFFFFFFFFFFFFFFFFFFFFFFFFFFFFFFFFFFFFFFFFFFFFFFF000FFFFFFFFFFFF
310
FFFFFFFFFFFFFFFFFFFFFFFFFFFFFFFFFFFFFFFFFFFFFFFFFFFFFFFFFFFFFFFF
310
FFFFFFFFFFFFFFFFFFFFFFFFFFFFFFFFFFFFFFFFFFFFFFFFFFFFFFFFFFFFFFFF
310
FFFFFFFFFFFFFFFFFFFFFFFFFFFFFFFFF000FFFFFFFFFFFFFFFFFFFFFFFFFFFF
310
FFFFFFFFFFFFFFFFFFFFFFFFFFFFFFFFFFFFFFFFFFFFFFFFFFFFFFFFFFFFFFFF
310
FFFFFFFFFFFFFFFFFFFFFFFFFFFFFFFFFFFFFFFFFFFFFFFFFFFFFFFFFFFFFFFF
310
FFFFFFFFFFFFFFFFF000FFFFF80003FFFFFFFFFFFFFFFFFFFFFFFFFFFFFFFFFF
310
FFFFF00007FFFFFFFFFF00007FFFFFF800000000000000007FFFFFFFFFFFFFFF
310
FFFFFFFC001FFFFFFFFFFFFFFC001FFFFFFFFFFFFFFFFFFFFFFFFFFE0007FFFF
310
F000FFFF8000007FFFFFFFF8000FFFFFC0007FFFFF80007FFFFF0000007FFFFF
310
FFF8000007FFFFF800000000000000007FFFFFF0001FFFFFFFFFFFC00001FFFF
310
FFFFFFFFC00001FFFFFFFF000000000003FFFFE000007FFFF000FFFE0000000F
310
FFFFFFF0000FFFFF80007FFFFF80007FFFFC0000001FFFFFFFC0000001FFFFF8
310
00000000000000007FFFFFF0001FFFFFFFFFFE0000003FFFFFFFFFFE0000003F
310
FFFFFF000000000003FFFF0000000FFFF000FFF800000003FFFFFFF00007FFFF
310
80007FFFFF80007FFFF000000007FFFFFF000000003FFFF80000000000000000
310
7FFFFFF0001FFFFFFFFFF80000000FFFFFFFFFF80000000FFFFFFF0000000000
310
03FFFC00000003FFF000FFE000000000FFFFFFF00007FFFF80003FFFFF80007F
310
FFC000000001FFFFFC000000001FFFF800000000000000007FFFFFF0001FFFFF
310
FFFFE000000003FFFFFFFFE000000003FFFFFF000000000003FFF000000000FF
310
F000FF80000000007FFFFFF00007FFFF80003FFFFF80007FFF8000000000FFFF
310
F80000000007FFF800000000000000007FFFFFF0001FFFFFFFFFC000000001FF
310
FFFFFFC000000001FFFFFF000000000003FFC0000000007FF000FF0000000000
310
3FFFFFE00007FFFF00003FFFFF80007FFE00000000003FFFF00000000003FFF8
310
00000000000000007FFFFFF0001FFFFFFFFF8000000000FFFFFFFF8000000000
310
FFFFFF000000000003FF80000000003FF000FE00000000001FFFFFE00003FFFF
310
00003FFFFF80007FFC00000000001FFFE00000000001FFF8000001FFFE000000
310
7FFFFFF0001FFFFFFFFE00000000003FFFFFFE00000000003FFFFF0000000000
310
03FF00000000001FF000FC00000000000FFFFFE00003FFFF00001FFFFF80007F
310
F800000000001FFFC00000000000FFF8000001FFFE0000007FFFFFF0001FFFFF
310
FFFC00000000001FFFFFFC00000000001FFFFF000000000003FE00000000000F
310
F000F8000000000007FFFFE00003FFFF00001FFFFF80007FF800000000000FFF
310
800000000000FFF8000001FFFE0000007FFFFFF0001FFFFFFFF800000000000F
310
FFFFF800000000000FFFFF000000000003FC000000000007F000F80000000000
310
03FFFFC00003FFFE00001FFFFF80007FF0000000000007FF0000000000007FF8
310
000001FFFE0000007FFFFFF0001FFFFFFFF0000000000007FFFFF00000000000
310
07FFFF000000000003F8000000000003F000F0000000000003FFFFC00001FFFE
310
00001FFFFF80007FE0000000000007FE0000000000003FF8000001FFFE000000
310
7FFFFFF0001FFFFFFFF0000000000007FFFFF0000000000007FFFF0000000000
310
03F800001F800003F000E00001FFF00001FFFFC00001FFFE00000FFFFF80007F
310
E00001FFE00003FE00001FFF00003FF8000001FFFE0000007FFFFFF0001FFFFF
310
FFE000003E000003FFFFE000003E000003FFFF000000000003F00001FFF80001
310
F000E00007FFFC0001FFFFC00001FFFE00000FFFFF80007FC0000FFFFC0003FC
310
0000FFFFC0001FF8000001FFFE0000007FFFFFF0001FFFFFFFC00003FFE00001
310
FFFFC00003FFE00001FFFF0001FFFFFFFFF00007FFFE0001F000E0000FFFFF00
310
00FFFF800001FFFC00000FFFFF80007FC0001FFFFE0001FC0001FFFFE0001FF8
310
000001FFFE0000007FFFFFF0001FFFFFFF80000FFFF80000FFFF80000FFFF800
310
00FFFF0003FFFFFFFFE0000FFFFF8000F000C0003FFFFF8000FFFF800000FFFC
310
000007FFFF80007F80003FFFFF0001FC0003FFFFF0001FF8000001FFFE000000
310
7FFFFFF0001FFFFFFF80003FFFFE0000FFFF80003FFFFE0000FFFF0003FFFFFF
310
FFE0003FFFFF8000F000C0003FFFFF8000FFFF800000FFFC000007FFFF80007F
310
80007FFFFF8001F80007FFFFF8000FF8000001FFFE0000007FFFFFF0001FFFFF
310
FF00007FFFFF00007FFF00007FFFFF00007FFF0003FFFFFFFFE0003FFFFFC000
310
F000C0007FFFFFC000FFFF000000FFFC000007FFFF80007F8000FFFFFF8000F8
310
000FFFFFF8000FF8000001FFFE0000007FFFFFF0001FFFFFFF0000FFFFFF8000
310
7FFF0000FFFFFF80007FFF0003FFFFFFFFC0007FFFFFC00070008000FFFFFFC0
310
00FFFF000000FFF8000007FFFF80007F8000FFFFFF8000F8000FFFFFF8000FF8
310
000001FFFE0000007FFFFFF0001FFFFFFE0001FFFFFFC0003FFE0001FFFFFFC0
310
003FFF0003FFFFFFFFC0007FFFFFE00070008000FFFFFFC0007FFF0000007FF8
310
000003FFFF80007F0001FFFFFF8000F8000FFFFFF8000FF8000001FFFE000000
310
7FFFFFF0001FFFFFFE0001FFFFFFC0003FFE0001FFFFFFC0003FFF0003FFFFFF
310
FFC000FFFFFFE00070008000FFFFFFC0007FFF0000007FF8000003FFFF80007F
310
0001FFFFFF8000F8001FFFFFF8000FF8000001FFFE0000007FFFFFF0001FFFFF
310
FE0003FFFFFFE0003FFE0003FFFFFFE0003FFF0003FFFFFFFFC000FFFFFFE000
310
70008000FFFFFFC0007FFE0000007FF8000003FFFF80007F0001FFFFFF8000F0
310
001FFFFFF8000FF8000001FFFE0000007FFFFFF0001FFFFFFC0003FFFFFFE000
310
1FFC0003FFFFFFE0001FFF0003FFFFFFFFC000FFFFFFC00070008000FFFFFF80
310
007FFE0000007FF0000003FFFF80007F0001FFFFFF0000F0001FFFFFF8000FF8
310
000001FFFE0000007FFFFFF0001FFFFFFC0007FFFFFFF0001FFC0007FFFFFFF0
310
001FFF0003FFFFFFFFC000FFFFFFC00070008001FFFFFF0000FFFE0000003FF0
310
000001FFFF80007F0001FFFFFF0000F8001FFFFFF0000FF8000001FFFE000000
310
7FFFFFF0001FFFFFFC0007FFFFFFF0001FFC0007FFFFFFF0001FFF0003FFFFFF
310
FFC001FFFFFF80007000FFFFFFFFFE0000FFFE0008003FF0008001FFFF80007F
310
FFFFFFFFFC0000FFFFFFFFFFE0000FF8000001FFFE0000007FFFFFF0001FFFFF
310
F8000FFFFFFFF8000FF8000FFFFFFFF8000FFF0003FFFFFFFFFFFFFFFFFF0000
310
7000FFFFFFFFFC0000FFFC0008003FF0008001FFFF80007FFFFFFFFFF80001FF
310
FFFFFFFF80000FF8000001FFFE0000007FFFFFF0001FFFFFF8000FFFFFFFF800
310
0FF8000FFFFFFFF8000FFF0003FFFFFFFFFFFFFFFFFE0000F000FFFFFFFFE000
310
00FFFC000C003FE000C001FFFF80007FFFFFFFFFC00001FFFFFFFFFE00001FF8
310
000001FFFE0000007FFFFFF0001FFFFFF8000FFFFFFFF8000FF8000FFFFFFFF8
310
000FFF0003FFFFFFFFFFFFFFFFF00000F000FFFFFFFE000001FFFC000C001FE0
310
00C000FFFF80007FFFFFFFFE000001FFFFFFFFE000001FF80FFFFFFFFFFFFFC0
310
7FFFFFF0001FFFFFF8000FFFFFFFF8000FF8000FFFFFFFF8000FFF0003FFFFFF
310
FFFFFFFFFF800000F000FFFFFFC0000001FFFC001C001FE001C000FFFF80007F
310
FFFFFF80000003FFFFFFF80000001FF80FFFFFFFFFFFFFC07FFFFFF0001FFFFF
310
F8001FFFFFFFFC000FF8001FFFFFFFFC000FFF0003FFFFFFFFFFFFFFF0000001
310
F000FFFFF800000001FFF8001C001FE001C000FFFF80007FFFFFF800000003FF
310
FFFF800000003FF80FFFFFFFFFFFFFC07FFFFFF0001FFFFFF8001FFFFFFFFC00
310
0FF8001FFFFFFFFC000FFF0003FFFFFFFFFFFFFE00000001F000FFFFC0000000
310
03FFF8001E001FC001E000FFFF80007FFFFF8000000007FFFFFC000000003FF8
310
0FFFFFFFFFFFFFC07FFFFFF0001FFFFFF8001FFFFFFFFC000FF8001FFFFFFFFC
310
000FFF0003FFFFFFFFFFFFE000000003F000FFFE0000000007FFF8001E000FC0
310
01E0007FFF80007FFFFE0000000007FFFFE0000000007FF80FFFFFFFFFFFFFC0
310
7FFFFFF0001FFFFFF0001FFFFFFFFC0007F0001FFFFFFFFC0007FF0003FFFFFF
310
FFFFFF0000000003F000FFF80000000007FFF8001E000FC003E0007FFF80007F
310
FFF0000000000FFFFF8000000000FFF80FFFFFFFFFFFFFC07FFFFFF0001FFFFF
310
F0001FFFFFFFFC0007F0001FFFFFFFFC0007FF0003FFFFFFFFFFFC0000000007
310
F000FFE0000000000FFFF0003E000FC003E0007FFF80007FFFC0000000001FFF
310
FE0000000001FFF80FFFFFFFFFFFFFC07FFFFFF0001FFFFFF0001FFFFFFFFC00
310
07F0001FFFFFFFFC0007FF0003FFFFFFFFFFF0000000000FF000FFC000000000
310
1FFFF0003F000F8003F0003FFF80007FFF80000000003FFFF80000000003FFF8
310
0FFFFFFFFFFFFFC07FFFFFF0001FFFFFF0001FFFFFFFFC0007F0001FFFFFFFFC
310
0007FF0003FFFFFFFFFFE0000000001FF000FF00000000007FFFF0003F000780
310
03F0003FFF80007FFF00000000007FFFF00000000007FFF80FFFFFFFFFFFFFC0
310
7FFFFFF0001FFFFFF0001FFFFFFFFC0007F0001FFFFFFFFC0007FF0003FFFFFF
310
FFFF80000000007FF000FE0000000000FFFFE0003F00078007F0003FFF80007F
310
FE0000000001FFFFE0000000001FFFF80FFFFFFFFFFFFFC07FFFFFF0001FFFFF
310
F0001FFFFFFFFC0007F0001FFFFFFFFC0007FF0003FFFFFFFFFF0000000000FF
310
F000FC0000000003FFFFE0007F00078007F0003FFF80007FFC0000000007FFFF
310
C0000000007FFFF80FFFFFFFFFFFFFC07FFFFFF0001FFFFFF8001FFFFFFFFC00
310
0FF8001FFFFFFFFC000FFF0003FFFFFFFFFE0000000003FFF000FC000000000F
310
FFFFE0007F80070007F8001FFF80007FF8000000001FFFFF8000000001FFFFF8
310
0FFFFFFFFFFFFFC07FFFFFF0001FFFFFF8001FFFFFFFFC000FF8001FFFFFFFFC
310
000FFF0003FFFFFFFFFC000000000FFFF000F8000000007FFFFFE0007F800700
310
07F8001FFF80007FF000000000FFFFFF800000000FFFFFF80FFFFFFFFFFFFFC0
310
7FFFFFF0001FFFFFF8000FFFFFFFF8000FF8000FFFFFFFF8000FFF0003FFFFFF
310
FFFC000000007FFFF000F800000007FFFFFFC0007F8003000FF8001FFF80007F
310
F000000007FFFFFF000000007FFFFFF80FFFFFFFFFFFFFC07FFFFFF0001FFFFF
310
F8000FFFFFFFF8000FF8000FFFFFFFF8000FFF0003FFFFFFFFF80000000FFFFF
310
F000F0000000FFFFFFFFC000FF8003000FF8001FFF80007FE0000000FFFFFFFF
310
0000000FFFFFFFF8000001FFFE0000007FFFFFF0001FFFFFF8000FFFFFFFF800
310
0FF8000FFFFFFFF8000FFF0003FFFFFFFFF8000000FFFFFFF000F000000FFFFF
310
FFFFC000FFC002000FF8000FFF80007FE000001FFFFFFFFE000001FFFFFFFFF8
310
000001FFFE0000007FFFFFF0001FFFFFF8000FFFFFFFF8000FF8000FFFFFFFF8
310
000FFF0003FFFFFFFFF000001FFFFFFFF000E00000FFFFFFFFFFC000FFC00200
310
0FFC000FFF80007FE00001FFFFFFFFFE00001FFFFFFFFFF8000001FFFE000000
310
7FFFFFF0001FFFFFFC000FFFFFFFF8001FFC000FFFFFFFF8001FFF0003FFFFFF
310
FFF00001FFFFFFFFF000E00007FFFFFFFFFF8000FFC000001FFC000FFF80007F
310
C0000FFFFFFFFFFE0000FFFFFFFFFFF8000001FFFE0000007FFFFFF0001FFFFF
310
FC0007FFFFFFF0001FFC0007FFFFFFF0001FFF0003FFFFFFFFF00007FFFFFFFF
310
F000E0001FFFFFFFFFFF8000FFC000001FFC000FFF80007FC0003FFFFFFFFFFE
310
0001FFFFFFFFFFF8000001FFFE0000007FFFFFF0001FFFFFFC0007FFFFFFF000
310
1FFC0007FFFFFFF0001FFF0003FFFFFFFFF0001FFFFFFFFFF000E0003FFFFF00
310
03FF8001FFE000001FFC0007FF80007FC0007FFFFF0007FC0003FFFFF0003FF8
310
000001FFFE0000007FFFFFF0001FFFFFFC0003FFFFFFE0001FFC0003FFFFFFE0
310
001FFF0003FFFFFFFFF0003FFFFFFFFFF000E0003FFFFF0001FF8001FFE00000
310
1FFE0007FF80007FC0007FFFFE0003FC0007FFFFE0003FF8000001FFFE000000
310
7FFFFFF0001FFFFFFE0003FFFFFFE0003FFE0003FFFFFFE0003FFF0003FFFFFF
310
FFF0003FFFFF8001F000E0003FFFFF0001FF0001FFE000001FFE0007FF80007F
310
C0007FFFFE0003FC0007FFFFE0003FF8000001FFFE0000007FFFFFF0001FFFFF
310
FE0001FFFFFFC0003FFE0001FFFFFFC0003FFF0003FFFFFFFFF0003FFFFF0001
310
F000E0003FFFFF0003FF0001FFE000003FFE0007FF80007FC0007FFFFE0003FC
310
0007FFFFE0003FF8000001FFFE0000007FFFFFF0001FFFFFFF0001FFFFFFC000
310
7FFF0001FFFFFFC0007FFF0003FFFFFFFFF0003FFFFF0001F000E0003FFFFE00
310
03FF0003FFF000003FFE0003FF80007FC0007FFFFC0003FE0007FFFFE0003FF8
310
000001FFFE0000007FFFFFF0001FFFFFFF0000FFFFFF80007FFF0000FFFFFF80
310
007FFF0003FFFFFFFFF0003FFFFF0001F000E0003FFFFE0003FF0003FFF00000
310
3FFF0003FF80007FC0007FFFFC0007FE0007FFFFC0003FF8000001FFFE000000
310
7FFFFFF0001FFFFFFF80007FFFFF0000FFFF80007FFFFF0000FFFF0003FFFFFF
310
FFF0003FFFFF0003F000E0003FFFFC0003FE0003FFF000003FFF0003FF80007F
310
E0003FFFF80007FE0003FFFFC0007FF8000001FFFE0000007FFFFFF0001FFFFF
310
FF80003FFFFE0000FFFF80003FFFFE0000FFFF0003FFFFFFFFF0001FFFFE0003
310
F000F0001FFFF80003FE0003FFF000007FFF0001FF80007FE0003FFFF00007FE
310
0001FFFF80007FF8000001FFFE0000007FFFFFF0001FFFFFFFC0000FFFF80001
310
FFFFC0000FFFF80001FFFF0003FFFFFFFFF0001FFFFC0003F000F0000FFFF000
310
07FE0007FFF800007FFF0001FF80007FE0001FFFE00007FF0000FFFE00007FF8
310
000001FFFE0000007FFFFFF0001FFFFFFFC00003FFE00001FFFFC00003FFE000
310
01FFFF0003FFFFFFFFF8000FFFF80003F000F00003FFC00007FC0007FFF80000
310
7FFF8001FF80007FF00007FF80000FFF00007FF80000FFF8000001FFFE000000
310
7F80000000000001FFE000003E000003FFFFE000003E000003FFFF0003FFFFFF
310
FFF80003FFE00007F000F800000000000FFC0007FFF800007FFF8001FF80007F
310
F000000000000FFF000000000000FFF8000001FFFE0000007F80000000000001
310
FFF0000000000007FFFFF0000000000007FFFF0003FFFFFFFFFC00007E000007
310
F000F800000000000FFC0007FFF80000FFFF8000FF80007FF800000000001FFF
310
800000000001FFF8000001FFFE0000007F80000000000001FFF800000000000F
310
FFFFF800000000000FFFFF0003FFFFFFFFFC00000000000FF000FC0000000000
310
1FFC0007FFFC0000FFFF8000FF80007FF800000000003FFFC00000000001FFF8
310
000001FFFE0000007F80000000000001FFF800000000000FFFFFF80000000000
310
0FFFFF0003FFFFFFFFFE00000000001FF000FE00000000003FF8000FFFFC0000
310
FFFF8000FF80007FFC00000000003FFFC00000000003FFF8000001FFFE000000
310
7F80000000000001FFFC00000000001FFFFFFC00000000001FFFFF0003FFFFFF
310
FFFF00000000001FF000FF00000000003FF8000FFFFC0000FFFFC000FF80007F
310
FE00000000007FFFE00000000007FFF8000001FFFE0000007F80000000000001
310
FFFE00000000003FFFFFFE00000000003FFFFF0003FFFFFFFFFF80000000003F
310
F000FF80000000007FF8000FFFFC0001FFFFC0007F80007FFF0000000000FFFF
310
F0000000000FFFF800000000000000007F80000000000001FFFF8000000000FF
310
FFFFFF8000000000FFFFFF0003FFFFFFFFFFC0000000007FF000FFC000000000
310
FFF8000FFFFE0001FFFFC0007F80007FFF8000000001FFFFF8000000001FFFF8
310
00000000000000007F80000000000001FFFFC000000001FFFFFFFFC000000001
310
FFFFFF0003FFFFFFFFFFE000000000FFF000FFE000000003FFF0001FFFFE0001
310
FFFFC0007F80007FFFC000000007FFFFFE000000003FFFF80000000000000000
310
7F80000000000001FFFFE000000003FFFFFFFFE000000003FFFFFF0003FFFFFF
310
FFFFF000000003FFF000FFF80000000FFFF0001FFFFE0001FFFFE0007F80007F
310
FFF00000000FFFFFFF00000000FFFFF800000000000000007F80000000000001
310
FFFFF80000000FFFFFFFFFF80000000FFFFFFF0003FFFFFFFFFFFC0000000FFF
310
F000FFFE0000003FFFF0001FFFFE0003FFFFE0003F80007FFFFC0000003FFFFF
310
FFC0000003FFFFF800000000000000007F80000000000001FFFFFE0000003FFF
310
FFFFFFFE0000003FFFFFFF0003FFFFFFFFFFFF0000003FFFF000FFFF800000FF
310
FFF0001FFFFF0003FFFFE0003F80007FFFFF000001FFFFFFFFF800001FFFFFF8
310
00000000000000007F80000000000001FFFFFFC00001FFFFFFFFFFFFC00001FF
310
FFFFFF0003FFFFFFFFFFFFC00000FFFFF000FFFFF8000FFFFFFFFFFFFFFFFFFF
310
FFFFFFFFFFFFFFFFFFFFF0001FFFFFFFFFFF0000FFFFFFF80000000000000000
310
7FFFFFFFFFFFFFFFFFFFFFFC001FFFFFFFFFFFFFFC001FFFFFFFFFFFFFFFFFFF
310
FFFFFFFC001FFFFFF000FFFFFFFFFFFFFFFFFFFFFFFFFFFFFFFFFFFFFFFFFFFF
310
FFFFFFFFFFFFFFFFFFFFFFFFFFFFFFFFFFFFFFFFFFFFFFFFFFFFFFFFFFFFFFFF
310
FFFFFFFFFFFFFFFFFFFFFFFFFFFFFFFFFFFFFFFFFFFFFFFFFFFFFFFFFFFFFFFF
310
F000FFFFFFFFFFFFFFFFFFFFFFFFFFFFFFFFFFFFFFFFFFFFFFFFFFFFFFFFFFFF
310
FFFFFFFFFFFFFFFFFFFFFFFFFFFFFFFFFFFFFFFFFFFFFFFFFFFFFFFFFFFFFFFF
310
FFFFFFFFFFFFFFFFFFFFFFFFFFFFFFFFFFFFFFFFFFFFFFFFF000FFFFFFFFFFFF
310
FFFFFFFFFFFFFFFFFFFFFFFFFFFFFFFFFFFFFFFFFFFFFFFFFFFFFFFFFFFFFFFF
310
FFFFFFFFFFFFFFFFFFFFFFFFFFFFFFFFFFFFFFFFFFFFFFFFFFFFFFFFFFFFFFFF
310
FFFFFFFFFFFFFFFFFFFFFFFFFFFFFFFFF000FFFFFFFFFFFFFFFFFFFFFFFFFFFF
310
FFFFFFFFFFFFFFFFFFFFFFFFFFFFFFFFFFFFFFFFFFFFFFFFFFFFFFFFFFFFFFFF
310
FFFFFFFFFFFFFFFFFFFFFFFFFFFFFFFFFFFFFFFFFFFFFFFFFFFFFFFFFFFFFFFF
310
FFFFFFFFFFFFFFFFF000FFFFFFFFFFFFFFFFFFFFFFFFFFFFFFFFFFFFFFFFFFFF
310
FFFFFFFFFFFFFFFFFFFFFFFFFFFFFFFFFFFFFFFFFFFFFFFFFFFFFFFFFFFFFFFF
310
FFFFFFFFFFFFFFFFFFFFFFFFFFFFFFFFFFFFFFFFFFFFFFFFFFFFFFFFFFFFFFFF
310
F000FFFFFFFFFFFFFFFFFFFFFFFFFFFFFFFFFFFFFFFFFFFFFFFFFFFFFFFFFFFF
310
FFFFFFFFFFFFFFFFFFFFFFFFFFFFFFFFFFFFFFFFFFFFFFFFFFFFFFFFFFFFFFFF
310
FFFFFFFFFFFFFFFFFFFFFFFFFFFFFFFFFFFFFFFFFFFFFFFFF000FFFFFFFFFFFF
310
FFFFFFFFFFFFFFFFFFFFFFFFFFFFFFFFFFFFFFFFFFFFFFFFFFFFFFFFFFFFFFFF
310
FFFFFFFFFFFFFFFFFFFFFFFFFFFFFFFFFFFFFFFFFFFFFFFFFFFFFFFFFFFFFFFF
310
FFFFFFFFFFFFFFFFFFFFFFFFFFFFFFFFF000FFFFFFFFFFFFFFFFFFFFFFFFFFFF
310
FFFFFFFFFFFFFFFFFFFFFFFFFFFFFFFFFFFFFFFFFFFFFFFFFFFFFFFFFFFFFFFF
310
FFFFFFFFFFFFFFFFFFFFFFFFFFFFFFFFFFFFFFFFFFFFFFFFFFFFFFFFFFFFFFFF
310
FFFFFFFFFFFFFFFFF000FFFFFFFFFFFFFFFFFFFFFFFFFFFFFFFFFFFFFFFFFFFF
310
FFFFFFFFFFFFFFFFFFFFFFFFFFFFFFFFFFFFFFFFFFFFFFFFFFFFFFFFFFFFFFFF
310
FFFFFFFFFFFFFFFFFFFFFFFFFFFFFFFFFFFFFFFFFFFFFFFFFFFFFFFFFFFFFFFF
310
F000FFFFFFFFFFFFFFFFFFFFFFFFFFFFFFFFFFFFFFFFFFFFFFFFFFFFFFFFFFFF
310
FFFFFFFFFFFFFFFFFFFFFFFFFFFFFFFFFFFFFFFFFFFFFFFFFFFFFFFFFFFFFFFF
310
FFFFFFFFFFFFFFFFFFFFFFFFFFFFFFFFFFFFFFFFFFFFFFFFF000FFFFFFFFFFFF
310
FFFFFFFFFFFFFFFFFFFFFFFFFFFFFFFFFFFFFFFFFFFFFFFFFFFFFFFFFFFFFFFF
310
FFFFFFFFFFFFFFFFFFFFFFFFFFFFFFFFFFFFFFFFFFFFFFFFFFFFFFFFFFFFFFFF
310
FFFFFFFFFFFFFFFFFFFFFFFFFFFFFFFFF000FFFFFFFFFFFFFFFFFFFFFFFFFFFF
310
FFFFFFFFFFFFFFFFFFFFFFFFFFFFFFFFFFFFFFFFFFFFFFFFFFFFFFFFFFFFFFFF
310
FFFFFFFFFFFFFFFFFFFFFFFFFFFFFFFFFFFFFFFFFFFFFFFFFFFFFFFFFFFFFFFF
310
FFFFFFFFFFFFFFFFF000FFFFFFFFFFFFFFFFFFFFFFFFFFFFFFFFFFFFFFFFFFFF
310
FFFFFFFFFFFFFFFFFFFFFFFFFFFFFFFFFFFFFFFFFFFFFFFFFFFFFFFFFFFFFFFF
310
FFFFFFFFFFFFFFFFFFFFFFFFFFFFFFFFFFFFFFFFFFFFFFFFFFFFFFFFFFFFFFFF
310
F000FFFFFFFFFFFFFFFFFFFFFFFFFFFFFFFFFFFFFFFFFFFFFFFFFFFFFFFFFFFF
310
FFFFFFFFFFFFFFFFFFFFFFFFFFFFFFFFFFFFFFFFFFFFFFFFFFFFFFFFFFFFFFFF
310
FFFFFFFFFFFFFFFFFFFFFFFFFFFFFFFFFFFFFFFFFFFFFFFFF000FFFFFFFFFFFF
310
FFFFFFFFFFFFFFFFFFFFFFFFFFFFFFFFFFFFFFFFFFFFFFFFFFFFFFFFFFFFFFFF
310
FFFFFFFFFFFFFFFFFFFFFFFFFFFFFFFFFFFFFFFFFFFFFFFFFFFFFFFFFFFFFFFF
310
FFFFFFFFFFFFFFFFFFFFFFFFFFFFFFFFF000FFFFFFFFFFFFFFFFFFFFFFFFFFFF
310
FFFFFFFFFFFFFFFFFFFFFFFFFFFFFFFFFFFFFFFFFFFFFFFFFFFFFFFFFFFFFFFF
310
FFFFFFFFFFFFFFFFFFFFFFFFFFFFFFFFFFFFFFFFFFFFFFFFFFFFFFFFFFFFFFFF
310
FFFFFFFFFFFFFFFFF000FFFFFFFFFFFFFFFFFFFFFFFFFFFFFFFFFFFFFFFFFFFF
310
FFFFFFFFFFFFFFFFFFFFFFFFFFFFFFFFFFFFFFFFFFFFFFFFFFFFFFFFFFFFFFFF
310
FFFFFFFFFFFFFFFFFFFFFFFFFFFFFFFFFFFFFFFFFFFFFFFFFFFFFFFFFFFFFFFF
310
F000FFFFFFFFFFFFFFFFFFFFFFFFFFFFFFFFFFFFFFFFFFFFFFFFFFFFFFFFFFFF
310
FFFFFFFFFFFFFFFFFFFFFFFFFFFFFFFFFFFFFFFFFFFFFFFFFFFFFFFFFFFFFFFF
310
FFFFFFFFFFFFFFFFFFFFFFFFFFFFFFFFFFFFFFFFFFFFFFFFF000FFFFFFFFFFFF
310
FFFFFFFFFFFFFFFFFFFFFFFFFFFFFFFFFFFFFFFFFFFFFFFFFFFFFFFFFFFFFFFF
310
FFFFFFFFFFFFFFFFFFFFFFFFFFFFFFFFFFFFFFFFFFFFFFFFFFFFFFFFFFFFFFFF
310
FFFFFFFFFFFFFFFFFFFFFFFFFFFFFFFFF000FFFFFFFFFFFFFFFFFFFFFFFFFFFF
310
FFFFFFFFFFFFFFFFFFFFFFFFFFFFFFFFFFFFFFFFFFFFFFFFFFFFFFFFFFFFFFFF
310
FFFFFFFFFFFFFFFFFFFFFFFFFFFFFFFFFFFFFFFFFFFFFFFFFFFFFFFFFFFFFFFF
310
FFFFFFFFFFFFFFFFF000FFFFFFFFFFFFFFFFFFFFFFFFFFFFFFFFFFFFFFFFFFFF
310
FFFFFFFFFFFFFFFFFFFFFFFFFFFFFFFFFFFFFFFFFFFFFFFFFFFFFFFFFFFFFFFF
310
FFFFFFFFFFFFFFFFFFFFFFFFFFFFFFFFFFFFFFFFFFFFFFFFFFFFFFFFFFFFFFFF
310
F000FFFFFFFFFFFFFFFFFFFFFFFFFFFFFFFFFFFFFFFFFFFFFFFFFFFFFFFFFFFF
310
FFFFFFFFFFFFFFFFFFFFFFFFFFFFFFFFFFFFFFFFFFFFFFFFFFFFFFFFFFFFFFFF
310
FFFFFFFFFFFFFFFFFFFFFFFFFFFFFFFFFFFFFFFFFFFFFFFFF000FFFFFFFFFFFF
310
FFFFFFFFFFFFFFFFFFFFFFFFFFFFFFFFFFFFFFFFFFFFFFFFFFFFFFFFFFFFFFFF
310
FFFFFFFFFFFFFFFFFFFFFFFFFFFFFFFFFFFFFFFFFFFFFFFFFFFFFFFFFFFFFFFF
310
FFFFFFFFFFFFFFFFFFFFFFFFFFFFFFFFF0000000000000000000000000000000
310
0000000000000000000000000000000000000000000000000000000000000000
310
0000000000000000000000000000000000000000000000000000000000000000
310
0000000000000000000000000000000000000000000000000000000000000000
310
0000000000000000000000000000000000000000000000000000000000000000
310
0000000000000000000000000000000000000000000000000000000000000000
310
0000000000000000000000000000000000000000000000000000000000000000
310
0000000000000000000000000000000000000000000000000000000000000000
310
0000000000000000000000000000000000000000000000000000000000000000
310
0000000000000000000000000000000000000000000000000000000000000000
310
0000000000000000000000000000000000000000000000000000000000000000
310
0000000000000000000000000000000000000000000000000000000000000000
310
0000000000000000000000000000000000000000000000000000000000000000
310
0000000000000000000000000000000000000000000000000000000000000000
310
0000000000000000000000000000000000000000000000000000000000000000
310
0000000000000000000000000000000000000000000000000000000000000000
  1
OLE
  0
ENDSEC
  0
SECTION
  2
OBJECTS
  0
DICTIONARY
  5
C
330
0
100
AcDbDictionary
281
     1
  3
ACAD_GROUP
350
D
  3
ACAD_LAYOUT
350
1A
  3
ACAD_MLINESTYLE
350
17
  3
ACAD_PLOTSETTINGS
350
19
  3
ACAD_PLOTSTYLENAME
350
E
  3
ACAD_SCALELIST
350
47
  0
DICTIONARY
  5
D
102
{ACAD_REACTORS
330
C
102
}
330
C
100
AcDbDictionary
281
     1
  0
DICTIONARY
  5
1A
102
{ACAD_REACTORS
330
C
102
}
330
C
100
AcDbDictionary
281
     1
  3
Layout1
350
1E
  3
Layout2
350
26
  3
Model
350
22
  0
DICTIONARY
  5
17
102
{ACAD_REACTORS
330
C
102
}
330
C
100
AcDbDictionary
281
     1
  3
Standard
350
18
  0
DICTIONARY
  5
19
102
{ACAD_REACTORS
330
C
102
}
330
C
100
AcDbDictionary
281
     1
  0
ACDBDICTIONARYWDFLT
  5
E
102
{ACAD_REACTORS
330
C
102
}
330
C
100
AcDbDictionary
281
     1
  3
Normal
350
F
100
AcDbDictionaryWithDefault
340
F
  0
DICTIONARY
  5
47
102
{ACAD_REACTORS
330
C
102
}
330
C
100
AcDbDictionary
281
     1
  3
A0
350
48
  3
A1
350
49
  3
A2
350
4A
  3
A3
350
4B
  3
A4
350
4C
  3
A5
350
4D
  3
A6
350
4E
  3
A7
350
4F
  3
A8
350
50
  3
A9
350
51
  3
B0
350
52
  3
B1
350
53
  3
B2
350
54
  3
B3
350
55
  3
B4
350
56
  3
B5
350
57
  3
B6
350
58
  3
B7
350
59
  3
B8
350
5A
  3
B9
350
5B
  3
C0
350
5C
  3
C1
350
5D
  3
C2
350
5E
  3
C3
350
5F
  3
C4
350
60
  3
C5
350
61
  3
C6
350
62
  3
C7
350
63
  3
C8
350
64
  3
C9
350
65
  3
D0
350
66
  3
D1
350
67
  3
D2
350
68
  0
LAYOUT
  5
1E
102
{ACAD_REACTORS
330
1A
102
}
330
1A
100
AcDbPlotSettings
  1

  2
none_device
  4

  6

 40
0.0
 41
0.0
 42
0.0
 43
0.0
 44
0.0
 45
0.0
 46
0.0
 47
0.0
 48
0.0
 49
0.0
140
0.0
141
0.0
142
1.0
143
1.0
 70
   688
 72
     1
 73
     0
 74
     5
  7

 75
    16
147
1.0
148
0.0
149
0.0
100
AcDbLayout
  1
Layout1
 70
     1
 71
     1
 10
0.0
 20
0.0
 11
420.0
 21
297.0
 12
0.0
 22
0.0
 32
0.0
 14
1.0000000000E+20
 24
1.0000000000E+20
 34
1.0000000000E+20
 15
-1.0000000000E+20
 25
-1.0000000000E+20
 35
-1.0000000000E+20
146
0.0
 13
0.0
 23
0.0
 33
0.0
 16
1.0
 26
0.0
 36
0.0
 17
0.0
 27
1.0
 37
0.0
 76
     0
330
1B
  0
LAYOUT
  5
26
102
{ACAD_REACTORS
330
1A
102
}
330
1A
100
AcDbPlotSettings
  1

  2
none_device
  4

  6

 40
0.0
 41
0.0
 42
0.0
 43
0.0
 44
0.0
 45
0.0
 46
0.0
 47
0.0
 48
0.0
 49
0.0
140
0.0
141
0.0
142
1.0
143
1.0
 70
   688
 72
     1
 73
     0
 74
     5
  7

 75
    16
147
1.0
148
0.0
149
0.0
100
AcDbLayout
  1
Layout2
 70
     1
 71
     2
 10
0.0
 20
0.0
 11
0.0
 21
0.0
 12
0.0
 22
0.0
 32
0.0
 14
0.0
 24
0.0
 34
0.0
 15
0.0
 25
0.0
 35
0.0
146
0.0
 13
0.0
 23
0.0
 33
0.0
 16
1.0
 26
0.0
 36
0.0
 17
0.0
 27
1.0
 37
0.0
 76
     0
330
23
  0
LAYOUT
  5
22
102
{ACAD_REACTORS
330
1A
102
}
330
1A
100
AcDbPlotSettings
  1

  2
none_device
  4
Letter_(8.50_x_11.00_Inches)
  6

 40
6.35
 41
6.35
 42
6.35000508
 43
6.35000508
 44
215.9
 45
279.4
 46
0.0
 47
0.0
 48
0.0
 49
0.0
140
0.0
141
0.0
142
1.0
143
1.0
 70
  1712
 72
     1
 73
     0
 74
     0
  7

 75
     0
147
1.0
148
0.0
149
0.0
100
AcDbLayout
  1
Model
 70
     1
 71
     0
 10
0.0
 20
0.0
 11
297.0
 21
210.0
 12
0.0
 22
0.0
 32
0.0
 14
0.0
 24
0.0
 34
0.0
 15
297.0
 25
210.0
 35
0.0
146
0.0
 13
0.0
 23
0.0
 33
0.0
 16
1.0
 26
0.0
 36
0.0
 17
0.0
 27
1.0
 37
0.0
 76
     0
330
1F
331
29
  0
MLINESTYLE
  5
18
102
{ACAD_REACTORS
330
17
102
}
330
17
100
AcDbMlineStyle
  2
Standard
 70
     0
  3

 62
   256
 51
90.0
 52
90.0
 71
     2
 49
0.5
 62
   256
  6
BYLAYER
 49
-0.5
 62
   256
  6
BYLAYER
  0
ACDBPLACEHOLDER
  5
F
102
{ACAD_REACTORS
330
E
102
}
330
E
  0
SCALE
  5
48
102
{ACAD_REACTORS
330
47
102
}
330
47
100
AcDbScale
 70
     0
300
1:1
140
1.0
141
1.0
290
     1
  0
SCALE
  5
49
102
{ACAD_REACTORS
330
47
102
}
330
47
100
AcDbScale
 70
     0
300
1:2
140
1.0
141
2.0
290
     0
  0
SCALE
  5
4A
102
{ACAD_REACTORS
330
47
102
}
330
47
100
AcDbScale
 70
     0
300
1:4
140
1.0
141
4.0
290
     0
  0
SCALE
  5
4B
102
{ACAD_REACTORS
330
47
102
}
330
47
100
AcDbScale
 70
     0
300
1:5
140
1.0
141
5.0
290
     0
  0
SCALE
  5
4C
102
{ACAD_REACTORS
330
47
102
}
330
47
100
AcDbScale
 70
     0
300
1:8
140
1.0
141
8.0
290
     0
  0
SCALE
  5
4D
102
{ACAD_REACTORS
330
47
102
}
330
47
100
AcDbScale
 70
     0
300
1:10
140
1.0
141
10.0
290
     0
  0
SCALE
  5
4E
102
{ACAD_REACTORS
330
47
102
}
330
47
100
AcDbScale
 70
     0
300
1:16
140
1.0
141
16.0
290
     0
  0
SCALE
  5
4F
102
{ACAD_REACTORS
330
47
102
}
330
47
100
AcDbScale
 70
     0
300
1:20
140
1.0
141
20.0
290
     0
  0
SCALE
  5
50
102
{ACAD_REACTORS
330
47
102
}
330
47
100
AcDbScale
 70
     0
300
1:30
140
1.0
141
30.0
290
     0
  0
SCALE
  5
51
102
{ACAD_REACTORS
330
47
102
}
330
47
100
AcDbScale
 70
     0
300
1:40
140
1.0
141
40.0
290
     0
  0
SCALE
  5
52
102
{ACAD_REACTORS
330
47
102
}
330
47
100
AcDbScale
 70
     0
300
1:50
140
1.0
141
50.0
290
     0
  0
SCALE
  5
53
102
{ACAD_REACTORS
330
47
102
}
330
47
100
AcDbScale
 70
     0
300
1:100
140
1.0
141
100.0
290
     0
  0
SCALE
  5
54
102
{ACAD_REACTORS
330
47
102
}
330
47
100
AcDbScale
 70
     0
300
2:1
140
2.0
141
1.0
290
     0
  0
SCALE
  5
55
102
{ACAD_REACTORS
330
47
102
}
330
47
100
AcDbScale
 70
     0
300
4:1
140
4.0
141
1.0
290
     0
  0
SCALE
  5
56
102
{ACAD_REACTORS
330
47
102
}
330
47
100
AcDbScale
 70
     0
300
8:1
140
8.0
141
1.0
290
     0
  0
SCALE
  5
57
102
{ACAD_REACTORS
330
47
102
}
330
47
100
AcDbScale
 70
     0
300
10:1
140
10.0
141
1.0
290
     0
  0
SCALE
  5
58
102
{ACAD_REACTORS
330
47
102
}
330
47
100
AcDbScale
 70
     0
300
100:1
140
100.0
141
1.0
290
     0
  0
SCALE
  5
59
102
{ACAD_REACTORS
330
47
102
}
330
47
100
AcDbScale
 70
     0
300
1/128" = 1'-0"
140
0.0078125
141
12.0
290
     0
  0
SCALE
  5
5A
102
{ACAD_REACTORS
330
47
102
}
330
47
100
AcDbScale
 70
     0
300
1/64" = 1'-0"
140
0.015625
141
12.0
290
     0
  0
SCALE
  5
5B
102
{ACAD_REACTORS
330
47
102
}
330
47
100
AcDbScale
 70
     0
300
1/32" = 1'-0"
140
0.03125
141
12.0
290
     0
  0
SCALE
  5
5C
102
{ACAD_REACTORS
330
47
102
}
330
47
100
AcDbScale
 70
     0
300
1/16" = 1'-0"
140
0.0625
141
12.0
290
     0
  0
SCALE
  5
5D
102
{ACAD_REACTORS
330
47
102
}
330
47
100
AcDbScale
 70
     0
300
3/32" = 1'-0"
140
0.09375
141
12.0
290
     0
  0
SCALE
  5
5E
102
{ACAD_REACTORS
330
47
102
}
330
47
100
AcDbScale
 70
     0
300
1/8" = 1'-0"
140
0.125
141
12.0
290
     0
  0
SCALE
  5
5F
102
{ACAD_REACTORS
330
47
102
}
330
47
100
AcDbScale
 70
     0
300
3/16" = 1'-0"
140
0.1875
141
12.0
290
     0
  0
SCALE
  5
60
102
{ACAD_REACTORS
330
47
102
}
330
47
100
AcDbScale
 70
     0
300
1/4" = 1'-0"
140
0.25
141
12.0
290
     0
  0
SCALE
  5
61
102
{ACAD_REACTORS
330
47
102
}
330
47
100
AcDbScale
 70
     0
300
3/8" = 1'-0"
140
0.375
141
12.0
290
     0
  0
SCALE
  5
62
102
{ACAD_REACTORS
330
47
102
}
330
47
100
AcDbScale
 70
     0
300
1/2" = 1'-0"
140
0.5
141
12.0
290
     0
  0
SCALE
  5
63
102
{ACAD_REACTORS
330
47
102
}
330
47
100
AcDbScale
 70
     0
300
3/4" = 1'-0"
140
0.75
141
12.0
290
     0
  0
SCALE
  5
64
102
{ACAD_REACTORS
330
47
102
}
330
47
100
AcDbScale
 70
     0
300
1" = 1'-0"
140
1.0
141
12.0
290
     0
  0
SCALE
  5
65
102
{ACAD_REACTORS
330
47
102
}
330
47
100
AcDbScale
 70
     0
300
1-1/2" = 1'-0"
140
1.5
141
12.0
290
     0
  0
SCALE
  5
66
102
{ACAD_REACTORS
330
47
102
}
330
47
100
AcDbScale
 70
     0
300
3" = 1'-0"
140
3.0
141
12.0
290
     0
  0
SCALE
  5
67
102
{ACAD_REACTORS
330
47
102
}
330
47
100
AcDbScale
 70
     0
300
6" = 1'-0"
140
6.0
141
12.0
290
     0
  0
SCALE
  5
68
102
{ACAD_REACTORS
330
47
102
}
330
47
100
AcDbScale
 70
     0
300
1'-0" = 1'-0"
140
12.0
141
12.0
290
     0
  0
ENDSEC
  0
EOF
