  0
SECTION
  2
HEADER
  9
$ACADVER
  1
AC1015
  9
$ACADMAINTVER
 70
     6
  9
$DWGCODEPAGE
  3
ANSI_1252
  9
$INSBASE
 10
0.0
 20
0.0
 30
0.0
  9
$EXTMIN
 10
0.0
 20
0.0
 30
0.0
  9
$EXTMAX
 10
297.0
 20
210.0
 30
0.0
  9
$LIMMIN
 10
0.0
 20
0.0
  9
$LIMMAX
 10
297.0
 20
210.0
  9
$ORTHOMODE
 70
     0
  9
$REGENMODE
 70
     1
  9
$FILLMODE
 70
     1
  9
$QTEXTMODE
 70
     0
  9
$MIRRTEXT
 70
     1
  9
$LTSCALE
 40
1.0
  9
$ATTMODE
 70
     1
  9
$TEXTSIZE
 40
2.0
  9
$TRACEWID
 40
1.0
  9
$TEXTSTYLE
  7
Standard
  9
$CLAYER
  8
0
  9
$CELTYPE
  6
ByLayer
  9
$CECOLOR
 62
   256
  9
$CELTSCALE
 40
1.0
  9
$DISPSILH
 70
     0
  9
$DIMSCALE
 40
1.0
  9
$DIMASZ
 40
3.0
  9
$DIMEXO
 40
0.0
  9
$DIMDLI
 40
3.75
  9
$DIMRND
 40
0.0
  9
$DIMDLE
 40
0.0
  9
$DIMEXE
 40
1.0
  9
$DIMTP
 40
0.0
  9
$DIMTM
 40
0.0
  9
$DIMTXT
 40
2.0
  9
$DIMCEN
 40
2.5
  9
$DIMTSZ
 40
0.0
  9
$DIMTOL
 70
     0
  9
$DIMLIM
 70
     0
  9
$DIMTIH
 70
     1
  9
$DIMTOH
 70
     1
  9
$DIMSE1
 70
     0
  9
$DIMSE2
 70
     0
  9
$DIMTAD
 70
     1
  9
$DIMZIN
 70
     0
  9
$DIMBLK
  1

  9
$DIMASO
 70
     1
  9
$DIMSHO
 70
     1
  9
$DIMPOST
  1

  9
$DIMAPOST
  1

  9
$DIMALT
 70
     0
  9
$DIMALTD
 70
     3
  9
$DIMALTF
 40
0.0393700787
  9
$DIMLFAC
 40
1.0
  9
$DIMTOFL
 70
     1
  9
$DIMTVP
 40
0.0
  9
$DIMTIX
 70
     0
  9
$DIMSOXD
 70
     0
  9
$DIMSAH
 70
     0
  9
$DIMBLK1
  1

  9
$DIMBLK2
  1

  9
$DIMSTYLE
  2
ISO-25
  9
$DIMCLRD
 70
     0
  9
$DIMCLRE
 70
     0
  9
$DIMCLRT
 70
     0
  9
$DIMTFAC
 40
1.0
  9
$DIMGAP
 40
1.524
  9
$DIMJUST
 70
     0
  9
$DIMSD1
 70
     0
  9
$DIMSD2
 70
     0
  9
$DIMTOLJ
 70
     0
  9
$DIMTZIN
 70
     0
  9
$DIMALTZ
 70
     0
  9
$DIMALTTZ
 70
     0
  9
$DIMUPT
 70
     0
  9
$DIMDEC
 70
     2
  9
$DIMTDEC
 70
     3
  9
$DIMALTU
 70
     2
  9
$DIMALTTD
 70
     3
  9
$DIMTXSTY
  7
Standard
  9
$DIMAUNIT
 70
     0
  9
$DIMADEC
 70
     2
  9
$DIMALTRND
 40
0.0
  9
$DIMAZIN
 70
     0
  9
$DIMDSEP
 70
    44
  9
$DIMATFIT
 70
     3
  9
$DIMFRAC
 70
     0
  9
$DIMLDRBLK
  1

  9
$DIMLUNIT
 70
     2
  9
$DIMLWD
 70
    -2
  9
$DIMLWE
 70
    -2
  9
$DIMTMOVE
 70
     0
  9
$LUNITS
 70
     2
  9
$LUPREC
 70
     2
  9
$SKETCHINC
 40
1.0
  9
$FILLETRAD
 40
10.0
  9
$AUNITS
 70
     0
  9
$AUPREC
 70
     2
  9
$MENU
  1
.
  9
$ELEVATION
 40
0.0
  9
$PELEVATION
 40
0.0
  9
$THICKNESS
 40
0.0
  9
$LIMCHECK
 70
     0
  9
$CHAMFERA
 40
0.0
  9
$CHAMFERB
 40
0.0
  9
$CHAMFERC
 40
0.0
  9
$CHAMFERD
 40
0.0
  9
$SKPOLY
 70
     0
  9
$TDCREATE
 40
2459054.644647083
  9
$TDUCREATE
 40
2459054.56131375
  9
$TDUPDATE
 40
2459054.644647986
  9
$TDUUPDATE
 40
2459054.561314653
  9
$TDINDWG
 40
0.0000000116
  9
$TDUSRTIMER
 40
0.0000000116
  9
$USRTIMER
 70
     1
  9
$ANGBASE
 50
0.0
  9
$ANGDIR
 70
     0
  9
$PDMODE
 70
     0
  9
$PDSIZE
 40
-1.0
  9
$PLINEWID
 40
0.0
  9
$SPLFRAME
 70
     0
  9
$SPLINETYPE
 70
     6
  9
$SPLINESEGS
 70
     8
  9
$HANDSEED
  5
17A
  9
$SURFTAB1
 70
     6
  9
$SURFTAB2
 70
     6
  9
$SURFTYPE
 70
     6
  9
$SURFU
 70
     6
  9
$SURFV
 70
     6
  9
$UCSBASE
  2

  9
$UCSNAME
  2

  9
$UCSORG
 10
0.0
 20
0.0
 30
0.0
  9
$UCSXDIR
 10
1.0
 20
0.0
 30
0.0
  9
$UCSYDIR
 10
0.0
 20
1.0
 30
0.0
  9
$UCSORTHOREF
  2

  9
$UCSORTHOVIEW
 70
     0
  9
$UCSORGTOP
 10
0.0
 20
0.0
 30
0.0
  9
$UCSORGBOTTOM
 10
0.0
 20
0.0
 30
0.0
  9
$UCSORGLEFT
 10
0.0
 20
0.0
 30
0.0
  9
$UCSORGRIGHT
 10
0.0
 20
0.0
 30
0.0
  9
$UCSORGFRONT
 10
0.0
 20
0.0
 30
0.0
  9
$UCSORGBACK
 10
0.0
 20
0.0
 30
0.0
  9
$PUCSBASE
  2

  9
$PUCSNAME
  2

  9
$PUCSORG
 10
0.0
 20
0.0
 30
0.0
  9
$PUCSXDIR
 10
1.0
 20
0.0
 30
0.0
  9
$PUCSYDIR
 10
0.0
 20
1.0
 30
0.0
  9
$PUCSORTHOREF
  2

  9
$PUCSORTHOVIEW
 70
     0
  9
$PUCSORGTOP
 10
0.0
 20
0.0
 30
0.0
  9
$PUCSORGBOTTOM
 10
0.0
 20
0.0
 30
0.0
  9
$PUCSORGLEFT
 10
0.0
 20
0.0
 30
0.0
  9
$PUCSORGRIGHT
 10
0.0
 20
0.0
 30
0.0
  9
$PUCSORGFRONT
 10
0.0
 20
0.0
 30
0.0
  9
$PUCSORGBACK
 10
0.0
 20
0.0
 30
0.0
  9
$USERI1
 70
     0
  9
$USERI2
 70
     0
  9
$USERI3
 70
     0
  9
$USERI4
 70
     0
  9
$USERI5
 70
     0
  9
$USERR1
 40
0.0
  9
$USERR2
 40
0.0
  9
$USERR3
 40
0.0
  9
$USERR4
 40
0.0
  9
$USERR5
 40
0.0
  9
$WORLDVIEW
 70
     1
  9
$SHADEDGE
 70
     3
  9
$SHADEDIF
 70
    70
  9
$TILEMODE
 70
     1
  9
$MAXACTVP
 70
    64
  9
$PINSBASE
 10
0.0
 20
0.0
 30
0.0
  9
$PLIMCHECK
 70
     0
  9
$PEXTMIN
 10
1.0000000000E+20
 20
1.0000000000E+20
 30
1.0000000000E+20
  9
$PEXTMAX
 10
-1.0000000000E+20
 20
-1.0000000000E+20
 30
-1.0000000000E+20
  9
$PLIMMIN
 10
0.0
 20
0.0
  9
$PLIMMAX
 10
420.0
 20
297.0
  9
$UNITMODE
 70
     0
  9
$VISRETAIN
 70
     1
  9
$PLINEGEN
 70
     0
  9
$PSLTSCALE
 70
     1
  9
$TREEDEPTH
 70
  3020
  9
$CMLSTYLE
  2
Standard
  9
$CMLJUST
 70
     0
  9
$CMLSCALE
 40
20.0
  9
$PROXYGRAPHICS
 70
     1
  9
$MEASUREMENT
 70
     1
  9
$CELWEIGHT
370
    -1
  9
$ENDCAPS
280
     0
  9
$JOINSTYLE
280
     0
  9
$LWDISPLAY
290
     1
  9
$INSUNITS
 70
     4
  9
$HYPERLINKBASE
  1

  9
$STYLESHEET
  1

  9
$XEDIT
290
     1
  9
$CEPSNTYPE
380
     0
  9
$PSTYLEMODE
290
     1
  9
$FINGERPRINTGUID
  2
{3B457949-5BC2-468A-BF11-DA0E26CDA6DE}
  9
$VERSIONGUID
  2
{FAEB1C32-E019-11D5-929B-00C0DF256EC4}
  9
$EXTNAMES
290
     1
  9
$PSVPSCALE
 40
0.0
  9
$OLESTARTUP
290
     0
  0
ENDSEC
  0
SECTION
  2
CLASSES
  0
CLASS
  1
ACDBDICTIONARYWDFLT
  2
AcDbDictionaryWithDefault
  3
ObjectDBX Classes
 90
        0
280
     0
281
     0
  0
CLASS
  1
VISUALSTYLE
  2
AcDbVisualStyle
  3
ObjectDBX Classes
 90
     4095
280
     0
281
     0
  0
CLASS
  1
MATERIAL
  2
AcDbMaterial
  3
ObjectDBX Classes
 90
     1153
280
     0
281
     0
  0
CLASS
  1
SCALE
  2
AcDbScale
  3
ObjectDBX Classes
 90
     1153
280
     0
281
     0
  0
CLASS
  1
TABLESTYLE
  2
AcDbTableStyle
  3
ObjectDBX Classes
 90
     4095
280
     0
281
     0
  0
CLASS
  1
MLEADERSTYLE
  2
AcDbMLeaderStyle
  3
ACDB_MLEADERSTYLE_CLASS
 90
     4095
280
     0
281
     0
  0
CLASS
  1
SUN
  2
AcDbSun
  3
SCENEOE
 90
     1153
280
     0
281
     0
  0
CLASS
  1
ACDBPLACEHOLDER
  2
AcDbPlaceHolder
  3
ObjectDBX Classes
 90
        0
280
     0
281
     0
  0
CLASS
  1
LAYOUT
  2
AcDbLayout
  3
ObjectDBX Classes
 90
        0
280
     0
281
     0
  0
ENDSEC
  0
SECTION
  2
TABLES
  0
TABLE
  2
VPORT
  5
8
330
0
100
AcDbSymbolTable
 70
     1
  0
VPORT
  5
29
330
8
100
AcDbSymbolTableRecord
100
AcDbViewportTableRecord
  2
*Active
 70
     0
 10
0.0
 20
0.0
 11
1.0
 21
1.0
 12
148.5
 22
105.0
 13
0.0
 23
0.0
 14
10.0
 24
10.0
 15
10.0
 25
10.0
 16
0.0
 26
0.0
 36
1.0
 17
0.0
 27
0.0
 37
0.0
 40
210.0
 41
1.4142857143
 42
50.0
 43
0.0
 44
0.0
 50
0.0
 51
0.0
 71
     0
 72
  2000
 73
     1
 74
     3
 75
     0
 76
     0
 77
     0
 78
     0
281
     0
 65
     1
110
0.0
120
0.0
130
0.0
111
1.0
121
0.0
131
0.0
112
0.0
122
1.0
132
0.0
 79
     0
146
0.0
  0
ENDTAB
  0
TABLE
  2
LTYPE
  5
5
330
0
100
AcDbSymbolTable
 70
     6
  0
LTYPE
  5
14
330
5
100
AcDbSymbolTableRecord
100
AcDbLinetypeTableRecord
  2
ByBlock
 70
     0
  3

 72
    65
 73
     0
 40
0.0
  0
LTYPE
  5
15
330
5
100
AcDbSymbolTableRecord
100
AcDbLinetypeTableRecord
  2
ByLayer
 70
     0
  3

 72
    65
 73
     0
 40
0.0
  0
LTYPE
  5
16
330
5
100
AcDbSymbolTableRecord
100
AcDbLinetypeTableRecord
  2
Continuous
 70
     0
  3
Solid line
 72
    65
 73
     0
 40
0.0
  0
LTYPE
  5
6E
330
5
100
AcDbSymbolTableRecord
100
AcDbLinetypeTableRecord
  2
HIDDEN
 70
     0
  3
Hidden __ __ __ __ __ __ __ __ __ __ __ __ __ __
 72
    65
 73
     2
 40
1.905
 49
1.27
 74
     0
 49
-0.635
 74
     0
  0
LTYPE
  5
6F
330
5
100
AcDbSymbolTableRecord
100
AcDbLinetypeTableRecord
  2
PHANTOM
 70
     0
  3
Phantom ______  __  __  ______  __  __  ______
 72
    65
 73
     6
 40
12.7
 49
6.35
 74
     0
 49
-1.27
 74
     0
 49
1.27
 74
     0
 49
-1.27
 74
     0
 49
1.27
 74
     0
 49
-1.27
 74
     0
  0
LTYPE
  5
70
330
5
100
AcDbSymbolTableRecord
100
AcDbLinetypeTableRecord
  2
CENTER
 70
     0
  3
Center ____ _ ____ _ ____ _ ____ _ ____ _ ____
 72
    65
 73
     4
 40
10.16
 49
6.35
 74
     0
 49
-1.27
 74
     0
 49
1.27
 74
     0
 49
-1.27
 74
     0
  0
LTYPE
  5
71
330
5
100
AcDbSymbolTableRecord
100
AcDbLinetypeTableRecord
  2
CENTERX2
 70
     0
  3
Center (2x) ________  __  ________  __  _____
 72
    65
 73
     4
 40
20.32
 49
12.7
 74
     0
 49
-2.54
 74
     0
 49
2.54
 74
     0
 49
-2.54
 74
     0
  0
LTYPE
  5
72
330
5
100
AcDbSymbolTableRecord
100
AcDbLinetypeTableRecord
  2
DOT2
 70
     0
  3
Dot (.5x) ........................................
 72
    65
 73
     2
 40
0.635
 49
0.0
 74
     0
 49
-0.635
 74
     0
  0
ENDTAB
  0
TABLE
  2
LAYER
  5
2
330
0
100
AcDbSymbolTable
 70
     5
  0
LAYER
  5
10
330
2
100
AcDbSymbolTableRecord
100
AcDbLayerTableRecord
  2
0
 70
     0
 62
     7
  6
Continuous
370
    -3
390
F
  0
LAYER
  5
73
330
2
100
AcDbSymbolTableRecord
100
AcDbLayerTableRecord
  2
FORMAT
 70
     0
 62
     7
  6
Continuous
370
    -3
390
F
  0
LAYER
  5
74
330
2
100
AcDbSymbolTableRecord
100
AcDbLayerTableRecord
  2
VERMASSUNG
 70
     0
 62
     7
  6
Continuous
370
    -3
390
F
  0
LAYER
  5
75
330
2
100
AcDbSymbolTableRecord
100
AcDbLayerTableRecord
  2
KOPF_DÜNN
 70
     0
 62
     7
  6
Continuous
370
    -3
390
F
  0
LAYER
  5
76
330
2
100
AcDbSymbolTableRecord
100
AcDbLayerTableRecord
  2
KOPF_DICK
 70
     0
 62
     7
  6
Continuous
370
    25
390
F
  0
ENDTAB
  0
TABLE
  2
STYLE
  5
3
330
0
100
AcDbSymbolTable
 70
     2
  0
STYLE
  5
11
330
3
100
AcDbSymbolTableRecord
100
AcDbTextStyleTableRecord
  2
Standard
 70
     0
 40
0.0
 41
1.0
 50
0.0
 71
     0
 42
2.0
  3
txt
  4

  0
STYLE
  5
77
330
3
100
AcDbSymbolTableRecord
100
AcDbTextStyleTableRecord
  2
SLDTEXTSTYLE0
 70
     0
 40
0.0
 41
0.7
 50
0.0
 71
     0
 42
2.0
  3
TXT
  4

  0
ENDTAB
  0
TABLE
  2
VIEW
  5
6
330
0
100
AcDbSymbolTable
 70
     0
  0
ENDTAB
  0
TABLE
  2
UCS
  5
7
330
0
100
AcDbSymbolTable
 70
     0
  0
ENDTAB
  0
TABLE
  2
APPID
  5
9
330
0
100
AcDbSymbolTable
 70
     1
  0
APPID
  5
12
330
9
100
AcDbSymbolTableRecord
100
AcDbRegAppTableRecord
  2
ACAD
 70
     0
  0
ENDTAB
  0
TABLE
  2
DIMSTYLE
  5
A
330
0
100
AcDbSymbolTable
 70
     3
100
AcDbDimStyleTable
  0
DIMSTYLE
105
27
330
A
100
AcDbSymbolTableRecord
100
AcDbDimStyleTableRecord
  2
ISO-25
 70
     0
 41
2.5
 42
0.625
 43
3.75
 44
1.25
 73
     0
 74
     0
 77
     1
 78
     8
140
2.5
141
2.5
143
0.0393700787
147
0.625
171
     3
172
     1
178
     0
271
     2
272
     2
274
     3
278
    44
283
     0
284
     8
340
11
  0
DIMSTYLE
105
157
102
{ACAD_REACTORS
330
156
102
}
330
A
100
AcDbSymbolTableRecord
100
AcDbDimStyleTableRecord
  2
SLDDIMSTYLE0
 70
     0
 41
3.0
 44
0.0
 45
0.000000001
 73
     0
 74
     0
 76
     1
 77
     1
 78
    12
 79
     3
140
2.0
147
0.5
173
     1
178
     0
271
     2
272
     3
276
     2
282
     1
284
    12
340
77
  0
DIMSTYLE
105
162
102
{ACAD_REACTORS
330
161
330
16C
102
}
330
A
100
AcDbSymbolTableRecord
100
AcDbDimStyleTableRecord
  2
SLDDIMSTYLE1
 70
     0
 41
3.0
 44
0.0
 45
0.000000001
 73
     0
 74
     0
 77
     1
 78
    12
 79
     3
140
2.0
147
0.5
173
     1
178
     0
271
     2
272
     3
276
     2
284
    12
340
77
  0
ENDTAB
  0
TABLE
  2
BLOCK_RECORD
  5
1
330
0
100
AcDbSymbolTable
 70
     4
  0
BLOCK_RECORD
  5
1F
330
1
100
AcDbSymbolTableRecord
100
AcDbBlockTableRecord
  2
*Model_Space
340
22
  0
BLOCK_RECORD
  5
1B
330
1
100
AcDbSymbolTableRecord
100
AcDbBlockTableRecord
  2
*Paper_Space
340
1E
  0
BLOCK_RECORD
  5
23
330
1
100
AcDbSymbolTableRecord
100
AcDbBlockTableRecord
  2
*Paper_Space0
340
26
  0
BLOCK_RECORD
  5
158
330
1
100
AcDbSymbolTableRecord
100
AcDbBlockTableRecord
  2
_D
340
0
  0
BLOCK_RECORD
  5
163
330
1
100
AcDbSymbolTableRecord
100
AcDbBlockTableRecord
  2
_D_1
340
0
  0
BLOCK_RECORD
  5
16D
330
1
100
AcDbSymbolTableRecord
100
AcDbBlockTableRecord
  2
_D_2
340
0
  0
ENDTAB
  0
ENDSEC
  0
SECTION
  2
BLOCKS
  0
BLOCK
  5
20
330
1F
100
AcDbEntity
  8
0
100
AcDbBlockBegin
  2
*Model_Space
 70
     0
 10
0.0
 20
0.0
 30
0.0
  3
*Model_Space
  1

  0
ENDBLK
  5
21
330
1F
100
AcDbEntity
  8
0
100
AcDbBlockEnd
  0
BLOCK
  5
1C
330
1B
100
AcDbEntity
 67
     1
  8
0
100
AcDbBlockBegin
  2
*Paper_Space
 70
     0
 10
0.0
 20
0.0
 30
0.0
  3
*Paper_Space
  1

  0
ENDBLK
  5
1D
330
1B
100
AcDbEntity
 67
     1
  8
0
100
AcDbBlockEnd
  0
BLOCK
  5
24
330
23
100
AcDbEntity
  8
0
100
AcDbBlockBegin
  2
*Paper_Space0
 70
     0
 10
0.0
 20
0.0
 30
0.0
  3
*Paper_Space0
  1

  0
ENDBLK
  5
25
330
23
100
AcDbEntity
  8
0
100
AcDbBlockEnd
  0
BLOCK
  5
159
330
158
100
AcDbEntity
  8
0
100
AcDbBlockBegin
  2
_D
 70
     0
 10
0.0
 20
0.0
 30
0.0
  3
_D
  1

  0
SOLID
  5
15B
330
158
100
AcDbEntity
  8
VERMASSUNG
100
AcDbTrace
 10
216.492776593
 20
132.9499075975
 30
0.0
 11
216.042776593
 21
129.9499075975
 31
0.0
 12
216.942776593
 22
129.9499075975
 32
0.0
 13
216.942776593
 23
129.9499075975
 33
0.0
  0
LINE
  5
15C
330
158
100
AcDbEntity
  8
VERMASSUNG
100
AcDbLine
 10
208.0717639371
 20
132.9499075975
 30
0.0
 11
217.492776593
 21
132.9499075975
 31
0.0
  0
LINE
  5
15D
330
158
100
AcDbEntity
  8
VERMASSUNG
100
AcDbLine
 10
216.492776593
 20
132.9499075975
 30
0.0
 11
216.492776593
 21
105.4685019933
 31
0.0
  0
MTEXT
  5
15E
330
158
100
AcDbEntity
  8
VERMASSUNG
100
AcDbMText
 10
213.9146410552
 20
107.0560019933
 30
0.0
 40
2.0
 41
0.0
 71
     1
 72
     1
  1
%%c
  7
SLDTEXTSTYLE0
 11
-7.044195017643634E-15
 21
1.0
 31
0.0
 73
     1
 44
1.0
  0
MTEXT
  5
15F
330
158
100
AcDbEntity
  8
VERMASSUNG
100
AcDbMText
 10
213.914640997
 20
110.665356324
 30
0.0
 40
2.0
 41
0.0
 71
     1
 72
     1
  1
34.75
  7
SLDTEXTSTYLE0
 11
-7.044195017643634E-15
 21
1.0
 31
0.0
 73
     1
 44
1.0
  0
MTEXT
  5
160
330
158
100
AcDbEntity
  8
VERMASSUNG
100
AcDbMText
 10
213.914640997
 20
117.064852387
 30
0.0
 40
2.0
 41
0.0
 71
     1
 72
     1
  1
-40.1
  7
SLDTEXTSTYLE0
 11
-7.044195017643634E-15
 21
1.0
 31
0.0
 73
     1
 44
1.0
  0
ENDBLK
  5
15A
330
158
100
AcDbEntity
  8
0
100
AcDbBlockEnd
  0
BLOCK
  5
164
330
163
100
AcDbEntity
  8
0
100
AcDbBlockBegin
  2
_D_1
 70
     0
 10
0.0
 20
0.0
 30
0.0
  3
_D_1
  1

  0
SOLID
  5
166
330
163
100
AcDbEntity
  8
VERMASSUNG
100
AcDbTrace
 10
208.0717639371
 20
140.5455381371
 30
0.0
 11
205.0717639371
 21
140.9955381371
 31
0.0
 12
205.0717639371
 22
140.0955381371
 32
0.0
 13
205.0717639371
 23
140.0955381371
 33
0.0
  0
SOLID
  5
167
330
163
100
AcDbEntity
  8
VERMASSUNG
100
AcDbTrace
 10
93.0717639371
 20
140.5455381371
 30
0.0
 11
96.0717639371
 21
140.0955381371
 31
0.0
 12
96.0717639371
 22
140.9955381371
 32
0.0
 13
96.0717639371
 23
140.9955381371
 33
0.0
  0
LINE
  5
168
330
163
100
AcDbEntity
  8
VERMASSUNG
100
AcDbLine
 10
208.0717639371
 20
132.9499075975
 30
0.0
 11
208.0717639371
 21
141.5455381371
 31
0.0
  0
LINE
  5
169
330
163
100
AcDbEntity
  8
VERMASSUNG
100
AcDbLine
 10
93.0717639371
 20
121.7749075975
 30
0.0
 11
93.0717639371
 21
141.5455381371
 31
0.0
  0
LINE
  5
16A
330
163
100
AcDbEntity
  8
VERMASSUNG
100
AcDbLine
 10
208.0717639371
 20
140.5455381371
 30
0.0
 11
93.0717639371
 21
140.5455381371
 31
0.0
  0
MTEXT
  5
16B
330
163
100
AcDbEntity
  8
VERMASSUNG
100
AcDbMText
 10
145.3101297081
 20
143.1236737331
 30
0.0
 40
2.0
 41
0.0
 71
     1
 72
     1
  1
115
  7
SLDTEXTSTYLE0
 73
     1
 44
1.0
  0
ENDBLK
  5
165
330
163
100
AcDbEntity
  8
0
100
AcDbBlockEnd
  0
BLOCK
  5
16E
330
16D
100
AcDbEntity
  8
0
100
AcDbBlockBegin
  2
_D_2
 70
     0
 10
0.0
 20
0.0
 30
0.0
  3
_D_2
  1

  0
SOLID
  5
170
330
16D
100
AcDbEntity
  8
VERMASSUNG
100
AcDbTrace
 10
86.7637069585
 20
123.5749075975
 30
0.0
 11
86.3137069585
 21
120.5749075975
 31
0.0
 12
87.2137069585
 22
120.5749075975
 32
0.0
 13
87.2137069585
 23
120.5749075975
 33
0.0
  0
SOLID
  5
171
330
16D
100
AcDbEntity
  8
VERMASSUNG
100
AcDbTrace
 10
86.7637069585
 20
107.5749075975
 30
0.0
 11
87.2137069585
 21
110.5749075975
 31
0.0
 12
86.3137069585
 22
110.5749075975
 32
0.0
 13
86.3137069585
 23
110.5749075975
 33
0.0
  0
LINE
  5
172
330
16D
100
AcDbEntity
  8
VERMASSUNG
100
AcDbLine
 10
104.3717639371
 20
123.5749075975
 30
0.0
 11
85.7637069585
 21
123.5749075975
 31
0.0
  0
LINE
  5
173
330
16D
100
AcDbEntity
  8
VERMASSUNG
100
AcDbLine
 10
94.4467639371
 20
107.5749075975
 30
0.0
 11
85.7637069585
 21
107.5749075975
 31
0.0
  0
LINE
  5
174
330
16D
100
AcDbEntity
  8
VERMASSUNG
100
AcDbLine
 10
86.7637069585
 20
123.5749075975
 30
0.0
 11
86.7637069585
 21
107.5749075975
 31
0.0
  0
MTEXT
  5
175
330
16D
100
AcDbEntity
  8
VERMASSUNG
100
AcDbMText
 10
84.1855714207
 20
112.0556082925
 30
0.0
 40
2.0
 41
0.0
 71
     1
 72
     1
  1
%%c
  7
SLDTEXTSTYLE0
 11
-7.044195017643634E-15
 21
1.0
 31
0.0
 73
     1
 44
1.0
  0
MTEXT
  5
176
330
16D
100
AcDbEntity
  8
VERMASSUNG
100
AcDbMText
 10
84.1855713625
 20
115.6649626232
 30
0.0
 40
2.0
 41
0.0
 71
     1
 72
     1
  1
16
  7
SLDTEXTSTYLE0
 11
-7.044195017643634E-15
 21
1.0
 31
0.0
 73
     1
 44
1.0
  0
ENDBLK
  5
16F
330
16D
100
AcDbEntity
  8
0
100
AcDbBlockEnd
  0
ENDSEC
  0
SECTION
  2
ENTITIES
  0
MTEXT
  5
78
330
1F
100
AcDbEntity
  8
KOPF_DÜNN
100
AcDbMText
 10
13.8892156294
 20
23.8442973028
 30
0.0
 40
3.0
 41
0.0
 71
     1
 72
     1
  1
M54.035.006.115
  7
SLDTEXTSTYLE0
 73
     1
 44
1.0
  0
MTEXT
  5
79
330
1F
100
AcDbEntity
  8
VERMASSUNG
100
AcDbMText
 10
13.9329988022
 20
28.8834360957
 30
0.0
 40
3.0
 41
0.0
 71
     1
 72
     1
  1
Ausdrehstahl_Boring bar ø34.75-40.1
  7
SLDTEXTSTYLE0
 73
     1
 44
1.0
  0
MTEXT
  5
7A
330
1F
100
AcDbEntity
  8
VERMASSUNG
100
AcDbMText
 10
98.8601118557
 20
13.8365368761
 30
0.0
 40
2.0
 41
0.0
 71
     1
 72
     1
  1
Datum: 03.08.2006
  7
SLDTEXTSTYLE0
 73
     1
 44
1.0
  0
MTEXT
  5
7B
330
1F
100
AcDbEntity
  8
VERMASSUNG
100
AcDbMText
 10
13.933048693
 20
18.0482802738
 30
0.0
 40
2.0
 41
0.0
 71
     1
 72
     1
  1
mit Innenkühlung_with spindel coolant feed
  7
SLDTEXTSTYLE0
 73
     1
 44
1.0
  0
MTEXT
  5
7C
330
1F
100
AcDbEntity
  8
VERMASSUNG
100
AcDbMText
 10
13.9808475933
 20
13.9090974274
 30
0.0
 40
2.0
 41
0.0
 71
     1
 72
     1
  1
Gewicht: 186g
  7
SLDTEXTSTYLE0
 73
     1
 44
1.0
  0
LINE
  5
7D
330
1F
100
AcDbEntity
  8
0
  6
Continuous
 62
     7
370
    25
100
AcDbLine
 10
205.3133748218
 20
128.4685582783
 30
0.0
 11
205.3133748218
 21
128.3930224296
 31
0.0
  0
LINE
  5
7E
330
1F
100
AcDbEntity
  8
0
  6
Continuous
 62
     7
370
    25
100
AcDbLine
 10
204.154578571
 20
128.7237518396
 30
0.0
 11
204.154578571
 21
128.798022021
 31
0.0
  0
LINE
  5
7F
330
1F
100
AcDbEntity
  8
0
  6
Continuous
 62
     7
370
    25
100
AcDbLine
 10
205.5050559088
 20
129.5484668505
 30
0.0
 11
205.5050559088
 21
129.4741966691
 31
0.0
  0
LINE
  5
80
330
1F
100
AcDbEntity
  8
0
  6
Continuous
 62
     7
370
    25
100
AcDbLine
 10
204.3462522074
 20
129.8049260791
 30
0.0
 11
204.3462522074
 21
129.8804619279
 31
0.0
  0
LINE
  5
81
330
1F
100
AcDbEntity
  8
0
  6
Continuous
 62
     7
370
    25
100
AcDbLine
 10
203.1298108145
 20
129.1578040388
 30
0.0
 11
203.1298108145
 21
129.0989742544
 31
0.0
  0
LINE
  5
82
330
1F
100
AcDbEntity
  8
0
  6
Continuous
 62
     7
370
    25
100
AcDbLine
 10
206.5298162147
 20
129.0989742544
 30
0.0
 11
206.5298162147
 21
129.1578040388
 31
0.0
  0
LINE
  5
83
330
1F
100
AcDbEntity
  8
0
  6
Continuous
 62
     7
370
    25
100
AcDbLine
 10
189.7392473861
 20
129.2423904803
 30
0.0
 11
186.0717661425
 21
125.574907374
 31
0.0
  0
LINE
  5
84
330
1F
100
AcDbEntity
  8
0
  6
Continuous
 62
     7
370
    25
100
AcDbLine
 10
186.0717661425
 20
105.5749078211
 30
0.0
 11
186.5717671558
 21
105.0749077391
 31
0.0
  0
LINE
  5
85
330
1F
100
AcDbEntity
  8
0
  6
Continuous
 62
     7
370
    25
100
AcDbLine
 10
186.5717671558
 20
105.0749077391
 30
0.0
 11
186.8907786652
 21
105.0749077391
 31
0.0
  0
LINE
  5
86
330
1F
100
AcDbEntity
  8
0
  6
Continuous
 62
     7
370
    25
100
AcDbLine
 10
180.0717614337
 20
125.574907374
 30
0.0
 11
178.0717648312
 21
123.5749079775
 31
0.0
  0
LINE
  5
87
330
1F
100
AcDbEntity
  8
0
  6
Continuous
 62
     7
370
    25
100
AcDbLine
 10
178.0717648312
 20
107.5749072176
 30
0.0
 11
180.0717614337
 21
105.5749078211
 31
0.0
  0
LINE
  5
88
330
1F
100
AcDbEntity
  8
0
  6
Continuous
 62
     7
370
    25
100
AcDbLine
 10
180.0717614337
 20
105.5749078211
 30
0.0
 11
186.0717661425
 21
105.5749078211
 31
0.0
  0
LINE
  5
89
330
1F
100
AcDbEntity
  8
0
  6
Continuous
 62
     7
370
    25
100
AcDbLine
 10
186.0717661425
 20
125.574907374
 30
0.0
 11
180.0717614337
 21
125.574907374
 31
0.0
  0
LINE
  5
8A
330
1F
100
AcDbEntity
  8
0
  6
Continuous
 62
     7
370
    25
100
AcDbLine
 10
94.4467639297
 20
107.5749072176
 30
0.0
 11
178.0717648312
 21
107.5749072176
 31
0.0
  0
LINE
  5
8B
330
1F
100
AcDbEntity
  8
0
  6
Continuous
 62
     7
370
    25
100
AcDbLine
 10
107.2717640295
 20
123.5749079775
 30
0.0
 11
104.3717642992
 21
123.5749079775
 31
0.0
  0
LINE
  5
8C
330
1F
100
AcDbEntity
  8
0
  6
Continuous
 62
     7
370
    25
100
AcDbLine
 10
121.7717636123
 20
123.5749079775
 30
0.0
 11
118.8717648133
 21
123.5749079775
 31
0.0
  0
LINE
  5
8D
330
1F
100
AcDbEntity
  8
0
  6
Continuous
 62
     7
370
    25
100
AcDbLine
 10
136.2717650577
 20
123.5749079775
 30
0.0
 11
133.3717643961
 21
123.5749079775
 31
0.0
  0
LINE
  5
8E
330
1F
100
AcDbEntity
  8
0
  6
Continuous
 62
     7
370
    25
100
AcDbLine
 10
150.7717646405
 20
123.5749079775
 30
0.0
 11
147.8717639789
 21
123.5749079775
 31
0.0
  0
LINE
  5
8F
330
1F
100
AcDbEntity
  8
0
  6
Continuous
 62
     7
370
    25
100
AcDbLine
 10
178.0717648312
 20
123.5749079775
 30
0.0
 11
162.3717672869
 21
123.5749079775
 31
0.0
  0
LINE
  5
90
330
1F
100
AcDbEntity
  8
0
  6
Continuous
 62
     7
370
    25
100
AcDbLine
 10
93.0717639371
 20
108.9499076758
 30
0.0
 11
94.4467639297
 21
107.5749072176
 31
0.0
  0
LINE
  5
91
330
1F
100
AcDbEntity
  8
0
  6
Continuous
 62
     7
370
    25
100
AcDbLine
 10
194.0671406433
 20
130.0055143353
 30
0.0
 11
189.7392473861
 21
129.2423904803
 31
0.0
  0
LINE
  5
92
330
1F
100
AcDbEntity
  8
0
  6
Continuous
 62
     7
370
    25
100
AcDbLine
 10
197.5668720647
 20
130.6226114672
 30
0.0
 11
194.0671406433
 21
130.0055143353
 31
0.0
  0
CIRCLE
  5
93
330
1F
100
AcDbEntity
  8
0
  6
Continuous
 62
     7
370
    25
100
AcDbCircle
 10
204.8273176496
 20
129.16224531
 30
0.0
 40
1.697667774544442
  0
CIRCLE
  5
94
330
1F
100
AcDbEntity
  8
0
  6
Continuous
 62
     7
370
    25
100
AcDbCircle
 10
204.8281406338
 20
129.1805516523
 30
0.0
 40
1.098741139699899
  0
CIRCLE
  5
95
330
1F
100
AcDbEntity
  8
0
  6
Continuous
 62
     7
370
    25
100
AcDbCircle
 10
204.8282090559
 20
129.1804106323
 30
0.0
 40
1.048797112699035
  0
SPLINE
  5
96
330
1F
100
AcDbEntity
  8
0
  6
Continuous
 62
     7
370
    25
100
AcDbSpline
210
0.0
220
0.0
230
1.0
 70
     8
 71
     3
 72
    16
 73
    12
 74
     0
 42
0.000000001
 43
0.00000001
 40
0.0
 40
0.0
 40
0.0
 40
0.0
 40
0.1242212456123004
 40
0.2490026585626732
 40
0.3727338670245969
 40
0.4952948005886866
 40
0.6171952719003692
 40
0.7391050737438152
 40
0.8616695383953373
 40
0.9853941045337425
 40
1.0
 40
1.0
 40
1.0
 40
1.0
 10
204.7201744958396
 20
130.0590393062771
 30
0.0
 10
204.705582087013
 20
130.0773651090749
 30
0.0
 10
204.6763314658752
 20
130.1140993536437
 30
0.0
 10
204.6125003746772
 20
130.1468177529836
 30
0.0
 10
204.5427721538047
 20
130.1575071559344
 30
0.0
 10
204.4736759604035
 20
130.1440655859705
 30
0.0
 10
204.413322552228
 20
130.1087096093302
 30
0.0
 10
204.3679618248194
 20
130.055387631787
 30
0.0
 10
204.3425604454027
 20
129.9899469448511
 30
0.0
 10
204.3405205470282
 20
129.9400718380621
 30
0.0
 10
204.3444850522106
 20
129.9145211085848
 30
0.0
 10
204.3449036523338
 20
129.9118232842625
 30
0.0
  0
SPLINE
  5
97
330
1F
100
AcDbEntity
  8
0
  6
Continuous
 62
     7
370
    25
100
AcDbSpline
210
0.0
220
0.0
230
1.0
 70
     8
 71
     3
 72
    12
 73
     8
 74
     0
 42
0.000000001
 43
0.00000001
 40
0.0
 40
0.0
 40
0.0
 40
0.0
 40
0.2093653397959706
 40
0.4192628217870033
 40
0.6249529250593363
 40
0.8281642603834187
 40
1.0
 40
1.0
 40
1.0
 40
1.0
 10
204.3449036523338
 20
129.9118232842625
 30
0.0
 10
204.3445048014997
 20
129.8712516302976
 30
0.0
 10
204.3437060860754
 20
129.7900052017224
 30
0.0
 10
204.2921716156187
 20
129.6773469968633
 30
0.0
 10
204.2100554896946
 20
129.5895891403525
 30
0.0
 10
204.1101227245293
 20
129.5353137272868
 30
0.0
 10
204.0390478400985
 20
129.5264832057758
 30
0.0
 10
204.0064833804603
 20
129.5224373158158
 30
0.0
  0
SPLINE
  5
98
330
1F
100
AcDbEntity
  8
0
  6
Continuous
 62
     7
370
    25
100
AcDbSpline
210
0.0
220
0.0
230
1.0
 70
     8
 71
     3
 72
    16
 73
    12
 74
     0
 42
0.000000001
 43
0.00000001
 40
0.0
 40
0.0
 40
0.0
 40
0.0
 40
0.1231894478282193
 40
0.2479744884450493
 40
0.3717254252349571
 40
0.4942912420262959
 40
0.6161948290135578
 40
0.7381007909198347
 40
0.8606572766000029
 40
0.9843728878510126
 40
0.9999999999999999
 40
0.9999999999999999
 40
0.9999999999999999
 40
0.9999999999999999
 10
204.0064833804603
 20
129.5224373158158
 30
0.0
 10
203.983712817365
 20
129.5192096999002
 30
0.0
 10
203.9378767588819
 20
129.5127126628596
 30
0.0
 10
203.8781559117855
 20
129.4746143187681
 30
0.0
 10
203.834207182821
 20
129.4201318739647
 30
0.0
 10
203.8112664517396
 20
129.3539292706377
 30
0.0
 10
203.8115007943009
 20
129.2841046621975
 30
0.0
 10
203.8346251348346
 20
129.2180339055973
 30
0.0
 10
203.8780765563482
 20
129.1629496209162
 30
0.0
 10
203.919953773819
 20
129.1357068250535
 30
0.0
 10
203.944002848144
 20
129.126081405159
 30
0.0
 10
203.9466999217506
 20
129.1250019263566
 30
0.0
  0
SPLINE
  5
99
330
1F
100
AcDbEntity
  8
0
  6
Continuous
 62
     7
370
    25
100
AcDbSpline
210
0.0
220
0.0
230
1.0
 70
     8
 71
     3
 72
    12
 73
     8
 74
     0
 42
0.000000001
 43
0.00000001
 40
0.0
 40
0.0
 40
0.0
 40
0.0
 40
0.2093663017758449
 40
0.4192606852550673
 40
0.624953746280693
 40
0.8281710838748929
 40
1.0
 40
1.0
 40
1.0
 40
1.0
 10
203.9466999217506
 20
129.1250019263566
 30
0.0
 10
203.9813289137097
 20
129.1041175769036
 30
0.0
 10
204.0506742418514
 20
129.0622962016941
 30
0.0
 10
204.1221768606589
 20
128.9611228324854
 30
0.0
 10
204.1575463593609
 20
128.8464738851796
 30
0.0
 10
204.1555579415077
 20
128.7335808838969
 30
0.0
 10
204.1285156546161
 20
128.668317995207
 30
0.0
 10
204.1161261245246
 20
128.6384175460876
 30
0.0
  0
SPLINE
  5
9A
330
1F
100
AcDbEntity
  8
0
  6
Continuous
 62
     7
370
    25
100
AcDbSpline
210
0.0
220
0.0
230
1.0
 70
     8
 71
     3
 72
    16
 73
    12
 74
     0
 42
0.000000001
 43
0.00000001
 40
0.0
 40
0.0
 40
0.0
 40
0.0
 40
0.1243659589639546
 40
0.2491438938572679
 40
0.3728811262235311
 40
0.4954341527118738
 40
0.6173343668317117
 40
0.7392445210118735
 40
0.8618068400127029
 40
0.9855381336552046
 40
1.0
 40
1.0
 40
1.0
 40
1.0
 10
204.1161261245246
 20
128.6384175460876
 30
0.0
 10
204.1077473847128
 20
128.6170967907017
 30
0.0
 10
204.090962149591
 20
128.5743846525807
 30
0.0
 10
204.0950510206925
 20
128.503931196382
 30
0.0
 10
204.1210131821482
 20
128.439070232524
 30
0.0
 10
204.1673793147941
 20
128.386393958817
 30
0.0
 10
204.2281710151538
 20
128.351797483168
 30
0.0
 10
204.2968383732605
 20
128.3387089792669
 30
0.0
 10
204.3658316939924
 20
128.3485277083694
 30
0.0
 10
204.4096422325595
 20
128.3707603449278
 30
0.0
 10
204.4295320471142
 20
128.386412986188
 30
0.0
 10
204.4316135093208
 20
128.3880510296763
 30
0.0
  0
SPLINE
  5
9B
330
1F
100
AcDbEntity
  8
0
  6
Continuous
 62
     7
370
    25
100
AcDbSpline
210
0.0
220
0.0
230
1.0
 70
     8
 71
     3
 72
    12
 73
     8
 74
     0
 42
0.000000001
 43
0.00000001
 40
0.0
 40
0.0
 40
0.0
 40
0.0
 40
0.2092332654145936
 40
0.419133232211572
 40
0.6248233557753071
 40
0.8280463381478385
 40
0.9999999999999999
 40
0.9999999999999999
 40
0.9999999999999999
 40
0.9999999999999999
 10
204.4316135093208
 20
128.3880510296763
 30
0.0
 10
204.4666171095462
 20
128.4072186952286
 30
0.0
 10
204.5367358455532
 20
128.445615102229
 30
0.0
 10
204.6597479211704
 20
128.4563609300308
 30
0.0
 10
204.7772310301693
 20
128.4296348936089
 30
0.0
 10
204.8752180550779
 20
128.3719481568503
 30
0.0
 10
204.9192698486487
 20
128.3164398174294
 30
0.0
 10
204.9394599839683
 20
128.2909988354982
 30
0.0
  0
SPLINE
  5
9C
330
1F
100
AcDbEntity
  8
0
  6
Continuous
 62
     7
370
    25
100
AcDbSpline
210
0.0
220
0.0
230
1.0
 70
     8
 71
     3
 72
    16
 73
    12
 74
     0
 42
0.000000001
 43
0.00000001
 40
0.0
 40
0.0
 40
0.0
 40
0.0
 40
0.1242137247407226
 40
0.2489958942452188
 40
0.3727411653183828
 40
0.4952899910880733
 40
0.6171916948127251
 40
0.7391024770715864
 40
0.8616679124130845
 40
0.9853934087441235
 40
1.0
 40
1.0
 40
1.0
 40
1.0
 10
204.9394599839683
 20
128.2909988354982
 30
0.0
 10
204.9540496333768
 20
128.2732825337538
 30
0.0
 10
204.9832956994518
 20
128.2377688543696
 30
0.0
 10
205.0471292728543
 20
128.2063882704805
 30
0.0
 10
205.1168574918561
 20
128.1965372963062
 30
0.0
 10
205.1859533110337
 20
128.2102440383102
 30
0.0
 10
205.2463044035326
 20
128.245291648713
 30
0.0
 10
205.2916651984788
 20
128.2977555904378
 30
0.0
 10
205.3170666370856
 20
128.3618392062878
 30
0.0
 10
205.3191063448158
 20
128.410463975423
 30
0.0
 10
205.3151419774818
 20
128.4352974433284
 30
0.0
 10
205.3147233768936
 20
128.4379196282567
 30
0.0
  0
SPLINE
  5
9D
330
1F
100
AcDbEntity
  8
0
  6
Continuous
 62
     7
370
    25
100
AcDbSpline
210
0.0
220
0.0
230
1.0
 70
     8
 71
     3
 72
    12
 73
     8
 74
     0
 42
0.000000001
 43
0.00000001
 40
0.0
 40
0.0
 40
0.0
 40
0.0
 40
0.2093653763248173
 40
0.4192631556056549
 40
0.6249531472934488
 40
0.8281764147019454
 40
1.0
 40
1.0
 40
1.0
 40
1.0
 10
205.3147233768935
 20
128.4379196282567
 30
0.0
 10
205.3151222284081
 20
128.4774732374158
 30
0.0
 10
205.3159209456916
 20
128.5566810380694
 30
0.0
 10
205.3674554466117
 20
128.6678110339284
 30
0.0
 10
205.4495727285067
 20
128.7558620160371
 30
0.0
 10
205.5495080049994
 20
128.8119773320151
 30
0.0
 10
205.6205819181644
 20
128.8226920129064
 30
0.0
 10
205.653143648767
 20
128.8276008259595
 30
0.0
  0
SPLINE
  5
9E
330
1F
100
AcDbEntity
  8
0
  6
Continuous
 62
     7
370
    25
100
AcDbSpline
210
0.0
220
0.0
230
1.0
 70
     8
 71
     3
 72
    16
 73
    12
 74
     0
 42
0.000000001
 43
0.00000001
 40
0.0
 40
0.0
 40
0.0
 40
0.0
 40
0.1231888629202177
 40
0.247984654534791
 40
0.371726128201018
 40
0.4942922235729478
 40
0.6161958073683835
 40
0.7381002363394895
 40
0.8606573675285734
 40
0.9843611792717446
 40
1.0
 40
1.0
 40
1.0
 40
1.0
 10
205.653143648767
 20
128.8276008259595
 30
0.0
 10
205.6759138079933
 20
128.8314338272717
 30
0.0
 10
205.7217511502301
 20
128.8391498292194
 30
0.0
 10
205.7814781237208
 20
128.8785781858354
 30
0.0
 10
205.8254189578527
 20
128.9339101322525
 30
0.0
 10
205.8483609566905
 20
129.0003788620689
 30
0.0
 10
205.8481261394669
 20
129.0699008369001
 30
0.0
 10
205.8250021023711
 20
129.1351191756376
 30
0.0
 10
205.7815499019345
 20
129.1888437228361
 30
0.0
 10
205.7396803166402
 20
129.2148486952109
 30
0.0
 10
205.7156267120641
 20
129.2237419405701
 30
0.0
 10
205.7129271074767
 20
129.2247400548399
 30
0.0
  0
SPLINE
  5
9F
330
1F
100
AcDbEntity
  8
0
  6
Continuous
 62
     7
370
    25
100
AcDbSpline
210
0.0
220
0.0
230
1.0
 70
     8
 71
     3
 72
    12
 73
     8
 74
     0
 42
0.000000001
 43
0.00000001
 40
0.0
 40
0.0
 40
0.0
 40
0.0
 40
0.2093668925694812
 40
0.419261062517066
 40
0.6249533339332773
 40
0.8281709971311193
 40
1.0
 40
1.0
 40
1.0
 40
1.0
 10
205.7129271074768
 20
129.2247400548399
 30
0.0
 10
205.678298137326
 20
129.2446066914482
 30
0.0
 10
205.6089529861365
 20
129.2843899975421
 30
0.0
 10
205.5374502290543
 20
129.3840353128302
 30
0.0
 10
205.502080610963
 20
129.4989749151893
 30
0.0
 10
205.5040690857118
 20
129.61371281836
 30
0.0
 10
205.5311113790328
 20
129.6808578525142
 30
0.0
 10
205.5435009047027
 20
129.7116205956877
 30
0.0
  0
SPLINE
  5
A0
330
1F
100
AcDbEntity
  8
0
  6
Continuous
 62
     7
370
    25
100
AcDbSpline
210
0.0
220
0.0
230
1.0
 70
     8
 71
     3
 72
    16
 73
    12
 74
     0
 42
0.000000001
 43
0.00000001
 40
0.0
 40
0.0
 40
0.0
 40
0.0
 40
0.124365448856293
 40
0.2491450163104612
 40
0.3728821211832059
 40
0.4954341369574813
 40
0.6173350501501049
 40
0.7392450218429754
 40
0.8618073619551913
 40
0.9855390831149131
 40
1.0
 40
1.0
 40
1.0
 40
1.0
 10
205.5435009047027
 20
129.7116205956877
 30
0.0
 10
205.5518796293559
 20
129.7335517925551
 30
0.0
 10
205.5686649785792
 20
129.7774872139401
 30
0.0
 10
205.5645760560861
 20
129.8492771341901
 30
0.0
 10
205.5386140933952
 20
129.9149753097867
 30
0.0
 10
205.4922472030875
 20
129.9679143182378
 30
0.0
 10
205.4314563265586
 20
130.0022040741691
 30
0.0
 10
205.3627886841749
 20
130.0144330934323
 30
0.0
 10
205.2937947252474
 20
130.0032571841818
 30
0.0
 10
205.2499861359945
 20
129.9797719844644
 30
0.0
 10
205.230094992396
 20
129.9634046162734
 30
0.0
 10
205.2280135199065
 20
129.9616918828429
 30
0.0
  0
SPLINE
  5
A1
330
1F
100
AcDbEntity
  8
0
  6
Continuous
 62
     7
370
    25
100
AcDbSpline
210
0.0
220
0.0
230
1.0
 70
     8
 71
     3
 72
    12
 73
     8
 74
     0
 42
0.000000001
 43
0.00000001
 40
0.0
 40
0.0
 40
0.0
 40
0.0
 40
0.2092354542715379
 40
0.4191371168470491
 40
0.6248291601751746
 40
0.8280539128842782
 40
1.0
 40
1.0
 40
1.0
 40
1.0
 10
205.2280135199065
 20
129.9616918828429
 30
0.0
 10
205.1930099598722
 20
129.9415065654684
 30
0.0
 10
205.1228913880303
 20
129.9010716604162
 30
0.0
 10
204.9998788773428
 20
129.8887970960687
 30
0.0
 10
204.8823964757543
 20
129.9158142034302
 30
0.0
 10
204.7844090558163
 20
129.9753428085891
 30
0.0
 10
204.7403619195908
 20
130.032735449507
 30
0.0
 10
204.7201744958396
 20
130.0590393062771
 30
0.0
  0
LINE
  5
A2
330
1F
100
AcDbEntity
  8
0
  6
Continuous
 62
     7
370
    25
100
AcDbLine
 10
205.3147233769
 20
128.3995798718
 30
0.0
 11
205.3147233769
 21
128.4379196283
 31
0.0
  0
ARC
  5
A3
330
1F
100
AcDbEntity
  8
0
  6
Continuous
 62
     7
370
    25
100
AcDbCircle
 10
203.7965876882
 20
128.7237806302
 30
0.0
 40
0.3579908839572118
100
AcDbArc
 50
333.2003017915
 51
359.9953921288
  0
ARC
  5
A4
330
1F
100
AcDbEntity
  8
0
  6
Continuous
 62
     7
370
    25
100
AcDbCircle
 10
205.6420063411
 20
128.9561554657
 30
0.0
 40
0.205324582785684
100
AcDbArc
 50
9.6305066966
 51
69.7932925789
  0
LINE
  5
A5
330
1F
100
AcDbEntity
  8
0
  6
Continuous
 62
     7
370
    25
100
AcDbLine
 10
205.7129271075
 20
129.1488428529
 30
0.0
 11
205.7129271075
 21
129.2247400548
 31
0.0
  0
ARC
  5
A6
330
1F
100
AcDbEntity
  8
0
  6
Continuous
 62
     7
370
    25
100
AcDbCircle
 10
204.0179786778
 20
129.2409994137
 30
0.0
 40
0.2057140495655945
100
AcDbArc
 50
93.2033557217
 51
170.5512003472
  0
ARC
  5
A7
330
1F
100
AcDbEntity
  8
0
  6
Continuous
 62
     7
370
    25
100
AcDbCircle
 10
205.8640619748
 20
129.4744863562
 30
0.0
 40
0.3590061828248763
100
AcDbArc
 50
180.0462327654
 51
245.1034473462
  0
ARC
  5
A8
330
1F
100
AcDbEntity
  8
0
  6
Continuous
 62
     7
370
    25
100
AcDbCircle
 10
203.9865707275
 20
129.8055223844
 30
0.0
 40
0.3596819742337442
100
AcDbArc
 50
273.1736218768
 51
359.9050111152
  0
ARC
  5
A9
330
1F
100
AcDbEntity
  8
0
  6
Continuous
 62
     7
370
    25
100
AcDbCircle
 10
205.3594739725
 20
129.7270557674
 30
0.0
 40
0.2061065095748011
100
AcDbArc
 50
10.5255274815
 51
129.6300308309
  0
LINE
  5
AA
330
1F
100
AcDbEntity
  8
0
  6
Continuous
 62
     7
370
    25
100
AcDbLine
 10
205.2280135199
 20
129.8857946809
 30
0.0
 11
205.2280135199
 21
129.9616918828
 31
0.0
  0
ARC
  5
AB
330
1F
100
AcDbEntity
  8
0
  6
Continuous
 62
     7
370
    25
100
AcDbCircle
 10
204.8326391831
 20
129.101979536
 30
0.0
 40
1.697179692442798
100
AcDbArc
 50
259.8862833401
 51
359.8985434219
  0
ARC
  5
AC
330
1F
100
AcDbEntity
  8
0
  6
Continuous
 62
     7
370
    25
100
AcDbCircle
 10
204.8248082697
 20
129.1011439601
 30
0.0
 40
1.694998843901336
100
AcDbArc
 50
180.0733422431
 51
260.141918219
  0
ARC
  5
AD
330
1F
100
AcDbEntity
  8
0
  6
Continuous
 62
     7
370
    25
100
AcDbCircle
 10
204.5480255296
 20
129.869323134
 30
0.0
 40
0.2062918753151571
100
AcDbArc
 50
33.4369977398
 51
159.1829819418
  0
ARC
  5
AE
330
1F
100
AcDbEntity
  8
0
  6
Continuous
 62
     7
370
    25
100
AcDbCircle
 10
205.0215369793
 20
130.1822704339
 30
0.0
 40
0.3612899582522293
100
AcDbArc
 50
213.4747327362
 51
304.8547621082
  0
LINE
  5
AF
330
1F
100
AcDbEntity
  8
0
  6
Continuous
 62
     7
370
    25
100
AcDbLine
 10
202.1912239238
 20
125.5699424934
 30
0.0
 11
207.7412210151
 21
126.5448332694
 31
0.0
  0
LINE
  5
B0
330
1F
100
AcDbEntity
  8
0
  6
Continuous
 62
     7
370
    25
100
AcDbLine
 10
202.1217621609
 20
125.9422386926
 30
0.0
 11
202.1912239238
 21
125.5699424934
 31
0.0
  0
LINE
  5
B1
330
1F
100
AcDbEntity
  8
0
  6
Continuous
 62
     7
370
    25
100
AcDbLine
 10
202.2089041516
 20
126.0413090628
 30
0.0
 11
202.1217621609
 21
125.9422386926
 31
0.0
  0
SPLINE
  5
B2
330
1F
100
AcDbEntity
  8
0
  6
Continuous
 62
     7
370
    25
100
AcDbSpline
210
0.0
220
0.0
230
1.0
 70
     8
 71
     3
 72
    11
 73
     7
 74
     0
 42
0.000000001
 43
0.00000001
 40
0.0
 40
0.0
 40
0.0
 40
0.0
 40
0.0074581275348521
 40
0.3066095313604492
 40
0.6526500368146597
 40
1.0
 40
1.0
 40
1.0
 40
1.0
 10
202.6511631652351
 20
126.5730402361692
 30
0.0
 10
202.6501752455566
 20
126.5717924719787
 30
0.0
 10
202.6095610849322
 20
126.5204958976176
 30
0.0
 10
202.5174541577224
 20
126.4057098565289
 30
0.0
 10
202.3643146000104
 20
126.2204604134372
 30
0.0
 10
202.2607728134401
 20
126.1011013156297
 30
0.0
 10
202.2089041515823
 20
126.0413090627731
 30
0.0
  0
LINE
  5
B3
330
1F
100
AcDbEntity
  8
0
  6
Continuous
 62
     7
370
    25
100
AcDbLine
 10
202.1217621609
 20
125.9422386926
 30
0.0
 11
201.7217628404
 21
125.9623664361
 31
0.0
  0
LINE
  5
B4
330
1F
100
AcDbEntity
  8
0
  6
Continuous
 62
     7
370
    25
100
AcDbLine
 10
201.7217628404
 20
131.576538172
 30
0.0
 11
201.7217628404
 21
125.9623664361
 31
0.0
  0
SPLINE
  5
B5
330
1F
100
AcDbEntity
  8
0
  6
Continuous
 62
     7
370
    25
100
AcDbSpline
210
0.0
220
0.0
230
1.0
 70
     8
 71
     3
 72
    12
 73
     8
 74
     0
 42
0.000000001
 43
0.00000001
 40
0.0
 40
0.0
 40
0.0
 40
0.0
 40
0.0481854594548635
 40
0.4227652028223621
 40
0.5661178205280959
 40
0.9912361845361353
 40
1.0
 40
1.0
 40
1.0
 40
1.0
 10
207.6957501217361
 20
126.8986529599966
 30
0.0
 10
207.6881703021665
 20
126.9047269089485
 30
0.0
 10
207.6216671704342
 20
126.9580179699795
 30
0.0
 10
207.5264994517971
 20
127.0366215170549
 30
0.0
 10
207.3726244640609
 20
127.1674597582462
 30
0.0
 10
207.2813581445556
 20
127.2476878302941
 30
0.0
 10
207.2194335962265
 20
127.3034327583978
 30
0.0
 10
207.2181828066344
 20
127.3045587282718
 30
0.0
  0
SPLINE
  5
B6
330
1F
100
AcDbEntity
  8
0
  6
Continuous
 62
     7
370
    25
100
AcDbSpline
210
0.0
220
0.0
230
1.0
 70
     8
 71
     3
 72
    10
 73
     6
 74
     0
 42
0.000000001
 43
0.00000001
 40
0.0
 40
0.0
 40
0.0
 40
0.0
 40
0.3658116507335463
 40
0.9379211409449785
 40
1.0
 40
1.0
 40
1.0
 40
1.0
 10
207.6957501217361
 20
126.8986529599966
 30
0.0
 10
207.6969179003615
 20
126.8889665960846
 30
0.0
 10
207.6999120211298
 20
126.8641312867833
 30
0.0
 10
207.694424751015
 20
126.8382263640467
 30
0.0
 10
207.6901622023109
 20
126.8222934805672
 30
0.0
 10
207.6897449537749
 20
126.8207338567913
 30
0.0
  0
ARC
  5
B7
330
1F
100
AcDbEntity
  8
0
  6
Continuous
 62
     7
370
    25
100
AcDbCircle
 10
202.121295332
 20
125.9633088519
 30
0.0
 40
0.3995336030871312
100
AcDbArc
 50
180.1351488376
 51
280.0801454265
  0
SPLINE
  5
B8
330
1F
100
AcDbEntity
  8
0
  6
Continuous
 62
     7
370
    25
100
AcDbSpline
210
0.0
220
0.0
230
1.0
 70
     8
 71
     3
 72
    10
 73
     6
 74
     0
 42
0.000000001
 43
0.00000001
 40
0.0
 40
0.0
 40
0.0
 40
0.0
 40
0.0620482794714446
 40
0.6341500121834149
 40
1.0
 40
1.0
 40
1.0
 40
1.0
 10
207.7753297730918
 20
126.9223411496819
 30
0.0
 10
207.7737845333528
 20
126.9215709751279
 30
0.0
 10
207.7579917699158
 20
126.9136995851883
 30
0.0
 10
207.7321008886363
 20
126.9023464620857
 30
0.0
 10
207.7059502369395
 20
126.8996893658286
 30
0.0
 10
207.6957501217361
 20
126.8986529599966
 30
0.0
  0
ARC
  5
B9
330
1F
100
AcDbEntity
  8
0
  6
Continuous
 62
     7
370
    25
100
AcDbCircle
 10
203.5205939306
 20
127.626829255
 30
0.0
 40
0.9988352290763012
100
AcDbArc
 50
180.1351788499
 51
280.0800618853
  0
LINE
  5
BA
330
1F
100
AcDbEntity
  8
0
  6
Continuous
 62
     7
370
    25
100
AcDbLine
 10
207.6717667028
 20
132.5313021358
 30
0.0
 11
208.0717660233
 21
132.5514298793
 31
0.0
  0
LINE
  5
BB
330
1F
100
AcDbEntity
  8
0
  6
Continuous
 62
     7
370
    25
100
AcDbLine
 10
208.0717660233
 20
126.937257212
 30
0.0
 11
208.0717660233
 21
132.5514298793
 31
0.0
  0
LINE
  5
BC
330
1F
100
AcDbEntity
  8
0
  6
Continuous
 62
     7
370
    25
100
AcDbLine
 10
207.5846247121
 20
132.4234624323
 30
0.0
 11
207.6717667028
 21
132.5313021358
 31
0.0
  0
ARC
  5
BD
330
1F
100
AcDbEntity
  8
0
  6
Continuous
 62
     7
370
    25
100
AcDbCircle
 10
206.2744767347
 20
128.1090005942
 30
0.0
 40
0.9972917371209328
100
AcDbArc
 50
279.8689975715
 51
359.9153069632
  0
ARC
  5
BE
330
1F
100
AcDbEntity
  8
0
  6
Continuous
 62
     7
370
    25
100
AcDbCircle
 10
207.6728455507
 20
126.9378506882
 30
0.0
 40
0.3989209140358201
100
AcDbArc
 50
279.8692891802
 51
359.9147608181
  0
LINE
  5
BF
330
1F
100
AcDbEntity
  8
0
  6
Continuous
 62
     7
370
    25
100
AcDbLine
 10
203.69541419
 20
126.6434119012
 30
0.0
 11
206.4454085871
 21
127.1264665689
 31
0.0
  0
LINE
  5
C0
330
1F
100
AcDbEntity
  8
0
  6
Continuous
 62
     7
370
    25
100
AcDbLine
 10
206.0981146738
 20
131.8703834828
 30
0.0
 11
203.348112826
 21
131.3873306777
 31
0.0
  0
ARC
  5
C1
330
1F
100
AcDbEntity
  8
0
  6
Continuous
 62
     7
370
    25
100
AcDbCircle
 10
206.2729324126
 20
130.8869631114
 30
0.0
 40
0.998837758963791
100
AcDbArc
 50
0.1354050294
 51
100.0798892347
  0
LINE
  5
C2
330
1F
100
AcDbEntity
  8
0
  6
Continuous
 62
     7
370
    25
100
AcDbLine
 10
207.2717673823
 20
128.1075264257
 30
0.0
 11
207.2717673823
 21
130.8893236261
 31
0.0
  0
LINE
  5
C3
330
1F
100
AcDbEntity
  8
0
  6
Continuous
 62
     7
370
    25
100
AcDbLine
 10
202.5217614814
 20
130.4062698897
 30
0.0
 11
202.5217614814
 21
127.6244726893
 31
0.0
  0
ARC
  5
C4
330
1F
100
AcDbEntity
  8
0
  6
Continuous
 62
     7
370
    25
100
AcDbCircle
 10
203.5190588271
 20
130.4047923102
 30
0.0
 40
0.9972984402265271
100
AcDbArc
 50
99.8697556391
 51
179.915111571
  0
CIRCLE
  5
C5
330
1F
100
AcDbEntity
  8
0
  6
Continuous
 62
     7
370
    25
100
AcDbCircle
 10
204.8916814379
 20
129.2557215225
 30
0.0
 40
1.919920149833199
  0
ARC
  5
C6
330
1F
100
AcDbEntity
  8
0
  6
Continuous
 62
     7
370
    25
100
AcDbCircle
 10
204.8967644319
 20
129.1864666457
 30
0.0
 40
1.925009445132087
100
AcDbArc
 50
0.1507337284
 51
179.8492662716
  0
SPLINE
  5
C7
330
1F
100
AcDbEntity
  8
0
  6
Continuous
 62
     7
370
    25
100
AcDbSpline
210
0.0
220
0.0
230
1.0
 70
     8
 71
     3
 72
    12
 73
     8
 74
     0
 42
0.000000001
 43
0.00000001
 40
0.0
 40
0.0
 40
0.0
 40
0.0
 40
0.0087638440483799
 40
0.4338823437372845
 40
0.5772351120935421
 40
0.9518140399788714
 40
1.0
 40
1.0
 40
1.0
 40
1.0
 10
202.5753460570808
 20
131.1855400841773
 30
0.0
 10
202.5740952675545
 20
131.1865027645069
 30
0.0
 10
202.51217090101
 20
131.234163356746
 30
0.0
 10
202.420904216511
 20
131.3066500195388
 30
0.0
 10
202.2670297934496
 20
131.4330418222906
 30
0.0
 10
202.1718608779485
 20
131.5135298084815
 30
0.0
 10
202.1053585538806
 20
131.5714390731115
 30
0.0
 10
202.0977787419791
 20
131.578039463991
 30
0.0
  0
SPLINE
  5
C8
330
1F
100
AcDbEntity
  8
0
  6
Continuous
 62
     7
370
    25
100
AcDbSpline
210
0.0
220
0.0
230
1.0
 70
     8
 71
     3
 72
    10
 73
     6
 74
     0
 42
0.000000001
 43
0.00000001
 40
0.0
 40
0.0
 40
0.0
 40
0.0
 40
0.0621144109430417
 40
0.6341729352850692
 40
1.0
 40
1.0
 40
1.0
 40
1.0
 10
202.0181916400428
 20
131.5616221096457
 30
0.0
 10
202.0197393993569
 20
131.5622376833624
 30
0.0
 10
202.0355416431905
 20
131.5685225403682
 30
0.0
 10
202.061426732759
 20
131.5773763317805
 30
0.0
 10
202.0875782205751
 20
131.5778533863999
 30
0.0
 10
202.0977787419791
 20
131.578039463991
 30
0.0
  0
SPLINE
  5
C9
330
1F
100
AcDbEntity
  8
0
  6
Continuous
 62
     7
370
    25
100
AcDbSpline
210
0.0
220
0.0
230
1.0
 70
     8
 71
     3
 72
    11
 73
     7
 74
     0
 42
0.000000001
 43
0.00000001
 40
0.0
 40
0.0
 40
0.0
 40
0.0
 40
0.3473504878835045
 40
0.6933887988675692
 40
0.9925405355139449
 40
1.0
 40
1.0
 40
1.0
 40
1.0
 10
207.584624712133
 20
132.4234624322594
 30
0.0
 10
207.5327558671302
 20
132.3600916051306
 30
0.0
 10
207.4292141207106
 20
132.2335893451976
 30
0.0
 10
207.2760776306279
 20
132.0553131308245
 30
0.0
 10
207.1839606118835
 20
131.9511670902328
 30
0.0
 10
207.1433536155743
 20
131.9061808823807
 30
0.0
 10
207.1423656984801
 20
131.9050864245833
 30
0.0
  0
SPLINE
  5
CA
330
1F
100
AcDbEntity
  8
0
  6
Continuous
 62
     7
370
    25
100
AcDbSpline
210
0.0
220
0.0
230
1.0
 70
     8
 71
     3
 72
    10
 73
     6
 74
     0
 42
0.000000001
 43
0.00000001
 40
0.0
 40
0.0
 40
0.0
 40
0.0
 40
0.3658088627918629
 40
0.9379416400401005
 40
1.0
 40
1.0
 40
1.0
 40
1.0
 10
202.0977787419791
 20
131.578039463991
 30
0.0
 10
202.0966095864509
 20
131.5885764502329
 30
0.0
 10
202.0936118470159
 20
131.6155935052089
 30
0.0
 10
202.0991246036978
 20
131.6439933482498
 30
0.0
 10
202.103361828492
 20
131.6615148476447
 30
0.0
 10
202.1037764593597
 20
131.6632294025362
 30
0.0
  0
LINE
  5
CB
330
1F
100
AcDbEntity
  8
0
  6
Continuous
 62
     7
370
    25
100
AcDbLine
 10
207.6023049399
 20
132.943853822
 30
0.0
 11
202.0523078486
 21
131.9689621147
 31
0.0
  0
LINE
  5
CC
330
1F
100
AcDbEntity
  8
0
  6
Continuous
 62
     7
370
    25
100
AcDbLine
 10
207.6717667028
 20
132.5313021358
 30
0.0
 11
207.6023049399
 21
132.943853822
 31
0.0
  0
ARC
  5
CD
330
1F
100
AcDbEntity
  8
0
  6
Continuous
 62
     7
370
    25
100
AcDbCircle
 10
202.1206826606
 20
131.5759452454
 30
0.0
 40
0.3989202608224241
100
AcDbArc
 50
99.8692103931
 51
179.9148396052
  0
ARC
  5
CE
330
1F
100
AcDbEntity
  8
0
  6
Continuous
 62
     7
370
    25
100
AcDbCircle
 10
207.672234263
 20
132.5504883383
 30
0.0
 40
0.3995328696869232
100
AcDbArc
 50
0.1350236172
 51
100.0802706468
  0
SPLINE
  5
CF
330
1F
100
AcDbEntity
  8
0
  6
Continuous
 62
     7
370
    25
100
AcDbSpline
210
0.0
220
0.0
230
1.0
 70
    11
 71
     3
 72
    52
 73
    48
 74
     0
 42
0.000000001
 43
0.00000001
 40
0.0
 40
0.0
 40
0.0
 40
0.0
 40
0.0624999999999959
 40
0.0624999999999959
 40
0.1249999999999918
 40
0.1249999999999918
 40
0.1562499999999899
 40
0.1562499999999899
 40
0.1874999999999879
 40
0.1874999999999879
 40
0.218749999999986
 40
0.218749999999986
 40
0.2499999999999841
 40
0.2499999999999841
 40
0.2812499999999822
 40
0.2812499999999822
 40
0.3124999999999802
 40
0.3124999999999802
 40
0.3749999999999792
 40
0.3749999999999792
 40
0.4374999999999782
 40
0.4374999999999782
 40
0.4999999999999771
 40
0.4999999999999771
 40
0.562499999999976
 40
0.562499999999976
 40
0.6249999999999747
 40
0.6249999999999747
 40
0.656249999999974
 40
0.656249999999974
 40
0.6874999999999732
 40
0.6874999999999732
 40
0.7031249999999729
 40
0.7031249999999729
 40
0.7187499999999725
 40
0.7187499999999725
 40
0.7499999999999745
 40
0.7499999999999745
 40
0.7812499999999766
 40
0.7812499999999766
 40
0.8124999999999786
 40
0.8124999999999786
 40
0.8749999999999857
 40
0.8749999999999857
 40
0.9374999999999928
 40
0.9374999999999928
 40
1.0
 40
1.0
 40
1.0
 40
1.0
 10
193.2285337735162
 20
124.0197715969416
 30
0.0
 10
193.0268893547861
 20
123.8732683511992
 30
0.0
 10
192.8494889552958
 20
123.7111848197058
 30
0.0
 10
192.5649032868116
 20
123.3354101838841
 30
0.0
 10
192.4580455351611
 20
123.1184672019085
 30
0.0
 10
192.4111435637616
 20
122.7614009759268
 30
0.0
 10
192.4145893857349
 20
122.6378436665235
 30
0.0
 10
192.4680823957489
 20
122.3882457215492
 30
0.0
 10
192.5183002433969
 20
122.2638804642932
 30
0.0
 10
192.6613068342985
 20
122.0324358951112
 30
0.0
 10
192.7542957672977
 20
121.9252145237712
 30
0.0
 10
192.9656527174385
 20
121.7422395319162
 30
0.0
 10
193.0850877635754
 20
121.6653110307871
 30
0.0
 10
193.3321216893106
 20
121.5456454184865
 30
0.0
 10
193.4620436512519
 20
121.5016516163746
 30
0.0
 10
193.7190034669823
 20
121.4440797452105
 30
0.0
 10
193.8475641840128
 20
121.4296900482253
 30
0.0
 10
194.2331903977907
 20
121.4236106127806
 30
0.0
 10
194.4762271711237
 20
121.4678132078828
 30
0.0
 10
194.9472350446698
 20
121.6260682464752
 30
0.0
 10
195.1659572833195
 20
121.7376779607507
 30
0.0
 10
195.5792659744604
 20
122.0097991786904
 30
0.0
 10
195.7751507232742
 20
122.1722320668093
 30
0.0
 10
196.1339177553026
 20
122.53133898204
 30
0.0
 10
196.2987058864453
 20
122.7286586875874
 30
0.0
 10
196.5949174405004
 20
123.1621689756487
 30
0.0
 10
196.7260226707687
 20
123.396092442699
 30
0.0
 10
196.8650446368497
 20
123.772290743436
 30
0.0
 10
196.9015596336586
 20
123.9010504923861
 30
0.0
 10
196.9363002397664
 20
124.1702202227524
 30
0.0
 10
196.933473054986
 20
124.3140406213509
 30
0.0
 10
196.8640454754126
 20
124.5090125718066
 30
0.0
 10
196.8291853625751
 20
124.5712629263687
 30
0.0
 10
196.739164182867
 20
124.6781070131827
 30
0.0
 10
196.6837200668432
 20
124.7233826223436
 30
0.0
 10
196.5031131357414
 20
124.8314494615462
 30
0.0
 10
196.3646845558553
 20
124.8692856586791
 30
0.0
 10
196.0900744259097
 20
124.9109109805901
 30
0.0
 10
195.9496963718477
 20
124.9150016705516
 30
0.0
 10
195.6744952522911
 20
124.9052635640183
 30
0.0
 10
195.5385544538646
 20
124.8912880030988
 30
0.0
 10
195.1345022753255
 20
124.8313520543505
 30
0.0
 10
194.8688985982377
 20
124.7671431002957
 30
0.0
 10
194.362012504223
 20
124.609279062484
 30
0.0
 10
194.1186480357372
 20
124.5149605900895
 30
0.0
 10
193.6537730642803
 20
124.2941658418995
 30
0.0
 10
193.4301781922463
 20
124.1662748426838
 30
0.0
 10
193.2285337735162
 20
124.0197715969415
 30
0.0
  0
SPLINE
  5
D0
330
1F
100
AcDbEntity
  8
0
  6
Continuous
 62
     7
370
    25
100
AcDbSpline
210
0.0
220
0.0
230
1.0
 70
     8
 71
     3
 72
    22
 73
    18
 74
     0
 42
0.000000001
 43
0.00000001
 40
0.0
 40
0.0
 40
0.0
 40
0.0
 40
0.1249999999999999
 40
0.1249999999999999
 40
0.1875000000000006
 40
0.1875000000000006
 40
0.2500000000000012
 40
0.2500000000000012
 40
0.375000000000001
 40
0.375000000000001
 40
0.5000000000000008
 40
0.5000000000000008
 40
0.7500000000000003
 40
0.7500000000000003
 40
0.8750000000000001
 40
0.8750000000000001
 40
1.0
 40
1.0
 40
1.0
 40
1.0
 10
186.5717639371391
 20
122.7227289328106
 30
0.0
 10
186.832036600613
 20
122.22856000421
 30
0.0
 10
187.1798198647685
 20
121.7302313717353
 30
0.0
 10
187.7698784097896
 20
120.9677459874259
 30
0.0
 10
187.9792645694302
 20
120.7106427394316
 30
0.0
 10
188.409165406228
 20
120.2006053096154
 30
0.0
 10
188.6306817487632
 20
119.9463784008974
 30
0.0
 10
189.3103914503639
 20
119.1840918145012
 30
0.0
 10
189.7834557411003
 20
118.6763027477579
 30
0.0
 10
190.7575249905104
 20
117.6561763902539
 30
0.0
 10
191.259934997471
 20
117.1427833296328
 30
0.0
 10
192.7694394889794
 20
115.6278222706834
 30
0.0
 10
193.7888447984243
 20
114.6381329724063
 30
0.0
 10
195.3495206617409
 20
113.1953761749305
 30
0.0
 10
195.8776621945208
 20
112.7198567854496
 30
0.0
 10
196.937966946911
 20
111.8008601007877
 30
0.0
 10
197.4697898430311
 20
111.3575755063949
 30
0.0
 10
198.0068652802364
 20
110.93329882801
 30
0.0
  0
SPLINE
  5
D1
330
1F
100
AcDbEntity
  8
0
  6
Continuous
 62
     7
370
    25
100
AcDbSpline
210
0.0
220
0.0
230
1.0
 70
     8
 71
     3
 72
    20
 73
    16
 74
     0
 42
0.000000001
 43
0.00000001
 40
0.0
 40
0.0
 40
0.0
 40
0.0
 40
0.125
 40
0.125
 40
0.2500000000000001
 40
0.2500000000000001
 40
0.5000000000000003
 40
0.5000000000000003
 40
0.6250000000000002
 40
0.6250000000000002
 40
0.7500000000000002
 40
0.7500000000000002
 40
0.8750000000000001
 40
0.8750000000000001
 40
1.0
 40
1.0
 40
1.0
 40
1.0
 10
186.5717639371391
 20
122.7227289328106
 30
0.0
 10
186.4951275675054
 20
122.9799178394978
 30
0.0
 10
186.442615871603
 20
123.2388775392103
 30
0.0
 10
186.3934615958372
 20
123.7629391758014
 30
0.0
 10
186.3974472901772
 20
124.0293758593862
 30
0.0
 10
186.499914130646
 20
124.8193838397006
 30
0.0
 10
186.6874775950076
 20
125.3402132826937
 30
0.0
 10
187.1368096676746
 20
126.1461862002232
 30
0.0
 10
187.3136564015851
 20
126.4172058463906
 30
0.0
 10
187.706720094829
 20
126.9588941386288
 30
0.0
 10
187.9238612585066
 20
127.2312999992113
 30
0.0
 10
188.3930755065873
 20
127.7852340440756
 30
0.0
 10
188.646332719284
 20
128.0679986627796
 30
0.0
 10
189.1762269198672
 20
128.6401824370359
 30
0.0
 10
189.452864748152
 20
128.9297362216992
 30
0.0
 10
189.7392464862361
 20
129.2246681657715
 30
0.0
  0
SPLINE
  5
D2
330
1F
100
AcDbEntity
  8
0
  6
Continuous
 62
     7
370
    25
100
AcDbSpline
210
0.0
220
0.0
230
1.0
 70
     8
 71
     3
 72
    10
 73
     6
 74
     0
 42
0.000000001
 43
0.00000001
 40
0.0
 40
0.0
 40
0.0
 40
0.0
 40
0.5
 40
0.5
 40
1.0
 40
1.0
 40
1.0
 40
1.0
 10
189.7392464862361
 20
129.2246681657715
 30
0.0
 10
190.4481468062743
 20
129.3604059987506
 30
0.0
 10
191.1638387067312
 20
129.4899472814818
 30
0.0
 10
192.6052919453865
 20
129.7476002599935
 30
0.0
 10
193.3311031714335
 20
129.8755735949088
 30
0.0
 10
194.0615239554493
 20
130.0044119636737
 30
0.0
  0
SPLINE
  5
D3
330
1F
100
AcDbEntity
  8
0
  6
Continuous
 62
     7
370
    25
100
AcDbSpline
210
0.0
220
0.0
230
1.0
 70
     8
 71
     3
 72
     8
 73
     4
 74
     0
 42
0.000000001
 43
0.00000001
 40
0.0
 40
0.0
 40
0.0
 40
0.0
 40
1.0
 40
1.0
 40
1.0
 40
1.0
 10
206.8561999713087
 20
116.4368263716193
 30
0.0
 10
207.0165114522215
 20
116.5294746633635
 30
0.0
 10
207.1612269806566
 20
116.642383537755
 30
0.0
 10
207.2903989401393
 20
116.7755369789837
 30
0.0
  0
ELLIPSE
  5
D4
330
1F
100
AcDbEntity
  8
0
  6
Continuous
 62
     7
370
    25
100
AcDbEllipse
 10
208.4224667544
 20
116.6893380777
 30
0.0
 11
10.80355341949905
 21
6.165720034874995
 31
0.0
210
0.0
220
0.0
230
1.0
 40
0.0451040694
 41
1.690501773836876
 42
2.845857594776595
  0
LINE
  5
D5
330
1F
100
AcDbEntity
  8
0
  6
Continuous
 62
     7
370
    25
100
AcDbLine
 10
189.7392473861
 20
129.224668343
 30
0.0
 11
189.7392473861
 21
129.2423904803
 31
0.0
  0
LINE
  5
D6
330
1F
100
AcDbEntity
  8
0
  6
Continuous
 62
     7
370
    25
100
AcDbLine
 10
186.5717671558
 20
105.0749077391
 30
0.0
 11
186.5717671558
 21
122.7227287296
 31
0.0
  0
LINE
  5
D7
330
1F
100
AcDbEntity
  8
0
  6
Continuous
 62
     7
370
    25
100
AcDbLine
 10
186.0717661425
 20
105.5749078211
 30
0.0
 11
186.0717661425
 21
125.574907374
 31
0.0
  0
ELLIPSE
  5
D8
330
1F
100
AcDbEntity
  8
0
  6
Continuous
 62
     7
370
    25
100
AcDbEllipse
 10
205.2328393477
 20
115.5749075975
 30
0.0
 11
18.36681480757804
 21
10.49143687586616
 31
0.0
210
0.0
220
0.0
230
1.0
 40
0.0230835902
 41
3.181981922108521
 42
4.294886544639702
  0
LINE
  5
D9
330
1F
100
AcDbEntity
  8
0
  6
Continuous
 62
     7
370
    25
100
AcDbLine
 10
180.0717614337
 20
105.5749078211
 30
0.0
 11
180.0717614337
 21
125.574907374
 31
0.0
  0
LINE
  5
DA
330
1F
100
AcDbEntity
  8
0
  6
Continuous
 62
     7
370
    25
100
AcDbLine
 10
178.0717648312
 20
107.5749072176
 30
0.0
 11
178.0717648312
 21
123.5749079775
 31
0.0
  0
LINE
  5
DB
330
1F
100
AcDbEntity
  8
0
  6
Continuous
 62
     7
370
    25
100
AcDbLine
 10
94.4467639297
 20
107.5749072176
 30
0.0
 11
94.4467639297
 21
121.7749077756
 31
0.0
  0
LINE
  5
DC
330
1F
100
AcDbEntity
  8
0
  6
Continuous
 62
     7
370
    25
100
AcDbLine
 10
102.5717636317
 20
121.7749077756
 30
0.0
 11
94.4467639297
 21
121.7749077756
 31
0.0
  0
LWPOLYLINE
  5
DD
330
1F
100
AcDbEntity
  8
0
  6
Continuous
 62
     7
370
    25
100
AcDbPolyline
 90
        8
 70
   128
 43
0.0
 10
104.3717642992
 20
123.5749079775
 10
104.3606899425
 20
123.5638336208
 10
104.2722850784
 20
123.4754287567
 10
104.0964541703
 20
123.2995978486
 10
103.8351418197
 20
123.038285498
 10
103.4912407145
 20
122.6943839271
 10
103.0685553074
 20
122.2716989856
 10
102.5717636317
 20
121.7749077756
  0
LWPOLYLINE
  5
DE
330
1F
100
AcDbEntity
  8
0
  6
Continuous
 62
     7
370
    25
100
AcDbPolyline
 90
        8
 70
   128
 43
0.0
 10
109.0717646971
 20
121.7749077756
 10
108.5749730214
 20
122.2716989856
 10
108.1522876143
 20
122.6943839271
 10
107.8083865091
 20
123.038285498
 10
107.5470741585
 20
123.2995978486
 10
107.371242319
 20
123.4754287567
 10
107.2828374549
 20
123.5638336208
 10
107.2717640295
 20
123.5749079775
  0
LINE
  5
DF
330
1F
100
AcDbEntity
  8
0
  6
Continuous
 62
     7
370
    25
100
AcDbLine
 10
117.0717641458
 20
121.7749077756
 30
0.0
 11
109.0717646971
 21
121.7749077756
 31
0.0
  0
LWPOLYLINE
  5
E0
330
1F
100
AcDbEntity
  8
0
  6
Continuous
 62
     7
370
    25
100
AcDbPolyline
 90
        8
 70
   128
 43
0.0
 10
118.8717648133
 20
123.5749079775
 10
118.8606895253
 20
123.5638336208
 10
118.7722846612
 20
123.4754287567
 10
118.5964546844
 20
123.2995978486
 10
118.3351423338
 20
123.038285498
 10
117.9912402972
 20
122.6943839271
 10
117.5685558214
 20
122.2716989856
 10
117.0717641458
 20
121.7749077756
  0
LWPOLYLINE
  5
E1
330
1F
100
AcDbEntity
  8
0
  6
Continuous
 62
     7
370
    25
100
AcDbPolyline
 90
        8
 70
   128
 43
0.0
 10
123.5717642799
 20
121.7749077756
 10
123.0749726042
 20
122.2716989856
 10
122.6522881284
 20
122.6943839271
 10
122.3083860919
 20
123.038285498
 10
122.0470737412
 20
123.2995978486
 10
121.8712419018
 20
123.4754287567
 10
121.7828370377
 20
123.5638336208
 10
121.7717636123
 20
123.5749079775
  0
LINE
  5
E2
330
1F
100
AcDbEntity
  8
0
  6
Continuous
 62
     7
370
    25
100
AcDbLine
 10
131.5717637285
 20
121.7749077756
 30
0.0
 11
123.5717642799
 21
121.7749077756
 31
0.0
  0
LWPOLYLINE
  5
E3
330
1F
100
AcDbEntity
  8
0
  6
Continuous
 62
     7
370
    25
100
AcDbPolyline
 90
        8
 70
   128
 43
0.0
 10
133.3717643961
 20
123.5749079775
 10
133.360689108
 20
123.5638336208
 10
133.272284244
 20
123.4754287567
 10
133.0964542672
 20
123.2995978486
 10
132.8351400539
 20
123.038285498
 10
132.49123988
 20
122.6943839271
 10
132.0685535416
 20
122.2716989856
 10
131.5717637285
 20
121.7749077756
  0
LWPOLYLINE
  5
E4
330
1F
100
AcDbEntity
  8
0
  6
Continuous
 62
     7
370
    25
100
AcDbPolyline
 90
        8
 70
   128
 43
0.0
 10
138.0717657253
 20
121.7749077756
 10
137.5749721869
 20
122.2716989856
 10
137.1522858485
 20
122.6943839271
 10
136.8083856746
 20
123.038285498
 10
136.5470751866
 20
123.2995978486
 10
136.3712414845
 20
123.4754287567
 10
136.2828366205
 20
123.5638336208
 10
136.2717650577
 20
123.5749079775
  0
LINE
  5
E5
330
1F
100
AcDbEntity
  8
0
  6
Continuous
 62
     7
370
    25
100
AcDbLine
 10
146.0717633113
 20
121.7749077756
 30
0.0
 11
138.0717657253
 21
121.7749077756
 31
0.0
  0
LWPOLYLINE
  5
E6
330
1F
100
AcDbEntity
  8
0
  6
Continuous
 62
     7
370
    25
100
AcDbPolyline
 90
        8
 70
   128
 43
0.0
 10
147.8717639789
 20
123.5749079775
 10
147.8606886908
 20
123.5638336208
 10
147.7722838267
 20
123.4754287567
 10
147.5964538499
 20
123.2995978486
 10
147.3351433619
 20
123.038285498
 10
146.9912394628
 20
122.6943839271
 10
146.5685568496
 20
122.2716989856
 10
146.0717633113
 20
121.7749077756
  0
LWPOLYLINE
  5
E7
330
1F
100
AcDbEntity
  8
0
  6
Continuous
 62
     7
370
    25
100
AcDbPolyline
 90
        8
 70
   128
 43
0.0
 10
152.571765308
 20
121.7749077756
 10
152.0749717697
 20
122.2716989856
 10
151.6522891566
 20
122.6943839271
 10
151.3083852574
 20
123.038285498
 10
151.0470747694
 20
123.2995978486
 10
150.8712410673
 20
123.4754287567
 10
150.7828362032
 20
123.5638336208
 10
150.7717646405
 20
123.5749079775
  0
LINE
  5
E8
330
1F
100
AcDbEntity
  8
0
  6
Continuous
 62
     7
370
    25
100
AcDbLine
 10
160.5717666193
 20
121.7749077756
 30
0.0
 11
152.571765308
 21
121.7749077756
 31
0.0
  0
LWPOLYLINE
  5
E9
330
1F
100
AcDbEntity
  8
0
  6
Continuous
 62
     7
370
    25
100
AcDbPolyline
 90
        8
 70
   128
 43
0.0
 10
162.3717672869
 20
123.5749079775
 10
162.3606882736
 20
123.5638336208
 10
162.2722871348
 20
123.4754287567
 10
162.0964534327
 20
123.2995978486
 10
161.8351392194
 20
123.038285498
 10
161.4912427708
 20
122.6943839271
 10
161.0685564324
 20
122.2716989856
 10
160.5717666193
 20
121.7749077756
  0
LINE
  5
EA
330
1F
100
AcDbEntity
  8
0
  6
Continuous
 62
     7
370
    25
100
AcDbLine
 10
93.0717639371
 20
108.9499076758
 30
0.0
 11
93.0717639371
 21
121.7749077756
 31
0.0
  0
SPLINE
  5
EB
330
1F
100
AcDbEntity
  8
0
  6
Continuous
 62
     7
370
    25
100
AcDbSpline
210
0.0
220
0.0
230
1.0
 70
    24
 71
     3
 72
    10
 73
     6
 74
     0
 42
0.000000001
 43
0.00000001
 40
0.0
 40
0.0
 40
0.0
 40
0.0
 40
0.4999999999999998
 40
0.4999999999999998
 40
1.0
 40
1.0
 40
1.0
 40
1.0
 10
94.4467639371391
 20
121.7749075975359
 30
0.0
 10
94.17452374982189
 20
121.7749075975359
 30
0.0
 10
93.91615964163388
 20
121.7749075975359
 30
0.0
 10
93.4500936238185
 20
121.7749075975359
 30
0.0
 10
93.24150312069082
 20
121.7749075975359
 30
0.0
 10
93.07176393713908
 20
121.7749075975359
 30
0.0
  0
LINE
  5
EC
330
1F
100
AcDbEntity
  8
0
  6
Continuous
 62
     7
370
    25
100
AcDbLine
 10
194.0615229055
 20
130.0044116493
 30
0.0
 11
201.7217628404
 21
131.355110642
 31
0.0
  0
ARC
  5
ED
330
1F
100
AcDbEntity
  8
0
  6
Continuous
 62
     7
370
    25
100
AcDbCircle
 10
202.3306595258
 20
126.1916077554
 30
0.0
 40
0.9983797664527221
100
AcDbArc
 50
127.5811767044
 51
334.3846399559
  0
LINE
  5
EE
330
1F
100
AcDbEntity
  8
0
  6
Continuous
 62
     7
370
    25
100
AcDbLine
 10
207.8472055241
 20
126.5708590787
 30
0.0
 11
207.8149966642
 21
126.5652012941
 31
0.0
  0
LINE
  5
EF
330
1F
100
AcDbEntity
  8
0
  6
Continuous
 62
     7
370
    25
100
AcDbLine
 10
207.8472055241
 20
118.1492175371
 30
0.0
 11
207.8472055241
 21
126.5708590787
 31
0.0
  0
ELLIPSE
  5
F0
330
1F
100
AcDbEntity
  8
0
  6
Continuous
 62
     7
370
    25
100
AcDbEllipse
 10
205.832187374
 20
118.1664304237
 30
0.0
 11
1.868639352156777
 21
-0.7633212359937858
 31
0.0
210
0.0
220
0.0
230
1.0
 40
0.9877670049
 41
5.905010188613405
 42
6.666699550843428
  0
ARC
  5
F1
330
1F
100
AcDbEntity
  8
0
  6
Continuous
 62
     7
370
    25
100
AcDbCircle
 10
202.3251533767
 20
125.9906840725
 30
0.0
 40
0.995401651264077
100
AcDbArc
 50
127.3136542697
 51
174.175010792
  0
LINE
  5
F2
330
1F
100
AcDbEntity
  8
0
  6
Continuous
 62
     7
370
    25
100
AcDbLine
 10
207.8331164762
 20
126.5726360422
 30
0.0
 11
207.8472055241
 21
126.5708590787
 31
0.0
  0
ARC
  5
F3
330
1F
100
AcDbEntity
  8
0
  6
HIDDEN
 62
     7
370
    18
100
AcDbCircle
 10
205.1115212445
 20
128.3282184915
 30
0.0
 40
0.2059946907703819
100
AcDbArc
 50
213.3559990675
 51
9.4450137492
  0
LINE
  5
F4
330
1F
100
AcDbEntity
  8
0
  6
HIDDEN
 62
     7
370
    18
100
AcDbLine
 10
205.3147233769
 20
128.3620224264
 30
0.0
 11
205.3147233769
 21
128.3995798718
 31
0.0
  0
ARC
  5
F5
330
1F
100
AcDbEntity
  8
0
  6
HIDDEN
 62
     7
370
    18
100
AcDbCircle
 10
204.3001516331
 20
128.470400418
 30
0.0
 40
0.20572848182194
100
AcDbArc
 50
153.4451390993
 51
309.7177906998
  0
LINE
  5
F6
330
1F
100
AcDbEntity
  8
0
  6
HIDDEN
 62
     7
370
    18
100
AcDbLine
 10
204.4316135093
 20
128.3121538278
 30
0.0
 11
204.4316135093
 21
128.3880510297
 31
0.0
  0
ARC
  5
F7
330
1F
100
AcDbEntity
  8
0
  6
HIDDEN
 62
     7
370
    18
100
AcDbCircle
 10
205.6730100451
 20
128.3925231134
 30
0.0
 40
0.3595825753740504
100
AcDbArc
 50
93.1671182319
 51
184.865817054
  0
LINE
  5
F8
330
1F
100
AcDbEntity
  8
0
  6
HIDDEN
 62
     7
370
    18
100
AcDbLine
 10
203.9466999218
 20
129.0491047245
 30
0.0
 11
203.9466999218
 21
129.1250019264
 31
0.0
  0
ARC
  5
F9
330
1F
100
AcDbEntity
  8
0
  6
HIDDEN
 62
     7
370
    18
100
AcDbCircle
 10
203.795541751
 20
128.7234381097
 30
0.0
 40
0.3590369570388605
100
AcDbArc
 50
0.0500656
 51
65.1016267833
  0
ARC
  5
FA
330
1F
100
AcDbEntity
  8
0
  6
HIDDEN
 62
     7
370
    18
100
AcDbCircle
 10
205.6417994131
 20
128.9566839598
 30
0.0
 40
0.2054409323072575
100
AcDbArc
 50
273.1654236782
 51
9.4755364571
  0
ARC
  5
FB
330
1F
100
AcDbEntity
  8
0
  6
HIDDEN
 62
     7
370
    18
100
AcDbCircle
 10
204.0173806565
 20
129.2415679202
 30
0.0
 40
0.205031334168075
100
AcDbArc
 50
170.6804787001
 51
249.8346009235
  0
ARC
  5
FC
330
1F
100
AcDbEntity
  8
0
  6
HIDDEN
 62
     7
370
    18
100
AcDbCircle
 10
205.8628828402
 20
129.4742216889
 30
0.0
 40
0.3578269322547749
100
AcDbArc
 50
153.1966940105
 51
180.0040062055
  0
LINE
  5
FD
330
1F
100
AcDbEntity
  8
0
  6
HIDDEN
 62
     7
370
    18
100
AcDbLine
 10
204.3449036523
 20
129.835925151
 30
0.0
 11
204.3449036523
 21
129.9118232843
 31
0.0
  0
LINE
  5
FE
330
1F
100
AcDbEntity
  8
0
  6
HIDDEN
 62
     7
370
    18
100
AcDbLine
 10
204.3462522074
 20
129.8049260791
 30
0.0
 11
204.3449036523
 21
129.835925151
 31
0.0
  0
LWPOLYLINE
  5
FF
330
1F
100
AcDbEntity
  8
0
  6
HIDDEN
 62
     7
370
    18
100
AcDbPolyline
 90
        3
 70
   128
 43
0.0
 10
205.562112455
 20
129.7647059824
 10
205.5638633415
 20
129.7022198256
 10
205.5435009047
 20
129.6355762448
  0
ARC
  5
100
330
1F
100
AcDbEntity
  8
0
  6
HIDDEN
 62
     7
370
    18
100
AcDbCircle
 10
204.8298135146
 20
129.0938648683
 30
0.0
 40
1.700010378244919
100
AcDbArc
 50
0.1722028881
 51
179.8277971119
  0
LWPOLYLINE
  5
101
330
1F
100
AcDbEntity
  8
0
  6
HIDDEN
 62
     7
370
    18
100
AcDbPolyline
 90
        3
 70
   128
 43
0.0
 10
204.3449036523
 20
129.835925151
 10
204.3450526639
 20
129.9055890109
 10
204.3552003547
 20
129.9426360916
  0
ARC
  5
102
330
1F
100
AcDbEntity
  8
0
  6
HIDDEN
 62
     7
370
    18
100
AcDbCircle
 10
204.6380917312
 20
128.0156637584
 30
0.0
 40
0.3613026672589929
100
AcDbArc
 50
33.4761218383
 51
124.8536834069
  0
CIRCLE
  5
103
330
1F
100
AcDbEntity
  8
0
  6
HIDDEN
 62
     7
370
    18
100
AcDbCircle
 10
204.8278339856
 20
128.9975251225
 30
0.0
 40
1.248134396727197
  0
CIRCLE
  5
104
330
1F
100
AcDbEntity
  8
0
  6
HIDDEN
 62
     7
370
    18
100
AcDbCircle
 10
204.8278339856
 20
128.6990166796
 30
0.0
 40
1.248134396727197
  0
CIRCLE
  5
105
330
1F
100
AcDbEntity
  8
0
  6
HIDDEN
 62
     7
370
    18
100
AcDbCircle
 10
204.8284581363
 20
128.6563969041
 30
0.0
 40
0.7737926436483141
  0
ARC
  5
106
330
1F
100
AcDbEntity
  8
0
  6
HIDDEN
 62
     7
370
    18
100
AcDbCircle
 10
204.8967644319
 20
129.1970513926
 30
0.0
 40
1.925010699155307
100
AcDbArc
 50
180.1643098616
 51
359.8356901384
  0
CIRCLE
  5
107
330
1F
100
AcDbEntity
  8
0
  6
HIDDEN
 62
     7
370
    18
100
AcDbCircle
 10
204.8930614304
 20
129.0872354795
 30
0.0
 40
1.396294986206557
  0
CIRCLE
  5
108
330
1F
100
AcDbEntity
  8
0
  6
HIDDEN
 62
     7
370
    18
100
AcDbCircle
 10
204.8930610322
 20
129.0484571327
 30
0.0
 40
1.396294587360773
  0
ARC
  5
109
330
1F
100
AcDbEntity
  8
0
  6
HIDDEN
 62
     7
370
    18
100
AcDbCircle
 10
207.671885781
 20
132.3437379014
 30
0.0
 40
0.1076538849993556
100
AcDbArc
 50
0.1385713751
 51
100.0762292381
  0
LINE
  5
10A
330
1F
100
AcDbEntity
  8
0
  6
HIDDEN
 62
     7
370
    18
100
AcDbLine
 10
207.6530508443
 20
132.4497313168
 30
0.0
 11
202.1030463025
 21
131.4748396095
 31
0.0
  0
ARC
  5
10B
330
1F
100
AcDbEntity
  8
0
  6
HIDDEN
 62
     7
370
    18
100
AcDbCircle
 10
202.1214795033
 20
131.3689418146
 30
0.0
 40
0.1074901198679318
100
AcDbArc
 50
99.8743107343
 51
179.9111936328
  0
LINE
  5
10C
330
1F
100
AcDbEntity
  8
0
  6
HIDDEN
 62
     7
370
    18
100
AcDbLine
 10
207.7795393511
 20
126.729826529
 30
0.0
 11
207.7795393511
 21
132.3439982649
 31
0.0
  0
ARC
  5
10D
330
1F
100
AcDbEntity
  8
0
  6
HIDDEN
 62
     7
370
    18
100
AcDbCircle
 10
207.6720475494
 20
126.7299959588
 30
0.0
 40
0.107491935225602
100
AcDbArc
 50
279.8710910575
 51
359.9096897909
  0
LINE
  5
10E
330
1F
100
AcDbEntity
  8
0
  6
HIDDEN
 62
     7
370
    18
100
AcDbLine
 10
202.0139895126
 20
131.3691084202
 30
0.0
 11
202.0139895126
 21
125.754935753
 31
0.0
  0
LINE
  5
10F
330
1F
100
AcDbEntity
  8
0
  6
HIDDEN
 62
     7
370
    18
100
AcDbLine
 10
202.1404780194
 20
125.6492045637
 30
0.0
 11
207.6904751107
 21
126.6240953397
 31
0.0
  0
ARC
  5
110
330
1F
100
AcDbEntity
  8
0
  6
HIDDEN
 62
     7
370
    18
100
AcDbCircle
 10
202.1216338301
 20
125.7551869146
 30
0.0
 40
0.1076446105075814
100
AcDbArc
 50
180.133685422
 51
280.0821085504
  0
LINE
  5
111
330
1F
100
AcDbEntity
  8
0
  6
HIDDEN
 62
     7
370
    18
100
AcDbLine
 10
189.7392473861
 20
129.224668343
 30
0.0
 11
189.7392473861
 21
123.3757688593
 31
0.0
  0
SPLINE
  5
112
330
1F
100
AcDbEntity
  8
0
  6
HIDDEN
 62
     7
370
    18
100
AcDbSpline
210
0.0
220
0.0
230
1.0
 70
     8
 71
     3
 72
    16
 73
    12
 74
     0
 42
0.000000001
 43
0.00000001
 40
0.0
 40
0.0
 40
0.0
 40
0.0
 40
0.2499999999999993
 40
0.2499999999999993
 40
0.3749999999999994
 40
0.3749999999999994
 40
0.4999999999999996
 40
0.4999999999999996
 40
0.7499999999999998
 40
0.7499999999999998
 40
1.0
 40
1.0
 40
1.0
 40
1.0
 10
186.5717639371391
 20
114.6597722986855
 30
0.0
 10
186.5717639371391
 20
115.4512814158685
 30
0.0
 10
186.662644254346
 20
116.2270635906548
 30
0.0
 10
186.9123380742266
 20
117.3711174665214
 30
0.0
 10
187.0143360582325
 20
117.7492211578147
 30
0.0
 10
187.2512238108767
 20
118.4997365796101
 30
0.0
 10
187.3859036505973
 20
118.8711862780494
 30
0.0
 10
187.8250708700139
 20
119.9628835097385
 30
0.0
 10
188.1659398412299
 20
120.6665334004716
 30
0.0
 10
188.9104184382769
 20
122.0423286719621
 30
0.0
 10
189.3142329846819
 20
122.7143711541715
 30
0.0
 10
189.7392464862359
 20
123.375768820861
 30
0.0
  0
ELLIPSE
  5
113
330
1F
100
AcDbEntity
  8
0
  6
HIDDEN
 62
     7
370
    18
100
AcDbEllipse
 10
205.2328393477
 20
115.5749075975
 30
0.0
 11
18.36681480757804
 21
10.49143687586616
 31
0.0
210
0.0
220
0.0
230
1.0
 40
0.0230835902
 41
1.698452057912766
 42
3.181981922108521
  0
SPLINE
  5
114
330
1F
100
AcDbEntity
  8
0
  6
HIDDEN
 62
     7
370
    18
100
AcDbSpline
210
0.0
220
0.0
230
1.0
 70
     8
 71
     3
 72
    13
 73
     9
 74
     0
 42
0.000000001
 43
0.00000001
 40
0.0
 40
0.0
 40
0.0
 40
0.0
 40
0.1517912551826152
 40
0.3424432886064357
 40
0.5349592354992947
 40
0.7111568975888867
 40
0.9064837189362486
 40
1.0
 40
1.0
 40
1.0
 40
1.0
 10
185.2873913690086
 20
114.562434113966
 30
0.0
 10
185.3428605102598
 20
114.6040766293171
 30
0.0
 10
185.4679997030504
 20
114.6980227521391
 30
0.0
 10
185.6001741307992
 20
114.9774014115679
 30
0.0
 10
185.4993745112486
 20
115.2969576739587
 30
0.0
 10
185.3330470643888
 20
115.7240556538449
 30
0.0
 10
185.1862556982054
 20
116.1369630387082
 30
0.0
 10
185.0997661147219
 20
116.3990075389258
 30
0.0
 10
185.071764115953
 20
116.483847463885
 30
0.0
  0
ARC
  5
115
330
1F
100
AcDbEntity
  8
0
  6
HIDDEN
 62
     7
370
    18
100
AcDbCircle
 10
181.3932772077
 20
113.5708751456
 30
0.0
 40
3.936734571087791
100
AcDbArc
 50
13.6654126289
 51
58.1984078385
  0
SPLINE
  5
116
330
1F
100
AcDbEntity
  8
0
  6
HIDDEN
 62
     7
370
    18
100
AcDbSpline
210
0.0
220
0.0
230
1.0
 70
     8
 71
     3
 72
    20
 73
    16
 74
     0
 42
0.000000001
 43
0.00000001
 40
0.0
 40
0.0
 40
0.0
 40
0.0
 40
0.1250000000000001
 40
0.1250000000000001
 40
0.2500000000000002
 40
0.2500000000000002
 40
0.3750000000000001
 40
0.3750000000000001
 40
0.5000000000000001
 40
0.5000000000000001
 40
0.6250000000000001
 40
0.6250000000000001
 40
0.75
 40
0.75
 40
1.0
 40
1.0
 40
1.0
 40
1.0
 10
185.0717639371391
 20
116.4838474791723
 30
0.0
 10
184.9651488742887
 20
116.5151530108659
 30
0.0
 10
184.8639762676211
 20
116.5530818229471
 30
0.0
 10
184.6721704348583
 20
116.6380222030402
 30
0.0
 10
184.5806775431746
 20
116.6855077685624
 30
0.0
 10
184.4114657070189
 20
116.7805176858375
 30
0.0
 10
184.33405853822
 20
116.8276393780344
 30
0.0
 10
184.1899130380565
 20
116.9144657136388
 30
0.0
 10
184.1227818489803
 20
116.9543488111565
 30
0.0
 10
184.0004340356203
 20
117.0181772521833
 30
0.0
 10
183.9445711752404
 20
117.0426005885272
 30
0.0
 10
183.8390426409395
 20
117.0727431523725
 30
0.0
 10
183.7896720222884
 20
117.0781508375407
 30
0.0
 10
183.649620658569
 20
117.0625879893184
 30
0.0
 10
183.5642426093244
 20
117.0086565909035
 30
0.0
 10
183.4678522106561
 20
116.916619405919
 30
0.0
  0
LINE
  5
117
330
1F
100
AcDbEntity
  8
0
  6
HIDDEN
 62
     7
370
    18
100
AcDbLine
 10
94.3708020009
 20
114.0749075845
 30
0.0
 11
94.3708020009
 21
117.0749076106
 31
0.0
  0
ELLIPSE
  5
118
330
1F
100
AcDbEntity
  8
0
  6
HIDDEN
 62
     7
370
    18
100
AcDbEllipse
 10
184.2964871261
 20
115.5749075975
 30
0.0
 11
-1.118156117357614
 21
1.491679053956872
 31
0.0
210
0.0
220
0.0
230
1.0
 40
0.1411046771
 41
4.148798572947537
 42
5.714263947778531
  0
LINE
  5
119
330
1F
100
AcDbEntity
  8
0
  6
HIDDEN
 62
     7
370
    18
100
AcDbLine
 10
185.071764116
 20
114.0749075845
 30
0.0
 11
185.071764116
 21
116.4838474639
 31
0.0
  0
SPLINE
  5
11A
330
1F
100
AcDbEntity
  8
0
  6
HIDDEN
 62
     7
370
    18
100
AcDbSpline
210
0.0
220
0.0
230
1.0
 70
     8
 71
     3
 72
     8
 73
     4
 74
     0
 42
0.000000001
 43
0.00000001
 40
0.0
 40
0.0
 40
0.0
 40
0.0
 40
1.0
 40
1.0
 40
1.0
 40
1.0
 10
185.0717639371391
 20
114.9113913641761
 30
0.0
 10
185.1432233318082
 20
114.7492679439697
 30
0.0
 10
185.195270773196
 20
114.608954176493
 30
0.0
 10
185.218573930631
 20
114.5009350906433
 30
0.0
  0
SPLINE
  5
11B
330
1F
100
AcDbEntity
  8
0
  6
HIDDEN
 62
     7
370
    18
100
AcDbSpline
210
0.0
220
0.0
230
1.0
 70
     8
 71
     3
 72
    13
 73
     9
 74
     0
 42
0.000000001
 43
0.00000001
 40
0.0
 40
0.0
 40
0.0
 40
0.0
 40
0.0678929306578644
 40
0.1727722914796163
 40
0.3380751013412819
 40
0.608083995077679
 40
0.8931053166489633
 40
1.0
 40
1.0
 40
1.0
 40
1.0
 10
205.3051344796653
 20
127.2256263461054
 30
0.0
 10
205.3691338228075
 20
127.2674663640883
 30
0.0
 10
205.5319978067411
 20
127.3739398321268
 30
0.0
 10
205.7362061135761
 20
127.6454910285826
 30
0.0
 10
205.8873400519096
 20
128.0876231025131
 30
0.0
 10
205.8269493846543
 20
128.6261085190204
 30
0.0
 10
205.6173781120608
 20
129.0536483878724
 30
0.0
 10
205.3506167803119
 20
129.2225958765339
 30
0.0
 10
205.2778579041
 20
129.26867612862
 30
0.0
  0
SPLINE
  5
11C
330
1F
100
AcDbEntity
  8
0
  6
HIDDEN
 62
     7
370
    18
100
AcDbSpline
210
0.0
220
0.0
230
1.0
 70
     8
 71
     3
 72
    18
 73
    14
 74
     0
 42
0.000000001
 43
0.00000001
 40
0.0
 40
0.0
 40
0.0
 40
0.0
 40
0.0151521586698865
 40
0.0493248629187586
 40
0.0835043424773915
 40
0.13003753846743
 40
0.2078445929464008
 40
0.3606666914937025
 40
0.6042203210271927
 40
0.7719588178612395
 40
0.8772761812041188
 40
0.9524500862912441
 40
1.0
 40
1.0
 40
1.0
 40
1.0
 10
204.8306889578338
 20
129.4142129760326
 30
0.0
 10
204.8100839695394
 20
129.4168399554307
 30
0.0
 10
204.7430084956612
 20
129.4253915685391
 30
0.0
 10
204.6102944084228
 20
129.4035942359989
 30
0.0
 10
204.4423563279498
 20
129.3515789633313
 30
0.0
 10
204.2473005676233
 20
129.2413550147938
 30
0.0
 10
204.0091968960168
 20
129.0112900294102
 30
0.0
 10
203.7966315492915
 20
128.5781564076487
 30
0.0
 10
203.7804937474903
 20
128.0332049136232
 30
0.0
 10
203.9968561973413
 20
127.5480076789084
 30
0.0
 10
204.2865559651785
 20
127.2732411774841
 30
0.0
 10
204.5536962808264
 20
127.1407971598839
 30
0.0
 10
204.730305395667
 20
127.1183598723179
 30
0.0
 10
204.7987334176536
 20
127.1096664410175
 30
0.0
  0
SPLINE
  5
11D
330
1F
100
AcDbEntity
  8
0
  6
HIDDEN
 62
     7
370
    18
100
AcDbSpline
210
0.0
220
0.0
230
1.0
 70
     8
 71
     3
 72
     8
 73
     4
 74
     0
 42
0.000000001
 43
0.00000001
 40
0.0
 40
0.0
 40
0.0
 40
0.0
 40
1.0
 40
1.0
 40
1.0
 40
1.0
 10
205.3051377972921
 20
127.2256261441975
 30
0.0
 10
205.6688777386273
 20
127.3087589035978
 30
0.0
 10
206.032696465754
 20
127.3915721345058
 30
0.0
 10
206.3965895770488
 20
127.4740836884159
 30
0.0
  0
ELLIPSE
  5
11E
330
1F
100
AcDbEntity
  8
0
  6
HIDDEN
 62
     7
370
    18
100
AcDbEllipse
 10
207.7305930569
 20
115.6066834026
 30
0.0
 11
0.1829900720908029
 21
16.83591031995853
 31
0.0
210
0.0
220
0.0
230
1.0
 40
0.1223313345
 41
0.1617378164868073
 42
0.7898641771580752
  0
LINE
  5
11F
330
1F
100
AcDbEntity
  8
0
  6
HIDDEN
 62
     7
370
    18
100
AcDbLine
 10
207.5795359656
 20
132.2264709439
 30
0.0
 11
201.8298111602
 21
131.2150713917
 31
0.0
  0
ELLIPSE
  5
120
330
1F
100
AcDbEntity
  8
0
  6
HIDDEN
 62
     7
370
    18
100
AcDbEllipse
 10
201.949756332
 20
115.5450551854
 30
0.0
 11
-0.1719136631732852
 21
15.81683084164382
 31
0.0
210
0.0
220
0.0
230
1.0
 40
0.1223313345
 41
6.256353846980021
 42
6.299489076076255
  0
LINE
  5
121
330
1F
100
AcDbEntity
  8
0
  6
HIDDEN
 62
     7
370
    18
100
AcDbLine
 10
201.7217628404
 20
131.355110642
 30
0.0
 11
201.7463199541
 21
131.3594412919
 31
0.0
  0
LINE
  5
122
330
1F
100
AcDbEntity
  8
0
  6
HIDDEN
 62
     7
370
    18
100
AcDbLine
 10
189.7392473861
 20
123.3757688593
 30
0.0
 11
194.1578961655
 21
124.5194506761
 31
0.0
  0
SPLINE
  5
123
330
1F
100
AcDbEntity
  8
0
  6
HIDDEN
 62
     7
370
    18
100
AcDbSpline
210
0.0
220
0.0
230
1.0
 70
     8
 71
     3
 72
     9
 73
     5
 74
     0
 42
0.000000001
 43
0.00000001
 40
0.0
 40
0.0
 40
0.0
 40
0.0
 40
0.1969729928751509
 40
1.0
 40
1.0
 40
1.0
 40
1.0
 10
195.4051308080192
 20
124.8422722261489
 30
0.0
 10
196.0190567821049
 20
125.0024952727231
 30
0.0
 10
199.1358595738194
 20
125.8159217442179
 30
0.0
 10
202.2766188755141
 20
126.5334621314041
 30
0.0
 10
204.7987334176536
 20
127.1096664410175
 30
0.0
  0
LINE
  5
124
330
1F
100
AcDbEntity
  8
0
  6
HIDDEN
 62
     7
370
    18
100
AcDbLine
 10
201.7463199541
 20
127.0009643328
 30
0.0
 11
201.7463199541
 21
131.3594412919
 31
0.0
  0
LINE
  5
125
330
1F
100
AcDbEntity
  8
0
  6
HIDDEN
 62
     7
370
    18
100
AcDbLine
 10
201.7217628404
 20
126.9828137871
 30
0.0
 11
201.7463199541
 21
127.0009643328
 31
0.0
  0
LINE
  5
126
330
1F
100
AcDbEntity
  8
0
  6
HIDDEN
 62
     7
370
    18
100
AcDbLine
 10
207.8149966642
 20
126.5652012941
 30
0.0
 11
203.2309151932
 21
125.7599807274
 31
0.0
  0
ELLIPSE
  5
127
330
1F
100
AcDbEntity
  8
0
  6
HIDDEN
 62
     7
370
    18
100
AcDbEllipse
 10
202.3298143507
 20
125.777757419
 30
0.0
 11
0.9992225856419736
 21
0.1348790817300198
 31
0.0
210
0.0
220
0.0
230
1.0
 40
0.2922888529
 41
5.795260566795035
 42
5.894685585355705
  0
ELLIPSE
  5
128
330
1F
100
AcDbEntity
  8
0
  6
HIDDEN
 62
     7
370
    18
100
AcDbEllipse
 10
202.3298143507
 20
125.777757419
 30
0.0
 11
-0.8185610900452501
 21
1.153270047372629
 31
0.0
210
0.0
220
0.0
230
1.0
 40
0.4980789051
 41
5.847882534760131
 42
5.947307553320846
  0
LINE
  5
129
330
1F
100
AcDbEntity
  8
0
  6
HIDDEN
 62
     7
370
    18
100
AcDbLine
 10
201.8298111602
 20
126.9954006117
 30
0.0
 11
201.8298111602
 21
126.8646671366
 31
0.0
  0
ARC
  5
12A
330
1F
100
AcDbEntity
  8
0
  6
HIDDEN
 62
     7
370
    18
100
AcDbCircle
 10
202.330275743
 20
126.0004909838
 30
0.0
 40
0.9986316746442201
100
AcDbArc
 50
340.1391344862
 51
120.0761337493
  0
LINE
  5
12B
330
1F
100
AcDbEntity
  8
0
  6
HIDDEN
 62
     7
370
    18
100
AcDbLine
 10
203.2695092007
 20
125.6612186249
 30
0.0
 11
203.2695092007
 21
125.7919521
 31
0.0
  0
ARC
  5
12C
330
1F
100
AcDbEntity
  8
0
  6
HIDDEN
 62
     7
370
    18
100
AcDbCircle
 10
202.330240212
 20
125.9924095962
 30
0.0
 40
0.9971258195698733
100
AcDbArc
 50
269.9754045081
 51
127.6062283573
  0
ARC
  5
12D
330
1F
100
AcDbEntity
  8
0
  6
HIDDEN
 62
     7
370
    18
100
AcDbCircle
 10
202.3277367313
 20
125.9930196855
 30
0.0
 40
0.9977379755661328
100
AcDbArc
 50
174.3234987362
 51
270.1191837635
  0
LINE
  5
12E
330
1F
100
AcDbEntity
  8
0
  6
HIDDEN
 62
     7
370
    18
100
AcDbLine
 10
203.2695092007
 20
125.7919521
 30
0.0
 11
207.7637143179
 21
126.5813867491
 31
0.0
  0
LINE
  5
12F
330
1F
100
AcDbEntity
  8
0
  6
HIDDEN
 62
     7
370
    18
100
AcDbLine
 10
207.7637143179
 20
126.5813867491
 30
0.0
 11
207.8331164762
 21
126.5726360422
 31
0.0
  0
LINE
  5
130
330
1F
100
AcDbEntity
  8
0
  6
HIDDEN
 62
     7
370
    18
100
AcDbLine
 10
201.8298111602
 20
131.3567572203
 30
0.0
 11
201.8298111602
 21
126.9954006117
 31
0.0
  0
LINE
  5
131
330
1F
100
AcDbEntity
  8
0
  6
HIDDEN
 62
     7
370
    18
100
AcDbLine
 10
207.5795359656
 20
126.4183009904
 30
0.0
 11
207.7637143179
 21
126.5813867491
 31
0.0
  0
CIRCLE
  5
132
330
1F
100
AcDbEntity
  8
0
  6
HIDDEN
 62
     7
370
    18
100
AcDbCircle
 10
204.828835773
 20
128.9730843477
 30
0.0
 40
1.248344924561507
  0
LINE
  5
133
330
1F
100
AcDbEntity
  8
0
  6
HIDDEN
 62
     7
370
    18
100
AcDbLine
 10
203.2695092007
 20
125.6612186249
 30
0.0
 11
207.5795359656
 21
126.4183009904
 31
0.0
  0
LINE
  5
134
330
1F
100
AcDbEntity
  8
0
  6
HIDDEN
 62
     7
370
    18
100
AcDbLine
 10
207.5795359656
 20
126.4183009904
 30
0.0
 11
207.5795359656
 21
132.2264709439
 31
0.0
  0
ARC
  5
135
330
1F
100
AcDbEntity
  8
0
  6
HIDDEN
 62
     7
370
    18
100
AcDbCircle
 10
204.8333161268
 20
128.9500120199
 30
0.0
 40
1.020743937740255
100
AcDbArc
 50
269.8036022189
 51
72.539412327
  0
ARC
  5
136
330
1F
100
AcDbEntity
  8
0
  6
HIDDEN
 62
     7
370
    18
100
AcDbCircle
 10
204.8268505737
 20
128.9503615577
 30
0.0
 40
1.021091788532715
100
AcDbArc
 50
90.3026084468
 51
270.1664666124
  0
ARC
  5
137
330
1F
100
AcDbEntity
  8
0
  6
HIDDEN
 62
     7
370
    18
100
AcDbCircle
 10
204.829876708
 20
128.1373783231
 30
0.0
 40
1.028183649514922
100
AcDbArc
 50
268.2642672263
 51
297.5311270638
  0
LINE
  5
138
330
1F
100
AcDbEntity
  8
0
  6
HIDDEN
 62
     7
370
    18
100
AcDbLine
 10
206.3965923831
 20
127.4740836512
 30
0.0
 11
206.3965923831
 21
117.9538581915
 31
0.0
  0
ELLIPSE
  5
139
330
1F
100
AcDbEntity
  8
0
  6
HIDDEN
 62
     7
370
    18
100
AcDbEllipse
 10
204.3815699261
 20
117.9710710067
 30
0.0
 11
1.868639352156748
 21
-0.7633212359938001
 31
0.0
210
0.0
220
0.0
230
1.0
 40
0.9877670049
 41
5.628098322764193
 42
6.666699550843436
  0
LINE
  5
13A
330
1F
100
AcDbEntity
  8
0
  6
HIDDEN
 62
     7
370
    18
100
AcDbLine
 10
205.4040409371
 20
116.2412597029
 30
0.0
 11
202.6543669149
 21
114.6597722824
 31
0.0
  0
LINE
  5
13B
330
1F
100
AcDbEntity
  8
0
  6
HIDDEN
 62
     7
370
    18
100
AcDbLine
 10
205.3176365539
 20
128.3276137825
 30
0.0
 11
205.3176365539
 21
128.4039608132
 31
0.0
  0
LINE
  5
13C
330
1F
100
AcDbEntity
  8
0
  6
HIDDEN
 62
     7
370
    18
100
AcDbLine
 10
204.0941543623
 20
128.5482878726
 30
0.0
 11
204.0941543623
 21
128.4701554965
 31
0.0
  0
LINE
  5
13D
330
1F
100
AcDbEntity
  8
0
  6
HIDDEN
 62
     7
370
    18
100
AcDbLine
 10
205.8472983285
 20
128.9564325404
 30
0.0
 11
205.8472983285
 21
129.0345649164
 31
0.0
  0
LINE
  5
13E
330
1F
100
AcDbEntity
  8
0
  6
HIDDEN
 62
     7
370
    18
100
AcDbLine
 10
203.8123361513
 20
129.3196483445
 30
0.0
 11
203.8123361513
 21
129.2415159684
 31
0.0
  0
LINE
  5
13F
330
1F
100
AcDbEntity
  8
0
  6
HIDDEN
 62
     7
370
    18
100
AcDbLine
 10
205.5654726669
 20
129.7277930122
 30
0.0
 11
205.5654726669
 21
129.8059253883
 31
0.0
  0
LINE
  5
140
330
1F
100
AcDbEntity
  8
0
  6
HIDDEN
 62
     7
370
    18
100
AcDbLine
 10
204.3419904753
 20
129.9466817569
 30
0.0
 11
204.3419904753
 21
129.8703347262
 31
0.0
  0
SPLINE
  5
141
330
1F
100
AcDbEntity
  8
0
  6
HIDDEN
 62
     7
370
    18
100
AcDbSpline
210
0.0
220
0.0
230
1.0
 70
     8
 71
     3
 72
    14
 73
    10
 74
     0
 42
0.000000001
 43
0.00000001
 40
0.0
 40
0.0
 40
0.0
 40
0.0
 40
0.0731058996343096
 40
0.2298156603553811
 40
0.3870187115463292
 40
0.544302269839373
 40
0.7016800905463269
 40
0.8591390038216559
 40
1.0
 40
1.0
 40
1.0
 40
1.0
 10
204.6263120814796
 20
127.8645900007428
 30
0.0
 10
204.5722593272178
 20
127.8764855365187
 30
0.0
 10
204.4023391227358
 20
127.913880335342
 30
0.0
 10
204.137329218999
 20
128.0508597871076
 30
0.0
 10
203.8787535855867
 20
128.3014140748813
 30
0.0
 10
203.7075301663265
 20
128.6198164262873
 30
0.0
 10
203.6426664510831
 20
128.973017016149
 30
0.0
 10
203.6780797666136
 20
129.3223188982992
 30
0.0
 10
203.7844479538185
 20
129.5219627681698
 30
0.0
 10
203.8346729918952
 20
129.6162308123053
 30
0.0
  0
SPLINE
  5
142
330
1F
100
AcDbEntity
  8
0
  6
HIDDEN
 62
     7
370
    18
100
AcDbSpline
210
0.0
220
0.0
230
1.0
 70
     8
 71
     3
 72
    16
 73
    12
 74
     0
 42
0.000000001
 43
0.00000001
 40
0.0
 40
0.0
 40
0.0
 40
0.0
 40
0.0592442804935216
 40
0.1920801887477133
 40
0.3249904274084049
 40
0.4579404776813851
 40
0.5908670338822375
 40
0.7237338804320863
 40
0.8565234140461134
 40
0.9823729133701685
 40
1.0
 40
1.0
 40
1.0
 40
1.0
 10
205.812146489286
 20
129.6210913848222
 30
0.0
 10
205.8428591434878
 20
129.5777717515116
 30
0.0
 10
205.942434872434
 20
129.4373220190906
 30
0.0
 10
206.0078789091252
 20
129.1457942503791
 30
0.0
 10
205.9983441714108
 20
128.7880761165003
 30
0.0
 10
205.8749967939702
 20
128.4477215525571
 30
0.0
 10
205.6559130141827
 20
128.16065370566
 30
0.0
 10
205.35957807913
 20
127.9523798861082
 30
0.0
 10
205.0204141481421
 20
127.8450409461154
 30
0.0
 10
204.7687486755908
 20
127.8414574362764
 30
0.0
 10
204.641896718027
 20
127.8620589614978
 30
0.0
 10
204.6263120814796
 20
127.8645900007428
 30
0.0
  0
LINE
  5
143
330
1F
100
AcDbEntity
  8
0
  6
HIDDEN
 62
     7
370
    18
100
AcDbLine
 10
203.5798109814
 20
128.9943876606
 30
0.0
 11
203.5798109814
 21
128.6958792176
 31
0.0
  0
LINE
  5
144
330
1F
100
AcDbEntity
  8
0
  6
HIDDEN
 62
     7
370
    18
100
AcDbLine
 10
206.0798160478
 20
128.6958792176
 30
0.0
 11
206.0798160478
 21
128.9943876606
 31
0.0
  0
LINE
  5
145
330
1F
100
AcDbEntity
  8
0
  6
HIDDEN
 62
     7
370
    18
100
AcDbLine
 10
202.9717616483
 20
129.256897692
 30
0.0
 11
202.9717616483
 21
129.1915309545
 31
0.0
  0
LINE
  5
146
330
1F
100
AcDbEntity
  8
0
  6
HIDDEN
 62
     7
370
    18
100
AcDbLine
 10
206.8217672154
 20
129.1915309545
 30
0.0
 11
206.8217672154
 21
129.256897692
 31
0.0
  0
LINE
  5
147
330
1F
100
AcDbEntity
  8
0
  6
HIDDEN
 62
     7
370
    18
100
AcDbLine
 10
203.4967668101
 20
129.0882463496
 30
0.0
 11
203.4967668101
 21
129.0494670089
 31
0.0
  0
LINE
  5
148
330
1F
100
AcDbEntity
  8
0
  6
HIDDEN
 62
     7
370
    18
100
AcDbLine
 10
206.2967620536
 20
129.0494670089
 30
0.0
 11
206.2967620536
 21
129.0882463496
 31
0.0
  0
LINE
  5
149
330
1F
100
AcDbEntity
  8
0
  6
HIDDEN
 62
     7
370
    18
100
AcDbLine
 10
193.2285330936
 20
124.0197719004
 30
0.0
 11
183.5572026416
 21
116.9931386527
 31
0.0
  0
LINE
  5
14A
330
1F
100
AcDbEntity
  8
0
  6
HIDDEN
 62
     7
370
    18
100
AcDbLine
 10
185.2969653651
 20
114.5489440229
 30
0.0
 11
195.5136634156
 21
121.9718135823
 31
0.0
  0
LINE
  5
14B
330
1F
100
AcDbEntity
  8
0
  6
HIDDEN
 62
     7
370
    18
100
AcDbLine
 10
93.0717639371
 20
113.3249076944
 30
0.0
 11
94.3708020009
 21
114.0749075845
 31
0.0
  0
LINE
  5
14C
330
1F
100
AcDbEntity
  8
0
  6
HIDDEN
 62
     7
370
    18
100
AcDbLine
 10
94.3708020009
 20
117.0749076106
 30
0.0
 11
93.0717639371
 21
117.8249075007
 31
0.0
  0
LINE
  5
14D
330
1F
100
AcDbEntity
  8
0
  6
HIDDEN
 62
     7
370
    18
100
AcDbLine
 10
94.3708020009
 20
114.0749075845
 30
0.0
 11
185.071764116
 21
114.0749075845
 31
0.0
  0
LINE
  5
14E
330
1F
100
AcDbEntity
  8
0
  6
HIDDEN
 62
     7
370
    18
100
AcDbLine
 10
183.783074443
 20
117.0749076106
 30
0.0
 11
94.3708020009
 21
117.0749076106
 31
0.0
  0
LINE
  5
14F
330
1F
100
AcDbEntity
  8
0
  6
HIDDEN
 62
     7
370
    18
100
AcDbLine
 10
185.071764116
 20
114.0749075845
 30
0.0
 11
185.4840717956
 21
114.7611004695
 31
0.0
  0
LINE
  5
150
330
1F
100
AcDbEntity
  8
0
  6
HIDDEN
 62
     7
370
    18
100
AcDbLine
 10
201.3298175975
 20
126.1919365194
 30
0.0
 11
201.3298175975
 21
125.9914786484
 31
0.0
  0
LINE
  5
151
330
1F
100
AcDbEntity
  8
0
  6
HIDDEN
 62
     7
370
    18
100
AcDbLine
 10
203.3298142001
 20
125.9914786484
 30
0.0
 11
203.3298142001
 21
126.0019374009
 31
0.0
  0
LINE
  5
152
330
1F
100
AcDbEntity
  8
0
  6
HIDDEN
 62
     7
370
    18
100
AcDbLine
 10
203.8048110649
 20
128.9503733557
 30
0.0
 11
203.8048110649
 21
128.2762168836
 31
0.0
  0
LINE
  5
153
330
1F
100
AcDbEntity
  8
0
  6
HIDDEN
 62
     7
370
    18
100
AcDbLine
 10
205.8548159644
 20
128.2215352099
 30
0.0
 11
205.8548159644
 21
128.9503733557
 31
0.0
  0
LINE
  5
154
330
1F
100
AcDbEntity
  8
VERMASSUNG
100
AcDbLine
 10
167.3684832121
 20
115.5749075975
 30
0.0
 11
167.9042726228
 21
115.5749075975
 31
0.0
  0
POINT
  5
155
330
1F
100
AcDbEntity
  8
VERMASSUNG
100
AcDbPoint
 10
208.0717639371
 20
132.9499075975
 30
0.0
  0
DIMENSION
  5
156
330
1F
100
AcDbEntity
  8
VERMASSUNG
100
AcDbDimension
  2
_D
 10
216.492776593
 20
98.1999075975
 30
0.0
 11
216.492776593
 21
115.0601909697
 31
0.0
 70
   160
  1
%%c<>-40.1
 71
     2
 42
-1.0
  3
SLDDIMSTYLE0
100
AcDbAlignedDimension
 13
208.0717639371
 23
132.9499075975
 33
0.0
 14
208.0717639371
 24
98.1999075975
 34
0.0
 50
90.0
100
AcDbRotatedDimension
  0
DIMENSION
  5
161
330
1F
100
AcDbEntity
  8
VERMASSUNG
100
AcDbDimension
  2
_D_1
 10
93.0717639371
 20
140.5455381371
 30
0.0
 11
147.0099958498
 21
140.5455381371
 31
0.0
 70
   160
  1
<>
 71
     2
 42
-1.0
  3
SLDDIMSTYLE1
100
AcDbAlignedDimension
 13
208.0717639371
 23
132.9499075975
 33
0.0
 14
93.0717639371
 24
121.7749075975
 34
0.0
100
AcDbRotatedDimension
  0
DIMENSION
  5
16C
330
1F
100
AcDbEntity
  8
VERMASSUNG
100
AcDbDimension
  2
_D_2
 10
86.7637069585
 20
107.5749075975
 30
0.0
 11
86.7637069585
 21
115.0601909697
 31
0.0
 70
   160
  1
%%c<>
 71
     2
 42
-1.0
  3
SLDDIMSTYLE1
100
AcDbAlignedDimension
 13
104.3717639371
 23
123.5749075975
 33
0.0
 14
94.4467639371
 24
107.5749075975
 34
0.0
 50
90.0
100
AcDbRotatedDimension
  0
LINE
  5
177
330
1F
100
AcDbEntity
  8
VERMASSUNG
  6
CENTERX2
 62
     7
370
    18
100
AcDbLine
 10
91.0717639371
 20
115.5749075975
 30
0.0
 11
207.9713480722
 21
115.5749075975
 31
0.0
  0
LINE
  5
178
330
1F
100
AcDbEntity
  8
VERMASSUNG
  6
CENTERX2
 62
     7
370
    18
100
AcDbLine
 10
199.0401039576
 20
126.3880225239
 30
0.0
 11
181.2939403684
 21
113.4946799674
 31
0.0
  0
OLE2FRAME
  5
179
330
1F
100
AcDbEntity
  8
0
100
AcDbOle2Frame
 70
     2
  3
Paintbrush-Bild
 10
13.8511154363
 20
38.264191557
 30
0.0
 11
51.6290888628
 21
31.9806341108
 31
0.0
 71
     2
 72
     0
 73
     1
 90
    12928
310
80552BED0767C5B32B40DDAF6807D121434000000000000000006FFBDDFB85D0
310
4940DDAF6807D121434000000000000000006FFBDDFB85D04940416F4BD60AFB
310
3F4000000000000000002BED0767C5B32B40416F4BD60AFB3F40000000000000
310
0000000000000100000000010000010000000100000000000100000000320000
310
D0CF11E0A1B11AE1000000000000000000000000000000003E000300FEFF0900
310
0600000000000000000000000100000001000000000000000010000002000000
310
01000000FEFFFFFF0000000000000000FFFFFFFFFFFFFFFFFFFFFFFFFFFFFFFF
310
FFFFFFFFFFFFFFFFFFFFFFFFFFFFFFFFFFFFFFFFFFFFFFFFFFFFFFFFFFFFFFFF
310
FFFFFFFFFFFFFFFFFFFFFFFFFFFFFFFFFFFFFFFFFFFFFFFFFFFFFFFFFFFFFFFF
310
FFFFFFFFFFFFFFFFFFFFFFFFFFFFFFFFFFFFFFFFFFFFFFFFFFFFFFFFFFFFFFFF
310
FFFFFFFFFFFFFFFFFFFFFFFFFFFFFFFFFFFFFFFFFFFFFFFFFFFFFFFFFFFFFFFF
310
FFFFFFFFFFFFFFFFFFFFFFFFFFFFFFFFFFFFFFFFFFFFFFFFFFFFFFFFFFFFFFFF
310
FFFFFFFFFFFFFFFFFFFFFFFFFFFFFFFFFFFFFFFFFFFFFFFFFFFFFFFFFFFFFFFF
310
FFFFFFFFFFFFFFFFFFFFFFFFFFFFFFFFFFFFFFFFFFFFFFFFFFFFFFFFFFFFFFFF
310
FFFFFFFFFFFFFFFFFFFFFFFFFFFFFFFFFFFFFFFFFFFFFFFFFFFFFFFFFFFFFFFF
310
FFFFFFFFFFFFFFFFFFFFFFFFFFFFFFFFFFFFFFFFFFFFFFFFFFFFFFFFFFFFFFFF
310
FFFFFFFFFFFFFFFFFFFFFFFFFFFFFFFFFFFFFFFFFFFFFFFFFFFFFFFFFFFFFFFF
310
FFFFFFFFFFFFFFFFFFFFFFFFFFFFFFFFFFFFFFFFFFFFFFFFFFFFFFFFFFFFFFFF
310
FFFFFFFFFFFFFFFFFFFFFFFFFFFFFFFFFFFFFFFFFFFFFFFFFFFFFFFFFFFFFFFF
310
FFFFFFFFFFFFFFFFFFFFFFFFFFFFFFFFFFFFFFFFFFFFFFFFFFFFFFFFFFFFFFFF
310
FDFFFFFFFEFFFFFFFEFFFFFFFEFFFFFF05000000060000000700000008000000
310
090000000A0000000B0000000C0000000D0000000E0000000F00000010000000
310
11000000120000001300000014000000150000001600000017000000FEFFFFFF
310
FFFFFFFFFFFFFFFFFFFFFFFFFFFFFFFFFFFFFFFFFFFFFFFFFFFFFFFFFFFFFFFF
310
FFFFFFFFFFFFFFFFFFFFFFFFFFFFFFFFFFFFFFFFFFFFFFFFFFFFFFFFFFFFFFFF
310
FFFFFFFFFFFFFFFFFFFFFFFFFFFFFFFFFFFFFFFFFFFFFFFFFFFFFFFFFFFFFFFF
310
FFFFFFFFFFFFFFFFFFFFFFFFFFFFFFFFFFFFFFFFFFFFFFFFFFFFFFFFFFFFFFFF
310
FFFFFFFFFFFFFFFFFFFFFFFFFFFFFFFFFFFFFFFFFFFFFFFFFFFFFFFFFFFFFFFF
310
FFFFFFFFFFFFFFFFFFFFFFFFFFFFFFFFFFFFFFFFFFFFFFFFFFFFFFFFFFFFFFFF
310
FFFFFFFFFFFFFFFFFFFFFFFFFFFFFFFFFFFFFFFFFFFFFFFFFFFFFFFFFFFFFFFF
310
FFFFFFFFFFFFFFFFFFFFFFFFFFFFFFFFFFFFFFFFFFFFFFFFFFFFFFFFFFFFFFFF
310
FFFFFFFFFFFFFFFFFFFFFFFFFFFFFFFFFFFFFFFFFFFFFFFFFFFFFFFFFFFFFFFF
310
FFFFFFFFFFFFFFFFFFFFFFFFFFFFFFFFFFFFFFFFFFFFFFFFFFFFFFFFFFFFFFFF
310
FFFFFFFFFFFFFFFFFFFFFFFFFFFFFFFFFFFFFFFFFFFFFFFFFFFFFFFFFFFFFFFF
310
FFFFFFFFFFFFFFFFFFFFFFFFFFFFFFFFFFFFFFFFFFFFFFFFFFFFFFFFFFFFFFFF
310
FFFFFFFFFFFFFFFFFFFFFFFFFFFFFFFFFFFFFFFFFFFFFFFFFFFFFFFFFFFFFFFF
310
52006F006F007400200045006E00740072007900000000000000000000000000
310
0000000000000000000000000000000000000000000000000000000000000000
310
16000500FFFFFFFFFFFFFFFF020000000A00030000000000C000000000000046
310
000000000000000000000000000B1A20F560D60103000000C000000000000000
310
01004F006C006500000000000000000000000000000000000000000000000000
310
0000000000000000000000000000000000000000000000000000000000000000
310
0A000200FFFFFFFFFFFFFFFFFFFFFFFF00000000000000000000000000000000
310
0000000000000000000000000000000000000000000000001400000000000000
310
010043006F006D0070004F0062006A0000000000000000000000000000000000
310
0000000000000000000000000000000000000000000000000000000000000000
310
120002010100000003000000FFFFFFFF00000000000000000000000000000000
310
0000000000000000000000000000000000000000010000004D00000000000000
310
01004F006C006500310030004E00610074006900760065000000000000000000
310
0000000000000000000000000000000000000000000000000000000000000000
310
1A000200FFFFFFFFFFFFFFFFFFFFFFFF00000000000000000000000000000000
310
0000000000000000000000000000000000000000040000002426000000000000
310
FEFFFFFF02000000FEFFFFFFFFFFFFFFFFFFFFFFFFFFFFFFFFFFFFFFFFFFFFFF
310
FFFFFFFFFFFFFFFFFFFFFFFFFFFFFFFFFFFFFFFFFFFFFFFFFFFFFFFFFFFFFFFF
310
FFFFFFFFFFFFFFFFFFFFFFFFFFFFFFFFFFFFFFFFFFFFFFFFFFFFFFFFFFFFFFFF
310
FFFFFFFFFFFFFFFFFFFFFFFFFFFFFFFFFFFFFFFFFFFFFFFFFFFFFFFFFFFFFFFF
310
FFFFFFFFFFFFFFFFFFFFFFFFFFFFFFFFFFFFFFFFFFFFFFFFFFFFFFFFFFFFFFFF
310
FFFFFFFFFFFFFFFFFFFFFFFFFFFFFFFFFFFFFFFFFFFFFFFFFFFFFFFFFFFFFFFF
310
FFFFFFFFFFFFFFFFFFFFFFFFFFFFFFFFFFFFFFFFFFFFFFFFFFFFFFFFFFFFFFFF
310
FFFFFFFFFFFFFFFFFFFFFFFFFFFFFFFFFFFFFFFFFFFFFFFFFFFFFFFFFFFFFFFF
310
FFFFFFFFFFFFFFFFFFFFFFFFFFFFFFFFFFFFFFFFFFFFFFFFFFFFFFFFFFFFFFFF
310
FFFFFFFFFFFFFFFFFFFFFFFFFFFFFFFFFFFFFFFFFFFFFFFFFFFFFFFFFFFFFFFF
310
FFFFFFFFFFFFFFFFFFFFFFFFFFFFFFFFFFFFFFFFFFFFFFFFFFFFFFFFFFFFFFFF
310
FFFFFFFFFFFFFFFFFFFFFFFFFFFFFFFFFFFFFFFFFFFFFFFFFFFFFFFFFFFFFFFF
310
FFFFFFFFFFFFFFFFFFFFFFFFFFFFFFFFFFFFFFFFFFFFFFFFFFFFFFFFFFFFFFFF
310
FFFFFFFFFFFFFFFFFFFFFFFFFFFFFFFFFFFFFFFFFFFFFFFFFFFFFFFFFFFFFFFF
310
FFFFFFFFFFFFFFFFFFFFFFFFFFFFFFFFFFFFFFFFFFFFFFFFFFFFFFFFFFFFFFFF
310
FFFFFFFFFFFFFFFFFFFFFFFFFFFFFFFFFFFFFFFFFFFFFFFFFFFFFFFFFFFFFFFF
310
0100000200000000000000000000000000000000000000000000000000000000
310
0000000000000000000000000000000000000000000000000000000000000000
310
0100FEFF030A0000FFFFFFFF0A00030000000000C00000000000004607000000
310
5042727573680007000000504272757368000700000050427275736800F439B2
310
7100000000000000000000000000000000000000000000000000000000000000
310
0000000000000000000000000000000000000000000000000000000000000000
310
0000000000000000000000000000000000000000000000000000000000000000
310
0000000000000000000000000000000000000000000000000000000000000000
310
0000000000000000000000000000000000000000000000000000000000000000
310
0000000000000000000000000000000000000000000000000000000000000000
310
0000000000000000000000000000000000000000000000000000000000000000
310
0000000000000000000000000000000000000000000000000000000000000000
310
0000000000000000000000000000000000000000000000000000000000000000
310
0000000000000000000000000000000000000000000000000000000000000000
310
0000000000000000000000000000000000000000000000000000000000000000
310
0000000000000000000000000000000000000000000000000000000000000000
310
20260000424D0E260000000000003E00000028000000B40200006E0000000100
310
01000000000000000000130B0000130B00000200000002000000000000FFFFFF
310
FFFFFFFFFFFFFFFFFFFFFFFFFFFFFFFFFFFFFFFFFFFFFFFFFFFFFFFFFFFFFFFF
310
FFFFFFFFFFFFFFFFFFFFFFFFFFFFFFFFFFFFFFFFFFFFFFFFFFFFFFFFFFFFFFFF
310
FFFFFFFFFFFFFFFFFFFFFFFFFFFFFFFFFFFFFFFFFFFFFFFFF000FFFFFFFFFFFF
310
FFFFFFFFFFFFFFFFFFFFFFFFFFFFFFFFFFFFFFFFFFFFFFFFFFFFFFFFFFFFFFFF
310
FFFFFFFFFFFFFFFFFFFFFFFFFFFFFFFFFFFFFFFFFFFFFFFFFFFFFFFFFFFFFFFF
310
FFFFFFFFFFFFFFFFFFFFFFFFFFFFFFFFF000FFFFFFFFFFFFFFFFFFFFFFFFFFFF
310
FFFFFFFFFFFFFFFFFFFFFFFFFFFFFFFFFFFFFFFFFFFFFFFFFFFFFFFFFFFFFFFF
310
FFFFFFFFFFFFFFFFFFFFFFFFFFFFFFFFFFFFFFFFFFFFFFFFFFFFFFFFFFFFFFFF
310
FFFFFFFFFFFFFFFFF000FFFFFFFFFFFFFFFFFFFFFFFFFFFFFFFFFFFFFFFFFFFF
310
FFFFFFFFFFFFFFFFFFFFFFFFFFFFFFFFFFFFFFFFFFFFFFFFFFFFFFFFFFFFFFFF
310
FFFFFFFFFFFFFFFFFFFFFFFFFFFFFFFFFFFFFFFFFFFFFFFFFFFFFFFFFFFFFFFF
310
F000FFFFFFFFFFFFFFFFFFFFFFFFFFFFFFFFFFFFFFFFFFFFFFFFFFFFFFFFFFFF
310
FFFFFFFFFFFFFFFFFFFFFFFFFFFFFFFFFFFFFFFFFFFFFFFFFFFFFFFFFFFFFFFF
310
FFFFFFFFFFFFFFFFFFFFFFFFFFFFFFFFFFFFFFFFFFFFFFFFF000FFFFFFFFFFFF
310
FFFFFFFFFFFFFFFFFFFFFFFFFFFFFFFFFFFFFFFFFFFFFFFFFFFFFFFFFFFFFFFF
310
FFFFFFFFFFFFFFFFFFFFFFFFFFFFFFFFFFFFFFFFFFFFFFFFFFFFFFFFFFFFFFFF
310
FFFFFFFFFFFFFFFFFFFFFFFFFFFFFFFFF000FFFFFFFFFFFFFFFFFFFFFFFFFFFF
310
FFFFFFFFFFFFFFFFFFFFFFFFFFFFFFFFFFFFFFFFFFFFFFFFFFFFFFFFFFFFFFFF
310
FFFFFFFFFFFFFFFFFFFFFFFFFFFFFFFFFFFFFFFFFFFFFFFFFFFFFFFFFFFFFFFF
310
FFFFFFFFFFFFFFFFF000FFFFFFFFFFFFFFFFFFFFFFFFFFFFFFFFFFFFFFFFFFFF
310
FFFFFFFFFFFFFFFFFFFFFFFFFFFFFFFFFFFFFFFFFFFFFFFFFFFFFFFFFFFFFFFF
310
FFFFFFFFFFFFFFFFFFFFFFFFFFFFFFFFFFFFFFFFFFFFFFFFFFFFFFFFFFFFFFFF
310
F000FFFFFFFFFFFFFFFFFFFFFFFFFFFFFFFFFFFFFFFFFFFFFFFFFFFFFFFFFFFF
310
FFFFFFFFFFFFFFFFFFFFFFFFFFFFFFFFFFFFFFFFFFFFFFFFFFFFFFFFFFFFFFFF
310
FFFFFFFFFFFFFFFFFFFFFFFFFFFFFFFFFFFFFFFFFFFFFFFFF000FFFFFFFFFFFF
310
FFFFFFFFFFFFFFFFFFFFFFFFFFFFFFFFFFFFFFFFFFFFFFFFFFFFFFFFFFFFFFFF
310
FFFFFFFFFFFFFFFFFFFFFFFFFFFFFFFFFFFFFFFFFFFFFFFFFFFFFFFFFFFFFFFF
310
FFFFFFFFFFFFFFFFFFFFFFFFFFFFFFFFF000FFFFFFFFFFFFFFFFFFFFFFFFFFFF
310
FFFFFFFFFFFFFFFFFFFFFFFFFFFFFFFFFFFFFFFFFFFFFFFFFFFFFFFFFFFFFFFF
310
FFFFFFFFFFFFFFFFFFFFFFFFFFFFFFFFFFFFFFFFFFFFFFFFFFFFFFFFFFFFFFFF
310
FFFFFFFFFFFFFFFFF000FFFFFFFFFFFFFFFFFFFFFFFFFFFFFFFFFFFFFFFFFFFF
310
FFFFFFFFFFFFFFFFFFFFFFFFFFFFFFFFFFFFFFFFFFFFFFFFFFFFFFFFFFFFFFFF
310
FFFFFFFFFFFFFFFFFFFFFFFFFFFFFFFFFFFFFFFFFFFFFFFFFFFFFFFFFFFFFFFF
310
F000FFFFFFFFFFFFFFFFFFFFFFFFFFFFFFFFFFFFFFFFFFFFFFFFFFFFFFFFFFFF
310
FFFFFFFFFFFFFFFFFFFFFFFFFFFFFFFFFFFFFFFFFFFFFFFFFFFFFFFFFFFFFFFF
310
FFFFFFFFFFFFFFFFFFFFFFFFFFFFFFFFFFFFFFFFFFFFFFFFF000FFFFFFFFFFFF
310
FFFFFFFFFFFFFFFFFFFFFFFFFFFFFFFFFFFFFFFFFFFFFFFFFFFFFFFFFFFFFFFF
310
FFFFFFFFFFFFFFFFFFFFFFFFFFFFFFFFFFFFFFFFFFFFFFFFFFFFFFFFFFFFFFFF
310
FFFFFFFFFFFFFFFFFFFFFFFFFFFFFFFFF000FFFFFFFFFFFFFFFFFFFFFFFFFFFF
310
FFFFFFFFFFFFFFFFFFFFFFFFFFFFFFFFFFFFFFFFFFFFFFFFFFFFFFFFFFFFFFFF
310
FFFFFFFFFFFFFFFFFFFFFFFFFFFFFFFFFFFFFFFFFFFFFFFFFFFFFFFFFFFFFFFF
310
FFFFFFFFFFFFFFFFF000FFFFFFFFFFFFFFFFFFFFFFFFFFFFFFFFFFFFFFFFFFFF
310
FFFFFFFFFFFFFFFFFFFFFFFFFFFFFFFFFFFFFFFFFFFFFFFFFFFFFFFFFFFFFFFF
310
FFFFFFFFFFFFFFFFFFFFFFFFFFFFFFFFFFFFFFFFFFFFFFFFFFFFFFFFFFFFFFFF
310
F000FFFFFFFFFFFFFFFFFFFFFFFFFFFFFFFFFFFFFFFFFFFFFFFFFFFFFFFFFFFF
310
FFFFFFFFFFFFFFFFFFFFFFFFFFFFFFFFFFFFFFFFFFFFFFFFFFFFFFFFFFFFFFFF
310
FFFFFFFFFFFFFFFFFFFFFFFFFFFFFFFFFFFFFFFFFFFFFFFFF000FFFFFFFFFFFF
310
FFFFFFFFFFFFFFFFFFFFFFFFFFFFFFFFFFFFFFFFFFFFFFFFFFFFFFFFFFFFFFFF
310
FFFFFFFFFFFFFFFFFFFFFFFFFFFFFFFFFFFFFFFFFFFFFFFFFFFFFFFFFFFFFFFF
310
FFFFFFFFFFFFFFFFFFFFFFFFFFFFFFFFF000FFFFFFFFFFFFFFFFFFFFFFFFFFFF
310
FFFFFFFFFFFFFFFFFFFFFFFFFFFFFFFFFFFFFFFFFFFFFFFFFFFFFFFFFFFFFFFF
310
FFFFFFFFFFFFFFFFFFFFFFFFFFFFFFFFFFFFFFFFFFFFFFFFFFFFFFFFFFFFFFFF
310
FFFFFFFFFFFFFFFFF000FFFFF80003FFFFFFFFFFFFFFFFFFFFFFFFFFFFFFFFFF
310
FFFFF00007FFFFFFFFFF00007FFFFFF800000000000000007FFFFFFFFFFFFFFF
310
FFFFFFFC001FFFFFFFFFFFFFFC001FFFFFFFFFFFFFFFFFFFFFFFFFFE0007FFFF
310
F000FFFF8000007FFFFFFFF8000FFFFFC0007FFFFF80007FFFFF0000007FFFFF
310
FFF8000007FFFFF800000000000000007FFFFFF0001FFFFFFFFFFFC00001FFFF
310
FFFFFFFFC00001FFFFFFFF000000000003FFFFE000007FFFF000FFFE0000000F
310
FFFFFFF0000FFFFF80007FFFFF80007FFFFC0000001FFFFFFFC0000001FFFFF8
310
00000000000000007FFFFFF0001FFFFFFFFFFE0000003FFFFFFFFFFE0000003F
310
FFFFFF000000000003FFFF0000000FFFF000FFF800000003FFFFFFF00007FFFF
310
80007FFFFF80007FFFF000000007FFFFFF000000003FFFF80000000000000000
310
7FFFFFF0001FFFFFFFFFF80000000FFFFFFFFFF80000000FFFFFFF0000000000
310
03FFFC00000003FFF000FFE000000000FFFFFFF00007FFFF80003FFFFF80007F
310
FFC000000001FFFFFC000000001FFFF800000000000000007FFFFFF0001FFFFF
310
FFFFE000000003FFFFFFFFE000000003FFFFFF000000000003FFF000000000FF
310
F000FF80000000007FFFFFF00007FFFF80003FFFFF80007FFF8000000000FFFF
310
F80000000007FFF800000000000000007FFFFFF0001FFFFFFFFFC000000001FF
310
FFFFFFC000000001FFFFFF000000000003FFC0000000007FF000FF0000000000
310
3FFFFFE00007FFFF00003FFFFF80007FFE00000000003FFFF00000000003FFF8
310
00000000000000007FFFFFF0001FFFFFFFFF8000000000FFFFFFFF8000000000
310
FFFFFF000000000003FF80000000003FF000FE00000000001FFFFFE00003FFFF
310
00003FFFFF80007FFC00000000001FFFE00000000001FFF8000001FFFE000000
310
7FFFFFF0001FFFFFFFFE00000000003FFFFFFE00000000003FFFFF0000000000
310
03FF00000000001FF000FC00000000000FFFFFE00003FFFF00001FFFFF80007F
310
F800000000001FFFC00000000000FFF8000001FFFE0000007FFFFFF0001FFFFF
310
FFFC00000000001FFFFFFC00000000001FFFFF000000000003FE00000000000F
310
F000F8000000000007FFFFE00003FFFF00001FFFFF80007FF800000000000FFF
310
800000000000FFF8000001FFFE0000007FFFFFF0001FFFFFFFF800000000000F
310
FFFFF800000000000FFFFF000000000003FC000000000007F000F80000000000
310
03FFFFC00003FFFE00001FFFFF80007FF0000000000007FF0000000000007FF8
310
000001FFFE0000007FFFFFF0001FFFFFFFF0000000000007FFFFF00000000000
310
07FFFF000000000003F8000000000003F000F0000000000003FFFFC00001FFFE
310
00001FFFFF80007FE0000000000007FE0000000000003FF8000001FFFE000000
310
7FFFFFF0001FFFFFFFF0000000000007FFFFF0000000000007FFFF0000000000
310
03F800001F800003F000E00001FFF00001FFFFC00001FFFE00000FFFFF80007F
310
E00001FFE00003FE00001FFF00003FF8000001FFFE0000007FFFFFF0001FFFFF
310
FFE000003E000003FFFFE000003E000003FFFF000000000003F00001FFF80001
310
F000E00007FFFC0001FFFFC00001FFFE00000FFFFF80007FC0000FFFFC0003FC
310
0000FFFFC0001FF8000001FFFE0000007FFFFFF0001FFFFFFFC00003FFE00001
310
FFFFC00003FFE00001FFFF0001FFFFFFFFF00007FFFE0001F000E0000FFFFF00
310
00FFFF800001FFFC00000FFFFF80007FC0001FFFFE0001FC0001FFFFE0001FF8
310
000001FFFE0000007FFFFFF0001FFFFFFF80000FFFF80000FFFF80000FFFF800
310
00FFFF0003FFFFFFFFE0000FFFFF8000F000C0003FFFFF8000FFFF800000FFFC
310
000007FFFF80007F80003FFFFF0001FC0003FFFFF0001FF8000001FFFE000000
310
7FFFFFF0001FFFFFFF80003FFFFE0000FFFF80003FFFFE0000FFFF0003FFFFFF
310
FFE0003FFFFF8000F000C0003FFFFF8000FFFF800000FFFC000007FFFF80007F
310
80007FFFFF8001F80007FFFFF8000FF8000001FFFE0000007FFFFFF0001FFFFF
310
FF00007FFFFF00007FFF00007FFFFF00007FFF0003FFFFFFFFE0003FFFFFC000
310
F000C0007FFFFFC000FFFF000000FFFC000007FFFF80007F8000FFFFFF8000F8
310
000FFFFFF8000FF8000001FFFE0000007FFFFFF0001FFFFFFF0000FFFFFF8000
310
7FFF0000FFFFFF80007FFF0003FFFFFFFFC0007FFFFFC00070008000FFFFFFC0
310
00FFFF000000FFF8000007FFFF80007F8000FFFFFF8000F8000FFFFFF8000FF8
310
000001FFFE0000007FFFFFF0001FFFFFFE0001FFFFFFC0003FFE0001FFFFFFC0
310
003FFF0003FFFFFFFFC0007FFFFFE00070008000FFFFFFC0007FFF0000007FF8
310
000003FFFF80007F0001FFFFFF8000F8000FFFFFF8000FF8000001FFFE000000
310
7FFFFFF0001FFFFFFE0001FFFFFFC0003FFE0001FFFFFFC0003FFF0003FFFFFF
310
FFC000FFFFFFE00070008000FFFFFFC0007FFF0000007FF8000003FFFF80007F
310
0001FFFFFF8000F8001FFFFFF8000FF8000001FFFE0000007FFFFFF0001FFFFF
310
FE0003FFFFFFE0003FFE0003FFFFFFE0003FFF0003FFFFFFFFC000FFFFFFE000
310
70008000FFFFFFC0007FFE0000007FF8000003FFFF80007F0001FFFFFF8000F0
310
001FFFFFF8000FF8000001FFFE0000007FFFFFF0001FFFFFFC0003FFFFFFE000
310
1FFC0003FFFFFFE0001FFF0003FFFFFFFFC000FFFFFFC00070008000FFFFFF80
310
007FFE0000007FF0000003FFFF80007F0001FFFFFF0000F0001FFFFFF8000FF8
310
000001FFFE0000007FFFFFF0001FFFFFFC0007FFFFFFF0001FFC0007FFFFFFF0
310
001FFF0003FFFFFFFFC000FFFFFFC00070008001FFFFFF0000FFFE0000003FF0
310
000001FFFF80007F0001FFFFFF0000F8001FFFFFF0000FF8000001FFFE000000
310
7FFFFFF0001FFFFFFC0007FFFFFFF0001FFC0007FFFFFFF0001FFF0003FFFFFF
310
FFC001FFFFFF80007000FFFFFFFFFE0000FFFE0008003FF0008001FFFF80007F
310
FFFFFFFFFC0000FFFFFFFFFFE0000FF8000001FFFE0000007FFFFFF0001FFFFF
310
F8000FFFFFFFF8000FF8000FFFFFFFF8000FFF0003FFFFFFFFFFFFFFFFFF0000
310
7000FFFFFFFFFC0000FFFC0008003FF0008001FFFF80007FFFFFFFFFF80001FF
310
FFFFFFFF80000FF8000001FFFE0000007FFFFFF0001FFFFFF8000FFFFFFFF800
310
0FF8000FFFFFFFF8000FFF0003FFFFFFFFFFFFFFFFFE0000F000FFFFFFFFE000
310
00FFFC000C003FE000C001FFFF80007FFFFFFFFFC00001FFFFFFFFFE00001FF8
310
000001FFFE0000007FFFFFF0001FFFFFF8000FFFFFFFF8000FF8000FFFFFFFF8
310
000FFF0003FFFFFFFFFFFFFFFFF00000F000FFFFFFFE000001FFFC000C001FE0
310
00C000FFFF80007FFFFFFFFE000001FFFFFFFFE000001FF80FFFFFFFFFFFFFC0
310
7FFFFFF0001FFFFFF8000FFFFFFFF8000FF8000FFFFFFFF8000FFF0003FFFFFF
310
FFFFFFFFFF800000F000FFFFFFC0000001FFFC001C001FE001C000FFFF80007F
310
FFFFFF80000003FFFFFFF80000001FF80FFFFFFFFFFFFFC07FFFFFF0001FFFFF
310
F8001FFFFFFFFC000FF8001FFFFFFFFC000FFF0003FFFFFFFFFFFFFFF0000001
310
F000FFFFF800000001FFF8001C001FE001C000FFFF80007FFFFFF800000003FF
310
FFFF800000003FF80FFFFFFFFFFFFFC07FFFFFF0001FFFFFF8001FFFFFFFFC00
310
0FF8001FFFFFFFFC000FFF0003FFFFFFFFFFFFFE00000001F000FFFFC0000000
310
03FFF8001E001FC001E000FFFF80007FFFFF8000000007FFFFFC000000003FF8
310
0FFFFFFFFFFFFFC07FFFFFF0001FFFFFF8001FFFFFFFFC000FF8001FFFFFFFFC
310
000FFF0003FFFFFFFFFFFFE000000003F000FFFE0000000007FFF8001E000FC0
310
01E0007FFF80007FFFFE0000000007FFFFE0000000007FF80FFFFFFFFFFFFFC0
310
7FFFFFF0001FFFFFF0001FFFFFFFFC0007F0001FFFFFFFFC0007FF0003FFFFFF
310
FFFFFF0000000003F000FFF80000000007FFF8001E000FC003E0007FFF80007F
310
FFF0000000000FFFFF8000000000FFF80FFFFFFFFFFFFFC07FFFFFF0001FFFFF
310
F0001FFFFFFFFC0007F0001FFFFFFFFC0007FF0003FFFFFFFFFFFC0000000007
310
F000FFE0000000000FFFF0003E000FC003E0007FFF80007FFFC0000000001FFF
310
FE0000000001FFF80FFFFFFFFFFFFFC07FFFFFF0001FFFFFF0001FFFFFFFFC00
310
07F0001FFFFFFFFC0007FF0003FFFFFFFFFFF0000000000FF000FFC000000000
310
1FFFF0003F000F8003F0003FFF80007FFF80000000003FFFF80000000003FFF8
310
0FFFFFFFFFFFFFC07FFFFFF0001FFFFFF0001FFFFFFFFC0007F0001FFFFFFFFC
310
0007FF0003FFFFFFFFFFE0000000001FF000FF00000000007FFFF0003F000780
310
03F0003FFF80007FFF00000000007FFFF00000000007FFF80FFFFFFFFFFFFFC0
310
7FFFFFF0001FFFFFF0001FFFFFFFFC0007F0001FFFFFFFFC0007FF0003FFFFFF
310
FFFF80000000007FF000FE0000000000FFFFE0003F00078007F0003FFF80007F
310
FE0000000001FFFFE0000000001FFFF80FFFFFFFFFFFFFC07FFFFFF0001FFFFF
310
F0001FFFFFFFFC0007F0001FFFFFFFFC0007FF0003FFFFFFFFFF0000000000FF
310
F000FC0000000003FFFFE0007F00078007F0003FFF80007FFC0000000007FFFF
310
C0000000007FFFF80FFFFFFFFFFFFFC07FFFFFF0001FFFFFF8001FFFFFFFFC00
310
0FF8001FFFFFFFFC000FFF0003FFFFFFFFFE0000000003FFF000FC000000000F
310
FFFFE0007F80070007F8001FFF80007FF8000000001FFFFF8000000001FFFFF8
310
0FFFFFFFFFFFFFC07FFFFFF0001FFFFFF8001FFFFFFFFC000FF8001FFFFFFFFC
310
000FFF0003FFFFFFFFFC000000000FFFF000F8000000007FFFFFE0007F800700
310
07F8001FFF80007FF000000000FFFFFF800000000FFFFFF80FFFFFFFFFFFFFC0
310
7FFFFFF0001FFFFFF8000FFFFFFFF8000FF8000FFFFFFFF8000FFF0003FFFFFF
310
FFFC000000007FFFF000F800000007FFFFFFC0007F8003000FF8001FFF80007F
310
F000000007FFFFFF000000007FFFFFF80FFFFFFFFFFFFFC07FFFFFF0001FFFFF
310
F8000FFFFFFFF8000FF8000FFFFFFFF8000FFF0003FFFFFFFFF80000000FFFFF
310
F000F0000000FFFFFFFFC000FF8003000FF8001FFF80007FE0000000FFFFFFFF
310
0000000FFFFFFFF8000001FFFE0000007FFFFFF0001FFFFFF8000FFFFFFFF800
310
0FF8000FFFFFFFF8000FFF0003FFFFFFFFF8000000FFFFFFF000F000000FFFFF
310
FFFFC000FFC002000FF8000FFF80007FE000001FFFFFFFFE000001FFFFFFFFF8
310
000001FFFE0000007FFFFFF0001FFFFFF8000FFFFFFFF8000FF8000FFFFFFFF8
310
000FFF0003FFFFFFFFF000001FFFFFFFF000E00000FFFFFFFFFFC000FFC00200
310
0FFC000FFF80007FE00001FFFFFFFFFE00001FFFFFFFFFF8000001FFFE000000
310
7FFFFFF0001FFFFFFC000FFFFFFFF8001FFC000FFFFFFFF8001FFF0003FFFFFF
310
FFF00001FFFFFFFFF000E00007FFFFFFFFFF8000FFC000001FFC000FFF80007F
310
C0000FFFFFFFFFFE0000FFFFFFFFFFF8000001FFFE0000007FFFFFF0001FFFFF
310
FC0007FFFFFFF0001FFC0007FFFFFFF0001FFF0003FFFFFFFFF00007FFFFFFFF
310
F000E0001FFFFFFFFFFF8000FFC000001FFC000FFF80007FC0003FFFFFFFFFFE
310
0001FFFFFFFFFFF8000001FFFE0000007FFFFFF0001FFFFFFC0007FFFFFFF000
310
1FFC0007FFFFFFF0001FFF0003FFFFFFFFF0001FFFFFFFFFF000E0003FFFFF00
310
03FF8001FFE000001FFC0007FF80007FC0007FFFFF0007FC0003FFFFF0003FF8
310
000001FFFE0000007FFFFFF0001FFFFFFC0003FFFFFFE0001FFC0003FFFFFFE0
310
001FFF0003FFFFFFFFF0003FFFFFFFFFF000E0003FFFFF0001FF8001FFE00000
310
1FFE0007FF80007FC0007FFFFE0003FC0007FFFFE0003FF8000001FFFE000000
310
7FFFFFF0001FFFFFFE0003FFFFFFE0003FFE0003FFFFFFE0003FFF0003FFFFFF
310
FFF0003FFFFF8001F000E0003FFFFF0001FF0001FFE000001FFE0007FF80007F
310
C0007FFFFE0003FC0007FFFFE0003FF8000001FFFE0000007FFFFFF0001FFFFF
310
FE0001FFFFFFC0003FFE0001FFFFFFC0003FFF0003FFFFFFFFF0003FFFFF0001
310
F000E0003FFFFF0003FF0001FFE000003FFE0007FF80007FC0007FFFFE0003FC
310
0007FFFFE0003FF8000001FFFE0000007FFFFFF0001FFFFFFF0001FFFFFFC000
310
7FFF0001FFFFFFC0007FFF0003FFFFFFFFF0003FFFFF0001F000E0003FFFFE00
310
03FF0003FFF000003FFE0003FF80007FC0007FFFFC0003FE0007FFFFE0003FF8
310
000001FFFE0000007FFFFFF0001FFFFFFF0000FFFFFF80007FFF0000FFFFFF80
310
007FFF0003FFFFFFFFF0003FFFFF0001F000E0003FFFFE0003FF0003FFF00000
310
3FFF0003FF80007FC0007FFFFC0007FE0007FFFFC0003FF8000001FFFE000000
310
7FFFFFF0001FFFFFFF80007FFFFF0000FFFF80007FFFFF0000FFFF0003FFFFFF
310
FFF0003FFFFF0003F000E0003FFFFC0003FE0003FFF000003FFF0003FF80007F
310
E0003FFFF80007FE0003FFFFC0007FF8000001FFFE0000007FFFFFF0001FFFFF
310
FF80003FFFFE0000FFFF80003FFFFE0000FFFF0003FFFFFFFFF0001FFFFE0003
310
F000F0001FFFF80003FE0003FFF000007FFF0001FF80007FE0003FFFF00007FE
310
0001FFFF80007FF8000001FFFE0000007FFFFFF0001FFFFFFFC0000FFFF80001
310
FFFFC0000FFFF80001FFFF0003FFFFFFFFF0001FFFFC0003F000F0000FFFF000
310
07FE0007FFF800007FFF0001FF80007FE0001FFFE00007FF0000FFFE00007FF8
310
000001FFFE0000007FFFFFF0001FFFFFFFC00003FFE00001FFFFC00003FFE000
310
01FFFF0003FFFFFFFFF8000FFFF80003F000F00003FFC00007FC0007FFF80000
310
7FFF8001FF80007FF00007FF80000FFF00007FF80000FFF8000001FFFE000000
310
7F80000000000001FFE000003E000003FFFFE000003E000003FFFF0003FFFFFF
310
FFF80003FFE00007F000F800000000000FFC0007FFF800007FFF8001FF80007F
310
F000000000000FFF000000000000FFF8000001FFFE0000007F80000000000001
310
FFF0000000000007FFFFF0000000000007FFFF0003FFFFFFFFFC00007E000007
310
F000F800000000000FFC0007FFF80000FFFF8000FF80007FF800000000001FFF
310
800000000001FFF8000001FFFE0000007F80000000000001FFF800000000000F
310
FFFFF800000000000FFFFF0003FFFFFFFFFC00000000000FF000FC0000000000
310
1FFC0007FFFC0000FFFF8000FF80007FF800000000003FFFC00000000001FFF8
310
000001FFFE0000007F80000000000001FFF800000000000FFFFFF80000000000
310
0FFFFF0003FFFFFFFFFE00000000001FF000FE00000000003FF8000FFFFC0000
310
FFFF8000FF80007FFC00000000003FFFC00000000003FFF8000001FFFE000000
310
7F80000000000001FFFC00000000001FFFFFFC00000000001FFFFF0003FFFFFF
310
FFFF00000000001FF000FF00000000003FF8000FFFFC0000FFFFC000FF80007F
310
FE00000000007FFFE00000000007FFF8000001FFFE0000007F80000000000001
310
FFFE00000000003FFFFFFE00000000003FFFFF0003FFFFFFFFFF80000000003F
310
F000FF80000000007FF8000FFFFC0001FFFFC0007F80007FFF0000000000FFFF
310
F0000000000FFFF800000000000000007F80000000000001FFFF8000000000FF
310
FFFFFF8000000000FFFFFF0003FFFFFFFFFFC0000000007FF000FFC000000000
310
FFF8000FFFFE0001FFFFC0007F80007FFF8000000001FFFFF8000000001FFFF8
310
00000000000000007F80000000000001FFFFC000000001FFFFFFFFC000000001
310
FFFFFF0003FFFFFFFFFFE000000000FFF000FFE000000003FFF0001FFFFE0001
310
FFFFC0007F80007FFFC000000007FFFFFE000000003FFFF80000000000000000
310
7F80000000000001FFFFE000000003FFFFFFFFE000000003FFFFFF0003FFFFFF
310
FFFFF000000003FFF000FFF80000000FFFF0001FFFFE0001FFFFE0007F80007F
310
FFF00000000FFFFFFF00000000FFFFF800000000000000007F80000000000001
310
FFFFF80000000FFFFFFFFFF80000000FFFFFFF0003FFFFFFFFFFFC0000000FFF
310
F000FFFE0000003FFFF0001FFFFE0003FFFFE0003F80007FFFFC0000003FFFFF
310
FFC0000003FFFFF800000000000000007F80000000000001FFFFFE0000003FFF
310
FFFFFFFE0000003FFFFFFF0003FFFFFFFFFFFF0000003FFFF000FFFF800000FF
310
FFF0001FFFFF0003FFFFE0003F80007FFFFF000001FFFFFFFFF800001FFFFFF8
310
00000000000000007F80000000000001FFFFFFC00001FFFFFFFFFFFFC00001FF
310
FFFFFF0003FFFFFFFFFFFFC00000FFFFF000FFFFF8000FFFFFFFFFFFFFFFFFFF
310
FFFFFFFFFFFFFFFFFFFFF0001FFFFFFFFFFF0000FFFFFFF80000000000000000
310
7FFFFFFFFFFFFFFFFFFFFFFC001FFFFFFFFFFFFFFC001FFFFFFFFFFFFFFFFFFF
310
FFFFFFFC001FFFFFF000FFFFFFFFFFFFFFFFFFFFFFFFFFFFFFFFFFFFFFFFFFFF
310
FFFFFFFFFFFFFFFFFFFFFFFFFFFFFFFFFFFFFFFFFFFFFFFFFFFFFFFFFFFFFFFF
310
FFFFFFFFFFFFFFFFFFFFFFFFFFFFFFFFFFFFFFFFFFFFFFFFFFFFFFFFFFFFFFFF
310
F000FFFFFFFFFFFFFFFFFFFFFFFFFFFFFFFFFFFFFFFFFFFFFFFFFFFFFFFFFFFF
310
FFFFFFFFFFFFFFFFFFFFFFFFFFFFFFFFFFFFFFFFFFFFFFFFFFFFFFFFFFFFFFFF
310
FFFFFFFFFFFFFFFFFFFFFFFFFFFFFFFFFFFFFFFFFFFFFFFFF000FFFFFFFFFFFF
310
FFFFFFFFFFFFFFFFFFFFFFFFFFFFFFFFFFFFFFFFFFFFFFFFFFFFFFFFFFFFFFFF
310
FFFFFFFFFFFFFFFFFFFFFFFFFFFFFFFFFFFFFFFFFFFFFFFFFFFFFFFFFFFFFFFF
310
FFFFFFFFFFFFFFFFFFFFFFFFFFFFFFFFF000FFFFFFFFFFFFFFFFFFFFFFFFFFFF
310
FFFFFFFFFFFFFFFFFFFFFFFFFFFFFFFFFFFFFFFFFFFFFFFFFFFFFFFFFFFFFFFF
310
FFFFFFFFFFFFFFFFFFFFFFFFFFFFFFFFFFFFFFFFFFFFFFFFFFFFFFFFFFFFFFFF
310
FFFFFFFFFFFFFFFFF000FFFFFFFFFFFFFFFFFFFFFFFFFFFFFFFFFFFFFFFFFFFF
310
FFFFFFFFFFFFFFFFFFFFFFFFFFFFFFFFFFFFFFFFFFFFFFFFFFFFFFFFFFFFFFFF
310
FFFFFFFFFFFFFFFFFFFFFFFFFFFFFFFFFFFFFFFFFFFFFFFFFFFFFFFFFFFFFFFF
310
F000FFFFFFFFFFFFFFFFFFFFFFFFFFFFFFFFFFFFFFFFFFFFFFFFFFFFFFFFFFFF
310
FFFFFFFFFFFFFFFFFFFFFFFFFFFFFFFFFFFFFFFFFFFFFFFFFFFFFFFFFFFFFFFF
310
FFFFFFFFFFFFFFFFFFFFFFFFFFFFFFFFFFFFFFFFFFFFFFFFF000FFFFFFFFFFFF
310
FFFFFFFFFFFFFFFFFFFFFFFFFFFFFFFFFFFFFFFFFFFFFFFFFFFFFFFFFFFFFFFF
310
FFFFFFFFFFFFFFFFFFFFFFFFFFFFFFFFFFFFFFFFFFFFFFFFFFFFFFFFFFFFFFFF
310
FFFFFFFFFFFFFFFFFFFFFFFFFFFFFFFFF000FFFFFFFFFFFFFFFFFFFFFFFFFFFF
310
FFFFFFFFFFFFFFFFFFFFFFFFFFFFFFFFFFFFFFFFFFFFFFFFFFFFFFFFFFFFFFFF
310
FFFFFFFFFFFFFFFFFFFFFFFFFFFFFFFFFFFFFFFFFFFFFFFFFFFFFFFFFFFFFFFF
310
FFFFFFFFFFFFFFFFF000FFFFFFFFFFFFFFFFFFFFFFFFFFFFFFFFFFFFFFFFFFFF
310
FFFFFFFFFFFFFFFFFFFFFFFFFFFFFFFFFFFFFFFFFFFFFFFFFFFFFFFFFFFFFFFF
310
FFFFFFFFFFFFFFFFFFFFFFFFFFFFFFFFFFFFFFFFFFFFFFFFFFFFFFFFFFFFFFFF
310
F000FFFFFFFFFFFFFFFFFFFFFFFFFFFFFFFFFFFFFFFFFFFFFFFFFFFFFFFFFFFF
310
FFFFFFFFFFFFFFFFFFFFFFFFFFFFFFFFFFFFFFFFFFFFFFFFFFFFFFFFFFFFFFFF
310
FFFFFFFFFFFFFFFFFFFFFFFFFFFFFFFFFFFFFFFFFFFFFFFFF000FFFFFFFFFFFF
310
FFFFFFFFFFFFFFFFFFFFFFFFFFFFFFFFFFFFFFFFFFFFFFFFFFFFFFFFFFFFFFFF
310
FFFFFFFFFFFFFFFFFFFFFFFFFFFFFFFFFFFFFFFFFFFFFFFFFFFFFFFFFFFFFFFF
310
FFFFFFFFFFFFFFFFFFFFFFFFFFFFFFFFF000FFFFFFFFFFFFFFFFFFFFFFFFFFFF
310
FFFFFFFFFFFFFFFFFFFFFFFFFFFFFFFFFFFFFFFFFFFFFFFFFFFFFFFFFFFFFFFF
310
FFFFFFFFFFFFFFFFFFFFFFFFFFFFFFFFFFFFFFFFFFFFFFFFFFFFFFFFFFFFFFFF
310
FFFFFFFFFFFFFFFFF000FFFFFFFFFFFFFFFFFFFFFFFFFFFFFFFFFFFFFFFFFFFF
310
FFFFFFFFFFFFFFFFFFFFFFFFFFFFFFFFFFFFFFFFFFFFFFFFFFFFFFFFFFFFFFFF
310
FFFFFFFFFFFFFFFFFFFFFFFFFFFFFFFFFFFFFFFFFFFFFFFFFFFFFFFFFFFFFFFF
310
F000FFFFFFFFFFFFFFFFFFFFFFFFFFFFFFFFFFFFFFFFFFFFFFFFFFFFFFFFFFFF
310
FFFFFFFFFFFFFFFFFFFFFFFFFFFFFFFFFFFFFFFFFFFFFFFFFFFFFFFFFFFFFFFF
310
FFFFFFFFFFFFFFFFFFFFFFFFFFFFFFFFFFFFFFFFFFFFFFFFF000FFFFFFFFFFFF
310
FFFFFFFFFFFFFFFFFFFFFFFFFFFFFFFFFFFFFFFFFFFFFFFFFFFFFFFFFFFFFFFF
310
FFFFFFFFFFFFFFFFFFFFFFFFFFFFFFFFFFFFFFFFFFFFFFFFFFFFFFFFFFFFFFFF
310
FFFFFFFFFFFFFFFFFFFFFFFFFFFFFFFFF000FFFFFFFFFFFFFFFFFFFFFFFFFFFF
310
FFFFFFFFFFFFFFFFFFFFFFFFFFFFFFFFFFFFFFFFFFFFFFFFFFFFFFFFFFFFFFFF
310
FFFFFFFFFFFFFFFFFFFFFFFFFFFFFFFFFFFFFFFFFFFFFFFFFFFFFFFFFFFFFFFF
310
FFFFFFFFFFFFFFFFF000FFFFFFFFFFFFFFFFFFFFFFFFFFFFFFFFFFFFFFFFFFFF
310
FFFFFFFFFFFFFFFFFFFFFFFFFFFFFFFFFFFFFFFFFFFFFFFFFFFFFFFFFFFFFFFF
310
FFFFFFFFFFFFFFFFFFFFFFFFFFFFFFFFFFFFFFFFFFFFFFFFFFFFFFFFFFFFFFFF
310
F000FFFFFFFFFFFFFFFFFFFFFFFFFFFFFFFFFFFFFFFFFFFFFFFFFFFFFFFFFFFF
310
FFFFFFFFFFFFFFFFFFFFFFFFFFFFFFFFFFFFFFFFFFFFFFFFFFFFFFFFFFFFFFFF
310
FFFFFFFFFFFFFFFFFFFFFFFFFFFFFFFFFFFFFFFFFFFFFFFFF000FFFFFFFFFFFF
310
FFFFFFFFFFFFFFFFFFFFFFFFFFFFFFFFFFFFFFFFFFFFFFFFFFFFFFFFFFFFFFFF
310
FFFFFFFFFFFFFFFFFFFFFFFFFFFFFFFFFFFFFFFFFFFFFFFFFFFFFFFFFFFFFFFF
310
FFFFFFFFFFFFFFFFFFFFFFFFFFFFFFFFF000FFFFFFFFFFFFFFFFFFFFFFFFFFFF
310
FFFFFFFFFFFFFFFFFFFFFFFFFFFFFFFFFFFFFFFFFFFFFFFFFFFFFFFFFFFFFFFF
310
FFFFFFFFFFFFFFFFFFFFFFFFFFFFFFFFFFFFFFFFFFFFFFFFFFFFFFFFFFFFFFFF
310
FFFFFFFFFFFFFFFFF000FFFFFFFFFFFFFFFFFFFFFFFFFFFFFFFFFFFFFFFFFFFF
310
FFFFFFFFFFFFFFFFFFFFFFFFFFFFFFFFFFFFFFFFFFFFFFFFFFFFFFFFFFFFFFFF
310
FFFFFFFFFFFFFFFFFFFFFFFFFFFFFFFFFFFFFFFFFFFFFFFFFFFFFFFFFFFFFFFF
310
F000FFFFFFFFFFFFFFFFFFFFFFFFFFFFFFFFFFFFFFFFFFFFFFFFFFFFFFFFFFFF
310
FFFFFFFFFFFFFFFFFFFFFFFFFFFFFFFFFFFFFFFFFFFFFFFFFFFFFFFFFFFFFFFF
310
FFFFFFFFFFFFFFFFFFFFFFFFFFFFFFFFFFFFFFFFFFFFFFFFF000FFFFFFFFFFFF
310
FFFFFFFFFFFFFFFFFFFFFFFFFFFFFFFFFFFFFFFFFFFFFFFFFFFFFFFFFFFFFFFF
310
FFFFFFFFFFFFFFFFFFFFFFFFFFFFFFFFFFFFFFFFFFFFFFFFFFFFFFFFFFFFFFFF
310
FFFFFFFFFFFFFFFFFFFFFFFFFFFFFFFFF0000000000000000000000000000000
310
0000000000000000000000000000000000000000000000000000000000000000
310
0000000000000000000000000000000000000000000000000000000000000000
310
0000000000000000000000000000000000000000000000000000000000000000
310
0000000000000000000000000000000000000000000000000000000000000000
310
0000000000000000000000000000000000000000000000000000000000000000
310
0000000000000000000000000000000000000000000000000000000000000000
310
0000000000000000000000000000000000000000000000000000000000000000
310
0000000000000000000000000000000000000000000000000000000000000000
310
0000000000000000000000000000000000000000000000000000000000000000
310
0000000000000000000000000000000000000000000000000000000000000000
310
0000000000000000000000000000000000000000000000000000000000000000
310
0000000000000000000000000000000000000000000000000000000000000000
310
0000000000000000000000000000000000000000000000000000000000000000
310
0000000000000000000000000000000000000000000000000000000000000000
310
0000000000000000000000000000000000000000000000000000000000000000
  1
OLE
  0
ENDSEC
  0
SECTION
  2
OBJECTS
  0
DICTIONARY
  5
C
330
0
100
AcDbDictionary
281
     1
  3
ACAD_GROUP
350
D
  3
ACAD_LAYOUT
350
1A
  3
ACAD_MLINESTYLE
350
17
  3
ACAD_PLOTSETTINGS
350
19
  3
ACAD_PLOTSTYLENAME
350
E
  3
ACAD_SCALELIST
350
47
  0
DICTIONARY
  5
D
102
{ACAD_REACTORS
330
C
102
}
330
C
100
AcDbDictionary
281
     1
  0
DICTIONARY
  5
1A
102
{ACAD_REACTORS
330
C
102
}
330
C
100
AcDbDictionary
281
     1
  3
Layout1
350
1E
  3
Layout2
350
26
  3
Model
350
22
  0
DICTIONARY
  5
17
102
{ACAD_REACTORS
330
C
102
}
330
C
100
AcDbDictionary
281
     1
  3
Standard
350
18
  0
DICTIONARY
  5
19
102
{ACAD_REACTORS
330
C
102
}
330
C
100
AcDbDictionary
281
     1
  0
ACDBDICTIONARYWDFLT
  5
E
102
{ACAD_REACTORS
330
C
102
}
330
C
100
AcDbDictionary
281
     1
  3
Normal
350
F
100
AcDbDictionaryWithDefault
340
F
  0
DICTIONARY
  5
47
102
{ACAD_REACTORS
330
C
102
}
330
C
100
AcDbDictionary
281
     1
  3
A0
350
48
  3
A1
350
49
  3
A2
350
4A
  3
A3
350
4B
  3
A4
350
4C
  3
A5
350
4D
  3
A6
350
4E
  3
A7
350
4F
  3
A8
350
50
  3
A9
350
51
  3
B0
350
52
  3
B1
350
53
  3
B2
350
54
  3
B3
350
55
  3
B4
350
56
  3
B5
350
57
  3
B6
350
58
  3
B7
350
59
  3
B8
350
5A
  3
B9
350
5B
  3
C0
350
5C
  3
C1
350
5D
  3
C2
350
5E
  3
C3
350
5F
  3
C4
350
60
  3
C5
350
61
  3
C6
350
62
  3
C7
350
63
  3
C8
350
64
  3
C9
350
65
  3
D0
350
66
  3
D1
350
67
  3
D2
350
68
  0
LAYOUT
  5
1E
102
{ACAD_REACTORS
330
1A
102
}
330
1A
100
AcDbPlotSettings
  1

  2
none_device
  4

  6

 40
0.0
 41
0.0
 42
0.0
 43
0.0
 44
0.0
 45
0.0
 46
0.0
 47
0.0
 48
0.0
 49
0.0
140
0.0
141
0.0
142
1.0
143
1.0
 70
   688
 72
     1
 73
     0
 74
     5
  7

 75
    16
147
1.0
148
0.0
149
0.0
100
AcDbLayout
  1
Layout1
 70
     1
 71
     1
 10
0.0
 20
0.0
 11
420.0
 21
297.0
 12
0.0
 22
0.0
 32
0.0
 14
1.0000000000E+20
 24
1.0000000000E+20
 34
1.0000000000E+20
 15
-1.0000000000E+20
 25
-1.0000000000E+20
 35
-1.0000000000E+20
146
0.0
 13
0.0
 23
0.0
 33
0.0
 16
1.0
 26
0.0
 36
0.0
 17
0.0
 27
1.0
 37
0.0
 76
     0
330
1B
  0
LAYOUT
  5
26
102
{ACAD_REACTORS
330
1A
102
}
330
1A
100
AcDbPlotSettings
  1

  2
none_device
  4

  6

 40
0.0
 41
0.0
 42
0.0
 43
0.0
 44
0.0
 45
0.0
 46
0.0
 47
0.0
 48
0.0
 49
0.0
140
0.0
141
0.0
142
1.0
143
1.0
 70
   688
 72
     1
 73
     0
 74
     5
  7

 75
    16
147
1.0
148
0.0
149
0.0
100
AcDbLayout
  1
Layout2
 70
     1
 71
     2
 10
0.0
 20
0.0
 11
0.0
 21
0.0
 12
0.0
 22
0.0
 32
0.0
 14
0.0
 24
0.0
 34
0.0
 15
0.0
 25
0.0
 35
0.0
146
0.0
 13
0.0
 23
0.0
 33
0.0
 16
1.0
 26
0.0
 36
0.0
 17
0.0
 27
1.0
 37
0.0
 76
     0
330
23
  0
LAYOUT
  5
22
102
{ACAD_REACTORS
330
1A
102
}
330
1A
100
AcDbPlotSettings
  1

  2
none_device
  4
Letter_(8.50_x_11.00_Inches)
  6

 40
6.35
 41
6.35
 42
6.35000508
 43
6.35000508
 44
215.9
 45
279.4
 46
0.0
 47
0.0
 48
0.0
 49
0.0
140
0.0
141
0.0
142
1.0
143
1.0
 70
  1712
 72
     1
 73
     0
 74
     0
  7

 75
     0
147
1.0
148
0.0
149
0.0
100
AcDbLayout
  1
Model
 70
     1
 71
     0
 10
0.0
 20
0.0
 11
297.0
 21
210.0
 12
0.0
 22
0.0
 32
0.0
 14
0.0
 24
0.0
 34
0.0
 15
297.0
 25
210.0
 35
0.0
146
0.0
 13
0.0
 23
0.0
 33
0.0
 16
1.0
 26
0.0
 36
0.0
 17
0.0
 27
1.0
 37
0.0
 76
     0
330
1F
331
29
  0
MLINESTYLE
  5
18
102
{ACAD_REACTORS
330
17
102
}
330
17
100
AcDbMlineStyle
  2
Standard
 70
     0
  3

 62
   256
 51
90.0
 52
90.0
 71
     2
 49
0.5
 62
   256
  6
BYLAYER
 49
-0.5
 62
   256
  6
BYLAYER
  0
ACDBPLACEHOLDER
  5
F
102
{ACAD_REACTORS
330
E
102
}
330
E
  0
SCALE
  5
48
102
{ACAD_REACTORS
330
47
102
}
330
47
100
AcDbScale
 70
     0
300
1:1
140
1.0
141
1.0
290
     1
  0
SCALE
  5
49
102
{ACAD_REACTORS
330
47
102
}
330
47
100
AcDbScale
 70
     0
300
1:2
140
1.0
141
2.0
290
     0
  0
SCALE
  5
4A
102
{ACAD_REACTORS
330
47
102
}
330
47
100
AcDbScale
 70
     0
300
1:4
140
1.0
141
4.0
290
     0
  0
SCALE
  5
4B
102
{ACAD_REACTORS
330
47
102
}
330
47
100
AcDbScale
 70
     0
300
1:5
140
1.0
141
5.0
290
     0
  0
SCALE
  5
4C
102
{ACAD_REACTORS
330
47
102
}
330
47
100
AcDbScale
 70
     0
300
1:8
140
1.0
141
8.0
290
     0
  0
SCALE
  5
4D
102
{ACAD_REACTORS
330
47
102
}
330
47
100
AcDbScale
 70
     0
300
1:10
140
1.0
141
10.0
290
     0
  0
SCALE
  5
4E
102
{ACAD_REACTORS
330
47
102
}
330
47
100
AcDbScale
 70
     0
300
1:16
140
1.0
141
16.0
290
     0
  0
SCALE
  5
4F
102
{ACAD_REACTORS
330
47
102
}
330
47
100
AcDbScale
 70
     0
300
1:20
140
1.0
141
20.0
290
     0
  0
SCALE
  5
50
102
{ACAD_REACTORS
330
47
102
}
330
47
100
AcDbScale
 70
     0
300
1:30
140
1.0
141
30.0
290
     0
  0
SCALE
  5
51
102
{ACAD_REACTORS
330
47
102
}
330
47
100
AcDbScale
 70
     0
300
1:40
140
1.0
141
40.0
290
     0
  0
SCALE
  5
52
102
{ACAD_REACTORS
330
47
102
}
330
47
100
AcDbScale
 70
     0
300
1:50
140
1.0
141
50.0
290
     0
  0
SCALE
  5
53
102
{ACAD_REACTORS
330
47
102
}
330
47
100
AcDbScale
 70
     0
300
1:100
140
1.0
141
100.0
290
     0
  0
SCALE
  5
54
102
{ACAD_REACTORS
330
47
102
}
330
47
100
AcDbScale
 70
     0
300
2:1
140
2.0
141
1.0
290
     0
  0
SCALE
  5
55
102
{ACAD_REACTORS
330
47
102
}
330
47
100
AcDbScale
 70
     0
300
4:1
140
4.0
141
1.0
290
     0
  0
SCALE
  5
56
102
{ACAD_REACTORS
330
47
102
}
330
47
100
AcDbScale
 70
     0
300
8:1
140
8.0
141
1.0
290
     0
  0
SCALE
  5
57
102
{ACAD_REACTORS
330
47
102
}
330
47
100
AcDbScale
 70
     0
300
10:1
140
10.0
141
1.0
290
     0
  0
SCALE
  5
58
102
{ACAD_REACTORS
330
47
102
}
330
47
100
AcDbScale
 70
     0
300
100:1
140
100.0
141
1.0
290
     0
  0
SCALE
  5
59
102
{ACAD_REACTORS
330
47
102
}
330
47
100
AcDbScale
 70
     0
300
1/128" = 1'-0"
140
0.0078125
141
12.0
290
     0
  0
SCALE
  5
5A
102
{ACAD_REACTORS
330
47
102
}
330
47
100
AcDbScale
 70
     0
300
1/64" = 1'-0"
140
0.015625
141
12.0
290
     0
  0
SCALE
  5
5B
102
{ACAD_REACTORS
330
47
102
}
330
47
100
AcDbScale
 70
     0
300
1/32" = 1'-0"
140
0.03125
141
12.0
290
     0
  0
SCALE
  5
5C
102
{ACAD_REACTORS
330
47
102
}
330
47
100
AcDbScale
 70
     0
300
1/16" = 1'-0"
140
0.0625
141
12.0
290
     0
  0
SCALE
  5
5D
102
{ACAD_REACTORS
330
47
102
}
330
47
100
AcDbScale
 70
     0
300
3/32" = 1'-0"
140
0.09375
141
12.0
290
     0
  0
SCALE
  5
5E
102
{ACAD_REACTORS
330
47
102
}
330
47
100
AcDbScale
 70
     0
300
1/8" = 1'-0"
140
0.125
141
12.0
290
     0
  0
SCALE
  5
5F
102
{ACAD_REACTORS
330
47
102
}
330
47
100
AcDbScale
 70
     0
300
3/16" = 1'-0"
140
0.1875
141
12.0
290
     0
  0
SCALE
  5
60
102
{ACAD_REACTORS
330
47
102
}
330
47
100
AcDbScale
 70
     0
300
1/4" = 1'-0"
140
0.25
141
12.0
290
     0
  0
SCALE
  5
61
102
{ACAD_REACTORS
330
47
102
}
330
47
100
AcDbScale
 70
     0
300
3/8" = 1'-0"
140
0.375
141
12.0
290
     0
  0
SCALE
  5
62
102
{ACAD_REACTORS
330
47
102
}
330
47
100
AcDbScale
 70
     0
300
1/2" = 1'-0"
140
0.5
141
12.0
290
     0
  0
SCALE
  5
63
102
{ACAD_REACTORS
330
47
102
}
330
47
100
AcDbScale
 70
     0
300
3/4" = 1'-0"
140
0.75
141
12.0
290
     0
  0
SCALE
  5
64
102
{ACAD_REACTORS
330
47
102
}
330
47
100
AcDbScale
 70
     0
300
1" = 1'-0"
140
1.0
141
12.0
290
     0
  0
SCALE
  5
65
102
{ACAD_REACTORS
330
47
102
}
330
47
100
AcDbScale
 70
     0
300
1-1/2" = 1'-0"
140
1.5
141
12.0
290
     0
  0
SCALE
  5
66
102
{ACAD_REACTORS
330
47
102
}
330
47
100
AcDbScale
 70
     0
300
3" = 1'-0"
140
3.0
141
12.0
290
     0
  0
SCALE
  5
67
102
{ACAD_REACTORS
330
47
102
}
330
47
100
AcDbScale
 70
     0
300
6" = 1'-0"
140
6.0
141
12.0
290
     0
  0
SCALE
  5
68
102
{ACAD_REACTORS
330
47
102
}
330
47
100
AcDbScale
 70
     0
300
1'-0" = 1'-0"
140
12.0
141
12.0
290
     0
  0
ENDSEC
  0
EOF
