  0
SECTION
  2
HEADER
  9
$ACADVER
  1
AC1015
  9
$ACADMAINTVER
 70
     6
  9
$DWGCODEPAGE
  3
ANSI_1252
  9
$INSBASE
 10
0.0
 20
0.0
 30
0.0
  9
$EXTMIN
 10
0.0
 20
0.0
 30
0.0
  9
$EXTMAX
 10
297.0
 20
210.0
 30
0.0
  9
$LIMMIN
 10
0.0
 20
0.0
  9
$LIMMAX
 10
297.0
 20
210.0
  9
$ORTHOMODE
 70
     0
  9
$REGENMODE
 70
     1
  9
$FILLMODE
 70
     1
  9
$QTEXTMODE
 70
     0
  9
$MIRRTEXT
 70
     1
  9
$LTSCALE
 40
1.0
  9
$ATTMODE
 70
     1
  9
$TEXTSIZE
 40
2.0
  9
$TRACEWID
 40
1.0
  9
$TEXTSTYLE
  7
Standard
  9
$CLAYER
  8
0
  9
$CELTYPE
  6
ByLayer
  9
$CECOLOR
 62
   256
  9
$CELTSCALE
 40
1.0
  9
$DISPSILH
 70
     0
  9
$DIMSCALE
 40
1.0
  9
$DIMASZ
 40
3.0
  9
$DIMEXO
 40
0.0
  9
$DIMDLI
 40
3.75
  9
$DIMRND
 40
0.0
  9
$DIMDLE
 40
0.0
  9
$DIMEXE
 40
1.0
  9
$DIMTP
 40
0.0
  9
$DIMTM
 40
0.0
  9
$DIMTXT
 40
2.0
  9
$DIMCEN
 40
2.5
  9
$DIMTSZ
 40
0.0
  9
$DIMTOL
 70
     0
  9
$DIMLIM
 70
     0
  9
$DIMTIH
 70
     1
  9
$DIMTOH
 70
     1
  9
$DIMSE1
 70
     0
  9
$DIMSE2
 70
     0
  9
$DIMTAD
 70
     1
  9
$DIMZIN
 70
     0
  9
$DIMBLK
  1

  9
$DIMASO
 70
     1
  9
$DIMSHO
 70
     1
  9
$DIMPOST
  1

  9
$DIMAPOST
  1

  9
$DIMALT
 70
     0
  9
$DIMALTD
 70
     3
  9
$DIMALTF
 40
0.0393700787
  9
$DIMLFAC
 40
1.0
  9
$DIMTOFL
 70
     1
  9
$DIMTVP
 40
0.0
  9
$DIMTIX
 70
     0
  9
$DIMSOXD
 70
     0
  9
$DIMSAH
 70
     0
  9
$DIMBLK1
  1

  9
$DIMBLK2
  1

  9
$DIMSTYLE
  2
ISO-25
  9
$DIMCLRD
 70
     0
  9
$DIMCLRE
 70
     0
  9
$DIMCLRT
 70
     0
  9
$DIMTFAC
 40
1.0
  9
$DIMGAP
 40
1.524
  9
$DIMJUST
 70
     0
  9
$DIMSD1
 70
     0
  9
$DIMSD2
 70
     0
  9
$DIMTOLJ
 70
     0
  9
$DIMTZIN
 70
     0
  9
$DIMALTZ
 70
     0
  9
$DIMALTTZ
 70
     0
  9
$DIMUPT
 70
     0
  9
$DIMDEC
 70
     2
  9
$DIMTDEC
 70
     3
  9
$DIMALTU
 70
     2
  9
$DIMALTTD
 70
     3
  9
$DIMTXSTY
  7
Standard
  9
$DIMAUNIT
 70
     0
  9
$DIMADEC
 70
     2
  9
$DIMALTRND
 40
0.0
  9
$DIMAZIN
 70
     0
  9
$DIMDSEP
 70
    44
  9
$DIMATFIT
 70
     3
  9
$DIMFRAC
 70
     0
  9
$DIMLDRBLK
  1

  9
$DIMLUNIT
 70
     2
  9
$DIMLWD
 70
    -2
  9
$DIMLWE
 70
    -2
  9
$DIMTMOVE
 70
     0
  9
$LUNITS
 70
     2
  9
$LUPREC
 70
     2
  9
$SKETCHINC
 40
1.0
  9
$FILLETRAD
 40
10.0
  9
$AUNITS
 70
     0
  9
$AUPREC
 70
     2
  9
$MENU
  1
.
  9
$ELEVATION
 40
0.0
  9
$PELEVATION
 40
0.0
  9
$THICKNESS
 40
0.0
  9
$LIMCHECK
 70
     0
  9
$CHAMFERA
 40
0.0
  9
$CHAMFERB
 40
0.0
  9
$CHAMFERC
 40
0.0
  9
$CHAMFERD
 40
0.0
  9
$SKPOLY
 70
     0
  9
$TDCREATE
 40
2459054.646103542
  9
$TDUCREATE
 40
2459054.562770208
  9
$TDUPDATE
 40
2459054.64610463
  9
$TDUUPDATE
 40
2459054.562771296
  9
$TDINDWG
 40
0.0000000116
  9
$TDUSRTIMER
 40
0.0000000116
  9
$USRTIMER
 70
     1
  9
$ANGBASE
 50
0.0
  9
$ANGDIR
 70
     0
  9
$PDMODE
 70
     0
  9
$PDSIZE
 40
-1.0
  9
$PLINEWID
 40
0.0
  9
$SPLFRAME
 70
     0
  9
$SPLINETYPE
 70
     6
  9
$SPLINESEGS
 70
     8
  9
$HANDSEED
  5
194
  9
$SURFTAB1
 70
     6
  9
$SURFTAB2
 70
     6
  9
$SURFTYPE
 70
     6
  9
$SURFU
 70
     6
  9
$SURFV
 70
     6
  9
$UCSBASE
  2

  9
$UCSNAME
  2

  9
$UCSORG
 10
0.0
 20
0.0
 30
0.0
  9
$UCSXDIR
 10
1.0
 20
0.0
 30
0.0
  9
$UCSYDIR
 10
0.0
 20
1.0
 30
0.0
  9
$UCSORTHOREF
  2

  9
$UCSORTHOVIEW
 70
     0
  9
$UCSORGTOP
 10
0.0
 20
0.0
 30
0.0
  9
$UCSORGBOTTOM
 10
0.0
 20
0.0
 30
0.0
  9
$UCSORGLEFT
 10
0.0
 20
0.0
 30
0.0
  9
$UCSORGRIGHT
 10
0.0
 20
0.0
 30
0.0
  9
$UCSORGFRONT
 10
0.0
 20
0.0
 30
0.0
  9
$UCSORGBACK
 10
0.0
 20
0.0
 30
0.0
  9
$PUCSBASE
  2

  9
$PUCSNAME
  2

  9
$PUCSORG
 10
0.0
 20
0.0
 30
0.0
  9
$PUCSXDIR
 10
1.0
 20
0.0
 30
0.0
  9
$PUCSYDIR
 10
0.0
 20
1.0
 30
0.0
  9
$PUCSORTHOREF
  2

  9
$PUCSORTHOVIEW
 70
     0
  9
$PUCSORGTOP
 10
0.0
 20
0.0
 30
0.0
  9
$PUCSORGBOTTOM
 10
0.0
 20
0.0
 30
0.0
  9
$PUCSORGLEFT
 10
0.0
 20
0.0
 30
0.0
  9
$PUCSORGRIGHT
 10
0.0
 20
0.0
 30
0.0
  9
$PUCSORGFRONT
 10
0.0
 20
0.0
 30
0.0
  9
$PUCSORGBACK
 10
0.0
 20
0.0
 30
0.0
  9
$USERI1
 70
     0
  9
$USERI2
 70
     0
  9
$USERI3
 70
     0
  9
$USERI4
 70
     0
  9
$USERI5
 70
     0
  9
$USERR1
 40
0.0
  9
$USERR2
 40
0.0
  9
$USERR3
 40
0.0
  9
$USERR4
 40
0.0
  9
$USERR5
 40
0.0
  9
$WORLDVIEW
 70
     1
  9
$SHADEDGE
 70
     3
  9
$SHADEDIF
 70
    70
  9
$TILEMODE
 70
     1
  9
$MAXACTVP
 70
    64
  9
$PINSBASE
 10
0.0
 20
0.0
 30
0.0
  9
$PLIMCHECK
 70
     0
  9
$PEXTMIN
 10
1.0000000000E+20
 20
1.0000000000E+20
 30
1.0000000000E+20
  9
$PEXTMAX
 10
-1.0000000000E+20
 20
-1.0000000000E+20
 30
-1.0000000000E+20
  9
$PLIMMIN
 10
0.0
 20
0.0
  9
$PLIMMAX
 10
420.0
 20
297.0
  9
$UNITMODE
 70
     0
  9
$VISRETAIN
 70
     1
  9
$PLINEGEN
 70
     0
  9
$PSLTSCALE
 70
     1
  9
$TREEDEPTH
 70
  3020
  9
$CMLSTYLE
  2
Standard
  9
$CMLJUST
 70
     0
  9
$CMLSCALE
 40
20.0
  9
$PROXYGRAPHICS
 70
     1
  9
$MEASUREMENT
 70
     1
  9
$CELWEIGHT
370
    -1
  9
$ENDCAPS
280
     0
  9
$JOINSTYLE
280
     0
  9
$LWDISPLAY
290
     1
  9
$INSUNITS
 70
     4
  9
$HYPERLINKBASE
  1

  9
$STYLESHEET
  1

  9
$XEDIT
290
     1
  9
$CEPSNTYPE
380
     0
  9
$PSTYLEMODE
290
     1
  9
$FINGERPRINTGUID
  2
{0E51218C-27D4-4DC4-B33D-32BF2EA200F3}
  9
$VERSIONGUID
  2
{FAEB1C32-E019-11D5-929B-00C0DF256EC4}
  9
$EXTNAMES
290
     1
  9
$PSVPSCALE
 40
0.0
  9
$OLESTARTUP
290
     0
  0
ENDSEC
  0
SECTION
  2
CLASSES
  0
CLASS
  1
ACDBDICTIONARYWDFLT
  2
AcDbDictionaryWithDefault
  3
ObjectDBX Classes
 90
        0
280
     0
281
     0
  0
CLASS
  1
VISUALSTYLE
  2
AcDbVisualStyle
  3
ObjectDBX Classes
 90
     4095
280
     0
281
     0
  0
CLASS
  1
MATERIAL
  2
AcDbMaterial
  3
ObjectDBX Classes
 90
     1153
280
     0
281
     0
  0
CLASS
  1
SCALE
  2
AcDbScale
  3
ObjectDBX Classes
 90
     1153
280
     0
281
     0
  0
CLASS
  1
TABLESTYLE
  2
AcDbTableStyle
  3
ObjectDBX Classes
 90
     4095
280
     0
281
     0
  0
CLASS
  1
MLEADERSTYLE
  2
AcDbMLeaderStyle
  3
ACDB_MLEADERSTYLE_CLASS
 90
     4095
280
     0
281
     0
  0
CLASS
  1
SUN
  2
AcDbSun
  3
SCENEOE
 90
     1153
280
     0
281
     0
  0
CLASS
  1
ACDBPLACEHOLDER
  2
AcDbPlaceHolder
  3
ObjectDBX Classes
 90
        0
280
     0
281
     0
  0
CLASS
  1
LAYOUT
  2
AcDbLayout
  3
ObjectDBX Classes
 90
        0
280
     0
281
     0
  0
ENDSEC
  0
SECTION
  2
TABLES
  0
TABLE
  2
VPORT
  5
8
330
0
100
AcDbSymbolTable
 70
     1
  0
VPORT
  5
29
330
8
100
AcDbSymbolTableRecord
100
AcDbViewportTableRecord
  2
*Active
 70
     0
 10
0.0
 20
0.0
 11
1.0
 21
1.0
 12
148.5
 22
105.0
 13
0.0
 23
0.0
 14
10.0
 24
10.0
 15
10.0
 25
10.0
 16
0.0
 26
0.0
 36
1.0
 17
0.0
 27
0.0
 37
0.0
 40
210.0
 41
1.4142857143
 42
50.0
 43
0.0
 44
0.0
 50
0.0
 51
0.0
 71
     0
 72
  2000
 73
     1
 74
     3
 75
     0
 76
     0
 77
     0
 78
     0
281
     0
 65
     1
110
0.0
120
0.0
130
0.0
111
1.0
121
0.0
131
0.0
112
0.0
122
1.0
132
0.0
 79
     0
146
0.0
  0
ENDTAB
  0
TABLE
  2
LTYPE
  5
5
330
0
100
AcDbSymbolTable
 70
     6
  0
LTYPE
  5
14
330
5
100
AcDbSymbolTableRecord
100
AcDbLinetypeTableRecord
  2
ByBlock
 70
     0
  3

 72
    65
 73
     0
 40
0.0
  0
LTYPE
  5
15
330
5
100
AcDbSymbolTableRecord
100
AcDbLinetypeTableRecord
  2
ByLayer
 70
     0
  3

 72
    65
 73
     0
 40
0.0
  0
LTYPE
  5
16
330
5
100
AcDbSymbolTableRecord
100
AcDbLinetypeTableRecord
  2
Continuous
 70
     0
  3
Solid line
 72
    65
 73
     0
 40
0.0
  0
LTYPE
  5
6E
330
5
100
AcDbSymbolTableRecord
100
AcDbLinetypeTableRecord
  2
HIDDEN
 70
     0
  3
Hidden __ __ __ __ __ __ __ __ __ __ __ __ __ __
 72
    65
 73
     2
 40
1.905
 49
1.27
 74
     0
 49
-0.635
 74
     0
  0
LTYPE
  5
6F
330
5
100
AcDbSymbolTableRecord
100
AcDbLinetypeTableRecord
  2
PHANTOM
 70
     0
  3
Phantom ______  __  __  ______  __  __  ______
 72
    65
 73
     6
 40
12.7
 49
6.35
 74
     0
 49
-1.27
 74
     0
 49
1.27
 74
     0
 49
-1.27
 74
     0
 49
1.27
 74
     0
 49
-1.27
 74
     0
  0
LTYPE
  5
70
330
5
100
AcDbSymbolTableRecord
100
AcDbLinetypeTableRecord
  2
CENTER
 70
     0
  3
Center ____ _ ____ _ ____ _ ____ _ ____ _ ____
 72
    65
 73
     4
 40
10.16
 49
6.35
 74
     0
 49
-1.27
 74
     0
 49
1.27
 74
     0
 49
-1.27
 74
     0
  0
LTYPE
  5
71
330
5
100
AcDbSymbolTableRecord
100
AcDbLinetypeTableRecord
  2
CENTERX2
 70
     0
  3
Center (2x) ________  __  ________  __  _____
 72
    65
 73
     4
 40
20.32
 49
12.7
 74
     0
 49
-2.54
 74
     0
 49
2.54
 74
     0
 49
-2.54
 74
     0
  0
LTYPE
  5
72
330
5
100
AcDbSymbolTableRecord
100
AcDbLinetypeTableRecord
  2
DOT2
 70
     0
  3
Dot (.5x) ........................................
 72
    65
 73
     2
 40
0.635
 49
0.0
 74
     0
 49
-0.635
 74
     0
  0
ENDTAB
  0
TABLE
  2
LAYER
  5
2
330
0
100
AcDbSymbolTable
 70
     5
  0
LAYER
  5
10
330
2
100
AcDbSymbolTableRecord
100
AcDbLayerTableRecord
  2
0
 70
     0
 62
     7
  6
Continuous
370
    -3
390
F
  0
LAYER
  5
73
330
2
100
AcDbSymbolTableRecord
100
AcDbLayerTableRecord
  2
FORMAT
 70
     0
 62
     7
  6
Continuous
370
    -3
390
F
  0
LAYER
  5
74
330
2
100
AcDbSymbolTableRecord
100
AcDbLayerTableRecord
  2
VERMASSUNG
 70
     0
 62
     7
  6
Continuous
370
    -3
390
F
  0
LAYER
  5
75
330
2
100
AcDbSymbolTableRecord
100
AcDbLayerTableRecord
  2
KOPF_DÜNN
 70
     0
 62
     7
  6
Continuous
370
    -3
390
F
  0
LAYER
  5
76
330
2
100
AcDbSymbolTableRecord
100
AcDbLayerTableRecord
  2
KOPF_DICK
 70
     0
 62
     7
  6
Continuous
370
    25
390
F
  0
ENDTAB
  0
TABLE
  2
STYLE
  5
3
330
0
100
AcDbSymbolTable
 70
     2
  0
STYLE
  5
11
330
3
100
AcDbSymbolTableRecord
100
AcDbTextStyleTableRecord
  2
Standard
 70
     0
 40
0.0
 41
1.0
 50
0.0
 71
     0
 42
2.0
  3
txt
  4

  0
STYLE
  5
77
330
3
100
AcDbSymbolTableRecord
100
AcDbTextStyleTableRecord
  2
SLDTEXTSTYLE0
 70
     0
 40
0.0
 41
0.7
 50
0.0
 71
     0
 42
2.0
  3
TXT
  4

  0
ENDTAB
  0
TABLE
  2
VIEW
  5
6
330
0
100
AcDbSymbolTable
 70
     0
  0
ENDTAB
  0
TABLE
  2
UCS
  5
7
330
0
100
AcDbSymbolTable
 70
     0
  0
ENDTAB
  0
TABLE
  2
APPID
  5
9
330
0
100
AcDbSymbolTable
 70
     1
  0
APPID
  5
12
330
9
100
AcDbSymbolTableRecord
100
AcDbRegAppTableRecord
  2
ACAD
 70
     0
  0
ENDTAB
  0
TABLE
  2
DIMSTYLE
  5
A
330
0
100
AcDbSymbolTable
 70
     3
100
AcDbDimStyleTable
  0
DIMSTYLE
105
27
330
A
100
AcDbSymbolTableRecord
100
AcDbDimStyleTableRecord
  2
ISO-25
 70
     0
 41
2.5
 42
0.625
 43
3.75
 44
1.25
 73
     0
 74
     0
 77
     1
 78
     8
140
2.5
141
2.5
143
0.0393700787
147
0.625
171
     3
172
     1
178
     0
271
     2
272
     2
274
     3
278
    44
283
     0
284
     8
340
11
  0
DIMSTYLE
105
171
102
{ACAD_REACTORS
330
170
102
}
330
A
100
AcDbSymbolTableRecord
100
AcDbDimStyleTableRecord
  2
SLDDIMSTYLE0
 70
     0
 41
3.0
 44
0.0
 45
0.000000001
 73
     0
 74
     0
 76
     1
 77
     1
 78
    12
 79
     3
140
2.0
147
0.5
173
     1
178
     0
271
     2
272
     3
276
     2
282
     1
284
    12
340
77
  0
DIMSTYLE
105
17C
102
{ACAD_REACTORS
330
17B
330
186
102
}
330
A
100
AcDbSymbolTableRecord
100
AcDbDimStyleTableRecord
  2
SLDDIMSTYLE1
 70
     0
 41
3.0
 44
0.0
 45
0.000000001
 73
     0
 74
     0
 77
     1
 78
    12
 79
     3
140
2.0
147
0.5
173
     1
178
     0
271
     2
272
     3
276
     2
284
    12
340
77
  0
ENDTAB
  0
TABLE
  2
BLOCK_RECORD
  5
1
330
0
100
AcDbSymbolTable
 70
     4
  0
BLOCK_RECORD
  5
1F
330
1
100
AcDbSymbolTableRecord
100
AcDbBlockTableRecord
  2
*Model_Space
340
22
  0
BLOCK_RECORD
  5
1B
330
1
100
AcDbSymbolTableRecord
100
AcDbBlockTableRecord
  2
*Paper_Space
340
1E
  0
BLOCK_RECORD
  5
23
330
1
100
AcDbSymbolTableRecord
100
AcDbBlockTableRecord
  2
*Paper_Space0
340
26
  0
BLOCK_RECORD
  5
172
330
1
100
AcDbSymbolTableRecord
100
AcDbBlockTableRecord
  2
_D
340
0
  0
BLOCK_RECORD
  5
17D
330
1
100
AcDbSymbolTableRecord
100
AcDbBlockTableRecord
  2
_D_1
340
0
  0
BLOCK_RECORD
  5
187
330
1
100
AcDbSymbolTableRecord
100
AcDbBlockTableRecord
  2
_D_2
340
0
  0
ENDTAB
  0
ENDSEC
  0
SECTION
  2
BLOCKS
  0
BLOCK
  5
20
330
1F
100
AcDbEntity
  8
0
100
AcDbBlockBegin
  2
*Model_Space
 70
     0
 10
0.0
 20
0.0
 30
0.0
  3
*Model_Space
  1

  0
ENDBLK
  5
21
330
1F
100
AcDbEntity
  8
0
100
AcDbBlockEnd
  0
BLOCK
  5
1C
330
1B
100
AcDbEntity
 67
     1
  8
0
100
AcDbBlockBegin
  2
*Paper_Space
 70
     0
 10
0.0
 20
0.0
 30
0.0
  3
*Paper_Space
  1

  0
ENDBLK
  5
1D
330
1B
100
AcDbEntity
 67
     1
  8
0
100
AcDbBlockEnd
  0
BLOCK
  5
24
330
23
100
AcDbEntity
  8
0
100
AcDbBlockBegin
  2
*Paper_Space0
 70
     0
 10
0.0
 20
0.0
 30
0.0
  3
*Paper_Space0
  1

  0
ENDBLK
  5
25
330
23
100
AcDbEntity
  8
0
100
AcDbBlockEnd
  0
BLOCK
  5
173
330
172
100
AcDbEntity
  8
0
100
AcDbBlockBegin
  2
_D
 70
     0
 10
0.0
 20
0.0
 30
0.0
  3
_D
  1

  0
SOLID
  5
175
330
172
100
AcDbEntity
  8
VERMASSUNG
100
AcDbTrace
 10
217.5189754093
 20
132.9499075975
 30
0.0
 11
217.0689754093
 21
129.9499075975
 31
0.0
 12
217.9689754093
 22
129.9499075975
 32
0.0
 13
217.9689754093
 23
129.9499075975
 33
0.0
  0
LINE
  5
176
330
172
100
AcDbEntity
  8
VERMASSUNG
100
AcDbLine
 10
208.0717639371
 20
132.9499075975
 30
0.0
 11
218.5189754093
 21
132.9499075975
 31
0.0
  0
LINE
  5
177
330
172
100
AcDbEntity
  8
VERMASSUNG
100
AcDbLine
 10
217.5189754093
 20
132.9499075975
 30
0.0
 11
217.5189754093
 21
105.4685019933
 31
0.0
  0
MTEXT
  5
178
330
172
100
AcDbEntity
  8
VERMASSUNG
100
AcDbMText
 10
214.9408398716
 20
107.0560019933
 30
0.0
 40
2.0
 41
0.0
 71
     1
 72
     1
  1
%%c
  7
SLDTEXTSTYLE0
 11
-7.044195017643634E-15
 21
1.0
 31
0.0
 73
     1
 44
1.0
  0
MTEXT
  5
179
330
172
100
AcDbEntity
  8
VERMASSUNG
100
AcDbMText
 10
214.9408398134
 20
110.665356324
 30
0.0
 40
2.0
 41
0.0
 71
     1
 72
     1
  1
34.75
  7
SLDTEXTSTYLE0
 11
-7.044195017643634E-15
 21
1.0
 31
0.0
 73
     1
 44
1.0
  0
MTEXT
  5
17A
330
172
100
AcDbEntity
  8
VERMASSUNG
100
AcDbMText
 10
214.9408398134
 20
117.064852387
 30
0.0
 40
2.0
 41
0.0
 71
     1
 72
     1
  1
-40.1
  7
SLDTEXTSTYLE0
 11
-7.044195017643634E-15
 21
1.0
 31
0.0
 73
     1
 44
1.0
  0
ENDBLK
  5
174
330
172
100
AcDbEntity
  8
0
100
AcDbBlockEnd
  0
BLOCK
  5
17E
330
17D
100
AcDbEntity
  8
0
100
AcDbBlockBegin
  2
_D_1
 70
     0
 10
0.0
 20
0.0
 30
0.0
  3
_D_1
  1

  0
SOLID
  5
180
330
17D
100
AcDbEntity
  8
VERMASSUNG
100
AcDbTrace
 10
208.0717639371
 20
141.189572818
 30
0.0
 11
205.0717639371
 21
141.639572818
 31
0.0
 12
205.0717639371
 22
140.739572818
 32
0.0
 13
205.0717639371
 23
140.739572818
 33
0.0
  0
SOLID
  5
181
330
17D
100
AcDbEntity
  8
VERMASSUNG
100
AcDbTrace
 10
93.0717639371
 20
141.189572818
 30
0.0
 11
96.0717639371
 21
140.739572818
 31
0.0
 12
96.0717639371
 22
141.639572818
 32
0.0
 13
96.0717639371
 23
141.639572818
 33
0.0
  0
LINE
  5
182
330
17D
100
AcDbEntity
  8
VERMASSUNG
100
AcDbLine
 10
208.0717639371
 20
132.9499075975
 30
0.0
 11
208.0717639371
 21
142.189572818
 31
0.0
  0
LINE
  5
183
330
17D
100
AcDbEntity
  8
VERMASSUNG
100
AcDbLine
 10
93.0717639371
 20
121.7749075975
 30
0.0
 11
93.0717639371
 21
142.189572818
 31
0.0
  0
LINE
  5
184
330
17D
100
AcDbEntity
  8
VERMASSUNG
100
AcDbLine
 10
208.0717639371
 20
141.189572818
 30
0.0
 11
93.0717639371
 21
141.189572818
 31
0.0
  0
MTEXT
  5
185
330
17D
100
AcDbEntity
  8
VERMASSUNG
100
AcDbMText
 10
145.3101297081
 20
143.7677084139
 30
0.0
 40
2.0
 41
0.0
 71
     1
 72
     1
  1
115
  7
SLDTEXTSTYLE0
 73
     1
 44
1.0
  0
ENDBLK
  5
17F
330
17D
100
AcDbEntity
  8
0
100
AcDbBlockEnd
  0
BLOCK
  5
188
330
187
100
AcDbEntity
  8
0
100
AcDbBlockBegin
  2
_D_2
 70
     0
 10
0.0
 20
0.0
 30
0.0
  3
_D_2
  1

  0
SOLID
  5
18A
330
187
100
AcDbEntity
  8
VERMASSUNG
100
AcDbTrace
 10
86.6556619811
 20
123.5749075975
 30
0.0
 11
86.2056619811
 21
120.5749075975
 31
0.0
 12
87.1056619811
 22
120.5749075975
 32
0.0
 13
87.1056619811
 23
120.5749075975
 33
0.0
  0
SOLID
  5
18B
330
187
100
AcDbEntity
  8
VERMASSUNG
100
AcDbTrace
 10
86.6556619811
 20
107.5749075975
 30
0.0
 11
87.1056619811
 21
110.5749075975
 31
0.0
 12
86.2056619811
 22
110.5749075975
 32
0.0
 13
86.2056619811
 23
110.5749075975
 33
0.0
  0
LINE
  5
18C
330
187
100
AcDbEntity
  8
VERMASSUNG
100
AcDbLine
 10
104.3717639371
 20
123.5749075975
 30
0.0
 11
85.6556619811
 21
123.5749075975
 31
0.0
  0
LINE
  5
18D
330
187
100
AcDbEntity
  8
VERMASSUNG
100
AcDbLine
 10
94.4467639371
 20
107.5749075975
 30
0.0
 11
85.6556619811
 21
107.5749075975
 31
0.0
  0
LINE
  5
18E
330
187
100
AcDbEntity
  8
VERMASSUNG
100
AcDbLine
 10
86.6556619811
 20
123.5749075975
 30
0.0
 11
86.6556619811
 21
107.5749075975
 31
0.0
  0
MTEXT
  5
18F
330
187
100
AcDbEntity
  8
VERMASSUNG
100
AcDbMText
 10
84.0775264433
 20
112.1636532699
 30
0.0
 40
2.0
 41
0.0
 71
     1
 72
     1
  1
%%c
  7
SLDTEXTSTYLE0
 11
-7.044195017643634E-15
 21
1.0
 31
0.0
 73
     1
 44
1.0
  0
MTEXT
  5
190
330
187
100
AcDbEntity
  8
VERMASSUNG
100
AcDbMText
 10
84.0775263851
 20
115.7730076006
 30
0.0
 40
2.0
 41
0.0
 71
     1
 72
     1
  1
16
  7
SLDTEXTSTYLE0
 11
-7.044195017643634E-15
 21
1.0
 31
0.0
 73
     1
 44
1.0
  0
ENDBLK
  5
189
330
187
100
AcDbEntity
  8
0
100
AcDbBlockEnd
  0
ENDSEC
  0
SECTION
  2
ENTITIES
  0
MTEXT
  5
78
330
1F
100
AcDbEntity
  8
KOPF_DÜNN
100
AcDbMText
 10
13.8892156294
 20
23.8442973028
 30
0.0
 40
3.0
 41
0.0
 71
     1
 72
     1
  1
M54.035.009.115
  7
SLDTEXTSTYLE0
 73
     1
 44
1.0
  0
MTEXT
  5
79
330
1F
100
AcDbEntity
  8
VERMASSUNG
100
AcDbMText
 10
13.9329988022
 20
28.8834360957
 30
0.0
 40
3.0
 41
0.0
 71
     1
 72
     1
  1
Ausdrehstahl_Boring bar ø34.75-40.1
  7
SLDTEXTSTYLE0
 73
     1
 44
1.0
  0
MTEXT
  5
7A
330
1F
100
AcDbEntity
  8
VERMASSUNG
100
AcDbMText
 10
98.8601118557
 20
13.8365368761
 30
0.0
 40
2.0
 41
0.0
 71
     1
 72
     1
  1
Datum: 03.08.2006
  7
SLDTEXTSTYLE0
 73
     1
 44
1.0
  0
MTEXT
  5
7B
330
1F
100
AcDbEntity
  8
VERMASSUNG
100
AcDbMText
 10
13.933048693
 20
18.0482802738
 30
0.0
 40
2.0
 41
0.0
 71
     1
 72
     1
  1
mit Innenkühlung_with spindel coolant feed
  7
SLDTEXTSTYLE0
 73
     1
 44
1.0
  0
MTEXT
  5
7C
330
1F
100
AcDbEntity
  8
VERMASSUNG
100
AcDbMText
 10
13.9808475933
 20
13.9090974274
 30
0.0
 40
2.0
 41
0.0
 71
     1
 72
     1
  1
Gewicht: 185g
  7
SLDTEXTSTYLE0
 73
     1
 44
1.0
  0
LINE
  5
7D
330
1F
100
AcDbEntity
  8
0
  6
Continuous
 62
     7
370
    25
100
AcDbLine
 10
204.0136334856
 20
126.1225874695
 30
0.0
 11
204.0136334856
 21
126.0047822319
 31
0.0
  0
LINE
  5
7E
330
1F
100
AcDbEntity
  8
0
  6
Continuous
 62
     7
370
    25
100
AcDbLine
 10
202.1263957401
 20
126.5393137046
 30
0.0
 11
202.1263957401
 21
126.6551214742
 31
0.0
  0
LINE
  5
7F
330
1F
100
AcDbEntity
  8
0
  6
Continuous
 62
     7
370
    25
100
AcDbLine
 10
200.6022572417
 20
127.250822466
 30
0.0
 11
200.6022572417
 21
127.1876729128
 31
0.0
  0
LINE
  5
80
330
1F
100
AcDbEntity
  8
0
  6
Continuous
 62
     7
370
    25
100
AcDbLine
 10
205.8522572417
 20
127.1876729128
 30
0.0
 11
205.8522572417
 21
127.250822466
 31
0.0
  0
LINE
  5
81
330
1F
100
AcDbEntity
  8
0
  6
Continuous
 62
     7
370
    25
100
AcDbLine
 10
204.3234242226
 20
127.8803324508
 30
0.0
 11
204.3234242226
 21
127.7646004233
 31
0.0
  0
LINE
  5
82
330
1F
100
AcDbEntity
  8
0
  6
Continuous
 62
     7
370
    25
100
AcDbLine
 10
202.4361864771
 20
128.299131896
 30
0.0
 11
202.4361864771
 21
128.4169566131
 31
0.0
  0
LINE
  5
83
330
1F
100
AcDbEntity
  8
0
  6
Continuous
 62
     7
370
    25
100
AcDbLine
 10
189.7392464862
 20
129.2423901466
 30
0.0
 11
186.0717639371
 21
125.5749075975
 31
0.0
  0
LINE
  5
84
330
1F
100
AcDbEntity
  8
0
  6
Continuous
 62
     7
370
    25
100
AcDbLine
 10
186.0717639371
 20
105.5749075975
 30
0.0
 11
186.5717639371
 21
105.0749075975
 31
0.0
  0
LINE
  5
85
330
1F
100
AcDbEntity
  8
0
  6
Continuous
 62
     7
370
    25
100
AcDbLine
 10
186.5717639371
 20
105.0749075975
 30
0.0
 11
186.7907821471
 21
105.0749075975
 31
0.0
  0
LINE
  5
86
330
1F
100
AcDbEntity
  8
0
  6
Continuous
 62
     7
370
    25
100
AcDbLine
 10
180.0717639371
 20
125.5749075975
 30
0.0
 11
178.0717639371
 21
123.5749075975
 31
0.0
  0
LINE
  5
87
330
1F
100
AcDbEntity
  8
0
  6
Continuous
 62
     7
370
    25
100
AcDbLine
 10
178.0717639371
 20
107.5749075975
 30
0.0
 11
180.0717639371
 21
105.5749075975
 31
0.0
  0
LINE
  5
88
330
1F
100
AcDbEntity
  8
0
  6
Continuous
 62
     7
370
    25
100
AcDbLine
 10
180.0717639371
 20
105.5749075975
 30
0.0
 11
186.0717639371
 21
105.5749075975
 31
0.0
  0
LINE
  5
89
330
1F
100
AcDbEntity
  8
0
  6
Continuous
 62
     7
370
    25
100
AcDbLine
 10
186.0717639371
 20
125.5749075975
 30
0.0
 11
180.0717639371
 21
125.5749075975
 31
0.0
  0
LINE
  5
8A
330
1F
100
AcDbEntity
  8
0
  6
Continuous
 62
     7
370
    25
100
AcDbLine
 10
93.0717639371
 20
108.9499075975
 30
0.0
 11
94.4467639371
 21
107.5749075975
 31
0.0
  0
LINE
  5
8B
330
1F
100
AcDbEntity
  8
0
  6
Continuous
 62
     7
370
    25
100
AcDbLine
 10
94.4467639371
 20
107.5749075975
 30
0.0
 11
178.0717639371
 21
107.5749075975
 31
0.0
  0
LINE
  5
8C
330
1F
100
AcDbEntity
  8
0
  6
Continuous
 62
     7
370
    25
100
AcDbLine
 10
107.2717639371
 20
123.5749075975
 30
0.0
 11
104.3717639371
 21
123.5749075975
 31
0.0
  0
LINE
  5
8D
330
1F
100
AcDbEntity
  8
0
  6
Continuous
 62
     7
370
    25
100
AcDbLine
 10
121.7717639371
 20
123.5749075975
 30
0.0
 11
118.8717639371
 21
123.5749075975
 31
0.0
  0
LINE
  5
8E
330
1F
100
AcDbEntity
  8
0
  6
Continuous
 62
     7
370
    25
100
AcDbLine
 10
136.2717639371
 20
123.5749075975
 30
0.0
 11
133.3717639371
 21
123.5749075975
 31
0.0
  0
LINE
  5
8F
330
1F
100
AcDbEntity
  8
0
  6
Continuous
 62
     7
370
    25
100
AcDbLine
 10
150.7717639371
 20
123.5749075975
 30
0.0
 11
147.8717639371
 21
123.5749075975
 31
0.0
  0
LINE
  5
90
330
1F
100
AcDbEntity
  8
0
  6
Continuous
 62
     7
370
    25
100
AcDbLine
 10
178.0717639371
 20
123.5749075975
 30
0.0
 11
162.3717639371
 21
123.5749075975
 31
0.0
  0
LINE
  5
91
330
1F
100
AcDbEntity
  8
0
  6
Continuous
 62
     7
370
    25
100
AcDbLine
 10
194.0673636362
 20
130.0055539758
 30
0.0
 11
189.7392464862
 21
129.2423901466
 31
0.0
  0
LINE
  5
92
330
1F
100
AcDbEntity
  8
0
  6
Continuous
 62
     7
370
    25
100
AcDbLine
 10
197.5662539078
 20
130.6225027333
 30
0.0
 11
194.0673636362
 21
130.0055539758
 31
0.0
  0
CIRCLE
  5
93
330
1F
100
AcDbEntity
  8
0
  6
Continuous
 62
     7
370
    25
100
AcDbCircle
 10
203.2237093764
 20
127.2576773775
 30
0.0
 40
2.621448664223619
  0
CIRCLE
  5
94
330
1F
100
AcDbEntity
  8
0
  6
Continuous
 62
     7
370
    25
100
AcDbCircle
 10
203.224611218
 20
127.2793825017
 30
0.0
 40
1.797383558940004
  0
ARC
  5
95
330
1F
100
AcDbEntity
  8
0
  6
Continuous
 62
     7
370
    25
100
AcDbCircle
 10
203.2325024042
 20
127.2775738428
 30
0.0
 40
1.670120931668668
100
AcDbArc
 50
291.2724522123
 51
349.9134005164
  0
ARC
  5
96
330
1F
100
AcDbEntity
  8
0
  6
Continuous
 62
     7
370
    25
100
AcDbCircle
 10
203.2368964343
 20
127.2745699356
 30
0.0
 40
1.665270158637609
100
AcDbArc
 50
349.9886789141
 51
50.2590927083
  0
ARC
  5
97
330
1F
100
AcDbEntity
  8
0
  6
Continuous
 62
     7
370
    25
100
AcDbCircle
 10
203.227210308
 20
127.2636284026
 30
0.0
 40
1.679876143223382
100
AcDbArc
 50
50.2436430564
 51
108.648779539
  0
LINE
  5
98
330
1F
100
AcDbEntity
  8
0
  6
Continuous
 62
     7
370
    25
100
AcDbLine
 10
202.6102842498
 20
128.8261342221
 30
0.0
 11
202.6900428835
 21
128.855305196
 31
0.0
  0
ARC
  5
99
330
1F
100
AcDbEntity
  8
0
  6
Continuous
 62
     7
370
    25
100
AcDbCircle
 10
203.22217333
 20
127.2718773637
 30
0.0
 40
1.670366016289155
100
AcDbArc
 50
111.4888625167
 51
167.9662589118
  0
LINE
  5
9A
330
1F
100
AcDbEntity
  8
0
  6
Continuous
 62
     7
370
    25
100
AcDbLine
 10
201.5679288096
 20
127.5025504715
 30
0.0
 11
201.588513618
 21
127.6201280976
 31
0.0
  0
ARC
  5
9B
330
1F
100
AcDbEntity
  8
0
  6
Continuous
 62
     7
370
    25
100
AcDbCircle
 10
203.2174947639
 20
127.2751220378
 30
0.0
 40
1.665170120418737
100
AcDbArc
 50
172.1500238474
 51
228.097747775
  0
LINE
  5
9C
330
1F
100
AcDbEntity
  8
0
  6
Continuous
 62
     7
370
    25
100
AcDbLine
 10
202.1971700064
 20
125.9590423862
 30
0.0
 11
202.1053912284
 21
126.0357604052
 31
0.0
  0
ARC
  5
9D
330
1F
100
AcDbEntity
  8
0
  6
Continuous
 62
     7
370
    25
100
AcDbCircle
 10
203.2273032538
 20
127.2861900285
 30
0.0
 40
1.680028384157349
100
AcDbArc
 50
232.1813519841
 51
288.4344342728
  0
LINE
  5
9E
330
1F
100
AcDbEntity
  8
0
  6
Continuous
 62
     7
370
    25
100
AcDbLine
 10
203.8384276756
 20
125.7212453132
 30
0.0
 11
203.7585605631
 21
125.6923703891
 31
0.0
  0
SPLINE
  5
9F
330
1F
100
AcDbEntity
  8
0
  6
Continuous
 62
     7
370
    25
100
AcDbSpline
210
0.0
220
0.0
230
1.0
 70
     8
 71
     3
 72
    11
 73
     7
 74
     0
 42
0.000000001
 43
0.00000001
 40
0.0
 40
0.0
 40
0.0
 40
0.0
 40
0.2657596322622802
 40
0.5530029385954556
 40
0.8418208483437619
 40
1.0
 40
1.0
 40
1.0
 40
1.0
 10
202.197170006441
 20
125.9590423862393
 30
0.0
 10
202.2288098385108
 20
125.9445445382896
 30
0.0
 10
202.294647226839
 20
125.9143768546153
 30
0.0
 10
202.4062359070038
 20
125.9110211036336
 30
0.0
 10
202.4990775627782
 20
125.9363974073033
 30
0.0
 10
202.5469285555357
 20
125.9674219937613
 30
0.0
 10
202.5638616186223
 20
125.9784006850999
 30
0.0
  0
SPLINE
  5
A0
330
1F
100
AcDbEntity
  8
0
  6
Continuous
 62
     7
370
    25
100
AcDbSpline
210
0.0
220
0.0
230
1.0
 70
     8
 71
     3
 72
    12
 73
     8
 74
     0
 42
0.000000001
 43
0.00000001
 40
0.0
 40
0.0
 40
0.0
 40
0.0
 40
0.2057904614204044
 40
0.4120344203360446
 40
0.6141302471427758
 40
0.8132633242114136
 40
1.0
 40
1.0
 40
1.0
 40
1.0
 10
202.5638616186223
 20
125.9784006850999
 30
0.0
 10
202.6198881014225
 20
126.011451808228
 30
0.0
 10
202.7320645317814
 20
126.0776268887713
 30
0.0
 10
202.9318928914089
 20
126.1012314798748
 30
0.0
 10
203.1244888871282
 20
126.0633694558198
 30
0.0
 10
203.2922131704676
 20
125.9713128685722
 30
0.0
 10
203.3683043951508
 20
125.8770369186851
 30
0.0
 10
203.4051277591197
 20
125.8314132921677
 30
0.0
  0
SPLINE
  5
A1
330
1F
100
AcDbEntity
  8
0
  6
Continuous
 62
     7
370
    25
100
AcDbSpline
210
0.0
220
0.0
230
1.0
 70
     8
 71
     3
 72
    11
 73
     7
 74
     0
 42
0.000000001
 43
0.00000001
 40
0.0
 40
0.0
 40
0.0
 40
0.0
 40
0.2802371411012036
 40
0.5612869875925267
 40
0.8399906057824803
 40
1.0
 40
1.0
 40
1.0
 40
1.0
 10
203.4051277591197
 20
125.8314132921677
 30
0.0
 10
203.4289079010175
 20
125.8025332517032
 30
0.0
 10
203.4765371487251
 20
125.7446894168346
 30
0.0
 10
203.5802950355107
 20
125.6940856215602
 30
0.0
 10
203.6783647821441
 20
125.6790320871091
 30
0.0
 10
203.7371281293295
 20
125.6888057093925
 30
0.0
 10
203.758560563106
 20
125.6923703891185
 30
0.0
  0
SPLINE
  5
A2
330
1F
100
AcDbEntity
  8
0
  6
Continuous
 62
     7
370
    25
100
AcDbSpline
210
0.0
220
0.0
230
1.0
 70
     8
 71
     3
 72
    12
 73
     8
 74
     0
 42
0.000000001
 43
0.00000001
 40
0.0
 40
0.0
 40
0.0
 40
0.0
 40
0.2058585741214142
 40
0.4121026961456374
 40
0.6141937841967792
 40
0.8133180967417649
 40
1.0
 40
1.0
 40
1.0
 40
1.0
 10
204.0177693013761
 20
126.0541754937441
 30
0.0
 10
204.016311337766
 20
126.1186323785448
 30
0.0
 10
204.0133926799588
 20
126.2476668679988
 30
0.0
 10
204.0916224009803
 20
126.4311911253103
 30
0.0
 10
204.2209319669435
 20
126.5784501828174
 30
0.0
 10
204.3860639615932
 20
126.6778152889847
 30
0.0
 10
204.5074370896701
 20
126.697117588643
 30
0.0
 10
204.5661664870351
 20
126.706457484917
 30
0.0
  0
SPLINE
  5
A3
330
1F
100
AcDbEntity
  8
0
  6
Continuous
 62
     7
370
    25
100
AcDbSpline
210
0.0
220
0.0
230
1.0
 70
     8
 71
     3
 72
    11
 73
     7
 74
     0
 42
0.000000001
 43
0.00000001
 40
0.0
 40
0.0
 40
0.0
 40
0.0
 40
0.2524782265334351
 40
0.5068902417934437
 40
0.7591786113117828
 40
1.0
 40
1.0
 40
1.0
 40
1.0
 10
204.5661664870351
 20
126.706457484917
 30
0.0
 10
204.603428825427
 20
126.712735872275
 30
0.0
 10
204.6782389030191
 20
126.7253407346018
 30
0.0
 10
204.7748563082916
 20
126.7898360206605
 30
0.0
 10
204.8474060090639
 20
126.8785293700548
 30
0.0
 10
204.8671619593766
 20
126.950114527547
 30
0.0
 10
204.8768102279618
 20
126.9850747706771
 30
0.0
  0
SPLINE
  5
A4
330
1F
100
AcDbEntity
  8
0
  6
Continuous
 62
     7
370
    25
100
AcDbSpline
210
0.0
220
0.0
230
1.0
 70
     8
 71
     3
 72
    11
 73
     7
 74
     0
 42
0.000000001
 43
0.00000001
 40
0.0
 40
0.0
 40
0.0
 40
0.0
 40
0.2423611237743517
 40
0.5166847928457128
 40
0.7923341374632424
 40
1.0
 40
1.0
 40
1.0
 40
1.0
 10
203.8384276756234
 20
125.7212453132359
 30
0.0
 10
203.8664955128901
 20
125.7387463360943
 30
0.0
 10
203.9263327692039
 20
125.7760564138383
 30
0.0
 10
203.9896064694596
 20
125.864733750925
 30
0.0
 10
204.0220227397785
 20
125.9625995339793
 30
0.0
 10
204.0190476199774
 20
126.0266534652742
 30
0.0
 10
204.0177693013761
 20
126.0541754937441
 30
0.0
  0
SPLINE
  5
A5
330
1F
100
AcDbEntity
  8
0
  6
Continuous
 62
     7
370
    25
100
AcDbSpline
210
0.0
220
0.0
230
1.0
 70
     8
 71
     3
 72
    11
 73
     7
 74
     0
 42
0.000000001
 43
0.00000001
 40
0.0
 40
0.0
 40
0.0
 40
0.0
 40
0.2928993220618915
 40
0.5864344719080395
 40
0.8775178868035838
 40
1.0
 40
1.0
 40
1.0
 40
1.0
 10
202.0638712534341
 20
126.3955637579615
 30
0.0
 10
202.0502184084402
 20
126.3608329966952
 30
0.0
 10
202.0228830807663
 20
126.2912960803967
 30
0.0
 10
202.0298146691092
 20
126.1769365176256
 30
0.0
 10
202.0633080240016
 20
126.0907318911784
 30
0.0
 10
202.0957755909226
 20
126.048320900279
 30
0.0
 10
202.1053912284376
 20
126.0357604051814
 30
0.0
  0
SPLINE
  5
A6
330
1F
100
AcDbEntity
  8
0
  6
Continuous
 62
     7
370
    25
100
AcDbSpline
210
0.0
220
0.0
230
1.0
 70
     8
 71
     3
 72
    11
 73
     7
 74
     0
 42
0.000000001
 43
0.00000001
 40
0.0
 40
0.0
 40
0.0
 40
0.0
 40
0.2669010467950443
 40
0.5546143410791907
 40
0.8439070439782368
 40
1.0
 40
1.0
 40
1.0
 40
1.0
 10
201.56792880959
 20
127.5025504715239
 30
0.0
 10
201.5713263843224
 20
127.4678608068547
 30
0.0
 10
201.5783864678032
 20
127.3957764679439
 30
0.0
 10
201.632343422567
 20
127.2974415129492
 30
0.0
 10
201.7017032965829
 20
127.2299172707704
 30
0.0
 10
201.753018141213
 20
127.2039380370373
 30
0.0
 10
201.7710022985958
 20
127.1948331740779
 30
0.0
  0
SPLINE
  5
A7
330
1F
100
AcDbEntity
  8
0
  6
Continuous
 62
     7
370
    25
100
AcDbSpline
210
0.0
220
0.0
230
1.0
 70
     8
 71
     3
 72
    12
 73
     8
 74
     0
 42
0.000000001
 43
0.00000001
 40
0.0
 40
0.0
 40
0.0
 40
0.0
 40
0.2058401281337142
 40
0.4120619935510054
 40
0.6141387330970067
 40
0.8132772113524542
 40
0.9999999999999999
 40
0.9999999999999999
 40
0.9999999999999999
 40
0.9999999999999999
 10
201.7710022985958
 20
127.1948331740779
 30
0.0
 10
201.8285030710427
 20
127.1625881092692
 30
0.0
 10
201.9436112530089
 20
127.0980381801194
 30
0.0
 10
202.0652313563406
 20
126.9367458070353
 30
0.0
 10
202.1285183176505
 20
126.7517194904423
 30
0.0
 10
202.131094464132
 20
126.5617288391233
 30
0.0
 10
202.0857931096955
 20
126.4497510987189
 30
0.0
 10
202.0638712534341
 20
126.3955637579615
 30
0.0
  0
ARC
  5
A8
330
1F
100
AcDbEntity
  8
0
  6
Continuous
 62
     7
370
    25
100
AcDbCircle
 10
201.5442444373
 20
126.5393415932
 30
0.0
 40
0.5821513035217257
100
AcDbArc
 50
333.2014884131
 51
359.9972551826
  0
ARC
  5
A9
330
1F
100
AcDbEntity
  8
0
  6
Continuous
 62
     7
370
    25
100
AcDbCircle
 10
204.5479877967
 20
126.9204675096
 30
0.0
 40
0.3339916086662631
100
AcDbArc
 50
11.7180099882
 51
66.9386819082
  0
SPLINE
  5
AA
330
1F
100
AcDbEntity
  8
0
  6
Continuous
 62
     7
370
    25
100
AcDbSpline
210
0.0
220
0.0
230
1.0
 70
     8
 71
     3
 72
    12
 73
     8
 74
     0
 42
0.000000001
 43
0.00000001
 40
0.0
 40
0.0
 40
0.0
 40
0.0
 40
0.0091681771490108
 40
0.2573268097002962
 40
0.5054934687430543
 40
0.7549925359453824
 40
1.0
 40
1.0
 40
1.0
 40
1.0
 10
204.8768102279618
 20
126.9850747706771
 30
0.0
 10
204.8770431555648
 20
126.9864223373042
 30
0.0
 10
204.8835808255959
 20
127.0242450162719
 30
0.0
 10
204.8831741031316
 20
127.101278762454
 30
0.0
 10
204.8452093341362
 20
127.2065912229021
 30
0.0
 10
204.7757855258781
 20
127.2951511377457
 30
0.0
 10
204.7109439660515
 20
127.3294092743422
 30
0.0
 10
204.6788176641035
 20
127.3463827593018
 30
0.0
  0
ARC
  5
AB
330
1F
100
AcDbEntity
  8
0
  6
Continuous
 62
     7
370
    25
100
AcDbCircle
 10
201.902262278
 20
127.3821551603
 30
0.0
 40
0.334442397411784
100
AcDbArc
 50
93.1896576748
 51
170.1893639448
  0
SPLINE
  5
AC
330
1F
100
AcDbEntity
  8
0
  6
Continuous
 62
     7
370
    25
100
AcDbSpline
210
0.0
220
0.0
230
1.0
 70
     8
 71
     3
 72
    11
 73
     7
 74
     0
 42
0.000000001
 43
0.00000001
 40
0.0
 40
0.0
 40
0.0
 40
0.0
 40
0.2908641666074956
 40
0.5839560789889466
 40
0.8745988053616958
 40
0.9999999999999999
 40
0.9999999999999999
 40
0.9999999999999999
 40
0.9999999999999999
 10
201.8836534756639
 20
127.8347584733812
 30
0.0
 10
201.8464033462581
 20
127.8294691677984
 30
0.0
 10
201.7716177865126
 20
127.81885004553
 30
0.0
 10
201.6747863658726
 20
127.7565244530459
 30
0.0
 10
201.6156904091587
 20
127.6845992389353
 30
0.0
 10
201.5948078886214
 20
127.6350599123339
 30
0.0
 10
201.5885136180164
 20
127.6201280976295
 30
0.0
  0
SPLINE
  5
AD
330
1F
100
AcDbEntity
  8
0
  6
Continuous
 62
     7
370
    25
100
AcDbSpline
210
0.0
220
0.0
230
1.0
 70
     8
 71
     3
 72
    12
 73
     8
 74
     0
 42
0.000000001
 43
0.00000001
 40
0.0
 40
0.0
 40
0.0
 40
0.0
 40
0.2058435564096316
 40
0.4120691620553305
 40
0.6141397217727169
 40
0.8132604579561284
 40
0.9999999999999999
 40
0.9999999999999999
 40
0.9999999999999999
 40
0.9999999999999999
 10
204.6788176641035
 20
127.3463827593018
 30
0.0
 10
204.6213163181743
 20
127.3769260269277
 30
0.0
 10
204.5062069028136
 20
127.4380692510176
 30
0.0
 10
204.3845871739748
 20
127.5966260991823
 30
0.0
 10
204.3213029849457
 20
127.781851317884
 30
0.0
 10
204.3187250594253
 20
127.9747295331514
 30
0.0
 10
204.3640253464886
 20
128.089909901649
 30
0.0
 10
204.3859487092651
 20
128.1456521754183
 30
0.0
  0
SPLINE
  5
AE
330
1F
100
AcDbEntity
  8
0
  6
Continuous
 62
     7
370
    25
100
AcDbSpline
210
0.0
220
0.0
230
1.0
 70
     8
 71
     3
 72
    11
 73
     7
 74
     0
 42
0.000000001
 43
0.00000001
 40
0.0
 40
0.0
 40
0.0
 40
0.0
 40
0.2535086227482456
 40
0.5075674742604037
 40
0.7595056251924651
 40
1.0
 40
1.0
 40
1.0
 40
1.0
 10
204.3859487092651
 20
128.1456521754183
 30
0.0
 10
204.3996097474741
 20
128.1813916025609
 30
0.0
 10
204.426961474545
 20
128.252948027623
 30
0.0
 10
204.419909648453
 20
128.3692937897642
 30
0.0
 10
204.3794913915893
 20
128.4765067201591
 30
0.0
 10
204.3271126651532
 20
128.5292899659656
 30
0.0
 10
204.301531923815
 20
128.5550682666201
 30
0.0
  0
SPLINE
  5
AF
330
1F
100
AcDbEntity
  8
0
  6
Continuous
 62
     7
370
    25
100
AcDbSpline
210
0.0
220
0.0
230
1.0
 70
     8
 71
     3
 72
    11
 73
     7
 74
     0
 42
0.000000001
 43
0.00000001
 40
0.0
 40
0.0
 40
0.0
 40
0.0
 40
0.2431090893443924
 40
0.5182793655622772
 40
0.7947794085751656
 40
1.0
 40
1.0
 40
1.0
 40
1.0
 10
202.6102842498147
 20
128.8261342220636
 30
0.0
 10
202.5822825426856
 20
128.8083566065034
 30
0.0
 10
202.5225862678787
 20
128.7704568663553
 30
0.0
 10
202.459643886586
 20
128.6799628801725
 30
0.0
 10
202.4277403634301
 20
128.5802438745533
 30
0.0
 10
202.4307629792777
 20
128.5148845851618
 30
0.0
 10
202.4320506613231
 20
128.4870404965654
 30
0.0
  0
SPLINE
  5
B0
330
1F
100
AcDbEntity
  8
0
  6
Continuous
 62
     7
370
    25
100
AcDbSpline
210
0.0
220
0.0
230
1.0
 70
     8
 71
     3
 72
    12
 73
     8
 74
     0
 42
0.000000001
 43
0.00000001
 40
0.0
 40
0.0
 40
0.0
 40
0.0
 40
0.2058179564998999
 40
0.4120215045906876
 40
0.6140779969166738
 40
0.813213000645207
 40
1.0
 40
1.0
 40
1.0
 40
1.0
 10
202.4320506613231
 20
128.4870404965654
 30
0.0
 10
202.4335094299272
 20
128.4208914877331
 30
0.0
 10
202.4364297000791
 20
128.2884695425842
 30
0.0
 10
202.3582251792029
 20
128.1022297942646
 30
0.0
 10
202.2289499712104
 20
127.955175325989
 30
0.0
 10
202.0638189082942
 20
127.8586648130804
 30
0.0
 10
201.9424137892004
 20
127.8425554408445
 30
0.0
 10
201.8836534756639
 20
127.8347584733812
 30
0.0
  0
ARC
  5
B1
330
1F
100
AcDbEntity
  8
0
  6
Continuous
 62
     7
370
    25
100
AcDbCircle
 10
203.2311895353
 20
127.1928246383
 30
0.0
 40
2.621072769268959
100
AcDbArc
 50
259.8975618057
 51
359.8873849191
  0
ARC
  5
B2
330
1F
100
AcDbEntity
  8
0
  6
Continuous
 62
     7
370
    25
100
AcDbCircle
 10
203.2205032831
 20
127.1918399723
 30
0.0
 40
2.618249357501059
100
AcDbArc
 50
180.0911888029
 51
260.1240068937
  0
ARC
  5
B3
330
1F
100
AcDbEntity
  8
0
  6
Continuous
 62
     7
370
    25
100
AcDbCircle
 10
204.9073840498
 20
127.76513881
 30
0.0
 40
0.5839600754734071
100
AcDbArc
 50
180.0528243197
 51
246.9578899869
  0
ARC
  5
B4
330
1F
100
AcDbEntity
  8
0
  6
Continuous
 62
     7
370
    25
100
AcDbCircle
 10
201.8512924282
 20
128.3000783404
 30
0.0
 40
0.5848948146325512
100
AcDbArc
 50
273.1716792205
 51
359.9072870941
  0
SPLINE
  5
B5
330
1F
100
AcDbEntity
  8
0
  6
Continuous
 62
     7
370
    25
100
AcDbSpline
210
0.0
220
0.0
230
1.0
 70
     8
 71
     3
 72
    12
 73
     8
 74
     0
 42
0.000000001
 43
0.00000001
 40
0.0
 40
0.0
 40
0.0
 40
0.0
 40
0.0091735205189892
 40
0.2576775215524393
 40
0.506189519230021
 40
0.7560357430218845
 40
1.0
 40
1.0
 40
1.0
 40
1.0
 10
204.301531923815
 20
128.5550682666201
 30
0.0
 10
204.300476064207
 20
128.5559403066401
 30
0.0
 10
204.270817735504
 20
128.5804352767651
 30
0.0
 10
204.2034294384547
 20
128.6183914711793
 30
0.0
 10
204.0922489438424
 20
128.6377405046026
 30
0.0
 10
203.9798523812031
 20
128.6214048640632
 30
0.0
 10
203.9170068306002
 20
128.5821894334544
 30
0.0
 10
203.885958344077
 20
128.5628152731984
 30
0.0
  0
SPLINE
  5
B6
330
1F
100
AcDbEntity
  8
0
  6
Continuous
 62
     7
370
    25
100
AcDbSpline
210
0.0
220
0.0
230
1.0
 70
     8
 71
     3
 72
    12
 73
     8
 74
     0
 42
0.000000001
 43
0.00000001
 40
0.0
 40
0.0
 40
0.0
 40
0.0
 40
0.2057532787804126
 40
0.4119604088044937
 40
0.6140154573249599
 40
0.8131414684041656
 40
1.0
 40
1.0
 40
1.0
 40
1.0
 10
203.885958344077
 20
128.5628152731984
 30
0.0
 10
203.8299403581816
 20
128.5280665437322
 30
0.0
 10
203.7177808217373
 20
128.4584924359405
 30
0.0
 10
203.5179826903251
 20
128.4321403408275
 30
0.0
 10
203.3254102646318
 20
128.4701758781713
 30
0.0
 10
203.1576569341415
 20
128.5651007533702
 30
0.0
 10
203.0815407309041
 20
128.6626016510602
 30
0.0
 10
203.0446922035796
 20
128.7098026981419
 30
0.0
  0
SPLINE
  5
B7
330
1F
100
AcDbEntity
  8
0
  6
Continuous
 62
     7
370
    25
100
AcDbSpline
210
0.0
220
0.0
230
1.0
 70
     8
 71
     3
 72
    11
 73
     7
 74
     0
 42
0.000000001
 43
0.00000001
 40
0.0
 40
0.0
 40
0.0
 40
0.0
 40
0.2794069064553708
 40
0.5596240257155243
 40
0.8375007392217938
 40
1.0
 40
1.0
 40
1.0
 40
1.0
 10
203.0446922035796
 20
128.7098026981419
 30
0.0
 10
203.020909810163
 20
128.7396798407161
 30
0.0
 10
202.9732760601108
 20
128.7995207623899
 30
0.0
 10
202.8695100004727
 20
128.8522850569307
 30
0.0
 10
202.7710192885633
 20
128.8686241248305
 30
0.0
 10
202.7118692999846
 20
128.8588951860445
 30
0.0
 10
202.6900428835124
 20
128.855305196006
 30
0.0
  0
ARC
  5
B8
330
1F
100
AcDbEntity
  8
0
  6
Continuous
 62
     7
370
    25
100
AcDbCircle
 10
204.086730682
 20
128.1758793941
 30
0.0
 40
0.3351140664299815
100
AcDbArc
 50
10.9507075898
 51
126.8066416648
  0
ARC
  5
B9
330
1F
100
AcDbEntity
  8
0
  6
Continuous
 62
     7
370
    25
100
AcDbCircle
 10
202.7647563074
 20
128.4063298457
 30
0.0
 40
0.3354495906336007
100
AcDbArc
 50
33.4351934584
 51
161.6143327599
  0
ARC
  5
BA
330
1F
100
AcDbEntity
  8
0
  6
Continuous
 62
     7
370
    25
100
AcDbCircle
 10
203.534779086
 20
128.9152403814
 30
0.0
 40
0.5875483023102976
100
AcDbArc
 50
213.4754893771
 51
306.705548474
  0
LINE
  5
BB
330
1F
100
AcDbEntity
  8
0
  6
Continuous
 62
     7
370
    25
100
AcDbLine
 10
207.6717639371
 20
123.7054182151
 30
0.0
 11
207.7412232082
 21
123.3331218668
 31
0.0
  0
LINE
  5
BC
330
1F
100
AcDbEntity
  8
0
  6
Continuous
 62
     7
370
    25
100
AcDbLine
 10
199.0162232082
 20
121.8005232379
 30
0.0
 11
207.7412232082
 21
123.3331218668
 31
0.0
  0
LINE
  5
BD
330
1F
100
AcDbEntity
  8
0
  6
Continuous
 62
     7
370
    25
100
AcDbLine
 10
198.9467639371
 20
122.1728195862
 30
0.0
 11
199.0162232082
 21
121.8005232379
 31
0.0
  0
LINE
  5
BE
330
1F
100
AcDbEntity
  8
0
  6
Continuous
 62
     7
370
    25
100
AcDbLine
 10
199.2395842602
 20
122.5057267827
 30
0.0
 11
198.9467639371
 21
122.1728195862
 31
0.0
  0
LINE
  5
BF
330
1F
100
AcDbEntity
  8
0
  6
Continuous
 62
     7
370
    25
100
AcDbLine
 10
199.2395842602
 20
122.5057267827
 30
0.0
 11
199.3505948266
 21
122.5252264551
 31
0.0
  0
LINE
  5
C0
330
1F
100
AcDbEntity
  8
0
  6
Continuous
 62
     7
370
    25
100
AcDbLine
 10
207.5221215703
 20
123.8229753449
 30
0.0
 11
207.6717639371
 21
123.7054182151
 31
0.0
  0
ARC
  5
C1
330
1F
100
AcDbEntity
  8
0
  6
Continuous
 62
     7
370
    25
100
AcDbCircle
 10
198.9462952124
 20
122.1938884639
 30
0.0
 40
0.3995323837043188
100
AcDbArc
 50
180.1349635748
 51
280.0800897005
  0
LINE
  5
C2
330
1F
100
AcDbEntity
  8
0
  6
Continuous
 62
     7
370
    25
100
AcDbLine
 10
198.9467639371
 20
122.1728195862
 30
0.0
 11
198.5467639371
 21
122.1929473428
 31
0.0
  0
LINE
  5
C3
330
1F
100
AcDbEntity
  8
0
  6
Continuous
 62
     7
370
    25
100
AcDbLine
 10
198.5467639371
 20
131.0188310894
 30
0.0
 11
198.5467639371
 21
122.1929473428
 31
0.0
  0
LINE
  5
C4
330
1F
100
AcDbEntity
  8
0
  6
Continuous
 62
     7
370
    25
100
AcDbLine
 10
198.9467639371
 20
130.9987033328
 30
0.0
 11
198.5467639371
 21
131.0188310894
 31
0.0
  0
LINE
  5
C5
330
1F
100
AcDbEntity
  8
0
  6
Continuous
 62
     7
370
    25
100
AcDbLine
 10
199.096406304
 20
130.8660863773
 30
0.0
 11
198.9467639371
 21
130.9987033328
 31
0.0
  0
LINE
  5
C6
330
1F
100
AcDbEntity
  8
0
  6
Continuous
 62
     7
370
    25
100
AcDbLine
 10
199.2395842602
 20
122.6180209207
 30
0.0
 11
199.2395842602
 21
122.5057267827
 31
0.0
  0
SPLINE
  5
C7
330
1F
100
AcDbEntity
  8
0
  6
Continuous
 62
     7
370
    25
100
AcDbSpline
210
0.0
220
0.0
230
1.0
 70
     8
 71
     3
 72
     9
 73
     5
 74
     0
 42
0.000000001
 43
0.00000001
 40
0.0
 40
0.0
 40
0.0
 40
0.0
 40
0.0433040437555777
 40
1.0
 40
1.0
 40
1.0
 40
1.0
 10
199.7196481318158
 20
123.080443448895
 30
0.0
 10
199.7186503082901
 20
123.0791809548917
 30
0.0
 10
199.6956080369651
 20
123.0500267721914
 30
0.0
 10
199.6713301946057
 20
123.0197215373901
 30
0.0
 10
199.6481036809942
 20
122.9907286418027
 30
0.0
  0
SPLINE
  5
C8
330
1F
100
AcDbEntity
  8
0
  6
Continuous
 62
     7
370
    25
100
AcDbSpline
210
0.0
220
0.0
230
1.0
 70
     8
 71
     3
 72
    14
 73
    10
 74
     0
 42
0.000000001
 43
0.00000001
 40
0.0
 40
0.0
 40
0.0
 40
0.0
 40
0.3240421732222979
 40
0.4390834530314667
 40
0.5550339035678566
 40
0.6320175773806282
 40
0.7091777148392148
 40
0.8120429782634042
 40
1.0
 40
1.0
 40
1.0
 40
1.0
 10
199.3505948266261
 20
122.5252264551247
 30
0.0
 10
199.4281893438445
 20
122.5422682943591
 30
0.0
 10
199.5333314252524
 20
122.5653603182849
 30
0.0
 10
199.6510715623834
 20
122.6324869233859
 30
0.0
 10
199.7065370736454
 20
122.6847053508957
 30
0.0
 10
199.7354868786602
 20
122.7448414476763
 30
0.0
 10
199.7405734595517
 20
122.8081014642849
 30
0.0
 10
199.7160147116274
 20
122.8955873212566
 30
0.0
 10
199.6747638872249
 20
122.9533784911251
 30
0.0
 10
199.6481036809943
 20
122.9907286418027
 30
0.0
  0
SPLINE
  5
C9
330
1F
100
AcDbEntity
  8
0
  6
Continuous
 62
     7
370
    25
100
AcDbSpline
210
0.0
220
0.0
230
1.0
 70
     8
 71
     3
 72
    14
 73
    10
 74
     0
 42
0.000000001
 43
0.00000001
 40
0.0
 40
0.0
 40
0.0
 40
0.0
 40
0.1215026613260188
 40
0.2571357003576081
 40
0.3367055246585349
 40
0.4166989189531282
 40
0.5090573836363381
 40
0.659989833553347
 40
1.0
 40
1.0
 40
1.0
 40
1.0
 10
199.6481036809943
 20
122.9907286418027
 30
0.0
 10
199.621552733814
 20
123.0035583907216
 30
0.0
 10
199.5653630477293
 20
123.0307099480429
 30
0.0
 10
199.4842474966623
 20
123.0501923101445
 30
0.0
 10
199.411735298841
 20
123.042309980854
 30
0.0
 10
199.3561505661045
 20
123.0133913626483
 30
0.0
 10
199.3036418894622
 20
122.9533801848171
 30
0.0
 10
199.2484860835901
 20
122.8206879663363
 30
0.0
 10
199.2432267179891
 20
122.700948443602
 30
0.0
 10
199.2395842601666
 20
122.6180209207142
 30
0.0
  0
ARC
  5
CA
330
1F
100
AcDbEntity
  8
0
  6
Continuous
 62
     7
370
    25
100
AcDbCircle
 10
200.7455921249
 20
124.3322936441
 30
0.0
 40
0.9988309590978526
100
AcDbArc
 50
180.1349635615
 51
280.0800897288
  0
LINE
  5
CB
330
1F
100
AcDbEntity
  8
0
  6
Continuous
 62
     7
370
    25
100
AcDbLine
 10
200.9204121148
 20
123.3488805793
 30
0.0
 11
206.0454121148
 21
124.2491175963
 31
0.0
  0
SPLINE
  5
CC
330
1F
100
AcDbEntity
  8
0
  6
Continuous
 62
     7
370
    25
100
AcDbSpline
210
0.0
220
0.0
230
1.0
 70
     8
 71
     3
 72
    11
 73
     7
 74
     0
 42
0.000000001
 43
0.00000001
 40
0.0
 40
0.0
 40
0.0
 40
0.0
 40
0.3360297136121986
 40
0.671226969719986
 40
0.9920227009419832
 40
1.0
 40
1.0
 40
1.0
 40
1.0
 10
207.5221215703184
 20
123.8229753448647
 30
0.0
 10
207.4629699680375
 20
123.8702441525289
 30
0.0
 10
207.344813301693
 20
123.9646646672794
 30
0.0
 10
207.1594241041126
 20
124.1219240319083
 30
0.0
 10
207.0451879719139
 20
124.2225629658531
 30
0.0
 10
206.9929567814563
 20
124.2696370347092
 30
0.0
 10
206.9916894517545
 20
124.2707792327929
 30
0.0
  0
LINE
  5
CD
330
1F
100
AcDbEntity
  8
0
  6
Continuous
 62
     7
370
    25
100
AcDbLine
 10
207.6717639371
 20
123.7054182151
 30
0.0
 11
208.0717639371
 21
123.7255459717
 31
0.0
  0
ARC
  5
CE
330
1F
100
AcDbEntity
  8
0
  6
Continuous
 62
     7
370
    25
100
AcDbCircle
 10
207.6728494204
 20
123.7261335232
 30
0.0
 40
0.3989149494387531
100
AcDbArc
 50
279.8691938001
 51
359.9156105054
  0
LINE
  5
CF
330
1F
100
AcDbEntity
  8
0
  6
Continuous
 62
     7
370
    25
100
AcDbLine
 10
205.6981157595
 20
131.3954964818
 30
0.0
 11
200.5731157595
 21
130.4952594649
 31
0.0
  0
ARC
  5
D0
330
1F
100
AcDbEntity
  8
0
  6
Continuous
 62
     7
370
    25
100
AcDbCircle
 10
205.8729357489
 20
130.4120834168
 30
0.0
 40
0.998830959289687
100
AcDbArc
 50
0.1349635767
 51
100.0800896985
  0
LINE
  5
D1
330
1F
100
AcDbEntity
  8
0
  6
Continuous
 62
     7
370
    25
100
AcDbLine
 10
206.8717639371
 20
125.2301778584
 30
0.0
 11
206.8717639371
 21
130.4144362196
 31
0.0
  0
ARC
  5
D2
330
1F
100
AcDbEntity
  8
0
  6
Continuous
 62
     7
370
    25
100
AcDbCircle
 10
205.8744776453
 20
125.2316467371
 30
0.0
 40
0.9972873735972327
100
AcDbArc
 50
279.8691938001
 51
359.9156105033
  0
LINE
  5
D3
330
1F
100
AcDbEntity
  8
0
  6
Continuous
 62
     7
370
    25
100
AcDbLine
 10
199.7467639371
 20
129.5141992027
 30
0.0
 11
199.7467639368
 21
124.3299408415
 31
0.0
  0
ARC
  5
D4
330
1F
100
AcDbEntity
  8
0
  6
Continuous
 62
     7
370
    25
100
AcDbCircle
 10
200.744050229
 20
129.512730324
 30
0.0
 40
0.9972873735972327
100
AcDbArc
 50
99.8691938001
 51
179.9156105033
  0
CIRCLE
  5
D5
330
1F
100
AcDbEntity
  8
0
  6
Continuous
 62
     7
370
    25
100
AcDbCircle
 10
203.3012508209
 20
127.3706657303
 30
0.0
 40
3.041987264912591
  0
LINE
  5
D6
330
1F
100
AcDbEntity
  8
0
  6
Continuous
 62
     7
370
    25
100
AcDbLine
 10
207.3789436141
 20
132.1689256842
 30
0.0
 11
207.6717639371
 21
132.5313019617
 31
0.0
  0
LINE
  5
D7
330
1F
100
AcDbEntity
  8
0
  6
Continuous
 62
     7
370
    25
100
AcDbLine
 10
207.6717639371
 20
132.5313019617
 30
0.0
 11
208.0717639371
 21
132.5514297183
 31
0.0
  0
LINE
  5
D8
330
1F
100
AcDbEntity
  8
0
  6
Continuous
 62
     7
370
    25
100
AcDbLine
 10
208.0717639371
 20
123.7255459717
 30
0.0
 11
208.0717639371
 21
132.5514297183
 31
0.0
  0
LINE
  5
D9
330
1F
100
AcDbEntity
  8
0
  6
Continuous
 62
     7
370
    25
100
AcDbLine
 10
207.3789436141
 20
132.0566315462
 30
0.0
 11
207.3789436141
 21
132.1689256842
 31
0.0
  0
ARC
  5
DA
330
1F
100
AcDbEntity
  8
0
  6
Continuous
 62
     7
370
    25
100
AcDbCircle
 10
203.3092639371
 20
127.263388919
 30
0.0
 40
3.050012041549677
100
AcDbArc
 50
0.1610008564
 51
179.8389991436
  0
SPLINE
  5
DB
330
1F
100
AcDbEntity
  8
0
  6
Continuous
 62
     7
370
    25
100
AcDbSpline
210
0.0
220
0.0
230
1.0
 70
     8
 71
     3
 72
    11
 73
     7
 74
     0
 42
0.000000001
 43
0.00000001
 40
0.0
 40
0.0
 40
0.0
 40
0.0
 40
0.0079772990479785
 40
0.3287730302732219
 40
0.6639702863844009
 40
0.9999999999999999
 40
0.9999999999999999
 40
0.9999999999999999
 40
0.9999999999999999
 10
199.6268384225216
 20
130.4271068437546
 30
0.0
 10
199.6255710928204
 20
130.4280833842061
 30
0.0
 10
199.5733399023256
 20
130.4683301095077
 30
0.0
 10
199.459103770183
 20
130.5586726499923
 30
0.0
 10
199.2737145725806
 20
130.7113493944677
 30
0.0
 10
199.1555579062391
 20
130.8144647550577
 30
0.0
 10
199.0964063039596
 20
130.8660863773273
 30
0.0
  0
SPLINE
  5
DC
330
1F
100
AcDbEntity
  8
0
  6
Continuous
 62
     7
370
    25
100
AcDbSpline
210
0.0
220
0.0
230
1.0
 70
     8
 71
     3
 72
    14
 73
    10
 74
     0
 42
0.000000001
 43
0.00000001
 40
0.0
 40
0.0
 40
0.0
 40
0.0
 40
0.1215026613286304
 40
0.2571357003598764
 40
0.3367055246605544
 40
0.4166989189548834
 40
0.509057383637861
 40
0.6599898335543911
 40
1.0
 40
1.0
 40
1.0
 40
1.0
 10
206.9704241932814
 20
131.6839238251137
 30
0.0
 10
206.9969751404625
 20
131.6710940761947
 30
0.0
 10
207.0531648265481
 20
131.6439425188739
 30
0.0
 10
207.1342803776157
 20
131.6244601567717
 30
0.0
 10
207.206792575437
 20
131.6323424860624
 30
0.0
 10
207.2623773081735
 20
131.661261104268
 30
0.0
 10
207.3148859848159
 20
131.7212722820992
 30
0.0
 10
207.3700417906879
 20
131.85396450058
 30
0.0
 10
207.3753011562889
 20
131.9737040233142
 30
0.0
 10
207.3789436141115
 20
132.0566315462021
 30
0.0
  0
SPLINE
  5
DD
330
1F
100
AcDbEntity
  8
0
  6
Continuous
 62
     7
370
    25
100
AcDbSpline
210
0.0
220
0.0
230
1.0
 70
     8
 71
     3
 72
     9
 73
     5
 74
     0
 42
0.000000001
 43
0.00000001
 40
0.0
 40
0.0
 40
0.0
 40
0.0
 40
0.9566959562429342
 40
1.0
 40
1.0
 40
1.0
 40
1.0
 10
206.9704241932815
 20
131.6839238251137
 30
0.0
 10
206.9471976796709
 20
131.6577668222743
 30
0.0
 10
206.9229198373126
 20
131.6304258445386
 30
0.0
 10
206.899877565988
 20
131.604867600557
 30
0.0
 10
206.8988797424623
 20
131.6037608252413
 30
0.0
  0
LINE
  5
DE
330
1F
100
AcDbEntity
  8
0
  6
Continuous
 62
     7
370
    25
100
AcDbLine
 10
198.9467639371
 20
130.9987033328
 30
0.0
 11
198.8773046661
 21
131.4112551943
 31
0.0
  0
LINE
  5
DF
330
1F
100
AcDbEntity
  8
0
  6
Continuous
 62
     7
370
    25
100
AcDbLine
 10
207.6023046661
 20
132.9438538232
 30
0.0
 11
198.8773046661
 21
131.4112551943
 31
0.0
  0
LINE
  5
E0
330
1F
100
AcDbEntity
  8
0
  6
Continuous
 62
     7
370
    25
100
AcDbLine
 10
207.6717639371
 20
132.5313019617
 30
0.0
 11
207.6023046661
 21
132.9438538232
 31
0.0
  0
LINE
  5
E1
330
1F
100
AcDbEntity
  8
0
  6
Continuous
 62
     7
370
    25
100
AcDbLine
 10
207.3789436141
 20
132.1689256842
 30
0.0
 11
207.2679330477
 21
132.1494260118
 31
0.0
  0
ARC
  5
E2
330
1F
100
AcDbEntity
  8
0
  6
Continuous
 62
     7
370
    25
100
AcDbCircle
 10
198.9456784539
 20
131.0182435379
 30
0.0
 40
0.3989149494461325
100
AcDbArc
 50
99.8691938009
 51
179.9156105024
  0
SPLINE
  5
E3
330
1F
100
AcDbEntity
  8
0
  6
Continuous
 62
     7
370
    25
100
AcDbSpline
210
0.0
220
0.0
230
1.0
 70
     8
 71
     3
 72
    14
 73
    10
 74
     0
 42
0.000000001
 43
0.00000001
 40
0.0
 40
0.0
 40
0.0
 40
0.0
 40
0.3240421732228833
 40
0.4390834530322062
 40
0.5550339035688737
 40
0.6320175773817233
 40
0.7091777148405569
 40
0.8120429782647978
 40
1.0
 40
1.0
 40
1.0
 40
1.0
 10
207.267933047652
 20
132.1494260117916
 30
0.0
 10
207.1903385304336
 20
132.1323841725572
 30
0.0
 10
207.0851964490257
 20
132.1092921486314
 30
0.0
 10
206.9674563118947
 20
132.0421655435305
 30
0.0
 10
206.9119908006326
 20
131.9899471160207
 30
0.0
 10
206.8830409956179
 20
131.92981101924
 30
0.0
 10
206.8779544147263
 20
131.8665510026314
 30
0.0
 10
206.9025131626509
 20
131.7790651456603
 30
0.0
 10
206.9437639870519
 20
131.7212739757914
 30
0.0
 10
206.9704241932814
 20
131.6839238251137
 30
0.0
  0
ARC
  5
E4
330
1F
100
AcDbEntity
  8
0
  6
Continuous
 62
     7
370
    25
100
AcDbCircle
 10
207.6722326618
 20
132.5504885972
 30
0.0
 40
0.399532383727446
100
AcDbArc
 50
0.1349635787
 51
100.0800896965
  0
SPLINE
  5
E5
330
1F
100
AcDbEntity
  8
0
  6
Continuous
 62
     7
370
    25
100
AcDbSpline
210
0.0
220
0.0
230
1.0
 70
    11
 71
     3
 72
    52
 73
    48
 74
     0
 42
0.000000001
 43
0.00000001
 40
0.0
 40
0.0
 40
0.0
 40
0.0
 40
0.0625000000000002
 40
0.0625000000000002
 40
0.0937499999999996
 40
0.0937499999999996
 40
0.1249999999999989
 40
0.1249999999999989
 40
0.1562499999999982
 40
0.1562499999999982
 40
0.1874999999999976
 40
0.1874999999999976
 40
0.2499999999999944
 40
0.2499999999999944
 40
0.3124999999999913
 40
0.3124999999999913
 40
0.3437499999999912
 40
0.3437499999999912
 40
0.3749999999999912
 40
0.3749999999999912
 40
0.4374999999999912
 40
0.4374999999999912
 40
0.4999999999999912
 40
0.4999999999999912
 40
0.5624999999999912
 40
0.5624999999999912
 40
0.6249999999999912
 40
0.6249999999999912
 40
0.6562499999999917
 40
0.6562499999999917
 40
0.6874999999999921
 40
0.6874999999999921
 40
0.7031249999999926
 40
0.7031249999999926
 40
0.7187499999999929
 40
0.7187499999999929
 40
0.7499999999999937
 40
0.7499999999999937
 40
0.7812499999999946
 40
0.7812499999999946
 40
0.8124999999999953
 40
0.8124999999999953
 40
0.8749999999999969
 40
0.8749999999999969
 40
0.9374999999999984
 40
0.9374999999999984
 40
1.0
 40
1.0
 40
1.0
 40
1.0
 10
192.3247372548691
 20
123.7548826933632
 30
0.0
 10
192.1438470064185
 20
123.6282219778094
 30
0.0
 10
191.9868429734636
 20
123.4842552593856
 30
0.0
 10
191.8037754742641
 20
123.2281374549834
 30
0.0
 10
191.7532086996866
 20
123.1379672348588
 30
0.0
 10
191.67711086275
 20
122.9450710472469
 30
0.0
 10
191.6517575236209
 20
122.8413768713192
 30
0.0
 10
191.6347867056399
 20
122.628066530983
 30
0.0
 10
191.643179961803
 20
122.5152309490868
 30
0.0
 10
191.6970812793128
 20
122.2923378333847
 30
0.0
 10
191.7427893452935
 20
122.1802286789714
 30
0.0
 10
191.9324073179587
 20
121.8584263452759
 30
0.0
 10
192.1258617906307
 20
121.6706719652982
 30
0.0
 10
192.5618008192394
 20
121.3996885385942
 30
0.0
 10
192.7994683612173
 20
121.3165810414527
 30
0.0
 10
193.1479465243929
 20
121.2608625920529
 30
0.0
 10
193.265058835408
 20
121.2534572558162
 30
0.0
 10
193.492325006847
 20
121.2589176761416
 30
0.0
 10
193.6031001145574
 20
121.2715196385729
 30
0.0
 10
193.9288065242023
 20
121.3353973227844
 30
0.0
 10
194.1372366916197
 20
121.4134968400066
 30
0.0
 10
194.5210572389531
 20
121.620041346218
 30
0.0
 10
194.7014163197804
 20
121.7506995712527
 30
0.0
 10
195.0298295765274
 20
122.0543640396978
 30
0.0
 10
195.1770956002598
 20
122.225465540361
 30
0.0
 10
195.4329899928168
 20
122.609582114557
 30
0.0
 10
195.5415782233927
 20
122.8209832874183
 30
0.0
 10
195.6430062393697
 20
123.1683823901518
 30
0.0
 10
195.6657567974096
 20
123.2871574670546
 30
0.0
 10
195.6751380301967
 20
123.5326587304427
 30
0.0
 10
195.6609330410204
 20
123.6590147614969
 30
0.0
 10
195.5942863986322
 20
123.8376987818668
 30
0.0
 10
195.5651880756996
 20
123.8937828451323
 30
0.0
 10
195.4922769362303
 20
123.9984709532497
 30
0.0
 10
195.447940556461
 20
124.0471665531761
 30
0.0
 10
195.3017296494036
 20
124.1735826491135
 30
0.0
 10
195.1846230025774
 20
124.2346065540273
 30
0.0
 10
194.9430457803996
 20
124.3201517295388
 30
0.0
 10
194.8166056860344
 20
124.346023908433
 30
0.0
 10
194.5666575698047
 20
124.3761359070772
 30
0.0
 10
194.4410381103197
 20
124.3806512913965
 30
0.0
 10
194.0659584307004
 20
124.3721495661986
 30
0.0
 10
193.8248912188189
 20
124.338308438648
 30
0.0
 10
193.3569623115223
 20
124.2341968027314
 30
0.0
 10
193.1287575831282
 20
124.162393361192
 30
0.0
 10
192.703897715929
 20
123.9859886004249
 30
0.0
 10
192.5056275033196
 20
123.8815434089169
 30
0.0
 10
192.324737254869
 20
123.7548826933632
 30
0.0
  0
SPLINE
  5
E6
330
1F
100
AcDbEntity
  8
0
  6
Continuous
 62
     7
370
    25
100
AcDbSpline
210
0.0
220
0.0
230
1.0
 70
     8
 71
     3
 72
    24
 73
    20
 74
     0
 42
0.000000001
 43
0.00000001
 40
0.0
 40
0.0
 40
0.0
 40
0.0
 40
0.0625000000000001
 40
0.0625000000000001
 40
0.1250000000000002
 40
0.1250000000000002
 40
0.2499999999999991
 40
0.2499999999999991
 40
0.3124999999999984
 40
0.3124999999999984
 40
0.3749999999999978
 40
0.3749999999999978
 40
0.4999999999999983
 40
0.4999999999999983
 40
0.6249999999999988
 40
0.6249999999999988
 40
0.7499999999999991
 40
0.7499999999999991
 40
1.0
 40
1.0
 40
1.0
 40
1.0
 10
186.5717639371391
 20
122.7227289328106
 30
0.0
 10
186.7005813220267
 20
122.4781486982774
 30
0.0
 10
186.8530633870171
 20
122.230073345927
 30
0.0
 10
187.1930937218229
 20
121.726076943745
 30
0.0
 10
187.3791886237306
 20
121.4725429391389
 30
0.0
 10
187.965198731078
 20
120.7154701189395
 30
0.0
 10
188.3953611781452
 20
120.2105565188485
 30
0.0
 10
189.0767185007271
 20
119.4460222893
 30
0.0
 10
189.3107251531473
 20
119.1893943435198
 30
0.0
 10
189.7833005708767
 20
118.6797489710923
 30
0.0
 10
190.0224832593457
 20
118.4260313926306
 30
0.0
 10
190.7470454775109
 20
117.6670374219433
 30
0.0
 10
191.2392915910196
 20
117.1638085444514
 30
0.0
 10
192.2384155820713
 20
116.1604730908179
 30
0.0
 10
192.7453484989628
 20
115.6603993248732
 30
0.0
 10
193.7745593937726
 20
114.664423997235
 30
0.0
 10
194.292843386446
 20
114.1725128940814
 30
0.0
 10
195.8480987833572
 20
112.7338877565437
 30
0.0
 10
196.8911021456061
 20
111.817150834086
 30
0.0
 10
197.9655135361274
 20
110.9660115541119
 30
0.0
  0
SPLINE
  5
E7
330
1F
100
AcDbEntity
  8
0
  6
Continuous
 62
     7
370
    25
100
AcDbSpline
210
0.0
220
0.0
230
1.0
 70
     8
 71
     3
 72
    20
 73
    16
 74
     0
 42
0.000000001
 43
0.00000001
 40
0.0
 40
0.0
 40
0.0
 40
0.0
 40
0.1250000000000002
 40
0.1250000000000002
 40
0.2500000000000004
 40
0.2500000000000004
 40
0.5000000000000006
 40
0.5000000000000006
 40
0.6250000000000004
 40
0.6250000000000004
 40
0.7500000000000003
 40
0.7500000000000003
 40
0.8750000000000002
 40
0.8750000000000002
 40
1.0
 40
1.0
 40
1.0
 40
1.0
 10
186.5717639371391
 20
122.7227289328106
 30
0.0
 10
186.4951275675054
 20
122.9799178394977
 30
0.0
 10
186.442615871603
 20
123.2388775392103
 30
0.0
 10
186.3934615958371
 20
123.7629391758014
 30
0.0
 10
186.3974472901772
 20
124.0293758593862
 30
0.0
 10
186.499914130646
 20
124.8193838397006
 30
0.0
 10
186.6874775950076
 20
125.3402132826936
 30
0.0
 10
187.1368096676746
 20
126.1461862002231
 30
0.0
 10
187.313656401585
 20
126.4172058463906
 30
0.0
 10
187.706720094829
 20
126.9588941386288
 30
0.0
 10
187.9238612585066
 20
127.2312999992113
 30
0.0
 10
188.3930755065873
 20
127.7852340440756
 30
0.0
 10
188.646332719284
 20
128.0679986627796
 30
0.0
 10
189.1762269198671
 20
128.6401824370359
 30
0.0
 10
189.452864748152
 20
128.9297362216992
 30
0.0
 10
189.7392464862361
 20
129.2246681657715
 30
0.0
  0
SPLINE
  5
E8
330
1F
100
AcDbEntity
  8
0
  6
Continuous
 62
     7
370
    25
100
AcDbSpline
210
0.0
220
0.0
230
1.0
 70
     8
 71
     3
 72
    10
 73
     6
 74
     0
 42
0.000000001
 43
0.00000001
 40
0.0
 40
0.0
 40
0.0
 40
0.0
 40
0.5
 40
0.5
 40
1.0
 40
1.0
 40
1.0
 40
1.0
 10
189.7392464862361
 20
129.2246681657715
 30
0.0
 10
190.4481468062743
 20
129.3604059987506
 30
0.0
 10
191.1638387067312
 20
129.4899472814818
 30
0.0
 10
192.6052919453864
 20
129.7476002599935
 30
0.0
 10
193.3311031714334
 20
129.8755735949088
 30
0.0
 10
194.0615239554492
 20
130.0044119636737
 30
0.0
  0
SPLINE
  5
E9
330
1F
100
AcDbEntity
  8
0
  6
Continuous
 62
     7
370
    25
100
AcDbSpline
210
0.0
220
0.0
230
1.0
 70
     8
 71
     3
 72
    32
 73
    28
 74
     0
 42
0.000000001
 43
0.00000001
 40
0.0
 40
0.0
 40
0.0
 40
0.0
 40
0.0624999999999997
 40
0.0624999999999997
 40
0.1249999999999994
 40
0.1249999999999994
 40
0.2499999999999946
 40
0.2499999999999946
 40
0.3749999999999897
 40
0.3749999999999897
 40
0.4374999999999903
 40
0.4374999999999903
 40
0.499999999999991
 40
0.499999999999991
 40
0.5624999999999917
 40
0.5624999999999917
 40
0.6249999999999925
 40
0.6249999999999925
 40
0.6874999999999931
 40
0.6874999999999931
 40
0.7499999999999939
 40
0.7499999999999939
 40
0.8749999999999948
 40
0.8749999999999948
 40
0.9374999999999974
 40
0.9374999999999974
 40
1.0
 40
1.0
 40
1.0
 40
1.0
 10
200.9019825328918
 20
122.1383591169597
 30
0.0
 10
200.8611568792665
 20
122.0090097181891
 30
0.0
 10
200.8045853851037
 20
121.8863236216341
 30
0.0
 10
200.6633273309272
 20
121.6589053932463
 30
0.0
 10
200.5772650003284
 20
121.552823713123
 30
0.0
 10
200.2889100486914
 20
121.2762467312818
 30
0.0
 10
200.0471166741564
 20
121.1394184877871
 30
0.0
 10
199.531975868718
 20
120.9976070201927
 30
0.0
 10
199.2560198514437
 20
120.99063724919
 30
0.0
 10
198.8614711845835
 20
121.0767192160944
 30
0.0
 10
198.7308109461202
 20
121.1221742807708
 30
0.0
 10
198.487697377033
 20
121.2412746433642
 30
0.0
 10
198.372787603733
 20
121.3156749275708
 30
0.0
 10
198.1630640577751
 20
121.4912093717505
 30
0.0
 10
198.0707611007832
 20
121.5898605171609
 30
0.0
 10
197.9109689730538
 20
121.8086803279262
 30
0.0
 10
197.8447971655982
 20
121.9278593156911
 30
0.0
 10
197.7447786404194
 20
122.1751279949058
 30
0.0
 10
197.7099015853246
 20
122.3062360108229
 30
0.0
 10
197.6740822549853
 20
122.5680375892356
 30
0.0
 10
197.6724478818574
 20
122.7007651805331
 30
0.0
 10
197.7172125391182
 20
123.0957731597601
 30
0.0
 10
197.8133522715295
 20
123.3489780400407
 30
0.0
 10
198.0406612574525
 20
123.6751530074676
 30
0.0
 10
198.1314752481356
 20
123.7762718662157
 30
0.0
 10
198.3327055099132
 20
123.9514108803564
 30
0.0
 10
198.4455832147575
 20
124.0278043540923
 30
0.0
 10
198.5661771819787
 20
124.0893118557243
 30
0.0
  0
SPLINE
  5
EA
330
1F
100
AcDbEntity
  8
0
  6
Continuous
 62
     7
370
    25
100
AcDbSpline
210
0.0
220
0.0
230
1.0
 70
     8
 71
     3
 72
     8
 73
     4
 74
     0
 42
0.000000001
 43
0.00000001
 40
0.0
 40
0.0
 40
0.0
 40
0.0
 40
1.0
 40
1.0
 40
1.0
 40
1.0
 10
206.7566228360278
 20
116.4368833202001
 30
0.0
 10
206.9376152853668
 20
116.5415489348076
 30
0.0
 10
207.0983010605091
 20
116.6716568600066
 30
0.0
 10
207.2387456740249
 20
116.8271902450981
 30
0.0
  0
ELLIPSE
  5
EB
330
1F
100
AcDbEntity
  8
0
  6
Continuous
 62
     7
370
    25
100
AcDbEllipse
 10
208.3859526396
 20
116.7258521925
 30
0.0
 11
10.80355341949911
 21
6.165720034875037
 31
0.0
210
0.0
220
0.0
230
1.0
 40
0.0451040694
 41
1.696401938928392
 42
2.847540935390525
  0
LINE
  5
EC
330
1F
100
AcDbEntity
  8
0
  6
Continuous
 62
     7
370
    25
100
AcDbLine
 10
189.7392464862
 20
129.2246681658
 30
0.0
 11
189.7392464862
 21
129.2423901466
 31
0.0
  0
LINE
  5
ED
330
1F
100
AcDbEntity
  8
0
  6
Continuous
 62
     7
370
    25
100
AcDbLine
 10
186.5717639371
 20
105.0749075975
 30
0.0
 11
186.5717639371
 21
122.7227289328
 31
0.0
  0
LINE
  5
EE
330
1F
100
AcDbEntity
  8
0
  6
Continuous
 62
     7
370
    25
100
AcDbLine
 10
186.0717639371
 20
105.5749075975
 30
0.0
 11
186.0717639371
 21
125.5749075975
 31
0.0
  0
ELLIPSE
  5
EF
330
1F
100
AcDbEntity
  8
0
  6
Continuous
 62
     7
370
    25
100
AcDbEllipse
 10
205.1328393477
 20
115.5749075975
 30
0.0
 11
18.36681480757684
 21
10.49143687586546
 31
0.0
210
0.0
220
0.0
230
1.0
 40
0.0230835902
 41
3.181981922108538
 42
4.298356877969464
  0
LINE
  5
F0
330
1F
100
AcDbEntity
  8
0
  6
Continuous
 62
     7
370
    25
100
AcDbLine
 10
180.0717639371
 20
105.5749075975
 30
0.0
 11
180.0717639371
 21
125.5749075975
 31
0.0
  0
LINE
  5
F1
330
1F
100
AcDbEntity
  8
0
  6
Continuous
 62
     7
370
    25
100
AcDbLine
 10
178.0717639371
 20
107.5749075975
 30
0.0
 11
178.0717639371
 21
123.5749075975
 31
0.0
  0
LINE
  5
F2
330
1F
100
AcDbEntity
  8
0
  6
Continuous
 62
     7
370
    25
100
AcDbLine
 10
93.0717639371
 20
108.9499075975
 30
0.0
 11
93.0717639371
 21
121.7749075975
 31
0.0
  0
SPLINE
  5
F3
330
1F
100
AcDbEntity
  8
0
  6
Continuous
 62
     7
370
    25
100
AcDbSpline
210
0.0
220
0.0
230
1.0
 70
    24
 71
     3
 72
    10
 73
     6
 74
     0
 42
0.000000001
 43
0.00000001
 40
0.0
 40
0.0
 40
0.0
 40
0.0
 40
0.5
 40
0.5
 40
1.0
 40
1.0
 40
1.0
 40
1.0
 10
94.4467639371391
 20
121.7749075975359
 30
0.0
 10
94.17452374982189
 20
121.7749075975359
 30
0.0
 10
93.91615964163388
 20
121.7749075975359
 30
0.0
 10
93.4500936238185
 20
121.7749075975359
 30
0.0
 10
93.24150312069082
 20
121.7749075975359
 30
0.0
 10
93.07176393713908
 20
121.7749075975359
 30
0.0
  0
LINE
  5
F4
330
1F
100
AcDbEntity
  8
0
  6
Continuous
 62
     7
370
    25
100
AcDbLine
 10
94.4467639371
 20
107.5749075975
 30
0.0
 11
94.4467639371
 21
121.7749075975
 31
0.0
  0
LINE
  5
F5
330
1F
100
AcDbEntity
  8
0
  6
Continuous
 62
     7
370
    25
100
AcDbLine
 10
102.5717639371
 20
121.7749075975
 30
0.0
 11
94.4467639371
 21
121.7749075975
 31
0.0
  0
LINE
  5
F6
330
1F
100
AcDbEntity
  8
0
  6
Continuous
 62
     7
370
    25
100
AcDbLine
 10
104.3717639371
 20
123.5749075975
 30
0.0
 11
102.5717639371
 21
121.7749075975
 31
0.0
  0
LINE
  5
F7
330
1F
100
AcDbEntity
  8
0
  6
Continuous
 62
     7
370
    25
100
AcDbLine
 10
109.0717639371
 20
121.7749075975
 30
0.0
 11
107.2717639371
 21
123.5749075975
 31
0.0
  0
LINE
  5
F8
330
1F
100
AcDbEntity
  8
0
  6
Continuous
 62
     7
370
    25
100
AcDbLine
 10
117.0717639371
 20
121.7749075975
 30
0.0
 11
109.0717639371
 21
121.7749075975
 31
0.0
  0
LINE
  5
F9
330
1F
100
AcDbEntity
  8
0
  6
Continuous
 62
     7
370
    25
100
AcDbLine
 10
118.8717639371
 20
123.5749075975
 30
0.0
 11
117.0717639371
 21
121.7749075975
 31
0.0
  0
LINE
  5
FA
330
1F
100
AcDbEntity
  8
0
  6
Continuous
 62
     7
370
    25
100
AcDbLine
 10
123.5717639371
 20
121.7749075975
 30
0.0
 11
121.7717639371
 21
123.5749075975
 31
0.0
  0
LINE
  5
FB
330
1F
100
AcDbEntity
  8
0
  6
Continuous
 62
     7
370
    25
100
AcDbLine
 10
131.5717639371
 20
121.7749075975
 30
0.0
 11
123.5717639371
 21
121.7749075975
 31
0.0
  0
LINE
  5
FC
330
1F
100
AcDbEntity
  8
0
  6
Continuous
 62
     7
370
    25
100
AcDbLine
 10
133.3717639371
 20
123.5749075975
 30
0.0
 11
131.5717639371
 21
121.7749075975
 31
0.0
  0
LINE
  5
FD
330
1F
100
AcDbEntity
  8
0
  6
Continuous
 62
     7
370
    25
100
AcDbLine
 10
138.0717639371
 20
121.7749075975
 30
0.0
 11
136.2717639371
 21
123.5749075975
 31
0.0
  0
LINE
  5
FE
330
1F
100
AcDbEntity
  8
0
  6
Continuous
 62
     7
370
    25
100
AcDbLine
 10
146.0717639371
 20
121.7749075975
 30
0.0
 11
138.0717639371
 21
121.7749075975
 31
0.0
  0
LINE
  5
FF
330
1F
100
AcDbEntity
  8
0
  6
Continuous
 62
     7
370
    25
100
AcDbLine
 10
147.8717639371
 20
123.5749075975
 30
0.0
 11
146.0717639371
 21
121.7749075975
 31
0.0
  0
LINE
  5
100
330
1F
100
AcDbEntity
  8
0
  6
Continuous
 62
     7
370
    25
100
AcDbLine
 10
152.5717639371
 20
121.7749075975
 30
0.0
 11
150.7717639371
 21
123.5749075975
 31
0.0
  0
LINE
  5
101
330
1F
100
AcDbEntity
  8
0
  6
Continuous
 62
     7
370
    25
100
AcDbLine
 10
160.5717639371
 20
121.7749075975
 30
0.0
 11
152.5717639371
 21
121.7749075975
 31
0.0
  0
LINE
  5
102
330
1F
100
AcDbEntity
  8
0
  6
Continuous
 62
     7
370
    25
100
AcDbLine
 10
162.3717639371
 20
123.5749075975
 30
0.0
 11
160.5717639371
 21
121.7749075975
 31
0.0
  0
ARC
  5
103
330
1F
100
AcDbEntity
  8
0
  6
Continuous
 62
     7
370
    25
100
AcDbCircle
 10
199.320759941
 20
122.2855605012
 30
0.0
 40
1.643623142432427
100
AcDbArc
 50
118.0932812715
 51
175.4962880978
  0
LINE
  5
104
330
1F
100
AcDbEntity
  8
0
  6
Continuous
 62
     7
370
    25
100
AcDbLine
 10
194.0615239554
 20
130.0044119637
 30
0.0
 11
198.5467639371
 21
130.7953872707
 31
0.0
  0
LINE
  5
105
330
1F
100
AcDbEntity
  8
0
  6
Continuous
 62
     7
370
    25
100
AcDbLine
 10
207.747207025
 20
118.1492176116
 30
0.0
 11
207.747207025
 21
123.3342197711
 31
0.0
  0
ELLIPSE
  5
106
330
1F
100
AcDbEntity
  8
0
  6
Continuous
 62
     7
370
    25
100
AcDbEllipse
 10
205.732187374
 20
118.1664304237
 30
0.0
 11
1.868639352156748
 21
-0.7633212359937716
 31
0.0
210
0.0
220
0.0
230
1.0
 40
0.9877670049
 41
5.94044112304789
 42
6.666699550843423
  0
ARC
  5
107
330
1F
100
AcDbEntity
  8
0
  6
HIDDEN
 62
     7
370
    18
100
AcDbCircle
 10
203.6849469514
 20
125.8970225873
 30
0.0
 40
0.3350429540927665
100
AcDbArc
 50
213.3660306246
 51
6.6002915771
  0
ARC
  5
108
330
1F
100
AcDbEntity
  8
0
  6
HIDDEN
 62
     7
370
    18
100
AcDbCircle
 10
202.3630785299
 20
126.1272832196
 30
0.0
 40
0.3345191134088872
100
AcDbArc
 50
153.4365901724
 51
306.8852330013
  0
ARC
  5
109
330
1F
100
AcDbEntity
  8
0
  6
HIDDEN
 62
     7
370
    18
100
AcDbCircle
 10
204.5984308427
 20
126.0040370911
 30
0.0
 40
0.5846884757511095
100
AcDbArc
 50
93.1633099742
 51
186.7284064418
  0
ARC
  5
10A
330
1F
100
AcDbEntity
  8
0
  6
HIDDEN
 62
     7
370
    18
100
AcDbCircle
 10
201.5424359129
 20
126.5387753178
 30
0.0
 40
0.5839600754739432
100
AcDbArc
 50
0.0528243198
 51
66.9578899868
  0
ARC
  5
10B
330
1F
100
AcDbEntity
  8
0
  6
HIDDEN
 62
     7
370
    18
100
AcDbCircle
 10
204.5479013312
 20
126.9212525233
 30
0.0
 40
0.333917765322955
100
AcDbArc
 50
273.1356190823
 51
11.583106176
  0
ARC
  5
10C
330
1F
100
AcDbEntity
  8
0
  6
HIDDEN
 62
     7
370
    18
100
AcDbCircle
 10
201.9014563808
 20
127.383065713
 30
0.0
 40
0.3334939999158344
100
AcDbArc
 50
170.3199214539
 51
246.9724497616
  0
ARC
  5
10D
330
1F
100
AcDbEntity
  8
0
  6
HIDDEN
 62
     7
370
    18
100
AcDbCircle
 10
203.2272572417
 20
127.1801040427
 30
0.0
 40
2.62501091193817
100
AcDbArc
 50
0.1652049941
 51
179.8347950059
  0
ARC
  5
10E
330
1F
100
AcDbEntity
  8
0
  6
HIDDEN
 62
     7
370
    18
100
AcDbCircle
 10
204.9055755254
 20
127.7645725347
 30
0.0
 40
0.5821513035203554
100
AcDbArc
 50
153.2014884131
 51
179.9972551827
  0
LINE
  5
10F
330
1F
100
AcDbEntity
  8
0
  6
HIDDEN
 62
     7
370
    18
100
AcDbLine
 10
202.4361864771
 20
128.299131896
 30
0.0
 11
202.4320506613
 21
128.3683809644
 31
0.0
  0
LWPOLYLINE
  5
110
330
1F
100
AcDbEntity
  8
0
  6
HIDDEN
 62
     7
370
    18
100
AcDbPolyline
 90
        3
 70
   128
 43
0.0
 10
204.4157426483
 20
128.2395391422
 10
204.4188004433
 20
128.1333624946
 10
204.3859487093
 20
128.0270379841
  0
LWPOLYLINE
  5
111
330
1F
100
AcDbEntity
  8
0
  6
HIDDEN
 62
     7
370
    18
100
AcDbPolyline
 90
        3
 70
   128
 43
0.0
 10
202.4320506613
 20
128.3683809644
 10
202.4374761784
 20
128.4794967928
 10
202.4464297603
 20
128.5121345587
  0
ARC
  5
112
330
1F
100
AcDbEntity
  8
0
  6
HIDDEN
 62
     7
370
    18
100
AcDbCircle
 10
202.9150408767
 20
125.3886737464
 30
0.0
 40
0.5875483023100999
100
AcDbArc
 50
33.4754893771
 51
126.705548474
  0
CIRCLE
  5
113
330
1F
100
AcDbEntity
  8
0
  6
HIDDEN
 62
     7
370
    18
100
AcDbCircle
 10
203.2244087591
 20
126.9488531091
 30
0.0
 40
1.997262732681822
  0
CIRCLE
  5
114
330
1F
100
AcDbEntity
  8
0
  6
HIDDEN
 62
     7
370
    18
100
AcDbCircle
 10
203.2244087591
 20
126.5392211182
 30
0.0
 40
1.99726273268186
  0
CIRCLE
  5
115
330
1F
100
AcDbEntity
  8
0
  6
HIDDEN
 62
     7
370
    18
100
AcDbCircle
 10
203.2251240038
 20
126.4946629648
 30
0.0
 40
1.498266524733356
  0
LINE
  5
116
330
1F
100
AcDbEntity
  8
0
  6
HIDDEN
 62
     7
370
    18
100
AcDbLine
 10
198.9467639371
 20
121.9090167179
 30
0.0
 11
199.0162232082
 21
121.8005232379
 31
0.0
  0
LINE
  5
117
330
1F
100
AcDbEntity
  8
0
  6
HIDDEN
 62
     7
370
    18
100
AcDbLine
 10
199.0342186439
 20
121.9507668995
 30
0.0
 11
198.9467639371
 21
121.9090167179
 31
0.0
  0
LINE
  5
118
330
1F
100
AcDbEntity
  8
0
  6
HIDDEN
 62
     7
370
    18
100
AcDbLine
 10
198.9467639371
 20
121.9090167179
 30
0.0
 11
198.5467639371
 21
122.1929473428
 31
0.0
  0
LINE
  5
119
330
1F
100
AcDbEntity
  8
0
  6
HIDDEN
 62
     7
370
    18
100
AcDbLine
 10
207.6717639371
 20
123.4416153468
 30
0.0
 11
207.7412232082
 21
123.3331218668
 31
0.0
  0
LINE
  5
11A
330
1F
100
AcDbEntity
  8
0
  6
HIDDEN
 62
     7
370
    18
100
AcDbLine
 10
207.6717639371
 20
123.4416153468
 30
0.0
 11
208.0717639371
 21
123.7255459717
 31
0.0
  0
LINE
  5
11B
330
1F
100
AcDbEntity
  8
0
  6
HIDDEN
 62
     7
370
    18
100
AcDbLine
 10
207.5843092304
 20
123.4526416399
 30
0.0
 11
207.6717639371
 21
123.4416153468
 31
0.0
  0
ARC
  5
11C
330
1F
100
AcDbEntity
  8
0
  6
HIDDEN
 62
     7
370
    18
100
AcDbCircle
 10
203.3092639371
 20
127.2811647355
 30
0.0
 40
3.050013891397112
100
AcDbArc
 50
180.1729258221
 51
359.8270741779
  0
LINE
  5
11D
330
1F
100
AcDbEntity
  8
0
  6
HIDDEN
 62
     7
370
    18
100
AcDbLine
 10
207.5843092304
 20
132.1015935641
 30
0.0
 11
207.6717639371
 21
132.2674990934
 31
0.0
  0
LINE
  5
11E
330
1F
100
AcDbEntity
  8
0
  6
HIDDEN
 62
     7
370
    18
100
AcDbLine
 10
199.0342186439
 20
130.5997188238
 30
0.0
 11
198.9467639371
 21
130.7349004646
 31
0.0
  0
LINE
  5
11F
330
1F
100
AcDbEntity
  8
0
  6
HIDDEN
 62
     7
370
    18
100
AcDbLine
 10
198.9467639371
 20
130.7349004646
 30
0.0
 11
198.8773046661
 21
131.4112551943
 31
0.0
  0
LINE
  5
120
330
1F
100
AcDbEntity
  8
0
  6
HIDDEN
 62
     7
370
    18
100
AcDbLine
 10
198.9467639371
 20
130.7349004646
 30
0.0
 11
198.5467639371
 21
131.0188310894
 31
0.0
  0
LINE
  5
121
330
1F
100
AcDbEntity
  8
0
  6
HIDDEN
 62
     7
370
    18
100
AcDbLine
 10
207.6717639371
 20
132.2674990934
 30
0.0
 11
207.6023046661
 21
132.9438538232
 31
0.0
  0
LINE
  5
122
330
1F
100
AcDbEntity
  8
0
  6
HIDDEN
 62
     7
370
    18
100
AcDbLine
 10
207.6717639371
 20
132.2674990934
 30
0.0
 11
208.0717639371
 21
132.5514297183
 31
0.0
  0
CIRCLE
  5
123
330
1F
100
AcDbEntity
  8
0
  6
HIDDEN
 62
     7
370
    18
100
AcDbCircle
 10
203.3031126878
 20
127.1475221056
 30
0.0
 40
2.19384911112193
  0
CIRCLE
  5
124
330
1F
100
AcDbEntity
  8
0
  6
HIDDEN
 62
     7
370
    18
100
AcDbCircle
 10
203.3031126878
 20
127.0249226849
 30
0.0
 40
2.193849111121902
  0
LINE
  5
125
330
1F
100
AcDbEntity
  8
0
  6
HIDDEN
 62
     7
370
    18
100
AcDbLine
 10
207.5843092304
 20
132.1015935641
 30
0.0
 11
199.0342186439
 21
130.5997188238
 31
0.0
  0
LINE
  5
126
330
1F
100
AcDbEntity
  8
0
  6
HIDDEN
 62
     7
370
    18
100
AcDbLine
 10
207.5843092304
 20
123.4526416399
 30
0.0
 11
207.5843092304
 21
132.1015935641
 31
0.0
  0
LINE
  5
127
330
1F
100
AcDbEntity
  8
0
  6
HIDDEN
 62
     7
370
    18
100
AcDbLine
 10
199.0342186439
 20
130.5997188238
 30
0.0
 11
199.0342186439
 21
121.9507668995
 31
0.0
  0
LINE
  5
128
330
1F
100
AcDbEntity
  8
0
  6
HIDDEN
 62
     7
370
    18
100
AcDbLine
 10
199.0342186439
 20
121.9507668995
 30
0.0
 11
207.5843092304
 21
123.4526416399
 31
0.0
  0
ELLIPSE
  5
129
330
1F
100
AcDbEntity
  8
0
  6
HIDDEN
 62
     7
370
    18
100
AcDbEllipse
 10
197.0979061185
 20
128.0138987136
 30
0.0
 11
-0.2183418866257796
 21
17.12461979490493
 31
0.0
210
0.0
220
0.0
230
1.0
 40
0.0850907733
 41
4.480071029977538
 42
4.56365352953177
  0
ELLIPSE
  5
12A
330
1F
100
AcDbEntity
  8
0
  6
HIDDEN
 62
     7
370
    18
100
AcDbEllipse
 10
203.0414065956
 20
122.0703982365
 30
0.0
 11
14.46301244323183
 21
2.503825324104781
 31
0.0
210
0.0
220
0.0
230
1.0
 40
0.0297303256
 41
1.653416370481023
 42
1.714116168521684
  0
LINE
  5
12B
330
1F
100
AcDbEntity
  8
0
  6
HIDDEN
 62
     7
370
    18
100
AcDbLine
 10
189.7392464862
 20
129.2246681658
 30
0.0
 11
189.7392464862
 21
123.3757688209
 31
0.0
  0
SPLINE
  5
12C
330
1F
100
AcDbEntity
  8
0
  6
HIDDEN
 62
     7
370
    18
100
AcDbSpline
210
0.0
220
0.0
230
1.0
 70
     8
 71
     3
 72
    16
 73
    12
 74
     0
 42
0.000000001
 43
0.00000001
 40
0.0
 40
0.0
 40
0.0
 40
0.0
 40
0.2500000000000014
 40
0.2500000000000014
 40
0.3750000000000017
 40
0.3750000000000017
 40
0.500000000000002
 40
0.500000000000002
 40
0.750000000000001
 40
0.750000000000001
 40
1.0
 40
1.0
 40
1.0
 40
1.0
 10
186.5717639371391
 20
114.6597722986855
 30
0.0
 10
186.5717639371391
 20
115.4512814158685
 30
0.0
 10
186.662644254346
 20
116.2270635906548
 30
0.0
 10
186.9123380742266
 20
117.3711174665214
 30
0.0
 10
187.0143360582325
 20
117.7492211578147
 30
0.0
 10
187.2512238108767
 20
118.4997365796101
 30
0.0
 10
187.3859036505973
 20
118.8711862780494
 30
0.0
 10
187.8250708700139
 20
119.9628835097385
 30
0.0
 10
188.1659398412299
 20
120.6665334004716
 30
0.0
 10
188.9104184382769
 20
122.0423286719621
 30
0.0
 10
189.3142329846819
 20
122.7143711541715
 30
0.0
 10
189.7392464862359
 20
123.375768820861
 30
0.0
  0
ELLIPSE
  5
12D
330
1F
100
AcDbEntity
  8
0
  6
HIDDEN
 62
     7
370
    18
100
AcDbEllipse
 10
205.1328393477
 20
115.5749075975
 30
0.0
 11
18.36681480757684
 21
10.49143687586546
 31
0.0
210
0.0
220
0.0
230
1.0
 40
0.0230835902
 41
1.698452057912769
 42
3.181981922108538
  0
SPLINE
  5
12E
330
1F
100
AcDbEntity
  8
0
  6
HIDDEN
 62
     7
370
    18
100
AcDbSpline
210
0.0
220
0.0
230
1.0
 70
     8
 71
     3
 72
    30
 73
    26
 74
     0
 42
0.000000001
 43
0.00000001
 40
0.0
 40
0.0
 40
0.0
 40
0.0
 40
0.1249999999999905
 40
0.1249999999999905
 40
0.2499999999999811
 40
0.2499999999999811
 40
0.3749999999999716
 40
0.3749999999999716
 40
0.437499999999964
 40
0.437499999999964
 40
0.468749999999963
 40
0.468749999999963
 40
0.4999999999999619
 40
0.4999999999999619
 40
0.5312499999999609
 40
0.5312499999999609
 40
0.5624999999999598
 40
0.5624999999999598
 40
0.6249999999999631
 40
0.6249999999999631
 40
0.7499999999999754
 40
0.7499999999999754
 40
0.8749999999999877
 40
0.8749999999999877
 40
1.0
 40
1.0
 40
1.0
 40
1.0
 10
185.0717639371389
 20
116.4751684999776
 30
0.0
 10
185.1338360079109
 20
116.3378271712428
 30
0.0
 10
185.1989050646455
 20
116.2089262059813
 30
0.0
 10
185.3385843593442
 20
115.9819256870324
 30
0.0
 10
185.411487853047
 20
115.8872056237891
 30
0.0
 10
185.5642089606189
 20
115.7462655246552
 30
0.0
 10
185.6426257025289
 20
115.7018984366564
 30
0.0
 10
185.7599663840122
 20
115.6698872868528
 30
0.0
 10
185.7991275585317
 20
115.665027337797
 30
0.0
 10
185.8549085708852
 20
115.6629991444581
 30
0.0
 10
185.8730648311188
 20
115.6632478069028
 30
0.0
 10
185.905385318141
 20
115.6627622391747
 30
0.0
 10
185.9206380819503
 20
115.662487346363
 30
0.0
 10
185.9290041096236
 20
115.6478701371847
 30
0.0
 10
185.9187353121434
 20
115.6321415364388
 30
0.0
 10
185.8894683258744
 20
115.5990997596369
 30
0.0
 10
185.8714299768105
 20
115.5820337666169
 30
0.0
 10
185.8157596711092
 20
115.533797867505
 30
0.0
 10
185.7756630516519
 20
115.5051218814801
 30
0.0
 10
185.6561879730689
 20
115.4376557551593
 30
0.0
 10
185.5764394527802
 20
115.4168680175767
 30
0.0
 10
185.420338429934
 20
115.4359877246535
 30
0.0
 10
185.3458683594265
 20
115.4754923574416
 30
0.0
 10
185.2028586125351
 20
115.6084352261355
 30
0.0
 10
185.1357843564853
 20
115.7000740817528
 30
0.0
 10
185.0717639371389
 20
115.8104614220582
 30
0.0
  0
SPLINE
  5
12F
330
1F
100
AcDbEntity
  8
0
  6
HIDDEN
 62
     7
370
    18
100
AcDbSpline
210
0.0
220
0.0
230
1.0
 70
     8
 71
     3
 72
    18
 73
    14
 74
     0
 42
0.000000001
 43
0.00000001
 40
0.0
 40
0.0
 40
0.0
 40
0.0
 40
0.1249999999999999
 40
0.1249999999999999
 40
0.2499999999999999
 40
0.2499999999999999
 40
0.3749999999999999
 40
0.3749999999999999
 40
0.4999999999999999
 40
0.4999999999999999
 40
0.75
 40
0.75
 40
1.0
 40
1.0
 40
1.0
 40
1.0
 10
183.6985013296786
 20
115.0839964845565
 30
0.0
 10
183.6893769334644
 20
115.1730396755106
 30
0.0
 10
183.6816927043602
 20
115.2641937128605
 30
0.0
 10
183.6789172337793
 20
115.4513371946922
 30
0.0
 10
183.6836127719977
 20
115.5453252368468
 30
0.0
 10
183.7288768133097
 20
115.7281772650273
 30
0.0
 10
183.7728646558159
 20
115.8145986331606
 30
0.0
 10
183.8962785009695
 20
115.9553703404113
 30
0.0
 10
183.9718840995753
 20
116.0110831454703
 30
0.0
 10
184.2095543995979
 20
116.156710233345
 30
0.0
 10
184.3798507047391
 20
116.2271879054405
 30
0.0
 10
184.72320245296
 20
116.3595658650683
 30
0.0
 10
184.8974670866348
 20
116.4189827400989
 30
0.0
 10
185.0717639371394
 20
116.4751684999773
 30
0.0
  0
ARC
  5
130
330
1F
100
AcDbEntity
  8
0
  6
HIDDEN
 62
     7
370
    18
100
AcDbCircle
 10
176.8474344434
 20
111.0803041051
 30
0.0
 40
7.935154072163424
100
AcDbArc
 50
30.3015718284
 51
41.0570797239
  0
SPLINE
  5
131
330
1F
100
AcDbEntity
  8
0
  6
HIDDEN
 62
     7
370
    18
100
AcDbSpline
210
0.0
220
0.0
230
1.0
 70
     8
 71
     3
 72
    34
 73
    30
 74
     0
 42
0.000000001
 43
0.00000001
 40
0.0
 40
0.0
 40
0.0
 40
0.0
 40
0.1250000000000102
 40
0.1250000000000102
 40
0.1875000000000117
 40
0.1875000000000117
 40
0.2500000000000133
 40
0.2500000000000133
 40
0.2812500000000106
 40
0.2812500000000106
 40
0.3125000000000079
 40
0.3125000000000079
 40
0.3750000000000074
 40
0.3750000000000074
 40
0.4375000000000069
 40
0.4375000000000069
 40
0.5000000000000064
 40
0.5000000000000064
 40
0.5625000000000059
 40
0.5625000000000059
 40
0.6250000000000053
 40
0.6250000000000053
 40
0.7500000000000034
 40
0.7500000000000034
 40
0.8750000000000018
 40
0.8750000000000018
 40
0.9375000000000009
 40
0.9375000000000009
 40
1.0
 40
1.0
 40
1.0
 40
1.0
 10
185.0717639371391
 20
115.8104614220586
 30
0.0
 10
184.8428408695373
 20
115.7402693661377
 30
0.0
 10
184.6126800350633
 20
115.6740707115768
 30
0.0
 10
184.2617867820026
 20
115.5951069956682
 30
0.0
 10
184.1441927236046
 20
115.572189075863
 30
0.0
 10
183.9061558572296
 20
115.5450959154029
 30
0.0
 10
183.7852375107681
 20
115.5398752874433
 30
0.0
 10
183.6082528606809
 20
115.5772038440486
 30
0.0
 10
183.5521675733627
 20
115.597380962836
 30
0.0
 10
183.4471675910836
 20
115.6567623863995
 30
0.0
 10
183.4005980425867
 20
115.6946247433002
 30
0.0
 10
183.2755110923885
 20
115.8235744248445
 30
0.0
 10
183.2131814073484
 20
115.9246102140697
 30
0.0
 10
183.1039090770036
 20
116.1285855874653
 30
0.0
 10
183.0592285570933
 20
116.2293201667197
 30
0.0
 10
182.979755600156
 20
116.4229311863706
 30
0.0
 10
182.9452273358265
 20
116.5163508513483
 30
0.0
 10
182.8869996984366
 20
116.6838796793514
 30
0.0
 10
182.8626130873653
 20
116.7600734966598
 30
0.0
 10
182.8236004399829
 20
116.8901567499239
 30
0.0
 10
182.8092112890869
 20
116.9432005882405
 30
0.0
 10
182.7795454991981
 20
117.065320982403
 30
0.0
 10
182.7792959795512
 20
117.092801794232
 30
0.0
 10
182.8065039681151
 20
117.0332750559655
 30
0.0
 10
182.8351775325221
 20
116.9469489993548
 30
0.0
 10
182.8718933911821
 20
116.7469477838363
 30
0.0
 10
182.8832903422893
 20
116.6677052327099
 30
0.0
 10
182.88526193126
 20
116.4907434432326
 30
0.0
 10
182.8760509790728
 20
116.390885796173
 30
0.0
 10
182.8309819727396
 20
116.292197150214
 30
0.0
  0
LINE
  5
132
330
1F
100
AcDbEntity
  8
0
  6
HIDDEN
 62
     7
370
    18
100
AcDbLine
 10
94.3708020428
 20
114.0749075975
 30
0.0
 11
94.3708020428
 21
117.0749075975
 31
0.0
  0
LINE
  5
133
330
1F
100
AcDbEntity
  8
0
  6
HIDDEN
 62
     7
370
    18
100
AcDbLine
 10
185.0717639371
 20
116.4751685
 30
0.0
 11
185.0717639371
 21
115.8104614221
 31
0.0
  0
LINE
  5
134
330
1F
100
AcDbEntity
  8
0
  6
HIDDEN
 62
     7
370
    18
100
AcDbLine
 10
185.0717639371
 20
114.0749075975
 30
0.0
 11
185.0717639371
 21
115.8104614221
 31
0.0
  0
ELLIPSE
  5
135
330
1F
100
AcDbEntity
  8
0
  6
HIDDEN
 62
     7
370
    18
100
AcDbEllipse
 10
183.0496597773
 20
115.5749075975
 30
0.0
 11
-1.077922674011234
 21
1.492065017346647
 31
0.0
210
0.0
220
0.0
230
1.0
 40
0.1429456345
 41
4.276067231391455
 42
5.108080675870404
  0
ELLIPSE
  5
136
330
1F
100
AcDbEntity
  8
0
  6
HIDDEN
 62
     7
370
    18
100
AcDbEllipse
 10
199.3272572417
 20
122.0906611959
 30
0.0
 11
-1.35062579857464
 21
1.902895578164816
 31
0.0
210
0.0
220
0.0
230
1.0
 40
0.4980789051
 41
5.696452293122168
 42
5.803699252486816
  0
LINE
  5
137
330
1F
100
AcDbEntity
  8
0
  6
HIDDEN
 62
     7
370
    18
100
AcDbLine
 10
198.7272572417
 20
124.0477508369
 30
0.0
 11
198.7272572417
 21
123.82986148
 31
0.0
  0
ARC
  5
138
330
1F
100
AcDbEntity
  8
0
  6
HIDDEN
 62
     7
370
    18
100
AcDbCircle
 10
199.3285559309
 20
122.2955965202
 30
0.0
 40
1.647886246312096
100
AcDbArc
 50
348.8141848495
 51
111.4008684257
  0
LINE
  5
139
330
1F
100
AcDbEntity
  8
0
  6
HIDDEN
 62
     7
370
    18
100
AcDbLine
 10
200.9451376321
 20
121.9759206153
 30
0.0
 11
200.9451376321
 21
122.1938099722
 31
0.0
  0
ELLIPSE
  5
13A
330
1F
100
AcDbEntity
  8
0
  6
HIDDEN
 62
     7
370
    18
100
AcDbEllipse
 10
199.3272572417
 20
122.0906611959
 30
0.0
 11
1.648717266309234
 21
0.2225504848545228
 31
0.0
210
0.0
220
0.0
230
1.0
 40
0.2922888529
 41
5.940528091192556
 42
6.04611582699372
  0
ARC
  5
13B
330
1F
100
AcDbEntity
  8
0
  6
HIDDEN
 62
     7
370
    18
100
AcDbCircle
 10
199.3290120211
 20
122.2885287828
 30
0.0
 40
1.64491344088925
100
AcDbArc
 50
269.9388773477
 51
118.3955425609
  0
ARC
  5
13C
330
1F
100
AcDbEntity
  8
0
  6
HIDDEN
 62
     7
370
    18
100
AcDbCircle
 10
199.3238307225
 20
122.2899583189
 30
0.0
 40
1.646345606743616
100
AcDbArc
 50
175.6572593897
 51
270.1192490963
  0
LINE
  5
13D
330
1F
100
AcDbEntity
  8
0
  6
HIDDEN
 62
     7
370
    18
100
AcDbLine
 10
204.6419529691
 20
127.0736765263
 30
0.0
 11
204.4528220249
 21
127.3255611869
 31
0.0
  0
SPLINE
  5
13E
330
1F
100
AcDbEntity
  8
0
  6
HIDDEN
 62
     7
370
    18
100
AcDbSpline
210
0.0
220
0.0
230
1.0
 70
     8
 71
     3
 72
    15
 73
    11
 74
     0
 42
0.000000001
 43
0.00000001
 40
0.0
 40
0.0
 40
0.0
 40
0.0
 40
0.0151884077746055
 40
0.1476953556053368
 40
0.241117944208899
 40
0.3352256384346851
 40
0.4167595087522027
 40
0.5348428084233234
 40
0.7220421648104564
 40
0.9999999999999999
 40
0.9999999999999999
 40
0.9999999999999999
 40
0.9999999999999999
 10
203.9012184913699
 20
127.8127908029425
 30
0.0
 10
203.8894830856365
 20
127.8214187184488
 30
0.0
 10
203.7753654672076
 20
127.9053184311605
 30
0.0
 10
203.5102095048077
 20
127.9768619465875
 30
0.0
 10
203.1291540676142
 20
128.0141554086298
 30
0.0
 10
202.7806324248994
 20
127.95592209154
 30
0.0
 10
202.4376264235421
 20
127.8120292608049
 30
0.0
 10
202.0766295491629
 20
127.5428550947965
 30
0.0
 10
201.7114245202598
 20
127.0554007666609
 30
0.0
 10
201.6309064170386
 20
126.6215088724582
 30
0.0
 10
201.5827922782695
 20
126.3622338278005
 30
0.0
  0
SPLINE
  5
13F
330
1F
100
AcDbEntity
  8
0
  6
HIDDEN
 62
     7
370
    18
100
AcDbSpline
210
0.0
220
0.0
230
1.0
 70
     8
 71
     3
 72
     8
 73
     4
 74
     0
 42
0.000000001
 43
0.00000001
 40
0.0
 40
0.0
 40
0.0
 40
0.0
 40
1.0
 40
1.0
 40
1.0
 40
1.0
 10
204.6419529690667
 20
127.073676526313
 30
0.0
 10
205.1933159348673
 20
127.2003241270591
 30
0.0
 10
205.7448667463415
 20
127.3262109129935
 30
0.0
 10
206.2965895770488
 20
127.4514009845552
 30
0.0
  0
ELLIPSE
  5
140
330
1F
100
AcDbEntity
  8
0
  6
HIDDEN
 62
     7
370
    18
100
AcDbEllipse
 10
207.6305461616
 20
115.6066501151
 30
0.0
 11
0.1827983766018804
 21
16.81827347210202
 31
0.0
210
0.0
220
0.0
230
1.0
 40
0.1223313345
 41
0.2570396633363188
 42
0.7907202940481817
  0
SPLINE
  5
141
330
1F
100
AcDbEntity
  8
0
  6
HIDDEN
 62
     7
370
    18
100
AcDbSpline
210
0.0
220
0.0
230
1.0
 70
     8
 71
     3
 72
     8
 73
     4
 74
     0
 42
0.000000001
 43
0.00000001
 40
0.0003120026529475
 40
0.0003120026529475
 40
0.0003120026529475
 40
0.0003120026529475
 40
0.0090042253898993
 40
0.0090042253898993
 40
0.0090042253898993
 40
0.0090042253898993
 10
207.2843092303546
 20
131.8780741030377
 30
0.0
 10
204.4318630002342
 20
131.3715591234277
 30
0.0
 10
201.5795025342646
 20
130.8645644196995
 30
0.0
 10
198.7272572416663
 20
130.3569277348411
 30
0.0
  0
ELLIPSE
  5
142
330
1F
100
AcDbEntity
  8
0
  6
HIDDEN
 62
     7
370
    18
100
AcDbEllipse
 10
198.7732674084
 20
115.5461120629
 30
0.0
 11
-0.1658273313990719
 21
15.25686092219869
 31
0.0
210
0.0
220
0.0
230
1.0
 40
0.1223313345
 41
6.219126532543387
 42
6.302555618682919
  0
LINE
  5
143
330
1F
100
AcDbEntity
  8
0
  6
HIDDEN
 62
     7
370
    18
100
AcDbLine
 10
198.5467639371
 20
130.7953872707
 30
0.0
 11
198.5713208493
 21
130.7997178999
 31
0.0
  0
SPLINE
  5
144
330
1F
100
AcDbEntity
  8
0
  6
HIDDEN
 62
     7
370
    18
100
AcDbSpline
210
0.0
220
0.0
230
1.0
 70
     8
 71
     3
 72
    10
 73
     6
 74
     0
 42
0.000000001
 43
0.00000001
 40
0.0
 40
0.0
 40
0.0
 40
0.0
 40
0.5
 40
0.5
 40
1.0
 40
1.0
 40
1.0
 40
1.0
 10
189.7392464862361
 20
123.3757688208609
 30
0.0
 10
191.7030209833015
 20
123.9146218375346
 30
0.0
 10
193.6734483874924
 20
124.4265291695507
 30
0.0
 10
197.6225235557463
 20
125.4170496329104
 30
0.0
 10
199.6012399686904
 20
125.8953847217282
 30
0.0
 10
201.5827922782695
 20
126.3622338278005
 30
0.0
  0
LINE
  5
145
330
1F
100
AcDbEntity
  8
0
  6
HIDDEN
 62
     7
370
    18
100
AcDbLine
 10
207.747207025
 20
123.3415826657
 30
0.0
 11
201.7736452418
 21
122.2922906773
 31
0.0
  0
LINE
  5
146
330
1F
100
AcDbEntity
  8
0
  6
HIDDEN
 62
     7
370
    18
100
AcDbLine
 10
207.747207025
 20
123.3342197711
 30
0.0
 11
207.747207025
 21
123.3415826657
 31
0.0
  0
LINE
  5
147
330
1F
100
AcDbEntity
  8
0
  6
HIDDEN
 62
     7
370
    18
100
AcDbLine
 10
200.9451376321
 20
122.1938099722
 30
0.0
 11
207.5912706326
 21
123.3612431325
 31
0.0
  0
LINE
  5
148
330
1F
100
AcDbEntity
  8
0
  6
HIDDEN
 62
     7
370
    18
100
AcDbLine
 10
207.5912706326
 20
123.3612431325
 30
0.0
 11
207.747207025
 21
123.3415826657
 31
0.0
  0
LINE
  5
149
330
1F
100
AcDbEntity
  8
0
  6
HIDDEN
 62
     7
370
    18
100
AcDbLine
 10
198.5713208493
 20
125.4946150698
 30
0.0
 11
198.5713208493
 21
130.7997178999
 31
0.0
  0
LINE
  5
14A
330
1F
100
AcDbEntity
  8
0
  6
HIDDEN
 62
     7
370
    18
100
AcDbLine
 10
198.7272572417
 20
130.7729788208
 30
0.0
 11
198.7272572417
 21
124.0477508369
 31
0.0
  0
LINE
  5
14B
330
1F
100
AcDbEntity
  8
0
  6
HIDDEN
 62
     7
370
    18
100
AcDbLine
 10
207.2843092304
 20
123.0894341626
 30
0.0
 11
207.5912706326
 21
123.3612431325
 31
0.0
  0
CIRCLE
  5
14C
330
1F
100
AcDbEntity
  8
0
  6
HIDDEN
 62
     7
370
    18
100
AcDbCircle
 10
203.2260614238
 20
126.9347144326
 30
0.0
 40
2.097903282601882
  0
LINE
  5
14D
330
1F
100
AcDbEntity
  8
0
  6
HIDDEN
 62
     7
370
    18
100
AcDbLine
 10
200.9451376321
 20
121.9759206153
 30
0.0
 11
207.2843092304
 21
123.0894341626
 31
0.0
  0
LINE
  5
14E
330
1F
100
AcDbEntity
  8
0
  6
HIDDEN
 62
     7
370
    18
100
AcDbLine
 10
207.2843092304
 20
123.0894341626
 30
0.0
 11
207.2843092304
 21
131.878074103
 31
0.0
  0
ARC
  5
14F
330
1F
100
AcDbEntity
  8
0
  6
HIDDEN
 62
     7
370
    18
100
AcDbCircle
 10
203.2329297633
 20
126.8890786942
 30
0.0
 40
1.643209464593504
100
AcDbArc
 50
269.8022089063
 51
75.7489917882
  0
ARC
  5
150
330
1F
100
AcDbEntity
  8
0
  6
HIDDEN
 62
     7
370
    18
100
AcDbCircle
 10
203.2229041681
 20
126.8896766062
 30
0.0
 40
1.643803349325052
100
AcDbArc
 50
87.9310217827
 51
270.1517292419
  0
ARC
  5
151
330
1F
100
AcDbEntity
  8
0
  6
HIDDEN
 62
     7
370
    18
100
AcDbCircle
 10
203.2260068249
 20
126.2290029947
 30
0.0
 40
1.648750089677037
100
AcDbArc
 50
180.044908208
 51
30.8179165765
  0
LINE
  5
152
330
1F
100
AcDbEntity
  8
0
  6
HIDDEN
 62
     7
370
    18
100
AcDbLine
 10
206.296589577
 20
127.4514009846
 30
0.0
 11
206.296589577
 21
117.9538581946
 31
0.0
  0
ELLIPSE
  5
153
330
1F
100
AcDbEntity
  8
0
  6
HIDDEN
 62
     7
370
    18
100
AcDbEllipse
 10
204.2815699261
 20
117.9710710067
 30
0.0
 11
1.868639352156748
 21
-0.7633212359938001
 31
0.0
210
0.0
220
0.0
230
1.0
 40
0.9877670049
 41
5.628098322764193
 42
6.666699550843436
  0
LINE
  5
154
330
1F
100
AcDbEntity
  8
0
  6
HIDDEN
 62
     7
370
    18
100
AcDbLine
 10
205.3040434254
 20
116.2412596792
 30
0.0
 11
202.5543635688
 21
114.6597722987
 31
0.0
  0
LINE
  5
155
330
1F
100
AcDbEntity
  8
0
  6
HIDDEN
 62
     7
370
    18
100
AcDbLine
 10
204.0201326247
 20
125.8959622672
 30
0.0
 11
204.0201326247
 21
126.0151198492
 31
0.0
  0
LINE
  5
156
330
1F
100
AcDbEntity
  8
0
  6
HIDDEN
 62
     7
370
    18
100
AcDbLine
 10
202.0281429753
 20
126.2474338347
 30
0.0
 11
202.0281429753
 21
126.1269118233
 31
0.0
  0
LINE
  5
157
330
1F
100
AcDbEntity
  8
0
  6
HIDDEN
 62
     7
370
    18
100
AcDbLine
 10
204.8818996307
 20
126.9210075078
 30
0.0
 11
204.8818996307
 21
127.0430255476
 31
0.0
  0
LINE
  5
158
330
1F
100
AcDbEntity
  8
0
  6
HIDDEN
 62
     7
370
    18
100
AcDbLine
 10
201.567920332
 20
127.5049342856
 30
0.0
 11
201.567920332
 21
127.38290662
 31
0.0
  0
LINE
  5
159
330
1F
100
AcDbEntity
  8
0
  6
HIDDEN
 62
     7
370
    18
100
AcDbLine
 10
204.4216769874
 20
128.1770023045
 30
0.0
 11
204.4216769874
 21
128.2990203444
 31
0.0
  0
LINE
  5
15A
330
1F
100
AcDbEntity
  8
0
  6
HIDDEN
 62
     7
370
    18
100
AcDbLine
 10
202.429687338
 20
128.5271261575
 30
0.0
 11
202.429687338
 21
128.4079518607
 31
0.0
  0
SPLINE
  5
15B
330
1F
100
AcDbEntity
  8
0
  6
HIDDEN
 62
     7
370
    18
100
AcDbSpline
210
0.0
220
0.0
230
1.0
 70
    11
 71
     3
 72
    34
 73
    30
 74
     0
 42
0.000000001
 43
0.00000001
 40
0.0
 40
0.0
 40
0.0
 40
0.0
 40
0.0141210391095141
 40
0.0528246711305316
 40
0.0916515583975699
 40
0.130575075404527
 40
0.1696191464248186
 40
0.2087805253966734
 40
0.2480268704315363
 40
0.2872997283737949
 40
0.3265187403053995
 40
0.3656358765480204
 40
0.4046299049908809
 40
0.4435094506639947
 40
0.4823084788519358
 40
0.5210773534320615
 40
0.5598581387218332
 40
0.5987000019365387
 40
0.6376443942911303
 40
0.6767109323573616
 40
0.7158909868221477
 40
0.7551473511307842
 40
0.7944148619100884
 40
0.833618229118348
 40
0.8727136551360779
 40
0.9116853679087566
 40
0.9505471160683837
 40
0.9893365925629448
 40
1.0
 40
1.0
 40
1.0
 40
1.0
 10
202.9117466870197
 20
125.2502934378654
 30
0.0
 10
202.8592167944449
 20
125.2609976265565
 30
0.0
 10
202.662710412849
 20
125.30104037716
 30
0.0
 10
202.3375456993403
 20
125.4349280245919
 30
0.0
 10
201.9778188705836
 20
125.6944749974886
 30
0.0
 10
201.6921373913252
 20
126.0339895551809
 30
0.0
 10
201.4975663327353
 20
126.4320200003627
 30
0.0
 10
201.4059183261472
 20
126.8656295069226
 30
0.0
 10
201.4231230698303
 20
127.3090214754418
 30
0.0
 10
201.548626979302
 20
127.7355082859034
 30
0.0
 10
201.7751043705391
 20
128.1191120622916
 30
0.0
 10
202.0888194310161
 20
128.4364583903116
 30
0.0
 10
202.4706408329405
 20
128.6684124632411
 30
0.0
 10
202.8973687218629
 20
128.8012324448939
 30
0.0
 10
203.3433031698282
 20
128.8273087036724
 30
0.0
 10
203.781805744321
 20
128.7454572647944
 30
0.0
 10
204.1869046407114
 20
128.5608657326795
 30
0.0
 10
204.5347726653997
 20
128.2846494897841
 30
0.0
 10
204.8049963573536
 20
127.9330772064053
 30
0.0
 10
204.9815476119207
 20
127.5266983829678
 30
0.0
 10
205.0536415773428
 20
127.0893596998273
 30
0.0
 10
205.0164847327045
 20
126.6470526757563
 30
0.0
 10
204.8718641429365
 20
126.2264975755763
 30
0.0
 10
204.6283094991437
 20
125.8533062828009
 30
0.0
 10
204.3006567651791
 20
125.5502712208058
 30
0.0
 10
203.9087650925234
 20
125.3353230278772
 30
0.0
 10
203.4768630822683
 20
125.2222405503429
 30
0.0
 10
203.137306829546
 20
125.215487029529
 30
0.0
 10
202.9517564688369
 20
125.2441194889231
 30
0.0
 10
202.9117466870197
 20
125.2502934378654
 30
0.0
  0
LINE
  5
15C
330
1F
100
AcDbEntity
  8
0
  6
HIDDEN
 62
     7
370
    18
100
AcDbLine
 10
201.2272572417
 20
126.9436368331
 30
0.0
 11
201.2272572417
 21
126.5340048421
 31
0.0
  0
LINE
  5
15D
330
1F
100
AcDbEntity
  8
0
  6
HIDDEN
 62
     7
370
    18
100
AcDbLine
 10
205.2272572417
 20
126.5340048421
 30
0.0
 11
205.2272572417
 21
126.9436368331
 31
0.0
  0
LINE
  5
15E
330
1F
100
AcDbEntity
  8
0
  6
HIDDEN
 62
     7
370
    18
100
AcDbLine
 10
200.2592639371
 20
127.3721885305
 30
0.0
 11
200.2592639371
 21
127.2719594264
 31
0.0
  0
LINE
  5
15F
330
1F
100
AcDbEntity
  8
0
  6
HIDDEN
 62
     7
370
    18
100
AcDbLine
 10
206.3592639371
 20
127.2719594264
 30
0.0
 11
206.3592639371
 21
127.3721885305
 31
0.0
  0
LINE
  5
160
330
1F
100
AcDbEntity
  8
0
  6
HIDDEN
 62
     7
370
    18
100
AcDbLine
 10
201.1092639371
 20
127.1487796526
 30
0.0
 11
201.1092639371
 21
127.0261802318
 31
0.0
  0
LINE
  5
161
330
1F
100
AcDbEntity
  8
0
  6
HIDDEN
 62
     7
370
    18
100
AcDbLine
 10
205.5092639371
 20
127.0261802318
 30
0.0
 11
205.5092639371
 21
127.1487796526
 31
0.0
  0
LINE
  5
162
330
1F
100
AcDbEntity
  8
0
  6
HIDDEN
 62
     7
370
    18
100
AcDbLine
 10
192.3247372549
 20
123.7548826934
 30
0.0
 11
182.7818973936
 21
117.0729142865
 31
0.0
  0
LINE
  5
163
330
1F
100
AcDbEntity
  8
0
  6
HIDDEN
 62
     7
370
    18
100
AcDbLine
 10
185.7902841723
 20
115.5170856206
 30
0.0
 11
194.5876277944
 21
121.677051941
 31
0.0
  0
LINE
  5
164
330
1F
100
AcDbEntity
  8
0
  6
HIDDEN
 62
     7
370
    18
100
AcDbLine
 10
93.0717639371
 20
113.3249075975
 30
0.0
 11
94.3708020428
 21
114.0749075975
 31
0.0
  0
LINE
  5
165
330
1F
100
AcDbEntity
  8
0
  6
HIDDEN
 62
     7
370
    18
100
AcDbLine
 10
94.3708020428
 20
117.0749075975
 30
0.0
 11
93.0717639371
 21
117.8249075975
 31
0.0
  0
LINE
  5
166
330
1F
100
AcDbEntity
  8
0
  6
HIDDEN
 62
     7
370
    18
100
AcDbLine
 10
185.0717639371
 20
114.0749075975
 30
0.0
 11
185.9730548657
 21
115.5749075975
 31
0.0
  0
LINE
  5
167
330
1F
100
AcDbEntity
  8
0
  6
HIDDEN
 62
     7
370
    18
100
AcDbLine
 10
185.9730548657
 20
115.5749075975
 30
0.0
 11
185.9247241253
 21
115.6553434572
 31
0.0
  0
LINE
  5
168
330
1F
100
AcDbEntity
  8
0
  6
HIDDEN
 62
     7
370
    18
100
AcDbLine
 10
94.3708020428
 20
114.0749075975
 30
0.0
 11
185.0717639371
 21
114.0749075975
 31
0.0
  0
LINE
  5
169
330
1F
100
AcDbEntity
  8
0
  6
HIDDEN
 62
     7
370
    18
100
AcDbLine
 10
182.786940469
 20
117.0749075975
 30
0.0
 11
94.3708020428
 21
117.0749075975
 31
0.0
  0
LINE
  5
16A
330
1F
100
AcDbEntity
  8
0
  6
HIDDEN
 62
     7
370
    18
100
AcDbLine
 10
197.6772572417
 20
122.6531974128
 30
0.0
 11
197.6772572417
 21
122.2873375298
 31
0.0
  0
LINE
  5
16B
330
1F
100
AcDbEntity
  8
0
  6
HIDDEN
 62
     7
370
    18
100
AcDbLine
 10
200.9772572417
 20
122.2873375298
 30
0.0
 11
200.9772572417
 21
122.2986677763
 31
0.0
  0
LINE
  5
16C
330
1F
100
AcDbEntity
  8
0
  6
HIDDEN
 62
     7
370
    18
100
AcDbLine
 10
201.5772572417
 20
126.8896002726
 30
0.0
 11
201.5772572417
 21
126.2277107109
 31
0.0
  0
LINE
  5
16D
330
1F
100
AcDbEntity
  8
0
  6
HIDDEN
 62
     7
370
    18
100
AcDbLine
 10
204.8772572417
 20
126.2277107109
 30
0.0
 11
204.8772572417
 21
126.8896002726
 31
0.0
  0
LINE
  5
16E
330
1F
100
AcDbEntity
  8
VERMASSUNG
100
AcDbLine
 10
167.3684832121
 20
115.5749075975
 30
0.0
 11
167.9042726228
 21
115.5749075975
 31
0.0
  0
POINT
  5
16F
330
1F
100
AcDbEntity
  8
VERMASSUNG
100
AcDbPoint
 10
208.0717639371
 20
132.9499075975
 30
0.0
  0
DIMENSION
  5
170
330
1F
100
AcDbEntity
  8
VERMASSUNG
100
AcDbDimension
  2
_D
 10
217.5189754093
 20
98.1999075975
 30
0.0
 11
217.5189754093
 21
115.0601909697
 31
0.0
 70
   160
  1
%%c<>-40.1
 71
     2
 42
-1.0
  3
SLDDIMSTYLE0
100
AcDbAlignedDimension
 13
208.0717639371
 23
132.9499075975
 33
0.0
 14
208.0717639371
 24
98.1999075975
 34
0.0
 50
90.0
100
AcDbRotatedDimension
  0
DIMENSION
  5
17B
330
1F
100
AcDbEntity
  8
VERMASSUNG
100
AcDbDimension
  2
_D_1
 10
93.0717639371
 20
141.189572818
 30
0.0
 11
147.0099958498
 21
141.189572818
 31
0.0
 70
   160
  1
<>
 71
     2
 42
-1.0
  3
SLDDIMSTYLE1
100
AcDbAlignedDimension
 13
208.0717639371
 23
132.9499075975
 33
0.0
 14
93.0717639371
 24
121.7749075975
 34
0.0
100
AcDbRotatedDimension
  0
DIMENSION
  5
186
330
1F
100
AcDbEntity
  8
VERMASSUNG
100
AcDbDimension
  2
_D_2
 10
86.6556619811
 20
107.5749075975
 30
0.0
 11
86.6556619811
 21
115.1682359471
 31
0.0
 70
   160
  1
%%c<>
 71
     2
 42
-1.0
  3
SLDDIMSTYLE1
100
AcDbAlignedDimension
 13
104.3717639371
 23
123.5749075975
 33
0.0
 14
94.4467639371
 24
107.5749075975
 34
0.0
 50
90.0
100
AcDbRotatedDimension
  0
LINE
  5
191
330
1F
100
AcDbEntity
  8
VERMASSUNG
  6
CENTERX2
 62
     7
370
    18
100
AcDbLine
 10
91.0717639371
 20
115.5749075975
 30
0.0
 11
207.9629734724
 21
115.5749075975
 31
0.0
  0
LINE
  5
192
330
1F
100
AcDbEntity
  8
VERMASSUNG
  6
CENTERX2
 62
     7
370
    18
100
AcDbLine
 10
197.7093441892
 20
125.6940631759
 30
0.0
 11
180.7541937007
 21
113.8219389924
 31
0.0
  0
OLE2FRAME
  5
193
330
1F
100
AcDbEntity
  8
0
100
AcDbOle2Frame
 70
     2
  3
Paintbrush-Bild
 10
13.8511154363
 20
38.264191557
 30
0.0
 11
51.6290888628
 21
31.9806341108
 31
0.0
 71
     2
 72
     0
 73
     1
 90
    12928
310
80552BED0767C5B32B40DDAF6807D121434000000000000000006FFBDDFB85D0
310
4940DDAF6807D121434000000000000000006FFBDDFB85D04940416F4BD60AFB
310
3F4000000000000000002BED0767C5B32B40416F4BD60AFB3F40000000000000
310
0000000000000100000000010000010000000100000000000100000000320000
310
D0CF11E0A1B11AE1000000000000000000000000000000003E000300FEFF0900
310
0600000000000000000000000100000001000000000000000010000002000000
310
01000000FEFFFFFF0000000000000000FFFFFFFFFFFFFFFFFFFFFFFFFFFFFFFF
310
FFFFFFFFFFFFFFFFFFFFFFFFFFFFFFFFFFFFFFFFFFFFFFFFFFFFFFFFFFFFFFFF
310
FFFFFFFFFFFFFFFFFFFFFFFFFFFFFFFFFFFFFFFFFFFFFFFFFFFFFFFFFFFFFFFF
310
FFFFFFFFFFFFFFFFFFFFFFFFFFFFFFFFFFFFFFFFFFFFFFFFFFFFFFFFFFFFFFFF
310
FFFFFFFFFFFFFFFFFFFFFFFFFFFFFFFFFFFFFFFFFFFFFFFFFFFFFFFFFFFFFFFF
310
FFFFFFFFFFFFFFFFFFFFFFFFFFFFFFFFFFFFFFFFFFFFFFFFFFFFFFFFFFFFFFFF
310
FFFFFFFFFFFFFFFFFFFFFFFFFFFFFFFFFFFFFFFFFFFFFFFFFFFFFFFFFFFFFFFF
310
FFFFFFFFFFFFFFFFFFFFFFFFFFFFFFFFFFFFFFFFFFFFFFFFFFFFFFFFFFFFFFFF
310
FFFFFFFFFFFFFFFFFFFFFFFFFFFFFFFFFFFFFFFFFFFFFFFFFFFFFFFFFFFFFFFF
310
FFFFFFFFFFFFFFFFFFFFFFFFFFFFFFFFFFFFFFFFFFFFFFFFFFFFFFFFFFFFFFFF
310
FFFFFFFFFFFFFFFFFFFFFFFFFFFFFFFFFFFFFFFFFFFFFFFFFFFFFFFFFFFFFFFF
310
FFFFFFFFFFFFFFFFFFFFFFFFFFFFFFFFFFFFFFFFFFFFFFFFFFFFFFFFFFFFFFFF
310
FFFFFFFFFFFFFFFFFFFFFFFFFFFFFFFFFFFFFFFFFFFFFFFFFFFFFFFFFFFFFFFF
310
FFFFFFFFFFFFFFFFFFFFFFFFFFFFFFFFFFFFFFFFFFFFFFFFFFFFFFFFFFFFFFFF
310
FDFFFFFFFEFFFFFFFEFFFFFFFEFFFFFF05000000060000000700000008000000
310
090000000A0000000B0000000C0000000D0000000E0000000F00000010000000
310
11000000120000001300000014000000150000001600000017000000FEFFFFFF
310
FFFFFFFFFFFFFFFFFFFFFFFFFFFFFFFFFFFFFFFFFFFFFFFFFFFFFFFFFFFFFFFF
310
FFFFFFFFFFFFFFFFFFFFFFFFFFFFFFFFFFFFFFFFFFFFFFFFFFFFFFFFFFFFFFFF
310
FFFFFFFFFFFFFFFFFFFFFFFFFFFFFFFFFFFFFFFFFFFFFFFFFFFFFFFFFFFFFFFF
310
FFFFFFFFFFFFFFFFFFFFFFFFFFFFFFFFFFFFFFFFFFFFFFFFFFFFFFFFFFFFFFFF
310
FFFFFFFFFFFFFFFFFFFFFFFFFFFFFFFFFFFFFFFFFFFFFFFFFFFFFFFFFFFFFFFF
310
FFFFFFFFFFFFFFFFFFFFFFFFFFFFFFFFFFFFFFFFFFFFFFFFFFFFFFFFFFFFFFFF
310
FFFFFFFFFFFFFFFFFFFFFFFFFFFFFFFFFFFFFFFFFFFFFFFFFFFFFFFFFFFFFFFF
310
FFFFFFFFFFFFFFFFFFFFFFFFFFFFFFFFFFFFFFFFFFFFFFFFFFFFFFFFFFFFFFFF
310
FFFFFFFFFFFFFFFFFFFFFFFFFFFFFFFFFFFFFFFFFFFFFFFFFFFFFFFFFFFFFFFF
310
FFFFFFFFFFFFFFFFFFFFFFFFFFFFFFFFFFFFFFFFFFFFFFFFFFFFFFFFFFFFFFFF
310
FFFFFFFFFFFFFFFFFFFFFFFFFFFFFFFFFFFFFFFFFFFFFFFFFFFFFFFFFFFFFFFF
310
FFFFFFFFFFFFFFFFFFFFFFFFFFFFFFFFFFFFFFFFFFFFFFFFFFFFFFFFFFFFFFFF
310
FFFFFFFFFFFFFFFFFFFFFFFFFFFFFFFFFFFFFFFFFFFFFFFFFFFFFFFFFFFFFFFF
310
52006F006F007400200045006E00740072007900000000000000000000000000
310
0000000000000000000000000000000000000000000000000000000000000000
310
16000500FFFFFFFFFFFFFFFF020000000A00030000000000C000000000000046
310
000000000000000000000000E0D61D6BF560D60103000000C000000000000000
310
01004F006C006500000000000000000000000000000000000000000000000000
310
0000000000000000000000000000000000000000000000000000000000000000
310
0A000200FFFFFFFFFFFFFFFFFFFFFFFF00000000000000000000000000000000
310
0000000000000000000000000000000000000000000000001400000000000000
310
010043006F006D0070004F0062006A0000000000000000000000000000000000
310
0000000000000000000000000000000000000000000000000000000000000000
310
120002010100000003000000FFFFFFFF00000000000000000000000000000000
310
0000000000000000000000000000000000000000010000004D00000000000000
310
01004F006C006500310030004E00610074006900760065000000000000000000
310
0000000000000000000000000000000000000000000000000000000000000000
310
1A000200FFFFFFFFFFFFFFFFFFFFFFFF00000000000000000000000000000000
310
0000000000000000000000000000000000000000040000002426000000000000
310
FEFFFFFF02000000FEFFFFFFFFFFFFFFFFFFFFFFFFFFFFFFFFFFFFFFFFFFFFFF
310
FFFFFFFFFFFFFFFFFFFFFFFFFFFFFFFFFFFFFFFFFFFFFFFFFFFFFFFFFFFFFFFF
310
FFFFFFFFFFFFFFFFFFFFFFFFFFFFFFFFFFFFFFFFFFFFFFFFFFFFFFFFFFFFFFFF
310
FFFFFFFFFFFFFFFFFFFFFFFFFFFFFFFFFFFFFFFFFFFFFFFFFFFFFFFFFFFFFFFF
310
FFFFFFFFFFFFFFFFFFFFFFFFFFFFFFFFFFFFFFFFFFFFFFFFFFFFFFFFFFFFFFFF
310
FFFFFFFFFFFFFFFFFFFFFFFFFFFFFFFFFFFFFFFFFFFFFFFFFFFFFFFFFFFFFFFF
310
FFFFFFFFFFFFFFFFFFFFFFFFFFFFFFFFFFFFFFFFFFFFFFFFFFFFFFFFFFFFFFFF
310
FFFFFFFFFFFFFFFFFFFFFFFFFFFFFFFFFFFFFFFFFFFFFFFFFFFFFFFFFFFFFFFF
310
FFFFFFFFFFFFFFFFFFFFFFFFFFFFFFFFFFFFFFFFFFFFFFFFFFFFFFFFFFFFFFFF
310
FFFFFFFFFFFFFFFFFFFFFFFFFFFFFFFFFFFFFFFFFFFFFFFFFFFFFFFFFFFFFFFF
310
FFFFFFFFFFFFFFFFFFFFFFFFFFFFFFFFFFFFFFFFFFFFFFFFFFFFFFFFFFFFFFFF
310
FFFFFFFFFFFFFFFFFFFFFFFFFFFFFFFFFFFFFFFFFFFFFFFFFFFFFFFFFFFFFFFF
310
FFFFFFFFFFFFFFFFFFFFFFFFFFFFFFFFFFFFFFFFFFFFFFFFFFFFFFFFFFFFFFFF
310
FFFFFFFFFFFFFFFFFFFFFFFFFFFFFFFFFFFFFFFFFFFFFFFFFFFFFFFFFFFFFFFF
310
FFFFFFFFFFFFFFFFFFFFFFFFFFFFFFFFFFFFFFFFFFFFFFFFFFFFFFFFFFFFFFFF
310
FFFFFFFFFFFFFFFFFFFFFFFFFFFFFFFFFFFFFFFFFFFFFFFFFFFFFFFFFFFFFFFF
310
0100000200000000000000000000000000000000000000000000000000000000
310
0000000000000000000000000000000000000000000000000000000000000000
310
0100FEFF030A0000FFFFFFFF0A00030000000000C00000000000004607000000
310
5042727573680007000000504272757368000700000050427275736800F439B2
310
7100000000000000000000000000000000000000000000000000000000000000
310
0000000000000000000000000000000000000000000000000000000000000000
310
0000000000000000000000000000000000000000000000000000000000000000
310
0000000000000000000000000000000000000000000000000000000000000000
310
0000000000000000000000000000000000000000000000000000000000000000
310
0000000000000000000000000000000000000000000000000000000000000000
310
0000000000000000000000000000000000000000000000000000000000000000
310
0000000000000000000000000000000000000000000000000000000000000000
310
0000000000000000000000000000000000000000000000000000000000000000
310
0000000000000000000000000000000000000000000000000000000000000000
310
0000000000000000000000000000000000000000000000000000000000000000
310
0000000000000000000000000000000000000000000000000000000000000000
310
20260000424D0E260000000000003E00000028000000B40200006E0000000100
310
01000000000000000000130B0000130B00000200000002000000000000FFFFFF
310
FFFFFFFFFFFFFFFFFFFFFFFFFFFFFFFFFFFFFFFFFFFFFFFFFFFFFFFFFFFFFFFF
310
FFFFFFFFFFFFFFFFFFFFFFFFFFFFFFFFFFFFFFFFFFFFFFFFFFFFFFFFFFFFFFFF
310
FFFFFFFFFFFFFFFFFFFFFFFFFFFFFFFFFFFFFFFFFFFFFFFFF000FFFFFFFFFFFF
310
FFFFFFFFFFFFFFFFFFFFFFFFFFFFFFFFFFFFFFFFFFFFFFFFFFFFFFFFFFFFFFFF
310
FFFFFFFFFFFFFFFFFFFFFFFFFFFFFFFFFFFFFFFFFFFFFFFFFFFFFFFFFFFFFFFF
310
FFFFFFFFFFFFFFFFFFFFFFFFFFFFFFFFF000FFFFFFFFFFFFFFFFFFFFFFFFFFFF
310
FFFFFFFFFFFFFFFFFFFFFFFFFFFFFFFFFFFFFFFFFFFFFFFFFFFFFFFFFFFFFFFF
310
FFFFFFFFFFFFFFFFFFFFFFFFFFFFFFFFFFFFFFFFFFFFFFFFFFFFFFFFFFFFFFFF
310
FFFFFFFFFFFFFFFFF000FFFFFFFFFFFFFFFFFFFFFFFFFFFFFFFFFFFFFFFFFFFF
310
FFFFFFFFFFFFFFFFFFFFFFFFFFFFFFFFFFFFFFFFFFFFFFFFFFFFFFFFFFFFFFFF
310
FFFFFFFFFFFFFFFFFFFFFFFFFFFFFFFFFFFFFFFFFFFFFFFFFFFFFFFFFFFFFFFF
310
F000FFFFFFFFFFFFFFFFFFFFFFFFFFFFFFFFFFFFFFFFFFFFFFFFFFFFFFFFFFFF
310
FFFFFFFFFFFFFFFFFFFFFFFFFFFFFFFFFFFFFFFFFFFFFFFFFFFFFFFFFFFFFFFF
310
FFFFFFFFFFFFFFFFFFFFFFFFFFFFFFFFFFFFFFFFFFFFFFFFF000FFFFFFFFFFFF
310
FFFFFFFFFFFFFFFFFFFFFFFFFFFFFFFFFFFFFFFFFFFFFFFFFFFFFFFFFFFFFFFF
310
FFFFFFFFFFFFFFFFFFFFFFFFFFFFFFFFFFFFFFFFFFFFFFFFFFFFFFFFFFFFFFFF
310
FFFFFFFFFFFFFFFFFFFFFFFFFFFFFFFFF000FFFFFFFFFFFFFFFFFFFFFFFFFFFF
310
FFFFFFFFFFFFFFFFFFFFFFFFFFFFFFFFFFFFFFFFFFFFFFFFFFFFFFFFFFFFFFFF
310
FFFFFFFFFFFFFFFFFFFFFFFFFFFFFFFFFFFFFFFFFFFFFFFFFFFFFFFFFFFFFFFF
310
FFFFFFFFFFFFFFFFF000FFFFFFFFFFFFFFFFFFFFFFFFFFFFFFFFFFFFFFFFFFFF
310
FFFFFFFFFFFFFFFFFFFFFFFFFFFFFFFFFFFFFFFFFFFFFFFFFFFFFFFFFFFFFFFF
310
FFFFFFFFFFFFFFFFFFFFFFFFFFFFFFFFFFFFFFFFFFFFFFFFFFFFFFFFFFFFFFFF
310
F000FFFFFFFFFFFFFFFFFFFFFFFFFFFFFFFFFFFFFFFFFFFFFFFFFFFFFFFFFFFF
310
FFFFFFFFFFFFFFFFFFFFFFFFFFFFFFFFFFFFFFFFFFFFFFFFFFFFFFFFFFFFFFFF
310
FFFFFFFFFFFFFFFFFFFFFFFFFFFFFFFFFFFFFFFFFFFFFFFFF000FFFFFFFFFFFF
310
FFFFFFFFFFFFFFFFFFFFFFFFFFFFFFFFFFFFFFFFFFFFFFFFFFFFFFFFFFFFFFFF
310
FFFFFFFFFFFFFFFFFFFFFFFFFFFFFFFFFFFFFFFFFFFFFFFFFFFFFFFFFFFFFFFF
310
FFFFFFFFFFFFFFFFFFFFFFFFFFFFFFFFF000FFFFFFFFFFFFFFFFFFFFFFFFFFFF
310
FFFFFFFFFFFFFFFFFFFFFFFFFFFFFFFFFFFFFFFFFFFFFFFFFFFFFFFFFFFFFFFF
310
FFFFFFFFFFFFFFFFFFFFFFFFFFFFFFFFFFFFFFFFFFFFFFFFFFFFFFFFFFFFFFFF
310
FFFFFFFFFFFFFFFFF000FFFFFFFFFFFFFFFFFFFFFFFFFFFFFFFFFFFFFFFFFFFF
310
FFFFFFFFFFFFFFFFFFFFFFFFFFFFFFFFFFFFFFFFFFFFFFFFFFFFFFFFFFFFFFFF
310
FFFFFFFFFFFFFFFFFFFFFFFFFFFFFFFFFFFFFFFFFFFFFFFFFFFFFFFFFFFFFFFF
310
F000FFFFFFFFFFFFFFFFFFFFFFFFFFFFFFFFFFFFFFFFFFFFFFFFFFFFFFFFFFFF
310
FFFFFFFFFFFFFFFFFFFFFFFFFFFFFFFFFFFFFFFFFFFFFFFFFFFFFFFFFFFFFFFF
310
FFFFFFFFFFFFFFFFFFFFFFFFFFFFFFFFFFFFFFFFFFFFFFFFF000FFFFFFFFFFFF
310
FFFFFFFFFFFFFFFFFFFFFFFFFFFFFFFFFFFFFFFFFFFFFFFFFFFFFFFFFFFFFFFF
310
FFFFFFFFFFFFFFFFFFFFFFFFFFFFFFFFFFFFFFFFFFFFFFFFFFFFFFFFFFFFFFFF
310
FFFFFFFFFFFFFFFFFFFFFFFFFFFFFFFFF000FFFFFFFFFFFFFFFFFFFFFFFFFFFF
310
FFFFFFFFFFFFFFFFFFFFFFFFFFFFFFFFFFFFFFFFFFFFFFFFFFFFFFFFFFFFFFFF
310
FFFFFFFFFFFFFFFFFFFFFFFFFFFFFFFFFFFFFFFFFFFFFFFFFFFFFFFFFFFFFFFF
310
FFFFFFFFFFFFFFFFF000FFFFFFFFFFFFFFFFFFFFFFFFFFFFFFFFFFFFFFFFFFFF
310
FFFFFFFFFFFFFFFFFFFFFFFFFFFFFFFFFFFFFFFFFFFFFFFFFFFFFFFFFFFFFFFF
310
FFFFFFFFFFFFFFFFFFFFFFFFFFFFFFFFFFFFFFFFFFFFFFFFFFFFFFFFFFFFFFFF
310
F000FFFFFFFFFFFFFFFFFFFFFFFFFFFFFFFFFFFFFFFFFFFFFFFFFFFFFFFFFFFF
310
FFFFFFFFFFFFFFFFFFFFFFFFFFFFFFFFFFFFFFFFFFFFFFFFFFFFFFFFFFFFFFFF
310
FFFFFFFFFFFFFFFFFFFFFFFFFFFFFFFFFFFFFFFFFFFFFFFFF000FFFFFFFFFFFF
310
FFFFFFFFFFFFFFFFFFFFFFFFFFFFFFFFFFFFFFFFFFFFFFFFFFFFFFFFFFFFFFFF
310
FFFFFFFFFFFFFFFFFFFFFFFFFFFFFFFFFFFFFFFFFFFFFFFFFFFFFFFFFFFFFFFF
310
FFFFFFFFFFFFFFFFFFFFFFFFFFFFFFFFF000FFFFFFFFFFFFFFFFFFFFFFFFFFFF
310
FFFFFFFFFFFFFFFFFFFFFFFFFFFFFFFFFFFFFFFFFFFFFFFFFFFFFFFFFFFFFFFF
310
FFFFFFFFFFFFFFFFFFFFFFFFFFFFFFFFFFFFFFFFFFFFFFFFFFFFFFFFFFFFFFFF
310
FFFFFFFFFFFFFFFFF000FFFFF80003FFFFFFFFFFFFFFFFFFFFFFFFFFFFFFFFFF
310
FFFFF00007FFFFFFFFFF00007FFFFFF800000000000000007FFFFFFFFFFFFFFF
310
FFFFFFFC001FFFFFFFFFFFFFFC001FFFFFFFFFFFFFFFFFFFFFFFFFFE0007FFFF
310
F000FFFF8000007FFFFFFFF8000FFFFFC0007FFFFF80007FFFFF0000007FFFFF
310
FFF8000007FFFFF800000000000000007FFFFFF0001FFFFFFFFFFFC00001FFFF
310
FFFFFFFFC00001FFFFFFFF000000000003FFFFE000007FFFF000FFFE0000000F
310
FFFFFFF0000FFFFF80007FFFFF80007FFFFC0000001FFFFFFFC0000001FFFFF8
310
00000000000000007FFFFFF0001FFFFFFFFFFE0000003FFFFFFFFFFE0000003F
310
FFFFFF000000000003FFFF0000000FFFF000FFF800000003FFFFFFF00007FFFF
310
80007FFFFF80007FFFF000000007FFFFFF000000003FFFF80000000000000000
310
7FFFFFF0001FFFFFFFFFF80000000FFFFFFFFFF80000000FFFFFFF0000000000
310
03FFFC00000003FFF000FFE000000000FFFFFFF00007FFFF80003FFFFF80007F
310
FFC000000001FFFFFC000000001FFFF800000000000000007FFFFFF0001FFFFF
310
FFFFE000000003FFFFFFFFE000000003FFFFFF000000000003FFF000000000FF
310
F000FF80000000007FFFFFF00007FFFF80003FFFFF80007FFF8000000000FFFF
310
F80000000007FFF800000000000000007FFFFFF0001FFFFFFFFFC000000001FF
310
FFFFFFC000000001FFFFFF000000000003FFC0000000007FF000FF0000000000
310
3FFFFFE00007FFFF00003FFFFF80007FFE00000000003FFFF00000000003FFF8
310
00000000000000007FFFFFF0001FFFFFFFFF8000000000FFFFFFFF8000000000
310
FFFFFF000000000003FF80000000003FF000FE00000000001FFFFFE00003FFFF
310
00003FFFFF80007FFC00000000001FFFE00000000001FFF8000001FFFE000000
310
7FFFFFF0001FFFFFFFFE00000000003FFFFFFE00000000003FFFFF0000000000
310
03FF00000000001FF000FC00000000000FFFFFE00003FFFF00001FFFFF80007F
310
F800000000001FFFC00000000000FFF8000001FFFE0000007FFFFFF0001FFFFF
310
FFFC00000000001FFFFFFC00000000001FFFFF000000000003FE00000000000F
310
F000F8000000000007FFFFE00003FFFF00001FFFFF80007FF800000000000FFF
310
800000000000FFF8000001FFFE0000007FFFFFF0001FFFFFFFF800000000000F
310
FFFFF800000000000FFFFF000000000003FC000000000007F000F80000000000
310
03FFFFC00003FFFE00001FFFFF80007FF0000000000007FF0000000000007FF8
310
000001FFFE0000007FFFFFF0001FFFFFFFF0000000000007FFFFF00000000000
310
07FFFF000000000003F8000000000003F000F0000000000003FFFFC00001FFFE
310
00001FFFFF80007FE0000000000007FE0000000000003FF8000001FFFE000000
310
7FFFFFF0001FFFFFFFF0000000000007FFFFF0000000000007FFFF0000000000
310
03F800001F800003F000E00001FFF00001FFFFC00001FFFE00000FFFFF80007F
310
E00001FFE00003FE00001FFF00003FF8000001FFFE0000007FFFFFF0001FFFFF
310
FFE000003E000003FFFFE000003E000003FFFF000000000003F00001FFF80001
310
F000E00007FFFC0001FFFFC00001FFFE00000FFFFF80007FC0000FFFFC0003FC
310
0000FFFFC0001FF8000001FFFE0000007FFFFFF0001FFFFFFFC00003FFE00001
310
FFFFC00003FFE00001FFFF0001FFFFFFFFF00007FFFE0001F000E0000FFFFF00
310
00FFFF800001FFFC00000FFFFF80007FC0001FFFFE0001FC0001FFFFE0001FF8
310
000001FFFE0000007FFFFFF0001FFFFFFF80000FFFF80000FFFF80000FFFF800
310
00FFFF0003FFFFFFFFE0000FFFFF8000F000C0003FFFFF8000FFFF800000FFFC
310
000007FFFF80007F80003FFFFF0001FC0003FFFFF0001FF8000001FFFE000000
310
7FFFFFF0001FFFFFFF80003FFFFE0000FFFF80003FFFFE0000FFFF0003FFFFFF
310
FFE0003FFFFF8000F000C0003FFFFF8000FFFF800000FFFC000007FFFF80007F
310
80007FFFFF8001F80007FFFFF8000FF8000001FFFE0000007FFFFFF0001FFFFF
310
FF00007FFFFF00007FFF00007FFFFF00007FFF0003FFFFFFFFE0003FFFFFC000
310
F000C0007FFFFFC000FFFF000000FFFC000007FFFF80007F8000FFFFFF8000F8
310
000FFFFFF8000FF8000001FFFE0000007FFFFFF0001FFFFFFF0000FFFFFF8000
310
7FFF0000FFFFFF80007FFF0003FFFFFFFFC0007FFFFFC00070008000FFFFFFC0
310
00FFFF000000FFF8000007FFFF80007F8000FFFFFF8000F8000FFFFFF8000FF8
310
000001FFFE0000007FFFFFF0001FFFFFFE0001FFFFFFC0003FFE0001FFFFFFC0
310
003FFF0003FFFFFFFFC0007FFFFFE00070008000FFFFFFC0007FFF0000007FF8
310
000003FFFF80007F0001FFFFFF8000F8000FFFFFF8000FF8000001FFFE000000
310
7FFFFFF0001FFFFFFE0001FFFFFFC0003FFE0001FFFFFFC0003FFF0003FFFFFF
310
FFC000FFFFFFE00070008000FFFFFFC0007FFF0000007FF8000003FFFF80007F
310
0001FFFFFF8000F8001FFFFFF8000FF8000001FFFE0000007FFFFFF0001FFFFF
310
FE0003FFFFFFE0003FFE0003FFFFFFE0003FFF0003FFFFFFFFC000FFFFFFE000
310
70008000FFFFFFC0007FFE0000007FF8000003FFFF80007F0001FFFFFF8000F0
310
001FFFFFF8000FF8000001FFFE0000007FFFFFF0001FFFFFFC0003FFFFFFE000
310
1FFC0003FFFFFFE0001FFF0003FFFFFFFFC000FFFFFFC00070008000FFFFFF80
310
007FFE0000007FF0000003FFFF80007F0001FFFFFF0000F0001FFFFFF8000FF8
310
000001FFFE0000007FFFFFF0001FFFFFFC0007FFFFFFF0001FFC0007FFFFFFF0
310
001FFF0003FFFFFFFFC000FFFFFFC00070008001FFFFFF0000FFFE0000003FF0
310
000001FFFF80007F0001FFFFFF0000F8001FFFFFF0000FF8000001FFFE000000
310
7FFFFFF0001FFFFFFC0007FFFFFFF0001FFC0007FFFFFFF0001FFF0003FFFFFF
310
FFC001FFFFFF80007000FFFFFFFFFE0000FFFE0008003FF0008001FFFF80007F
310
FFFFFFFFFC0000FFFFFFFFFFE0000FF8000001FFFE0000007FFFFFF0001FFFFF
310
F8000FFFFFFFF8000FF8000FFFFFFFF8000FFF0003FFFFFFFFFFFFFFFFFF0000
310
7000FFFFFFFFFC0000FFFC0008003FF0008001FFFF80007FFFFFFFFFF80001FF
310
FFFFFFFF80000FF8000001FFFE0000007FFFFFF0001FFFFFF8000FFFFFFFF800
310
0FF8000FFFFFFFF8000FFF0003FFFFFFFFFFFFFFFFFE0000F000FFFFFFFFE000
310
00FFFC000C003FE000C001FFFF80007FFFFFFFFFC00001FFFFFFFFFE00001FF8
310
000001FFFE0000007FFFFFF0001FFFFFF8000FFFFFFFF8000FF8000FFFFFFFF8
310
000FFF0003FFFFFFFFFFFFFFFFF00000F000FFFFFFFE000001FFFC000C001FE0
310
00C000FFFF80007FFFFFFFFE000001FFFFFFFFE000001FF80FFFFFFFFFFFFFC0
310
7FFFFFF0001FFFFFF8000FFFFFFFF8000FF8000FFFFFFFF8000FFF0003FFFFFF
310
FFFFFFFFFF800000F000FFFFFFC0000001FFFC001C001FE001C000FFFF80007F
310
FFFFFF80000003FFFFFFF80000001FF80FFFFFFFFFFFFFC07FFFFFF0001FFFFF
310
F8001FFFFFFFFC000FF8001FFFFFFFFC000FFF0003FFFFFFFFFFFFFFF0000001
310
F000FFFFF800000001FFF8001C001FE001C000FFFF80007FFFFFF800000003FF
310
FFFF800000003FF80FFFFFFFFFFFFFC07FFFFFF0001FFFFFF8001FFFFFFFFC00
310
0FF8001FFFFFFFFC000FFF0003FFFFFFFFFFFFFE00000001F000FFFFC0000000
310
03FFF8001E001FC001E000FFFF80007FFFFF8000000007FFFFFC000000003FF8
310
0FFFFFFFFFFFFFC07FFFFFF0001FFFFFF8001FFFFFFFFC000FF8001FFFFFFFFC
310
000FFF0003FFFFFFFFFFFFE000000003F000FFFE0000000007FFF8001E000FC0
310
01E0007FFF80007FFFFE0000000007FFFFE0000000007FF80FFFFFFFFFFFFFC0
310
7FFFFFF0001FFFFFF0001FFFFFFFFC0007F0001FFFFFFFFC0007FF0003FFFFFF
310
FFFFFF0000000003F000FFF80000000007FFF8001E000FC003E0007FFF80007F
310
FFF0000000000FFFFF8000000000FFF80FFFFFFFFFFFFFC07FFFFFF0001FFFFF
310
F0001FFFFFFFFC0007F0001FFFFFFFFC0007FF0003FFFFFFFFFFFC0000000007
310
F000FFE0000000000FFFF0003E000FC003E0007FFF80007FFFC0000000001FFF
310
FE0000000001FFF80FFFFFFFFFFFFFC07FFFFFF0001FFFFFF0001FFFFFFFFC00
310
07F0001FFFFFFFFC0007FF0003FFFFFFFFFFF0000000000FF000FFC000000000
310
1FFFF0003F000F8003F0003FFF80007FFF80000000003FFFF80000000003FFF8
310
0FFFFFFFFFFFFFC07FFFFFF0001FFFFFF0001FFFFFFFFC0007F0001FFFFFFFFC
310
0007FF0003FFFFFFFFFFE0000000001FF000FF00000000007FFFF0003F000780
310
03F0003FFF80007FFF00000000007FFFF00000000007FFF80FFFFFFFFFFFFFC0
310
7FFFFFF0001FFFFFF0001FFFFFFFFC0007F0001FFFFFFFFC0007FF0003FFFFFF
310
FFFF80000000007FF000FE0000000000FFFFE0003F00078007F0003FFF80007F
310
FE0000000001FFFFE0000000001FFFF80FFFFFFFFFFFFFC07FFFFFF0001FFFFF
310
F0001FFFFFFFFC0007F0001FFFFFFFFC0007FF0003FFFFFFFFFF0000000000FF
310
F000FC0000000003FFFFE0007F00078007F0003FFF80007FFC0000000007FFFF
310
C0000000007FFFF80FFFFFFFFFFFFFC07FFFFFF0001FFFFFF8001FFFFFFFFC00
310
0FF8001FFFFFFFFC000FFF0003FFFFFFFFFE0000000003FFF000FC000000000F
310
FFFFE0007F80070007F8001FFF80007FF8000000001FFFFF8000000001FFFFF8
310
0FFFFFFFFFFFFFC07FFFFFF0001FFFFFF8001FFFFFFFFC000FF8001FFFFFFFFC
310
000FFF0003FFFFFFFFFC000000000FFFF000F8000000007FFFFFE0007F800700
310
07F8001FFF80007FF000000000FFFFFF800000000FFFFFF80FFFFFFFFFFFFFC0
310
7FFFFFF0001FFFFFF8000FFFFFFFF8000FF8000FFFFFFFF8000FFF0003FFFFFF
310
FFFC000000007FFFF000F800000007FFFFFFC0007F8003000FF8001FFF80007F
310
F000000007FFFFFF000000007FFFFFF80FFFFFFFFFFFFFC07FFFFFF0001FFFFF
310
F8000FFFFFFFF8000FF8000FFFFFFFF8000FFF0003FFFFFFFFF80000000FFFFF
310
F000F0000000FFFFFFFFC000FF8003000FF8001FFF80007FE0000000FFFFFFFF
310
0000000FFFFFFFF8000001FFFE0000007FFFFFF0001FFFFFF8000FFFFFFFF800
310
0FF8000FFFFFFFF8000FFF0003FFFFFFFFF8000000FFFFFFF000F000000FFFFF
310
FFFFC000FFC002000FF8000FFF80007FE000001FFFFFFFFE000001FFFFFFFFF8
310
000001FFFE0000007FFFFFF0001FFFFFF8000FFFFFFFF8000FF8000FFFFFFFF8
310
000FFF0003FFFFFFFFF000001FFFFFFFF000E00000FFFFFFFFFFC000FFC00200
310
0FFC000FFF80007FE00001FFFFFFFFFE00001FFFFFFFFFF8000001FFFE000000
310
7FFFFFF0001FFFFFFC000FFFFFFFF8001FFC000FFFFFFFF8001FFF0003FFFFFF
310
FFF00001FFFFFFFFF000E00007FFFFFFFFFF8000FFC000001FFC000FFF80007F
310
C0000FFFFFFFFFFE0000FFFFFFFFFFF8000001FFFE0000007FFFFFF0001FFFFF
310
FC0007FFFFFFF0001FFC0007FFFFFFF0001FFF0003FFFFFFFFF00007FFFFFFFF
310
F000E0001FFFFFFFFFFF8000FFC000001FFC000FFF80007FC0003FFFFFFFFFFE
310
0001FFFFFFFFFFF8000001FFFE0000007FFFFFF0001FFFFFFC0007FFFFFFF000
310
1FFC0007FFFFFFF0001FFF0003FFFFFFFFF0001FFFFFFFFFF000E0003FFFFF00
310
03FF8001FFE000001FFC0007FF80007FC0007FFFFF0007FC0003FFFFF0003FF8
310
000001FFFE0000007FFFFFF0001FFFFFFC0003FFFFFFE0001FFC0003FFFFFFE0
310
001FFF0003FFFFFFFFF0003FFFFFFFFFF000E0003FFFFF0001FF8001FFE00000
310
1FFE0007FF80007FC0007FFFFE0003FC0007FFFFE0003FF8000001FFFE000000
310
7FFFFFF0001FFFFFFE0003FFFFFFE0003FFE0003FFFFFFE0003FFF0003FFFFFF
310
FFF0003FFFFF8001F000E0003FFFFF0001FF0001FFE000001FFE0007FF80007F
310
C0007FFFFE0003FC0007FFFFE0003FF8000001FFFE0000007FFFFFF0001FFFFF
310
FE0001FFFFFFC0003FFE0001FFFFFFC0003FFF0003FFFFFFFFF0003FFFFF0001
310
F000E0003FFFFF0003FF0001FFE000003FFE0007FF80007FC0007FFFFE0003FC
310
0007FFFFE0003FF8000001FFFE0000007FFFFFF0001FFFFFFF0001FFFFFFC000
310
7FFF0001FFFFFFC0007FFF0003FFFFFFFFF0003FFFFF0001F000E0003FFFFE00
310
03FF0003FFF000003FFE0003FF80007FC0007FFFFC0003FE0007FFFFE0003FF8
310
000001FFFE0000007FFFFFF0001FFFFFFF0000FFFFFF80007FFF0000FFFFFF80
310
007FFF0003FFFFFFFFF0003FFFFF0001F000E0003FFFFE0003FF0003FFF00000
310
3FFF0003FF80007FC0007FFFFC0007FE0007FFFFC0003FF8000001FFFE000000
310
7FFFFFF0001FFFFFFF80007FFFFF0000FFFF80007FFFFF0000FFFF0003FFFFFF
310
FFF0003FFFFF0003F000E0003FFFFC0003FE0003FFF000003FFF0003FF80007F
310
E0003FFFF80007FE0003FFFFC0007FF8000001FFFE0000007FFFFFF0001FFFFF
310
FF80003FFFFE0000FFFF80003FFFFE0000FFFF0003FFFFFFFFF0001FFFFE0003
310
F000F0001FFFF80003FE0003FFF000007FFF0001FF80007FE0003FFFF00007FE
310
0001FFFF80007FF8000001FFFE0000007FFFFFF0001FFFFFFFC0000FFFF80001
310
FFFFC0000FFFF80001FFFF0003FFFFFFFFF0001FFFFC0003F000F0000FFFF000
310
07FE0007FFF800007FFF0001FF80007FE0001FFFE00007FF0000FFFE00007FF8
310
000001FFFE0000007FFFFFF0001FFFFFFFC00003FFE00001FFFFC00003FFE000
310
01FFFF0003FFFFFFFFF8000FFFF80003F000F00003FFC00007FC0007FFF80000
310
7FFF8001FF80007FF00007FF80000FFF00007FF80000FFF8000001FFFE000000
310
7F80000000000001FFE000003E000003FFFFE000003E000003FFFF0003FFFFFF
310
FFF80003FFE00007F000F800000000000FFC0007FFF800007FFF8001FF80007F
310
F000000000000FFF000000000000FFF8000001FFFE0000007F80000000000001
310
FFF0000000000007FFFFF0000000000007FFFF0003FFFFFFFFFC00007E000007
310
F000F800000000000FFC0007FFF80000FFFF8000FF80007FF800000000001FFF
310
800000000001FFF8000001FFFE0000007F80000000000001FFF800000000000F
310
FFFFF800000000000FFFFF0003FFFFFFFFFC00000000000FF000FC0000000000
310
1FFC0007FFFC0000FFFF8000FF80007FF800000000003FFFC00000000001FFF8
310
000001FFFE0000007F80000000000001FFF800000000000FFFFFF80000000000
310
0FFFFF0003FFFFFFFFFE00000000001FF000FE00000000003FF8000FFFFC0000
310
FFFF8000FF80007FFC00000000003FFFC00000000003FFF8000001FFFE000000
310
7F80000000000001FFFC00000000001FFFFFFC00000000001FFFFF0003FFFFFF
310
FFFF00000000001FF000FF00000000003FF8000FFFFC0000FFFFC000FF80007F
310
FE00000000007FFFE00000000007FFF8000001FFFE0000007F80000000000001
310
FFFE00000000003FFFFFFE00000000003FFFFF0003FFFFFFFFFF80000000003F
310
F000FF80000000007FF8000FFFFC0001FFFFC0007F80007FFF0000000000FFFF
310
F0000000000FFFF800000000000000007F80000000000001FFFF8000000000FF
310
FFFFFF8000000000FFFFFF0003FFFFFFFFFFC0000000007FF000FFC000000000
310
FFF8000FFFFE0001FFFFC0007F80007FFF8000000001FFFFF8000000001FFFF8
310
00000000000000007F80000000000001FFFFC000000001FFFFFFFFC000000001
310
FFFFFF0003FFFFFFFFFFE000000000FFF000FFE000000003FFF0001FFFFE0001
310
FFFFC0007F80007FFFC000000007FFFFFE000000003FFFF80000000000000000
310
7F80000000000001FFFFE000000003FFFFFFFFE000000003FFFFFF0003FFFFFF
310
FFFFF000000003FFF000FFF80000000FFFF0001FFFFE0001FFFFE0007F80007F
310
FFF00000000FFFFFFF00000000FFFFF800000000000000007F80000000000001
310
FFFFF80000000FFFFFFFFFF80000000FFFFFFF0003FFFFFFFFFFFC0000000FFF
310
F000FFFE0000003FFFF0001FFFFE0003FFFFE0003F80007FFFFC0000003FFFFF
310
FFC0000003FFFFF800000000000000007F80000000000001FFFFFE0000003FFF
310
FFFFFFFE0000003FFFFFFF0003FFFFFFFFFFFF0000003FFFF000FFFF800000FF
310
FFF0001FFFFF0003FFFFE0003F80007FFFFF000001FFFFFFFFF800001FFFFFF8
310
00000000000000007F80000000000001FFFFFFC00001FFFFFFFFFFFFC00001FF
310
FFFFFF0003FFFFFFFFFFFFC00000FFFFF000FFFFF8000FFFFFFFFFFFFFFFFFFF
310
FFFFFFFFFFFFFFFFFFFFF0001FFFFFFFFFFF0000FFFFFFF80000000000000000
310
7FFFFFFFFFFFFFFFFFFFFFFC001FFFFFFFFFFFFFFC001FFFFFFFFFFFFFFFFFFF
310
FFFFFFFC001FFFFFF000FFFFFFFFFFFFFFFFFFFFFFFFFFFFFFFFFFFFFFFFFFFF
310
FFFFFFFFFFFFFFFFFFFFFFFFFFFFFFFFFFFFFFFFFFFFFFFFFFFFFFFFFFFFFFFF
310
FFFFFFFFFFFFFFFFFFFFFFFFFFFFFFFFFFFFFFFFFFFFFFFFFFFFFFFFFFFFFFFF
310
F000FFFFFFFFFFFFFFFFFFFFFFFFFFFFFFFFFFFFFFFFFFFFFFFFFFFFFFFFFFFF
310
FFFFFFFFFFFFFFFFFFFFFFFFFFFFFFFFFFFFFFFFFFFFFFFFFFFFFFFFFFFFFFFF
310
FFFFFFFFFFFFFFFFFFFFFFFFFFFFFFFFFFFFFFFFFFFFFFFFF000FFFFFFFFFFFF
310
FFFFFFFFFFFFFFFFFFFFFFFFFFFFFFFFFFFFFFFFFFFFFFFFFFFFFFFFFFFFFFFF
310
FFFFFFFFFFFFFFFFFFFFFFFFFFFFFFFFFFFFFFFFFFFFFFFFFFFFFFFFFFFFFFFF
310
FFFFFFFFFFFFFFFFFFFFFFFFFFFFFFFFF000FFFFFFFFFFFFFFFFFFFFFFFFFFFF
310
FFFFFFFFFFFFFFFFFFFFFFFFFFFFFFFFFFFFFFFFFFFFFFFFFFFFFFFFFFFFFFFF
310
FFFFFFFFFFFFFFFFFFFFFFFFFFFFFFFFFFFFFFFFFFFFFFFFFFFFFFFFFFFFFFFF
310
FFFFFFFFFFFFFFFFF000FFFFFFFFFFFFFFFFFFFFFFFFFFFFFFFFFFFFFFFFFFFF
310
FFFFFFFFFFFFFFFFFFFFFFFFFFFFFFFFFFFFFFFFFFFFFFFFFFFFFFFFFFFFFFFF
310
FFFFFFFFFFFFFFFFFFFFFFFFFFFFFFFFFFFFFFFFFFFFFFFFFFFFFFFFFFFFFFFF
310
F000FFFFFFFFFFFFFFFFFFFFFFFFFFFFFFFFFFFFFFFFFFFFFFFFFFFFFFFFFFFF
310
FFFFFFFFFFFFFFFFFFFFFFFFFFFFFFFFFFFFFFFFFFFFFFFFFFFFFFFFFFFFFFFF
310
FFFFFFFFFFFFFFFFFFFFFFFFFFFFFFFFFFFFFFFFFFFFFFFFF000FFFFFFFFFFFF
310
FFFFFFFFFFFFFFFFFFFFFFFFFFFFFFFFFFFFFFFFFFFFFFFFFFFFFFFFFFFFFFFF
310
FFFFFFFFFFFFFFFFFFFFFFFFFFFFFFFFFFFFFFFFFFFFFFFFFFFFFFFFFFFFFFFF
310
FFFFFFFFFFFFFFFFFFFFFFFFFFFFFFFFF000FFFFFFFFFFFFFFFFFFFFFFFFFFFF
310
FFFFFFFFFFFFFFFFFFFFFFFFFFFFFFFFFFFFFFFFFFFFFFFFFFFFFFFFFFFFFFFF
310
FFFFFFFFFFFFFFFFFFFFFFFFFFFFFFFFFFFFFFFFFFFFFFFFFFFFFFFFFFFFFFFF
310
FFFFFFFFFFFFFFFFF000FFFFFFFFFFFFFFFFFFFFFFFFFFFFFFFFFFFFFFFFFFFF
310
FFFFFFFFFFFFFFFFFFFFFFFFFFFFFFFFFFFFFFFFFFFFFFFFFFFFFFFFFFFFFFFF
310
FFFFFFFFFFFFFFFFFFFFFFFFFFFFFFFFFFFFFFFFFFFFFFFFFFFFFFFFFFFFFFFF
310
F000FFFFFFFFFFFFFFFFFFFFFFFFFFFFFFFFFFFFFFFFFFFFFFFFFFFFFFFFFFFF
310
FFFFFFFFFFFFFFFFFFFFFFFFFFFFFFFFFFFFFFFFFFFFFFFFFFFFFFFFFFFFFFFF
310
FFFFFFFFFFFFFFFFFFFFFFFFFFFFFFFFFFFFFFFFFFFFFFFFF000FFFFFFFFFFFF
310
FFFFFFFFFFFFFFFFFFFFFFFFFFFFFFFFFFFFFFFFFFFFFFFFFFFFFFFFFFFFFFFF
310
FFFFFFFFFFFFFFFFFFFFFFFFFFFFFFFFFFFFFFFFFFFFFFFFFFFFFFFFFFFFFFFF
310
FFFFFFFFFFFFFFFFFFFFFFFFFFFFFFFFF000FFFFFFFFFFFFFFFFFFFFFFFFFFFF
310
FFFFFFFFFFFFFFFFFFFFFFFFFFFFFFFFFFFFFFFFFFFFFFFFFFFFFFFFFFFFFFFF
310
FFFFFFFFFFFFFFFFFFFFFFFFFFFFFFFFFFFFFFFFFFFFFFFFFFFFFFFFFFFFFFFF
310
FFFFFFFFFFFFFFFFF000FFFFFFFFFFFFFFFFFFFFFFFFFFFFFFFFFFFFFFFFFFFF
310
FFFFFFFFFFFFFFFFFFFFFFFFFFFFFFFFFFFFFFFFFFFFFFFFFFFFFFFFFFFFFFFF
310
FFFFFFFFFFFFFFFFFFFFFFFFFFFFFFFFFFFFFFFFFFFFFFFFFFFFFFFFFFFFFFFF
310
F000FFFFFFFFFFFFFFFFFFFFFFFFFFFFFFFFFFFFFFFFFFFFFFFFFFFFFFFFFFFF
310
FFFFFFFFFFFFFFFFFFFFFFFFFFFFFFFFFFFFFFFFFFFFFFFFFFFFFFFFFFFFFFFF
310
FFFFFFFFFFFFFFFFFFFFFFFFFFFFFFFFFFFFFFFFFFFFFFFFF000FFFFFFFFFFFF
310
FFFFFFFFFFFFFFFFFFFFFFFFFFFFFFFFFFFFFFFFFFFFFFFFFFFFFFFFFFFFFFFF
310
FFFFFFFFFFFFFFFFFFFFFFFFFFFFFFFFFFFFFFFFFFFFFFFFFFFFFFFFFFFFFFFF
310
FFFFFFFFFFFFFFFFFFFFFFFFFFFFFFFFF000FFFFFFFFFFFFFFFFFFFFFFFFFFFF
310
FFFFFFFFFFFFFFFFFFFFFFFFFFFFFFFFFFFFFFFFFFFFFFFFFFFFFFFFFFFFFFFF
310
FFFFFFFFFFFFFFFFFFFFFFFFFFFFFFFFFFFFFFFFFFFFFFFFFFFFFFFFFFFFFFFF
310
FFFFFFFFFFFFFFFFF000FFFFFFFFFFFFFFFFFFFFFFFFFFFFFFFFFFFFFFFFFFFF
310
FFFFFFFFFFFFFFFFFFFFFFFFFFFFFFFFFFFFFFFFFFFFFFFFFFFFFFFFFFFFFFFF
310
FFFFFFFFFFFFFFFFFFFFFFFFFFFFFFFFFFFFFFFFFFFFFFFFFFFFFFFFFFFFFFFF
310
F000FFFFFFFFFFFFFFFFFFFFFFFFFFFFFFFFFFFFFFFFFFFFFFFFFFFFFFFFFFFF
310
FFFFFFFFFFFFFFFFFFFFFFFFFFFFFFFFFFFFFFFFFFFFFFFFFFFFFFFFFFFFFFFF
310
FFFFFFFFFFFFFFFFFFFFFFFFFFFFFFFFFFFFFFFFFFFFFFFFF000FFFFFFFFFFFF
310
FFFFFFFFFFFFFFFFFFFFFFFFFFFFFFFFFFFFFFFFFFFFFFFFFFFFFFFFFFFFFFFF
310
FFFFFFFFFFFFFFFFFFFFFFFFFFFFFFFFFFFFFFFFFFFFFFFFFFFFFFFFFFFFFFFF
310
FFFFFFFFFFFFFFFFFFFFFFFFFFFFFFFFF000FFFFFFFFFFFFFFFFFFFFFFFFFFFF
310
FFFFFFFFFFFFFFFFFFFFFFFFFFFFFFFFFFFFFFFFFFFFFFFFFFFFFFFFFFFFFFFF
310
FFFFFFFFFFFFFFFFFFFFFFFFFFFFFFFFFFFFFFFFFFFFFFFFFFFFFFFFFFFFFFFF
310
FFFFFFFFFFFFFFFFF000FFFFFFFFFFFFFFFFFFFFFFFFFFFFFFFFFFFFFFFFFFFF
310
FFFFFFFFFFFFFFFFFFFFFFFFFFFFFFFFFFFFFFFFFFFFFFFFFFFFFFFFFFFFFFFF
310
FFFFFFFFFFFFFFFFFFFFFFFFFFFFFFFFFFFFFFFFFFFFFFFFFFFFFFFFFFFFFFFF
310
F000FFFFFFFFFFFFFFFFFFFFFFFFFFFFFFFFFFFFFFFFFFFFFFFFFFFFFFFFFFFF
310
FFFFFFFFFFFFFFFFFFFFFFFFFFFFFFFFFFFFFFFFFFFFFFFFFFFFFFFFFFFFFFFF
310
FFFFFFFFFFFFFFFFFFFFFFFFFFFFFFFFFFFFFFFFFFFFFFFFF000FFFFFFFFFFFF
310
FFFFFFFFFFFFFFFFFFFFFFFFFFFFFFFFFFFFFFFFFFFFFFFFFFFFFFFFFFFFFFFF
310
FFFFFFFFFFFFFFFFFFFFFFFFFFFFFFFFFFFFFFFFFFFFFFFFFFFFFFFFFFFFFFFF
310
FFFFFFFFFFFFFFFFFFFFFFFFFFFFFFFFF0000000000000000000000000000000
310
0000000000000000000000000000000000000000000000000000000000000000
310
0000000000000000000000000000000000000000000000000000000000000000
310
0000000000000000000000000000000000000000000000000000000000000000
310
0000000000000000000000000000000000000000000000000000000000000000
310
0000000000000000000000000000000000000000000000000000000000000000
310
0000000000000000000000000000000000000000000000000000000000000000
310
0000000000000000000000000000000000000000000000000000000000000000
310
0000000000000000000000000000000000000000000000000000000000000000
310
0000000000000000000000000000000000000000000000000000000000000000
310
0000000000000000000000000000000000000000000000000000000000000000
310
0000000000000000000000000000000000000000000000000000000000000000
310
0000000000000000000000000000000000000000000000000000000000000000
310
0000000000000000000000000000000000000000000000000000000000000000
310
0000000000000000000000000000000000000000000000000000000000000000
310
0000000000000000000000000000000000000000000000000000000000000000
  1
OLE
  0
ENDSEC
  0
SECTION
  2
OBJECTS
  0
DICTIONARY
  5
C
330
0
100
AcDbDictionary
281
     1
  3
ACAD_GROUP
350
D
  3
ACAD_LAYOUT
350
1A
  3
ACAD_MLINESTYLE
350
17
  3
ACAD_PLOTSETTINGS
350
19
  3
ACAD_PLOTSTYLENAME
350
E
  3
ACAD_SCALELIST
350
47
  0
DICTIONARY
  5
D
102
{ACAD_REACTORS
330
C
102
}
330
C
100
AcDbDictionary
281
     1
  0
DICTIONARY
  5
1A
102
{ACAD_REACTORS
330
C
102
}
330
C
100
AcDbDictionary
281
     1
  3
Layout1
350
1E
  3
Layout2
350
26
  3
Model
350
22
  0
DICTIONARY
  5
17
102
{ACAD_REACTORS
330
C
102
}
330
C
100
AcDbDictionary
281
     1
  3
Standard
350
18
  0
DICTIONARY
  5
19
102
{ACAD_REACTORS
330
C
102
}
330
C
100
AcDbDictionary
281
     1
  0
ACDBDICTIONARYWDFLT
  5
E
102
{ACAD_REACTORS
330
C
102
}
330
C
100
AcDbDictionary
281
     1
  3
Normal
350
F
100
AcDbDictionaryWithDefault
340
F
  0
DICTIONARY
  5
47
102
{ACAD_REACTORS
330
C
102
}
330
C
100
AcDbDictionary
281
     1
  3
A0
350
48
  3
A1
350
49
  3
A2
350
4A
  3
A3
350
4B
  3
A4
350
4C
  3
A5
350
4D
  3
A6
350
4E
  3
A7
350
4F
  3
A8
350
50
  3
A9
350
51
  3
B0
350
52
  3
B1
350
53
  3
B2
350
54
  3
B3
350
55
  3
B4
350
56
  3
B5
350
57
  3
B6
350
58
  3
B7
350
59
  3
B8
350
5A
  3
B9
350
5B
  3
C0
350
5C
  3
C1
350
5D
  3
C2
350
5E
  3
C3
350
5F
  3
C4
350
60
  3
C5
350
61
  3
C6
350
62
  3
C7
350
63
  3
C8
350
64
  3
C9
350
65
  3
D0
350
66
  3
D1
350
67
  3
D2
350
68
  0
LAYOUT
  5
1E
102
{ACAD_REACTORS
330
1A
102
}
330
1A
100
AcDbPlotSettings
  1

  2
none_device
  4

  6

 40
0.0
 41
0.0
 42
0.0
 43
0.0
 44
0.0
 45
0.0
 46
0.0
 47
0.0
 48
0.0
 49
0.0
140
0.0
141
0.0
142
1.0
143
1.0
 70
   688
 72
     1
 73
     0
 74
     5
  7

 75
    16
147
1.0
148
0.0
149
0.0
100
AcDbLayout
  1
Layout1
 70
     1
 71
     1
 10
0.0
 20
0.0
 11
420.0
 21
297.0
 12
0.0
 22
0.0
 32
0.0
 14
1.0000000000E+20
 24
1.0000000000E+20
 34
1.0000000000E+20
 15
-1.0000000000E+20
 25
-1.0000000000E+20
 35
-1.0000000000E+20
146
0.0
 13
0.0
 23
0.0
 33
0.0
 16
1.0
 26
0.0
 36
0.0
 17
0.0
 27
1.0
 37
0.0
 76
     0
330
1B
  0
LAYOUT
  5
26
102
{ACAD_REACTORS
330
1A
102
}
330
1A
100
AcDbPlotSettings
  1

  2
none_device
  4

  6

 40
0.0
 41
0.0
 42
0.0
 43
0.0
 44
0.0
 45
0.0
 46
0.0
 47
0.0
 48
0.0
 49
0.0
140
0.0
141
0.0
142
1.0
143
1.0
 70
   688
 72
     1
 73
     0
 74
     5
  7

 75
    16
147
1.0
148
0.0
149
0.0
100
AcDbLayout
  1
Layout2
 70
     1
 71
     2
 10
0.0
 20
0.0
 11
0.0
 21
0.0
 12
0.0
 22
0.0
 32
0.0
 14
0.0
 24
0.0
 34
0.0
 15
0.0
 25
0.0
 35
0.0
146
0.0
 13
0.0
 23
0.0
 33
0.0
 16
1.0
 26
0.0
 36
0.0
 17
0.0
 27
1.0
 37
0.0
 76
     0
330
23
  0
LAYOUT
  5
22
102
{ACAD_REACTORS
330
1A
102
}
330
1A
100
AcDbPlotSettings
  1

  2
none_device
  4
Letter_(8.50_x_11.00_Inches)
  6

 40
6.35
 41
6.35
 42
6.35000508
 43
6.35000508
 44
215.9
 45
279.4
 46
0.0
 47
0.0
 48
0.0
 49
0.0
140
0.0
141
0.0
142
1.0
143
1.0
 70
  1712
 72
     1
 73
     0
 74
     0
  7

 75
     0
147
1.0
148
0.0
149
0.0
100
AcDbLayout
  1
Model
 70
     1
 71
     0
 10
0.0
 20
0.0
 11
297.0
 21
210.0
 12
0.0
 22
0.0
 32
0.0
 14
0.0
 24
0.0
 34
0.0
 15
297.0
 25
210.0
 35
0.0
146
0.0
 13
0.0
 23
0.0
 33
0.0
 16
1.0
 26
0.0
 36
0.0
 17
0.0
 27
1.0
 37
0.0
 76
     0
330
1F
331
29
  0
MLINESTYLE
  5
18
102
{ACAD_REACTORS
330
17
102
}
330
17
100
AcDbMlineStyle
  2
Standard
 70
     0
  3

 62
   256
 51
90.0
 52
90.0
 71
     2
 49
0.5
 62
   256
  6
BYLAYER
 49
-0.5
 62
   256
  6
BYLAYER
  0
ACDBPLACEHOLDER
  5
F
102
{ACAD_REACTORS
330
E
102
}
330
E
  0
SCALE
  5
48
102
{ACAD_REACTORS
330
47
102
}
330
47
100
AcDbScale
 70
     0
300
1:1
140
1.0
141
1.0
290
     1
  0
SCALE
  5
49
102
{ACAD_REACTORS
330
47
102
}
330
47
100
AcDbScale
 70
     0
300
1:2
140
1.0
141
2.0
290
     0
  0
SCALE
  5
4A
102
{ACAD_REACTORS
330
47
102
}
330
47
100
AcDbScale
 70
     0
300
1:4
140
1.0
141
4.0
290
     0
  0
SCALE
  5
4B
102
{ACAD_REACTORS
330
47
102
}
330
47
100
AcDbScale
 70
     0
300
1:5
140
1.0
141
5.0
290
     0
  0
SCALE
  5
4C
102
{ACAD_REACTORS
330
47
102
}
330
47
100
AcDbScale
 70
     0
300
1:8
140
1.0
141
8.0
290
     0
  0
SCALE
  5
4D
102
{ACAD_REACTORS
330
47
102
}
330
47
100
AcDbScale
 70
     0
300
1:10
140
1.0
141
10.0
290
     0
  0
SCALE
  5
4E
102
{ACAD_REACTORS
330
47
102
}
330
47
100
AcDbScale
 70
     0
300
1:16
140
1.0
141
16.0
290
     0
  0
SCALE
  5
4F
102
{ACAD_REACTORS
330
47
102
}
330
47
100
AcDbScale
 70
     0
300
1:20
140
1.0
141
20.0
290
     0
  0
SCALE
  5
50
102
{ACAD_REACTORS
330
47
102
}
330
47
100
AcDbScale
 70
     0
300
1:30
140
1.0
141
30.0
290
     0
  0
SCALE
  5
51
102
{ACAD_REACTORS
330
47
102
}
330
47
100
AcDbScale
 70
     0
300
1:40
140
1.0
141
40.0
290
     0
  0
SCALE
  5
52
102
{ACAD_REACTORS
330
47
102
}
330
47
100
AcDbScale
 70
     0
300
1:50
140
1.0
141
50.0
290
     0
  0
SCALE
  5
53
102
{ACAD_REACTORS
330
47
102
}
330
47
100
AcDbScale
 70
     0
300
1:100
140
1.0
141
100.0
290
     0
  0
SCALE
  5
54
102
{ACAD_REACTORS
330
47
102
}
330
47
100
AcDbScale
 70
     0
300
2:1
140
2.0
141
1.0
290
     0
  0
SCALE
  5
55
102
{ACAD_REACTORS
330
47
102
}
330
47
100
AcDbScale
 70
     0
300
4:1
140
4.0
141
1.0
290
     0
  0
SCALE
  5
56
102
{ACAD_REACTORS
330
47
102
}
330
47
100
AcDbScale
 70
     0
300
8:1
140
8.0
141
1.0
290
     0
  0
SCALE
  5
57
102
{ACAD_REACTORS
330
47
102
}
330
47
100
AcDbScale
 70
     0
300
10:1
140
10.0
141
1.0
290
     0
  0
SCALE
  5
58
102
{ACAD_REACTORS
330
47
102
}
330
47
100
AcDbScale
 70
     0
300
100:1
140
100.0
141
1.0
290
     0
  0
SCALE
  5
59
102
{ACAD_REACTORS
330
47
102
}
330
47
100
AcDbScale
 70
     0
300
1/128" = 1'-0"
140
0.0078125
141
12.0
290
     0
  0
SCALE
  5
5A
102
{ACAD_REACTORS
330
47
102
}
330
47
100
AcDbScale
 70
     0
300
1/64" = 1'-0"
140
0.015625
141
12.0
290
     0
  0
SCALE
  5
5B
102
{ACAD_REACTORS
330
47
102
}
330
47
100
AcDbScale
 70
     0
300
1/32" = 1'-0"
140
0.03125
141
12.0
290
     0
  0
SCALE
  5
5C
102
{ACAD_REACTORS
330
47
102
}
330
47
100
AcDbScale
 70
     0
300
1/16" = 1'-0"
140
0.0625
141
12.0
290
     0
  0
SCALE
  5
5D
102
{ACAD_REACTORS
330
47
102
}
330
47
100
AcDbScale
 70
     0
300
3/32" = 1'-0"
140
0.09375
141
12.0
290
     0
  0
SCALE
  5
5E
102
{ACAD_REACTORS
330
47
102
}
330
47
100
AcDbScale
 70
     0
300
1/8" = 1'-0"
140
0.125
141
12.0
290
     0
  0
SCALE
  5
5F
102
{ACAD_REACTORS
330
47
102
}
330
47
100
AcDbScale
 70
     0
300
3/16" = 1'-0"
140
0.1875
141
12.0
290
     0
  0
SCALE
  5
60
102
{ACAD_REACTORS
330
47
102
}
330
47
100
AcDbScale
 70
     0
300
1/4" = 1'-0"
140
0.25
141
12.0
290
     0
  0
SCALE
  5
61
102
{ACAD_REACTORS
330
47
102
}
330
47
100
AcDbScale
 70
     0
300
3/8" = 1'-0"
140
0.375
141
12.0
290
     0
  0
SCALE
  5
62
102
{ACAD_REACTORS
330
47
102
}
330
47
100
AcDbScale
 70
     0
300
1/2" = 1'-0"
140
0.5
141
12.0
290
     0
  0
SCALE
  5
63
102
{ACAD_REACTORS
330
47
102
}
330
47
100
AcDbScale
 70
     0
300
3/4" = 1'-0"
140
0.75
141
12.0
290
     0
  0
SCALE
  5
64
102
{ACAD_REACTORS
330
47
102
}
330
47
100
AcDbScale
 70
     0
300
1" = 1'-0"
140
1.0
141
12.0
290
     0
  0
SCALE
  5
65
102
{ACAD_REACTORS
330
47
102
}
330
47
100
AcDbScale
 70
     0
300
1-1/2" = 1'-0"
140
1.5
141
12.0
290
     0
  0
SCALE
  5
66
102
{ACAD_REACTORS
330
47
102
}
330
47
100
AcDbScale
 70
     0
300
3" = 1'-0"
140
3.0
141
12.0
290
     0
  0
SCALE
  5
67
102
{ACAD_REACTORS
330
47
102
}
330
47
100
AcDbScale
 70
     0
300
6" = 1'-0"
140
6.0
141
12.0
290
     0
  0
SCALE
  5
68
102
{ACAD_REACTORS
330
47
102
}
330
47
100
AcDbScale
 70
     0
300
1'-0" = 1'-0"
140
12.0
141
12.0
290
     0
  0
ENDSEC
  0
EOF
