  0
SECTION
  2
HEADER
  9
$ACADVER
  1
AC1015
  9
$ACADMAINTVER
 70
     6
  9
$DWGCODEPAGE
  3
ANSI_1252
  9
$INSBASE
 10
0.0
 20
0.0
 30
0.0
  9
$EXTMIN
 10
0.0
 20
0.0
 30
0.0
  9
$EXTMAX
 10
297.0
 20
210.0
 30
0.0
  9
$LIMMIN
 10
0.0
 20
0.0
  9
$LIMMAX
 10
297.0
 20
210.0
  9
$ORTHOMODE
 70
     0
  9
$REGENMODE
 70
     1
  9
$FILLMODE
 70
     1
  9
$QTEXTMODE
 70
     0
  9
$MIRRTEXT
 70
     1
  9
$LTSCALE
 40
1.0
  9
$ATTMODE
 70
     1
  9
$TEXTSIZE
 40
2.0
  9
$TRACEWID
 40
1.0
  9
$TEXTSTYLE
  7
Standard
  9
$CLAYER
  8
0
  9
$CELTYPE
  6
ByLayer
  9
$CECOLOR
 62
   256
  9
$CELTSCALE
 40
1.0
  9
$DISPSILH
 70
     0
  9
$DIMSCALE
 40
1.0
  9
$DIMASZ
 40
3.0
  9
$DIMEXO
 40
0.0
  9
$DIMDLI
 40
3.75
  9
$DIMRND
 40
0.0
  9
$DIMDLE
 40
0.0
  9
$DIMEXE
 40
1.0
  9
$DIMTP
 40
0.0
  9
$DIMTM
 40
0.0
  9
$DIMTXT
 40
2.0
  9
$DIMCEN
 40
2.5
  9
$DIMTSZ
 40
0.0
  9
$DIMTOL
 70
     0
  9
$DIMLIM
 70
     0
  9
$DIMTIH
 70
     1
  9
$DIMTOH
 70
     1
  9
$DIMSE1
 70
     0
  9
$DIMSE2
 70
     0
  9
$DIMTAD
 70
     1
  9
$DIMZIN
 70
     0
  9
$DIMBLK
  1

  9
$DIMASO
 70
     1
  9
$DIMSHO
 70
     1
  9
$DIMPOST
  1

  9
$DIMAPOST
  1

  9
$DIMALT
 70
     0
  9
$DIMALTD
 70
     3
  9
$DIMALTF
 40
0.0393700787
  9
$DIMLFAC
 40
1.0
  9
$DIMTOFL
 70
     1
  9
$DIMTVP
 40
0.0
  9
$DIMTIX
 70
     0
  9
$DIMSOXD
 70
     0
  9
$DIMSAH
 70
     0
  9
$DIMBLK1
  1

  9
$DIMBLK2
  1

  9
$DIMSTYLE
  2
ISO-25
  9
$DIMCLRD
 70
     0
  9
$DIMCLRE
 70
     0
  9
$DIMCLRT
 70
     0
  9
$DIMTFAC
 40
1.0
  9
$DIMGAP
 40
1.524
  9
$DIMJUST
 70
     0
  9
$DIMSD1
 70
     0
  9
$DIMSD2
 70
     0
  9
$DIMTOLJ
 70
     0
  9
$DIMTZIN
 70
     0
  9
$DIMALTZ
 70
     0
  9
$DIMALTTZ
 70
     0
  9
$DIMUPT
 70
     0
  9
$DIMDEC
 70
     2
  9
$DIMTDEC
 70
     3
  9
$DIMALTU
 70
     2
  9
$DIMALTTD
 70
     3
  9
$DIMTXSTY
  7
Standard
  9
$DIMAUNIT
 70
     0
  9
$DIMADEC
 70
     2
  9
$DIMALTRND
 40
0.0
  9
$DIMAZIN
 70
     0
  9
$DIMDSEP
 70
    44
  9
$DIMATFIT
 70
     3
  9
$DIMFRAC
 70
     0
  9
$DIMLDRBLK
  1

  9
$DIMLUNIT
 70
     2
  9
$DIMLWD
 70
    -2
  9
$DIMLWE
 70
    -2
  9
$DIMTMOVE
 70
     0
  9
$LUNITS
 70
     2
  9
$LUPREC
 70
     2
  9
$SKETCHINC
 40
1.0
  9
$FILLETRAD
 40
10.0
  9
$AUNITS
 70
     0
  9
$AUPREC
 70
     2
  9
$MENU
  1
.
  9
$ELEVATION
 40
0.0
  9
$PELEVATION
 40
0.0
  9
$THICKNESS
 40
0.0
  9
$LIMCHECK
 70
     0
  9
$CHAMFERA
 40
10.0
  9
$CHAMFERB
 40
10.0
  9
$CHAMFERC
 40
20.0
  9
$CHAMFERD
 40
0.0
  9
$SKPOLY
 70
     0
  9
$TDCREATE
 40
2456098.344191759
  9
$TDUCREATE
 40
2456098.260858426
  9
$TDUPDATE
 40
2456098.344193391
  9
$TDUUPDATE
 40
2456098.260860058
  9
$TDINDWG
 40
0.0000000116
  9
$TDUSRTIMER
 40
0.0000000116
  9
$USRTIMER
 70
     1
  9
$ANGBASE
 50
0.0
  9
$ANGDIR
 70
     0
  9
$PDMODE
 70
     0
  9
$PDSIZE
 40
-1.0
  9
$PLINEWID
 40
0.0
  9
$SPLFRAME
 70
     0
  9
$SPLINETYPE
 70
     6
  9
$SPLINESEGS
 70
     8
  9
$HANDSEED
  5
251
  9
$SURFTAB1
 70
     6
  9
$SURFTAB2
 70
     6
  9
$SURFTYPE
 70
     6
  9
$SURFU
 70
     6
  9
$SURFV
 70
     6
  9
$UCSBASE
  2

  9
$UCSNAME
  2

  9
$UCSORG
 10
0.0
 20
0.0
 30
0.0
  9
$UCSXDIR
 10
1.0
 20
0.0
 30
0.0
  9
$UCSYDIR
 10
0.0
 20
1.0
 30
0.0
  9
$UCSORTHOREF
  2

  9
$UCSORTHOVIEW
 70
     0
  9
$UCSORGTOP
 10
0.0
 20
0.0
 30
0.0
  9
$UCSORGBOTTOM
 10
0.0
 20
0.0
 30
0.0
  9
$UCSORGLEFT
 10
0.0
 20
0.0
 30
0.0
  9
$UCSORGRIGHT
 10
0.0
 20
0.0
 30
0.0
  9
$UCSORGFRONT
 10
0.0
 20
0.0
 30
0.0
  9
$UCSORGBACK
 10
0.0
 20
0.0
 30
0.0
  9
$PUCSBASE
  2

  9
$PUCSNAME
  2

  9
$PUCSORG
 10
0.0
 20
0.0
 30
0.0
  9
$PUCSXDIR
 10
1.0
 20
0.0
 30
0.0
  9
$PUCSYDIR
 10
0.0
 20
1.0
 30
0.0
  9
$PUCSORTHOREF
  2

  9
$PUCSORTHOVIEW
 70
     0
  9
$PUCSORGTOP
 10
0.0
 20
0.0
 30
0.0
  9
$PUCSORGBOTTOM
 10
0.0
 20
0.0
 30
0.0
  9
$PUCSORGLEFT
 10
0.0
 20
0.0
 30
0.0
  9
$PUCSORGRIGHT
 10
0.0
 20
0.0
 30
0.0
  9
$PUCSORGFRONT
 10
0.0
 20
0.0
 30
0.0
  9
$PUCSORGBACK
 10
0.0
 20
0.0
 30
0.0
  9
$USERI1
 70
     0
  9
$USERI2
 70
     0
  9
$USERI3
 70
     0
  9
$USERI4
 70
     0
  9
$USERI5
 70
     0
  9
$USERR1
 40
0.0
  9
$USERR2
 40
0.0
  9
$USERR3
 40
0.0
  9
$USERR4
 40
0.0
  9
$USERR5
 40
0.0
  9
$WORLDVIEW
 70
     1
  9
$SHADEDGE
 70
     3
  9
$SHADEDIF
 70
    70
  9
$TILEMODE
 70
     1
  9
$MAXACTVP
 70
    64
  9
$PINSBASE
 10
0.0
 20
0.0
 30
0.0
  9
$PLIMCHECK
 70
     0
  9
$PEXTMIN
 10
1.0000000000E+20
 20
1.0000000000E+20
 30
1.0000000000E+20
  9
$PEXTMAX
 10
-1.0000000000E+20
 20
-1.0000000000E+20
 30
-1.0000000000E+20
  9
$PLIMMIN
 10
0.0
 20
0.0
  9
$PLIMMAX
 10
420.0
 20
297.0
  9
$UNITMODE
 70
     0
  9
$VISRETAIN
 70
     1
  9
$PLINEGEN
 70
     0
  9
$PSLTSCALE
 70
     1
  9
$TREEDEPTH
 70
  3020
  9
$CMLSTYLE
  2
Standard
  9
$CMLJUST
 70
     0
  9
$CMLSCALE
 40
20.0
  9
$PROXYGRAPHICS
 70
     1
  9
$MEASUREMENT
 70
     1
  9
$CELWEIGHT
370
    -1
  9
$ENDCAPS
280
     0
  9
$JOINSTYLE
280
     0
  9
$LWDISPLAY
290
     1
  9
$INSUNITS
 70
     4
  9
$HYPERLINKBASE
  1

  9
$STYLESHEET
  1

  9
$XEDIT
290
     1
  9
$CEPSNTYPE
380
     0
  9
$PSTYLEMODE
290
     1
  9
$FINGERPRINTGUID
  2
{B5A71939-7918-4C14-B436-38AB7D970BDD}
  9
$VERSIONGUID
  2
{FAEB1C32-E019-11D5-929B-00C0DF256EC4}
  9
$EXTNAMES
290
     1
  9
$PSVPSCALE
 40
0.0
  9
$OLESTARTUP
290
     0
  0
ENDSEC
  0
SECTION
  2
CLASSES
  0
CLASS
  1
ACDBDICTIONARYWDFLT
  2
AcDbDictionaryWithDefault
  3
ObjectDBX Classes
 90
        0
280
     0
281
     0
  0
CLASS
  1
VISUALSTYLE
  2
AcDbVisualStyle
  3
ObjectDBX Classes
 90
     4095
280
     0
281
     0
  0
CLASS
  1
MATERIAL
  2
AcDbMaterial
  3
ObjectDBX Classes
 90
     1153
280
     0
281
     0
  0
CLASS
  1
ACDBPLACEHOLDER
  2
AcDbPlaceHolder
  3
ObjectDBX Classes
 90
        0
280
     0
281
     0
  0
CLASS
  1
LAYOUT
  2
AcDbLayout
  3
ObjectDBX Classes
 90
        0
280
     0
281
     0
  0
ENDSEC
  0
SECTION
  2
TABLES
  0
TABLE
  2
VPORT
  5
8
330
0
100
AcDbSymbolTable
 70
     1
  0
VPORT
  5
29
330
8
100
AcDbSymbolTableRecord
100
AcDbViewportTableRecord
  2
*Active
 70
     0
 10
0.0
 20
0.0
 11
1.0
 21
1.0
 12
148.5
 22
105.0
 13
0.0
 23
0.0
 14
10.0
 24
10.0
 15
10.0
 25
10.0
 16
0.0
 26
0.0
 36
1.0
 17
0.0
 27
0.0
 37
0.0
 40
210.0
 41
1.4142857143
 42
50.0
 43
0.0
 44
0.0
 50
0.0
 51
0.0
 71
     0
 72
  2000
 73
     1
 74
     3
 75
     0
 76
     0
 77
     0
 78
     0
281
     0
 65
     1
110
0.0
120
0.0
130
0.0
111
1.0
121
0.0
131
0.0
112
0.0
122
1.0
132
0.0
 79
     0
146
0.0
  0
ENDTAB
  0
TABLE
  2
LTYPE
  5
5
330
0
100
AcDbSymbolTable
 70
     6
  0
LTYPE
  5
14
330
5
100
AcDbSymbolTableRecord
100
AcDbLinetypeTableRecord
  2
ByBlock
 70
     0
  3

 72
    65
 73
     0
 40
0.0
  0
LTYPE
  5
15
330
5
100
AcDbSymbolTableRecord
100
AcDbLinetypeTableRecord
  2
ByLayer
 70
     0
  3

 72
    65
 73
     0
 40
0.0
  0
LTYPE
  5
16
330
5
100
AcDbSymbolTableRecord
100
AcDbLinetypeTableRecord
  2
Continuous
 70
     0
  3
Solid line
 72
    65
 73
     0
 40
0.0
  0
LTYPE
  5
3F
330
5
100
AcDbSymbolTableRecord
100
AcDbLinetypeTableRecord
  2
HIDDEN
 70
     0
  3
Hidden __ __ __ __ __ __ __ __ __ __ __ __ __ __
 72
    65
 73
     2
 40
1.905
 49
1.27
 74
     0
 49
-0.635
 74
     0
  0
LTYPE
  5
40
330
5
100
AcDbSymbolTableRecord
100
AcDbLinetypeTableRecord
  2
PHANTOM
 70
     0
  3
Phantom ______  __  __  ______  __  __  ______
 72
    65
 73
     6
 40
12.7
 49
6.35
 74
     0
 49
-1.27
 74
     0
 49
1.27
 74
     0
 49
-1.27
 74
     0
 49
1.27
 74
     0
 49
-1.27
 74
     0
  0
LTYPE
  5
41
330
5
100
AcDbSymbolTableRecord
100
AcDbLinetypeTableRecord
  2
CENTER
 70
     0
  3
Center ____ _ ____ _ ____ _ ____ _ ____ _ ____
 72
    65
 73
     4
 40
10.16
 49
6.35
 74
     0
 49
-1.27
 74
     0
 49
1.27
 74
     0
 49
-1.27
 74
     0
  0
LTYPE
  5
42
330
5
100
AcDbSymbolTableRecord
100
AcDbLinetypeTableRecord
  2
CENTERX2
 70
     0
  3
Center (2x) ________  __  ________  __  _____
 72
    65
 73
     4
 40
20.32
 49
12.7
 74
     0
 49
-2.54
 74
     0
 49
2.54
 74
     0
 49
-2.54
 74
     0
  0
LTYPE
  5
43
330
5
100
AcDbSymbolTableRecord
100
AcDbLinetypeTableRecord
  2
DOT2
 70
     0
  3
Dot (.5x) ........................................
 72
    65
 73
     2
 40
0.635
 49
0.0
 74
     0
 49
-0.635
 74
     0
  0
ENDTAB
  0
TABLE
  2
LAYER
  5
2
330
0
100
AcDbSymbolTable
 70
     5
  0
LAYER
  5
10
330
2
100
AcDbSymbolTableRecord
100
AcDbLayerTableRecord
  2
0
 70
     0
 62
     7
  6
Continuous
370
    -3
390
F
  0
LAYER
  5
44
330
2
100
AcDbSymbolTableRecord
100
AcDbLayerTableRecord
  2
FORMAT
 70
     0
 62
     7
  6
Continuous
370
    -3
390
F
  0
LAYER
  5
45
330
2
100
AcDbSymbolTableRecord
100
AcDbLayerTableRecord
  2
VERMASSUNG
 70
     0
 62
     7
  6
Continuous
370
    -3
390
F
  0
LAYER
  5
46
330
2
100
AcDbSymbolTableRecord
100
AcDbLayerTableRecord
  2
KOPF_DÜNN
 70
     0
 62
     7
  6
Continuous
370
    -3
390
F
  0
LAYER
  5
47
330
2
100
AcDbSymbolTableRecord
100
AcDbLayerTableRecord
  2
KOPF_DICK
 70
     0
 62
     7
  6
Continuous
370
    15
390
F
  0
ENDTAB
  0
TABLE
  2
STYLE
  5
3
330
0
100
AcDbSymbolTable
 70
     3
  0
STYLE
  5
11
330
3
100
AcDbSymbolTableRecord
100
AcDbTextStyleTableRecord
  2
Standard
 70
     0
 40
0.0
 41
1.0
 50
0.0
 71
     0
 42
2.0
  3
txt
  4

  0
STYLE
  5
48
330
3
100
AcDbSymbolTableRecord
100
AcDbTextStyleTableRecord
  2
SLDTEXTSTYLE0
 70
     0
 40
0.0
 41
0.7
 50
0.0
 71
     0
 42
0.2
  3
TXT
  4

  0
STYLE
  5
4C
330
3
100
AcDbSymbolTableRecord
100
AcDbTextStyleTableRecord
  2
SLDTEXTSTYLE1
 70
     0
 40
0.0
 41
0.6538461538
 50
0.0
 71
     0
 42
0.2
  3
TXT
  4

  0
ENDTAB
  0
TABLE
  2
VIEW
  5
6
330
0
100
AcDbSymbolTable
 70
     0
  0
ENDTAB
  0
TABLE
  2
UCS
  5
7
330
0
100
AcDbSymbolTable
 70
     0
  0
ENDTAB
  0
TABLE
  2
APPID
  5
9
330
0
100
AcDbSymbolTable
 70
     1
  0
APPID
  5
12
330
9
100
AcDbSymbolTableRecord
100
AcDbRegAppTableRecord
  2
ACAD
 70
     0
  0
ENDTAB
  0
TABLE
  2
DIMSTYLE
  5
A
330
0
100
AcDbSymbolTable
 70
     2
100
AcDbDimStyleTable
  0
DIMSTYLE
105
27
330
A
100
AcDbSymbolTableRecord
100
AcDbDimStyleTableRecord
  2
ISO-25
 70
     0
 41
2.5
 42
0.625
 43
3.75
 44
1.25
 73
     0
 74
     0
 77
     1
 78
     8
140
2.5
141
2.5
143
0.0393700787
147
0.625
171
     3
172
     1
178
     0
271
     2
272
     2
274
     3
278
    44
283
     0
284
     8
340
11
  0
DIMSTYLE
105
197
102
{ACAD_REACTORS
330
196
330
1A1
330
1AB
330
1B7
102
}
330
A
100
AcDbSymbolTableRecord
100
AcDbDimStyleTableRecord
  2
SLDDIMSTYLE0
 70
     0
 41
3.0
 44
0.0
 45
0.000000001
 73
     0
 74
     0
 77
     1
 78
    12
 79
     3
140
2.0
147
0.5
173
     1
178
     0
271
     2
272
     3
276
     2
284
    12
340
48
  0
ENDTAB
  0
TABLE
  2
BLOCK_RECORD
  5
1
330
0
100
AcDbSymbolTable
 70
     6
  0
BLOCK_RECORD
  5
1F
330
1
100
AcDbSymbolTableRecord
100
AcDbBlockTableRecord
  2
*Model_Space
340
22
  0
BLOCK_RECORD
  5
1B
330
1
100
AcDbSymbolTableRecord
100
AcDbBlockTableRecord
  2
*Paper_Space
340
1E
  0
BLOCK_RECORD
  5
23
330
1
100
AcDbSymbolTableRecord
100
AcDbBlockTableRecord
  2
*Paper_Space0
340
26
  0
BLOCK_RECORD
  5
198
330
1
100
AcDbSymbolTableRecord
100
AcDbBlockTableRecord
  2
_D
340
0
  0
BLOCK_RECORD
  5
1A2
330
1
100
AcDbSymbolTableRecord
100
AcDbBlockTableRecord
  2
_D_1
340
0
  0
BLOCK_RECORD
  5
1AC
330
1
100
AcDbSymbolTableRecord
100
AcDbBlockTableRecord
  2
_D_2
340
0
  0
BLOCK_RECORD
  5
1B8
330
1
100
AcDbSymbolTableRecord
100
AcDbBlockTableRecord
  2
_D_3
340
0
  0
BLOCK_RECORD
  5
244
330
1
100
AcDbSymbolTableRecord
100
AcDbBlockTableRecord
  2
SW_CENTERMARKSYMBOL_0
340
0
102
{BLKREFS
331
24F
102
}
  0
ENDTAB
  0
ENDSEC
  0
SECTION
  2
BLOCKS
  0
BLOCK
  5
20
330
1F
100
AcDbEntity
  8
0
100
AcDbBlockBegin
  2
*Model_Space
 70
     0
 10
0.0
 20
0.0
 30
0.0
  3
*Model_Space
  1

  0
ENDBLK
  5
21
330
1F
100
AcDbEntity
  8
0
100
AcDbBlockEnd
  0
BLOCK
  5
1C
330
1B
100
AcDbEntity
 67
     1
  8
0
100
AcDbBlockBegin
  2
*Paper_Space
 70
     0
 10
0.0
 20
0.0
 30
0.0
  3
*Paper_Space
  1

  0
ENDBLK
  5
1D
330
1B
100
AcDbEntity
 67
     1
  8
0
100
AcDbBlockEnd
  0
BLOCK
  5
24
330
23
100
AcDbEntity
  8
0
100
AcDbBlockBegin
  2
*Paper_Space0
 70
     0
 10
0.0
 20
0.0
 30
0.0
  3
*Paper_Space0
  1

  0
ENDBLK
  5
25
330
23
100
AcDbEntity
  8
0
100
AcDbBlockEnd
  0
BLOCK
  5
199
330
198
100
AcDbEntity
  8
0
100
AcDbBlockBegin
  2
_D
 70
     0
 10
0.0
 20
0.0
 30
0.0
  3
_D
  1

  0
SOLID
  5
19B
330
198
100
AcDbEntity
  8
VERMASSUNG
100
AcDbTrace
 10
171.0598721647
 20
147.9088216113
 30
0.0
 11
174.0598721647
 21
147.4588216113
 31
0.0
 12
174.0598721647
 22
148.3588216113
 32
0.0
 13
174.0598721647
 23
148.3588216113
 33
0.0
  0
SOLID
  5
19C
330
198
100
AcDbEntity
  8
VERMASSUNG
100
AcDbTrace
 10
236.0598721647
 20
147.9088216113
 30
0.0
 11
233.0598721647
 21
148.3588216113
 31
0.0
 12
233.0598721647
 22
147.4588216113
 32
0.0
 13
233.0598721647
 23
147.4588216113
 33
0.0
  0
LINE
  5
19D
330
198
100
AcDbEntity
  8
VERMASSUNG
100
AcDbLine
 10
171.0598721647
 20
135.6088216113
 30
0.0
 11
171.0598721647
 21
148.9088216113
 31
0.0
  0
LINE
  5
19E
330
198
100
AcDbEntity
  8
VERMASSUNG
100
AcDbLine
 10
236.0598721647
 20
136.9088216113
 30
0.0
 11
236.0598721647
 21
148.9088216113
 31
0.0
  0
LINE
  5
19F
330
198
100
AcDbEntity
  8
VERMASSUNG
100
AcDbLine
 10
171.0598721647
 20
147.9088216113
 30
0.0
 11
236.0598721647
 21
147.9088216113
 31
0.0
  0
MTEXT
  5
1A0
330
198
100
AcDbEntity
  8
VERMASSUNG
100
AcDbMText
 10
203.414509427
 20
150.4869569744
 30
0.1
 40
2.0
 41
0.0
 71
     1
 72
     1
  1
65
  7
SLDTEXTSTYLE0
 73
     1
 44
1.0
  0
ENDBLK
  5
19A
330
198
100
AcDbEntity
  8
0
100
AcDbBlockEnd
  0
BLOCK
  5
1A3
330
1A2
100
AcDbEntity
  8
0
100
AcDbBlockBegin
  2
_D_1
 70
     0
 10
0.0
 20
0.0
 30
0.0
  3
_D_1
  1

  0
SOLID
  5
1A5
330
1A2
100
AcDbEntity
  8
VERMASSUNG
100
AcDbTrace
 10
147.0598721647
 20
153.9088216113
 30
0.0
 11
150.0598721647
 21
153.4588216113
 31
0.0
 12
150.0598721647
 22
154.3588216113
 32
0.0
 13
150.0598721647
 23
154.3588216113
 33
0.0
  0
SOLID
  5
1A6
330
1A2
100
AcDbEntity
  8
VERMASSUNG
100
AcDbTrace
 10
236.0598721647
 20
153.9088216113
 30
0.0
 11
233.0598721647
 21
154.3588216113
 31
0.0
 12
233.0598721647
 22
153.4588216113
 32
0.0
 13
233.0598721647
 23
153.4588216113
 33
0.0
  0
LINE
  5
1A7
330
1A2
100
AcDbEntity
  8
VERMASSUNG
100
AcDbLine
 10
147.0598721647
 20
128.5274486772
 30
0.0
 11
147.0598721647
 21
154.9088216113
 31
0.0
  0
LINE
  5
1A8
330
1A2
100
AcDbEntity
  8
VERMASSUNG
100
AcDbLine
 10
236.0598721647
 20
136.9088216113
 30
0.0
 11
236.0598721647
 21
154.9088216113
 31
0.0
  0
LINE
  5
1A9
330
1A2
100
AcDbEntity
  8
VERMASSUNG
100
AcDbLine
 10
147.0598721647
 20
153.9088216113
 30
0.0
 11
236.0598721647
 21
153.9088216113
 31
0.0
  0
MTEXT
  5
1AA
330
1A2
100
AcDbEntity
  8
VERMASSUNG
100
AcDbMText
 10
189.2084936893
 20
156.4869569744
 30
0.1
 40
2.0
 41
0.0
 71
     1
 72
     1
  1
89
  7
SLDTEXTSTYLE0
 73
     1
 44
1.0
  0
ENDBLK
  5
1A4
330
1A2
100
AcDbEntity
  8
0
100
AcDbBlockEnd
  0
BLOCK
  5
1AD
330
1AC
100
AcDbEntity
  8
0
100
AcDbBlockBegin
  2
_D_2
 70
     0
 10
0.0
 20
0.0
 30
0.0
  3
_D_2
  1

  0
SOLID
  5
1AF
330
1AC
100
AcDbEntity
  8
VERMASSUNG
100
AcDbTrace
 10
138.8087579389
 20
135.9088216113
 30
0.0
 11
138.3587579389
 21
132.9088216113
 31
0.0
 12
139.2587579389
 22
132.9088216113
 32
0.0
 13
139.2587579389
 23
132.9088216113
 33
0.0
  0
SOLID
  5
1B0
330
1AC
100
AcDbEntity
  8
VERMASSUNG
100
AcDbTrace
 10
138.8087579389
 20
95.9088216113
 30
0.0
 11
139.2587579389
 21
98.9088216113
 31
0.0
 12
138.3587579389
 22
98.9088216113
 32
0.0
 13
138.3587579389
 23
98.9088216113
 33
0.0
  0
LINE
  5
1B1
330
1AC
100
AcDbEntity
  8
VERMASSUNG
100
AcDbLine
 10
171.3598721647
 20
135.9088216113
 30
0.0
 11
137.8087579389
 21
135.9088216113
 31
0.0
  0
LINE
  5
1B2
330
1AC
100
AcDbEntity
  8
VERMASSUNG
100
AcDbLine
 10
171.3598721647
 20
95.9088216113
 30
0.0
 11
137.8087579389
 21
95.9088216113
 31
0.0
  0
LINE
  5
1B3
330
1AC
100
AcDbEntity
  8
VERMASSUNG
100
AcDbLine
 10
138.8087579389
 20
135.9088216113
 30
0.0
 11
138.8087579389
 21
95.9088216113
 31
0.0
  0
MTEXT
  5
1B4
330
1AC
100
AcDbEntity
  8
VERMASSUNG
100
AcDbMText
 10
136.0306224498
 20
109.6346382891
 30
0.1
 40
2.0
 41
0.0
 71
     1
 72
     1
  1
PSC
  7
SLDTEXTSTYLE0
 11
-7.044195017643634E-15
 21
1.0
 31
0.0
 73
     1
 44
1.0
  0
MTEXT
  5
1B5
330
1AC
100
AcDbEntity
  8
VERMASSUNG
100
AcDbMText
 10
136.2306224593
 20
114.2346383912
 30
0.1
 40
2.0
 41
0.0
 71
     1
 72
     1
  1
%%c
  7
SLDTEXTSTYLE0
 11
-7.044195017643634E-15
 21
1.0
 31
0.0
 73
     1
 44
1.0
  0
MTEXT
  5
1B6
330
1AC
100
AcDbEntity
  8
VERMASSUNG
100
AcDbMText
 10
136.0306224498
 20
117.8446388712
 30
0.1
 40
2.0
 41
0.0
 71
     1
 72
     1
  1
40
  7
SLDTEXTSTYLE0
 11
-7.044195017643634E-15
 21
1.0
 31
0.0
 73
     1
 44
1.0
  0
ENDBLK
  5
1AE
330
1AC
100
AcDbEntity
  8
0
100
AcDbBlockEnd
  0
BLOCK
  5
1B9
330
1B8
100
AcDbEntity
  8
0
100
AcDbBlockBegin
  2
_D_3
 70
     0
 10
0.0
 20
0.0
 30
0.0
  3
_D_3
  1

  0
SOLID
  5
1BB
330
1B8
100
AcDbEntity
  8
VERMASSUNG
100
AcDbTrace
 10
248.5479946028
 20
125.9088216113
 30
0.0
 11
248.0979946028
 21
122.9088216113
 31
0.0
 12
248.9979946028
 22
122.9088216113
 32
0.0
 13
248.9979946028
 23
122.9088216113
 33
0.0
  0
SOLID
  5
1BC
330
1B8
100
AcDbEntity
  8
VERMASSUNG
100
AcDbTrace
 10
248.5479946028
 20
105.9088216113
 30
0.0
 11
248.9979946028
 21
108.9088216113
 31
0.0
 12
248.0979946028
 22
108.9088216113
 32
0.0
 13
248.0979946028
 23
108.9088216113
 33
0.0
  0
LINE
  5
1BD
330
1B8
100
AcDbEntity
  8
VERMASSUNG
100
AcDbLine
 10
235.7598721647
 20
125.9088216113
 30
0.0
 11
249.5479946028
 21
125.9088216113
 31
0.0
  0
LINE
  5
1BE
330
1B8
100
AcDbEntity
  8
VERMASSUNG
100
AcDbLine
 10
235.7598721647
 20
105.9088216113
 30
0.0
 11
249.5479946028
 21
105.9088216113
 31
0.0
  0
LINE
  5
1BF
330
1B8
100
AcDbEntity
  8
VERMASSUNG
100
AcDbLine
 10
248.5479946028
 20
125.9088216113
 30
0.0
 11
248.5479946028
 21
105.9088216113
 31
0.0
  0
MTEXT
  5
1C0
330
1B8
100
AcDbEntity
  8
VERMASSUNG
100
AcDbMText
 10
245.9698591233
 20
112.2567625274
 30
0.1
 40
2.0
 41
0.0
 71
     1
 72
     1
  1
%%c
  7
SLDTEXTSTYLE0
 11
-7.044195017643634E-15
 21
1.0
 31
0.0
 73
     1
 44
1.0
  0
MTEXT
  5
1C1
330
1B8
100
AcDbEntity
  8
VERMASSUNG
100
AcDbMText
 10
245.7698591138
 20
115.8667625417
 30
0.1
 40
2.0
 41
0.0
 71
     1
 72
     1
  1
20
  7
SLDTEXTSTYLE0
 11
-7.044195017643634E-15
 21
1.0
 31
0.0
 73
     1
 44
1.0
  0
ENDBLK
  5
1BA
330
1B8
100
AcDbEntity
  8
0
100
AcDbBlockEnd
  0
BLOCK
  5
245
330
244
100
AcDbEntity
  8
0
100
AcDbBlockBegin
  2
SW_CENTERMARKSYMBOL_0
 70
     0
 10
0.0
 20
0.0
 30
0.0
  3
SW_CENTERMARKSYMBOL_0
  1

  0
LINE
  5
247
330
244
100
AcDbEntity
  8
VERMASSUNG
 62
     0
100
AcDbLine
 10
0.0
 20
0.0
 30
0.0
 11
0.0
 21
2.5
 31
0.0
  0
LINE
  5
248
330
244
100
AcDbEntity
  8
VERMASSUNG
 62
     0
100
AcDbLine
 10
0.0
 20
0.0
 30
0.0
 11
-2.5
 21
0.0
 31
0.0
  0
LINE
  5
249
330
244
100
AcDbEntity
  8
VERMASSUNG
 62
     0
100
AcDbLine
 10
0.0
 20
0.0
 30
0.0
 11
0.0
 21
-2.5
 31
0.0
  0
LINE
  5
24A
330
244
100
AcDbEntity
  8
VERMASSUNG
 62
     0
100
AcDbLine
 10
0.0
 20
0.0
 30
0.0
 11
2.5
 21
0.0
 31
0.0
  0
LINE
  5
24B
330
244
100
AcDbEntity
  8
VERMASSUNG
 62
     0
100
AcDbLine
 10
0.0
 20
5.0
 30
0.0
 11
0.0
 21
24.5
 31
0.0
  0
LINE
  5
24C
330
244
100
AcDbEntity
  8
VERMASSUNG
 62
     0
100
AcDbLine
 10
-5.0
 20
0.0
 30
0.0
 11
-24.5
 21
0.0
 31
0.0
  0
LINE
  5
24D
330
244
100
AcDbEntity
  8
VERMASSUNG
 62
     0
100
AcDbLine
 10
0.0
 20
-5.0
 30
0.0
 11
0.0
 21
-24.5
 31
0.0
  0
LINE
  5
24E
330
244
100
AcDbEntity
  8
VERMASSUNG
 62
     0
100
AcDbLine
 10
5.0
 20
0.0
 30
0.0
 11
24.5
 21
0.0
 31
0.0
  0
ENDBLK
  5
246
330
244
100
AcDbEntity
  8
0
100
AcDbBlockEnd
  0
ENDSEC
  0
SECTION
  2
ENTITIES
  0
MTEXT
  5
49
330
1F
100
AcDbEntity
  8
KOPF_DÜNN
100
AcDbMText
 10
13.8892156294
 20
23.8442973028
 30
0.0
 40
3.0
 41
0.0
 71
     1
 72
     1
  1
PS4.B20.K01.065
  7
SLDTEXTSTYLE0
 73
     1
 44
1.0
  0
MTEXT
  5
4A
330
1F
100
AcDbEntity
  8
VERMASSUNG
100
AcDbMText
 10
13.9329988022
 20
28.8834360957
 30
0.0
 40
3.0
 41
0.0
 71
     1
 72
     1
  1
Bohrstangenhalter_Boring bar holder
  7
SLDTEXTSTYLE0
 73
     1
 44
1.0
  0
MTEXT
  5
4B
330
1F
100
AcDbEntity
  8
VERMASSUNG
100
AcDbMText
 10
98.8601118557
 20
13.8365368179
 30
0.0
 40
2.0
 41
0.0
 71
     1
 72
     1
  1
Datum: 19.06.2012
  7
SLDTEXTSTYLE0
 73
     1
 44
1.0
  0
MTEXT
  5
4D
330
1F
100
AcDbEntity
  8
VERMASSUNG
100
AcDbMText
 10
13.933048693
 20
18.0482802738
 30
0.0
 40
2.0
 41
0.0
 71
     1
 72
     1
  1
PSC ø40 / ø20
  7
SLDTEXTSTYLE1
 73
     1
 44
1.0
  0
MTEXT
  5
4E
330
1F
100
AcDbEntity
  8
VERMASSUNG
100
AcDbMText
 10
13.9808475933
 20
13.9090973692
 30
0.0
 40
2.0
 41
0.0
 71
     1
 72
     1
  1
Gewicht: 647g
  7
SLDTEXTSTYLE0
 73
     1
 44
1.0
  0
LINE
  5
4F
330
1F
100
AcDbEntity
  8
0
  6
Continuous
 62
     7
370
    15
100
AcDbLine
 10
204.5497932246
 20
137.7252698018
 30
0.0
 11
204.2318721647
 21
137.9088216113
 31
0.0
  0
LINE
  5
50
330
1F
100
AcDbEntity
  8
0
  6
Continuous
 62
     7
370
    15
100
AcDbLine
 10
195.8878721647
 20
137.9088216113
 30
0.0
 11
195.5695352219
 21
137.7250296917
 31
0.0
  0
LINE
  5
51
330
1F
100
AcDbEntity
  8
0
  6
Continuous
 62
     7
370
    15
100
AcDbLine
 10
230.5497932246
 20
137.7252698018
 30
0.0
 11
230.2318721647
 21
137.9088216113
 31
0.0
  0
LINE
  5
52
330
1F
100
AcDbEntity
  8
0
  6
Continuous
 62
     7
370
    15
100
AcDbLine
 10
221.8878721647
 20
137.9088216113
 30
0.0
 11
221.5695352219
 21
137.7250296917
 31
0.0
  0
LINE
  5
53
330
1F
100
AcDbEntity
  8
0
  6
Continuous
 62
     7
370
    15
100
AcDbLine
 10
217.5509389623
 20
137.7246083098
 30
0.0
 11
217.2318721647
 21
137.9088216113
 31
0.0
  0
LINE
  5
54
330
1F
100
AcDbEntity
  8
0
  6
Continuous
 62
     7
370
    15
100
AcDbLine
 10
208.8878721647
 20
137.9088216113
 30
0.0
 11
208.569155362
 21
137.7248103794
 31
0.0
  0
LINE
  5
55
330
1F
100
AcDbEntity
  8
0
  6
Continuous
 62
     7
370
    15
100
AcDbLine
 10
221.5685176903
 20
94.093201003
 30
0.0
 11
221.8878721647
 21
93.9088216113
 31
0.0
  0
LINE
  5
56
330
1F
100
AcDbEntity
  8
0
  6
Continuous
 62
     7
370
    15
100
AcDbLine
 10
230.2318721647
 20
93.9088216113
 30
0.0
 11
230.551275741
 21
94.093229352
 31
0.0
  0
LINE
  5
57
330
1F
100
AcDbEntity
  8
0
  6
Continuous
 62
     7
370
    15
100
AcDbLine
 10
195.5697257139
 20
94.0925035502
 30
0.0
 11
195.8878721647
 21
93.9088216113
 31
0.0
  0
LINE
  5
58
330
1F
100
AcDbEntity
  8
0
  6
Continuous
 62
     7
370
    15
100
AcDbLine
 10
204.2318721647
 20
93.9088216113
 30
0.0
 11
204.5511914467
 21
94.0931806847
 31
0.0
  0
LINE
  5
59
330
1F
100
AcDbEntity
  8
0
  6
Continuous
 62
     7
370
    15
100
AcDbLine
 10
208.5697257139
 20
94.0925035502
 30
0.0
 11
208.8878721647
 21
93.9088216113
 31
0.0
  0
LINE
  5
5A
330
1F
100
AcDbEntity
  8
0
  6
Continuous
 62
     7
370
    15
100
AcDbLine
 10
217.2318721647
 20
93.9088216113
 30
0.0
 11
217.5511914467
 21
94.0931806847
 31
0.0
  0
ARC
  5
5B
330
1F
100
AcDbEntity
  8
0
  6
Continuous
 62
     7
370
    15
100
AcDbCircle
 10
193.3630975375
 20
136.9088216113
 30
0.0
 40
1.000000000000023
100
AcDbArc
 50
90.0
 51
165.0
  0
ARC
  5
5C
330
1F
100
AcDbEntity
  8
0
  6
Continuous
 62
     7
370
    15
100
AcDbCircle
 10
193.3630975375
 20
94.9088216113
 30
0.0
 40
1.000000000000023
100
AcDbArc
 50
195.0
 51
270.0
  0
LINE
  5
5D
330
1F
100
AcDbEntity
  8
0
  6
Continuous
 62
     7
370
    15
100
AcDbLine
 10
194.5709657903
 20
137.9088216113
 30
0.0
 11
193.3630975375
 21
137.9088216113
 31
0.0
  0
LINE
  5
5E
330
1F
100
AcDbEntity
  8
0
  6
Continuous
 62
     7
370
    15
100
AcDbLine
 10
207.5747120615
 20
137.9088216113
 30
0.0
 11
205.5514639895
 21
137.9088216113
 31
0.0
  0
LINE
  5
5F
330
1F
100
AcDbEntity
  8
0
  6
Continuous
 62
     7
370
    15
100
AcDbLine
 10
220.5709657903
 20
137.9088216113
 30
0.0
 11
218.5562285864
 21
137.9088216113
 31
0.0
  0
LINE
  5
60
330
1F
100
AcDbEntity
  8
0
  6
Continuous
 62
     7
370
    15
100
AcDbLine
 10
235.0598721647
 20
137.9088216113
 30
0.0
 11
231.5514639895
 21
137.9088216113
 31
0.0
  0
LINE
  5
61
330
1F
100
AcDbEntity
  8
0
  6
Continuous
 62
     7
370
    15
100
AcDbLine
 10
231.5562285864
 20
93.9088216113
 30
0.0
 11
235.0598721647
 21
93.9088216113
 31
0.0
  0
LINE
  5
62
330
1F
100
AcDbEntity
  8
0
  6
Continuous
 62
     7
370
    15
100
AcDbLine
 10
218.5515051222
 20
93.9088216113
 30
0.0
 11
220.5747120615
 21
93.9088216113
 31
0.0
  0
LINE
  5
63
330
1F
100
AcDbEntity
  8
0
  6
Continuous
 62
     7
370
    15
100
AcDbLine
 10
205.5515051222
 20
93.9088216113
 30
0.0
 11
207.5707322494
 21
93.9088216113
 31
0.0
  0
LINE
  5
64
330
1F
100
AcDbEntity
  8
0
  6
Continuous
 62
     7
370
    15
100
AcDbLine
 10
193.3630975375
 20
93.9088216113
 30
0.0
 11
194.5707322494
 21
93.9088216113
 31
0.0
  0
ARC
  5
65
330
1F
100
AcDbEntity
  8
0
  6
Continuous
 62
     7
370
    15
100
AcDbCircle
 10
235.0598721647
 20
136.9088216113
 30
0.0
 40
1.0
100
AcDbArc
 50
0.0
 51
90.0
  0
ARC
  5
66
330
1F
100
AcDbEntity
  8
0
  6
Continuous
 62
     7
370
    15
100
AcDbCircle
 10
235.0598721647
 20
94.9088216113
 30
0.0
 40
1.0
100
AcDbArc
 50
270.0
 51
0.0
  0
LINE
  5
67
330
1F
100
AcDbEntity
  8
0
  6
Continuous
 62
     7
370
    15
100
AcDbLine
 10
192.3971717112
 20
137.1676406564
 30
0.0
 11
192.258471003
 21
136.6500025662
 31
0.0
  0
LINE
  5
68
330
1F
100
AcDbEntity
  8
0
  6
Continuous
 62
     7
370
    15
100
AcDbLine
 10
192.258471003
 20
95.1676406564
 30
0.0
 11
192.3971717112
 21
94.6500025662
 31
0.0
  0
ARC
  5
69
330
1F
100
AcDbEntity
  8
0
  6
Continuous
 62
     7
370
    15
100
AcDbCircle
 10
191.2925451767
 20
136.9088216113
 30
0.0
 40
1.0
100
AcDbArc
 50
270.0
 51
345.0
  0
ARC
  5
6A
330
1F
100
AcDbEntity
  8
0
  6
Continuous
 62
     7
370
    15
100
AcDbCircle
 10
191.2925451767
 20
94.9088216113
 30
0.0
 40
1.0
100
AcDbArc
 50
15.0
 51
90.0
  0
LINE
  5
6B
330
1F
100
AcDbEntity
  8
0
  6
Continuous
 62
     7
370
    15
100
AcDbLine
 10
185.0537419352
 20
95.9088216113
 30
0.0
 11
191.2925451767
 21
95.9088216113
 31
0.0
  0
LINE
  5
6C
330
1F
100
AcDbEntity
  8
0
  6
Continuous
 62
     7
370
    15
100
AcDbLine
 10
171.3598721647
 20
95.9088216113
 30
0.0
 11
181.0598721647
 21
95.9088216113
 31
0.0
  0
LINE
  5
6D
330
1F
100
AcDbEntity
  8
0
  6
Continuous
 62
     7
370
    15
100
AcDbLine
 10
191.2925451767
 20
135.9088216113
 30
0.0
 11
171.3598721647
 21
135.9088216113
 31
0.0
  0
ARC
  5
6E
330
1F
100
AcDbEntity
  8
0
  6
Continuous
 62
     7
370
    15
100
AcDbCircle
 10
171.3598721647
 20
96.2088216113
 30
0.0
 40
0.3000000000000114
100
AcDbArc
 50
180.0
 51
270.0
  0
ARC
  5
6F
330
1F
100
AcDbEntity
  8
0
  6
Continuous
 62
     7
370
    15
100
AcDbCircle
 10
171.3598721647
 20
135.6088216113
 30
0.0
 40
0.3000000000000114
100
AcDbArc
 50
90.0
 51
180.0
  0
LWPOLYLINE
  5
70
330
1F
100
AcDbEntity
  8
0
  6
Continuous
 62
     7
370
    15
100
AcDbPolyline
 90
        3
 70
   128
 43
0.0
 10
170.8598721647
 20
101.8190013324
 10
170.9853271082
 20
101.7506992174
 10
171.0598721647
 20
101.6979614593
  0
ARC
  5
71
330
1F
100
AcDbEntity
  8
0
  6
Continuous
 62
     7
370
    15
100
AcDbCircle
 10
170.4456586023
 20
130.9088216113
 30
0.0
 40
0.999999999999988
100
AcDbArc
 50
225.0
 51
307.8947985336
  0
ARC
  5
72
330
1F
100
AcDbEntity
  8
0
  6
Continuous
 62
     7
370
    15
100
AcDbCircle
 10
169.5598090756
 20
102.7836997156
 30
0.0
 40
0.2000000000000055
100
AcDbArc
 50
88.5608333333
 51
178.5608333333
  0
LINE
  5
73
330
1F
100
AcDbEntity
  8
0
  6
Continuous
 62
     7
370
    15
100
AcDbLine
 10
162.2526335115
 20
102.9672813999
 30
0.0
 11
169.3598721647
 21
102.7887228267
 31
0.0
  0
LINE
  5
74
330
1F
100
AcDbEntity
  8
0
  6
Continuous
 62
     7
370
    15
100
AcDbLine
 10
152.9660288906
 20
103.2005932319
 30
0.0
 11
156.993077584
 21
103.0994197518
 31
0.0
  0
LINE
  5
75
330
1F
100
AcDbEntity
  8
0
  6
Continuous
 62
     7
370
    15
100
AcDbLine
 10
169.5648321867
 20
102.9836366265
 30
0.0
 11
170.6648952758
 21
102.9559992127
 31
0.0
  0
ARC
  5
76
330
1F
100
AcDbEntity
  8
0
  6
Continuous
 62
     7
370
    15
100
AcDbCircle
 10
170.6598721647
 20
102.7560623018
 30
0.0
 40
0.2000000000000171
100
AcDbArc
 50
0.0
 51
88.5608333333
  0
LINE
  5
77
330
1F
100
AcDbEntity
  8
0
  6
Continuous
 62
     7
370
    15
100
AcDbLine
 10
169.1195071663
 20
130.8228815904
 30
0.0
 11
148.5598721647
 21
130.3063519971
 31
0.0
  0
LINE
  5
78
330
1F
100
AcDbEntity
  8
0
  6
Continuous
 62
     7
370
    15
100
AcDbLine
 10
148.5598721647
 20
130.3063519971
 30
0.0
 11
147.0598721647
 21
129.4403265933
 31
0.0
  0
LINE
  5
79
330
1F
100
AcDbEntity
  8
0
  6
Continuous
 62
     7
370
    15
100
AcDbLine
 10
169.7385518211
 20
130.2017148301
 30
0.0
 11
169.1210061346
 21
130.8192605166
 31
0.0
  0
LINE
  5
7A
330
1F
100
AcDbEntity
  8
0
  6
Continuous
 62
     7
370
    15
100
AcDbLine
 10
197.9408323783
 20
137.4307755884
 30
0.0
 11
202.1389938574
 21
137.4307755884
 31
0.0
  0
LINE
  5
7B
330
1F
100
AcDbEntity
  8
0
  6
Continuous
 62
     7
370
    15
100
AcDbLine
 10
195.8878721647
 20
137.9088216113
 30
0.0
 11
204.2318721647
 21
137.9088216113
 31
0.0
  0
LINE
  5
7C
330
1F
100
AcDbEntity
  8
0
  6
Continuous
 62
     7
370
    15
100
AcDbLine
 10
226.0598721647
 20
137.4307755884
 30
0.0
 11
228.1446888221
 21
137.4307755884
 31
0.0
  0
LINE
  5
7D
330
1F
100
AcDbEntity
  8
0
  6
Continuous
 62
     7
370
    15
100
AcDbLine
 10
223.9435657905
 20
137.4307755884
 30
0.0
 11
226.0598721647
 21
137.4307755884
 31
0.0
  0
LINE
  5
7E
330
1F
100
AcDbEntity
  8
0
  6
Continuous
 62
     7
370
    15
100
AcDbLine
 10
226.0598721647
 20
137.9088216113
 30
0.0
 11
230.2318721647
 21
137.9088216113
 31
0.0
  0
LINE
  5
7F
330
1F
100
AcDbEntity
  8
0
  6
Continuous
 62
     7
370
    15
100
AcDbLine
 10
221.8878721647
 20
137.9088216113
 30
0.0
 11
226.0598721647
 21
137.9088216113
 31
0.0
  0
LINE
  5
80
330
1F
100
AcDbEntity
  8
0
  6
Continuous
 62
     7
370
    15
100
AcDbLine
 10
213.0598721647
 20
137.4307755884
 30
0.0
 11
215.1775756078
 21
137.4307755884
 31
0.0
  0
LINE
  5
81
330
1F
100
AcDbEntity
  8
0
  6
Continuous
 62
     7
370
    15
100
AcDbLine
 10
210.9433531147
 20
137.4307755884
 30
0.0
 11
213.0598721647
 21
137.4307755884
 31
0.0
  0
LINE
  5
82
330
1F
100
AcDbEntity
  8
0
  6
Continuous
 62
     7
370
    15
100
AcDbLine
 10
213.0598721647
 20
137.9088216113
 30
0.0
 11
217.2318721647
 21
137.9088216113
 31
0.0
  0
LINE
  5
83
330
1F
100
AcDbEntity
  8
0
  6
Continuous
 62
     7
370
    15
100
AcDbLine
 10
208.8878721647
 20
137.9088216113
 30
0.0
 11
213.0598721647
 21
137.9088216113
 31
0.0
  0
LINE
  5
84
330
1F
100
AcDbEntity
  8
0
  6
Continuous
 62
     7
370
    15
100
AcDbLine
 10
228.1658122515
 20
94.3868676342
 30
0.0
 11
223.9471563531
 21
94.3868676342
 31
0.0
  0
LINE
  5
85
330
1F
100
AcDbEntity
  8
0
  6
Continuous
 62
     7
370
    15
100
AcDbLine
 10
230.2318721647
 20
93.9088216113
 30
0.0
 11
221.8878721647
 21
93.9088216113
 31
0.0
  0
LINE
  5
86
330
1F
100
AcDbEntity
  8
0
  6
Continuous
 62
     7
370
    15
100
AcDbLine
 10
202.1630559013
 20
94.3868676342
 30
0.0
 11
197.9513768791
 21
94.3868676342
 31
0.0
  0
LINE
  5
87
330
1F
100
AcDbEntity
  8
0
  6
Continuous
 62
     7
370
    15
100
AcDbLine
 10
203.7038616903
 20
93.9088216113
 30
0.0
 11
195.8878721647
 21
93.9088216113
 31
0.0
  0
LINE
  5
88
330
1F
100
AcDbEntity
  8
0
  6
Continuous
 62
     7
370
    15
100
AcDbLine
 10
204.2318721647
 20
93.9088216113
 30
0.0
 11
203.7038616903
 21
93.9088216113
 31
0.0
  0
LINE
  5
89
330
1F
100
AcDbEntity
  8
0
  6
Continuous
 62
     7
370
    15
100
AcDbLine
 10
215.1658122515
 20
94.3868676342
 30
0.0
 11
210.9471563531
 21
94.3868676342
 31
0.0
  0
LINE
  5
8A
330
1F
100
AcDbEntity
  8
0
  6
Continuous
 62
     7
370
    15
100
AcDbLine
 10
217.2318721647
 20
93.9088216113
 30
0.0
 11
208.8878721647
 21
93.9088216113
 31
0.0
  0
SPLINE
  5
8B
330
1F
100
AcDbEntity
  8
0
  6
Continuous
 62
     7
370
    15
100
AcDbSpline
210
0.0
220
0.0
230
1.0
 70
     8
 71
     3
 72
    15
 73
    11
 74
     0
 42
0.00000001
 43
0.00000001
 12
1.0
 22
0.0
 32
0.0
 13
1.0
 23
0.0
 33
0.0
 40
0.0
 40
0.0
 40
0.0
 40
0.0
 40
0.1815318555121583
 40
0.3660787839968134
 40
0.4677186253305449
 40
0.5711170865531177
 40
0.6754447657999271
 40
0.7817364712721581
 40
0.9645868407567733
 40
1.0
 40
1.0
 40
1.0
 40
1.0
 10
196.3592183795772
 20
94.21319327702957
 30
0.0
 10
196.1694526258165
 20
94.1858821840609
 30
0.0
 10
195.7867692880355
 20
94.13080638661812
 30
0.0
 10
195.3858466145309
 20
94.06300610244107
 30
0.0
 10
195.1042957128562
 20
94.012968450351
 30
0.0
 10
194.9158917993384
 20
93.97805699674647
 30
0.0
 10
194.7611205922746
 20
93.94848943660105
 30
0.0
 10
194.6250398197553
 20
93.92188341726035
 30
0.0
 10
194.5461636226343
 20
93.90608941349392
 30
0.0
 10
194.5673024794328
 20
93.91030300845297
 30
0.0
 10
194.5707322494287
 20
93.91098666233752
 30
0.0
  0
SPLINE
  5
8C
330
1F
100
AcDbEntity
  8
0
  6
Continuous
 62
     7
370
    15
100
AcDbSpline
210
0.0
220
0.0
230
1.0
 70
     8
 71
     3
 72
    30
 73
    26
 74
     0
 42
0.00000001
 43
0.00000001
 12
1.0
 22
0.0
 32
0.0
 13
1.0
 23
0.0
 33
0.0
 40
0.0
 40
0.0
 40
0.0
 40
0.0
 40
0.0083073826064387
 40
0.0680934497195998
 40
0.1291794993160703
 40
0.1890710455129905
 40
0.2500715245716812
 40
0.3150915239598131
 40
0.3812554020704754
 40
0.4172055758811951
 40
0.4536019352467967
 40
0.490220145127181
 40
0.5272888530533123
 40
0.5661143763859992
 40
0.6054631098782428
 40
0.6450759906709735
 40
0.6852304179203723
 40
0.7252190756798874
 40
0.7654842278202124
 40
0.8066262460737363
 40
0.8480741754627753
 40
0.8854270533323481
 40
0.9232723357822507
 40
0.9613713417510907
 40
1.0
 40
1.0
 40
1.0
 40
1.0
 10
205.5515051221907
 20
93.9104876468741
 30
0.0
 10
205.5542378142717
 20
93.90994362984975
 30
0.0
 10
205.5766369789218
 20
93.90548446411142
 30
0.0
 10
205.4919872027774
 20
93.9224263448268
 30
0.0
 10
205.303850726059
 20
93.95927175814221
 30
0.0
 10
204.9888173720248
 20
94.01828257853676
 30
0.0
 10
204.5693818658476
 20
94.09156466298755
 30
0.0
 10
204.0409112059059
 20
94.17522157944941
 30
0.0
 10
203.5110793071816
 20
94.24805243821561
 30
0.0
 10
203.0361608864832
 20
94.3043073086816
 30
0.0
 10
202.644875126379
 20
94.34520867586514
 30
0.0
 10
202.2342738663206
 20
94.38205094288617
 30
0.0
 10
201.8014883406194
 20
94.41413973323932
 30
0.0
 10
201.3471738576571
 20
94.44027779047445
 30
0.0
 10
200.8743398830273
 20
94.45916035560445
 30
0.0
 10
200.3907099647176
 20
94.46971135496392
 30
0.0
 10
199.902215870118
 20
94.47133332416391
 30
0.0
 10
199.4121493031741
 20
94.46383865023246
 30
0.0
 10
198.9225430941371
 20
94.44729133026985
 30
0.0
 10
198.4351292925801
 20
94.42181760622454
 30
0.0
 10
197.9708463012733
 20
94.3890743398379
 30
0.0
 10
197.5332775635863
 20
94.35090028252849
 30
0.0
 10
197.1245530717711
 20
94.30889761032108
 30
0.0
 10
196.7284941135757
 20
94.26265257004042
 30
0.0
 10
196.4828754514601
 20
94.22975545485346
 30
0.0
 10
196.3592183656469
 20
94.21319335260667
 30
0.0
  0
SPLINE
  5
8D
330
1F
100
AcDbEntity
  8
0
  6
Continuous
 62
     7
370
    15
100
AcDbSpline
210
0.0
220
0.0
230
1.0
 70
     8
 71
     3
 72
    26
 73
    22
 74
     0
 42
0.00000001
 43
0.00000001
 12
1.0
 22
0.0
 32
0.0
 13
1.0
 23
0.0
 33
0.0
 40
0.0
 40
0.0
 40
0.0
 40
0.0
 40
0.0389802004938336
 40
0.0828142032209267
 40
0.1278413071787374
 40
0.1733082037070449
 40
0.2198683367029825
 40
0.2699937609534999
 40
0.3213113881260624
 40
0.3767371122350892
 40
0.4335872838050172
 40
0.4924227913067264
 40
0.5529066648252591
 40
0.6127095870909509
 40
0.6742848074488342
 40
0.7332982240360688
 40
0.7942425076809584
 40
0.8494963593052383
 40
0.9067878609933034
 40
0.9556213147123261
 40
1.0
 40
1.0
 40
1.0
 40
1.0
 10
194.5709657903294
 20
137.9066099788687
 30
0.0
 10
194.5754528694443
 20
137.9057029090557
 30
0.0
 10
194.584985757346
 20
137.9037758213835
 30
0.0
 10
194.7535347427884
 20
137.8704403658802
 30
0.0
 10
195.0292580548136
 20
137.8180363297341
 30
0.0
 10
195.4193124589317
 20
137.7483259742226
 30
0.0
 10
195.9185258865022
 20
137.6667685043031
 30
0.0
 10
196.5266597129902
 20
137.5792616104994
 30
0.0
 10
197.2497889414231
 20
137.4925699346879
 30
0.0
 10
198.0703554434727
 20
137.4174479468792
 30
0.0
 10
198.9786351964952
 20
137.3639566928839
 30
0.0
 10
199.9424648132446
 20
137.3414784503668
 30
0.0
 10
200.926005316086
 20
137.3554819629595
 30
0.0
 10
201.9000634961274
 20
137.4057214061918
 30
0.0
 10
202.8143576036118
 20
137.4856755320243
 30
0.0
 10
203.6534242949263
 20
137.5862571182384
 30
0.0
 10
204.3576864377578
 20
137.6906225393731
 30
0.0
 10
204.9249778976592
 20
137.7873549512591
 30
0.0
 10
205.3047809444458
 20
137.8584106457511
 30
0.0
 10
205.5257058406065
 20
137.901950367545
 30
0.0
 10
205.543155929802
 20
137.9054711860709
 30
0.0
 10
205.5514639895129
 20
137.9071474623475
 30
0.0
  0
SPLINE
  5
8E
330
1F
100
AcDbEntity
  8
0
  6
Continuous
 62
     7
370
    15
100
AcDbSpline
210
0.0
220
0.0
230
1.0
 70
     8
 71
     3
 72
    15
 73
    11
 74
     0
 42
0.00000001
 43
0.00000001
 12
1.0
 22
0.0
 32
0.0
 13
1.0
 23
0.0
 33
0.0
 40
0.0
 40
0.0
 40
0.0
 40
0.0
 40
0.0903572883913695
 40
0.2733891971000617
 40
0.3662768446931082
 40
0.4679359617426416
 40
0.6754672753160583
 40
0.7817791387173065
 40
0.8725760405983075
 40
1.0
 40
1.0
 40
1.0
 40
1.0
 10
222.3592183795772
 20
94.21319327702957
 30
0.0
 10
222.2632874646211
 20
94.19968262988955
 30
0.0
 10
221.9730344448168
 20
94.15880419009046
 30
0.0
 10
221.6284303334801
 20
94.10383423018956
 30
0.0
 10
221.3192384917691
 20
94.0512502331313
 30
0.0
 10
221.0295469064482
 20
93.99962626651974
 30
0.0
 10
220.7981646710291
 20
93.95573004945271
 30
0.0
 10
220.6550624230617
 20
93.92775167979602
 30
0.0
 10
220.5740202382532
 20
93.9116624413824
 30
0.0
 10
220.57445701689
 20
93.91173884616884
 30
0.0
 10
220.5747120615404
 20
93.91178346060373
 30
0.0
  0
SPLINE
  5
8F
330
1F
100
AcDbEntity
  8
0
  6
Continuous
 62
     7
370
    15
100
AcDbSpline
210
0.0
220
0.0
230
1.0
 70
     8
 71
     3
 72
    30
 73
    26
 74
     0
 42
0.00000001
 43
0.00000001
 12
1.0
 22
0.0
 32
0.0
 13
1.0
 23
0.0
 33
0.0
 40
0.0
 40
0.0
 40
0.0
 40
0.0
 40
0.008290328316591
 40
0.037996699611477
 40
0.0984318696065204
 40
0.1292225379597855
 40
0.1590068941413074
 40
0.2194590755648533
 40
0.2501667127127582
 40
0.2825100794272665
 40
0.3481087655212881
 40
0.3814050277043639
 40
0.41735724156263
 40
0.4903208042764881
 40
0.5273916157230936
 40
0.5662193422694287
 40
0.6451195447924645
 40
0.6852762506661955
 40
0.7252671776432004
 40
0.76553461469111
 40
0.8066789676113267
 40
0.8481292490264531
 40
0.8854842465421568
 40
0.9613691497088516
 40
1.0
 40
1.0
 40
1.0
 40
1.0
 10
231.5562285863946
 20
93.9095497843722
 30
0.0
 10
231.5573419449535
 20
93.90932732362886
 30
0.0
 10
231.5624447525994
 20
93.90830772902207
 30
0.0
 10
231.5287023428864
 20
93.91505256041357
 30
0.0
 10
231.4397347744516
 20
93.9327408639361
 30
0.0
 10
231.2872568473713
 20
93.96219078655494
 30
0.0
 10
231.0986014165214
 20
93.99778891247067
 30
0.0
 10
230.8570292905612
 20
94.0416254890942
 30
0.0
 10
230.5636338810418
 20
94.09155633388905
 30
0.0
 10
230.2266355481324
 20
94.14614310843852
 30
0.0
 10
229.8367815648445
 20
94.20397780109238
 30
0.0
 10
229.3984185241776
 20
94.26139290428118
 30
0.0
 10
228.910865459058
 20
94.31915926145403
 30
0.0
 10
228.3739605118396
 20
94.37170494763721
 30
0.0
 10
227.8014852249159
 20
94.41413489611847
 30
0.0
 10
227.1914066638296
 20
94.44925715966052
 30
0.0
 10
226.5507957114729
 20
94.46919638775539
 30
0.0
 10
225.9022440894044
 20
94.47133009139802
 30
0.0
 10
225.4121440254083
 20
94.46383951475487
 30
0.0
 10
224.9225357307481
 20
94.4472911159032
 30
0.0
 10
224.4351651484708
 20
94.4218175743008
 30
0.0
 10
223.9707151405264
 20
94.38907467551977
 30
0.0
 10
223.3912220755365
 20
94.33845103506698
 30
0.0
 10
222.8497759113631
 20
94.27882482259392
 30
0.0
 10
222.4829602877259
 20
94.22974872784451
 30
0.0
 10
222.359218365647
 20
94.21319335260667
 30
0.0
  0
SPLINE
  5
90
330
1F
100
AcDbEntity
  8
0
  6
Continuous
 62
     7
370
    15
100
AcDbSpline
210
0.0
220
0.0
230
1.0
 70
     8
 71
     3
 72
    26
 73
    22
 74
     0
 42
0.00000001
 43
0.00000001
 12
1.0
 22
0.0
 32
0.0
 13
1.0
 23
0.0
 33
0.0
 40
0.0
 40
0.0
 40
0.0
 40
0.0
 40
0.0389802004938336
 40
0.0828142032209267
 40
0.1278413071787375
 40
0.1733082037070451
 40
0.2198683367029826
 40
0.2699937609535005
 40
0.3213113881260631
 40
0.3767371122350896
 40
0.4335872838050173
 40
0.4924227913067269
 40
0.5529066648252593
 40
0.6127095870909509
 40
0.6742848074488342
 40
0.733298224036069
 40
0.7942425076809584
 40
0.8494963593052379
 40
0.906787860993303
 40
0.9556213147123257
 40
1.0
 40
1.0
 40
1.0
 40
1.0
 10
220.5709657903294
 20
137.9066099788687
 30
0.0
 10
220.5754528694443
 20
137.9057029090557
 30
0.0
 10
220.584985757346
 20
137.9037758213835
 30
0.0
 10
220.7535347427884
 20
137.8704403658802
 30
0.0
 10
221.0292580548136
 20
137.8180363297341
 30
0.0
 10
221.4193124589318
 20
137.7483259742226
 30
0.0
 10
221.9185258865022
 20
137.6667685043031
 30
0.0
 10
222.5266597129902
 20
137.5792616104994
 30
0.0
 10
223.2497889414232
 20
137.4925699346879
 30
0.0
 10
224.0703554434727
 20
137.4174479468793
 30
0.0
 10
224.9786351964952
 20
137.3639566928839
 30
0.0
 10
225.9424648132446
 20
137.3414784503668
 30
0.0
 10
226.926005316086
 20
137.3554819629595
 30
0.0
 10
227.9000634961274
 20
137.4057214061918
 30
0.0
 10
228.8143576036118
 20
137.4856755320243
 30
0.0
 10
229.6534242949263
 20
137.5862571182384
 30
0.0
 10
230.3576864377578
 20
137.690622539373
 30
0.0
 10
230.9249778976592
 20
137.7873549512591
 30
0.0
 10
231.3047809444458
 20
137.8584106457511
 30
0.0
 10
231.5257058406066
 20
137.9019503675451
 30
0.0
 10
231.543155929802
 20
137.9054711860709
 30
0.0
 10
231.5514639895128
 20
137.9071474623475
 30
0.0
  0
SPLINE
  5
91
330
1F
100
AcDbEntity
  8
0
  6
Continuous
 62
     7
370
    15
100
AcDbSpline
210
0.0
220
0.0
230
1.0
 70
     8
 71
     3
 72
    15
 73
    11
 74
     0
 42
0.00000001
 43
0.00000001
 12
1.0
 22
0.0
 32
0.0
 13
1.0
 23
0.0
 33
0.0
 40
0.0
 40
0.0
 40
0.0
 40
0.0
 40
0.1815318555121585
 40
0.3660787839968143
 40
0.4677186253305456
 40
0.5711170865531175
 40
0.6754447657999262
 40
0.7817364712721574
 40
0.9645868407567727
 40
1.0
 40
1.0
 40
1.0
 40
1.0
 10
209.3592183795772
 20
94.21319327702957
 30
0.0
 10
209.1694526258165
 20
94.18588218406089
 30
0.0
 10
208.7867692880355
 20
94.1308063866181
 30
0.0
 10
208.3858466145309
 20
94.06300610244108
 30
0.0
 10
208.1042957128562
 20
94.01296845035098
 30
0.0
 10
207.9158917993384
 20
93.97805699674647
 30
0.0
 10
207.7611205922746
 20
93.94848943660104
 30
0.0
 10
207.6250398197553
 20
93.92188341726035
 30
0.0
 10
207.5461636226343
 20
93.90608941349393
 30
0.0
 10
207.5673024794328
 20
93.91030300845296
 30
0.0
 10
207.5707322494287
 20
93.91098666233752
 30
0.0
  0
SPLINE
  5
92
330
1F
100
AcDbEntity
  8
0
  6
Continuous
 62
     7
370
    15
100
AcDbSpline
210
0.0
220
0.0
230
1.0
 70
     8
 71
     3
 72
    30
 73
    26
 74
     0
 42
0.00000001
 43
0.00000001
 12
1.0
 22
0.0
 32
0.0
 13
1.0
 23
0.0
 33
0.0
 40
0.0
 40
0.0
 40
0.0
 40
0.0
 40
0.0083073826064381
 40
0.0680934497195993
 40
0.1291794993160699
 40
0.1890710455129901
 40
0.2500715245716811
 40
0.3150915239598129
 40
0.381255402070476
 40
0.4172055758811956
 40
0.4536019352467965
 40
0.4902201451271803
 40
0.5272888530533117
 40
0.566114376385998
 40
0.6054631098782425
 40
0.6450759906709735
 40
0.6852304179203723
 40
0.7252190756798881
 40
0.7654842278202122
 40
0.806626246073736
 40
0.8480741754627747
 40
0.8854270533323465
 40
0.9232723357822492
 40
0.9613713417510895
 40
1.0
 40
1.0
 40
1.0
 40
1.0
 10
218.5515051221907
 20
93.9104876468741
 30
0.0
 10
218.5542378142717
 20
93.90994362984975
 30
0.0
 10
218.5766369789218
 20
93.90548446411141
 30
0.0
 10
218.4919872027774
 20
93.9224263448268
 30
0.0
 10
218.303850726059
 20
93.9592717581422
 30
0.0
 10
217.9888173720248
 20
94.01828257853678
 30
0.0
 10
217.5693818658476
 20
94.09156466298755
 30
0.0
 10
217.0409112059058
 20
94.17522157944941
 30
0.0
 10
216.5110793071815
 20
94.24805243821562
 30
0.0
 10
216.0361608864833
 20
94.30430730868159
 30
0.0
 10
215.644875126379
 20
94.34520867586515
 30
0.0
 10
215.2342738663206
 20
94.38205094288615
 30
0.0
 10
214.8014883406194
 20
94.41413973323934
 30
0.0
 10
214.3471738576571
 20
94.44027779047444
 30
0.0
 10
213.8743398830273
 20
94.45916035560447
 30
0.0
 10
213.3907099647176
 20
94.46971135496392
 30
0.0
 10
212.902215870118
 20
94.47133332416391
 30
0.0
 10
212.412149303174
 20
94.46383865023247
 30
0.0
 10
211.9225430941371
 20
94.44729133026985
 30
0.0
 10
211.4351292925801
 20
94.42181760622452
 30
0.0
 10
210.9708463012733
 20
94.3890743398379
 30
0.0
 10
210.5332775635863
 20
94.35090028252847
 30
0.0
 10
210.1245530717712
 20
94.30889761032108
 30
0.0
 10
209.7284941135757
 20
94.26265257004043
 30
0.0
 10
209.4828754514601
 20
94.22975545485347
 30
0.0
 10
209.3592183656469
 20
94.21319335260667
 30
0.0
  0
SPLINE
  5
93
330
1F
100
AcDbEntity
  8
0
  6
Continuous
 62
     7
370
    15
100
AcDbSpline
210
0.0
220
0.0
230
1.0
 70
     8
 71
     3
 72
    37
 73
    33
 74
     0
 42
0.00000001
 43
0.00000001
 12
1.0
 22
0.0
 32
0.0
 13
1.0
 23
0.0
 33
0.0
 40
0.0
 40
0.0
 40
0.0
 40
0.0
 40
0.0147847343363279
 40
0.0390279651420633
 40
0.0608769847665154
 40
0.1052812803914191
 40
0.1278741031293525
 40
0.1505426025569134
 40
0.1965320663623652
 40
0.2198812959847966
 40
0.2448734688067876
 40
0.2955669683227557
 40
0.3213023718116063
 40
0.3489339454208361
 40
0.4050359923967623
 40
0.4335575462939724
 40
0.4628842403480312
 40
0.5225012351257697
 40
0.5528593120666864
 40
0.5826651497698576
 40
0.612679842637577
 40
0.6433615449982192
 40
0.6742783235208208
 40
0.7036855704399453
 40
0.7636064579910634
 40
0.7942286833743987
 40
0.8217547653619651
 40
0.8779642832543765
 40
0.9067745415634948
 40
0.9311026314960885
 40
0.9807536835739901
 40
1.0
 40
1.0
 40
1.0
 40
1.0
 10
207.5747120615404
 20
137.9058597619331
 30
0.0
 10
207.5700770561081
 20
137.9067842540643
 30
0.0
 10
207.5578418122188
 20
137.909224679834
 30
0.0
 10
207.6015066987987
 20
137.9005047362219
 30
0.0
 10
207.6897030768369
 20
137.8830683371178
 30
0.0
 10
207.8391713706701
 20
137.8540076675275
 30
0.0
 10
208.0419605984218
 20
137.8161607136651
 30
0.0
 10
208.2834577955147
 20
137.77246656841
 30
0.0
 10
208.5772404191882
 20
137.7220895493824
 30
0.0
 10
208.9220479910448
 20
137.6675694104522
 30
0.0
 10
209.3134747559013
 20
137.6094723390954
 30
0.0
 10
209.7576020021522
 20
137.5507066641447
 30
0.0
 10
210.2472801634204
 20
137.4955676246835
 30
0.0
 10
210.7845809612087
 20
137.4426181697046
 30
0.0
 10
211.3666458644246
 20
137.3986389293421
 30
0.0
 10
211.9758125982299
 20
137.3682454617417
 30
0.0
 10
212.6132907605751
 20
137.3476564219156
 30
0.0
 10
213.2703653569655
 20
137.344617030983
 30
0.0
 10
213.9236303622001
 20
137.3599856021319
 30
0.0
 10
214.409566340364
 20
137.3804025259852
 30
0.0
 10
214.8877611873246
 20
137.4091357459033
 30
0.0
 10
215.3586098595297
 20
137.4457996704325
 30
0.0
 10
215.8094008254399
 20
137.4887200127084
 30
0.0
 10
216.3779513312111
 20
137.5519877975206
 30
0.0
 10
216.8998004338374
 20
137.6221896143872
 30
0.0
 10
217.3508571523882
 20
137.6913024354212
 30
0.0
 10
217.7445703983508
 20
137.7559729278155
 30
0.0
 10
218.0648123918028
 20
137.8134380715694
 30
0.0
 10
218.2956881318439
 20
137.8570377877417
 30
0.0
 10
218.4610268468585
 20
137.8890680092599
 30
0.0
 10
218.5520484224365
 20
137.907258826365
 30
0.0
 10
218.5553158408211
 20
137.9079111993258
 30
0.0
 10
218.5562285863946
 20
137.9080934381646
 30
0.0
  0
LINE
  5
94
330
1F
100
AcDbEntity
  8
0
  6
Continuous
 62
     7
370
    15
100
AcDbLine
 10
236.0598721647
 20
136.9088216113
 30
0.0
 11
236.0598721647
 21
94.9088216167
 31
0.0
  0
SPLINE
  5
95
330
1F
100
AcDbEntity
  8
0
  6
Continuous
 62
     7
370
    15
100
AcDbSpline
210
0.0
220
0.0
230
1.0
 70
     8
 71
     3
 72
    27
 73
    23
 74
     0
 42
0.00000001
 43
0.00000001
 12
1.0
 22
0.0
 32
0.0
 13
1.0
 23
0.0
 33
0.0
 40
0.0
 40
0.0
 40
0.0
 40
0.0
 40
0.0177267311011023
 40
0.0720096709999427
 40
0.1246554866705102
 40
0.1788183678606919
 40
0.23164272466396
 40
0.28598796492694
 40
0.3389949923104796
 40
0.3935440693286075
 40
0.4464522645031001
 40
0.5009082032709754
 40
0.5535883916862755
 40
0.6077972556882756
 40
0.6604768016611189
 40
0.7146712850095693
 40
0.7675775260175416
 40
0.8220113920903428
 40
0.87501902983133
 40
0.9295738049890572
 40
0.9645690721954779
 40
1.0
 40
1.0
 40
1.0
 40
1.0
 10
185.0537419351519
 20
95.90943325463616
 30
0.0
 10
185.0554252953818
 20
95.90926532988085
 30
0.0
 10
185.0622634549746
 20
95.90858318457649
 30
0.0
 10
185.016445348596
 20
95.91316526381095
 30
0.0
 10
184.916486705564
 20
95.92277937743233
 30
0.0
 10
184.7616661406577
 20
95.936705836226
 30
0.0
 10
184.5582099721883
 20
95.95316015813685
 30
0.0
 10
184.3137003985184
 20
95.97019548909954
 30
0.0
 10
184.030969721459
 20
95.98612634397388
 30
0.0
 10
183.7229808639316
 20
95.99888641564262
 30
0.0
 10
183.3932923144824
 20
96.00721526801672
 30
0.0
 10
183.0577436363191
 20
96.0100321392107
 30
0.0
 10
182.7197087786791
 20
96.00709310099225
 30
0.0
 10
182.3948669995515
 20
95.99881057120932
 30
0.0
 10
182.0860263443384
 20
95.98598522193394
 30
0.0
 10
181.8069498918322
 20
95.97024635971418
 30
0.0
 10
181.5604815964299
 20
95.95308675024481
 30
0.0
 10
181.3580611254559
 20
95.93670156774093
 30
0.0
 10
181.2019196157569
 20
95.92266137688439
 30
0.0
 10
181.1119286798539
 20
95.91398894032886
 30
0.0
 10
181.0670179280648
 20
95.90953860257964
 30
0.0
 10
181.0622638887263
 20
95.90906159197742
 30
0.0
 10
181.0598721646731
 20
95.90882161126842
 30
0.0
  0
SPLINE
  5
96
330
1F
100
AcDbEntity
  8
0
  6
Continuous
 62
     7
370
    15
100
AcDbSpline
210
0.0
220
0.0
230
1.0
 70
     8
 71
     3
 72
    12
 73
     8
 74
     0
 42
0.00000001
 43
0.00000001
 12
1.0
 22
0.0
 32
0.0
 13
1.0
 23
0.0
 33
0.0
 40
0.0
 40
0.0
 40
0.0
 40
0.0
 40
0.2499999999999973
 40
0.2499999999999973
 40
0.4999999999999947
 40
0.4999999999999947
 40
1.0
 40
1.0
 40
1.0
 40
1.0
 10
177.9917741666723
 20
96.777165231035
 30
0.0
 10
177.9542622806277
 20
96.777165231035
 30
0.0
 10
177.9189749329229
 20
96.78166877529752
 30
0.0
 10
177.8600450846845
 20
96.79504197475083
 30
0.0
 10
177.8365193582154
 20
96.80352687732196
 30
0.0
 10
177.7762605704473
 20
96.83127468115654
 30
0.0
 10
177.750665808158
 20
96.85226454489691
 30
0.0
 10
177.731966545537
 20
96.87406532808644
 30
0.0
  0
LINE
  5
97
330
1F
100
AcDbEntity
  8
0
  6
Continuous
 62
     7
370
    15
100
AcDbLine
 10
180.1279701627
 20
96.777165231
 30
0.0
 11
177.9917741667
 21
96.777165231
 31
0.0
  0
SPLINE
  5
98
330
1F
100
AcDbEntity
  8
0
  6
Continuous
 62
     7
370
    15
100
AcDbSpline
210
0.0
220
0.0
230
1.0
 70
     8
 71
     3
 72
    12
 73
     8
 74
     0
 42
0.00000001
 43
0.00000001
 12
1.0
 22
0.0
 32
0.0
 13
1.0
 23
0.0
 33
0.0
 40
0.0
 40
0.0
 40
0.0
 40
0.0
 40
0.4999999999999938
 40
0.4999999999999938
 40
0.7499999999999969
 40
0.7499999999999969
 40
1.0
 40
1.0
 40
1.0
 40
1.0
 10
180.3877777838093
 20
96.87406532808644
 30
0.0
 10
180.3690845506788
 20
96.85227157445848
 30
0.0
 10
180.3434292532671
 20
96.83125141274884
 30
0.0
 10
180.2832686305806
 20
96.80354606678513
 30
0.0
 10
180.2591963188263
 20
96.79491085059175
 30
0.0
 10
180.2008147984757
 20
96.78169620536517
 30
0.0
 10
180.1653459708227
 20
96.777165231035
 30
0.0
 10
180.1279701626739
 20
96.777165231035
 30
0.0
  0
ELLIPSE
  5
99
330
1F
100
AcDbEntity
  8
0
  6
Continuous
 62
     7
370
    15
100
AcDbEllipse
 10
170.1109429922
 20
115.9088216113
 30
0.0
 11
-9.36741787978184
 21
19.74174915274992
 31
0.0
210
0.0
220
0.0
230
1.0
 40
0.3419987131
 41
3.292664382516886
 42
4.239566697060992
  0
SPLINE
  5
9A
330
1F
100
AcDbEntity
  8
0
  6
Continuous
 62
     7
370
    15
100
AcDbSpline
210
0.0
220
0.0
230
1.0
 70
     8
 71
     3
 72
    12
 73
     8
 74
     0
 42
0.00000001
 43
0.00000001
 12
1.0
 22
0.0
 32
0.0
 13
1.0
 23
0.0
 33
0.0
 40
0.0
 40
0.0
 40
0.0
 40
0.0
 40
0.2499999999999997
 40
0.2499999999999997
 40
0.4999999999999994
 40
0.4999999999999994
 40
1.0
 40
1.0
 40
1.0
 40
1.0
 10
180.1279701626739
 20
110.0796086156166
 30
0.0
 10
180.1654820487186
 20
110.0796086156166
 30
0.0
 10
180.2007693964233
 20
110.0648038013298
 30
0.0
 10
180.2596992446618
 20
110.0212119282039
 30
0.0
 10
180.2832249711308
 20
109.993698502118
 30
0.0
 10
180.3434837588989
 20
109.9045667700044
 30
0.0
 10
180.3690785211882
 20
109.8381809193865
 30
0.0
 10
180.3877777838093
 20
109.7705764842092
 30
0.0
  0
LINE
  5
9B
330
1F
100
AcDbEntity
  8
0
  6
Continuous
 62
     7
370
    15
100
AcDbLine
 10
177.9917741667
 20
110.0796086156
 30
0.0
 11
180.1279701627
 21
110.0796086156
 31
0.0
  0
SPLINE
  5
9C
330
1F
100
AcDbEntity
  8
0
  6
Continuous
 62
     7
370
    15
100
AcDbSpline
210
0.0
220
0.0
230
1.0
 70
     8
 71
     3
 72
    12
 73
     8
 74
     0
 42
0.00000001
 43
0.00000001
 12
1.0
 22
0.0
 32
0.0
 13
1.0
 23
0.0
 33
0.0
 40
0.0
 40
0.0
 40
0.0
 40
0.0
 40
0.5000000000000013
 40
0.5000000000000013
 40
0.7500000000000007
 40
0.7500000000000007
 40
1.0
 40
1.0
 40
1.0
 40
1.0
 10
177.731966545537
 20
109.7705764842092
 30
0.0
 10
177.7506597786674
 20
109.8381591206495
 30
0.0
 10
177.7763150760792
 20
109.904641690127
 30
0.0
 10
177.8364756987656
 20
109.9936367730245
 30
0.0
 10
177.86054801052
 20
110.0216386700236
 30
0.0
 10
177.9189295308705
 20
110.0647150706888
 30
0.0
 10
177.9543983585236
 20
110.0796086156166
 30
0.0
 10
177.9917741666723
 20
110.0796086156166
 30
0.0
  0
ELLIPSE
  5
9D
330
1F
100
AcDbEntity
  8
0
  6
Continuous
 62
     7
370
    15
100
AcDbEllipse
 10
188.0088013371
 20
115.9088216113
 30
0.0
 11
9.367417879781669
 21
19.74174915274995
 31
0.0
210
0.0
220
0.0
230
1.0
 40
0.3419987131
 41
2.043618610118601
 42
2.990520924662735
  0
SPLINE
  5
9E
330
1F
100
AcDbEntity
  8
0
  6
Continuous
 62
     7
370
    15
100
AcDbSpline
210
0.0
220
0.0
230
1.0
 70
     8
 71
     3
 72
    12
 73
     8
 74
     0
 42
0.00000001
 43
0.00000001
 12
1.0
 22
0.0
 32
0.0
 13
1.0
 23
0.0
 33
0.0
 40
0.0
 40
0.0
 40
0.0
 40
0.0
 40
0.2500000000000027
 40
0.2500000000000027
 40
0.5000000000000053
 40
0.5000000000000053
 40
1.0
 40
1.0
 40
1.0
 40
1.0
 10
177.9917741666723
 20
121.7380346069201
 30
0.0
 10
177.9542733437945
 20
121.7380346069201
 30
0.0
 10
177.9189949397586
 20
121.7528309446732
 30
0.0
 10
177.8600772197062
 20
121.7964012058323
 30
0.0
 10
177.8365538383078
 20
121.8239030043339
 30
0.0
 10
177.7762982538419
 20
121.9130021675769
 30
0.0
 10
177.7507766014308
 20
121.9790617463593
 30
0.0
 10
177.731966545537
 20
122.0470667383275
 30
0.0
  0
LINE
  5
9F
330
1F
100
AcDbEntity
  8
0
  6
Continuous
 62
     7
370
    15
100
AcDbLine
 10
180.1279701627
 20
121.7380346069
 30
0.0
 11
177.9917741667
 21
121.7380346069
 31
0.0
  0
SPLINE
  5
A0
330
1F
100
AcDbEntity
  8
0
  6
Continuous
 62
     7
370
    15
100
AcDbSpline
210
0.0
220
0.0
230
1.0
 70
     8
 71
     3
 72
    12
 73
     8
 74
     0
 42
0.00000001
 43
0.00000001
 12
1.0
 22
0.0
 32
0.0
 13
1.0
 23
0.0
 33
0.0
 40
0.0
 40
0.0
 40
0.0
 40
0.0
 40
0.4999999999999969
 40
0.4999999999999969
 40
0.7499999999999984
 40
0.7499999999999984
 40
1.0
 40
1.0
 40
1.0
 40
1.0
 10
180.3877777838093
 20
122.0470667383275
 30
0.0
 10
180.3689745509576
 20
121.9790864140651
 30
0.0
 10
180.3434378919384
 20
121.9129960262683
 30
0.0
 10
180.2832117179899
 20
121.8239314138212
 30
0.0
 10
180.25928564059
 20
121.7961303268012
 30
0.0
 10
180.2012247204087
 20
121.7531712535763
 30
0.0
 10
180.1654230217827
 20
121.7380346069201
 30
0.0
 10
180.1279701626739
 20
121.7380346069201
 30
0.0
  0
ELLIPSE
  5
A1
330
1F
100
AcDbEntity
  8
0
  6
Continuous
 62
     7
370
    15
100
AcDbEllipse
 10
170.1109429922
 20
115.9088216113
 30
0.0
 11
9.367417879781756
 21
19.74174915274992
 31
0.0
210
0.0
220
0.0
230
1.0
 40
0.3419987131
 41
5.185211263708402
 42
6.132113578252563
  0
SPLINE
  5
A2
330
1F
100
AcDbEntity
  8
0
  6
Continuous
 62
     7
370
    15
100
AcDbSpline
210
0.0
220
0.0
230
1.0
 70
     8
 71
     3
 72
    12
 73
     8
 74
     0
 42
0.00000001
 43
0.00000001
 12
1.0
 22
0.0
 32
0.0
 13
1.0
 23
0.0
 33
0.0
 40
0.0
 40
0.0
 40
0.0
 40
0.0
 40
0.2499999999999984
 40
0.2499999999999984
 40
0.4999999999999969
 40
0.4999999999999969
 40
1.0
 40
1.0
 40
1.0
 40
1.0
 10
180.1279701626739
 20
135.0404779915018
 30
0.0
 10
180.1654709855517
 20
135.0404779915018
 30
0.0
 10
180.2007493895877
 20
135.0359770236387
 30
0.0
 10
180.25966710964
 20
135.0226105024213
 30
0.0
 10
180.2831904910385
 20
135.0141292421765
 30
0.0
 10
180.3434460755044
 20
134.9863918464986
 30
0.0
 10
180.3689677279155
 20
134.9655078474455
 30
0.0
 10
180.3877777838093
 20
134.9435778944504
 30
0.0
  0
LINE
  5
A3
330
1F
100
AcDbEntity
  8
0
  6
Continuous
 62
     7
370
    15
100
AcDbLine
 10
177.9917741667
 20
135.0404779915
 30
0.0
 11
180.1279701627
 21
135.0404779915
 31
0.0
  0
SPLINE
  5
A4
330
1F
100
AcDbEntity
  8
0
  6
Continuous
 62
     7
370
    15
100
AcDbSpline
210
0.0
220
0.0
230
1.0
 70
     8
 71
     3
 72
    12
 73
     8
 74
     0
 42
0.00000001
 43
0.00000001
 12
1.0
 22
0.0
 32
0.0
 13
1.0
 23
0.0
 33
0.0
 40
0.0
 40
0.0
 40
0.0
 40
0.0
 40
0.5000000000000022
 40
0.5000000000000022
 40
0.7500000000000011
 40
0.7500000000000011
 40
1.0
 40
1.0
 40
1.0
 40
1.0
 10
177.731966545537
 20
134.9435778944504
 30
0.0
 10
177.7507697783887
 20
134.9654998927114
 30
0.0
 10
177.7763064374079
 20
134.9863937007214
 30
0.0
 10
177.8365326113563
 20
135.0141204268391
 30
0.0
 10
177.8604586887563
 20
135.0226935602146
 30
0.0
 10
177.9185196089376
 20
135.0358726660221
 30
0.0
 10
177.9543213075636
 20
135.0404779915018
 30
0.0
 10
177.9917741666723
 20
135.0404779915018
 30
0.0
  0
ELLIPSE
  5
A5
330
1F
100
AcDbEntity
  8
0
  6
Continuous
 62
     7
370
    15
100
AcDbEllipse
 10
188.0088013371
 20
115.9088216113
 30
0.0
 11
-9.367417879781641
 21
19.74174915274995
 31
0.0
210
0.0
220
0.0
230
1.0
 40
0.3419987131
 41
0.1510717289270633
 42
1.0979740434712
  0
LINE
  5
A6
330
1F
100
AcDbEntity
  8
0
  6
Continuous
 62
     7
370
    15
100
AcDbLine
 10
171.0598721647
 20
115.9088216113
 30
0.0
 11
171.0598721647
 21
135.6088216113
 31
0.0
  0
LINE
  5
A7
330
1F
100
AcDbEntity
  8
0
  6
Continuous
 62
     7
370
    15
100
AcDbLine
 10
171.0598721647
 20
96.2088216113
 30
0.0
 11
171.0598721647
 21
115.9088216113
 31
0.0
  0
LINE
  5
A8
330
1F
100
AcDbEntity
  8
0
  6
Continuous
 62
     7
370
    15
100
AcDbLine
 10
170.8598721647
 20
104.6561166742
 30
0.0
 11
170.8598721647
 21
101.8190013324
 31
0.0
  0
SPLINE
  5
A9
330
1F
100
AcDbEntity
  8
0
  6
Continuous
 62
     7
370
    15
100
AcDbSpline
210
0.0
220
0.0
230
1.0
 70
     8
 71
     3
 72
    16
 73
    12
 74
     0
 42
0.00000001
 43
0.00000001
 12
1.0
 22
0.0
 32
0.0
 13
1.0
 23
0.0
 33
0.0
 40
0.0
 40
0.0
 40
0.0
 40
0.0
 40
0.4999999999999982
 40
0.4999999999999982
 40
0.7499999999999998
 40
0.7499999999999998
 40
0.8750000000000007
 40
0.8750000000000007
 40
0.9375000000000003
 40
0.9375000000000003
 40
1.0
 40
1.0
 40
1.0
 40
1.0
 10
170.8598721646731
 20
104.6561166741772
 30
0.0
 10
170.8598721646731
 20
104.7329854403111
 30
0.0
 10
170.8559887395142
 20
104.812583065477
 30
0.0
 10
170.8311734142395
 20
104.9393286892283
 30
0.0
 10
170.820333966527
 20
104.9833775431315
 30
0.0
 10
170.7871181844782
 20
105.0505702708577
 30
0.0
 10
170.7737364408494
 20
105.073801477696
 30
0.0
 10
170.7382267909872
 20
105.1026636678558
 30
0.0
 10
170.7228098244864
 20
105.1106833151637
 30
0.0
 10
170.6911088023379
 20
105.1152473331248
 30
0.0
 10
170.676962517387
 20
105.1122685513739
 30
0.0
 10
170.6648952757974
 20
105.1074954644003
 30
0.0
  0
SPLINE
  5
AA
330
1F
100
AcDbEntity
  8
0
  6
Continuous
 62
     7
370
    15
100
AcDbSpline
210
0.0
220
0.0
230
1.0
 70
     8
 71
     3
 72
    18
 73
    14
 74
     0
 42
0.00000001
 43
0.00000001
 12
1.0
 22
0.0
 32
0.0
 13
1.0
 23
0.0
 33
0.0
 40
0.0
 40
0.0
 40
0.0
 40
0.0
 40
0.1250000000000004
 40
0.1250000000000004
 40
0.2500000000000007
 40
0.2500000000000007
 40
0.3750000000000011
 40
0.3750000000000011
 40
0.5000000000000014
 40
0.5000000000000014
 40
0.7500000000000007
 40
0.7500000000000007
 40
1.0
 40
1.0
 40
1.0
 40
1.0
 10
170.6648952758036
 20
105.1074954643962
 30
0.0
 10
170.6161897836614
 20
105.0882304527226
 30
0.0
 10
170.5576796753346
 20
105.0732012455259
 30
0.0
 10
170.4259505570425
 20
105.0702040185969
 30
0.0
 10
170.3611916207019
 20
105.0835849389834
 30
0.0
 10
170.2559806478423
 20
105.1216833615491
 30
0.0
 10
170.2127642724024
 20
105.1456764125866
 30
0.0
 10
170.1365857672904
 20
105.1960900197651
 30
0.0
 10
170.1037308059105
 20
105.2227183648203
 30
0.0
 10
170.0133625260768
 20
105.3052365416475
 30
0.0
 10
169.9639392917067
 20
105.3639407756371
 30
0.0
 10
169.8762908366585
 20
105.4844220711667
 30
0.0
 10
169.8382316644557
 20
105.5464654797452
 30
0.0
 10
169.8037878471101
 20
105.6100839707465
 30
0.0
  0
SPLINE
  5
AB
330
1F
100
AcDbEntity
  8
0
  6
Continuous
 62
     7
370
    15
100
AcDbSpline
210
0.0
220
0.0
230
1.0
 70
     8
 71
     3
 72
     8
 73
     4
 74
     0
 42
0.00000001
 43
0.00000001
 12
1.0
 22
0.0
 32
0.0
 13
1.0
 23
0.0
 33
0.0
 40
0.0
 40
0.0
 40
0.0
 40
0.0
 40
1.0
 40
1.0
 40
1.0
 40
1.0
 10
169.8037878471095
 20
105.6100839707454
 30
0.0
 10
169.7794741432195
 20
105.6549919185674
 30
0.0
 10
169.7579775012634
 20
105.7014443274842
 30
0.0
 10
169.7385518211134
 20
105.7494148424205
 30
0.0
  0
SPLINE
  5
AC
330
1F
100
AcDbEntity
  8
0
  6
Continuous
 62
     7
370
    15
100
AcDbSpline
210
0.0
220
0.0
230
1.0
 70
     8
 71
     3
 72
     8
 73
     4
 74
     0
 42
0.00000001
 43
0.00000001
 12
1.0
 22
0.0
 32
0.0
 13
1.0
 23
0.0
 33
0.0
 40
0.0
 40
0.0
 40
0.0
 40
0.0
 40
1.0
 40
1.0
 40
1.0
 40
1.0
 10
169.7385518211134
 20
112.2819218692073
 30
0.0
 10
169.7579772480068
 20
112.3718043139794
 30
0.0
 10
169.7794738019757
 20
112.4612167574421
 30
0.0
 10
169.8037878471101
 20
112.5499758844564
 30
0.0
  0
SPLINE
  5
AD
330
1F
100
AcDbEntity
  8
0
  6
Continuous
 62
     7
370
    15
100
AcDbSpline
210
0.0
220
0.0
230
1.0
 70
     8
 71
     3
 72
    18
 73
    14
 74
     0
 42
0.00000001
 43
0.00000001
 12
1.0
 22
0.0
 32
0.0
 13
1.0
 23
0.0
 33
0.0
 40
0.0
 40
0.0
 40
0.0
 40
0.0
 40
0.2499999999999996
 40
0.2499999999999996
 40
0.4999999999999991
 40
0.4999999999999991
 40
0.6249999999999993
 40
0.6249999999999993
 40
0.7499999999999996
 40
0.7499999999999996
 40
0.8749999999999998
 40
0.8749999999999998
 40
1.0
 40
1.0
 40
1.0
 40
1.0
 10
169.8037878471091
 20
112.5499758844569
 30
0.0
 10
169.8380846665609
 20
112.6751774186768
 30
0.0
 10
169.8758959465381
 20
112.7988732496073
 30
0.0
 10
169.9624683137181
 20
113.0415940807953
 30
0.0
 10
170.010807443801
 20
113.1607978146617
 30
0.0
 10
170.1000798011234
 20
113.3324793438338
 30
0.0
 10
170.1326212668993
 20
113.3885233896024
 30
0.0
 10
170.2087974667528
 20
113.4959049576894
 30
0.0
 10
170.2520135267473
 20
113.547291814556
 30
0.0
 10
170.3577028287133
 20
113.6283447617803
 30
0.0
 10
170.4226738874279
 20
113.6562349232326
 30
0.0
 10
170.5563342757857
 20
113.6444776201602
 30
0.0
 10
170.6156407291219
 20
113.6080240896691
 30
0.0
 10
170.6648952757978
 20
113.562882000836
 30
0.0
  0
SPLINE
  5
AE
330
1F
100
AcDbEntity
  8
0
  6
Continuous
 62
     7
370
    15
100
AcDbSpline
210
0.0
220
0.0
230
1.0
 70
     8
 71
     3
 72
    16
 73
    12
 74
     0
 42
0.00000001
 43
0.00000001
 12
1.0
 22
0.0
 32
0.0
 13
1.0
 23
0.0
 33
0.0
 40
0.0
 40
0.0
 40
0.0
 40
0.0
 40
0.0624999999999988
 40
0.0624999999999988
 40
0.1249999999999977
 40
0.1249999999999977
 40
0.2499999999999968
 40
0.2499999999999968
 40
0.4999999999999969
 40
0.4999999999999969
 40
1.0
 40
1.0
 40
1.0
 40
1.0
 10
170.6648952757671
 20
113.5628820007911
 30
0.0
 10
170.6769651090429
 20
113.5518199258552
 30
0.0
 10
170.6912407639762
 20
113.542580269214
 30
0.0
 10
170.7227051761006
 20
113.538032211352
 30
0.0
 10
170.738205700911
 20
113.5440859941819
 30
0.0
 10
170.7736445975179
 20
113.5731752985862
 30
0.0
 10
170.7872372136213
 20
113.6027446723055
 30
0.0
 10
170.8202315320141
 20
113.6897879163239
 30
0.0
 10
170.8310189253329
 20
113.7517365585254
 30
0.0
 10
170.856072172612
 20
113.9393431256382
 30
0.0
 10
170.8598721646732
 20
114.0653506486106
 30
0.0
 10
170.8598721646733
 20
114.1918267288213
 30
0.0
  0
LINE
  5
AF
330
1F
100
AcDbEntity
  8
0
  6
Continuous
 62
     7
370
    15
100
AcDbLine
 10
170.8598721647
 20
128.8785214308
 30
0.0
 11
170.8598721647
 21
114.1918267288
 31
0.0
  0
LINE
  5
B0
330
1F
100
AcDbEntity
  8
0
  6
Continuous
 62
     7
370
    15
100
AcDbLine
 10
170.8598721647
 20
128.8785214308
 30
0.0
 11
170.8506792504
 21
128.9171790422
 31
0.0
  0
SPLINE
  5
B1
330
1F
100
AcDbEntity
  8
0
  6
Continuous
 62
     7
370
    15
100
AcDbSpline
210
0.0
220
0.0
230
1.0
 70
     8
 71
     3
 72
    15
 73
    11
 74
     0
 42
0.00000001
 43
0.00000001
 12
1.0
 22
0.0
 32
0.0
 13
1.0
 23
0.0
 33
0.0
 40
0.0
 40
0.0
 40
0.0
 40
0.0
 40
0.2147370126353404
 40
0.4355790890788835
 40
0.6578889415014532
 40
0.7446394066141575
 40
0.802166615691212
 40
0.8600971796306942
 40
0.9113533498460388
 40
1.0
 40
1.0
 40
1.0
 40
1.0
 10
170.8255554568519
 20
129.022828438816
 30
0.0
 10
170.8246394568117
 20
129.0318559808857
 30
0.0
 10
170.8227814144639
 20
129.0501677218526
 30
0.0
 10
170.799624949416
 20
129.066909117823
 30
0.0
 10
170.7753279699965
 20
129.0784057762902
 30
0.0
 10
170.7464901450749
 20
129.0801168529594
 30
0.0
 10
170.7261522770186
 20
129.0780067077312
 30
0.0
 10
170.7072430143957
 20
129.0736019977584
 30
0.0
 10
170.6855165919953
 20
129.0661900618893
 30
0.0
 10
170.6728935905543
 20
129.0600058634061
 30
0.0
 10
170.6648952757978
 20
129.0560873685683
 30
0.0
  0
SPLINE
  5
B2
330
1F
100
AcDbEntity
  8
0
  6
Continuous
 62
     7
370
    15
100
AcDbSpline
210
0.0
220
0.0
230
1.0
 70
     8
 71
     3
 72
    18
 73
    14
 74
     0
 42
0.00000001
 43
0.00000001
 12
1.0
 22
0.0
 32
0.0
 13
1.0
 23
0.0
 33
0.0
 40
0.0
 40
0.0
 40
0.0
 40
0.0
 40
0.1249999999999997
 40
0.1249999999999997
 40
0.2499999999999993
 40
0.2499999999999993
 40
0.374999999999999
 40
0.374999999999999
 40
0.4999999999999987
 40
0.4999999999999987
 40
0.7499999999999993
 40
0.7499999999999993
 40
1.0
 40
1.0
 40
1.0
 40
1.0
 10
170.6648952758036
 20
129.0560873685642
 30
0.0
 10
170.6161906921156
 20
129.0307139764652
 30
0.0
 10
170.5576822093401
 20
129.0096222593048
 30
0.0
 10
170.4259553940702
 20
128.9996214637757
 30
0.0
 10
170.3611973225727
 20
129.0128082167397
 30
0.0
 10
170.255986720422
 20
129.053559118636
 30
0.0
 10
170.2127705719018
 20
129.0800718834917
 30
0.0
 10
170.136592255818
 20
129.1355509801655
 30
0.0
 10
170.1037374235267
 20
129.1647946737957
 30
0.0
 10
170.0133695175658
 20
129.2544850621973
 30
0.0
 10
169.9639468597262
 20
129.3170637440757
 30
0.0
 10
169.8762957341346
 20
129.4417923625565
 30
0.0
 10
169.838234186744
 20
129.5042807663444
 30
0.0
 10
169.8037878471101
 20
129.5664049786023
 30
0.0
  0
SPLINE
  5
B3
330
1F
100
AcDbEntity
  8
0
  6
Continuous
 62
     7
370
    15
100
AcDbSpline
210
0.0
220
0.0
230
1.0
 70
     8
 71
     3
 72
     8
 73
     4
 74
     0
 42
0.00000001
 43
0.00000001
 12
1.0
 22
0.0
 32
0.0
 13
1.0
 23
0.0
 33
0.0
 40
0.0
 40
0.0
 40
0.0
 40
0.0
 40
1.0
 40
1.0
 40
1.0
 40
1.0
 10
169.7385518211134
 20
129.6951281221774
 30
0.0
 10
169.7579780264123
 20
129.6532138874421
 30
0.0
 10
169.7794748508408
 20
129.6102536358738
 30
0.0
 10
169.8037878471101
 20
129.5664049786023
 30
0.0
  0
SPLINE
  5
B4
330
1F
100
AcDbEntity
  8
0
  6
Continuous
 62
     7
370
    15
100
AcDbSpline
210
0.0
220
0.0
230
1.0
 70
     8
 71
     3
 72
    24
 73
    20
 74
     0
 42
0.00000001
 43
0.00000001
 12
1.0
 22
0.0
 32
0.0
 13
1.0
 23
0.0
 33
0.0
 40
0.0
 40
0.0
 40
0.0
 40
0.0
 40
0.2499999999999937
 40
0.2499999999999937
 40
0.3749999999999888
 40
0.3749999999999888
 40
0.4374999999999863
 40
0.4374999999999863
 40
0.4999999999999839
 40
0.4999999999999839
 40
0.5312499999999851
 40
0.5312499999999851
 40
0.5624999999999863
 40
0.5624999999999863
 40
0.6249999999999873
 40
0.6249999999999873
 40
0.7499999999999893
 40
0.7499999999999893
 40
1.0
 40
1.0
 40
1.0
 40
1.0
 10
169.5648321867335
 20
106.2754001997212
 30
0.0
 10
169.5490633093761
 20
106.334465882309
 30
0.0
 10
169.5324493275261
 20
106.3934573910727
 30
0.0
 10
169.503917661521
 20
106.4795660847537
 30
0.0
 10
169.4938302467023
 20
106.5079424993077
 30
0.0
 10
169.476342686248
 20
106.5483406668196
 30
0.0
 10
169.4701331244647
 20
106.5614604635574
 30
0.0
 10
169.4558555708121
 20
106.5857534048015
 30
0.0
 10
169.4482840230167
 20
106.5978958009802
 30
0.0
 10
169.4308664393384
 20
106.6069151516734
 30
0.0
 10
169.4223839426934
 20
106.6077402326149
 30
0.0
 10
169.4063456308215
 20
106.5913478343166
 30
0.0
 10
169.401525082618
 20
106.5794538137106
 30
0.0
 10
169.3901158580701
 20
106.5473929561132
 30
0.0
 10
169.3860953776126
 20
106.5271005078817
 30
0.0
 10
169.3753415227922
 20
106.4666911694766
 30
0.0
 10
169.3714688415101
 20
106.4282710333596
 30
0.0
 10
169.3623006916725
 20
106.3148645524189
 30
0.0
 10
169.3602721863033
 20
106.2418670506456
 30
0.0
 10
169.3598721646731
 20
106.1709809482355
 30
0.0
  0
SPLINE
  5
B5
330
1F
100
AcDbEntity
  8
0
  6
Continuous
 62
     7
370
    15
100
AcDbSpline
210
0.0
220
0.0
230
1.0
 70
     8
 71
     3
 72
    16
 73
    12
 74
     0
 42
0.00000001
 43
0.00000001
 12
1.0
 22
0.0
 32
0.0
 13
1.0
 23
0.0
 33
0.0
 40
0.0
 40
0.0
 40
0.0
 40
0.0
 40
0.2499999999999997
 40
0.2499999999999997
 40
0.3749999999999999
 40
0.3749999999999999
 40
0.5000000000000001
 40
0.5000000000000001
 40
0.75
 40
0.75
 40
1.0
 40
1.0
 40
1.0
 40
1.0
 10
169.359872164673
 20
106.1709809482354
 30
0.0
 10
169.2793348327738
 20
106.4880297056095
 30
0.0
 10
169.2192974887466
 20
106.8368817265571
 30
0.0
 10
169.1585597815929
 20
107.4072252919613
 30
0.0
 10
169.14323740648
 20
107.6052311171791
 30
0.0
 10
169.1226545971757
 20
108.0175121487796
 30
0.0
 10
169.11745500015
 20
108.2323723548308
 30
0.0
 10
169.1174013469697
 20
108.8872701059479
 30
0.0
 10
169.1375988904472
 20
109.3418961322732
 30
0.0
 10
169.2182769788046
 20
110.2865907209281
 30
0.0
 10
169.2793231434117
 20
110.778459871636
 30
0.0
 10
169.3598721646693
 20
111.2739462593813
 30
0.0
  0
SPLINE
  5
B6
330
1F
100
AcDbEntity
  8
0
  6
Continuous
 62
     7
370
    15
100
AcDbSpline
210
0.0
220
0.0
230
1.0
 70
     8
 71
     3
 72
    24
 73
    20
 74
     0
 42
0.00000001
 43
0.00000001
 12
1.0
 22
0.0
 32
0.0
 13
1.0
 23
0.0
 33
0.0
 40
0.0
 40
0.0
 40
0.0
 40
0.0
 40
0.2500000000000014
 40
0.2500000000000014
 40
0.3750000000000031
 40
0.3750000000000031
 40
0.4375000000000028
 40
0.4375000000000028
 40
0.4687500000000035
 40
0.4687500000000035
 40
0.5000000000000041
 40
0.5000000000000041
 40
0.5625000000000034
 40
0.5625000000000034
 40
0.6250000000000028
 40
0.6250000000000028
 40
0.7500000000000018
 40
0.7500000000000018
 40
1.0
 40
1.0
 40
1.0
 40
1.0
 10
169.3598721646731
 20
111.2739462593819
 30
0.0
 10
169.3602750753089
 20
111.1838464823093
 30
0.0
 10
169.3623190546495
 20
111.0945730824959
 30
0.0
 10
169.3715562974756
 20
110.9642354576776
 30
0.0
 10
169.3754433604561
 20
110.9212522886714
 30
0.0
 10
169.3863472518628
 20
110.8592441069513
 30
0.0
 10
169.3904892976132
 20
110.8384821209793
 30
0.0
 10
169.402384371366
 20
110.8125054723772
 30
0.0
 10
169.4076314356748
 20
110.80346482169
 30
0.0
 10
169.4244985020539
 20
110.8044070731383
 30
0.0
 10
169.432320909579
 20
110.8156810771346
 30
0.0
 10
169.4492697102006
 20
110.846883544689
 30
0.0
 10
169.4567260614186
 20
110.8700087839516
 30
0.0
 10
169.470785964611
 20
110.9156034891827
 30
0.0
 10
169.476918349747
 20
110.9385471002127
 30
0.0
 10
169.4942131122701
 20
111.0075665115585
 30
0.0
 10
169.5042304306791
 20
111.0538582232345
 30
0.0
 10
169.5326017649219
 20
111.1929124556005
 30
0.0
 10
169.5491372025663
 20
111.2858137573567
 30
0.0
 10
169.5648321867308
 20
111.3788719768944
 30
0.0
  0
SPLINE
  5
B7
330
1F
100
AcDbEntity
  8
0
  6
Continuous
 62
     7
370
    15
100
AcDbSpline
210
0.0
220
0.0
230
1.0
 70
     8
 71
     3
 72
     8
 73
     4
 74
     0
 42
0.00000001
 43
0.00000001
 12
1.0
 22
0.0
 32
0.0
 13
1.0
 23
0.0
 33
0.0
 40
0.0
 40
0.0
 40
0.0
 40
0.0
 40
1.0
 40
1.0
 40
1.0
 40
1.0
 10
169.5648321867308
 20
111.3788719768944
 30
0.0
 10
169.6155593299374
 20
111.679641801166
 30
0.0
 10
169.6734466594983
 20
111.9806769531811
 30
0.0
 10
169.7385518211135
 20
112.2819218692073
 30
0.0
  0
SPLINE
  5
B8
330
1F
100
AcDbEntity
  8
0
  6
Continuous
 62
     7
370
    15
100
AcDbSpline
210
0.0
220
0.0
230
1.0
 70
     8
 71
     3
 72
     8
 73
     4
 74
     0
 42
0.00000001
 43
0.00000001
 12
1.0
 22
0.0
 32
0.0
 13
1.0
 23
0.0
 33
0.0
 40
0.0
 40
0.0
 40
0.0
 40
0.0
 40
1.0
 40
1.0
 40
1.0
 40
1.0
 10
169.7385518211135
 20
105.7494148424206
 30
0.0
 10
169.6734466594994
 20
105.9101880098739
 30
0.0
 10
169.6155593299394
 20
106.0853909003091
 30
0.0
 10
169.5648321867335
 20
106.2754001997211
 30
0.0
  0
LINE
  5
B9
330
1F
100
AcDbEntity
  8
0
  6
Continuous
 62
     7
370
    15
100
AcDbLine
 10
169.3598721647
 20
105.4464827637
 30
0.0
 11
169.3598721647
 21
106.1709809482
 31
0.0
  0
LINE
  5
BA
330
1F
100
AcDbEntity
  8
0
  6
Continuous
 62
     7
370
    15
100
AcDbLine
 10
148.5598721647
 20
105.8990402722
 30
0.0
 11
148.5598721647
 21
112.5499758845
 31
0.0
  0
LINE
  5
BB
330
1F
100
AcDbEntity
  8
0
  6
Continuous
 62
     7
370
    15
100
AcDbLine
 10
169.3598721647
 20
111.2739462594
 30
0.0
 11
169.3598721647
 21
112.5499758845
 31
0.0
  0
LINE
  5
BC
330
1F
100
AcDbEntity
  8
0
  6
Continuous
 62
     7
370
    15
100
AcDbLine
 10
148.5598721647
 20
112.5499758845
 30
0.0
 11
148.5598721647
 21
129.2774486772
 31
0.0
  0
LINE
  5
BD
330
1F
100
AcDbEntity
  8
0
  6
Continuous
 62
     7
370
    15
100
AcDbLine
 10
169.3598721647
 20
112.5499758845
 30
0.0
 11
169.3598721647
 21
129.7300061857
 31
0.0
  0
LINE
  5
BE
330
1F
100
AcDbEntity
  8
0
  6
Continuous
 62
     7
370
    15
100
AcDbLine
 10
147.0598721647
 20
112.5499758845
 30
0.0
 11
147.0598721647
 21
128.5274486772
 31
0.0
  0
LINE
  5
BF
330
1F
100
AcDbEntity
  8
0
  6
Continuous
 62
     7
370
    15
100
AcDbLine
 10
147.0598721647
 20
106.6490402722
 30
0.0
 11
147.0598721647
 21
112.5499758845
 31
0.0
  0
LINE
  5
C0
330
1F
100
AcDbEntity
  8
0
  6
Continuous
 62
     7
370
    15
100
AcDbLine
 10
169.3598721647
 20
102.7887228267
 30
0.0
 11
169.3598721647
 21
105.4464827637
 31
0.0
  0
SPLINE
  5
C1
330
1F
100
AcDbEntity
  8
0
  6
Continuous
 62
     7
370
    15
100
AcDbSpline
210
0.0
220
0.0
230
1.0
 70
     8
 71
     3
 72
     8
 73
     4
 74
     0
 42
0.00000001
 43
0.00000001
 12
1.0
 22
0.0
 32
0.0
 13
1.0
 23
0.0
 33
0.0
 40
0.0000137051794235
 40
0.0000137051794235
 40
0.0000137051794235
 40
0.0000137051794235
 40
0.0027147144718019
 40
0.0027147144718019
 40
0.0027147144718019
 40
0.0027147144718019
 10
148.5598721646732
 20
103.4810272936832
 30
0.0
 10
149.4598683001679
 20
103.4599468963525
 30
0.0
 10
150.3598684787633
 20
103.4388293881943
 30
0.0
 10
151.2598721646731
 20
103.4176747808485
 30
0.0
  0
LINE
  5
C2
330
1F
100
AcDbEntity
  8
0
  6
Continuous
 62
     7
370
    15
100
AcDbLine
 10
148.5598721647
 20
103.4810272937
 30
0.0
 11
148.5598721647
 21
105.8990402722
 31
0.0
  0
SPLINE
  5
C3
330
1F
100
AcDbEntity
  8
0
  6
Continuous
 62
     7
370
    15
100
AcDbSpline
210
0.0
220
0.0
230
1.0
 70
     8
 71
     3
 72
    14
 73
    10
 74
     0
 42
0.00000001
 43
0.00000001
 12
1.0
 22
0.0
 32
0.0
 13
1.0
 23
0.0
 33
0.0
 40
0.0
 40
0.0
 40
0.0
 40
0.0
 40
0.3775288239686461
 40
0.5338733690476619
 40
0.6908808599745991
 40
0.7817757575789249
 40
0.8738748620518569
 40
0.9402566634510691
 40
1.0
 40
1.0
 40
1.0
 40
1.0
 10
151.2598721646731
 20
103.4176747808485
 30
0.0
 10
151.5304238965018
 20
103.3751263097136
 30
0.0
 10
151.9130181658736
 20
103.3149574055388
 30
0.0
 10
152.3727764274273
 20
103.2595940137892
 30
0.0
 10
152.620852606843
 20
103.232913820433
 30
0.0
 10
152.7993625497939
 20
103.215595656585
 30
0.0
 10
152.9011554241121
 20
103.206354217279
 30
0.0
 10
152.9594176015728
 20
103.2012869819193
 30
0.0
 10
152.9639060458097
 20
103.2009041393515
 30
0.0
 10
152.9660321456419
 20
103.2007227933269
 30
0.0
  0
SPLINE
  5
C4
330
1F
100
AcDbEntity
  8
0
  6
Continuous
 62
     7
370
    15
100
AcDbSpline
210
0.0
220
0.0
230
1.0
 70
     8
 71
     3
 72
    27
 73
    23
 74
     0
 42
0.00000001
 43
0.00000001
 12
1.0
 22
0.0
 32
0.0
 13
1.0
 23
0.0
 33
0.0
 40
0.0
 40
0.0
 40
0.0
 40
0.0
 40
0.0320048888823141
 40
0.0816299808644614
 40
0.1292910406044131
 40
0.1782329011447849
 40
0.2278849832250207
 40
0.2788080991010486
 40
0.3317507939392644
 40
0.386072303150481
 40
0.4419521139322966
 40
0.4993720553881292
 40
0.5566423887905807
 40
0.615586031716339
 40
0.6725583336459856
 40
0.7312836920047284
 40
0.7864689484547143
 40
0.8434363526702117
 40
0.8956187083338407
 40
0.9495000915392622
 40
0.9987346993711229
 40
1.0
 40
1.0
 40
1.0
 40
1.0
 10
162.2526548021184
 20
102.9681288382238
 30
0.0
 10
162.2527318918765
 20
102.9681190025501
 30
0.0
 10
162.2529285129459
 20
102.9680939161997
 30
0.0
 10
162.1780669562342
 20
102.9787278392607
 30
0.0
 10
162.040576491422
 20
102.9975825816002
 30
0.0
 10
161.8435679615972
 20
103.0231950494479
 30
0.0
 10
161.5904131086861
 20
103.0535978583332
 30
0.0
 10
161.2834971431913
 20
103.0866827669415
 30
0.0
 10
160.926690793289
 20
103.1198732600365
 30
0.0
 10
160.5256817501879
 20
103.1503269204386
 30
0.0
 10
160.0898786132939
 20
103.1751455826722
 30
0.0
 10
159.6334354235507
 20
103.191769577267
 30
0.0
 10
159.1682770559054
 20
103.1988486231539
 30
0.0
 10
158.716705000301
 20
103.1961134202378
 30
0.0
 10
158.2875594740971
 20
103.184809757535
 30
0.0
 10
157.9060013037541
 20
103.1676008945919
 30
0.0
 10
157.5752021490094
 20
103.1473096704398
 30
0.0
 10
157.3170372116179
 20
103.1279956233594
 30
0.0
 10
157.1261874735414
 20
103.111790355974
 30
0.0
 10
157.0231792060995
 20
103.1023650568571
 30
0.0
 10
156.9812975740004
 20
103.0984233118345
 30
0.0
 10
156.9927921560211
 20
103.0994953674735
 30
0.0
 10
156.9930801585602
 20
103.0995222283672
 30
0.0
  0
SPLINE
  5
C5
330
1F
100
AcDbEntity
  8
0
  6
Continuous
 62
     7
370
    15
100
AcDbSpline
210
0.0
220
0.0
230
1.0
 70
     8
 71
     3
 72
    10
 73
     6
 74
     0
 42
0.00000001
 43
0.00000001
 12
1.0
 22
0.0
 32
0.0
 13
1.0
 23
0.0
 33
0.0
 40
0.0
 40
0.0
 40
0.0
 40
0.0
 40
0.5
 40
0.5
 40
1.0
 40
1.0
 40
1.0
 40
1.0
 10
147.0598721646731
 20
104.2703272419575
 30
0.0
 10
147.2970141253889
 20
104.148404738065
 30
0.0
 10
147.5423568841522
 20
104.0208985416034
 30
0.0
 10
148.0436204728849
 20
103.7572698235539
 30
0.0
 10
148.2996550421351
 20
103.6210935697994
 30
0.0
 10
148.5598721646731
 20
103.4810272936831
 30
0.0
  0
LINE
  5
C6
330
1F
100
AcDbEntity
  8
0
  6
Continuous
 62
     7
370
    15
100
AcDbLine
 10
147.0598721647
 20
104.270327242
 30
0.0
 11
147.0598721647
 21
106.6490402722
 31
0.0
  0
SPLINE
  5
C7
330
1F
100
AcDbEntity
  8
0
  6
Continuous
 62
     7
370
    15
100
AcDbSpline
210
0.0
220
0.0
230
1.0
 70
     8
 71
     3
 72
    24
 73
    20
 74
     0
 42
0.00000001
 43
0.00000001
 12
1.0
 22
0.0
 32
0.0
 13
1.0
 23
0.0
 33
0.0
 40
0.0
 40
0.0
 40
0.0
 40
0.0
 40
0.2500000000000056
 40
0.2500000000000056
 40
0.3750000000000083
 40
0.3750000000000083
 40
0.4375000000000097
 40
0.4375000000000097
 40
0.4687500000000104
 40
0.4687500000000104
 40
0.5000000000000112
 40
0.5000000000000112
 40
0.5625000000000098
 40
0.5625000000000098
 40
0.6250000000000084
 40
0.6250000000000084
 40
0.7500000000000066
 40
0.7500000000000066
 40
1.0
 40
1.0
 40
1.0
 40
1.0
 10
169.3598721646649
 20
130.2815376261738
 30
0.0
 10
169.3602751940388
 20
130.3002448641822
 30
0.0
 10
169.3623049337538
 20
130.3164457689786
 30
0.0
 10
169.3716136451737
 20
130.333147121762
 30
0.0
 10
169.3755396382882
 20
130.3376385445047
 30
0.0
 10
169.3864689982042
 20
130.3388885866445
 30
0.0
 10
169.3905906262986
 20
130.3388030503458
 30
0.0
 10
169.402485147481
 20
130.3324275190378
 30
0.0
 10
169.4077719594348
 20
130.3291156055308
 30
0.0
 10
169.4243398909497
 20
130.313641619265
 30
0.0
 10
169.4322665997171
 20
130.3043313500365
 30
0.0
 10
169.4492589379422
 20
130.2830653169133
 30
0.0
 10
169.4566566387332
 20
130.2721028575069
 30
0.0
 10
169.470759029075
 20
130.2507594431327
 30
0.0
 10
169.4769121863672
 20
130.2408395965712
 30
0.0
 10
169.4942259198283
 20
130.2119849311441
 30
0.0
 10
169.5042309607169
 20
130.1939385983939
 30
0.0
 10
169.5325874169476
 20
130.1406735975821
 30
0.0
 10
169.5491359562938
 20
130.106464697976
 30
0.0
 10
169.5648321867338
 20
130.0721926571731
 30
0.0
  0
LINE
  5
C8
330
1F
100
AcDbEntity
  8
0
  6
Continuous
 62
     7
370
    15
100
AcDbLine
 10
169.3598721647
 20
130.2815376262
 30
0.0
 11
169.3598721647
 21
129.7300061857
 31
0.0
  0
SPLINE
  5
C9
330
1F
100
AcDbEntity
  8
0
  6
Continuous
 62
     7
370
    15
100
AcDbSpline
210
0.0
220
0.0
230
1.0
 70
     8
 71
     3
 72
    13
 73
     9
 74
     0
 42
0.00000001
 43
0.00000001
 12
1.0
 22
0.0
 32
0.0
 13
1.0
 23
0.0
 33
0.0
 40
0.0
 40
0.0
 40
0.0
 40
0.0
 40
0.0600464699331116
 40
0.2706632009151528
 40
0.4859158968177253
 40
0.7027576939530716
 40
0.8511279435644283
 40
1.0
 40
1.0
 40
1.0
 40
1.0
 10
169.1196326070425
 20
130.8178886232711
 30
0.0
 10
169.1189944830184
 20
130.8193246607591
 30
0.0
 10
169.1161180992591
 20
130.8257976891248
 30
0.0
 10
169.1329634895012
 20
130.7878833000241
 30
0.0
 10
169.171220281692
 20
130.7019250949307
 30
0.0
 10
169.2277970926646
 20
130.5752584618711
 30
0.0
 10
169.2915211460098
 20
130.4331324748237
 30
0.0
 10
169.337062863822
 20
130.3321260823166
 30
0.0
 10
169.3598721646731
 20
130.2815376261656
 30
0.0
  0
LINE
  5
CA
330
1F
100
AcDbEntity
  8
0
  6
Continuous
 62
     7
370
    15
100
AcDbLine
 10
148.5598721647
 20
130.3063519971
 30
0.0
 11
148.5598721647
 21
129.2774486772
 31
0.0
  0
SPLINE
  5
CB
330
1F
100
AcDbEntity
  8
0
  6
Continuous
 62
     7
370
    15
100
AcDbSpline
210
0.0
220
0.0
230
1.0
 70
     8
 71
     3
 72
     8
 73
     4
 74
     0
 42
0.00000001
 43
0.00000001
 12
1.0
 22
0.0
 32
0.0
 13
1.0
 23
0.0
 33
0.0
 40
0.0
 40
0.0
 40
0.0
 40
0.0
 40
1.0
 40
1.0
 40
1.0
 40
1.0
 10
169.5648321867338
 20
130.0721926571731
 30
0.0
 10
169.6155592694562
 20
129.961432264382
 30
0.0
 10
169.6734465824433
 20
129.8356000370023
 30
0.0
 10
169.7385518211135
 20
129.6951281221774
 30
0.0
  0
LINE
  5
CC
330
1F
100
AcDbEntity
  8
0
  6
Continuous
 62
     7
370
    15
100
AcDbLine
 10
147.0598721647
 20
129.4403265933
 30
0.0
 11
147.0598721647
 21
128.5274486772
 31
0.0
  0
SPLINE
  5
CD
330
1F
100
AcDbEntity
  8
0
  6
HIDDEN
 62
     7
370
     0
100
AcDbSpline
210
0.0
220
0.0
230
1.0
 70
    11
 71
     3
 72
    51
 73
    47
 74
     0
 42
0.00000001
 43
0.00000001
 12
1.0
 22
0.0
 32
0.0
 13
1.0
 23
0.0
 33
0.0
 40
0.0
 40
0.0
 40
0.0
 40
0.0
 40
0.0282341753947709
 40
0.0517134405892113
 40
0.0751836837246905
 40
0.1018146453927839
 40
0.1284282201786688
 40
0.1521682065192275
 40
0.1759069776205826
 40
0.1981164570394199
 40
0.2203334424344499
 40
0.2433336999835217
 40
0.2663435774891563
 40
0.291698516775672
 40
0.3170616560600319
 40
0.3451265602015726
 40
0.3482320674055632
 40
0.3731954560861982
 40
0.37648573927788
 40
0.4030227199518315
 40
0.4310481474785188
 40
0.4328501698246235
 40
0.4567925732276012
 40
0.4631945499866857
 40
0.493534094639126
 40
0.523529101797095
 40
0.553507485831726
 40
0.5816516156171324
 40
0.6097733650838928
 40
0.6346222139900635
 40
0.6594640053287069
 40
0.6819461844264995
 40
0.7044338488745361
 40
0.7269183621069538
 40
0.7494121842346116
 40
0.7738116038654483
 40
0.7982201243201856
 40
0.8253630639344665
 40
0.8525116605623253
 40
0.8645538470363399
 40
0.8818677134454483
 40
0.9112251313097885
 40
0.9414923603753891
 40
0.9668203705124347
 40
0.9717571914347667
 40
1.0
 40
1.0
 40
1.0
 40
1.0
 10
223.1203271826205
 20
111.740041273662
 30
0.0
 10
222.8597068708936
 20
111.9050135479824
 30
0.0
 10
222.3823572469576
 20
112.2071751584297
 30
0.0
 10
221.7895753463872
 20
112.778092272338
 30
0.0
 10
221.2921384918592
 20
113.4098419495886
 30
0.0
 10
220.8940722867697
 20
114.1518588490528
 30
0.0
 10
220.6362940068255
 20
114.9587365613422
 30
0.0
 10
220.5402337894521
 20
115.768654913369
 30
0.0
 10
220.5822492774304
 20
116.5348851829514
 30
0.0
 10
220.7530349828986
 20
117.2643842319229
 30
0.0
 10
221.0323530519276
 20
117.9492179371704
 30
0.0
 10
221.4213764216323
 20
118.5871959940743
 30
0.0
 10
221.9227632025198
 20
119.1843193159745
 30
0.0
 10
222.5290170150238
 20
119.7173737476604
 30
0.0
 10
223.2582613800991
 20
120.1703702778354
 30
0.0
 10
223.8173265051003
 20
120.4487353368566
 30
0.0
 10
224.4128179738723
 20
120.5977797099576
 30
0.0
 10
224.7356949832001
 20
120.7306439441322
 30
0.0
 10
225.3341177867611
 20
120.7806322277401
 30
0.0
 10
225.9628026688509
 20
120.8953005079668
 30
0.0
 10
226.5796137671714
 20
120.8039454502342
 30
0.0
 10
227.1679739080714
 20
120.7729831507116
 30
0.0
 10
227.5027209947202
 20
120.6445493995852
 30
0.0
 10
228.1533298827132
 20
120.5119789056155
 30
0.0
 10
228.8212711038264
 20
120.1971867958575
 30
0.0
 10
229.6576420575938
 20
119.6769843144702
 30
0.0
 10
230.365645102248
 20
119.0188071119251
 30
0.0
 10
230.9259326196381
 20
118.2585224106922
 30
0.0
 10
231.3118254498955
 20
117.4546991108448
 30
0.0
 10
231.5251336755471
 20
116.6258376503136
 30
0.0
 10
231.5829250537369
 20
115.832759162138
 30
0.0
 10
231.4990505456734
 20
115.0692657772463
 30
0.0
 10
231.3002890256165
 20
114.3552803689414
 30
0.0
 10
230.9876968158815
 20
113.6848659934879
 30
0.0
 10
230.5667484562916
 20
113.0530991867813
 30
0.0
 10
230.038713869201
 20
112.4798641343565
 30
0.0
 10
229.3925131954642
 20
111.9577010177347
 30
0.0
 10
228.6441478563308
 20
111.5353998935014
 30
0.0
 10
227.9718178324469
 20
111.2485719549897
 30
0.0
 10
227.3624802165322
 20
111.1381887490785
 30
0.0
 10
226.7398179129759
 20
110.9743427973106
 30
0.0
 10
225.8910468588589
 20
110.955787286352
 30
0.0
 10
224.9576136496891
 20
111.0313128888349
 30
0.0
 10
224.3295911805049
 20
111.2482701842343
 30
0.0
 10
223.7101164650757
 20
111.4108142179876
 30
0.0
 10
223.3915197032412
 20
111.5886585379276
 30
0.0
 10
223.1203271826205
 20
111.740041273662
 30
0.0
  0
SPLINE
  5
CE
330
1F
100
AcDbEntity
  8
0
  6
HIDDEN
 62
     7
370
     0
100
AcDbSpline
210
0.0
220
0.0
230
1.0
 70
    11
 71
     3
 72
    51
 73
    47
 74
     0
 42
0.00000001
 43
0.00000001
 12
1.0
 22
0.0
 32
0.0
 13
1.0
 23
0.0
 33
0.0
 40
0.0
 40
0.0
 40
0.0
 40
0.0
 40
0.0282341753947708
 40
0.0517134405892113
 40
0.0751836837246904
 40
0.1018146453927838
 40
0.1284282201786687
 40
0.1521682065192274
 40
0.1759069776205825
 40
0.1981164570394199
 40
0.2203334424344499
 40
0.2433336999835216
 40
0.2663435774891563
 40
0.2916985167756721
 40
0.3170616560600318
 40
0.3451265602015725
 40
0.3482320674055633
 40
0.3731954560861981
 40
0.3764857392778799
 40
0.4030227199518316
 40
0.4310481474785188
 40
0.4328501698246235
 40
0.4567925732276009
 40
0.4631945499866858
 40
0.4935340946391259
 40
0.5235291017970947
 40
0.5535074858317257
 40
0.581651615617132
 40
0.6097733650838926
 40
0.6346222139900634
 40
0.6594640053287067
 40
0.6819461844264993
 40
0.704433848874536
 40
0.7269183621069537
 40
0.7494121842346115
 40
0.7738116038654482
 40
0.7982201243201855
 40
0.8253630639344663
 40
0.8525116605623252
 40
0.8645538470363395
 40
0.8818677134454482
 40
0.9112251313097884
 40
0.9414923603753892
 40
0.9668203705124345
 40
0.9717571914347665
 40
1.0
 40
1.0
 40
1.0
 40
1.0
 10
210.1203271826205
 20
111.740041273662
 30
0.0
 10
209.8597068708935
 20
111.9050135479824
 30
0.0
 10
209.3823572469576
 20
112.2071751584297
 30
0.0
 10
208.7895753463872
 20
112.778092272338
 30
0.0
 10
208.2921384918592
 20
113.4098419495886
 30
0.0
 10
207.8940722867697
 20
114.1518588490528
 30
0.0
 10
207.6362940068255
 20
114.9587365613422
 30
0.0
 10
207.5402337894521
 20
115.768654913369
 30
0.0
 10
207.5822492774304
 20
116.5348851829514
 30
0.0
 10
207.7530349828986
 20
117.2643842319229
 30
0.0
 10
208.0323530519276
 20
117.9492179371704
 30
0.0
 10
208.4213764216323
 20
118.5871959940743
 30
0.0
 10
208.9227632025198
 20
119.1843193159745
 30
0.0
 10
209.5290170150238
 20
119.7173737476604
 30
0.0
 10
210.2582613800991
 20
120.1703702778354
 30
0.0
 10
210.8173265051003
 20
120.4487353368566
 30
0.0
 10
211.4128179738723
 20
120.5977797099576
 30
0.0
 10
211.7356949832001
 20
120.7306439441322
 30
0.0
 10
212.3341177867611
 20
120.7806322277401
 30
0.0
 10
212.9628026688509
 20
120.8953005079667
 30
0.0
 10
213.5796137671713
 20
120.8039454502342
 30
0.0
 10
214.1679739080715
 20
120.7729831507116
 30
0.0
 10
214.5027209947202
 20
120.6445493995852
 30
0.0
 10
215.1533298827133
 20
120.5119789056155
 30
0.0
 10
215.8212711038264
 20
120.1971867958575
 30
0.0
 10
216.6576420575938
 20
119.6769843144702
 30
0.0
 10
217.365645102248
 20
119.0188071119251
 30
0.0
 10
217.9259326196381
 20
118.2585224106922
 30
0.0
 10
218.3118254498955
 20
117.4546991108448
 30
0.0
 10
218.5251336755471
 20
116.6258376503136
 30
0.0
 10
218.5829250537369
 20
115.832759162138
 30
0.0
 10
218.4990505456734
 20
115.0692657772463
 30
0.0
 10
218.3002890256165
 20
114.3552803689414
 30
0.0
 10
217.9876968158816
 20
113.6848659934879
 30
0.0
 10
217.5667484562916
 20
113.0530991867813
 30
0.0
 10
217.038713869201
 20
112.4798641343565
 30
0.0
 10
216.3925131954642
 20
111.9577010177347
 30
0.0
 10
215.6441478563308
 20
111.5353998935014
 30
0.0
 10
214.9718178324469
 20
111.2485719549897
 30
0.0
 10
214.3624802165322
 20
111.1381887490785
 30
0.0
 10
213.7398179129759
 20
110.9743427973106
 30
0.0
 10
212.8910468588589
 20
110.955787286352
 30
0.0
 10
211.9576136496891
 20
111.0313128888349
 30
0.0
 10
211.3295911805049
 20
111.2482701842343
 30
0.0
 10
210.7101164650757
 20
111.4108142179875
 30
0.0
 10
210.3915197032413
 20
111.5886585379276
 30
0.0
 10
210.1203271826205
 20
111.740041273662
 30
0.0
  0
SPLINE
  5
CF
330
1F
100
AcDbEntity
  8
0
  6
HIDDEN
 62
     7
370
     0
100
AcDbSpline
210
0.0
220
0.0
230
1.0
 70
    11
 71
     3
 72
    49
 73
    45
 74
     0
 42
0.00000001
 43
0.00000001
 12
1.0
 22
0.0
 32
0.0
 13
1.0
 23
0.0
 33
0.0
 40
0.0
 40
0.0
 40
0.0
 40
0.0
 40
0.0282341753947709
 40
0.0517134405892115
 40
0.0751836837246904
 40
0.1018146453927839
 40
0.1284282201786689
 40
0.1521682065192275
 40
0.1759069776205826
 40
0.1981164570394199
 40
0.22033344243445
 40
0.2433336999835217
 40
0.2663435774891563
 40
0.291698516775672
 40
0.3170616560600316
 40
0.3451265602015725
 40
0.3494012290212661
 40
0.3731954560861981
 40
0.4030227199518315
 40
0.4328501698246234
 40
0.45115786767812
 40
0.4631945499866859
 40
0.493534094639126
 40
0.523529101797095
 40
0.553507485831726
 40
0.5816516156171325
 40
0.609773365083893
 40
0.6346222139900637
 40
0.659464005328707
 40
0.6819461844264997
 40
0.7044338488745362
 40
0.7269183621069538
 40
0.7494121842346118
 40
0.7738116038654482
 40
0.7982201243201855
 40
0.8253630639344666
 40
0.8525116605623255
 40
0.8655891618635401
 40
0.8818677134454486
 40
0.9112251313097885
 40
0.9386342802013073
 40
0.9414923603753892
 40
0.9717571914347668
 40
1.0
 40
1.0
 40
1.0
 40
1.0
 10
197.1203271826205
 20
111.740041273662
 30
0.0
 10
196.8597068708837
 20
111.905013548019
 30
0.0
 10
196.3823572469299
 20
112.2071751585333
 30
0.0
 10
195.7895753464767
 20
112.7780922720038
 30
0.0
 10
195.2921384915022
 20
113.4098419509205
 30
0.0
 10
194.8940722883042
 20
114.1518588433281
 30
0.0
 10
194.6362940013868
 20
114.9587365816325
 30
0.0
 10
194.540233807321
 20
115.7686548467049
 30
0.0
 10
194.5822492123144
 20
116.5348854258822
 30
0.0
 10
194.7530352086449
 20
117.264383389722
 30
0.0
 10
195.0323521946418
 20
117.9492211354814
 30
0.0
 10
195.4213797479938
 20
118.5871835842827
 30
0.0
 10
195.9227502622579
 20
119.1843675927339
 30
0.0
 10
196.5290708213488
 20
119.7171730102235
 30
0.0
 10
197.2580521269275
 20
120.1711509471224
 30
0.0
 10
197.8294461250786
 20
120.4524115999434
 30
0.0
 10
198.425184148144
 20
120.6014098377335
 30
0.0
 10
199.0299336827688
 20
120.7969264685062
 30
0.0
 10
199.9468959377887
 20
120.8621082449369
 30
0.0
 10
200.8073253477052
 20
120.8380124459471
 30
0.0
 10
201.4426962865994
 20
120.6594016852322
 30
0.0
 10
202.0950744200571
 20
120.5312247740749
 30
0.0
 10
202.8219318969217
 20
120.1997921539622
 30
0.0
 10
203.6574655886714
 20
119.6762885372373
 30
0.0
 10
204.3656891816787
 20
119.0189809074947
 30
0.0
 10
204.9259210882853
 20
118.2584769440575
 30
0.0
 10
205.3118281414934
 20
117.454709727161
 30
0.0
 10
205.5251329915825
 20
116.6258349407398
 30
0.0
 10
205.5829252131869
 20
115.8327598370427
 30
0.0
 10
205.4990505196973
 20
115.0692655203749
 30
0.0
 10
205.300288976282
 20
114.3552807529126
 30
0.0
 10
204.9876970391909
 20
113.6848647144645
 30
0.0
 10
204.56674758184
 20
113.0531040909142
 30
0.0
 10
204.0387174458551
 20
112.4798441078564
 30
0.0
 10
203.3924992459111
 20
111.9577791160574
 30
0.0
 10
202.6442064426902
 20
111.5350718931799
 30
0.0
 10
201.9611541780864
 20
111.2450478339695
 30
0.0
 10
201.3513290788554
 20
111.1355145967058
 30
0.0
 10
200.7289930441836
 20
110.9758953627997
 30
0.0
 10
199.919238076636
 20
110.9392740005862
 30
0.0
 10
199.2742863441542
 20
111.0430874957366
 30
0.0
 10
198.6147378352047
 20
111.109715582195
 30
0.0
 10
197.9661495644833
 20
111.318122121497
 30
0.0
 10
197.3956963606433
 20
111.6026796565955
 30
0.0
 10
197.1203271826205
 20
111.740041273662
 30
0.0
  0
SPLINE
  5
D0
330
1F
100
AcDbEntity
  8
0
  6
HIDDEN
 62
     7
370
     0
100
AcDbSpline
210
0.0
220
0.0
230
1.0
 70
     8
 71
     3
 72
    39
 73
    35
 74
     0
 42
0.00000001
 43
0.00000001
 12
1.0
 22
0.0
 32
0.0
 13
1.0
 23
0.0
 33
0.0
 40
0.0
 40
0.0
 40
0.0
 40
0.0
 40
0.0389579177855615
 40
0.0829158345470923
 40
0.1277663994694361
 40
0.173343819616937
 40
0.2197389191497173
 40
0.233604182326249
 40
0.2654682608802293
 40
0.2699845630201907
 40
0.2954228727973117
 40
0.32115793136047
 40
0.3487891346300757
 40
0.3767734417821256
 40
0.4049344086627972
 40
0.4334555802921825
 40
0.4627818812873075
 40
0.4925130325152701
 40
0.5224492705727893
 40
0.5528069406313855
 40
0.5826123788537719
 40
0.6126266694414677
 40
0.6433079605823125
 40
0.6742243247344442
 40
0.7036311775150043
 40
0.7335008991288245
 40
0.7636120179191718
 40
0.7942338328798655
 40
0.821759545941688
 40
0.8497682278150933
 40
0.878032927986369
 40
0.9068428001582235
 40
0.9558638588409998
 40
1.0
 40
1.0
 40
1.0
 40
1.0
 10
194.5707322494287
 20
93.91098666233752
 30
0.0
 10
194.575301833236
 20
93.91191383949308
 30
0.0
 10
194.5850274776354
 20
93.9138871910477
 30
0.0
 10
194.754023977925
 20
93.94724684690571
 30
0.0
 10
195.0289814464707
 20
93.99974526723877
 30
0.0
 10
195.4235500753807
 20
94.06936728225348
 30
0.0
 10
195.7816117221509
 20
94.13023160411969
 30
0.0
 10
196.1647953444335
 20
94.18394061150147
 30
0.0
 10
196.3696146534757
 20
94.21312744917016
 30
0.0
 10
196.6207269054052
 20
94.2492075863248
 30
0.0
 10
196.878869602643
 20
94.28021668341724
 30
0.0
 10
197.2465530405632
 20
94.32210498551832
 30
0.0
 10
197.6468613366742
 20
94.36141771749263
 30
0.0
 10
198.0727915962842
 20
94.39683081603675
 30
0.0
 10
198.5159426725344
 20
94.42644288013504
 30
0.0
 10
198.975805501363
 20
94.44940370943635
 30
0.0
 10
199.4512101859789
 20
94.4647388333263
 30
0.0
 10
199.9384197628559
 20
94.4715285724451
 30
0.0
 10
200.4321227092222
 20
94.46920787147936
 30
0.0
 10
200.9236604110754
 20
94.45766032680592
 30
0.0
 10
201.4095587893646
 20
94.43723988556697
 30
0.0
 10
201.8877613870934
 20
94.4085080281874
 30
0.0
 10
202.3586170247501
 20
94.37184214050315
 30
0.0
 10
202.8093723476643
 20
94.32892822413942
 30
0.0
 10
203.2359648386604
 20
94.2814490999471
 30
0.0
 10
203.6357238910234
 20
94.23099636325577
 30
0.0
 10
204.0135750952139
 20
94.17801397505082
 30
0.0
 10
204.3508633584804
 20
94.12634150683074
 30
0.0
 10
204.6475423230146
 20
94.07760785765309
 30
0.0
 10
204.9025304589911
 20
94.03332119853373
 30
0.0
 10
205.1240465690741
 20
93.99301729688057
 30
0.0
 10
205.3462202762539
 20
93.95107466003688
 30
0.0
 10
205.5261525625048
 20
93.91560196652212
 30
0.0
 10
205.5433549515788
 20
93.91213176400515
 30
0.0
 10
205.5515051221907
 20
93.9104876468741
 30
0.0
  0
SPLINE
  5
D1
330
1F
100
AcDbEntity
  8
0
  6
HIDDEN
 62
     7
370
     0
100
AcDbSpline
210
0.0
220
0.0
230
1.0
 70
     8
 71
     3
 72
    14
 73
    10
 74
     0
 42
0.00000001
 43
0.00000001
 12
1.0
 22
0.0
 32
0.0
 13
1.0
 23
0.0
 33
0.0
 40
0.0
 40
0.0
 40
0.0
 40
0.0
 40
0.0886933886964657
 40
0.181112971745708
 40
0.3662497813503116
 40
0.5702455847491993
 40
0.7816315013955724
 40
0.9638087740702178
 40
1.0
 40
1.0
 40
1.0
 40
1.0
 10
196.3592183795772
 20
137.6044499455072
 30
0.0
 10
196.2697736823852
 20
137.6176922638828
 30
0.0
 10
196.0871265296107
 20
137.6447332380642
 30
0.0
 10
195.7054243946999
 20
137.6997963498644
 30
0.0
 10
195.3010870927094
 20
137.769190321143
 30
0.0
 10
194.8913727078089
 20
137.8435687540821
 30
0.0
 10
194.6480302559137
 20
137.8912041722218
 30
0.0
 10
194.5464518774782
 20
137.9114945719482
 30
0.0
 10
194.567480602089
 20
137.9073044304833
 30
0.0
 10
194.5709657903294
 20
137.9066099788687
 30
0.0
  0
SPLINE
  5
D2
330
1F
100
AcDbEntity
  8
0
  6
HIDDEN
 62
     7
370
     0
100
AcDbSpline
210
0.0
220
0.0
230
1.0
 70
     8
 71
     3
 72
    23
 73
    19
 74
     0
 42
0.00000001
 43
0.00000001
 12
1.0
 22
0.0
 32
0.0
 13
1.0
 23
0.0
 33
0.0
 40
0.0
 40
0.0
 40
0.0
 40
0.0
 40
0.0083119040484363
 40
0.0679106364251144
 40
0.1292464718335768
 40
0.1889825227450629
 40
0.2502009855920903
 40
0.3150621667227621
 40
0.3814526687213668
 40
0.4535559949609794
 40
0.5274508492705742
 40
0.6053340384187352
 40
0.685341857786474
 40
0.7655680339428673
 40
0.8481240974132842
 40
0.923046126536457
 40
0.9926507811173293
 40
1.0
 40
1.0
 40
1.0
 40
1.0
 10
205.5514639895129
 20
137.9071474623475
 30
0.0
 10
205.5542118940074
 20
137.9076944797191
 30
0.0
 10
205.5766630606684
 20
137.9121637682983
 30
0.0
 10
205.4920900483083
 20
137.8952381726542
 30
0.0
 10
205.304437609291
 20
137.8584832172136
 30
0.0
 10
204.9891914629167
 20
137.7994300704516
 30
0.0
 10
204.5703387579048
 20
137.7262363972963
 30
0.0
 10
204.0414469322083
 20
137.6425060072585
 30
0.0
 10
203.3974517664205
 20
137.5539444546957
 30
0.0
 10
202.6492166139289
 20
137.4698721895886
 30
0.0
 10
201.7982606755775
 20
137.399579532638
 30
0.0
 10
200.8727656947471
 20
137.3540577743352
 30
0.0
 10
199.9002624892725
 20
137.3417355651583
 30
0.0
 10
198.9121218633734
 20
137.3661560710626
 30
0.0
 10
197.9794573437522
 20
137.4244857780374
 30
0.0
 10
197.1309601369045
 20
137.5038776628886
 30
0.0
 10
196.641385019749
 20
137.569639518207
 30
0.0
 10
196.3838165677375
 20
137.6014152375451
 30
0.0
 10
196.359218365647
 20
137.6044498699301
 30
0.0
  0
SPLINE
  5
D3
330
1F
100
AcDbEntity
  8
0
  6
HIDDEN
 62
     7
370
     0
100
AcDbSpline
210
0.0
220
0.0
230
1.0
 70
     8
 71
     3
 72
    39
 73
    35
 74
     0
 42
0.00000001
 43
0.00000001
 12
1.0
 22
0.0
 32
0.0
 13
1.0
 23
0.0
 33
0.0
 40
0.0
 40
0.0
 40
0.0
 40
0.0
 40
0.014784734336337
 40
0.039027965142072
 40
0.0608769847665237
 40
0.1052812803914266
 40
0.1278741031293595
 40
0.1505426025569197
 40
0.1965320663623707
 40
0.219881295984802
 40
0.2448734688067926
 40
0.2472027002599961
 40
0.2894256884839145
 40
0.2955669683227597
 40
0.3213023718116097
 40
0.3489339454208386
 40
0.4050359923967646
 40
0.4335575462939737
 40
0.4628842403480319
 40
0.5225012351257693
 40
0.5528593120666854
 40
0.5826651497698561
 40
0.6126798426375748
 40
0.643361544998217
 40
0.6742783235208175
 40
0.703685570439942
 40
0.763606457991059
 40
0.7942286833743936
 40
0.8217547653619595
 40
0.8779642832543694
 40
0.9067745415634871
 40
0.9311026314960801
 40
0.980753683573981
 40
1.0
 40
1.0
 40
1.0
 40
1.0
 10
220.5747120615404
 20
93.91178346060373
 30
0.0
 10
220.5700770266112
 20
93.91085897009788
 30
0.0
 10
220.5578417048575
 20
93.90841854861885
 30
0.0
 10
220.601507431815
 20
93.91713844592306
 30
0.0
 10
220.6896996222837
 20
93.93457507577743
 30
0.0
 10
220.8391935319768
 20
93.96363433384089
 30
0.0
 10
221.0419219329856
 20
94.00148463947761
 30
0.0
 10
221.283669669539
 20
94.04516497909941
 30
0.0
 10
221.5758874286717
 20
94.09562822784065
 30
0.0
 10
221.9244655945869
 20
94.14994059335827
 30
0.0
 10
222.1161951534262
 20
94.1801363008168
 30
0.0
 10
222.4203011282128
 20
94.21973136092627
 30
0.0
 10
222.6417435117068
 20
94.24851567608336
 30
0.0
 10
222.9619443591071
 20
94.2910437369148
 30
0.0
 10
223.2494916731672
 20
94.32186722337705
 30
0.0
 10
223.7832301315927
 20
94.37515233168062
 30
0.0
 10
224.3668661463442
 20
94.4189835376319
 30
0.0
 10
224.9757701945136
 20
94.44940175618886
 30
0.0
 10
225.6133162712761
 20
94.46998439693344
 30
0.0
 10
226.2703611681315
 20
94.47302658623718
 30
0.0
 10
226.923631142971
 20
94.45765754683865
 30
0.0
 10
227.4095661313175
 20
94.4372407162486
 30
0.0
 10
227.887761244881
 20
94.40850747121051
 30
0.0
 10
228.3586098438297
 20
94.37184355358372
 30
0.0
 10
228.8094008293429
 20
94.32892320946075
 30
0.0
 10
229.3779513289289
 20
94.26565542523129
 30
0.0
 10
229.8998004342147
 20
94.19545360811415
 30
0.0
 10
230.3508571523258
 20
94.12634078712156
 30
0.0
 10
230.7445703983865
 20
94.06167029471801
 30
0.0
 10
231.0648123917969
 20
94.00420515096802
 30
0.0
 10
231.2956881318448
 20
93.96060543479508
 30
0.0
 10
231.4610268468579
 20
93.92857521327693
 30
0.0
 10
231.5520484224365
 20
93.91038439617182
 30
0.0
 10
231.5553158408212
 20
93.90973202321098
 30
0.0
 10
231.5562285863946
 20
93.9095497843722
 30
0.0
  0
SPLINE
  5
D4
330
1F
100
AcDbEntity
  8
0
  6
HIDDEN
 62
     7
370
     0
100
AcDbSpline
210
0.0
220
0.0
230
1.0
 70
     8
 71
     3
 72
    14
 73
    10
 74
     0
 42
0.00000001
 43
0.00000001
 12
1.0
 22
0.0
 32
0.0
 13
1.0
 23
0.0
 33
0.0
 40
0.0
 40
0.0
 40
0.0
 40
0.0
 40
0.0886933886967492
 40
0.181112971745708
 40
0.3662497813503121
 40
0.570245584749199
 40
0.7816315013955714
 40
0.9638087740702171
 40
1.0
 40
1.0
 40
1.0
 40
1.0
 10
222.3592183795772
 20
137.6044499455072
 30
0.0
 10
222.2697736823849
 20
137.6176922638828
 30
0.0
 10
222.0871265296105
 20
137.6447332380642
 30
0.0
 10
221.7054243946997
 20
137.6997963498645
 30
0.0
 10
221.3010870927095
 20
137.769190321143
 30
0.0
 10
220.8913727078088
 20
137.8435687540821
 30
0.0
 10
220.6480302559137
 20
137.8912041722218
 30
0.0
 10
220.5464518774782
 20
137.9114945719482
 30
0.0
 10
220.567480602089
 20
137.9073044304834
 30
0.0
 10
220.5709657903294
 20
137.9066099788687
 30
0.0
  0
SPLINE
  5
D5
330
1F
100
AcDbEntity
  8
0
  6
HIDDEN
 62
     7
370
     0
100
AcDbSpline
210
0.0
220
0.0
230
1.0
 70
     8
 71
     3
 72
    23
 73
    19
 74
     0
 42
0.00000001
 43
0.00000001
 12
1.0
 22
0.0
 32
0.0
 13
1.0
 23
0.0
 33
0.0
 40
0.0
 40
0.0
 40
0.0
 40
0.0
 40
0.008311904048436
 40
0.0679106364251143
 40
0.1292464718335767
 40
0.1889825227450631
 40
0.2502009855920903
 40
0.3150621667227624
 40
0.3814526687213675
 40
0.4535559949609796
 40
0.5274508492705737
 40
0.6053340384187349
 40
0.6853418577864744
 40
0.7655680339428673
 40
0.848124097413284
 40
0.9230461265364566
 40
0.9926507811173058
 40
1.0
 40
1.0
 40
1.0
 40
1.0
 10
231.5514639895128
 20
137.9071474623475
 30
0.0
 10
231.5542118940074
 20
137.9076944797191
 30
0.0
 10
231.5766630606684
 20
137.9121637682983
 30
0.0
 10
231.4920900483083
 20
137.8952381726542
 30
0.0
 10
231.3044376092909
 20
137.8584832172136
 30
0.0
 10
230.9891914629168
 20
137.7994300704516
 30
0.0
 10
230.5703387579048
 20
137.7262363972963
 30
0.0
 10
230.0414469322083
 20
137.6425060072585
 30
0.0
 10
229.3974517664205
 20
137.5539444546957
 30
0.0
 10
228.6492166139289
 20
137.4698721895886
 30
0.0
 10
227.7982606755775
 20
137.3995795326379
 30
0.0
 10
226.8727656947471
 20
137.3540577743352
 30
0.0
 10
225.9002624892725
 20
137.3417355651583
 30
0.0
 10
224.9121218633734
 20
137.3661560710626
 30
0.0
 10
223.9794573437522
 20
137.4244857780374
 30
0.0
 10
223.1309601369045
 20
137.5038776628886
 30
0.0
 10
222.6413850197491
 20
137.569639518207
 30
0.0
 10
222.3838165677375
 20
137.601415237545
 30
0.0
 10
222.3592183656469
 20
137.6044498699301
 30
0.0
  0
SPLINE
  5
D6
330
1F
100
AcDbEntity
  8
0
  6
HIDDEN
 62
     7
370
     0
100
AcDbSpline
210
0.0
220
0.0
230
1.0
 70
     8
 71
     3
 72
    39
 73
    35
 74
     0
 42
0.00000001
 43
0.00000001
 12
1.0
 22
0.0
 32
0.0
 13
1.0
 23
0.0
 33
0.0
 40
0.0
 40
0.0
 40
0.0
 40
0.0
 40
0.0389579177855614
 40
0.0829158345470922
 40
0.127766399469436
 40
0.173343819616937
 40
0.2197389191497174
 40
0.2336041823262619
 40
0.2654682608802158
 40
0.269984563020191
 40
0.2954228727973123
 40
0.3211579313604705
 40
0.348789134630076
 40
0.3767734417821257
 40
0.4049344086627973
 40
0.4334555802921823
 40
0.4627818812873078
 40
0.4925130325152706
 40
0.5224492705727894
 40
0.5528069406313852
 40
0.5826123788537712
 40
0.6126266694414674
 40
0.6433079605823122
 40
0.6742243247344437
 40
0.7036311775150035
 40
0.7335008991288238
 40
0.7636120179191709
 40
0.7942338328798646
 40
0.8217595459416871
 40
0.8497682278150924
 40
0.878032927986368
 40
0.9068428001582226
 40
0.955863858840999
 40
1.0
 40
1.0
 40
1.0
 40
1.0
 10
207.5707322494287
 20
93.91098666233752
 30
0.0
 10
207.5753018332361
 20
93.91191383949308
 30
0.0
 10
207.5850274776354
 20
93.91388719104769
 30
0.0
 10
207.754023977925
 20
93.94724684690571
 30
0.0
 10
208.0289814464707
 20
93.99974526723878
 30
0.0
 10
208.4235500753808
 20
94.06936728225347
 30
0.0
 10
208.7816117221509
 20
94.1302316041197
 30
0.0
 10
209.1647953444335
 20
94.18394061150147
 30
0.0
 10
209.3696146534757
 20
94.21312744917017
 30
0.0
 10
209.6207269054052
 20
94.2492075863248
 30
0.0
 10
209.878869602643
 20
94.28021668341725
 30
0.0
 10
210.2465530405632
 20
94.32210498551831
 30
0.0
 10
210.6468613366742
 20
94.36141771749263
 30
0.0
 10
211.0727915962842
 20
94.39683081603674
 30
0.0
 10
211.5159426725344
 20
94.42644288013506
 30
0.0
 10
211.975805501363
 20
94.44940370943634
 30
0.0
 10
212.451210185979
 20
94.4647388333263
 30
0.0
 10
212.9384197628559
 20
94.4715285724451
 30
0.0
 10
213.4321227092222
 20
94.46920787147936
 30
0.0
 10
213.9236604110754
 20
94.45766032680592
 30
0.0
 10
214.4095587893646
 20
94.43723988556697
 30
0.0
 10
214.8877613870934
 20
94.4085080281874
 30
0.0
 10
215.3586170247501
 20
94.37184214050315
 30
0.0
 10
215.8093723476643
 20
94.32892822413942
 30
0.0
 10
216.2359648386604
 20
94.2814490999471
 30
0.0
 10
216.6357238910234
 20
94.23099636325577
 30
0.0
 10
217.0135750952139
 20
94.17801397505083
 30
0.0
 10
217.3508633584804
 20
94.12634150683074
 30
0.0
 10
217.6475423230146
 20
94.07760785765309
 30
0.0
 10
217.9025304589911
 20
94.03332119853373
 30
0.0
 10
218.1240465690741
 20
93.99301729688058
 30
0.0
 10
218.3462202762539
 20
93.95107466003688
 30
0.0
 10
218.5261525625048
 20
93.91560196652213
 30
0.0
 10
218.5433549515788
 20
93.91213176400515
 30
0.0
 10
218.5515051221907
 20
93.9104876468741
 30
0.0
  0
SPLINE
  5
D7
330
1F
100
AcDbEntity
  8
0
  6
HIDDEN
 62
     7
370
     0
100
AcDbSpline
210
0.0
220
0.0
230
1.0
 70
     8
 71
     3
 72
    16
 73
    12
 74
     0
 42
0.00000001
 43
0.00000001
 12
1.0
 22
0.0
 32
0.0
 13
1.0
 23
0.0
 33
0.0
 40
0.0
 40
0.0
 40
0.0
 40
0.0
 40
0.0360453337843194
 40
0.0903572883913665
 40
0.2733891971000525
 40
0.3662768446930948
 40
0.4679359617426245
 40
0.6754672753160331
 40
0.7817791387172779
 40
0.8725760405982753
 40
0.9999999999999999
 40
0.9999999999999999
 40
0.9999999999999999
 40
0.9999999999999999
 10
209.3592183795772
 20
137.6044499455072
 30
0.0
 10
209.3214999575934
 20
137.6098421313716
 30
0.0
 10
209.2269486252838
 20
137.6233590902137
 30
0.0
 10
208.9368531717018
 20
137.6642382508909
 30
0.0
 10
208.6288456406055
 20
137.7138108924109
 30
0.0
 10
208.3191526595769
 20
137.7663925967163
 30
0.0
 10
208.0296000318216
 20
137.8180171990699
 30
0.0
 10
207.7981558326858
 20
137.861913132648
 30
0.0
 10
207.6550638099618
 20
137.889891549086
 30
0.0
 10
207.5740197575157
 20
137.905980778955
 30
0.0
 10
207.5744568396633
 20
137.9059043755571
 30
0.0
 10
207.5747120615404
 20
137.9058597619331
 30
0.0
  0
SPLINE
  5
D8
330
1F
100
AcDbEntity
  8
0
  6
HIDDEN
 62
     7
370
     0
100
AcDbSpline
210
0.0
220
0.0
230
1.0
 70
     8
 71
     3
 72
    31
 73
    27
 74
     0
 42
0.00000001
 43
0.00000001
 12
1.0
 22
0.0
 32
0.0
 13
1.0
 23
0.0
 33
0.0
 40
0.0
 40
0.0
 40
0.0
 40
0.0
 40
0.0082903283166035
 40
0.0379966996114891
 40
0.0984318696065319
 40
0.1292225379597964
 40
0.1590068941413182
 40
0.2194590755648631
 40
0.2501667127127677
 40
0.2825100794272757
 40
0.3481087655212965
 40
0.3814050277043718
 40
0.4173572415626379
 40
0.4903208042764946
 40
0.5273916157230997
 40
0.5662193422694344
 40
0.645119544792469
 40
0.6852762506661996
 40
0.725267177643204
 40
0.765534614691113
 40
0.8066789676113293
 40
0.8481292490264551
 40
0.8854842465421584
 40
0.9554636305005678
 40
0.9613691497088515
 40
1.0
 40
1.0
 40
1.0
 40
1.0
 10
218.5562285863946
 20
137.9080934381646
 30
0.0
 10
218.5573419449535
 20
137.908315898908
 30
0.0
 10
218.5624447525994
 20
137.9093354935148
 30
0.0
 10
218.5287023428864
 20
137.9025906621232
 30
0.0
 10
218.4397347744514
 20
137.8849023586007
 30
0.0
 10
218.2872568473715
 20
137.8554524359819
 30
0.0
 10
218.0986014165201
 20
137.8198543100659
 30
0.0
 10
217.8570292905693
 20
137.7760177334439
 30
0.0
 10
217.5636338810274
 20
137.7260868886455
 30
0.0
 10
217.2266355482155
 20
137.6715001141113
 30
0.0
 10
216.836781564315
 20
137.6136654213612
 30
0.0
 10
216.3984185251267
 20
137.5562503184048
 30
0.0
 10
215.9108654533941
 20
137.4984839601929
 30
0.0
 10
215.3739605478893
 20
137.4459382805638
 30
0.0
 10
214.8014851610276
 20
137.4035083163801
 30
0.0
 10
214.1914070321417
 20
137.3683861207459
 30
0.0
 10
213.5507933590313
 20
137.3484464651629
 30
0.0
 10
212.90224818258
 20
137.3463137742635
 30
0.0
 10
212.412128461189
 20
137.3538012623127
 30
0.0
 10
211.9225948979474
 20
137.3703614030565
 30
0.0
 10
211.4349382876561
 20
137.3957900035866
 30
0.0
 10
210.971532532709
 20
137.428696976679
 30
0.0
 10
210.4096362905605
 20
137.4766768321893
 30
0.0
 10
210.0250625758445
 20
137.5239264449067
 30
0.0
 10
209.6186986976449
 20
137.5677210101328
 30
0.0
 10
209.4797459711645
 20
137.5873894573329
 30
0.0
 10
209.3592183656469
 20
137.6044498699301
 30
0.0
  0
LINE
  5
D9
330
1F
100
AcDbEntity
  8
0
  6
HIDDEN
 62
     7
370
     0
100
AcDbLine
 10
236.0598721647
 20
94.9088216167
 30
0.0
 11
236.0598721647
 21
136.9088216113
 31
0.0
  0
SPLINE
  5
DA
330
1F
100
AcDbEntity
  8
0
  6
HIDDEN
 62
     7
370
     0
100
AcDbSpline
210
0.0
220
0.0
230
1.0
 70
     8
 71
     3
 72
    26
 73
    22
 74
     0
 42
0.00000001
 43
0.00000001
 12
1.0
 22
0.0
 32
0.0
 13
1.0
 23
0.0
 33
0.0
 40
0.0
 40
0.0
 40
0.0
 40
0.0
 40
0.0527457210313849
 40
0.1070257172525097
 40
0.1597701171731986
 40
0.2140351488775767
 40
0.2669431835722429
 40
0.3213787202150321
 40
0.3743913566903921
 40
0.4289511817708804
 40
0.4817835258655573
 40
0.5361592230128351
 40
0.5888075855785578
 40
0.6429778685254158
 40
0.6957255482187491
 40
0.7499897082110756
 40
0.8029646709366162
 40
0.8574748806625243
 40
0.9104514695259105
 40
0.9649772344144465
 40
1.0
 40
1.0
 40
1.0
 40
1.0
 10
181.0598721646731
 20
95.90882161126842
 30
0.0
 10
181.0651843811418
 20
95.90935640035119
 30
0.0
 10
181.0759633366031
 20
95.91044153453917
 30
0.0
 10
181.1626636924068
 20
95.91894216902837
 30
0.0
 10
181.2997743648443
 20
95.93159811576064
 30
0.0
 10
181.4861932385105
 20
95.94731310246969
 30
0.0
 10
181.7188335705354
 20
95.96446233649583
 30
0.0
 10
181.9877152259483
 20
95.98089721799883
 30
0.0
 10
182.2899205976039
 20
95.99500296800771
 30
0.0
 10
182.6112291732678
 20
96.00493161536704
 30
0.0
 10
182.9480136178623
 20
96.00971567586954
 30
0.0
 10
183.2841626218687
 20
96.00875326076887
 30
0.0
 10
183.6165275690805
 20
96.00216805779462
 30
0.0
 10
183.9299786509033
 20
95.99082952306819
 30
0.0
 10
184.2217285277589
 20
95.97581686417183
 30
0.0
 10
184.4787969705241
 20
95.95902181540616
 30
0.0
 10
184.698110424013
 20
95.94207349864627
 30
0.0
 10
184.8700953276901
 20
95.92707817495372
 30
0.0
 10
184.9898259071639
 20
95.9157786290408
 30
0.0
 10
185.0539826206249
 20
95.90941261708508
 30
0.0
 10
185.0538096029949
 20
95.90942745246393
 30
0.0
 10
185.0537419351519
 20
95.90943325463616
 30
0.0
  0
SPLINE
  5
DB
330
1F
100
AcDbEntity
  8
0
  6
HIDDEN
 62
     7
370
     0
100
AcDbSpline
210
0.0
220
0.0
230
1.0
 70
     8
 71
     3
 72
    12
 73
     8
 74
     0
 42
0.00000001
 43
0.00000001
 12
1.0
 22
0.0
 32
0.0
 13
1.0
 23
0.0
 33
0.0
 40
0.0
 40
0.0
 40
0.0
 40
0.0
 40
0.2500000000000008
 40
0.2500000000000008
 40
0.5000000000000016
 40
0.5000000000000016
 40
1.0
 40
1.0
 40
1.0
 40
1.0
 10
177.9917741666723
 20
110.0796086156168
 30
0.0
 10
177.9542622806277
 20
110.0796086156168
 30
0.0
 10
177.9189749329229
 20
110.06480380133
 30
0.0
 10
177.8600450846845
 20
110.0212119282042
 30
0.0
 10
177.8365193582154
 20
109.9936985021182
 30
0.0
 10
177.7762605704473
 20
109.9045667700046
 30
0.0
 10
177.750665808158
 20
109.8381809193868
 30
0.0
 10
177.731966545537
 20
109.7705764842094
 30
0.0
  0
LINE
  5
DC
330
1F
100
AcDbEntity
  8
0
  6
HIDDEN
 62
     7
370
     0
100
AcDbLine
 10
180.1279701627
 20
110.0796086156
 30
0.0
 11
177.9917741667
 21
110.0796086156
 31
0.0
  0
SPLINE
  5
DD
330
1F
100
AcDbEntity
  8
0
  6
HIDDEN
 62
     7
370
     0
100
AcDbSpline
210
0.0
220
0.0
230
1.0
 70
     8
 71
     3
 72
    12
 73
     8
 74
     0
 42
0.00000001
 43
0.00000001
 12
1.0
 22
0.0
 32
0.0
 13
1.0
 23
0.0
 33
0.0
 40
0.0
 40
0.0
 40
0.0
 40
0.0
 40
0.4999999999999947
 40
0.4999999999999947
 40
0.7499999999999973
 40
0.7499999999999973
 40
1.0
 40
1.0
 40
1.0
 40
1.0
 10
180.3877777838093
 20
109.7705764842094
 30
0.0
 10
180.3690845506788
 20
109.8381591206498
 30
0.0
 10
180.3434292532671
 20
109.9046416901272
 30
0.0
 10
180.2832686305806
 20
109.9936367730247
 30
0.0
 10
180.2591963188262
 20
110.0216386700239
 30
0.0
 10
180.2008147984757
 20
110.0647150706891
 30
0.0
 10
180.1653459708227
 20
110.0796086156168
 30
0.0
 10
180.1279701626739
 20
110.0796086156168
 30
0.0
  0
ELLIPSE
  5
DE
330
1F
100
AcDbEntity
  8
0
  6
HIDDEN
 62
     7
370
     0
100
AcDbEllipse
 10
170.1109429922
 20
115.9088216113
 30
0.0
 11
-9.367417879781756
 21
19.74174915274992
 31
0.0
210
0.0
220
0.0
230
1.0
 40
0.3419987131
 41
3.292664382516899
 42
4.239566697061004
  0
SPLINE
  5
DF
330
1F
100
AcDbEntity
  8
0
  6
HIDDEN
 62
     7
370
     0
100
AcDbSpline
210
0.0
220
0.0
230
1.0
 70
     8
 71
     3
 72
    12
 73
     8
 74
     0
 42
0.00000001
 43
0.00000001
 12
1.0
 22
0.0
 32
0.0
 13
1.0
 23
0.0
 33
0.0
 40
0.0
 40
0.0
 40
0.0
 40
0.0
 40
0.2500000000000001
 40
0.2500000000000001
 40
0.5000000000000002
 40
0.5000000000000002
 40
1.0
 40
1.0
 40
1.0
 40
1.0
 10
180.1279701626739
 20
96.77716523103508
 30
0.0
 10
180.1654820487186
 20
96.77716523103508
 30
0.0
 10
180.2007693964233
 20
96.78166877529762
 30
0.0
 10
180.2596992446618
 20
96.79504197475092
 30
0.0
 10
180.2832249711308
 20
96.80352687732204
 30
0.0
 10
180.3434837588989
 20
96.83127468115663
 30
0.0
 10
180.3690785211882
 20
96.852264544897
 30
0.0
 10
180.3877777838093
 20
96.87406532808653
 30
0.0
  0
LINE
  5
E0
330
1F
100
AcDbEntity
  8
0
  6
HIDDEN
 62
     7
370
     0
100
AcDbLine
 10
177.9917741667
 20
96.777165231
 30
0.0
 11
180.1279701627
 21
96.777165231
 31
0.0
  0
SPLINE
  5
E1
330
1F
100
AcDbEntity
  8
0
  6
HIDDEN
 62
     7
370
     0
100
AcDbSpline
210
0.0
220
0.0
230
1.0
 70
     8
 71
     3
 72
    12
 73
     8
 74
     0
 42
0.00000001
 43
0.00000001
 12
1.0
 22
0.0
 32
0.0
 13
1.0
 23
0.0
 33
0.0
 40
0.0
 40
0.0
 40
0.0
 40
0.0
 40
0.4999999999999971
 40
0.4999999999999971
 40
0.7499999999999986
 40
0.7499999999999986
 40
1.0
 40
1.0
 40
1.0
 40
1.0
 10
177.731966545537
 20
96.87406532808653
 30
0.0
 10
177.7506597786674
 20
96.85227157445857
 30
0.0
 10
177.7763150760792
 20
96.83125141274893
 30
0.0
 10
177.8364756987656
 20
96.80354606678522
 30
0.0
 10
177.86054801052
 20
96.79491085059183
 30
0.0
 10
177.9189295308705
 20
96.78169620536525
 30
0.0
 10
177.9543983585236
 20
96.77716523103508
 30
0.0
 10
177.9917741666723
 20
96.7771652310351
 30
0.0
  0
ELLIPSE
  5
E2
330
1F
100
AcDbEntity
  8
0
  6
HIDDEN
 62
     7
370
     0
100
AcDbEllipse
 10
188.0088013371
 20
115.9088216113
 30
0.0
 11
9.367417879781584
 21
19.74174915274992
 31
0.0
210
0.0
220
0.0
230
1.0
 40
0.3419987131
 41
2.043618610118592
 42
2.990520924662725
  0
SPLINE
  5
E3
330
1F
100
AcDbEntity
  8
0
  6
HIDDEN
 62
     7
370
     0
100
AcDbSpline
210
0.0
220
0.0
230
1.0
 70
     8
 71
     3
 72
    12
 73
     8
 74
     0
 42
0.00000001
 43
0.00000001
 12
1.0
 22
0.0
 32
0.0
 13
1.0
 23
0.0
 33
0.0
 40
0.0
 40
0.0
 40
0.0
 40
0.0
 40
0.2499999999999992
 40
0.2499999999999992
 40
0.4999999999999984
 40
0.4999999999999984
 40
1.0
 40
1.0
 40
1.0
 40
1.0
 10
177.9917741666723
 20
135.0404779915019
 30
0.0
 10
177.9542622806277
 20
135.0404779915019
 30
0.0
 10
177.9189749329229
 20
135.0359744472393
 30
0.0
 10
177.8600450846845
 20
135.022601247786
 30
0.0
 10
177.8365193582154
 20
135.0141163452149
 30
0.0
 10
177.7762605704473
 20
134.9863685413804
 30
0.0
 10
177.750665808158
 20
134.96537867764
 30
0.0
 10
177.731966545537
 20
134.9435778944504
 30
0.0
  0
LINE
  5
E4
330
1F
100
AcDbEntity
  8
0
  6
HIDDEN
 62
     7
370
     0
100
AcDbLine
 10
180.1279701627
 20
135.0404779915
 30
0.0
 11
177.9917741667
 21
135.0404779915
 31
0.0
  0
SPLINE
  5
E5
330
1F
100
AcDbEntity
  8
0
  6
HIDDEN
 62
     7
370
     0
100
AcDbSpline
210
0.0
220
0.0
230
1.0
 70
     8
 71
     3
 72
    12
 73
     8
 74
     0
 42
0.00000001
 43
0.00000001
 12
1.0
 22
0.0
 32
0.0
 13
1.0
 23
0.0
 33
0.0
 40
0.0
 40
0.0
 40
0.0
 40
0.0
 40
0.5000000000000006
 40
0.5000000000000006
 40
0.7500000000000002
 40
0.7500000000000002
 40
1.0
 40
1.0
 40
1.0
 40
1.0
 10
180.3877777838093
 20
134.9435778944504
 30
0.0
 10
180.3690845506788
 20
134.9653716480784
 30
0.0
 10
180.343429253267
 20
134.986391809788
 30
0.0
 10
180.2832686305806
 20
135.0140971557518
 30
0.0
 10
180.2591963188262
 20
135.0227323719451
 30
0.0
 10
180.2008147984757
 20
135.0359470171717
 30
0.0
 10
180.1653459708227
 20
135.0404779915019
 30
0.0
 10
180.1279701626739
 20
135.0404779915019
 30
0.0
  0
ELLIPSE
  5
E6
330
1F
100
AcDbEntity
  8
0
  6
HIDDEN
 62
     7
370
     0
100
AcDbEllipse
 10
170.1109429922
 20
115.9088216113
 30
0.0
 11
9.36741787978184
 21
19.74174915274992
 31
0.0
210
0.0
220
0.0
230
1.0
 40
0.3419987131
 41
5.185211263708416
 42
6.132113578252575
  0
SPLINE
  5
E7
330
1F
100
AcDbEntity
  8
0
  6
HIDDEN
 62
     7
370
     0
100
AcDbSpline
210
0.0
220
0.0
230
1.0
 70
     8
 71
     3
 72
    12
 73
     8
 74
     0
 42
0.00000001
 43
0.00000001
 12
1.0
 22
0.0
 32
0.0
 13
1.0
 23
0.0
 33
0.0
 40
0.0
 40
0.0
 40
0.0
 40
0.0
 40
0.2499999999999958
 40
0.2499999999999958
 40
0.4999999999999916
 40
0.4999999999999916
 40
1.0
 40
1.0
 40
1.0
 40
1.0
 10
180.1279701626739
 20
121.7380346069204
 30
0.0
 10
180.1654820487186
 20
121.7380346069204
 30
0.0
 10
180.2007693964233
 20
121.7528394212072
 30
0.0
 10
180.2596992446618
 20
121.796431294333
 30
0.0
 10
180.2832249711308
 20
121.823944720419
 30
0.0
 10
180.3434837588989
 20
121.9130764525326
 30
0.0
 10
180.3690785211882
 20
121.9794623031504
 30
0.0
 10
180.3877777838093
 20
122.0470667383278
 30
0.0
  0
LINE
  5
E8
330
1F
100
AcDbEntity
  8
0
  6
HIDDEN
 62
     7
370
     0
100
AcDbLine
 10
177.9917741667
 20
121.7380346069
 30
0.0
 11
180.1279701627
 21
121.7380346069
 31
0.0
  0
SPLINE
  5
E9
330
1F
100
AcDbEntity
  8
0
  6
HIDDEN
 62
     7
370
     0
100
AcDbSpline
210
0.0
220
0.0
230
1.0
 70
     8
 71
     3
 72
    12
 73
     8
 74
     0
 42
0.00000001
 43
0.00000001
 12
1.0
 22
0.0
 32
0.0
 13
1.0
 23
0.0
 33
0.0
 40
0.0
 40
0.0
 40
0.0
 40
0.0
 40
0.4999999999999956
 40
0.4999999999999956
 40
0.7499999999999978
 40
0.7499999999999978
 40
1.0
 40
1.0
 40
1.0
 40
1.0
 10
177.731966545537
 20
122.0470667383278
 30
0.0
 10
177.7506597786674
 20
121.9794841018874
 30
0.0
 10
177.7763150760792
 20
121.91300153241
 30
0.0
 10
177.8364756987656
 20
121.8240064495125
 30
0.0
 10
177.86054801052
 20
121.7960045525133
 30
0.0
 10
177.9189295308705
 20
121.7529281518481
 30
0.0
 10
177.9543983585236
 20
121.7380346069204
 30
0.0
 10
177.9917741666723
 20
121.7380346069204
 30
0.0
  0
ELLIPSE
  5
EA
330
1F
100
AcDbEntity
  8
0
  6
HIDDEN
 62
     7
370
     0
100
AcDbEllipse
 10
188.0088013371
 20
115.9088216113
 30
0.0
 11
-9.367417879781724
 21
19.74174915274994
 31
0.0
210
0.0
220
0.0
230
1.0
 40
0.3419987131
 41
0.1510717289270503
 42
1.097974043471185
  0
LINE
  5
EB
330
1F
100
AcDbEntity
  8
0
  6
HIDDEN
 62
     7
370
     0
100
AcDbLine
 10
171.0598721647
 20
135.6088216113
 30
0.0
 11
171.0598721647
 21
96.2088216113
 31
0.0
  0
LINE
  5
EC
330
1F
100
AcDbEntity
  8
0
  6
HIDDEN
 62
     7
370
     0
100
AcDbLine
 10
171.0598721647
 20
100.1122868124
 30
0.0
 11
171.0598721647
 21
131.7053564102
 31
0.0
  0
SPLINE
  5
ED
330
1F
100
AcDbEntity
  8
0
  6
HIDDEN
 62
     7
370
     0
100
AcDbSpline
210
0.0
220
0.0
230
1.0
 70
     8
 71
     3
 72
    18
 73
    14
 74
     0
 42
0.00000001
 43
0.00000001
 12
1.0
 22
0.0
 32
0.0
 13
1.0
 23
0.0
 33
0.0
 40
0.0
 40
0.0
 40
0.0
 40
0.0
 40
0.2500000000000014
 40
0.2500000000000014
 40
0.5000000000000029
 40
0.5000000000000029
 40
0.6250000000000021
 40
0.6250000000000021
 40
0.7500000000000014
 40
0.7500000000000014
 40
0.8750000000000007
 40
0.8750000000000007
 40
1.0
 40
1.0
 40
1.0
 40
1.0
 10
169.8037878471101
 20
105.6100839707466
 30
0.0
 10
169.8380888916429
 20
105.5467291842823
 30
0.0
 10
169.8759091629396
 20
105.4850832976984
 30
0.0
 10
169.9625274834005
 20
105.3657476619842
 30
0.0
 10
170.010898818144
 20
105.3079895582373
 30
0.0
 10
170.1003018002624
 20
105.2256170037319
 30
0.0
 10
170.1328990841397
 20
105.1988678686944
 30
0.0
 10
170.2092809880846
 20
105.1476738185182
 30
0.0
 10
170.2523194254254
 20
105.123403501961
 30
0.0
 10
170.3581324582572
 20
105.0843226171948
 30
0.0
 10
170.4231708829883
 20
105.0704331309451
 30
0.0
 10
170.5563229547909
 20
105.0728869616616
 30
0.0
 10
170.6156921352541
 20
105.0880336124566
 30
0.0
 10
170.6648952757979
 20
105.1074954644005
 30
0.0
  0
SPLINE
  5
EE
330
1F
100
AcDbEntity
  8
0
  6
HIDDEN
 62
     7
370
     0
100
AcDbSpline
210
0.0
220
0.0
230
1.0
 70
     8
 71
     3
 72
    16
 73
    12
 74
     0
 42
0.00000001
 43
0.00000001
 12
1.0
 22
0.0
 32
0.0
 13
1.0
 23
0.0
 33
0.0
 40
0.0
 40
0.0
 40
0.0
 40
0.0
 40
0.0625000000000022
 40
0.0625000000000022
 40
0.1250000000000044
 40
0.1250000000000044
 40
0.2500000000000064
 40
0.2500000000000064
 40
0.5000000000000058
 40
0.5000000000000058
 40
1.0
 40
1.0
 40
1.0
 40
1.0
 10
170.6648952757671
 20
105.1074954644393
 30
0.0
 10
170.6769651090429
 20
105.1122695765353
 30
0.0
 10
170.6912407639762
 20
105.1152312612067
 30
0.0
 10
170.7227051761006
 20
105.1106954522324
 30
0.0
 10
170.738205700911
 20
105.1026711801435
 30
0.0
 10
170.7736445975179
 20
105.0738953326808
 30
0.0
 10
170.7872372136213
 20
105.0503476159634
 30
0.0
 10
170.8202315320141
 20
104.9835483854533
 30
0.0
 10
170.8310189253329
 20
104.9400105512506
 30
0.0
 10
170.856072172612
 20
104.8123698809561
 30
0.0
 10
170.8598721646732
 20
104.7328025191966
 30
0.0
 10
170.8598721646733
 20
104.6561166741774
 30
0.0
  0
LINE
  5
EF
330
1F
100
AcDbEntity
  8
0
  6
HIDDEN
 62
     7
370
     0
100
AcDbLine
 10
170.8598721647
 20
101.8190013324
 30
0.0
 11
170.8598721647
 21
104.6561166742
 31
0.0
  0
LINE
  5
F0
330
1F
100
AcDbEntity
  8
0
  6
HIDDEN
 62
     7
370
     0
100
AcDbLine
 10
170.8506792504
 20
128.9171790422
 30
0.0
 11
170.8255554569
 21
129.0228284388
 31
0.0
  0
SPLINE
  5
F1
330
1F
100
AcDbEntity
  8
0
  6
HIDDEN
 62
     7
370
     0
100
AcDbSpline
210
0.0
220
0.0
230
1.0
 70
     8
 71
     3
 72
     8
 73
     4
 74
     0
 42
0.00000001
 43
0.00000001
 12
1.0
 22
0.0
 32
0.0
 13
1.0
 23
0.0
 33
0.0
 40
0.0
 40
0.0
 40
0.0
 40
0.0
 40
1.0
 40
1.0
 40
1.0
 40
1.0
 10
169.8037878471101
 20
129.5664049786023
 30
0.0
 10
169.7794748508408
 20
129.6102536358738
 30
0.0
 10
169.7579780264123
 20
129.6532138874421
 30
0.0
 10
169.7385518211134
 20
129.6951281221774
 30
0.0
  0
SPLINE
  5
F2
330
1F
100
AcDbEntity
  8
0
  6
HIDDEN
 62
     7
370
     0
100
AcDbSpline
210
0.0
220
0.0
230
1.0
 70
     8
 71
     3
 72
    18
 73
    14
 74
     0
 42
0.00000001
 43
0.00000001
 12
1.0
 22
0.0
 32
0.0
 13
1.0
 23
0.0
 33
0.0
 40
0.0
 40
0.0
 40
0.0
 40
0.0
 40
0.2500000000000008
 40
0.2500000000000008
 40
0.5000000000000016
 40
0.5000000000000016
 40
0.6250000000000011
 40
0.6250000000000011
 40
0.7500000000000008
 40
0.7500000000000008
 40
0.8750000000000003
 40
0.8750000000000003
 40
1.0
 40
1.0
 40
1.0
 40
1.0
 10
169.8037878471101
 20
129.5664049786023
 30
0.0
 10
169.8380861661228
 20
129.5045477225606
 30
0.0
 10
169.8759005634347
 20
129.4424764135849
 30
0.0
 10
169.9624886245083
 20
129.3190196895425
 30
0.0
 10
170.010838730187
 20
129.257524052229
 30
0.0
 10
170.1001553189868
 20
129.16810722028
 30
0.0
 10
170.132715674475
 20
129.1387705562456
 30
0.0
 10
170.208961308204
 20
129.082487780004
 30
0.0
 10
170.252120677984
 20
129.0555551120289
 30
0.0
 10
170.3578495020021
 20
129.0136392410737
 30
0.0
 10
170.4228466790567
 20
128.999769685708
 30
0.0
 10
170.556331169011
 20
129.0091480765096
 30
0.0
 10
170.6156585624565
 20
129.0304367554511
 30
0.0
 10
170.6648952757978
 20
129.0560873685688
 30
0.0
  0
SPLINE
  5
F3
330
1F
100
AcDbEntity
  8
0
  6
HIDDEN
 62
     7
370
     0
100
AcDbSpline
210
0.0
220
0.0
230
1.0
 70
     8
 71
     3
 72
    16
 73
    12
 74
     0
 42
0.00000001
 43
0.00000001
 12
1.0
 22
0.0
 32
0.0
 13
1.0
 23
0.0
 33
0.0
 40
0.0
 40
0.0
 40
0.0
 40
0.0
 40
0.0625000000000001
 40
0.0625000000000001
 40
0.1250000000000003
 40
0.1250000000000003
 40
0.2500000000000006
 40
0.2500000000000006
 40
0.5000000000000011
 40
0.5000000000000011
 40
1.0
 40
1.0
 40
1.0
 40
1.0
 10
170.664895275767
 20
129.0560873685749
 30
0.0
 10
170.6769651090429
 20
129.0623753314148
 30
0.0
 10
170.6912407639762
 20
129.0686533033845
 30
0.0
 10
170.7227051761006
 20
129.0777371702209
 30
0.0
 10
170.738205700911
 20
129.0797076594799
 30
0.0
 10
170.7736445975179
 20
129.0793942025383
 30
0.0
 10
170.7872372136213
 20
129.0733725455364
 30
0.0
 10
170.8202315320141
 20
129.0531285320281
 30
0.0
 10
170.8310189253329
 20
129.0347177240292
 30
0.0
 10
170.856072172612
 20
128.9747518272109
 30
0.0
 10
170.8598721646732
 20
128.9283116659981
 30
0.0
 10
170.8598721646733
 20
128.8785214308066
 30
0.0
  0
LINE
  5
F4
330
1F
100
AcDbEntity
  8
0
  6
HIDDEN
 62
     7
370
     0
100
AcDbLine
 10
170.8598721647
 20
114.1918267288
 30
0.0
 11
170.8598721647
 21
128.8785214308
 31
0.0
  0
SPLINE
  5
F5
330
1F
100
AcDbEntity
  8
0
  6
HIDDEN
 62
     7
370
     0
100
AcDbSpline
210
0.0
220
0.0
230
1.0
 70
     8
 71
     3
 72
    16
 73
    12
 74
     0
 42
0.00000001
 43
0.00000001
 12
1.0
 22
0.0
 32
0.0
 13
1.0
 23
0.0
 33
0.0
 40
0.0
 40
0.0
 40
0.0
 40
0.0
 40
0.5000000000000008
 40
0.5000000000000008
 40
0.7500000000000004
 40
0.7500000000000004
 40
0.8750000000000003
 40
0.8750000000000003
 40
0.9375000000000002
 40
0.9375000000000002
 40
1.0
 40
1.0
 40
1.0
 40
1.0
 10
170.8598721646731
 20
114.1918267288213
 30
0.0
 10
170.8598721646731
 20
114.0650489613101
 30
0.0
 10
170.8559887395142
 20
113.939059511462
 30
0.0
 10
170.8311734142395
 20
113.7527239994823
 30
0.0
 10
170.820333966527
 20
113.690002180429
 30
0.0
 10
170.7871181844782
 20
113.6024587296017
 30
0.0
 10
170.7737364408494
 20
113.5732788905985
 30
0.0
 10
170.7382267909872
 20
113.5440892432931
 30
0.0
 10
170.7228098244864
 20
113.5380128621753
 30
0.0
 10
170.6911088023378
 20
113.5426035700545
 30
0.0
 10
170.676962517387
 20
113.5518223012029
 30
0.0
 10
170.6648952757974
 20
113.5628820008364
 30
0.0
  0
SPLINE
  5
F6
330
1F
100
AcDbEntity
  8
0
  6
HIDDEN
 62
     7
370
     0
100
AcDbSpline
210
0.0
220
0.0
230
1.0
 70
     8
 71
     3
 72
    18
 73
    14
 74
     0
 42
0.00000001
 43
0.00000001
 12
1.0
 22
0.0
 32
0.0
 13
1.0
 23
0.0
 33
0.0
 40
0.0
 40
0.0
 40
0.0
 40
0.0
 40
0.1250000000000002
 40
0.1250000000000002
 40
0.2500000000000003
 40
0.2500000000000003
 40
0.3750000000000005
 40
0.3750000000000005
 40
0.5000000000000007
 40
0.5000000000000007
 40
0.7500000000000003
 40
0.7500000000000003
 40
1.0
 40
1.0
 40
1.0
 40
1.0
 10
170.6648952758036
 20
113.5628820008448
 30
0.0
 10
170.6161911467868
 20
113.6075196285778
 30
0.0
 10
170.5576834775822
 20
113.6436400759683
 30
0.0
 10
170.4259578149513
 20
113.6566400726341
 30
0.0
 10
170.361200176331
 20
113.6300744912016
 30
0.0
 10
170.255989759712
 20
113.5512282205056
 30
0.0
 10
170.2127737247717
 20
113.5007239149498
 30
0.0
 10
170.1365955032908
 20
113.3948338161751
 30
0.0
 10
170.1037407356067
 20
113.3389630730357
 30
0.0
 10
170.0133730167648
 20
113.1667584349097
 30
0.0
 10
169.9639506475754
 20
113.0454794784632
 30
0.0
 10
169.8762981854874
 20
112.8002658252581
 30
0.0
 10
169.838235449253
 20
112.6757278552637
 30
0.0
 10
169.8037878471096
 20
112.5499758844547
 30
0.0
  0
SPLINE
  5
F7
330
1F
100
AcDbEntity
  8
0
  6
HIDDEN
 62
     7
370
     0
100
AcDbSpline
210
0.0
220
0.0
230
1.0
 70
     8
 71
     3
 72
     8
 73
     4
 74
     0
 42
0.00000001
 43
0.00000001
 12
1.0
 22
0.0
 32
0.0
 13
1.0
 23
0.0
 33
0.0
 40
0.0
 40
0.0
 40
0.0
 40
0.0
 40
1.0
 40
1.0
 40
1.0
 40
1.0
 10
169.8037878471098
 20
112.5499758844551
 30
0.0
 10
169.7794738019755
 20
112.4612167574412
 30
0.0
 10
169.7579772480067
 20
112.3718043139789
 30
0.0
 10
169.7385518211134
 20
112.2819218692073
 30
0.0
  0
SPLINE
  5
F8
330
1F
100
AcDbEntity
  8
0
  6
HIDDEN
 62
     7
370
     0
100
AcDbSpline
210
0.0
220
0.0
230
1.0
 70
     8
 71
     3
 72
     8
 73
     4
 74
     0
 42
0.00000001
 43
0.00000001
 12
1.0
 22
0.0
 32
0.0
 13
1.0
 23
0.0
 33
0.0
 40
0.0
 40
0.0
 40
0.0
 40
0.0
 40
1.0
 40
1.0
 40
1.0
 40
1.0
 10
169.7385518211134
 20
105.7494148424205
 30
0.0
 10
169.7579775012634
 20
105.7014443274842
 30
0.0
 10
169.7794741432194
 20
105.6549919185674
 30
0.0
 10
169.8037878471095
 20
105.6100839707454
 30
0.0
  0
LINE
  5
F9
330
1F
100
AcDbEntity
  8
0
  6
HIDDEN
 62
     7
370
     0
100
AcDbLine
 10
170.8598721647
 20
114.1918267288
 30
0.0
 11
170.8598721647
 21
128.8785214308
 31
0.0
  0
LINE
  5
FA
330
1F
100
AcDbEntity
  8
0
  6
HIDDEN
 62
     7
370
     0
100
AcDbLine
 10
177.0598721647
 20
106.0088389373
 30
0.0
 11
177.0598721647
 21
125.8088216113
 31
0.0
  0
LINE
  5
FB
330
1F
100
AcDbEntity
  8
0
  6
HIDDEN
 62
     7
370
     0
100
AcDbLine
 10
188.2356289388
 20
105.6088216113
 30
0.0
 11
188.2356289388
 21
126.2088216113
 31
0.0
  0
LINE
  5
FC
330
1F
100
AcDbEntity
  8
0
  6
HIDDEN
 62
     7
370
     0
100
AcDbLine
 10
189.0598721647
 20
105.9088216113
 30
0.0
 11
189.0598721647
 21
125.9088216113
 31
0.0
  0
LINE
  5
FD
330
1F
100
AcDbEntity
  8
0
  6
HIDDEN
 62
     7
370
     0
100
AcDbLine
 10
236.0598721647
 20
126.2088216113
 30
0.0
 11
236.0598721647
 21
105.6224784855
 31
0.0
  0
LINE
  5
FE
330
1F
100
AcDbEntity
  8
0
  6
HIDDEN
 62
     7
370
     0
100
AcDbLine
 10
148.0869041967
 20
106.3461283072
 30
0.0
 11
148.0869041967
 21
125.4715149154
 31
0.0
  0
LINE
  5
FF
330
1F
100
AcDbEntity
  8
0
  6
HIDDEN
 62
     7
370
     0
100
AcDbLine
 10
147.0598721647
 20
105.753171087
 30
0.0
 11
147.0598721647
 21
126.0644721355
 31
0.0
  0
LINE
  5
100
330
1F
100
AcDbEntity
  8
0
  6
HIDDEN
 62
     7
370
     0
100
AcDbLine
 10
151.5869041967
 20
106.6778815036
 30
0.0
 11
151.5869041967
 21
125.1397617189
 31
0.0
  0
SPLINE
  5
101
330
1F
100
AcDbEntity
  8
0
  6
HIDDEN
 62
     7
370
     0
100
AcDbSpline
210
0.0
220
0.0
230
1.0
 70
     8
 71
     3
 72
    70
 73
    66
 74
     0
 42
0.00000001
 43
0.00000001
 12
1.0
 22
0.0
 32
0.0
 13
1.0
 23
0.0
 33
0.0
 40
-0.03125
 40
-0.03125
 40
0.0
 40
0.0
 40
0.03125
 40
0.03125
 40
0.0625
 40
0.0625
 40
0.09375
 40
0.09375
 40
0.125
 40
0.125
 40
0.15625
 40
0.15625
 40
0.1875
 40
0.1875
 40
0.2187499999999999
 40
0.2187499999999999
 40
0.2499999999999999
 40
0.2499999999999999
 40
0.2812499999999999
 40
0.2812499999999999
 40
0.3124999999999999
 40
0.3124999999999999
 40
0.3437499999999999
 40
0.3437499999999999
 40
0.3749999999999999
 40
0.3749999999999999
 40
0.4062499999999999
 40
0.4062499999999999
 40
0.4374999999999998
 40
0.4374999999999998
 40
0.4687499999999999
 40
0.4687499999999999
 40
0.4999999999999999
 40
0.4999999999999999
 40
0.5312499999999999
 40
0.5312499999999999
 40
0.5624999999999999
 40
0.5624999999999999
 40
0.5937499999999999
 40
0.5937499999999999
 40
0.6249999999999998
 40
0.6249999999999998
 40
0.6562499999999998
 40
0.6562499999999998
 40
0.6874999999999998
 40
0.6874999999999998
 40
0.7187499999999999
 40
0.7187499999999999
 40
0.75
 40
0.75
 40
0.78125
 40
0.78125
 40
0.8125
 40
0.8125
 40
0.84375
 40
0.84375
 40
0.8749999999999999
 40
0.8749999999999999
 40
0.9062499999999999
 40
0.9062499999999999
 40
0.9374999999999999
 40
0.9374999999999999
 40
0.96875
 40
0.96875
 40
1.0
 40
1.0
 40
1.03125
 40
1.03125
 10
226.3442669786444
 20
120.1588216112684
 30
0.0
 10
225.7754773507019
 20
120.1588216112684
 30
0.0
 10
225.496608966192
 20
120.1305714827065
 30
0.0
 10
224.9491977271251
 20
120.0206143713097
 30
0.0
 10
224.6778329561076
 20
119.9374204159517
 30
0.0
 10
224.1652799971102
 20
119.7232889688057
 30
0.0
 10
223.9227220816255
 20
119.5927698010448
 30
0.0
 10
223.4636043033563
 20
119.284955189005
 30
0.0
 10
223.2493110011091
 20
119.1085291362512
 30
0.0
 10
222.8621781455779
 20
118.7216734132318
 30
0.0
 10
222.6864636745951
 20
118.5087621796075
 30
0.0
 10
222.3768995295615
 20
118.0478139835889
 30
0.0
 10
222.2463301294491
 20
117.8051097522384
 30
0.0
 10
222.0327066003577
 20
117.2948046867771
 30
0.0
 10
221.9490826831341
 20
117.0235751130088
 30
0.0
 10
221.8381910793856
 20
116.4733340958953
 30
0.0
 10
221.8102244312708
 20
116.1952275074391
 30
0.0
 10
221.8095264475233
 20
115.6329675192578
 30
0.0
 10
221.8377737840906
 20
115.3479405233997
 30
0.0
 10
221.9476685894127
 20
114.7995497394257
 30
0.0
 10
222.0293615059562
 20
114.5317998802473
 30
0.0
 10
222.2453407419886
 20
114.0139456145111
 30
0.0
 10
222.3765466074508
 20
113.7707199397926
 30
0.0
 10
222.6833352592553
 20
113.3131782527912
 30
0.0
 10
222.860923528519
 20
113.0973200530436
 30
0.0
 10
223.2490727737927
 20
112.7092559887378
 30
0.0
 10
223.4602437520101
 20
112.5352994067026
 30
0.0
 10
223.9185369992181
 20
112.2273268526399
 30
0.0
 10
224.1649574477873
 20
112.094635864155
 30
0.0
 10
224.6743206063942
 20
111.8815444197774
 30
0.0
 10
224.9396742808971
 20
111.7993642921953
 30
0.0
 10
225.4940600164684
 20
111.6871703503228
 30
0.0
 10
225.7740193208935
 20
111.6592145985586
 30
0.0
 10
226.3339173813891
 20
111.658436825162
 30
0.0
 10
226.6182146467987
 20
111.6863007403273
 30
0.0
 10
227.1691799554953
 20
111.7965393911259
 30
0.0
 10
227.4353120187388
 20
111.877900168569
 30
0.0
 10
227.9499006565257
 20
112.0920225899219
 30
0.0
 10
228.1963900147676
 20
112.2246235786649
 30
0.0
 10
228.6530729558968
 20
112.5304590902223
 30
0.0
 10
228.8672517541072
 20
112.7061064464688
 30
0.0
 10
229.2581124436932
 20
113.0963451751605
 30
0.0
 10
229.4322557614557
 20
113.3078320681754
 30
0.0
 10
229.7393161091765
 20
113.7641048499257
 30
0.0
 10
229.8732564877679
 20
114.0120334317108
 30
0.0
 10
230.0877584727696
 20
114.5246838714524
 30
0.0
 10
230.169541226415
 20
114.7900177805362
 30
0.0
 10
230.2808973709798
 20
115.3395694558726
 30
0.0
 10
230.3096181291182
 20
115.6246217488418
 30
0.0
 10
230.3101227583596
 20
116.1853721762439
 30
0.0
 10
230.282866812704
 20
116.4648501329635
 30
0.0
 10
230.1716183188768
 20
117.0207546477535
 30
0.0
 10
230.0896203342851
 20
117.287524546941
 30
0.0
 10
229.8758313268286
 20
117.8004208732911
 30
0.0
 10
229.7422910177925
 20
118.0485419918883
 30
0.0
 10
229.4347578907966
 20
118.5066588372426
 30
0.0
 10
229.2605155402809
 20
118.7185498269865
 30
0.0
 10
228.8701910547502
 20
119.1089463588525
 30
0.0
 10
228.6558185622524
 20
119.2850293478536
 30
0.0
 10
228.2003559769235
 20
119.5906751430071
 30
0.0
 10
227.9567340081974
 20
119.7223339639495
 30
0.0
 10
227.4398171601705
 20
119.9383021146176
 30
0.0
 10
227.1740454539005
 20
120.0196374294527
 30
0.0
 10
226.6276132980742
 20
120.1299421751597
 30
0.0
 10
226.3442669786444
 20
120.1588216112684
 30
0.0
 10
225.7754773507019
 20
120.1588216112684
 30
0.0
  0
SPLINE
  5
102
330
1F
100
AcDbEntity
  8
0
  6
HIDDEN
 62
     7
370
     0
100
AcDbSpline
210
0.0
220
0.0
230
1.0
 70
     8
 71
     3
 72
    70
 73
    66
 74
     0
 42
0.00000001
 43
0.00000001
 12
1.0
 22
0.0
 32
0.0
 13
1.0
 23
0.0
 33
0.0
 40
-0.0312500000000001
 40
-0.0312500000000001
 40
0.0
 40
0.0
 40
0.03125
 40
0.03125
 40
0.0625
 40
0.0625
 40
0.09375
 40
0.09375
 40
0.125
 40
0.125
 40
0.15625
 40
0.15625
 40
0.1875
 40
0.1875
 40
0.21875
 40
0.21875
 40
0.25
 40
0.25
 40
0.28125
 40
0.28125
 40
0.3125
 40
0.3125
 40
0.34375
 40
0.34375
 40
0.3749999999999999
 40
0.3749999999999999
 40
0.4062499999999999
 40
0.4062499999999999
 40
0.4374999999999999
 40
0.4374999999999999
 40
0.4687499999999999
 40
0.4687499999999999
 40
0.5
 40
0.5
 40
0.53125
 40
0.53125
 40
0.5625
 40
0.5625
 40
0.59375
 40
0.59375
 40
0.625
 40
0.625
 40
0.65625
 40
0.65625
 40
0.6875
 40
0.6875
 40
0.71875
 40
0.71875
 40
0.7499999999999999
 40
0.7499999999999999
 40
0.7812499999999999
 40
0.7812499999999999
 40
0.8124999999999999
 40
0.8124999999999999
 40
0.8437499999999999
 40
0.8437499999999999
 40
0.8749999999999999
 40
0.8749999999999999
 40
0.9062499999999999
 40
0.9062499999999999
 40
0.9374999999999999
 40
0.9374999999999999
 40
0.9687499999999999
 40
0.9687499999999999
 40
1.0
 40
1.0
 40
1.03125
 40
1.03125
 10
213.3442669786444
 20
120.1588216112684
 30
0.0
 10
212.7754773507018
 20
120.1588216112684
 30
0.0
 10
212.496608966192
 20
120.1305714827065
 30
0.0
 10
211.9491977271251
 20
120.0206143713097
 30
0.0
 10
211.6778329561076
 20
119.9374204159517
 30
0.0
 10
211.1652799971102
 20
119.7232889688057
 30
0.0
 10
210.9227220816255
 20
119.5927698010448
 30
0.0
 10
210.4636043033563
 20
119.284955189005
 30
0.0
 10
210.2493110011091
 20
119.1085291362512
 30
0.0
 10
209.8621781455779
 20
118.7216734132318
 30
0.0
 10
209.6864636745951
 20
118.5087621796075
 30
0.0
 10
209.3768995295616
 20
118.0478139835889
 30
0.0
 10
209.2463301294491
 20
117.8051097522384
 30
0.0
 10
209.0327066003577
 20
117.2948046867771
 30
0.0
 10
208.9490826831342
 20
117.0235751130088
 30
0.0
 10
208.8381910793856
 20
116.4733340958953
 30
0.0
 10
208.8102244312709
 20
116.1952275074391
 30
0.0
 10
208.8095264475233
 20
115.6329675192578
 30
0.0
 10
208.8377737840907
 20
115.3479405233997
 30
0.0
 10
208.9476685894127
 20
114.7995497394257
 30
0.0
 10
209.0293615059563
 20
114.5317998802473
 30
0.0
 10
209.2453407419886
 20
114.0139456145111
 30
0.0
 10
209.3765466074508
 20
113.7707199397926
 30
0.0
 10
209.6833352592553
 20
113.3131782527912
 30
0.0
 10
209.860923528519
 20
113.0973200530436
 30
0.0
 10
210.2490727737927
 20
112.7092559887378
 30
0.0
 10
210.4602437520101
 20
112.5352994067026
 30
0.0
 10
210.9185369992182
 20
112.2273268526399
 30
0.0
 10
211.1649574477873
 20
112.094635864155
 30
0.0
 10
211.6743206063942
 20
111.8815444197774
 30
0.0
 10
211.9396742808971
 20
111.7993642921953
 30
0.0
 10
212.4940600164684
 20
111.6871703503228
 30
0.0
 10
212.7740193208935
 20
111.6592145985586
 30
0.0
 10
213.3339173813891
 20
111.658436825162
 30
0.0
 10
213.6182146467987
 20
111.6863007403273
 30
0.0
 10
214.1691799554953
 20
111.7965393911259
 30
0.0
 10
214.4353120187388
 20
111.877900168569
 30
0.0
 10
214.9499006565257
 20
112.0920225899219
 30
0.0
 10
215.1963900147675
 20
112.2246235786649
 30
0.0
 10
215.6530729558968
 20
112.5304590902223
 30
0.0
 10
215.8672517541072
 20
112.7061064464688
 30
0.0
 10
216.2581124436931
 20
113.0963451751605
 30
0.0
 10
216.4322557614557
 20
113.3078320681754
 30
0.0
 10
216.7393161091765
 20
113.7641048499257
 30
0.0
 10
216.8732564877679
 20
114.0120334317108
 30
0.0
 10
217.0877584727696
 20
114.5246838714524
 30
0.0
 10
217.169541226415
 20
114.7900177805362
 30
0.0
 10
217.2808973709798
 20
115.3395694558726
 30
0.0
 10
217.3096181291182
 20
115.6246217488418
 30
0.0
 10
217.3101227583596
 20
116.1853721762439
 30
0.0
 10
217.282866812704
 20
116.4648501329635
 30
0.0
 10
217.1716183188768
 20
117.0207546477535
 30
0.0
 10
217.0896203342851
 20
117.287524546941
 30
0.0
 10
216.8758313268286
 20
117.8004208732911
 30
0.0
 10
216.7422910177925
 20
118.0485419918883
 30
0.0
 10
216.4347578907966
 20
118.5066588372426
 30
0.0
 10
216.2605155402809
 20
118.7185498269865
 30
0.0
 10
215.8701910547502
 20
119.1089463588525
 30
0.0
 10
215.6558185622524
 20
119.2850293478536
 30
0.0
 10
215.2003559769235
 20
119.5906751430071
 30
0.0
 10
214.9567340081974
 20
119.7223339639495
 30
0.0
 10
214.4398171601705
 20
119.9383021146176
 30
0.0
 10
214.1740454539004
 20
120.0196374294527
 30
0.0
 10
213.6276132980742
 20
120.1299421751597
 30
0.0
 10
213.3442669786444
 20
120.1588216112684
 30
0.0
 10
212.7754773507018
 20
120.1588216112684
 30
0.0
  0
SPLINE
  5
103
330
1F
100
AcDbEntity
  8
0
  6
HIDDEN
 62
     7
370
     0
100
AcDbSpline
210
0.0
220
0.0
230
1.0
 70
     8
 71
     3
 72
    70
 73
    66
 74
     0
 42
0.00000001
 43
0.00000001
 12
1.0
 22
0.0
 32
0.0
 13
1.0
 23
0.0
 33
0.0
 40
-0.03125
 40
-0.03125
 40
0.0
 40
0.0
 40
0.03125
 40
0.03125
 40
0.0625
 40
0.0625
 40
0.09375
 40
0.09375
 40
0.125
 40
0.125
 40
0.15625
 40
0.15625
 40
0.1875
 40
0.1875
 40
0.21875
 40
0.21875
 40
0.25
 40
0.25
 40
0.28125
 40
0.28125
 40
0.3125
 40
0.3125
 40
0.34375
 40
0.34375
 40
0.375
 40
0.375
 40
0.40625
 40
0.40625
 40
0.4375
 40
0.4375
 40
0.46875
 40
0.46875
 40
0.5
 40
0.5
 40
0.53125
 40
0.53125
 40
0.5625
 40
0.5625
 40
0.59375
 40
0.59375
 40
0.625
 40
0.625
 40
0.65625
 40
0.65625
 40
0.6875
 40
0.6875
 40
0.71875
 40
0.71875
 40
0.75
 40
0.75
 40
0.78125
 40
0.78125
 40
0.8125
 40
0.8125
 40
0.84375
 40
0.84375
 40
0.875
 40
0.875
 40
0.90625
 40
0.90625
 40
0.9375
 40
0.9375
 40
0.96875
 40
0.96875
 40
1.0
 40
1.0
 40
1.03125
 40
1.03125
 10
200.3442669786444
 20
120.1588216112684
 30
0.0
 10
199.7754773507018
 20
120.1588216112684
 30
0.0
 10
199.496608966192
 20
120.1305714827065
 30
0.0
 10
198.949197727125
 20
120.0206143713097
 30
0.0
 10
198.6778329561076
 20
119.9374204159517
 30
0.0
 10
198.1652799971102
 20
119.7232889688057
 30
0.0
 10
197.9227220816255
 20
119.5927698010448
 30
0.0
 10
197.4636043033563
 20
119.284955189005
 30
0.0
 10
197.2493110011091
 20
119.1085291362512
 30
0.0
 10
196.8621781455779
 20
118.7216734132318
 30
0.0
 10
196.6864636745951
 20
118.5087621796075
 30
0.0
 10
196.3768995295615
 20
118.0478139835889
 30
0.0
 10
196.2463301294491
 20
117.8051097522384
 30
0.0
 10
196.0327066003577
 20
117.2948046867771
 30
0.0
 10
195.9490826831342
 20
117.0235751130088
 30
0.0
 10
195.8381910793856
 20
116.4733340958953
 30
0.0
 10
195.8102244312708
 20
116.1952275074391
 30
0.0
 10
195.8095264475233
 20
115.6329675192578
 30
0.0
 10
195.8377737840906
 20
115.3479405233997
 30
0.0
 10
195.9476685894127
 20
114.7995497394257
 30
0.0
 10
196.0293615059563
 20
114.5317998802473
 30
0.0
 10
196.2453407419886
 20
114.0139456145111
 30
0.0
 10
196.3765466074508
 20
113.7707199397926
 30
0.0
 10
196.6833352592553
 20
113.3131782527912
 30
0.0
 10
196.860923528519
 20
113.0973200530436
 30
0.0
 10
197.2490727737928
 20
112.7092559887378
 30
0.0
 10
197.4602437520101
 20
112.5352994067026
 30
0.0
 10
197.9185369992181
 20
112.2273268526399
 30
0.0
 10
198.1649574477873
 20
112.094635864155
 30
0.0
 10
198.6743206063942
 20
111.8815444197774
 30
0.0
 10
198.9396742808971
 20
111.7993642921953
 30
0.0
 10
199.4940600164684
 20
111.6871703503228
 30
0.0
 10
199.7740193208935
 20
111.6592145985586
 30
0.0
 10
200.3339173813891
 20
111.658436825162
 30
0.0
 10
200.6182146467987
 20
111.6863007403273
 30
0.0
 10
201.1691799554953
 20
111.7965393911259
 30
0.0
 10
201.4353120187388
 20
111.877900168569
 30
0.0
 10
201.9499006565257
 20
112.0920225899219
 30
0.0
 10
202.1963900147676
 20
112.2246235786649
 30
0.0
 10
202.6530729558968
 20
112.5304590902223
 30
0.0
 10
202.8672517541072
 20
112.7061064464688
 30
0.0
 10
203.2581124436931
 20
113.0963451751605
 30
0.0
 10
203.4322557614557
 20
113.3078320681754
 30
0.0
 10
203.7393161091765
 20
113.7641048499257
 30
0.0
 10
203.8732564877679
 20
114.0120334317108
 30
0.0
 10
204.0877584727696
 20
114.5246838714524
 30
0.0
 10
204.169541226415
 20
114.7900177805362
 30
0.0
 10
204.2808973709799
 20
115.3395694558726
 30
0.0
 10
204.3096181291182
 20
115.6246217488418
 30
0.0
 10
204.3101227583596
 20
116.1853721762439
 30
0.0
 10
204.282866812704
 20
116.4648501329635
 30
0.0
 10
204.1716183188768
 20
117.0207546477535
 30
0.0
 10
204.0896203342851
 20
117.287524546941
 30
0.0
 10
203.8758313268286
 20
117.8004208732911
 30
0.0
 10
203.7422910177925
 20
118.0485419918883
 30
0.0
 10
203.4347578907966
 20
118.5066588372426
 30
0.0
 10
203.2605155402809
 20
118.7185498269865
 30
0.0
 10
202.8701910547502
 20
119.1089463588525
 30
0.0
 10
202.6558185622523
 20
119.2850293478536
 30
0.0
 10
202.2003559769235
 20
119.5906751430071
 30
0.0
 10
201.9567340081974
 20
119.7223339639495
 30
0.0
 10
201.4398171601705
 20
119.9383021146176
 30
0.0
 10
201.1740454539005
 20
120.0196374294527
 30
0.0
 10
200.6276132980742
 20
120.1299421751597
 30
0.0
 10
200.3442669786444
 20
120.1588216112684
 30
0.0
 10
199.7754773507018
 20
120.1588216112684
 30
0.0
  0
SPLINE
  5
104
330
1F
100
AcDbEntity
  8
0
  6
HIDDEN
 62
     7
370
     0
100
AcDbSpline
210
0.0
220
0.0
230
1.0
 70
    11
 71
     3
 72
    72
 73
    68
 74
     0
 42
0.00000001
 43
0.00000001
 12
1.0
 22
0.0
 32
0.0
 13
1.0
 23
0.0
 33
0.0
 40
0.0
 40
0.0
 40
0.0
 40
0.0
 40
0.006917015359488
 40
0.0317738357535766
 40
0.0444046896126021
 40
0.0572289757902468
 40
0.0820579980995867
 40
0.1073695130998857
 40
0.1204381566191281
 40
0.1336771917747878
 40
0.147002415897168
 40
0.1605055271255375
 40
0.1741238103962074
 40
0.1878429647839045
 40
0.2018934255842655
 40
0.2160647673498927
 40
0.2289364935144599
 40
0.2420153370490293
 40
0.2552011552108664
 40
0.2569320576788187
 40
0.2686078624355911
 40
0.2929314035128288
 40
0.3177680380454893
 40
0.3424961197800629
 40
0.3676909923795487
 40
0.3808766628750045
 40
0.3942373481435407
 40
0.4076867460848976
 40
0.4213196532399835
 40
0.4349232677266697
 40
0.448629366248788
 40
0.4626750584235698
 40
0.4768461584927869
 40
0.5023975990982534
 40
0.5153962023647819
 40
0.5286140484449062
 40
0.5524898269158819
 40
0.5768437081306809
 40
0.6017782201183445
 40
0.6144074901796376
 40
0.6271909279532307
 40
0.6406240261694025
 40
0.6542444454592273
 40
0.6679609991487562
 40
0.6818779463434679
 40
0.6953259016629613
 40
0.7088775784661066
 40
0.7227703202269004
 40
0.7367869628943756
 40
0.7568934350283459
 40
0.761927409240473
 40
0.7747042109489375
 40
0.7876822604962092
 40
0.8119093556700397
 40
0.8366186504398003
 40
0.8619685232534441
 40
0.8748122419085473
 40
0.8878172200165249
 40
0.9012993762607903
 40
0.9148732681595314
 40
0.9287426438909238
 40
0.9427184194267736
 40
0.9561001308424543
 40
0.9697041624559679
 40
0.983424971364852
 40
0.9973905365078022
 40
1.0
 40
1.0
 40
1.0
 40
1.0
 10
200.246639193921
 20
106.8542350071576
 30
0.0
 10
200.184399845018
 20
106.8553937527364
 30
0.0
 10
199.8984986655824
 20
106.8607165386185
 30
0.0
 10
199.4975005322179
 20
106.8438819906345
 30
0.0
 10
199.0547270304338
 20
106.8032989644174
 30
0.0
 10
198.6221308210312
 20
106.747666634786
 30
0.0
 10
198.1040545514475
 20
106.6541033677556
 30
0.0
 10
197.627969967599
 20
106.5387013732015
 30
0.0
 10
197.2727866037855
 20
106.4386371724449
 30
0.0
 10
197.0188342428434
 20
106.3606589187674
 30
0.0
 10
196.7827355230727
 20
106.2827079571115
 30
0.0
 10
196.5668430951277
 20
106.2069374108286
 30
0.0
 10
196.373240616346
 20
106.1354206563672
 30
0.0
 10
196.2035095004509
 20
106.0700153356843
 30
0.0
 10
196.0602211020859
 20
106.0128574119382
 30
0.0
 10
195.9502057011681
 20
105.967771209707
 30
0.0
 10
195.871381602754
 20
105.9348565949062
 30
0.0
 10
195.8258813248201
 20
105.9156299595535
 30
0.0
 10
195.8060496967033
 20
105.9071988180487
 30
0.0
 10
195.8150325286573
 20
105.9110124657253
 30
0.0
 10
195.81669830649
 20
105.9117240766077
 30
0.0
 10
195.9067731185869
 20
105.9499194252986
 30
0.0
 10
196.1053522636553
 20
106.0316335346101
 30
0.0
 10
196.4037799645269
 20
106.1481235661133
 30
0.0
 10
196.7280694958866
 20
106.2648967784264
 30
0.0
 10
197.0346597980217
 20
106.3656960748304
 30
0.0
 10
197.2921701898868
 20
106.4443784370617
 30
0.0
 10
197.5720351433874
 20
106.5226227944643
 30
0.0
 10
197.8718563684945
 20
106.5978219025409
 30
0.0
 10
198.1903718717896
 20
106.6676911854612
 30
0.0
 10
198.5271984583428
 20
106.7301622622759
 30
0.0
 10
198.8820021264614
 20
106.7829485108232
 30
0.0
 10
199.3506897796157
 20
106.8343200875904
 30
0.0
 10
199.8249036574617
 20
106.8590518844006
 30
0.0
 10
200.2915751869829
 20
106.8562212291173
 30
0.0
 10
200.7407372259396
 20
106.8359798937768
 30
0.0
 10
201.2814960599694
 20
106.7817844619872
 30
0.0
 10
201.8917161570767
 20
106.6795278789025
 30
0.0
 10
202.3681829016759
 20
106.5700690386737
 30
0.0
 10
202.7245702008463
 20
106.4739318013832
 30
0.0
 10
202.9824010687261
 20
106.397800565759
 30
0.0
 10
203.2272349402159
 20
106.3196197418067
 30
0.0
 10
203.4556888809477
 20
106.2415979815918
 30
0.0
 10
203.662702715766
 20
106.1668024079533
 30
0.0
 10
203.8430489142345
 20
106.0985144864147
 30
0.0
 10
203.9954919363248
 20
106.0385984993777
 30
0.0
 10
204.1203437990901
 20
105.9880518184991
 30
0.0
 10
204.2146103888806
 20
105.949032326957
 30
0.0
 10
204.2959431342893
 20
105.9147784485154
 30
0.0
 10
204.2908080206593
 20
105.9168967038099
 30
0.0
 10
204.3149430242267
 20
105.9066757349811
 30
0.0
 10
204.2844352572201
 20
105.9196278642632
 30
0.0
 10
204.2194916567496
 20
105.9470017896535
 30
0.0
 10
204.0676256728708
 20
106.0100435175013
 30
0.0
 10
203.7937957661149
 20
106.1184891634407
 30
0.0
 10
203.4863542465085
 20
106.2316222056324
 30
0.0
 10
203.1952238340255
 20
106.3300881352654
 30
0.0
 10
202.9512855676945
 20
106.4073501565353
 30
0.0
 10
202.6830837405914
 20
106.4857420380801
 30
0.0
 10
202.3899929668036
 20
106.5633351876224
 30
0.0
 10
202.0754041577499
 20
106.6370233904198
 30
0.0
 10
201.7459998066665
 20
106.7031663084956
 30
0.0
 10
201.4049407575697
 20
106.7595563607926
 30
0.0
 10
201.0547593385674
 20
106.8048346069482
 30
0.0
 10
200.6906411931413
 20
106.8368874114757
 30
0.0
 10
200.4193553347928
 20
106.8521827715455
 30
0.0
 10
200.2701319432273
 20
106.8539558632599
 30
0.0
 10
200.246639193921
 20
106.8542350071576
 30
0.0
  0
SPLINE
  5
105
330
1F
100
AcDbEntity
  8
0
  6
HIDDEN
 62
     7
370
     0
100
AcDbSpline
210
0.0
220
0.0
230
1.0
 70
     8
 71
     3
 72
    70
 73
    66
 74
     0
 42
0.00000001
 43
0.00000001
 12
1.0
 22
0.0
 32
0.0
 13
1.0
 23
0.0
 33
0.0
 40
-0.03125
 40
-0.03125
 40
0.0
 40
0.0
 40
0.03125
 40
0.03125
 40
0.0625
 40
0.0625
 40
0.09375
 40
0.09375
 40
0.125
 40
0.125
 40
0.1562499999999999
 40
0.1562499999999999
 40
0.1874999999999999
 40
0.1874999999999999
 40
0.2187499999999999
 40
0.2187499999999999
 40
0.2499999999999999
 40
0.2499999999999999
 40
0.2812499999999999
 40
0.2812499999999999
 40
0.3124999999999999
 40
0.3124999999999999
 40
0.3437499999999999
 40
0.3437499999999999
 40
0.3749999999999999
 40
0.3749999999999999
 40
0.4062499999999999
 40
0.4062499999999999
 40
0.4374999999999999
 40
0.4374999999999999
 40
0.4687499999999999
 40
0.4687499999999999
 40
0.4999999999999999
 40
0.4999999999999999
 40
0.5312499999999999
 40
0.5312499999999999
 40
0.5624999999999999
 40
0.5624999999999999
 40
0.5937499999999999
 40
0.5937499999999999
 40
0.6249999999999999
 40
0.6249999999999999
 40
0.6562499999999999
 40
0.6562499999999999
 40
0.6874999999999999
 40
0.6874999999999999
 40
0.7187499999999999
 40
0.7187499999999999
 40
0.7499999999999999
 40
0.7499999999999999
 40
0.78125
 40
0.78125
 40
0.8125
 40
0.8125
 40
0.84375
 40
0.84375
 40
0.875
 40
0.875
 40
0.90625
 40
0.90625
 40
0.9375
 40
0.9375
 40
0.96875
 40
0.96875
 40
1.0
 40
1.0
 40
1.03125
 40
1.03125
 10
200.3442669786444
 20
124.9607551063843
 30
0.0
 10
199.7754773507018
 20
124.9607551063843
 30
0.0
 10
199.496608966192
 20
124.9741669280192
 30
0.0
 10
198.949197727125
 20
125.0245672191381
 30
0.0
 10
198.6778329561076
 20
125.0621782602198
 30
0.0
 10
198.1652799971102
 20
125.1534624939788
 30
0.0
 10
197.9227220816255
 20
125.206971164495
 30
0.0
 10
197.4636043033563
 20
125.3231076407241
 30
0.0
 10
197.2493110011091
 20
125.3852662747184
 30
0.0
 10
196.8621781455779
 20
125.5072067069526
 30
0.0
 10
196.6864636745951
 20
125.5678374516547
 30
0.0
 10
196.3768995295616
 20
125.6802590487636
 30
0.0
 10
196.2463301294491
 20
125.7307865911101
 30
0.0
 10
196.0327066003577
 20
125.8156856808528
 30
0.0
 10
195.9490826831342
 20
125.8503282035486
 30
0.0
 10
195.8381910793856
 20
125.8966919722959
 30
0.0
 10
195.8102244312708
 20
125.9086718980585
 30
0.0
 10
195.8095264475233
 20
125.9089685409639
 30
0.0
 10
195.8377737840906
 20
125.8968706445673
 30
0.0
 10
195.9476685894127
 20
125.8509153042815
 30
0.0
 10
196.0293615059563
 20
125.8170352773283
 30
0.0
 10
196.2453407419886
 20
125.7311600221008
 30
0.0
 10
196.3765466074508
 20
125.6804112081524
 30
0.0
 10
196.6833352592554
 20
125.5689498486726
 30
0.0
 10
196.860923528519
 20
125.5076155981563
 30
0.0
 10
197.2490727737928
 20
125.3853276573667
 30
0.0
 10
197.4602437520101
 20
125.3240448991738
 30
0.0
 10
197.9185369992182
 20
125.2079440412618
 30
0.0
 10
198.1649574477874
 20
125.1535715320243
 30
0.0
 10
198.6743206063942
 20
125.0627525938406
 30
0.0
 10
198.9396742808971
 20
125.0256285135228
 30
0.0
 10
199.4940600164684
 20
124.9742211160466
 30
0.0
 10
199.7740193208935
 20
124.9609396187901
 30
0.0
 10
200.3339173813891
 20
124.9605744445381
 30
0.0
 10
200.6182146467987
 20
124.9738088794171
 30
0.0
 10
201.1691799554953
 20
125.0243474665951
 30
0.0
 10
201.4353120187388
 20
125.0611557603191
 30
0.0
 10
201.9499006565257
 20
125.1525001692745
 30
0.0
 10
202.1963900147676
 20
125.2068536647445
 30
0.0
 10
202.6530729558968
 20
125.3222897228254
 30
0.0
 10
202.8672517541072
 20
125.3842885363934
 30
0.0
 10
203.2581124436931
 20
125.5073545289758
 30
0.0
 10
203.4322557614557
 20
125.5674967210417
 30
0.0
 10
203.7393161091765
 20
125.6789465589366
 30
0.0
 10
203.8732564877679
 20
125.7307213386245
 30
0.0
 10
204.0877584727696
 20
125.8159747023216
 30
0.0
 10
204.169541226415
 20
125.8498638841056
 30
0.0
 10
204.2808973709799
 20
125.8964136867175
 30
0.0
 10
204.3096181291182
 20
125.9087136461933
 30
0.0
 10
204.3101227583596
 20
125.9089281135497
 30
0.0
 10
204.282866812704
 20
125.8972464544605
 30
0.0
 10
204.1716183188768
 20
125.8507230132845
 30
0.0
 10
204.0896203342851
 20
125.8167351439223
 30
0.0
 10
203.8758313268286
 20
125.7317246743804
 30
0.0
 10
203.7422910177925
 20
125.6800642902669
 30
0.0
 10
203.4347578907966
 20
125.5683675916168
 30
0.0
 10
203.2605155402809
 20
125.5081607394877
 30
0.0
 10
202.8701910547502
 20
125.38516510149
 30
0.0
 10
202.6558185622523
 20
125.3230607497075
 30
0.0
 10
202.2003559769235
 20
125.2077802522734
 30
0.0
 10
201.9567340081974
 20
125.1538691040039
 30
0.0
 10
201.4398171601705
 20
125.0618029004504
 30
0.0
 10
201.1740454539005
 20
125.0250090744727
 30
0.0
 10
200.6276132980742
 20
124.9744612324099
 30
0.0
 10
200.3442669786444
 20
124.9607551063843
 30
0.0
 10
199.7754773507018
 20
124.9607551063843
 30
0.0
  0
SPLINE
  5
106
330
1F
100
AcDbEntity
  8
0
  6
HIDDEN
 62
     7
370
     0
100
AcDbSpline
210
0.0
220
0.0
230
1.0
 70
    11
 71
     3
 72
    72
 73
    68
 74
     0
 42
0.00000001
 43
0.00000001
 12
1.0
 22
0.0
 32
0.0
 13
1.0
 23
0.0
 33
0.0
 40
0.0
 40
0.0
 40
0.0
 40
0.0
 40
0.0069170153594876
 40
0.0317738357535761
 40
0.0444046896126017
 40
0.0572289757902463
 40
0.0820579980995866
 40
0.1073695130998856
 40
0.1204381566191281
 40
0.1336771917747878
 40
0.1470024158971678
 40
0.1605055271255372
 40
0.174123810396207
 40
0.1878429647839041
 40
0.2018934255842651
 40
0.2160647673498924
 40
0.2289364935144597
 40
0.242015337049029
 40
0.2552011552108662
 40
0.2569320576788184
 40
0.2686078624355909
 40
0.2929314035128285
 40
0.317768038045489
 40
0.3424961197800626
 40
0.3676909923795486
 40
0.3808766628750044
 40
0.3942373481435405
 40
0.4076867460848975
 40
0.4213196532399832
 40
0.4349232677266689
 40
0.4486293662487875
 40
0.4626750584235692
 40
0.4768461584927864
 40
0.502397599098253
 40
0.5153962023647816
 40
0.528614048444906
 40
0.5524898269158816
 40
0.5768437081306804
 40
0.6017782201183444
 40
0.6144074901796374
 40
0.6271909279532305
 40
0.6406240261694021
 40
0.6542444454592269
 40
0.667960999148756
 40
0.6818779463434675
 40
0.695325901662961
 40
0.7088775784661063
 40
0.7227703202269001
 40
0.7367869628943753
 40
0.7568934350283457
 40
0.7619274092404728
 40
0.7747042109489373
 40
0.7876822604962089
 40
0.8119093556700395
 40
0.8366186504398001
 40
0.8619685232534439
 40
0.8748122419085474
 40
0.8878172200165246
 40
0.9012993762607899
 40
0.9148732681595315
 40
0.928742643890924
 40
0.9427184194267736
 40
0.9561001308424542
 40
0.9697041624559678
 40
0.9834249713648519
 40
0.9973905365078022
 40
1.0
 40
1.0
 40
1.0
 40
1.0
 10
226.246639193921
 20
106.8542350071576
 30
0.0
 10
226.184399845018
 20
106.8553937527364
 30
0.0
 10
225.8984986655825
 20
106.8607165386185
 30
0.0
 10
225.4975005322179
 20
106.8438819906345
 30
0.0
 10
225.0547270304338
 20
106.8032989644174
 30
0.0
 10
224.6221308210313
 20
106.747666634786
 30
0.0
 10
224.1040545514475
 20
106.6541033677556
 30
0.0
 10
223.6279699675989
 20
106.5387013732015
 30
0.0
 10
223.2727866037855
 20
106.4386371724449
 30
0.0
 10
223.0188342428434
 20
106.3606589187674
 30
0.0
 10
222.7827355230727
 20
106.2827079571115
 30
0.0
 10
222.5668430951277
 20
106.2069374108286
 30
0.0
 10
222.373240616346
 20
106.1354206563672
 30
0.0
 10
222.2035095004509
 20
106.0700153356843
 30
0.0
 10
222.0602211020859
 20
106.0128574119382
 30
0.0
 10
221.9502057011681
 20
105.967771209707
 30
0.0
 10
221.871381602754
 20
105.9348565949062
 30
0.0
 10
221.8258813248201
 20
105.9156299595535
 30
0.0
 10
221.8060496967033
 20
105.9071988180487
 30
0.0
 10
221.8150325286572
 20
105.9110124657253
 30
0.0
 10
221.81669830649
 20
105.9117240766077
 30
0.0
 10
221.9067731185869
 20
105.9499194252986
 30
0.0
 10
222.1053522636553
 20
106.0316335346101
 30
0.0
 10
222.4037799645269
 20
106.1481235661133
 30
0.0
 10
222.7280694958866
 20
106.2648967784264
 30
0.0
 10
223.0346597980217
 20
106.3656960748305
 30
0.0
 10
223.2921701898868
 20
106.4443784370617
 30
0.0
 10
223.5720351433874
 20
106.5226227944643
 30
0.0
 10
223.8718563684945
 20
106.5978219025409
 30
0.0
 10
224.1903718717895
 20
106.6676911854612
 30
0.0
 10
224.5271984583428
 20
106.7301622622759
 30
0.0
 10
224.8820021264614
 20
106.7829485108232
 30
0.0
 10
225.3506897796157
 20
106.8343200875904
 30
0.0
 10
225.8249036574617
 20
106.8590518844006
 30
0.0
 10
226.291575186983
 20
106.8562212291173
 30
0.0
 10
226.7407372259396
 20
106.8359798937768
 30
0.0
 10
227.2814960599694
 20
106.7817844619872
 30
0.0
 10
227.8917161570767
 20
106.6795278789025
 30
0.0
 10
228.3681829016759
 20
106.5700690386737
 30
0.0
 10
228.7245702008463
 20
106.4739318013832
 30
0.0
 10
228.9824010687261
 20
106.397800565759
 30
0.0
 10
229.227234940216
 20
106.3196197418067
 30
0.0
 10
229.4556888809477
 20
106.2415979815918
 30
0.0
 10
229.662702715766
 20
106.1668024079533
 30
0.0
 10
229.8430489142345
 20
106.0985144864147
 30
0.0
 10
229.9954919363247
 20
106.0385984993777
 30
0.0
 10
230.1203437990901
 20
105.9880518184991
 30
0.0
 10
230.2146103888807
 20
105.949032326957
 30
0.0
 10
230.2959431342893
 20
105.9147784485154
 30
0.0
 10
230.2908080206592
 20
105.9168967038099
 30
0.0
 10
230.3149430242267
 20
105.9066757349811
 30
0.0
 10
230.2844352572201
 20
105.9196278642632
 30
0.0
 10
230.2194916567496
 20
105.9470017896535
 30
0.0
 10
230.0676256728708
 20
106.0100435175013
 30
0.0
 10
229.7937957661149
 20
106.1184891634407
 30
0.0
 10
229.4863542465085
 20
106.2316222056324
 30
0.0
 10
229.1952238340255
 20
106.3300881352654
 30
0.0
 10
228.9512855676944
 20
106.4073501565353
 30
0.0
 10
228.6830837405914
 20
106.4857420380801
 30
0.0
 10
228.3899929668036
 20
106.5633351876224
 30
0.0
 10
228.0754041577498
 20
106.6370233904198
 30
0.0
 10
227.7459998066665
 20
106.7031663084956
 30
0.0
 10
227.4049407575697
 20
106.7595563607927
 30
0.0
 10
227.0547593385674
 20
106.8048346069482
 30
0.0
 10
226.6906411931413
 20
106.8368874114757
 30
0.0
 10
226.4193553347928
 20
106.8521827715455
 30
0.0
 10
226.2701319432274
 20
106.8539558632599
 30
0.0
 10
226.246639193921
 20
106.8542350071576
 30
0.0
  0
SPLINE
  5
107
330
1F
100
AcDbEntity
  8
0
  6
HIDDEN
 62
     7
370
     0
100
AcDbSpline
210
0.0
220
0.0
230
1.0
 70
     8
 71
     3
 72
    70
 73
    66
 74
     0
 42
0.00000001
 43
0.00000001
 12
1.0
 22
0.0
 32
0.0
 13
1.0
 23
0.0
 33
0.0
 40
-0.03125
 40
-0.03125
 40
0.0
 40
0.0
 40
0.03125
 40
0.03125
 40
0.0625
 40
0.0625
 40
0.09375
 40
0.09375
 40
0.125
 40
0.125
 40
0.15625
 40
0.15625
 40
0.1875
 40
0.1875
 40
0.21875
 40
0.21875
 40
0.25
 40
0.25
 40
0.28125
 40
0.28125
 40
0.3125
 40
0.3125
 40
0.34375
 40
0.34375
 40
0.375
 40
0.375
 40
0.40625
 40
0.40625
 40
0.4375
 40
0.4375
 40
0.46875
 40
0.46875
 40
0.5
 40
0.5
 40
0.53125
 40
0.53125
 40
0.5625
 40
0.5625
 40
0.59375
 40
0.59375
 40
0.625
 40
0.625
 40
0.65625
 40
0.65625
 40
0.6875
 40
0.6875
 40
0.71875
 40
0.71875
 40
0.75
 40
0.75
 40
0.78125
 40
0.78125
 40
0.8125
 40
0.8125
 40
0.84375
 40
0.84375
 40
0.875
 40
0.875
 40
0.90625
 40
0.90625
 40
0.9375
 40
0.9375
 40
0.96875
 40
0.96875
 40
1.0
 40
1.0
 40
1.03125
 40
1.03125
 10
226.3442669786444
 20
124.9607551063843
 30
0.0
 10
225.7754773507018
 20
124.9607551063843
 30
0.0
 10
225.496608966192
 20
124.9741669280192
 30
0.0
 10
224.949197727125
 20
125.0245672191381
 30
0.0
 10
224.6778329561076
 20
125.0621782602198
 30
0.0
 10
224.1652799971102
 20
125.1534624939788
 30
0.0
 10
223.9227220816254
 20
125.206971164495
 30
0.0
 10
223.4636043033563
 20
125.3231076407241
 30
0.0
 10
223.2493110011091
 20
125.3852662747184
 30
0.0
 10
222.8621781455778
 20
125.5072067069526
 30
0.0
 10
222.6864636745951
 20
125.5678374516547
 30
0.0
 10
222.3768995295615
 20
125.6802590487636
 30
0.0
 10
222.2463301294491
 20
125.7307865911101
 30
0.0
 10
222.0327066003577
 20
125.8156856808528
 30
0.0
 10
221.9490826831342
 20
125.8503282035486
 30
0.0
 10
221.8381910793856
 20
125.8966919722959
 30
0.0
 10
221.8102244312708
 20
125.9086718980585
 30
0.0
 10
221.8095264475233
 20
125.9089685409639
 30
0.0
 10
221.8377737840906
 20
125.8968706445673
 30
0.0
 10
221.9476685894127
 20
125.8509153042815
 30
0.0
 10
222.0293615059563
 20
125.8170352773283
 30
0.0
 10
222.2453407419886
 20
125.7311600221008
 30
0.0
 10
222.3765466074508
 20
125.6804112081524
 30
0.0
 10
222.6833352592553
 20
125.5689498486726
 30
0.0
 10
222.860923528519
 20
125.5076155981563
 30
0.0
 10
223.2490727737927
 20
125.3853276573667
 30
0.0
 10
223.4602437520101
 20
125.3240448991738
 30
0.0
 10
223.9185369992182
 20
125.2079440412618
 30
0.0
 10
224.1649574477874
 20
125.1535715320243
 30
0.0
 10
224.6743206063942
 20
125.0627525938406
 30
0.0
 10
224.9396742808971
 20
125.0256285135228
 30
0.0
 10
225.4940600164684
 20
124.9742211160466
 30
0.0
 10
225.7740193208935
 20
124.9609396187901
 30
0.0
 10
226.3339173813891
 20
124.9605744445381
 30
0.0
 10
226.6182146467987
 20
124.9738088794171
 30
0.0
 10
227.1691799554953
 20
125.0243474665951
 30
0.0
 10
227.4353120187388
 20
125.061155760319
 30
0.0
 10
227.9499006565256
 20
125.1525001692745
 30
0.0
 10
228.1963900147675
 20
125.2068536647445
 30
0.0
 10
228.6530729558968
 20
125.3222897228254
 30
0.0
 10
228.8672517541072
 20
125.3842885363934
 30
0.0
 10
229.2581124436931
 20
125.5073545289758
 30
0.0
 10
229.4322557614557
 20
125.5674967210417
 30
0.0
 10
229.7393161091765
 20
125.6789465589366
 30
0.0
 10
229.8732564877679
 20
125.7307213386245
 30
0.0
 10
230.0877584727696
 20
125.8159747023216
 30
0.0
 10
230.169541226415
 20
125.8498638841056
 30
0.0
 10
230.2808973709798
 20
125.8964136867175
 30
0.0
 10
230.3096181291182
 20
125.9087136461933
 30
0.0
 10
230.3101227583596
 20
125.9089281135497
 30
0.0
 10
230.282866812704
 20
125.8972464544605
 30
0.0
 10
230.1716183188768
 20
125.8507230132845
 30
0.0
 10
230.0896203342851
 20
125.8167351439224
 30
0.0
 10
229.8758313268286
 20
125.7317246743804
 30
0.0
 10
229.7422910177925
 20
125.6800642902669
 30
0.0
 10
229.4347578907966
 20
125.5683675916168
 30
0.0
 10
229.2605155402809
 20
125.5081607394877
 30
0.0
 10
228.8701910547502
 20
125.38516510149
 30
0.0
 10
228.6558185622524
 20
125.3230607497075
 30
0.0
 10
228.2003559769235
 20
125.2077802522734
 30
0.0
 10
227.9567340081974
 20
125.1538691040039
 30
0.0
 10
227.4398171601705
 20
125.0618029004504
 30
0.0
 10
227.1740454539005
 20
125.0250090744727
 30
0.0
 10
226.6276132980742
 20
124.9744612324099
 30
0.0
 10
226.3442669786444
 20
124.9607551063843
 30
0.0
 10
225.7754773507018
 20
124.9607551063843
 30
0.0
  0
SPLINE
  5
108
330
1F
100
AcDbEntity
  8
0
  6
HIDDEN
 62
     7
370
     0
100
AcDbSpline
210
0.0
220
0.0
230
1.0
 70
    11
 71
     3
 72
    72
 73
    68
 74
     0
 42
0.00000001
 43
0.00000001
 12
1.0
 22
0.0
 32
0.0
 13
1.0
 23
0.0
 33
0.0
 40
0.0
 40
0.0
 40
0.0
 40
0.0
 40
0.0069170153594865
 40
0.0317738357535751
 40
0.0444046896126007
 40
0.0572289757902454
 40
0.0820579980995853
 40
0.1073695130998843
 40
0.1204381566191269
 40
0.1336771917747865
 40
0.1470024158971669
 40
0.1605055271255363
 40
0.1741238103962062
 40
0.1878429647839032
 40
0.2018934255842642
 40
0.2160647673498914
 40
0.2289364935144586
 40
0.2420153370490279
 40
0.255201155210865
 40
0.2569320576788174
 40
0.2686078624355898
 40
0.2929314035128274
 40
0.3177680380454879
 40
0.3424961197800614
 40
0.3676909923795474
 40
0.3808766628750032
 40
0.3942373481435394
 40
0.4076867460848964
 40
0.4213196532399821
 40
0.4349232677266682
 40
0.4486293662487867
 40
0.4626750584235684
 40
0.4768461584927856
 40
0.5023975990982522
 40
0.5153962023647806
 40
0.5286140484449049
 40
0.5524898269158806
 40
0.5768437081306794
 40
0.6017782201183429
 40
0.614407490179636
 40
0.6271909279532292
 40
0.6406240261694008
 40
0.6542444454592258
 40
0.667960999148755
 40
0.6818779463434665
 40
0.69532590166296
 40
0.7088775784661051
 40
0.722770320226899
 40
0.7367869628943742
 40
0.7568934350283444
 40
0.7619274092404715
 40
0.7747042109489359
 40
0.7876822604962075
 40
0.8119093556700382
 40
0.8366186504397989
 40
0.8619685232534426
 40
0.8748122419085462
 40
0.8878172200165237
 40
0.901299376260789
 40
0.9148732681595302
 40
0.9287426438909225
 40
0.9427184194267725
 40
0.956100130842453
 40
0.9697041624559667
 40
0.9834249713648507
 40
0.9973905365078011
 40
1.0
 40
1.0
 40
1.0
 40
1.0
 10
213.2466391939209
 20
106.8542350071576
 30
0.0
 10
213.184399845018
 20
106.8553937527364
 30
0.0
 10
212.8984986655825
 20
106.8607165386185
 30
0.0
 10
212.4975005322179
 20
106.8438819906345
 30
0.0
 10
212.0547270304338
 20
106.8032989644174
 30
0.0
 10
211.6221308210312
 20
106.747666634786
 30
0.0
 10
211.1040545514475
 20
106.6541033677556
 30
0.0
 10
210.627969967599
 20
106.5387013732015
 30
0.0
 10
210.2727866037855
 20
106.4386371724449
 30
0.0
 10
210.0188342428434
 20
106.3606589187674
 30
0.0
 10
209.7827355230727
 20
106.2827079571114
 30
0.0
 10
209.5668430951277
 20
106.2069374108286
 30
0.0
 10
209.373240616346
 20
106.1354206563672
 30
0.0
 10
209.2035095004508
 20
106.0700153356843
 30
0.0
 10
209.0602211020859
 20
106.0128574119382
 30
0.0
 10
208.9502057011681
 20
105.967771209707
 30
0.0
 10
208.871381602754
 20
105.9348565949062
 30
0.0
 10
208.8258813248201
 20
105.9156299595535
 30
0.0
 10
208.8060496967032
 20
105.9071988180487
 30
0.0
 10
208.8150325286573
 20
105.9110124657253
 30
0.0
 10
208.81669830649
 20
105.9117240766077
 30
0.0
 10
208.9067731185869
 20
105.9499194252986
 30
0.0
 10
209.1053522636553
 20
106.0316335346101
 30
0.0
 10
209.4037799645269
 20
106.1481235661133
 30
0.0
 10
209.7280694958866
 20
106.2648967784264
 30
0.0
 10
210.0346597980217
 20
106.3656960748305
 30
0.0
 10
210.2921701898868
 20
106.4443784370617
 30
0.0
 10
210.5720351433874
 20
106.5226227944643
 30
0.0
 10
210.8718563684945
 20
106.5978219025409
 30
0.0
 10
211.1903718717896
 20
106.6676911854612
 30
0.0
 10
211.5271984583428
 20
106.7301622622759
 30
0.0
 10
211.8820021264614
 20
106.7829485108232
 30
0.0
 10
212.3506897796157
 20
106.8343200875904
 30
0.0
 10
212.8249036574617
 20
106.8590518844006
 30
0.0
 10
213.2915751869829
 20
106.8562212291173
 30
0.0
 10
213.7407372259396
 20
106.8359798937768
 30
0.0
 10
214.2814960599694
 20
106.7817844619872
 30
0.0
 10
214.8917161570768
 20
106.6795278789025
 30
0.0
 10
215.3681829016759
 20
106.5700690386737
 30
0.0
 10
215.7245702008463
 20
106.4739318013832
 30
0.0
 10
215.9824010687261
 20
106.397800565759
 30
0.0
 10
216.227234940216
 20
106.3196197418067
 30
0.0
 10
216.4556888809477
 20
106.2415979815918
 30
0.0
 10
216.662702715766
 20
106.1668024079533
 30
0.0
 10
216.8430489142346
 20
106.0985144864147
 30
0.0
 10
216.9954919363247
 20
106.0385984993777
 30
0.0
 10
217.1203437990902
 20
105.9880518184991
 30
0.0
 10
217.2146103888806
 20
105.949032326957
 30
0.0
 10
217.2959431342893
 20
105.9147784485154
 30
0.0
 10
217.2908080206592
 20
105.9168967038099
 30
0.0
 10
217.3149430242268
 20
105.9066757349811
 30
0.0
 10
217.2844352572201
 20
105.9196278642632
 30
0.0
 10
217.2194916567497
 20
105.9470017896535
 30
0.0
 10
217.0676256728708
 20
106.0100435175013
 30
0.0
 10
216.7937957661149
 20
106.1184891634407
 30
0.0
 10
216.4863542465085
 20
106.2316222056324
 30
0.0
 10
216.1952238340255
 20
106.3300881352654
 30
0.0
 10
215.9512855676945
 20
106.4073501565353
 30
0.0
 10
215.6830837405914
 20
106.4857420380801
 30
0.0
 10
215.3899929668036
 20
106.5633351876224
 30
0.0
 10
215.0754041577499
 20
106.6370233904198
 30
0.0
 10
214.7459998066665
 20
106.7031663084956
 30
0.0
 10
214.4049407575697
 20
106.7595563607926
 30
0.0
 10
214.0547593385674
 20
106.8048346069482
 30
0.0
 10
213.6906411931413
 20
106.8368874114757
 30
0.0
 10
213.4193553347927
 20
106.8521827715455
 30
0.0
 10
213.2701319432274
 20
106.8539558632599
 30
0.0
 10
213.2466391939209
 20
106.8542350071576
 30
0.0
  0
SPLINE
  5
109
330
1F
100
AcDbEntity
  8
0
  6
HIDDEN
 62
     7
370
     0
100
AcDbSpline
210
0.0
220
0.0
230
1.0
 70
     8
 71
     3
 72
    70
 73
    66
 74
     0
 42
0.00000001
 43
0.00000001
 12
1.0
 22
0.0
 32
0.0
 13
1.0
 23
0.0
 33
0.0
 40
-0.03125
 40
-0.03125
 40
0.0
 40
0.0
 40
0.03125
 40
0.03125
 40
0.0625
 40
0.0625
 40
0.09375
 40
0.09375
 40
0.125
 40
0.125
 40
0.15625
 40
0.15625
 40
0.1875
 40
0.1875
 40
0.21875
 40
0.21875
 40
0.25
 40
0.25
 40
0.28125
 40
0.28125
 40
0.3125
 40
0.3125
 40
0.34375
 40
0.34375
 40
0.375
 40
0.375
 40
0.40625
 40
0.40625
 40
0.4375
 40
0.4375
 40
0.46875
 40
0.46875
 40
0.5
 40
0.5
 40
0.53125
 40
0.53125
 40
0.5625
 40
0.5625
 40
0.59375
 40
0.59375
 40
0.625
 40
0.625
 40
0.65625
 40
0.65625
 40
0.6875
 40
0.6875
 40
0.71875
 40
0.71875
 40
0.75
 40
0.75
 40
0.78125
 40
0.78125
 40
0.8125
 40
0.8125
 40
0.84375
 40
0.84375
 40
0.875
 40
0.875
 40
0.90625
 40
0.90625
 40
0.9375
 40
0.9375
 40
0.96875
 40
0.96875
 40
1.0
 40
1.0
 40
1.03125
 40
1.03125
 10
213.3442669786444
 20
124.9607551063843
 30
0.0
 10
212.7754773507018
 20
124.9607551063843
 30
0.0
 10
212.4966089661919
 20
124.9741669280192
 30
0.0
 10
211.9491977271251
 20
125.0245672191381
 30
0.0
 10
211.6778329561076
 20
125.0621782602198
 30
0.0
 10
211.1652799971102
 20
125.1534624939788
 30
0.0
 10
210.9227220816255
 20
125.206971164495
 30
0.0
 10
210.4636043033563
 20
125.3231076407241
 30
0.0
 10
210.2493110011091
 20
125.3852662747184
 30
0.0
 10
209.8621781455779
 20
125.5072067069527
 30
0.0
 10
209.6864636745951
 20
125.5678374516547
 30
0.0
 10
209.3768995295616
 20
125.6802590487636
 30
0.0
 10
209.2463301294491
 20
125.7307865911101
 30
0.0
 10
209.0327066003577
 20
125.8156856808528
 30
0.0
 10
208.9490826831342
 20
125.8503282035486
 30
0.0
 10
208.8381910793856
 20
125.8966919722959
 30
0.0
 10
208.8102244312708
 20
125.9086718980585
 30
0.0
 10
208.8095264475233
 20
125.9089685409639
 30
0.0
 10
208.8377737840906
 20
125.8968706445673
 30
0.0
 10
208.9476685894127
 20
125.8509153042815
 30
0.0
 10
209.0293615059563
 20
125.8170352773283
 30
0.0
 10
209.2453407419886
 20
125.7311600221008
 30
0.0
 10
209.3765466074508
 20
125.6804112081524
 30
0.0
 10
209.6833352592553
 20
125.5689498486726
 30
0.0
 10
209.860923528519
 20
125.5076155981563
 30
0.0
 10
210.2490727737928
 20
125.3853276573667
 30
0.0
 10
210.4602437520101
 20
125.3240448991738
 30
0.0
 10
210.9185369992181
 20
125.2079440412618
 30
0.0
 10
211.1649574477873
 20
125.1535715320243
 30
0.0
 10
211.6743206063942
 20
125.0627525938406
 30
0.0
 10
211.9396742808971
 20
125.0256285135228
 30
0.0
 10
212.4940600164684
 20
124.9742211160466
 30
0.0
 10
212.7740193208935
 20
124.9609396187901
 30
0.0
 10
213.3339173813891
 20
124.9605744445381
 30
0.0
 10
213.6182146467987
 20
124.9738088794171
 30
0.0
 10
214.1691799554953
 20
125.0243474665951
 30
0.0
 10
214.4353120187388
 20
125.0611557603191
 30
0.0
 10
214.9499006565257
 20
125.1525001692745
 30
0.0
 10
215.1963900147675
 20
125.2068536647445
 30
0.0
 10
215.6530729558968
 20
125.3222897228254
 30
0.0
 10
215.8672517541072
 20
125.3842885363934
 30
0.0
 10
216.2581124436931
 20
125.5073545289758
 30
0.0
 10
216.4322557614557
 20
125.5674967210417
 30
0.0
 10
216.7393161091765
 20
125.6789465589366
 30
0.0
 10
216.8732564877679
 20
125.7307213386245
 30
0.0
 10
217.0877584727696
 20
125.8159747023216
 30
0.0
 10
217.169541226415
 20
125.8498638841056
 30
0.0
 10
217.2808973709798
 20
125.8964136867175
 30
0.0
 10
217.3096181291182
 20
125.9087136461933
 30
0.0
 10
217.3101227583596
 20
125.9089281135497
 30
0.0
 10
217.282866812704
 20
125.8972464544605
 30
0.0
 10
217.1716183188768
 20
125.8507230132845
 30
0.0
 10
217.0896203342851
 20
125.8167351439223
 30
0.0
 10
216.8758313268286
 20
125.7317246743804
 30
0.0
 10
216.7422910177925
 20
125.6800642902669
 30
0.0
 10
216.4347578907966
 20
125.5683675916168
 30
0.0
 10
216.2605155402809
 20
125.5081607394877
 30
0.0
 10
215.8701910547502
 20
125.38516510149
 30
0.0
 10
215.6558185622524
 20
125.3230607497075
 30
0.0
 10
215.2003559769235
 20
125.2077802522734
 30
0.0
 10
214.9567340081974
 20
125.1538691040039
 30
0.0
 10
214.4398171601705
 20
125.0618029004504
 30
0.0
 10
214.1740454539005
 20
125.0250090744727
 30
0.0
 10
213.6276132980742
 20
124.9744612324099
 30
0.0
 10
213.3442669786444
 20
124.9607551063843
 30
0.0
 10
212.7754773507018
 20
124.9607551063843
 30
0.0
  0
LINE
  5
10A
330
1F
100
AcDbEntity
  8
0
  6
HIDDEN
 62
     7
370
     0
100
AcDbLine
 10
169.3598721647
 20
105.4464827637
 30
0.0
 11
169.3598721647
 21
102.7887228267
 31
0.0
  0
LINE
  5
10B
330
1F
100
AcDbEntity
  8
0
  6
HIDDEN
 62
     7
370
     0
100
AcDbLine
 10
148.5598721647
 20
105.8990402722
 30
0.0
 11
148.5598721647
 21
103.4810272937
 31
0.0
  0
SPLINE
  5
10C
330
1F
100
AcDbEntity
  8
0
  6
HIDDEN
 62
     7
370
     0
100
AcDbSpline
210
0.0
220
0.0
230
1.0
 70
     8
 71
     3
 72
     8
 73
     4
 74
     0
 42
0.00000001
 43
0.00000001
 12
1.0
 22
0.0
 32
0.0
 13
1.0
 23
0.0
 33
0.0
 40
0.0000137050638847
 40
0.0000137050638847
 40
0.0000137050638847
 40
0.0000137050638847
 40
0.0027147143562631
 40
0.0027147143562631
 40
0.0027147143562631
 40
0.0027147143562631
 10
151.2598721646731
 20
103.4176747808485
 30
0.0
 10
150.3598684787633
 20
103.4388293881943
 30
0.0
 10
149.4598683001679
 20
103.4599468963525
 30
0.0
 10
148.5598721646732
 20
103.4810272936832
 30
0.0
  0
SPLINE
  5
10D
330
1F
100
AcDbEntity
  8
0
  6
HIDDEN
 62
     7
370
     0
100
AcDbSpline
210
0.0
220
0.0
230
1.0
 70
     8
 71
     3
 72
    14
 73
    10
 74
     0
 42
0.00000001
 43
0.00000001
 12
1.0
 22
0.0
 32
0.0
 13
1.0
 23
0.0
 33
0.0
 40
0.0
 40
0.0
 40
0.0
 40
0.0
 40
0.0084183905354939
 40
0.0748860102021425
 40
0.143198994538566
 40
0.2919890146519342
 40
0.4448981529985747
 40
0.7218327777854954
 40
1.0
 40
1.0
 40
1.0
 40
1.0
 10
152.9660321456419
 20
103.2007227933269
 30
0.0
 10
152.9667203218938
 20
103.2006634469394
 30
0.0
 10
152.972842011498
 20
103.2001355296183
 30
0.0
 10
152.9477444894394
 20
103.2022892225578
 30
0.0
 10
152.8693218786774
 20
103.2091694112473
 30
0.0
 10
152.68679684521
 20
103.2260772666795
 30
0.0
 10
152.3382014945495
 20
103.2629722215515
 30
0.0
 10
151.8566647728778
 20
103.3222454708846
 30
0.0
 10
151.4590972987809
 20
103.3858179568631
 30
0.0
 10
151.2598721646731
 20
103.4176747808485
 30
0.0
  0
SPLINE
  5
10E
330
1F
100
AcDbEntity
  8
0
  6
HIDDEN
 62
     7
370
     0
100
AcDbSpline
210
0.0
220
0.0
230
1.0
 70
     8
 71
     3
 72
    23
 73
    19
 74
     0
 42
0.00000001
 43
0.00000001
 12
1.0
 22
0.0
 32
0.0
 13
1.0
 23
0.0
 33
0.0
 40
0.0
 40
0.0
 40
0.0
 40
0.0
 40
0.0590948106134016
 40
0.06026291819753
 40
0.1194415379446774
 40
0.1883585608802805
 40
0.2591169998794893
 40
0.3309420782339928
 40
0.4047572750906529
 40
0.4781984551863638
 40
0.5537770961866435
 40
0.6269610455539334
 40
0.7024227944365704
 40
0.772854585704947
 40
0.8456215499863338
 40
0.911347897242383
 40
0.9792299051956388
 40
1.0
 40
1.0
 40
1.0
 40
1.0
 10
157.6273944658955
 20
103.1501336027543
 30
0.0
 10
157.7111865261919
 20
103.1557637214808
 30
0.0
 10
157.7966348764419
 20
103.1615051289029
 30
0.0
 10
158.0001601404484
 20
103.1709266440641
 30
0.0
 10
158.2126271273871
 20
103.1819886386771
 30
0.0
 10
158.589004240541
 20
103.1933773532393
 30
0.0
 10
159.0107219286018
 20
103.1988457540034
 30
0.0
 10
159.4596735374438
 20
103.195525994813
 30
0.0
 10
159.9181123796594
 20
103.1825510575223
 30
0.0
 10
160.3760038364377
 20
103.1599572991149
 30
0.0
 10
160.8113450921225
 20
103.129550639093
 30
0.0
 10
161.215910240747
 20
103.09361591141
 30
0.0
 10
161.5651500424566
 20
103.0566343995885
 30
0.0
 10
161.8553306160432
 20
103.0218246846149
 30
0.0
 10
162.0691884984477
 20
102.9937601118423
 30
0.0
 10
162.2039277725484
 20
102.9750949219837
 30
0.0
 10
162.2630069287003
 20
102.9666525182297
 30
0.0
 10
162.2546198024138
 20
102.9678486089201
 30
0.0
 10
162.2526548021184
 20
102.9681288382238
 30
0.0
  0
SPLINE
  5
10F
330
1F
100
AcDbEntity
  8
0
  6
HIDDEN
 62
     7
370
     0
100
AcDbSpline
210
0.0
220
0.0
230
1.0
 70
     8
 71
     3
 72
    12
 73
     8
 74
     0
 42
0.00000001
 43
0.00000001
 12
1.0
 22
0.0
 32
0.0
 13
1.0
 23
0.0
 33
0.0
 40
0.0
 40
0.0
 40
0.0
 40
0.0
 40
0.2240090663408064
 40
0.4414367675223425
 40
0.664933354282931
 40
0.831251878563374
 40
0.9999999999999999
 40
0.9999999999999999
 40
0.9999999999999999
 40
0.9999999999999999
 10
156.9930801585602
 20
103.0995222283672
 30
0.0
 10
156.9992769033967
 20
103.1001090259285
 30
0.0
 10
157.011488333293
 20
103.1012653809943
 30
0.0
 10
157.114198997601
 20
103.1107132913066
 30
0.0
 10
157.2600081074903
 20
103.1231891574551
 30
0.0
 10
157.4343730993341
 20
103.1369568490025
 30
0.0
 10
157.5627437348572
 20
103.1457201703041
 30
0.0
 10
157.6273944658955
 20
103.1501336027543
 30
0.0
  0
LINE
  5
110
330
1F
100
AcDbEntity
  8
0
  6
HIDDEN
 62
     7
370
     0
100
AcDbLine
 10
154.9869041967
 20
106.9088216113
 30
0.0
 11
154.9869041967
 21
124.9088216113
 31
0.0
  0
LINE
  5
111
330
1F
100
AcDbEntity
  8
0
  6
HIDDEN
 62
     7
370
     0
100
AcDbLine
 10
150.1869041967
 20
106.9088216113
 30
0.0
 11
150.1869041967
 21
124.9088216113
 31
0.0
  0
LINE
  5
112
330
1F
100
AcDbEntity
  8
0
  6
HIDDEN
 62
     7
370
     0
100
AcDbLine
 10
151.1869041967
 20
106.9088216113
 30
0.0
 11
151.1869041967
 21
124.9088216113
 31
0.0
  0
LINE
  5
113
330
1F
100
AcDbEntity
  8
0
  6
HIDDEN
 62
     7
370
     0
100
AcDbLine
 10
170.8598721647
 20
104.6561166742
 30
0.0
 11
170.8598721647
 21
102.7720199364
 31
0.0
  0
SPLINE
  5
114
330
1F
100
AcDbEntity
  8
0
  6
HIDDEN
 62
     7
370
     0
100
AcDbSpline
210
0.0
220
0.0
230
1.0
 70
    11
 71
     3
 72
    60
 73
    56
 74
     0
 42
0.00000001
 43
0.00000001
 12
1.0
 22
0.0
 32
0.0
 13
1.0
 23
0.0
 33
0.0
 40
0.0
 40
0.0
 40
0.0
 40
0.0
 40
0.0624999999999999
 40
0.0624999999999999
 40
0.1249999999999998
 40
0.1249999999999998
 40
0.1874999999999996
 40
0.1874999999999996
 40
0.2187499999999996
 40
0.2187499999999996
 40
0.2499999999999995
 40
0.2499999999999995
 40
0.3124999999999998
 40
0.3124999999999998
 40
0.3750000000000001
 40
0.3750000000000001
 40
0.4062500000000001
 40
0.4062500000000001
 40
0.4375000000000001
 40
0.4375000000000001
 40
0.4687500000000001
 40
0.4687500000000001
 40
0.5000000000000001
 40
0.5000000000000001
 40
0.5312500000000001
 40
0.5312500000000001
 40
0.5625000000000002
 40
0.5625000000000002
 40
0.5937500000000002
 40
0.5937500000000002
 40
0.6250000000000003
 40
0.6250000000000003
 40
0.6562500000000003
 40
0.6562500000000003
 40
0.6875000000000004
 40
0.6875000000000004
 40
0.7187500000000003
 40
0.7187500000000003
 40
0.7500000000000002
 40
0.7500000000000002
 40
0.7812500000000002
 40
0.7812500000000002
 40
0.8125000000000001
 40
0.8125000000000001
 40
0.8437500000000001
 40
0.8437500000000001
 40
0.875
 40
0.875
 40
0.90625
 40
0.90625
 40
0.9375
 40
0.9375
 40
0.9687500000000001
 40
0.9687500000000001
 40
1.0
 40
1.0
 40
1.0
 40
1.0
 10
161.5598721646731
 20
106.9807759124606
 30
0.0
 10
161.4346822630944
 20
107.0088201017047
 30
0.0
 10
161.2778149445263
 20
107.0416431881243
 30
0.0
 10
160.9007774247074
 20
107.1069154137786
 30
0.0
 10
160.6890641182864
 20
107.1377680387472
 30
0.0
 10
160.2231741363377
 20
107.1855036754399
 30
0.0
 10
159.9773349052861
 20
107.2013365902165
 30
0.0
 10
159.5978538521915
 20
107.2085085323271
 30
0.0
 10
159.4701081234976
 20
107.2081099267378
 30
0.0
 10
159.2196418768295
 20
107.201923031234
 30
0.0
 10
159.0958124940212
 20
107.1961620992413
 30
0.0
 10
158.7285928199226
 20
107.1714671531173
 30
0.0
 10
158.4978238018369
 20
107.1455578200101
 30
0.0
 10
158.0779348404174
 20
107.0848211702441
 30
0.0
 10
157.8936764655298
 20
107.0508570754463
 30
0.0
 10
157.6629280780465
 20
107.0036136535452
 30
0.0
 10
157.5938812282575
 20
106.9885196779785
 30
0.0
 10
157.475316564452
 20
106.961641146485
 30
0.0
 10
157.4251081957024
 20
106.9497121911926
 30
0.0
 10
157.3432763433445
 20
106.9298616808084
 30
0.0
 10
157.3119254444619
 20
106.9220055260029
 30
0.0
 10
157.2705310664233
 20
106.9115619419238
 30
0.0
 10
157.260025291359
 20
106.9088607436176
 30
0.0
 10
157.2597223390232
 20
106.908783322517
 30
0.0
 10
157.2702068686398
 20
106.9114791711632
 30
0.0
 10
157.3113469461013
 20
106.9218605300567
 30
0.0
 10
157.3419250666498
 20
106.92952682049
 30
0.0
 10
157.4232077750011
 20
106.9492579877339
 30
0.0
 10
157.474208661563
 20
106.96138295429
 30
0.0
 10
157.5927757099261
 20
106.9882759589855
 30
0.0
 10
157.6606644631979
 20
107.0031283421521
 30
0.0
 10
157.8138149009355
 20
107.0345273475823
 30
0.0
 10
157.899371072508
 20
107.0511028932076
 30
0.0
 10
158.0820824434672
 20
107.083529578066
 30
0.0
 10
158.1798897431491
 20
107.0995264567812
 30
0.0
 10
158.388692855066
 20
107.1298130903471
 30
0.0
 10
158.5002750303539
 20
107.1441294424759
 30
0.0
 10
158.7289208298529
 20
107.1688237366992
 30
0.0
 10
158.8468756408241
 20
107.1793525603475
 30
0.0
 10
159.0902040858128
 20
107.1958511664508
 30
0.0
 10
159.2165479611559
 20
107.2018061740872
 30
0.0
 10
159.4676539421737
 20
107.2080888538995
 30
0.0
 10
159.5933359358966
 20
107.2085172080076
 30
0.0
 10
159.8449580056885
 20
107.2039120297643
 30
0.0
 10
159.9718556259742
 20
107.1987838796483
 30
0.0
 10
160.2170461922354
 20
107.183748281126
 30
0.0
 10
160.3362353492689
 20
107.1738654045071
 30
0.0
 10
160.5679203736237
 20
107.1502326078267
 30
0.0
 10
160.6810951779742
 20
107.136358099659
 30
0.0
 10
160.8931735949099
 20
107.1067384646017
 30
0.0
 10
160.9929623736107
 20
107.0909282705148
 30
0.0
 10
161.1802205605997
 20
107.0585660021837
 30
0.0
 10
161.2681155975431
 20
107.0419117472017
 30
0.0
 10
161.426336673175
 20
107.010075369632
 30
0.0
 10
161.4972746294666
 20
106.9947985860262
 30
0.0
 10
161.5598721646731
 20
106.9807759124606
 30
0.0
  0
SPLINE
  5
115
330
1F
100
AcDbEntity
  8
0
  6
HIDDEN
 62
     7
370
     0
100
AcDbSpline
210
0.0
220
0.0
230
1.0
 70
    11
 71
     3
 72
    60
 73
    56
 74
     0
 42
0.00000001
 43
0.00000001
 12
1.0
 22
0.0
 32
0.0
 13
1.0
 23
0.0
 33
0.0
 40
0.0
 40
0.0
 40
0.0
 40
0.0
 40
0.0624999999999999
 40
0.0624999999999999
 40
0.1249999999999998
 40
0.1249999999999998
 40
0.1874999999999996
 40
0.1874999999999996
 40
0.2187499999999996
 40
0.2187499999999996
 40
0.2499999999999995
 40
0.2499999999999995
 40
0.3124999999999998
 40
0.3124999999999998
 40
0.3750000000000001
 40
0.3750000000000001
 40
0.4062500000000001
 40
0.4062500000000001
 40
0.4375000000000001
 40
0.4375000000000001
 40
0.4687500000000001
 40
0.4687500000000001
 40
0.5000000000000001
 40
0.5000000000000001
 40
0.5312500000000001
 40
0.5312500000000001
 40
0.5625000000000002
 40
0.5625000000000002
 40
0.5937500000000002
 40
0.5937500000000002
 40
0.6250000000000003
 40
0.6250000000000003
 40
0.6562500000000003
 40
0.6562500000000003
 40
0.6875000000000004
 40
0.6875000000000004
 40
0.7187500000000003
 40
0.7187500000000003
 40
0.7500000000000002
 40
0.7500000000000002
 40
0.7812500000000002
 40
0.7812500000000002
 40
0.8125000000000001
 40
0.8125000000000001
 40
0.8437500000000001
 40
0.8437500000000001
 40
0.875
 40
0.875
 40
0.90625
 40
0.90625
 40
0.9375
 40
0.9375
 40
0.9687500000000001
 40
0.9687500000000001
 40
1.0
 40
1.0
 40
1.0
 40
1.0
 10
161.5598721646731
 20
124.8368673100762
 30
0.0
 10
161.4346822630944
 20
124.8088231208321
 30
0.0
 10
161.2778149445263
 20
124.7760000344125
 30
0.0
 10
160.9007774247074
 20
124.7107278087583
 30
0.0
 10
160.6890641182864
 20
124.6798751837896
 30
0.0
 10
160.2231741363377
 20
124.6321395470969
 30
0.0
 10
159.9773349052861
 20
124.6163066323203
 30
0.0
 10
159.5978538521915
 20
124.6091346902097
 30
0.0
 10
159.4701081234976
 20
124.609533295799
 30
0.0
 10
159.2196418768295
 20
124.6157201913028
 30
0.0
 10
159.0958124940212
 20
124.6214811232955
 30
0.0
 10
158.7285928199226
 20
124.6461760694195
 30
0.0
 10
158.4978238018369
 20
124.6720854025267
 30
0.0
 10
158.0779348404174
 20
124.7328220522928
 30
0.0
 10
157.8936764655298
 20
124.7667861470905
 30
0.0
 10
157.6629280780465
 20
124.8140295689916
 30
0.0
 10
157.5938812282575
 20
124.8291235445584
 30
0.0
 10
157.475316564452
 20
124.8560020760518
 30
0.0
 10
157.4251081957024
 20
124.8679310313442
 30
0.0
 10
157.3432763433445
 20
124.8877815417285
 30
0.0
 10
157.3119254444619
 20
124.8956376965339
 30
0.0
 10
157.2705310664233
 20
124.906081280613
 30
0.0
 10
157.260025291359
 20
124.9087824789192
 30
0.0
 10
157.2597223390232
 20
124.9088599000198
 30
0.0
 10
157.2702068686398
 20
124.9061640513737
 30
0.0
 10
157.3113469461013
 20
124.8957826924801
 30
0.0
 10
157.3419250666498
 20
124.8881164020469
 30
0.0
 10
157.4232077750011
 20
124.868385234803
 30
0.0
 10
157.474208661563
 20
124.8562602682468
 30
0.0
 10
157.5927757099261
 20
124.8293672635514
 30
0.0
 10
157.6606644631979
 20
124.8145148803847
 30
0.0
 10
157.8138149009355
 20
124.7831158749545
 30
0.0
 10
157.899371072508
 20
124.7665403293292
 30
0.0
 10
158.0820824434672
 20
124.7341136444708
 30
0.0
 10
158.1798897431491
 20
124.7181167657556
 30
0.0
 10
158.388692855066
 20
124.6878301321897
 30
0.0
 10
158.5002750303539
 20
124.6735137800609
 30
0.0
 10
158.7289208298529
 20
124.6488194858376
 30
0.0
 10
158.8468756408241
 20
124.6382906621894
 30
0.0
 10
159.0902040858128
 20
124.6217920560861
 30
0.0
 10
159.2165479611559
 20
124.6158370484496
 30
0.0
 10
159.4676539421737
 20
124.6095543686373
 30
0.0
 10
159.5933359358966
 20
124.6091260145292
 30
0.0
 10
159.8449580056885
 20
124.6137311927725
 30
0.0
 10
159.9718556259742
 20
124.6188593428885
 30
0.0
 10
160.2170461922354
 20
124.6338949414108
 30
0.0
 10
160.3362353492689
 20
124.6437778180297
 30
0.0
 10
160.5679203736237
 20
124.6674106147101
 30
0.0
 10
160.6810951779742
 20
124.6812851228778
 30
0.0
 10
160.8931735949099
 20
124.7109047579351
 30
0.0
 10
160.9929623736107
 20
124.726714952022
 30
0.0
 10
161.1802205605997
 20
124.7590772203532
 30
0.0
 10
161.2681155975431
 20
124.7757314753351
 30
0.0
 10
161.426336673175
 20
124.8075678529048
 30
0.0
 10
161.4972746294666
 20
124.8228446365106
 30
0.0
 10
161.5598721646731
 20
124.8368673100762
 30
0.0
  0
SPLINE
  5
116
330
1F
100
AcDbEntity
  8
0
  6
HIDDEN
 62
     7
370
     0
100
AcDbSpline
210
0.0
220
0.0
230
1.0
 70
    11
 71
     3
 72
    14
 73
    10
 74
     0
 42
0.00000001
 43
0.00000001
 12
1.0
 22
0.0
 32
0.0
 13
1.0
 23
0.0
 33
0.0
 40
0.0
 40
0.0
 40
0.0
 40
0.0
 40
0.2500000000000001
 40
0.2500000000000001
 40
0.5000000000000001
 40
0.5000000000000001
 40
0.75
 40
0.75
 40
1.0
 40
1.0
 40
1.0
 40
1.0
 10
161.5598721646731
 20
106.9807759124606
 30
0.0
 10
161.6580965111761
 20
106.9587723632369
 30
0.0
 10
161.7334113491602
 20
106.9682668333002
 30
0.0
 10
161.8343780593545
 20
106.9938244943276
 30
0.0
 10
161.8597536456447
 20
107.0087633506906
 30
0.0
 10
161.859989870911
 20
107.0088794723006
 30
0.0
 10
161.8342868015755
 20
106.9938325791397
 30
0.0
 10
161.733966688059
 20
106.9683763650582
 30
0.0
 10
161.6580748599714
 20
106.9587772133878
 30
0.0
 10
161.5598721646777
 20
106.9807759124543
 30
0.0
  0
SPLINE
  5
117
330
1F
100
AcDbEntity
  8
0
  6
HIDDEN
 62
     7
370
     0
100
AcDbSpline
210
0.0
220
0.0
230
1.0
 70
    11
 71
     3
 72
    14
 73
    10
 74
     0
 42
0.00000001
 43
0.00000001
 12
1.0
 22
0.0
 32
0.0
 13
1.0
 23
0.0
 33
0.0
 40
0.0
 40
0.0
 40
0.0
 40
0.0
 40
0.2500000000000001
 40
0.2500000000000001
 40
0.5000000000000001
 40
0.5000000000000001
 40
0.75
 40
0.75
 40
1.0
 40
1.0
 40
1.0
 40
1.0
 10
161.5598721646731
 20
124.8368673100762
 30
0.0
 10
161.6580965111761
 20
124.8588708593
 30
0.0
 10
161.7334113491602
 20
124.8493763892366
 30
0.0
 10
161.8343780593545
 20
124.8238187282092
 30
0.0
 10
161.8597536456447
 20
124.8088798718463
 30
0.0
 10
161.859989870911
 20
124.8087637502362
 30
0.0
 10
161.8342868015755
 20
124.8238106433971
 30
0.0
 10
161.733966688059
 20
124.8492668574786
 30
0.0
 10
161.6580748599714
 20
124.858866009149
 30
0.0
 10
161.5598721646777
 20
124.8368673100826
 30
0.0
  0
LINE
  5
118
330
1F
100
AcDbEntity
  8
0
  6
HIDDEN
 62
     7
370
     0
100
AcDbLine
 10
162.0598721647
 20
107.4088216113
 30
0.0
 11
162.0598721647
 21
124.4088216113
 31
0.0
  0
LINE
  5
119
330
1F
100
AcDbEntity
  8
0
  6
HIDDEN
 62
     7
370
     0
100
AcDbLine
 10
162.9598721647
 20
109.6588216113
 30
0.0
 11
162.9598721647
 21
122.1588216113
 31
0.0
  0
LINE
  5
11A
330
1F
100
AcDbEntity
  8
0
  6
HIDDEN
 62
     7
370
     0
100
AcDbLine
 10
162.0598721647
 20
108.772930503
 30
0.0
 11
162.0598721647
 21
123.0447127195
 31
0.0
  0
LINE
  5
11B
330
1F
100
AcDbEntity
  8
0
  6
HIDDEN
 62
     7
370
     0
100
AcDbLine
 10
177.0598721647
 20
122.1588216113
 30
0.0
 11
177.0598721647
 21
109.6727786199
 31
0.0
  0
LINE
  5
11C
330
1F
100
AcDbEntity
  8
0
  6
HIDDEN
 62
     7
370
     0
100
AcDbLine
 10
195.8098721647
 20
95.1588216113
 30
0.0
 11
204.3098721647
 21
95.1588216113
 31
0.0
  0
LINE
  5
11D
330
1F
100
AcDbEntity
  8
0
  6
HIDDEN
 62
     7
370
     0
100
AcDbLine
 10
221.8098721647
 20
95.1588216113
 30
0.0
 11
230.3098721647
 21
95.1588216113
 31
0.0
  0
LINE
  5
11E
330
1F
100
AcDbEntity
  8
0
  6
HIDDEN
 62
     7
370
     0
100
AcDbLine
 10
208.8098721647
 20
95.1588216113
 30
0.0
 11
217.3098721647
 21
95.1588216113
 31
0.0
  0
LINE
  5
11F
330
1F
100
AcDbEntity
  8
0
  6
HIDDEN
 62
     7
370
     0
100
AcDbLine
 10
221.8098721647
 20
136.6588216113
 30
0.0
 11
230.3098721647
 21
136.6588216113
 31
0.0
  0
LINE
  5
120
330
1F
100
AcDbEntity
  8
0
  6
HIDDEN
 62
     7
370
     0
100
AcDbLine
 10
195.8098721647
 20
136.6588216113
 30
0.0
 11
204.3098721647
 21
136.6588216113
 31
0.0
  0
LINE
  5
121
330
1F
100
AcDbEntity
  8
0
  6
HIDDEN
 62
     7
370
     0
100
AcDbLine
 10
208.8098721647
 20
136.6588216113
 30
0.0
 11
217.3098721647
 21
136.6588216113
 31
0.0
  0
SPLINE
  5
122
330
1F
100
AcDbEntity
  8
0
  6
HIDDEN
 62
     7
370
     0
100
AcDbSpline
210
0.0
220
0.0
230
1.0
 70
     8
 71
     3
 72
    12
 73
     8
 74
     0
 42
0.00000001
 43
0.00000001
 12
1.0
 22
0.0
 32
0.0
 13
1.0
 23
0.0
 33
0.0
 40
0.0
 40
0.0
 40
0.0
 40
0.0
 40
0.2090140355332696
 40
0.4194389151855981
 40
0.6343768665132024
 40
0.850901063025027
 40
1.0
 40
1.0
 40
1.0
 40
1.0
 10
169.3598721646731
 20
130.2815376261656
 30
0.0
 10
169.3284135838485
 20
130.3513510090489
 30
0.0
 10
169.265284076872
 20
130.4914490149427
 30
0.0
 10
169.1958604898531
 20
130.6467123770839
 30
0.0
 10
169.1467381202212
 20
130.7568996934658
 30
0.0
 10
169.1202771013805
 20
130.8164372909225
 30
0.0
 10
169.1198192969596
 20
130.8174682175361
 30
0.0
 10
169.1196326070425
 20
130.8178886232711
 30
0.0
  0
LINE
  5
123
330
1F
100
AcDbEntity
  8
0
  6
HIDDEN
 62
     7
370
     0
100
AcDbLine
 10
148.5598721647
 20
129.2774486772
 30
0.0
 11
148.5598721647
 21
130.3063519971
 31
0.0
  0
LINE
  5
124
330
1F
100
AcDbEntity
  8
0
  6
HIDDEN
 62
     7
370
     0
100
AcDbLine
 10
169.3598721647
 20
129.7300061857
 30
0.0
 11
169.3598721647
 21
130.2815376262
 31
0.0
  0
LINE
  5
125
330
1F
100
AcDbEntity
  8
0
  6
HIDDEN
 62
     7
370
     0
100
AcDbLine
 10
147.0598721647
 20
128.5274486772
 30
0.0
 11
147.0598721647
 21
129.4403265933
 31
0.0
  0
SPLINE
  5
126
330
1F
100
AcDbEntity
  8
0
  6
HIDDEN
 62
     7
370
     0
100
AcDbSpline
210
0.0
220
0.0
230
1.0
 70
     8
 71
     3
 72
    24
 73
    20
 74
     0
 42
0.00000001
 43
0.00000001
 12
1.0
 22
0.0
 32
0.0
 13
1.0
 23
0.0
 33
0.0
 40
0.0
 40
0.0
 40
0.0
 40
0.0
 40
0.2500000000000043
 40
0.2500000000000043
 40
0.375000000000006
 40
0.375000000000006
 40
0.4375000000000064
 40
0.4375000000000064
 40
0.5000000000000068
 40
0.5000000000000068
 40
0.5312500000000062
 40
0.5312500000000062
 40
0.5625000000000056
 40
0.5625000000000056
 40
0.6250000000000043
 40
0.6250000000000043
 40
0.7500000000000031
 40
0.7500000000000031
 40
1.0
 40
1.0
 40
1.0
 40
1.0
 10
169.564832186734
 20
130.072192657173
 30
0.0
 10
169.5490631418242
 20
130.1066236852237
 30
0.0
 10
169.5324489772636
 20
130.1409642368947
 30
0.0
 10
169.5039168497702
 20
130.1945130201409
 30
0.0
 10
169.4938292162163
 20
130.2126898796796
 30
0.0
 10
169.4763413933674
 20
130.2417674843868
 30
0.0
 10
169.4701315854411
 20
130.2517516851878
 30
0.0
 10
169.4558537258587
 20
130.2732709134441
 30
0.0
 10
169.4482825635069
 20
130.2844545248823
 30
0.0
 10
169.4308627383325
 20
130.3059902983752
 30
0.0
 10
169.4223786558778
 20
130.3156951580619
 30
0.0
 10
169.4063425822604
 20
130.3301767459207
 30
0.0
 10
169.4015222099825
 20
130.333024483269
 30
0.0
 10
169.3901153093767
 20
130.3388678020128
 30
0.0
 10
169.3860943476673
 20
130.3389115762909
 30
0.0
 10
169.375340335888
 20
130.3374749864386
 30
0.0
 10
169.3714684502654
 20
130.3329598281701
 30
0.0
 10
169.3623004854645
 20
130.3162877891452
 30
0.0
 10
169.3602721509513
 20
130.3001036141002
 30
0.0
 10
169.3598721646731
 20
130.2815376261656
 30
0.0
  0
SPLINE
  5
127
330
1F
100
AcDbEntity
  8
0
  6
HIDDEN
 62
     7
370
     0
100
AcDbSpline
210
0.0
220
0.0
230
1.0
 70
     8
 71
     3
 72
     8
 73
     4
 74
     0
 42
0.00000001
 43
0.00000001
 12
1.0
 22
0.0
 32
0.0
 13
1.0
 23
0.0
 33
0.0
 40
0.0
 40
0.0
 40
0.0
 40
0.0
 40
1.0
 40
1.0
 40
1.0
 40
1.0
 10
169.7385518211135
 20
129.6951281221774
 30
0.0
 10
169.6734465824433
 20
129.8356000370022
 30
0.0
 10
169.6155592694562
 20
129.961432264382
 30
0.0
 10
169.5648321867338
 20
130.0721926571731
 30
0.0
  0
LINE
  5
128
330
1F
100
AcDbEntity
  8
0
  6
HIDDEN
 62
     7
370
     0
100
AcDbLine
 10
157.2598721647
 20
103.3670995397
 30
0.0
 11
161.8598721647
 21
103.3670995397
 31
0.0
  0
LINE
  5
129
330
1F
100
AcDbEntity
  8
0
  6
HIDDEN
 62
     7
370
     0
100
AcDbLine
 10
151.2598721647
 20
103.4176747808
 30
0.0
 11
151.2598721647
 21
104.9088216113
 31
0.0
  0
SPLINE
  5
12A
330
1F
100
AcDbEntity
  8
0
  6
HIDDEN
 62
     7
370
     0
100
AcDbSpline
210
0.0
220
0.0
230
1.0
 70
     8
 71
     3
 72
    10
 73
     6
 74
     0
 42
0.00000001
 43
0.00000001
 12
1.0
 22
0.0
 32
0.0
 13
1.0
 23
0.0
 33
0.0
 40
0.0
 40
0.0
 40
0.0
 40
0.0
 40
0.5
 40
0.5
 40
1.0
 40
1.0
 40
1.0
 40
1.0
 10
148.5598721646731
 20
103.4810272936831
 30
0.0
 10
148.2996550421351
 20
103.6210935697994
 30
0.0
 10
148.0436204728849
 20
103.7572698235539
 30
0.0
 10
147.5423568841522
 20
104.0208985416034
 30
0.0
 10
147.2970141253889
 20
104.148404738065
 30
0.0
 10
147.0598721646731
 20
104.2703272419575
 30
0.0
  0
LINE
  5
12B
330
1F
100
AcDbEntity
  8
0
  6
HIDDEN
 62
     7
370
     0
100
AcDbLine
 10
147.0598721647
 20
104.270327242
 30
0.0
 11
147.0598721647
 21
104.9088216113
 31
0.0
  0
LINE
  5
12C
330
1F
100
AcDbEntity
  8
0
  6
HIDDEN
 62
     7
370
     0
100
AcDbLine
 10
157.2598721647
 20
126.9088216113
 30
0.0
 11
161.8598721647
 21
126.9088216113
 31
0.0
  0
LINE
  5
12D
330
1F
100
AcDbEntity
  8
0
  6
HIDDEN
 62
     7
370
     0
100
AcDbLine
 10
181.0598721647
 20
96.4088216113
 30
0.0
 11
185.0598721647
 21
96.4088216113
 31
0.0
  0
LINE
  5
12E
330
1F
100
AcDbEntity
  8
0
  6
HIDDEN
 62
     7
370
     0
100
AcDbLine
 10
147.0598721647
 20
106.6490402722
 30
0.0
 11
147.0598721647
 21
104.270327242
 31
0.0
  0
LINE
  5
12F
330
1F
100
AcDbEntity
  8
0
  6
HIDDEN
 62
     7
370
     0
100
AcDbLine
 10
147.0598721647
 20
128.5274486772
 30
0.0
 11
147.0598721647
 21
112.5499758845
 31
0.0
  0
LINE
  5
130
330
1F
100
AcDbEntity
  8
0
  6
HIDDEN
 62
     7
370
     0
100
AcDbLine
 10
148.5598721647
 20
129.2774486772
 30
0.0
 11
148.5598721647
 21
112.5499758845
 31
0.0
  0
LINE
  5
131
330
1F
100
AcDbEntity
  8
0
  6
HIDDEN
 62
     7
370
     0
100
AcDbLine
 10
169.3598721647
 20
129.7300061857
 30
0.0
 11
169.3598721647
 21
112.5499758845
 31
0.0
  0
LINE
  5
132
330
1F
100
AcDbEntity
  8
0
  6
HIDDEN
 62
     7
370
     0
100
AcDbLine
 10
170.8598721647
 20
128.8785214308
 30
0.0
 11
170.8598721647
 21
114.1918267288
 31
0.0
  0
LINE
  5
133
330
1F
100
AcDbEntity
  8
0
  6
HIDDEN
 62
     7
370
     0
100
AcDbLine
 10
147.0598721647
 20
112.5499758845
 30
0.0
 11
147.0598721647
 21
106.6490402722
 31
0.0
  0
LINE
  5
134
330
1F
100
AcDbEntity
  8
0
  6
HIDDEN
 62
     7
370
     0
100
AcDbLine
 10
148.5598721647
 20
112.5499758845
 30
0.0
 11
148.5598721647
 21
105.8990402722
 31
0.0
  0
LINE
  5
135
330
1F
100
AcDbEntity
  8
0
  6
HIDDEN
 62
     7
370
     0
100
AcDbLine
 10
169.3598721647
 20
106.1709809482
 30
0.0
 11
169.3598721647
 21
105.4464827637
 31
0.0
  0
SPLINE
  5
136
330
1F
100
AcDbEntity
  8
0
  6
HIDDEN
 62
     7
370
     0
100
AcDbSpline
210
0.0
220
0.0
230
1.0
 70
     8
 71
     3
 72
     8
 73
     4
 74
     0
 42
0.00000001
 43
0.00000001
 12
1.0
 22
0.0
 32
0.0
 13
1.0
 23
0.0
 33
0.0
 40
0.0
 40
0.0
 40
0.0
 40
0.0
 40
1.0
 40
1.0
 40
1.0
 40
1.0
 10
169.5648321867397
 20
106.2754001996977
 30
0.0
 10
169.6155593299442
 20
106.0853909002947
 30
0.0
 10
169.6734466595021
 20
105.9101880098673
 30
0.0
 10
169.7385518211135
 20
105.7494148424206
 30
0.0
  0
SPLINE
  5
137
330
1F
100
AcDbEntity
  8
0
  6
HIDDEN
 62
     7
370
     0
100
AcDbSpline
210
0.0
220
0.0
230
1.0
 70
     8
 71
     3
 72
    24
 73
    20
 74
     0
 42
0.00000001
 43
0.00000001
 12
1.0
 22
0.0
 32
0.0
 13
1.0
 23
0.0
 33
0.0
 40
0.0
 40
0.0
 40
0.0
 40
0.0
 40
0.2499999999999942
 40
0.2499999999999942
 40
0.3749999999999945
 40
0.3749999999999945
 40
0.4374999999999936
 40
0.4374999999999936
 40
0.4687499999999944
 40
0.4687499999999944
 40
0.4999999999999953
 40
0.4999999999999953
 40
0.5624999999999973
 40
0.5624999999999973
 40
0.6249999999999993
 40
0.6249999999999993
 40
0.7500000000000007
 40
0.7500000000000007
 40
1.0
 40
1.0
 40
1.0
 40
1.0
 10
169.3598721646695
 20
106.1709809482423
 30
0.0
 10
169.3602768342454
 20
106.2426906930098
 30
0.0
 10
169.3623202810597
 20
106.3161320108052
 30
0.0
 10
169.371719846314
 20
106.4308415572587
 30
0.0
 10
169.3756707398427
 20
106.4696194409659
 30
0.0
 10
169.3868230481397
 20
106.5305808816279
 30
0.0
 10
169.3910445890662
 20
106.5514310575892
 30
0.0
 10
169.4032523106299
 20
106.5833802358253
 30
0.0
 10
169.4090430808821
 20
106.5959009172151
 30
0.0
 10
169.4259645939919
 20
106.6087739688959
 30
0.0
 10
169.4333707099417
 20
106.6061396314657
 30
0.0
 10
169.4498279631848
 20
106.5956619990282
 30
0.0
 10
169.4572844810958
 20
106.5836057584999
 30
0.0
 10
169.4711924103704
 20
106.5593185863812
 30
0.0
 10
169.4772843562654
 20
106.5462884181675
 30
0.0
 10
169.4944786486165
 20
106.5061689841801
 30
0.0
 10
169.5044635988201
 20
106.4779947401252
 30
0.0
 10
169.5327096439189
 20
106.3925135438631
 30
0.0
 10
169.5491891808801
 20
106.3339944038317
 30
0.0
 10
169.5648321867397
 20
106.2754001996978
 30
0.0
  0
SPLINE
  5
138
330
1F
100
AcDbEntity
  8
0
  6
HIDDEN
 62
     7
370
     0
100
AcDbSpline
210
0.0
220
0.0
230
1.0
 70
     8
 71
     3
 72
    16
 73
    12
 74
     0
 42
0.00000001
 43
0.00000001
 12
1.0
 22
0.0
 32
0.0
 13
1.0
 23
0.0
 33
0.0
 40
0.0
 40
0.0
 40
0.0
 40
0.0
 40
0.2500000000000003
 40
0.2500000000000003
 40
0.3750000000000002
 40
0.3750000000000002
 40
0.5000000000000001
 40
0.5000000000000001
 40
0.75
 40
0.75
 40
1.0
 40
1.0
 40
1.0
 40
1.0
 10
169.359872164673
 20
111.2739462594039
 30
0.0
 10
169.2793348327737
 20
110.7785317771658
 30
0.0
 10
169.2192974887464
 20
110.2953673277841
 30
0.0
 10
169.1585597815927
 20
109.5888721205069
 30
0.0
 10
169.1432374064798
 20
109.3564329309303
 30
0.0
 10
169.1226545971756
 20
108.8978723730448
 30
0.0
 10
169.1174550001499
 20
108.6713032557668
 30
0.0
 10
169.1174013469698
 20
108.0162847440832
 30
0.0
 10
169.1375988904475
 20
107.6072093937805
 30
0.0
 10
169.2182769788055
 20
106.8433758762067
 30
0.0
 10
169.279323143413
 20
106.4880757227471
 30
0.0
 10
169.359872164671
 20
106.170980948243
 30
0.0
  0
SPLINE
  5
139
330
1F
100
AcDbEntity
  8
0
  6
HIDDEN
 62
     7
370
     0
100
AcDbSpline
210
0.0
220
0.0
230
1.0
 70
     8
 71
     3
 72
    24
 73
    20
 74
     0
 42
0.00000001
 43
0.00000001
 12
1.0
 22
0.0
 32
0.0
 13
1.0
 23
0.0
 33
0.0
 40
0.0
 40
0.0
 40
0.0
 40
0.0
 40
0.2499999999999934
 40
0.2499999999999934
 40
0.3749999999999916
 40
0.3749999999999916
 40
0.437499999999992
 40
0.437499999999992
 40
0.4999999999999925
 40
0.4999999999999925
 40
0.5312499999999931
 40
0.5312499999999931
 40
0.5624999999999937
 40
0.5624999999999937
 40
0.6249999999999963
 40
0.6249999999999963
 40
0.7499999999999976
 40
0.7499999999999976
 40
1.0
 40
1.0
 40
1.0
 40
1.0
 10
169.5648321867335
 20
111.3788719769102
 30
0.0
 10
169.5490655984352
 20
111.2853892043339
 30
0.0
 10
169.5324540654806
 20
111.1920710426655
 30
0.0
 10
169.5039277175225
 20
111.0524344817009
 30
0.0
 10
169.4938422837325
 20
111.0058883374622
 30
0.0
 10
169.4763595131976
 20
110.9364225154849
 30
0.0
 10
169.4701518567521
 20
110.9133222395266
 30
0.0
 10
169.4558803565069
 20
110.8675157174778
 30
0.0
 10
169.4483102860038
 20
110.8441945584452
 30
0.0
 10
169.4309139565685
 20
110.8136313058492
 30
0.0
 10
169.4224546836085
 20
110.8030765858079
 30
0.0
 10
169.4063937190609
 20
110.8048868752525
 30
0.0
 10
169.4015604832146
 20
110.8139257521542
 30
0.0
 10
169.3901345634793
 20
110.8401234255522
 30
0.0
 10
169.3861132075969
 20
110.8603682560305
 30
0.0
 10
169.3753527125658
 20
110.9221979165544
 30
0.0
 10
169.3714784035049
 20
110.9651276046062
 30
0.0
 10
169.3623055313777
 20
111.0951835482233
 30
0.0
 10
169.360273160663
 20
111.184274639659
 30
0.0
 10
169.3598721646731
 20
111.273946259404
 30
0.0
  0
LINE
  5
13A
330
1F
100
AcDbEntity
  8
0
  6
HIDDEN
 62
     7
370
     0
100
AcDbLine
 10
169.3598721647
 20
112.5499758845
 30
0.0
 11
169.3598721647
 21
111.2739462594
 31
0.0
  0
SPLINE
  5
13B
330
1F
100
AcDbEntity
  8
0
  6
HIDDEN
 62
     7
370
     0
100
AcDbSpline
210
0.0
220
0.0
230
1.0
 70
     8
 71
     3
 72
     8
 73
     4
 74
     0
 42
0.00000001
 43
0.00000001
 12
1.0
 22
0.0
 32
0.0
 13
1.0
 23
0.0
 33
0.0
 40
0.0
 40
0.0
 40
0.0
 40
0.0
 40
1.0
 40
1.0
 40
1.0
 40
1.0
 10
169.7385518211135
 20
112.2819218692073
 30
0.0
 10
169.6734466594995
 20
111.9806769531864
 30
0.0
 10
169.6155593299395
 20
111.6796418011766
 30
0.0
 10
169.5648321867335
 20
111.3788719769102
 30
0.0
  0
CIRCLE
  5
13C
330
1F
100
AcDbEntity
  8
0
  6
HIDDEN
 62
     7
370
     0
100
AcDbCircle
 10
213.0598721647
 20
115.9088216113
 30
0.0
 40
4.249999999999986
  0
CIRCLE
  5
13D
330
1F
100
AcDbEntity
  8
0
  6
HIDDEN
 62
     7
370
     0
100
AcDbCircle
 10
200.0598721647
 20
115.9088216113
 30
0.0
 40
4.249999999999986
  0
CIRCLE
  5
13E
330
1F
100
AcDbEntity
  8
0
  6
HIDDEN
 62
     7
370
     0
100
AcDbCircle
 10
226.0598721647
 20
115.9088216113
 30
0.0
 40
4.249999999999986
  0
LINE
  5
13F
330
1F
100
AcDbEntity
  8
0
  6
HIDDEN
 62
     7
370
     0
100
AcDbLine
 10
171.0598721647
 20
100.1088216113
 30
0.0
 11
171.1527653835
 21
100.2017148301
 31
0.0
  0
LINE
  5
140
330
1F
100
AcDbEntity
  8
0
  6
HIDDEN
 62
     7
370
     0
100
AcDbLine
 10
171.1527653835
 20
131.6159283925
 30
0.0
 11
171.0598721647
 21
131.7088216113
 31
0.0
  0
ARC
  5
141
330
1F
100
AcDbEntity
  8
0
  6
HIDDEN
 62
     7
370
     0
100
AcDbCircle
 10
170.4456586023
 20
100.9088216113
 30
0.0
 40
1.0
100
AcDbArc
 50
315.0
 51
0.0
  0
ARC
  5
142
330
1F
100
AcDbEntity
  8
0
  6
HIDDEN
 62
     7
370
     0
100
AcDbCircle
 10
170.4456586023
 20
100.9088216113
 30
0.0
 40
1.0
100
AcDbArc
 50
0.0
 51
52.1052014664
  0
ARC
  5
143
330
1F
100
AcDbEntity
  8
0
  6
HIDDEN
 62
     7
370
     0
100
AcDbCircle
 10
170.4456586023
 20
130.9088216113
 30
0.0
 40
0.999999999999988
100
AcDbArc
 50
343.125
 51
45.0
  0
ARC
  5
144
330
1F
100
AcDbEntity
  8
0
  6
HIDDEN
 62
     7
370
     0
100
AcDbCircle
 10
170.4456586023
 20
130.9088216113
 30
0.0
 40
0.9999999999999815
100
AcDbArc
 50
307.8947985336
 51
343.125
  0
LINE
  5
145
330
1F
100
AcDbEntity
  8
0
  6
HIDDEN
 62
     7
370
     0
100
AcDbLine
 10
171.4456586023
 20
100.9088216113
 30
0.0
 11
171.4456586023
 21
130.9088216113
 31
0.0
  0
LINE
  5
146
330
1F
100
AcDbEntity
  8
0
  6
HIDDEN
 62
     7
370
     0
100
AcDbLine
 10
171.4456586023
 20
100.9088216113
 30
0.0
 11
171.4456586023
 21
130.9088216113
 31
0.0
  0
ARC
  5
147
330
1F
100
AcDbEntity
  8
0
  6
HIDDEN
 62
     7
370
     0
100
AcDbCircle
 10
177.4598721647
 20
125.8088216113
 30
0.0
 40
0.4000000000000057
100
AcDbArc
 50
90.0
 51
180.0
  0
ARC
  5
148
330
1F
100
AcDbEntity
  8
0
  6
HIDDEN
 62
     7
370
     0
100
AcDbCircle
 10
177.4598721647
 20
106.0088216113
 30
0.0
 40
0.4000000000000057
100
AcDbArc
 50
180.0
 51
270.0
  0
LINE
  5
149
330
1F
100
AcDbEntity
  8
0
  6
HIDDEN
 62
     7
370
     0
100
AcDbLine
 10
188.2356289388
 20
126.2088216113
 30
0.0
 11
177.4598721647
 21
126.2088216113
 31
0.0
  0
LINE
  5
14A
330
1F
100
AcDbEntity
  8
0
  6
HIDDEN
 62
     7
370
     0
100
AcDbLine
 10
177.4598721647
 20
105.6088216113
 30
0.0
 11
188.2356289388
 21
105.6088216113
 31
0.0
  0
LINE
  5
14B
330
1F
100
AcDbEntity
  8
0
  6
HIDDEN
 62
     7
370
     0
100
AcDbLine
 10
188.2356289388
 20
105.6088216113
 30
0.0
 11
189.0598721647
 21
105.9088216113
 31
0.0
  0
LINE
  5
14C
330
1F
100
AcDbEntity
  8
0
  6
HIDDEN
 62
     7
370
     0
100
AcDbLine
 10
189.0598721647
 20
125.9088216113
 30
0.0
 11
188.2356289388
 21
126.2088216113
 31
0.0
  0
ARC
  5
14D
330
1F
100
AcDbEntity
  8
0
  6
HIDDEN
 62
     7
370
     0
100
AcDbCircle
 10
235.7598721647
 20
126.2088216113
 30
0.0
 40
0.3000000000000114
100
AcDbArc
 50
270.0
 51
0.0
  0
ARC
  5
14E
330
1F
100
AcDbEntity
  8
0
  6
HIDDEN
 62
     7
370
     0
100
AcDbCircle
 10
235.7598721647
 20
105.6088216113
 30
0.0
 40
0.2999999999999972
100
AcDbArc
 50
0.0
 51
90.0
  0
LINE
  5
14F
330
1F
100
AcDbEntity
  8
0
  6
HIDDEN
 62
     7
370
     0
100
AcDbLine
 10
147.0598721647
 20
105.753171087
 30
0.0
 11
148.0869041967
 21
106.3461283072
 31
0.0
  0
LINE
  5
150
330
1F
100
AcDbEntity
  8
0
  6
HIDDEN
 62
     7
370
     0
100
AcDbLine
 10
148.0869041967
 20
125.4715149154
 30
0.0
 11
147.0598721647
 21
126.0644721355
 31
0.0
  0
LINE
  5
151
330
1F
100
AcDbEntity
  8
0
  6
HIDDEN
 62
     7
370
     0
100
AcDbLine
 10
152.5598721647
 20
105.9088216113
 30
0.0
 11
153.5726906343
 21
105.9088216113
 31
0.0
  0
LINE
  5
152
330
1F
100
AcDbEntity
  8
0
  6
HIDDEN
 62
     7
370
     0
100
AcDbLine
 10
153.5726906343
 20
125.9088216113
 30
0.0
 11
152.5598721647
 21
125.9088216113
 31
0.0
  0
ARC
  5
153
330
1F
100
AcDbEntity
  8
0
  6
HIDDEN
 62
     7
370
     0
100
AcDbCircle
 10
152.5598721647
 20
106.9088216113
 30
0.0
 40
1.000000000000004
100
AcDbArc
 50
193.3524261238
 51
270.0
  0
ARC
  5
154
330
1F
100
AcDbEntity
  8
0
  6
HIDDEN
 62
     7
370
     0
100
AcDbCircle
 10
152.5598721647
 20
124.9088216113
 30
0.0
 40
1.000000000000014
100
AcDbArc
 50
90.0
 51
166.6475738762
  0
ARC
  5
155
330
1F
100
AcDbEntity
  8
0
  6
HIDDEN
 62
     7
370
     0
100
AcDbCircle
 10
153.5726906343
 20
106.9088216113
 30
0.0
 40
1.000000000000018
100
AcDbArc
 50
270.0
 51
315.0
  0
ARC
  5
156
330
1F
100
AcDbEntity
  8
0
  6
HIDDEN
 62
     7
370
     0
100
AcDbCircle
 10
153.5726906343
 20
124.9088216113
 30
0.0
 40
1.000000000000018
100
AcDbArc
 50
45.0
 51
90.0
  0
LINE
  5
157
330
1F
100
AcDbEntity
  8
0
  6
HIDDEN
 62
     7
370
     0
100
AcDbLine
 10
195.8116075651
 20
125.9088216113
 30
0.0
 11
189.0598721647
 21
125.9088216113
 31
0.0
  0
LINE
  5
158
330
1F
100
AcDbEntity
  8
0
  6
HIDDEN
 62
     7
370
     0
100
AcDbLine
 10
208.8116075651
 20
125.9088216113
 30
0.0
 11
204.3011757138
 21
125.9088216113
 31
0.0
  0
LINE
  5
159
330
1F
100
AcDbEntity
  8
0
  6
HIDDEN
 62
     7
370
     0
100
AcDbLine
 10
221.8116075651
 20
125.9088216113
 30
0.0
 11
217.3011757138
 21
125.9088216113
 31
0.0
  0
LINE
  5
15A
330
1F
100
AcDbEntity
  8
0
  6
HIDDEN
 62
     7
370
     0
100
AcDbLine
 10
235.7598721647
 20
125.9088216113
 30
0.0
 11
230.3011757138
 21
125.9088216113
 31
0.0
  0
LINE
  5
15B
330
1F
100
AcDbEntity
  8
0
  6
HIDDEN
 62
     7
370
     0
100
AcDbLine
 10
230.3011757138
 20
105.9088216113
 30
0.0
 11
235.7598721647
 21
105.9088216113
 31
0.0
  0
LINE
  5
15C
330
1F
100
AcDbEntity
  8
0
  6
HIDDEN
 62
     7
370
     0
100
AcDbLine
 10
217.3011757138
 20
105.9088216113
 30
0.0
 11
221.8116075651
 21
105.9088216113
 31
0.0
  0
LINE
  5
15D
330
1F
100
AcDbEntity
  8
0
  6
HIDDEN
 62
     7
370
     0
100
AcDbLine
 10
204.3011757138
 20
105.9088216113
 30
0.0
 11
208.8116075651
 21
105.9088216113
 31
0.0
  0
LINE
  5
15E
330
1F
100
AcDbEntity
  8
0
  6
HIDDEN
 62
     7
370
     0
100
AcDbLine
 10
189.0598721647
 20
105.9088216113
 30
0.0
 11
195.8116075651
 21
105.9088216113
 31
0.0
  0
LINE
  5
15F
330
1F
100
AcDbEntity
  8
0
  6
HIDDEN
 62
     7
370
     0
100
AcDbLine
 10
154.2797974155
 20
106.2017148301
 30
0.0
 11
154.9869041967
 21
106.9088216113
 31
0.0
  0
LINE
  5
160
330
1F
100
AcDbEntity
  8
0
  6
HIDDEN
 62
     7
370
     0
100
AcDbLine
 10
154.9869041967
 20
124.9088216113
 30
0.0
 11
154.2797974155
 21
125.6159283925
 31
0.0
  0
LINE
  5
161
330
1F
100
AcDbEntity
  8
0
  6
HIDDEN
 62
     7
370
     0
100
AcDbLine
 10
148.0869041967
 20
106.3461283072
 30
0.0
 11
150.1869041967
 21
106.9088216113
 31
0.0
  0
LINE
  5
162
330
1F
100
AcDbEntity
  8
0
  6
HIDDEN
 62
     7
370
     0
100
AcDbLine
 10
150.1869041967
 20
124.9088216113
 30
0.0
 11
148.0869041967
 21
125.4715149154
 31
0.0
  0
LINE
  5
163
330
1F
100
AcDbEntity
  8
0
  6
HIDDEN
 62
     7
370
     0
100
AcDbLine
 10
151.5869041967
 20
125.1397617189
 30
0.0
 11
151.1869041967
 21
124.9088216113
 31
0.0
  0
LINE
  5
164
330
1F
100
AcDbEntity
  8
0
  6
HIDDEN
 62
     7
370
     0
100
AcDbLine
 10
151.1869041967
 20
106.9088216113
 30
0.0
 11
151.5869041967
 21
106.6778815036
 31
0.0
  0
LINE
  5
165
330
1F
100
AcDbEntity
  8
0
  6
HIDDEN
 62
     7
370
     0
100
AcDbLine
 10
150.1869041967
 20
106.9088216113
 30
0.0
 11
151.1869041967
 21
106.9088216113
 31
0.0
  0
LINE
  5
166
330
1F
100
AcDbEntity
  8
0
  6
HIDDEN
 62
     7
370
     0
100
AcDbLine
 10
151.1869041967
 20
124.9088216113
 30
0.0
 11
150.1869041967
 21
124.9088216113
 31
0.0
  0
LINE
  5
167
330
1F
100
AcDbEntity
  8
0
  6
HIDDEN
 62
     7
370
     0
100
AcDbLine
 10
154.9869041967
 20
106.9088216113
 30
0.0
 11
157.2674971296
 21
106.9088216113
 31
0.0
  0
LINE
  5
168
330
1F
100
AcDbEntity
  8
0
  6
HIDDEN
 62
     7
370
     0
100
AcDbLine
 10
157.2616649102
 20
124.9088216113
 30
0.0
 11
154.9869041967
 21
124.9088216113
 31
0.0
  0
ARC
  5
169
330
1F
100
AcDbEntity
  8
0
  6
HIDDEN
 62
     7
370
     0
100
AcDbCircle
 10
161.5598721647
 20
107.4088216113
 30
0.0
 40
0.4999999999999886
100
AcDbArc
 50
306.2127277772
 51
0.0
  0
ARC
  5
16A
330
1F
100
AcDbEntity
  8
0
  6
HIDDEN
 62
     7
370
     0
100
AcDbCircle
 10
161.5598721647
 20
124.4088216113
 30
0.0
 40
0.5000000000000017
100
AcDbArc
 50
0.0
 51
53.3577410952
  0
LINE
  5
16B
330
1F
100
AcDbEntity
  8
0
  6
HIDDEN
 62
     7
370
     0
100
AcDbLine
 10
162.0598721647
 20
108.7588216113
 30
0.0
 11
162.9598721647
 21
109.6588216113
 31
0.0
  0
LINE
  5
16C
330
1F
100
AcDbEntity
  8
0
  6
HIDDEN
 62
     7
370
     0
100
AcDbLine
 10
162.9598721647
 20
122.1588216113
 30
0.0
 11
162.0598721647
 21
123.0588216113
 31
0.0
  0
LINE
  5
16D
330
1F
100
AcDbEntity
  8
0
  6
HIDDEN
 62
     7
370
     0
100
AcDbLine
 10
162.9598721647
 20
109.6588216113
 30
0.0
 11
177.0598721647
 21
109.6588216113
 31
0.0
  0
LINE
  5
16E
330
1F
100
AcDbEntity
  8
0
  6
HIDDEN
 62
     7
370
     0
100
AcDbLine
 10
177.0598721647
 20
122.1588216113
 30
0.0
 11
162.9598721647
 21
122.1588216113
 31
0.0
  0
LINE
  5
16F
330
1F
100
AcDbEntity
  8
0
  6
HIDDEN
 62
     7
370
     0
100
AcDbLine
 10
205.5598721647
 20
93.9088216113
 30
0.0
 11
204.3098721647
 21
95.1588216113
 31
0.0
  0
LINE
  5
170
330
1F
100
AcDbEntity
  8
0
  6
HIDDEN
 62
     7
370
     0
100
AcDbLine
 10
195.8098721647
 20
95.1588216113
 30
0.0
 11
194.5598721647
 21
93.9088216113
 31
0.0
  0
LINE
  5
171
330
1F
100
AcDbEntity
  8
0
  6
HIDDEN
 62
     7
370
     0
100
AcDbLine
 10
231.5598721647
 20
93.9088216113
 30
0.0
 11
230.3098721647
 21
95.1588216113
 31
0.0
  0
LINE
  5
172
330
1F
100
AcDbEntity
  8
0
  6
HIDDEN
 62
     7
370
     0
100
AcDbLine
 10
221.8098721647
 20
95.1588216113
 30
0.0
 11
220.5598721647
 21
93.9088216113
 31
0.0
  0
LINE
  5
173
330
1F
100
AcDbEntity
  8
0
  6
HIDDEN
 62
     7
370
     0
100
AcDbLine
 10
218.5598721647
 20
93.9088216113
 30
0.0
 11
217.3098721647
 21
95.1588216113
 31
0.0
  0
LINE
  5
174
330
1F
100
AcDbEntity
  8
0
  6
HIDDEN
 62
     7
370
     0
100
AcDbLine
 10
208.8098721647
 20
95.1588216113
 30
0.0
 11
207.5598721647
 21
93.9088216113
 31
0.0
  0
LINE
  5
175
330
1F
100
AcDbEntity
  8
0
  6
HIDDEN
 62
     7
370
     0
100
AcDbLine
 10
220.5598721647
 20
137.9088216113
 30
0.0
 11
221.8098721647
 21
136.6588216113
 31
0.0
  0
LINE
  5
176
330
1F
100
AcDbEntity
  8
0
  6
HIDDEN
 62
     7
370
     0
100
AcDbLine
 10
230.3098721647
 20
136.6588216113
 30
0.0
 11
231.5598721647
 21
137.9088216113
 31
0.0
  0
LINE
  5
177
330
1F
100
AcDbEntity
  8
0
  6
HIDDEN
 62
     7
370
     0
100
AcDbLine
 10
194.5598721647
 20
137.9088216113
 30
0.0
 11
195.8098721647
 21
136.6588216113
 31
0.0
  0
LINE
  5
178
330
1F
100
AcDbEntity
  8
0
  6
HIDDEN
 62
     7
370
     0
100
AcDbLine
 10
204.3098721647
 20
136.6588216113
 30
0.0
 11
205.5598721647
 21
137.9088216113
 31
0.0
  0
LINE
  5
179
330
1F
100
AcDbEntity
  8
0
  6
HIDDEN
 62
     7
370
     0
100
AcDbLine
 10
207.5598721647
 20
137.9088216113
 30
0.0
 11
208.8098721647
 21
136.6588216113
 31
0.0
  0
LINE
  5
17A
330
1F
100
AcDbEntity
  8
0
  6
HIDDEN
 62
     7
370
     0
100
AcDbLine
 10
217.3098721647
 20
136.6588216113
 30
0.0
 11
218.5598721647
 21
137.9088216113
 31
0.0
  0
LINE
  5
17B
330
1F
100
AcDbEntity
  8
0
  6
HIDDEN
 62
     7
370
     0
100
AcDbLine
 10
230.3098721647
 20
95.1588216113
 30
0.0
 11
230.3098721647
 21
105.9125005708
 31
0.0
  0
LINE
  5
17C
330
1F
100
AcDbEntity
  8
0
  6
HIDDEN
 62
     7
370
     0
100
AcDbLine
 10
221.8098721647
 20
105.9095578251
 30
0.0
 11
221.8098721647
 21
95.1588216113
 31
0.0
  0
LINE
  5
17D
330
1F
100
AcDbEntity
  8
0
  6
HIDDEN
 62
     7
370
     0
100
AcDbLine
 10
204.3098721647
 20
95.1588216113
 30
0.0
 11
204.3098721647
 21
105.9125005708
 31
0.0
  0
LINE
  5
17E
330
1F
100
AcDbEntity
  8
0
  6
HIDDEN
 62
     7
370
     0
100
AcDbLine
 10
195.8098721647
 20
105.9095578251
 30
0.0
 11
195.8098721647
 21
95.1588216113
 31
0.0
  0
LINE
  5
17F
330
1F
100
AcDbEntity
  8
0
  6
HIDDEN
 62
     7
370
     0
100
AcDbLine
 10
217.3098721647
 20
95.1588216113
 30
0.0
 11
217.3098721647
 21
105.9125005708
 31
0.0
  0
LINE
  5
180
330
1F
100
AcDbEntity
  8
0
  6
HIDDEN
 62
     7
370
     0
100
AcDbLine
 10
208.8098721647
 20
105.9095578251
 30
0.0
 11
208.8098721647
 21
95.1588216113
 31
0.0
  0
LINE
  5
181
330
1F
100
AcDbEntity
  8
0
  6
HIDDEN
 62
     7
370
     0
100
AcDbLine
 10
221.8098721647
 20
136.6588216113
 30
0.0
 11
221.8098721647
 21
125.9080853974
 31
0.0
  0
LINE
  5
182
330
1F
100
AcDbEntity
  8
0
  6
HIDDEN
 62
     7
370
     0
100
AcDbLine
 10
230.3098721647
 20
125.9051426517
 30
0.0
 11
230.3098721647
 21
136.6588216113
 31
0.0
  0
LINE
  5
183
330
1F
100
AcDbEntity
  8
0
  6
HIDDEN
 62
     7
370
     0
100
AcDbLine
 10
208.8098721647
 20
136.6588216113
 30
0.0
 11
208.8098721647
 21
125.9080853974
 31
0.0
  0
LINE
  5
184
330
1F
100
AcDbEntity
  8
0
  6
HIDDEN
 62
     7
370
     0
100
AcDbLine
 10
217.3098721647
 20
125.9051426517
 30
0.0
 11
217.3098721647
 21
136.6588216113
 31
0.0
  0
LINE
  5
185
330
1F
100
AcDbEntity
  8
0
  6
HIDDEN
 62
     7
370
     0
100
AcDbLine
 10
195.8098721647
 20
136.6588216113
 30
0.0
 11
195.8098721647
 21
125.9080853974
 31
0.0
  0
LINE
  5
186
330
1F
100
AcDbEntity
  8
0
  6
HIDDEN
 62
     7
370
     0
100
AcDbLine
 10
204.3098721647
 20
125.9051426517
 30
0.0
 11
204.3098721647
 21
136.6588216113
 31
0.0
  0
LINE
  5
187
330
1F
100
AcDbEntity
  8
0
  6
HIDDEN
 62
     7
370
     0
100
AcDbLine
 10
162.2557499381
 20
102.9712217663
 30
0.0
 11
161.8598721647
 21
103.3670995397
 31
0.0
  0
LINE
  5
188
330
1F
100
AcDbEntity
  8
0
  6
HIDDEN
 62
     7
370
     0
100
AcDbLine
 10
157.2598721647
 20
103.3670995397
 30
0.0
 11
156.9926862019
 21
103.0999135769
 31
0.0
  0
LINE
  5
189
330
1F
100
AcDbEntity
  8
0
  6
HIDDEN
 62
     7
370
     0
100
AcDbLine
 10
152.9670037885
 20
103.2016899874
 30
0.0
 11
151.2598721647
 21
104.9088216113
 31
0.0
  0
LINE
  5
18A
330
1F
100
AcDbEntity
  8
0
  6
HIDDEN
 62
     7
370
     0
100
AcDbLine
 10
151.2598721647
 20
104.9088216113
 30
0.0
 11
147.0598721647
 21
104.9088216113
 31
0.0
  0
LINE
  5
18B
330
1F
100
AcDbEntity
  8
0
  6
HIDDEN
 62
     7
370
     0
100
AcDbLine
 10
161.8598721647
 20
103.3670995397
 30
0.0
 11
161.8598721647
 21
107.0063780673
 31
0.0
  0
LINE
  5
18C
330
1F
100
AcDbEntity
  8
0
  6
HIDDEN
 62
     7
370
     0
100
AcDbLine
 10
157.2598721647
 20
106.9107647732
 30
0.0
 11
157.2598721647
 21
103.3670995397
 31
0.0
  0
LINE
  5
18D
330
1F
100
AcDbEntity
  8
0
  6
HIDDEN
 62
     7
370
     0
100
AcDbLine
 10
161.8598721647
 20
124.809786221
 30
0.0
 11
161.8598721647
 21
126.9088216113
 31
0.0
  0
LINE
  5
18E
330
1F
100
AcDbEntity
  8
0
  6
HIDDEN
 62
     7
370
     0
100
AcDbLine
 10
157.2598721647
 20
126.9088216113
 30
0.0
 11
157.2598721647
 21
124.9083638719
 31
0.0
  0
LINE
  5
18F
330
1F
100
AcDbEntity
  8
0
  6
HIDDEN
 62
     7
370
     0
100
AcDbLine
 10
161.8598721647
 20
126.9088216113
 30
0.0
 11
159.5598721647
 21
128.290801035
 31
0.0
  0
LINE
  5
190
330
1F
100
AcDbEntity
  8
0
  6
HIDDEN
 62
     7
370
     0
100
AcDbLine
 10
159.5598721647
 20
128.290801035
 30
0.0
 11
157.2598721647
 21
126.9088216113
 31
0.0
  0
LINE
  5
191
330
1F
100
AcDbEntity
  8
0
  6
HIDDEN
 62
     7
370
     0
100
AcDbLine
 10
181.0598721647
 20
96.4088216113
 30
0.0
 11
181.0598721647
 21
95.9088216113
 31
0.0
  0
LINE
  5
192
330
1F
100
AcDbEntity
  8
0
  6
HIDDEN
 62
     7
370
     0
100
AcDbLine
 10
185.0598721647
 20
95.9088216113
 30
0.0
 11
185.0598721647
 21
96.4088216113
 31
0.0
  0
LINE
  5
193
330
1F
100
AcDbEntity
  8
0
  6
HIDDEN
 62
     7
370
     0
100
AcDbLine
 10
185.0598721647
 20
96.4088216113
 30
0.0
 11
183.0598721647
 21
97.6105428493
 31
0.0
  0
LINE
  5
194
330
1F
100
AcDbEntity
  8
0
  6
HIDDEN
 62
     7
370
     0
100
AcDbLine
 10
183.0598721647
 20
97.6105428493
 30
0.0
 11
181.0598721647
 21
96.4088216113
 31
0.0
  0
LINE
  5
195
330
1F
100
AcDbEntity
  8
VERMASSUNG
  6
CENTERX2
100
AcDbLine
 10
240.5059971579
 20
115.9088216113
 30
0.0
 11
142.8047034197
 21
115.9088216113
 31
0.0
  0
DIMENSION
  5
196
330
1F
100
AcDbEntity
  8
VERMASSUNG
100
AcDbDimension
  2
_D
 10
236.0598721647
 20
147.9088216113
 30
0.0
 11
205.7145094781
 21
147.9088216113
 31
0.0
 70
   160
  1
<>
 71
     2
 42
-1.0
  3
SLDDIMSTYLE0
100
AcDbAlignedDimension
 13
171.0598721647
 23
135.6088216113
 33
0.0
 14
236.0598721647
 24
136.9088216113
 34
0.0
100
AcDbRotatedDimension
  0
DIMENSION
  5
1A1
330
1F
100
AcDbEntity
  8
VERMASSUNG
100
AcDbDimension
  2
_D_1
 10
236.0598721647
 20
153.9088216113
 30
0.0
 11
191.5084937403
 21
153.9088216113
 31
0.0
 70
   160
  1
<>
 71
     2
 42
-1.0
  3
SLDDIMSTYLE0
100
AcDbAlignedDimension
 13
147.0598721647
 23
128.5274486772
 33
0.0
 14
236.0598721647
 24
136.9088216113
 34
0.0
100
AcDbRotatedDimension
  0
DIMENSION
  5
1AB
330
1F
100
AcDbEntity
  8
VERMASSUNG
100
AcDbDimension
  2
_D_2
 10
138.8087579389
 20
95.9088216113
 30
0.0
 11
138.8087579389
 21
116.1396382285
 31
0.0
 70
   160
  1
PSC%%c<>
 71
     2
 42
-1.0
  3
SLDDIMSTYLE0
100
AcDbAlignedDimension
 13
171.3598721647
 23
135.9088216113
 33
0.0
 14
171.3598721647
 24
95.9088216113
 34
0.0
 50
90.0
100
AcDbRotatedDimension
  0
DIMENSION
  5
1B7
330
1F
100
AcDbEntity
  8
VERMASSUNG
100
AcDbDimension
  2
_D_3
 10
248.5479946028
 20
105.9088216113
 30
0.0
 11
248.5479946028
 21
116.3617623528
 31
0.0
 70
   160
  1
%%c<>
 71
     2
 42
-1.0
  3
SLDDIMSTYLE0
100
AcDbAlignedDimension
 13
235.7598721647
 23
125.9088216113
 33
0.0
 14
235.7598721647
 24
105.9088216113
 34
0.0
 50
90.0
100
AcDbRotatedDimension
  0
LINE
  5
1C2
330
1F
100
AcDbEntity
  8
0
  6
Continuous
 62
     7
370
    15
100
AcDbLine
 10
70.5088273777
 20
137.4307754772
 30
0.0
 11
70.5088273777
 21
137.3331076788
 31
0.0
  0
LINE
  5
1C3
330
1F
100
AcDbEntity
  8
0
  6
Continuous
 62
     7
370
    15
100
AcDbLine
 10
80.5088271542
 20
137.3331076788
 30
0.0
 11
80.5088271542
 21
137.4307754772
 31
0.0
  0
LINE
  5
1C4
330
1F
100
AcDbEntity
  8
0
  6
Continuous
 62
     7
370
    15
100
AcDbLine
 10
80.5088271542
 20
137.4307754772
 30
0.0
 11
79.6808273687
 21
137.9088214921
 31
0.0
  0
LINE
  5
1C5
330
1F
100
AcDbEntity
  8
0
  6
Continuous
 62
     7
370
    15
100
AcDbLine
 10
71.3368271633
 20
137.9088214921
 30
0.0
 11
70.5088273777
 21
137.4307754772
 31
0.0
  0
LINE
  5
1C6
330
1F
100
AcDbEntity
  8
0
  6
Continuous
 62
     7
370
    15
100
AcDbLine
 10
70.5088273777
 20
94.3868677454
 30
0.0
 11
71.3368271633
 21
93.9088217305
 31
0.0
  0
LINE
  5
1C7
330
1F
100
AcDbEntity
  8
0
  6
Continuous
 62
     7
370
    15
100
AcDbLine
 10
79.6808273687
 20
93.9088217305
 30
0.0
 11
80.5088271542
 21
94.3868677454
 31
0.0
  0
LINE
  5
1C8
330
1F
100
AcDbEntity
  8
0
  6
Continuous
 62
     7
370
    15
100
AcDbLine
 10
80.5088271542
 20
94.3868677454
 30
0.0
 11
80.5088271542
 21
94.4845355438
 31
0.0
  0
LINE
  5
1C9
330
1F
100
AcDbEntity
  8
0
  6
Continuous
 62
     7
370
    15
100
AcDbLine
 10
70.5088273777
 20
94.4845355438
 30
0.0
 11
70.5088273777
 21
94.3868677454
 31
0.0
  0
LINE
  5
1CA
330
1F
100
AcDbEntity
  8
0
  6
Continuous
 62
     7
370
    15
100
AcDbLine
 10
97.0307811319
 20
120.9088214995
 30
0.0
 11
96.9331133335
 21
120.9088214995
 31
0.0
  0
LINE
  5
1CB
330
1F
100
AcDbEntity
  8
0
  6
Continuous
 62
     7
370
    15
100
AcDbLine
 10
96.9331133335
 20
110.908821723
 30
0.0
 11
97.0307811319
 21
110.908821723
 31
0.0
  0
LINE
  5
1CC
330
1F
100
AcDbEntity
  8
0
  6
Continuous
 62
     7
370
    15
100
AcDbLine
 10
97.0307811319
 20
110.908821723
 30
0.0
 11
97.5088271468
 21
111.7368215086
 31
0.0
  0
LINE
  5
1CD
330
1F
100
AcDbEntity
  8
0
  6
Continuous
 62
     7
370
    15
100
AcDbLine
 10
97.5088271468
 20
120.080821714
 30
0.0
 11
97.0307811319
 21
120.9088214995
 31
0.0
  0
LINE
  5
1CE
330
1F
100
AcDbEntity
  8
0
  6
Continuous
 62
     7
370
    15
100
AcDbLine
 10
70.5088273777
 20
137.4307754772
 30
0.0
 11
70.9475231512
 21
137.4307754772
 31
0.0
  0
LINE
  5
1CF
330
1F
100
AcDbEntity
  8
0
  6
Continuous
 62
     7
370
    15
100
AcDbLine
 10
80.0701313807
 20
137.4307754772
 30
0.0
 11
80.5088271542
 21
137.4307754772
 31
0.0
  0
LINE
  5
1D0
330
1F
100
AcDbEntity
  8
0
  6
Continuous
 62
     7
370
    15
100
AcDbLine
 10
71.3368271633
 20
137.9088214921
 30
0.0
 11
79.6808273687
 21
137.9088214921
 31
0.0
  0
LINE
  5
1D1
330
1F
100
AcDbEntity
  8
0
  6
Continuous
 62
     7
370
    15
100
AcDbLine
 10
79.6808273687
 20
93.9088217305
 30
0.0
 11
71.3368271633
 21
93.9088217305
 31
0.0
  0
LINE
  5
1D2
330
1F
100
AcDbEntity
  8
0
  6
Continuous
 62
     7
370
    15
100
AcDbLine
 10
80.5088271542
 20
94.3868677454
 30
0.0
 11
80.0701313807
 21
94.3868677454
 31
0.0
  0
LINE
  5
1D3
330
1F
100
AcDbEntity
  8
0
  6
Continuous
 62
     7
370
    15
100
AcDbLine
 10
70.9475231512
 20
94.3868677454
 30
0.0
 11
70.5088273777
 21
94.3868677454
 31
0.0
  0
LINE
  5
1D4
330
1F
100
AcDbEntity
  8
0
  6
Continuous
 62
     7
370
    15
100
AcDbLine
 10
97.0307811319
 20
120.9088214995
 30
0.0
 11
97.0307811319
 21
120.470125726
 31
0.0
  0
LINE
  5
1D5
330
1F
100
AcDbEntity
  8
0
  6
Continuous
 62
     7
370
    15
100
AcDbLine
 10
97.0307811319
 20
111.3475174965
 30
0.0
 11
97.0307811319
 21
110.908821723
 31
0.0
  0
LINE
  5
1D6
330
1F
100
AcDbEntity
  8
0
  6
Continuous
 62
     7
370
    15
100
AcDbLine
 10
97.5088271468
 20
120.080821714
 30
0.0
 11
97.5088271468
 21
111.7368215086
 31
0.0
  0
CIRCLE
  5
1D7
330
1F
100
AcDbEntity
  8
0
  6
Continuous
 62
     7
370
    15
100
AcDbCircle
 10
75.508827266
 20
115.9088216113
 30
0.0
 40
22.0
  0
CIRCLE
  5
1D8
330
1F
100
AcDbEntity
  8
0
  6
Continuous
 62
     7
370
    15
100
AcDbCircle
 10
75.508827266
 20
115.9088216113
 30
0.0
 40
9.999999999999986
  0
CIRCLE
  5
1D9
330
1F
100
AcDbEntity
  8
0
  6
Continuous
 62
     7
370
    15
100
AcDbCircle
 10
75.508827266
 20
115.9088216113
 30
0.0
 40
6.249999999999986
  0
LINE
  5
1DA
330
1F
100
AcDbEntity
  8
0
  6
HIDDEN
 62
     7
370
     0
100
AcDbLine
 10
70.9475231512
 20
137.4307754772
 30
0.0
 11
80.0701313807
 21
137.4307754772
 31
0.0
  0
LINE
  5
1DB
330
1F
100
AcDbEntity
  8
0
  6
HIDDEN
 62
     7
370
     0
100
AcDbLine
 10
80.5088271542
 20
137.4307754772
 30
0.0
 11
70.5088273777
 21
137.4307754772
 31
0.0
  0
LINE
  5
1DC
330
1F
100
AcDbEntity
  8
0
  6
HIDDEN
 62
     7
370
     0
100
AcDbLine
 10
80.5088271542
 20
127.4088216336
 30
0.0
 11
70.5088273777
 21
127.4088216336
 31
0.0
  0
LINE
  5
1DD
330
1F
100
AcDbEntity
  8
0
  6
HIDDEN
 62
     7
370
     0
100
AcDbLine
 10
79.008827374
 20
125.9088213878
 30
0.0
 11
72.0088271579
 21
125.9088213878
 31
0.0
  0
LINE
  5
1DE
330
1F
100
AcDbEntity
  8
0
  6
HIDDEN
 62
     7
370
     0
100
AcDbLine
 10
79.6808273687
 20
137.9088214921
 30
0.0
 11
71.3368271633
 21
137.9088214921
 31
0.0
  0
LINE
  5
1DF
330
1F
100
AcDbEntity
  8
0
  6
HIDDEN
 62
     7
370
     0
100
AcDbLine
 10
76.9522029829
 20
131.9088223712
 30
0.0
 11
78.3955786998
 21
131.9088223712
 31
0.0
  0
LINE
  5
1E0
330
1F
100
AcDbEntity
  8
0
  6
HIDDEN
 62
     7
370
     0
100
AcDbLine
 10
76.9522029829
 20
137.9088214921
 30
0.0
 11
78.3955786998
 21
137.9088214921
 31
0.0
  0
LINE
  5
1E1
330
1F
100
AcDbEntity
  8
0
  6
HIDDEN
 62
     7
370
     0
100
AcDbLine
 10
76.9522029829
 20
131.9088223712
 30
0.0
 11
76.9522029829
 21
137.9088214921
 31
0.0
  0
LINE
  5
1E2
330
1F
100
AcDbEntity
  8
0
  6
HIDDEN
 62
     7
370
     0
100
AcDbLine
 10
74.065451549
 20
131.9088223712
 30
0.0
 11
76.9522029829
 21
131.9088223712
 31
0.0
  0
LINE
  5
1E3
330
1F
100
AcDbEntity
  8
0
  6
HIDDEN
 62
     7
370
     0
100
AcDbLine
 10
74.065451549
 20
137.9088214921
 30
0.0
 11
76.9522029829
 21
137.9088214921
 31
0.0
  0
LINE
  5
1E4
330
1F
100
AcDbEntity
  8
0
  6
HIDDEN
 62
     7
370
     0
100
AcDbLine
 10
74.065451549
 20
131.9088223712
 30
0.0
 11
74.065451549
 21
137.9088214921
 31
0.0
  0
LINE
  5
1E5
330
1F
100
AcDbEntity
  8
0
  6
HIDDEN
 62
     7
370
     0
100
AcDbLine
 10
74.065451549
 20
131.9088223712
 30
0.0
 11
72.6220758321
 21
131.9088223712
 31
0.0
  0
LINE
  5
1E6
330
1F
100
AcDbEntity
  8
0
  6
HIDDEN
 62
     7
370
     0
100
AcDbLine
 10
74.065451549
 20
137.9088214921
 30
0.0
 11
72.6220758321
 21
137.9088214921
 31
0.0
  0
LINE
  5
1E7
330
1F
100
AcDbEntity
  8
0
  6
HIDDEN
 62
     7
370
     0
100
AcDbLine
 10
78.3955786998
 20
131.9088223712
 30
0.0
 11
78.3955786998
 21
137.9088214921
 31
0.0
  0
LINE
  5
1E8
330
1F
100
AcDbEntity
  8
0
  6
HIDDEN
 62
     7
370
     0
100
AcDbLine
 10
72.6220758321
 20
131.9088223712
 30
0.0
 11
72.6220758321
 21
137.9088214921
 31
0.0
  0
LINE
  5
1E9
330
1F
100
AcDbEntity
  8
0
  6
HIDDEN
 62
     7
370
     0
100
AcDbLine
 10
71.3368271633
 20
93.9088217305
 30
0.0
 11
79.6808273687
 21
93.9088217305
 31
0.0
  0
LINE
  5
1EA
330
1F
100
AcDbEntity
  8
0
  6
HIDDEN
 62
     7
370
     0
100
AcDbLine
 10
80.0701313807
 20
94.3868677454
 30
0.0
 11
70.9475231512
 21
94.3868677454
 31
0.0
  0
LINE
  5
1EB
330
1F
100
AcDbEntity
  8
0
  6
HIDDEN
 62
     7
370
     0
100
AcDbLine
 10
70.5088273777
 20
94.3868677454
 30
0.0
 11
80.5088271542
 21
94.3868677454
 31
0.0
  0
LINE
  5
1EC
330
1F
100
AcDbEntity
  8
0
  6
HIDDEN
 62
     7
370
     0
100
AcDbLine
 10
70.5088273777
 20
104.4088215889
 30
0.0
 11
80.5088271542
 21
104.4088215889
 31
0.0
  0
LINE
  5
1ED
330
1F
100
AcDbEntity
  8
0
  6
HIDDEN
 62
     7
370
     0
100
AcDbLine
 10
72.0088271579
 20
105.9088218348
 30
0.0
 11
79.008827374
 21
105.9088218348
 31
0.0
  0
LINE
  5
1EE
330
1F
100
AcDbEntity
  8
0
  6
HIDDEN
 62
     7
370
     0
100
AcDbLine
 10
74.065451549
 20
93.9088217305
 30
0.0
 11
72.6220758321
 21
93.9088217305
 31
0.0
  0
LINE
  5
1EF
330
1F
100
AcDbEntity
  8
0
  6
HIDDEN
 62
     7
370
     0
100
AcDbLine
 10
74.065451549
 20
99.9088208513
 30
0.0
 11
72.6220758321
 21
99.9088208513
 31
0.0
  0
LINE
  5
1F0
330
1F
100
AcDbEntity
  8
0
  6
HIDDEN
 62
     7
370
     0
100
AcDbLine
 10
76.9522029829
 20
99.9088208513
 30
0.0
 11
74.065451549
 21
99.9088208513
 31
0.0
  0
LINE
  5
1F1
330
1F
100
AcDbEntity
  8
0
  6
HIDDEN
 62
     7
370
     0
100
AcDbLine
 10
74.065451549
 20
99.9088208513
 30
0.0
 11
74.065451549
 21
93.9088217305
 31
0.0
  0
LINE
  5
1F2
330
1F
100
AcDbEntity
  8
0
  6
HIDDEN
 62
     7
370
     0
100
AcDbLine
 10
76.9522029829
 20
93.9088217305
 30
0.0
 11
74.065451549
 21
93.9088217305
 31
0.0
  0
LINE
  5
1F3
330
1F
100
AcDbEntity
  8
0
  6
HIDDEN
 62
     7
370
     0
100
AcDbLine
 10
76.9522029829
 20
99.9088208513
 30
0.0
 11
76.9522029829
 21
93.9088217305
 31
0.0
  0
LINE
  5
1F4
330
1F
100
AcDbEntity
  8
0
  6
HIDDEN
 62
     7
370
     0
100
AcDbLine
 10
76.9522029829
 20
99.9088208513
 30
0.0
 11
78.3955786998
 21
99.9088208513
 31
0.0
  0
LINE
  5
1F5
330
1F
100
AcDbEntity
  8
0
  6
HIDDEN
 62
     7
370
     0
100
AcDbLine
 10
76.9522029829
 20
93.9088217305
 30
0.0
 11
78.3955786998
 21
93.9088217305
 31
0.0
  0
LINE
  5
1F6
330
1F
100
AcDbEntity
  8
0
  6
HIDDEN
 62
     7
370
     0
100
AcDbLine
 10
72.6220758321
 20
99.9088208513
 30
0.0
 11
72.6220758321
 21
93.9088217305
 31
0.0
  0
LINE
  5
1F7
330
1F
100
AcDbEntity
  8
0
  6
HIDDEN
 62
     7
370
     0
100
AcDbLine
 10
78.3955786998
 20
99.9088208513
 30
0.0
 11
78.3955786998
 21
93.9088217305
 31
0.0
  0
LINE
  5
1F8
330
1F
100
AcDbEntity
  8
0
  6
HIDDEN
 62
     7
370
     0
100
AcDbLine
 10
97.0307811319
 20
120.470125726
 30
0.0
 11
97.0307811319
 21
111.3475174965
 31
0.0
  0
LINE
  5
1F9
330
1F
100
AcDbEntity
  8
0
  6
HIDDEN
 62
     7
370
     0
100
AcDbLine
 10
97.0307811319
 20
110.908821723
 30
0.0
 11
97.0307811319
 21
120.9088214995
 31
0.0
  0
LINE
  5
1FA
330
1F
100
AcDbEntity
  8
0
  6
HIDDEN
 62
     7
370
     0
100
AcDbLine
 10
87.0088272883
 20
110.908821723
 30
0.0
 11
87.0088272883
 21
120.9088214995
 31
0.0
  0
LINE
  5
1FB
330
1F
100
AcDbEntity
  8
0
  6
HIDDEN
 62
     7
370
     0
100
AcDbLine
 10
97.5088271468
 20
111.7368215086
 30
0.0
 11
97.5088271468
 21
120.080821714
 31
0.0
  0
LINE
  5
1FC
330
1F
100
AcDbEntity
  8
0
  6
HIDDEN
 62
     7
370
     0
100
AcDbLine
 10
85.5088270424
 20
112.4088215032
 30
0.0
 11
85.5088270424
 21
119.4088217193
 31
0.0
  0
LINE
  5
1FD
330
1F
100
AcDbEntity
  8
0
  6
HIDDEN
 62
     7
370
     0
100
AcDbLine
 10
97.5088271468
 20
114.4654458944
 30
0.0
 11
97.5088271468
 21
113.0220701774
 31
0.0
  0
LINE
  5
1FE
330
1F
100
AcDbEntity
  8
0
  6
HIDDEN
 62
     7
370
     0
100
AcDbLine
 10
91.5088280259
 20
114.4654458944
 30
0.0
 11
97.5088271468
 21
114.4654458944
 31
0.0
  0
LINE
  5
1FF
330
1F
100
AcDbEntity
  8
0
  6
HIDDEN
 62
     7
370
     0
100
AcDbLine
 10
97.5088271468
 20
117.3521973282
 30
0.0
 11
97.5088271468
 21
114.4654458944
 31
0.0
  0
LINE
  5
200
330
1F
100
AcDbEntity
  8
0
  6
HIDDEN
 62
     7
370
     0
100
AcDbLine
 10
91.5088280259
 20
117.3521973282
 30
0.0
 11
91.5088280259
 21
114.4654458944
 31
0.0
  0
LINE
  5
201
330
1F
100
AcDbEntity
  8
0
  6
HIDDEN
 62
     7
370
     0
100
AcDbLine
 10
91.5088280259
 20
114.4654458944
 30
0.0
 11
91.5088280259
 21
113.0220701774
 31
0.0
  0
LINE
  5
202
330
1F
100
AcDbEntity
  8
0
  6
HIDDEN
 62
     7
370
     0
100
AcDbLine
 10
91.5088280259
 20
117.3521973282
 30
0.0
 11
91.5088280259
 21
118.7955730451
 31
0.0
  0
LINE
  5
203
330
1F
100
AcDbEntity
  8
0
  6
HIDDEN
 62
     7
370
     0
100
AcDbLine
 10
91.5088280259
 20
117.3521973282
 30
0.0
 11
97.5088271468
 21
117.3521973282
 31
0.0
  0
LINE
  5
204
330
1F
100
AcDbEntity
  8
0
  6
HIDDEN
 62
     7
370
     0
100
AcDbLine
 10
97.5088271468
 20
117.3521973282
 30
0.0
 11
97.5088271468
 21
118.7955730451
 31
0.0
  0
LINE
  5
205
330
1F
100
AcDbEntity
  8
0
  6
HIDDEN
 62
     7
370
     0
100
AcDbLine
 10
91.5088280259
 20
113.0220701774
 30
0.0
 11
97.5088271468
 21
113.0220701774
 31
0.0
  0
LINE
  5
206
330
1F
100
AcDbEntity
  8
0
  6
HIDDEN
 62
     7
370
     0
100
AcDbLine
 10
91.5088280259
 20
118.7955730451
 30
0.0
 11
97.5088271468
 21
118.7955730451
 31
0.0
  0
LINE
  5
207
330
1F
100
AcDbEntity
  8
0
  6
HIDDEN
 62
     7
370
     0
100
AcDbLine
 10
96.2588264762
 20
111.6588213803
 30
0.0
 11
96.2588264762
 21
120.1588218422
 31
0.0
  0
SPLINE
  5
208
330
1F
100
AcDbEntity
  8
0
  6
HIDDEN
 62
     7
370
     0
100
AcDbSpline
210
0.0
220
0.0
230
1.0
 70
     8
 71
     3
 72
    83
 73
    79
 74
     0
 42
0.00000001
 43
0.00000001
 12
1.0
 22
0.0
 32
0.0
 13
1.0
 23
0.0
 33
0.0
 40
-0.0312500000000003
 40
-0.0312500000000003
 40
0.0
 40
0.0
 40
0.0312500000000001
 40
0.0312500000000001
 40
0.0625000000000001
 40
0.0625000000000001
 40
0.0937500000000002
 40
0.0937500000000002
 40
0.1093750000000003
 40
0.1093750000000003
 40
0.1250000000000003
 40
0.1406250000000004
 40
0.1406250000000004
 40
0.1562500000000004
 40
0.1562500000000004
 40
0.1875000000000004
 40
0.1875000000000004
 40
0.2031250000000003
 40
0.2031250000000003
 40
0.2187500000000003
 40
0.2187500000000003
 40
0.2499999999999998
 40
0.2499999999999998
 40
0.2812499999999993
 40
0.2812499999999993
 40
0.3124999999999988
 40
0.3124999999999988
 40
0.3437499999999983
 40
0.3437499999999983
 40
0.3749999999999978
 40
0.3749999999999978
 40
0.4062499999999974
 40
0.4062499999999974
 40
0.4374999999999969
 40
0.4374999999999969
 40
0.4687499999999964
 40
0.4687499999999964
 40
0.4999999999999959
 40
0.4999999999999959
 40
0.5156249999999959
 40
0.5156249999999959
 40
0.531249999999996
 40
0.531249999999996
 40
0.5624999999999959
 40
0.5624999999999959
 40
0.5781249999999959
 40
0.5781249999999959
 40
0.593749999999996
 40
0.593749999999996
 40
0.624999999999996
 40
0.624999999999996
 40
0.6406249999999961
 40
0.6406249999999961
 40
0.6562499999999961
 40
0.6562499999999961
 40
0.6718749999999961
 40
0.6718749999999961
 40
0.6874999999999961
 40
0.6874999999999961
 40
0.7187499999999966
 40
0.7187499999999966
 40
0.7499999999999969
 40
0.7499999999999969
 40
0.7812499999999973
 40
0.7812499999999973
 40
0.8124999999999978
 40
0.8124999999999978
 40
0.8437499999999981
 40
0.8437499999999981
 40
0.8749999999999986
 40
0.8749999999999986
 40
0.9062499999999989
 40
0.9062499999999989
 40
0.9374999999999993
 40
0.9374999999999993
 40
0.9687499999999997
 40
0.9687499999999997
 40
1.0
 40
1.0
 40
1.03125
 40
1.03125
 10
97.16787272384879
 20
112.0443091817021
 30
0.0
 10
97.24103847655893
 20
112.4795793679902
 30
0.0
 10
97.27801716561058
 20
112.7193511176316
 30
0.0
 10
97.34858456767674
 20
113.2451114320373
 30
0.0
 10
97.3824045885091
 20
113.53429199994
 30
0.0
 10
97.43949411260996
 20
114.1374866847628
 30
0.0
 10
97.4631532034296
 20
114.4535175159164
 30
0.0
 10
97.48859974889653
 20
114.9511233586016
 30
0.0
 10
97.49539184340934
 20
115.1215644410355
 30
0.0
 10
97.50491990456531
 20
115.460816984217
 30
0.0
 10
97.51053830926041
 20
115.8007232583389
 30
0.0
 10
97.50825658782603
 20
116.1419236472712
 30
0.0
 10
97.50197721926088
 20
116.4837843740524
 30
0.0
 10
97.4967857736421
 20
116.6557420874265
 30
0.0
 10
97.47583546258502
 20
117.159177169405
 30
0.0
 10
97.45470065795104
 20
117.4824946669369
 30
0.0
 10
97.4145009756835
 20
117.9498779013185
 30
0.0
 10
97.39968551592864
 20
118.1024408209831
 30
0.0
 10
97.36839353194829
 20
118.3949838787633
 30
0.0
 10
97.35184125393894
 20
118.5358869148973
 30
0.0
 10
97.30027688369775
 20
118.9432329728406
 30
0.0
 10
97.26298984566745
 20
119.1964900124406
 30
0.0
 10
97.18990569790343
 20
119.6482321381197
 30
0.0
 10
97.15401158855668
 20
119.8480826081887
 30
0.0
 10
97.08733086168043
 20
120.1983395481142
 30
0.0
 10
97.05682815395721
 20
120.3471320658641
 30
0.0
 10
97.00617861683592
 20
120.5863024351194
 30
0.0
 10
96.98571482840701
 20
120.6782664915397
 30
0.0
 10
96.95688832318321
 20
120.8062679582499
 30
0.0
 10
96.94891423278509
 20
120.8406272393322
 30
0.0
 10
96.94622479760837
 20
120.852304489574
 30
0.0
 10
96.9515150554071
 20
120.8295951701814
 30
0.0
 10
96.97523423782664
 20
120.725069504805
 30
0.0
 10
96.99333535118211
 20
120.6446546537625
 30
0.0
 10
97.03980892212769
 20
120.4286701919317
 30
0.0
 10
97.068380996645
 20
120.2921690195218
 30
0.0
 10
97.1326630380049
 20
119.9631795223767
 30
0.0
 10
97.16768350547582
 20
119.7741825300712
 30
0.0
 10
97.22169619613999
 20
119.4532665579623
 30
0.0
 10
97.23994833409053
 20
119.3400142597086
 30
0.0
 10
97.276453305888
 20
119.1002417425431
 30
0.0
 10
97.29481763547538
 20
118.9728596318063
 30
0.0
 10
97.348021024511
 20
118.5772363960208
 30
0.0
 10
97.38107531509903
 20
118.2954523242767
 30
0.0
 10
97.42403520362913
 20
117.8444019556933
 30
0.0
 10
97.43725064790374
 20
117.6892886249561
 30
0.0
 10
97.46091634675963
 20
117.3688215404618
 30
0.0
 10
97.47128596858202
 20
117.2041151454852
 30
0.0
 10
97.49678325821125
 20
116.7083850539097
 30
0.0
 10
97.50664714921051
 20
116.3714501933277
 30
0.0
 10
97.50943480455054
 20
115.8559620019617
 30
0.0
 10
97.50832104142764
 20
115.681836657195
 30
0.0
 10
97.50213347825041
 20
115.3398485023759
 30
0.0
 10
97.4970816370762
 20
115.1708201761463
 30
0.0
 10
97.48331873331718
 20
114.8365804265531
 30
0.0
 10
97.47460717551509
 20
114.6713692180991
 30
0.0
 10
97.45377008000575
 20
114.344769071027
 30
0.0
 10
97.44163740333327
 20
114.1836670364088
 30
0.0
 10
97.40164754311789
 20
113.7175444429719
 30
0.0
 10
97.36996642396682
 20
113.4254475282411
 30
0.0
 10
97.30059828465444
 20
112.8764515825979
 30
0.0
 10
97.26367281533419
 20
112.6256748013229
 30
0.0
 10
97.19067900667862
 20
112.1738968534884
 30
0.0
 10
97.15412022541749
 20
111.9701648244702
 30
0.0
 10
97.08751160349308
 20
111.620219642557
 30
0.0
 10
97.05735462167891
 20
111.4730430556831
 30
0.0
 10
97.00635098146427
 20
111.2321094439773
 30
0.0
 10
96.98559051231726
 20
111.138825525429
 30
0.0
 10
96.95703905902867
 20
111.0120437851184
 30
0.0
 10
96.94895946367585
 20
110.9772124150836
 30
0.0
 10
96.946195363723
 20
110.9652108903035
 30
0.0
 10
96.95166542809697
 20
110.9887090719926
 30
0.0
 10
96.97515065752776
 20
111.0922070434036
 30
0.0
 10
96.99313275079591
 20
111.1720415807119
 30
0.0
 10
97.04010593576385
 20
111.3903588121651
 30
0.0
 10
97.06894007345
 20
111.5282751746688
 30
0.0
 10
97.13269364042533
 20
111.8546812123468
 30
0.0
 10
97.16787272384879
 20
112.0443091817021
 30
0.0
 10
97.24103847655893
 20
112.4795793679902
 30
0.0
  0
LINE
  5
209
330
1F
100
AcDbEntity
  8
0
  6
HIDDEN
 62
     7
370
     0
100
AcDbLine
 10
79.7588274969
 20
136.6588208215
 30
0.0
 11
71.258827035
 21
136.6588208215
 31
0.0
  0
SPLINE
  5
20A
330
1F
100
AcDbEntity
  8
0
  6
HIDDEN
 62
     7
370
     0
100
AcDbSpline
210
0.0
220
0.0
230
1.0
 70
     8
 71
     3
 72
    83
 73
    79
 74
     0
 42
0.00000001
 43
0.00000001
 12
1.0
 22
0.0
 32
0.0
 13
1.0
 23
0.0
 33
0.0
 40
-0.0312500000000003
 40
-0.0312500000000003
 40
0.0
 40
0.0
 40
0.0312499999999999
 40
0.0312499999999999
 40
0.0624999999999998
 40
0.0624999999999998
 40
0.0937499999999996
 40
0.0937499999999996
 40
0.1093749999999996
 40
0.1093749999999996
 40
0.1249999999999995
 40
0.1406249999999994
 40
0.1406249999999994
 40
0.1562499999999994
 40
0.1562499999999994
 40
0.1874999999999994
 40
0.1874999999999994
 40
0.2031249999999993
 40
0.2031249999999993
 40
0.2187499999999993
 40
0.2187499999999993
 40
0.2499999999999988
 40
0.2499999999999988
 40
0.2812499999999984
 40
0.2812499999999984
 40
0.3124999999999979
 40
0.3124999999999979
 40
0.3437499999999975
 40
0.3437499999999975
 40
0.3749999999999971
 40
0.3749999999999971
 40
0.4062499999999966
 40
0.4062499999999966
 40
0.4374999999999962
 40
0.4374999999999962
 40
0.4687499999999957
 40
0.4687499999999957
 40
0.4999999999999953
 40
0.4999999999999953
 40
0.5156249999999953
 40
0.5156249999999953
 40
0.5312499999999952
 40
0.5312499999999952
 40
0.5624999999999952
 40
0.5624999999999952
 40
0.5781249999999953
 40
0.5781249999999953
 40
0.5937499999999952
 40
0.5937499999999952
 40
0.6249999999999954
 40
0.6249999999999954
 40
0.6406249999999956
 40
0.6406249999999956
 40
0.6562499999999956
 40
0.6562499999999956
 40
0.6718749999999957
 40
0.6718749999999957
 40
0.6874999999999957
 40
0.6874999999999957
 40
0.7187499999999961
 40
0.7187499999999961
 40
0.7499999999999966
 40
0.7499999999999966
 40
0.781249999999997
 40
0.781249999999997
 40
0.8124999999999974
 40
0.8124999999999974
 40
0.8437499999999979
 40
0.8437499999999979
 40
0.8749999999999983
 40
0.8749999999999983
 40
0.9062499999999988
 40
0.9062499999999988
 40
0.9374999999999992
 40
0.9374999999999992
 40
0.9687499999999997
 40
0.9687499999999997
 40
1.0
 40
1.0
 40
1.03125
 40
1.03125
 10
79.37333969553154
 20
137.5678670691521
 30
0.0
 10
78.93806950924345
 20
137.6410328218623
 30
0.0
 10
78.69829775960203
 20
137.6780115109139
 30
0.0
 10
78.17253744519634
 20
137.7485789129801
 30
0.0
 10
77.88335687729361
 20
137.7823989338125
 30
0.0
 10
77.28016219247084
 20
137.8394884579133
 30
0.0
 10
76.96413136131723
 20
137.863147548733
 30
0.0
 10
76.46652551863205
 20
137.8885940941999
 30
0.0
 10
76.2960844361981
 20
137.8953861887127
 30
0.0
 10
75.95683189301666
 20
137.9049142498687
 30
0.0
 10
75.61692561889475
 20
137.9105326545638
 30
0.0
 10
75.27572522996243
 20
137.9082509331294
 30
0.0
 10
74.93386450318121
 20
137.9019715645643
 30
0.0
 10
74.76190678980713
 20
137.8967801189455
 30
0.0
 10
74.25847170782866
 20
137.8758298078884
 30
0.0
 10
73.9351542102968
 20
137.8546950032544
 30
0.0
 10
73.4677709759152
 20
137.8144953209869
 30
0.0
 10
73.31520805625053
 20
137.7996798612321
 30
0.0
 10
73.0226649984704
 20
137.7683878772517
 30
0.0
 10
72.88176196233634
 20
137.7518355992424
 30
0.0
 10
72.47441590439303
 20
137.7002712290012
 30
0.0
 10
72.22115886479304
 20
137.6629841909709
 30
0.0
 10
71.76941673911394
 20
137.5899000432069
 30
0.0
 10
71.56956626904493
 20
137.5540059338601
 30
0.0
 10
71.2193093291194
 20
137.4873252069839
 30
0.0
 10
71.07051681136957
 20
137.4568224992607
 30
0.0
 10
70.83134644211428
 20
137.4061729621394
 30
0.0
 10
70.73938238569397
 20
137.3857091737105
 30
0.0
 10
70.61138091898378
 20
137.3568826684867
 30
0.0
 10
70.57702163790147
 20
137.3489085780886
 30
0.0
 10
70.56534438765964
 20
137.3462191429118
 30
0.0
 10
70.58805370705227
 20
137.3515094007106
 30
0.0
 10
70.69257937242861
 20
137.3752285831301
 30
0.0
 10
70.77299422347114
 20
137.3933296964856
 30
0.0
 10
70.98897868530194
 20
137.4398032674311
 30
0.0
 10
71.1254798577119
 20
137.4683753419485
 30
0.0
 10
71.454469354857
 20
137.5326573833084
 30
0.0
 10
71.64346634716246
 20
137.5676778507793
 30
0.0
 10
71.9643823192714
 20
137.6216905414434
 30
0.0
 10
72.07763461752508
 20
137.639942679394
 30
0.0
 10
72.31740713469054
 20
137.6764476511914
 30
0.0
 10
72.44478924542736
 20
137.6948119807788
 30
0.0
 10
72.84041248121281
 20
137.7480153698145
 30
0.0
 10
73.12219655295699
 20
137.7810696604025
 30
0.0
 10
73.57324692154033
 20
137.8240295489325
 30
0.0
 10
73.7283602522776
 20
137.8372449932072
 30
0.0
 10
74.04882733677186
 20
137.860910692063
 30
0.0
 10
74.21353373174841
 20
137.8712803138854
 30
0.0
 10
74.70926382332395
 20
137.8967776035147
 30
0.0
 10
75.04619868390597
 20
137.9066414945139
 30
0.0
 10
75.56168687527192
 20
137.909429149854
 30
0.0
 10
75.73581222003868
 20
137.908315386731
 30
0.0
 10
76.07780037485772
 20
137.9021278235538
 30
0.0
 10
76.24682870108735
 20
137.8970759823796
 30
0.0
 10
76.58106845068052
 20
137.8833130786206
 30
0.0
 10
76.74627965913459
 20
137.8746015208185
 30
0.0
 10
77.07287980620666
 20
137.8537644253092
 30
0.0
 10
77.23398184082487
 20
137.8416317486367
 30
0.0
 10
77.70010443426177
 20
137.8016418884213
 30
0.0
 10
77.9922013489926
 20
137.7699607692702
 30
0.0
 10
78.54119729463572
 20
137.7005926299578
 30
0.0
 10
78.79197407591079
 20
137.6636671606375
 30
0.0
 10
79.24375202374522
 20
137.590673351982
 30
0.0
 10
79.44748405276346
 20
137.5541145707209
 30
0.0
 10
79.79742923467666
 20
137.4875059487964
 30
0.0
 10
79.94460582155057
 20
137.4573489669823
 30
0.0
 10
80.18553943325638
 20
137.4063453267676
 30
0.0
 10
80.27882335180468
 20
137.3855848576206
 30
0.0
 10
80.4056050921153
 20
137.357033404332
 30
0.0
 10
80.44043646215005
 20
137.3489538089792
 30
0.0
 10
80.45243798693019
 20
137.3461897090263
 30
0.0
 10
80.42893980524104
 20
137.3516597734003
 30
0.0
 10
80.3254418338301
 20
137.3751450028311
 30
0.0
 10
80.24560729652175
 20
137.3931270960992
 30
0.0
 10
80.02729006506853
 20
137.4401002810672
 30
0.0
 10
79.88937370256491
 20
137.4689344187533
 30
0.0
 10
79.56296766488684
 20
137.5326879857287
 30
0.0
 10
79.37333969553154
 20
137.5678670691521
 30
0.0
 10
78.93806950924345
 20
137.6410328218623
 30
0.0
  0
LINE
  5
20B
330
1F
100
AcDbEntity
  8
0
  6
HIDDEN
 62
     7
370
     0
100
AcDbLine
 10
71.258827035
 20
95.158822401
 30
0.0
 11
79.7588274969
 21
95.158822401
 31
0.0
  0
SPLINE
  5
20C
330
1F
100
AcDbEntity
  8
0
  6
HIDDEN
 62
     7
370
     0
100
AcDbSpline
210
0.0
220
0.0
230
1.0
 70
     8
 71
     3
 72
    83
 73
    79
 74
     0
 42
0.00000001
 43
0.00000001
 12
1.0
 22
0.0
 32
0.0
 13
1.0
 23
0.0
 33
0.0
 40
-0.0312500000000004
 40
-0.0312500000000004
 40
0.0
 40
0.0
 40
0.0312499999999999
 40
0.0312499999999999
 40
0.0624999999999997
 40
0.0624999999999997
 40
0.0937499999999996
 40
0.0937499999999996
 40
0.1093749999999995
 40
0.1093749999999995
 40
0.1249999999999995
 40
0.1406249999999994
 40
0.1406249999999994
 40
0.1562499999999993
 40
0.1562499999999993
 40
0.1874999999999991
 40
0.1874999999999991
 40
0.2031249999999989
 40
0.2031249999999989
 40
0.2187499999999988
 40
0.2187499999999988
 40
0.2499999999999984
 40
0.2499999999999984
 40
0.2812499999999981
 40
0.2812499999999981
 40
0.3124999999999977
 40
0.3124999999999977
 40
0.3437499999999973
 40
0.3437499999999973
 40
0.374999999999997
 40
0.374999999999997
 40
0.4062499999999966
 40
0.4062499999999966
 40
0.4374999999999963
 40
0.4374999999999963
 40
0.4687499999999959
 40
0.4687499999999959
 40
0.4999999999999956
 40
0.4999999999999956
 40
0.5156249999999956
 40
0.5156249999999956
 40
0.5312499999999957
 40
0.5312499999999957
 40
0.5624999999999958
 40
0.5624999999999958
 40
0.5781249999999958
 40
0.5781249999999958
 40
0.5937499999999958
 40
0.5937499999999958
 40
0.6249999999999961
 40
0.6249999999999961
 40
0.6406249999999963
 40
0.6406249999999963
 40
0.6562499999999964
 40
0.6562499999999964
 40
0.6718749999999966
 40
0.6718749999999966
 40
0.6874999999999968
 40
0.6874999999999968
 40
0.7187499999999971
 40
0.7187499999999971
 40
0.7499999999999973
 40
0.7499999999999973
 40
0.7812499999999977
 40
0.7812499999999977
 40
0.812499999999998
 40
0.812499999999998
 40
0.8437499999999983
 40
0.8437499999999983
 40
0.8749999999999987
 40
0.8749999999999987
 40
0.906249999999999
 40
0.906249999999999
 40
0.9374999999999992
 40
0.9374999999999992
 40
0.9687499999999996
 40
0.9687499999999996
 40
1.0
 40
1.0
 40
1.03125
 40
1.03125
 10
71.64431483639865
 20
94.24977615338466
 30
0.0
 10
72.07958502268671
 20
94.17661040067452
 30
0.0
 10
72.31935677232813
 20
94.13963171162287
 30
0.0
 10
72.84511708673384
 20
94.06906430955671
 30
0.0
 10
73.13429765463655
 20
94.03524428872431
 30
0.0
 10
73.73749233945934
 20
93.97815476462348
 30
0.0
 10
74.05352317061295
 20
93.95449567380385
 30
0.0
 10
74.55112901329814
 20
93.9290491283369
 30
0.0
 10
74.72157009573206
 20
93.9222570338241
 30
0.0
 10
75.06082263891352
 20
93.91272897266815
 30
0.0
 10
75.40072891303541
 20
93.907110567973
 30
0.0
 10
75.74192930196774
 20
93.90939228940739
 30
0.0
 10
76.08379002874898
 20
93.91567165797254
 30
0.0
 10
76.25574774212305
 20
93.92086310359133
 30
0.0
 10
76.75918282410152
 20
93.94181341464841
 30
0.0
 10
77.08250032163338
 20
93.96294821928241
 30
0.0
 10
77.54988355601498
 20
94.00314790154992
 30
0.0
 10
77.70244647567964
 20
94.0179633613048
 30
0.0
 10
77.99498953345976
 20
94.04925534528512
 30
0.0
 10
78.13589256959384
 20
94.06580762329448
 30
0.0
 10
78.54323862753714
 20
94.11737199353566
 30
0.0
 10
78.79649566713714
 20
94.15465903156596
 30
0.0
 10
79.24823779281624
 20
94.22774317932998
 30
0.0
 10
79.44808826288524
 20
94.26363728867673
 30
0.0
 10
79.79834520281078
 20
94.33031801555298
 30
0.0
 10
79.9471377205606
 20
94.36082072327623
 30
0.0
 10
80.1863080898159
 20
94.41147026039746
 30
0.0
 10
80.2782721462362
 20
94.4319340488264
 30
0.0
 10
80.40627361294639
 20
94.4607605540502
 30
0.0
 10
80.4406328940287
 20
94.46873464444835
 30
0.0
 10
80.45231014427053
 20
94.47142407962505
 30
0.0
 10
80.42960082487791
 20
94.46613382182629
 30
0.0
 10
80.32507515950157
 20
94.44241463940676
 30
0.0
 10
80.24466030845902
 20
94.4243135260513
 30
0.0
 10
80.02867584662823
 20
94.37783995510574
 30
0.0
 10
79.89217467421827
 20
94.34926788058841
 30
0.0
 10
79.56318517707317
 20
94.28498583922848
 30
0.0
 10
79.37418818476772
 20
94.24996537175761
 30
0.0
 10
79.05327221265878
 20
94.19595268109343
 30
0.0
 10
78.94001991440511
 20
94.17770054314288
 30
0.0
 10
78.70024739723965
 20
94.1411955713454
 30
0.0
 10
78.57286528650282
 20
94.12283124175804
 30
0.0
 10
78.17724205071735
 20
94.0696278527224
 30
0.0
 10
77.89545797897318
 20
94.03657356213438
 30
0.0
 10
77.44440761038986
 20
93.99361367360429
 30
0.0
 10
77.28929427965258
 20
93.9803982293297
 30
0.0
 10
76.9688271951583
 20
93.95673253047379
 30
0.0
 10
76.80412080018176
 20
93.9463629086514
 30
0.0
 10
76.30839070860624
 20
93.92086561902217
 30
0.0
 10
75.9714558480242
 20
93.9110017280229
 30
0.0
 10
75.45596765665827
 20
93.9082140726829
 30
0.0
 10
75.2818423118915
 20
93.90932783580578
 30
0.0
 10
74.93985415707246
 20
93.91551539898302
 30
0.0
 10
74.77082583084282
 20
93.92056724015724
 30
0.0
 10
74.43658608124964
 20
93.93433014391626
 30
0.0
 10
74.27137487279559
 20
93.94304170171834
 30
0.0
 10
73.94477472572353
 20
93.96387879722768
 30
0.0
 10
73.78367269110532
 20
93.97601147390014
 30
0.0
 10
73.3175500976684
 20
94.01600133411553
 30
0.0
 10
73.0254531829376
 20
94.04768245326662
 30
0.0
 10
72.47645723729444
 20
94.117050592579
 30
0.0
 10
72.22568045601938
 20
94.15397606189926
 30
0.0
 10
71.77390250818496
 20
94.22696987055483
 30
0.0
 10
71.5701704791667
 20
94.26352865181595
 30
0.0
 10
71.22022529725352
 20
94.33013727374036
 30
0.0
 10
71.0730487103796
 20
94.36029425555454
 30
0.0
 10
70.83211509867381
 20
94.41129789576918
 30
0.0
 10
70.73883118012549
 20
94.43205836491619
 30
0.0
 10
70.61204943981488
 20
94.46060981820477
 30
0.0
 10
70.57721806978012
 20
94.46868941355758
 30
0.0
 10
70.56521654499998
 20
94.47145351351044
 30
0.0
 10
70.58871472668912
 20
94.46598344913646
 30
0.0
 10
70.69221269810006
 20
94.44249821970568
 30
0.0
 10
70.77204723540844
 20
94.42451612643754
 30
0.0
 10
70.99036446686166
 20
94.3775429414696
 30
0.0
 10
71.12828082936527
 20
94.34870880378347
 30
0.0
 10
71.45468686704334
 20
94.2849552368081
 30
0.0
 10
71.64431483639865
 20
94.24977615338466
 30
0.0
 10
72.07958502268671
 20
94.17661040067452
 30
0.0
  0
SPLINE
  5
20D
330
1F
100
AcDbEntity
  8
0
  6
HIDDEN
 62
     7
370
     0
100
AcDbSpline
210
0.0
220
0.0
230
1.0
 70
    11
 71
     3
 72
    70
 73
    66
 74
     0
 42
0.00000001
 43
0.00000001
 12
1.0
 22
0.0
 32
0.0
 13
1.0
 23
0.0
 33
0.0
 40
-0.03125
 40
-0.03125
 40
0.0
 40
0.0
 40
0.03125
 40
0.03125
 40
0.0625
 40
0.0625
 40
0.09375
 40
0.09375
 40
0.125
 40
0.125
 40
0.15625
 40
0.15625
 40
0.1875
 40
0.1875
 40
0.2187499999999999
 40
0.2187499999999999
 40
0.2499999999999999
 40
0.2499999999999999
 40
0.2812499999999999
 40
0.2812499999999999
 40
0.3124999999999999
 40
0.3124999999999999
 40
0.3437499999999999
 40
0.3437499999999999
 40
0.3749999999999999
 40
0.3749999999999999
 40
0.4062499999999999
 40
0.4062499999999999
 40
0.4374999999999998
 40
0.4374999999999998
 40
0.4687499999999999
 40
0.4687499999999999
 40
0.4999999999999999
 40
0.4999999999999999
 40
0.5312499999999999
 40
0.5312499999999999
 40
0.5624999999999999
 40
0.5624999999999999
 40
0.5937499999999999
 40
0.5937499999999999
 40
0.6249999999999998
 40
0.6249999999999998
 40
0.6562499999999998
 40
0.6562499999999998
 40
0.6874999999999998
 40
0.6874999999999998
 40
0.7187499999999999
 40
0.7187499999999999
 40
0.75
 40
0.75
 40
0.78125
 40
0.78125
 40
0.8125
 40
0.8125
 40
0.84375
 40
0.84375
 40
0.8749999999999999
 40
0.8749999999999999
 40
0.9062499999999999
 40
0.9062499999999999
 40
0.9374999999999999
 40
0.9374999999999999
 40
0.96875
 40
0.96875
 40
1.0
 40
1.0
 40
1.03125
 40
1.03125
 10
84.56076076108084
 20
120.1588216112684
 30
0.0
 10
84.56076076108084
 20
120.1588216112684
 30
0.0
 10
84.57417258271578
 20
120.1305714827065
 30
0.0
 10
84.62457287383465
 20
120.0206143713097
 30
0.0
 10
84.66218391491634
 20
119.9374204159517
 30
0.0
 10
84.75346814867537
 20
119.7232889688057
 30
0.0
 10
84.80697681919158
 20
119.5927698010448
 30
0.0
 10
84.92311329542065
 20
119.284955189005
 30
0.0
 10
84.98527192941499
 20
119.1085291362512
 30
0.0
 10
85.10721236164923
 20
118.7216734132318
 30
0.0
 10
85.16784310635123
 20
118.5087621796075
 30
0.0
 10
85.28026470346018
 20
118.0478139835889
 30
0.0
 10
85.33079224580663
 20
117.8051097522384
 30
0.0
 10
85.4156913355494
 20
117.2948046867771
 30
0.0
 10
85.45033385824513
 20
117.0235751130088
 30
0.0
 10
85.49669762699253
 20
116.4733340958953
 30
0.0
 10
85.50867755275507
 20
116.1952275074391
 30
0.0
 10
85.50897419566047
 20
115.6329675192578
 30
0.0
 10
85.49687629926392
 20
115.3479405233997
 30
0.0
 10
85.45092095897809
 20
114.7995497394257
 30
0.0
 10
85.4170409320249
 20
114.5317998802473
 30
0.0
 10
85.33116567679738
 20
114.0139456145111
 30
0.0
 10
85.28041686284905
 20
113.7707199397926
 30
0.0
 10
85.16895550336919
 20
113.3131782527912
 30
0.0
 10
85.10762125285295
 20
113.0973200530436
 30
0.0
 10
84.9853333120633
 20
112.7092559887378
 30
0.0
 10
84.92405055387047
 20
112.5352994067026
 30
0.0
 10
84.80794969595844
 20
112.2273268526399
 30
0.0
 10
84.75357718672096
 20
112.094635864155
 30
0.0
 10
84.66275824853723
 20
111.8815444197774
 30
0.0
 10
84.62563416821945
 20
111.7993642921953
 30
0.0
 10
84.57422677074327
 20
111.6871703503228
 30
0.0
 10
84.56094527348668
 20
111.6592145985586
 30
0.0
 10
84.56058009923473
 20
111.658436825162
 30
0.0
 10
84.5738145341137
 20
111.6863007403273
 30
0.0
 10
84.62435312129175
 20
111.7965393911259
 30
0.0
 10
84.66116141501567
 20
111.877900168569
 30
0.0
 10
84.75250582397109
 20
112.0920225899219
 30
0.0
 10
84.8068593194411
 20
112.2246235786649
 30
0.0
 10
84.92229537752196
 20
112.5304590902223
 30
0.0
 10
84.98429419108999
 20
112.7061064464688
 30
0.0
 10
85.10736018367241
 20
113.0963451751605
 30
0.0
 10
85.16750237573831
 20
113.3078320681754
 30
0.0
 10
85.27895221363323
 20
113.7641048499257
 30
0.0
 10
85.33072699332111
 20
114.0120334317108
 30
0.0
 10
85.41598035701817
 20
114.5246838714524
 30
0.0
 10
85.44986953880219
 20
114.7900177805362
 30
0.0
 10
85.49641934141414
 20
115.3395694558726
 30
0.0
 10
85.50871930088987
 20
115.6246217488418
 30
0.0
 10
85.50893376824631
 20
116.1853721762439
 30
0.0
 10
85.49725210915712
 20
116.4648501329635
 30
0.0
 10
85.45072866798105
 20
117.0207546477535
 30
0.0
 10
85.41674079861893
 20
117.287524546941
 30
0.0
 10
85.33173032907696
 20
117.8004208732911
 30
0.0
 10
85.28006994496349
 20
118.0485419918883
 30
0.0
 10
85.16837324631338
 20
118.5066588372426
 30
0.0
 10
85.10816639418432
 20
118.7185498269865
 30
0.0
 10
84.98517075618656
 20
119.1089463588525
 30
0.0
 10
84.92306640440408
 20
119.2850293478536
 30
0.0
 10
84.8077859069699
 20
119.5906751430071
 30
0.0
 10
84.7538747587005
 20
119.7223339639495
 30
0.0
 10
84.66180855514695
 20
119.9383021146176
 30
0.0
 10
84.62501472916922
 20
120.0196374294527
 30
0.0
 10
84.57446688710644
 20
120.1299421751597
 30
0.0
 10
84.56076076108084
 20
120.1588216112684
 30
0.0
 10
84.56076076108084
 20
120.1588216112684
 30
0.0
  0
SPLINE
  5
20E
330
1F
100
AcDbEntity
  8
0
  6
HIDDEN
 62
     7
370
     0
100
AcDbSpline
210
0.0
220
0.0
230
1.0
 70
    11
 71
     3
 72
    70
 73
    66
 74
     0
 42
0.00000001
 43
0.00000001
 12
1.0
 22
0.0
 32
0.0
 13
1.0
 23
0.0
 33
0.0
 40
-0.03125
 40
-0.03125
 40
0.0
 40
0.0
 40
0.03125
 40
0.03125
 40
0.0625
 40
0.0625
 40
0.09375
 40
0.09375
 40
0.125
 40
0.125
 40
0.15625
 40
0.15625
 40
0.1874999999999999
 40
0.1874999999999999
 40
0.2187499999999999
 40
0.2187499999999999
 40
0.2499999999999999
 40
0.2499999999999999
 40
0.2812499999999999
 40
0.2812499999999999
 40
0.3124999999999999
 40
0.3124999999999999
 40
0.3437499999999999
 40
0.3437499999999999
 40
0.3749999999999999
 40
0.3749999999999999
 40
0.4062499999999999
 40
0.4062499999999999
 40
0.4374999999999999
 40
0.4374999999999999
 40
0.4687499999999999
 40
0.4687499999999999
 40
0.4999999999999999
 40
0.4999999999999999
 40
0.5312499999999999
 40
0.5312499999999999
 40
0.5624999999999999
 40
0.5624999999999999
 40
0.5937499999999999
 40
0.5937499999999999
 40
0.6249999999999999
 40
0.6249999999999999
 40
0.6562499999999999
 40
0.6562499999999999
 40
0.6874999999999999
 40
0.6874999999999999
 40
0.7187499999999999
 40
0.7187499999999999
 40
0.7499999999999999
 40
0.7499999999999999
 40
0.78125
 40
0.78125
 40
0.8125
 40
0.8125
 40
0.84375
 40
0.84375
 40
0.875
 40
0.875
 40
0.90625
 40
0.90625
 40
0.9375
 40
0.9375
 40
0.96875
 40
0.96875
 40
1.0
 40
1.0
 40
1.03125
 40
1.03125
 10
79.75882726596498
 20
106.8568881161526
 30
0.0
 10
79.75882726596498
 20
106.8568881161526
 30
0.0
 10
79.73057713740309
 20
106.8434762945176
 30
0.0
 10
79.62062002600629
 20
106.7930760033988
 30
0.0
 10
79.53742607064831
 20
106.7554649623171
 30
0.0
 10
79.32329462350229
 20
106.6641807285581
 30
0.0
 10
79.19277545574133
 20
106.6106720580418
 30
0.0
 10
78.88496084370156
 20
106.4945355818128
 30
0.0
 10
78.70853479094782
 20
106.4323769478184
 30
0.0
 10
78.32167906792834
 20
106.3104365155842
 30
0.0
 10
78.10876783430405
 20
106.2498057708822
 30
0.0
 10
77.64781963828545
 20
106.1373841737732
 30
0.0
 10
77.40511540693493
 20
106.0868566314268
 30
0.0
 10
76.89481034147364
 20
106.001957541684
 30
0.0
 10
76.62358076770536
 20
105.9673150189883
 30
0.0
 10
76.07333975059181
 20
105.9209512502409
 30
0.0
 10
75.79523316213569
 20
105.9089713244784
 30
0.0
 10
75.23297317395438
 20
105.9086746815729
 30
0.0
 10
74.94794617809622
 20
105.9207725779695
 30
0.0
 10
74.39955539412226
 20
105.9667279182553
 30
0.0
 10
74.13180553494385
 20
106.0006079452085
 30
0.0
 10
73.61395126920765
 20
106.086483200436
 30
0.0
 10
73.37072559448913
 20
106.1372320143844
 30
0.0
 10
72.91318390748782
 20
106.2486933738643
 30
0.0
 10
72.69732570774015
 20
106.3100276243805
 30
0.0
 10
72.3092616434344
 20
106.4323155651701
 30
0.0
 10
72.13530506139922
 20
106.4935983233629
 30
0.0
 10
71.8273325073365
 20
106.609699181275
 30
0.0
 10
71.6946415188516
 20
106.6640716905125
 30
0.0
 10
71.48155007447392
 20
106.7548906286962
 30
0.0
 10
71.39936994689191
 20
106.792014709014
 30
0.0
 10
71.28717600501939
 20
106.8434221064902
 30
0.0
 10
71.25922025325515
 20
106.8567036037468
 30
0.0
 10
71.2584424798586
 20
106.8570687779987
 30
0.0
 10
71.2863063950239
 20
106.8438343431197
 30
0.0
 10
71.39654504582244
 20
106.7932957559417
 30
0.0
 10
71.47790582326554
 20
106.7564874622177
 30
0.0
 10
71.69202824461844
 20
106.6651430532623
 30
0.0
 10
71.82462923336142
 20
106.6107895577923
 30
0.0
 10
72.13046474491891
 20
106.4953534997115
 30
0.0
 10
72.30611210116533
 20
106.4333546861435
 30
0.0
 10
72.69635082985701
 20
106.310288693561
 30
0.0
 10
72.907837722872
 20
106.2501465014951
 30
0.0
 10
73.36411050462226
 20
106.1386966636002
 30
0.0
 10
73.61203908640738
 20
106.0869218839123
 30
0.0
 10
74.12468952614893
 20
106.0016685202153
 30
0.0
 10
74.39002343523272
 20
105.9677793384312
 30
0.0
 10
74.93957511056918
 20
105.9212295358193
 30
0.0
 10
75.22462740353842
 20
105.9089295763436
 30
0.0
 10
75.78537783094048
 20
105.9087151089871
 30
0.0
 10
76.06485578766011
 20
105.9203967680763
 30
0.0
 10
76.62076030245008
 20
105.9669202092524
 30
0.0
 10
76.88753020163752
 20
106.0009080786145
 30
0.0
 10
77.40042652798768
 20
106.0859185481565
 30
0.0
 10
77.6485476465849
 20
106.1375789322699
 30
0.0
 10
78.10666449193914
 20
106.24927563092
 30
0.0
 10
78.31855548168309
 20
106.3094824830491
 30
0.0
 10
78.70895201354911
 20
106.4324781210469
 30
0.0
 10
78.88503500255017
 20
106.4945824728293
 30
0.0
 10
79.19068079770362
 20
106.6098629702635
 30
0.0
 10
79.32233961864605
 20
106.6637741185329
 30
0.0
 10
79.53830776931416
 20
106.7558403220865
 30
0.0
 10
79.61964308414923
 20
106.7926341480642
 30
0.0
 10
79.72994782985629
 20
106.843181990127
 30
0.0
 10
79.75882726596498
 20
106.8568881161526
 30
0.0
 10
79.75882726596498
 20
106.8568881161526
 30
0.0
  0
SPLINE
  5
20F
330
1F
100
AcDbEntity
  8
0
  6
HIDDEN
 62
     7
370
     0
100
AcDbSpline
210
0.0
220
0.0
230
1.0
 70
    11
 71
     3
 72
    70
 73
    66
 74
     0
 42
0.00000001
 43
0.00000001
 12
1.0
 22
0.0
 32
0.0
 13
1.0
 23
0.0
 33
0.0
 40
-0.03125
 40
-0.03125
 40
0.0
 40
0.0
 40
0.03125
 40
0.03125
 40
0.0625
 40
0.0625
 40
0.09375
 40
0.09375
 40
0.125
 40
0.125
 40
0.15625
 40
0.15625
 40
0.1875
 40
0.1875
 40
0.21875
 40
0.21875
 40
0.25
 40
0.25
 40
0.28125
 40
0.28125
 40
0.3125
 40
0.3125
 40
0.34375
 40
0.34375
 40
0.375
 40
0.375
 40
0.40625
 40
0.40625
 40
0.4375
 40
0.4375
 40
0.46875
 40
0.46875
 40
0.5
 40
0.5
 40
0.53125
 40
0.53125
 40
0.5625
 40
0.5625
 40
0.59375
 40
0.59375
 40
0.625
 40
0.625
 40
0.65625
 40
0.65625
 40
0.6875
 40
0.6875
 40
0.71875
 40
0.71875
 40
0.75
 40
0.75
 40
0.78125
 40
0.78125
 40
0.8125
 40
0.8125
 40
0.84375
 40
0.84375
 40
0.875
 40
0.875
 40
0.90625
 40
0.90625
 40
0.9375
 40
0.9375
 40
0.96875
 40
0.96875
 40
1.0
 40
1.0
 40
1.03125
 40
1.03125
 10
71.25882726596511
 20
124.9607551063843
 30
0.0
 10
71.25882726596511
 20
124.9607551063843
 30
0.0
 10
71.287077394527
 20
124.9741669280192
 30
0.0
 10
71.39703450592378
 20
125.0245672191381
 30
0.0
 10
71.48022846128177
 20
125.0621782602198
 30
0.0
 10
71.6943599084278
 20
125.1534624939788
 30
0.0
 10
71.82487907618876
 20
125.206971164495
 30
0.0
 10
72.13269368822854
 20
125.3231076407241
 30
0.0
 10
72.30911974098227
 20
125.3852662747184
 30
0.0
 10
72.69597546400173
 20
125.5072067069526
 30
0.0
 10
72.90888669762603
 20
125.5678374516547
 30
0.0
 10
73.36983489364464
 20
125.6802590487636
 30
0.0
 10
73.61253912499517
 20
125.7307865911101
 30
0.0
 10
74.12284419045645
 20
125.8156856808528
 30
0.0
 10
74.39407376422473
 20
125.8503282035486
 30
0.0
 10
74.94431478133828
 20
125.8966919722959
 30
0.0
 10
75.22242136979442
 20
125.9086718980585
 30
0.0
 10
75.78468135797571
 20
125.9089685409639
 30
0.0
 10
76.06970835383387
 20
125.8968706445673
 30
0.0
 10
76.61809913780783
 20
125.8509153042815
 30
0.0
 10
76.88584899698625
 20
125.8170352773283
 30
0.0
 10
77.40370326272244
 20
125.7311600221008
 30
0.0
 10
77.64692893744095
 20
125.6804112081524
 30
0.0
 10
78.10447062444227
 20
125.5689498486726
 30
0.0
 10
78.32032882418993
 20
125.5076155981563
 30
0.0
 10
78.7083928884957
 20
125.3853276573667
 30
0.0
 10
78.88234947053087
 20
125.3240448991738
 30
0.0
 10
79.19032202459358
 20
125.2079440412618
 30
0.0
 10
79.32301301307848
 20
125.1535715320243
 30
0.0
 10
79.53610445745616
 20
125.0627525938406
 30
0.0
 10
79.61828458503818
 20
125.0256285135228
 30
0.0
 10
79.73047852691069
 20
124.9742211160466
 30
0.0
 10
79.75843427867494
 20
124.9609396187901
 30
0.0
 10
79.75921205207148
 20
124.9605744445381
 30
0.0
 10
79.73134813690619
 20
124.9738088794171
 30
0.0
 10
79.62110948610766
 20
125.0243474665951
 30
0.0
 10
79.53974870866453
 20
125.061155760319
 30
0.0
 10
79.32562628731165
 20
125.1525001692745
 30
0.0
 10
79.19302529856867
 20
125.2068536647445
 30
0.0
 10
78.88718978701118
 20
125.3222897228254
 30
0.0
 10
78.71154243076475
 20
125.3842885363934
 30
0.0
 10
78.32130370207308
 20
125.5073545289758
 30
0.0
 10
78.10981680905809
 20
125.5674967210417
 30
0.0
 10
77.65354402730783
 20
125.6789465589366
 30
0.0
 10
77.40561544552271
 20
125.7307213386245
 30
0.0
 10
76.89296500578116
 20
125.8159747023216
 30
0.0
 10
76.62763109669736
 20
125.8498638841056
 30
0.0
 10
76.07807942136091
 20
125.8964136867175
 30
0.0
 10
75.79302712839169
 20
125.9087136461933
 30
0.0
 10
75.23227670098962
 20
125.9089281135497
 30
0.0
 10
74.95279874426998
 20
125.8972464544605
 30
0.0
 10
74.39689422948001
 20
125.8507230132845
 30
0.0
 10
74.13012433029256
 20
125.8167351439224
 30
0.0
 10
73.61722800394242
 20
125.7317246743804
 30
0.0
 10
73.36910688534519
 20
125.6800642902669
 30
0.0
 10
72.91099003999093
 20
125.5683675916168
 30
0.0
 10
72.69909905024699
 20
125.5081607394877
 30
0.0
 10
72.30870251838098
 20
125.38516510149
 30
0.0
 10
72.1326195293799
 20
125.3230607497075
 30
0.0
 10
71.82697373422646
 20
125.2077802522734
 30
0.0
 10
71.69531491328404
 20
125.1538691040039
 30
0.0
 10
71.47934676261593
 20
125.0618029004504
 30
0.0
 10
71.39801144778085
 20
125.0250090744727
 30
0.0
 10
71.28770670207379
 20
124.9744612324099
 30
0.0
 10
71.25882726596511
 20
124.9607551063843
 30
0.0
 10
71.25882726596511
 20
124.9607551063843
 30
0.0
  0
LINE
  5
210
330
1F
100
AcDbEntity
  8
0
  6
HIDDEN
 62
     7
370
     0
100
AcDbLine
 10
71.258827035
 20
136.6588208215
 30
0.0
 11
79.7450457855
 21
136.6588208215
 31
0.0
  0
SPLINE
  5
211
330
1F
100
AcDbEntity
  8
0
  6
HIDDEN
 62
     7
370
     0
100
AcDbSpline
210
0.0
220
0.0
230
1.0
 70
     8
 71
     3
 72
    83
 73
    79
 74
     0
 42
0.00000001
 43
0.00000001
 12
1.0
 22
0.0
 32
0.0
 13
1.0
 23
0.0
 33
0.0
 40
-0.0312500000000004
 40
-0.0312500000000004
 40
0.0
 40
0.0
 40
0.0312499999999998
 40
0.0312499999999998
 40
0.0624999999999996
 40
0.0624999999999996
 40
0.0937499999999994
 40
0.0937499999999994
 40
0.1093749999999993
 40
0.1093749999999993
 40
0.1249999999999992
 40
0.1406249999999991
 40
0.1406249999999991
 40
0.156249999999999
 40
0.156249999999999
 40
0.1874999999999986
 40
0.1874999999999986
 40
0.2031249999999984
 40
0.2031249999999984
 40
0.2187499999999983
 40
0.2187499999999983
 40
0.2499999999999979
 40
0.2499999999999979
 40
0.2812499999999975
 40
0.2812499999999975
 40
0.3124999999999971
 40
0.3124999999999971
 40
0.3437499999999967
 40
0.3437499999999967
 40
0.3749999999999964
 40
0.3749999999999964
 40
0.406249999999996
 40
0.406249999999996
 40
0.4374999999999956
 40
0.4374999999999956
 40
0.4687499999999952
 40
0.4687499999999952
 40
0.4999999999999948
 40
0.4999999999999948
 40
0.5156249999999949
 40
0.5156249999999949
 40
0.5312499999999949
 40
0.5312499999999949
 40
0.5624999999999949
 40
0.5624999999999949
 40
0.5781249999999949
 40
0.5781249999999949
 40
0.5937499999999949
 40
0.5937499999999949
 40
0.624999999999995
 40
0.624999999999995
 40
0.6406249999999951
 40
0.6406249999999951
 40
0.6562499999999952
 40
0.6562499999999952
 40
0.6718749999999953
 40
0.6718749999999953
 40
0.6874999999999954
 40
0.6874999999999954
 40
0.7187499999999959
 40
0.7187499999999959
 40
0.7499999999999963
 40
0.7499999999999963
 40
0.7812499999999969
 40
0.7812499999999969
 40
0.8124999999999973
 40
0.8124999999999973
 40
0.8437499999999978
 40
0.8437499999999978
 40
0.8749999999999982
 40
0.8749999999999982
 40
0.9062499999999987
 40
0.9062499999999987
 40
0.9374999999999991
 40
0.9374999999999991
 40
0.9687499999999996
 40
0.9687499999999996
 40
1.0
 40
1.0
 40
1.03125
 40
1.03125
 10
79.37333969553154
 20
137.5678670691521
 30
0.0
 10
78.93806950924345
 20
137.6410328218623
 30
0.0
 10
78.69829775960203
 20
137.6780115109139
 30
0.0
 10
78.17253744519634
 20
137.7485789129801
 30
0.0
 10
77.88335687729361
 20
137.7823989338125
 30
0.0
 10
77.28016219247083
 20
137.8394884579133
 30
0.0
 10
76.96413136131723
 20
137.863147548733
 30
0.0
 10
76.46652551863205
 20
137.8885940941999
 30
0.0
 10
76.2960844361981
 20
137.8953861887127
 30
0.0
 10
75.95683187760093
 20
137.9049141651327
 30
0.0
 10
75.61692561889477
 20
137.9105326545638
 30
0.0
 10
75.27572522996243
 20
137.9082509331294
 30
0.0
 10
74.93386450318121
 20
137.9019715645643
 30
0.0
 10
74.76190678980713
 20
137.8967801189455
 30
0.0
 10
74.25847170782866
 20
137.8758298078884
 30
0.0
 10
73.9351542102968
 20
137.8546950032544
 30
0.0
 10
73.4677709759152
 20
137.8144953209869
 30
0.0
 10
73.31520805625053
 20
137.7996798612321
 30
0.0
 10
73.0226649984704
 20
137.7683878772517
 30
0.0
 10
72.88176196233636
 20
137.7518355992424
 30
0.0
 10
72.47441590439303
 20
137.7002712290012
 30
0.0
 10
72.22115886479305
 20
137.6629841909709
 30
0.0
 10
71.76941673911394
 20
137.5899000432069
 30
0.0
 10
71.56956626904494
 20
137.5540059338601
 30
0.0
 10
71.21930932911941
 20
137.4873252069839
 30
0.0
 10
71.07051681136957
 20
137.4568224992607
 30
0.0
 10
70.83134644211428
 20
137.4061729621394
 30
0.0
 10
70.73938238569397
 20
137.3857091737105
 30
0.0
 10
70.61138091898378
 20
137.3568826684867
 30
0.0
 10
70.57702163790147
 20
137.3489085780885
 30
0.0
 10
70.56534438765964
 20
137.3462191429118
 30
0.0
 10
70.58805370705228
 20
137.3515094007106
 30
0.0
 10
70.69257937242861
 20
137.3752285831301
 30
0.0
 10
70.77299422347114
 20
137.3933296964856
 30
0.0
 10
70.98897868530194
 20
137.4398032674311
 30
0.0
 10
71.1254798577119
 20
137.4683753419484
 30
0.0
 10
71.454469354857
 20
137.5326573833084
 30
0.0
 10
71.64346634716246
 20
137.5676778507793
 30
0.0
 10
71.9643823192714
 20
137.6216905414434
 30
0.0
 10
72.07763461752506
 20
137.639942679394
 30
0.0
 10
72.31740713469053
 20
137.6764476511914
 30
0.0
 10
72.44478924542736
 20
137.6948119807788
 30
0.0
 10
72.84041248121281
 20
137.7480153698145
 30
0.0
 10
73.12219655295699
 20
137.7810696604025
 30
0.0
 10
73.57324692154032
 20
137.8240295489325
 30
0.0
 10
73.7283602522776
 20
137.8372449932072
 30
0.0
 10
74.04882733677186
 20
137.860910692063
 30
0.0
 10
74.21353373174841
 20
137.8712803138854
 30
0.0
 10
74.70926382332395
 20
137.8967776035147
 30
0.0
 10
75.04619868390597
 20
137.906641494514
 30
0.0
 10
75.56168687527192
 20
137.909429149854
 30
0.0
 10
75.73581222003868
 20
137.908315386731
 30
0.0
 10
76.07780037485772
 20
137.9021278235538
 30
0.0
 10
76.24682870108735
 20
137.8970759823796
 30
0.0
 10
76.58106845068052
 20
137.8833130786206
 30
0.0
 10
76.74627965913459
 20
137.8746015208185
 30
0.0
 10
77.07287980620666
 20
137.8537644253092
 30
0.0
 10
77.23398184082487
 20
137.8416317486367
 30
0.0
 10
77.70010443426177
 20
137.8016418884213
 30
0.0
 10
77.9922013489926
 20
137.7699607692702
 30
0.0
 10
78.54119729463572
 20
137.7005926299578
 30
0.0
 10
78.79197407591079
 20
137.6636671606375
 30
0.0
 10
79.24375202374522
 20
137.590673351982
 30
0.0
 10
79.44748405276346
 20
137.5541145707209
 30
0.0
 10
79.79742923467666
 20
137.4875059487964
 30
0.0
 10
79.94460582155058
 20
137.4573489669823
 30
0.0
 10
80.18553943325638
 20
137.4063453267676
 30
0.0
 10
80.27882335180468
 20
137.3855848576206
 30
0.0
 10
80.4056050921153
 20
137.357033404332
 30
0.0
 10
80.44043646215005
 20
137.3489538089792
 30
0.0
 10
80.45243798693019
 20
137.3461897090263
 30
0.0
 10
80.42893980524104
 20
137.3516597734003
 30
0.0
 10
80.3254418338301
 20
137.3751450028311
 30
0.0
 10
80.24560729652175
 20
137.3931270960993
 30
0.0
 10
80.02729006506853
 20
137.4401002810672
 30
0.0
 10
79.8893737025649
 20
137.4689344187533
 30
0.0
 10
79.56296766488684
 20
137.5326879857287
 30
0.0
 10
79.37333969553154
 20
137.5678670691521
 30
0.0
 10
78.93806950924345
 20
137.6410328218623
 30
0.0
  0
LINE
  5
212
330
1F
100
AcDbEntity
  8
0
  6
HIDDEN
 62
     7
370
     0
100
AcDbLine
 10
79.7588274969
 20
95.158822401
 30
0.0
 11
71.2726087465
 21
95.158822401
 31
0.0
  0
SPLINE
  5
213
330
1F
100
AcDbEntity
  8
0
  6
HIDDEN
 62
     7
370
     0
100
AcDbSpline
210
0.0
220
0.0
230
1.0
 70
     8
 71
     3
 72
    83
 73
    79
 74
     0
 42
0.00000001
 43
0.00000001
 12
1.0
 22
0.0
 32
0.0
 13
1.0
 23
0.0
 33
0.0
 40
-0.0312500000000002
 40
-0.0312500000000002
 40
0.0
 40
0.0
 40
0.0312500000000001
 40
0.0312500000000001
 40
0.0625000000000001
 40
0.0625000000000001
 40
0.0937500000000001
 40
0.0937500000000001
 40
0.1093750000000002
 40
0.1093750000000002
 40
0.1250000000000002
 40
0.1406250000000002
 40
0.1406250000000002
 40
0.1562500000000002
 40
0.1562500000000002
 40
0.1875000000000004
 40
0.1875000000000004
 40
0.2031250000000004
 40
0.2031250000000004
 40
0.2187500000000003
 40
0.2187500000000003
 40
0.2499999999999999
 40
0.2499999999999999
 40
0.2812499999999994
 40
0.2812499999999994
 40
0.312499999999999
 40
0.312499999999999
 40
0.3437499999999986
 40
0.3437499999999986
 40
0.3749999999999981
 40
0.3749999999999981
 40
0.4062499999999977
 40
0.4062499999999977
 40
0.4374999999999972
 40
0.4374999999999972
 40
0.4687499999999968
 40
0.4687499999999968
 40
0.4999999999999963
 40
0.4999999999999963
 40
0.5156249999999963
 40
0.5156249999999963
 40
0.5312499999999963
 40
0.5312499999999963
 40
0.5624999999999964
 40
0.5624999999999964
 40
0.5781249999999964
 40
0.5781249999999964
 40
0.5937499999999964
 40
0.5937499999999964
 40
0.6249999999999968
 40
0.6249999999999968
 40
0.6406249999999969
 40
0.6406249999999969
 40
0.656249999999997
 40
0.656249999999997
 40
0.6718749999999972
 40
0.6718749999999972
 40
0.6874999999999973
 40
0.6874999999999973
 40
0.7187499999999976
 40
0.7187499999999976
 40
0.7499999999999979
 40
0.7499999999999979
 40
0.7812499999999981
 40
0.7812499999999981
 40
0.8124999999999984
 40
0.8124999999999984
 40
0.8437499999999987
 40
0.8437499999999987
 40
0.874999999999999
 40
0.874999999999999
 40
0.9062499999999992
 40
0.9062499999999992
 40
0.9374999999999996
 40
0.9374999999999996
 40
0.9687499999999998
 40
0.9687499999999998
 40
1.0
 40
1.0
 40
1.03125
 40
1.03125
 10
71.64431483639865
 20
94.24977615338466
 30
0.0
 10
72.07958502268671
 20
94.17661040067452
 30
0.0
 10
72.31935677232813
 20
94.13963171162287
 30
0.0
 10
72.84511708673384
 20
94.0690643095567
 30
0.0
 10
73.13429765463655
 20
94.03524428872433
 30
0.0
 10
73.73749233945934
 20
93.97815476462347
 30
0.0
 10
74.05352317061293
 20
93.95449567380383
 30
0.0
 10
74.55112901329812
 20
93.9290491283369
 30
0.0
 10
74.72157009573206
 20
93.9222570338241
 30
0.0
 10
75.06082263891352
 20
93.91272897266812
 30
0.0
 10
75.40072891303541
 20
93.907110567973
 30
0.0
 10
75.74192930196774
 20
93.90939228940739
 30
0.0
 10
76.08379002874898
 20
93.91567165797252
 30
0.0
 10
76.25574774212306
 20
93.92086310359133
 30
0.0
 10
76.75918282410152
 20
93.9418134146484
 30
0.0
 10
77.08250032163338
 20
93.96294821928241
 30
0.0
 10
77.54988355601498
 20
94.00314790154992
 30
0.0
 10
77.70244647567965
 20
94.0179633613048
 30
0.0
 10
77.99498953345977
 20
94.04925534528513
 30
0.0
 10
78.13589256959384
 20
94.06580762329448
 30
0.0
 10
78.54323862753715
 20
94.11737199353566
 30
0.0
 10
78.79649566713714
 20
94.15465903156596
 30
0.0
 10
79.24823779281624
 20
94.22774317932998
 30
0.0
 10
79.44808826288524
 20
94.26363728867673
 30
0.0
 10
79.79834520281078
 20
94.33031801555298
 30
0.0
 10
79.9471377205606
 20
94.36082072327622
 30
0.0
 10
80.1863080898159
 20
94.41147026039748
 30
0.0
 10
80.2782721462362
 20
94.4319340488264
 30
0.0
 10
80.40627361294639
 20
94.46076055405021
 30
0.0
 10
80.4406328940287
 20
94.46873464444833
 30
0.0
 10
80.45231014427054
 20
94.47142407962504
 30
0.0
 10
80.42960082487791
 20
94.4661338218263
 30
0.0
 10
80.32507515950157
 20
94.44241463940676
 30
0.0
 10
80.24466030845902
 20
94.4243135260513
 30
0.0
 10
80.02867584662823
 20
94.37783995510574
 30
0.0
 10
79.89217467421827
 20
94.34926788058841
 30
0.0
 10
79.56318517707317
 20
94.2849858392285
 30
0.0
 10
79.37418818476772
 20
94.24996537175758
 30
0.0
 10
79.05327221265878
 20
94.19595268109343
 30
0.0
 10
78.94001991440511
 20
94.17770054314288
 30
0.0
 10
78.70024739723965
 20
94.14119557134542
 30
0.0
 10
78.57286528650282
 20
94.12283124175804
 30
0.0
 10
78.17724205071735
 20
94.0696278527224
 30
0.0
 10
77.89545797897318
 20
94.0365735621344
 30
0.0
 10
77.44440761038986
 20
93.99361367360429
 30
0.0
 10
77.28929427965258
 20
93.98039822932968
 30
0.0
 10
76.9688271951583
 20
93.95673253047379
 30
0.0
 10
76.80412080018176
 20
93.9463629086514
 30
0.0
 10
76.30839070860624
 20
93.92086561902218
 30
0.0
 10
75.97145584802422
 20
93.9110017280229
 30
0.0
 10
75.45596765665827
 20
93.90821407268288
 30
0.0
 10
75.2818423118915
 20
93.90932783580578
 30
0.0
 10
74.93985415707246
 20
93.91551539898302
 30
0.0
 10
74.77082583084282
 20
93.92056724015724
 30
0.0
 10
74.43658608124966
 20
93.93433014391626
 30
0.0
 10
74.2713748727956
 20
93.94304170171833
 30
0.0
 10
73.94477472572353
 20
93.96387879722768
 30
0.0
 10
73.78367269110532
 20
93.97601147390014
 30
0.0
 10
73.3175500976684
 20
94.01600133411553
 30
0.0
 10
73.02545318293758
 20
94.04768245326663
 30
0.0
 10
72.47645723729445
 20
94.11705059257899
 30
0.0
 10
72.22568045601939
 20
94.15397606189924
 30
0.0
 10
71.77390250818496
 20
94.22696987055483
 30
0.0
 10
71.57017047916672
 20
94.26352865181595
 30
0.0
 10
71.22022529725352
 20
94.33013727374036
 30
0.0
 10
71.0730487103796
 20
94.3602942555545
 30
0.0
 10
70.83211509867381
 20
94.41129789576918
 30
0.0
 10
70.73883118012549
 20
94.43205836491617
 30
0.0
 10
70.61204943981487
 20
94.46060981820476
 30
0.0
 10
70.57721806978012
 20
94.46868941355758
 30
0.0
 10
70.56521654499998
 20
94.47145351351044
 30
0.0
 10
70.58871472668912
 20
94.46598344913646
 30
0.0
 10
70.69221269810006
 20
94.44249821970568
 30
0.0
 10
70.77204723540842
 20
94.42451612643751
 30
0.0
 10
70.99036446686165
 20
94.3775429414696
 30
0.0
 10
71.12828082936525
 20
94.34870880378344
 30
0.0
 10
71.45468686704334
 20
94.2849552368081
 30
0.0
 10
71.64431483639865
 20
94.24977615338466
 30
0.0
 10
72.07958502268671
 20
94.17661040067452
 30
0.0
  0
SPLINE
  5
214
330
1F
100
AcDbEntity
  8
0
  6
HIDDEN
 62
     7
370
     0
100
AcDbSpline
210
0.0
220
0.0
230
1.0
 70
    11
 71
     3
 72
    70
 73
    66
 74
     0
 42
0.00000001
 43
0.00000001
 12
1.0
 22
0.0
 32
0.0
 13
1.0
 23
0.0
 33
0.0
 40
-0.0312500000000001
 40
-0.0312500000000001
 40
0.0
 40
0.0
 40
0.03125
 40
0.03125
 40
0.0625
 40
0.0625
 40
0.0937499999999999
 40
0.0937499999999999
 40
0.1249999999999999
 40
0.1249999999999999
 40
0.1562499999999999
 40
0.1562499999999999
 40
0.1874999999999999
 40
0.1874999999999999
 40
0.2187499999999999
 40
0.2187499999999999
 40
0.2499999999999999
 40
0.2499999999999999
 40
0.28125
 40
0.28125
 40
0.3125
 40
0.3125
 40
0.3437500000000001
 40
0.3437500000000001
 40
0.3750000000000001
 40
0.3750000000000001
 40
0.4062500000000001
 40
0.4062500000000001
 40
0.4375000000000002
 40
0.4375000000000002
 40
0.4687500000000002
 40
0.4687500000000002
 40
0.5000000000000002
 40
0.5000000000000002
 40
0.5312500000000002
 40
0.5312500000000002
 40
0.5625000000000002
 40
0.5625000000000002
 40
0.5937500000000001
 40
0.5937500000000001
 40
0.6250000000000001
 40
0.6250000000000001
 40
0.6562500000000001
 40
0.6562500000000001
 40
0.6875000000000001
 40
0.6875000000000001
 40
0.7187500000000001
 40
0.7187500000000001
 40
0.75
 40
0.75
 40
0.78125
 40
0.78125
 40
0.8125
 40
0.8125
 40
0.84375
 40
0.84375
 40
0.875
 40
0.875
 40
0.90625
 40
0.90625
 40
0.9374999999999999
 40
0.9374999999999999
 40
0.9687499999999999
 40
0.9687499999999999
 40
1.0
 40
1.0
 40
1.03125
 40
1.03125
 10
79.75882726596498
 20
106.8568881161526
 30
0.0
 10
79.75882726596498
 20
106.8568881161526
 30
0.0
 10
79.73057713740307
 20
106.8434762945176
 30
0.0
 10
79.62062002600628
 20
106.7930760033988
 30
0.0
 10
79.5374260706483
 20
106.7554649623171
 30
0.0
 10
79.32329462350228
 20
106.6641807285581
 30
0.0
 10
79.19277545574131
 20
106.6106720580418
 30
0.0
 10
78.88496084370155
 20
106.4945355818128
 30
0.0
 10
78.70853479094782
 20
106.4323769478184
 30
0.0
 10
78.32167906792834
 20
106.3104365155842
 30
0.0
 10
78.10876783430405
 20
106.2498057708822
 30
0.0
 10
77.64781963828544
 20
106.1373841737732
 30
0.0
 10
77.40511540693493
 20
106.0868566314268
 30
0.0
 10
76.89481034147364
 20
106.001957541684
 30
0.0
 10
76.62358076770535
 20
105.9673150189883
 30
0.0
 10
76.07333975059181
 20
105.9209512502409
 30
0.0
 10
75.79523316213569
 20
105.9089713244784
 30
0.0
 10
75.23297317395438
 20
105.9086746815729
 30
0.0
 10
74.94794617809622
 20
105.9207725779695
 30
0.0
 10
74.39955539412226
 20
105.9667279182553
 30
0.0
 10
74.13180553494384
 20
106.0006079452085
 30
0.0
 10
73.61395126920765
 20
106.086483200436
 30
0.0
 10
73.37072559448913
 20
106.1372320143844
 30
0.0
 10
72.91318390748782
 20
106.2486933738643
 30
0.0
 10
72.69732570774015
 20
106.3100276243805
 30
0.0
 10
72.3092616434344
 20
106.4323155651701
 30
0.0
 10
72.13530506139922
 20
106.493598323363
 30
0.0
 10
71.8273325073365
 20
106.609699181275
 30
0.0
 10
71.6946415188516
 20
106.6640716905125
 30
0.0
 10
71.48155007447392
 20
106.7548906286962
 30
0.0
 10
71.39936994689192
 20
106.792014709014
 30
0.0
 10
71.28717600501939
 20
106.8434221064902
 30
0.0
 10
71.25922025325515
 20
106.8567036037468
 30
0.0
 10
71.2584424798586
 20
106.8570687779987
 30
0.0
 10
71.2863063950239
 20
106.8438343431197
 30
0.0
 10
71.39654504582244
 20
106.7932957559417
 30
0.0
 10
71.47790582326554
 20
106.7564874622177
 30
0.0
 10
71.69202824461844
 20
106.6651430532624
 30
0.0
 10
71.82462923336143
 20
106.6107895577923
 30
0.0
 10
72.13046474491891
 20
106.4953534997115
 30
0.0
 10
72.30611210116533
 20
106.4333546861434
 30
0.0
 10
72.69635082985701
 20
106.310288693561
 30
0.0
 10
72.90783772287202
 20
106.2501465014951
 30
0.0
 10
73.36411050462226
 20
106.1386966636002
 30
0.0
 10
73.61203908640738
 20
106.0869218839123
 30
0.0
 10
74.12468952614894
 20
106.0016685202153
 30
0.0
 10
74.39002343523272
 20
105.9677793384312
 30
0.0
 10
74.93957511056918
 20
105.9212295358193
 30
0.0
 10
75.2246274035384
 20
105.9089295763436
 30
0.0
 10
75.78537783094048
 20
105.9087151089871
 30
0.0
 10
76.06485578766011
 20
105.9203967680763
 30
0.0
 10
76.62076030245008
 20
105.9669202092524
 30
0.0
 10
76.88753020163752
 20
106.0009080786145
 30
0.0
 10
77.40042652798768
 20
106.0859185481565
 30
0.0
 10
77.6485476465849
 20
106.1375789322699
 30
0.0
 10
78.10666449193913
 20
106.24927563092
 30
0.0
 10
78.31855548168309
 20
106.3094824830491
 30
0.0
 10
78.7089520135491
 20
106.4324781210469
 30
0.0
 10
78.88503500255017
 20
106.4945824728293
 30
0.0
 10
79.1906807977036
 20
106.6098629702635
 30
0.0
 10
79.32233961864604
 20
106.6637741185329
 30
0.0
 10
79.53830776931416
 20
106.7558403220865
 30
0.0
 10
79.61964308414923
 20
106.7926341480642
 30
0.0
 10
79.72994782985629
 20
106.843181990127
 30
0.0
 10
79.75882726596498
 20
106.8568881161526
 30
0.0
 10
79.75882726596498
 20
106.8568881161526
 30
0.0
  0
SPLINE
  5
215
330
1F
100
AcDbEntity
  8
0
  6
HIDDEN
 62
     7
370
     0
100
AcDbSpline
210
0.0
220
0.0
230
1.0
 70
    11
 71
     3
 72
    70
 73
    66
 74
     0
 42
0.00000001
 43
0.00000001
 12
1.0
 22
0.0
 32
0.0
 13
1.0
 23
0.0
 33
0.0
 40
-0.03125
 40
-0.03125
 40
0.0
 40
0.0
 40
0.03125
 40
0.03125
 40
0.0625
 40
0.0625
 40
0.09375
 40
0.09375
 40
0.125
 40
0.125
 40
0.15625
 40
0.15625
 40
0.1875
 40
0.1875
 40
0.21875
 40
0.21875
 40
0.25
 40
0.25
 40
0.28125
 40
0.28125
 40
0.3125
 40
0.3125
 40
0.34375
 40
0.34375
 40
0.375
 40
0.375
 40
0.40625
 40
0.40625
 40
0.4375
 40
0.4375
 40
0.46875
 40
0.46875
 40
0.5
 40
0.5
 40
0.53125
 40
0.53125
 40
0.5625
 40
0.5625
 40
0.59375
 40
0.59375
 40
0.625
 40
0.625
 40
0.65625
 40
0.65625
 40
0.6875
 40
0.6875
 40
0.71875
 40
0.71875
 40
0.75
 40
0.75
 40
0.78125
 40
0.78125
 40
0.8125
 40
0.8125
 40
0.84375
 40
0.84375
 40
0.875
 40
0.875
 40
0.90625
 40
0.90625
 40
0.9375
 40
0.9375
 40
0.96875
 40
0.96875
 40
1.0
 40
1.0
 40
1.03125
 40
1.03125
 10
71.25882726596511
 20
124.9607551063843
 30
0.0
 10
71.25882726596511
 20
124.9607551063843
 30
0.0
 10
71.28707739452702
 20
124.9741669280192
 30
0.0
 10
71.3970345059238
 20
125.0245672191381
 30
0.0
 10
71.48022846128178
 20
125.0621782602198
 30
0.0
 10
71.6943599084278
 20
125.1534624939788
 30
0.0
 10
71.82487907618876
 20
125.206971164495
 30
0.0
 10
72.13269368822854
 20
125.3231076407241
 30
0.0
 10
72.30911974098227
 20
125.3852662747184
 30
0.0
 10
72.69597546400173
 20
125.5072067069527
 30
0.0
 10
72.90888669762603
 20
125.5678374516547
 30
0.0
 10
73.36983489364464
 20
125.6802590487636
 30
0.0
 10
73.61253912499517
 20
125.7307865911101
 30
0.0
 10
74.12284419045645
 20
125.8156856808528
 30
0.0
 10
74.39407376422473
 20
125.8503282035486
 30
0.0
 10
74.94431478133828
 20
125.8966919722959
 30
0.0
 10
75.22242136979442
 20
125.9086718980585
 30
0.0
 10
75.78468135797571
 20
125.9089685409639
 30
0.0
 10
76.06970835383387
 20
125.8968706445673
 30
0.0
 10
76.61809913780783
 20
125.8509153042815
 30
0.0
 10
76.88584899698625
 20
125.8170352773283
 30
0.0
 10
77.40370326272244
 20
125.7311600221008
 30
0.0
 10
77.64692893744096
 20
125.6804112081524
 30
0.0
 10
78.10447062444229
 20
125.5689498486726
 30
0.0
 10
78.32032882418994
 20
125.5076155981563
 30
0.0
 10
78.7083928884957
 20
125.3853276573667
 30
0.0
 10
78.88234947053087
 20
125.3240448991738
 30
0.0
 10
79.19032202459358
 20
125.2079440412618
 30
0.0
 10
79.32301301307848
 20
125.1535715320243
 30
0.0
 10
79.53610445745616
 20
125.0627525938406
 30
0.0
 10
79.61828458503818
 20
125.0256285135228
 30
0.0
 10
79.73047852691069
 20
124.9742211160466
 30
0.0
 10
79.75843427867494
 20
124.9609396187901
 30
0.0
 10
79.75921205207148
 20
124.9605744445381
 30
0.0
 10
79.73134813690619
 20
124.9738088794171
 30
0.0
 10
79.62110948610766
 20
125.0243474665951
 30
0.0
 10
79.53974870866453
 20
125.0611557603191
 30
0.0
 10
79.32562628731164
 20
125.1525001692745
 30
0.0
 10
79.19302529856866
 20
125.2068536647445
 30
0.0
 10
78.88718978701118
 20
125.3222897228254
 30
0.0
 10
78.71154243076475
 20
125.3842885363934
 30
0.0
 10
78.32130370207308
 20
125.5073545289758
 30
0.0
 10
78.10981680905807
 20
125.5674967210417
 30
0.0
 10
77.65354402730783
 20
125.6789465589366
 30
0.0
 10
77.40561544552271
 20
125.7307213386245
 30
0.0
 10
76.89296500578115
 20
125.8159747023216
 30
0.0
 10
76.62763109669734
 20
125.8498638841056
 30
0.0
 10
76.0780794213609
 20
125.8964136867175
 30
0.0
 10
75.79302712839167
 20
125.9087136461933
 30
0.0
 10
75.2322767009896
 20
125.9089281135497
 30
0.0
 10
74.95279874426998
 20
125.8972464544605
 30
0.0
 10
74.39689422948001
 20
125.8507230132845
 30
0.0
 10
74.13012433029256
 20
125.8167351439223
 30
0.0
 10
73.61722800394242
 20
125.7317246743804
 30
0.0
 10
73.36910688534519
 20
125.6800642902669
 30
0.0
 10
72.91099003999095
 20
125.5683675916168
 30
0.0
 10
72.69909905024699
 20
125.5081607394877
 30
0.0
 10
72.308702518381
 20
125.38516510149
 30
0.0
 10
72.13261952937991
 20
125.3230607497075
 30
0.0
 10
71.82697373422647
 20
125.2077802522734
 30
0.0
 10
71.69531491328404
 20
125.1538691040039
 30
0.0
 10
71.47934676261593
 20
125.0618029004504
 30
0.0
 10
71.39801144778085
 20
125.0250090744727
 30
0.0
 10
71.28770670207379
 20
124.9744612324099
 30
0.0
 10
71.25882726596511
 20
124.9607551063843
 30
0.0
 10
71.25882726596511
 20
124.9607551063843
 30
0.0
  0
LINE
  5
216
330
1F
100
AcDbEntity
  8
0
  6
HIDDEN
 62
     7
370
     0
100
AcDbLine
 10
71.258827035
 20
136.6588208215
 30
0.0
 11
79.7450457855
 21
136.6588208215
 31
0.0
  0
SPLINE
  5
217
330
1F
100
AcDbEntity
  8
0
  6
HIDDEN
 62
     7
370
     0
100
AcDbSpline
210
0.0
220
0.0
230
1.0
 70
     8
 71
     3
 72
    83
 73
    79
 74
     0
 42
0.00000001
 43
0.00000001
 12
1.0
 22
0.0
 32
0.0
 13
1.0
 23
0.0
 33
0.0
 40
-0.0312500000000002
 40
-0.0312500000000002
 40
0.0
 40
0.0
 40
0.0312499999999999
 40
0.0312499999999999
 40
0.0624999999999998
 40
0.0624999999999998
 40
0.0937499999999996
 40
0.0937499999999996
 40
0.1093749999999995
 40
0.1093749999999995
 40
0.1249999999999994
 40
0.1406249999999994
 40
0.1406249999999994
 40
0.1562499999999993
 40
0.1562499999999993
 40
0.1874999999999991
 40
0.1874999999999991
 40
0.203124999999999
 40
0.203124999999999
 40
0.2187499999999989
 40
0.2187499999999989
 40
0.2499999999999986
 40
0.2499999999999986
 40
0.2812499999999983
 40
0.2812499999999983
 40
0.312499999999998
 40
0.312499999999998
 40
0.3437499999999977
 40
0.3437499999999977
 40
0.3749999999999974
 40
0.3749999999999974
 40
0.4062499999999971
 40
0.4062499999999971
 40
0.4374999999999968
 40
0.4374999999999968
 40
0.4687499999999966
 40
0.4687499999999966
 40
0.4999999999999963
 40
0.4999999999999963
 40
0.5156249999999963
 40
0.5156249999999963
 40
0.5312499999999966
 40
0.5312499999999966
 40
0.5624999999999969
 40
0.5624999999999969
 40
0.578124999999997
 40
0.578124999999997
 40
0.5937499999999972
 40
0.5937499999999972
 40
0.6249999999999973
 40
0.6249999999999973
 40
0.6406249999999973
 40
0.6406249999999973
 40
0.6562499999999974
 40
0.6562499999999974
 40
0.6718749999999974
 40
0.6718749999999974
 40
0.6874999999999976
 40
0.6874999999999976
 40
0.718749999999998
 40
0.718749999999998
 40
0.7499999999999983
 40
0.7499999999999983
 40
0.7812499999999988
 40
0.7812499999999988
 40
0.8124999999999992
 40
0.8124999999999992
 40
0.8437499999999993
 40
0.8437499999999993
 40
0.8749999999999994
 40
0.8749999999999994
 40
0.9062499999999996
 40
0.9062499999999996
 40
0.9374999999999997
 40
0.9374999999999997
 40
0.9687499999999998
 40
0.9687499999999998
 40
1.0
 40
1.0
 40
1.03125
 40
1.03125
 10
79.37333969553154
 20
137.5678670691522
 30
0.0
 10
78.93806950924345
 20
137.6410328218623
 30
0.0
 10
78.69829775960203
 20
137.6780115109139
 30
0.0
 10
78.17253744519633
 20
137.7485789129801
 30
0.0
 10
77.88335687729361
 20
137.7823989338125
 30
0.0
 10
77.28016219247083
 20
137.8394884579133
 30
0.0
 10
76.96413136131723
 20
137.863147548733
 30
0.0
 10
76.46652551863205
 20
137.8885940941999
 30
0.0
 10
76.2960844361981
 20
137.8953861887127
 30
0.0
 10
75.95683189301666
 20
137.9049142498687
 30
0.0
 10
75.61692561889475
 20
137.9105326545638
 30
0.0
 10
75.27572522996243
 20
137.9082509331294
 30
0.0
 10
74.93386450318121
 20
137.9019715645643
 30
0.0
 10
74.76190678980713
 20
137.8967801189455
 30
0.0
 10
74.25847170782866
 20
137.8758298078884
 30
0.0
 10
73.9351542102968
 20
137.8546950032544
 30
0.0
 10
73.4677709759152
 20
137.8144953209869
 30
0.0
 10
73.31520805625053
 20
137.7996798612321
 30
0.0
 10
73.0226649984704
 20
137.7683878772517
 30
0.0
 10
72.88176196233634
 20
137.7518355992424
 30
0.0
 10
72.47441590439303
 20
137.7002712290012
 30
0.0
 10
72.22115886479305
 20
137.6629841909709
 30
0.0
 10
71.76941673911394
 20
137.5899000432069
 30
0.0
 10
71.56956626904493
 20
137.5540059338601
 30
0.0
 10
71.2193093291194
 20
137.4873252069839
 30
0.0
 10
71.07051681136957
 20
137.4568224992607
 30
0.0
 10
70.83134644211428
 20
137.4061729621394
 30
0.0
 10
70.73938238569397
 20
137.3857091737105
 30
0.0
 10
70.61138091898378
 20
137.3568826684867
 30
0.0
 10
70.57702163790147
 20
137.3489085780885
 30
0.0
 10
70.56534438765964
 20
137.3462191429118
 30
0.0
 10
70.58805370705228
 20
137.3515094007106
 30
0.0
 10
70.69257937242861
 20
137.3752285831301
 30
0.0
 10
70.77299422347114
 20
137.3933296964856
 30
0.0
 10
70.98897868530194
 20
137.4398032674311
 30
0.0
 10
71.1254798577119
 20
137.4683753419484
 30
0.0
 10
71.454469354857
 20
137.5326573833084
 30
0.0
 10
71.64346634716247
 20
137.5676778507792
 30
0.0
 10
71.9643823192714
 20
137.6216905414434
 30
0.0
 10
72.07763461752508
 20
137.639942679394
 30
0.0
 10
72.31740713469054
 20
137.6764476511914
 30
0.0
 10
72.44478924542736
 20
137.6948119807788
 30
0.0
 10
72.84041248121282
 20
137.7480153698144
 30
0.0
 10
73.12219655295699
 20
137.7810696604025
 30
0.0
 10
73.57324692154033
 20
137.8240295489325
 30
0.0
 10
73.7283602522776
 20
137.8372449932072
 30
0.0
 10
74.04882733677186
 20
137.860910692063
 30
0.0
 10
74.21353373174841
 20
137.8712803138854
 30
0.0
 10
74.70926382332395
 20
137.8967776035147
 30
0.0
 10
75.04619868390597
 20
137.9066414945139
 30
0.0
 10
75.56168687527192
 20
137.9094291498539
 30
0.0
 10
75.73581222003868
 20
137.908315386731
 30
0.0
 10
76.07780037485772
 20
137.9021278235538
 30
0.0
 10
76.24682870108735
 20
137.8970759823796
 30
0.0
 10
76.58106845068052
 20
137.8833130786206
 30
0.0
 10
76.74627965913459
 20
137.8746015208185
 30
0.0
 10
77.07287980620666
 20
137.8537644253092
 30
0.0
 10
77.23398184082487
 20
137.8416317486367
 30
0.0
 10
77.70010443426177
 20
137.8016418884213
 30
0.0
 10
77.99220134899258
 20
137.7699607692702
 30
0.0
 10
78.54119729463572
 20
137.7005926299578
 30
0.0
 10
78.79197407591079
 20
137.6636671606375
 30
0.0
 10
79.2437520237452
 20
137.590673351982
 30
0.0
 10
79.44748405276346
 20
137.5541145707209
 30
0.0
 10
79.79742923467664
 20
137.4875059487964
 30
0.0
 10
79.94460582155057
 20
137.4573489669823
 30
0.0
 10
80.18553943325637
 20
137.4063453267676
 30
0.0
 10
80.27882335180468
 20
137.3855848576206
 30
0.0
 10
80.4056050921153
 20
137.357033404332
 30
0.0
 10
80.44043646215005
 20
137.3489538089792
 30
0.0
 10
80.45243798693018
 20
137.3461897090263
 30
0.0
 10
80.42893980524104
 20
137.3516597734003
 30
0.0
 10
80.3254418338301
 20
137.3751450028311
 30
0.0
 10
80.24560729652175
 20
137.3931270960992
 30
0.0
 10
80.02729006506853
 20
137.4401002810672
 30
0.0
 10
79.8893737025649
 20
137.4689344187533
 30
0.0
 10
79.56296766488684
 20
137.5326879857287
 30
0.0
 10
79.37333969553154
 20
137.5678670691522
 30
0.0
 10
78.93806950924345
 20
137.6410328218623
 30
0.0
  0
LINE
  5
218
330
1F
100
AcDbEntity
  8
0
  6
HIDDEN
 62
     7
370
     0
100
AcDbLine
 10
79.7588274969
 20
95.158822401
 30
0.0
 11
71.2726087465
 21
95.158822401
 31
0.0
  0
SPLINE
  5
219
330
1F
100
AcDbEntity
  8
0
  6
HIDDEN
 62
     7
370
     0
100
AcDbSpline
210
0.0
220
0.0
230
1.0
 70
     8
 71
     3
 72
    83
 73
    79
 74
     0
 42
0.00000001
 43
0.00000001
 12
1.0
 22
0.0
 32
0.0
 13
1.0
 23
0.0
 33
0.0
 40
-0.0312500000000003
 40
-0.0312500000000003
 40
0.0
 40
0.0
 40
0.0312499999999993
 40
0.0312499999999993
 40
0.0624999999999987
 40
0.0624999999999987
 40
0.093749999999998
 40
0.093749999999998
 40
0.1093749999999978
 40
0.1093749999999978
 40
0.1249999999999975
 40
0.1406249999999972
 40
0.1406249999999972
 40
0.1562499999999969
 40
0.1562499999999969
 40
0.1874999999999964
 40
0.1874999999999964
 40
0.2031249999999962
 40
0.2031249999999962
 40
0.218749999999996
 40
0.218749999999996
 40
0.2499999999999958
 40
0.2499999999999958
 40
0.2812499999999957
 40
0.2812499999999957
 40
0.3124999999999955
 40
0.3124999999999955
 40
0.3437499999999954
 40
0.3437499999999954
 40
0.3749999999999952
 40
0.3749999999999952
 40
0.4062499999999951
 40
0.4062499999999951
 40
0.4374999999999949
 40
0.4374999999999949
 40
0.4687499999999948
 40
0.4687499999999948
 40
0.4999999999999946
 40
0.4999999999999946
 40
0.5156249999999948
 40
0.5156249999999948
 40
0.531249999999995
 40
0.531249999999995
 40
0.5624999999999954
 40
0.5624999999999954
 40
0.5781249999999956
 40
0.5781249999999956
 40
0.5937499999999957
 40
0.5937499999999957
 40
0.624999999999996
 40
0.624999999999996
 40
0.6406249999999962
 40
0.6406249999999962
 40
0.6562499999999963
 40
0.6562499999999963
 40
0.6718749999999964
 40
0.6718749999999964
 40
0.6874999999999966
 40
0.6874999999999966
 40
0.7187499999999969
 40
0.7187499999999969
 40
0.7499999999999972
 40
0.7499999999999972
 40
0.7812499999999976
 40
0.7812499999999976
 40
0.8124999999999979
 40
0.8124999999999979
 40
0.8437499999999982
 40
0.8437499999999982
 40
0.8749999999999986
 40
0.8749999999999986
 40
0.906249999999999
 40
0.906249999999999
 40
0.9374999999999993
 40
0.9374999999999993
 40
0.9687499999999997
 40
0.9687499999999997
 40
1.0
 40
1.0
 40
1.031249999999999
 40
1.031249999999999
 10
71.64431483639864
 20
94.24977615338464
 30
0.0
 10
72.07958502268671
 20
94.17661040067452
 30
0.0
 10
72.31935677232813
 20
94.13963171162287
 30
0.0
 10
72.84511708673384
 20
94.0690643095567
 30
0.0
 10
73.13429765463655
 20
94.03524428872433
 30
0.0
 10
73.73749233945934
 20
93.97815476462347
 30
0.0
 10
74.05352317061295
 20
93.95449567380382
 30
0.0
 10
74.55112901329814
 20
93.9290491283369
 30
0.0
 10
74.72157009573208
 20
93.9222570338241
 30
0.0
 10
75.06082265432924
 20
93.91272905740409
 30
0.0
 10
75.40072891303541
 20
93.907110567973
 30
0.0
 10
75.74192930196774
 20
93.90939228940739
 30
0.0
 10
76.08379002874898
 20
93.91567165797254
 30
0.0
 10
76.25574774212306
 20
93.92086310359133
 30
0.0
 10
76.75918282410152
 20
93.9418134146484
 30
0.0
 10
77.08250032163339
 20
93.9629482192824
 30
0.0
 10
77.54988355601499
 20
94.00314790154992
 30
0.0
 10
77.70244647567964
 20
94.01796336130481
 30
0.0
 10
77.99498953345977
 20
94.04925534528513
 30
0.0
 10
78.13589256959384
 20
94.06580762329448
 30
0.0
 10
78.54323862753714
 20
94.11737199353566
 30
0.0
 10
78.79649566713714
 20
94.15465903156594
 30
0.0
 10
79.24823779281624
 20
94.22774317932998
 30
0.0
 10
79.44808826288524
 20
94.26363728867673
 30
0.0
 10
79.79834520281078
 20
94.33031801555296
 30
0.0
 10
79.9471377205606
 20
94.36082072327622
 30
0.0
 10
80.1863080898159
 20
94.41147026039746
 30
0.0
 10
80.27827214623622
 20
94.43193404882639
 30
0.0
 10
80.4062736129464
 20
94.46076055405021
 30
0.0
 10
80.4406328940287
 20
94.46873464444835
 30
0.0
 10
80.45231014427053
 20
94.47142407962505
 30
0.0
 10
80.42960082487791
 20
94.4661338218263
 30
0.0
 10
80.32507515950157
 20
94.44241463940675
 30
0.0
 10
80.24466030845903
 20
94.42431352605128
 30
0.0
 10
80.02867584662823
 20
94.37783995510571
 30
0.0
 10
79.89217467421828
 20
94.34926788058841
 30
0.0
 10
79.56318517707318
 20
94.2849858392285
 30
0.0
 10
79.37418818476772
 20
94.2499653717576
 30
0.0
 10
79.05327221265878
 20
94.19595268109343
 30
0.0
 10
78.94001991440511
 20
94.17770054314289
 30
0.0
 10
78.70024739723965
 20
94.14119557134542
 30
0.0
 10
78.57286528650282
 20
94.12283124175804
 30
0.0
 10
78.17724205071737
 20
94.0696278527224
 30
0.0
 10
77.89545797897318
 20
94.0365735621344
 30
0.0
 10
77.44440761038986
 20
93.99361367360429
 30
0.0
 10
77.28929427965258
 20
93.9803982293297
 30
0.0
 10
76.96882719515831
 20
93.95673253047379
 30
0.0
 10
76.80412080018176
 20
93.9463629086514
 30
0.0
 10
76.30839070860624
 20
93.92086561902217
 30
0.0
 10
75.9714558480242
 20
93.9110017280229
 30
0.0
 10
75.45596765665827
 20
93.90821407268288
 30
0.0
 10
75.2818423118915
 20
93.90932783580577
 30
0.0
 10
74.93985415707246
 20
93.915515398983
 30
0.0
 10
74.77082583084282
 20
93.92056724015723
 30
0.0
 10
74.43658608124964
 20
93.93433014391627
 30
0.0
 10
74.27137487279559
 20
93.94304170171833
 30
0.0
 10
73.94477472572352
 20
93.96387879722768
 30
0.0
 10
73.78367269110531
 20
93.97601147390014
 30
0.0
 10
73.3175500976684
 20
94.01600133411553
 30
0.0
 10
73.02545318293758
 20
94.04768245326663
 30
0.0
 10
72.47645723729444
 20
94.11705059257899
 30
0.0
 10
72.22568045601938
 20
94.15397606189924
 30
0.0
 10
71.77390250818495
 20
94.22696987055483
 30
0.0
 10
71.5701704791667
 20
94.26352865181595
 30
0.0
 10
71.2202252972535
 20
94.33013727374035
 30
0.0
 10
71.0730487103796
 20
94.36029425555452
 30
0.0
 10
70.8321150986738
 20
94.41129789576918
 30
0.0
 10
70.73883118012547
 20
94.43205836491619
 30
0.0
 10
70.61204943981487
 20
94.46060981820476
 30
0.0
 10
70.57721806978012
 20
94.4686894135576
 30
0.0
 10
70.56521654499997
 20
94.47145351351044
 30
0.0
 10
70.5887147266891
 20
94.46598344913647
 30
0.0
 10
70.69221269810006
 20
94.44249821970568
 30
0.0
 10
70.77204723540842
 20
94.42451612643752
 30
0.0
 10
70.99036446686165
 20
94.3775429414696
 30
0.0
 10
71.12828082936527
 20
94.34870880378347
 30
0.0
 10
71.45468686704334
 20
94.2849552368081
 30
0.0
 10
71.64431483639864
 20
94.24977615338464
 30
0.0
 10
72.07958502268671
 20
94.17661040067452
 30
0.0
  0
SPLINE
  5
21A
330
1F
100
AcDbEntity
  8
0
  6
HIDDEN
 62
     7
370
     0
100
AcDbSpline
210
0.0
220
0.0
230
1.0
 70
    11
 71
     3
 72
    70
 73
    66
 74
     0
 42
0.00000001
 43
0.00000001
 12
1.0
 22
0.0
 32
0.0
 13
1.0
 23
0.0
 33
0.0
 40
-0.03125
 40
-0.03125
 40
0.0
 40
0.0
 40
0.03125
 40
0.03125
 40
0.0625
 40
0.0625
 40
0.09375
 40
0.09375
 40
0.125
 40
0.125
 40
0.1562499999999999
 40
0.1562499999999999
 40
0.1874999999999999
 40
0.1874999999999999
 40
0.2187499999999999
 40
0.2187499999999999
 40
0.2499999999999999
 40
0.2499999999999999
 40
0.2812499999999999
 40
0.2812499999999999
 40
0.3124999999999999
 40
0.3124999999999999
 40
0.3437499999999999
 40
0.3437499999999999
 40
0.3749999999999999
 40
0.3749999999999999
 40
0.4062499999999999
 40
0.4062499999999999
 40
0.4374999999999999
 40
0.4374999999999999
 40
0.4687499999999999
 40
0.4687499999999999
 40
0.4999999999999999
 40
0.4999999999999999
 40
0.5312499999999999
 40
0.5312499999999999
 40
0.5624999999999999
 40
0.5624999999999999
 40
0.5937499999999999
 40
0.5937499999999999
 40
0.6249999999999999
 40
0.6249999999999999
 40
0.6562499999999999
 40
0.6562499999999999
 40
0.6874999999999999
 40
0.6874999999999999
 40
0.7187499999999999
 40
0.7187499999999999
 40
0.7499999999999999
 40
0.7499999999999999
 40
0.78125
 40
0.78125
 40
0.8125
 40
0.8125
 40
0.84375
 40
0.84375
 40
0.875
 40
0.875
 40
0.90625
 40
0.90625
 40
0.9375
 40
0.9375
 40
0.96875
 40
0.96875
 40
1.0
 40
1.0
 40
1.03125
 40
1.03125
 10
71.25882726596511
 20
124.9607551063843
 30
0.0
 10
71.25882726596511
 20
124.9607551063843
 30
0.0
 10
71.28707739452702
 20
124.9741669280192
 30
0.0
 10
71.3970345059238
 20
125.0245672191381
 30
0.0
 10
71.48022846128178
 20
125.0621782602198
 30
0.0
 10
71.6943599084278
 20
125.1534624939788
 30
0.0
 10
71.82487907618876
 20
125.206971164495
 30
0.0
 10
72.13269368822854
 20
125.3231076407241
 30
0.0
 10
72.30911974098227
 20
125.3852662747184
 30
0.0
 10
72.69597546400173
 20
125.5072067069526
 30
0.0
 10
72.90888669762603
 20
125.5678374516547
 30
0.0
 10
73.36983489364464
 20
125.6802590487636
 30
0.0
 10
73.61253912499517
 20
125.7307865911101
 30
0.0
 10
74.12284419045645
 20
125.8156856808528
 30
0.0
 10
74.39407376422473
 20
125.8503282035486
 30
0.0
 10
74.94431478133828
 20
125.8966919722959
 30
0.0
 10
75.22242136979442
 20
125.9086718980585
 30
0.0
 10
75.78468135797573
 20
125.9089685409639
 30
0.0
 10
76.06970835383387
 20
125.8968706445673
 30
0.0
 10
76.61809913780783
 20
125.8509153042815
 30
0.0
 10
76.88584899698625
 20
125.8170352773283
 30
0.0
 10
77.40370326272244
 20
125.7311600221008
 30
0.0
 10
77.64692893744096
 20
125.6804112081524
 30
0.0
 10
78.10447062444229
 20
125.5689498486726
 30
0.0
 10
78.32032882418993
 20
125.5076155981563
 30
0.0
 10
78.70839288849568
 20
125.3853276573667
 30
0.0
 10
78.88234947053087
 20
125.3240448991738
 30
0.0
 10
79.19032202459358
 20
125.2079440412618
 30
0.0
 10
79.3230130130785
 20
125.1535715320243
 30
0.0
 10
79.53610445745616
 20
125.0627525938406
 30
0.0
 10
79.61828458503818
 20
125.0256285135228
 30
0.0
 10
79.73047852691069
 20
124.9742211160466
 30
0.0
 10
79.75843427867494
 20
124.9609396187901
 30
0.0
 10
79.75921205207148
 20
124.9605744445381
 30
0.0
 10
79.73134813690619
 20
124.9738088794171
 30
0.0
 10
79.62110948610766
 20
125.0243474665951
 30
0.0
 10
79.53974870866453
 20
125.0611557603191
 30
0.0
 10
79.32562628731165
 20
125.1525001692745
 30
0.0
 10
79.19302529856866
 20
125.2068536647445
 30
0.0
 10
78.88718978701118
 20
125.3222897228254
 30
0.0
 10
78.71154243076475
 20
125.3842885363934
 30
0.0
 10
78.32130370207307
 20
125.5073545289758
 30
0.0
 10
78.10981680905807
 20
125.5674967210417
 30
0.0
 10
77.65354402730783
 20
125.6789465589366
 30
0.0
 10
77.40561544552271
 20
125.7307213386245
 30
0.0
 10
76.89296500578115
 20
125.8159747023216
 30
0.0
 10
76.62763109669736
 20
125.8498638841056
 30
0.0
 10
76.0780794213609
 20
125.8964136867175
 30
0.0
 10
75.79302712839167
 20
125.9087136461933
 30
0.0
 10
75.23227670098962
 20
125.9089281135497
 30
0.0
 10
74.95279874426998
 20
125.8972464544605
 30
0.0
 10
74.39689422948001
 20
125.8507230132845
 30
0.0
 10
74.13012433029256
 20
125.8167351439223
 30
0.0
 10
73.61722800394242
 20
125.7317246743804
 30
0.0
 10
73.36910688534519
 20
125.6800642902669
 30
0.0
 10
72.91099003999093
 20
125.5683675916168
 30
0.0
 10
72.69909905024699
 20
125.5081607394877
 30
0.0
 10
72.30870251838098
 20
125.38516510149
 30
0.0
 10
72.13261952937991
 20
125.3230607497075
 30
0.0
 10
71.82697373422647
 20
125.2077802522734
 30
0.0
 10
71.69531491328404
 20
125.1538691040039
 30
0.0
 10
71.47934676261593
 20
125.0618029004504
 30
0.0
 10
71.39801144778085
 20
125.0250090744727
 30
0.0
 10
71.28770670207379
 20
124.9744612324099
 30
0.0
 10
71.25882726596511
 20
124.9607551063843
 30
0.0
 10
71.25882726596511
 20
124.9607551063843
 30
0.0
  0
SPLINE
  5
21B
330
1F
100
AcDbEntity
  8
0
  6
HIDDEN
 62
     7
370
     0
100
AcDbSpline
210
0.0
220
0.0
230
1.0
 70
    11
 71
     3
 72
    70
 73
    66
 74
     0
 42
0.00000001
 43
0.00000001
 12
1.0
 22
0.0
 32
0.0
 13
1.0
 23
0.0
 33
0.0
 40
-0.0312499999999997
 40
-0.0312499999999997
 40
0.0
 40
0.0
 40
0.0312500000000002
 40
0.0312500000000002
 40
0.0625000000000004
 40
0.0625000000000004
 40
0.0937500000000006
 40
0.0937500000000006
 40
0.1250000000000008
 40
0.1250000000000008
 40
0.1562500000000011
 40
0.1562500000000011
 40
0.1875000000000012
 40
0.1875000000000012
 40
0.2187500000000014
 40
0.2187500000000014
 40
0.2500000000000017
 40
0.2500000000000017
 40
0.2812500000000019
 40
0.2812500000000019
 40
0.3125000000000021
 40
0.3125000000000021
 40
0.3437500000000023
 40
0.3437500000000023
 40
0.3750000000000025
 40
0.3750000000000025
 40
0.4062500000000027
 40
0.4062500000000027
 40
0.4375000000000029
 40
0.4375000000000029
 40
0.4687500000000031
 40
0.4687500000000031
 40
0.5000000000000033
 40
0.5000000000000033
 40
0.5312500000000036
 40
0.5312500000000036
 40
0.5625000000000038
 40
0.5625000000000038
 40
0.593750000000004
 40
0.593750000000004
 40
0.6250000000000042
 40
0.6250000000000042
 40
0.6562500000000038
 40
0.6562500000000038
 40
0.6875000000000034
 40
0.6875000000000034
 40
0.7187500000000031
 40
0.7187500000000031
 40
0.7500000000000028
 40
0.7500000000000028
 40
0.7812500000000024
 40
0.7812500000000024
 40
0.8125000000000021
 40
0.8125000000000021
 40
0.8437500000000018
 40
0.8437500000000018
 40
0.8750000000000013
 40
0.8750000000000013
 40
0.906250000000001
 40
0.906250000000001
 40
0.9375000000000007
 40
0.9375000000000007
 40
0.9687500000000003
 40
0.9687500000000003
 40
1.0
 40
1.0
 40
1.03125
 40
1.03125
 10
79.75882726596498
 20
106.8568881161526
 30
0.0
 10
79.75882726596498
 20
106.8568881161526
 30
0.0
 10
79.73057713740307
 20
106.8434762945176
 30
0.0
 10
79.62062002600628
 20
106.7930760033988
 30
0.0
 10
79.5374260706483
 20
106.7554649623171
 30
0.0
 10
79.32329462350228
 20
106.6641807285581
 30
0.0
 10
79.19277545574133
 20
106.6106720580418
 30
0.0
 10
78.88496084370155
 20
106.4945355818128
 30
0.0
 10
78.70853479094782
 20
106.4323769478184
 30
0.0
 10
78.32167906792834
 20
106.3104365155842
 30
0.0
 10
78.10876783430405
 20
106.2498057708822
 30
0.0
 10
77.64781963828544
 20
106.1373841737732
 30
0.0
 10
77.40511540693493
 20
106.0868566314268
 30
0.0
 10
76.89481034147364
 20
106.001957541684
 30
0.0
 10
76.62358076770535
 20
105.9673150189883
 30
0.0
 10
76.07333975059181
 20
105.9209512502409
 30
0.0
 10
75.79523316213569
 20
105.9089713244784
 30
0.0
 10
75.23297317395438
 20
105.9086746815729
 30
0.0
 10
74.94794617809622
 20
105.9207725779695
 30
0.0
 10
74.39955539412227
 20
105.9667279182553
 30
0.0
 10
74.13180553494385
 20
106.0006079452085
 30
0.0
 10
73.61395126920765
 20
106.086483200436
 30
0.0
 10
73.37072559448913
 20
106.1372320143844
 30
0.0
 10
72.91318390748782
 20
106.2486933738643
 30
0.0
 10
72.69732570774015
 20
106.3100276243805
 30
0.0
 10
72.3092616434344
 20
106.4323155651701
 30
0.0
 10
72.13530506139922
 20
106.493598323363
 30
0.0
 10
71.8273325073365
 20
106.609699181275
 30
0.0
 10
71.6946415188516
 20
106.6640716905125
 30
0.0
 10
71.48155007447392
 20
106.7548906286962
 30
0.0
 10
71.39936994689192
 20
106.792014709014
 30
0.0
 10
71.28717600501939
 20
106.8434221064902
 30
0.0
 10
71.25922025325515
 20
106.8567036037468
 30
0.0
 10
71.2584424798586
 20
106.8570687779987
 30
0.0
 10
71.2863063950239
 20
106.8438343431197
 30
0.0
 10
71.39654504582244
 20
106.7932957559417
 30
0.0
 10
71.47790582326554
 20
106.7564874622177
 30
0.0
 10
71.69202824461844
 20
106.6651430532623
 30
0.0
 10
71.82462923336142
 20
106.6107895577923
 30
0.0
 10
72.13046474491891
 20
106.4953534997115
 30
0.0
 10
72.30611210116531
 20
106.4333546861434
 30
0.0
 10
72.69635082985701
 20
106.310288693561
 30
0.0
 10
72.907837722872
 20
106.2501465014951
 30
0.0
 10
73.36411050462226
 20
106.1386966636002
 30
0.0
 10
73.61203908640738
 20
106.0869218839123
 30
0.0
 10
74.12468952614894
 20
106.0016685202153
 30
0.0
 10
74.39002343523272
 20
105.9677793384312
 30
0.0
 10
74.93957511056918
 20
105.9212295358193
 30
0.0
 10
75.22462740353842
 20
105.9089295763436
 30
0.0
 10
75.78537783094049
 20
105.9087151089871
 30
0.0
 10
76.06485578766011
 20
105.9203967680763
 30
0.0
 10
76.62076030245008
 20
105.9669202092524
 30
0.0
 10
76.88753020163752
 20
106.0009080786145
 30
0.0
 10
77.40042652798768
 20
106.0859185481565
 30
0.0
 10
77.6485476465849
 20
106.1375789322699
 30
0.0
 10
78.10666449193914
 20
106.24927563092
 30
0.0
 10
78.31855548168309
 20
106.3094824830491
 30
0.0
 10
78.70895201354911
 20
106.4324781210469
 30
0.0
 10
78.88503500255017
 20
106.4945824728293
 30
0.0
 10
79.1906807977036
 20
106.6098629702635
 30
0.0
 10
79.32233961864604
 20
106.6637741185329
 30
0.0
 10
79.53830776931416
 20
106.7558403220865
 30
0.0
 10
79.61964308414923
 20
106.7926341480642
 30
0.0
 10
79.72994782985629
 20
106.843181990127
 30
0.0
 10
79.75882726596498
 20
106.8568881161526
 30
0.0
 10
79.75882726596498
 20
106.8568881161526
 30
0.0
  0
LINE
  5
21C
330
1F
100
AcDbEntity
  8
0
  6
HIDDEN
 62
     7
370
     0
100
AcDbLine
 10
70.5088273777
 20
137.3331076788
 30
0.0
 11
70.5088273777
 21
127.4088216336
 31
0.0
  0
LINE
  5
21D
330
1F
100
AcDbEntity
  8
0
  6
HIDDEN
 62
     7
370
     0
100
AcDbLine
 10
80.5088271542
 20
127.4088216336
 30
0.0
 11
80.5088271542
 21
137.3331076788
 31
0.0
  0
LINE
  5
21E
330
1F
100
AcDbEntity
  8
0
  6
HIDDEN
 62
     7
370
     0
100
AcDbLine
 10
70.5088273777
 20
127.4088216336
 30
0.0
 11
72.0088271579
 21
125.9088213878
 31
0.0
  0
LINE
  5
21F
330
1F
100
AcDbEntity
  8
0
  6
HIDDEN
 62
     7
370
     0
100
AcDbLine
 10
79.008827374
 20
125.9088213878
 30
0.0
 11
80.5088271542
 21
127.4088216336
 31
0.0
  0
LINE
  5
220
330
1F
100
AcDbEntity
  8
0
  6
HIDDEN
 62
     7
370
     0
100
AcDbLine
 10
80.5088271542
 20
94.4845355438
 30
0.0
 11
80.5088271542
 21
104.4088215889
 31
0.0
  0
LINE
  5
221
330
1F
100
AcDbEntity
  8
0
  6
HIDDEN
 62
     7
370
     0
100
AcDbLine
 10
70.5088273777
 20
104.4088215889
 30
0.0
 11
70.5088273777
 21
94.4845355438
 31
0.0
  0
LINE
  5
222
330
1F
100
AcDbEntity
  8
0
  6
HIDDEN
 62
     7
370
     0
100
AcDbLine
 10
80.5088271542
 20
104.4088215889
 30
0.0
 11
79.008827374
 21
105.9088218348
 31
0.0
  0
LINE
  5
223
330
1F
100
AcDbEntity
  8
0
  6
HIDDEN
 62
     7
370
     0
100
AcDbLine
 10
72.0088271579
 20
105.9088218348
 30
0.0
 11
70.5088273777
 21
104.4088215889
 31
0.0
  0
LINE
  5
224
330
1F
100
AcDbEntity
  8
0
  6
HIDDEN
 62
     7
370
     0
100
AcDbLine
 10
96.9331133335
 20
120.9088214995
 30
0.0
 11
87.0088272883
 21
120.9088214995
 31
0.0
  0
LINE
  5
225
330
1F
100
AcDbEntity
  8
0
  6
HIDDEN
 62
     7
370
     0
100
AcDbLine
 10
87.0088272883
 20
110.908821723
 30
0.0
 11
96.9331133335
 21
110.908821723
 31
0.0
  0
LINE
  5
226
330
1F
100
AcDbEntity
  8
0
  6
HIDDEN
 62
     7
370
     0
100
AcDbLine
 10
87.0088272883
 20
120.9088214995
 30
0.0
 11
85.5088270424
 21
119.4088217193
 31
0.0
  0
LINE
  5
227
330
1F
100
AcDbEntity
  8
0
  6
HIDDEN
 62
     7
370
     0
100
AcDbLine
 10
85.5088270424
 20
112.4088215032
 30
0.0
 11
87.0088272883
 21
110.908821723
 31
0.0
  0
LINE
  5
228
330
1F
100
AcDbEntity
  8
0
  6
HIDDEN
 62
     7
370
     0
100
AcDbLine
 10
96.9441793083
 20
120.8441746743
 30
0.0
 11
96.2588264762
 21
120.1588218422
 31
0.0
  0
LINE
  5
229
330
1F
100
AcDbEntity
  8
0
  6
HIDDEN
 62
     7
370
     0
100
AcDbLine
 10
96.2588264762
 20
111.6588213803
 30
0.0
 11
96.9433001398
 21
110.9743477167
 31
0.0
  0
LINE
  5
22A
330
1F
100
AcDbEntity
  8
0
  6
HIDDEN
 62
     7
370
     0
100
AcDbLine
 10
70.5734742029
 20
137.3441736536
 30
0.0
 11
71.258827035
 21
136.6588208215
 31
0.0
  0
LINE
  5
22B
330
1F
100
AcDbEntity
  8
0
  6
HIDDEN
 62
     7
370
     0
100
AcDbLine
 10
79.7588274969
 20
136.6588208215
 30
0.0
 11
80.4433011605
 21
137.3432944851
 31
0.0
  0
LINE
  5
22C
330
1F
100
AcDbEntity
  8
0
  6
HIDDEN
 62
     7
370
     0
100
AcDbLine
 10
80.444180329
 20
94.473469569
 30
0.0
 11
79.7588274969
 21
95.158822401
 31
0.0
  0
LINE
  5
22D
330
1F
100
AcDbEntity
  8
0
  6
HIDDEN
 62
     7
370
     0
100
AcDbLine
 10
71.258827035
 20
95.158822401
 30
0.0
 11
70.5743533714
 21
94.4743487375
 31
0.0
  0
LINE
  5
22E
330
1F
100
AcDbEntity
  8
0
  6
HIDDEN
 62
     7
370
     0
100
AcDbLine
 10
96.2588264762
 20
120.1588218422
 30
0.0
 11
84.5607611506
 21
120.1588218422
 31
0.0
  0
LINE
  5
22F
330
1F
100
AcDbEntity
  8
0
  6
HIDDEN
 62
     7
370
     0
100
AcDbLine
 10
84.5647919147
 20
111.6588213803
 30
0.0
 11
96.2588264762
 21
111.6588213803
 31
0.0
  0
LINE
  5
230
330
1F
100
AcDbEntity
  8
0
  6
HIDDEN
 62
     7
370
     0
100
AcDbLine
 10
79.7588274969
 20
95.158822401
 30
0.0
 11
79.7588274969
 21
106.8568877266
 31
0.0
  0
LINE
  5
231
330
1F
100
AcDbEntity
  8
0
  6
HIDDEN
 62
     7
370
     0
100
AcDbLine
 10
71.258827035
 20
106.8528569625
 30
0.0
 11
71.258827035
 21
95.158822401
 31
0.0
  0
LINE
  5
232
330
1F
100
AcDbEntity
  8
0
  6
HIDDEN
 62
     7
370
     0
100
AcDbLine
 10
71.258827035
 20
136.6588208215
 30
0.0
 11
71.258827035
 21
124.9607554959
 31
0.0
  0
LINE
  5
233
330
1F
100
AcDbEntity
  8
0
  6
HIDDEN
 62
     7
370
     0
100
AcDbLine
 10
79.7588274969
 20
124.96478626
 30
0.0
 11
79.7588274969
 21
136.6588208215
 31
0.0
  0
LINE
  5
234
330
1F
100
AcDbEntity
  8
0
  6
HIDDEN
 62
     7
370
     0
100
AcDbLine
 10
70.5734742029
 20
137.3441736536
 30
0.0
 11
71.258827035
 21
136.6588208215
 31
0.0
  0
LINE
  5
235
330
1F
100
AcDbEntity
  8
0
  6
HIDDEN
 62
     7
370
     0
100
AcDbLine
 10
79.7588274969
 20
136.6588208215
 30
0.0
 11
80.4433011605
 21
137.3432944851
 31
0.0
  0
LINE
  5
236
330
1F
100
AcDbEntity
  8
0
  6
HIDDEN
 62
     7
370
     0
100
AcDbLine
 10
80.444180329
 20
94.473469569
 30
0.0
 11
79.7588274969
 21
95.158822401
 31
0.0
  0
LINE
  5
237
330
1F
100
AcDbEntity
  8
0
  6
HIDDEN
 62
     7
370
     0
100
AcDbLine
 10
71.258827035
 20
95.158822401
 30
0.0
 11
70.5743533714
 21
94.4743487375
 31
0.0
  0
LINE
  5
238
330
1F
100
AcDbEntity
  8
0
  6
HIDDEN
 62
     7
370
     0
100
AcDbLine
 10
79.7588274969
 20
95.158822401
 30
0.0
 11
79.7588274969
 21
106.8568877266
 31
0.0
  0
LINE
  5
239
330
1F
100
AcDbEntity
  8
0
  6
HIDDEN
 62
     7
370
     0
100
AcDbLine
 10
71.258827035
 20
106.8528569625
 30
0.0
 11
71.258827035
 21
95.158822401
 31
0.0
  0
LINE
  5
23A
330
1F
100
AcDbEntity
  8
0
  6
HIDDEN
 62
     7
370
     0
100
AcDbLine
 10
71.258827035
 20
136.6588208215
 30
0.0
 11
71.258827035
 21
124.9607554959
 31
0.0
  0
LINE
  5
23B
330
1F
100
AcDbEntity
  8
0
  6
HIDDEN
 62
     7
370
     0
100
AcDbLine
 10
79.7588274969
 20
124.96478626
 30
0.0
 11
79.7588274969
 21
136.6588208215
 31
0.0
  0
LINE
  5
23C
330
1F
100
AcDbEntity
  8
0
  6
HIDDEN
 62
     7
370
     0
100
AcDbLine
 10
70.5734742029
 20
137.3441736536
 30
0.0
 11
71.258827035
 21
136.6588208215
 31
0.0
  0
LINE
  5
23D
330
1F
100
AcDbEntity
  8
0
  6
HIDDEN
 62
     7
370
     0
100
AcDbLine
 10
79.7588274969
 20
136.6588208215
 30
0.0
 11
80.4433011605
 21
137.3432944851
 31
0.0
  0
LINE
  5
23E
330
1F
100
AcDbEntity
  8
0
  6
HIDDEN
 62
     7
370
     0
100
AcDbLine
 10
80.444180329
 20
94.473469569
 30
0.0
 11
79.7588274969
 21
95.158822401
 31
0.0
  0
LINE
  5
23F
330
1F
100
AcDbEntity
  8
0
  6
HIDDEN
 62
     7
370
     0
100
AcDbLine
 10
71.258827035
 20
95.158822401
 30
0.0
 11
70.5743533714
 21
94.4743487375
 31
0.0
  0
LINE
  5
240
330
1F
100
AcDbEntity
  8
0
  6
HIDDEN
 62
     7
370
     0
100
AcDbLine
 10
71.258827035
 20
136.6588208215
 30
0.0
 11
71.258827035
 21
124.9607554959
 31
0.0
  0
LINE
  5
241
330
1F
100
AcDbEntity
  8
0
  6
HIDDEN
 62
     7
370
     0
100
AcDbLine
 10
79.7588274969
 20
124.96478626
 30
0.0
 11
79.7588274969
 21
136.6588208215
 31
0.0
  0
LINE
  5
242
330
1F
100
AcDbEntity
  8
0
  6
HIDDEN
 62
     7
370
     0
100
AcDbLine
 10
79.7588274969
 20
95.158822401
 30
0.0
 11
79.7588274969
 21
106.8568877266
 31
0.0
  0
LINE
  5
243
330
1F
100
AcDbEntity
  8
0
  6
HIDDEN
 62
     7
370
     0
100
AcDbLine
 10
71.258827035
 20
106.8528569625
 30
0.0
 11
71.258827035
 21
95.158822401
 31
0.0
  0
INSERT
  5
24F
330
1F
100
AcDbEntity
  8
VERMASSUNG
100
AcDbBlockReference
  2
SW_CENTERMARKSYMBOL_0
 10
75.508827266
 20
115.9088216113
 30
0.0
  0
OLE2FRAME
  5
250
330
1F
100
AcDbEntity
  8
0
100
AcDbOle2Frame
 70
     2
  3
Paintbrush-Bild
 10
13.8511154363
 20
38.264191557
 30
0.0
 11
51.6290888628
 21
31.9806341108
 31
0.0
 71
     2
 72
     0
 73
     1
 90
    12928
310
80552BED0767C5B32B40DDAF6807D121434000000000000000006FFBDDFB85D0
310
4940DDAF6807D121434000000000000000006FFBDDFB85D04940416F4BD60AFB
310
3F4000000000000000002BED0767C5B32B40416F4BD60AFB3F40000000000000
310
0000000000000100000000010000010000000100000000000100000000320000
310
D0CF11E0A1B11AE1000000000000000000000000000000003E000300FEFF0900
310
0600000000000000000000000100000001000000000000000010000002000000
310
01000000FEFFFFFF0000000000000000FFFFFFFFFFFFFFFFFFFFFFFFFFFFFFFF
310
FFFFFFFFFFFFFFFFFFFFFFFFFFFFFFFFFFFFFFFFFFFFFFFFFFFFFFFFFFFFFFFF
310
FFFFFFFFFFFFFFFFFFFFFFFFFFFFFFFFFFFFFFFFFFFFFFFFFFFFFFFFFFFFFFFF
310
FFFFFFFFFFFFFFFFFFFFFFFFFFFFFFFFFFFFFFFFFFFFFFFFFFFFFFFFFFFFFFFF
310
FFFFFFFFFFFFFFFFFFFFFFFFFFFFFFFFFFFFFFFFFFFFFFFFFFFFFFFFFFFFFFFF
310
FFFFFFFFFFFFFFFFFFFFFFFFFFFFFFFFFFFFFFFFFFFFFFFFFFFFFFFFFFFFFFFF
310
FFFFFFFFFFFFFFFFFFFFFFFFFFFFFFFFFFFFFFFFFFFFFFFFFFFFFFFFFFFFFFFF
310
FFFFFFFFFFFFFFFFFFFFFFFFFFFFFFFFFFFFFFFFFFFFFFFFFFFFFFFFFFFFFFFF
310
FFFFFFFFFFFFFFFFFFFFFFFFFFFFFFFFFFFFFFFFFFFFFFFFFFFFFFFFFFFFFFFF
310
FFFFFFFFFFFFFFFFFFFFFFFFFFFFFFFFFFFFFFFFFFFFFFFFFFFFFFFFFFFFFFFF
310
FFFFFFFFFFFFFFFFFFFFFFFFFFFFFFFFFFFFFFFFFFFFFFFFFFFFFFFFFFFFFFFF
310
FFFFFFFFFFFFFFFFFFFFFFFFFFFFFFFFFFFFFFFFFFFFFFFFFFFFFFFFFFFFFFFF
310
FFFFFFFFFFFFFFFFFFFFFFFFFFFFFFFFFFFFFFFFFFFFFFFFFFFFFFFFFFFFFFFF
310
FFFFFFFFFFFFFFFFFFFFFFFFFFFFFFFFFFFFFFFFFFFFFFFFFFFFFFFFFFFFFFFF
310
FDFFFFFFFEFFFFFFFEFFFFFFFEFFFFFF05000000060000000700000008000000
310
090000000A0000000B0000000C0000000D0000000E0000000F00000010000000
310
11000000120000001300000014000000150000001600000017000000FEFFFFFF
310
FFFFFFFFFFFFFFFFFFFFFFFFFFFFFFFFFFFFFFFFFFFFFFFFFFFFFFFFFFFFFFFF
310
FFFFFFFFFFFFFFFFFFFFFFFFFFFFFFFFFFFFFFFFFFFFFFFFFFFFFFFFFFFFFFFF
310
FFFFFFFFFFFFFFFFFFFFFFFFFFFFFFFFFFFFFFFFFFFFFFFFFFFFFFFFFFFFFFFF
310
FFFFFFFFFFFFFFFFFFFFFFFFFFFFFFFFFFFFFFFFFFFFFFFFFFFFFFFFFFFFFFFF
310
FFFFFFFFFFFFFFFFFFFFFFFFFFFFFFFFFFFFFFFFFFFFFFFFFFFFFFFFFFFFFFFF
310
FFFFFFFFFFFFFFFFFFFFFFFFFFFFFFFFFFFFFFFFFFFFFFFFFFFFFFFFFFFFFFFF
310
FFFFFFFFFFFFFFFFFFFFFFFFFFFFFFFFFFFFFFFFFFFFFFFFFFFFFFFFFFFFFFFF
310
FFFFFFFFFFFFFFFFFFFFFFFFFFFFFFFFFFFFFFFFFFFFFFFFFFFFFFFFFFFFFFFF
310
FFFFFFFFFFFFFFFFFFFFFFFFFFFFFFFFFFFFFFFFFFFFFFFFFFFFFFFFFFFFFFFF
310
FFFFFFFFFFFFFFFFFFFFFFFFFFFFFFFFFFFFFFFFFFFFFFFFFFFFFFFFFFFFFFFF
310
FFFFFFFFFFFFFFFFFFFFFFFFFFFFFFFFFFFFFFFFFFFFFFFFFFFFFFFFFFFFFFFF
310
FFFFFFFFFFFFFFFFFFFFFFFFFFFFFFFFFFFFFFFFFFFFFFFFFFFFFFFFFFFFFFFF
310
FFFFFFFFFFFFFFFFFFFFFFFFFFFFFFFFFFFFFFFFFFFFFFFFFFFFFFFFFFFFFFFF
310
52006F006F007400200045006E00740072007900000000000000000000000000
310
0000000000000000000000000000000000000000000000000000000000000000
310
16000500FFFFFFFFFFFFFFFF020000000A00030000000000C000000000000046
310
000000000000000000000000500716F2E24DCD0103000000C000000000000000
310
01004F006C006500000000000000000000000000000000000000000000000000
310
0000000000000000000000000000000000000000000000000000000000000000
310
0A000200FFFFFFFFFFFFFFFFFFFFFFFF00000000000000000000000000000000
310
0000000000000000000000000000000000000000000000001400000000000000
310
010043006F006D0070004F0062006A0000000000000000000000000000000000
310
0000000000000000000000000000000000000000000000000000000000000000
310
120002010100000003000000FFFFFFFF00000000000000000000000000000000
310
0000000000000000000000000000000000000000010000004D00000000000000
310
01004F006C006500310030004E00610074006900760065000000000000000000
310
0000000000000000000000000000000000000000000000000000000000000000
310
1A000200FFFFFFFFFFFFFFFFFFFFFFFF00000000000000000000000000000000
310
0000000000000000000000000000000000000000040000002426000000000000
310
FEFFFFFF02000000FEFFFFFFFFFFFFFFFFFFFFFFFFFFFFFFFFFFFFFFFFFFFFFF
310
FFFFFFFFFFFFFFFFFFFFFFFFFFFFFFFFFFFFFFFFFFFFFFFFFFFFFFFFFFFFFFFF
310
FFFFFFFFFFFFFFFFFFFFFFFFFFFFFFFFFFFFFFFFFFFFFFFFFFFFFFFFFFFFFFFF
310
FFFFFFFFFFFFFFFFFFFFFFFFFFFFFFFFFFFFFFFFFFFFFFFFFFFFFFFFFFFFFFFF
310
FFFFFFFFFFFFFFFFFFFFFFFFFFFFFFFFFFFFFFFFFFFFFFFFFFFFFFFFFFFFFFFF
310
FFFFFFFFFFFFFFFFFFFFFFFFFFFFFFFFFFFFFFFFFFFFFFFFFFFFFFFFFFFFFFFF
310
FFFFFFFFFFFFFFFFFFFFFFFFFFFFFFFFFFFFFFFFFFFFFFFFFFFFFFFFFFFFFFFF
310
FFFFFFFFFFFFFFFFFFFFFFFFFFFFFFFFFFFFFFFFFFFFFFFFFFFFFFFFFFFFFFFF
310
FFFFFFFFFFFFFFFFFFFFFFFFFFFFFFFFFFFFFFFFFFFFFFFFFFFFFFFFFFFFFFFF
310
FFFFFFFFFFFFFFFFFFFFFFFFFFFFFFFFFFFFFFFFFFFFFFFFFFFFFFFFFFFFFFFF
310
FFFFFFFFFFFFFFFFFFFFFFFFFFFFFFFFFFFFFFFFFFFFFFFFFFFFFFFFFFFFFFFF
310
FFFFFFFFFFFFFFFFFFFFFFFFFFFFFFFFFFFFFFFFFFFFFFFFFFFFFFFFFFFFFFFF
310
FFFFFFFFFFFFFFFFFFFFFFFFFFFFFFFFFFFFFFFFFFFFFFFFFFFFFFFFFFFFFFFF
310
FFFFFFFFFFFFFFFFFFFFFFFFFFFFFFFFFFFFFFFFFFFFFFFFFFFFFFFFFFFFFFFF
310
FFFFFFFFFFFFFFFFFFFFFFFFFFFFFFFFFFFFFFFFFFFFFFFFFFFFFFFFFFFFFFFF
310
FFFFFFFFFFFFFFFFFFFFFFFFFFFFFFFFFFFFFFFFFFFFFFFFFFFFFFFFFFFFFFFF
310
0100000200000000000000000000000000000000000000000000000000000000
310
0000000000000000000000000000000000000000000000000000000000000000
310
0100FEFF030A0000FFFFFFFF0A00030000000000C00000000000004607000000
310
5042727573680007000000504272757368000700000050427275736800F439B2
310
7100000000000000000000000000000000000000000000000000000000000000
310
0000000000000000000000000000000000000000000000000000000000000000
310
0000000000000000000000000000000000000000000000000000000000000000
310
0000000000000000000000000000000000000000000000000000000000000000
310
0000000000000000000000000000000000000000000000000000000000000000
310
0000000000000000000000000000000000000000000000000000000000000000
310
0000000000000000000000000000000000000000000000000000000000000000
310
0000000000000000000000000000000000000000000000000000000000000000
310
0000000000000000000000000000000000000000000000000000000000000000
310
0000000000000000000000000000000000000000000000000000000000000000
310
0000000000000000000000000000000000000000000000000000000000000000
310
0000000000000000000000000000000000000000000000000000000000000000
310
20260000424D0E260000000000003E00000028000000B40200006E0000000100
310
01000000000000000000130B0000130B00000200000002000000000000FFFFFF
310
FFFFFFFFFFFFFFFFFFFFFFFFFFFFFFFFFFFFFFFFFFFFFFFFFFFFFFFFFFFFFFFF
310
FFFFFFFFFFFFFFFFFFFFFFFFFFFFFFFFFFFFFFFFFFFFFFFFFFFFFFFFFFFFFFFF
310
FFFFFFFFFFFFFFFFFFFFFFFFFFFFFFFFFFFFFFFFFFFFFFFFF000FFFFFFFFFFFF
310
FFFFFFFFFFFFFFFFFFFFFFFFFFFFFFFFFFFFFFFFFFFFFFFFFFFFFFFFFFFFFFFF
310
FFFFFFFFFFFFFFFFFFFFFFFFFFFFFFFFFFFFFFFFFFFFFFFFFFFFFFFFFFFFFFFF
310
FFFFFFFFFFFFFFFFFFFFFFFFFFFFFFFFF000FFFFFFFFFFFFFFFFFFFFFFFFFFFF
310
FFFFFFFFFFFFFFFFFFFFFFFFFFFFFFFFFFFFFFFFFFFFFFFFFFFFFFFFFFFFFFFF
310
FFFFFFFFFFFFFFFFFFFFFFFFFFFFFFFFFFFFFFFFFFFFFFFFFFFFFFFFFFFFFFFF
310
FFFFFFFFFFFFFFFFF000FFFFFFFFFFFFFFFFFFFFFFFFFFFFFFFFFFFFFFFFFFFF
310
FFFFFFFFFFFFFFFFFFFFFFFFFFFFFFFFFFFFFFFFFFFFFFFFFFFFFFFFFFFFFFFF
310
FFFFFFFFFFFFFFFFFFFFFFFFFFFFFFFFFFFFFFFFFFFFFFFFFFFFFFFFFFFFFFFF
310
F000FFFFFFFFFFFFFFFFFFFFFFFFFFFFFFFFFFFFFFFFFFFFFFFFFFFFFFFFFFFF
310
FFFFFFFFFFFFFFFFFFFFFFFFFFFFFFFFFFFFFFFFFFFFFFFFFFFFFFFFFFFFFFFF
310
FFFFFFFFFFFFFFFFFFFFFFFFFFFFFFFFFFFFFFFFFFFFFFFFF000FFFFFFFFFFFF
310
FFFFFFFFFFFFFFFFFFFFFFFFFFFFFFFFFFFFFFFFFFFFFFFFFFFFFFFFFFFFFFFF
310
FFFFFFFFFFFFFFFFFFFFFFFFFFFFFFFFFFFFFFFFFFFFFFFFFFFFFFFFFFFFFFFF
310
FFFFFFFFFFFFFFFFFFFFFFFFFFFFFFFFF000FFFFFFFFFFFFFFFFFFFFFFFFFFFF
310
FFFFFFFFFFFFFFFFFFFFFFFFFFFFFFFFFFFFFFFFFFFFFFFFFFFFFFFFFFFFFFFF
310
FFFFFFFFFFFFFFFFFFFFFFFFFFFFFFFFFFFFFFFFFFFFFFFFFFFFFFFFFFFFFFFF
310
FFFFFFFFFFFFFFFFF000FFFFFFFFFFFFFFFFFFFFFFFFFFFFFFFFFFFFFFFFFFFF
310
FFFFFFFFFFFFFFFFFFFFFFFFFFFFFFFFFFFFFFFFFFFFFFFFFFFFFFFFFFFFFFFF
310
FFFFFFFFFFFFFFFFFFFFFFFFFFFFFFFFFFFFFFFFFFFFFFFFFFFFFFFFFFFFFFFF
310
F000FFFFFFFFFFFFFFFFFFFFFFFFFFFFFFFFFFFFFFFFFFFFFFFFFFFFFFFFFFFF
310
FFFFFFFFFFFFFFFFFFFFFFFFFFFFFFFFFFFFFFFFFFFFFFFFFFFFFFFFFFFFFFFF
310
FFFFFFFFFFFFFFFFFFFFFFFFFFFFFFFFFFFFFFFFFFFFFFFFF000FFFFFFFFFFFF
310
FFFFFFFFFFFFFFFFFFFFFFFFFFFFFFFFFFFFFFFFFFFFFFFFFFFFFFFFFFFFFFFF
310
FFFFFFFFFFFFFFFFFFFFFFFFFFFFFFFFFFFFFFFFFFFFFFFFFFFFFFFFFFFFFFFF
310
FFFFFFFFFFFFFFFFFFFFFFFFFFFFFFFFF000FFFFFFFFFFFFFFFFFFFFFFFFFFFF
310
FFFFFFFFFFFFFFFFFFFFFFFFFFFFFFFFFFFFFFFFFFFFFFFFFFFFFFFFFFFFFFFF
310
FFFFFFFFFFFFFFFFFFFFFFFFFFFFFFFFFFFFFFFFFFFFFFFFFFFFFFFFFFFFFFFF
310
FFFFFFFFFFFFFFFFF000FFFFFFFFFFFFFFFFFFFFFFFFFFFFFFFFFFFFFFFFFFFF
310
FFFFFFFFFFFFFFFFFFFFFFFFFFFFFFFFFFFFFFFFFFFFFFFFFFFFFFFFFFFFFFFF
310
FFFFFFFFFFFFFFFFFFFFFFFFFFFFFFFFFFFFFFFFFFFFFFFFFFFFFFFFFFFFFFFF
310
F000FFFFFFFFFFFFFFFFFFFFFFFFFFFFFFFFFFFFFFFFFFFFFFFFFFFFFFFFFFFF
310
FFFFFFFFFFFFFFFFFFFFFFFFFFFFFFFFFFFFFFFFFFFFFFFFFFFFFFFFFFFFFFFF
310
FFFFFFFFFFFFFFFFFFFFFFFFFFFFFFFFFFFFFFFFFFFFFFFFF000FFFFFFFFFFFF
310
FFFFFFFFFFFFFFFFFFFFFFFFFFFFFFFFFFFFFFFFFFFFFFFFFFFFFFFFFFFFFFFF
310
FFFFFFFFFFFFFFFFFFFFFFFFFFFFFFFFFFFFFFFFFFFFFFFFFFFFFFFFFFFFFFFF
310
FFFFFFFFFFFFFFFFFFFFFFFFFFFFFFFFF000FFFFFFFFFFFFFFFFFFFFFFFFFFFF
310
FFFFFFFFFFFFFFFFFFFFFFFFFFFFFFFFFFFFFFFFFFFFFFFFFFFFFFFFFFFFFFFF
310
FFFFFFFFFFFFFFFFFFFFFFFFFFFFFFFFFFFFFFFFFFFFFFFFFFFFFFFFFFFFFFFF
310
FFFFFFFFFFFFFFFFF000FFFFFFFFFFFFFFFFFFFFFFFFFFFFFFFFFFFFFFFFFFFF
310
FFFFFFFFFFFFFFFFFFFFFFFFFFFFFFFFFFFFFFFFFFFFFFFFFFFFFFFFFFFFFFFF
310
FFFFFFFFFFFFFFFFFFFFFFFFFFFFFFFFFFFFFFFFFFFFFFFFFFFFFFFFFFFFFFFF
310
F000FFFFFFFFFFFFFFFFFFFFFFFFFFFFFFFFFFFFFFFFFFFFFFFFFFFFFFFFFFFF
310
FFFFFFFFFFFFFFFFFFFFFFFFFFFFFFFFFFFFFFFFFFFFFFFFFFFFFFFFFFFFFFFF
310
FFFFFFFFFFFFFFFFFFFFFFFFFFFFFFFFFFFFFFFFFFFFFFFFF000FFFFFFFFFFFF
310
FFFFFFFFFFFFFFFFFFFFFFFFFFFFFFFFFFFFFFFFFFFFFFFFFFFFFFFFFFFFFFFF
310
FFFFFFFFFFFFFFFFFFFFFFFFFFFFFFFFFFFFFFFFFFFFFFFFFFFFFFFFFFFFFFFF
310
FFFFFFFFFFFFFFFFFFFFFFFFFFFFFFFFF000FFFFFFFFFFFFFFFFFFFFFFFFFFFF
310
FFFFFFFFFFFFFFFFFFFFFFFFFFFFFFFFFFFFFFFFFFFFFFFFFFFFFFFFFFFFFFFF
310
FFFFFFFFFFFFFFFFFFFFFFFFFFFFFFFFFFFFFFFFFFFFFFFFFFFFFFFFFFFFFFFF
310
FFFFFFFFFFFFFFFFF000FFFFF80003FFFFFFFFFFFFFFFFFFFFFFFFFFFFFFFFFF
310
FFFFF00007FFFFFFFFFF00007FFFFFF800000000000000007FFFFFFFFFFFFFFF
310
FFFFFFFC001FFFFFFFFFFFFFFC001FFFFFFFFFFFFFFFFFFFFFFFFFFE0007FFFF
310
F000FFFF8000007FFFFFFFF8000FFFFFC0007FFFFF80007FFFFF0000007FFFFF
310
FFF8000007FFFFF800000000000000007FFFFFF0001FFFFFFFFFFFC00001FFFF
310
FFFFFFFFC00001FFFFFFFF000000000003FFFFE000007FFFF000FFFE0000000F
310
FFFFFFF0000FFFFF80007FFFFF80007FFFFC0000001FFFFFFFC0000001FFFFF8
310
00000000000000007FFFFFF0001FFFFFFFFFFE0000003FFFFFFFFFFE0000003F
310
FFFFFF000000000003FFFF0000000FFFF000FFF800000003FFFFFFF00007FFFF
310
80007FFFFF80007FFFF000000007FFFFFF000000003FFFF80000000000000000
310
7FFFFFF0001FFFFFFFFFF80000000FFFFFFFFFF80000000FFFFFFF0000000000
310
03FFFC00000003FFF000FFE000000000FFFFFFF00007FFFF80003FFFFF80007F
310
FFC000000001FFFFFC000000001FFFF800000000000000007FFFFFF0001FFFFF
310
FFFFE000000003FFFFFFFFE000000003FFFFFF000000000003FFF000000000FF
310
F000FF80000000007FFFFFF00007FFFF80003FFFFF80007FFF8000000000FFFF
310
F80000000007FFF800000000000000007FFFFFF0001FFFFFFFFFC000000001FF
310
FFFFFFC000000001FFFFFF000000000003FFC0000000007FF000FF0000000000
310
3FFFFFE00007FFFF00003FFFFF80007FFE00000000003FFFF00000000003FFF8
310
00000000000000007FFFFFF0001FFFFFFFFF8000000000FFFFFFFF8000000000
310
FFFFFF000000000003FF80000000003FF000FE00000000001FFFFFE00003FFFF
310
00003FFFFF80007FFC00000000001FFFE00000000001FFF8000001FFFE000000
310
7FFFFFF0001FFFFFFFFE00000000003FFFFFFE00000000003FFFFF0000000000
310
03FF00000000001FF000FC00000000000FFFFFE00003FFFF00001FFFFF80007F
310
F800000000001FFFC00000000000FFF8000001FFFE0000007FFFFFF0001FFFFF
310
FFFC00000000001FFFFFFC00000000001FFFFF000000000003FE00000000000F
310
F000F8000000000007FFFFE00003FFFF00001FFFFF80007FF800000000000FFF
310
800000000000FFF8000001FFFE0000007FFFFFF0001FFFFFFFF800000000000F
310
FFFFF800000000000FFFFF000000000003FC000000000007F000F80000000000
310
03FFFFC00003FFFE00001FFFFF80007FF0000000000007FF0000000000007FF8
310
000001FFFE0000007FFFFFF0001FFFFFFFF0000000000007FFFFF00000000000
310
07FFFF000000000003F8000000000003F000F0000000000003FFFFC00001FFFE
310
00001FFFFF80007FE0000000000007FE0000000000003FF8000001FFFE000000
310
7FFFFFF0001FFFFFFFF0000000000007FFFFF0000000000007FFFF0000000000
310
03F800001F800003F000E00001FFF00001FFFFC00001FFFE00000FFFFF80007F
310
E00001FFE00003FE00001FFF00003FF8000001FFFE0000007FFFFFF0001FFFFF
310
FFE000003E000003FFFFE000003E000003FFFF000000000003F00001FFF80001
310
F000E00007FFFC0001FFFFC00001FFFE00000FFFFF80007FC0000FFFFC0003FC
310
0000FFFFC0001FF8000001FFFE0000007FFFFFF0001FFFFFFFC00003FFE00001
310
FFFFC00003FFE00001FFFF0001FFFFFFFFF00007FFFE0001F000E0000FFFFF00
310
00FFFF800001FFFC00000FFFFF80007FC0001FFFFE0001FC0001FFFFE0001FF8
310
000001FFFE0000007FFFFFF0001FFFFFFF80000FFFF80000FFFF80000FFFF800
310
00FFFF0003FFFFFFFFE0000FFFFF8000F000C0003FFFFF8000FFFF800000FFFC
310
000007FFFF80007F80003FFFFF0001FC0003FFFFF0001FF8000001FFFE000000
310
7FFFFFF0001FFFFFFF80003FFFFE0000FFFF80003FFFFE0000FFFF0003FFFFFF
310
FFE0003FFFFF8000F000C0003FFFFF8000FFFF800000FFFC000007FFFF80007F
310
80007FFFFF8001F80007FFFFF8000FF8000001FFFE0000007FFFFFF0001FFFFF
310
FF00007FFFFF00007FFF00007FFFFF00007FFF0003FFFFFFFFE0003FFFFFC000
310
F000C0007FFFFFC000FFFF000000FFFC000007FFFF80007F8000FFFFFF8000F8
310
000FFFFFF8000FF8000001FFFE0000007FFFFFF0001FFFFFFF0000FFFFFF8000
310
7FFF0000FFFFFF80007FFF0003FFFFFFFFC0007FFFFFC00070008000FFFFFFC0
310
00FFFF000000FFF8000007FFFF80007F8000FFFFFF8000F8000FFFFFF8000FF8
310
000001FFFE0000007FFFFFF0001FFFFFFE0001FFFFFFC0003FFE0001FFFFFFC0
310
003FFF0003FFFFFFFFC0007FFFFFE00070008000FFFFFFC0007FFF0000007FF8
310
000003FFFF80007F0001FFFFFF8000F8000FFFFFF8000FF8000001FFFE000000
310
7FFFFFF0001FFFFFFE0001FFFFFFC0003FFE0001FFFFFFC0003FFF0003FFFFFF
310
FFC000FFFFFFE00070008000FFFFFFC0007FFF0000007FF8000003FFFF80007F
310
0001FFFFFF8000F8001FFFFFF8000FF8000001FFFE0000007FFFFFF0001FFFFF
310
FE0003FFFFFFE0003FFE0003FFFFFFE0003FFF0003FFFFFFFFC000FFFFFFE000
310
70008000FFFFFFC0007FFE0000007FF8000003FFFF80007F0001FFFFFF8000F0
310
001FFFFFF8000FF8000001FFFE0000007FFFFFF0001FFFFFFC0003FFFFFFE000
310
1FFC0003FFFFFFE0001FFF0003FFFFFFFFC000FFFFFFC00070008000FFFFFF80
310
007FFE0000007FF0000003FFFF80007F0001FFFFFF0000F0001FFFFFF8000FF8
310
000001FFFE0000007FFFFFF0001FFFFFFC0007FFFFFFF0001FFC0007FFFFFFF0
310
001FFF0003FFFFFFFFC000FFFFFFC00070008001FFFFFF0000FFFE0000003FF0
310
000001FFFF80007F0001FFFFFF0000F8001FFFFFF0000FF8000001FFFE000000
310
7FFFFFF0001FFFFFFC0007FFFFFFF0001FFC0007FFFFFFF0001FFF0003FFFFFF
310
FFC001FFFFFF80007000FFFFFFFFFE0000FFFE0008003FF0008001FFFF80007F
310
FFFFFFFFFC0000FFFFFFFFFFE0000FF8000001FFFE0000007FFFFFF0001FFFFF
310
F8000FFFFFFFF8000FF8000FFFFFFFF8000FFF0003FFFFFFFFFFFFFFFFFF0000
310
7000FFFFFFFFFC0000FFFC0008003FF0008001FFFF80007FFFFFFFFFF80001FF
310
FFFFFFFF80000FF8000001FFFE0000007FFFFFF0001FFFFFF8000FFFFFFFF800
310
0FF8000FFFFFFFF8000FFF0003FFFFFFFFFFFFFFFFFE0000F000FFFFFFFFE000
310
00FFFC000C003FE000C001FFFF80007FFFFFFFFFC00001FFFFFFFFFE00001FF8
310
000001FFFE0000007FFFFFF0001FFFFFF8000FFFFFFFF8000FF8000FFFFFFFF8
310
000FFF0003FFFFFFFFFFFFFFFFF00000F000FFFFFFFE000001FFFC000C001FE0
310
00C000FFFF80007FFFFFFFFE000001FFFFFFFFE000001FF80FFFFFFFFFFFFFC0
310
7FFFFFF0001FFFFFF8000FFFFFFFF8000FF8000FFFFFFFF8000FFF0003FFFFFF
310
FFFFFFFFFF800000F000FFFFFFC0000001FFFC001C001FE001C000FFFF80007F
310
FFFFFF80000003FFFFFFF80000001FF80FFFFFFFFFFFFFC07FFFFFF0001FFFFF
310
F8001FFFFFFFFC000FF8001FFFFFFFFC000FFF0003FFFFFFFFFFFFFFF0000001
310
F000FFFFF800000001FFF8001C001FE001C000FFFF80007FFFFFF800000003FF
310
FFFF800000003FF80FFFFFFFFFFFFFC07FFFFFF0001FFFFFF8001FFFFFFFFC00
310
0FF8001FFFFFFFFC000FFF0003FFFFFFFFFFFFFE00000001F000FFFFC0000000
310
03FFF8001E001FC001E000FFFF80007FFFFF8000000007FFFFFC000000003FF8
310
0FFFFFFFFFFFFFC07FFFFFF0001FFFFFF8001FFFFFFFFC000FF8001FFFFFFFFC
310
000FFF0003FFFFFFFFFFFFE000000003F000FFFE0000000007FFF8001E000FC0
310
01E0007FFF80007FFFFE0000000007FFFFE0000000007FF80FFFFFFFFFFFFFC0
310
7FFFFFF0001FFFFFF0001FFFFFFFFC0007F0001FFFFFFFFC0007FF0003FFFFFF
310
FFFFFF0000000003F000FFF80000000007FFF8001E000FC003E0007FFF80007F
310
FFF0000000000FFFFF8000000000FFF80FFFFFFFFFFFFFC07FFFFFF0001FFFFF
310
F0001FFFFFFFFC0007F0001FFFFFFFFC0007FF0003FFFFFFFFFFFC0000000007
310
F000FFE0000000000FFFF0003E000FC003E0007FFF80007FFFC0000000001FFF
310
FE0000000001FFF80FFFFFFFFFFFFFC07FFFFFF0001FFFFFF0001FFFFFFFFC00
310
07F0001FFFFFFFFC0007FF0003FFFFFFFFFFF0000000000FF000FFC000000000
310
1FFFF0003F000F8003F0003FFF80007FFF80000000003FFFF80000000003FFF8
310
0FFFFFFFFFFFFFC07FFFFFF0001FFFFFF0001FFFFFFFFC0007F0001FFFFFFFFC
310
0007FF0003FFFFFFFFFFE0000000001FF000FF00000000007FFFF0003F000780
310
03F0003FFF80007FFF00000000007FFFF00000000007FFF80FFFFFFFFFFFFFC0
310
7FFFFFF0001FFFFFF0001FFFFFFFFC0007F0001FFFFFFFFC0007FF0003FFFFFF
310
FFFF80000000007FF000FE0000000000FFFFE0003F00078007F0003FFF80007F
310
FE0000000001FFFFE0000000001FFFF80FFFFFFFFFFFFFC07FFFFFF0001FFFFF
310
F0001FFFFFFFFC0007F0001FFFFFFFFC0007FF0003FFFFFFFFFF0000000000FF
310
F000FC0000000003FFFFE0007F00078007F0003FFF80007FFC0000000007FFFF
310
C0000000007FFFF80FFFFFFFFFFFFFC07FFFFFF0001FFFFFF8001FFFFFFFFC00
310
0FF8001FFFFFFFFC000FFF0003FFFFFFFFFE0000000003FFF000FC000000000F
310
FFFFE0007F80070007F8001FFF80007FF8000000001FFFFF8000000001FFFFF8
310
0FFFFFFFFFFFFFC07FFFFFF0001FFFFFF8001FFFFFFFFC000FF8001FFFFFFFFC
310
000FFF0003FFFFFFFFFC000000000FFFF000F8000000007FFFFFE0007F800700
310
07F8001FFF80007FF000000000FFFFFF800000000FFFFFF80FFFFFFFFFFFFFC0
310
7FFFFFF0001FFFFFF8000FFFFFFFF8000FF8000FFFFFFFF8000FFF0003FFFFFF
310
FFFC000000007FFFF000F800000007FFFFFFC0007F8003000FF8001FFF80007F
310
F000000007FFFFFF000000007FFFFFF80FFFFFFFFFFFFFC07FFFFFF0001FFFFF
310
F8000FFFFFFFF8000FF8000FFFFFFFF8000FFF0003FFFFFFFFF80000000FFFFF
310
F000F0000000FFFFFFFFC000FF8003000FF8001FFF80007FE0000000FFFFFFFF
310
0000000FFFFFFFF8000001FFFE0000007FFFFFF0001FFFFFF8000FFFFFFFF800
310
0FF8000FFFFFFFF8000FFF0003FFFFFFFFF8000000FFFFFFF000F000000FFFFF
310
FFFFC000FFC002000FF8000FFF80007FE000001FFFFFFFFE000001FFFFFFFFF8
310
000001FFFE0000007FFFFFF0001FFFFFF8000FFFFFFFF8000FF8000FFFFFFFF8
310
000FFF0003FFFFFFFFF000001FFFFFFFF000E00000FFFFFFFFFFC000FFC00200
310
0FFC000FFF80007FE00001FFFFFFFFFE00001FFFFFFFFFF8000001FFFE000000
310
7FFFFFF0001FFFFFFC000FFFFFFFF8001FFC000FFFFFFFF8001FFF0003FFFFFF
310
FFF00001FFFFFFFFF000E00007FFFFFFFFFF8000FFC000001FFC000FFF80007F
310
C0000FFFFFFFFFFE0000FFFFFFFFFFF8000001FFFE0000007FFFFFF0001FFFFF
310
FC0007FFFFFFF0001FFC0007FFFFFFF0001FFF0003FFFFFFFFF00007FFFFFFFF
310
F000E0001FFFFFFFFFFF8000FFC000001FFC000FFF80007FC0003FFFFFFFFFFE
310
0001FFFFFFFFFFF8000001FFFE0000007FFFFFF0001FFFFFFC0007FFFFFFF000
310
1FFC0007FFFFFFF0001FFF0003FFFFFFFFF0001FFFFFFFFFF000E0003FFFFF00
310
03FF8001FFE000001FFC0007FF80007FC0007FFFFF0007FC0003FFFFF0003FF8
310
000001FFFE0000007FFFFFF0001FFFFFFC0003FFFFFFE0001FFC0003FFFFFFE0
310
001FFF0003FFFFFFFFF0003FFFFFFFFFF000E0003FFFFF0001FF8001FFE00000
310
1FFE0007FF80007FC0007FFFFE0003FC0007FFFFE0003FF8000001FFFE000000
310
7FFFFFF0001FFFFFFE0003FFFFFFE0003FFE0003FFFFFFE0003FFF0003FFFFFF
310
FFF0003FFFFF8001F000E0003FFFFF0001FF0001FFE000001FFE0007FF80007F
310
C0007FFFFE0003FC0007FFFFE0003FF8000001FFFE0000007FFFFFF0001FFFFF
310
FE0001FFFFFFC0003FFE0001FFFFFFC0003FFF0003FFFFFFFFF0003FFFFF0001
310
F000E0003FFFFF0003FF0001FFE000003FFE0007FF80007FC0007FFFFE0003FC
310
0007FFFFE0003FF8000001FFFE0000007FFFFFF0001FFFFFFF0001FFFFFFC000
310
7FFF0001FFFFFFC0007FFF0003FFFFFFFFF0003FFFFF0001F000E0003FFFFE00
310
03FF0003FFF000003FFE0003FF80007FC0007FFFFC0003FE0007FFFFE0003FF8
310
000001FFFE0000007FFFFFF0001FFFFFFF0000FFFFFF80007FFF0000FFFFFF80
310
007FFF0003FFFFFFFFF0003FFFFF0001F000E0003FFFFE0003FF0003FFF00000
310
3FFF0003FF80007FC0007FFFFC0007FE0007FFFFC0003FF8000001FFFE000000
310
7FFFFFF0001FFFFFFF80007FFFFF0000FFFF80007FFFFF0000FFFF0003FFFFFF
310
FFF0003FFFFF0003F000E0003FFFFC0003FE0003FFF000003FFF0003FF80007F
310
E0003FFFF80007FE0003FFFFC0007FF8000001FFFE0000007FFFFFF0001FFFFF
310
FF80003FFFFE0000FFFF80003FFFFE0000FFFF0003FFFFFFFFF0001FFFFE0003
310
F000F0001FFFF80003FE0003FFF000007FFF0001FF80007FE0003FFFF00007FE
310
0001FFFF80007FF8000001FFFE0000007FFFFFF0001FFFFFFFC0000FFFF80001
310
FFFFC0000FFFF80001FFFF0003FFFFFFFFF0001FFFFC0003F000F0000FFFF000
310
07FE0007FFF800007FFF0001FF80007FE0001FFFE00007FF0000FFFE00007FF8
310
000001FFFE0000007FFFFFF0001FFFFFFFC00003FFE00001FFFFC00003FFE000
310
01FFFF0003FFFFFFFFF8000FFFF80003F000F00003FFC00007FC0007FFF80000
310
7FFF8001FF80007FF00007FF80000FFF00007FF80000FFF8000001FFFE000000
310
7F80000000000001FFE000003E000003FFFFE000003E000003FFFF0003FFFFFF
310
FFF80003FFE00007F000F800000000000FFC0007FFF800007FFF8001FF80007F
310
F000000000000FFF000000000000FFF8000001FFFE0000007F80000000000001
310
FFF0000000000007FFFFF0000000000007FFFF0003FFFFFFFFFC00007E000007
310
F000F800000000000FFC0007FFF80000FFFF8000FF80007FF800000000001FFF
310
800000000001FFF8000001FFFE0000007F80000000000001FFF800000000000F
310
FFFFF800000000000FFFFF0003FFFFFFFFFC00000000000FF000FC0000000000
310
1FFC0007FFFC0000FFFF8000FF80007FF800000000003FFFC00000000001FFF8
310
000001FFFE0000007F80000000000001FFF800000000000FFFFFF80000000000
310
0FFFFF0003FFFFFFFFFE00000000001FF000FE00000000003FF8000FFFFC0000
310
FFFF8000FF80007FFC00000000003FFFC00000000003FFF8000001FFFE000000
310
7F80000000000001FFFC00000000001FFFFFFC00000000001FFFFF0003FFFFFF
310
FFFF00000000001FF000FF00000000003FF8000FFFFC0000FFFFC000FF80007F
310
FE00000000007FFFE00000000007FFF8000001FFFE0000007F80000000000001
310
FFFE00000000003FFFFFFE00000000003FFFFF0003FFFFFFFFFF80000000003F
310
F000FF80000000007FF8000FFFFC0001FFFFC0007F80007FFF0000000000FFFF
310
F0000000000FFFF800000000000000007F80000000000001FFFF8000000000FF
310
FFFFFF8000000000FFFFFF0003FFFFFFFFFFC0000000007FF000FFC000000000
310
FFF8000FFFFE0001FFFFC0007F80007FFF8000000001FFFFF8000000001FFFF8
310
00000000000000007F80000000000001FFFFC000000001FFFFFFFFC000000001
310
FFFFFF0003FFFFFFFFFFE000000000FFF000FFE000000003FFF0001FFFFE0001
310
FFFFC0007F80007FFFC000000007FFFFFE000000003FFFF80000000000000000
310
7F80000000000001FFFFE000000003FFFFFFFFE000000003FFFFFF0003FFFFFF
310
FFFFF000000003FFF000FFF80000000FFFF0001FFFFE0001FFFFE0007F80007F
310
FFF00000000FFFFFFF00000000FFFFF800000000000000007F80000000000001
310
FFFFF80000000FFFFFFFFFF80000000FFFFFFF0003FFFFFFFFFFFC0000000FFF
310
F000FFFE0000003FFFF0001FFFFE0003FFFFE0003F80007FFFFC0000003FFFFF
310
FFC0000003FFFFF800000000000000007F80000000000001FFFFFE0000003FFF
310
FFFFFFFE0000003FFFFFFF0003FFFFFFFFFFFF0000003FFFF000FFFF800000FF
310
FFF0001FFFFF0003FFFFE0003F80007FFFFF000001FFFFFFFFF800001FFFFFF8
310
00000000000000007F80000000000001FFFFFFC00001FFFFFFFFFFFFC00001FF
310
FFFFFF0003FFFFFFFFFFFFC00000FFFFF000FFFFF8000FFFFFFFFFFFFFFFFFFF
310
FFFFFFFFFFFFFFFFFFFFF0001FFFFFFFFFFF0000FFFFFFF80000000000000000
310
7FFFFFFFFFFFFFFFFFFFFFFC001FFFFFFFFFFFFFFC001FFFFFFFFFFFFFFFFFFF
310
FFFFFFFC001FFFFFF000FFFFFFFFFFFFFFFFFFFFFFFFFFFFFFFFFFFFFFFFFFFF
310
FFFFFFFFFFFFFFFFFFFFFFFFFFFFFFFFFFFFFFFFFFFFFFFFFFFFFFFFFFFFFFFF
310
FFFFFFFFFFFFFFFFFFFFFFFFFFFFFFFFFFFFFFFFFFFFFFFFFFFFFFFFFFFFFFFF
310
F000FFFFFFFFFFFFFFFFFFFFFFFFFFFFFFFFFFFFFFFFFFFFFFFFFFFFFFFFFFFF
310
FFFFFFFFFFFFFFFFFFFFFFFFFFFFFFFFFFFFFFFFFFFFFFFFFFFFFFFFFFFFFFFF
310
FFFFFFFFFFFFFFFFFFFFFFFFFFFFFFFFFFFFFFFFFFFFFFFFF000FFFFFFFFFFFF
310
FFFFFFFFFFFFFFFFFFFFFFFFFFFFFFFFFFFFFFFFFFFFFFFFFFFFFFFFFFFFFFFF
310
FFFFFFFFFFFFFFFFFFFFFFFFFFFFFFFFFFFFFFFFFFFFFFFFFFFFFFFFFFFFFFFF
310
FFFFFFFFFFFFFFFFFFFFFFFFFFFFFFFFF000FFFFFFFFFFFFFFFFFFFFFFFFFFFF
310
FFFFFFFFFFFFFFFFFFFFFFFFFFFFFFFFFFFFFFFFFFFFFFFFFFFFFFFFFFFFFFFF
310
FFFFFFFFFFFFFFFFFFFFFFFFFFFFFFFFFFFFFFFFFFFFFFFFFFFFFFFFFFFFFFFF
310
FFFFFFFFFFFFFFFFF000FFFFFFFFFFFFFFFFFFFFFFFFFFFFFFFFFFFFFFFFFFFF
310
FFFFFFFFFFFFFFFFFFFFFFFFFFFFFFFFFFFFFFFFFFFFFFFFFFFFFFFFFFFFFFFF
310
FFFFFFFFFFFFFFFFFFFFFFFFFFFFFFFFFFFFFFFFFFFFFFFFFFFFFFFFFFFFFFFF
310
F000FFFFFFFFFFFFFFFFFFFFFFFFFFFFFFFFFFFFFFFFFFFFFFFFFFFFFFFFFFFF
310
FFFFFFFFFFFFFFFFFFFFFFFFFFFFFFFFFFFFFFFFFFFFFFFFFFFFFFFFFFFFFFFF
310
FFFFFFFFFFFFFFFFFFFFFFFFFFFFFFFFFFFFFFFFFFFFFFFFF000FFFFFFFFFFFF
310
FFFFFFFFFFFFFFFFFFFFFFFFFFFFFFFFFFFFFFFFFFFFFFFFFFFFFFFFFFFFFFFF
310
FFFFFFFFFFFFFFFFFFFFFFFFFFFFFFFFFFFFFFFFFFFFFFFFFFFFFFFFFFFFFFFF
310
FFFFFFFFFFFFFFFFFFFFFFFFFFFFFFFFF000FFFFFFFFFFFFFFFFFFFFFFFFFFFF
310
FFFFFFFFFFFFFFFFFFFFFFFFFFFFFFFFFFFFFFFFFFFFFFFFFFFFFFFFFFFFFFFF
310
FFFFFFFFFFFFFFFFFFFFFFFFFFFFFFFFFFFFFFFFFFFFFFFFFFFFFFFFFFFFFFFF
310
FFFFFFFFFFFFFFFFF000FFFFFFFFFFFFFFFFFFFFFFFFFFFFFFFFFFFFFFFFFFFF
310
FFFFFFFFFFFFFFFFFFFFFFFFFFFFFFFFFFFFFFFFFFFFFFFFFFFFFFFFFFFFFFFF
310
FFFFFFFFFFFFFFFFFFFFFFFFFFFFFFFFFFFFFFFFFFFFFFFFFFFFFFFFFFFFFFFF
310
F000FFFFFFFFFFFFFFFFFFFFFFFFFFFFFFFFFFFFFFFFFFFFFFFFFFFFFFFFFFFF
310
FFFFFFFFFFFFFFFFFFFFFFFFFFFFFFFFFFFFFFFFFFFFFFFFFFFFFFFFFFFFFFFF
310
FFFFFFFFFFFFFFFFFFFFFFFFFFFFFFFFFFFFFFFFFFFFFFFFF000FFFFFFFFFFFF
310
FFFFFFFFFFFFFFFFFFFFFFFFFFFFFFFFFFFFFFFFFFFFFFFFFFFFFFFFFFFFFFFF
310
FFFFFFFFFFFFFFFFFFFFFFFFFFFFFFFFFFFFFFFFFFFFFFFFFFFFFFFFFFFFFFFF
310
FFFFFFFFFFFFFFFFFFFFFFFFFFFFFFFFF000FFFFFFFFFFFFFFFFFFFFFFFFFFFF
310
FFFFFFFFFFFFFFFFFFFFFFFFFFFFFFFFFFFFFFFFFFFFFFFFFFFFFFFFFFFFFFFF
310
FFFFFFFFFFFFFFFFFFFFFFFFFFFFFFFFFFFFFFFFFFFFFFFFFFFFFFFFFFFFFFFF
310
FFFFFFFFFFFFFFFFF000FFFFFFFFFFFFFFFFFFFFFFFFFFFFFFFFFFFFFFFFFFFF
310
FFFFFFFFFFFFFFFFFFFFFFFFFFFFFFFFFFFFFFFFFFFFFFFFFFFFFFFFFFFFFFFF
310
FFFFFFFFFFFFFFFFFFFFFFFFFFFFFFFFFFFFFFFFFFFFFFFFFFFFFFFFFFFFFFFF
310
F000FFFFFFFFFFFFFFFFFFFFFFFFFFFFFFFFFFFFFFFFFFFFFFFFFFFFFFFFFFFF
310
FFFFFFFFFFFFFFFFFFFFFFFFFFFFFFFFFFFFFFFFFFFFFFFFFFFFFFFFFFFFFFFF
310
FFFFFFFFFFFFFFFFFFFFFFFFFFFFFFFFFFFFFFFFFFFFFFFFF000FFFFFFFFFFFF
310
FFFFFFFFFFFFFFFFFFFFFFFFFFFFFFFFFFFFFFFFFFFFFFFFFFFFFFFFFFFFFFFF
310
FFFFFFFFFFFFFFFFFFFFFFFFFFFFFFFFFFFFFFFFFFFFFFFFFFFFFFFFFFFFFFFF
310
FFFFFFFFFFFFFFFFFFFFFFFFFFFFFFFFF000FFFFFFFFFFFFFFFFFFFFFFFFFFFF
310
FFFFFFFFFFFFFFFFFFFFFFFFFFFFFFFFFFFFFFFFFFFFFFFFFFFFFFFFFFFFFFFF
310
FFFFFFFFFFFFFFFFFFFFFFFFFFFFFFFFFFFFFFFFFFFFFFFFFFFFFFFFFFFFFFFF
310
FFFFFFFFFFFFFFFFF000FFFFFFFFFFFFFFFFFFFFFFFFFFFFFFFFFFFFFFFFFFFF
310
FFFFFFFFFFFFFFFFFFFFFFFFFFFFFFFFFFFFFFFFFFFFFFFFFFFFFFFFFFFFFFFF
310
FFFFFFFFFFFFFFFFFFFFFFFFFFFFFFFFFFFFFFFFFFFFFFFFFFFFFFFFFFFFFFFF
310
F000FFFFFFFFFFFFFFFFFFFFFFFFFFFFFFFFFFFFFFFFFFFFFFFFFFFFFFFFFFFF
310
FFFFFFFFFFFFFFFFFFFFFFFFFFFFFFFFFFFFFFFFFFFFFFFFFFFFFFFFFFFFFFFF
310
FFFFFFFFFFFFFFFFFFFFFFFFFFFFFFFFFFFFFFFFFFFFFFFFF000FFFFFFFFFFFF
310
FFFFFFFFFFFFFFFFFFFFFFFFFFFFFFFFFFFFFFFFFFFFFFFFFFFFFFFFFFFFFFFF
310
FFFFFFFFFFFFFFFFFFFFFFFFFFFFFFFFFFFFFFFFFFFFFFFFFFFFFFFFFFFFFFFF
310
FFFFFFFFFFFFFFFFFFFFFFFFFFFFFFFFF000FFFFFFFFFFFFFFFFFFFFFFFFFFFF
310
FFFFFFFFFFFFFFFFFFFFFFFFFFFFFFFFFFFFFFFFFFFFFFFFFFFFFFFFFFFFFFFF
310
FFFFFFFFFFFFFFFFFFFFFFFFFFFFFFFFFFFFFFFFFFFFFFFFFFFFFFFFFFFFFFFF
310
FFFFFFFFFFFFFFFFF000FFFFFFFFFFFFFFFFFFFFFFFFFFFFFFFFFFFFFFFFFFFF
310
FFFFFFFFFFFFFFFFFFFFFFFFFFFFFFFFFFFFFFFFFFFFFFFFFFFFFFFFFFFFFFFF
310
FFFFFFFFFFFFFFFFFFFFFFFFFFFFFFFFFFFFFFFFFFFFFFFFFFFFFFFFFFFFFFFF
310
F000FFFFFFFFFFFFFFFFFFFFFFFFFFFFFFFFFFFFFFFFFFFFFFFFFFFFFFFFFFFF
310
FFFFFFFFFFFFFFFFFFFFFFFFFFFFFFFFFFFFFFFFFFFFFFFFFFFFFFFFFFFFFFFF
310
FFFFFFFFFFFFFFFFFFFFFFFFFFFFFFFFFFFFFFFFFFFFFFFFF000FFFFFFFFFFFF
310
FFFFFFFFFFFFFFFFFFFFFFFFFFFFFFFFFFFFFFFFFFFFFFFFFFFFFFFFFFFFFFFF
310
FFFFFFFFFFFFFFFFFFFFFFFFFFFFFFFFFFFFFFFFFFFFFFFFFFFFFFFFFFFFFFFF
310
FFFFFFFFFFFFFFFFFFFFFFFFFFFFFFFFF0000000000000000000000000000000
310
0000000000000000000000000000000000000000000000000000000000000000
310
0000000000000000000000000000000000000000000000000000000000000000
310
0000000000000000000000000000000000000000000000000000000000000000
310
0000000000000000000000000000000000000000000000000000000000000000
310
0000000000000000000000000000000000000000000000000000000000000000
310
0000000000000000000000000000000000000000000000000000000000000000
310
0000000000000000000000000000000000000000000000000000000000000000
310
0000000000000000000000000000000000000000000000000000000000000000
310
0000000000000000000000000000000000000000000000000000000000000000
310
0000000000000000000000000000000000000000000000000000000000000000
310
0000000000000000000000000000000000000000000000000000000000000000
310
0000000000000000000000000000000000000000000000000000000000000000
310
0000000000000000000000000000000000000000000000000000000000000000
310
0000000000000000000000000000000000000000000000000000000000000000
310
0000000000000000000000000000000000000000000000000000000000000000
  1
OLE
  0
ENDSEC
  0
SECTION
  2
OBJECTS
  0
DICTIONARY
  5
C
330
0
100
AcDbDictionary
281
     1
  3
ACAD_GROUP
350
D
  3
ACAD_LAYOUT
350
1A
  3
ACAD_MLINESTYLE
350
17
  3
ACAD_PLOTSETTINGS
350
19
  3
ACAD_PLOTSTYLENAME
350
E
  0
DICTIONARY
  5
D
102
{ACAD_REACTORS
330
C
102
}
330
C
100
AcDbDictionary
281
     1
  0
DICTIONARY
  5
1A
102
{ACAD_REACTORS
330
C
102
}
330
C
100
AcDbDictionary
281
     1
  3
Layout1
350
1E
  3
Layout2
350
26
  3
Model
350
22
  0
DICTIONARY
  5
17
102
{ACAD_REACTORS
330
C
102
}
330
C
100
AcDbDictionary
281
     1
  3
Standard
350
18
  0
DICTIONARY
  5
19
102
{ACAD_REACTORS
330
C
102
}
330
C
100
AcDbDictionary
281
     1
  0
ACDBDICTIONARYWDFLT
  5
E
102
{ACAD_REACTORS
330
C
102
}
330
C
100
AcDbDictionary
281
     1
  3
Normal
350
F
100
AcDbDictionaryWithDefault
340
F
  0
LAYOUT
  5
1E
102
{ACAD_REACTORS
330
1A
102
}
330
1A
100
AcDbPlotSettings
  1

  2
none_device
  4

  6

 40
0.0
 41
0.0
 42
0.0
 43
0.0
 44
0.0
 45
0.0
 46
0.0
 47
0.0
 48
0.0
 49
0.0
140
0.0
141
0.0
142
1.0
143
1.0
 70
   688
 72
     0
 73
     0
 74
     5
  7

 75
    16
147
1.0
148
0.0
149
0.0
100
AcDbLayout
  1
Layout1
 70
     1
 71
     1
 10
0.0
 20
0.0
 11
420.0
 21
297.0
 12
0.0
 22
0.0
 32
0.0
 14
1.0000000000E+20
 24
1.0000000000E+20
 34
1.0000000000E+20
 15
-1.0000000000E+20
 25
-1.0000000000E+20
 35
-1.0000000000E+20
146
0.0
 13
0.0
 23
0.0
 33
0.0
 16
1.0
 26
0.0
 36
0.0
 17
0.0
 27
1.0
 37
0.0
 76
     0
330
1B
  0
LAYOUT
  5
26
102
{ACAD_REACTORS
330
1A
102
}
330
1A
100
AcDbPlotSettings
  1

  2
none_device
  4

  6

 40
0.0
 41
0.0
 42
0.0
 43
0.0
 44
0.0
 45
0.0
 46
0.0
 47
0.0
 48
0.0
 49
0.0
140
0.0
141
0.0
142
1.0
143
1.0
 70
   688
 72
     0
 73
     0
 74
     5
  7

 75
    16
147
1.0
148
0.0
149
0.0
100
AcDbLayout
  1
Layout2
 70
     1
 71
     2
 10
0.0
 20
0.0
 11
0.0
 21
0.0
 12
0.0
 22
0.0
 32
0.0
 14
0.0
 24
0.0
 34
0.0
 15
0.0
 25
0.0
 35
0.0
146
0.0
 13
0.0
 23
0.0
 33
0.0
 16
1.0
 26
0.0
 36
0.0
 17
0.0
 27
1.0
 37
0.0
 76
     0
330
23
  0
LAYOUT
  5
22
102
{ACAD_REACTORS
330
1A
102
}
330
1A
100
AcDbPlotSettings
  1

  2
none_device
  4

  6

 40
0.0
 41
0.0
 42
0.0
 43
0.0
 44
0.0
 45
0.0
 46
0.0
 47
0.0
 48
0.0
 49
0.0
140
0.0
141
0.0
142
1.0
143
1.0
 70
  1712
 72
     0
 73
     0
 74
     0
  7

 75
     0
147
1.0
148
0.0
149
0.0
100
AcDbLayout
  1
Model
 70
     1
 71
     0
 10
0.0
 20
0.0
 11
297.0
 21
210.0
 12
0.0
 22
0.0
 32
0.0
 14
0.0
 24
0.0
 34
0.0
 15
297.0
 25
210.0
 35
0.0
146
0.0
 13
0.0
 23
0.0
 33
0.0
 16
1.0
 26
0.0
 36
0.0
 17
0.0
 27
1.0
 37
0.0
 76
     0
330
1F
331
29
  0
MLINESTYLE
  5
18
102
{ACAD_REACTORS
330
17
102
}
330
17
100
AcDbMlineStyle
  2
Standard
 70
     0
  3

 62
   256
 51
90.0
 52
90.0
 71
     2
 49
0.5
 62
   256
  6
BYLAYER
 49
-0.5
 62
   256
  6
BYLAYER
  0
ACDBPLACEHOLDER
  5
F
102
{ACAD_REACTORS
330
E
102
}
330
E
  0
ENDSEC
  0
EOF
