  0
SECTION
  2
HEADER
  9
$ACADVER
  1
AC1015
  9
$ACADMAINTVER
 70
     6
  9
$DWGCODEPAGE
  3
ANSI_1252
  9
$INSBASE
 10
0.0
 20
0.0
 30
0.0
  9
$EXTMIN
 10
0.0
 20
0.0
 30
0.0
  9
$EXTMAX
 10
297.0
 20
210.0
 30
0.0
  9
$LIMMIN
 10
0.0
 20
0.0
  9
$LIMMAX
 10
297.0
 20
210.0
  9
$ORTHOMODE
 70
     0
  9
$REGENMODE
 70
     1
  9
$FILLMODE
 70
     1
  9
$QTEXTMODE
 70
     0
  9
$MIRRTEXT
 70
     1
  9
$LTSCALE
 40
1.0
  9
$ATTMODE
 70
     1
  9
$TEXTSIZE
 40
2.0
  9
$TRACEWID
 40
1.0
  9
$TEXTSTYLE
  7
Standard
  9
$CLAYER
  8
0
  9
$CELTYPE
  6
ByLayer
  9
$CECOLOR
 62
   256
  9
$CELTSCALE
 40
1.0
  9
$DISPSILH
 70
     0
  9
$DIMSCALE
 40
1.0
  9
$DIMASZ
 40
3.0
  9
$DIMEXO
 40
0.0
  9
$DIMDLI
 40
3.75
  9
$DIMRND
 40
0.0
  9
$DIMDLE
 40
0.0
  9
$DIMEXE
 40
1.0
  9
$DIMTP
 40
0.0
  9
$DIMTM
 40
0.0
  9
$DIMTXT
 40
2.0
  9
$DIMCEN
 40
2.5
  9
$DIMTSZ
 40
0.0
  9
$DIMTOL
 70
     0
  9
$DIMLIM
 70
     0
  9
$DIMTIH
 70
     1
  9
$DIMTOH
 70
     1
  9
$DIMSE1
 70
     0
  9
$DIMSE2
 70
     0
  9
$DIMTAD
 70
     1
  9
$DIMZIN
 70
     0
  9
$DIMBLK
  1

  9
$DIMASO
 70
     1
  9
$DIMSHO
 70
     1
  9
$DIMPOST
  1

  9
$DIMAPOST
  1

  9
$DIMALT
 70
     0
  9
$DIMALTD
 70
     3
  9
$DIMALTF
 40
0.0393700787
  9
$DIMLFAC
 40
1.0
  9
$DIMTOFL
 70
     1
  9
$DIMTVP
 40
0.0
  9
$DIMTIX
 70
     0
  9
$DIMSOXD
 70
     0
  9
$DIMSAH
 70
     0
  9
$DIMBLK1
  1

  9
$DIMBLK2
  1

  9
$DIMSTYLE
  2
ISO-25
  9
$DIMCLRD
 70
     0
  9
$DIMCLRE
 70
     0
  9
$DIMCLRT
 70
     0
  9
$DIMTFAC
 40
1.0
  9
$DIMGAP
 40
1.524
  9
$DIMJUST
 70
     0
  9
$DIMSD1
 70
     0
  9
$DIMSD2
 70
     0
  9
$DIMTOLJ
 70
     0
  9
$DIMTZIN
 70
     0
  9
$DIMALTZ
 70
     0
  9
$DIMALTTZ
 70
     0
  9
$DIMUPT
 70
     0
  9
$DIMDEC
 70
     2
  9
$DIMTDEC
 70
     3
  9
$DIMALTU
 70
     2
  9
$DIMALTTD
 70
     3
  9
$DIMTXSTY
  7
Standard
  9
$DIMAUNIT
 70
     0
  9
$DIMADEC
 70
     2
  9
$DIMALTRND
 40
0.0
  9
$DIMAZIN
 70
     0
  9
$DIMDSEP
 70
    44
  9
$DIMATFIT
 70
     3
  9
$DIMFRAC
 70
     0
  9
$DIMLDRBLK
  1

  9
$DIMLUNIT
 70
     2
  9
$DIMLWD
 70
    -2
  9
$DIMLWE
 70
    -2
  9
$DIMTMOVE
 70
     0
  9
$LUNITS
 70
     2
  9
$LUPREC
 70
     2
  9
$SKETCHINC
 40
1.0
  9
$FILLETRAD
 40
10.0
  9
$AUNITS
 70
     0
  9
$AUPREC
 70
     2
  9
$MENU
  1
.
  9
$ELEVATION
 40
0.0
  9
$PELEVATION
 40
0.0
  9
$THICKNESS
 40
0.0
  9
$LIMCHECK
 70
     0
  9
$CHAMFERA
 40
10.0
  9
$CHAMFERB
 40
10.0
  9
$CHAMFERC
 40
20.0
  9
$CHAMFERD
 40
0.0
  9
$SKPOLY
 70
     0
  9
$TDCREATE
 40
2456083.624751435
  9
$TDUCREATE
 40
2456083.541418102
  9
$TDUPDATE
 40
2456083.624752882
  9
$TDUUPDATE
 40
2456083.541419548
  9
$TDINDWG
 40
0.0000000116
  9
$TDUSRTIMER
 40
0.0000000116
  9
$USRTIMER
 70
     1
  9
$ANGBASE
 50
0.0
  9
$ANGDIR
 70
     0
  9
$PDMODE
 70
     0
  9
$PDSIZE
 40
-1.0
  9
$PLINEWID
 40
0.0
  9
$SPLFRAME
 70
     0
  9
$SPLINETYPE
 70
     6
  9
$SPLINESEGS
 70
     8
  9
$HANDSEED
  5
215
  9
$SURFTAB1
 70
     6
  9
$SURFTAB2
 70
     6
  9
$SURFTYPE
 70
     6
  9
$SURFU
 70
     6
  9
$SURFV
 70
     6
  9
$UCSBASE
  2

  9
$UCSNAME
  2

  9
$UCSORG
 10
0.0
 20
0.0
 30
0.0
  9
$UCSXDIR
 10
1.0
 20
0.0
 30
0.0
  9
$UCSYDIR
 10
0.0
 20
1.0
 30
0.0
  9
$UCSORTHOREF
  2

  9
$UCSORTHOVIEW
 70
     0
  9
$UCSORGTOP
 10
0.0
 20
0.0
 30
0.0
  9
$UCSORGBOTTOM
 10
0.0
 20
0.0
 30
0.0
  9
$UCSORGLEFT
 10
0.0
 20
0.0
 30
0.0
  9
$UCSORGRIGHT
 10
0.0
 20
0.0
 30
0.0
  9
$UCSORGFRONT
 10
0.0
 20
0.0
 30
0.0
  9
$UCSORGBACK
 10
0.0
 20
0.0
 30
0.0
  9
$PUCSBASE
  2

  9
$PUCSNAME
  2

  9
$PUCSORG
 10
0.0
 20
0.0
 30
0.0
  9
$PUCSXDIR
 10
1.0
 20
0.0
 30
0.0
  9
$PUCSYDIR
 10
0.0
 20
1.0
 30
0.0
  9
$PUCSORTHOREF
  2

  9
$PUCSORTHOVIEW
 70
     0
  9
$PUCSORGTOP
 10
0.0
 20
0.0
 30
0.0
  9
$PUCSORGBOTTOM
 10
0.0
 20
0.0
 30
0.0
  9
$PUCSORGLEFT
 10
0.0
 20
0.0
 30
0.0
  9
$PUCSORGRIGHT
 10
0.0
 20
0.0
 30
0.0
  9
$PUCSORGFRONT
 10
0.0
 20
0.0
 30
0.0
  9
$PUCSORGBACK
 10
0.0
 20
0.0
 30
0.0
  9
$USERI1
 70
     0
  9
$USERI2
 70
     0
  9
$USERI3
 70
     0
  9
$USERI4
 70
     0
  9
$USERI5
 70
     0
  9
$USERR1
 40
0.0
  9
$USERR2
 40
0.0
  9
$USERR3
 40
0.0
  9
$USERR4
 40
0.0
  9
$USERR5
 40
0.0
  9
$WORLDVIEW
 70
     1
  9
$SHADEDGE
 70
     3
  9
$SHADEDIF
 70
    70
  9
$TILEMODE
 70
     1
  9
$MAXACTVP
 70
    64
  9
$PINSBASE
 10
0.0
 20
0.0
 30
0.0
  9
$PLIMCHECK
 70
     0
  9
$PEXTMIN
 10
1.0000000000E+20
 20
1.0000000000E+20
 30
1.0000000000E+20
  9
$PEXTMAX
 10
-1.0000000000E+20
 20
-1.0000000000E+20
 30
-1.0000000000E+20
  9
$PLIMMIN
 10
0.0
 20
0.0
  9
$PLIMMAX
 10
420.0
 20
297.0
  9
$UNITMODE
 70
     0
  9
$VISRETAIN
 70
     1
  9
$PLINEGEN
 70
     0
  9
$PSLTSCALE
 70
     1
  9
$TREEDEPTH
 70
  3020
  9
$CMLSTYLE
  2
Standard
  9
$CMLJUST
 70
     0
  9
$CMLSCALE
 40
20.0
  9
$PROXYGRAPHICS
 70
     1
  9
$MEASUREMENT
 70
     1
  9
$CELWEIGHT
370
    -1
  9
$ENDCAPS
280
     0
  9
$JOINSTYLE
280
     0
  9
$LWDISPLAY
290
     1
  9
$INSUNITS
 70
     4
  9
$HYPERLINKBASE
  1

  9
$STYLESHEET
  1

  9
$XEDIT
290
     1
  9
$CEPSNTYPE
380
     0
  9
$PSTYLEMODE
290
     1
  9
$FINGERPRINTGUID
  2
{32CE8E11-7317-4C02-AC8B-68F10B58F88B}
  9
$VERSIONGUID
  2
{FAEB1C32-E019-11D5-929B-00C0DF256EC4}
  9
$EXTNAMES
290
     1
  9
$PSVPSCALE
 40
0.0
  9
$OLESTARTUP
290
     0
  0
ENDSEC
  0
SECTION
  2
CLASSES
  0
CLASS
  1
ACDBDICTIONARYWDFLT
  2
AcDbDictionaryWithDefault
  3
ObjectDBX Classes
 90
        0
280
     0
281
     0
  0
CLASS
  1
VISUALSTYLE
  2
AcDbVisualStyle
  3
ObjectDBX Classes
 90
     4095
280
     0
281
     0
  0
CLASS
  1
MATERIAL
  2
AcDbMaterial
  3
ObjectDBX Classes
 90
     1153
280
     0
281
     0
  0
CLASS
  1
ACDBPLACEHOLDER
  2
AcDbPlaceHolder
  3
ObjectDBX Classes
 90
        0
280
     0
281
     0
  0
CLASS
  1
LAYOUT
  2
AcDbLayout
  3
ObjectDBX Classes
 90
        0
280
     0
281
     0
  0
ENDSEC
  0
SECTION
  2
TABLES
  0
TABLE
  2
VPORT
  5
8
330
0
100
AcDbSymbolTable
 70
     1
  0
VPORT
  5
29
330
8
100
AcDbSymbolTableRecord
100
AcDbViewportTableRecord
  2
*Active
 70
     0
 10
0.0
 20
0.0
 11
1.0
 21
1.0
 12
148.5
 22
105.0
 13
0.0
 23
0.0
 14
10.0
 24
10.0
 15
10.0
 25
10.0
 16
0.0
 26
0.0
 36
1.0
 17
0.0
 27
0.0
 37
0.0
 40
210.0
 41
1.4142857143
 42
50.0
 43
0.0
 44
0.0
 50
0.0
 51
0.0
 71
     0
 72
  2000
 73
     1
 74
     3
 75
     0
 76
     0
 77
     0
 78
     0
281
     0
 65
     1
110
0.0
120
0.0
130
0.0
111
1.0
121
0.0
131
0.0
112
0.0
122
1.0
132
0.0
 79
     0
146
0.0
  0
ENDTAB
  0
TABLE
  2
LTYPE
  5
5
330
0
100
AcDbSymbolTable
 70
     6
  0
LTYPE
  5
14
330
5
100
AcDbSymbolTableRecord
100
AcDbLinetypeTableRecord
  2
ByBlock
 70
     0
  3

 72
    65
 73
     0
 40
0.0
  0
LTYPE
  5
15
330
5
100
AcDbSymbolTableRecord
100
AcDbLinetypeTableRecord
  2
ByLayer
 70
     0
  3

 72
    65
 73
     0
 40
0.0
  0
LTYPE
  5
16
330
5
100
AcDbSymbolTableRecord
100
AcDbLinetypeTableRecord
  2
Continuous
 70
     0
  3
Solid line
 72
    65
 73
     0
 40
0.0
  0
LTYPE
  5
3F
330
5
100
AcDbSymbolTableRecord
100
AcDbLinetypeTableRecord
  2
HIDDEN
 70
     0
  3
Hidden __ __ __ __ __ __ __ __ __ __ __ __ __ __
 72
    65
 73
     2
 40
1.905
 49
1.27
 74
     0
 49
-0.635
 74
     0
  0
LTYPE
  5
40
330
5
100
AcDbSymbolTableRecord
100
AcDbLinetypeTableRecord
  2
PHANTOM
 70
     0
  3
Phantom ______  __  __  ______  __  __  ______
 72
    65
 73
     6
 40
12.7
 49
6.35
 74
     0
 49
-1.27
 74
     0
 49
1.27
 74
     0
 49
-1.27
 74
     0
 49
1.27
 74
     0
 49
-1.27
 74
     0
  0
LTYPE
  5
41
330
5
100
AcDbSymbolTableRecord
100
AcDbLinetypeTableRecord
  2
CENTER
 70
     0
  3
Center ____ _ ____ _ ____ _ ____ _ ____ _ ____
 72
    65
 73
     4
 40
10.16
 49
6.35
 74
     0
 49
-1.27
 74
     0
 49
1.27
 74
     0
 49
-1.27
 74
     0
  0
LTYPE
  5
42
330
5
100
AcDbSymbolTableRecord
100
AcDbLinetypeTableRecord
  2
CENTERX2
 70
     0
  3
Center (2x) ________  __  ________  __  _____
 72
    65
 73
     4
 40
20.32
 49
12.7
 74
     0
 49
-2.54
 74
     0
 49
2.54
 74
     0
 49
-2.54
 74
     0
  0
LTYPE
  5
43
330
5
100
AcDbSymbolTableRecord
100
AcDbLinetypeTableRecord
  2
DOT2
 70
     0
  3
Dot (.5x) ........................................
 72
    65
 73
     2
 40
0.635
 49
0.0
 74
     0
 49
-0.635
 74
     0
  0
ENDTAB
  0
TABLE
  2
LAYER
  5
2
330
0
100
AcDbSymbolTable
 70
     5
  0
LAYER
  5
10
330
2
100
AcDbSymbolTableRecord
100
AcDbLayerTableRecord
  2
0
 70
     0
 62
     7
  6
Continuous
370
    -3
390
F
  0
LAYER
  5
44
330
2
100
AcDbSymbolTableRecord
100
AcDbLayerTableRecord
  2
FORMAT
 70
     0
 62
     7
  6
Continuous
370
    -3
390
F
  0
LAYER
  5
45
330
2
100
AcDbSymbolTableRecord
100
AcDbLayerTableRecord
  2
VERMASSUNG
 70
     0
 62
     7
  6
Continuous
370
    -3
390
F
  0
LAYER
  5
46
330
2
100
AcDbSymbolTableRecord
100
AcDbLayerTableRecord
  2
KOPF_DÜNN
 70
     0
 62
     7
  6
Continuous
370
    -3
390
F
  0
LAYER
  5
47
330
2
100
AcDbSymbolTableRecord
100
AcDbLayerTableRecord
  2
KOPF_DICK
 70
     0
 62
     7
  6
Continuous
370
    15
390
F
  0
ENDTAB
  0
TABLE
  2
STYLE
  5
3
330
0
100
AcDbSymbolTable
 70
     2
  0
STYLE
  5
11
330
3
100
AcDbSymbolTableRecord
100
AcDbTextStyleTableRecord
  2
Standard
 70
     0
 40
0.0
 41
1.0
 50
0.0
 71
     0
 42
2.0
  3
txt
  4

  0
STYLE
  5
48
330
3
100
AcDbSymbolTableRecord
100
AcDbTextStyleTableRecord
  2
SLDTEXTSTYLE0
 70
     0
 40
0.0
 41
0.7
 50
0.0
 71
     0
 42
0.2
  3
TXT
  4

  0
ENDTAB
  0
TABLE
  2
VIEW
  5
6
330
0
100
AcDbSymbolTable
 70
     0
  0
ENDTAB
  0
TABLE
  2
UCS
  5
7
330
0
100
AcDbSymbolTable
 70
     0
  0
ENDTAB
  0
TABLE
  2
APPID
  5
9
330
0
100
AcDbSymbolTable
 70
     1
  0
APPID
  5
12
330
9
100
AcDbSymbolTableRecord
100
AcDbRegAppTableRecord
  2
ACAD
 70
     0
  0
ENDTAB
  0
TABLE
  2
DIMSTYLE
  5
A
330
0
100
AcDbSymbolTable
 70
     4
100
AcDbDimStyleTable
  0
DIMSTYLE
105
27
330
A
100
AcDbSymbolTableRecord
100
AcDbDimStyleTableRecord
  2
ISO-25
 70
     0
 41
2.5
 42
0.625
 43
3.75
 44
1.25
 73
     0
 74
     0
 77
     1
 78
     8
140
2.5
141
2.5
143
0.0393700787
147
0.625
171
     3
172
     1
178
     0
271
     2
272
     2
274
     3
278
    44
283
     0
284
     8
340
11
  0
DIMSTYLE
105
19E
102
{ACAD_REACTORS
330
19D
330
1A8
330
1B2
330
1C6
330
1D2
102
}
330
A
100
AcDbSymbolTableRecord
100
AcDbDimStyleTableRecord
  2
SLDDIMSTYLE0
 70
     0
 41
3.0
 44
0.0
 45
0.000000001
 73
     0
 74
     0
 77
     1
 78
    12
 79
     3
140
2.0
147
0.5
173
     1
178
     0
271
     2
272
     3
276
     2
284
    12
340
48
  0
DIMSTYLE
105
1BD
102
{ACAD_REACTORS
330
1BC
102
}
330
A
100
AcDbSymbolTableRecord
100
AcDbDimStyleTableRecord
  2
SLDDIMSTYLE1
 70
     0
 41
3.0
 44
0.0
 73
     0
 74
     0
 77
     1
 78
    12
 79
     3
140
2.0
147
0.5
173
     1
178
     0
272
     3
276
     2
284
    12
340
48
  0
DIMSTYLE
105
1FA
102
{ACAD_REACTORS
330
1F9
102
}
330
A
100
AcDbSymbolTableRecord
100
AcDbDimStyleTableRecord
  2
SLDDIMSTYLE2
 70
     0
 41
3.0
 44
0.0
 45
0.000000001
 73
     0
 74
     0
 77
     1
 78
    12
 79
     3
140
2.0
147
0.5
172
     1
173
     1
178
     0
271
     2
272
     3
276
     2
284
    12
289
     0
340
48
  0
ENDTAB
  0
TABLE
  2
BLOCK_RECORD
  5
1
330
0
100
AcDbSymbolTable
 70
     9
  0
BLOCK_RECORD
  5
1F
330
1
100
AcDbSymbolTableRecord
100
AcDbBlockTableRecord
  2
*Model_Space
340
22
  0
BLOCK_RECORD
  5
1B
330
1
100
AcDbSymbolTableRecord
100
AcDbBlockTableRecord
  2
*Paper_Space
340
1E
  0
BLOCK_RECORD
  5
23
330
1
100
AcDbSymbolTableRecord
100
AcDbBlockTableRecord
  2
*Paper_Space0
340
26
  0
BLOCK_RECORD
  5
19F
330
1
100
AcDbSymbolTableRecord
100
AcDbBlockTableRecord
  2
_D
340
0
  0
BLOCK_RECORD
  5
1A9
330
1
100
AcDbSymbolTableRecord
100
AcDbBlockTableRecord
  2
_D_1
340
0
  0
BLOCK_RECORD
  5
1B3
330
1
100
AcDbSymbolTableRecord
100
AcDbBlockTableRecord
  2
_D_2
340
0
  0
BLOCK_RECORD
  5
1BE
330
1
100
AcDbSymbolTableRecord
100
AcDbBlockTableRecord
  2
_D_3
340
0
  0
BLOCK_RECORD
  5
1C7
330
1
100
AcDbSymbolTableRecord
100
AcDbBlockTableRecord
  2
_D_4
340
0
  0
BLOCK_RECORD
  5
1D3
330
1
100
AcDbSymbolTableRecord
100
AcDbBlockTableRecord
  2
_D_5
340
0
  0
BLOCK_RECORD
  5
1FB
330
1
100
AcDbSymbolTableRecord
100
AcDbBlockTableRecord
  2
_D_6
340
0
  0
BLOCK_RECORD
  5
208
330
1
100
AcDbSymbolTableRecord
100
AcDbBlockTableRecord
  2
SW_CENTERMARKSYMBOL_0
340
0
102
{BLKREFS
331
213
102
}
  0
ENDTAB
  0
ENDSEC
  0
SECTION
  2
BLOCKS
  0
BLOCK
  5
20
330
1F
100
AcDbEntity
  8
0
100
AcDbBlockBegin
  2
*Model_Space
 70
     0
 10
0.0
 20
0.0
 30
0.0
  3
*Model_Space
  1

  0
ENDBLK
  5
21
330
1F
100
AcDbEntity
  8
0
100
AcDbBlockEnd
  0
BLOCK
  5
1C
330
1B
100
AcDbEntity
 67
     1
  8
0
100
AcDbBlockBegin
  2
*Paper_Space
 70
     0
 10
0.0
 20
0.0
 30
0.0
  3
*Paper_Space
  1

  0
ENDBLK
  5
1D
330
1B
100
AcDbEntity
 67
     1
  8
0
100
AcDbBlockEnd
  0
BLOCK
  5
24
330
23
100
AcDbEntity
  8
0
100
AcDbBlockBegin
  2
*Paper_Space0
 70
     0
 10
0.0
 20
0.0
 30
0.0
  3
*Paper_Space0
  1

  0
ENDBLK
  5
25
330
23
100
AcDbEntity
  8
0
100
AcDbBlockEnd
  0
BLOCK
  5
1A0
330
19F
100
AcDbEntity
  8
0
100
AcDbBlockBegin
  2
_D
 70
     0
 10
0.0
 20
0.0
 30
0.0
  3
_D
  1

  0
SOLID
  5
1A2
330
19F
100
AcDbEntity
  8
VERMASSUNG
100
AcDbTrace
 10
157.1422542594
 20
88.7592019381
 30
0.0
 11
160.1422542594
 21
88.3092019381
 31
0.0
 12
160.1422542594
 22
89.2092019381
 32
0.0
 13
160.1422542594
 23
89.2092019381
 33
0.0
  0
SOLID
  5
1A3
330
19F
100
AcDbEntity
  8
VERMASSUNG
100
AcDbTrace
 10
247.1422542594
 20
88.7592019381
 30
0.0
 11
244.1422542594
 21
89.2092019381
 31
0.0
 12
244.1422542594
 22
88.3092019381
 32
0.0
 13
244.1422542594
 23
88.3092019381
 33
0.0
  0
LINE
  5
1A4
330
19F
100
AcDbEntity
  8
VERMASSUNG
100
AcDbLine
 10
157.1422542594
 20
99.0592019381
 30
0.0
 11
157.1422542594
 21
87.7592019381
 31
0.0
  0
LINE
  5
1A5
330
19F
100
AcDbEntity
  8
VERMASSUNG
100
AcDbLine
 10
247.1422542594
 20
101.7592019381
 30
0.0
 11
247.1422542594
 21
87.7592019381
 31
0.0
  0
LINE
  5
1A6
330
19F
100
AcDbEntity
  8
VERMASSUNG
100
AcDbLine
 10
157.1422542594
 20
88.7592019381
 30
0.0
 11
247.1422542594
 21
88.7592019381
 31
0.0
  0
MTEXT
  5
1A7
330
19F
100
AcDbEntity
  8
VERMASSUNG
100
AcDbMText
 10
199.8422542084
 20
91.3373373012
 30
0.1
 40
2.0
 41
0.0
 71
     1
 72
     1
  1
90
  7
SLDTEXTSTYLE0
 73
     1
 44
1.0
  0
ENDBLK
  5
1A1
330
19F
100
AcDbEntity
  8
0
100
AcDbBlockEnd
  0
BLOCK
  5
1AA
330
1A9
100
AcDbEntity
  8
0
100
AcDbBlockBegin
  2
_D_1
 70
     0
 10
0.0
 20
0.0
 30
0.0
  3
_D_1
  1

  0
SOLID
  5
1AC
330
1A9
100
AcDbEntity
  8
VERMASSUNG
100
AcDbTrace
 10
247.1422542594
 20
76.7592019381
 30
0.0
 11
244.1422542594
 21
77.2092019381
 31
0.0
 12
244.1422542594
 22
76.3092019381
 32
0.0
 13
244.1422542594
 23
76.3092019381
 33
0.0
  0
SOLID
  5
1AD
330
1A9
100
AcDbEntity
  8
VERMASSUNG
100
AcDbTrace
 10
133.1422542594
 20
76.7592019381
 30
0.0
 11
136.1422542594
 21
76.3092019381
 31
0.0
 12
136.1422542594
 22
77.2092019381
 32
0.0
 13
136.1422542594
 23
77.2092019381
 33
0.0
  0
LINE
  5
1AE
330
1A9
100
AcDbEntity
  8
VERMASSUNG
100
AcDbLine
 10
247.1422542594
 20
101.7592019381
 30
0.0
 11
247.1422542594
 21
75.7592019381
 31
0.0
  0
LINE
  5
1AF
330
1A9
100
AcDbEntity
  8
VERMASSUNG
100
AcDbLine
 10
133.1422542594
 20
106.127696956
 30
0.0
 11
133.1422542594
 21
75.7592019381
 31
0.0
  0
LINE
  5
1B0
330
1A9
100
AcDbEntity
  8
VERMASSUNG
100
AcDbLine
 10
247.1422542594
 20
76.7592019381
 30
0.0
 11
133.1422542594
 21
76.7592019381
 31
0.0
  0
MTEXT
  5
1B1
330
1A9
100
AcDbEntity
  8
VERMASSUNG
100
AcDbMText
 10
187.4422541894
 20
79.3373373012
 30
0.1
 40
2.0
 41
0.0
 71
     1
 72
     1
  1
114
  7
SLDTEXTSTYLE0
 73
     1
 44
1.0
  0
ENDBLK
  5
1AB
330
1A9
100
AcDbEntity
  8
0
100
AcDbBlockEnd
  0
BLOCK
  5
1B4
330
1B3
100
AcDbEntity
  8
0
100
AcDbBlockBegin
  2
_D_2
 70
     0
 10
0.0
 20
0.0
 30
0.0
  3
_D_2
  1

  0
SOLID
  5
1B6
330
1B3
100
AcDbEntity
  8
VERMASSUNG
100
AcDbTrace
 10
262.7861911573
 20
101.7592019381
 30
0.0
 11
263.2361911573
 21
104.7592019381
 31
0.0
 12
262.3361911573
 22
104.7592019381
 32
0.0
 13
262.3361911573
 23
104.7592019381
 33
0.0
  0
SOLID
  5
1B7
330
1B3
100
AcDbEntity
  8
VERMASSUNG
100
AcDbTrace
 10
262.7861911573
 20
118.7592019381
 30
0.0
 11
262.3361911573
 21
115.7592019381
 31
0.0
 12
263.2361911573
 22
115.7592019381
 32
0.0
 13
263.2361911573
 23
115.7592019381
 33
0.0
  0
LINE
  5
1B8
330
1B3
100
AcDbEntity
  8
VERMASSUNG
100
AcDbLine
 10
247.1422542594
 20
101.7592019381
 30
0.0
 11
263.7861911573
 21
101.7592019381
 31
0.0
  0
LINE
  5
1B9
330
1B3
100
AcDbEntity
  8
VERMASSUNG
100
AcDbLine
 10
247.1422542594
 20
118.7592019381
 30
0.0
 11
263.7861911573
 21
118.7592019381
 31
0.0
  0
LINE
  5
1BA
330
1B3
100
AcDbEntity
  8
VERMASSUNG
100
AcDbLine
 10
262.7861911573
 20
101.7592019381
 30
0.0
 11
262.7861911573
 21
118.7592019381
 31
0.0
  0
MTEXT
  5
1BB
330
1B3
100
AcDbEntity
  8
VERMASSUNG
100
AcDbMText
 10
260.2080557942
 20
108.1592017801
 30
0.1
 40
2.0
 41
0.0
 71
     1
 72
     1
  1
17
  7
SLDTEXTSTYLE0
 11
6.123233995736766E-17
 21
1.0
 31
0.0
 73
     1
 44
1.0
  0
ENDBLK
  5
1B5
330
1B3
100
AcDbEntity
  8
0
100
AcDbBlockEnd
  0
BLOCK
  5
1BF
330
1BE
100
AcDbEntity
  8
0
100
AcDbBlockBegin
  2
_D_3
 70
     0
 10
0.0
 20
0.0
 30
0.0
  3
_D_3
  1

  0
ARC
  5
1C1
330
1BE
100
AcDbEntity
  8
VERMASSUNG
100
AcDbCircle
 10
247.1787776599
 20
101.7592019381
 30
0.0
 40
10.37173758709332
100
AcDbArc
 50
0.0
 51
95.0121473722
  0
SOLID
  5
1C2
330
1BE
100
AcDbEntity
  8
VERMASSUNG
100
AcDbTrace
 10
257.550515247
 20
101.7592019381
 30
0.0
 11
257.5751121059
 21
104.7926644802
 31
0.0
 12
256.6840161437
 22
104.6663791436
 32
0.0
 13
256.6840161437
 23
104.6663791436
 33
0.0
  0
SOLID
  5
1C3
330
1BE
100
AcDbEntity
  8
VERMASSUNG
100
AcDbTrace
 10
246.2726306257
 20
112.0912800508
 30
0.0
 11
249.2443947403
 21
111.4820854618
 31
0.0
 12
249.2923448543
 22
112.3808072133
 32
0.0
 13
249.2923448543
 23
112.3808072133
 33
0.0
  0
LINE
  5
1C4
330
1BE
100
AcDbEntity
  8
VERMASSUNG
100
AcDbLine
 10
256.87000955
 20
101.7592019381
 30
0.0
 11
258.550515247
 21
101.7592019381
 31
0.0
  0
MTEXT
  5
1C5
330
1BE
100
AcDbEntity
  8
VERMASSUNG
100
AcDbMText
 10
253.7882607625
 20
113.2667622217
 30
0.1
 40
2.0
 41
0.0
 71
     1
 72
     1
  1
95°
  7
SLDTEXTSTYLE0
 11
0.7373489491615044
 21
-0.6755120481312122
 31
0.0
 73
     1
 44
1.0
  0
ENDBLK
  5
1C0
330
1BE
100
AcDbEntity
  8
0
100
AcDbBlockEnd
  0
BLOCK
  5
1C8
330
1C7
100
AcDbEntity
  8
0
100
AcDbBlockBegin
  2
_D_4
 70
     0
 10
0.0
 20
0.0
 30
0.0
  3
_D_4
  1

  0
SOLID
  5
1CA
330
1C7
100
AcDbEntity
  8
VERMASSUNG
100
AcDbTrace
 10
125.2185365495
 20
138.7592019381
 30
0.0
 11
124.7685365495
 21
135.7592019381
 31
0.0
 12
125.6685365495
 22
135.7592019381
 32
0.0
 13
125.6685365495
 23
135.7592019381
 33
0.0
  0
SOLID
  5
1CB
330
1C7
100
AcDbEntity
  8
VERMASSUNG
100
AcDbTrace
 10
125.2185365495
 20
98.7592019381
 30
0.0
 11
125.6685365495
 21
101.7592019381
 31
0.0
 12
124.7685365495
 22
101.7592019381
 32
0.0
 13
124.7685365495
 23
101.7592019381
 33
0.0
  0
LINE
  5
1CC
330
1C7
100
AcDbEntity
  8
VERMASSUNG
100
AcDbLine
 10
157.4422542594
 20
138.7592019381
 30
0.0
 11
124.2185365495
 21
138.7592019381
 31
0.0
  0
LINE
  5
1CD
330
1C7
100
AcDbEntity
  8
VERMASSUNG
100
AcDbLine
 10
157.4422542594
 20
98.7592019381
 30
0.0
 11
124.2185365495
 21
98.7592019381
 31
0.0
  0
LINE
  5
1CE
330
1C7
100
AcDbEntity
  8
VERMASSUNG
100
AcDbLine
 10
125.2185365495
 20
138.7592019381
 30
0.0
 11
125.2185365495
 21
98.7592019381
 31
0.0
  0
MTEXT
  5
1CF
330
1C7
100
AcDbEntity
  8
VERMASSUNG
100
AcDbMText
 10
122.4404010604
 20
112.2542019987
 30
0.1
 40
2.0
 41
0.0
 71
     1
 72
     1
  1
PSC
  7
SLDTEXTSTYLE0
 11
-7.044195017643634E-15
 21
1.0
 31
0.0
 73
     1
 44
1.0
  0
MTEXT
  5
1D0
330
1C7
100
AcDbEntity
  8
VERMASSUNG
100
AcDbMText
 10
122.6404010699
 20
116.8542021008
 30
0.1
 40
2.0
 41
0.0
 71
     1
 72
     1
  1
%%c
  7
SLDTEXTSTYLE0
 11
-7.044195017643634E-15
 21
1.0
 31
0.0
 73
     1
 44
1.0
  0
MTEXT
  5
1D1
330
1C7
100
AcDbEntity
  8
VERMASSUNG
100
AcDbMText
 10
122.4404010604
 20
120.4642025808
 30
0.1
 40
2.0
 41
0.0
 71
     1
 72
     1
  1
40
  7
SLDTEXTSTYLE0
 11
-7.044195017643634E-15
 21
1.0
 31
0.0
 73
     1
 44
1.0
  0
ENDBLK
  5
1C9
330
1C7
100
AcDbEntity
  8
0
100
AcDbBlockEnd
  0
BLOCK
  5
1D4
330
1D3
100
AcDbEntity
  8
0
100
AcDbBlockBegin
  2
_D_5
 70
     0
 10
0.0
 20
0.0
 30
0.0
  3
_D_5
  1

  0
SOLID
  5
1D6
330
1D3
100
AcDbEntity
  8
VERMASSUNG
100
AcDbTrace
 10
190.1422542594
 20
131.2592019381
 30
0.0
 11
189.6922542594
 21
128.2592019381
 31
0.0
 12
190.5922542594
 22
128.2592019381
 32
0.0
 13
190.5922542594
 23
128.2592019381
 33
0.0
  0
SOLID
  5
1D7
330
1D3
100
AcDbEntity
  8
VERMASSUNG
100
AcDbTrace
 10
190.1422542594
 20
106.2592019381
 30
0.0
 11
190.5922542594
 21
109.2592019381
 31
0.0
 12
189.6922542594
 22
109.2592019381
 32
0.0
 13
189.6922542594
 23
109.2592019381
 33
0.0
  0
LINE
  5
1D8
330
1D3
100
AcDbEntity
  8
VERMASSUNG
100
AcDbLine
 10
190.1422542594
 20
131.2592019381
 30
0.0
 11
190.1422542594
 21
106.2592019381
 31
0.0
  0
MTEXT
  5
1D9
330
1D3
100
AcDbEntity
  8
VERMASSUNG
100
AcDbMText
 10
187.5641187799
 20
107.9791331456
 30
0.1
 40
2.0
 41
0.0
 71
     1
 72
     1
  1
%%c
  7
SLDTEXTSTYLE0
 11
-7.044195017643634E-15
 21
1.0
 31
0.0
 73
     1
 44
1.0
  0
MTEXT
  5
1DA
330
1D3
100
AcDbEntity
  8
VERMASSUNG
100
AcDbMText
 10
187.3641187704
 20
111.5891331599
 30
0.1
 40
2.0
 41
0.0
 71
     1
 72
     1
  1
25
  7
SLDTEXTSTYLE0
 11
-7.044195017643634E-15
 21
1.0
 31
0.0
 73
     1
 44
1.0
  0
ENDBLK
  5
1D5
330
1D3
100
AcDbEntity
  8
0
100
AcDbBlockEnd
  0
BLOCK
  5
1FC
330
1FB
100
AcDbEntity
  8
0
100
AcDbBlockBegin
  2
_D_6
 70
     0
 10
0.0
 20
0.0
 30
0.0
  3
_D_6
  1

  0
SOLID
  5
1FE
330
1FB
100
AcDbEntity
  8
VERMASSUNG
100
AcDbTrace
 10
84.1271457511
 20
129.1237511564
 30
0.0
 11
86.5666641462
 21
130.9268734484
 31
0.0
 12
85.9302680432
 22
131.5632695515
 32
0.0
 13
85.9302680432
 23
131.5632695515
 33
0.0
  0
SOLID
  5
1FF
330
1FB
100
AcDbEntity
  8
VERMASSUNG
100
AcDbTrace
 10
61.4997287532
 20
106.4963341584
 30
0.0
 11
59.0602103581
 21
104.6932118664
 31
0.0
 12
59.6966064612
 22
104.0568157633
 32
0.0
 13
59.6966064612
 23
104.0568157633
 33
0.0
  0
LINE
  5
200
330
1FB
100
AcDbEntity
  8
VERMASSUNG
100
AcDbLine
 10
84.1271457511
 20
129.1237511564
 30
0.0
 11
83.42003897
 21
129.8308579376
 31
0.0
  0
LINE
  5
201
330
1FB
100
AcDbEntity
  8
VERMASSUNG
100
AcDbLine
 10
61.4997287532
 20
106.4963341584
 30
0.0
 11
60.792621972
 21
107.2034409396
 31
0.0
  0
LINE
  5
202
330
1FB
100
AcDbEntity
  8
VERMASSUNG
100
AcDbLine
 10
84.1271457511
 20
129.1237511564
 30
0.0
 11
88.3697864383
 21
133.3663918435
 31
0.0
  0
LINE
  5
203
330
1FB
100
AcDbEntity
  8
VERMASSUNG
100
AcDbLine
 10
84.1271457511
 20
129.1237511564
 30
0.0
 11
61.4997287532
 21
106.4963341584
 31
0.0
  0
LINE
  5
204
330
1FB
100
AcDbEntity
  8
VERMASSUNG
100
AcDbLine
 10
61.4997287532
 20
106.4963341584
 30
0.0
 11
47.97252561
 21
92.9691310153
 31
0.0
  0
MTEXT
  5
205
330
1FB
100
AcDbEntity
  8
VERMASSUNG
100
AcDbMText
 10
46.1495085296
 20
94.7921480957
 30
0.1
 40
2.0
 41
0.0
 71
     1
 72
     1
  1
%%c
  7
SLDTEXTSTYLE0
 11
0.7071067811865464
 21
0.7071067811865488
 31
0.0
 73
     1
 44
1.0
  0
MTEXT
  5
206
330
1FB
100
AcDbEntity
  8
VERMASSUNG
100
AcDbMText
 10
48.5607426569
 20
97.4862249488
 30
0.1
 40
2.0
 41
0.0
 71
     1
 72
     1
  1
32
  7
SLDTEXTSTYLE0
 11
0.7071067811865464
 21
0.7071067811865488
 31
0.0
 73
     1
 44
1.0
  0
MTEXT
  5
207
330
1FB
100
AcDbEntity
  8
VERMASSUNG
100
AcDbMText
 10
52.6531235544
 20
101.5786058464
 30
0.1
 40
2.0
 41
0.0
 71
     1
 72
     1
  1
min.
  7
SLDTEXTSTYLE0
 11
0.7071067811865464
 21
0.7071067811865488
 31
0.0
 73
     1
 44
1.0
  0
ENDBLK
  5
1FD
330
1FB
100
AcDbEntity
  8
0
100
AcDbBlockEnd
  0
BLOCK
  5
209
330
208
100
AcDbEntity
  8
0
100
AcDbBlockBegin
  2
SW_CENTERMARKSYMBOL_0
 70
     0
 10
0.0
 20
0.0
 30
0.0
  3
SW_CENTERMARKSYMBOL_0
  1

  0
LINE
  5
20B
330
208
100
AcDbEntity
  8
VERMASSUNG
 62
     0
100
AcDbLine
 10
0.0
 20
0.0
 30
0.0
 11
0.0
 21
2.5
 31
0.0
  0
LINE
  5
20C
330
208
100
AcDbEntity
  8
VERMASSUNG
 62
     0
100
AcDbLine
 10
0.0
 20
0.0
 30
0.0
 11
-2.5
 21
0.0
 31
0.0
  0
LINE
  5
20D
330
208
100
AcDbEntity
  8
VERMASSUNG
 62
     0
100
AcDbLine
 10
0.0
 20
0.0
 30
0.0
 11
0.0
 21
-2.5
 31
0.0
  0
LINE
  5
20E
330
208
100
AcDbEntity
  8
VERMASSUNG
 62
     0
100
AcDbLine
 10
0.0
 20
0.0
 30
0.0
 11
2.5
 21
0.0
 31
0.0
  0
LINE
  5
20F
330
208
100
AcDbEntity
  8
VERMASSUNG
 62
     0
100
AcDbLine
 10
0.0
 20
5.0
 30
0.0
 11
0.0
 21
22.5
 31
0.0
  0
LINE
  5
210
330
208
100
AcDbEntity
  8
VERMASSUNG
 62
     0
100
AcDbLine
 10
-5.0
 20
0.0
 30
0.0
 11
-22.5
 21
0.0
 31
0.0
  0
LINE
  5
211
330
208
100
AcDbEntity
  8
VERMASSUNG
 62
     0
100
AcDbLine
 10
0.0
 20
-5.0
 30
0.0
 11
0.0
 21
-22.5
 31
0.0
  0
LINE
  5
212
330
208
100
AcDbEntity
  8
VERMASSUNG
 62
     0
100
AcDbLine
 10
5.0
 20
0.0
 30
0.0
 11
22.5
 21
0.0
 31
0.0
  0
ENDBLK
  5
20A
330
208
100
AcDbEntity
  8
0
100
AcDbBlockEnd
  0
ENDSEC
  0
SECTION
  2
ENTITIES
  0
MTEXT
  5
49
330
1F
100
AcDbEntity
  8
KOPF_DÜNN
100
AcDbMText
 10
13.8892156294
 20
23.8442973028
 30
0.0
 40
3.0
 41
0.0
 71
     1
 72
     1
  1
PS4.BCC.LLA.090
  7
SLDTEXTSTYLE0
 73
     1
 44
1.0
  0
MTEXT
  5
4A
330
1F
100
AcDbEntity
  8
VERMASSUNG
100
AcDbMText
 10
13.9329988022
 20
28.8834360957
 30
0.0
 40
3.0
 41
0.0
 71
     1
 72
     1
  1
Bohrstange links_Boring bar left
  7
SLDTEXTSTYLE0
 73
     1
 44
1.0
  0
MTEXT
  5
4B
330
1F
100
AcDbEntity
  8
VERMASSUNG
100
AcDbMText
 10
98.8601118557
 20
13.8365368179
 30
0.0
 40
2.0
 41
0.0
 71
     1
 72
     1
  1
Datum: 04.06.2012
  7
SLDTEXTSTYLE0
 73
     1
 44
1.0
  0
MTEXT
  5
4C
330
1F
100
AcDbEntity
  8
VERMASSUNG
100
AcDbMText
 10
13.933048693
 20
18.0482802738
 30
0.0
 40
2.0
 41
0.0
 71
     1
 72
     1
  1
PSC ø40 / Wp.: CC..12 04..
  7
SLDTEXTSTYLE0
 73
     1
 44
1.0
  0
MTEXT
  5
4D
330
1F
100
AcDbEntity
  8
VERMASSUNG
100
AcDbMText
 10
13.9808475933
 20
13.9090973692
 30
0.0
 40
2.0
 41
0.0
 71
     1
 72
     1
  1
Gewicht: 453g
  7
SLDTEXTSTYLE0
 73
     1
 44
1.0
  0
ARC
  5
4E
330
1F
100
AcDbEntity
  8
0
  6
Continuous
 62
     7
370
    15
100
AcDbCircle
 10
176.5422542594
 20
99.3592019381
 30
0.0
 40
0.6000000000000227
100
AcDbArc
 50
270.0
 51
0.0
  0
ARC
  5
4F
330
1F
100
AcDbEntity
  8
0
  6
Continuous
 62
     7
370
    15
100
AcDbCircle
 10
176.5422542594
 20
138.1592019381
 30
0.0
 40
0.6000000000000227
100
AcDbArc
 50
0.0
 51
90.0
  0
ARC
  5
50
330
1F
100
AcDbEntity
  8
0
  6
Continuous
 62
     7
370
    15
100
AcDbCircle
 10
157.4422542594
 20
99.0592019381
 30
0.0
 40
0.3000000000000398
100
AcDbArc
 50
180.0
 51
270.0
  0
ARC
  5
51
330
1F
100
AcDbEntity
  8
0
  6
Continuous
 62
     7
370
    15
100
AcDbCircle
 10
157.4422542594
 20
138.4592019381
 30
0.0
 40
0.3000000000000398
100
AcDbArc
 50
90.0
 51
180.0
  0
LINE
  5
52
330
1F
100
AcDbEntity
  8
0
  6
Continuous
 62
     7
370
    15
100
AcDbLine
 10
157.4422542737
 20
98.7592023851
 30
0.0
 11
176.5422548316
 21
98.7592023851
 31
0.0
  0
LINE
  5
53
330
1F
100
AcDbEntity
  8
0
  6
Continuous
 62
     7
370
    15
100
AcDbLine
 10
176.5422548316
 20
138.759201491
 30
0.0
 11
157.4422542737
 21
138.759201491
 31
0.0
  0
LWPOLYLINE
  5
54
330
1F
100
AcDbEntity
  8
0
  6
Continuous
 62
     7
370
    15
100
AcDbPolyline
 90
        3
 70
   128
 43
0.0
 10
156.9422542645
 20
104.6693819629
 10
157.0677091997
 20
104.6010796966
 10
157.1422542594
 20
104.5483416932
  0
LWPOLYLINE
  5
55
330
1F
100
AcDbEntity
  8
0
  6
Continuous
 62
     7
370
    15
100
AcDbPolyline
 90
        3
 70
   128
 43
0.0
 10
157.1422542594
 20
132.970062183
 10
157.0677091997
 20
132.9173241796
 10
156.9422542645
 20
132.8490219133
  0
ARC
  5
56
330
1F
100
AcDbEntity
  8
0
  6
Continuous
 62
     7
370
    15
100
AcDbCircle
 10
179.1422542594
 20
104.2592019381
 30
0.0
 40
2.0
100
AcDbArc
 50
90.0
 51
180.0
  0
ARC
  5
57
330
1F
100
AcDbEntity
  8
0
  6
Continuous
 62
     7
370
    15
100
AcDbCircle
 10
179.1422542594
 20
133.2592019381
 30
0.0
 40
2.0
100
AcDbArc
 50
180.0
 51
270.0
  0
LINE
  5
58
330
1F
100
AcDbEntity
  8
0
  6
Continuous
 62
     7
370
    15
100
AcDbLine
 10
220.728042271
 20
131.2592021243
 30
0.0
 11
179.1422541402
 21
131.2592021243
 31
0.0
  0
LINE
  5
59
330
1F
100
AcDbEntity
  8
0
  6
Continuous
 62
     7
370
    15
100
AcDbLine
 10
179.1422541402
 20
106.2592017518
 30
0.0
 11
220.728042271
 21
106.2592017518
 31
0.0
  0
ARC
  5
5A
330
1F
100
AcDbEntity
  8
0
  6
Continuous
 62
     7
370
    15
100
AcDbCircle
 10
220.7280406971
 20
132.2592019381
 30
0.0
 40
1.000000000000008
100
AcDbArc
 50
270.0
 51
315.0
  0
ARC
  5
5B
330
1F
100
AcDbEntity
  8
0
  6
Continuous
 62
     7
370
    15
100
AcDbCircle
 10
220.7280406971
 20
105.2592019381
 30
0.0
 40
0.9999999999999875
100
AcDbArc
 50
50.5675581036
 51
64.6825126226
  0
LINE
  5
5C
330
1F
100
AcDbEntity
  8
0
  6
Continuous
 62
     7
370
    15
100
AcDbLine
 10
234.3209783696
 20
131.7592022063
 30
0.0
 11
221.642250862
 21
131.7592022063
 31
0.0
  0
LINE
  5
5D
330
1F
100
AcDbEntity
  8
0
  6
Continuous
 62
     7
370
    15
100
AcDbLine
 10
221.642250862
 20
131.7592022063
 30
0.0
 11
221.4351470731
 21
131.5520946922
 31
0.0
  0
LINE
  5
5E
330
1F
100
AcDbEntity
  8
0
  6
Continuous
 62
     7
370
    15
100
AcDbLine
 10
241.5821875595
 20
108.8947217034
 30
0.0
 11
241.5821875595
 21
108.7830775471
 31
0.0
  0
LINE
  5
5F
330
1F
100
AcDbEntity
  8
0
  6
Continuous
 62
     7
370
    15
100
AcDbLine
 10
238.7439335845
 20
108.6716960238
 30
0.0
 11
238.7439335845
 21
108.7833047898
 31
0.0
  0
LINE
  5
60
330
1F
100
AcDbEntity
  8
0
  6
Continuous
 62
     7
370
    15
100
AcDbLine
 10
243.6615253948
 20
108.7578051777
 30
0.0
 11
243.6615253948
 21
108.7717563899
 31
0.0
  0
LINE
  5
61
330
1F
100
AcDbEntity
  8
0
  6
Continuous
 62
     7
370
    15
100
AcDbLine
 10
236.66152611
 20
108.7717563899
 30
0.0
 11
236.66152611
 21
108.7578051777
 31
0.0
  0
LINE
  5
62
330
1F
100
AcDbEntity
  8
0
  6
Continuous
 62
     7
370
    15
100
AcDbLine
 10
177.1422538124
 20
138.1592025103
 30
0.0
 11
177.1422538124
 21
99.3592013659
 31
0.0
  0
LINE
  5
63
330
1F
100
AcDbEntity
  8
0
  6
Continuous
 62
     7
370
    15
100
AcDbLine
 10
157.1422542594
 20
99.0592018755
 30
0.0
 11
157.1422542594
 21
138.4592020007
 31
0.0
  0
SPLINE
  5
64
330
1F
100
AcDbEntity
  8
0
  6
Continuous
 62
     7
370
    15
100
AcDbSpline
210
0.0
220
0.0
230
1.0
 70
     8
 71
     3
 72
    12
 73
     8
 74
     0
 42
0.00000001
 43
0.00000001
 12
1.0
 22
0.0
 32
0.0
 13
1.0
 23
0.0
 33
0.0
 40
0.0
 40
0.0
 40
0.0
 40
0.0
 40
0.2499999999999966
 40
0.2499999999999966
 40
0.4999999999999931
 40
0.4999999999999931
 40
1.0
 40
1.0
 40
1.0
 40
1.0
 10
164.0741562614406
 20
124.5884149337354
 30
0.0
 10
164.036644375396
 20
124.5884149337354
 30
0.0
 10
164.0013570276912
 20
124.6032197480222
 30
0.0
 10
163.9424271794528
 20
124.6468116211481
 30
0.0
 10
163.9189014529837
 20
124.674325047234
 30
0.0
 10
163.8586426652157
 20
124.7634567793476
 30
0.0
 10
163.8330479029263
 20
124.8298426299654
 30
0.0
 10
163.8143486403053
 20
124.8974470651428
 30
0.0
  0
LINE
  5
65
330
1F
100
AcDbEntity
  8
0
  6
Continuous
 62
     7
370
    15
100
AcDbLine
 10
166.2103521787
 20
124.5884151252
 30
0.0
 11
164.0741561689
 21
124.5884151252
 31
0.0
  0
SPLINE
  5
66
330
1F
100
AcDbEntity
  8
0
  6
Continuous
 62
     7
370
    15
100
AcDbSpline
210
0.0
220
0.0
230
1.0
 70
     8
 71
     3
 72
    12
 73
     8
 74
     0
 42
0.00000001
 43
0.00000001
 12
1.0
 22
0.0
 32
0.0
 13
1.0
 23
0.0
 33
0.0
 40
0.0
 40
0.0
 40
0.0
 40
0.0
 40
0.5
 40
0.5
 40
0.75
 40
0.75
 40
1.0
 40
1.0
 40
1.0
 40
1.0
 10
166.4701598785775
 20
124.8974470651428
 30
0.0
 10
166.4514666454471
 20
124.8298644287024
 30
0.0
 10
166.4258113480353
 20
124.763381859225
 30
0.0
 10
166.3656507253488
 20
124.6743867763275
 30
0.0
 10
166.3415784135945
 20
124.6463848793284
 30
0.0
 10
166.283196893244
 20
124.6033084786632
 30
0.0
 10
166.247728065591
 20
124.5884149337354
 30
0.0
 10
166.2103522574422
 20
124.5884149337354
 30
0.0
  0
ELLIPSE
  5
67
330
1F
100
AcDbEntity
  8
0
  6
Continuous
 62
     7
370
    15
100
AcDbEllipse
 10
156.193325087
 20
118.7592019381
 30
0.0
 11
9.367417879781724
 21
19.74174915274994
 31
0.0
210
0.0
220
0.0
230
1.0
 40
0.3419987131
 41
5.185211263708394
 42
6.132113578252552
  0
SPLINE
  5
68
330
1F
100
AcDbEntity
  8
0
  6
Continuous
 62
     7
370
    15
100
AcDbSpline
210
0.0
220
0.0
230
1.0
 70
     8
 71
     3
 72
    12
 73
     8
 74
     0
 42
0.00000001
 43
0.00000001
 12
1.0
 22
0.0
 32
0.0
 13
1.0
 23
0.0
 33
0.0
 40
0.0
 40
0.0
 40
0.0
 40
0.0
 40
0.2500000000000016
 40
0.2500000000000016
 40
0.5000000000000032
 40
0.5000000000000032
 40
1.0
 40
1.0
 40
1.0
 40
1.0
 10
166.2103522574422
 20
137.8908583183172
 30
0.0
 10
166.2478641434869
 20
137.8908583183172
 30
0.0
 10
166.2831514911916
 20
137.8863547740547
 30
0.0
 10
166.34208133943
 20
137.8729815746014
 30
0.0
 10
166.365607065899
 20
137.8644966720303
 30
0.0
 10
166.4258658536672
 20
137.8367488681957
 30
0.0
 10
166.4514606159564
 20
137.8157590044553
 30
0.0
 10
166.4701598785775
 20
137.7939582212658
 30
0.0
  0
LINE
  5
69
330
1F
100
AcDbEntity
  8
0
  6
Continuous
 62
     7
370
    15
100
AcDbLine
 10
164.0741561689
 20
137.8908586742
 30
0.0
 11
166.2103521787
 21
137.8908586742
 31
0.0
  0
SPLINE
  5
6A
330
1F
100
AcDbEntity
  8
0
  6
Continuous
 62
     7
370
    15
100
AcDbSpline
210
0.0
220
0.0
230
1.0
 70
     8
 71
     3
 72
    12
 73
     8
 74
     0
 42
0.00000001
 43
0.00000001
 12
1.0
 22
0.0
 32
0.0
 13
1.0
 23
0.0
 33
0.0
 40
0.0
 40
0.0
 40
0.0
 40
0.0
 40
0.4999999999999977
 40
0.4999999999999977
 40
0.7499999999999988
 40
0.7499999999999988
 40
1.0
 40
1.0
 40
1.0
 40
1.0
 10
163.8143486403053
 20
137.7939582212658
 30
0.0
 10
163.8330418734357
 20
137.8157519748937
 30
0.0
 10
163.8586971708475
 20
137.8367721366034
 30
0.0
 10
163.918857793534
 20
137.8644774825671
 30
0.0
 10
163.9429301052883
 20
137.8731126987605
 30
0.0
 10
164.0013116256389
 20
137.886327343987
 30
0.0
 10
164.0367804532919
 20
137.8908583183173
 30
0.0
 10
164.0741562614406
 20
137.8908583183173
 30
0.0
  0
ELLIPSE
  5
6B
330
1F
100
AcDbEntity
  8
0
  6
Continuous
 62
     7
370
    15
100
AcDbEllipse
 10
174.0911834319
 20
118.7592019381
 30
0.0
 11
-9.367417879781584
 21
19.74174915274997
 31
0.0
210
0.0
220
0.0
230
1.0
 40
0.3419987131
 41
0.1510717289270805
 42
1.097974043471212
  0
SPLINE
  5
6C
330
1F
100
AcDbEntity
  8
0
  6
Continuous
 62
     7
370
    15
100
AcDbSpline
210
0.0
220
0.0
230
1.0
 70
     8
 71
     3
 72
    12
 73
     8
 74
     0
 42
0.00000001
 43
0.00000001
 12
1.0
 22
0.0
 32
0.0
 13
1.0
 23
0.0
 33
0.0
 40
0.0
 40
0.0
 40
0.0
 40
0.0
 40
0.25
 40
0.25
 40
0.5
 40
0.5
 40
1.0
 40
1.0
 40
1.0
 40
1.0
 10
164.0741562614406
 20
99.62754555785045
 30
0.0
 10
164.0366554385628
 20
99.62754555785044
 30
0.0
 10
164.0013770345269
 20
99.63204652571366
 30
0.0
 10
163.9424593144745
 20
99.64541304693097
 30
0.0
 10
163.9189359330761
 20
99.6538943071758
 30
0.0
 10
163.8586803486102
 20
99.68163170285371
 30
0.0
 10
163.833158696199
 20
99.70251570190675
 30
0.0
 10
163.8143486403052
 20
99.7244456549019
 30
0.0
  0
LINE
  5
6D
330
1F
100
AcDbEntity
  8
0
  6
Continuous
 62
     7
370
    15
100
AcDbLine
 10
166.2103521787
 20
99.6275452019
 30
0.0
 11
164.0741561689
 21
99.6275452019
 31
0.0
  0
SPLINE
  5
6E
330
1F
100
AcDbEntity
  8
0
  6
Continuous
 62
     7
370
    15
100
AcDbSpline
210
0.0
220
0.0
230
1.0
 70
     8
 71
     3
 72
    12
 73
     8
 74
     0
 42
0.00000001
 43
0.00000001
 12
1.0
 22
0.0
 32
0.0
 13
1.0
 23
0.0
 33
0.0
 40
0.0
 40
0.0
 40
0.0
 40
0.0
 40
0.5000000000000006
 40
0.5000000000000006
 40
0.7500000000000002
 40
0.7500000000000002
 40
1.0
 40
1.0
 40
1.0
 40
1.0
 10
166.4701598785776
 20
99.72444565490188
 30
0.0
 10
166.4513566457259
 20
99.70252365664082
 30
0.0
 10
166.4258199867066
 20
99.68162984863093
 30
0.0
 10
166.3655938127582
 20
99.65390312251317
 30
0.0
 10
166.3416677353582
 20
99.64532998913772
 30
0.0
 10
166.2836068151769
 20
99.63215088333017
 30
0.0
 10
166.2478051165509
 20
99.62754555785044
 30
0.0
 10
166.2103522574422
 20
99.62754555785044
 30
0.0
  0
ELLIPSE
  5
6F
330
1F
100
AcDbEntity
  8
0
  6
Continuous
 62
     7
370
    15
100
AcDbEllipse
 10
156.193325087
 20
118.7592019381
 30
0.0
 11
-9.367417879781783
 21
19.74174915274997
 31
0.0
210
0.0
220
0.0
230
1.0
 40
0.3419987131
 41
3.292664382516902
 42
4.239566697061001
  0
SPLINE
  5
70
330
1F
100
AcDbEntity
  8
0
  6
Continuous
 62
     7
370
    15
100
AcDbSpline
210
0.0
220
0.0
230
1.0
 70
     8
 71
     3
 72
    12
 73
     8
 74
     0
 42
0.00000001
 43
0.00000001
 12
1.0
 22
0.0
 32
0.0
 13
1.0
 23
0.0
 33
0.0
 40
0.0
 40
0.0
 40
0.0
 40
0.0
 40
0.2500000000000001
 40
0.2500000000000001
 40
0.5000000000000002
 40
0.5000000000000002
 40
1.0
 40
1.0
 40
1.0
 40
1.0
 10
166.2103522574422
 20
112.9299889424321
 30
0.0
 10
166.24785308032
 20
112.9299889424321
 30
0.0
 10
166.2831314843559
 20
112.915192604679
 30
0.0
 10
166.3420492044083
 20
112.8716223435199
 30
0.0
 10
166.3655725858067
 20
112.8441205450184
 30
0.0
 10
166.4258281702726
 20
112.7550213817753
 30
0.0
 10
166.4513498226838
 20
112.6889618029929
 30
0.0
 10
166.4701598785776
 20
112.6209568110247
 30
0.0
  0
LINE
  5
71
330
1F
100
AcDbEntity
  8
0
  6
Continuous
 62
     7
370
    15
100
AcDbLine
 10
164.0741561689
 20
112.929988751
 30
0.0
 11
166.2103521787
 21
112.929988751
 31
0.0
  0
SPLINE
  5
72
330
1F
100
AcDbEntity
  8
0
  6
Continuous
 62
     7
370
    15
100
AcDbSpline
210
0.0
220
0.0
230
1.0
 70
     8
 71
     3
 72
    12
 73
     8
 74
     0
 42
0.00000001
 43
0.00000001
 12
1.0
 22
0.0
 32
0.0
 13
1.0
 23
0.0
 33
0.0
 40
0.0
 40
0.0
 40
0.0
 40
0.0
 40
0.4999999999999977
 40
0.4999999999999977
 40
0.7499999999999988
 40
0.7499999999999988
 40
1.0
 40
1.0
 40
1.0
 40
1.0
 10
163.8143486403052
 20
112.6209568110247
 30
0.0
 10
163.8331518731569
 20
112.6889371352871
 30
0.0
 10
163.8586885321762
 20
112.7550275230839
 30
0.0
 10
163.9189147061247
 20
112.8440921355311
 30
0.0
 10
163.9428407835246
 20
112.871893222551
 30
0.0
 10
164.0009017037059
 20
112.9148522957759
 30
0.0
 10
164.0367034023319
 20
112.9299889424321
 30
0.0
 10
164.0741562614406
 20
112.9299889424321
 30
0.0
  0
ELLIPSE
  5
73
330
1F
100
AcDbEntity
  8
0
  6
Continuous
 62
     7
370
    15
100
AcDbEllipse
 10
174.0911834319
 20
118.7592019381
 30
0.0
 11
9.367417879781645
 21
19.74174915274997
 31
0.0
210
0.0
220
0.0
230
1.0
 40
0.3419987131
 41
2.043618610118594
 42
2.990520924662724
  0
SPLINE
  5
74
330
1F
100
AcDbEntity
  8
0
  6
Continuous
 62
     7
370
    15
100
AcDbSpline
210
0.0
220
0.0
230
1.0
 70
     8
 71
     3
 72
    18
 73
    14
 74
     0
 42
0.00000001
 43
0.00000001
 12
1.0
 22
0.0
 32
0.0
 13
1.0
 23
0.0
 33
0.0
 40
0.0
 40
0.0
 40
0.0
 40
0.0
 40
0.2500000000000003
 40
0.2500000000000003
 40
0.5000000000000007
 40
0.5000000000000007
 40
0.6250000000000004
 40
0.6250000000000004
 40
0.7500000000000003
 40
0.7500000000000003
 40
0.8750000000000001
 40
0.8750000000000001
 40
1.0
 40
1.0
 40
1.0
 40
1.0
 10
155.8861699418774
 20
104.928013555405
 30
0.0
 10
155.9204667613292
 20
104.9271518999232
 30
0.0
 10
155.9582780413064
 20
104.9274035030181
 30
0.0
 10
156.0448504084864
 20
104.92980201563
 30
0.0
 10
156.0931895385693
 20
104.9319730003619
 30
0.0
 10
156.1824618958917
 20
104.9360678786571
 30
0.0
 10
156.2150033616677
 20
104.9375724966067
 30
0.0
 10
156.2911795615211
 20
104.9405355545749
 30
0.0
 10
156.3343956215156
 20
104.9420228928306
 30
0.0
 10
156.4400849234816
 20
104.9436483041543
 30
0.0
 10
156.5050559821961
 20
104.9436060630804
 30
0.0
 10
156.638716370554
 20
104.9395838897594
 30
0.0
 10
156.6980228238902
 20
104.9360426629359
 30
0.0
 10
156.7472773705661
 20
104.9324759554998
 30
0.0
  0
SPLINE
  5
75
330
1F
100
AcDbEntity
  8
0
  6
Continuous
 62
     7
370
    15
100
AcDbSpline
210
0.0
220
0.0
230
1.0
 70
     8
 71
     3
 72
    14
 73
    10
 74
     0
 42
0.00000001
 43
0.00000001
 12
1.0
 22
0.0
 32
0.0
 13
1.0
 23
0.0
 33
0.0
 40
0.0
 40
0.0
 40
0.0
 40
0.0
 40
0.1250000000000012
 40
0.1250000000000012
 40
0.2500000000000023
 40
0.2500000000000023
 40
0.5000000000000016
 40
0.5000000000000016
 40
1.0
 40
1.0
 40
1.0
 40
1.0
 10
156.7472773705353
 20
104.9324759555188
 30
0.0
 10
156.7588041482527
 20
104.9316412580847
 30
0.0
 10
156.7721569559051
 20
104.9299008438046
 30
0.0
 10
156.8022995285054
 20
104.9226532538043
 30
0.0
 10
156.8173600541199
 20
104.9173062195763
 30
0.0
 10
156.8527064080481
 20
104.9015589493479
 30
0.0
 10
156.8664385077771
 20
104.8917206751866
 30
0.0
 10
156.8998097534682
 20
104.8655166892361
 30
0.0
 10
156.9107501213221
 20
104.8514287878355
 30
0.0
 10
156.9194032463354
 20
104.8386551643471
 30
0.0
  0
LINE
  5
76
330
1F
100
AcDbEntity
  8
0
  6
Continuous
 62
     7
370
    15
100
AcDbLine
 10
156.9422542645
 20
113.2537569905
 30
0.0
 11
156.9422542645
 21
104.6693819629
 31
0.0
  0
SPLINE
  5
77
330
1F
100
AcDbEntity
  8
0
  6
Continuous
 62
     7
370
    15
100
AcDbSpline
210
0.0
220
0.0
230
1.0
 70
     8
 71
     3
 72
    16
 73
    12
 74
     0
 42
0.00000001
 43
0.00000001
 12
1.0
 22
0.0
 32
0.0
 13
1.0
 23
0.0
 33
0.0
 40
0.0
 40
0.0
 40
0.0
 40
0.0
 40
0.4999999999999993
 40
0.4999999999999993
 40
0.749999999999999
 40
0.749999999999999
 40
0.8749999999999996
 40
0.8749999999999996
 40
0.9374999999999999
 40
0.9374999999999999
 40
1.0
 40
1.0
 40
1.0
 40
1.0
 10
156.9422542594414
 20
113.253757171121
 30
0.0
 10
156.9422542594414
 20
113.3713325521405
 30
0.0
 10
156.9383708342825
 20
113.4900283052417
 30
0.0
 10
156.9135555090078
 20
113.6707857832342
 30
0.0
 10
156.9027160612953
 20
113.7324298600071
 30
0.0
 10
156.8695002792465
 20
113.8217668343484
 30
0.0
 10
156.8561185356177
 20
113.8520263657736
 30
0.0
 10
156.8206088857555
 20
113.885542609761
 30
0.0
 10
156.8051919192547
 20
113.8936809555671
 30
0.0
 10
156.7734908971061
 20
113.8936655461357
 30
0.0
 10
156.7593446121553
 20
113.8866233087799
 30
0.0
 10
156.7472773705657
 20
113.8774822451703
 30
0.0
  0
SPLINE
  5
78
330
1F
100
AcDbEntity
  8
0
  6
Continuous
 62
     7
370
    15
100
AcDbSpline
210
0.0
220
0.0
230
1.0
 70
     8
 71
     3
 72
    18
 73
    14
 74
     0
 42
0.00000001
 43
0.00000001
 12
1.0
 22
0.0
 32
0.0
 13
1.0
 23
0.0
 33
0.0
 40
0.0
 40
0.0
 40
0.0
 40
0.0
 40
0.1249999999999996
 40
0.1249999999999996
 40
0.2499999999999993
 40
0.2499999999999993
 40
0.3749999999999989
 40
0.3749999999999989
 40
0.4999999999999986
 40
0.4999999999999986
 40
0.7499999999999992
 40
0.7499999999999992
 40
1.0
 40
1.0
 40
1.0
 40
1.0
 10
156.7472773705718
 20
113.877482245163
 30
0.0
 10
156.6985727868839
 20
113.8405880059724
 30
0.0
 10
156.6400643041083
 20
113.8110567015465
 30
0.0
 10
156.5083374888385
 20
113.8018207282677
 30
0.0
 10
156.4435794173411
 20
113.8248839028246
 30
0.0
 10
156.3383688151903
 20
113.892402024472
 30
0.0
 10
156.2951526666702
 20
113.9354131211226
 30
0.0
 10
156.2189743505863
 20
114.0256551431187
 30
0.0
 10
156.186119518295
 20
114.073286024594
 30
0.0
 10
156.0957516123341
 20
114.2203503239435
 30
0.0
 10
156.0463289544945
 20
114.3242636492481
 30
0.0
 10
155.9586778289029
 20
114.5353976128885
 30
0.0
 10
155.9206162815123
 20
114.6431203576472
 30
0.0
 10
155.8861699418784
 20
114.7524534735566
 30
0.0
  0
SPLINE
  5
79
330
1F
100
AcDbEntity
  8
0
  6
Continuous
 62
     7
370
    15
100
AcDbSpline
210
0.0
220
0.0
230
1.0
 70
     8
 71
     3
 72
     8
 73
     4
 74
     0
 42
0.00000001
 43
0.00000001
 12
1.0
 22
0.0
 32
0.0
 13
1.0
 23
0.0
 33
0.0
 40
0.0
 40
0.0
 40
0.0
 40
0.0
 40
1.0
 40
1.0
 40
1.0
 40
1.0
 10
155.8209339158817
 20
114.9876572476855
 30
0.0
 10
155.8403601211806
 20
114.9080649761127
 30
0.0
 10
155.861856945609
 20
114.8296232299799
 30
0.0
 10
155.8861699418784
 20
114.7524534735566
 30
0.0
  0
SPLINE
  5
7A
330
1F
100
AcDbEntity
  8
0
  6
Continuous
 62
     7
370
    15
100
AcDbSpline
210
0.0
220
0.0
230
1.0
 70
     8
 71
     3
 72
     8
 73
     4
 74
     0
 42
0.00000001
 43
0.00000001
 12
1.0
 22
0.0
 32
0.0
 13
1.0
 23
0.0
 33
0.0
 40
0.0
 40
0.0
 40
0.0
 40
0.0
 40
1.0
 40
1.0
 40
1.0
 40
1.0
 10
155.8861699418784
 20
122.7659504026112
 30
0.0
 10
155.861856945609
 20
122.6887806461878
 30
0.0
 10
155.8403601211806
 20
122.6103389000551
 30
0.0
 10
155.8209339158817
 20
122.5307466284823
 30
0.0
  0
SPLINE
  5
7B
330
1F
100
AcDbEntity
  8
0
  6
Continuous
 62
     7
370
    15
100
AcDbSpline
210
0.0
220
0.0
230
1.0
 70
     8
 71
     3
 72
    18
 73
    14
 74
     0
 42
0.00000001
 43
0.00000001
 12
1.0
 22
0.0
 32
0.0
 13
1.0
 23
0.0
 33
0.0
 40
0.0
 40
0.0
 40
0.0
 40
0.0
 40
0.2499999999999984
 40
0.2499999999999984
 40
0.4999999999999969
 40
0.4999999999999969
 40
0.6249999999999977
 40
0.6249999999999977
 40
0.7499999999999984
 40
0.7499999999999984
 40
0.8749999999999992
 40
0.8749999999999992
 40
1.0
 40
1.0
 40
1.0
 40
1.0
 10
155.8861699418784
 20
122.7659504026111
 30
0.0
 10
155.9204682608911
 20
122.8748136992042
 30
0.0
 10
155.958282658203
 20
122.9818211224405
 30
0.0
 10
156.0448707192766
 20
123.1908559465788
 30
0.0
 10
156.0932208249553
 20
123.2930260405683
 30
0.0
 10
156.1825374137551
 20
123.4397068121331
 30
0.0
 10
156.2150977692434
 20
123.4875085106686
 30
0.0
 10
156.2913434029723
 20
123.579064048694
 30
0.0
 10
156.3345027727523
 20
123.6227434406859
 30
0.0
 10
156.4402315967704
 20
123.6920976580125
 30
0.0
 10
156.505228773825
 20
123.7162139716784
 30
0.0
 10
156.6387132637792
 20
123.7080097496402
 30
0.0
 10
156.6980406572247
 20
123.6782189640483
 30
0.0
 10
156.7472773705661
 20
123.6409216309972
 30
0.0
  0
SPLINE
  5
7C
330
1F
100
AcDbEntity
  8
0
  6
Continuous
 62
     7
370
    15
100
AcDbSpline
210
0.0
220
0.0
230
1.0
 70
     8
 71
     3
 72
    16
 73
    12
 74
     0
 42
0.00000001
 43
0.00000001
 12
1.0
 22
0.0
 32
0.0
 13
1.0
 23
0.0
 33
0.0
 40
0.0
 40
0.0
 40
0.0
 40
0.0
 40
0.0625
 40
0.0625
 40
0.125
 40
0.125
 40
0.25
 40
0.25
 40
0.5
 40
0.5
 40
1.0
 40
1.0
 40
1.0
 40
1.0
 10
156.7472773705353
 20
123.6409216309489
 30
0.0
 10
156.7593472038111
 20
123.631778604103
 30
0.0
 10
156.7736228587445
 20
123.6247341564118
 30
0.0
 10
156.8050872708689
 20
123.6247270845132
 30
0.0
 10
156.8205877956793
 20
123.6328550533102
 30
0.0
 10
156.8560266922862
 20
123.6662635143174
 30
0.0
 10
156.8696193083896
 20
123.6969306807795
 30
0.0
 10
156.9026136267824
 20
123.7857516748613
 30
0.0
 10
156.9134010201012
 20
123.8466543204092
 30
0.0
 10
156.9384542673803
 20
124.0286623977875
 30
0.0
 10
156.9422542594415
 20
124.1473511128262
 30
0.0
 10
156.9422542594416
 20
124.2646467050467
 30
0.0
  0
LINE
  5
7D
330
1F
100
AcDbEntity
  8
0
  6
Continuous
 62
     7
370
    15
100
AcDbLine
 10
156.9422542645
 20
132.8490219133
 30
0.0
 11
156.9422542645
 21
124.2646468857
 31
0.0
  0
SPLINE
  5
7E
330
1F
100
AcDbEntity
  8
0
  6
Continuous
 62
     7
370
    15
100
AcDbSpline
210
0.0
220
0.0
230
1.0
 70
     8
 71
     3
 72
    16
 73
    12
 74
     0
 42
0.00000001
 43
0.00000001
 12
1.0
 22
0.0
 32
0.0
 13
1.0
 23
0.0
 33
0.0
 40
0.0
 40
0.0
 40
0.0
 40
0.0
 40
0.500000000000001
 40
0.500000000000001
 40
0.7500000000000008
 40
0.7500000000000008
 40
0.8749999999999998
 40
0.8749999999999998
 40
0.9374999999999999
 40
0.9374999999999999
 40
1.0
 40
1.0
 40
1.0
 40
1.0
 10
156.9422542594414
 20
132.744013844744
 30
0.0
 10
156.9422542594414
 20
132.7284486173046
 30
0.0
 10
156.9383708342825
 20
132.7092772394566
 30
0.0
 10
156.9135555090078
 20
132.6705048574748
 30
0.0
 10
156.9027160612953
 20
132.6558540812723
 30
0.0
 10
156.8695002792465
 20
132.6288098372926
 30
0.0
 10
156.8561185356177
 20
132.6188317381526
 30
0.0
 10
156.8206088857555
 20
132.6023572023656
 30
0.0
 10
156.8051919192547
 20
132.5966051115757
 30
0.0
 10
156.7734908971061
 20
132.588684591149
 30
0.0
 10
156.7593446121553
 20
132.5868017551302
 30
0.0
 10
156.7472773705657
 20
132.585927920668
 30
0.0
  0
SPLINE
  5
7F
330
1F
100
AcDbEntity
  8
0
  6
Continuous
 62
     7
370
    15
100
AcDbSpline
210
0.0
220
0.0
230
1.0
 70
     8
 71
     3
 72
    18
 73
    14
 74
     0
 42
0.00000001
 43
0.00000001
 12
1.0
 22
0.0
 32
0.0
 13
1.0
 23
0.0
 33
0.0
 40
0.0
 40
0.0
 40
0.0
 40
0.0
 40
0.125
 40
0.125
 40
0.25
 40
0.25
 40
0.375
 40
0.375
 40
0.5
 40
0.5
 40
0.75
 40
0.75
 40
1.0
 40
1.0
 40
1.0
 40
1.0
 10
156.7472773705718
 20
132.5859279206678
 30
0.0
 10
156.698573241555
 20
132.5824010710496
 30
0.0
 10
156.6400655723505
 20
132.578900797852
 30
0.0
 10
156.5083399097196
 20
132.5748578139641
 30
0.0
 10
156.4435822710993
 20
132.5747462393334
 30
0.0
 10
156.3383718544803
 20
132.5762784240949
 30
0.0
 10
156.2951558195401
 20
132.57773357631
 30
0.0
 10
156.2189775980591
 20
132.5806588378397
 30
0.0
 10
156.186122830375
 20
132.5821691683479
 30
0.0
 10
156.0957551115332
 20
132.5863111610363
 30
0.0
 10
156.0463327423437
 20
132.5885492460228
 30
0.0
 10
155.9586802802557
 20
132.5910005290693
 30
0.0
 10
155.9206175440213
 20
132.5912557644303
 30
0.0
 10
155.8861699418779
 20
132.5903903207625
 30
0.0
  0
SPLINE
  5
80
330
1F
100
AcDbEntity
  8
0
  6
Continuous
 62
     7
370
    15
100
AcDbSpline
210
0.0
220
0.0
230
1.0
 70
     8
 71
     3
 72
     8
 73
     4
 74
     0
 42
0.00000001
 43
0.00000001
 12
1.0
 22
0.0
 32
0.0
 13
1.0
 23
0.0
 33
0.0
 40
0.0
 40
0.0
 40
0.0
 40
0.0
 40
1.0
 40
1.0
 40
1.0
 40
1.0
 10
155.6472142815021
 20
115.8127111337201
 30
0.0
 10
155.6979413642245
 20
115.5293600124009
 30
0.0
 10
155.7558286772116
 20
115.2544038282611
 30
0.0
 10
155.8209339158818
 20
114.9876572476855
 30
0.0
  0
SPLINE
  5
81
330
1F
100
AcDbEntity
  8
0
  6
Continuous
 62
     7
370
    15
100
AcDbSpline
210
0.0
220
0.0
230
1.0
 70
     8
 71
     3
 72
    24
 73
    20
 74
     0
 42
0.00000001
 43
0.00000001
 12
1.0
 22
0.0
 32
0.0
 13
1.0
 23
0.0
 33
0.0
 40
0.0
 40
0.0
 40
0.0
 40
0.0
 40
0.2499999999999989
 40
0.2499999999999989
 40
0.3749999999999992
 40
0.3749999999999992
 40
0.4374999999999993
 40
0.4374999999999993
 40
0.4687499999999995
 40
0.4687499999999995
 40
0.4999999999999997
 40
0.4999999999999997
 40
0.5624999999999994
 40
0.5624999999999994
 40
0.6249999999999994
 40
0.6249999999999994
 40
0.7499999999999999
 40
0.7499999999999999
 40
1.0
 40
1.0
 40
1.0
 40
1.0
 10
155.4422542594332
 20
115.8130035420133
 30
0.0
 10
155.4426572888071
 20
115.9062718346429
 30
0.0
 10
155.4446870285221
 20
116.0000293934919
 30
0.0
 10
155.4539957399419
 20
116.1416192791314
 30
0.0
 10
155.4579217330565
 20
116.1887996977406
 30
0.0
 10
155.4688510929725
 20
116.259395744426
 30
0.0
 10
155.4729727210669
 20
116.2831756581908
 30
0.0
 10
155.4848672422492
 20
116.316626805238
 30
0.0
 10
155.490154054203
 20
116.3287817573076
 30
0.0
 10
155.5067219857179
 20
116.3366643962757
 30
0.0
 10
155.5146486944853
 20
116.3291007971737
 30
0.0
 10
155.5316410327104
 20
116.3053083659469
 30
0.0
 10
155.5390387335014
 20
116.2851198881024
 30
0.0
 10
155.5531411238432
 20
116.2446702634826
 30
0.0
 10
155.5592942811355
 20
116.2238145890852
 30
0.0
 10
155.5766080145966
 20
116.1606895537841
 30
0.0
 10
155.5866130554851
 20
116.1177104418826
 30
0.0
 10
155.6149695117159
 20
115.9879847975938
 30
0.0
 10
155.6315180510621
 20
115.9003870704578
 30
0.0
 10
155.6472142815021
 20
115.8127111337201
 30
0.0
  0
SPLINE
  5
82
330
1F
100
AcDbEntity
  8
0
  6
Continuous
 62
     7
370
    15
100
AcDbSpline
210
0.0
220
0.0
230
1.0
 70
     8
 71
     3
 72
    16
 73
    12
 74
     0
 42
0.00000001
 43
0.00000001
 12
1.0
 22
0.0
 32
0.0
 13
1.0
 23
0.0
 33
0.0
 40
0.0
 40
0.0
 40
0.0
 40
0.0
 40
0.2500000000000001
 40
0.2500000000000001
 40
0.3750000000000001
 40
0.3750000000000001
 40
0.5000000000000001
 40
0.5000000000000001
 40
0.7500000000000001
 40
0.7500000000000001
 40
1.0
 40
1.0
 40
1.0
 40
1.0
 10
155.4422542594414
 20
121.7054003341532
 30
0.0
 10
155.3617174500459
 20
121.2363275072901
 30
0.0
 10
155.3016800412437
 20
120.7559638571102
 30
0.0
 10
155.2409420939964
 20
120.0187795779692
 30
0.0
 10
155.2256196129535
 20
119.7702611747422
 30
0.0
 10
155.2050366611756
 20
119.2674777295285
 30
0.0
 10
155.1998371141391
 20
119.0126191765038
 30
0.0
 10
155.1997834035988
 20
118.2563418367831
 30
0.0
 10
155.219980740868
 20
117.7576836374732
 30
0.0
 10
155.3006590479409
 20
116.7712606667289
 30
0.0
 10
155.3617053962822
 20
116.282146573956
 30
0.0
 10
155.4422542594414
 20
115.8130035420146
 30
0.0
  0
SPLINE
  5
83
330
1F
100
AcDbEntity
  8
0
  6
Continuous
 62
     7
370
    15
100
AcDbSpline
210
0.0
220
0.0
230
1.0
 70
     8
 71
     3
 72
    24
 73
    20
 74
     0
 42
0.00000001
 43
0.00000001
 12
1.0
 22
0.0
 32
0.0
 13
1.0
 23
0.0
 33
0.0
 40
0.0
 40
0.0
 40
0.0
 40
0.0
 40
0.2499999999999975
 40
0.2499999999999975
 40
0.3749999999999971
 40
0.3749999999999971
 40
0.4374999999999978
 40
0.4374999999999978
 40
0.4999999999999986
 40
0.4999999999999986
 40
0.5312499999999984
 40
0.5312499999999984
 40
0.5624999999999983
 40
0.5624999999999983
 40
0.6249999999999987
 40
0.6249999999999987
 40
0.7499999999999991
 40
0.7499999999999991
 40
1.0
 40
1.0
 40
1.0
 40
1.0
 10
155.6472142814972
 20
121.7056927424196
 30
0.0
 10
155.6314452365876
 20
121.6176100789311
 30
0.0
 10
155.6148310720272
 20
121.529665262424
 30
0.0
 10
155.586298944534
 20
121.3993178951647
 30
0.0
 10
155.5762113109801
 20
121.3560567173639
 30
0.0
 10
155.5587234881309
 20
121.2926209415306
 30
0.0
 10
155.5525136802045
 20
121.2717068179875
 30
0.0
 10
155.5382358206215
 20
121.2312320263043
 30
0.0
 10
155.5306646582697
 20
121.2107543828455
 30
0.0
 10
155.5132448330923
 20
121.1879080033139
 30
0.0
 10
155.5047607506343
 20
121.1813562062775
 30
0.0
 10
155.4887246770213
 20
121.1919275815181
 30
0.0
 10
155.4839043047456
 20
121.2040186218013
 30
0.0
 10
155.4724974041426
 20
121.237661865021
 30
0.0
 10
155.4684764424335
 20
121.2610695443172
 30
0.0
 10
155.4577224306554
 20
121.3316581473766
 30
0.0
 10
155.453850545033
 20
121.3786231748977
 30
0.0
 10
155.4446825802327
 20
121.5192000395001
 30
0.0
 10
155.4426542457196
 20
121.6128362691171
 30
0.0
 10
155.4422542594414
 20
121.7054003341532
 30
0.0
  0
SPLINE
  5
84
330
1F
100
AcDbEntity
  8
0
  6
Continuous
 62
     7
370
    15
100
AcDbSpline
210
0.0
220
0.0
230
1.0
 70
     8
 71
     3
 72
     8
 73
     4
 74
     0
 42
0.00000001
 43
0.00000001
 12
1.0
 22
0.0
 32
0.0
 13
1.0
 23
0.0
 33
0.0
 40
0.0
 40
0.0
 40
0.0
 40
0.0
 40
1.0
 40
1.0
 40
1.0
 40
1.0
 10
155.8209339158818
 20
122.5307466284823
 30
0.0
 10
155.7558286772095
 20
122.2640000478979
 30
0.0
 10
155.6979413642207
 20
121.9890438637487
 30
0.0
 10
155.647214281497
 20
121.7056927424196
 30
0.0
  0
LINE
  5
85
330
1F
100
AcDbEntity
  8
0
  6
Continuous
 62
     7
370
    15
100
AcDbLine
 10
155.4422542369
 20
115.8130034858
 30
0.0
 11
155.4422542369
 21
114.6579981835
 31
0.0
  0
LINE
  5
86
330
1F
100
AcDbEntity
  8
0
  6
Continuous
 62
     7
370
    15
100
AcDbLine
 10
134.6422533654
 20
122.5991215145
 30
0.0
 11
134.6422533654
 21
114.9192823617
 31
0.0
  0
LINE
  5
87
330
1F
100
AcDbEntity
  8
0
  6
Continuous
 62
     7
370
    15
100
AcDbLine
 10
155.4422542369
 20
122.8604056926
 30
0.0
 11
155.4422542369
 21
121.7054003903
 31
0.0
  0
LINE
  5
88
330
1F
100
AcDbEntity
  8
0
  6
Continuous
 62
     7
370
    15
100
AcDbLine
 10
133.1422540508
 20
122.1661086714
 30
0.0
 11
133.1422540508
 21
115.3522952048
 31
0.0
  0
LINE
  5
89
330
1F
100
AcDbEntity
  8
0
  6
Continuous
 62
     7
370
    15
100
AcDbLine
 10
155.6472142376
 20
132.5843866037
 30
0.0
 11
155.886169957
 21
132.590389909
 31
0.0
  0
LINE
  5
8A
330
1F
100
AcDbEntity
  8
0
  6
Continuous
 62
     7
370
    15
100
AcDbLine
 10
155.4422542369
 20
122.8604056926
 30
0.0
 11
155.4422542369
 21
132.7793003114
 31
0.0
  0
ARC
  5
8B
330
1F
100
AcDbEntity
  8
0
  6
Continuous
 62
     7
370
    15
100
AcDbCircle
 10
155.6421911704
 20
132.7843238338
 30
0.0
 40
0.2000000000000059
100
AcDbArc
 50
181.4391666667
 51
271.4391666667
  0
LINE
  5
8C
330
1F
100
AcDbEntity
  8
0
  6
Continuous
 62
     7
370
    15
100
AcDbLine
 10
134.6422533654
 20
122.5991215145
 30
0.0
 11
134.6422533654
 21
132.2567324208
 31
0.0
  0
LINE
  5
8D
330
1F
100
AcDbEntity
  8
0
  6
Continuous
 62
     7
370
    15
100
AcDbLine
 10
134.6422533654
 20
132.2567324208
 30
0.0
 11
155.4422542369
 21
132.7793003114
 31
0.0
  0
LINE
  5
8E
330
1F
100
AcDbEntity
  8
0
  6
Continuous
 62
     7
370
    15
100
AcDbLine
 10
134.6422533654
 20
105.2616714554
 30
0.0
 11
134.6422533654
 21
114.9192823617
 31
0.0
  0
LINE
  5
8F
330
1F
100
AcDbEntity
  8
0
  6
Continuous
 62
     7
370
    15
100
AcDbLine
 10
155.4422542369
 20
104.7391035648
 30
0.0
 11
155.4422542369
 21
114.6579981835
 31
0.0
  0
LINE
  5
90
330
1F
100
AcDbEntity
  8
0
  6
Continuous
 62
     7
370
    15
100
AcDbLine
 10
134.6422533654
 20
105.2616714554
 30
0.0
 11
155.4422542369
 21
104.7391035648
 31
0.0
  0
ARC
  5
91
330
1F
100
AcDbEntity
  8
0
  6
Continuous
 62
     7
370
    15
100
AcDbCircle
 10
155.6421911704
 20
104.7340800424
 30
0.0
 40
0.1999999999999917
100
AcDbArc
 50
88.5608333333
 51
178.5608333333
  0
LINE
  5
92
330
1F
100
AcDbEntity
  8
0
  6
Continuous
 62
     7
370
    15
100
AcDbLine
 10
155.6472142376
 20
104.9340172725
 30
0.0
 11
155.886169957
 21
104.9280139671
 31
0.0
  0
LINE
  5
93
330
1F
100
AcDbEntity
  8
0
  6
Continuous
 62
     7
370
    15
100
AcDbLine
 10
133.1422540508
 20
131.3907067345
 30
0.0
 11
134.6422533654
 21
132.2567324208
 31
0.0
  0
LINE
  5
94
330
1F
100
AcDbEntity
  8
0
  6
Continuous
 62
     7
370
    15
100
AcDbLine
 10
133.1422540508
 20
122.1661086714
 30
0.0
 11
133.1422540508
 21
131.3907067345
 31
0.0
  0
LINE
  5
95
330
1F
100
AcDbEntity
  8
0
  6
Continuous
 62
     7
370
    15
100
AcDbLine
 10
133.1422540508
 20
106.1276971416
 30
0.0
 11
134.6422533654
 21
105.2616714554
 31
0.0
  0
LINE
  5
96
330
1F
100
AcDbEntity
  8
0
  6
Continuous
 62
     7
370
    15
100
AcDbLine
 10
133.1422540508
 20
106.1276971416
 30
0.0
 11
133.1422540508
 21
115.3522952048
 31
0.0
  0
SPLINE
  5
97
330
1F
100
AcDbEntity
  8
0
  6
Continuous
 62
     7
370
    15
100
AcDbSpline
210
0.0
220
0.0
230
1.0
 70
     8
 71
     3
 72
    16
 73
    12
 74
     0
 42
0.00000001
 43
0.00000001
 12
1.0
 22
0.0
 32
0.0
 13
1.0
 23
0.0
 33
0.0
 40
0.0
 40
0.0
 40
0.0
 40
0.0
 40
0.2500000000000052
 40
0.2500000000000052
 40
0.3750000000000059
 40
0.3750000000000059
 40
0.5000000000000066
 40
0.5000000000000066
 40
0.7500000000000033
 40
0.7500000000000033
 40
1.0
 40
1.0
 40
1.0
 40
1.0
 10
218.5464577445111
 20
130.6198980835478
 30
0.0
 10
218.6146790701902
 20
130.7028882167862
 30
0.0
 10
218.7150594124553
 20
130.7734344871559
 30
0.0
 10
218.9145876027365
 20
130.864211554528
 30
0.0
 10
218.9899157504902
 20
130.8920597979172
 30
0.0
 10
219.1531813935475
 20
130.9417737198742
 30
0.0
 10
219.2414424087047
 20
130.9638548733489
 30
0.0
 10
219.5259659169589
 20
131.0231137837309
 30
0.0
 10
219.7448916755168
 20
131.0534907564659
 30
0.0
 10
220.2118839400881
 20
131.0983431030109
 30
0.0
 10
220.46431419098
 20
131.1135334873269
 30
0.0
 10
220.7280406970683
 20
131.1231037836022
 30
0.0
  0
ELLIPSE
  5
98
330
1F
100
AcDbEntity
  8
0
  6
Continuous
 62
     7
370
    15
100
AcDbEllipse
 10
219.3796197454
 20
118.7592019381
 30
0.0
 11
0.2516063682710126
 21
12.499819213438
 31
0.0
210
0.0
220
0.0
230
1.0
 40
0.2671959542
 41
0.3265832336788595
 42
2.96539232451198
  0
SPLINE
  5
99
330
1F
100
AcDbEntity
  8
0
  6
Continuous
 62
     7
370
    15
100
AcDbSpline
210
0.0
220
0.0
230
1.0
 70
     8
 71
     3
 72
    16
 73
    12
 74
     0
 42
0.00000001
 43
0.00000001
 12
1.0
 22
0.0
 32
0.0
 13
1.0
 23
0.0
 33
0.0
 40
0.0
 40
0.0
 40
0.0
 40
0.0
 40
0.2500000000000065
 40
0.2500000000000065
 40
0.3750000000000098
 40
0.3750000000000098
 40
0.5000000000000079
 40
0.5000000000000079
 40
0.7500000000000039
 40
0.7500000000000039
 40
1.0
 40
1.0
 40
1.0
 40
1.0
 10
220.7280406970683
 20
106.2596093511258
 30
0.0
 10
220.4643194117565
 20
106.2601343881808
 30
0.0
 10
220.2152941527411
 20
106.2613113392619
 30
0.0
 10
219.8632680089201
 20
106.267585615234
 30
0.0
 10
219.7490102216828
 20
106.270488613757
 30
0.0
 10
219.534468585105
 20
106.2785227180067
 30
0.0
 10
219.4334052404879
 20
106.2836563877372
 30
0.0
 10
219.148562903198
 20
106.3036483594649
 30
0.0
 10
218.9819359148071
 20
106.3235039469002
 30
0.0
 10
218.7167384108569
 20
106.3800701755215
 30
0.0
 10
218.6146845241936
 20
106.417230655619
 30
0.0
 10
218.5464577445111
 20
106.4647038265536
 30
0.0
  0
ELLIPSE
  5
9A
330
1F
100
AcDbEntity
  8
0
  6
Continuous
 62
     7
370
    15
100
AcDbEllipse
 10
217.422307883
 20
115.186347228
 30
0.0
 11
-0.08291753437345051
 21
2.335796540899949
 31
0.0
210
0.0
220
0.0
230
1.0
 40
0.2540400005
 41
0.0
 42
6.283185307179586
  0
SPLINE
  5
9B
330
1F
100
AcDbEntity
  8
0
  6
Continuous
 62
     7
370
    15
100
AcDbSpline
210
0.0
220
0.0
230
1.0
 70
     8
 71
     3
 72
     8
 73
     4
 74
     0
 42
0.00000001
 43
0.00000001
 12
1.0
 22
0.0
 32
0.0
 13
1.0
 23
0.0
 33
0.0
 40
0.0
 40
0.0
 40
0.0
 40
0.0
 40
1.0
 40
1.0
 40
1.0
 40
1.0
 10
221.4442352233782
 20
105.9572229866708
 30
0.0
 10
221.4412058096941
 20
105.9602522820541
 30
0.0
 10
221.4381765612189
 20
105.9632814148267
 30
0.0
 10
221.4351474782548
 20
105.9663103853915
 30
0.0
  0
SPLINE
  5
9C
330
1F
100
AcDbEntity
  8
0
  6
Continuous
 62
     7
370
    15
100
AcDbSpline
210
0.0
220
0.0
230
1.0
 70
     8
 71
     3
 72
    10
 73
     6
 74
     0
 42
0.00000001
 43
0.00000001
 12
1.0
 22
0.0
 32
0.0
 13
1.0
 23
0.0
 33
0.0
 40
0.0
 40
0.0
 40
0.0
 40
0.0
 40
0.5
 40
0.5
 40
1.0
 40
1.0
 40
1.0
 40
1.0
 10
221.4351474782549
 20
105.9663103853916
 30
0.0
 10
221.3409221317747
 20
106.0605322354799
 30
0.0
 10
221.2296531709214
 20
106.1341699163633
 30
0.0
 10
220.9870862009225
 20
106.2339970271994
 30
0.0
 10
220.8575808113298
 20
106.259351452489
 30
0.0
 10
220.7280406970683
 20
106.2596093511262
 30
0.0
  0
SPLINE
  5
9D
330
1F
100
AcDbEntity
  8
0
  6
Continuous
 62
     7
370
    15
100
AcDbSpline
210
0.0
220
0.0
230
1.0
 70
     8
 71
     3
 72
    10
 73
     6
 74
     0
 42
0.00000001
 43
0.00000001
 12
1.0
 22
0.0
 32
0.0
 13
1.0
 23
0.0
 33
0.0
 40
0.0
 40
0.0
 40
0.0
 40
0.0
 40
0.5
 40
0.5
 40
1.0
 40
1.0
 40
1.0
 40
1.0
 10
220.7280406970683
 20
131.1231037836022
 30
0.0
 10
220.8575711115615
 20
131.1278042760242
 30
0.0
 10
220.9866855771095
 20
131.1561609107109
 30
0.0
 10
221.2293521403759
 20
131.2597398706303
 30
0.0
 10
221.3409039401463
 20
131.3342227529266
 30
0.0
 10
221.4351474782552
 20
131.4285026232961
 30
0.0
  0
SPLINE
  5
9E
330
1F
100
AcDbEntity
  8
0
  6
Continuous
 62
     7
370
    15
100
AcDbSpline
210
0.0
220
0.0
230
1.0
 70
     8
 71
     3
 72
     8
 73
     4
 74
     0
 42
0.00000001
 43
0.00000001
 12
1.0
 22
0.0
 32
0.0
 13
1.0
 23
0.0
 33
0.0
 40
0.0
 40
0.0
 40
0.0
 40
0.0
 40
1.0
 40
1.0
 40
1.0
 40
1.0
 10
221.4351474782548
 20
131.4285026232966
 30
0.0
 10
221.4381765612189
 20
131.4315328740164
 30
0.0
 10
221.4412058096941
 20
131.4345626469668
 30
0.0
 10
221.4442352233782
 20
131.4375919423502
 30
0.0
  0
LINE
  5
9F
330
1F
100
AcDbEntity
  8
0
  6
Continuous
 62
     7
370
    15
100
AcDbLine
 10
221.642250862
 20
131.6355961429
 30
0.0
 11
234.5886702798
 21
131.6355961429
 31
0.0
  0
LINE
  5
A0
330
1F
100
AcDbEntity
  8
0
  6
Continuous
 62
     7
370
    15
100
AcDbLine
 10
221.642250862
 20
131.7592022063
 30
0.0
 11
221.642250862
 21
131.6355961429
 31
0.0
  0
ELLIPSE
  5
A1
330
1F
100
AcDbEntity
  8
0
  6
Continuous
 62
     7
370
    15
100
AcDbEllipse
 10
243.5374293887
 20
118.7592019381
 30
0.0
 11
-9.268362359823413
 21
12.98522500655781
 31
0.0
210
0.0
220
0.0
230
1.0
 40
0.0668534593
 41
6.097494906114718
 42
6.235504004580371
  0
LINE
  5
A2
330
1F
100
AcDbEntity
  8
0
  6
Continuous
 62
     7
370
    15
100
AcDbLine
 10
221.4442367815
 20
131.4375923069
 30
0.0
 11
221.642250862
 21
131.6355961429
 31
0.0
  0
LINE
  5
A3
330
1F
100
AcDbEntity
  8
0
  6
Continuous
 62
     7
370
    15
100
AcDbLine
 10
245.5983336233
 20
115.9504687933
 30
0.0
 11
245.7199047469
 21
114.5643611492
 31
0.0
  0
ARC
  5
A4
330
1F
100
AcDbEntity
  8
0
  6
Continuous
 62
     7
370
    15
100
AcDbCircle
 10
234.4773388961
 20
114.416359197
 30
0.0
 40
2.09762236448917
100
AcDbArc
 50
26.9302761748
 51
241.6772405711
  0
ELLIPSE
  5
A5
330
1F
100
AcDbEntity
  8
0
  6
Continuous
 62
     7
370
    15
100
AcDbEllipse
 10
208.1861434355
 20
120.3605443027
 30
0.0
 11
2457.893071165027
 21
-213.9913749490397
 31
0.0
210
0.0
220
0.0
230
1.0
 40
0.0060650906
 41
4.71910069582431
 42
4.723563986704999
  0
LINE
  5
A6
330
1F
100
AcDbEntity
  8
0
  6
Continuous
 62
     7
370
    15
100
AcDbLine
 10
223.3848522566
 20
104.0172978358
 30
0.0
 11
221.4442367815
 21
105.957223201
 31
0.0
  0
LINE
  5
A7
330
1F
100
AcDbEntity
  8
0
  6
Continuous
 62
     7
370
    15
100
AcDbLine
 10
234.5886702798
 20
131.6355961429
 30
0.0
 11
245.5983336233
 21
115.9504687933
 31
0.0
  0
ARC
  5
A8
330
1F
100
AcDbEntity
  8
0
  6
Continuous
 62
     7
370
    15
100
AcDbCircle
 10
234.4709908219
 20
114.7511119142
 30
0.0
 40
2.094528642534007
100
AcDbArc
 50
184.6203216823
 51
240.8672623593
  0
CIRCLE
  5
A9
330
1F
100
AcDbEntity
  8
0
  6
Continuous
 62
     7
370
    15
100
AcDbCircle
 10
240.167149448
 20
108.7586449681
 30
0.0
 40
3.49435286082509
  0
CIRCLE
  5
AA
330
1F
100
AcDbEntity
  8
0
  6
Continuous
 62
     7
370
    15
100
AcDbCircle
 10
240.1657451753
 20
108.7236837999
 30
0.0
 40
2.629735060357919
  0
CIRCLE
  5
AB
330
1F
100
AcDbEntity
  8
0
  6
Continuous
 62
     7
370
    15
100
AcDbCircle
 10
240.1647165362
 20
108.723602166
 30
0.0
 40
1.996790882159051
  0
SPLINE
  5
AC
330
1F
100
AcDbEntity
  8
0
  6
Continuous
 62
     7
370
    15
100
AcDbSpline
210
0.0
220
0.0
230
1.0
 70
     8
 71
     3
 72
    15
 73
    11
 74
     0
 42
0.00000001
 43
0.00000001
 12
1.0
 22
0.0
 32
0.0
 13
1.0
 23
0.0
 33
0.0
 40
0.0
 40
0.0
 40
0.0
 40
0.0
 40
0.1262493937495735
 40
0.2533613851004071
 40
0.3794171668178966
 40
0.504269942167606
 40
0.6284478121163593
 40
0.7526359510365911
 40
0.8774900817527652
 40
1.0
 40
1.0
 40
1.0
 40
1.0
 10
240.5022706054192
 20
110.3982796015055
 30
0.0
 10
240.4868521974367
 20
110.4392925169715
 30
0.0
 10
240.455910035368
 20
110.5215985681997
 30
0.0
 10
240.3598867038085
 20
110.6175010487967
 30
0.0
 10
240.2397384563074
 20
110.6778954760888
 30
0.0
 10
240.1062160326941
 20
110.6950523882091
 30
0.0
 10
239.9750816649238
 20
110.6680976834047
 30
0.0
 10
239.8611729631596
 20
110.6002082739697
 30
0.0
 10
239.7737622544064
 20
110.5004352403193
 30
0.0
 10
239.7481693074935
 20
110.4185730535485
 30
0.0
 10
239.7354941032868
 20
110.3780298547657
 30
0.0
  0
SPLINE
  5
AD
330
1F
100
AcDbEntity
  8
0
  6
Continuous
 62
     7
370
    15
100
AcDbSpline
210
0.0
220
0.0
230
1.0
 70
     8
 71
     3
 72
    12
 73
     8
 74
     0
 42
0.00000001
 43
0.00000001
 12
1.0
 22
0.0
 32
0.0
 13
1.0
 23
0.0
 33
0.0
 40
0.0
 40
0.0
 40
0.0
 40
0.0
 40
0.2058737410656123
 40
0.4120986975973253
 40
0.6141685137163664
 40
0.8132905265724708
 40
1.0
 40
1.0
 40
1.0
 40
1.0
 10
239.7354941032868
 20
110.3780298547657
 30
0.0
 10
239.7126055080354
 20
110.305353840779
 30
0.0
 10
239.6667892701602
 20
110.159877829339
 30
0.0
 10
239.5101546158005
 20
109.9838886237541
 30
0.0
 10
239.3107419763014
 20
109.867703259486
 30
0.0
 10
239.0898547802175
 20
109.8185823290867
 30
0.0
 10
238.9478600422049
 20
109.8425779481392
 30
0.0
 10
238.8791467212181
 20
109.8541897775443
 30
0.0
  0
SPLINE
  5
AE
330
1F
100
AcDbEntity
  8
0
  6
Continuous
 62
     7
370
    15
100
AcDbSpline
210
0.0
220
0.0
230
1.0
 70
     8
 71
     3
 72
    15
 73
    11
 74
     0
 42
0.00000001
 43
0.00000001
 12
1.0
 22
0.0
 32
0.0
 13
1.0
 23
0.0
 33
0.0
 40
0.0
 40
0.0
 40
0.0
 40
0.0
 40
0.1268759001608407
 40
0.2539953106272735
 40
0.3800504421052381
 40
0.5049005536983572
 40
0.6290836655330349
 40
0.7532690524844773
 40
0.8781229942307952
 40
1.0
 40
1.0
 40
1.0
 40
1.0
 10
238.8791467212181
 20
109.8541897775443
 30
0.0
 10
238.8352044639999
 20
109.8611601323903
 30
0.0
 10
238.7472356120929
 20
109.8751142201412
 30
0.0
 10
238.6149157947318
 20
109.8393016408073
 30
0.0
 10
238.5019762800313
 20
109.7651938433239
 30
0.0
 10
238.4203304382469
 20
109.6581758863556
 30
0.0
 10
238.3785754906321
 20
109.5314591689911
 30
0.0
 10
238.3813584209506
 20
109.3994370958121
 30
0.0
 10
238.4253003218041
 20
109.274841317555
 30
0.0
 10
238.4842341734614
 20
109.2124461196085
 30
0.0
 10
238.513345565651
 20
109.1816249357374
 30
0.0
  0
SPLINE
  5
AF
330
1F
100
AcDbEntity
  8
0
  6
Continuous
 62
     7
370
    15
100
AcDbSpline
210
0.0
220
0.0
230
1.0
 70
     8
 71
     3
 72
    12
 73
     8
 74
     0
 42
0.00000001
 43
0.00000001
 12
1.0
 22
0.0
 32
0.0
 13
1.0
 23
0.0
 33
0.0
 40
0.0
 40
0.0
 40
0.0
 40
0.0
 40
0.2057944488235398
 40
0.4120008711820228
 40
0.6140542371422355
 40
0.8131808150925993
 40
1.0
 40
1.0
 40
1.0
 40
1.0
 10
238.513345565651
 20
109.1816249357374
 30
0.0
 10
238.5656719500356
 20
109.1259348380115
 30
0.0
 10
238.6704294693735
 20
109.0144431582774
 30
0.0
 10
238.7460319553342
 20
108.791818721502
 30
0.0
 10
238.7471545262852
 20
108.5614116177147
 30
0.0
 10
238.6781973640523
 20
108.3452959117444
 30
0.0
 10
238.5850382996628
 20
108.233830970452
 30
0.0
 10
238.539944138382
 20
108.1798757480295
 30
0.0
  0
SPLINE
  5
B0
330
1F
100
AcDbEntity
  8
0
  6
Continuous
 62
     7
370
    15
100
AcDbSpline
210
0.0
220
0.0
230
1.0
 70
     8
 71
     3
 72
    15
 73
    11
 74
     0
 42
0.00000001
 43
0.00000001
 12
1.0
 22
0.0
 32
0.0
 13
1.0
 23
0.0
 33
0.0
 40
0.0
 40
0.0
 40
0.0
 40
0.0
 40
0.1268065282360338
 40
0.2539284416299563
 40
0.3799898452683179
 40
0.5048420608569933
 40
0.6290261456259026
 40
0.753212367183159
 40
0.8780563330099092
 40
1.0
 40
1.0
 40
1.0
 40
1.0
 10
238.539944138382
 20
108.1798757480295
 30
0.0
 10
238.5115274411488
 20
108.1451866167426
 30
0.0
 10
238.4546233704747
 20
108.0757220775607
 30
0.0
 10
238.4186522374821
 20
107.9430163603206
 30
0.0
 10
238.4259352034521
 20
107.8080669535155
 30
0.0
 10
238.4778123786127
 20
107.6839023174159
 30
0.0
 10
238.5671373780168
 20
107.5845750044953
 30
0.0
 10
238.6837000190131
 20
107.52127635274
 30
0.0
 10
238.8147368388547
 20
107.4974151951809
 30
0.0
 10
238.8991844510777
 20
107.5175912045676
 30
0.0
 10
238.9409120343666
 20
107.5275606529624
 30
0.0
  0
SPLINE
  5
B1
330
1F
100
AcDbEntity
  8
0
  6
Continuous
 62
     7
370
    15
100
AcDbSpline
210
0.0
220
0.0
230
1.0
 70
     8
 71
     3
 72
    12
 73
     8
 74
     0
 42
0.00000001
 43
0.00000001
 12
1.0
 22
0.0
 32
0.0
 13
1.0
 23
0.0
 33
0.0
 40
0.0
 40
0.0
 40
0.0
 40
0.0
 40
0.2058498425636205
 40
0.4120513189017342
 40
0.6141107328144225
 40
0.8132416478510047
 40
1.0
 40
1.0
 40
1.0
 40
1.0
 10
238.9409120343666
 20
107.5275606529624
 30
0.0
 10
239.0161383563706
 20
107.545324750377
 30
0.0
 10
239.1667195023741
 20
107.58088328993
 30
0.0
 10
239.3989227239763
 20
107.5354993894212
 30
0.0
 10
239.5994131921011
 20
107.4211943207099
 30
0.0
 10
239.7513331569769
 20
107.2528774028278
 30
0.0
 10
239.8002053663451
 20
107.1159304981535
 30
0.0
 10
239.8238579891663
 20
107.0496524737985
 30
0.0
  0
SPLINE
  5
B2
330
1F
100
AcDbEntity
  8
0
  6
Continuous
 62
     7
370
    15
100
AcDbSpline
210
0.0
220
0.0
230
1.0
 70
     8
 71
     3
 72
    15
 73
    11
 74
     0
 42
0.00000001
 43
0.00000001
 12
1.0
 22
0.0
 32
0.0
 13
1.0
 23
0.0
 33
0.0
 40
0.0
 40
0.0
 40
0.0
 40
0.0
 40
0.1262546835273635
 40
0.2533818792170622
 40
0.3794451545827358
 40
0.5042974620203369
 40
0.6284826239352765
 40
0.7526656156821191
 40
0.8775099797035218
 40
1.0
 40
1.0
 40
1.0
 40
1.0
 10
239.8238579891663
 20
107.0496524737985
 30
0.0
 10
239.8392726147411
 20
107.0077048965102
 30
0.0
 10
239.8702083922224
 20
106.9235198535087
 30
0.0
 10
239.9662488559312
 20
106.8255745616539
 30
0.0
 10
240.0864016703983
 20
106.763892223368
 30
0.0
 10
240.2199304251693
 20
106.7463348124161
 30
0.0
 10
240.3510653459199
 20
106.7737590008911
 30
0.0
 10
240.4649709439611
 20
106.8429708059734
 30
0.0
 10
240.5523611564112
 20
106.9447799458183
 30
0.0
 10
240.5779529475892
 20
107.0284603097862
 30
0.0
 10
240.5906270407181
 20
107.0699022205384
 30
0.0
  0
SPLINE
  5
B3
330
1F
100
AcDbEntity
  8
0
  6
Continuous
 62
     7
370
    15
100
AcDbSpline
210
0.0
220
0.0
230
1.0
 70
     8
 71
     3
 72
    12
 73
     8
 74
     0
 42
0.00000001
 43
0.00000001
 12
1.0
 22
0.0
 32
0.0
 13
1.0
 23
0.0
 33
0.0
 40
0.0
 40
0.0
 40
0.0
 40
0.0
 40
0.2058709976584421
 40
0.4120949794188708
 40
0.6141685249975091
 40
0.8133043751650317
 40
1.0
 40
1.0
 40
1.0
 40
1.0
 10
240.5906270407181
 20
107.0699022205384
 30
0.0
 10
240.6135156254466
 20
107.1441801761544
 30
0.0
 10
240.659332039414
 20
107.2928634435356
 30
0.0
 10
240.8159693212703
 20
107.4714247182747
 30
0.0
 10
241.0153813293886
 20
107.5874254130088
 30
0.0
 10
241.2362710823689
 20
107.6338239184298
 30
0.0
 10
241.3782660737754
 20
107.6068125318456
 30
0.0
 10
241.4469744227868
 20
107.5937422977598
 30
0.0
  0
SPLINE
  5
B4
330
1F
100
AcDbEntity
  8
0
  6
Continuous
 62
     7
370
    15
100
AcDbSpline
210
0.0
220
0.0
230
1.0
 70
     8
 71
     3
 72
    15
 73
    11
 74
     0
 42
0.00000001
 43
0.00000001
 12
1.0
 22
0.0
 32
0.0
 13
1.0
 23
0.0
 33
0.0
 40
0.0
 40
0.0
 40
0.0
 40
0.0
 40
0.1268729359852891
 40
0.2539816383335243
 40
0.3800314710373613
 40
0.5048743322000799
 40
0.6290531972663367
 40
0.7532392173260114
 40
0.8780964881726748
 40
1.0
 40
1.0
 40
1.0
 40
1.0
 10
241.4469744227867
 20
107.5937422977598
 30
0.0
 10
241.490916691576
 20
107.5858350068903
 30
0.0
 10
241.5788828865135
 20
107.5700057311334
 30
0.0
 10
241.7111989955113
 20
107.6037691120998
 30
0.0
 10
241.8241370880889
 20
107.6765872422329
 30
0.0
 10
241.9057820902745
 20
107.7831955438492
 30
0.0
 10
241.9475466768388
 20
107.9103741860946
 30
0.0
 10
241.9447693359624
 20
108.0437143706605
 30
0.0
 10
241.9008341011473
 20
108.1703541443728
 30
0.0
 10
241.841893242676
 20
108.2345790680964
 30
0.0
 10
241.8127755783539
 20
108.2663071395667
 30
0.0
  0
SPLINE
  5
B5
330
1F
100
AcDbEntity
  8
0
  6
Continuous
 62
     7
370
    15
100
AcDbSpline
210
0.0
220
0.0
230
1.0
 70
     8
 71
     3
 72
    12
 73
     8
 74
     0
 42
0.00000001
 43
0.00000001
 12
1.0
 22
0.0
 32
0.0
 13
1.0
 23
0.0
 33
0.0
 40
0.0
 40
0.0
 40
0.0
 40
0.0
 40
0.2058318950548142
 40
0.4120767274054506
 40
0.6141713635178161
 40
0.8133054738229544
 40
1.0
 40
1.0
 40
1.0
 40
1.0
 10
241.8127755783539
 20
108.2663071395667
 30
0.0
 10
241.7604436351811
 20
108.3236084996817
 30
0.0
 10
241.6556747611654
 20
108.4383261771621
 30
0.0
 10
241.5800658028975
 20
108.6635615689058
 30
0.0
 10
241.5789849795455
 20
108.8938141402851
 30
0.0
 10
241.647975945888
 20
109.107176527848
 30
0.0
 10
241.7411109138957
 20
109.2155949075725
 30
0.0
 10
241.7861770056229
 20
109.2680563272746
 30
0.0
  0
SPLINE
  5
B6
330
1F
100
AcDbEntity
  8
0
  6
Continuous
 62
     7
370
    15
100
AcDbSpline
210
0.0
220
0.0
230
1.0
 70
     8
 71
     3
 72
    15
 73
    11
 74
     0
 42
0.00000001
 43
0.00000001
 12
1.0
 22
0.0
 32
0.0
 13
1.0
 23
0.0
 33
0.0
 40
0.0
 40
0.0
 40
0.0
 40
0.0
 40
0.1267888792512394
 40
0.2538959978149036
 40
0.3799424776524321
 40
0.5047850417334364
 40
0.6289652148299947
 40
0.7531495031890763
 40
0.878008615274734
 40
1.0
 40
1.0
 40
1.0
 40
1.0
 10
241.7861770056229
 20
109.2680563272746
 30
0.0
 10
241.8145898998106
 20
109.3018067185321
 30
0.0
 10
241.8714870043769
 20
109.3693922143232
 30
0.0
 10
241.9074704567476
 20
109.5000353987374
 30
0.0
 10
241.9001904649928
 20
109.6336928514915
 30
0.0
 10
241.8483299168726
 20
109.7574492289489
 30
0.0
 10
241.759019764032
 20
109.8572482886153
 30
0.0
 10
241.6424689786407
 20
109.9218841477087
 30
0.0
 10
241.5114179981409
 20
109.947794386532
 30
0.0
 10
241.4269516498534
 20
109.9294413396756
 30
0.0
 10
241.3852091096383
 20
109.9203714223416
 30
0.0
  0
SPLINE
  5
B7
330
1F
100
AcDbEntity
  8
0
  6
Continuous
 62
     7
370
    15
100
AcDbSpline
210
0.0
220
0.0
230
1.0
 70
     8
 71
     3
 72
    12
 73
     8
 74
     0
 42
0.00000001
 43
0.00000001
 12
1.0
 22
0.0
 32
0.0
 13
1.0
 23
0.0
 33
0.0
 40
0.0
 40
0.0
 40
0.0
 40
0.0
 40
0.2058932196601436
 40
0.4121336621849516
 40
0.6142243190443392
 40
0.8133487083569987
 40
1.0
 40
1.0
 40
1.0
 40
1.0
 10
241.3852091096383
 20
109.9203714223416
 30
0.0
 10
241.3099703069539
 20
109.9042082944174
 30
0.0
 10
241.1593658172096
 20
109.8718547807138
 30
0.0
 10
240.927132557773
 20
109.9198375245405
 30
0.0
 10
240.7266373930136
 20
110.0339959736608
 30
0.0
 10
240.5747497831191
 20
110.199592280253
 30
0.0
 10
240.5259038945242
 20
110.3334936167073
 30
0.0
 10
240.5022706054192
 20
110.3982796015055
 30
0.0
  0
LWPOLYLINE
  5
B8
330
1F
100
AcDbEntity
  8
0
  6
Continuous
 62
     7
370
    15
100
AcDbPolyline
 90
        3
 70
   128
 43
0.0
 10
241.8976749443
 20
109.5993249731
 10
241.8627168201
 20
109.4895844402
 10
241.7861770056
 20
109.3831109868
  0
ARC
  5
B9
330
1F
100
AcDbEntity
  8
0
  6
Continuous
 62
     7
370
    15
100
AcDbCircle
 10
238.774173119
 20
109.5900698736
 30
0.0
 40
0.3925927775864992
100
AcDbArc
 50
187.180276567
 51
228.3658536719
  0
ARC
  5
BA
330
1F
100
AcDbEntity
  8
0
  6
Continuous
 62
     7
370
    15
100
AcDbCircle
 10
242.2692081373
 20
108.8945639317
 30
0.0
 40
0.68702059592828
100
AcDbArc
 50
134.6747191887
 51
179.9868422374
  0
ARC
  5
BB
330
1F
100
AcDbEntity
  8
0
  6
Continuous
 62
     7
370
    15
100
AcDbCircle
 10
238.0567700087
 20
108.7830961277
 30
0.0
 40
0.6871636074858427
100
AcDbArc
 50
0.0173982727
 51
48.361004677
  0
ARC
  5
BC
330
1F
100
AcDbEntity
  8
0
  6
Continuous
 62
     7
370
    15
100
AcDbCircle
 10
241.550783587
 20
108.088711558
 30
0.0
 40
0.3938158520911031
100
AcDbArc
 50
254.7163235761
 51
354.1094400463
  0
ARC
  5
BD
330
1F
100
AcDbEntity
  8
0
  6
Continuous
 62
     7
370
    15
100
AcDbCircle
 10
238.8171815336
 20
108.0165537868
 30
0.0
 40
0.3938762786656763
100
AcDbArc
 50
186.9281037081
 51
288.3086294059
  0
ARC
  5
BE
330
1F
100
AcDbEntity
  8
0
  6
Continuous
 62
     7
370
    15
100
AcDbCircle
 10
241.2655135577
 20
107.0435902216
 30
0.0
 40
0.6895389617572553
100
AcDbArc
 50
74.7421973423
 51
168.1672596353
  0
ARC
  5
BF
330
1F
100
AcDbEntity
  8
0
  6
Continuous
 62
     7
370
    15
100
AcDbCircle
 10
239.1572413644
 20
106.9876973757
 30
0.0
 40
0.6897224824983094
100
AcDbArc
 50
14.8724122838
 51
108.2791487107
  0
ARC
  5
C0
330
1F
100
AcDbEntity
  8
0
  6
Continuous
 62
     7
370
    15
100
AcDbCircle
 10
240.2048371088
 20
107.2659039658
 30
0.0
 40
0.3941851474866154
100
AcDbArc
 50
194.87282968
 51
348.1538495866
  0
ARC
  5
C1
330
1F
100
AcDbEntity
  8
0
  6
Continuous
 62
     7
370
    15
100
AcDbCircle
 10
240.1615257524
 20
108.7653106562
 30
0.0
 40
3.500005577722499
100
AcDbArc
 50
0.1055179885
 51
179.8944820115
  0
LINE
  5
C2
330
1F
100
AcDbEntity
  8
0
  6
Continuous
 62
     7
370
    15
100
AcDbLine
 10
247.1407304667
 20
102.1930054815
 30
0.0
 11
246.0875759982
 21
114.2012771273
 31
0.0
  0
ARC
  5
C3
330
1F
100
AcDbEntity
  8
0
  6
Continuous
 62
     7
370
    15
100
AcDbCircle
 10
246.7426985506
 20
102.1586678756
 30
0.0
 40
0.3995102970457486
100
AcDbArc
 50
264.9295788044
 51
4.9306120127
  0
LINE
  5
C4
330
1F
100
AcDbEntity
  8
0
  6
Continuous
 62
     7
370
    15
100
AcDbLine
 10
234.669799652
 20
102.8113086762
 30
0.0
 11
246.707389798
 21
101.7607209327
 31
0.0
  0
ARC
  5
C5
330
1F
100
AcDbEntity
  8
0
  6
Continuous
 62
     7
370
    15
100
AcDbCircle
 10
234.7041333255
 20
103.209345762
 30
0.0
 40
0.3995151096232662
100
AcDbArc
 50
185.0703039325
 51
265.0700135714
  0
LINE
  5
C6
330
1F
100
AcDbEntity
  8
0
  6
Continuous
 62
     7
370
    15
100
AcDbLine
 10
233.253027048
 20
115.1823099756
 30
0.0
 11
234.3061815165
 21
103.1740373986
 31
0.0
  0
ARC
  5
C7
330
1F
100
AcDbEntity
  8
0
  6
Continuous
 62
     7
370
    15
100
AcDbCircle
 10
233.6510660321
 20
115.2166404963
 30
0.0
 40
0.399516729955361
100
AcDbArc
 50
84.9306782774
 51
184.9295125397
  0
LINE
  5
C8
330
1F
100
AcDbEntity
  8
0
  6
Continuous
 62
     7
370
    15
100
AcDbLine
 10
245.7239653133
 20
114.564006781
 30
0.0
 11
233.6863677166
 21
115.6145945245
 31
0.0
  0
ARC
  5
C9
330
1F
100
AcDbEntity
  8
0
  6
Continuous
 62
     7
370
    15
100
AcDbCircle
 10
245.6896356302
 20
114.16598196
 30
0.0
 40
0.3995025473127883
100
AcDbArc
 50
5.0685637991
 51
85.0704325898
  0
ARC
  5
CA
330
1F
100
AcDbEntity
  8
0
  6
Continuous
 62
     7
370
    15
100
AcDbCircle
 10
233.6510887244
 20
115.2166611027
 30
0.0
 40
0.3795425343584353
100
AcDbArc
 50
84.9308584676
 51
184.9292416481
  0
LINE
  5
CB
330
1F
100
AcDbEntity
  8
0
  6
Continuous
 62
     7
370
    15
100
AcDbLine
 10
233.2729499005
 20
115.1840487549
 30
0.0
 11
234.326104369
 21
103.1757771091
 31
0.0
  0
ARC
  5
CC
330
1F
100
AcDbEntity
  8
0
  6
Continuous
 62
     7
370
    15
100
AcDbCircle
 10
234.7041604963
 20
103.2093202182
 30
0.0
 40
0.3795412699032151
100
AcDbArc
 50
185.0703030999
 51
265.0699750853
  0
LINE
  5
CD
330
1F
100
AcDbEntity
  8
0
  6
Continuous
 62
     7
370
    15
100
AcDbLine
 10
234.6715430878
 20
102.8311830999
 30
0.0
 11
246.7091332339
 21
101.7805953564
 31
0.0
  0
ARC
  5
CE
330
1F
100
AcDbEntity
  8
0
  6
Continuous
 62
     7
370
    15
100
AcDbCircle
 10
246.7426716847
 20
102.1586505216
 30
0.0
 40
0.3795398999531684
100
AcDbArc
 50
264.9303845269
 51
4.9297155888
  0
LINE
  5
CF
330
1F
100
AcDbEntity
  8
0
  6
Continuous
 62
     7
370
    15
100
AcDbLine
 10
247.1208076142
 20
102.191265771
 30
0.0
 11
246.0676531456
 21
114.1995378824
 31
0.0
  0
ARC
  5
D0
330
1F
100
AcDbEntity
  8
0
  6
Continuous
 62
     7
370
    15
100
AcDbCircle
 10
245.6896049232
 20
114.1660028917
 30
0.0
 40
0.3795326785854438
100
AcDbArc
 50
5.0691877785
 51
85.0699320409
  0
LINE
  5
D1
330
1F
100
AcDbEntity
  8
0
  6
Continuous
 62
     7
370
    15
100
AcDbLine
 10
245.7222218774
 20
114.5441314259
 30
0.0
 11
233.6846242808
 21
115.5947191695
 31
0.0
  0
LINE
  5
D2
330
1F
100
AcDbEntity
  8
0
  6
Continuous
 62
     7
370
    15
100
AcDbLine
 10
245.1154093407
 20
113.6345375383
 30
0.0
 11
245.6891040467
 21
114.1818036379
 31
0.0
  0
LINE
  5
D3
330
1F
100
AcDbEntity
  8
0
  6
Continuous
 62
     7
370
    15
100
AcDbLine
 10
234.5705057643
 20
114.3492749946
 30
0.0
 11
233.65150645
 21
115.2323913814
 31
0.0
  0
LINE
  5
D4
330
1F
100
AcDbEntity
  8
0
  6
Continuous
 62
     7
370
    15
100
AcDbLine
 10
235.2783556245
 20
103.8214472176
 30
0.0
 11
234.7046609186
 21
103.22411927
 31
0.0
  0
LINE
  5
D5
330
1F
100
AcDbEntity
  8
0
  6
Continuous
 62
     7
370
    15
100
AcDbLine
 10
245.8232517503
 20
103.1239387633
 30
0.0
 11
246.7422510646
 21
102.1735315265
 31
0.0
  0
ARC
  5
D6
330
1F
100
AcDbEntity
  8
0
  6
Continuous
 62
     7
370
    15
100
AcDbCircle
 10
236.5325595394
 20
112.3408431654
 30
0.0
 40
0.9987760379598815
100
AcDbArc
 50
84.9300313949
 51
184.9305534652
  0
LINE
  5
D7
330
1F
100
AcDbEntity
  8
0
  6
Continuous
 62
     7
370
    15
100
AcDbLine
 10
243.3578322791
 20
112.7477354424
 30
0.0
 11
236.6208235882
 21
113.3357115144
 31
0.0
  0
ARC
  5
D8
330
1F
100
AcDbEntity
  8
0
  6
Continuous
 62
     7
370
    15
100
AcDbCircle
 10
243.2720015644
 20
111.7526546516
 30
0.0
 40
0.9987755963486994
100
AcDbArc
 50
5.0695183054
 51
85.0701530683
  0
LINE
  5
D9
330
1F
100
AcDbEntity
  8
0
  6
Continuous
 62
     7
370
    15
100
AcDbLine
 10
244.8562855981
 20
105.120315315
 30
0.0
 11
244.2668701671
 21
111.8409108424
 31
0.0
  0
ARC
  5
DA
330
1F
100
AcDbEntity
  8
0
  6
Continuous
 62
     7
370
    15
100
AcDbCircle
 10
243.8611921187
 20
105.0344841654
 30
0.0
 40
0.998788275341886
100
AcDbArc
 50
264.9304309541
 51
4.9298092385
  0
LINE
  5
DB
330
1F
100
AcDbEntity
  8
0
  6
Continuous
 62
     7
370
    15
100
AcDbLine
 10
237.0359252356
 20
104.6275795491
 30
0.0
 11
243.7729339264
 21
104.0396030115
 31
0.0
  0
ARC
  5
DC
330
1F
100
AcDbEntity
  8
0
  6
Continuous
 62
     7
370
    15
100
AcDbCircle
 10
237.1217609702
 20
105.6226654174
 30
0.0
 40
0.9987810864425491
100
AcDbArc
 50
185.0698096013
 51
265.0698911942
  0
LINE
  5
DD
330
1F
100
AcDbEntity
  8
0
  6
Continuous
 62
     7
370
    15
100
AcDbLine
 10
235.5374793671
 20
112.2550001422
 30
0.0
 11
236.1268873476
 21
105.5344036834
 31
0.0
  0
CIRCLE
  5
DE
330
1F
100
AcDbEntity
  8
0
  6
Continuous
 62
     7
370
    15
100
AcDbCircle
 10
240.1989601417
 20
108.6809690056
 30
0.0
 40
3.797295837305434
  0
ARC
  5
DF
330
1F
100
AcDbEntity
  8
0
  6
Continuous
 62
     7
370
    15
100
AcDbCircle
 10
240.1968824826
 20
108.7746640853
 30
0.0
 40
3.800007055742727
100
AcDbArc
 50
180.1023279247
 51
359.8976720753
  0
SPLINE
  5
E0
330
1F
100
AcDbEntity
  8
0
  6
Continuous
 62
     7
370
    15
100
AcDbSpline
210
0.0
220
0.0
230
1.0
 70
     8
 71
     3
 72
    11
 73
     7
 74
     0
 42
0.00000001
 43
0.00000001
 12
1.0
 22
0.0
 32
0.0
 13
1.0
 23
0.0
 33
0.0
 40
0.0
 40
0.0
 40
0.0
 40
0.0
 40
0.0076316477638101
 40
0.320988859389263
 40
0.6632197122899385
 40
0.9999999999999999
 40
0.9999999999999999
 40
0.9999999999999999
 40
0.9999999999999999
 10
235.0594352148514
 20
113.8562817180367
 30
0.0
 10
235.0583182598296
 20
113.857457750863
 30
0.0
 10
235.0113388748331
 20
113.9069219618971
 30
0.0
 10
234.9073401675011
 20
114.0150235392762
 30
0.0
 10
234.7378646159936
 20
114.1865802449336
 30
0.0
 10
234.6259927084497
 20
114.2953344088932
 30
0.0
 10
234.5705057643395
 20
114.3492749946029
 30
0.0
  0
SPLINE
  5
E1
330
1F
100
AcDbEntity
  8
0
  6
Continuous
 62
     7
370
    15
100
AcDbSpline
210
0.0
220
0.0
230
1.0
 70
     8
 71
     3
 72
    11
 73
     7
 74
     0
 42
0.00000001
 43
0.00000001
 12
1.0
 22
0.0
 32
0.0
 13
1.0
 23
0.0
 33
0.0
 40
0.0
 40
0.0
 40
0.0
 40
0.0
 40
0.0081128037277396
 40
0.3263693373670081
 40
0.662768527068263
 40
1.0
 40
1.0
 40
1.0
 40
1.0
 10
244.6247513555031
 20
113.1415908278735
 30
0.0
 10
244.6259426154196
 20
113.1428480652662
 30
0.0
 10
244.6738657160656
 20
113.1934253685709
 30
0.0
 10
244.7793973456857
 20
113.3027298879575
 30
0.0
 10
244.9508276098883
 20
113.4756152887058
 30
0.0
 10
245.0605035948644
 20
113.5815198394276
 30
0.0
 10
245.1154093407135
 20
113.634537538311
 30
0.0
  0
SPLINE
  5
E2
330
1F
100
AcDbEntity
  8
0
  6
Continuous
 62
     7
370
    15
100
AcDbSpline
210
0.0
220
0.0
230
1.0
 70
     8
 71
     3
 72
    11
 73
     7
 74
     0
 42
0.00000001
 43
0.00000001
 12
1.0
 22
0.0
 32
0.0
 13
1.0
 23
0.0
 33
0.0
 40
0.0
 40
0.0
 40
0.0
 40
0.0
 40
0.337233857943341
 40
0.6736350548491606
 40
0.9918867894963986
 40
1.0
 40
1.0
 40
1.0
 40
1.0
 10
235.2783556245308
 20
103.8214472176344
 30
0.0
 10
235.3332612575806
 20
103.8779675684304
 30
0.0
 10
235.4429369566833
 20
103.9908687161405
 30
0.0
 10
235.6143675890871
 20
104.1600810910317
 30
0.0
 10
235.7198948539591
 20
104.2611564769953
 30
0.0
 10
235.7678148994312
 20
104.306299360251
 30
0.0
 10
235.7690061591606
 20
104.3074215816171
 30
0.0
  0
SPLINE
  5
E3
330
1F
100
AcDbEntity
  8
0
  6
Continuous
 62
     7
370
    15
100
AcDbSpline
210
0.0
220
0.0
230
1.0
 70
     8
 71
     3
 72
    11
 73
     7
 74
     0
 42
0.00000001
 43
0.00000001
 12
1.0
 22
0.0
 32
0.0
 13
1.0
 23
0.0
 33
0.0
 40
0.0
 40
0.0
 40
0.0
 40
0.0
 40
0.336781373175937
 40
0.6790155770847792
 40
0.9923740515445354
 40
1.0
 40
1.0
 40
1.0
 40
1.0
 10
245.8232517503243
 20
103.1239387633116
 30
0.0
 10
245.7677618725323
 20
103.1807082731136
 30
0.0
 10
245.6558836797572
 20
103.295166448444
 30
0.0
 10
245.4864513238116
 20
103.4616690748949
 30
0.0
 10
245.3823526101818
 20
103.5611824850329
 30
0.0
 10
245.3354442004692
 20
103.6053690211945
 30
0.0
 10
245.3343297503929
 20
103.6064188049943
 30
0.0
  0
LINE
  5
E4
330
1F
100
AcDbEntity
  8
0
  6
HIDDEN
 62
     7
370
     0
100
AcDbLine
 10
177.1422538124
 20
99.3592013659
 30
0.0
 11
177.1422538124
 21
138.1592025103
 31
0.0
  0
LINE
  5
E5
330
1F
100
AcDbEntity
  8
0
  6
HIDDEN
 62
     7
370
     0
100
AcDbLine
 10
157.1422542594
 20
138.4592020007
 30
0.0
 11
157.1422542594
 21
99.0592018755
 31
0.0
  0
SPLINE
  5
E6
330
1F
100
AcDbEntity
  8
0
  6
HIDDEN
 62
     7
370
     0
100
AcDbSpline
210
0.0
220
0.0
230
1.0
 70
     8
 71
     3
 72
    58
 73
    54
 74
     0
 42
0.00000001
 43
0.00000001
 12
1.0
 22
0.0
 32
0.0
 13
1.0
 23
0.0
 33
0.0
 40
-0.0624999999999997
 40
-0.0624999999999997
 40
0.0
 40
0.0
 40
0.0312500000000001
 40
0.0312500000000001
 40
0.0625000000000003
 40
0.0625000000000003
 40
0.0937500000000004
 40
0.0937500000000004
 40
0.1250000000000005
 40
0.1250000000000005
 40
0.1875000000000005
 40
0.1875000000000005
 40
0.2500000000000005
 40
0.2500000000000005
 40
0.2812500000000004
 40
0.2812500000000004
 40
0.3125000000000004
 40
0.3125000000000004
 40
0.3437500000000004
 40
0.3437500000000004
 40
0.3750000000000003
 40
0.3750000000000003
 40
0.4062500000000003
 40
0.4062500000000003
 40
0.4375000000000003
 40
0.4375000000000003
 40
0.4687500000000003
 40
0.4687500000000003
 40
0.5000000000000003
 40
0.5000000000000003
 40
0.5625000000000003
 40
0.5625000000000003
 40
0.6250000000000004
 40
0.6250000000000004
 40
0.6562500000000004
 40
0.6562500000000004
 40
0.6875000000000004
 40
0.6875000000000004
 40
0.7187500000000004
 40
0.7187500000000004
 40
0.7500000000000004
 40
0.7500000000000004
 40
0.7812500000000006
 40
0.7812500000000006
 40
0.8125000000000006
 40
0.8125000000000006
 40
0.8437500000000006
 40
0.8437500000000006
 40
0.8750000000000006
 40
0.8750000000000006
 40
0.9375000000000003
 40
0.9375000000000003
 40
1.0
 40
1.0
 40
1.03125
 40
1.03125
 10
167.1422542594414
 20
118.4947658236359
 30
0.0
 10
167.1422542594414
 20
118.8914199953079
 30
0.0
 10
167.1552362971136
 20
119.0214121561484
 30
0.0
 10
167.2060870993719
 20
119.2771317686007
 30
0.0
 10
167.2445790034248
 20
119.4041904524618
 30
0.0
 10
167.3449942891513
 20
119.6463536501206
 30
0.0
 10
167.4064304284243
 20
119.7611954345054
 30
0.0
 10
167.5515639047351
 20
119.9785376320756
 30
0.0
 10
167.6359855935862
 20
120.0813792799233
 30
0.0
 10
167.9125857677511
 20
120.3579227606749
 30
0.0
 10
168.1355846790182
 20
120.506905396807
 30
0.0
 10
168.6168191966039
 20
120.7064484603617
 30
0.0
 10
168.8801186121129
 20
120.7590589333932
 30
0.0
 10
169.2716820521531
 20
120.7592729921457
 30
0.0
 10
169.4042696627578
 20
120.7462741427401
 30
0.0
 10
169.6608353683571
 20
120.6952240587137
 30
0.0
 10
169.7855451345376
 20
120.6574528199015
 30
0.0
 10
170.0277843195646
 20
120.557260911789
 30
0.0
 10
170.1448009733383
 20
120.4946755179645
 30
0.0
 10
170.3614441781846
 20
120.349970432254
 30
0.0
 10
170.4624509346431
 20
120.2673510908737
 30
0.0
 10
170.6492570302997
 20
120.0807070560837
 30
0.0
 10
170.7319705658315
 20
119.9797612081238
 30
0.0
 10
170.8768406952069
 20
119.7632800044421
 30
0.0
 10
170.9395109913036
 20
119.6463628394337
 30
0.0
 10
171.0399389293398
 20
119.4041663702352
 30
0.0
 10
171.0778101082695
 20
119.2795053793317
 30
0.0
 10
171.1290725060452
 20
119.0231060302637
 30
0.0
 10
171.1422061466859
 20
118.8904951049659
 30
0.0
 10
171.1423500798247
 20
118.4988204926308
 30
0.0
 10
171.0899848225599
 20
118.2355364729702
 30
0.0
 10
170.8908241592092
 20
117.7540237591104
 30
0.0
 10
170.7420264858473
 20
117.5309026720654
 30
0.0
 10
170.4657258272611
 20
117.2540705235579
 30
0.0
 10
170.3629607802014
 20
117.1695633092736
 30
0.0
 10
170.145743506407
 20
117.0242423675877
 30
0.0
 10
170.0309738129692
 20
116.9627201443256
 30
0.0
 10
169.7889872758246
 20
116.8621237410537
 30
0.0
 10
169.6619047029332
 20
116.823495852965
 30
0.0
 10
169.40623000293
 20
116.7724177428989
 30
0.0
 10
169.2762894855857
 20
116.7593286031317
 30
0.0
 10
169.0120261178245
 20
116.7590770847731
 30
0.0
 10
168.8818152241775
 20
116.7719515548295
 30
0.0
 10
168.6260652787439
 20
116.8225704519615
 30
0.0
 10
168.4990478943765
 20
116.8609182707573
 30
0.0
 10
168.2566961666248
 20
116.9611523909507
 30
0.0
 10
168.1417933873385
 20
117.0224965779407
 30
0.0
 10
167.9243712221895
 20
117.1674015824699
 30
0.0
 10
167.8214348247448
 20
117.2517404745918
 30
0.0
 10
167.5445976675879
 20
117.5281415876336
 30
0.0
 10
167.3954424265237
 20
117.7509852206761
 30
0.0
 10
167.1954718412885
 20
118.2320485019266
 30
0.0
 10
167.1422542594414
 20
118.4947658236359
 30
0.0
 10
167.1422542594414
 20
118.8914199953079
 30
0.0
  0
SPLINE
  5
E7
330
1F
100
AcDbEntity
  8
0
  6
HIDDEN
 62
     7
370
     0
100
AcDbSpline
210
0.0
220
0.0
230
1.0
 70
     8
 71
     3
 72
    12
 73
     8
 74
     0
 42
0.00000001
 43
0.00000001
 12
1.0
 22
0.0
 32
0.0
 13
1.0
 23
0.0
 33
0.0
 40
0.0
 40
0.0
 40
0.0
 40
0.0
 40
0.250000000000002
 40
0.250000000000002
 40
0.500000000000004
 40
0.500000000000004
 40
1.0
 40
1.0
 40
1.0
 40
1.0
 10
164.0741562614406
 20
112.9299889424322
 30
0.0
 10
164.036644375396
 20
112.9299889424322
 30
0.0
 10
164.0013570276912
 20
112.9151841281454
 30
0.0
 10
163.9424271794528
 20
112.8715922550196
 30
0.0
 10
163.9189014529837
 20
112.8440788289336
 30
0.0
 10
163.8586426652157
 20
112.75494709682
 30
0.0
 10
163.8330479029263
 20
112.6885612462022
 30
0.0
 10
163.8143486403053
 20
112.6209568110248
 30
0.0
  0
LINE
  5
E8
330
1F
100
AcDbEntity
  8
0
  6
HIDDEN
 62
     7
370
     0
100
AcDbLine
 10
166.2103521787
 20
112.929988751
 30
0.0
 11
164.0741561689
 21
112.929988751
 31
0.0
  0
SPLINE
  5
E9
330
1F
100
AcDbEntity
  8
0
  6
HIDDEN
 62
     7
370
     0
100
AcDbSpline
210
0.0
220
0.0
230
1.0
 70
     8
 71
     3
 72
    12
 73
     8
 74
     0
 42
0.00000001
 43
0.00000001
 12
1.0
 22
0.0
 32
0.0
 13
1.0
 23
0.0
 33
0.0
 40
0.0
 40
0.0
 40
0.0
 40
0.0
 40
0.5
 40
0.5
 40
0.75
 40
0.75
 40
1.0
 40
1.0
 40
1.0
 40
1.0
 10
166.4701598785775
 20
112.6209568110249
 30
0.0
 10
166.4514666454471
 20
112.6885394474652
 30
0.0
 10
166.4258113480353
 20
112.7550220169426
 30
0.0
 10
166.3656507253489
 20
112.8440170998402
 30
0.0
 10
166.3415784135945
 20
112.8720189968393
 30
0.0
 10
166.283196893244
 20
112.9150953975045
 30
0.0
 10
166.2477280655909
 20
112.9299889424323
 30
0.0
 10
166.2103522574422
 20
112.9299889424323
 30
0.0
  0
ELLIPSE
  5
EA
330
1F
100
AcDbEntity
  8
0
  6
HIDDEN
 62
     7
370
     0
100
AcDbEllipse
 10
156.193325087
 20
118.7592019381
 30
0.0
 11
-9.367417879781756
 21
19.74174915274998
 31
0.0
210
0.0
220
0.0
230
1.0
 40
0.3419987131
 41
3.292664382516907
 42
4.239566697061008
  0
SPLINE
  5
EB
330
1F
100
AcDbEntity
  8
0
  6
HIDDEN
 62
     7
370
     0
100
AcDbSpline
210
0.0
220
0.0
230
1.0
 70
     8
 71
     3
 72
    12
 73
     8
 74
     0
 42
0.00000001
 43
0.00000001
 12
1.0
 22
0.0
 32
0.0
 13
1.0
 23
0.0
 33
0.0
 40
0.0
 40
0.0
 40
0.0
 40
0.0
 40
0.2499999999999972
 40
0.2499999999999972
 40
0.4999999999999944
 40
0.4999999999999944
 40
1.0
 40
1.0
 40
1.0
 40
1.0
 10
166.2103522574422
 20
99.6275455578505
 30
0.0
 10
166.2478641434869
 20
99.6275455578505
 30
0.0
 10
166.2831514911916
 20
99.63204910211309
 30
0.0
 10
166.34208133943
 20
99.64542230156638
 30
0.0
 10
166.365607065899
 20
99.6539072041375
 30
0.0
 10
166.4258658536672
 20
99.68165500797207
 30
0.0
 10
166.4514606159565
 20
99.70264487171247
 30
0.0
 10
166.4701598785775
 20
99.72444565490197
 30
0.0
  0
LINE
  5
EC
330
1F
100
AcDbEntity
  8
0
  6
HIDDEN
 62
     7
370
     0
100
AcDbLine
 10
164.0741561689
 20
99.6275452019
 30
0.0
 11
166.2103521787
 21
99.6275452019
 31
0.0
  0
SPLINE
  5
ED
330
1F
100
AcDbEntity
  8
0
  6
HIDDEN
 62
     7
370
     0
100
AcDbSpline
210
0.0
220
0.0
230
1.0
 70
     8
 71
     3
 72
    12
 73
     8
 74
     0
 42
0.00000001
 43
0.00000001
 12
1.0
 22
0.0
 32
0.0
 13
1.0
 23
0.0
 33
0.0
 40
0.0
 40
0.0
 40
0.0
 40
0.0
 40
0.5
 40
0.5
 40
0.75
 40
0.75
 40
1.0
 40
1.0
 40
1.0
 40
1.0
 10
163.8143486403053
 20
99.72444565490197
 30
0.0
 10
163.8330418734357
 20
99.70265190127402
 30
0.0
 10
163.8586971708475
 20
99.6816317395644
 30
0.0
 10
163.918857793534
 20
99.65392639360067
 30
0.0
 10
163.9429301052883
 20
99.64529117740729
 30
0.0
 10
164.0013116256389
 20
99.63207653218072
 30
0.0
 10
164.0367804532919
 20
99.6275455578505
 30
0.0
 10
164.0741562614406
 20
99.62754555785051
 30
0.0
  0
ELLIPSE
  5
EE
330
1F
100
AcDbEntity
  8
0
  6
HIDDEN
 62
     7
370
     0
100
AcDbEllipse
 10
174.0911834319
 20
118.7592019381
 30
0.0
 11
9.367417879781584
 21
19.74174915274997
 31
0.0
210
0.0
220
0.0
230
1.0
 40
0.3419987131
 41
2.043618610118588
 42
2.990520924662715
  0
SPLINE
  5
EF
330
1F
100
AcDbEntity
  8
0
  6
HIDDEN
 62
     7
370
     0
100
AcDbSpline
210
0.0
220
0.0
230
1.0
 70
     8
 71
     3
 72
    12
 73
     8
 74
     0
 42
0.00000001
 43
0.00000001
 12
1.0
 22
0.0
 32
0.0
 13
1.0
 23
0.0
 33
0.0
 40
0.0
 40
0.0
 40
0.0
 40
0.0
 40
0.2499999999999993
 40
0.2499999999999993
 40
0.4999999999999987
 40
0.4999999999999987
 40
1.0
 40
1.0
 40
1.0
 40
1.0
 10
164.0741562614406
 20
137.8908583183174
 30
0.0
 10
164.036644375396
 20
137.8908583183174
 30
0.0
 10
164.0013570276912
 20
137.8863547740548
 30
0.0
 10
163.9424271794528
 20
137.8729815746015
 30
0.0
 10
163.9189014529838
 20
137.8644966720304
 30
0.0
 10
163.8586426652157
 20
137.8367488681958
 30
0.0
 10
163.8330479029263
 20
137.8157590044555
 30
0.0
 10
163.8143486403053
 20
137.7939582212659
 30
0.0
  0
LINE
  5
F0
330
1F
100
AcDbEntity
  8
0
  6
HIDDEN
 62
     7
370
     0
100
AcDbLine
 10
166.2103521787
 20
137.8908586742
 30
0.0
 11
164.0741561689
 21
137.8908586742
 31
0.0
  0
SPLINE
  5
F1
330
1F
100
AcDbEntity
  8
0
  6
HIDDEN
 62
     7
370
     0
100
AcDbSpline
210
0.0
220
0.0
230
1.0
 70
     8
 71
     3
 72
    12
 73
     8
 74
     0
 42
0.00000001
 43
0.00000001
 12
1.0
 22
0.0
 32
0.0
 13
1.0
 23
0.0
 33
0.0
 40
0.0
 40
0.0
 40
0.0
 40
0.0
 40
0.5
 40
0.5
 40
0.75
 40
0.75
 40
1.0
 40
1.0
 40
1.0
 40
1.0
 10
166.4701598785775
 20
137.7939582212659
 30
0.0
 10
166.4514666454471
 20
137.8157519748939
 30
0.0
 10
166.4258113480353
 20
137.8367721366035
 30
0.0
 10
166.3656507253488
 20
137.8644774825672
 30
0.0
 10
166.3415784135945
 20
137.8731126987606
 30
0.0
 10
166.2831968932439
 20
137.8863273439871
 30
0.0
 10
166.2477280655909
 20
137.8908583183174
 30
0.0
 10
166.2103522574422
 20
137.8908583183174
 30
0.0
  0
ELLIPSE
  5
F2
330
1F
100
AcDbEntity
  8
0
  6
HIDDEN
 62
     7
370
     0
100
AcDbEllipse
 10
156.193325087
 20
118.7592019381
 30
0.0
 11
9.36741787978184
 21
19.74174915274997
 31
0.0
210
0.0
220
0.0
230
1.0
 40
0.3419987131
 41
5.18521126370841
 42
6.132113578252568
  0
SPLINE
  5
F3
330
1F
100
AcDbEntity
  8
0
  6
HIDDEN
 62
     7
370
     0
100
AcDbSpline
210
0.0
220
0.0
230
1.0
 70
     8
 71
     3
 72
    12
 73
     8
 74
     0
 42
0.00000001
 43
0.00000001
 12
1.0
 22
0.0
 32
0.0
 13
1.0
 23
0.0
 33
0.0
 40
0.0
 40
0.0
 40
0.0
 40
0.0
 40
0.2499999999999984
 40
0.2499999999999984
 40
0.4999999999999968
 40
0.4999999999999968
 40
1.0
 40
1.0
 40
1.0
 40
1.0
 10
166.2103522574422
 20
124.5884149337358
 30
0.0
 10
166.2478641434869
 20
124.5884149337358
 30
0.0
 10
166.2831514911916
 20
124.6032197480227
 30
0.0
 10
166.34208133943
 20
124.6468116211485
 30
0.0
 10
166.365607065899
 20
124.6743250472345
 30
0.0
 10
166.4258658536672
 20
124.763456779348
 30
0.0
 10
166.4514606159564
 20
124.8298426299658
 30
0.0
 10
166.4701598785775
 20
124.8974470651432
 30
0.0
  0
LINE
  5
F4
330
1F
100
AcDbEntity
  8
0
  6
HIDDEN
 62
     7
370
     0
100
AcDbLine
 10
164.0741561689
 20
124.5884151252
 30
0.0
 11
166.2103521787
 21
124.5884151252
 31
0.0
  0
SPLINE
  5
F5
330
1F
100
AcDbEntity
  8
0
  6
HIDDEN
 62
     7
370
     0
100
AcDbSpline
210
0.0
220
0.0
230
1.0
 70
     8
 71
     3
 72
    12
 73
     8
 74
     0
 42
0.00000001
 43
0.00000001
 12
1.0
 22
0.0
 32
0.0
 13
1.0
 23
0.0
 33
0.0
 40
0.0
 40
0.0
 40
0.0
 40
0.0
 40
0.4999999999999977
 40
0.4999999999999977
 40
0.7499999999999988
 40
0.7499999999999988
 40
1.0
 40
1.0
 40
1.0
 40
1.0
 10
163.8143486403053
 20
124.8974470651432
 30
0.0
 10
163.8330418734357
 20
124.8298644287028
 30
0.0
 10
163.8586971708475
 20
124.7633818592254
 30
0.0
 10
163.918857793534
 20
124.6743867763279
 30
0.0
 10
163.9429301052883
 20
124.6463848793288
 30
0.0
 10
164.0013116256389
 20
124.6033084786636
 30
0.0
 10
164.0367804532918
 20
124.5884149337358
 30
0.0
 10
164.0741562614406
 20
124.5884149337358
 30
0.0
  0
ELLIPSE
  5
F6
330
1F
100
AcDbEntity
  8
0
  6
HIDDEN
 62
     7
370
     0
100
AcDbEllipse
 10
174.0911834319
 20
118.7592019381
 30
0.0
 11
-9.367417879781726
 21
19.74174915274997
 31
0.0
210
0.0
220
0.0
230
1.0
 40
0.3419987131
 41
0.1510717289270583
 42
1.09797404347119
  0
LINE
  5
F7
330
1F
100
AcDbEntity
  8
0
  6
HIDDEN
 62
     7
370
     0
100
AcDbLine
 10
157.1422542594
 20
102.959202701
 30
0.0
 11
157.1422542594
 21
134.5428285243
 31
0.0
  0
SPLINE
  5
F8
330
1F
100
AcDbEntity
  8
0
  6
HIDDEN
 62
     7
370
     0
100
AcDbSpline
210
0.0
220
0.0
230
1.0
 70
     8
 71
     3
 72
    18
 73
    14
 74
     0
 42
0.00000001
 43
0.00000001
 12
1.0
 22
0.0
 32
0.0
 13
1.0
 23
0.0
 33
0.0
 40
0.0
 40
0.0
 40
0.0
 40
0.0
 40
0.2500000000000013
 40
0.2500000000000013
 40
0.5000000000000027
 40
0.5000000000000027
 40
0.625000000000002
 40
0.625000000000002
 40
0.7500000000000013
 40
0.7500000000000013
 40
0.8750000000000007
 40
0.8750000000000007
 40
1.0
 40
1.0
 40
1.0
 40
1.0
 10
155.8861699418784
 20
128.5836418562352
 30
0.0
 10
155.9204709864112
 20
128.4756316704376
 30
0.0
 10
155.9582912577079
 20
128.3683545824097
 30
0.0
 10
156.0449095781688
 20
128.1568578850931
 30
0.0
 10
156.0932809129122
 20
128.0524715349234
 30
0.0
 10
156.1826838950307
 20
127.9015966122791
 30
0.0
 10
156.215281178908
 20
127.8522516092435
 30
0.0
 10
156.2916630828529
 20
127.7576459707733
 30
0.0
 10
156.3347015201936
 20
127.7126500360187
 30
0.0
 10
156.4405145530255
 20
127.6417222633608
 30
0.0
 10
156.5055529777566
 20
127.6177757194542
 30
0.0
 10
156.6387050495592
 20
127.6300563835251
 30
0.0
 10
156.6980742300223
 20
127.66337334153
 30
0.0
 10
156.7472773705661
 20
127.7042082277547
 30
0.0
  0
SPLINE
  5
F9
330
1F
100
AcDbEntity
  8
0
  6
HIDDEN
 62
     7
370
     0
100
AcDbSpline
210
0.0
220
0.0
230
1.0
 70
     8
 71
     3
 72
    16
 73
    12
 74
     0
 42
0.00000001
 43
0.00000001
 12
1.0
 22
0.0
 32
0.0
 13
1.0
 23
0.0
 33
0.0
 40
0.0
 40
0.0
 40
0.0
 40
0.0
 40
0.0624999999999987
 40
0.0624999999999987
 40
0.1249999999999974
 40
0.1249999999999974
 40
0.2499999999999989
 40
0.2499999999999989
 40
0.4999999999999976
 40
0.4999999999999976
 40
1.0
 40
1.0
 40
1.0
 40
1.0
 10
156.7472773705353
 20
127.7042082277841
 30
0.0
 10
156.7593472038112
 20
127.7142252767644
 30
0.0
 10
156.7736228587445
 20
127.7231843838201
 30
0.0
 10
156.8050872708689
 20
127.7310547792143
 30
0.0
 10
156.8205877956793
 20
127.728697288572
 30
0.0
 10
156.8560266922862
 20
127.711721596394
 30
0.0
 10
156.8696193083896
 20
127.6911731052264
 30
0.0
 10
156.9026136267824
 20
127.6292307782127
 30
0.0
 10
156.9134010201012
 20
127.5828352280075
 30
0.0
 10
156.9384542673803
 20
127.439899199313
 30
0.0
 10
156.9422542594415
 20
127.3403364824276
 30
0.0
 10
156.9422542594416
 20
127.238569077781
 30
0.0
  0
LINE
  5
FA
330
1F
100
AcDbEntity
  8
0
  6
HIDDEN
 62
     7
370
     0
100
AcDbLine
 10
156.9422542645
 20
110.2798349278
 30
0.0
 11
156.9422542645
 21
127.2385689484
 31
0.0
  0
SPLINE
  5
FB
330
1F
100
AcDbEntity
  8
0
  6
HIDDEN
 62
     7
370
     0
100
AcDbSpline
210
0.0
220
0.0
230
1.0
 70
     8
 71
     3
 72
    16
 73
    12
 74
     0
 42
0.00000001
 43
0.00000001
 12
1.0
 22
0.0
 32
0.0
 13
1.0
 23
0.0
 33
0.0
 40
0.0
 40
0.0
 40
0.0
 40
0.0
 40
0.5000000000000047
 40
0.5000000000000047
 40
0.7500000000000023
 40
0.7500000000000023
 40
0.8750000000000011
 40
0.8750000000000011
 40
0.9375000000000007
 40
0.9375000000000007
 40
1.0
 40
1.0
 40
1.0
 40
1.0
 10
156.9422542594414
 20
110.2798347983867
 30
0.0
 10
156.9422542594414
 20
110.1778246448066
 30
0.0
 10
156.9383708342825
 20
110.0783002695534
 30
0.0
 10
156.9135555090078
 20
109.9363151735427
 30
0.0
 10
156.9027160612953
 20
109.8893218729722
 30
0.0
 10
156.8695002792465
 20
109.8270291426106
 30
0.0
 10
156.8561185356177
 20
109.8067477103255
 30
0.0
 10
156.8206088857555
 20
109.7897060021251
 30
0.0
 10
156.8051919192547
 20
109.7873197471089
 30
0.0
 10
156.7734908971061
 20
109.7952556769669
 30
0.0
 10
156.7593446121553
 20
109.8041807503416
 30
0.0
 10
156.7472773705657
 20
109.8141956484135
 30
0.0
  0
SPLINE
  5
FC
330
1F
100
AcDbEntity
  8
0
  6
HIDDEN
 62
     7
370
     0
100
AcDbSpline
210
0.0
220
0.0
230
1.0
 70
     8
 71
     3
 72
    18
 73
    14
 74
     0
 42
0.00000001
 43
0.00000001
 12
1.0
 22
0.0
 32
0.0
 13
1.0
 23
0.0
 33
0.0
 40
0.0
 40
0.0
 40
0.0
 40
0.0
 40
0.125
 40
0.125
 40
0.25
 40
0.25
 40
0.375
 40
0.375
 40
0.5
 40
0.5
 40
0.75
 40
0.75
 40
1.0
 40
1.0
 40
1.0
 40
1.0
 10
156.7472773705718
 20
109.8141956484209
 30
0.0
 10
156.6985718784297
 20
109.8546175241023
 30
0.0
 10
156.6400617701028
 20
109.8876496455701
 30
0.0
 10
156.5083326518107
 20
109.9009267975229
 30
0.0
 10
156.4435737154702
 20
109.8779732105427
 30
0.0
 10
156.3383627426106
 20
109.8089200136231
 30
0.0
 10
156.2951463671707
 20
109.7644523617822
 30
0.0
 10
156.2189678620587
 20
109.6712827024122
 30
0.0
 10
156.1861129006789
 20
109.6221403328514
 30
0.0
 10
156.0957446208451
 20
109.4709305979116
 30
0.0
 10
156.046321386475
 20
109.3647758283833
 30
0.0
 10
155.9586729314268
 20
109.1511942127218
 30
0.0
 10
155.920613759224
 20
109.0432217814866
 30
0.0
 10
155.8861699418784
 20
108.9347620199326
 30
0.0
  0
SPLINE
  5
FD
330
1F
100
AcDbEntity
  8
0
  6
HIDDEN
 62
     7
370
     0
100
AcDbSpline
210
0.0
220
0.0
230
1.0
 70
     8
 71
     3
 72
     8
 73
     4
 74
     0
 42
0.00000001
 43
0.00000001
 12
1.0
 22
0.0
 32
0.0
 13
1.0
 23
0.0
 33
0.0
 40
0.0
 40
0.0
 40
0.0
 40
0.0
 40
1.0
 40
1.0
 40
1.0
 40
1.0
 10
155.8861699418778
 20
108.9347620199321
 30
0.0
 10
155.8618562379877
 20
108.858200862382
 30
0.0
 10
155.8403595960316
 20
108.7817754912488
 30
0.0
 10
155.8209339158817
 20
108.7056826204771
 30
0.0
  0
SPLINE
  5
FE
330
1F
100
AcDbEntity
  8
0
  6
HIDDEN
 62
     7
370
     0
100
AcDbSpline
210
0.0
220
0.0
230
1.0
 70
     8
 71
     3
 72
     8
 73
     4
 74
     0
 42
0.00000001
 43
0.00000001
 12
1.0
 22
0.0
 32
0.0
 13
1.0
 23
0.0
 33
0.0
 40
0.0
 40
0.0
 40
0.0
 40
0.0
 40
1.0
 40
1.0
 40
1.0
 40
1.0
 10
155.8209339158817
 20
104.9341379300787
 30
0.0
 10
155.840359342775
 20
104.9306407264914
 30
0.0
 10
155.861855896744
 20
104.9286244088492
 30
0.0
 10
155.8861699418784
 20
104.9280135554053
 30
0.0
  0
SPLINE
  5
FF
330
1F
100
AcDbEntity
  8
0
  6
HIDDEN
 62
     7
370
     0
100
AcDbSpline
210
0.0
220
0.0
230
1.0
 70
     8
 71
     3
 72
     8
 73
     4
 74
     0
 42
0.00000001
 43
0.00000001
 12
1.0
 22
0.0
 32
0.0
 13
1.0
 23
0.0
 33
0.0
 40
0.0
 40
0.0
 40
0.0
 40
0.0
 40
1.0
 40
1.0
 40
1.0
 40
1.0
 10
156.9194032463354
 20
104.8386551643471
 30
0.0
 10
156.9383401785012
 20
104.8107007269457
 30
0.0
 10
156.9422542594415
 20
104.7906168755894
 30
0.0
 10
156.9422542594416
 20
104.774390031424
 30
0.0
  0
LINE
  5
100
330
1F
100
AcDbEntity
  8
0
  6
HIDDEN
 62
     7
370
     0
100
AcDbLine
 10
156.9422542645
 20
104.6693819629
 30
0.0
 11
156.9422542645
 21
104.7743904458
 31
0.0
  0
LINE
  5
101
330
1F
100
AcDbEntity
  8
0
  6
HIDDEN
 62
     7
370
     0
100
AcDbLine
 10
156.9422542645
 20
132.7440134303
 30
0.0
 11
156.9422542645
 21
132.8490219133
 31
0.0
  0
SPLINE
  5
102
330
1F
100
AcDbEntity
  8
0
  6
HIDDEN
 62
     7
370
     0
100
AcDbSpline
210
0.0
220
0.0
230
1.0
 70
     8
 71
     3
 72
     8
 73
     4
 74
     0
 42
0.00000001
 43
0.00000001
 12
1.0
 22
0.0
 32
0.0
 13
1.0
 23
0.0
 33
0.0
 40
0.0
 40
0.0
 40
0.0
 40
0.0
 40
1.0
 40
1.0
 40
1.0
 40
1.0
 10
155.8861699418781
 20
132.5903903207625
 30
0.0
 10
155.8618558967438
 20
132.5897794673186
 30
0.0
 10
155.8403593427749
 20
132.5877631496764
 30
0.0
 10
155.8209339158817
 20
132.5842659460891
 30
0.0
  0
SPLINE
  5
103
330
1F
100
AcDbEntity
  8
0
  6
HIDDEN
 62
     7
370
     0
100
AcDbSpline
210
0.0
220
0.0
230
1.0
 70
     8
 71
     3
 72
     8
 73
     4
 74
     0
 42
0.00000001
 43
0.00000001
 12
1.0
 22
0.0
 32
0.0
 13
1.0
 23
0.0
 33
0.0
 40
0.0
 40
0.0
 40
0.0
 40
0.0
 40
1.0
 40
1.0
 40
1.0
 40
1.0
 10
155.8209339158817
 20
128.8127212556907
 30
0.0
 10
155.8403595960316
 20
128.736628384919
 30
0.0
 10
155.8618562379877
 20
128.6602030137858
 30
0.0
 10
155.8861699418778
 20
128.5836418562357
 30
0.0
  0
LINE
  5
104
330
1F
100
AcDbEntity
  8
0
  6
HIDDEN
 62
     7
370
     0
100
AcDbLine
 10
177.1422538124
 20
104.2592023553
 30
0.0
 11
177.1422538124
 21
133.2592015209
 31
0.0
  0
LINE
  5
105
330
1F
100
AcDbEntity
  8
0
  6
HIDDEN
 62
     7
370
     0
100
AcDbLine
 10
156.9422542645
 20
104.7743904458
 30
0.0
 11
156.9422542645
 21
113.2537569905
 31
0.0
  0
LINE
  5
106
330
1F
100
AcDbEntity
  8
0
  6
HIDDEN
 62
     7
370
     0
100
AcDbLine
 10
156.9422542645
 20
124.2646468857
 30
0.0
 11
156.9422542645
 21
132.7440134303
 31
0.0
  0
SPLINE
  5
107
330
1F
100
AcDbEntity
  8
0
  6
HIDDEN
 62
     7
370
     0
100
AcDbSpline
210
0.0
220
0.0
230
1.0
 70
     8
 71
     3
 72
    62
 73
    58
 74
     0
 42
0.00000001
 43
0.00000001
 12
1.0
 22
0.0
 32
0.0
 13
1.0
 23
0.0
 33
0.0
 40
-0.0312499999999998
 40
-0.0312499999999998
 40
0.0
 40
0.0
 40
0.0312500000000005
 40
0.0312500000000005
 40
0.0625000000000009
 40
0.0625000000000009
 40
0.0937500000000014
 40
0.0937500000000014
 40
0.1250000000000018
 40
0.1250000000000018
 40
0.1875000000000028
 40
0.1875000000000028
 40
0.2187500000000026
 40
0.2187500000000026
 40
0.2500000000000025
 40
0.2500000000000025
 40
0.2812500000000024
 40
0.2812500000000024
 40
0.3125000000000022
 40
0.3125000000000022
 40
0.3437500000000022
 40
0.3437500000000022
 40
0.3750000000000021
 40
0.3750000000000021
 40
0.4062500000000019
 40
0.4062500000000019
 40
0.4375000000000018
 40
0.4375000000000018
 40
0.4687500000000018
 40
0.4687500000000018
 40
0.5000000000000017
 40
0.5000000000000017
 40
0.5625000000000014
 40
0.5625000000000014
 40
0.5937500000000013
 40
0.5937500000000013
 40
0.6250000000000012
 40
0.6250000000000012
 40
0.6562500000000012
 40
0.6562500000000012
 40
0.6875000000000011
 40
0.6875000000000011
 40
0.7500000000000009
 40
0.7500000000000009
 40
0.7812500000000008
 40
0.7812500000000008
 40
0.8125000000000007
 40
0.8125000000000007
 40
0.8437500000000006
 40
0.8437500000000006
 40
0.8750000000000004
 40
0.8750000000000004
 40
0.9375000000000003
 40
0.9375000000000003
 40
0.9687500000000002
 40
0.9687500000000002
 40
1.0
 40
1.0
 40
1.03125
 40
1.03125
 10
207.6422542594414
 20
118.9248110703329
 30
0.0
 10
207.6422542594414
 20
118.5935928058349
 30
0.0
 10
207.6585467834812
 20
118.4308332748436
 30
0.0
 10
207.7223067773924
 20
118.1107553410049
 30
0.0
 10
207.7705773877715
 20
117.9517493537667
 30
0.0
 10
207.896210388314
 20
117.6491939252724
 30
0.0
 10
207.9730287595481
 20
117.5057634311388
 30
0.0
 10
208.1544418467271
 20
117.2343251653778
 30
0.0
 10
208.2597485821236
 20
117.1061391364978
 30
0.0
 10
208.6047630030148
 20
116.7612285546534
 30
0.0
 10
208.8829882847008
 20
116.575123511966
 30
0.0
 10
209.3339134097506
 20
116.3879000989321
 30
0.0
 10
209.4918976576689
 20
116.3396694913479
 30
0.0
 10
209.8147876031636
 20
116.2752803291551
 30
0.0
 10
209.97726831455
 20
116.259299708974
 30
0.0
 10
210.3042637741378
 20
116.2591050531076
 30
0.0
 10
210.4703915040845
 20
116.2754344591037
 30
0.0
 10
210.7913411791889
 20
116.3393959310713
 30
0.0
 10
210.9473800516649
 20
116.3867146450115
 30
0.0
 10
211.2505668249664
 20
116.5123003482957
 30
0.0
 10
211.3963024123698
 20
116.5903762285608
 30
0.0
 10
211.6666842541742
 20
116.771098590843
 30
0.0
 10
211.7934271809294
 20
116.8748926994565
 30
0.0
 10
212.0258291012437
 20
117.1071913028998
 30
0.0
 10
212.128968982818
 20
117.2329559281118
 30
0.0
 10
212.3100014914107
 20
117.5032822697428
 30
0.0
 10
212.3885022533651
 20
117.6496408150753
 30
0.0
 10
212.5139280388931
 20
117.9517866671361
 30
0.0
 10
212.5614021043681
 20
118.1076170446764
 30
0.0
 10
212.6257464315201
 20
118.4288902668487
 30
0.0
 10
212.6421878517864
 20
118.5948182589253
 30
0.0
 10
212.6423864589642
 20
119.0849300844633
 30
0.0
 10
212.5766874215492
 20
119.4147209253414
 30
0.0
 10
212.3896773816392
 20
119.8662845007986
 30
0.0
 10
212.311717284221
 20
120.0122899531765
 30
0.0
 10
212.1297829000888
 20
120.2844983984681
 30
0.0
 10
212.0266804874314
 20
120.4101085711309
 30
0.0
 10
211.7964245697702
 20
120.6407639232978
 30
0.0
 10
211.668166505187
 20
120.7461834919438
 30
0.0
 10
211.3975876397509
 20
120.9272983338599
 30
0.0
 10
211.2542567913214
 20
121.0042921347401
 30
0.0
 10
210.799299977882
 20
121.1935826420816
 30
0.0
 10
210.4741857196765
 20
121.2589682639486
 30
0.0
 10
209.9789355013086
 20
121.2593178409567
 30
0.0
 10
209.8163256788098
 20
121.2432409227035
 30
0.0
 10
209.4958868390423
 20
121.1797159898153
 30
0.0
 10
209.3364716095192
 20
121.1314243777182
 30
0.0
 10
209.0344097619228
 20
121.0062901765245
 30
0.0
 10
208.8908589822941
 20
120.929635532075
 30
0.0
 10
208.6186414688503
 20
120.7480146969778
 30
0.0
 10
208.4907914207322
 20
120.6431006480399
 30
0.0
 10
208.1458355193002
 20
120.2986588689715
 30
0.0
 10
207.9593501070045
 20
120.0205466488314
 30
0.0
 10
207.771631339273
 20
119.5695489161658
 30
0.0
 10
207.7231026473148
 20
119.4109522817512
 30
0.0
 10
207.6585496760121
 20
119.0882681550941
 30
0.0
 10
207.6422542594414
 20
118.9248110703329
 30
0.0
 10
207.6422542594414
 20
118.5935928058349
 30
0.0
  0
CIRCLE
  5
108
330
1F
100
AcDbEntity
  8
0
  6
HIDDEN
 62
     7
370
     0
100
AcDbCircle
 10
145.6422542594
 20
118.7592019381
 30
0.0
 40
2.299999999999997
  0
SPLINE
  5
109
330
1F
100
AcDbEntity
  8
0
  6
HIDDEN
 62
     7
370
     0
100
AcDbSpline
210
0.0
220
0.0
230
1.0
 70
     8
 71
     3
 72
    10
 73
     6
 74
     0
 42
0.00000001
 43
0.00000001
 12
1.0
 22
0.0
 32
0.0
 13
1.0
 23
0.0
 33
0.0
 40
0.0
 40
0.0
 40
0.0
 40
0.0
 40
0.5
 40
0.5
 40
1.0
 40
1.0
 40
1.0
 40
1.0
 10
210.1758749353089
 20
120.8589327899205
 30
0.0
 10
210.4321987407696
 20
120.7543644195207
 30
0.0
 10
210.6853696541756
 20
120.6385894477589
 30
0.0
 10
211.1953029485636
 20
120.401201701039
 30
0.0
 10
211.4524190842972
 20
120.2802740079086
 30
0.0
 10
211.7032931511876
 20
120.1638932132228
 30
0.0
  0
SPLINE
  5
10A
330
1F
100
AcDbEntity
  8
0
  6
HIDDEN
 62
     7
370
     0
100
AcDbSpline
210
0.0
220
0.0
230
1.0
 70
     8
 71
     3
 72
    12
 73
     8
 74
     0
 42
0.00000001
 43
0.00000001
 12
1.0
 22
0.0
 32
0.0
 13
1.0
 23
0.0
 33
0.0
 40
0.0
 40
0.0
 40
0.0
 40
0.0
 40
0.5000000000000032
 40
0.5000000000000032
 40
0.7500000000000016
 40
0.7500000000000016
 40
1.0
 40
1.0
 40
1.0
 40
1.0
 10
209.1026539859563
 20
120.5838200546688
 30
0.0
 10
209.3093340399645
 20
120.7015787454972
 30
0.0
 10
209.5162628752824
 20
120.7736012298368
 30
0.0
 10
209.8086600108496
 20
120.8349264639352
 30
0.0
 10
209.9011362202637
 20
120.8469094599773
 30
0.0
 10
210.063888371177
 20
120.8593255995247
 30
0.0
 10
210.1346137940017
 20
120.8595934590994
 30
0.0
 10
210.175874935309
 20
120.8589327899204
 30
0.0
  0
LWPOLYLINE
  5
10B
330
1F
100
AcDbEntity
  8
0
  6
HIDDEN
 62
     7
370
     0
100
AcDbPolyline
 90
       21
 70
   128
 43
0.0
 10
209.1026554965
 20
120.5838200224
 10
209.3183386289
 20
120.8728559835
 10
209.49967831
 20
121.0548706407
 10
209.6350292824
 20
121.1181689108
 10
209.7156855427
 20
121.0586830096
 10
209.7364726625
 20
120.8802357836
 10
209.6960495375
 20
120.5942932105
 10
209.5970126949
 20
120.2192287713
 10
209.4457286559
 20
119.7791427661
 10
209.2519204281
 20
119.3023130584
 10
209.0280342065
 20
118.8193789606
 10
208.7884645127
 20
118.3613717843
 10
208.5486005209
 20
117.9577211554
 10
208.3238537572
 20
117.6343640366
 10
208.128667172
 20
117.41207806
 10
207.9755838178
 20
117.305146396
 10
207.8744384609
 20
117.3204398768
 10
207.8317317329
 20
117.4569760736
 10
207.8502054475
 20
117.7059815785
 10
207.9286749624
 20
118.0514563278
 10
208.0620962344
 20
118.4712015787
  0
SPLINE
  5
10C
330
1F
100
AcDbEntity
  8
0
  6
HIDDEN
 62
     7
370
     0
100
AcDbSpline
210
0.0
220
0.0
230
1.0
 70
     8
 71
     3
 72
    42
 73
    38
 74
     0
 42
0.00000001
 43
0.00000001
 12
1.0
 22
0.0
 32
0.0
 13
1.0
 23
0.0
 33
0.0
 40
0.0
 40
0.0
 40
0.0
 40
0.0
 40
0.0625000000000002
 40
0.0625000000000002
 40
0.1250000000000003
 40
0.1250000000000003
 40
0.1875000000000005
 40
0.1875000000000005
 40
0.2500000000000007
 40
0.2500000000000007
 40
0.3125000000000008
 40
0.3125000000000008
 40
0.375000000000001
 40
0.375000000000001
 40
0.4062500000000011
 40
0.4062500000000011
 40
0.4375000000000012
 40
0.4375000000000012
 40
0.4687500000000012
 40
0.4687500000000012
 40
0.5000000000000013
 40
0.5000000000000013
 40
0.6250000000000018
 40
0.6250000000000018
 40
0.687500000000002
 40
0.687500000000002
 40
0.7500000000000021
 40
0.7500000000000021
 40
0.7812500000000013
 40
0.7812500000000013
 40
0.8125000000000004
 40
0.8125000000000004
 40
0.8750000000000003
 40
0.8750000000000003
 40
0.9375000000000001
 40
0.9375000000000001
 40
1.0
 40
1.0
 40
1.0
 40
1.0
 10
211.7032931511901
 20
120.1638932132216
 30
0.0
 10
211.6937591563056
 20
120.1744883789152
 30
0.0
 10
211.7377990841995
 20
120.1274070682952
 30
0.0
 10
211.8467032701373
 20
119.989080849232
 30
0.0
 10
211.9118505243104
 20
119.8964204326427
 30
0.0
 10
212.0311042829715
 20
119.6849353951952
 30
0.0
 10
212.0863542023143
 20
119.56560461079
 30
0.0
 10
212.1765774381359
 20
119.2989602757245
 30
0.0
 10
212.2119878557024
 20
119.1495565605057
 30
0.0
 10
212.2473553426724
 20
118.8279283530739
 30
0.0
 10
212.2476066881021
 20
118.6518320818772
 30
0.0
 10
212.1966355965347
 20
118.2863864807517
 30
0.0
 10
212.1437663531314
 20
118.0929511978846
 30
0.0
 10
212.0225648520364
 20
117.8187673295778
 30
0.0
 10
211.974678365414
 20
117.7283963546226
 30
0.0
 10
211.8665219894921
 20
117.5561894484771
 30
0.0
 10
211.8073178333201
 20
117.4757201751097
 30
0.0
 10
211.6794553224657
 20
117.3250558392564
 30
0.0
 10
211.6106774793304
 20
117.2550044482579
 30
0.0
 10
211.4700766050124
 20
117.1295502391892
 30
0.0
 10
211.3975447812319
 20
117.0732672222712
 30
0.0
 10
211.0247173216175
 20
116.819784111736
 30
0.0
 10
210.7105562762807
 20
116.7134129319867
 30
0.0
 10
210.2439964997343
 20
116.6558228765515
 30
0.0
 10
210.0893001223516
 20
116.6537151016084
 30
0.0
 10
209.769220519971
 20
116.6863476768241
 30
0.0
 10
209.6025058473768
 20
116.7208304865248
 30
0.0
 10
209.3340268505608
 20
116.8186246821498
 30
0.0
 10
209.2430233567889
 20
116.8587201233394
 30
0.0
 10
209.0627086967872
 20
116.9550321227357
 30
0.0
 10
208.9768715093141
 20
117.00939412792
 30
0.0
 10
208.7360225143655
 20
117.1868503278007
 30
0.0
 10
208.6036244577797
 20
117.3182674426117
 30
0.0
 10
208.3770254901812
 20
117.6069687676798
 30
0.0
 10
208.2853410162476
 20
117.7615032020391
 30
0.0
 10
208.1406874232435
 20
118.097945738955
 30
0.0
 10
208.0885717201078
 20
118.279978292651
 30
0.0
 10
208.0620966232927
 20
118.4712015756324
 30
0.0
  0
SPLINE
  5
10D
330
1F
100
AcDbEntity
  8
0
  6
HIDDEN
 62
     7
370
     0
100
AcDbSpline
210
0.0
220
0.0
230
1.0
 70
     8
 71
     3
 72
    22
 73
    18
 74
     0
 42
0.00000001
 43
0.00000001
 12
1.0
 22
0.0
 32
0.0
 13
1.0
 23
0.0
 33
0.0
 40
0.0
 40
0.0
 40
0.0
 40
0.0
 40
0.125
 40
0.125
 40
0.2499999999999999
 40
0.2499999999999999
 40
0.3749999999999999
 40
0.3749999999999999
 40
0.5
 40
0.5
 40
0.6250000000000001
 40
0.6250000000000001
 40
0.75
 40
0.75
 40
0.875
 40
0.875
 40
1.0
 40
1.0
 40
1.0
 40
1.0
 10
208.0620966232927
 20
118.4712015756324
 30
0.0
 10
208.0512341128489
 20
118.5496588867799
 30
0.0
 10
208.0437591757719
 20
118.6352566410801
 30
0.0
 10
208.0411458171341
 20
118.8254391368413
 30
0.0
 10
208.0462203527034
 20
118.9260650241202
 30
0.0
 10
208.0736179313563
 20
119.1359580525713
 30
0.0
 10
208.096353372111
 20
119.2456822953144
 30
0.0
 10
208.1591953668078
 20
119.4590955064906
 30
0.0
 10
208.1992804736757
 20
119.5640221041425
 30
0.0
 10
208.2973442767642
 20
119.7687512373682
 30
0.0
 10
208.3553420374684
 20
119.8682889266448
 30
0.0
 10
208.4866218569071
 20
120.0561254458167
 30
0.0
 10
208.5617698791943
 20
120.1466797741199
 30
0.0
 10
208.7214466922448
 20
120.3097926251103
 30
0.0
 10
208.8067288324257
 20
120.3827716190107
 30
0.0
 10
208.9637596066901
 20
120.5001088938018
 30
0.0
 10
209.0365179948338
 20
120.5461382001299
 30
0.0
 10
209.1026539859562
 20
120.5838200546687
 30
0.0
  0
LINE
  5
10E
330
1F
100
AcDbEntity
  8
0
  6
HIDDEN
 62
     7
370
     0
100
AcDbLine
 10
134.1692867838
 20
128.3218954744
 30
0.0
 11
134.1692867838
 21
109.1965084018
 31
0.0
  0
LINE
  5
10F
330
1F
100
AcDbEntity
  8
0
  6
HIDDEN
 62
     7
370
     0
100
AcDbLine
 10
133.1422540508
 20
108.603551151
 30
0.0
 11
133.1422540508
 21
128.8982900845
 31
0.0
  0
LINE
  5
110
330
1F
100
AcDbEntity
  8
0
  6
HIDDEN
 62
     7
370
     0
100
AcDbLine
 10
137.6692864262
 20
127.9901416095
 30
0.0
 11
137.6692864262
 21
109.5282622667
 31
0.0
  0
LINE
  5
111
330
1F
100
AcDbEntity
  8
0
  6
HIDDEN
 62
     7
370
     0
100
AcDbLine
 10
141.0692862384
 20
127.7592015507
 30
0.0
 11
141.0692862384
 21
109.7592023255
 31
0.0
  0
LINE
  5
112
330
1F
100
AcDbEntity
  8
0
  6
HIDDEN
 62
     7
370
     0
100
AcDbLine
 10
136.2692869417
 20
127.7592015507
 30
0.0
 11
136.2692869417
 21
109.7592023255
 31
0.0
  0
LINE
  5
113
330
1F
100
AcDbEntity
  8
0
  6
HIDDEN
 62
     7
370
     0
100
AcDbLine
 10
137.2692871057
 20
127.7592015507
 30
0.0
 11
137.2692871057
 21
109.7592023255
 31
0.0
  0
SPLINE
  5
114
330
1F
100
AcDbEntity
  8
0
  6
HIDDEN
 62
     7
370
     0
100
AcDbSpline
210
0.0
220
0.0
230
1.0
 70
     8
 71
     3
 72
    14
 73
    10
 74
     0
 42
0.00000001
 43
0.00000001
 12
1.0
 22
0.0
 32
0.0
 13
1.0
 23
0.0
 33
0.0
 40
0.0
 40
0.0
 40
0.0
 40
0.0
 40
0.25
 40
0.25
 40
0.5
 40
0.5
 40
0.75
 40
0.75
 40
1.0
 40
1.0
 40
1.0
 40
1.0
 10
147.6422542594414
 20
119.8949836072439
 30
0.0
 10
147.7404786059444
 20
119.7220201774404
 30
0.0
 10
147.8157934439284
 20
119.536987623016
 30
0.0
 10
147.9167601541228
 20
119.1539754088815
 30
0.0
 10
147.9421357404129
 20
118.9592568554159
 30
0.0
 10
147.9423719656793
 20
118.5618815541504
 30
0.0
 10
147.9166688963437
 20
118.364389219675
 30
0.0
 10
147.8163487828272
 20
117.9832173850439
 30
0.0
 10
147.7404569547396
 20
117.7963455730714
 30
0.0
 10
147.642254259446
 20
117.6234202689215
 30
0.0
  0
LINE
  5
115
330
1F
100
AcDbEntity
  8
0
  6
HIDDEN
 62
     7
370
     0
100
AcDbLine
 10
148.1422546469
 20
127.2592014687
 30
0.0
 11
148.1422546469
 21
110.2592014761
 31
0.0
  0
SPLINE
  5
116
330
1F
100
AcDbEntity
  8
0
  6
HIDDEN
 62
     7
370
     0
100
AcDbSpline
210
0.0
220
0.0
230
1.0
 70
     8
 71
     3
 72
    14
 73
    10
 74
     0
 42
0.00000001
 43
0.00000001
 12
1.0
 22
0.0
 32
0.0
 13
1.0
 23
0.0
 33
0.0
 40
0.0
 40
0.0
 40
0.0
 40
0.0
 40
0.25
 40
0.25
 40
0.5000000000000001
 40
0.5000000000000001
 40
0.7500000000000001
 40
0.7500000000000001
 40
1.0
 40
1.0
 40
1.0
 40
1.0
 10
147.6422542594414
 20
117.6234202689239
 30
0.0
 10
147.7404786059444
 20
117.7963836987274
 30
0.0
 10
147.8157934439284
 20
117.9814162531518
 30
0.0
 10
147.9167601541228
 20
118.3644284672862
 30
0.0
 10
147.9421357404129
 20
118.5591470207519
 30
0.0
 10
147.9423719656793
 20
118.9565223220174
 30
0.0
 10
147.9166688963437
 20
119.1540146564928
 30
0.0
 10
147.8163487828272
 20
119.5351864911239
 30
0.0
 10
147.7404569547396
 20
119.7220583030964
 30
0.0
 10
147.642254259446
 20
119.8949836072463
 30
0.0
  0
SPLINE
  5
117
330
1F
100
AcDbEntity
  8
0
  6
HIDDEN
 62
     7
370
     0
100
AcDbSpline
210
0.0
220
0.0
230
1.0
 70
     8
 71
     3
 72
    60
 73
    56
 74
     0
 42
0.00000001
 43
0.00000001
 12
1.0
 22
0.0
 32
0.0
 13
1.0
 23
0.0
 33
0.0
 40
0.0
 40
0.0
 40
0.0
 40
0.0
 40
0.0624999999999993
 40
0.0624999999999993
 40
0.1249999999999986
 40
0.1249999999999986
 40
0.1874999999999979
 40
0.1874999999999979
 40
0.2187499999999978
 40
0.2187499999999978
 40
0.2499999999999977
 40
0.2499999999999977
 40
0.3124999999999978
 40
0.3124999999999978
 40
0.374999999999998
 40
0.374999999999998
 40
0.4062499999999981
 40
0.4062499999999981
 40
0.4374999999999982
 40
0.4374999999999982
 40
0.4687499999999983
 40
0.4687499999999983
 40
0.4999999999999984
 40
0.4999999999999984
 40
0.5312499999999986
 40
0.5312499999999986
 40
0.5624999999999987
 40
0.5624999999999987
 40
0.5937499999999988
 40
0.5937499999999988
 40
0.6249999999999988
 40
0.6249999999999988
 40
0.6562499999999989
 40
0.6562499999999989
 40
0.687499999999999
 40
0.687499999999999
 40
0.7187499999999991
 40
0.7187499999999991
 40
0.7499999999999992
 40
0.7499999999999992
 40
0.7812499999999993
 40
0.7812499999999993
 40
0.8124999999999994
 40
0.8124999999999994
 40
0.8437499999999996
 40
0.8437499999999996
 40
0.8749999999999996
 40
0.8749999999999996
 40
0.9062499999999997
 40
0.9062499999999997
 40
0.9374999999999998
 40
0.9374999999999998
 40
0.9687499999999999
 40
0.9687499999999999
 40
1.0
 40
1.0
 40
1.0
 40
1.0
 10
147.6422542594414
 20
117.6234202689239
 30
0.0
 10
147.5170643578627
 20
117.4029731443083
 30
0.0
 10
147.3601970392945
 20
117.2092394154879
 30
0.0
 10
146.9831595194757
 20
116.8735497167255
 30
0.0
 10
146.7714462130547
 20
116.7395723584128
 30
0.0
 10
146.305556231106
 20
116.5424456137276
 30
0.0
 10
146.0597170000544
 20
116.4832282015058
 30
0.0
 10
145.6802359469598
 20
116.4560214656151
 30
0.0
 10
145.5524902182659
 20
116.4575147307569
 30
0.0
 10
145.3020239715977
 20
116.4810305365659
 30
0.0
 10
145.1781945887895
 20
116.5029497553701
 30
0.0
 10
144.8109749146909
 20
116.599786320215
 30
0.0
 10
144.5802058966052
 20
116.7035874416668
 30
0.0
 10
144.1603169351856
 20
116.9823059225948
 30
0.0
 10
143.9760585602981
 20
117.1538682140985
 30
0.0
 10
143.7453101728148
 20
117.4525155753653
 30
0.0
 10
143.6762633230258
 20
117.5589831158676
 30
0.0
 10
143.5576986592203
 20
117.7792664642606
 30
0.0
 10
143.5074902904706
 20
117.893927980662
 30
0.0
 10
143.4256584381128
 20
118.1326086174388
 30
0.0
 10
143.3943075392302
 20
118.2566542443169
 30
0.0
 10
143.3529131611916
 20
118.5047692804252
 30
0.0
 10
143.3424073861273
 20
118.6300069829137
 30
0.0
 10
143.3421044337915
 20
118.8828860385047
 30
0.0
 10
143.3525889634081
 20
119.0107657247413
 30
0.0
 10
143.3937290408695
 20
119.2591877859468
 30
0.0
 10
143.4243071614181
 20
119.3809867127152
 30
0.0
 10
143.5055898697694
 20
119.6197662421895
 30
0.0
 10
143.5565907563313
 20
119.7368078044962
 30
0.0
 10
143.6751578046944
 20
119.9576330024221
 30
0.0
 10
143.7430465579661
 20
120.0625713659849
 30
0.0
 10
143.8961969957038
 20
120.2615486992142
 30
0.0
 10
143.9817531672763
 20
120.3555568244084
 30
0.0
 10
144.1644645382354
 20
120.5260495093451
 30
0.0
 10
144.2622718379174
 20
120.6034877043945
 30
0.0
 10
144.4710749498344
 20
120.7426536002828
 30
0.0
 10
144.5826571251222
 20
120.8044354092898
 30
0.0
 10
144.8113029246212
 20
120.9075142798905
 30
0.0
 10
144.9292577355924
 20
120.9495183150862
 30
0.0
 10
145.1725861805811
 20
121.014254436383
 30
0.0
 10
145.2989300559242
 20
121.0369276989457
 30
0.0
 10
145.550036036942
 20
121.0608104951268
 30
0.0
 10
145.6757180306649
 20
121.0624137963935
 30
0.0
 10
145.9273401004567
 20
121.0449470576226
 30
0.0
 10
146.0542377207425
 20
121.0255111669827
 30
0.0
 10
146.2994282870037
 20
120.966917995659
 30
0.0
 10
146.4186174440372
 20
120.9278551445024
 30
0.0
 10
146.650302468392
 20
120.8303454223786
 30
0.0
 10
146.7634772727425
 20
120.77131006809
 30
0.0
 10
146.9755556896782
 20
120.6375063512505
 30
0.0
 10
147.0753444683791
 20
120.5625111351057
 30
0.0
 10
147.262602655368
 20
120.3963160705849
 30
0.0
 10
147.3504976923113
 20
120.3044218718434
 30
0.0
 10
147.5087187679432
 20
120.109057674129
 30
0.0
 10
147.5796567242349
 20
120.0052117204566
 30
0.0
 10
147.6422542594414
 20
119.8949836072439
 30
0.0
  0
SPLINE
  5
118
330
1F
100
AcDbEntity
  8
0
  6
HIDDEN
 62
     7
370
     0
100
AcDbSpline
210
0.0
220
0.0
230
1.0
 70
     8
 71
     3
 72
    60
 73
    56
 74
     0
 42
0.00000001
 43
0.00000001
 12
1.0
 22
0.0
 32
0.0
 13
1.0
 23
0.0
 33
0.0
 40
0.0
 40
0.0
 40
0.0
 40
0.0
 40
0.0624999999999992
 40
0.0624999999999992
 40
0.1249999999999984
 40
0.1249999999999984
 40
0.1874999999999976
 40
0.1874999999999976
 40
0.2187499999999974
 40
0.2187499999999974
 40
0.2499999999999972
 40
0.2499999999999972
 40
0.3124999999999972
 40
0.3124999999999972
 40
0.3749999999999972
 40
0.3749999999999972
 40
0.4062499999999973
 40
0.4062499999999973
 40
0.4374999999999974
 40
0.4374999999999974
 40
0.4687499999999974
 40
0.4687499999999974
 40
0.4999999999999976
 40
0.4999999999999976
 40
0.5312499999999977
 40
0.5312499999999977
 40
0.5624999999999979
 40
0.5624999999999979
 40
0.593749999999998
 40
0.593749999999998
 40
0.6249999999999981
 40
0.6249999999999981
 40
0.6562499999999983
 40
0.6562499999999983
 40
0.6874999999999984
 40
0.6874999999999984
 40
0.7187499999999986
 40
0.7187499999999986
 40
0.7499999999999987
 40
0.7499999999999987
 40
0.7812499999999989
 40
0.7812499999999989
 40
0.812499999999999
 40
0.812499999999999
 40
0.8437499999999991
 40
0.8437499999999991
 40
0.8749999999999993
 40
0.8749999999999993
 40
0.9062499999999994
 40
0.9062499999999994
 40
0.9374999999999996
 40
0.9374999999999996
 40
0.9687499999999998
 40
0.9687499999999998
 40
1.0
 40
1.0
 40
1.0
 40
1.0
 10
147.6422542594414
 20
119.8949836072439
 30
0.0
 10
147.5170643578627
 20
120.1154307318595
 30
0.0
 10
147.3601970392945
 20
120.3091644606799
 30
0.0
 10
146.9831595194757
 20
120.6448541594423
 30
0.0
 10
146.7714462130547
 20
120.778831517755
 30
0.0
 10
146.305556231106
 20
120.9759582624402
 30
0.0
 10
146.0597170000544
 20
121.035175674662
 30
0.0
 10
145.6802359469598
 20
121.0623824105527
 30
0.0
 10
145.5524902182659
 20
121.0608891454109
 30
0.0
 10
145.3020239715977
 20
121.0373733396019
 30
0.0
 10
145.1781945887895
 20
121.0154541207977
 30
0.0
 10
144.8109749146909
 20
120.9186175559528
 30
0.0
 10
144.5802058966052
 20
120.814816434501
 30
0.0
 10
144.1603169351856
 20
120.536097953573
 30
0.0
 10
143.9760585602981
 20
120.3645356620693
 30
0.0
 10
143.7453101728148
 20
120.0658883008025
 30
0.0
 10
143.6762633230258
 20
119.9594207603001
 30
0.0
 10
143.5576986592203
 20
119.7391374119072
 30
0.0
 10
143.5074902904706
 20
119.6244758955058
 30
0.0
 10
143.4256584381128
 20
119.385795258729
 30
0.0
 10
143.3943075392302
 20
119.2617496318509
 30
0.0
 10
143.3529131611916
 20
119.0136345957426
 30
0.0
 10
143.3424073861273
 20
118.8883968932541
 30
0.0
 10
143.3421044337915
 20
118.6355178376631
 30
0.0
 10
143.3525889634081
 20
118.5076381514265
 30
0.0
 10
143.3937290408695
 20
118.259216090221
 30
0.0
 10
143.4243071614181
 20
118.1374171634526
 30
0.0
 10
143.5055898697694
 20
117.8986376339783
 30
0.0
 10
143.5565907563313
 20
117.7815960716716
 30
0.0
 10
143.6751578046944
 20
117.5607708737457
 30
0.0
 10
143.7430465579661
 20
117.4558325101829
 30
0.0
 10
143.8961969957038
 20
117.2568551769536
 30
0.0
 10
143.9817531672763
 20
117.1628470517594
 30
0.0
 10
144.1644645382354
 20
116.9923543668227
 30
0.0
 10
144.2622718379174
 20
116.9149161717733
 30
0.0
 10
144.4710749498344
 20
116.775750275885
 30
0.0
 10
144.5826571251222
 20
116.713968466878
 30
0.0
 10
144.8113029246212
 20
116.6108895962772
 30
0.0
 10
144.9292577355924
 20
116.5688855610816
 30
0.0
 10
145.1725861805811
 20
116.5041494397848
 30
0.0
 10
145.2989300559242
 20
116.4814761772221
 30
0.0
 10
145.550036036942
 20
116.457593381041
 30
0.0
 10
145.6757180306649
 20
116.4559900797743
 30
0.0
 10
145.9273401004567
 20
116.4734568185452
 30
0.0
 10
146.0542377207425
 20
116.4928927091851
 30
0.0
 10
146.2994282870037
 20
116.5514858805088
 30
0.0
 10
146.4186174440372
 20
116.5905487316654
 30
0.0
 10
146.650302468392
 20
116.6880584537892
 30
0.0
 10
146.7634772727425
 20
116.7470938080778
 30
0.0
 10
146.9755556896782
 20
116.8808975249173
 30
0.0
 10
147.0753444683791
 20
116.9558927410621
 30
0.0
 10
147.262602655368
 20
117.1220878055829
 30
0.0
 10
147.3504976923113
 20
117.2139820043244
 30
0.0
 10
147.5087187679432
 20
117.4093462020388
 30
0.0
 10
147.5796567242349
 20
117.5131921557112
 30
0.0
 10
147.6422542594414
 20
117.6234202689239
 30
0.0
  0
ARC
  5
119
330
1F
100
AcDbEntity
  8
0
  6
HIDDEN
 62
     7
370
     0
100
AcDbCircle
 10
210.1422542594
 20
118.7592019381
 30
0.0
 40
2.100000000000011
100
AcDbArc
 50
41.9822697479
 51
89.0826642228
  0
LINE
  5
11A
330
1F
100
AcDbEntity
  8
0
  6
HIDDEN
 62
     7
370
     0
100
AcDbLine
 10
149.0422540493
 20
125.0092020312
 30
0.0
 11
149.0422540493
 21
112.509201845
 31
0.0
  0
LINE
  5
11B
330
1F
100
AcDbEntity
  8
0
  6
HIDDEN
 62
     7
370
     0
100
AcDbLine
 10
148.1422546469
 20
111.6092019768
 30
0.0
 11
148.1422546469
 21
125.9092018993
 31
0.0
  0
LINE
  5
11C
330
1F
100
AcDbEntity
  8
0
  6
HIDDEN
 62
     7
370
     0
100
AcDbLine
 10
168.1422541998
 20
125.0092020312
 30
0.0
 11
168.1422541998
 21
112.509201845
 31
0.0
  0
LINE
  5
11D
330
1F
100
AcDbEntity
  8
0
  6
HIDDEN
 62
     7
370
     0
100
AcDbLine
 10
169.9448364936
 20
122.0092020051
 30
0.0
 11
169.9448364936
 21
115.509201871
 31
0.0
  0
SPLINE
  5
11E
330
1F
100
AcDbEntity
  8
0
  6
HIDDEN
 62
     7
370
     0
100
AcDbSpline
210
0.0
220
0.0
230
1.0
 70
    11
 71
     3
 72
    35
 73
    31
 74
     0
 42
0.00000001
 43
0.00000001
 12
1.0
 22
0.0
 32
0.0
 13
1.0
 23
0.0
 33
0.0
 40
0.0
 40
0.0
 40
0.0
 40
0.0
 40
0.029690691374214
 40
0.0764151003949386
 40
0.1229860291928758
 40
0.1734505510049877
 40
0.1750943627595839
 40
0.2170633026111818
 40
0.2312283558338762
 40
0.2731120374551246
 40
0.2733853324237586
 40
0.293491705193525
 40
0.3151036837764233
 40
0.3557944397059903
 40
0.4044905648658853
 40
0.4094910360616231
 40
0.4507192133449846
 40
0.4623432247751904
 40
0.5087085081972663
 40
0.5551960655801378
 40
0.5990821869967191
 40
0.6461442348551556
 40
0.7004749378784668
 40
0.7479036240929258
 40
0.7956750457825743
 40
0.8361602414532742
 40
0.8906066981556598
 40
0.9457997053533375
 40
0.9941670694435325
 40
1.0
 40
1.0
 40
1.0
 40
1.0
 10
208.0882254205685
 20
118.3601315536374
 30
0.0
 10
208.0672028398835
 20
118.4926227385337
 30
0.0
 10
208.0130969050183
 20
118.8336160508042
 30
0.0
 10
208.1082929293102
 20
119.3994502642353
 30
0.0
 10
208.3954998555829
 20
119.9556166498002
 30
0.0
 10
208.6543483644486
 20
120.3090232070394
 30
0.0
 10
209.0130205651994
 20
120.4981585355246
 30
0.0
 10
209.2355191295649
 20
120.6120593858889
 30
0.0
 10
209.5979795157391
 20
120.822045543194
 30
0.0
 10
209.8662318272715
 20
120.8748683505069
 30
0.0
 10
210.1457117820099
 20
120.8485904762774
 30
0.0
 10
210.3330988316248
 20
120.8277433988463
 30
0.0
 10
210.710128410878
 20
120.8138419736766
 30
0.0
 10
211.1541573922431
 20
120.6088387576894
 30
0.0
 10
211.5155526821335
 20
120.4071190988348
 30
0.0
 10
211.7457162711751
 20
120.0681790227064
 30
0.0
 10
211.8861698112176
 20
119.8631532217951
 30
0.0
 10
212.1428845751934
 20
119.5217179549164
 30
0.0
 10
212.2453704980146
 20
119.0427640430271
 30
0.0
 10
212.2472952215107
 20
118.4193365440302
 30
0.0
 10
212.0552365240885
 20
117.8264505048384
 30
0.0
 10
211.7016945577574
 20
117.3031969812197
 30
0.0
 10
211.2006151006184
 20
116.9059569039134
 30
0.0
 10
210.58143657215
 20
116.6716268976503
 30
0.0
 10
209.9510665148278
 20
116.6384686824724
 30
0.0
 10
209.3269309911081
 20
116.7904604936307
 30
0.0
 10
208.7634397157759
 20
117.1212490465339
 30
0.0
 10
208.3324715988371
 20
117.6422560587488
 30
0.0
 10
208.1159363391811
 20
118.0903048096713
 30
0.0
 10
208.0909178606861
 20
118.3339147269634
 30
0.0
 10
208.0882254205685
 20
118.3601315536374
 30
0.0
  0
LINE
  5
11F
330
1F
100
AcDbEntity
  8
0
  6
HIDDEN
 62
     7
370
     0
100
AcDbLine
 10
213.142255988
 20
115.509201871
 30
0.0
 11
213.142255988
 21
122.0092020051
 31
0.0
  0
SPLINE
  5
120
330
1F
100
AcDbEntity
  8
0
  6
HIDDEN
 62
     7
370
     0
100
AcDbSpline
210
0.0
220
0.0
230
1.0
 70
     8
 71
     3
 72
    62
 73
    58
 74
     0
 42
0.00000001
 43
0.00000001
 12
1.0
 22
0.0
 32
0.0
 13
1.0
 23
0.0
 33
0.0
 40
-0.0624999999999992
 40
-0.0624999999999992
 40
0.0
 40
0.0
 40
0.0312500000000007
 40
0.0312500000000007
 40
0.0625000000000013
 40
0.0625000000000013
 40
0.1250000000000026
 40
0.1250000000000026
 40
0.1562500000000027
 40
0.1562500000000027
 40
0.1875000000000028
 40
0.1875000000000028
 40
0.2187500000000029
 40
0.2187500000000029
 40
0.2500000000000031
 40
0.2500000000000031
 40
0.2812500000000032
 40
0.2812500000000032
 40
0.3125000000000033
 40
0.3125000000000033
 40
0.3437500000000034
 40
0.3437500000000034
 40
0.3750000000000034
 40
0.3750000000000034
 40
0.4062500000000036
 40
0.4062500000000036
 40
0.4375000000000037
 40
0.4375000000000037
 40
0.4687500000000038
 40
0.4687500000000038
 40
0.5000000000000039
 40
0.5000000000000039
 40
0.531250000000004
 40
0.531250000000004
 40
0.5625000000000041
 40
0.5625000000000041
 40
0.6250000000000043
 40
0.6250000000000043
 40
0.6562500000000044
 40
0.6562500000000044
 40
0.6875000000000046
 40
0.6875000000000046
 40
0.7500000000000048
 40
0.7500000000000048
 40
0.7812500000000041
 40
0.7812500000000041
 40
0.8125000000000034
 40
0.8125000000000034
 40
0.8437500000000028
 40
0.8437500000000028
 40
0.8750000000000021
 40
0.8750000000000021
 40
0.9062500000000014
 40
0.9062500000000014
 40
0.9375000000000008
 40
0.9375000000000008
 40
1.0
 40
1.0
 40
1.031250000000001
 40
1.031250000000001
 10
208.0422542594414
 20
119.0455982847816
 30
0.0
 10
208.0422542594414
 20
118.616003764735
 30
0.0
 10
208.0567419107437
 20
118.475919113469
 30
0.0
 10
208.112822296338
 20
118.2015131158662
 30
0.0
 10
208.1551606180724
 20
118.0661086194939
 30
0.0
 10
208.316235260923
 20
117.6862002752604
 30
0.0
 10
208.4714803316674
 20
117.4595163553012
 30
0.0
 10
208.753901573462
 20
117.1780176185659
 30
0.0
 10
208.8579790200863
 20
117.0923478949098
 30
0.0
 10
209.0790253929792
 20
116.9433523657933
 30
0.0
 10
209.196139230261
 20
116.8795016967853
 30
0.0
 10
209.4458718862234
 20
116.7733876879965
 30
0.0
 10
209.5799075589051
 20
116.7310911883624
 30
0.0
 10
209.8531619561759
 20
116.6745214673804
 30
0.0
 10
209.9955137187871
 20
116.6595087759174
 30
0.0
 10
210.2800770351388
 20
116.6589045677053
 30
0.0
 10
210.4200705302326
 20
116.6729129038907
 30
0.0
 10
210.695814088194
 20
116.7285972669323
 30
0.0
 10
210.8289184991226
 20
116.7699558954522
 30
0.0
 10
211.0804932075159
 20
116.8755047032558
 30
0.0
 10
211.2006111463867
 20
116.9404872063697
 30
0.0
 10
211.4225176469933
 20
117.0892413894502
 30
0.0
 10
211.5254424815147
 20
117.1733739165179
 30
0.0
 10
211.7162998613969
 20
117.3626201772726
 30
0.0
 10
211.8015450367404
 20
117.4650904572223
 30
0.0
 10
211.9526259546436
 20
117.6865767781431
 30
0.0
 10
212.0189154921334
 20
117.8066490785344
 30
0.0
 10
212.1278390058436
 20
118.0615863223041
 30
0.0
 10
212.1696584577019
 20
118.1940149007025
 30
0.0
 10
212.2269418689249
 20
118.469578490804
 30
0.0
 10
212.2419067111617
 20
118.6129641289192
 30
0.0
 10
212.2425895235883
 20
118.8952816684825
 30
0.0
 10
212.2285243015668
 20
119.0375704177932
 30
0.0
 10
212.1723415130573
 20
119.3148614038287
 30
0.0
 10
212.1310059947098
 20
119.4477029807312
 30
0.0
 10
211.9696051768136
 20
119.8303962369002
 30
0.0
 10
211.8144467086639
 20
120.057363970344
 30
0.0
 10
211.5305451132963
 20
120.3405025317132
 30
0.0
 10
211.428210036822
 20
120.4247822147896
 30
0.0
 10
211.2068297693351
 20
120.5742829013647
 30
0.0
 10
211.0867561433386
 20
120.6397403914075
 30
0.0
 10
210.7109542057946
 20
120.7989605275927
 30
0.0
 10
210.4288576601792
 20
120.8585788470424
 30
0.0
 10
210.0058562420967
 20
120.859505918383
 30
0.0
 10
209.8618910342913
 20
120.8451104259178
 30
0.0
 10
209.5873595627324
 20
120.7894013453339
 30
0.0
 10
209.4539607640952
 20
120.747924549925
 30
0.0
 10
209.2014358213095
 20
120.6416541231487
 30
0.0
 10
209.0836071145884
 20
120.5777373185606
 30
0.0
 10
208.8619503126585
 20
120.4291200532031
 30
0.0
 10
208.7574024953336
 20
120.3434807952357
 30
0.0
 10
208.5682711075928
 20
120.1557444342033
 30
0.0
 10
208.4829393274925
 20
120.0534010198423
 30
0.0
 10
208.3306888023747
 20
119.8299530302503
 30
0.0
 10
208.2640813372978
 20
119.7086105133962
 30
0.0
 10
208.1024251571671
 20
119.329059733428
 30
0.0
 10
208.0422542594414
 20
119.0455982847816
 30
0.0
 10
208.0422542594414
 20
118.616003764735
 30
0.0
  0
LINE
  5
121
330
1F
100
AcDbEntity
  8
0
  6
HIDDEN
 62
     7
370
     0
100
AcDbLine
 10
221.642250862
 20
118.7592019381
 30
0.0
 11
221.642250862
 21
131.7592022063
 31
0.0
  0
ELLIPSE
  5
122
330
1F
100
AcDbEntity
  8
0
  6
HIDDEN
 62
     7
370
     0
100
AcDbEllipse
 10
243.5374293887
 20
118.7592019381
 30
0.0
 11
-9.268362359823413
 21
12.98522500655781
 31
0.0
210
0.0
220
0.0
230
1.0
 40
0.0668534593
 41
6.235504004580371
 42
7.806300331375071
  0
LINE
  5
123
330
1F
100
AcDbEntity
  8
0
  6
HIDDEN
 62
     7
370
     0
100
AcDbLine
 10
245.7199047469
 20
114.5643611492
 30
0.0
 11
245.7213129066
 21
114.548279071
 31
0.0
  0
LINE
  5
124
330
1F
100
AcDbEntity
  8
0
  6
HIDDEN
 62
     7
370
     0
100
AcDbLine
 10
245.7213129066
 20
114.548279071
 30
0.0
 11
236.3474915884
 21
115.3663847184
 31
0.0
  0
LINE
  5
125
330
1F
100
AcDbEntity
  8
0
  6
HIDDEN
 62
     7
370
     0
100
AcDbLine
 10
233.4821473025
 20
112.5698453801
 30
0.0
 11
233.522820022
 21
112.5485995838
 31
0.0
  0
LINE
  5
126
330
1F
100
AcDbEntity
  8
0
  6
HIDDEN
 62
     7
370
     0
100
AcDbLine
 10
233.522820022
 20
112.5485995838
 30
0.0
 11
234.3547444008
 21
103.062825376
 31
0.0
  0
SPLINE
  5
127
330
1F
100
AcDbEntity
  8
0
  6
HIDDEN
 62
     7
370
     0
100
AcDbSpline
210
0.0
220
0.0
230
1.0
 70
     8
 71
     3
 72
    26
 73
    22
 74
     0
 42
0.00000001
 43
0.00000001
 12
1.0
 22
0.0
 32
0.0
 13
1.0
 23
0.0
 33
0.0
 40
0.0
 40
0.0
 40
0.0
 40
0.0
 40
0.2500000000000005
 40
0.2500000000000005
 40
0.3125000000000006
 40
0.3125000000000006
 40
0.3750000000000008
 40
0.3750000000000008
 40
0.5000000000000007
 40
0.5000000000000007
 40
0.5625000000000004
 40
0.5625000000000004
 40
0.6250000000000002
 40
0.6250000000000002
 40
0.7500000000000001
 40
0.7500000000000001
 40
0.8750000000000001
 40
0.8750000000000001
 40
0.9375000000000001
 40
0.9375000000000001
 40
1.0
 40
1.0
 40
1.0
 40
1.0
 10
222.5940805088182
 20
113.6942778821083
 30
0.0
 10
222.6023167852528
 20
112.3601643797411
 30
0.0
 10
222.6274182553639
 20
111.128621732185
 30
0.0
 10
222.6795346346424
 20
109.7139377525856
 30
0.0
 10
222.6910513405287
 20
109.4364696790209
 30
0.0
 10
222.7160323765384
 20
108.8989182793213
 30
0.0
 10
222.7294388631818
 20
108.6398559793639
 30
0.0
 10
222.7723005126053
 20
107.8910714787744
 30
0.0
 10
222.8043887604903
 20
107.4296155629172
 30
0.0
 10
222.8575489638235
 20
106.7936808619598
 30
0.0
 10
222.8761093310622
 20
106.5911117529403
 30
0.0
 10
222.9148981486518
 20
106.2051574416887
 30
0.0
 10
222.9352110315903
 20
106.0211353862063
 30
0.0
 10
222.9978142058698
 20
105.5054844120263
 30
0.0
 10
223.0418295327076
 20
105.2087655965637
 30
0.0
 10
223.1338679529195
 20
104.70676905347
 30
0.0
 10
223.1818920550251
 20
104.5014903288984
 30
0.0
 10
223.256698581312
 20
104.2643213702766
 30
0.0
 10
223.2821443257696
 20
104.1970880003215
 30
0.0
 10
223.3332403985669
 20
104.0883734790293
 30
0.0
 10
223.3589683414682
 20
104.046595800332
 30
0.0
 10
223.3848506138629
 20
104.0172974975725
 30
0.0
  0
SPLINE
  5
128
330
1F
100
AcDbEntity
  8
0
  6
HIDDEN
 62
     7
370
     0
100
AcDbSpline
210
0.0
220
0.0
230
1.0
 70
     8
 71
     3
 72
    10
 73
     6
 74
     0
 42
0.00000001
 43
0.00000001
 12
1.0
 22
0.0
 32
0.0
 13
1.0
 23
0.0
 33
0.0
 40
0.0
 40
0.0
 40
0.0
 40
0.0
 40
0.5
 40
0.5
 40
1.0
 40
1.0
 40
1.0
 40
1.0
 10
222.5940805088182
 20
113.6942778821083
 30
0.0
 10
222.3005979703924
 20
114.5027040970113
 30
0.0
 10
222.0584597914909
 20
115.339845944657
 30
0.0
 10
221.7285108400528
 20
117.04236303324
 30
0.0
 10
221.6422542594414
 20
117.9002975058007
 30
0.0
 10
221.6422542594414
 20
118.7592019380839
 30
0.0
  0
ELLIPSE
  5
129
330
1F
100
AcDbEntity
  8
0
  6
HIDDEN
 62
     7
370
     0
100
AcDbEllipse
 10
234.4765532854
 20
115.0473889221
 30
0.0
 11
1.616902374425194
 21
2.318196838028342
 31
0.0
210
0.0
220
0.0
230
1.0
 40
0.57803977
 41
3.54893439383403
 42
3.686857627939773
  0
ELLIPSE
  5
12A
330
1F
100
AcDbEntity
  8
0
  6
HIDDEN
 62
     7
370
     0
100
AcDbEllipse
 10
234.4765532854
 20
115.0473889221
 30
0.0
 11
2.099281448397733
 21
-0.127654356355535
 31
0.0
210
0.0
220
0.0
230
1.0
 40
0.4303093993
 41
0.3596638604385133
 42
0.4975870945442404
  0
LINE
  5
12B
330
1F
100
AcDbEntity
  8
0
  6
HIDDEN
 62
     7
370
     0
100
AcDbLine
 10
236.4608447216
 20
115.2458420077
 30
0.0
 11
236.4608447216
 21
115.4118623638
 31
0.0
  0
ARC
  5
12C
330
1F
100
AcDbEntity
  8
0
  6
HIDDEN
 62
     7
370
     0
100
AcDbCircle
 10
234.4782796669
 20
114.7275213681
 30
0.0
 40
2.097352329701862
100
AcDbArc
 50
250.8165840824
 51
19.0436292023
  0
LINE
  5
12D
330
1F
100
AcDbEntity
  8
0
  6
HIDDEN
 62
     7
370
     0
100
AcDbLine
 10
233.7891037725
 20
112.7466318251
 30
0.0
 11
233.7891037725
 21
112.5806110034
 31
0.0
  0
ARC
  5
12E
330
1F
100
AcDbEntity
  8
0
  6
HIDDEN
 62
     7
370
     0
100
AcDbCircle
 10
234.4736396676
 20
114.752176328
 30
0.0
 40
2.097254792867293
100
AcDbArc
 50
270.0796163335
 51
184.6434771791
  0
ARC
  5
12F
330
1F
100
AcDbEntity
  8
0
  6
HIDDEN
 62
     7
370
     0
100
AcDbCircle
 10
234.476303959
 20
114.7584409519
 30
0.0
 40
2.103517406903235
100
AcDbArc
 50
240.8380368332
 51
270.0068090849
  0
LINE
  5
130
330
1F
100
AcDbEntity
  8
0
  6
HIDDEN
 62
     7
370
     0
100
AcDbLine
 10
243.9638476037
 20
116.3115227649
 30
0.0
 11
245.5983336233
 21
115.9504687933
 31
0.0
  0
LINE
  5
131
330
1F
100
AcDbEntity
  8
0
  6
HIDDEN
 62
     7
370
     0
100
AcDbLine
 10
245.4855690859
 20
114.4582043456
 30
0.0
 11
236.4608447216
 21
115.2458420077
 31
0.0
  0
LINE
  5
132
330
1F
100
AcDbEntity
  8
0
  6
HIDDEN
 62
     7
370
     0
100
AcDbLine
 10
245.4855690859
 20
114.4582043456
 30
0.0
 11
245.7213129066
 21
114.548279071
 31
0.0
  0
LINE
  5
133
330
1F
100
AcDbEntity
  8
0
  6
HIDDEN
 62
     7
370
     0
100
AcDbLine
 10
233.7891037725
 20
112.5806110034
 30
0.0
 11
234.5981623195
 21
103.3555791767
 31
0.0
  0
ELLIPSE
  5
134
330
1F
100
AcDbEntity
  8
0
  6
HIDDEN
 62
     7
370
     0
100
AcDbEllipse
 10
233.0085596222
 20
118.188864285
 30
0.0
 11
-1.234662209537134
 21
15.16181196135368
 31
0.0
210
0.0
220
0.0
230
1.0
 40
0.1268365588
 41
3.200742838064811
 42
3.340067302980165
  0
LINE
  5
135
330
1F
100
AcDbEntity
  8
0
  6
HIDDEN
 62
     7
370
     0
100
AcDbLine
 10
245.1899598502
 20
114.650023734
 30
0.0
 11
245.4855690859
 21
114.4582043456
 31
0.0
  0
LINE
  5
136
330
1F
100
AcDbEntity
  8
0
  6
HIDDEN
 62
     7
370
     0
100
AcDbLine
 10
233.7891037725
 20
112.7466318251
 30
0.0
 11
234.5483998917
 21
104.0890515836
 31
0.0
  0
ELLIPSE
  5
137
330
1F
100
AcDbEntity
  8
0
  6
HIDDEN
 62
     7
370
     0
100
AcDbEllipse
 10
233.2857148459
 20
118.1646163449
 30
0.0
 11
-1.324341834637124
 21
15.17315408843662
 31
0.0
210
0.0
220
0.0
230
1.0
 40
0.0059876405
 41
3.360588539338103
 42
3.523763302746118
  0
SPLINE
  5
138
330
1F
100
AcDbEntity
  8
0
  6
HIDDEN
 62
     7
370
     0
100
AcDbSpline
210
0.0
220
0.0
230
1.0
 70
     8
 71
     3
 72
     8
 73
     4
 74
     0
 42
0.00000001
 43
0.00000001
 12
1.0
 22
0.0
 32
0.0
 13
1.0
 23
0.0
 33
0.0
 40
0.0
 40
0.0
 40
0.0
 40
0.0
 40
1.0
 40
1.0
 40
1.0
 40
1.0
 10
155.647214281499
 20
105.0201174069263
 30
0.0
 10
155.6979414247057
 20
104.9743631056011
 30
0.0
 10
155.7558287542666
 20
104.9458589597375
 30
0.0
 10
155.8209339158818
 20
104.9341379300787
 30
0.0
  0
LINE
  5
139
330
1F
100
AcDbEntity
  8
0
  6
HIDDEN
 62
     7
370
     0
100
AcDbLine
 10
155.4422542369
 20
104.8389655592
 30
0.0
 11
155.4422542369
 21
104.7391035648
 31
0.0
  0
SPLINE
  5
13A
330
1F
100
AcDbEntity
  8
0
  6
HIDDEN
 62
     7
370
     0
100
AcDbSpline
210
0.0
220
0.0
230
1.0
 70
     8
 71
     3
 72
    24
 73
    20
 74
     0
 42
0.00000001
 43
0.00000001
 12
1.0
 22
0.0
 32
0.0
 13
1.0
 23
0.0
 33
0.0
 40
0.0
 40
0.0
 40
0.0
 40
0.0
 40
0.2500000000000122
 40
0.2500000000000122
 40
0.3750000000000185
 40
0.3750000000000185
 40
0.4375000000000228
 40
0.4375000000000228
 40
0.4687500000000227
 40
0.4687500000000227
 40
0.5000000000000226
 40
0.5000000000000226
 40
0.5625000000000209
 40
0.5625000000000209
 40
0.6250000000000191
 40
0.6250000000000191
 40
0.7500000000000133
 40
0.7500000000000133
 40
1.0
 40
1.0
 40
1.0
 40
1.0
 10
155.4422542594414
 20
104.8389655497765
 30
0.0
 10
155.4426571700772
 20
104.8693897866145
 30
0.0
 10
155.4447011494178
 20
104.9022478871686
 30
0.0
 10
155.4539383922438
 20
104.9582732543222
 30
0.0
 10
155.4578254552244
 20
104.9778843075076
 30
0.0
 10
155.468729346631
 20
105.0121585909371
 30
0.0
 10
155.4728713923814
 20
105.0242210164093
 30
0.0
 10
155.4847664661342
 20
105.0465401811088
 30
0.0
 10
155.490013530443
 20
105.0555066934691
 30
0.0
 10
155.506880596822
 20
105.0731562579954
 30
0.0
 10
155.5147030043472
 20
105.0773005421352
 30
0.0
 10
155.5316518049688
 20
105.0837880833092
 30
0.0
 10
155.5391081561868
 20
105.0831912019376
 30
0.0
 10
155.5531680593791
 20
105.0814449379656
 30
0.0
 10
155.5593004445151
 20
105.0796142500671
 30
0.0
 10
155.5765952070383
 20
105.0730478404943
 30
0.0
 10
155.5866125254473
 20
105.0671826253356
 30
0.0
 10
155.6149838596901
 20
105.0484379413053
 30
0.0
 10
155.6315192973345
 20
105.0342737932186
 30
0.0
 10
155.647214281499
 20
105.0201174069263
 30
0.0
  0
LINE
  5
13B
330
1F
100
AcDbEntity
  8
0
  6
HIDDEN
 62
     7
370
     0
100
AcDbLine
 10
134.6422533654
 20
109.101590799
 30
0.0
 11
134.6422533654
 21
105.2616714554
 31
0.0
  0
LINE
  5
13C
330
1F
100
AcDbEntity
  8
0
  6
HIDDEN
 62
     7
370
     0
100
AcDbLine
 10
133.1422540508
 20
109.5346036421
 30
0.0
 11
133.1422540508
 21
106.1276971416
 31
0.0
  0
LINE
  5
13D
330
1F
100
AcDbEntity
  8
0
  6
HIDDEN
 62
     7
370
     0
100
AcDbLine
 10
155.4422542369
 20
108.840306388
 30
0.0
 11
155.4422542369
 21
107.7851635458
 31
0.0
  0
SPLINE
  5
13E
330
1F
100
AcDbEntity
  8
0
  6
HIDDEN
 62
     7
370
     0
100
AcDbSpline
210
0.0
220
0.0
230
1.0
 70
     8
 71
     3
 72
    16
 73
    12
 74
     0
 42
0.00000001
 43
0.00000001
 12
1.0
 22
0.0
 32
0.0
 13
1.0
 23
0.0
 33
0.0
 40
0.0
 40
0.0
 40
0.0
 40
0.0
 40
0.2500000000000001
 40
0.2500000000000001
 40
0.3750000000000001
 40
0.3750000000000001
 40
0.5000000000000001
 40
0.5000000000000001
 40
0.7500000000000001
 40
0.7500000000000001
 40
1.0
 40
1.0
 40
1.0
 40
1.0
 10
155.4422542594413
 20
107.7851639458374
 30
0.0
 10
155.3617169275421
 20
107.3961567618934
 30
0.0
 10
155.3016795835148
 20
107.0396563202691
 30
0.0
 10
155.2409418763612
 20
106.5531539350818
 30
0.0
 10
155.2256195012483
 20
106.3990749942283
 30
0.0
 10
155.205036691944
 20
106.1076054357357
 30
0.0
 10
155.1998370949183
 20
105.9700355518368
 30
0.0
 10
155.199783441738
 20
105.5917907166476
 30
0.0
 10
155.2199809852155
 20
105.3819096480955
 30
0.0
 10
155.3006590735729
 20
105.0453303491837
 30
0.0
 10
155.3617052381799
 20
104.9190458572651
 30
0.0
 10
155.4422542594376
 20
104.8389655497727
 30
0.0
  0
LINE
  5
13F
330
1F
100
AcDbEntity
  8
0
  6
HIDDEN
 62
     7
370
     0
100
AcDbLine
 10
155.4422542369
 20
132.7793003114
 30
0.0
 11
155.4422542369
 21
132.679438317
 31
0.0
  0
SPLINE
  5
140
330
1F
100
AcDbEntity
  8
0
  6
HIDDEN
 62
     7
370
     0
100
AcDbSpline
210
0.0
220
0.0
230
1.0
 70
     8
 71
     3
 72
    24
 73
    20
 74
     0
 42
0.00000001
 43
0.00000001
 12
1.0
 22
0.0
 32
0.0
 13
1.0
 23
0.0
 33
0.0
 40
0.0
 40
0.0
 40
0.0
 40
0.0
 40
0.2500000000000102
 40
0.2500000000000102
 40
0.3750000000000157
 40
0.3750000000000157
 40
0.437500000000017
 40
0.437500000000017
 40
0.5000000000000183
 40
0.5000000000000183
 40
0.5312500000000192
 40
0.5312500000000192
 40
0.5625000000000202
 40
0.5625000000000202
 40
0.6250000000000194
 40
0.6250000000000194
 40
0.7500000000000137
 40
0.7500000000000137
 40
1.0
 40
1.0
 40
1.0
 40
1.0
 10
155.6472142815018
 20
132.4982864692439
 30
0.0
 10
155.6314476932034
 20
132.4840654982556
 30
0.0
 10
155.6148361602488
 20
132.4698352079208
 30
0.0
 10
155.5863098122908
 20
132.4510381526993
 30
0.0
 10
155.5762243785008
 20
132.4451497323581
 30
0.0
 10
155.5587416079659
 20
132.4386123375557
 30
0.0
 10
155.5525339515204
 20
132.4368011235545
 30
0.0
 10
155.5382624512752
 20
132.435195321048
 30
0.0
 10
155.5306923807722
 20
132.434642543662
 30
0.0
 10
155.5132960513369
 20
132.4418412883747
 30
0.0
 10
155.5048367783768
 20
132.4469330371224
 30
0.0
 10
155.4887758138292
 20
132.4647479696015
 30
0.0
 10
155.483942577983
 20
132.4732703844639
 30
0.0
 10
155.4725166582477
 20
132.4951668211126
 30
0.0
 10
155.4684953023652
 20
132.5069073439185
 30
0.0
 10
155.4577348073341
 20
132.5409576078719
 30
0.0
 10
155.4538604982732
 20
132.5605325969006
 30
0.0
 10
155.444687626146
 20
132.6163809055818
 30
0.0
 10
155.4426552554313
 20
132.6491586666107
 30
0.0
 10
155.4422542594414
 20
132.6794383263986
 30
0.0
  0
LINE
  5
141
330
1F
100
AcDbEntity
  8
0
  6
HIDDEN
 62
     7
370
     0
100
AcDbLine
 10
134.6422533654
 20
132.2567324208
 30
0.0
 11
134.6422533654
 21
128.4168130772
 31
0.0
  0
LINE
  5
142
330
1F
100
AcDbEntity
  8
0
  6
HIDDEN
 62
     7
370
     0
100
AcDbLine
 10
133.1422540508
 20
131.3907067345
 30
0.0
 11
133.1422540508
 21
127.9838002341
 31
0.0
  0
LINE
  5
143
330
1F
100
AcDbEntity
  8
0
  6
HIDDEN
 62
     7
370
     0
100
AcDbLine
 10
155.4422542369
 20
129.7332403304
 30
0.0
 11
155.4422542369
 21
128.6780974882
 31
0.0
  0
SPLINE
  5
144
330
1F
100
AcDbEntity
  8
0
  6
HIDDEN
 62
     7
370
     0
100
AcDbSpline
210
0.0
220
0.0
230
1.0
 70
     8
 71
     3
 72
    16
 73
    12
 74
     0
 42
0.00000001
 43
0.00000001
 12
1.0
 22
0.0
 32
0.0
 13
1.0
 23
0.0
 33
0.0
 40
0.0
 40
0.0
 40
0.0
 40
0.0
 40
0.2499999999999998
 40
0.2499999999999998
 40
0.3749999999999998
 40
0.3749999999999998
 40
0.4999999999999999
 40
0.4999999999999999
 40
0.7499999999999999
 40
0.7499999999999999
 40
1.0
 40
1.0
 40
1.0
 40
1.0
 10
155.4422542594413
 20
132.6794383263988
 30
0.0
 10
155.3617169275417
 20
132.5993696402462
 30
0.0
 10
155.3016795835144
 20
132.4755051487556
 30
0.0
 10
155.2409418763607
 20
132.2248243248227
 30
0.0
 10
155.2256195012478
 20
132.1303857205129
 30
0.0
 10
155.2050366919437
 20
131.9190746528934
 30
0.0
 10
155.1998370949181
 20
131.8017851981394
 30
0.0
 10
155.1997834417383
 20
131.4237495263829
 30
0.0
 10
155.2199809852162
 20
131.1349723726378
 30
0.0
 10
155.3006590735749
 20
130.4851325094966
 30
0.0
 10
155.3617052381828
 20
130.1223035756026
 30
0.0
 10
155.4422542594414
 20
129.7332399303297
 30
0.0
  0
SPLINE
  5
145
330
1F
100
AcDbEntity
  8
0
  6
HIDDEN
 62
     7
370
     0
100
AcDbSpline
210
0.0
220
0.0
230
1.0
 70
     8
 71
     3
 72
     8
 73
     4
 74
     0
 42
0.00000001
 43
0.00000001
 12
1.0
 22
0.0
 32
0.0
 13
1.0
 23
0.0
 33
0.0
 40
0.0
 40
0.0
 40
0.0
 40
0.0
 40
1.0
 40
1.0
 40
1.0
 40
1.0
 10
155.8209339158818
 20
132.5842659460891
 30
0.0
 10
155.7558287542677
 20
132.5725449164304
 30
0.0
 10
155.6979414247077
 20
132.5440407705677
 30
0.0
 10
155.6472142815017
 20
132.4982864692439
 30
0.0
  0
LINE
  5
146
330
1F
100
AcDbEntity
  8
0
  6
HIDDEN
 62
     7
370
     0
100
AcDbLine
 10
245.6552933119
 20
103.144249046
 30
0.0
 11
246.1530218981
 21
103.6690269651
 31
0.0
  0
CIRCLE
  5
147
330
1F
100
AcDbEntity
  8
0
  6
HIDDEN
 62
     7
370
     0
100
AcDbCircle
 10
240.1605691572
 20
109.0602975112
 30
0.0
 40
2.998022207765889
  0
LINE
  5
148
330
1F
100
AcDbEntity
  8
0
  6
HIDDEN
 62
     7
370
     0
100
AcDbLine
 10
245.1899598502
 20
114.650023734
 30
0.0
 11
236.4608447216
 21
115.4118623638
 31
0.0
  0
ELLIPSE
  5
149
330
1F
100
AcDbEntity
  8
0
  6
HIDDEN
 62
     7
370
     0
100
AcDbEllipse
 10
-522.6138889359
 20
184.2972624395
 30
0.0
 11
2457.893071165027
 21
-213.9913749490397
 31
0.0
210
0.0
220
0.0
230
1.0
 40
0.0060650906
 41
5.026063215028911
 42
5.030816750079934
  0
LINE
  5
14A
330
1F
100
AcDbEntity
  8
0
  6
HIDDEN
 62
     7
370
     0
100
AcDbLine
 10
245.1899598502
 20
114.650023734
 30
0.0
 11
246.1530218981
 21
103.6690269651
 31
0.0
  0
CIRCLE
  5
14B
330
1F
100
AcDbEntity
  8
0
  6
HIDDEN
 62
     7
370
     0
100
AcDbCircle
 10
240.1589936227
 20
109.1208012326
 30
0.0
 40
2.09752887553332
  0
SPLINE
  5
14C
330
1F
100
AcDbEntity
  8
0
  6
HIDDEN
 62
     7
370
     0
100
AcDbSpline
210
0.0
220
0.0
230
1.0
 70
     8
 71
     3
 72
    24
 73
    20
 74
     0
 42
0.00000001
 43
0.00000001
 12
1.0
 22
0.0
 32
0.0
 13
1.0
 23
0.0
 33
0.0
 40
0.0
 40
0.0
 40
0.0
 40
0.0
 40
0.0286682659387901
 40
0.0590911702072079
 40
0.0912687183058218
 40
0.1252009117442018
 40
0.1547219312409299
 40
0.1878253215605376
 40
0.2504516099145558
 40
0.3130776304560943
 40
0.3756963431333589
 40
0.5008452984244511
 40
0.6258839544939827
 40
0.689780707710118
 40
0.7508024788770549
 40
0.8142448376603002
 40
0.8755192806652682
 40
0.9386200709656101
 40
1.0
 40
1.0
 40
1.0
 40
1.0
 10
243.9305602215474
 20
111.8275777895507
 30
0.0
 10
243.9453380512451
 20
111.7171798078517
 30
0.0
 10
243.9757981862189
 20
111.4896269471019
 30
0.0
 10
244.0236398446384
 20
111.1424293681255
 30
0.0
 10
244.0748472931936
 20
110.7790187574743
 30
0.0
 10
244.1262531649369
 20
110.4235564765374
 30
0.0
 10
244.1787732805539
 20
110.0692323710157
 30
0.0
 10
244.2476312517345
 20
109.6157691353452
 30
0.0
 10
244.336046216974
 20
109.0548388394602
 30
0.0
 10
244.4427567819471
 20
108.4103665465809
 30
0.0
 10
244.5870423642506
 20
107.5815871838966
 30
0.0
 10
244.770593586835
 20
106.6060582396151
 30
0.0
 10
244.9573798320169
 20
105.7172806661196
 30
0.0
 10
245.1063114244991
 20
105.0702542967725
 30
0.0
 10
245.2184633015771
 20
104.6138677342289
 30
0.0
 10
245.3286665523103
 20
104.1954647275424
 30
0.0
 10
245.4394254138595
 20
103.8064785102109
 30
0.0
 10
245.5481301445101
 20
103.4531740150374
 30
0.0
 10
245.6199042618869
 20
103.2462676433121
 30
0.0
 10
245.6552952064013
 20
103.1442446273692
 30
0.0
  0
SPLINE
  5
14D
330
1F
100
AcDbEntity
  8
0
  6
HIDDEN
 62
     7
370
     0
100
AcDbSpline
210
0.0
220
0.0
230
1.0
 70
     8
 71
     3
 72
    27
 73
    23
 74
     0
 42
0.00000001
 43
0.00000001
 12
1.0
 22
0.0
 32
0.0
 13
1.0
 23
0.0
 33
0.0
 40
0.0
 40
0.0
 40
0.0
 40
0.0
 40
0.0248910711758263
 40
0.0497710169134843
 40
0.0746519850335767
 40
0.099546121860003
 40
0.1244655544604481
 40
0.1867825004813453
 40
0.2491872669684201
 40
0.3116351069526904
 40
0.3741320588044377
 40
0.436670657921845
 40
0.4992429614797855
 40
0.5618406067139853
 40
0.6244549237456938
 40
0.687077066911563
 40
0.7496980510927239
 40
0.8123089568168043
 40
0.8435903517789204
 40
0.874906760742238
 40
0.9374336672396937
 40
1.0
 40
1.0
 40
1.0
 40
1.0
 10
246.1530222492378
 20
103.6690268291308
 30
0.0
 10
246.137181298355
 20
103.7128273945194
 30
0.0
 10
246.1055064769405
 20
103.8004089479759
 30
0.0
 10
246.0576436331609
 20
103.9401596259264
 30
0.0
 10
246.0095494870945
 20
104.0859756556437
 30
0.0
 10
245.9611965951701
 20
104.2384648108787
 30
0.0
 10
245.8883090247651
 20
104.4768991500205
 30
0.0
 10
245.7903905674301
 20
104.8172476774544
 30
0.0
 10
245.6671705413142
 20
105.2810969893169
 30
0.0
 10
245.5434507142094
 20
105.7820451700224
 30
0.0
 10
245.4196355809519
 20
106.3184836891337
 30
0.0
 10
245.2961023051162
 20
106.888795422369
 30
0.0
 10
245.1732348948161
 20
107.4911585580382
 30
0.0
 10
245.0514180529788
 20
108.1237537722269
 30
0.0
 10
244.9310285680047
 20
108.7845467982426
 30
0.0
 10
244.8124448695499
 20
109.4715421108051
 30
0.0
 10
244.6960332839897
 20
110.1825310810953
 30
0.0
 10
244.6011411039655
 20
110.7932339935332
 30
0.0
 10
244.5266595243323
 20
111.2915574178214
 30
0.0
 10
244.4532667906773
 20
111.7958624769787
 30
0.0
 10
244.3632719863524
 20
112.4365238993615
 30
0.0
 10
244.2943428461146
 20
112.9614099402572
 30
0.0
 10
244.2598674136245
 20
113.2239356761864
 30
0.0
  0
SPLINE
  5
14E
330
1F
100
AcDbEntity
  8
0
  6
HIDDEN
 62
     7
370
     0
100
AcDbSpline
210
0.0
220
0.0
230
1.0
 70
     8
 71
     3
 72
    64
 73
    60
 74
     0
 42
0.00000001
 43
0.00000001
 12
1.0
 22
0.0
 32
0.0
 13
1.0
 23
0.0
 33
0.0
 40
-0.0312500000000003
 40
-0.0312500000000003
 40
0.0
 40
0.0
 40
0.0312499999999997
 40
0.0312499999999997
 40
0.0624999999999995
 40
0.0624999999999995
 40
0.0937499999999992
 40
0.0937499999999992
 40
0.1249999999999989
 40
0.1249999999999989
 40
0.1562499999999987
 40
0.1562499999999987
 40
0.1874999999999984
 40
0.1874999999999984
 40
0.2187499999999982
 40
0.2187499999999982
 40
0.2499999999999979
 40
0.2499999999999979
 40
0.3124999999999977
 40
0.3124999999999977
 40
0.3749999999999975
 40
0.3749999999999975
 40
0.4062499999999974
 40
0.4062499999999974
 40
0.4374999999999974
 40
0.4374999999999974
 40
0.4687499999999974
 40
0.4687499999999974
 40
0.4999999999999973
 40
0.4999999999999973
 40
0.5312499999999973
 40
0.5312499999999973
 40
0.5624999999999972
 40
0.5624999999999972
 40
0.5937499999999972
 40
0.5937499999999972
 40
0.6249999999999971
 40
0.6249999999999971
 40
0.6562499999999972
 40
0.6562499999999972
 40
0.6874999999999973
 40
0.6874999999999973
 40
0.7187499999999973
 40
0.7187499999999973
 40
0.7499999999999974
 40
0.7499999999999974
 40
0.7812499999999976
 40
0.7812499999999976
 40
0.8124999999999976
 40
0.8124999999999976
 40
0.8749999999999984
 40
0.8749999999999984
 40
0.9062499999999989
 40
0.9062499999999989
 40
0.9374999999999993
 40
0.9374999999999993
 40
0.9687499999999997
 40
0.9687499999999997
 40
1.0
 40
1.0
 40
1.03125
 40
1.03125
 10
240.0049695903656
 20
107.3519019959317
 30
0.0
 10
240.3180801256435
 20
107.3537834780297
 30
0.0
 10
240.4681650146586
 20
107.3731402161808
 30
0.0
 10
240.7577001528163
 20
107.4430393069952
 30
0.0
 10
240.8961258274394
 20
107.4938840991386
 30
0.0
 10
241.1503045042912
 20
107.6174451105121
 30
0.0
 10
241.2689972097242
 20
107.691493525635
 30
0.0
 10
241.4835059416044
 20
107.8546175826717
 30
0.0
 10
241.5802896229055
 20
107.943992912297
 30
0.0
 10
241.7560405564415
 20
108.1370255115054
 30
0.0
 10
241.8353009330864
 20
108.2414221272098
 30
0.0
 10
241.9730824749662
 20
108.458872183081
 30
0.0
 10
242.0321481432741
 20
108.5723608198508
 30
0.0
 10
242.1313076366402
 20
108.8089707898222
 30
0.0
 10
242.1715061078389
 20
108.9329685650017
 30
0.0
 10
242.2302629891095
 20
109.1845916540236
 30
0.0
 10
242.2491638758887
 20
109.312673941866
 30
0.0
 10
242.2732129308612
 20
109.7038645837759
 30
0.0
 10
242.2445862685827
 20
109.977876130046
 30
0.0
 10
242.0849834355218
 20
110.5058924898781
 30
0.0
 10
241.9512135795632
 20
110.7664702597364
 30
0.0
 10
241.6753416372235
 20
111.104944580501
 30
0.0
 10
241.5688376013285
 20
111.2116534937259
 30
0.0
 10
241.333440495708
 20
111.4005033221374
 30
0.0
 10
241.2062325607067
 20
111.4818971595766
 30
0.0
 10
240.9319821823158
 20
111.6169710699121
 30
0.0
 10
240.7836534905723
 20
111.6704582544333
 30
0.0
 10
240.4832730423969
 20
111.7412018074116
 30
0.0
 10
240.3277795054732
 20
111.7596823195559
 30
0.0
 10
240.0156790426043
 20
111.7604300797575
 30
0.0
 10
239.862424059151
 20
111.7430568833755
 30
0.0
 10
239.561374668312
 20
111.6740844295341
 30
0.0
 10
239.4152486278738
 20
111.6223761155215
 30
0.0
 10
239.1429292722472
 20
111.491194649109
 30
0.0
 10
239.0136929242097
 20
111.4101431418201
 30
0.0
 10
238.780786956578
 20
111.2275208104135
 30
0.0
 10
238.6761894438169
 20
111.1258865018528
 30
0.0
 10
238.4892561627283
 20
110.9040038129651
 30
0.0
 10
238.4093767204718
 20
110.7866003092581
 30
0.0
 10
238.2744806041385
 20
110.5424344610791
 30
0.0
 10
238.2190440265645
 20
110.4143505956134
 30
0.0
 10
238.1338140701278
 20
110.1562656423087
 30
0.0
 10
238.1036295898376
 20
110.0260092590878
 30
0.0
 10
238.0660082860015
 20
109.7636127822321
 30
0.0
 10
238.058745841655
 20
109.6309719439252
 30
0.0
 10
238.066220878778
 20
109.3712341693652
 30
0.0
 10
238.0807489749107
 20
109.2432461394109
 30
0.0
 10
238.1307472659272
 20
108.9908221288316
 30
0.0
 10
238.1666111528782
 20
108.8655757096563
 30
0.0
 10
238.3037538594935
 20
108.5045581302588
 30
0.0
 10
238.4331823832859
 20
108.2804697149705
 30
0.0
 10
238.6981469316913
 20
107.972725550129
 30
0.0
 10
238.7963157757797
 20
107.8776654024043
 30
0.0
 10
239.0159631137421
 20
107.7041183629609
 30
0.0
 10
239.1390825732765
 20
107.6249527743399
 30
0.0
 10
239.4035394519237
 20
107.4941093503009
 30
0.0
 10
239.5480067289166
 20
107.44097662107
 30
0.0
 10
239.8486528080334
 20
107.3699552208382
 30
0.0
 10
240.0049695903656
 20
107.3519019959317
 30
0.0
 10
240.3180801256435
 20
107.3537834780297
 30
0.0
  0
CIRCLE
  5
14F
330
1F
100
AcDbEntity
  8
0
  6
HIDDEN
 62
     7
370
     0
100
AcDbCircle
 10
210.1422542594
 20
118.7592019381
 30
0.0
 40
2.099999999999994
  0
CIRCLE
  5
150
330
1F
100
AcDbEntity
  8
0
  6
HIDDEN
 62
     7
370
     0
100
AcDbCircle
 10
210.1422542594
 20
118.7592019381
 30
0.0
 40
2.5
  0
LINE
  5
151
330
1F
100
AcDbEntity
  8
0
  6
HIDDEN
 62
     7
370
     0
100
AcDbLine
 10
133.1422540508
 20
127.9838002341
 30
0.0
 11
133.1422540508
 21
120.6094157936
 31
0.0
  0
LINE
  5
152
330
1F
100
AcDbEntity
  8
0
  6
HIDDEN
 62
     7
370
     0
100
AcDbLine
 10
133.1422540508
 20
116.9089880826
 30
0.0
 11
133.1422540508
 21
109.5346036421
 31
0.0
  0
SPLINE
  5
153
330
1F
100
AcDbEntity
  8
0
  6
HIDDEN
 62
     7
370
     0
100
AcDbSpline
210
0.0
220
0.0
230
1.0
 70
     8
 71
     3
 72
    24
 73
    20
 74
     0
 42
0.00000001
 43
0.00000001
 12
1.0
 22
0.0
 32
0.0
 13
1.0
 23
0.0
 33
0.0
 40
0.0
 40
0.0
 40
0.0
 40
0.0
 40
0.2500000000000056
 40
0.2500000000000056
 40
0.3750000000000098
 40
0.3750000000000098
 40
0.4375000000000088
 40
0.4375000000000088
 40
0.5000000000000078
 40
0.5000000000000078
 40
0.5312500000000071
 40
0.5312500000000071
 40
0.5625000000000066
 40
0.5625000000000066
 40
0.6250000000000052
 40
0.6250000000000052
 40
0.7500000000000026
 40
0.7500000000000026
 40
1.0
 40
1.0
 40
1.0
 40
1.0
 10
155.6472142815018
 20
107.9666082112856
 30
0.0
 10
155.6314454041444
 20
107.892749519356
 30
0.0
 10
155.6148314222943
 20
107.8190381306203
 30
0.0
 10
155.5862997562892
 20
107.7074913069983
 30
0.0
 10
155.5762123414706
 20
107.6701197338698
 30
0.0
 10
155.5587247810162
 20
107.6132202362321
 30
0.0
 10
155.552515219233
 20
107.5941171360868
 30
0.0
 10
155.5382376655803
 20
107.5552436218512
 30
0.0
 10
155.5306661177849
 20
107.5353189624179
 30
0.0
 10
155.5132485341067
 20
107.5052467443905
 30
0.0
 10
155.5047660374616
 20
107.4935653655874
 30
0.0
 10
155.4887277255899
 20
107.4863038548388
 30
0.0
 10
155.4839071773863
 20
107.4898821018485
 30
0.0
 10
155.4724979528384
 20
107.5016429570802
 30
0.0
 10
155.4684774723808
 20
107.5133086071307
 30
0.0
 10
155.4577236175605
 20
107.5498439372443
 30
0.0
 10
155.4538509362784
 20
107.5772396705678
 30
0.0
 10
155.4446827864408
 20
107.6619656623238
 30
0.0
 10
155.4426542810716
 20
107.7227977844959
 30
0.0
 10
155.4422542594414
 20
107.7851639458375
 30
0.0
  0
SPLINE
  5
154
330
1F
100
AcDbEntity
  8
0
  6
HIDDEN
 62
     7
370
     0
100
AcDbSpline
210
0.0
220
0.0
230
1.0
 70
     8
 71
     3
 72
    24
 73
    20
 74
     0
 42
0.00000001
 43
0.00000001
 12
1.0
 22
0.0
 32
0.0
 13
1.0
 23
0.0
 33
0.0
 40
0.0
 40
0.0
 40
0.0
 40
0.0
 40
0.2499999999999882
 40
0.2499999999999882
 40
0.3749999999999828
 40
0.3749999999999828
 40
0.43749999999998
 40
0.43749999999998
 40
0.4687499999999787
 40
0.4687499999999787
 40
0.4999999999999775
 40
0.4999999999999775
 40
0.5624999999999797
 40
0.5624999999999797
 40
0.624999999999982
 40
0.624999999999982
 40
0.7499999999999901
 40
0.7499999999999901
 40
1.0
 40
1.0
 40
1.0
 40
1.0
 10
155.4422542594377
 20
129.7332399303325
 30
0.0
 10
155.4426589290134
 20
129.796330738826
 30
0.0
 10
155.4447023758276
 20
129.8575164613293
 30
0.0
 10
155.4541019410815
 20
129.9430161938324
 30
0.0
 10
155.4580528346101
 20
129.970596577274
 30
0.0
 10
155.4692051429064
 20
130.0070506593867
 30
0.0
 10
155.4734266838329
 20
130.0189090810813
 30
0.0
 10
155.485634405395
 20
130.0295291324588
 30
0.0
 10
155.4914251756452
 20
130.0323624996832
 30
0.0
 10
155.5083466887549
 20
130.0210479126908
 30
0.0
 10
155.5157528047063
 20
130.0092670269366
 30
0.0
 10
155.5322100579509
 20
129.9792261857064
 30
0.0
 10
155.5396665758621
 20
129.959513232093
 30
0.0
 10
155.5535745051372
 20
129.9211111660323
 30
0.0
 10
155.5596664510323
 20
129.9022295161206
 30
0.0
 10
155.5768607433837
 20
129.8459286055884
 30
0.0
 10
155.5868456935875
 20
129.8088525277783
 30
0.0
 10
155.6150917386868
 20
129.6981938568871
 30
0.0
 10
155.6315712756481
 20
129.6250647964777
 30
0.0
 10
155.647214281508
 20
129.551795664853
 30
0.0
  0
SPLINE
  5
155
330
1F
100
AcDbEntity
  8
0
  6
HIDDEN
 62
     7
370
     0
100
AcDbSpline
210
0.0
220
0.0
230
1.0
 70
     8
 71
     3
 72
     8
 73
     4
 74
     0
 42
0.00000001
 43
0.00000001
 12
1.0
 22
0.0
 32
0.0
 13
1.0
 23
0.0
 33
0.0
 40
0.0
 40
0.0
 40
0.0
 40
0.0
 40
1.0
 40
1.0
 40
1.0
 40
1.0
 10
155.8209339158818
 20
108.7056826204771
 30
0.0
 10
155.7558287542677
 20
108.4506573852714
 30
0.0
 10
155.6979414247077
 20
108.2042053691302
 30
0.0
 10
155.6472142815017
 20
107.9666082112856
 30
0.0
  0
SPLINE
  5
156
330
1F
100
AcDbEntity
  8
0
  6
HIDDEN
 62
     7
370
     0
100
AcDbSpline
210
0.0
220
0.0
230
1.0
 70
     8
 71
     3
 72
     8
 73
     4
 74
     0
 42
0.00000001
 43
0.00000001
 12
1.0
 22
0.0
 32
0.0
 13
1.0
 23
0.0
 33
0.0
 40
0.0
 40
0.0
 40
0.0
 40
0.0
 40
1.0
 40
1.0
 40
1.0
 40
1.0
 10
155.647214281508
 20
129.551795664853
 30
0.0
 10
155.6979414247125
 20
129.3141985070174
 30
0.0
 10
155.7558287542704
 20
129.0677464908859
 30
0.0
 10
155.8209339158818
 20
128.8127212556907
 30
0.0
  0
LINE
  5
157
330
1F
100
AcDbEntity
  8
0
  6
HIDDEN
 62
     7
370
     0
100
AcDbLine
 10
134.6422533654
 20
116.2041736355
 30
0.0
 11
134.6422533654
 21
109.101590799
 31
0.0
  0
LINE
  5
158
330
1F
100
AcDbEntity
  8
0
  6
HIDDEN
 62
     7
370
     0
100
AcDbLine
 10
134.6422533654
 20
128.4168130772
 30
0.0
 11
134.6422533654
 21
121.3142302407
 31
0.0
  0
LINE
  5
159
330
1F
100
AcDbEntity
  8
0
  6
HIDDEN
 62
     7
370
     0
100
AcDbLine
 10
155.4422542369
 20
128.6780974882
 30
0.0
 11
155.4422542369
 21
108.840306388
 31
0.0
  0
LINE
  5
15A
330
1F
100
AcDbEntity
  8
0
  6
HIDDEN
 62
     7
370
     0
100
AcDbLine
 10
156.9422542645
 20
127.2385689484
 30
0.0
 11
156.9422542645
 21
110.2798349278
 31
0.0
  0
SPLINE
  5
15B
330
1F
100
AcDbEntity
  8
0
  6
HIDDEN
 62
     7
370
     0
100
AcDbSpline
210
0.0
220
0.0
230
1.0
 70
     8
 71
     3
 72
    22
 73
    18
 74
     0
 42
0.00000001
 43
0.00000001
 12
1.0
 22
0.0
 32
0.0
 13
1.0
 23
0.0
 33
0.0
 40
0.0
 40
0.0
 40
0.0
 40
0.0
 40
0.125
 40
0.125
 40
0.25
 40
0.25
 40
0.375
 40
0.375
 40
0.5
 40
0.5
 40
0.625
 40
0.625
 40
0.75
 40
0.75
 40
0.875
 40
0.875
 40
1.0
 40
1.0
 40
1.0
 40
1.0
 10
137.3422542594414
 20
116.166257258256
 30
0.0
 10
137.5231906175175
 20
116.3578771175625
 30
0.0
 10
137.7022860662944
 20
116.5515189819497
 30
0.0
 10
138.0531260548065
 20
116.9461742353339
 30
0.0
 10
138.2253191627111
 20
117.1471857660015
 30
0.0
 10
138.5510506683303
 20
117.5633968812352
 30
0.0
 10
138.7071269034987
 20
117.779412721522
 30
0.0
 10
138.9585061173878
 20
118.2447354846867
 30
0.0
 10
139.0523712477066
 20
118.5002746777095
 30
0.0
 10
139.0486433308444
 20
119.0346053128102
 30
0.0
 10
138.9512706883571
 20
119.2900261788108
 30
0.0
 10
138.6994498793632
 20
119.7500548947585
 30
0.0
 10
138.5444806238906
 20
119.9638918956871
 30
0.0
 10
138.2196678661654
 20
120.3779304783808
 30
0.0
 10
138.0487748020375
 20
120.5772229504167
 30
0.0
 10
137.7001405625098
 20
120.9691978428508
 30
0.0
 10
137.5221327119814
 20
121.1616471288403
 30
0.0
 10
137.3422542594414
 20
121.3521466179119
 30
0.0
  0
LINE
  5
15C
330
1F
100
AcDbEntity
  8
0
  6
HIDDEN
 62
     7
370
     0
100
AcDbLine
 10
137.3422543667
 20
116.1662571652
 30
0.0
 11
137.3422543667
 21
121.352146711
 31
0.0
  0
SPLINE
  5
15D
330
1F
100
AcDbEntity
  8
0
  6
HIDDEN
 62
     7
370
     0
100
AcDbSpline
210
0.0
220
0.0
230
1.0
 70
     8
 71
     3
 72
     8
 73
     4
 74
     0
 42
0.00000001
 43
0.00000001
 12
1.0
 22
0.0
 32
0.0
 13
1.0
 23
0.0
 33
0.0
 40
0.0000137051794235
 40
0.0000137051794235
 40
0.0000137051794235
 40
0.0000137051794235
 40
0.0027147144718019
 40
0.0027147144718019
 40
0.0027147144718019
 40
0.0027147144718019
 10
134.6422542594414
 20
116.2041737010222
 30
0.0
 10
135.5422503949362
 20
116.1912021338238
 30
0.0
 10
136.4422505735316
 20
116.1785672765117
 30
0.0
 10
137.3422542594414
 20
116.166257258256
 30
0.0
  0
SPLINE
  5
15E
330
1F
100
AcDbEntity
  8
0
  6
HIDDEN
 62
     7
370
     0
100
AcDbSpline
210
0.0
220
0.0
230
1.0
 70
     8
 71
     3
 72
     8
 73
     4
 74
     0
 42
0.00000001
 43
0.00000001
 12
1.0
 22
0.0
 32
0.0
 13
1.0
 23
0.0
 33
0.0
 40
0.0000137050638847
 40
0.0000137050638847
 40
0.0000137050638847
 40
0.0000137050638847
 40
0.0027147143562632
 40
0.0027147143562632
 40
0.0027147143562632
 40
0.0027147143562632
 10
137.3422542594414
 20
121.3521466179118
 30
0.0
 10
136.4422505735316
 20
121.3398365996561
 30
0.0
 10
135.5422503949362
 20
121.327201742344
 30
0.0
 10
134.6422542594414
 20
121.3142301751456
 30
0.0
  0
SPLINE
  5
15F
330
1F
100
AcDbEntity
  8
0
  6
HIDDEN
 62
     7
370
     0
100
AcDbSpline
210
0.0
220
0.0
230
1.0
 70
     8
 71
     3
 72
    10
 73
     6
 74
     0
 42
0.00000001
 43
0.00000001
 12
1.0
 22
0.0
 32
0.0
 13
1.0
 23
0.0
 33
0.0
 40
0.0
 40
0.0
 40
0.0
 40
0.0
 40
0.5
 40
0.5
 40
1.0
 40
1.0
 40
1.0
 40
1.0
 10
133.1422542594406
 20
116.9089881244338
 30
0.0
 10
133.3793962201564
 20
116.7533733099049
 30
0.0
 10
133.6247389789199
 20
116.6214642804857
 30
0.0
 10
134.1260025676529
 20
116.3898074038481
 30
0.0
 10
134.3820371369032
 20
116.2903617877253
 30
0.0
 10
134.6422542594414
 20
116.2041737010222
 30
0.0
  0
SPLINE
  5
160
330
1F
100
AcDbEntity
  8
0
  6
HIDDEN
 62
     7
370
     0
100
AcDbSpline
210
0.0
220
0.0
230
1.0
 70
     8
 71
     3
 72
    10
 73
     6
 74
     0
 42
0.00000001
 43
0.00000001
 12
1.0
 22
0.0
 32
0.0
 13
1.0
 23
0.0
 33
0.0
 40
0.0
 40
0.0
 40
0.0
 40
0.0
 40
0.5
 40
0.5
 40
1.0
 40
1.0
 40
1.0
 40
1.0
 10
134.6422542594414
 20
121.3142301751456
 30
0.0
 10
134.3820371369034
 20
121.2280420884426
 30
0.0
 10
134.1260025676532
 20
121.1285964723198
 30
0.0
 10
133.6247389789205
 20
120.8969395956825
 30
0.0
 10
133.3793962201572
 20
120.7650305662633
 30
0.0
 10
133.1422542594414
 20
120.6094157517346
 30
0.0
  0
LINE
  5
161
330
1F
100
AcDbEntity
  8
0
  6
HIDDEN
 62
     7
370
     0
100
AcDbLine
 10
133.1422540508
 20
116.9089880826
 30
0.0
 11
133.1422540508
 21
120.6094157936
 31
0.0
  0
SPLINE
  5
162
330
1F
100
AcDbEntity
  8
0
  6
HIDDEN
 62
     7
370
     0
100
AcDbSpline
210
0.0
220
0.0
230
1.0
 70
     8
 71
     3
 72
    62
 73
    58
 74
     0
 42
0.00000001
 43
0.00000001
 12
1.0
 22
0.0
 32
0.0
 13
1.0
 23
0.0
 33
0.0
 40
-0.0312499999999998
 40
-0.0312499999999998
 40
0.0
 40
0.0
 40
0.03125
 40
0.03125
 40
0.0625000000000001
 40
0.0625000000000001
 40
0.0937500000000002
 40
0.0937500000000002
 40
0.1250000000000002
 40
0.1250000000000002
 40
0.1875000000000004
 40
0.1875000000000004
 40
0.2500000000000005
 40
0.2500000000000005
 40
0.2812500000000006
 40
0.2812500000000006
 40
0.3125000000000006
 40
0.3125000000000006
 40
0.3437500000000006
 40
0.3437500000000006
 40
0.3750000000000007
 40
0.3750000000000007
 40
0.4375000000000008
 40
0.4375000000000008
 40
0.4687500000000008
 40
0.4687500000000008
 40
0.5000000000000008
 40
0.5000000000000008
 40
0.5625000000000011
 40
0.5625000000000011
 40
0.593750000000001
 40
0.593750000000001
 40
0.625000000000001
 40
0.625000000000001
 40
0.6562500000000009
 40
0.6562500000000009
 40
0.6875000000000008
 40
0.6875000000000008
 40
0.7187500000000008
 40
0.7187500000000008
 40
0.7500000000000007
 40
0.7500000000000007
 40
0.7812500000000006
 40
0.7812500000000006
 40
0.8125000000000006
 40
0.8125000000000006
 40
0.8437500000000004
 40
0.8437500000000004
 40
0.8750000000000003
 40
0.8750000000000003
 40
0.9062500000000003
 40
0.9062500000000003
 40
0.9375000000000002
 40
0.9375000000000002
 40
0.9687500000000002
 40
0.9687500000000002
 40
1.0
 40
1.0
 40
1.03125
 40
1.03125
 10
143.5960263873697
 20
120.2471809767403
 30
0.0
 10
143.8235267339579
 20
120.4965275186009
 30
0.0
 10
143.9479892628754
 20
120.6081251960578
 30
0.0
 10
144.2170835290272
 20
120.8067759918761
 30
0.0
 10
144.3628966206165
 20
120.8941162366649
 30
0.0
 10
144.6640634989059
 20
121.0383119893071
 30
0.0
 10
144.8203992259702
 20
121.0961316598213
 30
0.0
 10
145.1445225253047
 20
121.1833852718724
 30
0.0
 10
145.3111877370151
 20
121.2121873213542
 30
0.0
 10
145.809204003647
 20
121.252966626622
 30
0.0
 10
146.14987495244
 20
121.2195233664808
 30
0.0
 10
146.7888858678615
 20
121.037070722022
 30
0.0
 10
147.0953404749253
 20
120.8856461617092
 30
0.0
 10
147.4918963841877
 20
120.5851482561249
 30
0.0
 10
147.6162455750372
 20
120.4708870709295
 30
0.0
 10
147.8387096690864
 20
120.221227200357
 30
0.0
 10
147.9362750075636
 20
120.0870605923579
 30
0.0
 10
148.1035306112024
 20
119.7995914978592
 30
0.0
 10
148.1736162667215
 20
119.6443246479593
 30
0.0
 10
148.2776716274431
 20
119.3273452278723
 30
0.0
 10
148.3126473901105
 20
119.1646924763678
 30
0.0
 10
148.3645119096345
 20
118.6637554561652
 30
0.0
 10
148.3252058018631
 20
118.323600854855
 30
0.0
 10
148.1624860094023
 20
117.8471062227578
 30
0.0
 10
148.092205511516
 20
117.6960388629304
 30
0.0
 10
147.920872366386
 20
117.4087442924895
 30
0.0
 10
147.8194801252043
 20
117.2728865141921
 30
0.0
 10
147.4828805379811
 20
116.9040781191939
 30
0.0
 10
147.2076477718165
 20
116.7016530098628
 30
0.0
 10
146.7578645444706
 20
116.4845762832541
 30
0.0
 10
146.5990647459669
 20
116.4252740111798
 30
0.0
 10
146.2765030250872
 20
116.3373014933793
 30
0.0
 10
146.11264391312
 20
116.308181729533
 30
0.0
 10
145.7798111397661
 20
116.2793251144228
 30
0.0
 10
145.6097588483253
 20
116.2799486376368
 30
0.0
 10
145.2774831843056
 20
116.3112050814412
 30
0.0
 10
145.1137685725569
 20
116.3415237764931
 30
0.0
 10
144.7913030869825
 20
116.4322408154961
 30
0.0
 10
144.632791988456
 20
116.4930097241979
 30
0.0
 10
144.3342382822581
 20
116.6405203989949
 30
0.0
 10
144.1924121530561
 20
116.7276554268587
 30
0.0
 10
143.9244904144978
 20
116.9302408934308
 30
0.0
 10
143.8003969841052
 20
117.0445790600729
 30
0.0
 10
143.579262796187
 20
117.2927654980257
 30
0.0
 10
143.4808057940884
 20
117.4277981148795
 30
0.0
 10
143.3114472803534
 20
117.7198025129343
 30
0.0
 10
143.2432804426475
 20
117.8719382593698
 30
0.0
 10
143.139546476321
 20
118.1883472078099
 30
0.0
 10
143.1038779144519
 20
118.3548436771641
 30
0.0
 10
143.0696641497994
 20
118.6881055532746
 30
0.0
 10
143.0705225526285
 20
118.8547680070965
 30
0.0
 10
143.108319332578
 20
119.188156206314
 30
0.0
 10
143.1456620880321
 20
119.3539117787935
 30
0.0
 10
143.2529116711005
 20
119.6698030952562
 30
0.0
 10
143.3236728876396
 20
119.8230824283283
 30
0.0
 10
143.4957960377403
 20
120.1124594708148
 30
0.0
 10
143.5960263873697
 20
120.2471809767403
 30
0.0
 10
143.8235267339579
 20
120.4965275186009
 30
0.0
  0
CIRCLE
  5
163
330
1F
100
AcDbEntity
  8
0
  6
HIDDEN
 62
     7
370
     0
100
AcDbCircle
 10
145.6422542594
 20
118.7592019381
 30
0.0
 40
2.299999999999997
  0
SPLINE
  5
164
330
1F
100
AcDbEntity
  8
0
  6
HIDDEN
 62
     7
370
     0
100
AcDbSpline
210
0.0
220
0.0
230
1.0
 70
     8
 71
     3
 72
    11
 73
     7
 74
     0
 42
0.00000001
 43
0.00000001
 12
1.0
 22
0.0
 32
0.0
 13
1.0
 23
0.0
 33
0.0
 40
0.0
 40
0.0
 40
0.0
 40
0.0
 40
0.2487726999723442
 40
0.4999689821164116
 40
0.7482489459648707
 40
1.0
 40
1.0
 40
1.0
 40
1.0
 10
244.2598641232485
 20
113.2239363011234
 30
0.0
 10
244.2368917091695
 20
113.1071664580183
 30
0.0
 10
244.1907230801958
 20
112.8724891819118
 30
0.0
 10
244.1116189549213
 20
112.5233681260996
 30
0.0
 10
244.0257343056965
 20
112.174392145891
 30
0.0
 10
243.962431252836
 20
111.9437164359434
 30
0.0
 10
243.9305600094305
 20
111.8275779344452
 30
0.0
  0
LINE
  5
165
330
1F
100
AcDbEntity
  8
0
  6
HIDDEN
 62
     7
370
     0
100
AcDbLine
 10
222.5940774344
 20
113.6942776905
 30
0.0
 11
243.9305584095
 21
111.8275780285
 31
0.0
  0
LINE
  5
166
330
1F
100
AcDbEntity
  8
0
  6
HIDDEN
 62
     7
370
     0
100
AcDbLine
 10
244.2598666213
 20
113.2239365073
 30
0.0
 11
243.9638476037
 21
116.3115227649
 31
0.0
  0
LINE
  5
167
330
1F
100
AcDbEntity
  8
0
  6
HIDDEN
 62
     7
370
     0
100
AcDbLine
 10
243.9638476037
 20
116.3115227649
 30
0.0
 11
242.228547778
 21
118.7592019381
 31
0.0
  0
CIRCLE
  5
168
330
1F
100
AcDbEntity
  8
0
  6
HIDDEN
 62
     7
370
     0
100
AcDbCircle
 10
169.1422542594
 20
118.7592019381
 30
0.0
 40
2.0
  0
LINE
  5
169
330
1F
100
AcDbEntity
  8
0
  6
HIDDEN
 62
     7
370
     0
100
AcDbLine
 10
157.1422542594
 20
102.959202701
 30
0.0
 11
157.2351474799
 21
103.0520946773
 31
0.0
  0
LINE
  5
16A
330
1F
100
AcDbEntity
  8
0
  6
HIDDEN
 62
     7
370
     0
100
AcDbLine
 10
157.2351474799
 20
134.4663091989
 30
0.0
 11
157.1422542594
 21
134.5592011751
 31
0.0
  0
ARC
  5
16B
330
1F
100
AcDbEntity
  8
0
  6
HIDDEN
 62
     7
370
     0
100
AcDbCircle
 10
156.5280406971
 20
103.7592019381
 30
0.0
 40
1.0
100
AcDbArc
 50
315.0
 51
0.0
  0
ARC
  5
16C
330
1F
100
AcDbEntity
  8
0
  6
HIDDEN
 62
     7
370
     0
100
AcDbCircle
 10
156.5280406971
 20
103.7592019381
 30
0.0
 40
1.0
100
AcDbArc
 50
0.0
 51
52.1052014664
  0
ARC
  5
16D
330
1F
100
AcDbEntity
  8
0
  6
HIDDEN
 62
     7
370
     0
100
AcDbCircle
 10
156.5280406971
 20
133.7592019381
 30
0.0
 40
0.999999999999988
100
AcDbArc
 50
351.8087250651
 51
45.0
  0
ARC
  5
16E
330
1F
100
AcDbEntity
  8
0
  6
HIDDEN
 62
     7
370
     0
100
AcDbCircle
 10
156.5280406971
 20
133.7592019381
 30
0.0
 40
0.9999999999999815
100
AcDbArc
 50
307.8947985336
 51
351.8087250651
  0
LINE
  5
16F
330
1F
100
AcDbEntity
  8
0
  6
HIDDEN
 62
     7
370
     0
100
AcDbLine
 10
157.5280406952
 20
103.7592022734
 30
0.0
 11
157.5280406952
 21
133.7592016028
 31
0.0
  0
LINE
  5
170
330
1F
100
AcDbEntity
  8
0
  6
HIDDEN
 62
     7
370
     0
100
AcDbLine
 10
157.5280406952
 20
103.7592022734
 30
0.0
 11
157.5280406952
 21
133.7592016028
 31
0.0
  0
LINE
  5
171
330
1F
100
AcDbEntity
  8
0
  6
HIDDEN
 62
     7
370
     0
100
AcDbLine
 10
155.4421911398
 20
121.5890453717
 30
0.0
 11
155.4421911398
 21
121.2183091378
 31
0.0
  0
LINE
  5
172
330
1F
100
AcDbEntity
  8
0
  6
HIDDEN
 62
     7
370
     0
100
AcDbLine
 10
211.0600198768
 20
120.4641851185
 30
0.0
 11
209.6700879894
 21
121.1111642008
 31
0.0
  0
LINE
  5
173
330
1F
100
AcDbEntity
  8
0
  6
HIDDEN
 62
     7
370
     0
100
AcDbLine
 10
217.4162293933
 20
117.505531973
 30
0.0
 11
211.7104406618
 21
120.1614319401
 31
0.0
  0
LINE
  5
174
330
1F
100
AcDbEntity
  8
0
  6
HIDDEN
 62
     7
370
     0
100
AcDbLine
 10
207.8976954483
 20
117.3034575589
 30
0.0
 11
217.4283887409
 21
112.8671626614
 31
0.0
  0
LINE
  5
175
330
1F
100
AcDbEntity
  8
0
  6
HIDDEN
 62
     7
370
     0
100
AcDbLine
 10
209.51571941
 20
121.066862583
 30
0.0
 11
207.6596121453
 21
119.7306340731
 31
0.0
  0
LINE
  5
176
330
1F
100
AcDbEntity
  8
0
  6
HIDDEN
 62
     7
370
     0
100
AcDbLine
 10
207.6596121453
 20
119.7306340731
 30
0.0
 11
207.8322048448
 21
117.4500976743
 31
0.0
  0
LINE
  5
177
330
1F
100
AcDbEntity
  8
0
  6
HIDDEN
 62
     7
370
     0
100
AcDbLine
 10
133.1422540508
 20
108.603551151
 30
0.0
 11
134.1692867838
 21
109.1965084018
 31
0.0
  0
LINE
  5
178
330
1F
100
AcDbEntity
  8
0
  6
HIDDEN
 62
     7
370
     0
100
AcDbLine
 10
134.1692867838
 20
128.3218954744
 30
0.0
 11
133.1422540508
 21
128.9148527251
 31
0.0
  0
LINE
  5
179
330
1F
100
AcDbEntity
  8
0
  6
HIDDEN
 62
     7
370
     0
100
AcDbLine
 10
138.642254021
 20
108.7592021616
 30
0.0
 11
139.6550729089
 21
108.7592021616
 31
0.0
  0
LINE
  5
17A
330
1F
100
AcDbEntity
  8
0
  6
HIDDEN
 62
     7
370
     0
100
AcDbLine
 10
139.6550729089
 20
128.7592017146
 30
0.0
 11
138.642254021
 21
128.7592017146
 31
0.0
  0
ARC
  5
17B
330
1F
100
AcDbEntity
  8
0
  6
HIDDEN
 62
     7
370
     0
100
AcDbCircle
 10
138.6422542594
 20
109.7592019381
 30
0.0
 40
1.000000000000004
100
AcDbArc
 50
193.3524261238
 51
270.0
  0
ARC
  5
17C
330
1F
100
AcDbEntity
  8
0
  6
HIDDEN
 62
     7
370
     0
100
AcDbCircle
 10
138.6422542594
 20
127.7592019381
 30
0.0
 40
1.000000000000014
100
AcDbArc
 50
90.0
 51
166.6475738762
  0
ARC
  5
17D
330
1F
100
AcDbEntity
  8
0
  6
HIDDEN
 62
     7
370
     0
100
AcDbCircle
 10
139.6550727291
 20
109.7592019381
 30
0.0
 40
1.000000000000008
100
AcDbArc
 50
270.0
 51
315.0
  0
ARC
  5
17E
330
1F
100
AcDbEntity
  8
0
  6
HIDDEN
 62
     7
370
     0
100
AcDbCircle
 10
139.6550727291
 20
127.7592019381
 30
0.0
 40
1.000000000000014
100
AcDbArc
 50
45.0
 51
90.0
  0
LINE
  5
17F
330
1F
100
AcDbEntity
  8
0
  6
HIDDEN
 62
     7
370
     0
100
AcDbLine
 10
140.3621795736
 20
109.0520947294
 30
0.0
 11
141.0692862384
 21
109.7592023255
 31
0.0
  0
LINE
  5
180
330
1F
100
AcDbEntity
  8
0
  6
HIDDEN
 62
     7
370
     0
100
AcDbLine
 10
141.0692862384
 20
127.7592015507
 30
0.0
 11
140.3621795736
 21
128.4663091468
 31
0.0
  0
LINE
  5
181
330
1F
100
AcDbEntity
  8
0
  6
HIDDEN
 62
     7
370
     0
100
AcDbLine
 10
134.1692867838
 20
109.1965084018
 30
0.0
 11
136.2692869417
 21
109.7592023255
 31
0.0
  0
LINE
  5
182
330
1F
100
AcDbEntity
  8
0
  6
HIDDEN
 62
     7
370
     0
100
AcDbLine
 10
136.2692869417
 20
127.7592015507
 30
0.0
 11
134.1692867838
 21
128.3218954744
 31
0.0
  0
LINE
  5
183
330
1F
100
AcDbEntity
  8
0
  6
HIDDEN
 62
     7
370
     0
100
AcDbLine
 10
137.6692864262
 20
127.9901416095
 30
0.0
 11
137.2692871057
 21
127.7592015507
 31
0.0
  0
LINE
  5
184
330
1F
100
AcDbEntity
  8
0
  6
HIDDEN
 62
     7
370
     0
100
AcDbLine
 10
137.2692871057
 20
109.7592023255
 30
0.0
 11
137.6692864262
 21
109.5282622667
 31
0.0
  0
ARC
  5
185
330
1F
100
AcDbEntity
  8
0
  6
HIDDEN
 62
     7
370
     0
100
AcDbCircle
 10
147.6422542594
 20
110.2592019381
 30
0.0
 40
0.5
100
AcDbArc
 50
270.0
 51
0.0
  0
ARC
  5
186
330
1F
100
AcDbEntity
  8
0
  6
HIDDEN
 62
     7
370
     0
100
AcDbCircle
 10
147.6422542594
 20
127.2592019381
 30
0.0
 40
0.5
100
AcDbArc
 50
0.0
 51
90.0
  0
LINE
  5
187
330
1F
100
AcDbEntity
  8
0
  6
HIDDEN
 62
     7
370
     0
100
AcDbLine
 10
141.0692862384
 20
109.7592023255
 30
0.0
 11
147.6422545649
 21
109.7592023255
 31
0.0
  0
LINE
  5
188
330
1F
100
AcDbEntity
  8
0
  6
HIDDEN
 62
     7
370
     0
100
AcDbLine
 10
147.6422545649
 20
127.7592015507
 30
0.0
 11
141.0692862384
 21
127.7592015507
 31
0.0
  0
LINE
  5
189
330
1F
100
AcDbEntity
  8
0
  6
HIDDEN
 62
     7
370
     0
100
AcDbLine
 10
136.2692869417
 20
109.7592023255
 30
0.0
 11
137.2692871057
 21
109.7592023255
 31
0.0
  0
LINE
  5
18A
330
1F
100
AcDbEntity
  8
0
  6
HIDDEN
 62
     7
370
     0
100
AcDbLine
 10
137.2692871057
 20
127.7592015507
 30
0.0
 11
136.2692869417
 21
127.7592015507
 31
0.0
  0
LINE
  5
18B
330
1F
100
AcDbEntity
  8
0
  6
HIDDEN
 62
     7
370
     0
100
AcDbLine
 10
148.1422546469
 20
111.6092019768
 30
0.0
 11
149.0422540493
 21
112.509201845
 31
0.0
  0
LINE
  5
18C
330
1F
100
AcDbEntity
  8
0
  6
HIDDEN
 62
     7
370
     0
100
AcDbLine
 10
149.0422540493
 20
125.0092020312
 30
0.0
 11
148.1422546469
 21
125.9092018993
 31
0.0
  0
LINE
  5
18D
330
1F
100
AcDbEntity
  8
0
  6
HIDDEN
 62
     7
370
     0
100
AcDbLine
 10
168.1422541998
 20
112.509201845
 30
0.0
 11
169.9448364936
 21
115.509201871
 31
0.0
  0
LINE
  5
18E
330
1F
100
AcDbEntity
  8
0
  6
HIDDEN
 62
     7
370
     0
100
AcDbLine
 10
169.9448364936
 20
122.0092020051
 30
0.0
 11
168.1422541998
 21
125.0092020312
 31
0.0
  0
LINE
  5
18F
330
1F
100
AcDbEntity
  8
0
  6
HIDDEN
 62
     7
370
     0
100
AcDbLine
 10
149.0422540493
 20
112.509201845
 30
0.0
 11
168.1422541998
 21
112.509201845
 31
0.0
  0
LINE
  5
190
330
1F
100
AcDbEntity
  8
0
  6
HIDDEN
 62
     7
370
     0
100
AcDbLine
 10
168.1422541998
 20
125.0092020312
 30
0.0
 11
149.0422540493
 21
125.0092020312
 31
0.0
  0
LINE
  5
191
330
1F
100
AcDbEntity
  8
0
  6
HIDDEN
 62
     7
370
     0
100
AcDbLine
 10
213.142255988
 20
122.0092020051
 30
0.0
 11
169.9448364936
 21
122.0092020051
 31
0.0
  0
LINE
  5
192
330
1F
100
AcDbEntity
  8
0
  6
HIDDEN
 62
     7
370
     0
100
AcDbLine
 10
169.9448364936
 20
115.509201871
 30
0.0
 11
213.142255988
 21
115.509201871
 31
0.0
  0
LINE
  5
193
330
1F
100
AcDbEntity
  8
0
  6
HIDDEN
 62
     7
370
     0
100
AcDbLine
 10
213.142255988
 20
115.509201871
 30
0.0
 11
215.0950494371
 21
118.7592019381
 31
0.0
  0
LINE
  5
194
330
1F
100
AcDbEntity
  8
0
  6
HIDDEN
 62
     7
370
     0
100
AcDbLine
 10
215.0950494371
 20
118.7592019381
 30
0.0
 11
213.142255988
 21
122.0092020051
 31
0.0
  0
ARC
  5
195
330
1F
100
AcDbEntity
  8
0
  6
HIDDEN
 62
     7
370
     0
100
AcDbCircle
 10
220.7280406971
 20
105.2592019381
 30
0.0
 40
1.0
100
AcDbArc
 50
64.6825126226
 51
90.0
  0
LINE
  5
196
330
1F
100
AcDbEntity
  8
0
  6
HIDDEN
 62
     7
370
     0
100
AcDbLine
 10
236.5765522383
 20
114.7260909023
 30
0.0
 11
236.5765522383
 21
114.7498079629
 31
0.0
  0
LINE
  5
197
330
1F
100
AcDbEntity
  8
0
  6
HIDDEN
 62
     7
370
     0
100
AcDbLine
 10
232.3765556477
 20
114.7498079629
 30
0.0
 11
232.3765556477
 21
114.4149770083
 31
0.0
  0
LINE
  5
198
330
1F
100
AcDbEntity
  8
0
  6
HIDDEN
 62
     7
370
     0
100
AcDbLine
 10
242.2615240477
 20
109.1177483143
 30
0.0
 11
242.2615240477
 21
109.5838417353
 31
0.0
  0
LINE
  5
199
330
1F
100
AcDbEntity
  8
0
  6
HIDDEN
 62
     7
370
     0
100
AcDbLine
 10
238.0615274571
 20
109.5675286891
 30
0.0
 11
238.0615274571
 21
109.1177483143
 31
0.0
  0
LINE
  5
19A
330
1F
100
AcDbEntity
  8
VERMASSUNG
  6
CENTERX2
100
AcDbLine
 10
130.2838096249
 20
118.7592019381
 30
0.0
 11
247.1422542594
 21
118.7592019381
 31
0.0
  0
LINE
  5
19B
330
1F
100
AcDbEntity
  8
VERMASSUNG
  6
CENTERX2
100
AcDbLine
 10
247.1422542594
 20
101.7592019381
 30
0.0
 11
247.1422542594
 21
118.7592019381
 31
0.0
  0
LINE
  5
19C
330
1F
100
AcDbEntity
  8
VERMASSUNG
  6
CENTERX2
100
AcDbLine
 10
247.1422542594
 20
101.7592019381
 30
0.0
 11
256.87000955
 21
101.7592019381
 31
0.0
  0
DIMENSION
  5
19D
330
1F
100
AcDbEntity
  8
VERMASSUNG
100
AcDbDimension
  2
_D
 10
247.1422542594
 20
88.7592019381
 30
0.0
 11
202.1422542594
 21
88.7592019381
 31
0.0
 70
   160
  1
<>
 71
     2
 42
-1.0
  3
SLDDIMSTYLE0
100
AcDbAlignedDimension
 13
157.1422542594
 23
99.0592019381
 33
0.0
 14
247.1422542594
 24
101.7592019381
 34
0.0
100
AcDbRotatedDimension
  0
DIMENSION
  5
1A8
330
1F
100
AcDbEntity
  8
VERMASSUNG
100
AcDbDimension
  2
_D_1
 10
133.1422542594
 20
76.7592019381
 30
0.0
 11
190.1422542594
 21
76.7592019381
 31
0.0
 70
   160
  1
<>
 71
     2
 42
-1.0
  3
SLDDIMSTYLE0
100
AcDbAlignedDimension
 13
247.1422542594
 23
101.7592019381
 33
0.0
 14
133.1422542594
 24
106.127696956
 34
0.0
100
AcDbRotatedDimension
  0
DIMENSION
  5
1B2
330
1F
100
AcDbEntity
  8
VERMASSUNG
100
AcDbDimension
  2
_D_2
 10
262.7861911573
 20
118.7592019381
 30
0.0
 11
262.7861911573
 21
110.2592019381
 31
0.0
 70
   160
  1
<>
 71
     2
 42
-1.0
  3
SLDDIMSTYLE0
100
AcDbAlignedDimension
 13
247.1422542594
 23
101.7592019381
 33
0.0
 14
247.1422542594
 24
118.7592019381
 34
0.0
 50
90.0
100
AcDbRotatedDimension
  0
DIMENSION
  5
1BC
330
1F
100
AcDbEntity
  8
VERMASSUNG
100
AcDbDimension
  2
_D_3
 10
247.1407321387
 20
102.1930049325
 30
0.0
 11
254.18501136
 21
109.4067917489
 31
0.0
 70
   162
  1
<>
 71
     1
 42
-1.0
  3
SLDDIMSTYLE1
100
AcDb2LineAngularDimension
 13
256.87000955
 23
101.7592019381
 33
0.0
 14
247.1422542594
 24
101.7592019381
 34
0.0
 15
246.087579038
 25
114.20127698
 35
0.0
 16
254.18501136
 26
109.4067917489
 36
0.0
  0
DIMENSION
  5
1C6
330
1F
100
AcDbEntity
  8
VERMASSUNG
100
AcDbDimension
  2
_D_4
 10
125.2185365495
 20
98.7592019381
 30
0.0
 11
125.2185365495
 21
118.7592019381
 31
0.0
 70
   160
  1
PSC%%c<>
 71
     2
 42
-1.0
  3
SLDDIMSTYLE0
100
AcDbAlignedDimension
 13
157.4422542594
 23
138.7592019381
 33
0.0
 14
157.4422542594
 24
98.7592019381
 34
0.0
 50
90.0
100
AcDbRotatedDimension
  0
DIMENSION
  5
1D2
330
1F
100
AcDbEntity
  8
VERMASSUNG
100
AcDbDimension
  2
_D_5
 10
190.1422542594
 20
106.2592019381
 30
0.0
 11
190.1422542594
 21
112.0841329709
 31
0.0
 70
   160
  1
%%c<>
 71
     2
 42
-1.0
  3
SLDDIMSTYLE0
100
AcDbAlignedDimension
 13
179.1422542594
 23
131.2592019381
 33
0.0
 14
179.1422542594
 24
106.2592019381
 34
0.0
 50
90.0
100
AcDbRotatedDimension
  0
LINE
  5
1DB
330
1F
100
AcDbEntity
  8
0
  6
Continuous
 62
     7
370
    15
100
AcDbLine
 10
72.8134372522
 20
101.7592010142
 30
0.0
 11
76.0353374545
 21
102.3854763301
 31
0.0
  0
LINE
  5
1DC
330
1F
100
AcDbEntity
  8
0
  6
Continuous
 62
     7
370
    15
100
AcDbLine
 10
72.1463063865
 20
115.6002942992
 30
0.0
 11
71.8444676505
 21
115.6161128132
 31
0.0
  0
SPLINE
  5
1DD
330
1F
100
AcDbEntity
  8
0
  6
Continuous
 62
     7
370
    15
100
AcDbSpline
210
0.0
220
0.0
230
1.0
 70
     8
 71
     3
 72
    24
 73
    20
 74
     0
 42
0.00000001
 43
0.00000001
 12
1.0
 22
0.0
 32
0.0
 13
1.0
 23
0.0
 33
0.0
 40
0.0
 40
0.0
 40
0.0
 40
0.0
 40
0.0286682659387901
 40
0.0590911702072079
 40
0.0912687183058218
 40
0.1252009117442018
 40
0.1547219312409299
 40
0.1878253215605376
 40
0.2504516099145558
 40
0.3130776304560943
 40
0.3756963431333589
 40
0.5008452984244511
 40
0.6258839544939827
 40
0.689780707710118
 40
0.7508024788770549
 40
0.8142448376603002
 40
0.8755192806652682
 40
0.9386200709656101
 40
1.0
 40
1.0
 40
1.0
 40
1.0
 10
85.81343725287665
 20
111.8275777895507
 30
0.0
 10
85.77078190250184
 20
111.7171798078517
 30
0.0
 10
85.68286048532828
 20
111.4896269471019
 30
0.0
 10
85.5366532043387
 20
111.1424293681255
 30
0.0
 10
85.3735041578986
 20
110.7790187574743
 30
0.0
 10
85.2022560729143
 20
110.4235564765374
 30
0.0
 10
85.02036611465374
 20
110.0692323710157
 30
0.0
 10
84.77298543355337
 20
109.6157691353452
 30
0.0
 10
84.43842275637097
 20
109.0548388394602
 30
0.0
 10
84.00870559730238
 20
108.4103665465809
 30
0.0
 10
83.39374464174276
 20
107.5815871838966
 30
0.0
 10
82.54867796874295
 20
106.6060582396151
 30
0.0
 10
81.60602793456626
 20
105.7172806661196
 30
0.0
 10
80.80519914443254
 20
105.0702542967725
 30
0.0
 10
80.17775669948546
 20
104.6138677342289
 30
0.0
 10
79.53709903145567
 20
104.1954647275424
 30
0.0
 10
78.86827746094181
 20
103.8064785102109
 30
0.0
 10
78.18905893586056
 20
103.4531740150374
 30
0.0
 10
77.71966260793494
 20
103.2462676433121
 30
0.0
 10
77.4882089864339
 20
103.1442446273692
 30
0.0
  0
SPLINE
  5
1DE
330
1F
100
AcDbEntity
  8
0
  6
Continuous
 62
     7
370
    15
100
AcDbSpline
210
0.0
220
0.0
230
1.0
 70
     8
 71
     3
 72
    27
 73
    23
 74
     0
 42
0.00000001
 43
0.00000001
 12
1.0
 22
0.0
 32
0.0
 13
1.0
 23
0.0
 33
0.0
 40
0.0
 40
0.0
 40
0.0
 40
0.0
 40
0.0248910711758263
 40
0.0497710169134843
 40
0.0746519850335767
 40
0.099546121860003
 40
0.1244655544604481
 40
0.1867825004813453
 40
0.2491872669684201
 40
0.3116351069526904
 40
0.3741320588044377
 40
0.436670657921845
 40
0.4992429614797855
 40
0.5618406067139853
 40
0.6244549237456938
 40
0.687077066911563
 40
0.7496980510927239
 40
0.8123089568168043
 40
0.8435903517789204
 40
0.874906760742238
 40
0.9374336672396937
 40
1.0
 40
1.0
 40
1.0
 40
1.0
 10
77.45151105863371
 20
103.6690268291308
 30
0.0
 10
77.55113967115764
 20
103.7128273945194
 30
0.0
 10
77.75035236570058
 20
103.8004089479759
 30
0.0
 10
78.04529766911645
 20
103.9401596259264
 30
0.0
 10
78.33724595436752
 20
104.0859756556437
 30
0.0
 10
78.62593341677778
 20
104.2384648108787
 30
0.0
 10
79.05407120613665
 20
104.4768991500205
 30
0.0
 10
79.6128036227414
 20
104.8172476774544
 30
0.0
 10
80.28673580825688
 20
105.2810969893169
 30
0.0
 10
80.93450643778718
 20
105.7820451700224
 30
0.0
 10
81.55397363021285
 20
106.3184836891337
 30
0.0
 10
82.14323645500407
 20
106.888795422369
 30
0.0
 10
82.70050334805073
 20
107.4911585580382
 30
0.0
 10
83.22397475789933
 20
108.1237537722269
 30
0.0
 10
83.712095221151
 20
108.7845467982426
 30
0.0
 10
84.1632634421273
 20
109.4715421108051
 30
0.0
 10
84.57615655128548
 20
110.1825310810953
 30
0.0
 10
84.887170263121
 20
110.7932339935332
 30
0.0
 10
85.11571607512461
 20
111.2915574178214
 30
0.0
 10
85.33003579634693
 20
111.7958624769787
 30
0.0
 10
85.57455770486932
 20
112.4365238993615
 30
0.0
 10
85.73379197006741
 20
112.9614099402572
 30
0.0
 10
85.81343419599698
 20
113.2239356761864
 30
0.0
  0
SPLINE
  5
1DF
330
1F
100
AcDbEntity
  8
0
  6
Continuous
 62
     7
370
    15
100
AcDbSpline
210
0.0
220
0.0
230
1.0
 70
    24
 71
     3
 72
    11
 73
     7
 74
     0
 42
0.00000001
 43
0.00000001
 12
1.0
 22
0.0
 32
0.0
 13
1.0
 23
0.0
 33
0.0
 40
0.0
 40
0.0
 40
0.0
 40
0.0
 40
0.2487726999723442
 40
0.4999689821164116
 40
0.7482489459648707
 40
1.0
 40
1.0
 40
1.0
 40
1.0
 10
85.81343725216499
 20
113.2239363011234
 30
0.0
 10
85.81343725216499
 20
113.1071664580183
 30
0.0
 10
85.81343725216499
 20
112.8724891819118
 30
0.0
 10
85.81343725216499
 20
112.5233681260996
 30
0.0
 10
85.813437252165
 20
112.174392145891
 30
0.0
 10
85.81343725216499
 20
111.9437164359434
 30
0.0
 10
85.81343725216499
 20
111.8275779344452
 30
0.0
  0
LINE
  5
1E0
330
1F
100
AcDbEntity
  8
0
  6
Continuous
 62
     7
370
    15
100
AcDbLine
 10
76.6836466983
 20
114.650023734
 30
0.0
 11
74.3112481915
 21
114.4582043456
 31
0.0
  0
LINE
  5
1E1
330
1F
100
AcDbEntity
  8
0
  6
Continuous
 62
     7
370
    15
100
AcDbLine
 10
74.3112481915
 20
114.4582043456
 30
0.0
 11
72.2198704508
 21
114.548279071
 31
0.0
  0
LINE
  5
1E2
330
1F
100
AcDbEntity
  8
0
  6
Continuous
 62
     7
370
    15
100
AcDbLine
 10
72.1218197624
 20
115.9504687933
 30
0.0
 11
72.2198704508
 21
114.548279071
 31
0.0
  0
LINE
  5
1E3
330
1F
100
AcDbEntity
  8
0
  6
Continuous
 62
     7
370
    15
100
AcDbLine
 10
85.8134375204
 20
116.3115227649
 30
0.0
 11
72.1218197624
 21
115.9504687933
 31
0.0
  0
LINE
  5
1E4
330
1F
100
AcDbEntity
  8
0
  6
Continuous
 62
     7
370
    15
100
AcDbLine
 10
85.8134375204
 20
113.2239365073
 30
0.0
 11
85.8134375204
 21
116.3115227649
 31
0.0
  0
LINE
  5
1E5
330
1F
100
AcDbEntity
  8
0
  6
Continuous
 62
     7
370
    15
100
AcDbLine
 10
76.6836466983
 20
114.650023734
 30
0.0
 11
76.7061162524
 21
114.3286923
 31
0.0
  0
ARC
  5
1E6
330
1F
100
AcDbEntity
  8
0
  6
Continuous
 62
     7
370
    15
100
AcDbCircle
 10
72.8134372522
 20
118.7592019381
 30
0.0
 40
13.00000000000001
100
AcDbArc
 50
0.0
 51
97.9073388765
  0
LINE
  5
1E7
330
1F
100
AcDbEntity
  8
0
  6
Continuous
 62
     7
370
    15
100
AcDbLine
 10
85.8134375204
 20
116.3115227649
 30
0.0
 11
85.8134375204
 21
118.7592019381
 31
0.0
  0
LINE
  5
1E8
330
1F
100
AcDbEntity
  8
0
  6
Continuous
 62
     7
370
    15
100
AcDbLine
 10
71.0250088497
 20
131.6355961429
 30
0.0
 11
72.1218197624
 21
115.9504687933
 31
0.0
  0
SPLINE
  5
1E9
330
1F
100
AcDbEntity
  8
0
  6
Continuous
 62
     7
370
    15
100
AcDbSpline
210
0.0
220
0.0
230
1.0
 70
     8
 71
     3
 72
    11
 73
     7
 74
     0
 42
0.00000001
 43
0.00000001
 12
1.0
 22
0.0
 32
0.0
 13
1.0
 23
0.0
 33
0.0
 40
0.0
 40
0.0
 40
0.0
 40
0.0
 40
0.1725471048294368
 40
0.5457880904319256
 40
0.9170390421264281
 40
1.0
 40
1.0
 40
1.0
 40
1.0
 10
72.49837847947995
 20
106.2647524343641
 30
0.0
 10
72.44323981831728
 20
106.2656137714724
 30
0.0
 10
72.26882933131023
 20
106.2683382885601
 30
0.0
 10
71.66039644672209
 20
106.3038289958466
 30
0.0
 10
71.01102061829302
 20
106.383778677088
 30
0.0
 10
70.62640569934634
 20
106.4522056135593
 30
0.0
 10
70.55615650196481
 20
106.4647036658437
 30
0.0
  0
SPLINE
  5
1EA
330
1F
100
AcDbEntity
  8
0
  6
Continuous
 62
     7
370
    15
100
AcDbSpline
210
0.0
220
0.0
230
1.0
 70
     8
 71
     3
 72
    16
 73
    12
 74
     0
 42
0.00000001
 43
0.00000001
 12
1.0
 22
0.0
 32
0.0
 13
1.0
 23
0.0
 33
0.0
 40
0.0
 40
0.0
 40
0.0
 40
0.0
 40
0.2500000000000052
 40
0.2500000000000052
 40
0.3750000000000059
 40
0.3750000000000059
 40
0.5000000000000066
 40
0.5000000000000066
 40
0.7500000000000033
 40
0.7500000000000033
 40
1.0
 40
1.0
 40
1.0
 40
1.0
 10
68.86706081991993
 20
130.6198980835478
 30
0.0
 10
69.1164847586427
 20
130.7028882167862
 30
0.0
 10
69.35468380025404
 20
130.7734344871559
 30
0.0
 10
69.69375265562839
 20
130.864211554528
 30
0.0
 10
69.80425151288428
 20
130.8920597979172
 30
0.0
 10
70.01229758375564
 20
130.9417737198742
 30
0.0
 10
70.11058802045955
 20
130.9638548733489
 30
0.0
 10
70.38810115161917
 20
131.0231137837309
 30
0.0
 10
70.55119520403491
 20
131.0534907564659
 30
0.0
 10
70.81022185033594
 20
131.0983431030109
 30
0.0
 10
70.90956722398151
 20
131.1135334873269
 30
0.0
 10
70.97389079871816
 20
131.1231037836022
 30
0.0
  0
SPLINE
  5
1EB
330
1F
100
AcDbEntity
  8
0
  6
Continuous
 62
     7
370
    15
100
AcDbSpline
210
0.0
220
0.0
230
1.0
 70
     8
 71
     3
 72
    10
 73
     6
 74
     0
 42
0.00000001
 43
0.00000001
 12
1.0
 22
0.0
 32
0.0
 13
1.0
 23
0.0
 33
0.0
 40
0.0
 40
0.0
 40
0.0
 40
0.0
 40
0.5
 40
0.5
 40
1.0
 40
1.0
 40
1.0
 40
1.0
 10
70.97389079871816
 20
131.1231037836022
 30
0.0
 10
71.00548360074976
 20
131.1278042760242
 30
0.0
 10
71.02587057034815
 20
131.1561609107109
 30
0.0
 10
71.04606303171693
 20
131.2597398706303
 30
0.0
 10
71.04578291915506
 20
131.3342227529266
 30
0.0
 10
71.03947641391774
 20
131.4285026232961
 30
0.0
  0
ELLIPSE
  5
1EC
330
1F
100
AcDbEntity
  8
0
  6
Continuous
 62
     7
370
    15
100
AcDbEllipse
 10
65.7406507288
 20
115.186347228
 30
0.0
 11
-1.650444768084881
 21
1.909937113548338
 31
0.0
210
0.0
220
0.0
230
1.0
 40
0.8148202105
 41
0.0
 42
6.283185307179586
  0
ARC
  5
1ED
330
1F
100
AcDbEntity
  8
0
  6
Continuous
 62
     7
370
    15
100
AcDbCircle
 10
72.8134372522
 20
118.7592019381
 30
0.0
 40
12.49999999999999
100
AcDbArc
 50
108.4036880773
 51
259.5963119227
  0
SPLINE
  5
1EE
330
1F
100
AcDbEntity
  8
0
  6
Continuous
 62
     7
370
    15
100
AcDbSpline
210
0.0
220
0.0
230
1.0
 70
     8
 71
     3
 72
    16
 73
    12
 74
     0
 42
0.00000001
 43
0.00000001
 12
1.0
 22
0.0
 32
0.0
 13
1.0
 23
0.0
 33
0.0
 40
0.0
 40
0.0
 40
0.0
 40
0.0
 40
0.0669217371645332
 40
0.2902336813145215
 40
0.437202341618594
 40
0.5884270486979083
 40
0.6894329191524624
 40
0.7667674433767824
 40
0.8440724334054803
 40
0.9823920340340305
 40
1.0
 40
1.0
 40
1.0
 40
1.0
 10
66.53757246849048
 20
117.1256293130876
 30
0.0
 10
66.50612126290915
 20
117.0739407071703
 30
0.0
 10
66.3697201537268
 20
116.8497717747277
 30
0.0
 10
66.02145097897102
 20
116.7100105659907
 30
0.0
 10
65.60944692039511
 20
116.6433476150116
 30
0.0
 10
65.29369793704072
 20
116.6782765308401
 30
0.0
 10
65.08722327577716
 20
116.7771034727422
 30
0.0
 10
65.02027636503956
 20
116.9103464295969
 30
0.0
 10
65.07157736314981
 20
117.1163426759158
 30
0.0
 10
65.18837658332889
 20
117.2895480624789
 30
0.0
 10
65.27341686886754
 20
117.44609946013
 30
0.0
 10
65.2830199588548
 20
117.4637778715999
 30
0.0
  0
CIRCLE
  5
1EF
330
1F
100
AcDbEntity
  8
0
  6
Continuous
 62
     7
370
    15
100
AcDbCircle
 10
72.8134372522
 20
118.7592019381
 30
0.0
 40
20.0
  0
LINE
  5
1F0
330
1F
100
AcDbEntity
  8
0
  6
Continuous
 62
     7
370
    15
100
AcDbLine
 10
76.7061162524
 20
114.3286923
 30
0.0
 11
75.1956374635
 21
114.3937479758
 31
0.0
  0
LINE
  5
1F1
330
1F
100
AcDbEntity
  8
0
  6
Continuous
 62
     7
370
    15
100
AcDbLine
 10
77.519785079
 20
102.6926861198
 30
0.0
 11
76.7061162524
 21
114.3286923
 31
0.0
  0
LINE
  5
1F2
330
1F
100
AcDbEntity
  8
0
  6
Continuous
 62
     7
370
    15
100
AcDbLine
 10
77.519785079
 20
102.6926861198
 30
0.0
 11
76.0353374545
 21
102.3854763301
 31
0.0
  0
LINE
  5
1F3
330
1F
100
AcDbEntity
  8
0
  6
Continuous
 62
     7
370
    15
100
AcDbLine
 10
72.7831027917
 20
102.1930054815
 30
0.0
 11
71.9434026297
 21
114.2012771273
 31
0.0
  0
LWPOLYLINE
  5
1F4
330
1F
100
AcDbEntity
  8
0
  6
Continuous
 62
     7
370
    15
100
AcDbPolyline
 90
        9
 70
   128
 43
0.0
 10
72.8134372522
 20
101.7592010142
 10
72.8131985416
 20
101.7626152428
 10
72.8117545201
 20
101.7832663895
 10
72.809067468
 20
101.821692759
 10
72.8052647729
 20
101.8760745467
 10
72.8005267129
 20
101.9438319893
 10
72.7950779102
 20
102.0217520239
 10
72.7891766811
 20
102.1061447503
 10
72.7831027917
 20
102.1930054815
  0
LWPOLYLINE
  5
1F5
330
1F
100
AcDbEntity
  8
0
  6
Continuous
 62
     7
370
    15
100
AcDbPolyline
 90
        9
 70
   128
 43
0.0
 10
71.9434026297
 20
114.2012771273
 10
71.9386127795
 20
114.2697749713
 10
71.9340423139
 20
114.3351351896
 10
71.929830233
 20
114.3953712711
 10
71.9261043606
 20
114.4486531669
 10
71.9229780271
 20
114.4933622384
 10
71.9205461693
 20
114.528139686
 10
71.9188826525
 20
114.5519289242
 10
71.9180380594
 20
114.564006781
  0
LINE
  5
1F6
330
1F
100
AcDbEntity
  8
0
  6
Continuous
 62
     7
370
    15
100
AcDbLine
 10
71.9180380594
 20
114.564006781
 30
0.0
 11
71.8445738213
 21
115.6145945245
 31
0.0
  0
LINE
  5
1F7
330
1F
100
AcDbEntity
  8
0
  6
Continuous
 62
     7
370
    15
100
AcDbLine
 10
71.8445738213
 20
115.6145945245
 30
0.0
 11
71.8444676505
 21
115.6161128132
 31
0.0
  0
CIRCLE
  5
1F8
330
1F
100
AcDbEntity
  8
VERMASSUNG
  6
CENTERX2
100
AcDbCircle
 10
72.8134372522
 20
117.8100426574
 30
0.0
 40
15.99999999999999
  0
DIMENSION
  5
1F9
330
1F
100
AcDbEntity
  8
VERMASSUNG
100
AcDbDimension
  2
_D_6
 10
61.4997287532
 20
106.4963341584
 30
0.0
 11
52.85509774
 21
97.8517031453
 31
0.0
 70
   160
  1
%%c<> min. 
 71
     2
 42
-1.0
  3
SLDDIMSTYLE2
100
AcDbAlignedDimension
 13
84.1271457511
 23
129.1237511564
 33
0.0
 14
61.4997287532
 24
106.4963341584
 34
0.0
 50
45.0
100
AcDbRotatedDimension
  0
INSERT
  5
213
330
1F
100
AcDbEntity
  8
VERMASSUNG
100
AcDbBlockReference
  2
SW_CENTERMARKSYMBOL_0
 10
72.8134372522
 20
118.7592019381
 30
0.0
  0
OLE2FRAME
  5
214
330
1F
100
AcDbEntity
  8
0
100
AcDbOle2Frame
 70
     2
  3
Paintbrush-Bild
 10
13.8511154363
 20
38.264191557
 30
0.0
 11
51.6290888628
 21
31.9806341108
 31
0.0
 71
     2
 72
     0
 73
     1
 90
    12928
310
80552BED0767C5B32B40DDAF6807D121434000000000000000006FFBDDFB85D0
310
4940DDAF6807D121434000000000000000006FFBDDFB85D04940416F4BD60AFB
310
3F4000000000000000002BED0767C5B32B40416F4BD60AFB3F40000000000000
310
0000000000000100000000010000010000000100000000000100000000320000
310
D0CF11E0A1B11AE1000000000000000000000000000000003E000300FEFF0900
310
0600000000000000000000000100000001000000000000000010000002000000
310
01000000FEFFFFFF0000000000000000FFFFFFFFFFFFFFFFFFFFFFFFFFFFFFFF
310
FFFFFFFFFFFFFFFFFFFFFFFFFFFFFFFFFFFFFFFFFFFFFFFFFFFFFFFFFFFFFFFF
310
FFFFFFFFFFFFFFFFFFFFFFFFFFFFFFFFFFFFFFFFFFFFFFFFFFFFFFFFFFFFFFFF
310
FFFFFFFFFFFFFFFFFFFFFFFFFFFFFFFFFFFFFFFFFFFFFFFFFFFFFFFFFFFFFFFF
310
FFFFFFFFFFFFFFFFFFFFFFFFFFFFFFFFFFFFFFFFFFFFFFFFFFFFFFFFFFFFFFFF
310
FFFFFFFFFFFFFFFFFFFFFFFFFFFFFFFFFFFFFFFFFFFFFFFFFFFFFFFFFFFFFFFF
310
FFFFFFFFFFFFFFFFFFFFFFFFFFFFFFFFFFFFFFFFFFFFFFFFFFFFFFFFFFFFFFFF
310
FFFFFFFFFFFFFFFFFFFFFFFFFFFFFFFFFFFFFFFFFFFFFFFFFFFFFFFFFFFFFFFF
310
FFFFFFFFFFFFFFFFFFFFFFFFFFFFFFFFFFFFFFFFFFFFFFFFFFFFFFFFFFFFFFFF
310
FFFFFFFFFFFFFFFFFFFFFFFFFFFFFFFFFFFFFFFFFFFFFFFFFFFFFFFFFFFFFFFF
310
FFFFFFFFFFFFFFFFFFFFFFFFFFFFFFFFFFFFFFFFFFFFFFFFFFFFFFFFFFFFFFFF
310
FFFFFFFFFFFFFFFFFFFFFFFFFFFFFFFFFFFFFFFFFFFFFFFFFFFFFFFFFFFFFFFF
310
FFFFFFFFFFFFFFFFFFFFFFFFFFFFFFFFFFFFFFFFFFFFFFFFFFFFFFFFFFFFFFFF
310
FFFFFFFFFFFFFFFFFFFFFFFFFFFFFFFFFFFFFFFFFFFFFFFFFFFFFFFFFFFFFFFF
310
FDFFFFFFFEFFFFFFFEFFFFFFFEFFFFFF05000000060000000700000008000000
310
090000000A0000000B0000000C0000000D0000000E0000000F00000010000000
310
11000000120000001300000014000000150000001600000017000000FEFFFFFF
310
FFFFFFFFFFFFFFFFFFFFFFFFFFFFFFFFFFFFFFFFFFFFFFFFFFFFFFFFFFFFFFFF
310
FFFFFFFFFFFFFFFFFFFFFFFFFFFFFFFFFFFFFFFFFFFFFFFFFFFFFFFFFFFFFFFF
310
FFFFFFFFFFFFFFFFFFFFFFFFFFFFFFFFFFFFFFFFFFFFFFFFFFFFFFFFFFFFFFFF
310
FFFFFFFFFFFFFFFFFFFFFFFFFFFFFFFFFFFFFFFFFFFFFFFFFFFFFFFFFFFFFFFF
310
FFFFFFFFFFFFFFFFFFFFFFFFFFFFFFFFFFFFFFFFFFFFFFFFFFFFFFFFFFFFFFFF
310
FFFFFFFFFFFFFFFFFFFFFFFFFFFFFFFFFFFFFFFFFFFFFFFFFFFFFFFFFFFFFFFF
310
FFFFFFFFFFFFFFFFFFFFFFFFFFFFFFFFFFFFFFFFFFFFFFFFFFFFFFFFFFFFFFFF
310
FFFFFFFFFFFFFFFFFFFFFFFFFFFFFFFFFFFFFFFFFFFFFFFFFFFFFFFFFFFFFFFF
310
FFFFFFFFFFFFFFFFFFFFFFFFFFFFFFFFFFFFFFFFFFFFFFFFFFFFFFFFFFFFFFFF
310
FFFFFFFFFFFFFFFFFFFFFFFFFFFFFFFFFFFFFFFFFFFFFFFFFFFFFFFFFFFFFFFF
310
FFFFFFFFFFFFFFFFFFFFFFFFFFFFFFFFFFFFFFFFFFFFFFFFFFFFFFFFFFFFFFFF
310
FFFFFFFFFFFFFFFFFFFFFFFFFFFFFFFFFFFFFFFFFFFFFFFFFFFFFFFFFFFFFFFF
310
FFFFFFFFFFFFFFFFFFFFFFFFFFFFFFFFFFFFFFFFFFFFFFFFFFFFFFFFFFFFFFFF
310
52006F006F007400200045006E00740072007900000000000000000000000000
310
0000000000000000000000000000000000000000000000000000000000000000
310
16000500FFFFFFFFFFFFFFFF020000000A00030000000000C000000000000046
310
000000000000000000000000902042E65142CD0103000000C000000000000000
310
01004F006C006500000000000000000000000000000000000000000000000000
310
0000000000000000000000000000000000000000000000000000000000000000
310
0A000200FFFFFFFFFFFFFFFFFFFFFFFF00000000000000000000000000000000
310
0000000000000000000000000000000000000000000000001400000000000000
310
010043006F006D0070004F0062006A0000000000000000000000000000000000
310
0000000000000000000000000000000000000000000000000000000000000000
310
120002010100000003000000FFFFFFFF00000000000000000000000000000000
310
0000000000000000000000000000000000000000010000004D00000000000000
310
01004F006C006500310030004E00610074006900760065000000000000000000
310
0000000000000000000000000000000000000000000000000000000000000000
310
1A000200FFFFFFFFFFFFFFFFFFFFFFFF00000000000000000000000000000000
310
0000000000000000000000000000000000000000040000002426000000000000
310
FEFFFFFF02000000FEFFFFFFFFFFFFFFFFFFFFFFFFFFFFFFFFFFFFFFFFFFFFFF
310
FFFFFFFFFFFFFFFFFFFFFFFFFFFFFFFFFFFFFFFFFFFFFFFFFFFFFFFFFFFFFFFF
310
FFFFFFFFFFFFFFFFFFFFFFFFFFFFFFFFFFFFFFFFFFFFFFFFFFFFFFFFFFFFFFFF
310
FFFFFFFFFFFFFFFFFFFFFFFFFFFFFFFFFFFFFFFFFFFFFFFFFFFFFFFFFFFFFFFF
310
FFFFFFFFFFFFFFFFFFFFFFFFFFFFFFFFFFFFFFFFFFFFFFFFFFFFFFFFFFFFFFFF
310
FFFFFFFFFFFFFFFFFFFFFFFFFFFFFFFFFFFFFFFFFFFFFFFFFFFFFFFFFFFFFFFF
310
FFFFFFFFFFFFFFFFFFFFFFFFFFFFFFFFFFFFFFFFFFFFFFFFFFFFFFFFFFFFFFFF
310
FFFFFFFFFFFFFFFFFFFFFFFFFFFFFFFFFFFFFFFFFFFFFFFFFFFFFFFFFFFFFFFF
310
FFFFFFFFFFFFFFFFFFFFFFFFFFFFFFFFFFFFFFFFFFFFFFFFFFFFFFFFFFFFFFFF
310
FFFFFFFFFFFFFFFFFFFFFFFFFFFFFFFFFFFFFFFFFFFFFFFFFFFFFFFFFFFFFFFF
310
FFFFFFFFFFFFFFFFFFFFFFFFFFFFFFFFFFFFFFFFFFFFFFFFFFFFFFFFFFFFFFFF
310
FFFFFFFFFFFFFFFFFFFFFFFFFFFFFFFFFFFFFFFFFFFFFFFFFFFFFFFFFFFFFFFF
310
FFFFFFFFFFFFFFFFFFFFFFFFFFFFFFFFFFFFFFFFFFFFFFFFFFFFFFFFFFFFFFFF
310
FFFFFFFFFFFFFFFFFFFFFFFFFFFFFFFFFFFFFFFFFFFFFFFFFFFFFFFFFFFFFFFF
310
FFFFFFFFFFFFFFFFFFFFFFFFFFFFFFFFFFFFFFFFFFFFFFFFFFFFFFFFFFFFFFFF
310
FFFFFFFFFFFFFFFFFFFFFFFFFFFFFFFFFFFFFFFFFFFFFFFFFFFFFFFFFFFFFFFF
310
0100000200000000000000000000000000000000000000000000000000000000
310
0000000000000000000000000000000000000000000000000000000000000000
310
0100FEFF030A0000FFFFFFFF0A00030000000000C00000000000004607000000
310
5042727573680007000000504272757368000700000050427275736800F439B2
310
7100000000000000000000000000000000000000000000000000000000000000
310
0000000000000000000000000000000000000000000000000000000000000000
310
0000000000000000000000000000000000000000000000000000000000000000
310
0000000000000000000000000000000000000000000000000000000000000000
310
0000000000000000000000000000000000000000000000000000000000000000
310
0000000000000000000000000000000000000000000000000000000000000000
310
0000000000000000000000000000000000000000000000000000000000000000
310
0000000000000000000000000000000000000000000000000000000000000000
310
0000000000000000000000000000000000000000000000000000000000000000
310
0000000000000000000000000000000000000000000000000000000000000000
310
0000000000000000000000000000000000000000000000000000000000000000
310
0000000000000000000000000000000000000000000000000000000000000000
310
20260000424D0E260000000000003E00000028000000B40200006E0000000100
310
01000000000000000000130B0000130B00000200000002000000000000FFFFFF
310
FFFFFFFFFFFFFFFFFFFFFFFFFFFFFFFFFFFFFFFFFFFFFFFFFFFFFFFFFFFFFFFF
310
FFFFFFFFFFFFFFFFFFFFFFFFFFFFFFFFFFFFFFFFFFFFFFFFFFFFFFFFFFFFFFFF
310
FFFFFFFFFFFFFFFFFFFFFFFFFFFFFFFFFFFFFFFFFFFFFFFFF000FFFFFFFFFFFF
310
FFFFFFFFFFFFFFFFFFFFFFFFFFFFFFFFFFFFFFFFFFFFFFFFFFFFFFFFFFFFFFFF
310
FFFFFFFFFFFFFFFFFFFFFFFFFFFFFFFFFFFFFFFFFFFFFFFFFFFFFFFFFFFFFFFF
310
FFFFFFFFFFFFFFFFFFFFFFFFFFFFFFFFF000FFFFFFFFFFFFFFFFFFFFFFFFFFFF
310
FFFFFFFFFFFFFFFFFFFFFFFFFFFFFFFFFFFFFFFFFFFFFFFFFFFFFFFFFFFFFFFF
310
FFFFFFFFFFFFFFFFFFFFFFFFFFFFFFFFFFFFFFFFFFFFFFFFFFFFFFFFFFFFFFFF
310
FFFFFFFFFFFFFFFFF000FFFFFFFFFFFFFFFFFFFFFFFFFFFFFFFFFFFFFFFFFFFF
310
FFFFFFFFFFFFFFFFFFFFFFFFFFFFFFFFFFFFFFFFFFFFFFFFFFFFFFFFFFFFFFFF
310
FFFFFFFFFFFFFFFFFFFFFFFFFFFFFFFFFFFFFFFFFFFFFFFFFFFFFFFFFFFFFFFF
310
F000FFFFFFFFFFFFFFFFFFFFFFFFFFFFFFFFFFFFFFFFFFFFFFFFFFFFFFFFFFFF
310
FFFFFFFFFFFFFFFFFFFFFFFFFFFFFFFFFFFFFFFFFFFFFFFFFFFFFFFFFFFFFFFF
310
FFFFFFFFFFFFFFFFFFFFFFFFFFFFFFFFFFFFFFFFFFFFFFFFF000FFFFFFFFFFFF
310
FFFFFFFFFFFFFFFFFFFFFFFFFFFFFFFFFFFFFFFFFFFFFFFFFFFFFFFFFFFFFFFF
310
FFFFFFFFFFFFFFFFFFFFFFFFFFFFFFFFFFFFFFFFFFFFFFFFFFFFFFFFFFFFFFFF
310
FFFFFFFFFFFFFFFFFFFFFFFFFFFFFFFFF000FFFFFFFFFFFFFFFFFFFFFFFFFFFF
310
FFFFFFFFFFFFFFFFFFFFFFFFFFFFFFFFFFFFFFFFFFFFFFFFFFFFFFFFFFFFFFFF
310
FFFFFFFFFFFFFFFFFFFFFFFFFFFFFFFFFFFFFFFFFFFFFFFFFFFFFFFFFFFFFFFF
310
FFFFFFFFFFFFFFFFF000FFFFFFFFFFFFFFFFFFFFFFFFFFFFFFFFFFFFFFFFFFFF
310
FFFFFFFFFFFFFFFFFFFFFFFFFFFFFFFFFFFFFFFFFFFFFFFFFFFFFFFFFFFFFFFF
310
FFFFFFFFFFFFFFFFFFFFFFFFFFFFFFFFFFFFFFFFFFFFFFFFFFFFFFFFFFFFFFFF
310
F000FFFFFFFFFFFFFFFFFFFFFFFFFFFFFFFFFFFFFFFFFFFFFFFFFFFFFFFFFFFF
310
FFFFFFFFFFFFFFFFFFFFFFFFFFFFFFFFFFFFFFFFFFFFFFFFFFFFFFFFFFFFFFFF
310
FFFFFFFFFFFFFFFFFFFFFFFFFFFFFFFFFFFFFFFFFFFFFFFFF000FFFFFFFFFFFF
310
FFFFFFFFFFFFFFFFFFFFFFFFFFFFFFFFFFFFFFFFFFFFFFFFFFFFFFFFFFFFFFFF
310
FFFFFFFFFFFFFFFFFFFFFFFFFFFFFFFFFFFFFFFFFFFFFFFFFFFFFFFFFFFFFFFF
310
FFFFFFFFFFFFFFFFFFFFFFFFFFFFFFFFF000FFFFFFFFFFFFFFFFFFFFFFFFFFFF
310
FFFFFFFFFFFFFFFFFFFFFFFFFFFFFFFFFFFFFFFFFFFFFFFFFFFFFFFFFFFFFFFF
310
FFFFFFFFFFFFFFFFFFFFFFFFFFFFFFFFFFFFFFFFFFFFFFFFFFFFFFFFFFFFFFFF
310
FFFFFFFFFFFFFFFFF000FFFFFFFFFFFFFFFFFFFFFFFFFFFFFFFFFFFFFFFFFFFF
310
FFFFFFFFFFFFFFFFFFFFFFFFFFFFFFFFFFFFFFFFFFFFFFFFFFFFFFFFFFFFFFFF
310
FFFFFFFFFFFFFFFFFFFFFFFFFFFFFFFFFFFFFFFFFFFFFFFFFFFFFFFFFFFFFFFF
310
F000FFFFFFFFFFFFFFFFFFFFFFFFFFFFFFFFFFFFFFFFFFFFFFFFFFFFFFFFFFFF
310
FFFFFFFFFFFFFFFFFFFFFFFFFFFFFFFFFFFFFFFFFFFFFFFFFFFFFFFFFFFFFFFF
310
FFFFFFFFFFFFFFFFFFFFFFFFFFFFFFFFFFFFFFFFFFFFFFFFF000FFFFFFFFFFFF
310
FFFFFFFFFFFFFFFFFFFFFFFFFFFFFFFFFFFFFFFFFFFFFFFFFFFFFFFFFFFFFFFF
310
FFFFFFFFFFFFFFFFFFFFFFFFFFFFFFFFFFFFFFFFFFFFFFFFFFFFFFFFFFFFFFFF
310
FFFFFFFFFFFFFFFFFFFFFFFFFFFFFFFFF000FFFFFFFFFFFFFFFFFFFFFFFFFFFF
310
FFFFFFFFFFFFFFFFFFFFFFFFFFFFFFFFFFFFFFFFFFFFFFFFFFFFFFFFFFFFFFFF
310
FFFFFFFFFFFFFFFFFFFFFFFFFFFFFFFFFFFFFFFFFFFFFFFFFFFFFFFFFFFFFFFF
310
FFFFFFFFFFFFFFFFF000FFFFFFFFFFFFFFFFFFFFFFFFFFFFFFFFFFFFFFFFFFFF
310
FFFFFFFFFFFFFFFFFFFFFFFFFFFFFFFFFFFFFFFFFFFFFFFFFFFFFFFFFFFFFFFF
310
FFFFFFFFFFFFFFFFFFFFFFFFFFFFFFFFFFFFFFFFFFFFFFFFFFFFFFFFFFFFFFFF
310
F000FFFFFFFFFFFFFFFFFFFFFFFFFFFFFFFFFFFFFFFFFFFFFFFFFFFFFFFFFFFF
310
FFFFFFFFFFFFFFFFFFFFFFFFFFFFFFFFFFFFFFFFFFFFFFFFFFFFFFFFFFFFFFFF
310
FFFFFFFFFFFFFFFFFFFFFFFFFFFFFFFFFFFFFFFFFFFFFFFFF000FFFFFFFFFFFF
310
FFFFFFFFFFFFFFFFFFFFFFFFFFFFFFFFFFFFFFFFFFFFFFFFFFFFFFFFFFFFFFFF
310
FFFFFFFFFFFFFFFFFFFFFFFFFFFFFFFFFFFFFFFFFFFFFFFFFFFFFFFFFFFFFFFF
310
FFFFFFFFFFFFFFFFFFFFFFFFFFFFFFFFF000FFFFFFFFFFFFFFFFFFFFFFFFFFFF
310
FFFFFFFFFFFFFFFFFFFFFFFFFFFFFFFFFFFFFFFFFFFFFFFFFFFFFFFFFFFFFFFF
310
FFFFFFFFFFFFFFFFFFFFFFFFFFFFFFFFFFFFFFFFFFFFFFFFFFFFFFFFFFFFFFFF
310
FFFFFFFFFFFFFFFFF000FFFFF80003FFFFFFFFFFFFFFFFFFFFFFFFFFFFFFFFFF
310
FFFFF00007FFFFFFFFFF00007FFFFFF800000000000000007FFFFFFFFFFFFFFF
310
FFFFFFFC001FFFFFFFFFFFFFFC001FFFFFFFFFFFFFFFFFFFFFFFFFFE0007FFFF
310
F000FFFF8000007FFFFFFFF8000FFFFFC0007FFFFF80007FFFFF0000007FFFFF
310
FFF8000007FFFFF800000000000000007FFFFFF0001FFFFFFFFFFFC00001FFFF
310
FFFFFFFFC00001FFFFFFFF000000000003FFFFE000007FFFF000FFFE0000000F
310
FFFFFFF0000FFFFF80007FFFFF80007FFFFC0000001FFFFFFFC0000001FFFFF8
310
00000000000000007FFFFFF0001FFFFFFFFFFE0000003FFFFFFFFFFE0000003F
310
FFFFFF000000000003FFFF0000000FFFF000FFF800000003FFFFFFF00007FFFF
310
80007FFFFF80007FFFF000000007FFFFFF000000003FFFF80000000000000000
310
7FFFFFF0001FFFFFFFFFF80000000FFFFFFFFFF80000000FFFFFFF0000000000
310
03FFFC00000003FFF000FFE000000000FFFFFFF00007FFFF80003FFFFF80007F
310
FFC000000001FFFFFC000000001FFFF800000000000000007FFFFFF0001FFFFF
310
FFFFE000000003FFFFFFFFE000000003FFFFFF000000000003FFF000000000FF
310
F000FF80000000007FFFFFF00007FFFF80003FFFFF80007FFF8000000000FFFF
310
F80000000007FFF800000000000000007FFFFFF0001FFFFFFFFFC000000001FF
310
FFFFFFC000000001FFFFFF000000000003FFC0000000007FF000FF0000000000
310
3FFFFFE00007FFFF00003FFFFF80007FFE00000000003FFFF00000000003FFF8
310
00000000000000007FFFFFF0001FFFFFFFFF8000000000FFFFFFFF8000000000
310
FFFFFF000000000003FF80000000003FF000FE00000000001FFFFFE00003FFFF
310
00003FFFFF80007FFC00000000001FFFE00000000001FFF8000001FFFE000000
310
7FFFFFF0001FFFFFFFFE00000000003FFFFFFE00000000003FFFFF0000000000
310
03FF00000000001FF000FC00000000000FFFFFE00003FFFF00001FFFFF80007F
310
F800000000001FFFC00000000000FFF8000001FFFE0000007FFFFFF0001FFFFF
310
FFFC00000000001FFFFFFC00000000001FFFFF000000000003FE00000000000F
310
F000F8000000000007FFFFE00003FFFF00001FFFFF80007FF800000000000FFF
310
800000000000FFF8000001FFFE0000007FFFFFF0001FFFFFFFF800000000000F
310
FFFFF800000000000FFFFF000000000003FC000000000007F000F80000000000
310
03FFFFC00003FFFE00001FFFFF80007FF0000000000007FF0000000000007FF8
310
000001FFFE0000007FFFFFF0001FFFFFFFF0000000000007FFFFF00000000000
310
07FFFF000000000003F8000000000003F000F0000000000003FFFFC00001FFFE
310
00001FFFFF80007FE0000000000007FE0000000000003FF8000001FFFE000000
310
7FFFFFF0001FFFFFFFF0000000000007FFFFF0000000000007FFFF0000000000
310
03F800001F800003F000E00001FFF00001FFFFC00001FFFE00000FFFFF80007F
310
E00001FFE00003FE00001FFF00003FF8000001FFFE0000007FFFFFF0001FFFFF
310
FFE000003E000003FFFFE000003E000003FFFF000000000003F00001FFF80001
310
F000E00007FFFC0001FFFFC00001FFFE00000FFFFF80007FC0000FFFFC0003FC
310
0000FFFFC0001FF8000001FFFE0000007FFFFFF0001FFFFFFFC00003FFE00001
310
FFFFC00003FFE00001FFFF0001FFFFFFFFF00007FFFE0001F000E0000FFFFF00
310
00FFFF800001FFFC00000FFFFF80007FC0001FFFFE0001FC0001FFFFE0001FF8
310
000001FFFE0000007FFFFFF0001FFFFFFF80000FFFF80000FFFF80000FFFF800
310
00FFFF0003FFFFFFFFE0000FFFFF8000F000C0003FFFFF8000FFFF800000FFFC
310
000007FFFF80007F80003FFFFF0001FC0003FFFFF0001FF8000001FFFE000000
310
7FFFFFF0001FFFFFFF80003FFFFE0000FFFF80003FFFFE0000FFFF0003FFFFFF
310
FFE0003FFFFF8000F000C0003FFFFF8000FFFF800000FFFC000007FFFF80007F
310
80007FFFFF8001F80007FFFFF8000FF8000001FFFE0000007FFFFFF0001FFFFF
310
FF00007FFFFF00007FFF00007FFFFF00007FFF0003FFFFFFFFE0003FFFFFC000
310
F000C0007FFFFFC000FFFF000000FFFC000007FFFF80007F8000FFFFFF8000F8
310
000FFFFFF8000FF8000001FFFE0000007FFFFFF0001FFFFFFF0000FFFFFF8000
310
7FFF0000FFFFFF80007FFF0003FFFFFFFFC0007FFFFFC00070008000FFFFFFC0
310
00FFFF000000FFF8000007FFFF80007F8000FFFFFF8000F8000FFFFFF8000FF8
310
000001FFFE0000007FFFFFF0001FFFFFFE0001FFFFFFC0003FFE0001FFFFFFC0
310
003FFF0003FFFFFFFFC0007FFFFFE00070008000FFFFFFC0007FFF0000007FF8
310
000003FFFF80007F0001FFFFFF8000F8000FFFFFF8000FF8000001FFFE000000
310
7FFFFFF0001FFFFFFE0001FFFFFFC0003FFE0001FFFFFFC0003FFF0003FFFFFF
310
FFC000FFFFFFE00070008000FFFFFFC0007FFF0000007FF8000003FFFF80007F
310
0001FFFFFF8000F8001FFFFFF8000FF8000001FFFE0000007FFFFFF0001FFFFF
310
FE0003FFFFFFE0003FFE0003FFFFFFE0003FFF0003FFFFFFFFC000FFFFFFE000
310
70008000FFFFFFC0007FFE0000007FF8000003FFFF80007F0001FFFFFF8000F0
310
001FFFFFF8000FF8000001FFFE0000007FFFFFF0001FFFFFFC0003FFFFFFE000
310
1FFC0003FFFFFFE0001FFF0003FFFFFFFFC000FFFFFFC00070008000FFFFFF80
310
007FFE0000007FF0000003FFFF80007F0001FFFFFF0000F0001FFFFFF8000FF8
310
000001FFFE0000007FFFFFF0001FFFFFFC0007FFFFFFF0001FFC0007FFFFFFF0
310
001FFF0003FFFFFFFFC000FFFFFFC00070008001FFFFFF0000FFFE0000003FF0
310
000001FFFF80007F0001FFFFFF0000F8001FFFFFF0000FF8000001FFFE000000
310
7FFFFFF0001FFFFFFC0007FFFFFFF0001FFC0007FFFFFFF0001FFF0003FFFFFF
310
FFC001FFFFFF80007000FFFFFFFFFE0000FFFE0008003FF0008001FFFF80007F
310
FFFFFFFFFC0000FFFFFFFFFFE0000FF8000001FFFE0000007FFFFFF0001FFFFF
310
F8000FFFFFFFF8000FF8000FFFFFFFF8000FFF0003FFFFFFFFFFFFFFFFFF0000
310
7000FFFFFFFFFC0000FFFC0008003FF0008001FFFF80007FFFFFFFFFF80001FF
310
FFFFFFFF80000FF8000001FFFE0000007FFFFFF0001FFFFFF8000FFFFFFFF800
310
0FF8000FFFFFFFF8000FFF0003FFFFFFFFFFFFFFFFFE0000F000FFFFFFFFE000
310
00FFFC000C003FE000C001FFFF80007FFFFFFFFFC00001FFFFFFFFFE00001FF8
310
000001FFFE0000007FFFFFF0001FFFFFF8000FFFFFFFF8000FF8000FFFFFFFF8
310
000FFF0003FFFFFFFFFFFFFFFFF00000F000FFFFFFFE000001FFFC000C001FE0
310
00C000FFFF80007FFFFFFFFE000001FFFFFFFFE000001FF80FFFFFFFFFFFFFC0
310
7FFFFFF0001FFFFFF8000FFFFFFFF8000FF8000FFFFFFFF8000FFF0003FFFFFF
310
FFFFFFFFFF800000F000FFFFFFC0000001FFFC001C001FE001C000FFFF80007F
310
FFFFFF80000003FFFFFFF80000001FF80FFFFFFFFFFFFFC07FFFFFF0001FFFFF
310
F8001FFFFFFFFC000FF8001FFFFFFFFC000FFF0003FFFFFFFFFFFFFFF0000001
310
F000FFFFF800000001FFF8001C001FE001C000FFFF80007FFFFFF800000003FF
310
FFFF800000003FF80FFFFFFFFFFFFFC07FFFFFF0001FFFFFF8001FFFFFFFFC00
310
0FF8001FFFFFFFFC000FFF0003FFFFFFFFFFFFFE00000001F000FFFFC0000000
310
03FFF8001E001FC001E000FFFF80007FFFFF8000000007FFFFFC000000003FF8
310
0FFFFFFFFFFFFFC07FFFFFF0001FFFFFF8001FFFFFFFFC000FF8001FFFFFFFFC
310
000FFF0003FFFFFFFFFFFFE000000003F000FFFE0000000007FFF8001E000FC0
310
01E0007FFF80007FFFFE0000000007FFFFE0000000007FF80FFFFFFFFFFFFFC0
310
7FFFFFF0001FFFFFF0001FFFFFFFFC0007F0001FFFFFFFFC0007FF0003FFFFFF
310
FFFFFF0000000003F000FFF80000000007FFF8001E000FC003E0007FFF80007F
310
FFF0000000000FFFFF8000000000FFF80FFFFFFFFFFFFFC07FFFFFF0001FFFFF
310
F0001FFFFFFFFC0007F0001FFFFFFFFC0007FF0003FFFFFFFFFFFC0000000007
310
F000FFE0000000000FFFF0003E000FC003E0007FFF80007FFFC0000000001FFF
310
FE0000000001FFF80FFFFFFFFFFFFFC07FFFFFF0001FFFFFF0001FFFFFFFFC00
310
07F0001FFFFFFFFC0007FF0003FFFFFFFFFFF0000000000FF000FFC000000000
310
1FFFF0003F000F8003F0003FFF80007FFF80000000003FFFF80000000003FFF8
310
0FFFFFFFFFFFFFC07FFFFFF0001FFFFFF0001FFFFFFFFC0007F0001FFFFFFFFC
310
0007FF0003FFFFFFFFFFE0000000001FF000FF00000000007FFFF0003F000780
310
03F0003FFF80007FFF00000000007FFFF00000000007FFF80FFFFFFFFFFFFFC0
310
7FFFFFF0001FFFFFF0001FFFFFFFFC0007F0001FFFFFFFFC0007FF0003FFFFFF
310
FFFF80000000007FF000FE0000000000FFFFE0003F00078007F0003FFF80007F
310
FE0000000001FFFFE0000000001FFFF80FFFFFFFFFFFFFC07FFFFFF0001FFFFF
310
F0001FFFFFFFFC0007F0001FFFFFFFFC0007FF0003FFFFFFFFFF0000000000FF
310
F000FC0000000003FFFFE0007F00078007F0003FFF80007FFC0000000007FFFF
310
C0000000007FFFF80FFFFFFFFFFFFFC07FFFFFF0001FFFFFF8001FFFFFFFFC00
310
0FF8001FFFFFFFFC000FFF0003FFFFFFFFFE0000000003FFF000FC000000000F
310
FFFFE0007F80070007F8001FFF80007FF8000000001FFFFF8000000001FFFFF8
310
0FFFFFFFFFFFFFC07FFFFFF0001FFFFFF8001FFFFFFFFC000FF8001FFFFFFFFC
310
000FFF0003FFFFFFFFFC000000000FFFF000F8000000007FFFFFE0007F800700
310
07F8001FFF80007FF000000000FFFFFF800000000FFFFFF80FFFFFFFFFFFFFC0
310
7FFFFFF0001FFFFFF8000FFFFFFFF8000FF8000FFFFFFFF8000FFF0003FFFFFF
310
FFFC000000007FFFF000F800000007FFFFFFC0007F8003000FF8001FFF80007F
310
F000000007FFFFFF000000007FFFFFF80FFFFFFFFFFFFFC07FFFFFF0001FFFFF
310
F8000FFFFFFFF8000FF8000FFFFFFFF8000FFF0003FFFFFFFFF80000000FFFFF
310
F000F0000000FFFFFFFFC000FF8003000FF8001FFF80007FE0000000FFFFFFFF
310
0000000FFFFFFFF8000001FFFE0000007FFFFFF0001FFFFFF8000FFFFFFFF800
310
0FF8000FFFFFFFF8000FFF0003FFFFFFFFF8000000FFFFFFF000F000000FFFFF
310
FFFFC000FFC002000FF8000FFF80007FE000001FFFFFFFFE000001FFFFFFFFF8
310
000001FFFE0000007FFFFFF0001FFFFFF8000FFFFFFFF8000FF8000FFFFFFFF8
310
000FFF0003FFFFFFFFF000001FFFFFFFF000E00000FFFFFFFFFFC000FFC00200
310
0FFC000FFF80007FE00001FFFFFFFFFE00001FFFFFFFFFF8000001FFFE000000
310
7FFFFFF0001FFFFFFC000FFFFFFFF8001FFC000FFFFFFFF8001FFF0003FFFFFF
310
FFF00001FFFFFFFFF000E00007FFFFFFFFFF8000FFC000001FFC000FFF80007F
310
C0000FFFFFFFFFFE0000FFFFFFFFFFF8000001FFFE0000007FFFFFF0001FFFFF
310
FC0007FFFFFFF0001FFC0007FFFFFFF0001FFF0003FFFFFFFFF00007FFFFFFFF
310
F000E0001FFFFFFFFFFF8000FFC000001FFC000FFF80007FC0003FFFFFFFFFFE
310
0001FFFFFFFFFFF8000001FFFE0000007FFFFFF0001FFFFFFC0007FFFFFFF000
310
1FFC0007FFFFFFF0001FFF0003FFFFFFFFF0001FFFFFFFFFF000E0003FFFFF00
310
03FF8001FFE000001FFC0007FF80007FC0007FFFFF0007FC0003FFFFF0003FF8
310
000001FFFE0000007FFFFFF0001FFFFFFC0003FFFFFFE0001FFC0003FFFFFFE0
310
001FFF0003FFFFFFFFF0003FFFFFFFFFF000E0003FFFFF0001FF8001FFE00000
310
1FFE0007FF80007FC0007FFFFE0003FC0007FFFFE0003FF8000001FFFE000000
310
7FFFFFF0001FFFFFFE0003FFFFFFE0003FFE0003FFFFFFE0003FFF0003FFFFFF
310
FFF0003FFFFF8001F000E0003FFFFF0001FF0001FFE000001FFE0007FF80007F
310
C0007FFFFE0003FC0007FFFFE0003FF8000001FFFE0000007FFFFFF0001FFFFF
310
FE0001FFFFFFC0003FFE0001FFFFFFC0003FFF0003FFFFFFFFF0003FFFFF0001
310
F000E0003FFFFF0003FF0001FFE000003FFE0007FF80007FC0007FFFFE0003FC
310
0007FFFFE0003FF8000001FFFE0000007FFFFFF0001FFFFFFF0001FFFFFFC000
310
7FFF0001FFFFFFC0007FFF0003FFFFFFFFF0003FFFFF0001F000E0003FFFFE00
310
03FF0003FFF000003FFE0003FF80007FC0007FFFFC0003FE0007FFFFE0003FF8
310
000001FFFE0000007FFFFFF0001FFFFFFF0000FFFFFF80007FFF0000FFFFFF80
310
007FFF0003FFFFFFFFF0003FFFFF0001F000E0003FFFFE0003FF0003FFF00000
310
3FFF0003FF80007FC0007FFFFC0007FE0007FFFFC0003FF8000001FFFE000000
310
7FFFFFF0001FFFFFFF80007FFFFF0000FFFF80007FFFFF0000FFFF0003FFFFFF
310
FFF0003FFFFF0003F000E0003FFFFC0003FE0003FFF000003FFF0003FF80007F
310
E0003FFFF80007FE0003FFFFC0007FF8000001FFFE0000007FFFFFF0001FFFFF
310
FF80003FFFFE0000FFFF80003FFFFE0000FFFF0003FFFFFFFFF0001FFFFE0003
310
F000F0001FFFF80003FE0003FFF000007FFF0001FF80007FE0003FFFF00007FE
310
0001FFFF80007FF8000001FFFE0000007FFFFFF0001FFFFFFFC0000FFFF80001
310
FFFFC0000FFFF80001FFFF0003FFFFFFFFF0001FFFFC0003F000F0000FFFF000
310
07FE0007FFF800007FFF0001FF80007FE0001FFFE00007FF0000FFFE00007FF8
310
000001FFFE0000007FFFFFF0001FFFFFFFC00003FFE00001FFFFC00003FFE000
310
01FFFF0003FFFFFFFFF8000FFFF80003F000F00003FFC00007FC0007FFF80000
310
7FFF8001FF80007FF00007FF80000FFF00007FF80000FFF8000001FFFE000000
310
7F80000000000001FFE000003E000003FFFFE000003E000003FFFF0003FFFFFF
310
FFF80003FFE00007F000F800000000000FFC0007FFF800007FFF8001FF80007F
310
F000000000000FFF000000000000FFF8000001FFFE0000007F80000000000001
310
FFF0000000000007FFFFF0000000000007FFFF0003FFFFFFFFFC00007E000007
310
F000F800000000000FFC0007FFF80000FFFF8000FF80007FF800000000001FFF
310
800000000001FFF8000001FFFE0000007F80000000000001FFF800000000000F
310
FFFFF800000000000FFFFF0003FFFFFFFFFC00000000000FF000FC0000000000
310
1FFC0007FFFC0000FFFF8000FF80007FF800000000003FFFC00000000001FFF8
310
000001FFFE0000007F80000000000001FFF800000000000FFFFFF80000000000
310
0FFFFF0003FFFFFFFFFE00000000001FF000FE00000000003FF8000FFFFC0000
310
FFFF8000FF80007FFC00000000003FFFC00000000003FFF8000001FFFE000000
310
7F80000000000001FFFC00000000001FFFFFFC00000000001FFFFF0003FFFFFF
310
FFFF00000000001FF000FF00000000003FF8000FFFFC0000FFFFC000FF80007F
310
FE00000000007FFFE00000000007FFF8000001FFFE0000007F80000000000001
310
FFFE00000000003FFFFFFE00000000003FFFFF0003FFFFFFFFFF80000000003F
310
F000FF80000000007FF8000FFFFC0001FFFFC0007F80007FFF0000000000FFFF
310
F0000000000FFFF800000000000000007F80000000000001FFFF8000000000FF
310
FFFFFF8000000000FFFFFF0003FFFFFFFFFFC0000000007FF000FFC000000000
310
FFF8000FFFFE0001FFFFC0007F80007FFF8000000001FFFFF8000000001FFFF8
310
00000000000000007F80000000000001FFFFC000000001FFFFFFFFC000000001
310
FFFFFF0003FFFFFFFFFFE000000000FFF000FFE000000003FFF0001FFFFE0001
310
FFFFC0007F80007FFFC000000007FFFFFE000000003FFFF80000000000000000
310
7F80000000000001FFFFE000000003FFFFFFFFE000000003FFFFFF0003FFFFFF
310
FFFFF000000003FFF000FFF80000000FFFF0001FFFFE0001FFFFE0007F80007F
310
FFF00000000FFFFFFF00000000FFFFF800000000000000007F80000000000001
310
FFFFF80000000FFFFFFFFFF80000000FFFFFFF0003FFFFFFFFFFFC0000000FFF
310
F000FFFE0000003FFFF0001FFFFE0003FFFFE0003F80007FFFFC0000003FFFFF
310
FFC0000003FFFFF800000000000000007F80000000000001FFFFFE0000003FFF
310
FFFFFFFE0000003FFFFFFF0003FFFFFFFFFFFF0000003FFFF000FFFF800000FF
310
FFF0001FFFFF0003FFFFE0003F80007FFFFF000001FFFFFFFFF800001FFFFFF8
310
00000000000000007F80000000000001FFFFFFC00001FFFFFFFFFFFFC00001FF
310
FFFFFF0003FFFFFFFFFFFFC00000FFFFF000FFFFF8000FFFFFFFFFFFFFFFFFFF
310
FFFFFFFFFFFFFFFFFFFFF0001FFFFFFFFFFF0000FFFFFFF80000000000000000
310
7FFFFFFFFFFFFFFFFFFFFFFC001FFFFFFFFFFFFFFC001FFFFFFFFFFFFFFFFFFF
310
FFFFFFFC001FFFFFF000FFFFFFFFFFFFFFFFFFFFFFFFFFFFFFFFFFFFFFFFFFFF
310
FFFFFFFFFFFFFFFFFFFFFFFFFFFFFFFFFFFFFFFFFFFFFFFFFFFFFFFFFFFFFFFF
310
FFFFFFFFFFFFFFFFFFFFFFFFFFFFFFFFFFFFFFFFFFFFFFFFFFFFFFFFFFFFFFFF
310
F000FFFFFFFFFFFFFFFFFFFFFFFFFFFFFFFFFFFFFFFFFFFFFFFFFFFFFFFFFFFF
310
FFFFFFFFFFFFFFFFFFFFFFFFFFFFFFFFFFFFFFFFFFFFFFFFFFFFFFFFFFFFFFFF
310
FFFFFFFFFFFFFFFFFFFFFFFFFFFFFFFFFFFFFFFFFFFFFFFFF000FFFFFFFFFFFF
310
FFFFFFFFFFFFFFFFFFFFFFFFFFFFFFFFFFFFFFFFFFFFFFFFFFFFFFFFFFFFFFFF
310
FFFFFFFFFFFFFFFFFFFFFFFFFFFFFFFFFFFFFFFFFFFFFFFFFFFFFFFFFFFFFFFF
310
FFFFFFFFFFFFFFFFFFFFFFFFFFFFFFFFF000FFFFFFFFFFFFFFFFFFFFFFFFFFFF
310
FFFFFFFFFFFFFFFFFFFFFFFFFFFFFFFFFFFFFFFFFFFFFFFFFFFFFFFFFFFFFFFF
310
FFFFFFFFFFFFFFFFFFFFFFFFFFFFFFFFFFFFFFFFFFFFFFFFFFFFFFFFFFFFFFFF
310
FFFFFFFFFFFFFFFFF000FFFFFFFFFFFFFFFFFFFFFFFFFFFFFFFFFFFFFFFFFFFF
310
FFFFFFFFFFFFFFFFFFFFFFFFFFFFFFFFFFFFFFFFFFFFFFFFFFFFFFFFFFFFFFFF
310
FFFFFFFFFFFFFFFFFFFFFFFFFFFFFFFFFFFFFFFFFFFFFFFFFFFFFFFFFFFFFFFF
310
F000FFFFFFFFFFFFFFFFFFFFFFFFFFFFFFFFFFFFFFFFFFFFFFFFFFFFFFFFFFFF
310
FFFFFFFFFFFFFFFFFFFFFFFFFFFFFFFFFFFFFFFFFFFFFFFFFFFFFFFFFFFFFFFF
310
FFFFFFFFFFFFFFFFFFFFFFFFFFFFFFFFFFFFFFFFFFFFFFFFF000FFFFFFFFFFFF
310
FFFFFFFFFFFFFFFFFFFFFFFFFFFFFFFFFFFFFFFFFFFFFFFFFFFFFFFFFFFFFFFF
310
FFFFFFFFFFFFFFFFFFFFFFFFFFFFFFFFFFFFFFFFFFFFFFFFFFFFFFFFFFFFFFFF
310
FFFFFFFFFFFFFFFFFFFFFFFFFFFFFFFFF000FFFFFFFFFFFFFFFFFFFFFFFFFFFF
310
FFFFFFFFFFFFFFFFFFFFFFFFFFFFFFFFFFFFFFFFFFFFFFFFFFFFFFFFFFFFFFFF
310
FFFFFFFFFFFFFFFFFFFFFFFFFFFFFFFFFFFFFFFFFFFFFFFFFFFFFFFFFFFFFFFF
310
FFFFFFFFFFFFFFFFF000FFFFFFFFFFFFFFFFFFFFFFFFFFFFFFFFFFFFFFFFFFFF
310
FFFFFFFFFFFFFFFFFFFFFFFFFFFFFFFFFFFFFFFFFFFFFFFFFFFFFFFFFFFFFFFF
310
FFFFFFFFFFFFFFFFFFFFFFFFFFFFFFFFFFFFFFFFFFFFFFFFFFFFFFFFFFFFFFFF
310
F000FFFFFFFFFFFFFFFFFFFFFFFFFFFFFFFFFFFFFFFFFFFFFFFFFFFFFFFFFFFF
310
FFFFFFFFFFFFFFFFFFFFFFFFFFFFFFFFFFFFFFFFFFFFFFFFFFFFFFFFFFFFFFFF
310
FFFFFFFFFFFFFFFFFFFFFFFFFFFFFFFFFFFFFFFFFFFFFFFFF000FFFFFFFFFFFF
310
FFFFFFFFFFFFFFFFFFFFFFFFFFFFFFFFFFFFFFFFFFFFFFFFFFFFFFFFFFFFFFFF
310
FFFFFFFFFFFFFFFFFFFFFFFFFFFFFFFFFFFFFFFFFFFFFFFFFFFFFFFFFFFFFFFF
310
FFFFFFFFFFFFFFFFFFFFFFFFFFFFFFFFF000FFFFFFFFFFFFFFFFFFFFFFFFFFFF
310
FFFFFFFFFFFFFFFFFFFFFFFFFFFFFFFFFFFFFFFFFFFFFFFFFFFFFFFFFFFFFFFF
310
FFFFFFFFFFFFFFFFFFFFFFFFFFFFFFFFFFFFFFFFFFFFFFFFFFFFFFFFFFFFFFFF
310
FFFFFFFFFFFFFFFFF000FFFFFFFFFFFFFFFFFFFFFFFFFFFFFFFFFFFFFFFFFFFF
310
FFFFFFFFFFFFFFFFFFFFFFFFFFFFFFFFFFFFFFFFFFFFFFFFFFFFFFFFFFFFFFFF
310
FFFFFFFFFFFFFFFFFFFFFFFFFFFFFFFFFFFFFFFFFFFFFFFFFFFFFFFFFFFFFFFF
310
F000FFFFFFFFFFFFFFFFFFFFFFFFFFFFFFFFFFFFFFFFFFFFFFFFFFFFFFFFFFFF
310
FFFFFFFFFFFFFFFFFFFFFFFFFFFFFFFFFFFFFFFFFFFFFFFFFFFFFFFFFFFFFFFF
310
FFFFFFFFFFFFFFFFFFFFFFFFFFFFFFFFFFFFFFFFFFFFFFFFF000FFFFFFFFFFFF
310
FFFFFFFFFFFFFFFFFFFFFFFFFFFFFFFFFFFFFFFFFFFFFFFFFFFFFFFFFFFFFFFF
310
FFFFFFFFFFFFFFFFFFFFFFFFFFFFFFFFFFFFFFFFFFFFFFFFFFFFFFFFFFFFFFFF
310
FFFFFFFFFFFFFFFFFFFFFFFFFFFFFFFFF000FFFFFFFFFFFFFFFFFFFFFFFFFFFF
310
FFFFFFFFFFFFFFFFFFFFFFFFFFFFFFFFFFFFFFFFFFFFFFFFFFFFFFFFFFFFFFFF
310
FFFFFFFFFFFFFFFFFFFFFFFFFFFFFFFFFFFFFFFFFFFFFFFFFFFFFFFFFFFFFFFF
310
FFFFFFFFFFFFFFFFF000FFFFFFFFFFFFFFFFFFFFFFFFFFFFFFFFFFFFFFFFFFFF
310
FFFFFFFFFFFFFFFFFFFFFFFFFFFFFFFFFFFFFFFFFFFFFFFFFFFFFFFFFFFFFFFF
310
FFFFFFFFFFFFFFFFFFFFFFFFFFFFFFFFFFFFFFFFFFFFFFFFFFFFFFFFFFFFFFFF
310
F000FFFFFFFFFFFFFFFFFFFFFFFFFFFFFFFFFFFFFFFFFFFFFFFFFFFFFFFFFFFF
310
FFFFFFFFFFFFFFFFFFFFFFFFFFFFFFFFFFFFFFFFFFFFFFFFFFFFFFFFFFFFFFFF
310
FFFFFFFFFFFFFFFFFFFFFFFFFFFFFFFFFFFFFFFFFFFFFFFFF000FFFFFFFFFFFF
310
FFFFFFFFFFFFFFFFFFFFFFFFFFFFFFFFFFFFFFFFFFFFFFFFFFFFFFFFFFFFFFFF
310
FFFFFFFFFFFFFFFFFFFFFFFFFFFFFFFFFFFFFFFFFFFFFFFFFFFFFFFFFFFFFFFF
310
FFFFFFFFFFFFFFFFFFFFFFFFFFFFFFFFF000FFFFFFFFFFFFFFFFFFFFFFFFFFFF
310
FFFFFFFFFFFFFFFFFFFFFFFFFFFFFFFFFFFFFFFFFFFFFFFFFFFFFFFFFFFFFFFF
310
FFFFFFFFFFFFFFFFFFFFFFFFFFFFFFFFFFFFFFFFFFFFFFFFFFFFFFFFFFFFFFFF
310
FFFFFFFFFFFFFFFFF000FFFFFFFFFFFFFFFFFFFFFFFFFFFFFFFFFFFFFFFFFFFF
310
FFFFFFFFFFFFFFFFFFFFFFFFFFFFFFFFFFFFFFFFFFFFFFFFFFFFFFFFFFFFFFFF
310
FFFFFFFFFFFFFFFFFFFFFFFFFFFFFFFFFFFFFFFFFFFFFFFFFFFFFFFFFFFFFFFF
310
F000FFFFFFFFFFFFFFFFFFFFFFFFFFFFFFFFFFFFFFFFFFFFFFFFFFFFFFFFFFFF
310
FFFFFFFFFFFFFFFFFFFFFFFFFFFFFFFFFFFFFFFFFFFFFFFFFFFFFFFFFFFFFFFF
310
FFFFFFFFFFFFFFFFFFFFFFFFFFFFFFFFFFFFFFFFFFFFFFFFF000FFFFFFFFFFFF
310
FFFFFFFFFFFFFFFFFFFFFFFFFFFFFFFFFFFFFFFFFFFFFFFFFFFFFFFFFFFFFFFF
310
FFFFFFFFFFFFFFFFFFFFFFFFFFFFFFFFFFFFFFFFFFFFFFFFFFFFFFFFFFFFFFFF
310
FFFFFFFFFFFFFFFFFFFFFFFFFFFFFFFFF0000000000000000000000000000000
310
0000000000000000000000000000000000000000000000000000000000000000
310
0000000000000000000000000000000000000000000000000000000000000000
310
0000000000000000000000000000000000000000000000000000000000000000
310
0000000000000000000000000000000000000000000000000000000000000000
310
0000000000000000000000000000000000000000000000000000000000000000
310
0000000000000000000000000000000000000000000000000000000000000000
310
0000000000000000000000000000000000000000000000000000000000000000
310
0000000000000000000000000000000000000000000000000000000000000000
310
0000000000000000000000000000000000000000000000000000000000000000
310
0000000000000000000000000000000000000000000000000000000000000000
310
0000000000000000000000000000000000000000000000000000000000000000
310
0000000000000000000000000000000000000000000000000000000000000000
310
0000000000000000000000000000000000000000000000000000000000000000
310
0000000000000000000000000000000000000000000000000000000000000000
310
0000000000000000000000000000000000000000000000000000000000000000
  1
OLE
  0
ENDSEC
  0
SECTION
  2
OBJECTS
  0
DICTIONARY
  5
C
330
0
100
AcDbDictionary
281
     1
  3
ACAD_GROUP
350
D
  3
ACAD_LAYOUT
350
1A
  3
ACAD_MLINESTYLE
350
17
  3
ACAD_PLOTSETTINGS
350
19
  3
ACAD_PLOTSTYLENAME
350
E
  0
DICTIONARY
  5
D
102
{ACAD_REACTORS
330
C
102
}
330
C
100
AcDbDictionary
281
     1
  0
DICTIONARY
  5
1A
102
{ACAD_REACTORS
330
C
102
}
330
C
100
AcDbDictionary
281
     1
  3
Layout1
350
1E
  3
Layout2
350
26
  3
Model
350
22
  0
DICTIONARY
  5
17
102
{ACAD_REACTORS
330
C
102
}
330
C
100
AcDbDictionary
281
     1
  3
Standard
350
18
  0
DICTIONARY
  5
19
102
{ACAD_REACTORS
330
C
102
}
330
C
100
AcDbDictionary
281
     1
  0
ACDBDICTIONARYWDFLT
  5
E
102
{ACAD_REACTORS
330
C
102
}
330
C
100
AcDbDictionary
281
     1
  3
Normal
350
F
100
AcDbDictionaryWithDefault
340
F
  0
LAYOUT
  5
1E
102
{ACAD_REACTORS
330
1A
102
}
330
1A
100
AcDbPlotSettings
  1

  2
none_device
  4

  6

 40
0.0
 41
0.0
 42
0.0
 43
0.0
 44
0.0
 45
0.0
 46
0.0
 47
0.0
 48
0.0
 49
0.0
140
0.0
141
0.0
142
1.0
143
1.0
 70
   688
 72
     0
 73
     0
 74
     5
  7

 75
    16
147
1.0
148
0.0
149
0.0
100
AcDbLayout
  1
Layout1
 70
     1
 71
     1
 10
0.0
 20
0.0
 11
420.0
 21
297.0
 12
0.0
 22
0.0
 32
0.0
 14
1.0000000000E+20
 24
1.0000000000E+20
 34
1.0000000000E+20
 15
-1.0000000000E+20
 25
-1.0000000000E+20
 35
-1.0000000000E+20
146
0.0
 13
0.0
 23
0.0
 33
0.0
 16
1.0
 26
0.0
 36
0.0
 17
0.0
 27
1.0
 37
0.0
 76
     0
330
1B
  0
LAYOUT
  5
26
102
{ACAD_REACTORS
330
1A
102
}
330
1A
100
AcDbPlotSettings
  1

  2
none_device
  4

  6

 40
0.0
 41
0.0
 42
0.0
 43
0.0
 44
0.0
 45
0.0
 46
0.0
 47
0.0
 48
0.0
 49
0.0
140
0.0
141
0.0
142
1.0
143
1.0
 70
   688
 72
     0
 73
     0
 74
     5
  7

 75
    16
147
1.0
148
0.0
149
0.0
100
AcDbLayout
  1
Layout2
 70
     1
 71
     2
 10
0.0
 20
0.0
 11
0.0
 21
0.0
 12
0.0
 22
0.0
 32
0.0
 14
0.0
 24
0.0
 34
0.0
 15
0.0
 25
0.0
 35
0.0
146
0.0
 13
0.0
 23
0.0
 33
0.0
 16
1.0
 26
0.0
 36
0.0
 17
0.0
 27
1.0
 37
0.0
 76
     0
330
23
  0
LAYOUT
  5
22
102
{ACAD_REACTORS
330
1A
102
}
330
1A
100
AcDbPlotSettings
  1

  2
none_device
  4

  6

 40
0.0
 41
0.0
 42
0.0
 43
0.0
 44
0.0
 45
0.0
 46
0.0
 47
0.0
 48
0.0
 49
0.0
140
0.0
141
0.0
142
1.0
143
1.0
 70
  1712
 72
     0
 73
     0
 74
     0
  7

 75
     0
147
1.0
148
0.0
149
0.0
100
AcDbLayout
  1
Model
 70
     1
 71
     0
 10
0.0
 20
0.0
 11
297.0
 21
210.0
 12
0.0
 22
0.0
 32
0.0
 14
0.0
 24
0.0
 34
0.0
 15
297.0
 25
210.0
 35
0.0
146
0.0
 13
0.0
 23
0.0
 33
0.0
 16
1.0
 26
0.0
 36
0.0
 17
0.0
 27
1.0
 37
0.0
 76
     0
330
1F
331
29
  0
MLINESTYLE
  5
18
102
{ACAD_REACTORS
330
17
102
}
330
17
100
AcDbMlineStyle
  2
Standard
 70
     0
  3

 62
   256
 51
90.0
 52
90.0
 71
     2
 49
0.5
 62
   256
  6
BYLAYER
 49
-0.5
 62
   256
  6
BYLAYER
  0
ACDBPLACEHOLDER
  5
F
102
{ACAD_REACTORS
330
E
102
}
330
E
  0
ENDSEC
  0
EOF
