  0
SECTION
  2
HEADER
  9
$ACADVER
  1
AC1015
  9
$ACADMAINTVER
 70
     6
  9
$DWGCODEPAGE
  3
ANSI_1252
  9
$INSBASE
 10
0.0
 20
0.0
 30
0.0
  9
$EXTMIN
 10
0.0
 20
0.0
 30
0.0
  9
$EXTMAX
 10
297.0
 20
210.0
 30
0.0
  9
$LIMMIN
 10
0.0
 20
0.0
  9
$LIMMAX
 10
297.0
 20
210.0
  9
$ORTHOMODE
 70
     0
  9
$REGENMODE
 70
     1
  9
$FILLMODE
 70
     1
  9
$QTEXTMODE
 70
     0
  9
$MIRRTEXT
 70
     1
  9
$LTSCALE
 40
1.0
  9
$ATTMODE
 70
     1
  9
$TEXTSIZE
 40
2.0
  9
$TRACEWID
 40
1.0
  9
$TEXTSTYLE
  7
Standard
  9
$CLAYER
  8
0
  9
$CELTYPE
  6
ByLayer
  9
$CECOLOR
 62
   256
  9
$CELTSCALE
 40
1.0
  9
$DISPSILH
 70
     0
  9
$DIMSCALE
 40
1.0
  9
$DIMASZ
 40
3.0
  9
$DIMEXO
 40
0.0
  9
$DIMDLI
 40
3.75
  9
$DIMRND
 40
0.0
  9
$DIMDLE
 40
0.0
  9
$DIMEXE
 40
1.0
  9
$DIMTP
 40
0.0
  9
$DIMTM
 40
0.0
  9
$DIMTXT
 40
2.0
  9
$DIMCEN
 40
2.5
  9
$DIMTSZ
 40
0.0
  9
$DIMTOL
 70
     0
  9
$DIMLIM
 70
     0
  9
$DIMTIH
 70
     1
  9
$DIMTOH
 70
     1
  9
$DIMSE1
 70
     0
  9
$DIMSE2
 70
     0
  9
$DIMTAD
 70
     1
  9
$DIMZIN
 70
     0
  9
$DIMBLK
  1

  9
$DIMASO
 70
     1
  9
$DIMSHO
 70
     1
  9
$DIMPOST
  1

  9
$DIMAPOST
  1

  9
$DIMALT
 70
     0
  9
$DIMALTD
 70
     3
  9
$DIMALTF
 40
0.0393700787
  9
$DIMLFAC
 40
1.0
  9
$DIMTOFL
 70
     1
  9
$DIMTVP
 40
0.0
  9
$DIMTIX
 70
     0
  9
$DIMSOXD
 70
     0
  9
$DIMSAH
 70
     0
  9
$DIMBLK1
  1

  9
$DIMBLK2
  1

  9
$DIMSTYLE
  2
ISO-25
  9
$DIMCLRD
 70
     0
  9
$DIMCLRE
 70
     0
  9
$DIMCLRT
 70
     0
  9
$DIMTFAC
 40
1.0
  9
$DIMGAP
 40
1.524
  9
$DIMJUST
 70
     0
  9
$DIMSD1
 70
     0
  9
$DIMSD2
 70
     0
  9
$DIMTOLJ
 70
     0
  9
$DIMTZIN
 70
     0
  9
$DIMALTZ
 70
     0
  9
$DIMALTTZ
 70
     0
  9
$DIMUPT
 70
     0
  9
$DIMDEC
 70
     2
  9
$DIMTDEC
 70
     3
  9
$DIMALTU
 70
     2
  9
$DIMALTTD
 70
     3
  9
$DIMTXSTY
  7
Standard
  9
$DIMAUNIT
 70
     0
  9
$DIMADEC
 70
     2
  9
$DIMALTRND
 40
0.0
  9
$DIMAZIN
 70
     0
  9
$DIMDSEP
 70
    44
  9
$DIMATFIT
 70
     3
  9
$DIMFRAC
 70
     0
  9
$DIMLDRBLK
  1

  9
$DIMLUNIT
 70
     2
  9
$DIMLWD
 70
    -2
  9
$DIMLWE
 70
    -2
  9
$DIMTMOVE
 70
     0
  9
$LUNITS
 70
     2
  9
$LUPREC
 70
     2
  9
$SKETCHINC
 40
1.0
  9
$FILLETRAD
 40
10.0
  9
$AUNITS
 70
     0
  9
$AUPREC
 70
     2
  9
$MENU
  1
.
  9
$ELEVATION
 40
0.0
  9
$PELEVATION
 40
0.0
  9
$THICKNESS
 40
0.0
  9
$LIMCHECK
 70
     0
  9
$CHAMFERA
 40
10.0
  9
$CHAMFERB
 40
10.0
  9
$CHAMFERC
 40
20.0
  9
$CHAMFERD
 40
0.0
  9
$SKPOLY
 70
     0
  9
$TDCREATE
 40
2456084.486454039
  9
$TDUCREATE
 40
2456084.403120706
  9
$TDUPDATE
 40
2456084.48645566
  9
$TDUUPDATE
 40
2456084.403122326
  9
$TDINDWG
 40
0.0000000116
  9
$TDUSRTIMER
 40
0.0000000116
  9
$USRTIMER
 70
     1
  9
$ANGBASE
 50
0.0
  9
$ANGDIR
 70
     0
  9
$PDMODE
 70
     0
  9
$PDSIZE
 40
-1.0
  9
$PLINEWID
 40
0.0
  9
$SPLFRAME
 70
     0
  9
$SPLINETYPE
 70
     6
  9
$SPLINESEGS
 70
     8
  9
$HANDSEED
  5
21A
  9
$SURFTAB1
 70
     6
  9
$SURFTAB2
 70
     6
  9
$SURFTYPE
 70
     6
  9
$SURFU
 70
     6
  9
$SURFV
 70
     6
  9
$UCSBASE
  2

  9
$UCSNAME
  2

  9
$UCSORG
 10
0.0
 20
0.0
 30
0.0
  9
$UCSXDIR
 10
1.0
 20
0.0
 30
0.0
  9
$UCSYDIR
 10
0.0
 20
1.0
 30
0.0
  9
$UCSORTHOREF
  2

  9
$UCSORTHOVIEW
 70
     0
  9
$UCSORGTOP
 10
0.0
 20
0.0
 30
0.0
  9
$UCSORGBOTTOM
 10
0.0
 20
0.0
 30
0.0
  9
$UCSORGLEFT
 10
0.0
 20
0.0
 30
0.0
  9
$UCSORGRIGHT
 10
0.0
 20
0.0
 30
0.0
  9
$UCSORGFRONT
 10
0.0
 20
0.0
 30
0.0
  9
$UCSORGBACK
 10
0.0
 20
0.0
 30
0.0
  9
$PUCSBASE
  2

  9
$PUCSNAME
  2

  9
$PUCSORG
 10
0.0
 20
0.0
 30
0.0
  9
$PUCSXDIR
 10
1.0
 20
0.0
 30
0.0
  9
$PUCSYDIR
 10
0.0
 20
1.0
 30
0.0
  9
$PUCSORTHOREF
  2

  9
$PUCSORTHOVIEW
 70
     0
  9
$PUCSORGTOP
 10
0.0
 20
0.0
 30
0.0
  9
$PUCSORGBOTTOM
 10
0.0
 20
0.0
 30
0.0
  9
$PUCSORGLEFT
 10
0.0
 20
0.0
 30
0.0
  9
$PUCSORGRIGHT
 10
0.0
 20
0.0
 30
0.0
  9
$PUCSORGFRONT
 10
0.0
 20
0.0
 30
0.0
  9
$PUCSORGBACK
 10
0.0
 20
0.0
 30
0.0
  9
$USERI1
 70
     0
  9
$USERI2
 70
     0
  9
$USERI3
 70
     0
  9
$USERI4
 70
     0
  9
$USERI5
 70
     0
  9
$USERR1
 40
0.0
  9
$USERR2
 40
0.0
  9
$USERR3
 40
0.0
  9
$USERR4
 40
0.0
  9
$USERR5
 40
0.0
  9
$WORLDVIEW
 70
     1
  9
$SHADEDGE
 70
     3
  9
$SHADEDIF
 70
    70
  9
$TILEMODE
 70
     1
  9
$MAXACTVP
 70
    64
  9
$PINSBASE
 10
0.0
 20
0.0
 30
0.0
  9
$PLIMCHECK
 70
     0
  9
$PEXTMIN
 10
1.0000000000E+20
 20
1.0000000000E+20
 30
1.0000000000E+20
  9
$PEXTMAX
 10
-1.0000000000E+20
 20
-1.0000000000E+20
 30
-1.0000000000E+20
  9
$PLIMMIN
 10
0.0
 20
0.0
  9
$PLIMMAX
 10
420.0
 20
297.0
  9
$UNITMODE
 70
     0
  9
$VISRETAIN
 70
     1
  9
$PLINEGEN
 70
     0
  9
$PSLTSCALE
 70
     1
  9
$TREEDEPTH
 70
  3020
  9
$CMLSTYLE
  2
Standard
  9
$CMLJUST
 70
     0
  9
$CMLSCALE
 40
20.0
  9
$PROXYGRAPHICS
 70
     1
  9
$MEASUREMENT
 70
     1
  9
$CELWEIGHT
370
    -1
  9
$ENDCAPS
280
     0
  9
$JOINSTYLE
280
     0
  9
$LWDISPLAY
290
     1
  9
$INSUNITS
 70
     4
  9
$HYPERLINKBASE
  1

  9
$STYLESHEET
  1

  9
$XEDIT
290
     1
  9
$CEPSNTYPE
380
     0
  9
$PSTYLEMODE
290
     1
  9
$FINGERPRINTGUID
  2
{15F4A5E0-BAA3-4148-BB5B-652634726227}
  9
$VERSIONGUID
  2
{FAEB1C32-E019-11D5-929B-00C0DF256EC4}
  9
$EXTNAMES
290
     1
  9
$PSVPSCALE
 40
0.0
  9
$OLESTARTUP
290
     0
  0
ENDSEC
  0
SECTION
  2
CLASSES
  0
CLASS
  1
ACDBDICTIONARYWDFLT
  2
AcDbDictionaryWithDefault
  3
ObjectDBX Classes
 90
        0
280
     0
281
     0
  0
CLASS
  1
VISUALSTYLE
  2
AcDbVisualStyle
  3
ObjectDBX Classes
 90
     4095
280
     0
281
     0
  0
CLASS
  1
MATERIAL
  2
AcDbMaterial
  3
ObjectDBX Classes
 90
     1153
280
     0
281
     0
  0
CLASS
  1
ACDBPLACEHOLDER
  2
AcDbPlaceHolder
  3
ObjectDBX Classes
 90
        0
280
     0
281
     0
  0
CLASS
  1
LAYOUT
  2
AcDbLayout
  3
ObjectDBX Classes
 90
        0
280
     0
281
     0
  0
ENDSEC
  0
SECTION
  2
TABLES
  0
TABLE
  2
VPORT
  5
8
330
0
100
AcDbSymbolTable
 70
     1
  0
VPORT
  5
29
330
8
100
AcDbSymbolTableRecord
100
AcDbViewportTableRecord
  2
*Active
 70
     0
 10
0.0
 20
0.0
 11
1.0
 21
1.0
 12
148.5
 22
105.0
 13
0.0
 23
0.0
 14
10.0
 24
10.0
 15
10.0
 25
10.0
 16
0.0
 26
0.0
 36
1.0
 17
0.0
 27
0.0
 37
0.0
 40
210.0
 41
1.4142857143
 42
50.0
 43
0.0
 44
0.0
 50
0.0
 51
0.0
 71
     0
 72
  2000
 73
     1
 74
     3
 75
     0
 76
     0
 77
     0
 78
     0
281
     0
 65
     1
110
0.0
120
0.0
130
0.0
111
1.0
121
0.0
131
0.0
112
0.0
122
1.0
132
0.0
 79
     0
146
0.0
  0
ENDTAB
  0
TABLE
  2
LTYPE
  5
5
330
0
100
AcDbSymbolTable
 70
     6
  0
LTYPE
  5
14
330
5
100
AcDbSymbolTableRecord
100
AcDbLinetypeTableRecord
  2
ByBlock
 70
     0
  3

 72
    65
 73
     0
 40
0.0
  0
LTYPE
  5
15
330
5
100
AcDbSymbolTableRecord
100
AcDbLinetypeTableRecord
  2
ByLayer
 70
     0
  3

 72
    65
 73
     0
 40
0.0
  0
LTYPE
  5
16
330
5
100
AcDbSymbolTableRecord
100
AcDbLinetypeTableRecord
  2
Continuous
 70
     0
  3
Solid line
 72
    65
 73
     0
 40
0.0
  0
LTYPE
  5
3F
330
5
100
AcDbSymbolTableRecord
100
AcDbLinetypeTableRecord
  2
HIDDEN
 70
     0
  3
Hidden __ __ __ __ __ __ __ __ __ __ __ __ __ __
 72
    65
 73
     2
 40
1.905
 49
1.27
 74
     0
 49
-0.635
 74
     0
  0
LTYPE
  5
40
330
5
100
AcDbSymbolTableRecord
100
AcDbLinetypeTableRecord
  2
PHANTOM
 70
     0
  3
Phantom ______  __  __  ______  __  __  ______
 72
    65
 73
     6
 40
12.7
 49
6.35
 74
     0
 49
-1.27
 74
     0
 49
1.27
 74
     0
 49
-1.27
 74
     0
 49
1.27
 74
     0
 49
-1.27
 74
     0
  0
LTYPE
  5
41
330
5
100
AcDbSymbolTableRecord
100
AcDbLinetypeTableRecord
  2
CENTER
 70
     0
  3
Center ____ _ ____ _ ____ _ ____ _ ____ _ ____
 72
    65
 73
     4
 40
10.16
 49
6.35
 74
     0
 49
-1.27
 74
     0
 49
1.27
 74
     0
 49
-1.27
 74
     0
  0
LTYPE
  5
42
330
5
100
AcDbSymbolTableRecord
100
AcDbLinetypeTableRecord
  2
CENTERX2
 70
     0
  3
Center (2x) ________  __  ________  __  _____
 72
    65
 73
     4
 40
20.32
 49
12.7
 74
     0
 49
-2.54
 74
     0
 49
2.54
 74
     0
 49
-2.54
 74
     0
  0
LTYPE
  5
43
330
5
100
AcDbSymbolTableRecord
100
AcDbLinetypeTableRecord
  2
DOT2
 70
     0
  3
Dot (.5x) ........................................
 72
    65
 73
     2
 40
0.635
 49
0.0
 74
     0
 49
-0.635
 74
     0
  0
ENDTAB
  0
TABLE
  2
LAYER
  5
2
330
0
100
AcDbSymbolTable
 70
     5
  0
LAYER
  5
10
330
2
100
AcDbSymbolTableRecord
100
AcDbLayerTableRecord
  2
0
 70
     0
 62
     7
  6
Continuous
370
    -3
390
F
  0
LAYER
  5
44
330
2
100
AcDbSymbolTableRecord
100
AcDbLayerTableRecord
  2
FORMAT
 70
     0
 62
     7
  6
Continuous
370
    -3
390
F
  0
LAYER
  5
45
330
2
100
AcDbSymbolTableRecord
100
AcDbLayerTableRecord
  2
VERMASSUNG
 70
     0
 62
     7
  6
Continuous
370
    -3
390
F
  0
LAYER
  5
46
330
2
100
AcDbSymbolTableRecord
100
AcDbLayerTableRecord
  2
KOPF_DÜNN
 70
     0
 62
     7
  6
Continuous
370
    -3
390
F
  0
LAYER
  5
47
330
2
100
AcDbSymbolTableRecord
100
AcDbLayerTableRecord
  2
KOPF_DICK
 70
     0
 62
     7
  6
Continuous
370
    15
390
F
  0
ENDTAB
  0
TABLE
  2
STYLE
  5
3
330
0
100
AcDbSymbolTable
 70
     2
  0
STYLE
  5
11
330
3
100
AcDbSymbolTableRecord
100
AcDbTextStyleTableRecord
  2
Standard
 70
     0
 40
0.0
 41
1.0
 50
0.0
 71
     0
 42
2.0
  3
txt
  4

  0
STYLE
  5
48
330
3
100
AcDbSymbolTableRecord
100
AcDbTextStyleTableRecord
  2
SLDTEXTSTYLE0
 70
     0
 40
0.0
 41
0.7
 50
0.0
 71
     0
 42
0.2
  3
TXT
  4

  0
ENDTAB
  0
TABLE
  2
VIEW
  5
6
330
0
100
AcDbSymbolTable
 70
     0
  0
ENDTAB
  0
TABLE
  2
UCS
  5
7
330
0
100
AcDbSymbolTable
 70
     0
  0
ENDTAB
  0
TABLE
  2
APPID
  5
9
330
0
100
AcDbSymbolTable
 70
     1
  0
APPID
  5
12
330
9
100
AcDbSymbolTableRecord
100
AcDbRegAppTableRecord
  2
ACAD
 70
     0
  0
ENDTAB
  0
TABLE
  2
DIMSTYLE
  5
A
330
0
100
AcDbSymbolTable
 70
     4
100
AcDbDimStyleTable
  0
DIMSTYLE
105
27
330
A
100
AcDbSymbolTableRecord
100
AcDbDimStyleTableRecord
  2
ISO-25
 70
     0
 41
2.5
 42
0.625
 43
3.75
 44
1.25
 73
     0
 74
     0
 77
     1
 78
     8
140
2.5
141
2.5
143
0.0393700787
147
0.625
171
     3
172
     1
178
     0
271
     2
272
     2
274
     3
278
    44
283
     0
284
     8
340
11
  0
DIMSTYLE
105
1A5
102
{ACAD_REACTORS
330
1A4
330
1AF
330
1B9
330
1CD
330
1D9
102
}
330
A
100
AcDbSymbolTableRecord
100
AcDbDimStyleTableRecord
  2
SLDDIMSTYLE0
 70
     0
 41
3.0
 44
0.0
 45
0.000000001
 73
     0
 74
     0
 77
     1
 78
    12
 79
     3
140
2.0
147
0.5
173
     1
178
     0
271
     2
272
     3
276
     2
284
    12
340
48
  0
DIMSTYLE
105
1C4
102
{ACAD_REACTORS
330
1C3
102
}
330
A
100
AcDbSymbolTableRecord
100
AcDbDimStyleTableRecord
  2
SLDDIMSTYLE1
 70
     0
 41
3.0
 44
0.0
 73
     0
 74
     0
 77
     1
 78
    12
 79
     3
140
2.0
147
0.5
173
     1
178
     0
179
     1
272
     3
276
     2
284
    12
340
48
  0
DIMSTYLE
105
200
102
{ACAD_REACTORS
330
1FF
102
}
330
A
100
AcDbSymbolTableRecord
100
AcDbDimStyleTableRecord
  2
SLDDIMSTYLE2
 70
     0
 41
3.0
 44
0.0
 45
0.000000001
 73
     0
 74
     0
 77
     1
 78
    12
 79
     3
140
2.0
141
0.0
147
0.5
172
     1
173
     1
178
     0
271
     2
272
     3
276
     2
284
    12
340
48
341
201
343
201
  0
ENDTAB
  0
TABLE
  2
BLOCK_RECORD
  5
1
330
0
100
AcDbSymbolTable
 70
    10
  0
BLOCK_RECORD
  5
1F
330
1
100
AcDbSymbolTableRecord
100
AcDbBlockTableRecord
  2
*Model_Space
340
22
  0
BLOCK_RECORD
  5
1B
330
1
100
AcDbSymbolTableRecord
100
AcDbBlockTableRecord
  2
*Paper_Space
340
1E
  0
BLOCK_RECORD
  5
23
330
1
100
AcDbSymbolTableRecord
100
AcDbBlockTableRecord
  2
*Paper_Space0
340
26
  0
BLOCK_RECORD
  5
1A6
330
1
100
AcDbSymbolTableRecord
100
AcDbBlockTableRecord
  2
_D
340
0
  0
BLOCK_RECORD
  5
1B0
330
1
100
AcDbSymbolTableRecord
100
AcDbBlockTableRecord
  2
_D_1
340
0
  0
BLOCK_RECORD
  5
1BA
330
1
100
AcDbSymbolTableRecord
100
AcDbBlockTableRecord
  2
_D_2
340
0
  0
BLOCK_RECORD
  5
1C5
330
1
100
AcDbSymbolTableRecord
100
AcDbBlockTableRecord
  2
_D_3
340
0
  0
BLOCK_RECORD
  5
1CE
330
1
100
AcDbSymbolTableRecord
100
AcDbBlockTableRecord
  2
_D_4
340
0
  0
BLOCK_RECORD
  5
1DA
330
1
100
AcDbSymbolTableRecord
100
AcDbBlockTableRecord
  2
_D_5
340
0
  0
BLOCK_RECORD
  5
201
330
1
100
AcDbSymbolTableRecord
100
AcDbBlockTableRecord
  2
_NONE
340
0
  0
BLOCK_RECORD
  5
204
330
1
100
AcDbSymbolTableRecord
100
AcDbBlockTableRecord
  2
_D_6
340
0
  0
BLOCK_RECORD
  5
20D
330
1
100
AcDbSymbolTableRecord
100
AcDbBlockTableRecord
  2
SW_CENTERMARKSYMBOL_0
340
0
102
{BLKREFS
331
218
102
}
  0
ENDTAB
  0
ENDSEC
  0
SECTION
  2
BLOCKS
  0
BLOCK
  5
20
330
1F
100
AcDbEntity
  8
0
100
AcDbBlockBegin
  2
*Model_Space
 70
     0
 10
0.0
 20
0.0
 30
0.0
  3
*Model_Space
  1

  0
ENDBLK
  5
21
330
1F
100
AcDbEntity
  8
0
100
AcDbBlockEnd
  0
BLOCK
  5
1C
330
1B
100
AcDbEntity
 67
     1
  8
0
100
AcDbBlockBegin
  2
*Paper_Space
 70
     0
 10
0.0
 20
0.0
 30
0.0
  3
*Paper_Space
  1

  0
ENDBLK
  5
1D
330
1B
100
AcDbEntity
 67
     1
  8
0
100
AcDbBlockEnd
  0
BLOCK
  5
24
330
23
100
AcDbEntity
  8
0
100
AcDbBlockBegin
  2
*Paper_Space0
 70
     0
 10
0.0
 20
0.0
 30
0.0
  3
*Paper_Space0
  1

  0
ENDBLK
  5
25
330
23
100
AcDbEntity
  8
0
100
AcDbBlockEnd
  0
BLOCK
  5
1A7
330
1A6
100
AcDbEntity
  8
0
100
AcDbBlockBegin
  2
_D
 70
     0
 10
0.0
 20
0.0
 30
0.0
  3
_D
  1

  0
SOLID
  5
1A9
330
1A6
100
AcDbEntity
  8
VERMASSUNG
100
AcDbTrace
 10
260.2949245776
 20
90.4343870636
 30
0.0
 11
257.2949245776
 21
90.8843870636
 31
0.0
 12
257.2949245776
 22
89.9843870636
 32
0.0
 13
257.2949245776
 23
89.9843870636
 33
0.0
  0
SOLID
  5
1AA
330
1A6
100
AcDbEntity
  8
VERMASSUNG
100
AcDbTrace
 10
150.2949245776
 20
90.4343870636
 30
0.0
 11
153.2949245776
 21
89.9843870636
 31
0.0
 12
153.2949245776
 22
90.8843870636
 32
0.0
 13
153.2949245776
 23
90.8843870636
 33
0.0
  0
LINE
  5
1AB
330
1A6
100
AcDbEntity
  8
VERMASSUNG
100
AcDbLine
 10
260.2949245776
 20
97.9370127102
 30
0.0
 11
260.2949245776
 21
89.4343870636
 31
0.0
  0
LINE
  5
1AC
330
1A6
100
AcDbEntity
  8
VERMASSUNG
100
AcDbLine
 10
150.2949245776
 20
100.2370127102
 30
0.0
 11
150.2949245776
 21
89.4343870636
 31
0.0
  0
LINE
  5
1AD
330
1A6
100
AcDbEntity
  8
VERMASSUNG
100
AcDbLine
 10
260.2949245776
 20
90.4343870636
 30
0.0
 11
150.2949245776
 21
90.4343870636
 31
0.0
  0
MTEXT
  5
1AE
330
1A6
100
AcDbEntity
  8
VERMASSUNG
100
AcDbMText
 10
202.6949243377
 20
93.0125224267
 30
0.1
 40
2.0
 41
0.0
 71
     1
 72
     1
  1
110
  7
SLDTEXTSTYLE0
 73
     1
 44
1.0
  0
ENDBLK
  5
1A8
330
1A6
100
AcDbEntity
  8
0
100
AcDbBlockEnd
  0
BLOCK
  5
1B1
330
1B0
100
AcDbEntity
  8
0
100
AcDbBlockBegin
  2
_D_1
 70
     0
 10
0.0
 20
0.0
 30
0.0
  3
_D_1
  1

  0
SOLID
  5
1B3
330
1B0
100
AcDbEntity
  8
VERMASSUNG
100
AcDbTrace
 10
260.2949245776
 20
81.9037537489
 30
0.0
 11
257.2949245776
 21
82.3537537489
 31
0.0
 12
257.2949245776
 22
81.4537537489
 32
0.0
 13
257.2949245776
 23
81.4537537489
 33
0.0
  0
SOLID
  5
1B4
330
1B0
100
AcDbEntity
  8
VERMASSUNG
100
AcDbTrace
 10
126.2949245776
 20
81.9037537489
 30
0.0
 11
129.2949245776
 21
81.4537537489
 31
0.0
 12
129.2949245776
 22
82.3537537489
 32
0.0
 13
129.2949245776
 23
82.3537537489
 33
0.0
  0
LINE
  5
1B5
330
1B0
100
AcDbEntity
  8
VERMASSUNG
100
AcDbLine
 10
260.2949245776
 20
97.9370127102
 30
0.0
 11
260.2949245776
 21
80.9037537489
 31
0.0
  0
LINE
  5
1B6
330
1B0
100
AcDbEntity
  8
VERMASSUNG
100
AcDbLine
 10
126.2949245776
 20
107.3055077282
 30
0.0
 11
126.2949245776
 21
80.9037537489
 31
0.0
  0
LINE
  5
1B7
330
1B0
100
AcDbEntity
  8
VERMASSUNG
100
AcDbLine
 10
260.2949245776
 20
81.9037537489
 30
0.0
 11
126.2949245776
 21
81.9037537489
 31
0.0
  0
MTEXT
  5
1B8
330
1B0
100
AcDbEntity
  8
VERMASSUNG
100
AcDbMText
 10
190.3949243816
 20
84.481889112
 30
0.1
 40
2.0
 41
0.0
 71
     1
 72
     1
  1
134
  7
SLDTEXTSTYLE0
 73
     1
 44
1.0
  0
ENDBLK
  5
1B2
330
1B0
100
AcDbEntity
  8
0
100
AcDbBlockEnd
  0
BLOCK
  5
1BB
330
1BA
100
AcDbEntity
  8
0
100
AcDbBlockBegin
  2
_D_2
 70
     0
 10
0.0
 20
0.0
 30
0.0
  3
_D_2
  1

  0
SOLID
  5
1BD
330
1BA
100
AcDbEntity
  8
VERMASSUNG
100
AcDbTrace
 10
277.3654180926
 20
97.9370127102
 30
0.0
 11
277.8154180926
 21
100.9370127102
 31
0.0
 12
276.9154180926
 22
100.9370127102
 32
0.0
 13
276.9154180926
 23
100.9370127102
 33
0.0
  0
SOLID
  5
1BE
330
1BA
100
AcDbEntity
  8
VERMASSUNG
100
AcDbTrace
 10
277.3654180926
 20
119.9370127102
 30
0.0
 11
276.9154180926
 21
116.9370127102
 31
0.0
 12
277.8154180926
 22
116.9370127102
 32
0.0
 13
277.8154180926
 23
116.9370127102
 33
0.0
  0
LINE
  5
1BF
330
1BA
100
AcDbEntity
  8
VERMASSUNG
100
AcDbLine
 10
260.2949245776
 20
97.9370127102
 30
0.0
 11
278.3654180926
 21
97.9370127102
 31
0.0
  0
LINE
  5
1C0
330
1BA
100
AcDbEntity
  8
VERMASSUNG
100
AcDbLine
 10
260.2949245776
 20
119.9370127102
 30
0.0
 11
278.3654180926
 21
119.9370127102
 31
0.0
  0
LINE
  5
1C1
330
1BA
100
AcDbEntity
  8
VERMASSUNG
100
AcDbLine
 10
277.3654180926
 20
97.9370127102
 30
0.0
 11
277.3654180926
 21
119.9370127102
 31
0.0
  0
MTEXT
  5
1C2
330
1BA
100
AcDbEntity
  8
VERMASSUNG
100
AcDbMText
 10
274.7872827295
 20
106.6370126592
 30
0.1
 40
2.0
 41
0.0
 71
     1
 72
     1
  1
22
  7
SLDTEXTSTYLE0
 11
6.123233995736766E-17
 21
1.0
 31
0.0
 73
     1
 44
1.0
  0
ENDBLK
  5
1BC
330
1BA
100
AcDbEntity
  8
0
100
AcDbBlockEnd
  0
BLOCK
  5
1C6
330
1C5
100
AcDbEntity
  8
0
100
AcDbBlockBegin
  2
_D_3
 70
     0
 10
0.0
 20
0.0
 30
0.0
  3
_D_3
  1

  0
ARC
  5
1C8
330
1C5
100
AcDbEntity
  8
VERMASSUNG
100
AcDbCircle
 10
260.331447978
 20
97.9370127102
 30
0.0
 40
10.99062140352248
100
AcDbArc
 50
0.0
 51
95.0121473722
  0
SOLID
  5
1C9
330
1C5
100
AcDbEntity
  8
VERMASSUNG
100
AcDbTrace
 10
271.3220693815
 20
97.9370127102
 30
0.0
 11
271.3695597472
 21
100.9702032194
 31
0.0
 12
270.4775360609
 22
100.8506467762
 32
0.0
 13
270.4775360609
 23
100.8506467762
 33
0.0
  0
SOLID
  5
1CA
330
1C5
100
AcDbEntity
  8
VERMASSUNG
100
AcDbTrace
 10
259.3712309551
 20
108.88560815
 30
0.0
 11
262.347508157
 21
108.298859467
 31
0.0
 12
262.3886740552
 22
109.1979175123
 32
0.0
 13
262.3886740552
 23
109.1979175123
 33
0.0
  0
LINE
  5
1CB
330
1C5
100
AcDbEntity
  8
VERMASSUNG
100
AcDbLine
 10
268.1039245427
 20
97.9370127102
 30
0.0
 11
272.3220693815
 21
97.9370127102
 31
0.0
  0
MTEXT
  5
1CC
330
1C5
100
AcDbEntity
  8
VERMASSUNG
100
AcDbMText
 10
267.358994555
 20
109.9009063255
 30
0.1
 40
2.0
 41
0.0
 71
     1
 72
     1
  1
95°
  7
SLDTEXTSTYLE0
 11
0.7373489491615016
 21
-0.6755120481312152
 31
0.0
 73
     1
 44
1.0
  0
ENDBLK
  5
1C7
330
1C5
100
AcDbEntity
  8
0
100
AcDbBlockEnd
  0
BLOCK
  5
1CF
330
1CE
100
AcDbEntity
  8
0
100
AcDbBlockBegin
  2
_D_4
 70
     0
 10
0.0
 20
0.0
 30
0.0
  3
_D_4
  1

  0
SOLID
  5
1D1
330
1CE
100
AcDbEntity
  8
VERMASSUNG
100
AcDbTrace
 10
118.5499138907
 20
139.9370127102
 30
0.0
 11
118.0999138907
 21
136.9370127102
 31
0.0
 12
118.9999138907
 22
136.9370127102
 32
0.0
 13
118.9999138907
 23
136.9370127102
 33
0.0
  0
SOLID
  5
1D2
330
1CE
100
AcDbEntity
  8
VERMASSUNG
100
AcDbTrace
 10
118.5499138907
 20
99.9370127102
 30
0.0
 11
118.9999138907
 21
102.9370127102
 31
0.0
 12
118.0999138907
 22
102.9370127102
 32
0.0
 13
118.0999138907
 23
102.9370127102
 33
0.0
  0
LINE
  5
1D3
330
1CE
100
AcDbEntity
  8
VERMASSUNG
100
AcDbLine
 10
150.5949245776
 20
139.9370127102
 30
0.0
 11
117.5499138907
 21
139.9370127102
 31
0.0
  0
LINE
  5
1D4
330
1CE
100
AcDbEntity
  8
VERMASSUNG
100
AcDbLine
 10
150.5949245776
 20
99.9370127102
 30
0.0
 11
117.5499138907
 21
99.9370127102
 31
0.0
  0
LINE
  5
1D5
330
1CE
100
AcDbEntity
  8
VERMASSUNG
100
AcDbLine
 10
118.5499138907
 20
139.9370127102
 30
0.0
 11
118.5499138907
 21
99.9370127102
 31
0.0
  0
MTEXT
  5
1D6
330
1CE
100
AcDbEntity
  8
VERMASSUNG
100
AcDbMText
 10
115.7717784016
 20
113.4320127709
 30
0.1
 40
2.0
 41
0.0
 71
     1
 72
     1
  1
PSC
  7
SLDTEXTSTYLE0
 11
-7.044195017643634E-15
 21
1.0
 31
0.0
 73
     1
 44
1.0
  0
MTEXT
  5
1D7
330
1CE
100
AcDbEntity
  8
VERMASSUNG
100
AcDbMText
 10
115.9717784111
 20
118.0320128729
 30
0.1
 40
2.0
 41
0.0
 71
     1
 72
     1
  1
%%c
  7
SLDTEXTSTYLE0
 11
-7.044195017643634E-15
 21
1.0
 31
0.0
 73
     1
 44
1.0
  0
MTEXT
  5
1D8
330
1CE
100
AcDbEntity
  8
VERMASSUNG
100
AcDbMText
 10
115.7717784016
 20
121.6420133529
 30
0.1
 40
2.0
 41
0.0
 71
     1
 72
     1
  1
40
  7
SLDTEXTSTYLE0
 11
-7.044195017643634E-15
 21
1.0
 31
0.0
 73
     1
 44
1.0
  0
ENDBLK
  5
1D0
330
1CE
100
AcDbEntity
  8
0
100
AcDbBlockEnd
  0
BLOCK
  5
1DB
330
1DA
100
AcDbEntity
  8
0
100
AcDbBlockBegin
  2
_D_5
 70
     0
 10
0.0
 20
0.0
 30
0.0
  3
_D_5
  1

  0
SOLID
  5
1DD
330
1DA
100
AcDbEntity
  8
VERMASSUNG
100
AcDbTrace
 10
189.4831425863
 20
103.9370127102
 30
0.0
 11
189.9331425863
 21
106.9370127102
 31
0.0
 12
189.0331425863
 22
106.9370127102
 32
0.0
 13
189.0331425863
 23
106.9370127102
 33
0.0
  0
SOLID
  5
1DE
330
1DA
100
AcDbEntity
  8
VERMASSUNG
100
AcDbTrace
 10
189.4831425863
 20
135.9370127102
 30
0.0
 11
189.0331425863
 21
132.9370127102
 31
0.0
 12
189.9331425863
 22
132.9370127102
 32
0.0
 13
189.9331425863
 23
132.9370127102
 33
0.0
  0
LINE
  5
1DF
330
1DA
100
AcDbEntity
  8
VERMASSUNG
100
AcDbLine
 10
189.4831425863
 20
103.9370127102
 30
0.0
 11
189.4831425863
 21
135.9370127102
 31
0.0
  0
MTEXT
  5
1E0
330
1DA
100
AcDbEntity
  8
VERMASSUNG
100
AcDbMText
 10
186.9050071068
 20
107.0839353439
 30
0.1
 40
2.0
 41
0.0
 71
     1
 72
     1
  1
%%c
  7
SLDTEXTSTYLE0
 11
6.123233995736766E-17
 21
1.0
 31
0.0
 73
     1
 44
1.0
  0
MTEXT
  5
1E1
330
1DA
100
AcDbEntity
  8
VERMASSUNG
100
AcDbMText
 10
186.7050070973
 20
110.6939353582
 30
0.1
 40
2.0
 41
0.0
 71
     1
 72
     1
  1
32
  7
SLDTEXTSTYLE0
 11
6.123233995736766E-17
 21
1.0
 31
0.0
 73
     1
 44
1.0
  0
ENDBLK
  5
1DC
330
1DA
100
AcDbEntity
  8
0
100
AcDbBlockEnd
  0
BLOCK
  5
202
330
201
100
AcDbEntity
  8
0
100
AcDbBlockBegin
  2
_NONE
 70
     0
 10
0.0
 20
0.0
 30
0.0
  3
_NONE
  1

  0
ENDBLK
  5
203
330
201
100
AcDbEntity
  8
0
100
AcDbBlockEnd
  0
BLOCK
  5
205
330
204
100
AcDbEntity
  8
0
100
AcDbBlockBegin
  2
_D_6
 70
     0
 10
0.0
 20
0.0
 30
0.0
  3
_D_6
  1

  0
SOLID
  5
207
330
204
100
AcDbEntity
  8
VERMASSUNG
100
AcDbTrace
 10
53.5244852618
 20
103.8457178848
 30
0.0
 11
51.0849668667
 21
102.0425955928
 31
0.0
 12
51.7213629698
 22
101.4061994897
 32
0.0
 13
51.7213629698
 23
101.4061994897
 33
0.0
  0
LINE
  5
208
330
204
100
AcDbEntity
  8
VERMASSUNG
100
AcDbLine
 10
53.5244852618
 20
103.8457178848
 30
0.0
 11
40.9201652078
 21
91.2413978308
 31
0.0
  0
LINE
  5
209
330
204
100
AcDbEntity
  8
VERMASSUNG
100
AcDbLine
 10
53.5244852618
 20
103.8457178848
 30
0.0
 11
81.8087565092
 21
132.1299891323
 31
0.0
  0
MTEXT
  5
20A
330
204
100
AcDbEntity
  8
VERMASSUNG
100
AcDbMText
 10
39.1001040528
 20
93.0614589857
 30
0.1
 40
2.0
 41
0.0
 71
     1
 72
     1
  1
%%c
  7
SLDTEXTSTYLE0
 11
0.7071067811865466
 21
0.7071067811865485
 31
0.0
 73
     1
 44
1.0
  0
MTEXT
  5
20B
330
204
100
AcDbEntity
  8
VERMASSUNG
100
AcDbMText
 10
41.5113381801
 20
95.7555358389
 30
0.1
 40
2.0
 41
0.0
 71
     1
 72
     1
  1
40
  7
SLDTEXTSTYLE0
 11
0.7071067811865466
 21
0.7071067811865485
 31
0.0
 73
     1
 44
1.0
  0
MTEXT
  5
20C
330
204
100
AcDbEntity
  8
VERMASSUNG
100
AcDbMText
 10
45.7451401937
 20
99.9893378525
 30
0.1
 40
2.0
 41
0.0
 71
     1
 72
     1
  1
min.
  7
SLDTEXTSTYLE0
 11
0.7071067811865466
 21
0.7071067811865485
 31
0.0
 73
     1
 44
1.0
  0
ENDBLK
  5
206
330
204
100
AcDbEntity
  8
0
100
AcDbBlockEnd
  0
BLOCK
  5
20E
330
20D
100
AcDbEntity
  8
0
100
AcDbBlockBegin
  2
SW_CENTERMARKSYMBOL_0
 70
     0
 10
0.0
 20
0.0
 30
0.0
  3
SW_CENTERMARKSYMBOL_0
  1

  0
LINE
  5
210
330
20D
100
AcDbEntity
  8
VERMASSUNG
 62
     0
100
AcDbLine
 10
0.0
 20
0.0
 30
0.0
 11
0.0
 21
2.5
 31
0.0
  0
LINE
  5
211
330
20D
100
AcDbEntity
  8
VERMASSUNG
 62
     0
100
AcDbLine
 10
0.0
 20
0.0
 30
0.0
 11
-2.5
 21
0.0
 31
0.0
  0
LINE
  5
212
330
20D
100
AcDbEntity
  8
VERMASSUNG
 62
     0
100
AcDbLine
 10
0.0
 20
0.0
 30
0.0
 11
0.0
 21
-2.5
 31
0.0
  0
LINE
  5
213
330
20D
100
AcDbEntity
  8
VERMASSUNG
 62
     0
100
AcDbLine
 10
0.0
 20
0.0
 30
0.0
 11
2.5
 21
0.0
 31
0.0
  0
LINE
  5
214
330
20D
100
AcDbEntity
  8
VERMASSUNG
 62
     0
100
AcDbLine
 10
0.0
 20
5.0
 30
0.0
 11
0.0
 21
22.5
 31
0.0
  0
LINE
  5
215
330
20D
100
AcDbEntity
  8
VERMASSUNG
 62
     0
100
AcDbLine
 10
-5.0
 20
0.0
 30
0.0
 11
-22.5
 21
0.0
 31
0.0
  0
LINE
  5
216
330
20D
100
AcDbEntity
  8
VERMASSUNG
 62
     0
100
AcDbLine
 10
0.0
 20
-5.0
 30
0.0
 11
0.0
 21
-22.5
 31
0.0
  0
LINE
  5
217
330
20D
100
AcDbEntity
  8
VERMASSUNG
 62
     0
100
AcDbLine
 10
5.0
 20
0.0
 30
0.0
 11
22.5
 21
0.0
 31
0.0
  0
ENDBLK
  5
20F
330
20D
100
AcDbEntity
  8
0
100
AcDbBlockEnd
  0
ENDSEC
  0
SECTION
  2
ENTITIES
  0
MTEXT
  5
49
330
1F
100
AcDbEntity
  8
KOPF_DÜNN
100
AcDbMText
 10
13.8892156294
 20
23.8442973028
 30
0.0
 40
3.0
 41
0.0
 71
     1
 72
     1
  1
PS4.BCC.LLB.110
  7
SLDTEXTSTYLE0
 73
     1
 44
1.0
  0
MTEXT
  5
4A
330
1F
100
AcDbEntity
  8
VERMASSUNG
100
AcDbMText
 10
13.9329988022
 20
28.8834360957
 30
0.0
 40
3.0
 41
0.0
 71
     1
 72
     1
  1
Bohrstange links_Boring bar left
  7
SLDTEXTSTYLE0
 73
     1
 44
1.0
  0
MTEXT
  5
4B
330
1F
100
AcDbEntity
  8
VERMASSUNG
100
AcDbMText
 10
98.8601118557
 20
13.8365368179
 30
0.0
 40
2.0
 41
0.0
 71
     1
 72
     1
  1
Datum: 04.06.2012
  7
SLDTEXTSTYLE0
 73
     1
 44
1.0
  0
MTEXT
  5
4C
330
1F
100
AcDbEntity
  8
VERMASSUNG
100
AcDbMText
 10
13.933048693
 20
18.0482802738
 30
0.0
 40
2.0
 41
0.0
 71
     1
 72
     1
  1
PSC ø40 / Wp.: CC..12 04..
  7
SLDTEXTSTYLE0
 73
     1
 44
1.0
  0
MTEXT
  5
4D
330
1F
100
AcDbEntity
  8
VERMASSUNG
100
AcDbMText
 10
13.9808475933
 20
13.9090973692
 30
0.0
 40
2.0
 41
0.0
 71
     1
 72
     1
  1
Gewicht: 693g
  7
SLDTEXTSTYLE0
 73
     1
 44
1.0
  0
LINE
  5
4E
330
1F
100
AcDbEntity
  8
0
  6
Continuous
 62
     7
370
    15
100
AcDbLine
 10
254.7702141608
 20
105.0372634014
 30
0.0
 11
254.7702141608
 21
104.9256192451
 31
0.0
  0
LINE
  5
4F
330
1F
100
AcDbEntity
  8
0
  6
Continuous
 62
     7
370
    15
100
AcDbLine
 10
251.9319601859
 20
104.8142377218
 30
0.0
 11
251.9319601859
 21
104.9258464878
 31
0.0
  0
LINE
  5
50
330
1F
100
AcDbEntity
  8
0
  6
Continuous
 62
     7
370
    15
100
AcDbLine
 10
256.8495519961
 20
104.9003468757
 30
0.0
 11
256.8495519961
 21
104.9142980879
 31
0.0
  0
LINE
  5
51
330
1F
100
AcDbEntity
  8
0
  6
Continuous
 62
     7
370
    15
100
AcDbLine
 10
249.8495527113
 20
104.9142980879
 30
0.0
 11
249.8495527113
 21
104.9003468757
 31
0.0
  0
LINE
  5
52
330
1F
100
AcDbEntity
  8
0
  6
Continuous
 62
     7
370
    15
100
AcDbLine
 10
150.5949245918
 20
99.9370131573
 30
0.0
 11
169.6949251498
 21
99.9370131573
 31
0.0
  0
LINE
  5
53
330
1F
100
AcDbEntity
  8
0
  6
Continuous
 62
     7
370
    15
100
AcDbLine
 10
169.6949251498
 20
139.9370122632
 30
0.0
 11
150.5949245918
 21
139.9370122632
 31
0.0
  0
ARC
  5
54
330
1F
100
AcDbEntity
  8
0
  6
Continuous
 62
     7
370
    15
100
AcDbCircle
 10
150.5949245776
 20
100.2370127102
 30
0.0
 40
0.3000000000000114
100
AcDbArc
 50
180.0
 51
270.0
  0
ARC
  5
55
330
1F
100
AcDbEntity
  8
0
  6
Continuous
 62
     7
370
    15
100
AcDbCircle
 10
150.5949245776
 20
139.6370127102
 30
0.0
 40
0.3000000000000114
100
AcDbArc
 50
90.0
 51
180.0
  0
ARC
  5
56
330
1F
100
AcDbEntity
  8
0
  6
Continuous
 62
     7
370
    15
100
AcDbCircle
 10
169.6949245776
 20
100.5370127102
 30
0.0
 40
0.5999999999999943
100
AcDbArc
 50
270.0
 51
0.0
  0
ARC
  5
57
330
1F
100
AcDbEntity
  8
0
  6
Continuous
 62
     7
370
    15
100
AcDbCircle
 10
169.6949245776
 20
139.3370127102
 30
0.0
 40
0.6000000000000227
100
AcDbArc
 50
0.0
 51
90.0
  0
ARC
  5
58
330
1F
100
AcDbEntity
  8
0
  6
Continuous
 62
     7
370
    15
100
AcDbCircle
 10
172.2949245776
 20
101.9370127102
 30
0.0
 40
2.0
100
AcDbArc
 50
90.0
 51
180.0
  0
ARC
  5
59
330
1F
100
AcDbEntity
  8
0
  6
Continuous
 62
     7
370
    15
100
AcDbCircle
 10
172.2949245776
 20
137.9370127102
 30
0.0
 40
2.0
100
AcDbArc
 50
180.0
 51
270.0
  0
LINE
  5
5A
330
1F
100
AcDbEntity
  8
0
  6
Continuous
 62
     7
370
    15
100
AcDbLine
 10
233.8807084168
 20
135.9370134702
 30
0.0
 11
172.2949244584
 21
135.9370134702
 31
0.0
  0
LINE
  5
5B
330
1F
100
AcDbEntity
  8
0
  6
Continuous
 62
     7
370
    15
100
AcDbLine
 10
172.2949244584
 20
103.9370119503
 30
0.0
 11
233.8807084168
 21
103.9370119503
 31
0.0
  0
LWPOLYLINE
  5
5C
330
1F
100
AcDbEntity
  8
0
  6
Continuous
 62
     7
370
    15
100
AcDbPolyline
 90
        3
 70
   128
 43
0.0
 10
150.0949245826
 20
105.847192735
 10
150.2203795178
 20
105.7788904687
 10
150.2949245776
 20
105.7261524653
  0
LWPOLYLINE
  5
5D
330
1F
100
AcDbEntity
  8
0
  6
Continuous
 62
     7
370
    15
100
AcDbPolyline
 90
        3
 70
   128
 43
0.0
 10
150.2949245776
 20
134.1478729552
 10
150.2203795178
 20
134.0951349517
 10
150.0949245826
 20
134.0268326854
  0
ARC
  5
5E
330
1F
100
AcDbEntity
  8
0
  6
Continuous
 62
     7
370
    15
100
AcDbCircle
 10
233.8807110152
 20
136.9370127102
 30
0.0
 40
1.000000000000008
100
AcDbArc
 50
270.0
 51
315.0
  0
LINE
  5
5F
330
1F
100
AcDbEntity
  8
0
  6
Continuous
 62
     7
370
    15
100
AcDbLine
 10
233.8807084168
 20
103.9370119503
 30
0.0
 11
233.9116432274
 21
103.9365351131
 31
0.0
  0
LINE
  5
60
330
1F
100
AcDbEntity
  8
0
  6
Continuous
 62
     7
370
    15
100
AcDbLine
 10
242.8479217495
 20
136.4370126208
 30
0.0
 11
234.7949244584
 21
136.4370126208
 31
0.0
  0
LINE
  5
61
330
1F
100
AcDbEntity
  8
0
  6
Continuous
 62
     7
370
    15
100
AcDbLine
 10
234.7949244584
 20
136.4370126208
 30
0.0
 11
234.5878206695
 21
136.2299051067
 31
0.0
  0
LINE
  5
62
330
1F
100
AcDbEntity
  8
0
  6
Continuous
 62
     7
370
    15
100
AcDbLine
 10
234.5878206695
 20
103.6441203138
 30
0.0
 11
234.9418424572
 21
103.2900985261
 31
0.0
  0
CIRCLE
  5
63
330
1F
100
AcDbEntity
  8
0
  6
Continuous
 62
     7
370
    15
100
AcDbCircle
 10
253.355759103
 20
104.9012174014
 30
0.0
 40
3.493769216499108
  0
CIRCLE
  5
64
330
1F
100
AcDbEntity
  8
0
  6
Continuous
 62
     7
370
    15
100
AcDbCircle
 10
253.3542717098
 20
104.8662146403
 30
0.0
 40
2.629228112267764
  0
CIRCLE
  5
65
330
1F
100
AcDbEntity
  8
0
  6
Continuous
 62
     7
370
    15
100
AcDbCircle
 10
253.3529483546
 20
104.8661806893
 30
0.0
 40
1.996584803013379
  0
SPLINE
  5
66
330
1F
100
AcDbEntity
  8
0
  6
Continuous
 62
     7
370
    15
100
AcDbSpline
210
0.0
220
0.0
230
1.0
 70
     8
 71
     3
 72
    15
 73
    11
 74
     0
 42
0.00000001
 43
0.00000001
 12
1.0
 22
0.0
 32
0.0
 13
1.0
 23
0.0
 33
0.0
 40
0.0
 40
0.0
 40
0.0
 40
0.0
 40
0.126246945162248
 40
0.2533642288326862
 40
0.3794141549362611
 40
0.5042673634512421
 40
0.6284525691546643
 40
0.7526350962062646
 40
0.8774896583881177
 40
1.0
 40
1.0
 40
1.0
 40
1.0
 10
253.690289756157
 20
106.5408212995068
 30
0.0
 10
253.6748747126467
 20
106.5818348574577
 30
0.0
 10
253.6439383552843
 20
106.6641447182514
 30
0.0
 10
253.5479065736095
 20
106.7600377656892
 30
0.0
 10
253.4277638860114
 20
106.8204394946166
 30
0.0
 10
253.2942402339742
 20
106.8375927795102
 30
0.0
 10
253.1631042706696
 20
106.810642867996
 30
0.0
 10
253.0491987352859
 20
106.7427472311474
 30
0.0
 10
252.961788710635
 20
106.6429772124762
 30
0.0
 10
252.9361958607552
 20
106.5611148423557
 30
0.0
 10
252.9235207046052
 20
106.5205715527669
 30
0.0
  0
SPLINE
  5
67
330
1F
100
AcDbEntity
  8
0
  6
Continuous
 62
     7
370
    15
100
AcDbSpline
210
0.0
220
0.0
230
1.0
 70
     8
 71
     3
 72
    12
 73
     8
 74
     0
 42
0.00000001
 43
0.00000001
 12
1.0
 22
0.0
 32
0.0
 13
1.0
 23
0.0
 33
0.0
 40
0.0
 40
0.0
 40
0.0
 40
0.0
 40
0.2058737507095991
 40
0.4120986997729006
 40
0.6141685151441664
 40
0.813290527263404
 40
1.0
 40
1.0
 40
1.0
 40
1.0
 10
252.9235207046052
 20
106.5205715527669
 30
0.0
 10
252.9006321107348
 20
106.447895540159
 30
0.0
 10
252.854815877528
 20
106.3024195375256
 30
0.0
 10
252.6981812131955
 20
106.1264303174918
 30
0.0
 10
252.4987685780687
 20
106.0102449582641
 30
0.0
 10
252.2778813814326
 20
105.9611240269088
 30
0.0
 10
252.1358866434896
 20
105.985119646082
 30
0.0
 10
252.0671733225366
 20
105.9967314755455
 30
0.0
  0
SPLINE
  5
68
330
1F
100
AcDbEntity
  8
0
  6
Continuous
 62
     7
370
    15
100
AcDbSpline
210
0.0
220
0.0
230
1.0
 70
     8
 71
     3
 72
    15
 73
    11
 74
     0
 42
0.00000001
 43
0.00000001
 12
1.0
 22
0.0
 32
0.0
 13
1.0
 23
0.0
 33
0.0
 40
0.0
 40
0.0
 40
0.0
 40
0.0
 40
0.1268758355351071
 40
0.2539951812517713
 40
0.3800507333861924
 40
0.5049000788030671
 40
0.6290831273836146
 40
0.7532693243600006
 40
0.8781223881775451
 40
1.0
 40
1.0
 40
1.0
 40
1.0
 10
252.0671733225366
 20
105.9967314755455
 30
0.0
 10
252.0232310811468
 20
106.0037018093588
 30
0.0
 10
251.9352622609272
 20
106.0176558550038
 30
0.0
 10
251.8029420374137
 20
105.9818435453566
 30
0.0
 10
251.6900035156499
 20
105.9077345313977
 30
0.0
 10
251.6083567084218
 20
105.8007175418967
 30
0.0
 10
251.5666021402759
 20
105.6740005450986
 30
0.0
 10
251.5693847484723
 20
105.5419783635683
 30
0.0
 10
251.613327406646
 20
105.417382736126
 30
0.0
 10
251.6722608162845
 20
105.3549872271516
 30
0.0
 10
251.7013721669694
 20
105.324165702416
 30
0.0
  0
SPLINE
  5
69
330
1F
100
AcDbEntity
  8
0
  6
Continuous
 62
     7
370
    15
100
AcDbSpline
210
0.0
220
0.0
230
1.0
 70
     8
 71
     3
 72
    12
 73
     8
 74
     0
 42
0.00000001
 43
0.00000001
 12
1.0
 22
0.0
 32
0.0
 13
1.0
 23
0.0
 33
0.0
 40
0.0
 40
0.0
 40
0.0
 40
0.0
 40
0.2057943865538688
 40
0.4120013814265882
 40
0.6140552705115577
 40
0.8131803018996676
 40
1.0
 40
1.0
 40
1.0
 40
1.0
 10
251.7013721669694
 20
105.324165702416
 30
0.0
 10
251.7536982830185
 20
105.268475952736
 30
0.0
 10
251.8584554265824
 20
105.1569847979786
 30
0.0
 10
251.9340619467014
 20
104.934360196788
 30
0.0
 10
251.9351686333217
 20
104.7039548962093
 30
0.0
 10
251.866226258912
 20
104.4878362630429
 30
0.0
 10
251.773065813898
 20
104.3763724264132
 30
0.0
 10
251.7279707397004
 20
104.3224174460307
 30
0.0
  0
SPLINE
  5
6A
330
1F
100
AcDbEntity
  8
0
  6
Continuous
 62
     7
370
    15
100
AcDbSpline
210
0.0
220
0.0
230
1.0
 70
     8
 71
     3
 72
    15
 73
    11
 74
     0
 42
0.00000001
 43
0.00000001
 12
1.0
 22
0.0
 32
0.0
 13
1.0
 23
0.0
 33
0.0
 40
0.0
 40
0.0
 40
0.0
 40
0.0
 40
0.1268056061458687
 40
0.2539281623243126
 40
0.3799884816832326
 40
0.5048413088963809
 40
0.6290258468314451
 40
0.7532057127753435
 40
0.8780563853824581
 40
1.0
 40
1.0
 40
1.0
 40
1.0
 10
251.7279707397004
 20
104.3224174460307
 30
0.0
 10
251.6995540162027
 20
104.2877286451195
 30
0.0
 10
251.6426495417369
 20
104.218264338798
 30
0.0
 10
251.6066789739149
 20
104.0855585864445
 30
0.0
 10
251.6139620271985
 20
103.9506090977435
 30
0.0
 10
251.6658388416115
 20
103.8264438841532
 30
0.0
 10
251.7551627081365
 20
103.7271183661846
 30
0.0
 10
251.8717227335521
 20
103.6638141397598
 30
0.0
 10
252.0027614436196
 20
103.6399561304036
 30
0.0
 10
252.0872111571539
 20
103.6601328330926
 30
0.0
 10
252.1289386356851
 20
103.6701023509637
 30
0.0
  0
SPLINE
  5
6B
330
1F
100
AcDbEntity
  8
0
  6
Continuous
 62
     7
370
    15
100
AcDbSpline
210
0.0
220
0.0
230
1.0
 70
     8
 71
     3
 72
    12
 73
     8
 74
     0
 42
0.00000001
 43
0.00000001
 12
1.0
 22
0.0
 32
0.0
 13
1.0
 23
0.0
 33
0.0
 40
0.0
 40
0.0
 40
0.0
 40
0.0
 40
0.2058503592234512
 40
0.412052484688806
 40
0.6141121260451403
 40
0.8132436688073178
 40
1.0
 40
1.0
 40
1.0
 40
1.0
 10
252.1289386356851
 20
103.6701023509637
 30
0.0
 10
252.2041649706875
 20
103.6878660671914
 30
0.0
 10
252.3547461907966
 20
103.7234238550746
 30
0.0
 10
252.5869491647898
 20
103.6780400643215
 30
0.0
 10
252.7874395212115
 20
103.5637359195535
 30
0.0
 10
252.9393609540656
 20
103.3954206147552
 30
0.0
 10
252.9882274518473
 20
103.2584723678358
 30
0.0
 10
253.0118771399041
 20
103.1921941717998
 30
0.0
  0
SPLINE
  5
6C
330
1F
100
AcDbEntity
  8
0
  6
Continuous
 62
     7
370
    15
100
AcDbSpline
210
0.0
220
0.0
230
1.0
 70
     8
 71
     3
 72
    15
 73
    11
 74
     0
 42
0.00000001
 43
0.00000001
 12
1.0
 22
0.0
 32
0.0
 13
1.0
 23
0.0
 33
0.0
 40
0.0
 40
0.0
 40
0.0
 40
0.0
 40
0.1262572933498479
 40
0.2533842100707416
 40
0.3794472077877383
 40
0.504299241610008
 40
0.6284839501799592
 40
0.7526671243773436
 40
0.8775118913121349
 40
1.0
 40
1.0
 40
1.0
 40
1.0
 10
253.0118771399041
 20
103.1921941717998
 30
0.0
 10
253.0272947101221
 20
103.1502467869023
 30
0.0
 10
253.0582360422798
 20
103.0660630957683
 30
0.0
 10
253.1542749762955
 20
102.968116072948
 30
0.0
 10
253.2744284232029
 20
102.906433875948
 30
0.0
 10
253.4079568347116
 20
102.8888768791557
 30
0.0
 10
253.5390923377512
 20
102.9162993062597
 30
0.0
 10
253.6529976381917
 20
102.9855127276024
 30
0.0
 10
253.7403870602681
 20
103.0873219898026
 30
0.0
 10
253.7659793984819
 20
103.1710017630015
 30
0.0
 10
253.7786536420366
 20
103.212442987217
 30
0.0
  0
SPLINE
  5
6D
330
1F
100
AcDbEntity
  8
0
  6
Continuous
 62
     7
370
    15
100
AcDbSpline
210
0.0
220
0.0
230
1.0
 70
     8
 71
     3
 72
    12
 73
     8
 74
     0
 42
0.00000001
 43
0.00000001
 12
1.0
 22
0.0
 32
0.0
 13
1.0
 23
0.0
 33
0.0
 40
0.0
 40
0.0
 40
0.0
 40
0.0
 40
0.2058712636487046
 40
0.4120904495493588
 40
0.6141696299885283
 40
0.8133048332574896
 40
1.0
 40
1.0
 40
1.0
 40
1.0
 10
253.7786536420366
 20
103.212442987217
 30
0.0
 10
253.8015426407276
 20
103.2867208384055
 30
0.0
 10
253.8473593204968
 20
103.4354020702848
 30
0.0
 10
254.0039894153451
 20
103.6139710848988
 30
0.0
 10
254.2034065671728
 20
103.7299663772489
 30
0.0
 10
254.4242975529052
 20
103.7763656715413
 30
0.0
 10
254.5662926134517
 20
103.7493542514313
 30
0.0
 10
254.6350010241052
 20
103.736283995761
 30
0.0
  0
SPLINE
  5
6E
330
1F
100
AcDbEntity
  8
0
  6
Continuous
 62
     7
370
    15
100
AcDbSpline
210
0.0
220
0.0
230
1.0
 70
     8
 71
     3
 72
    15
 73
    11
 74
     0
 42
0.00000001
 43
0.00000001
 12
1.0
 22
0.0
 32
0.0
 13
1.0
 23
0.0
 33
0.0
 40
0.0
 40
0.0
 40
0.0
 40
0.0
 40
0.1268663038000454
 40
0.2539821351744388
 40
0.3800322846236635
 40
0.5048754594988211
 40
0.6290524391558153
 40
0.7532377691961999
 40
0.8780961818464045
 40
1.0
 40
1.0
 40
1.0
 40
1.0
 10
254.6350010241052
 20
103.736283995761
 30
0.0
 10
254.67894070872
 20
103.7283771781781
 30
0.0
 10
254.7669065009208
 20
103.7125479914515
 30
0.0
 10
254.8992239176129
 20
103.7463092284552
 30
0.0
 10
255.0121627735608
 20
103.819129221667
 30
0.0
 10
255.0938114843755
 20
103.9257357684349
 30
0.0
 10
255.1355606778772
 20
104.0529170829164
 30
0.0
 10
255.1327990749242
 20
104.1862555642304
 30
0.0
 10
255.088860142387
 20
104.3128956871221
 30
0.0
 10
255.0299195933971
 20
104.3771207860256
 30
0.0
 10
255.0008021796723
 20
104.4088488375679
 30
0.0
  0
SPLINE
  5
6F
330
1F
100
AcDbEntity
  8
0
  6
Continuous
 62
     7
370
    15
100
AcDbSpline
210
0.0
220
0.0
230
1.0
 70
     8
 71
     3
 72
    12
 73
     8
 74
     0
 42
0.00000001
 43
0.00000001
 12
1.0
 22
0.0
 32
0.0
 13
1.0
 23
0.0
 33
0.0
 40
0.0
 40
0.0
 40
0.0
 40
0.0
 40
0.2058346804985529
 40
0.4120766505290532
 40
0.6141714579227104
 40
0.8133028233571005
 40
0.9999999999999999
 40
0.9999999999999999
 40
0.9999999999999999
 40
0.9999999999999999
 10
255.0008021796723
 20
104.4088488375679
 30
0.0
 10
254.9484664750072
 20
104.466149154437
 30
0.0
 10
254.8436915078865
 20
104.5808631695508
 30
0.0
 10
254.768094134528
 20
104.8061048230317
 30
0.0
 10
254.7670136258629
 20
105.0363533880882
 30
0.0
 10
254.8359925386833
 20
105.2497218194645
 30
0.0
 10
254.9291338129026
 20
105.3581366392407
 30
0.0
 10
254.9742036069413
 20
105.4105970939532
 30
0.0
  0
SPLINE
  5
70
330
1F
100
AcDbEntity
  8
0
  6
Continuous
 62
     7
370
    15
100
AcDbSpline
210
0.0
220
0.0
230
1.0
 70
     8
 71
     3
 72
    15
 73
    11
 74
     0
 42
0.00000001
 43
0.00000001
 12
1.0
 22
0.0
 32
0.0
 13
1.0
 23
0.0
 33
0.0
 40
0.0
 40
0.0
 40
0.0
 40
0.0
 40
0.1267895300123345
 40
0.2538965940956179
 40
0.3799430199073742
 40
0.5047855304786262
 40
0.6289656488959561
 40
0.753149451596267
 40
0.8780086675624199
 40
1.0
 40
1.0
 40
1.0
 40
1.0
 10
254.9742036069413
 20
105.4105970939532
 30
0.0
 10
255.0026164854114
 20
105.4443478133188
 30
0.0
 10
255.0595134000961
 20
105.5119337779829
 30
0.0
 10
255.0954970918538
 20
105.6425770613382
 30
0.0
 10
255.0882170688485
 20
105.7762345833632
 30
0.0
 10
255.0363564754824
 20
105.8999908271586
 30
0.0
 10
254.9470466378189
 20
105.9997902320126
 30
0.0
 10
254.8304951792041
 20
106.0644243972375
 30
0.0
 10
254.6994447411268
 20
106.0903364486832
 30
0.0
 10
254.6149782802143
 20
106.0719831542459
 30
0.0
 10
254.5732357109567
 20
106.0629131203428
 30
0.0
  0
SPLINE
  5
71
330
1F
100
AcDbEntity
  8
0
  6
Continuous
 62
     7
370
    15
100
AcDbSpline
210
0.0
220
0.0
230
1.0
 70
     8
 71
     3
 72
    12
 73
     8
 74
     0
 42
0.00000001
 43
0.00000001
 12
1.0
 22
0.0
 32
0.0
 13
1.0
 23
0.0
 33
0.0
 40
0.0
 40
0.0
 40
0.0
 40
0.0
 40
0.2058926407681893
 40
0.412132505088504
 40
0.6142221859403652
 40
0.813346626667461
 40
1.0
 40
1.0
 40
1.0
 40
1.0
 10
254.5732357109567
 20
106.0629131203428
 30
0.0
 10
254.497996880471
 20
106.0467499632916
 30
0.0
 10
254.3473923344691
 20
106.0143963911542
 30
0.0
 10
254.1151596436679
 20
106.062379538542
 30
0.0
 10
253.9146628528759
 20
106.1765363428446
 30
0.0
 10
253.7627778938894
 20
106.3421355114059
 30
0.0
 10
253.7139260564362
 20
106.4760355691009
 30
0.0
 10
253.690289756157
 20
106.5408212995068
 30
0.0
  0
LWPOLYLINE
  5
72
330
1F
100
AcDbEntity
  8
0
  6
Continuous
 62
     7
370
    15
100
AcDbPolyline
 90
        3
 70
   128
 43
0.0
 10
255.0857015456
 20
105.7418666711
 10
255.0507434214
 20
105.6321261382
 10
254.9742036069
 20
105.5256526848
  0
ARC
  5
73
330
1F
100
AcDbEntity
  8
0
  6
Continuous
 62
     7
370
    15
100
AcDbCircle
 10
251.9621499227
 20
105.7325853462
 30
0.0
 40
0.3925400930414777
100
AcDbArc
 50
187.1773871931
 51
228.3687430457
  0
ARC
  5
74
330
1F
100
AcDbEntity
  8
0
  6
Continuous
 62
     7
370
    15
100
AcDbCircle
 10
255.4572347386
 20
105.0371056297
 30
0.0
 40
0.68702059592831
100
AcDbArc
 50
134.6747191887
 51
179.9868422374
  0
ARC
  5
75
330
1F
100
AcDbEntity
  8
0
  6
Continuous
 62
     7
370
    15
100
AcDbCircle
 10
251.2447966101
 20
104.9256378257
 30
0.0
 40
0.6871636074858721
100
AcDbArc
 50
0.0173982727
 51
48.361004677
  0
ARC
  5
76
330
1F
100
AcDbEntity
  8
0
  6
Continuous
 62
     7
370
    15
100
AcDbCircle
 10
254.7388098347
 20
104.2312451745
 30
0.0
 40
0.3938079632534479
100
AcDbArc
 50
254.7160632663
 51
354.1105036529
  0
ARC
  5
77
330
1F
100
AcDbEntity
  8
0
  6
Continuous
 62
     7
370
    15
100
AcDbCircle
 10
252.0052081349
 20
104.1590954848
 30
0.0
 40
0.3938762786656677
100
AcDbArc
 50
186.9281037081
 51
288.3086294059
  0
ARC
  5
78
330
1F
100
AcDbEntity
  8
0
  6
Continuous
 62
     7
370
    15
100
AcDbCircle
 10
254.4535393848
 20
103.1861334367
 30
0.0
 40
0.6895377019224233
100
AcDbArc
 50
74.7421021027
 51
168.1674455638
  0
ARC
  5
79
330
1F
100
AcDbEntity
  8
0
  6
Continuous
 62
     7
370
    15
100
AcDbCircle
 10
252.3452699627
 20
103.1302531562
 30
0.0
 40
0.6897097370400612
100
AcDbArc
 50
14.8714830543
 51
108.2796731549
  0
ARC
  5
7A
330
1F
100
AcDbEntity
  8
0
  6
Continuous
 62
     7
370
    15
100
AcDbCircle
 10
253.3928600201
 20
103.4084489322
 30
0.0
 40
0.3941896210344474
100
AcDbArc
 50
194.8731485344
 51
348.1533622512
  0
ARC
  5
7B
330
1F
100
AcDbEntity
  8
0
  6
Continuous
 62
     7
370
    15
100
AcDbCircle
 10
253.3495523537
 20
104.907664409
 30
0.0
 40
3.500005928895038
100
AcDbArc
 50
0.1085946816
 51
179.8914053184
  0
LINE
  5
7C
330
1F
100
AcDbEntity
  8
0
  6
Continuous
 62
     7
370
    15
100
AcDbLine
 10
260.2934040631
 20
98.3708154341
 30
0.0
 11
259.2402495945
 21
110.3790875455
 31
0.0
  0
ARC
  5
7D
330
1F
100
AcDbEntity
  8
0
  6
Continuous
 62
     7
370
    15
100
AcDbCircle
 10
259.895361857
 20
98.3364881433
 30
0.0
 40
0.3995196624491982
100
AcDbArc
 50
264.931179461
 51
4.9290113562
  0
LINE
  5
7E
330
1F
100
AcDbEntity
  8
0
  6
Continuous
 62
     7
370
    15
100
AcDbLine
 10
247.8224657978
 20
98.9891186288
 30
0.0
 11
259.8600633944
 21
97.9385308852
 31
0.0
  0
ARC
  5
7F
330
1F
100
AcDbEntity
  8
0
  6
Continuous
 62
     7
370
    15
100
AcDbCircle
 10
247.8567960147
 20
99.3871439849
 30
0.0
 40
0.3995031262852237
100
AcDbArc
 50
185.0686334758
 51
265.070362913
  0
LINE
  5
80
330
1F
100
AcDbEntity
  8
0
  6
Continuous
 62
     7
370
    15
100
AcDbLine
 10
246.4057006444
 20
111.3601203939
 30
0.0
 11
247.4588551129
 21
99.3518482825
 31
0.0
  0
ARC
  5
81
330
1F
100
AcDbEntity
  8
0
  6
Continuous
 62
     7
370
    15
100
AcDbCircle
 10
246.8037305683
 20
111.3944599968
 30
0.0
 40
0.3995084838941325
100
AcDbArc
 50
84.9292689009
 51
184.9309219163
  0
LINE
  5
82
330
1F
100
AcDbEntity
  8
0
  6
Continuous
 62
     7
370
    15
100
AcDbLine
 10
258.8766314591
 20
110.7418171992
 30
0.0
 11
246.839041313
 21
111.7924049428
 31
0.0
  0
ARC
  5
83
330
1F
100
AcDbEntity
  8
0
  6
Continuous
 62
     7
370
    15
100
AcDbCircle
 10
258.8422980221
 20
110.3437804412
 30
0.0
 40
0.3995147627284383
100
AcDbArc
 50
5.0701270651
 51
85.0700433299
  0
ARC
  5
84
330
1F
100
AcDbEntity
  8
0
  6
Continuous
 62
     7
370
    15
100
AcDbCircle
 10
246.8037587077
 20
111.3944751429
 30
0.0
 40
0.3795392458359725
100
AcDbArc
 50
84.9302668467
 51
184.929833269
  0
LINE
  5
85
330
1F
100
AcDbEntity
  8
0
  6
Continuous
 62
     7
370
    15
100
AcDbLine
 10
246.4256234969
 20
111.3618591731
 30
0.0
 11
247.4787779654
 21
99.353587993
 31
0.0
  0
ARC
  5
86
330
1F
100
AcDbEntity
  8
0
  6
Continuous
 62
     7
370
    15
100
AcDbCircle
 10
247.8568242051
 20
99.3871215071
 30
0.0
 40
0.3795305730738806
100
AcDbArc
 50
185.0689921783
 51
265.0702050667
  0
LINE
  5
87
330
1F
100
AcDbEntity
  8
0
  6
Continuous
 62
     7
370
    15
100
AcDbLine
 10
247.8242092336
 20
99.0089949151
 30
0.0
 11
259.8618068303
 21
97.9584071716
 31
0.0
  0
ARC
  5
88
330
1F
100
AcDbEntity
  8
0
  6
Continuous
 62
     7
370
    15
100
AcDbCircle
 10
259.8953432476
 20
98.3364643753
 30
0.0
 40
0.3795417507188265
100
AcDbArc
 50
264.9307174887
 51
4.929382627
  0
LINE
  5
89
330
1F
100
AcDbEntity
  8
0
  6
Continuous
 62
     7
370
    15
100
AcDbLine
 10
260.2734812106
 20
98.3690775862
 30
0.0
 11
259.220326742
 21
110.3773487663
 31
0.0
  0
ARC
  5
8A
330
1F
100
AcDbEntity
  8
0
  6
Continuous
 62
     7
370
    15
100
AcDbCircle
 10
258.8422723674
 20
110.3438063922
 30
0.0
 40
0.3795394591822867
100
AcDbArc
 50
5.0702159684
 51
85.0702170679
  0
LINE
  5
8B
330
1F
100
AcDbEntity
  8
0
  6
Continuous
 62
     7
370
    15
100
AcDbLine
 10
258.8748880232
 20
110.7219418442
 30
0.0
 11
246.8372978772
 21
111.7725295877
 31
0.0
  0
LINE
  5
8C
330
1F
100
AcDbEntity
  8
0
  6
Continuous
 62
     7
370
    15
100
AcDbLine
 10
258.2680754865
 20
109.8123479566
 30
0.0
 11
258.8417701925
 21
110.3596145218
 31
0.0
  0
LINE
  5
8D
330
1F
100
AcDbEntity
  8
0
  6
Continuous
 62
     7
370
    15
100
AcDbLine
 10
247.7231793607
 20
110.5270858785
 30
0.0
 11
246.8041800464
 21
111.4102022653
 31
0.0
  0
LINE
  5
8E
330
1F
100
AcDbEntity
  8
0
  6
Continuous
 62
     7
370
    15
100
AcDbLine
 10
248.4310217703
 20
99.9992571702
 30
0.0
 11
247.8573270644
 21
99.4019292226
 31
0.0
  0
LINE
  5
8F
330
1F
100
AcDbEntity
  8
0
  6
Continuous
 62
     7
370
    15
100
AcDbLine
 10
258.9759253467
 20
99.3017487159
 30
0.0
 11
259.894924661
 21
98.3513433417
 31
0.0
  0
ARC
  5
90
330
1F
100
AcDbEntity
  8
0
  6
Continuous
 62
     7
370
    15
100
AcDbCircle
 10
249.6852382123
 20
108.5186416346
 30
0.0
 40
0.9987874917380748
100
AcDbArc
 50
84.9303820453
 51
184.9298087718
  0
LINE
  5
91
330
1F
100
AcDbEntity
  8
0
  6
Continuous
 62
     7
370
    15
100
AcDbLine
 10
256.5105058754
 20
108.9255463263
 30
0.0
 11
249.7734971846
 21
109.5135219326
 31
0.0
  0
ARC
  5
92
330
1F
100
AcDbEntity
  8
0
  6
Continuous
 62
     7
370
    15
100
AcDbCircle
 10
256.4246604388
 20
107.9304508229
 30
0.0
 40
0.998791519734611
100
AcDbArc
 50
5.070257758
 51
85.069384194
  0
LINE
  5
93
330
1F
100
AcDbEntity
  8
0
  6
Continuous
 62
     7
370
    15
100
AcDbLine
 10
258.0089517439
 20
101.2981261989
 30
0.0
 11
257.4195437635
 21
108.0187212607
 31
0.0
  0
ARC
  5
94
330
1F
100
AcDbEntity
  8
0
  6
Continuous
 62
     7
370
    15
100
AcDbCircle
 10
257.0138705856
 20
101.2122833067
 30
0.0
 40
0.9987770090234318
100
AcDbArc
 50
264.9300931206
 51
4.930541115
  0
LINE
  5
95
330
1F
100
AcDbEntity
  8
0
  6
Continuous
 62
     7
370
    15
100
AcDbLine
 10
250.188598832
 20
100.8053895017
 30
0.0
 11
256.9256075228
 21
100.2174138954
 31
0.0
  0
ARC
  5
96
330
1F
100
AcDbEntity
  8
0
  6
Continuous
 62
     7
370
    15
100
AcDbCircle
 10
250.2744303583
 20
101.8004710609
 30
0.0
 40
0.9987764316236509
100
AcDbArc
 50
185.0695314877
 51
265.0701104643
  0
LINE
  5
97
330
1F
100
AcDbEntity
  8
0
  6
Continuous
 62
     7
370
    15
100
AcDbLine
 10
248.6901455129
 20
108.4328105604
 30
0.0
 11
249.2795609439
 21
101.7122145673
 31
0.0
  0
CIRCLE
  5
98
330
1F
100
AcDbEntity
  8
0
  6
Continuous
 62
     7
370
    15
100
AcDbCircle
 10
253.3517890818
 20
104.8590989819
 30
0.0
 40
3.796964020191861
  0
ARC
  5
99
330
1F
100
AcDbEntity
  8
0
  6
Continuous
 62
     7
370
    15
100
AcDbCircle
 10
253.3495486284
 20
104.9530355763
 30
0.0
 40
3.800008098315915
100
AcDbArc
 50
180.1107806344
 51
359.8892193656
  0
SPLINE
  5
9A
330
1F
100
AcDbEntity
  8
0
  6
Continuous
 62
     7
370
    15
100
AcDbSpline
210
0.0
220
0.0
230
1.0
 70
     8
 71
     3
 72
    11
 73
     7
 74
     0
 42
0.00000001
 43
0.00000001
 12
1.0
 22
0.0
 32
0.0
 13
1.0
 23
0.0
 33
0.0
 40
0.0
 40
0.0
 40
0.0
 40
0.0
 40
0.0076253061955893
 40
0.3209848162118217
 40
0.6632181586875487
 40
0.9999999999999999
 40
0.9999999999999999
 40
0.9999999999999999
 40
0.9999999999999999
 10
248.2121013606569
 20
110.0340921362773
 30
0.0
 10
248.2109869091123
 20
110.0352681833311
 30
0.0
 10
248.1640744291363
 20
110.0847735064951
 30
0.0
 10
248.0599824073431
 20
110.1928145360437
 30
0.0
 10
247.8905464536447
 20
110.364396625137
 30
0.0
 10
247.7786689874281
 20
110.4731471634298
 30
0.0
 10
247.7231793607255
 20
110.5270858785048
 30
0.0
  0
SPLINE
  5
9B
330
1F
100
AcDbEntity
  8
0
  6
Continuous
 62
     7
370
    15
100
AcDbSpline
210
0.0
220
0.0
230
1.0
 70
     8
 71
     3
 72
    11
 73
     7
 74
     0
 42
0.00000001
 43
0.00000001
 12
1.0
 22
0.0
 32
0.0
 13
1.0
 23
0.0
 33
0.0
 40
0.0
 40
0.0
 40
0.0
 40
0.0
 40
0.0081128626770905
 40
0.3263649017097898
 40
0.6627660766729251
 40
1.0
 40
1.0
 40
1.0
 40
1.0
 10
257.7774249518891
 20
109.3194017117754
 30
0.0
 10
257.7786162124398
 20
109.3206589486362
 30
0.0
 10
257.8265383390664
 20
109.3712351756512
 30
0.0
 10
257.9320624398999
 20
109.4805435604444
 30
0.0
 10
258.1034944431682
 20
109.6534252907617
 30
0.0
 10
258.2131699450813
 20
109.7593300947478
 30
0.0
 10
258.268075486519
 20
109.8123479565516
 30
0.0
  0
SPLINE
  5
9C
330
1F
100
AcDbEntity
  8
0
  6
Continuous
 62
     7
370
    15
100
AcDbSpline
210
0.0
220
0.0
230
1.0
 70
     8
 71
     3
 72
    11
 73
     7
 74
     0
 42
0.00000001
 43
0.00000001
 12
1.0
 22
0.0
 32
0.0
 13
1.0
 23
0.0
 33
0.0
 40
0.0
 40
0.0
 40
0.0
 40
0.0
 40
0.3372314387058568
 40
0.6736302223475092
 40
0.9918804892690949
 40
1.0
 40
1.0
 40
1.0
 40
1.0
 10
248.4310217703363
 20
99.9992571702138
 30
0.0
 10
248.48592491706
 20
100.0557789447634
 30
0.0
 10
248.5955956496494
 20
100.1686829364656
 30
0.0
 10
248.7670629332819
 20
100.3378745434234
 30
0.0
 10
248.8725017550499
 20
100.4390023016349
 30
0.0
 10
248.9204859914513
 20
100.4841102582473
 30
0.0
 10
248.9216797555467
 20
100.485232465519
 30
0.0
  0
SPLINE
  5
9D
330
1F
100
AcDbEntity
  8
0
  6
Continuous
 62
     7
370
    15
100
AcDbSpline
210
0.0
220
0.0
230
1.0
 70
     8
 71
     3
 72
    11
 73
     7
 74
     0
 42
0.00000001
 43
0.00000001
 12
1.0
 22
0.0
 32
0.0
 13
1.0
 23
0.0
 33
0.0
 40
0.0
 40
0.0
 40
0.0
 40
0.0
 40
0.3367870891521446
 40
0.6790115135647117
 40
0.992367720500505
 40
1.0
 40
1.0
 40
1.0
 40
1.0
 10
258.9759253467103
 20
99.30174871589098
 30
0.0
 10
258.9204349088345
 20
99.35851934265001
 30
0.0
 10
258.8085581551702
 20
99.47297714237955
 30
0.0
 10
258.63909396151
 20
99.63946481588948
 30
0.0
 10
258.5350882246509
 20
99.73903002490044
 30
0.0
 10
258.488112849631
 20
99.7831799181433
 30
0.0
 10
258.4869958961984
 20
99.78422968889627
 30
0.0
  0
SPLINE
  5
9E
330
1F
100
AcDbEntity
  8
0
  6
Continuous
 62
     7
370
    15
100
AcDbSpline
210
0.0
220
0.0
230
1.0
 70
     8
 71
     3
 72
    12
 73
     8
 74
     0
 42
0.00000001
 43
0.00000001
 12
1.0
 22
0.0
 32
0.0
 13
1.0
 23
0.0
 33
0.0
 40
0.0
 40
0.0
 40
0.0
 40
0.0
 40
0.2499999999999988
 40
0.2499999999999988
 40
0.4999999999999977
 40
0.4999999999999977
 40
1.0
 40
1.0
 40
1.0
 40
1.0
 10
157.2268265795712
 20
125.7662257058786
 30
0.0
 10
157.1893146935265
 20
125.7662257058786
 30
0.0
 10
157.1540273458218
 20
125.7810305201654
 30
0.0
 10
157.0950974975834
 20
125.8246223932912
 30
0.0
 10
157.0715717711143
 20
125.8521358193772
 30
0.0
 10
157.0113129833462
 20
125.9412675514908
 30
0.0
 10
156.9857182210569
 20
126.0076534021086
 30
0.0
 10
156.9670189584359
 20
126.075257837286
 30
0.0
  0
LINE
  5
9F
330
1F
100
AcDbEntity
  8
0
  6
Continuous
 62
     7
370
    15
100
AcDbLine
 10
159.3630224968
 20
125.7662258973
 30
0.0
 11
157.226826487
 21
125.7662258973
 31
0.0
  0
SPLINE
  5
A0
330
1F
100
AcDbEntity
  8
0
  6
Continuous
 62
     7
370
    15
100
AcDbSpline
210
0.0
220
0.0
230
1.0
 70
     8
 71
     3
 72
    12
 73
     8
 74
     0
 42
0.00000001
 43
0.00000001
 12
1.0
 22
0.0
 32
0.0
 13
1.0
 23
0.0
 33
0.0
 40
0.0
 40
0.0
 40
0.0
 40
0.0
 40
0.4999999999999994
 40
0.4999999999999994
 40
0.7499999999999997
 40
0.7499999999999997
 40
1.0
 40
1.0
 40
1.0
 40
1.0
 10
159.6228301967082
 20
126.075257837286
 30
0.0
 10
159.6041369635778
 20
126.0076752008457
 30
0.0
 10
159.5784816661659
 20
125.9411926313682
 30
0.0
 10
159.5183210434795
 20
125.8521975484707
 30
0.0
 10
159.4942487317252
 20
125.8241956514715
 30
0.0
 10
159.4358672113746
 20
125.7811192508063
 30
0.0
 10
159.4003983837216
 20
125.7662257058786
 30
0.0
 10
159.3630225755728
 20
125.7662257058786
 30
0.0
  0
ELLIPSE
  5
A1
330
1F
100
AcDbEntity
  8
0
  6
Continuous
 62
     7
370
    15
100
AcDbEllipse
 10
149.3459954051
 20
119.9370127102
 30
0.0
 11
9.367417879781694
 21
19.74174915274993
 31
0.0
210
0.0
220
0.0
230
1.0
 40
0.3419987131
 41
5.185211263708393
 42
6.132113578252554
  0
SPLINE
  5
A2
330
1F
100
AcDbEntity
  8
0
  6
Continuous
 62
     7
370
    15
100
AcDbSpline
210
0.0
220
0.0
230
1.0
 70
     8
 71
     3
 72
    12
 73
     8
 74
     0
 42
0.00000001
 43
0.00000001
 12
1.0
 22
0.0
 32
0.0
 13
1.0
 23
0.0
 33
0.0
 40
0.0
 40
0.0
 40
0.0
 40
0.0
 40
0.2499999999999986
 40
0.2499999999999986
 40
0.4999999999999971
 40
0.4999999999999971
 40
1.0
 40
1.0
 40
1.0
 40
1.0
 10
159.3630225755728
 20
139.0686690904604
 30
0.0
 10
159.4005344616175
 20
139.0686690904604
 30
0.0
 10
159.4358218093222
 20
139.0641655461979
 30
0.0
 10
159.4947516575606
 20
139.0507923467446
 30
0.0
 10
159.5182773840297
 20
139.0423074441735
 30
0.0
 10
159.5785361717978
 20
139.0145596403389
 30
0.0
 10
159.6041309340871
 20
138.9935697765985
 30
0.0
 10
159.6228301967082
 20
138.971768993409
 30
0.0
  0
LINE
  5
A3
330
1F
100
AcDbEntity
  8
0
  6
Continuous
 62
     7
370
    15
100
AcDbLine
 10
157.226826487
 20
139.0686694464
 30
0.0
 11
159.3630224968
 21
139.0686694464
 31
0.0
  0
SPLINE
  5
A4
330
1F
100
AcDbEntity
  8
0
  6
Continuous
 62
     7
370
    15
100
AcDbSpline
210
0.0
220
0.0
230
1.0
 70
     8
 71
     3
 72
    12
 73
     8
 74
     0
 42
0.00000001
 43
0.00000001
 12
1.0
 22
0.0
 32
0.0
 13
1.0
 23
0.0
 33
0.0
 40
0.0
 40
0.0
 40
0.0
 40
0.0
 40
0.500000000000004
 40
0.500000000000004
 40
0.750000000000002
 40
0.750000000000002
 40
1.0
 40
1.0
 40
1.0
 40
1.0
 10
156.9670189584359
 20
138.971768993409
 30
0.0
 10
156.9857121915663
 20
138.9935627470369
 30
0.0
 10
157.0113674889781
 20
139.0145829087466
 30
0.0
 10
157.0715281116645
 20
139.0422882547103
 30
0.0
 10
157.0956004234189
 20
139.0509234709037
 30
0.0
 10
157.1539819437694
 20
139.0641381161303
 30
0.0
 10
157.1894507714225
 20
139.0686690904604
 30
0.0
 10
157.2268265795712
 20
139.0686690904604
 30
0.0
  0
ELLIPSE
  5
A5
330
1F
100
AcDbEntity
  8
0
  6
Continuous
 62
     7
370
    15
100
AcDbEllipse
 10
167.24385375
 20
119.9370127102
 30
0.0
 11
-9.367417879781584
 21
19.74174915274996
 31
0.0
210
0.0
220
0.0
230
1.0
 40
0.3419987131
 41
0.1510717289270743
 42
1.097974043471207
  0
SPLINE
  5
A6
330
1F
100
AcDbEntity
  8
0
  6
Continuous
 62
     7
370
    15
100
AcDbSpline
210
0.0
220
0.0
230
1.0
 70
     8
 71
     3
 72
    12
 73
     8
 74
     0
 42
0.00000001
 43
0.00000001
 12
1.0
 22
0.0
 32
0.0
 13
1.0
 23
0.0
 33
0.0
 40
0.0
 40
0.0
 40
0.0
 40
0.0
 40
0.25
 40
0.25
 40
0.5
 40
0.5
 40
1.0
 40
1.0
 40
1.0
 40
1.0
 10
157.2268265795712
 20
100.8053563299937
 30
0.0
 10
157.1893257566934
 20
100.8053563299937
 30
0.0
 10
157.1540473526574
 20
100.8098572978569
 30
0.0
 10
157.0951296326051
 20
100.8232238190742
 30
0.0
 10
157.0716062512067
 20
100.831705079319
 30
0.0
 10
157.0113506667408
 20
100.8594424749969
 30
0.0
 10
156.9858290143297
 20
100.88032647405
 30
0.0
 10
156.9670189584359
 20
100.9022564270451
 30
0.0
  0
LINE
  5
A7
330
1F
100
AcDbEntity
  8
0
  6
Continuous
 62
     7
370
    15
100
AcDbLine
 10
159.3630224968
 20
100.8053559741
 30
0.0
 11
157.226826487
 21
100.8053559741
 31
0.0
  0
SPLINE
  5
A8
330
1F
100
AcDbEntity
  8
0
  6
Continuous
 62
     7
370
    15
100
AcDbSpline
210
0.0
220
0.0
230
1.0
 70
     8
 71
     3
 72
    12
 73
     8
 74
     0
 42
0.00000001
 43
0.00000001
 12
1.0
 22
0.0
 32
0.0
 13
1.0
 23
0.0
 33
0.0
 40
0.0
 40
0.0
 40
0.0
 40
0.0
 40
0.4999999999999994
 40
0.4999999999999994
 40
0.7499999999999997
 40
0.7499999999999997
 40
1.0
 40
1.0
 40
1.0
 40
1.0
 10
159.6228301967082
 20
100.9022564270451
 30
0.0
 10
159.6040269638565
 20
100.8803344287841
 30
0.0
 10
159.5784903048373
 20
100.8594406207741
 30
0.0
 10
159.5182641308888
 20
100.8317138946564
 30
0.0
 10
159.4943380534888
 20
100.8231407612809
 30
0.0
 10
159.4362771333076
 20
100.8099616554734
 30
0.0
 10
159.4004754346816
 20
100.8053563299937
 30
0.0
 10
159.3630225755728
 20
100.8053563299937
 30
0.0
  0
ELLIPSE
  5
A9
330
1F
100
AcDbEntity
  8
0
  6
Continuous
 62
     7
370
    15
100
AcDbEllipse
 10
149.3459954051
 20
119.9370127102
 30
0.0
 11
-9.367417879781812
 21
19.74174915274996
 31
0.0
210
0.0
220
0.0
230
1.0
 40
0.3419987131
 41
3.292664382516892
 42
4.239566697061001
  0
SPLINE
  5
AA
330
1F
100
AcDbEntity
  8
0
  6
Continuous
 62
     7
370
    15
100
AcDbSpline
210
0.0
220
0.0
230
1.0
 70
     8
 71
     3
 72
    12
 73
     8
 74
     0
 42
0.00000001
 43
0.00000001
 12
1.0
 22
0.0
 32
0.0
 13
1.0
 23
0.0
 33
0.0
 40
0.0
 40
0.0
 40
0.0
 40
0.0
 40
0.2499999999999984
 40
0.2499999999999984
 40
0.4999999999999969
 40
0.4999999999999969
 40
1.0
 40
1.0
 40
1.0
 40
1.0
 10
159.3630225755728
 20
114.1077997145753
 30
0.0
 10
159.4005233984506
 20
114.1077997145753
 30
0.0
 10
159.4358018024866
 20
114.0930033768223
 30
0.0
 10
159.4947195225389
 20
114.0494331156631
 30
0.0
 10
159.5182429039373
 20
114.0219313171616
 30
0.0
 10
159.5784984884033
 20
113.9328321539185
 30
0.0
 10
159.6040201408144
 20
113.8667725751362
 30
0.0
 10
159.6228301967082
 20
113.798767583168
 30
0.0
  0
LINE
  5
AB
330
1F
100
AcDbEntity
  8
0
  6
Continuous
 62
     7
370
    15
100
AcDbLine
 10
157.226826487
 20
114.1077995231
 30
0.0
 11
159.3630224968
 21
114.1077995231
 31
0.0
  0
SPLINE
  5
AC
330
1F
100
AcDbEntity
  8
0
  6
Continuous
 62
     7
370
    15
100
AcDbSpline
210
0.0
220
0.0
230
1.0
 70
     8
 71
     3
 72
    12
 73
     8
 74
     0
 42
0.00000001
 43
0.00000001
 12
1.0
 22
0.0
 32
0.0
 13
1.0
 23
0.0
 33
0.0
 40
0.0
 40
0.0
 40
0.0
 40
0.0
 40
0.4999999999999987
 40
0.4999999999999987
 40
0.7499999999999993
 40
0.7499999999999993
 40
1.0
 40
1.0
 40
1.0
 40
1.0
 10
156.9670189584359
 20
113.7987675831679
 30
0.0
 10
156.9858221912875
 20
113.8667479074304
 30
0.0
 10
157.0113588503067
 20
113.9328382952272
 30
0.0
 10
157.0715850242552
 20
114.0219029076743
 30
0.0
 10
157.0955111016552
 20
114.0497039946942
 30
0.0
 10
157.1535720218365
 20
114.0926630679191
 30
0.0
 10
157.1893737204625
 20
114.1077997145753
 30
0.0
 10
157.2268265795712
 20
114.1077997145753
 30
0.0
  0
ELLIPSE
  5
AD
330
1F
100
AcDbEntity
  8
0
  6
Continuous
 62
     7
370
    15
100
AcDbEllipse
 10
167.24385375
 20
119.9370127102
 30
0.0
 11
9.367417879781669
 21
19.74174915274996
 31
0.0
210
0.0
220
0.0
230
1.0
 40
0.3419987131
 41
2.043618610118597
 42
2.99052092466273
  0
LINE
  5
AE
330
1F
100
AcDbEntity
  8
0
  6
Continuous
 62
     7
370
    15
100
AcDbLine
 10
150.2949245776
 20
100.2370126476
 30
0.0
 11
150.2949245776
 21
139.6370127728
 31
0.0
  0
LINE
  5
AF
330
1F
100
AcDbEntity
  8
0
  6
Continuous
 62
     7
370
    15
100
AcDbLine
 10
170.2949241305
 20
100.537012138
 30
0.0
 11
170.2949241305
 21
139.3370132824
 31
0.0
  0
ELLIPSE
  5
B0
330
1F
100
AcDbEntity
  8
0
  6
Continuous
 62
     7
370
    15
100
AcDbEllipse
 10
232.6257460176
 20
119.9370127102
 30
0.0
 11
0.3220561513869029
 21
15.99976859320061
 31
0.0
210
0.0
220
0.0
230
1.0
 40
0.2671959542
 41
0.293047228470621
 42
2.998928329720222
  0
ELLIPSE
  5
B1
330
1F
100
AcDbEntity
  8
0
  6
Continuous
 62
     7
370
    15
100
AcDbEllipse
 10
230.5114616443
 20
111.9973172754
 30
0.0
 11
-0.08998737201207517
 21
2.35747807539775
 31
0.0
210
0.0
220
0.0
230
1.0
 40
0.2521532344
 41
0.0
 42
6.283185307179586
  0
SPLINE
  5
B2
330
1F
100
AcDbEntity
  8
0
  6
Continuous
 62
     7
370
    15
100
AcDbSpline
210
0.0
220
0.0
230
1.0
 70
     8
 71
     3
 72
    16
 73
    12
 74
     0
 42
0.00000001
 43
0.00000001
 12
1.0
 22
0.0
 32
0.0
 13
1.0
 23
0.0
 33
0.0
 40
0.0
 40
0.0
 40
0.0
 40
0.0
 40
0.2499999999999992
 40
0.2499999999999992
 40
0.3750000000000021
 40
0.3750000000000021
 40
0.5000000000000054
 40
0.5000000000000054
 40
0.7500000000000027
 40
0.7500000000000027
 40
1.0
 40
1.0
 40
1.0
 40
1.0
 10
231.6991280626417
 20
135.2795381735641
 30
0.0
 10
231.7677563183552
 20
135.3539643337575
 30
0.0
 10
231.8687150038983
 20
135.4180635345362
 30
0.0
 10
232.0687567376957
 20
135.5016457610609
 30
0.0
 10
232.1442222562872
 20
135.5275156225223
 30
0.0
 10
232.3077131840636
 20
135.5740954253397
 30
0.0
 10
232.3960274348402
 20
135.5949903225245
 30
0.0
 10
232.6804875884299
 20
135.6515525087035
 30
0.0
 10
232.8992113789529
 20
135.6813155472223
 30
0.0
 10
233.3656542232583
 20
135.7259421979067
 30
0.0
 10
233.617398216898
 20
135.7414708828452
 30
0.0
 10
233.8807110151989
 20
135.751337729887
 30
0.0
  0
SPLINE
  5
B3
330
1F
100
AcDbEntity
  8
0
  6
Continuous
 62
     7
370
    15
100
AcDbSpline
210
0.0
220
0.0
230
1.0
 70
     8
 71
     3
 72
    16
 73
    12
 74
     0
 42
0.00000001
 43
0.00000001
 12
1.0
 22
0.0
 32
0.0
 13
1.0
 23
0.0
 33
0.0
 40
0.0
 40
0.0
 40
0.0
 40
0.0
 40
0.2500000000000001
 40
0.2500000000000001
 40
0.3750000000000001
 40
0.3750000000000001
 40
0.5000000000000001
 40
0.5000000000000001
 40
0.75
 40
0.75
 40
1.0
 40
1.0
 40
1.0
 40
1.0
 10
233.8807110151989
 20
103.9383372928354
 30
0.0
 10
233.6174209722697
 20
103.9391730081048
 30
0.0
 10
233.36879400365
 20
103.940738512422
 30
0.0
 10
233.0172856181781
 20
103.9469141142521
 30
0.0
 10
232.9031665358217
 20
103.9496617041714
 30
0.0
 10
232.6887933297715
 20
103.9569722897595
 30
0.0
 10
232.5877841042793
 20
103.9615387925828
 30
0.0
 10
232.303004793301
 20
103.9789313436256
 30
0.0
 10
232.1362125241538
 20
103.9957845634954
 30
0.0
 10
231.8702928487758
 20
104.0428086878256
 30
0.0
 10
231.7677552175436
 20
104.0733327182882
 30
0.0
 10
231.6991280626417
 20
104.1120256245316
 30
0.0
  0
SPLINE
  5
B4
330
1F
100
AcDbEntity
  8
0
  6
Continuous
 62
     7
370
    15
100
AcDbSpline
210
0.0
220
0.0
230
1.0
 70
     8
 71
     3
 72
    18
 73
    14
 74
     0
 42
0.00000001
 43
0.00000001
 12
1.0
 22
0.0
 32
0.0
 13
1.0
 23
0.0
 33
0.0
 40
0.0
 40
0.0
 40
0.0
 40
0.0
 40
0.25
 40
0.25
 40
0.5
 40
0.5
 40
0.625
 40
0.625
 40
0.75
 40
0.75
 40
0.875
 40
0.875
 40
1.0
 40
1.0
 40
1.0
 40
1.0
 10
149.038840260008
 20
106.1058243275482
 30
0.0
 10
149.0731370794598
 20
106.1049626720664
 30
0.0
 10
149.110948359437
 20
106.1052142751613
 30
0.0
 10
149.197520726617
 20
106.1076127877732
 30
0.0
 10
149.2458598566999
 20
106.1097837725051
 30
0.0
 10
149.3351322140223
 20
106.1138786508003
 30
0.0
 10
149.3676736797983
 20
106.11538326875
 30
0.0
 10
149.4438498796517
 20
106.1183463267181
 30
0.0
 10
149.4870659396462
 20
106.1198336649739
 30
0.0
 10
149.5927552416122
 20
106.1214590762975
 30
0.0
 10
149.6577263003267
 20
106.1214168352236
 30
0.0
 10
149.7913866886846
 20
106.1173946619026
 30
0.0
 10
149.8506931420208
 20
106.1138534350791
 30
0.0
 10
149.8999476886968
 20
106.110286727643
 30
0.0
  0
SPLINE
  5
B5
330
1F
100
AcDbEntity
  8
0
  6
Continuous
 62
     7
370
    15
100
AcDbSpline
210
0.0
220
0.0
230
1.0
 70
     8
 71
     3
 72
    14
 73
    10
 74
     0
 42
0.00000001
 43
0.00000001
 12
1.0
 22
0.0
 32
0.0
 13
1.0
 23
0.0
 33
0.0
 40
0.0
 40
0.0
 40
0.0
 40
0.0
 40
0.1250000000000009
 40
0.1250000000000009
 40
0.2500000000000018
 40
0.2500000000000018
 40
0.5000000000000011
 40
0.5000000000000011
 40
1.0
 40
1.0
 40
1.0
 40
1.0
 10
149.8999476886659
 20
106.110286727662
 30
0.0
 10
149.9114744663833
 20
106.109452030228
 30
0.0
 10
149.9248272740357
 20
106.1077116159478
 30
0.0
 10
149.9549698466359
 20
106.1004640259475
 30
0.0
 10
149.9700303722504
 20
106.0951169917195
 30
0.0
 10
150.0053767261788
 20
106.0793697214911
 30
0.0
 10
150.0191088259077
 20
106.0695314473298
 30
0.0
 10
150.0524800715988
 20
106.0433274613793
 30
0.0
 10
150.0634204394528
 20
106.0292395599787
 30
0.0
 10
150.0720735644661
 20
106.0164659364904
 30
0.0
  0
LINE
  5
B6
330
1F
100
AcDbEntity
  8
0
  6
Continuous
 62
     7
370
    15
100
AcDbLine
 10
150.0949245826
 20
114.4315677626
 30
0.0
 11
150.0949245826
 21
105.847192735
 31
0.0
  0
SPLINE
  5
B7
330
1F
100
AcDbEntity
  8
0
  6
Continuous
 62
     7
370
    15
100
AcDbSpline
210
0.0
220
0.0
230
1.0
 70
     8
 71
     3
 72
    16
 73
    12
 74
     0
 42
0.00000001
 43
0.00000001
 12
1.0
 22
0.0
 32
0.0
 13
1.0
 23
0.0
 33
0.0
 40
0.0
 40
0.0
 40
0.0
 40
0.0
 40
0.5000000000000003
 40
0.5000000000000003
 40
0.7499999999999999
 40
0.7499999999999999
 40
0.8749999999999989
 40
0.8749999999999989
 40
0.9374999999999996
 40
0.9374999999999996
 40
1.0
 40
1.0
 40
1.0
 40
1.0
 10
150.094924577572
 20
114.4315679432642
 30
0.0
 10
150.094924577572
 20
114.5491433242837
 30
0.0
 10
150.0910411524131
 20
114.6678390773849
 30
0.0
 10
150.0662258271384
 20
114.8485965553774
 30
0.0
 10
150.055386379426
 20
114.9102406321504
 30
0.0
 10
150.0221705973771
 20
114.9995776064917
 30
0.0
 10
150.0087888537483
 20
115.0298371379168
 30
0.0
 10
149.9732792038861
 20
115.0633533819042
 30
0.0
 10
149.9578622373853
 20
115.0714917277103
 30
0.0
 10
149.9261612152367
 20
115.0714763182789
 30
0.0
 10
149.9120149302859
 20
115.064434080923
 30
0.0
 10
149.8999476886963
 20
115.0552930173134
 30
0.0
  0
SPLINE
  5
B8
330
1F
100
AcDbEntity
  8
0
  6
Continuous
 62
     7
370
    15
100
AcDbSpline
210
0.0
220
0.0
230
1.0
 70
     8
 71
     3
 72
    18
 73
    14
 74
     0
 42
0.00000001
 43
0.00000001
 12
1.0
 22
0.0
 32
0.0
 13
1.0
 23
0.0
 33
0.0
 40
0.0
 40
0.0
 40
0.0
 40
0.0
 40
0.1249999999999997
 40
0.1249999999999997
 40
0.2499999999999993
 40
0.2499999999999993
 40
0.374999999999999
 40
0.374999999999999
 40
0.4999999999999987
 40
0.4999999999999987
 40
0.7499999999999993
 40
0.7499999999999993
 40
1.0
 40
1.0
 40
1.0
 40
1.0
 10
149.8999476887025
 20
115.0552930173062
 30
0.0
 10
149.8512431050145
 20
115.0183987781156
 30
0.0
 10
149.792734622239
 20
114.9888674736897
 30
0.0
 10
149.6610078069691
 20
114.9796315004108
 30
0.0
 10
149.5962497354716
 20
115.0026946749678
 30
0.0
 10
149.4910391333209
 20
115.0702127966153
 30
0.0
 10
149.4478229848008
 20
115.1132238932658
 30
0.0
 10
149.3716446687169
 20
115.2034659152619
 30
0.0
 10
149.3387898364256
 20
115.2510967967372
 30
0.0
 10
149.2484219304647
 20
115.3981610960867
 30
0.0
 10
149.1989992726251
 20
115.5020744213913
 30
0.0
 10
149.1113481470335
 20
115.7132083850317
 30
0.0
 10
149.0732865996429
 20
115.8209311297904
 30
0.0
 10
149.038840260009
 20
115.9302642456998
 30
0.0
  0
SPLINE
  5
B9
330
1F
100
AcDbEntity
  8
0
  6
Continuous
 62
     7
370
    15
100
AcDbSpline
210
0.0
220
0.0
230
1.0
 70
     8
 71
     3
 72
     8
 73
     4
 74
     0
 42
0.00000001
 43
0.00000001
 12
1.0
 22
0.0
 32
0.0
 13
1.0
 23
0.0
 33
0.0
 40
0.0
 40
0.0
 40
0.0
 40
0.0
 40
1.0
 40
1.0
 40
1.0
 40
1.0
 10
148.9736042340123
 20
116.1654680198287
 30
0.0
 10
148.9930304393112
 20
116.0858757482559
 30
0.0
 10
149.0145272637396
 20
116.0074340021231
 30
0.0
 10
149.038840260009
 20
115.9302642456998
 30
0.0
  0
SPLINE
  5
BA
330
1F
100
AcDbEntity
  8
0
  6
Continuous
 62
     7
370
    15
100
AcDbSpline
210
0.0
220
0.0
230
1.0
 70
     8
 71
     3
 72
     8
 73
     4
 74
     0
 42
0.00000001
 43
0.00000001
 12
1.0
 22
0.0
 32
0.0
 13
1.0
 23
0.0
 33
0.0
 40
0.0
 40
0.0
 40
0.0
 40
0.0
 40
1.0
 40
1.0
 40
1.0
 40
1.0
 10
149.038840260009
 20
123.9437611747544
 30
0.0
 10
149.0145272637396
 20
123.8665914183311
 30
0.0
 10
148.9930304393112
 20
123.7881496721983
 30
0.0
 10
148.9736042340123
 20
123.7085574006256
 30
0.0
  0
SPLINE
  5
BB
330
1F
100
AcDbEntity
  8
0
  6
Continuous
 62
     7
370
    15
100
AcDbSpline
210
0.0
220
0.0
230
1.0
 70
     8
 71
     3
 72
    18
 73
    14
 74
     0
 42
0.00000001
 43
0.00000001
 12
1.0
 22
0.0
 32
0.0
 13
1.0
 23
0.0
 33
0.0
 40
0.0
 40
0.0
 40
0.0
 40
0.0
 40
0.2499999999999986
 40
0.2499999999999986
 40
0.4999999999999971
 40
0.4999999999999971
 40
0.6249999999999978
 40
0.6249999999999978
 40
0.7499999999999986
 40
0.7499999999999986
 40
0.8749999999999992
 40
0.8749999999999992
 40
1.0
 40
1.0
 40
1.0
 40
1.0
 10
149.038840260009
 20
123.9437611747543
 30
0.0
 10
149.0731385790217
 20
124.0526244713474
 30
0.0
 10
149.1109529763336
 20
124.1596318945837
 30
0.0
 10
149.1975410374072
 20
124.368666718722
 30
0.0
 10
149.2458911430859
 20
124.4708368127116
 30
0.0
 10
149.3352077318857
 20
124.6175175842763
 30
0.0
 10
149.3677680873739
 20
124.6653192828119
 30
0.0
 10
149.4440137211029
 20
124.7568748208372
 30
0.0
 10
149.4871730908829
 20
124.8005542128292
 30
0.0
 10
149.5929019149009
 20
124.8699084301558
 30
0.0
 10
149.6578990919556
 20
124.8940247438217
 30
0.0
 10
149.7913835819099
 20
124.8858205217834
 30
0.0
 10
149.8507109753554
 20
124.8560297361915
 30
0.0
 10
149.8999476886968
 20
124.8187324031405
 30
0.0
  0
SPLINE
  5
BC
330
1F
100
AcDbEntity
  8
0
  6
Continuous
 62
     7
370
    15
100
AcDbSpline
210
0.0
220
0.0
230
1.0
 70
     8
 71
     3
 72
    16
 73
    12
 74
     0
 42
0.00000001
 43
0.00000001
 12
1.0
 22
0.0
 32
0.0
 13
1.0
 23
0.0
 33
0.0
 40
0.0
 40
0.0
 40
0.0
 40
0.0
 40
0.0625000000000012
 40
0.0625000000000012
 40
0.1250000000000025
 40
0.1250000000000025
 40
0.2500000000000026
 40
0.2500000000000026
 40
0.5000000000000028
 40
0.5000000000000028
 40
1.0
 40
1.0
 40
1.0
 40
1.0
 10
149.8999476886659
 20
124.8187324030921
 30
0.0
 10
149.9120175219418
 20
124.8095893762463
 30
0.0
 10
149.9262931768751
 20
124.802544928555
 30
0.0
 10
149.9577575889995
 20
124.8025378566564
 30
0.0
 10
149.9732581138099
 20
124.8106658254534
 30
0.0
 10
150.0086970104168
 20
124.8440742864606
 30
0.0
 10
150.0222896265202
 20
124.8747414529227
 30
0.0
 10
150.055283944913
 20
124.9635624470046
 30
0.0
 10
150.0660713382318
 20
125.0244650925524
 30
0.0
 10
150.0911245855109
 20
125.2064731699307
 30
0.0
 10
150.0949245775722
 20
125.3251618849694
 30
0.0
 10
150.0949245775722
 20
125.44245747719
 30
0.0
  0
LINE
  5
BD
330
1F
100
AcDbEntity
  8
0
  6
Continuous
 62
     7
370
    15
100
AcDbLine
 10
150.0949245826
 20
134.0268326854
 30
0.0
 11
150.0949245826
 21
125.4424576579
 31
0.0
  0
SPLINE
  5
BE
330
1F
100
AcDbEntity
  8
0
  6
Continuous
 62
     7
370
    15
100
AcDbSpline
210
0.0
220
0.0
230
1.0
 70
     8
 71
     3
 72
    12
 73
     8
 74
     0
 42
0.00000001
 43
0.00000001
 12
1.0
 22
0.0
 32
0.0
 13
1.0
 23
0.0
 33
0.0
 40
0.0
 40
0.0
 40
0.0
 40
0.0
 40
0.4999999999999969
 40
0.4999999999999969
 40
0.7499999999999984
 40
0.7499999999999984
 40
1.0
 40
1.0
 40
1.0
 40
1.0
 10
150.0545852477044
 20
133.8356202130979
 30
0.0
 10
150.0444623956233
 20
133.8246864684602
 30
0.0
 10
150.0320996112773
 20
133.8126211816377
 30
0.0
 10
149.997265008104
 20
133.7912718412935
 30
0.0
 10
149.9819077868609
 20
133.7830521650644
 30
0.0
 10
149.9392387447211
 20
133.7687128654348
 30
0.0
 10
149.9168145303613
 20
133.7649600844115
 30
0.0
 10
149.8999476886963
 20
133.7637386928112
 30
0.0
  0
SPLINE
  5
BF
330
1F
100
AcDbEntity
  8
0
  6
Continuous
 62
     7
370
    15
100
AcDbSpline
210
0.0
220
0.0
230
1.0
 70
     8
 71
     3
 72
    18
 73
    14
 74
     0
 42
0.00000001
 43
0.00000001
 12
1.0
 22
0.0
 32
0.0
 13
1.0
 23
0.0
 33
0.0
 40
0.0
 40
0.0
 40
0.0
 40
0.0
 40
0.1250000000000002
 40
0.1250000000000002
 40
0.2500000000000003
 40
0.2500000000000003
 40
0.3750000000000005
 40
0.3750000000000005
 40
0.5000000000000007
 40
0.5000000000000007
 40
0.7500000000000003
 40
0.7500000000000003
 40
1.0
 40
1.0
 40
1.0
 40
1.0
 10
149.8999476887025
 20
133.763738692811
 30
0.0
 10
149.8512435596857
 20
133.7602118431928
 30
0.0
 10
149.7927358904811
 20
133.7567115699952
 30
0.0
 10
149.6610102278503
 20
133.7526685861073
 30
0.0
 10
149.5962525892299
 20
133.7525570114767
 30
0.0
 10
149.4910421726108
 20
133.7540891962381
 30
0.0
 10
149.4478261376707
 20
133.7555443484532
 30
0.0
 10
149.3716479161897
 20
133.7584696099829
 30
0.0
 10
149.3387931485056
 20
133.7599799404912
 30
0.0
 10
149.2484254296638
 20
133.7641219331795
 30
0.0
 10
149.1990030604744
 20
133.766360018166
 30
0.0
 10
149.1113505983863
 20
133.7688113012125
 30
0.0
 10
149.0732878621519
 20
133.7690665365736
 30
0.0
 10
149.0388402600085
 20
133.7682010929057
 30
0.0
  0
SPLINE
  5
C0
330
1F
100
AcDbEntity
  8
0
  6
Continuous
 62
     7
370
    15
100
AcDbSpline
210
0.0
220
0.0
230
1.0
 70
     8
 71
     3
 72
    16
 73
    12
 74
     0
 42
0.00000001
 43
0.00000001
 12
1.0
 22
0.0
 32
0.0
 13
1.0
 23
0.0
 33
0.0
 40
0.0
 40
0.0
 40
0.0
 40
0.0
 40
0.2500000000000001
 40
0.2500000000000001
 40
0.3750000000000001
 40
0.3750000000000001
 40
0.5000000000000001
 40
0.5000000000000001
 40
0.7500000000000001
 40
0.7500000000000001
 40
1.0
 40
1.0
 40
1.0
 40
1.0
 10
148.594924577572
 20
122.8832111062965
 30
0.0
 10
148.5143877681765
 20
122.4141382794334
 30
0.0
 10
148.4543503593743
 20
121.9337746292534
 30
0.0
 10
148.3936124121271
 20
121.1965903501125
 30
0.0
 10
148.3782899310841
 20
120.9480719468854
 30
0.0
 10
148.3577069793062
 20
120.4452885016717
 30
0.0
 10
148.3525074322697
 20
120.190429948647
 30
0.0
 10
148.3524537217295
 20
119.4341526089263
 30
0.0
 10
148.3726510589986
 20
118.9354944096164
 30
0.0
 10
148.4533293660716
 20
117.9490714388721
 30
0.0
 10
148.5143757144128
 20
117.4599573460992
 30
0.0
 10
148.594924577572
 20
116.9908143141577
 30
0.0
  0
LINE
  5
C1
330
1F
100
AcDbEntity
  8
0
  6
Continuous
 62
     7
370
    15
100
AcDbLine
 10
148.594924555
 20
116.990814258
 30
0.0
 11
148.594924555
 21
115.8358089557
 31
0.0
  0
LINE
  5
C2
330
1F
100
AcDbEntity
  8
0
  6
Continuous
 62
     7
370
    15
100
AcDbLine
 10
127.7949236835
 20
123.7769322866
 30
0.0
 11
127.7949236835
 21
116.0970931338
 31
0.0
  0
LINE
  5
C3
330
1F
100
AcDbEntity
  8
0
  6
Continuous
 62
     7
370
    15
100
AcDbLine
 10
148.594924555
 20
124.0382164648
 30
0.0
 11
148.594924555
 21
122.8832111625
 31
0.0
  0
SPLINE
  5
C4
330
1F
100
AcDbEntity
  8
0
  6
Continuous
 62
     7
370
    15
100
AcDbSpline
210
0.0
220
0.0
230
1.0
 70
     8
 71
     3
 72
     8
 73
     4
 74
     0
 42
0.00000001
 43
0.00000001
 12
1.0
 22
0.0
 32
0.0
 13
1.0
 23
0.0
 33
0.0
 40
0.0
 40
0.0
 40
0.0
 40
0.0
 40
1.0
 40
1.0
 40
1.0
 40
1.0
 10
148.7998845996327
 20
116.9905219058632
 30
0.0
 10
148.8506116823552
 20
116.7071707845441
 30
0.0
 10
148.9084989953422
 20
116.4322146004043
 30
0.0
 10
148.9736042340124
 20
116.1654680198287
 30
0.0
  0
SPLINE
  5
C5
330
1F
100
AcDbEntity
  8
0
  6
Continuous
 62
     7
370
    15
100
AcDbSpline
210
0.0
220
0.0
230
1.0
 70
     8
 71
     3
 72
    24
 73
    20
 74
     0
 42
0.00000001
 43
0.00000001
 12
1.0
 22
0.0
 32
0.0
 13
1.0
 23
0.0
 33
0.0
 40
0.0
 40
0.0
 40
0.0
 40
0.0
 40
0.2499999999999964
 40
0.2499999999999964
 40
0.3749999999999941
 40
0.3749999999999941
 40
0.437499999999993
 40
0.437499999999993
 40
0.4687499999999925
 40
0.4687499999999925
 40
0.4999999999999919
 40
0.4999999999999919
 40
0.5624999999999934
 40
0.5624999999999934
 40
0.624999999999995
 40
0.624999999999995
 40
0.749999999999997
 40
0.749999999999997
 40
1.0
 40
1.0
 40
1.0
 40
1.0
 10
148.5949245775637
 20
116.9908143141565
 30
0.0
 10
148.5953276069377
 20
117.0840826067861
 30
0.0
 10
148.5973573466528
 20
117.177840165635
 30
0.0
 10
148.6066660580725
 20
117.3194300512746
 30
0.0
 10
148.6105920511871
 20
117.3666104698838
 30
0.0
 10
148.6215214111031
 20
117.4372065165692
 30
0.0
 10
148.6256430391975
 20
117.460986430334
 30
0.0
 10
148.6375375603799
 20
117.4944375773812
 30
0.0
 10
148.6428243723336
 20
117.5065925294508
 30
0.0
 10
148.6593923038486
 20
117.5144751684189
 30
0.0
 10
148.6673190126159
 20
117.5069115693168
 30
0.0
 10
148.6843113508411
 20
117.4831191380901
 30
0.0
 10
148.691709051632
 20
117.4629306602456
 30
0.0
 10
148.7058114419739
 20
117.4224810356258
 30
0.0
 10
148.7119645992661
 20
117.4016253612283
 30
0.0
 10
148.7292783327272
 20
117.3385003259273
 30
0.0
 10
148.7392833736158
 20
117.2955212140258
 30
0.0
 10
148.7676398298465
 20
117.1657955697369
 30
0.0
 10
148.7841883691927
 20
117.078197842601
 30
0.0
 10
148.7998845996327
 20
116.9905219058632
 30
0.0
  0
SPLINE
  5
C6
330
1F
100
AcDbEntity
  8
0
  6
Continuous
 62
     7
370
    15
100
AcDbSpline
210
0.0
220
0.0
230
1.0
 70
     8
 71
     3
 72
    24
 73
    20
 74
     0
 42
0.00000001
 43
0.00000001
 12
1.0
 22
0.0
 32
0.0
 13
1.0
 23
0.0
 33
0.0
 40
0.0
 40
0.0
 40
0.0
 40
0.0
 40
0.2500000000000005
 40
0.2500000000000005
 40
0.3750000000000002
 40
0.3750000000000002
 40
0.437500000000001
 40
0.437500000000001
 40
0.5000000000000018
 40
0.5000000000000018
 40
0.5312500000000011
 40
0.5312500000000011
 40
0.5625000000000003
 40
0.5625000000000003
 40
0.6249999999999999
 40
0.6249999999999999
 40
0.7500000000000001
 40
0.7500000000000001
 40
1.0
 40
1.0
 40
1.0
 40
1.0
 10
148.7998845996328
 20
122.883503514591
 30
0.0
 10
148.7841155547231
 20
122.7954208511001
 30
0.0
 10
148.7675013901625
 20
122.7074760345906
 30
0.0
 10
148.7389692626691
 20
122.5771286673276
 30
0.0
 10
148.7288816291152
 20
122.5338674895255
 30
0.0
 10
148.7113938062663
 20
122.47043171369
 30
0.0
 10
148.70518399834
 20
122.4495175901463
 30
0.0
 10
148.6909061387576
 20
122.4090427984612
 30
0.0
 10
148.6833349764058
 20
122.388565155002
 30
0.0
 10
148.6659151512314
 20
122.3657187754651
 30
0.0
 10
148.6574310687768
 20
122.3591669784214
 30
0.0
 10
148.6413949951593
 20
122.369738353648
 30
0.0
 10
148.6365746228814
 20
122.3818293939319
 30
0.0
 10
148.6251677222756
 20
122.4154726371518
 30
0.0
 10
148.6211467605662
 20
122.4388803164486
 30
0.0
 10
148.6103927487869
 20
122.5094689195097
 30
0.0
 10
148.6065208631643
 20
122.5564339470322
 30
0.0
 10
148.5973528983633
 20
122.6970108116383
 30
0.0
 10
148.5953245638502
 20
122.7906470412579
 30
0.0
 10
148.594924577572
 20
122.8832111062965
 30
0.0
  0
SPLINE
  5
C7
330
1F
100
AcDbEntity
  8
0
  6
Continuous
 62
     7
370
    15
100
AcDbSpline
210
0.0
220
0.0
230
1.0
 70
     8
 71
     3
 72
     8
 73
     4
 74
     0
 42
0.00000001
 43
0.00000001
 12
1.0
 22
0.0
 32
0.0
 13
1.0
 23
0.0
 33
0.0
 40
0.0
 40
0.0
 40
0.0
 40
0.0
 40
1.0
 40
1.0
 40
1.0
 40
1.0
 10
148.9736042340124
 20
123.7085574006255
 30
0.0
 10
148.9084989953422
 20
123.4418108200499
 30
0.0
 10
148.8506116823552
 20
123.1668546359102
 30
0.0
 10
148.7998845996327
 20
122.883503514591
 30
0.0
  0
LINE
  5
C8
330
1F
100
AcDbEntity
  8
0
  6
Continuous
 62
     7
370
    15
100
AcDbLine
 10
126.294924369
 20
123.3439194435
 30
0.0
 11
126.294924369
 21
116.5301059769
 31
0.0
  0
LINE
  5
C9
330
1F
100
AcDbEntity
  8
0
  6
Continuous
 62
     7
370
    15
100
AcDbLine
 10
148.7998845557
 20
133.7621973758
 30
0.0
 11
149.0388402751
 21
133.7682006812
 31
0.0
  0
LINE
  5
CA
330
1F
100
AcDbEntity
  8
0
  6
Continuous
 62
     7
370
    15
100
AcDbLine
 10
148.594924555
 20
124.0382164648
 30
0.0
 11
148.594924555
 21
133.9571110835
 31
0.0
  0
ARC
  5
CB
330
1F
100
AcDbEntity
  8
0
  6
Continuous
 62
     7
370
    15
100
AcDbCircle
 10
148.7948614885
 20
133.9621346059
 30
0.0
 40
0.2000000000000052
100
AcDbArc
 50
181.4391666667
 51
271.4391666667
  0
LINE
  5
CC
330
1F
100
AcDbEntity
  8
0
  6
Continuous
 62
     7
370
    15
100
AcDbLine
 10
127.7949236835
 20
123.7769322866
 30
0.0
 11
127.7949236835
 21
133.4345431929
 31
0.0
  0
LINE
  5
CD
330
1F
100
AcDbEntity
  8
0
  6
Continuous
 62
     7
370
    15
100
AcDbLine
 10
127.7949236835
 20
133.4345431929
 30
0.0
 11
148.594924555
 21
133.9571110835
 31
0.0
  0
LINE
  5
CE
330
1F
100
AcDbEntity
  8
0
  6
Continuous
 62
     7
370
    15
100
AcDbLine
 10
148.594924555
 20
105.9169143369
 30
0.0
 11
148.594924555
 21
115.8358089557
 31
0.0
  0
ARC
  5
CF
330
1F
100
AcDbEntity
  8
0
  6
Continuous
 62
     7
370
    15
100
AcDbCircle
 10
148.7948614885
 20
105.9118908145
 30
0.0
 40
0.2000000000000059
100
AcDbArc
 50
88.5608333333
 51
178.5608333333
  0
LINE
  5
D0
330
1F
100
AcDbEntity
  8
0
  6
Continuous
 62
     7
370
    15
100
AcDbLine
 10
127.7949236835
 20
106.4394822275
 30
0.0
 11
127.7949236835
 21
116.0970931338
 31
0.0
  0
LINE
  5
D1
330
1F
100
AcDbEntity
  8
0
  6
Continuous
 62
     7
370
    15
100
AcDbLine
 10
127.7949236835
 20
106.4394822275
 30
0.0
 11
148.594924555
 21
105.9169143369
 31
0.0
  0
LINE
  5
D2
330
1F
100
AcDbEntity
  8
0
  6
Continuous
 62
     7
370
    15
100
AcDbLine
 10
148.7998845557
 20
106.1118280446
 30
0.0
 11
149.0388402751
 21
106.1058247393
 31
0.0
  0
LINE
  5
D3
330
1F
100
AcDbEntity
  8
0
  6
Continuous
 62
     7
370
    15
100
AcDbLine
 10
126.294924369
 20
132.5685175067
 30
0.0
 11
127.7949236835
 21
133.4345431929
 31
0.0
  0
LINE
  5
D4
330
1F
100
AcDbEntity
  8
0
  6
Continuous
 62
     7
370
    15
100
AcDbLine
 10
126.294924369
 20
123.3439194435
 30
0.0
 11
126.294924369
 21
132.5685175067
 31
0.0
  0
LINE
  5
D5
330
1F
100
AcDbEntity
  8
0
  6
Continuous
 62
     7
370
    15
100
AcDbLine
 10
126.294924369
 20
107.3055079138
 30
0.0
 11
127.7949236835
 21
106.4394822275
 31
0.0
  0
LINE
  5
D6
330
1F
100
AcDbEntity
  8
0
  6
Continuous
 62
     7
370
    15
100
AcDbLine
 10
126.294924369
 20
107.3055079138
 30
0.0
 11
126.294924369
 21
116.5301059769
 31
0.0
  0
SPLINE
  5
D7
330
1F
100
AcDbEntity
  8
0
  6
Continuous
 62
     7
370
    15
100
AcDbSpline
210
0.0
220
0.0
230
1.0
 70
     8
 71
     3
 72
     8
 73
     4
 74
     0
 42
0.00000001
 43
0.00000001
 12
1.0
 22
0.0
 32
0.0
 13
1.0
 23
0.0
 33
0.0
 40
0.000001570291538
 40
0.000001570291538
 40
0.000001570291538
 40
0.000001570291538
 40
0.0000144415848885
 40
0.0000144415848885
 40
0.0000144415848885
 40
0.0000144415848885
 10
234.5969055415088
 20
103.6353247067916
 30
0.0
 10
234.5938761146099
 20
103.638355458705
 30
0.0
 10
234.5908468626808
 20
103.6413860680328
 30
0.0
 10
234.5878177963854
 20
103.6444165247004
 30
0.0
  0
SPLINE
  5
D8
330
1F
100
AcDbEntity
  8
0
  6
Continuous
 62
     7
370
    15
100
AcDbSpline
210
0.0
220
0.0
230
1.0
 70
     8
 71
     3
 72
    10
 73
     6
 74
     0
 42
0.00000001
 43
0.00000001
 12
1.0
 22
0.0
 32
0.0
 13
1.0
 23
0.0
 33
0.0
 40
0.0
 40
0.0
 40
0.0
 40
0.0
 40
0.5
 40
0.5
 40
1.0
 40
1.0
 40
1.0
 40
1.0
 10
234.5878177963855
 20
103.6444165247005
 30
0.0
 10
234.4935918565091
 20
103.7386857152419
 30
0.0
 10
234.3823392473969
 20
103.8123819292763
 30
0.0
 10
234.1397747175686
 20
103.9124244634135
 30
0.0
 10
234.0102813808516
 20
103.937926020416
 30
0.0
 10
233.8807110151989
 20
103.9383372928357
 30
0.0
  0
SPLINE
  5
D9
330
1F
100
AcDbEntity
  8
0
  6
Continuous
 62
     7
370
    15
100
AcDbSpline
210
0.0
220
0.0
230
1.0
 70
     8
 71
     3
 72
    10
 73
     6
 74
     0
 42
0.00000001
 43
0.00000001
 12
1.0
 22
0.0
 32
0.0
 13
1.0
 23
0.0
 33
0.0
 40
0.0
 40
0.0
 40
0.0
 40
0.0
 40
0.5
 40
0.5
 40
1.0
 40
1.0
 40
1.0
 40
1.0
 10
233.8807110151989
 20
135.751337729887
 30
0.0
 10
234.0102721020169
 20
135.7561926379448
 30
0.0
 10
234.1393771779134
 20
135.7846963162425
 30
0.0
 10
234.3820397852947
 20
135.8884906901108
 30
0.0
 10
234.4935742261909
 20
135.9630317136881
 30
0.0
 10
234.5878177963858
 20
136.0573583719815
 30
0.0
  0
SPLINE
  5
DA
330
1F
100
AcDbEntity
  8
0
  6
Continuous
 62
     7
370
    15
100
AcDbSpline
210
0.0
220
0.0
230
1.0
 70
     8
 71
     3
 72
     8
 73
     4
 74
     0
 42
0.00000001
 43
0.00000001
 12
1.0
 22
0.0
 32
0.0
 13
1.0
 23
0.0
 33
0.0
 40
0.0
 40
0.0
 40
0.0
 40
0.0
 40
1.0
 40
1.0
 40
1.0
 40
1.0
 10
234.5878177963854
 20
136.0573583719819
 30
0.0
 10
234.5908468644176
 20
136.0603901105358
 30
0.0
 10
234.5938761128726
 20
136.0634213565722
 30
0.0
 10
234.5969055415088
 20
136.0664521102237
 30
0.0
  0
ELLIPSE
  5
DB
330
1F
100
AcDbEntity
  8
0
  6
Continuous
 62
     7
370
    15
100
AcDbEllipse
 10
254.5457256624
 20
119.9370127102
 30
0.0
 11
-11.76369068746817
 21
16.48124712370798
 31
0.0
210
0.0
220
0.0
230
1.0
 40
0.0668534593
 41
6.090794017965139
 42
6.235504004580398
  0
LINE
  5
DC
330
1F
100
AcDbEntity
  8
0
  6
Continuous
 62
     7
370
    15
100
AcDbLine
 10
234.7949244584
 20
136.2645503065
 30
0.0
 11
243.2097517456
 21
136.2645503065
 31
0.0
  0
LINE
  5
DD
330
1F
100
AcDbEntity
  8
0
  6
Continuous
 62
     7
370
    15
100
AcDbLine
 10
234.7949244584
 20
136.4370126208
 30
0.0
 11
234.7949244584
 21
136.2645503065
 31
0.0
  0
LINE
  5
DE
330
1F
100
AcDbEntity
  8
0
  6
Continuous
 62
     7
370
    15
100
AcDbLine
 10
234.5969029273
 20
136.0664524069
 30
0.0
 11
234.7949244584
 21
136.2645503065
 31
0.0
  0
LINE
  5
DF
330
1F
100
AcDbEntity
  8
0
  6
Continuous
 62
     7
370
    15
100
AcDbLine
 10
258.5927866901
 20
114.3488239428
 30
0.0
 11
258.9094959701
 21
110.7375750249
 31
0.0
  0
ARC
  5
E0
330
1F
100
AcDbEntity
  8
0
  6
Continuous
 62
     7
370
    15
100
AcDbCircle
 10
247.6303151732
 20
110.5938548923
 30
0.0
 40
2.097488551940894
100
AcDbArc
 50
26.9417835169
 51
241.6658773991
  0
ELLIPSE
  5
E1
330
1F
100
AcDbEntity
  8
0
  6
Continuous
 62
     7
370
    15
100
AcDbEllipse
 10
269.3101046709
 20
116.5383550748
 30
0.0
 11
3113.331223476201
 21
-271.0557416021153
 31
0.0
210
0.0
220
0.0
230
1.0
 40
0.0060650906
 41
4.702857618506777
 42
4.705909117463257
  0
SPLINE
  5
E2
330
1F
100
AcDbEntity
  8
0
  6
Continuous
 62
     7
370
    15
100
AcDbSpline
210
0.0
220
0.0
230
1.0
 70
     8
 71
     3
 72
     8
 73
     4
 74
     0
 42
0.00000001
 43
0.00000001
 12
1.0
 22
0.0
 32
0.0
 13
1.0
 23
0.0
 33
0.0
 40
0.0
 40
0.0
 40
0.0
 40
0.0
 40
1.0
 40
1.0
 40
1.0
 40
1.0
 10
237.9923644813843
 20
100.2400681188106
 30
0.0
 10
236.8603117266926
 20
101.3715882103262
 30
0.0
 10
235.7284433995243
 20
102.5032919353585
 30
0.0
 10
234.5969055415089
 20
103.6353247067917
 30
0.0
  0
LINE
  5
E3
330
1F
100
AcDbEntity
  8
0
  6
Continuous
 62
     7
370
    15
100
AcDbLine
 10
243.2097517456
 20
136.2645503065
 30
0.0
 11
258.5927866901
 21
114.3488239428
 31
0.0
  0
ARC
  5
E4
330
1F
100
AcDbEntity
  8
0
  6
Continuous
 62
     7
370
    15
100
AcDbCircle
 10
247.6240724487
 20
110.9291846765
 30
0.0
 40
2.094956454372229
100
AcDbArc
 50
184.6265617075
 51
240.8610077175
  0
SPLINE
  5
E5
330
1F
100
AcDbEntity
  8
0
  6
HIDDEN
 62
     7
370
     0
100
AcDbSpline
210
0.0
220
0.0
230
1.0
 70
     8
 71
     3
 72
    58
 73
    54
 74
     0
 42
0.00000001
 43
0.00000001
 12
1.0
 22
0.0
 32
0.0
 13
1.0
 23
0.0
 33
0.0
 40
-0.0624999999999996
 40
-0.0624999999999996
 40
0.0
 40
0.0
 40
0.0312500000000002
 40
0.0312500000000002
 40
0.0625000000000005
 40
0.0625000000000005
 40
0.0937500000000007
 40
0.0937500000000007
 40
0.1250000000000009
 40
0.1250000000000009
 40
0.1875000000000009
 40
0.1875000000000009
 40
0.2500000000000011
 40
0.2500000000000011
 40
0.2812500000000011
 40
0.2812500000000011
 40
0.3125000000000012
 40
0.3125000000000012
 40
0.3437500000000012
 40
0.3437500000000012
 40
0.3750000000000013
 40
0.3750000000000013
 40
0.4062500000000014
 40
0.4062500000000014
 40
0.4375000000000014
 40
0.4375000000000014
 40
0.4687500000000015
 40
0.4687500000000015
 40
0.5000000000000016
 40
0.5000000000000016
 40
0.5625000000000016
 40
0.5625000000000016
 40
0.6250000000000016
 40
0.6250000000000016
 40
0.6562500000000014
 40
0.6562500000000014
 40
0.6875000000000013
 40
0.6875000000000013
 40
0.7187500000000012
 40
0.7187500000000012
 40
0.7500000000000011
 40
0.7500000000000011
 40
0.7812500000000011
 40
0.7812500000000011
 40
0.812500000000001
 40
0.812500000000001
 40
0.8437500000000009
 40
0.8437500000000009
 40
0.8750000000000008
 40
0.8750000000000008
 40
0.9375000000000004
 40
0.9375000000000004
 40
1.0
 40
1.0
 40
1.03125
 40
1.03125
 10
160.294924577572
 20
119.6725765957791
 30
0.0
 10
160.294924577572
 20
120.0692307674511
 30
0.0
 10
160.3079066152442
 20
120.1992229282916
 30
0.0
 10
160.3587574175025
 20
120.4549425407439
 30
0.0
 10
160.3972493215554
 20
120.582001224605
 30
0.0
 10
160.4976646072819
 20
120.8241644222639
 30
0.0
 10
160.5591007465549
 20
120.9390062066486
 30
0.0
 10
160.7042342228657
 20
121.1563484042188
 30
0.0
 10
160.7886559117169
 20
121.2591900520665
 30
0.0
 10
161.0652560858817
 20
121.5357335328181
 30
0.0
 10
161.2882549971488
 20
121.6847161689502
 30
0.0
 10
161.7694895147345
 20
121.8842592325049
 30
0.0
 10
162.0327889302435
 20
121.9368697055364
 30
0.0
 10
162.4243523702837
 20
121.9370837642889
 30
0.0
 10
162.5569399808884
 20
121.9240849148833
 30
0.0
 10
162.8135056864877
 20
121.8730348308569
 30
0.0
 10
162.9382154526682
 20
121.8352635920447
 30
0.0
 10
163.1804546376952
 20
121.7350716839323
 30
0.0
 10
163.297471291469
 20
121.6724862901077
 30
0.0
 10
163.5141144963152
 20
121.5277812043972
 30
0.0
 10
163.6151212527737
 20
121.445161863017
 30
0.0
 10
163.8019273484303
 20
121.2585178282269
 30
0.0
 10
163.8846408839622
 20
121.1575719802671
 30
0.0
 10
164.0295110133375
 20
120.9410907765854
 30
0.0
 10
164.0921813094342
 20
120.8241736115769
 30
0.0
 10
164.1926092474704
 20
120.5819771423784
 30
0.0
 10
164.2304804264001
 20
120.457316151475
 30
0.0
 10
164.2817428241758
 20
120.200916802407
 30
0.0
 10
164.2948764648165
 20
120.0683058771091
 30
0.0
 10
164.2950203979553
 20
119.676631264774
 30
0.0
 10
164.2426551406905
 20
119.4133472451134
 30
0.0
 10
164.0434944773399
 20
118.9318345312536
 30
0.0
 10
163.8946968039779
 20
118.7087134442087
 30
0.0
 10
163.6183961453918
 20
118.4318812957011
 30
0.0
 10
163.515631098332
 20
118.3473740814168
 30
0.0
 10
163.2984138245376
 20
118.2020531397309
 30
0.0
 10
163.1836441310998
 20
118.1405309164688
 30
0.0
 10
162.9416575939552
 20
118.0399345131969
 30
0.0
 10
162.8145750210638
 20
118.0013066251082
 30
0.0
 10
162.5589003210606
 20
117.9502285150421
 30
0.0
 10
162.4289598037164
 20
117.9371393752749
 30
0.0
 10
162.1646964359551
 20
117.9368878569163
 30
0.0
 10
162.0344855423081
 20
117.9497623269727
 30
0.0
 10
161.7787355968745
 20
118.0003812241048
 30
0.0
 10
161.6517182125071
 20
118.0387290429005
 30
0.0
 10
161.4093664847555
 20
118.1389631630939
 30
0.0
 10
161.2944637054691
 20
118.2003073500839
 30
0.0
 10
161.0770415403201
 20
118.3452123546131
 30
0.0
 10
160.9741051428754
 20
118.429551246735
 30
0.0
 10
160.6972679857185
 20
118.7059523597768
 30
0.0
 10
160.5481127446544
 20
118.9287959928193
 30
0.0
 10
160.3481421594191
 20
119.4098592740698
 30
0.0
 10
160.294924577572
 20
119.6725765957791
 30
0.0
 10
160.294924577572
 20
120.0692307674511
 30
0.0
  0
SPLINE
  5
E6
330
1F
100
AcDbEntity
  8
0
  6
HIDDEN
 62
     7
370
     0
100
AcDbSpline
210
0.0
220
0.0
230
1.0
 70
     8
 71
     3
 72
    12
 73
     8
 74
     0
 42
0.00000001
 43
0.00000001
 12
1.0
 22
0.0
 32
0.0
 13
1.0
 23
0.0
 33
0.0
 40
0.0
 40
0.0
 40
0.0
 40
0.0
 40
0.2500000000000026
 40
0.2500000000000026
 40
0.5000000000000052
 40
0.5000000000000052
 40
1.0
 40
1.0
 40
1.0
 40
1.0
 10
157.2268265795712
 20
114.1077997145755
 30
0.0
 10
157.1893146935265
 20
114.1077997145755
 30
0.0
 10
157.1540273458218
 20
114.0929949002887
 30
0.0
 10
157.0950974975834
 20
114.0494030271629
 30
0.0
 10
157.0715717711143
 20
114.0218896010769
 30
0.0
 10
157.0113129833462
 20
113.9327578689633
 30
0.0
 10
156.9857182210569
 20
113.8663720183455
 30
0.0
 10
156.9670189584359
 20
113.7987675831681
 30
0.0
  0
LINE
  5
E7
330
1F
100
AcDbEntity
  8
0
  6
HIDDEN
 62
     7
370
     0
100
AcDbLine
 10
159.3630224968
 20
114.1077995231
 30
0.0
 11
157.226826487
 21
114.1077995231
 31
0.0
  0
SPLINE
  5
E8
330
1F
100
AcDbEntity
  8
0
  6
HIDDEN
 62
     7
370
     0
100
AcDbSpline
210
0.0
220
0.0
230
1.0
 70
     8
 71
     3
 72
    12
 73
     8
 74
     0
 42
0.00000001
 43
0.00000001
 12
1.0
 22
0.0
 32
0.0
 13
1.0
 23
0.0
 33
0.0
 40
0.0
 40
0.0
 40
0.0
 40
0.0
 40
0.5000000000000029
 40
0.5000000000000029
 40
0.7500000000000014
 40
0.7500000000000014
 40
1.0
 40
1.0
 40
1.0
 40
1.0
 10
159.6228301967082
 20
113.7987675831681
 30
0.0
 10
159.6041369635777
 20
113.8663502196084
 30
0.0
 10
159.5784816661659
 20
113.9328327890859
 30
0.0
 10
159.5183210434795
 20
114.0218278719834
 30
0.0
 10
159.4942487317252
 20
114.0498297689825
 30
0.0
 10
159.4358672113746
 20
114.0929061696477
 30
0.0
 10
159.4003983837216
 20
114.1077997145755
 30
0.0
 10
159.3630225755728
 20
114.1077997145755
 30
0.0
  0
ELLIPSE
  5
E9
330
1F
100
AcDbEntity
  8
0
  6
HIDDEN
 62
     7
370
     0
100
AcDbEllipse
 10
149.3459954051
 20
119.9370127102
 30
0.0
 11
-9.367417879781755
 21
19.74174915274996
 31
0.0
210
0.0
220
0.0
230
1.0
 40
0.3419987131
 41
3.292664382516901
 42
4.239566697061004
  0
SPLINE
  5
EA
330
1F
100
AcDbEntity
  8
0
  6
HIDDEN
 62
     7
370
     0
100
AcDbSpline
210
0.0
220
0.0
230
1.0
 70
     8
 71
     3
 72
    12
 73
     8
 74
     0
 42
0.00000001
 43
0.00000001
 12
1.0
 22
0.0
 32
0.0
 13
1.0
 23
0.0
 33
0.0
 40
0.0
 40
0.0
 40
0.0
 40
0.0
 40
0.2499999999999981
 40
0.2499999999999981
 40
0.4999999999999962
 40
0.4999999999999962
 40
1.0
 40
1.0
 40
1.0
 40
1.0
 10
159.3630225755728
 20
100.8053563299938
 30
0.0
 10
159.4005344616175
 20
100.8053563299938
 30
0.0
 10
159.4358218093222
 20
100.8098598742563
 30
0.0
 10
159.4947516575606
 20
100.8232330737096
 30
0.0
 10
159.5182773840297
 20
100.8317179762807
 30
0.0
 10
159.5785361717978
 20
100.8594657801153
 30
0.0
 10
159.6041309340871
 20
100.8804556438557
 30
0.0
 10
159.6228301967082
 20
100.9022564270452
 30
0.0
  0
LINE
  5
EB
330
1F
100
AcDbEntity
  8
0
  6
HIDDEN
 62
     7
370
     0
100
AcDbLine
 10
157.226826487
 20
100.8053559741
 30
0.0
 11
159.3630224968
 21
100.8053559741
 31
0.0
  0
SPLINE
  5
EC
330
1F
100
AcDbEntity
  8
0
  6
HIDDEN
 62
     7
370
     0
100
AcDbSpline
210
0.0
220
0.0
230
1.0
 70
     8
 71
     3
 72
    12
 73
     8
 74
     0
 42
0.00000001
 43
0.00000001
 12
1.0
 22
0.0
 32
0.0
 13
1.0
 23
0.0
 33
0.0
 40
0.0
 40
0.0
 40
0.0
 40
0.0
 40
0.5000000000000013
 40
0.5000000000000013
 40
0.7500000000000007
 40
0.7500000000000007
 40
1.0
 40
1.0
 40
1.0
 40
1.0
 10
156.9670189584359
 20
100.9022564270452
 30
0.0
 10
156.9857121915663
 20
100.8804626734172
 30
0.0
 10
157.0113674889781
 20
100.8594425117076
 30
0.0
 10
157.0715281116645
 20
100.8317371657439
 30
0.0
 10
157.0956004234189
 20
100.8231019495505
 30
0.0
 10
157.1539819437694
 20
100.8098873043239
 30
0.0
 10
157.1894507714225
 20
100.8053563299938
 30
0.0
 10
157.2268265795712
 20
100.8053563299938
 30
0.0
  0
ELLIPSE
  5
ED
330
1F
100
AcDbEntity
  8
0
  6
HIDDEN
 62
     7
370
     0
100
AcDbEllipse
 10
167.24385375
 20
119.9370127102
 30
0.0
 11
9.367417879781613
 21
19.74174915274996
 31
0.0
210
0.0
220
0.0
230
1.0
 40
0.3419987131
 41
2.04361861011859
 42
2.990520924662721
  0
SPLINE
  5
EE
330
1F
100
AcDbEntity
  8
0
  6
HIDDEN
 62
     7
370
     0
100
AcDbSpline
210
0.0
220
0.0
230
1.0
 70
     8
 71
     3
 72
    12
 73
     8
 74
     0
 42
0.00000001
 43
0.00000001
 12
1.0
 22
0.0
 32
0.0
 13
1.0
 23
0.0
 33
0.0
 40
0.0
 40
0.0
 40
0.0
 40
0.0
 40
0.2500000000000012
 40
0.2500000000000012
 40
0.5000000000000023
 40
0.5000000000000023
 40
1.0
 40
1.0
 40
1.0
 40
1.0
 10
157.2268265795712
 20
139.0686690904606
 30
0.0
 10
157.1893146935265
 20
139.0686690904606
 30
0.0
 10
157.1540273458218
 20
139.064165546198
 30
0.0
 10
157.0950974975834
 20
139.0507923467447
 30
0.0
 10
157.0715717711143
 20
139.0423074441736
 30
0.0
 10
157.0113129833462
 20
139.014559640339
 30
0.0
 10
156.9857182210569
 20
138.9935697765987
 30
0.0
 10
156.9670189584359
 20
138.9717689934091
 30
0.0
  0
LINE
  5
EF
330
1F
100
AcDbEntity
  8
0
  6
HIDDEN
 62
     7
370
     0
100
AcDbLine
 10
159.3630224968
 20
139.0686694464
 30
0.0
 11
157.226826487
 21
139.0686694464
 31
0.0
  0
SPLINE
  5
F0
330
1F
100
AcDbEntity
  8
0
  6
HIDDEN
 62
     7
370
     0
100
AcDbSpline
210
0.0
220
0.0
230
1.0
 70
     8
 71
     3
 72
    12
 73
     8
 74
     0
 42
0.00000001
 43
0.00000001
 12
1.0
 22
0.0
 32
0.0
 13
1.0
 23
0.0
 33
0.0
 40
0.0
 40
0.0
 40
0.0
 40
0.0
 40
0.5000000000000029
 40
0.5000000000000029
 40
0.7500000000000014
 40
0.7500000000000014
 40
1.0
 40
1.0
 40
1.0
 40
1.0
 10
159.6228301967082
 20
138.9717689934091
 30
0.0
 10
159.6041369635777
 20
138.9935627470371
 30
0.0
 10
159.5784816661659
 20
139.0145829087467
 30
0.0
 10
159.5183210434795
 20
139.0422882547104
 30
0.0
 10
159.4942487317252
 20
139.0509234709038
 30
0.0
 10
159.4358672113746
 20
139.0641381161304
 30
0.0
 10
159.4003983837216
 20
139.0686690904606
 30
0.0
 10
159.3630225755728
 20
139.0686690904606
 30
0.0
  0
ELLIPSE
  5
F1
330
1F
100
AcDbEntity
  8
0
  6
HIDDEN
 62
     7
370
     0
100
AcDbEllipse
 10
149.3459954051
 20
119.9370127102
 30
0.0
 11
9.36741787978184
 21
19.74174915274996
 31
0.0
210
0.0
220
0.0
230
1.0
 40
0.3419987131
 41
5.185211263708412
 42
6.132113578252573
  0
SPLINE
  5
F2
330
1F
100
AcDbEntity
  8
0
  6
HIDDEN
 62
     7
370
     0
100
AcDbSpline
210
0.0
220
0.0
230
1.0
 70
     8
 71
     3
 72
    12
 73
     8
 74
     0
 42
0.00000001
 43
0.00000001
 12
1.0
 22
0.0
 32
0.0
 13
1.0
 23
0.0
 33
0.0
 40
0.0
 40
0.0
 40
0.0
 40
0.0
 40
0.2500000000000031
 40
0.2500000000000031
 40
0.5000000000000061
 40
0.5000000000000061
 40
1.0
 40
1.0
 40
1.0
 40
1.0
 10
159.3630225755728
 20
125.766225705879
 30
0.0
 10
159.4005344616175
 20
125.766225705879
 30
0.0
 10
159.4358218093222
 20
125.7810305201658
 30
0.0
 10
159.4947516575606
 20
125.8246223932916
 30
0.0
 10
159.5182773840297
 20
125.8521358193776
 30
0.0
 10
159.5785361717978
 20
125.9412675514912
 30
0.0
 10
159.6041309340871
 20
126.007653402109
 30
0.0
 10
159.6228301967082
 20
126.0752578372864
 30
0.0
  0
LINE
  5
F3
330
1F
100
AcDbEntity
  8
0
  6
HIDDEN
 62
     7
370
     0
100
AcDbLine
 10
157.226826487
 20
125.7662258973
 30
0.0
 11
159.3630224968
 21
125.7662258973
 31
0.0
  0
SPLINE
  5
F4
330
1F
100
AcDbEntity
  8
0
  6
HIDDEN
 62
     7
370
     0
100
AcDbSpline
210
0.0
220
0.0
230
1.0
 70
     8
 71
     3
 72
    12
 73
     8
 74
     0
 42
0.00000001
 43
0.00000001
 12
1.0
 22
0.0
 32
0.0
 13
1.0
 23
0.0
 33
0.0
 40
0.0
 40
0.0
 40
0.0
 40
0.0
 40
0.5000000000000013
 40
0.5000000000000013
 40
0.7500000000000007
 40
0.7500000000000007
 40
1.0
 40
1.0
 40
1.0
 40
1.0
 10
156.9670189584359
 20
126.0752578372864
 30
0.0
 10
156.9857121915663
 20
126.0076752008461
 30
0.0
 10
157.0113674889781
 20
125.9411926313686
 30
0.0
 10
157.0715281116645
 20
125.8521975484711
 30
0.0
 10
157.0956004234189
 20
125.8241956514719
 30
0.0
 10
157.1539819437694
 20
125.7811192508068
 30
0.0
 10
157.1894507714225
 20
125.766225705879
 30
0.0
 10
157.2268265795712
 20
125.766225705879
 30
0.0
  0
ELLIPSE
  5
F5
330
1F
100
AcDbEntity
  8
0
  6
HIDDEN
 62
     7
370
     0
100
AcDbEllipse
 10
167.24385375
 20
119.9370127102
 30
0.0
 11
-9.367417879781698
 21
19.74174915274996
 31
0.0
210
0.0
220
0.0
230
1.0
 40
0.3419987131
 41
0.1510717289270585
 42
1.09797404347119
  0
LINE
  5
F6
330
1F
100
AcDbEntity
  8
0
  6
HIDDEN
 62
     7
370
     0
100
AcDbLine
 10
150.2949245776
 20
100.2370126476
 30
0.0
 11
150.2949245776
 21
139.6370127728
 31
0.0
  0
LINE
  5
F7
330
1F
100
AcDbEntity
  8
0
  6
HIDDEN
 62
     7
370
     0
100
AcDbLine
 10
170.2949241305
 20
100.537012138
 30
0.0
 11
170.2949241305
 21
139.3370132824
 31
0.0
  0
LINE
  5
F8
330
1F
100
AcDbEntity
  8
0
  6
HIDDEN
 62
     7
370
     0
100
AcDbLine
 10
170.2949241305
 20
101.9370134851
 30
0.0
 11
170.2949241305
 21
137.9183594068
 31
0.0
  0
SPLINE
  5
F9
330
1F
100
AcDbEntity
  8
0
  6
HIDDEN
 62
     7
370
     0
100
AcDbSpline
210
0.0
220
0.0
230
1.0
 70
     8
 71
     3
 72
    66
 73
    62
 74
     0
 42
0.00000001
 43
0.00000001
 12
1.0
 22
0.0
 32
0.0
 13
1.0
 23
0.0
 33
0.0
 40
-0.0312500000000009
 40
-0.0312500000000009
 40
0.0
 40
0.0
 40
0.03125
 40
0.03125
 40
0.0624999999999999
 40
0.0624999999999999
 40
0.0937499999999998
 40
0.0937499999999998
 40
0.1249999999999998
 40
0.1249999999999998
 40
0.1562499999999997
 40
0.1562499999999997
 40
0.1874999999999996
 40
0.1874999999999996
 40
0.2187499999999996
 40
0.2187499999999996
 40
0.2499999999999995
 40
0.2499999999999995
 40
0.2812499999999994
 40
0.2812499999999994
 40
0.3124999999999994
 40
0.3124999999999994
 40
0.3437499999999994
 40
0.3437499999999994
 40
0.3749999999999993
 40
0.3749999999999993
 40
0.4062499999999993
 40
0.4062499999999993
 40
0.4374999999999994
 40
0.4374999999999994
 40
0.4687499999999994
 40
0.4687499999999994
 40
0.4999999999999994
 40
0.4999999999999994
 40
0.5624999999999968
 40
0.5624999999999968
 40
0.5937499999999968
 40
0.5937499999999968
 40
0.6249999999999968
 40
0.6249999999999968
 40
0.6562499999999967
 40
0.6562499999999967
 40
0.6874999999999967
 40
0.6874999999999967
 40
0.7187499999999966
 40
0.7187499999999966
 40
0.7499999999999966
 40
0.7499999999999966
 40
0.7812499999999966
 40
0.7812499999999966
 40
0.8124999999999964
 40
0.8124999999999964
 40
0.8437499999999964
 40
0.8437499999999964
 40
0.8749999999999964
 40
0.8749999999999964
 40
0.9374999999999982
 40
0.9374999999999982
 40
0.9687499999999991
 40
0.9687499999999991
 40
1.0
 40
1.0
 40
1.03125
 40
1.03125
 10
222.1294908298507
 20
123.8106623969324
 30
0.0
 10
222.4603583252934
 20
123.8106623969324
 30
0.0
 10
222.6229760730208
 20
123.8266429729418
 30
0.0
 10
222.9428259317559
 20
123.8890958247687
 30
0.0
 10
223.1017344236125
 20
123.9363421260732
 30
0.0
 10
223.404357472938
 20
124.0590833214974
 30
0.0
 10
223.5478475264639
 20
124.1340148607519
 30
0.0
 10
223.819407501814
 20
124.3102904393192
 30
0.0
 10
223.9477850583737
 20
124.4124110014525
 30
0.0
 10
224.1779921748717
 20
124.6343654109229
 30
0.0
 10
224.2813868187837
 20
124.7550302629539
 30
0.0
 10
224.4641567858993
 20
125.0158055430273
 30
0.0
 10
224.5416650100748
 20
125.1536371351106
 30
0.0
 10
224.6664325838755
 20
125.4374858695374
 30
0.0
 10
224.7145683636036
 20
125.5856042342121
 30
0.0
 10
224.7788899984957
 20
125.8866132610822
 30
0.0
 10
224.7948312793349
 20
126.0370616139911
 30
0.0
 10
224.7950170669956
 20
126.3377419855088
 30
0.0
 10
224.7787290552087
 20
126.489474317486
 30
0.0
 10
224.7148451607794
 20
126.7809638784705
 30
0.0
 10
224.6675807280116
 20
126.9217230430402
 30
0.0
 10
224.5421726171865
 20
127.1935387556907
 30
0.0
 10
224.4640058144267
 20
127.3236819176809
 30
0.0
 10
224.2831981809108
 20
127.563556701467
 30
0.0
 10
224.1796617035849
 20
127.6750176951177
 30
0.0
 10
223.9468284971449
 20
127.8793596076275
 30
0.0
 10
223.8208581623524
 20
127.9694252774913
 30
0.0
 10
223.5504029469095
 20
128.1268169907354
 30
0.0
 10
223.4041416945247
 20
128.1946831901108
 30
0.0
 10
223.101699603727
 20
128.3030314067285
 30
0.0
 10
222.9458801231033
 20
128.3438226329474
 30
0.0
 10
222.625029361903
 20
128.399032198981
 30
0.0
 10
222.4591686063082
 20
128.4131321778521
 30
0.0
 10
221.9693425728683
 20
128.4132951534268
 30
0.0
 10
221.6399003168417
 20
128.3571281165786
 30
0.0
 10
221.188442403305
 20
128.1957952248889
 30
0.0
 10
221.0427230249658
 20
128.1285465627991
 30
0.0
 10
220.7698999900837
 20
127.9701289429355
 30
0.0
 10
220.6441547685386
 20
127.8800925205928
 30
0.0
 10
220.4134888198102
 20
127.6781724998524
 30
0.0
 10
220.3079181129075
 20
127.56504871635
 30
0.0
 10
220.1265327253064
 20
127.3247835633106
 30
0.0
 10
220.0495873254573
 20
127.1970003860288
 30
0.0
 10
219.9236275591842
 20
126.9253313376189
 30
0.0
 10
219.8754154423991
 20
126.7822191202352
 30
0.0
 10
219.8114964937398
 20
126.4918062057593
 30
0.0
 10
219.7950626063905
 20
126.342702645873
 30
0.0
 10
219.7947882717835
 20
126.0385397407306
 30
0.0
 10
219.8108718777137
 20
125.8879054915087
 30
0.0
 10
219.8742577640668
 20
125.5895232606476
 30
0.0
 10
219.9223837862604
 20
125.4401731230992
 30
0.0
 10
220.0475895512301
 20
125.1546565569351
 30
0.0
 10
220.1242502619881
 20
125.0182925616071
 30
0.0
 10
220.3055966606747
 20
124.7586996372794
 30
0.0
 10
220.4108336883157
 20
124.6354932419826
 30
0.0
 10
220.7557782440784
 20
124.3024930512599
 30
0.0
 10
221.0341737713374
 20
124.1207561251481
 30
0.0
 10
221.4850901152132
 20
123.9374205790429
 30
0.0
 10
221.6430382965128
 20
123.8900366466814
 30
0.0
 10
221.9660388767299
 20
123.8266455290857
 30
0.0
 10
222.1294908298507
 20
123.8106623969324
 30
0.0
 10
222.4603583252934
 20
123.8106623969324
 30
0.0
  0
LINE
  5
FA
330
1F
100
AcDbEntity
  8
0
  6
HIDDEN
 62
     7
370
     0
100
AcDbLine
 10
150.2949245776
 20
104.1370134732
 30
0.0
 11
150.2949245776
 21
135.7185624471
 31
0.0
  0
SPLINE
  5
FB
330
1F
100
AcDbEntity
  8
0
  6
HIDDEN
 62
     7
370
     0
100
AcDbSpline
210
0.0
220
0.0
230
1.0
 70
     8
 71
     3
 72
    18
 73
    14
 74
     0
 42
0.00000001
 43
0.00000001
 12
1.0
 22
0.0
 32
0.0
 13
1.0
 23
0.0
 33
0.0
 40
0.0
 40
0.0
 40
0.0
 40
0.0
 40
0.25
 40
0.25
 40
0.5
 40
0.5
 40
0.625
 40
0.625
 40
0.75
 40
0.75
 40
0.875
 40
0.875
 40
1.0
 40
1.0
 40
1.0
 40
1.0
 10
149.038840260009
 20
129.7614526283784
 30
0.0
 10
149.0731413045418
 20
129.6534424425809
 30
0.0
 10
149.1109615758386
 20
129.5461653545529
 30
0.0
 10
149.1975798962994
 20
129.3346686572363
 30
0.0
 10
149.2459512310429
 20
129.2302823070666
 30
0.0
 10
149.3353542131614
 20
129.0794073844223
 30
0.0
 10
149.3679514970386
 20
129.0300623813868
 30
0.0
 10
149.4443334009835
 20
128.9354567429165
 30
0.0
 10
149.4873718383243
 20
128.8904608081619
 30
0.0
 10
149.5931848711561
 20
128.819533035504
 30
0.0
 10
149.6582232958872
 20
128.7955864915974
 30
0.0
 10
149.7913753676898
 20
128.8078671556682
 30
0.0
 10
149.850744548153
 20
128.8411841136732
 30
0.0
 10
149.8999476886968
 20
128.8820189998978
 30
0.0
  0
SPLINE
  5
FC
330
1F
100
AcDbEntity
  8
0
  6
HIDDEN
 62
     7
370
     0
100
AcDbSpline
210
0.0
220
0.0
230
1.0
 70
     8
 71
     3
 72
    16
 73
    12
 74
     0
 42
0.00000001
 43
0.00000001
 12
1.0
 22
0.0
 32
0.0
 13
1.0
 23
0.0
 33
0.0
 40
0.0
 40
0.0
 40
0.0
 40
0.0
 40
0.0624999999999995
 40
0.0624999999999995
 40
0.1249999999999991
 40
0.1249999999999991
 40
0.2500000000000004
 40
0.2500000000000004
 40
0.4999999999999987
 40
0.4999999999999987
 40
1.0
 40
1.0
 40
1.0
 40
1.0
 10
149.8999476886659
 20
128.8820189999273
 30
0.0
 10
149.9120175219418
 20
128.8920360489076
 30
0.0
 10
149.9262931768751
 20
128.9009951559633
 30
0.0
 10
149.9577575889995
 20
128.9088655513575
 30
0.0
 10
149.9732581138099
 20
128.9065080607152
 30
0.0
 10
150.0086970104168
 20
128.8895323685372
 30
0.0
 10
150.0222896265202
 20
128.8689838773696
 30
0.0
 10
150.055283944913
 20
128.8070415503559
 30
0.0
 10
150.0660713382318
 20
128.7606460001508
 30
0.0
 10
150.0911245855109
 20
128.6177099714562
 30
0.0
 10
150.0949245775722
 20
128.5181472545708
 30
0.0
 10
150.0949245775722
 20
128.4163798499242
 30
0.0
  0
LINE
  5
FD
330
1F
100
AcDbEntity
  8
0
  6
HIDDEN
 62
     7
370
     0
100
AcDbLine
 10
150.0949245826
 20
111.4576456999
 30
0.0
 11
150.0949245826
 21
128.4163797205
 31
0.0
  0
SPLINE
  5
FE
330
1F
100
AcDbEntity
  8
0
  6
HIDDEN
 62
     7
370
     0
100
AcDbSpline
210
0.0
220
0.0
230
1.0
 70
     8
 71
     3
 72
    16
 73
    12
 74
     0
 42
0.00000001
 43
0.00000001
 12
1.0
 22
0.0
 32
0.0
 13
1.0
 23
0.0
 33
0.0
 40
0.0
 40
0.0
 40
0.0
 40
0.0
 40
0.4999999999999973
 40
0.4999999999999973
 40
0.7500000000000007
 40
0.7500000000000007
 40
0.8750000000000022
 40
0.8750000000000022
 40
0.9375000000000011
 40
0.9375000000000011
 40
1.0
 40
1.0
 40
1.0
 40
1.0
 10
150.094924577572
 20
111.4576455705299
 30
0.0
 10
150.094924577572
 20
111.3556354169498
 30
0.0
 10
150.0910411524131
 20
111.2561110416966
 30
0.0
 10
150.0662258271384
 20
111.1141259456859
 30
0.0
 10
150.0553863794259
 20
111.0671326451155
 30
0.0
 10
150.0221705973771
 20
111.0048399147538
 30
0.0
 10
150.0087888537483
 20
110.9845584824687
 30
0.0
 10
149.9732792038861
 20
110.9675167742683
 30
0.0
 10
149.9578622373853
 20
110.9651305192522
 30
0.0
 10
149.9261612152367
 20
110.9730664491102
 30
0.0
 10
149.9120149302859
 20
110.9819915224848
 30
0.0
 10
149.8999476886962
 20
110.9920064205567
 30
0.0
  0
SPLINE
  5
FF
330
1F
100
AcDbEntity
  8
0
  6
HIDDEN
 62
     7
370
     0
100
AcDbSpline
210
0.0
220
0.0
230
1.0
 70
     8
 71
     3
 72
    18
 73
    14
 74
     0
 42
0.00000001
 43
0.00000001
 12
1.0
 22
0.0
 32
0.0
 13
1.0
 23
0.0
 33
0.0
 40
0.0
 40
0.0
 40
0.0
 40
0.0
 40
0.1250000000000003
 40
0.1250000000000003
 40
0.2500000000000006
 40
0.2500000000000006
 40
0.3750000000000008
 40
0.3750000000000008
 40
0.5000000000000011
 40
0.5000000000000011
 40
0.7500000000000006
 40
0.7500000000000006
 40
1.0
 40
1.0
 40
1.0
 40
1.0
 10
149.8999476887025
 20
110.9920064205641
 30
0.0
 10
149.8512421965603
 20
111.0324282962456
 30
0.0
 10
149.7927320882335
 20
111.0654604177133
 30
0.0
 10
149.6610029699414
 20
111.0787375696661
 30
0.0
 10
149.5962440336008
 20
111.055783982686
 30
0.0
 10
149.4910330607412
 20
110.9867307857664
 30
0.0
 10
149.4478166853013
 20
110.9422631339255
 30
0.0
 10
149.3716381801893
 20
110.8490934745554
 30
0.0
 10
149.3387832188095
 20
110.7999511049946
 30
0.0
 10
149.2484149389757
 20
110.6487413700548
 30
0.0
 10
149.1989917046056
 20
110.5425866005265
 30
0.0
 10
149.1113432495575
 20
110.3290049848651
 30
0.0
 10
149.0732840773546
 20
110.2210325536298
 30
0.0
 10
149.038840260009
 20
110.1125727920758
 30
0.0
  0
SPLINE
  5
100
330
1F
100
AcDbEntity
  8
0
  6
HIDDEN
 62
     7
370
     0
100
AcDbSpline
210
0.0
220
0.0
230
1.0
 70
     8
 71
     3
 72
     8
 73
     4
 74
     0
 42
0.00000001
 43
0.00000001
 12
1.0
 22
0.0
 32
0.0
 13
1.0
 23
0.0
 33
0.0
 40
0.0
 40
0.0
 40
0.0
 40
0.0
 40
1.0
 40
1.0
 40
1.0
 40
1.0
 10
149.0388402600084
 20
110.1125727920753
 30
0.0
 10
149.0145265561183
 20
110.0360116345253
 30
0.0
 10
148.9930299141622
 20
109.9595862633921
 30
0.0
 10
148.9736042340123
 20
109.8834933926204
 30
0.0
  0
SPLINE
  5
101
330
1F
100
AcDbEntity
  8
0
  6
HIDDEN
 62
     7
370
     0
100
AcDbSpline
210
0.0
220
0.0
230
1.0
 70
     8
 71
     3
 72
     8
 73
     4
 74
     0
 42
0.00000001
 43
0.00000001
 12
1.0
 22
0.0
 32
0.0
 13
1.0
 23
0.0
 33
0.0
 40
0.0
 40
0.0
 40
0.0
 40
0.0
 40
1.0
 40
1.0
 40
1.0
 40
1.0
 10
148.9736042340123
 20
106.1119487022219
 30
0.0
 10
148.9930296609057
 20
106.1084514986346
 30
0.0
 10
149.0145262148746
 20
106.1064351809924
 30
0.0
 10
149.038840260009
 20
106.1058243275485
 30
0.0
  0
SPLINE
  5
102
330
1F
100
AcDbEntity
  8
0
  6
HIDDEN
 62
     7
370
     0
100
AcDbSpline
210
0.0
220
0.0
230
1.0
 70
     8
 71
     3
 72
     8
 73
     4
 74
     0
 42
0.00000001
 43
0.00000001
 12
1.0
 22
0.0
 32
0.0
 13
1.0
 23
0.0
 33
0.0
 40
0.0
 40
0.0
 40
0.0
 40
0.0
 40
1.0
 40
1.0
 40
1.0
 40
1.0
 10
150.0720735644661
 20
106.0164659364904
 30
0.0
 10
150.0910104966319
 20
105.9885114990889
 30
0.0
 10
150.0949245775722
 20
105.9684276477326
 30
0.0
 10
150.0949245775722
 20
105.9522008035672
 30
0.0
  0
LINE
  5
103
330
1F
100
AcDbEntity
  8
0
  6
HIDDEN
 62
     7
370
     0
100
AcDbLine
 10
150.0949245826
 20
105.847192735
 30
0.0
 11
150.0949245826
 21
105.952201218
 31
0.0
  0
LINE
  5
104
330
1F
100
AcDbEntity
  8
0
  6
HIDDEN
 62
     7
370
     0
100
AcDbLine
 10
150.0949245826
 20
133.9218242025
 30
0.0
 11
150.0949245826
 21
134.0268326854
 31
0.0
  0
SPLINE
  5
105
330
1F
100
AcDbEntity
  8
0
  6
HIDDEN
 62
     7
370
     0
100
AcDbSpline
210
0.0
220
0.0
230
1.0
 70
     8
 71
     3
 72
    10
 73
     6
 74
     0
 42
0.00000001
 43
0.00000001
 12
1.0
 22
0.0
 32
0.0
 13
1.0
 23
0.0
 33
0.0
 40
0.0
 40
0.0
 40
0.0
 40
0.0
 40
0.4999999999999993
 40
0.4999999999999993
 40
1.0
 40
1.0
 40
1.0
 40
1.0
 10
150.094924577572
 20
133.9218246168872
 30
0.0
 10
150.094924577572
 20
133.9116984167671
 30
0.0
 10
150.0929159985265
 20
133.8999378242134
 30
0.0
 10
150.0817327706211
 20
133.8719566094631
 30
0.0
 10
150.0734316369466
 20
133.8559762951254
 30
0.0
 10
150.0545852477044
 20
133.8356202130979
 30
0.0
  0
SPLINE
  5
106
330
1F
100
AcDbEntity
  8
0
  6
HIDDEN
 62
     7
370
     0
100
AcDbSpline
210
0.0
220
0.0
230
1.0
 70
     8
 71
     3
 72
     8
 73
     4
 74
     0
 42
0.00000001
 43
0.00000001
 12
1.0
 22
0.0
 32
0.0
 13
1.0
 23
0.0
 33
0.0
 40
0.0
 40
0.0
 40
0.0
 40
0.0
 40
1.0
 40
1.0
 40
1.0
 40
1.0
 10
149.0388402600087
 20
133.7682010929057
 30
0.0
 10
149.0145262148744
 20
133.7675902394618
 30
0.0
 10
148.9930296609056
 20
133.7655739218196
 30
0.0
 10
148.9736042340123
 20
133.7620767182323
 30
0.0
  0
SPLINE
  5
107
330
1F
100
AcDbEntity
  8
0
  6
HIDDEN
 62
     7
370
     0
100
AcDbSpline
210
0.0
220
0.0
230
1.0
 70
     8
 71
     3
 72
     8
 73
     4
 74
     0
 42
0.00000001
 43
0.00000001
 12
1.0
 22
0.0
 32
0.0
 13
1.0
 23
0.0
 33
0.0
 40
0.0
 40
0.0
 40
0.0
 40
0.0
 40
1.0
 40
1.0
 40
1.0
 40
1.0
 10
148.9736042340123
 20
129.9905320278339
 30
0.0
 10
148.9930299141622
 20
129.9144391570622
 30
0.0
 10
149.0145265561183
 20
129.838013785929
 30
0.0
 10
149.0388402600084
 20
129.7614526283789
 30
0.0
  0
LINE
  5
108
330
1F
100
AcDbEntity
  8
0
  6
HIDDEN
 62
     7
370
     0
100
AcDbLine
 10
150.0949245826
 20
105.952201218
 30
0.0
 11
150.0949245826
 21
114.4315677626
 31
0.0
  0
LINE
  5
109
330
1F
100
AcDbEntity
  8
0
  6
HIDDEN
 62
     7
370
     0
100
AcDbLine
 10
150.0949245826
 20
125.4424576579
 30
0.0
 11
150.0949245826
 21
133.9218242025
 31
0.0
  0
SPLINE
  5
10A
330
1F
100
AcDbEntity
  8
0
  6
HIDDEN
 62
     7
370
     0
100
AcDbSpline
210
0.0
220
0.0
230
1.0
 70
     8
 71
     3
 72
    62
 73
    58
 74
     0
 42
0.00000001
 43
0.00000001
 12
1.0
 22
0.0
 32
0.0
 13
1.0
 23
0.0
 33
0.0
 40
-0.0312500000000002
 40
-0.0312500000000002
 40
0.0
 40
0.0
 40
0.0312500000000017
 40
0.0312500000000017
 40
0.0625000000000033
 40
0.0625000000000033
 40
0.1250000000000039
 40
0.1250000000000039
 40
0.1875000000000044
 40
0.1875000000000044
 40
0.2187500000000041
 40
0.2187500000000041
 40
0.2500000000000038
 40
0.2500000000000038
 40
0.2812500000000035
 40
0.2812500000000035
 40
0.3125000000000032
 40
0.3125000000000032
 40
0.3437500000000028
 40
0.3437500000000028
 40
0.3750000000000025
 40
0.3750000000000025
 40
0.4375000000000019
 40
0.4375000000000019
 40
0.4687500000000016
 40
0.4687500000000016
 40
0.5000000000000012
 40
0.5000000000000012
 40
0.5312500000000009
 40
0.5312500000000009
 40
0.5625000000000006
 40
0.5625000000000006
 40
0.5937500000000002
 40
0.5937500000000002
 40
0.6249999999999999
 40
0.6249999999999999
 40
0.6562499999999996
 40
0.6562499999999996
 40
0.6874999999999992
 40
0.6874999999999992
 40
0.7187499999999989
 40
0.7187499999999989
 40
0.7499999999999986
 40
0.7499999999999986
 40
0.7812499999999983
 40
0.7812499999999983
 40
0.8124999999999981
 40
0.8124999999999981
 40
0.8749999999999988
 40
0.8749999999999988
 40
0.9062499999999991
 40
0.9062499999999991
 40
0.9374999999999994
 40
0.9374999999999994
 40
0.9687499999999998
 40
0.9687499999999998
 40
1.0
 40
1.0
 40
1.031250000000002
 40
1.031250000000002
 10
222.1537263535922
 20
116.5602287567768
 30
0.0
 10
222.4361228015519
 20
116.5602287567768
 30
0.0
 10
222.5744006785657
 20
116.5700315950692
 30
0.0
 10
222.8455667497735
 20
116.6085315140217
 30
0.0
 10
222.979770077233
 20
116.6377675969036
 30
0.0
 10
223.3588332570232
 20
116.7521360666835
 30
0.0
 10
223.5878401787171
 20
116.8657442549506
 30
0.0
 10
223.9688707977198
 20
117.1603116259567
 30
0.0
 10
224.1244938746414
 20
117.3446892866736
 30
0.0
 10
224.2835643512101
 20
117.6638244688751
 30
0.0
 10
224.3252914963534
 20
117.779762645008
 30
0.0
 10
224.3805621974954
 20
118.0198141132735
 30
0.0
 10
224.3946421289853
 20
118.1439990164429
 30
0.0
 10
224.3951986953064
 20
118.4011130744458
 30
0.0
 10
224.3812094178859
 20
118.5338837092328
 30
0.0
 10
224.3267278986502
 20
118.7944452885622
 30
0.0
 10
224.2858774404953
 20
118.9249956165893
 30
0.0
 10
224.1792634736359
 20
119.1792075101519
 30
0.0
 10
224.1145113313628
 20
119.3010718884619
 30
0.0
 10
223.9629527894103
 20
119.5342596192081
 30
0.0
 10
223.8756146662372
 20
119.64577328195
 30
0.0
 10
223.5898382452757
 20
119.9506619859386
 30
0.0
 10
223.3603018968099
 20
120.1220891941966
 30
0.0
 10
222.9839837608156
 20
120.2995071630682
 30
0.0
 10
222.851650852455
 20
120.3462947611962
 30
0.0
 10
222.5776181934641
 20
120.4098325131585
 30
0.0
 10
222.439593033842
 20
120.425914406739
 30
0.0
 10
222.1615216526233
 20
120.4267666130813
 30
0.0
 10
222.0198087139529
 20
120.4109195908004
 30
0.0
 10
221.7473864582726
 20
120.3490550495135
 30
0.0
 10
221.6155583137756
 20
120.3034352280877
 30
0.0
 10
221.3601594181709
 20
120.1842726774
 30
0.0
 10
221.2399934149816
 20
120.1122793720579
 30
0.0
 10
221.0148220024253
 20
119.9471359303755
 30
0.0
 10
220.9086709410909
 20
119.8527686034521
 30
0.0
 10
220.7172236523887
 20
119.6493913147675
 30
0.0
 10
220.6312896384692
 20
119.5402148358656
 30
0.0
 10
220.4788773204292
 20
119.3072811228156
 30
0.0
 10
220.4126938301417
 20
119.1832702248982
 30
0.0
 10
220.3065121315906
 20
118.9319755741674
 30
0.0
 10
220.2655320683749
 20
118.8033629496524
 30
0.0
 10
220.2094519275775
 20
118.5402329892189
 30
0.0
 10
220.1952277521362
 20
118.4086206382712
 30
0.0
 10
220.1946310682647
 20
118.1524862115713
 30
0.0
 10
220.2083996357631
 20
118.0254075075375
 30
0.0
 10
220.2632497027052
 20
117.7837715909823
 30
0.0
 10
220.3037462159816
 20
117.6699016814312
 30
0.0
 10
220.4632086871578
 20
117.3470927159316
 30
0.0
 10
220.617877111472
 20
117.1630231180765
 30
0.0
 10
220.9061851428166
 20
116.9396685317841
 30
0.0
 10
221.0102099581644
 20
116.8748999789959
 30
0.0
 10
221.2346292163433
 20
116.7623935208809
 30
0.0
 10
221.3565600042037
 20
116.7143122994611
 30
0.0
 10
221.6090171556297
 20
116.638033814918
 30
0.0
 10
221.7399036855469
 20
116.6093524575307
 30
0.0
 10
222.0118446032597
 20
116.5703497759465
 30
0.0
 10
222.1537263535922
 20
116.5602287567768
 30
0.0
 10
222.4361228015519
 20
116.5602287567768
 30
0.0
  0
SPLINE
  5
10B
330
1F
100
AcDbEntity
  8
0
  6
HIDDEN
 62
     7
370
     0
100
AcDbSpline
210
0.0
220
0.0
230
1.0
 70
     8
 71
     3
 72
    10
 73
     6
 74
     0
 42
0.00000001
 43
0.00000001
 12
1.0
 22
0.0
 32
0.0
 13
1.0
 23
0.0
 33
0.0
 40
0.0
 40
0.0
 40
0.0
 40
0.0
 40
0.5
 40
0.5
 40
1.0
 40
1.0
 40
1.0
 40
1.0
 10
220.9966718395499
 20
114.7693218019199
 30
0.0
 10
220.9668408261768
 20
114.7127505988214
 30
0.0
 10
220.9503008802781
 20
114.6454584166652
 30
0.0
 10
220.9529252999572
 20
114.4823744822844
 30
0.0
 10
220.9718075075841
 20
114.3879788652548
 30
0.0
 10
221.0046904692092
 20
114.2854336930395
 30
0.0
  0
SPLINE
  5
10C
330
1F
100
AcDbEntity
  8
0
  6
HIDDEN
 62
     7
370
     0
100
AcDbSpline
210
0.0
220
0.0
230
1.0
 70
     8
 71
     3
 72
    24
 73
    20
 74
     0
 42
0.00000001
 43
0.00000001
 12
1.0
 22
0.0
 32
0.0
 13
1.0
 23
0.0
 33
0.0
 40
0.0
 40
0.0
 40
0.0
 40
0.0
 40
0.0625000000000015
 40
0.0625000000000015
 40
0.125000000000003
 40
0.125000000000003
 40
0.1875000000000044
 40
0.1875000000000044
 40
0.2500000000000059
 40
0.2500000000000059
 40
0.375000000000008
 40
0.375000000000008
 40
0.5000000000000101
 40
0.5000000000000101
 40
0.7500000000000053
 40
0.7500000000000053
 40
0.8750000000000027
 40
0.8750000000000027
 40
1.0
 40
1.0
 40
1.0
 40
1.0
 10
221.0046904692106
 20
114.2854336929843
 30
0.0
 10
221.0578389240136
 20
114.2625030923676
 30
0.0
 10
221.1147732293554
 20
114.2386985484585
 30
0.0
 10
221.2413058895717
 20
114.1826354191036
 30
0.0
 10
221.3101720065433
 20
114.1501737818213
 30
0.0
 10
221.4476912972958
 20
114.0802205410852
 30
0.0
 10
221.5160429403131
 20
114.0433004714757
 30
0.0
 10
221.6461168469515
 20
113.9735804685101
 30
0.0
 10
221.7092477442253
 20
113.9400751679915
 30
0.0
 10
221.8964430576694
 20
113.8456193563643
 30
0.0
 10
222.0164402834572
 20
113.7916758085557
 30
0.0
 10
222.2579688124464
 20
113.7023265241721
 30
0.0
 10
222.3790095955343
 20
113.6669330121724
 30
0.0
 10
222.7478641659482
 20
113.5928959474584
 30
0.0
 10
222.9940724143146
 20
113.5866868047662
 30
0.0
 10
223.3603591592852
 20
113.6708878061542
 30
0.0
 10
223.4786563401018
 20
113.7141963716477
 30
0.0
 10
223.7053131078535
 20
113.8365762478991
 30
0.0
 10
223.8140718599507
 20
113.9164372316723
 30
0.0
 10
223.9117863644061
 20
114.0147084103104
 30
0.0
  0
SPLINE
  5
10D
330
1F
100
AcDbEntity
  8
0
  6
HIDDEN
 62
     7
370
     0
100
AcDbSpline
210
0.0
220
0.0
230
1.0
 70
     8
 71
     3
 72
    54
 73
    50
 74
     0
 42
0.00000001
 43
0.00000001
 12
1.0
 22
0.0
 32
0.0
 13
1.0
 23
0.0
 33
0.0
 40
0.0
 40
0.0
 40
0.0
 40
0.0
 40
0.0624999999999995
 40
0.0624999999999995
 40
0.1249999999999989
 40
0.1249999999999989
 40
0.1874999999999984
 40
0.1874999999999984
 40
0.2499999999999979
 40
0.2499999999999979
 40
0.2812499999999983
 40
0.2812499999999983
 40
0.2968749999999991
 40
0.2968749999999991
 40
0.3124999999999997
 40
0.3124999999999997
 40
0.3437500000000012
 40
0.3437500000000012
 40
0.3750000000000026
 40
0.3750000000000026
 40
0.4375000000000049
 40
0.4375000000000049
 40
0.5000000000000073
 40
0.5000000000000073
 40
0.5625000000000097
 40
0.5625000000000097
 40
0.5937500000000108
 40
0.5937500000000108
 40
0.6250000000000118
 40
0.6250000000000118
 40
0.6875000000000123
 40
0.6875000000000123
 40
0.7187500000000124
 40
0.7187500000000124
 40
0.7500000000000127
 40
0.7500000000000127
 40
0.7812500000000129
 40
0.7812500000000129
 40
0.812500000000013
 40
0.812500000000013
 40
0.8750000000000107
 40
0.8750000000000107
 40
0.906250000000008
 40
0.906250000000008
 40
0.9375000000000053
 40
0.9375000000000053
 40
0.9687500000000026
 40
0.9687500000000026
 40
1.0
 40
1.0
 40
1.0
 40
1.0
 10
224.2728700014471
 20
114.5988219177112
 30
0.0
 10
224.3513105970667
 20
114.817051783468
 30
0.0
 10
224.3887641932362
 20
115.0487483999942
 30
0.0
 10
224.3996917810187
 20
115.5185532965295
 30
0.0
 10
224.3728252229205
 20
115.7512521825748
 30
0.0
 10
224.275614820046
 20
116.1951557885859
 30
0.0
 10
224.2060167732888
 20
116.4045198886976
 30
0.0
 10
224.0385006325137
 20
116.8027287823797
 30
0.0
 10
223.9393592337169
 20
116.9894444575356
 30
0.0
 10
223.7966571870107
 20
117.2434323959433
 30
0.0
 10
223.7495733895796
 20
117.3241775149294
 30
0.0
 10
223.70319275228
 20
117.427986148233
 30
0.0
 10
223.692482920947
 20
117.4591316275122
 30
0.0
 10
223.6870310491254
 20
117.5096526805861
 30
0.0
 10
223.6924230076843
 20
117.527931275638
 30
0.0
 10
223.7277769238324
 20
117.5653265901052
 30
0.0
 10
223.7721460846255
 20
117.5668977307792
 30
0.0
 10
223.8639649860875
 20
117.5529641145333
 30
0.0
 10
223.9123544708145
 20
117.536662774913
 30
0.0
 10
224.052844539247
 20
117.4704909768124
 30
0.0
 10
224.1415181393399
 20
117.4022452546921
 30
0.0
 10
224.2837765578321
 20
117.2283370899045
 30
0.0
 10
224.3384565600014
 20
117.1229399756206
 30
0.0
 10
224.3997327110078
 20
116.8665470988689
 30
0.0
 10
224.4052203325878
 20
116.7193259284919
 30
0.0
 10
224.3595962671178
 20
116.4669348371889
 30
0.0
 10
224.3357330215591
 20
116.37986335747
 30
0.0
 10
224.2690036577065
 20
116.1994476928627
 30
0.0
 10
224.2253586339777
 20
116.1049436640136
 30
0.0
 10
224.0696248498944
 20
115.8253498598824
 30
0.0
 10
223.9285064967524
 20
115.6374281339569
 30
0.0
 10
223.6879979927997
 20
115.3836150351322
 30
0.0
 10
223.6019290551397
 20
115.3022736878916
 30
0.0
 10
223.4269194898651
 20
115.1524447249628
 30
0.0
 10
223.3373465320679
 20
115.0831734737445
 30
0.0
 10
223.1544806860086
 20
114.9544833920948
 30
0.0
 10
223.0607994855082
 20
114.8949361682018
 30
0.0
 10
222.8754148975267
 20
114.7881453983782
 30
0.0
 10
222.7830155892585
 20
114.7403690559411
 30
0.0
 10
222.5060256078291
 20
114.6121785356975
 30
0.0
 10
222.3203966729781
 20
114.5461214765382
 30
0.0
 10
222.0469577963001
 20
114.4811637800995
 30
0.0
 10
221.9563410654909
 20
114.4650336199423
 30
0.0
 10
221.7725838630252
 20
114.4471774430669
 30
0.0
 10
221.6788825435095
 20
114.4448681855912
 30
0.0
 10
221.4814034458952
 20
114.4692847837567
 30
0.0
 10
221.3754808462861
 20
114.4983796434482
 30
0.0
 10
221.1685390084742
 20
114.6115449121404
 30
0.0
 10
221.0775079987428
 20
114.6878997822997
 30
0.0
 10
220.9966718396146
 20
114.7693218019201
 30
0.0
  0
LWPOLYLINE
  5
10E
330
1F
100
AcDbEntity
  8
0
  6
HIDDEN
 62
     7
370
     0
100
AcDbPolyline
 90
       23
 70
   128
 43
0.0
 10
224.2728718127
 20
114.5988221211
 10
224.3893467392
 20
115.1074415935
 10
224.3543811644
 20
115.6262418186
 10
224.1705082859
 20
116.1177100545
 10
223.8510124887
 20
116.5463098256
 10
223.4190054739
 20
116.881050442
 10
222.9057200755
 20
117.0977282269
 10
222.3482676352
 20
117.1806755407
 10
221.7869557942
 20
117.1238951316
 10
221.2623827661
 20
116.9314925024
 10
220.812457105
 20
116.6173795169
 10
220.4697303976
 20
116.2042685715
 10
220.2589758242
 20
115.7220306737
 10
220.1954372729
 20
115.205534075
 10
220.2837043012
 20
114.6921257419
 10
220.5173917616
 20
114.2189277267
 10
220.8796091879
 20
113.8201558893
 10
221.3441603387
 20
113.5246439768
 10
221.8774654473
 20
113.3537593229
 10
222.4409454072
 20
113.3198577842
 10
222.9938753451
 20
113.4253910674
 10
223.4962605442
 20
113.662728381
 10
223.9117868746
 20
114.0147082439
  0
ARC
  5
10F
330
1F
100
AcDbEntity
  8
0
  6
HIDDEN
 62
     7
370
     0
100
AcDbCircle
 10
221.5946034234
 20
114.5372173887
 30
0.0
 40
0.6413996698722485
100
AcDbArc
 50
158.7848219063
 51
203.1135017198
  0
SPLINE
  5
110
330
1F
100
AcDbEntity
  8
0
  6
HIDDEN
 62
     7
370
     0
100
AcDbSpline
210
0.0
220
0.0
230
1.0
 70
     8
 71
     3
 72
     8
 73
     4
 74
     0
 42
0.00000001
 43
0.00000001
 12
1.0
 22
0.0
 32
0.0
 13
1.0
 23
0.0
 33
0.0
 40
0.0
 40
0.0
 40
0.0
 40
0.0
 40
1.0
 40
1.0
 40
1.0
 40
1.0
 10
223.9117863644061
 20
114.0147084103104
 30
0.0
 10
224.0046051029344
 20
114.2037410239766
 30
0.0
 10
224.128742275598
 20
114.4036649457899
 30
0.0
 10
224.2728700014476
 20
114.5988219177118
 30
0.0
  0
CIRCLE
  5
111
330
1F
100
AcDbEntity
  8
0
  6
HIDDEN
 62
     7
370
     0
100
AcDbCircle
 10
138.7949245776
 20
119.9370127102
 30
0.0
 40
2.299999999999997
  0
LINE
  5
112
330
1F
100
AcDbEntity
  8
0
  6
HIDDEN
 62
     7
370
     0
100
AcDbLine
 10
127.3219571019
 20
129.4997062465
 30
0.0
 11
127.3219571019
 21
110.3743191739
 31
0.0
  0
LINE
  5
113
330
1F
100
AcDbEntity
  8
0
  6
HIDDEN
 62
     7
370
     0
100
AcDbLine
 10
126.294924369
 20
109.7813619232
 30
0.0
 11
126.294924369
 21
130.0926634973
 31
0.0
  0
LINE
  5
114
330
1F
100
AcDbEntity
  8
0
  6
HIDDEN
 62
     7
370
     0
100
AcDbLine
 10
130.8219567443
 20
129.1679523816
 30
0.0
 11
130.8219567443
 21
110.7060730388
 31
0.0
  0
LINE
  5
115
330
1F
100
AcDbEntity
  8
0
  6
HIDDEN
 62
     7
370
     0
100
AcDbLine
 10
134.2219565565
 20
128.9370123228
 30
0.0
 11
134.2219565565
 21
110.9370130977
 31
0.0
  0
LINE
  5
116
330
1F
100
AcDbEntity
  8
0
  6
HIDDEN
 62
     7
370
     0
100
AcDbLine
 10
129.4219572599
 20
128.9370123228
 30
0.0
 11
129.4219572599
 21
110.9370130977
 31
0.0
  0
LINE
  5
117
330
1F
100
AcDbEntity
  8
0
  6
HIDDEN
 62
     7
370
     0
100
AcDbLine
 10
130.4219574238
 20
128.9370123228
 30
0.0
 11
130.4219574238
 21
110.9370130977
 31
0.0
  0
SPLINE
  5
118
330
1F
100
AcDbEntity
  8
0
  6
HIDDEN
 62
     7
370
     0
100
AcDbSpline
210
0.0
220
0.0
230
1.0
 70
     8
 71
     3
 72
    14
 73
    10
 74
     0
 42
0.00000001
 43
0.00000001
 12
1.0
 22
0.0
 32
0.0
 13
1.0
 23
0.0
 33
0.0
 40
0.0
 40
0.0
 40
0.0
 40
0.0
 40
0.2500000000000001
 40
0.2500000000000001
 40
0.5000000000000001
 40
0.5000000000000001
 40
0.75
 40
0.75
 40
1.0
 40
1.0
 40
1.0
 40
1.0
 10
140.794924577572
 20
121.0727943793872
 30
0.0
 10
140.8931489240749
 20
120.8998309495836
 30
0.0
 10
140.9684637620591
 20
120.7147983951592
 30
0.0
 10
141.0694304722534
 20
120.3317861810248
 30
0.0
 10
141.0948060585436
 20
120.1370676275591
 30
0.0
 10
141.0950422838099
 20
119.7396923262936
 30
0.0
 10
141.0693392144744
 20
119.5421999918182
 30
0.0
 10
140.9690191009579
 20
119.1610281571872
 30
0.0
 10
140.8931272728702
 20
118.9741563452146
 30
0.0
 10
140.7949245775766
 20
118.8012310410647
 30
0.0
  0
LINE
  5
119
330
1F
100
AcDbEntity
  8
0
  6
HIDDEN
 62
     7
370
     0
100
AcDbLine
 10
141.294924965
 20
128.4370122408
 30
0.0
 11
141.294924965
 21
111.4370122483
 31
0.0
  0
SPLINE
  5
11A
330
1F
100
AcDbEntity
  8
0
  6
HIDDEN
 62
     7
370
     0
100
AcDbSpline
210
0.0
220
0.0
230
1.0
 70
     8
 71
     3
 72
    14
 73
    10
 74
     0
 42
0.00000001
 43
0.00000001
 12
1.0
 22
0.0
 32
0.0
 13
1.0
 23
0.0
 33
0.0
 40
0.0
 40
0.0
 40
0.0
 40
0.0
 40
0.2500000000000001
 40
0.2500000000000001
 40
0.5000000000000001
 40
0.5000000000000001
 40
0.75
 40
0.75
 40
1.0
 40
1.0
 40
1.0
 40
1.0
 10
140.794924577572
 20
118.8012310410671
 30
0.0
 10
140.8931489240749
 20
118.9741944708706
 30
0.0
 10
140.9684637620591
 20
119.159227025295
 30
0.0
 10
141.0694304722534
 20
119.5422392394295
 30
0.0
 10
141.0948060585436
 20
119.7369577928951
 30
0.0
 10
141.0950422838099
 20
120.1343330941607
 30
0.0
 10
141.0693392144744
 20
120.3318254286361
 30
0.0
 10
140.9690191009579
 20
120.7129972632671
 30
0.0
 10
140.8931272728702
 20
120.8998690752396
 30
0.0
 10
140.7949245775766
 20
121.0727943793895
 30
0.0
  0
SPLINE
  5
11B
330
1F
100
AcDbEntity
  8
0
  6
HIDDEN
 62
     7
370
     0
100
AcDbSpline
210
0.0
220
0.0
230
1.0
 70
     8
 71
     3
 72
    60
 73
    56
 74
     0
 42
0.00000001
 43
0.00000001
 12
1.0
 22
0.0
 32
0.0
 13
1.0
 23
0.0
 33
0.0
 40
0.0
 40
0.0
 40
0.0
 40
0.0
 40
0.0624999999999997
 40
0.0624999999999997
 40
0.1249999999999993
 40
0.1249999999999993
 40
0.187499999999999
 40
0.187499999999999
 40
0.2187499999999988
 40
0.2187499999999988
 40
0.2499999999999987
 40
0.2499999999999987
 40
0.3124999999999988
 40
0.3124999999999988
 40
0.3749999999999989
 40
0.3749999999999989
 40
0.4062499999999989
 40
0.4062499999999989
 40
0.437499999999999
 40
0.437499999999999
 40
0.4687499999999991
 40
0.4687499999999991
 40
0.4999999999999991
 40
0.4999999999999991
 40
0.5312499999999991
 40
0.5312499999999991
 40
0.5624999999999992
 40
0.5624999999999992
 40
0.5937499999999992
 40
0.5937499999999992
 40
0.6249999999999993
 40
0.6249999999999993
 40
0.6562499999999993
 40
0.6562499999999993
 40
0.6874999999999994
 40
0.6874999999999994
 40
0.7187499999999994
 40
0.7187499999999994
 40
0.7499999999999996
 40
0.7499999999999996
 40
0.7812499999999996
 40
0.7812499999999996
 40
0.8124999999999997
 40
0.8124999999999997
 40
0.8437499999999997
 40
0.8437499999999997
 40
0.8749999999999998
 40
0.8749999999999998
 40
0.9062499999999998
 40
0.9062499999999998
 40
0.9374999999999999
 40
0.9374999999999999
 40
0.9687499999999999
 40
0.9687499999999999
 40
1.0
 40
1.0
 40
1.0
 40
1.0
 10
140.794924577572
 20
118.8012310410671
 30
0.0
 10
140.6697346759933
 20
118.5807839164515
 30
0.0
 10
140.5128673574252
 20
118.3870501876311
 30
0.0
 10
140.1358298376063
 20
118.0513604888687
 30
0.0
 10
139.9241165311853
 20
117.917383130556
 30
0.0
 10
139.4582265492366
 20
117.7202563858708
 30
0.0
 10
139.212387318185
 20
117.661038973649
 30
0.0
 10
138.8329062650904
 20
117.6338322377583
 30
0.0
 10
138.7051605363965
 20
117.6353255029001
 30
0.0
 10
138.4546942897284
 20
117.6588413087091
 30
0.0
 10
138.3308649069201
 20
117.6807605275133
 30
0.0
 10
137.9636452328215
 20
117.7775970923582
 30
0.0
 10
137.7328762147358
 20
117.88139821381
 30
0.0
 10
137.3129872533163
 20
118.160116694738
 30
0.0
 10
137.1287288784287
 20
118.3316789862418
 30
0.0
 10
136.8979804909454
 20
118.6303263475085
 30
0.0
 10
136.8289336411564
 20
118.7367938880109
 30
0.0
 10
136.7103689773509
 20
118.9570772364038
 30
0.0
 10
136.6601606086012
 20
119.0717387528052
 30
0.0
 10
136.5783287562435
 20
119.310419389582
 30
0.0
 10
136.5469778573608
 20
119.4344650164601
 30
0.0
 10
136.5055834793222
 20
119.6825800525684
 30
0.0
 10
136.4950777042579
 20
119.8078177550569
 30
0.0
 10
136.4947747519221
 20
120.0606968106479
 30
0.0
 10
136.5052592815387
 20
120.1885764968845
 30
0.0
 10
136.5463993590001
 20
120.43699855809
 30
0.0
 10
136.5769774795487
 20
120.5587974848584
 30
0.0
 10
136.6582601879
 20
120.7975770143327
 30
0.0
 10
136.7092610744619
 20
120.9146185766394
 30
0.0
 10
136.827828122825
 20
121.1354437745653
 30
0.0
 10
136.8957168760967
 20
121.2403821381281
 30
0.0
 10
137.0488673138344
 20
121.4393594713574
 30
0.0
 10
137.1344234854069
 20
121.5333675965516
 30
0.0
 10
137.3171348563661
 20
121.7038602814883
 30
0.0
 10
137.414942156048
 20
121.7812984765377
 30
0.0
 10
137.6237452679649
 20
121.920464372426
 30
0.0
 10
137.7353274432528
 20
121.982246181433
 30
0.0
 10
137.9639732427518
 20
122.0853250520338
 30
0.0
 10
138.081928053723
 20
122.1273290872294
 30
0.0
 10
138.3252564987117
 20
122.1920652085262
 30
0.0
 10
138.4516003740547
 20
122.2147384710889
 30
0.0
 10
138.7027063550726
 20
122.23862126727
 30
0.0
 10
138.8283883487956
 20
122.2402245685367
 30
0.0
 10
139.0800104185874
 20
122.2227578297658
 30
0.0
 10
139.2069080388731
 20
122.2033219391259
 30
0.0
 10
139.4520986051343
 20
122.1447287678022
 30
0.0
 10
139.5712877621678
 20
122.1056659166456
 30
0.0
 10
139.8029727865226
 20
122.0081561945218
 30
0.0
 10
139.9161475908731
 20
121.9491208402332
 30
0.0
 10
140.1282260078088
 20
121.8153171233937
 30
0.0
 10
140.2280147865096
 20
121.7403219072489
 30
0.0
 10
140.4152729734986
 20
121.5741268427281
 30
0.0
 10
140.503168010442
 20
121.4822326439866
 30
0.0
 10
140.6613890860739
 20
121.2868684462723
 30
0.0
 10
140.7323270423655
 20
121.1830224925998
 30
0.0
 10
140.794924577572
 20
121.0727943793872
 30
0.0
  0
SPLINE
  5
11C
330
1F
100
AcDbEntity
  8
0
  6
HIDDEN
 62
     7
370
     0
100
AcDbSpline
210
0.0
220
0.0
230
1.0
 70
     8
 71
     3
 72
    60
 73
    56
 74
     0
 42
0.00000001
 43
0.00000001
 12
1.0
 22
0.0
 32
0.0
 13
1.0
 23
0.0
 33
0.0
 40
0.0
 40
0.0
 40
0.0
 40
0.0
 40
0.0624999999999997
 40
0.0624999999999997
 40
0.1249999999999993
 40
0.1249999999999993
 40
0.187499999999999
 40
0.187499999999999
 40
0.2187499999999988
 40
0.2187499999999988
 40
0.2499999999999987
 40
0.2499999999999987
 40
0.3124999999999988
 40
0.3124999999999988
 40
0.3749999999999989
 40
0.3749999999999989
 40
0.4062499999999989
 40
0.4062499999999989
 40
0.437499999999999
 40
0.437499999999999
 40
0.4687499999999991
 40
0.4687499999999991
 40
0.4999999999999991
 40
0.4999999999999991
 40
0.5312499999999991
 40
0.5312499999999991
 40
0.5624999999999992
 40
0.5624999999999992
 40
0.5937499999999992
 40
0.5937499999999992
 40
0.6249999999999993
 40
0.6249999999999993
 40
0.6562499999999993
 40
0.6562499999999993
 40
0.6874999999999994
 40
0.6874999999999994
 40
0.7187499999999994
 40
0.7187499999999994
 40
0.7499999999999996
 40
0.7499999999999996
 40
0.7812499999999996
 40
0.7812499999999996
 40
0.8124999999999997
 40
0.8124999999999997
 40
0.8437499999999997
 40
0.8437499999999997
 40
0.8749999999999998
 40
0.8749999999999998
 40
0.9062499999999998
 40
0.9062499999999998
 40
0.9374999999999999
 40
0.9374999999999999
 40
0.9687499999999999
 40
0.9687499999999999
 40
1.0
 40
1.0
 40
1.0
 40
1.0
 10
140.794924577572
 20
121.0727943793872
 30
0.0
 10
140.6697346759933
 20
121.2932415040027
 30
0.0
 10
140.5128673574252
 20
121.4869752328231
 30
0.0
 10
140.1358298376063
 20
121.8226649315855
 30
0.0
 10
139.9241165311853
 20
121.9566422898983
 30
0.0
 10
139.4582265492366
 20
122.1537690345834
 30
0.0
 10
139.212387318185
 20
122.2129864468053
 30
0.0
 10
138.8329062650904
 20
122.2401931826959
 30
0.0
 10
138.7051605363965
 20
122.2386999175541
 30
0.0
 10
138.4546942897284
 20
122.2151841117451
 30
0.0
 10
138.3308649069201
 20
122.1932648929409
 30
0.0
 10
137.9636452328215
 20
122.096428328096
 30
0.0
 10
137.7328762147358
 20
121.9926272066442
 30
0.0
 10
137.3129872533163
 20
121.7139087257162
 30
0.0
 10
137.1287288784287
 20
121.5423464342125
 30
0.0
 10
136.8979804909454
 20
121.2436990729457
 30
0.0
 10
136.8289336411564
 20
121.1372315324434
 30
0.0
 10
136.7103689773509
 20
120.9169481840504
 30
0.0
 10
136.6601606086012
 20
120.802286667649
 30
0.0
 10
136.5783287562435
 20
120.5636060308722
 30
0.0
 10
136.5469778573608
 20
120.4395604039942
 30
0.0
 10
136.5055834793222
 20
120.1914453678858
 30
0.0
 10
136.4950777042579
 20
120.0662076653973
 30
0.0
 10
136.4947747519221
 20
119.8133286098063
 30
0.0
 10
136.5052592815387
 20
119.6854489235697
 30
0.0
 10
136.5463993590001
 20
119.4370268623642
 30
0.0
 10
136.5769774795487
 20
119.3152279355958
 30
0.0
 10
136.6582601879
 20
119.0764484061215
 30
0.0
 10
136.7092610744619
 20
118.9594068438149
 30
0.0
 10
136.827828122825
 20
118.7385816458889
 30
0.0
 10
136.8957168760967
 20
118.6336432823262
 30
0.0
 10
137.0488673138344
 20
118.4346659490968
 30
0.0
 10
137.1344234854069
 20
118.3406578239026
 30
0.0
 10
137.3171348563661
 20
118.1701651389659
 30
0.0
 10
137.414942156048
 20
118.0927269439165
 30
0.0
 10
137.6237452679649
 20
117.9535610480282
 30
0.0
 10
137.7353274432528
 20
117.8917792390212
 30
0.0
 10
137.9639732427518
 20
117.7887003684205
 30
0.0
 10
138.081928053723
 20
117.7466963332248
 30
0.0
 10
138.3252564987117
 20
117.681960211928
 30
0.0
 10
138.4516003740547
 20
117.6592869493653
 30
0.0
 10
138.7027063550726
 20
117.6354041531842
 30
0.0
 10
138.8283883487956
 20
117.6338008519175
 30
0.0
 10
139.0800104185874
 20
117.6512675906884
 30
0.0
 10
139.2069080388731
 20
117.6707034813284
 30
0.0
 10
139.4520986051343
 20
117.729296652652
 30
0.0
 10
139.5712877621678
 20
117.7683595038087
 30
0.0
 10
139.8029727865226
 20
117.8658692259324
 30
0.0
 10
139.9161475908731
 20
117.9249045802211
 30
0.0
 10
140.1282260078088
 20
118.0587082970605
 30
0.0
 10
140.2280147865096
 20
118.1337035132053
 30
0.0
 10
140.4152729734986
 20
118.2998985777261
 30
0.0
 10
140.503168010442
 20
118.3917927764676
 30
0.0
 10
140.6613890860739
 20
118.587156974182
 30
0.0
 10
140.7323270423655
 20
118.6910029278545
 30
0.0
 10
140.794924577572
 20
118.8012310410671
 30
0.0
  0
LINE
  5
11D
330
1F
100
AcDbEntity
  8
0
  6
HIDDEN
 62
     7
370
     0
100
AcDbLine
 10
142.1949243675
 20
126.1870128034
 30
0.0
 11
142.1949243675
 21
113.6870126171
 31
0.0
  0
LINE
  5
11E
330
1F
100
AcDbEntity
  8
0
  6
HIDDEN
 62
     7
370
     0
100
AcDbLine
 10
141.294924965
 20
112.787012749
 30
0.0
 11
141.294924965
 21
127.0679387195
 31
0.0
  0
LINE
  5
11F
330
1F
100
AcDbEntity
  8
0
  6
HIDDEN
 62
     7
370
     0
100
AcDbLine
 10
161.294924518
 20
126.1870128034
 30
0.0
 11
161.294924518
 21
113.6870126171
 31
0.0
  0
LINE
  5
120
330
1F
100
AcDbEntity
  8
0
  6
HIDDEN
 62
     7
370
     0
100
AcDbLine
 10
162.4966454263
 20
124.1870129412
 30
0.0
 11
162.4966454263
 21
115.6870124793
 31
0.0
  0
LINE
  5
121
330
1F
100
AcDbEntity
  8
0
  6
HIDDEN
 62
     7
370
     0
100
AcDbLine
 10
225.2949275578
 20
115.6870124793
 30
0.0
 11
225.2949275578
 21
124.1870129412
 31
0.0
  0
SPLINE
  5
122
330
1F
100
AcDbEntity
  8
0
  6
HIDDEN
 62
     7
370
     0
100
AcDbSpline
210
0.0
220
0.0
230
1.0
 70
     8
 71
     3
 72
    62
 73
    58
 74
     0
 42
0.00000001
 43
0.00000001
 12
1.0
 22
0.0
 32
0.0
 13
1.0
 23
0.0
 33
0.0
 40
-0.0312499999999992
 40
-0.0312499999999992
 40
0.0
 40
0.0
 40
0.0312500000000026
 40
0.0312500000000026
 40
0.0625000000000052
 40
0.0625000000000052
 40
0.1250000000000076
 40
0.1250000000000076
 40
0.18750000000001
 40
0.18750000000001
 40
0.2187500000000105
 40
0.2187500000000105
 40
0.2500000000000112
 40
0.2500000000000112
 40
0.2812500000000118
 40
0.2812500000000118
 40
0.3125000000000123
 40
0.3125000000000123
 40
0.3437500000000129
 40
0.3437500000000129
 40
0.3750000000000135
 40
0.3750000000000135
 40
0.4375000000000147
 40
0.4375000000000147
 40
0.4687500000000138
 40
0.4687500000000138
 40
0.500000000000013
 40
0.500000000000013
 40
0.5312500000000121
 40
0.5312500000000121
 40
0.5625000000000113
 40
0.5625000000000113
 40
0.5937500000000104
 40
0.5937500000000104
 40
0.6250000000000095
 40
0.6250000000000095
 40
0.6562500000000088
 40
0.6562500000000088
 40
0.6875000000000079
 40
0.6875000000000079
 40
0.7187500000000071
 40
0.7187500000000071
 40
0.7500000000000062
 40
0.7500000000000062
 40
0.7812500000000053
 40
0.7812500000000053
 40
0.8125000000000046
 40
0.8125000000000046
 40
0.8750000000000029
 40
0.8750000000000029
 40
0.9062500000000022
 40
0.9062500000000022
 40
0.9375000000000014
 40
0.9375000000000014
 40
0.9687500000000008
 40
0.9687500000000008
 40
1.0
 40
1.0
 40
1.031250000000003
 40
1.031250000000003
 10
222.436122801552
 20
119.4476762791772
 30
0.0
 10
222.1537263535922
 20
119.4476762791772
 30
0.0
 10
222.0154484765784
 20
119.4638121003095
 30
0.0
 10
221.7442824053706
 20
119.5259670933694
 30
0.0
 10
221.610079077911
 20
119.5728093865303
 30
0.0
 10
221.2310158981208
 20
119.7506991599541
 30
0.0
 10
221.002008976427
 20
119.9217386077741
 30
0.0
 10
220.6209783574243
 20
120.3272435252595
 30
0.0
 10
220.4653552805026
 20
120.5658876566314
 30
0.0
 10
220.3062848039341
 20
120.9427065686895
 30
0.0
 10
220.2645576587906
 20
121.0743751699521
 30
0.0
 10
220.2092869576486
 20
121.3354435777635
 30
0.0
 10
220.1952070261588
 20
121.465104545679
 30
0.0
 10
220.1946504598376
 20
121.7224335127018
 30
0.0
 10
220.2086397372582
 20
121.8497633601913
 30
0.0
 10
220.2631212564939
 20
122.0896000872352
 30
0.0
 10
220.3039717146488
 20
122.2047327139712
 30
0.0
 10
220.4105856815082
 20
122.4202513842604
 30
0.0
 10
220.4753378237812
 20
122.5192070451747
 30
0.0
 10
220.6268963657338
 20
122.7018454900917
 30
0.0
 10
220.7142344889069
 20
122.7855860778916
 30
0.0
 10
221.0000109098684
 20
123.0071740182445
 30
0.0
 10
221.2295472583343
 20
123.1210625144077
 30
0.0
 10
221.6058653943284
 20
123.2351746062099
 30
0.0
 10
221.7381983026891
 20
123.2643955632878
 30
0.0
 10
222.01223096168
 20
123.3037637076889
 30
0.0
 10
222.1502561213021
 20
123.313530918276
 30
0.0
 10
222.4283275025208
 20
123.314051856693
 30
0.0
 10
222.5700404411912
 20
123.3044267082434
 30
0.0
 10
222.8424626968715
 20
123.2661157633341
 30
0.0
 10
222.9742908413686
 20
123.2376646022493
 30
0.0
 10
223.2296897369732
 20
123.1610922210568
 30
0.0
 10
223.3498557401625
 20
123.1139342798227
 30
0.0
 10
223.5750271527188
 20
123.0018075930454
 30
0.0
 10
223.6811782140532
 20
122.9359621459163
 30
0.0
 10
223.8726255027554
 20
122.7882779293175
 30
0.0
 10
223.9585595166749
 20
122.7063839611282
 30
0.0
 10
224.1109718347149
 20
122.5241896723115
 30
0.0
 10
224.1771553250024
 20
122.4235675239588
 30
0.0
 10
224.2833370235535
 20
122.2107729445302
 30
0.0
 10
224.3243170867692
 20
122.0976072266363
 30
0.0
 10
224.3803972275666
 20
121.8557974931143
 30
0.0
 10
224.394621403008
 20
121.7297181645364
 30
0.0
 10
224.3952180868794
 20
121.4738141375398
 30
0.0
 10
224.381449519381
 20
121.3413787095207
 30
0.0
 10
224.3265994524389
 20
121.0788773129089
 30
0.0
 10
224.2861029391624
 20
120.949723583167
 30
0.0
 10
224.1266404679863
 20
120.5690323157965
 30
0.0
 10
223.9719720436721
 20
120.3309039545999
 30
0.0
 10
223.6836640123275
 20
120.0235393645728
 30
0.0
 10
223.5796391969797
 20
119.9307624007696
 30
0.0
 10
223.3552199388009
 20
119.7652111428862
 30
0.0
 10
223.2332891509405
 20
119.6918607800095
 30
0.0
 10
222.9808319995144
 20
119.5732303565431
 30
0.0
 10
222.8499454695973
 20
119.527284285387
 30
0.0
 10
222.5780045518844
 20
119.4643336973493
 30
0.0
 10
222.436122801552
 20
119.4476762791772
 30
0.0
 10
222.1537263535922
 20
119.4476762791772
 30
0.0
  0
ELLIPSE
  5
123
330
1F
100
AcDbEntity
  8
0
  6
HIDDEN
 62
     7
370
     0
100
AcDbEllipse
 10
254.5457256624
 20
119.9370127102
 30
0.0
 11
-11.76369068746817
 21
16.48124712370798
 31
0.0
210
0.0
220
0.0
230
1.0
 40
0.0668534593
 41
6.235504004580398
 42
7.806300331375069
  0
LINE
  5
124
330
1F
100
AcDbEntity
  8
0
  6
HIDDEN
 62
     7
370
     0
100
AcDbLine
 10
234.7949244584
 20
119.9370127102
 30
0.0
 11
234.7949244584
 21
136.4370126208
 31
0.0
  0
LINE
  5
125
330
1F
100
AcDbEntity
  8
0
  6
HIDDEN
 62
     7
370
     0
100
AcDbLine
 10
258.9094959701
 20
110.7375750249
 30
0.0
 11
258.9107849206
 21
110.7228778234
 31
0.0
  0
LINE
  5
126
330
1F
100
AcDbEntity
  8
0
  6
HIDDEN
 62
     7
370
     0
100
AcDbLine
 10
258.9107849206
 20
110.7228778234
 30
0.0
 11
249.5001577343
 21
111.5441953694
 31
0.0
  0
LINE
  5
127
330
1F
100
AcDbEntity
  8
0
  6
HIDDEN
 62
     7
370
     0
100
AcDbLine
 10
246.6348208989
 20
108.747656264
 30
0.0
 11
246.6754936183
 21
108.7264100021
 31
0.0
  0
LINE
  5
128
330
1F
100
AcDbEntity
  8
0
  6
HIDDEN
 62
     7
370
     0
100
AcDbLine
 10
246.6754936183
 20
108.7264100021
 30
0.0
 11
247.4923454727
 21
99.4125071844
 31
0.0
  0
SPLINE
  5
129
330
1F
100
AcDbEntity
  8
0
  6
HIDDEN
 62
     7
370
     0
100
AcDbSpline
210
0.0
220
0.0
230
1.0
 70
     8
 71
     3
 72
    20
 73
    16
 74
     0
 42
0.00000001
 43
0.00000001
 12
1.0
 22
0.0
 32
0.0
 13
1.0
 23
0.0
 33
0.0
 40
0.0
 40
0.0
 40
0.0
 40
0.0
 40
0.2499999999999999
 40
0.2499999999999999
 40
0.3749999999999999
 40
0.3749999999999999
 40
0.5
 40
0.5
 40
0.6250000000000001
 40
0.6250000000000001
 40
0.75
 40
0.75
 40
0.875
 40
0.875
 40
1.0
 40
1.0
 40
1.0
 40
1.0
 10
236.6172335293746
 20
111.9710221675948
 30
0.0
 10
236.7115451302124
 20
110.3267235474443
 30
0.0
 10
236.8167811882584
 20
108.8082416280066
 30
0.0
 10
236.9892279043343
 20
106.7187712718961
 30
0.0
 10
237.0481411270282
 20
106.0667007132592
 30
0.0
 10
237.1676854875849
 20
104.8551030356533
 30
0.0
 10
237.2284197099806
 20
104.2943501585614
 30
0.0
 10
237.3513766676102
 20
103.2643587807994
 30
0.0
 10
237.4139779949173
 20
102.7931614160848
 30
0.0
 10
237.5365853243463
 20
101.9717082311127
 30
0.0
 10
237.5969592481691
 20
101.6177690025039
 30
0.0
 10
237.7154466142092
 20
101.02244145972
 30
0.0
 10
237.7736623910062
 20
100.7807116097999
 30
0.0
 10
237.8869497608979
 20
100.4167746467719
 30
0.0
 10
237.9409887865102
 20
100.2976912753101
 30
0.0
 10
237.9923644813843
 20
100.2400681188106
 30
0.0
  0
SPLINE
  5
12A
330
1F
100
AcDbEntity
  8
0
  6
HIDDEN
 62
     7
370
     0
100
AcDbSpline
210
0.0
220
0.0
230
1.0
 70
     8
 71
     3
 72
    14
 73
    10
 74
     0
 42
0.00000001
 43
0.00000001
 12
1.0
 22
0.0
 32
0.0
 13
1.0
 23
0.0
 33
0.0
 40
0.0
 40
0.0
 40
0.0
 40
0.0
 40
0.2499999999999999
 40
0.2499999999999999
 40
0.4999999999999998
 40
0.4999999999999998
 40
0.7499999999999999
 40
0.7499999999999999
 40
1.0
 40
1.0
 40
1.0
 40
1.0
 10
236.6172335293746
 20
111.9710221675948
 30
0.0
 10
236.3458697373007
 20
112.5951769679429
 30
0.0
 10
236.0955735839613
 20
113.2300284481081
 30
0.0
 10
235.6485536848506
 20
114.5269317462647
 30
0.0
 10
235.4517420909751
 20
115.1904703234112
 30
0.0
 10
235.1302770931334
 20
116.5307872677698
 30
0.0
 10
235.0048999804999
 20
117.2114072292836
 30
0.0
 10
234.8375431680162
 20
118.5717738665793
 30
0.0
 10
234.794924577572
 20
119.2535609590511
 30
0.0
 10
234.7949245775721
 20
119.9370127102271
 30
0.0
  0
LINE
  5
12B
330
1F
100
AcDbEntity
  8
0
  6
HIDDEN
 62
     7
370
     0
100
AcDbLine
 10
256.5219350661
 20
114.8062691023
 30
0.0
 11
258.5927866901
 21
114.3488239428
 31
0.0
  0
ELLIPSE
  5
12C
330
1F
100
AcDbEntity
  8
0
  6
HIDDEN
 62
     7
370
     0
100
AcDbEllipse
 10
247.6292236035
 20
111.2251996942
 30
0.0
 11
1.616902374425194
 21
2.318196838028342
 31
0.0
210
0.0
220
0.0
230
1.0
 40
0.57803977
 41
3.548934393834049
 42
3.686857627939776
  0
ELLIPSE
  5
12D
330
1F
100
AcDbEntity
  8
0
  6
HIDDEN
 62
     7
370
     0
100
AcDbEllipse
 10
247.6292236035
 20
111.2251996942
 30
0.0
 11
2.099281448397704
 21
-0.1276543563555492
 31
0.0
210
0.0
220
0.0
230
1.0
 40
0.4303093993
 41
0.3596638604385092
 42
0.4975870945442532
  0
LINE
  5
12E
330
1F
100
AcDbEntity
  8
0
  6
HIDDEN
 62
     7
370
     0
100
AcDbLine
 10
249.613518318
 20
111.423652426
 30
0.0
 11
249.613518318
 21
111.5896727821
 31
0.0
  0
ARC
  5
12F
330
1F
100
AcDbEntity
  8
0
  6
HIDDEN
 62
     7
370
     0
100
AcDbCircle
 10
247.6308039538
 20
110.9054818067
 30
0.0
 40
2.09744452633843
100
AcDbArc
 50
250.8217787054
 51
19.0384245687
  0
LINE
  5
130
330
1F
100
AcDbEntity
  8
0
  6
HIDDEN
 62
     7
370
     0
100
AcDbLine
 10
246.9417773689
 20
108.924442709
 30
0.0
 11
246.9417773689
 21
108.7584223529
 31
0.0
  0
ARC
  5
131
330
1F
100
AcDbEntity
  8
0
  6
HIDDEN
 62
     7
370
     0
100
AcDbCircle
 10
247.6264470569
 20
110.9301325255
 30
0.0
 40
2.097399914846384
100
AcDbArc
 50
270.0757523975
 51
184.6471378757
  0
LWPOLYLINE
  5
132
330
1F
100
AcDbEntity
  8
0
  6
HIDDEN
 62
     7
370
     0
100
AcDbPolyline
 90
        3
 70
   128
 43
0.0
 10
246.6039754952
 20
109.099363715
 10
247.0626481379
 20
108.9104179224
 10
247.6292200888
 20
108.8327344438
  0
LINE
  5
133
330
1F
100
AcDbEntity
  8
0
  6
HIDDEN
 62
     7
370
     0
100
AcDbLine
 10
258.6750485505
 20
110.6328030979
 30
0.0
 11
249.613518318
 21
111.423652426
 31
0.0
  0
LINE
  5
134
330
1F
100
AcDbEntity
  8
0
  6
HIDDEN
 62
     7
370
     0
100
AcDbLine
 10
258.6750485505
 20
110.6328030979
 30
0.0
 11
258.9107849206
 21
110.7228778234
 31
0.0
  0
LINE
  5
135
330
1F
100
AcDbEntity
  8
0
  6
HIDDEN
 62
     7
370
     0
100
AcDbLine
 10
246.9417773689
 20
108.7584223529
 30
0.0
 11
247.7417611087
 21
99.6368199518
 31
0.0
  0
ELLIPSE
  5
136
330
1F
100
AcDbEntity
  8
0
  6
HIDDEN
 62
     7
370
     0
100
AcDbEllipse
 10
245.828734863
 20
118.5927087371
 30
0.0
 11
-1.56390546541354
 21
19.20496181771456
 31
0.0
210
0.0
220
0.0
230
1.0
 40
0.1268365588
 41
3.183087968823065
 42
3.292820353496269
  0
LINE
  5
137
330
1F
100
AcDbEntity
  8
0
  6
HIDDEN
 62
     7
370
     0
100
AcDbLine
 10
258.3794393147
 20
110.8246220207
 30
0.0
 11
258.6750485505
 21
110.6328030979
 31
0.0
  0
LINE
  5
138
330
1F
100
AcDbEntity
  8
0
  6
HIDDEN
 62
     7
370
     0
100
AcDbLine
 10
246.9417773689
 20
108.924442709
 30
0.0
 11
247.7063112463
 21
100.2070929786
 31
0.0
  0
ELLIPSE
  5
139
330
1F
100
AcDbEntity
  8
0
  6
HIDDEN
 62
     7
370
     0
100
AcDbEllipse
 10
246.0692761993
 20
118.571664097
 30
0.0
 11
-1.677499657206823
 21
19.21932851201932
 31
0.0
210
0.0
220
0.0
230
1.0
 40
0.0059876405
 41
3.313341589854302
 42
3.440427958460914
  0
LWPOLYLINE
  5
13A
330
1F
100
AcDbEntity
  8
0
  6
HIDDEN
 62
     7
370
     0
100
AcDbPolyline
 90
       24
 70
   128
 43
0.0
 10
222.2949214781
 20
121.9112638315
 10
222.8615008796
 20
121.9829470316
 10
223.386051556
 20
122.1926799441
 10
223.8296814765
 20
122.5249076193
 10
224.1594814266
 20
122.9549905216
 10
224.3509986008
 20
123.4510313185
 10
224.3900321926
 20
123.9762406727
 10
224.2736690248
 20
124.4916662505
 10
224.0105592216
 20
124.9590816839
 10
223.620208403
 20
125.3438208183
 10
223.1315695251
 20
125.6173488615
 10
222.5808747614
 20
125.7593797451
 10
222.0089756454
 20
125.7593797451
 10
221.4582808817
 20
125.6173488615
 10
220.9696420039
 20
125.3438208183
 10
220.5792911852
 20
124.9590816839
 10
220.3161739315
 20
124.4916662505
 10
220.1998182143
 20
123.9762406727
 10
220.2388443554
 20
123.4510313185
 10
220.4303689803
 20
122.9549905216
 10
220.7601689304
 20
122.5249076193
 10
221.2037988509
 20
122.1926799441
 10
221.7283495272
 20
121.9829470316
 10
222.2949214781
 20
121.9112638315
  0
LINE
  5
13B
330
1F
100
AcDbEntity
  8
0
  6
HIDDEN
 62
     7
370
     0
100
AcDbLine
 10
127.7949236835
 20
110.2794015711
 30
0.0
 11
127.7949236835
 21
106.4394822275
 31
0.0
  0
LINE
  5
13C
330
1F
100
AcDbEntity
  8
0
  6
HIDDEN
 62
     7
370
     0
100
AcDbLine
 10
126.294924369
 20
110.7124144142
 30
0.0
 11
126.294924369
 21
107.3055079138
 31
0.0
  0
SPLINE
  5
13D
330
1F
100
AcDbEntity
  8
0
  6
HIDDEN
 62
     7
370
     0
100
AcDbSpline
210
0.0
220
0.0
230
1.0
 70
     8
 71
     3
 72
     8
 73
     4
 74
     0
 42
0.00000001
 43
0.00000001
 12
1.0
 22
0.0
 32
0.0
 13
1.0
 23
0.0
 33
0.0
 40
0.0
 40
0.0
 40
0.0
 40
0.0
 40
1.0
 40
1.0
 40
1.0
 40
1.0
 10
148.7998845996297
 20
106.1979281790695
 30
0.0
 10
148.8506117428363
 20
106.1521738777443
 30
0.0
 10
148.9084990723972
 20
106.1236697318808
 30
0.0
 10
148.9736042340124
 20
106.111948702222
 30
0.0
  0
LINE
  5
13E
330
1F
100
AcDbEntity
  8
0
  6
HIDDEN
 62
     7
370
     0
100
AcDbLine
 10
148.594924555
 20
106.0167763313
 30
0.0
 11
148.594924555
 21
105.9169143369
 31
0.0
  0
SPLINE
  5
13F
330
1F
100
AcDbEntity
  8
0
  6
HIDDEN
 62
     7
370
     0
100
AcDbSpline
210
0.0
220
0.0
230
1.0
 70
     8
 71
     3
 72
    24
 73
    20
 74
     0
 42
0.00000001
 43
0.00000001
 12
1.0
 22
0.0
 32
0.0
 13
1.0
 23
0.0
 33
0.0
 40
0.0
 40
0.0
 40
0.0
 40
0.0
 40
0.2500000000000039
 40
0.2500000000000039
 40
0.3750000000000059
 40
0.3750000000000059
 40
0.437500000000008
 40
0.437500000000008
 40
0.4687500000000084
 40
0.4687500000000084
 40
0.5000000000000088
 40
0.5000000000000088
 40
0.5625000000000068
 40
0.5625000000000068
 40
0.6250000000000048
 40
0.6250000000000048
 40
0.7500000000000033
 40
0.7500000000000033
 40
1.0
 40
1.0
 40
1.0
 40
1.0
 10
148.5949245775719
 20
106.0167763219119
 30
0.0
 10
148.5953274882073
 20
106.0472005587501
 30
0.0
 10
148.5973714675477
 20
106.0800586593046
 30
0.0
 10
148.6066087103731
 20
106.1360840264584
 30
0.0
 10
148.6104957733534
 20
106.1556950796439
 30
0.0
 10
148.621399664759
 20
106.189969363073
 30
0.0
 10
148.6255417105093
 20
106.2020317885452
 30
0.0
 10
148.6374367842594
 20
106.2243509532431
 30
0.0
 10
148.6426838485664
 20
106.233317465602
 30
0.0
 10
148.6595509149418
 20
106.2509670301301
 30
0.0
 10
148.6673733224711
 20
106.2551113142751
 30
0.0
 10
148.6843221230957
 20
106.2615988554526
 30
0.0
 10
148.6917784743139
 20
106.2610019740809
 30
0.0
 10
148.7058383775071
 20
106.2592557101095
 30
0.0
 10
148.7119707626434
 20
106.2574250222111
 30
0.0
 10
148.7292655251673
 20
106.2508586126384
 30
0.0
 10
148.7392828435765
 20
106.2449933974797
 30
0.0
 10
148.7676541778201
 20
106.226248713449
 30
0.0
 10
148.7841896154649
 20
106.2120845653621
 30
0.0
 10
148.7998845996297
 20
106.1979281790695
 30
0.0
  0
LINE
  5
140
330
1F
100
AcDbEntity
  8
0
  6
HIDDEN
 62
     7
370
     0
100
AcDbLine
 10
148.594924555
 20
110.0181171602
 30
0.0
 11
148.594924555
 21
108.9629743179
 31
0.0
  0
SPLINE
  5
141
330
1F
100
AcDbEntity
  8
0
  6
HIDDEN
 62
     7
370
     0
100
AcDbSpline
210
0.0
220
0.0
230
1.0
 70
     8
 71
     3
 72
    16
 73
    12
 74
     0
 42
0.00000001
 43
0.00000001
 12
1.0
 22
0.0
 32
0.0
 13
1.0
 23
0.0
 33
0.0
 40
0.0
 40
0.0
 40
0.0
 40
0.0
 40
0.2499999999999999
 40
0.2499999999999999
 40
0.3749999999999998
 40
0.3749999999999998
 40
0.4999999999999998
 40
0.4999999999999998
 40
0.7499999999999999
 40
0.7499999999999999
 40
1.0
 40
1.0
 40
1.0
 40
1.0
 10
148.5949245775719
 20
108.9629747179807
 30
0.0
 10
148.5143872456724
 20
108.5739675340351
 30
0.0
 10
148.454349901645
 20
108.2174670924095
 30
0.0
 10
148.3936121944913
 20
107.7309647072206
 30
0.0
 10
148.3782898193784
 20
107.5768857663667
 30
0.0
 10
148.3577070100743
 20
107.2854162078733
 30
0.0
 10
148.3525074130487
 20
107.1478463239742
 30
0.0
 10
148.3524537598689
 20
106.7696014887845
 30
0.0
 10
148.3726513033469
 20
106.5597204202324
 30
0.0
 10
148.4533293917056
 20
106.2231411213212
 30
0.0
 10
148.5143755563134
 20
106.0968566294034
 30
0.0
 10
148.594924577572
 20
106.0167763219121
 30
0.0
  0
LINE
  5
142
330
1F
100
AcDbEntity
  8
0
  6
HIDDEN
 62
     7
370
     0
100
AcDbLine
 10
127.7949236835
 20
133.4345431929
 30
0.0
 11
127.7949236835
 21
129.5946238493
 31
0.0
  0
LINE
  5
143
330
1F
100
AcDbEntity
  8
0
  6
HIDDEN
 62
     7
370
     0
100
AcDbLine
 10
126.294924369
 20
132.5685175067
 30
0.0
 11
126.294924369
 21
129.1616110062
 31
0.0
  0
LINE
  5
144
330
1F
100
AcDbEntity
  8
0
  6
HIDDEN
 62
     7
370
     0
100
AcDbLine
 10
148.594924555
 20
133.9571110835
 30
0.0
 11
148.594924555
 21
133.8572490891
 31
0.0
  0
SPLINE
  5
145
330
1F
100
AcDbEntity
  8
0
  6
HIDDEN
 62
     7
370
     0
100
AcDbSpline
210
0.0
220
0.0
230
1.0
 70
     8
 71
     3
 72
    24
 73
    20
 74
     0
 42
0.00000001
 43
0.00000001
 12
1.0
 22
0.0
 32
0.0
 13
1.0
 23
0.0
 33
0.0
 40
0.0
 40
0.0
 40
0.0
 40
0.0
 40
0.2500000000000018
 40
0.2500000000000018
 40
0.3750000000000028
 40
0.3750000000000028
 40
0.4375000000000041
 40
0.4375000000000041
 40
0.5000000000000053
 40
0.5000000000000053
 40
0.5312500000000044
 40
0.5312500000000044
 40
0.5625000000000036
 40
0.5625000000000036
 40
0.6250000000000016
 40
0.6250000000000016
 40
0.7500000000000017
 40
0.7500000000000017
 40
1.0
 40
1.0
 40
1.0
 40
1.0
 10
148.7998845996324
 20
133.6760972413871
 30
0.0
 10
148.784118011334
 20
133.6618762703988
 30
0.0
 10
148.7675064783794
 20
133.647645980064
 30
0.0
 10
148.7389801304214
 20
133.6288489248425
 30
0.0
 10
148.7288946966314
 20
133.6229605045013
 30
0.0
 10
148.7114119260965
 20
133.6164231096989
 30
0.0
 10
148.7052042696509
 20
133.6146118956977
 30
0.0
 10
148.6909327694057
 20
133.6130060931913
 30
0.0
 10
148.6833626989027
 20
133.6124533158052
 30
0.0
 10
148.6659663694674
 20
133.619652060518
 30
0.0
 10
148.6575070965073
 20
133.6247438092657
 30
0.0
 10
148.6414461319598
 20
133.6425587417449
 30
0.0
 10
148.6366128961135
 20
133.6510811566072
 30
0.0
 10
148.6251869763782
 20
133.672977593256
 30
0.0
 10
148.6211656204958
 20
133.6847181160619
 30
0.0
 10
148.6104051254647
 20
133.7187683800152
 30
0.0
 10
148.6065308164038
 20
133.7383433690439
 30
0.0
 10
148.5973579442766
 20
133.7941916777251
 30
0.0
 10
148.5953255735619
 20
133.8269694387539
 30
0.0
 10
148.594924577572
 20
133.8572490985418
 30
0.0
  0
LINE
  5
146
330
1F
100
AcDbEntity
  8
0
  6
HIDDEN
 62
     7
370
     0
100
AcDbLine
 10
148.594924555
 20
130.9110511025
 30
0.0
 11
148.594924555
 21
129.8559082603
 31
0.0
  0
SPLINE
  5
147
330
1F
100
AcDbEntity
  8
0
  6
HIDDEN
 62
     7
370
     0
100
AcDbSpline
210
0.0
220
0.0
230
1.0
 70
     8
 71
     3
 72
    16
 73
    12
 74
     0
 42
0.00000001
 43
0.00000001
 12
1.0
 22
0.0
 32
0.0
 13
1.0
 23
0.0
 33
0.0
 40
0.0
 40
0.0
 40
0.0
 40
0.0
 40
0.2499999999999994
 40
0.2499999999999994
 40
0.3749999999999996
 40
0.3749999999999996
 40
0.4999999999999997
 40
0.4999999999999997
 40
0.7499999999999998
 40
0.7499999999999998
 40
1.0
 40
1.0
 40
1.0
 40
1.0
 10
148.5949245775719
 20
133.857249098542
 30
0.0
 10
148.5143872456726
 20
133.7771804123896
 30
0.0
 10
148.4543499016452
 20
133.6533159208993
 30
0.0
 10
148.3936121944916
 20
133.4026350969673
 30
0.0
 10
148.3782898193787
 20
133.3081964926578
 30
0.0
 10
148.3577070100745
 20
133.0968854250391
 30
0.0
 10
148.3525074130488
 20
132.9795959702854
 30
0.0
 10
148.3524537598688
 20
132.6015602985302
 30
0.0
 10
148.3726513033464
 20
132.3127831447861
 30
0.0
 10
148.4533293917044
 20
131.6629432816473
 30
0.0
 10
148.5143755563118
 20
131.3001143477545
 30
0.0
 10
148.5949245775699
 20
130.9110507024829
 30
0.0
  0
SPLINE
  5
148
330
1F
100
AcDbEntity
  8
0
  6
HIDDEN
 62
     7
370
     0
100
AcDbSpline
210
0.0
220
0.0
230
1.0
 70
     8
 71
     3
 72
     8
 73
     4
 74
     0
 42
0.00000001
 43
0.00000001
 12
1.0
 22
0.0
 32
0.0
 13
1.0
 23
0.0
 33
0.0
 40
0.0
 40
0.0
 40
0.0
 40
0.0
 40
1.0
 40
1.0
 40
1.0
 40
1.0
 10
148.9736042340124
 20
133.7620767182323
 30
0.0
 10
148.9084990723983
 20
133.7503556885736
 30
0.0
 10
148.8506117428383
 20
133.7218515427109
 30
0.0
 10
148.7998845996323
 20
133.6760972413871
 30
0.0
  0
LINE
  5
149
330
1F
100
AcDbEntity
  8
0
  6
HIDDEN
 62
     7
370
     0
100
AcDbLine
 10
258.8503160084
 20
99.2529679021
 30
0.0
 11
259.3494825567
 21
99.7639417579
 31
0.0
  0
CIRCLE
  5
14A
330
1F
100
AcDbEntity
  8
0
  6
HIDDEN
 62
     7
370
     0
100
AcDbCircle
 10
253.3484672136
 20
105.2023248361
 30
0.0
 40
2.997507878441609
  0
LINE
  5
14B
330
1F
100
AcDbEntity
  8
0
  6
HIDDEN
 62
     7
370
     0
100
AcDbLine
 10
258.3794393147
 20
110.8246220207
 30
0.0
 11
249.613518318
 21
111.5896727821
 31
0.0
  0
ELLIPSE
  5
14C
330
1F
100
AcDbEntity
  8
0
  6
HIDDEN
 62
     7
370
     0
100
AcDbEllipse
 10
-461.4899277006
 20
180.4750732117
 30
0.0
 11
3113.3312234762
 21
-271.0557416021152
 31
0.0
210
0.0
220
0.0
230
1.0
 40
0.0060650906
 41
4.942727870743417
 42
4.946405554949569
  0
LINE
  5
14D
330
1F
100
AcDbEntity
  8
0
  6
HIDDEN
 62
     7
370
     0
100
AcDbLine
 10
259.3494825567
 20
99.7639417579
 30
0.0
 11
258.3794393147
 21
110.8246220207
 31
0.0
  0
CIRCLE
  5
14E
330
1F
100
AcDbEntity
  8
0
  6
HIDDEN
 62
     7
370
     0
100
AcDbCircle
 10
253.3486622517
 20
105.2638562102
 30
0.0
 40
2.098450789756989
  0
SPLINE
  5
14F
330
1F
100
AcDbEntity
  8
0
  6
HIDDEN
 62
     7
370
     0
100
AcDbSpline
210
0.0
220
0.0
230
1.0
 70
     8
 71
     3
 72
    25
 73
    21
 74
     0
 42
0.00000001
 43
0.00000001
 12
1.0
 22
0.0
 32
0.0
 13
1.0
 23
0.0
 33
0.0
 40
0.0
 40
0.0
 40
0.0
 40
0.0
 40
0.0199998880672725
 40
0.0408828444983759
 40
0.0626488720923077
 40
0.0923707142468132
 40
0.1253136303742974
 40
0.1879819105471935
 40
0.2506511419271199
 40
0.3133132887856501
 40
0.3759603830168295
 40
0.50113432458703
 40
0.6261581682074893
 40
0.6898548643651565
 40
0.7510243910058092
 40
0.8143052731649852
 40
0.8756460386478172
 40
0.9177870029715224
 40
0.959238043771505
 40
1.0
 40
1.0
 40
1.0
 40
1.0
 10
256.4996859554404
 20
110.2315330023332
 30
0.0
 10
256.5139637328169
 20
110.1291658761894
 30
0.0
 10
256.5431497037732
 20
109.919911740076
 30
0.0
 10
256.5883883777761
 20
109.6023442728038
 30
0.0
 10
256.6410816432791
 20
109.2383966405777
 30
0.0
 10
256.7032135300287
 20
108.8183806022012
 30
0.0
 10
256.7965192142019
 20
108.203466397441
 30
0.0
 10
256.9163525596958
 20
107.4442330361189
 30
0.0
 10
257.0613435987893
 20
106.5721619765203
 30
0.0
 10
257.2085889005637
 20
105.7322767588989
 30
0.0
 10
257.4072376491339
 20
104.659178488572
 30
0.0
 10
257.6590560549448
 20
103.4100125172163
 30
0.0
 10
257.9136788114375
 20
102.2940433023781
 30
0.0
 10
258.1156886364964
 20
101.496429320587
 30
0.0
 10
258.2671040159366
 20
100.9426570344918
 30
0.0
 10
258.4154590812969
 20
100.4436453890207
 30
0.0
 10
258.5472485147739
 20
100.0399031905795
 30
0.0
 10
258.6604423598096
 20
99.72252276171005
 30
0.0
 10
258.7566355035421
 20
99.4717711962765
 30
0.0
 10
258.8192645039769
 20
99.32549023948243
 30
0.0
 10
258.850316535488
 20
99.25296280253913
 30
0.0
  0
SPLINE
  5
150
330
1F
100
AcDbEntity
  8
0
  6
HIDDEN
 62
     7
370
     0
100
AcDbSpline
210
0.0
220
0.0
230
1.0
 70
     8
 71
     3
 72
    29
 73
    25
 74
     0
 42
0.00000001
 43
0.00000001
 12
1.0
 22
0.0
 32
0.0
 13
1.0
 23
0.0
 33
0.0
 40
0.0
 40
0.0
 40
0.0
 40
0.0
 40
0.0248585524670622
 40
0.04970624069727
 40
0.074556062232076
 40
0.0994210112675348
 40
0.1243140583100006
 40
0.1554263774909435
 40
0.1865867279805296
 40
0.2489251963033749
 40
0.3113303818025483
 40
0.3737960827805089
 40
0.4363152917591057
 40
0.4988803158591515
 40
0.5614828870091174
 40
0.6241142219351308
 40
0.6867652256274546
 40
0.7494264786089526
 40
0.8120885030433362
 40
0.8434043211229465
 40
0.8747479337717001
 40
0.9164935886823443
 40
0.958224659544793
 40
1.0
 40
1.0
 40
1.0
 40
1.0
 10
259.3494861836044
 20
99.7639409179106
 30
0.0
 10
259.3292751752053
 20
99.8097194870061
 30
0.0
 10
259.288861991471
 20
99.90125661802982
 30
0.0
 10
259.2276089240623
 20
100.0503525323724
 30
0.0
 10
259.1659251656132
 20
100.2080077135229
 30
0.0
 10
259.1037626730666
 20
100.3750753393137
 30
0.0
 10
259.0359548968704
 20
100.565895590076
 30
0.0
 10
258.9623860029108
 20
100.7833320817707
 30
0.0
 10
258.8565418458581
 20
101.1125202274813
 30
0.0
 10
258.7229874560159
 20
101.5584261010207
 30
0.0
 10
258.5613760247816
 20
102.1463531794396
 30
0.0
 10
258.3988767939027
 20
102.7853965287019
 30
0.0
 10
258.2360310394555
 20
103.4734901407703
 30
0.0
 10
258.0733765754435
 20
104.2082747079028
 30
0.0
 10
257.9114534773409
 20
104.9874121371759
 30
0.0
 10
257.7507954822192
 20
105.8082247611947
 30
0.0
 10
257.5919368703202
 20
106.6680876809674
 30
0.0
 10
257.4354033736051
 20
107.5640649089142
 30
0.0
 10
257.3073265049306
 20
108.338392950953
 30
0.0
 10
257.2065408086985
 20
108.9729297198604
 30
0.0
 10
257.1235583137294
 20
109.5095204572027
 30
0.0
 10
257.0336844649717
 20
110.1095058936469
 30
0.0
 10
256.9373284805553
 20
110.7745286365318
 30
0.0
 10
256.8747722715888
 20
111.2263926928701
 30
0.0
 10
256.8434775855171
 20
111.4524444953024
 30
0.0
  0
SPLINE
  5
151
330
1F
100
AcDbEntity
  8
0
  6
HIDDEN
 62
     7
370
     0
100
AcDbSpline
210
0.0
220
0.0
230
1.0
 70
     8
 71
     3
 72
    58
 73
    54
 74
     0
 42
0.00000001
 43
0.00000001
 12
1.0
 22
0.0
 32
0.0
 13
1.0
 23
0.0
 33
0.0
 40
-0.0312499999999997
 40
-0.0312499999999997
 40
0.0
 40
0.0
 40
0.03125
 40
0.03125
 40
0.0625
 40
0.0625
 40
0.0937500000000001
 40
0.0937500000000001
 40
0.1250000000000001
 40
0.1250000000000001
 40
0.1562499999999999
 40
0.1562499999999999
 40
0.1874999999999997
 40
0.1874999999999997
 40
0.2187499999999996
 40
0.2187499999999996
 40
0.2499999999999994
 40
0.2499999999999994
 40
0.3124999999999993
 40
0.3124999999999993
 40
0.3437499999999993
 40
0.3437499999999993
 40
0.3749999999999993
 40
0.3749999999999993
 40
0.4062499999999994
 40
0.4062499999999994
 40
0.4374999999999994
 40
0.4374999999999994
 40
0.4687499999999994
 40
0.4687499999999994
 40
0.4999999999999994
 40
0.4999999999999994
 40
0.5624999999999968
 40
0.5624999999999968
 40
0.5937499999999967
 40
0.5937499999999967
 40
0.6249999999999964
 40
0.6249999999999964
 40
0.6874999999999969
 40
0.6874999999999969
 40
0.7499999999999973
 40
0.7499999999999973
 40
0.7812499999999978
 40
0.7812499999999978
 40
0.8124999999999981
 40
0.8124999999999981
 40
0.8749999999999992
 40
0.8749999999999992
 40
0.9375000000000007
 40
0.9375000000000007
 40
0.9687500000000003
 40
0.9687500000000003
 40
1.0
 40
1.0
 40
1.03125
 40
1.03125
 10
253.1824304312984
 20
103.5994848141482
 30
0.0
 10
253.5166705990906
 20
103.6020055971343
 30
0.0
 10
253.6744124622566
 20
103.62445692399
 30
0.0
 10
253.9756017337589
 20
103.7028097299088
 30
0.0
 10
254.1149806336118
 20
103.7580567064736
 30
0.0
 10
254.3686852978015
 20
103.8890213807399
 30
0.0
 10
254.4855101400216
 20
103.9661697610608
 30
0.0
 10
254.6948392985676
 20
104.1333100552101
 30
0.0
 10
254.7883942992599
 20
104.223731471407
 30
0.0
 10
254.9573971794851
 20
104.4167366924091
 30
0.0
 10
255.033190063972
 20
104.5201014529641
 30
0.0
 10
255.1650850176787
 20
104.7342471717854
 30
0.0
 10
255.22144372458
 20
104.8450991037672
 30
0.0
 10
255.3162965412071
 20
105.0742411262782
 30
0.0
 10
255.354778654577
 20
105.1925330846932
 30
0.0
 10
255.4133218456406
 20
105.4369289403507
 30
0.0
 10
255.4332716175165
 20
105.5634987160795
 30
0.0
 10
255.461983806417
 20
105.9445426619085
 30
0.0
 10
255.441813814105
 20
106.2036705114294
 30
0.0
 10
255.3369582622182
 20
106.5991817889644
 30
0.0
 10
255.2893355059521
 20
106.7310188662502
 30
0.0
 10
255.1682870388141
 20
106.9862174505374
 30
0.0
 10
255.0945445275501
 20
107.1108418648533
 30
0.0
 10
254.9158875632234
 20
107.3507664011203
 30
0.0
 10
254.8137281581912
 20
107.4624009256172
 30
0.0
 10
254.5806393600005
 20
107.6660528341461
 30
0.0
 10
254.448127459987
 20
107.7584472182672
 30
0.0
 10
254.1658453595695
 20
107.9088050674165
 30
0.0
 10
254.0133188280634
 20
107.9688089492731
 30
0.0
 10
253.691194757623
 20
108.0506890525361
 30
0.0
 10
253.5275767377101
 20
108.0713821691872
 30
0.0
 10
253.0290202420291
 20
108.0724077746336
 30
0.0
 10
252.7010738530072
 20
107.986924076066
 30
0.0
 10
252.2833785359264
 20
107.7698086902885
 30
0.0
 10
252.1538791425525
 20
107.6819499267142
 30
0.0
 10
251.9240064344507
 20
107.4881101151942
 30
0.0
 10
251.8219164201959
 20
107.3811385969406
 30
0.0
 10
251.5544974080204
 20
107.040283899912
 30
0.0
 10
251.4317328894165
 20
106.7938339786948
 30
0.0
 10
251.2748061393651
 20
106.2842285983477
 30
0.0
 10
251.2432018398189
 20
106.0299789375747
 30
0.0
 10
251.254237360562
 20
105.6507658926552
 30
0.0
 10
251.2680922620258
 20
105.5243950245344
 30
0.0
 10
251.3147854741055
 20
105.2785054070283
 30
0.0
 10
251.3475828276502
 20
105.1581878611217
 30
0.0
 10
251.4748175257868
 20
104.8047621779113
 30
0.0
 10
251.5990911964471
 20
104.576833551811
 30
0.0
 10
251.9328690651181
 20
104.1651538327767
 30
0.0
 10
252.1454665286693
 20
103.9759660674482
 30
0.0
 10
252.5501787980712
 20
103.7604733697859
 30
0.0
 10
252.6980323548688
 20
103.7013599280972
 30
0.0
 10
253.0162486161395
 20
103.6201965936232
 30
0.0
 10
253.1824304312984
 20
103.5994848141482
 30
0.0
 10
253.5166705990906
 20
103.6020055971343
 30
0.0
  0
LWPOLYLINE
  5
152
330
1F
100
AcDbEntity
  8
0
  6
HIDDEN
 62
     7
370
     0
100
AcDbPolyline
 90
       26
 70
   128
 43
0.0
 10
222.2949214781
 20
121.636971871
 10
222.9166500772
 20
121.7092702096
 10
223.4993078316
 20
121.9216226997
 10
224.0062900389
 20
122.2606860498
 10
224.405745467
 20
122.7051560232
 10
224.6725656594
 20
123.2271048171
 10
224.7899942602
 20
123.7937366055
 10
224.7506402935
 20
124.369447392
 10
224.5569922532
 20
124.9180639094
 10
224.2212094868
 20
125.4051134853
 10
223.7643845881
 20
125.7999942569
 10
223.2152395452
 20
126.0778934626
 10
222.6082556451
 20
126.221350201
 10
221.9815947617
 20
126.221350201
 10
221.3746108616
 20
126.0778934626
 10
220.8254583682
 20
125.7999942569
 10
220.36864092
 20
125.4051134853
 10
220.0328581537
 20
124.9180639094
 10
219.8392101134
 20
124.369447392
 10
219.7998561467
 20
123.7937366055
 10
219.9172847475
 20
123.2271048171
 10
220.1841049398
 20
122.7051560232
 10
220.5835603679
 20
122.2606860498
 10
221.0905425752
 20
121.9216226997
 10
221.6732003296
 20
121.7092702096
 10
222.2949214781
 20
121.636971871
  0
LINE
  5
153
330
1F
100
AcDbEntity
  8
0
  6
HIDDEN
 62
     7
370
     0
100
AcDbLine
 10
126.294924369
 20
129.1616110062
 30
0.0
 11
126.294924369
 21
121.7872265657
 31
0.0
  0
LINE
  5
154
330
1F
100
AcDbEntity
  8
0
  6
HIDDEN
 62
     7
370
     0
100
AcDbLine
 10
126.294924369
 20
118.0867988547
 30
0.0
 11
126.294924369
 21
110.7124144142
 31
0.0
  0
SPLINE
  5
155
330
1F
100
AcDbEntity
  8
0
  6
HIDDEN
 62
     7
370
     0
100
AcDbSpline
210
0.0
220
0.0
230
1.0
 70
     8
 71
     3
 72
    24
 73
    20
 74
     0
 42
0.00000001
 43
0.00000001
 12
1.0
 22
0.0
 32
0.0
 13
1.0
 23
0.0
 33
0.0
 40
0.0
 40
0.0
 40
0.0
 40
0.0
 40
0.2500000000000072
 40
0.2500000000000072
 40
0.3750000000000076
 40
0.3750000000000076
 40
0.4375000000000092
 40
0.4375000000000092
 40
0.5000000000000107
 40
0.5000000000000107
 40
0.5312500000000093
 40
0.5312500000000093
 40
0.562500000000008
 40
0.562500000000008
 40
0.6250000000000094
 40
0.6250000000000094
 40
0.7500000000000084
 40
0.7500000000000084
 40
1.0
 40
1.0
 40
1.0
 40
1.0
 10
148.7998845996324
 20
109.1444189834289
 30
0.0
 10
148.784115722275
 20
109.0705602914993
 30
0.0
 10
148.767501740425
 20
108.9968489027636
 30
0.0
 10
148.7389700744199
 20
108.8853020791415
 30
0.0
 10
148.7288826596012
 20
108.8479305060131
 30
0.0
 10
148.7113950991469
 20
108.7910310083754
 30
0.0
 10
148.7051855373636
 20
108.7719279082301
 30
0.0
 10
148.690907983711
 20
108.7330543939945
 30
0.0
 10
148.6833364359156
 20
108.7131297345612
 30
0.0
 10
148.6659188522373
 20
108.6830575165338
 30
0.0
 10
148.6574363555923
 20
108.6713761377307
 30
0.0
 10
148.6413980437204
 20
108.664114626982
 30
0.0
 10
148.6365774955169
 20
108.6676928739918
 30
0.0
 10
148.625168270969
 20
108.6794537292234
 30
0.0
 10
148.6211477905114
 20
108.6911193792739
 30
0.0
 10
148.6103939356911
 20
108.7276547093875
 30
0.0
 10
148.606521254409
 20
108.7550504427111
 30
0.0
 10
148.5973531045713
 20
108.8397764344671
 30
0.0
 10
148.5953245992023
 20
108.9006085566392
 30
0.0
 10
148.594924577572
 20
108.9629747179808
 30
0.0
  0
SPLINE
  5
156
330
1F
100
AcDbEntity
  8
0
  6
HIDDEN
 62
     7
370
     0
100
AcDbSpline
210
0.0
220
0.0
230
1.0
 70
     8
 71
     3
 72
    24
 73
    20
 74
     0
 42
0.00000001
 43
0.00000001
 12
1.0
 22
0.0
 32
0.0
 13
1.0
 23
0.0
 33
0.0
 40
0.0
 40
0.0
 40
0.0
 40
0.0
 40
0.2499999999999939
 40
0.2499999999999939
 40
0.3749999999999878
 40
0.3749999999999878
 40
0.4374999999999877
 40
0.4374999999999877
 40
0.4687499999999899
 40
0.4687499999999899
 40
0.499999999999992
 40
0.499999999999992
 40
0.5624999999999949
 40
0.5624999999999949
 40
0.6249999999999979
 40
0.6249999999999979
 40
0.7499999999999973
 40
0.7499999999999973
 40
1.0
 40
1.0
 40
1.0
 40
1.0
 10
148.5949245775684
 20
130.9110507024843
 30
0.0
 10
148.5953292471442
 20
130.9741415109769
 30
0.0
 10
148.5973726939586
 20
131.0353272334795
 30
0.0
 10
148.6067722592129
 20
131.1208269659811
 30
0.0
 10
148.6107231527416
 20
131.1484073494223
 30
0.0
 10
148.6218754610386
 20
131.1848614315338
 30
0.0
 10
148.6260970019651
 20
131.1967198532283
 30
0.0
 10
148.6383047235288
 20
131.2073399046036
 30
0.0
 10
148.644095493781
 20
131.2101732718259
 30
0.0
 10
148.6610170068908
 20
131.1988586848275
 30
0.0
 10
148.6684231228406
 20
131.1870777990737
 30
0.0
 10
148.6848803760837
 20
131.1570369578441
 30
0.0
 10
148.6923368939947
 20
131.1373240042309
 30
0.0
 10
148.7062448232693
 20
131.0989219381709
 30
0.0
 10
148.7123367691643
 20
131.0800402882595
 30
0.0
 10
148.7295310615154
 20
131.023739377728
 30
0.0
 10
148.7395160117189
 20
130.9866632999183
 30
0.0
 10
148.7677620568178
 20
130.8760046290284
 30
0.0
 10
148.7842415937789
 20
130.80287556862
 30
0.0
 10
148.7998845996386
 20
130.7296064369961
 30
0.0
  0
SPLINE
  5
157
330
1F
100
AcDbEntity
  8
0
  6
HIDDEN
 62
     7
370
     0
100
AcDbSpline
210
0.0
220
0.0
230
1.0
 70
     8
 71
     3
 72
     8
 73
     4
 74
     0
 42
0.00000001
 43
0.00000001
 12
1.0
 22
0.0
 32
0.0
 13
1.0
 23
0.0
 33
0.0
 40
0.0
 40
0.0
 40
0.0
 40
0.0
 40
1.0
 40
1.0
 40
1.0
 40
1.0
 10
148.9736042340124
 20
109.8834933926204
 30
0.0
 10
148.9084990723983
 20
109.6284681574147
 30
0.0
 10
148.8506117428383
 20
109.3820161412735
 30
0.0
 10
148.7998845996323
 20
109.1444189834289
 30
0.0
  0
SPLINE
  5
158
330
1F
100
AcDbEntity
  8
0
  6
HIDDEN
 62
     7
370
     0
100
AcDbSpline
210
0.0
220
0.0
230
1.0
 70
     8
 71
     3
 72
     8
 73
     4
 74
     0
 42
0.00000001
 43
0.00000001
 12
1.0
 22
0.0
 32
0.0
 13
1.0
 23
0.0
 33
0.0
 40
0.0
 40
0.0
 40
0.0
 40
0.0
 40
1.0
 40
1.0
 40
1.0
 40
1.0
 10
148.7998845996386
 20
130.7296064369961
 30
0.0
 10
148.8506117428431
 20
130.4920092791606
 30
0.0
 10
148.908499072401
 20
130.245557263029
 30
0.0
 10
148.9736042340124
 20
129.9905320278339
 30
0.0
  0
LINE
  5
159
330
1F
100
AcDbEntity
  8
0
  6
HIDDEN
 62
     7
370
     0
100
AcDbLine
 10
127.7949236835
 20
117.3819844076
 30
0.0
 11
127.7949236835
 21
110.2794015711
 31
0.0
  0
LINE
  5
15A
330
1F
100
AcDbEntity
  8
0
  6
HIDDEN
 62
     7
370
     0
100
AcDbLine
 10
127.7949236835
 20
129.5946238493
 30
0.0
 11
127.7949236835
 21
122.4920410128
 31
0.0
  0
LINE
  5
15B
330
1F
100
AcDbEntity
  8
0
  6
HIDDEN
 62
     7
370
     0
100
AcDbLine
 10
148.594924555
 20
129.8559082603
 30
0.0
 11
148.594924555
 21
110.0181171602
 31
0.0
  0
LINE
  5
15C
330
1F
100
AcDbEntity
  8
0
  6
HIDDEN
 62
     7
370
     0
100
AcDbLine
 10
150.0949245826
 20
128.4163797205
 30
0.0
 11
150.0949245826
 21
111.4576456999
 31
0.0
  0
SPLINE
  5
15D
330
1F
100
AcDbEntity
  8
0
  6
HIDDEN
 62
     7
370
     0
100
AcDbSpline
210
0.0
220
0.0
230
1.0
 70
     8
 71
     3
 72
    22
 73
    18
 74
     0
 42
0.00000001
 43
0.00000001
 12
1.0
 22
0.0
 32
0.0
 13
1.0
 23
0.0
 33
0.0
 40
0.0
 40
0.0
 40
0.0
 40
0.0
 40
0.125
 40
0.125
 40
0.25
 40
0.25
 40
0.375
 40
0.375
 40
0.5
 40
0.5
 40
0.625
 40
0.625
 40
0.75
 40
0.75
 40
0.875
 40
0.875
 40
1.0
 40
1.0
 40
1.0
 40
1.0
 10
130.494924577572
 20
117.3440680303992
 30
0.0
 10
130.6758609356482
 20
117.5356878897057
 30
0.0
 10
130.8549563844251
 20
117.7293297540929
 30
0.0
 10
131.2057963729371
 20
118.1239850074771
 30
0.0
 10
131.3779894808417
 20
118.3249965381447
 30
0.0
 10
131.703720986461
 20
118.7412076533784
 30
0.0
 10
131.8597972216293
 20
118.9572234936652
 30
0.0
 10
132.1111764355184
 20
119.4225462568299
 30
0.0
 10
132.2050415658372
 20
119.6780854498527
 30
0.0
 10
132.2013136489751
 20
120.2124160849533
 30
0.0
 10
132.1039410064877
 20
120.4678369509541
 30
0.0
 10
131.8521201974938
 20
120.9278656669018
 30
0.0
 10
131.6971509420212
 20
121.1417026678303
 30
0.0
 10
131.372338184296
 20
121.5557412505241
 30
0.0
 10
131.2014451201681
 20
121.7550337225599
 30
0.0
 10
130.8528108806405
 20
122.1470086149941
 30
0.0
 10
130.674803030112
 20
122.3394579009835
 30
0.0
 10
130.494924577572
 20
122.5299573900551
 30
0.0
  0
LINE
  5
15E
330
1F
100
AcDbEntity
  8
0
  6
HIDDEN
 62
     7
370
     0
100
AcDbLine
 10
130.4949246849
 20
117.3440679373
 30
0.0
 11
130.4949246849
 21
122.5299574831
 31
0.0
  0
SPLINE
  5
15F
330
1F
100
AcDbEntity
  8
0
  6
HIDDEN
 62
     7
370
     0
100
AcDbSpline
210
0.0
220
0.0
230
1.0
 70
     8
 71
     3
 72
     8
 73
     4
 74
     0
 42
0.00000001
 43
0.00000001
 12
1.0
 22
0.0
 32
0.0
 13
1.0
 23
0.0
 33
0.0
 40
0.0000137051794235
 40
0.0000137051794235
 40
0.0000137051794235
 40
0.0000137051794235
 40
0.0027147144718019
 40
0.0027147144718019
 40
0.0027147144718019
 40
0.0027147144718019
 10
127.794924577572
 20
117.3819844731654
 30
0.0
 10
128.6949207130668
 20
117.369012905967
 30
0.0
 10
129.5949208916622
 20
117.3563780486549
 30
0.0
 10
130.494924577572
 20
117.3440680303992
 30
0.0
  0
SPLINE
  5
160
330
1F
100
AcDbEntity
  8
0
  6
HIDDEN
 62
     7
370
     0
100
AcDbSpline
210
0.0
220
0.0
230
1.0
 70
     8
 71
     3
 72
     8
 73
     4
 74
     0
 42
0.00000001
 43
0.00000001
 12
1.0
 22
0.0
 32
0.0
 13
1.0
 23
0.0
 33
0.0
 40
0.0000137050638847
 40
0.0000137050638847
 40
0.0000137050638847
 40
0.0000137050638847
 40
0.0027147143562632
 40
0.0027147143562632
 40
0.0027147143562632
 40
0.0027147143562632
 10
130.494924577572
 20
122.5299573900551
 30
0.0
 10
129.5949208916622
 20
122.5176473717993
 30
0.0
 10
128.6949207130668
 20
122.5050125144872
 30
0.0
 10
127.794924577572
 20
122.4920409472889
 30
0.0
  0
SPLINE
  5
161
330
1F
100
AcDbEntity
  8
0
  6
HIDDEN
 62
     7
370
     0
100
AcDbSpline
210
0.0
220
0.0
230
1.0
 70
     8
 71
     3
 72
    10
 73
     6
 74
     0
 42
0.00000001
 43
0.00000001
 12
1.0
 22
0.0
 32
0.0
 13
1.0
 23
0.0
 33
0.0
 40
0.0
 40
0.0
 40
0.0
 40
0.0
 40
0.5
 40
0.5
 40
1.0
 40
1.0
 40
1.0
 40
1.0
 10
126.2949245775711
 20
118.086798896577
 30
0.0
 10
126.532066538287
 20
117.9311840820481
 30
0.0
 10
126.7774092970505
 20
117.7992750526288
 30
0.0
 10
127.2786728857835
 20
117.5676181759913
 30
0.0
 10
127.5347074550338
 20
117.4681725598685
 30
0.0
 10
127.794924577572
 20
117.3819844731654
 30
0.0
  0
SPLINE
  5
162
330
1F
100
AcDbEntity
  8
0
  6
HIDDEN
 62
     7
370
     0
100
AcDbSpline
210
0.0
220
0.0
230
1.0
 70
     8
 71
     3
 72
    10
 73
     6
 74
     0
 42
0.00000001
 43
0.00000001
 12
1.0
 22
0.0
 32
0.0
 13
1.0
 23
0.0
 33
0.0
 40
0.0
 40
0.0
 40
0.0
 40
0.0
 40
0.5
 40
0.5
 40
1.0
 40
1.0
 40
1.0
 40
1.0
 10
127.794924577572
 20
122.4920409472889
 30
0.0
 10
127.534707455034
 20
122.4058528605858
 30
0.0
 10
127.2786728857838
 20
122.306407244463
 30
0.0
 10
126.7774092970511
 20
122.0747503678257
 30
0.0
 10
126.5320665382878
 20
121.9428413384065
 30
0.0
 10
126.294924577572
 20
121.7872265238778
 30
0.0
  0
LINE
  5
163
330
1F
100
AcDbEntity
  8
0
  6
HIDDEN
 62
     7
370
     0
100
AcDbLine
 10
126.294924369
 20
118.0867988547
 30
0.0
 11
126.294924369
 21
121.7872265657
 31
0.0
  0
SPLINE
  5
164
330
1F
100
AcDbEntity
  8
0
  6
HIDDEN
 62
     7
370
     0
100
AcDbSpline
210
0.0
220
0.0
230
1.0
 70
     8
 71
     3
 72
    62
 73
    58
 74
     0
 42
0.00000001
 43
0.00000001
 12
1.0
 22
0.0
 32
0.0
 13
1.0
 23
0.0
 33
0.0
 40
-0.0312499999999999
 40
-0.0312499999999999
 40
0.0
 40
0.0
 40
0.03125
 40
0.03125
 40
0.0625000000000001
 40
0.0625000000000001
 40
0.0937500000000001
 40
0.0937500000000001
 40
0.1250000000000002
 40
0.1250000000000002
 40
0.1875000000000003
 40
0.1875000000000003
 40
0.2500000000000004
 40
0.2500000000000004
 40
0.2812500000000004
 40
0.2812500000000004
 40
0.3125000000000005
 40
0.3125000000000005
 40
0.3437500000000006
 40
0.3437500000000006
 40
0.3750000000000006
 40
0.3750000000000006
 40
0.4375000000000007
 40
0.4375000000000007
 40
0.4687500000000007
 40
0.4687500000000007
 40
0.5000000000000008
 40
0.5000000000000008
 40
0.5625000000000009
 40
0.5625000000000009
 40
0.5937500000000008
 40
0.5937500000000008
 40
0.6250000000000008
 40
0.6250000000000008
 40
0.6562500000000007
 40
0.6562500000000007
 40
0.6875000000000007
 40
0.6875000000000007
 40
0.7187500000000006
 40
0.7187500000000006
 40
0.7500000000000004
 40
0.7500000000000004
 40
0.7812500000000004
 40
0.7812500000000004
 40
0.8125000000000003
 40
0.8125000000000003
 40
0.8437500000000003
 40
0.8437500000000003
 40
0.8750000000000002
 40
0.8750000000000002
 40
0.9062500000000002
 40
0.9062500000000002
 40
0.9375000000000001
 40
0.9375000000000001
 40
0.9687500000000001
 40
0.9687500000000001
 40
1.0
 40
1.0
 40
1.03125
 40
1.03125
 10
136.7486967055003
 20
121.4249917488835
 30
0.0
 10
136.9761970520885
 20
121.6743382907441
 30
0.0
 10
137.100659581006
 20
121.785935968201
 30
0.0
 10
137.3697538471578
 20
121.9845867640194
 30
0.0
 10
137.5155669387471
 20
122.0719270088081
 30
0.0
 10
137.8167338170365
 20
122.2161227614504
 30
0.0
 10
137.9730695441008
 20
122.2739424319646
 30
0.0
 10
138.2971928434353
 20
122.3611960440156
 30
0.0
 10
138.4638580551457
 20
122.3899980934974
 30
0.0
 10
138.9618743217777
 20
122.4307773987652
 30
0.0
 10
139.3025452705706
 20
122.397334138624
 30
0.0
 10
139.9415561859921
 20
122.2148814941652
 30
0.0
 10
140.2480107930559
 20
122.0634569338524
 30
0.0
 10
140.6445667023183
 20
121.7629590282681
 30
0.0
 10
140.7689158931679
 20
121.6486978430728
 30
0.0
 10
140.991379987217
 20
121.3990379725002
 30
0.0
 10
141.0889453256943
 20
121.2648713645011
 30
0.0
 10
141.2562009293331
 20
120.9774022700024
 30
0.0
 10
141.3262865848522
 20
120.8221354201025
 30
0.0
 10
141.4303419455737
 20
120.5051560000155
 30
0.0
 10
141.4653177082411
 20
120.3425032485111
 30
0.0
 10
141.5171822277651
 20
119.8415662283085
 30
0.0
 10
141.4778761199937
 20
119.5014116269982
 30
0.0
 10
141.3151563275329
 20
119.024916994901
 30
0.0
 10
141.2448758296466
 20
118.8738496350736
 30
0.0
 10
141.0735426845166
 20
118.5865550646327
 30
0.0
 10
140.972150443335
 20
118.4506972863353
 30
0.0
 10
140.6355508561118
 20
118.0818888913371
 30
0.0
 10
140.3603180899471
 20
117.879463782006
 30
0.0
 10
139.9105348626012
 20
117.6623870553972
 30
0.0
 10
139.7517350640975
 20
117.603084783323
 30
0.0
 10
139.4291733432179
 20
117.5151122655225
 30
0.0
 10
139.2653142312507
 20
117.4859925016762
 30
0.0
 10
138.9324814578968
 20
117.457135886566
 30
0.0
 10
138.7624291664559
 20
117.45775940978
 30
0.0
 10
138.4301535024362
 20
117.4890158535844
 30
0.0
 10
138.2664388906875
 20
117.5193345486363
 30
0.0
 10
137.9439734051131
 20
117.6100515876393
 30
0.0
 10
137.7854623065866
 20
117.6708204963411
 30
0.0
 10
137.4869086003887
 20
117.818331171138
 30
0.0
 10
137.3450824711867
 20
117.9054661990019
 30
0.0
 10
137.0771607326284
 20
118.108051665574
 30
0.0
 10
136.9530673022358
 20
118.2223898322161
 30
0.0
 10
136.7319331143176
 20
118.4705762701689
 30
0.0
 10
136.633476112219
 20
118.6056088870227
 30
0.0
 10
136.464117598484
 20
118.8976132850775
 30
0.0
 10
136.3959507607781
 20
119.049749031513
 30
0.0
 10
136.2922167944516
 20
119.3661579799531
 30
0.0
 10
136.2565482325825
 20
119.5326544493073
 30
0.0
 10
136.22233446793
 20
119.8659163254178
 30
0.0
 10
136.2231928707591
 20
120.0325787792397
 30
0.0
 10
136.2609896507086
 20
120.3659669784572
 30
0.0
 10
136.2983324061627
 20
120.5317225509367
 30
0.0
 10
136.4055819892311
 20
120.8476138673994
 30
0.0
 10
136.4763432057702
 20
121.0008932004716
 30
0.0
 10
136.6484663558709
 20
121.290270242958
 30
0.0
 10
136.7486967055003
 20
121.4249917488835
 30
0.0
 10
136.9761970520885
 20
121.6743382907441
 30
0.0
  0
SPLINE
  5
165
330
1F
100
AcDbEntity
  8
0
  6
HIDDEN
 62
     7
370
     0
100
AcDbSpline
210
0.0
220
0.0
230
1.0
 70
     8
 71
     3
 72
    62
 73
    58
 74
     0
 42
0.00000001
 43
0.00000001
 12
1.0
 22
0.0
 32
0.0
 13
1.0
 23
0.0
 33
0.0
 40
-0.0312499999999999
 40
-0.0312499999999999
 40
0.0
 40
0.0
 40
0.03125
 40
0.03125
 40
0.0625000000000001
 40
0.0625000000000001
 40
0.0937500000000001
 40
0.0937500000000001
 40
0.1250000000000002
 40
0.1250000000000002
 40
0.1875000000000003
 40
0.1875000000000003
 40
0.2500000000000004
 40
0.2500000000000004
 40
0.2812500000000004
 40
0.2812500000000004
 40
0.3125000000000005
 40
0.3125000000000005
 40
0.3437500000000006
 40
0.3437500000000006
 40
0.3750000000000006
 40
0.3750000000000006
 40
0.4375000000000007
 40
0.4375000000000007
 40
0.4687500000000007
 40
0.4687500000000007
 40
0.5000000000000008
 40
0.5000000000000008
 40
0.5625000000000009
 40
0.5625000000000009
 40
0.5937500000000008
 40
0.5937500000000008
 40
0.6250000000000008
 40
0.6250000000000008
 40
0.6562500000000007
 40
0.6562500000000007
 40
0.6875000000000007
 40
0.6875000000000007
 40
0.7187500000000006
 40
0.7187500000000006
 40
0.7500000000000004
 40
0.7500000000000004
 40
0.7812500000000004
 40
0.7812500000000004
 40
0.8125000000000003
 40
0.8125000000000003
 40
0.8437500000000003
 40
0.8437500000000003
 40
0.8750000000000002
 40
0.8750000000000002
 40
0.9062500000000002
 40
0.9062500000000002
 40
0.9375000000000001
 40
0.9375000000000001
 40
0.9687500000000001
 40
0.9687500000000001
 40
1.0
 40
1.0
 40
1.03125
 40
1.03125
 10
136.7486967055003
 20
121.4249917488835
 30
0.0
 10
136.9761970520885
 20
121.6743382907441
 30
0.0
 10
137.100659581006
 20
121.785935968201
 30
0.0
 10
137.3697538471578
 20
121.9845867640194
 30
0.0
 10
137.5155669387471
 20
122.0719270088081
 30
0.0
 10
137.8167338170365
 20
122.2161227614504
 30
0.0
 10
137.9730695441008
 20
122.2739424319646
 30
0.0
 10
138.2971928434353
 20
122.3611960440156
 30
0.0
 10
138.4638580551457
 20
122.3899980934974
 30
0.0
 10
138.9618743217777
 20
122.4307773987652
 30
0.0
 10
139.3025452705706
 20
122.397334138624
 30
0.0
 10
139.9415561859921
 20
122.2148814941652
 30
0.0
 10
140.2480107930559
 20
122.0634569338524
 30
0.0
 10
140.6445667023183
 20
121.7629590282681
 30
0.0
 10
140.7689158931679
 20
121.6486978430728
 30
0.0
 10
140.991379987217
 20
121.3990379725002
 30
0.0
 10
141.0889453256943
 20
121.2648713645011
 30
0.0
 10
141.2562009293331
 20
120.9774022700024
 30
0.0
 10
141.3262865848522
 20
120.8221354201025
 30
0.0
 10
141.4303419455737
 20
120.5051560000155
 30
0.0
 10
141.4653177082411
 20
120.3425032485111
 30
0.0
 10
141.5171822277651
 20
119.8415662283085
 30
0.0
 10
141.4778761199937
 20
119.5014116269982
 30
0.0
 10
141.3151563275329
 20
119.024916994901
 30
0.0
 10
141.2448758296466
 20
118.8738496350736
 30
0.0
 10
141.0735426845166
 20
118.5865550646327
 30
0.0
 10
140.972150443335
 20
118.4506972863353
 30
0.0
 10
140.6355508561118
 20
118.0818888913371
 30
0.0
 10
140.3603180899471
 20
117.879463782006
 30
0.0
 10
139.9105348626012
 20
117.6623870553972
 30
0.0
 10
139.7517350640975
 20
117.603084783323
 30
0.0
 10
139.4291733432179
 20
117.5151122655225
 30
0.0
 10
139.2653142312507
 20
117.4859925016762
 30
0.0
 10
138.9324814578968
 20
117.457135886566
 30
0.0
 10
138.7624291664559
 20
117.45775940978
 30
0.0
 10
138.4301535024362
 20
117.4890158535844
 30
0.0
 10
138.2664388906875
 20
117.5193345486363
 30
0.0
 10
137.9439734051131
 20
117.6100515876393
 30
0.0
 10
137.7854623065866
 20
117.6708204963411
 30
0.0
 10
137.4869086003887
 20
117.818331171138
 30
0.0
 10
137.3450824711867
 20
117.9054661990019
 30
0.0
 10
137.0771607326284
 20
118.108051665574
 30
0.0
 10
136.9530673022358
 20
118.2223898322161
 30
0.0
 10
136.7319331143176
 20
118.4705762701689
 30
0.0
 10
136.633476112219
 20
118.6056088870227
 30
0.0
 10
136.464117598484
 20
118.8976132850775
 30
0.0
 10
136.3959507607781
 20
119.049749031513
 30
0.0
 10
136.2922167944516
 20
119.3661579799531
 30
0.0
 10
136.2565482325825
 20
119.5326544493073
 30
0.0
 10
136.22233446793
 20
119.8659163254178
 30
0.0
 10
136.2231928707591
 20
120.0325787792397
 30
0.0
 10
136.2609896507086
 20
120.3659669784572
 30
0.0
 10
136.2983324061627
 20
120.5317225509367
 30
0.0
 10
136.4055819892311
 20
120.8476138673994
 30
0.0
 10
136.4763432057702
 20
121.0008932004716
 30
0.0
 10
136.6484663558709
 20
121.290270242958
 30
0.0
 10
136.7486967055003
 20
121.4249917488835
 30
0.0
 10
136.9761970520885
 20
121.6743382907441
 30
0.0
  0
CIRCLE
  5
166
330
1F
100
AcDbEntity
  8
0
  6
HIDDEN
 62
     7
370
     0
100
AcDbCircle
 10
138.7949245776
 20
119.9370127102
 30
0.0
 40
2.300000000000011
  0
SPLINE
  5
167
330
1F
100
AcDbEntity
  8
0
  6
HIDDEN
 62
     7
370
     0
100
AcDbSpline
210
0.0
220
0.0
230
1.0
 70
     8
 71
     3
 72
    10
 73
     6
 74
     0
 42
0.00000001
 43
0.00000001
 12
1.0
 22
0.0
 32
0.0
 13
1.0
 23
0.0
 33
0.0
 40
0.0
 40
0.0
 40
0.0
 40
0.0
 40
0.3293635822221756
 40
0.6626577436971695
 40
1.0
 40
1.0
 40
1.0
 40
1.0
 10
256.8434732221389
 20
111.4524455897655
 30
0.0
 10
256.808792409708
 20
111.3175596093412
 30
0.0
 10
256.7390169088466
 20
111.0461779379333
 30
0.0
 10
256.6243077699455
 20
110.6391362714637
 30
0.0
 10
256.5413912198258
 20
110.3679480783696
 30
0.0
 10
256.4996826943704
 20
110.231535508882
 30
0.0
  0
LINE
  5
168
330
1F
100
AcDbEntity
  8
0
  6
HIDDEN
 62
     7
370
     0
100
AcDbLine
 10
236.6172321642
 20
111.971022368
 30
0.0
 11
256.4996801818
 21
110.2315334534
 31
0.0
  0
LINE
  5
169
330
1F
100
AcDbEntity
  8
0
  6
HIDDEN
 62
     7
370
     0
100
AcDbLine
 10
256.8434797729
 20
111.452446126
 30
0.0
 11
256.5219350661
 21
114.8062691023
 31
0.0
  0
LINE
  5
16A
330
1F
100
AcDbEntity
  8
0
  6
HIDDEN
 62
     7
370
     0
100
AcDbLine
 10
256.5219350661
 20
114.8062691023
 30
0.0
 11
252.8844573105
 21
119.9370127102
 31
0.0
  0
CIRCLE
  5
16B
330
1F
100
AcDbEntity
  8
0
  6
HIDDEN
 62
     7
370
     0
100
AcDbCircle
 10
162.2949245776
 20
119.9370127102
 30
0.0
 40
2.0
  0
LINE
  5
16C
330
1F
100
AcDbEntity
  8
0
  6
HIDDEN
 62
     7
370
     0
100
AcDbLine
 10
150.2949245776
 20
104.1370134732
 30
0.0
 11
150.387817798
 21
104.2299054494
 31
0.0
  0
LINE
  5
16D
330
1F
100
AcDbEntity
  8
0
  6
HIDDEN
 62
     7
370
     0
100
AcDbLine
 10
150.387817798
 20
135.6441199711
 30
0.0
 11
150.2949245776
 21
135.7370119473
 31
0.0
  0
ARC
  5
16E
330
1F
100
AcDbEntity
  8
0
  6
HIDDEN
 62
     7
370
     0
100
AcDbCircle
 10
149.6807110152
 20
104.9370127102
 30
0.0
 40
1.000000000000008
100
AcDbArc
 50
315.0
 51
0.0
  0
ARC
  5
16F
330
1F
100
AcDbEntity
  8
0
  6
HIDDEN
 62
     7
370
     0
100
AcDbCircle
 10
149.6807110152
 20
104.9370127102
 30
0.0
 40
1.00000000000001
100
AcDbArc
 50
0.0
 51
52.1052014664
  0
ARC
  5
170
330
1F
100
AcDbEntity
  8
0
  6
HIDDEN
 62
     7
370
     0
100
AcDbCircle
 10
149.6807110152
 20
134.9370127102
 30
0.0
 40
1.000000000000034
100
AcDbArc
 50
351.8087250651
 51
45.0
  0
ARC
  5
171
330
1F
100
AcDbEntity
  8
0
  6
HIDDEN
 62
     7
370
     0
100
AcDbCircle
 10
149.6807110152
 20
134.9370127102
 30
0.0
 40
1.000000000000034
100
AcDbArc
 50
307.8947985336
 51
351.8087250651
  0
LINE
  5
172
330
1F
100
AcDbEntity
  8
0
  6
HIDDEN
 62
     7
370
     0
100
AcDbLine
 10
150.6807110134
 20
104.9370130455
 30
0.0
 11
150.6807110134
 21
134.937012375
 31
0.0
  0
LINE
  5
173
330
1F
100
AcDbEntity
  8
0
  6
HIDDEN
 62
     7
370
     0
100
AcDbLine
 10
150.6807110134
 20
104.9370130455
 30
0.0
 11
150.6807110134
 21
134.937012375
 31
0.0
  0
LINE
  5
174
330
1F
100
AcDbEntity
  8
0
  6
HIDDEN
 62
     7
370
     0
100
AcDbLine
 10
224.394927224
 20
116.7604611652
 30
0.0
 11
224.394927224
 21
118.279681115
 31
0.0
  0
LINE
  5
175
330
1F
100
AcDbEntity
  8
0
  6
HIDDEN
 62
     7
370
     0
100
AcDbLine
 10
224.394927224
 20
115.2482389403
 30
0.0
 11
224.394927224
 21
115.3480068711
 31
0.0
  0
LINE
  5
176
330
1F
100
AcDbEntity
  8
0
  6
HIDDEN
 62
     7
370
     0
100
AcDbLine
 10
220.1949231828
 20
118.2816427132
 30
0.0
 11
220.1949231828
 21
115.2482389403
 31
0.0
  0
LINE
  5
177
330
1F
100
AcDbEntity
  8
0
  6
HIDDEN
 62
     7
370
     0
100
AcDbLine
 10
230.5015795434
 20
114.3367521396
 30
0.0
 11
223.9777841176
 21
117.5056256285
 31
0.0
  0
LINE
  5
178
330
1F
100
AcDbEntity
  8
0
  6
HIDDEN
 62
     7
370
     0
100
AcDbLine
 10
221.8202002848
 20
113.884384085
 30
0.0
 11
230.5213459338
 21
109.6578825196
 31
0.0
  0
LINE
  5
179
330
1F
100
AcDbEntity
  8
0
  6
HIDDEN
 62
     7
370
     0
100
AcDbLine
 10
126.294924369
 20
109.7813619232
 30
0.0
 11
127.3219571019
 21
110.3743191739
 31
0.0
  0
LINE
  5
17A
330
1F
100
AcDbEntity
  8
0
  6
HIDDEN
 62
     7
370
     0
100
AcDbLine
 10
127.3219571019
 20
129.4997062465
 30
0.0
 11
126.294924369
 21
130.0926634973
 31
0.0
  0
ARC
  5
17B
330
1F
100
AcDbEntity
  8
0
  6
HIDDEN
 62
     7
370
     0
100
AcDbCircle
 10
131.7949245776
 20
110.9370127102
 30
0.0
 40
1.000000000000004
100
AcDbArc
 50
193.3524261238
 51
270.0
  0
ARC
  5
17C
330
1F
100
AcDbEntity
  8
0
  6
HIDDEN
 62
     7
370
     0
100
AcDbCircle
 10
131.7949245776
 20
128.9370127102
 30
0.0
 40
1.000000000000004
100
AcDbArc
 50
90.0
 51
166.6475738762
  0
LINE
  5
17D
330
1F
100
AcDbEntity
  8
0
  6
HIDDEN
 62
     7
370
     0
100
AcDbLine
 10
131.7949243392
 20
109.9370129337
 30
0.0
 11
132.807743227
 21
109.9370129337
 31
0.0
  0
LINE
  5
17E
330
1F
100
AcDbEntity
  8
0
  6
HIDDEN
 62
     7
370
     0
100
AcDbLine
 10
132.807743227
 20
129.9370124867
 30
0.0
 11
131.7949243392
 21
129.9370124867
 31
0.0
  0
ARC
  5
17F
330
1F
100
AcDbEntity
  8
0
  6
HIDDEN
 62
     7
370
     0
100
AcDbCircle
 10
132.8077430472
 20
110.9370127102
 30
0.0
 40
1.0
100
AcDbArc
 50
270.0
 51
315.0
  0
ARC
  5
180
330
1F
100
AcDbEntity
  8
0
  6
HIDDEN
 62
     7
370
     0
100
AcDbCircle
 10
132.8077430472
 20
128.9370127102
 30
0.0
 40
1.0
100
AcDbArc
 50
45.0
 51
90.0
  0
LINE
  5
181
330
1F
100
AcDbEntity
  8
0
  6
HIDDEN
 62
     7
370
     0
100
AcDbLine
 10
133.5148498918
 20
110.2299055016
 30
0.0
 11
134.2219565565
 21
110.9370130977
 31
0.0
  0
LINE
  5
182
330
1F
100
AcDbEntity
  8
0
  6
HIDDEN
 62
     7
370
     0
100
AcDbLine
 10
134.2219565565
 20
128.9370123228
 30
0.0
 11
133.5148498918
 21
129.6441199189
 31
0.0
  0
LINE
  5
183
330
1F
100
AcDbEntity
  8
0
  6
HIDDEN
 62
     7
370
     0
100
AcDbLine
 10
127.3219571019
 20
110.3743191739
 30
0.0
 11
129.4219572599
 21
110.9370130977
 31
0.0
  0
LINE
  5
184
330
1F
100
AcDbEntity
  8
0
  6
HIDDEN
 62
     7
370
     0
100
AcDbLine
 10
129.4219572599
 20
128.9370123228
 30
0.0
 11
127.3219571019
 21
129.4997062465
 31
0.0
  0
LINE
  5
185
330
1F
100
AcDbEntity
  8
0
  6
HIDDEN
 62
     7
370
     0
100
AcDbLine
 10
130.8219567443
 20
129.1679523816
 30
0.0
 11
130.4219574238
 21
128.9370123228
 31
0.0
  0
LINE
  5
186
330
1F
100
AcDbEntity
  8
0
  6
HIDDEN
 62
     7
370
     0
100
AcDbLine
 10
130.4219574238
 20
110.9370130977
 30
0.0
 11
130.8219567443
 21
110.7060730388
 31
0.0
  0
LINE
  5
187
330
1F
100
AcDbEntity
  8
0
  6
HIDDEN
 62
     7
370
     0
100
AcDbLine
 10
220.9530942644
 20
114.5289859665
 30
0.0
 11
220.9588088597
 21
114.4285363076
 31
0.0
  0
ARC
  5
188
330
1F
100
AcDbEntity
  8
0
  6
HIDDEN
 62
     7
370
     0
100
AcDbCircle
 10
140.7949245776
 20
111.4370127102
 30
0.0
 40
0.5000000000000284
100
AcDbArc
 50
270.0
 51
0.0
  0
ARC
  5
189
330
1F
100
AcDbEntity
  8
0
  6
HIDDEN
 62
     7
370
     0
100
AcDbCircle
 10
140.7949245776
 20
128.4370127102
 30
0.0
 40
0.5000000000000284
100
AcDbArc
 50
0.0
 51
90.0
  0
LINE
  5
18A
330
1F
100
AcDbEntity
  8
0
  6
HIDDEN
 62
     7
370
     0
100
AcDbLine
 10
129.4219572599
 20
110.9370130977
 30
0.0
 11
130.4219574238
 21
110.9370130977
 31
0.0
  0
LINE
  5
18B
330
1F
100
AcDbEntity
  8
0
  6
HIDDEN
 62
     7
370
     0
100
AcDbLine
 10
130.4219574238
 20
128.9370123228
 30
0.0
 11
129.4219572599
 21
128.9370123228
 31
0.0
  0
LINE
  5
18C
330
1F
100
AcDbEntity
  8
0
  6
HIDDEN
 62
     7
370
     0
100
AcDbLine
 10
134.2219565565
 20
110.9370130977
 30
0.0
 11
140.794924883
 21
110.9370130977
 31
0.0
  0
LINE
  5
18D
330
1F
100
AcDbEntity
  8
0
  6
HIDDEN
 62
     7
370
     0
100
AcDbLine
 10
140.794924883
 20
128.9370123228
 30
0.0
 11
134.2219565565
 21
128.9370123228
 31
0.0
  0
LINE
  5
18E
330
1F
100
AcDbEntity
  8
0
  6
HIDDEN
 62
     7
370
     0
100
AcDbLine
 10
141.294924965
 20
112.787012749
 30
0.0
 11
142.1949243675
 21
113.6870126171
 31
0.0
  0
LINE
  5
18F
330
1F
100
AcDbEntity
  8
0
  6
HIDDEN
 62
     7
370
     0
100
AcDbLine
 10
142.1949243675
 20
126.1870128034
 30
0.0
 11
141.294924965
 21
127.0870126715
 31
0.0
  0
LINE
  5
190
330
1F
100
AcDbEntity
  8
0
  6
HIDDEN
 62
     7
370
     0
100
AcDbLine
 10
161.294924518
 20
113.6870126171
 30
0.0
 11
162.4966454263
 21
115.6870124793
 31
0.0
  0
LINE
  5
191
330
1F
100
AcDbEntity
  8
0
  6
HIDDEN
 62
     7
370
     0
100
AcDbLine
 10
162.4966454263
 20
124.1870129412
 30
0.0
 11
161.294924518
 21
126.1870128034
 31
0.0
  0
LINE
  5
192
330
1F
100
AcDbEntity
  8
0
  6
HIDDEN
 62
     7
370
     0
100
AcDbLine
 10
142.1949243675
 20
113.6870126171
 30
0.0
 11
161.294924518
 21
113.6870126171
 31
0.0
  0
LINE
  5
193
330
1F
100
AcDbEntity
  8
0
  6
HIDDEN
 62
     7
370
     0
100
AcDbLine
 10
161.294924518
 20
126.1870128034
 30
0.0
 11
142.1949243675
 21
126.1870128034
 31
0.0
  0
LINE
  5
194
330
1F
100
AcDbEntity
  8
0
  6
HIDDEN
 62
     7
370
     0
100
AcDbLine
 10
225.2949275578
 20
115.6870124793
 30
0.0
 11
227.8485842551
 21
119.9370127102
 31
0.0
  0
LINE
  5
195
330
1F
100
AcDbEntity
  8
0
  6
HIDDEN
 62
     7
370
     0
100
AcDbLine
 10
227.8485842551
 20
119.9370127102
 30
0.0
 11
225.2949275578
 21
124.1870129412
 31
0.0
  0
LINE
  5
196
330
1F
100
AcDbEntity
  8
0
  6
HIDDEN
 62
     7
370
     0
100
AcDbLine
 10
225.2949275578
 20
124.1870129412
 30
0.0
 11
162.4966454263
 21
124.1870129412
 31
0.0
  0
LINE
  5
197
330
1F
100
AcDbEntity
  8
0
  6
HIDDEN
 62
     7
370
     0
100
AcDbLine
 10
162.4966454263
 20
115.6870124793
 30
0.0
 11
225.2949275578
 21
115.6870124793
 31
0.0
  0
ARC
  5
198
330
1F
100
AcDbEntity
  8
0
  6
HIDDEN
 62
     7
370
     0
100
AcDbCircle
 10
233.8807110152
 20
102.9370127102
 30
0.0
 40
1.000000000000008
100
AcDbArc
 50
45.0
 51
64.7712994894
  0
LINE
  5
199
330
1F
100
AcDbEntity
  8
0
  6
HIDDEN
 62
     7
370
     0
100
AcDbLine
 10
249.7292258347
 20
110.9039017862
 30
0.0
 11
249.7292258347
 21
110.9276188468
 31
0.0
  0
LINE
  5
19A
330
1F
100
AcDbEntity
  8
0
  6
HIDDEN
 62
     7
370
     0
100
AcDbLine
 10
245.5292217935
 20
110.9276188468
 30
0.0
 11
245.5292217935
 21
110.5927878922
 31
0.0
  0
LINE
  5
19B
330
1F
100
AcDbEntity
  8
0
  6
HIDDEN
 62
     7
370
     0
100
AcDbLine
 10
224.394927224
 20
121.5923827073
 30
0.0
 11
224.394927224
 21
123.8443239523
 31
0.0
  0
LINE
  5
19C
330
1F
100
AcDbEntity
  8
0
  6
HIDDEN
 62
     7
370
     0
100
AcDbLine
 10
220.1949231828
 20
123.8443239523
 30
0.0
 11
220.1949231828
 21
121.5943443054
 31
0.0
  0
LINE
  5
19D
330
1F
100
AcDbEntity
  8
0
  6
HIDDEN
 62
     7
370
     0
100
AcDbLine
 10
255.449550649
 20
105.2602900123
 30
0.0
 11
255.449550649
 21
105.8684315463
 31
0.0
  0
LINE
  5
19E
330
1F
100
AcDbEntity
  8
0
  6
HIDDEN
 62
     7
370
     0
100
AcDbLine
 10
251.2495540584
 20
105.8456774732
 30
0.0
 11
251.2495540584
 21
105.2602900123
 31
0.0
  0
LINE
  5
19F
330
1F
100
AcDbEntity
  8
0
  6
HIDDEN
 62
     7
370
     0
100
AcDbLine
 10
224.7949265445
 20
123.9382338641
 30
0.0
 11
224.7949265445
 21
126.1868339894
 31
0.0
  0
LINE
  5
1A0
330
1F
100
AcDbEntity
  8
0
  6
HIDDEN
 62
     7
370
     0
100
AcDbLine
 10
219.7949238623
 20
126.1885108357
 30
0.0
 11
219.7949238623
 21
123.9382338641
 31
0.0
  0
LINE
  5
1A1
330
1F
100
AcDbEntity
  8
VERMASSUNG
  6
CENTERX2
100
AcDbLine
 10
123.1580895193
 20
119.9370127102
 30
0.0
 11
260.2949245776
 21
119.9370127102
 31
0.0
  0
LINE
  5
1A2
330
1F
100
AcDbEntity
  8
VERMASSUNG
  6
CENTERX2
100
AcDbLine
 10
260.2949245776
 20
97.9370127102
 30
0.0
 11
260.2949245776
 21
119.9370127102
 31
0.0
  0
LINE
  5
1A3
330
1F
100
AcDbEntity
  8
VERMASSUNG
  6
CENTERX2
100
AcDbLine
 10
260.2949245776
 20
97.9370127102
 30
0.0
 11
268.1039245427
 21
97.9370127102
 31
0.0
  0
DIMENSION
  5
1A4
330
1F
100
AcDbEntity
  8
VERMASSUNG
100
AcDbDimension
  2
_D
 10
150.2949245776
 20
90.4343870636
 30
0.0
 11
205.2949245776
 21
90.4343870636
 31
0.0
 70
   160
  1
<>
 71
     2
 42
-1.0
  3
SLDDIMSTYLE0
100
AcDbAlignedDimension
 13
260.2949245776
 23
97.9370127102
 33
0.0
 14
150.2949245776
 24
100.2370127102
 34
0.0
100
AcDbRotatedDimension
  0
DIMENSION
  5
1AF
330
1F
100
AcDbEntity
  8
VERMASSUNG
100
AcDbDimension
  2
_D_1
 10
126.2949245776
 20
81.9037537489
 30
0.0
 11
193.2949245776
 21
81.9037537489
 31
0.0
 70
   160
  1
<>
 71
     2
 42
-1.0
  3
SLDDIMSTYLE0
100
AcDbAlignedDimension
 13
260.2949245776
 23
97.9370127102
 33
0.0
 14
126.2949245776
 24
107.3055077282
 34
0.0
100
AcDbRotatedDimension
  0
DIMENSION
  5
1B9
330
1F
100
AcDbEntity
  8
VERMASSUNG
100
AcDbDimension
  2
_D_2
 10
277.3654180926
 20
119.9370127102
 30
0.0
 11
277.3654180926
 21
108.9370127102
 31
0.0
 70
   160
  1
<>
 71
     2
 42
-1.0
  3
SLDDIMSTYLE0
100
AcDbAlignedDimension
 13
260.2949245776
 23
97.9370127102
 33
0.0
 14
260.2949245776
 24
119.9370127102
 34
0.0
 50
90.0
100
AcDbRotatedDimension
  0
DIMENSION
  5
1C3
330
1F
100
AcDbEntity
  8
VERMASSUNG
100
AcDbDimension
  2
_D_3
 10
260.2934024568
 20
98.3708157046
 30
0.0
 11
267.7557451525
 21
106.0409358527
 31
0.0
 70
   162
  1
<>
 71
     1
 42
-1.0
  3
SLDDIMSTYLE1
100
AcDb2LineAngularDimension
 13
268.1039245427
 23
97.9370127102
 33
0.0
 14
260.2949245776
 24
97.9370127102
 34
0.0
 15
259.2402493561
 25
110.3790877522
 35
0.0
 16
267.7557451525
 26
106.0409358527
 36
0.0
  0
DIMENSION
  5
1CD
330
1F
100
AcDbEntity
  8
VERMASSUNG
100
AcDbDimension
  2
_D_4
 10
118.5499138907
 20
99.9370127102
 30
0.0
 11
118.5499138907
 21
119.9370127102
 31
0.0
 70
   160
  1
PSC%%c<>
 71
     2
 42
-1.0
  3
SLDDIMSTYLE0
100
AcDbAlignedDimension
 13
150.5949245776
 23
139.9370127102
 33
0.0
 14
150.5949245776
 24
99.9370127102
 34
0.0
 50
90.0
100
AcDbRotatedDimension
  0
DIMENSION
  5
1D9
330
1F
100
AcDbEntity
  8
VERMASSUNG
100
AcDbDimension
  2
_D_5
 10
189.4831425863
 20
135.9370127102
 30
0.0
 11
189.4831425863
 21
111.1889351693
 31
0.0
 70
   160
  1
%%c<>
 71
     2
 42
-1.0
  3
SLDDIMSTYLE0
100
AcDbAlignedDimension
 13
172.2949245776
 23
103.9370127102
 33
0.0
 14
172.2949245776
 24
135.9370127102
 34
0.0
 50
90.0
100
AcDbRotatedDimension
  0
LINE
  5
1E2
330
1F
100
AcDbEntity
  8
0
  6
Continuous
 62
     7
370
    15
100
AcDbLine
 10
67.6666208855
 20
97.9370128294
 30
0.0
 11
70.8885210878
 21
98.5632862827
 31
0.0
  0
LINE
  5
1E3
330
1F
100
AcDbEntity
  8
0
  6
Continuous
 62
     7
370
    15
100
AcDbLine
 10
66.9994900199
 20
111.778105416
 30
0.0
 11
66.6976512838
 21
111.7939239299
 31
0.0
  0
LINE
  5
1E4
330
1F
100
AcDbEntity
  8
0
  6
Continuous
 62
     7
370
    15
100
AcDbLine
 10
71.5592998858
 20
110.5065027183
 30
0.0
 11
70.0488210968
 21
110.5715583941
 31
0.0
  0
LINE
  5
1E5
330
1F
100
AcDbEntity
  8
0
  6
Continuous
 62
     7
370
    15
100
AcDbLine
 10
72.3729687124
 20
98.8704960724
 30
0.0
 11
71.5592998858
 21
110.5065027183
 31
0.0
  0
LINE
  5
1E6
330
1F
100
AcDbEntity
  8
0
  6
Continuous
 62
     7
370
    15
100
AcDbLine
 10
72.3729687124
 20
98.8704960724
 30
0.0
 11
70.8885210878
 21
98.5632862827
 31
0.0
  0
LINE
  5
1E7
330
1F
100
AcDbEntity
  8
0
  6
Continuous
 62
     7
370
    15
100
AcDbLine
 10
67.6362864251
 20
98.3708154341
 30
0.0
 11
66.796586263
 21
110.3790875455
 31
0.0
  0
LWPOLYLINE
  5
1E8
330
1F
100
AcDbEntity
  8
0
  6
Continuous
 62
     7
370
    15
100
AcDbPolyline
 90
        9
 70
   128
 43
0.0
 10
67.6666208855
 20
97.9370128294
 10
67.666382175
 20
97.940427058
 10
67.6649381534
 20
97.9610763421
 10
67.6622511013
 20
97.9995027115
 10
67.6584484062
 20
98.0538844993
 10
67.6537103463
 20
98.1216419419
 10
67.6482615435
 20
98.1995638391
 10
67.6423603144
 20
98.2839547029
 10
67.6362864251
 20
98.3708154341
  0
LWPOLYLINE
  5
1E9
330
1F
100
AcDbEntity
  8
0
  6
Continuous
 62
     7
370
    15
100
AcDbPolyline
 90
        9
 70
   128
 43
0.0
 10
66.796586263
 20
110.3790875455
 10
66.7917964128
 20
110.4475853896
 10
66.7872259473
 20
110.5129456079
 10
66.7830138663
 20
110.5731816893
 10
66.7792879939
 20
110.6264645165
 10
66.7761616605
 20
110.6711726567
 10
66.7737298026
 20
110.7059501043
 10
66.7720662859
 20
110.7297398081
 10
66.7712216927
 20
110.7418171992
  0
LINE
  5
1EA
330
1F
100
AcDbEntity
  8
0
  6
Continuous
 62
     7
370
    15
100
AcDbLine
 10
66.7712216927
 20
110.7418171992
 30
0.0
 11
66.6977574546
 21
111.7924049428
 31
0.0
  0
LINE
  5
1EB
330
1F
100
AcDbEntity
  8
0
  6
Continuous
 62
     7
370
    15
100
AcDbLine
 10
66.6977574546
 20
111.7924049428
 30
0.0
 11
66.6976512838
 21
111.7939239299
 31
0.0
  0
SPLINE
  5
1EC
330
1F
100
AcDbEntity
  8
0
  6
Continuous
 62
     7
370
    15
100
AcDbSpline
210
0.0
220
0.0
230
1.0
 70
     8
 71
     3
 72
    29
 73
    25
 74
     0
 42
0.00000001
 43
0.00000001
 12
1.0
 22
0.0
 32
0.0
 13
1.0
 23
0.0
 33
0.0
 40
0.0
 40
0.0
 40
0.0
 40
0.0
 40
0.0248585524670622
 40
0.04970624069727
 40
0.074556062232076
 40
0.0994210112675348
 40
0.1243140583100006
 40
0.1554263774909435
 40
0.1865867279805296
 40
0.2489251963033749
 40
0.3113303818025483
 40
0.3737960827805089
 40
0.4363152917591057
 40
0.4988803158591515
 40
0.5614828870091174
 40
0.6241142219351308
 40
0.6867652256274546
 40
0.7494264786089526
 40
0.8120885030433362
 40
0.8434043211229465
 40
0.8747479337717001
 40
0.9164935886823443
 40
0.958224659544793
 40
1.0
 40
1.0
 40
1.0
 40
1.0
 10
72.3104915138208
 20
99.7639409179106
 30
0.0
 10
72.44589594277221
 20
99.8097194870061
 30
0.0
 10
72.71664562322334
 20
99.90125661802982
 30
0.0
 10
73.11851620132899
 20
100.0503525323724
 30
0.0
 10
73.51704991604967
 20
100.2080077135229
 30
0.0
 10
73.9119579032532
 20
100.3750753393137
 30
0.0
 10
74.33568941595006
 20
100.565895590076
 30
0.0
 10
74.78688622095274
 20
100.7833320817707
 30
0.0
 10
75.42260321968404
 20
101.1125202274813
 30
0.0
 10
76.199698561877
 20
101.5584261010207
 30
0.0
 10
77.10037925684853
 20
102.1463531794396
 30
0.0
 10
77.96671789025486
 20
102.7853965287019
 30
0.0
 10
78.79577736477019
 20
103.4734901407703
 30
0.0
 10
79.58489085743456
 20
104.2082747079028
 30
0.0
 10
80.3313547854331
 20
104.9874121371759
 30
0.0
 10
81.03279842325095
 20
105.8082247611947
 30
0.0
 10
81.68680310160963
 20
106.6680876809674
 30
0.0
 10
82.29127854848686
 20
107.5640649089142
 30
0.0
 10
82.75203419565979
 20
108.338392950953
 30
0.0
 10
83.09392914567366
 20
108.9729297198604
 30
0.0
 10
83.36382784079841
 20
109.5095204572027
 30
0.0
 10
83.64068839275437
 20
110.1095058936469
 30
0.0
 10
83.91966100983255
 20
110.7745286365318
 30
0.0
 10
84.08426903271412
 20
111.2263926928701
 30
0.0
 10
84.1666166763145
 20
111.4524444953024
 30
0.0
  0
SPLINE
  5
1ED
330
1F
100
AcDbEntity
  8
0
  6
Continuous
 62
     7
370
    15
100
AcDbSpline
210
0.0
220
0.0
230
1.0
 70
    24
 71
     3
 72
    10
 73
     6
 74
     0
 42
0.00000001
 43
0.00000001
 12
1.0
 22
0.0
 32
0.0
 13
1.0
 23
0.0
 33
0.0
 40
0.0
 40
0.0
 40
0.0
 40
0.0
 40
0.3293635822221756
 40
0.6626577436971695
 40
1.0
 40
1.0
 40
1.0
 40
1.0
 10
84.16662088551438
 20
111.4524455897655
 30
0.0
 10
84.16662088551438
 20
111.3175596093412
 30
0.0
 10
84.16662088551438
 20
111.0461779379333
 30
0.0
 10
84.16662088551438
 20
110.6391362714637
 30
0.0
 10
84.16662088551438
 20
110.3679480783696
 30
0.0
 10
84.16662088551438
 20
110.231535508882
 30
0.0
  0
SPLINE
  5
1EE
330
1F
100
AcDbEntity
  8
0
  6
Continuous
 62
     7
370
    15
100
AcDbSpline
210
0.0
220
0.0
230
1.0
 70
     8
 71
     3
 72
    25
 73
    21
 74
     0
 42
0.00000001
 43
0.00000001
 12
1.0
 22
0.0
 32
0.0
 13
1.0
 23
0.0
 33
0.0
 40
0.0
 40
0.0
 40
0.0
 40
0.0
 40
0.0199998880672725
 40
0.0408828444983759
 40
0.0626488720923077
 40
0.0923707142468132
 40
0.1253136303742974
 40
0.1879819105471935
 40
0.2506511419271199
 40
0.3133132887856501
 40
0.3759603830168295
 40
0.50113432458703
 40
0.6261581682074893
 40
0.6898548643651565
 40
0.7510243910058092
 40
0.8143052731649852
 40
0.8756460386478172
 40
0.9177870029715224
 40
0.959238043771505
 40
1.0
 40
1.0
 40
1.0
 40
1.0
 10
84.16662089609203
 20
110.2315330023332
 30
0.0
 10
84.12343249073254
 20
110.1291658761894
 30
0.0
 10
84.03514875361832
 20
109.919911740076
 30
0.0
 10
83.89286709447686
 20
109.6023442728038
 30
0.0
 10
83.722349477244
 20
109.2383966405777
 30
0.0
 10
83.51403119704493
 20
108.8183806022012
 30
0.0
 10
83.18839631804795
 20
108.203466397441
 30
0.0
 10
82.74580053649085
 20
107.4442330361189
 30
0.0
 10
82.17293122975136
 20
106.5721619765203
 30
0.0
 10
81.55449644968095
 20
105.7322767588989
 30
0.0
 10
80.67206064600343
 20
104.659178488572
 30
0.0
 10
79.46431385900692
 20
103.4100125172163
 30
0.0
 10
78.1252754018638
 20
102.2940433023781
 30
0.0
 10
76.99236194270546
 20
101.496429320587
 30
0.0
 10
76.10810288880326
 20
100.9426570344918
 30
0.0
 10
75.20653445376055
 20
100.4436453890207
 30
0.0
 10
74.3741349347762
 20
100.0399031905795
 30
0.0
 10
73.63549436308345
 20
99.72252276171005
 30
0.0
 10
72.9926261324482
 20
99.4717711962765
 30
0.0
 10
72.56048402260554
 20
99.32549023948243
 30
0.0
 10
72.34622401016743
 20
99.25296280253913
 30
0.0
  0
LINE
  5
1EF
330
1F
100
AcDbEntity
  8
0
  6
Continuous
 62
     7
370
    15
100
AcDbLine
 10
71.5370547804
 20
110.8246220207
 30
0.0
 11
69.1646565064
 21
110.6328030979
 31
0.0
  0
LINE
  5
1F0
330
1F
100
AcDbEntity
  8
0
  6
Continuous
 62
     7
370
    15
100
AcDbLine
 10
69.1646565064
 20
110.6328030979
 30
0.0
 11
67.0732786493
 21
110.7228778234
 31
0.0
  0
LINE
  5
1F1
330
1F
100
AcDbEntity
  8
0
  6
Continuous
 62
     7
370
    15
100
AcDbLine
 10
66.8197278246
 20
114.3488239428
 30
0.0
 11
67.0732786493
 21
110.7228778234
 31
0.0
  0
LINE
  5
1F2
330
1F
100
AcDbEntity
  8
0
  6
Continuous
 62
     7
370
    15
100
AcDbLine
 10
84.1666207961
 20
114.8062691023
 30
0.0
 11
66.8197278246
 21
114.3488239428
 31
0.0
  0
LINE
  5
1F3
330
1F
100
AcDbEntity
  8
0
  6
Continuous
 62
     7
370
    15
100
AcDbLine
 10
84.1666207961
 20
111.452446126
 30
0.0
 11
84.1666207961
 21
114.8062691023
 31
0.0
  0
LINE
  5
1F4
330
1F
100
AcDbEntity
  8
0
  6
Continuous
 62
     7
370
    15
100
AcDbLine
 10
71.5592998858
 20
110.5065027183
 30
0.0
 11
71.5370547804
 21
110.8246220207
 31
0.0
  0
ARC
  5
1F5
330
1F
100
AcDbEntity
  8
0
  6
Continuous
 62
     7
370
    15
100
AcDbCircle
 10
67.6666208855
 20
119.9370127102
 30
0.0
 40
16.50000000000001
100
AcDbArc
 50
0.0
 51
98.2912714864
  0
LINE
  5
1F6
330
1F
100
AcDbEntity
  8
0
  6
Continuous
 62
     7
370
    15
100
AcDbLine
 10
84.1666207961
 20
114.8062691023
 30
0.0
 11
84.1666207961
 21
119.9370127102
 31
0.0
  0
LINE
  5
1F7
330
1F
100
AcDbEntity
  8
0
  6
Continuous
 62
     7
370
    15
100
AcDbLine
 10
65.2872309401
 20
136.2645503065
 30
0.0
 11
66.8197278246
 21
114.3488239428
 31
0.0
  0
SPLINE
  5
1F8
330
1F
100
AcDbEntity
  8
0
  6
Continuous
 62
     7
370
    15
100
AcDbSpline
210
0.0
220
0.0
230
1.0
 70
     8
 71
     3
 72
    11
 73
     7
 74
     0
 42
0.00000001
 43
0.00000001
 12
1.0
 22
0.0
 32
0.0
 13
1.0
 23
0.0
 33
0.0
 40
0.0
 40
0.0
 40
0.0
 40
0.0
 40
0.1736363901561924
 40
0.5481743817058461
 40
0.9218114961851872
 40
1.0
 40
1.0
 40
1.0
 40
1.0
 10
67.24658768137796
 20
103.9437677642241
 30
0.0
 10
67.19117443697976
 20
103.9448082208801
 30
0.0
 10
67.01623345278301
 20
103.948092968297
 30
0.0
 10
66.40549885656338
 20
103.9799719623459
 30
0.0
 10
65.75671814027248
 20
104.0467591581996
 30
0.0
 10
65.37298674664574
 20
104.1023978098927
 30
0.0
 10
65.3065819605521
 20
104.1120260884896
 30
0.0
  0
SPLINE
  5
1F9
330
1F
100
AcDbEntity
  8
0
  6
Continuous
 62
     7
370
    15
100
AcDbSpline
210
0.0
220
0.0
230
1.0
 70
     8
 71
     3
 72
    16
 73
    12
 74
     0
 42
0.00000001
 43
0.00000001
 12
1.0
 22
0.0
 32
0.0
 13
1.0
 23
0.0
 33
0.0
 40
0.0
 40
0.0
 40
0.0
 40
0.0
 40
0.2499999999999992
 40
0.2499999999999992
 40
0.3750000000000021
 40
0.3750000000000021
 40
0.5000000000000054
 40
0.5000000000000054
 40
0.7500000000000027
 40
0.7500000000000027
 40
1.0
 40
1.0
 40
1.0
 40
1.0
 10
63.12713716962159
 20
135.2795381735641
 30
0.0
 10
63.37868235171085
 20
135.3539643337575
 30
0.0
 10
63.61798225896456
 20
135.4180635345362
 30
0.0
 10
63.95773960793226
 20
135.5016457610609
 30
0.0
 10
64.06834462771769
 20
135.5275156225223
 30
0.0
 10
64.27648560112833
 20
135.5740954253397
 30
0.0
 10
64.37471769235576
 20
135.5949903225245
 30
0.0
 10
64.65185769689663
 20
135.6515525087035
 30
0.0
 10
64.81458298361864
 20
135.6813155472223
 30
0.0
 10
65.07299453425551
 20
135.7259421979067
 30
0.0
 10
65.17196239624128
 20
135.7414708828452
 30
0.0
 10
65.23616327992642
 20
135.751337729887
 30
0.0
  0
SPLINE
  5
1FA
330
1F
100
AcDbEntity
  8
0
  6
Continuous
 62
     7
370
    15
100
AcDbSpline
210
0.0
220
0.0
230
1.0
 70
     8
 71
     3
 72
    10
 73
     6
 74
     0
 42
0.00000001
 43
0.00000001
 12
1.0
 22
0.0
 32
0.0
 13
1.0
 23
0.0
 33
0.0
 40
0.0
 40
0.0
 40
0.0
 40
0.0
 40
0.5
 40
0.5
 40
1.0
 40
1.0
 40
1.0
 40
1.0
 10
65.23616327992642
 20
135.751337729887
 30
0.0
 10
65.26775284305663
 20
135.7561926379448
 30
0.0
 10
65.28812517522859
 20
135.7846963162425
 30
0.0
 10
65.30830053085761
 20
135.8884906901108
 30
0.0
 10
65.30801519133671
 20
135.9630317136881
 30
0.0
 10
65.30170541446645
 20
136.0573583719815
 30
0.0
  0
ELLIPSE
  5
1FB
330
1F
100
AcDbEntity
  8
0
  6
Continuous
 62
     7
370
    15
100
AcDbEllipse
 10
60.3119336904
 20
111.9973172754
 30
0.0
 11
-1.654506653606625
 21
1.94514150331571
 31
0.0
210
0.0
220
0.0
230
1.0
 40
0.8051687171
 41
0.0
 42
6.283185307179586
  0
ARC
  5
1FC
330
1F
100
AcDbEntity
  8
0
  6
Continuous
 62
     7
370
    15
100
AcDbCircle
 10
67.6666208855
 20
119.9370127102
 30
0.0
 40
15.99999999999997
100
AcDbArc
 50
106.4822165171
 51
261.5177834829
  0
ARC
  5
1FD
330
1F
100
AcDbEntity
  8
0
  6
Continuous
 62
     7
370
    15
100
AcDbCircle
 10
67.6666208855
 20
119.9370127102
 30
0.0
 40
20.0
100
AcDbArc
 50
312.4569501704
 51
269.599247609
  0
CIRCLE
  5
1FE
330
1F
100
AcDbEntity
  8
VERMASSUNG
  6
CENTERX2
100
AcDbCircle
 10
67.6666208855
 20
117.9878535085
 30
0.0
 40
19.99999999999999
  0
DIMENSION
  5
1FF
330
1F
100
AcDbEntity
  8
VERMASSUNG
100
AcDbDimension
  2
_D_6
 10
81.8087565092
 20
132.1299891323
 30
0.0
 11
45.8278117115
 21
96.1490443345
 31
0.0
 70
   163
  1
<> min. 
 71
     1
 42
-1.0
  3
SLDDIMSTYLE2
100
AcDbDiametricDimension
 15
53.5244852618
 25
103.8457178848
 35
0.0
 40
0.0
  0
INSERT
  5
218
330
1F
100
AcDbEntity
  8
VERMASSUNG
100
AcDbBlockReference
  2
SW_CENTERMARKSYMBOL_0
 10
67.6666208855
 20
119.9370127102
 30
0.0
  0
OLE2FRAME
  5
219
330
1F
100
AcDbEntity
  8
0
100
AcDbOle2Frame
 70
     2
  3
Paintbrush-Bild
 10
13.8511154363
 20
38.264191557
 30
0.0
 11
51.6290888628
 21
31.9806341108
 31
0.0
 71
     2
 72
     0
 73
     1
 90
    12928
310
80552BED0767C5B32B40DDAF6807D121434000000000000000006FFBDDFB85D0
310
4940DDAF6807D121434000000000000000006FFBDDFB85D04940416F4BD60AFB
310
3F4000000000000000002BED0767C5B32B40416F4BD60AFB3F40000000000000
310
0000000000000100000000010000010000000100000000000100000000320000
310
D0CF11E0A1B11AE1000000000000000000000000000000003E000300FEFF0900
310
0600000000000000000000000100000001000000000000000010000002000000
310
01000000FEFFFFFF0000000000000000FFFFFFFFFFFFFFFFFFFFFFFFFFFFFFFF
310
FFFFFFFFFFFFFFFFFFFFFFFFFFFFFFFFFFFFFFFFFFFFFFFFFFFFFFFFFFFFFFFF
310
FFFFFFFFFFFFFFFFFFFFFFFFFFFFFFFFFFFFFFFFFFFFFFFFFFFFFFFFFFFFFFFF
310
FFFFFFFFFFFFFFFFFFFFFFFFFFFFFFFFFFFFFFFFFFFFFFFFFFFFFFFFFFFFFFFF
310
FFFFFFFFFFFFFFFFFFFFFFFFFFFFFFFFFFFFFFFFFFFFFFFFFFFFFFFFFFFFFFFF
310
FFFFFFFFFFFFFFFFFFFFFFFFFFFFFFFFFFFFFFFFFFFFFFFFFFFFFFFFFFFFFFFF
310
FFFFFFFFFFFFFFFFFFFFFFFFFFFFFFFFFFFFFFFFFFFFFFFFFFFFFFFFFFFFFFFF
310
FFFFFFFFFFFFFFFFFFFFFFFFFFFFFFFFFFFFFFFFFFFFFFFFFFFFFFFFFFFFFFFF
310
FFFFFFFFFFFFFFFFFFFFFFFFFFFFFFFFFFFFFFFFFFFFFFFFFFFFFFFFFFFFFFFF
310
FFFFFFFFFFFFFFFFFFFFFFFFFFFFFFFFFFFFFFFFFFFFFFFFFFFFFFFFFFFFFFFF
310
FFFFFFFFFFFFFFFFFFFFFFFFFFFFFFFFFFFFFFFFFFFFFFFFFFFFFFFFFFFFFFFF
310
FFFFFFFFFFFFFFFFFFFFFFFFFFFFFFFFFFFFFFFFFFFFFFFFFFFFFFFFFFFFFFFF
310
FFFFFFFFFFFFFFFFFFFFFFFFFFFFFFFFFFFFFFFFFFFFFFFFFFFFFFFFFFFFFFFF
310
FFFFFFFFFFFFFFFFFFFFFFFFFFFFFFFFFFFFFFFFFFFFFFFFFFFFFFFFFFFFFFFF
310
FDFFFFFFFEFFFFFFFEFFFFFFFEFFFFFF05000000060000000700000008000000
310
090000000A0000000B0000000C0000000D0000000E0000000F00000010000000
310
11000000120000001300000014000000150000001600000017000000FEFFFFFF
310
FFFFFFFFFFFFFFFFFFFFFFFFFFFFFFFFFFFFFFFFFFFFFFFFFFFFFFFFFFFFFFFF
310
FFFFFFFFFFFFFFFFFFFFFFFFFFFFFFFFFFFFFFFFFFFFFFFFFFFFFFFFFFFFFFFF
310
FFFFFFFFFFFFFFFFFFFFFFFFFFFFFFFFFFFFFFFFFFFFFFFFFFFFFFFFFFFFFFFF
310
FFFFFFFFFFFFFFFFFFFFFFFFFFFFFFFFFFFFFFFFFFFFFFFFFFFFFFFFFFFFFFFF
310
FFFFFFFFFFFFFFFFFFFFFFFFFFFFFFFFFFFFFFFFFFFFFFFFFFFFFFFFFFFFFFFF
310
FFFFFFFFFFFFFFFFFFFFFFFFFFFFFFFFFFFFFFFFFFFFFFFFFFFFFFFFFFFFFFFF
310
FFFFFFFFFFFFFFFFFFFFFFFFFFFFFFFFFFFFFFFFFFFFFFFFFFFFFFFFFFFFFFFF
310
FFFFFFFFFFFFFFFFFFFFFFFFFFFFFFFFFFFFFFFFFFFFFFFFFFFFFFFFFFFFFFFF
310
FFFFFFFFFFFFFFFFFFFFFFFFFFFFFFFFFFFFFFFFFFFFFFFFFFFFFFFFFFFFFFFF
310
FFFFFFFFFFFFFFFFFFFFFFFFFFFFFFFFFFFFFFFFFFFFFFFFFFFFFFFFFFFFFFFF
310
FFFFFFFFFFFFFFFFFFFFFFFFFFFFFFFFFFFFFFFFFFFFFFFFFFFFFFFFFFFFFFFF
310
FFFFFFFFFFFFFFFFFFFFFFFFFFFFFFFFFFFFFFFFFFFFFFFFFFFFFFFFFFFFFFFF
310
FFFFFFFFFFFFFFFFFFFFFFFFFFFFFFFFFFFFFFFFFFFFFFFFFFFFFFFFFFFFFFFF
310
52006F006F007400200045006E00740072007900000000000000000000000000
310
0000000000000000000000000000000000000000000000000000000000000000
310
16000500FFFFFFFFFFFFFFFF020000000A00030000000000C000000000000046
310
000000000000000000000000907B953EFF42CD0103000000C000000000000000
310
01004F006C006500000000000000000000000000000000000000000000000000
310
0000000000000000000000000000000000000000000000000000000000000000
310
0A000200FFFFFFFFFFFFFFFFFFFFFFFF00000000000000000000000000000000
310
0000000000000000000000000000000000000000000000001400000000000000
310
010043006F006D0070004F0062006A0000000000000000000000000000000000
310
0000000000000000000000000000000000000000000000000000000000000000
310
120002010100000003000000FFFFFFFF00000000000000000000000000000000
310
0000000000000000000000000000000000000000010000004D00000000000000
310
01004F006C006500310030004E00610074006900760065000000000000000000
310
0000000000000000000000000000000000000000000000000000000000000000
310
1A000200FFFFFFFFFFFFFFFFFFFFFFFF00000000000000000000000000000000
310
0000000000000000000000000000000000000000040000002426000000000000
310
FEFFFFFF02000000FEFFFFFFFFFFFFFFFFFFFFFFFFFFFFFFFFFFFFFFFFFFFFFF
310
FFFFFFFFFFFFFFFFFFFFFFFFFFFFFFFFFFFFFFFFFFFFFFFFFFFFFFFFFFFFFFFF
310
FFFFFFFFFFFFFFFFFFFFFFFFFFFFFFFFFFFFFFFFFFFFFFFFFFFFFFFFFFFFFFFF
310
FFFFFFFFFFFFFFFFFFFFFFFFFFFFFFFFFFFFFFFFFFFFFFFFFFFFFFFFFFFFFFFF
310
FFFFFFFFFFFFFFFFFFFFFFFFFFFFFFFFFFFFFFFFFFFFFFFFFFFFFFFFFFFFFFFF
310
FFFFFFFFFFFFFFFFFFFFFFFFFFFFFFFFFFFFFFFFFFFFFFFFFFFFFFFFFFFFFFFF
310
FFFFFFFFFFFFFFFFFFFFFFFFFFFFFFFFFFFFFFFFFFFFFFFFFFFFFFFFFFFFFFFF
310
FFFFFFFFFFFFFFFFFFFFFFFFFFFFFFFFFFFFFFFFFFFFFFFFFFFFFFFFFFFFFFFF
310
FFFFFFFFFFFFFFFFFFFFFFFFFFFFFFFFFFFFFFFFFFFFFFFFFFFFFFFFFFFFFFFF
310
FFFFFFFFFFFFFFFFFFFFFFFFFFFFFFFFFFFFFFFFFFFFFFFFFFFFFFFFFFFFFFFF
310
FFFFFFFFFFFFFFFFFFFFFFFFFFFFFFFFFFFFFFFFFFFFFFFFFFFFFFFFFFFFFFFF
310
FFFFFFFFFFFFFFFFFFFFFFFFFFFFFFFFFFFFFFFFFFFFFFFFFFFFFFFFFFFFFFFF
310
FFFFFFFFFFFFFFFFFFFFFFFFFFFFFFFFFFFFFFFFFFFFFFFFFFFFFFFFFFFFFFFF
310
FFFFFFFFFFFFFFFFFFFFFFFFFFFFFFFFFFFFFFFFFFFFFFFFFFFFFFFFFFFFFFFF
310
FFFFFFFFFFFFFFFFFFFFFFFFFFFFFFFFFFFFFFFFFFFFFFFFFFFFFFFFFFFFFFFF
310
FFFFFFFFFFFFFFFFFFFFFFFFFFFFFFFFFFFFFFFFFFFFFFFFFFFFFFFFFFFFFFFF
310
0100000200000000000000000000000000000000000000000000000000000000
310
0000000000000000000000000000000000000000000000000000000000000000
310
0100FEFF030A0000FFFFFFFF0A00030000000000C00000000000004607000000
310
5042727573680007000000504272757368000700000050427275736800F439B2
310
7100000000000000000000000000000000000000000000000000000000000000
310
0000000000000000000000000000000000000000000000000000000000000000
310
0000000000000000000000000000000000000000000000000000000000000000
310
0000000000000000000000000000000000000000000000000000000000000000
310
0000000000000000000000000000000000000000000000000000000000000000
310
0000000000000000000000000000000000000000000000000000000000000000
310
0000000000000000000000000000000000000000000000000000000000000000
310
0000000000000000000000000000000000000000000000000000000000000000
310
0000000000000000000000000000000000000000000000000000000000000000
310
0000000000000000000000000000000000000000000000000000000000000000
310
0000000000000000000000000000000000000000000000000000000000000000
310
0000000000000000000000000000000000000000000000000000000000000000
310
20260000424D0E260000000000003E00000028000000B40200006E0000000100
310
01000000000000000000130B0000130B00000200000002000000000000FFFFFF
310
FFFFFFFFFFFFFFFFFFFFFFFFFFFFFFFFFFFFFFFFFFFFFFFFFFFFFFFFFFFFFFFF
310
FFFFFFFFFFFFFFFFFFFFFFFFFFFFFFFFFFFFFFFFFFFFFFFFFFFFFFFFFFFFFFFF
310
FFFFFFFFFFFFFFFFFFFFFFFFFFFFFFFFFFFFFFFFFFFFFFFFF000FFFFFFFFFFFF
310
FFFFFFFFFFFFFFFFFFFFFFFFFFFFFFFFFFFFFFFFFFFFFFFFFFFFFFFFFFFFFFFF
310
FFFFFFFFFFFFFFFFFFFFFFFFFFFFFFFFFFFFFFFFFFFFFFFFFFFFFFFFFFFFFFFF
310
FFFFFFFFFFFFFFFFFFFFFFFFFFFFFFFFF000FFFFFFFFFFFFFFFFFFFFFFFFFFFF
310
FFFFFFFFFFFFFFFFFFFFFFFFFFFFFFFFFFFFFFFFFFFFFFFFFFFFFFFFFFFFFFFF
310
FFFFFFFFFFFFFFFFFFFFFFFFFFFFFFFFFFFFFFFFFFFFFFFFFFFFFFFFFFFFFFFF
310
FFFFFFFFFFFFFFFFF000FFFFFFFFFFFFFFFFFFFFFFFFFFFFFFFFFFFFFFFFFFFF
310
FFFFFFFFFFFFFFFFFFFFFFFFFFFFFFFFFFFFFFFFFFFFFFFFFFFFFFFFFFFFFFFF
310
FFFFFFFFFFFFFFFFFFFFFFFFFFFFFFFFFFFFFFFFFFFFFFFFFFFFFFFFFFFFFFFF
310
F000FFFFFFFFFFFFFFFFFFFFFFFFFFFFFFFFFFFFFFFFFFFFFFFFFFFFFFFFFFFF
310
FFFFFFFFFFFFFFFFFFFFFFFFFFFFFFFFFFFFFFFFFFFFFFFFFFFFFFFFFFFFFFFF
310
FFFFFFFFFFFFFFFFFFFFFFFFFFFFFFFFFFFFFFFFFFFFFFFFF000FFFFFFFFFFFF
310
FFFFFFFFFFFFFFFFFFFFFFFFFFFFFFFFFFFFFFFFFFFFFFFFFFFFFFFFFFFFFFFF
310
FFFFFFFFFFFFFFFFFFFFFFFFFFFFFFFFFFFFFFFFFFFFFFFFFFFFFFFFFFFFFFFF
310
FFFFFFFFFFFFFFFFFFFFFFFFFFFFFFFFF000FFFFFFFFFFFFFFFFFFFFFFFFFFFF
310
FFFFFFFFFFFFFFFFFFFFFFFFFFFFFFFFFFFFFFFFFFFFFFFFFFFFFFFFFFFFFFFF
310
FFFFFFFFFFFFFFFFFFFFFFFFFFFFFFFFFFFFFFFFFFFFFFFFFFFFFFFFFFFFFFFF
310
FFFFFFFFFFFFFFFFF000FFFFFFFFFFFFFFFFFFFFFFFFFFFFFFFFFFFFFFFFFFFF
310
FFFFFFFFFFFFFFFFFFFFFFFFFFFFFFFFFFFFFFFFFFFFFFFFFFFFFFFFFFFFFFFF
310
FFFFFFFFFFFFFFFFFFFFFFFFFFFFFFFFFFFFFFFFFFFFFFFFFFFFFFFFFFFFFFFF
310
F000FFFFFFFFFFFFFFFFFFFFFFFFFFFFFFFFFFFFFFFFFFFFFFFFFFFFFFFFFFFF
310
FFFFFFFFFFFFFFFFFFFFFFFFFFFFFFFFFFFFFFFFFFFFFFFFFFFFFFFFFFFFFFFF
310
FFFFFFFFFFFFFFFFFFFFFFFFFFFFFFFFFFFFFFFFFFFFFFFFF000FFFFFFFFFFFF
310
FFFFFFFFFFFFFFFFFFFFFFFFFFFFFFFFFFFFFFFFFFFFFFFFFFFFFFFFFFFFFFFF
310
FFFFFFFFFFFFFFFFFFFFFFFFFFFFFFFFFFFFFFFFFFFFFFFFFFFFFFFFFFFFFFFF
310
FFFFFFFFFFFFFFFFFFFFFFFFFFFFFFFFF000FFFFFFFFFFFFFFFFFFFFFFFFFFFF
310
FFFFFFFFFFFFFFFFFFFFFFFFFFFFFFFFFFFFFFFFFFFFFFFFFFFFFFFFFFFFFFFF
310
FFFFFFFFFFFFFFFFFFFFFFFFFFFFFFFFFFFFFFFFFFFFFFFFFFFFFFFFFFFFFFFF
310
FFFFFFFFFFFFFFFFF000FFFFFFFFFFFFFFFFFFFFFFFFFFFFFFFFFFFFFFFFFFFF
310
FFFFFFFFFFFFFFFFFFFFFFFFFFFFFFFFFFFFFFFFFFFFFFFFFFFFFFFFFFFFFFFF
310
FFFFFFFFFFFFFFFFFFFFFFFFFFFFFFFFFFFFFFFFFFFFFFFFFFFFFFFFFFFFFFFF
310
F000FFFFFFFFFFFFFFFFFFFFFFFFFFFFFFFFFFFFFFFFFFFFFFFFFFFFFFFFFFFF
310
FFFFFFFFFFFFFFFFFFFFFFFFFFFFFFFFFFFFFFFFFFFFFFFFFFFFFFFFFFFFFFFF
310
FFFFFFFFFFFFFFFFFFFFFFFFFFFFFFFFFFFFFFFFFFFFFFFFF000FFFFFFFFFFFF
310
FFFFFFFFFFFFFFFFFFFFFFFFFFFFFFFFFFFFFFFFFFFFFFFFFFFFFFFFFFFFFFFF
310
FFFFFFFFFFFFFFFFFFFFFFFFFFFFFFFFFFFFFFFFFFFFFFFFFFFFFFFFFFFFFFFF
310
FFFFFFFFFFFFFFFFFFFFFFFFFFFFFFFFF000FFFFFFFFFFFFFFFFFFFFFFFFFFFF
310
FFFFFFFFFFFFFFFFFFFFFFFFFFFFFFFFFFFFFFFFFFFFFFFFFFFFFFFFFFFFFFFF
310
FFFFFFFFFFFFFFFFFFFFFFFFFFFFFFFFFFFFFFFFFFFFFFFFFFFFFFFFFFFFFFFF
310
FFFFFFFFFFFFFFFFF000FFFFFFFFFFFFFFFFFFFFFFFFFFFFFFFFFFFFFFFFFFFF
310
FFFFFFFFFFFFFFFFFFFFFFFFFFFFFFFFFFFFFFFFFFFFFFFFFFFFFFFFFFFFFFFF
310
FFFFFFFFFFFFFFFFFFFFFFFFFFFFFFFFFFFFFFFFFFFFFFFFFFFFFFFFFFFFFFFF
310
F000FFFFFFFFFFFFFFFFFFFFFFFFFFFFFFFFFFFFFFFFFFFFFFFFFFFFFFFFFFFF
310
FFFFFFFFFFFFFFFFFFFFFFFFFFFFFFFFFFFFFFFFFFFFFFFFFFFFFFFFFFFFFFFF
310
FFFFFFFFFFFFFFFFFFFFFFFFFFFFFFFFFFFFFFFFFFFFFFFFF000FFFFFFFFFFFF
310
FFFFFFFFFFFFFFFFFFFFFFFFFFFFFFFFFFFFFFFFFFFFFFFFFFFFFFFFFFFFFFFF
310
FFFFFFFFFFFFFFFFFFFFFFFFFFFFFFFFFFFFFFFFFFFFFFFFFFFFFFFFFFFFFFFF
310
FFFFFFFFFFFFFFFFFFFFFFFFFFFFFFFFF000FFFFFFFFFFFFFFFFFFFFFFFFFFFF
310
FFFFFFFFFFFFFFFFFFFFFFFFFFFFFFFFFFFFFFFFFFFFFFFFFFFFFFFFFFFFFFFF
310
FFFFFFFFFFFFFFFFFFFFFFFFFFFFFFFFFFFFFFFFFFFFFFFFFFFFFFFFFFFFFFFF
310
FFFFFFFFFFFFFFFFF000FFFFF80003FFFFFFFFFFFFFFFFFFFFFFFFFFFFFFFFFF
310
FFFFF00007FFFFFFFFFF00007FFFFFF800000000000000007FFFFFFFFFFFFFFF
310
FFFFFFFC001FFFFFFFFFFFFFFC001FFFFFFFFFFFFFFFFFFFFFFFFFFE0007FFFF
310
F000FFFF8000007FFFFFFFF8000FFFFFC0007FFFFF80007FFFFF0000007FFFFF
310
FFF8000007FFFFF800000000000000007FFFFFF0001FFFFFFFFFFFC00001FFFF
310
FFFFFFFFC00001FFFFFFFF000000000003FFFFE000007FFFF000FFFE0000000F
310
FFFFFFF0000FFFFF80007FFFFF80007FFFFC0000001FFFFFFFC0000001FFFFF8
310
00000000000000007FFFFFF0001FFFFFFFFFFE0000003FFFFFFFFFFE0000003F
310
FFFFFF000000000003FFFF0000000FFFF000FFF800000003FFFFFFF00007FFFF
310
80007FFFFF80007FFFF000000007FFFFFF000000003FFFF80000000000000000
310
7FFFFFF0001FFFFFFFFFF80000000FFFFFFFFFF80000000FFFFFFF0000000000
310
03FFFC00000003FFF000FFE000000000FFFFFFF00007FFFF80003FFFFF80007F
310
FFC000000001FFFFFC000000001FFFF800000000000000007FFFFFF0001FFFFF
310
FFFFE000000003FFFFFFFFE000000003FFFFFF000000000003FFF000000000FF
310
F000FF80000000007FFFFFF00007FFFF80003FFFFF80007FFF8000000000FFFF
310
F80000000007FFF800000000000000007FFFFFF0001FFFFFFFFFC000000001FF
310
FFFFFFC000000001FFFFFF000000000003FFC0000000007FF000FF0000000000
310
3FFFFFE00007FFFF00003FFFFF80007FFE00000000003FFFF00000000003FFF8
310
00000000000000007FFFFFF0001FFFFFFFFF8000000000FFFFFFFF8000000000
310
FFFFFF000000000003FF80000000003FF000FE00000000001FFFFFE00003FFFF
310
00003FFFFF80007FFC00000000001FFFE00000000001FFF8000001FFFE000000
310
7FFFFFF0001FFFFFFFFE00000000003FFFFFFE00000000003FFFFF0000000000
310
03FF00000000001FF000FC00000000000FFFFFE00003FFFF00001FFFFF80007F
310
F800000000001FFFC00000000000FFF8000001FFFE0000007FFFFFF0001FFFFF
310
FFFC00000000001FFFFFFC00000000001FFFFF000000000003FE00000000000F
310
F000F8000000000007FFFFE00003FFFF00001FFFFF80007FF800000000000FFF
310
800000000000FFF8000001FFFE0000007FFFFFF0001FFFFFFFF800000000000F
310
FFFFF800000000000FFFFF000000000003FC000000000007F000F80000000000
310
03FFFFC00003FFFE00001FFFFF80007FF0000000000007FF0000000000007FF8
310
000001FFFE0000007FFFFFF0001FFFFFFFF0000000000007FFFFF00000000000
310
07FFFF000000000003F8000000000003F000F0000000000003FFFFC00001FFFE
310
00001FFFFF80007FE0000000000007FE0000000000003FF8000001FFFE000000
310
7FFFFFF0001FFFFFFFF0000000000007FFFFF0000000000007FFFF0000000000
310
03F800001F800003F000E00001FFF00001FFFFC00001FFFE00000FFFFF80007F
310
E00001FFE00003FE00001FFF00003FF8000001FFFE0000007FFFFFF0001FFFFF
310
FFE000003E000003FFFFE000003E000003FFFF000000000003F00001FFF80001
310
F000E00007FFFC0001FFFFC00001FFFE00000FFFFF80007FC0000FFFFC0003FC
310
0000FFFFC0001FF8000001FFFE0000007FFFFFF0001FFFFFFFC00003FFE00001
310
FFFFC00003FFE00001FFFF0001FFFFFFFFF00007FFFE0001F000E0000FFFFF00
310
00FFFF800001FFFC00000FFFFF80007FC0001FFFFE0001FC0001FFFFE0001FF8
310
000001FFFE0000007FFFFFF0001FFFFFFF80000FFFF80000FFFF80000FFFF800
310
00FFFF0003FFFFFFFFE0000FFFFF8000F000C0003FFFFF8000FFFF800000FFFC
310
000007FFFF80007F80003FFFFF0001FC0003FFFFF0001FF8000001FFFE000000
310
7FFFFFF0001FFFFFFF80003FFFFE0000FFFF80003FFFFE0000FFFF0003FFFFFF
310
FFE0003FFFFF8000F000C0003FFFFF8000FFFF800000FFFC000007FFFF80007F
310
80007FFFFF8001F80007FFFFF8000FF8000001FFFE0000007FFFFFF0001FFFFF
310
FF00007FFFFF00007FFF00007FFFFF00007FFF0003FFFFFFFFE0003FFFFFC000
310
F000C0007FFFFFC000FFFF000000FFFC000007FFFF80007F8000FFFFFF8000F8
310
000FFFFFF8000FF8000001FFFE0000007FFFFFF0001FFFFFFF0000FFFFFF8000
310
7FFF0000FFFFFF80007FFF0003FFFFFFFFC0007FFFFFC00070008000FFFFFFC0
310
00FFFF000000FFF8000007FFFF80007F8000FFFFFF8000F8000FFFFFF8000FF8
310
000001FFFE0000007FFFFFF0001FFFFFFE0001FFFFFFC0003FFE0001FFFFFFC0
310
003FFF0003FFFFFFFFC0007FFFFFE00070008000FFFFFFC0007FFF0000007FF8
310
000003FFFF80007F0001FFFFFF8000F8000FFFFFF8000FF8000001FFFE000000
310
7FFFFFF0001FFFFFFE0001FFFFFFC0003FFE0001FFFFFFC0003FFF0003FFFFFF
310
FFC000FFFFFFE00070008000FFFFFFC0007FFF0000007FF8000003FFFF80007F
310
0001FFFFFF8000F8001FFFFFF8000FF8000001FFFE0000007FFFFFF0001FFFFF
310
FE0003FFFFFFE0003FFE0003FFFFFFE0003FFF0003FFFFFFFFC000FFFFFFE000
310
70008000FFFFFFC0007FFE0000007FF8000003FFFF80007F0001FFFFFF8000F0
310
001FFFFFF8000FF8000001FFFE0000007FFFFFF0001FFFFFFC0003FFFFFFE000
310
1FFC0003FFFFFFE0001FFF0003FFFFFFFFC000FFFFFFC00070008000FFFFFF80
310
007FFE0000007FF0000003FFFF80007F0001FFFFFF0000F0001FFFFFF8000FF8
310
000001FFFE0000007FFFFFF0001FFFFFFC0007FFFFFFF0001FFC0007FFFFFFF0
310
001FFF0003FFFFFFFFC000FFFFFFC00070008001FFFFFF0000FFFE0000003FF0
310
000001FFFF80007F0001FFFFFF0000F8001FFFFFF0000FF8000001FFFE000000
310
7FFFFFF0001FFFFFFC0007FFFFFFF0001FFC0007FFFFFFF0001FFF0003FFFFFF
310
FFC001FFFFFF80007000FFFFFFFFFE0000FFFE0008003FF0008001FFFF80007F
310
FFFFFFFFFC0000FFFFFFFFFFE0000FF8000001FFFE0000007FFFFFF0001FFFFF
310
F8000FFFFFFFF8000FF8000FFFFFFFF8000FFF0003FFFFFFFFFFFFFFFFFF0000
310
7000FFFFFFFFFC0000FFFC0008003FF0008001FFFF80007FFFFFFFFFF80001FF
310
FFFFFFFF80000FF8000001FFFE0000007FFFFFF0001FFFFFF8000FFFFFFFF800
310
0FF8000FFFFFFFF8000FFF0003FFFFFFFFFFFFFFFFFE0000F000FFFFFFFFE000
310
00FFFC000C003FE000C001FFFF80007FFFFFFFFFC00001FFFFFFFFFE00001FF8
310
000001FFFE0000007FFFFFF0001FFFFFF8000FFFFFFFF8000FF8000FFFFFFFF8
310
000FFF0003FFFFFFFFFFFFFFFFF00000F000FFFFFFFE000001FFFC000C001FE0
310
00C000FFFF80007FFFFFFFFE000001FFFFFFFFE000001FF80FFFFFFFFFFFFFC0
310
7FFFFFF0001FFFFFF8000FFFFFFFF8000FF8000FFFFFFFF8000FFF0003FFFFFF
310
FFFFFFFFFF800000F000FFFFFFC0000001FFFC001C001FE001C000FFFF80007F
310
FFFFFF80000003FFFFFFF80000001FF80FFFFFFFFFFFFFC07FFFFFF0001FFFFF
310
F8001FFFFFFFFC000FF8001FFFFFFFFC000FFF0003FFFFFFFFFFFFFFF0000001
310
F000FFFFF800000001FFF8001C001FE001C000FFFF80007FFFFFF800000003FF
310
FFFF800000003FF80FFFFFFFFFFFFFC07FFFFFF0001FFFFFF8001FFFFFFFFC00
310
0FF8001FFFFFFFFC000FFF0003FFFFFFFFFFFFFE00000001F000FFFFC0000000
310
03FFF8001E001FC001E000FFFF80007FFFFF8000000007FFFFFC000000003FF8
310
0FFFFFFFFFFFFFC07FFFFFF0001FFFFFF8001FFFFFFFFC000FF8001FFFFFFFFC
310
000FFF0003FFFFFFFFFFFFE000000003F000FFFE0000000007FFF8001E000FC0
310
01E0007FFF80007FFFFE0000000007FFFFE0000000007FF80FFFFFFFFFFFFFC0
310
7FFFFFF0001FFFFFF0001FFFFFFFFC0007F0001FFFFFFFFC0007FF0003FFFFFF
310
FFFFFF0000000003F000FFF80000000007FFF8001E000FC003E0007FFF80007F
310
FFF0000000000FFFFF8000000000FFF80FFFFFFFFFFFFFC07FFFFFF0001FFFFF
310
F0001FFFFFFFFC0007F0001FFFFFFFFC0007FF0003FFFFFFFFFFFC0000000007
310
F000FFE0000000000FFFF0003E000FC003E0007FFF80007FFFC0000000001FFF
310
FE0000000001FFF80FFFFFFFFFFFFFC07FFFFFF0001FFFFFF0001FFFFFFFFC00
310
07F0001FFFFFFFFC0007FF0003FFFFFFFFFFF0000000000FF000FFC000000000
310
1FFFF0003F000F8003F0003FFF80007FFF80000000003FFFF80000000003FFF8
310
0FFFFFFFFFFFFFC07FFFFFF0001FFFFFF0001FFFFFFFFC0007F0001FFFFFFFFC
310
0007FF0003FFFFFFFFFFE0000000001FF000FF00000000007FFFF0003F000780
310
03F0003FFF80007FFF00000000007FFFF00000000007FFF80FFFFFFFFFFFFFC0
310
7FFFFFF0001FFFFFF0001FFFFFFFFC0007F0001FFFFFFFFC0007FF0003FFFFFF
310
FFFF80000000007FF000FE0000000000FFFFE0003F00078007F0003FFF80007F
310
FE0000000001FFFFE0000000001FFFF80FFFFFFFFFFFFFC07FFFFFF0001FFFFF
310
F0001FFFFFFFFC0007F0001FFFFFFFFC0007FF0003FFFFFFFFFF0000000000FF
310
F000FC0000000003FFFFE0007F00078007F0003FFF80007FFC0000000007FFFF
310
C0000000007FFFF80FFFFFFFFFFFFFC07FFFFFF0001FFFFFF8001FFFFFFFFC00
310
0FF8001FFFFFFFFC000FFF0003FFFFFFFFFE0000000003FFF000FC000000000F
310
FFFFE0007F80070007F8001FFF80007FF8000000001FFFFF8000000001FFFFF8
310
0FFFFFFFFFFFFFC07FFFFFF0001FFFFFF8001FFFFFFFFC000FF8001FFFFFFFFC
310
000FFF0003FFFFFFFFFC000000000FFFF000F8000000007FFFFFE0007F800700
310
07F8001FFF80007FF000000000FFFFFF800000000FFFFFF80FFFFFFFFFFFFFC0
310
7FFFFFF0001FFFFFF8000FFFFFFFF8000FF8000FFFFFFFF8000FFF0003FFFFFF
310
FFFC000000007FFFF000F800000007FFFFFFC0007F8003000FF8001FFF80007F
310
F000000007FFFFFF000000007FFFFFF80FFFFFFFFFFFFFC07FFFFFF0001FFFFF
310
F8000FFFFFFFF8000FF8000FFFFFFFF8000FFF0003FFFFFFFFF80000000FFFFF
310
F000F0000000FFFFFFFFC000FF8003000FF8001FFF80007FE0000000FFFFFFFF
310
0000000FFFFFFFF8000001FFFE0000007FFFFFF0001FFFFFF8000FFFFFFFF800
310
0FF8000FFFFFFFF8000FFF0003FFFFFFFFF8000000FFFFFFF000F000000FFFFF
310
FFFFC000FFC002000FF8000FFF80007FE000001FFFFFFFFE000001FFFFFFFFF8
310
000001FFFE0000007FFFFFF0001FFFFFF8000FFFFFFFF8000FF8000FFFFFFFF8
310
000FFF0003FFFFFFFFF000001FFFFFFFF000E00000FFFFFFFFFFC000FFC00200
310
0FFC000FFF80007FE00001FFFFFFFFFE00001FFFFFFFFFF8000001FFFE000000
310
7FFFFFF0001FFFFFFC000FFFFFFFF8001FFC000FFFFFFFF8001FFF0003FFFFFF
310
FFF00001FFFFFFFFF000E00007FFFFFFFFFF8000FFC000001FFC000FFF80007F
310
C0000FFFFFFFFFFE0000FFFFFFFFFFF8000001FFFE0000007FFFFFF0001FFFFF
310
FC0007FFFFFFF0001FFC0007FFFFFFF0001FFF0003FFFFFFFFF00007FFFFFFFF
310
F000E0001FFFFFFFFFFF8000FFC000001FFC000FFF80007FC0003FFFFFFFFFFE
310
0001FFFFFFFFFFF8000001FFFE0000007FFFFFF0001FFFFFFC0007FFFFFFF000
310
1FFC0007FFFFFFF0001FFF0003FFFFFFFFF0001FFFFFFFFFF000E0003FFFFF00
310
03FF8001FFE000001FFC0007FF80007FC0007FFFFF0007FC0003FFFFF0003FF8
310
000001FFFE0000007FFFFFF0001FFFFFFC0003FFFFFFE0001FFC0003FFFFFFE0
310
001FFF0003FFFFFFFFF0003FFFFFFFFFF000E0003FFFFF0001FF8001FFE00000
310
1FFE0007FF80007FC0007FFFFE0003FC0007FFFFE0003FF8000001FFFE000000
310
7FFFFFF0001FFFFFFE0003FFFFFFE0003FFE0003FFFFFFE0003FFF0003FFFFFF
310
FFF0003FFFFF8001F000E0003FFFFF0001FF0001FFE000001FFE0007FF80007F
310
C0007FFFFE0003FC0007FFFFE0003FF8000001FFFE0000007FFFFFF0001FFFFF
310
FE0001FFFFFFC0003FFE0001FFFFFFC0003FFF0003FFFFFFFFF0003FFFFF0001
310
F000E0003FFFFF0003FF0001FFE000003FFE0007FF80007FC0007FFFFE0003FC
310
0007FFFFE0003FF8000001FFFE0000007FFFFFF0001FFFFFFF0001FFFFFFC000
310
7FFF0001FFFFFFC0007FFF0003FFFFFFFFF0003FFFFF0001F000E0003FFFFE00
310
03FF0003FFF000003FFE0003FF80007FC0007FFFFC0003FE0007FFFFE0003FF8
310
000001FFFE0000007FFFFFF0001FFFFFFF0000FFFFFF80007FFF0000FFFFFF80
310
007FFF0003FFFFFFFFF0003FFFFF0001F000E0003FFFFE0003FF0003FFF00000
310
3FFF0003FF80007FC0007FFFFC0007FE0007FFFFC0003FF8000001FFFE000000
310
7FFFFFF0001FFFFFFF80007FFFFF0000FFFF80007FFFFF0000FFFF0003FFFFFF
310
FFF0003FFFFF0003F000E0003FFFFC0003FE0003FFF000003FFF0003FF80007F
310
E0003FFFF80007FE0003FFFFC0007FF8000001FFFE0000007FFFFFF0001FFFFF
310
FF80003FFFFE0000FFFF80003FFFFE0000FFFF0003FFFFFFFFF0001FFFFE0003
310
F000F0001FFFF80003FE0003FFF000007FFF0001FF80007FE0003FFFF00007FE
310
0001FFFF80007FF8000001FFFE0000007FFFFFF0001FFFFFFFC0000FFFF80001
310
FFFFC0000FFFF80001FFFF0003FFFFFFFFF0001FFFFC0003F000F0000FFFF000
310
07FE0007FFF800007FFF0001FF80007FE0001FFFE00007FF0000FFFE00007FF8
310
000001FFFE0000007FFFFFF0001FFFFFFFC00003FFE00001FFFFC00003FFE000
310
01FFFF0003FFFFFFFFF8000FFFF80003F000F00003FFC00007FC0007FFF80000
310
7FFF8001FF80007FF00007FF80000FFF00007FF80000FFF8000001FFFE000000
310
7F80000000000001FFE000003E000003FFFFE000003E000003FFFF0003FFFFFF
310
FFF80003FFE00007F000F800000000000FFC0007FFF800007FFF8001FF80007F
310
F000000000000FFF000000000000FFF8000001FFFE0000007F80000000000001
310
FFF0000000000007FFFFF0000000000007FFFF0003FFFFFFFFFC00007E000007
310
F000F800000000000FFC0007FFF80000FFFF8000FF80007FF800000000001FFF
310
800000000001FFF8000001FFFE0000007F80000000000001FFF800000000000F
310
FFFFF800000000000FFFFF0003FFFFFFFFFC00000000000FF000FC0000000000
310
1FFC0007FFFC0000FFFF8000FF80007FF800000000003FFFC00000000001FFF8
310
000001FFFE0000007F80000000000001FFF800000000000FFFFFF80000000000
310
0FFFFF0003FFFFFFFFFE00000000001FF000FE00000000003FF8000FFFFC0000
310
FFFF8000FF80007FFC00000000003FFFC00000000003FFF8000001FFFE000000
310
7F80000000000001FFFC00000000001FFFFFFC00000000001FFFFF0003FFFFFF
310
FFFF00000000001FF000FF00000000003FF8000FFFFC0000FFFFC000FF80007F
310
FE00000000007FFFE00000000007FFF8000001FFFE0000007F80000000000001
310
FFFE00000000003FFFFFFE00000000003FFFFF0003FFFFFFFFFF80000000003F
310
F000FF80000000007FF8000FFFFC0001FFFFC0007F80007FFF0000000000FFFF
310
F0000000000FFFF800000000000000007F80000000000001FFFF8000000000FF
310
FFFFFF8000000000FFFFFF0003FFFFFFFFFFC0000000007FF000FFC000000000
310
FFF8000FFFFE0001FFFFC0007F80007FFF8000000001FFFFF8000000001FFFF8
310
00000000000000007F80000000000001FFFFC000000001FFFFFFFFC000000001
310
FFFFFF0003FFFFFFFFFFE000000000FFF000FFE000000003FFF0001FFFFE0001
310
FFFFC0007F80007FFFC000000007FFFFFE000000003FFFF80000000000000000
310
7F80000000000001FFFFE000000003FFFFFFFFE000000003FFFFFF0003FFFFFF
310
FFFFF000000003FFF000FFF80000000FFFF0001FFFFE0001FFFFE0007F80007F
310
FFF00000000FFFFFFF00000000FFFFF800000000000000007F80000000000001
310
FFFFF80000000FFFFFFFFFF80000000FFFFFFF0003FFFFFFFFFFFC0000000FFF
310
F000FFFE0000003FFFF0001FFFFE0003FFFFE0003F80007FFFFC0000003FFFFF
310
FFC0000003FFFFF800000000000000007F80000000000001FFFFFE0000003FFF
310
FFFFFFFE0000003FFFFFFF0003FFFFFFFFFFFF0000003FFFF000FFFF800000FF
310
FFF0001FFFFF0003FFFFE0003F80007FFFFF000001FFFFFFFFF800001FFFFFF8
310
00000000000000007F80000000000001FFFFFFC00001FFFFFFFFFFFFC00001FF
310
FFFFFF0003FFFFFFFFFFFFC00000FFFFF000FFFFF8000FFFFFFFFFFFFFFFFFFF
310
FFFFFFFFFFFFFFFFFFFFF0001FFFFFFFFFFF0000FFFFFFF80000000000000000
310
7FFFFFFFFFFFFFFFFFFFFFFC001FFFFFFFFFFFFFFC001FFFFFFFFFFFFFFFFFFF
310
FFFFFFFC001FFFFFF000FFFFFFFFFFFFFFFFFFFFFFFFFFFFFFFFFFFFFFFFFFFF
310
FFFFFFFFFFFFFFFFFFFFFFFFFFFFFFFFFFFFFFFFFFFFFFFFFFFFFFFFFFFFFFFF
310
FFFFFFFFFFFFFFFFFFFFFFFFFFFFFFFFFFFFFFFFFFFFFFFFFFFFFFFFFFFFFFFF
310
F000FFFFFFFFFFFFFFFFFFFFFFFFFFFFFFFFFFFFFFFFFFFFFFFFFFFFFFFFFFFF
310
FFFFFFFFFFFFFFFFFFFFFFFFFFFFFFFFFFFFFFFFFFFFFFFFFFFFFFFFFFFFFFFF
310
FFFFFFFFFFFFFFFFFFFFFFFFFFFFFFFFFFFFFFFFFFFFFFFFF000FFFFFFFFFFFF
310
FFFFFFFFFFFFFFFFFFFFFFFFFFFFFFFFFFFFFFFFFFFFFFFFFFFFFFFFFFFFFFFF
310
FFFFFFFFFFFFFFFFFFFFFFFFFFFFFFFFFFFFFFFFFFFFFFFFFFFFFFFFFFFFFFFF
310
FFFFFFFFFFFFFFFFFFFFFFFFFFFFFFFFF000FFFFFFFFFFFFFFFFFFFFFFFFFFFF
310
FFFFFFFFFFFFFFFFFFFFFFFFFFFFFFFFFFFFFFFFFFFFFFFFFFFFFFFFFFFFFFFF
310
FFFFFFFFFFFFFFFFFFFFFFFFFFFFFFFFFFFFFFFFFFFFFFFFFFFFFFFFFFFFFFFF
310
FFFFFFFFFFFFFFFFF000FFFFFFFFFFFFFFFFFFFFFFFFFFFFFFFFFFFFFFFFFFFF
310
FFFFFFFFFFFFFFFFFFFFFFFFFFFFFFFFFFFFFFFFFFFFFFFFFFFFFFFFFFFFFFFF
310
FFFFFFFFFFFFFFFFFFFFFFFFFFFFFFFFFFFFFFFFFFFFFFFFFFFFFFFFFFFFFFFF
310
F000FFFFFFFFFFFFFFFFFFFFFFFFFFFFFFFFFFFFFFFFFFFFFFFFFFFFFFFFFFFF
310
FFFFFFFFFFFFFFFFFFFFFFFFFFFFFFFFFFFFFFFFFFFFFFFFFFFFFFFFFFFFFFFF
310
FFFFFFFFFFFFFFFFFFFFFFFFFFFFFFFFFFFFFFFFFFFFFFFFF000FFFFFFFFFFFF
310
FFFFFFFFFFFFFFFFFFFFFFFFFFFFFFFFFFFFFFFFFFFFFFFFFFFFFFFFFFFFFFFF
310
FFFFFFFFFFFFFFFFFFFFFFFFFFFFFFFFFFFFFFFFFFFFFFFFFFFFFFFFFFFFFFFF
310
FFFFFFFFFFFFFFFFFFFFFFFFFFFFFFFFF000FFFFFFFFFFFFFFFFFFFFFFFFFFFF
310
FFFFFFFFFFFFFFFFFFFFFFFFFFFFFFFFFFFFFFFFFFFFFFFFFFFFFFFFFFFFFFFF
310
FFFFFFFFFFFFFFFFFFFFFFFFFFFFFFFFFFFFFFFFFFFFFFFFFFFFFFFFFFFFFFFF
310
FFFFFFFFFFFFFFFFF000FFFFFFFFFFFFFFFFFFFFFFFFFFFFFFFFFFFFFFFFFFFF
310
FFFFFFFFFFFFFFFFFFFFFFFFFFFFFFFFFFFFFFFFFFFFFFFFFFFFFFFFFFFFFFFF
310
FFFFFFFFFFFFFFFFFFFFFFFFFFFFFFFFFFFFFFFFFFFFFFFFFFFFFFFFFFFFFFFF
310
F000FFFFFFFFFFFFFFFFFFFFFFFFFFFFFFFFFFFFFFFFFFFFFFFFFFFFFFFFFFFF
310
FFFFFFFFFFFFFFFFFFFFFFFFFFFFFFFFFFFFFFFFFFFFFFFFFFFFFFFFFFFFFFFF
310
FFFFFFFFFFFFFFFFFFFFFFFFFFFFFFFFFFFFFFFFFFFFFFFFF000FFFFFFFFFFFF
310
FFFFFFFFFFFFFFFFFFFFFFFFFFFFFFFFFFFFFFFFFFFFFFFFFFFFFFFFFFFFFFFF
310
FFFFFFFFFFFFFFFFFFFFFFFFFFFFFFFFFFFFFFFFFFFFFFFFFFFFFFFFFFFFFFFF
310
FFFFFFFFFFFFFFFFFFFFFFFFFFFFFFFFF000FFFFFFFFFFFFFFFFFFFFFFFFFFFF
310
FFFFFFFFFFFFFFFFFFFFFFFFFFFFFFFFFFFFFFFFFFFFFFFFFFFFFFFFFFFFFFFF
310
FFFFFFFFFFFFFFFFFFFFFFFFFFFFFFFFFFFFFFFFFFFFFFFFFFFFFFFFFFFFFFFF
310
FFFFFFFFFFFFFFFFF000FFFFFFFFFFFFFFFFFFFFFFFFFFFFFFFFFFFFFFFFFFFF
310
FFFFFFFFFFFFFFFFFFFFFFFFFFFFFFFFFFFFFFFFFFFFFFFFFFFFFFFFFFFFFFFF
310
FFFFFFFFFFFFFFFFFFFFFFFFFFFFFFFFFFFFFFFFFFFFFFFFFFFFFFFFFFFFFFFF
310
F000FFFFFFFFFFFFFFFFFFFFFFFFFFFFFFFFFFFFFFFFFFFFFFFFFFFFFFFFFFFF
310
FFFFFFFFFFFFFFFFFFFFFFFFFFFFFFFFFFFFFFFFFFFFFFFFFFFFFFFFFFFFFFFF
310
FFFFFFFFFFFFFFFFFFFFFFFFFFFFFFFFFFFFFFFFFFFFFFFFF000FFFFFFFFFFFF
310
FFFFFFFFFFFFFFFFFFFFFFFFFFFFFFFFFFFFFFFFFFFFFFFFFFFFFFFFFFFFFFFF
310
FFFFFFFFFFFFFFFFFFFFFFFFFFFFFFFFFFFFFFFFFFFFFFFFFFFFFFFFFFFFFFFF
310
FFFFFFFFFFFFFFFFFFFFFFFFFFFFFFFFF000FFFFFFFFFFFFFFFFFFFFFFFFFFFF
310
FFFFFFFFFFFFFFFFFFFFFFFFFFFFFFFFFFFFFFFFFFFFFFFFFFFFFFFFFFFFFFFF
310
FFFFFFFFFFFFFFFFFFFFFFFFFFFFFFFFFFFFFFFFFFFFFFFFFFFFFFFFFFFFFFFF
310
FFFFFFFFFFFFFFFFF000FFFFFFFFFFFFFFFFFFFFFFFFFFFFFFFFFFFFFFFFFFFF
310
FFFFFFFFFFFFFFFFFFFFFFFFFFFFFFFFFFFFFFFFFFFFFFFFFFFFFFFFFFFFFFFF
310
FFFFFFFFFFFFFFFFFFFFFFFFFFFFFFFFFFFFFFFFFFFFFFFFFFFFFFFFFFFFFFFF
310
F000FFFFFFFFFFFFFFFFFFFFFFFFFFFFFFFFFFFFFFFFFFFFFFFFFFFFFFFFFFFF
310
FFFFFFFFFFFFFFFFFFFFFFFFFFFFFFFFFFFFFFFFFFFFFFFFFFFFFFFFFFFFFFFF
310
FFFFFFFFFFFFFFFFFFFFFFFFFFFFFFFFFFFFFFFFFFFFFFFFF000FFFFFFFFFFFF
310
FFFFFFFFFFFFFFFFFFFFFFFFFFFFFFFFFFFFFFFFFFFFFFFFFFFFFFFFFFFFFFFF
310
FFFFFFFFFFFFFFFFFFFFFFFFFFFFFFFFFFFFFFFFFFFFFFFFFFFFFFFFFFFFFFFF
310
FFFFFFFFFFFFFFFFFFFFFFFFFFFFFFFFF000FFFFFFFFFFFFFFFFFFFFFFFFFFFF
310
FFFFFFFFFFFFFFFFFFFFFFFFFFFFFFFFFFFFFFFFFFFFFFFFFFFFFFFFFFFFFFFF
310
FFFFFFFFFFFFFFFFFFFFFFFFFFFFFFFFFFFFFFFFFFFFFFFFFFFFFFFFFFFFFFFF
310
FFFFFFFFFFFFFFFFF000FFFFFFFFFFFFFFFFFFFFFFFFFFFFFFFFFFFFFFFFFFFF
310
FFFFFFFFFFFFFFFFFFFFFFFFFFFFFFFFFFFFFFFFFFFFFFFFFFFFFFFFFFFFFFFF
310
FFFFFFFFFFFFFFFFFFFFFFFFFFFFFFFFFFFFFFFFFFFFFFFFFFFFFFFFFFFFFFFF
310
F000FFFFFFFFFFFFFFFFFFFFFFFFFFFFFFFFFFFFFFFFFFFFFFFFFFFFFFFFFFFF
310
FFFFFFFFFFFFFFFFFFFFFFFFFFFFFFFFFFFFFFFFFFFFFFFFFFFFFFFFFFFFFFFF
310
FFFFFFFFFFFFFFFFFFFFFFFFFFFFFFFFFFFFFFFFFFFFFFFFF000FFFFFFFFFFFF
310
FFFFFFFFFFFFFFFFFFFFFFFFFFFFFFFFFFFFFFFFFFFFFFFFFFFFFFFFFFFFFFFF
310
FFFFFFFFFFFFFFFFFFFFFFFFFFFFFFFFFFFFFFFFFFFFFFFFFFFFFFFFFFFFFFFF
310
FFFFFFFFFFFFFFFFFFFFFFFFFFFFFFFFF0000000000000000000000000000000
310
0000000000000000000000000000000000000000000000000000000000000000
310
0000000000000000000000000000000000000000000000000000000000000000
310
0000000000000000000000000000000000000000000000000000000000000000
310
0000000000000000000000000000000000000000000000000000000000000000
310
0000000000000000000000000000000000000000000000000000000000000000
310
0000000000000000000000000000000000000000000000000000000000000000
310
0000000000000000000000000000000000000000000000000000000000000000
310
0000000000000000000000000000000000000000000000000000000000000000
310
0000000000000000000000000000000000000000000000000000000000000000
310
0000000000000000000000000000000000000000000000000000000000000000
310
0000000000000000000000000000000000000000000000000000000000000000
310
0000000000000000000000000000000000000000000000000000000000000000
310
0000000000000000000000000000000000000000000000000000000000000000
310
0000000000000000000000000000000000000000000000000000000000000000
310
0000000000000000000000000000000000000000000000000000000000000000
  1
OLE
  0
ENDSEC
  0
SECTION
  2
OBJECTS
  0
DICTIONARY
  5
C
330
0
100
AcDbDictionary
281
     1
  3
ACAD_GROUP
350
D
  3
ACAD_LAYOUT
350
1A
  3
ACAD_MLINESTYLE
350
17
  3
ACAD_PLOTSETTINGS
350
19
  3
ACAD_PLOTSTYLENAME
350
E
  0
DICTIONARY
  5
D
102
{ACAD_REACTORS
330
C
102
}
330
C
100
AcDbDictionary
281
     1
  0
DICTIONARY
  5
1A
102
{ACAD_REACTORS
330
C
102
}
330
C
100
AcDbDictionary
281
     1
  3
Layout1
350
1E
  3
Layout2
350
26
  3
Model
350
22
  0
DICTIONARY
  5
17
102
{ACAD_REACTORS
330
C
102
}
330
C
100
AcDbDictionary
281
     1
  3
Standard
350
18
  0
DICTIONARY
  5
19
102
{ACAD_REACTORS
330
C
102
}
330
C
100
AcDbDictionary
281
     1
  0
ACDBDICTIONARYWDFLT
  5
E
102
{ACAD_REACTORS
330
C
102
}
330
C
100
AcDbDictionary
281
     1
  3
Normal
350
F
100
AcDbDictionaryWithDefault
340
F
  0
LAYOUT
  5
1E
102
{ACAD_REACTORS
330
1A
102
}
330
1A
100
AcDbPlotSettings
  1

  2
none_device
  4

  6

 40
0.0
 41
0.0
 42
0.0
 43
0.0
 44
0.0
 45
0.0
 46
0.0
 47
0.0
 48
0.0
 49
0.0
140
0.0
141
0.0
142
1.0
143
1.0
 70
   688
 72
     0
 73
     0
 74
     5
  7

 75
    16
147
1.0
148
0.0
149
0.0
100
AcDbLayout
  1
Layout1
 70
     1
 71
     1
 10
0.0
 20
0.0
 11
420.0
 21
297.0
 12
0.0
 22
0.0
 32
0.0
 14
1.0000000000E+20
 24
1.0000000000E+20
 34
1.0000000000E+20
 15
-1.0000000000E+20
 25
-1.0000000000E+20
 35
-1.0000000000E+20
146
0.0
 13
0.0
 23
0.0
 33
0.0
 16
1.0
 26
0.0
 36
0.0
 17
0.0
 27
1.0
 37
0.0
 76
     0
330
1B
  0
LAYOUT
  5
26
102
{ACAD_REACTORS
330
1A
102
}
330
1A
100
AcDbPlotSettings
  1

  2
none_device
  4

  6

 40
0.0
 41
0.0
 42
0.0
 43
0.0
 44
0.0
 45
0.0
 46
0.0
 47
0.0
 48
0.0
 49
0.0
140
0.0
141
0.0
142
1.0
143
1.0
 70
   688
 72
     0
 73
     0
 74
     5
  7

 75
    16
147
1.0
148
0.0
149
0.0
100
AcDbLayout
  1
Layout2
 70
     1
 71
     2
 10
0.0
 20
0.0
 11
0.0
 21
0.0
 12
0.0
 22
0.0
 32
0.0
 14
0.0
 24
0.0
 34
0.0
 15
0.0
 25
0.0
 35
0.0
146
0.0
 13
0.0
 23
0.0
 33
0.0
 16
1.0
 26
0.0
 36
0.0
 17
0.0
 27
1.0
 37
0.0
 76
     0
330
23
  0
LAYOUT
  5
22
102
{ACAD_REACTORS
330
1A
102
}
330
1A
100
AcDbPlotSettings
  1

  2
none_device
  4

  6

 40
0.0
 41
0.0
 42
0.0
 43
0.0
 44
0.0
 45
0.0
 46
0.0
 47
0.0
 48
0.0
 49
0.0
140
0.0
141
0.0
142
1.0
143
1.0
 70
  1712
 72
     0
 73
     0
 74
     0
  7

 75
     0
147
1.0
148
0.0
149
0.0
100
AcDbLayout
  1
Model
 70
     1
 71
     0
 10
0.0
 20
0.0
 11
297.0
 21
210.0
 12
0.0
 22
0.0
 32
0.0
 14
0.0
 24
0.0
 34
0.0
 15
297.0
 25
210.0
 35
0.0
146
0.0
 13
0.0
 23
0.0
 33
0.0
 16
1.0
 26
0.0
 36
0.0
 17
0.0
 27
1.0
 37
0.0
 76
     0
330
1F
331
29
  0
MLINESTYLE
  5
18
102
{ACAD_REACTORS
330
17
102
}
330
17
100
AcDbMlineStyle
  2
Standard
 70
     0
  3

 62
   256
 51
90.0
 52
90.0
 71
     2
 49
0.5
 62
   256
  6
BYLAYER
 49
-0.5
 62
   256
  6
BYLAYER
  0
ACDBPLACEHOLDER
  5
F
102
{ACAD_REACTORS
330
E
102
}
330
E
  0
ENDSEC
  0
EOF
