  0
SECTION
  2
HEADER
  9
$ACADVER
  1
AC1015
  9
$ACADMAINTVER
 70
     6
  9
$DWGCODEPAGE
  3
ANSI_1252
  9
$INSBASE
 10
0.0
 20
0.0
 30
0.0
  9
$EXTMIN
 10
0.0
 20
0.0
 30
0.0
  9
$EXTMAX
 10
297.0
 20
210.0
 30
0.0
  9
$LIMMIN
 10
0.0
 20
0.0
  9
$LIMMAX
 10
297.0
 20
210.0
  9
$ORTHOMODE
 70
     0
  9
$REGENMODE
 70
     1
  9
$FILLMODE
 70
     1
  9
$QTEXTMODE
 70
     0
  9
$MIRRTEXT
 70
     1
  9
$LTSCALE
 40
1.0
  9
$ATTMODE
 70
     1
  9
$TEXTSIZE
 40
2.0
  9
$TRACEWID
 40
1.0
  9
$TEXTSTYLE
  7
Standard
  9
$CLAYER
  8
0
  9
$CELTYPE
  6
ByLayer
  9
$CECOLOR
 62
   256
  9
$CELTSCALE
 40
1.0
  9
$DISPSILH
 70
     0
  9
$DIMSCALE
 40
1.0
  9
$DIMASZ
 40
3.0
  9
$DIMEXO
 40
0.0
  9
$DIMDLI
 40
3.75
  9
$DIMRND
 40
0.0
  9
$DIMDLE
 40
0.0
  9
$DIMEXE
 40
1.0
  9
$DIMTP
 40
0.0
  9
$DIMTM
 40
0.0
  9
$DIMTXT
 40
2.0
  9
$DIMCEN
 40
2.5
  9
$DIMTSZ
 40
0.0
  9
$DIMTOL
 70
     0
  9
$DIMLIM
 70
     0
  9
$DIMTIH
 70
     1
  9
$DIMTOH
 70
     1
  9
$DIMSE1
 70
     0
  9
$DIMSE2
 70
     0
  9
$DIMTAD
 70
     1
  9
$DIMZIN
 70
     0
  9
$DIMBLK
  1

  9
$DIMASO
 70
     1
  9
$DIMSHO
 70
     1
  9
$DIMPOST
  1

  9
$DIMAPOST
  1

  9
$DIMALT
 70
     0
  9
$DIMALTD
 70
     3
  9
$DIMALTF
 40
0.0393700787
  9
$DIMLFAC
 40
1.0
  9
$DIMTOFL
 70
     1
  9
$DIMTVP
 40
0.0
  9
$DIMTIX
 70
     0
  9
$DIMSOXD
 70
     0
  9
$DIMSAH
 70
     0
  9
$DIMBLK1
  1

  9
$DIMBLK2
  1

  9
$DIMSTYLE
  2
ISO-25
  9
$DIMCLRD
 70
     0
  9
$DIMCLRE
 70
     0
  9
$DIMCLRT
 70
     0
  9
$DIMTFAC
 40
1.0
  9
$DIMGAP
 40
1.524
  9
$DIMJUST
 70
     0
  9
$DIMSD1
 70
     0
  9
$DIMSD2
 70
     0
  9
$DIMTOLJ
 70
     0
  9
$DIMTZIN
 70
     0
  9
$DIMALTZ
 70
     0
  9
$DIMALTTZ
 70
     0
  9
$DIMUPT
 70
     0
  9
$DIMDEC
 70
     2
  9
$DIMTDEC
 70
     3
  9
$DIMALTU
 70
     2
  9
$DIMALTTD
 70
     3
  9
$DIMTXSTY
  7
Standard
  9
$DIMAUNIT
 70
     0
  9
$DIMADEC
 70
     2
  9
$DIMALTRND
 40
0.0
  9
$DIMAZIN
 70
     0
  9
$DIMDSEP
 70
    44
  9
$DIMATFIT
 70
     3
  9
$DIMFRAC
 70
     0
  9
$DIMLDRBLK
  1

  9
$DIMLUNIT
 70
     2
  9
$DIMLWD
 70
    -2
  9
$DIMLWE
 70
    -2
  9
$DIMTMOVE
 70
     0
  9
$LUNITS
 70
     2
  9
$LUPREC
 70
     2
  9
$SKETCHINC
 40
1.0
  9
$FILLETRAD
 40
10.0
  9
$AUNITS
 70
     0
  9
$AUPREC
 70
     2
  9
$MENU
  1
.
  9
$ELEVATION
 40
0.0
  9
$PELEVATION
 40
0.0
  9
$THICKNESS
 40
0.0
  9
$LIMCHECK
 70
     0
  9
$CHAMFERA
 40
10.0
  9
$CHAMFERB
 40
10.0
  9
$CHAMFERC
 40
20.0
  9
$CHAMFERD
 40
0.0
  9
$SKPOLY
 70
     0
  9
$TDCREATE
 40
2456080.65992272
  9
$TDUCREATE
 40
2456080.576589386
  9
$TDUPDATE
 40
2456080.659924167
  9
$TDUUPDATE
 40
2456080.576590833
  9
$TDINDWG
 40
0.0000000116
  9
$TDUSRTIMER
 40
0.0000000116
  9
$USRTIMER
 70
     1
  9
$ANGBASE
 50
0.0
  9
$ANGDIR
 70
     0
  9
$PDMODE
 70
     0
  9
$PDSIZE
 40
-1.0
  9
$PLINEWID
 40
0.0
  9
$SPLFRAME
 70
     0
  9
$SPLINETYPE
 70
     6
  9
$SPLINESEGS
 70
     8
  9
$HANDSEED
  5
222
  9
$SURFTAB1
 70
     6
  9
$SURFTAB2
 70
     6
  9
$SURFTYPE
 70
     6
  9
$SURFU
 70
     6
  9
$SURFV
 70
     6
  9
$UCSBASE
  2

  9
$UCSNAME
  2

  9
$UCSORG
 10
0.0
 20
0.0
 30
0.0
  9
$UCSXDIR
 10
1.0
 20
0.0
 30
0.0
  9
$UCSYDIR
 10
0.0
 20
1.0
 30
0.0
  9
$UCSORTHOREF
  2

  9
$UCSORTHOVIEW
 70
     0
  9
$UCSORGTOP
 10
0.0
 20
0.0
 30
0.0
  9
$UCSORGBOTTOM
 10
0.0
 20
0.0
 30
0.0
  9
$UCSORGLEFT
 10
0.0
 20
0.0
 30
0.0
  9
$UCSORGRIGHT
 10
0.0
 20
0.0
 30
0.0
  9
$UCSORGFRONT
 10
0.0
 20
0.0
 30
0.0
  9
$UCSORGBACK
 10
0.0
 20
0.0
 30
0.0
  9
$PUCSBASE
  2

  9
$PUCSNAME
  2

  9
$PUCSORG
 10
0.0
 20
0.0
 30
0.0
  9
$PUCSXDIR
 10
1.0
 20
0.0
 30
0.0
  9
$PUCSYDIR
 10
0.0
 20
1.0
 30
0.0
  9
$PUCSORTHOREF
  2

  9
$PUCSORTHOVIEW
 70
     0
  9
$PUCSORGTOP
 10
0.0
 20
0.0
 30
0.0
  9
$PUCSORGBOTTOM
 10
0.0
 20
0.0
 30
0.0
  9
$PUCSORGLEFT
 10
0.0
 20
0.0
 30
0.0
  9
$PUCSORGRIGHT
 10
0.0
 20
0.0
 30
0.0
  9
$PUCSORGFRONT
 10
0.0
 20
0.0
 30
0.0
  9
$PUCSORGBACK
 10
0.0
 20
0.0
 30
0.0
  9
$USERI1
 70
     0
  9
$USERI2
 70
     0
  9
$USERI3
 70
     0
  9
$USERI4
 70
     0
  9
$USERI5
 70
     0
  9
$USERR1
 40
0.0
  9
$USERR2
 40
0.0
  9
$USERR3
 40
0.0
  9
$USERR4
 40
0.0
  9
$USERR5
 40
0.0
  9
$WORLDVIEW
 70
     1
  9
$SHADEDGE
 70
     3
  9
$SHADEDIF
 70
    70
  9
$TILEMODE
 70
     1
  9
$MAXACTVP
 70
    64
  9
$PINSBASE
 10
0.0
 20
0.0
 30
0.0
  9
$PLIMCHECK
 70
     0
  9
$PEXTMIN
 10
1.0000000000E+20
 20
1.0000000000E+20
 30
1.0000000000E+20
  9
$PEXTMAX
 10
-1.0000000000E+20
 20
-1.0000000000E+20
 30
-1.0000000000E+20
  9
$PLIMMIN
 10
0.0
 20
0.0
  9
$PLIMMAX
 10
420.0
 20
297.0
  9
$UNITMODE
 70
     0
  9
$VISRETAIN
 70
     1
  9
$PLINEGEN
 70
     0
  9
$PSLTSCALE
 70
     1
  9
$TREEDEPTH
 70
  3020
  9
$CMLSTYLE
  2
Standard
  9
$CMLJUST
 70
     0
  9
$CMLSCALE
 40
20.0
  9
$PROXYGRAPHICS
 70
     1
  9
$MEASUREMENT
 70
     1
  9
$CELWEIGHT
370
    -1
  9
$ENDCAPS
280
     0
  9
$JOINSTYLE
280
     0
  9
$LWDISPLAY
290
     1
  9
$INSUNITS
 70
     4
  9
$HYPERLINKBASE
  1

  9
$STYLESHEET
  1

  9
$XEDIT
290
     1
  9
$CEPSNTYPE
380
     0
  9
$PSTYLEMODE
290
     1
  9
$FINGERPRINTGUID
  2
{E5A6AB62-9554-46A3-B2C0-FAE239DAF2FA}
  9
$VERSIONGUID
  2
{FAEB1C32-E019-11D5-929B-00C0DF256EC4}
  9
$EXTNAMES
290
     1
  9
$PSVPSCALE
 40
0.0
  9
$OLESTARTUP
290
     0
  0
ENDSEC
  0
SECTION
  2
CLASSES
  0
CLASS
  1
ACDBDICTIONARYWDFLT
  2
AcDbDictionaryWithDefault
  3
ObjectDBX Classes
 90
        0
280
     0
281
     0
  0
CLASS
  1
VISUALSTYLE
  2
AcDbVisualStyle
  3
ObjectDBX Classes
 90
     4095
280
     0
281
     0
  0
CLASS
  1
MATERIAL
  2
AcDbMaterial
  3
ObjectDBX Classes
 90
     1153
280
     0
281
     0
  0
CLASS
  1
ACDBPLACEHOLDER
  2
AcDbPlaceHolder
  3
ObjectDBX Classes
 90
        0
280
     0
281
     0
  0
CLASS
  1
LAYOUT
  2
AcDbLayout
  3
ObjectDBX Classes
 90
        0
280
     0
281
     0
  0
ENDSEC
  0
SECTION
  2
TABLES
  0
TABLE
  2
VPORT
  5
8
330
0
100
AcDbSymbolTable
 70
     1
  0
VPORT
  5
29
330
8
100
AcDbSymbolTableRecord
100
AcDbViewportTableRecord
  2
*Active
 70
     0
 10
0.0
 20
0.0
 11
1.0
 21
1.0
 12
148.5
 22
105.0
 13
0.0
 23
0.0
 14
10.0
 24
10.0
 15
10.0
 25
10.0
 16
0.0
 26
0.0
 36
1.0
 17
0.0
 27
0.0
 37
0.0
 40
210.0
 41
1.4142857143
 42
50.0
 43
0.0
 44
0.0
 50
0.0
 51
0.0
 71
     0
 72
  2000
 73
     1
 74
     3
 75
     0
 76
     0
 77
     0
 78
     0
281
     0
 65
     1
110
0.0
120
0.0
130
0.0
111
1.0
121
0.0
131
0.0
112
0.0
122
1.0
132
0.0
 79
     0
146
0.0
  0
ENDTAB
  0
TABLE
  2
LTYPE
  5
5
330
0
100
AcDbSymbolTable
 70
     6
  0
LTYPE
  5
14
330
5
100
AcDbSymbolTableRecord
100
AcDbLinetypeTableRecord
  2
ByBlock
 70
     0
  3

 72
    65
 73
     0
 40
0.0
  0
LTYPE
  5
15
330
5
100
AcDbSymbolTableRecord
100
AcDbLinetypeTableRecord
  2
ByLayer
 70
     0
  3

 72
    65
 73
     0
 40
0.0
  0
LTYPE
  5
16
330
5
100
AcDbSymbolTableRecord
100
AcDbLinetypeTableRecord
  2
Continuous
 70
     0
  3
Solid line
 72
    65
 73
     0
 40
0.0
  0
LTYPE
  5
3F
330
5
100
AcDbSymbolTableRecord
100
AcDbLinetypeTableRecord
  2
HIDDEN
 70
     0
  3
Hidden __ __ __ __ __ __ __ __ __ __ __ __ __ __
 72
    65
 73
     2
 40
1.905
 49
1.27
 74
     0
 49
-0.635
 74
     0
  0
LTYPE
  5
40
330
5
100
AcDbSymbolTableRecord
100
AcDbLinetypeTableRecord
  2
PHANTOM
 70
     0
  3
Phantom ______  __  __  ______  __  __  ______
 72
    65
 73
     6
 40
12.7
 49
6.35
 74
     0
 49
-1.27
 74
     0
 49
1.27
 74
     0
 49
-1.27
 74
     0
 49
1.27
 74
     0
 49
-1.27
 74
     0
  0
LTYPE
  5
41
330
5
100
AcDbSymbolTableRecord
100
AcDbLinetypeTableRecord
  2
CENTER
 70
     0
  3
Center ____ _ ____ _ ____ _ ____ _ ____ _ ____
 72
    65
 73
     4
 40
10.16
 49
6.35
 74
     0
 49
-1.27
 74
     0
 49
1.27
 74
     0
 49
-1.27
 74
     0
  0
LTYPE
  5
42
330
5
100
AcDbSymbolTableRecord
100
AcDbLinetypeTableRecord
  2
CENTERX2
 70
     0
  3
Center (2x) ________  __  ________  __  _____
 72
    65
 73
     4
 40
20.32
 49
12.7
 74
     0
 49
-2.54
 74
     0
 49
2.54
 74
     0
 49
-2.54
 74
     0
  0
LTYPE
  5
43
330
5
100
AcDbSymbolTableRecord
100
AcDbLinetypeTableRecord
  2
DOT2
 70
     0
  3
Dot (.5x) ........................................
 72
    65
 73
     2
 40
0.635
 49
0.0
 74
     0
 49
-0.635
 74
     0
  0
ENDTAB
  0
TABLE
  2
LAYER
  5
2
330
0
100
AcDbSymbolTable
 70
     5
  0
LAYER
  5
10
330
2
100
AcDbSymbolTableRecord
100
AcDbLayerTableRecord
  2
0
 70
     0
 62
     7
  6
Continuous
370
    -3
390
F
  0
LAYER
  5
44
330
2
100
AcDbSymbolTableRecord
100
AcDbLayerTableRecord
  2
FORMAT
 70
     0
 62
     7
  6
Continuous
370
    -3
390
F
  0
LAYER
  5
45
330
2
100
AcDbSymbolTableRecord
100
AcDbLayerTableRecord
  2
VERMASSUNG
 70
     0
 62
     7
  6
Continuous
370
    -3
390
F
  0
LAYER
  5
46
330
2
100
AcDbSymbolTableRecord
100
AcDbLayerTableRecord
  2
KOPF_DÜNN
 70
     0
 62
     7
  6
Continuous
370
    -3
390
F
  0
LAYER
  5
47
330
2
100
AcDbSymbolTableRecord
100
AcDbLayerTableRecord
  2
KOPF_DICK
 70
     0
 62
     7
  6
Continuous
370
    15
390
F
  0
ENDTAB
  0
TABLE
  2
STYLE
  5
3
330
0
100
AcDbSymbolTable
 70
     2
  0
STYLE
  5
11
330
3
100
AcDbSymbolTableRecord
100
AcDbTextStyleTableRecord
  2
Standard
 70
     0
 40
0.0
 41
1.0
 50
0.0
 71
     0
 42
2.0
  3
txt
  4

  0
STYLE
  5
48
330
3
100
AcDbSymbolTableRecord
100
AcDbTextStyleTableRecord
  2
SLDTEXTSTYLE0
 70
     0
 40
0.0
 41
0.7
 50
0.0
 71
     0
 42
0.2
  3
TXT
  4

  0
ENDTAB
  0
TABLE
  2
VIEW
  5
6
330
0
100
AcDbSymbolTable
 70
     0
  0
ENDTAB
  0
TABLE
  2
UCS
  5
7
330
0
100
AcDbSymbolTable
 70
     0
  0
ENDTAB
  0
TABLE
  2
APPID
  5
9
330
0
100
AcDbSymbolTable
 70
     1
  0
APPID
  5
12
330
9
100
AcDbSymbolTableRecord
100
AcDbRegAppTableRecord
  2
ACAD
 70
     0
  0
ENDTAB
  0
TABLE
  2
DIMSTYLE
  5
A
330
0
100
AcDbSymbolTable
 70
     5
100
AcDbDimStyleTable
  0
DIMSTYLE
105
27
330
A
100
AcDbSymbolTableRecord
100
AcDbDimStyleTableRecord
  2
ISO-25
 70
     0
 41
2.5
 42
0.625
 43
3.75
 44
1.25
 73
     0
 74
     0
 77
     1
 78
     8
140
2.5
141
2.5
143
0.0393700787
147
0.625
171
     3
172
     1
178
     0
271
     2
272
     2
274
     3
278
    44
283
     0
284
     8
340
11
  0
DIMSTYLE
105
1A0
102
{ACAD_REACTORS
330
19F
330
1AA
330
1B4
330
1C7
330
1D3
102
}
330
A
100
AcDbSymbolTableRecord
100
AcDbDimStyleTableRecord
  2
SLDDIMSTYLE0
 70
     0
 41
3.0
 44
0.0
 45
0.000000001
 73
     0
 74
     0
 77
     1
 78
    12
 79
     3
140
2.0
147
0.5
173
     1
178
     0
271
     2
272
     3
276
     2
284
    12
340
48
  0
DIMSTYLE
105
1BF
102
{ACAD_REACTORS
330
1BE
102
}
330
A
100
AcDbSymbolTableRecord
100
AcDbDimStyleTableRecord
  2
SLDDIMSTYLE1
 70
     0
 41
3.0
 44
0.0
 73
     0
 74
     0
 77
     1
 78
    12
 79
     3
140
2.0
147
0.5
173
     1
178
     0
179
     1
272
     3
276
     2
284
    12
340
48
  0
DIMSTYLE
105
1FB
102
{ACAD_REACTORS
330
1FA
102
}
330
A
100
AcDbSymbolTableRecord
100
AcDbDimStyleTableRecord
  2
SLDDIMSTYLE2
 70
     0
 41
3.0
 44
0.0
 45
0.000000001
 73
     0
 74
     0
 77
     1
 78
    12
 79
     3
140
2.0
141
0.0
147
0.5
172
     1
173
     1
178
     0
271
     2
272
     3
276
     2
284
    12
340
48
341
1FC
343
1FC
  0
DIMSTYLE
105
209
102
{ACAD_REACTORS
330
208
102
}
330
A
100
AcDbSymbolTableRecord
100
AcDbDimStyleTableRecord
  2
SLDDIMSTYLE3
 70
     0
 41
3.0
 44
0.0
 73
     0
 74
     0
 77
     1
 78
    12
 79
     3
140
2.0
147
0.5
173
     1
178
     0
179
     2
272
     3
276
     2
284
    12
340
48
  0
ENDTAB
  0
TABLE
  2
BLOCK_RECORD
  5
1
330
0
100
AcDbSymbolTable
 70
    11
  0
BLOCK_RECORD
  5
1F
330
1
100
AcDbSymbolTableRecord
100
AcDbBlockTableRecord
  2
*Model_Space
340
22
  0
BLOCK_RECORD
  5
1B
330
1
100
AcDbSymbolTableRecord
100
AcDbBlockTableRecord
  2
*Paper_Space
340
1E
  0
BLOCK_RECORD
  5
23
330
1
100
AcDbSymbolTableRecord
100
AcDbBlockTableRecord
  2
*Paper_Space0
340
26
  0
BLOCK_RECORD
  5
1A1
330
1
100
AcDbSymbolTableRecord
100
AcDbBlockTableRecord
  2
_D
340
0
  0
BLOCK_RECORD
  5
1AB
330
1
100
AcDbSymbolTableRecord
100
AcDbBlockTableRecord
  2
_D_1
340
0
  0
BLOCK_RECORD
  5
1B5
330
1
100
AcDbSymbolTableRecord
100
AcDbBlockTableRecord
  2
_D_2
340
0
  0
BLOCK_RECORD
  5
1C0
330
1
100
AcDbSymbolTableRecord
100
AcDbBlockTableRecord
  2
_D_3
340
0
  0
BLOCK_RECORD
  5
1C8
330
1
100
AcDbSymbolTableRecord
100
AcDbBlockTableRecord
  2
_D_4
340
0
  0
BLOCK_RECORD
  5
1D4
330
1
100
AcDbSymbolTableRecord
100
AcDbBlockTableRecord
  2
_D_5
340
0
  0
BLOCK_RECORD
  5
1FC
330
1
100
AcDbSymbolTableRecord
100
AcDbBlockTableRecord
  2
_NONE
340
0
  0
BLOCK_RECORD
  5
1FF
330
1
100
AcDbSymbolTableRecord
100
AcDbBlockTableRecord
  2
_D_6
340
0
  0
BLOCK_RECORD
  5
20A
330
1
100
AcDbSymbolTableRecord
100
AcDbBlockTableRecord
  2
_D_7
340
0
  0
BLOCK_RECORD
  5
215
330
1
100
AcDbSymbolTableRecord
100
AcDbBlockTableRecord
  2
SW_CENTERMARKSYMBOL_0
340
0
102
{BLKREFS
331
220
102
}
  0
ENDTAB
  0
ENDSEC
  0
SECTION
  2
BLOCKS
  0
BLOCK
  5
20
330
1F
100
AcDbEntity
  8
0
100
AcDbBlockBegin
  2
*Model_Space
 70
     0
 10
0.0
 20
0.0
 30
0.0
  3
*Model_Space
  1

  0
ENDBLK
  5
21
330
1F
100
AcDbEntity
  8
0
100
AcDbBlockEnd
  0
BLOCK
  5
1C
330
1B
100
AcDbEntity
 67
     1
  8
0
100
AcDbBlockBegin
  2
*Paper_Space
 70
     0
 10
0.0
 20
0.0
 30
0.0
  3
*Paper_Space
  1

  0
ENDBLK
  5
1D
330
1B
100
AcDbEntity
 67
     1
  8
0
100
AcDbBlockEnd
  0
BLOCK
  5
24
330
23
100
AcDbEntity
  8
0
100
AcDbBlockBegin
  2
*Paper_Space0
 70
     0
 10
0.0
 20
0.0
 30
0.0
  3
*Paper_Space0
  1

  0
ENDBLK
  5
25
330
23
100
AcDbEntity
  8
0
100
AcDbBlockEnd
  0
BLOCK
  5
1A2
330
1A1
100
AcDbEntity
  8
0
100
AcDbBlockBegin
  2
_D
 70
     0
 10
0.0
 20
0.0
 30
0.0
  3
_D
  1

  0
SOLID
  5
1A4
330
1A1
100
AcDbEntity
  8
VERMASSUNG
100
AcDbTrace
 10
157.5824371829
 20
135.3208338354
 30
0.0
 11
160.5824371829
 21
134.8708338354
 31
0.0
 12
160.5824371829
 22
135.7708338354
 32
0.0
 13
160.5824371829
 23
135.7708338354
 33
0.0
  0
SOLID
  5
1A5
330
1A1
100
AcDbEntity
  8
VERMASSUNG
100
AcDbTrace
 10
247.5824371829
 20
135.3208338354
 30
0.0
 11
244.5824371829
 21
135.7708338354
 31
0.0
 12
244.5824371829
 22
134.8708338354
 32
0.0
 13
244.5824371829
 23
134.8708338354
 33
0.0
  0
LINE
  5
1A6
330
1A1
100
AcDbEntity
  8
VERMASSUNG
100
AcDbLine
 10
157.5824371829
 20
125.0208338354
 30
0.0
 11
157.5824371829
 21
136.3208338354
 31
0.0
  0
LINE
  5
1A7
330
1A1
100
AcDbEntity
  8
VERMASSUNG
100
AcDbLine
 10
247.5824371829
 20
122.3208338354
 30
0.0
 11
247.5824371829
 21
136.3208338354
 31
0.0
  0
LINE
  5
1A8
330
1A1
100
AcDbEntity
  8
VERMASSUNG
100
AcDbLine
 10
157.5824371829
 20
135.3208338354
 30
0.0
 11
247.5824371829
 21
135.3208338354
 31
0.0
  0
MTEXT
  5
1A9
330
1A1
100
AcDbEntity
  8
VERMASSUNG
100
AcDbMText
 10
200.2824371319
 20
137.8989691985
 30
0.1
 40
2.0
 41
0.0
 71
     1
 72
     1
  1
90
  7
SLDTEXTSTYLE0
 73
     1
 44
1.0
  0
ENDBLK
  5
1A3
330
1A1
100
AcDbEntity
  8
0
100
AcDbBlockEnd
  0
BLOCK
  5
1AC
330
1AB
100
AcDbEntity
  8
0
100
AcDbBlockBegin
  2
_D_1
 70
     0
 10
0.0
 20
0.0
 30
0.0
  3
_D_1
  1

  0
SOLID
  5
1AE
330
1AB
100
AcDbEntity
  8
VERMASSUNG
100
AcDbTrace
 10
133.5824371829
 20
141.3208338354
 30
0.0
 11
136.5824371829
 21
140.8708338354
 31
0.0
 12
136.5824371829
 22
141.7708338354
 32
0.0
 13
136.5824371829
 23
141.7708338354
 33
0.0
  0
SOLID
  5
1AF
330
1AB
100
AcDbEntity
  8
VERMASSUNG
100
AcDbTrace
 10
247.5824371829
 20
141.3208338354
 30
0.0
 11
244.5824371829
 21
141.7708338354
 31
0.0
 12
244.5824371829
 22
140.8708338354
 32
0.0
 13
244.5824371829
 23
140.8708338354
 33
0.0
  0
LINE
  5
1B0
330
1AB
100
AcDbEntity
  8
VERMASSUNG
100
AcDbLine
 10
133.5824371829
 20
117.9523388175
 30
0.0
 11
133.5824371829
 21
142.3208338354
 31
0.0
  0
LINE
  5
1B1
330
1AB
100
AcDbEntity
  8
VERMASSUNG
100
AcDbLine
 10
247.5824371829
 20
122.3208338354
 30
0.0
 11
247.5824371829
 21
142.3208338354
 31
0.0
  0
LINE
  5
1B2
330
1AB
100
AcDbEntity
  8
VERMASSUNG
100
AcDbLine
 10
133.5824371829
 20
141.3208338354
 30
0.0
 11
247.5824371829
 21
141.3208338354
 31
0.0
  0
MTEXT
  5
1B3
330
1AB
100
AcDbEntity
  8
VERMASSUNG
100
AcDbMText
 10
187.8824371129
 20
143.8989691985
 30
0.1
 40
2.0
 41
0.0
 71
     1
 72
     1
  1
114
  7
SLDTEXTSTYLE0
 73
     1
 44
1.0
  0
ENDBLK
  5
1AD
330
1AB
100
AcDbEntity
  8
0
100
AcDbBlockEnd
  0
BLOCK
  5
1B6
330
1B5
100
AcDbEntity
  8
0
100
AcDbBlockBegin
  2
_D_2
 70
     0
 10
0.0
 20
0.0
 30
0.0
  3
_D_2
  1

  0
SOLID
  5
1B8
330
1B5
100
AcDbEntity
  8
VERMASSUNG
100
AcDbTrace
 10
261.5973205844
 20
122.3208338354
 30
0.0
 11
261.1473205844
 21
119.3208338354
 31
0.0
 12
262.0473205844
 22
119.3208338354
 32
0.0
 13
262.0473205844
 23
119.3208338354
 33
0.0
  0
SOLID
  5
1B9
330
1B5
100
AcDbEntity
  8
VERMASSUNG
100
AcDbTrace
 10
261.5973205844
 20
105.3208338354
 30
0.0
 11
262.0473205844
 21
108.3208338354
 31
0.0
 12
261.1473205844
 22
108.3208338354
 32
0.0
 13
261.1473205844
 23
108.3208338354
 33
0.0
  0
LINE
  5
1BA
330
1B5
100
AcDbEntity
  8
VERMASSUNG
100
AcDbLine
 10
247.5824371829
 20
122.3208338354
 30
0.0
 11
262.5973205844
 21
122.3208338354
 31
0.0
  0
LINE
  5
1BB
330
1B5
100
AcDbEntity
  8
VERMASSUNG
100
AcDbLine
 10
247.5824371829
 20
105.3208338354
 30
0.0
 11
262.5973205844
 21
105.3208338354
 31
0.0
  0
LINE
  5
1BC
330
1B5
100
AcDbEntity
  8
VERMASSUNG
100
AcDbLine
 10
261.5973205844
 20
122.3208338354
 30
0.0
 11
261.5973205844
 21
105.3208338354
 31
0.0
  0
MTEXT
  5
1BD
330
1B5
100
AcDbEntity
  8
VERMASSUNG
100
AcDbMText
 10
259.0191852213
 20
111.7208336775
 30
0.1
 40
2.0
 41
0.0
 71
     1
 72
     1
  1
17
  7
SLDTEXTSTYLE0
 11
-7.044195017643634E-15
 21
1.0
 31
0.0
 73
     1
 44
1.0
  0
ENDBLK
  5
1B7
330
1B5
100
AcDbEntity
  8
0
100
AcDbBlockEnd
  0
BLOCK
  5
1C1
330
1C0
100
AcDbEntity
  8
0
100
AcDbBlockBegin
  2
_D_3
 70
     0
 10
0.0
 20
0.0
 30
0.0
  3
_D_3
  1

  0
ARC
  5
1C3
330
1C0
100
AcDbEntity
  8
VERMASSUNG
100
AcDbCircle
 10
247.5824371829
 20
122.3208338354
 30
0.0
 40
10.27860221940079
100
AcDbArc
 50
264.9878526278
 51
0.0
  0
SOLID
  5
1C4
330
1C0
100
AcDbEntity
  8
VERMASSUNG
100
AcDbTrace
 10
246.6844271014
 20
112.0815349591
 30
0.0
 11
249.704488998
 21
111.7956571166
 31
0.0
 12
249.6554528781
 22
112.6943202676
 32
0.0
 13
249.6554528781
 23
112.6943202676
 33
0.0
  0
SOLID
  5
1C5
330
1C0
100
AcDbEntity
  8
VERMASSUNG
100
AcDbTrace
 10
257.8610394023
 20
122.3208338354
 30
0.0
 11
256.9910278161
 21
119.4147058548
 31
0.0
 12
257.8819705209
 22
119.2873437846
 32
0.0
 13
257.8819705209
 23
119.2873437846
 33
0.0
  0
MTEXT
  5
1C6
330
1C0
100
AcDbEntity
  8
VERMASSUNG
100
AcDbMText
 10
250.6458832235
 20
114.6839176189
 30
0.1
 40
2.0
 41
0.0
 71
     1
 72
     1
  1
95°
  7
SLDTEXTSTYLE0
 11
0.7373489491615055
 21
0.6755120481312109
 31
0.0
 73
     1
 44
1.0
  0
ENDBLK
  5
1C2
330
1C0
100
AcDbEntity
  8
0
100
AcDbBlockEnd
  0
BLOCK
  5
1C9
330
1C8
100
AcDbEntity
  8
0
100
AcDbBlockBegin
  2
_D_4
 70
     0
 10
0.0
 20
0.0
 30
0.0
  3
_D_4
  1

  0
SOLID
  5
1CB
330
1C8
100
AcDbEntity
  8
VERMASSUNG
100
AcDbTrace
 10
124.9308796974
 20
125.3208338354
 30
0.0
 11
124.4808796974
 21
122.3208338354
 31
0.0
 12
125.3808796974
 22
122.3208338354
 32
0.0
 13
125.3808796974
 23
122.3208338354
 33
0.0
  0
SOLID
  5
1CC
330
1C8
100
AcDbEntity
  8
VERMASSUNG
100
AcDbTrace
 10
124.9308796974
 20
85.3208338354
 30
0.0
 11
125.3808796974
 21
88.3208338354
 31
0.0
 12
124.4808796974
 22
88.3208338354
 32
0.0
 13
124.4808796974
 23
88.3208338354
 33
0.0
  0
LINE
  5
1CD
330
1C8
100
AcDbEntity
  8
VERMASSUNG
100
AcDbLine
 10
157.8824371829
 20
125.3208338354
 30
0.0
 11
123.9308796974
 21
125.3208338354
 31
0.0
  0
LINE
  5
1CE
330
1C8
100
AcDbEntity
  8
VERMASSUNG
100
AcDbLine
 10
157.8824371829
 20
85.3208338354
 30
0.0
 11
123.9308796974
 21
85.3208338354
 31
0.0
  0
LINE
  5
1CF
330
1C8
100
AcDbEntity
  8
VERMASSUNG
100
AcDbLine
 10
124.9308796974
 20
125.3208338354
 30
0.0
 11
124.9308796974
 21
85.3208338354
 31
0.0
  0
MTEXT
  5
1D0
330
1C8
100
AcDbEntity
  8
VERMASSUNG
100
AcDbMText
 10
122.1527442083
 20
98.8158338961
 30
0.1
 40
2.0
 41
0.0
 71
     1
 72
     1
  1
PSC
  7
SLDTEXTSTYLE0
 11
-7.044195017643634E-15
 21
1.0
 31
0.0
 73
     1
 44
1.0
  0
MTEXT
  5
1D1
330
1C8
100
AcDbEntity
  8
VERMASSUNG
100
AcDbMText
 10
122.3527442178
 20
103.4158339981
 30
0.1
 40
2.0
 41
0.0
 71
     1
 72
     1
  1
%%c
  7
SLDTEXTSTYLE0
 11
-7.044195017643634E-15
 21
1.0
 31
0.0
 73
     1
 44
1.0
  0
MTEXT
  5
1D2
330
1C8
100
AcDbEntity
  8
VERMASSUNG
100
AcDbMText
 10
122.1527442083
 20
107.0258344781
 30
0.1
 40
2.0
 41
0.0
 71
     1
 72
     1
  1
40
  7
SLDTEXTSTYLE0
 11
-7.044195017643634E-15
 21
1.0
 31
0.0
 73
     1
 44
1.0
  0
ENDBLK
  5
1CA
330
1C8
100
AcDbEntity
  8
0
100
AcDbBlockEnd
  0
BLOCK
  5
1D5
330
1D4
100
AcDbEntity
  8
0
100
AcDbBlockBegin
  2
_D_5
 70
     0
 10
0.0
 20
0.0
 30
0.0
  3
_D_5
  1

  0
SOLID
  5
1D7
330
1D4
100
AcDbEntity
  8
VERMASSUNG
100
AcDbTrace
 10
193.267795656
 20
117.8208338354
 30
0.0
 11
192.817795656
 21
114.8208338354
 31
0.0
 12
193.717795656
 22
114.8208338354
 32
0.0
 13
193.717795656
 23
114.8208338354
 33
0.0
  0
SOLID
  5
1D8
330
1D4
100
AcDbEntity
  8
VERMASSUNG
100
AcDbTrace
 10
193.267795656
 20
92.8208338354
 30
0.0
 11
193.717795656
 21
95.8208338354
 31
0.0
 12
192.817795656
 22
95.8208338354
 32
0.0
 13
192.817795656
 23
95.8208338354
 33
0.0
  0
LINE
  5
1D9
330
1D4
100
AcDbEntity
  8
VERMASSUNG
100
AcDbLine
 10
193.267795656
 20
117.8208338354
 30
0.0
 11
193.267795656
 21
92.8208338354
 31
0.0
  0
MTEXT
  5
1DA
330
1D4
100
AcDbEntity
  8
VERMASSUNG
100
AcDbMText
 10
190.6896601765
 20
93.8053192648
 30
0.1
 40
2.0
 41
0.0
 71
     1
 72
     1
  1
%%c
  7
SLDTEXTSTYLE0
 11
-7.044195017643634E-15
 21
1.0
 31
0.0
 73
     1
 44
1.0
  0
MTEXT
  5
1DB
330
1D4
100
AcDbEntity
  8
VERMASSUNG
100
AcDbMText
 10
190.489660167
 20
97.4153192791
 30
0.1
 40
2.0
 41
0.0
 71
     1
 72
     1
  1
25
  7
SLDTEXTSTYLE0
 11
-7.044195017643634E-15
 21
1.0
 31
0.0
 73
     1
 44
1.0
  0
ENDBLK
  5
1D6
330
1D4
100
AcDbEntity
  8
0
100
AcDbBlockEnd
  0
BLOCK
  5
1FD
330
1FC
100
AcDbEntity
  8
0
100
AcDbBlockBegin
  2
_NONE
 70
     0
 10
0.0
 20
0.0
 30
0.0
  3
_NONE
  1

  0
ENDBLK
  5
1FE
330
1FC
100
AcDbEntity
  8
0
100
AcDbBlockEnd
  0
BLOCK
  5
200
330
1FF
100
AcDbEntity
  8
0
100
AcDbBlockBegin
  2
_D_6
 70
     0
 10
0.0
 20
0.0
 30
0.0
  3
_D_6
  1

  0
SOLID
  5
202
330
1FF
100
AcDbEntity
  8
VERMASSUNG
100
AcDbTrace
 10
65.3342935425
 20
118.9675604355
 30
0.0
 11
63.8760546566
 21
121.6276430191
 31
0.0
 12
63.1597671013
 22
121.08272822
 32
0.0
 13
63.1597671013
 23
121.08272822
 33
0.0
  0
LINE
  5
203
330
1FF
100
AcDbEntity
  8
VERMASSUNG
100
AcDbLine
 10
65.3342935425
 20
118.9675604355
 30
0.0
 11
53.8996326827
 21
133.998360271
 31
0.0
  0
LINE
  5
204
330
1FF
100
AcDbEntity
  8
VERMASSUNG
100
AcDbLine
 10
65.3342935425
 20
118.9675604355
 30
0.0
 11
84.7090419535
 21
93.4995584721
 31
0.0
  0
MTEXT
  5
205
330
1FF
100
AcDbEntity
  8
VERMASSUNG
100
AcDbMText
 10
55.947476199
 20
135.5562544855
 30
0.1
 40
2.0
 41
0.0
 71
     1
 72
     1
  1
%%c
  7
SLDTEXTSTYLE0
 11
0.605460887844695
 21
-0.7958750613571917
 31
0.0
 73
     1
 44
1.0
  0
MTEXT
  5
206
330
1FF
100
AcDbEntity
  8
VERMASSUNG
100
AcDbMText
 10
58.2923650326
 20
132.8042376859
 30
0.1
 40
2.0
 41
0.0
 71
     1
 72
     1
  1
32
  7
SLDTEXTSTYLE0
 11
0.605460887844695
 21
-0.7958750613571917
 31
0.0
 73
     1
 44
1.0
  0
MTEXT
  5
207
330
1FF
100
AcDbEntity
  8
VERMASSUNG
100
AcDbMText
 10
61.7964702648
 20
128.1981103165
 30
0.1
 40
2.0
 41
0.0
 71
     1
 72
     1
  1
min.
  7
SLDTEXTSTYLE0
 11
0.605460887844695
 21
-0.7958750613571917
 31
0.0
 73
     1
 44
1.0
  0
ENDBLK
  5
201
330
1FF
100
AcDbEntity
  8
0
100
AcDbBlockEnd
  0
BLOCK
  5
20B
330
20A
100
AcDbEntity
  8
0
100
AcDbBlockBegin
  2
_D_7
 70
     0
 10
0.0
 20
0.0
 30
0.0
  3
_D_7
  1

  0
ARC
  5
20D
330
20A
100
AcDbEntity
  8
VERMASSUNG
100
AcDbCircle
 10
75.021667748
 20
118.0201577275
 30
0.0
 40
41.53062738411907
100
AcDbArc
 50
266.0
 51
270.0
  0
ARC
  5
20E
330
20A
100
AcDbEntity
  8
VERMASSUNG
100
AcDbCircle
 10
75.021667748
 20
118.0201577275
 30
0.0
 40
41.53062738411907
100
AcDbArc
 50
252.6874733076
 51
266.0
  0
ARC
  5
20F
330
20A
100
AcDbEntity
  8
VERMASSUNG
100
AcDbCircle
 10
75.021667748
 20
118.0201577275
 30
0.0
 40
41.53062738411908
100
AcDbArc
 50
270.0
 51
278.2578858269
  0
SOLID
  5
210
330
20A
100
AcDbEntity
  8
VERMASSUNG
100
AcDbTrace
 10
72.1246376293
 20
76.5906968644
 30
0.0
 11
69.1889859973
 21
77.3551898306
 31
0.0
 12
69.0938822648
 22
76.4602287812
 32
0.0
 13
69.0938822648
 23
76.4602287812
 33
0.0
  0
SOLID
  5
211
330
20A
100
AcDbEntity
  8
VERMASSUNG
100
AcDbTrace
 10
75.021667748
 20
76.4895303434
 30
0.0
 11
78.0359393513
 21
76.1479652669
 31
0.0
 12
78.0034966137
 22
77.0473803372
 32
0.0
 13
78.0034966137
 23
77.0473803372
 33
0.0
  0
LINE
  5
212
330
20A
100
AcDbEntity
  8
VERMASSUNG
100
AcDbLine
 10
73.233239329
 20
92.4444397831
 30
0.0
 11
72.0548811556
 21
75.5931328142
 31
0.0
  0
LINE
  5
213
330
20A
100
AcDbEntity
  8
VERMASSUNG
100
AcDbLine
 10
75.021667748
 20
82.8208338354
 30
0.0
 11
75.021667748
 21
75.4895303434
 31
0.0
  0
MTEXT
  5
214
330
20A
100
AcDbEntity
  8
VERMASSUNG
100
AcDbMText
 10
63.2738306316
 20
80.8102805715
 30
-32.8966575146
 40
2.0
 41
0.0
 71
     1
 72
     1
  1
4°
  7
SLDTEXTSTYLE0
 11
0.9696902857064147
 21
-0.2443373688296816
 31
0.0
 73
     1
 44
1.0
  0
ENDBLK
  5
20C
330
20A
100
AcDbEntity
  8
0
100
AcDbBlockEnd
  0
BLOCK
  5
216
330
215
100
AcDbEntity
  8
0
100
AcDbBlockBegin
  2
SW_CENTERMARKSYMBOL_0
 70
     0
 10
0.0
 20
0.0
 30
0.0
  3
SW_CENTERMARKSYMBOL_0
  1

  0
LINE
  5
218
330
215
100
AcDbEntity
  8
VERMASSUNG
 62
     0
100
AcDbLine
 10
0.0
 20
0.0
 30
0.0
 11
0.0
 21
2.5
 31
0.0
  0
LINE
  5
219
330
215
100
AcDbEntity
  8
VERMASSUNG
 62
     0
100
AcDbLine
 10
0.0
 20
0.0
 30
0.0
 11
-2.5
 21
0.0
 31
0.0
  0
LINE
  5
21A
330
215
100
AcDbEntity
  8
VERMASSUNG
 62
     0
100
AcDbLine
 10
0.0
 20
0.0
 30
0.0
 11
0.0
 21
-2.5
 31
0.0
  0
LINE
  5
21B
330
215
100
AcDbEntity
  8
VERMASSUNG
 62
     0
100
AcDbLine
 10
0.0
 20
0.0
 30
0.0
 11
2.5
 21
0.0
 31
0.0
  0
LINE
  5
21C
330
215
100
AcDbEntity
  8
VERMASSUNG
 62
     0
100
AcDbLine
 10
0.0
 20
5.0
 30
0.0
 11
0.0
 21
22.5
 31
0.0
  0
LINE
  5
21D
330
215
100
AcDbEntity
  8
VERMASSUNG
 62
     0
100
AcDbLine
 10
-5.0
 20
0.0
 30
0.0
 11
-22.5
 21
0.0
 31
0.0
  0
LINE
  5
21E
330
215
100
AcDbEntity
  8
VERMASSUNG
 62
     0
100
AcDbLine
 10
0.0
 20
-5.0
 30
0.0
 11
0.0
 21
-22.5
 31
0.0
  0
LINE
  5
21F
330
215
100
AcDbEntity
  8
VERMASSUNG
 62
     0
100
AcDbLine
 10
5.0
 20
0.0
 30
0.0
 11
22.5
 21
0.0
 31
0.0
  0
ENDBLK
  5
217
330
215
100
AcDbEntity
  8
0
100
AcDbBlockEnd
  0
ENDSEC
  0
SECTION
  2
ENTITIES
  0
MTEXT
  5
49
330
1F
100
AcDbEntity
  8
KOPF_DÜNN
100
AcDbMText
 10
13.8892156294
 20
23.8442973028
 30
0.0
 40
3.0
 41
0.0
 71
     1
 72
     1
  1
PS4.BCC.RLA.090
  7
SLDTEXTSTYLE0
 73
     1
 44
1.0
  0
MTEXT
  5
4A
330
1F
100
AcDbEntity
  8
VERMASSUNG
100
AcDbMText
 10
13.9329988022
 20
28.8834360957
 30
0.0
 40
3.0
 41
0.0
 71
     1
 72
     1
  1
Bohrstange_Boring bar
  7
SLDTEXTSTYLE0
 73
     1
 44
1.0
  0
MTEXT
  5
4B
330
1F
100
AcDbEntity
  8
VERMASSUNG
100
AcDbMText
 10
98.8601118557
 20
13.8365368179
 30
0.0
 40
2.0
 41
0.0
 71
     1
 72
     1
  1
Datum: 01.06.2012
  7
SLDTEXTSTYLE0
 73
     1
 44
1.0
  0
MTEXT
  5
4C
330
1F
100
AcDbEntity
  8
VERMASSUNG
100
AcDbMText
 10
13.933048693
 20
18.0482802738
 30
0.0
 40
2.0
 41
0.0
 71
     1
 72
     1
  1
PSC ø40 / Wp.: CC..12 04..
  7
SLDTEXTSTYLE0
 73
     1
 44
1.0
  0
MTEXT
  5
4D
330
1F
100
AcDbEntity
  8
VERMASSUNG
100
AcDbMText
 10
13.9808475933
 20
13.9090973692
 30
0.0
 40
2.0
 41
0.0
 71
     1
 72
     1
  1
Gewicht: 453g
  7
SLDTEXTSTYLE0
 73
     1
 44
1.0
  0
LINE
  5
4E
330
1F
100
AcDbEntity
  8
0
  6
Continuous
 62
     7
370
    15
100
AcDbLine
 10
239.179444994
 20
115.1756571863
 30
0.0
 11
239.179444994
 21
115.2872659523
 31
0.0
  0
LINE
  5
4F
330
1F
100
AcDbEntity
  8
0
  6
Continuous
 62
     7
370
    15
100
AcDbLine
 10
242.0177064195
 20
115.3987182562
 30
0.0
 11
242.0177064195
 21
115.2870740999
 31
0.0
  0
LINE
  5
50
330
1F
100
AcDbEntity
  8
0
  6
Continuous
 62
     7
370
    15
100
AcDbLine
 10
237.0970375195
 20
115.3175721202
 30
0.0
 11
237.0970375195
 21
115.3036209081
 31
0.0
  0
LINE
  5
51
330
1F
100
AcDbEntity
  8
0
  6
Continuous
 62
     7
370
    15
100
AcDbLine
 10
244.0970368042
 20
115.3036209081
 30
0.0
 11
244.0970368042
 21
115.3175721202
 31
0.0
  0
ARC
  5
52
330
1F
100
AcDbEntity
  8
0
  6
Continuous
 62
     7
370
    15
100
AcDbCircle
 10
176.9824371829
 20
85.9208338354
 30
0.0
 40
0.6000000000000227
100
AcDbArc
 50
270.0
 51
360.0
  0
ARC
  5
53
330
1F
100
AcDbEntity
  8
0
  6
Continuous
 62
     7
370
    15
100
AcDbCircle
 10
176.9824371829
 20
124.7208338354
 30
0.0
 40
0.6000000000000227
100
AcDbArc
 50
0.0
 51
90.0
  0
ARC
  5
54
330
1F
100
AcDbEntity
  8
0
  6
Continuous
 62
     7
370
    15
100
AcDbCircle
 10
157.8824371829
 20
85.6208338354
 30
0.0
 40
0.3000000000000256
100
AcDbArc
 50
180.0
 51
270.0
  0
ARC
  5
55
330
1F
100
AcDbEntity
  8
0
  6
Continuous
 62
     7
370
    15
100
AcDbCircle
 10
157.8824371829
 20
125.0208338354
 30
0.0
 40
0.3000000000000256
100
AcDbArc
 50
90.0
 51
180.0
  0
LINE
  5
56
330
1F
100
AcDbEntity
  8
0
  6
Continuous
 62
     7
370
    15
100
AcDbLine
 10
157.8824371972
 20
85.3208342824
 30
0.0
 11
176.9824377552
 21
85.3208342824
 31
0.0
  0
LINE
  5
57
330
1F
100
AcDbEntity
  8
0
  6
Continuous
 62
     7
370
    15
100
AcDbLine
 10
176.9824377552
 20
125.3208333884
 30
0.0
 11
157.8824371972
 21
125.3208333884
 31
0.0
  0
LWPOLYLINE
  5
58
330
1F
100
AcDbEntity
  8
0
  6
Continuous
 62
     7
370
    15
100
AcDbPolyline
 90
        3
 70
   128
 43
0.0
 10
157.382437188
 20
91.2310138602
 10
157.5078921232
 20
91.1627115939
 10
157.5824371829
 20
91.1099735905
  0
LWPOLYLINE
  5
59
330
1F
100
AcDbEntity
  8
0
  6
Continuous
 62
     7
370
    15
100
AcDbPolyline
 90
        3
 70
   128
 43
0.0
 10
157.5824371829
 20
119.5316940803
 10
157.5078921232
 20
119.4789560769
 10
157.382437188
 20
119.4106538106
  0
ARC
  5
5A
330
1F
100
AcDbEntity
  8
0
  6
Continuous
 62
     7
370
    15
100
AcDbCircle
 10
179.5824371829
 20
90.8208338354
 30
0.0
 40
2.0
100
AcDbArc
 50
90.0
 51
180.0
  0
ARC
  5
5B
330
1F
100
AcDbEntity
  8
0
  6
Continuous
 62
     7
370
    15
100
AcDbCircle
 10
179.5824371829
 20
119.8208338354
 30
0.0
 40
2.0
100
AcDbArc
 50
180.0
 51
270.0
  0
LINE
  5
5C
330
1F
100
AcDbEntity
  8
0
  6
Continuous
 62
     7
370
    15
100
AcDbLine
 10
221.1682251945
 20
117.8208340217
 30
0.0
 11
179.5824370637
 21
117.8208340217
 31
0.0
  0
LINE
  5
5D
330
1F
100
AcDbEntity
  8
0
  6
Continuous
 62
     7
370
    15
100
AcDbLine
 10
179.5824370637
 20
92.8208336491
 30
0.0
 11
221.1682251945
 21
92.8208336491
 31
0.0
  0
ARC
  5
5E
330
1F
100
AcDbEntity
  8
0
  6
Continuous
 62
     7
370
    15
100
AcDbCircle
 10
221.1682236206
 20
118.8208338354
 30
0.0
 40
1.000000000000006
100
AcDbArc
 50
290.1029878206
 51
304.4282891726
  0
ARC
  5
5F
330
1F
100
AcDbEntity
  8
0
  6
Continuous
 62
     7
370
    15
100
AcDbCircle
 10
221.1682236206
 20
91.8208338354
 30
0.0
 40
0.9999999999999858
100
AcDbArc
 50
45.0
 51
90.0
  0
LINE
  5
60
330
1F
100
AcDbEntity
  8
0
  6
Continuous
 62
     7
370
    15
100
AcDbLine
 10
222.0824337855
 20
92.3208335672
 30
0.0
 11
234.7611612931
 21
92.3208335672
 31
0.0
  0
LINE
  5
61
330
1F
100
AcDbEntity
  8
0
  6
Continuous
 62
     7
370
    15
100
AcDbLine
 10
221.8753299966
 20
92.5279410813
 30
0.0
 11
222.0824337855
 21
92.3208335672
 31
0.0
  0
CIRCLE
  5
62
330
1F
100
AcDbEntity
  8
0
  6
Continuous
 62
     7
370
    15
100
AcDbCircle
 10
240.6026608265
 20
115.3184128441
 30
0.0
 40
3.494352891674481
  0
CIRCLE
  5
63
330
1F
100
AcDbEntity
  8
0
  6
Continuous
 62
     7
370
    15
100
AcDbCircle
 10
240.6012566401
 20
115.3532085557
 30
0.0
 40
2.629734984334992
  0
CIRCLE
  5
64
330
1F
100
AcDbEntity
  8
0
  6
Continuous
 62
     7
370
    15
100
AcDbCircle
 10
240.6002279407
 20
115.3531261012
 30
0.0
 40
1.996790887154636
  0
SPLINE
  5
65
330
1F
100
AcDbEntity
  8
0
  6
Continuous
 62
     7
370
    15
100
AcDbSpline
210
0.0
220
0.0
230
1.0
 70
     8
 71
     3
 72
    15
 73
    11
 74
     0
 42
0.00000001
 43
0.00000001
 12
1.0
 22
0.0
 32
0.0
 13
1.0
 23
0.0
 33
0.0
 40
0.0
 40
0.0
 40
0.0
 40
0.0
 40
0.1262468405531446
 40
0.2533633228448137
 40
0.3794186212709504
 40
0.5042710908284401
 40
0.6284486115724941
 40
0.7526362481732849
 40
0.8774907399983418
 40
1.0
 40
1.0
 40
1.0
 40
1.0
 10
240.9377820148915
 20
117.020673330527
 30
0.0
 10
240.922366981228
 20
117.0626185058508
 30
0.0
 10
240.8914307286166
 20
117.1467977926417
 30
0.0
 10
240.7953977248856
 20
117.2447395550613
 30
0.0
 10
240.6752502837735
 20
117.3064204201735
 30
0.0
 10
240.5417273210414
 20
117.323983041511
 30
0.0
 10
240.4105932486599
 20
117.2965616161748
 30
0.0
 10
240.2966838989778
 20
117.227355364975
 30
0.0
 10
240.2092740319696
 20
117.1255472087911
 30
0.0
 10
240.1836808035208
 20
117.0418564156924
 30
0.0
 10
240.1710055127591
 20
117.0004077513033
 30
0.0
  0
SPLINE
  5
66
330
1F
100
AcDbEntity
  8
0
  6
Continuous
 62
     7
370
    15
100
AcDbSpline
210
0.0
220
0.0
230
1.0
 70
     8
 71
     3
 72
    12
 73
     8
 74
     0
 42
0.00000001
 43
0.00000001
 12
1.0
 22
0.0
 32
0.0
 13
1.0
 23
0.0
 33
0.0
 40
0.0
 40
0.0
 40
0.0
 40
0.0
 40
0.2058742128156765
 40
0.4120990277439477
 40
0.6141684915983278
 40
0.8132905402654705
 40
1.0
 40
1.0
 40
1.0
 40
1.0
 10
240.1710055127591
 20
117.0004077513033
 30
0.0
 10
240.1481169529189
 20
116.9261284889035
 30
0.0
 10
240.102300854207
 20
116.7774434671233
 30
0.0
 10
239.9456661673447
 20
116.5988764463836
 30
0.0
 10
239.7462531195339
 20
116.4828833833319
 30
0.0
 10
239.5253662491616
 20
116.4364850282056
 30
0.0
 10
239.3833714650209
 20
116.4634964537277
 30
0.0
 10
239.3146581306904
 20
116.4765676740819
 30
0.0
  0
SPLINE
  5
67
330
1F
100
AcDbEntity
  8
0
  6
Continuous
 62
     7
370
    15
100
AcDbSpline
210
0.0
220
0.0
230
1.0
 70
     8
 71
     3
 72
    15
 73
    11
 74
     0
 42
0.00000001
 43
0.00000001
 12
1.0
 22
0.0
 32
0.0
 13
1.0
 23
0.0
 33
0.0
 40
0.0
 40
0.0
 40
0.0
 40
0.0
 40
0.1268753920698584
 40
0.2539874220080513
 40
0.3800484018869731
 40
0.504897713713435
 40
0.6290796961960914
 40
0.7532655002592995
 40
0.8781192962148465
 40
1.0
 40
1.0
 40
1.0
 40
1.0
 10
239.3146581306904
 20
116.4765676740819
 30
0.0
 10
239.2707157510574
 20
116.4844750989017
 30
0.0
 10
239.1827490339673
 20
116.5003046968397
 30
0.0
 10
239.0504312512792
 20
116.4665382607571
 30
0.0
 10
238.9374886628102
 20
116.3937201562775
 30
0.0
 10
238.8558420868862
 20
116.287106601593
 30
0.0
 10
238.8140866272326
 20
116.159923550864
 30
0.0
 10
238.8168701525096
 20
116.0265845841631
 30
0.0
 10
238.860810941612
 20
115.8999552518763
 30
0.0
 10
238.9197499982218
 20
115.8357395993399
 30
0.0
 10
238.9488644257039
 20
115.8040186647588
 30
0.0
  0
SPLINE
  5
68
330
1F
100
AcDbEntity
  8
0
  6
Continuous
 62
     7
370
    15
100
AcDbSpline
210
0.0
220
0.0
230
1.0
 70
     8
 71
     3
 72
    12
 73
     8
 74
     0
 42
0.00000001
 43
0.00000001
 12
1.0
 22
0.0
 32
0.0
 13
1.0
 23
0.0
 33
0.0
 40
0.0
 40
0.0
 40
0.0
 40
0.0
 40
0.2057942953040784
 40
0.4120008544306931
 40
0.6140545362079275
 40
0.8131803612976112
 40
1.0
 40
1.0
 40
1.0
 40
1.0
 10
238.9488644257039
 20
115.8040186647588
 30
0.0
 10
239.0011905907118
 20
115.7467279673559
 30
0.0
 10
239.1059477447451
 20
115.6320318031788
 30
0.0
 10
239.1815535439693
 20
115.4068392023641
 30
0.0
 10
239.1826634582758
 20
115.1766323341577
 30
0.0
 10
239.1137089933472
 20
114.9632468428276
 30
0.0
 10
239.0205498781894
 20
114.8548008040671
 30
0.0
 10
238.9754555478543
 20
114.8023067299539
 30
0.0
  0
SPLINE
  5
69
330
1F
100
AcDbEntity
  8
0
  6
Continuous
 62
     7
370
    15
100
AcDbSpline
210
0.0
220
0.0
230
1.0
 70
     8
 71
     3
 72
    15
 73
    11
 74
     0
 42
0.00000001
 43
0.00000001
 12
1.0
 22
0.0
 32
0.0
 13
1.0
 23
0.0
 33
0.0
 40
0.0
 40
0.0
 40
0.0
 40
0.0
 40
0.1268020143797897
 40
0.2539252491863815
 40
0.3799864867760639
 40
0.5048416203479896
 40
0.6290206451510421
 40
0.753206229479085
 40
0.8780567482083146
 40
1.0
 40
1.0
 40
1.0
 40
1.0
 10
238.9754555478543
 20
114.8023067299539
 30
0.0
 10
238.9470426540579
 20
114.7685539188749
 30
0.0
 10
238.8901448896758
 20
114.7009627926148
 30
0.0
 10
238.854161562085
 20
114.5703148581938
 30
0.0
 10
238.861444848548
 20
114.4366485260681
 30
0.0
 10
238.9133333488686
 20
114.3129003432213
 30
0.0
 10
239.0026478971551
 20
114.2131016005041
 30
0.0
 10
239.1192143282639
 20
114.1484908363919
 30
0.0
 10
239.2502532278025
 20
114.1226008902985
 30
0.0
 10
239.3347032835757
 20
114.1409545663374
 30
0.0
 10
239.3764308944195
 20
114.1500232998544
 30
0.0
  0
SPLINE
  5
6A
330
1F
100
AcDbEntity
  8
0
  6
Continuous
 62
     7
370
    15
100
AcDbSpline
210
0.0
220
0.0
230
1.0
 70
     8
 71
     3
 72
    12
 73
     8
 74
     0
 42
0.00000001
 43
0.00000001
 12
1.0
 22
0.0
 32
0.0
 13
1.0
 23
0.0
 33
0.0
 40
0.0
 40
0.0
 40
0.0
 40
0.0
 40
0.2058506728339903
 40
0.4120529130419222
 40
0.6141074053991165
 40
0.8132436083448052
 40
1.0
 40
1.0
 40
1.0
 40
1.0
 10
239.3764308944195
 20
114.1500232998544
 30
0.0
 10
239.4516570924013
 20
114.1661864490343
 30
0.0
 10
239.6022379653648
 20
114.1985403520447
 30
0.0
 10
239.8344408428453
 20
114.1505944079849
 30
0.0
 10
240.0349248506448
 20
114.0364824702136
 30
0.0
 10
240.1868539182689
 20
113.8709035076985
 30
0.0
 10
240.2357201304516
 20
113.7369705179257
 30
0.0
 10
240.2593693986386
 20
113.6721523735935
 30
0.0
  0
SPLINE
  5
6B
330
1F
100
AcDbEntity
  8
0
  6
Continuous
 62
     7
370
    15
100
AcDbSpline
210
0.0
220
0.0
230
1.0
 70
     8
 71
     3
 72
    15
 73
    11
 74
     0
 42
0.00000001
 43
0.00000001
 12
1.0
 22
0.0
 32
0.0
 13
1.0
 23
0.0
 33
0.0
 40
0.0
 40
0.0
 40
0.0
 40
0.0
 40
0.126255258109736
 40
0.2533822082635319
 40
0.3794455488868913
 40
0.5043048001252997
 40
0.6284830144827622
 40
0.7526663006175796
 40
0.8775107214846806
 40
1.0
 40
1.0
 40
1.0
 40
1.0
 10
240.2593693986386
 20
113.6721523735935
 30
0.0
 10
240.2747839583054
 20
113.6311372868582
 30
0.0
 10
240.3057195029019
 20
113.5488239368663
 30
0.0
 10
240.4017604621477
 20
113.4529300082098
 30
0.0
 10
240.5219151917059
 20
113.3925356603297
 30
0.0
 10
240.6554445654376
 20
113.3753914473116
 30
0.0
 10
240.7865790246609
 20
113.4023536692015
 30
0.0
 10
240.900482234305
 20
113.4702513230063
 30
0.0
 10
240.9878723437589
 20
113.5700286272666
 30
0.0
 10
241.0134643113496
 20
113.6518813148021
 30
0.0
 10
241.0261384501904
 20
113.6924179528171
 30
0.0
  0
SPLINE
  5
6C
330
1F
100
AcDbEntity
  8
0
  6
Continuous
 62
     7
370
    15
100
AcDbSpline
210
0.0
220
0.0
230
1.0
 70
     8
 71
     3
 72
    12
 73
     8
 74
     0
 42
0.00000001
 43
0.00000001
 12
1.0
 22
0.0
 32
0.0
 13
1.0
 23
0.0
 33
0.0
 40
0.0
 40
0.0
 40
0.0
 40
0.0
 40
0.2058716368171019
 40
0.4120956632586705
 40
0.6141687878685611
 40
0.8133109645104643
 40
1.0
 40
1.0
 40
1.0
 40
1.0
 10
241.0261384501904
 20
113.6924179528171
 30
0.0
 10
241.0490270042898
 20
113.7650941942799
 30
0.0
 10
241.0948432907314
 20
113.9105710768257
 30
0.0
 10
241.2514804829761
 20
114.0865586465336
 30
0.0
 10
241.4508949877524
 20
114.2027506205798
 30
0.0
 10
241.6717853259356
 20
114.2518666386665
 30
0.0
 10
241.8137800101224
 20
114.2278693867154
 30
0.0
 10
241.8824858322591
 20
114.2162580300385
 30
0.0
  0
SPLINE
  5
6D
330
1F
100
AcDbEntity
  8
0
  6
Continuous
 62
     7
370
    15
100
AcDbSpline
210
0.0
220
0.0
230
1.0
 70
     8
 71
     3
 72
    15
 73
    11
 74
     0
 42
0.00000001
 43
0.00000001
 12
1.0
 22
0.0
 32
0.0
 13
1.0
 23
0.0
 33
0.0
 40
0.0
 40
0.0
 40
0.0
 40
0.0
 40
0.1268729033489342
 40
0.2539815670115196
 40
0.3800315193345921
 40
0.5048739090021733
 40
0.6290528868859772
 40
0.7532384610590444
 40
0.8780964319351784
 40
1.0
 40
1.0
 40
1.0
 40
1.0
 10
241.8824858322591
 20
114.2162580300385
 30
0.0
 10
241.9264280944145
 20
114.2092873554958
 30
0.0
 10
242.0143942739981
 20
114.1953330532236
 30
0.0
 10
242.1467105332952
 20
114.2311421756912
 30
0.0
 10
242.2596481888915
 20
114.3052414359806
 30
0.0
 10
242.3412937098185
 20
114.4122513068149
 30
0.0
 10
242.3830580327489
 20
114.5389581708606
 30
0.0
 10
242.380280602325
 20
114.6709762721066
 30
0.0
 10
242.3363457120114
 20
114.7955807240363
 30
0.0
 10
242.277404668001
 20
114.8579806327944
 30
0.0
 10
242.2482869878262
 20
114.8888070393616
 30
0.0
  0
SPLINE
  5
6E
330
1F
100
AcDbEntity
  8
0
  6
Continuous
 62
     7
370
    15
100
AcDbSpline
210
0.0
220
0.0
230
1.0
 70
     8
 71
     3
 72
    12
 73
     8
 74
     0
 42
0.00000001
 43
0.00000001
 12
1.0
 22
0.0
 32
0.0
 13
1.0
 23
0.0
 33
0.0
 40
0.0
 40
0.0
 40
0.0
 40
0.0
 40
0.2058313584491688
 40
0.4120736778308126
 40
0.6141680371167431
 40
0.8133023306598592
 40
1.0
 40
1.0
 40
1.0
 40
1.0
 10
242.2482869878262
 20
114.8888070393616
 30
0.0
 10
242.195954037511
 20
114.9445045571151
 30
0.0
 10
242.0911836494099
 20
115.0560107977563
 30
0.0
 10
242.0155895612212
 20
115.2786646664393
 30
0.0
 10
242.0144935982455
 20
115.5090952383053
 30
0.0
 10
242.0834869811896
 20
115.7251729008324
 30
0.0
 10
242.1766269728825
 20
115.8366008452373
 30
0.0
 10
242.2216958656758
 20
115.8905189741665
 30
0.0
  0
SPLINE
  5
6F
330
1F
100
AcDbEntity
  8
0
  6
Continuous
 62
     7
370
    15
100
AcDbSpline
210
0.0
220
0.0
230
1.0
 70
     8
 71
     3
 72
    15
 73
    11
 74
     0
 42
0.00000001
 43
0.00000001
 12
1.0
 22
0.0
 32
0.0
 13
1.0
 23
0.0
 33
0.0
 40
0.0
 40
0.0
 40
0.0
 40
0.0
 40
0.1267856728334622
 40
0.2538930403949873
 40
0.3799402537931699
 40
0.504782623011138
 40
0.6289583090814422
 40
0.7531490010105174
 40
0.8780084128539788
 40
1.0
 40
1.0
 40
1.0
 40
1.0
 10
242.2216958656758
 20
115.8905189741665
 30
0.0
 10
242.2501057033188
 20
115.9252050142338
 30
0.0
 10
242.3069974632085
 20
115.9946651036518
 30
0.0
 10
242.3429821008484
 20
116.1273497810963
 30
0.0
 10
242.3357023433142
 20
116.2622866449575
 30
0.0
 10
242.2838403366083
 20
116.3864394964454
 30
0.0
 10
242.1945378301902
 20
116.4857729748013
 30
0.0
 10
242.0779813401233
 20
116.5490783672804
 30
0.0
 10
241.9469297570092
 20
116.5729536924524
 30
0.0
 10
241.8624631644082
 20
116.5527746895677
 30
0.0
 10
241.8207205191106
 20
116.542802404266
 30
0.0
  0
SPLINE
  5
70
330
1F
100
AcDbEntity
  8
0
  6
Continuous
 62
     7
370
    15
100
AcDbSpline
210
0.0
220
0.0
230
1.0
 70
     8
 71
     3
 72
    12
 73
     8
 74
     0
 42
0.00000001
 43
0.00000001
 12
1.0
 22
0.0
 32
0.0
 13
1.0
 23
0.0
 33
0.0
 40
0.0
 40
0.0
 40
0.0
 40
0.0
 40
0.2058931980838648
 40
0.4121334853775546
 40
0.6142241908500595
 40
0.8133489614462229
 40
1.0
 40
1.0
 40
1.0
 40
1.0
 10
241.8207205191106
 20
116.542802404266
 30
0.0
 10
241.7454817327563
 20
116.5250351980302
 30
0.0
 10
241.5948773245276
 20
116.4894708340807
 30
0.0
 10
241.3626438479173
 20
116.534865508698
 30
0.0
 10
241.1621486229741
 20
116.6492055756208
 30
0.0
 10
241.0102614235023
 20
116.817516412863
 30
0.0
 10
240.9614153524004
 20
116.9544300195721
 30
0.0
 10
240.9377820148915
 20
117.020673330527
 30
0.0
  0
LWPOLYLINE
  5
71
330
1F
100
AcDbEntity
  8
0
  6
Continuous
 62
     7
370
    15
100
AcDbPolyline
 90
        3
 70
   128
 43
0.0
 10
238.8639650598
 20
114.4710613672
 10
238.8989157334
 20
114.5807944495
 10
238.9754555479
 20
114.6872679029
  0
ARC
  5
72
330
1F
100
AcDbEntity
  8
0
  6
Continuous
 62
     7
370
    15
100
AcDbCircle
 10
241.9874016418
 20
114.4802725891
 30
0.0
 40
0.3926583995125387
100
AcDbArc
 50
7.1888107583
 51
48.363082217
  0
ARC
  5
73
330
1F
100
AcDbEntity
  8
0
  6
Continuous
 62
     7
370
    15
100
AcDbCircle
 10
238.4924988636
 20
115.175783863
 30
0.0
 40
0.6869461420887267
100
AcDbArc
 50
314.672127086
 51
359.9894343401
  0
ARC
  5
74
330
1F
100
AcDbEntity
  8
0
  6
Continuous
 62
     7
370
    15
100
AcDbCircle
 10
242.704660346
 20
115.2871819657
 30
0.0
 40
0.6869539349731765
100
AcDbArc
 50
180.0089966061
 51
228.3680224034
  0
ARC
  5
75
330
1F
100
AcDbEntity
  8
0
  6
Continuous
 62
     7
370
    15
100
AcDbCircle
 10
239.2108608324
 20
115.9816556637
 30
0.0
 40
0.3938239799520554
100
AcDbArc
 50
74.7184363104
 51
174.1148023528
  0
ARC
  5
76
330
1F
100
AcDbEntity
  8
0
  6
Continuous
 62
     7
370
    15
100
AcDbCircle
 10
241.9444346568
 20
116.05379024
 30
0.0
 40
0.3939042374277346
100
AcDbArc
 50
6.9328543611
 51
108.3047767941
  0
ARC
  5
77
330
1F
100
AcDbEntity
  8
0
  6
Continuous
 62
     7
370
    15
100
AcDbCircle
 10
239.4961211498
 20
117.0267851469
 30
0.0
 40
0.6895361314956105
100
AcDbArc
 50
254.7419476701
 51
348.1675093075
  0
ARC
  5
78
330
1F
100
AcDbEntity
  8
0
  6
Continuous
 62
     7
370
    15
100
AcDbCircle
 10
241.6043892527
 20
117.0826675436
 30
0.0
 40
0.6897098243865206
100
AcDbArc
 50
194.8714907554
 51
288.2796654539
  0
ARC
  5
79
330
1F
100
AcDbEntity
  8
0
  6
Continuous
 62
     7
370
    15
100
AcDbCircle
 10
240.5567993048
 20
116.8044689375
 30
0.0
 40
0.3941901542898947
100
AcDbArc
 50
14.8735366995
 51
168.1531131713
  0
ARC
  5
7A
330
1F
100
AcDbEntity
  8
0
  6
Continuous
 62
     7
370
    15
100
AcDbCircle
 10
240.5970371619
 20
115.3100666418
 30
0.0
 40
3.500005577722499
100
AcDbArc
 50
180.1055179885
 51
359.8944820115
  0
LINE
  5
7B
330
1F
100
AcDbEntity
  8
0
  6
Continuous
 62
     7
370
    15
100
AcDbLine
 10
247.1075482026
 20
122.2793871794
 30
0.0
 11
235.0699580565
 21
121.2287994359
 31
0.0
  0
ARC
  5
7C
330
1F
100
AcDbEntity
  8
0
  6
Continuous
 62
     7
370
    15
100
AcDbCircle
 10
247.1428569551
 20
121.8814402364
 30
0.0
 40
0.3995102970457278
100
AcDbArc
 50
355.0693879873
 51
95.0704211956
  0
LINE
  5
7D
330
1F
100
AcDbEntity
  8
0
  6
Continuous
 62
     7
370
    15
100
AcDbLine
 10
246.4877344027
 20
109.8388309848
 30
0.0
 11
247.5408888712
 21
121.8471026305
 31
0.0
  0
ARC
  5
7E
330
1F
100
AcDbEntity
  8
0
  6
Continuous
 62
     7
370
    15
100
AcDbCircle
 10
246.0897940347
 20
109.8741261521
 30
0.0
 40
0.3995025473127883
100
AcDbArc
 50
274.9295674102
 51
354.9314362009
  0
LINE
  5
7F
330
1F
100
AcDbEntity
  8
0
  6
Continuous
 62
     7
370
    15
100
AcDbLine
 10
234.0865261212
 20
108.4255135875
 30
0.0
 11
246.1241237178
 21
109.4761013311
 31
0.0
  0
ARC
  5
80
330
1F
100
AcDbEntity
  8
0
  6
Continuous
 62
     7
370
    15
100
AcDbCircle
 10
234.0512244366
 20
108.8234676158
 30
0.0
 40
0.3995167299553704
100
AcDbArc
 50
175.0704874603
 51
275.0693217226
  0
LINE
  5
81
330
1F
100
AcDbEntity
  8
0
  6
Continuous
 62
     7
370
    15
100
AcDbLine
 10
234.706339921
 20
120.8660707135
 30
0.0
 11
233.6531854525
 21
108.8577981364
 31
0.0
  0
ARC
  5
82
330
1F
100
AcDbEntity
  8
0
  6
Continuous
 62
     7
370
    15
100
AcDbCircle
 10
235.10429173
 20
120.8307623501
 30
0.0
 40
0.3995151096232353
100
AcDbArc
 50
94.9299864286
 51
174.9296960675
  0
ARC
  5
83
330
1F
100
AcDbEntity
  8
0
  6
Continuous
 62
     7
370
    15
100
AcDbCircle
 10
234.0512436581
 20
108.82344353
 30
0.0
 40
0.3795393753240359
100
AcDbArc
 50
175.0701900269
 51
275.0697098574
  0
LINE
  5
84
330
1F
100
AcDbEntity
  8
0
  6
Continuous
 62
     7
370
    15
100
AcDbLine
 10
234.0847826853
 20
108.4453889426
 30
0.0
 11
246.122380282
 21
109.4959766861
 31
0.0
  0
ARC
  5
85
330
1F
100
AcDbEntity
  8
0
  6
Continuous
 62
     7
370
    15
100
AcDbCircle
 10
246.0897633277
 20
109.8741052204
 30
0.0
 40
0.379532678585466
100
AcDbArc
 50
274.9300679591
 51
354.9308122215
  0
LINE
  5
86
330
1F
100
AcDbEntity
  8
0
  6
Continuous
 62
     7
370
    15
100
AcDbLine
 10
246.4678115502
 20
109.8405702297
 30
0.0
 11
247.5209660187
 21
121.8488423411
 31
0.0
  0
ARC
  5
87
330
1F
100
AcDbEntity
  8
0
  6
Continuous
 62
     7
370
    15
100
AcDbCircle
 10
247.1428300892
 20
121.8814575904
 30
0.0
 40
0.3795398999531697
100
AcDbArc
 50
355.0702844112
 51
95.0696154731
  0
LINE
  5
88
330
1F
100
AcDbEntity
  8
0
  6
Continuous
 62
     7
370
    15
100
AcDbLine
 10
247.1092916384
 20
122.2595127557
 30
0.0
 11
235.0717014924
 21
121.2089250122
 31
0.0
  0
ARC
  5
89
330
1F
100
AcDbEntity
  8
0
  6
Continuous
 62
     7
370
    15
100
AcDbCircle
 10
235.1043189009
 20
120.8307878939
 30
0.0
 40
0.3795412699032138
100
AcDbArc
 50
94.9300249147
 51
174.9296969001
  0
LINE
  5
8A
330
1F
100
AcDbEntity
  8
0
  6
Continuous
 62
     7
370
    15
100
AcDbLine
 10
234.7262627736
 20
120.8643310029
 30
0.0
 11
233.673108305
 21
108.8560593572
 31
0.0
  0
LINE
  5
8B
330
1F
100
AcDbEntity
  8
0
  6
Continuous
 62
     7
370
    15
100
AcDbLine
 10
234.9706641689
 20
109.6908331175
 30
0.0
 11
234.0516648546
 21
108.8077167306
 31
0.0
  0
LINE
  5
8C
330
1F
100
AcDbEntity
  8
0
  6
Continuous
 62
     7
370
    15
100
AcDbLine
 10
245.5155677453
 20
110.4055705738
 30
0.0
 11
246.0892624512
 21
109.8583044742
 31
0.0
  0
LINE
  5
8D
330
1F
100
AcDbEntity
  8
0
  6
Continuous
 62
     7
370
    15
100
AcDbLine
 10
235.6785140291
 20
120.2186608944
 30
0.0
 11
235.1048193231
 21
120.8159888421
 31
0.0
  0
LINE
  5
8E
330
1F
100
AcDbEntity
  8
0
  6
Continuous
 62
     7
370
    15
100
AcDbLine
 10
237.0209819928
 20
110.7043965977
 30
0.0
 11
243.7579906836
 21
111.2923726697
 31
0.0
  0
LINE
  5
8F
330
1F
100
AcDbEntity
  8
0
  6
Continuous
 62
     7
370
    15
100
AcDbLine
 10
246.2234101549
 20
120.9161693488
 30
0.0
 11
247.1424094692
 21
121.8665765856
 31
0.0
  0
ARC
  5
90
330
1F
100
AcDbEntity
  8
0
  6
Continuous
 62
     7
370
    15
100
AcDbCircle
 10
236.9327235969
 20
111.6992774736
 30
0.0
 40
0.9987880163759046
100
AcDbArc
 50
175.0702270948
 51
275.069582088
  0
LINE
  5
91
330
1F
100
AcDbEntity
  8
0
  6
Continuous
 62
     7
370
    15
100
AcDbLine
 10
244.173092331
 20
120.0005051006
 30
0.0
 11
237.4360836401
 21
119.4125285629
 31
0.0
  0
ARC
  5
92
330
1F
100
AcDbEntity
  8
0
  6
Continuous
 62
     7
370
    15
100
AcDbCircle
 10
244.2613505233
 20
119.0056239467
 30
0.0
 40
0.9987882753418719
100
AcDbArc
 50
355.0701907615
 51
95.0695690459
  0
LINE
  5
93
330
1F
100
AcDbEntity
  8
0
  6
Continuous
 62
     7
370
    15
100
AcDbLine
 10
244.6670285717
 20
112.1991972696
 30
0.0
 11
245.2564440027
 21
118.9197927971
 31
0.0
  0
ARC
  5
94
330
1F
100
AcDbEntity
  8
0
  6
Continuous
 62
     7
370
    15
100
AcDbCircle
 10
243.6721593963
 20
112.2874540346
 30
0.0
 40
0.9987762174945714
100
AcDbArc
 50
274.9298768314
 51
354.9304517949
  0
LINE
  5
95
330
1F
100
AcDbEntity
  8
0
  6
Continuous
 62
     7
370
    15
100
AcDbLine
 10
236.5270457521
 20
118.5057044287
 30
0.0
 11
235.9376303211
 21
111.7851079699
 31
0.0
  0
ARC
  5
96
330
1F
100
AcDbEntity
  8
0
  6
Continuous
 62
     7
370
    15
100
AcDbCircle
 10
237.5219193747
 20
118.4174426946
 30
0.0
 40
0.9987810864425837
100
AcDbArc
 50
94.9301088058
 51
174.9301903987
  0
CIRCLE
  5
97
330
1F
100
AcDbEntity
  8
0
  6
Continuous
 62
     7
370
    15
100
AcDbCircle
 10
240.5903687421
 20
115.3503720605
 30
0.0
 40
3.793464126125083
  0
CIRCLE
  5
98
330
1F
100
AcDbEntity
  8
0
  6
Continuous
 62
     7
370
    15
100
AcDbCircle
 10
240.5903685956
 20
115.270153067
 30
0.0
 40
3.793463856851626
  0
SPLINE
  5
99
330
1F
100
AcDbEntity
  8
0
  6
Continuous
 62
     7
370
    15
100
AcDbSpline
210
0.0
220
0.0
230
1.0
 70
     8
 71
     3
 72
    11
 73
     7
 74
     0
 42
0.00000001
 43
0.00000001
 12
1.0
 22
0.0
 32
0.0
 13
1.0
 23
0.0
 33
0.0
 40
0.0
 40
0.0
 40
0.0
 40
0.0
 40
0.0076316386294242
 40
0.3209888536421493
 40
0.663219711022645
 40
1.0
 40
1.0
 40
1.0
 40
1.0
 10
235.4595936193913
 20
110.1838263940328
 30
0.0
 10
235.4584766643496
 20
110.1826503611859
 30
0.0
 10
235.4114972231309
 20
110.1331860909683
 30
0.0
 10
235.3074985989639
 20
110.0250846011596
 30
0.0
 10
235.138023014588
 20
109.8535278608157
 30
0.0
 10
235.026151110844
 20
109.7447737009114
 30
0.0
 10
234.9706641688794
 20
109.6908331174666
 30
0.0
  0
SPLINE
  5
9A
330
1F
100
AcDbEntity
  8
0
  6
Continuous
 62
     7
370
    15
100
AcDbSpline
210
0.0
220
0.0
230
1.0
 70
     8
 71
     3
 72
    11
 73
     7
 74
     0
 42
0.00000001
 43
0.00000001
 12
1.0
 22
0.0
 32
0.0
 13
1.0
 23
0.0
 33
0.0
 40
0.0
 40
0.0
 40
0.0
 40
0.0
 40
0.3372314791188467
 40
0.6736306749919412
 40
0.9918872144701903
 40
1.0
 40
1.0
 40
1.0
 40
1.0
 10
245.5155677452534
 20
110.4055705737585
 30
0.0
 10
245.4606620036975
 20
110.4585882681102
 30
0.0
 10
245.3509860272971
 20
110.5644928097798
 30
0.0
 10
245.1795557000515
 20
110.737378277074
 30
0.0
 10
245.0740242280225
 20
110.846682630171
 30
0.0
 10
245.0261010200016
 20
110.8972600467598
 30
0.0
 10
245.024909760043
 20
110.898517284196
 30
0.0
  0
SPLINE
  5
9B
330
1F
100
AcDbEntity
  8
0
  6
Continuous
 62
     7
370
    15
100
AcDbSpline
210
0.0
220
0.0
230
1.0
 70
     8
 71
     3
 72
    11
 73
     7
 74
     0
 42
0.00000001
 43
0.00000001
 12
1.0
 22
0.0
 32
0.0
 13
1.0
 23
0.0
 33
0.0
 40
0.0
 40
0.0
 40
0.0
 40
0.0
 40
0.0081131888675525
 40
0.3263649304568227
 40
0.6627661347005692
 40
0.9999999999999999
 40
0.9999999999999999
 40
0.9999999999999999
 40
0.9999999999999999
 10
236.1691645637005
 20
119.7326865304524
 30
0.0
 10
236.1679733039211
 20
119.7338087518665
 30
0.0
 10
236.1200531308014
 20
119.7789517554077
 30
0.0
 10
236.0145260532752
 20
119.8800269648551
 30
0.0
 10
235.8430953459243
 20
120.0492394103391
 30
0.0
 10
235.7334196570167
 20
120.1621405484465
 30
0.0
 10
235.6785140290707
 20
120.2186608944351
 30
0.0
  0
SPLINE
  5
9C
330
1F
100
AcDbEntity
  8
0
  6
Continuous
 62
     7
370
    15
100
AcDbSpline
210
0.0
220
0.0
230
1.0
 70
     8
 71
     3
 72
    11
 73
     7
 74
     0
 42
0.00000001
 43
0.00000001
 12
1.0
 22
0.0
 32
0.0
 13
1.0
 23
0.0
 33
0.0
 40
0.0
 40
0.0
 40
0.0
 40
0.0
 40
0.3367792080503169
 40
0.6790112088550352
 40
0.9923677140871835
 40
1.0
 40
1.0
 40
1.0
 40
1.0
 10
246.2234101548642
 20
120.9161693487579
 30
0.0
 10
246.1679229225059
 20
120.8593983418503
 30
0.0
 10
246.0560500639119
 20
120.7449371485616
 30
0.0
 10
245.8865783463924
 20
120.578456786442
 30
0.0
 10
245.7825730441958
 20
120.4788889699173
 30
0.0
 10
245.7355976579305
 20
120.4347390776896
 30
0.0
 10
245.7344807043523
 20
120.4336893070752
 30
0.0
  0
LINE
  5
9D
330
1F
100
AcDbEntity
  8
0
  6
Continuous
 62
     7
370
    15
100
AcDbLine
 10
177.5824367359
 20
124.7208344076
 30
0.0
 11
177.5824367359
 21
85.9208332632
 31
0.0
  0
LINE
  5
9E
330
1F
100
AcDbEntity
  8
0
  6
Continuous
 62
     7
370
    15
100
AcDbLine
 10
157.5824371829
 20
85.6208337728
 30
0.0
 11
157.5824371829
 21
125.020833898
 31
0.0
  0
SPLINE
  5
9F
330
1F
100
AcDbEntity
  8
0
  6
Continuous
 62
     7
370
    15
100
AcDbSpline
210
0.0
220
0.0
230
1.0
 70
     8
 71
     3
 72
    12
 73
     8
 74
     0
 42
0.00000001
 43
0.00000001
 12
1.0
 22
0.0
 32
0.0
 13
1.0
 23
0.0
 33
0.0
 40
0.0
 40
0.0
 40
0.0
 40
0.0
 40
0.2499999999999988
 40
0.2499999999999988
 40
0.4999999999999977
 40
0.4999999999999977
 40
1.0
 40
1.0
 40
1.0
 40
1.0
 10
164.5143391849472
 20
111.150046831056
 30
0.0
 10
164.4768272989025
 20
111.150046831056
 30
0.0
 10
164.4415399511978
 20
111.1648516453428
 30
0.0
 10
164.3826101029594
 20
111.2084435184687
 30
0.0
 10
164.3590843764903
 20
111.2359569445546
 30
0.0
 10
164.2988255887223
 20
111.3250886766683
 30
0.0
 10
164.2732308264329
 20
111.391474527286
 30
0.0
 10
164.2545315638119
 20
111.4590789624634
 30
0.0
  0
LINE
  5
A0
330
1F
100
AcDbEntity
  8
0
  6
Continuous
 62
     7
370
    15
100
AcDbLine
 10
166.6505351022
 20
111.1500470225
 30
0.0
 11
164.5143390924
 21
111.1500470225
 31
0.0
  0
SPLINE
  5
A1
330
1F
100
AcDbEntity
  8
0
  6
Continuous
 62
     7
370
    15
100
AcDbSpline
210
0.0
220
0.0
230
1.0
 70
     8
 71
     3
 72
    12
 73
     8
 74
     0
 42
0.00000001
 43
0.00000001
 12
1.0
 22
0.0
 32
0.0
 13
1.0
 23
0.0
 33
0.0
 40
0.0
 40
0.0
 40
0.0
 40
0.0
 40
0.4999999999999962
 40
0.4999999999999962
 40
0.7499999999999981
 40
0.7499999999999981
 40
1.0
 40
1.0
 40
1.0
 40
1.0
 10
166.9103428020841
 20
111.4590789624634
 30
0.0
 10
166.8916495689537
 20
111.391496326023
 30
0.0
 10
166.8659942715418
 20
111.3250137565456
 30
0.0
 10
166.8058336488554
 20
111.2360186736481
 30
0.0
 10
166.781761337101
 20
111.208016776649
 30
0.0
 10
166.7233798167505
 20
111.1649403759838
 30
0.0
 10
166.6879109890975
 20
111.150046831056
 30
0.0
 10
166.6505351809488
 20
111.150046831056
 30
0.0
  0
ELLIPSE
  5
A2
330
1F
100
AcDbEntity
  8
0
  6
Continuous
 62
     7
370
    15
100
AcDbEllipse
 10
156.6335080105
 20
105.3208338354
 30
0.0
 11
9.367417879781669
 21
19.74174915274995
 31
0.0
210
0.0
220
0.0
230
1.0
 40
0.3419987131
 41
5.185211263708393
 42
6.132113578252552
  0
SPLINE
  5
A3
330
1F
100
AcDbEntity
  8
0
  6
Continuous
 62
     7
370
    15
100
AcDbSpline
210
0.0
220
0.0
230
1.0
 70
     8
 71
     3
 72
    12
 73
     8
 74
     0
 42
0.00000001
 43
0.00000001
 12
1.0
 22
0.0
 32
0.0
 13
1.0
 23
0.0
 33
0.0
 40
0.0
 40
0.0
 40
0.0
 40
0.0
 40
0.2500000000000014
 40
0.2500000000000014
 40
0.5000000000000029
 40
0.5000000000000029
 40
1.0
 40
1.0
 40
1.0
 40
1.0
 10
166.6505351809488
 20
124.4524902156379
 30
0.0
 10
166.6880470669935
 20
124.4524902156379
 30
0.0
 10
166.7233344146982
 20
124.4479866713753
 30
0.0
 10
166.7822642629366
 20
124.434613471922
 30
0.0
 10
166.8057899894056
 20
124.4261285693509
 30
0.0
 10
166.8660487771737
 20
124.3983807655163
 30
0.0
 10
166.891643539463
 20
124.3773909017759
 30
0.0
 10
166.9103428020841
 20
124.3555901185864
 30
0.0
  0
LINE
  5
A4
330
1F
100
AcDbEntity
  8
0
  6
Continuous
 62
     7
370
    15
100
AcDbLine
 10
164.5143390924
 20
124.4524905715
 30
0.0
 11
166.6505351022
 21
124.4524905715
 31
0.0
  0
SPLINE
  5
A5
330
1F
100
AcDbEntity
  8
0
  6
Continuous
 62
     7
370
    15
100
AcDbSpline
210
0.0
220
0.0
230
1.0
 70
     8
 71
     3
 72
    12
 73
     8
 74
     0
 42
0.00000001
 43
0.00000001
 12
1.0
 22
0.0
 32
0.0
 13
1.0
 23
0.0
 33
0.0
 40
0.0
 40
0.0
 40
0.0
 40
0.0
 40
0.4999999999999984
 40
0.4999999999999984
 40
0.7499999999999992
 40
0.7499999999999992
 40
1.0
 40
1.0
 40
1.0
 40
1.0
 10
164.2545315638119
 20
124.3555901185864
 30
0.0
 10
164.2732247969423
 20
124.3773838722144
 30
0.0
 10
164.298880094354
 20
124.398404033924
 30
0.0
 10
164.3590407170406
 20
124.4261093798877
 30
0.0
 10
164.3831130287949
 20
124.4347445960811
 30
0.0
 10
164.4414945491454
 20
124.4479592413077
 30
0.0
 10
164.4769633767984
 20
124.4524902156379
 30
0.0
 10
164.5143391849472
 20
124.4524902156379
 30
0.0
  0
ELLIPSE
  5
A6
330
1F
100
AcDbEntity
  8
0
  6
Continuous
 62
     7
370
    15
100
AcDbEllipse
 10
174.5313663554
 20
105.3208338354
 30
0.0
 11
-9.367417879781527
 21
19.74174915274995
 31
0.0
210
0.0
220
0.0
230
1.0
 40
0.3419987131
 41
0.1510717289270738
 42
1.097974043471209
  0
SPLINE
  5
A7
330
1F
100
AcDbEntity
  8
0
  6
Continuous
 62
     7
370
    15
100
AcDbSpline
210
0.0
220
0.0
230
1.0
 70
     8
 71
     3
 72
    12
 73
     8
 74
     0
 42
0.00000001
 43
0.00000001
 12
1.0
 22
0.0
 32
0.0
 13
1.0
 23
0.0
 33
0.0
 40
0.0
 40
0.0
 40
0.0
 40
0.0
 40
0.249999999999998
 40
0.249999999999998
 40
0.499999999999996
 40
0.499999999999996
 40
1.0
 40
1.0
 40
1.0
 40
1.0
 10
164.5143391849472
 20
86.18917745517105
 30
0.0
 10
164.4768383620694
 20
86.18917745517106
 30
0.0
 10
164.4415599580335
 20
86.19367842303427
 30
0.0
 10
164.3826422379811
 20
86.20704494425159
 30
0.0
 10
164.3591188565827
 20
86.21552620449643
 30
0.0
 10
164.2988632721168
 20
86.24326360017434
 30
0.0
 10
164.2733416197056
 20
86.26414759922734
 30
0.0
 10
164.2545315638118
 20
86.28607755222252
 30
0.0
  0
LINE
  5
A8
330
1F
100
AcDbEntity
  8
0
  6
Continuous
 62
     7
370
    15
100
AcDbLine
 10
166.6505351022
 20
86.1891770993
 30
0.0
 11
164.5143390924
 21
86.1891770993
 31
0.0
  0
SPLINE
  5
A9
330
1F
100
AcDbEntity
  8
0
  6
Continuous
 62
     7
370
    15
100
AcDbSpline
210
0.0
220
0.0
230
1.0
 70
     8
 71
     3
 72
    12
 73
     8
 74
     0
 42
0.00000001
 43
0.00000001
 12
1.0
 22
0.0
 32
0.0
 13
1.0
 23
0.0
 33
0.0
 40
0.0
 40
0.0
 40
0.0
 40
0.0
 40
0.4999999999999973
 40
0.4999999999999973
 40
0.7499999999999987
 40
0.7499999999999987
 40
1.0
 40
1.0
 40
1.0
 40
1.0
 10
166.9103428020841
 20
86.28607755222252
 30
0.0
 10
166.8915395692325
 20
86.26415555396144
 30
0.0
 10
166.8660029102131
 20
86.24326174595156
 30
0.0
 10
166.8057767362647
 20
86.21553501983378
 30
0.0
 10
166.7818506588647
 20
86.20696188645834
 30
0.0
 10
166.7237897386835
 20
86.19378278065079
 30
0.0
 10
166.6879880400575
 20
86.18917745517103
 30
0.0
 10
166.6505351809488
 20
86.18917745517105
 30
0.0
  0
ELLIPSE
  5
AA
330
1F
100
AcDbEntity
  8
0
  6
Continuous
 62
     7
370
    15
100
AcDbEllipse
 10
156.6335080105
 20
105.3208338354
 30
0.0
 11
-9.367417879781783
 21
19.74174915274995
 31
0.0
210
0.0
220
0.0
230
1.0
 40
0.3419987131
 41
3.292664382516892
 42
4.239566697060999
  0
SPLINE
  5
AB
330
1F
100
AcDbEntity
  8
0
  6
Continuous
 62
     7
370
    15
100
AcDbSpline
210
0.0
220
0.0
230
1.0
 70
     8
 71
     3
 72
    12
 73
     8
 74
     0
 42
0.00000001
 43
0.00000001
 12
1.0
 22
0.0
 32
0.0
 13
1.0
 23
0.0
 33
0.0
 40
0.0
 40
0.0
 40
0.0
 40
0.0
 40
0.25
 40
0.25
 40
0.5
 40
0.5
 40
1.0
 40
1.0
 40
1.0
 40
1.0
 10
166.6505351809488
 20
99.49162083975274
 30
0.0
 10
166.6880360038266
 20
99.49162083975274
 30
0.0
 10
166.7233144078625
 20
99.4768245019996
 30
0.0
 10
166.7822321279149
 20
99.4332542408405
 30
0.0
 10
166.8057555093133
 20
99.40575244233897
 30
0.0
 10
166.8660110937792
 20
99.31665327909592
 30
0.0
 10
166.8915327461903
 20
99.25059370031354
 30
0.0
 10
166.9103428020841
 20
99.18258870834535
 30
0.0
  0
LINE
  5
AC
330
1F
100
AcDbEntity
  8
0
  6
Continuous
 62
     7
370
    15
100
AcDbLine
 10
164.5143390924
 20
99.4916206483
 30
0.0
 11
166.6505351022
 21
99.4916206483
 31
0.0
  0
SPLINE
  5
AD
330
1F
100
AcDbEntity
  8
0
  6
Continuous
 62
     7
370
    15
100
AcDbSpline
210
0.0
220
0.0
230
1.0
 70
     8
 71
     3
 72
    12
 73
     8
 74
     0
 42
0.00000001
 43
0.00000001
 12
1.0
 22
0.0
 32
0.0
 13
1.0
 23
0.0
 33
0.0
 40
0.0
 40
0.0
 40
0.0
 40
0.0
 40
0.4999999999999977
 40
0.4999999999999977
 40
0.7499999999999988
 40
0.7499999999999988
 40
1.0
 40
1.0
 40
1.0
 40
1.0
 10
164.2545315638118
 20
99.18258870834535
 30
0.0
 10
164.2733347966635
 20
99.25056903260774
 30
0.0
 10
164.2988714556827
 20
99.31665942040455
 30
0.0
 10
164.3590976296312
 20
99.40572403285168
 30
0.0
 10
164.3830237070312
 20
99.43352511987162
 30
0.0
 10
164.4410846272125
 20
99.47648419309647
 30
0.0
 10
164.4768863258384
 20
99.49162083975276
 30
0.0
 10
164.5143391849472
 20
99.49162083975276
 30
0.0
  0
ELLIPSE
  5
AE
330
1F
100
AcDbEntity
  8
0
  6
Continuous
 62
     7
370
    15
100
AcDbEllipse
 10
174.5313663554
 20
105.3208338354
 30
0.0
 11
9.367417879781669
 21
19.74174915274995
 31
0.0
210
0.0
220
0.0
230
1.0
 40
0.3419987131
 41
2.043618610118599
 42
2.990520924662738
  0
SPLINE
  5
AF
330
1F
100
AcDbEntity
  8
0
  6
Continuous
 62
     7
370
    15
100
AcDbSpline
210
0.0
220
0.0
230
1.0
 70
     8
 71
     3
 72
    18
 73
    14
 74
     0
 42
0.00000001
 43
0.00000001
 12
1.0
 22
0.0
 32
0.0
 13
1.0
 23
0.0
 33
0.0
 40
0.0
 40
0.0
 40
0.0
 40
0.0
 40
0.2499999999999997
 40
0.2499999999999997
 40
0.4999999999999993
 40
0.4999999999999993
 40
0.6249999999999994
 40
0.6249999999999994
 40
0.7499999999999997
 40
0.7499999999999997
 40
0.8749999999999998
 40
0.8749999999999998
 40
1.0
 40
1.0
 40
1.0
 40
1.0
 10
156.326352865384
 20
91.48964545272565
 30
0.0
 10
156.3606496848358
 20
91.48878379724383
 30
0.0
 10
156.398460964813
 20
91.48903540033878
 30
0.0
 10
156.485033331993
 20
91.49143391295063
 30
0.0
 10
156.5333724620759
 20
91.49360489768253
 30
0.0
 10
156.6226448193983
 20
91.49769977597776
 30
0.0
 10
156.6551862851742
 20
91.49920439392737
 30
0.0
 10
156.7313624850277
 20
91.50216745189549
 30
0.0
 10
156.7745785450223
 20
91.50365479015127
 30
0.0
 10
156.8802678469882
 20
91.50528020147496
 30
0.0
 10
156.9452389057027
 20
91.50523796040105
 30
0.0
 10
157.0788992940605
 20
91.50121578708004
 30
0.0
 10
157.1382057473967
 20
91.49767456025656
 30
0.0
 10
157.1874602940727
 20
91.49410785282045
 30
0.0
  0
SPLINE
  5
B0
330
1F
100
AcDbEntity
  8
0
  6
Continuous
 62
     7
370
    15
100
AcDbSpline
210
0.0
220
0.0
230
1.0
 70
     8
 71
     3
 72
    14
 73
    10
 74
     0
 42
0.00000001
 43
0.00000001
 12
1.0
 22
0.0
 32
0.0
 13
1.0
 23
0.0
 33
0.0
 40
0.0
 40
0.0
 40
0.0
 40
0.0
 40
0.1250000000000012
 40
0.1250000000000012
 40
0.2500000000000025
 40
0.2500000000000025
 40
0.5000000000000003
 40
0.5000000000000003
 40
1.0
 40
1.0
 40
1.0
 40
1.0
 10
157.1874602940418
 20
91.49410785283942
 30
0.0
 10
157.1989870717592
 20
91.49327315540538
 30
0.0
 10
157.2123398794117
 20
91.49153274112523
 30
0.0
 10
157.2424824520119
 20
91.48428515112492
 30
0.0
 10
157.2575429776265
 20
91.47893811689694
 30
0.0
 10
157.2928893315547
 20
91.46319084666851
 30
0.0
 10
157.3066214312837
 20
91.45335257250723
 30
0.0
 10
157.3399926769748
 20
91.42714858655675
 30
0.0
 10
157.3509330448287
 20
91.41306068515613
 30
0.0
 10
157.359586169842
 20
91.40028706166777
 30
0.0
  0
LINE
  5
B1
330
1F
100
AcDbEntity
  8
0
  6
Continuous
 62
     7
370
    15
100
AcDbLine
 10
157.382437188
 20
99.8153888878
 30
0.0
 11
157.382437188
 21
91.2310138602
 31
0.0
  0
SPLINE
  5
B2
330
1F
100
AcDbEntity
  8
0
  6
Continuous
 62
     7
370
    15
100
AcDbSpline
210
0.0
220
0.0
230
1.0
 70
     8
 71
     3
 72
    16
 73
    12
 74
     0
 42
0.00000001
 43
0.00000001
 12
1.0
 22
0.0
 32
0.0
 13
1.0
 23
0.0
 33
0.0
 40
0.0
 40
0.0
 40
0.0
 40
0.0
 40
0.4999999999999972
 40
0.4999999999999972
 40
0.7499999999999973
 40
0.7499999999999973
 40
0.8749999999999976
 40
0.8749999999999976
 40
0.9374999999999988
 40
0.9374999999999988
 40
1.0
 40
1.0
 40
1.0
 40
1.0
 10
157.382437182948
 20
99.81538906844162
 30
0.0
 10
157.382437182948
 20
99.93296444946112
 30
0.0
 10
157.378553757789
 20
100.0516602025624
 30
0.0
 10
157.3537384325144
 20
100.2324176805549
 30
0.0
 10
157.3428989848019
 20
100.2940617573278
 30
0.0
 10
157.3096832027531
 20
100.3833987316691
 30
0.0
 10
157.2963014591243
 20
100.4136582630943
 30
0.0
 10
157.2607918092621
 20
100.4471745070817
 30
0.0
 10
157.2453748427612
 20
100.4553128528878
 30
0.0
 10
157.2136738206127
 20
100.4552974434564
 30
0.0
 10
157.1995275356618
 20
100.4482552061005
 30
0.0
 10
157.1874602940722
 20
100.4391141424909
 30
0.0
  0
SPLINE
  5
B3
330
1F
100
AcDbEntity
  8
0
  6
Continuous
 62
     7
370
    15
100
AcDbSpline
210
0.0
220
0.0
230
1.0
 70
     8
 71
     3
 72
    18
 73
    14
 74
     0
 42
0.00000001
 43
0.00000001
 12
1.0
 22
0.0
 32
0.0
 13
1.0
 23
0.0
 33
0.0
 40
0.0
 40
0.0
 40
0.0
 40
0.0
 40
0.1249999999999997
 40
0.1249999999999997
 40
0.2499999999999993
 40
0.2499999999999993
 40
0.374999999999999
 40
0.374999999999999
 40
0.4999999999999987
 40
0.4999999999999987
 40
0.7499999999999993
 40
0.7499999999999993
 40
1.0
 40
1.0
 40
1.0
 40
1.0
 10
157.1874602940784
 20
100.4391141424837
 30
0.0
 10
157.1387557103904
 20
100.4022199032931
 30
0.0
 10
157.0802472276149
 20
100.3726885988672
 30
0.0
 10
156.9485204123451
 20
100.3634526255883
 30
0.0
 10
156.8837623408476
 20
100.3865158001453
 30
0.0
 10
156.7785517386969
 20
100.4540339217927
 30
0.0
 10
156.7353355901767
 20
100.4970450184432
 30
0.0
 10
156.6591572740928
 20
100.5872870404393
 30
0.0
 10
156.6263024418016
 20
100.6349179219146
 30
0.0
 10
156.5359345358406
 20
100.7819822212642
 30
0.0
 10
156.4865118780011
 20
100.8858955465687
 30
0.0
 10
156.3988607524094
 20
101.0970295102091
 30
0.0
 10
156.3607992050189
 20
101.2047522549679
 30
0.0
 10
156.326352865385
 20
101.3140853708773
 30
0.0
  0
SPLINE
  5
B4
330
1F
100
AcDbEntity
  8
0
  6
Continuous
 62
     7
370
    15
100
AcDbSpline
210
0.0
220
0.0
230
1.0
 70
     8
 71
     3
 72
     8
 73
     4
 74
     0
 42
0.00000001
 43
0.00000001
 12
1.0
 22
0.0
 32
0.0
 13
1.0
 23
0.0
 33
0.0
 40
0.0
 40
0.0
 40
0.0
 40
0.0
 40
1.0
 40
1.0
 40
1.0
 40
1.0
 10
156.2611168393882
 20
101.5492891450061
 30
0.0
 10
156.2805430446871
 20
101.4696968734333
 30
0.0
 10
156.3020398691156
 20
101.3912551273006
 30
0.0
 10
156.326352865385
 20
101.3140853708772
 30
0.0
  0
SPLINE
  5
B5
330
1F
100
AcDbEntity
  8
0
  6
Continuous
 62
     7
370
    15
100
AcDbSpline
210
0.0
220
0.0
230
1.0
 70
     8
 71
     3
 72
     8
 73
     4
 74
     0
 42
0.00000001
 43
0.00000001
 12
1.0
 22
0.0
 32
0.0
 13
1.0
 23
0.0
 33
0.0
 40
0.0
 40
0.0
 40
0.0
 40
0.0
 40
1.0
 40
1.0
 40
1.0
 40
1.0
 10
156.326352865385
 20
109.3275822999318
 30
0.0
 10
156.3020398691156
 20
109.2504125435085
 30
0.0
 10
156.2805430446871
 20
109.1719707973757
 30
0.0
 10
156.2611168393882
 20
109.092378525803
 30
0.0
  0
SPLINE
  5
B6
330
1F
100
AcDbEntity
  8
0
  6
Continuous
 62
     7
370
    15
100
AcDbSpline
210
0.0
220
0.0
230
1.0
 70
     8
 71
     3
 72
    18
 73
    14
 74
     0
 42
0.00000001
 43
0.00000001
 12
1.0
 22
0.0
 32
0.0
 13
1.0
 23
0.0
 33
0.0
 40
0.0
 40
0.0
 40
0.0
 40
0.0
 40
0.2500000000000007
 40
0.2500000000000007
 40
0.5000000000000013
 40
0.5000000000000013
 40
0.625000000000001
 40
0.625000000000001
 40
0.7500000000000007
 40
0.7500000000000007
 40
0.8750000000000003
 40
0.8750000000000003
 40
1.0
 40
1.0
 40
1.0
 40
1.0
 10
156.326352865385
 20
109.3275822999317
 30
0.0
 10
156.3606511843977
 20
109.4364455965248
 30
0.0
 10
156.3984655817096
 20
109.5434530197611
 30
0.0
 10
156.4850536427832
 20
109.7524878438994
 30
0.0
 10
156.5334037484619
 20
109.8546579378889
 30
0.0
 10
156.6227203372617
 20
110.0013387094537
 30
0.0
 10
156.65528069275
 20
110.0491404079892
 30
0.0
 10
156.7315263264789
 20
110.1406959460146
 30
0.0
 10
156.7746856962588
 20
110.1843753380065
 30
0.0
 10
156.880414520277
 20
110.2537295553331
 30
0.0
 10
156.9454116973316
 20
110.277845868999
 30
0.0
 10
157.0788961872858
 20
110.2696416469608
 30
0.0
 10
157.1382235807312
 20
110.2398508613689
 30
0.0
 10
157.1874602940727
 20
110.2025535283178
 30
0.0
  0
SPLINE
  5
B7
330
1F
100
AcDbEntity
  8
0
  6
Continuous
 62
     7
370
    15
100
AcDbSpline
210
0.0
220
0.0
230
1.0
 70
     8
 71
     3
 72
    16
 73
    12
 74
     0
 42
0.00000001
 43
0.00000001
 12
1.0
 22
0.0
 32
0.0
 13
1.0
 23
0.0
 33
0.0
 40
0.0
 40
0.0
 40
0.0
 40
0.0
 40
0.0625000000000001
 40
0.0625000000000001
 40
0.1250000000000002
 40
0.1250000000000002
 40
0.2500000000000002
 40
0.2500000000000002
 40
0.5000000000000001
 40
0.5000000000000001
 40
1.0
 40
1.0
 40
1.0
 40
1.0
 10
157.1874602940418
 20
110.2025535282694
 30
0.0
 10
157.1995301273177
 20
110.1934105014236
 30
0.0
 10
157.2138057822511
 20
110.1863660537324
 30
0.0
 10
157.2452701943755
 20
110.1863589818338
 30
0.0
 10
157.2607707191859
 20
110.1944869506307
 30
0.0
 10
157.2962096157928
 20
110.2278954116379
 30
0.0
 10
157.3098022318962
 20
110.2585625781001
 30
0.0
 10
157.342796550289
 20
110.347383572182
 30
0.0
 10
157.3535839436077
 20
110.4082862177298
 30
0.0
 10
157.3786371908868
 20
110.5902942951082
 30
0.0
 10
157.3824371829481
 20
110.7089830101468
 30
0.0
 10
157.3824371829481
 20
110.8262786023674
 30
0.0
  0
LINE
  5
B8
330
1F
100
AcDbEntity
  8
0
  6
Continuous
 62
     7
370
    15
100
AcDbLine
 10
157.382437188
 20
119.4106538106
 30
0.0
 11
157.382437188
 21
110.826278783
 31
0.0
  0
SPLINE
  5
B9
330
1F
100
AcDbEntity
  8
0
  6
Continuous
 62
     7
370
    15
100
AcDbSpline
210
0.0
220
0.0
230
1.0
 70
     8
 71
     3
 72
    16
 73
    12
 74
     0
 42
0.00000001
 43
0.00000001
 12
1.0
 22
0.0
 32
0.0
 13
1.0
 23
0.0
 33
0.0
 40
0.0
 40
0.0
 40
0.0
 40
0.0
 40
0.4999999999999989
 40
0.4999999999999989
 40
0.7499999999999974
 40
0.7499999999999974
 40
0.8749999999999977
 40
0.8749999999999977
 40
0.9374999999999988
 40
0.9374999999999988
 40
1.0
 40
1.0
 40
1.0
 40
1.0
 10
157.382437182948
 20
119.3056457420646
 30
0.0
 10
157.382437182948
 20
119.2900805146252
 30
0.0
 10
157.378553757789
 20
119.2709091367772
 30
0.0
 10
157.3537384325144
 20
119.2321367547954
 30
0.0
 10
157.3428989848019
 20
119.2174859785929
 30
0.0
 10
157.3096832027531
 20
119.1904417346132
 30
0.0
 10
157.2963014591243
 20
119.1804636354732
 30
0.0
 10
157.2607918092621
 20
119.1639890996862
 30
0.0
 10
157.2453748427612
 20
119.1582370088963
 30
0.0
 10
157.2136738206127
 20
119.1503164884696
 30
0.0
 10
157.1995275356618
 20
119.1484336524509
 30
0.0
 10
157.1874602940722
 20
119.1475598179886
 30
0.0
  0
SPLINE
  5
BA
330
1F
100
AcDbEntity
  8
0
  6
Continuous
 62
     7
370
    15
100
AcDbSpline
210
0.0
220
0.0
230
1.0
 70
     8
 71
     3
 72
    18
 73
    14
 74
     0
 42
0.00000001
 43
0.00000001
 12
1.0
 22
0.0
 32
0.0
 13
1.0
 23
0.0
 33
0.0
 40
0.0
 40
0.0
 40
0.0
 40
0.0
 40
0.125
 40
0.125
 40
0.25
 40
0.25
 40
0.375
 40
0.375
 40
0.5
 40
0.5
 40
0.75
 40
0.75
 40
1.0
 40
1.0
 40
1.0
 40
1.0
 10
157.1874602940784
 20
119.1475598179884
 30
0.0
 10
157.1387561650616
 20
119.1440329683702
 30
0.0
 10
157.0802484958571
 20
119.1405326951726
 30
0.0
 10
156.9485228332262
 20
119.1364897112847
 30
0.0
 10
156.8837651946059
 20
119.1363781366541
 30
0.0
 10
156.7785547779868
 20
119.1379103214155
 30
0.0
 10
156.7353387430466
 20
119.1393654736306
 30
0.0
 10
156.6591605215657
 20
119.1422907351603
 30
0.0
 10
156.6263057538816
 20
119.1438010656686
 30
0.0
 10
156.5359380350397
 20
119.1479430583569
 30
0.0
 10
156.4865156658503
 20
119.1501811433435
 30
0.0
 10
156.3988632037623
 20
119.1526324263899
 30
0.0
 10
156.3608004675279
 20
119.152887661751
 30
0.0
 10
156.3263528653845
 20
119.1520222180831
 30
0.0
  0
SPLINE
  5
BB
330
1F
100
AcDbEntity
  8
0
  6
Continuous
 62
     7
370
    15
100
AcDbSpline
210
0.0
220
0.0
230
1.0
 70
     8
 71
     3
 72
    16
 73
    12
 74
     0
 42
0.00000001
 43
0.00000001
 12
1.0
 22
0.0
 32
0.0
 13
1.0
 23
0.0
 33
0.0
 40
0.0
 40
0.0
 40
0.0
 40
0.0
 40
0.2500000000000001
 40
0.2500000000000001
 40
0.3750000000000001
 40
0.3750000000000001
 40
0.5000000000000001
 40
0.5000000000000001
 40
0.7500000000000001
 40
0.7500000000000001
 40
1.0
 40
1.0
 40
1.0
 40
1.0
 10
155.8824371829479
 20
108.2670322314739
 30
0.0
 10
155.8019003735525
 20
107.7979594046108
 30
0.0
 10
155.7418629647503
 20
107.3175957544308
 30
0.0
 10
155.681125017503
 20
106.5804114752899
 30
0.0
 10
155.6658025364601
 20
106.3318930720628
 30
0.0
 10
155.6452195846822
 20
105.8291096268491
 30
0.0
 10
155.6400200376456
 20
105.5742510738244
 30
0.0
 10
155.6399663271054
 20
104.8179737341037
 30
0.0
 10
155.6601636643745
 20
104.3193155347938
 30
0.0
 10
155.7408419714475
 20
103.3328925640496
 30
0.0
 10
155.8018883197888
 20
102.8437784712766
 30
0.0
 10
155.882437182948
 20
102.3746354393352
 30
0.0
  0
LINE
  5
BC
330
1F
100
AcDbEntity
  8
0
  6
Continuous
 62
     7
370
    15
100
AcDbLine
 10
155.8824371604
 20
102.3746353831
 30
0.0
 11
155.8824371604
 21
101.2196300809
 31
0.0
  0
LINE
  5
BD
330
1F
100
AcDbEntity
  8
0
  6
Continuous
 62
     7
370
    15
100
AcDbLine
 10
135.0824362889
 20
109.1607534118
 30
0.0
 11
135.0824362889
 21
101.480914259
 31
0.0
  0
LINE
  5
BE
330
1F
100
AcDbEntity
  8
0
  6
Continuous
 62
     7
370
    15
100
AcDbLine
 10
155.8824371604
 20
109.4220375899
 30
0.0
 11
155.8824371604
 21
108.2670322877
 31
0.0
  0
SPLINE
  5
BF
330
1F
100
AcDbEntity
  8
0
  6
Continuous
 62
     7
370
    15
100
AcDbSpline
210
0.0
220
0.0
230
1.0
 70
     8
 71
     3
 72
     8
 73
     4
 74
     0
 42
0.00000001
 43
0.00000001
 12
1.0
 22
0.0
 32
0.0
 13
1.0
 23
0.0
 33
0.0
 40
0.0
 40
0.0
 40
0.0
 40
0.0
 40
1.0
 40
1.0
 40
1.0
 40
1.0
 10
156.0873972050087
 20
102.3743430310407
 30
0.0
 10
156.1381242877311
 20
102.0909919097215
 30
0.0
 10
156.1960116007182
 20
101.8160357255817
 30
0.0
 10
156.2611168393883
 20
101.5492891450061
 30
0.0
  0
SPLINE
  5
C0
330
1F
100
AcDbEntity
  8
0
  6
Continuous
 62
     7
370
    15
100
AcDbSpline
210
0.0
220
0.0
230
1.0
 70
     8
 71
     3
 72
    24
 73
    20
 74
     0
 42
0.00000001
 43
0.00000001
 12
1.0
 22
0.0
 32
0.0
 13
1.0
 23
0.0
 33
0.0
 40
0.0
 40
0.0
 40
0.0
 40
0.0
 40
0.2499999999999972
 40
0.2499999999999972
 40
0.3749999999999951
 40
0.3749999999999951
 40
0.4374999999999941
 40
0.4374999999999941
 40
0.4687499999999938
 40
0.4687499999999938
 40
0.4999999999999936
 40
0.4999999999999936
 40
0.5624999999999937
 40
0.5624999999999937
 40
0.6249999999999937
 40
0.6249999999999937
 40
0.7499999999999958
 40
0.7499999999999958
 40
1.0
 40
1.0
 40
1.0
 40
1.0
 10
155.8824371829397
 20
102.3746354393339
 30
0.0
 10
155.8828402123136
 20
102.4679037319636
 30
0.0
 10
155.8848699520287
 20
102.5616612908126
 30
0.0
 10
155.8941786634485
 20
102.7032511764522
 30
0.0
 10
155.8981046565631
 20
102.7504315950615
 30
0.0
 10
155.9090340164791
 20
102.8210276417469
 30
0.0
 10
155.9131556445735
 20
102.8448075555117
 30
0.0
 10
155.925050165756
 20
102.8782587025589
 30
0.0
 10
155.9303369777098
 20
102.8904136546284
 30
0.0
 10
155.9469049092247
 20
102.8982962935961
 30
0.0
 10
155.954831617992
 20
102.8907326944941
 30
0.0
 10
155.9718239562171
 20
102.8669402632672
 30
0.0
 10
155.979221657008
 20
102.8467517854228
 30
0.0
 10
155.9933240473498
 20
102.806302160803
 30
0.0
 10
155.9994772046421
 20
102.7854464864055
 30
0.0
 10
156.0167909381032
 20
102.7223214511045
 30
0.0
 10
156.0267959789917
 20
102.679342339203
 30
0.0
 10
156.0551524352225
 20
102.5496166949143
 30
0.0
 10
156.0717009745687
 20
102.4620189677784
 30
0.0
 10
156.0873972050087
 20
102.3743430310407
 30
0.0
  0
SPLINE
  5
C1
330
1F
100
AcDbEntity
  8
0
  6
Continuous
 62
     7
370
    15
100
AcDbSpline
210
0.0
220
0.0
230
1.0
 70
     8
 71
     3
 72
    24
 73
    20
 74
     0
 42
0.00000001
 43
0.00000001
 12
1.0
 22
0.0
 32
0.0
 13
1.0
 23
0.0
 33
0.0
 40
0.0
 40
0.0
 40
0.0
 40
0.0
 40
0.2500000000000076
 40
0.2500000000000076
 40
0.37500000000001
 40
0.37500000000001
 40
0.4375000000000103
 40
0.4375000000000103
 40
0.5000000000000105
 40
0.5000000000000105
 40
0.5312500000000103
 40
0.5312500000000103
 40
0.56250000000001
 40
0.56250000000001
 40
0.6250000000000085
 40
0.6250000000000085
 40
0.7500000000000059
 40
0.7500000000000059
 40
1.0
 40
1.0
 40
1.0
 40
1.0
 10
156.0873972050038
 20
108.2673246397402
 30
0.0
 10
156.0716281600942
 20
108.1792419762518
 30
0.0
 10
156.0550139955338
 20
108.0912971597448
 30
0.0
 10
156.0264818680405
 20
107.9609497924855
 30
0.0
 10
156.0163942344867
 20
107.9176886146847
 30
0.0
 10
155.9989064116375
 20
107.8542528388514
 30
0.0
 10
155.9926966037111
 20
107.8333387153084
 30
0.0
 10
155.9784187441282
 20
107.7928639236252
 30
0.0
 10
155.9708475817764
 20
107.7723862801663
 30
0.0
 10
155.953427756599
 20
107.7495399006347
 30
0.0
 10
155.9449436741411
 20
107.7429881035982
 30
0.0
 10
155.928907600528
 20
107.7535594788386
 30
0.0
 10
155.9240872282523
 20
107.7656505191217
 30
0.0
 10
155.9126803276493
 20
107.7992937623414
 30
0.0
 10
155.9086593659401
 20
107.8227014416376
 30
0.0
 10
155.897905354162
 20
107.8932900446971
 30
0.0
 10
155.8940334685395
 20
107.9402550722182
 30
0.0
 10
155.8848655037393
 20
108.0808319368206
 30
0.0
 10
155.8828371692262
 20
108.1744681664377
 30
0.0
 10
155.882437182948
 20
108.2670322314738
 30
0.0
  0
SPLINE
  5
C2
330
1F
100
AcDbEntity
  8
0
  6
Continuous
 62
     7
370
    15
100
AcDbSpline
210
0.0
220
0.0
230
1.0
 70
     8
 71
     3
 72
     8
 73
     4
 74
     0
 42
0.00000001
 43
0.00000001
 12
1.0
 22
0.0
 32
0.0
 13
1.0
 23
0.0
 33
0.0
 40
0.0
 40
0.0
 40
0.0
 40
0.0
 40
1.0
 40
1.0
 40
1.0
 40
1.0
 10
156.2611168393883
 20
109.0923785258029
 30
0.0
 10
156.196011600716
 20
108.8256319452185
 30
0.0
 10
156.1381242877272
 20
108.5506757610694
 30
0.0
 10
156.0873972050036
 20
108.2673246397403
 30
0.0
  0
LINE
  5
C3
330
1F
100
AcDbEntity
  8
0
  6
Continuous
 62
     7
370
    15
100
AcDbLine
 10
133.5824369743
 20
108.7277405687
 30
0.0
 11
133.5824369743
 21
101.9139271021
 31
0.0
  0
LINE
  5
C4
330
1F
100
AcDbEntity
  8
0
  6
Continuous
 62
     7
370
    15
100
AcDbLine
 10
156.0873971611
 20
119.146018501
 30
0.0
 11
156.3263528805
 21
119.1520218063
 31
0.0
  0
LINE
  5
C5
330
1F
100
AcDbEntity
  8
0
  6
Continuous
 62
     7
370
    15
100
AcDbLine
 10
155.8824371604
 20
91.3007354621
 30
0.0
 11
155.8824371604
 21
101.2196300809
 31
0.0
  0
ARC
  5
C6
330
1F
100
AcDbEntity
  8
0
  6
Continuous
 62
     7
370
    15
100
AcDbCircle
 10
156.0823740939
 20
91.2957119397
 30
0.0
 40
0.2000000000000059
100
AcDbArc
 50
88.5608333333
 51
178.5608333333
  0
LINE
  5
C7
330
1F
100
AcDbEntity
  8
0
  6
Continuous
 62
     7
370
    15
100
AcDbLine
 10
135.0824362889
 20
91.8233033527
 30
0.0
 11
135.0824362889
 21
101.480914259
 31
0.0
  0
LINE
  5
C8
330
1F
100
AcDbEntity
  8
0
  6
Continuous
 62
     7
370
    15
100
AcDbLine
 10
135.0824362889
 20
91.8233033527
 30
0.0
 11
155.8824371604
 21
91.3007354621
 31
0.0
  0
LINE
  5
C9
330
1F
100
AcDbEntity
  8
0
  6
Continuous
 62
     7
370
    15
100
AcDbLine
 10
155.8824371604
 20
109.4220375899
 30
0.0
 11
155.8824371604
 21
119.3409322087
 31
0.0
  0
ARC
  5
CA
330
1F
100
AcDbEntity
  8
0
  6
Continuous
 62
     7
370
    15
100
AcDbCircle
 10
156.0823740939
 20
119.3459557311
 30
0.0
 40
0.2000000000000055
100
AcDbArc
 50
181.4391666667
 51
271.4391666667
  0
LINE
  5
CB
330
1F
100
AcDbEntity
  8
0
  6
Continuous
 62
     7
370
    15
100
AcDbLine
 10
135.0824362889
 20
109.1607534118
 30
0.0
 11
135.0824362889
 21
118.8183643181
 31
0.0
  0
LINE
  5
CC
330
1F
100
AcDbEntity
  8
0
  6
Continuous
 62
     7
370
    15
100
AcDbLine
 10
135.0824362889
 20
118.8183643181
 30
0.0
 11
155.8824371604
 21
119.3409322087
 31
0.0
  0
LINE
  5
CD
330
1F
100
AcDbEntity
  8
0
  6
Continuous
 62
     7
370
    15
100
AcDbLine
 10
156.0873971611
 20
91.4956491698
 30
0.0
 11
156.3263528805
 21
91.4896458645
 31
0.0
  0
LINE
  5
CE
330
1F
100
AcDbEntity
  8
0
  6
Continuous
 62
     7
370
    15
100
AcDbLine
 10
133.5824369743
 20
92.689329039
 30
0.0
 11
135.0824362889
 21
91.8233033527
 31
0.0
  0
LINE
  5
CF
330
1F
100
AcDbEntity
  8
0
  6
Continuous
 62
     7
370
    15
100
AcDbLine
 10
133.5824369743
 20
92.689329039
 30
0.0
 11
133.5824369743
 21
101.9139271021
 31
0.0
  0
LINE
  5
D0
330
1F
100
AcDbEntity
  8
0
  6
Continuous
 62
     7
370
    15
100
AcDbLine
 10
133.5824369743
 20
117.9523386318
 30
0.0
 11
135.0824362889
 21
118.8183643181
 31
0.0
  0
LINE
  5
D1
330
1F
100
AcDbEntity
  8
0
  6
Continuous
 62
     7
370
    15
100
AcDbLine
 10
133.5824369743
 20
108.7277405687
 30
0.0
 11
133.5824369743
 21
117.9523386318
 31
0.0
  0
SPLINE
  5
D2
330
1F
100
AcDbEntity
  8
0
  6
Continuous
 62
     7
370
    15
100
AcDbSpline
210
0.0
220
0.0
230
1.0
 70
     8
 71
     3
 72
    16
 73
    12
 74
     0
 42
0.00000001
 43
0.00000001
 12
1.0
 22
0.0
 32
0.0
 13
1.0
 23
0.0
 33
0.0
 40
0.0
 40
0.0
 40
0.0
 40
0.0
 40
0.2499999999999999
 40
0.2499999999999999
 40
0.3750000000000014
 40
0.3750000000000014
 40
0.5000000000000029
 40
0.5000000000000029
 40
0.7500000000000014
 40
0.7500000000000014
 40
1.0
 40
1.0
 40
1.0
 40
1.0
 10
218.9866406680177
 20
117.6153319469348
 30
0.0
 10
219.0548619936968
 20
117.6628013228958
 30
0.0
 10
219.1552423359619
 20
117.6995101425449
 30
0.0
 10
219.3547705262431
 20
117.742214509696
 30
0.0
 10
219.4300986739967
 20
117.7544132672781
 30
0.0
 10
219.5933643170541
 20
117.7746889599383
 30
0.0
 10
219.6816253322112
 20
117.7828758362745
 30
0.0
 10
219.9661488404655
 20
117.8029356799936
 30
0.0
 10
220.1850745990234
 20
117.8103187210953
 30
0.0
 10
220.6520668635947
 20
117.8186850260899
 30
0.0
 10
220.9044971144866
 20
117.8199013749137
 30
0.0
 10
221.1682236205749
 20
117.8204264223626
 30
0.0
  0
ELLIPSE
  5
D3
330
1F
100
AcDbEntity
  8
0
  6
Continuous
 62
     7
370
    15
100
AcDbEllipse
 10
219.8198026689
 20
105.3208338354
 30
0.0
 11
-0.2516063682710126
 21
12.49981921343799
 31
0.0
210
0.0
220
0.0
230
1.0
 40
0.2671959542
 41
0.1762003290777946
 42
2.815009419910953
  0
SPLINE
  5
D4
330
1F
100
AcDbEntity
  8
0
  6
Continuous
 62
     7
370
    15
100
AcDbSpline
210
0.0
220
0.0
230
1.0
 70
     8
 71
     3
 72
    16
 73
    12
 74
     0
 42
0.00000001
 43
0.00000001
 12
1.0
 22
0.0
 32
0.0
 13
1.0
 23
0.0
 33
0.0
 40
0.0
 40
0.0
 40
0.0
 40
0.0
 40
0.2500000000000043
 40
0.2500000000000043
 40
0.3750000000000064
 40
0.3750000000000064
 40
0.5000000000000033
 40
0.5000000000000033
 40
0.7500000000000017
 40
0.7500000000000017
 40
1.0
 40
1.0
 40
1.0
 40
1.0
 10
221.1682236205749
 20
92.95693198988619
 30
0.0
 10
220.9045023352631
 20
92.96650209670617
 30
0.0
 10
220.6554770762477
 20
92.98142348497791
 30
0.0
 10
220.3034509324267
 20
93.01514678133854
 30
0.0
 10
220.1891931451894
 20
93.02843006224607
 30
0.0
 10
219.9746515086116
 20
93.05896136046665
 30
0.0
 10
219.8735881639945
 20
93.07625736820593
 30
0.0
 10
219.5887458267046
 20
93.13541250360988
 30
0.0
 10
219.4221188383138
 20
93.18534240171486
 30
0.0
 10
219.1569213343634
 20
93.3056800371168
 30
0.0
 10
219.0548674477001
 20
93.37714092199582
 30
0.0
 10
218.9866406680177
 20
93.46013768994067
 30
0.0
  0
ELLIPSE
  5
D5
330
1F
100
AcDbEntity
  8
0
  6
Continuous
 62
     7
370
    15
100
AcDbEllipse
 10
217.8624908066
 20
108.8936885455
 30
0.0
 11
0.08291753437347894
 21
2.335796540899949
 31
0.0
210
0.0
220
0.0
230
1.0
 40
0.2540400005
 41
0.0
 42
6.283185307179586
  0
SPLINE
  5
D6
330
1F
100
AcDbEntity
  8
0
  6
Continuous
 62
     7
370
    15
100
AcDbSpline
210
0.0
220
0.0
230
1.0
 70
     8
 71
     3
 72
     8
 73
     4
 74
     0
 42
0.00000001
 43
0.00000001
 12
1.0
 22
0.0
 32
0.0
 13
1.0
 23
0.0
 33
0.0
 40
0.0
 40
0.0
 40
0.0
 40
0.0
 40
1.0
 40
1.0
 40
1.0
 40
1.0
 10
221.8844181468848
 20
92.64244383113821
 30
0.0
 10
221.8813887332007
 20
92.64547312652157
 30
0.0
 10
221.8783594847255
 20
92.64850289947202
 30
0.0
 10
221.8753304017614
 20
92.65153315019187
 30
0.0
  0
SPLINE
  5
D7
330
1F
100
AcDbEntity
  8
0
  6
Continuous
 62
     7
370
    15
100
AcDbSpline
210
0.0
220
0.0
230
1.0
 70
     8
 71
     3
 72
    10
 73
     6
 74
     0
 42
0.00000001
 43
0.00000001
 12
1.0
 22
0.0
 32
0.0
 13
1.0
 23
0.0
 33
0.0
 40
0.0
 40
0.0
 40
0.0
 40
0.0
 40
0.5
 40
0.5
 40
1.0
 40
1.0
 40
1.0
 40
1.0
 10
221.8753304017614
 20
92.65153315019194
 30
0.0
 10
221.7811050552813
 20
92.74579482191952
 30
0.0
 10
221.669836094428
 20
92.82011567152843
 30
0.0
 10
221.4272691244291
 20
92.92375545294058
 30
0.0
 10
221.2977637348364
 20
92.95223114547234
 30
0.0
 10
221.1682236205749
 20
92.95693198988651
 30
0.0
  0
SPLINE
  5
D8
330
1F
100
AcDbEntity
  8
0
  6
Continuous
 62
     7
370
    15
100
AcDbSpline
210
0.0
220
0.0
230
1.0
 70
     8
 71
     3
 72
    10
 73
     6
 74
     0
 42
0.00000001
 43
0.00000001
 12
1.0
 22
0.0
 32
0.0
 13
1.0
 23
0.0
 33
0.0
 40
0.0
 40
0.0
 40
0.0
 40
0.0
 40
0.5
 40
0.5
 40
1.0
 40
1.0
 40
1.0
 40
1.0
 10
221.1682236205749
 20
117.8204264223626
 30
0.0
 10
221.2977540350681
 20
117.8206843016887
 30
0.0
 10
221.4268685006161
 20
117.8459276537777
 30
0.0
 10
221.6695350638824
 20
117.9456883429147
 30
0.0
 10
221.7810868636529
 20
118.0194853470544
 30
0.0
 10
221.8753304017618
 20
118.1137253880964
 30
0.0
  0
SPLINE
  5
D9
330
1F
100
AcDbEntity
  8
0
  6
Continuous
 62
     7
370
    15
100
AcDbSpline
210
0.0
220
0.0
230
1.0
 70
     8
 71
     3
 72
     8
 73
     4
 74
     0
 42
0.00000001
 43
0.00000001
 12
1.0
 22
0.0
 32
0.0
 13
1.0
 23
0.0
 33
0.0
 40
0.0
 40
0.0
 40
0.0
 40
0.0
 40
1.0
 40
1.0
 40
1.0
 40
1.0
 10
221.8753304017614
 20
118.1137253880969
 30
0.0
 10
221.8783594847255
 20
118.1167543586618
 30
0.0
 10
221.8813887332007
 20
118.1197834914343
 30
0.0
 10
221.8844181468848
 20
118.1228127868176
 30
0.0
  0
LINE
  5
DA
330
1F
100
AcDbEntity
  8
0
  6
Continuous
 62
     7
370
    15
100
AcDbLine
 10
235.0288532033
 20
92.4444396306
 30
0.0
 11
222.0824337855
 21
92.4444396306
 31
0.0
  0
ELLIPSE
  5
DB
330
1F
100
AcDbEntity
  8
0
  6
Continuous
 62
     7
370
    15
100
AcDbEllipse
 10
243.9776123122
 20
105.3208338354
 30
0.0
 11
9.268362359823186
 21
12.98522500655771
 31
0.0
210
0.0
220
0.0
230
1.0
 40
0.0668534593
 41
3.189273956189359
 42
3.327283054655035
  0
LINE
  5
DC
330
1F
100
AcDbEntity
  8
0
  6
Continuous
 62
     7
370
    15
100
AcDbLine
 10
222.0824337855
 20
92.4444396306
 30
0.0
 11
222.0824337855
 21
92.3208335672
 31
0.0
  0
ARC
  5
DD
330
1F
100
AcDbEntity
  8
0
  6
Continuous
 62
     7
370
    15
100
AcDbCircle
 10
234.8781106059
 20
109.6243822908
 30
0.0
 40
2.097355954543363
100
AcDbArc
 50
118.3457171046
 51
333.0466172105
  0
LINE
  5
DE
330
1F
100
AcDbEntity
  8
0
  6
Continuous
 62
     7
370
    15
100
AcDbLine
 10
246.1569882288
 20
109.4803444367
 30
0.0
 11
246.0385165468
 21
108.1295669802
 31
0.0
  0
LINE
  5
DF
330
1F
100
AcDbEntity
  8
0
  6
Continuous
 62
     7
370
    15
100
AcDbLine
 10
246.0385165468
 20
108.1295669802
 30
0.0
 11
235.0288532033
 21
92.4444396306
 31
0.0
  0
LINE
  5
E0
330
1F
100
AcDbEntity
  8
0
  6
Continuous
 62
     7
370
    15
100
AcDbLine
 10
222.0824337855
 20
92.4444396306
 30
0.0
 11
221.884419705
 21
92.6424434666
 31
0.0
  0
LINE
  5
E1
330
1F
100
AcDbEntity
  8
0
  6
Continuous
 62
     7
370
    15
100
AcDbLine
 10
221.884419705
 20
118.1228125725
 30
0.0
 11
223.2539705291
 21
119.4919955243
 31
0.0
  0
LINE
  5
E2
330
1F
100
AcDbEntity
  8
0
  6
Continuous
 62
     7
370
    15
100
AcDbLine
 10
234.6733934536
 20
120.4904552806
 30
0.0
 11
223.2539705291
 21
119.4919955243
 31
0.0
  0
ARC
  5
E3
330
1F
100
AcDbEntity
  8
0
  6
Continuous
 62
     7
370
    15
100
AcDbCircle
 10
234.8710282332
 20
109.2890740048
 30
0.0
 40
2.09440177609638
100
AcDbArc
 50
119.1308826489
 51
175.3815333095
  0
LINE
  5
E4
330
1F
100
AcDbEntity
  8
0
  6
HIDDEN
 62
     7
370
     0
100
AcDbLine
 10
177.5824367359
 20
85.9208332632
 30
0.0
 11
177.5824367359
 21
124.7208344076
 31
0.0
  0
LINE
  5
E5
330
1F
100
AcDbEntity
  8
0
  6
HIDDEN
 62
     7
370
     0
100
AcDbLine
 10
157.5824371829
 20
125.020833898
 30
0.0
 11
157.5824371829
 21
85.6208337728
 31
0.0
  0
SPLINE
  5
E6
330
1F
100
AcDbEntity
  8
0
  6
HIDDEN
 62
     7
370
     0
100
AcDbSpline
210
0.0
220
0.0
230
1.0
 70
     8
 71
     3
 72
    58
 73
    54
 74
     0
 42
0.00000001
 43
0.00000001
 12
1.0
 22
0.0
 32
0.0
 13
1.0
 23
0.0
 33
0.0
 40
-0.0625000000000001
 40
-0.0625000000000001
 40
0.0
 40
0.0
 40
0.0312499999999997
 40
0.0312499999999997
 40
0.0624999999999995
 40
0.0624999999999995
 40
0.0937499999999992
 40
0.0937499999999992
 40
0.124999999999999
 40
0.124999999999999
 40
0.1874999999999988
 40
0.1874999999999988
 40
0.2499999999999986
 40
0.2499999999999986
 40
0.2812499999999987
 40
0.2812499999999987
 40
0.3124999999999988
 40
0.3124999999999988
 40
0.343749999999999
 40
0.343749999999999
 40
0.3749999999999991
 40
0.3749999999999991
 40
0.4062499999999992
 40
0.4062499999999992
 40
0.4374999999999993
 40
0.4374999999999993
 40
0.4687499999999995
 40
0.4687499999999995
 40
0.4999999999999996
 40
0.4999999999999996
 40
0.5624999999999998
 40
0.5624999999999998
 40
0.625
 40
0.625
 40
0.65625
 40
0.65625
 40
0.6875
 40
0.6875
 40
0.7187499999999999
 40
0.7187499999999999
 40
0.7499999999999999
 40
0.7499999999999999
 40
0.7812499999999999
 40
0.7812499999999999
 40
0.8124999999999998
 40
0.8124999999999998
 40
0.8437499999999998
 40
0.8437499999999998
 40
0.8749999999999997
 40
0.8749999999999997
 40
0.9374999999999999
 40
0.9374999999999999
 40
1.0
 40
1.0
 40
1.03125
 40
1.03125
 10
167.582437182948
 20
105.0563977209565
 30
0.0
 10
167.582437182948
 20
105.4530518926285
 30
0.0
 10
167.5954192206202
 20
105.583044053469
 30
0.0
 10
167.6462700228785
 20
105.8387636659213
 30
0.0
 10
167.6847619269314
 20
105.9658223497825
 30
0.0
 10
167.7851772126579
 20
106.2079855474413
 30
0.0
 10
167.8466133519309
 20
106.322827331826
 30
0.0
 10
167.9917468282417
 20
106.5401695293962
 30
0.0
 10
168.0761685170928
 20
106.6430111772439
 30
0.0
 10
168.3527686912576
 20
106.9195546579955
 30
0.0
 10
168.5757676025247
 20
107.0685372941277
 30
0.0
 10
169.0570021201104
 20
107.2680803576824
 30
0.0
 10
169.3203015356195
 20
107.3206908307138
 30
0.0
 10
169.7118649756597
 20
107.3209048894663
 30
0.0
 10
169.8444525862644
 20
107.3079060400607
 30
0.0
 10
170.1010182918637
 20
107.2568559560343
 30
0.0
 10
170.2257280580442
 20
107.2190847172221
 30
0.0
 10
170.4679672430712
 20
107.1188928091097
 30
0.0
 10
170.5849838968449
 20
107.0563074152851
 30
0.0
 10
170.8016271016912
 20
106.9116023295746
 30
0.0
 10
170.9026338581497
 20
106.8289829881944
 30
0.0
 10
171.0894399538063
 20
106.6423389534043
 30
0.0
 10
171.1721534893381
 20
106.5413931054445
 30
0.0
 10
171.3170236187134
 20
106.3249119017628
 30
0.0
 10
171.3796939148101
 20
106.2079947367543
 30
0.0
 10
171.4801218528464
 20
105.9657982675558
 30
0.0
 10
171.5179930317761
 20
105.8411372766524
 30
0.0
 10
171.5692554295518
 20
105.5847379275844
 30
0.0
 10
171.5823890701925
 20
105.4521270022865
 30
0.0
 10
171.5825330033313
 20
105.0604523899514
 30
0.0
 10
171.5301677460665
 20
104.7971683702908
 30
0.0
 10
171.3310070827158
 20
104.315655656431
 30
0.0
 10
171.1822094093538
 20
104.0925345693861
 30
0.0
 10
170.9059087507677
 20
103.8157024208785
 30
0.0
 10
170.803143703708
 20
103.7311952065942
 30
0.0
 10
170.5859264299135
 20
103.5858742649084
 30
0.0
 10
170.4711567364758
 20
103.5243520416462
 30
0.0
 10
170.2291701993312
 20
103.4237556383743
 30
0.0
 10
170.1020876264398
 20
103.3851277502857
 30
0.0
 10
169.8464129264365
 20
103.3340496402195
 30
0.0
 10
169.7164724090923
 20
103.3209605004523
 30
0.0
 10
169.452209041331
 20
103.3207089820937
 30
0.0
 10
169.3219981476841
 20
103.3335834521501
 30
0.0
 10
169.0662482022504
 20
103.3842023492822
 30
0.0
 10
168.9392308178831
 20
103.4225501680779
 30
0.0
 10
168.6968790901314
 20
103.5227842882713
 30
0.0
 10
168.5819763108451
 20
103.5841284752613
 30
0.0
 10
168.3645541456961
 20
103.7290334797905
 30
0.0
 10
168.2616177482514
 20
103.8133723719125
 30
0.0
 10
167.9847805910944
 20
104.0897734849542
 30
0.0
 10
167.8356253500303
 20
104.3126171179967
 30
0.0
 10
167.635654764795
 20
104.7936803992473
 30
0.0
 10
167.582437182948
 20
105.0563977209565
 30
0.0
 10
167.582437182948
 20
105.4530518926285
 30
0.0
  0
SPLINE
  5
E7
330
1F
100
AcDbEntity
  8
0
  6
HIDDEN
 62
     7
370
     0
100
AcDbSpline
210
0.0
220
0.0
230
1.0
 70
     8
 71
     3
 72
    12
 73
     8
 74
     0
 42
0.00000001
 43
0.00000001
 12
1.0
 22
0.0
 32
0.0
 13
1.0
 23
0.0
 33
0.0
 40
0.0
 40
0.0
 40
0.0
 40
0.0
 40
0.2500000000000005
 40
0.2500000000000005
 40
0.500000000000001
 40
0.500000000000001
 40
1.0
 40
1.0
 40
1.0
 40
1.0
 10
164.5143391849472
 20
99.49162083975288
 30
0.0
 10
164.4768272989025
 20
99.49162083975288
 30
0.0
 10
164.4415399511978
 20
99.47681602546609
 30
0.0
 10
164.3826101029594
 20
99.43322415234024
 30
0.0
 10
164.3590843764903
 20
99.4057107262543
 30
0.0
 10
164.2988255887223
 20
99.31657899414066
 30
0.0
 10
164.2732308264329
 20
99.25019314352289
 30
0.0
 10
164.2545315638118
 20
99.18258870834546
 30
0.0
  0
LINE
  5
E8
330
1F
100
AcDbEntity
  8
0
  6
HIDDEN
 62
     7
370
     0
100
AcDbLine
 10
166.6505351022
 20
99.4916206483
 30
0.0
 11
164.5143390924
 21
99.4916206483
 31
0.0
  0
SPLINE
  5
E9
330
1F
100
AcDbEntity
  8
0
  6
HIDDEN
 62
     7
370
     0
100
AcDbSpline
210
0.0
220
0.0
230
1.0
 70
     8
 71
     3
 72
    12
 73
     8
 74
     0
 42
0.00000001
 43
0.00000001
 12
1.0
 22
0.0
 32
0.0
 13
1.0
 23
0.0
 33
0.0
 40
0.0
 40
0.0
 40
0.0
 40
0.0
 40
0.4999999999999947
 40
0.4999999999999947
 40
0.7499999999999973
 40
0.7499999999999973
 40
1.0
 40
1.0
 40
1.0
 40
1.0
 10
166.9103428020841
 20
99.18258870834546
 30
0.0
 10
166.8916495689537
 20
99.25017134478588
 30
0.0
 10
166.8659942715418
 20
99.31665391426328
 30
0.0
 10
166.8058336488554
 20
99.40564899716084
 30
0.0
 10
166.781761337101
 20
99.43365089415995
 30
0.0
 10
166.7233798167505
 20
99.47672729482514
 30
0.0
 10
166.6879109890975
 20
99.49162083975288
 30
0.0
 10
166.6505351809488
 20
99.49162083975288
 30
0.0
  0
ELLIPSE
  5
EA
330
1F
100
AcDbEntity
  8
0
  6
HIDDEN
 62
     7
370
     0
100
AcDbEllipse
 10
156.6335080105
 20
105.3208338354
 30
0.0
 11
-9.367417879781724
 21
19.74174915274994
 31
0.0
210
0.0
220
0.0
230
1.0
 40
0.3419987131
 41
3.292664382516897
 42
4.239566697061003
  0
SPLINE
  5
EB
330
1F
100
AcDbEntity
  8
0
  6
HIDDEN
 62
     7
370
     0
100
AcDbSpline
210
0.0
220
0.0
230
1.0
 70
     8
 71
     3
 72
    12
 73
     8
 74
     0
 42
0.00000001
 43
0.00000001
 12
1.0
 22
0.0
 32
0.0
 13
1.0
 23
0.0
 33
0.0
 40
0.0
 40
0.0
 40
0.0
 40
0.0
 40
0.249999999999999
 40
0.249999999999999
 40
0.499999999999998
 40
0.499999999999998
 40
1.0
 40
1.0
 40
1.0
 40
1.0
 10
166.6505351809488
 20
86.18917745517112
 30
0.0
 10
166.6880470669935
 20
86.18917745517112
 30
0.0
 10
166.7233344146982
 20
86.19368099943372
 30
0.0
 10
166.7822642629366
 20
86.207054198887
 30
0.0
 10
166.8057899894056
 20
86.21553910145813
 30
0.0
 10
166.8660487771737
 20
86.2432869052927
 30
0.0
 10
166.891643539463
 20
86.26427676903309
 30
0.0
 10
166.9103428020841
 20
86.28607755222261
 30
0.0
  0
LINE
  5
EC
330
1F
100
AcDbEntity
  8
0
  6
HIDDEN
 62
     7
370
     0
100
AcDbLine
 10
164.5143390924
 20
86.1891770993
 30
0.0
 11
166.6505351022
 21
86.1891770993
 31
0.0
  0
SPLINE
  5
ED
330
1F
100
AcDbEntity
  8
0
  6
HIDDEN
 62
     7
370
     0
100
AcDbSpline
210
0.0
220
0.0
230
1.0
 70
     8
 71
     3
 72
    12
 73
     8
 74
     0
 42
0.00000001
 43
0.00000001
 12
1.0
 22
0.0
 32
0.0
 13
1.0
 23
0.0
 33
0.0
 40
0.0
 40
0.0
 40
0.0
 40
0.0
 40
0.5000000000000007
 40
0.5000000000000007
 40
0.7500000000000003
 40
0.7500000000000003
 40
1.0
 40
1.0
 40
1.0
 40
1.0
 10
164.2545315638119
 20
86.28607755222261
 30
0.0
 10
164.2732247969423
 20
86.26428379859465
 30
0.0
 10
164.298880094354
 20
86.24326363688503
 30
0.0
 10
164.3590407170406
 20
86.21555829092131
 30
0.0
 10
164.3831130287949
 20
86.20692307472792
 30
0.0
 10
164.4414945491454
 20
86.19370842950134
 30
0.0
 10
164.4769633767984
 20
86.18917745517113
 30
0.0
 10
164.5143391849472
 20
86.18917745517113
 30
0.0
  0
ELLIPSE
  5
EE
330
1F
100
AcDbEntity
  8
0
  6
HIDDEN
 62
     7
370
     0
100
AcDbEllipse
 10
174.5313663554
 20
105.3208338354
 30
0.0
 11
9.367417879781614
 21
19.74174915274995
 31
0.0
210
0.0
220
0.0
230
1.0
 40
0.3419987131
 41
2.043618610118591
 42
2.990520924662729
  0
SPLINE
  5
EF
330
1F
100
AcDbEntity
  8
0
  6
HIDDEN
 62
     7
370
     0
100
AcDbSpline
210
0.0
220
0.0
230
1.0
 70
     8
 71
     3
 72
    12
 73
     8
 74
     0
 42
0.00000001
 43
0.00000001
 12
1.0
 22
0.0
 32
0.0
 13
1.0
 23
0.0
 33
0.0
 40
0.0
 40
0.0
 40
0.0
 40
0.0
 40
0.2499999999999996
 40
0.2499999999999996
 40
0.4999999999999992
 40
0.4999999999999992
 40
1.0
 40
1.0
 40
1.0
 40
1.0
 10
164.5143391849472
 20
124.452490215638
 30
0.0
 10
164.4768272989025
 20
124.452490215638
 30
0.0
 10
164.4415399511979
 20
124.4479866713754
 30
0.0
 10
164.3826101029594
 20
124.4346134719221
 30
0.0
 10
164.3590843764904
 20
124.426128569351
 30
0.0
 10
164.2988255887223
 20
124.3983807655164
 30
0.0
 10
164.2732308264329
 20
124.3773909017761
 30
0.0
 10
164.2545315638119
 20
124.3555901185865
 30
0.0
  0
LINE
  5
F0
330
1F
100
AcDbEntity
  8
0
  6
HIDDEN
 62
     7
370
     0
100
AcDbLine
 10
166.6505351022
 20
124.4524905715
 30
0.0
 11
164.5143390924
 21
124.4524905715
 31
0.0
  0
SPLINE
  5
F1
330
1F
100
AcDbEntity
  8
0
  6
HIDDEN
 62
     7
370
     0
100
AcDbSpline
210
0.0
220
0.0
230
1.0
 70
     8
 71
     3
 72
    12
 73
     8
 74
     0
 42
0.00000001
 43
0.00000001
 12
1.0
 22
0.0
 32
0.0
 13
1.0
 23
0.0
 33
0.0
 40
0.0
 40
0.0
 40
0.0
 40
0.0
 40
0.4999999999999973
 40
0.4999999999999973
 40
0.7499999999999987
 40
0.7499999999999987
 40
1.0
 40
1.0
 40
1.0
 40
1.0
 10
166.9103428020841
 20
124.3555901185865
 30
0.0
 10
166.8916495689537
 20
124.3773838722145
 30
0.0
 10
166.8659942715418
 20
124.3984040339241
 30
0.0
 10
166.8058336488554
 20
124.4261093798878
 30
0.0
 10
166.781761337101
 20
124.4347445960812
 30
0.0
 10
166.7233798167505
 20
124.4479592413078
 30
0.0
 10
166.6879109890975
 20
124.452490215638
 30
0.0
 10
166.6505351809488
 20
124.452490215638
 30
0.0
  0
ELLIPSE
  5
F2
330
1F
100
AcDbEntity
  8
0
  6
HIDDEN
 62
     7
370
     0
100
AcDbEllipse
 10
156.6335080105
 20
105.3208338354
 30
0.0
 11
9.367417879781812
 21
19.74174915274995
 31
0.0
210
0.0
220
0.0
230
1.0
 40
0.3419987131
 41
5.185211263708411
 42
6.132113578252573
  0
SPLINE
  5
F3
330
1F
100
AcDbEntity
  8
0
  6
HIDDEN
 62
     7
370
     0
100
AcDbSpline
210
0.0
220
0.0
230
1.0
 70
     8
 71
     3
 72
    12
 73
     8
 74
     0
 42
0.00000001
 43
0.00000001
 12
1.0
 22
0.0
 32
0.0
 13
1.0
 23
0.0
 33
0.0
 40
0.0
 40
0.0
 40
0.0
 40
0.0
 40
0.2500000000000003
 40
0.2500000000000003
 40
0.5000000000000006
 40
0.5000000000000006
 40
1.0
 40
1.0
 40
1.0
 40
1.0
 10
166.6505351809488
 20
111.1500468310564
 30
0.0
 10
166.6880470669935
 20
111.1500468310564
 30
0.0
 10
166.7233344146982
 20
111.1648516453433
 30
0.0
 10
166.7822642629366
 20
111.2084435184691
 30
0.0
 10
166.8057899894056
 20
111.2359569445551
 30
0.0
 10
166.8660487771737
 20
111.3250886766687
 30
0.0
 10
166.891643539463
 20
111.3914745272865
 30
0.0
 10
166.9103428020841
 20
111.4590789624638
 30
0.0
  0
LINE
  5
F4
330
1F
100
AcDbEntity
  8
0
  6
HIDDEN
 62
     7
370
     0
100
AcDbLine
 10
164.5143390924
 20
111.1500470225
 30
0.0
 11
166.6505351022
 21
111.1500470225
 31
0.0
  0
SPLINE
  5
F5
330
1F
100
AcDbEntity
  8
0
  6
HIDDEN
 62
     7
370
     0
100
AcDbSpline
210
0.0
220
0.0
230
1.0
 70
     8
 71
     3
 72
    12
 73
     8
 74
     0
 42
0.00000001
 43
0.00000001
 12
1.0
 22
0.0
 32
0.0
 13
1.0
 23
0.0
 33
0.0
 40
0.0
 40
0.0
 40
0.0
 40
0.0
 40
0.5000000000000008
 40
0.5000000000000008
 40
0.7500000000000003
 40
0.7500000000000003
 40
1.0
 40
1.0
 40
1.0
 40
1.0
 10
164.2545315638119
 20
111.4590789624638
 30
0.0
 10
164.2732247969423
 20
111.3914963260235
 30
0.0
 10
164.298880094354
 20
111.325013756546
 30
0.0
 10
164.3590407170406
 20
111.2360186736486
 30
0.0
 10
164.3831130287949
 20
111.2080167766494
 30
0.0
 10
164.4414945491454
 20
111.1649403759842
 30
0.0
 10
164.4769633767984
 20
111.1500468310564
 30
0.0
 10
164.5143391849472
 20
111.1500468310564
 30
0.0
  0
ELLIPSE
  5
F6
330
1F
100
AcDbEntity
  8
0
  6
HIDDEN
 62
     7
370
     0
100
AcDbEllipse
 10
174.5313663554
 20
105.3208338354
 30
0.0
 11
-9.367417879781668
 21
19.74174915274997
 31
0.0
210
0.0
220
0.0
230
1.0
 40
0.3419987131
 41
0.1510717289270565
 42
1.097974043471192
  0
LINE
  5
F7
330
1F
100
AcDbEntity
  8
0
  6
HIDDEN
 62
     7
370
     0
100
AcDbLine
 10
157.5824371829
 20
89.5208345983
 30
0.0
 11
157.5824371829
 21
121.1044604216
 31
0.0
  0
SPLINE
  5
F8
330
1F
100
AcDbEntity
  8
0
  6
HIDDEN
 62
     7
370
     0
100
AcDbSpline
210
0.0
220
0.0
230
1.0
 70
     8
 71
     3
 72
    18
 73
    14
 74
     0
 42
0.00000001
 43
0.00000001
 12
1.0
 22
0.0
 32
0.0
 13
1.0
 23
0.0
 33
0.0
 40
0.0
 40
0.0
 40
0.0
 40
0.0
 40
0.2500000000000007
 40
0.2500000000000007
 40
0.5000000000000013
 40
0.5000000000000013
 40
0.625000000000001
 40
0.625000000000001
 40
0.7500000000000007
 40
0.7500000000000007
 40
0.8750000000000003
 40
0.8750000000000003
 40
1.0
 40
1.0
 40
1.0
 40
1.0
 10
156.326352865385
 20
115.1452737535558
 30
0.0
 10
156.3606539099178
 20
115.0372635677583
 30
0.0
 10
156.3984741812145
 20
114.9299864797303
 30
0.0
 10
156.4850925016754
 20
114.7184897824137
 30
0.0
 10
156.5334638364188
 20
114.614103432244
 30
0.0
 10
156.6228668185373
 20
114.4632285095998
 30
0.0
 10
156.6554641024146
 20
114.4138835065642
 30
0.0
 10
156.7318460063595
 20
114.3192778680939
 30
0.0
 10
156.7748844437002
 20
114.2742819333393
 30
0.0
 10
156.8806974765321
 20
114.2033541606815
 30
0.0
 10
156.9457359012632
 20
114.1794076167749
 30
0.0
 10
157.0788879730658
 20
114.1916882808457
 30
0.0
 10
157.1382571535289
 20
114.2250052388506
 30
0.0
 10
157.1874602940727
 20
114.2658401250753
 30
0.0
  0
SPLINE
  5
F9
330
1F
100
AcDbEntity
  8
0
  6
HIDDEN
 62
     7
370
     0
100
AcDbSpline
210
0.0
220
0.0
230
1.0
 70
     8
 71
     3
 72
    16
 73
    12
 74
     0
 42
0.00000001
 43
0.00000001
 12
1.0
 22
0.0
 32
0.0
 13
1.0
 23
0.0
 33
0.0
 40
0.0
 40
0.0
 40
0.0
 40
0.0
 40
0.0624999999999996
 40
0.0624999999999996
 40
0.1249999999999993
 40
0.1249999999999993
 40
0.2499999999999999
 40
0.2499999999999999
 40
0.5000000000000014
 40
0.5000000000000014
 40
1.0
 40
1.0
 40
1.0
 40
1.0
 10
157.1874602940419
 20
114.2658401251047
 30
0.0
 10
157.1995301273177
 20
114.275857174085
 30
0.0
 10
157.213805782251
 20
114.2848162811407
 30
0.0
 10
157.2452701943755
 20
114.2926866765349
 30
0.0
 10
157.2607707191859
 20
114.2903291858926
 30
0.0
 10
157.2962096157928
 20
114.2733534937147
 30
0.0
 10
157.3098022318962
 20
114.252805002547
 30
0.0
 10
157.342796550289
 20
114.1908626755334
 30
0.0
 10
157.3535839436077
 20
114.1444671253282
 30
0.0
 10
157.3786371908868
 20
114.0015310966337
 30
0.0
 10
157.3824371829481
 20
113.9019683797482
 30
0.0
 10
157.3824371829481
 20
113.8002009751016
 30
0.0
  0
LINE
  5
FA
330
1F
100
AcDbEntity
  8
0
  6
HIDDEN
 62
     7
370
     0
100
AcDbLine
 10
157.382437188
 20
96.8414668251
 30
0.0
 11
157.382437188
 21
113.8002008457
 31
0.0
  0
SPLINE
  5
FB
330
1F
100
AcDbEntity
  8
0
  6
HIDDEN
 62
     7
370
     0
100
AcDbSpline
210
0.0
220
0.0
230
1.0
 70
     8
 71
     3
 72
    16
 73
    12
 74
     0
 42
0.00000001
 43
0.00000001
 12
1.0
 22
0.0
 32
0.0
 13
1.0
 23
0.0
 33
0.0
 40
0.0
 40
0.0
 40
0.0
 40
0.0
 40
0.4999999999999989
 40
0.4999999999999989
 40
0.7499999999999983
 40
0.7499999999999983
 40
0.874999999999998
 40
0.874999999999998
 40
0.937499999999999
 40
0.937499999999999
 40
1.0
 40
1.0
 40
1.0
 40
1.0
 10
157.382437182948
 20
96.84146669570731
 30
0.0
 10
157.382437182948
 20
96.73945654212723
 30
0.0
 10
157.378553757789
 20
96.63993216687398
 30
0.0
 10
157.3537384325144
 20
96.49794707086332
 30
0.0
 10
157.3428989848019
 20
96.45095377029284
 30
0.0
 10
157.3096832027531
 20
96.38866103993121
 30
0.0
 10
157.2963014591243
 20
96.36837960764612
 30
0.0
 10
157.2607918092621
 20
96.35133789944567
 30
0.0
 10
157.2453748427612
 20
96.34895164442952
 30
0.0
 10
157.2136738206127
 20
96.35688757428755
 30
0.0
 10
157.1995275356618
 20
96.36581264766218
 30
0.0
 10
157.1874602940722
 20
96.37582754573408
 30
0.0
  0
SPLINE
  5
FC
330
1F
100
AcDbEntity
  8
0
  6
HIDDEN
 62
     7
370
     0
100
AcDbSpline
210
0.0
220
0.0
230
1.0
 70
     8
 71
     3
 72
    18
 73
    14
 74
     0
 42
0.00000001
 43
0.00000001
 12
1.0
 22
0.0
 32
0.0
 13
1.0
 23
0.0
 33
0.0
 40
0.0
 40
0.0
 40
0.0
 40
0.0
 40
0.1250000000000003
 40
0.1250000000000003
 40
0.2500000000000006
 40
0.2500000000000006
 40
0.3750000000000008
 40
0.3750000000000008
 40
0.5000000000000011
 40
0.5000000000000011
 40
0.7500000000000006
 40
0.7500000000000006
 40
1.0
 40
1.0
 40
1.0
 40
1.0
 10
157.1874602940784
 20
96.37582754574149
 30
0.0
 10
157.1387548019363
 20
96.41624942142293
 30
0.0
 10
157.0802446936094
 20
96.44928154289066
 30
0.0
 10
156.9485155753173
 20
96.46255869484351
 30
0.0
 10
156.8837566389768
 20
96.43960510786334
 30
0.0
 10
156.7785456661172
 20
96.37055191094375
 30
0.0
 10
156.7353292906773
 20
96.32608425910287
 30
0.0
 10
156.6591507855653
 20
96.23291459973285
 30
0.0
 10
156.6262958241854
 20
96.18377223017205
 30
0.0
 10
156.5359275443516
 20
96.03256249523218
 30
0.0
 10
156.4865043099816
 20
95.92640772570395
 30
0.0
 10
156.3988558549334
 20
95.71282611004247
 30
0.0
 10
156.3607966827306
 20
95.6048536788072
 30
0.0
 10
156.326352865385
 20
95.49639391725324
 30
0.0
  0
SPLINE
  5
FD
330
1F
100
AcDbEntity
  8
0
  6
HIDDEN
 62
     7
370
     0
100
AcDbSpline
210
0.0
220
0.0
230
1.0
 70
     8
 71
     3
 72
     8
 73
     4
 74
     0
 42
0.00000001
 43
0.00000001
 12
1.0
 22
0.0
 32
0.0
 13
1.0
 23
0.0
 33
0.0
 40
0.0
 40
0.0
 40
0.0
 40
0.0
 40
1.0
 40
1.0
 40
1.0
 40
1.0
 10
156.3263528653844
 20
95.49639391725272
 30
0.0
 10
156.3020391614943
 20
95.41983275970264
 30
0.0
 10
156.2805425195382
 20
95.34340738856945
 30
0.0
 10
156.2611168393883
 20
95.26731451779773
 30
0.0
  0
SPLINE
  5
FE
330
1F
100
AcDbEntity
  8
0
  6
HIDDEN
 62
     7
370
     0
100
AcDbSpline
210
0.0
220
0.0
230
1.0
 70
     8
 71
     3
 72
     8
 73
     4
 74
     0
 42
0.00000001
 43
0.00000001
 12
1.0
 22
0.0
 32
0.0
 13
1.0
 23
0.0
 33
0.0
 40
0.0
 40
0.0
 40
0.0
 40
0.0
 40
1.0
 40
1.0
 40
1.0
 40
1.0
 10
156.2611168393883
 20
91.49576982739931
 30
0.0
 10
156.2805422662816
 20
91.49227262381203
 30
0.0
 10
156.3020388202506
 20
91.4902563061698
 30
0.0
 10
156.326352865385
 20
91.48964545272594
 30
0.0
  0
SPLINE
  5
FF
330
1F
100
AcDbEntity
  8
0
  6
HIDDEN
 62
     7
370
     0
100
AcDbSpline
210
0.0
220
0.0
230
1.0
 70
     8
 71
     3
 72
     8
 73
     4
 74
     0
 42
0.00000001
 43
0.00000001
 12
1.0
 22
0.0
 32
0.0
 13
1.0
 23
0.0
 33
0.0
 40
0.0
 40
0.0
 40
0.0
 40
0.0
 40
1.0
 40
1.0
 40
1.0
 40
1.0
 10
157.359586169842
 20
91.40028706166777
 30
0.0
 10
157.3785231020078
 20
91.3723326242663
 30
0.0
 10
157.3824371829481
 20
91.35224877291002
 30
0.0
 10
157.3824371829481
 20
91.3360219287446
 30
0.0
  0
LINE
  5
100
330
1F
100
AcDbEntity
  8
0
  6
HIDDEN
 62
     7
370
     0
100
AcDbLine
 10
157.382437188
 20
91.2310138602
 30
0.0
 11
157.382437188
 21
91.3360223431
 31
0.0
  0
LINE
  5
101
330
1F
100
AcDbEntity
  8
0
  6
HIDDEN
 62
     7
370
     0
100
AcDbLine
 10
157.382437188
 20
119.3056453277
 30
0.0
 11
157.382437188
 21
119.4106538106
 31
0.0
  0
SPLINE
  5
102
330
1F
100
AcDbEntity
  8
0
  6
HIDDEN
 62
     7
370
     0
100
AcDbSpline
210
0.0
220
0.0
230
1.0
 70
     8
 71
     3
 72
     8
 73
     4
 74
     0
 42
0.00000001
 43
0.00000001
 12
1.0
 22
0.0
 32
0.0
 13
1.0
 23
0.0
 33
0.0
 40
0.0
 40
0.0
 40
0.0
 40
0.0
 40
1.0
 40
1.0
 40
1.0
 40
1.0
 10
156.3263528653846
 20
119.1520222180831
 30
0.0
 10
156.3020388202504
 20
119.1514113646392
 30
0.0
 10
156.2805422662815
 20
119.149395046997
 30
0.0
 10
156.2611168393882
 20
119.1458978434097
 30
0.0
  0
SPLINE
  5
103
330
1F
100
AcDbEntity
  8
0
  6
HIDDEN
 62
     7
370
     0
100
AcDbSpline
210
0.0
220
0.0
230
1.0
 70
     8
 71
     3
 72
     8
 73
     4
 74
     0
 42
0.00000001
 43
0.00000001
 12
1.0
 22
0.0
 32
0.0
 13
1.0
 23
0.0
 33
0.0
 40
0.0
 40
0.0
 40
0.0
 40
0.0
 40
1.0
 40
1.0
 40
1.0
 40
1.0
 10
156.2611168393882
 20
115.3743531530113
 30
0.0
 10
156.2805425195382
 20
115.2982602822396
 30
0.0
 10
156.3020391614943
 20
115.2218349111064
 30
0.0
 10
156.3263528653844
 20
115.1452737535564
 30
0.0
  0
LINE
  5
104
330
1F
100
AcDbEntity
  8
0
  6
HIDDEN
 62
     7
370
     0
100
AcDbLine
 10
177.5824367359
 20
90.8208342526
 30
0.0
 11
177.5824367359
 21
119.8048966263
 31
0.0
  0
LINE
  5
105
330
1F
100
AcDbEntity
  8
0
  6
HIDDEN
 62
     7
370
     0
100
AcDbLine
 10
157.382437188
 20
91.3360223431
 30
0.0
 11
157.382437188
 21
99.8153888878
 31
0.0
  0
LINE
  5
106
330
1F
100
AcDbEntity
  8
0
  6
HIDDEN
 62
     7
370
     0
100
AcDbLine
 10
157.382437188
 20
110.826278783
 30
0.0
 11
157.382437188
 21
119.3056453277
 31
0.0
  0
SPLINE
  5
107
330
1F
100
AcDbEntity
  8
0
  6
HIDDEN
 62
     7
370
     0
100
AcDbSpline
210
0.0
220
0.0
230
1.0
 70
     8
 71
     3
 72
    62
 73
    58
 74
     0
 42
0.00000001
 43
0.00000001
 12
1.0
 22
0.0
 32
0.0
 13
1.0
 23
0.0
 33
0.0
 40
-0.0312499999999993
 40
-0.0312499999999993
 40
0.0
 40
0.0
 40
0.0312500000000006
 40
0.0312500000000006
 40
0.0625000000000012
 40
0.0625000000000012
 40
0.0937500000000018
 40
0.0937500000000018
 40
0.1250000000000024
 40
0.1250000000000024
 40
0.1875000000000026
 40
0.1875000000000026
 40
0.2187500000000027
 40
0.2187500000000027
 40
0.2500000000000028
 40
0.2500000000000028
 40
0.2812500000000029
 40
0.2812500000000029
 40
0.312500000000003
 40
0.312500000000003
 40
0.3437500000000031
 40
0.3437500000000031
 40
0.3750000000000032
 40
0.3750000000000032
 40
0.4062500000000033
 40
0.4062500000000033
 40
0.4375000000000034
 40
0.4375000000000034
 40
0.4687500000000034
 40
0.4687500000000034
 40
0.5000000000000036
 40
0.5000000000000036
 40
0.5625000000000038
 40
0.5625000000000038
 40
0.5937500000000039
 40
0.5937500000000039
 40
0.625000000000004
 40
0.625000000000004
 40
0.6562500000000042
 40
0.6562500000000042
 40
0.6875000000000043
 40
0.6875000000000043
 40
0.7500000000000044
 40
0.7500000000000044
 40
0.781250000000004
 40
0.781250000000004
 40
0.8125000000000034
 40
0.8125000000000034
 40
0.8437500000000029
 40
0.8437500000000029
 40
0.8750000000000024
 40
0.8750000000000024
 40
0.9375000000000012
 40
0.9375000000000012
 40
0.9687500000000007
 40
0.9687500000000007
 40
1.0
 40
1.0
 40
1.031250000000001
 40
1.031250000000001
 10
208.082437182948
 20
105.4864429676535
 30
0.0
 10
208.082437182948
 20
105.1552247031556
 30
0.0
 10
208.0987297069879
 20
104.9924651721642
 30
0.0
 10
208.162489700899
 20
104.6723872383255
 30
0.0
 10
208.2107603112781
 20
104.5133812510874
 30
0.0
 10
208.3363933118206
 20
104.2108258225931
 30
0.0
 10
208.4132116830547
 20
104.0673953284595
 30
0.0
 10
208.5946247702336
 20
103.7959570626984
 30
0.0
 10
208.6999315056302
 20
103.6677710338185
 30
0.0
 10
209.0449459265214
 20
103.322860451974
 30
0.0
 10
209.3231712082074
 20
103.1367554092866
 30
0.0
 10
209.7740963332572
 20
102.9495319962528
 30
0.0
 10
209.9320805811755
 20
102.9013013886685
 30
0.0
 10
210.2549705266701
 20
102.8369122264757
 30
0.0
 10
210.4174512380566
 20
102.8209316062946
 30
0.0
 10
210.7444466976443
 20
102.8207369504282
 30
0.0
 10
210.9105744275911
 20
102.8370663564244
 30
0.0
 10
211.2315241026954
 20
102.9010278283919
 30
0.0
 10
211.3875629751715
 20
102.9483465423321
 30
0.0
 10
211.690749748473
 20
103.0739322456163
 30
0.0
 10
211.8364853358764
 20
103.1520081258814
 30
0.0
 10
212.1068671776808
 20
103.3327304881636
 30
0.0
 10
212.233610104436
 20
103.4365245967771
 30
0.0
 10
212.4660120247502
 20
103.6688232002204
 30
0.0
 10
212.5691519063245
 20
103.7945878254325
 30
0.0
 10
212.7501844149173
 20
104.0649141670634
 30
0.0
 10
212.8286851768717
 20
104.211272712396
 30
0.0
 10
212.9541109623996
 20
104.5134185644568
 30
0.0
 10
213.0015850278747
 20
104.6692489419971
 30
0.0
 10
213.0659293550267
 20
104.9905221641694
 30
0.0
 10
213.082370775293
 20
105.1564501562459
 30
0.0
 10
213.0825693824707
 20
105.646561981784
 30
0.0
 10
213.0168703450558
 20
105.976352822662
 30
0.0
 10
212.8298603051458
 20
106.4279163981192
 30
0.0
 10
212.7519002077275
 20
106.5739218504971
 30
0.0
 10
212.5699658235954
 20
106.8461302957888
 30
0.0
 10
212.466863410938
 20
106.9717404684515
 30
0.0
 10
212.2366074932768
 20
107.2023958206184
 30
0.0
 10
212.1083494286935
 20
107.3078153892644
 30
0.0
 10
211.8377705632574
 20
107.4889302311805
 30
0.0
 10
211.694439714828
 20
107.5659240320607
 30
0.0
 10
211.2394829013886
 20
107.7552145394022
 30
0.0
 10
210.9143686431831
 20
107.8206001612693
 30
0.0
 10
210.4191184248152
 20
107.8209497382773
 30
0.0
 10
210.2565086023164
 20
107.8048728200241
 30
0.0
 10
209.9360697625488
 20
107.7413478871359
 30
0.0
 10
209.7766545330257
 20
107.6930562750389
 30
0.0
 10
209.4745926854294
 20
107.5679220738452
 30
0.0
 10
209.3310419058007
 20
107.4912674293957
 30
0.0
 10
209.0588243923569
 20
107.3096465942984
 30
0.0
 10
208.9309743442388
 20
107.2047325453605
 30
0.0
 10
208.5860184428068
 20
106.8602907662921
 30
0.0
 10
208.3995330305111
 20
106.582178546152
 30
0.0
 10
208.2118142627796
 20
106.1311808134865
 30
0.0
 10
208.1632855708214
 20
105.9725841790718
 30
0.0
 10
208.0987325995187
 20
105.6499000524148
 30
0.0
 10
208.082437182948
 20
105.4864429676535
 30
0.0
 10
208.082437182948
 20
105.1552247031556
 30
0.0
  0
CIRCLE
  5
108
330
1F
100
AcDbEntity
  8
0
  6
HIDDEN
 62
     7
370
     0
100
AcDbCircle
 10
146.0824371829
 20
105.3208338354
 30
0.0
 40
2.300000000000011
  0
LWPOLYLINE
  5
109
330
1F
100
AcDbEntity
  8
0
  6
HIDDEN
 62
     7
370
     0
100
AcDbPolyline
 90
       21
 70
   128
 43
0.0
 10
208.5022791579
 20
105.6088341948
 10
208.3688578859
 20
106.0285794457
 10
208.290388371
 20
106.374054195
 10
208.2719146564
 20
106.6230596999
 10
208.3146213844
 20
106.7595958967
 10
208.4157667413
 20
106.7748893775
 10
208.5688500956
 20
106.6679577135
 10
208.7640366807
 20
106.4456717368
 10
208.9887834444
 20
106.1223146181
 10
209.2286474362
 20
105.7186639892
 10
209.46821713
 20
105.2606568129
 10
209.6921033516
 20
104.7777227151
 10
209.8859115794
 20
104.3008930074
 10
210.0371956184
 20
103.8608070022
 10
210.136232461
 20
103.485742563
 10
210.176655586
 20
103.1997999899
 10
210.1558684662
 20
103.0213527639
 10
210.0752122059
 20
102.9618668627
 10
209.9398612335
 20
103.0251651328
 10
209.7585215524
 20
103.20717979
 10
209.54283842
 20
103.496215751
  0
SPLINE
  5
10A
330
1F
100
AcDbEntity
  8
0
  6
HIDDEN
 62
     7
370
     0
100
AcDbSpline
210
0.0
220
0.0
230
1.0
 70
     8
 71
     3
 72
    20
 73
    16
 74
     0
 42
0.00000001
 43
0.00000001
 12
1.0
 22
0.0
 32
0.0
 13
1.0
 23
0.0
 33
0.0
 40
0.0
 40
0.0
 40
0.0
 40
0.0
 40
0.1249999999999999
 40
0.1249999999999999
 40
0.2499999999999998
 40
0.2499999999999998
 40
0.3749999999999997
 40
0.3749999999999997
 40
0.4999999999999996
 40
0.4999999999999996
 40
0.7499999999999993
 40
0.7499999999999993
 40
0.8749999999999997
 40
0.8749999999999997
 40
1.0
 40
1.0
 40
1.0
 40
1.0
 10
209.5428369094631
 20
103.4962157188195
 30
0.0
 10
209.4766166690848
 20
103.5339455754848
 30
0.0
 10
209.4041442510365
 20
103.5797827064328
 30
0.0
 10
209.2468900051572
 20
103.6972738571526
 30
0.0
 10
209.1623073800945
 20
103.7695117812556
 30
0.0
 10
209.0005800504829
 20
103.9347974776164
 30
0.0
 10
208.9271443052686
 20
104.0234163051393
 30
0.0
 10
208.7950870304886
 20
104.2123816753005
 30
0.0
 10
208.7376426580751
 20
104.3111647421473
 30
0.0
 10
208.5914607684677
 20
104.6159884732853
 30
0.0
 10
208.5278254670883
 20
104.8377552832649
 30
0.0
 10
208.4865194617185
 20
105.1525262198388
 30
0.0
 10
208.4813527013573
 20
105.255674980065
 30
0.0
 10
208.4839125412295
 20
105.4432920050401
 30
0.0
 10
208.4912572127193
 20
105.5292225188655
 30
0.0
 10
208.5022795467993
 20
105.6088341978562
 30
0.0
  0
SPLINE
  5
10B
330
1F
100
AcDbEntity
  8
0
  6
HIDDEN
 62
     7
370
     0
100
AcDbSpline
210
0.0
220
0.0
230
1.0
 70
     8
 71
     3
 72
    10
 73
     6
 74
     0
 42
0.00000001
 43
0.00000001
 12
1.0
 22
0.0
 32
0.0
 13
1.0
 23
0.0
 33
0.0
 40
0.0
 40
0.0
 40
0.0
 40
0.0
 40
0.5
 40
0.5
 40
1.0
 40
1.0
 40
1.0
 40
1.0
 10
212.1434760746997
 20
103.9161425602685
 30
0.0
 10
211.89291883031
 20
103.7999087399387
 30
0.0
 10
211.6410129788342
 20
103.6814399781637
 30
0.0
 10
211.1312179984189
 20
103.4440515620463
 30
0.0
 10
210.8731087681488
 20
103.3259679790393
 30
0.0
 10
210.6160578588148
 20
103.2211029835679
 30
0.0
  0
SPLINE
  5
10C
330
1F
100
AcDbEntity
  8
0
  6
HIDDEN
 62
     7
370
     0
100
AcDbSpline
210
0.0
220
0.0
230
1.0
 70
     8
 71
     3
 72
    46
 73
    42
 74
     0
 42
0.00000001
 43
0.00000001
 12
1.0
 22
0.0
 32
0.0
 13
1.0
 23
0.0
 33
0.0
 40
0.0
 40
0.0
 40
0.0
 40
0.0
 40
0.0624999999999988
 40
0.0624999999999988
 40
0.1249999999999976
 40
0.1249999999999976
 40
0.1562499999999976
 40
0.1562499999999976
 40
0.1874999999999977
 40
0.1874999999999977
 40
0.2187499999999977
 40
0.2187499999999977
 40
0.2499999999999977
 40
0.2499999999999977
 40
0.2812499999999977
 40
0.2812499999999977
 40
0.3124999999999977
 40
0.3124999999999977
 40
0.3749999999999979
 40
0.3749999999999979
 40
0.4374999999999982
 40
0.4374999999999982
 40
0.4999999999999984
 40
0.4999999999999984
 40
0.5624999999999987
 40
0.5624999999999987
 40
0.6249999999999989
 40
0.6249999999999989
 40
0.6562499999999991
 40
0.6562499999999991
 40
0.6874999999999993
 40
0.6874999999999993
 40
0.7499999999999996
 40
0.7499999999999996
 40
0.8749999999999997
 40
0.8749999999999997
 40
0.9374999999999999
 40
0.9374999999999999
 40
0.9687499999999999
 40
0.9687499999999999
 40
1.0
 40
1.0
 40
1.0
 40
1.0
 10
208.5022795467993
 20
105.6088341978562
 30
0.0
 10
208.528732620267
 20
105.7998984114739
 30
0.0
 10
208.5794578974913
 20
105.9776758465191
 30
0.0
 10
208.7229527419939
 20
106.3136505654122
 30
0.0
 10
208.8162847850544
 20
106.4713470375711
 30
0.0
 10
208.9840690684254
 20
106.685921048997
 30
0.0
 10
209.0449209812674
 20
106.7543158404506
 30
0.0
 10
209.1790706638414
 20
106.8858862761462
 30
0.0
 10
209.2526153191297
 20
106.9491153962614
 30
0.0
 10
209.4110753835997
 20
107.0665825475458
 30
0.0
 10
209.4978981344562
 20
107.1219394847484
 30
0.0
 10
209.675802483481
 20
107.2177313101048
 30
0.0
 10
209.7684094860593
 20
107.2589653614179
 30
0.0
 10
209.9464291931889
 20
107.3244527463732
 30
0.0
 10
210.0336761240069
 20
107.3496835716953
 30
0.0
 10
210.2011100566916
 20
107.3877057654085
 30
0.0
 10
210.282476278517
 20
107.4008827041092
 30
0.0
 10
210.524494532956
 20
107.4262938827241
 30
0.0
 10
210.6809097750936
 20
107.4243221056988
 30
0.0
 10
210.9907809925815
 20
107.3866545168296
 30
0.0
 10
211.1447641725713
 20
107.3509219840841
 30
0.0
 10
211.4562618384472
 20
107.2375758645023
 30
0.0
 10
211.6090819096958
 20
107.1616165517355
 30
0.0
 10
211.9077136663667
 20
106.959773323671
 30
0.0
 10
212.0509855084678
 20
106.8350278844616
 30
0.0
 10
212.3087403089253
 20
106.5329787606622
 30
0.0
 10
212.4177494030175
 20
106.3615397779321
 30
0.0
 10
212.5420368206916
 20
106.0826272527704
 30
0.0
 10
212.5756746610247
 20
105.9890817499457
 30
0.0
 10
212.629122442908
 20
105.8010737399948
 30
0.0
 10
212.6488712947915
 20
105.7060664321401
 30
0.0
 10
212.6876705442474
 20
105.4313275600396
 30
0.0
 10
212.6876648962597
 20
105.2554249472675
 30
0.0
 10
212.6352238931675
 20
104.7720944505253
 30
0.0
 10
212.5309353522693
 20
104.5011329314473
 30
0.0
 10
212.3528131345356
 20
104.1848727172366
 30
0.0
 10
212.2883569112628
 20
104.0929123313477
 30
0.0
 10
212.2056712354608
 20
103.9877548633787
 30
0.0
 10
212.1811388894714
 20
103.9589176677721
 30
0.0
 10
212.1472708186972
 20
103.9201345505731
 30
0.0
 10
212.1387155449324
 20
103.9108521649758
 30
0.0
 10
212.143476074697
 20
103.9161425602672
 30
0.0
  0
SPLINE
  5
10D
330
1F
100
AcDbEntity
  8
0
  6
HIDDEN
 62
     7
370
     0
100
AcDbSpline
210
0.0
220
0.0
230
1.0
 70
     8
 71
     3
 72
    12
 73
     8
 74
     0
 42
0.00000001
 43
0.00000001
 12
1.0
 22
0.0
 32
0.0
 13
1.0
 23
0.0
 33
0.0
 40
0.0
 40
0.0
 40
0.0
 40
0.0
 40
0.2499999999999981
 40
0.2499999999999981
 40
0.4999999999999962
 40
0.4999999999999962
 40
1.0
 40
1.0
 40
1.0
 40
1.0
 10
210.6160578588116
 20
103.2211029835679
 30
0.0
 10
210.5745938691757
 20
103.2204390664023
 30
0.0
 10
210.5054632246312
 20
103.2206577540168
 30
0.0
 10
210.3426546783489
 20
103.2329715522114
 30
0.0
 10
210.2496308616873
 20
103.245039514006
 30
0.0
 10
209.9606666730202
 20
103.3053612154291
 30
0.0
 10
209.7492589522385
 20
103.3786040332991
 30
0.0
 10
209.5428369094631
 20
103.4962157188195
 30
0.0
  0
LINE
  5
10E
330
1F
100
AcDbEntity
  8
0
  6
HIDDEN
 62
     7
370
     0
100
AcDbLine
 10
134.6094697073
 20
114.8835273717
 30
0.0
 11
134.6094697073
 21
95.7581402991
 31
0.0
  0
LINE
  5
10F
330
1F
100
AcDbEntity
  8
0
  6
HIDDEN
 62
     7
370
     0
100
AcDbLine
 10
133.5824369743
 20
95.1651830483
 30
0.0
 11
133.5824369743
 21
115.4764846225
 31
0.0
  0
LINE
  5
110
330
1F
100
AcDbEntity
  8
0
  6
HIDDEN
 62
     7
370
     0
100
AcDbLine
 10
138.1094693497
 20
114.5517735068
 30
0.0
 11
138.1094693497
 21
96.089894164
 31
0.0
  0
LINE
  5
111
330
1F
100
AcDbEntity
  8
0
  6
HIDDEN
 62
     7
370
     0
100
AcDbLine
 10
141.5094691619
 20
114.320833448
 30
0.0
 11
141.5094691619
 21
96.3208342228
 31
0.0
  0
LINE
  5
112
330
1F
100
AcDbEntity
  8
0
  6
HIDDEN
 62
     7
370
     0
100
AcDbLine
 10
136.7094698652
 20
114.320833448
 30
0.0
 11
136.7094698652
 21
96.3208342228
 31
0.0
  0
LINE
  5
113
330
1F
100
AcDbEntity
  8
0
  6
HIDDEN
 62
     7
370
     0
100
AcDbLine
 10
137.7094700292
 20
114.320833448
 30
0.0
 11
137.7094700292
 21
96.3208342228
 31
0.0
  0
SPLINE
  5
114
330
1F
100
AcDbEntity
  8
0
  6
HIDDEN
 62
     7
370
     0
100
AcDbSpline
210
0.0
220
0.0
230
1.0
 70
     8
 71
     3
 72
    14
 73
    10
 74
     0
 42
0.00000001
 43
0.00000001
 12
1.0
 22
0.0
 32
0.0
 13
1.0
 23
0.0
 33
0.0
 40
0.0
 40
0.0
 40
0.0
 40
0.0
 40
0.25
 40
0.25
 40
0.5
 40
0.5
 40
0.7500000000000001
 40
0.7500000000000001
 40
1.0
 40
1.0
 40
1.0
 40
1.0
 10
148.082437182948
 20
106.4566155045646
 30
0.0
 10
148.1806615294509
 20
106.2836520747611
 30
0.0
 10
148.255976367435
 20
106.0986195203367
 30
0.0
 10
148.3569430776294
 20
105.7156073062022
 30
0.0
 10
148.3823186639195
 20
105.5208887527366
 30
0.0
 10
148.3825548891858
 20
105.123513451471
 30
0.0
 10
148.3568518198503
 20
104.9260211169956
 30
0.0
 10
148.2565317063338
 20
104.5448492823646
 30
0.0
 10
148.1806398782462
 20
104.357977470392
 30
0.0
 10
148.0824371829526
 20
104.1850521662421
 30
0.0
  0
LINE
  5
115
330
1F
100
AcDbEntity
  8
0
  6
HIDDEN
 62
     7
370
     0
100
AcDbLine
 10
148.5824375704
 20
113.820833366
 30
0.0
 11
148.5824375704
 21
96.8208333735
 31
0.0
  0
SPLINE
  5
116
330
1F
100
AcDbEntity
  8
0
  6
HIDDEN
 62
     7
370
     0
100
AcDbSpline
210
0.0
220
0.0
230
1.0
 70
     8
 71
     3
 72
    14
 73
    10
 74
     0
 42
0.00000001
 43
0.00000001
 12
1.0
 22
0.0
 32
0.0
 13
1.0
 23
0.0
 33
0.0
 40
0.0
 40
0.0
 40
0.0
 40
0.0
 40
0.25
 40
0.25
 40
0.5
 40
0.5
 40
0.75
 40
0.75
 40
1.0
 40
1.0
 40
1.0
 40
1.0
 10
148.082437182948
 20
104.1850521662445
 30
0.0
 10
148.1806615294509
 20
104.358015596048
 30
0.0
 10
148.255976367435
 20
104.5430481504724
 30
0.0
 10
148.3569430776294
 20
104.9260603646069
 30
0.0
 10
148.3823186639195
 20
105.1207789180725
 30
0.0
 10
148.3825548891858
 20
105.5181542193381
 30
0.0
 10
148.3568518198503
 20
105.7156465538135
 30
0.0
 10
148.2565317063338
 20
106.0968183884445
 30
0.0
 10
148.1806398782462
 20
106.283690200417
 30
0.0
 10
148.0824371829526
 20
106.456615504567
 30
0.0
  0
SPLINE
  5
117
330
1F
100
AcDbEntity
  8
0
  6
HIDDEN
 62
     7
370
     0
100
AcDbSpline
210
0.0
220
0.0
230
1.0
 70
     8
 71
     3
 72
    60
 73
    56
 74
     0
 42
0.00000001
 43
0.00000001
 12
1.0
 22
0.0
 32
0.0
 13
1.0
 23
0.0
 33
0.0
 40
0.0
 40
0.0
 40
0.0
 40
0.0
 40
0.0624999999999997
 40
0.0624999999999997
 40
0.1249999999999995
 40
0.1249999999999995
 40
0.1874999999999992
 40
0.1874999999999992
 40
0.2187499999999991
 40
0.2187499999999991
 40
0.2499999999999989
 40
0.2499999999999989
 40
0.3124999999999991
 40
0.3124999999999991
 40
0.3749999999999993
 40
0.3749999999999993
 40
0.4062499999999994
 40
0.4062499999999994
 40
0.4374999999999995
 40
0.4374999999999995
 40
0.4687499999999996
 40
0.4687499999999996
 40
0.4999999999999997
 40
0.4999999999999997
 40
0.5312499999999998
 40
0.5312499999999998
 40
0.5624999999999999
 40
0.5624999999999999
 40
0.5937499999999999
 40
0.5937499999999999
 40
0.625
 40
0.625
 40
0.6562500000000001
 40
0.6562500000000001
 40
0.6875000000000002
 40
0.6875000000000002
 40
0.7187500000000002
 40
0.7187500000000002
 40
0.7500000000000001
 40
0.7500000000000001
 40
0.7812500000000001
 40
0.7812500000000001
 40
0.8125000000000001
 40
0.8125000000000001
 40
0.8437500000000001
 40
0.8437500000000001
 40
0.8750000000000001
 40
0.8750000000000001
 40
0.9062500000000001
 40
0.9062500000000001
 40
0.9375
 40
0.9375
 40
0.96875
 40
0.96875
 40
1.0
 40
1.0
 40
1.0
 40
1.0
 10
148.082437182948
 20
104.1850521662445
 30
0.0
 10
147.9572472813693
 20
103.9646050416289
 30
0.0
 10
147.8003799628011
 20
103.7708713128086
 30
0.0
 10
147.4233424429823
 20
103.4351816140461
 30
0.0
 10
147.2116291365613
 20
103.3012042557334
 30
0.0
 10
146.7457391546126
 20
103.1040775110482
 30
0.0
 10
146.499899923561
 20
103.0448600988264
 30
0.0
 10
146.1204188704664
 20
103.0176533629357
 30
0.0
 10
145.9926731417725
 20
103.0191466280776
 30
0.0
 10
145.7422068951043
 20
103.0426624338865
 30
0.0
 10
145.6183775122961
 20
103.0645816526907
 30
0.0
 10
145.2511578381975
 20
103.1614182175356
 30
0.0
 10
145.0203888201117
 20
103.2652193389874
 30
0.0
 10
144.6004998586922
 20
103.5439378199155
 30
0.0
 10
144.4162414838047
 20
103.7155001114192
 30
0.0
 10
144.1854930963214
 20
104.014147472686
 30
0.0
 10
144.1164462465323
 20
104.1206150131883
 30
0.0
 10
143.9978815827268
 20
104.3408983615812
 30
0.0
 10
143.9476732139772
 20
104.4555598779826
 30
0.0
 10
143.8658413616194
 20
104.6942405147594
 30
0.0
 10
143.8344904627367
 20
104.8182861416375
 30
0.0
 10
143.7930960846981
 20
105.0664011777458
 30
0.0
 10
143.7825903096339
 20
105.1916388802343
 30
0.0
 10
143.7822873572981
 20
105.4445179358253
 30
0.0
 10
143.7927718869146
 20
105.572397622062
 30
0.0
 10
143.8339119643761
 20
105.8208196832674
 30
0.0
 10
143.8644900849247
 20
105.9426186100358
 30
0.0
 10
143.945772793276
 20
106.1813981395101
 30
0.0
 10
143.9967736798379
 20
106.2984397018168
 30
0.0
 10
144.1153407282009
 20
106.5192648997427
 30
0.0
 10
144.1832294814727
 20
106.6242032633055
 30
0.0
 10
144.3363799192103
 20
106.8231805965349
 30
0.0
 10
144.4219360907829
 20
106.917188721729
 30
0.0
 10
144.604647461742
 20
107.0876814066658
 30
0.0
 10
144.7024547614239
 20
107.1651196017151
 30
0.0
 10
144.9112578733409
 20
107.3042854976034
 30
0.0
 10
145.0228400486288
 20
107.3660673066104
 30
0.0
 10
145.2514858481278
 20
107.4691461772112
 30
0.0
 10
145.369440659099
 20
107.5111502124068
 30
0.0
 10
145.6127691040876
 20
107.5758863337036
 30
0.0
 10
145.7391129794307
 20
107.5985595962663
 30
0.0
 10
145.9902189604486
 20
107.6224423924474
 30
0.0
 10
146.1159009541715
 20
107.6240456937141
 30
0.0
 10
146.3675230239633
 20
107.6065789549432
 30
0.0
 10
146.4944206442491
 20
107.5871430643033
 30
0.0
 10
146.7396112105103
 20
107.5285498929796
 30
0.0
 10
146.8588003675438
 20
107.489487041823
 30
0.0
 10
147.0904853918986
 20
107.3919773196992
 30
0.0
 10
147.2036601962491
 20
107.3329419654106
 30
0.0
 10
147.4157386131848
 20
107.1991382485711
 30
0.0
 10
147.5155273918856
 20
107.1241430324263
 30
0.0
 10
147.7027855788746
 20
106.9579479679055
 30
0.0
 10
147.7906806158179
 20
106.866053769164
 30
0.0
 10
147.9489016914498
 20
106.6706895714497
 30
0.0
 10
148.0198396477415
 20
106.5668436177772
 30
0.0
 10
148.082437182948
 20
106.4566155045646
 30
0.0
  0
SPLINE
  5
118
330
1F
100
AcDbEntity
  8
0
  6
HIDDEN
 62
     7
370
     0
100
AcDbSpline
210
0.0
220
0.0
230
1.0
 70
     8
 71
     3
 72
    60
 73
    56
 74
     0
 42
0.00000001
 43
0.00000001
 12
1.0
 22
0.0
 32
0.0
 13
1.0
 23
0.0
 33
0.0
 40
0.0
 40
0.0
 40
0.0
 40
0.0
 40
0.0625000000000003
 40
0.0625000000000003
 40
0.1250000000000006
 40
0.1250000000000006
 40
0.1875000000000009
 40
0.1875000000000009
 40
0.2187500000000008
 40
0.2187500000000008
 40
0.2500000000000007
 40
0.2500000000000007
 40
0.3125000000000006
 40
0.3125000000000006
 40
0.3750000000000004
 40
0.3750000000000004
 40
0.4062500000000003
 40
0.4062500000000003
 40
0.4375000000000003
 40
0.4375000000000003
 40
0.4687500000000002
 40
0.4687500000000002
 40
0.5000000000000001
 40
0.5000000000000001
 40
0.53125
 40
0.53125
 40
0.5625
 40
0.5625
 40
0.5937499999999999
 40
0.5937499999999999
 40
0.6249999999999998
 40
0.6249999999999998
 40
0.6562499999999998
 40
0.6562499999999998
 40
0.6874999999999997
 40
0.6874999999999997
 40
0.7187499999999997
 40
0.7187499999999997
 40
0.7499999999999997
 40
0.7499999999999997
 40
0.7812499999999998
 40
0.7812499999999998
 40
0.8124999999999998
 40
0.8124999999999998
 40
0.8437499999999998
 40
0.8437499999999998
 40
0.8749999999999999
 40
0.8749999999999999
 40
0.9062499999999999
 40
0.9062499999999999
 40
0.9374999999999999
 40
0.9374999999999999
 40
0.96875
 40
0.96875
 40
1.0
 40
1.0
 40
1.0
 40
1.0
 10
148.082437182948
 20
106.4566155045646
 30
0.0
 10
147.9572472813693
 20
106.6770626291802
 30
0.0
 10
147.8003799628011
 20
106.8707963580005
 30
0.0
 10
147.4233424429823
 20
107.2064860567629
 30
0.0
 10
147.2116291365613
 20
107.3404634150757
 30
0.0
 10
146.7457391546126
 20
107.5375901597608
 30
0.0
 10
146.499899923561
 20
107.5968075719827
 30
0.0
 10
146.1204188704664
 20
107.6240143078733
 30
0.0
 10
145.9926731417725
 20
107.6225210427315
 30
0.0
 10
145.7422068951043
 20
107.5990052369225
 30
0.0
 10
145.6183775122961
 20
107.5770860181183
 30
0.0
 10
145.2511578381975
 20
107.4802494532734
 30
0.0
 10
145.0203888201117
 20
107.3764483318216
 30
0.0
 10
144.6004998586922
 20
107.0977298508936
 30
0.0
 10
144.4162414838047
 20
106.9261675593899
 30
0.0
 10
144.1854930963214
 20
106.6275201981231
 30
0.0
 10
144.1164462465323
 20
106.5210526576208
 30
0.0
 10
143.9978815827268
 20
106.3007693092278
 30
0.0
 10
143.9476732139772
 20
106.1861077928264
 30
0.0
 10
143.8658413616194
 20
105.9474271560496
 30
0.0
 10
143.8344904627367
 20
105.8233815291716
 30
0.0
 10
143.7930960846981
 20
105.5752664930632
 30
0.0
 10
143.7825903096339
 20
105.4500287905747
 30
0.0
 10
143.7822873572981
 20
105.1971497349837
 30
0.0
 10
143.7927718869146
 20
105.0692700487471
 30
0.0
 10
143.8339119643761
 20
104.8208479875416
 30
0.0
 10
143.8644900849247
 20
104.6990490607733
 30
0.0
 10
143.945772793276
 20
104.4602695312989
 30
0.0
 10
143.9967736798379
 20
104.3432279689923
 30
0.0
 10
144.1153407282009
 20
104.1224027710664
 30
0.0
 10
144.1832294814727
 20
104.0174644075036
 30
0.0
 10
144.3363799192103
 20
103.8184870742742
 30
0.0
 10
144.4219360907828
 20
103.7244789490801
 30
0.0
 10
144.604647461742
 20
103.5539862641433
 30
0.0
 10
144.7024547614239
 20
103.476548069094
 30
0.0
 10
144.9112578733409
 20
103.3373821732057
 30
0.0
 10
145.0228400486288
 20
103.2756003641987
 30
0.0
 10
145.2514858481278
 20
103.1725214935979
 30
0.0
 10
145.3694406590989
 20
103.1305174584022
 30
0.0
 10
145.6127691040876
 20
103.0657813371054
 30
0.0
 10
145.7391129794307
 20
103.0431080745428
 30
0.0
 10
145.9902189604486
 20
103.0192252783616
 30
0.0
 10
146.1159009541715
 20
103.0176219770949
 30
0.0
 10
146.3675230239633
 20
103.0350887158658
 30
0.0
 10
146.4944206442491
 20
103.0545246065058
 30
0.0
 10
146.7396112105103
 20
103.1131177778294
 30
0.0
 10
146.8588003675438
 20
103.1521806289861
 30
0.0
 10
147.0904853918986
 20
103.2496903511098
 30
0.0
 10
147.2036601962491
 20
103.3087257053985
 30
0.0
 10
147.4157386131848
 20
103.4425294222379
 30
0.0
 10
147.5155273918856
 20
103.5175246383827
 30
0.0
 10
147.7027855788746
 20
103.6837197029035
 30
0.0
 10
147.7906806158179
 20
103.775613901645
 30
0.0
 10
147.9489016914498
 20
103.9709780993594
 30
0.0
 10
148.0198396477415
 20
104.0748240530319
 30
0.0
 10
148.082437182948
 20
104.1850521662445
 30
0.0
  0
ARC
  5
119
330
1F
100
AcDbEntity
  8
0
  6
HIDDEN
 62
     7
370
     0
100
AcDbCircle
 10
210.5824371829
 20
105.3208338354
 30
0.0
 40
2.100000000000029
100
AcDbArc
 50
270.9173357771
 51
318.0177302523
  0
LINE
  5
11A
330
1F
100
AcDbEntity
  8
0
  6
HIDDEN
 62
     7
370
     0
100
AcDbLine
 10
149.4824369728
 20
111.5708339285
 30
0.0
 11
149.4824369728
 21
99.0708337423
 31
0.0
  0
LINE
  5
11B
330
1F
100
AcDbEntity
  8
0
  6
HIDDEN
 62
     7
370
     0
100
AcDbLine
 10
148.5824375704
 20
98.1708338741
 30
0.0
 11
148.5824375704
 21
112.4548672024
 31
0.0
  0
LINE
  5
11C
330
1F
100
AcDbEntity
  8
0
  6
HIDDEN
 62
     7
370
     0
100
AcDbLine
 10
168.5824371233
 20
111.5708339285
 30
0.0
 11
168.5824371233
 21
99.0708337423
 31
0.0
  0
LINE
  5
11D
330
1F
100
AcDbEntity
  8
0
  6
HIDDEN
 62
     7
370
     0
100
AcDbLine
 10
170.3850194171
 20
108.5708339025
 30
0.0
 11
170.3850194171
 21
102.0708337683
 31
0.0
  0
SPLINE
  5
11E
330
1F
100
AcDbEntity
  8
0
  6
HIDDEN
 62
     7
370
     0
100
AcDbSpline
210
0.0
220
0.0
230
1.0
 70
     8
 71
     3
 72
    62
 73
    58
 74
     0
 42
0.00000001
 43
0.00000001
 12
1.0
 22
0.0
 32
0.0
 13
1.0
 23
0.0
 33
0.0
 40
-0.0624999999999994
 40
-0.0624999999999994
 40
0.0
 40
0.0
 40
0.0312500000000005
 40
0.0312500000000005
 40
0.062500000000001
 40
0.062500000000001
 40
0.1250000000000021
 40
0.1250000000000021
 40
0.1562500000000021
 40
0.1562500000000021
 40
0.1875000000000021
 40
0.1875000000000021
 40
0.2187500000000021
 40
0.2187500000000021
 40
0.2500000000000021
 40
0.2500000000000021
 40
0.2812500000000021
 40
0.2812500000000021
 40
0.3125000000000021
 40
0.3125000000000021
 40
0.3437500000000021
 40
0.3437500000000021
 40
0.3750000000000022
 40
0.3750000000000022
 40
0.4062500000000022
 40
0.4062500000000022
 40
0.4375000000000022
 40
0.4375000000000022
 40
0.4687500000000022
 40
0.4687500000000022
 40
0.5000000000000022
 40
0.5000000000000022
 40
0.5312500000000023
 40
0.5312500000000023
 40
0.5625000000000022
 40
0.5625000000000022
 40
0.6250000000000029
 40
0.6250000000000029
 40
0.6562500000000027
 40
0.6562500000000027
 40
0.6875000000000024
 40
0.6875000000000024
 40
0.7500000000000021
 40
0.7500000000000021
 40
0.7812500000000019
 40
0.7812500000000019
 40
0.8125000000000016
 40
0.8125000000000016
 40
0.8437500000000013
 40
0.8437500000000013
 40
0.8750000000000011
 40
0.8750000000000011
 40
0.9062500000000009
 40
0.9062500000000009
 40
0.9375000000000006
 40
0.9375000000000006
 40
1.0
 40
1.0
 40
1.03125
 40
1.03125
 10
208.482437182948
 20
105.0344374887068
 30
0.0
 10
208.482437182948
 20
105.4640320087534
 30
0.0
 10
208.4969248342503
 20
105.6041166600195
 30
0.0
 10
208.5530052198446
 20
105.8785226576223
 30
0.0
 10
208.595343541579
 20
106.0139271539946
 30
0.0
 10
208.7564181844295
 20
106.393835498228
 30
0.0
 10
208.911663255174
 20
106.6205194181872
 30
0.0
 10
209.1940844969686
 20
106.9020181549225
 30
0.0
 10
209.2981619435928
 20
106.9876878785786
 30
0.0
 10
209.5192083164857
 20
107.1366834076951
 30
0.0
 10
209.6363221537676
 20
107.2005340767031
 30
0.0
 10
209.88605480973
 20
107.3066480854919
 30
0.0
 10
210.0200904824117
 20
107.348944585126
 30
0.0
 10
210.2933448796825
 20
107.405514306108
 30
0.0
 10
210.4356966422937
 20
107.420526997571
 30
0.0
 10
210.7202599586454
 20
107.4211312057831
 30
0.0
 10
210.8602534537391
 20
107.4071228695977
 30
0.0
 10
211.1359970117006
 20
107.3514385065561
 30
0.0
 10
211.2691014226292
 20
107.3100798780363
 30
0.0
 10
211.5206761310225
 20
107.2045310702326
 30
0.0
 10
211.6407940698933
 20
107.1395485671187
 30
0.0
 10
211.8627005704999
 20
106.9907943840383
 30
0.0
 10
211.9656254050213
 20
106.9066618569705
 30
0.0
 10
212.1564827849035
 20
106.7174155962158
 30
0.0
 10
212.241727960247
 20
106.6149453162661
 30
0.0
 10
212.3928088781502
 20
106.3934589953453
 30
0.0
 10
212.45909841564
 20
106.273386694954
 30
0.0
 10
212.5680219293502
 20
106.0184494511843
 30
0.0
 10
212.6098413812085
 20
105.8860208727859
 30
0.0
 10
212.6671247924315
 20
105.6104572826845
 30
0.0
 10
212.6820896346683
 20
105.4670716445692
 30
0.0
 10
212.6827724470949
 20
105.184754105006
 30
0.0
 10
212.6687072250733
 20
105.0424653556952
 30
0.0
 10
212.6125244365639
 20
104.7651743696597
 30
0.0
 10
212.5711889182164
 20
104.6323327927572
 30
0.0
 10
212.4097881003202
 20
104.2496395365882
 30
0.0
 10
212.2546296321705
 20
104.0226718031444
 30
0.0
 10
211.9707280368029
 20
103.7395332417752
 30
0.0
 10
211.8683929603286
 20
103.6552535586988
 30
0.0
 10
211.6470126928417
 20
103.5057528721237
 30
0.0
 10
211.5269390668453
 20
103.4402953820809
 30
0.0
 10
211.1511371293012
 20
103.2810752458957
 30
0.0
 10
210.8690405836858
 20
103.221456926446
 30
0.0
 10
210.4460391656033
 20
103.2205298551055
 30
0.0
 10
210.3020739577979
 20
103.2349253475707
 30
0.0
 10
210.027542486239
 20
103.2906344281545
 30
0.0
 10
209.8941436876017
 20
103.3321112235634
 30
0.0
 10
209.6416187448161
 20
103.4383816503398
 30
0.0
 10
209.523790038095
 20
103.5022984549278
 30
0.0
 10
209.3021332361651
 20
103.6509157202853
 30
0.0
 10
209.1975854188402
 20
103.7365549782528
 30
0.0
 10
209.0084540310994
 20
103.9242913392851
 30
0.0
 10
208.9231222509991
 20
104.0266347536461
 30
0.0
 10
208.7708717258812
 20
104.2500827432382
 30
0.0
 10
208.7042642608044
 20
104.3714252600923
 30
0.0
 10
208.5426080806737
 20
104.7509760400604
 30
0.0
 10
208.482437182948
 20
105.0344374887068
 30
0.0
 10
208.482437182948
 20
105.4640320087534
 30
0.0
  0
LINE
  5
11F
330
1F
100
AcDbEntity
  8
0
  6
HIDDEN
 62
     7
370
     0
100
AcDbLine
 10
213.5824389115
 20
102.0708337683
 30
0.0
 11
213.5824389115
 21
108.5708339025
 31
0.0
  0
SPLINE
  5
120
330
1F
100
AcDbEntity
  8
0
  6
HIDDEN
 62
     7
370
     0
100
AcDbSpline
210
0.0
220
0.0
230
1.0
 70
     8
 71
     3
 72
    62
 73
    58
 74
     0
 42
0.00000001
 43
0.00000001
 12
1.0
 22
0.0
 32
0.0
 13
1.0
 23
0.0
 33
0.0
 40
-0.0624999999999984
 40
-0.0624999999999984
 40
0.0
 40
0.0
 40
0.0312499999999998
 40
0.0312499999999998
 40
0.0624999999999996
 40
0.0624999999999996
 40
0.1249999999999991
 40
0.1249999999999991
 40
0.1562499999999994
 40
0.1562499999999994
 40
0.1874999999999997
 40
0.1874999999999997
 40
0.2187499999999999
 40
0.2187499999999999
 40
0.2500000000000002
 40
0.2500000000000002
 40
0.2812500000000005
 40
0.2812500000000005
 40
0.3125000000000008
 40
0.3125000000000008
 40
0.3437500000000011
 40
0.3437500000000011
 40
0.3750000000000013
 40
0.3750000000000013
 40
0.4062500000000016
 40
0.4062500000000016
 40
0.4375000000000019
 40
0.4375000000000019
 40
0.4687500000000022
 40
0.4687500000000022
 40
0.5000000000000024
 40
0.5000000000000024
 40
0.5312500000000027
 40
0.5312500000000027
 40
0.5625000000000029
 40
0.5625000000000029
 40
0.6250000000000034
 40
0.6250000000000034
 40
0.6562500000000037
 40
0.6562500000000037
 40
0.6875000000000039
 40
0.6875000000000039
 40
0.7500000000000044
 40
0.7500000000000044
 40
0.7812500000000039
 40
0.7812500000000039
 40
0.8125000000000033
 40
0.8125000000000033
 40
0.8437500000000029
 40
0.8437500000000029
 40
0.8750000000000024
 40
0.8750000000000024
 40
0.906250000000002
 40
0.906250000000002
 40
0.9375000000000016
 40
0.9375000000000016
 40
1.0
 40
1.0
 40
1.03125
 40
1.03125
 10
208.482437182948
 20
105.6072301821022
 30
0.0
 10
208.482437182948
 20
105.1776356620557
 30
0.0
 10
208.4969248342503
 20
105.0375510107896
 30
0.0
 10
208.5530052198446
 20
104.7631450131868
 30
0.0
 10
208.595343541579
 20
104.6277405168145
 30
0.0
 10
208.7564181844295
 20
104.247832172581
 30
0.0
 10
208.911663255174
 20
104.0211482526218
 30
0.0
 10
209.1940844969686
 20
103.7396495158865
 30
0.0
 10
209.2981619435929
 20
103.6539797922304
 30
0.0
 10
209.5192083164857
 20
103.5049842631139
 30
0.0
 10
209.6363221537676
 20
103.4411335941059
 30
0.0
 10
209.88605480973
 20
103.3350195853171
 30
0.0
 10
210.0200904824117
 20
103.292723085683
 30
0.0
 10
210.2933448796825
 20
103.236153364701
 30
0.0
 10
210.4356966422936
 20
103.2211406732381
 30
0.0
 10
210.7202599586454
 20
103.2205364650259
 30
0.0
 10
210.8602534537391
 20
103.2345448012113
 30
0.0
 10
211.1359970117005
 20
103.290229164253
 30
0.0
 10
211.2691014226291
 20
103.3315877927728
 30
0.0
 10
211.5206761310225
 20
103.4371366005764
 30
0.0
 10
211.6407940698933
 20
103.5021191036903
 30
0.0
 10
211.8627005704998
 20
103.6508732867708
 30
0.0
 10
211.9656254050213
 20
103.7350058138385
 30
0.0
 10
212.1564827849034
 20
103.9242520745932
 30
0.0
 10
212.241727960247
 20
104.0267223545429
 30
0.0
 10
212.3928088781502
 20
104.2482086754637
 30
0.0
 10
212.45909841564
 20
104.368280975855
 30
0.0
 10
212.5680219293502
 20
104.6232182196247
 30
0.0
 10
212.6098413812085
 20
104.7556467980231
 30
0.0
 10
212.6671247924315
 20
105.0312103881246
 30
0.0
 10
212.6820896346683
 20
105.1745960262399
 30
0.0
 10
212.6827724470949
 20
105.4569135658031
 30
0.0
 10
212.6687072250733
 20
105.5992023151138
 30
0.0
 10
212.6125244365638
 20
105.8764933011494
 30
0.0
 10
212.5711889182164
 20
106.0093348780518
 30
0.0
 10
212.4097881003202
 20
106.3920281342209
 30
0.0
 10
212.2546296321705
 20
106.6189958676647
 30
0.0
 10
211.9707280368029
 20
106.9021344290338
 30
0.0
 10
211.8683929603286
 20
106.9864141121103
 30
0.0
 10
211.6470126928417
 20
107.1359147986853
 30
0.0
 10
211.5269390668452
 20
107.2013722887282
 30
0.0
 10
211.1511371293012
 20
107.3605924249134
 30
0.0
 10
210.8690405836858
 20
107.420210744363
 30
0.0
 10
210.4460391656033
 20
107.4211378157036
 30
0.0
 10
210.3020739577979
 20
107.4067423232384
 30
0.0
 10
210.027542486239
 20
107.3510332426545
 30
0.0
 10
209.8941436876017
 20
107.3095564472456
 30
0.0
 10
209.6416187448161
 20
107.2032860204693
 30
0.0
 10
209.523790038095
 20
107.1393692158813
 30
0.0
 10
209.3021332361651
 20
106.9907519505237
 30
0.0
 10
209.1975854188402
 20
106.9051126925563
 30
0.0
 10
209.0084540310994
 20
106.717376331524
 30
0.0
 10
208.9231222509991
 20
106.6150329171629
 30
0.0
 10
208.7708717258813
 20
106.3915849275709
 30
0.0
 10
208.7042642608044
 20
106.2702424107168
 30
0.0
 10
208.5426080806737
 20
105.8906916307486
 30
0.0
 10
208.482437182948
 20
105.6072301821022
 30
0.0
 10
208.482437182948
 20
105.1776356620557
 30
0.0
  0
ELLIPSE
  5
121
330
1F
100
AcDbEntity
  8
0
  6
HIDDEN
 62
     7
370
     0
100
AcDbEllipse
 10
243.9776123122
 20
105.3208338354
 30
0.0
 11
9.268362359823186
 21
12.98522500655771
 31
0.0
210
0.0
220
0.0
230
1.0
 40
0.0668534593
 41
1.618477629394296
 42
3.189273956189359
  0
LINE
  5
122
330
1F
100
AcDbEntity
  8
0
  6
HIDDEN
 62
     7
370
     0
100
AcDbLine
 10
222.0824337855
 20
92.3208335672
 30
0.0
 11
222.0824337855
 21
105.3208338354
 31
0.0
  0
LINE
  5
123
330
1F
100
AcDbEntity
  8
0
  6
HIDDEN
 62
     7
370
     0
100
AcDbLine
 10
233.9229784265
 20
111.4915085282
 30
0.0
 11
233.882305707
 21
111.470262732
 31
0.0
  0
LINE
  5
124
330
1F
100
AcDbEntity
  8
0
  6
HIDDEN
 62
     7
370
     0
100
AcDbLine
 10
236.7476425424
 20
108.6737233937
 30
0.0
 11
246.1582771793
 21
109.4950411726
 31
0.0
  0
LINE
  5
125
330
1F
100
AcDbEntity
  8
0
  6
HIDDEN
 62
     7
370
     0
100
AcDbLine
 10
246.1582771793
 20
109.4950411726
 30
0.0
 11
246.1569882288
 21
109.4803444367
 31
0.0
  0
LINE
  5
126
330
1F
100
AcDbEntity
  8
0
  6
HIDDEN
 62
     7
370
     0
100
AcDbLine
 10
234.7125090018
 20
120.4938750971
 30
0.0
 11
234.6733934536
 21
120.4904552806
 31
0.0
  0
LINE
  5
127
330
1F
100
AcDbEntity
  8
0
  6
HIDDEN
 62
     7
370
     0
100
AcDbLine
 10
234.7125090018
 20
120.4938750971
 30
0.0
 11
233.9229784265
 21
111.4915085282
 31
0.0
  0
SPLINE
  5
128
330
1F
100
AcDbEntity
  8
0
  6
HIDDEN
 62
     7
370
     0
100
AcDbSpline
210
0.0
220
0.0
230
1.0
 70
     8
 71
     3
 72
    12
 73
     8
 74
     0
 42
0.00000001
 43
0.00000001
 12
1.0
 22
0.0
 32
0.0
 13
1.0
 23
0.0
 33
0.0
 40
0.0
 40
0.0
 40
0.0
 40
0.0
 40
0.2499999999999996
 40
0.2499999999999996
 40
0.4999999999999991
 40
0.4999999999999991
 40
1.0
 40
1.0
 40
1.0
 40
1.0
 10
223.2539723051564
 20
110.9628554340858
 30
0.0
 10
223.0758102825051
 20
110.5153510569248
 30
0.0
 10
222.9127232552738
 20
110.0610756015106
 30
0.0
 10
222.6235485504387
 20
109.1359060792225
 30
0.0
 10
222.4972573595831
 20
108.6631475043089
 30
0.0
 10
222.1912274443413
 20
107.2430781686667
 30
0.0
 10
222.0824371829481
 20
106.2871944009859
 30
0.0
 10
222.082437182948
 20
105.3208338354045
 30
0.0
  0
LINE
  5
129
330
1F
100
AcDbEntity
  8
0
  6
HIDDEN
 62
     7
370
     0
100
AcDbLine
 10
223.2539705291
 20
119.4919955243
 30
0.0
 11
223.2539705291
 21
110.962855376
 31
0.0
  0
ELLIPSE
  5
12A
330
1F
100
AcDbEntity
  8
0
  6
HIDDEN
 62
     7
370
     0
100
AcDbEllipse
 10
234.8767110619
 20
108.9927192036
 30
0.0
 11
2.099281448397733
 21
0.127654356355535
 31
0.0
210
0.0
220
0.0
230
1.0
 40
0.4303093993
 41
5.785598212635217
 42
5.92352144674097
  0
ELLIPSE
  5
12B
330
1F
100
AcDbEntity
  8
0
  6
HIDDEN
 62
     7
370
     0
100
AcDbEllipse
 10
234.8767110619
 20
108.9927192036
 30
0.0
 11
-1.616902374425194
 21
2.318196838028328
 31
0.0
210
0.0
220
0.0
230
1.0
 40
0.57803977
 41
5.737920332829789
 42
5.875843566935538
  0
LINE
  5
12C
330
1F
100
AcDbEntity
  8
0
  6
HIDDEN
 62
     7
370
     0
100
AcDbLine
 10
234.189262177
 20
111.4594971087
 30
0.0
 11
234.189262177
 21
111.2934767526
 31
0.0
  0
ARC
  5
12D
330
1F
100
AcDbEntity
  8
0
  6
HIDDEN
 62
     7
370
     0
100
AcDbCircle
 10
234.8781389736
 20
109.3122872617
 30
0.0
 40
2.097537375068008
100
AcDbArc
 50
340.9667694557
 51
109.1730072491
  0
LINE
  5
12E
330
1F
100
AcDbEntity
  8
0
  6
HIDDEN
 62
     7
370
     0
100
AcDbLine
 10
236.8610031262
 20
108.6282457482
 30
0.0
 11
236.8610031262
 21
108.7942663372
 31
0.0
  0
ARC
  5
12F
330
1F
100
AcDbEntity
  8
0
  6
HIDDEN
 62
     7
370
     0
100
AcDbCircle
 10
234.8780876806
 20
109.2913116277
 30
0.0
 40
2.095896332903512
100
AcDbArc
 50
269.9624023459
 51
119.3292353851
  0
ARC
  5
130
330
1F
100
AcDbEntity
  8
0
  6
HIDDEN
 62
     7
370
     0
100
AcDbCircle
 10
234.8741375493
 20
109.2926321002
 30
0.0
 40
2.097217934725859
100
AcDbArc
 50
175.485264421
 51
270.0703432413
  0
LINE
  5
131
330
1F
100
AcDbEntity
  8
0
  6
HIDDEN
 62
     7
370
     0
100
AcDbLine
 10
244.4040305272
 20
107.7685130086
 30
0.0
 11
246.0385165468
 21
108.1295669802
 31
0.0
  0
LINE
  5
132
330
1F
100
AcDbEntity
  8
0
  6
HIDDEN
 62
     7
370
     0
100
AcDbLine
 10
236.8610031262
 20
108.7942663372
 30
0.0
 11
245.9225333586
 21
109.5851158981
 31
0.0
  0
LINE
  5
133
330
1F
100
AcDbEntity
  8
0
  6
HIDDEN
 62
     7
370
     0
100
AcDbLine
 10
246.1582771793
 20
109.4950411726
 30
0.0
 11
245.9225333586
 21
109.5851158981
 31
0.0
  0
LINE
  5
134
330
1F
100
AcDbEntity
  8
0
  6
HIDDEN
 62
     7
370
     0
100
AcDbLine
 10
234.9689952388
 20
120.3501077626
 30
0.0
 11
234.189262177
 21
111.4594971087
 31
0.0
  0
ELLIPSE
  5
135
330
1F
100
AcDbEntity
  8
0
  6
HIDDEN
 62
     7
370
     0
100
AcDbEllipse
 10
233.5265240225
 20
105.4245687595
 30
0.0
 11
1.20566570545202
 21
15.06851290658543
 31
0.0
210
0.0
220
0.0
230
1.0
 40
0.1282539226
 41
6.155203361023104
 42
6.29333733833195
  0
LINE
  5
136
330
1F
100
AcDbEntity
  8
0
  6
HIDDEN
 62
     7
370
     0
100
AcDbLine
 10
245.9225333586
 20
109.5851158981
 30
0.0
 11
245.6269241229
 21
109.3932965096
 31
0.0
  0
LINE
  5
137
330
1F
100
AcDbEntity
  8
0
  6
HIDDEN
 62
     7
370
     0
100
AcDbLine
 10
234.9355421319
 20
119.8027080182
 30
0.0
 11
234.189262177
 21
111.2934767526
 31
0.0
  0
ELLIPSE
  5
138
330
1F
100
AcDbEntity
  8
0
  6
HIDDEN
 62
     7
370
     0
100
AcDbEllipse
 10
233.6536839155
 20
105.4359896264
 30
0.0
 11
1.316285369439925
 21
15.08138773520339
 31
0.0
210
0.0
220
0.0
230
1.0
 40
0.0060565887
 41
5.97462917116032
 42
6.134637800729385
  0
SPLINE
  5
139
330
1F
100
AcDbEntity
  8
0
  6
HIDDEN
 62
     7
370
     0
100
AcDbSpline
210
0.0
220
0.0
230
1.0
 70
     8
 71
     3
 72
     8
 73
     4
 74
     0
 42
0.00000001
 43
0.00000001
 12
1.0
 22
0.0
 32
0.0
 13
1.0
 23
0.0
 33
0.0
 40
0.0
 40
0.0
 40
0.0
 40
0.0
 40
1.0
 40
1.0
 40
1.0
 40
1.0
 10
156.0873972050056
 20
91.58174930424693
 30
0.0
 10
156.1381243482122
 20
91.53599500292171
 30
0.0
 10
156.1960116777731
 20
91.50749085705817
 30
0.0
 10
156.2611168393883
 20
91.49576982739936
 30
0.0
  0
LINE
  5
13A
330
1F
100
AcDbEntity
  8
0
  6
HIDDEN
 62
     7
370
     0
100
AcDbLine
 10
135.0824362889
 20
95.6632226963
 30
0.0
 11
135.0824362889
 21
91.8233033527
 31
0.0
  0
LINE
  5
13B
330
1F
100
AcDbEntity
  8
0
  6
HIDDEN
 62
     7
370
     0
100
AcDbLine
 10
133.5824369743
 20
96.0962355394
 30
0.0
 11
133.5824369743
 21
92.689329039
 31
0.0
  0
LINE
  5
13C
330
1F
100
AcDbEntity
  8
0
  6
HIDDEN
 62
     7
370
     0
100
AcDbLine
 10
155.8824371604
 20
95.4019382853
 30
0.0
 11
155.8824371604
 21
94.3467954431
 31
0.0
  0
LINE
  5
13D
330
1F
100
AcDbEntity
  8
0
  6
HIDDEN
 62
     7
370
     0
100
AcDbLine
 10
155.8824371604
 20
91.4005974565
 30
0.0
 11
155.8824371604
 21
91.3007354621
 31
0.0
  0
SPLINE
  5
13E
330
1F
100
AcDbEntity
  8
0
  6
HIDDEN
 62
     7
370
     0
100
AcDbSpline
210
0.0
220
0.0
230
1.0
 70
     8
 71
     3
 72
    16
 73
    12
 74
     0
 42
0.00000001
 43
0.00000001
 12
1.0
 22
0.0
 32
0.0
 13
1.0
 23
0.0
 33
0.0
 40
0.0
 40
0.0
 40
0.0
 40
0.0
 40
0.2500000000000001
 40
0.2500000000000001
 40
0.3750000000000001
 40
0.3750000000000001
 40
0.5000000000000001
 40
0.5000000000000001
 40
0.75
 40
0.75
 40
1.0
 40
1.0
 40
1.0
 40
1.0
 10
155.8824371829478
 20
94.34679584315805
 30
0.0
 10
155.8018998510486
 20
93.95778865921407
 30
0.0
 10
155.7418625070214
 20
93.60128821758971
 30
0.0
 10
155.6811247998678
 20
93.1147858324024
 30
0.0
 10
155.6658024247548
 20
92.96070689154897
 30
0.0
 10
155.6452196154506
 20
92.6692373330563
 30
0.0
 10
155.6400200184248
 20
92.53166744915742
 30
0.0
 10
155.6399663652446
 20
92.15342261396819
 30
0.0
 10
155.660163908722
 20
91.94354154541612
 30
0.0
 10
155.7408419970794
 20
91.60696224650428
 30
0.0
 10
155.8018881616865
 20
91.48067775458574
 30
0.0
 10
155.8824371829442
 20
91.40059744709328
 30
0.0
  0
SPLINE
  5
13F
330
1F
100
AcDbEntity
  8
0
  6
HIDDEN
 62
     7
370
     0
100
AcDbSpline
210
0.0
220
0.0
230
1.0
 70
     8
 71
     3
 72
    24
 73
    20
 74
     0
 42
0.00000001
 43
0.00000001
 12
1.0
 22
0.0
 32
0.0
 13
1.0
 23
0.0
 33
0.0
 40
0.0
 40
0.0
 40
0.0
 40
0.0
 40
0.2500000000000042
 40
0.2500000000000042
 40
0.3750000000000053
 40
0.3750000000000053
 40
0.4375000000000048
 40
0.4375000000000048
 40
0.4687500000000052
 40
0.4687500000000052
 40
0.5000000000000054
 40
0.5000000000000054
 40
0.5625000000000036
 40
0.5625000000000036
 40
0.6250000000000018
 40
0.6250000000000018
 40
0.7500000000000006
 40
0.7500000000000006
 40
1.0
 40
1.0
 40
1.0
 40
1.0
 10
155.8824371829479
 20
91.4005974470971
 30
0.0
 10
155.8828400935837
 20
91.43102168393513
 30
0.0
 10
155.8848840729243
 20
91.46387978448931
 30
0.0
 10
155.8941213157505
 20
91.51990515164293
 30
0.0
 10
155.898008378731
 20
91.53951620482835
 30
0.0
 10
155.9089122701376
 20
91.57379048825794
 30
0.0
 10
155.9130543158881
 20
91.58585291373015
 30
0.0
 10
155.9249493896409
 20
91.60817207842972
 30
0.0
 10
155.9301964539497
 20
91.61713859078999
 30
0.0
 10
155.947063520329
 20
91.63478815531627
 30
0.0
 10
155.9548859278539
 20
91.63893243945587
 30
0.0
 10
155.9718347284754
 20
91.64541998062984
 30
0.0
 10
155.9792910796934
 20
91.6448230992582
 30
0.0
 10
155.9933509828858
 20
91.64307683528618
 30
0.0
 10
155.9994833680218
 20
91.64124614738769
 30
0.0
 10
156.016778130545
 20
91.63467973781486
 30
0.0
 10
156.0267954489539
 20
91.62881452265617
 30
0.0
 10
156.0551667831967
 20
91.61006983862582
 30
0.0
 10
156.0717022208411
 20
91.5959056905392
 30
0.0
 10
156.0873972050056
 20
91.58174930424697
 30
0.0
  0
LINE
  5
140
330
1F
100
AcDbEntity
  8
0
  6
HIDDEN
 62
     7
370
     0
100
AcDbLine
 10
155.8824371604
 20
119.3409322087
 30
0.0
 11
155.8824371604
 21
119.2410702143
 31
0.0
  0
SPLINE
  5
141
330
1F
100
AcDbEntity
  8
0
  6
HIDDEN
 62
     7
370
     0
100
AcDbSpline
210
0.0
220
0.0
230
1.0
 70
     8
 71
     3
 72
    24
 73
    20
 74
     0
 42
0.00000001
 43
0.00000001
 12
1.0
 22
0.0
 32
0.0
 13
1.0
 23
0.0
 33
0.0
 40
0.0
 40
0.0
 40
0.0
 40
0.0
 40
0.2500000000000043
 40
0.2500000000000043
 40
0.3750000000000064
 40
0.3750000000000064
 40
0.4375000000000073
 40
0.4375000000000073
 40
0.5000000000000081
 40
0.5000000000000081
 40
0.5312500000000071
 40
0.5312500000000071
 40
0.5625000000000061
 40
0.5625000000000061
 40
0.6250000000000042
 40
0.6250000000000042
 40
0.7500000000000029
 40
0.7500000000000029
 40
1.0
 40
1.0
 40
1.0
 40
1.0
 10
156.0873972050084
 20
119.0599183665645
 30
0.0
 10
156.07163061671
 20
119.0456973955763
 30
0.0
 10
156.0550190837554
 20
119.0314671052414
 30
0.0
 10
156.0264927357974
 20
119.01267005002
 30
0.0
 10
156.0164073020074
 20
119.0067816296788
 30
0.0
 10
155.9989245314725
 20
119.0002442348764
 30
0.0
 10
155.992716875027
 20
118.9984330208752
 30
0.0
 10
155.9784453747818
 20
118.9968272183687
 30
0.0
 10
155.9708753042788
 20
118.9962744409826
 30
0.0
 10
155.9534789748435
 20
119.0034731856953
 30
0.0
 10
155.9450197018837
 20
119.0085649344428
 30
0.0
 10
155.928958737336
 20
119.0263798669219
 30
0.0
 10
155.9241255014897
 20
119.0349022817842
 30
0.0
 10
155.9126995817543
 20
119.0567987184331
 30
0.0
 10
155.9086782258719
 20
119.068539241239
 30
0.0
 10
155.8979177308407
 20
119.1025895051925
 30
0.0
 10
155.8940434217798
 20
119.1221644942212
 30
0.0
 10
155.8848705496526
 20
119.1780128029024
 30
0.0
 10
155.8828381789378
 20
119.2107905639313
 30
0.0
 10
155.882437182948
 20
119.2410702237193
 30
0.0
  0
LINE
  5
142
330
1F
100
AcDbEntity
  8
0
  6
HIDDEN
 62
     7
370
     0
100
AcDbLine
 10
135.0824362889
 20
118.8183643181
 30
0.0
 11
135.0824362889
 21
114.9784449745
 31
0.0
  0
LINE
  5
143
330
1F
100
AcDbEntity
  8
0
  6
HIDDEN
 62
     7
370
     0
100
AcDbLine
 10
155.8824371604
 20
116.2948722277
 30
0.0
 11
155.8824371604
 21
115.2397293855
 31
0.0
  0
SPLINE
  5
144
330
1F
100
AcDbEntity
  8
0
  6
HIDDEN
 62
     7
370
     0
100
AcDbSpline
210
0.0
220
0.0
230
1.0
 70
     8
 71
     3
 72
    16
 73
    12
 74
     0
 42
0.00000001
 43
0.00000001
 12
1.0
 22
0.0
 32
0.0
 13
1.0
 23
0.0
 33
0.0
 40
0.0
 40
0.0
 40
0.0
 40
0.0
 40
0.2500000000000002
 40
0.2500000000000002
 40
0.3750000000000001
 40
0.3750000000000001
 40
0.5000000000000001
 40
0.5000000000000001
 40
0.75
 40
0.75
 40
1.0
 40
1.0
 40
1.0
 40
1.0
 10
155.8824371829478
 20
119.2410702237194
 30
0.0
 10
155.8018998510485
 20
119.1610015375671
 30
0.0
 10
155.7418625070212
 20
119.0371370460768
 30
0.0
 10
155.6811247998676
 20
118.7864562221447
 30
0.0
 10
155.6658024247546
 20
118.6920176178352
 30
0.0
 10
155.6452196154504
 20
118.4807065502165
 30
0.0
 10
155.6400200184248
 20
118.3634170954629
 30
0.0
 10
155.6399663652447
 20
117.9853814237076
 30
0.0
 10
155.6601639087224
 20
117.6966042699635
 30
0.0
 10
155.7408419970804
 20
117.0467644068247
 30
0.0
 10
155.8018881616878
 20
116.683935472932
 30
0.0
 10
155.8824371829459
 20
116.2948718276603
 30
0.0
  0
SPLINE
  5
145
330
1F
100
AcDbEntity
  8
0
  6
HIDDEN
 62
     7
370
     0
100
AcDbSpline
210
0.0
220
0.0
230
1.0
 70
     8
 71
     3
 72
     8
 73
     4
 74
     0
 42
0.00000001
 43
0.00000001
 12
1.0
 22
0.0
 32
0.0
 13
1.0
 23
0.0
 33
0.0
 40
0.0
 40
0.0
 40
0.0
 40
0.0
 40
1.0
 40
1.0
 40
1.0
 40
1.0
 10
156.2611168393883
 20
119.1458978434097
 30
0.0
 10
156.1960116777743
 20
119.1341768137511
 30
0.0
 10
156.1381243482143
 20
119.1056726678884
 30
0.0
 10
156.0873972050083
 20
119.0599183665646
 30
0.0
  0
LINE
  5
146
330
1F
100
AcDbEntity
  8
0
  6
HIDDEN
 62
     7
370
     0
100
AcDbLine
 10
133.5824369743
 20
117.9523386318
 30
0.0
 11
133.5824369743
 21
114.5454321314
 31
0.0
  0
LINE
  5
147
330
1F
100
AcDbEntity
  8
0
  6
HIDDEN
 62
     7
370
     0
100
AcDbLine
 10
246.5848825231
 20
120.3158853833
 30
0.0
 11
246.1031130805
 21
120.8055161197
 31
0.0
  0
CIRCLE
  5
148
330
1F
100
AcDbEntity
  8
0
  6
HIDDEN
 62
     7
370
     0
100
AcDbCircle
 10
240.59608049
 20
115.0257392906
 30
0.0
 40
2.998021477039747
  0
LINE
  5
149
330
1F
100
AcDbEntity
  8
0
  6
HIDDEN
 62
     7
370
     0
100
AcDbLine
 10
236.8610031262
 20
108.6282457482
 30
0.0
 11
245.6269241229
 21
109.3932965096
 31
0.0
  0
SPLINE
  5
14A
330
1F
100
AcDbEntity
  8
0
  6
HIDDEN
 62
     7
370
     0
100
AcDbSpline
210
0.0
220
0.0
230
1.0
 70
     8
 71
     3
 72
     8
 73
     4
 74
     0
 42
0.00000001
 43
0.00000001
 12
1.0
 22
0.0
 32
0.0
 13
1.0
 23
0.0
 33
0.0
 40
0.0006016322878713
 40
0.0006016322878713
 40
0.0006016322878713
 40
0.0006016322878713
 40
0.0118140149923027
 40
0.0118140149923027
 40
0.0118140149923027
 40
0.0118140149923027
 10
246.1029341294567
 20
120.8037207634197
 30
0.0
 10
242.3804215031403
 20
120.4705974903335
 30
0.0
 10
238.657954721566
 20
120.1369638353274
 30
0.0
 10
234.9355440948234
 20
119.8027082460573
 30
0.0
  0
LINE
  5
14B
330
1F
100
AcDbEntity
  8
0
  6
HIDDEN
 62
     7
370
     0
100
AcDbLine
 10
246.5848527208
 20
120.315797839
 30
0.0
 11
245.6269241229
 21
109.3932965096
 31
0.0
  0
CIRCLE
  5
14C
330
1F
100
AcDbEntity
  8
0
  6
HIDDEN
 62
     7
370
     0
100
AcDbCircle
 10
240.5962154897
 20
114.9611873749
 30
0.0
 40
2.098442955191076
  0
SPLINE
  5
14D
330
1F
100
AcDbEntity
  8
0
  6
HIDDEN
 62
     7
370
     0
100
AcDbSpline
210
0.0
220
0.0
230
1.0
 70
     8
 71
     3
 72
    23
 73
    19
 74
     0
 42
0.00000001
 43
0.00000001
 12
1.0
 22
0.0
 32
0.0
 13
1.0
 23
0.0
 33
0.0
 40
0.0
 40
0.0
 40
0.0
 40
0.0
 40
0.0366486133259923
 40
0.076270778802269
 40
0.1188636811717199
 40
0.1644242526864225
 40
0.2129491770733604
 40
0.2644348923597897
 40
0.3188775929331001
 40
0.3762732310739223
 40
0.4366175181187902
 40
0.499905925357284
 40
0.6127121371958806
 40
0.7137015568973836
 40
0.8029020811352124
 40
0.8803383195093243
 40
0.9460316026056446
 40
1.0
 40
1.0
 40
1.0
 40
1.0
 10
246.103182848686
 20
120.80373271113
 30
0.0
 10
246.0856248626498
 20
120.7643426981298
 30
0.0
 10
246.0490842913254
 20
120.6823666915114
 30
0.0
 10
245.9912696261636
 20
120.5422517101743
 30
0.0
 10
245.928573797156
 20
120.3811399769058
 30
0.0
 10
245.8609177518966
 20
120.1958128785586
 30
0.0
 10
245.7883244982335
 20
119.9841709505498
 30
0.0
 10
245.710786441944
 20
119.7436760816404
 30
0.0
 10
245.6283067916231
 20
119.4718397733083
 30
0.0
 10
245.5408788923497
 20
119.1661122932206
 30
0.0
 10
245.4485263235393
 20
118.8239398277887
 30
0.0
 10
245.3272659599582
 20
118.3493293036849
 30
0.0
 10
245.1849352839354
 20
117.7479778611761
 30
0.0
 10
245.0298034814738
 20
117.033986250519
 30
0.0
 10
244.8931718993333
 20
116.3616612631002
 30
0.0
 10
244.7751409682931
 20
115.7476570223273
 30
0.0
 10
244.6755165161932
 20
115.2072430528621
 30
0.0
 10
244.6158599542919
 20
114.8668983006344
 30
0.0
 10
244.5889543565544
 20
114.7134000314809
 30
0.0
  0
SPLINE
  5
14E
330
1F
100
AcDbEntity
  8
0
  6
HIDDEN
 62
     7
370
     0
100
AcDbSpline
210
0.0
220
0.0
230
1.0
 70
     8
 71
     3
 72
    27
 73
    23
 74
     0
 42
0.00000001
 43
0.00000001
 12
1.0
 22
0.0
 32
0.0
 13
1.0
 23
0.0
 33
0.0
 40
0.0
 40
0.0
 40
0.0
 40
0.0
 40
0.0384093080950398
 40
0.0767299906424185
 40
0.1149888279044405
 40
0.153212730132948
 40
0.1914286813797105
 40
0.2296636825305295
 40
0.2679446941616109
 40
0.306298579821119
 40
0.3447520503283956
 40
0.383331609658604
 40
0.4220635029425626
 40
0.4609736670619095
 40
0.5000876842605665
 40
0.5725105559617986
 40
0.6443160270374243
 40
0.7156707072684335
 40
0.7867443767170014
 40
0.8577088324003694
 40
0.9287366638154337
 40
1.0
 40
1.0
 40
1.0
 40
1.0
 10
244.9961602996958
 20
113.9446594742673
 30
0.0
 10
245.0159964390162
 20
114.0593674631889
 30
0.0
 10
245.0556229477959
 20
114.2885187640869
 30
0.0
 10
245.1155901341797
 20
114.6240681449616
 30
0.0
 10
245.1758358996391
 20
114.9529967424711
 30
0.0
 10
245.2364045990547
 20
115.2747607663527
 30
0.0
 10
245.2972842601468
 20
115.5895049736054
 30
0.0
 10
245.3584779724852
 20
115.8971900171014
 30
0.0
 10
245.4199847907146
 20
116.1978258966107
 30
0.0
 10
245.4818048539237
 20
116.4914094565703
 30
0.0
 10
245.5439380009992
 20
116.777941119331
 30
0.0
 10
245.6063841957922
 20
117.0574205037
 30
0.0
 10
245.6691432191903
 20
117.3298472109196
 30
0.0
 10
245.7322154860503
 20
117.5952220921373
 30
0.0
 10
245.8134636606872
 20
117.9263483290566
 30
0.0
 10
245.912360613634
 20
118.3109919199191
 30
0.0
 10
246.0281832686421
 20
118.7326035709677
 30
0.0
 10
246.1425437779767
 20
119.1196202927261
 30
0.0
 10
246.2554522227201
 20
119.4722576767753
 30
0.0
 10
246.3668567920604
 20
119.789643957876
 30
0.0
 10
246.476942649813
 20
120.0750035934716
 30
0.0
 10
246.5488088885861
 20
120.2354276138572
 30
0.0
 10
246.5848014805397
 20
120.3157723821915
 30
0.0
  0
ELLIPSE
  5
14F
330
1F
100
AcDbEntity
  8
0
  6
HIDDEN
 62
     7
370
     0
100
AcDbEllipse
 10
240.5970379735
 20
114.4093284378
 30
0.0
 11
0.0
 21
2.105127985970455
 31
0.0
210
0.0
220
0.0
230
1.0
 40
0.9975640503
 41
1.871246794490399
 42
4.721211374302777
  0
SPLINE
  5
150
330
1F
100
AcDbEntity
  8
0
  6
HIDDEN
 62
     7
370
     0
100
AcDbSpline
210
0.0
220
0.0
230
1.0
 70
     8
 71
     3
 72
    38
 73
    34
 74
     0
 42
0.00000001
 43
0.00000001
 12
1.0
 22
0.0
 32
0.0
 13
1.0
 23
0.0
 33
0.0
 40
0.0
 40
0.0
 40
0.0
 40
0.0
 40
0.0624999999999977
 40
0.0624999999999977
 40
0.1249999999999954
 40
0.1249999999999954
 40
0.1874999999999932
 40
0.1874999999999932
 40
0.2499999999999909
 40
0.2499999999999909
 40
0.3124999999999886
 40
0.3124999999999886
 40
0.3749999999999863
 40
0.3749999999999863
 40
0.4374999999999841
 40
0.4374999999999841
 40
0.4999999999999818
 40
0.4999999999999818
 40
0.531249999999983
 40
0.531249999999983
 40
0.5624999999999841
 40
0.5624999999999841
 40
0.6249999999999866
 40
0.6249999999999866
 40
0.6874999999999889
 40
0.6874999999999889
 40
0.7499999999999913
 40
0.7499999999999913
 40
0.8124999999999937
 40
0.8124999999999937
 40
0.8749999999999961
 40
0.8749999999999961
 40
1.0
 40
1.0
 40
1.0
 40
1.0
 10
242.696956247684
 20
114.4279004651991
 30
0.0
 10
242.6957046356946
 20
114.5774459165125
 30
0.0
 10
242.6802637740945
 20
114.7232506433543
 30
0.0
 10
242.6237235194627
 20
115.0078951539063
 30
0.0
 10
242.5821483080733
 20
115.1476137192547
 30
0.0
 10
242.4759500161387
 20
115.4133575874372
 30
0.0
 10
242.4113996459787
 20
115.5400011905531
 30
0.0
 10
242.2588751036468
 20
115.7812544044926
 30
0.0
 10
242.1701142949329
 20
115.8967135555591
 30
0.0
 10
241.9692342427532
 20
116.1101243181431
 30
0.0
 10
241.8577554051278
 20
116.2078711027444
 30
0.0
 10
241.6074019890888
 20
116.3831793596933
 30
0.0
 10
241.4674319769421
 20
116.460958778877
 30
0.0
 10
241.1634817903151
 20
116.583177452409
 30
0.0
 10
240.9952209517339
 20
116.6289180633334
 30
0.0
 10
240.6437413113241
 20
116.6727465946783
 30
0.0
 10
240.4565838685931
 20
116.6705424647183
 30
0.0
 10
240.1864238127249
 20
116.6279910753405
 30
0.0
 10
240.0962539283116
 20
116.6071434304117
 30
0.0
 10
239.9231371980851
 20
116.5542795559931
 30
0.0
 10
239.840208718982
 20
116.5224689018928
 30
0.0
 10
239.6009951534114
 20
116.4125542033352
 30
0.0
 10
239.4578625217091
 20
116.3215241585147
 30
0.0
 10
239.2049609519931
 20
116.1183035281238
 30
0.0
 10
239.093343804127
 20
116.0043864380029
 30
0.0
 10
238.9025710760538
 20
115.7658794148585
 30
0.0
 10
238.8218736468635
 20
115.6400397959374
 30
0.0
 10
238.6859995126904
 20
115.3756413211419
 30
0.0
 10
238.6316074804208
 20
115.2380694560009
 30
0.0
 10
238.5499217614301
 20
114.9580020727338
 30
0.0
 10
238.5222004823256
 20
114.8146474422225
 30
0.0
 10
238.4795108527643
 20
114.3739469135421
 30
0.0
 10
238.5049938792252
 20
114.0788950169269
 30
0.0
 10
238.5911111067413
 20
113.7863147053774
 30
0.0
  0
CIRCLE
  5
151
330
1F
100
AcDbEntity
  8
0
  6
HIDDEN
 62
     7
370
     0
100
AcDbCircle
 10
210.5824371829
 20
105.3208338354
 30
0.0
 40
2.100000000000023
  0
CIRCLE
  5
152
330
1F
100
AcDbEntity
  8
0
  6
HIDDEN
 62
     7
370
     0
100
AcDbCircle
 10
210.5824371829
 20
105.3208338354
 30
0.0
 40
2.5
  0
LINE
  5
153
330
1F
100
AcDbEntity
  8
0
  6
HIDDEN
 62
     7
370
     0
100
AcDbLine
 10
133.5824369743
 20
114.5454321314
 30
0.0
 11
133.5824369743
 21
107.1710476909
 31
0.0
  0
LINE
  5
154
330
1F
100
AcDbEntity
  8
0
  6
HIDDEN
 62
     7
370
     0
100
AcDbLine
 10
133.5824369743
 20
103.4706199799
 30
0.0
 11
133.5824369743
 21
96.0962355394
 31
0.0
  0
SPLINE
  5
155
330
1F
100
AcDbEntity
  8
0
  6
HIDDEN
 62
     7
370
     0
100
AcDbSpline
210
0.0
220
0.0
230
1.0
 70
     8
 71
     3
 72
    24
 73
    20
 74
     0
 42
0.00000001
 43
0.00000001
 12
1.0
 22
0.0
 32
0.0
 13
1.0
 23
0.0
 33
0.0
 40
0.0
 40
0.0
 40
0.0
 40
0.0
 40
0.2500000000000028
 40
0.2500000000000028
 40
0.3750000000000026
 40
0.3750000000000026
 40
0.437500000000002
 40
0.437500000000002
 40
0.5000000000000014
 40
0.5000000000000014
 40
0.5312499999999986
 40
0.5312499999999986
 40
0.5624999999999957
 40
0.5624999999999957
 40
0.6249999999999954
 40
0.6249999999999954
 40
0.7499999999999948
 40
0.7499999999999948
 40
1.0
 40
1.0
 40
1.0
 40
1.0
 10
156.0873972050084
 20
94.52824010860627
 30
0.0
 10
156.0716283276509
 20
94.45438141667674
 30
0.0
 10
156.0550143458009
 20
94.38067002794104
 30
0.0
 10
156.0264826797959
 20
94.26912320431907
 30
0.0
 10
156.0163952649772
 20
94.23175163119062
 30
0.0
 10
155.9989077045229
 20
94.17485213355296
 30
0.0
 10
155.9926981427396
 20
94.15574903340769
 30
0.0
 10
155.978420589087
 20
94.11687551917217
 30
0.0
 10
155.9708490412916
 20
94.09695085973883
 30
0.0
 10
155.9534314576134
 20
94.06687864171145
 30
0.0
 10
155.9449489609686
 20
94.05519726290842
 30
0.0
 10
155.9289106490967
 20
94.04793575215939
 30
0.0
 10
155.9240901008931
 20
94.05151399916909
 30
0.0
 10
155.912680876345
 20
94.06327485440063
 30
0.0
 10
155.9086603958875
 20
94.0749405044512
 30
0.0
 10
155.8979065410671
 20
94.11147583456477
 30
0.0
 10
155.8940338597849
 20
94.13887156788834
 30
0.0
 10
155.8848657099473
 20
94.22359755964438
 30
0.0
 10
155.8828372045782
 20
94.2844296818165
 30
0.0
 10
155.882437182948
 20
94.34679584315816
 30
0.0
  0
SPLINE
  5
156
330
1F
100
AcDbEntity
  8
0
  6
HIDDEN
 62
     7
370
     0
100
AcDbSpline
210
0.0
220
0.0
230
1.0
 70
     8
 71
     3
 72
    24
 73
    20
 74
     0
 42
0.00000001
 43
0.00000001
 12
1.0
 22
0.0
 32
0.0
 13
1.0
 23
0.0
 33
0.0
 40
0.0
 40
0.0
 40
0.0
 40
0.0
 40
0.2500000000000134
 40
0.2500000000000134
 40
0.3750000000000214
 40
0.3750000000000214
 40
0.4375000000000235
 40
0.4375000000000235
 40
0.4687500000000245
 40
0.4687500000000245
 40
0.5000000000000254
 40
0.5000000000000254
 40
0.5625000000000238
 40
0.5625000000000238
 40
0.625000000000022
 40
0.625000000000022
 40
0.7500000000000149
 40
0.7500000000000149
 40
1.0
 40
1.0
 40
1.0
 40
1.0
 10
155.8824371829444
 20
116.2948718276617
 30
0.0
 10
155.8828418525202
 20
116.3579626361544
 30
0.0
 10
155.8848852993346
 20
116.419148358657
 30
0.0
 10
155.8942848645889
 20
116.5046480911587
 30
0.0
 10
155.8982357581176
 20
116.5322284745998
 30
0.0
 10
155.9093880664146
 20
116.5686825567114
 30
0.0
 10
155.9136096073412
 20
116.5805409784059
 30
0.0
 10
155.9258173289049
 20
116.591161029781
 30
0.0
 10
155.9316080991572
 20
116.5939943970032
 30
0.0
 10
155.9485296122671
 20
116.5826798100045
 30
0.0
 10
155.9559357282167
 20
116.5708989242509
 30
0.0
 10
155.9723929814598
 20
116.5408580830212
 30
0.0
 10
155.9798494993708
 20
116.5211451294082
 30
0.0
 10
155.9937574286454
 20
116.4827430633482
 30
0.0
 10
155.9998493745403
 20
116.4638614134367
 30
0.0
 10
156.0170436668914
 20
116.4075605029052
 30
0.0
 10
156.0270286170949
 20
116.3704844250956
 30
0.0
 10
156.0552746621938
 20
116.2598257542058
 30
0.0
 10
156.0717541991549
 20
116.1866966937974
 30
0.0
 10
156.0873972050146
 20
116.1134275621736
 30
0.0
  0
SPLINE
  5
157
330
1F
100
AcDbEntity
  8
0
  6
HIDDEN
 62
     7
370
     0
100
AcDbSpline
210
0.0
220
0.0
230
1.0
 70
     8
 71
     3
 72
     8
 73
     4
 74
     0
 42
0.00000001
 43
0.00000001
 12
1.0
 22
0.0
 32
0.0
 13
1.0
 23
0.0
 33
0.0
 40
0.0
 40
0.0
 40
0.0
 40
0.0
 40
1.0
 40
1.0
 40
1.0
 40
1.0
 10
156.2611168393883
 20
95.26731451779774
 30
0.0
 10
156.1960116777743
 20
95.01228928259206
 30
0.0
 10
156.1381243482143
 20
94.76583726645083
 30
0.0
 10
156.0873972050083
 20
94.52824010860625
 30
0.0
  0
SPLINE
  5
158
330
1F
100
AcDbEntity
  8
0
  6
HIDDEN
 62
     7
370
     0
100
AcDbSpline
210
0.0
220
0.0
230
1.0
 70
     8
 71
     3
 72
     8
 73
     4
 74
     0
 42
0.00000001
 43
0.00000001
 12
1.0
 22
0.0
 32
0.0
 13
1.0
 23
0.0
 33
0.0
 40
0.0
 40
0.0
 40
0.0
 40
0.0
 40
1.0
 40
1.0
 40
1.0
 40
1.0
 10
156.0873972050145
 20
116.1134275621736
 30
0.0
 10
156.138124348219
 20
115.875830404338
 30
0.0
 10
156.1960116777769
 20
115.6293783882065
 30
0.0
 10
156.2611168393883
 20
115.3743531530113
 30
0.0
  0
LINE
  5
159
330
1F
100
AcDbEntity
  8
0
  6
HIDDEN
 62
     7
370
     0
100
AcDbLine
 10
135.0824362889
 20
102.7658055328
 30
0.0
 11
135.0824362889
 21
95.6632226963
 31
0.0
  0
LINE
  5
15A
330
1F
100
AcDbEntity
  8
0
  6
HIDDEN
 62
     7
370
     0
100
AcDbLine
 10
135.0824362889
 20
114.9784449745
 30
0.0
 11
135.0824362889
 21
107.875862138
 31
0.0
  0
LINE
  5
15B
330
1F
100
AcDbEntity
  8
0
  6
HIDDEN
 62
     7
370
     0
100
AcDbLine
 10
155.8824371604
 20
115.2397293855
 30
0.0
 11
155.8824371604
 21
95.4019382853
 31
0.0
  0
LINE
  5
15C
330
1F
100
AcDbEntity
  8
0
  6
HIDDEN
 62
     7
370
     0
100
AcDbLine
 10
157.382437188
 20
113.8002008457
 30
0.0
 11
157.382437188
 21
96.8414668251
 31
0.0
  0
SPLINE
  5
15D
330
1F
100
AcDbEntity
  8
0
  6
HIDDEN
 62
     7
370
     0
100
AcDbSpline
210
0.0
220
0.0
230
1.0
 70
     8
 71
     3
 72
    22
 73
    18
 74
     0
 42
0.00000001
 43
0.00000001
 12
1.0
 22
0.0
 32
0.0
 13
1.0
 23
0.0
 33
0.0
 40
0.0
 40
0.0
 40
0.0
 40
0.0
 40
0.1249999999999999
 40
0.1249999999999999
 40
0.25
 40
0.25
 40
0.3750000000000001
 40
0.3750000000000001
 40
0.5000000000000001
 40
0.5000000000000001
 40
0.625
 40
0.625
 40
0.7500000000000001
 40
0.7500000000000001
 40
0.875
 40
0.875
 40
1.0
 40
1.0
 40
1.0
 40
1.0
 10
137.782437182948
 20
102.7278891555766
 30
0.0
 10
137.9633735410241
 20
102.9195090148831
 30
0.0
 10
138.142468989801
 20
103.1131508792703
 30
0.0
 10
138.493308978313
 20
103.5078061326545
 30
0.0
 10
138.6655020862177
 20
103.7088176633221
 30
0.0
 10
138.9912335918369
 20
104.1250287785559
 30
0.0
 10
139.1473098270053
 20
104.3410446188426
 30
0.0
 10
139.3986890408943
 20
104.8063673820074
 30
0.0
 10
139.4925541712131
 20
105.0619065750302
 30
0.0
 10
139.488826254351
 20
105.5962372101308
 30
0.0
 10
139.3914536118636
 20
105.8516580761315
 30
0.0
 10
139.1396328028697
 20
106.3116867920792
 30
0.0
 10
138.9846635473972
 20
106.5255237930077
 30
0.0
 10
138.6598507896719
 20
106.9395623757015
 30
0.0
 10
138.488957725544
 20
107.1388548477373
 30
0.0
 10
138.1403234860164
 20
107.5308297401715
 30
0.0
 10
137.9623156354879
 20
107.7232790261609
 30
0.0
 10
137.782437182948
 20
107.9137785152325
 30
0.0
  0
LINE
  5
15E
330
1F
100
AcDbEntity
  8
0
  6
HIDDEN
 62
     7
370
     0
100
AcDbLine
 10
137.7824372902
 20
102.7278890625
 30
0.0
 11
137.7824372902
 21
107.9137786083
 31
0.0
  0
SPLINE
  5
15F
330
1F
100
AcDbEntity
  8
0
  6
HIDDEN
 62
     7
370
     0
100
AcDbSpline
210
0.0
220
0.0
230
1.0
 70
     8
 71
     3
 72
     8
 73
     4
 74
     0
 42
0.00000001
 43
0.00000001
 12
1.0
 22
0.0
 32
0.0
 13
1.0
 23
0.0
 33
0.0
 40
0.0000137051794235
 40
0.0000137051794235
 40
0.0000137051794235
 40
0.0000137051794235
 40
0.0027147144718019
 40
0.0027147144718019
 40
0.0027147144718019
 40
0.0027147144718019
 10
135.082437182948
 20
102.7658055983428
 30
0.0
 10
135.9824333184427
 20
102.7528340311444
 30
0.0
 10
136.8824334970381
 20
102.7401991738324
 30
0.0
 10
137.782437182948
 20
102.7278891555766
 30
0.0
  0
SPLINE
  5
160
330
1F
100
AcDbEntity
  8
0
  6
HIDDEN
 62
     7
370
     0
100
AcDbSpline
210
0.0
220
0.0
230
1.0
 70
     8
 71
     3
 72
     8
 73
     4
 74
     0
 42
0.00000001
 43
0.00000001
 12
1.0
 22
0.0
 32
0.0
 13
1.0
 23
0.0
 33
0.0
 40
0.0000137050638847
 40
0.0000137050638847
 40
0.0000137050638847
 40
0.0000137050638847
 40
0.0027147143562632
 40
0.0027147143562632
 40
0.0027147143562632
 40
0.0027147143562632
 10
137.782437182948
 20
107.9137785152325
 30
0.0
 10
136.8824334970381
 20
107.9014684969767
 30
0.0
 10
135.9824333184427
 20
107.8888336396646
 30
0.0
 10
135.082437182948
 20
107.8758620724662
 30
0.0
  0
SPLINE
  5
161
330
1F
100
AcDbEntity
  8
0
  6
HIDDEN
 62
     7
370
     0
100
AcDbSpline
210
0.0
220
0.0
230
1.0
 70
     8
 71
     3
 72
    10
 73
     6
 74
     0
 42
0.00000001
 43
0.00000001
 12
1.0
 22
0.0
 32
0.0
 13
1.0
 23
0.0
 33
0.0
 40
0.0
 40
0.0
 40
0.0
 40
0.0
 40
0.5
 40
0.5
 40
1.0
 40
1.0
 40
1.0
 40
1.0
 10
133.5824371829472
 20
103.4706200217545
 30
0.0
 10
133.819579143663
 20
103.3150052072256
 30
0.0
 10
134.0649219024265
 20
103.1830961778063
 30
0.0
 10
134.5661854911595
 20
102.9514393011687
 30
0.0
 10
134.8222200604098
 20
102.8519936850459
 30
0.0
 10
135.082437182948
 20
102.7658055983428
 30
0.0
  0
SPLINE
  5
162
330
1F
100
AcDbEntity
  8
0
  6
HIDDEN
 62
     7
370
     0
100
AcDbSpline
210
0.0
220
0.0
230
1.0
 70
     8
 71
     3
 72
    10
 73
     6
 74
     0
 42
0.00000001
 43
0.00000001
 12
1.0
 22
0.0
 32
0.0
 13
1.0
 23
0.0
 33
0.0
 40
0.0
 40
0.0
 40
0.0
 40
0.0
 40
0.5
 40
0.5
 40
1.0
 40
1.0
 40
1.0
 40
1.0
 10
135.082437182948
 20
107.8758620724662
 30
0.0
 10
134.82222006041
 20
107.7896739857632
 30
0.0
 10
134.5661854911598
 20
107.6902283696404
 30
0.0
 10
134.0649219024271
 20
107.4585714930031
 30
0.0
 10
133.8195791436638
 20
107.3266624635839
 30
0.0
 10
133.582437182948
 20
107.1710476490552
 30
0.0
  0
LINE
  5
163
330
1F
100
AcDbEntity
  8
0
  6
HIDDEN
 62
     7
370
     0
100
AcDbLine
 10
133.5824369743
 20
103.4706199799
 30
0.0
 11
133.5824369743
 21
107.1710476909
 31
0.0
  0
SPLINE
  5
164
330
1F
100
AcDbEntity
  8
0
  6
HIDDEN
 62
     7
370
     0
100
AcDbSpline
210
0.0
220
0.0
230
1.0
 70
     8
 71
     3
 72
    62
 73
    58
 74
     0
 42
0.00000001
 43
0.00000001
 12
1.0
 22
0.0
 32
0.0
 13
1.0
 23
0.0
 33
0.0
 40
-0.0312500000000001
 40
-0.0312500000000001
 40
0.0
 40
0.0
 40
0.0312499999999999
 40
0.0312499999999999
 40
0.0624999999999998
 40
0.0624999999999998
 40
0.0937499999999997
 40
0.0937499999999997
 40
0.1249999999999996
 40
0.1249999999999996
 40
0.1874999999999993
 40
0.1874999999999993
 40
0.2499999999999991
 40
0.2499999999999991
 40
0.2812499999999989
 40
0.2812499999999989
 40
0.3124999999999989
 40
0.3124999999999989
 40
0.3437499999999988
 40
0.3437499999999988
 40
0.3749999999999987
 40
0.3749999999999987
 40
0.4374999999999985
 40
0.4374999999999985
 40
0.4687499999999984
 40
0.4687499999999984
 40
0.4999999999999982
 40
0.4999999999999982
 40
0.5624999999999981
 40
0.5624999999999981
 40
0.5937499999999983
 40
0.5937499999999983
 40
0.6249999999999984
 40
0.6249999999999984
 40
0.6562499999999986
 40
0.6562499999999986
 40
0.6874999999999987
 40
0.6874999999999987
 40
0.7187499999999988
 40
0.7187499999999988
 40
0.7499999999999989
 40
0.7499999999999989
 40
0.7812499999999991
 40
0.7812499999999991
 40
0.8124999999999992
 40
0.8124999999999992
 40
0.8437499999999993
 40
0.8437499999999993
 40
0.8749999999999994
 40
0.8749999999999994
 40
0.9062499999999996
 40
0.9062499999999996
 40
0.9374999999999998
 40
0.9374999999999998
 40
0.9687499999999999
 40
0.9687499999999999
 40
1.0
 40
1.0
 40
1.03125
 40
1.03125
 10
144.0362093108763
 20
106.8088128740609
 30
0.0
 10
144.2637096574645
 20
107.0581594159215
 30
0.0
 10
144.388172186382
 20
107.1697570933784
 30
0.0
 10
144.6572664525338
 20
107.3684078891968
 30
0.0
 10
144.8030795441231
 20
107.4557481339855
 30
0.0
 10
145.1042464224124
 20
107.5999438866277
 30
0.0
 10
145.2605821494768
 20
107.6577635571419
 30
0.0
 10
145.5847054488112
 20
107.745017169193
 30
0.0
 10
145.7513706605217
 20
107.7738192186748
 30
0.0
 10
146.2493869271536
 20
107.8145985239426
 30
0.0
 10
146.5900578759466
 20
107.7811552638014
 30
0.0
 10
147.229068791368
 20
107.5987026193426
 30
0.0
 10
147.5355233984318
 20
107.4472780590298
 30
0.0
 10
147.9320793076943
 20
107.1467801534455
 30
0.0
 10
148.0564284985438
 20
107.0325189682501
 30
0.0
 10
148.2788925925929
 20
106.7828590976776
 30
0.0
 10
148.3764579310702
 20
106.6486924896785
 30
0.0
 10
148.543713534709
 20
106.3612233951798
 30
0.0
 10
148.6137991902281
 20
106.2059565452799
 30
0.0
 10
148.7178545509496
 20
105.8889771251929
 30
0.0
 10
148.752830313617
 20
105.7263243736884
 30
0.0
 10
148.8046948331411
 20
105.2253873534859
 30
0.0
 10
148.7653887253697
 20
104.8852327521756
 30
0.0
 10
148.6026689329088
 20
104.4087381200785
 30
0.0
 10
148.5323884350226
 20
104.257670760251
 30
0.0
 10
148.3610552898925
 20
103.9703761898101
 30
0.0
 10
148.2596630487108
 20
103.8345184115128
 30
0.0
 10
147.9230634614877
 20
103.4657100165145
 30
0.0
 10
147.647830695323
 20
103.2632849071835
 30
0.0
 10
147.1980474679771
 20
103.0462081805747
 30
0.0
 10
147.0392476694735
 20
102.9869059085005
 30
0.0
 10
146.7166859485938
 20
102.8989333907
 30
0.0
 10
146.5528268366266
 20
102.8698136268537
 30
0.0
 10
146.2199940632727
 20
102.8409570117435
 30
0.0
 10
146.0499417718319
 20
102.8415805349575
 30
0.0
 10
145.7176661078122
 20
102.8728369787619
 30
0.0
 10
145.5539514960635
 20
102.9031556738137
 30
0.0
 10
145.2314860104891
 20
102.9938727128167
 30
0.0
 10
145.0729749119626
 20
103.0546416215185
 30
0.0
 10
144.7744212057647
 20
103.2021522963155
 30
0.0
 10
144.6325950765627
 20
103.2892873241794
 30
0.0
 10
144.3646733380043
 20
103.4918727907514
 30
0.0
 10
144.2405799076118
 20
103.6062109573936
 30
0.0
 10
144.0194457196937
 20
103.8543973953464
 30
0.0
 10
143.920988717595
 20
103.9894300122002
 30
0.0
 10
143.75163020386
 20
104.2814344102549
 30
0.0
 10
143.6834633661541
 20
104.4335701566905
 30
0.0
 10
143.5797293998277
 20
104.7499791051305
 30
0.0
 10
143.5440608379585
 20
104.9164755744847
 30
0.0
 10
143.509847073306
 20
105.2497374505952
 30
0.0
 10
143.5107054761351
 20
105.4163999044171
 30
0.0
 10
143.5485022560846
 20
105.7497881036346
 30
0.0
 10
143.5858450115387
 20
105.9155436761141
 30
0.0
 10
143.6930945946071
 20
106.2314349925768
 30
0.0
 10
143.7638558111462
 20
106.3847143256489
 30
0.0
 10
143.9359789612469
 20
106.6740913681354
 30
0.0
 10
144.0362093108763
 20
106.8088128740609
 30
0.0
 10
144.2637096574645
 20
107.0581594159215
 30
0.0
  0
CIRCLE
  5
165
330
1F
100
AcDbEntity
  8
0
  6
HIDDEN
 62
     7
370
     0
100
AcDbCircle
 10
146.0824371829
 20
105.3208338354
 30
0.0
 40
2.300000000000011
  0
LINE
  5
166
330
1F
100
AcDbEntity
  8
0
  6
HIDDEN
 62
     7
370
     0
100
AcDbLine
 10
244.5902726903
 20
114.71562295
 30
0.0
 11
244.9969030276
 21
113.9432017017
 31
0.0
  0
SPLINE
  5
167
330
1F
100
AcDbEntity
  8
0
  6
HIDDEN
 62
     7
370
     0
100
AcDbSpline
210
0.0
220
0.0
230
1.0
 70
     8
 71
     3
 72
    10
 73
     6
 74
     0
 42
0.00000001
 43
0.00000001
 12
1.0
 22
0.0
 32
0.0
 13
1.0
 23
0.0
 33
0.0
 40
0.0
 40
0.0
 40
0.0
 40
0.0
 40
0.5
 40
0.5
 40
1.0
 40
1.0
 40
1.0
 40
1.0
 10
238.5911111067414
 20
113.7863147053773
 30
0.0
 10
236.0246326538322
 20
113.3748395025028
 30
0.0
 10
233.4611772021766
 20
112.9435556836959
 30
0.0
 10
228.3442628586911
 20
112.0154842643693
 30
0.0
 10
225.7905917851542
 20
111.5202840486913
 30
0.0
 10
223.2539723051705
 20
110.9628554340794
 30
0.0
  0
SPLINE
  5
168
330
1F
100
AcDbEntity
  8
0
  6
HIDDEN
 62
     7
370
     0
100
AcDbSpline
210
0.0
220
0.0
230
1.0
 70
     8
 71
     3
 72
     8
 73
     4
 74
     0
 42
0.00000001
 43
0.00000001
 12
1.0
 22
0.0
 32
0.0
 13
1.0
 23
0.0
 33
0.0
 40
0.0
 40
0.0
 40
0.0
 40
0.0
 40
1.0
 40
1.0
 40
1.0
 40
1.0
 10
244.5888250045065
 20
114.7134065900566
 30
0.0
 10
243.9580588011838
 20
114.6191767716529
 30
0.0
 10
243.327431458458
 20
114.5240370508034
 30
0.0
 10
242.696956247684
 20
114.427900465199
 30
0.0
  0
LINE
  5
169
330
1F
100
AcDbEntity
  8
0
  6
HIDDEN
 62
     7
370
     0
100
AcDbLine
 10
244.4040305272
 20
107.7685130086
 30
0.0
 11
244.9961579695
 21
113.9446592216
 31
0.0
  0
LINE
  5
16A
330
1F
100
AcDbEntity
  8
0
  6
HIDDEN
 62
     7
370
     0
100
AcDbLine
 10
242.6687307015
 20
105.3208338354
 30
0.0
 11
244.4040305272
 21
107.7685130086
 31
0.0
  0
CIRCLE
  5
16B
330
1F
100
AcDbEntity
  8
0
  6
HIDDEN
 62
     7
370
     0
100
AcDbCircle
 10
169.5824371829
 20
105.3208338354
 30
0.0
 40
2.0
  0
LINE
  5
16C
330
1F
100
AcDbEntity
  8
0
  6
HIDDEN
 62
     7
370
     0
100
AcDbLine
 10
157.5824371829
 20
89.5208345983
 30
0.0
 11
157.6753304034
 21
89.6137265746
 31
0.0
  0
LINE
  5
16D
330
1F
100
AcDbEntity
  8
0
  6
HIDDEN
 62
     7
370
     0
100
AcDbLine
 10
157.6753304034
 20
121.0279410962
 30
0.0
 11
157.5824371829
 21
121.1208330725
 31
0.0
  0
ARC
  5
16E
330
1F
100
AcDbEntity
  8
0
  6
HIDDEN
 62
     7
370
     0
100
AcDbCircle
 10
156.9682236206
 20
90.3208338354
 30
0.0
 40
1.000000000000008
100
AcDbArc
 50
315.0
 51
0.0
  0
ARC
  5
16F
330
1F
100
AcDbEntity
  8
0
  6
HIDDEN
 62
     7
370
     0
100
AcDbCircle
 10
156.9682236206
 20
90.3208338354
 30
0.0
 40
1.0
100
AcDbArc
 50
0.0
 51
52.1052014664
  0
ARC
  5
170
330
1F
100
AcDbEntity
  8
0
  6
HIDDEN
 62
     7
370
     0
100
AcDbCircle
 10
156.9682236206
 20
120.3208338354
 30
0.0
 40
1.000000000000008
100
AcDbArc
 50
351.8087250651
 51
45.0
  0
ARC
  5
171
330
1F
100
AcDbEntity
  8
0
  6
HIDDEN
 62
     7
370
     0
100
AcDbCircle
 10
156.9682236206
 20
120.3208338354
 30
0.0
 40
1.00000000000001
100
AcDbArc
 50
307.8947985336
 51
351.8087250651
  0
LINE
  5
172
330
1F
100
AcDbEntity
  8
0
  6
HIDDEN
 62
     7
370
     0
100
AcDbLine
 10
157.9682236187
 20
90.3208341707
 30
0.0
 11
157.9682236187
 21
120.3208335001
 31
0.0
  0
LINE
  5
173
330
1F
100
AcDbEntity
  8
0
  6
HIDDEN
 62
     7
370
     0
100
AcDbLine
 10
157.9682236187
 20
90.3208341707
 30
0.0
 11
157.9682236187
 21
120.3208335001
 31
0.0
  0
LINE
  5
174
330
1F
100
AcDbEntity
  8
0
  6
HIDDEN
 62
     7
370
     0
100
AcDbLine
 10
208.2723877683
 20
106.6299380992
 30
0.0
 11
208.0997950688
 21
104.3494017004
 31
0.0
  0
LINE
  5
175
330
1F
100
AcDbEntity
  8
0
  6
HIDDEN
 62
     7
370
     0
100
AcDbLine
 10
208.0997950688
 20
104.3494017004
 30
0.0
 11
209.9559023335
 21
103.0131731905
 31
0.0
  0
LINE
  5
176
330
1F
100
AcDbEntity
  8
0
  6
HIDDEN
 62
     7
370
     0
100
AcDbLine
 10
217.8685716644
 20
111.2128731121
 30
0.0
 11
208.3378783718
 21
106.7765782146
 31
0.0
  0
LINE
  5
177
330
1F
100
AcDbEntity
  8
0
  6
HIDDEN
 62
     7
370
     0
100
AcDbLine
 10
212.1471702412
 20
103.9169962542
 30
0.0
 11
217.8564123168
 21
106.5745038005
 31
0.0
  0
LINE
  5
178
330
1F
100
AcDbEntity
  8
0
  6
HIDDEN
 62
     7
370
     0
100
AcDbLine
 10
210.1102709129
 20
102.9688715726
 30
0.0
 11
211.6756565228
 21
103.6975197286
 31
0.0
  0
LINE
  5
179
330
1F
100
AcDbEntity
  8
0
  6
HIDDEN
 62
     7
370
     0
100
AcDbLine
 10
133.5824369743
 20
95.1651830483
 30
0.0
 11
134.6094697073
 21
95.7581402991
 31
0.0
  0
LINE
  5
17A
330
1F
100
AcDbEntity
  8
0
  6
HIDDEN
 62
     7
370
     0
100
AcDbLine
 10
134.6094697073
 20
114.8835273717
 30
0.0
 11
133.5824369743
 21
115.4764846225
 31
0.0
  0
LINE
  5
17B
330
1F
100
AcDbEntity
  8
0
  6
HIDDEN
 62
     7
370
     0
100
AcDbLine
 10
139.0824369445
 20
95.3208340589
 30
0.0
 11
140.0952558324
 21
95.3208340589
 31
0.0
  0
LINE
  5
17C
330
1F
100
AcDbEntity
  8
0
  6
HIDDEN
 62
     7
370
     0
100
AcDbLine
 10
140.0952558324
 20
115.3208336119
 30
0.0
 11
139.0824369445
 21
115.3208336119
 31
0.0
  0
ARC
  5
17D
330
1F
100
AcDbEntity
  8
0
  6
HIDDEN
 62
     7
370
     0
100
AcDbCircle
 10
139.0824371829
 20
96.3208338354
 30
0.0
 40
1.000000000000014
100
AcDbArc
 50
193.3524261238
 51
270.0
  0
ARC
  5
17E
330
1F
100
AcDbEntity
  8
0
  6
HIDDEN
 62
     7
370
     0
100
AcDbCircle
 10
139.0824371829
 20
114.3208338354
 30
0.0
 40
1.000000000000014
100
AcDbArc
 50
90.0
 51
166.6475738762
  0
ARC
  5
17F
330
1F
100
AcDbEntity
  8
0
  6
HIDDEN
 62
     7
370
     0
100
AcDbCircle
 10
140.0952556526
 20
96.3208338354
 30
0.0
 40
1.000000000000014
100
AcDbArc
 50
270.0
 51
315.0
  0
ARC
  5
180
330
1F
100
AcDbEntity
  8
0
  6
HIDDEN
 62
     7
370
     0
100
AcDbCircle
 10
140.0952556526
 20
114.3208338354
 30
0.0
 40
1.000000000000018
100
AcDbArc
 50
45.0
 51
90.0
  0
LINE
  5
181
330
1F
100
AcDbEntity
  8
0
  6
HIDDEN
 62
     7
370
     0
100
AcDbLine
 10
140.8023624971
 20
95.6137266267
 30
0.0
 11
141.5094691619
 21
96.3208342228
 31
0.0
  0
LINE
  5
182
330
1F
100
AcDbEntity
  8
0
  6
HIDDEN
 62
     7
370
     0
100
AcDbLine
 10
141.5094691619
 20
114.320833448
 30
0.0
 11
140.8023624971
 21
115.0279410441
 31
0.0
  0
LINE
  5
183
330
1F
100
AcDbEntity
  8
0
  6
HIDDEN
 62
     7
370
     0
100
AcDbLine
 10
134.6094697073
 20
95.7581402991
 30
0.0
 11
136.7094698652
 21
96.3208342228
 31
0.0
  0
LINE
  5
184
330
1F
100
AcDbEntity
  8
0
  6
HIDDEN
 62
     7
370
     0
100
AcDbLine
 10
136.7094698652
 20
114.320833448
 30
0.0
 11
134.6094697073
 21
114.8835273717
 31
0.0
  0
LINE
  5
185
330
1F
100
AcDbEntity
  8
0
  6
HIDDEN
 62
     7
370
     0
100
AcDbLine
 10
138.1094693497
 20
114.5517735068
 30
0.0
 11
137.7094700292
 21
114.320833448
 31
0.0
  0
LINE
  5
186
330
1F
100
AcDbEntity
  8
0
  6
HIDDEN
 62
     7
370
     0
100
AcDbLine
 10
137.7094700292
 20
96.3208342228
 30
0.0
 11
138.1094693497
 21
96.089894164
 31
0.0
  0
ARC
  5
187
330
1F
100
AcDbEntity
  8
0
  6
HIDDEN
 62
     7
370
     0
100
AcDbCircle
 10
148.0824371829
 20
96.8208338354
 30
0.0
 40
0.5000000000000142
100
AcDbArc
 50
270.0
 51
360.0
  0
ARC
  5
188
330
1F
100
AcDbEntity
  8
0
  6
HIDDEN
 62
     7
370
     0
100
AcDbCircle
 10
148.0824371829
 20
113.8208338354
 30
0.0
 40
0.5000000000000142
100
AcDbArc
 50
0.0
 51
90.0
  0
LINE
  5
189
330
1F
100
AcDbEntity
  8
0
  6
HIDDEN
 62
     7
370
     0
100
AcDbLine
 10
141.5094691619
 20
96.3208342228
 30
0.0
 11
148.0824374884
 21
96.3208342228
 31
0.0
  0
LINE
  5
18A
330
1F
100
AcDbEntity
  8
0
  6
HIDDEN
 62
     7
370
     0
100
AcDbLine
 10
148.0824374884
 20
114.320833448
 30
0.0
 11
141.5094691619
 21
114.320833448
 31
0.0
  0
LINE
  5
18B
330
1F
100
AcDbEntity
  8
0
  6
HIDDEN
 62
     7
370
     0
100
AcDbLine
 10
136.7094698652
 20
96.3208342228
 30
0.0
 11
137.7094700292
 21
96.3208342228
 31
0.0
  0
LINE
  5
18C
330
1F
100
AcDbEntity
  8
0
  6
HIDDEN
 62
     7
370
     0
100
AcDbLine
 10
137.7094700292
 20
114.320833448
 30
0.0
 11
136.7094698652
 21
114.320833448
 31
0.0
  0
LINE
  5
18D
330
1F
100
AcDbEntity
  8
0
  6
HIDDEN
 62
     7
370
     0
100
AcDbLine
 10
148.5824375704
 20
98.1708338741
 30
0.0
 11
149.4824369728
 21
99.0708337423
 31
0.0
  0
LINE
  5
18E
330
1F
100
AcDbEntity
  8
0
  6
HIDDEN
 62
     7
370
     0
100
AcDbLine
 10
149.4824369728
 20
111.5708339285
 30
0.0
 11
148.5824375704
 21
112.4708337967
 31
0.0
  0
LINE
  5
18F
330
1F
100
AcDbEntity
  8
0
  6
HIDDEN
 62
     7
370
     0
100
AcDbLine
 10
149.4824369728
 20
99.0708337423
 30
0.0
 11
168.5824371233
 21
99.0708337423
 31
0.0
  0
LINE
  5
190
330
1F
100
AcDbEntity
  8
0
  6
HIDDEN
 62
     7
370
     0
100
AcDbLine
 10
168.5824371233
 20
111.5708339285
 30
0.0
 11
149.4824369728
 21
111.5708339285
 31
0.0
  0
LINE
  5
191
330
1F
100
AcDbEntity
  8
0
  6
HIDDEN
 62
     7
370
     0
100
AcDbLine
 10
168.5824371233
 20
99.0708337423
 30
0.0
 11
170.3850194171
 21
102.0708337683
 31
0.0
  0
LINE
  5
192
330
1F
100
AcDbEntity
  8
0
  6
HIDDEN
 62
     7
370
     0
100
AcDbLine
 10
170.3850194171
 20
108.5708339025
 30
0.0
 11
168.5824371233
 21
111.5708339285
 31
0.0
  0
LINE
  5
193
330
1F
100
AcDbEntity
  8
0
  6
HIDDEN
 62
     7
370
     0
100
AcDbLine
 10
213.5824389115
 20
108.5708339025
 30
0.0
 11
170.3850194171
 21
108.5708339025
 31
0.0
  0
LINE
  5
194
330
1F
100
AcDbEntity
  8
0
  6
HIDDEN
 62
     7
370
     0
100
AcDbLine
 10
170.3850194171
 20
102.0708337683
 30
0.0
 11
213.5824389115
 21
102.0708337683
 31
0.0
  0
LINE
  5
195
330
1F
100
AcDbEntity
  8
0
  6
HIDDEN
 62
     7
370
     0
100
AcDbLine
 10
213.5824389115
 20
102.0708337683
 30
0.0
 11
215.5352323606
 21
105.3208338354
 31
0.0
  0
LINE
  5
196
330
1F
100
AcDbEntity
  8
0
  6
HIDDEN
 62
     7
370
     0
100
AcDbLine
 10
215.5352323606
 20
105.3208338354
 30
0.0
 11
213.5824389115
 21
108.5708339025
 31
0.0
  0
ARC
  5
197
330
1F
100
AcDbEntity
  8
0
  6
HIDDEN
 62
     7
370
     0
100
AcDbCircle
 10
221.1682236206
 20
118.8208338354
 30
0.0
 40
1.000000000000006
100
AcDbArc
 50
270.0
 51
290.1029878206
  0
LINE
  5
198
330
1F
100
AcDbEntity
  8
0
  6
HIDDEN
 62
     7
370
     0
100
AcDbLine
 10
232.7767140522
 20
109.6251311038
 30
0.0
 11
232.7767140522
 21
109.2903001491
 31
0.0
  0
LINE
  5
199
330
1F
100
AcDbEntity
  8
0
  6
HIDDEN
 62
     7
370
     0
100
AcDbLine
 10
236.9767106429
 20
109.2903001491
 30
0.0
 11
236.9767106429
 21
109.3140172098
 31
0.0
  0
LINE
  5
19A
330
1F
100
AcDbEntity
  8
0
  6
HIDDEN
 62
     7
370
     0
100
AcDbLine
 10
238.4970388666
 20
114.9576289837
 30
0.0
 11
238.4970388666
 21
114.4421149303
 31
0.0
  0
LINE
  5
19B
330
1F
100
AcDbEntity
  8
0
  6
HIDDEN
 62
     7
370
     0
100
AcDbLine
 10
242.6970354572
 20
114.4093286503
 30
0.0
 11
242.6970354572
 21
114.9576289837
 31
0.0
  0
LINE
  5
19C
330
1F
100
AcDbEntity
  8
VERMASSUNG
  6
CENTERX2
100
AcDbLine
 10
129.7564540103
 20
105.3208338354
 30
0.0
 11
247.5824371829
 21
105.3208338354
 31
0.0
  0
LINE
  5
19D
330
1F
100
AcDbEntity
  8
VERMASSUNG
  6
CENTERX2
100
AcDbLine
 10
247.5824371829
 20
122.3208338354
 30
0.0
 11
247.5824371829
 21
105.3208338354
 31
0.0
  0
LINE
  5
19E
330
1F
100
AcDbEntity
  8
VERMASSUNG
  6
CENTERX2
100
AcDbLine
 10
247.5824371829
 20
122.3208338354
 30
0.0
 11
259.1918259189
 21
122.3208338354
 31
0.0
  0
DIMENSION
  5
19F
330
1F
100
AcDbEntity
  8
VERMASSUNG
100
AcDbDimension
  2
_D
 10
247.5824371829
 20
135.3208338354
 30
0.0
 11
202.5824371829
 21
135.3208338354
 31
0.0
 70
   160
  1
<>
 71
     2
 42
-1.0
  3
SLDDIMSTYLE0
100
AcDbAlignedDimension
 13
157.5824371829
 23
125.0208338354
 33
0.0
 14
247.5824371829
 24
122.3208338354
 34
0.0
100
AcDbRotatedDimension
  0
DIMENSION
  5
1AA
330
1F
100
AcDbEntity
  8
VERMASSUNG
100
AcDbDimension
  2
_D_1
 10
247.5824371829
 20
141.3208338354
 30
0.0
 11
190.5824371829
 21
141.3208338354
 31
0.0
 70
   160
  1
<>
 71
     2
 42
-1.0
  3
SLDDIMSTYLE0
100
AcDbAlignedDimension
 13
133.5824371829
 23
117.9523388175
 33
0.0
 14
247.5824371829
 24
122.3208338354
 34
0.0
100
AcDbRotatedDimension
  0
DIMENSION
  5
1B4
330
1F
100
AcDbEntity
  8
VERMASSUNG
100
AcDbDimension
  2
_D_2
 10
261.5973205844
 20
105.3208338354
 30
0.0
 11
261.5973205844
 21
113.8208338354
 31
0.0
 70
   160
  1
<>
 71
     2
 42
-1.0
  3
SLDDIMSTYLE0
100
AcDbAlignedDimension
 13
247.5824371829
 23
122.3208338354
 33
0.0
 14
247.5824371829
 24
105.3208338354
 34
0.0
 50
90.0
100
AcDbRotatedDimension
  0
DIMENSION
  5
1BE
330
1F
100
AcDbEntity
  8
VERMASSUNG
100
AcDbDimension
  2
_D_3
 10
259.1918259189
 20
122.3208338354
 30
0.0
 11
254.5257568201
 21
114.7419172901
 31
0.0
 70
   162
  1
<>
 71
     1
 42
-1.0
  3
SLDDIMSTYLE1
100
AcDb2LineAngularDimension
 13
246.4877368144
 23
109.8388311456
 33
0.0
 14
247.5408899151
 24
121.8471031932
 34
0.0
 15
247.5824371829
 25
122.3208338354
 35
0.0
 16
254.5257568201
 26
114.7419172901
 36
0.0
  0
DIMENSION
  5
1C7
330
1F
100
AcDbEntity
  8
VERMASSUNG
100
AcDbDimension
  2
_D_4
 10
124.9308796974
 20
85.3208338354
 30
0.0
 11
124.9308796974
 21
105.3208338354
 31
0.0
 70
   160
  1
PSC%%c<>
 71
     2
 42
-1.0
  3
SLDDIMSTYLE0
100
AcDbAlignedDimension
 13
157.8824371829
 23
125.3208338354
 33
0.0
 14
157.8824371829
 24
85.3208338354
 34
0.0
 50
90.0
100
AcDbRotatedDimension
  0
DIMENSION
  5
1D3
330
1F
100
AcDbEntity
  8
VERMASSUNG
100
AcDbDimension
  2
_D_5
 10
193.267795656
 20
92.8208338354
 30
0.0
 11
193.267795656
 21
97.9103190902
 31
0.0
 70
   160
  1
%%c<>
 71
     2
 42
-1.0
  3
SLDDIMSTYLE0
100
AcDbAlignedDimension
 13
179.5824371829
 23
117.8208338354
 33
0.0
 14
179.5824371829
 24
92.8208338354
 34
0.0
 50
90.0
100
AcDbRotatedDimension
  0
LINE
  5
1DC
330
1F
100
AcDbEntity
  8
0
  6
Continuous
 62
     7
370
    15
100
AcDbLine
 10
78.2407760781
 20
121.654631782
 30
0.0
 11
75.0188757348
 21
122.2809070979
 31
0.0
  0
LINE
  5
1DD
330
1F
100
AcDbEntity
  8
0
  6
Continuous
 62
     7
370
    15
100
AcDbLine
 10
74.0499060995
 20
108.4239952989
 30
0.0
 11
74.3517448355
 21
108.4398138128
 31
0.0
  0
LWPOLYLINE
  5
1DE
330
1F
100
AcDbEntity
  8
0
  6
Continuous
 62
     7
370
    15
100
AcDbPolyline
 90
        9
 70
   128
 43
0.0
 10
74.9885412734
 20
121.8471026305
 10
74.9946151646
 20
121.9339633618
 10
75.0005163937
 20
122.0183560882
 10
75.0059651965
 20
122.0962761227
 10
75.0107032555
 20
122.1640335653
 10
75.0145059506
 20
122.2184153531
 10
75.0171930027
 20
122.2568417225
 10
75.0186370243
 20
122.2774928693
 10
75.0188757348
 20
122.2809070979
  0
LINE
  5
1DF
330
1F
100
AcDbEntity
  8
0
  6
Continuous
 62
     7
370
    15
100
AcDbLine
 10
79.7252234698
 20
121.3474219922
 30
0.0
 11
78.2407760781
 21
121.654631782
 31
0.0
  0
LINE
  5
1E0
330
1F
100
AcDbEntity
  8
0
  6
Continuous
 62
     7
370
    15
100
AcDbLine
 10
78.911554876
 20
109.711415812
 30
0.0
 11
79.7252234698
 21
121.3474219922
 31
0.0
  0
LINE
  5
1E1
330
1F
100
AcDbEntity
  8
0
  6
Continuous
 62
     7
370
    15
100
AcDbLine
 10
78.911554876
 20
109.711415812
 30
0.0
 11
77.4010758542
 21
109.6463601362
 31
0.0
  0
LINE
  5
1E2
330
1F
100
AcDbEntity
  8
0
  6
Continuous
 62
     7
370
    15
100
AcDbLine
 10
74.1488410786
 20
109.8388309848
 30
0.0
 11
74.9885412734
 21
121.8471026305
 31
0.0
  0
LWPOLYLINE
  5
1E3
330
1F
100
AcDbEntity
  8
0
  6
Continuous
 62
     7
370
    15
100
AcDbPolyline
 90
        9
 70
   128
 43
0.0
 10
74.1234765665
 20
109.4761013311
 10
74.1243211597
 20
109.4881791879
 10
74.1259846182
 20
109.5119684261
 10
74.1284164761
 20
109.5467458736
 10
74.1315428678
 20
109.5914549452
 10
74.1352686819
 20
109.644736841
 10
74.1394808211
 20
109.7049729225
 10
74.1440512284
 20
109.7703331407
 10
74.1488410786
 20
109.8388309848
  0
LINE
  5
1E4
330
1F
100
AcDbEntity
  8
0
  6
Continuous
 62
     7
370
    15
100
AcDbLine
 10
74.0500123284
 20
108.4255135875
 30
0.0
 11
74.1234765665
 21
109.4761013311
 31
0.0
  0
LINE
  5
1E5
330
1F
100
AcDbEntity
  8
0
  6
Continuous
 62
     7
370
    15
100
AcDbLine
 10
74.0499060995
 20
108.4239952989
 30
0.0
 11
74.0500123284
 21
108.4255135875
 31
0.0
  0
LINE
  5
1E6
330
1F
100
AcDbEntity
  8
0
  6
Continuous
 62
     7
370
    15
100
AcDbLine
 10
88.0216680162
 20
107.7685130086
 30
0.0
 11
74.3300502582
 21
108.1295669802
 31
0.0
  0
LINE
  5
1E7
330
1F
100
AcDbEntity
  8
0
  6
Continuous
 62
     7
370
    15
100
AcDbLine
 10
74.4255335231
 20
109.4950411726
 30
0.0
 11
74.3300502582
 21
108.1295669802
 31
0.0
  0
LINE
  5
1E8
330
1F
100
AcDbEntity
  8
0
  6
Continuous
 62
     7
370
    15
100
AcDbLine
 10
74.4255335231
 20
109.4950411726
 30
0.0
 11
76.5169113802
 21
109.5851158981
 31
0.0
  0
LINE
  5
1E9
330
1F
100
AcDbEntity
  8
0
  6
Continuous
 62
     7
370
    15
100
AcDbLine
 10
76.5169113802
 20
109.5851158981
 30
0.0
 11
78.8893097707
 21
109.3932965096
 31
0.0
  0
LINE
  5
1EA
330
1F
100
AcDbEntity
  8
0
  6
Continuous
 62
     7
370
    15
100
AcDbLine
 10
78.911554876
 20
109.711415812
 30
0.0
 11
78.8893097707
 21
109.3932965096
 31
0.0
  0
SPLINE
  5
1EB
330
1F
100
AcDbEntity
  8
0
  6
Continuous
 62
     7
370
    15
100
AcDbSpline
210
0.0
220
0.0
230
1.0
 70
     8
 71
     3
 72
    27
 73
    23
 74
     0
 42
0.00000001
 43
0.00000001
 12
1.0
 22
0.0
 32
0.0
 13
1.0
 23
0.0
 33
0.0
 40
0.0
 40
0.0
 40
0.0
 40
0.0
 40
0.0384093080950398
 40
0.0767299906424185
 40
0.1149888279044405
 40
0.153212730132948
 40
0.1914286813797105
 40
0.2296636825305295
 40
0.2679446941616109
 40
0.306298579821119
 40
0.3447520503283956
 40
0.383331609658604
 40
0.4220635029425626
 40
0.4609736670619095
 40
0.5000876842605665
 40
0.5725105559617986
 40
0.6443160270374243
 40
0.7156707072684335
 40
0.7867443767170014
 40
0.8577088324003694
 40
0.9287366638154337
 40
1.0
 40
1.0
 40
1.0
 40
1.0
 10
88.02166774675894
 20
113.9446594742673
 30
0.0
 10
87.9460265400337
 20
114.0593674631889
 30
0.0
 10
87.79491866092671
 20
114.2885187640869
 30
0.0
 10
87.55703366033333
 20
114.6240681449616
 30
0.0
 10
87.31133238353628
 20
114.9529967424711
 30
0.0
 10
87.05698907550307
 20
115.2747607663527
 30
0.0
 10
86.79422496440003
 20
115.5895049736054
 30
0.0
 10
86.5229813263732
 20
115.8971900171014
 30
0.0
 10
86.24327445632109
 20
116.1978258966107
 30
0.0
 10
85.9551005748585
 20
116.4914094565703
 30
0.0
 10
85.65846140731499
 20
116.777941119331
 30
0.0
 10
85.35335695028931
 20
117.0574205037
 30
0.0
 10
85.03978875176165
 20
117.3298472109196
 30
0.0
 10
84.7177539597596
 20
117.5952220921373
 30
0.0
 10
84.29411826808122
 20
117.9263483290566
 30
0.0
 10
83.76335508712052
 20
118.3109919199191
 30
0.0
 10
83.11807412506042
 20
118.7326035709677
 30
0.0
 10
82.45692173177868
 20
119.1196202927261
 30
0.0
 10
81.77998852216719
 20
119.4722576767753
 30
0.0
 10
81.08700262577268
 20
119.789643957876
 30
0.0
 10
80.37902501848956
 20
120.0750035934716
 30
0.0
 10
79.89562193733457
 20
120.2354276138572
 30
0.0
 10
79.65352035881683
 20
120.3157723821915
 30
0.0
  0
LINE
  5
1EC
330
1F
100
AcDbEntity
  8
0
  6
Continuous
 62
     7
370
    15
100
AcDbLine
 10
88.0216680162
 20
107.7685130086
 30
0.0
 11
88.0216680162
 21
113.9446592216
 31
0.0
  0
SPLINE
  5
1ED
330
1F
100
AcDbEntity
  8
0
  6
Continuous
 62
     7
370
    15
100
AcDbSpline
210
0.0
220
0.0
230
1.0
 70
     8
 71
     3
 72
    23
 73
    19
 74
     0
 42
0.00000001
 43
0.00000001
 12
1.0
 22
0.0
 32
0.0
 13
1.0
 23
0.0
 33
0.0
 40
0.0
 40
0.0
 40
0.0
 40
0.0
 40
0.0366486133259923
 40
0.076270778802269
 40
0.1188636811717199
 40
0.1644242526864225
 40
0.2129491770733604
 40
0.2644348923597897
 40
0.3188775929331001
 40
0.3762732310739223
 40
0.4366175181187902
 40
0.499905925357284
 40
0.6127121371958806
 40
0.7137015568973836
 40
0.8029020811352124
 40
0.8803383195093243
 40
0.9460316026056446
 40
1.0
 40
1.0
 40
1.0
 40
1.0
 10
79.6872400726933
 20
120.80373271113
 30
0.0
 10
79.80955014985373
 20
120.7643426981298
 30
0.0
 10
80.0640941555822
 20
120.6823666915114
 30
0.0
 10
80.45651642561427
 20
120.5422517101743
 30
0.0
 10
80.87435564559762
 20
120.3811399769058
 30
0.0
 10
81.31601719392685
 20
120.1958128785586
 30
0.0
 10
81.78009507444985
 20
119.9841709505498
 30
0.0
 10
82.26483670327299
 20
119.7436760816404
 30
0.0
 10
82.7682758313859
 20
119.4718397733083
 30
0.0
 10
83.28816196730602
 20
119.1661122932206
 30
0.0
 10
83.82197372531215
 20
118.8239398277887
 30
0.0
 10
84.50048092137592
 20
118.3493293036849
 30
0.0
 10
85.26294208192401
 20
117.7479778611761
 30
0.0
 10
86.04860992453462
 20
117.033986250519
 30
0.0
 10
86.70222313422418
 20
116.3616612631002
 30
0.0
 10
87.23647678288134
 20
115.7476570223273
 30
0.0
 10
87.66644790003292
 20
115.2072430528621
 30
0.0
 10
87.91126977745807
 20
114.8668983006344
 30
0.0
 10
88.02168644817117
 20
114.7134000314809
 30
0.0
  0
LINE
  5
1EE
330
1F
100
AcDbEntity
  8
0
  6
Continuous
 62
     7
370
    15
100
AcDbLine
 10
88.0216680162
 20
114.71562295
 30
0.0
 11
88.0216680162
 21
113.9432017017
 31
0.0
  0
LINE
  5
1EF
330
1F
100
AcDbEntity
  8
0
  6
Continuous
 62
     7
370
    15
100
AcDbLine
 10
88.0216680162
 20
105.3208338354
 30
0.0
 11
88.0216680162
 21
107.7685130086
 31
0.0
  0
ARC
  5
1F0
330
1F
100
AcDbEntity
  8
0
  6
Continuous
 62
     7
370
    15
100
AcDbCircle
 10
75.021667748
 20
105.3208338354
 30
0.0
 40
13.00000000000004
100
AcDbArc
 50
262.0926611235
 51
0.0
  0
LINE
  5
1F1
330
1F
100
AcDbEntity
  8
0
  6
Continuous
 62
     7
370
    15
100
AcDbLine
 10
74.3300502582
 20
108.1295669802
 30
0.0
 11
73.2332393455
 21
92.4444396306
 31
0.0
  0
SPLINE
  5
1F2
330
1F
100
AcDbEntity
  8
0
  6
Continuous
 62
     7
370
    15
100
AcDbSpline
210
0.0
220
0.0
230
1.0
 70
     8
 71
     3
 72
    10
 73
     6
 74
     0
 42
0.00000001
 43
0.00000001
 12
1.0
 22
0.0
 32
0.0
 13
1.0
 23
0.0
 33
0.0
 40
0.0
 40
0.0
 40
0.0
 40
0.0
 40
0.5
 40
0.5
 40
1.0
 40
1.0
 40
1.0
 40
1.0
 10
73.24770690974965
 20
92.65153315019194
 30
0.0
 10
73.25401219765574
 20
92.74579482191952
 30
0.0
 10
73.25430044785402
 20
92.82011567152843
 30
0.0
 10
73.23415247868192
 20
92.92375545294058
 30
0.0
 10
73.21371646238039
 20
92.95223114547234
 30
0.0
 10
73.18212129455034
 20
92.95693198988651
 30
0.0
  0
SPLINE
  5
1F3
330
1F
100
AcDbEntity
  8
0
  6
Continuous
 62
     7
370
    15
100
AcDbSpline
210
0.0
220
0.0
230
1.0
 70
     8
 71
     3
 72
    16
 73
    12
 74
     0
 42
0.00000001
 43
0.00000001
 12
1.0
 22
0.0
 32
0.0
 13
1.0
 23
0.0
 33
0.0
 40
0.0
 40
0.0
 40
0.0
 40
0.0
 40
0.2500000000000043
 40
0.2500000000000043
 40
0.3750000000000064
 40
0.3750000000000064
 40
0.5000000000000033
 40
0.5000000000000033
 40
0.7500000000000017
 40
0.7500000000000017
 40
1.0
 40
1.0
 40
1.0
 40
1.0
 10
73.18212129455021
 20
92.95693198988619
 30
0.0
 10
73.11779899317439
 20
92.96650209670617
 30
0.0
 10
73.02008454137437
 20
92.98142348497791
 30
0.0
 10
72.82521335290825
 20
93.01514678133854
 30
0.0
 10
72.7515568033513
 20
93.02843006224607
 30
0.0
 10
72.59204274982937
 20
93.05896136046665
 30
0.0
 10
72.5058621993658
 20
93.07625736820593
 30
0.0
 10
72.22859978515876
 20
93.13541250360988
 30
0.0
 10
72.01599838352696
 20
93.18534240171486
 30
0.0
 10
71.56619674259687
 20
93.3056800371168
 30
0.0
 10
71.32473519485232
 20
93.37714092199582
 30
0.0
 10
71.07529131575198
 20
93.46013768994067
 30
0.0
  0
SPLINE
  5
1F4
330
1F
100
AcDbEntity
  8
0
  6
Continuous
 62
     7
370
    15
100
AcDbSpline
210
0.0
220
0.0
230
1.0
 70
     8
 71
     3
 72
    10
 73
     6
 74
     0
 42
0.00000001
 43
0.00000001
 12
1.0
 22
0.0
 32
0.0
 13
1.0
 23
0.0
 33
0.0
 40
0.0
 40
0.0
 40
0.0
 40
0.0
 40
0.3757240780609037
 40
0.7516328934593264
 40
0.9999999999999999
 40
0.9999999999999999
 40
0.9999999999999999
 40
0.9999999999999999
 10
72.76438699779686
 20
117.6153321076447
 30
0.0
 10
73.0750326918932
 20
117.6649419106267
 30
0.0
 10
73.69647681945442
 20
117.7641859089132
 30
0.0
 10
74.38378836601443
 20
117.8077934771997
 30
0.0
 10
74.61471380053966
 20
117.8129277522159
 30
0.0
 10
74.7065870892315
 20
117.8149704147393
 30
0.0
  0
ELLIPSE
  5
1F5
330
1F
100
AcDbEntity
  8
0
  6
Continuous
 62
     7
370
    15
100
AcDbEllipse
 10
67.9488812246
 20
108.8936885455
 30
0.0
 11
1.650444768084909
 21
1.909937113548324
 31
0.0
210
0.0
220
0.0
230
1.0
 40
0.8148202105
 41
0.0
 42
6.283185307179586
  0
ARC
  5
1F6
330
1F
100
AcDbEntity
  8
0
  6
Continuous
 62
     7
370
    15
100
AcDbCircle
 10
75.021667748
 20
105.3208338354
 30
0.0
 40
12.50000000000003
100
AcDbArc
 50
100.4036880773
 51
251.5963119227
  0
SPLINE
  5
1F7
330
1F
100
AcDbEntity
  8
0
  6
Continuous
 62
     7
370
    15
100
AcDbSpline
210
0.0
220
0.0
230
1.0
 70
     8
 71
     3
 72
    15
 73
    11
 74
     0
 42
0.00000001
 43
0.00000001
 12
1.0
 22
0.0
 32
0.0
 13
1.0
 23
0.0
 33
0.0
 40
0.0
 40
0.0
 40
0.0
 40
0.0
 40
0.1000849651542216
 40
0.1905893485271402
 40
0.2668084989230493
 40
0.3428845222091595
 40
0.4941849261301095
 40
0.7945480703267425
 40
0.9754393015256205
 40
1.0
 40
1.0
 40
1.0
 40
1.0
 10
67.49489052896973
 20
106.6131981579849
 30
0.0
 10
67.43801968569137
 20
106.7075742069754
 30
0.0
 10
67.32972193133922
 20
106.8872922062368
 30
0.0
 10
67.23881641497054
 20
107.0816218234207
 30
0.0
 10
67.24532260574203
 20
107.2342905641656
 30
0.0
 10
67.38110454135527
 20
107.3630780829793
 30
0.0
 10
67.78129395911161
 20
107.4597982374147
 30
0.0
 10
68.29326303674178
 20
107.3591013909631
 30
0.0
 10
68.6700642906334
 20
107.1405496692267
 30
0.0
 10
68.7537429470865
 20
106.9681645506768
 30
0.0
 10
68.76374629070637
 20
106.9475568156952
 30
0.0
  0
CIRCLE
  5
1F8
330
1F
100
AcDbEntity
  8
0
  6
Continuous
 62
     7
370
    15
100
AcDbCircle
 10
75.021667748
 20
105.3208338354
 30
0.0
 40
20.00000000000006
  0
CIRCLE
  5
1F9
330
1F
100
AcDbEntity
  8
VERMASSUNG
  6
CENTERX2
100
AcDbCircle
 10
75.021667748
 20
106.2335594538
 30
0.0
 40
16.00000000000001
  0
DIMENSION
  5
1FA
330
1F
100
AcDbEntity
  8
VERMASSUNG
100
AcDbDimension
  2
_D_6
 10
84.7090419535
 20
93.4995584721
 30
0.0
 11
58.0373466332
 21
128.5593808141
 31
0.0
 70
   163
  1
<> min. 
 71
     1
 42
-1.0
  3
SLDDIMSTYLE2
100
AcDbDiametricDimension
 15
65.3342935425
 25
118.9675604355
 35
0.0
 40
0.0
  0
DIMENSION
  5
208
330
1F
100
AcDbEntity
  8
VERMASSUNG
100
AcDbDimension
  2
_D_7
 10
75.021667748
 20
127.8208338354
 30
0.0
 11
64.8741835271
 21
77.7483117939
 31
0.0
 70
   162
  1
<>
 71
     1
 42
-1.0
  3
SLDDIMSTYLE3
100
AcDb2LineAngularDimension
 13
73.233239329
 23
92.4444397831
 33
0.0
 14
74.3300502616
 24
108.1295668766
 34
0.0
 15
75.021667748
 25
82.8208338354
 35
0.0
 16
73.5722697546
 26
76.5148296795
 36
0.0
  0
INSERT
  5
220
330
1F
100
AcDbEntity
  8
VERMASSUNG
100
AcDbBlockReference
  2
SW_CENTERMARKSYMBOL_0
 10
75.021667748
 20
105.3208338354
 30
0.0
  0
OLE2FRAME
  5
221
330
1F
100
AcDbEntity
  8
0
100
AcDbOle2Frame
 70
     2
  3
Paintbrush-Bild
 10
13.8511154363
 20
38.264191557
 30
0.0
 11
51.6290888628
 21
31.9806341108
 31
0.0
 71
     2
 72
     0
 73
     1
 90
    12928
310
80552BED0767C5B32B40DDAF6807D121434000000000000000006FFBDDFB85D0
310
4940DDAF6807D121434000000000000000006FFBDDFB85D04940416F4BD60AFB
310
3F4000000000000000002BED0767C5B32B40416F4BD60AFB3F40000000000000
310
0000000000000100000000010000010000000100000000000100000000320000
310
D0CF11E0A1B11AE1000000000000000000000000000000003E000300FEFF0900
310
0600000000000000000000000100000001000000000000000010000002000000
310
01000000FEFFFFFF0000000000000000FFFFFFFFFFFFFFFFFFFFFFFFFFFFFFFF
310
FFFFFFFFFFFFFFFFFFFFFFFFFFFFFFFFFFFFFFFFFFFFFFFFFFFFFFFFFFFFFFFF
310
FFFFFFFFFFFFFFFFFFFFFFFFFFFFFFFFFFFFFFFFFFFFFFFFFFFFFFFFFFFFFFFF
310
FFFFFFFFFFFFFFFFFFFFFFFFFFFFFFFFFFFFFFFFFFFFFFFFFFFFFFFFFFFFFFFF
310
FFFFFFFFFFFFFFFFFFFFFFFFFFFFFFFFFFFFFFFFFFFFFFFFFFFFFFFFFFFFFFFF
310
FFFFFFFFFFFFFFFFFFFFFFFFFFFFFFFFFFFFFFFFFFFFFFFFFFFFFFFFFFFFFFFF
310
FFFFFFFFFFFFFFFFFFFFFFFFFFFFFFFFFFFFFFFFFFFFFFFFFFFFFFFFFFFFFFFF
310
FFFFFFFFFFFFFFFFFFFFFFFFFFFFFFFFFFFFFFFFFFFFFFFFFFFFFFFFFFFFFFFF
310
FFFFFFFFFFFFFFFFFFFFFFFFFFFFFFFFFFFFFFFFFFFFFFFFFFFFFFFFFFFFFFFF
310
FFFFFFFFFFFFFFFFFFFFFFFFFFFFFFFFFFFFFFFFFFFFFFFFFFFFFFFFFFFFFFFF
310
FFFFFFFFFFFFFFFFFFFFFFFFFFFFFFFFFFFFFFFFFFFFFFFFFFFFFFFFFFFFFFFF
310
FFFFFFFFFFFFFFFFFFFFFFFFFFFFFFFFFFFFFFFFFFFFFFFFFFFFFFFFFFFFFFFF
310
FFFFFFFFFFFFFFFFFFFFFFFFFFFFFFFFFFFFFFFFFFFFFFFFFFFFFFFFFFFFFFFF
310
FFFFFFFFFFFFFFFFFFFFFFFFFFFFFFFFFFFFFFFFFFFFFFFFFFFFFFFFFFFFFFFF
310
FDFFFFFFFEFFFFFFFEFFFFFFFEFFFFFF05000000060000000700000008000000
310
090000000A0000000B0000000C0000000D0000000E0000000F00000010000000
310
11000000120000001300000014000000150000001600000017000000FEFFFFFF
310
FFFFFFFFFFFFFFFFFFFFFFFFFFFFFFFFFFFFFFFFFFFFFFFFFFFFFFFFFFFFFFFF
310
FFFFFFFFFFFFFFFFFFFFFFFFFFFFFFFFFFFFFFFFFFFFFFFFFFFFFFFFFFFFFFFF
310
FFFFFFFFFFFFFFFFFFFFFFFFFFFFFFFFFFFFFFFFFFFFFFFFFFFFFFFFFFFFFFFF
310
FFFFFFFFFFFFFFFFFFFFFFFFFFFFFFFFFFFFFFFFFFFFFFFFFFFFFFFFFFFFFFFF
310
FFFFFFFFFFFFFFFFFFFFFFFFFFFFFFFFFFFFFFFFFFFFFFFFFFFFFFFFFFFFFFFF
310
FFFFFFFFFFFFFFFFFFFFFFFFFFFFFFFFFFFFFFFFFFFFFFFFFFFFFFFFFFFFFFFF
310
FFFFFFFFFFFFFFFFFFFFFFFFFFFFFFFFFFFFFFFFFFFFFFFFFFFFFFFFFFFFFFFF
310
FFFFFFFFFFFFFFFFFFFFFFFFFFFFFFFFFFFFFFFFFFFFFFFFFFFFFFFFFFFFFFFF
310
FFFFFFFFFFFFFFFFFFFFFFFFFFFFFFFFFFFFFFFFFFFFFFFFFFFFFFFFFFFFFFFF
310
FFFFFFFFFFFFFFFFFFFFFFFFFFFFFFFFFFFFFFFFFFFFFFFFFFFFFFFFFFFFFFFF
310
FFFFFFFFFFFFFFFFFFFFFFFFFFFFFFFFFFFFFFFFFFFFFFFFFFFFFFFFFFFFFFFF
310
FFFFFFFFFFFFFFFFFFFFFFFFFFFFFFFFFFFFFFFFFFFFFFFFFFFFFFFFFFFFFFFF
310
FFFFFFFFFFFFFFFFFFFFFFFFFFFFFFFFFFFFFFFFFFFFFFFFFFFFFFFFFFFFFFFF
310
52006F006F007400200045006E00740072007900000000000000000000000000
310
0000000000000000000000000000000000000000000000000000000000000000
310
16000500FFFFFFFFFFFFFFFF020000000A00030000000000C000000000000046
310
00000000000000000000000080CE487AFD3FCD0103000000C000000000000000
310
01004F006C006500000000000000000000000000000000000000000000000000
310
0000000000000000000000000000000000000000000000000000000000000000
310
0A000200FFFFFFFFFFFFFFFFFFFFFFFF00000000000000000000000000000000
310
0000000000000000000000000000000000000000000000001400000000000000
310
010043006F006D0070004F0062006A0000000000000000000000000000000000
310
0000000000000000000000000000000000000000000000000000000000000000
310
120002010100000003000000FFFFFFFF00000000000000000000000000000000
310
0000000000000000000000000000000000000000010000004D00000000000000
310
01004F006C006500310030004E00610074006900760065000000000000000000
310
0000000000000000000000000000000000000000000000000000000000000000
310
1A000200FFFFFFFFFFFFFFFFFFFFFFFF00000000000000000000000000000000
310
0000000000000000000000000000000000000000040000002426000000000000
310
FEFFFFFF02000000FEFFFFFFFFFFFFFFFFFFFFFFFFFFFFFFFFFFFFFFFFFFFFFF
310
FFFFFFFFFFFFFFFFFFFFFFFFFFFFFFFFFFFFFFFFFFFFFFFFFFFFFFFFFFFFFFFF
310
FFFFFFFFFFFFFFFFFFFFFFFFFFFFFFFFFFFFFFFFFFFFFFFFFFFFFFFFFFFFFFFF
310
FFFFFFFFFFFFFFFFFFFFFFFFFFFFFFFFFFFFFFFFFFFFFFFFFFFFFFFFFFFFFFFF
310
FFFFFFFFFFFFFFFFFFFFFFFFFFFFFFFFFFFFFFFFFFFFFFFFFFFFFFFFFFFFFFFF
310
FFFFFFFFFFFFFFFFFFFFFFFFFFFFFFFFFFFFFFFFFFFFFFFFFFFFFFFFFFFFFFFF
310
FFFFFFFFFFFFFFFFFFFFFFFFFFFFFFFFFFFFFFFFFFFFFFFFFFFFFFFFFFFFFFFF
310
FFFFFFFFFFFFFFFFFFFFFFFFFFFFFFFFFFFFFFFFFFFFFFFFFFFFFFFFFFFFFFFF
310
FFFFFFFFFFFFFFFFFFFFFFFFFFFFFFFFFFFFFFFFFFFFFFFFFFFFFFFFFFFFFFFF
310
FFFFFFFFFFFFFFFFFFFFFFFFFFFFFFFFFFFFFFFFFFFFFFFFFFFFFFFFFFFFFFFF
310
FFFFFFFFFFFFFFFFFFFFFFFFFFFFFFFFFFFFFFFFFFFFFFFFFFFFFFFFFFFFFFFF
310
FFFFFFFFFFFFFFFFFFFFFFFFFFFFFFFFFFFFFFFFFFFFFFFFFFFFFFFFFFFFFFFF
310
FFFFFFFFFFFFFFFFFFFFFFFFFFFFFFFFFFFFFFFFFFFFFFFFFFFFFFFFFFFFFFFF
310
FFFFFFFFFFFFFFFFFFFFFFFFFFFFFFFFFFFFFFFFFFFFFFFFFFFFFFFFFFFFFFFF
310
FFFFFFFFFFFFFFFFFFFFFFFFFFFFFFFFFFFFFFFFFFFFFFFFFFFFFFFFFFFFFFFF
310
FFFFFFFFFFFFFFFFFFFFFFFFFFFFFFFFFFFFFFFFFFFFFFFFFFFFFFFFFFFFFFFF
310
0100000200000000000000000000000000000000000000000000000000000000
310
0000000000000000000000000000000000000000000000000000000000000000
310
0100FEFF030A0000FFFFFFFF0A00030000000000C00000000000004607000000
310
5042727573680007000000504272757368000700000050427275736800F439B2
310
7100000000000000000000000000000000000000000000000000000000000000
310
0000000000000000000000000000000000000000000000000000000000000000
310
0000000000000000000000000000000000000000000000000000000000000000
310
0000000000000000000000000000000000000000000000000000000000000000
310
0000000000000000000000000000000000000000000000000000000000000000
310
0000000000000000000000000000000000000000000000000000000000000000
310
0000000000000000000000000000000000000000000000000000000000000000
310
0000000000000000000000000000000000000000000000000000000000000000
310
0000000000000000000000000000000000000000000000000000000000000000
310
0000000000000000000000000000000000000000000000000000000000000000
310
0000000000000000000000000000000000000000000000000000000000000000
310
0000000000000000000000000000000000000000000000000000000000000000
310
20260000424D0E260000000000003E00000028000000B40200006E0000000100
310
01000000000000000000130B0000130B00000200000002000000000000FFFFFF
310
FFFFFFFFFFFFFFFFFFFFFFFFFFFFFFFFFFFFFFFFFFFFFFFFFFFFFFFFFFFFFFFF
310
FFFFFFFFFFFFFFFFFFFFFFFFFFFFFFFFFFFFFFFFFFFFFFFFFFFFFFFFFFFFFFFF
310
FFFFFFFFFFFFFFFFFFFFFFFFFFFFFFFFFFFFFFFFFFFFFFFFF000FFFFFFFFFFFF
310
FFFFFFFFFFFFFFFFFFFFFFFFFFFFFFFFFFFFFFFFFFFFFFFFFFFFFFFFFFFFFFFF
310
FFFFFFFFFFFFFFFFFFFFFFFFFFFFFFFFFFFFFFFFFFFFFFFFFFFFFFFFFFFFFFFF
310
FFFFFFFFFFFFFFFFFFFFFFFFFFFFFFFFF000FFFFFFFFFFFFFFFFFFFFFFFFFFFF
310
FFFFFFFFFFFFFFFFFFFFFFFFFFFFFFFFFFFFFFFFFFFFFFFFFFFFFFFFFFFFFFFF
310
FFFFFFFFFFFFFFFFFFFFFFFFFFFFFFFFFFFFFFFFFFFFFFFFFFFFFFFFFFFFFFFF
310
FFFFFFFFFFFFFFFFF000FFFFFFFFFFFFFFFFFFFFFFFFFFFFFFFFFFFFFFFFFFFF
310
FFFFFFFFFFFFFFFFFFFFFFFFFFFFFFFFFFFFFFFFFFFFFFFFFFFFFFFFFFFFFFFF
310
FFFFFFFFFFFFFFFFFFFFFFFFFFFFFFFFFFFFFFFFFFFFFFFFFFFFFFFFFFFFFFFF
310
F000FFFFFFFFFFFFFFFFFFFFFFFFFFFFFFFFFFFFFFFFFFFFFFFFFFFFFFFFFFFF
310
FFFFFFFFFFFFFFFFFFFFFFFFFFFFFFFFFFFFFFFFFFFFFFFFFFFFFFFFFFFFFFFF
310
FFFFFFFFFFFFFFFFFFFFFFFFFFFFFFFFFFFFFFFFFFFFFFFFF000FFFFFFFFFFFF
310
FFFFFFFFFFFFFFFFFFFFFFFFFFFFFFFFFFFFFFFFFFFFFFFFFFFFFFFFFFFFFFFF
310
FFFFFFFFFFFFFFFFFFFFFFFFFFFFFFFFFFFFFFFFFFFFFFFFFFFFFFFFFFFFFFFF
310
FFFFFFFFFFFFFFFFFFFFFFFFFFFFFFFFF000FFFFFFFFFFFFFFFFFFFFFFFFFFFF
310
FFFFFFFFFFFFFFFFFFFFFFFFFFFFFFFFFFFFFFFFFFFFFFFFFFFFFFFFFFFFFFFF
310
FFFFFFFFFFFFFFFFFFFFFFFFFFFFFFFFFFFFFFFFFFFFFFFFFFFFFFFFFFFFFFFF
310
FFFFFFFFFFFFFFFFF000FFFFFFFFFFFFFFFFFFFFFFFFFFFFFFFFFFFFFFFFFFFF
310
FFFFFFFFFFFFFFFFFFFFFFFFFFFFFFFFFFFFFFFFFFFFFFFFFFFFFFFFFFFFFFFF
310
FFFFFFFFFFFFFFFFFFFFFFFFFFFFFFFFFFFFFFFFFFFFFFFFFFFFFFFFFFFFFFFF
310
F000FFFFFFFFFFFFFFFFFFFFFFFFFFFFFFFFFFFFFFFFFFFFFFFFFFFFFFFFFFFF
310
FFFFFFFFFFFFFFFFFFFFFFFFFFFFFFFFFFFFFFFFFFFFFFFFFFFFFFFFFFFFFFFF
310
FFFFFFFFFFFFFFFFFFFFFFFFFFFFFFFFFFFFFFFFFFFFFFFFF000FFFFFFFFFFFF
310
FFFFFFFFFFFFFFFFFFFFFFFFFFFFFFFFFFFFFFFFFFFFFFFFFFFFFFFFFFFFFFFF
310
FFFFFFFFFFFFFFFFFFFFFFFFFFFFFFFFFFFFFFFFFFFFFFFFFFFFFFFFFFFFFFFF
310
FFFFFFFFFFFFFFFFFFFFFFFFFFFFFFFFF000FFFFFFFFFFFFFFFFFFFFFFFFFFFF
310
FFFFFFFFFFFFFFFFFFFFFFFFFFFFFFFFFFFFFFFFFFFFFFFFFFFFFFFFFFFFFFFF
310
FFFFFFFFFFFFFFFFFFFFFFFFFFFFFFFFFFFFFFFFFFFFFFFFFFFFFFFFFFFFFFFF
310
FFFFFFFFFFFFFFFFF000FFFFFFFFFFFFFFFFFFFFFFFFFFFFFFFFFFFFFFFFFFFF
310
FFFFFFFFFFFFFFFFFFFFFFFFFFFFFFFFFFFFFFFFFFFFFFFFFFFFFFFFFFFFFFFF
310
FFFFFFFFFFFFFFFFFFFFFFFFFFFFFFFFFFFFFFFFFFFFFFFFFFFFFFFFFFFFFFFF
310
F000FFFFFFFFFFFFFFFFFFFFFFFFFFFFFFFFFFFFFFFFFFFFFFFFFFFFFFFFFFFF
310
FFFFFFFFFFFFFFFFFFFFFFFFFFFFFFFFFFFFFFFFFFFFFFFFFFFFFFFFFFFFFFFF
310
FFFFFFFFFFFFFFFFFFFFFFFFFFFFFFFFFFFFFFFFFFFFFFFFF000FFFFFFFFFFFF
310
FFFFFFFFFFFFFFFFFFFFFFFFFFFFFFFFFFFFFFFFFFFFFFFFFFFFFFFFFFFFFFFF
310
FFFFFFFFFFFFFFFFFFFFFFFFFFFFFFFFFFFFFFFFFFFFFFFFFFFFFFFFFFFFFFFF
310
FFFFFFFFFFFFFFFFFFFFFFFFFFFFFFFFF000FFFFFFFFFFFFFFFFFFFFFFFFFFFF
310
FFFFFFFFFFFFFFFFFFFFFFFFFFFFFFFFFFFFFFFFFFFFFFFFFFFFFFFFFFFFFFFF
310
FFFFFFFFFFFFFFFFFFFFFFFFFFFFFFFFFFFFFFFFFFFFFFFFFFFFFFFFFFFFFFFF
310
FFFFFFFFFFFFFFFFF000FFFFFFFFFFFFFFFFFFFFFFFFFFFFFFFFFFFFFFFFFFFF
310
FFFFFFFFFFFFFFFFFFFFFFFFFFFFFFFFFFFFFFFFFFFFFFFFFFFFFFFFFFFFFFFF
310
FFFFFFFFFFFFFFFFFFFFFFFFFFFFFFFFFFFFFFFFFFFFFFFFFFFFFFFFFFFFFFFF
310
F000FFFFFFFFFFFFFFFFFFFFFFFFFFFFFFFFFFFFFFFFFFFFFFFFFFFFFFFFFFFF
310
FFFFFFFFFFFFFFFFFFFFFFFFFFFFFFFFFFFFFFFFFFFFFFFFFFFFFFFFFFFFFFFF
310
FFFFFFFFFFFFFFFFFFFFFFFFFFFFFFFFFFFFFFFFFFFFFFFFF000FFFFFFFFFFFF
310
FFFFFFFFFFFFFFFFFFFFFFFFFFFFFFFFFFFFFFFFFFFFFFFFFFFFFFFFFFFFFFFF
310
FFFFFFFFFFFFFFFFFFFFFFFFFFFFFFFFFFFFFFFFFFFFFFFFFFFFFFFFFFFFFFFF
310
FFFFFFFFFFFFFFFFFFFFFFFFFFFFFFFFF000FFFFFFFFFFFFFFFFFFFFFFFFFFFF
310
FFFFFFFFFFFFFFFFFFFFFFFFFFFFFFFFFFFFFFFFFFFFFFFFFFFFFFFFFFFFFFFF
310
FFFFFFFFFFFFFFFFFFFFFFFFFFFFFFFFFFFFFFFFFFFFFFFFFFFFFFFFFFFFFFFF
310
FFFFFFFFFFFFFFFFF000FFFFF80003FFFFFFFFFFFFFFFFFFFFFFFFFFFFFFFFFF
310
FFFFF00007FFFFFFFFFF00007FFFFFF800000000000000007FFFFFFFFFFFFFFF
310
FFFFFFFC001FFFFFFFFFFFFFFC001FFFFFFFFFFFFFFFFFFFFFFFFFFE0007FFFF
310
F000FFFF8000007FFFFFFFF8000FFFFFC0007FFFFF80007FFFFF0000007FFFFF
310
FFF8000007FFFFF800000000000000007FFFFFF0001FFFFFFFFFFFC00001FFFF
310
FFFFFFFFC00001FFFFFFFF000000000003FFFFE000007FFFF000FFFE0000000F
310
FFFFFFF0000FFFFF80007FFFFF80007FFFFC0000001FFFFFFFC0000001FFFFF8
310
00000000000000007FFFFFF0001FFFFFFFFFFE0000003FFFFFFFFFFE0000003F
310
FFFFFF000000000003FFFF0000000FFFF000FFF800000003FFFFFFF00007FFFF
310
80007FFFFF80007FFFF000000007FFFFFF000000003FFFF80000000000000000
310
7FFFFFF0001FFFFFFFFFF80000000FFFFFFFFFF80000000FFFFFFF0000000000
310
03FFFC00000003FFF000FFE000000000FFFFFFF00007FFFF80003FFFFF80007F
310
FFC000000001FFFFFC000000001FFFF800000000000000007FFFFFF0001FFFFF
310
FFFFE000000003FFFFFFFFE000000003FFFFFF000000000003FFF000000000FF
310
F000FF80000000007FFFFFF00007FFFF80003FFFFF80007FFF8000000000FFFF
310
F80000000007FFF800000000000000007FFFFFF0001FFFFFFFFFC000000001FF
310
FFFFFFC000000001FFFFFF000000000003FFC0000000007FF000FF0000000000
310
3FFFFFE00007FFFF00003FFFFF80007FFE00000000003FFFF00000000003FFF8
310
00000000000000007FFFFFF0001FFFFFFFFF8000000000FFFFFFFF8000000000
310
FFFFFF000000000003FF80000000003FF000FE00000000001FFFFFE00003FFFF
310
00003FFFFF80007FFC00000000001FFFE00000000001FFF8000001FFFE000000
310
7FFFFFF0001FFFFFFFFE00000000003FFFFFFE00000000003FFFFF0000000000
310
03FF00000000001FF000FC00000000000FFFFFE00003FFFF00001FFFFF80007F
310
F800000000001FFFC00000000000FFF8000001FFFE0000007FFFFFF0001FFFFF
310
FFFC00000000001FFFFFFC00000000001FFFFF000000000003FE00000000000F
310
F000F8000000000007FFFFE00003FFFF00001FFFFF80007FF800000000000FFF
310
800000000000FFF8000001FFFE0000007FFFFFF0001FFFFFFFF800000000000F
310
FFFFF800000000000FFFFF000000000003FC000000000007F000F80000000000
310
03FFFFC00003FFFE00001FFFFF80007FF0000000000007FF0000000000007FF8
310
000001FFFE0000007FFFFFF0001FFFFFFFF0000000000007FFFFF00000000000
310
07FFFF000000000003F8000000000003F000F0000000000003FFFFC00001FFFE
310
00001FFFFF80007FE0000000000007FE0000000000003FF8000001FFFE000000
310
7FFFFFF0001FFFFFFFF0000000000007FFFFF0000000000007FFFF0000000000
310
03F800001F800003F000E00001FFF00001FFFFC00001FFFE00000FFFFF80007F
310
E00001FFE00003FE00001FFF00003FF8000001FFFE0000007FFFFFF0001FFFFF
310
FFE000003E000003FFFFE000003E000003FFFF000000000003F00001FFF80001
310
F000E00007FFFC0001FFFFC00001FFFE00000FFFFF80007FC0000FFFFC0003FC
310
0000FFFFC0001FF8000001FFFE0000007FFFFFF0001FFFFFFFC00003FFE00001
310
FFFFC00003FFE00001FFFF0001FFFFFFFFF00007FFFE0001F000E0000FFFFF00
310
00FFFF800001FFFC00000FFFFF80007FC0001FFFFE0001FC0001FFFFE0001FF8
310
000001FFFE0000007FFFFFF0001FFFFFFF80000FFFF80000FFFF80000FFFF800
310
00FFFF0003FFFFFFFFE0000FFFFF8000F000C0003FFFFF8000FFFF800000FFFC
310
000007FFFF80007F80003FFFFF0001FC0003FFFFF0001FF8000001FFFE000000
310
7FFFFFF0001FFFFFFF80003FFFFE0000FFFF80003FFFFE0000FFFF0003FFFFFF
310
FFE0003FFFFF8000F000C0003FFFFF8000FFFF800000FFFC000007FFFF80007F
310
80007FFFFF8001F80007FFFFF8000FF8000001FFFE0000007FFFFFF0001FFFFF
310
FF00007FFFFF00007FFF00007FFFFF00007FFF0003FFFFFFFFE0003FFFFFC000
310
F000C0007FFFFFC000FFFF000000FFFC000007FFFF80007F8000FFFFFF8000F8
310
000FFFFFF8000FF8000001FFFE0000007FFFFFF0001FFFFFFF0000FFFFFF8000
310
7FFF0000FFFFFF80007FFF0003FFFFFFFFC0007FFFFFC00070008000FFFFFFC0
310
00FFFF000000FFF8000007FFFF80007F8000FFFFFF8000F8000FFFFFF8000FF8
310
000001FFFE0000007FFFFFF0001FFFFFFE0001FFFFFFC0003FFE0001FFFFFFC0
310
003FFF0003FFFFFFFFC0007FFFFFE00070008000FFFFFFC0007FFF0000007FF8
310
000003FFFF80007F0001FFFFFF8000F8000FFFFFF8000FF8000001FFFE000000
310
7FFFFFF0001FFFFFFE0001FFFFFFC0003FFE0001FFFFFFC0003FFF0003FFFFFF
310
FFC000FFFFFFE00070008000FFFFFFC0007FFF0000007FF8000003FFFF80007F
310
0001FFFFFF8000F8001FFFFFF8000FF8000001FFFE0000007FFFFFF0001FFFFF
310
FE0003FFFFFFE0003FFE0003FFFFFFE0003FFF0003FFFFFFFFC000FFFFFFE000
310
70008000FFFFFFC0007FFE0000007FF8000003FFFF80007F0001FFFFFF8000F0
310
001FFFFFF8000FF8000001FFFE0000007FFFFFF0001FFFFFFC0003FFFFFFE000
310
1FFC0003FFFFFFE0001FFF0003FFFFFFFFC000FFFFFFC00070008000FFFFFF80
310
007FFE0000007FF0000003FFFF80007F0001FFFFFF0000F0001FFFFFF8000FF8
310
000001FFFE0000007FFFFFF0001FFFFFFC0007FFFFFFF0001FFC0007FFFFFFF0
310
001FFF0003FFFFFFFFC000FFFFFFC00070008001FFFFFF0000FFFE0000003FF0
310
000001FFFF80007F0001FFFFFF0000F8001FFFFFF0000FF8000001FFFE000000
310
7FFFFFF0001FFFFFFC0007FFFFFFF0001FFC0007FFFFFFF0001FFF0003FFFFFF
310
FFC001FFFFFF80007000FFFFFFFFFE0000FFFE0008003FF0008001FFFF80007F
310
FFFFFFFFFC0000FFFFFFFFFFE0000FF8000001FFFE0000007FFFFFF0001FFFFF
310
F8000FFFFFFFF8000FF8000FFFFFFFF8000FFF0003FFFFFFFFFFFFFFFFFF0000
310
7000FFFFFFFFFC0000FFFC0008003FF0008001FFFF80007FFFFFFFFFF80001FF
310
FFFFFFFF80000FF8000001FFFE0000007FFFFFF0001FFFFFF8000FFFFFFFF800
310
0FF8000FFFFFFFF8000FFF0003FFFFFFFFFFFFFFFFFE0000F000FFFFFFFFE000
310
00FFFC000C003FE000C001FFFF80007FFFFFFFFFC00001FFFFFFFFFE00001FF8
310
000001FFFE0000007FFFFFF0001FFFFFF8000FFFFFFFF8000FF8000FFFFFFFF8
310
000FFF0003FFFFFFFFFFFFFFFFF00000F000FFFFFFFE000001FFFC000C001FE0
310
00C000FFFF80007FFFFFFFFE000001FFFFFFFFE000001FF80FFFFFFFFFFFFFC0
310
7FFFFFF0001FFFFFF8000FFFFFFFF8000FF8000FFFFFFFF8000FFF0003FFFFFF
310
FFFFFFFFFF800000F000FFFFFFC0000001FFFC001C001FE001C000FFFF80007F
310
FFFFFF80000003FFFFFFF80000001FF80FFFFFFFFFFFFFC07FFFFFF0001FFFFF
310
F8001FFFFFFFFC000FF8001FFFFFFFFC000FFF0003FFFFFFFFFFFFFFF0000001
310
F000FFFFF800000001FFF8001C001FE001C000FFFF80007FFFFFF800000003FF
310
FFFF800000003FF80FFFFFFFFFFFFFC07FFFFFF0001FFFFFF8001FFFFFFFFC00
310
0FF8001FFFFFFFFC000FFF0003FFFFFFFFFFFFFE00000001F000FFFFC0000000
310
03FFF8001E001FC001E000FFFF80007FFFFF8000000007FFFFFC000000003FF8
310
0FFFFFFFFFFFFFC07FFFFFF0001FFFFFF8001FFFFFFFFC000FF8001FFFFFFFFC
310
000FFF0003FFFFFFFFFFFFE000000003F000FFFE0000000007FFF8001E000FC0
310
01E0007FFF80007FFFFE0000000007FFFFE0000000007FF80FFFFFFFFFFFFFC0
310
7FFFFFF0001FFFFFF0001FFFFFFFFC0007F0001FFFFFFFFC0007FF0003FFFFFF
310
FFFFFF0000000003F000FFF80000000007FFF8001E000FC003E0007FFF80007F
310
FFF0000000000FFFFF8000000000FFF80FFFFFFFFFFFFFC07FFFFFF0001FFFFF
310
F0001FFFFFFFFC0007F0001FFFFFFFFC0007FF0003FFFFFFFFFFFC0000000007
310
F000FFE0000000000FFFF0003E000FC003E0007FFF80007FFFC0000000001FFF
310
FE0000000001FFF80FFFFFFFFFFFFFC07FFFFFF0001FFFFFF0001FFFFFFFFC00
310
07F0001FFFFFFFFC0007FF0003FFFFFFFFFFF0000000000FF000FFC000000000
310
1FFFF0003F000F8003F0003FFF80007FFF80000000003FFFF80000000003FFF8
310
0FFFFFFFFFFFFFC07FFFFFF0001FFFFFF0001FFFFFFFFC0007F0001FFFFFFFFC
310
0007FF0003FFFFFFFFFFE0000000001FF000FF00000000007FFFF0003F000780
310
03F0003FFF80007FFF00000000007FFFF00000000007FFF80FFFFFFFFFFFFFC0
310
7FFFFFF0001FFFFFF0001FFFFFFFFC0007F0001FFFFFFFFC0007FF0003FFFFFF
310
FFFF80000000007FF000FE0000000000FFFFE0003F00078007F0003FFF80007F
310
FE0000000001FFFFE0000000001FFFF80FFFFFFFFFFFFFC07FFFFFF0001FFFFF
310
F0001FFFFFFFFC0007F0001FFFFFFFFC0007FF0003FFFFFFFFFF0000000000FF
310
F000FC0000000003FFFFE0007F00078007F0003FFF80007FFC0000000007FFFF
310
C0000000007FFFF80FFFFFFFFFFFFFC07FFFFFF0001FFFFFF8001FFFFFFFFC00
310
0FF8001FFFFFFFFC000FFF0003FFFFFFFFFE0000000003FFF000FC000000000F
310
FFFFE0007F80070007F8001FFF80007FF8000000001FFFFF8000000001FFFFF8
310
0FFFFFFFFFFFFFC07FFFFFF0001FFFFFF8001FFFFFFFFC000FF8001FFFFFFFFC
310
000FFF0003FFFFFFFFFC000000000FFFF000F8000000007FFFFFE0007F800700
310
07F8001FFF80007FF000000000FFFFFF800000000FFFFFF80FFFFFFFFFFFFFC0
310
7FFFFFF0001FFFFFF8000FFFFFFFF8000FF8000FFFFFFFF8000FFF0003FFFFFF
310
FFFC000000007FFFF000F800000007FFFFFFC0007F8003000FF8001FFF80007F
310
F000000007FFFFFF000000007FFFFFF80FFFFFFFFFFFFFC07FFFFFF0001FFFFF
310
F8000FFFFFFFF8000FF8000FFFFFFFF8000FFF0003FFFFFFFFF80000000FFFFF
310
F000F0000000FFFFFFFFC000FF8003000FF8001FFF80007FE0000000FFFFFFFF
310
0000000FFFFFFFF8000001FFFE0000007FFFFFF0001FFFFFF8000FFFFFFFF800
310
0FF8000FFFFFFFF8000FFF0003FFFFFFFFF8000000FFFFFFF000F000000FFFFF
310
FFFFC000FFC002000FF8000FFF80007FE000001FFFFFFFFE000001FFFFFFFFF8
310
000001FFFE0000007FFFFFF0001FFFFFF8000FFFFFFFF8000FF8000FFFFFFFF8
310
000FFF0003FFFFFFFFF000001FFFFFFFF000E00000FFFFFFFFFFC000FFC00200
310
0FFC000FFF80007FE00001FFFFFFFFFE00001FFFFFFFFFF8000001FFFE000000
310
7FFFFFF0001FFFFFFC000FFFFFFFF8001FFC000FFFFFFFF8001FFF0003FFFFFF
310
FFF00001FFFFFFFFF000E00007FFFFFFFFFF8000FFC000001FFC000FFF80007F
310
C0000FFFFFFFFFFE0000FFFFFFFFFFF8000001FFFE0000007FFFFFF0001FFFFF
310
FC0007FFFFFFF0001FFC0007FFFFFFF0001FFF0003FFFFFFFFF00007FFFFFFFF
310
F000E0001FFFFFFFFFFF8000FFC000001FFC000FFF80007FC0003FFFFFFFFFFE
310
0001FFFFFFFFFFF8000001FFFE0000007FFFFFF0001FFFFFFC0007FFFFFFF000
310
1FFC0007FFFFFFF0001FFF0003FFFFFFFFF0001FFFFFFFFFF000E0003FFFFF00
310
03FF8001FFE000001FFC0007FF80007FC0007FFFFF0007FC0003FFFFF0003FF8
310
000001FFFE0000007FFFFFF0001FFFFFFC0003FFFFFFE0001FFC0003FFFFFFE0
310
001FFF0003FFFFFFFFF0003FFFFFFFFFF000E0003FFFFF0001FF8001FFE00000
310
1FFE0007FF80007FC0007FFFFE0003FC0007FFFFE0003FF8000001FFFE000000
310
7FFFFFF0001FFFFFFE0003FFFFFFE0003FFE0003FFFFFFE0003FFF0003FFFFFF
310
FFF0003FFFFF8001F000E0003FFFFF0001FF0001FFE000001FFE0007FF80007F
310
C0007FFFFE0003FC0007FFFFE0003FF8000001FFFE0000007FFFFFF0001FFFFF
310
FE0001FFFFFFC0003FFE0001FFFFFFC0003FFF0003FFFFFFFFF0003FFFFF0001
310
F000E0003FFFFF0003FF0001FFE000003FFE0007FF80007FC0007FFFFE0003FC
310
0007FFFFE0003FF8000001FFFE0000007FFFFFF0001FFFFFFF0001FFFFFFC000
310
7FFF0001FFFFFFC0007FFF0003FFFFFFFFF0003FFFFF0001F000E0003FFFFE00
310
03FF0003FFF000003FFE0003FF80007FC0007FFFFC0003FE0007FFFFE0003FF8
310
000001FFFE0000007FFFFFF0001FFFFFFF0000FFFFFF80007FFF0000FFFFFF80
310
007FFF0003FFFFFFFFF0003FFFFF0001F000E0003FFFFE0003FF0003FFF00000
310
3FFF0003FF80007FC0007FFFFC0007FE0007FFFFC0003FF8000001FFFE000000
310
7FFFFFF0001FFFFFFF80007FFFFF0000FFFF80007FFFFF0000FFFF0003FFFFFF
310
FFF0003FFFFF0003F000E0003FFFFC0003FE0003FFF000003FFF0003FF80007F
310
E0003FFFF80007FE0003FFFFC0007FF8000001FFFE0000007FFFFFF0001FFFFF
310
FF80003FFFFE0000FFFF80003FFFFE0000FFFF0003FFFFFFFFF0001FFFFE0003
310
F000F0001FFFF80003FE0003FFF000007FFF0001FF80007FE0003FFFF00007FE
310
0001FFFF80007FF8000001FFFE0000007FFFFFF0001FFFFFFFC0000FFFF80001
310
FFFFC0000FFFF80001FFFF0003FFFFFFFFF0001FFFFC0003F000F0000FFFF000
310
07FE0007FFF800007FFF0001FF80007FE0001FFFE00007FF0000FFFE00007FF8
310
000001FFFE0000007FFFFFF0001FFFFFFFC00003FFE00001FFFFC00003FFE000
310
01FFFF0003FFFFFFFFF8000FFFF80003F000F00003FFC00007FC0007FFF80000
310
7FFF8001FF80007FF00007FF80000FFF00007FF80000FFF8000001FFFE000000
310
7F80000000000001FFE000003E000003FFFFE000003E000003FFFF0003FFFFFF
310
FFF80003FFE00007F000F800000000000FFC0007FFF800007FFF8001FF80007F
310
F000000000000FFF000000000000FFF8000001FFFE0000007F80000000000001
310
FFF0000000000007FFFFF0000000000007FFFF0003FFFFFFFFFC00007E000007
310
F000F800000000000FFC0007FFF80000FFFF8000FF80007FF800000000001FFF
310
800000000001FFF8000001FFFE0000007F80000000000001FFF800000000000F
310
FFFFF800000000000FFFFF0003FFFFFFFFFC00000000000FF000FC0000000000
310
1FFC0007FFFC0000FFFF8000FF80007FF800000000003FFFC00000000001FFF8
310
000001FFFE0000007F80000000000001FFF800000000000FFFFFF80000000000
310
0FFFFF0003FFFFFFFFFE00000000001FF000FE00000000003FF8000FFFFC0000
310
FFFF8000FF80007FFC00000000003FFFC00000000003FFF8000001FFFE000000
310
7F80000000000001FFFC00000000001FFFFFFC00000000001FFFFF0003FFFFFF
310
FFFF00000000001FF000FF00000000003FF8000FFFFC0000FFFFC000FF80007F
310
FE00000000007FFFE00000000007FFF8000001FFFE0000007F80000000000001
310
FFFE00000000003FFFFFFE00000000003FFFFF0003FFFFFFFFFF80000000003F
310
F000FF80000000007FF8000FFFFC0001FFFFC0007F80007FFF0000000000FFFF
310
F0000000000FFFF800000000000000007F80000000000001FFFF8000000000FF
310
FFFFFF8000000000FFFFFF0003FFFFFFFFFFC0000000007FF000FFC000000000
310
FFF8000FFFFE0001FFFFC0007F80007FFF8000000001FFFFF8000000001FFFF8
310
00000000000000007F80000000000001FFFFC000000001FFFFFFFFC000000001
310
FFFFFF0003FFFFFFFFFFE000000000FFF000FFE000000003FFF0001FFFFE0001
310
FFFFC0007F80007FFFC000000007FFFFFE000000003FFFF80000000000000000
310
7F80000000000001FFFFE000000003FFFFFFFFE000000003FFFFFF0003FFFFFF
310
FFFFF000000003FFF000FFF80000000FFFF0001FFFFE0001FFFFE0007F80007F
310
FFF00000000FFFFFFF00000000FFFFF800000000000000007F80000000000001
310
FFFFF80000000FFFFFFFFFF80000000FFFFFFF0003FFFFFFFFFFFC0000000FFF
310
F000FFFE0000003FFFF0001FFFFE0003FFFFE0003F80007FFFFC0000003FFFFF
310
FFC0000003FFFFF800000000000000007F80000000000001FFFFFE0000003FFF
310
FFFFFFFE0000003FFFFFFF0003FFFFFFFFFFFF0000003FFFF000FFFF800000FF
310
FFF0001FFFFF0003FFFFE0003F80007FFFFF000001FFFFFFFFF800001FFFFFF8
310
00000000000000007F80000000000001FFFFFFC00001FFFFFFFFFFFFC00001FF
310
FFFFFF0003FFFFFFFFFFFFC00000FFFFF000FFFFF8000FFFFFFFFFFFFFFFFFFF
310
FFFFFFFFFFFFFFFFFFFFF0001FFFFFFFFFFF0000FFFFFFF80000000000000000
310
7FFFFFFFFFFFFFFFFFFFFFFC001FFFFFFFFFFFFFFC001FFFFFFFFFFFFFFFFFFF
310
FFFFFFFC001FFFFFF000FFFFFFFFFFFFFFFFFFFFFFFFFFFFFFFFFFFFFFFFFFFF
310
FFFFFFFFFFFFFFFFFFFFFFFFFFFFFFFFFFFFFFFFFFFFFFFFFFFFFFFFFFFFFFFF
310
FFFFFFFFFFFFFFFFFFFFFFFFFFFFFFFFFFFFFFFFFFFFFFFFFFFFFFFFFFFFFFFF
310
F000FFFFFFFFFFFFFFFFFFFFFFFFFFFFFFFFFFFFFFFFFFFFFFFFFFFFFFFFFFFF
310
FFFFFFFFFFFFFFFFFFFFFFFFFFFFFFFFFFFFFFFFFFFFFFFFFFFFFFFFFFFFFFFF
310
FFFFFFFFFFFFFFFFFFFFFFFFFFFFFFFFFFFFFFFFFFFFFFFFF000FFFFFFFFFFFF
310
FFFFFFFFFFFFFFFFFFFFFFFFFFFFFFFFFFFFFFFFFFFFFFFFFFFFFFFFFFFFFFFF
310
FFFFFFFFFFFFFFFFFFFFFFFFFFFFFFFFFFFFFFFFFFFFFFFFFFFFFFFFFFFFFFFF
310
FFFFFFFFFFFFFFFFFFFFFFFFFFFFFFFFF000FFFFFFFFFFFFFFFFFFFFFFFFFFFF
310
FFFFFFFFFFFFFFFFFFFFFFFFFFFFFFFFFFFFFFFFFFFFFFFFFFFFFFFFFFFFFFFF
310
FFFFFFFFFFFFFFFFFFFFFFFFFFFFFFFFFFFFFFFFFFFFFFFFFFFFFFFFFFFFFFFF
310
FFFFFFFFFFFFFFFFF000FFFFFFFFFFFFFFFFFFFFFFFFFFFFFFFFFFFFFFFFFFFF
310
FFFFFFFFFFFFFFFFFFFFFFFFFFFFFFFFFFFFFFFFFFFFFFFFFFFFFFFFFFFFFFFF
310
FFFFFFFFFFFFFFFFFFFFFFFFFFFFFFFFFFFFFFFFFFFFFFFFFFFFFFFFFFFFFFFF
310
F000FFFFFFFFFFFFFFFFFFFFFFFFFFFFFFFFFFFFFFFFFFFFFFFFFFFFFFFFFFFF
310
FFFFFFFFFFFFFFFFFFFFFFFFFFFFFFFFFFFFFFFFFFFFFFFFFFFFFFFFFFFFFFFF
310
FFFFFFFFFFFFFFFFFFFFFFFFFFFFFFFFFFFFFFFFFFFFFFFFF000FFFFFFFFFFFF
310
FFFFFFFFFFFFFFFFFFFFFFFFFFFFFFFFFFFFFFFFFFFFFFFFFFFFFFFFFFFFFFFF
310
FFFFFFFFFFFFFFFFFFFFFFFFFFFFFFFFFFFFFFFFFFFFFFFFFFFFFFFFFFFFFFFF
310
FFFFFFFFFFFFFFFFFFFFFFFFFFFFFFFFF000FFFFFFFFFFFFFFFFFFFFFFFFFFFF
310
FFFFFFFFFFFFFFFFFFFFFFFFFFFFFFFFFFFFFFFFFFFFFFFFFFFFFFFFFFFFFFFF
310
FFFFFFFFFFFFFFFFFFFFFFFFFFFFFFFFFFFFFFFFFFFFFFFFFFFFFFFFFFFFFFFF
310
FFFFFFFFFFFFFFFFF000FFFFFFFFFFFFFFFFFFFFFFFFFFFFFFFFFFFFFFFFFFFF
310
FFFFFFFFFFFFFFFFFFFFFFFFFFFFFFFFFFFFFFFFFFFFFFFFFFFFFFFFFFFFFFFF
310
FFFFFFFFFFFFFFFFFFFFFFFFFFFFFFFFFFFFFFFFFFFFFFFFFFFFFFFFFFFFFFFF
310
F000FFFFFFFFFFFFFFFFFFFFFFFFFFFFFFFFFFFFFFFFFFFFFFFFFFFFFFFFFFFF
310
FFFFFFFFFFFFFFFFFFFFFFFFFFFFFFFFFFFFFFFFFFFFFFFFFFFFFFFFFFFFFFFF
310
FFFFFFFFFFFFFFFFFFFFFFFFFFFFFFFFFFFFFFFFFFFFFFFFF000FFFFFFFFFFFF
310
FFFFFFFFFFFFFFFFFFFFFFFFFFFFFFFFFFFFFFFFFFFFFFFFFFFFFFFFFFFFFFFF
310
FFFFFFFFFFFFFFFFFFFFFFFFFFFFFFFFFFFFFFFFFFFFFFFFFFFFFFFFFFFFFFFF
310
FFFFFFFFFFFFFFFFFFFFFFFFFFFFFFFFF000FFFFFFFFFFFFFFFFFFFFFFFFFFFF
310
FFFFFFFFFFFFFFFFFFFFFFFFFFFFFFFFFFFFFFFFFFFFFFFFFFFFFFFFFFFFFFFF
310
FFFFFFFFFFFFFFFFFFFFFFFFFFFFFFFFFFFFFFFFFFFFFFFFFFFFFFFFFFFFFFFF
310
FFFFFFFFFFFFFFFFF000FFFFFFFFFFFFFFFFFFFFFFFFFFFFFFFFFFFFFFFFFFFF
310
FFFFFFFFFFFFFFFFFFFFFFFFFFFFFFFFFFFFFFFFFFFFFFFFFFFFFFFFFFFFFFFF
310
FFFFFFFFFFFFFFFFFFFFFFFFFFFFFFFFFFFFFFFFFFFFFFFFFFFFFFFFFFFFFFFF
310
F000FFFFFFFFFFFFFFFFFFFFFFFFFFFFFFFFFFFFFFFFFFFFFFFFFFFFFFFFFFFF
310
FFFFFFFFFFFFFFFFFFFFFFFFFFFFFFFFFFFFFFFFFFFFFFFFFFFFFFFFFFFFFFFF
310
FFFFFFFFFFFFFFFFFFFFFFFFFFFFFFFFFFFFFFFFFFFFFFFFF000FFFFFFFFFFFF
310
FFFFFFFFFFFFFFFFFFFFFFFFFFFFFFFFFFFFFFFFFFFFFFFFFFFFFFFFFFFFFFFF
310
FFFFFFFFFFFFFFFFFFFFFFFFFFFFFFFFFFFFFFFFFFFFFFFFFFFFFFFFFFFFFFFF
310
FFFFFFFFFFFFFFFFFFFFFFFFFFFFFFFFF000FFFFFFFFFFFFFFFFFFFFFFFFFFFF
310
FFFFFFFFFFFFFFFFFFFFFFFFFFFFFFFFFFFFFFFFFFFFFFFFFFFFFFFFFFFFFFFF
310
FFFFFFFFFFFFFFFFFFFFFFFFFFFFFFFFFFFFFFFFFFFFFFFFFFFFFFFFFFFFFFFF
310
FFFFFFFFFFFFFFFFF000FFFFFFFFFFFFFFFFFFFFFFFFFFFFFFFFFFFFFFFFFFFF
310
FFFFFFFFFFFFFFFFFFFFFFFFFFFFFFFFFFFFFFFFFFFFFFFFFFFFFFFFFFFFFFFF
310
FFFFFFFFFFFFFFFFFFFFFFFFFFFFFFFFFFFFFFFFFFFFFFFFFFFFFFFFFFFFFFFF
310
F000FFFFFFFFFFFFFFFFFFFFFFFFFFFFFFFFFFFFFFFFFFFFFFFFFFFFFFFFFFFF
310
FFFFFFFFFFFFFFFFFFFFFFFFFFFFFFFFFFFFFFFFFFFFFFFFFFFFFFFFFFFFFFFF
310
FFFFFFFFFFFFFFFFFFFFFFFFFFFFFFFFFFFFFFFFFFFFFFFFF000FFFFFFFFFFFF
310
FFFFFFFFFFFFFFFFFFFFFFFFFFFFFFFFFFFFFFFFFFFFFFFFFFFFFFFFFFFFFFFF
310
FFFFFFFFFFFFFFFFFFFFFFFFFFFFFFFFFFFFFFFFFFFFFFFFFFFFFFFFFFFFFFFF
310
FFFFFFFFFFFFFFFFFFFFFFFFFFFFFFFFF000FFFFFFFFFFFFFFFFFFFFFFFFFFFF
310
FFFFFFFFFFFFFFFFFFFFFFFFFFFFFFFFFFFFFFFFFFFFFFFFFFFFFFFFFFFFFFFF
310
FFFFFFFFFFFFFFFFFFFFFFFFFFFFFFFFFFFFFFFFFFFFFFFFFFFFFFFFFFFFFFFF
310
FFFFFFFFFFFFFFFFF000FFFFFFFFFFFFFFFFFFFFFFFFFFFFFFFFFFFFFFFFFFFF
310
FFFFFFFFFFFFFFFFFFFFFFFFFFFFFFFFFFFFFFFFFFFFFFFFFFFFFFFFFFFFFFFF
310
FFFFFFFFFFFFFFFFFFFFFFFFFFFFFFFFFFFFFFFFFFFFFFFFFFFFFFFFFFFFFFFF
310
F000FFFFFFFFFFFFFFFFFFFFFFFFFFFFFFFFFFFFFFFFFFFFFFFFFFFFFFFFFFFF
310
FFFFFFFFFFFFFFFFFFFFFFFFFFFFFFFFFFFFFFFFFFFFFFFFFFFFFFFFFFFFFFFF
310
FFFFFFFFFFFFFFFFFFFFFFFFFFFFFFFFFFFFFFFFFFFFFFFFF000FFFFFFFFFFFF
310
FFFFFFFFFFFFFFFFFFFFFFFFFFFFFFFFFFFFFFFFFFFFFFFFFFFFFFFFFFFFFFFF
310
FFFFFFFFFFFFFFFFFFFFFFFFFFFFFFFFFFFFFFFFFFFFFFFFFFFFFFFFFFFFFFFF
310
FFFFFFFFFFFFFFFFFFFFFFFFFFFFFFFFF0000000000000000000000000000000
310
0000000000000000000000000000000000000000000000000000000000000000
310
0000000000000000000000000000000000000000000000000000000000000000
310
0000000000000000000000000000000000000000000000000000000000000000
310
0000000000000000000000000000000000000000000000000000000000000000
310
0000000000000000000000000000000000000000000000000000000000000000
310
0000000000000000000000000000000000000000000000000000000000000000
310
0000000000000000000000000000000000000000000000000000000000000000
310
0000000000000000000000000000000000000000000000000000000000000000
310
0000000000000000000000000000000000000000000000000000000000000000
310
0000000000000000000000000000000000000000000000000000000000000000
310
0000000000000000000000000000000000000000000000000000000000000000
310
0000000000000000000000000000000000000000000000000000000000000000
310
0000000000000000000000000000000000000000000000000000000000000000
310
0000000000000000000000000000000000000000000000000000000000000000
310
0000000000000000000000000000000000000000000000000000000000000000
  1
OLE
  0
ENDSEC
  0
SECTION
  2
OBJECTS
  0
DICTIONARY
  5
C
330
0
100
AcDbDictionary
281
     1
  3
ACAD_GROUP
350
D
  3
ACAD_LAYOUT
350
1A
  3
ACAD_MLINESTYLE
350
17
  3
ACAD_PLOTSETTINGS
350
19
  3
ACAD_PLOTSTYLENAME
350
E
  0
DICTIONARY
  5
D
102
{ACAD_REACTORS
330
C
102
}
330
C
100
AcDbDictionary
281
     1
  0
DICTIONARY
  5
1A
102
{ACAD_REACTORS
330
C
102
}
330
C
100
AcDbDictionary
281
     1
  3
Layout1
350
1E
  3
Layout2
350
26
  3
Model
350
22
  0
DICTIONARY
  5
17
102
{ACAD_REACTORS
330
C
102
}
330
C
100
AcDbDictionary
281
     1
  3
Standard
350
18
  0
DICTIONARY
  5
19
102
{ACAD_REACTORS
330
C
102
}
330
C
100
AcDbDictionary
281
     1
  0
ACDBDICTIONARYWDFLT
  5
E
102
{ACAD_REACTORS
330
C
102
}
330
C
100
AcDbDictionary
281
     1
  3
Normal
350
F
100
AcDbDictionaryWithDefault
340
F
  0
LAYOUT
  5
1E
102
{ACAD_REACTORS
330
1A
102
}
330
1A
100
AcDbPlotSettings
  1

  2
none_device
  4

  6

 40
0.0
 41
0.0
 42
0.0
 43
0.0
 44
0.0
 45
0.0
 46
0.0
 47
0.0
 48
0.0
 49
0.0
140
0.0
141
0.0
142
1.0
143
1.0
 70
   688
 72
     0
 73
     0
 74
     5
  7

 75
    16
147
1.0
148
0.0
149
0.0
100
AcDbLayout
  1
Layout1
 70
     1
 71
     1
 10
0.0
 20
0.0
 11
420.0
 21
297.0
 12
0.0
 22
0.0
 32
0.0
 14
1.0000000000E+20
 24
1.0000000000E+20
 34
1.0000000000E+20
 15
-1.0000000000E+20
 25
-1.0000000000E+20
 35
-1.0000000000E+20
146
0.0
 13
0.0
 23
0.0
 33
0.0
 16
1.0
 26
0.0
 36
0.0
 17
0.0
 27
1.0
 37
0.0
 76
     0
330
1B
  0
LAYOUT
  5
26
102
{ACAD_REACTORS
330
1A
102
}
330
1A
100
AcDbPlotSettings
  1

  2
none_device
  4

  6

 40
0.0
 41
0.0
 42
0.0
 43
0.0
 44
0.0
 45
0.0
 46
0.0
 47
0.0
 48
0.0
 49
0.0
140
0.0
141
0.0
142
1.0
143
1.0
 70
   688
 72
     0
 73
     0
 74
     5
  7

 75
    16
147
1.0
148
0.0
149
0.0
100
AcDbLayout
  1
Layout2
 70
     1
 71
     2
 10
0.0
 20
0.0
 11
0.0
 21
0.0
 12
0.0
 22
0.0
 32
0.0
 14
0.0
 24
0.0
 34
0.0
 15
0.0
 25
0.0
 35
0.0
146
0.0
 13
0.0
 23
0.0
 33
0.0
 16
1.0
 26
0.0
 36
0.0
 17
0.0
 27
1.0
 37
0.0
 76
     0
330
23
  0
LAYOUT
  5
22
102
{ACAD_REACTORS
330
1A
102
}
330
1A
100
AcDbPlotSettings
  1

  2
none_device
  4

  6

 40
0.0
 41
0.0
 42
0.0
 43
0.0
 44
0.0
 45
0.0
 46
0.0
 47
0.0
 48
0.0
 49
0.0
140
0.0
141
0.0
142
1.0
143
1.0
 70
  1712
 72
     0
 73
     0
 74
     0
  7

 75
     0
147
1.0
148
0.0
149
0.0
100
AcDbLayout
  1
Model
 70
     1
 71
     0
 10
0.0
 20
0.0
 11
297.0
 21
210.0
 12
0.0
 22
0.0
 32
0.0
 14
0.0
 24
0.0
 34
0.0
 15
297.0
 25
210.0
 35
0.0
146
0.0
 13
0.0
 23
0.0
 33
0.0
 16
1.0
 26
0.0
 36
0.0
 17
0.0
 27
1.0
 37
0.0
 76
     0
330
1F
331
29
  0
MLINESTYLE
  5
18
102
{ACAD_REACTORS
330
17
102
}
330
17
100
AcDbMlineStyle
  2
Standard
 70
     0
  3

 62
   256
 51
90.0
 52
90.0
 71
     2
 49
0.5
 62
   256
  6
BYLAYER
 49
-0.5
 62
   256
  6
BYLAYER
  0
ACDBPLACEHOLDER
  5
F
102
{ACAD_REACTORS
330
E
102
}
330
E
  0
ENDSEC
  0
EOF
