  0
SECTION
  2
HEADER
  9
$ACADVER
  1
AC1015
  9
$ACADMAINTVER
 70
     6
  9
$DWGCODEPAGE
  3
ANSI_1252
  9
$INSBASE
 10
0.0
 20
0.0
 30
0.0
  9
$EXTMIN
 10
0.0
 20
0.0
 30
0.0
  9
$EXTMAX
 10
297.0
 20
210.0
 30
0.0
  9
$LIMMIN
 10
0.0
 20
0.0
  9
$LIMMAX
 10
297.0
 20
210.0
  9
$ORTHOMODE
 70
     0
  9
$REGENMODE
 70
     1
  9
$FILLMODE
 70
     1
  9
$QTEXTMODE
 70
     0
  9
$MIRRTEXT
 70
     1
  9
$LTSCALE
 40
1.0
  9
$ATTMODE
 70
     1
  9
$TEXTSIZE
 40
2.0
  9
$TRACEWID
 40
1.0
  9
$TEXTSTYLE
  7
Standard
  9
$CLAYER
  8
0
  9
$CELTYPE
  6
ByLayer
  9
$CECOLOR
 62
   256
  9
$CELTSCALE
 40
1.0
  9
$DISPSILH
 70
     0
  9
$DIMSCALE
 40
1.0
  9
$DIMASZ
 40
3.0
  9
$DIMEXO
 40
0.0
  9
$DIMDLI
 40
3.75
  9
$DIMRND
 40
0.0
  9
$DIMDLE
 40
0.0
  9
$DIMEXE
 40
1.0
  9
$DIMTP
 40
0.0
  9
$DIMTM
 40
0.0
  9
$DIMTXT
 40
2.0
  9
$DIMCEN
 40
2.5
  9
$DIMTSZ
 40
0.0
  9
$DIMTOL
 70
     0
  9
$DIMLIM
 70
     0
  9
$DIMTIH
 70
     1
  9
$DIMTOH
 70
     1
  9
$DIMSE1
 70
     0
  9
$DIMSE2
 70
     0
  9
$DIMTAD
 70
     1
  9
$DIMZIN
 70
     0
  9
$DIMBLK
  1

  9
$DIMASO
 70
     1
  9
$DIMSHO
 70
     1
  9
$DIMPOST
  1

  9
$DIMAPOST
  1

  9
$DIMALT
 70
     0
  9
$DIMALTD
 70
     3
  9
$DIMALTF
 40
0.0393700787
  9
$DIMLFAC
 40
1.0
  9
$DIMTOFL
 70
     1
  9
$DIMTVP
 40
0.0
  9
$DIMTIX
 70
     0
  9
$DIMSOXD
 70
     0
  9
$DIMSAH
 70
     0
  9
$DIMBLK1
  1

  9
$DIMBLK2
  1

  9
$DIMSTYLE
  2
ISO-25
  9
$DIMCLRD
 70
     0
  9
$DIMCLRE
 70
     0
  9
$DIMCLRT
 70
     0
  9
$DIMTFAC
 40
1.0
  9
$DIMGAP
 40
1.524
  9
$DIMJUST
 70
     0
  9
$DIMSD1
 70
     0
  9
$DIMSD2
 70
     0
  9
$DIMTOLJ
 70
     0
  9
$DIMTZIN
 70
     0
  9
$DIMALTZ
 70
     0
  9
$DIMALTTZ
 70
     0
  9
$DIMUPT
 70
     0
  9
$DIMDEC
 70
     2
  9
$DIMTDEC
 70
     3
  9
$DIMALTU
 70
     2
  9
$DIMALTTD
 70
     3
  9
$DIMTXSTY
  7
Standard
  9
$DIMAUNIT
 70
     0
  9
$DIMADEC
 70
     2
  9
$DIMALTRND
 40
0.0
  9
$DIMAZIN
 70
     0
  9
$DIMDSEP
 70
    44
  9
$DIMATFIT
 70
     3
  9
$DIMFRAC
 70
     0
  9
$DIMLDRBLK
  1

  9
$DIMLUNIT
 70
     2
  9
$DIMLWD
 70
    -2
  9
$DIMLWE
 70
    -2
  9
$DIMTMOVE
 70
     0
  9
$LUNITS
 70
     2
  9
$LUPREC
 70
     2
  9
$SKETCHINC
 40
1.0
  9
$FILLETRAD
 40
10.0
  9
$AUNITS
 70
     0
  9
$AUPREC
 70
     2
  9
$MENU
  1
.
  9
$ELEVATION
 40
0.0
  9
$PELEVATION
 40
0.0
  9
$THICKNESS
 40
0.0
  9
$LIMCHECK
 70
     0
  9
$CHAMFERA
 40
10.0
  9
$CHAMFERB
 40
10.0
  9
$CHAMFERC
 40
20.0
  9
$CHAMFERD
 40
0.0
  9
$SKPOLY
 70
     0
  9
$TDCREATE
 40
2456083.564156343
  9
$TDUCREATE
 40
2456083.480823009
  9
$TDUPDATE
 40
2456083.56415779
  9
$TDUUPDATE
 40
2456083.480824456
  9
$TDINDWG
 40
0.0000000116
  9
$TDUSRTIMER
 40
0.0000000116
  9
$USRTIMER
 70
     1
  9
$ANGBASE
 50
0.0
  9
$ANGDIR
 70
     0
  9
$PDMODE
 70
     0
  9
$PDSIZE
 40
-1.0
  9
$PLINEWID
 40
0.0
  9
$SPLFRAME
 70
     0
  9
$SPLINETYPE
 70
     6
  9
$SPLINESEGS
 70
     8
  9
$HANDSEED
  5
228
  9
$SURFTAB1
 70
     6
  9
$SURFTAB2
 70
     6
  9
$SURFTYPE
 70
     6
  9
$SURFU
 70
     6
  9
$SURFV
 70
     6
  9
$UCSBASE
  2

  9
$UCSNAME
  2

  9
$UCSORG
 10
0.0
 20
0.0
 30
0.0
  9
$UCSXDIR
 10
1.0
 20
0.0
 30
0.0
  9
$UCSYDIR
 10
0.0
 20
1.0
 30
0.0
  9
$UCSORTHOREF
  2

  9
$UCSORTHOVIEW
 70
     0
  9
$UCSORGTOP
 10
0.0
 20
0.0
 30
0.0
  9
$UCSORGBOTTOM
 10
0.0
 20
0.0
 30
0.0
  9
$UCSORGLEFT
 10
0.0
 20
0.0
 30
0.0
  9
$UCSORGRIGHT
 10
0.0
 20
0.0
 30
0.0
  9
$UCSORGFRONT
 10
0.0
 20
0.0
 30
0.0
  9
$UCSORGBACK
 10
0.0
 20
0.0
 30
0.0
  9
$PUCSBASE
  2

  9
$PUCSNAME
  2

  9
$PUCSORG
 10
0.0
 20
0.0
 30
0.0
  9
$PUCSXDIR
 10
1.0
 20
0.0
 30
0.0
  9
$PUCSYDIR
 10
0.0
 20
1.0
 30
0.0
  9
$PUCSORTHOREF
  2

  9
$PUCSORTHOVIEW
 70
     0
  9
$PUCSORGTOP
 10
0.0
 20
0.0
 30
0.0
  9
$PUCSORGBOTTOM
 10
0.0
 20
0.0
 30
0.0
  9
$PUCSORGLEFT
 10
0.0
 20
0.0
 30
0.0
  9
$PUCSORGRIGHT
 10
0.0
 20
0.0
 30
0.0
  9
$PUCSORGFRONT
 10
0.0
 20
0.0
 30
0.0
  9
$PUCSORGBACK
 10
0.0
 20
0.0
 30
0.0
  9
$USERI1
 70
     0
  9
$USERI2
 70
     0
  9
$USERI3
 70
     0
  9
$USERI4
 70
     0
  9
$USERI5
 70
     0
  9
$USERR1
 40
0.0
  9
$USERR2
 40
0.0
  9
$USERR3
 40
0.0
  9
$USERR4
 40
0.0
  9
$USERR5
 40
0.0
  9
$WORLDVIEW
 70
     1
  9
$SHADEDGE
 70
     3
  9
$SHADEDIF
 70
    70
  9
$TILEMODE
 70
     1
  9
$MAXACTVP
 70
    64
  9
$PINSBASE
 10
0.0
 20
0.0
 30
0.0
  9
$PLIMCHECK
 70
     0
  9
$PEXTMIN
 10
1.0000000000E+20
 20
1.0000000000E+20
 30
1.0000000000E+20
  9
$PEXTMAX
 10
-1.0000000000E+20
 20
-1.0000000000E+20
 30
-1.0000000000E+20
  9
$PLIMMIN
 10
0.0
 20
0.0
  9
$PLIMMAX
 10
420.0
 20
297.0
  9
$UNITMODE
 70
     0
  9
$VISRETAIN
 70
     1
  9
$PLINEGEN
 70
     0
  9
$PSLTSCALE
 70
     1
  9
$TREEDEPTH
 70
  3020
  9
$CMLSTYLE
  2
Standard
  9
$CMLJUST
 70
     0
  9
$CMLSCALE
 40
20.0
  9
$PROXYGRAPHICS
 70
     1
  9
$MEASUREMENT
 70
     1
  9
$CELWEIGHT
370
    -1
  9
$ENDCAPS
280
     0
  9
$JOINSTYLE
280
     0
  9
$LWDISPLAY
290
     1
  9
$INSUNITS
 70
     4
  9
$HYPERLINKBASE
  1

  9
$STYLESHEET
  1

  9
$XEDIT
290
     1
  9
$CEPSNTYPE
380
     0
  9
$PSTYLEMODE
290
     1
  9
$FINGERPRINTGUID
  2
{C8E67091-D488-4CCF-8A98-736B4C69E4EB}
  9
$VERSIONGUID
  2
{FAEB1C32-E019-11D5-929B-00C0DF256EC4}
  9
$EXTNAMES
290
     1
  9
$PSVPSCALE
 40
0.0
  9
$OLESTARTUP
290
     0
  0
ENDSEC
  0
SECTION
  2
CLASSES
  0
CLASS
  1
ACDBDICTIONARYWDFLT
  2
AcDbDictionaryWithDefault
  3
ObjectDBX Classes
 90
        0
280
     0
281
     0
  0
CLASS
  1
VISUALSTYLE
  2
AcDbVisualStyle
  3
ObjectDBX Classes
 90
     4095
280
     0
281
     0
  0
CLASS
  1
MATERIAL
  2
AcDbMaterial
  3
ObjectDBX Classes
 90
     1153
280
     0
281
     0
  0
CLASS
  1
ACDBPLACEHOLDER
  2
AcDbPlaceHolder
  3
ObjectDBX Classes
 90
        0
280
     0
281
     0
  0
CLASS
  1
LAYOUT
  2
AcDbLayout
  3
ObjectDBX Classes
 90
        0
280
     0
281
     0
  0
ENDSEC
  0
SECTION
  2
TABLES
  0
TABLE
  2
VPORT
  5
8
330
0
100
AcDbSymbolTable
 70
     1
  0
VPORT
  5
29
330
8
100
AcDbSymbolTableRecord
100
AcDbViewportTableRecord
  2
*Active
 70
     0
 10
0.0
 20
0.0
 11
1.0
 21
1.0
 12
148.5
 22
105.0
 13
0.0
 23
0.0
 14
10.0
 24
10.0
 15
10.0
 25
10.0
 16
0.0
 26
0.0
 36
1.0
 17
0.0
 27
0.0
 37
0.0
 40
210.0
 41
1.4142857143
 42
50.0
 43
0.0
 44
0.0
 50
0.0
 51
0.0
 71
     0
 72
  2000
 73
     1
 74
     3
 75
     0
 76
     0
 77
     0
 78
     0
281
     0
 65
     1
110
0.0
120
0.0
130
0.0
111
1.0
121
0.0
131
0.0
112
0.0
122
1.0
132
0.0
 79
     0
146
0.0
  0
ENDTAB
  0
TABLE
  2
LTYPE
  5
5
330
0
100
AcDbSymbolTable
 70
     6
  0
LTYPE
  5
14
330
5
100
AcDbSymbolTableRecord
100
AcDbLinetypeTableRecord
  2
ByBlock
 70
     0
  3

 72
    65
 73
     0
 40
0.0
  0
LTYPE
  5
15
330
5
100
AcDbSymbolTableRecord
100
AcDbLinetypeTableRecord
  2
ByLayer
 70
     0
  3

 72
    65
 73
     0
 40
0.0
  0
LTYPE
  5
16
330
5
100
AcDbSymbolTableRecord
100
AcDbLinetypeTableRecord
  2
Continuous
 70
     0
  3
Solid line
 72
    65
 73
     0
 40
0.0
  0
LTYPE
  5
3F
330
5
100
AcDbSymbolTableRecord
100
AcDbLinetypeTableRecord
  2
HIDDEN
 70
     0
  3
Hidden __ __ __ __ __ __ __ __ __ __ __ __ __ __
 72
    65
 73
     2
 40
1.905
 49
1.27
 74
     0
 49
-0.635
 74
     0
  0
LTYPE
  5
40
330
5
100
AcDbSymbolTableRecord
100
AcDbLinetypeTableRecord
  2
PHANTOM
 70
     0
  3
Phantom ______  __  __  ______  __  __  ______
 72
    65
 73
     6
 40
12.7
 49
6.35
 74
     0
 49
-1.27
 74
     0
 49
1.27
 74
     0
 49
-1.27
 74
     0
 49
1.27
 74
     0
 49
-1.27
 74
     0
  0
LTYPE
  5
41
330
5
100
AcDbSymbolTableRecord
100
AcDbLinetypeTableRecord
  2
CENTER
 70
     0
  3
Center ____ _ ____ _ ____ _ ____ _ ____ _ ____
 72
    65
 73
     4
 40
10.16
 49
6.35
 74
     0
 49
-1.27
 74
     0
 49
1.27
 74
     0
 49
-1.27
 74
     0
  0
LTYPE
  5
42
330
5
100
AcDbSymbolTableRecord
100
AcDbLinetypeTableRecord
  2
CENTERX2
 70
     0
  3
Center (2x) ________  __  ________  __  _____
 72
    65
 73
     4
 40
20.32
 49
12.7
 74
     0
 49
-2.54
 74
     0
 49
2.54
 74
     0
 49
-2.54
 74
     0
  0
LTYPE
  5
43
330
5
100
AcDbSymbolTableRecord
100
AcDbLinetypeTableRecord
  2
DOT2
 70
     0
  3
Dot (.5x) ........................................
 72
    65
 73
     2
 40
0.635
 49
0.0
 74
     0
 49
-0.635
 74
     0
  0
ENDTAB
  0
TABLE
  2
LAYER
  5
2
330
0
100
AcDbSymbolTable
 70
     5
  0
LAYER
  5
10
330
2
100
AcDbSymbolTableRecord
100
AcDbLayerTableRecord
  2
0
 70
     0
 62
     7
  6
Continuous
370
    -3
390
F
  0
LAYER
  5
44
330
2
100
AcDbSymbolTableRecord
100
AcDbLayerTableRecord
  2
FORMAT
 70
     0
 62
     7
  6
Continuous
370
    -3
390
F
  0
LAYER
  5
45
330
2
100
AcDbSymbolTableRecord
100
AcDbLayerTableRecord
  2
VERMASSUNG
 70
     0
 62
     7
  6
Continuous
370
    -3
390
F
  0
LAYER
  5
46
330
2
100
AcDbSymbolTableRecord
100
AcDbLayerTableRecord
  2
KOPF_DÜNN
 70
     0
 62
     7
  6
Continuous
370
    -3
390
F
  0
LAYER
  5
47
330
2
100
AcDbSymbolTableRecord
100
AcDbLayerTableRecord
  2
KOPF_DICK
 70
     0
 62
     7
  6
Continuous
370
    15
390
F
  0
ENDTAB
  0
TABLE
  2
STYLE
  5
3
330
0
100
AcDbSymbolTable
 70
     2
  0
STYLE
  5
11
330
3
100
AcDbSymbolTableRecord
100
AcDbTextStyleTableRecord
  2
Standard
 70
     0
 40
0.0
 41
1.0
 50
0.0
 71
     0
 42
2.0
  3
txt
  4

  0
STYLE
  5
48
330
3
100
AcDbSymbolTableRecord
100
AcDbTextStyleTableRecord
  2
SLDTEXTSTYLE0
 70
     0
 40
0.0
 41
0.7
 50
0.0
 71
     0
 42
0.2
  3
TXT
  4

  0
ENDTAB
  0
TABLE
  2
VIEW
  5
6
330
0
100
AcDbSymbolTable
 70
     0
  0
ENDTAB
  0
TABLE
  2
UCS
  5
7
330
0
100
AcDbSymbolTable
 70
     0
  0
ENDTAB
  0
TABLE
  2
APPID
  5
9
330
0
100
AcDbSymbolTable
 70
     1
  0
APPID
  5
12
330
9
100
AcDbSymbolTableRecord
100
AcDbRegAppTableRecord
  2
ACAD
 70
     0
  0
ENDTAB
  0
TABLE
  2
DIMSTYLE
  5
A
330
0
100
AcDbSymbolTable
 70
     5
100
AcDbDimStyleTable
  0
DIMSTYLE
105
27
330
A
100
AcDbSymbolTableRecord
100
AcDbDimStyleTableRecord
  2
ISO-25
 70
     0
 41
2.5
 42
0.625
 43
3.75
 44
1.25
 73
     0
 74
     0
 77
     1
 78
     8
140
2.5
141
2.5
143
0.0393700787
147
0.625
171
     3
172
     1
178
     0
271
     2
272
     2
274
     3
278
    44
283
     0
284
     8
340
11
  0
DIMSTYLE
105
1A4
102
{ACAD_REACTORS
330
1A3
330
1AE
330
1B8
330
1CB
330
1D7
102
}
330
A
100
AcDbSymbolTableRecord
100
AcDbDimStyleTableRecord
  2
SLDDIMSTYLE0
 70
     0
 41
3.0
 44
0.0
 45
0.000000001
 73
     0
 74
     0
 77
     1
 78
    12
 79
     3
140
2.0
147
0.5
173
     1
178
     0
271
     2
272
     3
276
     2
284
    12
340
48
  0
DIMSTYLE
105
1C3
102
{ACAD_REACTORS
330
1C2
102
}
330
A
100
AcDbSymbolTableRecord
100
AcDbDimStyleTableRecord
  2
SLDDIMSTYLE1
 70
     0
 41
3.0
 44
0.0
 73
     0
 74
     0
 77
     1
 78
    12
 79
     3
140
2.0
147
0.5
173
     1
178
     0
179
     1
272
     3
276
     2
284
    12
340
48
  0
DIMSTYLE
105
200
102
{ACAD_REACTORS
330
1FF
102
}
330
A
100
AcDbSymbolTableRecord
100
AcDbDimStyleTableRecord
  2
SLDDIMSTYLE2
 70
     0
 41
3.0
 44
0.0
 45
0.000000001
 73
     0
 74
     0
 77
     1
 78
    12
 79
     3
140
2.0
147
0.5
172
     1
173
     1
178
     0
271
     2
272
     3
276
     2
284
    12
289
     0
340
48
  0
DIMSTYLE
105
20F
102
{ACAD_REACTORS
330
20E
102
}
330
A
100
AcDbSymbolTableRecord
100
AcDbDimStyleTableRecord
  2
SLDDIMSTYLE3
 70
     0
 41
3.0
 44
0.0
 73
     0
 74
     0
 77
     1
 78
    12
 79
     3
140
2.0
147
0.5
173
     1
178
     0
179
     2
272
     3
276
     2
284
    12
340
48
  0
ENDTAB
  0
TABLE
  2
BLOCK_RECORD
  5
1
330
0
100
AcDbSymbolTable
 70
    10
  0
BLOCK_RECORD
  5
1F
330
1
100
AcDbSymbolTableRecord
100
AcDbBlockTableRecord
  2
*Model_Space
340
22
  0
BLOCK_RECORD
  5
1B
330
1
100
AcDbSymbolTableRecord
100
AcDbBlockTableRecord
  2
*Paper_Space
340
1E
  0
BLOCK_RECORD
  5
23
330
1
100
AcDbSymbolTableRecord
100
AcDbBlockTableRecord
  2
*Paper_Space0
340
26
  0
BLOCK_RECORD
  5
1A5
330
1
100
AcDbSymbolTableRecord
100
AcDbBlockTableRecord
  2
_D
340
0
  0
BLOCK_RECORD
  5
1AF
330
1
100
AcDbSymbolTableRecord
100
AcDbBlockTableRecord
  2
_D_1
340
0
  0
BLOCK_RECORD
  5
1B9
330
1
100
AcDbSymbolTableRecord
100
AcDbBlockTableRecord
  2
_D_2
340
0
  0
BLOCK_RECORD
  5
1C4
330
1
100
AcDbSymbolTableRecord
100
AcDbBlockTableRecord
  2
_D_3
340
0
  0
BLOCK_RECORD
  5
1CC
330
1
100
AcDbSymbolTableRecord
100
AcDbBlockTableRecord
  2
_D_4
340
0
  0
BLOCK_RECORD
  5
1D8
330
1
100
AcDbSymbolTableRecord
100
AcDbBlockTableRecord
  2
_D_5
340
0
  0
BLOCK_RECORD
  5
201
330
1
100
AcDbSymbolTableRecord
100
AcDbBlockTableRecord
  2
_D_6
340
0
  0
BLOCK_RECORD
  5
210
330
1
100
AcDbSymbolTableRecord
100
AcDbBlockTableRecord
  2
_D_7
340
0
  0
BLOCK_RECORD
  5
21B
330
1
100
AcDbSymbolTableRecord
100
AcDbBlockTableRecord
  2
SW_CENTERMARKSYMBOL_0
340
0
102
{BLKREFS
331
226
102
}
  0
ENDTAB
  0
ENDSEC
  0
SECTION
  2
BLOCKS
  0
BLOCK
  5
20
330
1F
100
AcDbEntity
  8
0
100
AcDbBlockBegin
  2
*Model_Space
 70
     0
 10
0.0
 20
0.0
 30
0.0
  3
*Model_Space
  1

  0
ENDBLK
  5
21
330
1F
100
AcDbEntity
  8
0
100
AcDbBlockEnd
  0
BLOCK
  5
1C
330
1B
100
AcDbEntity
 67
     1
  8
0
100
AcDbBlockBegin
  2
*Paper_Space
 70
     0
 10
0.0
 20
0.0
 30
0.0
  3
*Paper_Space
  1

  0
ENDBLK
  5
1D
330
1B
100
AcDbEntity
 67
     1
  8
0
100
AcDbBlockEnd
  0
BLOCK
  5
24
330
23
100
AcDbEntity
  8
0
100
AcDbBlockBegin
  2
*Paper_Space0
 70
     0
 10
0.0
 20
0.0
 30
0.0
  3
*Paper_Space0
  1

  0
ENDBLK
  5
25
330
23
100
AcDbEntity
  8
0
100
AcDbBlockEnd
  0
BLOCK
  5
1A6
330
1A5
100
AcDbEntity
  8
0
100
AcDbBlockBegin
  2
_D
 70
     0
 10
0.0
 20
0.0
 30
0.0
  3
_D
  1

  0
SOLID
  5
1A8
330
1A5
100
AcDbEntity
  8
VERMASSUNG
100
AcDbTrace
 10
143.929747269
 20
142.5521116514
 30
0.0
 11
146.929747269
 21
142.1021116514
 31
0.0
 12
146.929747269
 22
143.0021116514
 32
0.0
 13
146.929747269
 23
143.0021116514
 33
0.0
  0
SOLID
  5
1A9
330
1A5
100
AcDbEntity
  8
VERMASSUNG
100
AcDbTrace
 10
253.929747269
 20
142.5521116514
 30
0.0
 11
250.929747269
 21
143.0021116514
 31
0.0
 12
250.929747269
 22
142.1021116514
 32
0.0
 13
250.929747269
 23
142.1021116514
 33
0.0
  0
LINE
  5
1AA
330
1A5
100
AcDbEntity
  8
VERMASSUNG
100
AcDbLine
 10
143.929747269
 20
129.2241534526
 30
0.0
 11
143.929747269
 21
143.5521116514
 31
0.0
  0
LINE
  5
1AB
330
1A5
100
AcDbEntity
  8
VERMASSUNG
100
AcDbLine
 10
253.929747269
 20
131.5241534526
 30
0.0
 11
253.929747269
 21
143.5521116514
 31
0.0
  0
LINE
  5
1AC
330
1A5
100
AcDbEntity
  8
VERMASSUNG
100
AcDbLine
 10
143.929747269
 20
142.5521116514
 30
0.0
 11
253.929747269
 21
142.5521116514
 31
0.0
  0
MTEXT
  5
1AD
330
1A5
100
AcDbEntity
  8
VERMASSUNG
100
AcDbMText
 10
196.3297470291
 20
145.1302470146
 30
0.1
 40
2.0
 41
0.0
 71
     1
 72
     1
  1
110
  7
SLDTEXTSTYLE0
 73
     1
 44
1.0
  0
ENDBLK
  5
1A7
330
1A5
100
AcDbEntity
  8
0
100
AcDbBlockEnd
  0
BLOCK
  5
1B0
330
1AF
100
AcDbEntity
  8
0
100
AcDbBlockBegin
  2
_D_1
 70
     0
 10
0.0
 20
0.0
 30
0.0
  3
_D_1
  1

  0
SOLID
  5
1B2
330
1AF
100
AcDbEntity
  8
VERMASSUNG
100
AcDbTrace
 10
253.929747269
 20
148.5521116514
 30
0.0
 11
250.929747269
 21
149.0021116514
 31
0.0
 12
250.929747269
 22
148.1021116514
 32
0.0
 13
250.929747269
 23
148.1021116514
 33
0.0
  0
SOLID
  5
1B3
330
1AF
100
AcDbEntity
  8
VERMASSUNG
100
AcDbTrace
 10
119.929747269
 20
148.5521116514
 30
0.0
 11
122.929747269
 21
148.1021116514
 31
0.0
 12
122.929747269
 22
149.0021116514
 32
0.0
 13
122.929747269
 23
149.0021116514
 33
0.0
  0
LINE
  5
1B4
330
1AF
100
AcDbEntity
  8
VERMASSUNG
100
AcDbLine
 10
253.929747269
 20
131.5241534526
 30
0.0
 11
253.929747269
 21
149.5521116514
 31
0.0
  0
LINE
  5
1B5
330
1AF
100
AcDbEntity
  8
VERMASSUNG
100
AcDbLine
 10
119.929747269
 20
122.1556584346
 30
0.0
 11
119.929747269
 21
149.5521116514
 31
0.0
  0
LINE
  5
1B6
330
1AF
100
AcDbEntity
  8
VERMASSUNG
100
AcDbLine
 10
253.929747269
 20
148.5521116514
 30
0.0
 11
119.929747269
 21
148.5521116514
 31
0.0
  0
MTEXT
  5
1B7
330
1AF
100
AcDbEntity
  8
VERMASSUNG
100
AcDbMText
 10
184.0297470731
 20
151.1302470146
 30
0.1
 40
2.0
 41
0.0
 71
     1
 72
     1
  1
134
  7
SLDTEXTSTYLE0
 73
     1
 44
1.0
  0
ENDBLK
  5
1B1
330
1AF
100
AcDbEntity
  8
0
100
AcDbBlockEnd
  0
BLOCK
  5
1BA
330
1B9
100
AcDbEntity
  8
0
100
AcDbBlockBegin
  2
_D_2
 70
     0
 10
0.0
 20
0.0
 30
0.0
  3
_D_2
  1

  0
SOLID
  5
1BC
330
1B9
100
AcDbEntity
  8
VERMASSUNG
100
AcDbTrace
 10
269.9230622983
 20
131.5241534526
 30
0.0
 11
269.4730622983
 21
128.5241534526
 31
0.0
 12
270.3730622983
 22
128.5241534526
 32
0.0
 13
270.3730622983
 23
128.5241534526
 33
0.0
  0
SOLID
  5
1BD
330
1B9
100
AcDbEntity
  8
VERMASSUNG
100
AcDbTrace
 10
269.9230622983
 20
109.5241534526
 30
0.0
 11
270.3730622983
 21
112.5241534526
 31
0.0
 12
269.4730622983
 22
112.5241534526
 32
0.0
 13
269.4730622983
 23
112.5241534526
 33
0.0
  0
LINE
  5
1BE
330
1B9
100
AcDbEntity
  8
VERMASSUNG
100
AcDbLine
 10
253.929747269
 20
131.5241534526
 30
0.0
 11
270.9230622983
 21
131.5241534526
 31
0.0
  0
LINE
  5
1BF
330
1B9
100
AcDbEntity
  8
VERMASSUNG
100
AcDbLine
 10
253.929747269
 20
109.5241534526
 30
0.0
 11
270.9230622983
 21
109.5241534526
 31
0.0
  0
LINE
  5
1C0
330
1B9
100
AcDbEntity
  8
VERMASSUNG
100
AcDbLine
 10
269.9230622983
 20
131.5241534526
 30
0.0
 11
269.9230622983
 21
109.5241534526
 31
0.0
  0
MTEXT
  5
1C1
330
1B9
100
AcDbEntity
  8
VERMASSUNG
100
AcDbMText
 10
267.3449269352
 20
118.2241534016
 30
0.1
 40
2.0
 41
0.0
 71
     1
 72
     1
  1
22
  7
SLDTEXTSTYLE0
 11
-7.044195017643634E-15
 21
1.0
 31
0.0
 73
     1
 44
1.0
  0
ENDBLK
  5
1BB
330
1B9
100
AcDbEntity
  8
0
100
AcDbBlockEnd
  0
BLOCK
  5
1C5
330
1C4
100
AcDbEntity
  8
0
100
AcDbBlockBegin
  2
_D_3
 70
     0
 10
0.0
 20
0.0
 30
0.0
  3
_D_3
  1

  0
ARC
  5
1C7
330
1C4
100
AcDbEntity
  8
VERMASSUNG
100
AcDbCircle
 10
253.9662706695
 20
131.5241534526
 30
0.0
 40
10.13406748434699
100
AcDbArc
 50
264.9878526278
 51
0.0
  0
SOLID
  5
1C8
330
1C4
100
AcDbEntity
  8
VERMASSUNG
100
AcDbTrace
 10
253.0808881462
 20
121.4288366391
 30
0.0
 11
256.1014921884
 21
121.1487451885
 31
0.0
 12
256.0507344899
 22
122.0473127464
 32
0.0
 13
256.0507344899
 23
122.0473127464
 33
0.0
  0
SOLID
  5
1C9
330
1C4
100
AcDbEntity
  8
VERMASSUNG
100
AcDbTrace
 10
264.1003381538
 20
131.5241534526
 30
0.0
 11
263.2247605728
 21
128.6196975828
 31
0.0
 12
264.1154576408
 22
128.4906288687
 32
0.0
 13
264.1154576408
 23
128.4906288687
 33
0.0
  0
MTEXT
  5
1CA
330
1C4
100
AcDbEntity
  8
VERMASSUNG
100
AcDbMText
 10
256.9320817551
 20
123.9938097711
 30
0.1
 40
2.0
 41
0.0
 71
     1
 72
     1
  1
95°
  7
SLDTEXTSTYLE0
 11
0.737348949161506
 21
0.6755120481312105
 31
0.0
 73
     1
 44
1.0
  0
ENDBLK
  5
1C6
330
1C4
100
AcDbEntity
  8
0
100
AcDbBlockEnd
  0
BLOCK
  5
1CD
330
1CC
100
AcDbEntity
  8
0
100
AcDbBlockBegin
  2
_D_4
 70
     0
 10
0.0
 20
0.0
 30
0.0
  3
_D_4
  1

  0
SOLID
  5
1CF
330
1CC
100
AcDbEntity
  8
VERMASSUNG
100
AcDbTrace
 10
109.929747269
 20
129.5241534526
 30
0.0
 11
109.479747269
 21
126.5241534526
 31
0.0
 12
110.379747269
 22
126.5241534526
 32
0.0
 13
110.379747269
 23
126.5241534526
 33
0.0
  0
SOLID
  5
1D0
330
1CC
100
AcDbEntity
  8
VERMASSUNG
100
AcDbTrace
 10
109.929747269
 20
89.5241534526
 30
0.0
 11
110.379747269
 21
92.5241534526
 31
0.0
 12
109.479747269
 22
92.5241534526
 32
0.0
 13
109.479747269
 23
92.5241534526
 33
0.0
  0
LINE
  5
1D1
330
1CC
100
AcDbEntity
  8
VERMASSUNG
100
AcDbLine
 10
144.229747269
 20
129.5241534526
 30
0.0
 11
108.929747269
 21
129.5241534526
 31
0.0
  0
LINE
  5
1D2
330
1CC
100
AcDbEntity
  8
VERMASSUNG
100
AcDbLine
 10
144.229747269
 20
89.5241534526
 30
0.0
 11
108.929747269
 21
89.5241534526
 31
0.0
  0
LINE
  5
1D3
330
1CC
100
AcDbEntity
  8
VERMASSUNG
100
AcDbLine
 10
109.929747269
 20
129.5241534526
 30
0.0
 11
109.929747269
 21
89.5241534526
 31
0.0
  0
MTEXT
  5
1D4
330
1CC
100
AcDbEntity
  8
VERMASSUNG
100
AcDbMText
 10
107.15161178
 20
103.0191535132
 30
0.1
 40
2.0
 41
0.0
 71
     1
 72
     1
  1
PSC
  7
SLDTEXTSTYLE0
 11
-7.044195017643634E-15
 21
1.0
 31
0.0
 73
     1
 44
1.0
  0
MTEXT
  5
1D5
330
1CC
100
AcDbEntity
  8
VERMASSUNG
100
AcDbMText
 10
107.3516117895
 20
107.6191536153
 30
0.1
 40
2.0
 41
0.0
 71
     1
 72
     1
  1
%%c
  7
SLDTEXTSTYLE0
 11
-7.044195017643634E-15
 21
1.0
 31
0.0
 73
     1
 44
1.0
  0
MTEXT
  5
1D6
330
1CC
100
AcDbEntity
  8
VERMASSUNG
100
AcDbMText
 10
107.15161178
 20
111.2291540953
 30
0.1
 40
2.0
 41
0.0
 71
     1
 72
     1
  1
40
  7
SLDTEXTSTYLE0
 11
-7.044195017643634E-15
 21
1.0
 31
0.0
 73
     1
 44
1.0
  0
ENDBLK
  5
1CE
330
1CC
100
AcDbEntity
  8
0
100
AcDbBlockEnd
  0
BLOCK
  5
1D9
330
1D8
100
AcDbEntity
  8
0
100
AcDbBlockBegin
  2
_D_5
 70
     0
 10
0.0
 20
0.0
 30
0.0
  3
_D_5
  1

  0
SOLID
  5
1DB
330
1D8
100
AcDbEntity
  8
VERMASSUNG
100
AcDbTrace
 10
186.929747269
 20
125.5241534526
 30
0.0
 11
186.479747269
 21
122.5241534526
 31
0.0
 12
187.379747269
 22
122.5241534526
 32
0.0
 13
187.379747269
 23
122.5241534526
 33
0.0
  0
SOLID
  5
1DC
330
1D8
100
AcDbEntity
  8
VERMASSUNG
100
AcDbTrace
 10
186.929747269
 20
93.5241534526
 30
0.0
 11
187.379747269
 21
96.5241534526
 31
0.0
 12
186.479747269
 22
96.5241534526
 32
0.0
 13
186.479747269
 23
96.5241534526
 33
0.0
  0
LINE
  5
1DD
330
1D8
100
AcDbEntity
  8
VERMASSUNG
100
AcDbLine
 10
186.929747269
 20
125.5241534526
 30
0.0
 11
186.929747269
 21
93.5241534526
 31
0.0
  0
MTEXT
  5
1DE
330
1D8
100
AcDbEntity
  8
VERMASSUNG
100
AcDbMText
 10
184.3516117895
 20
96.2999286784
 30
0.1
 40
2.0
 41
0.0
 71
     1
 72
     1
  1
%%c
  7
SLDTEXTSTYLE0
 11
-7.044195017643634E-15
 21
1.0
 31
0.0
 73
     1
 44
1.0
  0
MTEXT
  5
1DF
330
1D8
100
AcDbEntity
  8
VERMASSUNG
100
AcDbMText
 10
184.15161178
 20
99.9099286927
 30
0.1
 40
2.0
 41
0.0
 71
     1
 72
     1
  1
32
  7
SLDTEXTSTYLE0
 11
-7.044195017643634E-15
 21
1.0
 31
0.0
 73
     1
 44
1.0
  0
ENDBLK
  5
1DA
330
1D8
100
AcDbEntity
  8
0
100
AcDbBlockEnd
  0
BLOCK
  5
202
330
201
100
AcDbEntity
  8
0
100
AcDbBlockBegin
  2
_D_6
 70
     0
 10
0.0
 20
0.0
 30
0.0
  3
_D_6
  1

  0
SOLID
  5
204
330
201
100
AcDbEntity
  8
VERMASSUNG
100
AcDbTrace
 10
75.8362841599
 20
97.3748144937
 30
0.0
 11
77.6394064519
 21
94.9352960986
 31
0.0
 12
78.275802555
 22
95.5716922017
 32
0.0
 13
78.275802555
 23
95.5716922017
 33
0.0
  0
SOLID
  5
205
330
201
100
AcDbEntity
  8
VERMASSUNG
100
AcDbTrace
 10
47.5520129124
 20
125.6590857412
 30
0.0
 11
45.7488906204
 21
128.0986041362
 31
0.0
 12
45.1124945173
 22
127.4622080332
 32
0.0
 13
45.1124945173
 23
127.4622080332
 33
0.0
  0
LINE
  5
206
330
201
100
AcDbEntity
  8
VERMASSUNG
100
AcDbLine
 10
75.8362841599
 20
97.3748144937
 30
0.0
 11
76.5433909411
 21
98.0819212749
 31
0.0
  0
LINE
  5
207
330
201
100
AcDbEntity
  8
VERMASSUNG
100
AcDbLine
 10
47.5520129124
 20
125.6590857412
 30
0.0
 11
46.8449061312
 21
124.95197896
 31
0.0
  0
LINE
  5
208
330
201
100
AcDbEntity
  8
VERMASSUNG
100
AcDbLine
 10
75.8362841599
 20
97.3748144937
 30
0.0
 11
80.078924847
 21
93.1321738066
 31
0.0
  0
LINE
  5
209
330
201
100
AcDbEntity
  8
VERMASSUNG
100
AcDbLine
 10
75.8362841599
 20
97.3748144937
 30
0.0
 11
47.5520129124
 21
125.6590857412
 31
0.0
  0
LINE
  5
20A
330
201
100
AcDbEntity
  8
VERMASSUNG
100
AcDbLine
 10
47.5520129124
 20
125.6590857412
 30
0.0
 11
34.6131700483
 21
138.5979286053
 31
0.0
  0
MTEXT
  5
20B
330
201
100
AcDbEntity
  8
VERMASSUNG
100
AcDbMText
 10
36.4361871287
 20
140.4209456857
 30
0.1
 40
2.0
 41
0.0
 71
     1
 72
     1
  1
%%c
  7
SLDTEXTSTYLE0
 11
0.7071067811865466
 21
-0.7071067811865485
 31
0.0
 73
     1
 44
1.0
  0
MTEXT
  5
20C
330
201
100
AcDbEntity
  8
VERMASSUNG
100
AcDbMText
 10
39.1302639819
 20
138.0097115584
 30
0.1
 40
2.0
 41
0.0
 71
     1
 72
     1
  1
40
  7
SLDTEXTSTYLE0
 11
0.7071067811865466
 21
-0.7071067811865485
 31
0.0
 73
     1
 44
1.0
  0
MTEXT
  5
20D
330
201
100
AcDbEntity
  8
VERMASSUNG
100
AcDbMText
 10
43.3640659954
 20
133.7759095448
 30
0.1
 40
2.0
 41
0.0
 71
     1
 72
     1
  1
min.
  7
SLDTEXTSTYLE0
 11
0.7071067811865466
 21
-0.7071067811865485
 31
0.0
 73
     1
 44
1.0
  0
ENDBLK
  5
203
330
201
100
AcDbEntity
  8
0
100
AcDbBlockEnd
  0
BLOCK
  5
211
330
210
100
AcDbEntity
  8
0
100
AcDbBlockBegin
  2
_D_7
 70
     0
 10
0.0
 20
0.0
 30
0.0
  3
_D_7
  1

  0
ARC
  5
213
330
210
100
AcDbEntity
  8
VERMASSUNG
100
AcDbCircle
 10
61.6941485362
 20
127.2234773447
 30
0.0
 40
46.40003833799212
100
AcDbArc
 50
266.0
 51
270.0
  0
ARC
  5
214
330
210
100
AcDbEntity
  8
VERMASSUNG
100
AcDbCircle
 10
61.6941485362
 20
127.2234773447
 30
0.0
 40
46.40003833799213
100
AcDbArc
 50
254.4477989574
 51
266.0
  0
ARC
  5
215
330
210
100
AcDbEntity
  8
VERMASSUNG
100
AcDbCircle
 10
61.6941485362
 20
127.2234773447
 30
0.0
 40
46.40003833799211
100
AcDbArc
 50
270.0
 51
277.3947725987
  0
SOLID
  5
216
330
210
100
AcDbEntity
  8
VERMASSUNG
100
AcDbTrace
 10
58.4574454801
 20
80.9364671681
 30
0.0
 11
55.5189305657
 21
81.6898794706
 31
0.0
 12
55.4272038961
 22
80.7945659958
 32
0.0
 13
55.4272038961
 23
80.7945659958
 33
0.0
  0
SOLID
  5
217
330
210
100
AcDbEntity
  8
VERMASSUNG
100
AcDbTrace
 10
61.6941485362
 20
80.8234390067
 30
0.0
 11
64.7071100785
 21
80.4705045311
 31
0.0
 12
64.6780607615
 22
81.3700355963
 32
0.0
 13
64.6780607615
 23
81.3700355963
 33
0.0
  0
LINE
  5
218
330
210
100
AcDbEntity
  8
VERMASSUNG
100
AcDbLine
 10
59.3147585504
 20
93.1966152641
 30
0.0
 11
58.3876890064
 21
79.9389031178
 31
0.0
  0
LINE
  5
219
330
210
100
AcDbEntity
  8
VERMASSUNG
100
AcDbLine
 10
61.6941485362
 20
87.0241534526
 30
0.0
 11
61.6941485362
 21
79.8234390067
 31
0.0
  0
MTEXT
  5
21A
330
210
100
AcDbEntity
  8
VERMASSUNG
100
AcDbMText
 10
49.8056985732
 20
84.9823369949
 30
-42.8966575146
 40
2.0
 41
0.0
 71
     1
 72
     1
  1
4°
  7
SLDTEXTSTYLE0
 11
0.9754791311048628
 21
-0.220091946192726
 31
0.0
 73
     1
 44
1.0
  0
ENDBLK
  5
212
330
210
100
AcDbEntity
  8
0
100
AcDbBlockEnd
  0
BLOCK
  5
21C
330
21B
100
AcDbEntity
  8
0
100
AcDbBlockBegin
  2
SW_CENTERMARKSYMBOL_0
 70
     0
 10
0.0
 20
0.0
 30
0.0
  3
SW_CENTERMARKSYMBOL_0
  1

  0
LINE
  5
21E
330
21B
100
AcDbEntity
  8
VERMASSUNG
 62
     0
100
AcDbLine
 10
0.0
 20
0.0
 30
0.0
 11
0.0
 21
2.5
 31
0.0
  0
LINE
  5
21F
330
21B
100
AcDbEntity
  8
VERMASSUNG
 62
     0
100
AcDbLine
 10
0.0
 20
0.0
 30
0.0
 11
-2.5
 21
0.0
 31
0.0
  0
LINE
  5
220
330
21B
100
AcDbEntity
  8
VERMASSUNG
 62
     0
100
AcDbLine
 10
0.0
 20
0.0
 30
0.0
 11
0.0
 21
-2.5
 31
0.0
  0
LINE
  5
221
330
21B
100
AcDbEntity
  8
VERMASSUNG
 62
     0
100
AcDbLine
 10
0.0
 20
0.0
 30
0.0
 11
2.5
 21
0.0
 31
0.0
  0
LINE
  5
222
330
21B
100
AcDbEntity
  8
VERMASSUNG
 62
     0
100
AcDbLine
 10
0.0
 20
5.0
 30
0.0
 11
0.0
 21
22.5
 31
0.0
  0
LINE
  5
223
330
21B
100
AcDbEntity
  8
VERMASSUNG
 62
     0
100
AcDbLine
 10
-5.0
 20
0.0
 30
0.0
 11
-22.5
 21
0.0
 31
0.0
  0
LINE
  5
224
330
21B
100
AcDbEntity
  8
VERMASSUNG
 62
     0
100
AcDbLine
 10
0.0
 20
-5.0
 30
0.0
 11
0.0
 21
-22.5
 31
0.0
  0
LINE
  5
225
330
21B
100
AcDbEntity
  8
VERMASSUNG
 62
     0
100
AcDbLine
 10
5.0
 20
0.0
 30
0.0
 11
22.5
 21
0.0
 31
0.0
  0
ENDBLK
  5
21D
330
21B
100
AcDbEntity
  8
0
100
AcDbBlockEnd
  0
ENDSEC
  0
SECTION
  2
ENTITIES
  0
MTEXT
  5
49
330
1F
100
AcDbEntity
  8
KOPF_DÜNN
100
AcDbMText
 10
13.8892156294
 20
23.8442973028
 30
0.0
 40
3.0
 41
0.0
 71
     1
 72
     1
  1
PS4.BCC.RLB.110
  7
SLDTEXTSTYLE0
 73
     1
 44
1.0
  0
MTEXT
  5
4A
330
1F
100
AcDbEntity
  8
VERMASSUNG
100
AcDbMText
 10
13.9329988022
 20
28.8834360957
 30
0.0
 40
3.0
 41
0.0
 71
     1
 72
     1
  1
Bohrstange_Boring bar
  7
SLDTEXTSTYLE0
 73
     1
 44
1.0
  0
MTEXT
  5
4B
330
1F
100
AcDbEntity
  8
VERMASSUNG
100
AcDbMText
 10
98.8601118557
 20
13.8365368179
 30
0.0
 40
2.0
 41
0.0
 71
     1
 72
     1
  1
Datum: 01.06.2012
  7
SLDTEXTSTYLE0
 73
     1
 44
1.0
  0
MTEXT
  5
4C
330
1F
100
AcDbEntity
  8
VERMASSUNG
100
AcDbMText
 10
13.933048693
 20
18.0482802738
 30
0.0
 40
2.0
 41
0.0
 71
     1
 72
     1
  1
PSC ø40 / Wp.: CC..12 04..
  7
SLDTEXTSTYLE0
 73
     1
 44
1.0
  0
MTEXT
  5
4D
330
1F
100
AcDbEntity
  8
VERMASSUNG
100
AcDbMText
 10
13.9808475933
 20
13.9090973692
 30
0.0
 40
2.0
 41
0.0
 71
     1
 72
     1
  1
Gewicht: 693g
  7
SLDTEXTSTYLE0
 73
     1
 44
1.0
  0
ARC
  5
4E
330
1F
100
AcDbEntity
  8
0
  6
Continuous
 62
     7
370
    15
100
AcDbCircle
 10
163.329747269
 20
90.1241534526
 30
0.0
 40
0.6000000000000227
100
AcDbArc
 50
270.0
 51
0.0
  0
ARC
  5
4F
330
1F
100
AcDbEntity
  8
0
  6
Continuous
 62
     7
370
    15
100
AcDbCircle
 10
163.329747269
 20
128.9241534526
 30
0.0
 40
0.6000000000000227
100
AcDbArc
 50
0.0
 51
90.0
  0
ARC
  5
50
330
1F
100
AcDbEntity
  8
0
  6
Continuous
 62
     7
370
    15
100
AcDbCircle
 10
144.229747269
 20
89.8241534526
 30
0.0
 40
0.3000000000000114
100
AcDbArc
 50
180.0
 51
270.0
  0
ARC
  5
51
330
1F
100
AcDbEntity
  8
0
  6
Continuous
 62
     7
370
    15
100
AcDbCircle
 10
144.229747269
 20
129.2241534526
 30
0.0
 40
0.3000000000000114
100
AcDbArc
 50
90.0
 51
180.0
  0
LINE
  5
52
330
1F
100
AcDbEntity
  8
0
  6
Continuous
 62
     7
370
    15
100
AcDbLine
 10
144.2297472833
 20
89.5241538996
 30
0.0
 11
163.3297478412
 21
89.5241538996
 31
0.0
  0
LINE
  5
53
330
1F
100
AcDbEntity
  8
0
  6
Continuous
 62
     7
370
    15
100
AcDbLine
 10
163.3297478412
 20
129.5241530056
 30
0.0
 11
144.2297472833
 21
129.5241530056
 31
0.0
  0
ARC
  5
54
330
1F
100
AcDbEntity
  8
0
  6
Continuous
 62
     7
370
    15
100
AcDbCircle
 10
165.929747269
 20
91.5241534526
 30
0.0
 40
2.0
100
AcDbArc
 50
90.0
 51
180.0
  0
ARC
  5
55
330
1F
100
AcDbEntity
  8
0
  6
Continuous
 62
     7
370
    15
100
AcDbCircle
 10
165.929747269
 20
127.5241534526
 30
0.0
 40
2.0
100
AcDbArc
 50
180.0
 51
270.0
  0
LINE
  5
56
330
1F
100
AcDbEntity
  8
0
  6
Continuous
 62
     7
370
    15
100
AcDbLine
 10
227.5155311083
 20
125.5241542125
 30
0.0
 11
165.9297471498
 21
125.5241542125
 31
0.0
  0
LINE
  5
57
330
1F
100
AcDbEntity
  8
0
  6
Continuous
 62
     7
370
    15
100
AcDbLine
 10
165.9297471498
 20
93.5241526926
 30
0.0
 11
227.5155311083
 21
93.5241526926
 31
0.0
  0
LWPOLYLINE
  5
58
330
1F
100
AcDbEntity
  8
0
  6
Continuous
 62
     7
370
    15
100
AcDbPolyline
 90
        3
 70
   128
 43
0.0
 10
143.7297472741
 20
95.4343334774
 10
143.8552022093
 20
95.3660312111
 10
143.929747269
 20
95.3132932077
  0
LWPOLYLINE
  5
59
330
1F
100
AcDbEntity
  8
0
  6
Continuous
 62
     7
370
    15
100
AcDbPolyline
 90
        3
 70
   128
 43
0.0
 10
143.929747269
 20
123.7350136975
 10
143.8552022093
 20
123.6822756941
 10
143.7297472741
 20
123.6139734278
  0
ARC
  5
5A
330
1F
100
AcDbEntity
  8
0
  6
Continuous
 62
     7
370
    15
100
AcDbCircle
 10
227.5155337067
 20
92.5241534526
 30
0.0
 40
0.9999999999999858
100
AcDbArc
 50
45.0
 51
90.0
  0
LINE
  5
5B
330
1F
100
AcDbEntity
  8
0
  6
Continuous
 62
     7
370
    15
100
AcDbLine
 10
228.4297471498
 20
93.024153542
 30
0.0
 11
236.4827444409
 21
93.024153542
 31
0.0
  0
LINE
  5
5C
330
1F
100
AcDbEntity
  8
0
  6
Continuous
 62
     7
370
    15
100
AcDbLine
 10
228.5813217615
 20
126.1757298375
 30
0.0
 11
228.222643361
 21
125.817045849
 31
0.0
  0
LINE
  5
5D
330
1F
100
AcDbEntity
  8
0
  6
Continuous
 62
     7
370
    15
100
AcDbLine
 10
228.222643361
 20
93.2312610561
 30
0.0
 11
228.4297471498
 21
93.024153542
 31
0.0
  0
LINE
  5
5E
330
1F
100
AcDbEntity
  8
0
  6
Continuous
 62
     7
370
    15
100
AcDbLine
 10
245.5667828773
 20
124.4189043532
 30
0.0
 11
245.5667828773
 21
124.5305131192
 31
0.0
  0
LINE
  5
5F
330
1F
100
AcDbEntity
  8
0
  6
Continuous
 62
     7
370
    15
100
AcDbLine
 10
248.4050368522
 20
124.641965423
 30
0.0
 11
248.4050368522
 21
124.5303212667
 31
0.0
  0
LINE
  5
60
330
1F
100
AcDbEntity
  8
0
  6
Continuous
 62
     7
370
    15
100
AcDbLine
 10
243.4843754028
 20
124.5608192871
 30
0.0
 11
243.4843754028
 21
124.5468680749
 31
0.0
  0
LINE
  5
61
330
1F
100
AcDbEntity
  8
0
  6
Continuous
 62
     7
370
    15
100
AcDbLine
 10
250.4843746875
 20
124.5468680749
 30
0.0
 11
250.4843746875
 21
124.5608192871
 31
0.0
  0
LINE
  5
62
330
1F
100
AcDbEntity
  8
0
  6
Continuous
 62
     7
370
    15
100
AcDbLine
 10
163.929746822
 20
90.1241528804
 30
0.0
 11
163.929746822
 21
128.9241540248
 31
0.0
  0
LINE
  5
63
330
1F
100
AcDbEntity
  8
0
  6
Continuous
 62
     7
370
    15
100
AcDbLine
 10
143.929747269
 20
89.82415339
 30
0.0
 11
143.929747269
 21
129.2241535152
 31
0.0
  0
SPLINE
  5
64
330
1F
100
AcDbEntity
  8
0
  6
Continuous
 62
     7
370
    15
100
AcDbSpline
210
0.0
220
0.0
230
1.0
 70
     8
 71
     3
 72
    12
 73
     8
 74
     0
 42
0.00000001
 43
0.00000001
 12
1.0
 22
0.0
 32
0.0
 13
1.0
 23
0.0
 33
0.0
 40
0.0
 40
0.0
 40
0.0
 40
0.0
 40
0.2499999999999995
 40
0.2499999999999995
 40
0.499999999999999
 40
0.499999999999999
 40
1.0
 40
1.0
 40
1.0
 40
1.0
 10
150.8616492710239
 20
115.3533664482387
 30
0.0
 10
150.8241373849793
 20
115.3533664482387
 30
0.0
 10
150.7888500372745
 20
115.3681712625255
 30
0.0
 10
150.7299201890361
 20
115.4117631356513
 30
0.0
 10
150.706394462567
 20
115.4392765617373
 30
0.0
 10
150.646135674799
 20
115.5284082938509
 30
0.0
 10
150.6205409125096
 20
115.5947941444687
 30
0.0
 10
150.6018416498886
 20
115.6623985796461
 30
0.0
  0
LINE
  5
65
330
1F
100
AcDbEntity
  8
0
  6
Continuous
 62
     7
370
    15
100
AcDbLine
 10
152.9978451883
 20
115.3533666397
 30
0.0
 11
150.8616491784
 21
115.3533666397
 31
0.0
  0
SPLINE
  5
66
330
1F
100
AcDbEntity
  8
0
  6
Continuous
 62
     7
370
    15
100
AcDbSpline
210
0.0
220
0.0
230
1.0
 70
     8
 71
     3
 72
    12
 73
     8
 74
     0
 42
0.00000001
 43
0.00000001
 12
1.0
 22
0.0
 32
0.0
 13
1.0
 23
0.0
 33
0.0
 40
0.0
 40
0.0
 40
0.0
 40
0.0
 40
0.5000000000000021
 40
0.5000000000000021
 40
0.750000000000001
 40
0.750000000000001
 40
1.0
 40
1.0
 40
1.0
 40
1.0
 10
153.2576528881608
 20
115.6623985796461
 30
0.0
 10
153.2389596550304
 20
115.5948159432057
 30
0.0
 10
153.2133043576186
 20
115.5283333737283
 30
0.0
 10
153.1531437349322
 20
115.4393382908307
 30
0.0
 10
153.1290714231778
 20
115.4113363938316
 30
0.0
 10
153.0706899028273
 20
115.3682599931664
 30
0.0
 10
153.0352210751742
 20
115.3533664482387
 30
0.0
 10
152.9978452670255
 20
115.3533664482387
 30
0.0
  0
ELLIPSE
  5
67
330
1F
100
AcDbEntity
  8
0
  6
Continuous
 62
     7
370
    15
100
AcDbEllipse
 10
142.9808180966
 20
109.5241534526
 30
0.0
 11
9.367417879781726
 21
19.74174915274994
 31
0.0
210
0.0
220
0.0
230
1.0
 40
0.3419987131
 41
5.185211263708394
 42
6.132113578252555
  0
SPLINE
  5
68
330
1F
100
AcDbEntity
  8
0
  6
Continuous
 62
     7
370
    15
100
AcDbSpline
210
0.0
220
0.0
230
1.0
 70
     8
 71
     3
 72
    12
 73
     8
 74
     0
 42
0.00000001
 43
0.00000001
 12
1.0
 22
0.0
 32
0.0
 13
1.0
 23
0.0
 33
0.0
 40
0.0
 40
0.0
 40
0.0
 40
0.0
 40
0.2500000000000031
 40
0.2500000000000031
 40
0.5000000000000061
 40
0.5000000000000061
 40
1.0
 40
1.0
 40
1.0
 40
1.0
 10
152.9978452670255
 20
128.6558098328205
 30
0.0
 10
153.0353571530702
 20
128.6558098328205
 30
0.0
 10
153.0706445007749
 20
128.6513062885579
 30
0.0
 10
153.1295743490133
 20
128.6379330891046
 30
0.0
 10
153.1531000754824
 20
128.6294481865335
 30
0.0
 10
153.2133588632505
 20
128.6017003826989
 30
0.0
 10
153.2389536255398
 20
128.5807105189586
 30
0.0
 10
153.2576528881608
 20
128.558909735769
 30
0.0
  0
LINE
  5
69
330
1F
100
AcDbEntity
  8
0
  6
Continuous
 62
     7
370
    15
100
AcDbLine
 10
150.8616491784
 20
128.6558101887
 30
0.0
 11
152.9978451883
 21
128.6558101887
 31
0.0
  0
SPLINE
  5
6A
330
1F
100
AcDbEntity
  8
0
  6
Continuous
 62
     7
370
    15
100
AcDbSpline
210
0.0
220
0.0
230
1.0
 70
     8
 71
     3
 72
    12
 73
     8
 74
     0
 42
0.00000001
 43
0.00000001
 12
1.0
 22
0.0
 32
0.0
 13
1.0
 23
0.0
 33
0.0
 40
0.0
 40
0.0
 40
0.0
 40
0.0
 40
0.5000000000000013
 40
0.5000000000000013
 40
0.7500000000000007
 40
0.7500000000000007
 40
1.0
 40
1.0
 40
1.0
 40
1.0
 10
150.6018416498885
 20
128.558909735769
 30
0.0
 10
150.620534883019
 20
128.580703489397
 30
0.0
 10
150.6461901804308
 20
128.6017236511066
 30
0.0
 10
150.7063508031172
 20
128.6294289970703
 30
0.0
 10
150.7304231148716
 20
128.6380642132637
 30
0.0
 10
150.7888046352221
 20
128.6512788584903
 30
0.0
 10
150.8242734628752
 20
128.6558098328205
 30
0.0
 10
150.8616492710239
 20
128.6558098328205
 30
0.0
  0
ELLIPSE
  5
6B
330
1F
100
AcDbEntity
  8
0
  6
Continuous
 62
     7
370
    15
100
AcDbEllipse
 10
160.8786764415
 20
109.5241534526
 30
0.0
 11
-9.367417879781556
 21
19.74174915274993
 31
0.0
210
0.0
220
0.0
230
1.0
 40
0.3419987131
 41
0.1510717289270763
 42
1.097974043471209
  0
SPLINE
  5
6C
330
1F
100
AcDbEntity
  8
0
  6
Continuous
 62
     7
370
    15
100
AcDbSpline
210
0.0
220
0.0
230
1.0
 70
     8
 71
     3
 72
    12
 73
     8
 74
     0
 42
0.00000001
 43
0.00000001
 12
1.0
 22
0.0
 32
0.0
 13
1.0
 23
0.0
 33
0.0
 40
0.0
 40
0.0
 40
0.0
 40
0.0
 40
0.2500000000000008
 40
0.2500000000000008
 40
0.5000000000000016
 40
0.5000000000000016
 40
1.0
 40
1.0
 40
1.0
 40
1.0
 10
150.8616492710239
 20
90.39249707235373
 30
0.0
 10
150.8241484481461
 20
90.39249707235373
 30
0.0
 10
150.7888700441101
 20
90.3969980402169
 30
0.0
 10
150.7299523240578
 20
90.41036456143422
 30
0.0
 10
150.7064289426594
 20
90.41884582167906
 30
0.0
 10
150.6461733581935
 20
90.44658321735697
 30
0.0
 10
150.6206517057823
 20
90.46746721641003
 30
0.0
 10
150.6018416498885
 20
90.48939716940518
 30
0.0
  0
LINE
  5
6D
330
1F
100
AcDbEntity
  8
0
  6
Continuous
 62
     7
370
    15
100
AcDbLine
 10
152.9978451883
 20
90.3924967165
 30
0.0
 11
150.8616491784
 21
90.3924967165
 31
0.0
  0
SPLINE
  5
6E
330
1F
100
AcDbEntity
  8
0
  6
Continuous
 62
     7
370
    15
100
AcDbSpline
210
0.0
220
0.0
230
1.0
 70
     8
 71
     3
 72
    12
 73
     8
 74
     0
 42
0.00000001
 43
0.00000001
 12
1.0
 22
0.0
 32
0.0
 13
1.0
 23
0.0
 33
0.0
 40
0.0
 40
0.0
 40
0.0
 40
0.0
 40
0.4999999999999991
 40
0.4999999999999991
 40
0.7499999999999996
 40
0.7499999999999996
 40
1.0
 40
1.0
 40
1.0
 40
1.0
 10
153.2576528881608
 20
90.48939716940518
 30
0.0
 10
153.2388496553091
 20
90.46747517114412
 30
0.0
 10
153.2133129962899
 20
90.44658136313419
 30
0.0
 10
153.1530868223415
 20
90.41885463701642
 30
0.0
 10
153.1291607449415
 20
90.41028150364097
 30
0.0
 10
153.0710998247602
 20
90.39710239783341
 30
0.0
 10
153.0352981261343
 20
90.39249707235372
 30
0.0
 10
152.9978452670255
 20
90.39249707235373
 30
0.0
  0
ELLIPSE
  5
6F
330
1F
100
AcDbEntity
  8
0
  6
Continuous
 62
     7
370
    15
100
AcDbEllipse
 10
142.9808180966
 20
109.5241534526
 30
0.0
 11
-9.367417879781783
 21
19.74174915274993
 31
0.0
210
0.0
220
0.0
230
1.0
 40
0.3419987131
 41
3.292664382516894
 42
4.239566697060999
  0
SPLINE
  5
70
330
1F
100
AcDbEntity
  8
0
  6
Continuous
 62
     7
370
    15
100
AcDbSpline
210
0.0
220
0.0
230
1.0
 70
     8
 71
     3
 72
    12
 73
     8
 74
     0
 42
0.00000001
 43
0.00000001
 12
1.0
 22
0.0
 32
0.0
 13
1.0
 23
0.0
 33
0.0
 40
0.0
 40
0.0
 40
0.0
 40
0.0
 40
0.2499999999999986
 40
0.2499999999999986
 40
0.4999999999999971
 40
0.4999999999999971
 40
1.0
 40
1.0
 40
1.0
 40
1.0
 10
152.9978452670255
 20
103.6949404569354
 30
0.0
 10
153.0353460899033
 20
103.6949404569354
 30
0.0
 10
153.0706244939392
 20
103.6801441191823
 30
0.0
 10
153.1295422139916
 20
103.6365738580232
 30
0.0
 10
153.15306559539
 20
103.6090720595217
 30
0.0
 10
153.2133211798559
 20
103.5199728962786
 30
0.0
 10
153.238842832267
 20
103.4539133174962
 30
0.0
 10
153.2576528881608
 20
103.385908325528
 30
0.0
  0
LINE
  5
71
330
1F
100
AcDbEntity
  8
0
  6
Continuous
 62
     7
370
    15
100
AcDbLine
 10
150.8616491784
 20
103.6949402655
 30
0.0
 11
152.9978451883
 21
103.6949402655
 31
0.0
  0
SPLINE
  5
72
330
1F
100
AcDbEntity
  8
0
  6
Continuous
 62
     7
370
    15
100
AcDbSpline
210
0.0
220
0.0
230
1.0
 70
     8
 71
     3
 72
    12
 73
     8
 74
     0
 42
0.00000001
 43
0.00000001
 12
1.0
 22
0.0
 32
0.0
 13
1.0
 23
0.0
 33
0.0
 40
0.0
 40
0.0
 40
0.0
 40
0.0
 40
0.500000000000003
 40
0.500000000000003
 40
0.7500000000000014
 40
0.7500000000000014
 40
1.0
 40
1.0
 40
1.0
 40
1.0
 10
150.6018416498885
 20
103.385908325528
 30
0.0
 10
150.6206448827402
 20
103.4538886497904
 30
0.0
 10
150.6461815417594
 20
103.5199790375872
 30
0.0
 10
150.7064077157079
 20
103.6090436500344
 30
0.0
 10
150.7303337931079
 20
103.6368447370543
 30
0.0
 10
150.7883947132892
 20
103.6798038102792
 30
0.0
 10
150.8241964119151
 20
103.6949404569354
 30
0.0
 10
150.8616492710239
 20
103.6949404569354
 30
0.0
  0
ELLIPSE
  5
73
330
1F
100
AcDbEntity
  8
0
  6
Continuous
 62
     7
370
    15
100
AcDbEllipse
 10
160.8786764415
 20
109.5241534526
 30
0.0
 11
9.367417879781669
 21
19.74174915274993
 31
0.0
210
0.0
220
0.0
230
1.0
 40
0.3419987131
 41
2.043618610118596
 42
2.990520924662731
  0
SPLINE
  5
74
330
1F
100
AcDbEntity
  8
0
  6
Continuous
 62
     7
370
    15
100
AcDbSpline
210
0.0
220
0.0
230
1.0
 70
     8
 71
     3
 72
    16
 73
    12
 74
     0
 42
0.00000001
 43
0.00000001
 12
1.0
 22
0.0
 32
0.0
 13
1.0
 23
0.0
 33
0.0
 40
0.0
 40
0.0
 40
0.0
 40
0.0
 40
0.2499999999999997
 40
0.2499999999999997
 40
0.3750000000000028
 40
0.3750000000000028
 40
0.5000000000000059
 40
0.5000000000000059
 40
0.7500000000000029
 40
0.7500000000000029
 40
1.0
 40
1.0
 40
1.0
 40
1.0
 10
225.3339507540944
 20
125.3491405382827
 30
0.0
 10
225.4025790098079
 20
125.3878340651783
 30
0.0
 10
225.5035376953509
 20
125.4180053467894
 30
0.0
 10
225.7035794291484
 20
125.4534890730014
 30
0.0
 10
225.7790449477398
 20
125.4637139271641
 30
0.0
 10
225.9425358755163
 20
125.4808727938359
 30
0.0
 10
226.0308501262929
 20
125.4878930785679
 30
0.0
 10
226.3153102798826
 20
125.5053343716071
 30
0.0
 10
226.5340340704056
 20
125.5121607755232
 30
0.0
 10
227.000476914711
 20
125.5203891858849
 30
0.0
 10
227.2522209083507
 20
125.5219930824811
 30
0.0
 10
227.5155337066516
 20
125.5228288699789
 30
0.0
  0
ELLIPSE
  5
75
330
1F
100
AcDbEntity
  8
0
  6
Continuous
 62
     7
370
    15
100
AcDbEllipse
 10
226.260568709
 20
109.5241534526
 30
0.0
 11
-0.3220561513869029
 21
15.99976859320061
 31
0.0
210
0.0
220
0.0
230
1.0
 40
0.2671959542
 41
0.1426643238695703
 42
2.848545425119175
  0
SPLINE
  5
76
330
1F
100
AcDbEntity
  8
0
  6
Continuous
 62
     7
370
    15
100
AcDbSpline
210
0.0
220
0.0
230
1.0
 70
     8
 71
     3
 72
    16
 73
    12
 74
     0
 42
0.00000001
 43
0.00000001
 12
1.0
 22
0.0
 32
0.0
 13
1.0
 23
0.0
 33
0.0
 40
0.0
 40
0.0
 40
0.0
 40
0.0
 40
0.2500000000000048
 40
0.2500000000000048
 40
0.375000000000007
 40
0.375000000000007
 40
0.5000000000000093
 40
0.5000000000000093
 40
0.7500000000000047
 40
0.7500000000000047
 40
1.0
 40
1.0
 40
1.0
 40
1.0
 10
227.5155337066516
 20
93.70982843292731
 30
0.0
 10
227.2522436637224
 20
93.71969442728067
 30
0.0
 10
227.0036166951026
 20
93.73497376471146
 30
0.0
 10
226.6521083096307
 20
93.76852915606636
 30
0.0
 10
226.5379892272744
 20
93.78163125370261
 30
0.0
 10
226.3236160212242
 20
93.8113907482518
 30
0.0
 10
226.222606795732
 20
93.82809466326107
 30
0.0
 10
225.9378274847537
 20
93.88457839560044
 30
0.0
 10
225.7710352156065
 20
93.93146633692662
 30
0.0
 10
225.5051155402285
 20
94.0423139400671
 30
0.0
 10
225.4025779089962
 20
94.107203022868
 30
0.0
 10
225.3339507540944
 20
94.18162798925016
 30
0.0
  0
ELLIPSE
  5
77
330
1F
100
AcDbEntity
  8
0
  6
Continuous
 62
     7
370
    15
100
AcDbEllipse
 10
224.1462843357
 20
117.4638488874
 30
0.0
 11
0.08998737201207517
 21
2.35747807539775
 31
0.0
210
0.0
220
0.0
230
1.0
 40
0.2521532344
 41
0.0
 42
6.283185307179586
  0
SPLINE
  5
78
330
1F
100
AcDbEntity
  8
0
  6
Continuous
 62
     7
370
    15
100
AcDbSpline
210
0.0
220
0.0
230
1.0
 70
     8
 71
     3
 72
    18
 73
    14
 74
     0
 42
0.00000001
 43
0.00000001
 12
1.0
 22
0.0
 32
0.0
 13
1.0
 23
0.0
 33
0.0
 40
0.0
 40
0.0
 40
0.0
 40
0.0
 40
0.2500000000000001
 40
0.2500000000000001
 40
0.5000000000000002
 40
0.5000000000000002
 40
0.6250000000000001
 40
0.6250000000000001
 40
0.7500000000000001
 40
0.7500000000000001
 40
0.875
 40
0.875
 40
1.0
 40
1.0
 40
1.0
 40
1.0
 10
142.6736629514607
 20
95.69296506990828
 30
0.0
 10
142.7079597709125
 20
95.69210341442644
 30
0.0
 10
142.7457710508897
 20
95.6923550175214
 30
0.0
 10
142.8323434180696
 20
95.69475353013324
 30
0.0
 10
142.8806825481525
 20
95.69692451486516
 30
0.0
 10
142.969954905475
 20
95.70101939316038
 30
0.0
 10
143.0024963712509
 20
95.70252401111
 30
0.0
 10
143.0786725711044
 20
95.70548706907812
 30
0.0
 10
143.1218886310989
 20
95.70697440733389
 30
0.0
 10
143.2275779330649
 20
95.70859981865758
 30
0.0
 10
143.2925489917794
 20
95.70855757758368
 30
0.0
 10
143.4262093801373
 20
95.70453540426266
 30
0.0
 10
143.4855158334735
 20
95.70099417743917
 30
0.0
 10
143.5347703801494
 20
95.69742747000306
 30
0.0
  0
SPLINE
  5
79
330
1F
100
AcDbEntity
  8
0
  6
Continuous
 62
     7
370
    15
100
AcDbSpline
210
0.0
220
0.0
230
1.0
 70
     8
 71
     3
 72
    14
 73
    10
 74
     0
 42
0.00000001
 43
0.00000001
 12
1.0
 22
0.0
 32
0.0
 13
1.0
 23
0.0
 33
0.0
 40
0.0
 40
0.0
 40
0.0
 40
0.0
 40
0.1250000000000006
 40
0.1250000000000006
 40
0.2500000000000013
 40
0.2500000000000013
 40
0.5000000000000009
 40
0.5000000000000009
 40
1.0
 40
1.0
 40
1.0
 40
1.0
 10
143.5347703801186
 20
95.69742747002202
 30
0.0
 10
143.546297157836
 20
95.696592772588
 30
0.0
 10
143.5596499654884
 20
95.69485235830784
 30
0.0
 10
143.5897925380887
 20
95.68760476830752
 30
0.0
 10
143.6048530637032
 20
95.68225773407957
 30
0.0
 10
143.6401994176315
 20
95.66651046385113
 30
0.0
 10
143.6539315173604
 20
95.65667218968984
 30
0.0
 10
143.6873027630515
 20
95.63046820373935
 30
0.0
 10
143.6982431309055
 20
95.61638030233877
 30
0.0
 10
143.7068962559187
 20
95.6036066788504
 30
0.0
  0
LINE
  5
7A
330
1F
100
AcDbEntity
  8
0
  6
Continuous
 62
     7
370
    15
100
AcDbLine
 10
143.7297472741
 20
104.018708505
 30
0.0
 11
143.7297472741
 21
95.4343334774
 31
0.0
  0
SPLINE
  5
7B
330
1F
100
AcDbEntity
  8
0
  6
Continuous
 62
     7
370
    15
100
AcDbSpline
210
0.0
220
0.0
230
1.0
 70
     8
 71
     3
 72
    16
 73
    12
 74
     0
 42
0.00000001
 43
0.00000001
 12
1.0
 22
0.0
 32
0.0
 13
1.0
 23
0.0
 33
0.0
 40
0.0
 40
0.0
 40
0.0
 40
0.0
 40
0.4999999999999994
 40
0.4999999999999994
 40
0.7499999999999997
 40
0.7499999999999997
 40
0.8749999999999998
 40
0.8749999999999998
 40
0.9375
 40
0.9375
 40
1.0
 40
1.0
 40
1.0
 40
1.0
 10
143.7297472690247
 20
104.0187086856243
 30
0.0
 10
143.7297472690247
 20
104.1362840666438
 30
0.0
 10
143.7258638438658
 20
104.254979819745
 30
0.0
 10
143.7010485185911
 20
104.4357372977375
 30
0.0
 10
143.6902090708786
 20
104.4973813745104
 30
0.0
 10
143.6569932888298
 20
104.5867183488517
 30
0.0
 10
143.643611545201
 20
104.6169778802769
 30
0.0
 10
143.6081018953388
 20
104.6504941242643
 30
0.0
 10
143.592684928838
 20
104.6586324700704
 30
0.0
 10
143.5609839066894
 20
104.658617060639
 30
0.0
 10
143.5468376217385
 20
104.6515748232831
 30
0.0
 10
143.5347703801489
 20
104.6424337596735
 30
0.0
  0
SPLINE
  5
7C
330
1F
100
AcDbEntity
  8
0
  6
Continuous
 62
     7
370
    15
100
AcDbSpline
210
0.0
220
0.0
230
1.0
 70
     8
 71
     3
 72
    18
 73
    14
 74
     0
 42
0.00000001
 43
0.00000001
 12
1.0
 22
0.0
 32
0.0
 13
1.0
 23
0.0
 33
0.0
 40
0.0
 40
0.0
 40
0.0
 40
0.0
 40
0.1250000000000003
 40
0.1250000000000003
 40
0.2500000000000007
 40
0.2500000000000007
 40
0.375000000000001
 40
0.375000000000001
 40
0.5000000000000013
 40
0.5000000000000013
 40
0.7500000000000007
 40
0.7500000000000007
 40
1.0
 40
1.0
 40
1.0
 40
1.0
 10
143.5347703801551
 20
104.6424337596663
 30
0.0
 10
143.4860657964671
 20
104.6055395204757
 30
0.0
 10
143.4275573136916
 20
104.5760082160498
 30
0.0
 10
143.2958304984218
 20
104.5667722427709
 30
0.0
 10
143.2310724269243
 20
104.5898354173279
 30
0.0
 10
143.1258618247736
 20
104.6573535389753
 30
0.0
 10
143.0826456762534
 20
104.7003646356258
 30
0.0
 10
143.0064673601696
 20
104.790606657622
 30
0.0
 10
142.9736125278783
 20
104.8382375390972
 30
0.0
 10
142.8832446219174
 20
104.9853018384468
 30
0.0
 10
142.8338219640778
 20
105.0892151637514
 30
0.0
 10
142.7461708384861
 20
105.3003491273917
 30
0.0
 10
142.7081092910956
 20
105.4080718721505
 30
0.0
 10
142.6736629514617
 20
105.5174049880599
 30
0.0
  0
SPLINE
  5
7D
330
1F
100
AcDbEntity
  8
0
  6
Continuous
 62
     7
370
    15
100
AcDbSpline
210
0.0
220
0.0
230
1.0
 70
     8
 71
     3
 72
     8
 73
     4
 74
     0
 42
0.00000001
 43
0.00000001
 12
1.0
 22
0.0
 32
0.0
 13
1.0
 23
0.0
 33
0.0
 40
0.0
 40
0.0
 40
0.0
 40
0.0
 40
1.0
 40
1.0
 40
1.0
 40
1.0
 10
142.6084269254649
 20
105.7526087621887
 30
0.0
 10
142.6278531307639
 20
105.673016490616
 30
0.0
 10
142.6493499551923
 20
105.5945747444832
 30
0.0
 10
142.6736629514617
 20
105.5174049880599
 30
0.0
  0
SPLINE
  5
7E
330
1F
100
AcDbEntity
  8
0
  6
Continuous
 62
     7
370
    15
100
AcDbSpline
210
0.0
220
0.0
230
1.0
 70
     8
 71
     3
 72
     8
 73
     4
 74
     0
 42
0.00000001
 43
0.00000001
 12
1.0
 22
0.0
 32
0.0
 13
1.0
 23
0.0
 33
0.0
 40
0.0
 40
0.0
 40
0.0
 40
0.0
 40
1.0
 40
1.0
 40
1.0
 40
1.0
 10
142.6736629514617
 20
113.5309019171144
 30
0.0
 10
142.6493499551923
 20
113.4537321606911
 30
0.0
 10
142.6278531307639
 20
113.3752904145584
 30
0.0
 10
142.608426925465
 20
113.2956981429856
 30
0.0
  0
SPLINE
  5
7F
330
1F
100
AcDbEntity
  8
0
  6
Continuous
 62
     7
370
    15
100
AcDbSpline
210
0.0
220
0.0
230
1.0
 70
     8
 71
     3
 72
    18
 73
    14
 74
     0
 42
0.00000001
 43
0.00000001
 12
1.0
 22
0.0
 32
0.0
 13
1.0
 23
0.0
 33
0.0
 40
0.0
 40
0.0
 40
0.0
 40
0.0
 40
0.2499999999999999
 40
0.2499999999999999
 40
0.4999999999999998
 40
0.4999999999999998
 40
0.6249999999999998
 40
0.6249999999999998
 40
0.7499999999999999
 40
0.7499999999999999
 40
0.8749999999999999
 40
0.8749999999999999
 40
1.0
 40
1.0
 40
1.0
 40
1.0
 10
142.6736629514617
 20
113.5309019171144
 30
0.0
 10
142.7079612704744
 20
113.6397652137074
 30
0.0
 10
142.7457756677863
 20
113.7467726369437
 30
0.0
 10
142.8323637288599
 20
113.9558074610821
 30
0.0
 10
142.8807138345385
 20
114.0579775550716
 30
0.0
 10
142.9700304233383
 20
114.2046583266363
 30
0.0
 10
143.0025907788267
 20
114.2524600251719
 30
0.0
 10
143.0788364125555
 20
114.3440155631972
 30
0.0
 10
143.1219957823355
 20
114.3876949551892
 30
0.0
 10
143.2277246063536
 20
114.4570491725158
 30
0.0
 10
143.2927217834083
 20
114.4811654861817
 30
0.0
 10
143.4262062733625
 20
114.4729612641435
 30
0.0
 10
143.485533666808
 20
114.4431704785515
 30
0.0
 10
143.5347703801494
 20
114.4058731455005
 30
0.0
  0
SPLINE
  5
80
330
1F
100
AcDbEntity
  8
0
  6
Continuous
 62
     7
370
    15
100
AcDbSpline
210
0.0
220
0.0
230
1.0
 70
     8
 71
     3
 72
    16
 73
    12
 74
     0
 42
0.00000001
 43
0.00000001
 12
1.0
 22
0.0
 32
0.0
 13
1.0
 23
0.0
 33
0.0
 40
0.0
 40
0.0
 40
0.0
 40
0.0
 40
0.0624999999999995
 40
0.0624999999999995
 40
0.124999999999999
 40
0.124999999999999
 40
0.2500000000000004
 40
0.2500000000000004
 40
0.5000000000000003
 40
0.5000000000000003
 40
1.0
 40
1.0
 40
1.0
 40
1.0
 10
143.5347703801186
 20
114.4058731454521
 30
0.0
 10
143.5468402133944
 20
114.3967301186063
 30
0.0
 10
143.5611158683278
 20
114.3896856709151
 30
0.0
 10
143.5925802804522
 20
114.3896785990164
 30
0.0
 10
143.6080808052626
 20
114.3978065678134
 30
0.0
 10
143.6435197018695
 20
114.4312150288206
 30
0.0
 10
143.6571123179729
 20
114.4618821952828
 30
0.0
 10
143.6901066363657
 20
114.5507031893646
 30
0.0
 10
143.7008940296844
 20
114.6116058349125
 30
0.0
 10
143.7259472769636
 20
114.7936139122908
 30
0.0
 10
143.7297472690248
 20
114.9123026273294
 30
0.0
 10
143.7297472690248
 20
115.02959821955
 30
0.0
  0
LINE
  5
81
330
1F
100
AcDbEntity
  8
0
  6
Continuous
 62
     7
370
    15
100
AcDbLine
 10
143.7297472741
 20
123.6139734278
 30
0.0
 11
143.7297472741
 21
115.0295984002
 31
0.0
  0
SPLINE
  5
82
330
1F
100
AcDbEntity
  8
0
  6
Continuous
 62
     7
370
    15
100
AcDbSpline
210
0.0
220
0.0
230
1.0
 70
     8
 71
     3
 72
    16
 73
    12
 74
     0
 42
0.00000001
 43
0.00000001
 12
1.0
 22
0.0
 32
0.0
 13
1.0
 23
0.0
 33
0.0
 40
0.0
 40
0.0
 40
0.0
 40
0.0
 40
0.4999999999999987
 40
0.4999999999999987
 40
0.749999999999998
 40
0.749999999999998
 40
0.8749999999999978
 40
0.8749999999999978
 40
0.9374999999999988
 40
0.9374999999999988
 40
1.0
 40
1.0
 40
1.0
 40
1.0
 10
143.7297472690247
 20
123.5089653592473
 30
0.0
 10
143.7297472690247
 20
123.4934001318078
 30
0.0
 10
143.7258638438658
 20
123.4742287539599
 30
0.0
 10
143.7010485185911
 20
123.435456371978
 30
0.0
 10
143.6902090708786
 20
123.4208055957755
 30
0.0
 10
143.6569932888298
 20
123.3937613517959
 30
0.0
 10
143.643611545201
 20
123.3837832526558
 30
0.0
 10
143.6081018953387
 20
123.3673087168688
 30
0.0
 10
143.592684928838
 20
123.3615566260789
 30
0.0
 10
143.5609839066894
 20
123.3536361056523
 30
0.0
 10
143.5468376217386
 20
123.3517532696335
 30
0.0
 10
143.534770380149
 20
123.3508794351712
 30
0.0
  0
SPLINE
  5
83
330
1F
100
AcDbEntity
  8
0
  6
Continuous
 62
     7
370
    15
100
AcDbSpline
210
0.0
220
0.0
230
1.0
 70
     8
 71
     3
 72
    18
 73
    14
 74
     0
 42
0.00000001
 43
0.00000001
 12
1.0
 22
0.0
 32
0.0
 13
1.0
 23
0.0
 33
0.0
 40
0.0
 40
0.0
 40
0.0
 40
0.0
 40
0.1250000000000002
 40
0.1250000000000002
 40
0.2500000000000004
 40
0.2500000000000004
 40
0.3750000000000006
 40
0.3750000000000006
 40
0.5000000000000008
 40
0.5000000000000008
 40
0.7500000000000003
 40
0.7500000000000003
 40
1.0
 40
1.0
 40
1.0
 40
1.0
 10
143.5347703801551
 20
123.3508794351711
 30
0.0
 10
143.4860662511383
 20
123.3473525855529
 30
0.0
 10
143.4275585819338
 20
123.3438523123552
 30
0.0
 10
143.2958329193029
 20
123.3398093284673
 30
0.0
 10
143.2310752806826
 20
123.3396977538367
 30
0.0
 10
143.1258648640635
 20
123.3412299385982
 30
0.0
 10
143.0826488291233
 20
123.3426850908133
 30
0.0
 10
143.0064706076424
 20
123.345610352343
 30
0.0
 10
142.9736158399583
 20
123.3471206828512
 30
0.0
 10
142.8832481211165
 20
123.3512626755396
 30
0.0
 10
142.833825751927
 20
123.3535007605261
 30
0.0
 10
142.746173289839
 20
123.3559520435726
 30
0.0
 10
142.7081105536046
 20
123.3562072789336
 30
0.0
 10
142.6736629514612
 20
123.3553418352657
 30
0.0
  0
SPLINE
  5
84
330
1F
100
AcDbEntity
  8
0
  6
Continuous
 62
     7
370
    15
100
AcDbSpline
210
0.0
220
0.0
230
1.0
 70
     8
 71
     3
 72
     8
 73
     4
 74
     0
 42
0.00000001
 43
0.00000001
 12
1.0
 22
0.0
 32
0.0
 13
1.0
 23
0.0
 33
0.0
 40
0.0
 40
0.0
 40
0.0
 40
0.0
 40
1.0
 40
1.0
 40
1.0
 40
1.0
 10
142.4347072910854
 20
106.5776626482233
 30
0.0
 10
142.4854343738078
 20
106.2943115269042
 30
0.0
 10
142.5433216867949
 20
106.0193553427644
 30
0.0
 10
142.6084269254651
 20
105.7526087621888
 30
0.0
  0
SPLINE
  5
85
330
1F
100
AcDbEntity
  8
0
  6
Continuous
 62
     7
370
    15
100
AcDbSpline
210
0.0
220
0.0
230
1.0
 70
     8
 71
     3
 72
    24
 73
    20
 74
     0
 42
0.00000001
 43
0.00000001
 12
1.0
 22
0.0
 32
0.0
 13
1.0
 23
0.0
 33
0.0
 40
0.0
 40
0.0
 40
0.0
 40
0.0
 40
0.2500000000000036
 40
0.2500000000000036
 40
0.3750000000000051
 40
0.3750000000000051
 40
0.4375000000000064
 40
0.4375000000000064
 40
0.4687500000000062
 40
0.4687500000000062
 40
0.500000000000006
 40
0.500000000000006
 40
0.562500000000006
 40
0.562500000000006
 40
0.625000000000006
 40
0.625000000000006
 40
0.7500000000000043
 40
0.7500000000000043
 40
1.0
 40
1.0
 40
1.0
 40
1.0
 10
142.2297472690164
 20
106.5779550565165
 30
0.0
 10
142.2301502983903
 20
106.6712233491461
 30
0.0
 10
142.2321800381054
 20
106.7649809079951
 30
0.0
 10
142.2414887495252
 20
106.9065707936346
 30
0.0
 10
142.2454147426398
 20
106.9537512122439
 30
0.0
 10
142.2563441025558
 20
107.0243472589293
 30
0.0
 10
142.2604657306502
 20
107.048127172694
 30
0.0
 10
142.2723602518325
 20
107.0815783197412
 30
0.0
 10
142.2776470637863
 20
107.0937332718108
 30
0.0
 10
142.2942149953012
 20
107.1016159107789
 30
0.0
 10
142.3021417040686
 20
107.0940523116769
 30
0.0
 10
142.3191340422937
 20
107.0702598804502
 30
0.0
 10
142.3265317430847
 20
107.0500714026057
 30
0.0
 10
142.3406341334265
 20
107.0096217779859
 30
0.0
 10
142.3467872907188
 20
106.9887661035884
 30
0.0
 10
142.3641010241799
 20
106.9256410682874
 30
0.0
 10
142.3741060650684
 20
106.8826619563858
 30
0.0
 10
142.4024625212992
 20
106.752936312097
 30
0.0
 10
142.4190110606454
 20
106.665338584961
 30
0.0
 10
142.4347072910854
 20
106.5776626482233
 30
0.0
  0
SPLINE
  5
86
330
1F
100
AcDbEntity
  8
0
  6
Continuous
 62
     7
370
    15
100
AcDbSpline
210
0.0
220
0.0
230
1.0
 70
     8
 71
     3
 72
    16
 73
    12
 74
     0
 42
0.00000001
 43
0.00000001
 12
1.0
 22
0.0
 32
0.0
 13
1.0
 23
0.0
 33
0.0
 40
0.0
 40
0.0
 40
0.0
 40
0.0
 40
0.2500000000000002
 40
0.2500000000000002
 40
0.3750000000000003
 40
0.3750000000000003
 40
0.5000000000000002
 40
0.5000000000000002
 40
0.7500000000000002
 40
0.7500000000000002
 40
1.0
 40
1.0
 40
1.0
 40
1.0
 10
142.2297472690247
 20
112.4703518486565
 30
0.0
 10
142.1492104596292
 20
112.0012790217934
 30
0.0
 10
142.089173050827
 20
111.5209153716134
 30
0.0
 10
142.0284351035797
 20
110.7837310924725
 30
0.0
 10
142.0131126225368
 20
110.5352126892454
 30
0.0
 10
141.9925296707589
 20
110.0324292440317
 30
0.0
 10
141.9873301237224
 20
109.777570691007
 30
0.0
 10
141.9872764131821
 20
109.0212933512863
 30
0.0
 10
142.0074737504513
 20
108.5226351519765
 30
0.0
 10
142.0881520575242
 20
107.5362121812322
 30
0.0
 10
142.1491984058655
 20
107.0470980884593
 30
0.0
 10
142.2297472690247
 20
106.5779550565178
 30
0.0
  0
SPLINE
  5
87
330
1F
100
AcDbEntity
  8
0
  6
Continuous
 62
     7
370
    15
100
AcDbSpline
210
0.0
220
0.0
230
1.0
 70
     8
 71
     3
 72
    24
 73
    20
 74
     0
 42
0.00000001
 43
0.00000001
 12
1.0
 22
0.0
 32
0.0
 13
1.0
 23
0.0
 33
0.0
 40
0.0
 40
0.0
 40
0.0
 40
0.0
 40
0.249999999999995
 40
0.249999999999995
 40
0.3749999999999928
 40
0.3749999999999928
 40
0.4374999999999917
 40
0.4374999999999917
 40
0.4999999999999907
 40
0.4999999999999907
 40
0.5312499999999913
 40
0.5312499999999913
 40
0.5624999999999921
 40
0.5624999999999921
 40
0.6249999999999934
 40
0.6249999999999934
 40
0.7499999999999951
 40
0.7499999999999951
 40
1.0
 40
1.0
 40
1.0
 40
1.0
 10
142.4347072910805
 20
112.4706442569229
 30
0.0
 10
142.4189382461709
 20
112.3825615934343
 30
0.0
 10
142.4023240816105
 20
112.2946167769273
 30
0.0
 10
142.3737919541173
 20
112.164269409668
 30
0.0
 10
142.3637043205634
 20
112.1210082318671
 30
0.0
 10
142.3462164977142
 20
112.0575724560338
 30
0.0
 10
142.3400066897878
 20
112.0366583324908
 30
0.0
 10
142.3257288302048
 20
111.9961835408076
 30
0.0
 10
142.318157667853
 20
111.9757058973487
 30
0.0
 10
142.3007378426756
 20
111.9528595178171
 30
0.0
 10
142.2922537602176
 20
111.9463077207808
 30
0.0
 10
142.2762176866046
 20
111.9568790960215
 30
0.0
 10
142.2713973143289
 20
111.9689701363046
 30
0.0
 10
142.2599904137259
 20
112.0026133795243
 30
0.0
 10
142.2559694520167
 20
112.0260210588205
 30
0.0
 10
142.2452154402387
 20
112.09660966188
 30
0.0
 10
142.2413435546162
 20
112.143574689401
 30
0.0
 10
142.2321755898159
 20
112.2841515540034
 30
0.0
 10
142.2301472553029
 20
112.3777877836204
 30
0.0
 10
142.2297472690247
 20
112.4703518486565
 30
0.0
  0
SPLINE
  5
88
330
1F
100
AcDbEntity
  8
0
  6
Continuous
 62
     7
370
    15
100
AcDbSpline
210
0.0
220
0.0
230
1.0
 70
     8
 71
     3
 72
     8
 73
     4
 74
     0
 42
0.00000001
 43
0.00000001
 12
1.0
 22
0.0
 32
0.0
 13
1.0
 23
0.0
 33
0.0
 40
0.0
 40
0.0
 40
0.0
 40
0.0
 40
1.0
 40
1.0
 40
1.0
 40
1.0
 10
142.6084269254651
 20
113.2956981429856
 30
0.0
 10
142.5433216867927
 20
113.0289515624011
 30
0.0
 10
142.4854343738039
 20
112.753995378252
 30
0.0
 10
142.4347072910803
 20
112.4706442569229
 30
0.0
  0
LINE
  5
89
330
1F
100
AcDbEntity
  8
0
  6
Continuous
 62
     7
370
    15
100
AcDbLine
 10
142.2297472465
 20
106.5779550003
 30
0.0
 11
142.2297472465
 21
105.422949698
 31
0.0
  0
LINE
  5
8A
330
1F
100
AcDbEntity
  8
0
  6
Continuous
 62
     7
370
    15
100
AcDbLine
 10
121.429746375
 20
113.364073029
 30
0.0
 11
121.429746375
 21
105.6842338762
 31
0.0
  0
LINE
  5
8B
330
1F
100
AcDbEntity
  8
0
  6
Continuous
 62
     7
370
    15
100
AcDbLine
 10
142.2297472465
 20
113.6253572071
 30
0.0
 11
142.2297472465
 21
112.4703519049
 31
0.0
  0
LINE
  5
8C
330
1F
100
AcDbEntity
  8
0
  6
Continuous
 62
     7
370
    15
100
AcDbLine
 10
119.9297470604
 20
112.9310601859
 30
0.0
 11
119.9297470604
 21
106.1172467193
 31
0.0
  0
LINE
  5
8D
330
1F
100
AcDbEntity
  8
0
  6
Continuous
 62
     7
370
    15
100
AcDbLine
 10
142.4347072472
 20
123.3493381182
 30
0.0
 11
142.6736629666
 21
123.3553414235
 31
0.0
  0
LINE
  5
8E
330
1F
100
AcDbEntity
  8
0
  6
Continuous
 62
     7
370
    15
100
AcDbLine
 10
142.2297472465
 20
113.6253572071
 30
0.0
 11
142.2297472465
 21
123.5442518259
 31
0.0
  0
ARC
  5
8F
330
1F
100
AcDbEntity
  8
0
  6
Continuous
 62
     7
370
    15
100
AcDbCircle
 10
142.42968418
 20
123.5492753483
 30
0.0
 40
0.2000000000000059
100
AcDbArc
 50
181.4391666667
 51
271.4391666667
  0
LINE
  5
90
330
1F
100
AcDbEntity
  8
0
  6
Continuous
 62
     7
370
    15
100
AcDbLine
 10
121.429746375
 20
113.364073029
 30
0.0
 11
121.429746375
 21
123.0216839353
 31
0.0
  0
LINE
  5
91
330
1F
100
AcDbEntity
  8
0
  6
Continuous
 62
     7
370
    15
100
AcDbLine
 10
121.429746375
 20
123.0216839353
 30
0.0
 11
142.2297472465
 21
123.5442518259
 31
0.0
  0
LINE
  5
92
330
1F
100
AcDbEntity
  8
0
  6
Continuous
 62
     7
370
    15
100
AcDbLine
 10
121.429746375
 20
96.0266229699
 30
0.0
 11
121.429746375
 21
105.6842338762
 31
0.0
  0
LINE
  5
93
330
1F
100
AcDbEntity
  8
0
  6
Continuous
 62
     7
370
    15
100
AcDbLine
 10
142.2297472465
 20
95.5040550793
 30
0.0
 11
142.2297472465
 21
105.422949698
 31
0.0
  0
LINE
  5
94
330
1F
100
AcDbEntity
  8
0
  6
Continuous
 62
     7
370
    15
100
AcDbLine
 10
121.429746375
 20
96.0266229699
 30
0.0
 11
142.2297472465
 21
95.5040550793
 31
0.0
  0
ARC
  5
95
330
1F
100
AcDbEntity
  8
0
  6
Continuous
 62
     7
370
    15
100
AcDbCircle
 10
142.42968418
 20
95.4990315569
 30
0.0
 40
0.1999999999999917
100
AcDbArc
 50
88.5608333333
 51
178.5608333333
  0
LINE
  5
96
330
1F
100
AcDbEntity
  8
0
  6
Continuous
 62
     7
370
    15
100
AcDbLine
 10
142.4347072472
 20
95.698968787
 30
0.0
 11
142.6736629666
 21
95.6929654817
 31
0.0
  0
LINE
  5
97
330
1F
100
AcDbEntity
  8
0
  6
Continuous
 62
     7
370
    15
100
AcDbLine
 10
119.9297470604
 20
96.8926486561
 30
0.0
 11
121.429746375
 21
96.0266229699
 31
0.0
  0
LINE
  5
98
330
1F
100
AcDbEntity
  8
0
  6
Continuous
 62
     7
370
    15
100
AcDbLine
 10
119.9297470604
 20
96.8926486561
 30
0.0
 11
119.9297470604
 21
106.1172467193
 31
0.0
  0
LINE
  5
99
330
1F
100
AcDbEntity
  8
0
  6
Continuous
 62
     7
370
    15
100
AcDbLine
 10
119.9297470604
 20
122.155658249
 30
0.0
 11
121.429746375
 21
123.0216839353
 31
0.0
  0
LINE
  5
9A
330
1F
100
AcDbEntity
  8
0
  6
Continuous
 62
     7
370
    15
100
AcDbLine
 10
119.9297470604
 20
112.9310601859
 30
0.0
 11
119.9297470604
 21
122.155658249
 31
0.0
  0
SPLINE
  5
9B
330
1F
100
AcDbEntity
  8
0
  6
Continuous
 62
     7
370
    15
100
AcDbSpline
210
0.0
220
0.0
230
1.0
 70
     8
 71
     3
 72
     8
 73
     4
 74
     0
 42
0.00000001
 43
0.00000001
 12
1.0
 22
0.0
 32
0.0
 13
1.0
 23
0.0
 33
0.0
 40
0.0
 40
0.0
 40
0.0
 40
0.0
 40
1.0
 40
1.0
 40
1.0
 40
1.0
 10
228.2317282329615
 20
93.39471405259054
 30
0.0
 10
228.2286988043252
 20
93.39774480624205
 30
0.0
 10
228.2256695558703
 20
93.40077605227845
 30
0.0
 10
228.2226404878381
 20
93.40380779083237
 30
0.0
  0
SPLINE
  5
9C
330
1F
100
AcDbEntity
  8
0
  6
Continuous
 62
     7
370
    15
100
AcDbSpline
210
0.0
220
0.0
230
1.0
 70
     8
 71
     3
 72
    10
 73
     6
 74
     0
 42
0.00000001
 43
0.00000001
 12
1.0
 22
0.0
 32
0.0
 13
1.0
 23
0.0
 33
0.0
 40
0.0
 40
0.0
 40
0.0
 40
0.0
 40
0.5
 40
0.5
 40
1.0
 40
1.0
 40
1.0
 40
1.0
 10
228.2226404878381
 20
93.40380779083242
 30
0.0
 10
228.1284145479617
 20
93.49811680326378
 30
0.0
 10
228.0171619388496
 20
93.57249603567978
 30
0.0
 10
227.7745974090213
 20
93.67635100685875
 30
0.0
 10
227.6451040723042
 20
93.70497317717363
 30
0.0
 10
227.5155337066516
 20
93.7098284329276
 30
0.0
  0
SPLINE
  5
9D
330
1F
100
AcDbEntity
  8
0
  6
Continuous
 62
     7
370
    15
100
AcDbSpline
210
0.0
220
0.0
230
1.0
 70
     8
 71
     3
 72
    10
 73
     6
 74
     0
 42
0.00000001
 43
0.00000001
 12
1.0
 22
0.0
 32
0.0
 13
1.0
 23
0.0
 33
0.0
 40
0.0
 40
0.0
 40
0.0
 40
0.0
 40
0.5
 40
0.5
 40
1.0
 40
1.0
 40
1.0
 40
1.0
 10
227.5155337066516
 20
125.5228288699788
 30
0.0
 10
227.6450947934696
 20
125.5232401129464
 30
0.0
 10
227.7741998693662
 20
125.5486311147641
 30
0.0
 10
228.0168624767474
 20
125.6486075021151
 30
0.0
 10
228.1283969176436
 20
125.722462809161
 30
0.0
 10
228.2226404878385
 20
125.8167496381134
 30
0.0
  0
SPLINE
  5
9E
330
1F
100
AcDbEntity
  8
0
  6
Continuous
 62
     7
370
    15
100
AcDbSpline
210
0.0
220
0.0
230
1.0
 70
     8
 71
     3
 72
     8
 73
     4
 74
     0
 42
0.00000001
 43
0.00000001
 12
1.0
 22
0.0
 32
0.0
 13
1.0
 23
0.0
 33
0.0
 40
0.0000015705012878
 40
0.0000015705012878
 40
0.0000015705012878
 40
0.0000015705012878
 40
0.0000144417946382
 40
0.0000144417946382
 40
0.0000144417946382
 40
0.0000144417946382
 10
228.2226404878381
 20
125.8167496381138
 30
0.0
 10
228.2256695541335
 20
125.8197800947814
 30
0.0
 10
228.2286988060626
 20
125.8228107041093
 30
0.0
 10
228.2317282329615
 20
125.8258414560227
 30
0.0
  0
LINE
  5
9F
330
1F
100
AcDbEntity
  8
0
  6
Continuous
 62
     7
370
    15
100
AcDbLine
 10
236.844574437
 20
93.1966158564
 30
0.0
 11
228.4297471498
 21
93.1966158564
 31
0.0
  0
ELLIPSE
  5
A0
330
1F
100
AcDbEntity
  8
0
  6
Continuous
 62
     7
370
    15
100
AcDbEllipse
 10
248.1805483539
 20
109.5241534526
 30
0.0
 11
11.76369068746792
 21
16.48124712370787
 31
0.0
210
0.0
220
0.0
230
1.0
 40
0.0668534593
 41
3.189273956189437
 42
3.333983942804654
  0
LINE
  5
A1
330
1F
100
AcDbEntity
  8
0
  6
Continuous
 62
     7
370
    15
100
AcDbLine
 10
228.4297471498
 20
93.1966158564
 30
0.0
 11
228.4297471498
 21
93.024153542
 31
0.0
  0
LINE
  5
A2
330
1F
100
AcDbEntity
  8
0
  6
Continuous
 62
     7
370
    15
100
AcDbLine
 10
228.4297471498
 20
93.1966158564
 30
0.0
 11
228.2317256187
 21
93.3947137559
 31
0.0
  0
SPLINE
  5
A3
330
1F
100
AcDbEntity
  8
0
  6
Continuous
 62
     7
370
    15
100
AcDbSpline
210
0.0
220
0.0
230
1.0
 70
     8
 71
     3
 72
     8
 73
     4
 74
     0
 42
0.00000001
 43
0.00000001
 12
1.0
 22
0.0
 32
0.0
 13
1.0
 23
0.0
 33
0.0
 40
0.0
 40
0.0
 40
0.0
 40
0.0
 40
1.0
 40
1.0
 40
1.0
 40
1.0
 10
228.2317282329616
 20
125.8258414560226
 30
0.0
 10
229.3632658291306
 20
126.9578739654949
 30
0.0
 10
230.4951342014357
 20
128.0895777358805
 30
0.0
 10
231.6271871728369
 20
129.2210980440036
 30
0.0
  0
ARC
  5
A4
330
1F
100
AcDbEntity
  8
0
  6
Continuous
 62
     7
370
    15
100
AcDbCircle
 10
241.2657534137
 20
118.8679419627
 30
0.0
 40
2.097225735896004
100
AcDbArc
 50
118.3571023043
 51
333.0352367796
  0
LINE
  5
A5
330
1F
100
AcDbEntity
  8
0
  6
Continuous
 62
     7
370
    15
100
AcDbLine
 10
252.5073935841
 20
118.7189941297
 30
0.0
 11
252.185871229
 21
115.0528786706
 31
0.0
  0
LINE
  5
A6
330
1F
100
AcDbEntity
  8
0
  6
Continuous
 62
     7
370
    15
100
AcDbLine
 10
252.185871229
 20
115.0528786706
 30
0.0
 11
236.844574437
 21
93.1966158564
 31
0.0
  0
ELLIPSE
  5
A7
330
1F
100
AcDbEntity
  8
0
  6
Continuous
 62
     7
370
    15
100
AcDbEllipse
 10
262.9449273624
 20
112.922811088
 30
0.0
 11
3113.331223476239
 21
271.0557416021197
 31
0.0
210
0.0
220
0.0
230
1.0
 40
0.0060650906
 41
1.577276189716329
 42
1.580327688672809
  0
ARC
  5
A8
330
1F
100
AcDbEntity
  8
0
  6
Continuous
 62
     7
370
    15
100
AcDbCircle
 10
241.2586600717
 20
118.5321326513
 30
0.0
 40
2.094709962929475
100
AcDbArc
 50
119.1353896262
 51
175.3770409487
  0
CIRCLE
  5
A9
330
1F
100
AcDbEntity
  8
0
  6
Continuous
 62
     7
370
    15
100
AcDbCircle
 10
246.9905813923
 20
124.5616915944
 30
0.0
 40
3.493769597042346
  0
CIRCLE
  5
AA
330
1F
100
AcDbEntity
  8
0
  6
Continuous
 62
     7
370
    15
100
AcDbCircle
 10
246.9890946011
 20
124.596444858
 30
0.0
 40
2.62922789185939
  0
CIRCLE
  5
AB
330
1F
100
AcDbEntity
  8
0
  6
Continuous
 62
     7
370
    15
100
AcDbCircle
 10
246.9877708465
 20
124.5964109598
 30
0.0
 40
1.996584980751347
  0
SPLINE
  5
AC
330
1F
100
AcDbEntity
  8
0
  6
Continuous
 62
     7
370
    15
100
AcDbSpline
210
0.0
220
0.0
230
1.0
 70
     8
 71
     3
 72
    15
 73
    11
 74
     0
 42
0.00000001
 43
0.00000001
 12
1.0
 22
0.0
 32
0.0
 13
1.0
 23
0.0
 33
0.0
 40
0.0
 40
0.0
 40
0.0
 40
0.0
 40
0.1262467304939741
 40
0.2533651897720217
 40
0.3794144947814543
 40
0.5042675354108007
 40
0.6284524646827184
 40
0.7526347420372598
 40
0.8774892450635458
 40
1.0
 40
1.0
 40
1.0
 40
1.0
 10
247.3251124476097
 20
126.2639204973698
 30
0.0
 10
247.3096972620201
 20
126.3058652927835
 30
0.0
 10
247.2787604495814
 20
126.3900445107987
 30
0.0
 10
247.1827302893935
 20
126.4879851769331
 30
0.0
 10
247.0625861772246
 20
126.5496696162207
 30
0.0
 10
246.9290630587435
 20
126.5672274754148
 30
0.0
 10
246.7979269282203
 20
126.5398127014015
 30
0.0
 10
246.6840213479313
 20
126.4705996387713
 30
0.0
 10
246.5966112699602
 20
126.3687953179022
 30
0.0
 10
246.5710185249067
 20
126.2851040641099
 30
0.0
 10
246.5583433960579
 20
126.2436549181461
 30
0.0
  0
SPLINE
  5
AD
330
1F
100
AcDbEntity
  8
0
  6
Continuous
 62
     7
370
    15
100
AcDbSpline
210
0.0
220
0.0
230
1.0
 70
     8
 71
     3
 72
    12
 73
     8
 74
     0
 42
0.00000001
 43
0.00000001
 12
1.0
 22
0.0
 32
0.0
 13
1.0
 23
0.0
 33
0.0
 40
0.0
 40
0.0
 40
0.0
 40
0.0
 40
0.2058742340194084
 40
0.4120990695659217
 40
0.6141685531780046
 40
0.8132906223534494
 40
1.0
 40
1.0
 40
1.0
 40
1.0
 10
246.5583433960579
 20
126.2436549181461
 30
0.0
 10
246.5354548360368
 20
126.1693756541164
 30
0.0
 10
246.4896387370318
 20
126.0206906292976
 30
0.0
 10
246.3330040534317
 20
125.8421236333183
 30
0.0
 10
246.1335909931616
 20
125.7261304773199
 30
0.0
 10
245.9127042026732
 20
125.6797324628042
 30
0.0
 10
245.7707093582486
 20
125.7067430827423
 30
0.0
 10
245.7019960139893
 20
125.7198139096022
 30
0.0
  0
SPLINE
  5
AE
330
1F
100
AcDbEntity
  8
0
  6
Continuous
 62
     7
370
    15
100
AcDbSpline
210
0.0
220
0.0
230
1.0
 70
     8
 71
     3
 72
    15
 73
    11
 74
     0
 42
0.00000001
 43
0.00000001
 12
1.0
 22
0.0
 32
0.0
 13
1.0
 23
0.0
 33
0.0
 40
0.0
 40
0.0
 40
0.0
 40
0.0
 40
0.1268759677996977
 40
0.2539954004587964
 40
0.3800508843652158
 40
0.5048998814143096
 40
0.6290839200713836
 40
0.7532701053505562
 40
0.8781226284772512
 40
1.0
 40
1.0
 40
1.0
 40
1.0
 10
245.7019960139893
 20
125.7198139096022
 30
0.0
 10
245.6580537754554
 20
125.7277218207547
 30
0.0
 10
245.5700849767378
 20
125.7435528177102
 30
0.0
 10
245.4377647959006
 20
125.7097886475678
 30
0.0
 10
245.3248263645626
 20
125.6369646588872
 30
0.0
 10
245.2431789701913
 20
125.5303544104611
 30
0.0
 10
245.2014250234307
 20
125.4031702933535
 30
0.0
 10
245.2042073134427
 20
125.2698310945223
 30
0.0
 10
245.2481502051834
 20
125.1432052250312
 30
0.0
 10
245.3070835198835
 20
125.0789875098477
 30
0.0
 10
245.3361948584221
 20
125.0472658316016
 30
0.0
  0
SPLINE
  5
AF
330
1F
100
AcDbEntity
  8
0
  6
Continuous
 62
     7
370
    15
100
AcDbSpline
210
0.0
220
0.0
230
1.0
 70
     8
 71
     3
 72
    12
 73
     8
 74
     0
 42
0.00000001
 43
0.00000001
 12
1.0
 22
0.0
 32
0.0
 13
1.0
 23
0.0
 33
0.0
 40
0.0
 40
0.0
 40
0.0
 40
0.0
 40
0.2057947174548589
 40
0.4120009194659309
 40
0.6140558403876856
 40
0.8131799780699995
 40
1.0
 40
1.0
 40
1.0
 40
1.0
 10
245.3361948584221
 20
125.0472658316016
 30
0.0
 10
245.3885209480316
 20
124.9899751462461
 30
0.0
 10
245.4932777527629
 20
124.8752792233611
 30
0.0
 10
245.5688848361766
 20
124.650086528971
 30
0.0
 10
245.5699915356115
 20
124.4198813750636
 30
0.0
 10
245.5010485726957
 20
124.2064926859802
 30
0.0
 10
245.4078884797041
 20
124.0980477312465
 30
0.0
 10
245.3627934311531
 20
124.0455538967967
 30
0.0
  0
SPLINE
  5
B0
330
1F
100
AcDbEntity
  8
0
  6
Continuous
 62
     7
370
    15
100
AcDbSpline
210
0.0
220
0.0
230
1.0
 70
     8
 71
     3
 72
    15
 73
    11
 74
     0
 42
0.00000001
 43
0.00000001
 12
1.0
 22
0.0
 32
0.0
 13
1.0
 23
0.0
 33
0.0
 40
0.0
 40
0.0
 40
0.0
 40
0.0
 40
0.1268063254689145
 40
0.2539278462562806
 40
0.3799893342049357
 40
0.5048419921831557
 40
0.629025960840522
 40
0.7532056272939963
 40
0.8780563864678171
 40
1.0
 40
1.0
 40
1.0
 40
1.0
 10
245.3627934311531
 20
124.0455538967967
 30
0.0
 10
245.3343767397284
 20
124.011801730266
 30
0.0
 10
245.2774727231147
 20
123.9442135013511
 30
0.0
 10
245.2415014571526
 20
123.8135600591667
 30
0.0
 10
245.2487846274415
 20
123.6798982543498
 30
0.0
 10
245.3006613534539
 20
123.5561426495655
 30
0.0
 10
245.3899855813577
 20
123.4563539487359
 30
0.0
 10
245.5065455843729
 20
123.3917358049933
 30
0.0
 10
245.6375840680856
 20
123.3658482495802
 30
0.0
 10
245.7220338363756
 20
123.3842024169548
 30
0.0
 10
245.7637613271378
 20
123.3932713980198
 30
0.0
  0
SPLINE
  5
B1
330
1F
100
AcDbEntity
  8
0
  6
Continuous
 62
     7
370
    15
100
AcDbSpline
210
0.0
220
0.0
230
1.0
 70
     8
 71
     3
 72
    12
 73
     8
 74
     0
 42
0.00000001
 43
0.00000001
 12
1.0
 22
0.0
 32
0.0
 13
1.0
 23
0.0
 33
0.0
 40
0.0
 40
0.0
 40
0.0
 40
0.0
 40
0.2058503608063962
 40
0.4120524381974079
 40
0.6141123652871638
 40
0.8132438948796601
 40
1.0
 40
1.0
 40
1.0
 40
1.0
 10
245.7637613271378
 20
123.3932713980198
 30
0.0
 10
245.8389876477053
 20
123.4094347967468
 30
0.0
 10
245.9895688207722
 20
123.4417892110355
 30
0.0
 10
246.2217720980402
 20
123.3938390459326
 30
0.0
 10
246.422262026015
 20
123.2797345881003
 30
0.0
 10
246.5741835973246
 20
123.114147857521
 30
0.0
 10
246.623050136994
 20
122.9802172604532
 30
0.0
 10
246.6466998313568
 20
122.9153995404363
 30
0.0
  0
SPLINE
  5
B2
330
1F
100
AcDbEntity
  8
0
  6
Continuous
 62
     7
370
    15
100
AcDbSpline
210
0.0
220
0.0
230
1.0
 70
     8
 71
     3
 72
    15
 73
    11
 74
     0
 42
0.00000001
 43
0.00000001
 12
1.0
 22
0.0
 32
0.0
 13
1.0
 23
0.0
 33
0.0
 40
0.0
 40
0.0
 40
0.0
 40
0.0
 40
0.1262570244779148
 40
0.2533842629259112
 40
0.3794472754655353
 40
0.5042992006414952
 40
0.6284839951117821
 40
0.7526669526521483
 40
0.8775110341248198
 40
0.9999999999999999
 40
0.9999999999999999
 40
0.9999999999999999
 40
0.9999999999999999
 10
246.6466998313568
 20
122.9153995404363
 30
0.0
 10
246.6621174487218
 20
122.8743850398488
 30
0.0
 10
246.6930589478443
 20
122.7920733503123
 30
0.0
 10
246.7890975083271
 20
122.696176938779
 30
0.0
 10
246.909251037741
 20
122.6357839196376
 30
0.0
 10
247.0427796706259
 20
122.6186389722974
 30
0.0
 10
247.1739148589721
 20
122.6455994544624
 30
0.0
 10
247.2878200968603
 20
122.7134985182605
 30
0.0
 10
247.3752102376851
 20
122.8132757973486
 30
0.0
 10
247.4008021974575
 20
122.8951284804441
 30
0.0
 10
247.4134763334893
 20
122.9356651196599
 30
0.0
  0
SPLINE
  5
B3
330
1F
100
AcDbEntity
  8
0
  6
Continuous
 62
     7
370
    15
100
AcDbSpline
210
0.0
220
0.0
230
1.0
 70
     8
 71
     3
 72
    12
 73
     8
 74
     0
 42
0.00000001
 43
0.00000001
 12
1.0
 22
0.0
 32
0.0
 13
1.0
 23
0.0
 33
0.0
 40
0.0
 40
0.0
 40
0.0
 40
0.0
 40
0.2058712920629633
 40
0.4120906970790925
 40
0.6141696237965912
 40
0.8133048477771505
 40
1.0
 40
1.0
 40
1.0
 40
1.0
 10
247.4134763334893
 20
122.9356651196599
 30
0.0
 10
247.4363653594375
 20
123.0083409243788
 30
0.0
 10
247.4821821149645
 20
123.1538154231652
 30
0.0
 10
247.6388118204972
 20
123.3298104719662
 30
0.0
 10
247.8382294676202
 20
123.4459957067241
 30
0.0
 10
248.0591201971808
 20
123.4951139677281
 30
0.0
 10
248.2011152938646
 20
123.471117507418
 30
0.0
 10
248.2698237155579
 20
123.4595061282039
 30
0.0
  0
SPLINE
  5
B4
330
1F
100
AcDbEntity
  8
0
  6
Continuous
 62
     7
370
    15
100
AcDbSpline
210
0.0
220
0.0
230
1.0
 70
     8
 71
     3
 72
    15
 73
    11
 74
     0
 42
0.00000001
 43
0.00000001
 12
1.0
 22
0.0
 32
0.0
 13
1.0
 23
0.0
 33
0.0
 40
0.0
 40
0.0
 40
0.0
 40
0.0
 40
0.1268663234144562
 40
0.253982092858441
 40
0.3800323404956997
 40
0.5048750229020261
 40
0.629052092664456
 40
0.7532387015848737
 40
0.878096158797746
 40
1.0
 40
1.0
 40
1.0
 40
1.0
 10
248.2698237155579
 20
123.4595061282039
 30
0.0
 10
248.3137633862249
 20
123.4525355519704
 30
0.0
 10
248.4017291222466
 20
123.4385806938759
 30
0.0
 10
248.5340467468633
 20
123.4743877494008
 30
0.0
 10
248.6469851440387
 20
123.5484888780567
 30
0.0
 10
248.7286344257819
 20
123.6554970112987
 30
0.0
 10
248.7703833625712
 20
123.7822070880009
 30
0.0
 10
248.7676220610092
 20
123.9142237379344
 30
0.0
 10
248.723682522374
 20
124.0388280947045
 30
0.0
 10
248.6647422591852
 20
124.1012278006919
 30
0.0
 10
248.6356248711251
 20
124.1320542062044
 30
0.0
  0
SPLINE
  5
B5
330
1F
100
AcDbEntity
  8
0
  6
Continuous
 62
     7
370
    15
100
AcDbSpline
210
0.0
220
0.0
230
1.0
 70
     8
 71
     3
 72
    12
 73
     8
 74
     0
 42
0.00000001
 43
0.00000001
 12
1.0
 22
0.0
 32
0.0
 13
1.0
 23
0.0
 33
0.0
 40
0.0
 40
0.0
 40
0.0
 40
0.0
 40
0.2058350540556286
 40
0.4120769665582438
 40
0.614170895414312
 40
0.8133026989808061
 40
1.0
 40
1.0
 40
1.0
 40
1.0
 10
248.6356248711251
 20
124.1320542062044
 30
0.0
 10
248.5832891837141
 20
124.1877513004898
 30
0.0
 10
248.478514360932
 20
124.2992555812574
 30
0.0
 10
248.4029168518633
 20
124.5219122506734
 30
0.0
 10
248.4018364600089
 20
124.7523407716653
 30
0.0
 10
248.4708151389613
 20
124.9684214275587
 30
0.0
 10
248.5639564986709
 20
125.0798482580317
 30
0.0
 10
248.609026298394
 20
125.1337661410093
 30
0.0
  0
SPLINE
  5
B6
330
1F
100
AcDbEntity
  8
0
  6
Continuous
 62
     7
370
    15
100
AcDbSpline
210
0.0
220
0.0
230
1.0
 70
     8
 71
     3
 72
    15
 73
    11
 74
     0
 42
0.00000001
 43
0.00000001
 12
1.0
 22
0.0
 32
0.0
 13
1.0
 23
0.0
 33
0.0
 40
0.0
 40
0.0
 40
0.0
 40
0.0
 40
0.1267893670770436
 40
0.2538963664144558
 40
0.3799423340172271
 40
0.5047843403924874
 40
0.6289656820024384
 40
0.7531498597637432
 40
0.8780087662579144
 40
1.0
 40
1.0
 40
1.0
 40
1.0
 10
248.609026298394
 20
125.1337661410093
 30
0.0
 10
248.6374391809939
 20
125.168451787664
 30
0.0
 10
248.6943361260434
 20
125.2379099753288
 30
0.0
 10
248.7303197180244
 20
125.3705969557423
 30
0.0
 10
248.7230398917882
 20
125.5055327931573
 30
0.0
 10
248.6711785077979
 20
125.6296889260268
 30
0.0
 10
248.5818697582104
 20
125.7290161690173
 30
0.0
 10
248.4653182500932
 20
125.7923288333265
 30
0.0
 10
248.3342672734871
 20
125.8162001466567
 30
0.0
 10
248.2498009426399
 20
125.7960216245947
 30
0.0
 10
248.2080584024094
 20
125.7860495711088
 30
0.0
  0
SPLINE
  5
B7
330
1F
100
AcDbEntity
  8
0
  6
Continuous
 62
     7
370
    15
100
AcDbSpline
210
0.0
220
0.0
230
1.0
 70
     8
 71
     3
 72
    12
 73
     8
 74
     0
 42
0.00000001
 43
0.00000001
 12
1.0
 22
0.0
 32
0.0
 13
1.0
 23
0.0
 33
0.0
 40
0.0
 40
0.0
 40
0.0
 40
0.0
 40
0.2058928068744935
 40
0.4121327170929716
 40
0.6142233191091365
 40
0.8133475843193317
 40
1.0
 40
1.0
 40
1.0
 40
1.0
 10
248.2080584024094
 20
125.7860495711088
 30
0.0
 10
248.1328196103158
 20
125.7682818834446
 30
0.0
 10
247.9822151851927
 20
125.73271655455
 30
0.0
 10
247.7499816823395
 20
125.7781128814589
 30
0.0
 10
247.549486199
 20
125.8924534823041
 30
0.0
 10
247.3976007723892
 20
126.0607658559826
 30
0.0
 10
247.3487487739421
 20
126.1976777001417
 30
0.0
 10
247.3251124476097
 20
126.2639204973698
 30
0.0
  0
LWPOLYLINE
  5
B8
330
1F
100
AcDbEntity
  8
0
  6
Continuous
 62
     7
370
    15
100
AcDbPolyline
 90
        3
 70
   128
 43
0.0
 10
245.2512954925
 20
123.714308534
 10
245.2862536167
 20
123.8240416164
 10
245.3627934312
 20
123.9305150697
  0
ARC
  5
B9
330
1F
100
AcDbEntity
  8
0
  6
Continuous
 62
     7
370
    15
100
AcDbCircle
 10
248.374694214
 20
123.7234958904
 30
0.0
 40
0.3927063413148368
100
AcDbArc
 50
7.1914380783
 51
48.3604548971
  0
ARC
  5
BA
330
1F
100
AcDbEntity
  8
0
  6
Continuous
 62
     7
370
    15
100
AcDbCircle
 10
244.8797622995
 20
124.4190621249
 30
0.0
 40
0.6870205959282901
100
AcDbArc
 50
314.6747191887
 51
359.9868422374
  0
ARC
  5
BB
330
1F
100
AcDbEntity
  8
0
  6
Continuous
 62
     7
370
    15
100
AcDbCircle
 10
249.092200428
 20
124.5305299289
 30
0.0
 40
0.687163607485891
100
AcDbArc
 50
180.0173982727
 51
228.361004677
  0
ARC
  5
BC
330
1F
100
AcDbEntity
  8
0
  6
Continuous
 62
     7
370
    15
100
AcDbCircle
 10
245.598166878
 20
125.2249482574
 30
0.0
 40
0.3937876544389513
100
AcDbArc
 50
74.7121899925
 51
174.1209021077
  0
ARC
  5
BD
330
1F
100
AcDbEntity
  8
0
  6
Continuous
 62
     7
370
    15
100
AcDbCircle
 10
248.3317879037
 20
125.2970716249
 30
0.0
 40
0.3938774610338772
100
AcDbArc
 50
6.9283137708
 51
108.3084193432
  0
ARC
  5
BE
330
1F
100
AcDbEntity
  8
0
  6
Continuous
 62
     7
370
    15
100
AcDbCircle
 10
245.8834553934
 20
126.270037081
 30
0.0
 40
0.6895406714111827
100
AcDbArc
 50
254.7423640552
 51
348.1671836113
  0
ARC
  5
BF
330
1F
100
AcDbEntity
  8
0
  6
Continuous
 62
     7
370
    15
100
AcDbCircle
 10
247.9917274115
 20
126.3259265436
 30
0.0
 40
0.6897200897294408
100
AcDbArc
 50
194.8722013291
 51
288.2793596654
  0
ARC
  5
C0
330
1F
100
AcDbEntity
  8
0
  6
Continuous
 62
     7
370
    15
100
AcDbCircle
 10
246.9441334671
 20
126.0477214761
 30
0.0
 40
0.3941854098299387
100
AcDbArc
 50
14.8730520518
 51
168.1537663014
  0
ARC
  5
C1
330
1F
100
AcDbEntity
  8
0
  6
Continuous
 62
     7
370
    15
100
AcDbCircle
 10
246.9843750452
 20
124.553500667
 30
0.0
 40
3.500005926835439
100
AcDbArc
 50
180.1085768912
 51
359.8914231088
  0
LINE
  5
C2
330
1F
100
AcDbEntity
  8
0
  6
Continuous
 62
     7
370
    15
100
AcDbLine
 10
253.4948860859
 20
131.5226352776
 30
0.0
 11
241.4572884892
 21
130.4720475341
 31
0.0
  0
ARC
  5
C3
330
1F
100
AcDbEntity
  8
0
  6
Continuous
 62
     7
370
    15
100
AcDbCircle
 10
253.5301845485
 20
131.1246780196
 30
0.0
 40
0.3995196624491391
100
AcDbArc
 50
355.0709886438
 51
95.068820539
  0
LINE
  5
C4
330
1F
100
AcDbEntity
  8
0
  6
Continuous
 62
     7
370
    15
100
AcDbLine
 10
252.875072286
 20
119.0820786173
 30
0.0
 11
253.9282267545
 21
131.0903507287
 31
0.0
  0
ARC
  5
C5
330
1F
100
AcDbEntity
  8
0
  6
Continuous
 62
     7
370
    15
100
AcDbCircle
 10
252.4771207135
 20
119.1173857216
 30
0.0
 40
0.3995147627284611
100
AcDbArc
 50
274.9299566701
 51
354.9298729349
  0
LINE
  5
C6
330
1F
100
AcDbEntity
  8
0
  6
Continuous
 62
     7
370
    15
100
AcDbLine
 10
240.4738640045
 20
117.66876122
 30
0.0
 11
252.5114541505
 21
118.7193489636
 31
0.0
  0
ARC
  5
C7
330
1F
100
AcDbEntity
  8
0
  6
Continuous
 62
     7
370
    15
100
AcDbCircle
 10
240.4385532598
 20
118.066706166
 30
0.0
 40
0.3995084838941467
100
AcDbArc
 50
175.0690780837
 51
275.0707310991
  0
LINE
  5
C8
330
1F
100
AcDbEntity
  8
0
  6
Continuous
 62
     7
370
    15
100
AcDbLine
 10
241.0936778043
 20
130.1093178803
 30
0.0
 11
240.0405233358
 21
118.1010457689
 31
0.0
  0
ARC
  5
C9
330
1F
100
AcDbEntity
  8
0
  6
Continuous
 62
     7
370
    15
100
AcDbCircle
 10
241.4916187061
 20
130.0740221779
 30
0.0
 40
0.3995031262852262
100
AcDbArc
 50
94.929637087
 51
174.9313665242
  0
ARC
  5
CA
330
1F
100
AcDbEntity
  8
0
  6
Continuous
 62
     7
370
    15
100
AcDbCircle
 10
240.4385813991
 20
118.0666910199
 30
0.0
 40
0.3795392458359662
100
AcDbArc
 50
175.070166731
 51
275.0697331533
  0
LINE
  5
CB
330
1F
100
AcDbEntity
  8
0
  6
Continuous
 62
     7
370
    15
100
AcDbLine
 10
240.4721205686
 20
117.6886365751
 30
0.0
 11
252.5097107147
 21
118.7392243186
 31
0.0
  0
ARC
  5
CC
330
1F
100
AcDbEntity
  8
0
  6
Continuous
 62
     7
370
    15
100
AcDbCircle
 10
252.4770950588
 20
119.1173597706
 30
0.0
 40
0.3795394591822877
100
AcDbArc
 50
274.9297829321
 51
354.9297840316
  0
LINE
  5
CD
330
1F
100
AcDbEntity
  8
0
  6
Continuous
 62
     7
370
    15
100
AcDbLine
 10
252.8551494335
 20
119.0838173965
 30
0.0
 11
253.908303902
 21
131.0920885766
 31
0.0
  0
ARC
  5
CE
330
1F
100
AcDbEntity
  8
0
  6
Continuous
 62
     7
370
    15
100
AcDbCircle
 10
253.5301659391
 20
131.1247017875
 30
0.0
 40
0.3795417507188006
100
AcDbArc
 50
355.070617373
 51
95.0692825114
  0
LINE
  5
CF
330
1F
100
AcDbEntity
  8
0
  6
Continuous
 62
     7
370
    15
100
AcDbLine
 10
253.4966295217
 20
131.5027589912
 30
0.0
 11
241.4590319251
 21
130.4521712477
 31
0.0
  0
ARC
  5
D0
330
1F
100
AcDbEntity
  8
0
  6
Continuous
 62
     7
370
    15
100
AcDbCircle
 10
241.4916468965
 20
130.0740446557
 30
0.0
 40
0.3795305730738781
100
AcDbArc
 50
94.9297949333
 51
174.9310078217
  0
LINE
  5
D1
330
1F
100
AcDbEntity
  8
0
  6
Continuous
 62
     7
370
    15
100
AcDbLine
 10
241.1136006569
 20
130.1075781698
 30
0.0
 11
240.0604461883
 21
118.0993069897
 31
0.0
  0
LINE
  5
D2
330
1F
100
AcDbEntity
  8
0
  6
Continuous
 62
     7
370
    15
100
AcDbLine
 10
241.3580020522
 20
118.9340802843
 30
0.0
 11
240.4390027379
 21
118.0509638975
 31
0.0
  0
LINE
  5
D3
330
1F
100
AcDbEntity
  8
0
  6
Continuous
 62
     7
370
    15
100
AcDbLine
 10
251.902898178
 20
119.6488182063
 30
0.0
 11
252.4765928839
 21
119.101551641
 31
0.0
  0
LINE
  5
D4
330
1F
100
AcDbEntity
  8
0
  6
Continuous
 62
     7
370
    15
100
AcDbLine
 10
242.0658444618
 20
129.4619089926
 30
0.0
 11
241.4921497558
 21
130.0592369402
 31
0.0
  0
LINE
  5
D5
330
1F
100
AcDbEntity
  8
0
  6
Continuous
 62
     7
370
    15
100
AcDbLine
 10
243.4083198761
 20
119.9476442302
 30
0.0
 11
250.1453285669
 21
120.5356198365
 31
0.0
  0
LINE
  5
D6
330
1F
100
AcDbEntity
  8
0
  6
Continuous
 62
     7
370
    15
100
AcDbLine
 10
252.6107480382
 20
130.1594174469
 30
0.0
 11
253.5297473525
 21
131.1098228211
 31
0.0
  0
ARC
  5
D7
330
1F
100
AcDbEntity
  8
0
  6
Continuous
 62
     7
370
    15
100
AcDbCircle
 10
243.3200609038
 20
120.9425245283
 30
0.0
 40
0.9987874917380748
100
AcDbArc
 50
175.0701912282
 51
275.0696179547
  0
LINE
  5
D8
330
1F
100
AcDbEntity
  8
0
  6
Continuous
 62
     7
370
    15
100
AcDbLine
 10
250.5604302143
 20
129.2437522674
 30
0.0
 11
243.8234215234
 21
128.6557766611
 31
0.0
  0
ARC
  5
D9
330
1F
100
AcDbEntity
  8
0
  6
Continuous
 62
     7
370
    15
100
AcDbCircle
 10
250.6486932771
 20
128.2488828562
 30
0.0
 40
0.9987770090234318
100
AcDbArc
 50
355.069458885
 51
95.0699068794
  0
LINE
  5
DA
330
1F
100
AcDbEntity
  8
0
  6
Continuous
 62
     7
370
    15
100
AcDbLine
 10
251.0543664549
 20
121.4424449021
 30
0.0
 11
251.6437744354
 21
128.1630399639
 31
0.0
  0
ARC
  5
DB
330
1F
100
AcDbEntity
  8
0
  6
Continuous
 62
     7
370
    15
100
AcDbCircle
 10
250.0594831303
 20
121.5307153399
 30
0.0
 40
0.9987915197345814
100
AcDbArc
 50
274.930615806
 51
354.929742242
  0
LINE
  5
DC
330
1F
100
AcDbEntity
  8
0
  6
Continuous
 62
     7
370
    15
100
AcDbLine
 10
242.9143836354
 20
127.7489515955
 30
0.0
 11
242.3249682044
 21
121.0283556024
 31
0.0
  0
ARC
  5
DD
330
1F
100
AcDbEntity
  8
0
  6
Continuous
 62
     7
370
    15
100
AcDbCircle
 10
243.9092530498
 20
127.6606951019
 30
0.0
 40
0.9987764316236627
100
AcDbArc
 50
94.9298895357
 51
174.9304685123
  0
CIRCLE
  5
DE
330
1F
100
AcDbEntity
  8
0
  6
Continuous
 62
     7
370
    15
100
AcDbCircle
 10
246.9780173363
 20
124.5934440455
 30
0.0
 40
3.7937964193989
  0
LINE
  5
DF
330
1F
100
AcDbEntity
  8
0
  6
Continuous
 62
     7
370
    15
100
AcDbLine
 10
243.1988319014
 20
124.8458626682
 30
0.0
 11
243.1843703245
 21
124.5154778475
 31
0.0
  0
ARC
  5
E0
330
1F
100
AcDbEntity
  8
0
  6
Continuous
 62
     7
370
    15
100
AcDbCircle
 10
246.9840752622
 20
124.5078560357
 30
0.0
 40
3.800304696179256
100
AcDbArc
 50
0.1149112974
 51
174.897256968
  0
SPLINE
  5
E1
330
1F
100
AcDbEntity
  8
0
  6
Continuous
 62
     7
370
    15
100
AcDbSpline
210
0.0
220
0.0
230
1.0
 70
     8
 71
     3
 72
    11
 73
     7
 74
     0
 42
0.00000001
 43
0.00000001
 12
1.0
 22
0.0
 32
0.0
 13
1.0
 23
0.0
 33
0.0
 40
0.0
 40
0.0
 40
0.0
 40
0.0
 40
0.0076253061955893
 40
0.3209848162118217
 40
0.6632181586875487
 40
0.9999999999999999
 40
0.9999999999999999
 40
0.9999999999999999
 40
0.9999999999999999
 10
241.8469240521096
 20
119.427074026537
 30
0.0
 10
241.845809600565
 20
119.4258979794831
 30
0.0
 10
241.798897120589
 20
119.3763926563192
 30
0.0
 10
241.6948050987958
 20
119.2683516267705
 30
0.0
 10
241.5253691450974
 20
119.0967695376773
 30
0.0
 10
241.4134916788808
 20
118.9880189993845
 30
0.0
 10
241.3580020521782
 20
118.9340802843094
 30
0.0
  0
SPLINE
  5
E2
330
1F
100
AcDbEntity
  8
0
  6
Continuous
 62
     7
370
    15
100
AcDbSpline
210
0.0
220
0.0
230
1.0
 70
     8
 71
     3
 72
    11
 73
     7
 74
     0
 42
0.00000001
 43
0.00000001
 12
1.0
 22
0.0
 32
0.0
 13
1.0
 23
0.0
 33
0.0
 40
0.0
 40
0.0
 40
0.0
 40
0.0
 40
0.337233923327075
 40
0.6736350982902103
 40
0.9918871373229096
 40
1.0
 40
1.0
 40
1.0
 40
1.0
 10
251.9028981779717
 20
119.6488182062626
 30
0.0
 10
251.847992636534
 20
119.7018360680665
 30
0.0
 10
251.7383171346209
 20
119.8077408720525
 30
0.0
 10
251.5668851313527
 20
119.9806226023699
 30
0.0
 10
251.4613610305189
 20
120.0899309871631
 30
0.0
 10
251.4134389038925
 20
120.1405072141781
 30
0.0
 10
251.4122476433419
 20
120.1417644510389
 30
0.0
  0
SPLINE
  5
E3
330
1F
100
AcDbEntity
  8
0
  6
Continuous
 62
     7
370
    15
100
AcDbSpline
210
0.0
220
0.0
230
1.0
 70
     8
 71
     3
 72
    11
 73
     7
 74
     0
 42
0.00000001
 43
0.00000001
 12
1.0
 22
0.0
 32
0.0
 13
1.0
 23
0.0
 33
0.0
 40
0.0
 40
0.0
 40
0.0
 40
0.0
 40
0.0081195107309051
 40
0.3263697776524908
 40
0.6627685612941433
 40
1.0
 40
1.0
 40
1.0
 40
1.0
 10
242.5565024469994
 20
128.9759336972952
 30
0.0
 10
242.555308682904
 20
128.977055904567
 30
0.0
 10
242.5073244465025
 20
129.0221638611794
 30
0.0
 10
242.4018856247346
 20
129.1232916193908
 30
0.0
 10
242.2304183411021
 20
129.2924832263487
 30
0.0
 10
242.1207476085126
 20
129.4053872180508
 30
0.0
 10
242.065844461789
 20
129.4619089926005
 30
0.0
  0
SPLINE
  5
E4
330
1F
100
AcDbEntity
  8
0
  6
Continuous
 62
     7
370
    15
100
AcDbSpline
210
0.0
220
0.0
230
1.0
 70
     8
 71
     3
 72
    11
 73
     7
 74
     0
 42
0.00000001
 43
0.00000001
 12
1.0
 22
0.0
 32
0.0
 13
1.0
 23
0.0
 33
0.0
 40
0.0
 40
0.0
 40
0.0
 40
0.0
 40
0.3367870891521446
 40
0.6790115135647117
 40
0.992367720500505
 40
1.0
 40
1.0
 40
1.0
 40
1.0
 10
252.610748038163
 20
130.1594174469233
 30
0.0
 10
252.5552576002872
 20
130.1026468201643
 30
0.0
 10
252.4433808466229
 20
129.9881890204347
 30
0.0
 10
252.2739166529627
 20
129.8217013469248
 30
0.0
 10
252.1699109161036
 20
129.7221361379138
 30
0.0
 10
252.1229355410837
 20
129.677986244671
 30
0.0
 10
252.1218185876511
 20
129.676936473918
 30
0.0
  0
LINE
  5
E5
330
1F
100
AcDbEntity
  8
0
  6
HIDDEN
 62
     7
370
     0
100
AcDbLine
 10
163.929746822
 20
90.1241528804
 30
0.0
 11
163.929746822
 21
128.9241540248
 31
0.0
  0
LINE
  5
E6
330
1F
100
AcDbEntity
  8
0
  6
HIDDEN
 62
     7
370
     0
100
AcDbLine
 10
143.929747269
 20
89.82415339
 30
0.0
 11
143.929747269
 21
129.2241535152
 31
0.0
  0
SPLINE
  5
E7
330
1F
100
AcDbEntity
  8
0
  6
HIDDEN
 62
     7
370
     0
100
AcDbSpline
210
0.0
220
0.0
230
1.0
 70
     8
 71
     3
 72
    58
 73
    54
 74
     0
 42
0.00000001
 43
0.00000001
 12
1.0
 22
0.0
 32
0.0
 13
1.0
 23
0.0
 33
0.0
 40
-0.0624999999999993
 40
-0.0624999999999993
 40
0.0
 40
0.0
 40
0.0312500000000002
 40
0.0312500000000002
 40
0.0625000000000003
 40
0.0625000000000003
 40
0.0937500000000005
 40
0.0937500000000005
 40
0.1250000000000007
 40
0.1250000000000007
 40
0.1875000000000008
 40
0.1875000000000008
 40
0.2500000000000009
 40
0.2500000000000009
 40
0.2812500000000009
 40
0.2812500000000009
 40
0.312500000000001
 40
0.312500000000001
 40
0.3437500000000011
 40
0.3437500000000011
 40
0.3750000000000011
 40
0.3750000000000011
 40
0.4062500000000012
 40
0.4062500000000012
 40
0.4375000000000013
 40
0.4375000000000013
 40
0.4687500000000013
 40
0.4687500000000013
 40
0.5000000000000013
 40
0.5000000000000013
 40
0.5625000000000014
 40
0.5625000000000014
 40
0.6250000000000016
 40
0.6250000000000016
 40
0.6562500000000016
 40
0.6562500000000016
 40
0.6875000000000014
 40
0.6875000000000014
 40
0.7187500000000014
 40
0.7187500000000014
 40
0.7500000000000013
 40
0.7500000000000013
 40
0.7812500000000013
 40
0.7812500000000013
 40
0.8125000000000013
 40
0.8125000000000013
 40
0.8437500000000012
 40
0.8437500000000012
 40
0.8750000000000012
 40
0.8750000000000012
 40
0.9375000000000007
 40
0.9375000000000007
 40
1.0
 40
1.0
 40
1.03125
 40
1.03125
 10
153.9297472690247
 20
109.2597173381391
 30
0.0
 10
153.9297472690247
 20
109.6563715098112
 30
0.0
 10
153.9427293066969
 20
109.7863636706517
 30
0.0
 10
153.9935801089552
 20
110.0420832831039
 30
0.0
 10
154.0320720130081
 20
110.1691419669651
 30
0.0
 10
154.1324872987346
 20
110.4113051646239
 30
0.0
 10
154.1939234380076
 20
110.5261469490086
 30
0.0
 10
154.3390569143184
 20
110.7434891465788
 30
0.0
 10
154.4234786031695
 20
110.8463307944265
 30
0.0
 10
154.7000787773344
 20
111.1228742751781
 30
0.0
 10
154.9230776886015
 20
111.2718569113103
 30
0.0
 10
155.4043122061872
 20
111.471399974865
 30
0.0
 10
155.6676116216962
 20
111.5240104478964
 30
0.0
 10
156.0591750617364
 20
111.5242245066489
 30
0.0
 10
156.1917626723411
 20
111.5112256572433
 30
0.0
 10
156.4483283779404
 20
111.460175573217
 30
0.0
 10
156.5730381441209
 20
111.4224043344048
 30
0.0
 10
156.8152773291479
 20
111.3222124262923
 30
0.0
 10
156.9322939829216
 20
111.2596270324677
 30
0.0
 10
157.1489371877679
 20
111.1149219467572
 30
0.0
 10
157.2499439442264
 20
111.032302605377
 30
0.0
 10
157.436750039883
 20
110.845658570587
 30
0.0
 10
157.5194635754148
 20
110.7447127226271
 30
0.0
 10
157.6643337047901
 20
110.5282315189454
 30
0.0
 10
157.7270040008868
 20
110.4113143539369
 30
0.0
 10
157.8274319389231
 20
110.1691178847385
 30
0.0
 10
157.8653031178528
 20
110.044456893835
 30
0.0
 10
157.9165655156285
 20
109.788057544767
 30
0.0
 10
157.9296991562692
 20
109.6554466194691
 30
0.0
 10
157.929843089408
 20
109.263772007134
 30
0.0
 10
157.8774778321432
 20
109.0004879874734
 30
0.0
 10
157.6783171687925
 20
108.5189752736136
 30
0.0
 10
157.5295194954306
 20
108.2958541865687
 30
0.0
 10
157.2532188368444
 20
108.0190220380612
 30
0.0
 10
157.1504537897847
 20
107.9345148237769
 30
0.0
 10
156.9332365159902
 20
107.789193882091
 30
0.0
 10
156.8184668225525
 20
107.7276716588289
 30
0.0
 10
156.5764802854079
 20
107.6270752555569
 30
0.0
 10
156.4493977125165
 20
107.5884473674683
 30
0.0
 10
156.1937230125133
 20
107.5373692574021
 30
0.0
 10
156.0637824951691
 20
107.5242801176349
 30
0.0
 10
155.7995191274077
 20
107.5240285992764
 30
0.0
 10
155.6693082337608
 20
107.5369030693327
 30
0.0
 10
155.4135582883272
 20
107.5875219664648
 30
0.0
 10
155.2865409039598
 20
107.6258697852606
 30
0.0
 10
155.0441891762081
 20
107.726103905454
 30
0.0
 10
154.9292863969218
 20
107.787448092444
 30
0.0
 10
154.7118642317728
 20
107.9323530969731
 30
0.0
 10
154.6089278343281
 20
108.0166919890951
 30
0.0
 10
154.3320906771712
 20
108.2930931021369
 30
0.0
 10
154.182935436107
 20
108.5159367351793
 30
0.0
 10
153.9829648508718
 20
108.9970000164299
 30
0.0
 10
153.9297472690247
 20
109.2597173381391
 30
0.0
 10
153.9297472690247
 20
109.6563715098112
 30
0.0
  0
SPLINE
  5
E8
330
1F
100
AcDbEntity
  8
0
  6
HIDDEN
 62
     7
370
     0
100
AcDbSpline
210
0.0
220
0.0
230
1.0
 70
     8
 71
     3
 72
    12
 73
     8
 74
     0
 42
0.00000001
 43
0.00000001
 12
1.0
 22
0.0
 32
0.0
 13
1.0
 23
0.0
 33
0.0
 40
0.0
 40
0.0
 40
0.0
 40
0.0
 40
0.2499999999999993
 40
0.2499999999999993
 40
0.4999999999999987
 40
0.4999999999999987
 40
1.0
 40
1.0
 40
1.0
 40
1.0
 10
150.8616492710239
 20
103.6949404569355
 30
0.0
 10
150.8241373849792
 20
103.6949404569355
 30
0.0
 10
150.7888500372745
 20
103.6801356426487
 30
0.0
 10
150.7299201890361
 20
103.6365437695229
 30
0.0
 10
150.706394462567
 20
103.6090303434369
 30
0.0
 10
150.646135674799
 20
103.5198986113233
 30
0.0
 10
150.6205409125096
 20
103.4535127607055
 30
0.0
 10
150.6018416498885
 20
103.3859083255281
 30
0.0
  0
LINE
  5
E9
330
1F
100
AcDbEntity
  8
0
  6
HIDDEN
 62
     7
370
     0
100
AcDbLine
 10
152.9978451883
 20
103.6949402655
 30
0.0
 11
150.8616491784
 21
103.6949402655
 31
0.0
  0
SPLINE
  5
EA
330
1F
100
AcDbEntity
  8
0
  6
HIDDEN
 62
     7
370
     0
100
AcDbSpline
210
0.0
220
0.0
230
1.0
 70
     8
 71
     3
 72
    12
 73
     8
 74
     0
 42
0.00000001
 43
0.00000001
 12
1.0
 22
0.0
 32
0.0
 13
1.0
 23
0.0
 33
0.0
 40
0.0
 40
0.0
 40
0.0
 40
0.0
 40
0.4999999999999971
 40
0.4999999999999971
 40
0.7499999999999986
 40
0.7499999999999986
 40
1.0
 40
1.0
 40
1.0
 40
1.0
 10
153.2576528881608
 20
103.3859083255281
 30
0.0
 10
153.2389596550304
 20
103.4534909619685
 30
0.0
 10
153.2133043576186
 20
103.5199735314459
 30
0.0
 10
153.1531437349322
 20
103.6089686143434
 30
0.0
 10
153.1290714231778
 20
103.6369705113426
 30
0.0
 10
153.0706899028273
 20
103.6800469120078
 30
0.0
 10
153.0352210751742
 20
103.6949404569355
 30
0.0
 10
152.9978452670255
 20
103.6949404569355
 30
0.0
  0
ELLIPSE
  5
EB
330
1F
100
AcDbEntity
  8
0
  6
HIDDEN
 62
     7
370
     0
100
AcDbEllipse
 10
142.9808180966
 20
109.5241534526
 30
0.0
 11
-9.367417879781755
 21
19.74174915274993
 31
0.0
210
0.0
220
0.0
230
1.0
 40
0.3419987131
 41
3.292664382516896
 42
4.239566697061003
  0
SPLINE
  5
EC
330
1F
100
AcDbEntity
  8
0
  6
HIDDEN
 62
     7
370
     0
100
AcDbSpline
210
0.0
220
0.0
230
1.0
 70
     8
 71
     3
 72
    12
 73
     8
 74
     0
 42
0.00000001
 43
0.00000001
 12
1.0
 22
0.0
 32
0.0
 13
1.0
 23
0.0
 33
0.0
 40
0.0
 40
0.0
 40
0.0
 40
0.0
 40
0.2500000000000012
 40
0.2500000000000012
 40
0.5000000000000024
 40
0.5000000000000024
 40
1.0
 40
1.0
 40
1.0
 40
1.0
 10
152.9978452670255
 20
90.39249707235379
 30
0.0
 10
153.0353571530702
 20
90.39249707235379
 30
0.0
 10
153.0706445007749
 20
90.39700061661634
 30
0.0
 10
153.1295743490133
 20
90.41037381606962
 30
0.0
 10
153.1531000754824
 20
90.41885871864076
 30
0.0
 10
153.2133588632505
 20
90.44660652247534
 30
0.0
 10
153.2389536255398
 20
90.46759638621569
 30
0.0
 10
153.2576528881608
 20
90.48939716940524
 30
0.0
  0
LINE
  5
ED
330
1F
100
AcDbEntity
  8
0
  6
HIDDEN
 62
     7
370
     0
100
AcDbLine
 10
150.8616491784
 20
90.3924967165
 30
0.0
 11
152.9978451883
 21
90.3924967165
 31
0.0
  0
SPLINE
  5
EE
330
1F
100
AcDbEntity
  8
0
  6
HIDDEN
 62
     7
370
     0
100
AcDbSpline
210
0.0
220
0.0
230
1.0
 70
     8
 71
     3
 72
    12
 73
     8
 74
     0
 42
0.00000001
 43
0.00000001
 12
1.0
 22
0.0
 32
0.0
 13
1.0
 23
0.0
 33
0.0
 40
0.0
 40
0.0
 40
0.0
 40
0.0
 40
0.4999999999999947
 40
0.4999999999999947
 40
0.7499999999999973
 40
0.7499999999999973
 40
1.0
 40
1.0
 40
1.0
 40
1.0
 10
150.6018416498885
 20
90.48939716940524
 30
0.0
 10
150.620534883019
 20
90.46760341577728
 30
0.0
 10
150.6461901804308
 20
90.44658325406765
 30
0.0
 10
150.7063508031172
 20
90.41887790810394
 30
0.0
 10
150.7304231148716
 20
90.41024269191054
 30
0.0
 10
150.7888046352221
 20
90.39702804668397
 30
0.0
 10
150.8242734628752
 20
90.39249707235378
 30
0.0
 10
150.8616492710239
 20
90.39249707235378
 30
0.0
  0
ELLIPSE
  5
EF
330
1F
100
AcDbEntity
  8
0
  6
HIDDEN
 62
     7
370
     0
100
AcDbEllipse
 10
160.8786764415
 20
109.5241534526
 30
0.0
 11
9.367417879781613
 21
19.74174915274993
 31
0.0
210
0.0
220
0.0
230
1.0
 40
0.3419987131
 41
2.043618610118592
 42
2.990520924662726
  0
SPLINE
  5
F0
330
1F
100
AcDbEntity
  8
0
  6
HIDDEN
 62
     7
370
     0
100
AcDbSpline
210
0.0
220
0.0
230
1.0
 70
     8
 71
     3
 72
    12
 73
     8
 74
     0
 42
0.00000001
 43
0.00000001
 12
1.0
 22
0.0
 32
0.0
 13
1.0
 23
0.0
 33
0.0
 40
0.0
 40
0.0
 40
0.0
 40
0.0
 40
0.2499999999999989
 40
0.2499999999999989
 40
0.4999999999999979
 40
0.4999999999999979
 40
1.0
 40
1.0
 40
1.0
 40
1.0
 10
150.8616492710239
 20
128.6558098328206
 30
0.0
 10
150.8241373849793
 20
128.6558098328206
 30
0.0
 10
150.7888500372745
 20
128.6513062885581
 30
0.0
 10
150.7299201890361
 20
128.6379330891048
 30
0.0
 10
150.706394462567
 20
128.6294481865337
 30
0.0
 10
150.646135674799
 20
128.6017003826991
 30
0.0
 10
150.6205409125096
 20
128.5807105189587
 30
0.0
 10
150.6018416498885
 20
128.5589097357692
 30
0.0
  0
LINE
  5
F1
330
1F
100
AcDbEntity
  8
0
  6
HIDDEN
 62
     7
370
     0
100
AcDbLine
 10
152.9978451883
 20
128.6558101887
 30
0.0
 11
150.8616491784
 21
128.6558101887
 31
0.0
  0
SPLINE
  5
F2
330
1F
100
AcDbEntity
  8
0
  6
HIDDEN
 62
     7
370
     0
100
AcDbSpline
210
0.0
220
0.0
230
1.0
 70
     8
 71
     3
 72
    12
 73
     8
 74
     0
 42
0.00000001
 43
0.00000001
 12
1.0
 22
0.0
 32
0.0
 13
1.0
 23
0.0
 33
0.0
 40
0.0
 40
0.0
 40
0.0
 40
0.0
 40
0.4999999999999969
 40
0.4999999999999969
 40
0.7499999999999984
 40
0.7499999999999984
 40
1.0
 40
1.0
 40
1.0
 40
1.0
 10
153.2576528881608
 20
128.5589097357692
 30
0.0
 10
153.2389596550304
 20
128.5807034893971
 30
0.0
 10
153.2133043576186
 20
128.6017236511068
 30
0.0
 10
153.1531437349322
 20
128.6294289970705
 30
0.0
 10
153.1290714231778
 20
128.6380642132638
 30
0.0
 10
153.0706899028273
 20
128.6512788584904
 30
0.0
 10
153.0352210751742
 20
128.6558098328206
 30
0.0
 10
152.9978452670255
 20
128.6558098328206
 30
0.0
  0
ELLIPSE
  5
F3
330
1F
100
AcDbEntity
  8
0
  6
HIDDEN
 62
     7
370
     0
100
AcDbEllipse
 10
142.9808180966
 20
109.5241534526
 30
0.0
 11
9.367417879781812
 21
19.74174915274993
 31
0.0
210
0.0
220
0.0
230
1.0
 40
0.3419987131
 41
5.185211263708413
 42
6.132113578252572
  0
SPLINE
  5
F4
330
1F
100
AcDbEntity
  8
0
  6
HIDDEN
 62
     7
370
     0
100
AcDbSpline
210
0.0
220
0.0
230
1.0
 70
     8
 71
     3
 72
    12
 73
     8
 74
     0
 42
0.00000001
 43
0.00000001
 12
1.0
 22
0.0
 32
0.0
 13
1.0
 23
0.0
 33
0.0
 40
0.0
 40
0.0
 40
0.0
 40
0.0
 40
0.2500000000000012
 40
0.2500000000000012
 40
0.5000000000000023
 40
0.5000000000000023
 40
1.0
 40
1.0
 40
1.0
 40
1.0
 10
152.9978452670255
 20
115.3533664482391
 30
0.0
 10
153.0353571530702
 20
115.3533664482391
 30
0.0
 10
153.0706445007749
 20
115.3681712625258
 30
0.0
 10
153.1295743490133
 20
115.4117631356517
 30
0.0
 10
153.1531000754824
 20
115.4392765617377
 30
0.0
 10
153.2133588632505
 20
115.5284082938513
 30
0.0
 10
153.2389536255398
 20
115.5947941444691
 30
0.0
 10
153.2576528881608
 20
115.6623985796464
 30
0.0
  0
LINE
  5
F5
330
1F
100
AcDbEntity
  8
0
  6
HIDDEN
 62
     7
370
     0
100
AcDbLine
 10
150.8616491784
 20
115.3533666397
 30
0.0
 11
152.9978451883
 21
115.3533666397
 31
0.0
  0
SPLINE
  5
F6
330
1F
100
AcDbEntity
  8
0
  6
HIDDEN
 62
     7
370
     0
100
AcDbSpline
210
0.0
220
0.0
230
1.0
 70
     8
 71
     3
 72
    12
 73
     8
 74
     0
 42
0.00000001
 43
0.00000001
 12
1.0
 22
0.0
 32
0.0
 13
1.0
 23
0.0
 33
0.0
 40
0.0
 40
0.0
 40
0.0
 40
0.0
 40
0.4999999999999987
 40
0.4999999999999987
 40
0.7499999999999993
 40
0.7499999999999993
 40
1.0
 40
1.0
 40
1.0
 40
1.0
 10
150.6018416498886
 20
115.6623985796465
 30
0.0
 10
150.620534883019
 20
115.5948159432061
 30
0.0
 10
150.6461901804308
 20
115.5283333737287
 30
0.0
 10
150.7063508031172
 20
115.4393382908312
 30
0.0
 10
150.7304231148716
 20
115.411336393832
 30
0.0
 10
150.7888046352221
 20
115.3682599931668
 30
0.0
 10
150.8242734628752
 20
115.3533664482391
 30
0.0
 10
150.8616492710239
 20
115.3533664482391
 30
0.0
  0
ELLIPSE
  5
F7
330
1F
100
AcDbEntity
  8
0
  6
HIDDEN
 62
     7
370
     0
100
AcDbEllipse
 10
160.8786764415
 20
109.5241534526
 30
0.0
 11
-9.367417879781694
 21
19.74174915274993
 31
0.0
210
0.0
220
0.0
230
1.0
 40
0.3419987131
 41
0.151071728927057
 42
1.097974043471191
  0
LINE
  5
F8
330
1F
100
AcDbEntity
  8
0
  6
HIDDEN
 62
     7
370
     0
100
AcDbLine
 10
163.929746822
 20
91.5241542274
 30
0.0
 11
163.929746822
 21
127.5055001492
 31
0.0
  0
SPLINE
  5
F9
330
1F
100
AcDbEntity
  8
0
  6
HIDDEN
 62
     7
370
     0
100
AcDbSpline
210
0.0
220
0.0
230
1.0
 70
     8
 71
     3
 72
    66
 73
    62
 74
     0
 42
0.00000001
 43
0.00000001
 12
1.0
 22
0.0
 32
0.0
 13
1.0
 23
0.0
 33
0.0
 40
-0.0312499999999991
 40
-0.0312499999999991
 40
0.0
 40
0.0
 40
0.03125
 40
0.03125
 40
0.0625
 40
0.0625
 40
0.09375
 40
0.09375
 40
0.125
 40
0.125
 40
0.15625
 40
0.15625
 40
0.1874999999999999
 40
0.1874999999999999
 40
0.2187499999999999
 40
0.2187499999999999
 40
0.2499999999999999
 40
0.2499999999999999
 40
0.2812499999999999
 40
0.2812499999999999
 40
0.3124999999999999
 40
0.3124999999999999
 40
0.3437499999999999
 40
0.3437499999999999
 40
0.3749999999999999
 40
0.3749999999999999
 40
0.4062499999999999
 40
0.4062499999999999
 40
0.4374999999999999
 40
0.4374999999999999
 40
0.4687499999999999
 40
0.4687499999999999
 40
0.4999999999999999
 40
0.4999999999999999
 40
0.5624999999999998
 40
0.5624999999999998
 40
0.5937500000000001
 40
0.5937500000000001
 40
0.6250000000000004
 40
0.6250000000000004
 40
0.6562500000000008
 40
0.6562500000000008
 40
0.6875000000000011
 40
0.6875000000000011
 40
0.7187500000000014
 40
0.7187500000000014
 40
0.7500000000000017
 40
0.7500000000000017
 40
0.781250000000002
 40
0.781250000000002
 40
0.8125000000000023
 40
0.8125000000000023
 40
0.8437500000000027
 40
0.8437500000000027
 40
0.875000000000003
 40
0.875000000000003
 40
0.9375000000000017
 40
0.9375000000000017
 40
0.9687500000000009
 40
0.9687500000000009
 40
1.0
 40
1.0
 40
1.03125
 40
1.03125
 10
218.4297472690247
 20
103.12017329975
 30
0.0
 10
218.4297472690247
 20
103.4247374937676
 30
0.0
 10
218.413488721609
 20
103.5754302237306
 30
0.0
 10
218.3498316733539
 20
103.8736701594793
 30
0.0
 10
218.3016422602737
 20
104.0228062506488
 30
0.0
 10
218.1760698738745
 20
104.3084732365486
 30
0.0
 10
218.099264337885
 20
104.4447637537629
 30
0.0
 10
217.9178503397267
 20
104.7039831912557
 30
0.0
 10
217.8124270496435
 20
104.8272255575378
 30
0.0
 10
217.5821644880758
 20
105.0491314567367
 30
0.0
 10
217.4564775003535
 20
105.1492854956293
 30
0.0
 10
217.1833009037958
 20
105.3268719838071
 30
0.0
 10
217.0381803278752
 20
105.4024911042388
 30
0.0
 10
216.7374828871567
 20
105.5244458130105
 30
0.0
 10
216.5796770735485
 20
105.5716376935536
 30
0.0
 10
216.2568605216707
 20
105.6347428406444
 30
0.0
 10
216.0944880190459
 20
105.6504119388034
 30
0.0
 10
215.7678560317816
 20
105.6505947953466
 30
0.0
 10
215.6019300996161
 20
105.6345855993346
 30
0.0
 10
215.2811107936216
 20
105.5719101189122
 30
0.0
 10
215.1251522828703
 20
105.5255697988049
 30
0.0
 10
214.8221693116928
 20
105.4029857167977
 30
0.0
 10
214.6761449935974
 20
105.3267280440547
 30
0.0
 10
214.4055497020914
 20
105.1510432215753
 30
0.0
 10
214.279043636423
 20
105.0507387191532
 30
0.0
 10
214.0460643163646
 20
104.8263027928648
 30
0.0
 10
213.9428050802867
 20
104.7053769144258
 30
0.0
 10
213.761750855627
 20
104.4471977353627
 30
0.0
 10
213.6833255599825
 20
104.3082691388534
 30
0.0
 10
213.5578476540439
 20
104.0227743580755
 30
0.0
 10
213.5104456202632
 20
103.8765275244803
 30
0.0
 10
213.4462416243079
 20
103.5773321541413
 30
0.0
 10
213.4298106227126
 20
103.4236454015205
 30
0.0
 10
213.4296211229095
 20
102.9727462987694
 30
0.0
 10
213.4951964060811
 20
102.6736271249573
 30
0.0
 10
213.6820388336999
 20
102.2686101189793
 30
0.0
 10
213.7597555133147
 20
102.138729527321
 30
0.0
 10
213.9419989987651
 20
101.8968752781358
 30
0.0
 10
214.045221967428
 20
101.786090756396
 30
0.0
 10
214.2754563901115
 20
101.5837744398978
 30
0.0
 10
214.4038600204771
 20
101.4916853270208
 30
0.0
 10
214.6749072132843
 20
101.3340063699707
 30
0.0
 10
214.8182954406059
 20
101.2674206528505
 30
0.0
 10
215.1211455529794
 20
101.1586538767409
 30
0.0
 10
215.2797193295141
 20
101.1171648946564
 30
0.0
 10
215.5993661415305
 20
101.0622005734611
 30
0.0
 10
215.76244089226
 20
101.0480982794283
 30
0.0
 10
216.0928938388705
 20
101.0478622036943
 30
0.0
 10
216.2554604976278
 20
101.0616636911953
 30
0.0
 10
216.5754822197527
 20
101.1161682634777
 30
0.0
 10
216.7346259070631
 20
101.1575817525639
 30
0.0
 10
217.037106915643
 20
101.2656927359176
 30
0.0
 10
217.1806834016782
 20
101.3320275248882
 30
0.0
 10
217.4526477384363
 20
101.4896628914462
 30
0.0
 10
217.5809920439921
 20
101.5814545195446
 30
0.0
 10
217.9264633774258
 20
101.8839775391015
 30
0.0
 10
218.112971829318
 20
102.1302396874242
 30
0.0
 10
218.3005401713681
 20
102.5347285206862
 30
0.0
 10
218.3488726830732
 20
102.6772608579828
 30
0.0
 10
218.4134864905364
 20
102.9707164262514
 30
0.0
 10
218.4297472690247
 20
103.12017329975
 30
0.0
 10
218.4297472690247
 20
103.4247374937676
 30
0.0
  0
LINE
  5
FA
330
1F
100
AcDbEntity
  8
0
  6
HIDDEN
 62
     7
370
     0
100
AcDbLine
 10
143.929747269
 20
93.7241542155
 30
0.0
 11
143.929747269
 21
125.3057031894
 31
0.0
  0
SPLINE
  5
FB
330
1F
100
AcDbEntity
  8
0
  6
HIDDEN
 62
     7
370
     0
100
AcDbSpline
210
0.0
220
0.0
230
1.0
 70
     8
 71
     3
 72
    18
 73
    14
 74
     0
 42
0.00000001
 43
0.00000001
 12
1.0
 22
0.0
 32
0.0
 13
1.0
 23
0.0
 33
0.0
 40
0.0
 40
0.0
 40
0.0
 40
0.0
 40
0.249999999999998
 40
0.249999999999998
 40
0.499999999999996
 40
0.499999999999996
 40
0.624999999999997
 40
0.624999999999997
 40
0.749999999999998
 40
0.749999999999998
 40
0.874999999999999
 40
0.874999999999999
 40
1.0
 40
1.0
 40
1.0
 40
1.0
 10
142.6736629514617
 20
119.3485933707385
 30
0.0
 10
142.7079639959945
 20
119.2405831849409
 30
0.0
 10
142.7457842672912
 20
119.1333060969129
 30
0.0
 10
142.8324025877521
 20
118.9218093995963
 30
0.0
 10
142.8807739224955
 20
118.8174230494267
 30
0.0
 10
142.970176904614
 20
118.6665481267824
 30
0.0
 10
143.0027741884913
 20
118.6172031237468
 30
0.0
 10
143.0791560924362
 20
118.5225974852765
 30
0.0
 10
143.1221945297769
 20
118.477601550522
 30
0.0
 10
143.2280075626088
 20
118.4066737778641
 30
0.0
 10
143.2930459873399
 20
118.3827272339575
 30
0.0
 10
143.4261980591425
 20
118.3950078980283
 30
0.0
 10
143.4855672396056
 20
118.4283248560332
 30
0.0
 10
143.5347703801494
 20
118.4691597422579
 30
0.0
  0
SPLINE
  5
FC
330
1F
100
AcDbEntity
  8
0
  6
HIDDEN
 62
     7
370
     0
100
AcDbSpline
210
0.0
220
0.0
230
1.0
 70
     8
 71
     3
 72
    16
 73
    12
 74
     0
 42
0.00000001
 43
0.00000001
 12
1.0
 22
0.0
 32
0.0
 13
1.0
 23
0.0
 33
0.0
 40
0.0
 40
0.0
 40
0.0
 40
0.0
 40
0.0625000000000014
 40
0.0625000000000014
 40
0.1250000000000029
 40
0.1250000000000029
 40
0.2500000000000036
 40
0.2500000000000036
 40
0.5000000000000008
 40
0.5000000000000008
 40
1.0
 40
1.0
 40
1.0
 40
1.0
 10
143.5347703801186
 20
118.4691597422873
 30
0.0
 10
143.5468402133944
 20
118.4791767912677
 30
0.0
 10
143.5611158683278
 20
118.4881358983233
 30
0.0
 10
143.5925802804522
 20
118.4960062937176
 30
0.0
 10
143.6080808052625
 20
118.4936488030752
 30
0.0
 10
143.6435197018695
 20
118.4766731108973
 30
0.0
 10
143.6571123179729
 20
118.4561246197296
 30
0.0
 10
143.6901066363657
 20
118.394182292716
 30
0.0
 10
143.7008940296844
 20
118.3477867425108
 30
0.0
 10
143.7259472769636
 20
118.2048507138163
 30
0.0
 10
143.7297472690248
 20
118.1052879969308
 30
0.0
 10
143.7297472690248
 20
118.0035205922843
 30
0.0
  0
LINE
  5
FD
330
1F
100
AcDbEntity
  8
0
  6
HIDDEN
 62
     7
370
     0
100
AcDbLine
 10
143.7297472741
 20
101.0447864423
 30
0.0
 11
143.7297472741
 21
118.0035204629
 31
0.0
  0
SPLINE
  5
FE
330
1F
100
AcDbEntity
  8
0
  6
HIDDEN
 62
     7
370
     0
100
AcDbSpline
210
0.0
220
0.0
230
1.0
 70
     8
 71
     3
 72
    16
 73
    12
 74
     0
 42
0.00000001
 43
0.00000001
 12
1.0
 22
0.0
 32
0.0
 13
1.0
 23
0.0
 33
0.0
 40
0.0
 40
0.0
 40
0.0
 40
0.0
 40
0.5000000000000022
 40
0.5000000000000022
 40
0.7500000000000011
 40
0.7500000000000011
 40
0.8750000000000006
 40
0.8750000000000006
 40
0.9375000000000002
 40
0.9375000000000002
 40
1.0
 40
1.0
 40
1.0
 40
1.0
 10
143.7297472690247
 20
101.0447863128899
 30
0.0
 10
143.7297472690247
 20
100.9427761593099
 30
0.0
 10
143.7258638438658
 20
100.8432517840566
 30
0.0
 10
143.7010485185911
 20
100.701266688046
 30
0.0
 10
143.6902090708786
 20
100.6542733874755
 30
0.0
 10
143.6569932888298
 20
100.5919806571139
 30
0.0
 10
143.643611545201
 20
100.5716992248288
 30
0.0
 10
143.6081018953388
 20
100.5546575166283
 30
0.0
 10
143.592684928838
 20
100.5522712616122
 30
0.0
 10
143.5609839066894
 20
100.5602071914702
 30
0.0
 10
143.5468376217386
 20
100.5691322648448
 30
0.0
 10
143.534770380149
 20
100.5791471629167
 30
0.0
  0
SPLINE
  5
FF
330
1F
100
AcDbEntity
  8
0
  6
HIDDEN
 62
     7
370
     0
100
AcDbSpline
210
0.0
220
0.0
230
1.0
 70
     8
 71
     3
 72
    18
 73
    14
 74
     0
 42
0.00000001
 43
0.00000001
 12
1.0
 22
0.0
 32
0.0
 13
1.0
 23
0.0
 33
0.0
 40
0.0
 40
0.0
 40
0.0
 40
0.0
 40
0.1249999999999993
 40
0.1249999999999993
 40
0.2499999999999987
 40
0.2499999999999987
 40
0.374999999999998
 40
0.374999999999998
 40
0.4999999999999973
 40
0.4999999999999973
 40
0.7499999999999987
 40
0.7499999999999987
 40
1.0
 40
1.0
 40
1.0
 40
1.0
 10
143.5347703801551
 20
100.5791471629241
 30
0.0
 10
143.486064888013
 20
100.6195690386056
 30
0.0
 10
143.4275547796861
 20
100.6526011600733
 30
0.0
 10
143.295825661394
 20
100.6658783120262
 30
0.0
 10
143.2310667250534
 20
100.642924725046
 30
0.0
 10
143.1258557521939
 20
100.5738715281264
 30
0.0
 10
143.0826393767539
 20
100.5294038762855
 30
0.0
 10
143.006460871642
 20
100.4362342169155
 30
0.0
 10
142.9736059102621
 20
100.3870918473547
 30
0.0
 10
142.8832376304283
 20
100.2358821124148
 30
0.0
 10
142.8338143960583
 20
100.1297273428866
 30
0.0
 10
142.7461659410101
 20
99.9161457272251
 30
0.0
 10
142.7081067688073
 20
99.80817329598985
 30
0.0
 10
142.6736629514617
 20
99.69971353443589
 30
0.0
  0
SPLINE
  5
100
330
1F
100
AcDbEntity
  8
0
  6
HIDDEN
 62
     7
370
     0
100
AcDbSpline
210
0.0
220
0.0
230
1.0
 70
     8
 71
     3
 72
     8
 73
     4
 74
     0
 42
0.00000001
 43
0.00000001
 12
1.0
 22
0.0
 32
0.0
 13
1.0
 23
0.0
 33
0.0
 40
0.0
 40
0.0
 40
0.0
 40
0.0
 40
1.0
 40
1.0
 40
1.0
 40
1.0
 10
142.6736629514611
 20
99.69971353443535
 30
0.0
 10
142.649349247571
 20
99.62315237688527
 30
0.0
 10
142.6278526056149
 20
99.54672700575209
 30
0.0
 10
142.608426925465
 20
99.47063413498037
 30
0.0
  0
SPLINE
  5
101
330
1F
100
AcDbEntity
  8
0
  6
HIDDEN
 62
     7
370
     0
100
AcDbSpline
210
0.0
220
0.0
230
1.0
 70
     8
 71
     3
 72
     8
 73
     4
 74
     0
 42
0.00000001
 43
0.00000001
 12
1.0
 22
0.0
 32
0.0
 13
1.0
 23
0.0
 33
0.0
 40
0.0
 40
0.0
 40
0.0
 40
0.0
 40
1.0
 40
1.0
 40
1.0
 40
1.0
 10
142.608426925465
 20
95.69908944458197
 30
0.0
 10
142.6278523523583
 20
95.69559224099467
 30
0.0
 10
142.6493489063273
 20
95.69357592335245
 30
0.0
 10
142.6736629514617
 20
95.69296506990858
 30
0.0
  0
SPLINE
  5
102
330
1F
100
AcDbEntity
  8
0
  6
HIDDEN
 62
     7
370
     0
100
AcDbSpline
210
0.0
220
0.0
230
1.0
 70
     8
 71
     3
 72
     8
 73
     4
 74
     0
 42
0.00000001
 43
0.00000001
 12
1.0
 22
0.0
 32
0.0
 13
1.0
 23
0.0
 33
0.0
 40
0.0
 40
0.0
 40
0.0
 40
0.0
 40
1.0
 40
1.0
 40
1.0
 40
1.0
 10
143.7068962559187
 20
95.6036066788504
 30
0.0
 10
143.7258331880845
 20
95.57565224144894
 30
0.0
 10
143.7297472690248
 20
95.55556839009263
 30
0.0
 10
143.7297472690248
 20
95.53934154592723
 30
0.0
  0
LINE
  5
103
330
1F
100
AcDbEntity
  8
0
  6
HIDDEN
 62
     7
370
     0
100
AcDbLine
 10
143.7297472741
 20
95.4343334774
 30
0.0
 11
143.7297472741
 21
95.5393419603
 31
0.0
  0
LINE
  5
104
330
1F
100
AcDbEntity
  8
0
  6
HIDDEN
 62
     7
370
     0
100
AcDbLine
 10
143.7297472741
 20
123.5089649449
 30
0.0
 11
143.7297472741
 21
123.6139734278
 31
0.0
  0
SPLINE
  5
105
330
1F
100
AcDbEntity
  8
0
  6
HIDDEN
 62
     7
370
     0
100
AcDbSpline
210
0.0
220
0.0
230
1.0
 70
     8
 71
     3
 72
     8
 73
     4
 74
     0
 42
0.00000001
 43
0.00000001
 12
1.0
 22
0.0
 32
0.0
 13
1.0
 23
0.0
 33
0.0
 40
0.0
 40
0.0
 40
0.0
 40
0.0
 40
1.0
 40
1.0
 40
1.0
 40
1.0
 10
142.6736629514613
 20
123.3553418352657
 30
0.0
 10
142.6493489063271
 20
123.3547309818219
 30
0.0
 10
142.6278523523582
 20
123.3527146641796
 30
0.0
 10
142.608426925465
 20
123.3492174605924
 30
0.0
  0
SPLINE
  5
106
330
1F
100
AcDbEntity
  8
0
  6
HIDDEN
 62
     7
370
     0
100
AcDbSpline
210
0.0
220
0.0
230
1.0
 70
     8
 71
     3
 72
     8
 73
     4
 74
     0
 42
0.00000001
 43
0.00000001
 12
1.0
 22
0.0
 32
0.0
 13
1.0
 23
0.0
 33
0.0
 40
0.0
 40
0.0
 40
0.0
 40
0.0
 40
1.0
 40
1.0
 40
1.0
 40
1.0
 10
142.608426925465
 20
119.5776727701939
 30
0.0
 10
142.6278526056149
 20
119.5015798994222
 30
0.0
 10
142.649349247571
 20
119.425154528289
 30
0.0
 10
142.6736629514611
 20
119.348593370739
 30
0.0
  0
LINE
  5
107
330
1F
100
AcDbEntity
  8
0
  6
HIDDEN
 62
     7
370
     0
100
AcDbLine
 10
143.7297472741
 20
95.5393419603
 30
0.0
 11
143.7297472741
 21
104.018708505
 31
0.0
  0
LINE
  5
108
330
1F
100
AcDbEntity
  8
0
  6
HIDDEN
 62
     7
370
     0
100
AcDbLine
 10
143.7297472741
 20
115.0295984002
 30
0.0
 11
143.7297472741
 21
123.5089649449
 31
0.0
  0
SPLINE
  5
109
330
1F
100
AcDbEntity
  8
0
  6
HIDDEN
 62
     7
370
     0
100
AcDbSpline
210
0.0
220
0.0
230
1.0
 70
     8
 71
     3
 72
    62
 73
    58
 74
     0
 42
0.00000001
 43
0.00000001
 12
1.0
 22
0.0
 32
0.0
 13
1.0
 23
0.0
 33
0.0
 40
-0.0312499999999988
 40
-0.0312499999999988
 40
0.0
 40
0.0
 40
0.0312500000000019
 40
0.0312500000000019
 40
0.0625000000000039
 40
0.0625000000000039
 40
0.1250000000000049
 40
0.1250000000000049
 40
0.187500000000006
 40
0.187500000000006
 40
0.2187500000000059
 40
0.2187500000000059
 40
0.2500000000000059
 40
0.2500000000000059
 40
0.2812500000000059
 40
0.2812500000000059
 40
0.3125000000000058
 40
0.3125000000000058
 40
0.3437500000000058
 40
0.3437500000000058
 40
0.3750000000000057
 40
0.3750000000000057
 40
0.4375000000000056
 40
0.4375000000000056
 40
0.4687500000000055
 40
0.4687500000000055
 40
0.5000000000000054
 40
0.5000000000000054
 40
0.5312500000000053
 40
0.5312500000000053
 40
0.5625000000000053
 40
0.5625000000000053
 40
0.5937500000000052
 40
0.5937500000000052
 40
0.6250000000000052
 40
0.6250000000000052
 40
0.6562500000000051
 40
0.6562500000000051
 40
0.6875000000000051
 40
0.6875000000000051
 40
0.718750000000005
 40
0.718750000000005
 40
0.7500000000000049
 40
0.7500000000000049
 40
0.7812500000000049
 40
0.7812500000000049
 40
0.8125000000000048
 40
0.8125000000000048
 40
0.8750000000000047
 40
0.8750000000000047
 40
0.9062500000000036
 40
0.9062500000000036
 40
0.9375000000000023
 40
0.9375000000000023
 40
0.9687500000000012
 40
0.9687500000000012
 40
1.0
 40
1.0
 40
1.031250000000002
 40
1.031250000000002
 10
215.7885490450448
 20
109.0348170215373
 30
0.0
 10
216.0709454930046
 20
109.0348170215373
 30
0.0
 10
216.2092233700183
 20
109.0509528426696
 30
0.0
 10
216.4803894412262
 20
109.1131078357295
 30
0.0
 10
216.6145927686857
 20
109.1599501288903
 30
0.0
 10
216.9936559484759
 20
109.3378399023142
 30
0.0
 10
217.2226628701697
 20
109.5088793501342
 30
0.0
 10
217.6036934891725
 20
109.9143842676196
 30
0.0
 10
217.7593165660941
 20
110.1530283989915
 30
0.0
 10
217.9183870426627
 20
110.5298473110497
 30
0.0
 10
217.9601141878061
 20
110.6615159123122
 30
0.0
 10
218.0153848889481
 20
110.9225843201236
 30
0.0
 10
218.0294648204379
 20
111.0522452880391
 30
0.0
 10
218.0300213867591
 20
111.3095742550619
 30
0.0
 10
218.0160321093386
 20
111.4369041025515
 30
0.0
 10
217.9615505901029
 20
111.6767408295953
 30
0.0
 10
217.9207001319479
 20
111.7918734563313
 30
0.0
 10
217.8140861650886
 20
112.0073921266205
 30
0.0
 10
217.7493340228155
 20
112.1063477875348
 30
0.0
 10
217.597775480863
 20
112.2889862324518
 30
0.0
 10
217.5104373576899
 20
112.3727268202517
 30
0.0
 10
217.2246609367283
 20
112.5943147606046
 30
0.0
 10
216.9951245882625
 20
112.7082032567678
 30
0.0
 10
216.6188064522683
 20
112.82231534857
 30
0.0
 10
216.4864735439076
 20
112.8515363056479
 30
0.0
 10
216.2124408849168
 20
112.890904450049
 30
0.0
 10
216.0744157252947
 20
112.9006716606361
 30
0.0
 10
215.7963443440759
 20
112.9011925990531
 30
0.0
 10
215.6546314054055
 20
112.8915674506035
 30
0.0
 10
215.3822091497252
 20
112.8532565056942
 30
0.0
 10
215.2503810052282
 20
112.8248053446093
 30
0.0
 10
214.9949821096235
 20
112.7482329634169
 30
0.0
 10
214.8748161064342
 20
112.7010750221827
 30
0.0
 10
214.6496446938779
 20
112.5889483354055
 30
0.0
 10
214.5434936325435
 20
112.5231028882764
 30
0.0
 10
214.3520463438414
 20
112.3754186716775
 30
0.0
 10
214.2661123299218
 20
112.2935247034883
 30
0.0
 10
214.1137000118818
 20
112.1113304146716
 30
0.0
 10
214.0475165215944
 20
112.0107082663189
 30
0.0
 10
213.9413348230432
 20
111.7979136868902
 30
0.0
 10
213.9003547598275
 20
111.6847479689964
 30
0.0
 10
213.8442746190301
 20
111.4429382354743
 30
0.0
 10
213.8300504435888
 20
111.3168589068965
 30
0.0
 10
213.8294537597174
 20
111.0609548798999
 30
0.0
 10
213.8432223272158
 20
110.9285194518808
 30
0.0
 10
213.8980723941578
 20
110.666018055269
 30
0.0
 10
213.9385689074343
 20
110.5368643255271
 30
0.0
 10
214.0980313786104
 20
110.1561730581566
 30
0.0
 10
214.2526998029247
 20
109.91804469696
 30
0.0
 10
214.5410078342692
 20
109.6106801069329
 30
0.0
 10
214.6450326496171
 20
109.5179031431297
 30
0.0
 10
214.8694519077959
 20
109.3523518852463
 30
0.0
 10
214.9913826956564
 20
109.2790015223696
 30
0.0
 10
215.2438398470823
 20
109.1603710989031
 30
0.0
 10
215.3747263769995
 20
109.1144250277471
 30
0.0
 10
215.6466672947123
 20
109.0514744397094
 30
0.0
 10
215.7885490450448
 20
109.0348170215373
 30
0.0
 10
216.0709454930046
 20
109.0348170215373
 30
0.0
  0
SPLINE
  5
10A
330
1F
100
AcDbEntity
  8
0
  6
HIDDEN
 62
     7
370
     0
100
AcDbSpline
210
0.0
220
0.0
230
1.0
 70
     8
 71
     3
 72
    10
 73
     6
 74
     0
 42
0.00000001
 43
0.00000001
 12
1.0
 22
0.0
 32
0.0
 13
1.0
 23
0.0
 33
0.0
 40
0.0
 40
0.0
 40
0.0
 40
0.0
 40
0.5
 40
0.5
 40
1.0
 40
1.0
 40
1.0
 40
1.0
 10
214.6395131606827
 20
115.1757324698398
 30
0.0
 10
214.606586112737
 20
115.0730498149091
 30
0.0
 10
214.5878817443707
 20
114.9790477305063
 30
0.0
 10
214.5850214666429
 20
114.8173254719444
 30
0.0
 10
214.6012324240362
 20
114.7492330850908
 30
0.0
 10
214.631494531021
 20
114.6918443608597
 30
0.0
  0
SPLINE
  5
10B
330
1F
100
AcDbEntity
  8
0
  6
HIDDEN
 62
     7
370
     0
100
AcDbSpline
210
0.0
220
0.0
230
1.0
 70
     8
 71
     3
 72
    56
 73
    52
 74
     0
 42
0.00000001
 43
0.00000001
 12
1.0
 22
0.0
 32
0.0
 13
1.0
 23
0.0
 33
0.0
 40
0.0
 40
0.0
 40
0.0
 40
0.0
 40
0.0312499999999966
 40
0.0312499999999966
 40
0.0468749999999964
 40
0.0468749999999964
 40
0.0624999999999963
 40
0.0624999999999963
 40
0.0937499999999962
 40
0.0937499999999962
 40
0.1249999999999961
 40
0.1249999999999961
 40
0.1874999999999989
 40
0.1874999999999989
 40
0.2500000000000017
 40
0.2500000000000017
 40
0.2812500000000017
 40
0.2812500000000017
 40
0.3125000000000017
 40
0.3125000000000017
 40
0.3437500000000017
 40
0.3437500000000017
 40
0.3750000000000018
 40
0.3750000000000018
 40
0.4062500000000018
 40
0.4062500000000018
 40
0.4375000000000018
 40
0.4375000000000018
 40
0.500000000000002
 40
0.500000000000002
 40
0.5625000000000021
 40
0.5625000000000021
 40
0.6250000000000023
 40
0.6250000000000023
 40
0.6562500000000031
 40
0.6562500000000031
 40
0.6875000000000039
 40
0.6875000000000039
 40
0.7031250000000044
 40
0.7031250000000044
 40
0.718750000000005
 40
0.718750000000005
 40
0.750000000000005
 40
0.750000000000005
 40
0.8125000000000037
 40
0.8125000000000037
 40
0.8750000000000024
 40
0.8750000000000024
 40
0.9375000000000011
 40
0.9375000000000011
 40
1.0
 40
1.0
 40
1.0
 40
1.0
 10
214.6314945310223
 20
114.6918443608653
 30
0.0
 10
214.7122370852131
 20
114.7731720971523
 30
0.0
 10
214.8039150934654
 20
114.849817391693
 30
0.0
 10
214.9573567131315
 20
114.9338855272797
 30
0.0
 10
215.0106811746545
 20
114.9561606362317
 30
0.0
 10
215.114300496412
 20
114.9878999606339
 30
0.0
 10
215.1654125154092
 20
114.9979424373752
 30
0.0
 10
215.3128528989555
 20
115.0162331727183
 30
0.0
 10
215.4072204426314
 20
115.0140292463434
 30
0.0
 10
215.5921612060819
 20
114.9960130777926
 30
0.0
 10
215.6830419065495
 20
114.979755087293
 30
0.0
 10
215.9565456285478
 20
114.9146237773292
 30
0.0
 10
216.1419726832495
 20
114.848647937524
 30
0.0
 10
216.5139845449199
 20
114.6761176806911
 30
0.0
 10
216.699271092058
 20
114.570343027605
 30
0.0
 10
216.9763753177003
 20
114.3748782102247
 30
0.0
 10
217.0663994730347
 20
114.3049912934254
 30
0.0
 10
217.241337909277
 20
114.1546951879117
 30
0.0
 10
217.3271383166484
 20
114.0733416042815
 30
0.0
 10
217.4880178790489
 20
113.9028481619575
 30
0.0
 10
217.5626626016383
 20
113.814383116795
 30
0.0
 10
217.6993393993605
 20
113.6305039887572
 30
0.0
 10
217.7606202075408
 20
113.5357168970856
 30
0.0
 10
217.863637284888
 20
113.349210685108
 30
0.0
 10
217.9066579206776
 20
113.2552254903675
 30
0.0
 10
217.9729778085805
 20
113.0734962815684
 30
0.0
 10
217.9962942132668
 20
112.9863925880872
 30
0.0
 10
218.0402496378291
 20
112.7352748610028
 30
0.0
 10
218.0339525384566
 20
112.5880946704153
 30
0.0
 10
217.9708676193338
 20
112.332336000198
 30
0.0
 10
217.914693387525
 20
112.2263715862535
 30
0.0
 10
217.7708438689645
 20
112.0539980112812
 30
0.0
 10
217.6812438973244
 20
111.9863135300377
 30
0.0
 10
217.5395554838516
 20
111.9216613464751
 30
0.0
 10
217.4908387228437
 20
111.9059879766792
 30
0.0
 10
217.3992935564034
 20
111.8942973743077
 30
0.0
 10
217.3556611345481
 20
111.8979137913168
 30
0.0
 10
217.3249638401153
 20
111.9390317808679
 30
0.0
 10
217.3213778209009
 20
111.95957825962
 30
0.0
 10
217.3303376010024
 20
112.0122268477881
 30
0.0
 10
217.3426087880859
 20
112.0447084470166
 30
0.0
 10
217.3917072539652
 20
112.1500572861786
 30
0.0
 10
217.4390982297626
 20
112.2311670393849
 30
0.0
 10
217.5809721583353
 20
112.4840896113673
 30
0.0
 10
217.6778522100002
 20
112.6679240895838
 30
0.0
 10
217.8437045428497
 20
113.0647941503461
 30
0.0
 10
217.9129377245252
 20
113.2753758412242
 30
0.0
 10
218.0079267482401
 20
113.7132994204881
 30
0.0
 10
218.0345120977111
 20
113.9465499986224
 30
0.0
 10
218.0235431258425
 20
114.4104477365953
 30
0.0
 10
217.9856480931298
 20
114.6454642432001
 30
0.0
 10
217.9076926929003
 20
114.8623442451019
 30
0.0
  0
SPLINE
  5
10C
330
1F
100
AcDbEntity
  8
0
  6
HIDDEN
 62
     7
370
     0
100
AcDbSpline
210
0.0
220
0.0
230
1.0
 70
     8
 71
     3
 72
    26
 73
    22
 74
     0
 42
0.00000001
 43
0.00000001
 12
1.0
 22
0.0
 32
0.0
 13
1.0
 23
0.0
 33
0.0
 40
0.0
 40
0.0
 40
0.0
 40
0.0
 40
0.1250000000000022
 40
0.1250000000000022
 40
0.2500000000000044
 40
0.2500000000000044
 40
0.3750000000000067
 40
0.3750000000000067
 40
0.5000000000000089
 40
0.5000000000000089
 40
0.6250000000000111
 40
0.6250000000000111
 40
0.7500000000000133
 40
0.7500000000000133
 40
0.81250000000001
 40
0.81250000000001
 40
0.8750000000000067
 40
0.8750000000000067
 40
0.9375000000000033
 40
0.9375000000000033
 40
1.0
 40
1.0
 40
1.0
 40
1.0
 10
217.546609055858
 20
115.4464577525049
 30
0.0
 10
217.4488544052378
 20
115.5447693060181
 30
0.0
 10
217.3428621369765
 20
115.6227220433085
 30
0.0
 10
217.1171490849715
 20
115.7453729766203
 30
0.0
 10
216.9968208961123
 20
115.7896479109785
 30
0.0
 10
216.755039309828
 20
115.8457294421132
 30
0.0
 10
216.6311480980652
 20
115.8583791407903
 30
0.0
 10
216.3842079066713
 20
115.8573061471484
 30
0.0
 10
216.261953674692
 20
115.8438309840431
 30
0.0
 10
216.0183537230494
 20
115.7953405724534
 30
0.0
 10
215.8969257703815
 20
115.7602176546675
 30
0.0
 10
215.6528088616438
 20
115.6702101311611
 30
0.0
 10
215.5315800978795
 20
115.6156767208549
 30
0.0
 10
215.3451979799458
 20
115.5216741386479
 30
0.0
 10
215.2827133734565
 20
115.4885305713096
 30
0.0
 10
215.1537548373708
 20
115.4194200116955
 30
0.0
 10
215.0853420052306
 20
115.3824376086544
 30
0.0
 10
214.9473302906023
 20
115.3121289819257
 30
0.0
 10
214.8775857850348
 20
115.2792015005496
 30
0.0
 10
214.7511903260092
 20
115.2231495393629
 30
0.0
 10
214.6930914709495
 20
115.1988485291845
 30
0.0
 10
214.6395131606932
 20
115.1757324698563
 30
0.0
  0
LWPOLYLINE
  5
10D
330
1F
100
AcDbEntity
  8
0
  6
HIDDEN
 62
     7
370
     0
100
AcDbPolyline
 90
       23
 70
   128
 43
0.0
 10
217.5466095661
 20
115.446457919
 10
217.1310832356
 20
115.7984377819
 10
216.6286980365
 20
116.0357750954
 10
216.0757680987
 20
116.1413083786
 10
215.5122881387
 20
116.1074068399
 10
214.9789830302
 20
115.936522186
 10
214.5144318794
 20
115.6410102735
 10
214.1522144531
 20
115.2422384361
 10
213.9185269927
 20
114.7690404209
 10
213.8302599643
 20
114.2556320878
 10
213.8937985157
 20
113.7391354891
 10
214.104553089
 20
113.2568975913
 10
214.4472797965
 20
112.8437866459
 10
214.8972054576
 20
112.5296736604
 10
215.4217784856
 20
112.3372710312
 10
215.9830903267
 20
112.2804906221
 10
216.5405427669
 20
112.3634379359
 10
217.0538281654
 20
112.5801157209
 10
217.4858351802
 20
112.9148563372
 10
217.8053309773
 20
113.3434561083
 10
217.9892038559
 20
113.8349243442
 10
218.0241694306
 20
114.3537245693
 10
217.9076945041
 20
114.8623440417
  0
ARC
  5
10E
330
1F
100
AcDbEntity
  8
0
  6
HIDDEN
 62
     7
370
     0
100
AcDbCircle
 10
215.2294261148
 20
114.9239487741
 30
0.0
 40
0.6413996698722224
100
AcDbArc
 50
156.8864982802
 51
201.2151780937
  0
SPLINE
  5
10F
330
1F
100
AcDbEntity
  8
0
  6
HIDDEN
 62
     7
370
     0
100
AcDbSpline
210
0.0
220
0.0
230
1.0
 70
     8
 71
     3
 72
     8
 73
     4
 74
     0
 42
0.00000001
 43
0.00000001
 12
1.0
 22
0.0
 32
0.0
 13
1.0
 23
0.0
 33
0.0
 40
0.0
 40
0.0
 40
0.0
 40
0.0
 40
1.0
 40
1.0
 40
1.0
 40
1.0
 10
217.9076926929005
 20
114.8623442451019
 30
0.0
 10
217.7640440009723
 20
115.0568525784013
 30
0.0
 10
217.6388817054467
 20
115.2585372916343
 30
0.0
 10
217.5466090558581
 20
115.4464577525047
 30
0.0
  0
CIRCLE
  5
110
330
1F
100
AcDbEntity
  8
0
  6
HIDDEN
 62
     7
370
     0
100
AcDbCircle
 10
132.429747269
 20
109.5241534526
 30
0.0
 40
2.299999999999997
  0
LINE
  5
111
330
1F
100
AcDbEntity
  8
0
  6
HIDDEN
 62
     7
370
     0
100
AcDbLine
 10
120.9567797934
 20
119.0868469889
 30
0.0
 11
120.9567797934
 21
99.9614599163
 31
0.0
  0
LINE
  5
112
330
1F
100
AcDbEntity
  8
0
  6
HIDDEN
 62
     7
370
     0
100
AcDbLine
 10
119.9297470604
 20
99.3685026655
 30
0.0
 11
119.9297470604
 21
119.6798042396
 31
0.0
  0
LINE
  5
113
330
1F
100
AcDbEntity
  8
0
  6
HIDDEN
 62
     7
370
     0
100
AcDbLine
 10
124.4567794357
 20
118.755093124
 30
0.0
 11
124.4567794357
 21
100.2932137812
 31
0.0
  0
LINE
  5
114
330
1F
100
AcDbEntity
  8
0
  6
HIDDEN
 62
     7
370
     0
100
AcDbLine
 10
127.856779248
 20
118.5241530652
 30
0.0
 11
127.856779248
 21
100.52415384
 31
0.0
  0
LINE
  5
115
330
1F
100
AcDbEntity
  8
0
  6
HIDDEN
 62
     7
370
     0
100
AcDbLine
 10
123.0567799513
 20
118.5241530652
 30
0.0
 11
123.0567799513
 21
100.52415384
 31
0.0
  0
LINE
  5
116
330
1F
100
AcDbEntity
  8
0
  6
HIDDEN
 62
     7
370
     0
100
AcDbLine
 10
124.0567801152
 20
118.5241530652
 30
0.0
 11
124.0567801152
 21
100.52415384
 31
0.0
  0
SPLINE
  5
117
330
1F
100
AcDbEntity
  8
0
  6
HIDDEN
 62
     7
370
     0
100
AcDbSpline
210
0.0
220
0.0
230
1.0
 70
     8
 71
     3
 72
    14
 73
    10
 74
     0
 42
0.00000001
 43
0.00000001
 12
1.0
 22
0.0
 32
0.0
 13
1.0
 23
0.0
 33
0.0
 40
0.0
 40
0.0
 40
0.0
 40
0.0
 40
0.2500000000000001
 40
0.2500000000000001
 40
0.5
 40
0.5
 40
0.75
 40
0.75
 40
1.0
 40
1.0
 40
1.0
 40
1.0
 10
134.4297472690247
 20
110.6599351217472
 30
0.0
 10
134.5279716155277
 20
110.4869716919437
 30
0.0
 10
134.6032864535117
 20
110.3019391375193
 30
0.0
 10
134.7042531637061
 20
109.9189269233848
 30
0.0
 10
134.7296287499962
 20
109.7242083699192
 30
0.0
 10
134.7298649752625
 20
109.3268330686536
 30
0.0
 10
134.704161905927
 20
109.1293407341782
 30
0.0
 10
134.6038417924105
 20
108.7481688995472
 30
0.0
 10
134.5279499643229
 20
108.5612970875746
 30
0.0
 10
134.4297472690293
 20
108.3883717834247
 30
0.0
  0
LINE
  5
118
330
1F
100
AcDbEntity
  8
0
  6
HIDDEN
 62
     7
370
     0
100
AcDbLine
 10
134.9297476565
 20
118.0241529832
 30
0.0
 11
134.9297476565
 21
101.0241529907
 31
0.0
  0
SPLINE
  5
119
330
1F
100
AcDbEntity
  8
0
  6
HIDDEN
 62
     7
370
     0
100
AcDbSpline
210
0.0
220
0.0
230
1.0
 70
     8
 71
     3
 72
    14
 73
    10
 74
     0
 42
0.00000001
 43
0.00000001
 12
1.0
 22
0.0
 32
0.0
 13
1.0
 23
0.0
 33
0.0
 40
0.0
 40
0.0
 40
0.0
 40
0.0
 40
0.2499999999999999
 40
0.2499999999999999
 40
0.4999999999999999
 40
0.4999999999999999
 40
0.7499999999999999
 40
0.7499999999999999
 40
1.0
 40
1.0
 40
1.0
 40
1.0
 10
134.4297472690247
 20
108.3883717834271
 30
0.0
 10
134.5279716155277
 20
108.5613352132306
 30
0.0
 10
134.6032864535117
 20
108.746367767655
 30
0.0
 10
134.7042531637061
 20
109.1293799817895
 30
0.0
 10
134.7296287499962
 20
109.3240985352551
 30
0.0
 10
134.7298649752625
 20
109.7214738365207
 30
0.0
 10
134.704161905927
 20
109.9189661709961
 30
0.0
 10
134.6038417924105
 20
110.3001380056271
 30
0.0
 10
134.5279499643229
 20
110.4870098175997
 30
0.0
 10
134.4297472690293
 20
110.6599351217496
 30
0.0
  0
SPLINE
  5
11A
330
1F
100
AcDbEntity
  8
0
  6
HIDDEN
 62
     7
370
     0
100
AcDbSpline
210
0.0
220
0.0
230
1.0
 70
     8
 71
     3
 72
    60
 73
    56
 74
     0
 42
0.00000001
 43
0.00000001
 12
1.0
 22
0.0
 32
0.0
 13
1.0
 23
0.0
 33
0.0
 40
0.0
 40
0.0
 40
0.0
 40
0.0
 40
0.0624999999999999
 40
0.0624999999999999
 40
0.1249999999999999
 40
0.1249999999999999
 40
0.1874999999999998
 40
0.1874999999999998
 40
0.21875
 40
0.21875
 40
0.2500000000000002
 40
0.2500000000000002
 40
0.3125000000000002
 40
0.3125000000000002
 40
0.3750000000000002
 40
0.3750000000000002
 40
0.4062500000000002
 40
0.4062500000000002
 40
0.4375000000000003
 40
0.4375000000000003
 40
0.4687500000000003
 40
0.4687500000000003
 40
0.5000000000000003
 40
0.5000000000000003
 40
0.5312500000000003
 40
0.5312500000000003
 40
0.5625000000000002
 40
0.5625000000000002
 40
0.5937500000000002
 40
0.5937500000000002
 40
0.6250000000000002
 40
0.6250000000000002
 40
0.6562500000000002
 40
0.6562500000000002
 40
0.6875000000000001
 40
0.6875000000000001
 40
0.7187500000000001
 40
0.7187500000000001
 40
0.7500000000000001
 40
0.7500000000000001
 40
0.7812500000000001
 40
0.7812500000000001
 40
0.8125
 40
0.8125
 40
0.84375
 40
0.84375
 40
0.875
 40
0.875
 40
0.90625
 40
0.90625
 40
0.9374999999999999
 40
0.9374999999999999
 40
0.9687499999999999
 40
0.9687499999999999
 40
1.0
 40
1.0
 40
1.0
 40
1.0
 10
134.4297472690247
 20
108.3883717834271
 30
0.0
 10
134.304557367446
 20
108.1679246588115
 30
0.0
 10
134.1476900488778
 20
107.9741909299912
 30
0.0
 10
133.770652529059
 20
107.6385012312288
 30
0.0
 10
133.558939222638
 20
107.504523872916
 30
0.0
 10
133.0930492406893
 20
107.3073971282309
 30
0.0
 10
132.8472100096377
 20
107.248179716009
 30
0.0
 10
132.4677289565431
 20
107.2209729801183
 30
0.0
 10
132.3399832278492
 20
107.2224662452602
 30
0.0
 10
132.089516981181
 20
107.2459820510691
 30
0.0
 10
131.9656875983728
 20
107.2679012698734
 30
0.0
 10
131.5984679242742
 20
107.3647378347183
 30
0.0
 10
131.3676989061885
 20
107.4685389561701
 30
0.0
 10
130.9478099447689
 20
107.7472574370981
 30
0.0
 10
130.7635515698814
 20
107.9188197286018
 30
0.0
 10
130.5328031823981
 20
108.2174670898686
 30
0.0
 10
130.4637563326091
 20
108.3239346303709
 30
0.0
 10
130.3451916688036
 20
108.5442179787639
 30
0.0
 10
130.2949833000539
 20
108.6588794951653
 30
0.0
 10
130.2131514476961
 20
108.897560131942
 30
0.0
 10
130.1818005488134
 20
109.0216057588201
 30
0.0
 10
130.1404061707749
 20
109.2697207949285
 30
0.0
 10
130.1299003957106
 20
109.3949584974169
 30
0.0
 10
130.1295974433748
 20
109.647837553008
 30
0.0
 10
130.1400819729914
 20
109.7757172392446
 30
0.0
 10
130.1812220504528
 20
110.02413930045
 30
0.0
 10
130.2118001710014
 20
110.1459382272184
 30
0.0
 10
130.2930828793527
 20
110.3847177566928
 30
0.0
 10
130.3440837659146
 20
110.5017593189994
 30
0.0
 10
130.4626508142777
 20
110.7225845169253
 30
0.0
 10
130.5305395675494
 20
110.8275228804881
 30
0.0
 10
130.6836900052871
 20
111.0265002137175
 30
0.0
 10
130.7692461768596
 20
111.1205083389117
 30
0.0
 10
130.9519575478188
 20
111.2910010238484
 30
0.0
 10
131.0497648475006
 20
111.3684392188977
 30
0.0
 10
131.2585679594176
 20
111.507605114786
 30
0.0
 10
131.3701501347055
 20
111.569386923793
 30
0.0
 10
131.5987959342045
 20
111.6724657943938
 30
0.0
 10
131.7167507451757
 20
111.7144698295895
 30
0.0
 10
131.9600791901644
 20
111.7792059508863
 30
0.0
 10
132.0864230655074
 20
111.8018792134489
 30
0.0
 10
132.3375290465253
 20
111.8257620096301
 30
0.0
 10
132.4632110402482
 20
111.8273653108968
 30
0.0
 10
132.71483311004
 20
111.8098985721258
 30
0.0
 10
132.8417307303258
 20
111.7904626814859
 30
0.0
 10
133.086921296587
 20
111.7318695101622
 30
0.0
 10
133.2061104536205
 20
111.6928066590056
 30
0.0
 10
133.4377954779753
 20
111.5952969368818
 30
0.0
 10
133.5509702823258
 20
111.5362615825932
 30
0.0
 10
133.7630486992615
 20
111.4024578657537
 30
0.0
 10
133.8628374779623
 20
111.327462649609
 30
0.0
 10
134.0500956649513
 20
111.1612675850882
 30
0.0
 10
134.1379907018946
 20
111.0693733863467
 30
0.0
 10
134.2962117775265
 20
110.8740091886323
 30
0.0
 10
134.3671497338182
 20
110.7701632349598
 30
0.0
 10
134.4297472690247
 20
110.6599351217472
 30
0.0
  0
SPLINE
  5
11B
330
1F
100
AcDbEntity
  8
0
  6
HIDDEN
 62
     7
370
     0
100
AcDbSpline
210
0.0
220
0.0
230
1.0
 70
     8
 71
     3
 72
    60
 73
    56
 74
     0
 42
0.00000001
 43
0.00000001
 12
1.0
 22
0.0
 32
0.0
 13
1.0
 23
0.0
 33
0.0
 40
0.0
 40
0.0
 40
0.0
 40
0.0
 40
0.0624999999999997
 40
0.0624999999999997
 40
0.1249999999999993
 40
0.1249999999999993
 40
0.187499999999999
 40
0.187499999999999
 40
0.2187499999999991
 40
0.2187499999999991
 40
0.2499999999999991
 40
0.2499999999999991
 40
0.3124999999999992
 40
0.3124999999999992
 40
0.3749999999999993
 40
0.3749999999999993
 40
0.4062499999999993
 40
0.4062499999999993
 40
0.4374999999999993
 40
0.4374999999999993
 40
0.4687499999999993
 40
0.4687499999999993
 40
0.4999999999999993
 40
0.4999999999999993
 40
0.5312499999999992
 40
0.5312499999999992
 40
0.5624999999999993
 40
0.5624999999999993
 40
0.5937499999999993
 40
0.5937499999999993
 40
0.6249999999999994
 40
0.6249999999999994
 40
0.6562499999999994
 40
0.6562499999999994
 40
0.6874999999999996
 40
0.6874999999999996
 40
0.7187499999999996
 40
0.7187499999999996
 40
0.7499999999999997
 40
0.7499999999999997
 40
0.7812499999999997
 40
0.7812499999999997
 40
0.8124999999999998
 40
0.8124999999999998
 40
0.8437499999999998
 40
0.8437499999999998
 40
0.8749999999999999
 40
0.8749999999999999
 40
0.9062499999999999
 40
0.9062499999999999
 40
0.9375
 40
0.9375
 40
0.96875
 40
0.96875
 40
1.0
 40
1.0
 40
1.0
 40
1.0
 10
134.4297472690247
 20
110.6599351217472
 30
0.0
 10
134.304557367446
 20
110.8803822463628
 30
0.0
 10
134.1476900488778
 20
111.0741159751831
 30
0.0
 10
133.770652529059
 20
111.4098056739456
 30
0.0
 10
133.558939222638
 20
111.5437830322583
 30
0.0
 10
133.0930492406893
 20
111.7409097769434
 30
0.0
 10
132.8472100096377
 20
111.8001271891653
 30
0.0
 10
132.4677289565431
 20
111.827333925056
 30
0.0
 10
132.3399832278492
 20
111.8258406599141
 30
0.0
 10
132.089516981181
 20
111.8023248541052
 30
0.0
 10
131.9656875983728
 20
111.7804056353009
 30
0.0
 10
131.5984679242742
 20
111.6835690704561
 30
0.0
 10
131.3676989061885
 20
111.5797679490042
 30
0.0
 10
130.9478099447689
 20
111.3010494680762
 30
0.0
 10
130.7635515698814
 20
111.1294871765725
 30
0.0
 10
130.5328031823981
 20
110.8308398153057
 30
0.0
 10
130.4637563326091
 20
110.7243722748034
 30
0.0
 10
130.3451916688036
 20
110.5040889264105
 30
0.0
 10
130.2949833000539
 20
110.389427410009
 30
0.0
 10
130.2131514476961
 20
110.1507467732323
 30
0.0
 10
130.1818005488134
 20
110.0267011463542
 30
0.0
 10
130.1404061707748
 20
109.7785861102458
 30
0.0
 10
130.1299003957106
 20
109.6533484077574
 30
0.0
 10
130.1295974433748
 20
109.4004693521663
 30
0.0
 10
130.1400819729914
 20
109.2725896659297
 30
0.0
 10
130.1812220504528
 20
109.0241676047243
 30
0.0
 10
130.2118001710014
 20
108.9023686779559
 30
0.0
 10
130.2930828793527
 20
108.6635891484816
 30
0.0
 10
130.3440837659146
 20
108.5465475861749
 30
0.0
 10
130.4626508142777
 20
108.325722388249
 30
0.0
 10
130.5305395675494
 20
108.2207840246862
 30
0.0
 10
130.6836900052871
 20
108.0218066914568
 30
0.0
 10
130.7692461768596
 20
107.9277985662627
 30
0.0
 10
130.9519575478188
 20
107.7573058813259
 30
0.0
 10
131.0497648475006
 20
107.6798676862766
 30
0.0
 10
131.2585679594176
 20
107.5407017903883
 30
0.0
 10
131.3701501347055
 20
107.4789199813813
 30
0.0
 10
131.5987959342045
 20
107.3758411107805
 30
0.0
 10
131.7167507451757
 20
107.3338370755849
 30
0.0
 10
131.9600791901644
 20
107.2691009542881
 30
0.0
 10
132.0864230655074
 20
107.2464276917254
 30
0.0
 10
132.3375290465253
 20
107.2225448955442
 30
0.0
 10
132.4632110402482
 20
107.2209415942776
 30
0.0
 10
132.71483311004
 20
107.2384083330485
 30
0.0
 10
132.8417307303258
 20
107.2578442236884
 30
0.0
 10
133.086921296587
 20
107.3164373950121
 30
0.0
 10
133.2061104536205
 20
107.3555002461687
 30
0.0
 10
133.4377954779753
 20
107.4530099682925
 30
0.0
 10
133.5509702823258
 20
107.5120453225811
 30
0.0
 10
133.7630486992615
 20
107.6458490394206
 30
0.0
 10
133.8628374779623
 20
107.7208442555653
 30
0.0
 10
134.0500956649513
 20
107.8870393200862
 30
0.0
 10
134.1379907018946
 20
107.9789335188277
 30
0.0
 10
134.2962117775265
 20
108.174297716542
 30
0.0
 10
134.3671497338182
 20
108.2781436702145
 30
0.0
 10
134.4297472690247
 20
108.3883717834271
 30
0.0
  0
LINE
  5
11C
330
1F
100
AcDbEntity
  8
0
  6
HIDDEN
 62
     7
370
     0
100
AcDbLine
 10
135.8297470589
 20
115.7741535457
 30
0.0
 11
135.8297470589
 21
103.2741533595
 31
0.0
  0
LINE
  5
11D
330
1F
100
AcDbEntity
  8
0
  6
HIDDEN
 62
     7
370
     0
100
AcDbLine
 10
134.9297476565
 20
102.3741534913
 30
0.0
 11
134.9297476565
 21
116.6550794619
 31
0.0
  0
LINE
  5
11E
330
1F
100
AcDbEntity
  8
0
  6
HIDDEN
 62
     7
370
     0
100
AcDbLine
 10
154.9297472094
 20
115.7741535457
 30
0.0
 11
154.9297472094
 21
103.2741533595
 31
0.0
  0
LINE
  5
11F
330
1F
100
AcDbEntity
  8
0
  6
HIDDEN
 62
     7
370
     0
100
AcDbLine
 10
156.1314681177
 20
113.7741536836
 30
0.0
 11
156.1314681177
 21
105.2741532216
 31
0.0
  0
LINE
  5
120
330
1F
100
AcDbEntity
  8
0
  6
HIDDEN
 62
     7
370
     0
100
AcDbLine
 10
218.9297502493
 20
105.2741532216
 30
0.0
 11
218.9297502493
 21
113.7741536836
 31
0.0
  0
SPLINE
  5
121
330
1F
100
AcDbEntity
  8
0
  6
HIDDEN
 62
     7
370
     0
100
AcDbSpline
210
0.0
220
0.0
230
1.0
 70
     8
 71
     3
 72
    62
 73
    58
 74
     0
 42
0.00000001
 43
0.00000001
 12
1.0
 22
0.0
 32
0.0
 13
1.0
 23
0.0
 33
0.0
 40
-0.0312500000000001
 40
-0.0312500000000001
 40
0.0
 40
0.0
 40
0.0312500000000017
 40
0.0312500000000017
 40
0.0625000000000034
 40
0.0625000000000034
 40
0.1250000000000039
 40
0.1250000000000039
 40
0.1875000000000045
 40
0.1875000000000045
 40
0.2187500000000042
 40
0.2187500000000042
 40
0.2500000000000039
 40
0.2500000000000039
 40
0.2812500000000036
 40
0.2812500000000036
 40
0.3125000000000033
 40
0.3125000000000033
 40
0.343750000000003
 40
0.343750000000003
 40
0.3750000000000027
 40
0.3750000000000027
 40
0.4375000000000021
 40
0.4375000000000021
 40
0.4687500000000019
 40
0.4687500000000019
 40
0.5000000000000016
 40
0.5000000000000016
 40
0.5312500000000013
 40
0.5312500000000013
 40
0.562500000000001
 40
0.562500000000001
 40
0.5937500000000008
 40
0.5937500000000008
 40
0.6250000000000004
 40
0.6250000000000004
 40
0.6562500000000001
 40
0.6562500000000001
 40
0.6874999999999998
 40
0.6874999999999998
 40
0.7187499999999994
 40
0.7187499999999994
 40
0.7499999999999991
 40
0.7499999999999991
 40
0.7812499999999989
 40
0.7812499999999989
 40
0.8124999999999986
 40
0.8124999999999986
 40
0.8749999999999991
 40
0.8749999999999991
 40
0.9062499999999993
 40
0.9062499999999993
 40
0.9374999999999997
 40
0.9374999999999997
 40
0.9687499999999999
 40
0.9687499999999999
 40
1.0
 40
1.0
 40
1.031250000000002
 40
1.031250000000002
 10
216.0709454930046
 20
106.1473694991368
 30
0.0
 10
215.7885490450448
 20
106.1473694991368
 30
0.0
 10
215.6502711680311
 20
106.1571723374291
 30
0.0
 10
215.3791050968232
 20
106.1956722563817
 30
0.0
 10
215.2449017693637
 20
106.2249083392635
 30
0.0
 10
214.8658385895735
 20
106.3392768090435
 30
0.0
 10
214.6368316678797
 20
106.4528849973106
 30
0.0
 10
214.255801048877
 20
106.7474523683167
 30
0.0
 10
214.1001779719553
 20
106.9318300290336
 30
0.0
 10
213.9411074953867
 20
107.2509652112351
 30
0.0
 10
213.8993803502433
 20
107.366903387368
 30
0.0
 10
213.8441096491013
 20
107.6069548556334
 30
0.0
 10
213.8300297176115
 20
107.7311397588029
 30
0.0
 10
213.8294731512903
 20
107.9882538168058
 30
0.0
 10
213.8434624287109
 20
108.1210244515927
 30
0.0
 10
213.8979439479465
 20
108.3815860309222
 30
0.0
 10
213.9387944061015
 20
108.5121363589492
 30
0.0
 10
214.0454083729609
 20
108.7663482525118
 30
0.0
 10
214.1101605152339
 20
108.8882126308219
 30
0.0
 10
214.2617190571865
 20
109.1214003615681
 30
0.0
 10
214.3490571803596
 20
109.23291402431
 30
0.0
 10
214.6348336013211
 20
109.5378027282986
 30
0.0
 10
214.8643699497869
 20
109.7092299365565
 30
0.0
 10
215.2406880857811
 20
109.8866479054282
 30
0.0
 10
215.3730209941418
 20
109.9334355035562
 30
0.0
 10
215.6470536531326
 20
109.9969732555185
 30
0.0
 10
215.7850788127548
 20
110.013055149099
 30
0.0
 10
216.0631501939735
 20
110.0139073554413
 30
0.0
 10
216.2048631326439
 20
109.9980603331604
 30
0.0
 10
216.4772853883242
 20
109.9361957918735
 30
0.0
 10
216.6091135328213
 20
109.8905759704476
 30
0.0
 10
216.8645124284259
 20
109.77141341976
 30
0.0
 10
216.9846784316152
 20
109.6994201144179
 30
0.0
 10
217.2098498441715
 20
109.5342766727355
 30
0.0
 10
217.3160009055059
 20
109.4399093458121
 30
0.0
 10
217.5074481942081
 20
109.2365320571275
 30
0.0
 10
217.5933822081276
 20
109.1273555782256
 30
0.0
 10
217.7457945261676
 20
108.8944218651756
 30
0.0
 10
217.8119780164551
 20
108.7704109672582
 30
0.0
 10
217.9181597150062
 20
108.5191163165274
 30
0.0
 10
217.959139778222
 20
108.3905036920124
 30
0.0
 10
218.0152199190193
 20
108.1273737315789
 30
0.0
 10
218.0294440944606
 20
107.9957613806312
 30
0.0
 10
218.0300407783321
 20
107.7396269539313
 30
0.0
 10
218.0162722108337
 20
107.6125482498975
 30
0.0
 10
217.9614221438916
 20
107.3709123333423
 30
0.0
 10
217.9209256306152
 20
107.2570424237912
 30
0.0
 10
217.761463159439
 20
106.9342334582916
 30
0.0
 10
217.6067947351248
 20
106.7501638604365
 30
0.0
 10
217.3184867037802
 20
106.5268092741441
 30
0.0
 10
217.2144618884323
 20
106.4620407213559
 30
0.0
 10
216.9900426302536
 20
106.3495342632409
 30
0.0
 10
216.868111842393
 20
106.301453041821
 30
0.0
 10
216.6156546909671
 20
106.225174557278
 30
0.0
 10
216.4847681610499
 20
106.1964931998907
 30
0.0
 10
216.2128272433371
 20
106.1574905183065
 30
0.0
 10
216.0709454930046
 20
106.1473694991368
 30
0.0
 10
215.7885490450448
 20
106.1473694991368
 30
0.0
  0
ELLIPSE
  5
122
330
1F
100
AcDbEntity
  8
0
  6
HIDDEN
 62
     7
370
     0
100
AcDbEllipse
 10
248.1805483539
 20
109.5241534526
 30
0.0
 11
11.76369068746792
 21
16.48124712370787
 31
0.0
210
0.0
220
0.0
230
1.0
 40
0.0668534593
 41
1.618477629394299
 42
3.189273956189437
  0
LINE
  5
123
330
1F
100
AcDbEntity
  8
0
  6
HIDDEN
 62
     7
370
     0
100
AcDbLine
 10
228.4297471498
 20
93.024153542
 30
0.0
 11
228.4297471498
 21
109.5241534526
 31
0.0
  0
SPLINE
  5
124
330
1F
100
AcDbEntity
  8
0
  6
HIDDEN
 62
     7
370
     0
100
AcDbSpline
210
0.0
220
0.0
230
1.0
 70
     8
 71
     3
 72
    12
 73
     8
 74
     0
 42
0.00000001
 43
0.00000001
 12
1.0
 22
0.0
 32
0.0
 13
1.0
 23
0.0
 33
0.0
 40
0.0
 40
0.0
 40
0.0
 40
0.0
 40
0.2499999999999999
 40
0.2499999999999999
 40
0.4999999999999999
 40
0.4999999999999999
 40
1.0
 40
1.0
 40
1.0
 40
1.0
 10
230.2520562208273
 20
117.4901439952195
 30
0.0
 10
229.9795137804037
 20
116.8632782251441
 30
0.0
 10
229.7286061538648
 20
116.2264675645424
 30
0.0
 10
229.2813319875701
 20
114.9277753025801
 30
0.0
 10
229.0841971875355
 20
114.2620656768107
 30
0.0
 10
228.6033047237535
 20
112.253285026394
 30
0.0
 10
228.4297472690247
 20
110.8981383031432
 30
0.0
 10
228.4297472690247
 20
109.5241534525872
 30
0.0
  0
SPLINE
  5
125
330
1F
100
AcDbEntity
  8
0
  6
HIDDEN
 62
     7
370
     0
100
AcDbSpline
210
0.0
220
0.0
230
1.0
 70
     8
 71
     3
 72
    26
 73
    22
 74
     0
 42
0.00000001
 43
0.00000001
 12
1.0
 22
0.0
 32
0.0
 13
1.0
 23
0.0
 33
0.0
 40
0.0
 40
0.0
 40
0.0
 40
0.0
 40
0.125
 40
0.125
 40
0.1875000000000001
 40
0.1875000000000001
 40
0.2500000000000002
 40
0.2500000000000002
 40
0.3750000000000003
 40
0.3750000000000003
 40
0.4375000000000005
 40
0.4375000000000005
 40
0.5000000000000007
 40
0.5000000000000007
 40
0.75
 40
0.75
 40
0.8125000000000001
 40
0.8125000000000001
 40
0.8750000000000001
 40
0.8750000000000001
 40
1.0
 40
1.0
 40
1.0
 40
1.0
 10
231.627187172837
 20
129.2210980440037
 30
0.0
 10
231.5759282932052
 20
129.1636059078828
 30
0.0
 10
231.5220751527409
 20
129.0449923124462
 30
0.0
 10
231.4375192527129
 20
128.7739101387241
 30
0.0
 10
231.4086036770269
 20
128.6674922374682
 30
0.0
 10
231.3503272570951
 20
128.4261537736578
 30
0.0
 10
231.3209051242983
 20
128.291129082439
 30
0.0
 10
231.2318748189105
 20
127.8439798706811
 30
0.0
 10
231.1715039578366
 20
127.4899771093506
 30
0.0
 10
231.0797401589258
 20
126.8753566672469
 30
0.0
 10
231.0489506080604
 20
126.6564977668833
 30
0.0
 10
230.9870183383776
 20
126.1902334879061
 30
0.0
 10
230.9558580131011
 20
125.9425540380444
 30
0.0
 10
230.8017242185144
 20
124.6518398664889
 30
0.0
 10
230.6817644386108
 20
123.4411015505999
 30
0.0
 10
230.5382833538354
 20
121.70333240666
 30
0.0
 10
230.5099974153083
 20
121.3452540357202
 30
0.0
 10
230.4548772445804
 20
120.6157599082707
 30
0.0
 10
230.4279549423629
 20
120.2432921299491
 30
0.0
 10
230.3491443510884
 20
119.1029290389174
 30
0.0
 10
230.2992059431461
 20
118.312187335175
 30
0.0
 10
230.2520562208273
 20
117.4901439952195
 30
0.0
  0
LINE
  5
126
330
1F
100
AcDbEntity
  8
0
  6
HIDDEN
 62
     7
370
     0
100
AcDbLine
 10
240.3103163098
 20
120.7347561607
 30
0.0
 11
240.2696435903
 21
120.7135098989
 31
0.0
  0
LINE
  5
127
330
1F
100
AcDbEntity
  8
0
  6
HIDDEN
 62
     7
370
     0
100
AcDbLine
 10
243.1349804257
 20
117.9169707934
 30
0.0
 11
252.5088017439
 21
118.7350762079
 31
0.0
  0
LINE
  5
128
330
1F
100
AcDbEntity
  8
0
  6
HIDDEN
 62
     7
370
     0
100
AcDbLine
 10
252.5088017439
 20
118.7350762079
 30
0.0
 11
252.5073935841
 21
118.7189941297
 31
0.0
  0
LINE
  5
129
330
1F
100
AcDbEntity
  8
0
  6
HIDDEN
 62
     7
370
     0
100
AcDbLine
 10
241.1271681641
 20
130.0486589784
 30
0.0
 11
240.3103163098
 21
120.7347561607
 31
0.0
  0
LINE
  5
12A
330
1F
100
AcDbEntity
  8
0
  6
HIDDEN
 62
     7
370
     0
100
AcDbLine
 10
250.1145204161
 20
114.5953240807
 30
0.0
 11
252.185871229
 21
115.0528786706
 31
0.0
  0
ELLIPSE
  5
12B
330
1F
100
AcDbEntity
  8
0
  6
HIDDEN
 62
     7
370
     0
100
AcDbEllipse
 10
241.264046295
 20
118.2359664686
 30
0.0
 11
2.099281448397704
 21
0.1276543563555492
 31
0.0
210
0.0
220
0.0
230
1.0
 40
0.4303093993
 41
5.785598212635358
 42
5.92352144674109
  0
ELLIPSE
  5
12C
330
1F
100
AcDbEntity
  8
0
  6
HIDDEN
 62
     7
370
     0
100
AcDbEllipse
 10
241.264046295
 20
118.2359664686
 30
0.0
 11
-1.616902374425223
 21
2.318196838028356
 31
0.0
210
0.0
220
0.0
230
1.0
 40
0.57803977
 41
5.737920332829636
 42
5.875843566935378
  0
LINE
  5
12D
330
1F
100
AcDbEntity
  8
0
  6
HIDDEN
 62
     7
370
     0
100
AcDbLine
 10
240.5766000603
 20
120.7027438099
 30
0.0
 11
240.5766000603
 21
120.5367234538
 31
0.0
  0
ARC
  5
12E
330
1F
100
AcDbEntity
  8
0
  6
HIDDEN
 62
     7
370
     0
100
AcDbCircle
 10
241.2656266452
 20
118.5556843561
 30
0.0
 40
2.09744452633843
100
AcDbArc
 50
340.9615754313
 51
109.1782212946
  0
LINE
  5
12F
330
1F
100
AcDbEntity
  8
0
  6
HIDDEN
 62
     7
370
     0
100
AcDbLine
 10
243.2483410095
 20
117.8714933807
 30
0.0
 11
243.2483410095
 21
118.0375137369
 31
0.0
  0
ARC
  5
130
330
1F
100
AcDbEntity
  8
0
  6
HIDDEN
 62
     7
370
     0
100
AcDbCircle
 10
241.2654194576
 20
118.5345574131
 30
0.0
 40
2.095894952283762
100
AcDbArc
 50
269.9623655717
 51
119.3290651194
  0
ARC
  5
131
330
1F
100
AcDbEntity
  8
0
  6
HIDDEN
 62
     7
370
     0
100
AcDbCircle
 10
241.2612495304
 20
118.535670251
 30
0.0
 40
2.097009198390397
100
AcDbArc
 50
175.4790854234
 51
270.0763189203
  0
LINE
  5
132
330
1F
100
AcDbEntity
  8
0
  6
HIDDEN
 62
     7
370
     0
100
AcDbLine
 10
243.2483410095
 20
118.0375137369
 30
0.0
 11
252.2730653738
 21
118.8251509333
 31
0.0
  0
LINE
  5
133
330
1F
100
AcDbEntity
  8
0
  6
HIDDEN
 62
     7
370
     0
100
AcDbLine
 10
252.5088017439
 20
118.7350762079
 30
0.0
 11
252.2730653738
 21
118.8251509333
 31
0.0
  0
LINE
  5
134
330
1F
100
AcDbEntity
  8
0
  6
HIDDEN
 62
     7
370
     0
100
AcDbLine
 10
241.3765838002
 20
129.824346211
 30
0.0
 11
240.5766000603
 21
120.7027438099
 31
0.0
  0
ELLIPSE
  5
135
330
1F
100
AcDbEntity
  8
0
  6
HIDDEN
 62
     7
370
     0
100
AcDbEllipse
 10
239.4635575545
 20
110.8684574258
 30
0.0
 11
1.563905465413598
 21
19.20496181771458
 31
0.0
210
0.0
220
0.0
230
1.0
 40
0.1268365588
 41
6.131957607273323
 42
6.241689991946518
  0
LINE
  5
136
330
1F
100
AcDbEntity
  8
0
  6
HIDDEN
 62
     7
370
     0
100
AcDbLine
 10
252.2730653738
 20
118.8251509333
 30
0.0
 11
251.977456138
 21
118.6333320106
 31
0.0
  0
LINE
  5
137
330
1F
100
AcDbEntity
  8
0
  6
HIDDEN
 62
     7
370
     0
100
AcDbLine
 10
241.3411339377
 20
129.2540731842
 30
0.0
 11
240.5766000603
 21
120.5367234538
 31
0.0
  0
ELLIPSE
  5
138
330
1F
100
AcDbEntity
  8
0
  6
HIDDEN
 62
     7
370
     0
100
AcDbEllipse
 10
239.7040988908
 20
110.8895020658
 30
0.0
 11
1.677499657206795
 21
19.21932851201851
 31
0.0
210
0.0
220
0.0
230
1.0
 40
0.0059876405
 41
5.984350002312622
 42
6.111436370919602
  0
LWPOLYLINE
  5
139
330
1F
100
AcDbEntity
  8
0
  6
HIDDEN
 62
     7
370
     0
100
AcDbPolyline
 90
       24
 70
   128
 43
0.0
 10
215.9297441696
 20
103.6837820897
 10
216.4963235711
 20
103.755465057
 10
217.0208742474
 20
103.9651979694
 10
217.4645041679
 20
104.2974258775
 10
217.794304118
 20
104.7275087798
 10
217.9858212923
 20
105.2235493439
 10
218.024854884
 20
105.7487589309
 10
217.9084917163
 20
106.2641845087
 10
217.6453819131
 20
106.7315999421
 10
217.2550310944
 20
107.1163388437
 10
216.7663922166
 20
107.3898668869
 10
216.2156974529
 20
107.5318977705
 10
215.6437983369
 20
107.5318977705
 10
215.0931035732
 20
107.3898668869
 10
214.6044646953
 20
107.1163388437
 10
214.2141138767
 20
106.7315999421
 10
213.9509966229
 20
106.2641845087
 10
213.8346409057
 20
105.7487589309
 10
213.8736670469
 20
105.2235493439
 10
214.0651916717
 20
104.7275087798
 10
214.3949916218
 20
104.2974258775
 10
214.8386215423
 20
103.9651979694
 10
215.3631722187
 20
103.755465057
 10
215.9297441696
 20
103.6837820897
  0
SPLINE
  5
13A
330
1F
100
AcDbEntity
  8
0
  6
HIDDEN
 62
     7
370
     0
100
AcDbSpline
210
0.0
220
0.0
230
1.0
 70
     8
 71
     3
 72
     8
 73
     4
 74
     0
 42
0.00000001
 43
0.00000001
 12
1.0
 22
0.0
 32
0.0
 13
1.0
 23
0.0
 33
0.0
 40
0.0
 40
0.0
 40
0.0
 40
0.0
 40
1.0
 40
1.0
 40
1.0
 40
1.0
 10
142.4347072910823
 20
95.78506892142957
 30
0.0
 10
142.4854344342889
 20
95.73931462010435
 30
0.0
 10
142.5433217638499
 20
95.71081047424082
 30
0.0
 10
142.6084269254651
 20
95.699089444582
 30
0.0
  0
LINE
  5
13B
330
1F
100
AcDbEntity
  8
0
  6
HIDDEN
 62
     7
370
     0
100
AcDbLine
 10
121.429746375
 20
99.8665423135
 30
0.0
 11
121.429746375
 21
96.0266229699
 31
0.0
  0
LINE
  5
13C
330
1F
100
AcDbEntity
  8
0
  6
HIDDEN
 62
     7
370
     0
100
AcDbLine
 10
119.9297470604
 20
100.2995551566
 30
0.0
 11
119.9297470604
 21
96.8926486561
 31
0.0
  0
LINE
  5
13D
330
1F
100
AcDbEntity
  8
0
  6
HIDDEN
 62
     7
370
     0
100
AcDbLine
 10
142.2297472465
 20
95.6039170737
 30
0.0
 11
142.2297472465
 21
95.5040550793
 31
0.0
  0
SPLINE
  5
13E
330
1F
100
AcDbEntity
  8
0
  6
HIDDEN
 62
     7
370
     0
100
AcDbSpline
210
0.0
220
0.0
230
1.0
 70
     8
 71
     3
 72
    24
 73
    20
 74
     0
 42
0.00000001
 43
0.00000001
 12
1.0
 22
0.0
 32
0.0
 13
1.0
 23
0.0
 33
0.0
 40
0.0
 40
0.0
 40
0.0
 40
0.0
 40
0.2500000000000015
 40
0.2500000000000015
 40
0.3750000000000022
 40
0.3750000000000022
 40
0.4375000000000026
 40
0.4375000000000026
 40
0.4687500000000021
 40
0.4687500000000021
 40
0.5000000000000014
 40
0.5000000000000014
 40
0.5625000000000007
 40
0.5625000000000007
 40
0.625
 40
0.625
 40
0.7500000000000007
 40
0.7500000000000007
 40
1.0
 40
1.0
 40
1.0
 40
1.0
 10
142.2297472690246
 20
95.60391706427973
 30
0.0
 10
142.2301501796604
 20
95.63434130111774
 30
0.0
 10
142.232194159001
 20
95.66719940167188
 30
0.0
 10
142.2414314018271
 20
95.72322476882545
 30
0.0
 10
142.2453184648077
 20
95.74283582201086
 30
0.0
 10
142.2562223562143
 20
95.77711010544037
 30
0.0
 10
142.2603644019647
 20
95.78917253091258
 30
0.0
 10
142.2722594757174
 20
95.81149169561206
 30
0.0
 10
142.2775065400263
 20
95.82045820797234
 30
0.0
 10
142.2943736064053
 20
95.83810777249866
 30
0.0
 10
142.3021960139305
 20
95.84225205663844
 30
0.0
 10
142.3191448145521
 20
95.84873959781252
 30
0.0
 10
142.3266011657701
 20
95.84814271644086
 30
0.0
 10
142.3406610689624
 20
95.84639645246885
 30
0.0
 10
142.3467934540984
 20
95.84456576457038
 30
0.0
 10
142.3640882166216
 20
95.83799935499754
 30
0.0
 10
142.3741055350306
 20
95.83213413983884
 30
0.0
 10
142.4024768692734
 20
95.8133894558085
 30
0.0
 10
142.4190123069178
 20
95.79922530772187
 30
0.0
 10
142.4347072910823
 20
95.7850689214296
 30
0.0
  0
LINE
  5
13F
330
1F
100
AcDbEntity
  8
0
  6
HIDDEN
 62
     7
370
     0
100
AcDbLine
 10
142.2297472465
 20
99.6052579025
 30
0.0
 11
142.2297472465
 21
98.5501150603
 31
0.0
  0
SPLINE
  5
140
330
1F
100
AcDbEntity
  8
0
  6
HIDDEN
 62
     7
370
     0
100
AcDbSpline
210
0.0
220
0.0
230
1.0
 70
     8
 71
     3
 72
    16
 73
    12
 74
     0
 42
0.00000001
 43
0.00000001
 12
1.0
 22
0.0
 32
0.0
 13
1.0
 23
0.0
 33
0.0
 40
0.0
 40
0.0
 40
0.0
 40
0.0
 40
0.2500000000000004
 40
0.2500000000000004
 40
0.3750000000000007
 40
0.3750000000000007
 40
0.5000000000000009
 40
0.5000000000000009
 40
0.7500000000000004
 40
0.7500000000000004
 40
1.0
 40
1.0
 40
1.0
 40
1.0
 10
142.2297472690245
 20
98.5501154603407
 30
0.0
 10
142.1492099371254
 20
98.1611082763967
 30
0.0
 10
142.0891725930981
 20
97.80460783477237
 30
0.0
 10
142.0284348859445
 20
97.31810544958505
 30
0.0
 10
142.0131125108316
 20
97.16402650873161
 30
0.0
 10
141.9925297015273
 20
96.87255695023896
 30
0.0
 10
141.9873301045016
 20
96.73498706634008
 30
0.0
 10
141.9872764513213
 20
96.35674223115083
 30
0.0
 10
142.0074739947987
 20
96.14686116259875
 30
0.0
 10
142.0881520831561
 20
95.81028186368692
 30
0.0
 10
142.1491982477632
 20
95.68399737176838
 30
0.0
 10
142.2297472690209
 20
95.60391706427592
 30
0.0
  0
LINE
  5
141
330
1F
100
AcDbEntity
  8
0
  6
HIDDEN
 62
     7
370
     0
100
AcDbLine
 10
142.2297472465
 20
123.5442518259
 30
0.0
 11
142.2297472465
 21
123.4443898315
 31
0.0
  0
SPLINE
  5
142
330
1F
100
AcDbEntity
  8
0
  6
HIDDEN
 62
     7
370
     0
100
AcDbSpline
210
0.0
220
0.0
230
1.0
 70
     8
 71
     3
 72
    24
 73
    20
 74
     0
 42
0.00000001
 43
0.00000001
 12
1.0
 22
0.0
 32
0.0
 13
1.0
 23
0.0
 33
0.0
 40
0.0
 40
0.0
 40
0.0
 40
0.0
 40
0.2500000000000068
 40
0.2500000000000068
 40
0.3750000000000103
 40
0.3750000000000103
 40
0.4375000000000109
 40
0.4375000000000109
 40
0.5000000000000114
 40
0.5000000000000114
 40
0.5312500000000113
 40
0.5312500000000113
 40
0.562500000000011
 40
0.562500000000011
 40
0.625000000000009
 40
0.625000000000009
 40
0.7500000000000047
 40
0.7500000000000047
 40
1.0
 40
1.0
 40
1.0
 40
1.0
 10
142.4347072910851
 20
123.2632379837471
 30
0.0
 10
142.4189407027867
 20
123.2490170127589
 30
0.0
 10
142.4023291698321
 20
123.234786722424
 30
0.0
 10
142.3738028218741
 20
123.2159896672026
 30
0.0
 10
142.3637173880841
 20
123.2101012468613
 30
0.0
 10
142.3462346175492
 20
123.203563852059
 30
0.0
 10
142.3400269611037
 20
123.2017526380578
 30
0.0
 10
142.3257554608585
 20
123.2001468355513
 30
0.0
 10
142.3181853903555
 20
123.1995940581652
 30
0.0
 10
142.3007890609202
 20
123.206792802878
 30
0.0
 10
142.2923297879602
 20
123.2118845516256
 30
0.0
 10
142.2762688234126
 20
123.2296994841047
 30
0.0
 10
142.2714355875663
 20
123.2382218989671
 30
0.0
 10
142.260009667831
 20
123.2601183356158
 30
0.0
 10
142.2559883119485
 20
123.2718588584218
 30
0.0
 10
142.2452278169174
 20
123.3059091223752
 30
0.0
 10
142.2413535078565
 20
123.3254841114039
 30
0.0
 10
142.2321806357293
 20
123.3813324200851
 30
0.0
 10
142.2301482650146
 20
123.414110181114
 30
0.0
 10
142.2297472690247
 20
123.4443898409019
 30
0.0
  0
LINE
  5
143
330
1F
100
AcDbEntity
  8
0
  6
HIDDEN
 62
     7
370
     0
100
AcDbLine
 10
121.429746375
 20
123.0216839353
 30
0.0
 11
121.429746375
 21
119.1817645917
 31
0.0
  0
LINE
  5
144
330
1F
100
AcDbEntity
  8
0
  6
HIDDEN
 62
     7
370
     0
100
AcDbLine
 10
119.9297470604
 20
122.155658249
 30
0.0
 11
119.9297470604
 21
118.7487517486
 31
0.0
  0
LINE
  5
145
330
1F
100
AcDbEntity
  8
0
  6
HIDDEN
 62
     7
370
     0
100
AcDbLine
 10
142.2297472465
 20
120.4981918449
 30
0.0
 11
142.2297472465
 21
119.4430490027
 31
0.0
  0
SPLINE
  5
146
330
1F
100
AcDbEntity
  8
0
  6
HIDDEN
 62
     7
370
     0
100
AcDbSpline
210
0.0
220
0.0
230
1.0
 70
     8
 71
     3
 72
    16
 73
    12
 74
     0
 42
0.00000001
 43
0.00000001
 12
1.0
 22
0.0
 32
0.0
 13
1.0
 23
0.0
 33
0.0
 40
0.0
 40
0.0
 40
0.0
 40
0.0
 40
0.2500000000000005
 40
0.2500000000000005
 40
0.3750000000000004
 40
0.3750000000000004
 40
0.5000000000000003
 40
0.5000000000000003
 40
0.7500000000000001
 40
0.7500000000000001
 40
1.0
 40
1.0
 40
1.0
 40
1.0
 10
142.2297472690245
 20
123.4443898409021
 30
0.0
 10
142.1492099371252
 20
123.3643211547497
 30
0.0
 10
142.0891725930979
 20
123.2404566632594
 30
0.0
 10
142.0284348859443
 20
122.9897758393273
 30
0.0
 10
142.0131125108314
 20
122.8953372350178
 30
0.0
 10
141.9925297015272
 20
122.6840261673991
 30
0.0
 10
141.9873301045015
 20
122.5667367126455
 30
0.0
 10
141.9872764513214
 20
122.1887010408903
 30
0.0
 10
142.0074739947991
 20
121.8999238871462
 30
0.0
 10
142.0881520831571
 20
121.2500840240073
 30
0.0
 10
142.1491982477645
 20
120.8872550901146
 30
0.0
 10
142.2297472690226
 20
120.498191444843
 30
0.0
  0
SPLINE
  5
147
330
1F
100
AcDbEntity
  8
0
  6
HIDDEN
 62
     7
370
     0
100
AcDbSpline
210
0.0
220
0.0
230
1.0
 70
     8
 71
     3
 72
     8
 73
     4
 74
     0
 42
0.00000001
 43
0.00000001
 12
1.0
 22
0.0
 32
0.0
 13
1.0
 23
0.0
 33
0.0
 40
0.0
 40
0.0
 40
0.0
 40
0.0
 40
1.0
 40
1.0
 40
1.0
 40
1.0
 10
142.6084269254651
 20
123.3492174605923
 30
0.0
 10
142.543321763851
 20
123.3374964309337
 30
0.0
 10
142.485434434291
 20
123.308992285071
 30
0.0
 10
142.434707291085
 20
123.2632379837472
 30
0.0
  0
LINE
  5
148
330
1F
100
AcDbEntity
  8
0
  6
HIDDEN
 62
     7
370
     0
100
AcDbLine
 10
252.9475068306
 20
129.6940765346
 30
0.0
 11
252.4483402823
 21
130.2050466651
 31
0.0
  0
CIRCLE
  5
149
330
1F
100
AcDbEntity
  8
0
  6
HIDDEN
 62
     7
370
     0
100
AcDbCircle
 10
246.9832899049
 20
124.2684728136
 30
0.0
 40
2.997507876943093
  0
LINE
  5
14A
330
1F
100
AcDbEntity
  8
0
  6
HIDDEN
 62
     7
370
     0
100
AcDbLine
 10
243.2483410095
 20
117.8714933807
 30
0.0
 11
251.977456138
 21
118.6333320106
 31
0.0
  0
ELLIPSE
  5
14B
330
1F
100
AcDbEntity
  8
0
  6
HIDDEN
 62
     7
370
     0
100
AcDbEllipse
 10
-467.8551050092
 20
48.9860929511
 30
0.0
 11
3113.331223476197
 21
271.0557416021161
 31
0.0
210
0.0
220
0.0
230
1.0
 40
0.0060650906
 41
1.336791902016851
 42
1.340457436436288
  0
LINE
  5
14C
330
1F
100
AcDbEntity
  8
0
  6
HIDDEN
 62
     7
370
     0
100
AcDbLine
 10
251.977456138
 20
118.6333320106
 30
0.0
 11
252.9475068306
 21
129.6940765346
 31
0.0
  0
CIRCLE
  5
14D
330
1F
100
AcDbEntity
  8
0
  6
HIDDEN
 62
     7
370
     0
100
AcDbCircle
 10
246.9834107233
 20
124.2048935097
 30
0.0
 40
2.09886435376188
  0
SPLINE
  5
14E
330
1F
100
AcDbEntity
  8
0
  6
HIDDEN
 62
     7
370
     0
100
AcDbSpline
210
0.0
220
0.0
230
1.0
 70
     8
 71
     3
 72
    26
 73
    22
 74
     0
 42
0.00000001
 43
0.00000001
 12
1.0
 22
0.0
 32
0.0
 13
1.0
 23
0.0
 33
0.0
 40
0.0
 40
0.0
 40
0.0
 40
0.0
 40
0.0243743703368001
 40
0.0489971525125504
 40
0.0738685337054844
 40
0.098988695526954
 40
0.1243578142357305
 40
0.1856954415710476
 40
0.2489790439885367
 40
0.3101454363655545
 40
0.3738448546659929
 40
0.4988682906573669
 40
0.624041829356412
 40
0.6866887241263754
 40
0.7493506722407169
 40
0.812019705403387
 40
0.87468778768778
 40
0.9076277637479638
 40
0.9373523483945688
 40
0.9696683175501776
 40
1.0
 40
1.0
 40
1.0
 40
1.0
 10
252.4483392689806
 20
130.2050530493522
 30
0.0
 10
252.4298000132775
 20
130.162219124932
 30
0.0
 10
252.3925325587095
 20
130.0761147333714
 30
0.0
 10
252.3358107580536
 20
129.9358057874838
 30
0.0
 10
252.2781511438752
 20
129.7863210169922
 30
0.0
 10
252.219527335385
 20
129.6267245337558
 30
0.0
 10
252.1320127954783
 20
129.3774366661502
 30
0.0
 10
252.0134806615872
 20
129.0144262533916
 30
0.0
 10
251.8651246865962
 20
128.5153835234868
 30
0.0
 10
251.7137054229665
 20
127.9616147258693
 30
0.0
 10
251.5116927340931
 20
127.1639963502426
 30
0.0
 10
251.2570640635457
 20
126.0480120766657
 30
0.0
 10
251.0052419749407
 20
124.7988342506375
 30
0.0
 10
250.8065901923783
 20
123.7257251366085
 30
0.0
 10
250.6593429409601
 20
122.8858289240443
 30
0.0
 10
250.5143488016091
 20
122.0137521007456
 30
0.0
 10
250.3945187876655
 20
121.2545070051929
 30
0.0
 10
250.3012055853619
 20
120.6396171100612
 30
0.0
 10
250.2313265680022
 20
120.1670194614943
 30
0.0
 10
250.1641478264148
 20
119.7018119994795
 30
0.0
 10
250.1193610127789
 20
119.3814959951952
 30
0.0
 10
250.0976768893627
 20
119.226410799237
 30
0.0
  0
SPLINE
  5
14F
330
1F
100
AcDbEntity
  8
0
  6
HIDDEN
 62
     7
370
     0
100
AcDbSpline
210
0.0
220
0.0
230
1.0
 70
     8
 71
     3
 72
    29
 73
    25
 74
     0
 42
0.00000001
 43
0.00000001
 12
1.0
 22
0.0
 32
0.0
 13
1.0
 23
0.0
 33
0.0
 40
0.0
 40
0.0
 40
0.0
 40
0.0
 40
0.0250646529423641
 40
0.0501099567531546
 40
0.075148604118862
 40
0.1001932978464661
 40
0.1252567315495832
 40
0.1565688276539781
 40
0.1879161753422368
 40
0.2505782123967503
 40
0.3132394774606909
 40
0.3758904924465321
 40
0.4385218376350914
 40
0.5011244177994723
 40
0.5636894494699285
 40
0.6262086644144162
 40
0.6886743696272634
 40
0.7510795575463036
 40
0.8134180264344016
 40
0.8445470482659292
 40
0.8756906949961822
 40
0.917147251401916
 40
0.9585636175483808
 40
1.0
 40
1.0
 40
1.0
 40
1.0
 10
250.4414680969035
 20
118.005500961364
 30
0.0
 10
250.4601957921858
 20
118.1413393069105
 30
0.0
 10
250.4976367255528
 20
118.4129111350305
 30
0.0
 10
250.5547140601702
 20
118.8157381075397
 30
0.0
 10
250.612420189898
 20
119.2149412946695
 30
0.0
 10
250.6708238535186
 20
119.6102168538613
 30
0.0
 10
250.7347900565461
 20
120.0340070890896
 30
0.0
 10
250.8045104157457
 20
120.4848924975778
 30
0.0
 10
250.905298214739
 20
121.1194336968383
 30
0.0
 10
251.0334021150103
 20
121.8939308724175
 30
0.0
 10
251.1899380769096
 20
122.789916718533
 30
0.0
 10
251.3487989370737
 20
123.6497887656163
 30
0.0
 10
251.5094592509849
 20
124.4706087891127
 30
0.0
 10
251.6713846326916
 20
125.2497523452176
 30
0.0
 10
251.8340413489654
 20
125.9845416052586
 30
0.0
 10
251.9968892828258
 20
126.6726381174208
 30
0.0
 10
252.1593906510603
 20
127.3116836972357
 30
0.0
 10
252.3210039655791
 20
127.8996077670095
 30
0.0
 10
252.4545334505741
 20
128.345431144591
 30
0.0
 10
252.5603783416445
 20
128.6746084750371
 30
0.0
 10
252.6479307790487
 20
128.9334285168705
 30
0.0
 10
252.74333281309
 20
129.1976072592554
 30
0.0
 10
252.8462838885337
 20
129.4621918269453
 30
0.0
 10
252.9137620684624
 20
129.6167690618492
 30
0.0
 10
252.9475093094167
 20
129.6940763513738
 30
0.0
  0
SPLINE
  5
150
330
1F
100
AcDbEntity
  8
0
  6
HIDDEN
 62
     7
370
     0
100
AcDbSpline
210
0.0
220
0.0
230
1.0
 70
     8
 71
     3
 72
    60
 73
    56
 74
     0
 42
0.00000001
 43
0.00000001
 12
1.0
 22
0.0
 32
0.0
 13
1.0
 23
0.0
 33
0.0
 40
-0.03125
 40
-0.03125
 40
0.0
 40
0.0
 40
0.0312499999999994
 40
0.0312499999999994
 40
0.0624999999999987
 40
0.0624999999999987
 40
0.0937499999999981
 40
0.0937499999999981
 40
0.1249999999999974
 40
0.1249999999999974
 40
0.1874999999999977
 40
0.1874999999999977
 40
0.2499999999999979
 40
0.2499999999999979
 40
0.3124999999999981
 40
0.3124999999999981
 40
0.3749999999999983
 40
0.3749999999999983
 40
0.4062499999999985
 40
0.4062499999999985
 40
0.4374999999999987
 40
0.4374999999999987
 40
0.4687499999999989
 40
0.4687499999999989
 40
0.4999999999999991
 40
0.4999999999999991
 40
0.5312499999999993
 40
0.5312499999999993
 40
0.5624999999999996
 40
0.5624999999999996
 40
0.5937499999999999
 40
0.5937499999999999
 40
0.6250000000000001
 40
0.6250000000000001
 40
0.6562500000000003
 40
0.6562500000000003
 40
0.6875000000000006
 40
0.6875000000000006
 40
0.7500000000000006
 40
0.7500000000000006
 40
0.7812500000000004
 40
0.7812500000000004
 40
0.8125000000000003
 40
0.8125000000000003
 40
0.8437500000000003
 40
0.8437500000000003
 40
0.8750000000000002
 40
0.8750000000000002
 40
0.9062500000000001
 40
0.9062500000000001
 40
0.9375
 40
0.9375
 40
0.96875
 40
0.96875
 40
1.0
 40
1.0
 40
1.031249999999999
 40
1.031249999999999
 10
246.8170974646313
 20
121.3900957190575
 30
0.0
 10
247.1516489486629
 20
121.3888096896423
 30
0.0
 10
247.3154676150826
 20
121.4087991808449
 30
0.0
 10
247.636452064415
 20
121.4884494374038
 30
0.0
 10
247.7910177172158
 20
121.5480903201879
 30
0.0
 10
248.0758050654286
 20
121.6980934873837
 30
0.0
 10
248.2084833046771
 20
121.7898680761664
 30
0.0
 10
248.4427206859709
 20
121.9928646539146
 30
0.0
 10
248.5470729939694
 20
122.1062696378373
 30
0.0
 10
248.8143978418075
 20
122.4630539119223
 30
0.0
 10
248.9351208924101
 20
122.7264711414128
 30
0.0
 10
249.0752767074012
 20
123.2496595772102
 30
0.0
 10
249.0968096307808
 20
123.5164403045315
 30
0.0
 10
249.0585353500863
 20
124.0246674477728
 30
0.0
 10
248.9998458808949
 20
124.2691001065048
 30
0.0
 10
248.8078501154763
 20
124.7331420800859
 30
0.0
 10
248.6780867486808
 20
124.9459383895165
 30
0.0
 10
248.4249689285433
 20
125.2356454130997
 30
0.0
 10
248.3296968755266
 20
125.3278647714201
 30
0.0
 10
248.1195804387006
 20
125.4955605115822
 30
0.0
 10
248.0047381590794
 20
125.5715109439766
 30
0.0
 10
247.7485463579145
 20
125.7037571273395
 30
0.0
 10
247.6097958447492
 20
125.7585593135146
 30
0.0
 10
247.3089255704892
 20
125.8367502936436
 30
0.0
 10
247.147001846233
 20
125.8594488972632
 30
0.0
 10
246.8157628750155
 20
125.8614334930013
 30
0.0
 10
246.6490882708587
 20
125.8406519184989
 30
0.0
 10
246.3306210898514
 20
125.759045803601
 30
0.0
 10
246.1824857615917
 20
125.6996092296192
 30
0.0
 10
245.9123808174945
 20
125.5552724013359
 30
0.0
 10
245.7934403680619
 20
125.4725210524579
 30
0.0
 10
245.578451689647
 20
125.290767349697
 30
0.0
 10
245.4828090422607
 20
125.1915015166925
 30
0.0
 10
245.3163389964347
 20
124.9858095064445
 30
0.0
 10
245.2444260965663
 20
124.8784268747552
 30
0.0
 10
245.1198845765427
 20
124.6550949189895
 30
0.0
 10
245.0671570680051
 20
124.5384654204495
 30
0.0
 10
244.939691414858
 20
124.1841913316635
 30
0.0
 10
244.8931925343236
 20
123.9401328032283
 30
0.0
 10
244.881625403607
 20
123.5609388585585
 30
0.0
 10
244.8878974697474
 20
123.4323923348999
 30
0.0
 10
244.9212820235883
 20
123.1785539597239
 30
0.0
 10
244.9483125140338
 20
123.0523132501954
 30
0.0
 10
245.0248874591048
 20
122.8016861906839
 30
0.0
 10
245.0743904670464
 20
122.6772908666403
 30
0.0
 10
245.2001036600569
 20
122.4313294200108
 30
0.0
 10
245.27546107487
 20
122.3118396431397
 30
0.0
 10
245.4511645279945
 20
122.0864153523765
 30
0.0
 10
245.5528315139857
 20
121.9788577647103
 30
0.0
 10
245.7827827597877
 20
121.7835007870224
 30
0.0
 10
245.9090792641421
 20
121.6970206091063
 30
0.0
 10
246.1873615427093
 20
121.5505870381014
 30
0.0
 10
246.3387544087162
 20
121.4916817129052
 30
0.0
 10
246.6514137166132
 20
121.4120189930148
 30
0.0
 10
246.8170974646313
 20
121.3900957190575
 30
0.0
 10
247.1516489486629
 20
121.3888096896423
 30
0.0
  0
LWPOLYLINE
  5
151
330
1F
100
AcDbEntity
  8
0
  6
HIDDEN
 62
     7
370
     0
100
AcDbPolyline
 90
       26
 70
   128
 43
0.0
 10
215.9297441696
 20
103.2216700727
 10
216.5514727687
 20
103.2939686442
 10
217.1341305231
 20
103.5063209014
 10
217.6411127304
 20
103.8453842515
 10
218.0405681585
 20
104.289854225
 10
218.3073883508
 20
104.8118032517
 10
218.4248169516
 20
105.3784348073
 10
218.3854629849
 20
105.9541458266
 10
218.1918149446
 20
106.5027618783
 10
217.8560321783
 20
106.9898119199
 10
217.3992072796
 20
107.3846924587
 10
216.8500622367
 20
107.6625916643
 10
216.2430783366
 20
107.80604817
 10
215.6164174532
 20
107.80604817
 10
215.0094335531
 20
107.6625916643
 10
214.4602810596
 20
107.3846924587
 10
214.0034636115
 20
106.9898119199
 10
213.6676808451
 20
106.5027618783
 10
213.4740328048
 20
105.9541458266
 10
213.4346788381
 20
105.3784348073
 10
213.5521074389
 20
104.8118032517
 10
213.8189276312
 20
104.289854225
 10
214.2183830594
 20
103.8453842515
 10
214.7253652667
 20
103.5063209014
 10
215.3080230211
 20
103.2939686442
 10
215.9297441696
 20
103.2216700727
  0
LINE
  5
152
330
1F
100
AcDbEntity
  8
0
  6
HIDDEN
 62
     7
370
     0
100
AcDbLine
 10
119.9297470604
 20
118.7487517486
 30
0.0
 11
119.9297470604
 21
111.3743673081
 31
0.0
  0
LINE
  5
153
330
1F
100
AcDbEntity
  8
0
  6
HIDDEN
 62
     7
370
     0
100
AcDbLine
 10
119.9297470604
 20
107.6739395971
 30
0.0
 11
119.9297470604
 21
100.2995551566
 31
0.0
  0
SPLINE
  5
154
330
1F
100
AcDbEntity
  8
0
  6
HIDDEN
 62
     7
370
     0
100
AcDbSpline
210
0.0
220
0.0
230
1.0
 70
     8
 71
     3
 72
    24
 73
    20
 74
     0
 42
0.00000001
 43
0.00000001
 12
1.0
 22
0.0
 32
0.0
 13
1.0
 23
0.0
 33
0.0
 40
0.0
 40
0.0
 40
0.0
 40
0.0
 40
0.2500000000000038
 40
0.2500000000000038
 40
0.3750000000000057
 40
0.3750000000000057
 40
0.4375000000000068
 40
0.4375000000000068
 40
0.5000000000000078
 40
0.5000000000000078
 40
0.5312500000000079
 40
0.5312500000000079
 40
0.562500000000008
 40
0.562500000000008
 40
0.6250000000000084
 40
0.6250000000000084
 40
0.7500000000000069
 40
0.7500000000000069
 40
1.0
 40
1.0
 40
1.0
 40
1.0
 10
142.4347072910851
 20
98.73155972578891
 30
0.0
 10
142.4189384137277
 20
98.65770103385933
 30
0.0
 10
142.4023244318776
 20
98.58398964512358
 30
0.0
 10
142.3737927658726
 20
98.47244282150155
 30
0.0
 10
142.3637053510539
 20
98.43507124837306
 30
0.0
 10
142.3462177905995
 20
98.37817175073538
 30
0.0
 10
142.3400082288163
 20
98.35906865059007
 30
0.0
 10
142.3257306751637
 20
98.32019513635454
 30
0.0
 10
142.3181591273683
 20
98.30027047692117
 30
0.0
 10
142.30074154369
 20
98.27019825889377
 30
0.0
 10
142.292259047045
 20
98.25851688009071
 30
0.0
 10
142.2762207351731
 20
98.251255369342
 30
0.0
 10
142.2714001869696
 20
98.25483361635177
 30
0.0
 10
142.2599909624217
 20
98.2665944715834
 30
0.0
 10
142.2559704819641
 20
98.27826012163398
 30
0.0
 10
142.2452166271438
 20
98.31479545174756
 30
0.0
 10
142.2413439458617
 20
98.34219118507112
 30
0.0
 10
142.232175796024
 20
98.4269171768271
 30
0.0
 10
142.2301472906549
 20
98.48774929899919
 30
0.0
 10
142.2297472690247
 20
98.5501154603408
 30
0.0
  0
SPLINE
  5
155
330
1F
100
AcDbEntity
  8
0
  6
HIDDEN
 62
     7
370
     0
100
AcDbSpline
210
0.0
220
0.0
230
1.0
 70
     8
 71
     3
 72
    24
 73
    20
 74
     0
 42
0.00000001
 43
0.00000001
 12
1.0
 22
0.0
 32
0.0
 13
1.0
 23
0.0
 33
0.0
 40
0.0
 40
0.0
 40
0.0
 40
0.0
 40
0.2500000000000041
 40
0.2500000000000041
 40
0.3750000000000066
 40
0.3750000000000066
 40
0.4375000000000067
 40
0.4375000000000067
 40
0.4687500000000048
 40
0.4687500000000048
 40
0.5000000000000029
 40
0.5000000000000029
 40
0.5625000000000019
 40
0.5625000000000019
 40
0.6250000000000008
 40
0.6250000000000008
 40
0.7500000000000014
 40
0.7500000000000014
 40
1.0
 40
1.0
 40
1.0
 40
1.0
 10
142.2297472690211
 20
120.4981914448444
 30
0.0
 10
142.2301519385969
 20
120.561282253337
 30
0.0
 10
142.2321953854113
 20
120.6224679758395
 30
0.0
 10
142.2415949506656
 20
120.7079677083412
 30
0.0
 10
142.2455458441943
 20
120.7355480917823
 30
0.0
 10
142.2566981524913
 20
120.7720021738939
 30
0.0
 10
142.2609196934178
 20
120.7838605955883
 30
0.0
 10
142.2731274149814
 20
120.7944806469636
 30
0.0
 10
142.2789181852336
 20
120.7973140141859
 30
0.0
 10
142.2958396983435
 20
120.7859994271876
 30
0.0
 10
142.3032458142932
 20
120.7742185414338
 30
0.0
 10
142.3197030675364
 20
120.7441777002041
 30
0.0
 10
142.3271595854474
 20
120.7244647465911
 30
0.0
 10
142.341067514722
 20
120.686062680531
 30
0.0
 10
142.347159460617
 20
120.6671810306196
 30
0.0
 10
142.364353752968
 20
120.6108801200881
 30
0.0
 10
142.3743387031716
 20
120.5738040422784
 30
0.0
 10
142.4025847482705
 20
120.4631453713885
 30
0.0
 10
142.4190642852316
 20
120.3900163109801
 30
0.0
 10
142.4347072910913
 20
120.3167471793562
 30
0.0
  0
SPLINE
  5
156
330
1F
100
AcDbEntity
  8
0
  6
HIDDEN
 62
     7
370
     0
100
AcDbSpline
210
0.0
220
0.0
230
1.0
 70
     8
 71
     3
 72
     8
 73
     4
 74
     0
 42
0.00000001
 43
0.00000001
 12
1.0
 22
0.0
 32
0.0
 13
1.0
 23
0.0
 33
0.0
 40
0.0
 40
0.0
 40
0.0
 40
0.0
 40
1.0
 40
1.0
 40
1.0
 40
1.0
 10
142.6084269254651
 20
99.47063413498037
 30
0.0
 10
142.543321763851
 20
99.21560889977471
 30
0.0
 10
142.485434434291
 20
98.96915688363346
 30
0.0
 10
142.434707291085
 20
98.7315597257889
 30
0.0
  0
SPLINE
  5
157
330
1F
100
AcDbEntity
  8
0
  6
HIDDEN
 62
     7
370
     0
100
AcDbSpline
210
0.0
220
0.0
230
1.0
 70
     8
 71
     3
 72
     8
 73
     4
 74
     0
 42
0.00000001
 43
0.00000001
 12
1.0
 22
0.0
 32
0.0
 13
1.0
 23
0.0
 33
0.0
 40
0.0
 40
0.0
 40
0.0
 40
0.0
 40
1.0
 40
1.0
 40
1.0
 40
1.0
 10
142.4347072910913
 20
120.3167471793562
 30
0.0
 10
142.4854344342958
 20
120.0791500215207
 30
0.0
 10
142.5433217638537
 20
119.8326980053891
 30
0.0
 10
142.6084269254651
 20
119.5776727701939
 30
0.0
  0
LINE
  5
158
330
1F
100
AcDbEntity
  8
0
  6
HIDDEN
 62
     7
370
     0
100
AcDbLine
 10
121.429746375
 20
106.96912515
 30
0.0
 11
121.429746375
 21
99.8665423135
 31
0.0
  0
LINE
  5
159
330
1F
100
AcDbEntity
  8
0
  6
HIDDEN
 62
     7
370
     0
100
AcDbLine
 10
121.429746375
 20
119.1817645917
 30
0.0
 11
121.429746375
 21
112.0791817552
 31
0.0
  0
LINE
  5
15A
330
1F
100
AcDbEntity
  8
0
  6
HIDDEN
 62
     7
370
     0
100
AcDbLine
 10
142.2297472465
 20
119.4430490027
 30
0.0
 11
142.2297472465
 21
99.6052579025
 31
0.0
  0
LINE
  5
15B
330
1F
100
AcDbEntity
  8
0
  6
HIDDEN
 62
     7
370
     0
100
AcDbLine
 10
143.7297472741
 20
118.0035204629
 30
0.0
 11
143.7297472741
 21
101.0447864423
 31
0.0
  0
SPLINE
  5
15C
330
1F
100
AcDbEntity
  8
0
  6
HIDDEN
 62
     7
370
     0
100
AcDbSpline
210
0.0
220
0.0
230
1.0
 70
     8
 71
     3
 72
     8
 73
     4
 74
     0
 42
0.00000001
 43
0.00000001
 12
1.0
 22
0.0
 32
0.0
 13
1.0
 23
0.0
 33
0.0
 40
0.0000137051794235
 40
0.0000137051794235
 40
0.0000137051794235
 40
0.0000137051794235
 40
0.0027147144718019
 40
0.0027147144718019
 40
0.0027147144718019
 40
0.0027147144718019
 10
121.4297472690247
 20
106.9691252155254
 30
0.0
 10
122.3297434045195
 20
106.956153648327
 30
0.0
 10
123.2297435831148
 20
106.943518791015
 30
0.0
 10
124.1297472690247
 20
106.9312087727592
 30
0.0
  0
SPLINE
  5
15D
330
1F
100
AcDbEntity
  8
0
  6
HIDDEN
 62
     7
370
     0
100
AcDbSpline
210
0.0
220
0.0
230
1.0
 70
     8
 71
     3
 72
     8
 73
     4
 74
     0
 42
0.00000001
 43
0.00000001
 12
1.0
 22
0.0
 32
0.0
 13
1.0
 23
0.0
 33
0.0
 40
0.0000137050638847
 40
0.0000137050638847
 40
0.0000137050638847
 40
0.0000137050638847
 40
0.0027147143562632
 40
0.0027147143562632
 40
0.0027147143562632
 40
0.0027147143562632
 10
124.1297472690247
 20
112.1170981324151
 30
0.0
 10
123.2297435831148
 20
112.1047881141593
 30
0.0
 10
122.3297434045195
 20
112.0921532568473
 30
0.0
 10
121.4297472690247
 20
112.0791816896489
 30
0.0
  0
SPLINE
  5
15E
330
1F
100
AcDbEntity
  8
0
  6
HIDDEN
 62
     7
370
     0
100
AcDbSpline
210
0.0
220
0.0
230
1.0
 70
     8
 71
     3
 72
    10
 73
     6
 74
     0
 42
0.00000001
 43
0.00000001
 12
1.0
 22
0.0
 32
0.0
 13
1.0
 23
0.0
 33
0.0
 40
0.0
 40
0.0
 40
0.0
 40
0.0
 40
0.5
 40
0.5
 40
1.0
 40
1.0
 40
1.0
 40
1.0
 10
119.9297472690238
 20
107.6739396389371
 30
0.0
 10
120.1668892297397
 20
107.5183248244082
 30
0.0
 10
120.4122319885032
 20
107.3864157949889
 30
0.0
 10
120.9134955772362
 20
107.1547589183514
 30
0.0
 10
121.1695301464865
 20
107.0553133022285
 30
0.0
 10
121.4297472690247
 20
106.9691252155254
 30
0.0
  0
SPLINE
  5
15F
330
1F
100
AcDbEntity
  8
0
  6
HIDDEN
 62
     7
370
     0
100
AcDbSpline
210
0.0
220
0.0
230
1.0
 70
     8
 71
     3
 72
    10
 73
     6
 74
     0
 42
0.00000001
 43
0.00000001
 12
1.0
 22
0.0
 32
0.0
 13
1.0
 23
0.0
 33
0.0
 40
0.0
 40
0.0
 40
0.0
 40
0.0
 40
0.5
 40
0.5
 40
1.0
 40
1.0
 40
1.0
 40
1.0
 10
121.4297472690247
 20
112.0791816896489
 30
0.0
 10
121.1695301464867
 20
111.9929936029458
 30
0.0
 10
120.9134955772365
 20
111.8935479868231
 30
0.0
 10
120.4122319885038
 20
111.6618911101857
 30
0.0
 10
120.1668892297404
 20
111.5299820807666
 30
0.0
 10
119.9297472690247
 20
111.3743672662378
 30
0.0
  0
LINE
  5
160
330
1F
100
AcDbEntity
  8
0
  6
HIDDEN
 62
     7
370
     0
100
AcDbLine
 10
119.9297470604
 20
107.6739395971
 30
0.0
 11
119.9297470604
 21
111.3743673081
 31
0.0
  0
LINE
  5
161
330
1F
100
AcDbEntity
  8
0
  6
HIDDEN
 62
     7
370
     0
100
AcDbLine
 10
124.1297473763
 20
106.9312086797
 30
0.0
 11
124.1297473763
 21
112.1170982255
 31
0.0
  0
SPLINE
  5
162
330
1F
100
AcDbEntity
  8
0
  6
HIDDEN
 62
     7
370
     0
100
AcDbSpline
210
0.0
220
0.0
230
1.0
 70
     8
 71
     3
 72
    22
 73
    18
 74
     0
 42
0.00000001
 43
0.00000001
 12
1.0
 22
0.0
 32
0.0
 13
1.0
 23
0.0
 33
0.0
 40
0.0
 40
0.0
 40
0.0
 40
0.0
 40
0.1250000000000001
 40
0.1250000000000001
 40
0.2500000000000001
 40
0.2500000000000001
 40
0.3750000000000001
 40
0.3750000000000001
 40
0.5000000000000001
 40
0.5000000000000001
 40
0.6250000000000002
 40
0.6250000000000002
 40
0.7500000000000001
 40
0.7500000000000001
 40
0.8750000000000001
 40
0.8750000000000001
 40
1.0
 40
1.0
 40
1.0
 40
1.0
 10
124.1297472690247
 20
106.9312087727592
 30
0.0
 10
124.3106836271009
 20
107.1228286320657
 30
0.0
 10
124.4897790758777
 20
107.3164704964529
 30
0.0
 10
124.8406190643897
 20
107.7111257498372
 30
0.0
 10
125.0128121722944
 20
107.9121372805047
 30
0.0
 10
125.3385436779136
 20
108.3283483957385
 30
0.0
 10
125.494619913082
 20
108.5443642360252
 30
0.0
 10
125.7459991269711
 20
109.00968699919
 30
0.0
 10
125.8398642572899
 20
109.2652261922128
 30
0.0
 10
125.8361363404277
 20
109.7995568273134
 30
0.0
 10
125.7387636979403
 20
110.0549776933141
 30
0.0
 10
125.4869428889465
 20
110.5150064092618
 30
0.0
 10
125.3319736334739
 20
110.7288434101904
 30
0.0
 10
125.0071608757487
 20
111.1428819928841
 30
0.0
 10
124.8362678116207
 20
111.3421744649199
 30
0.0
 10
124.4876335720931
 20
111.7341493573541
 30
0.0
 10
124.3096257215646
 20
111.9265986433435
 30
0.0
 10
124.1297472690247
 20
112.1170981324151
 30
0.0
  0
SPLINE
  5
163
330
1F
100
AcDbEntity
  8
0
  6
HIDDEN
 62
     7
370
     0
100
AcDbSpline
210
0.0
220
0.0
230
1.0
 70
     8
 71
     3
 72
    62
 73
    58
 74
     0
 42
0.00000001
 43
0.00000001
 12
1.0
 22
0.0
 32
0.0
 13
1.0
 23
0.0
 33
0.0
 40
-0.03125
 40
-0.03125
 40
0.0
 40
0.0
 40
0.0312499999999998
 40
0.0312499999999998
 40
0.0624999999999997
 40
0.0624999999999997
 40
0.0937499999999995
 40
0.0937499999999995
 40
0.1249999999999994
 40
0.1249999999999994
 40
0.1874999999999994
 40
0.1874999999999994
 40
0.2499999999999994
 40
0.2499999999999994
 40
0.2812499999999994
 40
0.2812499999999994
 40
0.3124999999999993
 40
0.3124999999999993
 40
0.3437499999999993
 40
0.3437499999999993
 40
0.3749999999999993
 40
0.3749999999999993
 40
0.4374999999999993
 40
0.4374999999999993
 40
0.4687499999999994
 40
0.4687499999999994
 40
0.4999999999999994
 40
0.4999999999999994
 40
0.5624999999999994
 40
0.5624999999999994
 40
0.5937499999999994
 40
0.5937499999999994
 40
0.6249999999999994
 40
0.6249999999999994
 40
0.6562499999999996
 40
0.6562499999999996
 40
0.6874999999999996
 40
0.6874999999999996
 40
0.7187499999999997
 40
0.7187499999999997
 40
0.7499999999999997
 40
0.7499999999999997
 40
0.7812499999999997
 40
0.7812499999999997
 40
0.8124999999999998
 40
0.8124999999999998
 40
0.8437499999999998
 40
0.8437499999999998
 40
0.8749999999999998
 40
0.8749999999999998
 40
0.9062499999999999
 40
0.9062499999999999
 40
0.9374999999999999
 40
0.9374999999999999
 40
0.96875
 40
0.96875
 40
1.0
 40
1.0
 40
1.03125
 40
1.03125
 10
130.383519396953
 20
111.0121324912435
 30
0.0
 10
130.6110197435412
 20
111.2614790331041
 30
0.0
 10
130.7354822724587
 20
111.373076710561
 30
0.0
 10
131.0045765386105
 20
111.5717275063794
 30
0.0
 10
131.1503896301998
 20
111.6590677511681
 30
0.0
 10
131.4515565084891
 20
111.8032635038104
 30
0.0
 10
131.6078922355535
 20
111.8610831743246
 30
0.0
 10
131.9320155348879
 20
111.9483367863756
 30
0.0
 10
132.0986807465984
 20
111.9771388358574
 30
0.0
 10
132.5966970132303
 20
112.0179181411253
 30
0.0
 10
132.9373679620233
 20
111.9844748809841
 30
0.0
 10
133.5763788774448
 20
111.8020222365252
 30
0.0
 10
133.8828334845086
 20
111.6505976762125
 30
0.0
 10
134.279389393771
 20
111.3500997706281
 30
0.0
 10
134.4037385846205
 20
111.2358385854328
 30
0.0
 10
134.6262026786697
 20
110.9861787148602
 30
0.0
 10
134.7237680171469
 20
110.8520121068611
 30
0.0
 10
134.8910236207857
 20
110.5645430123624
 30
0.0
 10
134.9611092763048
 20
110.4092761624626
 30
0.0
 10
135.0651646370264
 20
110.0922967423755
 30
0.0
 10
135.1001403996938
 20
109.9296439908711
 30
0.0
 10
135.1520049192178
 20
109.4287069706685
 30
0.0
 10
135.1126988114464
 20
109.0885523693582
 30
0.0
 10
134.9499790189856
 20
108.6120577372611
 30
0.0
 10
134.8796985210993
 20
108.4609903774336
 30
0.0
 10
134.7083653759693
 20
108.1736958069928
 30
0.0
 10
134.6069731347876
 20
108.0378380286953
 30
0.0
 10
134.2703735475644
 20
107.6690296336971
 30
0.0
 10
133.9951407813998
 20
107.4666045243661
 30
0.0
 10
133.5453575540538
 20
107.2495277977573
 30
0.0
 10
133.3865577555502
 20
107.1902255256831
 30
0.0
 10
133.0639960346705
 20
107.1022530078826
 30
0.0
 10
132.9001369227033
 20
107.0731332440363
 30
0.0
 10
132.5673041493494
 20
107.0442766289261
 30
0.0
 10
132.3972518579086
 20
107.0449001521401
 30
0.0
 10
132.0649761938889
 20
107.0761565959445
 30
0.0
 10
131.9012615821402
 20
107.1064752909963
 30
0.0
 10
131.5787960965658
 20
107.1971923299993
 30
0.0
 10
131.4202849980393
 20
107.2579612387011
 30
0.0
 10
131.1217312918414
 20
107.4054719134981
 30
0.0
 10
130.9799051626393
 20
107.492606941362
 30
0.0
 10
130.711983424081
 20
107.695192407934
 30
0.0
 10
130.5878899936885
 20
107.8095305745762
 30
0.0
 10
130.3667558057703
 20
108.057717012529
 30
0.0
 10
130.2682988036717
 20
108.1927496293828
 30
0.0
 10
130.0989402899367
 20
108.4847540274375
 30
0.0
 10
130.0307734522307
 20
108.6368897738731
 30
0.0
 10
129.9270394859043
 20
108.9532987223131
 30
0.0
 10
129.8913709240352
 20
109.1197951916673
 30
0.0
 10
129.8571571593827
 20
109.4530570677778
 30
0.0
 10
129.8580155622117
 20
109.6197195215997
 30
0.0
 10
129.8958123421613
 20
109.9531077208173
 30
0.0
 10
129.9331550976154
 20
110.1188632932968
 30
0.0
 10
130.0404046806838
 20
110.4347546097595
 30
0.0
 10
130.1111658972229
 20
110.5880339428316
 30
0.0
 10
130.2832890473236
 20
110.8774109853181
 30
0.0
 10
130.383519396953
 20
111.0121324912435
 30
0.0
 10
130.6110197435412
 20
111.2614790331041
 30
0.0
  0
SPLINE
  5
164
330
1F
100
AcDbEntity
  8
0
  6
HIDDEN
 62
     7
370
     0
100
AcDbSpline
210
0.0
220
0.0
230
1.0
 70
     8
 71
     3
 72
    62
 73
    58
 74
     0
 42
0.00000001
 43
0.00000001
 12
1.0
 22
0.0
 32
0.0
 13
1.0
 23
0.0
 33
0.0
 40
-0.03125
 40
-0.03125
 40
0.0
 40
0.0
 40
0.0312499999999998
 40
0.0312499999999998
 40
0.0624999999999997
 40
0.0624999999999997
 40
0.0937499999999995
 40
0.0937499999999995
 40
0.1249999999999994
 40
0.1249999999999994
 40
0.1874999999999994
 40
0.1874999999999994
 40
0.2499999999999994
 40
0.2499999999999994
 40
0.2812499999999994
 40
0.2812499999999994
 40
0.3124999999999993
 40
0.3124999999999993
 40
0.3437499999999993
 40
0.3437499999999993
 40
0.3749999999999993
 40
0.3749999999999993
 40
0.4374999999999993
 40
0.4374999999999993
 40
0.4687499999999994
 40
0.4687499999999994
 40
0.4999999999999994
 40
0.4999999999999994
 40
0.5624999999999994
 40
0.5624999999999994
 40
0.5937499999999994
 40
0.5937499999999994
 40
0.6249999999999994
 40
0.6249999999999994
 40
0.6562499999999996
 40
0.6562499999999996
 40
0.6874999999999996
 40
0.6874999999999996
 40
0.7187499999999997
 40
0.7187499999999997
 40
0.7499999999999997
 40
0.7499999999999997
 40
0.7812499999999997
 40
0.7812499999999997
 40
0.8124999999999998
 40
0.8124999999999998
 40
0.8437499999999998
 40
0.8437499999999998
 40
0.8749999999999998
 40
0.8749999999999998
 40
0.9062499999999999
 40
0.9062499999999999
 40
0.9374999999999999
 40
0.9374999999999999
 40
0.96875
 40
0.96875
 40
1.0
 40
1.0
 40
1.03125
 40
1.03125
 10
130.383519396953
 20
111.0121324912435
 30
0.0
 10
130.6110197435412
 20
111.2614790331041
 30
0.0
 10
130.7354822724587
 20
111.373076710561
 30
0.0
 10
131.0045765386105
 20
111.5717275063794
 30
0.0
 10
131.1503896301998
 20
111.6590677511681
 30
0.0
 10
131.4515565084891
 20
111.8032635038104
 30
0.0
 10
131.6078922355535
 20
111.8610831743246
 30
0.0
 10
131.9320155348879
 20
111.9483367863756
 30
0.0
 10
132.0986807465984
 20
111.9771388358574
 30
0.0
 10
132.5966970132303
 20
112.0179181411253
 30
0.0
 10
132.9373679620233
 20
111.9844748809841
 30
0.0
 10
133.5763788774448
 20
111.8020222365252
 30
0.0
 10
133.8828334845086
 20
111.6505976762125
 30
0.0
 10
134.279389393771
 20
111.3500997706281
 30
0.0
 10
134.4037385846205
 20
111.2358385854328
 30
0.0
 10
134.6262026786697
 20
110.9861787148602
 30
0.0
 10
134.7237680171469
 20
110.8520121068611
 30
0.0
 10
134.8910236207857
 20
110.5645430123624
 30
0.0
 10
134.9611092763048
 20
110.4092761624626
 30
0.0
 10
135.0651646370264
 20
110.0922967423755
 30
0.0
 10
135.1001403996938
 20
109.9296439908711
 30
0.0
 10
135.1520049192178
 20
109.4287069706685
 30
0.0
 10
135.1126988114464
 20
109.0885523693582
 30
0.0
 10
134.9499790189856
 20
108.6120577372611
 30
0.0
 10
134.8796985210993
 20
108.4609903774336
 30
0.0
 10
134.7083653759693
 20
108.1736958069928
 30
0.0
 10
134.6069731347876
 20
108.0378380286953
 30
0.0
 10
134.2703735475644
 20
107.6690296336971
 30
0.0
 10
133.9951407813998
 20
107.4666045243661
 30
0.0
 10
133.5453575540538
 20
107.2495277977573
 30
0.0
 10
133.3865577555502
 20
107.1902255256831
 30
0.0
 10
133.0639960346705
 20
107.1022530078826
 30
0.0
 10
132.9001369227033
 20
107.0731332440363
 30
0.0
 10
132.5673041493494
 20
107.0442766289261
 30
0.0
 10
132.3972518579086
 20
107.0449001521401
 30
0.0
 10
132.0649761938889
 20
107.0761565959445
 30
0.0
 10
131.9012615821402
 20
107.1064752909963
 30
0.0
 10
131.5787960965658
 20
107.1971923299993
 30
0.0
 10
131.4202849980393
 20
107.2579612387011
 30
0.0
 10
131.1217312918414
 20
107.4054719134981
 30
0.0
 10
130.9799051626393
 20
107.492606941362
 30
0.0
 10
130.711983424081
 20
107.695192407934
 30
0.0
 10
130.5878899936885
 20
107.8095305745762
 30
0.0
 10
130.3667558057703
 20
108.057717012529
 30
0.0
 10
130.2682988036717
 20
108.1927496293828
 30
0.0
 10
130.0989402899367
 20
108.4847540274375
 30
0.0
 10
130.0307734522307
 20
108.6368897738731
 30
0.0
 10
129.9270394859043
 20
108.9532987223131
 30
0.0
 10
129.8913709240352
 20
109.1197951916673
 30
0.0
 10
129.8571571593827
 20
109.4530570677778
 30
0.0
 10
129.8580155622117
 20
109.6197195215997
 30
0.0
 10
129.8958123421613
 20
109.9531077208173
 30
0.0
 10
129.9331550976154
 20
110.1188632932968
 30
0.0
 10
130.0404046806838
 20
110.4347546097595
 30
0.0
 10
130.1111658972229
 20
110.5880339428316
 30
0.0
 10
130.2832890473236
 20
110.8774109853181
 30
0.0
 10
130.383519396953
 20
111.0121324912435
 30
0.0
 10
130.6110197435412
 20
111.2614790331041
 30
0.0
  0
CIRCLE
  5
165
330
1F
100
AcDbEntity
  8
0
  6
HIDDEN
 62
     7
370
     0
100
AcDbCircle
 10
132.429747269
 20
109.5241534526
 30
0.0
 40
2.299999999999997
  0
SPLINE
  5
166
330
1F
100
AcDbEntity
  8
0
  6
HIDDEN
 62
     7
370
     0
100
AcDbSpline
210
0.0
220
0.0
230
1.0
 70
     8
 71
     3
 72
    10
 73
     6
 74
     0
 42
0.00000001
 43
0.00000001
 12
1.0
 22
0.0
 32
0.0
 13
1.0
 23
0.0
 33
0.0
 40
0.0
 40
0.0
 40
0.0
 40
0.0
 40
0.3373422518288119
 40
0.6706364134153271
 40
1.0
 40
1.0
 40
1.0
 40
1.0
 10
250.0976736279699
 20
119.22640829244
 30
0.0
 10
250.1393820969407
 20
119.0899959085606
 30
0.0
 10
250.2222985353294
 20
118.8188080826231
 30
0.0
 10
250.3370075329762
 20
118.4117669682278
 30
0.0
 10
250.4067829582256
 20
118.1403856650976
 30
0.0
 10
250.4414637333
 20
118.005499866844
 30
0.0
  0
LINE
  5
167
330
1F
100
AcDbEntity
  8
0
  6
HIDDEN
 62
     7
370
     0
100
AcDbLine
 10
250.0976746534
 20
119.2264103333
 30
0.0
 11
230.2520548557
 21
117.4901437948
 31
0.0
  0
LINE
  5
168
330
1F
100
AcDbEntity
  8
0
  6
HIDDEN
 62
     7
370
     0
100
AcDbLine
 10
250.1145204161
 20
114.5953240807
 30
0.0
 11
250.4414667939
 21
118.005501386
 31
0.0
  0
LINE
  5
169
330
1F
100
AcDbEntity
  8
0
  6
HIDDEN
 62
     7
370
     0
100
AcDbLine
 10
246.519280002
 20
109.5241534526
 30
0.0
 11
250.1145204161
 21
114.5953240807
 31
0.0
  0
CIRCLE
  5
16A
330
1F
100
AcDbEntity
  8
0
  6
HIDDEN
 62
     7
370
     0
100
AcDbCircle
 10
155.929747269
 20
109.5241534526
 30
0.0
 40
2.0
  0
LINE
  5
16B
330
1F
100
AcDbEntity
  8
0
  6
HIDDEN
 62
     7
370
     0
100
AcDbLine
 10
143.929747269
 20
93.7241542155
 30
0.0
 11
144.0226404895
 21
93.8170461918
 31
0.0
  0
LINE
  5
16C
330
1F
100
AcDbEntity
  8
0
  6
HIDDEN
 62
     7
370
     0
100
AcDbLine
 10
144.0226404895
 20
125.2312607134
 30
0.0
 11
143.929747269
 21
125.3241526896
 31
0.0
  0
ARC
  5
16D
330
1F
100
AcDbEntity
  8
0
  6
HIDDEN
 62
     7
370
     0
100
AcDbCircle
 10
143.3155337067
 20
94.5241534526
 30
0.0
 40
1.000000000000018
100
AcDbArc
 50
315.0
 51
0.0
  0
ARC
  5
16E
330
1F
100
AcDbEntity
  8
0
  6
HIDDEN
 62
     7
370
     0
100
AcDbCircle
 10
143.3155337067
 20
94.5241534526
 30
0.0
 40
1.00000000000001
100
AcDbArc
 50
0.0
 51
52.1052014664
  0
ARC
  5
16F
330
1F
100
AcDbEntity
  8
0
  6
HIDDEN
 62
     7
370
     0
100
AcDbCircle
 10
143.3155337067
 20
124.5241534526
 30
0.0
 40
1.000000000000028
100
AcDbArc
 50
351.8087250651
 51
45.0
  0
ARC
  5
170
330
1F
100
AcDbEntity
  8
0
  6
HIDDEN
 62
     7
370
     0
100
AcDbCircle
 10
143.3155337067
 20
124.5241534526
 30
0.0
 40
0.9999999999999989
100
AcDbArc
 50
307.8947985336
 51
351.8087250651
  0
LINE
  5
171
330
1F
100
AcDbEntity
  8
0
  6
HIDDEN
 62
     7
370
     0
100
AcDbLine
 10
144.3155337048
 20
94.5241537879
 30
0.0
 11
144.3155337048
 21
124.5241531173
 31
0.0
  0
LINE
  5
172
330
1F
100
AcDbEntity
  8
0
  6
HIDDEN
 62
     7
370
     0
100
AcDbLine
 10
144.3155337048
 20
94.5241537879
 30
0.0
 11
144.3155337048
 21
124.5241531173
 31
0.0
  0
LINE
  5
173
330
1F
100
AcDbEntity
  8
0
  6
HIDDEN
 62
     7
370
     0
100
AcDbLine
 10
213.8297458743
 20
114.2129272225
 30
0.0
 11
213.8297458743
 21
111.1795234496
 31
0.0
  0
LINE
  5
174
330
1F
100
AcDbEntity
  8
0
  6
HIDDEN
 62
     7
370
     0
100
AcDbLine
 10
218.0297499155
 20
114.1111099163
 30
0.0
 11
218.0297499155
 21
114.2129272225
 31
0.0
  0
LINE
  5
175
330
1F
100
AcDbEntity
  8
0
  6
HIDDEN
 62
     7
370
     0
100
AcDbLine
 10
218.0297499155
 20
111.1814850478
 30
0.0
 11
218.0297499155
 21
112.7009920778
 31
0.0
  0
LINE
  5
176
330
1F
100
AcDbEntity
  8
0
  6
HIDDEN
 62
     7
370
     0
100
AcDbLine
 10
224.1561686252
 20
119.8032836432
 30
0.0
 11
215.4680689429
 21
115.5831197279
 31
0.0
  0
LINE
  5
177
330
1F
100
AcDbEntity
  8
0
  6
HIDDEN
 62
     7
370
     0
100
AcDbLine
 10
217.6088889693
 20
111.9537360968
 30
0.0
 11
224.1364022349
 21
115.1244140232
 31
0.0
  0
LINE
  5
178
330
1F
100
AcDbEntity
  8
0
  6
HIDDEN
 62
     7
370
     0
100
AcDbLine
 10
119.9297470604
 20
99.3685026655
 30
0.0
 11
120.9567797934
 21
99.9614599163
 31
0.0
  0
LINE
  5
179
330
1F
100
AcDbEntity
  8
0
  6
HIDDEN
 62
     7
370
     0
100
AcDbLine
 10
120.9567797934
 20
119.0868469889
 30
0.0
 11
119.9297470604
 21
119.6798042396
 31
0.0
  0
LINE
  5
17A
330
1F
100
AcDbEntity
  8
0
  6
HIDDEN
 62
     7
370
     0
100
AcDbLine
 10
125.4297470306
 20
99.5241536761
 30
0.0
 11
126.4425659184
 21
99.5241536761
 31
0.0
  0
LINE
  5
17B
330
1F
100
AcDbEntity
  8
0
  6
HIDDEN
 62
     7
370
     0
100
AcDbLine
 10
126.4425659184
 20
119.5241532291
 30
0.0
 11
125.4297470306
 21
119.5241532291
 31
0.0
  0
ARC
  5
17C
330
1F
100
AcDbEntity
  8
0
  6
HIDDEN
 62
     7
370
     0
100
AcDbCircle
 10
125.429747269
 20
100.5241534526
 30
0.0
 40
1.0
100
AcDbArc
 50
193.3524261238
 51
270.0
  0
ARC
  5
17D
330
1F
100
AcDbEntity
  8
0
  6
HIDDEN
 62
     7
370
     0
100
AcDbCircle
 10
125.429747269
 20
118.5241534526
 30
0.0
 40
1.0
100
AcDbArc
 50
90.0
 51
166.6475738762
  0
ARC
  5
17E
330
1F
100
AcDbEntity
  8
0
  6
HIDDEN
 62
     7
370
     0
100
AcDbCircle
 10
126.4425657387
 20
100.5241534526
 30
0.0
 40
0.999999999999998
100
AcDbArc
 50
270.0
 51
315.0
  0
ARC
  5
17F
330
1F
100
AcDbEntity
  8
0
  6
HIDDEN
 62
     7
370
     0
100
AcDbCircle
 10
126.4425657387
 20
118.5241534526
 30
0.0
 40
1.0
100
AcDbArc
 50
45.0
 51
90.0
  0
LINE
  5
180
330
1F
100
AcDbEntity
  8
0
  6
HIDDEN
 62
     7
370
     0
100
AcDbLine
 10
127.1496725832
 20
99.8170462439
 30
0.0
 11
127.856779248
 21
100.52415384
 31
0.0
  0
LINE
  5
181
330
1F
100
AcDbEntity
  8
0
  6
HIDDEN
 62
     7
370
     0
100
AcDbLine
 10
127.856779248
 20
118.5241530652
 30
0.0
 11
127.1496725832
 21
119.2312606613
 31
0.0
  0
LINE
  5
182
330
1F
100
AcDbEntity
  8
0
  6
HIDDEN
 62
     7
370
     0
100
AcDbLine
 10
120.9567797934
 20
99.9614599163
 30
0.0
 11
123.0567799513
 21
100.52415384
 31
0.0
  0
LINE
  5
183
330
1F
100
AcDbEntity
  8
0
  6
HIDDEN
 62
     7
370
     0
100
AcDbLine
 10
123.0567799513
 20
118.5241530652
 30
0.0
 11
120.9567797934
 21
119.0868469889
 31
0.0
  0
LINE
  5
184
330
1F
100
AcDbEntity
  8
0
  6
HIDDEN
 62
     7
370
     0
100
AcDbLine
 10
124.4567794357
 20
118.755093124
 30
0.0
 11
124.0567801152
 21
118.5241530652
 31
0.0
  0
LINE
  5
185
330
1F
100
AcDbEntity
  8
0
  6
HIDDEN
 62
     7
370
     0
100
AcDbLine
 10
124.0567801152
 20
100.52415384
 30
0.0
 11
124.4567794357
 21
100.2932137812
 31
0.0
  0
LINE
  5
186
330
1F
100
AcDbEntity
  8
0
  6
HIDDEN
 62
     7
370
     0
100
AcDbLine
 10
214.5936315511
 20
115.0326298552
 30
0.0
 11
214.5890121912
 21
114.9514283056
 31
0.0
  0
ARC
  5
187
330
1F
100
AcDbEntity
  8
0
  6
HIDDEN
 62
     7
370
     0
100
AcDbCircle
 10
134.429747269
 20
101.0241534526
 30
0.0
 40
0.5
100
AcDbArc
 50
270.0
 51
0.0
  0
ARC
  5
188
330
1F
100
AcDbEntity
  8
0
  6
HIDDEN
 62
     7
370
     0
100
AcDbCircle
 10
134.429747269
 20
118.0241534526
 30
0.0
 40
0.5
100
AcDbArc
 50
0.0
 51
90.0
  0
LINE
  5
189
330
1F
100
AcDbEntity
  8
0
  6
HIDDEN
 62
     7
370
     0
100
AcDbLine
 10
127.856779248
 20
100.52415384
 30
0.0
 11
134.4297475745
 21
100.52415384
 31
0.0
  0
LINE
  5
18A
330
1F
100
AcDbEntity
  8
0
  6
HIDDEN
 62
     7
370
     0
100
AcDbLine
 10
134.4297475745
 20
118.5241530652
 30
0.0
 11
127.856779248
 21
118.5241530652
 31
0.0
  0
LINE
  5
18B
330
1F
100
AcDbEntity
  8
0
  6
HIDDEN
 62
     7
370
     0
100
AcDbLine
 10
123.0567799513
 20
100.52415384
 30
0.0
 11
124.0567801152
 21
100.52415384
 31
0.0
  0
LINE
  5
18C
330
1F
100
AcDbEntity
  8
0
  6
HIDDEN
 62
     7
370
     0
100
AcDbLine
 10
124.0567801152
 20
118.5241530652
 30
0.0
 11
123.0567799513
 21
118.5241530652
 31
0.0
  0
LINE
  5
18D
330
1F
100
AcDbEntity
  8
0
  6
HIDDEN
 62
     7
370
     0
100
AcDbLine
 10
134.9297476565
 20
102.3741534913
 30
0.0
 11
135.8297470589
 21
103.2741533595
 31
0.0
  0
LINE
  5
18E
330
1F
100
AcDbEntity
  8
0
  6
HIDDEN
 62
     7
370
     0
100
AcDbLine
 10
135.8297470589
 20
115.7741535457
 30
0.0
 11
134.9297476565
 21
116.6741534138
 31
0.0
  0
LINE
  5
18F
330
1F
100
AcDbEntity
  8
0
  6
HIDDEN
 62
     7
370
     0
100
AcDbLine
 10
154.9297472094
 20
103.2741533595
 30
0.0
 11
156.1314681177
 21
105.2741532216
 31
0.0
  0
LINE
  5
190
330
1F
100
AcDbEntity
  8
0
  6
HIDDEN
 62
     7
370
     0
100
AcDbLine
 10
156.1314681177
 20
113.7741536836
 30
0.0
 11
154.9297472094
 21
115.7741535457
 31
0.0
  0
LINE
  5
191
330
1F
100
AcDbEntity
  8
0
  6
HIDDEN
 62
     7
370
     0
100
AcDbLine
 10
135.8297470589
 20
103.2741533595
 30
0.0
 11
154.9297472094
 21
103.2741533595
 31
0.0
  0
LINE
  5
192
330
1F
100
AcDbEntity
  8
0
  6
HIDDEN
 62
     7
370
     0
100
AcDbLine
 10
154.9297472094
 20
115.7741535457
 30
0.0
 11
135.8297470589
 21
115.7741535457
 31
0.0
  0
LINE
  5
193
330
1F
100
AcDbEntity
  8
0
  6
HIDDEN
 62
     7
370
     0
100
AcDbLine
 10
218.9297502493
 20
105.2741532216
 30
0.0
 11
221.4834069465
 21
109.5241534526
 31
0.0
  0
LINE
  5
194
330
1F
100
AcDbEntity
  8
0
  6
HIDDEN
 62
     7
370
     0
100
AcDbLine
 10
221.4834069465
 20
109.5241534526
 30
0.0
 11
218.9297502493
 21
113.7741536836
 31
0.0
  0
LINE
  5
195
330
1F
100
AcDbEntity
  8
0
  6
HIDDEN
 62
     7
370
     0
100
AcDbLine
 10
218.9297502493
 20
113.7741536836
 30
0.0
 11
156.1314681177
 21
113.7741536836
 31
0.0
  0
LINE
  5
196
330
1F
100
AcDbEntity
  8
0
  6
HIDDEN
 62
     7
370
     0
100
AcDbLine
 10
156.1314681177
 20
105.2741532216
 30
0.0
 11
218.9297502493
 21
105.2741532216
 31
0.0
  0
ARC
  5
197
330
1F
100
AcDbEntity
  8
0
  6
HIDDEN
 62
     7
370
     0
100
AcDbCircle
 10
227.5155337067
 20
126.5241534526
 30
0.0
 40
0.9999999999999716
100
AcDbArc
 50
270.0
 51
290.198693251
  0
LINE
  5
198
330
1F
100
AcDbEntity
  8
0
  6
HIDDEN
 62
     7
370
     0
100
AcDbLine
 10
239.164044485
 20
118.8683782706
 30
0.0
 11
239.164044485
 21
118.533547316
 31
0.0
  0
LINE
  5
199
330
1F
100
AcDbEntity
  8
0
  6
HIDDEN
 62
     7
370
     0
100
AcDbLine
 10
243.3640485262
 20
118.533547316
 30
0.0
 11
243.3640485262
 21
118.5572643767
 31
0.0
  0
LINE
  5
19A
330
1F
100
AcDbEntity
  8
0
  6
HIDDEN
 62
     7
370
     0
100
AcDbLine
 10
213.8297458743
 20
107.8668218574
 30
0.0
 11
213.8297458743
 21
105.6168422105
 31
0.0
  0
LINE
  5
19B
330
1F
100
AcDbEntity
  8
0
  6
HIDDEN
 62
     7
370
     0
100
AcDbLine
 10
218.0297499155
 20
105.6168422105
 30
0.0
 11
218.0297499155
 21
107.8687834556
 31
0.0
  0
LINE
  5
19C
330
1F
100
AcDbEntity
  8
0
  6
HIDDEN
 62
     7
370
     0
100
AcDbLine
 10
244.8843767499
 20
124.2008761505
 30
0.0
 11
244.8843767499
 21
123.6146961341
 31
0.0
  0
LINE
  5
19D
330
1F
100
AcDbEntity
  8
0
  6
HIDDEN
 62
     7
370
     0
100
AcDbLine
 10
249.0843733405
 20
123.5928147102
 30
0.0
 11
249.0843733405
 21
124.2008761505
 31
0.0
  0
LINE
  5
19E
330
1F
100
AcDbEntity
  8
0
  6
HIDDEN
 62
     7
370
     0
100
AcDbLine
 10
213.4297465538
 20
105.5229322987
 30
0.0
 11
213.4297465538
 21
103.2743810678
 31
0.0
  0
LINE
  5
19F
330
1F
100
AcDbEntity
  8
0
  6
HIDDEN
 62
     7
370
     0
100
AcDbLine
 10
218.429749236
 20
103.2724555584
 30
0.0
 11
218.429749236
 21
105.5229322987
 31
0.0
  0
LINE
  5
1A0
330
1F
100
AcDbEntity
  8
VERMASSUNG
  6
CENTERX2
100
AcDbLine
 10
253.929747269
 20
131.5241534526
 30
0.0
 11
265.3456463355
 21
131.5241534526
 31
0.0
  0
LINE
  5
1A1
330
1F
100
AcDbEntity
  8
VERMASSUNG
  6
CENTERX2
100
AcDbLine
 10
253.929747269
 20
131.5241534526
 30
0.0
 11
253.929747269
 21
109.5241534526
 31
0.0
  0
LINE
  5
1A2
330
1F
100
AcDbEntity
  8
VERMASSUNG
  6
CENTERX2
100
AcDbLine
 10
116.008620127
 20
109.5241534526
 30
0.0
 11
253.929747269
 21
109.5241534526
 31
0.0
  0
DIMENSION
  5
1A3
330
1F
100
AcDbEntity
  8
VERMASSUNG
100
AcDbDimension
  2
_D
 10
253.929747269
 20
142.5521116514
 30
0.0
 11
198.929747269
 21
142.5521116514
 31
0.0
 70
   160
  1
<>
 71
     2
 42
-1.0
  3
SLDDIMSTYLE0
100
AcDbAlignedDimension
 13
143.929747269
 23
129.2241534526
 33
0.0
 14
253.929747269
 24
131.5241534526
 34
0.0
100
AcDbRotatedDimension
  0
DIMENSION
  5
1AE
330
1F
100
AcDbEntity
  8
VERMASSUNG
100
AcDbDimension
  2
_D_1
 10
119.929747269
 20
148.5521116514
 30
0.0
 11
186.929747269
 21
148.5521116514
 31
0.0
 70
   160
  1
<>
 71
     2
 42
-1.0
  3
SLDDIMSTYLE0
100
AcDbAlignedDimension
 13
253.929747269
 23
131.5241534526
 33
0.0
 14
119.929747269
 24
122.1556584346
 34
0.0
100
AcDbRotatedDimension
  0
DIMENSION
  5
1B8
330
1F
100
AcDbEntity
  8
VERMASSUNG
100
AcDbDimension
  2
_D_2
 10
269.9230622983
 20
109.5241534526
 30
0.0
 11
269.9230622983
 21
120.5241534526
 31
0.0
 70
   160
  1
<>
 71
     2
 42
-1.0
  3
SLDDIMSTYLE0
100
AcDbAlignedDimension
 13
253.929747269
 23
131.5241534526
 33
0.0
 14
253.929747269
 24
109.5241534526
 34
0.0
 50
90.0
100
AcDbRotatedDimension
  0
DIMENSION
  5
1C2
330
1F
100
AcDbEntity
  8
VERMASSUNG
100
AcDbDimension
  2
_D_3
 10
265.3456463355
 20
131.5241534526
 30
0.0
 11
260.8119553517
 21
124.0518094423
 31
0.0
 70
   162
  1
<>
 71
     1
 42
-1.0
  3
SLDDIMSTYLE1
100
AcDb2LineAngularDimension
 13
252.8750720475
 23
119.0820784106
 33
0.0
 14
253.9282251483
 24
131.0903504582
 34
0.0
 15
253.929747269
 25
131.5241534526
 35
0.0
 16
260.8119553517
 26
124.0518094423
 36
0.0
  0
DIMENSION
  5
1CB
330
1F
100
AcDbEntity
  8
VERMASSUNG
100
AcDbDimension
  2
_D_4
 10
109.929747269
 20
89.5241534526
 30
0.0
 11
109.929747269
 21
109.5241534526
 31
0.0
 70
   160
  1
PSC%%c<>
 71
     2
 42
-1.0
  3
SLDDIMSTYLE0
100
AcDbAlignedDimension
 13
144.229747269
 23
129.5241534526
 33
0.0
 14
144.229747269
 24
89.5241534526
 34
0.0
 50
90.0
100
AcDbRotatedDimension
  0
DIMENSION
  5
1D7
330
1F
100
AcDbEntity
  8
VERMASSUNG
100
AcDbDimension
  2
_D_5
 10
186.929747269
 20
93.5241534526
 30
0.0
 11
186.929747269
 21
100.4049285038
 31
0.0
 70
   160
  1
%%c<>
 71
     2
 42
-1.0
  3
SLDDIMSTYLE0
100
AcDbAlignedDimension
 13
165.929747269
 23
125.5241534526
 33
0.0
 14
165.929747269
 24
93.5241534526
 34
0.0
 50
90.0
100
AcDbRotatedDimension
  0
LINE
  5
1E0
330
1F
100
AcDbEntity
  8
0
  6
Continuous
 62
     7
370
    15
100
AcDbLine
 10
64.9160487385
 20
130.8978798801
 30
0.0
 11
61.6941485362
 21
131.5241533334
 31
0.0
  0
LINE
  5
1E1
330
1F
100
AcDbEntity
  8
0
  6
Continuous
 62
     7
370
    15
100
AcDbLine
 10
60.7251789345
 20
117.6672422329
 30
0.0
 11
61.0270176705
 21
117.6830607469
 31
0.0
  0
SPLINE
  5
1E2
330
1F
100
AcDbEntity
  8
0
  6
Continuous
 62
     7
370
    15
100
AcDbSpline
210
0.0
220
0.0
230
1.0
 70
     8
 71
     3
 72
    26
 73
    22
 74
     0
 42
0.00000001
 43
0.00000001
 12
1.0
 22
0.0
 32
0.0
 13
1.0
 23
0.0
 33
0.0
 40
0.0
 40
0.0
 40
0.0
 40
0.0
 40
0.0243743703368001
 40
0.0489971525125504
 40
0.0738685337054844
 40
0.098988695526954
 40
0.1243578142357305
 40
0.1856954415710476
 40
0.2489790439885367
 40
0.3101454363655545
 40
0.3738448546659929
 40
0.4988682906573669
 40
0.624041829356412
 40
0.6866887241263754
 40
0.7493506722407169
 40
0.812019705403387
 40
0.87468778768778
 40
0.9076277637479638
 40
0.9373523483945688
 40
0.9696683175501776
 40
1.0
 40
1.0
 40
1.0
 40
1.0
 10
66.37353136960297
 20
130.2050530493522
 30
0.0
 10
66.5018291396355
 20
130.162219124932
 30
0.0
 10
66.75973222875915
 20
130.0761147333714
 30
0.0
 10
67.14484163610321
 20
129.9358057874838
 30
0.0
 10
67.5308438559635
 20
129.7863210169922
 30
0.0
 10
67.917215870937
 20
129.6267245337558
 30
0.0
 10
68.48513779196573
 20
129.3774366661502
 30
0.0
 10
69.23389660241718
 20
129.0144262533916
 30
0.0
 10
70.13544788937047
 20
128.5153835234868
 30
0.0
 10
71.01974396036529
 20
127.9616147258693
 30
0.0
 10
72.15267872209681
 20
127.1639963502426
 30
0.0
 10
73.4917570011117
 20
126.0480120766657
 30
0.0
 10
74.69952646532214
 20
124.7988342506375
 30
0.0
 10
75.58198010535862
 20
123.7257251366085
 30
0.0
 10
76.2004231447167
 20
122.8858289240443
 30
0.0
 10
76.77331484648697
 20
122.0137521007456
 30
0.0
 10
77.21587232383297
 20
121.2545070051929
 30
0.0
 10
77.54159181569788
 20
120.6396171100612
 30
0.0
 10
77.77571863835433
 20
120.1670194614943
 30
0.0
 10
77.99214504176025
 20
119.7018119994795
 30
0.0
 10
78.12825104134932
 20
119.3814959951952
 30
0.0
 10
78.1941485467347
 20
119.226410799237
 30
0.0
  0
SPLINE
  5
1E3
330
1F
100
AcDbEntity
  8
0
  6
Continuous
 62
     7
370
    15
100
AcDbSpline
210
0.0
220
0.0
230
1.0
 70
    24
 71
     3
 72
    10
 73
     6
 74
     0
 42
0.00000001
 43
0.00000001
 12
1.0
 22
0.0
 32
0.0
 13
1.0
 23
0.0
 33
0.0
 40
0.0
 40
0.0
 40
0.0
 40
0.0
 40
0.3373422518288119
 40
0.6706364134153271
 40
1.0
 40
1.0
 40
1.0
 40
1.0
 10
78.194148536156
 20
119.22640829244
 30
0.0
 10
78.194148536156
 20
119.0899959085606
 30
0.0
 10
78.194148536156
 20
118.8188080826231
 30
0.0
 10
78.194148536156
 20
118.4117669682278
 30
0.0
 10
78.19414853615602
 20
118.1403856650976
 30
0.0
 10
78.194148536156
 20
118.005499866844
 30
0.0
  0
SPLINE
  5
1E4
330
1F
100
AcDbEntity
  8
0
  6
Continuous
 62
     7
370
    15
100
AcDbSpline
210
0.0
220
0.0
230
1.0
 70
     8
 71
     3
 72
    29
 73
    25
 74
     0
 42
0.00000001
 43
0.00000001
 12
1.0
 22
0.0
 32
0.0
 13
1.0
 23
0.0
 33
0.0
 40
0.0
 40
0.0
 40
0.0
 40
0.0
 40
0.0250646529423641
 40
0.0501099567531546
 40
0.075148604118862
 40
0.1001932978464661
 40
0.1252567315495832
 40
0.1565688276539781
 40
0.1879161753422368
 40
0.2505782123967503
 40
0.3132394774606909
 40
0.3758904924465321
 40
0.4385218376350914
 40
0.5011244177994723
 40
0.5636894494699285
 40
0.6262086644144162
 40
0.6886743696272634
 40
0.7510795575463036
 40
0.8134180264344016
 40
0.8445470482659292
 40
0.8756906949961822
 40
0.917147251401916
 40
0.9585636175483808
 40
1.0
 40
1.0
 40
1.0
 40
1.0
 10
78.19414432673848
 20
118.005500961364
 30
0.0
 10
78.14532613159427
 20
118.1413393069105
 30
0.0
 10
78.04772742743236
 20
118.4129111350305
 30
0.0
 10
77.88977345112686
 20
118.8157381075397
 30
0.0
 10
77.72346504054578
 20
119.2149412946695
 30
0.0
 10
77.54796463643758
 20
119.6102168538613
 30
0.0
 10
77.34825598864873
 20
120.0340070890896
 30
0.0
 10
77.12153457920485
 20
120.4848924975778
 30
0.0
 10
76.77962526887859
 20
121.1194336968383
 30
0.0
 10
76.31877705714523
 20
121.8939308724175
 30
0.0
 10
75.714287584371
 20
122.789916718533
 30
0.0
 10
75.0602711542404
 20
123.6497887656163
 30
0.0
 10
74.35881374345415
 20
124.4706087891127
 30
0.0
 10
73.6123352994247
 20
125.2497523452176
 30
0.0
 10
72.82320638245051
 20
125.9845416052586
 30
0.0
 10
71.99413063609413
 20
126.6726381174208
 30
0.0
 10
71.12777554143082
 20
127.3116836972357
 30
0.0
 10
70.22707626087892
 20
127.8996077670095
 30
0.0
 10
69.45012636691385
 20
128.345431144591
 30
0.0
 10
68.81439421280433
 20
128.6746084750371
 30
0.0
 10
68.27748128279336
 20
128.9334285168705
 30
0.0
 10
67.67778860993896
 20
129.1976072592554
 30
0.0
 10
67.0138246023723
 20
129.4621918269453
 30
0.0
 10
66.56317713952686
 20
129.6167690618492
 30
0.0
 10
66.33779897238966
 20
129.6940763513738
 30
0.0
  0
LINE
  5
1E5
330
1F
100
AcDbEntity
  8
0
  6
Continuous
 62
     7
370
    15
100
AcDbLine
 10
78.1941484467
 20
114.5953240807
 30
0.0
 11
60.8430974109
 21
115.0528786706
 31
0.0
  0
LINE
  5
1E6
330
1F
100
AcDbEntity
  8
0
  6
Continuous
 62
     7
370
    15
100
AcDbLine
 10
61.1005817348
 20
118.7350762079
 30
0.0
 11
60.8430974109
 21
115.0528786706
 31
0.0
  0
LINE
  5
1E7
330
1F
100
AcDbEntity
  8
0
  6
Continuous
 62
     7
370
    15
100
AcDbLine
 10
61.1005817348
 20
118.7350762079
 30
0.0
 11
63.1919594755
 21
118.8251509333
 31
0.0
  0
LINE
  5
1E8
330
1F
100
AcDbEntity
  8
0
  6
Continuous
 62
     7
370
    15
100
AcDbLine
 10
63.1919594755
 20
118.8251509333
 30
0.0
 11
65.5643579823
 21
118.6333320106
 31
0.0
  0
LINE
  5
1E9
330
1F
100
AcDbEntity
  8
0
  6
Continuous
 62
     7
370
    15
100
AcDbLine
 10
65.5643579823
 20
118.6333320106
 30
0.0
 11
65.5868275364
 21
118.9546634445
 31
0.0
  0
LINE
  5
1EA
330
1F
100
AcDbEntity
  8
0
  6
Continuous
 62
     7
370
    15
100
AcDbLine
 10
78.1941484467
 20
114.5953240807
 30
0.0
 11
78.1941484467
 21
118.005501386
 31
0.0
  0
LINE
  5
1EB
330
1F
100
AcDbEntity
  8
0
  6
Continuous
 62
     7
370
    15
100
AcDbLine
 10
78.1941484467
 20
109.5241534526
 30
0.0
 11
78.1941484467
 21
114.5953240807
 31
0.0
  0
ARC
  5
1EC
330
1F
100
AcDbEntity
  8
0
  6
Continuous
 62
     7
370
    15
100
AcDbCircle
 10
61.6941485362
 20
109.5241534526
 30
0.0
 40
16.50000000000002
100
AcDbArc
 50
261.7087285136
 51
0.0
  0
LINE
  5
1ED
330
1F
100
AcDbEntity
  8
0
  6
Continuous
 62
     7
370
    15
100
AcDbLine
 10
60.8430974109
 20
115.0528786706
 30
0.0
 11
59.3147585907
 21
93.1966158564
 31
0.0
  0
SPLINE
  5
1EE
330
1F
100
AcDbEntity
  8
0
  6
Continuous
 62
     7
370
    15
100
AcDbSpline
210
0.0
220
0.0
230
1.0
 70
     8
 71
     3
 72
    10
 73
     6
 74
     0
 42
0.00000001
 43
0.00000001
 12
1.0
 22
0.0
 32
0.0
 13
1.0
 23
0.0
 33
0.0
 40
0.0
 40
0.0
 40
0.0
 40
0.0
 40
0.5
 40
0.5
 40
1.0
 40
1.0
 40
1.0
 40
1.0
 10
59.32923306510794
 20
93.40380779083242
 30
0.0
 10
59.33554166159658
 20
93.49811680326378
 30
0.0
 10
59.33583507458471
 20
93.57249603567978
 30
0.0
 10
59.31570383095966
 20
93.67635100685875
 30
0.0
 10
59.29528275606233
 20
93.70497317717363
 30
0.0
 10
59.26369093056816
 20
93.7098284329276
 30
0.0
  0
SPLINE
  5
1EF
330
1F
100
AcDbEntity
  8
0
  6
Continuous
 62
     7
370
    15
100
AcDbSpline
210
0.0
220
0.0
230
1.0
 70
     8
 71
     3
 72
    16
 73
    12
 74
     0
 42
0.00000001
 43
0.00000001
 12
1.0
 22
0.0
 32
0.0
 13
1.0
 23
0.0
 33
0.0
 40
0.0
 40
0.0
 40
0.0
 40
0.0
 40
0.2500000000000048
 40
0.2500000000000048
 40
0.375000000000007
 40
0.375000000000007
 40
0.5000000000000093
 40
0.5000000000000093
 40
0.7500000000000047
 40
0.7500000000000047
 40
1.0
 40
1.0
 40
1.0
 40
1.0
 10
59.26369093056803
 20
93.70982843292731
 30
0.0
 10
59.19949559509391
 20
93.71969442728067
 30
0.0
 10
59.10202607290525
 20
93.73497376471146
 30
0.0
 10
58.90764058766338
 20
93.76852915606636
 30
0.0
 10
58.83415656716748
 20
93.78163125370261
 30
0.0
 10
58.67493548598891
 20
93.8113907482518
 30
0.0
 10
58.58889263179689
 20
93.82809466326107
 30
0.0
 10
58.31196062963295
 20
93.88457839560044
 30
0.0
 10
58.09943097389825
 20
93.93146633692662
 30
0.0
 10
57.64859157229264
 20
94.0423139400671
 30
0.0
 10
57.40620596751496
 20
94.107203022868
 30
0.0
 10
57.15466482026321
 20
94.18162798925016
 30
0.0
  0
SPLINE
  5
1F0
330
1F
100
AcDbEntity
  8
0
  6
Continuous
 62
     7
370
    15
100
AcDbSpline
210
0.0
220
0.0
230
1.0
 70
     8
 71
     3
 72
    10
 73
     6
 74
     0
 42
0.00000001
 43
0.00000001
 12
1.0
 22
0.0
 32
0.0
 13
1.0
 23
0.0
 33
0.0
 40
0.0
 40
0.0
 40
0.0
 40
0.0
 40
0.3780963866427928
 40
0.756357150135271
 40
0.9999999999999999
 40
0.9999999999999999
 40
0.9999999999999999
 40
0.9999999999999999
 10
59.33410961119372
 20
125.3491400743246
 30
0.0
 10
59.64726556400424
 20
125.3900263522554
 30
0.0
 10
60.27371361371659
 20
125.4718166833663
 30
0.0
 10
60.95828499390469
 20
125.5097085708419
 30
0.0
 10
61.18519947182395
 20
125.5150517746991
 30
0.0
 10
61.27409763689067
 20
125.5171450788498
 30
0.0
  0
ELLIPSE
  5
1F1
330
1F
100
AcDbEntity
  8
0
  6
Continuous
 62
     7
370
    15
100
AcDbEllipse
 10
54.3394613411
 20
117.4638488874
 30
0.0
 11
1.654506653606632
 21
1.94514150331571
 31
0.0
210
0.0
220
0.0
230
1.0
 40
0.8051687171
 41
0.0
 42
6.283185307179586
  0
ARC
  5
1F2
330
1F
100
AcDbEntity
  8
0
  6
Continuous
 62
     7
370
    15
100
AcDbCircle
 10
61.6941485362
 20
109.5241534526
 30
0.0
 40
16.00000000000001
100
AcDbArc
 50
98.4822165171
 51
253.5177834829
  0
SPLINE
  5
1F3
330
1F
100
AcDbEntity
  8
0
  6
Continuous
 62
     7
370
    15
100
AcDbSpline
210
0.0
220
0.0
230
1.0
 70
     8
 71
     3
 72
     9
 73
     5
 74
     0
 42
0.00000001
 43
0.00000001
 12
1.0
 22
0.0
 32
0.0
 13
1.0
 23
0.0
 33
0.0
 40
0.0
 40
0.0
 40
0.0
 40
0.0
 40
0.2978983376401634
 40
1.0
 40
1.0
 40
1.0
 40
1.0
 10
52.35934497726996
 20
115.7444168815732
 30
0.0
 10
52.39239741920363
 20
115.7386015254396
 30
0.0
 10
52.5033495050578
 20
115.7190802478801
 30
0.0
 10
52.59181839645326
 20
115.6414146653351
 30
0.0
 10
52.65393255216915
 20
115.5868855307222
 30
0.0
  0
ARC
  5
1F4
330
1F
100
AcDbEntity
  8
0
  6
Continuous
 62
     7
370
    15
100
AcDbCircle
 10
61.6941485362
 20
109.5241534526
 30
0.0
 40
20.00000000000001
100
AcDbArc
 50
90.400752391
 51
270.0
  0
ARC
  5
1F5
330
1F
100
AcDbEntity
  8
0
  6
Continuous
 62
     7
370
    15
100
AcDbCircle
 10
61.6941485362
 20
109.5241534526
 30
0.0
 40
20.00000000000001
100
AcDbArc
 50
270.0
 51
47.483245631
  0
LWPOLYLINE
  5
1F6
330
1F
100
AcDbEntity
  8
0
  6
Continuous
 62
     7
370
    15
100
AcDbPolyline
 90
        9
 70
   128
 43
0.0
 10
61.6638140757
 20
131.0903507287
 10
61.6698879651
 20
131.1772114599
 10
61.6757891942
 20
131.2616023237
 10
61.6812379969
 20
131.3395242209
 10
61.6859760569
 20
131.4072816635
 10
61.689778752
 20
131.4616634513
 10
61.6924658041
 20
131.5000898207
 10
61.6939098256
 20
131.5207391048
 10
61.6941485362
 20
131.5241533334
  0
LINE
  5
1F7
330
1F
100
AcDbEntity
  8
0
  6
Continuous
 62
     7
370
    15
100
AcDbLine
 10
66.400496363
 20
130.5906700904
 30
0.0
 11
64.9160487385
 21
130.8978798801
 31
0.0
  0
LINE
  5
1F8
330
1F
100
AcDbEntity
  8
0
  6
Continuous
 62
     7
370
    15
100
AcDbLine
 10
65.5868275364
 20
118.9546634445
 30
0.0
 11
66.400496363
 21
130.5906700904
 31
0.0
  0
LINE
  5
1F9
330
1F
100
AcDbEntity
  8
0
  6
Continuous
 62
     7
370
    15
100
AcDbLine
 10
65.5868275364
 20
118.9546634445
 30
0.0
 11
64.0763487474
 21
118.8896077687
 31
0.0
  0
LINE
  5
1FA
330
1F
100
AcDbEntity
  8
0
  6
Continuous
 62
     7
370
    15
100
AcDbLine
 10
60.8241139137
 20
119.0820786173
 30
0.0
 11
61.6638140757
 21
131.0903507287
 31
0.0
  0
LWPOLYLINE
  5
1FB
330
1F
100
AcDbEntity
  8
0
  6
Continuous
 62
     7
370
    15
100
AcDbPolyline
 90
        9
 70
   128
 43
0.0
 10
60.7987493433
 20
118.7193489636
 10
60.7995939365
 20
118.7314263547
 10
60.8012574532
 20
118.7552160586
 10
60.8036893111
 20
118.7899935061
 10
60.8068156446
 20
118.8347016463
 10
60.810541517
 20
118.8879844735
 10
60.8147535979
 20
118.948220555
 10
60.8193240635
 20
119.0135807732
 10
60.8241139137
 20
119.0820786173
  0
LINE
  5
1FC
330
1F
100
AcDbEntity
  8
0
  6
Continuous
 62
     7
370
    15
100
AcDbLine
 10
60.7252851053
 20
117.66876122
 30
0.0
 11
60.7987493433
 21
118.7193489636
 31
0.0
  0
LINE
  5
1FD
330
1F
100
AcDbEntity
  8
0
  6
Continuous
 62
     7
370
    15
100
AcDbLine
 10
60.7251789345
 20
117.6672422329
 30
0.0
 11
60.7252851053
 21
117.66876122
 31
0.0
  0
CIRCLE
  5
1FE
330
1F
100
AcDbEntity
  8
VERMASSUNG
  6
CENTERX2
100
AcDbCircle
 10
61.6941485362
 20
111.5169501174
 30
0.0
 40
20.0
  0
DIMENSION
  5
1FF
330
1F
100
AcDbEntity
  8
VERMASSUNG
100
AcDbDimension
  2
_D_6
 10
47.5520129124
 20
125.6590857412
 30
0.0
 11
39.5664530656
 21
133.644645588
 31
0.0
 70
   160
  1
%%c<> min. 
 71
     2
 42
-1.0
  3
SLDDIMSTYLE2
100
AcDbAlignedDimension
 13
75.8362841599
 23
97.3748144937
 33
0.0
 14
47.5520129124
 24
125.6590857412
 34
0.0
 50
-45.0
100
AcDbRotatedDimension
  0
DIMENSION
  5
20E
330
1F
100
AcDbEntity
  8
VERMASSUNG
100
AcDbDimension
  2
_D_7
 10
61.6941485362
 20
132.0241534526
 30
0.0
 11
51.4818737949
 21
81.9612082636
 31
0.0
 70
   162
  1
<>
 71
     1
 42
-1.0
  3
SLDDIMSTYLE3
100
AcDb2LineAngularDimension
 13
59.3147585504
 23
93.1966152641
 33
0.0
 14
60.8430973819
 24
115.0528788207
 34
0.0
 15
61.6941485362
 25
87.0241534526
 35
0.0
 16
60.0748105512
 26
80.8517046564
 36
0.0
  0
INSERT
  5
226
330
1F
100
AcDbEntity
  8
VERMASSUNG
100
AcDbBlockReference
  2
SW_CENTERMARKSYMBOL_0
 10
61.6941485362
 20
109.5241534526
 30
0.0
  0
OLE2FRAME
  5
227
330
1F
100
AcDbEntity
  8
0
100
AcDbOle2Frame
 70
     2
  3
Paintbrush-Bild
 10
13.8511154363
 20
38.264191557
 30
0.0
 11
51.6290888628
 21
31.9806341108
 31
0.0
 71
     2
 72
     0
 73
     1
 90
    12928
310
80552BED0767C5B32B40DDAF6807D121434000000000000000006FFBDDFB85D0
310
4940DDAF6807D121434000000000000000006FFBDDFB85D04940416F4BD60AFB
310
3F4000000000000000002BED0767C5B32B40416F4BD60AFB3F40000000000000
310
0000000000000100000000010000010000000100000000000100000000320000
310
D0CF11E0A1B11AE1000000000000000000000000000000003E000300FEFF0900
310
0600000000000000000000000100000001000000000000000010000002000000
310
01000000FEFFFFFF0000000000000000FFFFFFFFFFFFFFFFFFFFFFFFFFFFFFFF
310
FFFFFFFFFFFFFFFFFFFFFFFFFFFFFFFFFFFFFFFFFFFFFFFFFFFFFFFFFFFFFFFF
310
FFFFFFFFFFFFFFFFFFFFFFFFFFFFFFFFFFFFFFFFFFFFFFFFFFFFFFFFFFFFFFFF
310
FFFFFFFFFFFFFFFFFFFFFFFFFFFFFFFFFFFFFFFFFFFFFFFFFFFFFFFFFFFFFFFF
310
FFFFFFFFFFFFFFFFFFFFFFFFFFFFFFFFFFFFFFFFFFFFFFFFFFFFFFFFFFFFFFFF
310
FFFFFFFFFFFFFFFFFFFFFFFFFFFFFFFFFFFFFFFFFFFFFFFFFFFFFFFFFFFFFFFF
310
FFFFFFFFFFFFFFFFFFFFFFFFFFFFFFFFFFFFFFFFFFFFFFFFFFFFFFFFFFFFFFFF
310
FFFFFFFFFFFFFFFFFFFFFFFFFFFFFFFFFFFFFFFFFFFFFFFFFFFFFFFFFFFFFFFF
310
FFFFFFFFFFFFFFFFFFFFFFFFFFFFFFFFFFFFFFFFFFFFFFFFFFFFFFFFFFFFFFFF
310
FFFFFFFFFFFFFFFFFFFFFFFFFFFFFFFFFFFFFFFFFFFFFFFFFFFFFFFFFFFFFFFF
310
FFFFFFFFFFFFFFFFFFFFFFFFFFFFFFFFFFFFFFFFFFFFFFFFFFFFFFFFFFFFFFFF
310
FFFFFFFFFFFFFFFFFFFFFFFFFFFFFFFFFFFFFFFFFFFFFFFFFFFFFFFFFFFFFFFF
310
FFFFFFFFFFFFFFFFFFFFFFFFFFFFFFFFFFFFFFFFFFFFFFFFFFFFFFFFFFFFFFFF
310
FFFFFFFFFFFFFFFFFFFFFFFFFFFFFFFFFFFFFFFFFFFFFFFFFFFFFFFFFFFFFFFF
310
FDFFFFFFFEFFFFFFFEFFFFFFFEFFFFFF05000000060000000700000008000000
310
090000000A0000000B0000000C0000000D0000000E0000000F00000010000000
310
11000000120000001300000014000000150000001600000017000000FEFFFFFF
310
FFFFFFFFFFFFFFFFFFFFFFFFFFFFFFFFFFFFFFFFFFFFFFFFFFFFFFFFFFFFFFFF
310
FFFFFFFFFFFFFFFFFFFFFFFFFFFFFFFFFFFFFFFFFFFFFFFFFFFFFFFFFFFFFFFF
310
FFFFFFFFFFFFFFFFFFFFFFFFFFFFFFFFFFFFFFFFFFFFFFFFFFFFFFFFFFFFFFFF
310
FFFFFFFFFFFFFFFFFFFFFFFFFFFFFFFFFFFFFFFFFFFFFFFFFFFFFFFFFFFFFFFF
310
FFFFFFFFFFFFFFFFFFFFFFFFFFFFFFFFFFFFFFFFFFFFFFFFFFFFFFFFFFFFFFFF
310
FFFFFFFFFFFFFFFFFFFFFFFFFFFFFFFFFFFFFFFFFFFFFFFFFFFFFFFFFFFFFFFF
310
FFFFFFFFFFFFFFFFFFFFFFFFFFFFFFFFFFFFFFFFFFFFFFFFFFFFFFFFFFFFFFFF
310
FFFFFFFFFFFFFFFFFFFFFFFFFFFFFFFFFFFFFFFFFFFFFFFFFFFFFFFFFFFFFFFF
310
FFFFFFFFFFFFFFFFFFFFFFFFFFFFFFFFFFFFFFFFFFFFFFFFFFFFFFFFFFFFFFFF
310
FFFFFFFFFFFFFFFFFFFFFFFFFFFFFFFFFFFFFFFFFFFFFFFFFFFFFFFFFFFFFFFF
310
FFFFFFFFFFFFFFFFFFFFFFFFFFFFFFFFFFFFFFFFFFFFFFFFFFFFFFFFFFFFFFFF
310
FFFFFFFFFFFFFFFFFFFFFFFFFFFFFFFFFFFFFFFFFFFFFFFFFFFFFFFFFFFFFFFF
310
FFFFFFFFFFFFFFFFFFFFFFFFFFFFFFFFFFFFFFFFFFFFFFFFFFFFFFFFFFFFFFFF
310
52006F006F007400200045006E00740072007900000000000000000000000000
310
0000000000000000000000000000000000000000000000000000000000000000
310
16000500FFFFFFFFFFFFFFFF020000000A00030000000000C000000000000046
310
000000000000000000000000100BB5B54542CD0103000000C000000000000000
310
01004F006C006500000000000000000000000000000000000000000000000000
310
0000000000000000000000000000000000000000000000000000000000000000
310
0A000200FFFFFFFFFFFFFFFFFFFFFFFF00000000000000000000000000000000
310
0000000000000000000000000000000000000000000000001400000000000000
310
010043006F006D0070004F0062006A0000000000000000000000000000000000
310
0000000000000000000000000000000000000000000000000000000000000000
310
120002010100000003000000FFFFFFFF00000000000000000000000000000000
310
0000000000000000000000000000000000000000010000004D00000000000000
310
01004F006C006500310030004E00610074006900760065000000000000000000
310
0000000000000000000000000000000000000000000000000000000000000000
310
1A000200FFFFFFFFFFFFFFFFFFFFFFFF00000000000000000000000000000000
310
0000000000000000000000000000000000000000040000002426000000000000
310
FEFFFFFF02000000FEFFFFFFFFFFFFFFFFFFFFFFFFFFFFFFFFFFFFFFFFFFFFFF
310
FFFFFFFFFFFFFFFFFFFFFFFFFFFFFFFFFFFFFFFFFFFFFFFFFFFFFFFFFFFFFFFF
310
FFFFFFFFFFFFFFFFFFFFFFFFFFFFFFFFFFFFFFFFFFFFFFFFFFFFFFFFFFFFFFFF
310
FFFFFFFFFFFFFFFFFFFFFFFFFFFFFFFFFFFFFFFFFFFFFFFFFFFFFFFFFFFFFFFF
310
FFFFFFFFFFFFFFFFFFFFFFFFFFFFFFFFFFFFFFFFFFFFFFFFFFFFFFFFFFFFFFFF
310
FFFFFFFFFFFFFFFFFFFFFFFFFFFFFFFFFFFFFFFFFFFFFFFFFFFFFFFFFFFFFFFF
310
FFFFFFFFFFFFFFFFFFFFFFFFFFFFFFFFFFFFFFFFFFFFFFFFFFFFFFFFFFFFFFFF
310
FFFFFFFFFFFFFFFFFFFFFFFFFFFFFFFFFFFFFFFFFFFFFFFFFFFFFFFFFFFFFFFF
310
FFFFFFFFFFFFFFFFFFFFFFFFFFFFFFFFFFFFFFFFFFFFFFFFFFFFFFFFFFFFFFFF
310
FFFFFFFFFFFFFFFFFFFFFFFFFFFFFFFFFFFFFFFFFFFFFFFFFFFFFFFFFFFFFFFF
310
FFFFFFFFFFFFFFFFFFFFFFFFFFFFFFFFFFFFFFFFFFFFFFFFFFFFFFFFFFFFFFFF
310
FFFFFFFFFFFFFFFFFFFFFFFFFFFFFFFFFFFFFFFFFFFFFFFFFFFFFFFFFFFFFFFF
310
FFFFFFFFFFFFFFFFFFFFFFFFFFFFFFFFFFFFFFFFFFFFFFFFFFFFFFFFFFFFFFFF
310
FFFFFFFFFFFFFFFFFFFFFFFFFFFFFFFFFFFFFFFFFFFFFFFFFFFFFFFFFFFFFFFF
310
FFFFFFFFFFFFFFFFFFFFFFFFFFFFFFFFFFFFFFFFFFFFFFFFFFFFFFFFFFFFFFFF
310
FFFFFFFFFFFFFFFFFFFFFFFFFFFFFFFFFFFFFFFFFFFFFFFFFFFFFFFFFFFFFFFF
310
0100000200000000000000000000000000000000000000000000000000000000
310
0000000000000000000000000000000000000000000000000000000000000000
310
0100FEFF030A0000FFFFFFFF0A00030000000000C00000000000004607000000
310
5042727573680007000000504272757368000700000050427275736800F439B2
310
7100000000000000000000000000000000000000000000000000000000000000
310
0000000000000000000000000000000000000000000000000000000000000000
310
0000000000000000000000000000000000000000000000000000000000000000
310
0000000000000000000000000000000000000000000000000000000000000000
310
0000000000000000000000000000000000000000000000000000000000000000
310
0000000000000000000000000000000000000000000000000000000000000000
310
0000000000000000000000000000000000000000000000000000000000000000
310
0000000000000000000000000000000000000000000000000000000000000000
310
0000000000000000000000000000000000000000000000000000000000000000
310
0000000000000000000000000000000000000000000000000000000000000000
310
0000000000000000000000000000000000000000000000000000000000000000
310
0000000000000000000000000000000000000000000000000000000000000000
310
20260000424D0E260000000000003E00000028000000B40200006E0000000100
310
01000000000000000000130B0000130B00000200000002000000000000FFFFFF
310
FFFFFFFFFFFFFFFFFFFFFFFFFFFFFFFFFFFFFFFFFFFFFFFFFFFFFFFFFFFFFFFF
310
FFFFFFFFFFFFFFFFFFFFFFFFFFFFFFFFFFFFFFFFFFFFFFFFFFFFFFFFFFFFFFFF
310
FFFFFFFFFFFFFFFFFFFFFFFFFFFFFFFFFFFFFFFFFFFFFFFFF000FFFFFFFFFFFF
310
FFFFFFFFFFFFFFFFFFFFFFFFFFFFFFFFFFFFFFFFFFFFFFFFFFFFFFFFFFFFFFFF
310
FFFFFFFFFFFFFFFFFFFFFFFFFFFFFFFFFFFFFFFFFFFFFFFFFFFFFFFFFFFFFFFF
310
FFFFFFFFFFFFFFFFFFFFFFFFFFFFFFFFF000FFFFFFFFFFFFFFFFFFFFFFFFFFFF
310
FFFFFFFFFFFFFFFFFFFFFFFFFFFFFFFFFFFFFFFFFFFFFFFFFFFFFFFFFFFFFFFF
310
FFFFFFFFFFFFFFFFFFFFFFFFFFFFFFFFFFFFFFFFFFFFFFFFFFFFFFFFFFFFFFFF
310
FFFFFFFFFFFFFFFFF000FFFFFFFFFFFFFFFFFFFFFFFFFFFFFFFFFFFFFFFFFFFF
310
FFFFFFFFFFFFFFFFFFFFFFFFFFFFFFFFFFFFFFFFFFFFFFFFFFFFFFFFFFFFFFFF
310
FFFFFFFFFFFFFFFFFFFFFFFFFFFFFFFFFFFFFFFFFFFFFFFFFFFFFFFFFFFFFFFF
310
F000FFFFFFFFFFFFFFFFFFFFFFFFFFFFFFFFFFFFFFFFFFFFFFFFFFFFFFFFFFFF
310
FFFFFFFFFFFFFFFFFFFFFFFFFFFFFFFFFFFFFFFFFFFFFFFFFFFFFFFFFFFFFFFF
310
FFFFFFFFFFFFFFFFFFFFFFFFFFFFFFFFFFFFFFFFFFFFFFFFF000FFFFFFFFFFFF
310
FFFFFFFFFFFFFFFFFFFFFFFFFFFFFFFFFFFFFFFFFFFFFFFFFFFFFFFFFFFFFFFF
310
FFFFFFFFFFFFFFFFFFFFFFFFFFFFFFFFFFFFFFFFFFFFFFFFFFFFFFFFFFFFFFFF
310
FFFFFFFFFFFFFFFFFFFFFFFFFFFFFFFFF000FFFFFFFFFFFFFFFFFFFFFFFFFFFF
310
FFFFFFFFFFFFFFFFFFFFFFFFFFFFFFFFFFFFFFFFFFFFFFFFFFFFFFFFFFFFFFFF
310
FFFFFFFFFFFFFFFFFFFFFFFFFFFFFFFFFFFFFFFFFFFFFFFFFFFFFFFFFFFFFFFF
310
FFFFFFFFFFFFFFFFF000FFFFFFFFFFFFFFFFFFFFFFFFFFFFFFFFFFFFFFFFFFFF
310
FFFFFFFFFFFFFFFFFFFFFFFFFFFFFFFFFFFFFFFFFFFFFFFFFFFFFFFFFFFFFFFF
310
FFFFFFFFFFFFFFFFFFFFFFFFFFFFFFFFFFFFFFFFFFFFFFFFFFFFFFFFFFFFFFFF
310
F000FFFFFFFFFFFFFFFFFFFFFFFFFFFFFFFFFFFFFFFFFFFFFFFFFFFFFFFFFFFF
310
FFFFFFFFFFFFFFFFFFFFFFFFFFFFFFFFFFFFFFFFFFFFFFFFFFFFFFFFFFFFFFFF
310
FFFFFFFFFFFFFFFFFFFFFFFFFFFFFFFFFFFFFFFFFFFFFFFFF000FFFFFFFFFFFF
310
FFFFFFFFFFFFFFFFFFFFFFFFFFFFFFFFFFFFFFFFFFFFFFFFFFFFFFFFFFFFFFFF
310
FFFFFFFFFFFFFFFFFFFFFFFFFFFFFFFFFFFFFFFFFFFFFFFFFFFFFFFFFFFFFFFF
310
FFFFFFFFFFFFFFFFFFFFFFFFFFFFFFFFF000FFFFFFFFFFFFFFFFFFFFFFFFFFFF
310
FFFFFFFFFFFFFFFFFFFFFFFFFFFFFFFFFFFFFFFFFFFFFFFFFFFFFFFFFFFFFFFF
310
FFFFFFFFFFFFFFFFFFFFFFFFFFFFFFFFFFFFFFFFFFFFFFFFFFFFFFFFFFFFFFFF
310
FFFFFFFFFFFFFFFFF000FFFFFFFFFFFFFFFFFFFFFFFFFFFFFFFFFFFFFFFFFFFF
310
FFFFFFFFFFFFFFFFFFFFFFFFFFFFFFFFFFFFFFFFFFFFFFFFFFFFFFFFFFFFFFFF
310
FFFFFFFFFFFFFFFFFFFFFFFFFFFFFFFFFFFFFFFFFFFFFFFFFFFFFFFFFFFFFFFF
310
F000FFFFFFFFFFFFFFFFFFFFFFFFFFFFFFFFFFFFFFFFFFFFFFFFFFFFFFFFFFFF
310
FFFFFFFFFFFFFFFFFFFFFFFFFFFFFFFFFFFFFFFFFFFFFFFFFFFFFFFFFFFFFFFF
310
FFFFFFFFFFFFFFFFFFFFFFFFFFFFFFFFFFFFFFFFFFFFFFFFF000FFFFFFFFFFFF
310
FFFFFFFFFFFFFFFFFFFFFFFFFFFFFFFFFFFFFFFFFFFFFFFFFFFFFFFFFFFFFFFF
310
FFFFFFFFFFFFFFFFFFFFFFFFFFFFFFFFFFFFFFFFFFFFFFFFFFFFFFFFFFFFFFFF
310
FFFFFFFFFFFFFFFFFFFFFFFFFFFFFFFFF000FFFFFFFFFFFFFFFFFFFFFFFFFFFF
310
FFFFFFFFFFFFFFFFFFFFFFFFFFFFFFFFFFFFFFFFFFFFFFFFFFFFFFFFFFFFFFFF
310
FFFFFFFFFFFFFFFFFFFFFFFFFFFFFFFFFFFFFFFFFFFFFFFFFFFFFFFFFFFFFFFF
310
FFFFFFFFFFFFFFFFF000FFFFFFFFFFFFFFFFFFFFFFFFFFFFFFFFFFFFFFFFFFFF
310
FFFFFFFFFFFFFFFFFFFFFFFFFFFFFFFFFFFFFFFFFFFFFFFFFFFFFFFFFFFFFFFF
310
FFFFFFFFFFFFFFFFFFFFFFFFFFFFFFFFFFFFFFFFFFFFFFFFFFFFFFFFFFFFFFFF
310
F000FFFFFFFFFFFFFFFFFFFFFFFFFFFFFFFFFFFFFFFFFFFFFFFFFFFFFFFFFFFF
310
FFFFFFFFFFFFFFFFFFFFFFFFFFFFFFFFFFFFFFFFFFFFFFFFFFFFFFFFFFFFFFFF
310
FFFFFFFFFFFFFFFFFFFFFFFFFFFFFFFFFFFFFFFFFFFFFFFFF000FFFFFFFFFFFF
310
FFFFFFFFFFFFFFFFFFFFFFFFFFFFFFFFFFFFFFFFFFFFFFFFFFFFFFFFFFFFFFFF
310
FFFFFFFFFFFFFFFFFFFFFFFFFFFFFFFFFFFFFFFFFFFFFFFFFFFFFFFFFFFFFFFF
310
FFFFFFFFFFFFFFFFFFFFFFFFFFFFFFFFF000FFFFFFFFFFFFFFFFFFFFFFFFFFFF
310
FFFFFFFFFFFFFFFFFFFFFFFFFFFFFFFFFFFFFFFFFFFFFFFFFFFFFFFFFFFFFFFF
310
FFFFFFFFFFFFFFFFFFFFFFFFFFFFFFFFFFFFFFFFFFFFFFFFFFFFFFFFFFFFFFFF
310
FFFFFFFFFFFFFFFFF000FFFFF80003FFFFFFFFFFFFFFFFFFFFFFFFFFFFFFFFFF
310
FFFFF00007FFFFFFFFFF00007FFFFFF800000000000000007FFFFFFFFFFFFFFF
310
FFFFFFFC001FFFFFFFFFFFFFFC001FFFFFFFFFFFFFFFFFFFFFFFFFFE0007FFFF
310
F000FFFF8000007FFFFFFFF8000FFFFFC0007FFFFF80007FFFFF0000007FFFFF
310
FFF8000007FFFFF800000000000000007FFFFFF0001FFFFFFFFFFFC00001FFFF
310
FFFFFFFFC00001FFFFFFFF000000000003FFFFE000007FFFF000FFFE0000000F
310
FFFFFFF0000FFFFF80007FFFFF80007FFFFC0000001FFFFFFFC0000001FFFFF8
310
00000000000000007FFFFFF0001FFFFFFFFFFE0000003FFFFFFFFFFE0000003F
310
FFFFFF000000000003FFFF0000000FFFF000FFF800000003FFFFFFF00007FFFF
310
80007FFFFF80007FFFF000000007FFFFFF000000003FFFF80000000000000000
310
7FFFFFF0001FFFFFFFFFF80000000FFFFFFFFFF80000000FFFFFFF0000000000
310
03FFFC00000003FFF000FFE000000000FFFFFFF00007FFFF80003FFFFF80007F
310
FFC000000001FFFFFC000000001FFFF800000000000000007FFFFFF0001FFFFF
310
FFFFE000000003FFFFFFFFE000000003FFFFFF000000000003FFF000000000FF
310
F000FF80000000007FFFFFF00007FFFF80003FFFFF80007FFF8000000000FFFF
310
F80000000007FFF800000000000000007FFFFFF0001FFFFFFFFFC000000001FF
310
FFFFFFC000000001FFFFFF000000000003FFC0000000007FF000FF0000000000
310
3FFFFFE00007FFFF00003FFFFF80007FFE00000000003FFFF00000000003FFF8
310
00000000000000007FFFFFF0001FFFFFFFFF8000000000FFFFFFFF8000000000
310
FFFFFF000000000003FF80000000003FF000FE00000000001FFFFFE00003FFFF
310
00003FFFFF80007FFC00000000001FFFE00000000001FFF8000001FFFE000000
310
7FFFFFF0001FFFFFFFFE00000000003FFFFFFE00000000003FFFFF0000000000
310
03FF00000000001FF000FC00000000000FFFFFE00003FFFF00001FFFFF80007F
310
F800000000001FFFC00000000000FFF8000001FFFE0000007FFFFFF0001FFFFF
310
FFFC00000000001FFFFFFC00000000001FFFFF000000000003FE00000000000F
310
F000F8000000000007FFFFE00003FFFF00001FFFFF80007FF800000000000FFF
310
800000000000FFF8000001FFFE0000007FFFFFF0001FFFFFFFF800000000000F
310
FFFFF800000000000FFFFF000000000003FC000000000007F000F80000000000
310
03FFFFC00003FFFE00001FFFFF80007FF0000000000007FF0000000000007FF8
310
000001FFFE0000007FFFFFF0001FFFFFFFF0000000000007FFFFF00000000000
310
07FFFF000000000003F8000000000003F000F0000000000003FFFFC00001FFFE
310
00001FFFFF80007FE0000000000007FE0000000000003FF8000001FFFE000000
310
7FFFFFF0001FFFFFFFF0000000000007FFFFF0000000000007FFFF0000000000
310
03F800001F800003F000E00001FFF00001FFFFC00001FFFE00000FFFFF80007F
310
E00001FFE00003FE00001FFF00003FF8000001FFFE0000007FFFFFF0001FFFFF
310
FFE000003E000003FFFFE000003E000003FFFF000000000003F00001FFF80001
310
F000E00007FFFC0001FFFFC00001FFFE00000FFFFF80007FC0000FFFFC0003FC
310
0000FFFFC0001FF8000001FFFE0000007FFFFFF0001FFFFFFFC00003FFE00001
310
FFFFC00003FFE00001FFFF0001FFFFFFFFF00007FFFE0001F000E0000FFFFF00
310
00FFFF800001FFFC00000FFFFF80007FC0001FFFFE0001FC0001FFFFE0001FF8
310
000001FFFE0000007FFFFFF0001FFFFFFF80000FFFF80000FFFF80000FFFF800
310
00FFFF0003FFFFFFFFE0000FFFFF8000F000C0003FFFFF8000FFFF800000FFFC
310
000007FFFF80007F80003FFFFF0001FC0003FFFFF0001FF8000001FFFE000000
310
7FFFFFF0001FFFFFFF80003FFFFE0000FFFF80003FFFFE0000FFFF0003FFFFFF
310
FFE0003FFFFF8000F000C0003FFFFF8000FFFF800000FFFC000007FFFF80007F
310
80007FFFFF8001F80007FFFFF8000FF8000001FFFE0000007FFFFFF0001FFFFF
310
FF00007FFFFF00007FFF00007FFFFF00007FFF0003FFFFFFFFE0003FFFFFC000
310
F000C0007FFFFFC000FFFF000000FFFC000007FFFF80007F8000FFFFFF8000F8
310
000FFFFFF8000FF8000001FFFE0000007FFFFFF0001FFFFFFF0000FFFFFF8000
310
7FFF0000FFFFFF80007FFF0003FFFFFFFFC0007FFFFFC00070008000FFFFFFC0
310
00FFFF000000FFF8000007FFFF80007F8000FFFFFF8000F8000FFFFFF8000FF8
310
000001FFFE0000007FFFFFF0001FFFFFFE0001FFFFFFC0003FFE0001FFFFFFC0
310
003FFF0003FFFFFFFFC0007FFFFFE00070008000FFFFFFC0007FFF0000007FF8
310
000003FFFF80007F0001FFFFFF8000F8000FFFFFF8000FF8000001FFFE000000
310
7FFFFFF0001FFFFFFE0001FFFFFFC0003FFE0001FFFFFFC0003FFF0003FFFFFF
310
FFC000FFFFFFE00070008000FFFFFFC0007FFF0000007FF8000003FFFF80007F
310
0001FFFFFF8000F8001FFFFFF8000FF8000001FFFE0000007FFFFFF0001FFFFF
310
FE0003FFFFFFE0003FFE0003FFFFFFE0003FFF0003FFFFFFFFC000FFFFFFE000
310
70008000FFFFFFC0007FFE0000007FF8000003FFFF80007F0001FFFFFF8000F0
310
001FFFFFF8000FF8000001FFFE0000007FFFFFF0001FFFFFFC0003FFFFFFE000
310
1FFC0003FFFFFFE0001FFF0003FFFFFFFFC000FFFFFFC00070008000FFFFFF80
310
007FFE0000007FF0000003FFFF80007F0001FFFFFF0000F0001FFFFFF8000FF8
310
000001FFFE0000007FFFFFF0001FFFFFFC0007FFFFFFF0001FFC0007FFFFFFF0
310
001FFF0003FFFFFFFFC000FFFFFFC00070008001FFFFFF0000FFFE0000003FF0
310
000001FFFF80007F0001FFFFFF0000F8001FFFFFF0000FF8000001FFFE000000
310
7FFFFFF0001FFFFFFC0007FFFFFFF0001FFC0007FFFFFFF0001FFF0003FFFFFF
310
FFC001FFFFFF80007000FFFFFFFFFE0000FFFE0008003FF0008001FFFF80007F
310
FFFFFFFFFC0000FFFFFFFFFFE0000FF8000001FFFE0000007FFFFFF0001FFFFF
310
F8000FFFFFFFF8000FF8000FFFFFFFF8000FFF0003FFFFFFFFFFFFFFFFFF0000
310
7000FFFFFFFFFC0000FFFC0008003FF0008001FFFF80007FFFFFFFFFF80001FF
310
FFFFFFFF80000FF8000001FFFE0000007FFFFFF0001FFFFFF8000FFFFFFFF800
310
0FF8000FFFFFFFF8000FFF0003FFFFFFFFFFFFFFFFFE0000F000FFFFFFFFE000
310
00FFFC000C003FE000C001FFFF80007FFFFFFFFFC00001FFFFFFFFFE00001FF8
310
000001FFFE0000007FFFFFF0001FFFFFF8000FFFFFFFF8000FF8000FFFFFFFF8
310
000FFF0003FFFFFFFFFFFFFFFFF00000F000FFFFFFFE000001FFFC000C001FE0
310
00C000FFFF80007FFFFFFFFE000001FFFFFFFFE000001FF80FFFFFFFFFFFFFC0
310
7FFFFFF0001FFFFFF8000FFFFFFFF8000FF8000FFFFFFFF8000FFF0003FFFFFF
310
FFFFFFFFFF800000F000FFFFFFC0000001FFFC001C001FE001C000FFFF80007F
310
FFFFFF80000003FFFFFFF80000001FF80FFFFFFFFFFFFFC07FFFFFF0001FFFFF
310
F8001FFFFFFFFC000FF8001FFFFFFFFC000FFF0003FFFFFFFFFFFFFFF0000001
310
F000FFFFF800000001FFF8001C001FE001C000FFFF80007FFFFFF800000003FF
310
FFFF800000003FF80FFFFFFFFFFFFFC07FFFFFF0001FFFFFF8001FFFFFFFFC00
310
0FF8001FFFFFFFFC000FFF0003FFFFFFFFFFFFFE00000001F000FFFFC0000000
310
03FFF8001E001FC001E000FFFF80007FFFFF8000000007FFFFFC000000003FF8
310
0FFFFFFFFFFFFFC07FFFFFF0001FFFFFF8001FFFFFFFFC000FF8001FFFFFFFFC
310
000FFF0003FFFFFFFFFFFFE000000003F000FFFE0000000007FFF8001E000FC0
310
01E0007FFF80007FFFFE0000000007FFFFE0000000007FF80FFFFFFFFFFFFFC0
310
7FFFFFF0001FFFFFF0001FFFFFFFFC0007F0001FFFFFFFFC0007FF0003FFFFFF
310
FFFFFF0000000003F000FFF80000000007FFF8001E000FC003E0007FFF80007F
310
FFF0000000000FFFFF8000000000FFF80FFFFFFFFFFFFFC07FFFFFF0001FFFFF
310
F0001FFFFFFFFC0007F0001FFFFFFFFC0007FF0003FFFFFFFFFFFC0000000007
310
F000FFE0000000000FFFF0003E000FC003E0007FFF80007FFFC0000000001FFF
310
FE0000000001FFF80FFFFFFFFFFFFFC07FFFFFF0001FFFFFF0001FFFFFFFFC00
310
07F0001FFFFFFFFC0007FF0003FFFFFFFFFFF0000000000FF000FFC000000000
310
1FFFF0003F000F8003F0003FFF80007FFF80000000003FFFF80000000003FFF8
310
0FFFFFFFFFFFFFC07FFFFFF0001FFFFFF0001FFFFFFFFC0007F0001FFFFFFFFC
310
0007FF0003FFFFFFFFFFE0000000001FF000FF00000000007FFFF0003F000780
310
03F0003FFF80007FFF00000000007FFFF00000000007FFF80FFFFFFFFFFFFFC0
310
7FFFFFF0001FFFFFF0001FFFFFFFFC0007F0001FFFFFFFFC0007FF0003FFFFFF
310
FFFF80000000007FF000FE0000000000FFFFE0003F00078007F0003FFF80007F
310
FE0000000001FFFFE0000000001FFFF80FFFFFFFFFFFFFC07FFFFFF0001FFFFF
310
F0001FFFFFFFFC0007F0001FFFFFFFFC0007FF0003FFFFFFFFFF0000000000FF
310
F000FC0000000003FFFFE0007F00078007F0003FFF80007FFC0000000007FFFF
310
C0000000007FFFF80FFFFFFFFFFFFFC07FFFFFF0001FFFFFF8001FFFFFFFFC00
310
0FF8001FFFFFFFFC000FFF0003FFFFFFFFFE0000000003FFF000FC000000000F
310
FFFFE0007F80070007F8001FFF80007FF8000000001FFFFF8000000001FFFFF8
310
0FFFFFFFFFFFFFC07FFFFFF0001FFFFFF8001FFFFFFFFC000FF8001FFFFFFFFC
310
000FFF0003FFFFFFFFFC000000000FFFF000F8000000007FFFFFE0007F800700
310
07F8001FFF80007FF000000000FFFFFF800000000FFFFFF80FFFFFFFFFFFFFC0
310
7FFFFFF0001FFFFFF8000FFFFFFFF8000FF8000FFFFFFFF8000FFF0003FFFFFF
310
FFFC000000007FFFF000F800000007FFFFFFC0007F8003000FF8001FFF80007F
310
F000000007FFFFFF000000007FFFFFF80FFFFFFFFFFFFFC07FFFFFF0001FFFFF
310
F8000FFFFFFFF8000FF8000FFFFFFFF8000FFF0003FFFFFFFFF80000000FFFFF
310
F000F0000000FFFFFFFFC000FF8003000FF8001FFF80007FE0000000FFFFFFFF
310
0000000FFFFFFFF8000001FFFE0000007FFFFFF0001FFFFFF8000FFFFFFFF800
310
0FF8000FFFFFFFF8000FFF0003FFFFFFFFF8000000FFFFFFF000F000000FFFFF
310
FFFFC000FFC002000FF8000FFF80007FE000001FFFFFFFFE000001FFFFFFFFF8
310
000001FFFE0000007FFFFFF0001FFFFFF8000FFFFFFFF8000FF8000FFFFFFFF8
310
000FFF0003FFFFFFFFF000001FFFFFFFF000E00000FFFFFFFFFFC000FFC00200
310
0FFC000FFF80007FE00001FFFFFFFFFE00001FFFFFFFFFF8000001FFFE000000
310
7FFFFFF0001FFFFFFC000FFFFFFFF8001FFC000FFFFFFFF8001FFF0003FFFFFF
310
FFF00001FFFFFFFFF000E00007FFFFFFFFFF8000FFC000001FFC000FFF80007F
310
C0000FFFFFFFFFFE0000FFFFFFFFFFF8000001FFFE0000007FFFFFF0001FFFFF
310
FC0007FFFFFFF0001FFC0007FFFFFFF0001FFF0003FFFFFFFFF00007FFFFFFFF
310
F000E0001FFFFFFFFFFF8000FFC000001FFC000FFF80007FC0003FFFFFFFFFFE
310
0001FFFFFFFFFFF8000001FFFE0000007FFFFFF0001FFFFFFC0007FFFFFFF000
310
1FFC0007FFFFFFF0001FFF0003FFFFFFFFF0001FFFFFFFFFF000E0003FFFFF00
310
03FF8001FFE000001FFC0007FF80007FC0007FFFFF0007FC0003FFFFF0003FF8
310
000001FFFE0000007FFFFFF0001FFFFFFC0003FFFFFFE0001FFC0003FFFFFFE0
310
001FFF0003FFFFFFFFF0003FFFFFFFFFF000E0003FFFFF0001FF8001FFE00000
310
1FFE0007FF80007FC0007FFFFE0003FC0007FFFFE0003FF8000001FFFE000000
310
7FFFFFF0001FFFFFFE0003FFFFFFE0003FFE0003FFFFFFE0003FFF0003FFFFFF
310
FFF0003FFFFF8001F000E0003FFFFF0001FF0001FFE000001FFE0007FF80007F
310
C0007FFFFE0003FC0007FFFFE0003FF8000001FFFE0000007FFFFFF0001FFFFF
310
FE0001FFFFFFC0003FFE0001FFFFFFC0003FFF0003FFFFFFFFF0003FFFFF0001
310
F000E0003FFFFF0003FF0001FFE000003FFE0007FF80007FC0007FFFFE0003FC
310
0007FFFFE0003FF8000001FFFE0000007FFFFFF0001FFFFFFF0001FFFFFFC000
310
7FFF0001FFFFFFC0007FFF0003FFFFFFFFF0003FFFFF0001F000E0003FFFFE00
310
03FF0003FFF000003FFE0003FF80007FC0007FFFFC0003FE0007FFFFE0003FF8
310
000001FFFE0000007FFFFFF0001FFFFFFF0000FFFFFF80007FFF0000FFFFFF80
310
007FFF0003FFFFFFFFF0003FFFFF0001F000E0003FFFFE0003FF0003FFF00000
310
3FFF0003FF80007FC0007FFFFC0007FE0007FFFFC0003FF8000001FFFE000000
310
7FFFFFF0001FFFFFFF80007FFFFF0000FFFF80007FFFFF0000FFFF0003FFFFFF
310
FFF0003FFFFF0003F000E0003FFFFC0003FE0003FFF000003FFF0003FF80007F
310
E0003FFFF80007FE0003FFFFC0007FF8000001FFFE0000007FFFFFF0001FFFFF
310
FF80003FFFFE0000FFFF80003FFFFE0000FFFF0003FFFFFFFFF0001FFFFE0003
310
F000F0001FFFF80003FE0003FFF000007FFF0001FF80007FE0003FFFF00007FE
310
0001FFFF80007FF8000001FFFE0000007FFFFFF0001FFFFFFFC0000FFFF80001
310
FFFFC0000FFFF80001FFFF0003FFFFFFFFF0001FFFFC0003F000F0000FFFF000
310
07FE0007FFF800007FFF0001FF80007FE0001FFFE00007FF0000FFFE00007FF8
310
000001FFFE0000007FFFFFF0001FFFFFFFC00003FFE00001FFFFC00003FFE000
310
01FFFF0003FFFFFFFFF8000FFFF80003F000F00003FFC00007FC0007FFF80000
310
7FFF8001FF80007FF00007FF80000FFF00007FF80000FFF8000001FFFE000000
310
7F80000000000001FFE000003E000003FFFFE000003E000003FFFF0003FFFFFF
310
FFF80003FFE00007F000F800000000000FFC0007FFF800007FFF8001FF80007F
310
F000000000000FFF000000000000FFF8000001FFFE0000007F80000000000001
310
FFF0000000000007FFFFF0000000000007FFFF0003FFFFFFFFFC00007E000007
310
F000F800000000000FFC0007FFF80000FFFF8000FF80007FF800000000001FFF
310
800000000001FFF8000001FFFE0000007F80000000000001FFF800000000000F
310
FFFFF800000000000FFFFF0003FFFFFFFFFC00000000000FF000FC0000000000
310
1FFC0007FFFC0000FFFF8000FF80007FF800000000003FFFC00000000001FFF8
310
000001FFFE0000007F80000000000001FFF800000000000FFFFFF80000000000
310
0FFFFF0003FFFFFFFFFE00000000001FF000FE00000000003FF8000FFFFC0000
310
FFFF8000FF80007FFC00000000003FFFC00000000003FFF8000001FFFE000000
310
7F80000000000001FFFC00000000001FFFFFFC00000000001FFFFF0003FFFFFF
310
FFFF00000000001FF000FF00000000003FF8000FFFFC0000FFFFC000FF80007F
310
FE00000000007FFFE00000000007FFF8000001FFFE0000007F80000000000001
310
FFFE00000000003FFFFFFE00000000003FFFFF0003FFFFFFFFFF80000000003F
310
F000FF80000000007FF8000FFFFC0001FFFFC0007F80007FFF0000000000FFFF
310
F0000000000FFFF800000000000000007F80000000000001FFFF8000000000FF
310
FFFFFF8000000000FFFFFF0003FFFFFFFFFFC0000000007FF000FFC000000000
310
FFF8000FFFFE0001FFFFC0007F80007FFF8000000001FFFFF8000000001FFFF8
310
00000000000000007F80000000000001FFFFC000000001FFFFFFFFC000000001
310
FFFFFF0003FFFFFFFFFFE000000000FFF000FFE000000003FFF0001FFFFE0001
310
FFFFC0007F80007FFFC000000007FFFFFE000000003FFFF80000000000000000
310
7F80000000000001FFFFE000000003FFFFFFFFE000000003FFFFFF0003FFFFFF
310
FFFFF000000003FFF000FFF80000000FFFF0001FFFFE0001FFFFE0007F80007F
310
FFF00000000FFFFFFF00000000FFFFF800000000000000007F80000000000001
310
FFFFF80000000FFFFFFFFFF80000000FFFFFFF0003FFFFFFFFFFFC0000000FFF
310
F000FFFE0000003FFFF0001FFFFE0003FFFFE0003F80007FFFFC0000003FFFFF
310
FFC0000003FFFFF800000000000000007F80000000000001FFFFFE0000003FFF
310
FFFFFFFE0000003FFFFFFF0003FFFFFFFFFFFF0000003FFFF000FFFF800000FF
310
FFF0001FFFFF0003FFFFE0003F80007FFFFF000001FFFFFFFFF800001FFFFFF8
310
00000000000000007F80000000000001FFFFFFC00001FFFFFFFFFFFFC00001FF
310
FFFFFF0003FFFFFFFFFFFFC00000FFFFF000FFFFF8000FFFFFFFFFFFFFFFFFFF
310
FFFFFFFFFFFFFFFFFFFFF0001FFFFFFFFFFF0000FFFFFFF80000000000000000
310
7FFFFFFFFFFFFFFFFFFFFFFC001FFFFFFFFFFFFFFC001FFFFFFFFFFFFFFFFFFF
310
FFFFFFFC001FFFFFF000FFFFFFFFFFFFFFFFFFFFFFFFFFFFFFFFFFFFFFFFFFFF
310
FFFFFFFFFFFFFFFFFFFFFFFFFFFFFFFFFFFFFFFFFFFFFFFFFFFFFFFFFFFFFFFF
310
FFFFFFFFFFFFFFFFFFFFFFFFFFFFFFFFFFFFFFFFFFFFFFFFFFFFFFFFFFFFFFFF
310
F000FFFFFFFFFFFFFFFFFFFFFFFFFFFFFFFFFFFFFFFFFFFFFFFFFFFFFFFFFFFF
310
FFFFFFFFFFFFFFFFFFFFFFFFFFFFFFFFFFFFFFFFFFFFFFFFFFFFFFFFFFFFFFFF
310
FFFFFFFFFFFFFFFFFFFFFFFFFFFFFFFFFFFFFFFFFFFFFFFFF000FFFFFFFFFFFF
310
FFFFFFFFFFFFFFFFFFFFFFFFFFFFFFFFFFFFFFFFFFFFFFFFFFFFFFFFFFFFFFFF
310
FFFFFFFFFFFFFFFFFFFFFFFFFFFFFFFFFFFFFFFFFFFFFFFFFFFFFFFFFFFFFFFF
310
FFFFFFFFFFFFFFFFFFFFFFFFFFFFFFFFF000FFFFFFFFFFFFFFFFFFFFFFFFFFFF
310
FFFFFFFFFFFFFFFFFFFFFFFFFFFFFFFFFFFFFFFFFFFFFFFFFFFFFFFFFFFFFFFF
310
FFFFFFFFFFFFFFFFFFFFFFFFFFFFFFFFFFFFFFFFFFFFFFFFFFFFFFFFFFFFFFFF
310
FFFFFFFFFFFFFFFFF000FFFFFFFFFFFFFFFFFFFFFFFFFFFFFFFFFFFFFFFFFFFF
310
FFFFFFFFFFFFFFFFFFFFFFFFFFFFFFFFFFFFFFFFFFFFFFFFFFFFFFFFFFFFFFFF
310
FFFFFFFFFFFFFFFFFFFFFFFFFFFFFFFFFFFFFFFFFFFFFFFFFFFFFFFFFFFFFFFF
310
F000FFFFFFFFFFFFFFFFFFFFFFFFFFFFFFFFFFFFFFFFFFFFFFFFFFFFFFFFFFFF
310
FFFFFFFFFFFFFFFFFFFFFFFFFFFFFFFFFFFFFFFFFFFFFFFFFFFFFFFFFFFFFFFF
310
FFFFFFFFFFFFFFFFFFFFFFFFFFFFFFFFFFFFFFFFFFFFFFFFF000FFFFFFFFFFFF
310
FFFFFFFFFFFFFFFFFFFFFFFFFFFFFFFFFFFFFFFFFFFFFFFFFFFFFFFFFFFFFFFF
310
FFFFFFFFFFFFFFFFFFFFFFFFFFFFFFFFFFFFFFFFFFFFFFFFFFFFFFFFFFFFFFFF
310
FFFFFFFFFFFFFFFFFFFFFFFFFFFFFFFFF000FFFFFFFFFFFFFFFFFFFFFFFFFFFF
310
FFFFFFFFFFFFFFFFFFFFFFFFFFFFFFFFFFFFFFFFFFFFFFFFFFFFFFFFFFFFFFFF
310
FFFFFFFFFFFFFFFFFFFFFFFFFFFFFFFFFFFFFFFFFFFFFFFFFFFFFFFFFFFFFFFF
310
FFFFFFFFFFFFFFFFF000FFFFFFFFFFFFFFFFFFFFFFFFFFFFFFFFFFFFFFFFFFFF
310
FFFFFFFFFFFFFFFFFFFFFFFFFFFFFFFFFFFFFFFFFFFFFFFFFFFFFFFFFFFFFFFF
310
FFFFFFFFFFFFFFFFFFFFFFFFFFFFFFFFFFFFFFFFFFFFFFFFFFFFFFFFFFFFFFFF
310
F000FFFFFFFFFFFFFFFFFFFFFFFFFFFFFFFFFFFFFFFFFFFFFFFFFFFFFFFFFFFF
310
FFFFFFFFFFFFFFFFFFFFFFFFFFFFFFFFFFFFFFFFFFFFFFFFFFFFFFFFFFFFFFFF
310
FFFFFFFFFFFFFFFFFFFFFFFFFFFFFFFFFFFFFFFFFFFFFFFFF000FFFFFFFFFFFF
310
FFFFFFFFFFFFFFFFFFFFFFFFFFFFFFFFFFFFFFFFFFFFFFFFFFFFFFFFFFFFFFFF
310
FFFFFFFFFFFFFFFFFFFFFFFFFFFFFFFFFFFFFFFFFFFFFFFFFFFFFFFFFFFFFFFF
310
FFFFFFFFFFFFFFFFFFFFFFFFFFFFFFFFF000FFFFFFFFFFFFFFFFFFFFFFFFFFFF
310
FFFFFFFFFFFFFFFFFFFFFFFFFFFFFFFFFFFFFFFFFFFFFFFFFFFFFFFFFFFFFFFF
310
FFFFFFFFFFFFFFFFFFFFFFFFFFFFFFFFFFFFFFFFFFFFFFFFFFFFFFFFFFFFFFFF
310
FFFFFFFFFFFFFFFFF000FFFFFFFFFFFFFFFFFFFFFFFFFFFFFFFFFFFFFFFFFFFF
310
FFFFFFFFFFFFFFFFFFFFFFFFFFFFFFFFFFFFFFFFFFFFFFFFFFFFFFFFFFFFFFFF
310
FFFFFFFFFFFFFFFFFFFFFFFFFFFFFFFFFFFFFFFFFFFFFFFFFFFFFFFFFFFFFFFF
310
F000FFFFFFFFFFFFFFFFFFFFFFFFFFFFFFFFFFFFFFFFFFFFFFFFFFFFFFFFFFFF
310
FFFFFFFFFFFFFFFFFFFFFFFFFFFFFFFFFFFFFFFFFFFFFFFFFFFFFFFFFFFFFFFF
310
FFFFFFFFFFFFFFFFFFFFFFFFFFFFFFFFFFFFFFFFFFFFFFFFF000FFFFFFFFFFFF
310
FFFFFFFFFFFFFFFFFFFFFFFFFFFFFFFFFFFFFFFFFFFFFFFFFFFFFFFFFFFFFFFF
310
FFFFFFFFFFFFFFFFFFFFFFFFFFFFFFFFFFFFFFFFFFFFFFFFFFFFFFFFFFFFFFFF
310
FFFFFFFFFFFFFFFFFFFFFFFFFFFFFFFFF000FFFFFFFFFFFFFFFFFFFFFFFFFFFF
310
FFFFFFFFFFFFFFFFFFFFFFFFFFFFFFFFFFFFFFFFFFFFFFFFFFFFFFFFFFFFFFFF
310
FFFFFFFFFFFFFFFFFFFFFFFFFFFFFFFFFFFFFFFFFFFFFFFFFFFFFFFFFFFFFFFF
310
FFFFFFFFFFFFFFFFF000FFFFFFFFFFFFFFFFFFFFFFFFFFFFFFFFFFFFFFFFFFFF
310
FFFFFFFFFFFFFFFFFFFFFFFFFFFFFFFFFFFFFFFFFFFFFFFFFFFFFFFFFFFFFFFF
310
FFFFFFFFFFFFFFFFFFFFFFFFFFFFFFFFFFFFFFFFFFFFFFFFFFFFFFFFFFFFFFFF
310
F000FFFFFFFFFFFFFFFFFFFFFFFFFFFFFFFFFFFFFFFFFFFFFFFFFFFFFFFFFFFF
310
FFFFFFFFFFFFFFFFFFFFFFFFFFFFFFFFFFFFFFFFFFFFFFFFFFFFFFFFFFFFFFFF
310
FFFFFFFFFFFFFFFFFFFFFFFFFFFFFFFFFFFFFFFFFFFFFFFFF000FFFFFFFFFFFF
310
FFFFFFFFFFFFFFFFFFFFFFFFFFFFFFFFFFFFFFFFFFFFFFFFFFFFFFFFFFFFFFFF
310
FFFFFFFFFFFFFFFFFFFFFFFFFFFFFFFFFFFFFFFFFFFFFFFFFFFFFFFFFFFFFFFF
310
FFFFFFFFFFFFFFFFFFFFFFFFFFFFFFFFF000FFFFFFFFFFFFFFFFFFFFFFFFFFFF
310
FFFFFFFFFFFFFFFFFFFFFFFFFFFFFFFFFFFFFFFFFFFFFFFFFFFFFFFFFFFFFFFF
310
FFFFFFFFFFFFFFFFFFFFFFFFFFFFFFFFFFFFFFFFFFFFFFFFFFFFFFFFFFFFFFFF
310
FFFFFFFFFFFFFFFFF000FFFFFFFFFFFFFFFFFFFFFFFFFFFFFFFFFFFFFFFFFFFF
310
FFFFFFFFFFFFFFFFFFFFFFFFFFFFFFFFFFFFFFFFFFFFFFFFFFFFFFFFFFFFFFFF
310
FFFFFFFFFFFFFFFFFFFFFFFFFFFFFFFFFFFFFFFFFFFFFFFFFFFFFFFFFFFFFFFF
310
F000FFFFFFFFFFFFFFFFFFFFFFFFFFFFFFFFFFFFFFFFFFFFFFFFFFFFFFFFFFFF
310
FFFFFFFFFFFFFFFFFFFFFFFFFFFFFFFFFFFFFFFFFFFFFFFFFFFFFFFFFFFFFFFF
310
FFFFFFFFFFFFFFFFFFFFFFFFFFFFFFFFFFFFFFFFFFFFFFFFF000FFFFFFFFFFFF
310
FFFFFFFFFFFFFFFFFFFFFFFFFFFFFFFFFFFFFFFFFFFFFFFFFFFFFFFFFFFFFFFF
310
FFFFFFFFFFFFFFFFFFFFFFFFFFFFFFFFFFFFFFFFFFFFFFFFFFFFFFFFFFFFFFFF
310
FFFFFFFFFFFFFFFFFFFFFFFFFFFFFFFFF0000000000000000000000000000000
310
0000000000000000000000000000000000000000000000000000000000000000
310
0000000000000000000000000000000000000000000000000000000000000000
310
0000000000000000000000000000000000000000000000000000000000000000
310
0000000000000000000000000000000000000000000000000000000000000000
310
0000000000000000000000000000000000000000000000000000000000000000
310
0000000000000000000000000000000000000000000000000000000000000000
310
0000000000000000000000000000000000000000000000000000000000000000
310
0000000000000000000000000000000000000000000000000000000000000000
310
0000000000000000000000000000000000000000000000000000000000000000
310
0000000000000000000000000000000000000000000000000000000000000000
310
0000000000000000000000000000000000000000000000000000000000000000
310
0000000000000000000000000000000000000000000000000000000000000000
310
0000000000000000000000000000000000000000000000000000000000000000
310
0000000000000000000000000000000000000000000000000000000000000000
310
0000000000000000000000000000000000000000000000000000000000000000
  1
OLE
  0
ENDSEC
  0
SECTION
  2
OBJECTS
  0
DICTIONARY
  5
C
330
0
100
AcDbDictionary
281
     1
  3
ACAD_GROUP
350
D
  3
ACAD_LAYOUT
350
1A
  3
ACAD_MLINESTYLE
350
17
  3
ACAD_PLOTSETTINGS
350
19
  3
ACAD_PLOTSTYLENAME
350
E
  0
DICTIONARY
  5
D
102
{ACAD_REACTORS
330
C
102
}
330
C
100
AcDbDictionary
281
     1
  0
DICTIONARY
  5
1A
102
{ACAD_REACTORS
330
C
102
}
330
C
100
AcDbDictionary
281
     1
  3
Layout1
350
1E
  3
Layout2
350
26
  3
Model
350
22
  0
DICTIONARY
  5
17
102
{ACAD_REACTORS
330
C
102
}
330
C
100
AcDbDictionary
281
     1
  3
Standard
350
18
  0
DICTIONARY
  5
19
102
{ACAD_REACTORS
330
C
102
}
330
C
100
AcDbDictionary
281
     1
  0
ACDBDICTIONARYWDFLT
  5
E
102
{ACAD_REACTORS
330
C
102
}
330
C
100
AcDbDictionary
281
     1
  3
Normal
350
F
100
AcDbDictionaryWithDefault
340
F
  0
LAYOUT
  5
1E
102
{ACAD_REACTORS
330
1A
102
}
330
1A
100
AcDbPlotSettings
  1

  2
none_device
  4

  6

 40
0.0
 41
0.0
 42
0.0
 43
0.0
 44
0.0
 45
0.0
 46
0.0
 47
0.0
 48
0.0
 49
0.0
140
0.0
141
0.0
142
1.0
143
1.0
 70
   688
 72
     0
 73
     0
 74
     5
  7

 75
    16
147
1.0
148
0.0
149
0.0
100
AcDbLayout
  1
Layout1
 70
     1
 71
     1
 10
0.0
 20
0.0
 11
420.0
 21
297.0
 12
0.0
 22
0.0
 32
0.0
 14
1.0000000000E+20
 24
1.0000000000E+20
 34
1.0000000000E+20
 15
-1.0000000000E+20
 25
-1.0000000000E+20
 35
-1.0000000000E+20
146
0.0
 13
0.0
 23
0.0
 33
0.0
 16
1.0
 26
0.0
 36
0.0
 17
0.0
 27
1.0
 37
0.0
 76
     0
330
1B
  0
LAYOUT
  5
26
102
{ACAD_REACTORS
330
1A
102
}
330
1A
100
AcDbPlotSettings
  1

  2
none_device
  4

  6

 40
0.0
 41
0.0
 42
0.0
 43
0.0
 44
0.0
 45
0.0
 46
0.0
 47
0.0
 48
0.0
 49
0.0
140
0.0
141
0.0
142
1.0
143
1.0
 70
   688
 72
     0
 73
     0
 74
     5
  7

 75
    16
147
1.0
148
0.0
149
0.0
100
AcDbLayout
  1
Layout2
 70
     1
 71
     2
 10
0.0
 20
0.0
 11
0.0
 21
0.0
 12
0.0
 22
0.0
 32
0.0
 14
0.0
 24
0.0
 34
0.0
 15
0.0
 25
0.0
 35
0.0
146
0.0
 13
0.0
 23
0.0
 33
0.0
 16
1.0
 26
0.0
 36
0.0
 17
0.0
 27
1.0
 37
0.0
 76
     0
330
23
  0
LAYOUT
  5
22
102
{ACAD_REACTORS
330
1A
102
}
330
1A
100
AcDbPlotSettings
  1

  2
none_device
  4

  6

 40
0.0
 41
0.0
 42
0.0
 43
0.0
 44
0.0
 45
0.0
 46
0.0
 47
0.0
 48
0.0
 49
0.0
140
0.0
141
0.0
142
1.0
143
1.0
 70
  1712
 72
     0
 73
     0
 74
     0
  7

 75
     0
147
1.0
148
0.0
149
0.0
100
AcDbLayout
  1
Model
 70
     1
 71
     0
 10
0.0
 20
0.0
 11
297.0
 21
210.0
 12
0.0
 22
0.0
 32
0.0
 14
0.0
 24
0.0
 34
0.0
 15
297.0
 25
210.0
 35
0.0
146
0.0
 13
0.0
 23
0.0
 33
0.0
 16
1.0
 26
0.0
 36
0.0
 17
0.0
 27
1.0
 37
0.0
 76
     0
330
1F
331
29
  0
MLINESTYLE
  5
18
102
{ACAD_REACTORS
330
17
102
}
330
17
100
AcDbMlineStyle
  2
Standard
 70
     0
  3

 62
   256
 51
90.0
 52
90.0
 71
     2
 49
0.5
 62
   256
  6
BYLAYER
 49
-0.5
 62
   256
  6
BYLAYER
  0
ACDBPLACEHOLDER
  5
F
102
{ACAD_REACTORS
330
E
102
}
330
E
  0
ENDSEC
  0
EOF
